  0
SECTION
  2
HEADER
  9
$ACADVER
  1
AC1015
  9
$ACADMAINTVER
 70
    20
  9
$DWGCODEPAGE
  3
ANSI_950
  9
$INSBASE
 10
0.0
 20
0.0
 30
0.0
  9
$EXTMIN
 10
1.000000000000000E+20
 20
1.000000000000000E+20
 30
1.000000000000000E+20
  9
$EXTMAX
 10
-1.000000000000000E+20
 20
-1.000000000000000E+20
 30
-1.000000000000000E+20
  9
$LIMMIN
 10
0.0
 20
0.0
  9
$LIMMAX
 10
420.0
 20
297.0
  9
$ORTHOMODE
 70
     1
  9
$REGENMODE
 70
     1
  9
$FILLMODE
 70
     1
  9
$QTEXTMODE
 70
     0
  9
$MIRRTEXT
 70
     1
  9
$LTSCALE
 40
1.0
  9
$ATTMODE
 70
     1
  9
$TEXTSIZE
 40
1.0
  9
$TRACEWID
 40
1.0
  9
$TEXTSTYLE
  7
STANDARD
  9
$CLAYER
  8
0
  9
$CELTYPE
  6
BYLAYER
  9
$CECOLOR
 62
     4
  9
$CELTSCALE
 40
1.0
  9
$DISPSILH
 70
     0
  9
$DIMSCALE
 40
1.0
  9
$DIMASZ
 40
3.5
  9
$DIMEXO
 40
1.0
  9
$DIMDLI
 40
8.0
  9
$DIMRND
 40
0.0
  9
$DIMDLE
 40
0.0
  9
$DIMEXE
 40
1.0
  9
$DIMTP
 40
0.1
  9
$DIMTM
 40
0.1
  9
$DIMTXT
 40
3.5
  9
$DIMCEN
 40
0.0
  9
$DIMTSZ
 40
0.0
  9
$DIMTOL
 70
     0
  9
$DIMLIM
 70
     0
  9
$DIMTIH
 70
     0
  9
$DIMTOH
 70
     0
  9
$DIMSE1
 70
     0
  9
$DIMSE2
 70
     0
  9
$DIMTAD
 70
     1
  9
$DIMZIN
 70
     8
  9
$DIMBLK
  1

  9
$DIMASO
 70
     1
  9
$DIMSHO
 70
     1
  9
$DIMPOST
  1

  9
$DIMAPOST
  1
"
  9
$DIMALT
 70
     0
  9
$DIMALTD
 70
     2
  9
$DIMALTF
 40
0.0393701
  9
$DIMLFAC
 40
1.0
  9
$DIMTOFL
 70
     1
  9
$DIMTVP
 40
0.0
  9
$DIMTIX
 70
     0
  9
$DIMSOXD
 70
     0
  9
$DIMSAH
 70
     0
  9
$DIMBLK1
  1

  9
$DIMBLK2
  1

  9
$DIMSTYLE
  2
AM_ISO
  9
$DIMCLRD
 70
   256
  9
$DIMCLRE
 70
   256
  9
$DIMCLRT
 70
   256
  9
$DIMTFAC
 40
0.71
  9
$DIMGAP
 40
1.0
  9
$DIMJUST
 70
     0
  9
$DIMSD1
 70
     0
  9
$DIMSD2
 70
     0
  9
$DIMTOLJ
 70
     0
  9
$DIMTZIN
 70
     8
  9
$DIMALTZ
 70
     8
  9
$DIMALTTZ
 70
     0
  9
$DIMUPT
 70
     0
  9
$DIMDEC
 70
     2
  9
$DIMTDEC
 70
     2
  9
$DIMALTU
 70
     2
  9
$DIMALTTD
 70
     2
  9
$DIMTXSTY
  7
STANDARD
  9
$DIMAUNIT
 70
     0
  9
$DIMADEC
 70
     0
  9
$DIMALTRND
 40
0.0
  9
$DIMAZIN
 70
     2
  9
$DIMDSEP
 70
    46
  9
$DIMATFIT
 70
     3
  9
$DIMFRAC
 70
     0
  9
$DIMLDRBLK
  1

  9
$DIMLUNIT
 70
     2
  9
$DIMLWD
 70
    -1
  9
$DIMLWE
 70
    -1
  9
$DIMTMOVE
 70
     0
  9
$LUNITS
 70
     2
  9
$LUPREC
 70
     2
  9
$SKETCHINC
 40
1.0
  9
$FILLETRAD
 40
2.5
  9
$AUNITS
 70
     0
  9
$AUPREC
 70
     0
  9
$MENU
  1
.
  9
$ELEVATION
 40
0.0
  9
$PELEVATION
 40
0.0
  9
$THICKNESS
 40
0.0
  9
$LIMCHECK
 70
     0
  9
$CHAMFERA
 40
2.5
  9
$CHAMFERB
 40
2.5
  9
$CHAMFERC
 40
20.0
  9
$CHAMFERD
 40
0.0
  9
$SKPOLY
 70
     0
  9
$TDCREATE
 40
2454987.608961447
  9
$TDUCREATE
 40
2454987.275628114
  9
$TDUPDATE
 40
2455014.454475926
  9
$TDUUPDATE
 40
2455014.121142593
  9
$TDINDWG
 40
0.0888031481
  9
$TDUSRTIMER
 40
0.0888031481
  9
$USRTIMER
 70
     1
  9
$ANGBASE
 50
0.0
  9
$ANGDIR
 70
     0
  9
$PDMODE
 70
     0
  9
$PDSIZE
 40
0.0
  9
$PLINEWID
 40
0.0
  9
$SPLFRAME
 70
     0
  9
$SPLINETYPE
 70
     6
  9
$SPLINESEGS
 70
     8
  9
$HANDSEED
  5
572
  9
$SURFTAB1
 70
     6
  9
$SURFTAB2
 70
     6
  9
$SURFTYPE
 70
     6
  9
$SURFU
 70
     6
  9
$SURFV
 70
     6
  9
$UCSBASE
  2

  9
$UCSNAME
  2

  9
$UCSORG
 10
0.0
 20
0.0
 30
0.0
  9
$UCSXDIR
 10
1.0
 20
0.0
 30
0.0
  9
$UCSYDIR
 10
0.0
 20
1.0
 30
0.0
  9
$UCSORTHOREF
  2

  9
$UCSORTHOVIEW
 70
     0
  9
$UCSORGTOP
 10
0.0
 20
0.0
 30
0.0
  9
$UCSORGBOTTOM
 10
0.0
 20
0.0
 30
0.0
  9
$UCSORGLEFT
 10
0.0
 20
0.0
 30
0.0
  9
$UCSORGRIGHT
 10
0.0
 20
0.0
 30
0.0
  9
$UCSORGFRONT
 10
0.0
 20
0.0
 30
0.0
  9
$UCSORGBACK
 10
0.0
 20
0.0
 30
0.0
  9
$PUCSBASE
  2

  9
$PUCSNAME
  2

  9
$PUCSORG
 10
0.0
 20
0.0
 30
0.0
  9
$PUCSXDIR
 10
1.0
 20
0.0
 30
0.0
  9
$PUCSYDIR
 10
0.0
 20
1.0
 30
0.0
  9
$PUCSORTHOREF
  2

  9
$PUCSORTHOVIEW
 70
     0
  9
$PUCSORGTOP
 10
0.0
 20
0.0
 30
0.0
  9
$PUCSORGBOTTOM
 10
0.0
 20
0.0
 30
0.0
  9
$PUCSORGLEFT
 10
0.0
 20
0.0
 30
0.0
  9
$PUCSORGRIGHT
 10
0.0
 20
0.0
 30
0.0
  9
$PUCSORGFRONT
 10
0.0
 20
0.0
 30
0.0
  9
$PUCSORGBACK
 10
0.0
 20
0.0
 30
0.0
  9
$USERI1
 70
     0
  9
$USERI2
 70
     0
  9
$USERI3
 70
     0
  9
$USERI4
 70
     0
  9
$USERI5
 70
     0
  9
$USERR1
 40
0.0
  9
$USERR2
 40
0.0
  9
$USERR3
 40
0.0
  9
$USERR4
 40
0.0
  9
$USERR5
 40
0.0
  9
$WORLDVIEW
 70
     1
  9
$SHADEDGE
 70
     3
  9
$SHADEDIF
 70
    70
  9
$TILEMODE
 70
     0
  9
$MAXACTVP
 70
    48
  9
$PINSBASE
 10
0.0
 20
0.0
 30
0.0
  9
$PLIMCHECK
 70
     0
  9
$PEXTMIN
 10
-14.05844972793261
 20
-67.35222491606601
 30
-0.0050530640584157
  9
$PEXTMAX
 10
233.8406292450359
 20
307.8610379642325
 30
165.5964903329765
  9
$PLIMMIN
 10
-42.06280772446689
 20
-88.64560261957194
  9
$PLIMMAX
 10
254.86318714858
 20
331.3010526538656
  9
$UNITMODE
 70
     0
  9
$VISRETAIN
 70
     1
  9
$PLINEGEN
 70
     0
  9
$PSLTSCALE
 70
     1
  9
$TREEDEPTH
 70
  3020
  9
$CMLSTYLE
  2
STANDARD
  9
$CMLJUST
 70
     0
  9
$CMLSCALE
 40
1.0
  9
$PROXYGRAPHICS
 70
     1
  9
$MEASUREMENT
 70
     1
  9
$CELWEIGHT
370
    -1
  9
$ENDCAPS
280
     0
  9
$JOINSTYLE
280
     0
  9
$LWDISPLAY
290
     0
  9
$INSUNITS
 70
     4
  9
$HYPERLINKBASE
  1

  9
$STYLESHEET
  1

  9
$XEDIT
290
     1
  9
$CEPSNTYPE
380
     0
  9
$PSTYLEMODE
290
     1
  9
$FINGERPRINTGUID
  2
{6B70D90B-73AA-45B0-A966-FCBDD2D57A71}
  9
$VERSIONGUID
  2
{18C61177-FA6E-4372-A5B6-E2AEBC22CF2B}
  9
$EXTNAMES
290
     1
  9
$PSVPSCALE
 40
0.0
  9
$OLESTARTUP
290
     0
  0
ENDSEC
  0
SECTION
  2
CLASSES
  0
CLASS
  1
DICTIONARYVAR
  2
AcDbDictionaryVar
  3
ObjectDBX Classes
 90
        0
280
     0
281
     0
  0
CLASS
  1
ACMESTATEMGR
  2
AcMeStateMgr
  3
AcMeServices
 90
        0
280
     0
281
     0
  0
CLASS
  1
ACMESCOPE
  2
AcMeScope
  3
AcMeServices
 90
        0
280
     0
281
     0
  0
CLASS
  1
ACMECOMMANDHISTORY
  2
AcMeCommandHistory
  3
AcMeServices
 90
        0
280
     0
281
     0
  0
CLASS
  1
ACRFINSADJUSTERMGR
  2
AcRfInsAdjusterMgr
  3
AcMeServices
 90
        0
280
     0
281
     0
  0
CLASS
  1
ACMEDRAWINGMAN
  2
AcMeDrawingMan
  3
AcMeServices
 90
        0
280
     0
281
     0
  0
CLASS
  1
AMATTR
  2
AcMeAttribute
  3
AcMeServices
 90
    32768
280
     0
281
     0
  0
CLASS
  1
ACMEBOMCOLUMN
  2
AcMeBOMColumn
  3
AcMeServices
 90
    32768
280
     0
281
     0
  0
CLASS
  1
ACMEBOMCONF
  2
AcMeBOMConf
  3
AcMeServices
 90
    32768
280
     0
281
     0
  0
CLASS
  1
ACMEBOMTABLE
  2
AcMeBOMTable
  3
AcMeServices
 90
    32768
280
     0
281
     0
  0
CLASS
  1
ACMEBOMENTRY
  2
AcMeBOMEntry
  3
AcMeServices
 90
    32768
280
     0
281
     0
  0
CLASS
  1
ACMEVIEW
  2
AcMeView
  3
AcMeServices
 90
        0
280
     0
281
     0
  0
CLASS
  1
ACGREFMASTER
  2
AcGrefMaster
  3
AcAttribServices
 90
        0
280
     0
281
     0
  0
CLASS
  1
AMIMASTER
  2
AmiMaster
  3
AmiServices
 90
        0
280
     0
281
     0
  0
CLASS
  1
ACASGREFMASTER
  2
AcAsGrefMaster
  3
AutoSurfResolverServices
 90
    32768
280
     0
281
     0
  0
CLASS
  1
ADAPPL
  2
AcAdAppl
  3
DesignerServices
 90
        0
280
     0
281
     0
  0
CLASS
  1
DEPMGR
  2
AcAdDepMgr
  3
DesignerServices
 90
        0
280
     0
281
     0
  0
CLASS
  1
PARAMMGR
  2
AcAdParamMgr
  3
DesignerServices
 90
        0
280
     0
281
     0
  0
CLASS
  1
PARAMSCOPE
  2
AcAdParamScope
  3
DesignerServices
 90
        0
280
     0
281
     0
  0
CLASS
  1
ACIMSYSVARMAN
  2
AcImSysVarManager
  3
AcMeServices
 90
        0
280
     0
281
     0
  0
CLASS
  1
ACIMINTSYSVAR
  2
AcImIntSysVar
  3
AcMeServices
 90
        0
280
     0
281
     0
  0
CLASS
  1
ACIMREALSYSVAR
  2
AcImRealSysVar
  3
AcMeServices
 90
        0
280
     0
281
     0
  0
CLASS
  1
ACIMSTRSYSVAR
  2
AcImStrSysVar
  3
AcMeServices
 90
        0
280
     0
281
     0
  0
CLASS
  1
NAMEDAPPL
  2
AcAdNamedAppl
  3
DesignerServices
 90
        0
280
     0
281
     0
  0
CLASS
  1
ADHNTMPLT
  2
AdHoleNoteTemplateMgr
  3
DesignerServices
 90
    32768
280
     0
281
     0
  0
CLASS
  1
AM_HNTEMPLATE_MGR_NAME
  2
AdHoleNoteTemplateMgrName
  3
DesignerServices
 90
    32768
280
     0
281
     0
  0
CLASS
  1
ACADGREFMODULE
  2
AcAdGrefModule
  3
AdGrefServices
 90
    32768
280
     0
281
     0
  0
CLASS
  1
AM_DRAWING_MGR
  2
AcDmDwgMgr
  3
AcMechDwgViewMgmt
 90
        0
280
     0
281
     0
  0
CLASS
  1
AM_DWG_DOCUMENT
  2
AcDmDwgDocument
  3
AcMechDwgViewMgmt
 90
        0
280
     0
281
     0
  0
CLASS
  1
AM_DWG_SHEET
  2
AcDmSheet
  3
AcMechDwgViewMgmt
 90
        0
280
     0
281
     0
  0
CLASS
  1
AM_VIEWDIMPARMAP
  2
AcDmViewDimParMap
  3
AcMechDwgViewMgmt
 90
        0
280
     0
281
     0
  0
CLASS
  1
AM_DWGMGR_NAME
  2
AcDmDwgMgrName
  3
AcMechDwgViewMgmt
 90
        0
280
     0
281
     0
  0
CLASS
  1
ACAMPROJECT
  2
AcAmProject
  3
DesignerAssemblies
 90
        0
280
     0
281
     0
  0
CLASS
  1
ACAMGRCOMPSET
  2
AcAmGrCompSet
  3
DesignerAssemblies
 90
    32768
280
     1
281
     0
  0
CLASS
  1
ACAMGRCOMPDEFSET
  2
AcAmGrCompDefSet
  3
DesignerAssemblies
 90
        0
280
     0
281
     0
  0
CLASS
  1
ACAMGRCOMPDEF
  2
AcAmGrCompDef
  3
DesignerAssemblies
 90
        0
280
     0
281
     0
  0
CLASS
  1
ACCMCONTEXT
  2
AcCmContext
  3
DesignerAssemblies
 90
        0
280
     0
281
     0
  0
CLASS
  1
ACAMCOMPDEF
  2
AcAmCompDef
  3
DesignerAssemblies
 90
        0
280
     0
281
     0
  0
CLASS
  1
ACAMCOMPDEFMGR
  2
AcAmCompDefMgr
  3
DesignerAssemblies
 90
        0
280
     0
281
     0
  0
CLASS
  1
AMCONTEXTMGR
  2
AcAmContextMgr
  3
DesignerAssemblies
 90
        0
280
     0
281
     0
  0
CLASS
  1
ACAMCONTEXTMODELER
  2
AcAmContextModeler
  3
DesignerAssemblies
 90
        0
280
     0
281
     0
  0
CLASS
  1
ACDMVIEWGEOM
  2
AcDmViewGeometry
  3
AcMechDwgViewMgmt
 90
    32768
280
     0
281
     1
  0
CLASS
  1
CBROWSERAPPOBJECT
  2
CBrowserAppObject
  3
McadcomServices
 90
        0
280
     0
281
     0
  0
CLASS
  1
IM_STATIC_MAN
  2
AcImStaticVarManager
  3
AcMeServices
 90
    32768
280
     0
281
     0
  0
CLASS
  1
ASAPP
  2
AcAsAppObject
  3
AutoSurfServices
 90
    32768
280
     0
281
     0
  0
CLASS
  1
ACIMDBLSTATICVAR
  2
AcImDblStaticVar
  3
AcMeServices
 90
    32768
280
     0
281
     0
  0
CLASS
  1
ACIMSTRSTATICVAR
  2
AcImStrStaticVar
  3
AcMeServices
 90
    32768
280
     0
281
     0
  0
CLASS
  1
ACIMINTSTATICVAR
  2
AcImIntStaticVar
  3
AcMeServices
 90
    32768
280
     0
281
     0
  0
CLASS
  1
CATALOGSTATE
  2
AcAmCatalogState
  3
DesignerAssemblies
 90
        0
280
     0
281
     0
  0
CLASS
  1
DM_PLACEHOLDER
  2
AcDmSelsetPlaceholder
  3
AcMechDwgViewMgmt
 90
        0
280
     0
281
     0
  0
CLASS
  1
LAYER_INDEX
  2
AcDbLayerIndex
  3
ObjectDBX Classes
 90
    32768
280
     0
281
     0
  0
CLASS
  1
IDBUFFER
  2
AcDbIdBuffer
  3
ObjectDBX Classes
 90
    32768
280
     0
281
     0
  0
CLASS
  1
ACMSTANDARDJIS
  2
AcmStandardJIS
  3
"Amdt_StdImp|Product Description: AutoCAD Mechanical 2004 DX|Company: Autodesk"
 90
    32768
280
     0
281
     0
  0
CLASS
  1
ACMSTANDARDANSI
  2
AcmStandardANSI
  3
"Amdt_StdImp|Product Description: AutoCAD Mechanical 2004 DX|Company: Autodesk"
 90
    32768
280
     0
281
     0
  0
CLASS
  1
ACMSTANDARDBSI
  2
AcmStandardBSI
  3
"Amdt_StdImp|Product Description: AutoCAD Mechanical 2004 DX|Company: Autodesk"
 90
    32768
280
     0
281
     0
  0
CLASS
  1
ACMSTANDARDDIN
  2
AcmStandardDIN
  3
"Amdt_StdImp|Product Description: AutoCAD Mechanical 2004 DX|Company: Autodesk"
 90
    32768
280
     0
281
     0
  0
CLASS
  1
ACMSTANDARDISO
  2
AcmStandardISO
  3
"Amdt_StdImp|Product Description: AutoCAD Mechanical 2004 DX|Company: Autodesk"
 90
        0
280
     0
281
     0
  0
CLASS
  1
ACDBDICTIONARYWDFLT
  2
AcDbDictionaryWithDefault
  3
ObjectDBX Classes
 90
        0
280
     0
281
     0
  0
CLASS
  1
ACDBPLACEHOLDER
  2
AcDbPlaceHolder
  3
ObjectDBX Classes
 90
        0
280
     0
281
     0
  0
CLASS
  1
LAYOUT
  2
AcDbLayout
  3
ObjectDBX Classes
 90
        0
280
     0
281
     0
  0
CLASS
  1
ACME_DOCUMENT
  2
AcMeDbDoc
  3
AcMeServices
 90
        0
280
     0
281
     0
  0
CLASS
  1
AMGSETTINGSOBJ
  2
AmgSettingsObj
  3
"AcadM|Product Description: AutoCAD Mechanical 2000|Company: Autodesk"
 90
        0
280
     0
281
     0
  0
CLASS
  1
AMGOBJPROPCFG
  2
AmgObjPropCfg
  3
"AmgLay|Product Description: AutoCAD Mechanical 2000|Company: Autodesk"
 90
        1
280
     0
281
     0
  0
CLASS
  1
ACDBENTITYCACHE
  2
AcMeEntityCache
  3
AcMeServices
 90
        0
280
     0
281
     0
  0
CLASS
  1
GSMANAGER
  2
AcMeGSManager
  3
AcMeServices
 90
        0
280
     0
281
     0
  0
CLASS
  1
AMDTINTERNALREACTOR
  2
AmdtInternalReactor
  3
AcMeServices
 90
        0
280
     0
281
     0
  0
CLASS
  1
ACME_DATABASE
  2
AcMeDbDatabase
  3
AcMeServices
 90
        0
280
     0
281
     0
  0
CLASS
  1
ACGREFACADMASTER
  2
AcGrefacadMaster
  3
AcGrefServices
 90
        0
280
     0
281
     0
  0
CLASS
  1
AMDTMENUSTATEMGR
  2
AmdtMenuStateMgr
  3
McadcomServices
 90
        0
280
     0
281
     0
  0
CLASS
  1
AMDTMCOMMENUSTATE
  2
AmdtMcomMenuState
  3
McadcomServices
 90
        0
280
     0
281
     0
  0
CLASS
  1
MAPIADMODULE
  2
MApiAdModule
  3
MApiAdServices
 90
    32768
280
     0
281
     0
  0
CLASS
  1
AMDTDMMENUSTATE
  2
AmdtDmMenuState
  3
AcMechDwgViewMgmt
 90
        0
280
     0
281
     0
  0
CLASS
  1
AMDTADMENUSTATE
  2
AmdtAdMenuState
  3
DesignerServices
 90
        0
280
     0
281
     0
  0
CLASS
  1
AMDTAMMENUSTATE
  2
AmdtAmMenuState
  3
DesignerAssemblies
 90
        0
280
     0
281
     0
  0
CLASS
  1
ACMDATADICTIONARY
  2
AcmDataDictionary
  3
"AcmSymBB|Product Description: AutoCAD Mechanical 2004 DX|Company: Autodesk"
 90
        0
280
     0
281
     0
  0
CLASS
  1
ACMDATAENTRYBLOCK
  2
AcmDataEntryBlock
  3
"AcmSymBB|Product Description: AutoCAD Mechanical 2004 DX|Company: Autodesk"
 90
    32768
280
     0
281
     0
  0
CLASS
  1
ACMSURFSTANDARDJIS
  2
AcmSurfTextStdJIS
  3
"Amdt_StdImp|Product Description: AutoCAD Mechanical 2004 DX|Company: Autodesk"
 90
    32768
280
     0
281
     0
  0
CLASS
  1
ACMFCFSTANDARDJIS
  2
AcmFCFStdJIS
  3
"Amdt_StdImp|Product Description: AutoCAD Mechanical 2004 DX|Company: Autodesk"
 90
    32768
280
     0
281
     0
  0
CLASS
  1
ACMWELDSTANDARDJIS
  2
AcmWeldingStdJIS
  3
"Amdt_StdImp|Product Description: AutoCAD Mechanical 2004 DX|Company: Autodesk"
 90
    32768
280
     0
281
     0
  0
CLASS
  1
ACMIDSTANDARDJIS
  2
AcmIdStdJIS
  3
"Amdt_StdImp|Product Description: AutoCAD Mechanical 2004 DX|Company: Autodesk"
 90
    32768
280
     0
281
     0
  0
CLASS
  1
ACMDATUMSTANDARDJIS
  2
AcmDatumStdJIS
  3
"Amdt_StdImp|Product Description: AutoCAD Mechanical 2004 DX|Company: Autodesk"
 90
    32768
280
     0
281
     0
  0
CLASS
  1
ACMBOMSTANDARDJIS
  2
AcmBOMStdJIS
  3
"Amdt_StdImp|Product Description: AutoCAD Mechanical 2004 DX|Company: Autodesk"
 90
    32768
280
     0
281
     0
  0
CLASS
  1
ACMSURFSTANDARDANSI
  2
AcmSurfTextStdANSI
  3
"Amdt_StdImp|Product Description: AutoCAD Mechanical 2004 DX|Company: Autodesk"
 90
    32768
280
     0
281
     0
  0
CLASS
  1
ACMFCFSTANDARDANSI
  2
AcmFCFStdANSI
  3
"Amdt_StdImp|Product Description: AutoCAD Mechanical 2004 DX|Company: Autodesk"
 90
    32768
280
     0
281
     0
  0
CLASS
  1
ACMWELDSTANDARDANSI
  2
AcmWeldingStdANSI
  3
"Amdt_StdImp|Product Description: AutoCAD Mechanical 2004 DX|Company: Autodesk"
 90
    32768
280
     0
281
     0
  0
CLASS
  1
ACMIDSTANDARDANSI
  2
AcmIdStdANSI
  3
"Amdt_StdImp|Product Description: AutoCAD Mechanical 2004 DX|Company: Autodesk"
 90
    32768
280
     0
281
     0
  0
CLASS
  1
ACMDATUMSTANDARDANSI
  2
AcmDatumStdANSI
  3
"Amdt_StdImp|Product Description: AutoCAD Mechanical 2004 DX|Company: Autodesk"
 90
    32768
280
     0
281
     0
  0
CLASS
  1
ACMBOMSTANDARDANSI
  2
AcmBOMStdANSI
  3
"Amdt_StdImp|Product Description: AutoCAD Mechanical 2004 DX|Company: Autodesk"
 90
    32768
280
     0
281
     0
  0
CLASS
  1
ACMSURFSTANDARDBSI
  2
AcmSurfTextStdBSI
  3
"Amdt_StdImp|Product Description: AutoCAD Mechanical 2004 DX|Company: Autodesk"
 90
    32768
280
     0
281
     0
  0
CLASS
  1
ACMFCFSTANDARDBSI
  2
AcmFCFStdBSI
  3
"Amdt_StdImp|Product Description: AutoCAD Mechanical 2004 DX|Company: Autodesk"
 90
    32768
280
     0
281
     0
  0
CLASS
  1
ACMWELDSTANDARDBSI
  2
AcmWeldingStdBSI
  3
"Amdt_StdImp|Product Description: AutoCAD Mechanical 2004 DX|Company: Autodesk"
 90
    32768
280
     0
281
     0
  0
CLASS
  1
ACMIDSTANDARDBSI
  2
AcmIdStdBSI
  3
"Amdt_StdImp|Product Description: AutoCAD Mechanical 2004 DX|Company: Autodesk"
 90
    32768
280
     0
281
     0
  0
CLASS
  1
ACMDATUMSTANDARDBSI
  2
AcmDatumStdBSI
  3
"Amdt_StdImp|Product Description: AutoCAD Mechanical 2004 DX|Company: Autodesk"
 90
    32768
280
     0
281
     0
  0
CLASS
  1
ACMBOMSTANDARDBSI
  2
AcmBOMStdBSI
  3
"Amdt_StdImp|Product Description: AutoCAD Mechanical 2004 DX|Company: Autodesk"
 90
    32768
280
     0
281
     0
  0
CLASS
  1
AMDTEDGESTANDARDDIN
  2
AmdtEdgeStdDIN
  3
"Amdt_StdImp|Product Description: AutoCAD Mechanical 2004 DX|Company: Autodesk"
 90
    32768
280
     0
281
     0
  0
CLASS
  1
ACMSURFSTANDARDDIN
  2
AcmSurfTextStdDIN
  3
"Amdt_StdImp|Product Description: AutoCAD Mechanical 2004 DX|Company: Autodesk"
 90
    32768
280
     0
281
     0
  0
CLASS
  1
ACMFCFSTANDARDDIN
  2
AcmFCFStdDIN
  3
"Amdt_StdImp|Product Description: AutoCAD Mechanical 2004 DX|Company: Autodesk"
 90
    32768
280
     0
281
     0
  0
CLASS
  1
ACMWELDSTANDARDDIN
  2
AcmWeldingStdDIN
  3
"Amdt_StdImp|Product Description: AutoCAD Mechanical 2004 DX|Company: Autodesk"
 90
    32768
280
     0
281
     0
  0
CLASS
  1
ACMIDSTANDARDDIN
  2
AcmIdStdDIN
  3
"Amdt_StdImp|Product Description: AutoCAD Mechanical 2004 DX|Company: Autodesk"
 90
    32768
280
     0
281
     0
  0
CLASS
  1
ACMDATUMSTANDARDDIN
  2
AcmDatumStdDIN
  3
"Amdt_StdImp|Product Description: AutoCAD Mechanical 2004 DX|Company: Autodesk"
 90
    32768
280
     0
281
     0
  0
CLASS
  1
ACMBOMSTANDARDDIN
  2
AcmBOMStdDIN
  3
"Amdt_StdImp|Product Description: AutoCAD Mechanical 2004 DX|Company: Autodesk"
 90
    32768
280
     0
281
     0
  0
CLASS
  1
ACMSURFSTANDARDISO
  2
AcmSurfTextStdISO
  3
"Amdt_StdImp|Product Description: AutoCAD Mechanical 2004 DX|Company: Autodesk"
 90
        0
280
     0
281
     0
  0
CLASS
  1
ACMFCFSTANDARDISO
  2
AcmFCFStdISO
  3
"Amdt_StdImp|Product Description: AutoCAD Mechanical 2004 DX|Company: Autodesk"
 90
        0
280
     0
281
     0
  0
CLASS
  1
ACMWELDSTANDARDISO
  2
AcmWeldingStdISO
  3
"Amdt_StdImp|Product Description: AutoCAD Mechanical 2004 DX|Company: Autodesk"
 90
        0
280
     0
281
     0
  0
CLASS
  1
ACMIDSTANDARDISO
  2
AcmIdStdISO
  3
"Amdt_StdImp|Product Description: AutoCAD Mechanical 2004 DX|Company: Autodesk"
 90
        0
280
     0
281
     0
  0
CLASS
  1
ACMDATUMSTANDARDISO
  2
AcmDatumStdISO
  3
"Amdt_StdImp|Product Description: AutoCAD Mechanical 2004 DX|Company: Autodesk"
 90
        0
280
     0
281
     0
  0
CLASS
  1
ACMBOMSTANDARDISO
  2
AcmBOMStdISO
  3
"Amdt_StdImp|Product Description: AutoCAD Mechanical 2004 DX|Company: Autodesk"
 90
        0
280
     0
281
     0
  0
CLASS
  1
AMDTBROWSERDBTAB
  2
AmdtBrowserDbTab
  3
McadcomServices
 90
        0
280
     0
281
     0
  0
CLASS
  1
ACAMGFILTERDAT
  2
AcAmgFilterDat
  3
"AcadM|Product Description: AutoCAD Mechanical 2000|Company: Autodesk"
 90
    32768
280
     0
281
     0
  0
CLASS
  1
MAPIAMMOUDLE
  2
MApiAmModule
  3
MApiAmServices
 90
        0
280
     0
281
     0
  0
CLASS
  1
AMDTMAPISURFMOUDULE
  2
AmdtMApiSurfModule
  3
MApiSurfServices
 90
    32768
280
     0
281
     0
  0
CLASS
  1
ACAMGLAYSTD
  2
AcAmgLayStd
  3
"AcAmgLayStd|Product Description: AutoCAD Mechanical 2000|Company: Autodesk"
 90
        0
280
     0
281
     0
  0
CLASS
  1
ACAMGDIMSTD
  2
AcAmgDimStd
  3
"AcAmgDimStd|Product Description: AutoCAD Mechanical 2000|Company: Autodesk"
 90
        0
280
     0
281
     0
  0
CLASS
  1
ACAMGTITLESTD
  2
AcAmgTitleStd
  3
"TITLEAPP"
 90
        0
280
     0
281
     0
  0
CLASS
  1
ACMDETAILSTANDARDJIS
  2
AmdtDetailSymStdJIS
  3
"Amdt_StdImp|Product Description: AutoCAD Mechanical 2004 DX|Company: Autodesk"
 90
    32768
280
     0
281
     0
  0
CLASS
  1
ACMSECTIONSTANDARDJIS
  2
AmdtSectionSymStdJIS
  3
"Amdt_StdImp|Product Description: AutoCAD Mechanical 2004 DX|Company: Autodesk"
 90
    32768
280
     0
281
     0
  0
CLASS
  1
ACMCENTERLINESTANDARDJIS
  2
AmdtCenterLineStdJIS
  3
"Amdt_StdImp|Product Description: AutoCAD Mechanical 2004 DX|Company: Autodesk"
 90
    32768
280
     0
281
     0
  0
CLASS
  1
ACMTHREADLINESTANDARDJIS
  2
AmdtThreadLineStdJIS
  3
"Amdt_StdImp|Product Description: AutoCAD Mechanical 2004 DX|Company: Autodesk"
 90
    32768
280
     0
281
     0
  0
CLASS
  1
ACMDETAILSTANDARDANSI
  2
AmdtDetailSymStdANSI
  3
"Amdt_StdImp|Product Description: AutoCAD Mechanical 2004 DX|Company: Autodesk"
 90
    32768
280
     0
281
     0
  0
CLASS
  1
ACMSECTIONSTANDARDANSI
  2
AmdtSectionSymStdANSI
  3
"Amdt_StdImp|Product Description: AutoCAD Mechanical 2004 DX|Company: Autodesk"
 90
    32768
280
     0
281
     0
  0
CLASS
  1
ACMCENTERLINESTANDARDANSI
  2
AmdtCenterLineStdANSI
  3
"Amdt_StdImp|Product Description: AutoCAD Mechanical 2004 DX|Company: Autodesk"
 90
    32768
280
     0
281
     0
  0
CLASS
  1
ACMTHREADLINESTANDARDANSI
  2
AmdtThreadLineStdANSI
  3
"Amdt_StdImp|Product Description: AutoCAD Mechanical 2004 DX|Company: Autodesk"
 90
    32768
280
     0
281
     0
  0
CLASS
  1
ACMDETAILSTANDARDBSI
  2
AmdtDetailSymStdBSI
  3
"Amdt_StdImp|Product Description: AutoCAD Mechanical 2004 DX|Company: Autodesk"
 90
    32768
280
     0
281
     0
  0
CLASS
  1
ACMSECTIONSTANDARDBSI
  2
AmdtSectionSymStdBSI
  3
"Amdt_StdImp|Product Description: AutoCAD Mechanical 2004 DX|Company: Autodesk"
 90
    32768
280
     0
281
     0
  0
CLASS
  1
ACMCENTERLINESTANDARDBSI
  2
AmdtCenterLineStdBSI
  3
"Amdt_StdImp|Product Description: AutoCAD Mechanical 2004 DX|Company: Autodesk"
 90
    32768
280
     0
281
     0
  0
CLASS
  1
ACMTHREADLINESTANDARDBSI
  2
AmdtThreadLineStdBSI
  3
"Amdt_StdImp|Product Description: AutoCAD Mechanical 2004 DX|Company: Autodesk"
 90
    32768
280
     0
281
     0
  0
CLASS
  1
ACMDETAILSTANDARDDIN
  2
AmdtDetailSymStdDIN
  3
"Amdt_StdImp|Product Description: AutoCAD Mechanical 2004 DX|Company: Autodesk"
 90
    32768
280
     0
281
     0
  0
CLASS
  1
ACMSECTIONSTANDARDDIN
  2
AmdtSectionSymStdDIN
  3
"Amdt_StdImp|Product Description: AutoCAD Mechanical 2004 DX|Company: Autodesk"
 90
    32768
280
     0
281
     0
  0
CLASS
  1
ACMCENTERLINESTANDARDDIN
  2
AmdtCenterLineStdDIN
  3
"Amdt_StdImp|Product Description: AutoCAD Mechanical 2004 DX|Company: Autodesk"
 90
    32768
280
     0
281
     0
  0
CLASS
  1
ACMTHREADLINESTANDARDDIN
  2
AmdtThreadLineStdDIN
  3
"Amdt_StdImp|Product Description: AutoCAD Mechanical 2004 DX|Company: Autodesk"
 90
    32768
280
     0
281
     0
  0
CLASS
  1
AMDTEDGESTANDARDISO
  2
AmdtEdgeStdISO
  3
"Amdt_StdImp|Product Description: AutoCAD Mechanical 2004 DX|Company: Autodesk"
 90
    32768
280
     0
281
     0
  0
CLASS
  1
ACMDETAILSTANDARDISO
  2
AmdtDetailSymStdISO
  3
"Amdt_StdImp|Product Description: AutoCAD Mechanical 2004 DX|Company: Autodesk"
 90
        0
280
     0
281
     0
  0
CLASS
  1
ACMSECTIONSTANDARDISO
  2
AmdtSectionSymStdISO
  3
"Amdt_StdImp|Product Description: AutoCAD Mechanical 2004 DX|Company: Autodesk"
 90
        0
280
     0
281
     0
  0
CLASS
  1
ACMCENTERLINESTANDARDISO
  2
AmdtCenterLineStdISO
  3
"Amdt_StdImp|Product Description: AutoCAD Mechanical 2004 DX|Company: Autodesk"
 90
        0
280
     0
281
     0
  0
CLASS
  1
ACMTHREADLINESTANDARDISO
  2
AmdtThreadLineStdISO
  3
"Amdt_StdImp|Product Description: AutoCAD Mechanical 2004 DX|Company: Autodesk"
 90
        0
280
     0
281
     0
  0
CLASS
  1
ACMNOTESTANDARDISO
  2
AmdtNoteStdISO
  3
"Amdt_StdImp|Product Description: AutoCAD Mechanical 2004 DX|Company: Autodesk"
 90
        0
280
     0
281
     0
  0
CLASS
  1
ACAMGHOLECHARTSTDISO
  2
AcAmgHoleChartStdISO
  3
ACMSYMBB_MODULE_NAME
 90
        0
280
     0
281
     0
  0
CLASS
  1
ACMNOTESTANDARDANSI
  2
AmdtNoteStdANSI
  3
"Amdt_StdImp|Product Description: AutoCAD Mechanical 2004 DX|Company: Autodesk"
 90
    32768
280
     0
281
     0
  0
CLASS
  1
AMDTNOTETEMPLATEDB
  2
AmdtNoteTemplateDB
  3
AMDT_STDIMP_MODULE_NAME
 90
        0
280
     0
281
     0
  0
CLASS
  1
ACAMGHOLECHARTSTDANSI
  2
AcAmgHoleChartStdANSI
  3
ACMSYMBB_MODULE_NAME
 90
    32768
280
     0
281
     0
  0
CLASS
  1
TABLESTYLE
  2
AcDbTableStyle
  3
ObjectDBX Classes
 90
     2047
280
     0
281
     0
  0
CLASS
  1
ACMBOM
  2
AcmBom
  3
"AcmSymBB|Product Description: AutoCAD Mechanical 2004 DX|Company: Autodesk"
 90
    32768
280
     0
281
     0
  0
CLASS
  1
AMDTFORMULAUPDATEDISPATCHER
  2
AmdtFormulaUpdateDispatcher
  3
AcMeServices
 90
    32768
280
     0
281
     0
  0
CLASS
  1
ACMPARTLIST
  2
AcmPartList
  3
"AcmSymBB|Product Description: AutoCAD Mechanical 2004 DX|Company: Autodesk"
 90
    33791
280
     0
281
     1
  0
CLASS
  1
VAACXREFPANELOBJECT
  2
VaAcXREFPanelObject
  3
VAAC_ADDIN
 90
    32768
280
     1
281
     0
  0
CLASS
  1
VAACIMAGEINVENTORY
  2
VaAcImageInventory
  3
VAAC_ADDIN
 90
    32768
280
     1
281
     0
  0
CLASS
  1
ADPART
  2
AcAdPart
  3
DesignerServices
 90
    32768
280
     0
281
     1
  0
CLASS
  1
ADBASE
  2
AcAdBase
  3
DesignerServices
 90
    32768
280
     0
281
     0
  0
CLASS
  1
BODYID
  2
AcAdBodyId
  3
DesignerServices
 90
    32768
280
     0
281
     0
  0
CLASS
  1
WORKPLANEDISPLAYMGR
  2
AcAdDisplayMgr
  3
DesignerServices
 90
    32768
280
     0
281
     0
  0
CLASS
  1
ACCMBODY
  2
AcCmBody
  3
DesignerAssemblies
 90
    32768
280
     0
281
     0
  0
CLASS
  1
ACAMCOMPENT
  2
AcAmCompEnt
  3
DesignerAssemblies
 90
    32768
280
     0
281
     1
  0
CLASS
  1
ACAMCOMPFEEDBACK
  2
AcAmCompFeedback
  3
DesignerAssemblies
 90
    32768
280
     0
281
     0
  0
CLASS
  1
ACAMCOMP
  2
AcAmComp
  3
DesignerAssemblies
 90
    32768
280
     0
281
     0
  0
CLASS
  1
ACAMCOMPENTCLONE
  2
AcAmCompEntClone
  3
DesignerAssemblies
 90
    32768
280
     0
281
     1
  0
CLASS
  1
ACAMCLONEREACTOR
  2
AcAmGrCompCloneReactor
  3
DesignerAssemblies
 90
    32768
280
     0
281
     0
  0
CLASS
  1
ADDATUMPLANEABS
  2
AcAdDatumPlaneAbs
  3
DesignerServices
 90
    32768
280
     0
281
     0
  0
CLASS
  1
ADDATUMAXISABS
  2
AcAdDatumAxisAbs
  3
DesignerServices
 90
    32768
280
     0
281
     0
  0
CLASS
  1
ADDATUMORIENTEDPLANE
  2
AcAdDatumOrientedPlane
  3
DesignerServices
 90
    32768
280
     0
281
     0
  0
CLASS
  1
ACAD_CIRCLE
  2
AcAdCircle
  3
DesignerServices
 90
    32768
280
     0
281
     1
  0
CLASS
  1
ACADCIRCLEACAD
  2
AcAdVirtualCircleAcad
  3
DesignerServices
 90
    32768
280
     0
281
     0
  0
CLASS
  1
ACADREFLINEACAD
  2
AcAdVirtualReferenceLine
  3
DesignerServices
 90
    32768
280
     0
281
     0
  0
CLASS
  1
ACADCONSLINE
  2
AcAdConstrainedLine
  3
DesignerServices
 90
    32768
280
     0
281
     0
  0
CLASS
  1
ACADCONSGROUP
  2
AcAdConstraintGroup
  3
DesignerServices
 90
    32768
280
     0
281
     0
  0
CLASS
  1
ACADCONSCIRCLE
  2
AcAdConstrainedCircle
  3
DesignerServices
 90
    32768
280
     0
281
     0
  0
CLASS
  1
ACADCONSPOINT
  2
AcAdConstrainedPoint
  3
DesignerServices
 90
    32768
280
     0
281
     0
  0
CLASS
  1
ACADIMPPTACAD
  2
AcAdVirtualImplicitPoint
  3
DesignerServices
 90
    32768
280
     0
281
     0
  0
CLASS
  1
ADCTRPTCNS
  2
AcAdCenterPointConstr
  3
DesignerServices
 90
    32768
280
     0
281
     0
  0
CLASS
  1
ADCLPROF2D
  2
AcAdClosedProfile2d
  3
DesignerServices
 90
    32768
280
     0
281
     0
  0
CLASS
  1
ACAD_FIXCONSTRAINT
  2
AcAdFixedConstraint
  3
DesignerServices
 90
    32768
280
     0
281
     0
  0
CLASS
  1
ACMELINEARARROW
  2
AcImLinearArrowDisplay
  3
AcMeServices
 90
    32768
280
     0
281
     1
  0
CLASS
  1
PARAM
  2
AcAdParam
  3
DesignerServices
 90
    32768
280
     0
281
     0
  0
CLASS
  1
ACADVOLFEATWITHTRIM
  2
AcAdVolFeatWithTrim
  3
DesignerServices
 90
    32768
280
     0
281
     0
  0
CLASS
  1
DEPEDGEFEATUREORDERING
  2
AcAdDepEdgeFeatureOrdering
  3
DesignerServices
 90
    32768
280
     0
281
     0
  0
CLASS
  1
ADPLANEID
  2
AcAdPlaneId
  3
DesignerServices
 90
    32768
280
     0
281
     0
  0
CLASS
  1
ADDATUMPLANEFACE
  2
AcAdDatumPlaneFace
  3
DesignerServices
 90
    32768
280
     0
281
     0
  0
CLASS
  1
ACMEPLINE
  2
AcImPlineDisplay
  3
AcMeServices
 90
    32768
280
     0
281
     1
  0
CLASS
  1
ACMETEXT
  2
AcImTextDisplay
  3
AcMeServices
 90
    32768
280
     0
281
     1
  0
CLASS
  1
ADCONSTDSP
  2
AcAdConstraintDisplayTag
  3
DesignerServices
 90
    32768
280
     0
281
     1
  0
CLASS
  1
ADTANCNS
  2
AcAdTangentConstr
  3
DesignerServices
 90
    32768
280
     0
281
     0
  0
CLASS
  1
CIRREFID
  2
AcAdCircleRefId
  3
DesignerServices
 90
    32768
280
     0
281
     0
  0
CLASS
  1
ACADCIRCDEPID
  2
AcAdVirtualCircleDepId
  3
DesignerServices
 90
    32768
280
     0
281
     0
  0
CLASS
  1
ADCONSDISP
  2
AcAdConstraintDisplay
  3
DesignerServices
 90
    32768
280
     0
281
     1
  0
CLASS
  1
ADCONCCNS
  2
AcAdConcentricConstr
  3
DesignerServices
 90
    32768
280
     0
281
     0
  0
CLASS
  1
ACDBCIRCARCRES
  2
AcDbCircArcRes
  3
AcGrefServices
 90
    32768
280
     0
281
     0
  0
CLASS
  1
ACADSKETCHCIRCARCRES
  2
AcAdSketchCircArcRes
  3
DesignerServices
 90
    32768
280
     0
281
     0
  0
CLASS
  1
ADACADDIACNS
  2
AcAdAcadDiameterConstr
  3
DesignerServices
 90
    32768
280
     0
281
     0
  0
CLASS
  1
DATUMAXISDISPLAY
  2
AcAdDatumAxisDisplay
  3
DesignerServices
 90
    32768
280
     0
281
     1
  0
CLASS
  1
ADDATUMAXISCENTER
  2
AcAdDatumAxisCenter
  3
DesignerServices
 90
    32768
280
     0
281
     0
  0
CLASS
  1
ADSURFGEOMID
  2
AcAdSurfGeomId
  3
DesignerServices
 90
    32768
280
     0
281
     0
  0
CLASS
  1
DATUMPLANEDISPLAY
  2
AcAdDatumPlaneDisplay
  3
DesignerServices
 90
    32768
280
     0
281
     1
  0
CLASS
  1
ADDATUMPLANEAXISPLANE
  2
AcAdDatumPlaneAxisPlane
  3
DesignerServices
 90
    32768
280
     0
281
     0
  0
CLASS
  1
ACAD_LINE
  2
AcAdLine
  3
DesignerServices
 90
    32768
280
     0
281
     1
  0
CLASS
  1
ACADLINEACAD
  2
AcAdVirtualBoundedLineAcad
  3
DesignerServices
 90
    32768
280
     0
281
     0
  0
CLASS
  1
ADPCURCNS
  2
AcAdPointCurveConstr
  3
DesignerServices
 90
    32768
280
     0
281
     0
  0
CLASS
  1
ADHORCNS
  2
AcAdHorizontalConstr
  3
DesignerServices
 90
    32768
280
     0
281
     0
  0
CLASS
  1
ADVERCNS
  2
AcAdVerticalConstr
  3
DesignerServices
 90
    32768
280
     0
281
     0
  0
CLASS
  1
ACDBLINERES
  2
AcDbLineRes
  3
AcGrefServices
 90
    32768
280
     0
281
     0
  0
CLASS
  1
ACADSKETCHLINERES
  2
AcAdSketchLineRes
  3
DesignerServices
 90
    32768
280
     0
281
     0
  0
CLASS
  1
ADVDISTCNS
  2
AcAdVerticalDistanceConstr
  3
DesignerServices
 90
    32768
280
     0
281
     0
  0
CLASS
  1
ACADSKETCHPOINTRES
  2
AcAdSketchPointRes
  3
DesignerServices
 90
    32768
280
     0
281
     0
  0
CLASS
  1
ADHDISTCNS
  2
AcAdHorizontalDistanceConstr
  3
DesignerServices
 90
    32768
280
     0
281
     0
  0
CLASS
  1
ACADPARTAXISRES
  2
AcAdPartAxisRes
  3
AdGrefServices
 90
    32768
280
     0
281
     0
  0
CLASS
  1
ACADBOUNDEDLINEDATUMID
  2
AcAdVirtualBoundedLineDatumId
  3
DesignerServices
 90
    32768
280
     0
281
     0
  0
CLASS
  1
ACADPARTDATUMPLANERES
  2
AcAdPartDatumPlaneRes
  3
AdGrefServices
 90
    32768
280
     0
281
     0
  0
CLASS
  1
EDGEID
  2
AcAdEdgeId
  3
DesignerServices
 90
    32768
280
     0
281
     0
  0
CLASS
  1
ACADPARTCIRCEDGRES
  2
AcAdPartCircEdgRes
  3
AdGrefServices
 90
    32768
280
     0
281
     0
  0
CLASS
  1
ADFEATUREDISPLAY
  2
AcImFeatureDisplay
  3
ACME_MODULE_NAME
 90
    32768
280
     0
281
     1
  0
CLASS
  1
ACMEAXIS
  2
AcImAxisDisplay
  3
AcMeServices
 90
    32768
280
     0
281
     1
  0
CLASS
  1
ACMEROTATIONARROW
  2
AcImRotationArrowDisplay
  3
AcMeServices
 90
    32768
280
     0
281
     1
  0
CLASS
  1
DEPEDGEPATTERNFEATURE
  2
AcAdDepEdgePatternFeature
  3
DesignerServices
 90
    32768
280
     0
281
     0
  0
CLASS
  1
ACADPATTNFEAT
  2
AcAdPatternFeat
  3
DesignerServices
 90
    32768
280
     0
281
     0
  0
CLASS
  1
DEPEDGESECONDARYDEPID
  2
AcAdDepEdgeSecondaryDepId
  3
DesignerServices
 90
    32768
280
     0
281
     0
  0
CLASS
  1
ADFILLET
  2
AcAdFillet
  3
DesignerServices
 90
    32768
280
     0
281
     0
  0
CLASS
  1
ADXEQUALCNS
  2
AcAdXEqualConstr
  3
DesignerServices
 90
    32768
280
     0
281
     0
  0
CLASS
  1
ADACADANGCNS
  2
AcAdAcadAngleConstr
  3
DesignerServices
 90
    32768
280
     0
281
     0
  0
CLASS
  1
SORTENTSTABLE
  2
AcDbSortentsTable
  3
ObjectDBX Classes
 90
        0
280
     0
281
     0
  0
CLASS
  1
ADCOLNCNS
  2
AcAdColinearConstr
  3
DesignerServices
 90
    32768
280
     0
281
     0
  0
CLASS
  1
ADPARCNS
  2
AcAdParallelConstr
  3
DesignerServices
 90
    32768
280
     0
281
     0
  0
CLASS
  1
ADEQUALLENGTHCNS
  2
AcAdEqualLengthConstr
  3
DesignerServices
 90
    32768
280
     0
281
     0
  0
CLASS
  1
ACAD_ARC
  2
AcAdArc
  3
DesignerServices
 90
    32768
280
     0
281
     1
  0
CLASS
  1
ACADARCACAD
  2
AcAdVirtualArcAcad
  3
DesignerServices
 90
    32768
280
     0
281
     0
  0
CLASS
  1
ADACADRADCNS
  2
AcAdAcadRadiusConstr
  3
DesignerServices
 90
    32768
280
     0
281
     0
  0
CLASS
  1
AMDT_RADIAL_DIM
  2
AmdtRadialDimension
  3
AcMeServices
 90
    32768
280
     0
281
     1
  0
CLASS
  1
ADYEQUALCNS
  2
AcAdYEqualConstr
  3
DesignerServices
 90
    32768
280
     0
281
     0
  0
CLASS
  1
ADEQRADCNS
  2
AcAdEqualRadiusConstr
  3
DesignerServices
 90
    32768
280
     0
281
     0
  0
CLASS
  1
STREFID
  2
AcAdStraightRefId
  3
DesignerServices
 90
    32768
280
     0
281
     0
  0
CLASS
  1
ACADLINEDEPID
  2
AcAdVirtualLineDepId
  3
DesignerServices
 90
    32768
280
     0
281
     0
  0
CLASS
  1
ACADPARTLINEDGRES
  2
AcAdPartLinEdgRes
  3
AdGrefServices
 90
    32768
280
     0
281
     0
  0
CLASS
  1
ADPERPCNS
  2
AcAdPerpendicularConstr
  3
DesignerServices
 90
    32768
280
     0
281
     0
  0
CLASS
  1
CNRREFID
  2
AcAdCornerId
  3
DesignerServices
 90
    32768
280
     0
281
     0
  0
CLASS
  1
ACADPARTPOINTRES
  2
AcAdPartPointRes
  3
AdGrefServices
 90
    32768
280
     0
281
     0
  0
CLASS
  1
DEPEDGEPATTERNINSTANCE
  2
AcAdDepEdgePatternInstance
  3
DesignerServices
 90
    32768
280
     0
281
     0
  0
CLASS
  1
ACADPOINTDEPID
  2
AcAdVirtualPointDepId
  3
DesignerServices
 90
    32768
280
     0
281
     0
  0
CLASS
  1
AMACTIVEPARTSELECTFILTER
  2
AcDmActivePartViewEntFilter
  3
DesignerServices
 90
    32768
280
     0
281
     0
  0
CLASS
  1
FACEID
  2
AcAdFaceId
  3
DesignerServices
 90
    32768
280
     0
281
     0
  0
CLASS
  1
ACADPARTPLANARFACERES
  2
AcAdPartPlanarFaceRes
  3
AdGrefServices
 90
    32768
280
     0
281
     0
  0
CLASS
  1
AM_GREF_PLANE
  2
AcDmGrefPlnDef
  3
AcMechDwgViewMgmt
 90
    32768
280
     0
281
     0
  0
CLASS
  1
AM_ABS_AXIS
  2
AcDmAbsAxisDef
  3
AcMechDwgViewMgmt
 90
    32768
280
     0
281
     0
  0
CLASS
  1
AM_BASE_VIEW_ORIENT
  2
AcDmBaseViewOr
  3
AcMechDwgViewMgmt
 90
    32768
280
     0
281
     0
  0
CLASS
  1
AM_DWG_VIEWPORT
  2
AcDmViewport
  3
AcMechDwgViewMgmt
 90
    32768
280
     0
281
     0
  0
CLASS
  1
AM_VIEW_DISPLAY
  2
AcDmDwgViewDisplay
  3
AcMechDwgViewMgmt
 90
    32768
280
     0
281
     0
  0
CLASS
  1
AM_CLDFLTS
  2
AcDmClDflts
  3
AcMechDwgViewMgmt
 90
    32768
280
     0
281
     0
  0
CLASS
  1
AM_BASE_VIEW
  2
AcDmBaseView
  3
AcMechDwgViewMgmt
 90
    32768
280
     0
281
     0
  0
CLASS
  1
ACDMPARTVIEWDATA
  2
AcDmPartViewData
  3
AcMechDwgViewMgmt
 90
    32768
280
     0
281
     0
  0
CLASS
  1
ACDMDISPLAYATTRIBS
  2
AcDmDisplayAttribs
  3
AcMechDwgViewMgmt
 90
    32768
280
     0
281
     0
  0
CLASS
  1
ACDMBODYINSTANCEDATA
  2
AcDmBodyInstanceData
  3
AcMechDwgViewMgmt
 90
    32768
280
     0
281
     0
  0
CLASS
  1
ACDMVWEDLINE
  2
AcDmViewEdgeLine
  3
AcMechDwgViewMgmt
 90
    32768
280
     0
281
     1
  0
CLASS
  1
ACDMVWEDSPLINE
  2
AcDmViewEdgeSpline
  3
AcMechDwgViewMgmt
 90
    32768
280
     0
281
     1
  0
CLASS
  1
ACDMVWEDARC
  2
AcDmViewEdgeArc
  3
AcMechDwgViewMgmt
 90
    32768
280
     0
281
     1
  0
CLASS
  1
ACADPARTSKETCHPLANEAXISRES
  2
AcAdPartSketchPlaneAxisRes
  3
DesignerServices
 90
    32768
280
     0
281
     0
  0
CLASS
  1
AM_VIEWDIMPARALLEL
  2
AcDmViewDimParallel
  3
AcMechDwgViewMgmt
 90
    32768
280
     0
281
     0
  0
CLASS
  1
AMDTDMPARMAPDATA
  2
AmdtDmDimParMapData
  3
AcMechDwgViewMgmt
 90
    32768
280
     0
281
     0
  0
CLASS
  1
AM_VIEWDIMLINEAR
  2
AcDmViewDimLinear
  3
AcMechDwgViewMgmt
 90
    32768
280
     0
281
     0
  0
CLASS
  1
AM_VIEWDIMRADIUS
  2
AcDmViewDimRadius
  3
AcMechDwgViewMgmt
 90
    32768
280
     0
281
     0
  0
CLASS
  1
AM_ADLINCTRLINE
  2
AcAdLineCl
  3
DesignerServices
 90
    32768
280
     0
281
     0
  0
CLASS
  1
AM_ADCIRCTRLINE
  2
AcAdBullsEyeCl
  3
DesignerServices
 90
    32768
280
     0
281
     0
  0
CLASS
  1
ACRFDMINSADJ
  2
AcRfDMInsAdjuster
  3
AcMechDwgViewMgmt
 90
    32768
280
     0
281
     0
  0
CLASS
  1
AM_ORTHO_VIEW_ORIENT
  2
AcDmOrthoViewOr
  3
AcMechDwgViewMgmt
 90
    32768
280
     0
281
     0
  0
CLASS
  1
AM_ORTHO_VIEW
  2
AcDmOrthoView
  3
AcMechDwgViewMgmt
 90
    32768
280
     0
281
     0
  0
CLASS
  1
ACDMVWEDCIRC
  2
AcDmViewEdgeCircle
  3
AcMechDwgViewMgmt
 90
    32768
280
     0
281
     1
  0
CLASS
  1
AM_VIEWDIMDIAMETER
  2
AcDmViewDimDiameter
  3
AcMechDwgViewMgmt
 90
    32768
280
     0
281
     0
  0
CLASS
  1
AM_VIEWDIMANGULAR
  2
AcDmViewDimAngular
  3
AcMechDwgViewMgmt
 90
    32768
280
     0
281
     0
  0
CLASS
  1
ACDMVWEDELLIPSE
  2
AcDmViewEdgeEllipse
  3
AcMechDwgViewMgmt
 90
    32768
280
     0
281
     1
  0
CLASS
  1
AMDTEDGESTANDARDISO13715
  2
AmdtEdgeStdISO13715
  3
"Amdt_StdImp|Product Description: AutoCAD Mechanical 2004 DX|Company: Autodesk"
 90
        0
280
     0
281
     0
  0
CLASS
  1
ACRFATTGENMGR
  2
AcRfAttGeneralMgr
  3
AcAttribServices
 90
        0
280
     0
281
     0
  0
ENDSEC
  0
SECTION
  2
TABLES
  0
TABLE
  2
VPORT
  5
20
330
0
100
AcDbSymbolTable
 70
     1
  0
VPORT
  5
21
330
20
100
AcDbSymbolTableRecord
100
AcDbViewportTableRecord
  2
*Active
 70
     0
 10
0.0
 20
0.0
 11
1.0
 21
1.0
 12
0.0
 22
0.0
 13
0.0
 23
0.0
 14
2.5
 24
2.5
 15
10.0
 25
10.0
 16
0.0
 26
0.0
 36
1.0
 17
0.0
 27
0.0
 37
0.0
 40
2.000000000000000E+20
 41
1.0
 42
50.0
 43
0.0
 44
0.0
 50
0.0
 51
0.0
 71
     0
 72
   100
 73
     1
 74
     1
 75
     0
 76
     0
 77
     0
 78
     0
281
     0
 65
     0
110
0.0
120
0.0
130
0.0
111
1.0
121
0.0
131
0.0
112
0.0
122
1.0
132
0.0
 79
     0
146
0.0
  0
ENDTAB
  0
TABLE
  2
LTYPE
  5
1B
330
0
100
AcDbSymbolTable
 70
    14
  0
LTYPE
  5
1C
330
1B
100
AcDbSymbolTableRecord
100
AcDbLinetypeTableRecord
  2
BYBLOCK
 70
     0
  3

 72
    65
 73
     0
 40
0.0
  0
LTYPE
  5
1D
330
1B
100
AcDbSymbolTableRecord
100
AcDbLinetypeTableRecord
  2
BYLAYER
 70
     0
  3

 72
    65
 73
     0
 40
0.0
  0
LTYPE
  5
A
330
1B
100
AcDbSymbolTableRecord
100
AcDbLinetypeTableRecord
  2
CONTINUOUS
 70
     0
  3
Solid line
 72
    65
 73
     0
 40
0.0
  0
LTYPE
  5
39
330
1B
100
AcDbSymbolTableRecord
100
AcDbLinetypeTableRecord
  2
AM_ISO08W050x2
 70
     0
  3
__ . __ . __ . __ . __ . __
 72
    65
 73
     4
 40
9.0
 49
6.0
 74
     0
 49
-0.75
 74
     0
 49
1.5
 74
     0
 49
-0.75
 74
     0
  0
LTYPE
  5
2D9
330
1B
100
AcDbSymbolTableRecord
100
AcDbLinetypeTableRecord
  2
HIDDEN
 70
     0
  3
Hidden __ __ __ __ __ __ __ __ __ __ __ __ __ _
 72
    65
 73
     2
 40
9.524999999999998
 49
6.349999999999999
 74
     0
 49
-3.174999999999999
 74
     0
  0
LTYPE
  5
2DA
330
1B
100
AcDbSymbolTableRecord
100
AcDbLinetypeTableRecord
  2
PHANTOM2
 70
     0
  3
Phantom (.5x) ___ _ _ ___ _ _ ___ _ _ ___ _ _
 72
    65
 73
     6
 40
31.75
 49
15.875
 74
     0
 49
-3.174999999999999
 74
     0
 49
3.174999999999999
 74
     0
 49
-3.174999999999999
 74
     0
 49
3.174999999999999
 74
     0
 49
-3.174999999999999
 74
     0
  0
LTYPE
  5
2DB
330
1B
100
AcDbSymbolTableRecord
100
AcDbLinetypeTableRecord
  2
CENTER
 70
     0
  3
Center ____ _ ____ _ ____ _ ____ _ ____ _ ____
 72
    65
 73
     4
 40
50.8
 49
31.75
 74
     0
 49
-6.349999999999999
 74
     0
 49
6.349999999999999
 74
     0
 49
-6.349999999999999
 74
     0
  0
LTYPE
  5
30F
330
1B
100
AcDbSymbolTableRecord
100
AcDbLinetypeTableRecord
  2
AM_ISO02W050
 70
     0
  3
__ __ __ __ __ __ __ __ __ __ __ __ __ __ __
 72
    65
 73
     2
 40
7.5
 49
6.0
 74
     0
 49
-1.5
 74
     0
  0
LTYPE
  5
310
330
1B
100
AcDbSymbolTableRecord
100
AcDbLinetypeTableRecord
  2
AM_ISO08W050
 70
     0
  3
____ . ____ . ____ . ____ . ____ . ____ . ____
 72
    65
 73
     4
 40
18.0
 49
12.0
 74
     0
 49
-1.5
 74
     0
 49
3.0
 74
     0
 49
-1.5
 74
     0
  0
LTYPE
  5
311
330
1B
100
AcDbSymbolTableRecord
100
AcDbLinetypeTableRecord
  2
AM_ISO09W050
 70
     0
  3
_____ . . _____ . . _____ . . ____ .. ____
 72
    65
 73
     6
 40
22.5
 49
12.0
 74
     0
 49
-1.5
 74
     0
 49
3.0
 74
     0
 49
-1.5
 74
     0
 49
3.0
 74
     0
 49
-1.5
 74
     0
  0
LTYPE
  5
312
330
1B
100
AcDbSymbolTableRecord
100
AcDbLinetypeTableRecord
  2
Amconstr
 70
     0
  3
_______________________
 72
    65
 73
     2
 40
9999.0
 49
9999.0
 74
     0
 49
0.0
 74
     0
  0
LTYPE
  5
313
330
1B
100
AcDbSymbolTableRecord
100
AcDbLinetypeTableRecord
  2
AM_ISO02W050x2
 70
     0
  3
 _ _ _ _ _ _ _ _ _ _ _ _
 72
    65
 73
     2
 40
3.75
 49
3.0
 74
     0
 49
-0.75
 74
     0
  0
LTYPE
  5
316
330
1B
100
AcDbSymbolTableRecord
100
AcDbLinetypeTableRecord
  2
Amzigzag
 70
     0
  3
/\/-/\/-/\/-/\/-/\/-/\/
 72
    65
 73
     2
 40
11.0001
 49
0.0001
 74
     4
 75
   135
340
315
 46
0.04
 50
0.0
 44
0.0
 45
0.0
 49
-11.0
 74
     0
  0
LTYPE
  5
325
330
1B
100
AcDbSymbolTableRecord
100
AcDbLinetypeTableRecord
  2
ACISOWELD
 70
     0
  3
_ _ _ _ _
 72
    65
 73
     2
 40
2.0
 49
2.0
 74
     0
 49
-1.0
 74
     0
  0
LTYPE
  5
326
330
1B
100
AcDbSymbolTableRecord
100
AcDbLinetypeTableRecord
  2
ACISOTGB
 70
     0
  3
__ . . __ . .
 72
    65
 73
     6
 40
9.0
 49
4.0
 74
     0
 49
-1.0
 74
     0
 49
1.0
 74
     0
 49
-1.0
 74
     0
 49
1.0
 74
     0
 49
-1.0
 74
     0
  0
LTYPE
  5
327
330
1B
100
AcDbSymbolTableRecord
100
AcDbLinetypeTableRecord
  2
ACISOTGL
 70
     0
  3
_ _ _ _ _
 72
    65
 73
     2
 40
3.0
 49
2.0
 74
     0
 49
-1.0
 74
     0
  0
ENDTAB
  0
TABLE
  2
LAYER
  5
15
102
{ACAD_XDICTIONARY
360
16
102
}
330
0
100
AcDbSymbolTable
 70
     6
  0
LAYER
  5
6
330
15
100
AcDbSymbolTableRecord
100
AcDbLayerTableRecord
  2
0
 70
     0
 62
     7
  6
CONTINUOUS
370
    -3
390
7
  0
LAYER
  5
7F
330
15
100
AcDbSymbolTableRecord
100
AcDbLayerTableRecord
  2
Defpoints
 70
     0
 62
     7
  6
CONTINUOUS
290
     0
370
    -3
390
7
  0
LAYER
  5
11F
330
15
100
AcDbSymbolTableRecord
100
AcDbLayerTableRecord
  2
AM_VIS
 70
     0
 62
     7
  6
CONTINUOUS
370
    50
390
7
  0
LAYER
  5
38
330
15
100
AcDbSymbolTableRecord
100
AcDbLayerTableRecord
  2
AM_7
 70
     0
 62
     1
  6
AM_ISO08W050x2
370
    25
390
7
  0
LAYER
  5
74
330
15
100
AcDbSymbolTableRecord
100
AcDbLayerTableRecord
  2
AM_REFDIM
 70
     0
 62
     5
  6
CONTINUOUS
370
    50
390
7
  0
LAYER
  5
3BD
330
15
100
AcDbSymbolTableRecord
100
AcDbLayerTableRecord
  2
LOGO
 70
     0
 62
     7
  6
CONTINUOUS
370
    -3
390
7
  0
ENDTAB
  0
TABLE
  2
STYLE
  5
18
330
0
100
AcDbSymbolTable
 70
     5
  0
STYLE
  5
19
330
18
100
AcDbSymbolTableRecord
100
AcDbTextStyleTableRecord
  2
STANDARD
 70
     0
 40
0.0
 41
1.0
 50
0.0
 71
     0
 42
1.0
  3
ISOCP.SHX
  4
CHINESET.SHX
  0
STYLE
  5
315
330
18
100
AcDbSymbolTableRecord
100
AcDbTextStyleTableRecord
  2

 70
     1
 40
0.0
 41
1.0
 50
0.0
 71
     0
 42
1.0
  3
ltypeshp.shx
  4

  0
STYLE
  5
317
330
18
100
AcDbSymbolTableRecord
100
AcDbTextStyleTableRecord
  2
ACISOTS
 70
     0
 40
1.0
 41
1.0
 50
0.0
 71
     0
 42
1.0
  3
isocp.shx
  4
chineset.shx
  0
STYLE
  5
324
330
18
100
AcDbSymbolTableRecord
100
AcDbTextStyleTableRecord
  2
ACISOGDT
 70
     0
 40
0.0
 41
1.0
 50
0.0
 71
     0
 42
1.0
  3
amgdt.shx
  4

  0
STYLE
  5
3BE
330
18
100
AcDbSymbolTableRecord
100
AcDbTextStyleTableRecord
  2
CHINESET
 70
     0
 40
0.0
 41
1.0
 50
0.0
 71
     0
 42
3.0
  3
simplex.shx
  4
CHINESET.SHX
  0
ENDTAB
  0
TABLE
  2
VIEW
  5
1E
330
0
100
AcDbSymbolTable
 70
     0
  0
ENDTAB
  0
TABLE
  2
UCS
  5
1F
330
0
100
AcDbSymbolTable
 70
     0
  0
ENDTAB
  0
TABLE
  2
APPID
  5
22
330
0
100
AcDbSymbolTable
 70
    16
  0
APPID
  5
23
330
22
100
AcDbSymbolTableRecord
100
AcDbRegAppTableRecord
  2
ACAD
 70
     0
  0
APPID
  5
14
330
22
100
AcDbSymbolTableRecord
100
AcDbRegAppTableRecord
  2
ACAD_PSEXT
 70
     0
  0
APPID
  5
2AC
330
22
100
AcDbSymbolTableRecord
100
AcDbRegAppTableRecord
  2
MCAD_NO_VIS
 70
     0
  0
APPID
  5
2AD
330
22
100
AcDbSymbolTableRecord
100
AcDbRegAppTableRecord
  2
ACAD_TEMP_GRAPHIC
 70
     0
  0
APPID
  5
2DD
330
22
100
AcDbSymbolTableRecord
100
AcDbRegAppTableRecord
  2
AD_DRAW
 70
     0
  0
APPID
  5
2E0
330
22
100
AcDbSymbolTableRecord
100
AcDbRegAppTableRecord
  2
ACATTRIBSERVICES
 70
     0
  0
APPID
  5
2FE
330
22
100
AcDbSymbolTableRecord
100
AcDbRegAppTableRecord
  2
DESIGNERASSEMBLIES
 70
     0
  0
APPID
  5
304
330
22
100
AcDbSymbolTableRecord
100
AcDbRegAppTableRecord
  2
ACADM_DIM_EDIT
 70
     0
  0
APPID
  5
305
330
22
100
AcDbSymbolTableRecord
100
AcDbRegAppTableRecord
  2
AMDT_DM_ADJ
 70
     0
  0
APPID
  5
3BF
330
22
100
AcDbSymbolTableRecord
100
AcDbRegAppTableRecord
  2
GENIUS_GENOENT_13
 70
     0
  0
APPID
  5
3C0
330
22
100
AcDbSymbolTableRecord
100
AcDbRegAppTableRecord
  2
GENIUS_GENOBJ-N-CRS_13
 70
     0
  0
APPID
  5
3C1
330
22
100
AcDbSymbolTableRecord
100
AcDbRegAppTableRecord
  2
GENIUS_GENOLIS_13
 70
     0
  0
APPID
  5
3C2
330
22
100
AcDbSymbolTableRecord
100
AcDbRegAppTableRecord
  2
GENIUS_GENODEF_13
 70
     0
  0
APPID
  5
3C3
330
22
100
AcDbSymbolTableRecord
100
AcDbRegAppTableRecord
  2
GENIUS_GENOREF_13
 70
     0
  0
APPID
  5
3C4
330
22
100
AcDbSymbolTableRecord
100
AcDbRegAppTableRecord
  2
GENIUS_GENREC_14
 70
     0
  0
APPID
  5
3C5
330
22
100
AcDbSymbolTableRecord
100
AcDbRegAppTableRecord
  2
GENIUS_GENOBJ-N-REC_13
 70
     0
  0
ENDTAB
  0
TABLE
  2
DIMSTYLE
  5
24
330
0
100
AcDbSymbolTable
 70
     9
100
AcDbDimStyleTable
 71
     3
340
25
340
26
340
27
  0
DIMSTYLE
105
25
102
{ACAD_REACTORS
330
90
102
}
330
24
100
AcDbSymbolTableRecord
100
AcDbDimStyleTableRecord
  2
AM_ISO
 70
     0
  4
"
 41
3.5
 42
1.0
 43
8.0
 44
1.0
 47
0.1
 48
0.1
 73
     0
 74
     0
 77
     1
 78
     8
 79
     2
140
3.5
141
0.0
143
0.0393701
146
0.71
147
1.0
172
     1
176
   256
177
   256
178
   256
271
     2
272
     2
283
     0
284
     8
285
     8
340
19
371
    -1
372
    -1
  0
DIMSTYLE
105
BA
102
{ACAD_REACTORS
330
F8
330
B9
102
}
330
24
100
AcDbSymbolTableRecord
100
AcDbDimStyleTableRecord
  2
AM_ISO$4
 70
     0
  4
"
 41
3.5
 42
1.0
 43
10.0
 44
1.0
 47
0.1
 48
0.1
 73
     0
 77
     1
 78
     8
 79
     2
140
3.5
141
0.0
143
0.0393701
146
0.71
147
1.0
176
   256
177
   256
178
   256
271
     2
272
     2
283
     0
284
     8
288
     1
289
     0
340
19
371
    -1
372
    -1
  0
DIMSTYLE
105
26
330
24
100
AcDbSymbolTableRecord
100
AcDbDimStyleTableRecord
  2
AM_ISO$SF
 70
     0
  4
"
 41
2.5
 42
1.0
 43
10.0
 44
1.0
 47
0.1
 48
0.1
 73
     0
 74
     0
 75
     1
 76
     1
 77
     1
 78
     8
 79
     2
140
3.5
141
0.0
143
0.0393701
146
0.71
147
1.0
172
     1
176
   256
177
   256
178
   256
271
     2
272
     2
283
     0
284
     8
340
19
371
    -1
372
    -1
  0
DIMSTYLE
105
27
330
24
100
AcDbSymbolTableRecord
100
AcDbDimStyleTableRecord
  2
AM_ISO$SH
 70
     0
  4
"
 41
2.5
 42
1.0
 43
10.0
 44
1.0
 47
0.1
 48
0.1
 73
     0
 74
     0
 75
     1
 76
     1
 77
     1
 78
     8
 79
     2
140
3.5
141
0.0
143
0.0393701
144
2.0
146
0.71
147
1.0
172
     1
173
     1
176
   256
177
   256
178
   256
271
     2
272
     2
283
     0
284
     8
340
19
343
28
371
    -1
372
    -1
  0
DIMSTYLE
105
75
102
{ACAD_REACTORS
330
C4
330
111
330
D1
330
102
330
DE
330
EB
330
73
330
83
330
9D
330
AC
102
}
330
24
100
AcDbSymbolTableRecord
100
AcDbDimStyleTableRecord
  2
AM_ISO$0
 70
     0
  4
"
 41
3.5
 42
1.0
 43
8.0
 44
1.0
 47
0.1
 48
0.1
 73
     0
 74
     0
 77
     1
 78
     8
 79
     2
140
3.5
141
0.0
143
0.0393701
146
0.71
147
1.0
172
     1
176
   256
177
   256
178
   256
271
     2
272
     2
283
     0
284
     8
285
     8
340
19
371
    -1
372
    -1
  0
DIMSTYLE
105
330
330
24
100
AcDbSymbolTableRecord
100
AcDbDimStyleTableRecord
  2
AM_ISO$3
 70
     0
  4
"
 41
3.5
 42
1.0
 43
8.0
 44
1.0
 47
0.1
 48
0.1
 73
     0
 77
     1
 78
     8
 79
     2
140
3.5
141
0.0
143
0.0393701
146
0.71
147
1.0
176
   256
177
   256
178
   256
271
     2
272
     2
283
     0
284
     8
285
     8
288
     1
289
     0
340
19
371
    -1
372
    -1
  0
DIMSTYLE
105
331
330
24
100
AcDbSymbolTableRecord
100
AcDbDimStyleTableRecord
  2
AM_ISO$6
 70
     0
  4
"
 41
3.5
 42
1.0
 43
8.0
 44
1.0
 47
0.1
 48
0.1
 73
     0
 74
     0
 78
     8
 79
     2
140
3.5
141
0.0
143
0.0393701
146
0.71
147
1.0
172
     1
176
   256
177
   256
178
   256
271
     2
272
     2
283
     0
284
     8
285
     8
340
19
371
    -1
372
    -1
  0
DIMSTYLE
105
332
330
24
100
AcDbSymbolTableRecord
100
AcDbDimStyleTableRecord
  2
AM_ISO$7
 70
     0
  4
"
 41
2.5
 42
1.0
 43
8.0
 44
1.0
 47
0.1
 48
0.1
 73
     0
 74
     0
 77
     1
 78
     8
 79
     2
140
5.0
141
0.0
143
0.0393701
146
0.71
147
1.5
172
     1
176
   256
177
   256
178
   256
271
     2
272
     2
283
     0
284
     8
285
     8
340
19
371
    -1
372
    -1
  0
ENDTAB
  0
TABLE
  2
BLOCK_RECORD
  5
1
330
0
100
AcDbSymbolTable
 70
    30
  0
BLOCK_RECORD
  5
2
102
{ACAD_XDICTIONARY
360
3
102
}
330
1
100
AcDbSymbolTableRecord
100
AcDbBlockTableRecord
  2
*MODEL_SPACE
340
C
  0
BLOCK_RECORD
  5
E
330
1
100
AcDbSymbolTableRecord
100
AcDbBlockTableRecord
  2
*PAPER_SPACE
340
11
  0
BLOCK_RECORD
  5
28
330
1
100
AcDbSymbolTableRecord
100
AcDbBlockTableRecord
  2
GENAXEH
340
0
  0
BLOCK_RECORD
  5
497
330
1
100
AcDbSymbolTableRecord
100
AcDbBlockTableRecord
  2
*D16
340
0
  0
BLOCK_RECORD
  5
4A3
330
1
100
AcDbSymbolTableRecord
100
AcDbBlockTableRecord
  2
*D17
340
0
  0
BLOCK_RECORD
  5
4AF
330
1
100
AcDbSymbolTableRecord
100
AcDbBlockTableRecord
  2
*D18
340
0
  0
BLOCK_RECORD
  5
4BB
330
1
100
AcDbSymbolTableRecord
100
AcDbBlockTableRecord
  2
*D19
340
0
  0
BLOCK_RECORD
  5
4C9
330
1
100
AcDbSymbolTableRecord
100
AcDbBlockTableRecord
  2
*D20
340
0
  0
BLOCK_RECORD
  5
4D5
330
1
100
AcDbSymbolTableRecord
100
AcDbBlockTableRecord
  2
*D21
340
0
  0
BLOCK_RECORD
  5
4DE
330
1
100
AcDbSymbolTableRecord
100
AcDbBlockTableRecord
  2
*D22
340
0
  0
BLOCK_RECORD
  5
4EA
330
1
100
AcDbSymbolTableRecord
100
AcDbBlockTableRecord
  2
*D23
340
0
  0
BLOCK_RECORD
  5
4F6
330
1
100
AcDbSymbolTableRecord
100
AcDbBlockTableRecord
  2
*D24
340
0
  0
BLOCK_RECORD
  5
502
330
1
100
AcDbSymbolTableRecord
100
AcDbBlockTableRecord
  2
*D25
340
0
  0
BLOCK_RECORD
  5
50E
330
1
100
AcDbSymbolTableRecord
100
AcDbBlockTableRecord
  2
*D26
340
0
  0
BLOCK_RECORD
  5
517
330
1
100
AcDbSymbolTableRecord
100
AcDbBlockTableRecord
  2
*D27
340
0
  0
BLOCK_RECORD
  5
525
330
1
100
AcDbSymbolTableRecord
100
AcDbBlockTableRecord
  2
*D28
340
0
  0
ENDTAB
  0
ENDSEC
  0
SECTION
  2
BLOCKS
  0
BLOCK
  5
5
330
2
100
AcDbEntity
  8
0
100
AcDbBlockBegin
  2
*MODEL_SPACE
 70
     0
 10
0.0
 20
0.0
 30
0.0
  3
*MODEL_SPACE
  1

  0
ENDBLK
  5
B
330
2
100
AcDbEntity
  8
0
100
AcDbBlockEnd
  0
BLOCK
  5
F
330
E
100
AcDbEntity
 67
     1
  8
0
100
AcDbBlockBegin
  2
*PAPER_SPACE
 70
     0
 10
0.0
 20
0.0
 30
0.0
  3
*PAPER_SPACE
  1

  0
ENDBLK
  5
10
330
E
100
AcDbEntity
 67
     1
  8
0
100
AcDbBlockEnd
  0
BLOCK
  5
29
330
28
100
AcDbEntity
  8
0
100
AcDbBlockBegin
  2
GENAXEH
 70
     0
 10
0.0
 20
0.0
 30
0.0
  3
GENAXEH
  1

  0
LINE
  5
2A
330
28
100
AcDbEntity
  8
0
100
AcDbLine
 10
-1.0
 20
0.0
 30
0.0
 11
1.0
 21
0.0
 31
0.0
  0
ENDBLK
  5
2B
330
28
100
AcDbEntity
  8
0
100
AcDbBlockEnd
  0
BLOCK
  5
4A1
330
497
100
AcDbEntity
  8
0
 62
     4
100
AcDbBlockBegin
  2
*D16
 70
     1
 10
0.0
 20
0.0
 30
0.0
  3
*D16
  1

  0
LINE
  5
498
330
497
100
AcDbEntity
  8
AM_REFDIM
100
AcDbLine
 10
67.88822384503624
 20
108.6272032511826
 30
0.0
 11
33.54437065260845
 21
108.6272032511826
 31
0.0
  0
LINE
  5
499
330
497
100
AcDbEntity
  8
AM_REFDIM
100
AcDbLine
 10
67.88822384503624
 20
139.6272032511826
 30
0.0
 11
33.54437065260845
 21
139.6272032511826
 31
0.0
  0
LINE
  5
49A
330
497
100
AcDbEntity
  8
AM_REFDIM
100
AcDbLine
 10
34.54437065260845
 20
112.1272032511826
 30
0.0
 11
34.54437065260845
 21
136.1272032511826
 31
0.0
  0
SOLID
  5
49B
330
497
100
AcDbEntity
  8
AM_REFDIM
100
AcDbTrace
 10
33.96103731927512
 20
112.1272032511826
 30
0.0
 11
35.12770398594179
 21
112.1272032511826
 31
0.0
 12
34.54437065260844
 22
108.6272032511826
 32
0.0
 13
34.54437065260844
 23
108.6272032511826
 33
0.0
  0
SOLID
  5
49C
330
497
100
AcDbEntity
  8
AM_REFDIM
100
AcDbTrace
 10
33.96103731927512
 20
136.1272032511826
 30
0.0
 11
35.12770398594179
 21
136.1272032511826
 31
0.0
 12
34.54437065260845
 22
139.6272032511826
 32
0.0
 13
34.54437065260845
 23
139.6272032511826
 33
0.0
  0
MTEXT
  5
49D
330
497
100
AcDbEntity
  8
AM_REFDIM
100
AcDbMText
 10
31.79437065260843
 20
124.1272032511826
 30
0.0
 40
3.5
 41
0.0
 71
     5
 72
     1
  1
31
 11
0.0000000000000001
 21
1.0
 31
0.0
 73
     1
 44
1.0
1001
ACAD
1000
MTEXTBEGIN
1070
    73
1070
     1
1070
    44
1040
1.0
1070
    74
1070
     0
1000
MTEXTEND
  0
POINT
  5
49E
330
497
100
AcDbEntity
  8
Defpoints
 62
     0
100
AcDbPoint
 10
68.88822384503623
 20
108.6272032511826
 30
0.0
  0
POINT
  5
49F
330
497
100
AcDbEntity
  8
Defpoints
 62
     0
100
AcDbPoint
 10
68.88822384503623
 20
139.6272032511826
 30
0.0
  0
POINT
  5
4A0
330
497
100
AcDbEntity
  8
Defpoints
 62
     0
100
AcDbPoint
 10
34.54437065260845
 20
139.6272032511826
 30
0.0
  0
ENDBLK
  5
4A2
330
497
100
AcDbEntity
  8
0
 62
     4
100
AcDbBlockEnd
  0
BLOCK
  5
4AD
330
4A3
100
AcDbEntity
  8
0
 62
     4
100
AcDbBlockBegin
  2
*D17
 70
     1
 10
0.0
 20
0.0
 30
0.0
  3
*D17
  1

  0
LINE
  5
4A4
330
4A3
100
AcDbEntity
  8
AM_REFDIM
100
AcDbLine
 10
67.88822384503624
 20
108.6272032511826
 30
0.0
 11
47.03883894421735
 21
108.6272032511826
 31
0.0
  0
LINE
  5
4A5
330
4A3
100
AcDbEntity
  8
AM_REFDIM
100
AcDbLine
 10
69.38822384503623
 20
129.2272032511826
 30
0.0
 11
47.03883894421735
 21
129.2272032511826
 31
0.0
  0
LINE
  5
4A6
330
4A3
100
AcDbEntity
  8
AM_REFDIM
100
AcDbLine
 10
48.03883894421735
 20
112.1272032511826
 30
0.0
 11
48.03883894421735
 21
125.7272032511826
 31
0.0
  0
SOLID
  5
4A7
330
4A3
100
AcDbEntity
  8
AM_REFDIM
100
AcDbTrace
 10
47.45550561088402
 20
112.1272032511826
 30
0.0
 11
48.62217227755069
 21
112.1272032511826
 31
0.0
 12
48.03883894421734
 22
108.6272032511826
 32
0.0
 13
48.03883894421734
 23
108.6272032511826
 33
0.0
  0
SOLID
  5
4A8
330
4A3
100
AcDbEntity
  8
AM_REFDIM
100
AcDbTrace
 10
47.45550561088402
 20
125.7272032511826
 30
0.0
 11
48.62217227755069
 21
125.7272032511826
 31
0.0
 12
48.03883894421735
 22
129.2272032511826
 32
0.0
 13
48.03883894421735
 23
129.2272032511826
 33
0.0
  0
MTEXT
  5
4A9
330
4A3
100
AcDbEntity
  8
AM_REFDIM
100
AcDbMText
 10
45.28849445602835
 20
118.9272032511826
 30
0.0
 40
3.5
 41
0.0
 71
     5
 72
     1
  1
20.6
 11
0.0000000000000001
 21
1.0
 31
0.0
 73
     1
 44
1.0
1001
ACAD
1000
MTEXTBEGIN
1070
    73
1070
     1
1070
    44
1040
1.0
1070
    74
1070
     0
1000
MTEXTEND
  0
POINT
  5
4AA
330
4A3
100
AcDbEntity
  8
Defpoints
 62
     0
100
AcDbPoint
 10
68.88822384503623
 20
108.6272032511826
 30
0.0
  0
POINT
  5
4AB
330
4A3
100
AcDbEntity
  8
Defpoints
 62
     0
100
AcDbPoint
 10
70.38822384503624
 20
129.2272032511826
 30
0.0
  0
POINT
  5
4AC
330
4A3
100
AcDbEntity
  8
Defpoints
 62
     0
100
AcDbPoint
 10
48.03883894421735
 20
129.2272032511826
 30
0.0
  0
ENDBLK
  5
4AE
330
4A3
100
AcDbEntity
  8
0
 62
     4
100
AcDbBlockEnd
  0
BLOCK
  5
4B9
330
4AF
100
AcDbEntity
  8
0
 62
     4
100
AcDbBlockBegin
  2
*D18
 70
     1
 10
0.0
 20
0.0
 30
0.0
  3
*D18
  1

  0
LINE
  5
4B0
330
4AF
100
AcDbEntity
  8
AM_REFDIM
100
AcDbLine
 10
56.38822384503623
 20
97.62720325118261
 30
0.0
 11
56.38822384503624
 21
161.0272032511826
 31
0.0
  0
LINE
  5
4B1
330
4AF
100
AcDbEntity
  8
AM_REFDIM
100
AcDbLine
 10
131.3882238450362
 20
97.62720325118261
 30
0.0
 11
131.3882238450362
 21
161.0272032511826
 31
0.0
  0
LINE
  5
4B2
330
4AF
100
AcDbEntity
  8
AM_REFDIM
100
AcDbLine
 10
59.88822384503624
 20
160.0272032511826
 30
0.0
 11
127.8882238450362
 21
160.0272032511826
 31
0.0
  0
SOLID
  5
4B3
330
4AF
100
AcDbEntity
  8
AM_REFDIM
100
AcDbTrace
 10
59.88822384503624
 20
160.6105365845159
 30
0.0
 11
59.88822384503624
 21
159.4438699178492
 31
0.0
 12
56.38822384503624
 22
160.0272032511826
 32
0.0
 13
56.38822384503624
 23
160.0272032511826
 33
0.0
  0
SOLID
  5
4B4
330
4AF
100
AcDbEntity
  8
AM_REFDIM
100
AcDbTrace
 10
127.8882238450362
 20
160.6105365845159
 30
0.0
 11
127.8882238450362
 21
159.4438699178492
 31
0.0
 12
131.3882238450362
 22
160.0272032511826
 32
0.0
 13
131.3882238450362
 23
160.0272032511826
 33
0.0
  0
MTEXT
  5
4B5
330
4AF
100
AcDbEntity
  8
AM_REFDIM
100
AcDbMText
 10
93.88822384503624
 20
162.7772032511826
 30
0.0
 40
3.5
 41
0.0
 71
     5
 72
     1
  1
%%c75
 73
     1
 44
1.0
1001
ACAD
1000
MTEXTBEGIN
1070
    73
1070
     1
1070
    44
1040
1.0
1070
    74
1070
     0
1000
MTEXTEND
  0
POINT
  5
4B6
330
4AF
100
AcDbEntity
  8
Defpoints
 62
     0
100
AcDbPoint
 10
56.38822384503623
 20
96.62720325118261
 30
0.0
  0
POINT
  5
4B7
330
4AF
100
AcDbEntity
  8
Defpoints
 62
     0
100
AcDbPoint
 10
131.3882238450362
 20
96.62720325118261
 30
0.0
  0
POINT
  5
4B8
330
4AF
100
AcDbEntity
  8
Defpoints
 62
     0
100
AcDbPoint
 10
131.3882238450362
 20
160.0272032511826
 30
0.0
  0
ENDBLK
  5
4BA
330
4AF
100
AcDbEntity
  8
0
 62
     4
100
AcDbBlockEnd
  0
BLOCK
  5
4C7
330
4BB
100
AcDbEntity
  8
0
 62
     4
100
AcDbBlockBegin
  2
*D19
 70
     1
 10
0.0
 20
0.0
 30
0.0
  3
*D19
  1

  0
LINE
  5
4BC
330
4BB
100
AcDbEntity
  8
AM_REFDIM
100
AcDbLine
 10
76.38822384503623
 20
136.2272032511826
 30
0.0
 11
76.38822384503623
 21
145.2272032511826
 31
0.0
  0
LINE
  5
4BD
330
4BB
100
AcDbEntity
  8
AM_REFDIM
100
AcDbLine
 10
80.38822384503623
 20
136.2272032511826
 30
0.0
 11
80.38822384503623
 21
145.2272032511826
 31
0.0
  0
LINE
  5
4BE
330
4BB
100
AcDbEntity
  8
AM_REFDIM
100
AcDbLine
 10
83.88822384503624
 20
144.2272032511826
 30
0.0
 11
87.38822384503624
 21
144.2272032511826
 31
0.0
  0
LINE
  5
4BF
330
4BB
100
AcDbEntity
  8
AM_REFDIM
100
AcDbLine
 10
72.88822384503624
 20
144.2272032511826
 30
0.0
 11
65.63822384503623
 21
144.2272032511826
 31
0.0
  0
LINE
  5
4C0
330
4BB
100
AcDbEntity
  8
AM_REFDIM
100
AcDbLine
 10
80.38822384503623
 20
144.2272032511826
 30
0.0
 11
76.38822384503623
 21
144.2272032511826
 31
0.0
  0
SOLID
  5
4C1
330
4BB
100
AcDbEntity
  8
AM_REFDIM
100
AcDbTrace
 10
83.88822384503624
 20
144.8105365845159
 30
0.0
 11
83.88822384503624
 21
143.6438699178493
 31
0.0
 12
80.38822384503623
 22
144.2272032511826
 32
0.0
 13
80.38822384503623
 23
144.2272032511826
 33
0.0
  0
SOLID
  5
4C2
330
4BB
100
AcDbEntity
  8
AM_REFDIM
100
AcDbTrace
 10
72.88822384503624
 20
144.8105365845159
 30
0.0
 11
72.88822384503624
 21
143.6438699178493
 31
0.0
 12
76.38822384503623
 22
144.2272032511826
 32
0.0
 13
76.38822384503623
 23
144.2272032511826
 33
0.0
  0
MTEXT
  5
4C3
330
4BB
100
AcDbEntity
  8
AM_REFDIM
100
AcDbMText
 10
67.51322384503623
 20
146.9772032511826
 30
0.0
 40
3.5
 41
0.0
 71
     5
 72
     1
  1
4
 73
     1
 44
1.0
1001
ACAD
1000
MTEXTBEGIN
1070
    73
1070
     1
1070
    44
1040
1.0
1070
    74
1070
     0
1000
MTEXTEND
  0
POINT
  5
4C4
330
4BB
100
AcDbEntity
  8
Defpoints
 62
     0
100
AcDbPoint
 10
76.38822384503623
 20
135.2272032511826
 30
0.0
  0
POINT
  5
4C5
330
4BB
100
AcDbEntity
  8
Defpoints
 62
     0
100
AcDbPoint
 10
80.38822384503623
 20
135.2272032511826
 30
0.0
  0
POINT
  5
4C6
330
4BB
100
AcDbEntity
  8
Defpoints
 62
     0
100
AcDbPoint
 10
80.38822384503623
 20
144.2272032511826
 30
0.0
  0
ENDBLK
  5
4C8
330
4BB
100
AcDbEntity
  8
0
 62
     4
100
AcDbBlockEnd
  0
BLOCK
  5
4D3
330
4C9
100
AcDbEntity
  8
0
 62
     4
100
AcDbBlockBegin
  2
*D20
 70
     1
 10
0.0
 20
0.0
 30
0.0
  3
*D20
  1

  0
LINE
  5
4CA
330
4C9
100
AcDbEntity
  8
AM_REFDIM
100
AcDbLine
 10
78.38822384503624
 20
133.2272032511826
 30
0.0
 11
78.38822384503624
 21
153.2272032511826
 31
0.0
  0
LINE
  5
4CB
330
4C9
100
AcDbEntity
  8
AM_REFDIM
100
AcDbLine
 10
109.3882238450362
 20
133.2272032511826
 30
0.0
 11
109.3882238450362
 21
153.2272032511826
 31
0.0
  0
LINE
  5
4CC
330
4C9
100
AcDbEntity
  8
AM_REFDIM
100
AcDbLine
 10
81.88822384503623
 20
152.2272032511826
 30
0.0
 11
105.8882238450362
 21
152.2272032511826
 31
0.0
  0
SOLID
  5
4CD
330
4C9
100
AcDbEntity
  8
AM_REFDIM
100
AcDbTrace
 10
81.88822384503623
 20
152.8105365845159
 30
0.0
 11
81.88822384503623
 21
151.6438699178493
 31
0.0
 12
78.38822384503624
 22
152.2272032511826
 32
0.0
 13
78.38822384503624
 23
152.2272032511826
 33
0.0
  0
SOLID
  5
4CE
330
4C9
100
AcDbEntity
  8
AM_REFDIM
100
AcDbTrace
 10
105.8882238450362
 20
152.8105365845159
 30
0.0
 11
105.8882238450362
 21
151.6438699178493
 31
0.0
 12
109.3882238450362
 22
152.2272032511826
 32
0.0
 13
109.3882238450362
 23
152.2272032511826
 33
0.0
  0
MTEXT
  5
4CF
330
4C9
100
AcDbEntity
  8
AM_REFDIM
100
AcDbMText
 10
93.88822384503624
 20
154.9772032511826
 30
0.0
 40
3.5
 41
0.0
 71
     5
 72
     1
  1
31
 73
     1
 44
1.0
1001
ACAD
1000
MTEXTBEGIN
1070
    73
1070
     1
1070
    44
1040
1.0
1070
    74
1070
     0
1000
MTEXTEND
  0
POINT
  5
4D0
330
4C9
100
AcDbEntity
  8
Defpoints
 62
     0
100
AcDbPoint
 10
78.38822384503624
 20
132.2272032511826
 30
0.0
  0
POINT
  5
4D1
330
4C9
100
AcDbEntity
  8
Defpoints
 62
     0
100
AcDbPoint
 10
109.3882238450362
 20
132.2272032511826
 30
0.0
  0
POINT
  5
4D2
330
4C9
100
AcDbEntity
  8
Defpoints
 62
     0
100
AcDbPoint
 10
109.3882238450362
 20
152.2272032511826
 30
0.0
  0
ENDBLK
  5
4D4
330
4C9
100
AcDbEntity
  8
0
 62
     4
100
AcDbBlockEnd
  0
BLOCK
  5
4DC
330
4D5
100
AcDbEntity
  8
0
 62
     4
100
AcDbBlockBegin
  2
*D21
 70
     1
 10
0.0
 20
0.0
 30
0.0
  3
*D21
  1

  0
LINE
  5
4D6
330
4D5
100
AcDbEntity
  8
AM_REFDIM
100
AcDbLine
 10
114.9045191104034
 20
134.6939817913063
 30
0.0
 11
121.3210255818031
 21
144.6697139847604
 31
0.0
  0
LINE
  5
4D7
330
4D5
100
AcDbEntity
  8
AM_REFDIM
100
AcDbLine
 10
121.3210255818031
 20
144.6697139847604
 30
0.0
 11
126.6660003286337
 21
144.6697139847604
 31
0.0
  0
SOLID
  5
4D8
330
4D5
100
AcDbEntity
  8
AM_REFDIM
100
AcDbTrace
 10
114.4139107798794
 20
135.0095467510188
 30
0.0
 11
115.3951274409273
 21
134.3784168315939
 31
0.0
 12
113.0111293521287
 22
131.7503318081628
 32
0.0
 13
113.0111293521287
 23
131.7503318081628
 33
0.0
  0
MTEXT
  5
4D9
330
4D5
100
AcDbEntity
  8
AM_REFDIM
100
AcDbMText
 10
124.4935129552184
 20
147.4197139847604
 30
0.0
 40
3.5
 41
0.0
 71
     5
 72
     1
  1
R3
 73
     1
 44
1.0
1001
ACAD
1000
MTEXTBEGIN
1070
    73
1070
     1
1070
    44
1040
1.0
1070
    74
1070
     0
1000
MTEXTEND
  0
POINT
  5
4DA
330
4D5
100
AcDbEntity
  8
Defpoints
 62
     0
100
AcDbPoint
 10
113.0111293521287
 20
131.7503318081628
 30
0.0
  0
POINT
  5
4DB
330
4D5
100
AcDbEntity
  8
Defpoints
 62
     0
100
AcDbPoint
 10
111.3882238450362
 20
129.2272032511826
 30
0.0
  0
ENDBLK
  5
4DD
330
4D5
100
AcDbEntity
  8
0
 62
     4
100
AcDbBlockEnd
  0
BLOCK
  5
4E8
330
4DE
100
AcDbEntity
  8
0
 62
     4
100
AcDbBlockBegin
  2
*D22
 70
     1
 10
0.0
 20
0.0
 30
0.0
  3
*D22
  1

  0
LINE
  5
4DF
330
4DE
100
AcDbEntity
  8
AM_REFDIM
100
AcDbLine
 10
119.8882238450362
 20
108.6272032511826
 30
0.0
 11
149.1382238450362
 21
108.6272032511826
 31
0.0
  0
LINE
  5
4E0
330
4DE
100
AcDbEntity
  8
AM_REFDIM
100
AcDbLine
 10
105.6296967109747
 20
-11.37279674881739
 30
0.0
 11
149.1382238450362
 21
-11.37279674881741
 31
0.0
  0
LINE
  5
4E1
330
4DE
100
AcDbEntity
  8
AM_REFDIM
100
AcDbLine
 10
148.1382238450362
 20
105.1272032511826
 30
0.0
 11
148.1382238450362
 21
-7.872796748817404
 31
0.0
  0
SOLID
  5
4E2
330
4DE
100
AcDbEntity
  8
AM_REFDIM
100
AcDbTrace
 10
147.5548905117029
 20
105.1272032511826
 30
0.0
 11
148.7215571783696
 21
105.1272032511826
 31
0.0
 12
148.1382238450362
 22
108.6272032511826
 32
0.0
 13
148.1382238450362
 23
108.6272032511826
 33
0.0
  0
SOLID
  5
4E3
330
4DE
100
AcDbEntity
  8
AM_REFDIM
100
AcDbTrace
 10
147.5548905117029
 20
-7.872796748817404
 30
0.0
 11
148.7215571783695
 21
-7.872796748817404
 31
0.0
 12
148.1382238450362
 22
-11.3727967488174
 32
0.0
 13
148.1382238450362
 23
-11.3727967488174
 33
0.0
  0
MTEXT
  5
4E4
330
4DE
100
AcDbEntity
  8
AM_REFDIM
100
AcDbMText
 10
145.3878793568472
 20
48.62720325118263
 30
0.0
 40
3.5
 41
0.0
 71
     5
 72
     1
  1
120
 11
0.0000000000000001
 21
1.0
 31
0.0
 73
     1
 44
1.0
1001
ACAD
1000
MTEXTBEGIN
1070
    73
1070
     1
1070
    44
1040
1.0
1070
    74
1070
     0
1000
MTEXTEND
  0
POINT
  5
4E5
330
4DE
100
AcDbEntity
  8
Defpoints
 62
     0
100
AcDbPoint
 10
118.8882238450362
 20
108.6272032511826
 30
0.0
  0
POINT
  5
4E6
330
4DE
100
AcDbEntity
  8
Defpoints
 62
     0
100
AcDbPoint
 10
104.6296967109747
 20
-11.37279674881739
 30
0.0
  0
POINT
  5
4E7
330
4DE
100
AcDbEntity
  8
Defpoints
 62
     0
100
AcDbPoint
 10
148.1382238450362
 20
-11.3727967488174
 30
0.0
  0
ENDBLK
  5
4E9
330
4DE
100
AcDbEntity
  8
0
 62
     4
100
AcDbBlockEnd
  0
BLOCK
  5
4F4
330
4EA
100
AcDbEntity
  8
0
 62
     4
100
AcDbBlockBegin
  2
*D23
 70
     1
 10
0.0
 20
0.0
 30
0.0
  3
*D23
  1

  0
LINE
  5
4EB
330
4EA
100
AcDbEntity
  8
AM_REFDIM
100
AcDbLine
 10
119.8882238450362
 20
108.6272032511826
 30
0.0
 11
141.1382238450362
 21
108.6272032511826
 31
0.0
  0
LINE
  5
4EC
330
4EA
100
AcDbEntity
  8
AM_REFDIM
100
AcDbLine
 10
106.4882238450362
 20
0.6272032511826066
 30
0.0
 11
141.1382238450362
 21
0.6272032511825968
 31
0.0
  0
LINE
  5
4ED
330
4EA
100
AcDbEntity
  8
AM_REFDIM
100
AcDbLine
 10
140.1382238450362
 20
105.1272032511826
 30
0.0
 11
140.1382238450362
 21
4.127203251182597
 31
0.0
  0
SOLID
  5
4EE
330
4EA
100
AcDbEntity
  8
AM_REFDIM
100
AcDbTrace
 10
139.5548905117029
 20
105.1272032511826
 30
0.0
 11
140.7215571783696
 21
105.1272032511826
 31
0.0
 12
140.1382238450362
 22
108.6272032511826
 32
0.0
 13
140.1382238450362
 23
108.6272032511826
 33
0.0
  0
SOLID
  5
4EF
330
4EA
100
AcDbEntity
  8
AM_REFDIM
100
AcDbTrace
 10
139.5548905117028
 20
4.127203251182597
 30
0.0
 11
140.7215571783695
 21
4.127203251182597
 31
0.0
 12
140.1382238450362
 22
0.6272032511825972
 32
0.0
 13
140.1382238450362
 23
0.6272032511825972
 33
0.0
  0
MTEXT
  5
4F0
330
4EA
100
AcDbEntity
  8
AM_REFDIM
100
AcDbMText
 10
137.3882238450362
 20
54.62720325118262
 30
0.0
 40
3.5
 41
0.0
 71
     5
 72
     1
  1
108
 11
0.0000000000000001
 21
1.0
 31
0.0
 73
     1
 44
1.0
1001
ACAD
1000
MTEXTBEGIN
1070
    73
1070
     1
1070
    44
1040
1.0
1070
    74
1070
     0
1000
MTEXTEND
  0
POINT
  5
4F1
330
4EA
100
AcDbEntity
  8
Defpoints
 62
     0
100
AcDbPoint
 10
118.8882238450362
 20
108.6272032511826
 30
0.0
  0
POINT
  5
4F2
330
4EA
100
AcDbEntity
  8
Defpoints
 62
     0
100
AcDbPoint
 10
105.4882238450362
 20
0.6272032511826069
 30
0.0
  0
POINT
  5
4F3
330
4EA
100
AcDbEntity
  8
Defpoints
 62
     0
100
AcDbPoint
 10
140.1382238450362
 20
0.6272032511825972
 30
0.0
  0
ENDBLK
  5
4F5
330
4EA
100
AcDbEntity
  8
0
 62
     4
100
AcDbBlockEnd
  0
BLOCK
  5
500
330
4F6
100
AcDbEntity
  8
0
 62
     4
100
AcDbBlockBegin
  2
*D24
 70
     1
 10
0.0
 20
0.0
 30
0.0
  3
*D24
  1

  0
LINE
  5
4F7
330
4F6
100
AcDbEntity
  8
AM_REFDIM
100
AcDbLine
 10
106.4882238450362
 20
0.6272032511826066
 30
0.0
 11
141.1382238450362
 21
0.6272032511825968
 31
0.0
  0
LINE
  5
4F8
330
4F6
100
AcDbEntity
  8
AM_REFDIM
100
AcDbLine
 10
105.6296967109747
 20
-11.37279674881739
 30
0.0
 11
141.1382238450362
 21
-11.3727967488174
 31
0.0
  0
LINE
  5
4F9
330
4F6
100
AcDbEntity
  8
AM_REFDIM
100
AcDbLine
 10
140.1382238450362
 20
-2.872796748817402
 30
0.0
 11
140.1382238450362
 21
-7.872796748817402
 31
0.0
  0
SOLID
  5
4FA
330
4F6
100
AcDbEntity
  8
AM_REFDIM
100
AcDbTrace
 10
139.5548905117029
 20
-2.872796748817402
 30
0.0
 11
140.7215571783696
 21
-2.872796748817402
 31
0.0
 12
140.1382238450362
 22
0.6272032511825972
 32
0.0
 13
140.1382238450362
 23
0.6272032511825972
 33
0.0
  0
SOLID
  5
4FB
330
4F6
100
AcDbEntity
  8
AM_REFDIM
100
AcDbTrace
 10
139.5548905117029
 20
-7.872796748817402
 30
0.0
 11
140.7215571783696
 21
-7.872796748817402
 31
0.0
 12
140.1382238450362
 22
-11.3727967488174
 32
0.0
 13
140.1382238450362
 23
-11.3727967488174
 33
0.0
  0
MTEXT
  5
4FC
330
4F6
100
AcDbEntity
  8
AM_REFDIM
100
AcDbMText
 10
137.3878793568472
 20
-5.372796748817379
 30
0.0
 40
3.5
 41
0.0
 71
     5
 72
     1
  1
12
 11
0.0000000000000001
 21
1.0
 31
0.0
 73
     1
 44
1.0
1001
ACAD
1000
MTEXTBEGIN
1070
    73
1070
     1
1070
    44
1040
1.0
1070
    74
1070
     0
1000
MTEXTEND
  0
POINT
  5
4FD
330
4F6
100
AcDbEntity
  8
Defpoints
 62
     0
100
AcDbPoint
 10
105.4882238450362
 20
0.6272032511826069
 30
0.0
  0
POINT
  5
4FE
330
4F6
100
AcDbEntity
  8
Defpoints
 62
     0
100
AcDbPoint
 10
104.6296967109747
 20
-11.37279674881739
 30
0.0
  0
POINT
  5
4FF
330
4F6
100
AcDbEntity
  8
Defpoints
 62
     0
100
AcDbPoint
 10
140.1382238450362
 20
-11.3727967488174
 30
0.0
  0
ENDBLK
  5
501
330
4F6
100
AcDbEntity
  8
0
 62
     4
100
AcDbBlockEnd
  0
BLOCK
  5
50C
330
502
100
AcDbEntity
  8
0
 62
     4
100
AcDbBlockBegin
  2
*D25
 70
     1
 10
0.0
 20
0.0
 30
0.0
  3
*D25
  1

  0
LINE
  5
503
330
502
100
AcDbEntity
  8
AM_REFDIM
100
AcDbLine
 10
119.8882238450362
 20
139.6272032511826
 30
0.0
 11
157.1382238450362
 21
139.6272032511826
 31
0.0
  0
LINE
  5
504
330
502
100
AcDbEntity
  8
AM_REFDIM
100
AcDbLine
 10
97.08822384503625
 20
-18.97279674881739
 30
0.0
 11
157.1382238450362
 21
-18.9727967488174
 31
0.0
  0
LINE
  5
505
330
502
100
AcDbEntity
  8
AM_REFDIM
100
AcDbLine
 10
156.1382238450362
 20
136.1272032511826
 30
0.0
 11
156.1382238450362
 21
-15.4727967488174
 31
0.0
  0
SOLID
  5
506
330
502
100
AcDbEntity
  8
AM_REFDIM
100
AcDbTrace
 10
155.5548905117029
 20
136.1272032511826
 30
0.0
 11
156.7215571783696
 21
136.1272032511826
 31
0.0
 12
156.1382238450362
 22
139.6272032511826
 32
0.0
 13
156.1382238450362
 23
139.6272032511826
 33
0.0
  0
SOLID
  5
507
330
502
100
AcDbEntity
  8
AM_REFDIM
100
AcDbTrace
 10
155.5548905117029
 20
-15.4727967488174
 30
0.0
 11
156.7215571783695
 21
-15.4727967488174
 31
0.0
 12
156.1382238450362
 22
-18.9727967488174
 32
0.0
 13
156.1382238450362
 23
-18.9727967488174
 33
0.0
  0
MTEXT
  5
508
330
502
100
AcDbEntity
  8
AM_REFDIM
100
AcDbMText
 10
153.2123779667518
 20
60.32720325118262
 30
0.0
 40
3.5
 41
0.0
 71
     5
 72
     1
  1
(159)
 11
0.0000000000000001
 21
1.0
 31
0.0
 73
     1
 44
1.0
1001
ACAD
1000
MTEXTBEGIN
1070
    73
1070
     1
1070
    44
1040
1.0
1070
    74
1070
     0
1000
MTEXTEND
  0
POINT
  5
509
330
502
100
AcDbEntity
  8
Defpoints
 62
     0
100
AcDbPoint
 10
118.8882238450362
 20
139.6272032511826
 30
0.0
  0
POINT
  5
50A
330
502
100
AcDbEntity
  8
Defpoints
 62
     0
100
AcDbPoint
 10
96.08822384503625
 20
-18.97279674881739
 30
0.0
  0
POINT
  5
50B
330
502
100
AcDbEntity
  8
Defpoints
 62
     0
100
AcDbPoint
 10
156.1382238450362
 20
-18.9727967488174
 30
0.0
  0
ENDBLK
  5
50D
330
502
100
AcDbEntity
  8
0
 62
     4
100
AcDbBlockEnd
  0
BLOCK
  5
515
330
50E
100
AcDbEntity
  8
0
 62
     4
100
AcDbBlockBegin
  2
*D26
 70
     1
 10
0.0
 20
0.0
 30
0.0
  3
*D26
  1

  0
LINE
  5
50F
330
50E
100
AcDbEntity
  8
AM_REFDIM
100
AcDbLine
 10
102.6811880628264
 20
211.5191446236935
 30
0.0
 11
128.0652204193718
 21
185.87095251085
 31
0.0
  0
LINE
  5
510
330
50E
100
AcDbEntity
  8
AM_REFDIM
100
AcDbLine
 10
128.0652204193718
 20
185.87095251085
 30
0.0
 11
140.2652204193718
 21
185.87095251085
 31
0.0
  0
SOLID
  5
511
330
50E
100
AcDbEntity
  8
AM_REFDIM
100
AcDbTrace
 10
103.0957965921362
 20
211.929482953857
 30
0.0
 11
102.2665795335167
 21
211.10880629353
 31
0.0
 12
100.2191580818452
 22
214.0067957995519
 32
0.0
 13
100.2191580818452
 23
214.0067957995519
 33
0.0
  0
MTEXT
  5
512
330
50E
100
AcDbEntity
  8
AM_REFDIM
100
AcDbMText
 10
134.6652204193719
 20
188.62095251085
 30
0.0
 40
3.5
 41
0.0
 71
     5
 72
     1
  1
PT1/8
 73
     1
 44
1.0
1001
ACAD
1000
MTEXTBEGIN
1070
    73
1070
     1
1070
    44
1040
1.0
1070
    74
1070
     0
1000
MTEXTEND
  0
POINT
  5
513
330
50E
100
AcDbEntity
  8
Defpoints
 62
     0
100
AcDbPoint
 10
100.2191580818452
 20
214.0067957995519
 30
0.0
  0
POINT
  5
514
330
50E
100
AcDbEntity
  8
Defpoints
 62
     0
100
AcDbPoint
 10
93.88822384503638
 20
220.4036131089019
 30
0.0
  0
ENDBLK
  5
516
330
50E
100
AcDbEntity
  8
0
 62
     4
100
AcDbBlockEnd
  0
BLOCK
  5
523
330
517
100
AcDbEntity
  8
0
 62
     4
100
AcDbBlockBegin
  2
*D27
 70
     1
 10
0.0
 20
0.0
 30
0.0
  3
*D27
  1

  0
LINE
  5
518
330
517
100
AcDbEntity
  8
AM_REFDIM
100
AcDbLine
 10
119.8882238450362
 20
275.4036131089019
 30
0.0
 11
136.7168703491094
 21
275.4036131089018
 31
0.0
  0
LINE
  5
519
330
517
100
AcDbEntity
  8
AM_REFDIM
100
AcDbLine
 10
119.8882238450362
 20
273.4036131089019
 30
0.0
 11
136.7168703491094
 21
273.4036131089018
 31
0.0
  0
LINE
  5
51A
330
517
100
AcDbEntity
  8
AM_REFDIM
100
AcDbLine
 10
135.7168703491094
 20
278.9036131089018
 30
0.0
 11
135.7168703491094
 21
282.4036131089018
 31
0.0
  0
LINE
  5
51B
330
517
100
AcDbEntity
  8
AM_REFDIM
100
AcDbLine
 10
135.7168703491094
 20
269.9036131089018
 30
0.0
 11
135.7168703491094
 21
262.7045284632325
 31
0.0
  0
LINE
  5
51C
330
517
100
AcDbEntity
  8
AM_REFDIM
100
AcDbLine
 10
135.7168703491094
 20
275.4036131089018
 30
0.0
 11
135.7168703491094
 21
273.4036131089018
 31
0.0
  0
SOLID
  5
51D
330
517
100
AcDbEntity
  8
AM_REFDIM
100
AcDbTrace
 10
135.133537015776
 20
278.9036131089018
 30
0.0
 11
136.3002036824427
 21
278.9036131089018
 31
0.0
 12
135.7168703491094
 22
275.4036131089018
 32
0.0
 13
135.7168703491094
 23
275.4036131089018
 33
0.0
  0
SOLID
  5
51E
330
517
100
AcDbEntity
  8
AM_REFDIM
100
AcDbTrace
 10
135.133537015776
 20
269.9036131089018
 30
0.0
 11
136.3002036824427
 21
269.9036131089018
 31
0.0
 12
135.7168703491094
 22
273.4036131089018
 32
0.0
 13
135.7168703491094
 23
273.4036131089018
 33
0.0
  0
MTEXT
  5
51F
330
517
100
AcDbEntity
  8
AM_REFDIM
100
AcDbMText
 10
132.9665258609204
 20
264.5540707860673
 30
0.0
 40
3.5
 41
0.0
 71
     5
 72
     1
  1
2
 11
0.0000000000000001
 21
1.0
 31
0.0
 73
     1
 44
1.0
1001
ACAD
1000
MTEXTBEGIN
1070
    73
1070
     1
1070
    44
1040
1.0
1070
    74
1070
     0
1000
MTEXTEND
  0
POINT
  5
520
330
517
100
AcDbEntity
  8
Defpoints
 62
     0
100
AcDbPoint
 10
118.8882238450362
 20
275.4036131089019
 30
0.0
  0
POINT
  5
521
330
517
100
AcDbEntity
  8
Defpoints
 62
     0
100
AcDbPoint
 10
118.8882238450362
 20
273.4036131089019
 30
0.0
  0
POINT
  5
522
330
517
100
AcDbEntity
  8
Defpoints
 62
     0
100
AcDbPoint
 10
135.7168703491094
 20
273.4036131089018
 30
0.0
  0
ENDBLK
  5
524
330
517
100
AcDbEntity
  8
0
 62
     4
100
AcDbBlockEnd
  0
BLOCK
  5
52F
330
525
100
AcDbEntity
  8
0
 62
     4
100
AcDbBlockBegin
  2
*D28
 70
     1
 10
0.0
 20
0.0
 30
0.0
  3
*D28
  1

  0
LINE
  5
526
330
525
100
AcDbEntity
  8
AM_REFDIM
100
AcDbLine
 10
119.8882238450362
 20
275.4036131089019
 30
0.0
 11
144.7168703491094
 21
275.4036131089018
 31
0.0
  0
LINE
  5
527
330
525
100
AcDbEntity
  8
AM_REFDIM
100
AcDbLine
 10
135.3882238450362
 20
220.4036131089019
 30
0.0
 11
144.7168703491094
 21
220.4036131089019
 31
0.0
  0
LINE
  5
528
330
525
100
AcDbEntity
  8
AM_REFDIM
100
AcDbLine
 10
143.7168703491094
 20
271.9036131089018
 30
0.0
 11
143.7168703491094
 21
223.9036131089019
 31
0.0
  0
SOLID
  5
529
330
525
100
AcDbEntity
  8
AM_REFDIM
100
AcDbTrace
 10
143.1335370157761
 20
271.9036131089018
 30
0.0
 11
144.3002036824427
 21
271.9036131089018
 31
0.0
 12
143.7168703491094
 22
275.4036131089018
 32
0.0
 13
143.7168703491094
 23
275.4036131089018
 33
0.0
  0
SOLID
  5
52A
330
525
100
AcDbEntity
  8
AM_REFDIM
100
AcDbTrace
 10
143.1335370157761
 20
223.9036131089019
 30
0.0
 11
144.3002036824427
 21
223.9036131089019
 31
0.0
 12
143.7168703491094
 22
220.4036131089019
 32
0.0
 13
143.7168703491094
 23
220.4036131089019
 33
0.0
  0
MTEXT
  5
52B
330
525
100
AcDbEntity
  8
AM_REFDIM
100
AcDbMText
 10
140.9668703491094
 20
247.9036131089019
 30
0.0
 40
3.5
 41
0.0
 71
     5
 72
     1
  1
55
 11
0.0000000000000001
 21
1.0
 31
0.0
 73
     1
 44
1.0
1001
ACAD
1000
MTEXTBEGIN
1070
    73
1070
     1
1070
    44
1040
1.0
1070
    74
1070
     0
1000
MTEXTEND
  0
POINT
  5
52C
330
525
100
AcDbEntity
  8
Defpoints
 62
     0
100
AcDbPoint
 10
118.8882238450362
 20
275.4036131089019
 30
0.0
  0
POINT
  5
52D
330
525
100
AcDbEntity
  8
Defpoints
 62
     0
100
AcDbPoint
 10
134.3882238450362
 20
220.4036131089019
 30
0.0
  0
POINT
  5
52E
330
525
100
AcDbEntity
  8
Defpoints
 62
     0
100
AcDbPoint
 10
143.7168703491094
 20
220.4036131089019
 30
0.0
  0
ENDBLK
  5
530
330
525
100
AcDbEntity
  8
0
 62
     4
100
AcDbBlockEnd
  0
ENDSEC
  0
SECTION
  2
ENTITIES
  0
LINE
  5
37
330
E
100
AcDbEntity
 67
     1
  8
AM_7
100
AcDbLine
 10
93.88822384503624
 20
115.1079517666277
 30
0.0
 11
93.88822384503624
 21
8.627203251182606
 31
0.0
  0
LINE
  5
3A
330
E
100
AcDbEntity
 67
     1
  8
AM_7
100
AcDbLine
 10
81.88822384503623
 20
115.1079517666277
 30
0.0
 11
81.88822384503623
 21
93.6272032511826
 31
0.0
  0
LINE
  5
3B
330
E
100
AcDbEntity
 67
     1
  8
AM_7
100
AcDbLine
 10
105.8882238450362
 20
115.1079517666277
 30
0.0
 11
105.8882238450362
 21
93.6272032511826
 31
0.0
  0
LINE
  5
3C
330
E
100
AcDbEntity
 67
     1
  8
AM_7
100
AcDbLine
 10
93.88822384503624
 20
7.627203251182606
 30
0.0
 11
93.88822384503624
 21
-21.97279674881739
 31
0.0
  0
LINE
  5
3D
330
E
100
AcDbEntity
 67
     1
  8
AM_7
100
AcDbLine
 10
80.38822384503623
 20
129.2272032511826
 30
0.0
 11
80.38822384503623
 21
129.2272032511826
 31
0.0
  0
LINE
  5
3E
330
E
100
AcDbEntity
 67
     1
  8
AM_7
100
AcDbLine
 10
80.38822384503623
 20
129.2272032511826
 30
0.0
 11
80.38822384503623
 21
129.2272032511826
 31
0.0
  0
LINE
  5
3F
330
E
100
AcDbEntity
 67
     1
  8
AM_7
100
AcDbLine
 10
74.38822384503623
 20
129.2272032511826
 30
0.0
 11
80.38822384503623
 21
129.2272032511826
 31
0.0
  0
LINE
  5
40
330
E
100
AcDbEntity
 67
     1
  8
AM_7
100
AcDbLine
 10
80.38822384503623
 20
129.2272032511826
 30
0.0
 11
86.38822384503624
 21
129.2272032511826
 31
0.0
  0
LINE
  5
41
330
E
100
AcDbEntity
 67
     1
  8
AM_7
100
AcDbLine
 10
80.38822384503623
 20
123.2272032511826
 30
0.0
 11
80.38822384503623
 21
129.2272032511826
 31
0.0
  0
LINE
  5
42
330
E
100
AcDbEntity
 67
     1
  8
AM_7
100
AcDbLine
 10
80.38822384503623
 20
129.2272032511826
 30
0.0
 11
80.38822384503623
 21
135.2272032511826
 31
0.0
  0
LINE
  5
43
330
E
100
AcDbEntity
 67
     1
  8
AM_7
100
AcDbLine
 10
76.38822384503623
 20
129.2272032511826
 30
0.0
 11
76.38822384503623
 21
129.2272032511826
 31
0.0
  0
LINE
  5
44
330
E
100
AcDbEntity
 67
     1
  8
AM_7
100
AcDbLine
 10
76.38822384503623
 20
129.2272032511826
 30
0.0
 11
76.38822384503623
 21
129.2272032511826
 31
0.0
  0
LINE
  5
45
330
E
100
AcDbEntity
 67
     1
  8
AM_7
100
AcDbLine
 10
70.38822384503624
 20
129.2272032511826
 30
0.0
 11
76.38822384503623
 21
129.2272032511826
 31
0.0
  0
LINE
  5
46
330
E
100
AcDbEntity
 67
     1
  8
AM_7
100
AcDbLine
 10
76.38822384503623
 20
129.2272032511826
 30
0.0
 11
82.38822384503624
 21
129.2272032511826
 31
0.0
  0
LINE
  5
47
330
E
100
AcDbEntity
 67
     1
  8
AM_7
100
AcDbLine
 10
76.38822384503623
 20
123.2272032511826
 30
0.0
 11
76.38822384503623
 21
129.2272032511826
 31
0.0
  0
LINE
  5
48
330
E
100
AcDbEntity
 67
     1
  8
AM_7
100
AcDbLine
 10
76.38822384503623
 20
129.2272032511826
 30
0.0
 11
76.38822384503623
 21
135.2272032511826
 31
0.0
  0
LINE
  5
49
330
E
100
AcDbEntity
 67
     1
  8
AM_7
100
AcDbLine
 10
111.3882238450362
 20
129.2272032511826
 30
0.0
 11
111.3882238450362
 21
129.2272032511826
 31
0.0
  0
LINE
  5
4A
330
E
100
AcDbEntity
 67
     1
  8
AM_7
100
AcDbLine
 10
111.3882238450362
 20
129.2272032511826
 30
0.0
 11
111.3882238450362
 21
129.2272032511826
 31
0.0
  0
LINE
  5
4B
330
E
100
AcDbEntity
 67
     1
  8
AM_7
100
AcDbLine
 10
105.3882238450362
 20
129.2272032511826
 30
0.0
 11
111.3882238450362
 21
129.2272032511826
 31
0.0
  0
LINE
  5
4C
330
E
100
AcDbEntity
 67
     1
  8
AM_7
100
AcDbLine
 10
111.3882238450362
 20
129.2272032511826
 30
0.0
 11
117.3882238450362
 21
129.2272032511826
 31
0.0
  0
LINE
  5
4D
330
E
100
AcDbEntity
 67
     1
  8
AM_7
100
AcDbLine
 10
111.3882238450362
 20
123.2272032511826
 30
0.0
 11
111.3882238450362
 21
129.2272032511826
 31
0.0
  0
LINE
  5
4E
330
E
100
AcDbEntity
 67
     1
  8
AM_7
100
AcDbLine
 10
111.3882238450362
 20
129.2272032511826
 30
0.0
 11
111.3882238450362
 21
135.2272032511826
 31
0.0
  0
LINE
  5
4F
330
E
100
AcDbEntity
 67
     1
  8
AM_7
100
AcDbLine
 10
107.3882238450362
 20
129.2272032511826
 30
0.0
 11
107.3882238450362
 21
129.2272032511826
 31
0.0
  0
LINE
  5
50
330
E
100
AcDbEntity
 67
     1
  8
AM_7
100
AcDbLine
 10
107.3882238450362
 20
129.2272032511826
 30
0.0
 11
107.3882238450362
 21
129.2272032511826
 31
0.0
  0
LINE
  5
51
330
E
100
AcDbEntity
 67
     1
  8
AM_7
100
AcDbLine
 10
101.3882238450362
 20
129.2272032511826
 30
0.0
 11
107.3882238450362
 21
129.2272032511826
 31
0.0
  0
LINE
  5
52
330
E
100
AcDbEntity
 67
     1
  8
AM_7
100
AcDbLine
 10
107.3882238450362
 20
129.2272032511826
 30
0.0
 11
113.3882238450362
 21
129.2272032511826
 31
0.0
  0
LINE
  5
53
330
E
100
AcDbEntity
 67
     1
  8
AM_7
100
AcDbLine
 10
107.3882238450362
 20
123.2272032511826
 30
0.0
 11
107.3882238450362
 21
129.2272032511826
 31
0.0
  0
LINE
  5
54
330
E
100
AcDbEntity
 67
     1
  8
AM_7
100
AcDbLine
 10
107.3882238450362
 20
129.2272032511826
 30
0.0
 11
107.3882238450362
 21
135.2272032511826
 31
0.0
  0
LINE
  5
55
330
E
100
AcDbEntity
 67
     1
  8
AM_7
100
AcDbLine
 10
93.88822384503624
 20
208.4036131089019
 30
0.0
 11
93.88822384503624
 21
208.4036131089019
 31
0.0
  0
LINE
  5
56
330
E
100
AcDbEntity
 67
     1
  8
AM_7
100
AcDbLine
 10
93.88822384503624
 20
208.4036131089019
 30
0.0
 11
93.88822384503624
 21
208.4036131089019
 31
0.0
  0
LINE
  5
57
330
E
100
AcDbEntity
 67
     1
  8
AM_7
100
AcDbLine
 10
87.88822384503623
 20
208.4036131089019
 30
0.0
 11
93.88822384503624
 21
208.4036131089019
 31
0.0
  0
LINE
  5
58
330
E
100
AcDbEntity
 67
     1
  8
AM_7
100
AcDbLine
 10
93.88822384503624
 20
208.4036131089019
 30
0.0
 11
99.88822384503624
 21
208.4036131089019
 31
0.0
  0
LINE
  5
59
330
E
100
AcDbEntity
 67
     1
  8
AM_7
100
AcDbLine
 10
93.88822384503624
 20
202.4036131089019
 30
0.0
 11
93.88822384503624
 21
208.4036131089019
 31
0.0
  0
LINE
  5
5A
330
E
100
AcDbEntity
 67
     1
  8
AM_7
100
AcDbLine
 10
93.88822384503624
 20
208.4036131089019
 30
0.0
 11
93.88822384503624
 21
214.4036131089019
 31
0.0
  0
LINE
  5
5B
330
E
100
AcDbEntity
 67
     1
  8
AM_7
100
AcDbLine
 10
81.88822384503623
 20
220.4036131089019
 30
0.0
 11
81.88822384503623
 21
220.4036131089019
 31
0.0
  0
LINE
  5
5C
330
E
100
AcDbEntity
 67
     1
  8
AM_7
100
AcDbLine
 10
81.88822384503623
 20
220.4036131089019
 30
0.0
 11
81.88822384503623
 21
220.4036131089019
 31
0.0
  0
LINE
  5
5D
330
E
100
AcDbEntity
 67
     1
  8
AM_7
100
AcDbLine
 10
75.88822384503624
 20
220.4036131089019
 30
0.0
 11
81.88822384503623
 21
220.4036131089019
 31
0.0
  0
LINE
  5
5E
330
E
100
AcDbEntity
 67
     1
  8
AM_7
100
AcDbLine
 10
81.88822384503623
 20
220.4036131089019
 30
0.0
 11
87.88822384503623
 21
220.4036131089019
 31
0.0
  0
LINE
  5
5F
330
E
100
AcDbEntity
 67
     1
  8
AM_7
100
AcDbLine
 10
81.88822384503623
 20
214.4036131089019
 30
0.0
 11
81.88822384503623
 21
220.4036131089019
 31
0.0
  0
LINE
  5
60
330
E
100
AcDbEntity
 67
     1
  8
AM_7
100
AcDbLine
 10
81.88822384503623
 20
220.4036131089019
 30
0.0
 11
81.88822384503623
 21
226.4036131089019
 31
0.0
  0
LINE
  5
61
330
E
100
AcDbEntity
 67
     1
  8
AM_7
100
AcDbLine
 10
93.88822384503624
 20
232.4036131089019
 30
0.0
 11
93.88822384503624
 21
232.4036131089019
 31
0.0
  0
LINE
  5
62
330
E
100
AcDbEntity
 67
     1
  8
AM_7
100
AcDbLine
 10
93.88822384503624
 20
232.4036131089019
 30
0.0
 11
93.88822384503624
 21
232.4036131089019
 31
0.0
  0
LINE
  5
63
330
E
100
AcDbEntity
 67
     1
  8
AM_7
100
AcDbLine
 10
87.88822384503623
 20
232.4036131089019
 30
0.0
 11
93.88822384503624
 21
232.4036131089019
 31
0.0
  0
LINE
  5
64
330
E
100
AcDbEntity
 67
     1
  8
AM_7
100
AcDbLine
 10
93.88822384503624
 20
232.4036131089019
 30
0.0
 11
99.88822384503624
 21
232.4036131089019
 31
0.0
  0
LINE
  5
65
330
E
100
AcDbEntity
 67
     1
  8
AM_7
100
AcDbLine
 10
93.88822384503624
 20
226.4036131089019
 30
0.0
 11
93.88822384503624
 21
232.4036131089019
 31
0.0
  0
LINE
  5
66
330
E
100
AcDbEntity
 67
     1
  8
AM_7
100
AcDbLine
 10
93.88822384503624
 20
232.4036131089019
 30
0.0
 11
93.88822384503624
 21
238.4036131089019
 31
0.0
  0
LINE
  5
67
330
E
100
AcDbEntity
 67
     1
  8
AM_7
100
AcDbLine
 10
105.8882238450362
 20
220.4036131089019
 30
0.0
 11
105.8882238450362
 21
220.4036131089019
 31
0.0
  0
LINE
  5
68
330
E
100
AcDbEntity
 67
     1
  8
AM_7
100
AcDbLine
 10
105.8882238450362
 20
220.4036131089019
 30
0.0
 11
105.8882238450362
 21
220.4036131089019
 31
0.0
  0
LINE
  5
69
330
E
100
AcDbEntity
 67
     1
  8
AM_7
100
AcDbLine
 10
99.88822384503624
 20
220.4036131089019
 30
0.0
 11
105.8882238450362
 21
220.4036131089019
 31
0.0
  0
LINE
  5
6A
330
E
100
AcDbEntity
 67
     1
  8
AM_7
100
AcDbLine
 10
105.8882238450362
 20
220.4036131089019
 30
0.0
 11
111.8882238450362
 21
220.4036131089019
 31
0.0
  0
LINE
  5
6B
330
E
100
AcDbEntity
 67
     1
  8
AM_7
100
AcDbLine
 10
105.8882238450362
 20
214.4036131089019
 30
0.0
 11
105.8882238450362
 21
220.4036131089019
 31
0.0
  0
LINE
  5
6C
330
E
100
AcDbEntity
 67
     1
  8
AM_7
100
AcDbLine
 10
105.8882238450362
 20
220.4036131089019
 30
0.0
 11
105.8882238450362
 21
226.4036131089019
 31
0.0
  0
LINE
  5
6D
330
E
100
AcDbEntity
 67
     1
  8
AM_7
100
AcDbLine
 10
93.88822384503624
 20
220.4036131089019
 30
0.0
 11
93.88822384503624
 21
220.4036131089019
 31
0.0
  0
LINE
  5
6E
330
E
100
AcDbEntity
 67
     1
  8
AM_7
100
AcDbLine
 10
93.88822384503624
 20
220.4036131089019
 30
0.0
 11
93.88822384503624
 21
220.4036131089019
 31
0.0
  0
LINE
  5
6F
330
E
100
AcDbEntity
 67
     1
  8
AM_7
100
AcDbLine
 10
53.38822384503624
 20
220.4036131089019
 30
0.0
 11
93.88822384503624
 21
220.4036131089019
 31
0.0
  0
LINE
  5
70
330
E
100
AcDbEntity
 67
     1
  8
AM_7
100
AcDbLine
 10
93.88822384503624
 20
220.4036131089019
 30
0.0
 11
134.3882238450362
 21
220.4036131089019
 31
0.0
  0
LINE
  5
71
330
E
100
AcDbEntity
 67
     1
  8
AM_7
100
AcDbLine
 10
93.88822384503624
 20
179.9036131089019
 30
0.0
 11
93.88822384503624
 21
220.4036131089019
 31
0.0
  0
LINE
  5
72
330
E
100
AcDbEntity
 67
     1
  8
AM_7
100
AcDbLine
 10
93.88822384503624
 20
220.4036131089019
 30
0.0
 11
93.88822384503624
 21
260.9036131089019
 31
0.0
  0
DIMENSION
  5
73
330
E
100
AcDbEntity
 67
     1
  8
AM_REFDIM
100
AcDbDimension
  2
*D16
 10
34.54437065260845
 20
139.6272032511826
 30
0.0
 11
31.79437065260843
 21
124.1272032511826
 31
0.0
 70
    32
 71
     5
 42
31.00000000000001
  3
AM_ISO$0
100
AcDbAlignedDimension
 13
68.88822384503623
 23
108.6272032511826
 33
0.0
 14
68.88822384503623
 24
139.6272032511826
 34
0.0
 50
90.0
100
AcDbRotatedDimension
  0
DIMENSION
  5
83
330
E
100
AcDbEntity
 67
     1
  8
AM_REFDIM
100
AcDbDimension
  2
*D17
 10
48.03883894421735
 20
129.2272032511826
 30
0.0
 11
45.28849445602835
 21
118.9272032511826
 31
0.0
 70
    32
 71
     5
 42
20.60000000000004
  3
AM_ISO$0
100
AcDbAlignedDimension
 13
68.88822384503623
 23
108.6272032511826
 33
0.0
 14
70.38822384503624
 24
129.2272032511826
 34
0.0
 50
90.0
100
AcDbRotatedDimension
  0
DIMENSION
  5
90
330
E
100
AcDbEntity
 67
     1
  8
AM_REFDIM
100
AcDbDimension
  2
*D18
 10
131.3882238450362
 20
160.0272032511826
 30
0.0
 11
93.88822384503624
 21
162.7772032511826
 31
0.0
 70
    32
  1
%%c<>
 71
     5
 42
75.0
  3
AM_ISO
100
AcDbAlignedDimension
 13
56.38822384503623
 23
96.62720325118261
 33
0.0
 14
131.3882238450362
 24
96.62720325118261
 34
0.0
100
AcDbRotatedDimension
  0
DIMENSION
  5
9D
330
E
100
AcDbEntity
 67
     1
  8
AM_REFDIM
100
AcDbDimension
  2
*D19
 10
80.38822384503623
 20
144.2272032511826
 30
0.0
 11
67.51322384503623
 21
144.2272032511826
 31
0.0
 70
   160
 71
     5
 42
4.0
  3
AM_ISO$0
100
AcDbAlignedDimension
 13
76.38822384503623
 23
135.2272032511826
 33
0.0
 14
80.38822384503623
 24
135.2272032511826
 34
0.0
100
AcDbRotatedDimension
  0
DIMENSION
  5
AC
330
E
100
AcDbEntity
 67
     1
  8
AM_REFDIM
100
AcDbDimension
  2
*D20
 10
109.3882238450362
 20
152.2272032511826
 30
0.0
 11
93.88822384503624
 21
154.9772032511826
 31
0.0
 70
    32
 71
     5
 42
31.0
  3
AM_ISO$0
100
AcDbAlignedDimension
 13
78.38822384503624
 23
132.2272032511826
 33
0.0
 14
109.3882238450362
 24
132.2272032511826
 34
0.0
100
AcDbRotatedDimension
  0
DIMENSION
  5
B9
330
E
100
AcDbEntity
 67
     1
  8
AM_REFDIM
100
AcDbDimension
  2
*D21
 10
111.3882238450362
 20
129.2272032511826
 30
0.0
 11
124.4935129552184
 21
144.6697139847604
 31
0.0
 70
   164
 71
     5
 42
3.000000000000142
  3
AM_ISO$4
100
AcDbRadialDimension
 15
113.0111293521287
 25
131.7503318081628
 35
0.0
 40
0.0
  0
DIMENSION
  5
C4
330
E
100
AcDbEntity
 67
     1
  8
AM_REFDIM
100
AcDbDimension
  2
*D22
 10
148.1382238450362
 20
-11.3727967488174
 30
0.0
 11
145.3878793568472
 21
48.62720325118263
 31
0.0
 70
    32
 71
     5
 42
120.0
  3
AM_ISO$0
100
AcDbAlignedDimension
 13
118.8882238450362
 23
108.6272032511826
 33
0.0
 14
104.6296967109747
 24
-11.37279674881739
 34
0.0
 50
90.0
100
AcDbRotatedDimension
  0
DIMENSION
  5
D1
330
E
100
AcDbEntity
 67
     1
  8
AM_REFDIM
100
AcDbDimension
  2
*D23
 10
140.1382238450362
 20
0.6272032511825972
 30
0.0
 11
137.3882238450362
 21
54.62720325118262
 31
0.0
 70
    32
 71
     5
 42
108.0
  3
AM_ISO$0
100
AcDbAlignedDimension
 13
118.8882238450362
 23
108.6272032511826
 33
0.0
 14
105.4882238450362
 24
0.6272032511826069
 34
0.0
 50
90.0
100
AcDbRotatedDimension
  0
DIMENSION
  5
DE
330
E
100
AcDbEntity
 67
     1
  8
AM_REFDIM
100
AcDbDimension
  2
*D24
 10
140.1382238450362
 20
-11.3727967488174
 30
0.0
 11
137.3878793568472
 21
-5.372796748817379
 31
0.0
 70
    32
 71
     5
 42
12.0
  3
AM_ISO$0
100
AcDbAlignedDimension
 13
105.4882238450362
 23
0.6272032511826069
 33
0.0
 14
104.6296967109747
 24
-11.37279674881739
 34
0.0
 50
90.0
100
AcDbRotatedDimension
  0
DIMENSION
  5
EB
330
E
100
AcDbEntity
 67
     1
  8
AM_REFDIM
100
AcDbDimension
  2
*D25
 10
156.1382238450362
 20
-18.9727967488174
 30
0.0
 11
153.2123779667518
 21
60.32720325118262
 31
0.0
 70
    32
  1
(<>)
 71
     5
 42
158.6
  3
AM_ISO$0
100
AcDbAlignedDimension
 13
118.8882238450362
 23
139.6272032511826
 33
0.0
 14
96.08822384503625
 24
-18.97279674881739
 34
0.0
 50
90.0
100
AcDbRotatedDimension
1001
ACAD
1000
DSTYLE
1002
{
1070
   271
1070
     0
1002
}
  0
DIMENSION
  5
F8
330
E
100
AcDbEntity
 67
     1
  8
AM_REFDIM
100
AcDbDimension
  2
*D26
 10
93.88822384503638
 20
220.4036131089019
 30
0.0
 11
134.6652204193719
 21
185.87095251085
 31
0.0
 70
   164
  1
PT1/8
 71
     5
 42
8.999999999999943
  3
AM_ISO$4
100
AcDbRadialDimension
 15
100.2191580818452
 25
214.0067957995519
 35
0.0
 40
0.0
  0
DIMENSION
  5
102
330
E
100
AcDbEntity
 67
     1
  8
AM_REFDIM
100
AcDbDimension
  2
*D27
 10
135.7168703491094
 20
273.4036131089018
 30
0.0
 11
132.9665258609204
 21
264.5540707860673
 31
0.0
 70
    32
 71
     5
 42
2.0
  3
AM_ISO$0
100
AcDbAlignedDimension
 13
118.8882238450362
 23
275.4036131089019
 33
0.0
 14
118.8882238450362
 24
273.4036131089019
 34
0.0
 50
90.0
100
AcDbRotatedDimension
  0
DIMENSION
  5
111
330
E
100
AcDbEntity
 67
     1
  8
AM_REFDIM
100
AcDbDimension
  2
*D28
 10
143.7168703491094
 20
220.4036131089019
 30
0.0
 11
140.9668703491094
 21
247.9036131089019
 31
0.0
 70
    32
 71
     5
 42
54.99999999999997
  3
AM_ISO$0
100
AcDbAlignedDimension
 13
118.8882238450362
 23
275.4036131089019
 33
0.0
 14
134.3882238450362
 24
220.4036131089019
 34
0.0
 50
90.0
100
AcDbRotatedDimension
  0
LINE
  5
11E
330
E
100
AcDbEntity
 67
     1
  8
AM_VIS
100
AcDbLine
 10
99.22355868823466
 20
73.2272032511826
 30
0.0
 11
99.22355868823466
 21
80.12720325118261
 31
0.0
  0
LINE
  5
120
330
E
100
AcDbEntity
 67
     1
  8
AM_VIS
100
AcDbLine
 10
88.55288900183783
 20
80.12720325118261
 30
0.0
 11
88.55288900183783
 21
73.2272032511826
 31
0.0
  0
LINE
  5
121
330
E
100
AcDbEntity
 67
     1
  8
AM_VIS
100
AcDbLine
 10
99.22355868823466
 20
61.2272032511826
 30
0.0
 11
99.22355868823466
 21
68.1272032511826
 31
0.0
  0
LINE
  5
122
330
E
100
AcDbEntity
 67
     1
  8
AM_VIS
100
AcDbLine
 10
63.09704487912211
 20
61.2272032511826
 30
0.0
 11
63.09704487912211
 21
68.1272032511826
 31
0.0
  0
LINE
  5
123
330
E
100
AcDbEntity
 67
     1
  8
AM_VIS
100
AcDbLine
 10
99.22355868823466
 20
49.2272032511826
 30
0.0
 11
99.22355868823466
 21
56.1272032511826
 31
0.0
  0
LINE
  5
124
330
E
100
AcDbEntity
 67
     1
  8
AM_VIS
100
AcDbLine
 10
63.09704487912211
 20
49.2272032511826
 30
0.0
 11
63.09704487912211
 21
56.1272032511826
 31
0.0
  0
LINE
  5
125
330
E
100
AcDbEntity
 67
     1
  8
AM_VIS
100
AcDbLine
 10
124.6794028109503
 20
80.12720325118261
 30
0.0
 11
124.6794028109503
 21
73.2272032511826
 31
0.0
  0
LINE
  5
126
330
E
100
AcDbEntity
 67
     1
  8
AM_VIS
100
AcDbLine
 10
63.09704487912211
 20
73.2272032511826
 30
0.0
 11
63.09704487912211
 21
80.12720325118261
 31
0.0
  0
LINE
  5
127
330
E
100
AcDbEntity
 67
     1
  8
AM_VIS
100
AcDbLine
 10
124.6794028109503
 20
68.1272032511826
 30
0.0
 11
124.6794028109503
 21
61.2272032511826
 31
0.0
  0
LINE
  5
128
330
E
100
AcDbEntity
 67
     1
  8
AM_VIS
100
AcDbLine
 10
88.55288900183783
 20
68.1272032511826
 30
0.0
 11
88.55288900183783
 21
61.2272032511826
 31
0.0
  0
LINE
  5
129
330
E
100
AcDbEntity
 67
     1
  8
AM_VIS
100
AcDbLine
 10
124.6794028109503
 20
56.1272032511826
 30
0.0
 11
124.6794028109503
 21
49.2272032511826
 31
0.0
  0
LINE
  5
12A
330
E
100
AcDbEntity
 67
     1
  8
AM_VIS
100
AcDbLine
 10
88.55288900183783
 20
56.1272032511826
 30
0.0
 11
88.55288900183783
 21
49.2272032511826
 31
0.0
  0
LINE
  5
12B
330
E
100
AcDbEntity
 67
     1
  8
AM_VIS
100
AcDbLine
 10
65.30844857971513
 20
49.2272032511826
 30
0.0
 11
65.30844857971513
 21
56.1272032511826
 31
0.0
  0
LINE
  5
12C
330
E
100
AcDbEntity
 67
     1
  8
AM_VIS
100
AcDbLine
 10
122.4679991103573
 20
56.1272032511826
 30
0.0
 11
122.4679991103573
 21
49.2272032511826
 31
0.0
  0
LINE
  5
12D
330
E
100
AcDbEntity
 67
     1
  8
AM_VIS
100
AcDbLine
 10
65.30844857971513
 20
61.2272032511826
 30
0.0
 11
65.30844857971513
 21
68.1272032511826
 31
0.0
  0
LINE
  5
12E
330
E
100
AcDbEntity
 67
     1
  8
AM_VIS
100
AcDbLine
 10
122.4679991103573
 20
68.1272032511826
 30
0.0
 11
122.4679991103573
 21
61.22720325118262
 31
0.0
  0
LINE
  5
12F
330
E
100
AcDbEntity
 67
     1
  8
AM_VIS
100
AcDbLine
 10
65.30844857971513
 20
73.2272032511826
 30
0.0
 11
65.30844857971513
 21
80.12720325118261
 31
0.0
  0
LINE
  5
130
330
E
100
AcDbEntity
 67
     1
  8
AM_VIS
100
AcDbLine
 10
122.4679991103573
 20
80.12720325118261
 30
0.0
 11
122.4679991103573
 21
73.2272032511826
 31
0.0
  0
LINE
  5
131
330
E
100
AcDbEntity
 67
     1
  8
AM_VIS
100
AcDbLine
 10
82.65447384503623
 20
108.6272032511826
 30
0.0
 11
82.65447384503623
 21
96.62720325118261
 31
0.0
  0
LINE
  5
132
330
E
100
AcDbEntity
 67
     1
  8
AM_VIS
100
AcDbLine
 10
105.1219738450362
 20
96.62720325118261
 30
0.0
 11
105.1219738450362
 21
108.6272032511826
 31
0.0
  0
LINE
  5
133
330
E
100
AcDbEntity
 67
     1
  8
AM_VIS
100
AcDbLine
 10
94.31631340378261
 20
-11.37279674881739
 30
0.0
 11
93.88822384503624
 21
-11.37279674881739
 31
0.0
  0
LINE
  5
134
330
E
100
AcDbEntity
 67
     1
  8
AM_VIS
100
AcDbLine
 10
93.88822384503624
 20
-11.37279674881739
 30
0.0
 11
93.88822384503624
 21
0.6272032511826069
 31
0.0
  0
LINE
  5
135
330
E
100
AcDbEntity
 67
     1
  8
AM_VIS
100
AcDbLine
 10
93.88822384503624
 20
-11.37279674881739
 30
0.0
 11
93.46013428628985
 21
-11.37279674881739
 31
0.0
  0
LINE
  5
136
330
E
100
AcDbEntity
 67
     1
  8
AM_VIS
100
AcDbLine
 10
94.31631340378261
 20
0.6272032511826069
 30
0.0
 11
94.31631340378261
 21
-11.37279674881739
 31
0.0
  0
LINE
  5
137
330
E
100
AcDbEntity
 67
     1
  8
AM_VIS
100
AcDbLine
 10
93.46013428628985
 20
-11.37279674881739
 30
0.0
 11
93.46013428628985
 21
0.6272032511826069
 31
0.0
  0
LINE
  5
138
330
E
100
AcDbEntity
 67
     1
  8
AM_VIS
100
AcDbLine
 10
92.91060748623715
 20
-11.37279674881739
 30
0.0
 11
92.58296192283571
 21
-11.37279674881739
 31
0.0
  0
LINE
  5
139
330
E
100
AcDbEntity
 67
     1
  8
AM_VIS
100
AcDbLine
 10
92.91060748623715
 20
0.6272032511826069
 30
0.0
 11
92.91060748623715
 21
-11.37279674881739
 31
0.0
  0
LINE
  5
13A
330
E
100
AcDbEntity
 67
     1
  8
AM_VIS
100
AcDbLine
 10
91.52162885563722
 20
-11.37279674881739
 30
0.0
 11
91.30003339401103
 21
-11.37279674881739
 31
0.0
  0
LINE
  5
13C
330
E
100
AcDbEntity
 67
     1
  8
AM_VIS
100
AcDbLine
 10
88.88822384503624
 20
0.6272032511826069
 30
0.0
 11
88.88822384503624
 21
-11.37279674881739
 31
0.0
  0
LINE
  5
13D
330
E
100
AcDbEntity
 67
     1
  8
AM_VIS
100
AcDbLine
 10
90.17314332144998
 20
-11.37279674881739
 30
0.0
 11
90.06138952138533
 21
-11.37279674881739
 31
0.0
  0
LINE
  5
13F
330
E
100
AcDbEntity
 67
     1
  8
AM_VIS
100
AcDbLine
 10
86.59556057154457
 20
0.6272032511826069
 30
0.0
 11
86.59556057154457
 21
-11.37279674881739
 31
0.0
  0
LINE
  5
140
330
E
100
AcDbEntity
 67
     1
  8
AM_VIS
100
AcDbLine
 10
84.79988024844548
 20
0.6272032511826069
 30
0.0
 11
84.79988024844548
 21
-11.37279674881739
 31
0.0
  0
LINE
  5
141
330
E
100
AcDbEntity
 67
     1
  8
AM_VIS
100
AcDbLine
 10
85.62704487872244
 20
0.6272032511826069
 30
0.0
 11
85.62704487872244
 21
-11.37279674881739
 31
0.0
  0
LINE
  5
142
330
E
100
AcDbEntity
 67
     1
  8
AM_VIS
100
AcDbLine
 10
87.68885575488438
 20
0.6272032511825927
 30
0.0
 11
87.68885575488438
 21
-11.37279674881742
 31
0.0
  0
LINE
  5
143
330
E
100
AcDbEntity
 67
     1
  8
AM_VIS
100
AcDbLine
 10
83.62355552225611
 20
0.6272032511825927
 30
0.0
 11
83.62355552225611
 21
-11.37279674881742
 31
0.0
  0
LINE
  5
144
330
E
100
AcDbEntity
 67
     1
  8
AM_VIS
100
AcDbLine
 10
83.14675097909777
 20
0.6272032511826069
 30
0.0
 11
83.14675097909777
 21
-11.37279674881739
 31
0.0
  0
LINE
  5
145
330
E
100
AcDbEntity
 67
     1
  8
AM_VIS
100
AcDbLine
 10
83.29452266854765
 20
0.6272032511826069
 30
0.0
 11
83.29452266854765
 21
-11.37279674881739
 31
0.0
  0
LINE
  5
146
330
E
100
AcDbEntity
 67
     1
  8
AM_VIS
100
AcDbLine
 10
84.12821969687106
 20
0.6272032511826069
 30
0.0
 11
84.12821969687106
 21
-11.37279674881739
 31
0.0
  0
LINE
  5
147
330
E
100
AcDbEntity
 67
     1
  8
AM_VIS
100
AcDbLine
 10
104.3744876294425
 20
-11.37279674881739
 30
0.0
 11
104.1528921678163
 21
-11.37279674881739
 31
0.0
  0
LINE
  5
149
330
E
100
AcDbEntity
 67
     1
  8
AM_VIS
100
AcDbLine
 10
103.4046570003734
 20
-11.37279674881739
 30
0.0
 11
102.976567441627
 21
-11.37279674881739
 31
0.0
  0
LINE
  5
14B
330
E
100
AcDbEntity
 67
     1
  8
AM_VIS
100
AcDbLine
 10
103.9758735566028
 20
-11.37279674881739
 30
0.0
 11
103.6482279932014
 21
-11.37279674881739
 31
0.0
  0
LINE
  5
14D
330
E
100
AcDbEntity
 67
     1
  8
AM_VIS
100
AcDbLine
 10
104.5936788215894
 20
-11.37279674881739
 30
0.0
 11
104.4819250215248
 21
-11.37279674881739
 31
0.0
  0
LINE
  5
14F
330
E
100
AcDbEntity
 67
     1
  8
AM_VIS
100
AcDbLine
 10
101.7862971784173
 20
-11.37279674881739
 30
0.0
 11
101.1808871185279
 21
-11.37279674881739
 31
0.0
  0
LINE
  5
151
330
E
100
AcDbEntity
 67
     1
  8
AM_VIS
100
AcDbLine
 10
99.62969671097472
 20
-11.37279674881739
 30
0.0
 11
98.88822384503626
 21
-11.37279674881739
 31
0.0
  0
LINE
  5
152
330
E
100
AcDbEntity
 67
     1
  8
AM_VIS
100
AcDbLine
 10
99.62969671097472
 20
0.6272032511826069
 30
0.0
 11
99.62969671097472
 21
-11.37279674881739
 31
0.0
  0
LINE
  5
153
330
E
100
AcDbEntity
 67
     1
  8
AM_VIS
100
AcDbLine
 10
100.7668444979386
 20
-11.37279674881739
 30
0.0
 11
100.0875919351881
 21
-11.37279674881739
 31
0.0
  0
LINE
  5
154
330
E
100
AcDbEntity
 67
     1
  8
AM_VIS
100
AcDbLine
 10
100.7668444979386
 20
0.6272032511826069
 30
0.0
 11
100.7668444979386
 21
-11.37279674881739
 31
0.0
  0
LINE
  5
155
330
E
100
AcDbEntity
 67
     1
  8
AM_VIS
100
AcDbLine
 10
97.08182435595089
 20
-11.37279674881739
 30
0.0
 11
96.47641429606146
 21
-11.37279674881739
 31
0.0
  0
LINE
  5
156
330
E
100
AcDbEntity
 67
     1
  8
AM_VIS
100
AcDbLine
 10
97.08182435595089
 20
0.6272032511826069
 30
0.0
 11
97.08182435595089
 21
-11.37279674881739
 31
0.0
  0
LINE
  5
157
330
E
100
AcDbEntity
 67
     1
  8
AM_VIS
100
AcDbLine
 10
95.71469459028907
 20
-11.37279674881739
 30
0.0
 11
95.19348576723675
 21
-11.37279674881739
 31
0.0
  0
LINE
  5
158
330
E
100
AcDbEntity
 67
     1
  8
AM_VIS
100
AcDbLine
 10
95.71469459028907
 20
0.6272032511826069
 30
0.0
 11
95.71469459028907
 21
-11.37279674881739
 31
0.0
  0
LINE
  5
159
330
E
100
AcDbEntity
 67
     1
  8
AM_VIS
100
AcDbLine
 10
98.39431073143762
 20
-11.37279674881739
 30
0.0
 11
97.71505816868714
 21
-11.37279674881739
 31
0.0
  0
LINE
  5
15A
330
E
100
AcDbEntity
 67
     1
  8
AM_VIS
100
AcDbLine
 10
98.39431073143762
 20
0.6272032511826069
 30
0.0
 11
98.39431073143762
 21
-11.37279674881739
 31
0.0
  0
LINE
  5
15B
330
E
100
AcDbEntity
 67
     1
  8
AM_VIS
100
AcDbLine
 10
102.6706116344023
 20
-11.37279674881739
 30
0.0
 11
102.14940281135
 21
-11.37279674881739
 31
0.0
  0
LINE
  5
15D
330
E
100
AcDbEntity
 67
     1
  8
AM_VIS
100
AcDbLine
 10
92.58296192283571
 20
-11.37279674881739
 30
0.0
 11
92.58296192283571
 21
0.6272032511826069
 31
0.0
  0
LINE
  5
15E
330
E
100
AcDbEntity
 67
     1
  8
AM_VIS
100
AcDbLine
 10
92.58296192283571
 20
-11.37279674881739
 30
0.0
 11
92.06175309978339
 21
-11.37279674881739
 31
0.0
  0
LINE
  5
15F
330
E
100
AcDbEntity
 67
     1
  8
AM_VIS
100
AcDbLine
 10
92.06175309978339
 20
-11.37279674881739
 30
0.0
 11
92.06175309978339
 21
0.6272032511826069
 31
0.0
  0
LINE
  5
160
330
E
100
AcDbEntity
 67
     1
  8
AM_VIS
100
AcDbLine
 10
91.30003339401103
 20
-11.37279674881739
 30
0.0
 11
91.30003339401103
 21
0.6272032511826069
 31
0.0
  0
LINE
  5
161
330
E
100
AcDbEntity
 67
     1
  8
AM_VIS
100
AcDbLine
 10
91.30003339401103
 20
-11.37279674881739
 30
0.0
 11
90.69462333412159
 21
-11.37279674881739
 31
0.0
  0
LINE
  5
162
330
E
100
AcDbEntity
 67
     1
  8
AM_VIS
100
AcDbLine
 10
90.69462333412159
 20
-11.37279674881739
 30
0.0
 11
90.69462333412159
 21
0.6272032511826069
 31
0.0
  0
LINE
  5
163
330
E
100
AcDbEntity
 67
     1
  8
AM_VIS
100
AcDbLine
 10
90.06138952138533
 20
-11.37279674881739
 30
0.0
 11
90.06138952138533
 21
0.6272032511826069
 31
0.0
  0
LINE
  5
164
330
E
100
AcDbEntity
 67
     1
  8
AM_VIS
100
AcDbLine
 10
90.06138952138533
 20
-11.37279674881739
 30
0.0
 11
89.38213695863487
 21
-11.37279674881739
 31
0.0
  0
LINE
  5
165
330
E
100
AcDbEntity
 67
     1
  8
AM_VIS
100
AcDbLine
 10
89.38213695863487
 20
-11.37279674881739
 30
0.0
 11
89.38213695863487
 21
0.6272032511826069
 31
0.0
  0
LINE
  5
166
330
E
100
AcDbEntity
 67
     1
  8
AM_VIS
100
AcDbLine
 10
88.88822384503624
 20
-11.37279674881739
 30
0.0
 11
88.14675097909777
 21
-11.37279674881739
 31
0.0
  0
LINE
  5
167
330
E
100
AcDbEntity
 67
     1
  8
AM_VIS
100
AcDbLine
 10
88.14675097909777
 20
-11.37279674881739
 30
0.0
 11
88.14675097909777
 21
0.6272032511826069
 31
0.0
  0
LINE
  5
168
330
E
100
AcDbEntity
 67
     1
  8
AM_VIS
100
AcDbLine
 10
87.68885575488438
 20
-11.37279674881739
 30
0.0
 11
87.0096031921339
 21
-11.37279674881739
 31
0.0
  0
LINE
  5
169
330
E
100
AcDbEntity
 67
     1
  8
AM_VIS
100
AcDbLine
 10
87.0096031921339
 20
-11.37279674881742
 30
0.0
 11
87.0096031921339
 21
0.6272032511825927
 31
0.0
  0
LINE
  5
16A
330
E
100
AcDbEntity
 67
     1
  8
AM_VIS
100
AcDbLine
 10
86.59556057154457
 20
-11.37279674881739
 30
0.0
 11
85.99015051165514
 21
-11.37279674881739
 31
0.0
  0
LINE
  5
16B
330
E
100
AcDbEntity
 67
     1
  8
AM_VIS
100
AcDbLine
 10
85.99015051165514
 20
-11.37279674881739
 30
0.0
 11
85.99015051165514
 21
0.6272032511826069
 31
0.0
  0
LINE
  5
16C
330
E
100
AcDbEntity
 67
     1
  8
AM_VIS
100
AcDbLine
 10
85.62704487872244
 20
-11.37279674881739
 30
0.0
 11
85.10583605567012
 21
-11.37279674881739
 31
0.0
  0
LINE
  5
16D
330
E
100
AcDbEntity
 67
     1
  8
AM_VIS
100
AcDbLine
 10
85.10583605567012
 20
-11.37279674881739
 30
0.0
 11
85.10583605567012
 21
0.6272032511826069
 31
0.0
  0
LINE
  5
16E
330
E
100
AcDbEntity
 67
     1
  8
AM_VIS
100
AcDbLine
 10
84.79988024844548
 20
-11.37279674881739
 30
0.0
 11
84.37179068969909
 21
-11.37279674881739
 31
0.0
  0
LINE
  5
16F
330
E
100
AcDbEntity
 67
     1
  8
AM_VIS
100
AcDbLine
 10
84.37179068969909
 20
-11.37279674881739
 30
0.0
 11
84.37179068969909
 21
0.6272032511826069
 31
0.0
  0
LINE
  5
170
330
E
100
AcDbEntity
 67
     1
  8
AM_VIS
100
AcDbLine
 10
84.12821969687106
 20
-11.37279674881739
 30
0.0
 11
83.8005741334696
 21
-11.37279674881739
 31
0.0
  0
LINE
  5
172
330
E
100
AcDbEntity
 67
     1
  8
AM_VIS
100
AcDbLine
 10
83.62355552225611
 20
-11.37279674881739
 30
0.0
 11
83.40196006062992
 21
-11.37279674881739
 31
0.0
  0
LINE
  5
174
330
E
100
AcDbEntity
 67
     1
  8
AM_VIS
100
AcDbLine
 10
83.29452266854765
 20
-11.37279674881739
 30
0.0
 11
83.182768868483
 21
-11.37279674881739
 31
0.0
  0
LINE
  5
176
330
E
100
AcDbEntity
 67
     1
  8
AM_VIS
100
AcDbLine
 10
104.6296967109747
 20
-11.37279674881739
 30
0.0
 11
104.6296967109747
 21
0.6272032511826069
 31
0.0
  0
LINE
  5
177
330
E
100
AcDbEntity
 67
     1
  8
AM_VIS
100
AcDbLine
 10
104.4819250215248
 20
-11.37279674881739
 30
0.0
 11
104.4819250215248
 21
0.6272032511825927
 31
0.0
  0
LINE
  5
178
330
E
100
AcDbEntity
 67
     1
  8
AM_VIS
100
AcDbLine
 10
104.1528921678163
 20
-11.37279674881739
 30
0.0
 11
104.1528921678163
 21
0.6272032511825927
 31
0.0
  0
LINE
  5
179
330
E
100
AcDbEntity
 67
     1
  8
AM_VIS
100
AcDbLine
 10
103.6482279932014
 20
-11.37279674881739
 30
0.0
 11
103.6482279932014
 21
0.6272032511826069
 31
0.0
  0
LINE
  5
17A
330
E
100
AcDbEntity
 67
     1
  8
AM_VIS
100
AcDbLine
 10
102.976567441627
 20
-11.37279674881739
 30
0.0
 11
102.976567441627
 21
0.6272032511826069
 31
0.0
  0
LINE
  5
17B
330
E
100
AcDbEntity
 67
     1
  8
AM_VIS
100
AcDbLine
 10
102.14940281135
 20
-11.37279674881739
 30
0.0
 11
102.14940281135
 21
0.6272032511826069
 31
0.0
  0
LINE
  5
17C
330
E
100
AcDbEntity
 67
     1
  8
AM_VIS
100
AcDbLine
 10
101.1808871185279
 20
-11.37279674881739
 30
0.0
 11
101.1808871185279
 21
0.6272032511826069
 31
0.0
  0
LINE
  5
17D
330
E
100
AcDbEntity
 67
     1
  8
AM_VIS
100
AcDbLine
 10
100.0875919351881
 20
-11.37279674881739
 30
0.0
 11
100.0875919351881
 21
0.6272032511826069
 31
0.0
  0
LINE
  5
17E
330
E
100
AcDbEntity
 67
     1
  8
AM_VIS
100
AcDbLine
 10
98.88822384503624
 20
-11.37279674881739
 30
0.0
 11
98.88822384503624
 21
0.6272032511826069
 31
0.0
  0
LINE
  5
17F
330
E
100
AcDbEntity
 67
     1
  8
AM_VIS
100
AcDbLine
 10
97.71505816868714
 20
-11.37279674881739
 30
0.0
 11
97.71505816868714
 21
0.6272032511826069
 31
0.0
  0
LINE
  5
180
330
E
100
AcDbEntity
 67
     1
  8
AM_VIS
100
AcDbLine
 10
97.71505816868714
 20
-11.37279674881739
 30
0.0
 11
97.60330436862249
 21
-11.37279674881739
 31
0.0
  0
LINE
  5
182
330
E
100
AcDbEntity
 67
     1
  8
AM_VIS
100
AcDbLine
 10
96.47641429606146
 20
-11.37279674881739
 30
0.0
 11
96.47641429606146
 21
0.6272032511826069
 31
0.0
  0
LINE
  5
183
330
E
100
AcDbEntity
 67
     1
  8
AM_VIS
100
AcDbLine
 10
96.47641429606146
 20
-11.37279674881739
 30
0.0
 11
96.25481883443526
 21
-11.37279674881739
 31
0.0
  0
LINE
  5
184
330
E
100
AcDbEntity
 67
     1
  8
AM_VIS
100
AcDbLine
 10
96.25481883443526
 20
-11.37279674881739
 30
0.0
 11
96.25481883443526
 21
0.6272032511826069
 31
0.0
  0
LINE
  5
185
330
E
100
AcDbEntity
 67
     1
  8
AM_VIS
100
AcDbLine
 10
95.19348576723677
 20
-11.37279674881739
 30
0.0
 11
95.19348576723677
 21
0.6272032511826069
 31
0.0
  0
LINE
  5
186
330
E
100
AcDbEntity
 67
     1
  8
AM_VIS
100
AcDbLine
 10
95.19348576723677
 20
-11.37279674881739
 30
0.0
 11
94.86584020383531
 21
-11.37279674881739
 31
0.0
  0
LINE
  5
187
330
E
100
AcDbEntity
 67
     1
  8
AM_VIS
100
AcDbLine
 10
94.86584020383531
 20
-11.37279674881739
 30
0.0
 11
94.86584020383531
 21
0.6272032511826069
 31
0.0
  0
LINE
  5
188
330
E
100
AcDbEntity
 67
     1
  8
AM_VIS
100
AcDbLine
 10
111.3882238450362
 20
108.6272032511826
 30
0.0
 11
111.3882238450362
 21
110.6272032511826
 31
0.0
  0
LINE
  5
189
330
E
100
AcDbEntity
 67
     1
  8
AM_VIS
100
AcDbLine
 10
76.38822384503623
 20
108.6272032511826
 30
0.0
 11
76.38822384503623
 21
110.6272032511826
 31
0.0
  0
LINE
  5
18A
330
E
100
AcDbEntity
 67
     1
  8
AM_VIS
100
AcDbLine
 10
118.615496572309
 20
108.6272032511826
 30
0.0
 11
118.615496572309
 21
110.6272032511826
 31
0.0
  0
LINE
  5
18B
330
E
100
AcDbEntity
 67
     1
  8
AM_VIS
100
AcDbLine
 10
69.16095111776352
 20
110.6272032511826
 30
0.0
 11
69.16095111776352
 21
110.1272032511826
 31
0.0
  0
LINE
  5
18C
330
E
100
AcDbEntity
 67
     1
  8
AM_VIS
100
AcDbLine
 10
76.38822384503623
 20
126.2272032511826
 30
0.0
 11
80.38822384503623
 21
126.2272032511826
 31
0.0
  0
LINE
  5
18D
330
E
100
AcDbEntity
 67
     1
  8
AM_VIS
100
AcDbLine
 10
80.38822384503623
 20
132.2272032511826
 30
0.0
 11
76.38822384503623
 21
132.2272032511826
 31
0.0
  0
LINE
  5
18E
330
E
100
AcDbEntity
 67
     1
  8
AM_VIS
100
AcDbLine
 10
107.3882238450362
 20
126.2272032511826
 30
0.0
 11
111.3882238450362
 21
126.2272032511826
 31
0.0
  0
LINE
  5
18F
330
E
100
AcDbEntity
 67
     1
  8
AM_VIS
100
AcDbLine
 10
111.3882238450362
 20
132.2272032511826
 30
0.0
 11
107.3882238450362
 21
132.2272032511826
 31
0.0
  0
LINE
  5
190
330
E
100
AcDbEntity
 67
     1
  8
AM_VIS
100
AcDbLine
 10
68.88822384503623
 20
139.6272032511826
 30
0.0
 11
118.8882238450362
 21
139.6272032511826
 31
0.0
  0
LINE
  5
191
330
E
100
AcDbEntity
 67
     1
  8
AM_VIS
100
AcDbLine
 10
118.8882238450362
 20
139.6272032511826
 30
0.0
 11
118.8882238450362
 21
108.6272032511826
 31
0.0
  0
LINE
  5
192
330
E
100
AcDbEntity
 67
     1
  8
AM_VIS
100
AcDbLine
 10
68.88822384503623
 20
110.1272032511826
 30
0.0
 11
68.88822384503623
 21
139.6272032511826
 31
0.0
  0
LINE
  5
193
330
E
100
AcDbEntity
 67
     1
  8
AM_VIS
100
AcDbLine
 10
111.3882238450362
 20
108.6272032511826
 30
0.0
 11
118.615496572309
 21
108.6272032511826
 31
0.0
  0
LINE
  5
194
330
E
100
AcDbEntity
 67
     1
  8
AM_VIS
100
AcDbLine
 10
118.8882238450362
 20
108.6272032511826
 30
0.0
 11
118.6154965723089
 21
108.6272032511826
 31
0.0
  0
LINE
  5
195
330
E
100
AcDbEntity
 67
     1
  8
AM_VIS
100
AcDbLine
 10
68.95640566321806
 20
108.6272032511826
 30
0.0
 11
76.38822384503623
 21
108.6272032511826
 31
0.0
  0
ELLIPSE
  5
196
330
E
100
AcDbEntity
 67
     1
  8
AM_VIS
100
AcDbEllipse
 10
68.95640566321806
 20
110.1272032511826
 30
0.0
 11
-0.0000000000000002
 21
-1.5
 31
0.0
210
0.0
220
0.0
230
1.0
 40
0.1363636363636362
 41
0.0000000000000002
 42
1.570796326794896
  0
LINE
  5
197
330
E
100
AcDbEntity
 67
     1
  8
AM_VIS
100
AcDbLine
 10
68.88822384503623
 20
108.6272032511826
 30
0.0
 11
68.95640566321805
 21
108.6272032511826
 31
0.0
  0
LINE
  5
198
330
E
100
AcDbEntity
 67
     1
  8
AM_VIS
100
AcDbLine
 10
68.89199913009178
 20
24.62720325118261
 30
0.0
 11
68.89199913009178
 21
37.62720325118261
 31
0.0
  0
LINE
  5
199
330
E
100
AcDbEntity
 67
     1
  8
AM_VIS
100
AcDbLine
 10
68.18489234890524
 20
37.62720325118261
 30
0.0
 11
68.18489234890524
 21
24.62720325118261
 31
0.0
  0
LINE
  5
19A
330
E
100
AcDbEntity
 67
     1
  8
AM_VIS
100
AcDbLine
 10
68.18489234890524
 20
24.62720325118261
 30
0.0
 11
68.89199913009178
 21
24.62720325118261
 31
0.0
  0
LINE
  5
19B
330
E
100
AcDbEntity
 67
     1
  8
AM_VIS
100
AcDbLine
 10
70.02336997999025
 20
23.32720325118259
 30
0.0
 11
68.89199913009178
 21
24.62720325118259
 31
0.0
  0
LINE
  5
19C
330
E
100
AcDbEntity
 67
     1
  8
AM_VIS
100
AcDbLine
 10
69.66981658939698
 20
23.32720325118261
 30
0.0
 11
69.31626319880372
 21
23.32720325118261
 31
0.0
  0
LINE
  5
19D
330
E
100
AcDbEntity
 67
     1
  8
AM_VIS
100
AcDbLine
 10
68.18489234890524
 20
24.62720325118259
 30
0.0
 11
69.31626319880371
 21
23.32720325118259
 31
0.0
  0
LINE
  5
19E
330
E
100
AcDbEntity
 67
     1
  8
AM_VIS
100
AcDbLine
 10
70.02336997999027
 20
23.32720325118261
 30
0.0
 11
69.66981658939698
 21
23.32720325118261
 31
0.0
  0
LINE
  5
19F
330
E
100
AcDbEntity
 67
     1
  8
AM_VIS
100
AcDbLine
 10
70.02336997999025
 20
37.62720325118261
 30
0.0
 11
70.02336997999025
 21
23.32720325118261
 31
0.0
  0
LINE
  5
1A0
330
E
100
AcDbEntity
 67
     1
  8
AM_VIS
100
AcDbLine
 10
67.1599149085451
 20
24.62720325118259
 30
0.0
 11
67.1599149085451
 21
37.62720325118259
 31
0.0
  0
LINE
  5
1A1
330
E
100
AcDbEntity
 67
     1
  8
AM_VIS
100
AcDbLine
 10
66.50385587955461
 20
37.62720325118259
 30
0.0
 11
66.50385587955461
 21
24.62720325118259
 31
0.0
  0
LINE
  5
1A2
330
E
100
AcDbEntity
 67
     1
  8
AM_VIS
100
AcDbLine
 10
66.50385587955461
 20
24.62720325118259
 30
0.0
 11
67.1599149085451
 21
24.62720325118259
 31
0.0
  0
LINE
  5
1A3
330
E
100
AcDbEntity
 67
     1
  8
AM_VIS
100
AcDbLine
 10
68.36745023690155
 20
23.32720325118258
 30
0.0
 11
67.1599149085451
 21
24.62720325118259
 31
0.0
  0
LINE
  5
1A4
330
E
100
AcDbEntity
 67
     1
  8
AM_VIS
100
AcDbLine
 10
68.03942072240629
 20
23.32720325118259
 30
0.0
 11
67.71139120791104
 21
23.32720325118259
 31
0.0
  0
LINE
  5
1A5
330
E
100
AcDbEntity
 67
     1
  8
AM_VIS
100
AcDbLine
 10
66.50385587955461
 20
24.62720325118258
 30
0.0
 11
67.71139120791104
 21
23.32720325118258
 31
0.0
  0
LINE
  5
1A6
330
E
100
AcDbEntity
 67
     1
  8
AM_VIS
100
AcDbLine
 10
68.36745023690155
 20
23.32720325118259
 30
0.0
 11
68.03942072240629
 21
23.32720325118259
 31
0.0
  0
LINE
  5
1A7
330
E
100
AcDbEntity
 67
     1
  8
AM_VIS
100
AcDbLine
 10
68.36745023690155
 20
24.41743538027053
 30
0.0
 11
68.36745023690155
 21
23.32720325118259
 31
0.0
  0
LINE
  5
1A8
330
E
100
AcDbEntity
 67
     1
  8
AM_VIS
100
AcDbLine
 10
65.55804832141681
 20
24.62720325118259
 30
0.0
 11
65.55804832141681
 21
37.62720325118259
 31
0.0
  0
LINE
  5
1A9
330
E
100
AcDbEntity
 67
     1
  8
AM_VIS
100
AcDbLine
 10
64.95623329826475
 20
37.62720325118259
 30
0.0
 11
64.95623329826475
 21
24.62720325118259
 31
0.0
  0
LINE
  5
1AA
330
E
100
AcDbEntity
 67
     1
  8
AM_VIS
100
AcDbLine
 10
64.95623329826476
 20
24.62720325118259
 30
0.0
 11
65.55804832141681
 21
24.62720325118259
 31
0.0
  0
LINE
  5
1AB
330
E
100
AcDbEntity
 67
     1
  8
AM_VIS
100
AcDbLine
 10
66.83586513749247
 20
23.32720325118258
 30
0.0
 11
65.55804832141681
 21
24.62720325118258
 31
0.0
  0
LINE
  5
1AC
330
E
100
AcDbEntity
 67
     1
  8
AM_VIS
100
AcDbLine
 10
66.53495762591645
 20
23.32720325118259
 30
0.0
 11
66.23405011434043
 21
23.32720325118259
 31
0.0
  0
LINE
  5
1AD
330
E
100
AcDbEntity
 67
     1
  8
AM_VIS
100
AcDbLine
 10
64.95623329826475
 20
24.62720325118259
 30
0.0
 11
66.23405011434042
 21
23.32720325118259
 31
0.0
  0
LINE
  5
1AE
330
E
100
AcDbEntity
 67
     1
  8
AM_VIS
100
AcDbLine
 10
66.83586513749247
 20
23.32720325118259
 30
0.0
 11
66.53495762591645
 21
23.32720325118259
 31
0.0
  0
LINE
  5
1AF
330
E
100
AcDbEntity
 67
     1
  8
AM_VIS
100
AcDbLine
 10
66.83586513749247
 20
24.26977102938028
 30
0.0
 11
66.83586513749247
 21
23.32720325118259
 31
0.0
  0
LINE
  5
1B0
330
E
100
AcDbEntity
 67
     1
  8
AM_VIS
100
AcDbLine
 10
64.09420350170029
 20
24.62720325118259
 30
0.0
 11
64.09420350170029
 21
37.62720325118259
 31
0.0
  0
LINE
  5
1B1
330
E
100
AcDbEntity
 67
     1
  8
AM_VIS
100
AcDbLine
 10
63.54956446668527
 20
37.62720325118259
 30
0.0
 11
63.54956446668527
 21
24.62720325118259
 31
0.0
  0
LINE
  5
1B2
330
E
100
AcDbEntity
 67
     1
  8
AM_VIS
100
AcDbLine
 10
63.54956446668527
 20
24.62720325118259
 30
0.0
 11
64.09420350170029
 21
24.62720325118259
 31
0.0
  0
LINE
  5
1B3
330
E
100
AcDbEntity
 67
     1
  8
AM_VIS
100
AcDbLine
 10
65.43607641041297
 20
23.32720325118258
 30
0.0
 11
64.09420350170029
 21
24.62720325118258
 31
0.0
  0
LINE
  5
1B4
330
E
100
AcDbEntity
 67
     1
  8
AM_VIS
100
AcDbLine
 10
65.16375689290547
 20
23.32720325118259
 30
0.0
 11
64.89143737539795
 21
23.32720325118259
 31
0.0
  0
LINE
  5
1B5
330
E
100
AcDbEntity
 67
     1
  8
AM_VIS
100
AcDbLine
 10
63.54956446668527
 20
24.62720325118259
 30
0.0
 11
64.89143737539795
 21
23.32720325118258
 31
0.0
  0
LINE
  5
1B6
330
E
100
AcDbEntity
 67
     1
  8
AM_VIS
100
AcDbLine
 10
65.43607641041297
 20
23.32720325118259
 30
0.0
 11
65.16375689290545
 21
23.32720325118259
 31
0.0
  0
LINE
  5
1B7
330
E
100
AcDbEntity
 67
     1
  8
AM_VIS
100
AcDbLine
 10
65.43607641041297
 20
24.13902995596143
 30
0.0
 11
65.43607641041297
 21
23.32720325118259
 31
0.0
  0
LINE
  5
1B8
330
E
100
AcDbEntity
 67
     1
  8
AM_VIS
100
AcDbLine
 10
119.5915553411672
 20
24.62720325118261
 30
0.0
 11
119.5915553411672
 21
37.62720325118261
 31
0.0
  0
LINE
  5
1B9
330
E
100
AcDbEntity
 67
     1
  8
AM_VIS
100
AcDbLine
 10
118.8844485599807
 20
37.62720325118261
 30
0.0
 11
118.8844485599807
 21
24.62720325118261
 31
0.0
  0
LINE
  5
1BA
330
E
100
AcDbEntity
 67
     1
  8
AM_VIS
100
AcDbLine
 10
117.7530777100822
 20
23.32720325118261
 30
0.0
 11
117.7530777100822
 21
24.58730378440744
 31
0.0
  0
LINE
  5
1BB
330
E
100
AcDbEntity
 67
     1
  8
AM_VIS
100
AcDbLine
 10
118.8844485599807
 20
24.62720325118261
 30
0.0
 11
119.5915553411672
 21
24.62720325118261
 31
0.0
  0
LINE
  5
1BC
330
E
100
AcDbEntity
 67
     1
  8
AM_VIS
100
AcDbLine
 10
118.4601844912687
 20
23.32720325118259
 30
0.0
 11
119.5915553411672
 21
24.62720325118259
 31
0.0
  0
LINE
  5
1BD
330
E
100
AcDbEntity
 67
     1
  8
AM_VIS
100
AcDbLine
 10
118.1066311006755
 20
23.32720325118261
 30
0.0
 11
117.7530777100822
 21
23.32720325118261
 31
0.0
  0
LINE
  5
1BE
330
E
100
AcDbEntity
 67
     1
  8
AM_VIS
100
AcDbLine
 10
118.8844485599807
 20
24.62720325118259
 30
0.0
 11
117.7530777100822
 21
23.32720325118259
 31
0.0
  0
LINE
  5
1BF
330
E
100
AcDbEntity
 67
     1
  8
AM_VIS
100
AcDbLine
 10
118.4601844912687
 20
23.32720325118261
 30
0.0
 11
118.1066311006755
 21
23.32720325118261
 31
0.0
  0
LINE
  5
1C0
330
E
100
AcDbEntity
 67
     1
  8
AM_VIS
100
AcDbLine
 10
117.7852948244573
 20
24.62720325118259
 30
0.0
 11
117.7852948244573
 21
37.62720325118259
 31
0.0
  0
LINE
  5
1C1
330
E
100
AcDbEntity
 67
     1
  8
AM_VIS
100
AcDbLine
 10
117.0305852442345
 20
37.62720325118259
 30
0.0
 11
117.0305852442345
 21
24.62720325118259
 31
0.0
  0
LINE
  5
1C2
330
E
100
AcDbEntity
 67
     1
  8
AM_VIS
100
AcDbLine
 10
115.9808907978497
 20
23.32720325118259
 30
0.0
 11
115.9808907978497
 21
37.62720325118259
 31
0.0
  0
LINE
  5
1C3
330
E
100
AcDbEntity
 67
     1
  8
AM_VIS
100
AcDbLine
 10
117.0305852442345
 20
24.62720325118259
 30
0.0
 11
117.7852948244573
 21
24.62720325118259
 31
0.0
  0
LINE
  5
1C4
330
E
100
AcDbEntity
 67
     1
  8
AM_VIS
100
AcDbLine
 10
116.7356003780725
 20
23.32720325118258
 30
0.0
 11
117.7852948244573
 21
24.62720325118259
 31
0.0
  0
LINE
  5
1C5
330
E
100
AcDbEntity
 67
     1
  8
AM_VIS
100
AcDbLine
 10
116.3582455879611
 20
23.32720325118259
 30
0.0
 11
115.9808907978497
 21
23.32720325118259
 31
0.0
  0
LINE
  5
1C6
330
E
100
AcDbEntity
 67
     1
  8
AM_VIS
100
AcDbLine
 10
117.0305852442345
 20
24.62720325118258
 30
0.0
 11
115.9808907978497
 21
23.32720325118258
 31
0.0
  0
LINE
  5
1C7
330
E
100
AcDbEntity
 67
     1
  8
AM_VIS
100
AcDbLine
 10
116.7356003780725
 20
23.32720325118259
 30
0.0
 11
116.3582455879611
 21
23.32720325118259
 31
0.0
  0
LINE
  5
1C8
330
E
100
AcDbEntity
 67
     1
  8
AM_VIS
100
AcDbLine
 10
115.8626101800608
 20
24.62720325118259
 30
0.0
 11
115.8626101800608
 21
37.62720325118259
 31
0.0
  0
LINE
  5
1C9
330
E
100
AcDbEntity
 67
     1
  8
AM_VIS
100
AcDbLine
 10
115.0639746700135
 20
37.62720325118259
 30
0.0
 11
115.0639746700135
 21
24.62720325118259
 31
0.0
  0
LINE
  5
1CA
330
E
100
AcDbEntity
 67
     1
  8
AM_VIS
100
AcDbLine
 10
114.1010706329702
 20
23.32720325118259
 30
0.0
 11
114.1010706329702
 21
37.62720325118259
 31
0.0
  0
LINE
  5
1CB
330
E
100
AcDbEntity
 67
     1
  8
AM_VIS
100
AcDbLine
 10
115.0639746700135
 20
24.62720325118259
 30
0.0
 11
115.8626101800608
 21
24.62720325118259
 31
0.0
  0
LINE
  5
1CC
330
E
100
AcDbEntity
 67
     1
  8
AM_VIS
100
AcDbLine
 10
114.8997061430175
 20
23.32720325118258
 30
0.0
 11
115.8626101800608
 21
24.62720325118258
 31
0.0
  0
LINE
  5
1CD
330
E
100
AcDbEntity
 67
     1
  8
AM_VIS
100
AcDbLine
 10
114.5003883879939
 20
23.32720325118259
 30
0.0
 11
114.1010706329702
 21
23.32720325118259
 31
0.0
  0
LINE
  5
1CE
330
E
100
AcDbEntity
 67
     1
  8
AM_VIS
100
AcDbLine
 10
115.0639746700135
 20
24.62720325118259
 30
0.0
 11
114.1010706329702
 21
23.32720325118259
 31
0.0
  0
LINE
  5
1CF
330
E
100
AcDbEntity
 67
     1
  8
AM_VIS
100
AcDbLine
 10
114.8997061430175
 20
23.32720325118259
 30
0.0
 11
114.5003883879939
 21
23.32720325118259
 31
0.0
  0
LINE
  5
1D0
330
E
100
AcDbEntity
 67
     1
  8
AM_VIS
100
AcDbLine
 10
113.8328685342977
 20
24.62720325118259
 30
0.0
 11
113.8328685342977
 21
37.62720325118259
 31
0.0
  0
LINE
  5
1D1
330
E
100
AcDbEntity
 67
     1
  8
AM_VIS
100
AcDbLine
 10
112.9941979663522
 20
37.62720325118259
 30
0.0
 11
112.9941979663522
 21
24.62720325118259
 31
0.0
  0
LINE
  5
1D2
330
E
100
AcDbEntity
 67
     1
  8
AM_VIS
100
AcDbLine
 10
112.1227755103282
 20
23.32720325118259
 30
0.0
 11
112.1227755103282
 21
37.62720325118259
 31
0.0
  0
LINE
  5
1D3
330
E
100
AcDbEntity
 67
     1
  8
AM_VIS
100
AcDbLine
 10
112.9941979663522
 20
24.62720325118259
 30
0.0
 11
113.8328685342977
 21
24.62720325118259
 31
0.0
  0
LINE
  5
1D4
330
E
100
AcDbEntity
 67
     1
  8
AM_VIS
100
AcDbLine
 10
112.9614460782736
 20
23.32720325118258
 30
0.0
 11
113.8328685342977
 21
24.62720325118258
 31
0.0
  0
LINE
  5
1D5
330
E
100
AcDbEntity
 67
     1
  8
AM_VIS
100
AcDbLine
 10
112.5421107943009
 20
23.32720325118259
 30
0.0
 11
112.1227755103282
 21
23.32720325118259
 31
0.0
  0
LINE
  5
1D6
330
E
100
AcDbEntity
 67
     1
  8
AM_VIS
100
AcDbLine
 10
112.9941979663522
 20
24.62720325118259
 30
0.0
 11
112.1227755103282
 21
23.32720325118258
 31
0.0
  0
LINE
  5
1D7
330
E
100
AcDbEntity
 67
     1
  8
AM_VIS
100
AcDbLine
 10
112.9614460782736
 20
23.32720325118259
 30
0.0
 11
112.5421107943009
 21
23.32720325118259
 31
0.0
  0
LINE
  5
1D8
330
E
100
AcDbEntity
 67
     1
  8
AM_VIS
100
AcDbLine
 10
93.48822384503623
 20
112.1079517666277
 30
0.0
 11
93.48822384503623
 21
111.9668067379074
 31
0.0
  0
ARC
  5
1D9
330
E
100
AcDbEntity
 67
     1
  8
AM_VIS
100
AcDbCircle
 10
93.97103650404901
 20
107.0336597899961
 30
0.0
 40
5.097209739436911
100
AcDbArc
 50
95.43526024378435
 51
104.5763316321419
  0
LINE
  5
1DA
330
E
100
AcDbEntity
 67
     1
  8
AM_VIS
100
AcDbLine
 10
92.68822384503623
 20
111.9841094909671
 30
0.0
 11
92.68822384503623
 21
111.9668067379074
 31
0.0
  0
ARC
  5
1DB
330
E
100
AcDbEntity
 67
     1
  8
AM_VIS
100
AcDbCircle
 10
93.88822384503624
 20
107.3519164315582
 30
0.0
 40
4.63219305940894
100
AcDbArc
 50
85.04621460995521
 51
94.95378539004482
  0
LINE
  5
1DC
330
E
100
AcDbEntity
 67
     1
  8
AM_VIS
100
AcDbLine
 10
94.28822384503623
 20
112.1079517666277
 30
0.0
 11
94.28822384503623
 21
111.9668067379074
 31
0.0
  0
ARC
  5
1DD
330
E
100
AcDbEntity
 67
     1
  8
AM_VIS
100
AcDbCircle
 10
93.80541118602323
 20
107.0336597899946
 30
0.0
 40
5.097209739438446
100
AcDbArc
 50
75.42366836785979
 51
84.56473975621472
  0
LINE
  5
1DE
330
E
100
AcDbEntity
 67
     1
  8
AM_VIS
100
AcDbLine
 10
95.08822384503623
 20
111.9841094909671
 30
0.0
 11
95.08822384503623
 21
111.9668067379074
 31
0.0
  0
LINE
  5
1DF
330
E
100
AcDbEntity
 67
     1
  8
AM_VIS
100
AcDbLine
 10
118.615496572309
 20
110.6272032511826
 30
0.0
 11
111.3882238450362
 21
110.6272032511826
 31
0.0
  0
LINE
  5
1E0
330
E
100
AcDbEntity
 67
     1
  8
AM_VIS
100
AcDbLine
 10
76.38822384503623
 20
110.6272032511826
 30
0.0
 11
69.16095111776352
 21
110.6272032511826
 31
0.0
  0
LINE
  5
1E1
330
E
100
AcDbEntity
 67
     1
  8
AM_VIS
100
AcDbLine
 10
80.68822384503624
 20
111.9841094909671
 30
0.0
 11
80.68822384503624
 21
111.9668067379074
 31
0.0
  0
ARC
  5
1E2
330
E
100
AcDbEntity
 67
     1
  8
AM_VIS
100
AcDbCircle
 10
81.97103650404898
 20
107.0336597899962
 30
0.0
 40
5.097209739436761
100
AcDbArc
 50
95.43526024378426
 51
104.5763316321421
  0
LINE
  5
1E3
330
E
100
AcDbEntity
 67
     1
  8
AM_VIS
100
AcDbLine
 10
81.48822384503622
 20
112.1079517666277
 30
0.0
 11
81.48822384503622
 21
111.9668067379074
 31
0.0
  0
ARC
  5
1E4
330
E
100
AcDbEntity
 67
     1
  8
AM_VIS
100
AcDbCircle
 10
81.88822384503623
 20
107.3519164315582
 30
0.0
 40
4.632193059408919
100
AcDbArc
 50
85.04621460995521
 51
94.95378539004482
  0
LINE
  5
1E5
330
E
100
AcDbEntity
 67
     1
  8
AM_VIS
100
AcDbLine
 10
82.28822384503624
 20
112.1079517666277
 30
0.0
 11
82.28822384503624
 21
111.9668067379074
 31
0.0
  0
ARC
  5
1E6
330
E
100
AcDbEntity
 67
     1
  8
AM_VIS
100
AcDbCircle
 10
81.80541118602324
 20
107.0336597899945
 30
0.0
 40
5.09720973943849
100
AcDbArc
 50
75.42366836785982
 51
84.56473975621461
  0
LINE
  5
1E7
330
E
100
AcDbEntity
 67
     1
  8
AM_VIS
100
AcDbLine
 10
83.08822384503624
 20
111.9841094909671
 30
0.0
 11
83.08822384503624
 21
111.9668067379074
 31
0.0
  0
ARC
  5
1E8
330
E
100
AcDbEntity
 67
     1
  8
AM_VIS
100
AcDbCircle
 10
93.80541118602325
 20
107.0336597899946
 30
0.0
 40
5.097209739438439
100
AcDbArc
 50
75.42366836785979
 51
84.56473975621463
  0
ARC
  5
1E9
330
E
100
AcDbEntity
 67
     1
  8
AM_VIS
100
AcDbCircle
 10
93.97103650404901
 20
107.0336597899961
 30
0.0
 40
5.097209739436934
100
AcDbArc
 50
95.43526024378445
 51
104.5763316321421
  0
ARC
  5
1EA
330
E
100
AcDbEntity
 67
     1
  8
AM_VIS
100
AcDbCircle
 10
93.88822384503624
 20
107.3519164315582
 30
0.0
 40
4.63219305940894
100
AcDbArc
 50
85.04621460995521
 51
94.95378539004482
  0
ARC
  5
1EB
330
E
100
AcDbEntity
 67
     1
  8
AM_VIS
100
AcDbCircle
 10
105.8054111860232
 20
107.0336597899943
 30
0.0
 40
5.097209739438756
100
AcDbArc
 50
75.42366836786006
 51
84.56473975621431
  0
LINE
  5
1EC
330
E
100
AcDbEntity
 67
     1
  8
AM_VIS
100
AcDbLine
 10
106.2882238450362
 20
112.1079517666277
 30
0.0
 11
106.2882238450362
 21
111.9668067379074
 31
0.0
  0
ARC
  5
1ED
330
E
100
AcDbEntity
 67
     1
  8
AM_VIS
100
AcDbCircle
 10
105.8882238450362
 20
107.3519164315582
 30
0.0
 40
4.63219305940894
100
AcDbArc
 50
85.04621460995521
 51
94.9537853900448
  0
LINE
  5
1EE
330
E
100
AcDbEntity
 67
     1
  8
AM_VIS
100
AcDbLine
 10
105.4882238450362
 20
112.1079517666277
 30
0.0
 11
105.4882238450362
 21
111.9668067379074
 31
0.0
  0
ARC
  5
1EF
330
E
100
AcDbEntity
 67
     1
  8
AM_VIS
100
AcDbCircle
 10
105.9710365040489
 20
107.0336597899962
 30
0.0
 40
5.097209739436761
100
AcDbArc
 50
95.43526024378426
 51
104.5763316321421
  0
LINE
  5
1F0
330
E
100
AcDbEntity
 67
     1
  8
AM_VIS
100
AcDbLine
 10
107.0882238450362
 20
111.9841094909671
 30
0.0
 11
107.0882238450362
 21
111.9668067379074
 31
0.0
  0
LINE
  5
1F1
330
E
100
AcDbEntity
 67
     1
  8
AM_VIS
100
AcDbLine
 10
104.6882238450362
 20
111.9841094909671
 30
0.0
 11
104.6882238450362
 21
111.9668067379074
 31
0.0
  0
LINE
  5
1F2
330
E
100
AcDbEntity
 67
     1
  8
AM_VIS
100
AcDbLine
 10
56.38822384503623
 20
96.62720325118261
 30
0.0
 11
56.38822384503623
 21
93.12720325118261
 31
0.0
  0
LINE
  5
1F3
330
E
100
AcDbEntity
 67
     1
  8
AM_VIS
100
AcDbLine
 10
131.3882238450362
 20
96.62720325118261
 30
0.0
 11
131.3882238450362
 21
93.12720325118261
 31
0.0
  0
LINE
  5
1F4
330
E
100
AcDbEntity
 67
     1
  8
AM_VIS
100
AcDbLine
 10
62.63822384503623
 20
93.12720325118261
 30
0.0
 11
62.63822384503623
 21
49.12720325118261
 31
0.0
  0
LINE
  5
1F5
330
E
100
AcDbEntity
 67
     1
  8
AM_VIS
100
AcDbLine
 10
125.1382238450362
 20
93.12720325118261
 30
0.0
 11
125.1382238450362
 21
49.12720325118261
 31
0.0
  0
LINE
  5
1F6
330
E
100
AcDbEntity
 67
     1
  8
AM_VIS
100
AcDbLine
 10
56.53822384503624
 20
49.12720325118261
 30
0.0
 11
56.53822384503624
 21
37.62720325118261
 31
0.0
  0
LINE
  5
1F7
330
E
100
AcDbEntity
 67
     1
  8
AM_VIS
100
AcDbLine
 10
131.2382238450362
 20
49.12720325118261
 30
0.0
 11
131.2382238450362
 21
37.62720325118261
 31
0.0
  0
LINE
  5
1F8
330
E
100
AcDbEntity
 67
     1
  8
AM_VIS
100
AcDbLine
 10
128.1382238450362
 20
11.6272032511826
 30
0.0
 11
128.1382238450362
 21
37.62720325118261
 31
0.0
  0
LINE
  5
1F9
330
E
100
AcDbEntity
 67
     1
  8
AM_VIS
100
AcDbLine
 10
59.63822384503624
 20
11.6272032511826
 30
0.0
 11
59.63822384503624
 21
37.62720325118261
 31
0.0
  0
LINE
  5
1FA
330
E
100
AcDbEntity
 67
     1
  8
AM_VIS
100
AcDbLine
 10
89.88822384503624
 20
108.6272032511826
 30
0.0
 11
89.88822384503624
 21
96.62720325118261
 31
0.0
  0
LINE
  5
1FB
330
E
100
AcDbEntity
 67
     1
  8
AM_VIS
100
AcDbLine
 10
97.88822384503625
 20
108.6272032511826
 30
0.0
 11
97.88822384503625
 21
96.62720325118261
 31
0.0
  0
LINE
  5
1FC
330
E
100
AcDbEntity
 67
     1
  8
AM_VIS
100
AcDbLine
 10
77.88822384503624
 20
108.6272032511826
 30
0.0
 11
77.88822384503624
 21
96.62720325118261
 31
0.0
  0
LINE
  5
1FD
330
E
100
AcDbEntity
 67
     1
  8
AM_VIS
100
AcDbLine
 10
109.8882238450362
 20
108.6272032511826
 30
0.0
 11
109.8882238450362
 21
96.62720325118261
 31
0.0
  0
LINE
  5
1FE
330
E
100
AcDbEntity
 67
     1
  8
AM_VIS
100
AcDbLine
 10
82.28822384503624
 20
4.627203251182606
 30
0.0
 11
82.28822384503624
 21
0.6272032511826069
 31
0.0
  0
LINE
  5
1FF
330
E
100
AcDbEntity
 67
     1
  8
AM_VIS
100
AcDbLine
 10
105.4882238450362
 20
4.627203251182606
 30
0.0
 11
105.4882238450362
 21
0.6272032511826069
 31
0.0
  0
LINE
  5
200
330
E
100
AcDbEntity
 67
     1
  8
AM_VIS
100
AcDbLine
 10
87.88822384503623
 20
-11.37279674881739
 30
0.0
 11
87.88822384503623
 21
-12.97279674881739
 31
0.0
  0
LINE
  5
201
330
E
100
AcDbEntity
 67
     1
  8
AM_VIS
100
AcDbLine
 10
99.88822384503624
 20
-11.37279674881739
 30
0.0
 11
99.88822384503624
 21
-12.97279674881739
 31
0.0
  0
LINE
  5
202
330
E
100
AcDbEntity
 67
     1
  8
AM_VIS
100
AcDbLine
 10
96.08822384503625
 20
-14.47279674881739
 30
0.0
 11
96.08822384503625
 21
-12.97279674881739
 31
0.0
  0
LINE
  5
203
330
E
100
AcDbEntity
 67
     1
  8
AM_VIS
100
AcDbLine
 10
91.68822384503624
 20
-14.47279674881739
 30
0.0
 11
91.68822384503624
 21
-12.97279674881739
 31
0.0
  0
LINE
  5
204
330
E
100
AcDbEntity
 67
     1
  8
AM_VIS
100
AcDbLine
 10
96.38822384503624
 20
-14.97279674881738
 30
0.0
 11
96.38822384503624
 21
-14.47279674881739
 31
0.0
  0
LINE
  5
205
330
E
100
AcDbEntity
 67
     1
  8
AM_VIS
100
AcDbLine
 10
91.38822384503624
 20
-14.97279674881738
 30
0.0
 11
91.38822384503624
 21
-14.47279674881739
 31
0.0
  0
LINE
  5
206
330
E
100
AcDbEntity
 67
     1
  8
AM_VIS
100
AcDbLine
 10
96.16322384503625
 20
-16.47279674881739
 30
0.0
 11
96.38822384503624
 21
-14.97279674881738
 31
0.0
  0
LINE
  5
207
330
E
100
AcDbEntity
 67
     1
  8
AM_VIS
100
AcDbLine
 10
91.61322384503623
 20
-16.47279674881739
 30
0.0
 11
91.38822384503624
 21
-14.97279674881738
 31
0.0
  0
LINE
  5
208
330
E
100
AcDbEntity
 67
     1
  8
AM_VIS
100
AcDbLine
 10
96.38822384503624
 20
-16.97279674881739
 30
0.0
 11
96.38822384503624
 21
-16.47279674881739
 31
0.0
  0
LINE
  5
209
330
E
100
AcDbEntity
 67
     1
  8
AM_VIS
100
AcDbLine
 10
91.38822384503624
 20
-16.97279674881739
 30
0.0
 11
91.38822384503624
 21
-16.47279674881739
 31
0.0
  0
LINE
  5
20A
330
E
100
AcDbEntity
 67
     1
  8
AM_VIS
100
AcDbLine
 10
96.08822384503625
 20
-18.97279674881739
 30
0.0
 11
96.38822384503624
 21
-16.97279674881739
 31
0.0
  0
LINE
  5
20B
330
E
100
AcDbEntity
 67
     1
  8
AM_VIS
100
AcDbLine
 10
91.68822384503624
 20
-18.97279674881739
 30
0.0
 11
91.38822384503624
 21
-16.97279674881739
 31
0.0
  0
LINE
  5
20C
330
E
100
AcDbEntity
 67
     1
  8
AM_VIS
100
AcDbLine
 10
96.88822384503623
 20
110.6272032511826
 30
0.0
 11
96.88822384503623
 21
111.1272032511826
 31
0.0
  0
LINE
  5
20D
330
E
100
AcDbEntity
 67
     1
  8
AM_VIS
100
AcDbLine
 10
90.88822384503624
 20
110.6272032511826
 30
0.0
 11
90.88822384503624
 21
111.1272032511826
 31
0.0
  0
LINE
  5
20E
330
E
100
AcDbEntity
 67
     1
  8
AM_VIS
100
AcDbLine
 10
84.88822384503624
 20
110.6272032511826
 30
0.0
 11
84.88822384503624
 21
111.1272032511826
 31
0.0
  0
LINE
  5
20F
330
E
100
AcDbEntity
 67
     1
  8
AM_VIS
100
AcDbLine
 10
78.88822384503623
 20
110.6272032511826
 30
0.0
 11
78.88822384503623
 21
111.1272032511826
 31
0.0
  0
LINE
  5
210
330
E
100
AcDbEntity
 67
     1
  8
AM_VIS
100
AcDbLine
 10
108.8882238450362
 20
110.6272032511826
 30
0.0
 11
108.8882238450362
 21
111.1272032511826
 31
0.0
  0
LINE
  5
211
330
E
100
AcDbEntity
 67
     1
  8
AM_VIS
100
AcDbLine
 10
102.8882238450362
 20
110.6272032511826
 30
0.0
 11
102.8882238450362
 21
111.1272032511826
 31
0.0
  0
LINE
  5
212
330
E
100
AcDbEntity
 67
     1
  8
AM_VIS
100
AcDbLine
 10
131.3882238450362
 20
93.12720325118261
 30
0.0
 11
56.38822384503623
 21
93.12720325118261
 31
0.0
  0
LINE
  5
213
330
E
100
AcDbEntity
 67
     1
  8
AM_VIS
100
AcDbLine
 10
131.2382238450362
 20
49.12720325118261
 30
0.0
 11
56.53822384503621
 21
49.12720325118261
 31
0.0
  0
LINE
  5
214
330
E
100
AcDbEntity
 67
     1
  8
AM_VIS
100
AcDbLine
 10
63.09704487912211
 20
73.2272032511826
 30
0.0
 11
88.55288900183785
 21
73.2272032511826
 31
0.0
  0
LINE
  5
215
330
E
100
AcDbEntity
 67
     1
  8
AM_VIS
100
AcDbLine
 10
88.55288900183783
 20
68.1272032511826
 30
0.0
 11
63.09704487912211
 21
68.1272032511826
 31
0.0
  0
LINE
  5
216
330
E
100
AcDbEntity
 67
     1
  8
AM_VIS
100
AcDbLine
 10
88.55288900183783
 20
56.1272032511826
 30
0.0
 11
63.09704487912211
 21
56.1272032511826
 31
0.0
  0
LINE
  5
217
330
E
100
AcDbEntity
 67
     1
  8
AM_VIS
100
AcDbLine
 10
99.22355868823466
 20
73.2272032511826
 30
0.0
 11
124.6794028109503
 21
73.2272032511826
 31
0.0
  0
LINE
  5
218
330
E
100
AcDbEntity
 67
     1
  8
AM_VIS
100
AcDbLine
 10
88.55288900183783
 20
80.12720325118261
 30
0.0
 11
63.09704487912211
 21
80.12720325118261
 31
0.0
  0
LINE
  5
219
330
E
100
AcDbEntity
 67
     1
  8
AM_VIS
100
AcDbLine
 10
124.6794028109503
 20
80.12720325118261
 30
0.0
 11
99.22355868823466
 21
80.12720325118261
 31
0.0
  0
LINE
  5
21A
330
E
100
AcDbEntity
 67
     1
  8
AM_VIS
100
AcDbLine
 10
63.09704487912211
 20
61.2272032511826
 30
0.0
 11
88.55288900183785
 21
61.2272032511826
 31
0.0
  0
LINE
  5
21B
330
E
100
AcDbEntity
 67
     1
  8
AM_VIS
100
AcDbLine
 10
99.22355868823466
 20
61.2272032511826
 30
0.0
 11
124.6794028109503
 21
61.2272032511826
 31
0.0
  0
LINE
  5
21C
330
E
100
AcDbEntity
 67
     1
  8
AM_VIS
100
AcDbLine
 10
124.6794028109503
 20
68.1272032511826
 30
0.0
 11
99.22355868823466
 21
68.1272032511826
 31
0.0
  0
LINE
  5
21D
330
E
100
AcDbEntity
 67
     1
  8
AM_VIS
100
AcDbLine
 10
63.09704487912211
 20
49.2272032511826
 30
0.0
 11
88.55288900183783
 21
49.2272032511826
 31
0.0
  0
LINE
  5
21E
330
E
100
AcDbEntity
 67
     1
  8
AM_VIS
100
AcDbLine
 10
99.22355868823466
 20
49.2272032511826
 30
0.0
 11
124.6794028109503
 21
49.2272032511826
 31
0.0
  0
LINE
  5
21F
330
E
100
AcDbEntity
 67
     1
  8
AM_VIS
100
AcDbLine
 10
124.6794028109503
 20
56.1272032511826
 30
0.0
 11
99.22355868823466
 21
56.1272032511826
 31
0.0
  0
LINE
  5
220
330
E
100
AcDbEntity
 67
     1
  8
AM_VIS
100
AcDbLine
 10
131.3882238450362
 20
96.62720325118261
 30
0.0
 11
56.38822384503623
 21
96.62720325118261
 31
0.0
  0
LINE
  5
221
330
E
100
AcDbEntity
 67
     1
  8
AM_VIS
100
AcDbLine
 10
125.1382238450362
 20
8.627203251182606
 30
0.0
 11
62.63822384503623
 21
8.627203251182606
 31
0.0
  0
LINE
  5
222
330
E
100
AcDbEntity
 67
     1
  8
AM_VIS
100
AcDbLine
 10
99.88822384503624
 20
-12.97279674881739
 30
0.0
 11
87.88822384503623
 21
-12.97279674881739
 31
0.0
  0
LINE
  5
223
330
E
100
AcDbEntity
 67
     1
  8
AM_VIS
100
AcDbLine
 10
94.86584020383531
 20
-11.37279674881739
 30
0.0
 11
94.3163134037826
 21
-11.37279674881739
 31
0.0
  0
LINE
  5
224
330
E
100
AcDbEntity
 67
     1
  8
AM_VIS
100
AcDbLine
 10
96.25481883443526
 20
-11.37279674881739
 30
0.0
 11
95.71469459028907
 21
-11.37279674881739
 31
0.0
  0
LINE
  5
225
330
E
100
AcDbEntity
 67
     1
  8
AM_VIS
100
AcDbLine
 10
97.60330436862249
 20
-11.37279674881739
 30
0.0
 11
97.08182435595089
 21
-11.37279674881739
 31
0.0
  0
LINE
  5
226
330
E
100
AcDbEntity
 67
     1
  8
AM_VIS
100
AcDbLine
 10
98.88822384503624
 20
-11.37279674881739
 30
0.0
 11
98.39431073143762
 21
-11.37279674881739
 31
0.0
  0
LINE
  5
227
330
E
100
AcDbEntity
 67
     1
  8
AM_VIS
100
AcDbLine
 10
100.0875919351881
 20
-11.37279674881739
 30
0.0
 11
99.62969671097472
 21
-11.37279674881739
 31
0.0
  0
LINE
  5
228
330
E
100
AcDbEntity
 67
     1
  8
AM_VIS
100
AcDbLine
 10
101.1808871185279
 20
-11.37279674881739
 30
0.0
 11
100.7668444979386
 21
-11.37279674881739
 31
0.0
  0
LINE
  5
229
330
E
100
AcDbEntity
 67
     1
  8
AM_VIS
100
AcDbLine
 10
102.14940281135
 20
-11.37279674881739
 30
0.0
 11
101.7862971784173
 21
-11.37279674881739
 31
0.0
  0
LINE
  5
22A
330
E
100
AcDbEntity
 67
     1
  8
AM_VIS
100
AcDbLine
 10
102.976567441627
 20
-11.37279674881739
 30
0.0
 11
102.6706116344023
 21
-11.37279674881739
 31
0.0
  0
LINE
  5
22B
330
E
100
AcDbEntity
 67
     1
  8
AM_VIS
100
AcDbLine
 10
103.6482279932014
 20
-11.37279674881739
 30
0.0
 11
103.4046570003734
 21
-11.37279674881739
 31
0.0
  0
LINE
  5
22C
330
E
100
AcDbEntity
 67
     1
  8
AM_VIS
100
AcDbLine
 10
104.1528921678163
 20
-11.37279674881739
 30
0.0
 11
103.9758735566028
 21
-11.37279674881739
 31
0.0
  0
LINE
  5
22D
330
E
100
AcDbEntity
 67
     1
  8
AM_VIS
100
AcDbLine
 10
104.4819250215248
 20
-11.37279674881739
 30
0.0
 11
104.3744876294425
 21
-11.37279674881739
 31
0.0
  0
LINE
  5
22E
330
E
100
AcDbEntity
 67
     1
  8
AM_VIS
100
AcDbLine
 10
104.6296967109747
 20
-11.37279674881739
 30
0.0
 11
104.5936788215894
 21
-11.37279674881739
 31
0.0
  0
LINE
  5
22F
330
E
100
AcDbEntity
 67
     1
  8
AM_VIS
100
AcDbLine
 10
83.182768868483
 20
-11.37279674881739
 30
0.0
 11
83.14675097909775
 21
-11.37279674881739
 31
0.0
  0
LINE
  5
230
330
E
100
AcDbEntity
 67
     1
  8
AM_VIS
100
AcDbLine
 10
83.40196006062992
 20
-11.37279674881739
 30
0.0
 11
83.29452266854765
 21
-11.37279674881739
 31
0.0
  0
LINE
  5
231
330
E
100
AcDbEntity
 67
     1
  8
AM_VIS
100
AcDbLine
 10
83.8005741334696
 20
-11.37279674881739
 30
0.0
 11
83.62355552225611
 21
-11.37279674881739
 31
0.0
  0
LINE
  5
232
330
E
100
AcDbEntity
 67
     1
  8
AM_VIS
100
AcDbLine
 10
84.37179068969909
 20
-11.37279674881739
 30
0.0
 11
84.12821969687106
 21
-11.37279674881739
 31
0.0
  0
LINE
  5
233
330
E
100
AcDbEntity
 67
     1
  8
AM_VIS
100
AcDbLine
 10
85.10583605567012
 20
-11.37279674881739
 30
0.0
 11
84.79988024844548
 21
-11.37279674881739
 31
0.0
  0
LINE
  5
234
330
E
100
AcDbEntity
 67
     1
  8
AM_VIS
100
AcDbLine
 10
85.99015051165514
 20
-11.37279674881739
 30
0.0
 11
85.62704487872244
 21
-11.37279674881739
 31
0.0
  0
LINE
  5
235
330
E
100
AcDbEntity
 67
     1
  8
AM_VIS
100
AcDbLine
 10
87.0096031921339
 20
-11.37279674881739
 30
0.0
 11
86.59556057154455
 21
-11.37279674881739
 31
0.0
  0
LINE
  5
236
330
E
100
AcDbEntity
 67
     1
  8
AM_VIS
100
AcDbLine
 10
88.14675097909777
 20
-11.37279674881739
 30
0.0
 11
87.68885575488438
 21
-11.37279674881739
 31
0.0
  0
LINE
  5
237
330
E
100
AcDbEntity
 67
     1
  8
AM_VIS
100
AcDbLine
 10
89.38213695863487
 20
-11.37279674881739
 30
0.0
 11
88.88822384503624
 21
-11.37279674881739
 31
0.0
  0
LINE
  5
238
330
E
100
AcDbEntity
 67
     1
  8
AM_VIS
100
AcDbLine
 10
90.69462333412159
 20
-11.37279674881739
 30
0.0
 11
90.17314332145
 21
-11.37279674881739
 31
0.0
  0
LINE
  5
239
330
E
100
AcDbEntity
 67
     1
  8
AM_VIS
100
AcDbLine
 10
92.06175309978339
 20
-11.37279674881739
 30
0.0
 11
91.52162885563722
 21
-11.37279674881739
 31
0.0
  0
LINE
  5
23A
330
E
100
AcDbEntity
 67
     1
  8
AM_VIS
100
AcDbLine
 10
93.46013428628983
 20
-11.37279674881739
 30
0.0
 11
92.91060748623715
 21
-11.37279674881739
 31
0.0
  0
LINE
  5
23B
330
E
100
AcDbEntity
 67
     1
  8
AM_VIS
100
AcDbLine
 10
105.4882238450362
 20
0.6272032511826069
 30
0.0
 11
82.28822384503624
 21
0.6272032511826069
 31
0.0
  0
LINE
  5
23C
330
E
100
AcDbEntity
 67
     1
  8
AM_VIS
100
AcDbLine
 10
96.38822384503624
 20
-14.47279674881739
 30
0.0
 11
91.38822384503624
 21
-14.47279674881739
 31
0.0
  0
LINE
  5
23D
330
E
100
AcDbEntity
 67
     1
  8
AM_VIS
100
AcDbLine
 10
96.38822384503624
 20
-14.97279674881738
 30
0.0
 11
91.38822384503624
 21
-14.97279674881738
 31
0.0
  0
LINE
  5
23E
330
E
100
AcDbEntity
 67
     1
  8
AM_VIS
100
AcDbLine
 10
96.38822384503624
 20
-16.47279674881739
 30
0.0
 11
91.38822384503624
 21
-16.47279674881739
 31
0.0
  0
LINE
  5
23F
330
E
100
AcDbEntity
 67
     1
  8
AM_VIS
100
AcDbLine
 10
96.38822384503624
 20
-16.97279674881739
 30
0.0
 11
91.38822384503624
 21
-16.97279674881739
 31
0.0
  0
LINE
  5
240
330
E
100
AcDbEntity
 67
     1
  8
AM_VIS
100
AcDbLine
 10
96.08822384503625
 20
-18.97279674881739
 30
0.0
 11
91.68822384503624
 21
-18.97279674881739
 31
0.0
  0
ARC
  5
241
330
E
100
AcDbEntity
 67
     1
  8
AM_VIS
100
AcDbCircle
 10
76.38822384503623
 20
129.2272032511826
 30
0.0
 40
3.0
100
AcDbArc
 50
90.0
 51
270.0
  0
ARC
  5
242
330
E
100
AcDbEntity
 67
     1
  8
AM_VIS
100
AcDbCircle
 10
80.38822384503623
 20
129.2272032511826
 30
0.0
 40
3.0
100
AcDbArc
 50
270.0
 51
90.0
  0
ARC
  5
243
330
E
100
AcDbEntity
 67
     1
  8
AM_VIS
100
AcDbCircle
 10
107.3882238450362
 20
129.2272032511826
 30
0.0
 40
3.0
100
AcDbArc
 50
90.0
 51
270.0
  0
ARC
  5
244
330
E
100
AcDbEntity
 67
     1
  8
AM_VIS
100
AcDbCircle
 10
111.3882238450362
 20
129.2272032511826
 30
0.0
 40
3.0
100
AcDbArc
 50
270.0
 51
90.0
  0
LINE
  5
245
330
E
100
AcDbEntity
 67
     1
  8
AM_VIS
100
AcDbLine
 10
111.3882238450362
 20
108.6272032511826
 30
0.0
 11
76.38822384503623
 21
108.6272032511826
 31
0.0
  0
LINE
  5
246
330
E
100
AcDbEntity
 67
     1
  8
AM_VIS
100
AcDbLine
 10
68.88822384503623
 20
108.6272032511826
 30
0.0
 11
68.88822384503623
 21
110.1272032511826
 31
0.0
  0
LINE
  5
247
330
E
100
AcDbEntity
 67
     1
  8
AM_VIS
100
AcDbLine
 10
131.2382238450362
 20
37.62720325118261
 30
0.0
 11
56.53822384503621
 21
37.62720325118261
 31
0.0
  0
LINE
  5
248
330
E
100
AcDbEntity
 67
     1
  8
AM_VIS
100
AcDbLine
 10
96.88822384503623
 20
111.1272032511826
 30
0.0
 11
90.88822384503624
 21
111.1272032511826
 31
0.0
  0
LINE
  5
249
330
E
100
AcDbEntity
 67
     1
  8
AM_VIS
100
AcDbLine
 10
76.38822384503623
 20
110.6272032511826
 30
0.0
 11
111.3882238450362
 21
110.6272032511826
 31
0.0
  0
LINE
  5
24A
330
E
100
AcDbEntity
 67
     1
  8
AM_VIS
100
AcDbLine
 10
84.88822384503624
 20
111.1272032511826
 30
0.0
 11
78.88822384503623
 21
111.1272032511826
 31
0.0
  0
LINE
  5
24B
330
E
100
AcDbEntity
 67
     1
  8
AM_VIS
100
AcDbLine
 10
108.8882238450362
 20
111.1272032511826
 30
0.0
 11
102.8882238450362
 21
111.1272032511826
 31
0.0
  0
ARC
  5
24C
330
E
100
AcDbEntity
 67
     1
  8
AM_VIS
100
AcDbCircle
 10
62.63822384503623
 20
11.6272032511826
 30
0.0
 40
3.0
100
AcDbArc
 50
180.0
 51
270.0
  0
ARC
  5
24D
330
E
100
AcDbEntity
 67
     1
  8
AM_VIS
100
AcDbCircle
 10
125.1382238450362
 20
11.6272032511826
 30
0.0
 40
3.0
100
AcDbArc
 50
270.0
 51
0.0
  0
ARC
  5
24E
330
E
100
AcDbEntity
 67
     1
  8
AM_VIS
100
AcDbCircle
 10
78.28822384503624
 20
4.627203251182606
 30
0.0
 40
4.0
100
AcDbArc
 50
0.0
 51
90.0
  0
ARC
  5
24F
330
E
100
AcDbEntity
 67
     1
  8
AM_VIS
100
AcDbCircle
 10
109.4882238450362
 20
4.627203251182606
 30
0.0
 40
4.0
100
AcDbArc
 50
90.00000000000003
 51
180.0
  0
ARC
  5
250
330
E
100
AcDbEntity
 67
     1
  8
AM_VIS
100
AcDbCircle
 10
93.76254886893367
 20
106.8804483133159
 30
0.0
 40
5.273022999999999
100
AcDbArc
 50
53.6463773960319
 51
75.43921224953642
  0
ARC
  5
251
330
E
100
AcDbEntity
 67
     1
  8
AM_VIS
100
AcDbCircle
 10
94.0138988211388
 20
106.8804483133159
 30
0.0
 40
5.273022999999999
100
AcDbArc
 50
104.5607877504636
 51
126.3536226039681
  0
ARC
  5
252
330
E
100
AcDbEntity
 67
     1
  8
AM_VIS
100
AcDbCircle
 10
81.76254886893365
 20
106.8804483133159
 30
0.0
 40
5.273022999999999
100
AcDbArc
 50
53.64637739603187
 51
75.43921224953642
  0
ARC
  5
253
330
E
100
AcDbEntity
 67
     1
  8
AM_VIS
100
AcDbCircle
 10
82.01389882113881
 20
106.8804483133159
 30
0.0
 40
5.273022999999999
100
AcDbArc
 50
104.5607877504636
 51
126.3536226039681
  0
ARC
  5
254
330
E
100
AcDbEntity
 67
     1
  8
AM_VIS
100
AcDbCircle
 10
105.7625488689336
 20
106.8804483133159
 30
0.0
 40
5.273022999999999
100
AcDbArc
 50
53.64637739603187
 51
75.43921224953642
  0
ARC
  5
255
330
E
100
AcDbEntity
 67
     1
  8
AM_VIS
100
AcDbCircle
 10
106.0138988211388
 20
106.8804483133159
 30
0.0
 40
5.273022999999999
100
AcDbArc
 50
104.5607877504636
 51
126.3536226039681
  0
LINE
  5
256
330
E
100
AcDbEntity
 67
     1
  8
AM_VIS
100
AcDbLine
 10
68.88822384503623
 20
275.4036131089019
 30
0.0
 11
118.8882238450362
 21
275.4036131089019
 31
0.0
  0
LINE
  5
257
330
E
100
AcDbEntity
 67
     1
  8
AM_VIS
100
AcDbLine
 10
68.88822384503623
 20
273.4036131089019
 30
0.0
 11
118.8882238450362
 21
273.4036131089019
 31
0.0
  0
LINE
  5
258
330
E
100
AcDbEntity
 67
     1
  8
AM_VIS
100
AcDbLine
 10
118.8882238450362
 20
275.4036131089019
 30
0.0
 11
118.8882238450362
 21
273.4036131089019
 31
0.0
  0
LINE
  5
259
330
E
100
AcDbEntity
 67
     1
  8
AM_VIS
100
AcDbLine
 10
68.88822384503623
 20
275.4036131089019
 30
0.0
 11
68.88822384503623
 21
273.4036131089019
 31
0.0
  0
LINE
  5
25A
330
E
100
AcDbEntity
 67
     1
  8
AM_VIS
100
AcDbLine
 10
93.48822384503623
 20
208.0036131089019
 30
0.0
 11
93.48822384503623
 21
207.2036131089018
 31
0.0
  0
LINE
  5
25B
330
E
100
AcDbEntity
 67
     1
  8
AM_VIS
100
AcDbLine
 10
92.68822384503623
 20
208.0036131089019
 30
0.0
 11
93.48822384503623
 21
208.0036131089019
 31
0.0
  0
LINE
  5
25C
330
E
100
AcDbEntity
 67
     1
  8
AM_VIS
100
AcDbLine
 10
92.68822384503623
 20
208.8036131089019
 30
0.0
 11
92.68822384503623
 21
208.0036131089019
 31
0.0
  0
LINE
  5
25D
330
E
100
AcDbEntity
 67
     1
  8
AM_VIS
100
AcDbLine
 10
92.68822384503623
 20
208.8036131089019
 30
0.0
 11
93.48822384503623
 21
208.8036131089019
 31
0.0
  0
LINE
  5
25E
330
E
100
AcDbEntity
 67
     1
  8
AM_VIS
100
AcDbLine
 10
93.48822384503623
 20
209.6036131089018
 30
0.0
 11
93.48822384503623
 21
208.8036131089018
 31
0.0
  0
LINE
  5
25F
330
E
100
AcDbEntity
 67
     1
  8
AM_VIS
100
AcDbLine
 10
93.48822384503623
 20
207.2036131089019
 30
0.0
 11
94.28822384503623
 21
207.2036131089019
 31
0.0
  0
LINE
  5
260
330
E
100
AcDbEntity
 67
     1
  8
AM_VIS
100
AcDbLine
 10
94.28822384503623
 20
208.0036131089019
 30
0.0
 11
94.28822384503623
 21
207.2036131089018
 31
0.0
  0
LINE
  5
261
330
E
100
AcDbEntity
 67
     1
  8
AM_VIS
100
AcDbLine
 10
94.28822384503623
 20
208.0036131089019
 30
0.0
 11
95.08822384503622
 21
208.0036131089019
 31
0.0
  0
LINE
  5
262
330
E
100
AcDbEntity
 67
     1
  8
AM_VIS
100
AcDbLine
 10
95.08822384503623
 20
208.8036131089019
 30
0.0
 11
95.08822384503623
 21
208.0036131089019
 31
0.0
  0
LINE
  5
263
330
E
100
AcDbEntity
 67
     1
  8
AM_VIS
100
AcDbLine
 10
94.28822384503623
 20
208.8036131089019
 30
0.0
 11
95.08822384503622
 21
208.8036131089019
 31
0.0
  0
LINE
  5
264
330
E
100
AcDbEntity
 67
     1
  8
AM_VIS
100
AcDbLine
 10
94.28822384503623
 20
209.6036131089018
 30
0.0
 11
94.28822384503623
 21
208.8036131089018
 31
0.0
  0
LINE
  5
265
330
E
100
AcDbEntity
 67
     1
  8
AM_VIS
100
AcDbLine
 10
93.48822384503623
 20
209.6036131089018
 30
0.0
 11
94.28822384503623
 21
209.6036131089018
 31
0.0
  0
LINE
  5
266
330
E
100
AcDbEntity
 67
     1
  8
AM_VIS
100
AcDbLine
 10
118.615496572309
 20
273.4036131089019
 30
0.0
 11
111.3882238450362
 21
220.4036131089019
 31
0.0
  0
LINE
  5
267
330
E
100
AcDbEntity
 67
     1
  8
AM_VIS
100
AcDbLine
 10
76.38822384503623
 20
220.4036131089019
 30
0.0
 11
69.16095111776352
 21
273.4036131089019
 31
0.0
  0
LINE
  5
268
330
E
100
AcDbEntity
 67
     1
  8
AM_VIS
100
AcDbLine
 10
80.68822384503624
 20
220.8036131089019
 30
0.0
 11
81.48822384503622
 21
220.8036131089019
 31
0.0
  0
LINE
  5
269
330
E
100
AcDbEntity
 67
     1
  8
AM_VIS
100
AcDbLine
 10
81.48822384503622
 20
221.6036131089019
 30
0.0
 11
81.48822384503622
 21
220.8036131089019
 31
0.0
  0
LINE
  5
26A
330
E
100
AcDbEntity
 67
     1
  8
AM_VIS
100
AcDbLine
 10
81.48822384503622
 20
221.6036131089019
 30
0.0
 11
82.28822384503622
 21
221.6036131089019
 31
0.0
  0
LINE
  5
26B
330
E
100
AcDbEntity
 67
     1
  8
AM_VIS
100
AcDbLine
 10
82.28822384503624
 20
221.6036131089019
 30
0.0
 11
82.28822384503624
 21
220.8036131089019
 31
0.0
  0
LINE
  5
26C
330
E
100
AcDbEntity
 67
     1
  8
AM_VIS
100
AcDbLine
 10
82.28822384503624
 20
220.8036131089019
 30
0.0
 11
83.08822384503624
 21
220.8036131089019
 31
0.0
  0
LINE
  5
26D
330
E
100
AcDbEntity
 67
     1
  8
AM_VIS
100
AcDbLine
 10
80.68822384503624
 20
220.8036131089019
 30
0.0
 11
80.68822384503624
 21
220.0036131089019
 31
0.0
  0
LINE
  5
26E
330
E
100
AcDbEntity
 67
     1
  8
AM_VIS
100
AcDbLine
 10
80.68822384503624
 20
220.0036131089019
 30
0.0
 11
81.48822384503622
 21
220.0036131089019
 31
0.0
  0
LINE
  5
26F
330
E
100
AcDbEntity
 67
     1
  8
AM_VIS
100
AcDbLine
 10
81.48822384503622
 20
220.0036131089019
 30
0.0
 11
81.48822384503622
 21
219.2036131089019
 31
0.0
  0
LINE
  5
270
330
E
100
AcDbEntity
 67
     1
  8
AM_VIS
100
AcDbLine
 10
81.48822384503622
 20
219.2036131089019
 30
0.0
 11
82.28822384503622
 21
219.2036131089019
 31
0.0
  0
LINE
  5
271
330
E
100
AcDbEntity
 67
     1
  8
AM_VIS
100
AcDbLine
 10
82.28822384503624
 20
220.0036131089019
 30
0.0
 11
82.28822384503624
 21
219.2036131089019
 31
0.0
  0
LINE
  5
272
330
E
100
AcDbEntity
 67
     1
  8
AM_VIS
100
AcDbLine
 10
82.28822384503624
 20
220.0036131089019
 30
0.0
 11
83.08822384503624
 21
220.0036131089019
 31
0.0
  0
LINE
  5
273
330
E
100
AcDbEntity
 67
     1
  8
AM_VIS
100
AcDbLine
 10
83.08822384503624
 20
220.8036131089019
 30
0.0
 11
83.08822384503624
 21
220.0036131089019
 31
0.0
  0
LINE
  5
274
330
E
100
AcDbEntity
 67
     1
  8
AM_VIS
100
AcDbLine
 10
94.28822384503623
 20
233.6036131089019
 30
0.0
 11
94.28822384503623
 21
232.8036131089019
 31
0.0
  0
LINE
  5
275
330
E
100
AcDbEntity
 67
     1
  8
AM_VIS
100
AcDbLine
 10
94.28822384503623
 20
232.8036131089019
 30
0.0
 11
95.08822384503623
 21
232.8036131089019
 31
0.0
  0
LINE
  5
276
330
E
100
AcDbEntity
 67
     1
  8
AM_VIS
100
AcDbLine
 10
95.08822384503623
 20
232.8036131089019
 30
0.0
 11
95.08822384503623
 21
232.0036131089019
 31
0.0
  0
LINE
  5
277
330
E
100
AcDbEntity
 67
     1
  8
AM_VIS
100
AcDbLine
 10
94.28822384503623
 20
232.0036131089019
 30
0.0
 11
95.08822384503623
 21
232.0036131089019
 31
0.0
  0
LINE
  5
278
330
E
100
AcDbEntity
 67
     1
  8
AM_VIS
100
AcDbLine
 10
94.28822384503623
 20
232.0036131089019
 30
0.0
 11
94.28822384503623
 21
231.2036131089019
 31
0.0
  0
LINE
  5
279
330
E
100
AcDbEntity
 67
     1
  8
AM_VIS
100
AcDbLine
 10
93.48822384503623
 20
233.6036131089019
 30
0.0
 11
94.28822384503623
 21
233.6036131089019
 31
0.0
  0
LINE
  5
27A
330
E
100
AcDbEntity
 67
     1
  8
AM_VIS
100
AcDbLine
 10
93.48822384503623
 20
233.6036131089019
 30
0.0
 11
93.48822384503623
 21
232.8036131089019
 31
0.0
  0
LINE
  5
27B
330
E
100
AcDbEntity
 67
     1
  8
AM_VIS
100
AcDbLine
 10
92.68822384503623
 20
232.8036131089019
 30
0.0
 11
93.48822384503623
 21
232.8036131089019
 31
0.0
  0
LINE
  5
27C
330
E
100
AcDbEntity
 67
     1
  8
AM_VIS
100
AcDbLine
 10
92.68822384503623
 20
232.8036131089019
 30
0.0
 11
92.68822384503623
 21
232.0036131089019
 31
0.0
  0
LINE
  5
27D
330
E
100
AcDbEntity
 67
     1
  8
AM_VIS
100
AcDbLine
 10
92.68822384503623
 20
232.0036131089019
 30
0.0
 11
93.48822384503623
 21
232.0036131089019
 31
0.0
  0
LINE
  5
27E
330
E
100
AcDbEntity
 67
     1
  8
AM_VIS
100
AcDbLine
 10
93.48822384503623
 20
232.0036131089019
 30
0.0
 11
93.48822384503623
 21
231.2036131089019
 31
0.0
  0
LINE
  5
27F
330
E
100
AcDbEntity
 67
     1
  8
AM_VIS
100
AcDbLine
 10
93.48822384503623
 20
231.2036131089019
 30
0.0
 11
94.28822384503623
 21
231.2036131089019
 31
0.0
  0
LINE
  5
280
330
E
100
AcDbEntity
 67
     1
  8
AM_VIS
100
AcDbLine
 10
106.2882238450362
 20
220.0036131089019
 30
0.0
 11
107.0882238450362
 21
220.0036131089019
 31
0.0
  0
LINE
  5
281
330
E
100
AcDbEntity
 67
     1
  8
AM_VIS
100
AcDbLine
 10
106.2882238450362
 20
220.0036131089019
 30
0.0
 11
106.2882238450362
 21
219.2036131089019
 31
0.0
  0
LINE
  5
282
330
E
100
AcDbEntity
 67
     1
  8
AM_VIS
100
AcDbLine
 10
105.4882238450362
 20
219.2036131089019
 30
0.0
 11
106.2882238450362
 21
219.2036131089019
 31
0.0
  0
LINE
  5
283
330
E
100
AcDbEntity
 67
     1
  8
AM_VIS
100
AcDbLine
 10
105.4882238450362
 20
220.0036131089019
 30
0.0
 11
105.4882238450362
 21
219.2036131089019
 31
0.0
  0
LINE
  5
284
330
E
100
AcDbEntity
 67
     1
  8
AM_VIS
100
AcDbLine
 10
104.6882238450362
 20
220.0036131089019
 30
0.0
 11
105.4882238450362
 21
220.0036131089019
 31
0.0
  0
LINE
  5
285
330
E
100
AcDbEntity
 67
     1
  8
AM_VIS
100
AcDbLine
 10
107.0882238450362
 20
220.8036131089019
 30
0.0
 11
107.0882238450362
 21
220.0036131089019
 31
0.0
  0
LINE
  5
286
330
E
100
AcDbEntity
 67
     1
  8
AM_VIS
100
AcDbLine
 10
106.2882238450362
 20
220.8036131089019
 30
0.0
 11
107.0882238450362
 21
220.8036131089019
 31
0.0
  0
LINE
  5
287
330
E
100
AcDbEntity
 67
     1
  8
AM_VIS
100
AcDbLine
 10
106.2882238450362
 20
221.6036131089019
 30
0.0
 11
106.2882238450362
 21
220.8036131089019
 31
0.0
  0
LINE
  5
288
330
E
100
AcDbEntity
 67
     1
  8
AM_VIS
100
AcDbLine
 10
105.4882238450362
 20
221.6036131089019
 30
0.0
 11
106.2882238450362
 21
221.6036131089019
 31
0.0
  0
LINE
  5
289
330
E
100
AcDbEntity
 67
     1
  8
AM_VIS
100
AcDbLine
 10
105.4882238450362
 20
221.6036131089019
 30
0.0
 11
105.4882238450362
 21
220.8036131089019
 31
0.0
  0
LINE
  5
28A
330
E
100
AcDbEntity
 67
     1
  8
AM_VIS
100
AcDbLine
 10
104.6882238450362
 20
220.8036131089019
 30
0.0
 11
105.4882238450362
 21
220.8036131089019
 31
0.0
  0
LINE
  5
28B
330
E
100
AcDbEntity
 67
     1
  8
AM_VIS
100
AcDbLine
 10
104.6882238450362
 20
220.8036131089019
 30
0.0
 11
104.6882238450362
 21
220.0036131089019
 31
0.0
  0
ARC
  5
28C
330
E
100
AcDbEntity
 67
     1
  8
AM_VIS
100
AcDbCircle
 10
93.88822384503624
 20
220.4036131089019
 30
0.0
 40
37.5
100
AcDbArc
 50
125.3064364563534
 51
54.69356354364649
  0
CIRCLE
  5
28D
330
E
100
AcDbEntity
 67
     1
  8
AM_VIS
100
AcDbCircle
 10
93.88822384503624
 20
208.4036131089019
 30
0.0
 40
3.0
  0
ARC
  5
28E
330
E
100
AcDbEntity
 67
     1
  8
AM_VIS
100
AcDbCircle
 10
93.88822384503624
 20
220.4036131089019
 30
0.0
 40
9.0
100
AcDbArc
 50
0.0000000000000127
 51
90.00000000000003
  0
ARC
  5
28F
330
E
100
AcDbEntity
 67
     1
  8
AM_VIS
100
AcDbCircle
 10
93.88822384503624
 20
220.4036131089019
 30
0.0
 40
9.0
100
AcDbArc
 50
90.00000000000003
 51
180.0
  0
ARC
  5
290
330
E
100
AcDbEntity
 67
     1
  8
AM_VIS
100
AcDbCircle
 10
93.88822384503624
 20
220.4036131089019
 30
0.0
 40
9.0
100
AcDbArc
 50
180.0
 51
270.0
  0
ARC
  5
291
330
E
100
AcDbEntity
 67
     1
  8
AM_VIS
100
AcDbCircle
 10
93.88822384503624
 20
220.4036131089019
 30
0.0
 40
9.0
100
AcDbArc
 50
270.0
 51
0.0000000000000127
  0
ARC
  5
292
330
E
100
AcDbEntity
 67
     1
  8
AM_VIS
100
AcDbCircle
 10
93.88822384503624
 20
220.4036131089019
 30
0.0
 40
17.5
100
AcDbArc
 50
180.0
 51
0.0
  0
CIRCLE
  5
293
330
E
100
AcDbEntity
 67
     1
  8
AM_VIS
100
AcDbCircle
 10
81.88822384503623
 20
220.4036131089019
 30
0.0
 40
3.0
  0
CIRCLE
  5
294
330
E
100
AcDbEntity
 67
     1
  8
AM_VIS
100
AcDbCircle
 10
93.88822384503624
 20
232.4036131089019
 30
0.0
 40
3.0
  0
CIRCLE
  5
295
330
E
100
AcDbEntity
 67
     1
  8
AM_VIS
100
AcDbCircle
 10
105.8882238450362
 20
220.4036131089019
 30
0.0
 40
3.0
  0
VIEWPORT
  5
2A5
102
{ACAD_XDICTIONARY
360
570
102
}
330
E
100
AcDbEntity
 67
     1
  8
0
 62
     4
100
AcDbViewport
 10
109.8910897585516
 20
120.2544065240832
 30
0.0
 40
286.1376779630657
 41
378.8561100927286
 68
     1
 69
     1
 12
109.8910897585516
 22
120.2544065240832
 13
0.0
 23
0.0
 14
1.0
 24
1.0
 15
0.0
 25
0.0
 16
0.0
 26
0.0
 36
1.0
 17
0.0
 27
0.0
 37
0.0
 42
50.0
 43
0.0
 44
0.0
 45
378.8561100927286
 50
0.0
 51
0.0
 72
  1000
 90
    32800
  1

281
     0
 71
     1
 74
     0
110
0.0
120
0.0
130
0.0
111
1.0
121
0.0
131
0.0
112
0.0
122
1.0
132
0.0
 79
     0
146
0.0
  0
TEXT
  5
431
330
E
100
AcDbEntity
 67
     1
  8
LOGO
 62
     7
100
AcDbText
 10
42.99574489333292
 20
-53.14042750363063
 30
0.0
 40
3.368845466063347
  1
Order example:
 41
0.8
  7
CHINESET
100
AcDbText
  0
TEXT
  5
432
330
E
100
AcDbEntity
 67
     1
  8
LOGO
 62
     7
100
AcDbText
 10
43.60014362916337
 20
-48.39779061576757
 30
0.0
 40
5.053268199095021
  1
訂購代號：
  7
CHINESET
100
AcDbText
  0
LINE
  5
433
330
E
100
AcDbEntity
 67
     1
  8
LOGO
 62
     4
100
AcDbLine
 10
41.5319701118616
 20
-67.33801445251884
 30
0.0
 11
41.5319701118616
 21
-42.07167345704357
 31
0.0
  0
TEXT
  5
434
330
E
100
AcDbEntity
 67
     1
  8
LOGO
  6
Continuous
100
AcDbText
 10
-4.9781968182088
 20
-62.3744798941909
 30
0.0
 40
3.789951149321266
  1
金器工業股份有限公司
  7
CHINESET
100
AcDbText
  0
TEXT
  5
435
330
E
100
AcDbEntity
 67
     1
  8
LOGO
  6
Continuous
100
AcDbText
 10
-11.93958727465349
 20
-66.16517357679374
 30
0.0
 40
2.52663409954751
  1
MINDMAN INDUSTRIAL CO., LTD.
 41
0.85
  7
CHINESET
100
AcDbText
  0
LINE
  5
436
330
E
100
AcDbEntity
 67
     1
  8
LOGO
 62
     4
100
AcDbLine
 10
41.5319701118616
 20
-47.12494165613864
 30
0.0
 11
4.474669985164496
 21
-47.12494165613864
 31
0.0
  0
LINE
  5
437
330
E
100
AcDbEntity
 67
     1
  8
LOGO
 62
     4
100
AcDbLine
 10
41.5319701118616
 20
-52.17820985523371
 30
0.0
 11
4.474669985164496
 21
-52.17820985523371
 31
0.0
  0
LINE
  5
438
330
E
100
AcDbEntity
 67
     1
  8
LOGO
 62
     4
100
AcDbLine
 10
41.5319701118616
 20
-57.23147805432844
 30
0.0
 11
-14.05398007818383
 21
-57.23147805432844
 31
0.0
  0
LINE
  5
439
330
E
100
AcDbEntity
 67
     1
  8
LOGO
 62
     4
100
AcDbLine
 10
4.474669985164496
 20
-57.23147805432844
 30
0.0
 11
4.474669985164496
 21
-42.07167345704357
 31
0.0
  0
TEXT
  5
43A
330
E
100
AcDbEntity
 67
     1
  8
LOGO
100
AcDbText
 10
29.80158554383769
 20
-55.96816100455513
 30
0.0
 40
2.52663409954751
  1
mm
  7
CHINESET
 72
     1
 11
32.92979919089652
 21
-54.70484395478138
 31
0.0
100
AcDbText
 73
     2
  0
TEXT
  5
43B
330
E
100
AcDbEntity
 67
     1
  8
LOGO
100
AcDbText
 10
28.47811053931281
 20
-45.86162460636499
 30
0.0
 40
2.52663409954751
  1
1 : 1
  7
CHINESET
 72
     1
 11
32.92979919089652
 21
-44.59830755659123
 31
0.0
100
AcDbText
 73
     2
  0
LINE
  5
43C
330
E
100
AcDbEntity
 67
     1
  8
LOGO
 62
     4
100
AcDbLine
 10
24.68774278154473
 20
-57.23147805432844
 30
0.0
 11
24.68774278154473
 21
-42.07167345704357
 31
0.0
  0
TEXT
  5
43D
330
E
100
AcDbEntity
 67
     1
  8
LOGO
100
AcDbText
 10
6.558015155639653
 20
-45.8603811840719
 30
165.5914364978229
 40
2.52663409954751
  1
比例 Scale:
 41
0.9
  7
CHINESET
 72
     4
 11
14.58120638335458
 21
-44.59830755659123
 31
165.5914364978229
100
AcDbText
  0
TEXT
  5
43E
330
E
100
AcDbEntity
 67
     1
  8
LOGO
100
AcDbText
 10
6.412508102585354
 20
-50.87935165158277
 30
165.5914364978229
 40
2.52663409954751
  1
投影  View:
 41
0.9
  7
CHINESET
 72
     4
 11
14.58120638335458
 21
-49.65157575568634
 31
165.5914364978229
100
AcDbText
  0
TEXT
  5
43F
330
E
100
AcDbEntity
 67
     1
  8
LOGO
100
AcDbText
 10
6.659531704282184
 20
-55.96816100455513
 30
165.5914364978229
 40
2.52663409954751
  1
單位  Unit:
 41
0.9
  7
CHINESET
 72
     4
 11
14.58120638335458
 21
-54.70484395478138
 31
165.5914364978229
100
AcDbText
  0
LWPOLYLINE
  5
440
330
E
100
AcDbEntity
 67
     1
  8
LOGO
 62
     4
100
AcDbPolyline
 90
        4
 70
     1
 43
0.0
 10
-14.05398007818377
 20
-42.07167345704358
 10
233.8066812978759
 20
-42.07167345704358
 10
233.8066812978759
 20
307.836513314242
 10
-14.05398007818377
 20
307.836513314242
1001
GENIUS_GENREC_14
1002
{
1000
PYDIR
1011
-14.05398007818377
1021
307.836513314242
1031
0.0
1002
}
1002
{
1000
PXDIR
1011
233.8066812978759
1021
-42.07167345704358
1031
0.0
1002
}
1002
{
1000
PORI
1011
-14.05398007818377
1021
-42.07167345704358
1031
0.0
1002
}
1002
{
1000
PINS
1011
-14.05398007818377
1021
-42.07167345704358
1031
0.0
1002
}
1002
{
1000
PINS2
1011
233.8066812978759
1021
307.836513314242
1031
0.0
1002
}
1002
{
1000
C
1070
     1
1002
}
1001
GENIUS_GENODEF_13
1002
{
1000
HIER
1070
     0
1002
}
1002
{
1000
MANEDIT
1070
     0
1002
}
1002
{
1000
NOSEL
1070
     0
1002
}
1002
{
1000
BEHIND
1070
     0
1002
}
1002
{
1000
OTHER
1070
     0
1002
}
1002
{
1000
REACTOR
1002
}
1001
GENIUS_GENOBJ-N-REC_13
1002
{
1000
OWNER
1000
GEN
1002
}
  0
SOLID
  5
441
330
E
100
AcDbEntity
 67
     1
  8
LOGO
 62
     5
100
AcDbTrace
 10
-11.43255665051026
 20
-53.03130850187511
 30
0.0
 11
-10.34010636474471
 21
-53.0313085018754
 31
0.0
 12
-5.781951724136888
 22
-42.67186613685652
 32
0.0
 13
-4.689501438370712
 23
-42.67186613685709
 33
0.0
  0
SOLID
  5
442
330
E
100
AcDbEntity
 67
     1
  8
LOGO
 62
     5
100
AcDbTrace
 10
-9.888057970633667
 20
-53.03130850187511
 30
0.0
 11
-8.795607684868173
 21
-53.03130850187511
 31
0.0
 12
-4.689501438370712
 22
-43.50062152605841
 32
0.0
 13
-5.781951724136888
 23
-47.5062725738656
 33
0.0
  0
SOLID
  5
443
330
E
100
AcDbEntity
 67
     1
  8
LOGO
 62
     2
100
AcDbTrace
 10
-10.34010636474471
 20
-53.0313085018754
 30
0.0
 11
-9.888057970633667
 21
-53.03130850187511
 31
0.0
 12
-4.689501438370712
 22
-42.67186613685709
 32
0.0
 13
-4.237453044260234
 23
-42.67186613685709
 33
0.0
  0
SOLID
  5
444
330
E
100
AcDbEntity
 67
     1
  8
LOGO
 62
     5
100
AcDbTrace
 10
-13.1840223602187
 20
-56.79837845279064
 30
0.0
 11
-12.80731536512678
 21
-56.79837845279064
 31
0.0
 12
-11.74647914641963
 22
-54.91484347733302
 32
0.0
 13
-11.36977215132879
 23
-54.91484347733302
 33
0.0
  0
SOLID
  5
445
330
E
100
AcDbEntity
 67
     1
  8
LOGO
 62
     5
100
AcDbTrace
 10
-11.74647914641963
 20
-54.91484347733302
 30
0.0
 11
-11.36977215132879
 21
-54.91484347733302
 31
0.0
 12
-11.74647914641963
 22
-56.79837845279064
 32
0.0
 13
-11.36977215132879
 23
-56.79837845279064
 33
0.0
  0
SOLID
  5
446
330
E
100
AcDbEntity
 67
     1
  8
LOGO
 62
     5
100
AcDbTrace
 10
-11.74647914641963
 20
-56.79837845279064
 30
0.0
 11
-11.36977215132879
 21
-56.79837845279064
 31
0.0
 12
-10.30893593261999
 22
-54.91484347733302
 32
0.0
 13
-9.93222893752852
 23
-54.91484347733302
 33
0.0
  0
SOLID
  5
447
330
E
100
AcDbEntity
 67
     1
  8
LOGO
 62
     5
100
AcDbTrace
 10
-10.30893593261999
 20
-54.91484347733302
 30
0.0
 11
-9.93222893752852
 21
-54.91484347733302
 31
0.0
 12
-10.30893593261999
 22
-56.79837845279064
 32
0.0
 13
-9.93222893752852
 23
-56.79837845279064
 33
0.0
  0
POLYLINE
  5
448
330
E
100
AcDbEntity
 67
     1
  8
LOGO
 62
     5
100
AcDb2dPolyline
 66
     1
 10
0.0
 20
0.0
 30
0.0
 40
0.3773106921990949
 41
0.3773106921990949
  0
VERTEX
  5
449
330
448
100
AcDbEntity
 67
     1
  8
LOGO
 62
     5
100
AcDbVertex
100
AcDb2dVertex
 10
2.318154215994354
 20
-55.6682574675161
 30
0.0
 42
1.0
  0
VERTEX
  5
44A
330
448
100
AcDbEntity
 67
     1
  8
LOGO
 62
     5
100
AcDbVertex
100
AcDb2dVertex
 10
1.186222139396818
 20
-55.6682574675161
 30
0.0
 42
1.0
  0
SEQEND
  5
44B
330
448
100
AcDbEntity
 67
     1
  8
LOGO
 62
     5
  0
POLYLINE
  5
44C
330
E
100
AcDbEntity
 67
     1
  8
LOGO
 62
     5
100
AcDb2dPolyline
 66
     1
 10
0.0
 20
0.0
 30
0.0
 70
     1
  0
VERTEX
  5
44D
330
44C
100
AcDbEntity
 67
     1
  8
LOGO
 62
     5
100
AcDbVertex
100
AcDb2dVertex
 10
-0.9475201733284848
 20
-55.85661096506209
 30
0.0
 42
1.000000057330635
  0
VERTEX
  5
44E
330
44C
100
AcDbEntity
 67
     1
  8
LOGO
 62
     5
100
AcDbVertex
100
AcDb2dVertex
 10
0.1826008119463154
 20
-55.85661096506209
 30
0.0
 42
1.000000057330635
  0
SEQEND
  5
44F
330
44C
100
AcDbEntity
 67
     1
  8
LOGO
 62
     5
  0
CIRCLE
  5
450
330
E
100
AcDbEntity
 67
     1
  8
LOGO
 62
     5
100
AcDbCircle
 10
-0.3824596806902036
 20
-55.85661096506209
 30
0.0
 40
0.5650604926373647
  0
POLYLINE
  5
451
330
E
100
AcDbEntity
 67
     1
  8
LOGO
 62
     5
100
AcDb2dPolyline
 66
     1
 10
0.0
 20
0.0
 30
0.0
 70
     1
 40
0.3773106921990949
 41
0.3773106921990949
  0
VERTEX
  5
452
330
451
100
AcDbEntity
 67
     1
  8
LOGO
 62
     5
100
AcDbVertex
100
AcDb2dVertex
 10
-1.137081065088977
 20
-55.85661096506209
 30
0.0
 42
1.0
  0
VERTEX
  5
453
330
451
100
AcDbEntity
 67
     1
  8
LOGO
 62
     5
100
AcDbVertex
100
AcDb2dVertex
 10
0.372161703707377
 20
-55.85661096506209
 30
0.0
 42
1.0
  0
SEQEND
  5
454
330
451
100
AcDbEntity
 67
     1
  8
LOGO
 62
     5
  0
LINE
  5
455
330
E
100
AcDbEntity
 67
     1
  8
LOGO
100
AcDbLine
 10
2.505602167878123
 20
-56.79837845279064
 30
0.0
 11
2.505602167878123
 21
-55.6682574675161
 31
0.0
  0
SOLID
  5
456
330
E
100
AcDbEntity
 67
     1
  8
LOGO
 62
     5
100
AcDbTrace
 10
0.1825631412484654
 20
-54.91484347733302
 30
0.0
 11
0.5592701363392508
 21
-54.91484347733302
 31
0.0
 12
0.1825631412484654
 22
-56.79837845279064
 32
0.0
 13
0.5592701363392508
 23
-56.79837845279064
 33
0.0
  0
SOLID
  5
457
330
E
100
AcDbEntity
 67
     1
  8
LOGO
 62
     5
100
AcDbTrace
 10
0.9987741875119127
 20
-56.79837845279064
 30
0.0
 11
1.375481182603891
 21
-56.79837845279064
 31
0.0
 12
0.9987741875119127
 22
-54.91484347733302
 32
0.0
 13
1.375481182603891
 23
-54.91484347733302
 33
0.0
  0
SOLID
  5
458
330
E
100
AcDbEntity
 67
     1
  8
LOGO
 62
     5
100
AcDbTrace
 10
2.128895172787224
 20
-55.6682574675161
 30
0.0
 11
2.505602167878123
 21
-55.6682574675161
 31
0.0
 12
2.128895172787224
 22
-56.79837845279064
 32
0.0
 13
2.505602167878123
 23
-56.79837845279064
 33
0.0
  0
SOLID
  5
459
330
E
100
AcDbEntity
 67
     1
  8
LOGO
 62
     5
100
AcDbTrace
 10
0.9611034880026636
 20
-43.50062152605841
 30
0.0
 11
-0.1313467977623191
 21
-47.5062725738656
 31
0.0
 12
0.9611034880026636
 22
-53.0313085018754
 32
0.0
 13
-0.1313467977623191
 23
-53.0313085018754
 33
0.0
  0
SOLID
  5
45A
330
E
100
AcDbEntity
 67
     1
  8
LOGO
 62
     5
100
AcDbTrace
 10
1.41315188211314
 20
-53.0313085018754
 30
0.0
 11
2.505602167878123
 21
-53.0313085018754
 31
0.0
 12
1.41315188211314
 22
-42.67186613685709
 32
0.0
 13
2.505602167878123
 23
-42.67186613685652
 33
0.0
  0
SOLID
  5
45B
330
E
100
AcDbEntity
 67
     1
  8
LOGO
 62
     2
100
AcDbTrace
 10
0.9611034880026636
 20
-42.67186613685652
 30
0.0
 11
1.41315188211314
 21
-42.67186613685709
 31
0.0
 12
0.9611034880026636
 22
-53.0313085018754
 32
0.0
 13
1.41315188211314
 23
-53.0313085018754
 33
0.0
  0
POLYLINE
  5
45C
330
E
100
AcDbEntity
 67
     1
  8
LOGO
 62
     5
100
AcDb2dPolyline
 66
     1
 10
0.0
 20
0.0
 30
0.0
 40
0.3773106921990949
 41
0.3773106921990949
  0
VERTEX
  5
45D
330
45C
100
AcDbEntity
 67
     1
  8
LOGO
 62
     5
100
AcDbVertex
100
AcDb2dVertex
 10
-3.081337827451136
 20
-55.6682574675161
 30
0.0
 42
1.0
  0
VERTEX
  5
45E
330
45C
100
AcDbEntity
 67
     1
  8
LOGO
 62
     5
100
AcDbVertex
100
AcDb2dVertex
 10
-4.213269904048672
 20
-55.6682574675161
 30
0.0
 42
1.0
  0
SEQEND
  5
45F
330
45C
100
AcDbEntity
 67
     1
  8
LOGO
 62
     5
  0
POLYLINE
  5
460
330
E
100
AcDbEntity
 67
     1
  8
LOGO
 62
     5
100
AcDb2dPolyline
 66
     1
 10
0.0
 20
0.0
 30
0.0
 40
0.3773106921990949
 41
0.3773106921990949
  0
VERTEX
  5
461
330
460
100
AcDbEntity
 67
     1
  8
LOGO
 62
     5
100
AcDbVertex
100
AcDb2dVertex
 10
-1.951216842177529
 20
-55.6682574675161
 30
0.0
 42
1.0
  0
VERTEX
  5
462
330
460
100
AcDbEntity
 67
     1
  8
LOGO
 62
     5
100
AcDbVertex
100
AcDb2dVertex
 10
-3.08314891877444
 20
-55.6682574675161
 30
0.0
 42
1.0
  0
SEQEND
  5
463
330
460
100
AcDbEntity
 67
     1
  8
LOGO
 62
     5
  0
POLYLINE
  5
464
330
E
100
AcDbEntity
 67
     1
  8
LOGO
 62
     5
100
AcDb2dPolyline
 66
     1
 10
0.0
 20
0.0
 30
0.0
 40
0.3773106921990949
 41
0.3773106921990949
  0
VERTEX
  5
465
330
464
100
AcDbEntity
 67
     1
  8
LOGO
 62
     5
100
AcDbVertex
100
AcDb2dVertex
 10
-7.350708885623021
 20
-55.6682574675161
 30
0.0
 42
1.0
  0
VERTEX
  5
466
330
464
100
AcDbEntity
 67
     1
  8
LOGO
 62
     5
100
AcDbVertex
100
AcDb2dVertex
 10
-8.482640962219988
 20
-55.6682574675161
 30
0.0
 42
1.0
  0
SEQEND
  5
467
330
464
100
AcDbEntity
 67
     1
  8
LOGO
 62
     5
  0
SOLID
  5
468
330
E
100
AcDbEntity
 67
     1
  8
LOGO
 62
     5
100
AcDbTrace
 10
-8.670088914104326
 20
-54.91484347733302
 30
0.0
 11
-8.293381919013484
 21
-54.91484347733302
 31
0.0
 12
-8.670088914104326
 22
-56.79837845279064
 32
0.0
 13
-8.293381919013484
 23
-56.79837845279064
 33
0.0
  0
SOLID
  5
469
330
E
100
AcDbEntity
 67
     1
  8
LOGO
 62
     5
100
AcDbTrace
 10
-7.539967928829469
 20
-55.6682574675161
 30
0.0
 11
-7.16326093373749
 21
-55.6682574675161
 31
0.0
 12
-7.539967928829469
 22
-56.79837845279064
 32
0.0
 13
-7.16326093373749
 23
-56.79837845279064
 33
0.0
  0
POLYLINE
  5
46A
330
E
100
AcDbEntity
 67
     1
  8
LOGO
 62
     5
100
AcDb2dPolyline
 66
     1
 10
0.0
 20
0.0
 30
0.0
 70
     1
 40
0.3773106921990949
 41
0.3773106921990949
  0
VERTEX
  5
46B
330
46A
100
AcDbEntity
 67
     1
  8
LOGO
 62
     5
100
AcDbVertex
100
AcDb2dVertex
 10
-6.536573108535094
 20
-55.85661096506209
 30
0.0
 42
1.0
  0
VERTEX
  5
46C
330
46A
100
AcDbEntity
 67
     1
  8
LOGO
 62
     5
100
AcDbVertex
100
AcDb2dVertex
 10
-5.027330339738171
 20
-55.85661096506209
 30
0.0
 42
1.0
  0
SEQEND
  5
46D
330
46A
100
AcDbEntity
 67
     1
  8
LOGO
 62
     5
  0
SOLID
  5
46E
330
E
100
AcDbEntity
 67
     1
  8
LOGO
 62
     5
100
AcDbTrace
 10
-5.216928902198219
 20
-54.3497829846953
 30
0.0
 11
-4.840221907106752
 21
-54.3497829846953
 31
0.0
 12
-5.216928902198219
 22
-56.79837845279064
 32
0.0
 13
-4.840221907106752
 23
-56.79837845279064
 33
0.0
  0
SOLID
  5
46F
330
E
100
AcDbEntity
 67
     1
  8
LOGO
 62
     5
100
AcDbTrace
 10
-4.400717855932441
 20
-54.91484347733302
 30
0.0
 11
-4.024010860841599
 21
-54.91484347733302
 31
0.0
 12
-4.400717855932441
 22
-56.79837845279064
 32
0.0
 13
-4.024010860841599
 23
-56.79837845279064
 33
0.0
  0
SOLID
  5
470
330
E
100
AcDbEntity
 67
     1
  8
LOGO
 62
     5
100
AcDbTrace
 10
-3.270596870658778
 20
-55.6682574675161
 30
0.0
 11
-2.893889875566856
 21
-55.6682574675161
 31
0.0
 12
-3.270596870658778
 22
-56.79837845279064
 32
0.0
 13
-2.893889875566856
 23
-56.79837845279064
 33
0.0
  0
SOLID
  5
471
330
E
100
AcDbEntity
 67
     1
  8
LOGO
 62
     5
100
AcDbTrace
 10
-2.140475885384034
 20
-55.6682574675161
 30
0.0
 11
-1.763768890292567
 21
-55.6682574675161
 31
0.0
 12
-2.140475885384034
 22
-56.79837845279121
 32
0.0
 13
-1.763768890292567
 23
-56.79837845279121
 33
0.0
  0
SOLID
  5
472
330
E
100
AcDbEntity
 67
     1
  8
LOGO
 62
     5
100
AcDbTrace
 10
-9.486299960369478
 20
-54.65114858076879
 30
0.0
 11
-9.109592965276874
 21
-54.65114858076879
 31
0.0
 12
-9.486299960369478
 22
-54.3497829846953
 32
0.0
 13
-9.109592965276874
 23
-54.3497829846953
 33
0.0
  0
SOLID
  5
473
330
E
100
AcDbEntity
 67
     1
  8
LOGO
 62
     5
100
AcDbTrace
 10
-9.486299960369478
 20
-54.91484347733302
 30
0.0
 11
-9.109592965276874
 21
-54.91484347733302
 31
0.0
 12
-9.486299960369478
 22
-56.79837845279121
 32
0.0
 13
-9.109592965276874
 23
-56.79837845279064
 33
0.0
  0
SOLID
  5
474
330
E
100
AcDbEntity
 67
     1
  8
LOGO
 62
     5
100
AcDbTrace
 10
-5.781951724136888
 20
-53.03130850187511
 30
0.0
 11
-4.689501438370712
 21
-53.03130850187511
 31
0.0
 12
-5.781951724136888
 22
-47.5062725738656
 32
0.0
 13
-4.689501438370712
 23
-43.50062152605841
 33
0.0
  0
SOLID
  5
475
330
E
100
AcDbEntity
 67
     1
  8
LOGO
 62
     5
100
AcDbTrace
 10
-4.237453044260234
 20
-42.67186613685709
 30
0.0
 11
-3.145002758495252
 21
-42.67186613685652
 31
0.0
 12
-4.237453044260234
 22
-52.20255311267379
 32
0.0
 13
-3.145002758495252
 23
-48.19690206486666
 33
0.0
  0
SOLID
  5
476
330
E
100
AcDbEntity
 67
     1
  8
LOGO
 62
     2
100
AcDbTrace
 10
-4.689501438370712
 20
-42.67186613685709
 30
0.0
 11
-4.237453044260234
 21
-42.67186613685709
 31
0.0
 12
-4.689501438370712
 22
-53.03130850187511
 32
0.0
 13
-4.237453044260234
 23
-53.03130850187511
 33
0.0
  0
SOLID
  5
477
330
E
100
AcDbEntity
 67
     1
  8
LOGO
 62
     5
100
AcDbTrace
 10
-4.237453044260234
 20
-52.20255311267379
 30
0.0
 11
-3.145002758495252
 21
-48.19690206486666
 31
0.0
 12
0.9611034880026636
 22
-42.67186613685652
 32
0.0
 13
-0.1313467977623191
 23
-42.67186613685652
 33
0.0
  0
SOLID
  5
478
330
E
100
AcDbEntity
 67
     1
  8
LOGO
 62
     5
100
AcDbTrace
 10
-4.237453044260234
 20
-53.03130850187511
 30
0.0
 11
-3.145002758495252
 21
-53.03130850187511
 31
0.0
 12
0.9611034880026636
 22
-43.50062152605841
 32
0.0
 13
-0.1313467977623191
 23
-47.5062725738656
 33
0.0
  0
SOLID
  5
479
330
E
100
AcDbEntity
 67
     1
  8
LOGO
 62
     2
100
AcDbTrace
 10
-4.689501438370712
 20
-53.03130850187511
 30
0.0
 11
-4.237453044260234
 21
-53.03130850187511
 31
0.0
 12
0.9611034880026636
 22
-42.67186613685652
 32
0.0
 13
1.41315188211314
 23
-42.67186613685709
 33
0.0
  0
LWPOLYLINE
  5
47A
330
E
100
AcDbEntity
 67
     1
  8
LOGO
 62
     4
100
AcDbPolyline
 90
        4
 70
     1
 43
0.0
 10
-14.05398007818377
 20
-42.07167345704358
 10
233.8066812978759
 20
-42.07167345704358
 10
233.8066812978759
 20
-67.33801445251913
 10
-14.05398007818377
 20
-67.33801445251913
1001
GENIUS_GENREC_14
1002
{
1000
PYDIR
1011
-14.05398007818377
1021
-67.33801445251913
1031
0.0
1002
}
1002
{
1000
PXDIR
1011
233.8066812978759
1021
-42.07167345704358
1031
0.0
1002
}
1002
{
1000
PORI
1011
-14.05398007818377
1021
-42.07167345704358
1031
0.0
1002
}
1002
{
1000
PINS
1011
-14.05398007818377
1021
-42.07167345704358
1031
0.0
1002
}
1002
{
1000
PINS2
1011
233.8066812978759
1021
-67.33801445251913
1031
0.0
1002
}
1002
{
1000
C
1070
     1
1002
}
1001
GENIUS_GENOBJ-N-REC_13
1002
{
1000
OWNER
1000
GEN
1002
}
1001
GENIUS_GENODEF_13
1002
{
1000
HIER
1070
     0
1002
}
1002
{
1000
MANEDIT
1070
     0
1002
}
1002
{
1000
NOSEL
1070
     0
1002
}
1002
{
1000
BEHIND
1070
     0
1002
}
1002
{
1000
OTHER
1070
     0
1002
}
1002
{
1000
REACTOR
1002
}
  0
LINE
  5
47B
330
E
100
AcDbEntity
 67
     1
  8
LOGO
 62
     4
100
AcDbLine
 10
96.58287257156281
 20
-55.96816100455459
 30
0.0
 11
96.58287257156281
 21
-65.23248603622935
 31
0.0
  0
LINE
  5
47C
330
E
100
AcDbEntity
 67
     1
  8
LOGO
 62
     4
100
AcDbLine
 10
79.73864524124593
 20
-55.96816100455459
 30
0.0
 11
79.73864524124593
 21
-65.23248603622935
 31
0.0
  0
LINE
  5
47D
330
E
100
AcDbEntity
 67
     1
  8
LOGO
 62
     4
100
AcDbLine
 10
96.58287257156281
 20
-65.23248603622935
 30
0.0
 11
79.73864524124593
 21
-65.23248603622935
 31
0.0
  0
LINE
  5
47E
330
E
100
AcDbEntity
 67
     1
  8
LOGO
 62
     4
100
AcDbLine
 10
101.8627113353487
 20
-44.59830755659123
 30
0.0
 11
76.28470077399732
 21
-44.59830755659123
 31
0.0
  0
LINE
  5
47F
330
E
100
AcDbEntity
 67
     1
  8
LOGO
 62
     4
100
AcDbLine
 10
101.8627113353487
 20
-52.17820985523371
 30
0.0
 11
76.28470077399732
 21
-52.17820985523371
 31
0.0
  0
LINE
  5
480
330
E
100
AcDbEntity
 67
     1
  8
LOGO
 62
     4
100
AcDbLine
 10
76.28470077399732
 20
-44.59830755659123
 30
0.0
 11
76.28470077399732
 21
-52.17820985523371
 31
0.0
  0
LINE
  5
481
330
E
100
AcDbEntity
 67
     1
  8
LOGO
 62
     4
100
AcDbLine
 10
101.8627113353487
 20
-44.59830755659123
 30
0.0
 11
101.8627113353487
 21
-52.17820985523371
 31
0.0
  0
LINE
  5
482
330
E
100
AcDbEntity
 67
     1
  8
LOGO
 62
     4
100
AcDbLine
 10
89.03960449830611
 20
-52.17820985523371
 30
0.0
 11
89.03960449830611
 21
-55.96816100455459
 31
0.0
  0
TEXT
  5
483
330
E
100
AcDbEntity
 67
     1
  8
LOGO
  6
Continuous
100
AcDbText
 10
77.76094455841985
 20
-50.13203552391605
 30
0.0
 40
4.0
  1
MEF300
  7
CHINESET
100
AcDbText
  0
LINE
  5
484
330
E
100
AcDbEntity
 67
     1
  8
LOGO
 62
     4
100
AcDbLine
 10
96.58287257156281
 20
-55.96816100455459
 30
0.0
 11
79.73864524124593
 21
-55.96816100455459
 31
0.0
  0
TEXT
  5
485
330
E
100
AcDbEntity
 67
     1
  8
LOGO
  6
Continuous
100
AcDbText
 10
85.14390446353241
 20
-63.92484620346607
 30
165.5914364978229
 40
1.895249999999999
  1
Model
 41
0.8
  7
CHINESET
100
AcDbText
  0
TEXT
  5
486
330
E
100
AcDbEntity
 67
     1
  8
LOGO
100
AcDbText
 10
84.63945052432052
 20
-60.41146115899334
 30
165.5914364978229
 40
3.158749999999999
  1
型號
  7
CHINESET
100
AcDbText
  0
TEXT
  5
487
330
E
100
AcDbEntity
 67
     1
  8
LOGO
100
AcDbText
 10
42.91323116472368
 20
-65.99385508402423
 30
0.0
 40
2.526999999999999
  1
00907011
 41
0.7
  7
CHINESET
 72
     1
 11
48.85168116472368
 21
-65.99385508402423
 31
0.0
100
AcDbText
  0
LINE
  5
488
330
E
100
AcDbEntity
 67
     1
  8
LOGO
 62
     4
100
AcDbLine
 10
56.69397011186038
 20
-62.28474625342323
 30
0.0
 11
56.69397011186152
 21
-67.33801445251862
 31
0.0
  0
LINE
  5
489
330
E
100
AcDbEntity
 67
     1
  8
LOGO
 62
     4
100
AcDbLine
 10
56.69397011186038
 20
-62.28474625342323
 30
0.0
 11
41.5319701118616
 21
-62.28474625342323
 31
0.0
  0
CIRCLE
  5
48A
330
E
100
AcDbEntity
 67
     1
  8
LOGO
  6
Continuous
100
AcDbCircle
 10
29.36612184325429
 20
-49.64617126685772
 30
0.0
 40
1.467023228460117
  0
CIRCLE
  5
48B
330
E
100
AcDbEntity
 67
     1
  8
LOGO
  6
Continuous
100
AcDbCircle
 10
29.36612184325429
 20
-49.64617126685772
 30
0.0
 40
0.8595457436589818
  0
LINE
  5
48C
330
E
100
AcDbEntity
 67
     1
  8
LOGO
100
AcDbLine
 10
38.5850660370744
 20
-51.11319449531811
 30
0.0
 11
38.5850660370744
 21
-48.1791480383973
 31
0.0
  0
LINE
  5
48D
330
E
100
AcDbEntity
 67
     1
  8
LOGO
100
AcDbLine
 10
33.98603242700364
 20
-50.50571701051655
 30
0.0
 11
33.98603242700364
 21
-48.78662552319861
 31
0.0
  0
LINE
  5
48E
330
E
100
AcDbEntity
 67
     1
  8
LOGO
  6
Continuous
100
AcDbLine
 10
33.98603242700364
 20
-48.78662552319861
 30
0.0
 11
38.5850660370744
 21
-48.1791480383973
 31
0.0
  0
LINE
  5
48F
330
E
100
AcDbEntity
 67
     1
  8
LOGO
  6
Continuous
100
AcDbLine
 10
33.98603242700364
 20
-50.50571701051655
 30
0.0
 11
38.5850660370744
 21
-51.11319449531811
 31
0.0
  0
LINE
  5
490
330
E
100
AcDbEntity
 67
     1
  8
LOGO
  6
AM_ISO08W050x2
 48
0.3
100
AcDbLine
 10
27.34380835587899
 20
-49.64617126685772
 30
0.0
 11
31.38843533062959
 21
-49.64617126685772
 31
0.0
1001
GENIUS_GENOREF_13
1005
496
  0
LINE
  5
491
330
E
100
AcDbEntity
 67
     1
  8
LOGO
  6
AM_ISO08W050x2
 48
0.3
100
AcDbLine
 10
29.36612184325429
 20
-51.66848475423305
 30
0.0
 11
29.36612184325429
 21
-47.62385777948239
 31
0.0
1001
GENIUS_GENOREF_13
1005
495
  0
LINE
  5
492
330
E
100
AcDbEntity
 67
     1
  8
LOGO
  6
CENTER
 48
0.5
100
AcDbLine
 10
33.61823756773901
 20
-49.64617126685772
 30
0.0
 11
39.04817383376917
 21
-49.64617126685772
 31
0.0
1001
GENIUS_GENOREF_13
1005
494
  0
POINT
  5
494
330
E
100
AcDbEntity
 67
     1
  8
0
 60
     1
100
AcDbPoint
 10
-1490.272268063277
 20
-940.2699468734942
 30
0.0
1001
GENIUS_GENOBJ-N-CRS_13
1002
{
1000
OWNER
1000
GEN
1002
}
1001
GENIUS_GENOLIS_13
1002
{
1000
ENT
1005
0
1005
0
1005
0
1005
492
1002
}
1001
GENIUS_GENOENT_13
1002
{
1000
MYREF
1005
494
1002
}
1002
{
1000
GRP
1005
0
1002
}
1001
GENIUS_GENODEF_13
1002
{
1000
HIER
1070
    10
1002
}
1002
{
1000
MANEDIT
1070
     1
1002
}
1002
{
1000
NOSEL
1070
     0
1002
}
1002
{
1000
BEHIND
1070
     0
1002
}
1002
{
1000
OTHER
1070
     0
1002
}
1002
{
1000
REACTOR
1002
}
  0
POINT
  5
495
330
E
100
AcDbEntity
 67
     1
  8
0
 60
     1
100
AcDbPoint
 10
-1501.596853286132
 20
-931.394360394858
 30
0.0
1001
GENIUS_GENOBJ-N-CRS_13
1002
{
1000
OWNER
1000
GEN
1002
}
1001
GENIUS_GENOLIS_13
1002
{
1000
ENT
1005
0
1005
0
1005
0
1005
491
1002
}
1001
GENIUS_GENOENT_13
1002
{
1000
MYREF
1005
495
1002
}
1002
{
1000
GRP
1005
0
1002
}
1001
GENIUS_GENODEF_13
1002
{
1000
HIER
1070
    10
1002
}
1002
{
1000
MANEDIT
1070
     1
1002
}
1002
{
1000
NOSEL
1070
     0
1002
}
1002
{
1000
BEHIND
1070
     0
1002
}
1002
{
1000
OTHER
1070
     0
1002
}
1002
{
1000
REACTOR
1002
}
  0
POINT
  5
496
330
E
100
AcDbEntity
 67
     1
  8
0
 60
     1
100
AcDbPoint
 10
-1495.238179588295
 20
-940.2699468734942
 30
0.0
1001
GENIUS_GENOBJ-N-CRS_13
1002
{
1000
OWNER
1000
GEN
1002
}
1001
GENIUS_GENOLIS_13
1002
{
1000
ENT
1005
0
1005
0
1005
0
1005
490
1002
}
1001
GENIUS_GENOENT_13
1002
{
1000
MYREF
1005
496
1002
}
1002
{
1000
GRP
1005
0
1002
}
1001
GENIUS_GENODEF_13
1002
{
1000
HIER
1070
    10
1002
}
1002
{
1000
MANEDIT
1070
     1
1002
}
1002
{
1000
NOSEL
1070
     0
1002
}
1002
{
1000
BEHIND
1070
     0
1002
}
1002
{
1000
OTHER
1070
     0
1002
}
1002
{
1000
REACTOR
1002
}
  0
LINE
  5
546
330
E
100
AcDbEntity
 67
     1
  8
LOGO
  6
Continuous
 62
     7
100
AcDbLine
 10
103.101499988154
 20
-48.27214693269002
 30
0.0
 11
106.149132799901
 21
-48.27214693269002
 31
0.0
  0
TEXT
  5
551
330
E
100
AcDbEntity
 67
     1
  8
LOGO
  6
Continuous
100
AcDbText
 10
113.1465478922407
 20
-63.72032010598687
 30
0.0
 40
1.895249999999999
  1
Bore size
 41
0.8
  7
CHINESET
100
AcDbText
  0
TEXT
  5
552
330
E
100
AcDbEntity
 67
     1
  8
LOGO
100
AcDbText
 10
110.8442331190514
 20
-60.52119221130422
 30
0.0
 40
3.158749999999999
  1
配管口徑代號
  7
CHINESET
100
AcDbText
  0
LINE
  5
555
330
E
100
AcDbEntity
 67
     1
  8
LOGO
 62
     4
100
AcDbLine
 10
131.1754936708764
 20
-55.96816100455459
 30
0.0
 11
131.1754936708764
 21
-65.23248603622935
 31
0.0
  0
LINE
  5
556
330
E
100
AcDbEntity
 67
     1
  8
LOGO
 62
     4
100
AcDbLine
 10
108.7580081362283
 20
-55.96816100455459
 30
0.0
 11
108.7580081362283
 21
-65.23248603622935
 31
0.0
  0
LINE
  5
557
330
E
100
AcDbEntity
 67
     1
  8
LOGO
 62
     4
100
AcDbLine
 10
131.1754936708764
 20
-65.23248603622935
 30
0.0
 11
108.7580081362283
 21
-65.23248603622935
 31
0.0
  0
LINE
  5
558
330
E
100
AcDbEntity
 67
     1
  8
LOGO
 62
     4
100
AcDbLine
 10
116.3539405353707
 20
-44.59830755659123
 30
0.0
 11
106.8154547918883
 21
-44.59830755659123
 31
0.0
  0
LINE
  5
559
330
E
100
AcDbEntity
 67
     1
  8
LOGO
 62
     4
100
AcDbLine
 10
116.3539405353707
 20
-52.17820985523371
 30
0.0
 11
106.8154547918883
 21
-52.17820985523371
 31
0.0
  0
LINE
  5
55A
330
E
100
AcDbEntity
 67
     1
  8
LOGO
 62
     4
100
AcDbLine
 10
106.8154547918883
 20
-44.59830755659123
 30
0.0
 11
106.8154547918883
 21
-52.17820985523371
 31
0.0
  0
LINE
  5
55B
330
E
100
AcDbEntity
 67
     1
  8
LOGO
 62
     4
100
AcDbLine
 10
116.3539405353707
 20
-44.59830755659123
 30
0.0
 11
116.3539405353707
 21
-52.17820985523371
 31
0.0
  0
LINE
  5
55C
330
E
100
AcDbEntity
 67
     1
  8
LOGO
 62
     4
100
AcDbLine
 10
119.5703585161971
 20
-54.65628695686496
 30
0.0
 11
119.5703585161971
 21
-55.96816100455459
 31
0.0
  0
LINE
  5
55D
330
E
100
AcDbEntity
 67
     1
  8
LOGO
 62
     4
100
AcDbLine
 10
131.1754936708764
 20
-55.96816100455459
 30
0.0
 11
108.7580081362283
 21
-55.96816100455459
 31
0.0
  0
TEXT
  5
55E
330
E
100
AcDbEntity
 67
     1
  8
LOGO
  6
Continuous
100
AcDbText
 10
108.7953883327734
 20
-50.13203552391605
 30
0.0
 40
4.0
  1
03
  7
CHINESET
100
AcDbText
  0
LINE
  5
55F
330
E
100
AcDbEntity
 67
     1
  8
LOGO
 62
     4
100
AcDbLine
 10
119.5703585161971
 20
-54.65628695686496
 30
0.0
 11
111.5846976636295
 21
-54.65628695686499
 31
0.0
  0
LINE
  5
560
330
E
100
AcDbEntity
 67
     1
  8
LOGO
 62
     4
100
AcDbLine
 10
111.5846976636295
 20
-52.17820985523371
 30
0.0
 11
111.5846976636295
 21
-54.656286956865
 31
0.0
  0
ENDSEC
  0
SECTION
  2
OBJECTS
  0
DICTIONARY
  5
9
330
0
100
AcDbDictionary
281
     1
  3
ACAD_COLOR
350
32
  3
ACAD_GROUP
350
2E
  3
ACAD_LAYOUT
350
D
  3
ACAD_MATERIAL
350
31
  3
ACAD_MLINESTYLE
350
2F
  3
ACAD_PLOTSETTINGS
350
30
  3
ACAD_PLOTSTYLENAME
350
8
  3
ACAD_TABLESTYLE
350
33
  3
ACDBHEADERROUNDTRIPXREC
350
56C
  3
AcDbVariableDictionary
350
29B
  3
AcmDictionary
350
2FF
  3
AMG
350
2A7
  3
AMGSNAPSETTINGS
350
335
  3
DWGPROPS
350
56B
  0
DICTIONARY
  5
16
330
15
100
AcDbDictionary
280
     1
281
     1
  3
ACAD_LAYERSTATES
360
17
  0
DICTIONARY
  5
3
330
2
100
AcDbDictionary
280
     1
281
     1
  3
ACAD_SORTENTS
360
4
  0
DICTIONARY
  5
570
330
2A5
100
AcDbDictionary
280
     1
281
     1
  3
ACAD_XREC_ROUNDTRIP
360
571
  0
DICTIONARY
  5
32
102
{ACAD_REACTORS
330
9
102
}
330
9
100
AcDbDictionary
281
     1
  0
DICTIONARY
  5
2E
102
{ACAD_REACTORS
330
9
102
}
330
9
100
AcDbDictionary
281
     1
  0
DICTIONARY
  5
D
102
{ACAD_REACTORS
330
9
102
}
330
9
100
AcDbDictionary
281
     1
  3
Model
350
C
  3
配置1
350
11
  0
DICTIONARY
  5
31
102
{ACAD_REACTORS
330
9
102
}
330
9
100
AcDbDictionary
281
     1
  0
DICTIONARY
  5
2F
102
{ACAD_REACTORS
330
9
102
}
330
9
100
AcDbDictionary
281
     1
  3
STANDARD
350
34
  0
DICTIONARY
  5
30
102
{ACAD_REACTORS
330
9
102
}
330
9
100
AcDbDictionary
281
     1
  0
ACDBDICTIONARYWDFLT
  5
8
102
{ACAD_REACTORS
330
9
102
}
330
9
100
AcDbDictionary
281
     1
  3
Normal
350
7
100
AcDbDictionaryWithDefault
340
7
  0
DICTIONARY
  5
33
102
{ACAD_REACTORS
330
9
102
}
330
9
100
AcDbDictionary
281
     1
  3
Standard
350
35
  0
DICTIONARY
  5
56C
102
{ACAD_REACTORS
330
9
102
}
330
9
100
AcDbDictionary
281
     1
  0
DICTIONARY
  5
29B
102
{ACAD_REACTORS
330
9
102
}
330
9
100
AcDbDictionary
281
     1
  3
CTABLESTYLE
350
29C
  3
DIMASSOC
350
29E
  3
HIDETEXT
350
29D
  3
PROJECTNAME
350
29F
  0
DICTIONARY
  5
2FF
102
{ACAD_REACTORS
330
9
102
}
330
9
100
AcDbDictionary
281
     1
  3
AcmStdDictionary
350
30C
  3
AMDTSECTSYM_ARROWCOLOR
350
328
  0
DICTIONARY
  5
2A7
102
{ACAD_REACTORS
330
9
102
}
330
9
100
AcDbDictionary
281
     1
  0
DICTIONARY
  5
335
102
{ACAD_REACTORS
330
9
102
}
330
9
100
AcDbDictionary
281
     1
  0
XRECORD
  5
56B
102
{ACAD_REACTORS
330
9
102
}
330
9
100
AcDbXrecord
280
     1
  1
DWGPROPS COOKIE
  2

  3

  4

  6

  7

  8

  9

300
=
301
=
302
=
303
=
304
=
305
=
306
=
307
=
308
=
309
=
 40
0.0888027893518519
 41
2454987.608961447
 42
2455014.454475926
  1

 90
        0
  0
DICTIONARY
  5
17
102
{ACAD_REACTORS
330
16
102
}
330
16
100
AcDbDictionary
281
     1
  0
SORTENTSTABLE
  5
4
102
{ACAD_REACTORS
330
3
102
}
330
3
100
AcDbSortentsTable
330
2
  0
XRECORD
  5
571
102
{ACAD_REACTORS
330
570
102
}
330
570
100
AcDbXrecord
280
     1
102
SHADEPLOT
 70
     0
  0
LAYOUT
  5
C
102
{ACAD_XDICTIONARY
360
56D
102
}
102
{ACAD_REACTORS
330
D
102
}
330
D
100
AcDbPlotSettings
  1

  2
\\NOVIBDC\HPLJ4-TPUB
  4

  6

 40
0.0
 41
0.0
 42
0.0
 43
0.0
 44
0.0
 45
0.0
 46
0.0
 47
0.0
 48
0.0
 49
0.0
140
0.0
141
0.0
142
1.0
143
1.0
 70
  1712
 72
     0
 73
     0
 74
     0
  7

 75
     0
147
1.0
148
0.0
149
0.0
100
AcDbLayout
  1
Model
 70
     1
 71
     0
 10
0.0
 20
0.0
 11
12.0
 21
9.0
 12
0.0
 22
0.0
 32
0.0
 14
0.0
 24
0.0
 34
0.0
 15
0.0
 25
0.0
 35
0.0
146
0.0
 13
0.0
 23
0.0
 33
0.0
 16
1.0
 26
0.0
 36
0.0
 17
0.0
 27
1.0
 37
0.0
 76
     0
330
2
  0
LAYOUT
  5
11
102
{ACAD_XDICTIONARY
360
12
102
}
102
{ACAD_REACTORS
330
D
102
}
330
D
100
AcDbPlotSettings
  1

  2
\\RDS1\iR3300影印機
  4
A3
  6

 40
6.805083274841308
 41
5.365738868713378
 42
7.228424072265625
 43
5.027069091796875
 44
296.9259948730469
 45
419.9466552734374
 46
0.0
 47
0.0
 48
0.0
 49
0.0
140
0.0
141
0.0
142
1.0
143
1.0
 70
   688
 72
     1
 73
     0
 74
     5
  7

 75
    16
147
1.0
148
35.25772444962559
149
83.27986375085856
100
AcDbLayout
  1
配置1
 70
     1
 71
     1
 10
-42.06280772446689
 20
-88.64560261957194
 11
254.86318714858
 21
331.3010526538656
 12
0.0
 22
0.0
 32
0.0
 14
-14.05844972793261
 24
-67.35222491606601
 34
-0.0050530640584157
 15
233.8406292450359
 25
307.8610379642325
 35
165.5964903329765
146
0.0
 13
0.0
 23
0.0
 33
0.0
 16
1.0
 26
0.0
 36
0.0
 17
0.0
 27
1.0
 37
0.0
 76
     0
330
E
331
2A5
1001
ACAD_PSEXT
1000
\\RDS1\iR3300影印機
1000
Canon iR2200-3300 PCL5e
1000
\\RDS1
1000

1070
     0
  0
MLINESTYLE
  5
34
102
{ACAD_REACTORS
330
2F
102
}
330
2F
100
AcDbMlineStyle
  2
STANDARD
 70
     0
  3

 62
     0
 51
90.0
 52
90.0
 71
     2
 49
0.5
 62
   256
  6
BYLAYER
 49
-0.5
 62
   256
  6
BYLAYER
  0
ACDBPLACEHOLDER
  5
7
102
{ACAD_REACTORS
330
8
102
}
330
8
  0
TABLESTYLE
  5
35
102
{ACAD_REACTORS
330
33
102
}
330
33
100
AcDbTableStyle
  3
Standard
 70
     0
 71
     0
 40
1.5
 41
1.5
280
     0
281
     0
  7
STANDARD
140
4.5
170
     2
 62
     0
 63
     7
283
     0
274
    -2
284
     1
 64
     0
275
    -2
285
     1
 65
     0
276
    -2
286
     1
 66
     0
277
    -2
287
     1
 67
     0
278
    -2
288
     1
 68
     0
279
    -2
289
     1
 69
     0
  7
STANDARD
140
6.0
170
     5
 62
     0
 63
     7
283
     0
274
    -2
284
     1
 64
     0
275
    -2
285
     1
 65
     0
276
    -2
286
     1
 66
     0
277
    -2
287
     1
 67
     0
278
    -2
288
     1
 68
     0
279
    -2
289
     1
 69
     0
  7
STANDARD
140
4.5
170
     5
 62
     0
 63
     7
283
     0
274
    -2
284
     1
 64
     0
275
    -2
285
     1
 65
     0
276
    -2
286
     1
 66
     0
277
    -2
287
     1
 67
     0
278
    -2
288
     1
 68
     0
279
    -2
289
     1
 69
     0
  0
DICTIONARYVAR
  5
29C
102
{ACAD_REACTORS
330
29B
102
}
330
29B
100
DictionaryVariables
280
     0
  1
STANDARD
  0
DICTIONARYVAR
  5
29E
102
{ACAD_REACTORS
330
29B
102
}
330
29B
100
DictionaryVariables
280
     0
  1
1
  0
DICTIONARYVAR
  5
29D
102
{ACAD_REACTORS
330
29B
102
}
330
29B
100
DictionaryVariables
280
     0
  1
1
  0
DICTIONARYVAR
  5
29F
102
{ACAD_REACTORS
330
29B
102
}
330
29B
100
DictionaryVariables
280
     0
  1

  0
DICTIONARY
  5
30C
102
{ACAD_REACTORS
330
2FF
102
}
330
2FF
100
AcDbDictionary
281
     1
  0
XRECORD
  5
328
102
{ACAD_REACTORS
330
2FF
102
}
330
2FF
100
AcDbXrecord
280
     1
 90
-1023410169
  0
DICTIONARY
  5
56D
330
C
100
AcDbDictionary
280
     1
281
     1
  3
ACAD_XREC_ROUNDTRIP
360
56E
  0
DICTIONARY
  5
12
330
11
100
AcDbDictionary
280
     1
281
     1
  3
ACAD_XREC_ROUNDTRIP
360
56F
  3
ADSK_XREC_LAYOUTTHUMBNAIL
360
13
  0
XRECORD
  5
56E
102
{ACAD_REACTORS
330
56D
102
}
330
56D
100
AcDbXrecord
280
     1
102
SHADEPLOT
 70
     0
102
SHADEPLOTRESLEVEL
 70
     2
102
SHADEPLOTCUSTOMDPI
 70
   300
  0
XRECORD
  5
56F
102
{ACAD_REACTORS
330
12
102
}
330
12
100
AcDbXrecord
280
     1
102
SHADEPLOT
 70
     0
102
SHADEPLOTRESLEVEL
 70
     2
102
SHADEPLOTCUSTOMDPI
 70
   300
  0
XRECORD
  5
13
102
{ACAD_REACTORS
330
12
102
}
330
12
100
AcDbXrecord
280
     1
310
28000000630000008C0000000100080000000000B0360000000000000000000000010000000000000000000000000000FFFFFF000000000000000000000000000000000000000000000000000000000000000000330000006600000099000000CC000000FF00000000330000333300006633000099330000CC330000FF3300
310
0000660000336600006666000099660000CC660000FF66000000990000339900006699000099990000CC990000FF99000000CC000033CC000066CC000099CC0000CCCC0000FFCC000000FF000033FF000066FF000099FF0000CCFF0000FFFF000000003300330033006600330099003300CC003300FF003300003333003333
310
33006633330099333300CC333300FF33330000663300336633006666330099663300CC663300FF66330000993300339933006699330099993300CC993300FF99330000CC330033CC330066CC330099CC3300CCCC3300FFCC330000FF330033FF330066FF330099FF3300CCFF3300FFFF330000006600330066006600660099
310
006600CC006600FF00660000336600333366006633660099336600CC336600FF33660000666600336666006666660099666600CC666600FF66660000996600339966006699660099996600CC996600FF99660000CC660033CC660066CC660099CC6600CCCC6600FFCC660000FF660033FF660066FF660099FF6600CCFF6600
310
FFFF660000009900330099006600990099009900CC009900FF00990000339900333399006633990099339900CC339900FF33990000669900336699006666990099669900CC669900FF66990000999900339999006699990099999900CC999900FF99990000CC990033CC990066CC990099CC9900CCCC9900FFCC990000FF99
310
0033FF990066FF990099FF9900CCFF9900FFFF99000000CC003300CC006600CC009900CC00CC00CC00FF00CC000033CC003333CC006633CC009933CC00CC33CC00FF33CC000066CC003366CC006666CC009966CC00CC66CC00FF66CC000099CC003399CC006699CC009999CC00CC99CC00FF99CC0000CCCC0033CCCC0066CC
310
CC0099CCCC00CCCCCC00FFCCCC0000FFCC0033FFCC0066FFCC0099FFCC00CCFFCC00FFFFCC000000FF003300FF006600FF009900FF00CC00FF00FF00FF000033FF003333FF006633FF009933FF00CC33FF00FF33FF000066FF003366FF006666FF009966FF00CC66FF00FF66FF000099FF003399FF006699FF009999FF00CC
310
99FF00FF99FF0000CCFF0033CCFF0066CCFF0099CCFF00CCCCFF00FFCCFF0000FFFF0033FFFF0066FFFF0099FFFF00CCFFFF00FFFFFF00000000000D0D0D001A1A1A00282828003535350043434300505050005D5D5D006B6B6B00787878008686860093939300A1A1A100AEAEAE00BBBBBB00C9C9C900D6D6D600E4E4E400
310
F1F1F100FFFFFF0000000000000000000000000000000000000000000000000000000000000000000000000000000000F5F5F5F5F5F5F5F5F5F5F5F5F5F5F5F5F5F5F5F5F5F5F5F5F5F5F5F5F5F5F5F5F5F5F5F5F5F5F5F5F5F5F5F5F5F5F5F5F5F5F5F5F5F5F5F5F5F5F5F5F5F5F5F5F5F5F5F5F5F5F5F5F5F5F5F5F5F5F5
310
F5F5F5F5F5F5F5F5F5F5F5F5F5F5F5F5F5F5F5F57EF5E2E2E2E2E2E2E2E2E2E2E2E2E2E2E2E2E2E2E2E2E2E2E2E2E2E2E2E2E2E2E2E2E2E2E2E2E2E2E2E2E2E2E2E2E2E2E2E2E2E2E2E2E2E2E2E2E2E2E2E2E2E2E2E2E2E2E2E2E2E2E2E2E2E2E2E2E2E2E2E2E2E2E2E2E2E2E2E2E2E2E2E2E2E2E2E2E2F57EF5E2F5F5F5F5
310
F5F5F5F5E2E2E2E2E2E2E2E2F5F5F5F5F5F5F5F5F5F5F5F5F5F5F5F5E2E2E2E2E2E2E2E2F5F5F5F5F5F5F5F5F5F5F5F5F5F5F5E2E2E2E2E2E2E2E2F5F5F5F5F5F5F5F5F5F5F5F5F5F5F5F5E2E2E2E2E2E2E2E2F5F5F5F5F5F5F5F5E2F57EF5E2F5E2E2E2E2E2E2E2E2E2E2E2E2E2E2E2E2E2E2E2E2E2E2E2E2E2E2E2E2E2E2
310
E2E2E2E2E2E2E2E2E2E2E2E2E2E2E2E2E2E2E2E2E2E2E2E2E2E2E2E2E2E2E2E2E2E2E2E2E2E2E2E2E2E2E2E2E2E2E2E2E2E2E2E2E2E2E2E2E2E2E2E2E2E2E2F5E2F57EF5E2F5E2E2E2E2E2E2E2E2E2E2E2E2E2E2E2E2E2E2E2E2E2E2E2E2E2E2E2E2E2E2E2E2E2E2E2E2E2E2E2E2E2E2E2E2E2E2E2E2E2E2E2E2E2E2E2E2E2
310
E2E2E2E2E2E2E2E2E2E2E2E2E2E2E2E2E2E2E2E2E2E2E2E2E2E2E2E2E2E2E2E2E2E2E2E2F5E2F57EF5E2F5E2E2E2E2E2E2E2E2E2E2E2E2E2E2E2E2E2E2E2E2E2E2E2E2E2E2E2E2E2E2E2E2E2E2E2E2E2E2E2E2E2E2E2E2E2E2E2E2E2E2E2E2E2E2E2E2E2E2E2E2E2E2E2E2E2E2E2E2E2E2E2E2E2E2E2E2E2E2E2E2E2E2E2E2
310
E2E2E2E2E2E2E2E2E2F5E2F57EF5E2F5E2E2E2E2E2E2E2E2E2E2E2E2E2E2E2E2E2E2E2E2E2E2E2E2E2E2E2E2E2E2E2E2E2E2E2E2E2E2E2E2E2E2E2E2E2E2E2E2E2E2E2E2E2E2E2E2E2E2E2E2E2E2E2E2E2E2E2E2E2E2E2E2E2E2E2E2E2E2E2E2E2E2E2E2E2E2E2E2E2E2E2E2E2F5E2F57EF5E2F5E2E2E2E2E2E2E2E2E2E2E2
310
E2E2E2E2E2E2E2E2E2E2E2E2E2E2E2E2E2E2E2E2E2E2E2E2E2E2E2E2E2E2E2E2E2E2E2E2E2E2E2E2E2E2E2E2E2E2E2E2E2E2E2E2E2E2E2E2E2E2E2E2E2E2E2E2E2E2E2E2E2E2E2E2E2E2E2E2E2E2E2E2E2E2F5E2F57EF5E2F5E2E2E2E2E2E2E2E2E2E2E2E2E2E2E2E2E2E2E2E2E2E2E2E2E2E2E2E2E2E2E2E2E2E2E2E2E2E2
310
E2E2E2E2E2E2E2E2E2E2E2E2E2E2E2E2E2E2E2E2E2E2E2E2E2E2E2E2E2E2E2E2E2E2E2E2E2E2E2E2E2E2E2E2E2E2E2E2E2E2E2E2E2E2E2F5E2F57EF5E2F5E2E2E2E2E2E2E2E2E2E2E2E2E2E2E2E2E2E2E2E2E2E2E2E2E2E2E2E2E2E2E2E2E2E2E2E2E2E2E2E2E2E2E2E2E2E2E2E2E2E2E2E2E2E2E2E2E2E2E2E2E2E2E2E2E2
310
E2E2E2E2E2E2E2E2E2E2E2E2E2E2E2E2E2E2E2E2E2E2E2E2E2E2E2E2F5E2F57EF5E2F5E2E2E2E2E2E2E2E2E2E2E2E2E2E2E2E2E2E2E2E2E2E2E2E2E2E2E2E2E2E2E2E2E2E2E2E2E2E2E2E2E2E2E2E2E2E2E2E2E2E2E2E2E2E2E2E2E2E2E2E2E2E2E2E2E2E2E2E2E2E2E2E2E2E2E2E2E2E2E2E2E2E2E2E2E2E2E2E2E2E2E2E2
310
E2F5E2F57EF5E2E2E2E2E2E2E2E2E2E2E2E2E2E2E2E2E2E2E2E2E2E2E2E2E2E2E2E2E2E2E2E2E2E2E2E2E2E2E2E2E2E2E2E2E2E2E2E2E2E2E2E2E2E2E2E2E2E2E2E2E2E2E2E2E2E2E2E2E2E2E2E2E2E2E2E2E2E2E2E2E2E2E2E2E2E2E2E2E2E2E2E2E2E2E2E2E2F57EF5E2E2E2E2E2E2E2E2E2E2E2E2E2E2E2E2E2E2E2E2E2
310
E2E2E2E2E2E2E2E2E2E2E2E2E2E2E2E2E2E2E2E2E2E2E2E2E2E2E2E2E2E2E2E2E2E2E2E2E2E2E2E2E2E2E2E2E2E2E2E2E2E2E2E2E2E2E2E2E2E2E2E2E2E2E2E2E2E2E2E2E2E2E2E2E2E2E2E2F57EF5E2E2E2E2E2E2E2E2E2E2E2E2E2E2E2E2E2E2E2E2E2E2E2E2E2E2E2E2E2E2E2E2E2E2E2E2E2E2E2E2E2E2E2E2E2E2E2E2
310
E2E2E2E2E2E2E2E2E2E2E2E2E2E2E2E2E2E2E2E2E2E2E2E2E2E2E2E2E2E2E2E2E2E2E2E2E2E2E2E2E2E2E2E2E2E2E2E2E2F57EF5E2E2E2E2E2E2E2E2E2E2E2E2E2E2E2E2E2E2E2E2E2E2E2E2E2E2E2E2E2E2E2E2E2E2E2E2E2E2E2E2E2E2E2E2E2E2E2E2E2E2E2E2E2E2E2E2E2E2E2E2E2E2E2E2E2E2E2E2E2E2E2E2E2E2E2
310
E2E2E2E2E2E2E2E2E2E2E2E2E2E2E2E2E2E2E2E2E2E2F57EF5E2E2E2E2E2E2E2E2E2E2E2E2E2E2E2E2E2E2E2E2E2E2E2E2E2E2E2E2E2E2E2E2E2E2E2E2E2E2E2E2E2E2E2E2E2E2E2E2E2E2E2E2E2E2E2E2E2E2E2E2E2E2E2E2E2E2E2E2E2E2E2E2E2E2E2E2E2E2E2E2E2E2E2E2E2E2E2E2E2E2E2E2E2E2E2E2E2F57EF5E2E2
310
E2E2E2E2E2E2E2E2E2E2E2E2E2E2E2E2E2E2E2E2E2E2E2E2E2E2E2E2E2E2E2E2E2E2E2E2E2E2E2E2E2E2E2E2E2E2E2E2E2E2E2E2E2E2E2E2E2E2E2E2E2E2E2E2E2E2E2E2E2E2E2E2E2E2E2E2E2E2E2E2E2E2E2E2E2E2E2E2E2E2E2E2E2E2E2F57EF5E2E2E2E2E2E2E2E2E2E2E2E2E2E2E2E2E2E2E2E2E2E2E2E2E2E2E2E2E2
310
E2E2E2E2E2E2E2E2E2E2E2E2E2E2E2E2E2E2E2E2E2E2E2E2E2E2E2E2E2E2E2E2E2E2E2E2E2E2E2E2E2E2E2E2E2E2E2E2E2E2E2E2E2E2E2E2E2E2E2E2E2E2E2E2E2E2E2E2F57EF5E2E2E2E2E2E2E2E2E2E2E2E2E2E2E2E2E2E2E2E2E2E2E2E2E2E2E2E2E2E2E2E2E2E2E2E2E2E2E2E2E2E2E2E2E2E2E2E2E2E2E2E2E2E2E2E2
310
E2E2E2E2E2E2E2E2E2E2E2E2E2E2E2E2E2E2E2E2E2E2E2E2E2E2E2E2E2E2E2E2E2E2E2E2E2E2E2E2E2F57EF5E2E2E2E2E2E2E2E2E2E2E2E2E2E2E2E2E2E2E2E2E2E2E2E2E2E2E2E2E2E2E2E2E2E2E2E2E2E2E2E2E2E2E2E2E2E2E2E2E2E2E2E2E2E2E2E2E2E2E2E2E2E2E2E2E2E2E2E2E2E2E2E2E2E2E2E2E2E2E2E2E2E2E2
310
E2E2E2E2E2E2E2E2E2E2E2E2E2E2F57EF5E2E2E2E2E2E2E2E2E2E2E2E2E2E2E2E2E2E2E2E2E2E2E2E2E2E2E2E2E2E2E2E2E2E2E2E2E2E2E2E2E2E2E2E2E2E2E2E2E2E2E2E2E2E2E2E2E2E2E2E2E2E2E2E2E2E2E2E2E2E2E2E2E2E2E2E2E2E2E2E2E2E2E2E2E2E2E2E2E2E2E2E2E2E2E2E2E2F57EF5E2F5E2E2E2E2E2E2E2E2
310
E2E2E2E2E2E2E2E2E2E2E2E2E2E2E2E2E2E2E2E2E2E2E2E2E2E2E2E2E2E2E2E2E2E2E2E2E2E2E2E2E2E2E2E2E2E2E2E2E2E2E2E2E2E2E2E2E2E2E2E2E2E2E2E2E2E2E2E2E2E2E2E2E2E2E2E2E2E2E2E2E2E2E2E2E2F5E2F57EF5E2F5E2E2E2E2E2E2E2E2E2E2E2E2E2E2E2E2E2E2E2E2E2E2E2E2E2E2E2E2E2E2E2E2E2E2E2
310
E2E2E2E2E2E2E2E2E2E2E2BEE2E2E2E2E2E2E2E2E2E2E2E2E2E2E2E2E2E2E2E2E2E2E2E2E2E2E2E2E2E2E2E2E2E2E2E2E2E2E2E2E2E2E2E2E2E2F5E2F57EF5E2F5E2E2E2E2E2E2E2E2E2E2E2E2E2E2E2E2E2E2E2E2E2E2E2E2E2E2E2E2E2E2E2E2E2E2E2E2E2E2E2E2E2E2E2E2E2F50F0F0F0F0F0F0F0F0F0F0F0F0F0F0F0F
310
0F0F0F0F0FE2E2E2E2E2E2E2E2E2E2E2E2E2E2E2E2E2E2E2E2E2E2E2E2E2E2F5E2F57EF5E2F5E2E2E2E2E2E2E2E2E2E2E2E2E2E2E2E2E2E2E2E2E2E2E2E2E2E2E2E2E2E2E2E2E2E2E2E2E2E2E2E2E2E2E2E2E2F5BEE2E2E2E2E2E2E2E2E2E2E2E2E2E2E2E2E2E2E20FE2E2E2E2E2E2E2E2E2E2E2E2E2E2E2E2E2E2E2E2E2E2
310
E2E2E2E2F5E2F57EF5E2F5E2E2E2E2E2E2E2E2E2E2E2E2E2E2E2E2E2E2E2E2E2E2E2E2E2E2E2E2E2E2E2E2E2E2E2E2E2E2E2E2E2E2E2E2F5F5BEF5E2E2E2E2E2E2E2E2E2E2E2E2E2E2E2E2E2E20FE2E2E2E2E2E2E2E2E2E2E2E2E2E2E2E2E2E2E2E2E2E2E2E2E2E2F5E2F57EF5E2F5E2E2E2E2E2E2E2E2E2E2E2E2E2E2E2E2
310
E2E2E2E2E2E2E2E2E2E2E2E2E2E2E2E2E2E2E2E2E2E2E2E2E2E2F5F5F5F5BEF5F50F0F0F0F0F0F0F0F0F0F0F0F0F0F0F0FE20FE2E2E2E2E2E2E2E2E2E2E2E2E2E2E2E2E2E2E2E2E2E2E2E2E2E2F5E2F57EF5E2F5E2E2E2E2E2E2E2E2E2E2E2E2E2E2E2E2E2E2E2E2E2E2E2E2E2E2E2E2E2E2E2E2E2E2E2E2E2E2E2E2E2E2F5
310
F5F5F5BEF5F5F5E2E2E2E2E2E2E2E2E2E20F0FE20F0FE20FE2E2E2E2E2E2E2E2E2E2E2E2E2E2E2E2E2E2E2E2E2E2E2E2E2E2F5E2F57EF5E2F5E2E2E2E2E2E2E2E2E2E2E2E2E2E2E2E2E2E2E2E2E2E2E2E2E2E2E2E2E2E2E2E2E2E2E2E2E2E2E2E2E2E2F5F5F5F5BEF5F5F5E2E2E2E2E2E2E2E2E20F0F0FE2E20FE20FE2E2E2
310
E2E2E2E2E2E2E2E2E2E2E2E2E2E2E2E2E2E2E2E2E2E2E2F5E2F57EF5E2F5E2E2E2E2E2E2E2E2E2E2E2E2E2E2E2E2E2E2E2E2E2E2E2E2E2E2E2E2E2E2E2E2E2E2E2E2E2E2E2E2E2E2F5F5F5F5BEF5F5F5E2E2E2E2E2E2E2E2E2E2E20FE2E20FE20FE2E2E2E2E2E2E2E2E2E2E2E2E2E2E2E2E2E2E2E2E2E2E2E2E2E2F5E2F57E
310
F5E2F5E2E2E2E2E2E2E2E2E2E2E2E2E2E2E2E2E2E2E2E2E2E2E2E2E2E2E2E2E2E2E2E2E2E2E2E2E2E2E2E2E2E2F5F5F5F5BEF5F50F0F0F0F0F0F0F0F0F0F0F0F0FE2E20FE20FE2E2E2E2E2E2E2E2E2E2E2E2E2E2E2E2E2E2E2E2E2E2E2E2E2E2F5E2F57EF5E2F5E2E2E2E2E2E2E2E2E2E2E2E2E2E2E2E2E2E2E2E2E2E2E2E2
310
E2E2E2E2E2E2E2E2E2E2E2E2E2E2E2E2E2E2F5E2E2E2BEE2E2F5E2E2E2E2E2E2E2E2E2E2E20FE2E20FE20FE2E2E2E2E2E2E2E2E2E2E2E2E2E2E2E2E2E2E2E2E2E2E2E2E2E2F5E2F57EF5E2F5E2E2E2E2E2E2E2E2E2E2E2E2E2E2E2E2E2E2E2E2E2E2E2E2E2E2E2E2E2E2E2E2E2E2E2E2E2E2E2E2E2F5E2E2E2E2BEE2E2E2F5
310
E2E2E2E2E2E2E2E2E2E20FE2E20FE20FE2E2E2E2E2E2E2E2E2E2E2E2E2E2E2E2E2E2E2E2E2E2E2E2E2E2F5E2F57EF5E2F5E2E2E2E2E2E2E2E2E2E2E2E2E2E2E2E2E2E2E2E2E2E2E2E2E2E2E2E2E2E2E2E2E2E2F5F5F5F5F5F5F5F5F5F5F5F5BEF5F5F5F5F5F5F5F5F5F5F5E2E2E20FE2E20FE20FE2E2E2E2E2E2E2E2E2E2E2
310
E2E2E2E2E2E2E2E2E2E2E2E2E2E2E2F5E2F57EF5E2F5E2E2E2E2E2E2E2E2E2E2E2E2E2E2E2E2E2E2E2E2E2E2E2E2E2E2E2E2E2E2E2E2E2E2F5E2E2E2E2E2E2E2E2E2E2E2BEE2E2E2E2E2E2E2E2E2E2F5E2E2E20FE2E20FE20FE2E2E2E2E2E2E2E2E2E2E2E2E2E2E2E2E2E2E2E2E2E2E2E2E2E2F5E2F57EF5E2F5E2E2E2E2E2
310
E2E2E2E2E2E2E2E2E2E2E2E2E2E2E2E2E2E2E2E2E2E2E2E2E2E2E2E2E2F5E2E2E2E2E2E2E2E2E2E2E2BEE2E2E2E2E2E2E2E2E2E2F5E2E2E20FE2E20FE20FE2E2E2E2E2E2E2E2E2E2E2E2E2E2E2E2E2E2E2E2E2E2E2E2E2E2F5E2F57EF5E2F5E2E2E2E2E2E2E2E2E2E2E2E2E2E2E2E2E2E2E2E2E2E2E2E2E2E2E2E2E2E2E2E2
310
E2E2F5E2E2E2E2E2E2E2E2E2E2E2BEE2E2E2E2E2E2E2E2E2E2F5E2E2E20FE2E20FE20FE2E2E2E2E2E2E2E2E2E2E2E2E2E2E2E2E2E2E2E2E2E2E2E2E2E2F5E2F57EF5E2F5E2E2E2E2E2E2E2E2E2E2E2E2E2E2E2E2E2E2E2E2E2E2E2E2E2E2E2E2E2E2E2E2E2E2F5E2F5F5F5E2E2E2E2E2E2E2BEE2E2E2E2E2F5F5F5E2E2F5E2
310
E2E20FE2E20FE20FE2E2E2E2E2E2E2E2E2E2E2E2E2E2E2E2E2E2E2E2E2E2E2E2E2E2F5E2F57EF5E2E2E2E2E2E2E2E2E2E2E2E2E2E2E2E2E2E2E2E2E2E2E2E2E2E2E2E2E2E2E2E2E2E2E2E2F5F5F5F5F5E2E2E2E2E2E2E2BEE2E2E2E2E2F5F5F5E2E2F5E2E2E20FE2E20FE20FE2E2E2E2E2E2E2E2E2E2E2E2E2E2E2E2E2E2E2
310
E2E2E2E2E2E2E2E2E2F57EF5E2E2E2E2E2E2E2E2E2E2E2E2E2E2E2E2E2E2E2E2E2E2E2E2E2E2E2E2E2E2E2E2E2E2E2E2F5F5F5F5F5E2E2E2E2E2E2E2BEE2E2E2E2E2F5F5F5E2E2F5E2E2E20FE2E20FE20FE2E2E2E2E2E2E2E2E2E2E2E2E2E2E2E2E2E2E2E2E2E2E2E2E2E2E2E2F57EF5E2E2E2E2E2E2E2E2E2E2E2E2E2E2E2
310
E2E2E2E2E2E2E2E2E2E2E2E2E2E2E2E2E2E2E2E2E2F5F5F5F5F5E2E2E2E2E2E2E2BEE2E2E2E2E2F5F5F5E2E2F5E2E2E20FE2E20FE20FE2E2E2E2E2E2E2E2E2E2E2E2E2E2E2E2E2E2E2E2E2E2E2E2E2E2E2E2F57EF5E2E2E2E2E2E2E2E2E2E2E2E2E2E2E2E2E2E2E2E2E2E2E2E2E2E2E2E2E2E2E2E2E2E2E2E2F5F5F5F5F5E2
310
E2E2E2E2E2E2BEE2E2E2E2E2F5F5F5E2E2F5E2E2E20FE2E20FE20FE2E2E2E2E2E2E2E2E2E2E2E2E2E2E2E2E2E2E2E2E2E2E2E2E2E2E2E2F57EF5E2E2E2E2E2E2E2E2E2E2E2E2E2E2E2E2E2E2E2E2E2E2E2E2E2E2E2E2E2E2E2E2E2E2E2F5F5F5F5F5F5F5F5F5F5F5F5F5BEF5F5F5F5F5F5F5F5F5F5F5F5E2E20FE2E20FE20F
310
E2E2E2E2E2E2E2E2E2E2E2E2E2E2E2E2E2E2E2E2E2E2E2E2E2E2E2E2F57EF5E2E2E2E2E2E2E2E2E2E2E2E2E2E2E2E2E2E2E2E2E2E2E2E2E2E2E2E2E2E2E2E2E2E2E2F5E2E2E2E2E2E2E2E2E2E2E2E2BEE2E2E2E2E2E2E2E2E2E2E2F5E2E20FE2E20FE20FE2E2E2E2E2E2E2E2E2E2E2E2E2E2E2E2E2E2E2E2E2E2E2E2E2E2E2
310
E2F57EF5E2E2E2E2E2E2E2E2E2E2E2E2E2E2E2E2E2E2E2E2E2E2E2E2E2E2E2E2E2E2E2E2E2E2E2F5E2E2E2E2E2E2E2E2E2E2E2E2BEE2E2E2E2E2E2E2E2E2E2E2F5E2E20FE2E20FE20FE2E2E2E2E2E2E2E2E2E2E2E2E2E2E2E2E2E2E2E2E2E2E2E2E2E2E2E2F57EF5E2E2E2E2E2E2E2E2E2E2E2E2E2E2E2E2E2E2E2E2E2E2E2
310
E2E2E2E2E2E2E2E2E2E2E2E2F5E2E2E2E2E2E2E2E2E2E2E2E2BEE2E2E2E2E2E2E2E2E2E2E2F5E2E20F0F0F0FE20FE2E2E2E2E2E2E2E2E2E2E2E2E2E2E2E2E2E2E2E2E2E2E2E2E2E2E2E2F57EF5E2E2E2E2E2E2E2E2E2E2E2E2E2E2E2E2E2E2E2E2E2E2E2E2E2E2E2E2E2E2E2E2E2E2E2F5F5F5F5F5F5F5F5F5F5F5F5F5BEF5
310
F5F5F5F5F5F5F5F5F5F5F5E2E20F0F0F0FE20FE2E2E2E2E2E2E2E2E2E2E2E2E2E2E2E2E2E2E2E2E2E2E2E2E2E2E2E2F57EF5E2E2E2E2E2E2E2E2E2E2E2E2E2E2E2E2E2E2E2E2E2E2E2E2E2E2E2E2E2E2E2E2E2E2E2E2E2F5F5E2E2E2E2E2E2E2F5E2BEF5E2E2E2E2E2E2E2F5F5E2E20F0F0F0F0F0FE20FE2E2E2E2E2E2E2E2
310
E2E2E2E2E2E2E2E2E2E2E2E2E2E2E2E2E2E2E2E2F57EF5E2F5E2E2E2E2E2E2E2E2E2E2E2E2E2E2E2E2E2E2E2E2E2E2E2E2E2E2E2E2E2E2E2E2E2E2E2F5F5F5F5F5F5F5F5F5F5E2BEF5F5F5F5F5F5F5F5F5F5E2E20F0F0FE2E20F0F0FE2E2E2E2E2E2E2E2E2E2E2E2E2E2E2E2E2E2E2E2E2E2E2E2E2E2F5E2F57EF5E2F5E2E2
310
E2E2E2E2E2E2E2E2E2E2E2E2E2E2E2E2E2E2E2E2E2E2E2E2E2E2E2E2E2E2E2E2E2F5E2E2E2E2E2E2E2E2E2E2BEE2E2E2E2E2E2E2E2E2F5E2E2E2E20FE2E20F0F0FE2E2E2E2E2E2E2E2E2E2E2E2E2E2E2E2E2E2E2E2E2E2E2E2E2E2F5E2F57EF5E2F5E2E2E2E2E2E2E2E2E2E2E2E2E2E2E2E2E2E2E2E2E2E2E2E2E2E2E2E2E2
310
E2E2E2E2E2E2F5F5F5F5F5F5F5F5F5F5E2BEF5F5F5F5F5F5F5F5F5F5E2E2E2E20FE2E20F0F0FE2E2E2E2E2E2E2E2E2E2E2E2E2E2E2E2E2E2E2E2E2E2E2E2E2E2F5E2F57EF5E2F5E2E2E2E2E2E2E2E2E2E2E2E2E2E2E2E2E2E2E2E2E2E2E2E2E2E2E2E2E2E2E2E2E2E2E2F5F5E2E2E2E2E2E2E2F5E2BEF5E2E2E2E2E2E2E2F5
310
F5E2E2E2E20FE2E20F0F0FE2E2E2E2E2E2E2E2E2E2E2E2E2E2E2E2E2E2E2E2E2E2E2E2E2E2F5E2F57EF5E2F5E2E2E2E2E2E2E2E2E2E2E2E2E2E2E2E2E2E2E2E2E2E2E2E2E2E2E2E2E2E2E2E2E2E2E2F5F5F5F5F5F5F5F5F5F5E2BEF5F5F5F5F5F5F5F5F5F5E2E2E2E20FE2E20FE20FE2E2E2E2E2E2E2E2E2E2E2E2E2E2E2E2
310
E2E2E2E2E2E2E2E2E2E2F5E2F57EF5E2F5E2E2E2E2E2E2E2E2E2E2E2E2E2E2E2E2E2E2E2E2E2E2E2E2E2E2E2E2E2E2E2E2E2E2E2F5E2E2E2E2E2E2E2E2E2E2BEE2E2E2E2E2E2E2E2E2F5E2E2E2E20FE2E20FE20FE2E2E2E2E2E2E2E2E2E2E2E2E2E2E2E2E2E2E2E2E2E2E2E2E2E2F5E2F57EF5E2F5E2E2E2E2E2E2E2E2E2E2
310
E2E2E2E2E2E2E2E2E2E2E2E2E2E2E2E2E2E2E2E2E2E2E2E2E2F5F5F5F5F5F5F5F5F5F5E2BEF5F5F5F5F5F5F5F5F5F5E2E2E2E20FE2E20FE20FE2E2E2E2E2E2E2E2E2E2E2E2E2E2E2E2E2E2E2E2E2E2E2E2E2E2F5E2F57EF5E2F5E2E2E2E2E2E2E2E2E2E2E2E2E2E2E2E2E2E2E2E2E2E2E2E2E2E2E2E2E2E2E2E2E2E2E2F5F5
310
E2E2E2E2E2E2E2F5E2BEF5E2E2E2E2E2E2E2F5F5E2E2E2E20FE2E20FE20FE2E2E2E2E2E2E2E2E2E2E2E2E2E2E2E2E2E2E2E2E2E2E2E2E2E2F5E2F57EF5E2F5E2E2E2E2E2E2E2E2E2E2E2E2E2E2E2E2E2E2E2E2E2E2E2E2E2E2E2E2E2E2E2E2E2E2E2F5F5F5F5F5F5F5F5F5F5E2BEF5F5F5F5F5F5F5F5F5F5E2E2E2E20FE2E2
310
0FE20FE2E2E2E2E2E2E2E2E2E2E2E2E2E2E2E2E2E2E2E2E2E2E2E2E2E2F5E2F57EF5E2F5E2E2E2E2E2E2E2E2E2E2E2E2E2E2E2E2E2E2E2E2E2E2E2E2E2E2E2E2E2E2E2E2E2E2E2F5E2E2E2E2E2E2E2E2E2E2BEE2E2E2E2E2E2E2E2E2F5E2E2E2E20FE2E20FE20FE2E2E2E2E2E2E2E2E2E2E2E2E2E2E2E2E2E2E2E2E2E2E2E2
310
E2E2F5E2F57EF5E2F5E2E2E2E2E2E2E2E2E2E2E2E2E2E2E2E2E2E2E2E2E2E2E2E2E2E2E2E2E2E2E2E2E2E2E2F5E2E2E2E2E2E2E2E2E2E2BEE2E2E2E2E2E2E2E2E2F5E2E2E2E20FE2E20FE20FE2E2E2E2E2E2E2E2E2E2E2E2E2E2E2E2E2E2E2E2E2E2E2E2E2E2F5E2F57EF5E2F5E2E2E2E2E2E2E2E2E2E2E2E2E2E2E2E2E2E2
310
E2E2E2E2E2E2E2E2E2E2E2E2E2E2E2E2E2F5E2E2E2E2E2E2E2E2E2E2BEE2E2E2E2E2E2E2E2E2F5E2E2E2E20FE2E20FE20FE2E2E2E2E2E2E2E2E2E2E2E2E2E2E2E2E2E2E2E2E2E2E2E2E2E2F5E2F57EF5E2F5E2E2E2E2E2E2E2E2E2E2E2E2E2E2E2E2E2E2E2E2E2E2E2E2E2E2E2E2E2E2E2E2E2F5F5F5F5F5F5F5F5F5BEF5F5
310
F5BEF5F5F5BEF5F5F5F5F5F5F5F5E2E20FE2E20FE20FE2E2E2E2E2E2E2E2E2E2E2E2E2E2E2E2E2E2E2E2E2E2E2E2E2E2F5E2F57EF5E2F5E2E2E2E2E2E2E2E2E2E2E2E2E2E2E2E2E2E2E2E2E2E2E2E2E2E2E2E2E2E2E2E2E20FF5F5F5F5F5F5F5F5BEF5F5F5BEF5F5F5BEF5F5F5F5F5F5F50FE2E20FE2E20FE20FE2E2E2E2E2
310
E2E2E2E2E2E2E2E2E2E2E2E2E2E2E2E2E2E2E2E2E2F5E2F57EF5E2F5E2E2E2E2E2E2E2E2E2E2E2E2E2E2E2E2E2E2E2E2E2E2E2E2E2E2E2E2E2E2E2E2E20FE2E2E2E2E2E2F5E2BEE2F5E2BEF5E2F5BEF5E2E2E2E2E2E20FE2E20FE2E20FE20FE2E2E2E2E2E2E2E2E2E2E2E2E2E2E2E2E2E2E2E2E2E2E2E2E2E2F5E2F57EF5E2
310
F5E2E2E2E2E2E2E2E2E2E2E2E2E2E2E2E2E2E2E2E2E2E2E2E2E2E2E2E2E2E2E2E2E20FE2E2E2E2E2E2F5E2BEE2F5E2BEF5E2F5BEF5E2E2E2E2E2E20FE2E20FE2E20FE20FE2E2E2E2E2E2E2E2E2E2E2E2E2E2E2E2E2E2E2E2E2E2E2E2E2E2F5E2F57EF5E2F5E2E2E2E2E2E2E2E2E2E2E2E2E2E2E2E2E2E2E2E2E2E2E2E2E2E2
310
E2E2E2E2E2E2E20FE2E2E2E2E2E2F5E2BEE2F5E2BEF5E2F5BEF5E2E2E2E2E2E20FE2E20FE20F0FE20FE2E2E2E2E2E2E2E2E2E2E2E2E2E2E2E2E2E2E2E2E2E2E2E2E2E2F5E2F57EF5E2E2E2E2E2E2E2E2E2E2E2E2E2E2E2E2E2E2E2E2E2E2E2E2E2E2E2E20F0F0F0F0F0F0F0F0F0F0F0FF5F5F5F5BEF5F5F5BEF5F5F5BEF5F5
310
F50F0F0F0F0F0F0F0F0F0F0FE20FE2E2E2E2E2E2E2E2E2E2E2E2E2E2E2E2E2E2E2E2E2E2E2E2E2E2E2E2F57EF5E2E2E2E2E2E2E2E2E2E2E2E2E2E2E2E2E2E2E2E2E2E2E2E2E2E2E2E20FE2E2E20F0FE20FE2E2E2F5F5F5F5F5BEF5F5F5BEF5F5F5BEF5F5F5F5E2E2E20FE2E2E2E2E2E2E20FE2E2E2E2E2E2E2E2E2E2E2E2E2
310
E2E2E2E2E2E2E2E2E2E2E2E2E2E2E2F57EF5E2E2E2E2E2E2E2E2E2E2E2E2E2E2E2E2E2E2E2E2E2E2E2E2E2E2E2E20FE2E20F0FE2E20FE2E2E2F5E2E2E2F5BEE2E2F5BEE2E2F5BEE2E2E2F5E2E2E20FE2E2E2E2E2E2E20FE2E2E2E2E2E2E2E2E2E2E2E2E2E2E2E2E2E2E2E2E2E2E2E2E2E2E2E2F57EF5E2E2E2E2E2E2E2E2E2
310
E2E2E2E2E2E2E2E2E2E2E2E2E2E2E2E2E2E2E20FE2E20F0FE2E20FE2E2E2F5E2E2E2E2E2E2E2E2E2E2E2E2E2E2E2E2F5E2E2E20FE2E2E2E2E2E2E20FE2E2E2E2E2E2E2E2E2E2E2E2E2E2E2E2E2E2E2E2E2E2E2E2E2E2E2E2F57EF5E2E2E2E2E2E2E2E2E2E2E2E2E2E2E2E2E2E2E2E2E2E2E2E2E2E2E2E20FE2E20F0FE2E20F
310
E2E2E2F5E2E2E2E2E2E2E2E2E2E2E2E2E2E2E2E2F5E2E2E20FE2E2E2E2E2E2E20FE2E2E2E2E2E2E2E2E2E2E2E2E2E2E2E2E2E2E2E2E2E2E2E2E2E2E2E2F57EF5E2E2E2E2E2E2E2E2E2E2E2E2E2E2E2E2E2E2E2E2E2E2E2E2E2E20F0F0FE2E20F0FE2E20FE2E2E2F5E2E2BEBEE2E2E2E2E2E2E2E2BEBEE2E2F5E2E2E20FE2E2
310
E2E2E2E2E20FE2E2E2E2E2E2E2E2E2E2E2E2E2E2E2E2E2E2E2E2E2E2E2E2E2E2E2E2F57EF5E2E2E2E2E2E2E2E2E2E2E2E2E2E2E2E2E2E2E2E2E2E2E2E2E2E20F0F0FE2E2E20F0FE20FE2E2E2F5E2F5BEBEF5E2E2E2E2E2E2F5BEBEF5E2F5E2E2E20FE2E2E2E2E2E2E20FE2E2E2E2E2E2E2E2E2E2E2E2E2E2E2E2E2E2E2E2E2
310
E2E2E2E2E2E2E2F57EF5E2E2E2E2E2E2E2E2E2E2E2E2E2E2E2E2E2E2E2E2E2E2E2E2E2E2E2E20FE2E2E20F0F0F0F0F0F0F0F0FBEBEBEBEBEE2E2E2E2BEBEBE0FBEBEF5E2E2E20FE2E2E2E2E2E2E20FE2E2E2E2E2E2E2E2E2E2E2E2E2E2E2E2E2E2E2E2E2E2E2E2E2E2E2E2F57EF5E2E2E2E2E2E2E2E2E2E2E2E2E2E2E2E2E2
310
E2E2E2E2E2E2E2E2E2E2E20FE2E2E2E2E2E20FE2E2E2F5E2F50FBEF5E2E2E2E2E2E2F5BE0F0FE2F5E2E2E20FE2E2E2E2E2E2E20FE2E2E2E2E2E2E2E2E2E2E2E2E2E2E2E2E2E2E2E2E2E2E2E2E2E2E2E2F57EF5E2E2E2E2E2E2E2E2E2E2E2E2E2E2E2E2E2E2E2E2E2E2E2E2E2E2E2E20FE2E2E2E2E2E20FE2E2E2F5E2E20F0F
310
E2E2E2E2E2E2E2E2BE0F0F0FF5E2E2E20FE2E2E2E2E2E2E20FE2E2E2E2E2E2E2E2E2E2E2E2E2E2E2E2E2E2E2E2E2E2E2E2E2E2E2E2F57EF5E2F5E2E2E2E2E2E2E2E2E2E2E2E2E2E2E2E2E2E2E2E2E2E2E2E2E2E20FE2E2E2E2E2E20FE2E2E2F5E2E20F0FE2E2E2E2E2E2E2E2E20FE2E20FE2E2E20FE2E2E2E2E2E2E20FE2E2
310
E2E2E2E2E2E2E2E2E2E2E2E2E2E2E2E2E2E2E2E2E2E2E2E2F5E2F57EF5E2F5E2E2E2E2E2E2E2E2E2E2E2E2E2E2E2E2E2E2E2E2E2E2E2E2E2E20F0F0F0F0F0F0F0F0F0F0F0FF5F50F0FF5F5F5F5F5F5F5F5F50FF5F50F0F0F0F0F0F0F0F0F0F0F0F0FE2E2E2E2E2E2E2E2E2E2E2E2E2E2E2E2E2E2E2E2E2E2E2E2E2E2F5E2F5
310
7EF5E2F5E2E2E2E2E2E2E2E2E2E2E2E2E2E2E2E2E2E2E2E2E2E2E2E2E2E2E2E2E2E2E2E2E20FE2E20F0F0F0F0F0F0F0FE2E2E2E2E2E2E20FE2E2E20F0FE20FE2E2E2E2E2E2E2E2E2E2E2E2E2E2E2E2E2E2E2E2E2E2E2E2E2E2E2E2E2E2E2E2E2E2F5E2F57EF5E2F5E2E2E2E2E2E2E2E2E2E2E2E2E2E2E2E2E2E2E2E2E2E2E2
310
E2E2E2E2E2E2E2E2E2E20FE2E2E20FE2E20FE2E2E2E2E2E2E2E2E2E20FE2E2E20F0FE20FE2E2E2E2E2E2E2E2E2E2E2E2E2E2E2E2E2E2E2E2E2E2E2E2E2E2E2E2E2E2E2E2E2E2F5E2F57EF5E2F5E2E2E2E2E2E2E2E2E2E2E2E2E2E2E2E2E2E2E2E2E2E2E2E2E2E2E2E2E2E2E2E2E20FE2E2E2E2E2E20FE20FE2E2E2E2E2E2E2
310
0F0FE2E2E20F0FE20FE2E2E2E2E2E2E2E2E2E2E2E2E2E2E2E2E2E2E2E2E2E2E2E2E2E2E2E2E2E2E2E2E2E2F5E2F57EF5E2F5E2E2E2E2E2E2E2E2E2E2E2E2E2E2E2E2E2E2E2E2E2E2E2E2E2E2E2E2E2E2E2E2E20FE2E2E2E2E2E20F0F0F0F0F0F0F0F0F0F0F0FE2E2E2E2E2E20FE2E2E2E2E2E2E2E2E2E2E2E2E2E2E2E2E2E2
310
E2E2E2E2E2E2E2E2E2E2E2E2E2E2E2E2F5E2F57EF5E2F5E2E2E2E2E2E2E2E2E2E2E2E2E2E2E2E2E2E2E2E2E2E2E2E2E2E2E2E2E2E2E2E2E20FE2E2E2E2E2E2E2E2E2E2E20F0FE2E2E2E2E2E2E2E2E2E2E20FE2E2E2E2E2E2E2E2E2E2E2E2E2E2E2E2E2E2E2E2E2E2E2E2E2E2E2E2E2E2E2E2E2E2F5E2F57EF5E2F5E2E2E2E2
310
E2E2E2E2E2E2E2E2E2E2E2E2E2E2E2E2E2E2E2E2E2E2E2E2E2E2E2E2E20F0F0F0F0F0F0F0F0F0F0F0F0F0F0F0F0F0F0F0F0F0F0F0F0F0FE2E2E2E2E2E2E2E2E2E2E2E2E2E2E2E2E2E2E2E2E2E2E2E2E2E2E2E2E2E2E2E2E2E2F5E2F57EF5E2F5E2E2E2E2E2E2E2E2E2E2E2E2E2E2E2E2E2E2E2E2E2E2E2E2E2E2E2E2E2E2E2
310
E2E20FE2E2E2E2E2E2E2E2E2E20F0F0F0FE2E2E2E2E2E2E2E2E2E20FE2E2E2E2E2E2E2E2E2E2E2E2E2E2E2E2E2E2E2E2E2E2E2E2E2E2E2E2E2E2E2E2E2E2F5E2F57EF5E2F5E2E2E2E2E2E2E2E2E2E2E2E2E2E2E2E2E2E2E2E2E2E2E2E2E2E2E2E2E2E2E2E2E2E2E2E2E2E2E2E2E2E2E2E2E20F0F0FE2E2E2E2E2E2E2E2E2E2
310
E2E2E2E2E2E2E2E2E2E2E2E2E2E2E2E2E2E2E2E2E2E2E2E2E2E2E2E2E2E2E2E2E2E2E2F5E2F57EF5E2F5E2E2E2E2E2E2E2E2E2E2E2E2E2E2E2E2E2E2E2E2E2E2E2E2E2E2E2E2E2E2E2E2E2E2E2E2E2E2E2E2E2E2E2E2E2E2E2E2E2E2E2E2E2E2E2E2E2E2E2E2E2E2E2E2E2E2E2E2E2E2E2E2E2E2E2E2E2E2E2E2E2E2E2E2E2
310
E2E2E2E2E2E2E2E2F5E2F57EF5E2F5E2E2E2E2E2E2E2E2E2E2E2E2E2E2E2E2E2E2E2E2E2E2E2E2E2E2E2E2E2E2E2E2E2E2E2E2E2E2E2E2E2E2E2E2E2E2E2E2E2E2E2E2E2E2E2E2E2E2E2E2E2E2E2E2E2E2E2E2E2E2E2E2E2E2E2E2E2E2E2E2E2E2E2E2E2E2E2E2E2E2E2E2E2F5E2F57EF5E2F5E2E2E2E2E2E2E2E2E2E2E2E2
310
E2E2E2E2E2E2E2E2E2E2E2E2E2E2E2E2E2E2E2E2E2E2E2E2E2E2E2E2E2E2E2E2E2E2E2E2E2E2E2E2E2E2E2E2E2E2E2E2E2E2E2E2E2E2E2E2E2E2E2E2E2E2E2E2E2E2E2E2E2E2E2E2E2E2E2E2E2E2E2E2E2F5E2F57EF5E2F5E2E2E2E2E2E2E2E2E2E2E2E2E2E2E2E2E2E2E2E2E2E2E2E2E2E2E2E2E2E2E2E2E2E2E2E2E2E2E2
310
E2E2E2E2E2E2E2E2E2E2E2E2E2E2E2E2E2E2E2E2E2E2E2E2E2E2E2E2E2E2E2E2E2E2E2E2E2E2E2E2E2E2E2E2E2E2E2E2E2E2E2E2E2E2F5E2F57EF5E2F5E2E2E2E2E2E2E2E2E2E2E2E2E2E2E2E2E2E2E2E2E2E2E2E2E2E2E2E2E2E2E2E2E2E2E2E2E2E2E2E2E2E2E2E2F5F5BEF5E2E2E2E2E2E2E2E2E2E2E2E2E2E2E2E2E2E2
310
E2E2E2E2E2E2E2E2E2E2E2E2E2E2E2E2E2E2E2E2E2E2E2E2E2E2E2F5E2F57EF5E2F5E2E2E2E2E2E2E2E2E2E2E2E2E2E2E2E2E2E2E2E2E2E2E2E2E2E2E2E2E2E2E2E2E2E2E2E2E2E2E2E2E2F5F5F5E2E2BEE2F5F5F5E2E2E2E2E2E2E2E2E2E2E2E2E2E2E2E2E2E2E2E2E2E2E2E2E2E2E2E2E2E2E2E2E2E2E2E2E2E2E2E2E2E2
310
F5E2F57EF5E2F5E2E2E2E2E2E2E2E2E2E2E2E2E2E2E2E2E2E2E2E2E2E2E2E2E2E2E2E2E2E2E2E2E2E2E2E2E2E2E2E2F5E2E2E2E2E2BEE2E2E2E2F5E2E2E2E2E20F0F0F0F0FE2E2E2E2E2E2E2E2E2E2E2E2E2E2E2E2E2E2E2E2E2E2E2E2E2E2E2E2E2E2E2F5E2F57EF5E2E2E2E2E2E2E2E2E2E2E2E2E2E2E2E2E2E2E2E2E2E2
310
E2E2E2E2E2E2E2E2E2E2E2E2E2E2E2E2E2F5F5F5E2E2E2E2E2E2BEE2E2E2E2E2F5F5F5E20F0F0F0F0F0FE2E2E2E2E2E2E2E2E2E2E2E2E2E2E2E2E2E2E2E2E2E2E2E2E2E2E2E2E2E2E2E2E2F57EF5E2E2E2E2E2E2E2E2E2E2E2E2E2E2E2E2E2E2E2E2E2E2E2E2E2E2E2E2E2E2E2E2E2E2E2E2E2E2F5E2E2E2E2E2E2E2E2E2BE
310
E2E2E2E2E2E2E2E20FE2E2E2E2E2E2E2E2E2E2E2E2E2E2E2E2E2E2E2E2E2E2E2E2E2E2E2E2E2E2E2E2E2E2E2E2E2E2E2F57EF5E2E2E2E2E2E2E2E2E2E2E2E2E2E2E2E2E2E2E2E2E2E2E2E2E2E2E2E2E2E2E2E2E2E2E2E2E2E2F5E2E2E2E2E2E2E2E2E2BEE2E2E2E2E2E2E20FE2F5E2E2E2E2E2E2E2E2E2E2E2E2E2E2E2E2E2
310
E2E2E2E2E2E2E2E2E2E2E2E2E2E2E2E2E2E2E2E2E2F57EF5E2E2E2E2E2E2E2E2E2E2E2E2E2E2E2E2E2E2E2E2E2E2E2E2E2E2E2E2E2E2E2E2E2E2E2E2E2F5E2E2E2E2E2E2E2E2E2E2BEE2E2E2E2E20F0FE2E2F5E2E2E2E2E2E2E2E2E2E2E2E2E2E2E2E2E2E2E2E2E2E2E2E2E2E2E2E2E2E2E2E2E2E2E2E2E2E2F57EF5E2E2E2
310
E2E2E2E2E2E2E2E2E2E2E2E2E2E2E2E2E2E2E2E2E2E2E2E2E2E2E2E2E2E2E2E2E2E2F5E2E2E2E2E2E2E2E2F5F5BEF5E2E2E20FE2E2E2E2F5E2E2E2E2E2E2E2E2E2E2E2E2E2E2E2E2E2E2E2E2E2E2E2E2E2E2E2E2E2E2E2E2E2E2E2E2E2E2F57EF5E2E2E2E2E2E2E2E2E2E2E2E2E2E2E2E2E2E2E2E2E2E2E2E2E2E2E2E2E2E2
310
E2E2E2E2E2E2F5E2E2E2E2E2E2E2F5F5E2F5BEE2F5F50FE2E2E2E2E2E2F5E2E2E2E2E2E2E2E2E2E2E2E2E2E2E2E2E2E2E2E2E2E2E2E2E2E2E2E2E2E2E2E2E2E2E2E2E2F57EF5E2E2E2E2E2E2E2E2E2E2E2E2E2E2E2E2E2E2E2E2E2E2E2E2E2E2E2E2E2E2E2E2E2E2E2E2F5E2E2E2E2E2E2F5E2E2BEBEBEBEBE0FF5E2E2E2E2
310
E2E2E2F5E2E2E2E2E2E2E2E2E2E2E2E2E2E2E2E2E2E2E2E2E2E2E2E2E2E2E2E2E2E2E2E2E2E2E2E2F57EF5E2E2E2E2E2E2E2E2E2E2E2E2E2E2E2E2E2E2E2E2E2E2E2E2E2E2E2E2E2E2E2E2E2E2E2F5E2E2E2E2E2E2F5E2E2E2F5F5BEF50F0FE2F5E2E2E2E2E2E2F5E2E2E2E2E2E2E2E2E2E2E2E2E2E2E2E2E2E2E2E2E2E2E2
310
E2E2E2E2E2E2E2E2E2E2E2E2E2F57EF5E2E2E2E2E2E2E2E2E2E2E2E2E2E2E2E2E2E2E2E2E2E2E2E2E2E2E2E2E2E2E2E2E2E2E2F5E2E2E2E2E2E2F5E2BEF5E2E2BEE20FE2BEF5E2E2E2E2E2E2F5E2E2E2E2E2E2E2E2E2E2E2E2E2E2E2E2E2E2E2E2E2E2E2E2E2E2E2E2E2E2E2E2E2E2E2E2F57EF5E2E2E2E2E2E2E2E2E2E2E2
310
E2E2E2E2E2E2E2E2E2E2E2E2E2E2E2E2E2E2E2E2E2E2E2E2F5E2E2E2E2E2E2F5F5BEF5E2E2BEE2F5F5BEF5E2E2E2E2E2E2F5E2E2E2E2E2E2E2E2E2E2E2E2E2E2E2E2E2E2E2E2E2E2E2E2E2E2E2E2E2E2E2E2E2E2E2E2F57EF5E2F5E2E2E2E2E2E2E2E2E2E2E2E2E2E2E2E2E2E2E2E2E2E2E2E2E2E2E2E2E2E2E2E2BEBEBEBE
310
BEBEBEBEBEBEBEBEBEBE0FBEBEBEBEBEBEBEBEBEBEBEBE0F0F0F0FE2E2E2E2E2E2E2E2E2E2E2E2E2E2E2E2E2E2E2E2E2E2E2E2E2E2E2E2E2E2F5E2F57EF5E2F5E2E2E2E2E2E2E2E2E2E2E2E2E2E2E2E2E2E2E2E2E2E2E2E2E2E2E2E2E2E2E2E2E2F5E2E2E2E2E2E2F5F5BEF5E2E2BEE2F5F5BEF5E2E2E2E2E2E2F5E2E2E20F
310
E2E2E2E2E2E2E2E2E2E2E2E2E2E2E2E2E2E2E2E2E2E2E2E2E2E2E2E2E2E2F5E2F57EF5E2F5E2E2E2E2E2E2E2E2E2E2E2E2E2E2E2E2E2E2E2E2E2E2E2E2E2E2E2E2E2E2E2E2E2F5E2E2E2E2E2E2F5E2BEF5F5F5BEF5F5E2BEF5E2E2E2E2E2E2F5E2E2E20FE2E2E2E2E2E2E2E2E2E2E2E2E2E2E2E2E2E2E2E2E2E2E2E2E2E2E2
310
E2E2E2F5E2F57EF5E2F5E2E2E2E2E2E2E2E2E2E2E2E2E2E2E2E2E2E2E2E2E2E2E2E2E2E2E2E2E2E2E2E2E2E2F5E2E2E2E2F5E2E2E2E2E2F5BEE2E2E2E2E2F5E2E2E2E2E2F5E2E2E20FE2E2E2E2E2E2E2E2E2E2E2E2E2E2E2E2E2E2E2E2E2E2E2E2E2E2E2E2E2E2F5E2F57EF5E2F5E2E2E2E2E2E2E2E2E2E2E2E2E2E2E2E2E2
310
E2E2E2E2E2E2E2E2E2E2E2E2E2E2E2E2E2F5E2E2E2E2F5E2E2E2E2BEBEBEBEBEE2E2E2F5E2E2E2E2F5E2E2E2E20FE2E2E2E2E2E2E2E2E2E2E2E2E2E2E2E2E2E2E2E2E2E2E2E2E2E2E2E2E2E2F5E2F57EF5E2F5E2E2E2E2E2E2E2E2E2E2E2E2E2E2E2E2E2E2E2E2E2E2E2E2E2E2E2E2E2E2E2E2E2E2F5E2E2E2E2F5E2E2E2E2
310
E2E2BEE2E2E2E2E2F5E2E2E2E2F5E2E2E2E20FE2E2E2E2E2E2E2E2E2E2E2E2E2E2E2E2E2E2E2E2E2E2E2E2E2E2E2E2E2E2F5E2F57EF5E2F5E2E2E2E2E2E2E2E2E2E2E2E2E2E2E2E2E2E2E2E2E2E2E2E2E2E2E2E2E2E2E2E2E2E2E2F5E2E2E2F5E2E2E2E2E2E2BEE2E2E2E2E2F5E2E2E2E2F5E2E2E2E20FE2E2E2E2E2E2E2E2
310
E2E2E2E2E2E2E2E2E2E2E2E2E2E2E2E2E2E2E2E2E2E2F5E2F57EF5E2F5E2E2E2E2E2E2E2E2E2E2E2E2E2E2E2E2E2E2E2E2E2E2E2E2E2E2E2E2E2E2E2E2E2E2E2F5E2E2E2F5E2E2E2E2E2E2BEE2E2E2E2E2F5E2E2E2F5E2E2E2E2E20FE2E2E2E2E2E2E2E2E2E2E2E2E2E2E2E2E2E2E2E2E2E2E2E2E2E2E2E2E2E2F5E2F57EF5
310
E2F5E2E2E2E2E2E2E2E2E2E2E2E2E2E2E2E2E2E2E2E2E2E2E2E2E2E2E2E2E2E2E2E2E2E2E2E2F5E2E2F5E2E2E2E2E2E2BEE2E2E2E2E2F5E2E2F5E2E2E2E2E20F0FE2E2E2E2E2E2E2E2E2E2E2E2E2E2E2E2E2E2E2E2E2E2E2E2E2E2E2E2E2E2F5E2F57EF5E2F5E2E2E2E2E2E2E2E2E2E2E2E2E2E2E2E2E2E2E2E2E2E2E2E2E2
310
E2E2E2E2E2E2E2E2E2E2E2E2F5F5E2E2E2E2E2E2E2BEE2E2E2E2E2E2F5F5E2E2E2E2E2E20F0FE2E2E2E2E2E2E2E2E2E2E2E2E2E2E2E2E2E2E2E2E2E2E2E2E2E2E2E2E2E2F5E2F57EF5E2F5E2E2E2E2E2E2E2E2E2E2E2E2E2E2E2E2E2E2E2E2E2E2E2E2E2E2E2E2E2E2E2E2E2E2E2E2E2E2F5E2E2E2E2E2E2E2BEE2E2E2E2E2
310
E2F5E2E2E2E2E2E2E20F0FE2E2E2E2E2E2E2E2E2E2E2E2E2E2E2E2E2E2E2E2E2E2E2E2E2E2E2E2E2E2F5E2F57EF5E2F5E2E2E2E2E2E2E2E2E2E2E2E2E2E2E2E2E2E2E2E2E2E2E2E2E2E2E2E2E2E2E2E2E2E2E2E2E2E2F5E2E2E2E2E2E2E2BEE2E2E2E2E2E2F5E2E2E2E2E2E2E2E20FE2E2E2E2E2E2E2E2E2E2E2E2E2E2E2E2
310
E2E2E2E2E2E2E2E2E2E2E2E2E2E2F5E2F57EF5E2F5E2E2E2E2E2E2E2E2E2E2E2E2E2E2E2E2E2E2E2E2E2E2E2E2E2E2E2E2E2E2E2E2E2E2E2E2E2E2F5E2E2E2E2E2E2E2BEE2E2E2E2E2E2F5E2E2E2E2E2E2E2E20FE2E2E2E2E2E2E2E2E2E2E2E2E2E2E2E2E2E2E2E2E2E2E2E2E2E2E2E2E2E2F5E2F57EF5E2F5E2E2E2E2E2E2
310
E2E2E2E2E2E2E2E2E2E2E2E2E2E2E2E2E2E2E2E2E2E2E2E2E2E2E2E2E2E2E2E2F5E2E2E2E2E2E2E2BEE2E2E2E2E2E2F5E2E2E2E2E2E2E2E20FE2E2E2E2E2E2E2E2E2E2E2E2E2E2E2E2E2E2E2E2E2E2E2E2E2E2E2E2E2E2F5E2F57EF5E2F5E2E2E2E2E2E2E2E2E2E2E2E2E2E2E2E2E2E2E2E2E2E2E2E2E2E2E2E2E2E2E2E2E2
310
E2E2E2E2E2F5E2E2E2E2E2E2E2E2E2E2E2E2E2E2F5E2E2E2E20F0FE2E20FE2E2E2E2E2E2E2E2E2E2E2E2E2E2E2E2E2E2E2E2E2E2E2E2E2E2E2E2E2E2F5E2F57EF5E2F5E2E2E2E2E2E2E2E2E2E2E2E2E2E2E2E2E2E2E2E2E2E2E2E2E2E2E2E2E2E2E2E2E2E2E2E2E2F5E2E2E2E2E2E2E2E2E2E2E2E2E2E2E2E2F5E2E2E20F0F
310
E2E20FE2E2E2E2E2E2E2E2E2E2E2E2E2E2E2E2E2E2E2E2E2E2E2E2E2E2E2E2E2E2F5E2F57EF5E2F5E2E2E2E2E2E2E2E2E2E2E2E2E2E2E2E2E2E2E2E2E2E2E2E2E2E2E2E2E2E2E2E2E2E2E2E2E2F5E2E2E2E2E2E2E2E2E2E2E2E2E2E2E2E2F5E2E2E2E20F0FE20FE2E2E2E2E2E2E2E2E2E2E2E2E2E2E2E2E2E2E2E2E2E2E2E2
310
E2E2E2E2E2E2F5E2F57EF5E2E2E2E2E2E2E2E2E2E2E2E2E2E2E2E2E2E2E2E2E2E2E2E2E2E2E2E2E2E2E2E2E2E2E2E2E2E2E2F5F5F5F5F5F5F5F5F5F5F5F5F5F5F5F5F5F5E2E2E2E20F0FE20FE2E2E2E2E2E2E2E2E2E2E2E2E2E2E2E2E2E2E2E2E2E2E2E2E2E2E2E2E2E2E2E2F57EF5E2E2E2E2E2E2E2E2E2E2E2E2E2E2E2E2
310
E2E2E2E2E2E2E2E2E2E2E2E2E2E2E2E2E2E2E2E2E2E2E2F5F5F5F5F5F5F5F5F5F5F5F5F5F5F5F5F50F0F0F0F0F0F0F0F0FE2E2E2E2E2E2E2E2E2E2E2E2E2E2E2E2E2E2E2E2E2E2E2E2E2E2E2E2E2E2E2E2F57EF5E2E2E2E2E2E2E2E2E2E2E2E2E2E2E2E2E2E2E2E2E2E2E2E2E2E2E2E2E2E2E2E2E2E2E2E2E2E2E2E2E2E2E2
310
E2E2E2E2E2E2E2E2E2E2E2E2E2E2E2E2E2E20F0FE2E2E2E2E2E2E2E2E2E2E2E2E2E2E2E2E2E2E2E2E2E2E2E2E2E2E2E2E2E2E2E2E2E2F57EF5E2E2E2E2E2E2E2E2E2E2E2E2E2E2E2E2E2E2E2E2E2E2E2E2E2E2E2E2E2E2E2E2E2E2E2E2E2E2E2E2E2E2E2E2E2E2E2E2E2E2E2E2E2E2E2E2E2E2E2E2E20FE2E2E2E2E2E2E2E2
310
E2E2E2E2E2E2E2E2E2E2E2E2E2E2E2E2E2E2E2E2E2E2E2E2E2E2E2F57EF5E2E2E2E2E2E2E2E2E2E2E2E2E2E2E2E2E2E2E2E2E2E2E2E2E2E2E2E2E2E2E2E2E2E2E2E2E2E2E2E2E2E2E2E2E2E2E2E2E2E2E2E2E2E2E2E2E2E2E2E2E2E2E2E2E2E2E2E2E2E2E2E2E2E2E2E2E2E2E2E2E2E2E2E2E2E2E2E2E2E2E2E2E2E2E2E2E2
310
F57EF5E2E2E2E2E2E2E2E2E2E2E2E2E2E2E2E2E2E2E2E2E2E2E2E2E2E2E2E2E2E2E2E2E2E2E2E2E2E2E2E2E2E2E2E2E2E2E2E2E2E2E2E2E2E2E2E2E2E2E2E2E2E2E2E2E2E2E2E2E2E2E2E2E2E2E2E2E2E2E2E2E2E2E2E2E2E2E2E2E2E2E2E2E2E2E2E2E2F57EF5E2E2E2E2E2E2E2E2E2E2E2E2E2E2E2E2E2E2E2E2E2E2E2E2
310
E2E2E2E2E2E2E2E2E2E2E2E2E2E2E2E2E2E2E2E2E2E2E2E2E2E2E2E2E2E2E2E2E2E2E2E2E2E2E2E2E2E2E2E2E2E2E2E2E2E2E2E2E2E2E2E2E2E2E2E2E2E2E2E2E2E2E2E2E2E2E2E2E2F57EF5E2E2E2E2E2E2E2E2E2E2E2E2E2E2E2E2E2E2E2E2E2E2E2E2E2E2E2E2E2E2E2E2E2E2E2E2E2E2E2E2E2E2E2E2E2E2E2E2E2E2E2
310
E2E2E2E2E2E2E2E2E2E2E2E2E2E2E2E2E2E2E2E2E2E2E2E2E2E2E2E2E2E2E2E2E2E2E2E2E2E2E2E2E2E2E2E2E2E2F57EF5E2E2E2E2E2E2E2E2E2E2E2E2E2E2E2E2E2E2E2E2E2E2E2E2E2E2E2E2E2E2E2E2E2E2E2E2E2E2E2E2E2E2E2E2E2E2E2E2E2E2E2E2E2E2E2E2E2E2E2E2E2E2E2E2E2E2E2E2E2E2E2E2E2E2E2E2E2E2
310
E2E2E2E2E2E2E2E2E2E2E2E2E2E2E2E2E2E2E2F57EF5E2E2E2E2E2E2E2E2E2E2E2E2E2E2E2E2E2E2E2E2E2E2E2E2E2E2E2E2E2E2E2E2E2E2E2E2E2E2E2E2E2E2E2E2E2E2E2E2E2E2E2E2E2E2E2E2E2E2E2E2E2E2E2E2E2E2E2E2E2E2E2E2E2E2E2E2E2E2E2E2E2E2E2E2E2E2E2E2E2E2E2E2E2E2E2E2E2F57EF5E2F5E2E2E2
310
E2E2E2E2E2E2E2E2E2E2E2E2E2E2E2E2E2E2E2E2E2E2E2E2E2E2E2E2E2E2E2E2E2E2E2E2E2E2E2E2E2E2E2E2E2E2E2E2E2E2E2E2E2E2E2E2E2E2E2E2E2E2E2E2E2E2E2E2E2E2E2E2E2E2E2E2E2E2E2E2E2E2E2E2E2E2E2E2E2E2F5E2F57EF5E2F5E2E2E2E2E2E2E2E2E2E2E2E2E2E2E2E2E2E2E2E2E2E2E2E2E2E2E2E2E2E2
310
E2E2E2E2E2E2E2E2E2E2E2E2E2E2E2E2E2E2E2E2E2E2E2E2E2E2E2E2E2E2E2E2E2E2E2E2E2E2E2E2E2E2E2E2E2E2E2E2E2E2E2E2E2E2E2E2E2E2E2E2E2E2E2F5E2F57EF5E2F5E2E2E2E2E2E2E2E2E2E2E2E2E2E2E2E2E2E2E2E2E2E2E2E2E2E2E2E2E2E2E2E2E2E2E2E2E2E2E2E2E2E2E2E2E2E2E2E2E2E2E2E2E2E2E2E2E2
310
E2E2E2E2E2E2E2E2E2E2E2E2E2E2E2E2E2E2E2E2E2E2E2E2E2E2E2E2E2E2E2E2E2E2E2E2F5E2F57EF5E2F5E2E2E2E2E2E2E2E2E2E2E2E2E2E2E2E2E2E2E2E2E2E2E2E2E2E2E2E2E2E2E2E2E2E2E2E2E2E2E2E2E2E2E2E2E2E2E2E2E2E2E2E2E2E2E2E2E2E2E2E2E2E2E2E2E2E2E2E2E2E2E2E2E2E2E2E2E2E2E2E2E2E2E2E2
310
E2E2E2E2E2E2E2E2E2F5E2F57EF5E2F5E2E2E2E2E2E2E2E2E2E2E2E2E2E2E2E2E2E2E2E2E2E2E2E2E2E2E2E2E2E2E2E2E2E2E2E2E2E2E2E2E2E2E2E2E2E2E2E2E2E2E2E2E2E2E2E2E2E2E2E2E2E2E2E2E2E2E2E2E2E2E2E2E2E2E2E2E2E2E2E2E2E2E2E2E2E2E2E2E2E2E2E2E2F5E2F57EF5E2F5E2E2E2E2E2E2E2E2E2E2E2
310
E2E2E2E2E2E2E2E2E2E2E2E2E2E2E2E2E2E2E2E2E2E2E2E2E2E2E2E2E2E2E2E2E2E2E2E2E2E2E2E2E2E2E2E2E2E2E2E2E2E2E2E2E2E2E2E2E2E2E2E2E2E2E2E2E2E2E2E2E2E2E2E2E2E2E2E2E2E2E2E2E2E2F5E2F57EF5E2F5E2E2E2E2E2E2E2E2E2E2E2E2E2E2E2E2E2E2E2E2E2E2E2E2E2E2E2E2E2E2E2E2E2E2E2E2E2E2
310
E2E2E2E2E2E2E2E2E2E2E2E2E2E2E2E2E2E2E2E2E2E2E2E2E2E2E2E2E2E2E2E2E2E2E2E2E2E2E2E2E2E2E2E2E2E2E2E2E2E2E2E2E2E2E2F5E2F57EF5E2F5E2E2E2E2E2E2E2E2E2E2E2E2E2E2E2E2E2E2E2E2E2E2E2E2E2E2E2E2E2E2E2E2E2E2E2E2E2E2E2E2E2E2E2E2E2E2E2E2E2E2E2E2E2E2E2E2E2E2E2E2E2E2E2E2E2
310
E2E2E2E2E2E2E2E2E2E2E2E2E2E2E2E2E2E2E2E2E2E2E2E2E2E2E2E2F5E2F57EF5E2F5F5F5F5F5F5F5F5E2E2E2E2E2E2E2E2F5F5F5F5F5F5F5F5F5F5F5F5F5F5F5F5E2E2E2E2E2E2E2E2F5F5F5F5F5F5F5F5F5F5F5F5F5F5F5E2E2E2E2E2E2E2E2F5F5F5F5F5F5F5F5F5F5F5F5F5F5F5F5E2E2E2E2E2E2E2E2F5F5F5F5F5F5
310
F5F5E2F57EF5E2E2E2E2E2E2E2E2E2E2E2E2E2E2E2E2E2E2E2E2E2E2E2E2E2E2E2E2E2E2E2E2E2E2E2E2E2E2E2E2E2E2E2E2E2E2E2E2E2E2E2E2E2E2E2E2E2E2E2E2E2E2E2E2E2E2E2E2E2E2E2E2E2E2E2E2E2E2E2E2E2E2E2E2E2E2E2E2E2E2E2E2E2E2E2E2E2F57EF5F5F5F5F5F5F5F5F5F5F5F5F5F5F5F5F5F5F5F5F5F5
310
F5F5F5F5F5F5F5F5F5F5F5F5F5F5F5F5F5F5F5F5F5F5F5F5F5F5F5F5F5F5F5F5F5F5F5F5F5F5F5F5F5F5F5F5F5F5F5F5F5F5F5F5F5F5F5F5F5F5F5F5F5F5F5F5F5F5F5F5F5F5F5F5F5F5F5F5F57E
  0
ENDSEC
  0
EOF
