  0
SECTION
  2
HEADER
  9
$ACADVER
  1
AC1015
  9
$ACADMAINTVER
 70
    20
  9
$DWGCODEPAGE
  3
ANSI_950
  9
$INSBASE
 10
0.0
 20
0.0
 30
0.0
  9
$EXTMIN
 10
93.52203477816898
 20
104.3879522901229
 30
-0.0058069244264516
  9
$EXTMAX
 10
397.0056161854948
 20
394.8163414652615
 30
190.3016256141528
  9
$LIMMIN
 10
0.0
 20
0.0
  9
$LIMMAX
 10
420.0
 20
297.0
  9
$ORTHOMODE
 70
     1
  9
$REGENMODE
 70
     1
  9
$FILLMODE
 70
     1
  9
$QTEXTMODE
 70
     0
  9
$MIRRTEXT
 70
     1
  9
$LTSCALE
 40
1.0
  9
$ATTMODE
 70
     1
  9
$TEXTSIZE
 40
3.0
  9
$TRACEWID
 40
1.0
  9
$TEXTSTYLE
  7
STANDARD
  9
$CLAYER
  8
0
  9
$CELTYPE
  6
ByLayer
  9
$CECOLOR
 62
   256
  9
$CELTSCALE
 40
1.0
  9
$DISPSILH
 70
     0
  9
$DIMSCALE
 40
1.0
  9
$DIMASZ
 40
3.0
  9
$DIMEXO
 40
1.5
  9
$DIMDLI
 40
8.0
  9
$DIMRND
 40
0.0
  9
$DIMDLE
 40
0.0
  9
$DIMEXE
 40
1.5
  9
$DIMTP
 40
0.1
  9
$DIMTM
 40
0.1
  9
$DIMTXT
 40
3.5
  9
$DIMCEN
 40
0.0
  9
$DIMTSZ
 40
0.0
  9
$DIMTOL
 70
     0
  9
$DIMLIM
 70
     0
  9
$DIMTIH
 70
     0
  9
$DIMTOH
 70
     0
  9
$DIMSE1
 70
     0
  9
$DIMSE2
 70
     0
  9
$DIMTAD
 70
     1
  9
$DIMZIN
 70
     8
  9
$DIMBLK
  1

  9
$DIMASO
 70
     1
  9
$DIMSHO
 70
     1
  9
$DIMPOST
  1

  9
$DIMAPOST
  1
"
  9
$DIMALT
 70
     0
  9
$DIMALTD
 70
     2
  9
$DIMALTF
 40
0.0393701
  9
$DIMLFAC
 40
1.0
  9
$DIMTOFL
 70
     1
  9
$DIMTVP
 40
0.0
  9
$DIMTIX
 70
     0
  9
$DIMSOXD
 70
     0
  9
$DIMSAH
 70
     0
  9
$DIMBLK1
  1

  9
$DIMBLK2
  1

  9
$DIMSTYLE
  2
AM_ISO
  9
$DIMCLRD
 70
   256
  9
$DIMCLRE
 70
   256
  9
$DIMCLRT
 70
   256
  9
$DIMTFAC
 40
0.71
  9
$DIMGAP
 40
1.5
  9
$DIMJUST
 70
     0
  9
$DIMSD1
 70
     0
  9
$DIMSD2
 70
     0
  9
$DIMTOLJ
 70
     0
  9
$DIMTZIN
 70
     8
  9
$DIMALTZ
 70
     0
  9
$DIMALTTZ
 70
     0
  9
$DIMUPT
 70
     0
  9
$DIMDEC
 70
     2
  9
$DIMTDEC
 70
     2
  9
$DIMALTU
 70
     2
  9
$DIMALTTD
 70
     2
  9
$DIMTXSTY
  7
STANDARD
  9
$DIMAUNIT
 70
     0
  9
$DIMADEC
 70
     0
  9
$DIMALTRND
 40
0.0
  9
$DIMAZIN
 70
     2
  9
$DIMDSEP
 70
    46
  9
$DIMATFIT
 70
     3
  9
$DIMFRAC
 70
     0
  9
$DIMLDRBLK
  1

  9
$DIMLUNIT
 70
     2
  9
$DIMLWD
 70
    -1
  9
$DIMLWE
 70
    -1
  9
$DIMTMOVE
 70
     0
  9
$LUNITS
 70
     2
  9
$LUPREC
 70
     2
  9
$SKETCHINC
 40
1.0
  9
$FILLETRAD
 40
2.5
  9
$AUNITS
 70
     0
  9
$AUPREC
 70
     0
  9
$MENU
  1
.
  9
$ELEVATION
 40
0.0
  9
$PELEVATION
 40
0.0
  9
$THICKNESS
 40
0.0
  9
$LIMCHECK
 70
     0
  9
$CHAMFERA
 40
2.5
  9
$CHAMFERB
 40
2.5
  9
$CHAMFERC
 40
20.0
  9
$CHAMFERD
 40
0.0
  9
$SKPOLY
 70
     0
  9
$TDCREATE
 40
2453883.427657697
  9
$TDUCREATE
 40
2453883.094324364
  9
$TDUPDATE
 40
2453883.464387477
  9
$TDUUPDATE
 40
2453883.131054143
  9
$TDINDWG
 40
0.0367308565
  9
$TDUSRTIMER
 40
0.0367308565
  9
$USRTIMER
 70
     1
  9
$ANGBASE
 50
0.0
  9
$ANGDIR
 70
     0
  9
$PDMODE
 70
     0
  9
$PDSIZE
 40
0.0
  9
$PLINEWID
 40
0.0
  9
$SPLFRAME
 70
     0
  9
$SPLINETYPE
 70
     6
  9
$SPLINESEGS
 70
     8
  9
$HANDSEED
  5
8A9
  9
$SURFTAB1
 70
     6
  9
$SURFTAB2
 70
     6
  9
$SURFTYPE
 70
     6
  9
$SURFU
 70
     6
  9
$SURFV
 70
     6
  9
$UCSBASE
  2

  9
$UCSNAME
  2

  9
$UCSORG
 10
0.0
 20
0.0
 30
0.0
  9
$UCSXDIR
 10
1.0
 20
0.0
 30
0.0
  9
$UCSYDIR
 10
0.0
 20
1.0
 30
0.0
  9
$UCSORTHOREF
  2

  9
$UCSORTHOVIEW
 70
     0
  9
$UCSORGTOP
 10
0.0
 20
0.0
 30
0.0
  9
$UCSORGBOTTOM
 10
0.0
 20
0.0
 30
0.0
  9
$UCSORGLEFT
 10
0.0
 20
0.0
 30
0.0
  9
$UCSORGRIGHT
 10
0.0
 20
0.0
 30
0.0
  9
$UCSORGFRONT
 10
0.0
 20
0.0
 30
0.0
  9
$UCSORGBACK
 10
0.0
 20
0.0
 30
0.0
  9
$PUCSBASE
  2

  9
$PUCSNAME
  2

  9
$PUCSORG
 10
0.0
 20
0.0
 30
0.0
  9
$PUCSXDIR
 10
1.0
 20
0.0
 30
0.0
  9
$PUCSYDIR
 10
0.0
 20
1.0
 30
0.0
  9
$PUCSORTHOREF
  2

  9
$PUCSORTHOVIEW
 70
     0
  9
$PUCSORGTOP
 10
0.0
 20
0.0
 30
0.0
  9
$PUCSORGBOTTOM
 10
0.0
 20
0.0
 30
0.0
  9
$PUCSORGLEFT
 10
0.0
 20
0.0
 30
0.0
  9
$PUCSORGRIGHT
 10
0.0
 20
0.0
 30
0.0
  9
$PUCSORGFRONT
 10
0.0
 20
0.0
 30
0.0
  9
$PUCSORGBACK
 10
0.0
 20
0.0
 30
0.0
  9
$USERI1
 70
     0
  9
$USERI2
 70
     0
  9
$USERI3
 70
     0
  9
$USERI4
 70
     0
  9
$USERI5
 70
     0
  9
$USERR1
 40
0.0
  9
$USERR2
 40
0.0
  9
$USERR3
 40
0.0
  9
$USERR4
 40
0.0
  9
$USERR5
 40
0.0
  9
$WORLDVIEW
 70
     1
  9
$SHADEDGE
 70
     3
  9
$SHADEDIF
 70
    70
  9
$TILEMODE
 70
     1
  9
$MAXACTVP
 70
    64
  9
$PINSBASE
 10
0.0
 20
0.0
 30
0.0
  9
$PLIMCHECK
 70
     0
  9
$PEXTMIN
 10
1.000000000000000E+20
 20
1.000000000000000E+20
 30
1.000000000000000E+20
  9
$PEXTMAX
 10
-1.000000000000000E+20
 20
-1.000000000000000E+20
 30
-1.000000000000000E+20
  9
$PLIMMIN
 10
0.0
 20
0.0
  9
$PLIMMAX
 10
420.0
 20
297.0
  9
$UNITMODE
 70
     0
  9
$VISRETAIN
 70
     1
  9
$PLINEGEN
 70
     0
  9
$PSLTSCALE
 70
     1
  9
$TREEDEPTH
 70
  3020
  9
$CMLSTYLE
  2
Standard
  9
$CMLJUST
 70
     0
  9
$CMLSCALE
 40
20.0
  9
$PROXYGRAPHICS
 70
     1
  9
$MEASUREMENT
 70
     1
  9
$CELWEIGHT
370
    -1
  9
$ENDCAPS
280
     0
  9
$JOINSTYLE
280
     0
  9
$LWDISPLAY
290
     0
  9
$INSUNITS
 70
     4
  9
$HYPERLINKBASE
  1

  9
$STYLESHEET
  1
彩色出圖.ctb
  9
$XEDIT
290
     1
  9
$CEPSNTYPE
380
     0
  9
$PSTYLEMODE
290
     1
  9
$FINGERPRINTGUID
  2
{50FD4B7E-3F03-4D85-A6A6-E7CDFF340888}
  9
$VERSIONGUID
  2
{26FF0F86-8076-4C4D-B6DD-01B4AA7DA4B8}
  9
$EXTNAMES
290
     1
  9
$PSVPSCALE
 40
0.0
  9
$OLESTARTUP
290
     0
  0
ENDSEC
  0
SECTION
  2
CLASSES
  0
CLASS
  1
ACDBDICTIONARYWDFLT
  2
AcDbDictionaryWithDefault
  3
ObjectDBX Classes
 90
        0
280
     0
281
     0
  0
CLASS
  1
ACDBPLACEHOLDER
  2
AcDbPlaceHolder
  3
ObjectDBX Classes
 90
        0
280
     0
281
     0
  0
CLASS
  1
LAYOUT
  2
AcDbLayout
  3
ObjectDBX Classes
 90
        0
280
     0
281
     0
  0
CLASS
  1
ACME_DOCUMENT
  2
AcMeDbDoc
  3
AcMeServices
 90
        0
280
     0
281
     0
  0
CLASS
  1
AMGSETTINGSOBJ
  2
AmgSettingsObj
  3
"AcadM|Product Description: AutoCAD Mechanical 2000|Company: Autodesk"
 90
        0
280
     0
281
     0
  0
CLASS
  1
ACMESCOPE
  2
AcMeScope
  3
AcMeServices
 90
        0
280
     0
281
     0
  0
CLASS
  1
ACMECOMMANDHISTORY
  2
AcMeCommandHistory
  3
AcMeServices
 90
        0
280
     0
281
     0
  0
CLASS
  1
ACIMSYSVARMAN
  2
AcImSysVarManager
  3
AcMeServices
 90
        0
280
     0
281
     0
  0
CLASS
  1
ACIMREALSYSVAR
  2
AcImRealSysVar
  3
AcMeServices
 90
        0
280
     0
281
     0
  0
CLASS
  1
ACIMINTSYSVAR
  2
AcImIntSysVar
  3
AcMeServices
 90
        0
280
     0
281
     0
  0
CLASS
  1
ACMEDRAWINGMAN
  2
AcMeDrawingMan
  3
AcMeServices
 90
        0
280
     0
281
     0
  0
CLASS
  1
ACMEVIEW
  2
AcMeView
  3
AcMeServices
 90
        0
280
     0
281
     0
  0
CLASS
  1
ACDBENTITYCACHE
  2
AcMeEntityCache
  3
AcMeServices
 90
        0
280
     0
281
     0
  0
CLASS
  1
GSMANAGER
  2
AcMeGSManager
  3
AcMeServices
 90
        0
280
     0
281
     0
  0
CLASS
  1
AMDTINTERNALREACTOR
  2
AmdtInternalReactor
  3
AcMeServices
 90
        0
280
     0
281
     0
  0
CLASS
  1
ACMESTATEMGR
  2
AcMeStateMgr
  3
AcMeServices
 90
        0
280
     0
281
     0
  0
CLASS
  1
ACGREFMASTER
  2
AcGrefMaster
  3
AcAttribServices
 90
        0
280
     0
281
     0
  0
CLASS
  1
ACME_DATABASE
  2
AcMeDbDatabase
  3
AcMeServices
 90
        0
280
     0
281
     0
  0
CLASS
  1
ACRFINSADJUSTERMGR
  2
AcRfInsAdjusterMgr
  3
AcMeServices
 90
        0
280
     0
281
     0
  0
CLASS
  1
ACGREFACADMASTER
  2
AcGrefacadMaster
  3
AcGrefServices
 90
        0
280
     0
281
     0
  0
CLASS
  1
AMIMASTER
  2
AmiMaster
  3
AmiServices
 90
        0
280
     0
281
     0
  0
CLASS
  1
ACMDATADICTIONARY
  2
AcmDataDictionary
  3
"AcmSymBB|Product Description: AutoCAD Mechanical 2004 DX|Company: Autodesk"
 90
        0
280
     0
281
     0
  0
CLASS
  1
ACMDATAENTRYBLOCK
  2
AcmDataEntryBlock
  3
"AcmSymBB|Product Description: AutoCAD Mechanical 2004 DX|Company: Autodesk"
 90
        0
280
     0
281
     0
  0
CLASS
  1
ACIMSTRSYSVAR
  2
AcImStrSysVar
  3
AcMeServices
 90
        0
280
     0
281
     0
  0
CLASS
  1
ACMSTANDARDISO
  2
AcmStandardISO
  3
"Amdt_StdImp|Product Description: AutoCAD Mechanical 2004 DX|Company: Autodesk"
 90
        0
280
     0
281
     0
  0
CLASS
  1
AMGOBJPROPCFG
  2
AmgObjPropCfg
  3
"AmgLay|Product Description: AutoCAD Mechanical 2000|Company: Autodesk"
 90
        1
280
     0
281
     0
  0
CLASS
  1
AMDTEDGESTANDARDISO
  2
AmdtEdgeStdISO
  3
"Amdt_StdImp|Product Description: AutoCAD Mechanical 2004 DX|Company: Autodesk"
 90
        0
280
     0
281
     0
  0
CLASS
  1
ACMSURFSTANDARDISO
  2
AcmSurfTextStdISO
  3
"Amdt_StdImp|Product Description: AutoCAD Mechanical 2004 DX|Company: Autodesk"
 90
        0
280
     0
281
     0
  0
CLASS
  1
ACMFCFSTANDARDISO
  2
AcmFCFStdISO
  3
"Amdt_StdImp|Product Description: AutoCAD Mechanical 2004 DX|Company: Autodesk"
 90
        0
280
     0
281
     0
  0
CLASS
  1
ACMWELDSTANDARDISO
  2
AcmWeldingStdISO
  3
"Amdt_StdImp|Product Description: AutoCAD Mechanical 2004 DX|Company: Autodesk"
 90
        0
280
     0
281
     0
  0
CLASS
  1
ACMIDSTANDARDISO
  2
AcmIdStdISO
  3
"Amdt_StdImp|Product Description: AutoCAD Mechanical 2004 DX|Company: Autodesk"
 90
        0
280
     0
281
     0
  0
CLASS
  1
ACMDATUMSTANDARDISO
  2
AcmDatumStdISO
  3
"Amdt_StdImp|Product Description: AutoCAD Mechanical 2004 DX|Company: Autodesk"
 90
        0
280
     0
281
     0
  0
CLASS
  1
ACMBOMSTANDARDISO
  2
AcmBOMStdISO
  3
"Amdt_StdImp|Product Description: AutoCAD Mechanical 2004 DX|Company: Autodesk"
 90
        0
280
     0
281
     0
  0
CLASS
  1
ACMDETAILSTANDARDISO
  2
AmdtDetailSymStdISO
  3
"Amdt_StdImp|Product Description: AutoCAD Mechanical 2004 DX|Company: Autodesk"
 90
        0
280
     0
281
     0
  0
CLASS
  1
ACMSECTIONSTANDARDISO
  2
AmdtSectionSymStdISO
  3
"Amdt_StdImp|Product Description: AutoCAD Mechanical 2004 DX|Company: Autodesk"
 90
        0
280
     0
281
     0
  0
CLASS
  1
ACMCENTERLINESTANDARDISO
  2
AmdtCenterLineStdISO
  3
"Amdt_StdImp|Product Description: AutoCAD Mechanical 2004 DX|Company: Autodesk"
 90
        0
280
     0
281
     0
  0
CLASS
  1
ACMNOTESTANDARDISO
  2
AmdtNoteStdISO
  3
"Amdt_StdImp|Product Description: AutoCAD Mechanical 2004 DX|Company: Autodesk"
 90
        0
280
     0
281
     0
  0
CLASS
  1
ACAMGLAYSTD
  2
AcAmgLayStd
  3
"AcAmgLayStd|Product Description: AutoCAD Mechanical 2000|Company: Autodesk"
 90
        0
280
     0
281
     0
  0
CLASS
  1
ACAMGDIMSTD
  2
AcAmgDimStd
  3
"AcAmgDimStd|Product Description: AutoCAD Mechanical 2000|Company: Autodesk"
 90
        0
280
     0
281
     0
  0
CLASS
  1
ACAMGHOLECHARTSTDISO
  2
AcAmgHoleChartStdISO
  3
ACMSYMBB_MODULE_NAME
 90
        0
280
     0
281
     0
  0
CLASS
  1
ACAMGTITLESTD
  2
AcAmgTitleStd
  3
"TITLEAPP"
 90
        0
280
     0
281
     0
  0
CLASS
  1
LAYER_INDEX
  2
AcDbLayerIndex
  3
ObjectDBX Classes
 90
    32768
280
     0
281
     0
  0
CLASS
  1
IDBUFFER
  2
AcDbIdBuffer
  3
ObjectDBX Classes
 90
    32768
280
     0
281
     0
  0
CLASS
  1
DICTIONARYVAR
  2
AcDbDictionaryVar
  3
ObjectDBX Classes
 90
        0
280
     0
281
     0
  0
CLASS
  1
AM_DRAWING_MGR
  2
AcDmDwgMgr
  3
AcMechDwgViewMgmt
 90
        0
280
     0
281
     0
  0
CLASS
  1
AM_DWG_DOCUMENT
  2
AcDmDwgDocument
  3
AcMechDwgViewMgmt
 90
        0
280
     0
281
     0
  0
CLASS
  1
AM_DWG_SHEET
  2
AcDmSheet
  3
AcMechDwgViewMgmt
 90
        0
280
     0
281
     0
  0
CLASS
  1
AM_VIEWDIMPARMAP
  2
AcDmViewDimParMap
  3
AcMechDwgViewMgmt
 90
        0
280
     0
281
     0
  0
CLASS
  1
AM_DWGMGR_NAME
  2
AcDmDwgMgrName
  3
AcMechDwgViewMgmt
 90
        0
280
     0
281
     0
  0
CLASS
  1
AMDTMENUSTATEMGR
  2
AmdtMenuStateMgr
  3
McadcomServices
 90
        0
280
     0
281
     0
  0
CLASS
  1
AMDTMCOMMENUSTATE
  2
AmdtMcomMenuState
  3
McadcomServices
 90
        0
280
     0
281
     0
  0
CLASS
  1
MAPIAMMOUDLE
  2
MApiAmModule
  3
MApiAmServices
 90
        0
280
     0
281
     0
  0
CLASS
  1
AMDTADMENUSTATE
  2
AmdtAdMenuState
  3
DesignerServices
 90
        0
280
     0
281
     0
  0
CLASS
  1
ADAPPL
  2
AcAdAppl
  3
DesignerServices
 90
        0
280
     0
281
     0
  0
CLASS
  1
DEPMGR
  2
AcAdDepMgr
  3
DesignerServices
 90
        0
280
     0
281
     0
  0
CLASS
  1
PARAMMGR
  2
AcAdParamMgr
  3
DesignerServices
 90
        0
280
     0
281
     0
  0
CLASS
  1
PARAMSCOPE
  2
AcAdParamScope
  3
DesignerServices
 90
        0
280
     0
281
     0
  0
CLASS
  1
NAMEDAPPL
  2
AcAdNamedAppl
  3
DesignerServices
 90
        0
280
     0
281
     0
  0
CLASS
  1
AMDTDMMENUSTATE
  2
AmdtDmMenuState
  3
AcMechDwgViewMgmt
 90
        0
280
     0
281
     0
  0
CLASS
  1
AMDTAMMENUSTATE
  2
AmdtAmMenuState
  3
DesignerAssemblies
 90
        0
280
     0
281
     0
  0
CLASS
  1
ACAMPROJECT
  2
AcAmProject
  3
DesignerAssemblies
 90
        0
280
     0
281
     0
  0
CLASS
  1
ACAMGRCOMPDEF
  2
AcAmGrCompDef
  3
DesignerAssemblies
 90
        0
280
     0
281
     0
  0
CLASS
  1
ACCMCONTEXT
  2
AcCmContext
  3
DesignerAssemblies
 90
        0
280
     0
281
     0
  0
CLASS
  1
ACAMCOMPDEF
  2
AcAmCompDef
  3
DesignerAssemblies
 90
        0
280
     0
281
     0
  0
CLASS
  1
ACAMCOMPDEFMGR
  2
AcAmCompDefMgr
  3
DesignerAssemblies
 90
        0
280
     0
281
     0
  0
CLASS
  1
AMCONTEXTMGR
  2
AcAmContextMgr
  3
DesignerAssemblies
 90
        0
280
     0
281
     0
  0
CLASS
  1
ACAMCONTEXTMODELER
  2
AcAmContextModeler
  3
DesignerAssemblies
 90
        0
280
     0
281
     0
  0
CLASS
  1
ACMTHREADLINESTANDARDISO
  2
AmdtThreadLineStdISO
  3
"Amdt_StdImp|Product Description: AutoCAD Mechanical 2004 DX|Company: Autodesk"
 90
        0
280
     0
281
     0
  0
CLASS
  1
CATALOGSTATE
  2
AcAmCatalogState
  3
DesignerAssemblies
 90
        0
280
     0
281
     0
  0
CLASS
  1
ACAMGRCOMPDEFSET
  2
AcAmGrCompDefSet
  3
DesignerAssemblies
 90
        0
280
     0
281
     0
  0
CLASS
  1
AMDTBROWSERDBTAB
  2
AmdtBrowserDbTab
  3
McadcomServices
 90
        0
280
     0
281
     0
  0
CLASS
  1
CBROWSERAPPOBJECT
  2
CBrowserAppObject
  3
McadcomServices
 90
        0
280
     0
281
     0
  0
CLASS
  1
DM_PLACEHOLDER
  2
AcDmSelsetPlaceholder
  3
AcMechDwgViewMgmt
 90
        0
280
     0
281
     0
  0
CLASS
  1
TABLESTYLE
  2
AcDbTableStyle
  3
ObjectDBX Classes
 90
     2047
280
     0
281
     0
  0
CLASS
  1
VAACXREFPANELOBJECT
  2
VaAcXREFPanelObject
  3
VAAC_ADDIN
 90
        0
280
     0
281
     0
  0
CLASS
  1
VAACIMAGEINVENTORY
  2
VaAcImageInventory
  3
VAAC_ADDIN
 90
        0
280
     0
281
     0
  0
CLASS
  1
AMDTNOTETEMPLATEDB
  2
AmdtNoteTemplateDB
  3
AMDT_STDIMP_MODULE_NAME
 90
        0
280
     0
281
     0
  0
CLASS
  1
ACMBOM
  2
AcmBom
  3
"AcmSymBB|Product Description: AutoCAD Mechanical 2004 DX|Company: Autodesk"
 90
    32768
280
     0
281
     0
  0
CLASS
  1
AMDTFORMULAUPDATEDISPATCHER
  2
AmdtFormulaUpdateDispatcher
  3
AcMeServices
 90
    32768
280
     0
281
     0
  0
CLASS
  1
ACMPARTLIST
  2
AcmPartList
  3
"AcmSymBB|Product Description: AutoCAD Mechanical 2004 DX|Company: Autodesk"
 90
    33791
280
     0
281
     1
  0
CLASS
  1
ACAMGFILTERDAT
  2
AcAmgFilterDat
  3
"AcadM|Product Description: AutoCAD Mechanical 2000|Company: Autodesk"
 90
        0
280
     0
281
     0
  0
CLASS
  1
DIMASSOC
  2
AcDbDimAssoc
  3
"AcDbDimAssoc|Product Desc:     AcDim ARX App For Dimension|Company:          Autodesk, Inc.|WEB Address:      www.autodesk.com"
 90
    32768
280
     0
281
     0
  0
CLASS
  1
SORTENTSTABLE
  2
AcDbSortentsTable
  3
ObjectDBX Classes
 90
        0
280
     0
281
     0
  0
CLASS
  1
ACMSTANDARDJIS
  2
AcmStandardJIS
  3
"Amdt_StdImp|Product Description: AutoCAD Mechanical 2004 DX|Company: Autodesk"
 90
        0
280
     0
281
     0
  0
CLASS
  1
ACMSURFSTANDARDJIS
  2
AcmSurfTextStdJIS
  3
"Amdt_StdImp|Product Description: AutoCAD Mechanical 2004 DX|Company: Autodesk"
 90
        0
280
     0
281
     0
  0
CLASS
  1
ACMFCFSTANDARDJIS
  2
AcmFCFStdJIS
  3
"Amdt_StdImp|Product Description: AutoCAD Mechanical 2004 DX|Company: Autodesk"
 90
        0
280
     0
281
     0
  0
CLASS
  1
ACMWELDSTANDARDJIS
  2
AcmWeldingStdJIS
  3
"Amdt_StdImp|Product Description: AutoCAD Mechanical 2004 DX|Company: Autodesk"
 90
        0
280
     0
281
     0
  0
CLASS
  1
ACMIDSTANDARDJIS
  2
AcmIdStdJIS
  3
"Amdt_StdImp|Product Description: AutoCAD Mechanical 2004 DX|Company: Autodesk"
 90
        0
280
     0
281
     0
  0
CLASS
  1
ACMDATUMSTANDARDJIS
  2
AcmDatumStdJIS
  3
"Amdt_StdImp|Product Description: AutoCAD Mechanical 2004 DX|Company: Autodesk"
 90
        0
280
     0
281
     0
  0
CLASS
  1
ACMBOMSTANDARDJIS
  2
AcmBOMStdJIS
  3
"Amdt_StdImp|Product Description: AutoCAD Mechanical 2004 DX|Company: Autodesk"
 90
        0
280
     0
281
     0
  0
CLASS
  1
ACMDETAILSTANDARDJIS
  2
AmdtDetailSymStdJIS
  3
"Amdt_StdImp|Product Description: AutoCAD Mechanical 2004 DX|Company: Autodesk"
 90
        0
280
     0
281
     0
  0
CLASS
  1
ACMSECTIONSTANDARDJIS
  2
AmdtSectionSymStdJIS
  3
"Amdt_StdImp|Product Description: AutoCAD Mechanical 2004 DX|Company: Autodesk"
 90
        0
280
     0
281
     0
  0
CLASS
  1
ACMCENTERLINESTANDARDJIS
  2
AmdtCenterLineStdJIS
  3
"Amdt_StdImp|Product Description: AutoCAD Mechanical 2004 DX|Company: Autodesk"
 90
        0
280
     0
281
     0
  0
CLASS
  1
ACMTHREADLINESTANDARDJIS
  2
AmdtThreadLineStdJIS
  3
"Amdt_StdImp|Product Description: AutoCAD Mechanical 2004 DX|Company: Autodesk"
 90
        0
280
     0
281
     0
  0
CLASS
  1
ACMNOTESTANDARDJIS
  2
AmdtNoteStdJIS
  3
"Amdt_StdImp|Product Description: AutoCAD Mechanical 2004 DX|Company: Autodesk"
 90
        0
280
     0
281
     0
  0
CLASS
  1
ACAMGHOLECHARTSTDJIS
  2
AcAmgHoleChartStdJIS
  3
ACMSYMBB_MODULE_NAME
 90
        0
280
     0
281
     0
  0
CLASS
  1
ACRFATTGENMGR
  2
AcRfAttGeneralMgr
  3
AcAttribServices
 90
        0
280
     0
281
     0
  0
ENDSEC
  0
SECTION
  2
TABLES
  0
TABLE
  2
VPORT
  5
8
330
0
100
AcDbSymbolTable
 70
     4
  0
VPORT
  5
8A0
330
8
100
AcDbSymbolTableRecord
100
AcDbViewportTableRecord
  2
*Active
 70
     0
 10
0.0
 20
0.0
 11
1.0
 21
1.0
 12
245.2599781852232
 22
249.6042920751948
 13
0.0
 23
0.0
 14
2.5
 24
2.5
 15
10.0
 25
10.0
 16
0.0
 26
0.0
 36
1.0
 17
0.0
 27
0.0
 37
0.0
 40
292.6186737978726
 41
1.218987341772151
 42
50.0
 43
0.0
 44
0.0
 50
0.0
 51
0.0
 71
     0
 72
   100
 73
     1
 74
     3
 75
     0
 76
     0
 77
     0
 78
     0
281
     0
 65
     1
110
0.0
120
0.0
130
0.0
111
1.0
121
0.0
131
0.0
112
0.0
122
1.0
132
0.0
 79
     0
146
0.0
  0
ENDTAB
  0
TABLE
  2
LTYPE
  5
5
330
0
100
AcDbSymbolTable
 70
    16
  0
LTYPE
  5
14
330
5
100
AcDbSymbolTableRecord
100
AcDbLinetypeTableRecord
  2
ByBlock
 70
     0
  3

 72
    65
 73
     0
 40
0.0
  0
LTYPE
  5
15
330
5
100
AcDbSymbolTableRecord
100
AcDbLinetypeTableRecord
  2
ByLayer
 70
     0
  3

 72
    65
 73
     0
 40
0.0
  0
LTYPE
  5
16
330
5
100
AcDbSymbolTableRecord
100
AcDbLinetypeTableRecord
  2
Continuous
 70
     0
  3
Solid line
 72
    65
 73
     0
 40
0.0
  0
LTYPE
  5
64
330
5
100
AcDbSymbolTableRecord
100
AcDbLinetypeTableRecord
  2
AM_ISO02W050
 70
     0
  3
__ __ __ __ __ __ __ __ __ __ __ __ __ __ __
 72
    65
 73
     2
 40
7.5
 49
6.0
 74
     0
 49
-1.5
 74
     0
  0
LTYPE
  5
65
330
5
100
AcDbSymbolTableRecord
100
AcDbLinetypeTableRecord
  2
AM_ISO08W050
 70
     0
  3
____ . ____ . ____ . ____ . ____ . ____ . ____
 72
    65
 73
     4
 40
18.0
 49
12.0
 74
     0
 49
-1.5
 74
     0
 49
3.0
 74
     0
 49
-1.5
 74
     0
  0
LTYPE
  5
66
330
5
100
AcDbSymbolTableRecord
100
AcDbLinetypeTableRecord
  2
AM_ISO09W050
 70
     0
  3
_____ . . _____ . . _____ . . ____ .. ____
 72
    65
 73
     6
 40
22.5
 49
12.0
 74
     0
 49
-1.5
 74
     0
 49
3.0
 74
     0
 49
-1.5
 74
     0
 49
3.0
 74
     0
 49
-1.5
 74
     0
  0
LTYPE
  5
67
330
5
100
AcDbSymbolTableRecord
100
AcDbLinetypeTableRecord
  2
Amconstr
 70
     0
  3
_______________________
 72
    65
 73
     2
 40
9999.0
 49
9999.0
 74
     0
 49
0.0
 74
     0
  0
LTYPE
  5
68
330
5
100
AcDbSymbolTableRecord
100
AcDbLinetypeTableRecord
  2
AM_ISO08W050x2
 70
     0
  3
__ . __ . __ . __ . __ . __
 72
    65
 73
     4
 40
9.0
 49
6.0
 74
     0
 49
-0.75
 74
     0
 49
1.5
 74
     0
 49
-0.75
 74
     0
  0
LTYPE
  5
69
330
5
100
AcDbSymbolTableRecord
100
AcDbLinetypeTableRecord
  2
AM_ISO02W050x2
 70
     0
  3
 _ _ _ _ _ _ _ _ _ _ _ _
 72
    65
 73
     2
 40
3.75
 49
3.0
 74
     0
 49
-0.75
 74
     0
  0
LTYPE
  5
6C
330
5
100
AcDbSymbolTableRecord
100
AcDbLinetypeTableRecord
  2
Amzigzag
 70
     0
  3
/\/-/\/-/\/-/\/-/\/-/\/
 72
    65
 73
     2
 40
11.0001
 49
0.0001
 74
     4
 75
   135
340
6B
 46
0.04
 50
0.0
 44
0.0
 45
0.0
 49
-11.0
 74
     0
  0
LTYPE
  5
7A
330
5
100
AcDbSymbolTableRecord
100
AcDbLinetypeTableRecord
  2
ACISOWELD
 70
     0
  3
_ _ _ _ _
 72
    65
 73
     2
 40
2.0
 49
2.0
 74
     0
 49
-1.0
 74
     0
  0
LTYPE
  5
7B
330
5
100
AcDbSymbolTableRecord
100
AcDbLinetypeTableRecord
  2
ACISOTGB
 70
     0
  3
__ . . __ . .
 72
    65
 73
     6
 40
9.0
 49
4.0
 74
     0
 49
-1.0
 74
     0
 49
1.0
 74
     0
 49
-1.0
 74
     0
 49
1.0
 74
     0
 49
-1.0
 74
     0
  0
LTYPE
  5
7C
330
5
100
AcDbSymbolTableRecord
100
AcDbLinetypeTableRecord
  2
ACISOTGL
 70
     0
  3
_ _ _ _ _
 72
    65
 73
     2
 40
3.0
 49
2.0
 74
     0
 49
-1.0
 74
     0
  0
LTYPE
  5
7E
330
5
100
AcDbSymbolTableRecord
100
AcDbLinetypeTableRecord
  2
CENTER
 70
     0
  3
__ . __
 72
    65
 73
     4
 40
7.0
 49
4.0
 74
     0
 49
-1.0
 74
     0
 49
1.0
 74
     0
 49
-1.0
 74
     0
  0
LTYPE
  5
D8
330
5
100
AcDbSymbolTableRecord
100
AcDbLinetypeTableRecord
  2
HIDDEN
 70
     0
  3
Hidden __ __ __ __ __ __ __ __ __ __ __ __ __ _
 72
    65
 73
     2
 40
9.524999999999998
 49
6.349999999999999
 74
     0
 49
-3.174999999999999
 74
     0
  0
LTYPE
  5
D9
330
5
100
AcDbSymbolTableRecord
100
AcDbLinetypeTableRecord
  2
PHANTOM2
 70
     0
  3
Phantom (.5x) ___ _ _ ___ _ _ ___ _ _ ___ _ _
 72
    65
 73
     6
 40
31.75
 49
15.875
 74
     0
 49
-3.174999999999999
 74
     0
 49
3.174999999999999
 74
     0
 49
-3.174999999999999
 74
     0
 49
3.174999999999999
 74
     0
 49
-3.174999999999999
 74
     0
  0
LTYPE
  5
3B1
330
5
100
AcDbSymbolTableRecord
100
AcDbLinetypeTableRecord
  2
ACJISTGB
 70
     0
  3
__ . . __ . .
 72
    65
 73
     6
 40
9.0
 49
4.0
 74
     0
 49
-1.0
 74
     0
 49
1.0
 74
     0
 49
-1.0
 74
     0
 49
1.0
 74
     0
 49
-1.0
 74
     0
  0
LTYPE
  5
3B2
330
5
100
AcDbSymbolTableRecord
100
AcDbLinetypeTableRecord
  2
ACJISTGL
 70
     0
  3
_ _ _ _ _
 72
    65
 73
     2
 40
3.0
 49
2.0
 74
     0
 49
-1.0
 74
     0
  0
ENDTAB
  0
TABLE
  2
LAYER
  5
2
102
{ACAD_XDICTIONARY
360
3C6
102
}
330
0
100
AcDbSymbolTable
 70
     5
  0
LAYER
  5
10
330
2
100
AcDbSymbolTableRecord
100
AcDbLayerTableRecord
  2
0
 70
     0
 62
     7
  6
Continuous
370
    -3
390
F
  0
LAYER
  5
3B3
330
2
100
AcDbSymbolTableRecord
100
AcDbLayerTableRecord
  2
Defpoints
 70
     0
 62
     7
  6
Continuous
290
     0
370
    -3
390
F
  0
LAYER
  5
3B4
330
2
100
AcDbSymbolTableRecord
100
AcDbLayerTableRecord
  2
AM_VIS
 70
     2
 62
     7
  6
Continuous
370
    50
390
F
  0
LAYER
  5
3B5
330
2
100
AcDbSymbolTableRecord
100
AcDbLayerTableRecord
  2
AM_7
 70
     0
 62
     1
  6
AM_ISO08W050
370
    25
390
F
  0
LAYER
  5
3B6
330
2
100
AcDbSymbolTableRecord
100
AcDbLayerTableRecord
  2
LOGO
 70
     0
 62
     7
  6
Continuous
370
    -3
390
F
  0
ENDTAB
  0
TABLE
  2
STYLE
  5
3
330
0
100
AcDbSymbolTable
 70
     8
  0
STYLE
  5
11
330
3
100
AcDbSymbolTableRecord
100
AcDbTextStyleTableRecord
  2
STANDARD
 70
     0
 40
0.0
 41
1.0
 50
0.0
 71
     0
 42
3.0
  3
ISOCP.SHX
  4
CHINESET.SHX
  0
STYLE
  5
6B
330
3
100
AcDbSymbolTableRecord
100
AcDbTextStyleTableRecord
  2

 70
     1
 40
0.0
 41
1.0
 50
0.0
 71
     0
 42
2.5
  3
ltypeshp.shx
  4

  0
STYLE
  5
6D
330
3
100
AcDbSymbolTableRecord
100
AcDbTextStyleTableRecord
  2
ACISOTS
 70
     0
 40
1.0
 41
1.0
 50
0.0
 71
     0
 42
1.0
  3
isocp.shx
  4
chineset.shx
  0
STYLE
  5
79
330
3
100
AcDbSymbolTableRecord
100
AcDbTextStyleTableRecord
  2
ACISOGDT
 70
     0
 40
0.0
 41
1.0
 50
0.0
 71
     0
 42
2.5
  3
amgdt.shx
  4
chineset.shx
  0
STYLE
  5
3B7
330
3
100
AcDbSymbolTableRecord
100
AcDbTextStyleTableRecord
  2
CHINESET
 70
     0
 40
0.0
 41
1.0
 50
0.0
 71
     0
 42
2.5
  3
simplex.shx
  4
CHINESET.shx
  0
STYLE
  5
3B8
330
3
100
AcDbSymbolTableRecord
100
AcDbTextStyleTableRecord
  2
ACJISTS
 70
     0
 40
1.0
 41
1.0
 50
0.0
 71
     0
 42
2.5
  3
isocp.shx
  4
chineset.shx
  0
STYLE
  5
3B9
330
3
100
AcDbSymbolTableRecord
100
AcDbTextStyleTableRecord
  2
ACJISGDT
 70
     0
 40
0.0
 41
1.0
 50
0.0
 71
     0
 42
2.5
  3
amgdt.shx
  4

  0
ENDTAB
  0
TABLE
  2
VIEW
  5
6
330
0
100
AcDbSymbolTable
 70
     0
  0
ENDTAB
  0
TABLE
  2
UCS
  5
7
330
0
100
AcDbSymbolTable
 70
     0
  0
ENDTAB
  0
TABLE
  2
APPID
  5
9
330
0
100
AcDbSymbolTable
 70
    18
  0
APPID
  5
12
330
9
100
AcDbSymbolTableRecord
100
AcDbRegAppTableRecord
  2
ACAD
 70
     0
  0
APPID
  5
46
330
9
100
AcDbSymbolTableRecord
100
AcDbRegAppTableRecord
  2
MCAD_NO_VIS
 70
     0
  0
APPID
  5
47
330
9
100
AcDbSymbolTableRecord
100
AcDbRegAppTableRecord
  2
ACAD_TEMP_GRAPHIC
 70
     0
  0
APPID
  5
58
330
9
100
AcDbSymbolTableRecord
100
AcDbRegAppTableRecord
  2
ACATTRIBSERVICES
 70
     0
  0
APPID
  5
EE
330
9
100
AcDbSymbolTableRecord
100
AcDbRegAppTableRecord
  2
AD_DRAW
 70
     0
  0
APPID
  5
10C
330
9
100
AcDbSymbolTableRecord
100
AcDbRegAppTableRecord
  2
DESIGNERASSEMBLIES
 70
     0
  0
APPID
  5
111
330
9
100
AcDbSymbolTableRecord
100
AcDbRegAppTableRecord
  2
ACADM_DIM_EDIT
 70
     0
  0
APPID
  5
112
330
9
100
AcDbSymbolTableRecord
100
AcDbRegAppTableRecord
  2
AMDT_DM_ADJ
 70
     0
  0
APPID
  5
1FE
330
9
100
AcDbSymbolTableRecord
100
AcDbRegAppTableRecord
  2
ACAD_DSTYLE_DIMTEXT_FILL
 70
     0
  0
APPID
  5
2B5
330
9
100
AcDbSymbolTableRecord
100
AcDbRegAppTableRecord
  2
GENIUS_GENOLIS_13
 70
     0
  0
APPID
  5
2B6
330
9
100
AcDbSymbolTableRecord
100
AcDbRegAppTableRecord
  2
GENIUS_GENOENT_13
 70
     0
  0
APPID
  5
2B7
330
9
100
AcDbSymbolTableRecord
100
AcDbRegAppTableRecord
  2
GENIUS_GENOBJ-N-CRS_13
 70
     0
  0
APPID
  5
2B8
330
9
100
AcDbSymbolTableRecord
100
AcDbRegAppTableRecord
  2
GENIUS_GENODEF_13
 70
     0
  0
APPID
  5
2B9
330
9
100
AcDbSymbolTableRecord
100
AcDbRegAppTableRecord
  2
GENIUS_GENOREF_13
 70
     0
  0
APPID
  5
3C2
330
9
100
AcDbSymbolTableRecord
100
AcDbRegAppTableRecord
  2
ACAD_PSEXT
 70
     0
  0
APPID
  5
3C3
330
9
100
AcDbSymbolTableRecord
100
AcDbRegAppTableRecord
  2
GENIUS_AMGTXT_16
 70
     0
  0
APPID
  5
3C4
330
9
100
AcDbSymbolTableRecord
100
AcDbRegAppTableRecord
  2
GENIUS_GENREC_14
 70
     0
  0
APPID
  5
3C5
330
9
100
AcDbSymbolTableRecord
100
AcDbRegAppTableRecord
  2
GENIUS_GENOBJ-N-REC_13
 70
     0
  0
ENDTAB
  0
TABLE
  2
DIMSTYLE
  5
A
330
0
100
AcDbSymbolTable
 70
    17
100
AcDbDimStyleTable
 71
     1
340
81
  0
DIMSTYLE
105
81
330
A
100
AcDbSymbolTableRecord
100
AcDbDimStyleTableRecord
  2
AM_ISO
 70
     0
  4
"
 41
3.0
 42
1.5
 43
8.0
 44
1.5
 47
0.1
 48
0.1
 73
     0
 74
     0
 77
     1
 78
     8
 79
     2
140
3.5
141
0.0
143
0.0393701
146
0.71
147
1.5
172
     1
176
   256
177
   256
178
   256
271
     2
272
     2
283
     0
284
     8
340
11
371
    -1
372
    -1
  0
DIMSTYLE
105
82
330
A
100
AcDbSymbolTableRecord
100
AcDbDimStyleTableRecord
  2
AM_ISO$3
 70
     0
  4
"
 41
3.0
 42
1.5
 43
8.0
 44
1.5
 47
0.1
 48
0.1
 73
     0
 77
     1
 78
     8
 79
     2
140
3.5
141
0.0
143
0.0393701
146
0.71
147
1.5
176
   256
177
   256
178
   256
271
     2
272
     2
283
     0
284
     8
288
     1
289
     0
340
11
371
    -1
372
    -1
  0
DIMSTYLE
105
83
330
A
100
AcDbSymbolTableRecord
100
AcDbDimStyleTableRecord
  2
AM_ISO$4
 70
     0
  4
"
 41
3.0
 42
1.5
 43
8.0
 44
1.5
 47
0.1
 48
0.1
 73
     0
 77
     1
 78
     8
 79
     2
140
3.5
141
0.0
143
0.0393701
146
0.71
147
1.5
176
   256
177
   256
178
   256
271
     2
272
     2
283
     0
284
     8
288
     1
289
     0
340
11
371
    -1
372
    -1
  0
DIMSTYLE
105
84
330
A
100
AcDbSymbolTableRecord
100
AcDbDimStyleTableRecord
  2
AM_ISO$6
 70
     0
  4
"
 41
3.0
 42
1.5
 43
8.0
 44
1.5
 47
0.1
 48
0.1
 73
     0
 74
     0
 78
     8
 79
     2
140
3.5
141
0.0
143
0.0393701
146
0.71
147
1.5
172
     1
176
   256
177
   256
178
   256
271
     2
272
     2
283
     0
284
     8
340
11
371
    -1
372
    -1
  0
DIMSTYLE
105
85
330
A
100
AcDbSymbolTableRecord
100
AcDbDimStyleTableRecord
  2
AM_ISO$7
 70
     0
  4
"
 41
3.0
 42
1.5
 43
8.0
 44
1.5
 47
0.1
 48
0.1
 73
     0
 74
     0
 77
     1
 78
     8
 79
     2
140
5.0
141
0.0
143
0.0393701
146
0.71
147
1.5
172
     1
176
   256
177
   256
178
   256
271
     2
272
     2
283
     0
284
     8
340
11
371
    -1
372
    -1
  0
DIMSTYLE
105
86
330
A
100
AcDbSymbolTableRecord
100
AcDbDimStyleTableRecord
  2
AM_ISO$SF
 70
     0
  4
"
 41
2.5
 42
1.0
 43
10.0
 44
1.0
 47
0.1
 48
0.1
 73
     0
 74
     0
 75
     1
 76
     1
 77
     1
 78
     8
 79
     2
140
3.5
141
0.0
143
0.0393701
146
0.71
147
1.5
172
     1
176
   256
177
   256
178
     2
271
     2
272
     3
274
     4
283
     0
284
     8
340
11
371
    -1
372
    -1
  0
DIMSTYLE
105
8B
330
A
100
AcDbSymbolTableRecord
100
AcDbDimStyleTableRecord
  2
AM_ISO$SH
 70
     0
  4
"
 41
2.5
 42
1.0
 43
10.0
 44
1.0
 47
0.1
 48
0.1
 73
     0
 74
     0
 75
     1
 76
     1
 77
     1
 78
     8
 79
     2
140
3.5
141
0.0
143
0.0393701
144
2.0
146
0.71
147
1.5
172
     1
173
     1
176
   256
177
   256
178
     2
271
     2
272
     3
274
     4
283
     0
284
     8
340
11
343
87
371
    -1
372
    -1
  0
DIMSTYLE
105
27B
330
A
100
AcDbSymbolTableRecord
100
AcDbDimStyleTableRecord
  2
AM_ISO$0
 70
     0
  4
"
 41
3.0
 42
1.5
 43
8.0
 44
1.5
 47
0.1
 48
0.1
 73
     0
 74
     0
 77
     1
 78
     8
 79
     2
140
3.5
141
0.0
143
0.0393701
146
0.71
147
1.5
172
     1
176
   256
177
   256
178
   256
271
     2
272
     2
283
     0
284
     8
340
11
371
    -1
372
    -1
  0
DIMSTYLE
105
3BA
102
{ACAD_REACTORS
330
5C0
330
5C7
330
542
330
54A
330
545
330
544
330
543
330
5C8
330
5C9
330
760
330
761
330
762
330
763
330
7DE
330
7E5
330
7E7
102
}
330
A
100
AcDbSymbolTableRecord
100
AcDbDimStyleTableRecord
  2
STANDARD
 70
     0
 41
3.0
 42
2.0
 43
8.0
 44
2.0
 48
0.000000001
 73
     0
 74
     0
 77
     1
 78
     8
 79
     2
140
3.0
141
1.0
146
0.6
147
1.0
176
   256
177
   256
178
   256
179
     2
271
     2
272
     2
279
     2
284
     8
340
3B7
371
    -1
  0
DIMSTYLE
105
3BB
330
A
100
AcDbSymbolTableRecord
100
AcDbDimStyleTableRecord
  2
AM_JIS
 70
     0
  4
"
 41
2.5
 42
1.0
 43
10.0
 44
1.0
 47
0.1
 48
0.1
 73
     0
 74
     0
 77
     3
 78
     8
 79
     2
140
3.5
141
0.0
143
0.0393701
146
0.71
147
1.5
172
     1
176
   256
177
   256
178
     2
271
     2
272
     3
274
     4
283
     0
340
11
341
357
342
357
343
357
344
357
371
    -1
372
    -1
  0
DIMSTYLE
105
3BC
330
A
100
AcDbSymbolTableRecord
100
AcDbDimStyleTableRecord
  2
AM_JIS$3
 70
     0
  4
"
 41
2.5
 42
1.0
 43
10.0
 44
1.0
 47
0.1
 48
0.1
 73
     0
 77
     3
 78
     8
 79
     2
140
3.5
141
0.0
143
0.0393701
146
0.71
147
1.5
176
   256
177
   256
178
     2
271
     2
272
     3
274
     4
283
     0
288
     1
289
     0
340
11
341
357
342
357
343
357
344
357
371
    -1
372
    -1
  0
DIMSTYLE
105
3BD
330
A
100
AcDbSymbolTableRecord
100
AcDbDimStyleTableRecord
  2
AM_JIS$4
 70
     0
  4
"
 41
2.5
 42
1.0
 43
10.0
 44
1.0
 47
0.1
 48
0.1
 73
     0
 77
     3
 78
     8
 79
     2
140
3.5
141
0.0
143
0.0393701
146
0.71
147
1.5
176
   256
177
   256
178
     2
271
     2
272
     3
274
     4
283
     0
288
     1
289
     0
340
11
341
357
342
357
343
357
344
357
371
    -1
372
    -1
  0
DIMSTYLE
105
3BE
330
A
100
AcDbSymbolTableRecord
100
AcDbDimStyleTableRecord
  2
AM_JIS$6
 70
     0
  4
"
 41
2.5
 42
1.0
 43
10.0
 44
1.0
 47
0.1
 48
0.1
 73
     0
 74
     0
 78
     8
 79
     2
140
3.5
141
0.0
143
0.0393701
146
0.71
147
1.5
172
     1
176
   256
177
   256
178
     2
271
     2
272
     3
274
     4
283
     0
340
11
341
357
342
357
343
357
344
357
371
    -1
372
    -1
  0
DIMSTYLE
105
3BF
330
A
100
AcDbSymbolTableRecord
100
AcDbDimStyleTableRecord
  2
AM_JIS$7
 70
     0
  4
"
 41
2.5
 42
1.0
 43
10.0
 44
1.0
 47
0.1
 48
0.1
 73
     0
 74
     0
 77
     3
 78
     8
 79
     2
140
5.0
141
0.0
143
0.0393701
146
0.71
147
1.5
172
     1
176
   256
177
   256
178
     2
271
     2
272
     3
274
     4
283
     0
340
11
341
357
342
357
343
357
344
357
371
    -1
372
    -1
  0
DIMSTYLE
105
3C0
330
A
100
AcDbSymbolTableRecord
100
AcDbDimStyleTableRecord
  2
AM_JIS$SF
 70
     0
  4
"
 41
2.5
 42
1.0
 43
10.0
 44
1.0
 47
0.1
 48
0.1
 73
     0
 74
     0
 75
     1
 76
     1
 77
     3
 78
     8
 79
     2
140
3.5
141
0.0
143
0.0393701
146
0.71
147
1.5
172
     1
176
   256
177
   256
178
     2
271
     2
272
     3
274
     4
283
     0
340
11
341
357
342
357
343
357
344
357
371
    -1
372
    -1
  0
DIMSTYLE
105
3C1
330
A
100
AcDbSymbolTableRecord
100
AcDbDimStyleTableRecord
  2
AM_JIS$SH
 70
     0
  4
"
 41
2.5
 42
1.0
 43
10.0
 44
1.0
 47
0.1
 48
0.1
 73
     0
 74
     0
 75
     1
 76
     1
 77
     3
 78
     8
 79
     2
140
3.5
141
0.0
143
0.0393701
144
2.0
146
0.71
147
1.5
172
     1
173
     1
176
   256
177
   256
178
     2
271
     2
272
     3
274
     4
283
     0
340
11
341
357
342
357
343
87
344
357
371
    -1
372
    -1
  0
ENDTAB
  0
TABLE
  2
BLOCK_RECORD
  5
1
330
0
100
AcDbSymbolTable
 70
    20
  0
BLOCK_RECORD
  5
1F
102
{ACAD_XDICTIONARY
360
8F
102
}
330
1
100
AcDbSymbolTableRecord
100
AcDbBlockTableRecord
  2
*Model_Space
340
22
  0
BLOCK_RECORD
  5
1B
330
1
100
AcDbSymbolTableRecord
100
AcDbBlockTableRecord
  2
*Paper_Space
340
1E
  0
BLOCK_RECORD
  5
23
330
1
100
AcDbSymbolTableRecord
100
AcDbBlockTableRecord
  2
*Paper_Space0
340
26
  0
BLOCK_RECORD
  5
87
330
1
100
AcDbSymbolTableRecord
100
AcDbBlockTableRecord
  2
GENAXEH
340
0
  0
BLOCK_RECORD
  5
357
330
1
100
AcDbSymbolTableRecord
100
AcDbBlockTableRecord
  2
_Open30
340
0
  0
BLOCK_RECORD
  5
35D
330
1
100
AcDbSymbolTableRecord
100
AcDbBlockTableRecord
  2
*D4
340
0
  0
BLOCK_RECORD
  5
369
330
1
100
AcDbSymbolTableRecord
100
AcDbBlockTableRecord
  2
*D5
340
0
  0
BLOCK_RECORD
  5
375
330
1
100
AcDbSymbolTableRecord
100
AcDbBlockTableRecord
  2
*D6
340
0
  0
BLOCK_RECORD
  5
381
330
1
100
AcDbSymbolTableRecord
100
AcDbBlockTableRecord
  2
*D7
340
0
  0
BLOCK_RECORD
  5
38D
330
1
100
AcDbSymbolTableRecord
100
AcDbBlockTableRecord
  2
*D8
340
0
  0
BLOCK_RECORD
  5
399
330
1
100
AcDbSymbolTableRecord
100
AcDbBlockTableRecord
  2
*D9
340
0
  0
BLOCK_RECORD
  5
3A5
330
1
100
AcDbSymbolTableRecord
100
AcDbBlockTableRecord
  2
*D10
340
0
  0
BLOCK_RECORD
  5
7EB
330
1
100
AcDbSymbolTableRecord
100
AcDbBlockTableRecord
  2
*D12
340
0
  0
BLOCK_RECORD
  5
7F7
330
1
100
AcDbSymbolTableRecord
100
AcDbBlockTableRecord
  2
*D13
340
0
  0
BLOCK_RECORD
  5
803
330
1
100
AcDbSymbolTableRecord
100
AcDbBlockTableRecord
  2
*D14
340
0
  0
BLOCK_RECORD
  5
80F
330
1
100
AcDbSymbolTableRecord
100
AcDbBlockTableRecord
  2
*D15
340
0
  0
BLOCK_RECORD
  5
81B
330
1
100
AcDbSymbolTableRecord
100
AcDbBlockTableRecord
  2
*D16
340
0
  0
BLOCK_RECORD
  5
827
330
1
100
AcDbSymbolTableRecord
100
AcDbBlockTableRecord
  2
*D17
340
0
  0
BLOCK_RECORD
  5
833
330
1
100
AcDbSymbolTableRecord
100
AcDbBlockTableRecord
  2
*D18
340
0
  0
ENDTAB
  0
ENDSEC
  0
SECTION
  2
BLOCKS
  0
BLOCK
  5
20
330
1F
100
AcDbEntity
  8
0
100
AcDbBlockBegin
  2
*Model_Space
 70
     0
 10
0.0
 20
0.0
 30
0.0
  3
*Model_Space
  1

  0
ENDBLK
  5
21
330
1F
100
AcDbEntity
  8
0
100
AcDbBlockEnd
  0
BLOCK
  5
1C
330
1B
100
AcDbEntity
 67
     1
  8
0
100
AcDbBlockBegin
  2
*Paper_Space
 70
     0
 10
0.0
 20
0.0
 30
0.0
  3
*Paper_Space
  1

  0
ENDBLK
  5
1D
330
1B
100
AcDbEntity
 67
     1
  8
0
100
AcDbBlockEnd
  0
BLOCK
  5
24
330
23
100
AcDbEntity
  8
0
100
AcDbBlockBegin
  2
*Paper_Space0
 70
     0
 10
0.0
 20
0.0
 30
0.0
  3
*Paper_Space0
  1

  0
ENDBLK
  5
25
330
23
100
AcDbEntity
  8
0
100
AcDbBlockEnd
  0
BLOCK
  5
89
330
87
100
AcDbEntity
  8
0
100
AcDbBlockBegin
  2
GENAXEH
 70
     0
 10
0.0
 20
0.0
 30
0.0
  3
GENAXEH
  1

  0
LINE
  5
88
330
87
100
AcDbEntity
  8
0
100
AcDbLine
 10
-1.0
 20
0.0
 30
0.0
 11
1.0
 21
0.0
 31
0.0
  0
ENDBLK
  5
8A
330
87
100
AcDbEntity
  8
0
100
AcDbBlockEnd
  0
BLOCK
  5
358
330
357
100
AcDbEntity
  8
0
100
AcDbBlockBegin
  2
_Open30
 70
     0
 10
0.0
 20
0.0
 30
0.0
  3
_Open30
  1

  0
LINE
  5
359
330
357
100
AcDbEntity
  8
0
 62
     0
370
    -2
100
AcDbLine
 10
-1.0
 20
0.26794919
 30
0.0
 11
0.0
 21
0.0
 31
0.0
  0
LINE
  5
35A
330
357
100
AcDbEntity
  8
0
 62
     0
370
    -2
100
AcDbLine
 10
0.0
 20
0.0
 30
0.0
 11
-1.0
 21
-0.26794919
 31
0.0
  0
LINE
  5
35B
330
357
100
AcDbEntity
  8
0
 62
     0
370
    -2
100
AcDbLine
 10
0.0
 20
0.0
 30
0.0
 11
-1.0
 21
0.0
 31
0.0
  0
ENDBLK
  5
35C
330
357
100
AcDbEntity
  8
0
100
AcDbBlockEnd
  0
BLOCK
  5
35E
330
35D
100
AcDbEntity
  8
0
100
AcDbBlockBegin
  2
*D4
 70
     1
 10
0.0
 20
0.0
 30
0.0
  3
*D4
  1

  0
LINE
  5
35F
330
35D
100
AcDbEntity
  8
0
 62
     5
370
    -2
100
AcDbLine
 10
43.25237898326463
 20
32.43700022740143
 30
0.0
 11
17.91974797229648
 21
32.43700022740143
 31
0.0
  0
LINE
  5
360
330
35D
100
AcDbEntity
  8
0
 62
     5
370
    -2
100
AcDbLine
 10
43.25237898326463
 20
-5.562999772598573
 30
0.0
 11
17.91974797229648
 21
-5.562999772598565
 31
0.0
  0
LINE
  5
361
330
35D
100
AcDbEntity
  8
0
 62
     5
100
AcDbLine
 10
19.91974797229648
 20
29.43700022740143
 30
0.0
 11
19.91974797229648
 21
-2.562999772598566
 31
0.0
  0
SOLID
  5
362
330
35D
100
AcDbEntity
  8
0
 62
     5
100
AcDbTrace
 10
19.41974797229648
 20
29.43700022740143
 30
0.0
 11
20.41974797229649
 21
29.43700022740143
 31
0.0
 12
19.91974797229648
 22
32.43700022740143
 32
0.0
 13
19.91974797229648
 23
32.43700022740143
 33
0.0
  0
SOLID
  5
363
330
35D
100
AcDbEntity
  8
0
 62
     5
100
AcDbTrace
 10
19.41974797229647
 20
-2.562999772598566
 30
0.0
 11
20.41974797229648
 21
-2.562999772598566
 31
0.0
 12
19.91974797229648
 22
-5.562999772598566
 32
0.0
 13
19.91974797229648
 23
-5.562999772598566
 33
0.0
  0
MTEXT
  5
364
330
35D
100
AcDbEntity
  8
0
 62
     5
100
AcDbMText
 10
17.41974797229647
 20
13.43700022740143
 30
0.0
 40
3.0
 41
0.0
 71
     5
 72
     1
  1
\A1;38
  7
CHINESET
 11
0.0000000000000001
 21
1.0
 31
0.0
 73
     1
 44
1.0
1001
ACAD
1000
MTEXTBEGIN
1070
    73
1070
     1
1070
    44
1040
1.0
1070
    74
1070
     0
1000
MTEXTEND
  0
POINT
  5
365
330
35D
100
AcDbEntity
  8
Defpoints
 62
     0
100
AcDbPoint
 10
45.25237898326463
 20
32.43700022740143
 30
0.0
  0
POINT
  5
366
330
35D
100
AcDbEntity
  8
Defpoints
 62
     0
100
AcDbPoint
 10
45.25237898326463
 20
-5.562999772598573
 30
0.0
  0
POINT
  5
367
330
35D
100
AcDbEntity
  8
Defpoints
 62
     0
100
AcDbPoint
 10
19.91974797229648
 20
-5.562999772598566
 30
0.0
  0
ENDBLK
  5
368
330
35D
100
AcDbEntity
  8
0
100
AcDbBlockEnd
  0
BLOCK
  5
36A
330
369
100
AcDbEntity
  8
0
100
AcDbBlockBegin
  2
*D5
 70
     1
 10
0.0
 20
0.0
 30
0.0
  3
*D5
  1

  0
LINE
  5
36B
330
369
100
AcDbEntity
  8
0
 62
     5
370
    -2
100
AcDbLine
 10
64.25237898326463
 20
161.2007293974872
 30
0.0
 11
64.25237898326463
 21
165.182436814179
 31
0.0
  0
LINE
  5
36C
330
369
100
AcDbEntity
  8
0
 62
     5
370
    -2
100
AcDbLine
 10
117.2523789832646
 20
154.3007293974872
 30
0.0
 11
117.2523789832646
 21
165.182436814179
 31
0.0
  0
LINE
  5
36D
330
369
100
AcDbEntity
  8
0
 62
     5
100
AcDbLine
 10
67.25237898326463
 20
163.182436814179
 30
0.0
 11
114.2523789832646
 21
163.182436814179
 31
0.0
  0
SOLID
  5
36E
330
369
100
AcDbEntity
  8
0
 62
     5
100
AcDbTrace
 10
67.25237898326463
 20
163.682436814179
 30
0.0
 11
67.25237898326463
 21
162.682436814179
 31
0.0
 12
64.25237898326463
 22
163.182436814179
 32
0.0
 13
64.25237898326463
 23
163.182436814179
 33
0.0
  0
SOLID
  5
36F
330
369
100
AcDbEntity
  8
0
 62
     5
100
AcDbTrace
 10
114.2523789832646
 20
163.682436814179
 30
0.0
 11
114.2523789832646
 21
162.682436814179
 31
0.0
 12
117.2523789832646
 22
163.182436814179
 32
0.0
 13
117.2523789832646
 23
163.182436814179
 33
0.0
  0
MTEXT
  5
370
330
369
100
AcDbEntity
  8
0
 62
     5
100
AcDbMText
 10
90.75237898326463
 20
165.682436814179
 30
0.0
 40
3.0
 41
0.0
 71
     5
 72
     1
  1
\A1;53
  7
CHINESET
 73
     1
 44
1.0
1001
ACAD
1000
MTEXTBEGIN
1070
    73
1070
     1
1070
    44
1040
1.0
1070
    74
1070
     0
1000
MTEXTEND
  0
POINT
  5
371
330
369
100
AcDbEntity
  8
Defpoints
 62
     0
100
AcDbPoint
 10
64.25237898326463
 20
159.2007293974871
 30
0.0
  0
POINT
  5
372
330
369
100
AcDbEntity
  8
Defpoints
 62
     0
100
AcDbPoint
 10
117.2523789832646
 20
152.3007293974872
 30
0.0
  0
POINT
  5
373
330
369
100
AcDbEntity
  8
Defpoints
 62
     0
100
AcDbPoint
 10
117.2523789832646
 20
163.182436814179
 30
0.0
  0
ENDBLK
  5
374
330
369
100
AcDbEntity
  8
0
100
AcDbBlockEnd
  0
BLOCK
  5
376
330
375
100
AcDbEntity
  8
0
100
AcDbBlockBegin
  2
*D6
 70
     1
 10
0.0
 20
0.0
 30
0.0
  3
*D6
  1

  0
LINE
  5
377
330
375
100
AcDbEntity
  8
0
 62
     5
370
    -2
100
AcDbLine
 10
55.50237898326463
 20
157.0107293974872
 30
0.0
 11
26.14110112295602
 21
157.0107293974872
 31
0.0
  0
LINE
  5
378
330
375
100
AcDbEntity
  8
0
 62
     5
370
    -2
100
AcDbLine
 10
34.75237898326464
 20
61.00777370727769
 30
0.0
 11
26.141101122956
 21
61.00777370727769
 31
0.0
  0
LINE
  5
379
330
375
100
AcDbEntity
  8
0
 62
     5
100
AcDbLine
 10
28.14110112295603
 20
154.0107293974872
 30
0.0
 11
28.141101122956
 21
64.00777370727769
 31
0.0
  0
SOLID
  5
37A
330
375
100
AcDbEntity
  8
0
 62
     5
100
AcDbTrace
 10
27.64110112295603
 20
154.0107293974872
 30
0.0
 11
28.64110112295602
 21
154.0107293974872
 31
0.0
 12
28.14110112295603
 22
157.0107293974872
 32
0.0
 13
28.14110112295603
 23
157.0107293974872
 33
0.0
  0
SOLID
  5
37B
330
375
100
AcDbEntity
  8
0
 62
     5
100
AcDbTrace
 10
27.641101122956
 20
64.00777370727769
 30
0.0
 11
28.641101122956
 21
64.00777370727769
 31
0.0
 12
28.141101122956
 22
61.00777370727769
 32
0.0
 13
28.141101122956
 23
61.00777370727769
 33
0.0
  0
MTEXT
  5
37C
330
375
100
AcDbEntity
  8
0
 62
     5
100
AcDbMText
 10
25.641101122956
 20
109.0092515523824
 30
0.0
 40
3.0
 41
0.0
 71
     5
 72
     1
  1
\A1;96
  7
CHINESET
 11
0.0000000000000001
 21
1.0
 31
0.0
 73
     1
 44
1.0
1001
ACAD
1000
MTEXTBEGIN
1070
    73
1070
     1
1070
    44
1040
1.0
1070
    74
1070
     0
1000
MTEXTEND
  0
POINT
  5
37D
330
375
100
AcDbEntity
  8
Defpoints
 62
     0
100
AcDbPoint
 10
57.50237898326464
 20
157.0107293974872
 30
0.0
  0
POINT
  5
37E
330
375
100
AcDbEntity
  8
Defpoints
 62
     0
100
AcDbPoint
 10
36.75237898326463
 20
61.00777370727769
 30
0.0
  0
POINT
  5
37F
330
375
100
AcDbEntity
  8
Defpoints
 62
     0
100
AcDbPoint
 10
28.141101122956
 20
61.00777370727769
 30
0.0
  0
ENDBLK
  5
380
330
375
100
AcDbEntity
  8
0
100
AcDbBlockEnd
  0
BLOCK
  5
382
330
381
100
AcDbEntity
  8
0
100
AcDbBlockBegin
  2
*D7
 70
     1
 10
0.0
 20
0.0
 30
0.0
  3
*D7
  1

  0
LINE
  5
383
330
381
100
AcDbEntity
  8
0
 62
     5
370
    -2
100
AcDbLine
 10
36.75237898326463
 20
59.00777370727769
 30
0.0
 11
36.75237898326463
 21
50.37444512291358
 31
0.0
  0
LINE
  5
384
330
381
100
AcDbEntity
  8
0
 62
     5
370
    -2
100
AcDbLine
 10
91.75237898326463
 20
58.99072939748717
 30
0.0
 11
91.75237898326463
 21
50.37444512291358
 31
0.0
  0
LINE
  5
385
330
381
100
AcDbEntity
  8
0
 62
     5
100
AcDbLine
 10
39.75237898326464
 20
52.37444512291358
 30
0.0
 11
88.75237898326464
 21
52.37444512291358
 31
0.0
  0
SOLID
  5
386
330
381
100
AcDbEntity
  8
0
 62
     5
100
AcDbTrace
 10
39.75237898326464
 20
52.87444512291358
 30
0.0
 11
39.75237898326464
 21
51.87444512291358
 31
0.0
 12
36.75237898326463
 22
52.37444512291358
 32
0.0
 13
36.75237898326463
 23
52.37444512291358
 33
0.0
  0
SOLID
  5
387
330
381
100
AcDbEntity
  8
0
 62
     5
100
AcDbTrace
 10
88.75237898326464
 20
52.87444512291358
 30
0.0
 11
88.75237898326464
 21
51.87444512291358
 31
0.0
 12
91.75237898326463
 22
52.37444512291358
 32
0.0
 13
91.75237898326463
 23
52.37444512291358
 33
0.0
  0
MTEXT
  5
388
330
381
100
AcDbEntity
  8
0
 62
     5
100
AcDbMText
 10
64.25237898326463
 20
54.87444512291358
 30
0.0
 40
3.0
 41
0.0
 71
     5
 72
     1
  1
\A1;55
  7
CHINESET
 73
     1
 44
1.0
1001
ACAD
1000
MTEXTBEGIN
1070
    73
1070
     1
1070
    44
1040
1.0
1070
    74
1070
     0
1000
MTEXTEND
  0
POINT
  5
389
330
381
100
AcDbEntity
  8
Defpoints
 62
     0
100
AcDbPoint
 10
36.75237898326463
 20
61.00777370727769
 30
0.0
  0
POINT
  5
38A
330
381
100
AcDbEntity
  8
Defpoints
 62
     0
100
AcDbPoint
 10
91.75237898326463
 20
60.99072939748717
 30
0.0
  0
POINT
  5
38B
330
381
100
AcDbEntity
  8
Defpoints
 62
     0
100
AcDbPoint
 10
91.75237898326463
 20
52.37444512291358
 30
0.0
  0
ENDBLK
  5
38C
330
381
100
AcDbEntity
  8
0
100
AcDbBlockEnd
  0
BLOCK
  5
38E
330
38D
100
AcDbEntity
  8
0
100
AcDbBlockBegin
  2
*D8
 70
     1
 10
0.0
 20
0.0
 30
0.0
  3
*D8
  1

  0
LINE
  5
38F
330
38D
100
AcDbEntity
  8
0
 62
     5
370
    -2
100
AcDbLine
 10
-35.01199542391656
 20
157.0107293974872
 30
0.0
 11
-53.48141505979365
 21
157.0107293974872
 31
0.0
  0
LINE
  5
390
330
38D
100
AcDbEntity
  8
0
 62
     5
370
    -2
100
AcDbLine
 10
-45.26199542391657
 20
61.00777370727768
 30
0.0
 11
-53.48141505979367
 21
61.00777370727769
 31
0.0
  0
LINE
  5
391
330
38D
100
AcDbEntity
  8
0
 62
     5
100
AcDbLine
 10
-51.48141505979365
 20
154.0107293974872
 30
0.0
 11
-51.48141505979367
 21
64.00777370727768
 31
0.0
  0
SOLID
  5
392
330
38D
100
AcDbEntity
  8
0
 62
     5
100
AcDbTrace
 10
-51.98141505979365
 20
154.0107293974872
 30
0.0
 11
-50.98141505979365
 21
154.0107293974872
 31
0.0
 12
-51.48141505979365
 22
157.0107293974872
 32
0.0
 13
-51.48141505979365
 23
157.0107293974872
 33
0.0
  0
SOLID
  5
393
330
38D
100
AcDbEntity
  8
0
 62
     5
100
AcDbTrace
 10
-51.98141505979368
 20
64.00777370727768
 30
0.0
 11
-50.98141505979367
 21
64.00777370727768
 31
0.0
 12
-51.48141505979367
 22
61.00777370727769
 32
0.0
 13
-51.48141505979367
 23
61.00777370727769
 33
0.0
  0
MTEXT
  5
394
330
38D
100
AcDbEntity
  8
0
 62
     5
100
AcDbMText
 10
-53.98141505979368
 20
109.0092515523824
 30
0.0
 40
3.0
 41
0.0
 71
     5
 72
     1
  1
\A1;96
  7
CHINESET
 11
0.0000000000000001
 21
1.0
 31
0.0
 73
     1
 44
1.0
1001
ACAD
1000
MTEXTBEGIN
1070
    73
1070
     1
1070
    44
1040
1.0
1070
    74
1070
     0
1000
MTEXTEND
  0
POINT
  5
395
330
38D
100
AcDbEntity
  8
Defpoints
 62
     0
100
AcDbPoint
 10
-33.01199542391656
 20
157.0107293974872
 30
0.0
  0
POINT
  5
396
330
38D
100
AcDbEntity
  8
Defpoints
 62
     0
100
AcDbPoint
 10
-43.26199542391656
 20
61.00777370727768
 30
0.0
  0
POINT
  5
397
330
38D
100
AcDbEntity
  8
Defpoints
 62
     0
100
AcDbPoint
 10
-51.48141505979367
 20
61.00777370727769
 30
0.0
  0
ENDBLK
  5
398
330
38D
100
AcDbEntity
  8
0
100
AcDbBlockEnd
  0
BLOCK
  5
39A
330
399
100
AcDbEntity
  8
0
100
AcDbBlockBegin
  2
*D9
 70
     1
 10
0.0
 20
0.0
 30
0.0
  3
*D9
  1

  0
LINE
  5
39B
330
399
100
AcDbEntity
  8
0
 62
     5
370
    -2
100
AcDbLine
 10
59.37089086265382
 20
25.43700022740143
 30
0.0
 11
28.04680154946903
 21
25.43700022740144
 31
0.0
  0
LINE
  5
39C
330
399
100
AcDbEntity
  8
0
 62
     5
370
    -2
100
AcDbLine
 10
60.25237898326463
 20
1.437000227401427
 30
0.0
 11
28.04680154946903
 21
1.437000227401436
 31
0.0
  0
LINE
  5
39D
330
399
100
AcDbEntity
  8
0
 62
     5
100
AcDbLine
 10
30.04680154946903
 20
22.43700022740144
 30
0.0
 11
30.04680154946902
 21
4.437000227401435
 31
0.0
  0
SOLID
  5
39E
330
399
100
AcDbEntity
  8
0
 62
     5
100
AcDbTrace
 10
29.54680154946903
 20
22.43700022740144
 30
0.0
 11
30.54680154946903
 21
22.43700022740144
 31
0.0
 12
30.04680154946903
 22
25.43700022740144
 32
0.0
 13
30.04680154946903
 23
25.43700022740144
 33
0.0
  0
SOLID
  5
39F
330
399
100
AcDbEntity
  8
0
 62
     5
100
AcDbTrace
 10
29.54680154946903
 20
4.437000227401436
 30
0.0
 11
30.54680154946903
 21
4.437000227401435
 31
0.0
 12
30.04680154946902
 22
1.437000227401435
 32
0.0
 13
30.04680154946902
 23
1.437000227401435
 33
0.0
  0
MTEXT
  5
3A0
330
399
100
AcDbEntity
  8
0
 62
     5
100
AcDbMText
 10
27.54680154946902
 20
13.43700022740144
 30
0.0
 40
3.0
 41
0.0
 71
     5
 72
     1
  1
\A1;24
  7
CHINESET
 11
0.0000000000000001
 21
1.0
 31
0.0
 73
     1
 44
1.0
1001
ACAD
1000
MTEXTBEGIN
1070
    73
1070
     1
1070
    44
1040
1.0
1070
    74
1070
     0
1000
MTEXTEND
  0
POINT
  5
3A1
330
399
100
AcDbEntity
  8
Defpoints
 62
     0
100
AcDbPoint
 10
61.37089086265382
 20
25.43700022740143
 30
0.0
  0
POINT
  5
3A2
330
399
100
AcDbEntity
  8
Defpoints
 62
     0
100
AcDbPoint
 10
62.25237898326463
 20
1.437000227401426
 30
0.0
  0
POINT
  5
3A3
330
399
100
AcDbEntity
  8
Defpoints
 62
     0
100
AcDbPoint
 10
30.04680154946902
 20
1.437000227401435
 30
0.0
  0
ENDBLK
  5
3A4
330
399
100
AcDbEntity
  8
0
100
AcDbBlockEnd
  0
BLOCK
  5
3A6
330
3A5
100
AcDbEntity
  8
0
100
AcDbBlockBegin
  2
*D10
 70
     1
 10
0.0
 20
0.0
 30
0.0
  3
*D10
  1

  0
LINE
  5
3A7
330
3A5
100
AcDbEntity
  8
0
 62
     5
370
    -2
100
AcDbLine
 10
37.25237898326464
 20
218.3015499383535
 30
0.0
 11
37.25237898326464
 21
230.3623152592505
 31
0.0
  0
LINE
  5
3A8
330
3A5
100
AcDbEntity
  8
0
 62
     5
370
    -2
100
AcDbLine
 10
117.2523789832646
 20
218.6015499383535
 30
0.0
 11
117.2523789832646
 21
230.3623152592505
 31
0.0
  0
LINE
  5
3A9
330
3A5
100
AcDbEntity
  8
0
 62
     5
100
AcDbLine
 10
40.25237898326463
 20
228.3623152592505
 30
0.0
 11
114.2523789832646
 21
228.3623152592505
 31
0.0
  0
SOLID
  5
3AA
330
3A5
100
AcDbEntity
  8
0
 62
     5
100
AcDbTrace
 10
40.25237898326463
 20
228.8623152592505
 30
0.0
 11
40.25237898326463
 21
227.8623152592505
 31
0.0
 12
37.25237898326464
 22
228.3623152592505
 32
0.0
 13
37.25237898326464
 23
228.3623152592505
 33
0.0
  0
SOLID
  5
3AB
330
3A5
100
AcDbEntity
  8
0
 62
     5
100
AcDbTrace
 10
114.2523789832646
 20
228.8623152592505
 30
0.0
 11
114.2523789832646
 21
227.8623152592505
 31
0.0
 12
117.2523789832646
 22
228.3623152592505
 32
0.0
 13
117.2523789832646
 23
228.3623152592505
 33
0.0
  0
MTEXT
  5
3AC
330
3A5
100
AcDbEntity
  8
0
 62
     5
100
AcDbMText
 10
77.25237898326463
 20
230.8623152592505
 30
0.0
 40
3.0
 41
0.0
 71
     5
 72
     1
  1
\A1;80
  7
CHINESET
 73
     1
 44
1.0
1001
ACAD
1000
MTEXTBEGIN
1070
    73
1070
     1
1070
    44
1040
1.0
1070
    74
1070
     0
1000
MTEXTEND
  0
POINT
  5
3AD
330
3A5
100
AcDbEntity
  8
Defpoints
 62
     0
100
AcDbPoint
 10
37.25237898326464
 20
216.3015499383535
 30
0.0
  0
POINT
  5
3AE
330
3A5
100
AcDbEntity
  8
Defpoints
 62
     0
100
AcDbPoint
 10
117.2523789832646
 20
216.6015499383535
 30
0.0
  0
POINT
  5
3AF
330
3A5
100
AcDbEntity
  8
Defpoints
 62
     0
100
AcDbPoint
 10
117.2523789832646
 20
228.3623152592505
 30
0.0
  0
ENDBLK
  5
3B0
330
3A5
100
AcDbEntity
  8
0
100
AcDbBlockEnd
  0
BLOCK
  5
7F5
330
7EB
100
AcDbEntity
  8
0
100
AcDbBlockBegin
  2
*D12
 70
     1
 10
0.0
 20
0.0
 30
0.0
  3
*D12
  1

  0
LINE
  5
83F
330
7EB
100
AcDbEntity
  8
0
 62
     5
370
    -2
100
AcDbLine
 10
216.1211803112204
 20
189.8806888786587
 30
0.0
 11
190.7885493002522
 21
189.8806888786587
 31
0.0
  0
LINE
  5
840
330
7EB
100
AcDbEntity
  8
0
 62
     5
370
    -2
100
AcDbLine
 10
216.1211803112204
 20
151.8806888786587
 30
0.0
 11
190.7885493002522
 21
151.8806888786587
 31
0.0
  0
LINE
  5
841
330
7EB
100
AcDbEntity
  8
0
 62
     5
100
AcDbLine
 10
192.7885493002522
 20
186.8806888786587
 30
0.0
 11
192.7885493002522
 21
154.8806888786587
 31
0.0
  0
SOLID
  5
842
330
7EB
100
AcDbEntity
  8
0
 62
     5
100
AcDbTrace
 10
192.2885493002523
 20
186.8806888786587
 30
0.0
 11
193.2885493002522
 21
186.8806888786587
 31
0.0
 12
192.7885493002522
 22
189.8806888786587
 32
0.0
 13
192.7885493002522
 23
189.8806888786587
 33
0.0
  0
SOLID
  5
843
330
7EB
100
AcDbEntity
  8
0
 62
     5
100
AcDbTrace
 10
192.2885493002523
 20
154.8806888786587
 30
0.0
 11
193.2885493002522
 21
154.8806888786587
 31
0.0
 12
192.7885493002522
 22
151.8806888786587
 32
0.0
 13
192.7885493002522
 23
151.8806888786587
 33
0.0
  0
MTEXT
  5
844
330
7EB
100
AcDbEntity
  8
0
 62
     5
100
AcDbMText
 10
190.2885493002522
 20
170.8806888786587
 30
0.0
 40
3.0
 41
0.0
 71
     5
 72
     1
  1
\A1;38
  7
CHINESET
 11
0.0000000000000001
 21
1.0
 31
0.0
 73
     1
 44
1.0
1001
ACAD
1000
MTEXTBEGIN
1070
    73
1070
     1
1070
    44
1040
1.0
1070
    74
1070
     0
1000
MTEXTEND
  0
POINT
  5
845
330
7EB
100
AcDbEntity
  8
Defpoints
 62
     0
100
AcDbPoint
 10
218.1211803112204
 20
189.8806888786587
 30
0.0
  0
POINT
  5
846
330
7EB
100
AcDbEntity
  8
Defpoints
 62
     0
100
AcDbPoint
 10
218.1211803112204
 20
151.8806888786587
 30
0.0
  0
POINT
  5
847
330
7EB
100
AcDbEntity
  8
Defpoints
 62
     0
100
AcDbPoint
 10
192.7885493002522
 20
151.8806888786587
 30
0.0
  0
ENDBLK
  5
7F6
330
7EB
100
AcDbEntity
  8
0
100
AcDbBlockEnd
  0
BLOCK
  5
801
330
7F7
100
AcDbEntity
  8
0
100
AcDbBlockBegin
  2
*D13
 70
     1
 10
0.0
 20
0.0
 30
0.0
  3
*D13
  1

  0
LINE
  5
848
330
7F7
100
AcDbEntity
  8
0
 62
     5
370
    -2
100
AcDbLine
 10
237.1211803112204
 20
318.6444180487445
 30
0.0
 11
237.1211803112204
 21
322.6261254654363
 31
0.0
  0
LINE
  5
849
330
7F7
100
AcDbEntity
  8
0
 62
     5
370
    -2
100
AcDbLine
 10
290.1211803112204
 20
311.7444180487445
 30
0.0
 11
290.1211803112204
 21
322.6261254654363
 31
0.0
  0
LINE
  5
84A
330
7F7
100
AcDbEntity
  8
0
 62
     5
100
AcDbLine
 10
240.1211803112204
 20
320.6261254654363
 30
0.0
 11
287.1211803112204
 21
320.6261254654363
 31
0.0
  0
SOLID
  5
84B
330
7F7
100
AcDbEntity
  8
0
 62
     5
100
AcDbTrace
 10
240.1211803112204
 20
321.1261254654363
 30
0.0
 11
240.1211803112204
 21
320.1261254654363
 31
0.0
 12
237.1211803112204
 22
320.6261254654363
 32
0.0
 13
237.1211803112204
 23
320.6261254654363
 33
0.0
  0
SOLID
  5
84C
330
7F7
100
AcDbEntity
  8
0
 62
     5
100
AcDbTrace
 10
287.1211803112204
 20
321.1261254654363
 30
0.0
 11
287.1211803112204
 21
320.1261254654363
 31
0.0
 12
290.1211803112204
 22
320.6261254654363
 32
0.0
 13
290.1211803112204
 23
320.6261254654363
 33
0.0
  0
MTEXT
  5
84D
330
7F7
100
AcDbEntity
  8
0
 62
     5
100
AcDbMText
 10
263.6211803112204
 20
323.1261254654363
 30
0.0
 40
3.0
 41
0.0
 71
     5
 72
     1
  1
\A1;53
  7
CHINESET
 73
     1
 44
1.0
1001
ACAD
1000
MTEXTBEGIN
1070
    73
1070
     1
1070
    44
1040
1.0
1070
    74
1070
     0
1000
MTEXTEND
  0
POINT
  5
84E
330
7F7
100
AcDbEntity
  8
Defpoints
 62
     0
100
AcDbPoint
 10
237.1211803112204
 20
316.6444180487445
 30
0.0
  0
POINT
  5
84F
330
7F7
100
AcDbEntity
  8
Defpoints
 62
     0
100
AcDbPoint
 10
290.1211803112204
 20
309.7444180487445
 30
0.0
  0
POINT
  5
850
330
7F7
100
AcDbEntity
  8
Defpoints
 62
     0
100
AcDbPoint
 10
290.1211803112204
 20
320.6261254654363
 30
0.0
  0
ENDBLK
  5
802
330
7F7
100
AcDbEntity
  8
0
100
AcDbBlockEnd
  0
BLOCK
  5
80D
330
803
100
AcDbEntity
  8
0
100
AcDbBlockBegin
  2
*D14
 70
     1
 10
0.0
 20
0.0
 30
0.0
  3
*D14
  1

  0
LINE
  5
851
330
803
100
AcDbEntity
  8
0
 62
     5
370
    -2
100
AcDbLine
 10
228.3711803112204
 20
314.4544180487445
 30
0.0
 11
199.0099024509118
 21
314.4544180487445
 31
0.0
  0
LINE
  5
852
330
803
100
AcDbEntity
  8
0
 62
     5
370
    -2
100
AcDbLine
 10
207.6211803112204
 20
218.451462358535
 30
0.0
 11
199.0099024509118
 21
218.451462358535
 31
0.0
  0
LINE
  5
853
330
803
100
AcDbEntity
  8
0
 62
     5
100
AcDbLine
 10
201.0099024509118
 20
311.4544180487445
 30
0.0
 11
201.0099024509118
 21
221.451462358535
 31
0.0
  0
SOLID
  5
854
330
803
100
AcDbEntity
  8
0
 62
     5
100
AcDbTrace
 10
200.5099024509118
 20
311.4544180487445
 30
0.0
 11
201.5099024509118
 21
311.4544180487445
 31
0.0
 12
201.0099024509118
 22
314.4544180487445
 32
0.0
 13
201.0099024509118
 23
314.4544180487445
 33
0.0
  0
SOLID
  5
855
330
803
100
AcDbEntity
  8
0
 62
     5
100
AcDbTrace
 10
200.5099024509118
 20
221.451462358535
 30
0.0
 11
201.5099024509118
 21
221.451462358535
 31
0.0
 12
201.0099024509118
 22
218.451462358535
 32
0.0
 13
201.0099024509118
 23
218.451462358535
 33
0.0
  0
MTEXT
  5
856
330
803
100
AcDbEntity
  8
0
 62
     5
100
AcDbMText
 10
198.5099024509118
 20
266.4529402036398
 30
0.0
 40
3.0
 41
0.0
 71
     5
 72
     1
  1
\A1;96
  7
CHINESET
 11
0.0000000000000001
 21
1.0
 31
0.0
 73
     1
 44
1.0
1001
ACAD
1000
MTEXTBEGIN
1070
    73
1070
     1
1070
    44
1040
1.0
1070
    74
1070
     0
1000
MTEXTEND
  0
POINT
  5
857
330
803
100
AcDbEntity
  8
Defpoints
 62
     0
100
AcDbPoint
 10
230.3711803112204
 20
314.4544180487445
 30
0.0
  0
POINT
  5
858
330
803
100
AcDbEntity
  8
Defpoints
 62
     0
100
AcDbPoint
 10
209.6211803112204
 20
218.451462358535
 30
0.0
  0
POINT
  5
859
330
803
100
AcDbEntity
  8
Defpoints
 62
     0
100
AcDbPoint
 10
201.0099024509118
 20
218.451462358535
 30
0.0
  0
ENDBLK
  5
80E
330
803
100
AcDbEntity
  8
0
100
AcDbBlockEnd
  0
BLOCK
  5
819
330
80F
100
AcDbEntity
  8
0
100
AcDbBlockBegin
  2
*D15
 70
     1
 10
0.0
 20
0.0
 30
0.0
  3
*D15
  1

  0
LINE
  5
85A
330
80F
100
AcDbEntity
  8
0
 62
     5
370
    -2
100
AcDbLine
 10
209.6211803112204
 20
216.451462358535
 30
0.0
 11
209.6211803112204
 21
207.8181337741709
 31
0.0
  0
LINE
  5
85B
330
80F
100
AcDbEntity
  8
0
 62
     5
370
    -2
100
AcDbLine
 10
264.6211803112204
 20
216.4344180487444
 30
0.0
 11
264.6211803112204
 21
207.8181337741709
 31
0.0
  0
LINE
  5
85C
330
80F
100
AcDbEntity
  8
0
 62
     5
100
AcDbLine
 10
212.6211803112204
 20
209.8181337741709
 30
0.0
 11
261.6211803112204
 21
209.8181337741709
 31
0.0
  0
SOLID
  5
85D
330
80F
100
AcDbEntity
  8
0
 62
     5
100
AcDbTrace
 10
212.6211803112204
 20
210.3181337741709
 30
0.0
 11
212.6211803112204
 21
209.3181337741709
 31
0.0
 12
209.6211803112204
 22
209.8181337741709
 32
0.0
 13
209.6211803112204
 23
209.8181337741709
 33
0.0
  0
SOLID
  5
85E
330
80F
100
AcDbEntity
  8
0
 62
     5
100
AcDbTrace
 10
261.6211803112204
 20
210.3181337741709
 30
0.0
 11
261.6211803112204
 21
209.3181337741709
 31
0.0
 12
264.6211803112204
 22
209.8181337741709
 32
0.0
 13
264.6211803112204
 23
209.8181337741709
 33
0.0
  0
MTEXT
  5
85F
330
80F
100
AcDbEntity
  8
0
 62
     5
100
AcDbMText
 10
237.1211803112204
 20
212.3181337741709
 30
0.0
 40
3.0
 41
0.0
 71
     5
 72
     1
  1
\A1;55
  7
CHINESET
 73
     1
 44
1.0
1001
ACAD
1000
MTEXTBEGIN
1070
    73
1070
     1
1070
    44
1040
1.0
1070
    74
1070
     0
1000
MTEXTEND
  0
POINT
  5
860
330
80F
100
AcDbEntity
  8
Defpoints
 62
     0
100
AcDbPoint
 10
209.6211803112204
 20
218.451462358535
 30
0.0
  0
POINT
  5
861
330
80F
100
AcDbEntity
  8
Defpoints
 62
     0
100
AcDbPoint
 10
264.6211803112204
 20
218.4344180487444
 30
0.0
  0
POINT
  5
862
330
80F
100
AcDbEntity
  8
Defpoints
 62
     0
100
AcDbPoint
 10
264.6211803112204
 20
209.8181337741709
 30
0.0
  0
ENDBLK
  5
81A
330
80F
100
AcDbEntity
  8
0
100
AcDbBlockEnd
  0
BLOCK
  5
825
330
81B
100
AcDbEntity
  8
0
100
AcDbBlockBegin
  2
*D16
 70
     1
 10
0.0
 20
0.0
 30
0.0
  3
*D16
  1

  0
LINE
  5
863
330
81B
100
AcDbEntity
  8
0
 62
     5
370
    -2
100
AcDbLine
 10
137.8568059040392
 20
314.4544180487445
 30
0.0
 11
119.3873862681621
 21
314.4544180487445
 31
0.0
  0
LINE
  5
864
330
81B
100
AcDbEntity
  8
0
 62
     5
370
    -2
100
AcDbLine
 10
127.6068059040392
 20
218.451462358535
 30
0.0
 11
119.3873862681621
 21
218.451462358535
 31
0.0
  0
LINE
  5
865
330
81B
100
AcDbEntity
  8
0
 62
     5
100
AcDbLine
 10
121.3873862681621
 20
311.4544180487445
 30
0.0
 11
121.3873862681621
 21
221.451462358535
 31
0.0
  0
SOLID
  5
866
330
81B
100
AcDbEntity
  8
0
 62
     5
100
AcDbTrace
 10
120.8873862681621
 20
311.4544180487445
 30
0.0
 11
121.8873862681621
 21
311.4544180487445
 31
0.0
 12
121.3873862681621
 22
314.4544180487445
 32
0.0
 13
121.3873862681621
 23
314.4544180487445
 33
0.0
  0
SOLID
  5
867
330
81B
100
AcDbEntity
  8
0
 62
     5
100
AcDbTrace
 10
120.8873862681621
 20
221.451462358535
 30
0.0
 11
121.8873862681621
 21
221.451462358535
 31
0.0
 12
121.3873862681621
 22
218.451462358535
 32
0.0
 13
121.3873862681621
 23
218.451462358535
 33
0.0
  0
MTEXT
  5
868
330
81B
100
AcDbEntity
  8
0
 62
     5
100
AcDbMText
 10
118.8873862681621
 20
266.4529402036397
 30
0.0
 40
3.0
 41
0.0
 71
     5
 72
     1
  1
\A1;96
  7
CHINESET
 11
0.0000000000000001
 21
1.0
 31
0.0
 73
     1
 44
1.0
1001
ACAD
1000
MTEXTBEGIN
1070
    73
1070
     1
1070
    44
1040
1.0
1070
    74
1070
     0
1000
MTEXTEND
  0
POINT
  5
869
330
81B
100
AcDbEntity
  8
Defpoints
 62
     0
100
AcDbPoint
 10
139.8568059040392
 20
314.4544180487445
 30
0.0
  0
POINT
  5
86A
330
81B
100
AcDbEntity
  8
Defpoints
 62
     0
100
AcDbPoint
 10
129.6068059040392
 20
218.451462358535
 30
0.0
  0
POINT
  5
86B
330
81B
100
AcDbEntity
  8
Defpoints
 62
     0
100
AcDbPoint
 10
121.3873862681621
 20
218.451462358535
 30
0.0
  0
ENDBLK
  5
826
330
81B
100
AcDbEntity
  8
0
100
AcDbBlockEnd
  0
BLOCK
  5
831
330
827
100
AcDbEntity
  8
0
100
AcDbBlockBegin
  2
*D17
 70
     1
 10
0.0
 20
0.0
 30
0.0
  3
*D17
  1

  0
LINE
  5
86C
330
827
100
AcDbEntity
  8
0
 62
     5
370
    -2
100
AcDbLine
 10
232.2396921906096
 20
182.8806888786587
 30
0.0
 11
200.9156028774248
 21
182.8806888786587
 31
0.0
  0
LINE
  5
86D
330
827
100
AcDbEntity
  8
0
 62
     5
370
    -2
100
AcDbLine
 10
233.1211803112204
 20
158.8806888786587
 30
0.0
 11
200.9156028774248
 21
158.8806888786587
 31
0.0
  0
LINE
  5
86E
330
827
100
AcDbEntity
  8
0
 62
     5
100
AcDbLine
 10
202.9156028774248
 20
179.8806888786587
 30
0.0
 11
202.9156028774248
 21
161.8806888786587
 31
0.0
  0
SOLID
  5
86F
330
827
100
AcDbEntity
  8
0
 62
     5
100
AcDbTrace
 10
202.4156028774248
 20
179.8806888786587
 30
0.0
 11
203.4156028774248
 21
179.8806888786587
 31
0.0
 12
202.9156028774248
 22
182.8806888786587
 32
0.0
 13
202.9156028774248
 23
182.8806888786587
 33
0.0
  0
SOLID
  5
870
330
827
100
AcDbEntity
  8
0
 62
     5
100
AcDbTrace
 10
202.4156028774248
 20
161.8806888786587
 30
0.0
 11
203.4156028774248
 21
161.8806888786587
 31
0.0
 12
202.9156028774248
 22
158.8806888786587
 32
0.0
 13
202.9156028774248
 23
158.8806888786587
 33
0.0
  0
MTEXT
  5
871
330
827
100
AcDbEntity
  8
0
 62
     5
100
AcDbMText
 10
200.4156028774248
 20
170.8806888786587
 30
0.0
 40
3.0
 41
0.0
 71
     5
 72
     1
  1
\A1;24
  7
CHINESET
 11
0.0000000000000001
 21
1.0
 31
0.0
 73
     1
 44
1.0
1001
ACAD
1000
MTEXTBEGIN
1070
    73
1070
     1
1070
    44
1040
1.0
1070
    74
1070
     0
1000
MTEXTEND
  0
POINT
  5
872
330
827
100
AcDbEntity
  8
Defpoints
 62
     0
100
AcDbPoint
 10
234.2396921906096
 20
182.8806888786587
 30
0.0
  0
POINT
  5
873
330
827
100
AcDbEntity
  8
Defpoints
 62
     0
100
AcDbPoint
 10
235.1211803112204
 20
158.8806888786587
 30
0.0
  0
POINT
  5
874
330
827
100
AcDbEntity
  8
Defpoints
 62
     0
100
AcDbPoint
 10
202.9156028774248
 20
158.8806888786587
 30
0.0
  0
ENDBLK
  5
832
330
827
100
AcDbEntity
  8
0
100
AcDbBlockEnd
  0
BLOCK
  5
83D
330
833
100
AcDbEntity
  8
0
100
AcDbBlockBegin
  2
*D18
 70
     1
 10
0.0
 20
0.0
 30
0.0
  3
*D18
  1

  0
LINE
  5
875
330
833
100
AcDbEntity
  8
0
 62
     5
370
    -2
100
AcDbLine
 10
210.1211803112204
 20
375.7452385896107
 30
0.0
 11
210.1211803112204
 21
387.8060039105078
 31
0.0
  0
LINE
  5
876
330
833
100
AcDbEntity
  8
0
 62
     5
370
    -2
100
AcDbLine
 10
290.1211803112204
 20
376.0452385896107
 30
0.0
 11
290.1211803112204
 21
387.8060039105078
 31
0.0
  0
LINE
  5
877
330
833
100
AcDbEntity
  8
0
 62
     5
100
AcDbLine
 10
213.1211803112204
 20
385.8060039105078
 30
0.0
 11
287.1211803112204
 21
385.8060039105078
 31
0.0
  0
SOLID
  5
878
330
833
100
AcDbEntity
  8
0
 62
     5
100
AcDbTrace
 10
213.1211803112204
 20
386.3060039105078
 30
0.0
 11
213.1211803112204
 21
385.3060039105078
 31
0.0
 12
210.1211803112204
 22
385.8060039105078
 32
0.0
 13
210.1211803112204
 23
385.8060039105078
 33
0.0
  0
SOLID
  5
879
330
833
100
AcDbEntity
  8
0
 62
     5
100
AcDbTrace
 10
287.1211803112204
 20
386.3060039105078
 30
0.0
 11
287.1211803112204
 21
385.3060039105078
 31
0.0
 12
290.1211803112204
 22
385.8060039105078
 32
0.0
 13
290.1211803112204
 23
385.8060039105078
 33
0.0
  0
MTEXT
  5
87A
330
833
100
AcDbEntity
  8
0
 62
     5
100
AcDbMText
 10
250.1211803112204
 20
388.3060039105078
 30
0.0
 40
3.0
 41
0.0
 71
     5
 72
     1
  1
\A1;80
  7
CHINESET
 73
     1
 44
1.0
1001
ACAD
1000
MTEXTBEGIN
1070
    73
1070
     1
1070
    44
1040
1.0
1070
    74
1070
     0
1000
MTEXTEND
  0
POINT
  5
87B
330
833
100
AcDbEntity
  8
Defpoints
 62
     0
100
AcDbPoint
 10
210.1211803112204
 20
373.7452385896107
 30
0.0
  0
POINT
  5
87C
330
833
100
AcDbEntity
  8
Defpoints
 62
     0
100
AcDbPoint
 10
290.1211803112204
 20
374.0452385896107
 30
0.0
  0
POINT
  5
87D
330
833
100
AcDbEntity
  8
Defpoints
 62
     0
100
AcDbPoint
 10
290.1211803112204
 20
385.8060039105078
 30
0.0
  0
ENDBLK
  5
83E
330
833
100
AcDbEntity
  8
0
100
AcDbBlockEnd
  0
ENDSEC
  0
SECTION
  2
ENTITIES
  0
LINE
  5
5E7
330
1F
100
AcDbEntity
  8
AM_7
 62
     1
100
AcDbLine
 10
279.3711803112204
 20
311.2013980385243
 30
0.0
 11
279.3711803112204
 21
259.8662172290088
 31
0.0
  0
LINE
  5
5E8
330
1F
100
AcDbEntity
  8
AM_7
 62
     1
100
AcDbLine
 10
207.6211803112204
 20
230.661462358535
 30
0.0
 11
266.5198561921868
 21
230.661462358535
 31
0.0
  0
LINE
  5
5E9
330
1F
100
AcDbEntity
  8
AM_7
 62
     1
100
AcDbLine
 10
237.1211803112204
 20
218.0334786297535
 30
0.0
 11
237.1211803112204
 21
316.6444180487445
 31
0.0
  0
LINE
  5
5EA
330
1F
100
AcDbEntity
  8
AM_7
 62
     1
100
AcDbLine
 10
353.2327639249757
 20
296.9444180487445
 30
0.0
 11
355.2327639249757
 21
296.9444180487445
 31
0.0
  0
LINE
  5
5EB
330
1F
100
AcDbEntity
  8
AM_7
 62
     1
100
AcDbLine
 10
348.7327639249756
 20
296.9444180487445
 30
0.0
 11
352.2327639249756
 21
296.9444180487445
 31
0.0
  0
LINE
  5
5EC
330
1F
100
AcDbEntity
  8
AM_7
 62
     1
100
AcDbLine
 10
356.2327639249756
 20
296.9444180487445
 30
0.0
 11
359.7327639249757
 21
296.9444180487445
 31
0.0
  0
LINE
  5
5ED
330
1F
100
AcDbEntity
  8
AM_7
 62
     1
100
AcDbLine
 10
354.2327639249756
 20
212.9210177028107
 30
0.0
 11
354.2327639249756
 21
318.4653096660601
 31
0.0
  0
LINE
  5
5EE
330
1F
100
AcDbEntity
  8
AM_7
 62
     1
100
AcDbLine
 10
146.6068059040392
 20
316.2383299958016
 30
0.0
 11
146.6068059040392
 21
250.6444180487445
 31
0.0
  0
LINE
  5
5EF
330
1F
100
AcDbEntity
  8
AM_7
100
AcDbLine
 10
146.6068059040392
 20
243.9544180487445
 30
0.0
 11
146.6068059040392
 21
233.2847934369982
 31
0.0
  0
LINE
  5
5F0
330
1F
100
AcDbEntity
  8
AM_7
 62
     1
100
AcDbLine
 10
146.6068059040392
 20
229.471462358535
 30
0.0
 11
146.6068059040392
 21
231.471462358535
 31
0.0
  0
LINE
  5
5F1
330
1F
100
AcDbEntity
  8
AM_7
 62
     1
100
AcDbLine
 10
146.6068059040392
 20
215.971462358535
 30
0.0
 11
146.6068059040392
 21
228.471462358535
 31
0.0
  0
LINE
  5
5F2
330
1F
100
AcDbEntity
  8
AM_7
 62
     1
100
AcDbLine
 10
146.6068059040392
 20
232.471462358535
 30
0.0
 11
146.6068059040392
 21
244.971462358535
 31
0.0
  0
LINE
  5
5F3
330
1F
100
AcDbEntity
  8
AM_7
 62
     1
100
AcDbLine
 10
146.6068059040392
 20
229.4544180487445
 30
0.0
 11
146.6068059040392
 21
231.4544180487445
 31
0.0
  0
LINE
  5
5F4
330
1F
100
AcDbEntity
  8
AM_7
 62
     1
100
AcDbLine
 10
146.6068059040392
 20
215.9544180487444
 30
0.0
 11
146.6068059040392
 21
228.4544180487444
 31
0.0
  0
LINE
  5
5F5
330
1F
100
AcDbEntity
  8
AM_7
 62
     1
100
AcDbLine
 10
146.6068059040392
 20
232.4544180487444
 30
0.0
 11
146.6068059040392
 21
244.9544180487444
 31
0.0
  0
LINE
  5
5F6
330
1F
100
AcDbEntity
  8
AM_7
 62
     1
100
AcDbLine
 10
236.1211803112204
 20
170.8806888786587
 30
0.0
 11
238.1211803112204
 21
170.8806888786587
 31
0.0
  0
LINE
  5
5F7
330
1F
100
AcDbEntity
  8
AM_7
 62
     1
100
AcDbLine
 10
234.7177432734055
 20
158.8806888786587
 30
0.0
 11
239.4180239040458
 21
158.8806888786587
 31
0.0
  0
LINE
  5
5F8
330
1F
100
AcDbEntity
  8
AM_7
 62
     1
100
AcDbLine
 10
234.2396921906096
 20
182.8806888786587
 30
0.0
 11
239.503120926452
 21
182.8806888786587
 31
0.0
  0
LINE
  5
5F9
330
1F
100
AcDbEntity
  8
AM_7
 62
     1
100
AcDbLine
 10
237.1211803112204
 20
169.8806888786587
 30
0.0
 11
237.1211803112204
 21
171.8806888786587
 31
0.0
  0
LINE
  5
5FA
330
1F
100
AcDbEntity
  8
AM_7
 62
     1
100
AcDbLine
 10
218.1211803112204
 20
170.8806888786587
 30
0.0
 11
235.1211803112204
 21
170.8806888786587
 31
0.0
  0
LINE
  5
5FB
330
1F
100
AcDbEntity
  8
AM_7
 62
     1
100
AcDbLine
 10
239.1211803112204
 20
170.8806888786587
 30
0.0
 11
292.0382639374195
 21
170.8806888786587
 31
0.0
  0
LINE
  5
5FC
330
1F
100
AcDbEntity
  8
AM_7
 62
     1
100
AcDbLine
 10
237.1211803112204
 20
151.8806888786587
 30
0.0
 11
237.1211803112204
 21
168.8806888786587
 31
0.0
  0
LINE
  5
5FD
330
1F
100
AcDbEntity
  8
AM_7
 62
     1
100
AcDbLine
 10
237.1211803112204
 20
172.8806888786587
 30
0.0
 11
237.1211803112204
 21
189.8806888786587
 31
0.0
  0
LINE
  5
5FE
330
1F
100
AcDbEntity
  8
AM_7
 62
     1
100
AcDbLine
 10
228.6211803112204
 20
170.8806888786587
 30
0.0
 11
207.6211803112204
 21
170.8806888786587
 31
0.0
  0
LINE
  5
5FF
330
1F
100
AcDbEntity
  8
AM_7
 62
     1
100
AcDbLine
 10
279.3711803112204
 20
169.8806888786587
 30
0.0
 11
279.3711803112204
 21
171.8806888786587
 31
0.0
  0
LINE
  5
600
330
1F
100
AcDbEntity
  8
AM_7
 62
     1
100
AcDbLine
 10
279.3711803112204
 20
158.1306888786587
 30
0.0
 11
279.3711803112204
 21
168.8806888786587
 31
0.0
  0
LINE
  5
601
330
1F
100
AcDbEntity
  8
AM_7
 62
     1
100
AcDbLine
 10
279.3711803112204
 20
172.8806888786587
 30
0.0
 11
279.3711803112204
 21
183.6306888786587
 31
0.0
  0
LINE
  5
602
330
1F
100
AcDbEntity
  8
AM_7
 62
     1
100
AcDbLine
 10
221.6211803112204
 20
156.3806888786587
 30
0.0
 11
223.6211803112204
 21
156.3806888786587
 31
0.0
  0
LINE
  5
603
330
1F
100
AcDbEntity
  8
AM_7
 62
     1
100
AcDbLine
 10
222.6211803112204
 20
155.3806888786587
 30
0.0
 11
222.6211803112204
 21
157.3806888786587
 31
0.0
  0
LINE
  5
604
330
1F
100
AcDbEntity
  8
AM_7
 62
     1
100
AcDbLine
 10
219.1211803112204
 20
156.3806888786587
 30
0.0
 11
220.6211803112204
 21
156.3806888786587
 31
0.0
  0
LINE
  5
605
330
1F
100
AcDbEntity
  8
AM_7
 62
     1
100
AcDbLine
 10
224.6211803112204
 20
156.3806888786587
 30
0.0
 11
226.1211803112204
 21
156.3806888786587
 31
0.0
  0
LINE
  5
606
330
1F
100
AcDbEntity
  8
AM_7
 62
     1
100
AcDbLine
 10
222.6211803112204
 20
152.8806888786587
 30
0.0
 11
222.6211803112204
 21
154.3806888786587
 31
0.0
  0
LINE
  5
607
330
1F
100
AcDbEntity
  8
AM_7
 62
     1
100
AcDbLine
 10
222.6211803112204
 20
158.3806888786587
 30
0.0
 11
222.6211803112204
 21
159.8806888786587
 31
0.0
  0
LINE
  5
608
330
1F
100
AcDbEntity
  8
AM_7
 62
     1
100
AcDbLine
 10
250.6211803112204
 20
156.3806888786587
 30
0.0
 11
252.6211803112204
 21
156.3806888786587
 31
0.0
  0
LINE
  5
609
330
1F
100
AcDbEntity
  8
AM_7
 62
     1
100
AcDbLine
 10
251.6211803112204
 20
155.3806888786587
 30
0.0
 11
251.6211803112204
 21
157.3806888786587
 31
0.0
  0
LINE
  5
60A
330
1F
100
AcDbEntity
  8
AM_7
 62
     1
100
AcDbLine
 10
248.1211803112204
 20
156.3806888786587
 30
0.0
 11
249.6211803112204
 21
156.3806888786587
 31
0.0
  0
LINE
  5
60B
330
1F
100
AcDbEntity
  8
AM_7
 62
     1
100
AcDbLine
 10
253.6211803112204
 20
156.3806888786587
 30
0.0
 11
255.1211803112204
 21
156.3806888786587
 31
0.0
  0
LINE
  5
60C
330
1F
100
AcDbEntity
  8
AM_7
 62
     1
100
AcDbLine
 10
251.6211803112204
 20
152.8806888786587
 30
0.0
 11
251.6211803112204
 21
154.3806888786587
 31
0.0
  0
LINE
  5
60D
330
1F
100
AcDbEntity
  8
AM_7
 62
     1
100
AcDbLine
 10
251.6211803112204
 20
158.3806888786587
 30
0.0
 11
251.6211803112204
 21
159.8806888786587
 31
0.0
  0
LINE
  5
60E
330
1F
100
AcDbEntity
  8
AM_7
 62
     1
100
AcDbLine
 10
221.6211803112204
 20
185.3806888786587
 30
0.0
 11
223.6211803112204
 21
185.3806888786587
 31
0.0
  0
LINE
  5
60F
330
1F
100
AcDbEntity
  8
AM_7
 62
     1
100
AcDbLine
 10
222.6211803112204
 20
184.3806888786587
 30
0.0
 11
222.6211803112204
 21
186.3806888786587
 31
0.0
  0
LINE
  5
610
330
1F
100
AcDbEntity
  8
AM_7
 62
     1
100
AcDbLine
 10
219.1211803112204
 20
185.3806888786587
 30
0.0
 11
220.6211803112204
 21
185.3806888786587
 31
0.0
  0
LINE
  5
611
330
1F
100
AcDbEntity
  8
AM_7
 62
     1
100
AcDbLine
 10
224.6211803112204
 20
185.3806888786587
 30
0.0
 11
226.1211803112204
 21
185.3806888786587
 31
0.0
  0
LINE
  5
612
330
1F
100
AcDbEntity
  8
AM_7
 62
     1
100
AcDbLine
 10
222.6211803112204
 20
181.8806888786587
 30
0.0
 11
222.6211803112204
 21
183.3806888786587
 31
0.0
  0
LINE
  5
613
330
1F
100
AcDbEntity
  8
AM_7
 62
     1
100
AcDbLine
 10
222.6211803112204
 20
187.3806888786587
 30
0.0
 11
222.6211803112204
 21
188.8806888786587
 31
0.0
  0
LINE
  5
614
330
1F
100
AcDbEntity
  8
AM_7
 62
     1
100
AcDbLine
 10
250.6211803112204
 20
185.3806888786587
 30
0.0
 11
252.6211803112204
 21
185.3806888786587
 31
0.0
  0
LINE
  5
615
330
1F
100
AcDbEntity
  8
AM_7
 62
     1
100
AcDbLine
 10
251.6211803112204
 20
184.3806888786587
 30
0.0
 11
251.6211803112204
 21
186.3806888786587
 31
0.0
  0
LINE
  5
616
330
1F
100
AcDbEntity
  8
AM_7
 62
     1
100
AcDbLine
 10
248.1211803112204
 20
185.3806888786587
 30
0.0
 11
249.6211803112204
 21
185.3806888786587
 31
0.0
  0
LINE
  5
617
330
1F
100
AcDbEntity
  8
AM_7
 62
     1
100
AcDbLine
 10
253.6211803112204
 20
185.3806888786587
 30
0.0
 11
255.1211803112204
 21
185.3806888786587
 31
0.0
  0
LINE
  5
618
330
1F
100
AcDbEntity
  8
AM_7
 62
     1
100
AcDbLine
 10
251.6211803112204
 20
181.8806888786587
 30
0.0
 11
251.6211803112204
 21
183.3806888786587
 31
0.0
  0
LINE
  5
619
330
1F
100
AcDbEntity
  8
AM_7
 62
     1
100
AcDbLine
 10
251.6211803112204
 20
187.3806888786587
 30
0.0
 11
251.6211803112204
 21
188.8806888786587
 31
0.0
  0
LINE
  5
61A
330
1F
100
AcDbEntity
  8
AM_7
 62
     1
100
AcDbLine
 10
236.6211803112204
 20
361.2452385896107
 30
0.0
 11
238.6211803112204
 21
361.2452385896107
 31
0.0
  0
LINE
  5
61B
330
1F
100
AcDbEntity
  8
AM_7
 62
     1
100
AcDbLine
 10
237.6211803112204
 20
360.2452385896107
 30
0.0
 11
237.6211803112204
 21
362.2452385896107
 31
0.0
  0
LINE
  5
61C
330
1F
100
AcDbEntity
  8
AM_7
 62
     1
100
AcDbLine
 10
220.6211803112204
 20
361.2452385896107
 30
0.0
 11
235.6211803112204
 21
361.2452385896107
 31
0.0
  0
LINE
  5
61D
330
1F
100
AcDbEntity
  8
AM_7
 62
     1
100
AcDbLine
 10
239.6211803112204
 20
361.2452385896107
 30
0.0
 11
254.6211803112204
 21
361.2452385896107
 31
0.0
  0
LINE
  5
61E
330
1F
100
AcDbEntity
  8
AM_7
 62
     1
100
AcDbLine
 10
237.6211803112204
 20
344.2452385896107
 30
0.0
 11
237.6211803112204
 21
359.2452385896107
 31
0.0
  0
LINE
  5
61F
330
1F
100
AcDbEntity
  8
AM_7
 62
     1
100
AcDbLine
 10
237.6211803112204
 20
363.2452385896107
 30
0.0
 11
237.6211803112204
 21
378.2452385896107
 31
0.0
  0
LINE
  5
620
330
1F
100
AcDbEntity
  8
AM_7
100
AcDbLine
 10
251.1211803112204
 20
375.7452385896107
 30
0.0
 11
253.1211803112204
 21
375.7452385896107
 31
0.0
  0
LINE
  5
621
330
1F
100
AcDbEntity
  8
AM_7
 62
     1
100
AcDbLine
 10
252.1211803112204
 20
374.7452385896107
 30
0.0
 11
252.1211803112204
 21
376.7452385896107
 31
0.0
  0
LINE
  5
622
330
1F
100
AcDbEntity
  8
AM_7
100
AcDbLine
 10
246.8711803112204
 20
375.7452385896107
 30
0.0
 11
250.1211803112204
 21
375.7452385896107
 31
0.0
  0
LINE
  5
623
330
1F
100
AcDbEntity
  8
AM_7
100
AcDbLine
 10
254.1211803112204
 20
375.7452385896107
 30
0.0
 11
257.3711803112204
 21
375.7452385896107
 31
0.0
  0
LINE
  5
624
330
1F
100
AcDbEntity
  8
AM_7
 62
     1
100
AcDbLine
 10
252.1211803112204
 20
370.4952385896107
 30
0.0
 11
252.1211803112204
 21
373.7452385896107
 31
0.0
  0
LINE
  5
625
330
1F
100
AcDbEntity
  8
AM_7
 62
     1
100
AcDbLine
 10
252.1211803112204
 20
377.7452385896107
 30
0.0
 11
252.1211803112204
 21
380.9952385896107
 31
0.0
  0
LINE
  5
626
330
1F
100
AcDbEntity
  8
AM_7
 62
     1
100
AcDbLine
 10
222.1211803112204
 20
375.7452385896107
 30
0.0
 11
224.1211803112204
 21
375.7452385896107
 31
0.0
  0
LINE
  5
627
330
1F
100
AcDbEntity
  8
AM_7
 62
     1
100
AcDbLine
 10
223.1211803112204
 20
374.7452385896107
 30
0.0
 11
223.1211803112204
 21
376.7452385896107
 31
0.0
  0
LINE
  5
628
330
1F
100
AcDbEntity
  8
AM_7
 62
     1
100
AcDbLine
 10
217.8711803112204
 20
375.7452385896107
 30
0.0
 11
221.1211803112204
 21
375.7452385896107
 31
0.0
  0
LINE
  5
629
330
1F
100
AcDbEntity
  8
AM_7
100
AcDbLine
 10
225.1211803112204
 20
375.7452385896107
 30
0.0
 11
228.3711803112204
 21
375.7452385896107
 31
0.0
  0
LINE
  5
62A
330
1F
100
AcDbEntity
  8
AM_7
 62
     1
100
AcDbLine
 10
223.1211803112204
 20
370.4952385896107
 30
0.0
 11
223.1211803112204
 21
373.7452385896107
 31
0.0
  0
LINE
  5
62B
330
1F
100
AcDbEntity
  8
AM_7
 62
     1
100
AcDbLine
 10
223.1211803112204
 20
377.7452385896107
 30
0.0
 11
223.1211803112204
 21
380.9952385896107
 31
0.0
  0
LINE
  5
62C
330
1F
100
AcDbEntity
  8
AM_7
 62
     1
100
AcDbLine
 10
222.1211803112204
 20
346.7452385896107
 30
0.0
 11
224.1211803112204
 21
346.7452385896107
 31
0.0
  0
LINE
  5
62D
330
1F
100
AcDbEntity
  8
AM_7
 62
     1
100
AcDbLine
 10
223.1211803112204
 20
345.7452385896107
 30
0.0
 11
223.1211803112204
 21
347.7452385896107
 31
0.0
  0
LINE
  5
62E
330
1F
100
AcDbEntity
  8
AM_7
 62
     1
100
AcDbLine
 10
217.8711803112204
 20
346.7452385896107
 30
0.0
 11
221.1211803112204
 21
346.7452385896107
 31
0.0
  0
LINE
  5
62F
330
1F
100
AcDbEntity
  8
AM_7
100
AcDbLine
 10
225.1211803112204
 20
346.7452385896107
 30
0.0
 11
228.3711803112204
 21
346.7452385896107
 31
0.0
  0
LINE
  5
630
330
1F
100
AcDbEntity
  8
AM_7
 62
     1
100
AcDbLine
 10
223.1211803112204
 20
341.4952385896107
 30
0.0
 11
223.1211803112204
 21
344.7452385896107
 31
0.0
  0
LINE
  5
631
330
1F
100
AcDbEntity
  8
AM_7
 62
     1
100
AcDbLine
 10
223.1211803112204
 20
348.7452385896107
 30
0.0
 11
223.1211803112204
 21
351.9952385896107
 31
0.0
  0
LINE
  5
632
330
1F
100
AcDbEntity
  8
AM_7
100
AcDbLine
 10
251.1211803112204
 20
346.7452385896107
 30
0.0
 11
253.1211803112204
 21
346.7452385896107
 31
0.0
  0
LINE
  5
633
330
1F
100
AcDbEntity
  8
AM_7
 62
     1
100
AcDbLine
 10
252.1211803112204
 20
345.7452385896107
 30
0.0
 11
252.1211803112204
 21
347.7452385896107
 31
0.0
  0
LINE
  5
634
330
1F
100
AcDbEntity
  8
AM_7
100
AcDbLine
 10
246.8711803112204
 20
346.7452385896107
 30
0.0
 11
250.1211803112204
 21
346.7452385896107
 31
0.0
  0
LINE
  5
635
330
1F
100
AcDbEntity
  8
AM_7
100
AcDbLine
 10
254.1211803112204
 20
346.7452385896107
 30
0.0
 11
257.3711803112204
 21
346.7452385896107
 31
0.0
  0
LINE
  5
636
330
1F
100
AcDbEntity
  8
AM_7
 62
     1
100
AcDbLine
 10
252.1211803112204
 20
341.4952385896107
 30
0.0
 11
252.1211803112204
 21
344.7452385896107
 31
0.0
  0
LINE
  5
637
330
1F
100
AcDbEntity
  8
AM_7
 62
     1
100
AcDbLine
 10
252.1211803112204
 20
348.7452385896107
 30
0.0
 11
252.1211803112204
 21
351.9952385896107
 31
0.0
  0
LINE
  5
638
330
1F
100
AcDbEntity
  8
AM_VIS
100
AcDbLine
 10
223.1211803112204
 20
268.6444180487445
 30
0.0
 11
223.1211803112204
 21
311.6444180487444
 31
0.0
  0
LINE
  5
639
330
1F
100
AcDbEntity
  8
AM_VIS
100
AcDbLine
 10
223.1211803112204
 20
311.6444180487444
 30
0.0
 11
257.6211803112204
 21
311.6444180487444
 31
0.0
  0
LINE
  5
63A
330
1F
100
AcDbEntity
  8
AM_VIS
100
AcDbLine
 10
257.6211803112204
 20
268.6444180487445
 30
0.0
 11
223.1211803112204
 21
268.6444180487445
 31
0.0
  0
LINE
  5
63B
330
1F
100
AcDbEntity
  8
AM_VIS
100
AcDbLine
 10
257.6211803112204
 20
311.6444180487444
 30
0.0
 11
257.6211803112204
 21
311.4444180487445
 31
0.0
  0
LINE
  5
63C
330
1F
100
AcDbEntity
  8
AM_VIS
100
AcDbLine
 10
262.6211803112204
 20
282.4444180487445
 30
0.0
 11
262.6211803112204
 21
311.4444180487445
 31
0.0
  0
LINE
  5
63D
330
1F
100
AcDbEntity
  8
AM_VIS
100
AcDbLine
 10
257.6211803112204
 20
311.4444180487445
 30
0.0
 11
262.6211803112204
 21
311.4444180487445
 31
0.0
  0
LINE
  5
63E
330
1F
100
AcDbEntity
  8
AM_VIS
100
AcDbLine
 10
262.6211803112204
 20
311.2444180487445
 30
0.0
 11
267.1211803112204
 21
311.2444180487445
 31
0.0
  0
LINE
  5
63F
330
1F
100
AcDbEntity
  8
AM_VIS
100
AcDbLine
 10
267.1211803112204
 20
283.6444180487445
 30
0.0
 11
267.1211803112204
 21
310.2444180487445
 31
0.0
  0
LINE
  5
640
330
1F
100
AcDbEntity
  8
AM_VIS
100
AcDbLine
 10
262.6211803112204
 20
282.6444180487444
 30
0.0
 11
267.1211803112204
 21
282.6444180487444
 31
0.0
  0
LINE
  5
641
330
1F
100
AcDbEntity
  8
AM_VIS
100
AcDbLine
 10
267.1211803112204
 20
309.7444180487445
 30
0.0
 11
290.1211803112204
 21
309.7444180487445
 31
0.0
  0
LINE
  5
642
330
1F
100
AcDbEntity
  8
AM_VIS
100
AcDbLine
 10
290.1211803112204
 20
284.1444180487444
 30
0.0
 11
290.1211803112204
 21
309.7444180487445
 31
0.0
  0
LINE
  5
643
330
1F
100
AcDbEntity
  8
AM_VIS
100
AcDbLine
 10
258.6211803112204
 20
282.4444180487445
 30
0.0
 11
262.6211803112204
 21
282.4444180487445
 31
0.0
  0
LINE
  5
644
330
1F
100
AcDbEntity
  8
AM_VIS
100
AcDbLine
 10
257.6211803112204
 20
269.6444180487445
 30
0.0
 11
257.6211803112204
 21
268.6444180487445
 31
0.0
  0
LINE
  5
645
330
1F
100
AcDbEntity
  8
AM_VIS
100
AcDbLine
 10
258.6211803112204
 20
282.4444180487445
 30
0.0
 11
257.6211803112204
 21
269.6444180487445
 31
0.0
  0
LINE
  5
646
330
1F
100
AcDbEntity
  8
AM_VIS
100
AcDbLine
 10
267.1211803112204
 20
284.1444180487444
 30
0.0
 11
290.1211803112204
 21
284.1444180487444
 31
0.0
  0
LINE
  5
647
330
1F
100
AcDbEntity
  8
AM_VIS
100
AcDbLine
 10
288.6087846182545
 20
266.1444180487444
 30
0.0
 11
288.6087846182545
 21
261.7444180487445
 31
0.0
  0
LINE
  5
648
330
1F
100
AcDbEntity
  8
AM_VIS
100
AcDbLine
 10
283.9899824647375
 20
261.7444180487445
 30
0.0
 11
288.6087846182545
 21
261.7444180487445
 31
0.0
  0
LINE
  5
649
330
1F
100
AcDbEntity
  8
AM_VIS
100
AcDbLine
 10
283.9899824647375
 20
266.1444180487444
 30
0.0
 11
283.9899824647375
 21
261.7444180487445
 31
0.0
  0
LINE
  5
64A
330
1F
100
AcDbEntity
  8
AM_VIS
100
AcDbLine
 10
274.7523781577034
 20
261.7444180487445
 30
0.0
 11
283.9899824647375
 21
261.7444180487445
 31
0.0
  0
LINE
  5
64B
330
1F
100
AcDbEntity
  8
AM_VIS
100
AcDbLine
 10
274.7523781577034
 20
266.1444180487444
 30
0.0
 11
274.7523781577034
 21
261.7444180487445
 31
0.0
  0
LINE
  5
64C
330
1F
100
AcDbEntity
  8
AM_VIS
100
AcDbLine
 10
270.1335760041865
 20
261.7444180487445
 30
0.0
 11
274.7523781577034
 21
261.7444180487445
 31
0.0
  0
LINE
  5
64D
330
1F
100
AcDbEntity
  8
AM_VIS
100
AcDbLine
 10
270.1335760041865
 20
266.1444180487444
 30
0.0
 11
270.1335760041865
 21
261.7444180487445
 31
0.0
  0
LINE
  5
64E
330
1F
100
AcDbEntity
  8
AM_VIS
100
AcDbLine
 10
283.9899824647375
 20
266.1444180487444
 30
0.0
 11
288.6087846182545
 21
266.1444180487444
 31
0.0
  0
LINE
  5
64F
330
1F
100
AcDbEntity
  8
AM_VIS
100
AcDbLine
 10
274.7523781577034
 20
266.1444180487444
 30
0.0
 11
283.9899824647375
 21
266.1444180487444
 31
0.0
  0
LINE
  5
650
330
1F
100
AcDbEntity
  8
AM_VIS
100
AcDbLine
 10
270.1335760041865
 20
266.1444180487444
 30
0.0
 11
274.7523781577034
 21
266.1444180487444
 31
0.0
  0
LINE
  5
651
330
1F
100
AcDbEntity
  8
AM_VIS
100
AcDbLine
 10
226.6211803112204
 20
266.1444180487444
 30
0.0
 11
226.6211803112204
 21
262.1444180487444
 31
0.0
  0
LINE
  5
652
330
1F
100
AcDbEntity
  8
AM_VIS
100
AcDbLine
 10
247.6211803112204
 20
262.1444180487444
 30
0.0
 11
247.6211803112204
 21
266.1444180487444
 31
0.0
  0
LINE
  5
653
330
1F
100
AcDbEntity
  8
AM_VIS
100
AcDbLine
 10
256.1211803112204
 20
252.6444180487445
 30
0.0
 11
256.1211803112204
 21
242.1444180487445
 31
0.0
  0
LINE
  5
654
330
1F
100
AcDbEntity
  8
AM_VIS
100
AcDbLine
 10
218.1211803112204
 20
252.6444180487445
 30
0.0
 11
218.1211803112204
 21
242.1444180487445
 31
0.0
  0
LINE
  5
655
330
1F
100
AcDbEntity
  8
AM_VIS
100
AcDbLine
 10
256.1211803112204
 20
252.6444180487445
 30
0.0
 11
218.1211803112204
 21
252.6444180487445
 31
0.0
  0
LINE
  5
656
330
1F
100
AcDbEntity
  8
AM_VIS
100
AcDbLine
 10
241.1211803112204
 20
242.1444180487445
 30
0.0
 11
241.1211803112204
 21
218.451462358535
 31
0.0
  0
LINE
  5
657
330
1F
100
AcDbEntity
  8
AM_VIS
100
AcDbLine
 10
233.1211803112204
 20
242.1444180487445
 30
0.0
 11
233.1211803112204
 21
218.451462358535
 31
0.0
  0
LINE
  5
658
330
1F
100
AcDbEntity
  8
AM_VIS
100
AcDbLine
 10
233.1211803112204
 20
235.4747934369982
 30
0.0
 11
225.5994616894175
 21
237.735120587728
 31
0.0
  0
LINE
  5
659
330
1F
100
AcDbEntity
  8
AM_VIS
100
AcDbLine
 10
225.5994616894175
 20
242.1444180487445
 30
0.0
 11
225.5994616894175
 21
237.735120587728
 31
0.0
  0
LINE
  5
65A
330
1F
100
AcDbEntity
  8
AM_VIS
100
AcDbLine
 10
209.6211803112204
 20
243.4529531036339
 30
0.0
 11
209.6211803112204
 21
230.661462358535
 31
0.0
  0
LINE
  5
65B
330
1F
100
AcDbEntity
  8
AM_VIS
100
AcDbLine
 10
226.6211803112204
 20
237.4280872543388
 30
0.0
 11
226.6211803112204
 21
230.661462358535
 31
0.0
  0
LINE
  5
65C
330
1F
100
AcDbEntity
  8
AM_VIS
100
AcDbLine
 10
218.1211803112204
 20
243.4529531036339
 30
0.0
 11
209.6211803112204
 21
243.4529531036339
 31
0.0
  0
LINE
  5
65D
330
1F
100
AcDbEntity
  8
AM_VIS
100
AcDbLine
 10
248.6428989330234
 20
230.810412357234
 30
0.0
 11
241.1211803112204
 21
233.0707395079637
 31
0.0
  0
LINE
  5
65E
330
1F
100
AcDbEntity
  8
AM_VIS
100
AcDbLine
 10
218.1211803112204
 20
242.1444180487445
 30
0.0
 11
256.1211803112204
 21
242.1444180487445
 31
0.0
  0
LINE
  5
65F
330
1F
100
AcDbEntity
  8
AM_VIS
100
AcDbLine
 10
264.6211803112204
 20
230.6444180487444
 30
0.0
 11
264.6211803112204
 21
243.8174658867458
 31
0.0
  0
LINE
  5
660
330
1F
100
AcDbEntity
  8
AM_VIS
100
AcDbLine
 10
247.6211803112204
 20
230.6444180487444
 30
0.0
 11
247.6211803112204
 21
231.1174456906231
 31
0.0
  0
LINE
  5
661
330
1F
100
AcDbEntity
  8
AM_VIS
100
AcDbLine
 10
248.6428989330234
 20
230.810412357234
 30
0.0
 11
248.6428989330234
 21
242.1444180487445
 31
0.0
  0
LINE
  5
662
330
1F
100
AcDbEntity
  8
AM_VIS
100
AcDbLine
 10
256.1211803112204
 20
243.8174658867458
 30
0.0
 11
264.6211803112204
 21
243.8174658867458
 31
0.0
  0
LINE
  5
663
330
1F
100
AcDbEntity
  8
AM_VIS
100
AcDbLine
 10
268.6211803112204
 20
284.1444180487444
 30
0.0
 11
268.6211803112204
 21
268.1444180487444
 31
0.0
  0
LINE
  5
664
330
1F
100
AcDbEntity
  8
AM_VIS
100
AcDbLine
 10
290.1211803112204
 20
284.1444180487444
 30
0.0
 11
290.1211803112204
 21
268.1444180487444
 31
0.0
  0
LINE
  5
665
330
1F
100
AcDbEntity
  8
AM_VIS
100
AcDbLine
 10
272.6211803112204
 20
268.1444180487444
 30
0.0
 11
272.6211803112204
 21
266.1444180487444
 31
0.0
  0
LINE
  5
666
330
1F
100
AcDbEntity
  8
AM_VIS
100
AcDbLine
 10
286.1211803112204
 20
268.1444180487444
 30
0.0
 11
286.1211803112204
 21
266.1444180487444
 31
0.0
  0
LINE
  5
667
330
1F
100
AcDbEntity
  8
AM_VIS
100
AcDbLine
 10
230.6211803112204
 20
268.6444180487445
 30
0.0
 11
230.6211803112204
 21
266.1444180487444
 31
0.0
  0
LINE
  5
668
330
1F
100
AcDbEntity
  8
AM_VIS
100
AcDbLine
 10
243.6211803112204
 20
268.6444180487445
 30
0.0
 11
243.6211803112204
 21
266.1444180487444
 31
0.0
  0
LINE
  5
669
330
1F
100
AcDbEntity
  8
AM_VIS
100
AcDbLine
 10
224.6211803112204
 20
262.1444180487444
 30
0.0
 11
224.6211803112204
 21
260.6444180487445
 31
0.0
  0
LINE
  5
66A
330
1F
100
AcDbEntity
  8
AM_VIS
100
AcDbLine
 10
249.6211803112204
 20
262.1444180487444
 30
0.0
 11
249.6211803112204
 21
260.6444180487445
 31
0.0
  0
LINE
  5
66B
330
1F
100
AcDbEntity
  8
AM_VIS
100
AcDbLine
 10
222.1211803112204
 20
260.6444180487445
 30
0.0
 11
222.1211803112204
 21
256.1444180487445
 31
0.0
  0
LINE
  5
66C
330
1F
100
AcDbEntity
  8
AM_VIS
100
AcDbLine
 10
252.1211803112204
 20
260.6444180487445
 30
0.0
 11
252.1211803112204
 21
256.1444180487445
 31
0.0
  0
LINE
  5
66D
330
1F
100
AcDbEntity
  8
AM_VIS
100
AcDbLine
 10
241.1211803112204
 20
221.911462358535
 30
0.0
 11
247.6211803112204
 21
221.911462358535
 31
0.0
  0
LINE
  5
66E
330
1F
100
AcDbEntity
  8
AM_VIS
100
AcDbLine
 10
226.6211803112204
 20
221.911462358535
 30
0.0
 11
233.1211803112204
 21
221.911462358535
 31
0.0
  0
LINE
  5
66F
330
1F
100
AcDbEntity
  8
AM_VIS
100
AcDbLine
 10
226.6211803112204
 20
218.451462358535
 30
0.0
 11
209.6211803112204
 21
218.451462358535
 31
0.0
  0
LINE
  5
670
330
1F
100
AcDbEntity
  8
AM_VIS
100
AcDbLine
 10
243.8711803112204
 20
311.6444180487444
 30
0.0
 11
243.8711803112204
 21
314.4544180487445
 31
0.0
  0
LINE
  5
671
330
1F
100
AcDbEntity
  8
AM_VIS
100
AcDbLine
 10
230.3711803112204
 20
311.6444180487444
 30
0.0
 11
230.3711803112204
 21
314.4544180487445
 31
0.0
  0
LINE
  5
672
330
1F
100
AcDbEntity
  8
AM_VIS
100
AcDbLine
 10
225.8711803112204
 20
252.6444180487445
 30
0.0
 11
225.8711803112204
 21
254.1444180487445
 31
0.0
  0
LINE
  5
673
330
1F
100
AcDbEntity
  8
AM_VIS
100
AcDbLine
 10
219.3711803112204
 20
252.6444180487445
 30
0.0
 11
219.3711803112204
 21
254.1444180487445
 31
0.0
  0
LINE
  5
674
330
1F
100
AcDbEntity
  8
AM_VIS
100
AcDbLine
 10
254.8711803112204
 20
252.6444180487445
 30
0.0
 11
254.8711803112204
 21
254.1444180487445
 31
0.0
  0
LINE
  5
675
330
1F
100
AcDbEntity
  8
AM_VIS
100
AcDbLine
 10
248.3711803112204
 20
252.6444180487445
 30
0.0
 11
248.3711803112204
 21
254.1444180487445
 31
0.0
  0
LINE
  5
676
330
1F
100
AcDbEntity
  8
AM_VIS
100
AcDbLine
 10
267.1211803112204
 20
311.2444180487445
 30
0.0
 11
267.1211803112204
 21
310.2444180487445
 31
0.0
  0
LINE
  5
677
330
1F
100
AcDbEntity
  8
AM_VIS
100
AcDbLine
 10
267.1211803112204
 20
283.6444180487445
 30
0.0
 11
267.1211803112204
 21
282.6444180487444
 31
0.0
  0
LINE
  5
678
330
1F
100
AcDbEntity
  8
AM_VIS
100
AcDbLine
 10
290.1211803112204
 20
268.1444180487444
 30
0.0
 11
268.6211803112204
 21
268.1444180487444
 31
0.0
  0
LINE
  5
679
330
1F
100
AcDbEntity
  8
AM_VIS
100
AcDbLine
 10
226.6211803112204
 20
266.1444180487444
 30
0.0
 11
247.6211803112204
 21
266.1444180487444
 31
0.0
  0
LINE
  5
67A
330
1F
100
AcDbEntity
  8
AM_VIS
100
AcDbLine
 10
224.6211803112204
 20
262.1444180487444
 30
0.0
 11
226.6211803112204
 21
262.1444180487444
 31
0.0
  0
LINE
  5
67B
330
1F
100
AcDbEntity
  8
AM_VIS
100
AcDbLine
 10
247.6211803112204
 20
262.1444180487444
 30
0.0
 11
249.6211803112204
 21
262.1444180487444
 31
0.0
  0
LINE
  5
67C
330
1F
100
AcDbEntity
  8
AM_VIS
100
AcDbLine
 10
222.1211803112204
 20
260.6444180487445
 30
0.0
 11
252.1211803112204
 21
260.6444180487445
 31
0.0
  0
LINE
  5
67D
330
1F
100
AcDbEntity
  8
AM_VIS
100
AcDbLine
 10
209.6211803112204
 20
218.451462358535
 30
0.0
 11
209.6211803112204
 21
230.661462358535
 31
0.0
  0
LINE
  5
67E
330
1F
100
AcDbEntity
  8
AM_VIS
100
AcDbLine
 10
226.6211803112204
 20
218.451462358535
 30
0.0
 11
226.6211803112204
 21
230.661462358535
 31
0.0
  0
LINE
  5
67F
330
1F
100
AcDbEntity
  8
AM_VIS
100
AcDbLine
 10
264.6211803112204
 20
230.6444180487444
 30
0.0
 11
264.6211803112204
 21
218.451462358535
 31
0.0
  0
LINE
  5
680
330
1F
100
AcDbEntity
  8
AM_VIS
100
AcDbLine
 10
247.6211803112204
 20
230.6444180487444
 30
0.0
 11
247.6211803112204
 21
218.4344180487444
 31
0.0
  0
LINE
  5
681
330
1F
100
AcDbEntity
  8
AM_VIS
100
AcDbLine
 10
230.3711803112204
 20
314.4544180487445
 30
0.0
 11
243.8711803112204
 21
314.4544180487445
 31
0.0
  0
LINE
  5
682
330
1F
100
AcDbEntity
  8
AM_VIS
100
AcDbLine
 10
221.3711803112204
 20
256.1444180487445
 30
0.0
 11
223.8711803112204
 21
256.1444180487445
 31
0.0
  0
LINE
  5
683
330
1F
100
AcDbEntity
  8
AM_VIS
100
AcDbLine
 10
250.3711803112204
 20
256.1444180487445
 30
0.0
 11
252.8711803112204
 21
256.1444180487445
 31
0.0
  0
ARC
  5
684
330
1F
100
AcDbEntity
  8
AM_VIS
100
AcDbCircle
 10
223.8711803112204
 20
254.1444180487445
 30
0.0
 40
2.0
100
AcDbArc
 50
0.0
 51
90.0
  0
ARC
  5
685
330
1F
100
AcDbEntity
  8
AM_VIS
100
AcDbCircle
 10
221.3711803112204
 20
254.1444180487445
 30
0.0
 40
2.0
100
AcDbArc
 50
90.0
 51
180.0
  0
ARC
  5
686
330
1F
100
AcDbEntity
  8
AM_VIS
100
AcDbCircle
 10
252.8711803112204
 20
254.1444180487445
 30
0.0
 40
2.0
100
AcDbArc
 50
0.0
 51
90.0
  0
ARC
  5
687
330
1F
100
AcDbEntity
  8
AM_VIS
100
AcDbCircle
 10
250.3711803112204
 20
254.1444180487445
 30
0.0
 40
2.0
100
AcDbArc
 50
90.0
 51
180.0
  0
LINE
  5
688
330
1F
100
AcDbEntity
  8
AM_VIS
100
AcDbLine
 10
339.7327639249756
 20
311.6444180487444
 30
0.0
 11
339.7327639249756
 21
311.4444180487445
 31
0.0
  0
LINE
  5
689
330
1F
100
AcDbEntity
  8
AM_VIS
100
AcDbLine
 10
339.7327639249756
 20
311.6444180487444
 30
0.0
 11
368.7327639249756
 21
311.6444180487444
 31
0.0
  0
LINE
  5
68A
330
1F
100
AcDbEntity
  8
AM_VIS
100
AcDbLine
 10
368.7327639249756
 20
311.4444180487445
 30
0.0
 11
368.7327639249756
 21
311.6444180487444
 31
0.0
  0
LINE
  5
68B
330
1F
100
AcDbEntity
  8
AM_VIS
100
AcDbLine
 10
339.7327639249756
 20
282.4444180487445
 30
0.0
 11
339.7327639249756
 21
311.4444180487445
 31
0.0
  0
LINE
  5
68C
330
1F
100
AcDbEntity
  8
AM_VIS
100
AcDbLine
 10
368.7327639249756
 20
311.4444180487445
 30
0.0
 11
368.7327639249756
 21
282.4444180487445
 31
0.0
  0
LINE
  5
68D
330
1F
100
AcDbEntity
  8
AM_VIS
100
AcDbLine
 10
339.7327639249756
 20
311.4444180487445
 30
0.0
 11
368.7327639249756
 21
311.4444180487445
 31
0.0
  0
LINE
  5
68E
330
1F
100
AcDbEntity
  8
AM_VIS
100
AcDbLine
 10
340.9327639249757
 20
311.2444180487445
 30
0.0
 11
367.5327639249756
 21
311.2444180487445
 31
0.0
  0
LINE
  5
68F
330
1F
100
AcDbEntity
  8
AM_VIS
100
AcDbLine
 10
339.9327639249757
 20
283.6444180487445
 30
0.0
 11
339.9327639249757
 21
310.2444180487445
 31
0.0
  0
LINE
  5
690
330
1F
100
AcDbEntity
  8
AM_VIS
100
AcDbLine
 10
367.5327639249756
 20
282.6444180487444
 30
0.0
 11
364.9827639249756
 21
282.6444180487444
 31
0.0
  0
LINE
  5
691
330
1F
100
AcDbEntity
  8
AM_VIS
100
AcDbLine
 10
343.4827639249756
 20
282.6444180487444
 30
0.0
 11
340.9327639249757
 21
282.6444180487444
 31
0.0
  0
LINE
  5
692
330
1F
100
AcDbEntity
  8
AM_VIS
100
AcDbLine
 10
368.5327639249756
 20
310.2444180487445
 30
0.0
 11
368.5327639249756
 21
283.6444180487445
 31
0.0
  0
LINE
  5
693
330
1F
100
AcDbEntity
  8
AM_VIS
100
AcDbLine
 10
341.4327639249757
 20
284.1444180487444
 30
0.0
 11
341.4327639249757
 21
309.7444180487445
 31
0.0
  0
LINE
  5
694
330
1F
100
AcDbEntity
  8
AM_VIS
100
AcDbLine
 10
368.7327639249756
 20
282.4444180487445
 30
0.0
 11
364.9827639249756
 21
282.4444180487445
 31
0.0
  0
LINE
  5
695
330
1F
100
AcDbEntity
  8
AM_VIS
100
AcDbLine
 10
343.4827639249756
 20
282.4444180487445
 30
0.0
 11
339.7327639249756
 21
282.4444180487445
 31
0.0
  0
LINE
  5
696
330
1F
100
AcDbEntity
  8
AM_VIS
100
AcDbLine
 10
368.7327639249756
 20
268.6444180487445
 30
0.0
 11
368.7327639249756
 21
269.6444180487445
 31
0.0
  0
LINE
  5
697
330
1F
100
AcDbEntity
  8
AM_VIS
100
AcDbLine
 10
339.7327639249756
 20
268.6444180487445
 30
0.0
 11
343.4827639249756
 21
268.6444180487445
 31
0.0
  0
LINE
  5
698
330
1F
100
AcDbEntity
  8
AM_VIS
100
AcDbLine
 10
364.9827639249756
 20
268.6444180487445
 30
0.0
 11
368.7327639249756
 21
268.6444180487445
 31
0.0
  0
LINE
  5
699
330
1F
100
AcDbEntity
  8
AM_VIS
100
AcDbLine
 10
339.7327639249756
 20
269.6444180487445
 30
0.0
 11
339.7327639249756
 21
268.6444180487445
 31
0.0
  0
LINE
  5
69A
330
1F
100
AcDbEntity
  8
AM_VIS
100
AcDbLine
 10
368.7327639249756
 20
269.6444180487445
 30
0.0
 11
364.9827639249756
 21
269.6444180487445
 31
0.0
  0
LINE
  5
69B
330
1F
100
AcDbEntity
  8
AM_VIS
100
AcDbLine
 10
343.4827639249756
 20
269.6444180487445
 30
0.0
 11
339.7327639249756
 21
269.6444180487445
 31
0.0
  0
LINE
  5
69C
330
1F
100
AcDbEntity
  8
AM_VIS
100
AcDbLine
 10
339.7327639249756
 20
282.4444180487445
 30
0.0
 11
339.7327639249756
 21
269.6444180487445
 31
0.0
  0
LINE
  5
69D
330
1F
100
AcDbEntity
  8
AM_VIS
100
AcDbLine
 10
368.7327639249756
 20
269.6444180487445
 30
0.0
 11
368.7327639249756
 21
282.4444180487445
 31
0.0
  0
LINE
  5
69E
330
1F
100
AcDbEntity
  8
AM_VIS
100
AcDbLine
 10
354.2327639249756
 20
284.1444180487444
 30
0.0
 11
341.4327639249757
 21
284.1444180487444
 31
0.0
  0
LINE
  5
69F
330
1F
100
AcDbEntity
  8
AM_VIS
100
AcDbLine
 10
367.0327639249756
 20
284.1444180487444
 30
0.0
 11
354.2327639249756
 21
284.1444180487444
 31
0.0
  0
LINE
  5
6A0
330
1F
100
AcDbEntity
  8
AM_VIS
100
AcDbLine
 10
362.2327639249756
 20
266.1444180487444
 30
0.0
 11
362.2327639249756
 21
261.7444180487445
 31
0.0
  0
LINE
  5
6A1
330
1F
100
AcDbEntity
  8
AM_VIS
100
AcDbLine
 10
354.2327639249756
 20
261.7444180487445
 30
0.0
 11
362.2327639249756
 21
261.7444180487445
 31
0.0
  0
LINE
  5
6A2
330
1F
100
AcDbEntity
  8
AM_VIS
100
AcDbLine
 10
346.2327639249756
 20
261.7444180487445
 30
0.0
 11
354.2327639249756
 21
261.7444180487445
 31
0.0
  0
LINE
  5
6A3
330
1F
100
AcDbEntity
  8
AM_VIS
100
AcDbLine
 10
346.2327639249756
 20
266.1444180487444
 30
0.0
 11
346.2327639249756
 21
261.7444180487445
 31
0.0
  0
LINE
  5
6A4
330
1F
100
AcDbEntity
  8
AM_VIS
100
AcDbLine
 10
354.2327639249756
 20
266.1444180487444
 30
0.0
 11
362.2327639249756
 21
266.1444180487444
 31
0.0
  0
LINE
  5
6A5
330
1F
100
AcDbEntity
  8
AM_VIS
100
AcDbLine
 10
346.2327639249756
 20
266.1444180487444
 30
0.0
 11
354.2327639249756
 21
266.1444180487444
 31
0.0
  0
LINE
  5
6A6
330
1F
100
AcDbEntity
  8
AM_VIS
100
AcDbLine
 10
335.2327639249756
 20
252.6444180487445
 30
0.0
 11
335.2327639249756
 21
242.1444180487445
 31
0.0
  0
LINE
  5
6A7
330
1F
100
AcDbEntity
  8
AM_VIS
100
AcDbLine
 10
373.2327639249756
 20
252.6444180487445
 30
0.0
 11
373.2327639249756
 21
242.1444180487445
 31
0.0
  0
LINE
  5
6A8
330
1F
100
AcDbEntity
  8
AM_VIS
100
AcDbLine
 10
373.2327639249756
 20
252.6444180487445
 30
0.0
 11
335.2327639249756
 21
252.6444180487445
 31
0.0
  0
LINE
  5
6A9
330
1F
100
AcDbEntity
  8
AM_VIS
100
AcDbLine
 10
371.2327639249756
 20
242.1444180487445
 30
0.0
 11
371.2327639249756
 21
218.451462358535
 31
0.0
  0
LINE
  5
6AA
330
1F
100
AcDbEntity
  8
AM_VIS
100
AcDbLine
 10
337.2327639249756
 20
242.1444180487445
 30
0.0
 11
337.2327639249756
 21
218.451462358535
 31
0.0
  0
LINE
  5
6AB
330
1F
100
AcDbEntity
  8
AM_VIS
100
AcDbLine
 10
370.7554755668339
 20
233.0707395079637
 30
0.0
 11
370.7554755668339
 21
242.1444180487445
 31
0.0
  0
ELLIPSE
  5
6AC
330
1F
100
AcDbEntity
  8
AM_VIS
100
AcDbEllipse
 10
354.2327639249756
 20
234.272766472481
 30
0.0
 11
-17.0
 21
0.0000000000000015
 31
0.0
210
0.0
220
0.0
230
1.0
 40
0.3005067411293183
 41
2.396896868721972
 42
2.904071482808343
  0
ELLIPSE
  5
6AD
330
1F
100
AcDbEntity
  8
AM_VIS
100
AcDbEllipse
 10
354.2327639249756
 20
234.272766472481
 30
0.0
 11
-17.0
 21
0.0000000000000015
 31
0.0
210
0.0
220
0.0
230
1.0
 40
0.3005067411293183
 41
0.2375211707814493
 42
0.7446957848678197
  0
LINE
  5
6AE
330
1F
100
AcDbEntity
  8
AM_VIS
100
AcDbLine
 10
337.7100522831173
 20
242.1444180487445
 30
0.0
 11
337.7100522831173
 21
233.0707395079637
 31
0.0
  0
LINE
  5
6AF
330
1F
100
AcDbEntity
  8
AM_VIS
100
AcDbLine
 10
366.7327639249756
 20
242.1444180487445
 30
0.0
 11
373.2327639249756
 21
242.1444180487445
 31
0.0
  0
LINE
  5
6B0
330
1F
100
AcDbEntity
  8
AM_VIS
100
AcDbLine
 10
335.2327639249756
 20
242.1444180487445
 30
0.0
 11
341.7327639249756
 21
242.1444180487445
 31
0.0
  0
LINE
  5
6B1
330
1F
100
AcDbEntity
  8
AM_VIS
100
AcDbLine
 10
366.7327639249756
 20
243.8174658867458
 30
0.0
 11
366.7327639249756
 21
230.6444180487444
 31
0.0
  0
LINE
  5
6B2
330
1F
100
AcDbEntity
  8
AM_VIS
100
AcDbLine
 10
341.7327639249756
 20
230.6444180487444
 30
0.0
 11
341.7327639249756
 21
243.8174658867458
 31
0.0
  0
LINE
  5
6B3
330
1F
100
AcDbEntity
  8
AM_VIS
100
AcDbLine
 10
341.7327639249756
 20
243.8174658867458
 30
0.0
 11
366.7327639249756
 21
243.8174658867458
 31
0.0
  0
LINE
  5
6B4
330
1F
100
AcDbEntity
  8
AM_VIS
100
AcDbLine
 10
343.4827639249756
 20
284.1444180487444
 30
0.0
 11
343.4827639249756
 21
268.1444180487444
 31
0.0
  0
LINE
  5
6B5
330
1F
100
AcDbEntity
  8
AM_VIS
100
AcDbLine
 10
364.9827639249756
 20
284.1444180487444
 30
0.0
 11
364.9827639249756
 21
268.1444180487444
 31
0.0
  0
LINE
  5
6B6
330
1F
100
AcDbEntity
  8
AM_VIS
100
AcDbLine
 10
347.4827639249757
 20
268.1444180487444
 30
0.0
 11
347.4827639249757
 21
266.1444180487444
 31
0.0
  0
LINE
  5
6B7
330
1F
100
AcDbEntity
  8
AM_VIS
100
AcDbLine
 10
360.9827639249756
 20
268.1444180487444
 30
0.0
 11
360.9827639249756
 21
266.1444180487444
 31
0.0
  0
LINE
  5
6B8
330
1F
100
AcDbEntity
  8
AM_VIS
100
AcDbLine
 10
341.7327639249756
 20
266.1444180487444
 30
0.0
 11
341.7327639249756
 21
260.6444180487445
 31
0.0
  0
LINE
  5
6B9
330
1F
100
AcDbEntity
  8
AM_VIS
100
AcDbLine
 10
366.7327639249756
 20
266.1444180487444
 30
0.0
 11
366.7327639249756
 21
260.6444180487445
 31
0.0
  0
LINE
  5
6BA
330
1F
100
AcDbEntity
  8
AM_VIS
100
AcDbLine
 10
339.2327639249756
 20
260.6444180487445
 30
0.0
 11
339.2327639249756
 21
256.1444180487445
 31
0.0
  0
LINE
  5
6BB
330
1F
100
AcDbEntity
  8
AM_VIS
100
AcDbLine
 10
369.2327639249756
 20
260.6444180487445
 30
0.0
 11
369.2327639249756
 21
256.1444180487445
 31
0.0
  0
LINE
  5
6BC
330
1F
100
AcDbEntity
  8
AM_VIS
100
AcDbLine
 10
360.9827639249756
 20
311.6444180487444
 30
0.0
 11
360.9827639249756
 21
314.4544180487445
 31
0.0
  0
LINE
  5
6BD
330
1F
100
AcDbEntity
  8
AM_VIS
100
AcDbLine
 10
347.4827639249757
 20
311.6444180487444
 30
0.0
 11
347.4827639249757
 21
314.4544180487445
 31
0.0
  0
LINE
  5
6BE
330
1F
100
AcDbEntity
  8
AM_VIS
100
AcDbLine
 10
371.9827639249757
 20
252.6444180487445
 30
0.0
 11
371.9827639249757
 21
254.1444180487445
 31
0.0
  0
LINE
  5
6BF
330
1F
100
AcDbEntity
  8
AM_VIS
100
AcDbLine
 10
365.4827639249756
 20
252.6444180487445
 30
0.0
 11
365.4827639249756
 21
254.1444180487445
 31
0.0
  0
LINE
  5
6C0
330
1F
100
AcDbEntity
  8
AM_VIS
100
AcDbLine
 10
342.9827639249757
 20
252.6444180487445
 30
0.0
 11
342.9827639249757
 21
254.1444180487445
 31
0.0
  0
LINE
  5
6C1
330
1F
100
AcDbEntity
  8
AM_VIS
100
AcDbLine
 10
336.4827639249757
 20
252.6444180487445
 30
0.0
 11
336.4827639249757
 21
254.1444180487445
 31
0.0
  0
ARC
  5
6C2
330
1F
100
AcDbEntity
  8
AM_VIS
100
AcDbCircle
 10
367.5327639249756
 20
310.2444180487445
 30
0.0
 40
1.0
100
AcDbArc
 50
0.0
 51
90.0
  0
ARC
  5
6C3
330
1F
100
AcDbEntity
  8
AM_VIS
100
AcDbCircle
 10
340.9327639249757
 20
310.2444180487445
 30
0.0
 40
1.0
100
AcDbArc
 50
90.0
 51
180.0
  0
ARC
  5
6C4
330
1F
100
AcDbEntity
  8
AM_VIS
100
AcDbCircle
 10
340.9327639249757
 20
283.6444180487445
 30
0.0
 40
1.0
100
AcDbArc
 50
180.0
 51
270.0
  0
ARC
  5
6C5
330
1F
100
AcDbEntity
  8
AM_VIS
100
AcDbCircle
 10
367.5327639249756
 20
283.6444180487445
 30
0.0
 40
1.0
100
AcDbArc
 50
270.0
 51
0.0
  0
LINE
  5
6C6
330
1F
100
AcDbEntity
  8
AM_VIS
100
AcDbLine
 10
364.9827639249756
 20
268.1444180487444
 30
0.0
 11
343.4827639249756
 21
268.1444180487444
 31
0.0
  0
CIRCLE
  5
6C7
330
1F
100
AcDbEntity
  8
AM_VIS
100
AcDbCircle
 10
354.2327639249756
 20
296.9444180487445
 30
0.0
 40
3.5
  0
CIRCLE
  5
6C8
330
1F
100
AcDbEntity
  8
AM_VIS
100
AcDbCircle
 10
354.2327639249756
 20
296.9444180487445
 30
0.0
 40
2.5
  0
LINE
  5
6C9
330
1F
100
AcDbEntity
  8
AM_VIS
100
AcDbLine
 10
362.2327639249756
 20
266.1444180487444
 30
0.0
 11
366.7327639249756
 21
266.1444180487444
 31
0.0
  0
LINE
  5
6CA
330
1F
100
AcDbEntity
  8
AM_VIS
100
AcDbLine
 10
341.7327639249756
 20
266.1444180487444
 30
0.0
 11
346.2327639249756
 21
266.1444180487444
 31
0.0
  0
LINE
  5
6CB
330
1F
100
AcDbEntity
  8
AM_VIS
100
AcDbLine
 10
339.2327639249756
 20
260.6444180487445
 30
0.0
 11
369.2327639249756
 21
260.6444180487445
 31
0.0
  0
ARC
  5
6CC
330
1F
100
AcDbEntity
  8
AM_VIS
100
AcDbCircle
 10
354.2327639249756
 20
230.9344180487444
 30
0.0
 40
12.5
100
AcDbArc
 50
180.0
 51
0.0
  0
CIRCLE
  5
6CD
330
1F
100
AcDbEntity
  8
AM_VIS
100
AcDbCircle
 10
354.2327639249756
 20
230.661462358535
 30
0.0
 40
7.25
  0
LINE
  5
6CE
330
1F
100
AcDbEntity
  8
AM_VIS
100
AcDbLine
 10
347.4827639249757
 20
314.4544180487445
 30
0.0
 11
360.9827639249756
 21
314.4544180487445
 31
0.0
  0
LINE
  5
6CF
330
1F
100
AcDbEntity
  8
AM_VIS
100
AcDbLine
 10
367.4827639249756
 20
256.1444180487445
 30
0.0
 11
369.9827639249757
 21
256.1444180487445
 31
0.0
  0
LINE
  5
6D0
330
1F
100
AcDbEntity
  8
AM_VIS
100
AcDbLine
 10
338.4827639249757
 20
256.1444180487445
 30
0.0
 11
340.9827639249757
 21
256.1444180487445
 31
0.0
  0
ARC
  5
6D1
330
1F
100
AcDbEntity
  8
AM_VIS
100
AcDbCircle
 10
369.9827639249757
 20
254.1444180487445
 30
0.0
 40
2.0
100
AcDbArc
 50
0.0
 51
90.0
  0
ARC
  5
6D2
330
1F
100
AcDbEntity
  8
AM_VIS
100
AcDbCircle
 10
367.4827639249756
 20
254.1444180487445
 30
0.0
 40
2.0
100
AcDbArc
 50
90.0
 51
180.0
  0
ARC
  5
6D3
330
1F
100
AcDbEntity
  8
AM_VIS
100
AcDbCircle
 10
340.9827639249757
 20
254.1444180487445
 30
0.0
 40
2.0
100
AcDbArc
 50
0.0
 51
90.0
  0
ARC
  5
6D4
330
1F
100
AcDbEntity
  8
AM_VIS
100
AcDbCircle
 10
338.4827639249757
 20
254.1444180487445
 30
0.0
 40
2.0
100
AcDbArc
 50
90.0
 51
180.0
  0
LINE
  5
6D5
330
1F
100
AcDbEntity
  8
AM_VIS
100
AcDbLine
 10
161.1068059040392
 20
268.6444180487445
 30
0.0
 11
161.1068059040392
 21
311.6444180487444
 31
0.0
  0
LINE
  5
6D6
330
1F
100
AcDbEntity
  8
AM_VIS
100
AcDbLine
 10
132.1068059040392
 20
311.6444180487444
 30
0.0
 11
132.1068059040392
 21
268.6444180487445
 31
0.0
  0
LINE
  5
6D7
330
1F
100
AcDbEntity
  8
AM_VIS
100
AcDbLine
 10
161.1068059040392
 20
311.6444180487444
 30
0.0
 11
132.1068059040392
 21
311.6444180487444
 31
0.0
  0
LINE
  5
6D8
330
1F
100
AcDbEntity
  8
AM_VIS
100
AcDbLine
 10
161.1068059040392
 20
268.6444180487445
 30
0.0
 11
132.1068059040392
 21
268.6444180487445
 31
0.0
  0
LINE
  5
6D9
330
1F
100
AcDbEntity
  8
AM_VIS
100
AcDbLine
 10
139.824475920914
 20
262.1444180487444
 30
0.0
 11
139.824475920914
 21
266.1444180487444
 31
0.0
  0
LINE
  5
6DA
330
1F
100
AcDbEntity
  8
AM_VIS
100
AcDbLine
 10
139.824475920914
 20
266.1444180487444
 30
0.0
 11
153.3891358871644
 21
266.1444180487444
 31
0.0
  0
LINE
  5
6DB
330
1F
100
AcDbEntity
  8
AM_VIS
100
AcDbLine
 10
153.3891358871644
 20
266.1444180487444
 30
0.0
 11
153.3891358871644
 21
262.1444180487444
 31
0.0
  0
LINE
  5
6DC
330
1F
100
AcDbEntity
  8
AM_VIS
100
AcDbLine
 10
165.6068059040392
 20
252.6444180487445
 30
0.0
 11
165.6068059040392
 21
242.1444180487445
 31
0.0
  0
LINE
  5
6DD
330
1F
100
AcDbEntity
  8
AM_VIS
100
AcDbLine
 10
127.6068059040392
 20
252.6444180487445
 30
0.0
 11
127.6068059040392
 21
242.1444180487445
 31
0.0
  0
LINE
  5
6DE
330
1F
100
AcDbEntity
  8
AM_VIS
100
AcDbLine
 10
163.6068059040392
 20
242.1444180487444
 30
0.0
 11
163.6068059040392
 21
218.451462358535
 31
0.0
  0
LINE
  5
6DF
330
1F
100
AcDbEntity
  8
AM_VIS
100
AcDbLine
 10
129.6068059040392
 20
242.1444180487445
 30
0.0
 11
129.6068059040392
 21
218.451462358535
 31
0.0
  0
LINE
  5
6E0
330
1F
100
AcDbEntity
  8
AM_VIS
100
AcDbLine
 10
159.1068059040392
 20
235.2847934369982
 30
0.0
 11
163.1295175458975
 21
235.2847934369982
 31
0.0
  0
LINE
  5
6E1
330
1F
100
AcDbEntity
  8
AM_VIS
100
AcDbLine
 10
130.0840942621809
 20
235.2847934369982
 30
0.0
 11
134.1068059040392
 21
235.2847934369982
 31
0.0
  0
LINE
  5
6E2
330
1F
100
AcDbEntity
  8
AM_VIS
100
AcDbLine
 10
163.1295175458975
 20
235.2847934369982
 30
0.0
 11
163.1295175458976
 21
242.1444180487445
 31
0.0
  0
ELLIPSE
  5
6E3
330
1F
100
AcDbEntity
  8
AM_VIS
100
AcDbEllipse
 10
146.6068059040392
 20
234.082766472481
 30
0.0
 11
17.0
 21
0.0000000000000015
 31
0.0
210
0.0
220
0.0
230
1.0
 40
0.3005067411293183
 41
0.2375211707814424
 42
0.7446957848678197
  0
ELLIPSE
  5
6E4
330
1F
100
AcDbEntity
  8
AM_VIS
100
AcDbEllipse
 10
146.6068059040392
 20
234.082766472481
 30
0.0
 11
17.0
 21
0.0000000000000015
 31
0.0
210
0.0
220
0.0
230
1.0
 40
0.3005067411293183
 41
2.396896868721974
 42
2.904071482808351
  0
LINE
  5
6E5
330
1F
100
AcDbEntity
  8
AM_VIS
100
AcDbLine
 10
130.0840942621809
 20
242.1444180487445
 30
0.0
 11
130.0840942621809
 21
235.2847934369982
 31
0.0
  0
LINE
  5
6E6
330
1F
100
AcDbEntity
  8
AM_VIS
100
AcDbLine
 10
159.1068059040392
 20
243.4529531036339
 30
0.0
 11
159.1068059040392
 21
230.951462358535
 31
0.0
  0
LINE
  5
6E7
330
1F
100
AcDbEntity
  8
AM_VIS
100
AcDbLine
 10
134.1068059040392
 20
230.951462358535
 30
0.0
 11
134.1068059040392
 21
243.4529531036339
 31
0.0
  0
LINE
  5
6E8
330
1F
100
AcDbEntity
  8
AM_VIS
100
AcDbLine
 10
135.8568059040392
 20
268.6444180487445
 30
0.0
 11
135.8568059040392
 21
268.1444180487444
 31
0.0
  0
LINE
  5
6E9
330
1F
100
AcDbEntity
  8
AM_VIS
100
AcDbLine
 10
157.3568059040392
 20
268.6444180487445
 30
0.0
 11
157.3568059040392
 21
268.1444180487444
 31
0.0
  0
LINE
  5
6EA
330
1F
100
AcDbEntity
  8
AM_VIS
100
AcDbLine
 10
139.8568059040392
 20
268.1444180487444
 30
0.0
 11
139.8568059040392
 21
266.1444180487444
 31
0.0
  0
LINE
  5
6EB
330
1F
100
AcDbEntity
  8
AM_VIS
100
AcDbLine
 10
153.3568059040392
 20
268.1444180487444
 30
0.0
 11
153.3568059040392
 21
266.1444180487444
 31
0.0
  0
LINE
  5
6EC
330
1F
100
AcDbEntity
  8
AM_VIS
100
AcDbLine
 10
140.1068059040392
 20
268.6444180487445
 30
0.0
 11
140.1068059040392
 21
266.1444180487444
 31
0.0
  0
LINE
  5
6ED
330
1F
100
AcDbEntity
  8
AM_VIS
100
AcDbLine
 10
153.1068059040392
 20
268.6444180487445
 30
0.0
 11
153.1068059040392
 21
266.1444180487444
 31
0.0
  0
LINE
  5
6EE
330
1F
100
AcDbEntity
  8
AM_VIS
100
AcDbLine
 10
134.1068059040392
 20
266.1444180487444
 30
0.0
 11
134.1068059040392
 21
260.6444180487445
 31
0.0
  0
LINE
  5
6EF
330
1F
100
AcDbEntity
  8
AM_VIS
100
AcDbLine
 10
159.1068059040392
 20
266.1444180487444
 30
0.0
 11
159.1068059040392
 21
260.6444180487445
 31
0.0
  0
LINE
  5
6F0
330
1F
100
AcDbEntity
  8
AM_VIS
100
AcDbLine
 10
131.6068059040392
 20
260.6444180487445
 30
0.0
 11
131.6068059040392
 21
256.1444180487445
 31
0.0
  0
LINE
  5
6F1
330
1F
100
AcDbEntity
  8
AM_VIS
100
AcDbLine
 10
161.6068059040392
 20
260.6444180487445
 30
0.0
 11
161.6068059040392
 21
256.1444180487445
 31
0.0
  0
LINE
  5
6F2
330
1F
100
AcDbEntity
  8
AM_VIS
100
AcDbLine
 10
153.3568059040392
 20
311.6444180487444
 30
0.0
 11
153.3568059040392
 21
314.4544180487445
 31
0.0
  0
LINE
  5
6F3
330
1F
100
AcDbEntity
  8
AM_VIS
100
AcDbLine
 10
139.8568059040392
 20
311.6444180487444
 30
0.0
 11
139.8568059040392
 21
314.4544180487445
 31
0.0
  0
LINE
  5
6F4
330
1F
100
AcDbEntity
  8
AM_VIS
100
AcDbLine
 10
135.3568059040392
 20
252.6444180487445
 30
0.0
 11
135.3568059040392
 21
254.1444180487445
 31
0.0
  0
LINE
  5
6F5
330
1F
100
AcDbEntity
  8
AM_VIS
100
AcDbLine
 10
128.8568059040392
 20
252.6444180487445
 30
0.0
 11
128.8568059040392
 21
254.1444180487445
 31
0.0
  0
LINE
  5
6F6
330
1F
100
AcDbEntity
  8
AM_VIS
100
AcDbLine
 10
164.3568059040392
 20
252.6444180487445
 30
0.0
 11
164.3568059040392
 21
254.1444180487445
 31
0.0
  0
LINE
  5
6F7
330
1F
100
AcDbEntity
  8
AM_VIS
100
AcDbLine
 10
157.8568059040392
 20
252.6444180487445
 30
0.0
 11
157.8568059040392
 21
254.1444180487445
 31
0.0
  0
LINE
  5
6F8
330
1F
100
AcDbEntity
  8
AM_VIS
100
AcDbLine
 10
157.3568059040392
 20
268.1444180487444
 30
0.0
 11
153.1068059040392
 21
268.1444180487444
 31
0.0
  0
LINE
  5
6F9
330
1F
100
AcDbEntity
  8
AM_VIS
100
AcDbLine
 10
140.1068059040392
 20
268.1444180487444
 30
0.0
 11
135.8568059040392
 21
268.1444180487444
 31
0.0
  0
LINE
  5
6FA
330
1F
100
AcDbEntity
  8
AM_VIS
100
AcDbLine
 10
134.1068059040392
 20
266.1444180487444
 30
0.0
 11
139.824475920914
 21
266.1444180487444
 31
0.0
  0
LINE
  5
6FB
330
1F
100
AcDbEntity
  8
AM_VIS
100
AcDbLine
 10
153.3891358871644
 20
266.1444180487444
 30
0.0
 11
159.1068059040392
 21
266.1444180487444
 31
0.0
  0
LINE
  5
6FC
330
1F
100
AcDbEntity
  8
AM_VIS
100
AcDbLine
 10
139.824475920914
 20
262.1444180487444
 30
0.0
 11
153.3891358871644
 21
262.1444180487444
 31
0.0
  0
LINE
  5
6FD
330
1F
100
AcDbEntity
  8
AM_VIS
100
AcDbLine
 10
131.6068059040392
 20
260.6444180487445
 30
0.0
 11
161.6068059040392
 21
260.6444180487445
 31
0.0
  0
CIRCLE
  5
6FE
330
1F
100
AcDbEntity
  8
AM_VIS
100
AcDbCircle
 10
146.6068059040392
 20
230.4544180487444
 30
0.0
 40
7.25
  0
LINE
  5
6FF
330
1F
100
AcDbEntity
  8
AM_VIS
100
AcDbLine
 10
130.8568059040392
 20
256.1444180487445
 30
0.0
 11
133.3568059040392
 21
256.1444180487445
 31
0.0
  0
LINE
  5
700
330
1F
100
AcDbEntity
  8
AM_VIS
100
AcDbLine
 10
159.8568059040392
 20
256.1444180487445
 30
0.0
 11
162.3568059040392
 21
256.1444180487445
 31
0.0
  0
ARC
  5
701
330
1F
100
AcDbEntity
  8
AM_VIS
100
AcDbCircle
 10
133.3568059040392
 20
254.1444180487445
 30
0.0
 40
2.0
100
AcDbArc
 50
0.0
 51
90.0
  0
ARC
  5
702
330
1F
100
AcDbEntity
  8
AM_VIS
100
AcDbCircle
 10
130.8568059040392
 20
254.1444180487445
 30
0.0
 40
2.0
100
AcDbArc
 50
90.0
 51
180.0
  0
ARC
  5
703
330
1F
100
AcDbEntity
  8
AM_VIS
100
AcDbCircle
 10
162.3568059040392
 20
254.1444180487445
 30
0.0
 40
2.0
100
AcDbArc
 50
0.0
 51
90.0
  0
ARC
  5
704
330
1F
100
AcDbEntity
  8
AM_VIS
100
AcDbCircle
 10
159.8568059040392
 20
254.1444180487445
 30
0.0
 40
2.0
100
AcDbArc
 50
90.0
 51
180.0
  0
LINE
  5
705
330
1F
100
AcDbEntity
  8
AM_VIS
100
AcDbLine
 10
257.6211803112204
 20
185.3806888786587
 30
0.0
 11
256.1211803112204
 21
185.3806888786587
 31
0.0
  0
LINE
  5
706
330
1F
100
AcDbEntity
  8
AM_VIS
100
AcDbLine
 10
256.1211803112204
 20
156.3806888786587
 30
0.0
 11
257.6211803112204
 21
156.3806888786587
 31
0.0
  0
LINE
  5
707
330
1F
100
AcDbEntity
  8
AM_VIS
100
AcDbLine
 10
262.6211803112204
 20
185.1806888786587
 30
0.0
 11
267.1211803112204
 21
185.1806888786587
 31
0.0
  0
LINE
  5
708
330
1F
100
AcDbEntity
  8
AM_VIS
100
AcDbLine
 10
267.1211803112204
 20
157.5806888786587
 30
0.0
 11
267.1211803112204
 21
184.1806888786587
 31
0.0
  0
LINE
  5
709
330
1F
100
AcDbEntity
  8
AM_VIS
100
AcDbLine
 10
262.6211803112204
 20
156.5806888786587
 30
0.0
 11
267.1211803112204
 21
156.5806888786587
 31
0.0
  0
LINE
  5
70A
330
1F
100
AcDbEntity
  8
AM_VIS
100
AcDbLine
 10
258.6211803112204
 20
185.3806888786587
 30
0.0
 11
262.6211803112204
 21
185.3806888786587
 31
0.0
  0
LINE
  5
70B
330
1F
100
AcDbEntity
  8
AM_VIS
100
AcDbLine
 10
262.6211803112204
 20
156.3806888786587
 30
0.0
 11
262.6211803112204
 21
158.3806888786587
 31
0.0
  0
LINE
  5
70C
330
1F
100
AcDbEntity
  8
AM_VIS
100
AcDbLine
 10
262.6211803112204
 20
183.3806888786587
 30
0.0
 11
262.6211803112204
 21
185.3806888786587
 31
0.0
  0
LINE
  5
70D
330
1F
100
AcDbEntity
  8
AM_VIS
100
AcDbLine
 10
258.6211803112204
 20
156.3806888786587
 30
0.0
 11
262.6211803112204
 21
156.3806888786587
 31
0.0
  0
LINE
  5
70E
330
1F
100
AcDbEntity
  8
AM_VIS
100
AcDbLine
 10
257.6211803112204
 20
185.3806888786587
 30
0.0
 11
257.6211803112204
 21
183.3806888786587
 31
0.0
  0
LINE
  5
70F
330
1F
100
AcDbEntity
  8
AM_VIS
100
AcDbLine
 10
257.6211803112204
 20
158.3806888786587
 30
0.0
 11
257.6211803112204
 21
156.3806888786587
 31
0.0
  0
LINE
  5
710
330
1F
100
AcDbEntity
  8
AM_VIS
100
AcDbLine
 10
258.6211803112204
 20
185.3806888786587
 30
0.0
 11
257.6211803112204
 21
185.3806888786587
 31
0.0
  0
LINE
  5
711
330
1F
100
AcDbEntity
  8
AM_VIS
100
AcDbLine
 10
258.6211803112204
 20
185.3806888786587
 30
0.0
 11
258.6211803112204
 21
183.3806888786587
 31
0.0
  0
LINE
  5
712
330
1F
100
AcDbEntity
  8
AM_VIS
100
AcDbLine
 10
258.6211803112204
 20
158.3806888786587
 30
0.0
 11
258.6211803112204
 21
156.3806888786587
 31
0.0
  0
LINE
  5
713
330
1F
100
AcDbEntity
  8
AM_VIS
100
AcDbLine
 10
257.6211803112204
 20
156.3806888786587
 30
0.0
 11
258.6211803112204
 21
156.3806888786587
 31
0.0
  0
LINE
  5
714
330
1F
100
AcDbEntity
  8
AM_VIS
100
AcDbLine
 10
267.1211803112204
 20
158.0806888786587
 30
0.0
 11
290.1211803112204
 21
158.0806888786587
 31
0.0
  0
LINE
  5
715
330
1F
100
AcDbEntity
  8
AM_VIS
100
AcDbLine
 10
267.1211803112204
 20
183.6806888786587
 30
0.0
 11
290.1211803112204
 21
183.6806888786587
 31
0.0
  0
LINE
  5
716
330
1F
100
AcDbEntity
  8
AM_VIS
100
AcDbLine
 10
290.1211803112204
 20
170.8806888786587
 30
0.0
 11
290.1211803112204
 21
183.6806888786587
 31
0.0
  0
LINE
  5
717
330
1F
100
AcDbEntity
  8
AM_VIS
100
AcDbLine
 10
290.1211803112204
 20
158.0806888786587
 30
0.0
 11
290.1211803112204
 21
170.8806888786587
 31
0.0
  0
LINE
  5
718
330
1F
100
AcDbEntity
  8
AM_VIS
100
AcDbLine
 10
283.9899824647375
 20
162.8806888786587
 30
0.0
 11
274.7523781577034
 21
162.8806888786587
 31
0.0
  0
LINE
  5
719
330
1F
100
AcDbEntity
  8
AM_VIS
100
AcDbLine
 10
288.6087846182545
 20
170.8806888786587
 30
0.0
 11
283.9899824647375
 21
162.8806888786587
 31
0.0
  0
LINE
  5
71A
330
1F
100
AcDbEntity
  8
AM_VIS
100
AcDbLine
 10
283.9899824647375
 20
178.8806888786587
 30
0.0
 11
288.6087846182545
 21
170.8806888786587
 31
0.0
  0
LINE
  5
71B
330
1F
100
AcDbEntity
  8
AM_VIS
100
AcDbLine
 10
274.7523781577034
 20
178.8806888786587
 30
0.0
 11
283.9899824647375
 21
178.8806888786587
 31
0.0
  0
LINE
  5
71C
330
1F
100
AcDbEntity
  8
AM_VIS
100
AcDbLine
 10
270.1335760041865
 20
170.8806888786587
 30
0.0
 11
274.7523781577034
 21
178.8806888786587
 31
0.0
  0
LINE
  5
71D
330
1F
100
AcDbEntity
  8
AM_VIS
100
AcDbLine
 10
274.7523781577034
 20
162.8806888786587
 30
0.0
 11
270.1335760041865
 21
170.8806888786587
 31
0.0
  0
LINE
  5
71E
330
1F
100
AcDbEntity
  8
AM_VIS
100
AcDbLine
 10
233.1211803112204
 20
187.8806888786587
 30
0.0
 11
241.1211803112204
 21
187.8806888786587
 31
0.0
  0
LINE
  5
71F
330
1F
100
AcDbEntity
  8
AM_VIS
100
AcDbLine
 10
241.1211803112204
 20
153.8806888786587
 30
0.0
 11
233.1211803112204
 21
153.8806888786587
 31
0.0
  0
LINE
  5
720
330
1F
100
AcDbEntity
  8
AM_VIS
100
AcDbLine
 10
241.1211803112204
 20
187.8806888786587
 30
0.0
 11
241.1211803112204
 21
153.8806888786587
 31
0.0
  0
LINE
  5
721
330
1F
100
AcDbEntity
  8
AM_VIS
100
AcDbLine
 10
233.1211803112204
 20
153.8806888786587
 30
0.0
 11
233.1211803112204
 21
187.8806888786587
 31
0.0
  0
LINE
  5
722
330
1F
100
AcDbEntity
  8
AM_VIS
100
AcDbLine
 10
241.1211803112204
 20
161.9107042644711
 30
0.0
 11
247.6211803112204
 21
161.9107042644711
 31
0.0
  0
LINE
  5
723
330
1F
100
AcDbEntity
  8
AM_VIS
100
AcDbLine
 10
226.6211803112204
 20
161.9107042644711
 30
0.0
 11
233.1211803112204
 21
161.9107042644711
 31
0.0
  0
LINE
  5
724
330
1F
100
AcDbEntity
  8
AM_VIS
100
AcDbLine
 10
241.1211803112204
 20
179.4107042644711
 30
0.0
 11
247.6211803112204
 21
179.4107042644711
 31
0.0
  0
LINE
  5
725
330
1F
100
AcDbEntity
  8
AM_VIS
100
AcDbLine
 10
226.6211803112204
 20
179.4107042644711
 30
0.0
 11
233.1211803112204
 21
179.4107042644711
 31
0.0
  0
ARC
  5
726
330
1F
100
AcDbEntity
  8
AM_VIS
100
AcDbCircle
 10
237.1211803112204
 20
170.8806888786587
 30
0.0
 40
17.0
100
AcDbArc
 50
103.6089606307836
 51
132.6679254941086
  0
ARC
  5
727
330
1F
100
AcDbEntity
  8
AM_VIS
100
AcDbCircle
 10
237.1211803112204
 20
170.8806888786587
 30
0.0
 40
17.0
100
AcDbArc
 50
227.3320745058914
 51
256.3910393692164
  0
LINE
  5
728
330
1F
100
AcDbEntity
  8
AM_VIS
100
AcDbLine
 10
226.6211803112204
 20
183.3806888786587
 30
0.0
 11
209.6211803112204
 21
183.3806888786587
 31
0.0
  0
LINE
  5
729
330
1F
100
AcDbEntity
  8
AM_VIS
100
AcDbLine
 10
226.6211803112204
 20
158.3806888786587
 30
0.0
 11
209.6211803112204
 21
158.3806888786587
 31
0.0
  0
ARC
  5
72A
330
1F
100
AcDbEntity
  8
AM_VIS
100
AcDbCircle
 10
237.1211803112204
 20
170.8806888786587
 30
0.0
 40
17.0
100
AcDbArc
 50
283.6089606307837
 51
312.6679254941087
  0
ARC
  5
72B
330
1F
100
AcDbEntity
  8
AM_VIS
100
AcDbCircle
 10
237.1211803112204
 20
170.8806888786587
 30
0.0
 40
17.0
100
AcDbArc
 50
47.33207450589131
 51
76.39103936921634
  0
LINE
  5
72C
330
1F
100
AcDbEntity
  8
AM_VIS
100
AcDbLine
 10
256.1211803112204
 20
158.3806888786587
 30
0.0
 11
256.1211803112204
 21
151.8806888786587
 31
0.0
  0
LINE
  5
72D
330
1F
100
AcDbEntity
  8
AM_VIS
100
AcDbLine
 10
256.1211803112204
 20
151.8806888786587
 30
0.0
 11
218.1211803112204
 21
151.8806888786587
 31
0.0
  0
LINE
  5
72E
330
1F
100
AcDbEntity
  8
AM_VIS
100
AcDbLine
 10
218.1211803112204
 20
151.8806888786587
 30
0.0
 11
218.1211803112204
 21
158.3806888786587
 31
0.0
  0
LINE
  5
72F
330
1F
100
AcDbEntity
  8
AM_VIS
100
AcDbLine
 10
218.1211803112204
 20
183.3806888786587
 30
0.0
 11
218.1211803112204
 21
189.8806888786587
 31
0.0
  0
LINE
  5
730
330
1F
100
AcDbEntity
  8
AM_VIS
100
AcDbLine
 10
218.1211803112204
 20
189.8806888786587
 30
0.0
 11
256.1211803112204
 21
189.8806888786587
 31
0.0
  0
LINE
  5
731
330
1F
100
AcDbEntity
  8
AM_VIS
100
AcDbLine
 10
256.1211803112204
 20
189.8806888786587
 30
0.0
 11
256.1211803112204
 21
183.3806888786587
 31
0.0
  0
LINE
  5
732
330
1F
100
AcDbEntity
  8
AM_VIS
100
AcDbLine
 10
247.6211803112204
 20
158.3806888786587
 30
0.0
 11
264.6211803112204
 21
158.3806888786587
 31
0.0
  0
LINE
  5
733
330
1F
100
AcDbEntity
  8
AM_VIS
100
AcDbLine
 10
247.6211803112204
 20
183.3806888786587
 30
0.0
 11
264.6211803112204
 21
183.3806888786587
 31
0.0
  0
LINE
  5
734
330
1F
100
AcDbEntity
  8
AM_VIS
100
AcDbLine
 10
267.1211803112204
 20
185.1806888786587
 30
0.0
 11
267.1211803112204
 21
184.1806888786587
 31
0.0
  0
LINE
  5
735
330
1F
100
AcDbEntity
  8
AM_VIS
100
AcDbLine
 10
267.1211803112204
 20
157.5806888786587
 30
0.0
 11
267.1211803112204
 21
156.5806888786587
 31
0.0
  0
CIRCLE
  5
736
330
1F
100
AcDbEntity
  8
AM_VIS
100
AcDbCircle
 10
279.3711803112204
 20
170.8806888786587
 30
0.0
 40
10.75
  0
CIRCLE
  5
737
330
1F
100
AcDbEntity
  8
AM_VIS
100
AcDbCircle
 10
279.3711803112204
 20
170.8806888786587
 30
0.0
 40
5.0
  0
LINE
  5
738
330
1F
100
AcDbEntity
  8
AM_VIS
100
AcDbLine
 10
209.6211803112204
 20
158.3806888786587
 30
0.0
 11
209.6211803112204
 21
183.3806888786587
 31
0.0
  0
LINE
  5
739
330
1F
100
AcDbEntity
  8
AM_VIS
100
AcDbLine
 10
226.6211803112204
 20
158.3806888786587
 30
0.0
 11
226.6211803112204
 21
183.3806888786587
 31
0.0
  0
CIRCLE
  5
73A
330
1F
100
AcDbEntity
  8
AM_VIS
100
AcDbCircle
 10
222.6211803112204
 20
156.3806888786587
 30
0.0
 40
1.5
  0
CIRCLE
  5
73B
330
1F
100
AcDbEntity
  8
AM_VIS
100
AcDbCircle
 10
251.6211803112204
 20
156.3806888786587
 30
0.0
 40
1.5
  0
CIRCLE
  5
73C
330
1F
100
AcDbEntity
  8
AM_VIS
100
AcDbCircle
 10
222.6211803112204
 20
185.3806888786587
 30
0.0
 40
1.5
  0
CIRCLE
  5
73D
330
1F
100
AcDbEntity
  8
AM_VIS
100
AcDbCircle
 10
251.6211803112204
 20
185.3806888786587
 30
0.0
 40
1.5
  0
LINE
  5
73E
330
1F
100
AcDbEntity
  8
AM_VIS
100
AcDbLine
 10
264.6211803112204
 20
183.3806888786587
 30
0.0
 11
264.6211803112204
 21
158.3806888786587
 31
0.0
  0
LINE
  5
73F
330
1F
100
AcDbEntity
  8
AM_VIS
100
AcDbLine
 10
247.6211803112204
 20
183.3806888786587
 30
0.0
 11
247.6211803112204
 21
158.3806888786587
 31
0.0
  0
LINE
  5
740
330
1F
100
AcDbEntity
  8
AM_VIS
100
AcDbLine
 10
223.6211803112204
 20
346.7452385896107
 30
0.0
 11
258.1211803112204
 21
346.7452385896107
 31
0.0
  0
LINE
  5
741
330
1F
100
AcDbEntity
  8
AM_VIS
100
AcDbLine
 10
223.6211803112204
 20
346.7452385896107
 30
0.0
 11
223.6211803112204
 21
375.7452385896107
 31
0.0
  0
LINE
  5
742
330
1F
100
AcDbEntity
  8
AM_VIS
100
AcDbLine
 10
258.1211803112204
 20
375.7452385896107
 30
0.0
 11
223.6211803112204
 21
375.7452385896107
 31
0.0
  0
LINE
  5
743
330
1F
100
AcDbEntity
  8
AM_VIS
100
AcDbLine
 10
258.1211803112204
 20
346.7452385896107
 30
0.0
 11
258.1211803112204
 21
375.7452385896107
 31
0.0
  0
LINE
  5
744
330
1F
100
AcDbEntity
  8
AM_VIS
100
AcDbLine
 10
258.1211803112204
 20
346.7452385896107
 30
0.0
 11
263.1211803112204
 21
346.7452385896107
 31
0.0
  0
LINE
  5
745
330
1F
100
AcDbEntity
  8
AM_VIS
100
AcDbLine
 10
258.1211803112204
 20
375.7452385896107
 30
0.0
 11
263.1211803112204
 21
375.7452385896107
 31
0.0
  0
LINE
  5
746
330
1F
100
AcDbEntity
  8
AM_VIS
100
AcDbLine
 10
263.1211803112204
 20
346.7452385896107
 30
0.0
 11
263.1211803112204
 21
375.7452385896107
 31
0.0
  0
LINE
  5
747
330
1F
100
AcDbEntity
  8
AM_VIS
100
AcDbLine
 10
267.1211803112204
 20
347.9452385896107
 30
0.0
 11
267.1211803112204
 21
374.5452385896107
 31
0.0
  0
LINE
  5
748
330
1F
100
AcDbEntity
  8
AM_VIS
100
AcDbLine
 10
263.1211803112204
 20
346.9452385896107
 30
0.0
 11
267.1211803112204
 21
346.9452385896107
 31
0.0
  0
LINE
  5
749
330
1F
100
AcDbEntity
  8
AM_VIS
100
AcDbLine
 10
263.1211803112204
 20
375.5452385896107
 30
0.0
 11
267.1211803112204
 21
375.5452385896107
 31
0.0
  0
LINE
  5
74A
330
1F
100
AcDbEntity
  8
AM_VIS
100
AcDbLine
 10
290.1211803112204
 20
348.4452385896107
 30
0.0
 11
290.1211803112204
 21
374.0452385896107
 31
0.0
  0
LINE
  5
74B
330
1F
100
AcDbEntity
  8
AM_VIS
100
AcDbLine
 10
267.1211803112204
 20
348.4452385896107
 30
0.0
 11
290.1211803112204
 21
348.4452385896107
 31
0.0
  0
LINE
  5
74C
330
1F
100
AcDbEntity
  8
AM_VIS
100
AcDbLine
 10
267.1211803112204
 20
374.0452385896107
 30
0.0
 11
290.1211803112204
 21
374.0452385896107
 31
0.0
  0
LINE
  5
74D
330
1F
100
AcDbEntity
  8
AM_VIS
100
AcDbLine
 10
256.6211803112204
 20
342.2452385896107
 30
0.0
 11
218.6211803112204
 21
342.2452385896107
 31
0.0
  0
LINE
  5
74E
330
1F
100
AcDbEntity
  8
AM_VIS
100
AcDbLine
 10
218.6211803112204
 20
342.2452385896107
 30
0.0
 11
218.6211803112204
 21
380.2452385896107
 31
0.0
  0
LINE
  5
74F
330
1F
100
AcDbEntity
  8
AM_VIS
100
AcDbLine
 10
218.6211803112204
 20
380.2452385896107
 30
0.0
 11
256.6211803112204
 21
380.2452385896107
 31
0.0
  0
LINE
  5
750
330
1F
100
AcDbEntity
  8
AM_VIS
100
AcDbLine
 10
256.6211803112204
 20
380.2452385896107
 30
0.0
 11
256.6211803112204
 21
375.7452385896107
 31
0.0
  0
LINE
  5
751
330
1F
100
AcDbEntity
  8
AM_VIS
100
AcDbLine
 10
256.6211803112204
 20
346.7452385896107
 30
0.0
 11
256.6211803112204
 21
342.2452385896107
 31
0.0
  0
LINE
  5
752
330
1F
100
AcDbEntity
  8
AM_VIS
100
AcDbLine
 10
218.6211803112204
 20
348.7452385896107
 30
0.0
 11
210.1211803112204
 21
348.7452385896107
 31
0.0
  0
LINE
  5
753
330
1F
100
AcDbEntity
  8
AM_VIS
100
AcDbLine
 10
210.1211803112204
 20
373.7452385896107
 30
0.0
 11
210.1211803112204
 21
348.7452385896107
 31
0.0
  0
LINE
  5
754
330
1F
100
AcDbEntity
  8
AM_VIS
100
AcDbLine
 10
218.6211803112204
 20
373.7452385896107
 30
0.0
 11
210.1211803112204
 21
373.7452385896107
 31
0.0
  0
LINE
  5
755
330
1F
100
AcDbEntity
  8
AM_VIS
100
AcDbLine
 10
267.1211803112204
 20
375.5452385896107
 30
0.0
 11
267.1211803112204
 21
374.5452385896107
 31
0.0
  0
LINE
  5
756
330
1F
100
AcDbEntity
  8
AM_VIS
100
AcDbLine
 10
267.1211803112204
 20
347.9452385896107
 30
0.0
 11
267.1211803112204
 21
346.9452385896107
 31
0.0
  0
CIRCLE
  5
757
330
1F
100
AcDbEntity
  8
AM_VIS
100
AcDbCircle
 10
237.6211803112204
 20
361.2452385896107
 30
0.0
 40
11.75
  0
ARC
  5
758
330
1F
100
AcDbEntity
  8
AM_VIS
100
AcDbCircle
 10
237.6211803112204
 20
361.2452385896107
 30
0.0
 40
15.0
100
AcDbArc
 50
75.16488841802424
 51
104.8351115819757
  0
ARC
  5
759
330
1F
100
AcDbEntity
  8
AM_VIS
100
AcDbCircle
 10
237.6211803112204
 20
361.2452385896107
 30
0.0
 40
15.0
100
AcDbArc
 50
255.1648884180242
 51
284.8351115819758
  0
ARC
  5
75A
330
1F
100
AcDbEntity
  8
AM_VIS
100
AcDbCircle
 10
237.6211803112204
 20
361.2452385896107
 30
0.0
 40
15.0
100
AcDbArc
 50
158.9605302186829
 51
201.0394697813171
  0
CIRCLE
  5
75B
330
1F
100
AcDbEntity
  8
AM_VIS
100
AcDbCircle
 10
237.6211803112204
 20
361.2452385896107
 30
0.0
 40
6.75
  0
ARC
  5
75C
330
1F
100
AcDbEntity
  8
AM_VIS
100
AcDbCircle
 10
252.1211803112204
 20
375.7452385896107
 30
0.0
 40
3.25
100
AcDbArc
 50
0.0
 51
180.0
  0
ARC
  5
75D
330
1F
100
AcDbEntity
  8
AM_VIS
100
AcDbCircle
 10
223.1211803112204
 20
375.7452385896107
 30
0.0
 40
3.25
100
AcDbArc
 50
0.0
 51
278.8498830984309
  0
ARC
  5
75E
330
1F
100
AcDbEntity
  8
AM_VIS
100
AcDbCircle
 10
223.1211803112204
 20
346.7452385896107
 30
0.0
 40
3.25
100
AcDbArc
 50
81.15011690156901
 51
0.0
  0
ARC
  5
75F
330
1F
100
AcDbEntity
  8
AM_VIS
100
AcDbCircle
 10
252.1211803112204
 20
346.7452385896107
 30
0.0
 40
3.25
100
AcDbArc
 50
180.0
 51
0.0
  0
DIMENSION
  5
760
330
1F
100
AcDbEntity
  8
0
100
AcDbDimension
  2
*D12
 10
192.7885493002522
 20
151.8806888786587
 30
0.0
 11
190.2885493002522
 21
170.8806888786587
 31
0.0
 70
    32
 71
     5
 42
38.0
  3
STANDARD
100
AcDbAlignedDimension
 13
218.1211803112204
 23
189.8806888786587
 33
0.0
 14
218.1211803112204
 24
151.8806888786587
 34
0.0
 50
90.0
100
AcDbRotatedDimension
1001
ACAD
1000
DSTYLE
1002
{
1070
   176
1070
     5
1070
   177
1070
     5
1070
   178
1070
     5
1070
   272
1070
     8
1002
}
  0
DIMENSION
  5
761
330
1F
100
AcDbEntity
  8
0
100
AcDbDimension
  2
*D13
 10
290.1211803112204
 20
320.6261254654363
 30
0.0
 11
263.6211803112204
 21
323.1261254654363
 31
0.0
 70
    32
 71
     5
 42
53.0
  3
STANDARD
100
AcDbAlignedDimension
 13
237.1211803112204
 23
316.6444180487445
 33
0.0
 14
290.1211803112204
 24
309.7444180487445
 34
0.0
100
AcDbRotatedDimension
1001
ACAD
1000
DSTYLE
1002
{
1070
   176
1070
     5
1070
   177
1070
     5
1070
   178
1070
     5
1070
   272
1070
     8
1002
}
  0
DIMENSION
  5
762
330
1F
100
AcDbEntity
  8
0
100
AcDbDimension
  2
*D14
 10
201.0099024509118
 20
218.451462358535
 30
0.0
 11
198.5099024509118
 21
266.4529402036398
 31
0.0
 70
    32
 71
     5
 42
96.00295569020955
  3
STANDARD
100
AcDbAlignedDimension
 13
230.3711803112204
 23
314.4544180487445
 33
0.0
 14
209.6211803112204
 24
218.451462358535
 34
0.0
 50
90.0
100
AcDbRotatedDimension
1001
ACAD
1000
DSTYLE
1002
{
1070
   176
1070
     5
1070
   177
1070
     5
1070
   178
1070
     5
1070
   272
1070
     8
1002
}
  0
DIMENSION
  5
763
330
1F
100
AcDbEntity
  8
0
100
AcDbDimension
  2
*D15
 10
264.6211803112204
 20
209.8181337741709
 30
0.0
 11
237.1211803112204
 21
212.3181337741709
 31
0.0
 70
    32
 71
     5
 42
55.0
  3
STANDARD
100
AcDbAlignedDimension
 13
209.6211803112204
 23
218.451462358535
 33
0.0
 14
264.6211803112204
 24
218.4344180487444
 34
0.0
100
AcDbRotatedDimension
1001
ACAD
1000
DSTYLE
1002
{
1070
   176
1070
     5
1070
   177
1070
     5
1070
   178
1070
     5
1070
   272
1070
     8
1002
}
  0
MTEXT
  5
764
330
1F
100
AcDbEntity
  8
0
100
AcDbMText
 10
110.7372020972746
 20
199.9366854976905
 30
0.0
 40
3.5
 41
14.26129721661823
 71
     1
 72
     5
  1
{\C5;2-G3/8}
 73
     1
 44
1.0
1001
GENIUS_AMGTXT_16
1040
3.5
1040
0.12
1001
ACAD
1000
MTEXTBEGIN
1070
    73
1070
     1
1070
    44
1040
1.0
1070
    74
1070
     0
1000
MTEXTEND
  0
MTEXT
  5
765
330
1F
100
AcDbEntity
  8
0
100
AcDbMText
 10
226.4319063212622
 20
149.4899826303758
 30
0.0
 40
3.5
 41
14.26129721661823
 71
     1
 72
     5
  1
{\C5;M4}
 73
     1
 44
1.0
1001
GENIUS_AMGTXT_16
1040
3.5
1040
0.12
1001
ACAD
1000
MTEXTBEGIN
1070
    73
1070
     1
1070
    44
1040
1.0
1070
    74
1070
     0
1000
MTEXTEND
  0
CIRCLE
  5
766
330
1F
100
AcDbEntity
  8
0
100
AcDbCircle
 10
237.1211803112204
 20
182.8806888786587
 30
0.0
 40
2.0
  0
CIRCLE
  5
767
330
1F
100
AcDbEntity
  8
0
100
AcDbCircle
 10
237.1211803112204
 20
158.8806888786587
 30
0.0
 40
2.0
  0
LEADER
  5
768
330
1F
100
AcDbEntity
  8
0
100
AcDbLeader
  3
STANDARD
 76
     3
 10
236.0174400954357
 20
156.9708734864189
 30
0.0
 10
232.7096795271797
 20
145.5811708876708
 30
0.0
 10
225.2672177161277
 20
145.5811708876708
 30
0.0
1001
ACAD
1000
DSTYLE
1002
{
1070
   176
1070
     5
1070
   177
1070
     5
1070
   178
1070
     5
1070
   272
1070
     8
1002
}
  0
TEXT
  5
769
330
1F
100
AcDbEntity
  8
LOGO
 62
     7
100
AcDbText
 10
159.0962075741478
 20
120.7199994355318
 30
0.0
 40
3.871439348416289
  1
Order example:
 41
0.8
  7
CHINESET
100
AcDbText
  0
TEXT
  5
76A
330
1F
100
AcDbEntity
  8
LOGO
 62
     7
100
AcDbText
 10
159.7907758087547
 20
126.170184446357
 30
0.0
 40
5.807159022624434
  1
訂購代號：
  7
CHINESET
100
AcDbText
  0
LINE
  5
76B
330
1F
100
AcDbEntity
  8
LOGO
 62
     4
100
AcDbLine
 10
396.9846515732218
 20
133.4400871883176
 30
0.0
 11
93.53530479722477
 21
133.4400871883176
 31
0.0
  0
LINE
  5
76C
330
1F
100
AcDbEntity
  8
LOGO
 62
     4
100
AcDbLine
 10
157.4140540460936
 20
104.4042920751949
 30
0.0
 11
157.4140540460936
 21
133.4400871883176
 31
0.0
  0
TEXT
  5
76D
330
1F
100
AcDbEntity
  8
LOGO
  6
Continuous
100
AcDbText
 10
103.9650929202826
 20
110.1083302063324
 30
0.0
 40
4.355369266968326
  1
金器工業股份有限公司
  7
CHINESET
100
AcDbText
  0
TEXT
  5
76E
330
1F
100
AcDbEntity
  8
LOGO
  6
Continuous
100
AcDbText
 10
95.96514124417838
 20
105.7521076284619
 30
0.0
 40
2.903579511312217
  1
MINDMAN INDUSTRIAL CO., LTD.
 41
0.85
  7
CHINESET
100
AcDbText
  0
LINE
  5
76F
330
1F
100
AcDbEntity
  8
LOGO
 62
     4
100
AcDbLine
 10
157.4140540460936
 20
127.6329281656928
 30
0.0
 11
114.8282212135141
 21
127.6329281656928
 31
0.0
  0
LINE
  5
770
330
1F
100
AcDbEntity
  8
LOGO
 62
     4
100
AcDbLine
 10
157.4140540460936
 20
121.8257691430686
 30
0.0
 11
114.8282212135141
 21
121.8257691430686
 31
0.0
  0
LINE
  5
771
330
1F
100
AcDbEntity
  8
LOGO
 62
     4
100
AcDbLine
 10
157.4140540460936
 20
116.0186101204445
 30
0.0
 11
93.53530479722477
 21
116.0186101204445
 31
0.0
  0
LINE
  5
772
330
1F
100
AcDbEntity
  8
LOGO
 62
     4
100
AcDbLine
 10
114.8282212135141
 20
116.0186101204445
 30
0.0
 11
114.8282212135141
 21
133.4400871883176
 31
0.0
  0
TEXT
  5
773
330
1F
100
AcDbEntity
  8
LOGO
100
AcDbText
 10
143.9336279338889
 20
117.4703998761001
 30
0.0
 40
2.903579511312217
  1
mm
  7
CHINESET
 72
     1
 11
147.5285359002755
 21
118.9221896317562
 31
0.0
100
AcDbText
 73
     2
  0
TEXT
  5
774
330
1F
100
AcDbEntity
  8
LOGO
100
AcDbText
 10
142.4127053327254
 20
129.0847179213491
 30
0.0
 40
2.903579511312217
  1
1 : 1
  7
CHINESET
 72
     1
 11
147.5285359002755
 21
130.5365076770052
 31
0.0
100
AcDbText
 73
     2
  0
LINE
  5
775
330
1F
100
AcDbEntity
  8
LOGO
 62
     4
100
AcDbLine
 10
138.056857304012
 20
116.0186101204445
 30
0.0
 11
138.056857304012
 21
133.4400871883176
 31
0.0
  0
TEXT
  5
776
330
1F
100
AcDbEntity
  8
LOGO
100
AcDbText
 10
117.2223780694936
 20
129.0861468482739
 30
190.2958178035923
 40
2.903579511312217
  1
比例 Scale:
 41
0.9
  7
CHINESET
 72
     4
 11
126.4425392587631
 21
130.5365076770052
 31
190.2958178035923
100
AcDbText
  0
TEXT
  5
777
330
1F
100
AcDbEntity
  8
LOGO
100
AcDbText
 10
117.0551629994225
 20
123.3184023933265
 30
190.2958178035923
 40
2.903579511312217
  1
投影  View:
 41
0.9
  7
CHINESET
 72
     4
 11
126.4425392587631
 21
124.7293486543804
 31
190.2958178035923
100
AcDbText
  0
TEXT
  5
778
330
1F
100
AcDbEntity
  8
LOGO
100
AcDbText
 10
117.3390397462873
 20
117.4703998761001
 30
190.2958178035923
 40
2.903579511312217
  1
單位  Unit:
 41
0.9
  7
CHINESET
 72
     4
 11
126.4425392587631
 21
118.9221896317562
 31
190.2958178035923
100
AcDbText
  0
LWPOLYLINE
  5
779
330
1F
100
AcDbEntity
  8
LOGO
 62
     4
100
AcDbPolyline
 90
        4
 70
     1
 43
0.0
 10
93.53530479722476
 20
133.4400871883176
 10
396.9846515732218
 20
133.4400871883176
 10
396.9846515732218
 20
394.8042920751947
 10
93.53530479722476
 20
394.8042920751947
1001
GENIUS_GENREC_14
1002
{
1000
PYDIR
1011
93.53530479722476
1021
394.8042920751947
1031
0.0
1002
}
1002
{
1000
PXDIR
1011
396.9846515732218
1021
133.4400871883176
1031
0.0
1002
}
1002
{
1000
PORI
1011
93.53530479722476
1021
133.4400871883176
1031
0.0
1002
}
1002
{
1000
PINS
1011
93.53530479722476
1021
133.4400871883176
1031
0.0
1002
}
1002
{
1000
PINS2
1011
396.9846515732218
1021
394.8042920751947
1031
0.0
1002
}
1002
{
1000
C
1070
     1
1002
}
1001
GENIUS_GENODEF_13
1002
{
1000
HIER
1070
     0
1002
}
1002
{
1000
MANEDIT
1070
     0
1002
}
1002
{
1000
NOSEL
1070
     0
1002
}
1002
{
1000
BEHIND
1070
     0
1002
}
1002
{
1000
OTHER
1070
     0
1002
}
1002
{
1000
REACTOR
1002
}
1001
GENIUS_GENOBJ-N-REC_13
1002
{
1000
OWNER
1000
GEN
1002
}
  0
SOLID
  5
77A
330
1F
100
AcDbEntity
  8
LOGO
 62
     5
100
AcDbTrace
 10
96.54781513911782
 20
120.845397766002
 30
0.0
 11
97.8032467298828
 21
120.845397766002
 31
0.0
 12
103.0414268154883
 22
132.7503525060157
 32
0.0
 13
104.296858406254
 23
132.7503525060151
 33
0.0
  0
SOLID
  5
77B
330
1F
100
AcDbEntity
  8
LOGO
 62
     5
100
AcDbTrace
 10
98.32273566399386
 20
120.845397766002
 30
0.0
 11
99.57816725475883
 21
120.845397766002
 31
0.0
 12
104.296858406254
 22
131.7979561268142
 32
0.0
 13
103.0414268154883
 23
127.1947069606757
 33
0.0
  0
SOLID
  5
77C
330
1F
100
AcDbEntity
  8
LOGO
 62
     2
100
AcDbTrace
 10
97.8032467298828
 20
120.845397766002
 30
0.0
 11
98.32273566399386
 21
120.845397766002
 31
0.0
 12
104.296858406254
 22
132.7503525060151
 32
0.0
 13
104.8163473403644
 23
132.7503525060151
 33
0.0
  0
SOLID
  5
77D
330
1F
100
AcDbEntity
  8
LOGO
 62
     5
100
AcDbTrace
 10
94.53505042958353
 20
116.5163233150887
 30
0.0
 11
94.96795787467538
 21
116.5163233150887
 31
0.0
 12
96.18705893487542
 22
118.6808605405453
 32
0.0
 13
96.61996637996589
 23
118.6808605405453
 33
0.0
  0
SOLID
  5
77E
330
1F
100
AcDbEntity
  8
LOGO
 62
     5
100
AcDbTrace
 10
96.18705893487542
 20
118.6808605405453
 30
0.0
 11
96.61996637996589
 21
118.6808605405453
 31
0.0
 12
96.18705893487542
 22
116.5163233150887
 32
0.0
 13
96.61996637996589
 23
116.5163233150887
 33
0.0
  0
SOLID
  5
77F
330
1F
100
AcDbEntity
  8
LOGO
 62
     5
100
AcDbTrace
 10
96.18705893487542
 20
116.5163233150887
 30
0.0
 11
96.61996637996589
 21
116.5163233150887
 31
0.0
 12
97.83906744016794
 22
118.6808605405453
 32
0.0
 13
98.27197488525911
 23
118.6808605405453
 33
0.0
  0
SOLID
  5
780
330
1F
100
AcDbEntity
  8
LOGO
 62
     5
100
AcDbTrace
 10
97.83906744016794
 20
118.6808605405453
 30
0.0
 11
98.27197488525911
 21
118.6808605405453
 31
0.0
 12
97.83906744016794
 22
116.5163233150887
 32
0.0
 13
98.27197488525911
 23
116.5163233150887
 33
0.0
  0
POLYLINE
  5
781
330
1F
100
AcDbEntity
  8
LOGO
 62
     5
100
AcDb2dPolyline
 66
     1
 10
0.0
 20
0.0
 30
0.0
 40
0.4336012070226245
 41
0.4336012070226245
  0
VERTEX
  5
782
330
781
100
AcDbEntity
  8
LOGO
 62
     5
100
AcDbVertex
100
AcDb2dVertex
 10
112.3499775278513
 20
117.8150456503623
 30
0.0
 42
1.0
  0
VERTEX
  5
783
330
781
100
AcDbEntity
  8
LOGO
 62
     5
100
AcDbVertex
100
AcDb2dVertex
 10
111.0491739067831
 20
117.8150456503623
 30
0.0
 42
1.0
  0
SEQEND
  5
784
330
781
100
AcDbEntity
  8
LOGO
 62
     5
  0
POLYLINE
  5
785
330
1F
100
AcDbEntity
  8
LOGO
 62
     5
100
AcDb2dPolyline
 66
     1
 10
0.0
 20
0.0
 30
0.0
 70
     1
  0
VERTEX
  5
786
330
785
100
AcDbEntity
  8
LOGO
 62
     5
100
AcDbVertex
100
AcDb2dVertex
 10
108.5971012213243
 20
117.5985919278167
 30
0.0
 42
1.000000057330635
  0
VERTEX
  5
787
330
785
100
AcDbEntity
  8
LOGO
 62
     5
100
AcDbVertex
100
AcDb2dVertex
 10
109.8958235565986
 20
117.5985919278167
 30
0.0
 42
1.000000057330635
  0
SEQEND
  5
788
330
785
100
AcDbEntity
  8
LOGO
 62
     5
  0
CIRCLE
  5
789
330
1F
100
AcDbEntity
  8
LOGO
 62
     5
100
AcDbCircle
 10
109.2464623889625
 20
117.5985919278167
 30
0.0
 40
0.6493611676370826
  0
POLYLINE
  5
78A
330
1F
100
AcDbEntity
  8
LOGO
 62
     5
100
AcDb2dPolyline
 66
     1
 10
0.0
 20
0.0
 30
0.0
 70
     1
 40
0.4336012070226245
 41
0.4336012070226245
  0
VERTEX
  5
78B
330
78A
100
AcDbEntity
  8
LOGO
 62
     5
100
AcDbVertex
100
AcDb2dVertex
 10
108.3792599749166
 20
117.5985919278167
 30
0.0
 42
1.0
  0
VERTEX
  5
78C
330
78A
100
AcDbEntity
  8
LOGO
 62
     5
100
AcDbVertex
100
AcDb2dVertex
 10
110.113664803007
 20
117.5985919278167
 30
0.0
 42
1.0
  0
SEQEND
  5
78D
330
78A
100
AcDbEntity
  8
LOGO
 62
     5
  0
LINE
  5
78E
330
1F
100
AcDbEntity
  8
LOGO
100
AcDbLine
 10
112.5653906074993
 20
116.5163233150887
 30
0.0
 11
112.5653906074993
 21
117.8150456503623
 31
0.0
  0
SOLID
  5
78F
330
1F
100
AcDbEntity
  8
LOGO
 62
     5
100
AcDbTrace
 10
109.895780265856
 20
118.6808605405453
 30
0.0
 11
110.3286877109466
 21
118.6808605405453
 31
0.0
 12
109.895780265856
 22
116.5163233150887
 32
0.0
 13
110.3286877109466
 23
116.5163233150887
 33
0.0
  0
SOLID
  5
790
330
1F
100
AcDbEntity
  8
LOGO
 62
     5
100
AcDbTrace
 10
110.8337608271338
 20
116.5163233150887
 30
0.0
 11
111.2666682722257
 21
116.5163233150887
 31
0.0
 12
110.8337608271338
 22
118.6808605405453
 32
0.0
 13
111.2666682722257
 23
118.6808605405453
 33
0.0
  0
SOLID
  5
791
330
1F
100
AcDbEntity
  8
LOGO
 62
     5
100
AcDbTrace
 10
112.1324831624087
 20
117.8150456503623
 30
0.0
 11
112.5653906074993
 21
117.8150456503623
 31
0.0
 12
112.1324831624087
 22
116.5163233150887
 32
0.0
 13
112.5653906074993
 23
116.5163233150887
 33
0.0
  0
SOLID
  5
792
330
1F
100
AcDbEntity
  8
LOGO
 62
     5
100
AcDbTrace
 10
110.7904700826246
 20
131.7979561268142
 30
0.0
 11
109.5350384918602
 21
127.1947069606757
 31
0.0
 12
110.7904700826246
 22
120.845397766002
 32
0.0
 13
109.5350384918602
 23
120.845397766002
 33
0.0
  0
SOLID
  5
793
330
1F
100
AcDbEntity
  8
LOGO
 62
     5
100
AcDbTrace
 10
111.3099590167349
 20
120.845397766002
 30
0.0
 11
112.5653906074993
 21
120.845397766002
 31
0.0
 12
111.3099590167349
 22
132.7503525060151
 32
0.0
 13
112.5653906074993
 23
132.7503525060157
 33
0.0
  0
SOLID
  5
794
330
1F
100
AcDbEntity
  8
LOGO
 62
     2
100
AcDbTrace
 10
110.7904700826246
 20
132.7503525060157
 30
0.0
 11
111.3099590167349
 21
132.7503525060151
 31
0.0
 12
110.7904700826246
 22
120.845397766002
 32
0.0
 13
111.3099590167349
 23
120.845397766002
 33
0.0
  0
POLYLINE
  5
795
330
1F
100
AcDbEntity
  8
LOGO
 62
     5
100
AcDb2dPolyline
 66
     1
 10
0.0
 20
0.0
 30
0.0
 40
0.4336012070226245
 41
0.4336012070226245
  0
VERTEX
  5
796
330
795
100
AcDbEntity
  8
LOGO
 62
     5
100
AcDbVertex
100
AcDb2dVertex
 10
106.1449419543785
 20
117.8150456503623
 30
0.0
 42
1.0
  0
VERTEX
  5
797
330
795
100
AcDbEntity
  8
LOGO
 62
     5
100
AcDbVertex
100
AcDb2dVertex
 10
104.8441383333103
 20
117.8150456503623
 30
0.0
 42
1.0
  0
SEQEND
  5
798
330
795
100
AcDbEntity
  8
LOGO
 62
     5
  0
POLYLINE
  5
799
330
1F
100
AcDbEntity
  8
LOGO
 62
     5
100
AcDb2dPolyline
 66
     1
 10
0.0
 20
0.0
 30
0.0
 40
0.4336012070226245
 41
0.4336012070226245
  0
VERTEX
  5
79A
330
799
100
AcDbEntity
  8
LOGO
 62
     5
100
AcDbVertex
100
AcDb2dVertex
 10
107.4436642896513
 20
117.8150456503623
 30
0.0
 42
1.0
  0
VERTEX
  5
79B
330
799
100
AcDbEntity
  8
LOGO
 62
     5
100
AcDbVertex
100
AcDb2dVertex
 10
106.1428606685839
 20
117.8150456503623
 30
0.0
 42
1.0
  0
SEQEND
  5
79C
330
799
100
AcDbEntity
  8
LOGO
 62
     5
  0
POLYLINE
  5
79D
330
1F
100
AcDbEntity
  8
LOGO
 62
     5
100
AcDb2dPolyline
 66
     1
 10
0.0
 20
0.0
 30
0.0
 40
0.4336012070226245
 41
0.4336012070226245
  0
VERTEX
  5
79E
330
79D
100
AcDbEntity
  8
LOGO
 62
     5
100
AcDbVertex
100
AcDb2dVertex
 10
101.2386287161786
 20
117.8150456503623
 30
0.0
 42
1.0
  0
VERTEX
  5
79F
330
79D
100
AcDbEntity
  8
LOGO
 62
     5
100
AcDbVertex
100
AcDb2dVertex
 10
99.93782509511113
 20
117.8150456503623
 30
0.0
 42
1.0
  0
SEQEND
  5
7A0
330
79D
100
AcDbEntity
  8
LOGO
 62
     5
  0
SOLID
  5
7A1
330
1F
100
AcDbEntity
  8
LOGO
 62
     5
100
AcDbTrace
 10
99.72241201546252
 20
118.6808605405453
 30
0.0
 11
100.155319460553
 21
118.6808605405453
 31
0.0
 12
99.72241201546252
 22
116.5163233150887
 32
0.0
 13
100.155319460553
 23
116.5163233150887
 33
0.0
  0
SOLID
  5
7A2
330
1F
100
AcDbEntity
  8
LOGO
 62
     5
100
AcDbTrace
 10
101.0211343507367
 20
117.8150456503623
 30
0.0
 11
101.4540417958286
 21
117.8150456503623
 31
0.0
 12
101.0211343507367
 22
116.5163233150887
 32
0.0
 13
101.4540417958286
 23
116.5163233150887
 33
0.0
  0
POLYLINE
  5
7A3
330
1F
100
AcDbEntity
  8
LOGO
 62
     5
100
AcDb2dPolyline
 66
     1
 10
0.0
 20
0.0
 30
0.0
 70
     1
 40
0.4336012070226245
 41
0.4336012070226245
  0
VERTEX
  5
7A4
330
7A3
100
AcDbEntity
  8
LOGO
 62
     5
100
AcDbVertex
100
AcDb2dVertex
 10
102.1742244014432
 20
117.5985919278167
 30
0.0
 42
1.0
  0
VERTEX
  5
7A5
330
7A3
100
AcDbEntity
  8
LOGO
 62
     5
100
AcDbVertex
100
AcDb2dVertex
 10
103.9086292295342
 20
117.5985919278167
 30
0.0
 42
1.0
  0
SEQEND
  5
7A6
330
7A3
100
AcDbEntity
  8
LOGO
 62
     5
  0
SOLID
  5
7A7
330
1F
100
AcDbEntity
  8
LOGO
 62
     5
100
AcDbTrace
 10
103.6907446923819
 20
119.3302217081828
 30
0.0
 11
104.1236521374731
 21
119.3302217081828
 31
0.0
 12
103.6907446923819
 22
116.5163233150887
 32
0.0
 13
104.1236521374731
 23
116.5163233150887
 33
0.0
  0
SOLID
  5
7A8
330
1F
100
AcDbEntity
  8
LOGO
 62
     5
100
AcDbTrace
 10
104.6287252536623
 20
118.6808605405453
 30
0.0
 11
105.0616326987529
 21
118.6808605405453
 31
0.0
 12
104.6287252536623
 22
116.5163233150887
 32
0.0
 13
105.0616326987529
 23
116.5163233150887
 33
0.0
  0
SOLID
  5
7A9
330
1F
100
AcDbEntity
  8
LOGO
 62
     5
100
AcDbTrace
 10
105.9274475889352
 20
117.8150456503623
 30
0.0
 11
106.3603550340271
 21
117.8150456503623
 31
0.0
 12
105.9274475889352
 22
116.5163233150887
 32
0.0
 13
106.3603550340271
 23
116.5163233150887
 33
0.0
  0
SOLID
  5
7AA
330
1F
100
AcDbEntity
  8
LOGO
 62
     5
100
AcDbTrace
 10
107.2261699242095
 20
117.8150456503623
 30
0.0
 11
107.6590773693007
 21
117.8150456503623
 31
0.0
 12
107.2261699242095
 22
116.516323315088
 32
0.0
 13
107.6590773693007
 23
116.516323315088
 33
0.0
  0
SOLID
  5
7AB
330
1F
100
AcDbEntity
  8
LOGO
 62
     5
100
AcDbTrace
 10
98.78443145418271
 20
118.9838957521094
 30
0.0
 11
99.21733889927523
 21
118.9838957521094
 31
0.0
 12
98.78443145418271
 22
119.3302217081828
 32
0.0
 13
99.21733889927523
 23
119.3302217081828
 33
0.0
  0
SOLID
  5
7AC
330
1F
100
AcDbEntity
  8
LOGO
 62
     5
100
AcDbTrace
 10
98.78443145418271
 20
118.6808605405453
 30
0.0
 11
99.21733889927523
 21
118.6808605405453
 31
0.0
 12
98.78443145418271
 22
116.516323315088
 32
0.0
 13
99.21733889927523
 23
116.5163233150887
 33
0.0
  0
SOLID
  5
7AD
330
1F
100
AcDbEntity
  8
LOGO
 62
     5
100
AcDbTrace
 10
103.0414268154883
 20
120.845397766002
 30
0.0
 11
104.296858406254
 21
120.845397766002
 31
0.0
 12
103.0414268154883
 22
127.1947069606757
 32
0.0
 13
104.296858406254
 23
131.7979561268142
 33
0.0
  0
SOLID
  5
7AE
330
1F
100
AcDbEntity
  8
LOGO
 62
     5
100
AcDbTrace
 10
104.8163473403644
 20
132.7503525060151
 30
0.0
 11
106.0717789311287
 21
132.7503525060157
 31
0.0
 12
104.8163473403644
 22
121.7977941452028
 32
0.0
 13
106.0717789311287
 23
126.4010433113414
 33
0.0
  0
SOLID
  5
7AF
330
1F
100
AcDbEntity
  8
LOGO
 62
     2
100
AcDbTrace
 10
104.296858406254
 20
132.7503525060151
 30
0.0
 11
104.8163473403644
 21
132.7503525060151
 31
0.0
 12
104.296858406254
 22
120.845397766002
 32
0.0
 13
104.8163473403644
 23
120.845397766002
 33
0.0
  0
SOLID
  5
7B0
330
1F
100
AcDbEntity
  8
LOGO
 62
     5
100
AcDbTrace
 10
104.8163473403644
 20
121.7977941452028
 30
0.0
 11
106.0717789311287
 21
126.4010433113414
 31
0.0
 12
110.7904700826246
 22
132.7503525060157
 32
0.0
 13
109.5350384918602
 23
132.7503525060157
 33
0.0
  0
SOLID
  5
7B1
330
1F
100
AcDbEntity
  8
LOGO
 62
     5
100
AcDbTrace
 10
104.8163473403644
 20
120.845397766002
 30
0.0
 11
106.0717789311287
 21
120.845397766002
 31
0.0
 12
110.7904700826246
 22
131.7979561268142
 32
0.0
 13
109.5350384918602
 23
127.1947069606757
 33
0.0
  0
SOLID
  5
7B2
330
1F
100
AcDbEntity
  8
LOGO
 62
     2
100
AcDbTrace
 10
104.296858406254
 20
120.845397766002
 30
0.0
 11
104.8163473403644
 21
120.845397766002
 31
0.0
 12
110.7904700826246
 22
132.7503525060157
 32
0.0
 13
111.3099590167349
 23
132.7503525060151
 33
0.0
  0
LWPOLYLINE
  5
7B3
330
1F
100
AcDbEntity
  8
LOGO
 62
     4
100
AcDbPolyline
 90
        4
 70
     1
 43
0.0
 10
93.53530479722476
 20
133.4400871883176
 10
396.9846515732218
 20
133.4400871883176
 10
396.9846515732218
 20
104.4042920751949
 10
93.53530479722476
 20
104.4042920751949
1001
GENIUS_GENREC_14
1002
{
1000
PYDIR
1011
93.53530479722476
1021
104.4042920751949
1031
0.0
1002
}
1002
{
1000
PXDIR
1011
396.9846515732218
1021
133.4400871883176
1031
0.0
1002
}
1002
{
1000
PORI
1011
93.53530479722476
1021
133.4400871883176
1031
0.0
1002
}
1002
{
1000
PINS
1011
93.53530479722476
1021
133.4400871883176
1031
0.0
1002
}
1002
{
1000
PINS2
1011
396.9846515732218
1021
104.4042920751949
1031
0.0
1002
}
1002
{
1000
C
1070
     1
1002
}
1001
GENIUS_GENOBJ-N-REC_13
1002
{
1000
OWNER
1000
GEN
1002
}
1001
GENIUS_GENODEF_13
1002
{
1000
HIER
1070
     0
1002
}
1002
{
1000
MANEDIT
1070
     0
1002
}
1002
{
1000
NOSEL
1070
     0
1002
}
1002
{
1000
BEHIND
1070
     0
1002
}
1002
{
1000
OTHER
1070
     0
1002
}
1002
{
1000
REACTOR
1002
}
  0
TEXT
  5
7B4
330
1F
100
AcDbEntity
  8
LOGO
100
AcDbText
 10
159.0013837245707
 20
105.9489849149687
 30
0.0
 40
2.904
  1
10603201
 41
0.7
  7
CHINESET
 72
     1
 11
165.8257837245707
 21
105.9489849149687
 31
0.0
100
AcDbText
  0
LINE
  5
7B5
330
1F
100
AcDbEntity
  8
LOGO
 62
     4
100
AcDbLine
 10
174.8380540460923
 20
110.2114510978204
 30
0.0
 11
174.8380540460936
 21
104.4042920751955
 31
0.0
  0
LINE
  5
7B6
330
1F
100
AcDbEntity
  8
LOGO
 62
     4
100
AcDbLine
 10
174.8380540460923
 20
110.2114510978204
 30
0.0
 11
157.4140540460936
 21
110.2114510978204
 31
0.0
  0
CIRCLE
  5
7B7
330
1F
100
AcDbEntity
  8
LOGO
  6
Continuous
100
AcDbCircle
 10
143.4331979431907
 20
124.7355594322035
 30
0.0
 40
1.685886606825557
  0
CIRCLE
  5
7B8
330
1F
100
AcDbEntity
  8
LOGO
  6
Continuous
100
AcDbCircle
 10
143.4331979431907
 20
124.7355594322035
 30
0.0
 40
0.9877803085024472
  0
LINE
  5
7B9
330
1F
100
AcDbEntity
  8
LOGO
100
AcDbLine
 10
154.0275050024918
 20
123.0496728253777
 30
0.0
 11
154.0275050024918
 21
126.4214460390294
 31
0.0
  0
LINE
  5
7BA
330
1F
100
AcDbEntity
  8
LOGO
100
AcDbLine
 10
148.7423472646027
 20
123.7477791237009
 30
0.0
 11
148.7423472646027
 21
125.7233397407061
 31
0.0
  0
LINE
  5
7BB
330
1F
100
AcDbEntity
  8
LOGO
  6
Continuous
100
AcDbLine
 10
148.7423472646027
 20
125.7233397407061
 30
0.0
 11
154.0275050024918
 21
126.4214460390294
 31
0.0
  0
LINE
  5
7BC
330
1F
100
AcDbEntity
  8
LOGO
  6
Continuous
100
AcDbLine
 10
148.7423472646027
 20
123.7477791237009
 30
0.0
 11
154.0275050024918
 21
123.0496728253777
 31
0.0
  0
LINE
  5
7BD
330
1F
100
AcDbEntity
  8
LOGO
  6
AM_ISO08W050x2
 48
0.3
100
AcDbLine
 10
141.1091780115176
 20
124.7355594322035
 30
0.0
 11
145.7572178748638
 21
124.7355594322035
 31
0.0
1001
GENIUS_GENOREF_13
1005
7EA
  0
LINE
  5
7BE
330
1F
100
AcDbEntity
  8
LOGO
  6
AM_ISO08W050x2
 48
0.3
100
AcDbLine
 10
143.4331979431907
 20
122.4115395005304
 30
0.0
 11
143.4331979431907
 21
127.0595793638766
 31
0.0
1001
GENIUS_GENOREF_13
1005
7E9
  0
LINE
  5
7BF
330
1F
100
AcDbEntity
  8
LOGO
  6
CENTER
 48
0.5
100
AcDbLine
 10
148.3196815458436
 20
124.7355594322035
 30
0.0
 11
154.5597032777595
 21
124.7355594322035
 31
0.0
1001
GENIUS_GENOREF_13
1005
7E8
  0
LINE
  5
7C0
330
1F
100
AcDbEntity
  8
LOGO
 62
     4
100
AcDbLine
 10
218.1322302836523
 20
117.470399876101
 30
0.0
 11
218.1322302836523
 21
106.8239416679557
 31
0.0
  0
LINE
  5
7C1
330
1F
100
AcDbEntity
  8
LOGO
 62
     4
100
AcDbLine
 10
198.7750335415707
 20
117.470399876101
 30
0.0
 11
198.7750335415707
 21
106.8239416679557
 31
0.0
  0
LINE
  5
7C2
330
1F
100
AcDbEntity
  8
LOGO
 62
     4
100
AcDbLine
 10
218.1322302836523
 20
106.8239416679557
 30
0.0
 11
198.7750335415707
 21
106.8239416679557
 31
0.0
  0
LINE
  5
7C3
330
1F
100
AcDbEntity
  8
LOGO
 62
     4
100
AcDbLine
 10
220.4171867994999
 20
130.5365076770052
 30
0.0
 11
197.3515015501863
 21
130.5365076770052
 31
0.0
  0
LINE
  5
7C4
330
1F
100
AcDbEntity
  8
LOGO
 62
     4
100
AcDbLine
 10
220.4171867994999
 20
121.8257691430689
 30
0.0
 11
197.3515015501863
 21
121.8257691430689
 31
0.0
  0
LINE
  5
7C5
330
1F
100
AcDbEntity
  8
LOGO
 62
     4
100
AcDbLine
 10
197.3515015501863
 20
130.5365076770052
 30
0.0
 11
197.3515015501863
 21
121.8257691430689
 31
0.0
  0
LINE
  5
7C6
330
1F
100
AcDbEntity
  8
LOGO
 62
     4
100
AcDbLine
 10
220.4171867994999
 20
130.5365076770052
 30
0.0
 11
220.4171867994999
 21
121.8257691430689
 31
0.0
  0
LINE
  5
7C7
330
1F
100
AcDbEntity
  8
LOGO
 62
     4
100
AcDbLine
 10
208.0400593984264
 20
121.8257691430689
 30
0.0
 11
208.0400593984264
 21
117.470399876101
 31
0.0
  0
LINE
  5
7C8
330
1F
100
AcDbEntity
  8
LOGO
 62
     4
100
AcDbLine
 10
218.1322302836523
 20
117.470399876101
 30
0.0
 11
198.7750335415707
 21
117.470399876101
 31
0.0
  0
TEXT
  5
7C9
330
1F
100
AcDbEntity
  8
LOGO
  6
Continuous
100
AcDbText
 10
204.9866966921524
 20
108.3266666676963
 30
190.2958178035923
 40
2.177999999999999
  1
Model
 41
0.8
  7
CHINESET
100
AcDbText
  0
TEXT
  5
7CA
330
1F
100
AcDbEntity
  8
LOGO
100
AcDbText
 10
204.4069838945777
 20
112.3642092751948
 30
190.2958178035923
 40
3.63
  1
型號
  7
CHINESET
100
AcDbText
  0
LINE
  5
7CB
330
1F
100
AcDbEntity
  8
LOGO
  6
Continuous
 62
     7
100
AcDbLine
 10
221.3432102989202
 20
126.1502835975281
 30
0.0
 11
225.1895545947804
 21
126.1502835975281
 31
0.0
  0
LINE
  5
7CC
330
1F
100
AcDbEntity
  8
LOGO
 62
     4
100
AcDbLine
 10
224.8807011941238
 20
117.470399876101
 30
0.0
 11
224.8807011941238
 21
106.8239416679557
 31
0.0
  0
LINE
  5
7CD
330
1F
100
AcDbEntity
  8
LOGO
 62
     4
100
AcDbLine
 10
239.3211935177227
 20
106.8239416679557
 30
0.0
 11
224.8807011941238
 21
106.8239416679557
 31
0.0
  0
LINE
  5
7CE
330
1F
100
AcDbEntity
  8
LOGO
 62
     4
100
AcDbLine
 10
237.6202325053072
 20
130.5365076770052
 30
0.0
 11
226.4028734672167
 21
130.5365076770052
 31
0.0
  0
LINE
  5
7CF
330
1F
100
AcDbEntity
  8
LOGO
 62
     4
100
AcDbLine
 10
237.6202325053072
 20
121.8257691430689
 30
0.0
 11
226.4028734672167
 21
121.8257691430689
 31
0.0
  0
LINE
  5
7D0
330
1F
100
AcDbEntity
  8
LOGO
 62
     4
100
AcDbLine
 10
226.4028734672167
 20
130.5365076770052
 30
0.0
 11
226.4028734672167
 21
121.8257691430689
 31
0.0
  0
LINE
  5
7D1
330
1F
100
AcDbEntity
  8
LOGO
 62
     4
100
AcDbLine
 10
237.6202325053072
 20
130.5365076770052
 30
0.0
 11
237.6202325053072
 21
121.8257691430689
 31
0.0
  0
LINE
  5
7D2
330
1F
100
AcDbEntity
  8
LOGO
 62
     4
100
AcDbLine
 10
232.0115529862616
 20
121.8257691430689
 30
0.0
 11
232.0115529862616
 21
117.470399876101
 31
0.0
  0
LINE
  5
7D3
330
1F
100
AcDbEntity
  8
LOGO
 62
     4
100
AcDbLine
 10
239.3211935177227
 20
117.470399876101
 30
0.0
 11
224.8807011941238
 21
117.470399876101
 31
0.0
  0
TEXT
  5
7D4
330
1F
100
AcDbEntity
  8
LOGO
  6
Continuous
100
AcDbText
 10
228.7754190168619
 20
108.3266666676963
 30
190.2958178035923
 40
2.177999999999999
  1
CODE
 41
0.8
  7
CHINESET
100
AcDbText
  0
TEXT
  5
7D5
330
1F
100
AcDbEntity
  8
LOGO
100
AcDbText
 10
228.7549015025152
 20
112.3642092751948
 30
190.2958178035923
 40
3.63
  1
記號
  7
CHINESET
100
AcDbText
  0
TEXT
  5
7D6
330
1F
100
AcDbEntity
  8
LOGO
100
AcDbText
 10
202.9834519031933
 20
124.8118596519216
 30
190.2958178035923
 40
3.63
  1
MEP
  7
CHINESET
100
AcDbText
  0
TEXT
  5
7D7
330
1F
100
AcDbEntity
  8
LOGO
100
AcDbText
 10
229.4427871990853
 20
124.8118596519216
 30
190.2958178035923
 40
3.63
  1
10
  7
CHINESET
100
AcDbText
  0
LINE
  5
7D8
330
1F
100
AcDbEntity
  8
LOGO
 62
     4
100
AcDbLine
 10
239.3211935177227
 20
117.470399876101
 30
0.0
 11
239.3211935177227
 21
106.8239416679557
 31
0.0
  0
LINE
  5
7D9
330
1F
100
AcDbEntity
  8
0
100
AcDbLine
 10
163.6068059040392
 20
218.451462358535
 30
0.0
 11
129.6068059040392
 21
218.451462358535
 31
0.0
  0
LINE
  5
7DA
330
1F
100
AcDbEntity
  8
0
100
AcDbLine
 10
159.1068059040392
 20
243.4529531036339
 30
0.0
 11
134.1068059040392
 21
243.4529531036339
 31
0.0
  0
LINE
  5
7DB
330
1F
100
AcDbEntity
  8
0
100
AcDbLine
 10
165.6068059040392
 20
242.1444180487445
 30
0.0
 11
127.6068059040392
 21
242.1444180487445
 31
0.0
  0
LINE
  5
7DC
330
1F
100
AcDbEntity
  8
0
100
AcDbLine
 10
165.6068059040392
 20
252.6444180487445
 30
0.0
 11
127.6068059040392
 21
252.6444180487445
 31
0.0
  0
LINE
  5
7DD
330
1F
100
AcDbEntity
  8
0
100
AcDbLine
 10
153.3568059040392
 20
314.4544180487445
 30
0.0
 11
139.8568059040392
 21
314.4544180487445
 31
0.0
  0
DIMENSION
  5
7DE
330
1F
100
AcDbEntity
  8
0
100
AcDbDimension
  2
*D16
 10
121.3873862681621
 20
218.451462358535
 30
0.0
 11
118.8873862681621
 21
266.4529402036397
 31
0.0
 70
    32
 71
     5
 42
96.00295569020952
  3
STANDARD
100
AcDbAlignedDimension
 13
139.8568059040392
 23
314.4544180487445
 33
0.0
 14
129.6068059040392
 24
218.451462358535
 34
0.0
 50
90.0
100
AcDbRotatedDimension
1001
ACAD
1000
DSTYLE
1002
{
1070
   178
1070
     5
1070
   177
1070
     5
1070
   176
1070
     5
1070
   272
1070
     8
1002
}
  0
LINE
  5
7DF
330
1F
100
AcDbEntity
  8
AM_7
 62
     1
100
AcDbLine
 10
161.4864221766991
 20
230.661462358535
 30
0.0
 11
131.9012173522539
 21
230.661462358535
 31
0.0
  0
ARC
  5
7E0
330
1F
100
AcDbEntity
  8
0
100
AcDbCircle
 10
146.6068059040392
 20
230.951462358535
 30
0.0
 40
12.5
100
AcDbArc
 50
180.0
 51
0.0
  0
LINE
  5
7E1
330
1F
100
AcDbEntity
  8
0
100
AcDbLine
 10
341.4327639249757
 20
309.7444180487445
 30
0.0
 11
367.0327639249756
 21
309.7444180487445
 31
0.0
  0
LINE
  5
7E2
330
1F
100
AcDbEntity
  8
0
100
AcDbLine
 10
367.0327639249756
 20
284.1444180487444
 30
0.0
 11
367.0327639249757
 21
309.7444180487445
 31
0.0
  0
LINE
  5
7E3
330
1F
100
AcDbEntity
  8
0
100
AcDbLine
 10
226.6211803112204
 20
218.451462358535
 30
0.0
 11
264.6211803112204
 21
218.451462358535
 31
0.0
  0
LINE
  5
7E4
330
1F
100
AcDbEntity
  8
0
100
AcDbLine
 10
337.2327639249756
 20
218.451462358535
 30
0.0
 11
371.2327639249756
 21
218.451462358535
 31
0.0
  0
DIMENSION
  5
7E5
330
1F
100
AcDbEntity
  8
0
100
AcDbDimension
  2
*D17
 10
202.9156028774248
 20
158.8806888786587
 30
0.0
 11
200.4156028774248
 21
170.8806888786587
 31
0.0
 70
    32
 71
     5
 42
24.0
  3
STANDARD
100
AcDbAlignedDimension
 13
234.2396921906096
 23
182.8806888786587
 33
0.0
 14
235.1211803112204
 24
158.8806888786587
 34
0.0
 50
90.0
100
AcDbRotatedDimension
1001
ACAD
1000
DSTYLE
1002
{
1070
   176
1070
     5
1070
   177
1070
     5
1070
   178
1070
     5
1070
   272
1070
     8
1002
}
  0
LEADER
  5
7E6
330
1F
100
AcDbEntity
  8
0
100
AcDbLeader
  3
STANDARD
 76
     3
 10
142.3300480162613
 20
225.4479263448761
 30
0.0
 10
129.6421543769988
 20
194.8206569822385
 30
0.0
 10
106.123131638707
 20
194.8206569822385
 30
0.0
1001
ACAD
1000
DSTYLE
1002
{
1070
   176
1070
     5
1070
   177
1070
     5
1070
   178
1070
     5
1070
   272
1070
     8
1002
}
  0
DIMENSION
  5
7E7
330
1F
100
AcDbEntity
  8
0
100
AcDbDimension
  2
*D18
 10
290.1211803112204
 20
385.8060039105078
 30
0.0
 11
250.1211803112204
 21
388.3060039105078
 31
0.0
 70
    32
 71
     5
 42
80.0
  3
STANDARD
100
AcDbAlignedDimension
 13
210.1211803112204
 23
373.7452385896107
 33
0.0
 14
290.1211803112204
 24
374.0452385896107
 34
0.0
100
AcDbRotatedDimension
1001
ACAD
1000
DSTYLE
1002
{
1070
   176
1070
     5
1070
   177
1070
     5
1070
   178
1070
     5
1070
   272
1070
     8
1002
}
  0
POINT
  5
7E8
330
1F
100
AcDbEntity
  8
0
 60
     1
100
AcDbPoint
 10
-1971.671959758326
 20
-776.0494186072925
 30
0.0
1001
GENIUS_GENOBJ-N-CRS_13
1002
{
1000
OWNER
1000
GEN
1002
}
1001
GENIUS_GENOLIS_13
1002
{
1000
ENT
1005
0
1005
0
1005
0
1005
7BF
1002
}
1001
GENIUS_GENOENT_13
1002
{
1000
MYREF
1005
7E8
1002
}
1002
{
1000
GRP
1005
0
1002
}
1001
GENIUS_GENODEF_13
1002
{
1000
HIER
1070
    10
1002
}
1002
{
1000
MANEDIT
1070
     1
1002
}
1002
{
1000
NOSEL
1070
     0
1002
}
1002
{
1000
BEHIND
1070
     0
1002
}
1002
{
1000
OTHER
1070
     0
1002
}
1002
{
1000
REACTOR
1002
}
  0
POINT
  5
7E9
330
1F
100
AcDbEntity
  8
0
 60
     1
100
AcDbPoint
 10
-1982.996544981181
 20
-767.1738321286563
 30
0.0
1001
GENIUS_GENOBJ-N-CRS_13
1002
{
1000
OWNER
1000
GEN
1002
}
1001
GENIUS_GENOLIS_13
1002
{
1000
ENT
1005
0
1005
0
1005
0
1005
7BE
1002
}
1001
GENIUS_GENOENT_13
1002
{
1000
MYREF
1005
7E9
1002
}
1002
{
1000
GRP
1005
0
1002
}
1001
GENIUS_GENODEF_13
1002
{
1000
HIER
1070
    10
1002
}
1002
{
1000
MANEDIT
1070
     1
1002
}
1002
{
1000
NOSEL
1070
     0
1002
}
1002
{
1000
BEHIND
1070
     0
1002
}
1002
{
1000
OTHER
1070
     0
1002
}
1002
{
1000
REACTOR
1002
}
  0
POINT
  5
7EA
330
1F
100
AcDbEntity
  8
0
 60
     1
100
AcDbPoint
 10
-1976.637871283344
 20
-776.0494186072925
 30
0.0
1001
GENIUS_GENOBJ-N-CRS_13
1002
{
1000
OWNER
1000
GEN
1002
}
1001
GENIUS_GENOLIS_13
1002
{
1000
ENT
1005
0
1005
0
1005
0
1005
7BD
1002
}
1001
GENIUS_GENOENT_13
1002
{
1000
MYREF
1005
7EA
1002
}
1002
{
1000
GRP
1005
0
1002
}
1001
GENIUS_GENODEF_13
1002
{
1000
HIER
1070
    10
1002
}
1002
{
1000
MANEDIT
1070
     1
1002
}
1002
{
1000
NOSEL
1070
     0
1002
}
1002
{
1000
BEHIND
1070
     0
1002
}
1002
{
1000
OTHER
1070
     0
1002
}
1002
{
1000
REACTOR
1002
}
  0
ENDSEC
  0
SECTION
  2
OBJECTS
  0
DICTIONARY
  5
C
330
0
100
AcDbDictionary
281
     1
  3
ACAD_COLOR
350
BE
  3
ACAD_GROUP
350
D
  3
ACAD_LAYOUT
350
1A
  3
ACAD_MATERIAL
350
BD
  3
ACAD_MLINESTYLE
350
17
  3
ACAD_PLOTSETTINGS
350
19
  3
ACAD_PLOTSTYLENAME
350
E
  3
ACAD_TABLESTYLE
350
11A
  3
ACDBHEADERROUNDTRIPXREC
350
8A2
  3
AcDbVariableDictionary
350
94
  3
AcmDictionary
350
5B
  3
AMG
350
41
  3
AMGSNAPSETTINGS
350
1B8
  3
DWGPROPS
350
8A1
  0
DICTIONARY
  5
3C6
330
2
100
AcDbDictionary
280
     1
281
     1
  3
ACAD_LAYERSTATES
360
3C7
  0
DICTIONARY
  5
8F
330
1F
100
AcDbDictionary
280
     1
281
     1
  0
DICTIONARY
  5
BE
102
{ACAD_REACTORS
330
C
102
}
330
C
100
AcDbDictionary
281
     1
  0
DICTIONARY
  5
D
102
{ACAD_REACTORS
330
C
102
}
330
C
100
AcDbDictionary
281
     1
  0
DICTIONARY
  5
1A
102
{ACAD_REACTORS
330
C
102
}
330
C
100
AcDbDictionary
281
     1
  3
Model
350
22
  3
配置1
350
1E
  3
配置2
350
26
  0
DICTIONARY
  5
BD
102
{ACAD_REACTORS
330
C
102
}
330
C
100
AcDbDictionary
281
     1
  0
DICTIONARY
  5
17
102
{ACAD_REACTORS
330
C
102
}
330
C
100
AcDbDictionary
281
     1
  3
Standard
350
18
  0
DICTIONARY
  5
19
102
{ACAD_REACTORS
330
C
102
}
330
C
100
AcDbDictionary
281
     1
  0
ACDBDICTIONARYWDFLT
  5
E
102
{ACAD_REACTORS
330
C
102
}
330
C
100
AcDbDictionary
281
     1
  3
Normal
350
F
100
AcDbDictionaryWithDefault
340
F
  0
DICTIONARY
  5
11A
102
{ACAD_REACTORS
330
C
102
}
330
C
100
AcDbDictionary
281
     1
  3
Standard
350
11B
  0
DICTIONARY
  5
8A2
102
{ACAD_REACTORS
330
C
102
}
330
C
100
AcDbDictionary
281
     1
  0
DICTIONARY
  5
94
102
{ACAD_REACTORS
330
C
102
}
330
C
100
AcDbDictionary
281
     1
  3
CTABLESTYLE
350
138
  3
DIMASSOC
350
96
  3
INDEXCTL
350
95
  3
PROJECTNAME
350
89F
  0
DICTIONARY
  5
5B
102
{ACAD_REACTORS
330
C
102
}
330
C
100
AcDbDictionary
281
     1
  3
AcmBOM
350
1B5
  3
AcmStdDictionary
350
61
  3
AMDTSECTSYM_ARROWCOLOR
350
123
  0
DICTIONARY
  5
41
102
{ACAD_REACTORS
330
C
102
}
330
C
100
AcDbDictionary
281
     1
  0
DICTIONARY
  5
1B8
102
{ACAD_REACTORS
330
C
102
}
330
C
100
AcDbDictionary
281
     1
  0
XRECORD
  5
8A1
102
{ACAD_REACTORS
330
C
102
}
330
C
100
AcDbXrecord
280
     1
  1
DWGPROPS COOKIE
  2

  3

  4

  6

  7

  8

  9

300
AmdtFileType=84
301
=
302
=
303
=
304
=
305
=
306
=
307
=
308
=
309
=
 40
0.0367304976851852
 41
2453883.427657697
 42
2453883.464387477
  1

 90
        1
  0
DICTIONARY
  5
3C7
102
{ACAD_REACTORS
330
3C6
102
}
330
3C6
100
AcDbDictionary
281
     1
  0
LAYOUT
  5
22
102
{ACAD_XDICTIONARY
360
8A5
102
}
102
{ACAD_REACTORS
330
1A
102
}
330
1A
100
AcDbPlotSettings
  1

  2
\\RDS1\iR3300影印機
  4
A4
  6

 40
6.805083274841308
 41
5.619736671447753
 42
6.974411010742187
 43
5.027069091796875
 44
209.9733276367187
 45
296.9259948730469
 46
0.0
 47
0.0
 48
0.0
 49
0.0
140
0.0
141
0.0
142
1.0
143
1.491477427193964
 70
 11952
 72
     1
 73
     1
 74
     0
  7
彩色出圖.ctb
 75
     0
147
0.6704761210375003
148
-66.91074852234263
149
-103.2949551762584
100
AcDbLayout
  1
Model
 70
     1
 71
     0
 10
0.0
 20
0.0
 11
12.0
 21
9.0
 12
0.0
 22
0.0
 32
0.0
 14
0.0
 24
0.0
 34
0.0
 15
0.0
 25
0.0
 35
0.0
146
0.0
 13
0.0
 23
0.0
 33
0.0
 16
1.0
 26
0.0
 36
0.0
 17
0.0
 27
1.0
 37
0.0
 76
     0
330
1F
1001
ACAD_PSEXT
1000
\\RDS1\iR3300影印機
1000
Canon iR2200-3300 PCL5e
1000
\\RDS1
1000

1070
     0
  0
LAYOUT
  5
1E
102
{ACAD_XDICTIONARY
360
8A3
102
}
102
{ACAD_REACTORS
330
1A
102
}
330
1A
100
AcDbPlotSettings
  1

  2

  4

  6

 40
0.0
 41
0.0
 42
0.0
 43
0.0
 44
0.0
 45
0.0
 46
0.0
 47
0.0
 48
0.0
 49
0.0
140
0.0
141
0.0
142
1.0
143
1.0
 70
   688
 72
     0
 73
     0
 74
     5
  7
彩色出圖.ctb
 75
    16
147
1.0
148
0.0
149
0.0
100
AcDbLayout
  1
配置1
 70
     1
 71
     1
 10
0.0
 20
0.0
 11
420.0
 21
297.0
 12
0.0
 22
0.0
 32
0.0
 14
1.000000000000000E+20
 24
1.000000000000000E+20
 34
1.000000000000000E+20
 15
-1.000000000000000E+20
 25
-1.000000000000000E+20
 35
-1.000000000000000E+20
146
0.0
 13
0.0
 23
0.0
 33
0.0
 16
1.0
 26
0.0
 36
0.0
 17
0.0
 27
1.0
 37
0.0
 76
     0
330
1B
  0
LAYOUT
  5
26
102
{ACAD_XDICTIONARY
360
8A7
102
}
102
{ACAD_REACTORS
330
1A
102
}
330
1A
100
AcDbPlotSettings
  1

  2

  4

  6

 40
0.0
 41
0.0
 42
0.0
 43
0.0
 44
0.0
 45
0.0
 46
0.0
 47
0.0
 48
0.0
 49
0.0
140
0.0
141
0.0
142
1.0
143
1.0
 70
   688
 72
     0
 73
     0
 74
     5
  7
彩色出圖.ctb
 75
    16
147
1.0
148
0.0
149
0.0
100
AcDbLayout
  1
配置2
 70
     1
 71
     2
 10
0.0
 20
0.0
 11
12.0
 21
9.0
 12
0.0
 22
0.0
 32
0.0
 14
0.0
 24
0.0
 34
0.0
 15
0.0
 25
0.0
 35
0.0
146
0.0
 13
0.0
 23
0.0
 33
0.0
 16
1.0
 26
0.0
 36
0.0
 17
0.0
 27
1.0
 37
0.0
 76
     0
330
23
  0
MLINESTYLE
  5
18
102
{ACAD_REACTORS
330
17
102
}
330
17
100
AcDbMlineStyle
  2
STANDARD
 70
     0
  3

 62
   256
 51
90.0
 52
90.0
 71
     2
 49
0.5
 62
   256
  6
BYLAYER
 49
-0.5
 62
   256
  6
BYLAYER
  0
ACDBPLACEHOLDER
  5
F
102
{ACAD_REACTORS
330
E
102
}
330
E
  0
TABLESTYLE
  5
11B
102
{ACAD_REACTORS
330
11A
102
}
330
11A
100
AcDbTableStyle
  3
Standard
 70
     0
 71
     0
 40
1.5
 41
1.5
280
     0
281
     0
  7
STANDARD
140
4.5
170
     2
 62
     0
 63
     7
283
     0
274
    -2
284
     1
 64
     0
275
    -2
285
     1
 65
     0
276
    -2
286
     1
 66
     0
277
    -2
287
     1
 67
     0
278
    -2
288
     1
 68
     0
279
    -2
289
     1
 69
     0
  7
STANDARD
140
6.0
170
     5
 62
     0
 63
     7
283
     0
274
    -2
284
     1
 64
     0
275
    -2
285
     1
 65
     0
276
    -2
286
     1
 66
     0
277
    -2
287
     1
 67
     0
278
    -2
288
     1
 68
     0
279
    -2
289
     1
 69
     0
  7
STANDARD
140
4.5
170
     5
 62
     0
 63
     7
283
     0
274
    -2
284
     1
 64
     0
275
    -2
285
     1
 65
     0
276
    -2
286
     1
 66
     0
277
    -2
287
     1
 67
     0
278
    -2
288
     1
 68
     0
279
    -2
289
     1
 69
     0
  0
DICTIONARYVAR
  5
138
102
{ACAD_REACTORS
330
94
102
}
330
94
100
DictionaryVariables
280
     0
  1
STANDARD
  0
DICTIONARYVAR
  5
96
102
{ACAD_REACTORS
330
94
102
}
330
94
100
DictionaryVariables
280
     0
  1
2
  0
DICTIONARYVAR
  5
95
102
{ACAD_REACTORS
330
94
102
}
330
94
100
DictionaryVariables
280
     0
  1
0
  0
DICTIONARYVAR
  5
89F
102
{ACAD_REACTORS
330
94
102
}
330
94
100
DictionaryVariables
280
     0
  1

  0
DICTIONARY
  5
1B5
102
{ACAD_REACTORS
330
5B
102
}
330
5B
100
AcDbDictionary
281
     1
  0
DICTIONARY
  5
61
102
{ACAD_REACTORS
330
5B
102
}
330
5B
100
AcDbDictionary
281
     1
  0
XRECORD
  5
123
102
{ACAD_REACTORS
330
5B
102
}
330
5B
100
AcDbXrecord
280
     1
 90
-1023410169
  0
DICTIONARY
  5
8A5
330
22
100
AcDbDictionary
280
     1
281
     1
  3
ACAD_XREC_ROUNDTRIP
360
8A6
  0
DICTIONARY
  5
8A3
330
1E
100
AcDbDictionary
280
     1
281
     1
  3
ACAD_XREC_ROUNDTRIP
360
8A4
  0
DICTIONARY
  5
8A7
330
26
100
AcDbDictionary
280
     1
281
     1
  3
ACAD_XREC_ROUNDTRIP
360
8A8
  0
XRECORD
  5
8A6
102
{ACAD_REACTORS
330
8A5
102
}
330
8A5
100
AcDbXrecord
280
     1
102
SHADEPLOT
 70
     0
102
SHADEPLOTRESLEVEL
 70
     2
102
SHADEPLOTCUSTOMDPI
 70
   300
  0
XRECORD
  5
8A4
102
{ACAD_REACTORS
330
8A3
102
}
330
8A3
100
AcDbXrecord
280
     1
102
SHADEPLOT
 70
     0
102
SHADEPLOTRESLEVEL
 70
     2
102
SHADEPLOTCUSTOMDPI
 70
   300
  0
XRECORD
  5
8A8
102
{ACAD_REACTORS
330
8A7
102
}
330
8A7
100
AcDbXrecord
280
     1
102
SHADEPLOT
 70
     0
102
SHADEPLOTRESLEVEL
 70
     2
102
SHADEPLOTCUSTOMDPI
 70
   300
  0
ENDSEC
  0
EOF
