  0
SECTION
  2
HEADER
  9
$ACADVER
  1
AC1015
  9
$ACADMAINTVER
 70
    20
  9
$DWGCODEPAGE
  3
ANSI_950
  9
$INSBASE
 10
0.0
 20
0.0
 30
0.0
  9
$EXTMIN
 10
3113.992478681187
 20
950.435483188864
 30
-0.0507222496248687
  9
$EXTMAX
 10
4304.406779756313
 20
2405.655598141209
 30
1031.869937793647
  9
$LIMMIN
 10
0.0
 20
0.0
  9
$LIMMAX
 10
420.0
 20
297.0
  9
$ORTHOMODE
 70
     1
  9
$REGENMODE
 70
     1
  9
$FILLMODE
 70
     1
  9
$QTEXTMODE
 70
     0
  9
$MIRRTEXT
 70
     1
  9
$LTSCALE
 40
1.0
  9
$ATTMODE
 70
     1
  9
$TEXTSIZE
 40
3.0
  9
$TRACEWID
 40
1.0
  9
$TEXTSTYLE
  7
CHINESET
  9
$CLAYER
  8
0
  9
$CELTYPE
  6
ByLayer
  9
$CECOLOR
 62
   256
  9
$CELTSCALE
 40
1.0
  9
$DISPSILH
 70
     0
  9
$DIMSCALE
 40
1.0
  9
$DIMASZ
 40
20.0
  9
$DIMEXO
 40
3.0
  9
$DIMDLI
 40
50.0
  9
$DIMRND
 40
0.0
  9
$DIMDLE
 40
0.0
  9
$DIMEXE
 40
4.0
  9
$DIMTP
 40
0.1
  9
$DIMTM
 40
0.1
  9
$DIMTXT
 40
20.0
  9
$DIMCEN
 40
0.0
  9
$DIMTSZ
 40
0.0
  9
$DIMTOL
 70
     0
  9
$DIMLIM
 70
     0
  9
$DIMTIH
 70
     0
  9
$DIMTOH
 70
     0
  9
$DIMSE1
 70
     0
  9
$DIMSE2
 70
     0
  9
$DIMTAD
 70
     1
  9
$DIMZIN
 70
     8
  9
$DIMBLK
  1

  9
$DIMASO
 70
     1
  9
$DIMSHO
 70
     1
  9
$DIMPOST
  1

  9
$DIMAPOST
  1
"
  9
$DIMALT
 70
     0
  9
$DIMALTD
 70
     2
  9
$DIMALTF
 40
0.0393701
  9
$DIMLFAC
 40
1.0
  9
$DIMTOFL
 70
     1
  9
$DIMTVP
 40
0.0
  9
$DIMTIX
 70
     0
  9
$DIMSOXD
 70
     0
  9
$DIMSAH
 70
     0
  9
$DIMBLK1
  1

  9
$DIMBLK2
  1

  9
$DIMSTYLE
  2
AM_ISO
  9
$DIMCLRD
 70
   256
  9
$DIMCLRE
 70
   256
  9
$DIMCLRT
 70
   256
  9
$DIMTFAC
 40
0.71
  9
$DIMGAP
 40
6.0
  9
$DIMJUST
 70
     0
  9
$DIMSD1
 70
     0
  9
$DIMSD2
 70
     0
  9
$DIMTOLJ
 70
     2
  9
$DIMTZIN
 70
     8
  9
$DIMALTZ
 70
     0
  9
$DIMALTTZ
 70
     0
  9
$DIMUPT
 70
     0
  9
$DIMDEC
 70
     2
  9
$DIMTDEC
 70
     8
  9
$DIMALTU
 70
     2
  9
$DIMALTTD
 70
     2
  9
$DIMTXSTY
  7
STANDARD
  9
$DIMAUNIT
 70
     0
  9
$DIMADEC
 70
     0
  9
$DIMALTRND
 40
0.0
  9
$DIMAZIN
 70
     2
  9
$DIMDSEP
 70
    46
  9
$DIMATFIT
 70
     3
  9
$DIMFRAC
 70
     0
  9
$DIMLDRBLK
  1

  9
$DIMLUNIT
 70
     2
  9
$DIMLWD
 70
    -1
  9
$DIMLWE
 70
    -1
  9
$DIMTMOVE
 70
     0
  9
$LUNITS
 70
     2
  9
$LUPREC
 70
     2
  9
$SKETCHINC
 40
1.0
  9
$FILLETRAD
 40
2.5
  9
$AUNITS
 70
     0
  9
$AUPREC
 70
     0
  9
$MENU
  1
.
  9
$ELEVATION
 40
0.0
  9
$PELEVATION
 40
0.0
  9
$THICKNESS
 40
0.0
  9
$LIMCHECK
 70
     0
  9
$CHAMFERA
 40
2.5
  9
$CHAMFERB
 40
2.5
  9
$CHAMFERC
 40
20.0
  9
$CHAMFERD
 40
0.0
  9
$SKPOLY
 70
     0
  9
$TDCREATE
 40
2453556.605858461
  9
$TDUCREATE
 40
2453556.272525128
  9
$TDUPDATE
 40
2453557.596242767
  9
$TDUUPDATE
 40
2453557.262909433
  9
$TDINDWG
 40
0.2772793403
  9
$TDUSRTIMER
 40
0.2772791667
  9
$USRTIMER
 70
     1
  9
$ANGBASE
 50
0.0
  9
$ANGDIR
 70
     0
  9
$PDMODE
 70
     0
  9
$PDSIZE
 40
0.0
  9
$PLINEWID
 40
0.0
  9
$SPLFRAME
 70
     0
  9
$SPLINETYPE
 70
     6
  9
$SPLINESEGS
 70
     8
  9
$HANDSEED
  5
7907
  9
$SURFTAB1
 70
     6
  9
$SURFTAB2
 70
     6
  9
$SURFTYPE
 70
     6
  9
$SURFU
 70
     6
  9
$SURFV
 70
     6
  9
$UCSBASE
  2

  9
$UCSNAME
  2

  9
$UCSORG
 10
0.0
 20
0.0
 30
0.0
  9
$UCSXDIR
 10
1.0
 20
0.0
 30
0.0
  9
$UCSYDIR
 10
0.0
 20
1.0
 30
0.0
  9
$UCSORTHOREF
  2

  9
$UCSORTHOVIEW
 70
     0
  9
$UCSORGTOP
 10
0.0
 20
0.0
 30
0.0
  9
$UCSORGBOTTOM
 10
0.0
 20
0.0
 30
0.0
  9
$UCSORGLEFT
 10
0.0
 20
0.0
 30
0.0
  9
$UCSORGRIGHT
 10
0.0
 20
0.0
 30
0.0
  9
$UCSORGFRONT
 10
0.0
 20
0.0
 30
0.0
  9
$UCSORGBACK
 10
0.0
 20
0.0
 30
0.0
  9
$PUCSBASE
  2

  9
$PUCSNAME
  2

  9
$PUCSORG
 10
0.0
 20
0.0
 30
0.0
  9
$PUCSXDIR
 10
1.0
 20
0.0
 30
0.0
  9
$PUCSYDIR
 10
0.0
 20
1.0
 30
0.0
  9
$PUCSORTHOREF
  2

  9
$PUCSORTHOVIEW
 70
     0
  9
$PUCSORGTOP
 10
0.0
 20
0.0
 30
0.0
  9
$PUCSORGBOTTOM
 10
0.0
 20
0.0
 30
0.0
  9
$PUCSORGLEFT
 10
0.0
 20
0.0
 30
0.0
  9
$PUCSORGRIGHT
 10
0.0
 20
0.0
 30
0.0
  9
$PUCSORGFRONT
 10
0.0
 20
0.0
 30
0.0
  9
$PUCSORGBACK
 10
0.0
 20
0.0
 30
0.0
  9
$USERI1
 70
     0
  9
$USERI2
 70
     0
  9
$USERI3
 70
     0
  9
$USERI4
 70
     0
  9
$USERI5
 70
     0
  9
$USERR1
 40
0.0
  9
$USERR2
 40
0.0
  9
$USERR3
 40
0.0
  9
$USERR4
 40
0.0
  9
$USERR5
 40
0.0
  9
$WORLDVIEW
 70
     1
  9
$SHADEDGE
 70
     3
  9
$SHADEDIF
 70
    70
  9
$TILEMODE
 70
     1
  9
$MAXACTVP
 70
    64
  9
$PINSBASE
 10
0.0
 20
0.0
 30
0.0
  9
$PLIMCHECK
 70
     0
  9
$PEXTMIN
 10
1.000000000000000E+20
 20
1.000000000000000E+20
 30
1.000000000000000E+20
  9
$PEXTMAX
 10
-1.000000000000000E+20
 20
-1.000000000000000E+20
 30
-1.000000000000000E+20
  9
$PLIMMIN
 10
0.0
 20
0.0
  9
$PLIMMAX
 10
420.0
 20
297.0
  9
$UNITMODE
 70
     0
  9
$VISRETAIN
 70
     1
  9
$PLINEGEN
 70
     0
  9
$PSLTSCALE
 70
     1
  9
$TREEDEPTH
 70
  3020
  9
$CMLSTYLE
  2
Standard
  9
$CMLJUST
 70
     0
  9
$CMLSCALE
 40
20.0
  9
$PROXYGRAPHICS
 70
     1
  9
$MEASUREMENT
 70
     1
  9
$CELWEIGHT
370
    -1
  9
$ENDCAPS
280
     0
  9
$JOINSTYLE
280
     0
  9
$LWDISPLAY
290
     0
  9
$INSUNITS
 70
     4
  9
$HYPERLINKBASE
  1

  9
$STYLESHEET
  1
彩色出圖.ctb
  9
$XEDIT
290
     1
  9
$CEPSNTYPE
380
     0
  9
$PSTYLEMODE
290
     1
  9
$FINGERPRINTGUID
  2
{6FBFCDA8-F3CD-4AA6-B64B-DBECB1E66A4A}
  9
$VERSIONGUID
  2
{A401D5AC-922F-4B4B-BD3B-7CA97445838A}
  9
$EXTNAMES
290
     1
  9
$PSVPSCALE
 40
0.0
  9
$OLESTARTUP
290
     0
  0
ENDSEC
  0
SECTION
  2
CLASSES
  0
CLASS
  1
ACDBDICTIONARYWDFLT
  2
AcDbDictionaryWithDefault
  3
ObjectDBX Classes
 90
        0
280
     0
281
     0
  0
CLASS
  1
ACDBPLACEHOLDER
  2
AcDbPlaceHolder
  3
ObjectDBX Classes
 90
        0
280
     0
281
     0
  0
CLASS
  1
LAYOUT
  2
AcDbLayout
  3
ObjectDBX Classes
 90
        0
280
     0
281
     0
  0
CLASS
  1
ACME_DOCUMENT
  2
AcMeDbDoc
  3
AcMeServices
 90
        0
280
     0
281
     0
  0
CLASS
  1
AMGSETTINGSOBJ
  2
AmgSettingsObj
  3
"AcadM|Product Description: AutoCAD Mechanical 2000|Company: Autodesk"
 90
        0
280
     0
281
     0
  0
CLASS
  1
ACMESCOPE
  2
AcMeScope
  3
AcMeServices
 90
        0
280
     0
281
     0
  0
CLASS
  1
ACMECOMMANDHISTORY
  2
AcMeCommandHistory
  3
AcMeServices
 90
        0
280
     0
281
     0
  0
CLASS
  1
ACIMSYSVARMAN
  2
AcImSysVarManager
  3
AcMeServices
 90
        0
280
     0
281
     0
  0
CLASS
  1
ACIMREALSYSVAR
  2
AcImRealSysVar
  3
AcMeServices
 90
        0
280
     0
281
     0
  0
CLASS
  1
ACIMINTSYSVAR
  2
AcImIntSysVar
  3
AcMeServices
 90
        0
280
     0
281
     0
  0
CLASS
  1
ACMEDRAWINGMAN
  2
AcMeDrawingMan
  3
AcMeServices
 90
        0
280
     0
281
     0
  0
CLASS
  1
ACMEVIEW
  2
AcMeView
  3
AcMeServices
 90
        0
280
     0
281
     0
  0
CLASS
  1
ACDBENTITYCACHE
  2
AcMeEntityCache
  3
AcMeServices
 90
        0
280
     0
281
     0
  0
CLASS
  1
GSMANAGER
  2
AcMeGSManager
  3
AcMeServices
 90
        0
280
     0
281
     0
  0
CLASS
  1
AMDTINTERNALREACTOR
  2
AmdtInternalReactor
  3
AcMeServices
 90
        0
280
     0
281
     0
  0
CLASS
  1
ACMESTATEMGR
  2
AcMeStateMgr
  3
AcMeServices
 90
        0
280
     0
281
     0
  0
CLASS
  1
ACGREFMASTER
  2
AcGrefMaster
  3
AcAttribServices
 90
        0
280
     0
281
     0
  0
CLASS
  1
ACME_DATABASE
  2
AcMeDbDatabase
  3
AcMeServices
 90
        0
280
     0
281
     0
  0
CLASS
  1
ACRFINSADJUSTERMGR
  2
AcRfInsAdjusterMgr
  3
AcMeServices
 90
        0
280
     0
281
     0
  0
CLASS
  1
ACGREFACADMASTER
  2
AcGrefacadMaster
  3
AcGrefServices
 90
        0
280
     0
281
     0
  0
CLASS
  1
AMIMASTER
  2
AmiMaster
  3
AmiServices
 90
        0
280
     0
281
     0
  0
CLASS
  1
ACMDATADICTIONARY
  2
AcmDataDictionary
  3
"AcmSymBB|Product Description: AutoCAD Mechanical 2004 DX|Company: Autodesk"
 90
        0
280
     0
281
     0
  0
CLASS
  1
ACMDATAENTRYBLOCK
  2
AcmDataEntryBlock
  3
"AcmSymBB|Product Description: AutoCAD Mechanical 2004 DX|Company: Autodesk"
 90
        0
280
     0
281
     0
  0
CLASS
  1
ACIMSTRSYSVAR
  2
AcImStrSysVar
  3
AcMeServices
 90
        0
280
     0
281
     0
  0
CLASS
  1
ACMSTANDARDISO
  2
AcmStandardISO
  3
"Amdt_StdImp|Product Description: AutoCAD Mechanical 2004 DX|Company: Autodesk"
 90
        0
280
     0
281
     0
  0
CLASS
  1
AMGOBJPROPCFG
  2
AmgObjPropCfg
  3
"AmgLay|Product Description: AutoCAD Mechanical 2000|Company: Autodesk"
 90
        1
280
     0
281
     0
  0
CLASS
  1
AMDTEDGESTANDARDISO
  2
AmdtEdgeStdISO
  3
"Amdt_StdImp|Product Description: AutoCAD Mechanical 2004 DX|Company: Autodesk"
 90
        0
280
     0
281
     0
  0
CLASS
  1
ACMSURFSTANDARDISO
  2
AcmSurfTextStdISO
  3
"Amdt_StdImp|Product Description: AutoCAD Mechanical 2004 DX|Company: Autodesk"
 90
        0
280
     0
281
     0
  0
CLASS
  1
ACMFCFSTANDARDISO
  2
AcmFCFStdISO
  3
"Amdt_StdImp|Product Description: AutoCAD Mechanical 2004 DX|Company: Autodesk"
 90
        0
280
     0
281
     0
  0
CLASS
  1
ACMWELDSTANDARDISO
  2
AcmWeldingStdISO
  3
"Amdt_StdImp|Product Description: AutoCAD Mechanical 2004 DX|Company: Autodesk"
 90
        0
280
     0
281
     0
  0
CLASS
  1
ACMIDSTANDARDISO
  2
AcmIdStdISO
  3
"Amdt_StdImp|Product Description: AutoCAD Mechanical 2004 DX|Company: Autodesk"
 90
        0
280
     0
281
     0
  0
CLASS
  1
ACMDATUMSTANDARDISO
  2
AcmDatumStdISO
  3
"Amdt_StdImp|Product Description: AutoCAD Mechanical 2004 DX|Company: Autodesk"
 90
        0
280
     0
281
     0
  0
CLASS
  1
ACMBOMSTANDARDISO
  2
AcmBOMStdISO
  3
"Amdt_StdImp|Product Description: AutoCAD Mechanical 2004 DX|Company: Autodesk"
 90
        0
280
     0
281
     0
  0
CLASS
  1
ACMDETAILSTANDARDISO
  2
AmdtDetailSymStdISO
  3
"Amdt_StdImp|Product Description: AutoCAD Mechanical 2004 DX|Company: Autodesk"
 90
        0
280
     0
281
     0
  0
CLASS
  1
ACMSECTIONSTANDARDISO
  2
AmdtSectionSymStdISO
  3
"Amdt_StdImp|Product Description: AutoCAD Mechanical 2004 DX|Company: Autodesk"
 90
        0
280
     0
281
     0
  0
CLASS
  1
ACMCENTERLINESTANDARDISO
  2
AmdtCenterLineStdISO
  3
"Amdt_StdImp|Product Description: AutoCAD Mechanical 2004 DX|Company: Autodesk"
 90
        0
280
     0
281
     0
  0
CLASS
  1
ACMNOTESTANDARDISO
  2
AmdtNoteStdISO
  3
"Amdt_StdImp|Product Description: AutoCAD Mechanical 2004 DX|Company: Autodesk"
 90
        0
280
     0
281
     0
  0
CLASS
  1
ACAMGLAYSTD
  2
AcAmgLayStd
  3
"AcAmgLayStd|Product Description: AutoCAD Mechanical 2000|Company: Autodesk"
 90
        0
280
     0
281
     0
  0
CLASS
  1
ACAMGDIMSTD
  2
AcAmgDimStd
  3
"AcAmgDimStd|Product Description: AutoCAD Mechanical 2000|Company: Autodesk"
 90
        0
280
     0
281
     0
  0
CLASS
  1
ACAMGHOLECHARTSTDISO
  2
AcAmgHoleChartStdISO
  3
ACMSYMBB_MODULE_NAME
 90
        0
280
     0
281
     0
  0
CLASS
  1
ACAMGTITLESTD
  2
AcAmgTitleStd
  3
"TITLEAPP"
 90
        0
280
     0
281
     0
  0
CLASS
  1
LAYER_INDEX
  2
AcDbLayerIndex
  3
ObjectDBX Classes
 90
    32768
280
     0
281
     0
  0
CLASS
  1
IDBUFFER
  2
AcDbIdBuffer
  3
ObjectDBX Classes
 90
    32768
280
     0
281
     0
  0
CLASS
  1
DICTIONARYVAR
  2
AcDbDictionaryVar
  3
ObjectDBX Classes
 90
        0
280
     0
281
     0
  0
CLASS
  1
AM_DRAWING_MGR
  2
AcDmDwgMgr
  3
AcMechDwgViewMgmt
 90
        0
280
     0
281
     0
  0
CLASS
  1
AM_DWG_DOCUMENT
  2
AcDmDwgDocument
  3
AcMechDwgViewMgmt
 90
        0
280
     0
281
     0
  0
CLASS
  1
AM_DWG_SHEET
  2
AcDmSheet
  3
AcMechDwgViewMgmt
 90
        0
280
     0
281
     0
  0
CLASS
  1
AM_VIEWDIMPARMAP
  2
AcDmViewDimParMap
  3
AcMechDwgViewMgmt
 90
        0
280
     0
281
     0
  0
CLASS
  1
AM_DWGMGR_NAME
  2
AcDmDwgMgrName
  3
AcMechDwgViewMgmt
 90
        0
280
     0
281
     0
  0
CLASS
  1
AMDTMENUSTATEMGR
  2
AmdtMenuStateMgr
  3
McadcomServices
 90
        0
280
     0
281
     0
  0
CLASS
  1
AMDTMCOMMENUSTATE
  2
AmdtMcomMenuState
  3
McadcomServices
 90
        0
280
     0
281
     0
  0
CLASS
  1
MAPIAMMOUDLE
  2
MApiAmModule
  3
MApiAmServices
 90
        0
280
     0
281
     0
  0
CLASS
  1
AMDTADMENUSTATE
  2
AmdtAdMenuState
  3
DesignerServices
 90
        0
280
     0
281
     0
  0
CLASS
  1
ADAPPL
  2
AcAdAppl
  3
DesignerServices
 90
        0
280
     0
281
     0
  0
CLASS
  1
DEPMGR
  2
AcAdDepMgr
  3
DesignerServices
 90
        0
280
     0
281
     0
  0
CLASS
  1
PARAMMGR
  2
AcAdParamMgr
  3
DesignerServices
 90
        0
280
     0
281
     0
  0
CLASS
  1
PARAMSCOPE
  2
AcAdParamScope
  3
DesignerServices
 90
        0
280
     0
281
     0
  0
CLASS
  1
NAMEDAPPL
  2
AcAdNamedAppl
  3
DesignerServices
 90
        0
280
     0
281
     0
  0
CLASS
  1
AMDTDMMENUSTATE
  2
AmdtDmMenuState
  3
AcMechDwgViewMgmt
 90
        0
280
     0
281
     0
  0
CLASS
  1
AMDTAMMENUSTATE
  2
AmdtAmMenuState
  3
DesignerAssemblies
 90
        0
280
     0
281
     0
  0
CLASS
  1
ACAMPROJECT
  2
AcAmProject
  3
DesignerAssemblies
 90
        0
280
     0
281
     0
  0
CLASS
  1
ACAMGRCOMPDEF
  2
AcAmGrCompDef
  3
DesignerAssemblies
 90
        0
280
     0
281
     0
  0
CLASS
  1
ACCMCONTEXT
  2
AcCmContext
  3
DesignerAssemblies
 90
        0
280
     0
281
     0
  0
CLASS
  1
ACAMCOMPDEF
  2
AcAmCompDef
  3
DesignerAssemblies
 90
        0
280
     0
281
     0
  0
CLASS
  1
ACAMCOMPDEFMGR
  2
AcAmCompDefMgr
  3
DesignerAssemblies
 90
        0
280
     0
281
     0
  0
CLASS
  1
AMCONTEXTMGR
  2
AcAmContextMgr
  3
DesignerAssemblies
 90
        0
280
     0
281
     0
  0
CLASS
  1
ACAMCONTEXTMODELER
  2
AcAmContextModeler
  3
DesignerAssemblies
 90
        0
280
     0
281
     0
  0
CLASS
  1
ACMTHREADLINESTANDARDISO
  2
AmdtThreadLineStdISO
  3
"Amdt_StdImp|Product Description: AutoCAD Mechanical 2004 DX|Company: Autodesk"
 90
        0
280
     0
281
     0
  0
CLASS
  1
CATALOGSTATE
  2
AcAmCatalogState
  3
DesignerAssemblies
 90
        0
280
     0
281
     0
  0
CLASS
  1
ACAMGRCOMPDEFSET
  2
AcAmGrCompDefSet
  3
DesignerAssemblies
 90
        0
280
     0
281
     0
  0
CLASS
  1
AMDTBROWSERDBTAB
  2
AmdtBrowserDbTab
  3
McadcomServices
 90
        0
280
     0
281
     0
  0
CLASS
  1
CBROWSERAPPOBJECT
  2
CBrowserAppObject
  3
McadcomServices
 90
        0
280
     0
281
     0
  0
CLASS
  1
DM_PLACEHOLDER
  2
AcDmSelsetPlaceholder
  3
AcMechDwgViewMgmt
 90
        0
280
     0
281
     0
  0
CLASS
  1
TABLESTYLE
  2
AcDbTableStyle
  3
ObjectDBX Classes
 90
     2047
280
     0
281
     0
  0
CLASS
  1
VAACXREFPANELOBJECT
  2
VaAcXREFPanelObject
  3
VAAC_ADDIN
 90
    32768
280
     0
281
     0
  0
CLASS
  1
VAACIMAGEINVENTORY
  2
VaAcImageInventory
  3
VAAC_ADDIN
 90
    32768
280
     0
281
     0
  0
CLASS
  1
AMDTNOTETEMPLATEDB
  2
AmdtNoteTemplateDB
  3
AMDT_STDIMP_MODULE_NAME
 90
        0
280
     0
281
     0
  0
CLASS
  1
ACMBOM
  2
AcmBom
  3
"AcmSymBB|Product Description: AutoCAD Mechanical 2004 DX|Company: Autodesk"
 90
    32768
280
     0
281
     0
  0
CLASS
  1
AMDTFORMULAUPDATEDISPATCHER
  2
AmdtFormulaUpdateDispatcher
  3
AcMeServices
 90
    32768
280
     0
281
     0
  0
CLASS
  1
ACMPARTLIST
  2
AcmPartList
  3
"AcmSymBB|Product Description: AutoCAD Mechanical 2004 DX|Company: Autodesk"
 90
    33791
280
     0
281
     1
  0
CLASS
  1
ACAMGFILTERDAT
  2
AcAmgFilterDat
  3
"AcadM|Product Description: AutoCAD Mechanical 2000|Company: Autodesk"
 90
        0
280
     0
281
     0
  0
CLASS
  1
DIMASSOC
  2
AcDbDimAssoc
  3
"AcDbDimAssoc|Product Desc:     AcDim ARX App For Dimension|Company:          Autodesk, Inc.|WEB Address:      www.autodesk.com"
 90
        0
280
     0
281
     0
  0
CLASS
  1
ACAMGHOLECHARTORIGIN
  2
AcAmgHoleChartOrigin
  3
ACMSYMBB_MODULE_NAME
 90
    33663
280
     0
281
     1
  0
CLASS
  1
AMDTNOTE
  2
AmdtNote
  3
"AcmSymBB|Product Description: AutoCAD Mechanical 2004 DX|Company: Autodesk"
 90
     1023
280
     0
281
     1
  0
CLASS
  1
ACRFATTGENMGR
  2
AcRfAttGeneralMgr
  3
AcAttribServices
 90
        0
280
     0
281
     0
  0
ENDSEC
  0
SECTION
  2
TABLES
  0
TABLE
  2
VPORT
  5
8
330
0
100
AcDbSymbolTable
 70
     3
  0
VPORT
  5
78FE
330
8
100
AcDbSymbolTableRecord
100
AcDbViewportTableRecord
  2
*Active
 70
     0
 10
0.0
 20
0.0
 11
1.0
 21
1.0
 12
3709.041016853262
 22
1677.9388153462
 13
0.0
 23
0.0
 14
2.5
 24
2.5
 15
10.0
 25
10.0
 16
0.0
 26
0.0
 36
1.0
 17
0.0
 27
0.0
 37
0.0
 40
1473.256393078496
 41
1.81766917293233
 42
50.0
 43
0.0
 44
0.0
 50
0.0
 51
0.0
 71
     0
 72
   100
 73
     1
 74
     3
 75
     0
 76
     0
 77
     0
 78
     0
281
     0
 65
     1
110
0.0
120
0.0
130
0.0
111
1.0
121
0.0
131
0.0
112
0.0
122
1.0
132
0.0
 79
     0
146
0.0
  0
ENDTAB
  0
TABLE
  2
LTYPE
  5
5
330
0
100
AcDbSymbolTable
 70
    16
  0
LTYPE
  5
14
330
5
100
AcDbSymbolTableRecord
100
AcDbLinetypeTableRecord
  2
ByBlock
 70
     0
  3

 72
    65
 73
     0
 40
0.0
  0
LTYPE
  5
15
330
5
100
AcDbSymbolTableRecord
100
AcDbLinetypeTableRecord
  2
ByLayer
 70
     0
  3

 72
    65
 73
     0
 40
0.0
  0
LTYPE
  5
16
330
5
100
AcDbSymbolTableRecord
100
AcDbLinetypeTableRecord
  2
Continuous
 70
     0
  3
Solid line
 72
    65
 73
     0
 40
0.0
  0
LTYPE
  5
64
330
5
100
AcDbSymbolTableRecord
100
AcDbLinetypeTableRecord
  2
AM_ISO02W050
 70
     0
  3
__ __ __ __ __ __ __ __ __ __ __ __ __ __ __
 72
    65
 73
     2
 40
7.5
 49
6.0
 74
     0
 49
-1.5
 74
     0
  0
LTYPE
  5
65
330
5
100
AcDbSymbolTableRecord
100
AcDbLinetypeTableRecord
  2
AM_ISO08W050
 70
     0
  3
____ . ____ . ____ . ____ . ____ . ____ . ____
 72
    65
 73
     4
 40
18.0
 49
12.0
 74
     0
 49
-1.5
 74
     0
 49
3.0
 74
     0
 49
-1.5
 74
     0
  0
LTYPE
  5
66
330
5
100
AcDbSymbolTableRecord
100
AcDbLinetypeTableRecord
  2
AM_ISO09W050
 70
     0
  3
_____ . . _____ . . _____ . . ____ .. ____
 72
    65
 73
     6
 40
22.5
 49
12.0
 74
     0
 49
-1.5
 74
     0
 49
3.0
 74
     0
 49
-1.5
 74
     0
 49
3.0
 74
     0
 49
-1.5
 74
     0
  0
LTYPE
  5
67
330
5
100
AcDbSymbolTableRecord
100
AcDbLinetypeTableRecord
  2
Amconstr
 70
     0
  3
_______________________
 72
    65
 73
     2
 40
9999.0
 49
9999.0
 74
     0
 49
0.0
 74
     0
  0
LTYPE
  5
68
330
5
100
AcDbSymbolTableRecord
100
AcDbLinetypeTableRecord
  2
AM_ISO08W050x2
 70
     0
  3
__ . __ . __ . __ . __ . __
 72
    65
 73
     4
 40
9.0
 49
6.0
 74
     0
 49
-0.75
 74
     0
 49
1.5
 74
     0
 49
-0.75
 74
     0
  0
LTYPE
  5
69
330
5
100
AcDbSymbolTableRecord
100
AcDbLinetypeTableRecord
  2
AM_ISO02W050x2
 70
     0
  3
 _ _ _ _ _ _ _ _ _ _ _ _
 72
    65
 73
     2
 40
3.75
 49
3.0
 74
     0
 49
-0.75
 74
     0
  0
LTYPE
  5
6C
330
5
100
AcDbSymbolTableRecord
100
AcDbLinetypeTableRecord
  2
Amzigzag
 70
     0
  3
/\/-/\/-/\/-/\/-/\/-/\/
 72
    65
 73
     2
 40
11.0001
 49
0.0001
 74
     4
 75
   135
340
6B
 46
0.04
 50
0.0
 44
0.0
 45
0.0
 49
-11.0
 74
     0
  0
LTYPE
  5
7A
330
5
100
AcDbSymbolTableRecord
100
AcDbLinetypeTableRecord
  2
ACISOWELD
 70
     0
  3
_ _ _ _ _
 72
    65
 73
     2
 40
2.0
 49
2.0
 74
     0
 49
-1.0
 74
     0
  0
LTYPE
  5
7B
330
5
100
AcDbSymbolTableRecord
100
AcDbLinetypeTableRecord
  2
ACISOTGB
 70
     0
  3
__ . . __ . .
 72
    65
 73
     6
 40
9.0
 49
4.0
 74
     0
 49
-1.0
 74
     0
 49
1.0
 74
     0
 49
-1.0
 74
     0
 49
1.0
 74
     0
 49
-1.0
 74
     0
  0
LTYPE
  5
7C
330
5
100
AcDbSymbolTableRecord
100
AcDbLinetypeTableRecord
  2
ACISOTGL
 70
     0
  3
_ _ _ _ _
 72
    65
 73
     2
 40
3.0
 49
2.0
 74
     0
 49
-1.0
 74
     0
  0
LTYPE
  5
7E
330
5
100
AcDbSymbolTableRecord
100
AcDbLinetypeTableRecord
  2
CENTER
 70
     0
  3
__ . __
 72
    65
 73
     4
 40
7.0
 49
4.0
 74
     0
 49
-1.0
 74
     0
 49
1.0
 74
     0
 49
-1.0
 74
     0
  0
LTYPE
  5
D8
330
5
100
AcDbSymbolTableRecord
100
AcDbLinetypeTableRecord
  2
HIDDEN
 70
     0
  3
Hidden __ __ __ __ __ __ __ __ __ __ __ __ __ _
 72
    65
 73
     2
 40
9.524999999999998
 49
6.349999999999999
 74
     0
 49
-3.174999999999999
 74
     0
  0
LTYPE
  5
D9
330
5
100
AcDbSymbolTableRecord
100
AcDbLinetypeTableRecord
  2
PHANTOM2
 70
     0
  3
Phantom (.5x) ___ _ _ ___ _ _ ___ _ _ ___ _ _
 72
    65
 73
     6
 40
31.75
 49
15.875
 74
     0
 49
-3.174999999999999
 74
     0
 49
3.174999999999999
 74
     0
 49
-3.174999999999999
 74
     0
 49
3.174999999999999
 74
     0
 49
-3.174999999999999
 74
     0
  0
LTYPE
  5
71F
330
5
100
AcDbSymbolTableRecord
100
AcDbLinetypeTableRecord
  2
HIDDEN2
 70
     0
  3
Hidden (.5x) _ _ _ _ _ _ _ _ _ _ _ _ _ _ _ _ _
 72
    65
 73
     2
 40
4.762499999999999
 49
3.174999999999999
 74
     0
 49
-1.587499999999999
 74
     0
  0
LTYPE
  5
63A7
330
5
100
AcDbSymbolTableRecord
100
AcDbLinetypeTableRecord
  2
CENTERX2
 70
     0
  3
Center (2x) ________  __  ________  __  _____
 72
    65
 73
     4
 40
101.6
 49
63.5
 74
     0
 49
-12.7
 74
     0
 49
12.7
 74
     0
 49
-12.7
 74
     0
  0
ENDTAB
  0
TABLE
  2
LAYER
  5
2
102
{ACAD_XDICTIONARY
360
3F9
102
}
330
0
100
AcDbSymbolTable
 70
    10
  0
LAYER
  5
10
330
2
100
AcDbSymbolTableRecord
100
AcDbLayerTableRecord
  2
0
 70
     0
 62
     7
  6
Continuous
370
    -3
390
F
  0
LAYER
  5
206
330
2
100
AcDbSymbolTableRecord
100
AcDbLayerTableRecord
  2
Defpoints
 70
     0
 62
     7
  6
Continuous
290
     0
370
    -3
390
F
  0
LAYER
  5
720
330
2
100
AcDbSymbolTableRecord
100
AcDbLayerTableRecord
  2
圖層1輪廓線
 70
     0
 62
     7
  6
Continuous
370
    50
390
728
  0
LAYER
  5
721
330
2
100
AcDbSymbolTableRecord
100
AcDbLayerTableRecord
  2
圖層2中心線
 70
     0
 62
     1
  6
CENTERX2
370
    18
390
729
  0
LAYER
  5
722
330
2
100
AcDbSymbolTableRecord
100
AcDbLayerTableRecord
  2
圖層3虛線
 70
     0
 62
     3
  6
HIDDEN2
370
    25
390
72A
  0
LAYER
  5
723
330
2
100
AcDbSymbolTableRecord
100
AcDbLayerTableRecord
  2
圖層4尺寸線
 70
     0
 62
     5
  6
Continuous
370
    25
390
72B
  0
LAYER
  5
724
330
2
100
AcDbSymbolTableRecord
100
AcDbLayerTableRecord
  2
底
 70
     0
 62
     2
  6
Continuous
370
    -3
390
F
1001
AcAecLayerStandard
1000

1000

  0
LAYER
  5
B2A
330
2
100
AcDbSymbolTableRecord
100
AcDbLayerTableRecord
  2
AM_5
 70
     0
 62
     5
  6
Continuous
370
    50
390
F
  0
LAYER
  5
15F9
330
2
100
AcDbSymbolTableRecord
100
AcDbLayerTableRecord
  2
AM_7
 70
     0
 62
     1
  6
CENTER
370
    25
390
F
  0
LAYER
  5
7624
330
2
100
AcDbSymbolTableRecord
100
AcDbLayerTableRecord
  2
LOGO
 70
     0
 62
     7
  6
Continuous
370
    -3
390
F
  0
ENDTAB
  0
TABLE
  2
STYLE
  5
3
330
0
100
AcDbSymbolTable
 70
     8
  0
STYLE
  5
11
330
3
100
AcDbSymbolTableRecord
100
AcDbTextStyleTableRecord
  2
STANDARD
 70
     0
 40
0.0
 41
1.0
 50
0.0
 71
     0
 42
3.0
  3
ISOCP.SHX
  4
CHINESET.SHX
  0
STYLE
  5
6B
330
3
100
AcDbSymbolTableRecord
100
AcDbTextStyleTableRecord
  2

 70
     1
 40
0.0
 41
1.0
 50
0.0
 71
     0
 42
2.5
  3
ltypeshp.shx
  4

  0
STYLE
  5
6D
330
3
100
AcDbSymbolTableRecord
100
AcDbTextStyleTableRecord
  2
ACISOTS
 70
     0
 40
1.0
 41
1.0
 50
0.0
 71
     0
 42
1.0
  3
isocp.shx
  4
chineset.shx
  0
STYLE
  5
79
330
3
100
AcDbSymbolTableRecord
100
AcDbTextStyleTableRecord
  2
ACISOGDT
 70
     0
 40
0.0
 41
1.0
 50
0.0
 71
     0
 42
2.5
  3
amgdt.shx
  4
chineset.shx
  0
STYLE
  5
60C
330
3
100
AcDbSymbolTableRecord
100
AcDbTextStyleTableRecord
  2
CHINESET
 70
     0
 40
0.0
 41
1.0
 50
0.0
 71
     0
 42
3.0
  3
simplex.shx
  4
CHINESET.SHX
  0
STYLE
  5
7758
330
3
100
AcDbSymbolTableRecord
100
AcDbTextStyleTableRecord
  2
WIN-1
 70
     0
 40
0.0
 41
1.0
 50
0.0
 71
     0
 42
4.0
  3
PMingLiU.ttf
  4

1001
ACAD
1000
PMingLiU
1071
    34834
  0
STYLE
  5
7759
330
3
100
AcDbSymbolTableRecord
100
AcDbTextStyleTableRecord
  2
WIN
 70
     0
 40
0.0
 41
1.0
 50
0.0
 71
     0
 42
4.0
  3
PMingLiU.ttf
  4

1001
ACAD
1000
PMingLiU
1071
    34834
  0
ENDTAB
  0
TABLE
  2
VIEW
  5
6
330
0
100
AcDbSymbolTable
 70
     0
  0
ENDTAB
  0
TABLE
  2
UCS
  5
7
330
0
100
AcDbSymbolTable
 70
     0
  0
ENDTAB
  0
TABLE
  2
APPID
  5
9
330
0
100
AcDbSymbolTable
 70
    21
  0
APPID
  5
12
330
9
100
AcDbSymbolTableRecord
100
AcDbRegAppTableRecord
  2
ACAD
 70
     0
  0
APPID
  5
46
330
9
100
AcDbSymbolTableRecord
100
AcDbRegAppTableRecord
  2
MCAD_NO_VIS
 70
     0
  0
APPID
  5
47
330
9
100
AcDbSymbolTableRecord
100
AcDbRegAppTableRecord
  2
ACAD_TEMP_GRAPHIC
 70
     0
  0
APPID
  5
58
330
9
100
AcDbSymbolTableRecord
100
AcDbRegAppTableRecord
  2
ACATTRIBSERVICES
 70
     0
  0
APPID
  5
EE
330
9
100
AcDbSymbolTableRecord
100
AcDbRegAppTableRecord
  2
AD_DRAW
 70
     0
  0
APPID
  5
10C
330
9
100
AcDbSymbolTableRecord
100
AcDbRegAppTableRecord
  2
DESIGNERASSEMBLIES
 70
     0
  0
APPID
  5
111
330
9
100
AcDbSymbolTableRecord
100
AcDbRegAppTableRecord
  2
ACADM_DIM_EDIT
 70
     0
  0
APPID
  5
112
330
9
100
AcDbSymbolTableRecord
100
AcDbRegAppTableRecord
  2
AMDT_DM_ADJ
 70
     0
  0
APPID
  5
22C
330
9
100
AcDbSymbolTableRecord
100
AcDbRegAppTableRecord
  2
ACAD_DSTYLE_DIMTEXT_FILL
 70
     0
  0
APPID
  5
452
330
9
100
AcDbSymbolTableRecord
100
AcDbRegAppTableRecord
  2
GENIUS_GENOENT_13
 70
     0
  0
APPID
  5
453
330
9
100
AcDbSymbolTableRecord
100
AcDbRegAppTableRecord
  2
GENIUS_GENOBJ-N-CRS_13
 70
     0
  0
APPID
  5
454
330
9
100
AcDbSymbolTableRecord
100
AcDbRegAppTableRecord
  2
GENIUS_GENOLIS_13
 70
     0
  0
APPID
  5
455
330
9
100
AcDbSymbolTableRecord
100
AcDbRegAppTableRecord
  2
GENIUS_GENODEF_13
 70
     0
  0
APPID
  5
456
330
9
100
AcDbSymbolTableRecord
100
AcDbRegAppTableRecord
  2
GENIUS_GENOREF_13
 70
     0
  0
APPID
  5
6F3
330
9
100
AcDbSymbolTableRecord
100
AcDbRegAppTableRecord
  2
ACAD_PSEXT
 70
     0
  0
APPID
  5
727
330
9
100
AcDbSymbolTableRecord
100
AcDbRegAppTableRecord
  2
AcAecLayerStandard
 70
     0
  0
APPID
  5
D7F
330
9
100
AcDbSymbolTableRecord
100
AcDbRegAppTableRecord
  2
GENIUS_GENDTOL_13
 70
     0
  0
APPID
  5
15FB
330
9
100
AcDbSymbolTableRecord
100
AcDbRegAppTableRecord
  2
GENIUS_GENOBJ-N-CEN_13
 70
     0
  0
APPID
  5
15FC
330
9
100
AcDbSymbolTableRecord
100
AcDbRegAppTableRecord
  2
GENIUS_GENCEN_19
 70
     0
  0
APPID
  5
300F
330
9
100
AcDbSymbolTableRecord
100
AcDbRegAppTableRecord
  2
GENIUS_GENREC_14
 70
     0
  0
APPID
  5
3010
330
9
100
AcDbSymbolTableRecord
100
AcDbRegAppTableRecord
  2
GENIUS_GENOBJ-N-REC_13
 70
     0
  0
ENDTAB
  0
TABLE
  2
DIMSTYLE
  5
A
330
0
100
AcDbSymbolTable
 70
    15
100
AcDbDimStyleTable
 71
     3
340
81
340
8B
340
86
  0
DIMSTYLE
105
81
330
A
100
AcDbSymbolTableRecord
100
AcDbDimStyleTableRecord
  2
AM_ISO
 70
     0
  4
"
 41
20.0
 42
3.0
 43
50.0
 44
4.0
 47
0.1
 48
0.1
 73
     0
 74
     0
 77
     1
 78
     8
 79
     2
140
20.0
141
0.0
143
0.0393701
146
0.71
147
6.0
172
     1
176
   256
177
   256
178
   256
271
     2
272
     2
283
     2
284
     8
340
11
371
    -1
372
    -1
  0
DIMSTYLE
105
82
330
A
100
AcDbSymbolTableRecord
100
AcDbDimStyleTableRecord
  2
AM_ISO$3
 70
     0
  4
"
 41
20.0
 42
3.0
 43
50.0
 44
4.0
 47
0.1
 48
0.1
 73
     0
 77
     1
 78
     8
 79
     2
140
20.0
141
0.0
143
0.0393701
146
0.71
147
6.0
176
   256
177
   256
178
   256
271
     2
272
     2
283
     2
284
     8
288
     1
289
     0
340
11
371
    -1
372
    -1
  0
DIMSTYLE
105
83
330
A
100
AcDbSymbolTableRecord
100
AcDbDimStyleTableRecord
  2
AM_ISO$4
 70
     0
  4
"
 41
20.0
 42
3.0
 43
50.0
 44
4.0
 47
0.1
 48
0.1
 73
     0
 77
     1
 78
     8
 79
     2
140
20.0
141
0.0
143
0.0393701
146
0.71
147
6.0
176
   256
177
   256
178
   256
271
     2
272
     2
283
     2
284
     8
288
     1
289
     0
340
11
371
    -1
372
    -1
  0
DIMSTYLE
105
84
330
A
100
AcDbSymbolTableRecord
100
AcDbDimStyleTableRecord
  2
AM_ISO$6
 70
     0
  4
"
 41
20.0
 42
3.0
 43
50.0
 44
4.0
 47
0.1
 48
0.1
 73
     0
 74
     0
 78
     8
 79
     2
140
20.0
141
0.0
143
0.0393701
146
0.71
147
6.0
172
     1
176
   256
177
   256
178
   256
271
     2
272
     2
283
     2
284
     8
340
11
371
    -1
372
    -1
  0
DIMSTYLE
105
85
330
A
100
AcDbSymbolTableRecord
100
AcDbDimStyleTableRecord
  2
AM_ISO$7
 70
     0
  4
"
 41
20.0
 42
3.0
 43
50.0
 44
4.0
 47
0.1
 48
0.1
 73
     0
 74
     0
 77
     1
 78
     8
 79
     2
140
5.0
141
0.0
143
0.0393701
146
0.71
147
6.0
172
     1
176
   256
177
   256
178
   256
271
     2
272
     2
283
     2
284
     8
340
11
371
    -1
372
    -1
  0
DIMSTYLE
105
86
330
A
100
AcDbSymbolTableRecord
100
AcDbDimStyleTableRecord
  2
AM_ISO$SF
 70
     0
  4
"
 41
2.5
 42
1.0
 43
10.0
 44
1.0
 47
0.1
 48
0.1
 73
     0
 74
     0
 75
     1
 76
     1
 77
     1
 78
     8
 79
     2
140
3.5
141
0.0
143
0.0393701
146
0.71
147
1.5
172
     1
176
   256
177
   256
178
     2
271
     2
272
     3
274
     4
283
     0
284
     8
340
11
371
    -1
372
    -1
  0
DIMSTYLE
105
8B
330
A
100
AcDbSymbolTableRecord
100
AcDbDimStyleTableRecord
  2
AM_ISO$SH
 70
     0
  4
"
 41
2.5
 42
1.0
 43
10.0
 44
1.0
 47
0.1
 48
0.1
 73
     0
 74
     0
 75
     1
 76
     1
 77
     1
 78
     8
 79
     2
140
3.5
141
0.0
143
0.0393701
144
2.0
146
0.71
147
1.5
172
     1
173
     1
176
   256
177
   256
178
     2
271
     2
272
     3
274
     4
283
     0
284
     8
340
11
343
87
371
    -1
372
    -1
  0
DIMSTYLE
105
40B
102
{ACAD_REACTORS
330
1629
330
162C
330
1685
330
1679
330
167C
330
167F
330
1682
330
16F8
330
16FB
330
16F5
330
1743
330
1746
330
173D
330
1740
330
1812
330
1846
330
186D
330
1915
330
1918
330
191B
330
199E
330
19A1
330
19A4
330
19A7
330
2FF4
102
}
330
A
100
AcDbSymbolTableRecord
100
AcDbDimStyleTableRecord
  2
AM_ISO$0
 70
     0
  4
"
 41
20.0
 42
3.0
 43
50.0
 44
4.0
 47
0.1
 48
0.1
 73
     0
 74
     0
 77
     1
 78
     8
 79
     2
140
20.0
141
0.0
143
0.0393701
146
0.71
147
6.0
172
     1
176
   256
177
   256
178
   256
271
     2
272
     2
283
     2
284
     8
340
11
371
    -1
372
    -1
  0
DIMSTYLE
105
775A
330
A
100
AcDbSymbolTableRecord
100
AcDbDimStyleTableRecord
  2
ISO-25
 70
     0
 41
2.5
 42
0.625
 43
3.75
 44
1.25
 73
     0
 74
     0
 77
     1
 78
     8
140
2.5
141
2.5
143
0.03937007874016
147
0.625
171
     3
172
     1
271
     2
272
     2
274
     3
278
    44
283
     0
284
     8
340
11
  0
DIMSTYLE
105
775B
330
A
100
AcDbSymbolTableRecord
100
AcDbDimStyleTableRecord
  2
複本 ISO-25
 70
     0
 41
10.0
 42
3.0
 43
15.0
 44
3.0
 73
     0
 74
     0
 77
     1
 78
     8
140
10.0
141
10.0
143
0.03937007874016
147
3.0
171
     3
172
     1
271
     2
272
     2
274
     3
278
    44
283
     0
284
     8
340
11
  0
DIMSTYLE
105
775C
330
A
100
AcDbSymbolTableRecord
100
AcDbDimStyleTableRecord
  2
弧 自由水平內線
 70
     0
 41
10.0
 42
2.0
 43
15.0
 44
2.0
 77
     1
 78
     8
140
10.0
141
0.0
143
0.03937007874016
147
2.0
171
     3
271
     2
272
     2
274
     3
278
    44
283
     0
284
     8
340
11
  0
DIMSTYLE
105
775D
330
A
100
AcDbSymbolTableRecord
100
AcDbDimStyleTableRecord
  2
弧(自由水平無內線)
 70
     0
 41
4.0
 42
2.0
 43
8.0
 44
2.0
 77
     1
 78
     8
140
4.0
141
0.0
143
0.03937007874016
147
2.0
171
     3
271
     2
272
     2
274
     3
278
    44
283
     0
284
     8
340
11
  0
DIMSTYLE
105
775E
330
A
100
AcDbSymbolTableRecord
100
AcDbDimStyleTableRecord
  2
直線
 70
     0
 41
4.0
 42
2.0
 43
8.0
 44
2.0
 73
     0
 74
     0
 77
     1
 78
     8
140
4.0
141
3.0
143
0.03937007874016
147
2.0
171
     3
172
     1
271
     2
272
     2
274
     3
278
    44
283
     0
284
     8
340
11
  0
DIMSTYLE
105
775F
330
A
100
AcDbSymbolTableRecord
100
AcDbDimStyleTableRecord
  2
直線半徑(自由)(水平)
 70
     0
 41
10.0
 42
2.0
 43
8.0
 44
2.0
 77
     1
 78
     8
140
10.0
141
4.0
143
0.03937007874016
147
2.0
171
     3
172
     1
271
     2
272
     2
274
     3
278
    44
283
     0
284
     8
340
11
  0
ENDTAB
  0
TABLE
  2
BLOCK_RECORD
  5
1
330
0
100
AcDbSymbolTable
 70
    32
  0
BLOCK_RECORD
  5
1F
102
{ACAD_XDICTIONARY
360
8F
102
}
330
1
100
AcDbSymbolTableRecord
100
AcDbBlockTableRecord
  2
*Model_Space
340
22
  0
BLOCK_RECORD
  5
1B
330
1
100
AcDbSymbolTableRecord
100
AcDbBlockTableRecord
  2
*Paper_Space
340
1E
  0
BLOCK_RECORD
  5
23
330
1
100
AcDbSymbolTableRecord
100
AcDbBlockTableRecord
  2
*Paper_Space0
340
26
  0
BLOCK_RECORD
  5
87
330
1
100
AcDbSymbolTableRecord
100
AcDbBlockTableRecord
  2
GENAXEH
340
0
  0
BLOCK_RECORD
  5
162F
330
1
100
AcDbSymbolTableRecord
100
AcDbBlockTableRecord
  2
*D3
340
0
  0
BLOCK_RECORD
  5
163B
330
1
100
AcDbSymbolTableRecord
100
AcDbBlockTableRecord
  2
*D4
340
0
  0
BLOCK_RECORD
  5
1688
330
1
100
AcDbSymbolTableRecord
100
AcDbBlockTableRecord
  2
*D5
340
0
  0
BLOCK_RECORD
  5
1696
330
1
100
AcDbSymbolTableRecord
100
AcDbBlockTableRecord
  2
*D6
340
0
  0
BLOCK_RECORD
  5
16A2
330
1
100
AcDbSymbolTableRecord
100
AcDbBlockTableRecord
  2
*D7
340
0
  0
BLOCK_RECORD
  5
16AE
330
1
100
AcDbSymbolTableRecord
100
AcDbBlockTableRecord
  2
*D8
340
0
  0
BLOCK_RECORD
  5
16BA
330
1
100
AcDbSymbolTableRecord
100
AcDbBlockTableRecord
  2
*D9
340
0
  0
BLOCK_RECORD
  5
16FE
330
1
100
AcDbSymbolTableRecord
100
AcDbBlockTableRecord
  2
*D10
340
0
  0
BLOCK_RECORD
  5
170A
330
1
100
AcDbSymbolTableRecord
100
AcDbBlockTableRecord
  2
*D11
340
0
  0
BLOCK_RECORD
  5
1716
330
1
100
AcDbSymbolTableRecord
100
AcDbBlockTableRecord
  2
*D12
340
0
  0
BLOCK_RECORD
  5
1749
330
1
100
AcDbSymbolTableRecord
100
AcDbBlockTableRecord
  2
*D13
340
0
  0
BLOCK_RECORD
  5
1755
330
1
100
AcDbSymbolTableRecord
100
AcDbBlockTableRecord
  2
*D14
340
0
  0
BLOCK_RECORD
  5
1761
330
1
100
AcDbSymbolTableRecord
100
AcDbBlockTableRecord
  2
*D15
340
0
  0
BLOCK_RECORD
  5
176D
330
1
100
AcDbSymbolTableRecord
100
AcDbBlockTableRecord
  2
*D16
340
0
  0
BLOCK_RECORD
  5
1815
330
1
100
AcDbSymbolTableRecord
100
AcDbBlockTableRecord
  2
*D17
340
0
  0
BLOCK_RECORD
  5
1849
330
1
100
AcDbSymbolTableRecord
100
AcDbBlockTableRecord
  2
*D18
340
0
  0
BLOCK_RECORD
  5
186E
330
1
100
AcDbSymbolTableRecord
100
AcDbBlockTableRecord
  2
*D19
340
0
  0
BLOCK_RECORD
  5
1921
330
1
100
AcDbSymbolTableRecord
100
AcDbBlockTableRecord
  2
*D20
340
0
  0
BLOCK_RECORD
  5
192F
330
1
100
AcDbSymbolTableRecord
100
AcDbBlockTableRecord
  2
*D21
340
0
  0
BLOCK_RECORD
  5
193D
330
1
100
AcDbSymbolTableRecord
100
AcDbBlockTableRecord
  2
*D22
340
0
  0
BLOCK_RECORD
  5
19AC
330
1
100
AcDbSymbolTableRecord
100
AcDbBlockTableRecord
  2
*D23
340
0
  0
BLOCK_RECORD
  5
19BA
330
1
100
AcDbSymbolTableRecord
100
AcDbBlockTableRecord
  2
*D24
340
0
  0
BLOCK_RECORD
  5
19C8
330
1
100
AcDbSymbolTableRecord
100
AcDbBlockTableRecord
  2
*D25
340
0
  0
BLOCK_RECORD
  5
19D6
330
1
100
AcDbSymbolTableRecord
100
AcDbBlockTableRecord
  2
*D26
340
0
  0
BLOCK_RECORD
  5
2FF5
330
1
100
AcDbSymbolTableRecord
100
AcDbBlockTableRecord
  2
*D28
340
0
  0
BLOCK_RECORD
  5
78EC
330
1
100
AcDbSymbolTableRecord
100
AcDbBlockTableRecord
  2
*S30
340
0
  0
BLOCK_RECORD
  5
78F4
330
1
100
AcDbSymbolTableRecord
100
AcDbBlockTableRecord
  2
*S31
340
0
  0
ENDTAB
  0
ENDSEC
  0
SECTION
  2
BLOCKS
  0
BLOCK
  5
20
330
1F
100
AcDbEntity
  8
0
100
AcDbBlockBegin
  2
*Model_Space
 70
     0
 10
0.0
 20
0.0
 30
0.0
  3
*Model_Space
  1

  0
ENDBLK
  5
21
330
1F
100
AcDbEntity
  8
0
100
AcDbBlockEnd
  0
BLOCK
  5
1C
330
1B
100
AcDbEntity
 67
     1
  8
0
100
AcDbBlockBegin
  2
*Paper_Space
 70
     0
 10
0.0
 20
0.0
 30
0.0
  3
*Paper_Space
  1

  0
ENDBLK
  5
1D
330
1B
100
AcDbEntity
 67
     1
  8
0
100
AcDbBlockEnd
  0
BLOCK
  5
24
330
23
100
AcDbEntity
  8
0
100
AcDbBlockBegin
  2
*Paper_Space0
 70
     0
 10
0.0
 20
0.0
 30
0.0
  3
*Paper_Space0
  1

  0
ENDBLK
  5
25
330
23
100
AcDbEntity
  8
0
100
AcDbBlockEnd
  0
BLOCK
  5
89
330
87
100
AcDbEntity
  8
0
100
AcDbBlockBegin
  2
GENAXEH
 70
     0
 10
0.0
 20
0.0
 30
0.0
  3
GENAXEH
  1

  0
LINE
  5
88
330
87
100
AcDbEntity
  8
0
100
AcDbLine
 10
-1.0
 20
0.0
 30
0.0
 11
1.0
 21
0.0
 31
0.0
  0
ENDBLK
  5
8A
330
87
100
AcDbEntity
  8
0
100
AcDbBlockEnd
  0
BLOCK
  5
1639
330
162F
100
AcDbEntity
  8
0
100
AcDbBlockBegin
  2
*D3
 70
     1
 10
0.0
 20
0.0
 30
0.0
  3
*D3
  1

  0
LINE
  5
28F1
330
162F
100
AcDbEntity
  8
AM_5
100
AcDbLine
 10
3364.321295473386
 20
1311.226660968321
 30
0.0
 11
3364.321295473386
 21
1257.506759437788
 31
0.0
  0
LINE
  5
28F2
330
162F
100
AcDbEntity
  8
AM_5
100
AcDbLine
 10
3494.321295473387
 20
1310.680457411632
 30
0.0
 11
3494.321295473387
 21
1257.506759437788
 31
0.0
  0
LINE
  5
28F3
330
162F
100
AcDbEntity
  8
AM_5
100
AcDbLine
 10
3384.321295473387
 20
1261.506759437788
 30
0.0
 11
3474.321295473386
 21
1261.506759437788
 31
0.0
  0
SOLID
  5
28F4
330
162F
100
AcDbEntity
  8
AM_5
100
AcDbTrace
 10
3384.321295473387
 20
1264.840092771122
 30
0.0
 11
3384.321295473387
 21
1258.173426104455
 31
0.0
 12
3364.321295473386
 22
1261.506759437788
 32
0.0
 13
3364.321295473386
 23
1261.506759437788
 33
0.0
  0
SOLID
  5
28F5
330
162F
100
AcDbEntity
  8
AM_5
100
AcDbTrace
 10
3474.321295473386
 20
1264.840092771122
 30
0.0
 11
3474.321295473386
 21
1258.173426104455
 31
0.0
 12
3494.321295473387
 22
1261.506759437788
 32
0.0
 13
3494.321295473387
 23
1261.506759437788
 33
0.0
  0
MTEXT
  5
28F6
330
162F
100
AcDbEntity
  8
AM_5
100
AcDbMText
 10
3429.321295473386
 20
1277.506759437788
 30
0.0
 40
20.0
 41
0.0
 71
     5
 72
     1
  1
\A2;130
 73
     1
 44
1.0
1001
ACAD
1000
MTEXTBEGIN
1070
    73
1070
     1
1070
    44
1040
1.0
1070
    74
1070
     0
1000
MTEXTEND
  0
POINT
  5
28F7
330
162F
100
AcDbEntity
  8
Defpoints
 62
     0
100
AcDbPoint
 10
3364.321295473386
 20
1314.226660968321
 30
0.0
  0
POINT
  5
28F8
330
162F
100
AcDbEntity
  8
Defpoints
 62
     0
100
AcDbPoint
 10
3494.321295473387
 20
1313.680457411632
 30
0.0
  0
POINT
  5
28F9
330
162F
100
AcDbEntity
  8
Defpoints
 62
     0
100
AcDbPoint
 10
3494.321295473387
 20
1261.506759437788
 30
0.0
  0
ENDBLK
  5
163A
330
162F
100
AcDbEntity
  8
0
100
AcDbBlockEnd
  0
BLOCK
  5
1645
330
163B
100
AcDbEntity
  8
0
100
AcDbBlockBegin
  2
*D4
 70
     1
 10
0.0
 20
0.0
 30
0.0
  3
*D4
  1

  0
LINE
  5
2F3C
330
163B
100
AcDbEntity
  8
AM_5
100
AcDbLine
 10
3354.321295473386
 20
1318.506759437788
 30
0.0
 11
3354.321295473386
 21
1207.506759437789
 31
0.0
  0
LINE
  5
2F3D
330
163B
100
AcDbEntity
  8
AM_5
100
AcDbLine
 10
3504.321295473386
 20
1318.506759437788
 30
0.0
 11
3504.321295473386
 21
1207.506759437789
 31
0.0
  0
LINE
  5
2F3E
330
163B
100
AcDbEntity
  8
AM_5
100
AcDbLine
 10
3374.321295473386
 20
1211.506759437789
 30
0.0
 11
3484.321295473387
 21
1211.506759437789
 31
0.0
  0
SOLID
  5
2F3F
330
163B
100
AcDbEntity
  8
AM_5
100
AcDbTrace
 10
3374.321295473386
 20
1214.840092771122
 30
0.0
 11
3374.321295473386
 21
1208.173426104456
 31
0.0
 12
3354.321295473386
 22
1211.506759437789
 32
0.0
 13
3354.321295473386
 23
1211.506759437789
 33
0.0
  0
SOLID
  5
2F40
330
163B
100
AcDbEntity
  8
AM_5
100
AcDbTrace
 10
3484.321295473387
 20
1214.840092771122
 30
0.0
 11
3484.321295473387
 21
1208.173426104456
 31
0.0
 12
3504.321295473386
 22
1211.506759437789
 32
0.0
 13
3504.321295473386
 23
1211.506759437789
 33
0.0
  0
MTEXT
  5
2F41
330
163B
100
AcDbEntity
  8
AM_5
100
AcDbMText
 10
3429.321295473386
 20
1227.506759437789
 30
0.0
 40
20.0
 41
0.0
 71
     5
 72
     1
  1
\A2;150
 73
     1
 44
1.0
1001
ACAD
1000
MTEXTBEGIN
1070
    73
1070
     1
1070
    44
1040
1.0
1070
    74
1070
     0
1000
MTEXTEND
  0
POINT
  5
2F42
330
163B
100
AcDbEntity
  8
Defpoints
 62
     0
100
AcDbPoint
 10
3354.321295473386
 20
1321.506759437788
 30
0.0
  0
POINT
  5
2F43
330
163B
100
AcDbEntity
  8
Defpoints
 62
     0
100
AcDbPoint
 10
3504.321295473386
 20
1321.506759437788
 30
0.0
  0
POINT
  5
2F44
330
163B
100
AcDbEntity
  8
Defpoints
 62
     0
100
AcDbPoint
 10
3504.321295473386
 20
1211.506759437789
 30
0.0
  0
ENDBLK
  5
1646
330
163B
100
AcDbEntity
  8
0
100
AcDbBlockEnd
  0
BLOCK
  5
1694
330
1688
100
AcDbEntity
  8
0
100
AcDbBlockBegin
  2
*D5
 70
     1
 10
0.0
 20
0.0
 30
0.0
  3
*D5
  1

  0
LINE
  5
2903
330
1688
100
AcDbEntity
  8
AM_5
100
AcDbLine
 10
3957.907128551609
 20
1307.286654450969
 30
0.0
 11
3957.907128551609
 21
1257.506759437789
 31
0.0
  0
LINE
  5
2904
330
1688
100
AcDbEntity
  8
AM_5
100
AcDbLine
 10
3997.907128551609
 20
1306.973891910803
 30
0.0
 11
3997.907128551609
 21
1257.506759437789
 31
0.0
  0
LINE
  5
2905
330
1688
100
AcDbEntity
  8
AM_5
100
AcDbLine
 10
3937.907128551609
 20
1261.506759437789
 30
0.0
 11
3917.90712855161
 21
1261.506759437789
 31
0.0
  0
LINE
  5
2906
330
1688
100
AcDbEntity
  8
AM_5
100
AcDbLine
 10
4017.907128551609
 20
1261.506759437789
 30
0.0
 11
4037.907128551609
 21
1261.506759437789
 31
0.0
  0
LINE
  5
2907
330
1688
100
AcDbEntity
  8
AM_5
100
AcDbLine
 10
3957.907128551609
 20
1261.506759437789
 30
0.0
 11
3997.907128551609
 21
1261.506759437789
 31
0.0
  0
SOLID
  5
2908
330
1688
100
AcDbEntity
  8
AM_5
100
AcDbTrace
 10
3937.907128551609
 20
1264.840092771122
 30
0.0
 11
3937.907128551609
 21
1258.173426104456
 31
0.0
 12
3957.907128551609
 22
1261.506759437789
 32
0.0
 13
3957.907128551609
 23
1261.506759437789
 33
0.0
  0
SOLID
  5
2909
330
1688
100
AcDbEntity
  8
AM_5
100
AcDbTrace
 10
4017.907128551609
 20
1264.840092771122
 30
0.0
 11
4017.907128551609
 21
1258.173426104456
 31
0.0
 12
3997.907128551609
 22
1261.506759437789
 32
0.0
 13
3997.907128551609
 23
1261.506759437789
 33
0.0
  0
MTEXT
  5
290A
330
1688
100
AcDbEntity
  8
AM_5
100
AcDbMText
 10
3977.90712855161
 20
1277.506759437789
 30
0.0
 40
20.0
 41
0.0
 71
     5
 72
     1
  1
\A2;40
 73
     1
 44
1.0
1001
ACAD
1000
MTEXTBEGIN
1070
    73
1070
     1
1070
    44
1040
1.0
1070
    74
1070
     0
1000
MTEXTEND
  0
POINT
  5
290B
330
1688
100
AcDbEntity
  8
Defpoints
 62
     0
100
AcDbPoint
 10
3957.907128551609
 20
1310.286654450969
 30
0.0
  0
POINT
  5
290C
330
1688
100
AcDbEntity
  8
Defpoints
 62
     0
100
AcDbPoint
 10
3997.907128551609
 20
1309.973891910803
 30
0.0
  0
POINT
  5
290D
330
1688
100
AcDbEntity
  8
Defpoints
 62
     0
100
AcDbPoint
 10
3997.907128551609
 20
1261.506759437789
 30
0.0
  0
ENDBLK
  5
1695
330
1688
100
AcDbEntity
  8
0
100
AcDbBlockEnd
  0
BLOCK
  5
16A0
330
1696
100
AcDbEntity
  8
0
100
AcDbBlockBegin
  2
*D6
 70
     1
 10
0.0
 20
0.0
 30
0.0
  3
*D6
  1

  0
LINE
  5
290E
330
1696
100
AcDbEntity
  8
AM_5
100
AcDbLine
 10
3792.90712855161
 20
1318.506759437788
 30
0.0
 11
3792.90712855161
 21
1257.506759437789
 31
0.0
  0
LINE
  5
290F
330
1696
100
AcDbEntity
  8
AM_5
100
AcDbLine
 10
3867.90712855161
 20
1307.518899630477
 30
0.0
 11
3867.90712855161
 21
1257.506759437789
 31
0.0
  0
LINE
  5
2910
330
1696
100
AcDbEntity
  8
AM_5
100
AcDbLine
 10
3812.907128551609
 20
1261.506759437789
 30
0.0
 11
3847.907128551609
 21
1261.506759437789
 31
0.0
  0
SOLID
  5
2911
330
1696
100
AcDbEntity
  8
AM_5
100
AcDbTrace
 10
3812.907128551609
 20
1264.840092771122
 30
0.0
 11
3812.907128551609
 21
1258.173426104456
 31
0.0
 12
3792.90712855161
 22
1261.506759437789
 32
0.0
 13
3792.90712855161
 23
1261.506759437789
 33
0.0
  0
SOLID
  5
2912
330
1696
100
AcDbEntity
  8
AM_5
100
AcDbTrace
 10
3847.907128551609
 20
1264.840092771122
 30
0.0
 11
3847.907128551609
 21
1258.173426104456
 31
0.0
 12
3867.90712855161
 22
1261.506759437789
 32
0.0
 13
3867.90712855161
 23
1261.506759437789
 33
0.0
  0
MTEXT
  5
2913
330
1696
100
AcDbEntity
  8
AM_5
100
AcDbMText
 10
3830.407128551609
 20
1277.506759437789
 30
0.0
 40
20.0
 41
0.0
 71
     5
 72
     1
  1
\A2;75
 73
     1
 44
1.0
1001
ACAD
1000
MTEXTBEGIN
1070
    73
1070
     1
1070
    44
1040
1.0
1070
    74
1070
     0
1000
MTEXTEND
  0
POINT
  5
2914
330
1696
100
AcDbEntity
  8
Defpoints
 62
     0
100
AcDbPoint
 10
3792.90712855161
 20
1321.506759437788
 30
0.0
  0
POINT
  5
2915
330
1696
100
AcDbEntity
  8
Defpoints
 62
     0
100
AcDbPoint
 10
3867.90712855161
 20
1310.518899630477
 30
0.0
  0
POINT
  5
2916
330
1696
100
AcDbEntity
  8
Defpoints
 62
     0
100
AcDbPoint
 10
3867.90712855161
 20
1261.506759437789
 30
0.0
  0
ENDBLK
  5
16A1
330
1696
100
AcDbEntity
  8
0
100
AcDbBlockEnd
  0
BLOCK
  5
16AC
330
16A2
100
AcDbEntity
  8
0
100
AcDbBlockBegin
  2
*D7
 70
     1
 10
0.0
 20
0.0
 30
0.0
  3
*D7
  1

  0
LINE
  5
2917
330
16A2
100
AcDbEntity
  8
AM_5
100
AcDbLine
 10
3867.90712855161
 20
1307.518899630477
 30
0.0
 11
3867.90712855161
 21
1257.506759437789
 31
0.0
  0
LINE
  5
2918
330
16A2
100
AcDbEntity
  8
AM_5
100
AcDbLine
 10
3957.907128551609
 20
1307.286654450969
 30
0.0
 11
3957.907128551609
 21
1257.506759437789
 31
0.0
  0
LINE
  5
2919
330
16A2
100
AcDbEntity
  8
AM_5
100
AcDbLine
 10
3887.907128551609
 20
1261.506759437789
 30
0.0
 11
3937.907128551609
 21
1261.506759437789
 31
0.0
  0
SOLID
  5
291A
330
16A2
100
AcDbEntity
  8
AM_5
100
AcDbTrace
 10
3887.907128551609
 20
1264.840092771122
 30
0.0
 11
3887.907128551609
 21
1258.173426104456
 31
0.0
 12
3867.90712855161
 22
1261.506759437789
 32
0.0
 13
3867.90712855161
 23
1261.506759437789
 33
0.0
  0
SOLID
  5
291B
330
16A2
100
AcDbEntity
  8
AM_5
100
AcDbTrace
 10
3937.907128551609
 20
1264.840092771122
 30
0.0
 11
3937.907128551609
 21
1258.173426104456
 31
0.0
 12
3957.907128551609
 22
1261.506759437789
 32
0.0
 13
3957.907128551609
 23
1261.506759437789
 33
0.0
  0
MTEXT
  5
291C
330
16A2
100
AcDbEntity
  8
AM_5
100
AcDbMText
 10
3912.907128551609
 20
1277.506759437789
 30
0.0
 40
20.0
 41
0.0
 71
     5
 72
     1
  1
\A2;90
 73
     1
 44
1.0
1001
ACAD
1000
MTEXTBEGIN
1070
    73
1070
     1
1070
    44
1040
1.0
1070
    74
1070
     0
1000
MTEXTEND
  0
POINT
  5
291D
330
16A2
100
AcDbEntity
  8
Defpoints
 62
     0
100
AcDbPoint
 10
3867.90712855161
 20
1310.518899630477
 30
0.0
  0
POINT
  5
291E
330
16A2
100
AcDbEntity
  8
Defpoints
 62
     0
100
AcDbPoint
 10
3957.907128551609
 20
1310.286654450969
 30
0.0
  0
POINT
  5
291F
330
16A2
100
AcDbEntity
  8
Defpoints
 62
     0
100
AcDbPoint
 10
3957.907128551609
 20
1261.506759437789
 30
0.0
  0
ENDBLK
  5
16AD
330
16A2
100
AcDbEntity
  8
0
100
AcDbBlockEnd
  0
BLOCK
  5
16B8
330
16AE
100
AcDbEntity
  8
0
100
AcDbBlockBegin
  2
*D8
 70
     1
 10
0.0
 20
0.0
 30
0.0
  3
*D8
  1

  0
LINE
  5
2920
330
16AE
100
AcDbEntity
  8
AM_5
100
AcDbLine
 10
3997.907128551609
 20
1306.286654450969
 30
0.0
 11
3997.907128551609
 21
1257.506759437789
 31
0.0
  0
LINE
  5
2921
330
16AE
100
AcDbEntity
  8
AM_5
100
AcDbLine
 10
4052.907128551609
 20
1318.506759437788
 30
0.0
 11
4052.907128551609
 21
1257.506759437789
 31
0.0
  0
LINE
  5
2922
330
16AE
100
AcDbEntity
  8
AM_5
100
AcDbLine
 10
4017.907128551609
 20
1261.506759437789
 30
0.0
 11
4032.907128551609
 21
1261.506759437789
 31
0.0
  0
SOLID
  5
2923
330
16AE
100
AcDbEntity
  8
AM_5
100
AcDbTrace
 10
4017.907128551609
 20
1264.840092771122
 30
0.0
 11
4017.907128551609
 21
1258.173426104456
 31
0.0
 12
3997.907128551609
 22
1261.506759437789
 32
0.0
 13
3997.907128551609
 23
1261.506759437789
 33
0.0
  0
SOLID
  5
2924
330
16AE
100
AcDbEntity
  8
AM_5
100
AcDbTrace
 10
4032.907128551609
 20
1264.840092771122
 30
0.0
 11
4032.907128551609
 21
1258.173426104456
 31
0.0
 12
4052.907128551609
 22
1261.506759437789
 32
0.0
 13
4052.907128551609
 23
1261.506759437789
 33
0.0
  0
MTEXT
  5
2925
330
16AE
100
AcDbEntity
  8
AM_5
100
AcDbMText
 10
4025.407128551608
 20
1277.506759437789
 30
0.0
 40
20.0
 41
0.0
 71
     5
 72
     1
  1
\A2;55
 73
     1
 44
1.0
1001
ACAD
1000
MTEXTBEGIN
1070
    73
1070
     1
1070
    44
1040
1.0
1070
    74
1070
     0
1000
MTEXTEND
  0
POINT
  5
2926
330
16AE
100
AcDbEntity
  8
Defpoints
 62
     0
100
AcDbPoint
 10
3997.907128551609
 20
1309.286654450969
 30
0.0
  0
POINT
  5
2927
330
16AE
100
AcDbEntity
  8
Defpoints
 62
     0
100
AcDbPoint
 10
4052.907128551609
 20
1321.506759437788
 30
0.0
  0
POINT
  5
2928
330
16AE
100
AcDbEntity
  8
Defpoints
 62
     0
100
AcDbPoint
 10
4052.907128551609
 20
1261.506759437789
 30
0.0
  0
ENDBLK
  5
16B9
330
16AE
100
AcDbEntity
  8
0
100
AcDbBlockEnd
  0
BLOCK
  5
16C4
330
16BA
100
AcDbEntity
  8
0
100
AcDbBlockBegin
  2
*D9
 70
     1
 10
0.0
 20
0.0
 30
0.0
  3
*D9
  1

  0
LINE
  5
2B38
330
16BA
100
AcDbEntity
  8
AM_5
100
AcDbLine
 10
3792.90712855161
 20
1318.506759437788
 30
0.0
 11
3792.90712855161
 21
1207.506759437789
 31
0.0
  0
LINE
  5
2B39
330
16BA
100
AcDbEntity
  8
AM_5
100
AcDbLine
 10
4052.907128551609
 20
1318.506759437788
 30
0.0
 11
4052.907128551609
 21
1207.506759437789
 31
0.0
  0
LINE
  5
2B3A
330
16BA
100
AcDbEntity
  8
AM_5
100
AcDbLine
 10
3812.907128551609
 20
1211.506759437789
 30
0.0
 11
4032.90712855161
 21
1211.506759437789
 31
0.0
  0
SOLID
  5
2B3B
330
16BA
100
AcDbEntity
  8
AM_5
100
AcDbTrace
 10
3812.907128551609
 20
1214.840092771122
 30
0.0
 11
3812.907128551609
 21
1208.173426104456
 31
0.0
 12
3792.90712855161
 22
1211.506759437789
 32
0.0
 13
3792.90712855161
 23
1211.506759437789
 33
0.0
  0
SOLID
  5
2B3C
330
16BA
100
AcDbEntity
  8
AM_5
100
AcDbTrace
 10
4032.90712855161
 20
1214.840092771122
 30
0.0
 11
4032.90712855161
 21
1208.173426104456
 31
0.0
 12
4052.907128551609
 22
1211.506759437789
 32
0.0
 13
4052.907128551609
 23
1211.506759437789
 33
0.0
  0
MTEXT
  5
2B3D
330
16BA
100
AcDbEntity
  8
AM_5
100
AcDbMText
 10
3922.907128551609
 20
1227.508727941726
 30
0.0
 40
20.0
 41
0.0
 71
     5
 72
     1
  1
\A2;260
 73
     1
 44
1.0
1001
ACAD
1000
MTEXTBEGIN
1070
    73
1070
     1
1070
    44
1040
1.0
1070
    74
1070
     0
1000
MTEXTEND
  0
POINT
  5
2B3E
330
16BA
100
AcDbEntity
  8
Defpoints
 62
     0
100
AcDbPoint
 10
3792.90712855161
 20
1321.506759437788
 30
0.0
  0
POINT
  5
2B3F
330
16BA
100
AcDbEntity
  8
Defpoints
 62
     0
100
AcDbPoint
 10
4052.907128551609
 20
1321.506759437788
 30
0.0
  0
POINT
  5
2B40
330
16BA
100
AcDbEntity
  8
Defpoints
 62
     0
100
AcDbPoint
 10
4052.907128551609
 20
1211.506759437789
 30
0.0
  0
ENDBLK
  5
16C5
330
16BA
100
AcDbEntity
  8
0
100
AcDbBlockEnd
  0
BLOCK
  5
1708
330
16FE
100
AcDbEntity
  8
0
100
AcDbBlockBegin
  2
*D10
 70
     1
 10
0.0
 20
0.0
 30
0.0
  3
*D10
  1

  0
LINE
  5
2B68
330
16FE
100
AcDbEntity
  8
AM_5
100
AcDbLine
 10
4055.907128551608
 20
1642.795718805293
 30
0.0
 11
4116.907128551609
 21
1642.795718805293
 31
0.0
  0
LINE
  5
2B69
330
16FE
100
AcDbEntity
  8
AM_5
100
AcDbLine
 10
4055.907128551608
 20
1582.795718805293
 30
0.0
 11
4116.907128551609
 21
1582.795718805293
 31
0.0
  0
LINE
  5
2B6A
330
16FE
100
AcDbEntity
  8
AM_5
100
AcDbLine
 10
4112.907128551609
 20
1622.795718805293
 30
0.0
 11
4112.907128551609
 21
1602.795718805293
 31
0.0
  0
SOLID
  5
2B6B
330
16FE
100
AcDbEntity
  8
AM_5
100
AcDbTrace
 10
4109.573795218277
 20
1622.795718805293
 30
0.0
 11
4116.240461884942
 21
1622.795718805293
 31
0.0
 12
4112.907128551609
 22
1642.795718805293
 32
0.0
 13
4112.907128551609
 23
1642.795718805293
 33
0.0
  0
SOLID
  5
2B6C
330
16FE
100
AcDbEntity
  8
AM_5
100
AcDbTrace
 10
4109.573795218277
 20
1602.795718805293
 30
0.0
 11
4116.240461884942
 21
1602.795718805293
 31
0.0
 12
4112.907128551609
 22
1582.795718805293
 32
0.0
 13
4112.907128551609
 23
1582.795718805293
 33
0.0
  0
MTEXT
  5
2B6D
330
16FE
100
AcDbEntity
  8
AM_5
100
AcDbMText
 10
4096.907128551609
 20
1612.795718805294
 30
0.0
 40
20.0
 41
0.0
 71
     5
 72
     1
  1
\A2;60
 11
0.0000000000000001
 21
1.0
 31
0.0
 73
     1
 44
1.0
1001
ACAD
1000
MTEXTBEGIN
1070
    73
1070
     1
1070
    44
1040
1.0
1070
    74
1070
     0
1000
MTEXTEND
  0
POINT
  5
2B6E
330
16FE
100
AcDbEntity
  8
Defpoints
 62
     0
100
AcDbPoint
 10
4052.907128551608
 20
1642.795718805293
 30
0.0
  0
POINT
  5
2B6F
330
16FE
100
AcDbEntity
  8
Defpoints
 62
     0
100
AcDbPoint
 10
4052.907128551608
 20
1582.795718805293
 30
0.0
  0
POINT
  5
2B70
330
16FE
100
AcDbEntity
  8
Defpoints
 62
     0
100
AcDbPoint
 10
4112.907128551609
 20
1582.795718805293
 30
0.0
  0
ENDBLK
  5
1709
330
16FE
100
AcDbEntity
  8
0
100
AcDbBlockEnd
  0
BLOCK
  5
1714
330
170A
100
AcDbEntity
  8
0
100
AcDbBlockBegin
  2
*D11
 70
     1
 10
0.0
 20
0.0
 30
0.0
  3
*D11
  1

  0
LINE
  5
2B5F
330
170A
100
AcDbEntity
  8
AM_5
100
AcDbLine
 10
4055.907128551608
 20
1321.506759437788
 30
0.0
 11
4166.907128551609
 21
1321.506759437788
 31
0.0
  0
LINE
  5
2B60
330
170A
100
AcDbEntity
  8
AM_5
100
AcDbLine
 10
4024.407128551609
 20
1671.506759437788
 30
0.0
 11
4166.907128551609
 21
1671.506759437788
 31
0.0
  0
LINE
  5
2B61
330
170A
100
AcDbEntity
  8
AM_5
100
AcDbLine
 10
4162.907128551609
 20
1341.506759437788
 30
0.0
 11
4162.907128551609
 21
1651.506759437788
 31
0.0
  0
SOLID
  5
2B62
330
170A
100
AcDbEntity
  8
AM_5
100
AcDbTrace
 10
4159.573795218276
 20
1341.506759437788
 30
0.0
 11
4166.240461884942
 21
1341.506759437788
 31
0.0
 12
4162.907128551609
 22
1321.506759437788
 32
0.0
 13
4162.907128551609
 23
1321.506759437788
 33
0.0
  0
SOLID
  5
2B63
330
170A
100
AcDbEntity
  8
AM_5
100
AcDbTrace
 10
4159.573795218276
 20
1651.506759437788
 30
0.0
 11
4166.240461884942
 21
1651.506759437788
 31
0.0
 12
4162.907128551609
 22
1671.506759437788
 32
0.0
 13
4162.907128551609
 23
1671.506759437788
 33
0.0
  0
MTEXT
  5
2B64
330
170A
100
AcDbEntity
  8
AM_5
100
AcDbMText
 10
4146.907128551609
 20
1496.506759437789
 30
0.0
 40
20.0
 41
0.0
 71
     5
 72
     1
  1
\A2;350
 11
0.0000000000000001
 21
1.0
 31
0.0
 73
     1
 44
1.0
1001
ACAD
1000
MTEXTBEGIN
1070
    73
1070
     1
1070
    44
1040
1.0
1070
    74
1070
     0
1000
MTEXTEND
  0
POINT
  5
2B65
330
170A
100
AcDbEntity
  8
Defpoints
 62
     0
100
AcDbPoint
 10
4052.907128551609
 20
1321.506759437788
 30
0.0
  0
POINT
  5
2B66
330
170A
100
AcDbEntity
  8
Defpoints
 62
     0
100
AcDbPoint
 10
4021.407128551609
 20
1671.506759437788
 30
0.0
  0
POINT
  5
2B67
330
170A
100
AcDbEntity
  8
Defpoints
 62
     0
100
AcDbPoint
 10
4162.907128551609
 20
1671.506759437788
 30
0.0
  0
ENDBLK
  5
1715
330
170A
100
AcDbEntity
  8
0
100
AcDbBlockEnd
  0
BLOCK
  5
1720
330
1716
100
AcDbEntity
  8
0
100
AcDbBlockBegin
  2
*D12
 70
     1
 10
0.0
 20
0.0
 30
0.0
  3
*D12
  1

  0
LINE
  5
2B77
330
1716
100
AcDbEntity
  8
AM_5
100
AcDbLine
 10
4055.907128551608
 20
1321.506759437788
 30
0.0
 11
4116.907128551609
 21
1321.506759437788
 31
0.0
  0
LINE
  5
2B78
330
1716
100
AcDbEntity
  8
AM_5
100
AcDbLine
 10
4055.907128551608
 20
1381.506759437789
 30
0.0
 11
4116.907128551609
 21
1381.506759437789
 31
0.0
  0
LINE
  5
2B79
330
1716
100
AcDbEntity
  8
AM_5
100
AcDbLine
 10
4112.907128551609
 20
1341.506759437788
 30
0.0
 11
4112.907128551609
 21
1361.506759437789
 31
0.0
  0
SOLID
  5
2B7A
330
1716
100
AcDbEntity
  8
AM_5
100
AcDbTrace
 10
4109.573795218277
 20
1341.506759437788
 30
0.0
 11
4116.240461884942
 21
1341.506759437788
 31
0.0
 12
4112.907128551609
 22
1321.506759437788
 32
0.0
 13
4112.907128551609
 23
1321.506759437788
 33
0.0
  0
SOLID
  5
2B7B
330
1716
100
AcDbEntity
  8
AM_5
100
AcDbTrace
 10
4109.573795218277
 20
1361.506759437789
 30
0.0
 11
4116.240461884942
 21
1361.506759437789
 31
0.0
 12
4112.907128551609
 22
1381.506759437789
 32
0.0
 13
4112.907128551609
 23
1381.506759437789
 33
0.0
  0
MTEXT
  5
2B7C
330
1716
100
AcDbEntity
  8
AM_5
100
AcDbMText
 10
4096.907128551609
 20
1351.506759437789
 30
0.0
 40
20.0
 41
0.0
 71
     5
 72
     1
  1
\A2;60
 11
0.0000000000000001
 21
1.0
 31
0.0
 73
     1
 44
1.0
1001
ACAD
1000
MTEXTBEGIN
1070
    73
1070
     1
1070
    44
1040
1.0
1070
    74
1070
     0
1000
MTEXTEND
  0
POINT
  5
2B7D
330
1716
100
AcDbEntity
  8
Defpoints
 62
     0
100
AcDbPoint
 10
4052.907128551609
 20
1321.506759437788
 30
0.0
  0
POINT
  5
2B7E
330
1716
100
AcDbEntity
  8
Defpoints
 62
     0
100
AcDbPoint
 10
4052.907128551609
 20
1381.506759437789
 30
0.0
  0
POINT
  5
2B7F
330
1716
100
AcDbEntity
  8
Defpoints
 62
     0
100
AcDbPoint
 10
4112.907128551609
 20
1381.506759437789
 30
0.0
  0
ENDBLK
  5
1721
330
1716
100
AcDbEntity
  8
0
100
AcDbBlockEnd
  0
BLOCK
  5
1753
330
1749
100
AcDbEntity
  8
0
100
AcDbBlockBegin
  2
*D13
 70
     1
 10
0.0
 20
0.0
 30
0.0
  3
*D13
  1

  0
LINE
  5
294D
330
1749
100
AcDbEntity
  8
AM_5
100
AcDbLine
 10
3844.407128551609
 20
1532.795718805293
 30
0.0
 11
3728.90712855161
 21
1532.795718805293
 31
0.0
  0
LINE
  5
294E
330
1749
100
AcDbEntity
  8
AM_5
100
AcDbLine
 10
3814.90712855161
 20
1642.795718805293
 30
0.0
 11
3728.90712855161
 21
1642.795718805293
 31
0.0
  0
LINE
  5
294F
330
1749
100
AcDbEntity
  8
AM_5
100
AcDbLine
 10
3732.907128551609
 20
1552.795718805293
 30
0.0
 11
3732.907128551609
 21
1622.795718805293
 31
0.0
  0
SOLID
  5
2950
330
1749
100
AcDbEntity
  8
AM_5
100
AcDbTrace
 10
3729.573795218276
 20
1552.795718805293
 30
0.0
 11
3736.240461884943
 21
1552.795718805293
 31
0.0
 12
3732.907128551609
 22
1532.795718805293
 32
0.0
 13
3732.907128551609
 23
1532.795718805293
 33
0.0
  0
SOLID
  5
2951
330
1749
100
AcDbEntity
  8
AM_5
100
AcDbTrace
 10
3729.573795218276
 20
1622.795718805293
 30
0.0
 11
3736.240461884943
 21
1622.795718805293
 31
0.0
 12
3732.907128551609
 22
1642.795718805293
 32
0.0
 13
3732.907128551609
 23
1642.795718805293
 33
0.0
  0
MTEXT
  5
2952
330
1749
100
AcDbEntity
  8
AM_5
100
AcDbMText
 10
3716.907128551609
 20
1587.795718805294
 30
0.0
 40
20.0
 41
0.0
 71
     5
 72
     1
  1
\A2;110
 11
0.0000000000000001
 21
1.0
 31
0.0
 73
     1
 44
1.0
1001
ACAD
1000
MTEXTBEGIN
1070
    73
1070
     1
1070
    44
1040
1.0
1070
    74
1070
     0
1000
MTEXTEND
  0
POINT
  5
2953
330
1749
100
AcDbEntity
  8
Defpoints
 62
     0
100
AcDbPoint
 10
3847.407128551609
 20
1532.795718805293
 30
0.0
  0
POINT
  5
2954
330
1749
100
AcDbEntity
  8
Defpoints
 62
     0
100
AcDbPoint
 10
3817.90712855161
 20
1642.795718805293
 30
0.0
  0
POINT
  5
2955
330
1749
100
AcDbEntity
  8
Defpoints
 62
     0
100
AcDbPoint
 10
3732.907128551609
 20
1642.795718805293
 30
0.0
  0
ENDBLK
  5
1754
330
1749
100
AcDbEntity
  8
0
100
AcDbBlockEnd
  0
BLOCK
  5
175F
330
1755
100
AcDbEntity
  8
0
100
AcDbBlockBegin
  2
*D14
 70
     1
 10
0.0
 20
0.0
 30
0.0
  3
*D14
  1

  0
LINE
  5
2956
330
1755
100
AcDbEntity
  8
AM_5
100
AcDbLine
 10
3814.90712855161
 20
1642.795718805293
 30
0.0
 11
3728.90712855161
 21
1642.795718805293
 31
0.0
  0
LINE
  5
2957
330
1755
100
AcDbEntity
  8
AM_5
100
AcDbLine
 10
3840.28837822667
 20
1943.795718805293
 30
0.0
 11
3728.90712855161
 21
1943.795718805293
 31
0.0
  0
LINE
  5
2958
330
1755
100
AcDbEntity
  8
AM_5
100
AcDbLine
 10
3732.907128551609
 20
1662.795718805293
 30
0.0
 11
3732.907128551609
 21
1923.795718805293
 31
0.0
  0
SOLID
  5
2959
330
1755
100
AcDbEntity
  8
AM_5
100
AcDbTrace
 10
3729.573795218276
 20
1662.795718805293
 30
0.0
 11
3736.240461884943
 21
1662.795718805293
 31
0.0
 12
3732.907128551609
 22
1642.795718805293
 32
0.0
 13
3732.907128551609
 23
1642.795718805293
 33
0.0
  0
SOLID
  5
295A
330
1755
100
AcDbEntity
  8
AM_5
100
AcDbTrace
 10
3729.573795218276
 20
1923.795718805293
 30
0.0
 11
3736.240461884943
 21
1923.795718805293
 31
0.0
 12
3732.907128551609
 22
1943.795718805293
 32
0.0
 13
3732.907128551609
 23
1943.795718805293
 33
0.0
  0
MTEXT
  5
295B
330
1755
100
AcDbEntity
  8
AM_5
100
AcDbMText
 10
3716.907128551609
 20
1793.295718805294
 30
0.0
 40
20.0
 41
0.0
 71
     5
 72
     1
  1
\A2;301
 11
0.0000000000000001
 21
1.0
 31
0.0
 73
     1
 44
1.0
1001
ACAD
1000
MTEXTBEGIN
1070
    73
1070
     1
1070
    44
1040
1.0
1070
    74
1070
     0
1000
MTEXTEND
  0
POINT
  5
295C
330
1755
100
AcDbEntity
  8
Defpoints
 62
     0
100
AcDbPoint
 10
3817.90712855161
 20
1642.795718805293
 30
0.0
  0
POINT
  5
295D
330
1755
100
AcDbEntity
  8
Defpoints
 62
     0
100
AcDbPoint
 10
3843.288378226671
 20
1943.795718805293
 30
0.0
  0
POINT
  5
295E
330
1755
100
AcDbEntity
  8
Defpoints
 62
     0
100
AcDbPoint
 10
3732.907128551609
 20
1943.795718805293
 30
0.0
  0
ENDBLK
  5
1760
330
1755
100
AcDbEntity
  8
0
100
AcDbBlockEnd
  0
BLOCK
  5
176B
330
1761
100
AcDbEntity
  8
0
100
AcDbBlockBegin
  2
*D15
 70
     1
 10
0.0
 20
0.0
 30
0.0
  3
*D15
  1

  0
LINE
  5
295F
330
1761
100
AcDbEntity
  8
AM_5
100
AcDbLine
 10
3789.90712855161
 20
1321.506759437788
 30
0.0
 11
3728.90712855161
 21
1321.506759437788
 31
0.0
  0
LINE
  5
2960
330
1761
100
AcDbEntity
  8
AM_5
100
AcDbLine
 10
3794.907128551609
 20
1381.506759437789
 30
0.0
 11
3728.90712855161
 21
1381.506759437789
 31
0.0
  0
LINE
  5
2961
330
1761
100
AcDbEntity
  8
AM_5
100
AcDbLine
 10
3732.907128551609
 20
1341.506759437788
 30
0.0
 11
3732.907128551609
 21
1361.506759437788
 31
0.0
  0
SOLID
  5
2962
330
1761
100
AcDbEntity
  8
AM_5
100
AcDbTrace
 10
3729.573795218276
 20
1341.506759437788
 30
0.0
 11
3736.240461884943
 21
1341.506759437788
 31
0.0
 12
3732.907128551609
 22
1321.506759437788
 32
0.0
 13
3732.907128551609
 23
1321.506759437788
 33
0.0
  0
SOLID
  5
2963
330
1761
100
AcDbEntity
  8
AM_5
100
AcDbTrace
 10
3729.573795218276
 20
1361.506759437788
 30
0.0
 11
3736.240461884943
 21
1361.506759437788
 31
0.0
 12
3732.907128551609
 22
1381.506759437789
 32
0.0
 13
3732.907128551609
 23
1381.506759437789
 33
0.0
  0
MTEXT
  5
2964
330
1761
100
AcDbEntity
  8
AM_5
100
AcDbMText
 10
3716.907128551609
 20
1351.506759437789
 30
0.0
 40
20.0
 41
0.0
 71
     5
 72
     1
  1
\A2;60
 11
0.0000000000000001
 21
1.0
 31
0.0
 73
     1
 44
1.0
1001
ACAD
1000
MTEXTBEGIN
1070
    73
1070
     1
1070
    44
1040
1.0
1070
    74
1070
     0
1000
MTEXTEND
  0
POINT
  5
2965
330
1761
100
AcDbEntity
  8
Defpoints
 62
     0
100
AcDbPoint
 10
3792.90712855161
 20
1321.506759437788
 30
0.0
  0
POINT
  5
2966
330
1761
100
AcDbEntity
  8
Defpoints
 62
     0
100
AcDbPoint
 10
3797.907128551609
 20
1381.506759437789
 30
0.0
  0
POINT
  5
2967
330
1761
100
AcDbEntity
  8
Defpoints
 62
     0
100
AcDbPoint
 10
3732.907128551609
 20
1381.506759437789
 30
0.0
  0
ENDBLK
  5
176C
330
1761
100
AcDbEntity
  8
0
100
AcDbBlockEnd
  0
BLOCK
  5
1777
330
176D
100
AcDbEntity
  8
0
100
AcDbBlockBegin
  2
*D16
 70
     1
 10
0.0
 20
0.0
 30
0.0
  3
*D16
  1

  0
LINE
  5
774C
330
176D
100
AcDbEntity
  8
AM_5
100
AcDbLine
 10
3794.907128551609
 20
1381.506759437789
 30
0.0
 11
3728.90712855161
 21
1381.506759437789
 31
0.0
  0
LINE
  5
774D
330
176D
100
AcDbEntity
  8
AM_5
100
AcDbLine
 10
3844.407128551609
 20
1532.795718805293
 30
0.0
 11
3728.90712855161
 21
1532.795718805293
 31
0.0
  0
LINE
  5
774E
330
176D
100
AcDbEntity
  8
AM_5
100
AcDbLine
 10
3732.907128551609
 20
1401.506759437788
 30
0.0
 11
3732.907128551609
 21
1512.795718805293
 31
0.0
  0
SOLID
  5
774F
330
176D
100
AcDbEntity
  8
AM_5
100
AcDbTrace
 10
3729.573795218276
 20
1401.506759437788
 30
0.0
 11
3736.240461884943
 21
1401.506759437788
 31
0.0
 12
3732.907128551609
 22
1381.506759437789
 32
0.0
 13
3732.907128551609
 23
1381.506759437789
 33
0.0
  0
SOLID
  5
7750
330
176D
100
AcDbEntity
  8
AM_5
100
AcDbTrace
 10
3729.573795218276
 20
1512.795718805293
 30
0.0
 11
3736.240461884943
 21
1512.795718805293
 31
0.0
 12
3732.907128551609
 22
1532.795718805293
 32
0.0
 13
3732.907128551609
 23
1532.795718805293
 33
0.0
  0
MTEXT
  5
7751
330
176D
100
AcDbEntity
  8
AM_5
100
AcDbMText
 10
3716.907128551609
 20
1457.151239121541
 30
0.0
 40
20.0
 41
0.0
 71
     5
 72
     1
  1
\A2;Max. 150
 11
0.0000000000000001
 21
1.0
 31
0.0
 73
     1
 44
1.0
1001
ACAD
1000
MTEXTBEGIN
1070
    73
1070
     1
1070
    44
1040
1.0
1070
    74
1070
     0
1000
MTEXTEND
  0
POINT
  5
7752
330
176D
100
AcDbEntity
  8
Defpoints
 62
     0
100
AcDbPoint
 10
3797.907128551609
 20
1381.506759437789
 30
0.0
  0
POINT
  5
7753
330
176D
100
AcDbEntity
  8
Defpoints
 62
     0
100
AcDbPoint
 10
3847.407128551609
 20
1532.795718805293
 30
0.0
  0
POINT
  5
7754
330
176D
100
AcDbEntity
  8
Defpoints
 62
     0
100
AcDbPoint
 10
3732.907128551609
 20
1532.795718805293
 30
0.0
  0
ENDBLK
  5
1778
330
176D
100
AcDbEntity
  8
0
100
AcDbBlockEnd
  0
BLOCK
  5
181F
330
1815
100
AcDbEntity
  8
0
100
AcDbBlockBegin
  2
*D17
 70
     1
 10
0.0
 20
0.0
 30
0.0
  3
*D17
  1

  0
LINE
  5
7742
330
1815
100
AcDbEntity
  8
AM_5
100
AcDbLine
 10
3789.90712855161
 20
1321.506759437788
 30
0.0
 11
3678.907128551609
 21
1321.506759437788
 31
0.0
  0
LINE
  5
7743
330
1815
100
AcDbEntity
  8
AM_5
100
AcDbLine
 10
3842.288378226671
 20
1943.795718805293
 30
0.0
 11
3678.907128551609
 21
1943.795718805293
 31
0.0
  0
LINE
  5
7744
330
1815
100
AcDbEntity
  8
AM_5
100
AcDbLine
 10
3682.907128551609
 20
1341.506759437788
 30
0.0
 11
3682.907128551609
 21
1923.795718805293
 31
0.0
  0
SOLID
  5
7745
330
1815
100
AcDbEntity
  8
AM_5
100
AcDbTrace
 10
3679.573795218276
 20
1341.506759437788
 30
0.0
 11
3686.240461884943
 21
1341.506759437788
 31
0.0
 12
3682.907128551609
 22
1321.506759437788
 32
0.0
 13
3682.907128551609
 23
1321.506759437788
 33
0.0
  0
SOLID
  5
7746
330
1815
100
AcDbEntity
  8
AM_5
100
AcDbTrace
 10
3679.573795218276
 20
1923.795718805293
 30
0.0
 11
3686.240461884943
 21
1923.795718805293
 31
0.0
 12
3682.907128551609
 22
1943.795718805293
 32
0.0
 13
3682.907128551609
 23
1943.795718805293
 33
0.0
  0
MTEXT
  5
7747
330
1815
100
AcDbEntity
  8
AM_5
100
AcDbMText
 10
3666.907128551609
 20
1632.651239121542
 30
0.0
 40
20.0
 41
0.0
 71
     5
 72
     1
  1
\A2;Max. 650
 11
0.0000000000000001
 21
1.0
 31
0.0
 73
     1
 44
1.0
1001
ACAD
1000
MTEXTBEGIN
1070
    73
1070
     1
1070
    44
1040
1.0
1070
    74
1070
     0
1000
MTEXTEND
  0
POINT
  5
7748
330
1815
100
AcDbEntity
  8
Defpoints
 62
     0
100
AcDbPoint
 10
3792.90712855161
 20
1321.506759437788
 30
0.0
  0
POINT
  5
7749
330
1815
100
AcDbEntity
  8
Defpoints
 62
     0
100
AcDbPoint
 10
3845.288378226671
 20
1943.795718805293
 30
0.0
  0
POINT
  5
774A
330
1815
100
AcDbEntity
  8
Defpoints
 62
     0
100
AcDbPoint
 10
3682.907128551609
 20
1943.795718805293
 30
0.0
  0
ENDBLK
  5
1820
330
1815
100
AcDbEntity
  8
0
100
AcDbBlockEnd
  0
BLOCK
  5
1853
330
1849
100
AcDbEntity
  8
0
100
AcDbBlockBegin
  2
*D18
 70
     1
 10
0.0
 20
0.0
 30
0.0
  3
*D18
  1

  0
LINE
  5
2983
330
1849
100
AcDbEntity
  8
AM_5
100
AcDbLine
 10
3867.90712855161
 20
1510.020205002108
 30
0.0
 11
3867.90712855161
 21
1468.795718805293
 31
0.0
  0
LINE
  5
2984
330
1849
100
AcDbEntity
  8
AM_5
100
AcDbLine
 10
3972.907128551611
 20
1579.795718805293
 30
0.0
 11
3972.907128551611
 21
1468.795718805293
 31
0.0
  0
LINE
  5
2985
330
1849
100
AcDbEntity
  8
AM_5
100
AcDbLine
 10
3887.907128551609
 20
1472.795718805293
 30
0.0
 11
3952.90712855161
 21
1472.795718805293
 31
0.0
  0
SOLID
  5
2986
330
1849
100
AcDbEntity
  8
AM_5
100
AcDbTrace
 10
3887.907128551609
 20
1476.129052138626
 30
0.0
 11
3887.907128551609
 21
1469.46238547196
 31
0.0
 12
3867.90712855161
 22
1472.795718805293
 32
0.0
 13
3867.90712855161
 23
1472.795718805293
 33
0.0
  0
SOLID
  5
2987
330
1849
100
AcDbEntity
  8
AM_5
100
AcDbTrace
 10
3952.90712855161
 20
1476.129052138626
 30
0.0
 11
3952.90712855161
 21
1469.46238547196
 31
0.0
 12
3972.907128551611
 22
1472.795718805293
 32
0.0
 13
3972.907128551611
 23
1472.795718805293
 33
0.0
  0
MTEXT
  5
2988
330
1849
100
AcDbEntity
  8
AM_5
100
AcDbMText
 10
3920.40712855161
 20
1488.795718805293
 30
0.0
 40
20.0
 41
0.0
 71
     5
 72
     1
  1
\A2;105
 73
     1
 44
1.0
1001
ACAD
1000
MTEXTBEGIN
1070
    73
1070
     1
1070
    44
1040
1.0
1070
    74
1070
     0
1000
MTEXTEND
  0
POINT
  5
2989
330
1849
100
AcDbEntity
  8
Defpoints
 62
     0
100
AcDbPoint
 10
3867.90712855161
 20
1513.020205002107
 30
0.0
  0
POINT
  5
298A
330
1849
100
AcDbEntity
  8
Defpoints
 62
     0
100
AcDbPoint
 10
3972.907128551611
 20
1582.795718805293
 30
0.0
  0
POINT
  5
298B
330
1849
100
AcDbEntity
  8
Defpoints
 62
     0
100
AcDbPoint
 10
3972.907128551611
 20
1472.795718805293
 30
0.0
  0
ENDBLK
  5
1854
330
1849
100
AcDbEntity
  8
0
100
AcDbBlockEnd
  0
BLOCK
  5
187A
330
186E
100
AcDbEntity
  8
0
100
AcDbBlockBegin
  2
*D19
 70
     1
 10
0.0
 20
0.0
 30
0.0
  3
*D19
  1

  0
LINE
  5
7865
330
186E
100
AcDbEntity
  8
AM_5
100
AcDbLine
 10
3972.907128551609
 20
1579.795718805293
 30
0.0
 11
3972.907128551609
 21
1468.795718805293
 31
0.0
  0
LINE
  5
7866
330
186E
100
AcDbEntity
  8
AM_5
100
AcDbLine
 10
4022.907128551609
 20
1579.795718805293
 30
0.0
 11
4022.907128551609
 21
1468.795718805293
 31
0.0
  0
LINE
  5
7867
330
186E
100
AcDbEntity
  8
AM_5
100
AcDbLine
 10
3952.90712855161
 20
1472.795718805293
 30
0.0
 11
3932.90712855161
 21
1472.795718805293
 31
0.0
  0
LINE
  5
7868
330
186E
100
AcDbEntity
  8
AM_5
100
AcDbLine
 10
4042.907128551609
 20
1472.795718805293
 30
0.0
 11
4114.922876583104
 21
1472.795718805293
 31
0.0
  0
LINE
  5
7869
330
186E
100
AcDbEntity
  8
AM_5
100
AcDbLine
 10
3972.907128551609
 20
1472.795718805293
 30
0.0
 11
4022.907128551609
 21
1472.795718805293
 31
0.0
  0
SOLID
  5
786A
330
186E
100
AcDbEntity
  8
AM_5
100
AcDbTrace
 10
3952.90712855161
 20
1476.129052138626
 30
0.0
 11
3952.90712855161
 21
1469.462385471959
 31
0.0
 12
3972.907128551609
 22
1472.795718805293
 32
0.0
 13
3972.907128551609
 23
1472.795718805293
 33
0.0
  0
SOLID
  5
786B
330
186E
100
AcDbEntity
  8
AM_5
100
AcDbTrace
 10
4042.907128551609
 20
1476.129052138626
 30
0.0
 11
4042.907128551609
 21
1469.462385471959
 31
0.0
 12
4022.907128551609
 22
1472.795718805293
 32
0.0
 13
4022.907128551609
 23
1472.795718805293
 33
0.0
  0
MTEXT
  5
786C
330
186E
100
AcDbEntity
  8
AM_5
100
AcDbMText
 10
4088.915002567357
 20
1488.795718805293
 30
0.0
 40
20.0
 41
0.0
 71
     5
 72
     1
  1
\A2;%%c50
 73
     1
 44
1.0
1001
ACAD
1000
MTEXTBEGIN
1070
    73
1070
     1
1070
    44
1040
1.0
1070
    74
1070
     0
1000
MTEXTEND
  0
POINT
  5
786D
330
186E
100
AcDbEntity
  8
Defpoints
 62
     0
100
AcDbPoint
 10
3972.907128551609
 20
1582.795718805293
 30
0.0
  0
POINT
  5
786E
330
186E
100
AcDbEntity
  8
Defpoints
 62
     0
100
AcDbPoint
 10
4022.907128551609
 20
1582.795718805293
 30
0.0
  0
POINT
  5
786F
330
186E
100
AcDbEntity
  8
Defpoints
 62
     0
100
AcDbPoint
 10
4022.907128551609
 20
1472.795718805293
 30
0.0
  0
ENDBLK
  5
187B
330
186E
100
AcDbEntity
  8
0
100
AcDbBlockEnd
  0
BLOCK
  5
192D
330
1921
100
AcDbEntity
  8
0
100
AcDbBlockBegin
  2
*D20
 70
     1
 10
0.0
 20
0.0
 30
0.0
  3
*D20
  1

  0
LINE
  5
29A2
330
1921
100
AcDbEntity
  8
AM_5
100
AcDbLine
 10
3409.321295473385
 20
2161.509705728664
 30
0.0
 11
3409.321295473385
 21
2116.448325902242
 31
0.0
  0
LINE
  5
29A3
330
1921
100
AcDbEntity
  8
AM_5
100
AcDbLine
 10
3449.321295473384
 20
2161.509705728664
 30
0.0
 11
3449.321295473384
 21
2116.448325902242
 31
0.0
  0
LINE
  5
29A4
330
1921
100
AcDbEntity
  8
AM_5
100
AcDbLine
 10
3389.321295473385
 20
2120.448325902242
 30
0.0
 11
3369.321295473385
 21
2120.448325902242
 31
0.0
  0
LINE
  5
29A5
330
1921
100
AcDbEntity
  8
AM_5
100
AcDbLine
 10
3469.321295473385
 20
2120.448325902242
 30
0.0
 11
3542.33704350488
 21
2120.448325902242
 31
0.0
  0
LINE
  5
29A6
330
1921
100
AcDbEntity
  8
AM_5
100
AcDbLine
 10
3409.321295473385
 20
2120.448325902242
 30
0.0
 11
3449.321295473384
 21
2120.448325902242
 31
0.0
  0
SOLID
  5
29A7
330
1921
100
AcDbEntity
  8
AM_5
100
AcDbTrace
 10
3389.321295473385
 20
2123.781659235575
 30
0.0
 11
3389.321295473385
 21
2117.114992568908
 31
0.0
 12
3409.321295473385
 22
2120.448325902242
 32
0.0
 13
3409.321295473385
 23
2120.448325902242
 33
0.0
  0
SOLID
  5
29A8
330
1921
100
AcDbEntity
  8
AM_5
100
AcDbTrace
 10
3469.321295473385
 20
2123.781659235575
 30
0.0
 11
3469.321295473385
 21
2117.114992568908
 31
0.0
 12
3449.321295473384
 22
2120.448325902242
 32
0.0
 13
3449.321295473384
 23
2120.448325902242
 33
0.0
  0
MTEXT
  5
29A9
330
1921
100
AcDbEntity
  8
AM_5
100
AcDbMText
 10
3516.329169489133
 20
2136.450294406179
 30
0.0
 40
20.0
 41
0.0
 71
     5
 72
     1
  1
\A2;%%c20
 73
     1
 44
1.0
1001
ACAD
1000
MTEXTBEGIN
1070
    73
1070
     1
1070
    44
1040
1.0
1070
    74
1070
     0
1000
MTEXTEND
  0
POINT
  5
29AA
330
1921
100
AcDbEntity
  8
Defpoints
 62
     0
100
AcDbPoint
 10
3409.321295473385
 20
2164.509705728663
 30
0.0
  0
POINT
  5
29AB
330
1921
100
AcDbEntity
  8
Defpoints
 62
     0
100
AcDbPoint
 10
3449.321295473384
 20
2164.509705728663
 30
0.0
  0
POINT
  5
29AC
330
1921
100
AcDbEntity
  8
Defpoints
 62
     0
100
AcDbPoint
 10
3449.321295473384
 20
2120.448325902242
 30
0.0
  0
ENDBLK
  5
192E
330
1921
100
AcDbEntity
  8
0
100
AcDbBlockEnd
  0
BLOCK
  5
193B
330
192F
100
AcDbEntity
  8
0
100
AcDbBlockBegin
  2
*D21
 70
     1
 10
0.0
 20
0.0
 30
0.0
  3
*D21
  1

  0
LINE
  5
2B8F
330
192F
100
AcDbEntity
  8
AM_5
100
AcDbLine
 10
3385.321295473386
 20
2164.509705728663
 30
0.0
 11
3317.978573399837
 21
2164.509705728663
 31
0.0
  0
LINE
  5
2B90
330
192F
100
AcDbEntity
  8
AM_5
100
AcDbLine
 10
3360.002768871301
 20
2194.509705728663
 30
0.0
 11
3317.978573399837
 21
2194.509705728663
 31
0.0
  0
LINE
  5
2B91
330
192F
100
AcDbEntity
  8
AM_5
100
AcDbLine
 10
3321.978573399837
 20
2214.509705728664
 30
0.0
 11
3321.978573399837
 21
2234.509705728664
 31
0.0
  0
LINE
  5
2B92
330
192F
100
AcDbEntity
  8
AM_5
100
AcDbLine
 10
3321.978573399837
 20
2144.509705728664
 30
0.0
 11
3321.978573399837
 21
2093.681278603916
 31
0.0
  0
LINE
  5
2B93
330
192F
100
AcDbEntity
  8
AM_5
100
AcDbLine
 10
3321.978573399837
 20
2194.509705728663
 30
0.0
 11
3321.978573399837
 21
2164.509705728663
 31
0.0
  0
SOLID
  5
2B94
330
192F
100
AcDbEntity
  8
AM_5
100
AcDbTrace
 10
3318.645240066504
 20
2214.509705728664
 30
0.0
 11
3325.311906733171
 21
2214.509705728664
 31
0.0
 12
3321.978573399837
 22
2194.509705728663
 32
0.0
 13
3321.978573399837
 23
2194.509705728663
 33
0.0
  0
SOLID
  5
2B95
330
192F
100
AcDbEntity
  8
AM_5
100
AcDbTrace
 10
3318.645240066504
 20
2144.509705728664
 30
0.0
 11
3325.311906733171
 21
2144.509705728664
 31
0.0
 12
3321.978573399837
 22
2164.509705728663
 32
0.0
 13
3321.978573399837
 23
2164.509705728663
 33
0.0
  0
MTEXT
  5
2B96
330
192F
100
AcDbEntity
  8
AM_5
100
AcDbMText
 10
3305.978573399837
 20
2109.095492166291
 30
0.0
 40
20.0
 41
0.0
 71
     5
 72
     1
  1
\A2;15
 11
0.0000000000000001
 21
1.0
 31
0.0
 73
     1
 44
1.0
1001
ACAD
1000
MTEXTBEGIN
1070
    73
1070
     1
1070
    44
1040
1.0
1070
    74
1070
     0
1000
MTEXTEND
  0
POINT
  5
2B97
330
192F
100
AcDbEntity
  8
Defpoints
 62
     0
100
AcDbPoint
 10
3388.321295473386
 20
2164.509705728663
 30
0.0
  0
POINT
  5
2B98
330
192F
100
AcDbEntity
  8
Defpoints
 62
     0
100
AcDbPoint
 10
3363.002768871301
 20
2194.509705728663
 30
0.0
  0
POINT
  5
2B99
330
192F
100
AcDbEntity
  8
Defpoints
 62
     0
100
AcDbPoint
 10
3321.978573399837
 20
2194.509705728663
 30
0.0
  0
ENDBLK
  5
193C
330
192F
100
AcDbEntity
  8
0
100
AcDbBlockEnd
  0
BLOCK
  5
1947
330
193D
100
AcDbEntity
  8
0
100
AcDbBlockBegin
  2
*D22
 70
     1
 10
0.0
 20
0.0
 30
0.0
  3
*D22
  1

  0
LINE
  5
2B86
330
193D
100
AcDbEntity
  8
AM_5
100
AcDbLine
 10
3385.321295473386
 20
2164.509705728663
 30
0.0
 11
3267.978573399837
 21
2164.509705728663
 31
0.0
  0
LINE
  5
2B87
330
193D
100
AcDbEntity
  8
AM_5
100
AcDbLine
 10
3406.321295473385
 20
2224.509705728664
 30
0.0
 11
3267.978573399837
 21
2224.509705728664
 31
0.0
  0
LINE
  5
2B88
330
193D
100
AcDbEntity
  8
AM_5
100
AcDbLine
 10
3271.978573399837
 20
2184.509705728663
 30
0.0
 11
3271.978573399837
 21
2204.509705728664
 31
0.0
  0
SOLID
  5
2B89
330
193D
100
AcDbEntity
  8
AM_5
100
AcDbTrace
 10
3268.645240066504
 20
2184.509705728663
 30
0.0
 11
3275.311906733171
 21
2184.509705728663
 31
0.0
 12
3271.978573399837
 22
2164.509705728663
 32
0.0
 13
3271.978573399837
 23
2164.509705728663
 33
0.0
  0
SOLID
  5
2B8A
330
193D
100
AcDbEntity
  8
AM_5
100
AcDbTrace
 10
3268.645240066504
 20
2204.509705728664
 30
0.0
 11
3275.311906733171
 21
2204.509705728664
 31
0.0
 12
3271.978573399837
 22
2224.509705728664
 32
0.0
 13
3271.978573399837
 23
2224.509705728664
 33
0.0
  0
MTEXT
  5
2B8B
330
193D
100
AcDbEntity
  8
AM_5
100
AcDbMText
 10
3255.978573399837
 20
2194.509705728664
 30
0.0
 40
20.0
 41
0.0
 71
     5
 72
     1
  1
\A2;30
 11
0.0000000000000001
 21
1.0
 31
0.0
 73
     1
 44
1.0
1001
ACAD
1000
MTEXTBEGIN
1070
    73
1070
     1
1070
    44
1040
1.0
1070
    74
1070
     0
1000
MTEXTEND
  0
POINT
  5
2B8C
330
193D
100
AcDbEntity
  8
Defpoints
 62
     0
100
AcDbPoint
 10
3388.321295473386
 20
2164.509705728663
 30
0.0
  0
POINT
  5
2B8D
330
193D
100
AcDbEntity
  8
Defpoints
 62
     0
100
AcDbPoint
 10
3409.321295473385
 20
2224.509705728664
 30
0.0
  0
POINT
  5
2B8E
330
193D
100
AcDbEntity
  8
Defpoints
 62
     0
100
AcDbPoint
 10
3271.978573399837
 20
2224.509705728664
 30
0.0
  0
ENDBLK
  5
1948
330
193D
100
AcDbEntity
  8
0
100
AcDbBlockEnd
  0
BLOCK
  5
19B8
330
19AC
100
AcDbEntity
  8
0
100
AcDbBlockBegin
  2
*D23
 70
     1
 10
0.0
 20
0.0
 30
0.0
  3
*D23
  1

  0
LINE
  5
29ED
330
19AC
100
AcDbEntity
  8
AM_5
100
AcDbLine
 10
3850.805564509542
 20
2157.713191514202
 30
0.0
 11
3850.805564509542
 21
2096.713190514202
 31
0.0
  0
LINE
  5
29EE
330
19AC
100
AcDbEntity
  8
AM_5
100
AcDbLine
 10
3890.805564509543
 20
2157.713191514202
 30
0.0
 11
3890.805564509543
 21
2096.713190514202
 31
0.0
  0
LINE
  5
29EF
330
19AC
100
AcDbEntity
  8
AM_5
100
AcDbLine
 10
3830.805564509542
 20
2100.713190514202
 30
0.0
 11
3810.805564509542
 21
2100.713190514202
 31
0.0
  0
LINE
  5
29F0
330
19AC
100
AcDbEntity
  8
AM_5
100
AcDbLine
 10
3910.805564509542
 20
2100.713190514202
 30
0.0
 11
3930.805564509542
 21
2100.713190514202
 31
0.0
  0
LINE
  5
29F1
330
19AC
100
AcDbEntity
  8
AM_5
100
AcDbLine
 10
3850.805564509542
 20
2100.713190514202
 30
0.0
 11
3890.805564509543
 21
2100.713190514202
 31
0.0
  0
SOLID
  5
29F2
330
19AC
100
AcDbEntity
  8
AM_5
100
AcDbTrace
 10
3830.805564509542
 20
2104.046523847536
 30
0.0
 11
3830.805564509542
 21
2097.379857180869
 31
0.0
 12
3850.805564509542
 22
2100.713190514202
 32
0.0
 13
3850.805564509542
 23
2100.713190514202
 33
0.0
  0
SOLID
  5
29F3
330
19AC
100
AcDbEntity
  8
AM_5
100
AcDbTrace
 10
3910.805564509542
 20
2104.046523847536
 30
0.0
 11
3910.805564509542
 21
2097.379857180869
 31
0.0
 12
3890.805564509543
 22
2100.713190514202
 32
0.0
 13
3890.805564509543
 23
2100.713190514202
 33
0.0
  0
MTEXT
  5
29F4
330
19AC
100
AcDbEntity
  8
AM_5
100
AcDbMText
 10
3870.805564509542
 20
2116.71515901814
 30
0.0
 40
20.0
 41
0.0
 71
     5
 72
     1
  1
\A2;20
 73
     1
 44
1.0
1001
ACAD
1000
MTEXTBEGIN
1070
    73
1070
     1
1070
    44
1040
1.0
1070
    74
1070
     0
1000
MTEXTEND
  0
POINT
  5
29F5
330
19AC
100
AcDbEntity
  8
Defpoints
 62
     0
100
AcDbPoint
 10
3850.805564509542
 20
2160.713191514202
 30
0.0
  0
POINT
  5
29F6
330
19AC
100
AcDbEntity
  8
Defpoints
 62
     0
100
AcDbPoint
 10
3890.805564509543
 20
2160.713191514202
 30
0.0
  0
POINT
  5
29F7
330
19AC
100
AcDbEntity
  8
Defpoints
 62
     0
100
AcDbPoint
 10
3890.805564509543
 20
2100.713190514202
 30
0.0
  0
ENDBLK
  5
19B9
330
19AC
100
AcDbEntity
  8
0
100
AcDbBlockEnd
  0
BLOCK
  5
19C6
330
19BA
100
AcDbEntity
  8
0
100
AcDbBlockBegin
  2
*D24
 70
     1
 10
0.0
 20
0.0
 30
0.0
  3
*D24
  1

  0
LINE
  5
29F8
330
19BA
100
AcDbEntity
  8
AM_5
100
AcDbLine
 10
3858.805564509543
 20
2195.713191514202
 30
0.0
 11
3858.805564509543
 21
2256.713192514202
 31
0.0
  0
LINE
  5
29F9
330
19BA
100
AcDbEntity
  8
AM_5
100
AcDbLine
 10
3882.805564509542
 20
2195.713191514202
 30
0.0
 11
3882.805564509542
 21
2256.713192514202
 31
0.0
  0
LINE
  5
29FA
330
19BA
100
AcDbEntity
  8
AM_5
100
AcDbLine
 10
3838.805564509542
 20
2252.713192514202
 30
0.0
 11
3818.805564509542
 21
2252.713192514202
 31
0.0
  0
LINE
  5
29FB
330
19BA
100
AcDbEntity
  8
AM_5
100
AcDbLine
 10
3902.805564509542
 20
2252.713192514202
 30
0.0
 11
3922.805564509542
 21
2252.713192514202
 31
0.0
  0
LINE
  5
29FC
330
19BA
100
AcDbEntity
  8
AM_5
100
AcDbLine
 10
3858.805564509543
 20
2252.713192514202
 30
0.0
 11
3882.805564509542
 21
2252.713192514202
 31
0.0
  0
SOLID
  5
29FD
330
19BA
100
AcDbEntity
  8
AM_5
100
AcDbTrace
 10
3838.805564509542
 20
2256.046525847536
 30
0.0
 11
3838.805564509542
 21
2249.379859180869
 31
0.0
 12
3858.805564509543
 22
2252.713192514202
 32
0.0
 13
3858.805564509543
 23
2252.713192514202
 33
0.0
  0
SOLID
  5
29FE
330
19BA
100
AcDbEntity
  8
AM_5
100
AcDbTrace
 10
3902.805564509542
 20
2256.046525847536
 30
0.0
 11
3902.805564509542
 21
2249.379859180869
 31
0.0
 12
3882.805564509542
 22
2252.713192514202
 32
0.0
 13
3882.805564509542
 23
2252.713192514202
 33
0.0
  0
MTEXT
  5
29FF
330
19BA
100
AcDbEntity
  8
AM_5
100
AcDbMText
 10
3870.805564509542
 20
2268.715161018139
 30
0.0
 40
20.0
 41
0.0
 71
     5
 72
     1
  1
\A2;12
 73
     1
 44
1.0
1001
ACAD
1000
MTEXTBEGIN
1070
    73
1070
     1
1070
    44
1040
1.0
1070
    74
1070
     0
1000
MTEXTEND
  0
POINT
  5
2A00
330
19BA
100
AcDbEntity
  8
Defpoints
 62
     0
100
AcDbPoint
 10
3858.805564509543
 20
2192.713191514202
 30
0.0
  0
POINT
  5
2A01
330
19BA
100
AcDbEntity
  8
Defpoints
 62
     0
100
AcDbPoint
 10
3882.805564509542
 20
2192.713191514202
 30
0.0
  0
POINT
  5
2A02
330
19BA
100
AcDbEntity
  8
Defpoints
 62
     0
100
AcDbPoint
 10
3882.805564509542
 20
2252.713192514202
 30
0.0
  0
ENDBLK
  5
19C7
330
19BA
100
AcDbEntity
  8
0
100
AcDbBlockEnd
  0
BLOCK
  5
19D4
330
19C8
100
AcDbEntity
  8
0
100
AcDbBlockBegin
  2
*D25
 70
     1
 10
0.0
 20
0.0
 30
0.0
  3
*D25
  1

  0
LINE
  5
2A03
330
19C8
100
AcDbEntity
  8
AM_5
100
AcDbLine
 10
3913.050762063971
 20
2192.713191514202
 30
0.0
 11
3974.050762063972
 21
2192.713191514202
 31
0.0
  0
LINE
  5
2A04
330
19C8
100
AcDbEntity
  8
AM_5
100
AcDbLine
 10
3893.805564509542
 20
2176.713191514202
 30
0.0
 11
3974.050762063972
 21
2176.713191514202
 31
0.0
  0
LINE
  5
2A05
330
19C8
100
AcDbEntity
  8
AM_5
100
AcDbLine
 10
3970.050762063971
 20
2212.713191514202
 30
0.0
 11
3970.050762063971
 21
2232.713191514202
 31
0.0
  0
LINE
  5
2A06
330
19C8
100
AcDbEntity
  8
AM_5
100
AcDbLine
 10
3970.050762063971
 20
2156.713191514202
 30
0.0
 11
3970.050762063971
 21
2136.713191514202
 31
0.0
  0
LINE
  5
2A07
330
19C8
100
AcDbEntity
  8
AM_5
100
AcDbLine
 10
3970.050762063971
 20
2192.713191514202
 30
0.0
 11
3970.050762063971
 21
2176.713191514202
 31
0.0
  0
SOLID
  5
2A08
330
19C8
100
AcDbEntity
  8
AM_5
100
AcDbTrace
 10
3966.717428730638
 20
2212.713191514202
 30
0.0
 11
3973.384095397305
 21
2212.713191514202
 31
0.0
 12
3970.050762063971
 22
2192.713191514202
 32
0.0
 13
3970.050762063971
 23
2192.713191514202
 33
0.0
  0
SOLID
  5
2A09
330
19C8
100
AcDbEntity
  8
AM_5
100
AcDbTrace
 10
3966.717428730638
 20
2156.713191514202
 30
0.0
 11
3973.384095397305
 21
2156.713191514202
 31
0.0
 12
3970.050762063971
 22
2176.713191514202
 32
0.0
 13
3970.050762063971
 23
2176.713191514202
 33
0.0
  0
MTEXT
  5
2A0A
330
19C8
100
AcDbEntity
  8
AM_5
100
AcDbMText
 10
3954.050762063971
 20
2184.713191514202
 30
0.0
 40
20.0
 41
0.0
 71
     5
 72
     1
  1
\A2;8
 11
0.0000000000000001
 21
1.0
 31
0.0
 73
     1
 44
1.0
1001
ACAD
1000
MTEXTBEGIN
1070
    73
1070
     1
1070
    44
1040
1.0
1070
    74
1070
     0
1000
MTEXTEND
  0
POINT
  5
2A0B
330
19C8
100
AcDbEntity
  8
Defpoints
 62
     0
100
AcDbPoint
 10
3910.050762063971
 20
2192.713191514202
 30
0.0
  0
POINT
  5
2A0C
330
19C8
100
AcDbEntity
  8
Defpoints
 62
     0
100
AcDbPoint
 10
3890.805564509543
 20
2176.713191514202
 30
0.0
  0
POINT
  5
2A0D
330
19C8
100
AcDbEntity
  8
Defpoints
 62
     0
100
AcDbPoint
 10
3970.050762063971
 20
2176.713191514202
 30
0.0
  0
ENDBLK
  5
19D5
330
19C8
100
AcDbEntity
  8
0
100
AcDbBlockEnd
  0
BLOCK
  5
19E2
330
19D6
100
AcDbEntity
  8
0
100
AcDbBlockBegin
  2
*D26
 70
     1
 10
0.0
 20
0.0
 30
0.0
  3
*D26
  1

  0
LINE
  5
2A0E
330
19D6
100
AcDbEntity
  8
AM_5
100
AcDbLine
 10
3847.805564509542
 20
2176.713191514202
 30
0.0
 11
3786.805564509542
 21
2176.713191514202
 31
0.0
  0
LINE
  5
2A0F
330
19D6
100
AcDbEntity
  8
AM_5
100
AcDbLine
 10
3847.805564509542
 20
2160.713191514202
 30
0.0
 11
3786.805564509542
 21
2160.713191514202
 31
0.0
  0
LINE
  5
2A10
330
19D6
100
AcDbEntity
  8
AM_5
100
AcDbLine
 10
3790.805564509542
 20
2196.713191514202
 30
0.0
 11
3790.805564509542
 21
2216.713191514202
 31
0.0
  0
LINE
  5
2A11
330
19D6
100
AcDbEntity
  8
AM_5
100
AcDbLine
 10
3790.805564509542
 20
2140.713191514202
 30
0.0
 11
3790.805564509542
 21
2120.713191514202
 31
0.0
  0
LINE
  5
2A12
330
19D6
100
AcDbEntity
  8
AM_5
100
AcDbLine
 10
3790.805564509542
 20
2176.713191514202
 30
0.0
 11
3790.805564509542
 21
2160.713191514202
 31
0.0
  0
SOLID
  5
2A13
330
19D6
100
AcDbEntity
  8
AM_5
100
AcDbTrace
 10
3787.472231176209
 20
2196.713191514202
 30
0.0
 11
3794.138897842876
 21
2196.713191514202
 31
0.0
 12
3790.805564509542
 22
2176.713191514202
 32
0.0
 13
3790.805564509542
 23
2176.713191514202
 33
0.0
  0
SOLID
  5
2A14
330
19D6
100
AcDbEntity
  8
AM_5
100
AcDbTrace
 10
3787.472231176209
 20
2140.713191514202
 30
0.0
 11
3794.138897842876
 21
2140.713191514202
 31
0.0
 12
3790.805564509542
 22
2160.713191514202
 32
0.0
 13
3790.805564509542
 23
2160.713191514202
 33
0.0
  0
MTEXT
  5
2A15
330
19D6
100
AcDbEntity
  8
AM_5
100
AcDbMText
 10
3774.805564509542
 20
2168.713191514202
 30
0.0
 40
20.0
 41
0.0
 71
     5
 72
     1
  1
\A2;8
 11
0.0000000000000001
 21
1.0
 31
0.0
 73
     1
 44
1.0
1001
ACAD
1000
MTEXTBEGIN
1070
    73
1070
     1
1070
    44
1040
1.0
1070
    74
1070
     0
1000
MTEXTEND
  0
POINT
  5
2A16
330
19D6
100
AcDbEntity
  8
Defpoints
 62
     0
100
AcDbPoint
 10
3850.805564509542
 20
2176.713191514202
 30
0.0
  0
POINT
  5
2A17
330
19D6
100
AcDbEntity
  8
Defpoints
 62
     0
100
AcDbPoint
 10
3850.805564509542
 20
2160.713191514202
 30
0.0
  0
POINT
  5
2A18
330
19D6
100
AcDbEntity
  8
Defpoints
 62
     0
100
AcDbPoint
 10
3790.805564509542
 20
2160.713191514202
 30
0.0
  0
ENDBLK
  5
19E3
330
19D6
100
AcDbEntity
  8
0
100
AcDbBlockEnd
  0
BLOCK
  5
2FFF
330
2FF5
100
AcDbEntity
  8
0
100
AcDbBlockBegin
  2
*D28
 70
     1
 10
0.0
 20
0.0
 30
0.0
  3
*D28
  1

  0
LINE
  5
3001
330
2FF5
100
AcDbEntity
  8
AM_5
100
AcDbLine
 10
3792.90712855161
 20
1379.506759437788
 30
0.0
 11
3792.90712855161
 21
1428.37817876029
 31
0.0
  0
LINE
  5
3002
330
2FF5
100
AcDbEntity
  8
AM_5
100
AcDbLine
 10
3942.90712855161
 20
1379.506759437788
 30
0.0
 11
3942.90712855161
 21
1428.37817876029
 31
0.0
  0
LINE
  5
3003
330
2FF5
100
AcDbEntity
  8
AM_5
100
AcDbLine
 10
3812.907128551609
 20
1424.37817876029
 30
0.0
 11
3922.907128551609
 21
1424.37817876029
 31
0.0
  0
SOLID
  5
3004
330
2FF5
100
AcDbEntity
  8
AM_5
100
AcDbTrace
 10
3812.907128551609
 20
1427.711512093623
 30
0.0
 11
3812.907128551609
 21
1421.044845426957
 31
0.0
 12
3792.90712855161
 22
1424.37817876029
 32
0.0
 13
3792.90712855161
 23
1424.37817876029
 33
0.0
  0
SOLID
  5
3005
330
2FF5
100
AcDbEntity
  8
AM_5
100
AcDbTrace
 10
3922.907128551609
 20
1427.711512093623
 30
0.0
 11
3922.907128551609
 21
1421.044845426957
 31
0.0
 12
3942.90712855161
 22
1424.37817876029
 32
0.0
 13
3942.90712855161
 23
1424.37817876029
 33
0.0
  0
MTEXT
  5
3006
330
2FF5
100
AcDbEntity
  8
AM_5
100
AcDbMText
 10
3867.90712855161
 20
1440.37817876029
 30
0.0
 40
20.0
 41
0.0
 71
     5
 72
     1
  1
\A2;150
 73
     1
 44
1.0
1001
ACAD
1000
MTEXTBEGIN
1070
    73
1070
     1
1070
    44
1040
1.0
1070
    74
1070
     0
1000
MTEXTEND
  0
POINT
  5
3007
330
2FF5
100
AcDbEntity
  8
Defpoints
 62
     0
100
AcDbPoint
 10
3792.90712855161
 20
1376.506759437788
 30
0.0
  0
POINT
  5
3008
330
2FF5
100
AcDbEntity
  8
Defpoints
 62
     0
100
AcDbPoint
 10
3942.90712855161
 20
1376.506759437788
 30
0.0
  0
POINT
  5
3009
330
2FF5
100
AcDbEntity
  8
Defpoints
 62
     0
100
AcDbPoint
 10
3942.90712855161
 20
1424.37817876029
 30
0.0
  0
ENDBLK
  5
3000
330
2FF5
100
AcDbEntity
  8
0
100
AcDbBlockEnd
  0
BLOCK
  5
78F1
330
78EC
100
AcDbEntity
  8
0
100
AcDbBlockBegin
  2
*S30
 70
     1
 10
0.0
 20
0.0
 30
0.0
  3
*S30
  1

  0
LINE
  5
78ED
330
78EC
100
AcDbEntity
  8
AM_5
 62
     5
100
AcDbLine
 10
3587.874296981323
 20
2230.853207170869
 30
0.0
 11
3512.835105767894
 21
2230.853207170869
 31
0.0
  0
LINE
  5
78EE
330
78EC
100
AcDbEntity
  8
AM_5
 62
     5
100
AcDbLine
 10
3512.835105767894
 20
2230.853207170869
 30
0.0
 11
3490.928994688561
 21
2208.965585814091
 31
0.0
  0
TRACE
  5
78EF
330
78EC
100
AcDbEntity
  8
AM_5
 62
     5
370
    35
100
AcDbTrace
 10
3488.974880397549
 20
2210.921350856937
 30
0.0
 11
3492.883108979573
 21
2207.009820771246
 31
0.0
 12
3476.073484254563
 22
2194.122614085177
 32
0.0
 13
3476.073484254563
 23
2194.122614085177
 33
0.0
  0
MTEXT
  5
78F0
330
78EC
100
AcDbEntity
  8
AM_5
 62
     2
100
AcDbMText
 10
3587.874296981323
 20
2226.208242166532
 30
0.0
 40
21.0
 41
0.0
 71
     7
 72
     5
  1

  7
ACISOTS
 73
     1
 44
1.0
1001
ACAD
1000
MTEXTBEGIN
1070
    73
1070
     1
1070
    44
1040
1.0
1070
    74
1070
     0
1000
MTEXTEND
  0
ENDBLK
  5
78F2
330
78EC
100
AcDbEntity
  8
0
100
AcDbBlockEnd
  0
BLOCK
  5
78F9
330
78F4
100
AcDbEntity
  8
0
100
AcDbBlockBegin
  2
*S31
 70
     1
 10
0.0
 20
0.0
 30
0.0
  3
*S31
  1

  0
LINE
  5
78F5
330
78F4
100
AcDbEntity
  8
AM_5
 62
     5
100
AcDbLine
 10
3618.286458395976
 20
1262.526552280731
 30
0.0
 11
3543.247267182547
 21
1262.526552280731
 31
0.0
  0
LINE
  5
78F6
330
78F4
100
AcDbEntity
  8
AM_5
 62
     5
100
AcDbLine
 10
3543.247267182547
 20
1262.526552280731
 30
0.0
 11
3507.72887448032
 21
1305.343937123204
 31
0.0
  0
TRACE
  5
78F7
330
78F4
100
AcDbEntity
  8
AM_5
 62
     5
370
    35
100
AcDbTrace
 10
3509.856750396603
 20
1307.109078378191
 30
0.0
 11
3505.600998564038
 21
1303.578795868216
 31
0.0
 12
3494.321295473387
 22
1321.506759437788
 32
0.0
 13
3494.321295473387
 23
1321.506759437788
 33
0.0
  0
MTEXT
  5
78F8
330
78F4
100
AcDbEntity
  8
AM_5
 62
     2
100
AcDbMText
 10
3618.286458395976
 20
1257.881587276395
 30
0.0
 40
21.0
 41
0.0
 71
     7
 72
     5
  1

  7
ACISOTS
 73
     1
 44
1.0
1001
ACAD
1000
MTEXTBEGIN
1070
    73
1070
     1
1070
    44
1040
1.0
1070
    74
1070
     0
1000
MTEXTEND
  0
ENDBLK
  5
78FA
330
78F4
100
AcDbEntity
  8
0
100
AcDbBlockEnd
  0
ENDSEC
  0
SECTION
  2
ENTITIES
  0
LINE
  5
12A0
330
1F
100
AcDbEntity
  8
圖層2中心線
 48
0.5
100
AcDbLine
 10
3867.90712855161
 20
1306.906761783029
 30
0.0
 11
3867.90712855161
 21
1398.163826688342
 31
0.0
  0
LINE
  5
12A1
330
1F
100
AcDbEntity
  8
圖層1輪廓線
  6
Continuous
 62
     7
370
    50
100
AcDbLine
 10
3937.907128551609
 20
1381.506759437789
 30
0.0
 11
3873.90712855161
 21
1381.506759437789
 31
0.0
  0
LINE
  5
12A2
330
1F
100
AcDbEntity
  8
圖層1輪廓線
  6
Continuous
 62
     7
370
    50
100
AcDbLine
 10
3792.90712855161
 20
1321.506759437788
 30
0.0
 11
4052.907128551609
 21
1321.506759437788
 31
0.0
  0
LINE
  5
12A3
330
1F
100
AcDbEntity
  8
圖層1輪廓線
  6
Continuous
 62
     7
370
    50
100
AcDbLine
 10
3861.907128551609
 20
1381.506759437789
 30
0.0
 11
3797.907128551609
 21
1381.506759437789
 31
0.0
  0
LINE
  5
12A4
330
1F
100
AcDbEntity
  8
圖層1輪廓線
  6
Continuous
 62
     7
370
    50
100
AcDbLine
 10
3792.90712855161
 20
1376.506759437788
 30
0.0
 11
3792.90712855161
 21
1321.506759437788
 31
0.0
  0
ARC
  5
12A5
330
1F
100
AcDbEntity
  8
圖層1輪廓線
  6
Continuous
 62
     7
370
    50
100
AcDbCircle
 10
3797.907128551609
 20
1376.506759437788
 30
0.0
 40
5.0
100
AcDbArc
 50
90.0
 51
180.0
  0
LINE
  5
12A6
330
1F
100
AcDbEntity
  8
圖層1輪廓線
  6
Continuous
 62
     7
370
    50
100
AcDbLine
 10
3857.907128551609
 20
1373.506759437788
 30
0.0
 11
3861.907128551609
 21
1373.506759437788
 31
0.0
  0
LINE
  5
12A7
330
1F
100
AcDbEntity
  8
圖層1輪廓線
  6
Continuous
 62
     7
370
    50
100
AcDbLine
 10
3877.90712855161
 20
1365.506759437788
 30
0.0
 11
3857.907128551609
 21
1365.506759437788
 31
0.0
  0
LINE
  5
12A8
330
1F
100
AcDbEntity
  8
圖層1輪廓線
  6
Continuous
 62
     7
370
    50
100
AcDbLine
 10
3857.907128551609
 20
1365.506759437788
 30
0.0
 11
3857.907128551609
 21
1373.506759437788
 31
0.0
  0
LINE
  5
12A9
330
1F
100
AcDbEntity
  8
圖層1輪廓線
  6
Continuous
 62
     7
370
    50
100
AcDbLine
 10
3861.907128551609
 20
1373.506759437788
 30
0.0
 11
3861.907128551609
 21
1381.506759437789
 31
0.0
  0
LINE
  5
12AA
330
1F
100
AcDbEntity
  8
圖層1輪廓線
  6
Continuous
 62
     7
370
    50
100
AcDbLine
 10
3877.90712855161
 20
1373.506759437788
 30
0.0
 11
3877.90712855161
 21
1365.506759437788
 31
0.0
  0
LINE
  5
12AB
330
1F
100
AcDbEntity
  8
圖層1輪廓線
  6
Continuous
 62
     7
370
    50
100
AcDbLine
 10
3873.90712855161
 20
1373.506759437788
 30
0.0
 11
3877.90712855161
 21
1373.506759437788
 31
0.0
  0
LINE
  5
12AC
330
1F
100
AcDbEntity
  8
圖層1輪廓線
  6
Continuous
 62
     7
370
    50
100
AcDbLine
 10
3873.90712855161
 20
1381.506759437789
 30
0.0
 11
3873.90712855161
 21
1373.506759437788
 31
0.0
  0
LINE
  5
12AD
330
1F
100
AcDbEntity
  8
圖層1輪廓線
  6
Continuous
 62
     7
370
    50
100
AcDbLine
 10
4052.907128551609
 20
1381.506759437789
 30
0.0
 11
3962.907128551609
 21
1381.506759437789
 31
0.0
  0
LINE
  5
12AE
330
1F
100
AcDbEntity
  8
圖層1輪廓線
  6
Continuous
 62
     7
370
    50
100
AcDbLine
 10
3947.907128551609
 20
1331.506759437788
 30
0.0
 11
3962.907128551609
 21
1331.506759437788
 31
0.0
  0
LINE
  5
12AF
330
1F
100
AcDbEntity
  8
圖層1輪廓線
  6
Continuous
 62
     7
370
    50
100
AcDbLine
 10
3962.907128551609
 20
1376.506759437788
 30
0.0
 11
3942.90712855161
 21
1376.506759437788
 31
0.0
  0
LINE
  5
12B0
330
1F
100
AcDbEntity
  8
圖層1輪廓線
  6
Continuous
 62
     7
370
    50
100
AcDbLine
 10
3942.90712855161
 20
1376.506759437788
 30
0.0
 11
3942.90712855161
 21
1336.506759437788
 31
0.0
  0
ARC
  5
12B1
330
1F
100
AcDbEntity
  8
圖層1輪廓線
  6
Continuous
 62
     7
370
    50
100
AcDbCircle
 10
3947.907128551609
 20
1336.506759437788
 30
0.0
 40
5.0
100
AcDbArc
 50
180.0
 51
270.0
  0
ARC
  5
12B2
330
1F
100
AcDbEntity
  8
圖層1輪廓線
  6
Continuous
 62
     7
370
    50
100
AcDbCircle
 10
3937.907128551609
 20
1376.506759437788
 30
0.0
 40
5.0
100
AcDbArc
 50
0.0
 51
90.0
  0
LINE
  5
12B3
330
1F
100
AcDbEntity
  8
圖層1輪廓線
  6
Continuous
 62
     7
370
    50
100
AcDbLine
 10
3967.90712855161
 20
1326.506759437788
 30
0.0
 11
3967.90712855161
 21
1321.506759437788
 31
0.0
  0
LINE
  5
12B4
330
1F
100
AcDbEntity
  8
圖層2中心線
 48
0.1
100
AcDbLine
 10
3957.907128551609
 20
1336.506759437788
 30
0.0
 11
3957.907128551609
 21
1310.286654450969
 31
0.0
  0
ARC
  5
12B5
330
1F
100
AcDbEntity
  8
圖層1輪廓線
  6
Continuous
 62
     7
370
    50
100
AcDbCircle
 10
3962.907128551609
 20
1326.506759437788
 30
0.0
 40
5.0
100
AcDbArc
 50
0.0
 51
90.0
  0
LINE
  5
12B6
330
1F
100
AcDbEntity
  8
圖層1輪廓線
  6
Continuous
 62
     7
370
    50
100
AcDbLine
 10
3997.907128551609
 20
1381.506759437789
 30
0.0
 11
3962.907128551609
 21
1376.506759437788
 31
0.0
  0
LINE
  5
12B7
330
1F
100
AcDbEntity
  8
圖層1輪廓線
  6
Continuous
 62
     7
370
    50
100
AcDbLine
 10
3962.907128551609
 20
1381.506759437789
 30
0.0
 11
3962.907128551609
 21
1376.506759437788
 31
0.0
  0
LINE
  5
12B8
330
1F
100
AcDbEntity
  8
圖層1輪廓線
  6
Continuous
 62
     7
370
    50
100
AcDbLine
 10
4030.598870628164
 20
1381.506759437789
 30
0.0
 11
4030.598870628164
 21
1321.506759437788
 31
0.0
  0
LINE
  5
12B9
330
1F
100
AcDbEntity
  8
圖層1輪廓線
  6
Continuous
 62
     7
370
    50
100
AcDbLine
 10
4052.907128551609
 20
1321.506759437788
 30
0.0
 11
4052.907128551609
 21
1381.506759437789
 31
0.0
  0
LINE
  5
12BA
330
1F
100
AcDbEntity
  8
圖層2中心線
 48
0.5
100
AcDbLine
 10
3935.000726484161
 20
1741.376442131532
 30
0.0
 11
3935.000726484161
 21
1512.938073451409
 31
0.0
  0
LINE
  5
12BB
330
1F
100
AcDbEntity
  8
圖層1輪廓線
100
AcDbLine
 10
3817.90712855161
 20
1602.795718805293
 30
0.0
 11
3817.90712855161
 21
1642.795718805293
 31
0.0
  0
LINE
  5
12BC
330
1F
100
AcDbEntity
  8
圖層1輪廓線
100
AcDbLine
 10
4052.907128551609
 20
1642.795718805293
 30
0.0
 11
4052.907128551609
 21
1582.795718805293
 31
0.0
  0
LINE
  5
12BD
330
1F
100
AcDbEntity
  8
圖層2中心線
 48
0.05
100
AcDbLine
 10
4042.907128551609
 20
1603.795718805293
 30
0.0
 11
4042.907128551609
 21
1591.795718805293
 31
0.0
  0
LINE
  5
12BE
330
1F
100
AcDbEntity
  8
圖層1輪廓線
100
AcDbLine
 10
4030.963897903741
 20
1642.795718805293
 30
0.0
 11
4030.963897903741
 21
1582.795718805293
 31
0.0
  0
CIRCLE
  5
12BF
330
1F
100
AcDbEntity
  8
圖層1輪廓線
100
AcDbCircle
 10
4042.907128551609
 20
1597.795718805293
 30
0.0
 40
3.0
  0
CIRCLE
  5
12C0
330
1F
100
AcDbEntity
  8
圖層1輪廓線
100
AcDbCircle
 10
4042.907128551609
 20
1597.795718805293
 30
0.0
 40
5.0
  0
LINE
  5
12C1
330
1F
100
AcDbEntity
  8
圖層2中心線
 48
0.05
100
AcDbLine
 10
4036.907128551609
 20
1597.795718805293
 30
0.0
 11
4048.90712855161
 21
1597.795718805293
 31
0.0
  0
CIRCLE
  5
12C2
330
1F
100
AcDbEntity
  8
圖層1輪廓線
100
AcDbCircle
 10
4042.907128551609
 20
1612.795718805293
 30
0.0
 40
5.0
  0
CIRCLE
  5
12C3
330
1F
100
AcDbEntity
  8
圖層1輪廓線
100
AcDbCircle
 10
4042.907128551609
 20
1612.795718805293
 30
0.0
 40
3.0
  0
CIRCLE
  5
12C4
330
1F
100
AcDbEntity
  8
圖層1輪廓線
100
AcDbCircle
 10
4042.907128551609
 20
1627.795718805293
 30
0.0
 40
3.0
  0
CIRCLE
  5
12C5
330
1F
100
AcDbEntity
  8
圖層1輪廓線
100
AcDbCircle
 10
4042.907128551609
 20
1627.795718805293
 30
0.0
 40
5.0
  0
LINE
  5
12C6
330
1F
100
AcDbEntity
  8
圖層2中心線
 48
0.05
100
AcDbLine
 10
4036.907128551609
 20
1612.795718805293
 30
0.0
 11
4048.90712855161
 21
1612.795718805293
 31
0.0
  0
LINE
  5
12C7
330
1F
100
AcDbEntity
  8
圖層2中心線
 48
0.05
100
AcDbLine
 10
4036.907128551609
 20
1627.795718805293
 30
0.0
 11
4048.90712855161
 21
1627.795718805293
 31
0.0
  0
LINE
  5
12C8
330
1F
100
AcDbEntity
  8
圖層2中心線
 48
0.05
100
AcDbLine
 10
4042.907128551609
 20
1618.795718805293
 30
0.0
 11
4042.907128551609
 21
1606.795718805293
 31
0.0
  0
LINE
  5
12C9
330
1F
100
AcDbEntity
  8
圖層2中心線
 48
0.05
100
AcDbLine
 10
4042.907128551609
 20
1633.795718805293
 30
0.0
 11
4042.907128551609
 21
1621.795718805293
 31
0.0
  0
LINE
  5
12CA
330
1F
100
AcDbEntity
  8
圖層4尺寸線
100
AcDbLine
 10
3877.90712855161
 20
1381.506759437789
 30
0.0
 11
3894.377745536238
 21
1381.506759437789
 31
0.0
  0
LINE
  5
12CB
330
1F
100
AcDbEntity
  8
圖層1輪廓線
100
AcDbLine
 10
4022.907128551609
 20
1381.506759437789
 30
0.0
 11
4022.907128551609
 21
1582.795718805293
 31
0.0
  0
LINE
  5
12CC
330
1F
100
AcDbEntity
  8
圖層1輪廓線
100
AcDbLine
 10
3972.907128551609
 20
1670.006759437788
 30
0.0
 11
3972.907128551609
 21
1647.795718805294
 31
0.0
  0
LINE
  5
12CD
330
1F
100
AcDbEntity
  8
圖層1輪廓線
100
AcDbLine
 10
3974.407128551609
 20
1321.506759437788
 30
0.0
 11
4021.407128551609
 21
1321.506759437788
 31
0.0
  0
LINE
  5
12CE
330
1F
100
AcDbEntity
  8
圖層1輪廓線
100
AcDbLine
 10
3972.907128551609
 20
1670.006759437788
 30
0.0
 11
3974.407128551609
 21
1671.506759437788
 31
0.0
  0
LINE
  5
12CF
330
1F
100
AcDbEntity
  8
圖層1輪廓線
100
AcDbLine
 10
4022.907128551609
 20
1670.006759437788
 30
0.0
 11
3972.907128551609
 21
1670.006759437788
 31
0.0
  0
LINE
  5
12D0
330
1F
100
AcDbEntity
  8
圖層1輪廓線
100
AcDbLine
 10
4021.407128551609
 20
1671.506759437788
 30
0.0
 11
3974.407128551609
 21
1671.506759437788
 31
0.0
  0
LINE
  5
12D1
330
1F
100
AcDbEntity
  8
圖層1輪廓線
100
AcDbLine
 10
4021.407128551609
 20
1671.506759437788
 30
0.0
 11
4022.907128551609
 21
1670.006759437788
 31
0.0
  0
LINE
  5
12D2
330
1F
100
AcDbEntity
  8
圖層1輪廓線
100
AcDbLine
 10
3972.907128551609
 20
1582.795718805293
 30
0.0
 11
3972.907128551609
 21
1381.506759437789
 31
0.0
  0
LINE
  5
12D3
330
1F
100
AcDbEntity
  8
圖層1輪廓線
100
AcDbLine
 10
4022.907128551609
 20
1642.795718805293
 30
0.0
 11
4022.907128551609
 21
1670.006759437788
 31
0.0
  0
LINE
  5
12D4
330
1F
100
AcDbEntity
  8
圖層1輪廓線
100
AcDbLine
 10
4039.907128551609
 20
1596.063667997724
 30
0.0
 11
4042.907128551609
 21
1594.331617190156
 31
0.0
  0
LINE
  5
12D5
330
1F
100
AcDbEntity
  8
圖層1輪廓線
100
AcDbLine
 10
4042.907128551609
 20
1594.331617190156
 30
0.0
 11
4045.907128551609
 21
1596.063667997724
 31
0.0
  0
LINE
  5
12D6
330
1F
100
AcDbEntity
  8
圖層1輪廓線
100
AcDbLine
 10
4045.907128551609
 20
1596.063667997724
 30
0.0
 11
4045.907128551609
 21
1599.527769612862
 31
0.0
  0
LINE
  5
12D7
330
1F
100
AcDbEntity
  8
圖層1輪廓線
100
AcDbLine
 10
4045.907128551609
 20
1599.527769612862
 30
0.0
 11
4042.907128551609
 21
1601.259820420431
 31
0.0
  0
LINE
  5
12D8
330
1F
100
AcDbEntity
  8
圖層1輪廓線
100
AcDbLine
 10
4042.907128551609
 20
1601.259820420431
 30
0.0
 11
4039.907128551609
 21
1599.527769612862
 31
0.0
  0
LINE
  5
12D9
330
1F
100
AcDbEntity
  8
圖層1輪廓線
100
AcDbLine
 10
4039.907128551609
 20
1599.527769612862
 30
0.0
 11
4039.907128551609
 21
1596.063667997724
 31
0.0
  0
LINE
  5
12DA
330
1F
100
AcDbEntity
  8
圖層1輪廓線
100
AcDbLine
 10
4039.907128551609
 20
1626.063667997724
 30
0.0
 11
4042.907128551609
 21
1624.331617190156
 31
0.0
  0
LINE
  5
12DB
330
1F
100
AcDbEntity
  8
圖層1輪廓線
100
AcDbLine
 10
4042.907128551609
 20
1624.331617190156
 30
0.0
 11
4045.907128551609
 21
1626.063667997724
 31
0.0
  0
LINE
  5
12DC
330
1F
100
AcDbEntity
  8
圖層1輪廓線
100
AcDbLine
 10
4045.907128551609
 20
1626.063667997724
 30
0.0
 11
4045.907128551609
 21
1629.527769612862
 31
0.0
  0
LINE
  5
12DD
330
1F
100
AcDbEntity
  8
圖層1輪廓線
100
AcDbLine
 10
4045.907128551609
 20
1629.527769612862
 30
0.0
 11
4042.907128551609
 21
1631.259820420431
 31
0.0
  0
LINE
  5
12DE
330
1F
100
AcDbEntity
  8
圖層1輪廓線
100
AcDbLine
 10
4042.907128551609
 20
1631.259820420431
 30
0.0
 11
4039.907128551609
 21
1629.527769612862
 31
0.0
  0
LINE
  5
12DF
330
1F
100
AcDbEntity
  8
圖層1輪廓線
100
AcDbLine
 10
4039.907128551609
 20
1629.527769612862
 30
0.0
 11
4039.907128551609
 21
1626.063667997724
 31
0.0
  0
LINE
  5
12E0
330
1F
100
AcDbEntity
  8
圖層1輪廓線
100
AcDbLine
 10
4039.907128551609
 20
1611.063667997724
 30
0.0
 11
4042.907128551609
 21
1609.331617190155
 31
0.0
  0
LINE
  5
12E1
330
1F
100
AcDbEntity
  8
圖層1輪廓線
100
AcDbLine
 10
4042.907128551609
 20
1609.331617190155
 30
0.0
 11
4045.907128551609
 21
1611.063667997724
 31
0.0
  0
LINE
  5
12E2
330
1F
100
AcDbEntity
  8
圖層1輪廓線
100
AcDbLine
 10
4045.907128551609
 20
1611.063667997724
 30
0.0
 11
4045.907128551609
 21
1614.527769612862
 31
0.0
  0
LINE
  5
12E3
330
1F
100
AcDbEntity
  8
圖層1輪廓線
100
AcDbLine
 10
4045.907128551609
 20
1614.527769612862
 30
0.0
 11
4042.907128551609
 21
1616.259820420431
 31
0.0
  0
LINE
  5
12E4
330
1F
100
AcDbEntity
  8
圖層1輪廓線
100
AcDbLine
 10
4042.907128551609
 20
1616.259820420431
 30
0.0
 11
4039.907128551609
 21
1614.527769612862
 31
0.0
  0
LINE
  5
12E5
330
1F
100
AcDbEntity
  8
圖層1輪廓線
100
AcDbLine
 10
4039.907128551609
 20
1614.527769612862
 30
0.0
 11
4039.907128551609
 21
1611.063667997724
 31
0.0
  0
LINE
  5
12E6
330
1F
100
AcDbEntity
  8
圖層1輪廓線
100
AcDbLine
 10
3504.321295473386
 20
1321.506759437788
 30
0.0
 11
3354.321295473386
 21
1321.506759437788
 31
0.0
  0
LINE
  5
12E7
330
1F
100
AcDbEntity
  8
圖層1輪廓線
100
AcDbLine
 10
3354.321295473386
 20
1321.506759437788
 30
0.0
 11
3354.321295473386
 21
1378.506759437788
 31
0.0
  0
LINE
  5
12E8
330
1F
100
AcDbEntity
  8
圖層1輪廓線
100
AcDbLine
 10
3357.321295473386
 20
1381.506759437789
 30
0.0
 11
3501.321295473387
 21
1381.506759437789
 31
0.0
  0
LINE
  5
12E9
330
1F
100
AcDbEntity
  8
圖層3虛線
100
AcDbLine
 10
3504.321295473386
 20
1328.506759437788
 30
0.0
 11
3504.321295473386
 21
1321.506759437788
 31
0.0
  0
LINE
  5
12EA
330
1F
100
AcDbEntity
  8
圖層1輪廓線
100
AcDbLine
 10
3379.321295473386
 20
1582.795718805293
 30
0.0
 11
3379.321295473386
 21
1642.795718805293
 31
0.0
  0
LINE
  5
12EB
330
1F
100
AcDbEntity
  8
圖層1輪廓線
100
AcDbLine
 10
3479.321295473386
 20
1582.795718805293
 30
0.0
 11
3479.321295473386
 21
1642.795718805293
 31
0.0
  0
LINE
  5
12EC
330
1F
100
AcDbEntity
  8
圖層1輪廓線
100
AcDbLine
 10
3479.321295473386
 20
1582.795718805293
 30
0.0
 11
3449.821295473384
 21
1582.795718805293
 31
0.0
  0
LINE
  5
12ED
330
1F
100
AcDbEntity
  8
圖層1輪廓線
100
AcDbLine
 10
3479.321295473386
 20
1602.795718805293
 30
0.0
 11
3379.321295473386
 21
1602.795718805293
 31
0.0
  0
LINE
  5
12EE
330
1F
100
AcDbEntity
  8
圖層1輪廓線
100
AcDbLine
 10
3404.321295473386
 20
1381.506759437789
 30
0.0
 11
3404.321295473386
 21
1582.795718805293
 31
0.0
  0
LINE
  5
12EF
330
1F
100
AcDbEntity
  8
圖層1輪廓線
100
AcDbLine
 10
3454.321295473386
 20
1381.506759437789
 30
0.0
 11
3454.321295473386
 21
1582.795718805293
 31
0.0
  0
LINE
  5
12F0
330
1F
100
AcDbEntity
  8
圖層1輪廓線
100
AcDbLine
 10
3391.821295473386
 20
1582.795718805293
 30
0.0
 11
3391.821295473386
 21
1602.795718805293
 31
0.0
  0
LINE
  5
12F1
330
1F
100
AcDbEntity
  8
圖層1輪廓線
100
AcDbLine
 10
3466.821295473386
 20
1582.795718805293
 30
0.0
 11
3466.821295473386
 21
1602.795718805293
 31
0.0
  0
ARC
  5
12F2
330
1F
100
AcDbEntity
  8
圖層1輪廓線
100
AcDbCircle
 10
3857.65712855161
 20
1615.06134380529
 30
0.0
 40
27.2656249999976
100
AcDbArc
 50
247.9181196393515
 51
292.0818803606484
  0
ARC
  5
12F3
330
1F
100
AcDbEntity
  8
圖層1輪廓線
100
AcDbCircle
 10
3857.657128551611
 20
1570.530093805292
 30
0.0
 40
27.26562500000156
100
AcDbArc
 50
67.91811963935156
 51
112.0818803606484
  0
LINE
  5
12F4
330
1F
100
AcDbEntity
  8
圖層1輪廓線
100
AcDbLine
 10
3847.407128551611
 20
1589.795718805293
 30
0.0
 11
3847.407128551611
 21
1595.795718805293
 31
0.0
  0
ARC
  5
12F5
330
1F
100
AcDbEntity
  8
圖層1輪廓線
100
AcDbCircle
 10
3878.15712855161
 20
1570.530093805295
 30
0.0
 40
27.26562499999825
100
AcDbArc
 50
99.93815598668136
 51
112.0818803606484
  0
ARC
  5
12F6
330
1F
100
AcDbEntity
  8
圖層1輪廓線
100
AcDbCircle
 10
3878.15712855161
 20
1615.06134380529
 30
0.0
 40
27.26562499999781
100
AcDbArc
 50
247.9181196393515
 51
279.9381559866814
  0
LINE
  5
12F7
330
1F
100
AcDbEntity
  8
圖層1輪廓線
100
AcDbLine
 10
3857.054699781444
 20
1587.795718805293
 30
0.0
 11
3878.759557321778
 21
1587.795718805293
 31
0.0
  0
LINE
  5
12F8
330
1F
100
AcDbEntity
  8
圖層1輪廓線
100
AcDbLine
 10
3857.054699781443
 20
1597.795718805293
 30
0.0
 11
3873.032128551609
 21
1597.795718805293
 31
0.0
  0
ARC
  5
12F9
330
1F
100
AcDbEntity
  8
圖層1輪廓線
100
AcDbCircle
 10
3411.567774695804
 20
1586.540510471962
 30
0.0
 40
9.755208333331509
100
AcDbArc
 50
52.65349068557176
 51
127.3465093144282
  0
ARC
  5
12FA
330
1F
100
AcDbEntity
  8
圖層1輪廓線
100
AcDbCircle
 10
3411.567774695804
 20
1596.050927138626
 30
0.0
 40
9.755208333333024
100
AcDbArc
 50
232.6534906855718
 51
307.3465093144283
  0
LINE
  5
12FB
330
1F
100
AcDbEntity
  8
圖層1輪廓線
100
AcDbLine
 10
3405.649934436611
 20
1588.295718805293
 30
0.0
 11
3405.649934436611
 21
1594.295718805293
 31
0.0
  0
LINE
  5
12FC
330
1F
100
AcDbEntity
  8
圖層1輪廓線
100
AcDbLine
 10
3411.567774695804
 20
1586.295718805294
 30
0.0
 11
3447.074816250967
 21
1586.295718805293
 31
0.0
  0
LINE
  5
12FD
330
1F
100
AcDbEntity
  8
圖層1輪廓線
100
AcDbLine
 10
3411.567774695804
 20
1596.295718805294
 30
0.0
 11
3447.074816250967
 21
1596.295718805293
 31
0.0
  0
ARC
  5
12FE
330
1F
100
AcDbEntity
  8
圖層1輪廓線
100
AcDbCircle
 10
3429.321295473386
 20
1560.274885471962
 30
0.0
 40
36.02083333333123
100
AcDbArc
 50
70.81746569497115
 51
109.1825343050288
  0
ARC
  5
12FF
330
1F
100
AcDbEntity
  8
圖層1輪廓線
100
AcDbCircle
 10
3429.321295473386
 20
1622.316552138628
 30
0.0
 40
36.02083333333455
100
AcDbArc
 50
250.8174656949711
 51
289.1825343050289
  0
LINE
  5
1300
330
1F
100
AcDbEntity
  8
圖層1輪廓線
100
AcDbLine
 10
3417.485614954998
 20
1588.295718805293
 30
0.0
 11
3417.485614954998
 21
1594.295718805293
 31
0.0
  0
LINE
  5
1301
330
1F
100
AcDbEntity
  8
圖層1輪廓線
100
AcDbLine
 10
3441.156975991773
 20
1588.295718805293
 30
0.0
 11
3441.156975991773
 21
1594.295718805293
 31
0.0
  0
LINE
  5
1302
330
1F
100
AcDbEntity
  8
圖層1輪廓線
100
AcDbLine
 10
3452.99265651016
 20
1588.295718805293
 30
0.0
 11
3452.99265651016
 21
1594.295718805294
 31
0.0
  0
ARC
  5
1303
330
1F
100
AcDbEntity
  8
圖層1輪廓線
100
AcDbCircle
 10
3447.074816250967
 20
1586.54051047196
 30
0.0
 40
9.755208333333525
100
AcDbArc
 50
52.65349068557176
 51
127.3465093144282
  0
ARC
  5
1304
330
1F
100
AcDbEntity
  8
圖層1輪廓線
100
AcDbCircle
 10
3447.074816250967
 20
1596.050927138627
 30
0.0
 40
9.755208333333412
100
AcDbArc
 50
232.6534906855718
 51
307.3465093144283
  0
LINE
  5
1305
330
1F
100
AcDbEntity
  8
圖層1輪廓線
100
AcDbLine
 10
3847.40712855161
 20
1572.795718805293
 30
0.0
 11
3888.407128551609
 21
1572.795718805293
 31
0.0
  0
LINE
  5
1306
330
1F
100
AcDbEntity
  8
圖層1輪廓線
100
AcDbLine
 10
3847.40712855161
 20
1587.795718805293
 30
0.0
 11
3883.28212855161
 21
1587.795718805293
 31
0.0
  0
ARC
  5
1307
330
1F
100
AcDbEntity
  8
圖層1輪廓線
100
AcDbCircle
 10
3857.65712855161
 20
1550.533218805293
 30
0.0
 40
22.26250000000009
100
AcDbArc
 50
62.58607799182947
 51
117.4139220081705
  0
LINE
  5
1308
330
1F
100
AcDbEntity
  8
圖層1輪廓線
100
AcDbLine
 10
3847.40712855161
 20
1532.795718805293
 30
0.0
 11
3888.407128551609
 21
1532.795718805293
 31
0.0
  0
LINE
  5
1309
330
1F
100
AcDbEntity
  8
圖層1輪廓線
100
AcDbLine
 10
3847.40712855161
 20
1537.795718805293
 30
0.0
 11
3888.407128551609
 21
1537.795718805293
 31
0.0
  0
ARC
  5
130A
330
1F
100
AcDbEntity
  8
圖層1輪廓線
100
AcDbCircle
 10
3857.65712855161
 20
1560.058218805293
 30
0.0
 40
22.26249999999979
100
AcDbArc
 50
242.5860779918295
 51
297.4139220081705
  0
LINE
  5
130B
330
1F
100
AcDbEntity
  8
圖層1輪廓線
100
AcDbLine
 10
3847.40712855161
 20
1532.795718805293
 30
0.0
 11
3847.40712855161
 21
1587.795718805293
 31
0.0
  0
LINE
  5
130C
330
1F
100
AcDbEntity
  8
圖層1輪廓線
100
AcDbLine
 10
3888.407128551609
 20
1537.795718805293
 30
0.0
 11
3888.407128551609
 21
1582.795718805293
 31
0.0
  0
ARC
  5
130D
330
1F
100
AcDbEntity
  8
圖層1輪廓線
100
AcDbCircle
 10
3878.15712855161
 20
1560.058218805292
 30
0.0
 40
22.26249999999903
100
AcDbArc
 50
242.5860779918295
 51
297.4139220081705
  0
LINE
  5
130E
330
1F
100
AcDbEntity
  8
圖層1輪廓線
100
AcDbLine
 10
3888.407128551609
 20
1532.795718805293
 30
0.0
 11
3888.407128551609
 21
1537.795718805293
 31
0.0
  0
ARC
  5
130F
330
1F
100
AcDbEntity
  8
圖層1輪廓線
100
AcDbCircle
 10
3878.15712855161
 20
1550.533218805293
 30
0.0
 40
22.26250000000009
100
AcDbArc
 50
62.58607799182947
 51
117.4139220081705
  0
LINE
  5
1310
330
1F
100
AcDbEntity
  8
圖層1輪廓線
100
AcDbLine
 10
3411.567774695804
 20
1571.295718805293
 30
0.0
 11
3447.074816250967
 21
1571.295718805293
 31
0.0
  0
ARC
  5
1311
330
1F
100
AcDbEntity
  8
圖層1輪廓線
100
AcDbCircle
 10
3429.321295473386
 20
1542.029052138625
 30
0.0
 40
29.26666666666804
100
AcDbArc
 50
66.14595163640235
 51
113.8540483635976
  0
LINE
  5
1312
330
1F
100
AcDbEntity
  8
圖層1輪廓線
100
AcDbLine
 10
3411.567774695804
 20
1536.295718805293
 30
0.0
 11
3447.074816250967
 21
1536.295718805293
 31
0.0
  0
LINE
  5
1313
330
1F
100
AcDbEntity
  8
圖層1輪廓線
100
AcDbLine
 10
3408.821295473386
 20
1531.295718805293
 30
0.0
 11
3449.821295473384
 21
1531.295718805293
 31
0.0
  0
ARC
  5
1314
330
1F
100
AcDbEntity
  8
圖層1輪廓線
100
AcDbCircle
 10
3429.321295473386
 20
1565.38269890479
 30
0.0
 40
29.10241990186305
100
AcDbArc
 50
246.0028878993021
 51
293.9971121006449
  0
LINE
  5
1315
330
1F
100
AcDbEntity
  8
圖層1輪廓線
100
AcDbLine
 10
3408.821295473386
 20
1586.295718805293
 30
0.0
 11
3449.821295473384
 21
1586.295718805293
 31
0.0
  0
LINE
  5
1316
330
1F
100
AcDbEntity
  8
圖層1輪廓線
100
AcDbLine
 10
3405.649934436611
 20
1538.795718805293
 30
0.0
 11
3405.649934436611
 21
1568.795718805293
 31
0.0
  0
LINE
  5
1317
330
1F
100
AcDbEntity
  8
圖層1輪廓線
100
AcDbLine
 10
3417.485614954998
 20
1538.795718805294
 30
0.0
 11
3417.485614954998
 21
1568.795718805293
 31
0.0
  0
ARC
  5
1318
330
1F
100
AcDbEntity
  8
圖層1輪廓線
100
AcDbCircle
 10
3411.567774695804
 20
1544.54988547196
 30
0.0
 40
8.254166666666545
100
AcDbArc
 50
224.1966084730804
 51
315.8033915269196
  0
LINE
  5
1319
330
1F
100
AcDbEntity
  8
圖層1輪廓線
100
AcDbLine
 10
3408.821295473386
 20
1531.295718805293
 30
0.0
 11
3408.821295473386
 21
1536.766048420612
 31
0.0
  0
ARC
  5
131A
330
1F
100
AcDbEntity
  8
圖層1輪廓線
100
AcDbCircle
 10
3411.567774695804
 20
1563.041552138626
 30
0.0
 40
8.254166666666389
100
AcDbArc
 50
44.19660847308035
 51
135.8033915269196
  0
LINE
  5
131B
330
1F
100
AcDbEntity
  8
圖層1輪廓線
100
AcDbLine
 10
3408.821295473386
 20
1570.825389189974
 30
0.0
 11
3408.821295473386
 21
1586.295718805293
 31
0.0
  0
LINE
  5
131C
330
1F
100
AcDbEntity
  8
圖層1輪廓線
100
AcDbLine
 10
3441.156975991773
 20
1538.795718805293
 30
0.0
 11
3441.156975991773
 21
1568.795718805294
 31
0.0
  0
LINE
  5
131D
330
1F
100
AcDbEntity
  8
圖層1輪廓線
100
AcDbLine
 10
3452.99265651016
 20
1538.795718805293
 30
0.0
 11
3452.99265651016
 21
1568.795718805293
 31
0.0
  0
ARC
  5
131E
330
1F
100
AcDbEntity
  8
圖層1輪廓線
100
AcDbCircle
 10
3447.074816250967
 20
1544.54988547196
 30
0.0
 40
8.254166666666625
100
AcDbArc
 50
224.1966084730804
 51
315.8033915269196
  0
LINE
  5
131F
330
1F
100
AcDbEntity
  8
圖層1輪廓線
100
AcDbLine
 10
3449.821295473385
 20
1531.295718805293
 30
0.0
 11
3449.821295473385
 21
1536.766048420612
 31
0.0
  0
ARC
  5
1320
330
1F
100
AcDbEntity
  8
圖層1輪廓線
100
AcDbCircle
 10
3447.074816250967
 20
1563.041552138626
 30
0.0
 40
8.254166666666629
100
AcDbArc
 50
44.19660847308035
 51
135.8033915269196
  0
LINE
  5
1321
330
1F
100
AcDbEntity
  8
圖層1輪廓線
100
AcDbLine
 10
3449.821295473384
 20
1570.825389189974
 30
0.0
 11
3449.821295473384
 21
1586.295718805293
 31
0.0
  0
LINE
  5
1322
330
1F
100
AcDbEntity
  8
圖層1輪廓線
100
AcDbLine
 10
3414.321295473386
 20
1602.795718805293
 30
0.0
 11
3414.321295473386
 21
1596.295718805293
 31
0.0
  0
LINE
  5
1323
330
1F
100
AcDbEntity
  8
圖層1輪廓線
100
AcDbLine
 10
3414.321295473386
 20
1596.295718805293
 30
0.0
 11
3444.321295473387
 21
1596.295718805293
 31
0.0
  0
LINE
  5
1324
330
1F
100
AcDbEntity
  8
圖層1輪廓線
100
AcDbLine
 10
3444.321295473387
 20
1596.295718805293
 30
0.0
 11
3444.321295473387
 21
1602.795718805293
 31
0.0
  0
LINE
  5
1325
330
1F
100
AcDbEntity
  8
圖層1輪廓線
100
AcDbLine
 10
3408.821295473386
 20
1582.795718805293
 30
0.0
 11
3379.321295473386
 21
1582.795718805293
 31
0.0
  0
LINE
  5
1326
330
1F
100
AcDbEntity
  8
圖層1輪廓線
100
AcDbLine
 10
3852.90712855161
 20
1602.795718805293
 30
0.0
 11
3852.90712855161
 21
1597.795718805293
 31
0.0
  0
LINE
  5
1327
330
1F
100
AcDbEntity
  8
圖層1輪廓線
100
AcDbLine
 10
3852.90712855161
 20
1597.795718805293
 30
0.0
 11
3873.032128551609
 21
1597.795718805293
 31
0.0
  0
LINE
  5
1328
330
1F
100
AcDbEntity
  8
圖層1輪廓線
100
AcDbLine
 10
3962.605858362388
 20
1725.295718805293
 30
0.0
 11
3961.605858362388
 21
1726.295718805294
 31
0.0
  0
LINE
  5
1329
330
1F
100
AcDbEntity
  8
圖層1輪廓線
100
AcDbLine
 10
3947.605858362388
 20
1726.295718805294
 30
0.0
 11
3946.605858362389
 21
1725.295718805293
 31
0.0
  0
LINE
  5
132A
330
1F
100
AcDbEntity
  8
圖層1輪廓線
100
AcDbLine
 10
3958.605858362388
 20
1726.295718805294
 30
0.0
 11
3958.605858362388
 21
1717.795718805293
 31
0.0
  0
LINE
  5
132B
330
1F
100
AcDbEntity
  8
圖層1輪廓線
100
AcDbLine
 10
3950.605858362389
 20
1726.295718805294
 30
0.0
 11
3950.605858362389
 21
1717.795718805293
 31
0.0
  0
LINE
  5
132C
330
1F
100
AcDbEntity
  8
圖層1輪廓線
100
AcDbLine
 10
3958.605858362388
 20
1726.295718805294
 30
0.0
 11
3950.605858362389
 21
1717.795718805293
 31
0.0
  0
LINE
  5
132D
330
1F
100
AcDbEntity
  8
圖層1輪廓線
100
AcDbLine
 10
3958.605858362388
 20
1717.795718805293
 30
0.0
 11
3950.605858362389
 21
1726.295718805294
 31
0.0
  0
LINE
  5
132E
330
1F
100
AcDbEntity
  8
圖層2中心線
 48
0.5
100
AcDbLine
 10
3954.605858362388
 20
1733.505153866782
 30
0.0
 11
3954.605858362388
 21
1569.530966982477
 31
0.0
  0
LINE
  5
132F
330
1F
100
AcDbEntity
  8
圖層1輪廓線
100
AcDbLine
 10
3962.605858362388
 20
1725.295718805293
 30
0.0
 11
3958.605858362388
 21
1725.295718805293
 31
0.0
  0
LINE
  5
1330
330
1F
100
AcDbEntity
  8
圖層1輪廓線
100
AcDbLine
 10
3946.605858362389
 20
1725.295718805293
 30
0.0
 11
3946.605858362389
 21
1647.795718805293
 31
0.0
  0
LINE
  5
1331
330
1F
100
AcDbEntity
  8
圖層1輪廓線
100
AcDbLine
 10
3958.605858362388
 20
1717.795718805293
 30
0.0
 11
3950.605858362389
 21
1717.795718805293
 31
0.0
  0
ARC
  5
1332
330
1F
100
AcDbEntity
  8
圖層1輪廓線
100
AcDbCircle
 10
3954.605858362388
 20
1722.379052138627
 30
0.0
 40
6.083333333333297
100
AcDbArc
 50
228.8879095608038
 51
311.1120904391962
  0
LINE
  5
1333
330
1F
100
AcDbEntity
  8
圖層1輪廓線
100
AcDbLine
 10
3950.605858362389
 20
1725.295718805293
 30
0.0
 11
3946.605858362389
 21
1725.295718805293
 31
0.0
  0
LINE
  5
1334
330
1F
100
AcDbEntity
  8
圖層1輪廓線
100
AcDbLine
 10
3961.605858362388
 20
1726.295718805294
 30
0.0
 11
3947.605858362388
 21
1726.295718805294
 31
0.0
  0
LINE
  5
1335
330
1F
100
AcDbEntity
  8
圖層1輪廓線
100
AcDbLine
 10
3997.907128551609
 20
1671.506759437788
 30
0.0
 11
4015.907128551609
 21
1671.506759437788
 31
0.0
  0
LINE
  5
1336
330
1F
100
AcDbEntity
  8
圖層1輪廓線
100
AcDbLine
 10
4015.907128551609
 20
1671.506759437788
 30
0.0
 11
4015.907128551609
 21
1681.506759437789
 31
0.0
  0
LINE
  5
1337
330
1F
100
AcDbEntity
  8
圖層1輪廓線
100
AcDbLine
 10
4015.907128551609
 20
1681.506759437789
 30
0.0
 11
3962.605858362388
 21
1681.506759437789
 31
0.0
  0
LINE
  5
1338
330
1F
100
AcDbEntity
  8
圖層1輪廓線
100
AcDbLine
 10
3921.000726484161
 20
1681.506759437789
 30
0.0
 11
3921.000726484161
 21
1671.506759437788
 31
0.0
  0
LINE
  5
1339
330
1F
100
AcDbEntity
  8
圖層1輪廓線
100
AcDbLine
 10
3921.000726484161
 20
1671.506759437788
 30
0.0
 11
3946.605858362389
 21
1671.506759437788
 31
0.0
  0
LINE
  5
133A
330
1F
100
AcDbEntity
  8
圖層1輪廓線
100
AcDbLine
 10
3997.907128551609
 20
1681.506759437789
 30
0.0
 11
3987.907128551609
 21
1681.506759437789
 31
0.0
  0
LINE
  5
133B
330
1F
100
AcDbEntity
  8
圖層4尺寸線
100
AcDbLine
 10
3987.907128551609
 20
1681.506759437789
 30
0.0
 11
3987.907128551609
 21
1684.506759437789
 31
0.0
  0
LINE
  5
133C
330
1F
100
AcDbEntity
  8
圖層1輪廓線
100
AcDbLine
 10
3987.907128551609
 20
1684.506759437789
 30
0.0
 11
4007.907128551609
 21
1684.506759437789
 31
0.0
  0
LINE
  5
133D
330
1F
100
AcDbEntity
  8
圖層4尺寸線
100
AcDbLine
 10
4007.907128551609
 20
1684.506759437789
 30
0.0
 11
4007.907128551609
 21
1681.506759437789
 31
0.0
  0
ARC
  5
133E
330
1F
100
AcDbEntity
  8
圖層1輪廓線
100
AcDbCircle
 10
3989.679887215658
 20
1691.626551104455
 30
0.0
 40
2.880208333333381
100
AcDbArc
 50
17.79461318390024
 51
162.2053868160997
  0
ARC
  5
133F
330
1F
100
AcDbEntity
  8
圖層1輪廓線
100
AcDbCircle
 10
3989.679887215658
 20
1687.386967771122
 30
0.0
 40
2.880208333333234
100
AcDbArc
 50
197.7946131839002
 51
342.2053868160997
  0
LINE
  5
1340
330
1F
100
AcDbEntity
  8
圖層1輪廓線
100
AcDbLine
 10
3989.515664634828
 20
1684.506759437789
 30
0.0
 11
4006.298592468392
 21
1684.506759437789
 31
0.0
  0
LINE
  5
1341
330
1F
100
AcDbEntity
  8
圖層4尺寸線
100
AcDbLine
 10
3989.51566463483
 20
1694.506759437788
 30
0.0
 11
4006.298592468392
 21
1694.506759437788
 31
0.0
  0
LINE
  5
1342
330
1F
100
AcDbEntity
  8
圖層4尺寸線
100
AcDbLine
 10
3986.937473437007
 20
1686.506759437788
 30
0.0
 11
3986.937473437007
 21
1692.506759437789
 31
0.0
  0
LINE
  5
1343
330
1F
100
AcDbEntity
  8
圖層1輪廓線
100
AcDbLine
 10
3992.422300994309
 20
1686.506759437789
 30
0.0
 11
3992.422300994309
 21
1692.506759437788
 31
0.0
  0
ARC
  5
1344
330
1F
100
AcDbEntity
  8
圖層1輪廓線
100
AcDbCircle
 10
4006.134369887562
 20
1691.626551104455
 30
0.0
 40
2.880208333333343
100
AcDbArc
 50
17.79461318390024
 51
162.2053868160997
  0
ARC
  5
1345
330
1F
100
AcDbEntity
  8
圖層1輪廓線
100
AcDbCircle
 10
4006.134369887562
 20
1687.386967771122
 30
0.0
 40
2.880208333333234
100
AcDbArc
 50
197.7946131839002
 51
342.2053868160997
  0
LINE
  5
1346
330
1F
100
AcDbEntity
  8
圖層4尺寸線
100
AcDbLine
 10
4008.876783666213
 20
1686.506759437788
 30
0.0
 11
4008.876783666213
 21
1692.506759437788
 31
0.0
  0
LINE
  5
1347
330
1F
100
AcDbEntity
  8
圖層1輪廓線
100
AcDbLine
 10
4003.391956108911
 20
1686.506759437788
 30
0.0
 11
4003.391956108911
 21
1692.506759437788
 31
0.0
  0
ARC
  5
1348
330
1F
100
AcDbEntity
  8
圖層1輪廓線
100
AcDbCircle
 10
3997.907128551612
 20
1693.027592771121
 30
0.0
 40
8.520833333332422
100
AcDbArc
 50
229.932012950576
 51
310.067987049424
  0
ARC
  5
1349
330
1F
100
AcDbEntity
  8
圖層1輪廓線
100
AcDbCircle
 10
3997.907128551612
 20
1685.985926104455
 30
0.0
 40
8.520833333333246
100
AcDbArc
 50
49.93201295057602
 51
130.0679870494239
  0
LINE
  5
134A
330
1F
100
AcDbEntity
  8
圖層1輪廓線
100
AcDbLine
 10
3954.605858362388
 20
1642.795718805293
 30
0.0
 11
3932.105858362388
 21
1642.795718805293
 31
0.0
  0
LINE
  5
134B
330
1F
100
AcDbEntity
  8
圖層1輪廓線
100
AcDbLine
 10
3932.105858362388
 20
1642.795718805293
 30
0.0
 11
3932.105858362388
 21
1647.795718805293
 31
0.0
  0
LINE
  5
134C
330
1F
100
AcDbEntity
  8
圖層1輪廓線
100
AcDbLine
 10
3932.105858362388
 20
1647.795718805293
 30
0.0
 11
3977.105858362389
 21
1647.795718805293
 31
0.0
  0
LINE
  5
134D
330
1F
100
AcDbEntity
  8
圖層1輪廓線
100
AcDbLine
 10
3977.105858362389
 20
1647.795718805293
 30
0.0
 11
3977.105858362389
 21
1642.795718805293
 31
0.0
  0
LINE
  5
134E
330
1F
100
AcDbEntity
  8
圖層1輪廓線
100
AcDbLine
 10
3962.605858362388
 20
1671.506759437788
 30
0.0
 11
3997.907128551609
 21
1671.506759437788
 31
0.0
  0
LINE
  5
134F
330
1F
100
AcDbEntity
  8
圖層1輪廓線
100
AcDbLine
 10
3962.605858362388
 20
1647.795718805293
 30
0.0
 11
3962.605858362388
 21
1725.295718805293
 31
0.0
  0
LINE
  5
1350
330
1F
100
AcDbEntity
  8
圖層4尺寸線
100
AcDbLine
 10
3935.000726484161
 20
1531.506759437788
 30
0.0
 11
3930.500726484161
 21
1531.506759437788
 31
0.0
  0
LINE
  5
1351
330
1F
100
AcDbEntity
  8
圖層4尺寸線
100
AcDbLine
 10
3939.500726484162
 20
1531.506759437788
 30
0.0
 11
3935.000726484161
 21
1531.506759437788
 31
0.0
  0
LINE
  5
1352
330
1F
100
AcDbEntity
  8
圖層4尺寸線
100
AcDbLine
 10
3928.500726484161
 20
1671.506759437788
 30
0.0
 11
3928.500726484161
 21
1642.795718805293
 31
0.0
  0
LINE
  5
1353
330
1F
100
AcDbEntity
  8
圖層4尺寸線
100
AcDbLine
 10
3941.500726484161
 20
1671.506759437788
 30
0.0
 11
3941.500726484161
 21
1647.795718805293
 31
0.0
  0
LINE
  5
1354
330
1F
100
AcDbEntity
  8
圖層4尺寸線
100
AcDbLine
 10
3930.500726484161
 20
1671.506759437788
 30
0.0
 11
3930.500726484161
 21
1642.795718805293
 31
0.0
  0
LINE
  5
1355
330
1F
100
AcDbEntity
  8
圖層4尺寸線
100
AcDbLine
 10
3939.500726484162
 20
1671.506759437788
 30
0.0
 11
3939.500726484161
 21
1647.795718805293
 31
0.0
  0
LINE
  5
1356
330
1F
100
AcDbEntity
  8
圖層4尺寸線
100
AcDbLine
 10
3935.000726484161
 20
1533.506759437788
 30
0.0
 11
3928.500726484161
 21
1533.506759437788
 31
0.0
  0
LINE
  5
1357
330
1F
100
AcDbEntity
  8
圖層4尺寸線
100
AcDbLine
 10
3941.500726484161
 20
1533.506759437788
 30
0.0
 11
3935.000726484161
 21
1533.506759437788
 31
0.0
  0
LINE
  5
1358
330
1F
100
AcDbEntity
  8
圖層4尺寸線
100
AcDbLine
 10
3928.500726484161
 20
1533.506759437788
 30
0.0
 11
3930.500726484161
 21
1531.506759437788
 31
0.0
  0
LINE
  5
1359
330
1F
100
AcDbEntity
  8
圖層4尺寸線
100
AcDbLine
 10
3939.500726484161
 20
1531.506759437788
 30
0.0
 11
3941.500726484161
 21
1533.506759437788
 31
0.0
  0
LINE
  5
135A
330
1F
100
AcDbEntity
  8
圖層4尺寸線
100
AcDbLine
 10
3928.500726484161
 20
1582.795718805293
 30
0.0
 11
3928.500726484161
 21
1533.506759437788
 31
0.0
  0
LINE
  5
135B
330
1F
100
AcDbEntity
  8
圖層4尺寸線
100
AcDbLine
 10
3930.500726484161
 20
1582.795718805293
 30
0.0
 11
3930.500726484161
 21
1531.506759437788
 31
0.0
  0
LINE
  5
135C
330
1F
100
AcDbEntity
  8
圖層4尺寸線
100
AcDbLine
 10
3939.500726484161
 20
1582.795718805293
 30
0.0
 11
3939.500726484161
 21
1531.506759437788
 31
0.0
  0
LINE
  5
135D
330
1F
100
AcDbEntity
  8
圖層4尺寸線
100
AcDbLine
 10
3941.500726484161
 20
1582.795718805293
 30
0.0
 11
3941.500726484161
 21
1533.506759437788
 31
0.0
  0
LINE
  5
135E
330
1F
100
AcDbEntity
  8
圖層1輪廓線
100
AcDbLine
 10
3921.000726484161
 20
1681.506759437789
 30
0.0
 11
3946.605858362389
 21
1681.506759437789
 31
0.0
  0
LINE
  5
135F
330
1F
100
AcDbEntity
  8
圖層1輪廓線
100
AcDbLine
 10
3935.000726484161
 20
1681.506759437789
 30
0.0
 11
3922.00072648416
 21
1681.506759437789
 31
0.0
  0
LINE
  5
1360
330
1F
100
AcDbEntity
  8
圖層1輪廓線
100
AcDbLine
 10
3922.00072648416
 20
1681.506759437789
 30
0.0
 11
3922.00072648416
 21
1693.506759437789
 31
0.0
  0
LINE
  5
1361
330
1F
100
AcDbEntity
  8
圖層1輪廓線
100
AcDbLine
 10
3922.00072648416
 20
1693.506759437789
 30
0.0
 11
3946.605858362389
 21
1693.506759437789
 31
0.0
  0
LINE
  5
1362
330
1F
100
AcDbEntity
  8
圖層1輪廓線
100
AcDbLine
 10
3946.000726484161
 20
1705.506759437788
 30
0.0
 11
3946.605858362389
 21
1705.506759437788
 31
0.0
  0
LINE
  5
1363
330
1F
100
AcDbEntity
  8
圖層2中心線
 48
0.2
100
AcDbLine
 10
3915.895378037714
 20
1699.506759437788
 30
0.0
 11
3953.800251031404
 21
1699.506759437788
 31
0.0
  0
LINE
  5
1364
330
1F
100
AcDbEntity
  8
圖層1輪廓線
100
AcDbLine
 10
3904.000726484161
 20
1716.506759437788
 30
0.0
 11
3946.605858362389
 21
1716.506759437788
 31
0.0
  0
LINE
  5
1365
330
1F
100
AcDbEntity
  8
圖層1輪廓線
100
AcDbLine
 10
3904.000726484161
 20
1728.506759437788
 30
0.0
 11
3966.000726484161
 21
1728.506759437788
 31
0.0
  0
LINE
  5
1366
330
1F
100
AcDbEntity
  8
圖層2中心線
100
AcDbLine
 10
3935.000726484161
 20
1687.985646118858
 30
0.0
 11
3935.000726484161
 21
1736.886050446627
 31
0.0
  0
ARC
  5
1367
330
1F
100
AcDbEntity
  8
圖層1輪廓線
100
AcDbCircle
 10
3904.000726484161
 20
1722.506759437789
 30
0.0
 40
6.000000000000074
100
AcDbArc
 50
90.0
 51
98.08254719776313
  0
LINE
  5
1368
330
1F
100
AcDbEntity
  8
圖層1輪廓線
100
AcDbLine
 10
3920.000726484161
 20
1705.506759437788
 30
0.0
 11
3920.000726484161
 21
1693.506759437789
 31
0.0
  0
LINE
  5
1369
330
1F
100
AcDbEntity
  8
圖層1輪廓線
100
AcDbLine
 10
3920.000726484161
 20
1693.506759437789
 30
0.0
 11
3946.605858362389
 21
1693.506759437789
 31
0.0
  0
ARC
  5
136A
330
1F
100
AcDbEntity
  8
圖層1輪廓線
100
AcDbCircle
 10
3924.000726484161
 20
1708.506759437788
 30
0.0
 40
3.0
100
AcDbArc
 50
270.0
 51
0.0
  0
LINE
  5
136B
330
1F
100
AcDbEntity
  8
圖層1輪廓線
100
AcDbLine
 10
3920.000726484161
 20
1705.506759437788
 30
0.0
 11
3946.605858362389
 21
1705.506759437788
 31
0.0
  0
LINE
  5
136C
330
1F
100
AcDbEntity
  8
圖層1輪廓線
100
AcDbLine
 10
3913.177107386211
 20
1716.506759437788
 30
0.0
 11
3914.288305445023
 21
1712.359711825032
 31
0.0
  0
LINE
  5
136D
330
1F
100
AcDbEntity
  8
圖層1輪廓線
100
AcDbLine
 10
3927.000726484161
 20
1716.506759437788
 30
0.0
 11
3927.000726484161
 21
1708.506759437788
 31
0.0
  0
LINE
  5
136E
330
1F
100
AcDbEntity
  8
圖層1輪廓線
100
AcDbLine
 10
3908.000726484161
 20
1716.506759437788
 30
0.0
 11
3909.458676313578
 21
1711.065616599519
 31
0.0
  0
ARC
  5
136F
330
1F
100
AcDbEntity
  8
圖層1輪廓線
100
AcDbCircle
 10
3916.703120010746
 20
1713.006759437789
 30
0.0
 40
2.5
100
AcDbArc
 50
194.9999999999944
 51
270.0
  0
ARC
  5
1370
330
1F
100
AcDbEntity
  8
圖層1輪廓線
100
AcDbCircle
 10
3916.703120010746
 20
1713.006759437789
 30
0.0
 40
7.5
100
AcDbArc
 50
194.9999999999944
 51
270.0
  0
LINE
  5
1371
330
1F
100
AcDbEntity
  8
圖層1輪廓線
100
AcDbLine
 10
3920.000726484161
 20
1710.506759437788
 30
0.0
 11
3927.000726484161
 21
1710.506759437788
 31
0.0
  0
LINE
  5
1372
330
1F
100
AcDbEntity
  8
圖層1輪廓線
100
AcDbLine
 10
3920.000726484161
 20
1705.506759437788
 30
0.0
 11
3924.000726484161
 21
1705.506759437788
 31
0.0
  0
LINE
  5
1373
330
1F
100
AcDbEntity
  8
圖層1輪廓線
100
AcDbLine
 10
3920.000726484161
 20
1710.506759437788
 30
0.0
 11
3916.703120010746
 21
1710.506759437788
 31
0.0
  0
LINE
  5
1374
330
1F
100
AcDbEntity
  8
圖層1輪廓線
100
AcDbLine
 10
3920.000726484161
 20
1705.506759437788
 30
0.0
 11
3916.000726484161
 21
1705.506759437788
 31
0.0
  0
LINE
  5
1375
330
1F
100
AcDbEntity
  8
圖層1輪廓線
100
AcDbLine
 10
3943.000726484161
 20
1716.506759437788
 30
0.0
 11
3943.000726484161
 21
1708.506759437788
 31
0.0
  0
CIRCLE
  5
1376
330
1F
100
AcDbEntity
  8
圖層4尺寸線
100
AcDbCircle
 10
3935.000726484161
 20
1699.506759437788
 30
0.0
 40
3.0
  0
CIRCLE
  5
1377
330
1F
100
AcDbEntity
  8
圖層3虛線
100
AcDbCircle
 10
3935.000726484161
 20
1699.506759437788
 30
0.0
 40
4.0
  0
LINE
  5
1378
330
1F
100
AcDbEntity
  8
圖層1輪廓線
100
AcDbLine
 10
3943.000726484161
 20
1710.506759437788
 30
0.0
 11
3946.605858362389
 21
1710.506759437788
 31
0.0
  0
ARC
  5
1379
330
1F
100
AcDbEntity
  8
圖層1輪廓線
100
AcDbCircle
 10
3946.000726484161
 20
1708.506759437788
 30
0.0
 40
3.0
100
AcDbArc
 50
180.0
 51
270.0
  0
ARC
  5
137A
330
1F
100
AcDbEntity
  8
圖層1輪廓線
100
AcDbCircle
 10
3966.000726484161
 20
1722.506759437789
 30
0.0
 40
6.000000000000074
100
AcDbArc
 50
270.0
 51
90.0
  0
LINE
  5
137B
330
1F
100
AcDbEntity
  8
圖層1輪廓線
100
AcDbLine
 10
3962.605858362388
 20
1716.506759437788
 30
0.0
 11
3966.000726484161
 21
1716.506759437788
 31
0.0
  0
LINE
  5
137C
330
1F
100
AcDbEntity
  8
圖層2中心線
 48
0.5
100
AcDbLine
 10
3396.162032172343
 20
1546.295718805293
 30
0.0
 11
3464.29700191277
 21
1546.295718805293
 31
0.0
  0
LINE
  5
137D
330
1F
100
AcDbEntity
  8
圖層3虛線
100
AcDbLine
 10
3419.321295473384
 20
1531.295718805293
 30
0.0
 11
3419.321295473384
 21
1561.295718805293
 31
0.0
  0
LINE
  5
137E
330
1F
100
AcDbEntity
  8
圖層3虛線
100
AcDbLine
 10
3439.321295473385
 20
1531.295718805293
 30
0.0
 11
3439.321295473385
 21
1561.295718805293
 31
0.0
  0
LINE
  5
137F
330
1F
100
AcDbEntity
  8
圖層3虛線
100
AcDbLine
 10
3419.321295473384
 20
1561.295718805293
 30
0.0
 11
3439.321295473385
 21
1561.295718805293
 31
0.0
  0
LINE
  5
1380
330
1F
100
AcDbEntity
  8
圖層2中心線
 48
0.5
100
AcDbLine
 10
3439.321295473385
 20
1546.295718805293
 30
0.0
 11
3464.29700191277
 21
1546.295718805293
 31
0.0
  0
LINE
  5
1381
330
1F
100
AcDbEntity
  8
圖層3虛線
100
AcDbLine
 10
3405.649934436611
 20
1551.295718805293
 30
0.0
 11
3419.321295473384
 21
1551.295718805293
 31
0.0
  0
LINE
  5
1382
330
1F
100
AcDbEntity
  8
圖層3虛線
100
AcDbLine
 10
3405.649934436611
 20
1541.295718805293
 30
0.0
 11
3419.321295473384
 21
1541.295718805293
 31
0.0
  0
LINE
  5
1383
330
1F
100
AcDbEntity
  8
圖層3虛線
100
AcDbLine
 10
3439.321295473385
 20
1551.295718805293
 30
0.0
 11
3452.99265651016
 21
1551.295718805293
 31
0.0
  0
LINE
  5
1384
330
1F
100
AcDbEntity
  8
圖層3虛線
100
AcDbLine
 10
3439.321295473385
 20
1541.295718805293
 30
0.0
 11
3452.99265651016
 21
1541.295718805293
 31
0.0
  0
LINE
  5
1385
330
1F
100
AcDbEntity
  8
圖層3虛線
100
AcDbLine
 10
3405.649934436611
 20
1549.295718805293
 30
0.0
 11
3419.321295473384
 21
1549.295718805293
 31
0.0
  0
LINE
  5
1386
330
1F
100
AcDbEntity
  8
圖層3虛線
100
AcDbLine
 10
3405.649934436611
 20
1543.295718805293
 30
0.0
 11
3419.321295473384
 21
1543.295718805293
 31
0.0
  0
LINE
  5
1387
330
1F
100
AcDbEntity
  8
圖層3虛線
100
AcDbLine
 10
3439.321295473385
 20
1549.295718805293
 30
0.0
 11
3452.99265651016
 21
1549.295718805293
 31
0.0
  0
LINE
  5
1388
330
1F
100
AcDbEntity
  8
圖層3虛線
100
AcDbLine
 10
3439.321295473385
 20
1543.295718805293
 30
0.0
 11
3452.99265651016
 21
1543.295718805293
 31
0.0
  0
CIRCLE
  5
1389
330
1F
100
AcDbEntity
  8
圖層3虛線
100
AcDbCircle
 10
3429.321295473385
 20
1546.295718805293
 30
0.0
 40
5.0
  0
CIRCLE
  5
138A
330
1F
100
AcDbEntity
  8
圖層1輪廓線
100
AcDbCircle
 10
3429.321295473385
 20
1546.295718805293
 30
0.0
 40
3.0
  0
CIRCLE
  5
138B
330
1F
100
AcDbEntity
  8
圖層1輪廓線
100
AcDbCircle
 10
3429.321295473385
 20
1546.295718805293
 30
0.0
 40
7.0
  0
LWPOLYLINE
  5
138C
330
1F
100
AcDbEntity
  8
圖層1輪廓線
100
AcDbPolyline
 90
        6
 70
     1
 43
0.0
 10
3422.321295473385
 20
1542.254266920966
 10
3429.321295473385
 20
1538.212815036639
 10
3436.321295473385
 20
1542.254266920966
 10
3436.321295473385
 20
1550.337170689621
 10
3429.321295473385
 20
1554.378622573948
 10
3422.321295473385
 20
1550.337170689621
  0
ARC
  5
138D
330
1F
100
AcDbEntity
  8
圖層1輪廓線
100
AcDbCircle
 10
3838.629350773832
 20
1547.795718805293
 30
0.0
 40
8.777777777777153
100
AcDbArc
 50
326.0078238856485
 51
33.9921761143515
  0
ARC
  5
138E
330
1F
100
AcDbEntity
  8
圖層1輪廓線
100
AcDbCircle
 10
3848.184906329386
 20
1547.795718805293
 30
0.0
 40
8.777777777777844
100
AcDbArc
 50
146.0078238856485
 51
213.9921761143515
  0
LINE
  5
138F
330
1F
100
AcDbEntity
  8
圖層4尺寸線
100
AcDbLine
 10
3839.407128551609
 20
1540.434502873125
 30
0.0
 11
3839.407128551609
 21
1555.156934737461
 31
0.0
  0
LINE
  5
1390
330
1F
100
AcDbEntity
  8
圖層1輪廓線
100
AcDbLine
 10
3847.40712855161
 20
1540.434502873125
 30
0.0
 11
3847.40712855161
 21
1555.156934737461
 31
0.0
  0
ARC
  5
1391
330
1F
100
AcDbEntity
  8
圖層1輪廓線
100
AcDbCircle
 10
3844.650184107165
 20
1540.434502873125
 30
0.0
 40
2.756944444444471
100
AcDbArc
 50
297.1241053663949
 51
62.8758946336051
  0
ARC
  5
1392
330
1F
100
AcDbEntity
  8
圖層1輪廓線
100
AcDbCircle
 10
3842.164072996054
 20
1540.434502873125
 30
0.0
 40
2.756944444444574
100
AcDbArc
 50
117.1241053663949
 51
242.8758946336051
  0
LINE
  5
1393
330
1F
100
AcDbEntity
  8
圖層1輪廓線
100
AcDbLine
 10
3845.907128551608
 20
1542.888241517181
 30
0.0
 11
3840.907128551609
 21
1542.888241517181
 31
0.0
  0
LINE
  5
1394
330
1F
100
AcDbEntity
  8
圖層4尺寸線
100
AcDbLine
 10
3845.90712855161
 20
1537.980764229069
 30
0.0
 11
3840.907128551609
 21
1537.980764229069
 31
0.0
  0
ARC
  5
1395
330
1F
100
AcDbEntity
  8
圖層1輪廓線
100
AcDbCircle
 10
3844.650184107165
 20
1555.156934737461
 30
0.0
 40
2.756944444444263
100
AcDbArc
 50
297.1241053663426
 51
62.8758946336574
  0
ARC
  5
1396
330
1F
100
AcDbEntity
  8
圖層1輪廓線
100
AcDbCircle
 10
3842.164072996053
 20
1555.156934737461
 30
0.0
 40
2.756944444444471
100
AcDbArc
 50
117.1241053663949
 51
242.8758946336051
  0
LINE
  5
1397
330
1F
100
AcDbEntity
  8
圖層4尺寸線
100
AcDbLine
 10
3845.90712855161
 20
1557.610673381516
 30
0.0
 11
3840.907128551609
 21
1557.610673381516
 31
0.0
  0
LINE
  5
1398
330
1F
100
AcDbEntity
  8
圖層1輪廓線
100
AcDbLine
 10
3845.907128551608
 20
1552.703196093404
 30
0.0
 11
3840.907128551609
 21
1552.703196093404
 31
0.0
  0
LINE
  5
1399
330
1F
100
AcDbEntity
  8
圖層1輪廓線
100
AcDbLine
 10
3817.90712855161
 20
1602.795718805293
 30
0.0
 11
3867.90712855161
 21
1602.795718805293
 31
0.0
  0
LINE
  5
139A
330
1F
100
AcDbEntity
  8
圖層1輪廓線
100
AcDbLine
 10
4052.907128551609
 20
1582.795718805293
 30
0.0
 11
3888.407128551609
 21
1582.795718805293
 31
0.0
  0
LINE
  5
139B
330
1F
100
AcDbEntity
  8
圖層1輪廓線
100
AcDbLine
 10
3867.90712855161
 20
1602.795718805293
 30
0.0
 11
3888.407128551609
 21
1582.795718805293
 31
0.0
  0
LINE
  5
139C
330
1F
100
AcDbEntity
  8
圖層1輪廓線
100
AcDbLine
 10
3867.90712855161
 20
1595.795718805293
 30
0.0
 11
3867.90712855161
 21
1589.795718805293
 31
0.0
  0
LINE
  5
139D
330
1F
100
AcDbEntity
  8
圖層1輪廓線
100
AcDbLine
 10
3867.907128551607
 20
1570.295718805294
 30
0.0
 11
3867.907128551606
 21
1540.295718805295
 31
0.0
  0
LINE
  5
139E
330
1F
100
AcDbEntity
  8
圖層2中心線
 48
0.2
100
AcDbLine
 10
3833.152720325915
 20
1547.795718805293
 30
0.0
 11
3898.420069930203
 21
1547.795718805293
 31
0.0
  0
LINE
  5
139F
330
1F
100
AcDbEntity
  8
圖層3虛線
100
AcDbLine
 10
3501.321295473387
 20
1331.506759437788
 30
0.0
 11
3474.321295473386
 21
1331.506759437788
 31
0.0
  0
LINE
  5
13A0
330
1F
100
AcDbEntity
  8
圖層3虛線
100
AcDbLine
 10
3469.321295473385
 20
1336.506759437787
 30
0.0
 11
3469.321295473385
 21
1345.07302432535
 31
0.0
  0
LINE
  5
13A1
330
1F
100
AcDbEntity
  8
圖層3虛線
100
AcDbLine
 10
3389.321295473385
 20
1336.506759437788
 30
0.0
 11
3389.321295473385
 21
1345.07302432535
 31
0.0
  0
ARC
  5
13A2
330
1F
100
AcDbEntity
  8
圖層3虛線
100
AcDbCircle
 10
3384.321295473384
 20
1336.506759437788
 30
0.0
 40
5.0
100
AcDbArc
 50
270.0
 51
0.0
  0
ARC
  5
13A3
330
1F
100
AcDbEntity
  8
圖層3虛線
100
AcDbCircle
 10
3474.321295473386
 20
1336.506759437787
 30
0.0
 40
5.0
100
AcDbArc
 50
180.0
 51
270.0
  0
LINE
  5
13A4
330
1F
100
AcDbEntity
  8
圖層3虛線
100
AcDbLine
 10
3384.321295473384
 20
1331.506759437788
 30
0.0
 11
3357.321295473386
 21
1331.506759437788
 31
0.0
  0
ARC
  5
13A5
330
1F
100
AcDbEntity
  8
圖層3虛線
100
AcDbCircle
 10
3501.321295473387
 20
1328.506759437788
 30
0.0
 40
3.0
100
AcDbArc
 50
0.0
 51
90.0
  0
LINE
  5
13A6
330
1F
100
AcDbEntity
  8
圖層3虛線
100
AcDbLine
 10
3354.321295473386
 20
1328.506759437788
 30
0.0
 11
3354.321295473386
 21
1321.506759437788
 31
0.0
  0
LINE
  5
13A7
330
1F
100
AcDbEntity
  8
圖層1輪廓線
100
AcDbLine
 10
3504.321295473386
 20
1378.506759437788
 30
0.0
 11
3504.321295473386
 21
1321.506759437788
 31
0.0
  0
ARC
  5
13A8
330
1F
100
AcDbEntity
  8
圖層3虛線
100
AcDbCircle
 10
3357.321295473386
 20
1328.506759437788
 30
0.0
 40
3.0
100
AcDbArc
 50
90.0
 51
180.0
  0
LINE
  5
13A9
330
1F
100
AcDbEntity
  8
圖層3虛線
100
AcDbLine
 10
3369.321295473387
 20
1321.506759437788
 30
0.0
 11
3369.321295473387
 21
1331.506759437788
 31
0.0
  0
LINE
  5
13AA
330
1F
100
AcDbEntity
  8
圖層3虛線
100
AcDbLine
 10
3489.321295473386
 20
1331.506759437788
 30
0.0
 11
3489.321295473386
 21
1321.506759437788
 31
0.0
  0
LINE
  5
13AB
330
1F
100
AcDbEntity
  8
圖層3虛線
100
AcDbLine
 10
3359.321295473387
 20
1321.506759437788
 30
0.0
 11
3359.321295473387
 21
1331.506759437788
 31
0.0
  0
LINE
  5
13AC
330
1F
100
AcDbEntity
  8
圖層3虛線
100
AcDbLine
 10
3499.321295473386
 20
1331.506759437788
 30
0.0
 11
3499.321295473386
 21
1321.506759437788
 31
0.0
  0
ARC
  5
13AD
330
1F
100
AcDbEntity
  8
圖層1輪廓線
100
AcDbCircle
 10
3357.321295473386
 20
1378.506759437788
 30
0.0
 40
3.0
100
AcDbArc
 50
90.0
 51
180.0
  0
ARC
  5
13AE
330
1F
100
AcDbEntity
  8
圖層1輪廓線
100
AcDbCircle
 10
3501.321295473387
 20
1378.506759437788
 30
0.0
 40
3.0
100
AcDbArc
 50
0.0
 51
90.0
  0
LINE
  5
13AF
330
1F
100
AcDbEntity
  8
圖層2中心線
 48
0.5
100
AcDbLine
 10
3997.907128551612
 20
1713.962770997646
 30
0.0
 11
3997.907128551609
 21
1297.551461500179
 31
0.0
  0
LINE
  5
13B0
330
1F
100
AcDbEntity
  8
圖層2中心線
 48
0.1
100
AcDbLine
 10
4032.907128551609
 20
1366.506759437788
 30
0.0
 11
4052.907128551609
 21
1366.506759437788
 31
0.0
  0
LINE
  5
13B1
330
1F
100
AcDbEntity
  8
圖層2中心線
 48
0.1
100
AcDbLine
 10
4042.907128551609
 20
1356.506759437788
 30
0.0
 11
4042.907128551609
 21
1376.506759437788
 31
0.0
  0
LINE
  5
13B2
330
1F
100
AcDbEntity
  8
圖層2中心線
 48
0.1
100
AcDbLine
 10
4032.907128551609
 20
1336.506759437788
 30
0.0
 11
4052.907128551609
 21
1336.506759437788
 31
0.0
  0
LINE
  5
13B3
330
1F
100
AcDbEntity
  8
圖層2中心線
 48
0.1
100
AcDbLine
 10
4042.907128551609
 20
1326.506759437788
 30
0.0
 11
4042.907128551609
 21
1346.506759437788
 31
0.0
  0
LINE
  5
13B4
330
1F
100
AcDbEntity
  8
圖層1輪廓線
100
AcDbLine
 10
3379.321295473386
 20
1642.795718805293
 30
0.0
 11
3392.321295473387
 21
1642.795718805293
 31
0.0
  0
LINE
  5
13B5
330
1F
100
AcDbEntity
  8
圖層1輪廓線
100
AcDbLine
 10
3466.321295473387
 20
1642.795718805293
 30
0.0
 11
3479.321295473386
 21
1642.795718805293
 31
0.0
  0
LINE
  5
13B6
330
1F
100
AcDbEntity
  8
圖層1輪廓線
100
AcDbLine
 10
3817.90712855161
 20
1642.795718805293
 30
0.0
 11
3830.907128551609
 21
1642.795718805293
 31
0.0
  0
LINE
  5
13B7
330
1F
100
AcDbEntity
  8
圖層1輪廓線
100
AcDbLine
 10
3904.907128551609
 20
1642.795718805293
 30
0.0
 11
4052.907128551609
 21
1642.795718805293
 31
0.0
  0
CIRCLE
  5
13B8
330
1F
100
AcDbEntity
  8
圖層1輪廓線
100
AcDbCircle
 10
4042.907128551609
 20
1366.506759437788
 30
0.0
 40
3.0
  0
CIRCLE
  5
13B9
330
1F
100
AcDbEntity
  8
圖層1輪廓線
100
AcDbCircle
 10
4042.907128551609
 20
1336.506759437788
 30
0.0
 40
3.0
  0
CIRCLE
  5
13BA
330
1F
100
AcDbEntity
  8
圖層1輪廓線
100
AcDbCircle
 10
4042.907128551609
 20
1336.506759437788
 30
0.0
 40
5.0
  0
CIRCLE
  5
13BB
330
1F
100
AcDbEntity
  8
圖層1輪廓線
100
AcDbCircle
 10
4042.907128551609
 20
1366.506759437788
 30
0.0
 40
5.0
  0
LWPOLYLINE
  5
13BC
330
1F
100
AcDbEntity
  8
圖層1輪廓線
100
AcDbPolyline
 90
        6
 70
     1
 43
0.0
 10
4039.907128551609
 20
1364.77470863022
 10
4042.907128551609
 20
1363.042657822651
 10
4045.907128551609
 20
1364.77470863022
 10
4045.907128551609
 20
1368.238810245357
 10
4042.907128551609
 20
1369.970861052926
 10
4039.907128551609
 20
1368.238810245357
  0
LWPOLYLINE
  5
13BD
330
1F
100
AcDbEntity
  8
圖層1輪廓線
100
AcDbPolyline
 90
        6
 70
     1
 43
0.0
 10
4039.907128551609
 20
1334.774708630219
 10
4042.907128551609
 20
1333.042657822651
 10
4045.907128551609
 20
1334.774708630219
 10
4045.907128551609
 20
1338.238810245357
 10
4042.907128551609
 20
1339.970861052926
 10
4039.907128551609
 20
1338.238810245357
  0
LINE
  5
13BE
330
1F
100
AcDbEntity
  8
圖層3虛線
100
AcDbLine
 10
3952.90712855161
 20
1331.506759437788
 30
0.0
 11
3952.90712855161
 21
1321.506759437788
 31
0.0
  0
LINE
  5
13BF
330
1F
100
AcDbEntity
  8
圖層3虛線
100
AcDbLine
 10
3962.907128551609
 20
1331.506759437788
 30
0.0
 11
3962.907128551609
 21
1321.506759437788
 31
0.0
  0
ARC
  5
13C0
330
1F
100
AcDbEntity
  8
圖層1輪廓線
100
AcDbCircle
 10
3904.000726484161
 20
1722.506759437789
 30
0.0
 40
6.000000000000074
100
AcDbArc
 50
261.9174528022368
 51
270.0
  0
LINE
  5
13C1
330
1F
100
AcDbEntity
  8
圖層1輪廓線
100
AcDbLine
 10
3830.907128551609
 20
1642.795718805293
 30
0.0
 11
3904.907128551609
 21
1642.795718805293
 31
0.0
  0
LINE
  5
13C2
330
1F
100
AcDbEntity
  8
圖層4尺寸線
100
AcDbLine
 10
3392.321295473387
 20
1642.795718805293
 30
0.0
 11
3466.321295473387
 21
1642.795718805293
 31
0.0
  0
LINE
  5
13C3
330
1F
100
AcDbEntity
  8
圖層2中心線
 48
0.5
100
AcDbLine
 10
3867.90712855161
 20
1508.88648449406
 30
0.0
 11
3867.90712855161
 21
1960.31655213863
 31
0.0
  0
LINE
  5
13C4
330
1F
100
AcDbEntity
  8
圖層2中心線
 48
0.5
100
AcDbLine
 10
3429.321295473385
 20
1509.503296100049
 30
0.0
 11
3429.321295473385
 21
1960.659258652263
 31
0.0
  0
LINE
  5
13C5
330
1F
100
AcDbEntity
  8
圖層1輪廓線
100
AcDbLine
 10
3867.90712855161
 20
1931.795718805293
 30
0.0
 11
3867.90712855161
 21
1905.795718805293
 31
0.0
  0
ARC
  5
13C6
330
1F
100
AcDbEntity
  8
圖層1輪廓線
100
AcDbCircle
 10
3849.90712855161
 20
1837.295718805293
 30
0.0
 40
1.5
100
AcDbArc
 50
90.0
 51
180.0
  0
ARC
  5
13C7
330
1F
100
AcDbEntity
  8
圖層1輪廓線
100
AcDbCircle
 10
3885.90712855161
 20
1837.295718805293
 30
0.0
 40
1.5
100
AcDbArc
 50
0.0
 51
90.0
  0
LINE
  5
13C8
330
1F
100
AcDbEntity
  8
圖層1輪廓線
100
AcDbLine
 10
3892.56712855161
 20
1674.795718805293
 30
0.0
 11
3892.56712855161
 21
1781.795718805294
 31
0.0
  0
LINE
  5
13C9
330
1F
100
AcDbEntity
  8
圖層1輪廓線
100
AcDbLine
 10
3899.747128551609
 20
1674.795718805293
 30
0.0
 11
3899.747128551609
 21
1781.795718805294
 31
0.0
  0
LINE
  5
13CA
330
1F
100
AcDbEntity
  8
圖層1輪廓線
100
AcDbLine
 10
3836.067128551609
 20
1674.795718805293
 30
0.0
 11
3836.067128551609
 21
1781.795718805294
 31
0.0
  0
LINE
  5
13CB
330
1F
100
AcDbEntity
  8
圖層1輪廓線
100
AcDbLine
 10
3843.24712855161
 20
1674.795718805293
 30
0.0
 11
3843.24712855161
 21
1781.795718805294
 31
0.0
  0
LINE
  5
13CC
330
1F
100
AcDbEntity
  8
圖層1輪廓線
100
AcDbLine
 10
3830.407128551609
 20
1674.795718805293
 30
0.0
 11
3830.907128551609
 21
1642.795718805293
 31
0.0
  0
LINE
  5
13CD
330
1F
100
AcDbEntity
  8
圖層1輪廓線
100
AcDbLine
 10
3842.90712855161
 20
1674.795718805293
 30
0.0
 11
3843.314110884094
 21
1648.748849526291
 31
0.0
  0
LINE
  5
13CE
330
1F
100
AcDbEntity
  8
圖層1輪廓線
100
AcDbLine
 10
3892.907128551609
 20
1674.795718805293
 30
0.0
 11
3892.500146219125
 21
1648.748849526291
 31
0.0
  0
LINE
  5
13CF
330
1F
100
AcDbEntity
  8
圖層1輪廓線
100
AcDbLine
 10
3905.40712855161
 20
1674.795718805293
 30
0.0
 11
3904.907128551609
 21
1642.795718805293
 31
0.0
  0
ARC
  5
13D0
330
1F
100
AcDbEntity
  8
圖層1輪廓線
100
AcDbCircle
 10
3846.313744740198
 20
1648.795718805293
 30
0.0
 40
3.0
100
AcDbArc
 50
180.8951737102151
 51
270.0
  0
LINE
  5
13D1
330
1F
100
AcDbEntity
  8
圖層1輪廓線
100
AcDbLine
 10
3830.907128551609
 20
1642.795718805293
 30
0.0
 11
3904.907128551609
 21
1642.795718805293
 31
0.0
  0
LINE
  5
13D2
330
1F
100
AcDbEntity
  8
圖層1輪廓線
100
AcDbLine
 10
3838.259299715031
 20
1642.795718805293
 30
0.0
 11
3898.317456738313
 21
1642.795718805293
 31
0.0
  0
LINE
  5
13D3
330
1F
100
AcDbEntity
  8
圖層1輪廓線
100
AcDbLine
 10
3846.313744740197
 20
1645.795718805294
 30
0.0
 11
3889.500512363021
 21
1645.795718805294
 31
0.0
  0
ARC
  5
13D4
330
1F
100
AcDbEntity
  8
圖層1輪廓線
100
AcDbCircle
 10
3889.500512363021
 20
1648.795718805293
 30
0.0
 40
3.0
100
AcDbArc
 50
270.0
 51
359.1048262897849
  0
LINE
  5
13D5
330
1F
100
AcDbEntity
  8
圖層1輪廓線
100
AcDbLine
 10
3830.407128551609
 20
1674.795718805293
 30
0.0
 11
3905.40712855161
 21
1674.795718805293
 31
0.0
  0
LINE
  5
13D6
330
1F
100
AcDbEntity
  8
圖層1輪廓線
100
AcDbLine
 10
3830.407128551609
 20
1781.795718805294
 30
0.0
 11
3830.907128551609
 21
1813.795718805294
 31
0.0
  0
LINE
  5
13D7
330
1F
100
AcDbEntity
  8
圖層1輪廓線
100
AcDbLine
 10
3842.90712855161
 20
1781.795718805294
 30
0.0
 11
3843.314110884094
 21
1807.842588084295
 31
0.0
  0
LINE
  5
13D8
330
1F
100
AcDbEntity
  8
圖層1輪廓線
100
AcDbLine
 10
3892.907128551609
 20
1781.795718805294
 30
0.0
 11
3892.500146219125
 21
1807.842588084295
 31
0.0
  0
LINE
  5
13D9
330
1F
100
AcDbEntity
  8
圖層1輪廓線
100
AcDbLine
 10
3905.40712855161
 20
1781.795718805294
 30
0.0
 11
3904.907128551609
 21
1813.795718805294
 31
0.0
  0
LINE
  5
13DA
330
1F
100
AcDbEntity
  8
圖層1輪廓線
100
AcDbLine
 10
3830.407128551609
 20
1781.795718805294
 30
0.0
 11
3905.40712855161
 21
1781.795718805294
 31
0.0
  0
ARC
  5
13DB
330
1F
100
AcDbEntity
  8
圖層1輪廓線
100
AcDbCircle
 10
3846.313744740198
 20
1807.795718805293
 30
0.0
 40
3.0
100
AcDbArc
 50
90.0
 51
179.1048262897848
  0
LINE
  5
13DC
330
1F
100
AcDbEntity
  8
圖層1輪廓線
100
AcDbLine
 10
3846.313744740198
 20
1810.795718805293
 30
0.0
 11
3889.500512363021
 21
1810.795718805293
 31
0.0
  0
ARC
  5
13DD
330
1F
100
AcDbEntity
  8
圖層1輪廓線
100
AcDbCircle
 10
3889.500512363021
 20
1807.795718805293
 30
0.0
 40
3.0
100
AcDbArc
 50
0.8951737102151449
 51
90.0
  0
LINE
  5
13DE
330
1F
100
AcDbEntity
  8
圖層1輪廓線
100
AcDbLine
 10
3830.907128551609
 20
1813.795718805293
 30
0.0
 11
3904.907128551609
 21
1813.795718805294
 31
0.0
  0
LINE
  5
13DF
330
1F
100
AcDbEntity
  8
圖層1輪廓線
100
AcDbLine
 10
3838.259299715031
 20
1813.795718805294
 30
0.0
 11
3898.317456738313
 21
1813.795718805294
 31
0.0
  0
LINE
  5
13E0
330
1F
100
AcDbEntity
  8
圖層1輪廓線
100
AcDbLine
 10
3847.907128551609
 20
1817.795718805293
 30
0.0
 11
3847.907128551609
 21
1827.295718805293
 31
0.0
  0
LINE
  5
13E1
330
1F
100
AcDbEntity
  8
圖層1輪廓線
100
AcDbLine
 10
3887.907128551609
 20
1817.795718805293
 30
0.0
 11
3887.907128551609
 21
1827.295718805293
 31
0.0
  0
LINE
  5
13E2
330
1F
100
AcDbEntity
  8
圖層1輪廓線
100
AcDbLine
 10
3845.90712855161
 20
1817.795718805293
 30
0.0
 11
3889.907128551609
 21
1817.795718805293
 31
0.0
  0
LINE
  5
13E3
330
1F
100
AcDbEntity
  8
圖層1輪廓線
100
AcDbLine
 10
3845.40712855161
 20
1813.795718805294
 30
0.0
 11
3845.40712855161
 21
1817.295718805294
 31
0.0
  0
ARC
  5
13E4
330
1F
100
AcDbEntity
  8
圖層1輪廓線
100
AcDbCircle
 10
3845.90712855161
 20
1817.295718805294
 30
0.0
 40
0.5
100
AcDbArc
 50
90.0
 51
180.0
  0
LINE
  5
13E5
330
1F
100
AcDbEntity
  8
圖層1輪廓線
100
AcDbLine
 10
3890.40712855161
 20
1813.795718805294
 30
0.0
 11
3890.40712855161
 21
1817.295718805294
 31
0.0
  0
ARC
  5
13E6
330
1F
100
AcDbEntity
  8
圖層1輪廓線
100
AcDbCircle
 10
3889.907128551609
 20
1817.295718805294
 30
0.0
 40
0.5
100
AcDbArc
 50
0.0
 51
90.0
  0
LINE
  5
13E7
330
1F
100
AcDbEntity
  8
圖層1輪廓線
100
AcDbLine
 10
3848.40712855161
 20
1827.795718805293
 30
0.0
 11
3887.40712855161
 21
1827.795718805293
 31
0.0
  0
LINE
  5
13E8
330
1F
100
AcDbEntity
  8
圖層1輪廓線
100
AcDbLine
 10
3847.907128551609
 20
1827.295718805293
 30
0.0
 11
3887.907128551609
 21
1827.295718805293
 31
0.0
  0
LINE
  5
13E9
330
1F
100
AcDbEntity
  8
圖層1輪廓線
100
AcDbLine
 10
3848.40712855161
 20
1827.795718805293
 30
0.0
 11
3848.40712855161
 21
1837.295718805293
 31
0.0
  0
LINE
  5
13EA
330
1F
100
AcDbEntity
  8
圖層1輪廓線
100
AcDbLine
 10
3847.907128551609
 20
1827.295718805293
 30
0.0
 11
3848.40712855161
 21
1827.795718805293
 31
0.0
  0
LINE
  5
13EB
330
1F
100
AcDbEntity
  8
圖層1輪廓線
100
AcDbLine
 10
3887.40712855161
 20
1827.795718805293
 30
0.0
 11
3887.40712855161
 21
1837.295718805293
 31
0.0
  0
LINE
  5
13EC
330
1F
100
AcDbEntity
  8
圖層1輪廓線
100
AcDbLine
 10
3887.40712855161
 20
1827.795718805293
 30
0.0
 11
3887.907128551609
 21
1827.295718805293
 31
0.0
  0
LINE
  5
13ED
330
1F
100
AcDbEntity
  8
圖層1輪廓線
100
AcDbLine
 10
3849.90712855161
 20
1838.795718805293
 30
0.0
 11
3885.90712855161
 21
1838.795718805293
 31
0.0
  0
LINE
  5
13EE
330
1F
100
AcDbEntity
  8
圖層1輪廓線
100
AcDbLine
 10
3875.90712855161
 20
1838.795718805293
 30
0.0
 11
3859.90712855161
 21
1838.795718805293
 31
0.0
  0
LINE
  5
13EF
330
1F
100
AcDbEntity
  8
圖層1輪廓線
100
AcDbLine
 10
3404.702545148448
 20
1813.795718805294
 30
0.0
 11
3404.702545148448
 21
1943.795718805293
 31
0.0
  0
LINE
  5
13F0
330
1F
100
AcDbEntity
  8
圖層1輪廓線
100
AcDbLine
 10
3454.702545148448
 20
1943.795718805293
 30
0.0
 11
3454.702545148448
 21
1813.795718805294
 31
0.0
  0
LINE
  5
13F1
330
1F
100
AcDbEntity
  8
圖層1輪廓線
100
AcDbLine
 10
3406.702545148448
 20
1813.795718805294
 30
0.0
 11
3406.702545148448
 21
1943.795718805293
 31
0.0
  0
LINE
  5
13F2
330
1F
100
AcDbEntity
  8
圖層1輪廓線
100
AcDbLine
 10
3452.702545148448
 20
1943.795718805293
 30
0.0
 11
3452.702545148448
 21
1813.795718805294
 31
0.0
  0
LINE
  5
13F3
330
1F
100
AcDbEntity
  8
圖層1輪廓線
100
AcDbLine
 10
3419.702545148448
 20
1842.795718805293
 30
0.0
 11
3419.702545148448
 21
1887.295718805293
 31
0.0
  0
LINE
  5
13F4
330
1F
100
AcDbEntity
  8
圖層1輪廓線
100
AcDbLine
 10
3439.702545148448
 20
1842.795718805293
 30
0.0
 11
3439.702545148448
 21
1887.295718805293
 31
0.0
  0
LINE
  5
13F5
330
1F
100
AcDbEntity
  8
圖層1輪廓線
100
AcDbLine
 10
3444.857989714676
 20
1900.137451448067
 30
0.0
 11
3414.972061929925
 21
1861.907323955881
 31
0.0
  0
LINE
  5
13F6
330
1F
100
AcDbEntity
  8
圖層1輪廓線
100
AcDbLine
 10
3448.00934160871
 20
1897.673921208762
 30
0.0
 11
3418.12341382396
 21
1859.443793716577
 31
0.0
  0
LINE
  5
13F7
330
1F
100
AcDbEntity
  8
圖層1輪廓線
100
AcDbLine
 10
3429.702545148448
 20
1838.795718805293
 30
0.0
 11
3411.702545148448
 21
1838.795718805293
 31
0.0
  0
LINE
  5
13F8
330
1F
100
AcDbEntity
  8
圖層1輪廓線
100
AcDbLine
 10
3411.702545148448
 20
1842.795718805293
 30
0.0
 11
3447.702545148448
 21
1842.795718805293
 31
0.0
  0
LINE
  5
13F9
330
1F
100
AcDbEntity
  8
圖層1輪廓線
100
AcDbLine
 10
3409.702545148448
 20
1840.795718805294
 30
0.0
 11
3409.702545148448
 21
1840.795718805294
 31
0.0
  0
ARC
  5
13FA
330
1F
100
AcDbEntity
  8
圖層1輪廓線
100
AcDbCircle
 10
3411.702545148448
 20
1840.795718805294
 30
0.0
 40
2.0
100
AcDbArc
 50
180.0
 51
270.0
  0
ARC
  5
13FB
330
1F
100
AcDbEntity
  8
圖層1輪廓線
100
AcDbCircle
 10
3411.702545148448
 20
1840.795718805294
 30
0.0
 40
2.0
100
AcDbArc
 50
90.0
 51
180.0
  0
LINE
  5
13FC
330
1F
100
AcDbEntity
  8
圖層1輪廓線
100
AcDbLine
 10
3429.702545148447
 20
1838.795718805293
 30
0.0
 11
3447.202545148448
 21
1838.795718805293
 31
0.0
  0
LINE
  5
13FD
330
1F
100
AcDbEntity
  8
圖層1輪廓線
100
AcDbLine
 10
3449.702545148448
 20
1840.795718805294
 30
0.0
 11
3449.702545148448
 21
1840.795718805294
 31
0.0
  0
ARC
  5
13FE
330
1F
100
AcDbEntity
  8
圖層1輪廓線
100
AcDbCircle
 10
3447.702545148448
 20
1840.795718805294
 30
0.0
 40
2.0
100
AcDbArc
 50
270.0
 51
0.0
  0
ARC
  5
13FF
330
1F
100
AcDbEntity
  8
圖層1輪廓線
100
AcDbCircle
 10
3447.702545148448
 20
1840.795718805294
 30
0.0
 40
2.0
100
AcDbArc
 50
0.0
 51
90.0
  0
ARC
  5
1400
330
1F
100
AcDbEntity
  8
圖層1輪廓線
100
AcDbCircle
 10
3414.54710058222
 20
1936.41551047196
 30
0.0
 40
7.380208333333293
100
AcDbArc
 50
46.80303940671699
 51
133.196960593283
  0
LINE
  5
1401
330
1F
100
AcDbEntity
  8
圖層1輪廓線
100
AcDbLine
 10
3414.54710058222
 20
1903.795718805293
 30
0.0
 11
3444.857989714676
 21
1903.795718805293
 31
0.0
  0
ARC
  5
1402
330
1F
100
AcDbEntity
  8
圖層1輪廓線
100
AcDbCircle
 10
3414.54710058222
 20
1926.41551047196
 30
0.0
 40
7.38020833333338
100
AcDbArc
 50
46.80303940671699
 51
133.196960593283
  0
ARC
  5
1403
330
1F
100
AcDbEntity
  8
圖層1輪廓線
100
AcDbCircle
 10
3414.54710058222
 20
1911.175927138626
 30
0.0
 40
7.380208333333049
100
AcDbArc
 50
226.803039406717
 51
313.196960593283
  0
LINE
  5
1404
330
1F
100
AcDbEntity
  8
圖層1輪廓線
100
AcDbLine
 10
3414.54710058222
 20
1933.795718805293
 30
0.0
 11
3444.857989714676
 21
1933.795718805293
 31
0.0
  0
ARC
  5
1405
330
1F
100
AcDbEntity
  8
圖層1輪廓線
100
AcDbCircle
 10
3414.54710058222
 20
1941.175927138627
 30
0.0
 40
7.380208333333537
100
AcDbArc
 50
226.803039406717
 51
313.196960593283
  0
LINE
  5
1406
330
1F
100
AcDbEntity
  8
圖層1輪廓線
100
AcDbLine
 10
3412.202545148448
 20
1888.795718805294
 30
0.0
 11
3447.202545148448
 21
1888.795718805294
 31
0.0
  0
LINE
  5
1407
330
1F
100
AcDbEntity
  8
圖層1輪廓線
100
AcDbLine
 10
3409.495285726811
 20
1931.795718805293
 30
0.0
 11
3409.495285726811
 21
1905.795718805293
 31
0.0
  0
LINE
  5
1408
330
1F
100
AcDbEntity
  8
圖層1輪廓線
100
AcDbLine
 10
3412.202545148448
 20
1904.178032107879
 30
0.0
 11
3412.202545148448
 21
1888.795718805294
 31
0.0
  0
LINE
  5
1409
330
1F
100
AcDbEntity
  8
圖層1輪廓線
100
AcDbLine
 10
3409.495285726811
 20
1935.795718805293
 30
0.0
 11
3409.495285726811
 21
1941.795718805293
 31
0.0
  0
LINE
  5
140A
330
1F
100
AcDbEntity
  8
圖層1輪廓線
100
AcDbLine
 10
3439.806174859267
 20
1931.795718805293
 30
0.0
 11
3439.806174859267
 21
1905.795718805293
 31
0.0
  0
LINE
  5
140B
330
1F
100
AcDbEntity
  8
圖層1輪廓線
100
AcDbLine
 10
3419.598915437629
 20
1931.795718805293
 30
0.0
 11
3419.598915437629
 21
1905.795718805293
 31
0.0
  0
LINE
  5
140C
330
1F
100
AcDbEntity
  8
圖層1輪廓線
100
AcDbLine
 10
3449.909804570085
 20
1931.795718805293
 30
0.0
 11
3449.909804570085
 21
1905.795718805293
 31
0.0
  0
LINE
  5
140D
330
1F
100
AcDbEntity
  8
圖層1輪廓線
100
AcDbLine
 10
3419.702545148448
 20
1887.295718805293
 30
0.0
 11
3439.702545148448
 21
1887.295718805293
 31
0.0
  0
ARC
  5
140E
330
1F
100
AcDbEntity
  8
圖層1輪廓線
100
AcDbCircle
 10
3429.702545148448
 20
1930.316552138626
 30
0.0
 40
26.52083333333282
100
AcDbArc
 50
247.606248786722
 51
292.393751213278
  0
LINE
  5
140F
330
1F
100
AcDbEntity
  8
圖層1輪廓線
100
AcDbLine
 10
3419.702545148448
 20
1887.295718805293
 30
0.0
 11
3421.202545148448
 21
1888.795718805294
 31
0.0
  0
LINE
  5
1410
330
1F
100
AcDbEntity
  8
圖層1輪廓線
100
AcDbLine
 10
3447.202545148448
 20
1904.178032107879
 30
0.0
 11
3447.202545148448
 21
1888.795718805294
 31
0.0
  0
LINE
  5
1411
330
1F
100
AcDbEntity
  8
圖層1輪廓線
100
AcDbLine
 10
3439.702545148448
 20
1887.295718805293
 30
0.0
 11
3438.202545148448
 21
1888.795718805294
 31
0.0
  0
ARC
  5
1412
330
1F
100
AcDbEntity
  8
圖層1輪廓線
100
AcDbCircle
 10
3444.857989714676
 20
1911.175927138627
 30
0.0
 40
7.380208333333293
100
AcDbArc
 50
226.803039406717
 51
313.196960593283
  0
ARC
  5
1413
330
1F
100
AcDbEntity
  8
圖層1輪廓線
100
AcDbCircle
 10
3429.702545148448
 20
1917.27488547196
 30
0.0
 40
26.52083333333277
100
AcDbArc
 50
67.60624878672202
 51
112.393751213278
  0
ARC
  5
1414
330
1F
100
AcDbEntity
  8
圖層1輪廓線
100
AcDbCircle
 10
3429.702545148448
 20
1907.27488547196
 30
0.0
 40
26.52083333333345
100
AcDbArc
 50
67.60624878672202
 51
112.393751213278
  0
ARC
  5
1415
330
1F
100
AcDbEntity
  8
圖層1輪廓線
100
AcDbCircle
 10
3429.702545148448
 20
1960.31655213863
 30
0.0
 40
26.52083333333681
100
AcDbArc
 50
247.606248786722
 51
292.393751213278
  0
LINE
  5
1416
330
1F
100
AcDbEntity
  8
圖層1輪廓線
100
AcDbLine
 10
3419.598915437629
 20
1935.795718805293
 30
0.0
 11
3419.598915437629
 21
1941.795718805293
 31
0.0
  0
ARC
  5
1417
330
1F
100
AcDbEntity
  8
圖層1輪廓線
100
AcDbCircle
 10
3444.857989714676
 20
1936.41551047196
 30
0.0
 40
7.38020833333379
100
AcDbArc
 50
46.80303940671699
 51
133.196960593283
  0
ARC
  5
1418
330
1F
100
AcDbEntity
  8
圖層1輪廓線
100
AcDbCircle
 10
3444.857989714676
 20
1926.41551047196
 30
0.0
 40
7.380208333333371
100
AcDbArc
 50
46.80303940671699
 51
133.196960593283
  0
ARC
  5
1419
330
1F
100
AcDbEntity
  8
圖層1輪廓線
100
AcDbCircle
 10
3444.857989714676
 20
1941.175927138625
 30
0.0
 40
7.380208333332386
100
AcDbArc
 50
226.803039406708
 51
313.196960593283
  0
LINE
  5
141A
330
1F
100
AcDbEntity
  8
圖層1輪廓線
100
AcDbLine
 10
3439.806174859267
 20
1935.795718805294
 30
0.0
 11
3439.806174859267
 21
1941.795718805294
 31
0.0
  0
LINE
  5
141B
330
1F
100
AcDbEntity
  8
圖層1輪廓線
100
AcDbLine
 10
3449.909804570085
 20
1935.795718805293
 30
0.0
 11
3449.909804570085
 21
1941.795718805294
 31
0.0
  0
LINE
  5
141C
330
1F
100
AcDbEntity
  8
圖層1輪廓線
100
AcDbLine
 10
3404.702545148448
 20
1943.795718805293
 30
0.0
 11
3454.702545148448
 21
1943.795718805293
 31
0.0
  0
LINE
  5
141D
330
1F
100
AcDbEntity
  8
圖層1輪廓線
100
AcDbLine
 10
3891.288378226671
 20
1943.795718805293
 30
0.0
 11
3891.288378226671
 21
1813.795718805294
 31
0.0
  0
LINE
  5
141E
330
1F
100
AcDbEntity
  8
圖層1輪廓線
100
AcDbLine
 10
3845.288378226671
 20
1813.795718805294
 30
0.0
 11
3845.288378226671
 21
1943.795718805293
 31
0.0
  0
LINE
  5
141F
330
1F
100
AcDbEntity
  8
圖層1輪廓線
100
AcDbLine
 10
3893.288378226671
 20
1943.795718805293
 30
0.0
 11
3893.288378226671
 21
1813.795718805294
 31
0.0
  0
LINE
  5
1420
330
1F
100
AcDbEntity
  8
圖層1輪廓線
100
AcDbLine
 10
3843.288378226671
 20
1813.795718805294
 30
0.0
 11
3843.288378226671
 21
1943.795718805293
 31
0.0
  0
LINE
  5
1421
330
1F
100
AcDbEntity
  8
圖層1輪廓線
100
AcDbLine
 10
3886.595174686934
 20
1897.673921208762
 30
0.0
 11
3856.709246902183
 21
1859.443793716577
 31
0.0
  0
LINE
  5
1422
330
1F
100
AcDbEntity
  8
圖層1輪廓線
100
AcDbLine
 10
3883.443822792898
 20
1900.137451448067
 30
0.0
 11
3853.55789500815
 21
1861.907323955881
 31
0.0
  0
LINE
  5
1423
330
1F
100
AcDbEntity
  8
圖層1輪廓線
100
AcDbLine
 10
3858.288378226671
 20
1842.795718805293
 30
0.0
 11
3858.288378226671
 21
1887.295718805293
 31
0.0
  0
LINE
  5
1424
330
1F
100
AcDbEntity
  8
圖層1輪廓線
100
AcDbLine
 10
3878.288378226671
 20
1842.795718805293
 30
0.0
 11
3878.288378226671
 21
1887.295718805293
 31
0.0
  0
LINE
  5
1425
330
1F
100
AcDbEntity
  8
圖層1輪廓線
100
AcDbLine
 10
3868.288378226671
 20
1838.795718805293
 30
0.0
 11
3850.288378226671
 21
1838.795718805293
 31
0.0
  0
LINE
  5
1426
330
1F
100
AcDbEntity
  8
圖層1輪廓線
100
AcDbLine
 10
3850.288378226671
 20
1842.795718805293
 30
0.0
 11
3886.288378226671
 21
1842.795718805293
 31
0.0
  0
ARC
  5
1427
330
1F
100
AcDbEntity
  8
圖層1輪廓線
100
AcDbCircle
 10
3850.288378226671
 20
1840.795718805294
 30
0.0
 40
2.0
100
AcDbArc
 50
180.0
 51
270.0
  0
ARC
  5
1428
330
1F
100
AcDbEntity
  8
圖層1輪廓線
100
AcDbCircle
 10
3850.288378226671
 20
1840.795718805294
 30
0.0
 40
2.0
100
AcDbArc
 50
90.0
 51
180.0
  0
LINE
  5
1429
330
1F
100
AcDbEntity
  8
圖層1輪廓線
100
AcDbLine
 10
3848.288378226671
 20
1840.795718805294
 30
0.0
 11
3848.288378226671
 21
1840.795718805294
 31
0.0
  0
LINE
  5
142A
330
1F
100
AcDbEntity
  8
圖層1輪廓線
100
AcDbLine
 10
3868.288378226671
 20
1838.795718805293
 30
0.0
 11
3885.788378226671
 21
1838.795718805293
 31
0.0
  0
LINE
  5
142B
330
1F
100
AcDbEntity
  8
圖層1輪廓線
100
AcDbLine
 10
3886.288378226671
 20
1838.795718805293
 30
0.0
 11
3885.788378226671
 21
1838.795718805293
 31
0.0
  0
LINE
  5
142C
330
1F
100
AcDbEntity
  8
圖層1輪廓線
100
AcDbLine
 10
3888.288378226671
 20
1840.795718805294
 30
0.0
 11
3888.288378226671
 21
1840.795718805294
 31
0.0
  0
ARC
  5
142D
330
1F
100
AcDbEntity
  8
圖層1輪廓線
100
AcDbCircle
 10
3886.288378226671
 20
1840.795718805294
 30
0.0
 40
2.0
100
AcDbArc
 50
0.0
 51
90.0
  0
ARC
  5
142E
330
1F
100
AcDbEntity
  8
圖層1輪廓線
100
AcDbCircle
 10
3886.288378226671
 20
1840.795718805294
 30
0.0
 40
2.0
100
AcDbArc
 50
270.0
 51
0.0
  0
ARC
  5
142F
330
1F
100
AcDbEntity
  8
圖層1輪廓線
100
AcDbCircle
 10
3860.099804274142
 20
1953.936343805294
 30
0.0
 40
20.14062500000072
100
AcDbArc
 50
244.2499968808057
 51
295.7500031191943
  0
ARC
  5
1430
330
1F
100
AcDbEntity
  8
圖層1輪廓線
100
AcDbCircle
 10
3860.099804274142
 20
1923.655093805294
 30
0.0
 40
20.1406249999998
100
AcDbArc
 50
64.24999688080569
 51
115.7500031191943
  0
ARC
  5
1431
330
1F
100
AcDbEntity
  8
圖層1輪廓線
100
AcDbCircle
 10
3859.538378226672
 20
1913.655093805292
 30
0.0
 40
20.14062500000123
100
AcDbArc
 50
64.24999688080569
 51
115.7500031191943
  0
LINE
  5
1432
330
1F
100
AcDbEntity
  8
圖層1輪廓線
100
AcDbLine
 10
3850.788378226672
 20
1888.795718805294
 30
0.0
 11
3885.788378226671
 21
1888.795718805294
 31
0.0
  0
ARC
  5
1433
330
1F
100
AcDbEntity
  8
圖層1輪廓線
100
AcDbCircle
 10
3859.538378226671
 20
1923.936343805294
 30
0.0
 40
20.14062499999959
100
AcDbArc
 50
244.2499968808057
 51
295.7500031191943
  0
LINE
  5
1434
330
1F
100
AcDbEntity
  8
圖層1輪廓線
100
AcDbLine
 10
3850.788378226672
 20
1903.795718805293
 30
0.0
 11
3885.788378226671
 21
1903.795718805293
 31
0.0
  0
LINE
  5
1435
330
1F
100
AcDbEntity
  8
圖層1輪廓線
100
AcDbLine
 10
3850.788378226672
 20
1931.795718805294
 30
0.0
 11
3850.788378226672
 21
1888.795718805294
 31
0.0
  0
LINE
  5
1436
330
1F
100
AcDbEntity
  8
圖層1輪廓線
100
AcDbLine
 10
3851.349804274141
 20
1935.795718805293
 30
0.0
 11
3851.349804274141
 21
1941.795718805294
 31
0.0
  0
LINE
  5
1437
330
1F
100
AcDbEntity
  8
圖層1輪廓線
100
AcDbLine
 10
3885.788378226671
 20
1931.795718805294
 30
0.0
 11
3885.788378226671
 21
1888.795718805294
 31
0.0
  0
LINE
  5
1438
330
1F
100
AcDbEntity
  8
圖層1輪廓線
100
AcDbLine
 10
3868.288378226672
 20
1931.795718805294
 30
0.0
 11
3868.288378226672
 21
1905.795718805294
 31
0.0
  0
ARC
  5
1439
330
1F
100
AcDbEntity
  8
圖層1輪廓線
100
AcDbCircle
 10
3877.038378226672
 20
1923.621144598518
 30
0.0
 40
19.85719780607825
100
AcDbArc
 50
243.8548774948792
 51
296.1451225051208
  0
LINE
  5
143A
330
1F
100
AcDbEntity
  8
圖層1輪廓線
100
AcDbLine
 10
3859.788378226671
 20
1888.795718805294
 30
0.0
 11
3876.788378226671
 21
1888.795718805294
 31
0.0
  0
LINE
  5
143B
330
1F
100
AcDbEntity
  8
圖層1輪廓線
100
AcDbLine
 10
3858.288378226671
 20
1887.295718805293
 30
0.0
 11
3878.288378226671
 21
1887.295718805293
 31
0.0
  0
LINE
  5
143C
330
1F
100
AcDbEntity
  8
圖層1輪廓線
100
AcDbLine
 10
3858.288378226671
 20
1887.295718805293
 30
0.0
 11
3859.788378226671
 21
1888.795718805294
 31
0.0
  0
LINE
  5
143D
330
1F
100
AcDbEntity
  8
圖層1輪廓線
100
AcDbLine
 10
3878.288378226671
 20
1887.295718805293
 30
0.0
 11
3876.788378226671
 21
1888.795718805294
 31
0.0
  0
ARC
  5
143E
330
1F
100
AcDbEntity
  8
圖層1輪廓線
100
AcDbCircle
 10
3877.599804274142
 20
1923.655093805294
 30
0.0
 40
20.1406249999998
100
AcDbArc
 50
64.24999688080569
 51
115.7500031191943
  0
LINE
  5
143F
330
1F
100
AcDbEntity
  8
圖層1輪廓線
100
AcDbLine
 10
3860.099804274142
 20
1943.795718805293
 30
0.0
 11
3877.599804274142
 21
1943.795718805293
 31
0.0
  0
ARC
  5
1440
330
1F
100
AcDbEntity
  8
圖層1輪廓線
100
AcDbCircle
 10
3877.599804274142
 20
1953.936343805294
 30
0.0
 40
20.1406250000002
100
AcDbArc
 50
244.2499968808057
 51
295.7500031191943
  0
LINE
  5
1441
330
1F
100
AcDbEntity
  8
圖層1輪廓線
100
AcDbLine
 10
3860.099804274142
 20
1933.795718805294
 30
0.0
 11
3877.599804274142
 21
1933.795718805294
 31
0.0
  0
LINE
  5
1442
330
1F
100
AcDbEntity
  8
圖層1輪廓線
100
AcDbLine
 10
3859.538378226672
 20
1933.795718805294
 30
0.0
 11
3878.16123032161
 21
1933.795718805294
 31
0.0
  0
ARC
  5
1443
330
1F
100
AcDbEntity
  8
圖層1輪廓線
100
AcDbCircle
 10
3877.038378226672
 20
1913.97029301207
 30
0.0
 40
19.85719780607835
100
AcDbArc
 50
63.85487749482095
 51
116.1451225051208
  0
LINE
  5
1444
330
1F
100
AcDbEntity
  8
圖層1輪廓線
100
AcDbLine
 10
3868.849804274141
 20
1941.795718805294
 30
0.0
 11
3868.849804274141
 21
1935.795718805294
 31
0.0
  0
LINE
  5
1445
330
1F
100
AcDbEntity
  8
圖層1輪廓線
100
AcDbLine
 10
3886.349804274141
 20
1935.795718805294
 30
0.0
 11
3886.349804274141
 21
1941.795718805294
 31
0.0
  0
LINE
  5
1446
330
1F
100
AcDbEntity
  8
圖層1輪廓線
100
AcDbLine
 10
3843.288378226671
 20
1943.795718805293
 30
0.0
 11
3893.288378226671
 21
1943.795718805293
 31
0.0
  0
LINE
  5
1447
330
1F
100
AcDbEntity
  8
圖層1輪廓線
100
AcDbLine
 10
3843.288378226671
 20
1813.795718805294
 30
0.0
 11
3893.288378226671
 21
1813.795718805294
 31
0.0
  0
LINE
  5
1448
330
1F
100
AcDbEntity
  8
圖層1輪廓線
100
AcDbLine
 10
3404.702545148448
 20
1813.795718805294
 30
0.0
 11
3454.702545148448
 21
1813.795718805294
 31
0.0
  0
LINE
  5
1449
330
1F
100
AcDbEntity
  8
圖層1輪廓線
100
AcDbLine
 10
3397.481295473385
 20
1674.795718805293
 30
0.0
 11
3397.481295473385
 21
1781.795718805294
 31
0.0
  0
LINE
  5
144A
330
1F
100
AcDbEntity
  8
圖層1輪廓線
100
AcDbLine
 10
3461.161295473385
 20
1674.795718805293
 30
0.0
 11
3461.161295473385
 21
1781.795718805294
 31
0.0
  0
LINE
  5
144B
330
1F
100
AcDbEntity
  8
圖層1輪廓線
100
AcDbLine
 10
3404.661295473385
 20
1674.795718805293
 30
0.0
 11
3404.661295473385
 21
1781.795718805294
 31
0.0
  0
LINE
  5
144C
330
1F
100
AcDbEntity
  8
圖層1輪廓線
100
AcDbLine
 10
3453.981295473385
 20
1674.795718805293
 30
0.0
 11
3453.981295473385
 21
1781.795718805294
 31
0.0
  0
LINE
  5
144D
330
1F
100
AcDbEntity
  8
圖層1輪廓線
100
AcDbLine
 10
3391.821295473385
 20
1674.795718805293
 30
0.0
 11
3466.821295473386
 21
1674.795718805293
 31
0.0
  0
LINE
  5
144E
330
1F
100
AcDbEntity
  8
圖層1輪廓線
100
AcDbLine
 10
3399.673466636808
 20
1642.795718805293
 30
0.0
 11
3459.731623660088
 21
1642.795718805293
 31
0.0
  0
LINE
  5
144F
330
1F
100
AcDbEntity
  8
圖層1輪廓線
100
AcDbLine
 10
3392.321295473384
 20
1642.795718805293
 30
0.0
 11
3466.321295473386
 21
1642.795718805293
 31
0.0
  0
LINE
  5
1450
330
1F
100
AcDbEntity
  8
圖層1輪廓線
100
AcDbLine
 10
3407.727911661974
 20
1645.795718805294
 30
0.0
 11
3450.914679284797
 21
1645.795718805294
 31
0.0
  0
LINE
  5
1451
330
1F
100
AcDbEntity
  8
圖層1輪廓線
100
AcDbLine
 10
3391.821295473385
 20
1674.795718805293
 30
0.0
 11
3392.321295473384
 21
1642.795718805293
 31
0.0
  0
LINE
  5
1452
330
1F
100
AcDbEntity
  8
圖層1輪廓線
100
AcDbLine
 10
3404.321295473386
 20
1674.795718805293
 30
0.0
 11
3404.72827780587
 21
1648.748849526291
 31
0.0
  0
ARC
  5
1453
330
1F
100
AcDbEntity
  8
圖層1輪廓線
100
AcDbCircle
 10
3407.727911661974
 20
1648.795718805293
 30
0.0
 40
3.0
100
AcDbArc
 50
180.8951737102151
 51
270.0
  0
LINE
  5
1454
330
1F
100
AcDbEntity
  8
圖層1輪廓線
100
AcDbLine
 10
3454.321295473385
 20
1674.795718805293
 30
0.0
 11
3453.914313140901
 21
1648.748849526291
 31
0.0
  0
ARC
  5
1455
330
1F
100
AcDbEntity
  8
圖層1輪廓線
100
AcDbCircle
 10
3450.914679284797
 20
1648.795718805293
 30
0.0
 40
3.0
100
AcDbArc
 50
270.0
 51
359.1048262897849
  0
LINE
  5
1456
330
1F
100
AcDbEntity
  8
圖層1輪廓線
100
AcDbLine
 10
3466.821295473386
 20
1674.795718805293
 30
0.0
 11
3466.321295473386
 21
1642.795718805293
 31
0.0
  0
LINE
  5
1457
330
1F
100
AcDbEntity
  8
圖層1輪廓線
100
AcDbLine
 10
3392.321295473386
 20
1813.795718805293
 30
0.0
 11
3466.321295473386
 21
1813.795718805294
 31
0.0
  0
LINE
  5
1458
330
1F
100
AcDbEntity
  8
圖層1輪廓線
100
AcDbLine
 10
3391.821295473385
 20
1781.795718805294
 30
0.0
 11
3466.821295473386
 21
1781.795718805294
 31
0.0
  0
LINE
  5
1459
330
1F
100
AcDbEntity
  8
圖層1輪廓線
100
AcDbLine
 10
3399.673466636808
 20
1813.795718805294
 30
0.0
 11
3459.731623660088
 21
1813.795718805294
 31
0.0
  0
LINE
  5
145A
330
1F
100
AcDbEntity
  8
圖層1輪廓線
100
AcDbLine
 10
3449.321295473386
 20
1817.795718805293
 30
0.0
 11
3449.321295473386
 21
1827.295718805293
 31
0.0
  0
LINE
  5
145B
330
1F
100
AcDbEntity
  8
圖層1輪廓線
100
AcDbLine
 10
3409.321295473386
 20
1817.795718805293
 30
0.0
 11
3409.321295473386
 21
1827.295718805293
 31
0.0
  0
LINE
  5
145C
330
1F
100
AcDbEntity
  8
圖層1輪廓線
100
AcDbLine
 10
3407.321295473386
 20
1817.795718805293
 30
0.0
 11
3451.321295473385
 21
1817.795718805293
 31
0.0
  0
LINE
  5
145D
330
1F
100
AcDbEntity
  8
圖層1輪廓線
100
AcDbLine
 10
3407.727911661974
 20
1810.795718805293
 30
0.0
 11
3450.914679284797
 21
1810.795718805293
 31
0.0
  0
LINE
  5
145E
330
1F
100
AcDbEntity
  8
圖層1輪廓線
100
AcDbLine
 10
3391.821295473385
 20
1781.795718805294
 30
0.0
 11
3392.321295473386
 21
1813.795718805294
 31
0.0
  0
LINE
  5
145F
330
1F
100
AcDbEntity
  8
圖層1輪廓線
100
AcDbLine
 10
3404.321295473386
 20
1781.795718805294
 30
0.0
 11
3404.72827780587
 21
1807.842588084295
 31
0.0
  0
ARC
  5
1460
330
1F
100
AcDbEntity
  8
圖層1輪廓線
100
AcDbCircle
 10
3407.727911661974
 20
1807.795718805293
 30
0.0
 40
3.0
100
AcDbArc
 50
90.0
 51
179.1048262897848
  0
ARC
  5
1461
330
1F
100
AcDbEntity
  8
圖層1輪廓線
100
AcDbCircle
 10
3407.321295473386
 20
1817.295718805294
 30
0.0
 40
0.5
100
AcDbArc
 50
90.0
 51
180.0
  0
LINE
  5
1462
330
1F
100
AcDbEntity
  8
圖層1輪廓線
100
AcDbLine
 10
3406.821295473385
 20
1813.795718805294
 30
0.0
 11
3406.821295473385
 21
1817.295718805294
 31
0.0
  0
LINE
  5
1463
330
1F
100
AcDbEntity
  8
圖層1輪廓線
100
AcDbLine
 10
3454.321295473385
 20
1781.795718805294
 30
0.0
 11
3453.914313140901
 21
1807.842588084295
 31
0.0
  0
ARC
  5
1464
330
1F
100
AcDbEntity
  8
圖層1輪廓線
100
AcDbCircle
 10
3451.321295473385
 20
1817.295718805294
 30
0.0
 40
0.5
100
AcDbArc
 50
0.0
 51
90.0
  0
LINE
  5
1465
330
1F
100
AcDbEntity
  8
圖層1輪廓線
100
AcDbLine
 10
3451.821295473386
 20
1813.795718805294
 30
0.0
 11
3451.821295473386
 21
1817.295718805294
 31
0.0
  0
ARC
  5
1466
330
1F
100
AcDbEntity
  8
圖層1輪廓線
100
AcDbCircle
 10
3450.914679284797
 20
1807.795718805293
 30
0.0
 40
3.0
100
AcDbArc
 50
0.8951737102151449
 51
90.0
  0
LINE
  5
1467
330
1F
100
AcDbEntity
  8
圖層1輪廓線
100
AcDbLine
 10
3437.321295473385
 20
1838.795718805293
 30
0.0
 11
3421.321295473386
 21
1838.795718805293
 31
0.0
  0
LINE
  5
1468
330
1F
100
AcDbEntity
  8
圖層1輪廓線
100
AcDbLine
 10
3411.321295473385
 20
1838.795718805293
 30
0.0
 11
3447.321295473385
 21
1838.795718805293
 31
0.0
  0
LINE
  5
1469
330
1F
100
AcDbEntity
  8
圖層1輪廓線
100
AcDbLine
 10
3409.321295473386
 20
1827.295718805293
 30
0.0
 11
3449.321295473386
 21
1827.295718805293
 31
0.0
  0
LINE
  5
146A
330
1F
100
AcDbEntity
  8
圖層1輪廓線
100
AcDbLine
 10
3409.821295473385
 20
1827.795718805293
 30
0.0
 11
3448.821295473385
 21
1827.795718805293
 31
0.0
  0
LINE
  5
146B
330
1F
100
AcDbEntity
  8
圖層1輪廓線
100
AcDbLine
 10
3409.321295473386
 20
1827.295718805293
 30
0.0
 11
3409.821295473385
 21
1827.795718805293
 31
0.0
  0
LINE
  5
146C
330
1F
100
AcDbEntity
  8
圖層1輪廓線
100
AcDbLine
 10
3409.821295473385
 20
1827.795718805293
 30
0.0
 11
3409.821295473385
 21
1837.295718805293
 31
0.0
  0
ARC
  5
146D
330
1F
100
AcDbEntity
  8
圖層1輪廓線
100
AcDbCircle
 10
3411.321295473385
 20
1837.295718805293
 30
0.0
 40
1.5
100
AcDbArc
 50
90.0
 51
180.0
  0
LINE
  5
146E
330
1F
100
AcDbEntity
  8
圖層1輪廓線
100
AcDbLine
 10
3448.821295473385
 20
1827.795718805293
 30
0.0
 11
3449.321295473386
 21
1827.295718805293
 31
0.0
  0
LINE
  5
146F
330
1F
100
AcDbEntity
  8
圖層1輪廓線
100
AcDbLine
 10
3448.821295473385
 20
1827.795718805293
 30
0.0
 11
3448.821295473385
 21
1837.295718805293
 31
0.0
  0
ARC
  5
1470
330
1F
100
AcDbEntity
  8
圖層1輪廓線
100
AcDbCircle
 10
3447.321295473385
 20
1837.295718805293
 30
0.0
 40
1.5
100
AcDbArc
 50
0.0
 51
90.0
  0
LINE
  5
1471
330
1F
100
AcDbEntity
  8
圖層1輪廓線
100
AcDbLine
 10
3466.821295473386
 20
1781.795718805294
 30
0.0
 11
3466.321295473386
 21
1813.795718805294
 31
0.0
  0
ARC
  5
1472
330
1F
100
AcDbEntity
  8
圖層1輪廓線
100
AcDbCircle
 10
3904.000726484161
 20
1722.506759437789
 30
0.0
 40
6.000000000000074
100
AcDbArc
 50
90.0
 51
135.1481665465844
  0
ARC
  5
1473
330
1F
100
AcDbEntity
  8
圖層1輪廓線
100
AcDbCircle
 10
3904.000726484161
 20
1722.506759437789
 30
0.0
 40
6.000000000000074
100
AcDbArc
 50
224.8518334534156
 51
270.0
  0
LINE
  5
1474
330
1F
100
AcDbEntity
  8
圖層4尺寸線
100
AcDbLine
 10
3559.321295473387
 20
1363.506759437788
 30
0.0
 11
3504.321295473386
 21
1363.506759437788
 31
0.0
  0
LINE
  5
1475
330
1F
100
AcDbEntity
  8
圖層4尺寸線
100
AcDbLine
 10
3504.321295473386
 20
1321.506759437788
 30
0.0
 11
3559.321295473387
 21
1321.506759437788
 31
0.0
  0
LINE
  5
1476
330
1F
100
AcDbEntity
  8
圖層1輪廓線
100
AcDbLine
 10
3504.321295473386
 20
1363.506759437788
 30
0.0
 11
3504.321295473386
 21
1321.506759437788
 31
0.0
  0
LINE
  5
1477
330
1F
100
AcDbEntity
  8
圖層4尺寸線
100
AcDbLine
 10
3542.974121226744
 20
1373.672850397496
 30
0.0
 11
3543.821295473386
 21
1363.506759437788
 31
0.0
  0
LINE
  5
1478
330
1F
100
AcDbEntity
  8
圖層4尺寸線
100
AcDbLine
 10
3520.668469720028
 20
1373.672850397496
 30
0.0
 11
3519.821295473386
 21
1363.506759437788
 31
0.0
  0
LINE
  5
1479
330
1F
100
AcDbEntity
  8
圖層4尺寸線
100
AcDbLine
 10
3559.321295473387
 20
1321.506759437788
 30
0.0
 11
3559.321295473387
 21
1363.506759437788
 31
0.0
  0
LINE
  5
147A
330
1F
100
AcDbEntity
  8
圖層4尺寸線
100
AcDbLine
 10
3538.821295473387
 20
1384.506759437789
 30
0.0
 11
3524.821295473387
 21
1384.506759437788
 31
0.0
  0
LINE
  5
147B
330
1F
100
AcDbEntity
  8
圖層4尺寸線
100
AcDbLine
 10
3540.981029710254
 20
1375.506759437788
 30
0.0
 11
3522.661561236519
 21
1375.506759437788
 31
0.0
  0
ARC
  5
147C
330
1F
100
AcDbEntity
  8
圖層4尺寸線
100
AcDbCircle
 10
3524.821295473387
 20
1382.506759437788
 30
0.0
 40
2.0
100
AcDbArc
 50
90.0
 51
180.0
  0
LINE
  5
147D
330
1F
100
AcDbEntity
  8
圖層4尺寸線
100
AcDbLine
 10
3522.821295473387
 20
1382.506759437788
 30
0.0
 11
3522.821295473387
 21
1375.506759437788
 31
0.0
  0
ARC
  5
147E
330
1F
100
AcDbEntity
  8
圖層4尺寸線
100
AcDbCircle
 10
3522.661561236519
 20
1373.506759437788
 30
0.0
 40
2.0
100
AcDbArc
 50
90.0
 51
175.2363583092695
  0
LINE
  5
147F
330
1F
100
AcDbEntity
  8
圖層4尺寸線
100
AcDbLine
 10
3540.821295473386
 20
1382.506759437789
 30
0.0
 11
3540.821295473386
 21
1375.506759437788
 31
0.0
  0
ARC
  5
1480
330
1F
100
AcDbEntity
  8
圖層4尺寸線
100
AcDbCircle
 10
3540.981029710254
 20
1373.506759437788
 30
0.0
 40
2.0
100
AcDbArc
 50
4.763641690730505
 51
90.0
  0
ARC
  5
1481
330
1F
100
AcDbEntity
  8
圖層4尺寸線
100
AcDbCircle
 10
3538.821295473387
 20
1382.506759437789
 30
0.0
 40
2.0
100
AcDbArc
 50
0.0
 51
90.0
  0
LINE
  5
1482
330
1F
100
AcDbEntity
  8
圖層4尺寸線
100
AcDbLine
 10
3354.321295473386
 20
1363.506759437788
 30
0.0
 11
3299.321295473387
 21
1363.506759437788
 31
0.0
  0
LINE
  5
1483
330
1F
100
AcDbEntity
  8
圖層4尺寸線
100
AcDbLine
 10
3299.321295473387
 20
1321.506759437788
 30
0.0
 11
3354.321295473386
 21
1321.506759437788
 31
0.0
  0
LINE
  5
1484
330
1F
100
AcDbEntity
  8
圖層4尺寸線
100
AcDbLine
 10
3337.974121226743
 20
1373.672850397496
 30
0.0
 11
3338.821295473387
 21
1363.506759437788
 31
0.0
  0
LINE
  5
1485
330
1F
100
AcDbEntity
  8
圖層4尺寸線
100
AcDbLine
 10
3315.668469720029
 20
1373.672850397496
 30
0.0
 11
3314.821295473386
 21
1363.506759437788
 31
0.0
  0
LINE
  5
1486
330
1F
100
AcDbEntity
  8
圖層4尺寸線
100
AcDbLine
 10
3299.321295473387
 20
1363.506759437788
 30
0.0
 11
3299.321295473387
 21
1321.506759437788
 31
0.0
  0
ARC
  5
1487
330
1F
100
AcDbEntity
  8
圖層4尺寸線
100
AcDbCircle
 10
3317.661561236518
 20
1373.506759437788
 30
0.0
 40
2.0
100
AcDbArc
 50
90.0
 51
175.2363583092695
  0
LINE
  5
1488
330
1F
100
AcDbEntity
  8
圖層4尺寸線
100
AcDbLine
 10
3333.821295473387
 20
1384.506759437789
 30
0.0
 11
3319.821295473386
 21
1384.506759437788
 31
0.0
  0
LINE
  5
1489
330
1F
100
AcDbEntity
  8
圖層4尺寸線
100
AcDbLine
 10
3335.981029710254
 20
1375.506759437788
 30
0.0
 11
3317.661561236518
 21
1375.506759437788
 31
0.0
  0
LINE
  5
148A
330
1F
100
AcDbEntity
  8
圖層4尺寸線
100
AcDbLine
 10
3317.821295473386
 20
1382.506759437788
 30
0.0
 11
3317.821295473386
 21
1375.506759437788
 31
0.0
  0
ARC
  5
148B
330
1F
100
AcDbEntity
  8
圖層4尺寸線
100
AcDbCircle
 10
3319.821295473386
 20
1382.506759437788
 30
0.0
 40
2.0
100
AcDbArc
 50
90.0
 51
180.0
  0
LINE
  5
148C
330
1F
100
AcDbEntity
  8
圖層4尺寸線
100
AcDbLine
 10
3335.821295473387
 20
1382.506759437789
 30
0.0
 11
3335.821295473387
 21
1375.506759437788
 31
0.0
  0
ARC
  5
148D
330
1F
100
AcDbEntity
  8
圖層4尺寸線
100
AcDbCircle
 10
3335.981029710254
 20
1373.506759437788
 30
0.0
 40
2.0
100
AcDbArc
 50
4.763641690730505
 51
90.0
  0
ARC
  5
148E
330
1F
100
AcDbEntity
  8
圖層4尺寸線
100
AcDbCircle
 10
3333.821295473387
 20
1382.506759437789
 30
0.0
 40
2.0
100
AcDbArc
 50
0.0
 51
90.0
  0
LINE
  5
148F
330
1F
100
AcDbEntity
  8
圖層1輪廓線
100
AcDbLine
 10
3354.321295473386
 20
1321.506759437788
 30
0.0
 11
3354.321295473386
 21
1363.506759437788
 31
0.0
  0
LINE
  5
1490
330
1F
100
AcDbEntity
  8
圖層4尺寸線
100
AcDbLine
 10
3559.321295473387
 20
1359.506759437788
 30
0.0
 11
3504.321295473386
 21
1359.506759437788
 31
0.0
  0
LINE
  5
1491
330
1F
100
AcDbEntity
  8
圖層4尺寸線
100
AcDbLine
 10
3354.321295473386
 20
1359.506759437788
 30
0.0
 11
3299.321295473387
 21
1359.506759437788
 31
0.0
  0
LINE
  5
1492
330
1F
100
AcDbEntity
  8
圖層2中心線
 48
0.2
100
AcDbLine
 10
3364.321295473386
 20
1348.275600902128
 30
0.0
 11
3364.321295473386
 21
1314.226660968321
 31
0.0
  0
LINE
  5
1493
330
1F
100
AcDbEntity
  8
圖層2中心線
 48
0.2
100
AcDbLine
 10
3494.321295473387
 20
1348.275600902128
 30
0.0
 11
3494.321295473387
 21
1313.680457411632
 31
0.0
  0
DIMENSION
  5
1629
330
1F
100
AcDbEntity
  8
AM_5
100
AcDbDimension
  2
*D3
 10
3494.321295473387
 20
1261.506759437788
 30
0.0
 11
3429.321295473386
 21
1277.506759437788
 31
0.0
 70
    32
 71
     5
 42
130.0
  3
AM_ISO$0
100
AcDbAlignedDimension
 13
3364.321295473386
 23
1314.226660968321
 33
0.0
 14
3494.321295473387
 24
1313.680457411632
 34
0.0
100
AcDbRotatedDimension
1001
ACAD
1000
DSTYLE
1002
{
1070
    40
1040
1.0
1070
   144
1040
1.0
1002
}
  0
DIMENSION
  5
162C
330
1F
100
AcDbEntity
  8
AM_5
100
AcDbDimension
  2
*D4
 10
3504.321295473386
 20
1211.506759437789
 30
0.0
 11
3429.321295473386
 21
1227.506759437789
 31
0.0
 70
    32
 71
     5
 42
150.0
  3
AM_ISO$0
100
AcDbAlignedDimension
 13
3354.321295473386
 23
1321.506759437788
 33
0.0
 14
3504.321295473386
 24
1321.506759437788
 34
0.0
100
AcDbRotatedDimension
1001
ACAD
1000
DSTYLE
1002
{
1070
    40
1040
1.0
1070
   144
1040
1.0
1002
}
  0
LINE
  5
1665
330
1F
100
AcDbEntity
  8
圖層2中心線
 48
0.5
100
AcDbLine
 10
3429.321295473386
 20
1308.970163095564
 30
0.0
 11
3429.321295473386
 21
1520.168838949404
 31
0.0
1001
GENIUS_GENODEF_13
1002
{
1000
HIER
1070
     0
1002
}
1002
{
1000
MANEDIT
1070
     0
1002
}
1002
{
1000
NOSEL
1070
     0
1002
}
1002
{
1000
BEHIND
1070
     0
1002
}
1002
{
1000
OTHER
1070
     0
1002
}
1002
{
1000
REACTOR
1002
}
1001
GENIUS_GENOBJ-N-CEN_13
1002
{
1000
OWNER
1000
GEN
1002
}
1001
GENIUS_GENCEN_19
1002
{
1040
2.0
1002
}
  0
DIMENSION
  5
1679
330
1F
100
AcDbEntity
  8
AM_5
100
AcDbDimension
  2
*D6
 10
3867.90712855161
 20
1261.506759437789
 30
0.0
 11
3830.407128551609
 21
1277.506759437789
 31
0.0
 70
    32
 71
     5
 42
75.0
  3
AM_ISO$0
100
AcDbAlignedDimension
 13
3792.90712855161
 23
1321.506759437788
 33
0.0
 14
3867.90712855161
 24
1310.518899630477
 34
0.0
100
AcDbRotatedDimension
1001
ACAD
1000
DSTYLE
1002
{
1070
    40
1040
1.0
1070
   144
1040
1.0
1002
}
  0
DIMENSION
  5
167C
330
1F
100
AcDbEntity
  8
AM_5
100
AcDbDimension
  2
*D7
 10
3957.907128551609
 20
1261.506759437789
 30
0.0
 11
3912.907128551609
 21
1277.506759437789
 31
0.0
 70
    32
 71
     5
 42
90.0
  3
AM_ISO$0
100
AcDbAlignedDimension
 13
3867.90712855161
 23
1310.518899630477
 33
0.0
 14
3957.907128551609
 24
1310.286654450969
 34
0.0
100
AcDbRotatedDimension
1001
ACAD
1000
DSTYLE
1002
{
1070
    40
1040
1.0
1070
   144
1040
1.0
1002
}
  0
DIMENSION
  5
167F
330
1F
100
AcDbEntity
  8
AM_5
100
AcDbDimension
  2
*D8
 10
4052.907128551609
 20
1261.506759437789
 30
0.0
 11
4025.407128551608
 21
1277.506759437789
 31
0.0
 70
    32
 71
     5
 42
55.0
  3
AM_ISO$0
100
AcDbAlignedDimension
 13
3997.907128551609
 23
1309.286654450969
 33
0.0
 14
4052.907128551609
 24
1321.506759437788
 34
0.0
100
AcDbRotatedDimension
1001
ACAD
1000
DSTYLE
1002
{
1070
    40
1040
1.0
1070
   144
1040
1.0
1002
}
  0
DIMENSION
  5
1682
330
1F
100
AcDbEntity
  8
AM_5
100
AcDbDimension
  2
*D9
 10
4052.907128551609
 20
1211.506759437789
 30
0.0
 11
3922.907128551609
 21
1227.508727941726
 31
0.0
 70
    32
 71
     5
 42
260.0000000000004
  3
AM_ISO$0
100
AcDbAlignedDimension
 13
3792.90712855161
 23
1321.506759437788
 33
0.0
 14
4052.907128551609
 24
1321.506759437788
 34
0.0
100
AcDbRotatedDimension
1001
ACAD
1000
DSTYLE
1002
{
1070
    40
1040
1.0
1070
   144
1040
1.0
1002
}
  0
DIMENSION
  5
1685
330
1F
100
AcDbEntity
  8
AM_5
100
AcDbDimension
  2
*D5
 10
3997.907128551609
 20
1261.506759437789
 30
0.0
 11
3977.90712855161
 21
1277.506759437789
 31
0.0
 70
    32
 71
     5
 42
40.0
  3
AM_ISO$0
100
AcDbAlignedDimension
 13
3957.907128551609
 23
1310.286654450969
 33
0.0
 14
3997.907128551609
 24
1309.973891910803
 34
0.0
100
AcDbRotatedDimension
1001
ACAD
1000
DSTYLE
1002
{
1070
    40
1040
1.0
1070
   144
1040
1.0
1002
}
  0
DIMENSION
  5
16F5
330
1F
100
AcDbEntity
  8
AM_5
100
AcDbDimension
  2
*D12
 10
4112.907128551609
 20
1381.506759437789
 30
0.0
 11
4096.907128551609
 21
1351.506759437789
 31
0.0
 70
    32
 71
     5
 42
60.00000000000023
  3
AM_ISO$0
100
AcDbAlignedDimension
 13
4052.907128551609
 23
1321.506759437788
 33
0.0
 14
4052.907128551609
 24
1381.506759437789
 34
0.0
 50
90.0
100
AcDbRotatedDimension
1001
ACAD
1000
DSTYLE
1002
{
1070
    40
1040
1.0
1070
   144
1040
1.0
1002
}
  0
DIMENSION
  5
16F8
330
1F
100
AcDbEntity
  8
AM_5
100
AcDbDimension
  2
*D10
 10
4112.907128551609
 20
1582.795718805293
 30
0.0
 11
4096.907128551609
 21
1612.795718805294
 31
0.0
 70
    32
 71
     5
 42
60.0
  3
AM_ISO$0
100
AcDbAlignedDimension
 13
4052.907128551608
 23
1642.795718805293
 33
0.0
 14
4052.907128551608
 24
1582.795718805293
 34
0.0
 50
90.0
100
AcDbRotatedDimension
1001
ACAD
1000
DSTYLE
1002
{
1070
    40
1040
1.0
1070
   144
1040
1.0
1002
}
  0
DIMENSION
  5
16FB
330
1F
100
AcDbEntity
  8
AM_5
100
AcDbDimension
  2
*D11
 10
4162.907128551609
 20
1671.506759437788
 30
0.0
 11
4146.907128551609
 21
1496.506759437789
 31
0.0
 70
    32
 71
     5
 42
350.0
  3
AM_ISO$0
100
AcDbAlignedDimension
 13
4052.907128551609
 23
1321.506759437788
 33
0.0
 14
4021.407128551609
 24
1671.506759437788
 34
0.0
 50
90.0
100
AcDbRotatedDimension
1001
ACAD
1000
DSTYLE
1002
{
1070
    40
1040
1.0
1070
   144
1040
1.0
1002
}
  0
DIMENSION
  5
173D
330
1F
100
AcDbEntity
  8
AM_5
100
AcDbDimension
  2
*D15
 10
3732.907128551609
 20
1381.506759437789
 30
0.0
 11
3716.907128551609
 21
1351.506759437789
 31
0.0
 70
    32
 71
     5
 42
60.0
  3
AM_ISO$0
100
AcDbAlignedDimension
 13
3792.90712855161
 23
1321.506759437788
 33
0.0
 14
3797.907128551609
 24
1381.506759437789
 34
0.0
 50
90.0
100
AcDbRotatedDimension
1001
ACAD
1000
DSTYLE
1002
{
1070
    40
1040
1.0
1070
   144
1040
1.0
1002
}
  0
DIMENSION
  5
1740
330
1F
100
AcDbEntity
  8
AM_5
100
AcDbDimension
  2
*D16
 10
3732.907128551609
 20
1532.795718805293
 30
0.0
 11
3716.907128551609
 21
1457.151239121541
 31
0.0
 70
    32
  1
Max. 150
 71
     5
 42
151.2889593675045
  3
AM_ISO$0
100
AcDbAlignedDimension
 13
3797.907128551609
 23
1381.506759437789
 33
0.0
 14
3847.407128551609
 24
1532.795718805293
 34
0.0
 50
90.0
100
AcDbRotatedDimension
1001
ACAD
1000
DSTYLE
1002
{
1070
    40
1040
1.0
1070
   144
1040
1.0
1002
}
  0
DIMENSION
  5
1743
330
1F
100
AcDbEntity
  8
AM_5
100
AcDbDimension
  2
*D13
 10
3732.907128551609
 20
1642.795718805293
 30
0.0
 11
3716.907128551609
 21
1587.795718805294
 31
0.0
 70
    32
 71
     5
 42
110.0000000000002
  3
AM_ISO$0
100
AcDbAlignedDimension
 13
3847.407128551609
 23
1532.795718805293
 33
0.0
 14
3817.90712855161
 24
1642.795718805293
 34
0.0
 50
90.0
100
AcDbRotatedDimension
1001
ACAD
1000
DSTYLE
1002
{
1070
    40
1040
1.0
1070
   144
1040
1.0
1002
}
  0
DIMENSION
  5
1746
330
1F
100
AcDbEntity
  8
AM_5
100
AcDbDimension
  2
*D14
 10
3732.907128551609
 20
1943.795718805293
 30
0.0
 11
3716.907128551609
 21
1793.295718805294
 31
0.0
 70
    32
 71
     5
 42
301.0
  3
AM_ISO$0
100
AcDbAlignedDimension
 13
3817.90712855161
 23
1642.795718805293
 33
0.0
 14
3843.288378226671
 24
1943.795718805293
 34
0.0
 50
90.0
100
AcDbRotatedDimension
1001
ACAD
1000
DSTYLE
1002
{
1070
    40
1040
1.0
1070
   144
1040
1.0
1002
}
  0
DIMENSION
  5
1812
330
1F
100
AcDbEntity
  8
AM_5
100
AcDbDimension
  2
*D17
 10
3682.907128551609
 20
1943.795718805293
 30
0.0
 11
3666.907128551609
 21
1632.651239121542
 31
0.0
 70
    32
  1
Max. 650
 71
     5
 42
622.2889593675049
  3
AM_ISO$0
100
AcDbAlignedDimension
 13
3792.90712855161
 23
1321.506759437788
 33
0.0
 14
3845.288378226671
 24
1943.795718805293
 34
0.0
 50
90.0
100
AcDbRotatedDimension
1001
ACAD
1000
DSTYLE
1002
{
1070
    40
1040
1.0
1070
   144
1040
1.0
1002
}
  0
DIMENSION
  5
1846
330
1F
100
AcDbEntity
  8
AM_5
100
AcDbDimension
  2
*D18
 10
3972.907128551611
 20
1472.795718805293
 30
0.0
 11
3920.40712855161
 21
1488.795718805293
 31
0.0
 70
    32
 71
     5
 42
105.0000000000009
  3
AM_ISO$0
100
AcDbAlignedDimension
 13
3867.90712855161
 23
1513.020205002107
 33
0.0
 14
3972.907128551611
 24
1582.795718805293
 34
0.0
100
AcDbRotatedDimension
1001
ACAD
1000
DSTYLE
1002
{
1070
    40
1040
1.0
1070
   144
1040
1.0
1002
}
  0
DIMENSION
  5
186D
330
1F
100
AcDbEntity
  8
AM_5
100
AcDbDimension
  2
*D19
 10
4022.907128551609
 20
1472.795718805293
 30
0.0
 11
4088.915002567357
 21
1472.795718805293
 31
0.0
 70
   160
  1
%%c<>
 71
     5
 42
50.0
  3
AM_ISO$0
100
AcDbAlignedDimension
 13
3972.907128551609
 23
1582.795718805293
 33
0.0
 14
4022.907128551609
 24
1582.795718805293
 34
0.0
100
AcDbRotatedDimension
1001
ACAD
1000
DSTYLE
1002
{
1070
    40
1040
1.0
1070
   144
1040
1.0
1002
}
  0
ARC
  5
18D6
330
1F
100
AcDbEntity
  8
圖層1輪廓線
100
AcDbCircle
 10
3393.814253918224
 20
2274.999289062001
 30
0.0
 40
19.51041666666302
100
AcDbArc
 50
52.65349068557176
 51
127.3465093144282
  0
ARC
  5
18D7
330
1F
100
AcDbEntity
  8
圖層1輪廓線
100
AcDbCircle
 10
3393.814253918224
 20
2294.020122395329
 30
0.0
 40
19.51041666666605
100
AcDbArc
 50
232.6534906855718
 51
307.3465093144283
  0
LINE
  5
18D8
330
1F
100
AcDbEntity
  8
圖層1輪廓線
100
AcDbLine
 10
3381.978573399837
 20
2278.509705728663
 30
0.0
 11
3381.978573399837
 21
2290.509705728663
 31
0.0
  0
LINE
  5
18D9
330
1F
100
AcDbEntity
  8
圖層1輪廓線
100
AcDbLine
 10
3393.814253918224
 20
2274.509705728664
 30
0.0
 11
3464.82833702855
 21
2274.509705728663
 31
0.0
  0
LINE
  5
18DA
330
1F
100
AcDbEntity
  8
圖層1輪廓線
100
AcDbLine
 10
3393.814253918224
 20
2294.509705728664
 30
0.0
 11
3464.82833702855
 21
2294.509705728663
 31
0.0
  0
ARC
  5
18DB
330
1F
100
AcDbEntity
  8
圖層1輪廓線
100
AcDbCircle
 10
3429.321295473386
 20
2222.468039062
 30
0.0
 40
72.04166666666245
100
AcDbArc
 50
70.81746569497115
 51
109.1825343050288
  0
ARC
  5
18DC
330
1F
100
AcDbEntity
  8
圖層1輪廓線
100
AcDbCircle
 10
3429.321295473386
 20
2346.551372395333
 30
0.0
 40
72.0416666666691
100
AcDbArc
 50
250.8174656949711
 51
289.1825343050289
  0
LINE
  5
18DD
330
1F
100
AcDbEntity
  8
圖層1輪廓線
100
AcDbLine
 10
3405.649934436611
 20
2278.509705728663
 30
0.0
 11
3405.649934436611
 21
2290.509705728662
 31
0.0
  0
LINE
  5
18DE
330
1F
100
AcDbEntity
  8
圖層1輪廓線
100
AcDbLine
 10
3452.992656510161
 20
2278.509705728663
 30
0.0
 11
3452.992656510161
 21
2290.509705728663
 31
0.0
  0
LINE
  5
18DF
330
1F
100
AcDbEntity
  8
圖層1輪廓線
100
AcDbLine
 10
3476.664017546936
 20
2278.509705728663
 30
0.0
 11
3476.664017546936
 21
2290.509705728664
 31
0.0
  0
ARC
  5
18E0
330
1F
100
AcDbEntity
  8
圖層1輪廓線
100
AcDbCircle
 10
3464.82833702855
 20
2274.999289061997
 30
0.0
 40
19.51041666666705
100
AcDbArc
 50
52.65349068557176
 51
127.3465093144282
  0
ARC
  5
18E1
330
1F
100
AcDbEntity
  8
圖層1輪廓線
100
AcDbCircle
 10
3464.828337028548
 20
2294.02012239533
 30
0.0
 40
19.51041666666682
100
AcDbArc
 50
232.6534906855718
 51
307.3465093144283
  0
LINE
  5
18E2
330
1F
100
AcDbEntity
  8
圖層1輪廓線
100
AcDbLine
 10
3393.814253918224
 20
2244.509705728663
 30
0.0
 11
3464.828337028548
 21
2244.509705728663
 31
0.0
  0
ARC
  5
18E3
330
1F
100
AcDbEntity
  8
圖層1輪廓線
100
AcDbCircle
 10
3429.321295473388
 20
2185.976372395327
 30
0.0
 40
58.53333333333608
100
AcDbArc
 50
66.14595163640235
 51
113.8540483635976
  0
LINE
  5
18E4
330
1F
100
AcDbEntity
  8
圖層1輪廓線
100
AcDbLine
 10
3393.814253918224
 20
2174.509705728663
 30
0.0
 11
3464.828337028548
 21
2174.509705728663
 31
0.0
  0
LINE
  5
18E5
330
1F
100
AcDbEntity
  8
圖層1輪廓線
100
AcDbLine
 10
3388.321295473386
 20
2164.509705728663
 30
0.0
 11
3470.321295473385
 21
2164.509705728663
 31
0.0
  0
ARC
  5
18E6
330
1F
100
AcDbEntity
  8
圖層1輪廓線
100
AcDbCircle
 10
3429.321295473388
 20
2232.683665927657
 30
0.0
 40
58.2048398037261
100
AcDbArc
 50
246.0028878993021
 51
293.9971121006449
  0
LINE
  5
18E7
330
1F
100
AcDbEntity
  8
圖層1輪廓線
100
AcDbLine
 10
3388.321295473386
 20
2274.509705728663
 30
0.0
 11
3470.321295473385
 21
2274.509705728663
 31
0.0
  0
LINE
  5
18E8
330
1F
100
AcDbEntity
  8
圖層1輪廓線
100
AcDbLine
 10
3381.978573399837
 20
2179.509705728664
 30
0.0
 11
3381.978573399837
 21
2239.509705728663
 31
0.0
  0
LINE
  5
18E9
330
1F
100
AcDbEntity
  8
圖層1輪廓線
100
AcDbLine
 10
3405.649934436611
 20
2179.509705728664
 30
0.0
 11
3405.649934436611
 21
2239.509705728663
 31
0.0
  0
ARC
  5
18EA
330
1F
100
AcDbEntity
  8
圖層1輪廓線
100
AcDbCircle
 10
3393.814253918224
 20
2191.018039061996
 30
0.0
 40
16.50833333333309
100
AcDbArc
 50
224.1966084730804
 51
315.8033915269196
  0
LINE
  5
18EB
330
1F
100
AcDbEntity
  8
圖層1輪廓線
100
AcDbLine
 10
3388.321295473386
 20
2164.509705728663
 30
0.0
 11
3388.321295473386
 21
2175.450364959301
 31
0.0
  0
ARC
  5
18EC
330
1F
100
AcDbEntity
  8
圖層1輪廓線
100
AcDbCircle
 10
3393.814253918224
 20
2228.00137239533
 30
0.0
 40
16.50833333333278
100
AcDbArc
 50
44.19660847308035
 51
135.8033915269196
  0
LINE
  5
18ED
330
1F
100
AcDbEntity
  8
圖層1輪廓線
100
AcDbLine
 10
3388.321295473386
 20
2243.569046498024
 30
0.0
 11
3388.321295473386
 21
2274.509705728663
 31
0.0
  0
LINE
  5
18EE
330
1F
100
AcDbEntity
  8
圖層1輪廓線
100
AcDbLine
 10
3452.992656510161
 20
2179.509705728663
 30
0.0
 11
3452.992656510161
 21
2239.509705728664
 31
0.0
  0
LINE
  5
18EF
330
1F
100
AcDbEntity
  8
圖層1輪廓線
100
AcDbLine
 10
3476.664017546934
 20
2179.509705728663
 30
0.0
 11
3476.664017546934
 21
2239.509705728663
 31
0.0
  0
ARC
  5
18F0
330
1F
100
AcDbEntity
  8
圖層1輪廓線
100
AcDbCircle
 10
3464.828337028548
 20
2191.018039061996
 30
0.0
 40
16.50833333333325
100
AcDbArc
 50
224.1966084730804
 51
315.8033915269196
  0
LINE
  5
18F1
330
1F
100
AcDbEntity
  8
圖層1輪廓線
100
AcDbLine
 10
3470.321295473386
 20
2164.509705728663
 30
0.0
 11
3470.321295473386
 21
2175.450364959301
 31
0.0
  0
ARC
  5
18F2
330
1F
100
AcDbEntity
  8
圖層1輪廓線
100
AcDbCircle
 10
3464.828337028548
 20
2228.00137239533
 30
0.0
 40
16.50833333333326
100
AcDbArc
 50
44.19660847308035
 51
135.8033915269196
  0
LINE
  5
18F3
330
1F
100
AcDbEntity
  8
圖層1輪廓線
100
AcDbLine
 10
3470.321295473385
 20
2243.569046498025
 30
0.0
 11
3470.321295473385
 21
2274.509705728663
 31
0.0
  0
LINE
  5
18F4
330
1F
100
AcDbEntity
  8
圖層1輪廓線
100
AcDbLine
 10
3399.321295473388
 20
2307.509705728663
 30
0.0
 11
3399.321295473388
 21
2294.509705728663
 31
0.0
  0
LINE
  5
18F5
330
1F
100
AcDbEntity
  8
圖層1輪廓線
100
AcDbLine
 10
3399.321295473388
 20
2294.509705728663
 30
0.0
 11
3459.321295473388
 21
2294.509705728663
 31
0.0
  0
LINE
  5
18F6
330
1F
100
AcDbEntity
  8
圖層1輪廓線
100
AcDbLine
 10
3459.321295473388
 20
2294.509705728663
 30
0.0
 11
3459.321295473388
 21
2307.509705728663
 31
0.0
  0
LINE
  5
18F7
330
1F
100
AcDbEntity
  8
圖層2中心線
 48
0.5
100
AcDbLine
 10
3363.002768871302
 20
2194.509705728663
 30
0.0
 11
3499.272708352155
 21
2194.509705728663
 31
0.0
  0
LINE
  5
18F8
330
1F
100
AcDbEntity
  8
圖層3虛線
100
AcDbLine
 10
3409.321295473385
 20
2164.509705728663
 30
0.0
 11
3409.321295473385
 21
2224.509705728663
 31
0.0
  0
LINE
  5
18F9
330
1F
100
AcDbEntity
  8
圖層3虛線
100
AcDbLine
 10
3449.321295473384
 20
2164.509705728663
 30
0.0
 11
3449.321295473384
 21
2224.509705728663
 31
0.0
  0
LINE
  5
18FA
330
1F
100
AcDbEntity
  8
圖層3虛線
100
AcDbLine
 10
3409.321295473385
 20
2224.509705728663
 30
0.0
 11
3449.321295473384
 21
2224.509705728663
 31
0.0
  0
LINE
  5
18FB
330
1F
100
AcDbEntity
  8
圖層2中心線
 48
0.5
100
AcDbLine
 10
3449.321295473384
 20
2194.509705728663
 30
0.0
 11
3499.272708352155
 21
2194.509705728663
 31
0.0
  0
LINE
  5
18FC
330
1F
100
AcDbEntity
  8
圖層3虛線
100
AcDbLine
 10
3381.978573399837
 20
2204.509705728663
 30
0.0
 11
3409.321295473385
 21
2204.509705728663
 31
0.0
  0
LINE
  5
18FD
330
1F
100
AcDbEntity
  8
圖層3虛線
100
AcDbLine
 10
3381.978573399837
 20
2184.509705728663
 30
0.0
 11
3409.321295473385
 21
2184.509705728663
 31
0.0
  0
LINE
  5
18FE
330
1F
100
AcDbEntity
  8
圖層3虛線
100
AcDbLine
 10
3449.321295473384
 20
2204.509705728663
 30
0.0
 11
3476.664017546934
 21
2204.509705728663
 31
0.0
  0
LINE
  5
18FF
330
1F
100
AcDbEntity
  8
圖層3虛線
100
AcDbLine
 10
3449.321295473384
 20
2184.509705728663
 30
0.0
 11
3476.664017546934
 21
2184.509705728663
 31
0.0
  0
LINE
  5
1900
330
1F
100
AcDbEntity
  8
圖層3虛線
100
AcDbLine
 10
3381.978573399837
 20
2200.509705728663
 30
0.0
 11
3409.321295473385
 21
2200.509705728663
 31
0.0
  0
LINE
  5
1901
330
1F
100
AcDbEntity
  8
圖層3虛線
100
AcDbLine
 10
3381.978573399837
 20
2188.509705728664
 30
0.0
 11
3409.321295473385
 21
2188.509705728664
 31
0.0
  0
LINE
  5
1902
330
1F
100
AcDbEntity
  8
圖層3虛線
100
AcDbLine
 10
3449.321295473384
 20
2200.509705728663
 30
0.0
 11
3476.664017546934
 21
2200.509705728663
 31
0.0
  0
LINE
  5
1903
330
1F
100
AcDbEntity
  8
圖層3虛線
100
AcDbLine
 10
3449.321295473384
 20
2188.509705728664
 30
0.0
 11
3476.664017546934
 21
2188.509705728664
 31
0.0
  0
CIRCLE
  5
1904
330
1F
100
AcDbEntity
  8
圖層3虛線
 48
0.3
100
AcDbCircle
 10
3429.321295473384
 20
2194.509705728663
 30
0.0
 40
10.0
  0
CIRCLE
  5
1905
330
1F
100
AcDbEntity
  8
圖層1輪廓線
100
AcDbCircle
 10
3429.321295473384
 20
2194.509705728663
 30
0.0
 40
6.0
  0
CIRCLE
  5
1906
330
1F
100
AcDbEntity
  8
圖層1輪廓線
100
AcDbCircle
 10
3429.321295473384
 20
2194.509705728663
 30
0.0
 40
14.0
  0
LWPOLYLINE
  5
1907
330
1F
100
AcDbEntity
  8
圖層1輪廓線
100
AcDbPolyline
 90
        6
 70
     1
 43
0.0
 10
3415.321295473384
 20
2186.426801960009
 10
3429.321295473384
 20
2178.343898191354
 10
3443.321295473384
 20
2186.426801960009
 10
3443.321295473384
 20
2202.592609497318
 10
3429.321295473384
 20
2210.675513265974
 10
3415.321295473384
 20
2202.592609497318
  0
LINE
  5
1914
330
1F
100
AcDbEntity
  8
圖層2中心線
 48
0.5
100
AcDbLine
 10
3429.321295473386
 20
2160.509705728664
 30
0.0
 11
3429.321295473386
 21
2317.23101048184
 31
0.0
1001
GENIUS_GENOBJ-N-CEN_13
1002
{
1000
OWNER
1000
GEN
1002
}
1001
GENIUS_GENODEF_13
1002
{
1000
HIER
1070
     0
1002
}
1002
{
1000
MANEDIT
1070
     0
1002
}
1002
{
1000
NOSEL
1070
     0
1002
}
1002
{
1000
BEHIND
1070
     0
1002
}
1002
{
1000
OTHER
1070
     0
1002
}
1002
{
1000
REACTOR
1002
}
1001
GENIUS_GENCEN_19
1002
{
1040
2.0
1002
}
  0
DIMENSION
  5
1915
330
1F
100
AcDbEntity
  8
AM_5
100
AcDbDimension
  2
*D20
 10
3449.321295473384
 20
2120.448325902242
 30
0.0
 11
3516.329169489133
 21
2120.448325902242
 31
0.0
 70
   160
  1
%%c<>
 71
     5
 42
20.0
  3
AM_ISO$0
100
AcDbAlignedDimension
 13
3409.321295473385
 23
2164.509705728663
 33
0.0
 14
3449.321295473384
 24
2164.509705728663
 34
0.0
100
AcDbRotatedDimension
1001
ACAD
1000
DSTYLE
1002
{
1070
    40
1040
1.0
1070
   144
1040
0.5
1002
}
  0
DIMENSION
  5
1918
330
1F
100
AcDbEntity
  8
AM_5
100
AcDbDimension
  2
*D21
 10
3321.978573399837
 20
2194.509705728663
 30
0.0
 11
3321.978573399837
 21
2109.095492166291
 31
0.0
 70
   160
 71
     5
 42
15.0
  3
AM_ISO$0
100
AcDbAlignedDimension
 13
3388.321295473386
 23
2164.509705728663
 33
0.0
 14
3363.002768871301
 24
2194.509705728663
 34
0.0
 50
90.0
100
AcDbRotatedDimension
1001
ACAD
1000
DSTYLE
1002
{
1070
   144
1040
0.5
1002
}
  0
DIMENSION
  5
191B
330
1F
100
AcDbEntity
  8
AM_5
100
AcDbDimension
  2
*D22
 10
3271.978573399837
 20
2224.509705728664
 30
0.0
 11
3255.978573399837
 21
2194.509705728664
 31
0.0
 70
    32
 71
     5
 42
30.0
  3
AM_ISO$0
100
AcDbAlignedDimension
 13
3388.321295473386
 23
2164.509705728663
 33
0.0
 14
3409.321295473385
 24
2224.509705728664
 34
0.0
 50
90.0
100
AcDbRotatedDimension
1001
ACAD
1000
DSTYLE
1002
{
1070
   144
1040
0.5
1002
}
  0
INSERT
  5
191E
330
1F
100
AcDbEntity
  8
AM_5
100
AcDbBlockReference
  2
*S30
 10
0.0
 20
0.0
 30
0.0
  0
TEXT
  5
191F
330
1F
100
AcDbEntity
  8
AM_5
100
AcDbText
 10
3517.732489756649
 20
2235.401449411864
 30
0.0
 40
20.0
  1
3-M10
100
AcDbText
  0
TEXT
  5
1920
330
1F
100
AcDbEntity
  8
AM_5
 62
     0
100
AcDbText
 10
3385.122090030403
 20
2037.356213360626
 30
0.0
 40
30.0
  1
A 詳細
100
AcDbText
  0
LINE
  5
1995
330
1F
100
AcDbEntity
  8
圖層1輪廓線
  6
Continuous
 62
     7
370
    50
100
AcDbLine
 10
3850.805564509542
 20
2176.713191514202
 30
0.0
 11
3858.805564509543
 21
2176.713191514202
 31
0.0
  0
LINE
  5
1996
330
1F
100
AcDbEntity
  8
圖層1輪廓線
  6
Continuous
 62
     7
370
    50
100
AcDbLine
 10
3890.805564509543
 20
2160.713191514202
 30
0.0
 11
3850.805564509542
 21
2160.713191514202
 31
0.0
  0
LINE
  5
1997
102
{ACAD_REACTORS
330
19A0
330
19A9
102
}
330
1F
100
AcDbEntity
  8
圖層1輪廓線
  6
Continuous
 62
     7
370
    50
100
AcDbLine
 10
3850.805564509542
 20
2160.713191514202
 30
0.0
 11
3850.805564509542
 21
2176.713191514202
 31
0.0
  0
LINE
  5
1998
330
1F
100
AcDbEntity
  8
圖層1輪廓線
  6
Continuous
 62
     7
370
    50
100
AcDbLine
 10
3858.805564509543
 20
2176.713191514202
 30
0.0
 11
3858.805564509543
 21
2192.713191514202
 31
0.0
  0
LINE
  5
1999
102
{ACAD_REACTORS
330
19A0
102
}
330
1F
100
AcDbEntity
  8
圖層1輪廓線
  6
Continuous
 62
     7
370
    50
100
AcDbLine
 10
3890.805564509543
 20
2176.713191514202
 30
0.0
 11
3890.805564509543
 21
2160.713191514202
 31
0.0
  0
LINE
  5
199A
102
{ACAD_REACTORS
330
19A6
102
}
330
1F
100
AcDbEntity
  8
圖層1輪廓線
  6
Continuous
 62
     7
370
    50
100
AcDbLine
 10
3882.805564509542
 20
2176.713191514202
 30
0.0
 11
3890.805564509543
 21
2176.713191514202
 31
0.0
  0
LINE
  5
199B
330
1F
100
AcDbEntity
  8
圖層1輪廓線
  6
Continuous
 62
     7
370
    50
100
AcDbLine
 10
3882.805564509542
 20
2192.713191514202
 30
0.0
 11
3882.805564509542
 21
2176.713191514202
 31
0.0
  0
LINE
  5
199C
102
{ACAD_REACTORS
330
19A3
102
}
330
1F
100
AcDbEntity
  8
0
100
AcDbLine
 10
3858.805564509543
 20
2192.713191514202
 30
0.0
 11
3831.560366955113
 21
2192.713191514202
 31
0.0
  0
LINE
  5
199D
102
{ACAD_REACTORS
330
19A3
330
19A6
102
}
330
1F
100
AcDbEntity
  8
0
100
AcDbLine
 10
3882.805564509542
 20
2192.713191514202
 30
0.0
 11
3910.050762063971
 21
2192.713191514202
 31
0.0
  0
DIMENSION
  5
199E
102
{ACAD_XDICTIONARY
360
199F
102
}
102
{ACAD_REACTORS
330
19A0
102
}
330
1F
100
AcDbEntity
  8
AM_5
100
AcDbDimension
  2
*D23
 10
3890.805564509543
 20
2100.713190514202
 30
0.0
 11
3870.805564509542
 21
2116.71515901814
 31
0.0
 70
    32
 71
     5
 42
20.0
  3
AM_ISO$0
100
AcDbAlignedDimension
 13
3850.805564509542
 23
2160.713191514202
 33
0.0
 14
3890.805564509543
 24
2160.713191514202
 34
0.0
100
AcDbRotatedDimension
1001
ACAD
1000
DSTYLE
1002
{
1070
   144
1040
0.5
1002
}
  0
DIMENSION
  5
19A1
102
{ACAD_XDICTIONARY
360
19A2
102
}
102
{ACAD_REACTORS
330
19A3
102
}
330
1F
100
AcDbEntity
  8
AM_5
100
AcDbDimension
  2
*D24
 10
3882.805564509542
 20
2252.713192514202
 30
0.0
 11
3870.805564509542
 21
2252.713192514202
 31
0.0
 70
   160
 71
     5
 42
12.0
  3
AM_ISO$0
100
AcDbAlignedDimension
 13
3858.805564509543
 23
2192.713191514202
 33
0.0
 14
3882.805564509542
 24
2192.713191514202
 34
0.0
100
AcDbRotatedDimension
1001
ACAD
1000
DSTYLE
1002
{
1070
   144
1040
0.5
1002
}
  0
DIMENSION
  5
19A4
102
{ACAD_XDICTIONARY
360
19A5
102
}
102
{ACAD_REACTORS
330
19A6
102
}
330
1F
100
AcDbEntity
  8
AM_5
100
AcDbDimension
  2
*D25
 10
3970.050762063971
 20
2176.713191514202
 30
0.0
 11
3970.050762063971
 21
2184.713191514202
 31
0.0
 70
   160
 71
     5
 42
8.0
  3
AM_ISO$0
100
AcDbAlignedDimension
 13
3910.050762063971
 23
2192.713191514202
 33
0.0
 14
3890.805564509543
 24
2176.713191514202
 34
0.0
 50
90.0
100
AcDbRotatedDimension
1001
ACAD
1000
DSTYLE
1002
{
1070
   144
1040
0.5
1002
}
  0
DIMENSION
  5
19A7
102
{ACAD_XDICTIONARY
360
19A8
102
}
102
{ACAD_REACTORS
330
19A9
102
}
330
1F
100
AcDbEntity
  8
AM_5
100
AcDbDimension
  2
*D26
 10
3790.805564509542
 20
2160.713191514202
 30
0.0
 11
3790.805564509542
 21
2168.713191514202
 31
0.0
 70
   160
 71
     5
 42
8.0
  3
AM_ISO$0
100
AcDbAlignedDimension
 13
3850.805564509542
 23
2176.713191514202
 33
0.0
 14
3850.805564509542
 24
2160.713191514202
 34
0.0
 50
90.0
100
AcDbRotatedDimension
1001
ACAD
1000
DSTYLE
1002
{
1070
   144
1040
0.5
1002
}
  0
TEXT
  5
19AA
330
1F
100
AcDbEntity
  8
AM_5
 62
     0
100
AcDbText
 10
3818.77441819811
 20
2040.31340753815
 30
0.0
 40
30.0
  1
B 詳細
100
AcDbText
  0
LINE
  5
19AB
330
1F
100
AcDbEntity
  8
AM_7
100
AcDbLine
 10
3870.805564509542
 20
2150.121390897901
 30
0.0
 11
3870.805564509542
 21
2200.658379195573
 31
0.0
1001
GENIUS_GENOBJ-N-CEN_13
1002
{
1000
OWNER
1000
GEN
1002
}
1001
GENIUS_GENODEF_13
1002
{
1000
HIER
1070
     0
1002
}
1002
{
1000
MANEDIT
1070
     0
1002
}
1002
{
1000
NOSEL
1070
     0
1002
}
1002
{
1000
BEHIND
1070
     0
1002
}
1002
{
1000
OTHER
1070
     0
1002
}
1002
{
1000
REACTOR
1002
}
1001
GENIUS_GENCEN_19
1002
{
1040
2.0
1002
}
  0
CIRCLE
  5
19E4
330
1F
100
AcDbEntity
  8
0
 62
     1
100
AcDbCircle
 10
3867.493585907759
 20
1372.840837274619
 30
0.0
 40
22.13326886624224
  0
TEXT
  5
19E5
330
1F
100
AcDbEntity
  8
AM_5
 62
     0
100
AcDbText
 10
3824.161796801022
 20
1391.706156679325
 30
0.0
 40
20.0
  1
B
100
AcDbText
  0
CIRCLE
  5
19E6
330
1F
100
AcDbEntity
  8
0
 62
     1
100
AcDbCircle
 10
3429.321295473385
 20
1546.295718805293
 30
0.0
 40
38.12167022467994
  0
TEXT
  5
19E7
330
1F
100
AcDbEntity
  8
AM_5
 62
     0
100
AcDbText
 10
3372.868485527481
 20
1504.513093847188
 30
0.0
 40
20.0
  1
A
100
AcDbText
  0
INSERT
  5
2F87
330
1F
100
AcDbEntity
  8
AM_5
100
AcDbBlockReference
  2
*S31
 10
0.0
 20
0.0
 30
0.0
  0
TEXT
  5
2F88
330
1F
100
AcDbEntity
  8
AM_5
100
AcDbText
 10
3548.144651171301
 20
1267.074794521726
 30
0.0
 40
20.0
  1
2-%%C10
100
AcDbText
  0
DIMENSION
  5
2FF4
330
1F
100
AcDbEntity
  8
AM_5
100
AcDbDimension
  2
*D28
 10
3942.90712855161
 20
1424.37817876029
 30
0.0
 11
3867.90712855161
 21
1440.37817876029
 31
0.0
 70
    32
 71
     5
 42
150.0
  3
AM_ISO$0
100
AcDbAlignedDimension
 13
3792.90712855161
 23
1376.506759437788
 33
0.0
 14
3942.90712855161
 24
1376.506759437788
 34
0.0
100
AcDbRotatedDimension
1001
ACAD
1000
DSTYLE
1002
{
1070
    40
1040
1.0
1070
   144
1040
1.0
1002
}
  0
TEXT
  5
76B4
330
1F
100
AcDbEntity
  8
LOGO
 62
     7
100
AcDbText
 10
3469.494495297771
 20
1038.904411682415
 30
0.0
 40
20.99215997104072
  1
Order example:
 41
0.8
  7
CHINESET
100
AcDbText
  0
TEXT
  5
76B5
330
1F
100
AcDbEntity
  8
LOGO
 62
     7
100
AcDbText
 10
3473.260662394676
 20
1068.457026439457
 30
0.0
 40
31.48823995656109
  1
訂購代號:
  7
CHINESET
100
AcDbText
  0
LINE
  5
76B6
330
1F
100
AcDbEntity
  8
LOGO
 62
     1
100
AcDbLine
 10
4304.239998072551
 20
1107.876722216319
 30
0.0
 11
3114.002691066871
 21
1107.876722216319
 31
0.0
  0
LINE
  5
76B7
330
1F
100
AcDbEntity
  8
LOGO
 62
     1
100
AcDbLine
 10
3460.373330589051
 20
950.4355224335137
 30
0.0
 11
3460.373330589051
 21
1107.876722216319
 31
0.0
  0
TEXT
  5
76B8
330
1F
100
AcDbEntity
  8
LOGO
  6
Continuous
 62
     5
100
AcDbText
 10
3170.556277740748
 20
981.3646085313578
 30
0.0
 40
23.61617996742082
  1
金器工業股份有限公司
  7
CHINESET
100
AcDbText
  0
TEXT
  5
76B9
330
1F
100
AcDbEntity
  8
LOGO
  6
Continuous
 62
     5
100
AcDbText
 10
3127.178027371382
 20
957.7438016442441
 30
0.0
 40
15.74411997828054
  1
MINDMAN INDUSTRIAL CO., LTD.
 41
0.85
  7
CHINESET
100
AcDbText
  0
LINE
  5
76BA
330
1F
100
AcDbEntity
  8
LOGO
 62
     1
100
AcDbLine
 10
3460.373330589051
 20
1076.388482259758
 30
0.0
 11
3229.459570907597
 21
1076.388482259758
 31
0.0
  0
LINE
  5
76BB
330
1F
100
AcDbEntity
  8
LOGO
 62
     1
100
AcDbLine
 10
3460.373330589051
 20
1044.900242303197
 30
0.0
 11
3229.459570907597
 21
1044.900242303197
 31
0.0
  0
LINE
  5
76BC
330
1F
100
AcDbEntity
  8
LOGO
 62
     1
100
AcDbLine
 10
3460.373330589051
 20
1013.412002346635
 30
0.0
 11
3114.002691066871
 21
1013.412002346635
 31
0.0
  0
LINE
  5
76BD
330
1F
100
AcDbEntity
  8
LOGO
 62
     1
100
AcDbLine
 10
3229.459570907597
 20
1013.412002346635
 30
0.0
 11
3229.459570907597
 21
1107.876722216319
 31
0.0
  0
TEXT
  5
76BE
330
1F
100
AcDbEntity
  8
LOGO
 62
     6
100
AcDbText
 10
3379.031306697811
 20
1021.284062335776
 30
0.0
 40
15.74411997828054
  1
m/m
  7
CHINESET
 72
     1
 11
3406.770946659543
 21
1029.156122324916
 31
0.0
100
AcDbText
 73
     2
  0
TEXT
  5
76BF
330
1F
100
AcDbEntity
  8
LOGO
 62
     6
100
AcDbText
 10
3379.031306697811
 20
1084.260542248898
 30
0.0
 40
15.74411997828054
  1
1 : 1
  7
CHINESET
 72
     1
 11
3406.770946659543
 21
1092.132602238039
 31
0.0
100
AcDbText
 73
     2
  0
LINE
  5
76C0
330
1F
100
AcDbEntity
  8
LOGO
 62
     1
100
AcDbLine
 10
3355.412530733837
 20
1013.412002346635
 30
0.0
 11
3355.412530733837
 21
1107.876722216319
 31
0.0
  0
CIRCLE
  5
76C1
330
1F
100
AcDbEntity
  8
LOGO
  6
Continuous
 62
     6
100
AcDbCircle
 10
3384.564738117032
 20
1060.678039069323
 30
0.0
 40
9.141406634200397
  0
CIRCLE
  5
76C2
330
1F
100
AcDbEntity
  8
LOGO
  6
Continuous
 62
     6
100
AcDbCircle
 10
3384.564738117032
 20
1060.678039069323
 30
0.0
 40
5.356055044697979
  0
LINE
  5
76C3
330
1F
100
AcDbEntity
  8
LOGO
 62
     6
100
AcDbLine
 10
3442.010398130314
 20
1051.536632435122
 30
0.0
 11
3442.010398130314
 21
1069.819445703524
 31
0.0
  0
LINE
  5
76C4
330
1F
100
AcDbEntity
  8
LOGO
 62
     6
100
AcDbLine
 10
3413.352613073872
 20
1055.321984024625
 30
0.0
 11
3413.352613073872
 21
1066.034094114022
 31
0.0
  0
LINE
  5
76C5
330
1F
100
AcDbEntity
  8
LOGO
  6
Continuous
 62
     6
100
AcDbLine
 10
3413.352613073872
 20
1066.034094114022
 30
0.0
 11
3442.010398130314
 21
1069.819445703524
 31
0.0
  0
LINE
  5
76C6
330
1F
100
AcDbEntity
  8
LOGO
  6
Continuous
 62
     6
100
AcDbLine
 10
3413.352613073872
 20
1055.321984024625
 30
0.0
 11
3442.010398130314
 21
1051.536632435122
 31
0.0
  0
LINE
  5
76C7
330
1F
100
AcDbEntity
  8
LOGO
 62
     6
100
AcDbLine
 10
4083.859985869766
 20
1092.132602238039
 30
0.0
 11
3999.600583487939
 21
1092.132602238039
 31
0.0
  0
LINE
  5
76C8
330
1F
100
AcDbEntity
  8
LOGO
 62
     6
100
AcDbLine
 10
4090.835493544054
 20
1021.284062335777
 30
0.0
 11
3992.625075813651
 21
1021.284062335777
 31
0.0
  0
LINE
  5
76C9
330
1F
100
AcDbEntity
  8
LOGO
 62
     6
100
AcDbLine
 10
4083.859985869766
 20
1044.900242303197
 30
0.0
 11
3999.600583487939
 21
1044.900242303197
 31
0.0
  0
LINE
  5
76CA
330
1F
100
AcDbEntity
  8
LOGO
 62
     6
100
AcDbLine
 10
4090.835493544054
 20
963.5556224154145
 30
0.0
 11
3992.625075813651
 21
963.5556224154138
 31
0.0
  0
LINE
  5
76CB
330
1F
100
AcDbEntity
  8
LOGO
 62
     6
100
AcDbLine
 10
3992.625075813651
 20
1021.284062335777
 30
0.0
 11
3992.625075813651
 21
963.5556224154145
 31
0.0
  0
LINE
  5
76CC
330
1F
100
AcDbEntity
  8
LOGO
 62
     6
100
AcDbLine
 10
3945.638037051754
 20
1021.284062335777
 30
0.0
 11
3945.638037051754
 21
963.5556224154138
 31
0.0
  0
LINE
  5
76CD
330
1F
100
AcDbEntity
  8
LOGO
 62
     6
100
AcDbLine
 10
3866.582128145337
 20
1021.284062335777
 30
0.0
 11
3866.582128145337
 21
963.5556224154138
 31
0.0
  0
LINE
  5
76CE
330
1F
100
AcDbEntity
  8
LOGO
 62
     6
100
AcDbLine
 10
3782.609644231705
 20
1021.284062335777
 30
0.0
 11
3782.609644231705
 21
963.5556224154138
 31
0.0
  0
LINE
  5
76CF
330
1F
100
AcDbEntity
  8
LOGO
 62
     6
100
AcDbLine
 10
3677.648844376505
 20
1021.284062335777
 30
0.0
 11
3677.648844376505
 21
963.5556224154138
 31
0.0
  0
LINE
  5
76D0
330
1F
100
AcDbEntity
  8
LOGO
 62
     6
100
AcDbLine
 10
3782.609644231705
 20
963.5556224154138
 30
0.0
 11
3677.648844376505
 21
963.5556224154138
 31
0.0
  0
LINE
  5
76D1
330
1F
100
AcDbEntity
  8
LOGO
 62
     6
100
AcDbLine
 10
3945.638037051754
 20
963.5556224154138
 30
0.0
 11
3866.582128145337
 21
963.5556224154138
 31
0.0
  0
LINE
  5
76D2
330
1F
100
AcDbEntity
  8
LOGO
  6
Continuous
 62
     7
100
AcDbLine
 10
3818.343202668844
 20
1068.349117787251
 30
0.0
 11
3839.199289383835
 21
1068.349117787251
 31
0.0
  0
LINE
  5
76D3
330
1F
100
AcDbEntity
  8
LOGO
 62
     6
100
AcDbLine
 10
3807.942382265782
 20
1092.132602238039
 30
0.0
 11
3676.926713295127
 21
1092.132602238039
 31
0.0
  0
LINE
  5
76D4
330
1F
100
AcDbEntity
  8
LOGO
 62
     6
100
AcDbLine
 10
3807.942382265782
 20
1044.900242303197
 30
0.0
 11
3676.926713295127
 21
1044.900242303197
 31
0.0
  0
LINE
  5
76D5
330
1F
100
AcDbEntity
  8
LOGO
 62
     6
100
AcDbLine
 10
3676.926713295127
 20
1092.132602238039
 30
0.0
 11
3676.926713295127
 21
1044.900242303197
 31
0.0
  0
LINE
  5
76D6
330
1F
100
AcDbEntity
  8
LOGO
 62
     6
100
AcDbLine
 10
3807.942382265782
 20
1092.132602238039
 30
0.0
 11
3807.942382265782
 21
1044.900242303197
 31
0.0
  0
LINE
  5
76D7
330
1F
100
AcDbEntity
  8
LOGO
 62
     6
100
AcDbLine
 10
3742.434547780457
 20
1044.900242303197
 30
0.0
 11
3742.434547780457
 21
1021.284062335777
 31
0.0
  0
TEXT
  5
76D8
330
1F
100
AcDbEntity
  8
LOGO
  6
Continuous
 62
     7
100
AcDbText
 10
3687.175262896946
 20
1055.396322288716
 30
0.0
 40
26.2401999638009
  1
MF100
  7
CHINESET
 72
     1
 11
3744.653796150986
 21
1068.516422270617
 31
0.0
100
AcDbText
 73
     2
  0
LINE
  5
76D9
330
1F
100
AcDbEntity
  8
LOGO
 62
     6
100
AcDbLine
 10
3782.609644231705
 20
1021.284062335777
 30
0.0
 11
3677.648844376505
 21
1021.284062335777
 31
0.0
  0
LINE
  5
76DA
330
1F
100
AcDbEntity
  8
LOGO
 62
     6
100
AcDbLine
 10
3963.272735333887
 20
1092.132602238039
 30
0.0
 11
3848.947429863206
 21
1092.132602238039
 31
0.0
  0
LINE
  5
76DB
330
1F
100
AcDbEntity
  8
LOGO
 62
     6
100
AcDbLine
 10
3945.638037051754
 20
1021.284062335777
 30
0.0
 11
3866.582128145337
 21
1021.284062335777
 31
0.0
  0
LINE
  5
76DC
330
1F
100
AcDbEntity
  8
LOGO
 62
     6
100
AcDbLine
 10
3963.272735333887
 20
1044.900242303197
 30
0.0
 11
3848.947429863206
 21
1044.900242303197
 31
0.0
  0
TEXT
  5
76DD
330
1F
100
AcDbEntity
  8
LOGO
  6
Continuous
 62
     7
100
AcDbText
 10
3872.022458665418
 20
1055.09875676766
 30
0.0
 40
26.2401999638009
  1
100
  7
CHINESET
 72
     1
 11
3903.260791955657
 21
1068.21885674956
 31
0.0
100
AcDbText
 73
     2
  0
LINE
  5
76DE
330
1F
100
AcDbEntity
  8
LOGO
 62
     6
100
AcDbLine
 10
3848.947429863206
 20
1092.132602238039
 30
0.0
 11
3848.947429863206
 21
1044.900242303197
 31
0.0
  0
TEXT
  5
76DF
330
1F
100
AcDbEntity
  8
LOGO
  6
Continuous
 62
     7
100
AcDbText
 10
4037.306937360852
 20
1055.09875676766
 30
0.0
 40
26.2401999638009
  1
?
  7
CHINESET
 72
     1
 11
4044.179370684705
 21
1068.21885674956
 31
0.0
100
AcDbText
 73
     2
  0
LINE
  5
76E0
330
1F
100
AcDbEntity
  8
LOGO
  6
Continuous
 62
     7
100
AcDbLine
 10
3970.576389601832
 20
1068.349117787251
 30
0.0
 11
3991.432476316838
 21
1068.349117787251
 31
0.0
  0
LINE
  5
76E1
330
1F
100
AcDbEntity
  8
LOGO
 62
     6
100
AcDbLine
 10
3999.600583487939
 20
1092.132602238039
 30
0.0
 11
3999.600583487939
 21
1044.900242303197
 31
0.0
  0
LINE
  5
76E2
330
1F
100
AcDbEntity
  8
LOGO
 62
     6
100
AcDbLine
 10
3963.272735333887
 20
1092.132602238039
 30
0.0
 11
3963.272735333887
 21
1044.900242303197
 31
0.0
  0
LINE
  5
76E3
330
1F
100
AcDbEntity
  8
LOGO
 62
     6
100
AcDbLine
 10
4090.835493544054
 20
1021.284062335777
 30
0.0
 11
4090.835493544054
 21
963.5556224154145
 31
0.0
  0
LINE
  5
76E4
330
1F
100
AcDbEntity
  8
LOGO
 62
     6
100
AcDbLine
 10
4083.859985869766
 20
1092.132602238039
 30
0.0
 11
4083.859985869766
 21
1044.900242303197
 31
0.0
  0
TEXT
  5
76E5
330
1F
100
AcDbEntity
  8
LOGO
 62
     6
100
AcDbText
 10
3242.441441264694
 20
1084.268290339439
 30
1031.843686454024
 40
15.74411997828054
  1
比例 Scale:
 41
0.9
  7
CHINESET
 72
     4
 11
3292.436050820724
 21
1092.132602238039
 31
1031.843686454024
100
AcDbText
  0
TEXT
  5
76E6
330
1F
100
AcDbEntity
  8
LOGO
 62
     6
100
AcDbText
 10
3247.944854632101
 20
1052.993768546952
 30
1031.843686454024
 40
15.74411997828054
  1
投影 View:
 41
0.9
  7
CHINESET
 72
     4
 11
3292.436050820724
 21
1060.644362281476
 31
1031.843686454024
100
AcDbText
  0
TEXT
  5
76E7
330
1F
100
AcDbEntity
  8
LOGO
 62
     6
100
AcDbText
 10
3249.484123504977
 20
1021.284062335776
 30
1031.843686454024
 40
15.74411997828054
  1
單位 Unit:
 41
0.9
  7
CHINESET
 72
     4
 11
3292.436050820724
 21
1029.156122324916
 31
1031.843686454024
100
AcDbText
  0
TEXT
  5
76E8
330
1F
100
AcDbEntity
  8
LOGO
  6
Continuous
 62
     6
100
AcDbText
 10
3705.138577671914
 20
970.1156724063636
 30
1031.843686454024
 40
13.12009998190045
  1
Model
  7
CHINESET
 72
     4
 11
3730.129244304106
 21
976.6757223973138
 31
1031.843686454024
100
AcDbText
  0
TEXT
  5
76E9
330
1F
100
AcDbEntity
  8
LOGO
  6
Continuous
 62
     6
100
AcDbText
 10
3874.342838106051
 20
972.3023557366802
 30
1031.843686454024
 40
13.12009998190045
  1
output
  7
CHINESET
 72
     4
 11
3904.956404730486
 21
976.6757223973137
 31
1031.843686454024
100
AcDbText
  0
TEXT
  5
76EA
330
1F
100
AcDbEntity
  8
LOGO
  6
Continuous
 62
     6
100
AcDbText
 10
4020.950904513409
 20
972.3023557366804
 30
1031.843686454024
 40
13.12009998190045
  1
Option
 41
0.8
  7
CHINESET
 72
     4
 11
4044.192224481347
 21
976.6757223973138
 31
1031.843686454024
100
AcDbText
  0
TEXT
  5
76EB
330
1F
100
AcDbEntity
  8
LOGO
 62
     6
100
AcDbText
 10
3708.699747667001
 20
992.6884428476649
 30
1031.843686454024
 40
20.99215997104072
  1
型號
  7
CHINESET
 72
     4
 11
3730.129244304106
 21
1002.915922361115
 31
1031.843686454024
100
AcDbText
  0
TEXT
  5
76EC
330
1F
100
AcDbEntity
  8
LOGO
 62
     6
100
AcDbText
 10
3873.934772004253
 20
992.4938796852034
 30
1031.843686454024
 40
20.99215997104072
  1
工作力
  7
CHINESET
 72
     4
 11
3904.956404730486
 21
1002.915922361115
 31
1031.843686454024
100
AcDbText
  0
TEXT
  5
76ED
330
1F
100
AcDbEntity
  8
LOGO
 62
     6
100
AcDbText
 10
4006.248275486448
 20
992.592022165383
 30
1031.843686454024
 40
20.99215997104072
  1
選用配件
 41
0.9
  7
CHINESET
 72
     4
 11
4044.192224481347
 21
1002.915922361115
 31
1031.843686454024
100
AcDbText
  0
LWPOLYLINE
  5
76EE
330
1F
100
AcDbEntity
  8
0
 62
     4
100
AcDbPolyline
 90
        4
 70
     1
 43
0.0
 10
3114.002691066876
 20
1107.876722216319
 10
4304.239998072556
 20
1107.876722216319
 10
4304.239998072556
 20
2405.538091329601
 10
3114.002691066876
 20
2405.538091329601
1001
GENIUS_GENREC_14
1002
{
1000
PYDIR
1011
3114.002691066876
1021
2405.538091329601
1031
0.0
1002
}
1002
{
1000
PXDIR
1011
4304.239998072556
1021
1107.876722216319
1031
0.0
1002
}
1002
{
1000
PORI
1011
3114.002691066876
1021
1107.876722216319
1031
0.0
1002
}
1002
{
1000
PINS
1011
3114.002691066876
1021
1107.876722216319
1031
0.0
1002
}
1002
{
1000
PINS2
1011
4304.239998072556
1021
2405.538091329601
1031
0.0
1002
}
1002
{
1000
C
1070
     1
1002
}
1001
GENIUS_GENODEF_13
1002
{
1000
HIER
1070
     0
1002
}
1002
{
1000
MANEDIT
1070
     0
1002
}
1002
{
1000
NOSEL
1070
     0
1002
}
1002
{
1000
BEHIND
1070
     0
1002
}
1002
{
1000
OTHER
1070
     0
1002
}
1002
{
1000
REACTOR
1002
}
1001
GENIUS_GENOBJ-N-REC_13
1002
{
1000
OWNER
1000
GEN
1002
}
  0
SOLID
  5
76EF
330
1F
100
AcDbEntity
  8
LOGO
 62
     5
100
AcDbTrace
 10
3130.337468218251
 20
1039.584360811517
 30
0.0
 11
3137.144812571143
 21
1039.584360811515
 31
0.0
 12
3165.547870043596
 22
1104.136764157987
 32
0.0
 13
3172.355214396488
 23
1104.136764157982
 33
0.0
  0
SOLID
  5
76F0
330
1F
100
AcDbEntity
  8
LOGO
 62
     5
100
AcDbTrace
 10
3139.961644717179
 20
1039.584360811517
 30
0.0
 11
3146.768989070072
 21
1039.584360811517
 31
0.0
 12
3172.355214396488
 22
1098.972571890266
 32
0.0
 13
3165.547870043596
 23
1074.012309262964
 33
0.0
  0
SOLID
  5
76F1
330
1F
100
AcDbEntity
  8
LOGO
 62
     2
100
AcDbTrace
 10
3137.144812571143
 20
1039.584360811515
 30
0.0
 11
3139.961644717179
 21
1039.584360811517
 31
0.0
 12
3172.355214396488
 22
1104.136764157982
 32
0.0
 13
3175.172046542524
 23
1104.136764157982
 33
0.0
  0
SOLID
  5
76F2
330
1F
100
AcDbEntity
  8
LOGO
 62
     5
100
AcDbTrace
 10
3119.423625855226
 20
1016.110759594621
 30
0.0
 11
3121.770985976915
 21
1016.110759594621
 31
0.0
 12
3128.381334783507
 22
1027.847560203067
 32
0.0
 13
3130.728694905196
 23
1027.847560203067
 33
0.0
  0
SOLID
  5
76F3
330
1F
100
AcDbEntity
  8
LOGO
 62
     5
100
AcDbTrace
 10
3128.381334783507
 20
1027.847560203067
 30
0.0
 11
3130.728694905196
 21
1027.847560203067
 31
0.0
 12
3128.381334783507
 22
1016.110759594621
 32
0.0
 13
3130.728694905196
 23
1016.110759594621
 33
0.0
  0
SOLID
  5
76F4
330
1F
100
AcDbEntity
  8
LOGO
 62
     5
100
AcDbTrace
 10
3128.381334783507
 20
1016.110759594621
 30
0.0
 11
3130.728694905196
 21
1016.110759594621
 31
0.0
 12
3137.339043711789
 22
1027.847560203067
 32
0.0
 13
3139.686403833478
 23
1027.847560203067
 33
0.0
  0
SOLID
  5
76F5
330
1F
100
AcDbEntity
  8
LOGO
 62
     5
100
AcDbTrace
 10
3137.339043711789
 20
1027.847560203067
 30
0.0
 11
3139.686403833478
 21
1027.847560203067
 31
0.0
 12
3137.339043711789
 22
1016.110759594621
 32
0.0
 13
3139.686403833478
 23
1016.110759594621
 33
0.0
  0
POLYLINE
  5
76F6
330
1F
100
AcDbEntity
  8
LOGO
 62
     5
100
AcDb2dPolyline
 66
     1
 10
0.0
 20
0.0
 30
0.0
 40
2.35112191675656
 41
2.35112191675656
  0
VERTEX
  5
76F7
330
76F6
100
AcDbEntity
  8
LOGO
 62
     5
100
AcDbVertex
100
AcDb2dVertex
 10
3216.021755352521
 20
1023.152839959687
 30
0.0
 42
1.0
  0
VERTEX
  5
76F8
330
76F6
100
AcDbEntity
  8
LOGO
 62
     5
100
AcDbVertex
100
AcDb2dVertex
 10
3208.968389602261
 20
1023.152839959687
 30
0.0
 42
1.0
  0
SEQEND
  5
76F9
330
76F6
100
AcDbEntity
  8
LOGO
 62
     5
  0
POLYLINE
  5
76FA
330
1F
100
AcDbEntity
  8
LOGO
 62
     5
100
AcDb2dPolyline
 66
     1
 10
0.0
 20
0.0
 30
0.0
 70
     1
  0
VERTEX
  5
76FB
330
76FA
100
AcDbEntity
  8
LOGO
 62
     5
100
AcDbVertex
100
AcDb2dVertex
 10
3195.672481429283
 20
1021.979159898844
 30
0.0
 42
1.000000057330635
  0
VERTEX
  5
76FC
330
76FA
100
AcDbEntity
  8
LOGO
 62
     5
100
AcDbVertex
100
AcDb2dVertex
 10
3202.714561794363
 20
1021.979159898844
 30
0.0
 42
1.000000057330635
  0
SEQEND
  5
76FD
330
76FA
100
AcDbEntity
  8
LOGO
 62
     5
  0
CIRCLE
  5
76FE
330
1F
100
AcDbEntity
  8
LOGO
 62
     5
100
AcDbCircle
 10
3199.193521611822
 20
1021.979159898844
 30
0.0
 40
3.521040182534626
  0
POLYLINE
  5
76FF
330
1F
100
AcDbEntity
  8
LOGO
 62
     5
100
AcDb2dPolyline
 66
     1
 10
0.0
 20
0.0
 30
0.0
 70
     1
 40
2.35112191675656
 41
2.35112191675656
  0
VERTEX
  5
7700
330
76FF
100
AcDbEntity
  8
LOGO
 62
     5
100
AcDbVertex
100
AcDb2dVertex
 10
3194.491277778306
 20
1021.979159898844
 30
0.0
 42
1.0
  0
VERTEX
  5
7701
330
76FF
100
AcDbEntity
  8
LOGO
 62
     5
100
AcDbVertex
100
AcDb2dVertex
 10
3203.89576544534
 20
1021.979159898844
 30
0.0
 42
1.0
  0
SEQEND
  5
7702
330
76FF
100
AcDbEntity
  8
LOGO
 62
     5
  0
LINE
  5
7703
330
1F
100
AcDbEntity
  8
LOGO
 62
     5
100
AcDbLine
 10
3217.189792720776
 20
1016.110759594621
 30
0.0
 11
3217.189792720776
 21
1023.152839959687
 31
0.0
  0
SOLID
  5
7704
330
1F
100
AcDbEntity
  8
LOGO
 62
     5
100
AcDbTrace
 10
3202.714327058351
 20
1027.847560203067
 30
0.0
 11
3205.061687180039
 21
1027.847560203067
 31
0.0
 12
3202.714327058351
 22
1016.110759594621
 32
0.0
 13
3205.061687180039
 23
1016.110759594621
 33
0.0
  0
SOLID
  5
7705
330
1F
100
AcDbEntity
  8
LOGO
 62
     5
100
AcDbTrace
 10
3207.800352234006
 20
1016.110759594621
 30
0.0
 11
3210.14771235571
 21
1016.110759594621
 31
0.0
 12
3207.800352234006
 22
1027.847560203067
 32
0.0
 13
3210.14771235571
 23
1027.847560203067
 33
0.0
  0
SOLID
  5
7706
330
1F
100
AcDbEntity
  8
LOGO
 62
     5
100
AcDbTrace
 10
3214.842432599087
 20
1023.152839959687
 30
0.0
 11
3217.189792720776
 21
1023.152839959687
 31
0.0
 12
3214.842432599087
 22
1016.110759594621
 32
0.0
 13
3217.189792720776
 23
1016.110759594621
 33
0.0
  0
SOLID
  5
7707
330
1F
100
AcDbEntity
  8
LOGO
 62
     5
100
AcDbTrace
 10
3207.565616221847
 20
1098.972571890266
 30
0.0
 11
3200.758271868941
 21
1074.012309262964
 31
0.0
 12
3207.565616221847
 22
1039.584360811515
 32
0.0
 13
3200.758271868941
 23
1039.584360811515
 33
0.0
  0
SOLID
  5
7708
330
1F
100
AcDbEntity
  8
LOGO
 62
     5
100
AcDbTrace
 10
3210.382448367868
 20
1039.584360811515
 30
0.0
 11
3217.189792720776
 21
1039.584360811515
 31
0.0
 12
3210.382448367868
 22
1104.136764157982
 32
0.0
 13
3217.189792720776
 23
1104.136764157987
 33
0.0
  0
SOLID
  5
7709
330
1F
100
AcDbEntity
  8
LOGO
 62
     2
100
AcDbTrace
 10
3207.565616221847
 20
1104.136764157987
 30
0.0
 11
3210.382448367868
 21
1104.136764157982
 31
0.0
 12
3207.565616221847
 22
1039.584360811515
 32
0.0
 13
3210.382448367868
 23
1039.584360811515
 33
0.0
  0
POLYLINE
  5
770A
330
1F
100
AcDbEntity
  8
LOGO
 62
     5
100
AcDb2dPolyline
 66
     1
 10
0.0
 20
0.0
 30
0.0
 40
2.35112191675656
 41
2.35112191675656
  0
VERTEX
  5
770B
330
770A
100
AcDbEntity
  8
LOGO
 62
     5
100
AcDbVertex
100
AcDb2dVertex
 10
3182.376103784294
 20
1023.152839959687
 30
0.0
 42
1.0
  0
VERTEX
  5
770C
330
770A
100
AcDbEntity
  8
LOGO
 62
     5
100
AcDbVertex
100
AcDb2dVertex
 10
3175.322738034033
 20
1023.152839959687
 30
0.0
 42
1.0
  0
SEQEND
  5
770D
330
770A
100
AcDbEntity
  8
LOGO
 62
     5
  0
POLYLINE
  5
770E
330
1F
100
AcDbEntity
  8
LOGO
 62
     5
100
AcDb2dPolyline
 66
     1
 10
0.0
 20
0.0
 30
0.0
 40
2.35112191675656
 41
2.35112191675656
  0
VERTEX
  5
770F
330
770E
100
AcDbEntity
  8
LOGO
 62
     5
100
AcDbVertex
100
AcDb2dVertex
 10
3189.418184149359
 20
1023.152839959687
 30
0.0
 42
1.0
  0
VERTEX
  5
7710
330
770E
100
AcDbEntity
  8
LOGO
 62
     5
100
AcDbVertex
100
AcDb2dVertex
 10
3182.3648183991
 20
1023.152839959687
 30
0.0
 42
1.0
  0
SEQEND
  5
7711
330
770E
100
AcDbEntity
  8
LOGO
 62
     5
  0
POLYLINE
  5
7712
330
1F
100
AcDbEntity
  8
LOGO
 62
     5
100
AcDb2dPolyline
 66
     1
 10
0.0
 20
0.0
 30
0.0
 40
2.35112191675656
 41
2.35112191675656
  0
VERTEX
  5
7713
330
7712
100
AcDbEntity
  8
LOGO
 62
     5
100
AcDbVertex
100
AcDb2dVertex
 10
3155.772532581133
 20
1023.152839959687
 30
0.0
 42
1.0
  0
VERTEX
  5
7714
330
7712
100
AcDbEntity
  8
LOGO
 62
     5
100
AcDbVertex
100
AcDb2dVertex
 10
3148.719166830872
 20
1023.152839959687
 30
0.0
 42
1.0
  0
SEQEND
  5
7715
330
7712
100
AcDbEntity
  8
LOGO
 62
     5
  0
SOLID
  5
7716
330
1F
100
AcDbEntity
  8
LOGO
 62
     5
100
AcDbTrace
 10
3147.551129462633
 20
1027.847560203067
 30
0.0
 11
3149.898489584307
 21
1027.847560203067
 31
0.0
 12
3147.551129462633
 22
1016.110759594621
 32
0.0
 13
3149.898489584307
 23
1016.110759594621
 33
0.0
  0
SOLID
  5
7717
330
1F
100
AcDbEntity
  8
LOGO
 62
     5
100
AcDbTrace
 10
3154.593209827697
 20
1023.152839959687
 30
0.0
 11
3156.940569949386
 21
1023.152839959687
 31
0.0
 12
3154.593209827697
 22
1016.110759594621
 32
0.0
 13
3156.940569949386
 23
1016.110759594621
 33
0.0
  0
POLYLINE
  5
7718
330
1F
100
AcDbEntity
  8
LOGO
 62
     5
100
AcDb2dPolyline
 66
     1
 10
0.0
 20
0.0
 30
0.0
 70
     1
 40
2.35112191675656
 41
2.35112191675656
  0
VERTEX
  5
7719
330
7718
100
AcDbEntity
  8
LOGO
 62
     5
100
AcDbVertex
100
AcDb2dVertex
 10
3160.845626210078
 20
1021.979159898844
 30
0.0
 42
1.0
  0
VERTEX
  5
771A
330
7718
100
AcDbEntity
  8
LOGO
 62
     5
100
AcDbVertex
100
AcDb2dVertex
 10
3170.250113877111
 20
1021.979159898844
 30
0.0
 42
1.0
  0
SEQEND
  5
771B
330
7718
100
AcDbEntity
  8
LOGO
 62
     5
  0
SOLID
  5
771C
330
1F
100
AcDbEntity
  8
LOGO
 62
     5
100
AcDbTrace
 10
3169.068675490124
 20
1031.368600385604
 30
0.0
 11
3171.416035611811
 21
1031.368600385604
 31
0.0
 12
3169.068675490124
 22
1016.110759594621
 32
0.0
 13
3171.416035611811
 23
1016.110759594621
 33
0.0
  0
SOLID
  5
771D
330
1F
100
AcDbEntity
  8
LOGO
 62
     5
100
AcDbTrace
 10
3174.154700665779
 20
1027.847560203067
 30
0.0
 11
3176.502060787482
 21
1027.847560203067
 31
0.0
 12
3174.154700665779
 22
1016.110759594621
 32
0.0
 13
3176.502060787482
 23
1016.110759594621
 33
0.0
  0
SOLID
  5
771E
330
1F
100
AcDbEntity
  8
LOGO
 62
     5
100
AcDbTrace
 10
3181.196781030859
 20
1023.152839959687
 30
0.0
 11
3183.544141152547
 21
1023.152839959687
 31
0.0
 12
3181.196781030859
 22
1016.110759594621
 32
0.0
 13
3183.544141152547
 23
1016.110759594621
 33
0.0
  0
SOLID
  5
771F
330
1F
100
AcDbEntity
  8
LOGO
 62
     5
100
AcDbTrace
 10
3188.238861395927
 20
1023.152839959687
 30
0.0
 11
3190.586221517614
 21
1023.152839959687
 31
0.0
 12
3188.238861395927
 22
1016.110759594616
 32
0.0
 13
3190.586221517614
 23
1016.110759594616
 33
0.0
  0
SOLID
  5
7720
330
1F
100
AcDbEntity
  8
LOGO
 62
     5
100
AcDbTrace
 10
3142.465104286962
 20
1029.490712288249
 30
0.0
 11
3144.812464408651
 21
1029.490712288249
 31
0.0
 12
3142.465104286962
 22
1031.368600385604
 32
0.0
 13
3144.812464408651
 23
1031.368600385604
 33
0.0
  0
SOLID
  5
7721
330
1F
100
AcDbEntity
  8
LOGO
 62
     5
100
AcDbTrace
 10
3142.465104286962
 20
1027.847560203067
 30
0.0
 11
3144.812464408651
 21
1027.847560203067
 31
0.0
 12
3142.465104286962
 22
1016.110759594616
 32
0.0
 13
3144.812464408651
 23
1016.110759594621
 33
0.0
  0
SOLID
  5
7722
330
1F
100
AcDbEntity
  8
LOGO
 62
     5
100
AcDbTrace
 10
3165.547870043596
 20
1039.584360811517
 30
0.0
 11
3172.355214396488
 21
1039.584360811517
 31
0.0
 12
3165.547870043596
 22
1074.012309262964
 32
0.0
 13
3172.355214396488
 23
1098.972571890266
 33
0.0
  0
SOLID
  5
7723
330
1F
100
AcDbEntity
  8
LOGO
 62
     5
100
AcDbTrace
 10
3175.172046542524
 20
1104.136764157982
 30
0.0
 11
3181.979390895431
 21
1104.136764157987
 31
0.0
 12
3175.172046542524
 22
1044.748553079233
 32
0.0
 13
3181.979390895431
 23
1069.708815706535
 33
0.0
  0
SOLID
  5
7724
330
1F
100
AcDbEntity
  8
LOGO
 62
     2
100
AcDbTrace
 10
3172.355214396488
 20
1104.136764157982
 30
0.0
 11
3175.172046542524
 21
1104.136764157982
 31
0.0
 12
3172.355214396488
 22
1039.584360811517
 32
0.0
 13
3175.172046542524
 23
1039.584360811517
 33
0.0
  0
SOLID
  5
7725
330
1F
100
AcDbEntity
  8
LOGO
 62
     5
100
AcDbTrace
 10
3175.172046542524
 20
1044.748553079233
 30
0.0
 11
3181.979390895431
 21
1069.708815706535
 31
0.0
 12
3207.565616221847
 22
1104.136764157987
 32
0.0
 13
3200.758271868941
 23
1104.136764157987
 33
0.0
  0
SOLID
  5
7726
330
1F
100
AcDbEntity
  8
LOGO
 62
     5
100
AcDbTrace
 10
3175.172046542524
 20
1039.584360811517
 30
0.0
 11
3181.979390895431
 21
1039.584360811517
 31
0.0
 12
3207.565616221847
 22
1098.972571890266
 32
0.0
 13
3200.758271868941
 23
1074.012309262964
 33
0.0
  0
SOLID
  5
7727
330
1F
100
AcDbEntity
  8
LOGO
 62
     2
100
AcDbTrace
 10
3172.355214396488
 20
1039.584360811517
 30
0.0
 11
3175.172046542524
 21
1039.584360811517
 31
0.0
 12
3207.565616221847
 22
1104.136764157987
 32
0.0
 13
3210.382448367868
 23
1104.136764157982
 33
0.0
  0
TEXT
  5
7728
330
1F
100
AcDbEntity
  8
0
100
AcDbText
 10
3469.350325337391
 20
958.8113321209121
 30
0.0
 40
13.128482268
  1
1050701
 41
0.8
  7
CHINESET
 72
     1
 11
3499.60835113602
 21
958.8113321209121
 31
0.0
100
AcDbText
  0
LINE
  5
7729
330
1F
100
AcDbEntity
  8
LOGO
 62
     1
100
AcDbLine
 10
3540.115137407441
 20
981.9237623900754
 30
0.0
 11
3540.115137407441
 21
950.4355224335137
 31
0.0
  0
LINE
  5
772A
330
1F
100
AcDbEntity
  8
LOGO
 62
     1
100
AcDbLine
 10
3540.115137407441
 20
981.9237623900754
 30
0.0
 11
3460.373330589051
 21
981.9237623900754
 31
0.0
  0
LWPOLYLINE
  5
772B
330
1F
100
AcDbEntity
  8
0
 62
     1
100
AcDbPolyline
 90
        4
 70
     1
 43
0.0
 10
3114.002691066876
 20
1107.876722216319
 10
4304.239998072556
 20
1107.876722216319
 10
4304.239998072556
 20
950.4355224335137
 10
3114.002691066876
 20
950.4355224335137
1001
GENIUS_GENREC_14
1002
{
1000
PYDIR
1011
3114.002691066876
1021
950.4355224335137
1031
0.0
1002
}
1002
{
1000
PXDIR
1011
4304.239998072556
1021
1107.876722216319
1031
0.0
1002
}
1002
{
1000
PORI
1011
3114.002691066876
1021
1107.876722216319
1031
0.0
1002
}
1002
{
1000
PINS
1011
3114.002691066876
1021
1107.876722216319
1031
0.0
1002
}
1002
{
1000
PINS2
1011
4304.239998072556
1021
950.4355224335137
1031
0.0
1002
}
1002
{
1000
C
1070
     1
1002
}
1001
GENIUS_GENOBJ-N-REC_13
1002
{
1000
OWNER
1000
GEN
1002
}
1001
GENIUS_GENODEF_13
1002
{
1000
HIER
1070
     0
1002
}
1002
{
1000
MANEDIT
1070
     0
1002
}
1002
{
1000
NOSEL
1070
     0
1002
}
1002
{
1000
BEHIND
1070
     0
1002
}
1002
{
1000
OTHER
1070
     0
1002
}
1002
{
1000
REACTOR
1002
}
  0
LINE
  5
773C
330
1F
100
AcDbEntity
  8
LOGO
 62
     6
100
AcDbLine
 10
3906.110082598547
 20
1044.900242303197
 30
0.0
 11
3906.110082598546
 21
1021.284062335777
 31
0.0
  0
LINE
  5
773D
330
1F
100
AcDbEntity
  8
LOGO
 62
     6
100
AcDbLine
 10
4041.730284678852
 20
1044.900242303197
 30
0.0
 11
4041.730284678852
 21
1021.284062335777
 31
0.0
  0
LINE
  5
77E5
330
1F
100
AcDbEntity
  8
圖層4尺寸線
100
AcDbLine
 10
3550.321295473386
 20
1748.795718805293
 30
0.0
 11
3512.321295473387
 21
1748.795718805293
 31
0.0
  0
LINE
  5
77E6
330
1F
100
AcDbEntity
  8
圖層4尺寸線
100
AcDbLine
 10
3550.321295473386
 20
1760.795718805293
 30
0.0
 11
3512.321295473387
 21
1760.795718805293
 31
0.0
  0
LINE
  5
77E7
330
1F
100
AcDbEntity
  8
圖層4尺寸線
100
AcDbLine
 10
3556.321295473387
 20
1739.795718805293
 30
0.0
 11
3506.321295473386
 21
1739.795718805293
 31
0.0
  0
LINE
  5
77E8
330
1F
100
AcDbEntity
  8
圖層4尺寸線
100
AcDbLine
 10
3556.321295473387
 20
1764.795718805293
 30
0.0
 11
3506.321295473386
 21
1764.795718805293
 31
0.0
  0
TEXT
  5
77E9
330
1F
100
AcDbEntity
  8
圖層4尺寸線
100
AcDbText
 10
3495.356661744187
 20
1656.805576925606
 30
0.0
 40
5.0
  1
電源開關       緊急停止
  7
WIN
 72
     4
 11
3531.890091976745
 21
1659.043949018629
 31
0.0
100
AcDbText
  0
LWPOLYLINE
  5
77EA
330
1F
100
AcDbEntity
  8
圖層4尺寸線
100
AcDbPolyline
 90
        4
 70
     1
 43
0.0
 10
3488.022380608815
 20
1665.517507351078
 10
3575.757803344675
 20
1665.517507351078
 10
3575.757803344675
 20
1652.57039068618
 10
3488.022380608815
 20
1652.57039068618
  0
LINE
  5
77EB
330
1F
100
AcDbEntity
  8
圖層4尺寸線
100
AcDbLine
 10
3520.913489112841
 20
1685.490088275913
 30
0.0
 11
3529.308446641533
 21
1694.03166464823
 31
0.0
  0
LINE
  5
77EC
330
1F
100
AcDbEntity
  8
圖層4尺寸線
100
AcDbLine
 10
3513.321295473387
 20
1671.795718805293
 30
0.0
 11
3549.321295473387
 21
1671.795718805293
 31
0.0
  0
LINE
  5
77ED
330
1F
100
AcDbEntity
  8
圖層4尺寸線
100
AcDbLine
 10
3513.321295473387
 20
1719.795718805293
 30
0.0
 11
3549.321295473387
 21
1719.795718805293
 31
0.0
  0
CIRCLE
  5
77EE
330
1F
100
AcDbEntity
  8
圖層4尺寸線
100
AcDbCircle
 10
3531.321295473386
 20
1698.795718805293
 30
0.0
 40
5.0
  0
CIRCLE
  5
77EF
330
1F
100
AcDbEntity
  8
圖層4尺寸線
100
AcDbCircle
 10
3531.321295473386
 20
1698.795718805293
 30
0.0
 40
17.0
  0
CIRCLE
  5
77F0
330
1F
100
AcDbEntity
  8
圖層4尺寸線
100
AcDbCircle
 10
3531.321295473386
 20
1784.795718805293
 30
0.0
 40
5.0
  0
LINE
  5
77F1
330
1F
100
AcDbEntity
  8
圖層4尺寸線
100
AcDbLine
 10
3509.321295473387
 20
1723.795718805293
 30
0.0
 11
3553.321295473387
 21
1723.795718805293
 31
0.0
  0
LINE
  5
77F2
330
1F
100
AcDbEntity
  8
圖層4尺寸線
100
AcDbLine
 10
3509.321295473387
 20
1667.795718805293
 30
0.0
 11
3553.321295473387
 21
1667.795718805293
 31
0.0
  0
LINE
  5
77F3
330
1F
100
AcDbEntity
  8
圖層4尺寸線
100
AcDbLine
 10
3583.321295473387
 20
1804.795718805294
 30
0.0
 11
3479.321295473386
 21
1804.795718805294
 31
0.0
  0
LINE
  5
77F4
330
1F
100
AcDbEntity
  8
圖層4尺寸線
100
AcDbLine
 10
3479.321295473386
 20
1602.795718805293
 30
0.0
 11
3583.321295473387
 21
1602.795718805293
 31
0.0
  0
LINE
  5
77F5
330
1F
100
AcDbEntity
  8
圖層4尺寸線
100
AcDbLine
 10
3513.321295473387
 20
1671.795718805293
 30
0.0
 11
3513.321295473387
 21
1719.795718805293
 31
0.0
  0
LINE
  5
77F6
330
1F
100
AcDbEntity
  8
圖層4尺寸線
100
AcDbLine
 10
3509.321295473387
 20
1667.795718805293
 30
0.0
 11
3509.321295473387
 21
1723.795718805293
 31
0.0
  0
LINE
  5
77F7
330
1F
100
AcDbEntity
  8
圖層4尺寸線
100
AcDbLine
 10
3479.321295473386
 20
1804.795718805294
 30
0.0
 11
3479.321295473386
 21
1602.795718805293
 31
0.0
  0
LINE
  5
77F8
330
1F
100
AcDbEntity
  8
圖層4尺寸線
100
AcDbLine
 10
3512.237333438206
 20
1633.500504295872
 30
0.0
 11
3513.209346093146
 21
1629.478818489366
 31
0.0
  0
LINE
  5
77F9
330
1F
100
AcDbEntity
  8
圖層4尺寸線
100
AcDbLine
 10
3506.405257508567
 20
1633.500504295872
 30
0.0
 11
3505.433244853627
 21
1629.478818489366
 31
0.0
  0
CIRCLE
  5
77FA
330
1F
100
AcDbEntity
  8
圖層4尺寸線
100
AcDbCircle
 10
3509.321295473387
 20
1628.539104501929
 30
0.0
 40
4.0
  0
ARC
  5
77FB
330
1F
100
AcDbEntity
  8
圖層4尺寸線
100
AcDbCircle
 10
3509.321295473387
 20
1632.795718805293
 30
0.0
 40
12.0
100
AcDbArc
 50
131.8103148957701
 51
228.1896851042298
  0
ARC
  5
77FC
330
1F
100
AcDbEntity
  8
圖層4尺寸線
100
AcDbCircle
 10
3509.321295473387
 20
1632.795718805293
 30
0.0
 40
12.0
100
AcDbArc
 50
311.8103148957701
 51
48.18968510422114
  0
LWPOLYLINE
  5
77FD
330
1F
100
AcDbEntity
  8
圖層4尺寸線
100
AcDbPolyline
 90
        7
 70
     0
 43
0.0
 10
3512.918417023288
 20
1626.789614131782
 10
3516.321295473387
 20
1628.754266920966
 10
3516.321295473387
 20
1636.837170689621
 10
3509.321295473387
 20
1640.878622573948
 10
3502.321295473386
 20
1636.837170689621
 10
3502.321295473386
 20
1628.754266920966
 10
3505.724173923486
 20
1626.789614131782
  0
ARC
  5
77FE
330
1F
100
AcDbEntity
  8
圖層4尺寸線
100
AcDbCircle
 10
3509.321295473387
 20
1632.795718805293
 30
0.0
 40
7.0
100
AcDbArc
 50
300.9291072523213
 51
239.0708927476787
  0
ARC
  5
77FF
330
1F
100
AcDbEntity
  8
圖層4尺寸線
100
AcDbCircle
 10
3509.321295473387
 20
1632.795718805293
 30
0.0
 40
6.0
100
AcDbArc
 50
311.7321013756915
 51
228.2678986243085
  0
ARC
  5
7800
330
1F
100
AcDbEntity
  8
圖層4尺寸線
100
AcDbCircle
 10
3487.321295473387
 20
1615.795718805294
 30
0.0
 40
2.0
100
AcDbArc
 50
240.0000000000027
 51
299.9999999999973
  0
ARC
  5
7801
330
1F
100
AcDbEntity
  8
圖層4尺寸線
100
AcDbCircle
 10
3487.321295473387
 20
1615.795718805294
 30
0.0
 40
2.0
100
AcDbArc
 50
60.00000000000272
 51
119.9999999999973
  0
CIRCLE
  5
7802
330
1F
100
AcDbEntity
  8
圖層4尺寸線
100
AcDbCircle
 10
3487.321295473387
 20
1615.795718805294
 30
0.0
 40
4.0
  0
LINE
  5
7803
330
1F
100
AcDbEntity
  8
圖層4尺寸線
100
AcDbLine
 10
3486.321295473386
 20
1616.795718805293
 30
0.0
 11
3486.321295473386
 21
1617.527769612862
 31
0.0
  0
LINE
  5
7804
330
1F
100
AcDbEntity
  8
圖層4尺寸線
100
AcDbLine
 10
3486.321295473386
 20
1614.063667997725
 30
0.0
 11
3486.321295473386
 21
1614.795718805293
 31
0.0
  0
LINE
  5
7805
330
1F
100
AcDbEntity
  8
圖層4尺寸線
100
AcDbLine
 10
3486.321295473386
 20
1616.795718805293
 30
0.0
 11
3483.967193507137
 21
1616.795718805293
 31
0.0
  0
LINE
  5
7806
330
1F
100
AcDbEntity
  8
圖層4尺寸線
100
AcDbLine
 10
3486.321295473386
 20
1614.795718805293
 30
0.0
 11
3483.967193507137
 21
1614.795718805293
 31
0.0
  0
ARC
  5
7807
330
1F
100
AcDbEntity
  8
圖層4尺寸線
100
AcDbCircle
 10
3487.321295473387
 20
1615.795718805294
 30
0.0
 40
3.5
100
AcDbArc
 50
163.3984504009828
 51
196.6015495990296
  0
TEXT
  5
7808
330
1F
100
AcDbEntity
  8
圖層4尺寸線
100
AcDbText
 10
3504.193388496642
 20
1618.999207177386
 30
0.0
 40
4.0
  1
OFF
  7
WIN
 72
     4
 11
3509.321295473387
 21
1620.795718805293
 31
0.0
100
AcDbText
  0
LINE
  5
7809
330
1F
100
AcDbEntity
  8
圖層4尺寸線
100
AcDbLine
 10
3504.321295473386
 20
1615.795718805294
 30
0.0
 11
3514.321295473386
 21
1615.795718805293
 31
0.0
  0
LINE
  5
780A
330
1F
100
AcDbEntity
  8
圖層4尺寸線
100
AcDbLine
 10
3501.321295473387
 20
1622.597679778108
 30
0.0
 11
3501.321295473387
 21
1618.795718805293
 31
0.0
  0
LINE
  5
780B
330
1F
100
AcDbEntity
  8
圖層4尺寸線
100
AcDbLine
 10
3488.321295473387
 20
1616.795718805293
 30
0.0
 11
3488.321295473387
 21
1617.527769612862
 31
0.0
  0
LINE
  5
780C
330
1F
100
AcDbEntity
  8
圖層4尺寸線
100
AcDbLine
 10
3488.321295473387
 20
1614.063667997725
 30
0.0
 11
3488.321295473387
 21
1614.795718805293
 31
0.0
  0
LINE
  5
780D
330
1F
100
AcDbEntity
  8
圖層4尺寸線
100
AcDbLine
 10
3490.675397439636
 20
1614.795718805293
 30
0.0
 11
3488.321295473387
 21
1614.795718805293
 31
0.0
  0
LINE
  5
780E
330
1F
100
AcDbEntity
  8
圖層4尺寸線
100
AcDbLine
 10
3490.675397439636
 20
1616.795718805293
 30
0.0
 11
3488.321295473387
 21
1616.795718805293
 31
0.0
  0
ARC
  5
780F
330
1F
100
AcDbEntity
  8
圖層4尺寸線
100
AcDbCircle
 10
3487.321295473387
 20
1615.795718805294
 30
0.0
 40
3.5
100
AcDbArc
 50
343.3984504009703
 51
16.60154959902968
  0
ARC
  5
7810
330
1F
100
AcDbEntity
  8
圖層4尺寸線
100
AcDbCircle
 10
3504.321295473386
 20
1618.795718805293
 30
0.0
 40
3.0
100
AcDbArc
 50
180.0
 51
270.0
  0
ARC
  5
7811
330
1F
100
AcDbEntity
  8
圖層4尺寸線
100
AcDbCircle
 10
3498.321295473387
 20
1622.597679778108
 30
0.0
 40
3.0
100
AcDbArc
 50
0.0
 51
42.83342806607493
  0
ARC
  5
7812
330
1F
100
AcDbEntity
  8
圖層4尺寸線
100
AcDbCircle
 10
3498.321295473387
 20
1622.597679778108
 30
0.0
 40
3.0
100
AcDbArc
 50
0.0
 51
42.83342806607493
  0
LINE
  5
7813
330
1F
100
AcDbEntity
  8
圖層4尺寸線
100
AcDbLine
 10
3517.321295473387
 20
1622.597679778108
 30
0.0
 11
3517.321295473387
 21
1618.795718805293
 31
0.0
  0
ARC
  5
7814
330
1F
100
AcDbEntity
  8
圖層4尺寸線
100
AcDbCircle
 10
3514.321295473386
 20
1618.795718805293
 30
0.0
 40
3.0
100
AcDbArc
 50
270.0
 51
0.0
  0
ARC
  5
7815
330
1F
100
AcDbEntity
  8
圖層4尺寸線
100
AcDbCircle
 10
3520.321295473387
 20
1622.597679778108
 30
0.0
 40
3.0
100
AcDbArc
 50
137.166571933925
 51
180.0
  0
ARC
  5
7816
330
1F
100
AcDbEntity
  8
圖層4尺寸線
100
AcDbCircle
 10
3514.321295473386
 20
1646.795718805293
 30
0.0
 40
3.0
100
AcDbArc
 50
0.0
 51
90.0
  0
ARC
  5
7817
330
1F
100
AcDbEntity
  8
圖層4尺寸線
100
AcDbCircle
 10
3504.321295473386
 20
1646.795718805293
 30
0.0
 40
3.0
100
AcDbArc
 50
90.0
 51
180.0
  0
TEXT
  5
7818
330
1F
100
AcDbEntity
  8
圖層4尺寸線
100
AcDbText
 10
3505.286411752456
 20
1642.999207177387
 30
0.0
 40
4.0
  1
ON
  7
WIN
 72
     4
 11
3509.321295473387
 21
1644.795718805293
 31
0.0
100
AcDbText
  0
LINE
  5
7819
330
1F
100
AcDbEntity
  8
圖層4尺寸線
100
AcDbLine
 10
3504.321295473386
 20
1649.795718805293
 30
0.0
 11
3514.321295473386
 21
1649.795718805293
 31
0.0
  0
ARC
  5
781A
330
1F
100
AcDbEntity
  8
圖層4尺寸線
100
AcDbCircle
 10
3509.321295473387
 20
1632.795718805293
 30
0.0
 40
3.0
100
AcDbArc
 50
13.58740794753832
 51
166.4125920524616
  0
ARC
  5
781B
330
1F
100
AcDbEntity
  8
圖層4尺寸線
100
AcDbCircle
 10
3498.321295473387
 20
1642.993757832479
 30
0.0
 40
3.0
100
AcDbArc
 50
317.1665719339251
 51
0.0
  0
LINE
  5
781C
330
1F
100
AcDbEntity
  8
圖層4尺寸線
100
AcDbLine
 10
3501.321295473387
 20
1646.795718805293
 30
0.0
 11
3501.321295473387
 21
1642.993757832479
 31
0.0
  0
ARC
  5
781D
330
1F
100
AcDbEntity
  8
圖層4尺寸線
100
AcDbCircle
 10
3520.321295473387
 20
1642.993757832479
 30
0.0
 40
3.0
100
AcDbArc
 50
180.0
 51
222.833428066075
  0
LINE
  5
781E
330
1F
100
AcDbEntity
  8
圖層4尺寸線
100
AcDbLine
 10
3517.321295473387
 20
1646.795718805293
 30
0.0
 11
3517.321295473387
 21
1642.993757832479
 31
0.0
  0
LINE
  5
781F
330
1F
100
AcDbEntity
  8
圖層4尺寸線
100
AcDbLine
 10
3527.048265888039
 20
1695.64328319685
 30
0.0
 11
3520.913489112841
 21
1685.490088275913
 31
0.0
  0
LWPOLYLINE
  5
7820
330
1F
100
AcDbEntity
  8
圖層4尺寸線
100
AcDbPolyline
 90
        4
 70
     1
 43
0.0
 10
3515.321295473387
 20
1673.795718805293
 10
3521.321295473387
 20
1673.795718805293
 10
3521.321295473387
 20
1679.795718805294
 10
3515.321295473387
 20
1679.795718805294
  0
CIRCLE
  5
7821
330
1F
100
AcDbEntity
  8
圖層4尺寸線
100
AcDbCircle
 10
3487.321295473387
 20
1791.795718805293
 30
0.0
 40
4.0
  0
LINE
  5
7822
330
1F
100
AcDbEntity
  8
圖層4尺寸線
100
AcDbLine
 10
3512.321295473387
 20
1760.795718805293
 30
0.0
 11
3512.321295473387
 21
1748.795718805293
 31
0.0
  0
LINE
  5
7823
330
1F
100
AcDbEntity
  8
圖層4尺寸線
100
AcDbLine
 10
3506.321295473386
 20
1764.795718805293
 30
0.0
 11
3506.321295473386
 21
1739.795718805293
 31
0.0
  0
ARC
  5
7824
330
1F
100
AcDbEntity
  8
圖層4尺寸線
100
AcDbCircle
 10
3487.321295473387
 20
1791.795718805293
 30
0.0
 40
2.0
100
AcDbArc
 50
60.00000000000272
 51
119.9999999999973
  0
ARC
  5
7825
330
1F
100
AcDbEntity
  8
圖層4尺寸線
100
AcDbCircle
 10
3487.321295473387
 20
1791.795718805293
 30
0.0
 40
2.0
100
AcDbArc
 50
240.0000000000027
 51
299.9999999999973
  0
ARC
  5
7826
330
1F
100
AcDbEntity
  8
圖層4尺寸線
100
AcDbCircle
 10
3487.321295473387
 20
1791.795718805293
 30
0.0
 40
3.5
100
AcDbArc
 50
163.3984504009703
 51
196.6015495990172
  0
LINE
  5
7827
330
1F
100
AcDbEntity
  8
圖層4尺寸線
100
AcDbLine
 10
3486.321295473386
 20
1790.795718805293
 30
0.0
 11
3486.321295473386
 21
1790.063667997724
 31
0.0
  0
LINE
  5
7828
330
1F
100
AcDbEntity
  8
圖層4尺寸線
100
AcDbLine
 10
3486.321295473386
 20
1790.795718805293
 30
0.0
 11
3483.967193507137
 21
1790.795718805293
 31
0.0
  0
LINE
  5
7829
330
1F
100
AcDbEntity
  8
圖層4尺寸線
100
AcDbLine
 10
3486.321295473386
 20
1792.795718805293
 30
0.0
 11
3483.967193507137
 21
1792.795718805293
 31
0.0
  0
LINE
  5
782A
330
1F
100
AcDbEntity
  8
圖層4尺寸線
100
AcDbLine
 10
3486.321295473386
 20
1793.527769612862
 30
0.0
 11
3486.321295473386
 21
1792.795718805293
 31
0.0
  0
ARC
  5
782B
330
1F
100
AcDbEntity
  8
圖層4尺寸線
100
AcDbCircle
 10
3487.321295473387
 20
1791.795718805293
 30
0.0
 40
3.5
100
AcDbArc
 50
343.3984504009703
 51
16.60154959902968
  0
LINE
  5
782C
330
1F
100
AcDbEntity
  8
圖層4尺寸線
100
AcDbLine
 10
3488.321295473387
 20
1790.795718805293
 30
0.0
 11
3488.321295473387
 21
1790.063667997724
 31
0.0
  0
LINE
  5
782D
330
1F
100
AcDbEntity
  8
圖層4尺寸線
100
AcDbLine
 10
3488.321295473387
 20
1793.527769612862
 30
0.0
 11
3488.321295473387
 21
1792.795718805293
 31
0.0
  0
LINE
  5
782E
330
1F
100
AcDbEntity
  8
圖層4尺寸線
100
AcDbLine
 10
3490.675397439636
 20
1790.795718805293
 30
0.0
 11
3488.321295473387
 21
1790.795718805293
 31
0.0
  0
LINE
  5
782F
330
1F
100
AcDbEntity
  8
圖層4尺寸線
100
AcDbLine
 10
3490.675397439636
 20
1792.795718805293
 30
0.0
 11
3488.321295473387
 21
1792.795718805293
 31
0.0
  0
LINE
  5
7830
330
1F
100
AcDbEntity
  8
圖層4尺寸線
100
AcDbLine
 10
3549.321295473387
 20
1671.795718805293
 30
0.0
 11
3549.321295473387
 21
1719.795718805293
 31
0.0
  0
LINE
  5
7831
330
1F
100
AcDbEntity
  8
圖層4尺寸線
100
AcDbLine
 10
3553.321295473387
 20
1667.795718805293
 30
0.0
 11
3553.321295473387
 21
1723.795718805293
 31
0.0
  0
LINE
  5
7832
330
1F
100
AcDbEntity
  8
圖層4尺寸線
100
AcDbLine
 10
3583.321295473387
 20
1602.795718805293
 30
0.0
 11
3583.321295473387
 21
1804.795718805294
 31
0.0
  0
LINE
  5
7833
330
1F
100
AcDbEntity
  8
圖層4尺寸線
100
AcDbLine
 10
3553.321295473387
 20
1629.795718805294
 30
0.0
 11
3553.321295473387
 21
1635.795718805293
 31
0.0
  0
CIRCLE
  5
7834
330
1F
100
AcDbEntity
  8
圖層4尺寸線
100
AcDbCircle
 10
3553.321295473387
 20
1632.795718805293
 30
0.0
 40
8.110805357093454
  0
CIRCLE
  5
7835
330
1F
100
AcDbEntity
  8
圖層4尺寸線
100
AcDbCircle
 10
3553.321295473387
 20
1632.795718805293
 30
0.0
 40
7.0
  0
LINE
  5
7836
330
1F
100
AcDbEntity
  8
圖層4尺寸線
100
AcDbLine
 10
3576.321295473387
 20
1614.795718805293
 30
0.0
 11
3578.675397439636
 21
1614.795718805293
 31
0.0
  0
LINE
  5
7837
330
1F
100
AcDbEntity
  8
圖層4尺寸線
100
AcDbLine
 10
3576.321295473387
 20
1616.795718805293
 30
0.0
 11
3578.675397439636
 21
1616.795718805293
 31
0.0
  0
CIRCLE
  5
7838
330
1F
100
AcDbEntity
  8
圖層4尺寸線
100
AcDbCircle
 10
3575.321295473386
 20
1615.795718805294
 30
0.0
 40
4.0
  0
LINE
  5
7839
330
1F
100
AcDbEntity
  8
圖層4尺寸線
100
AcDbLine
 10
3576.321295473387
 20
1614.063667997725
 30
0.0
 11
3576.321295473387
 21
1614.795718805293
 31
0.0
  0
LINE
  5
783A
330
1F
100
AcDbEntity
  8
圖層4尺寸線
100
AcDbLine
 10
3576.321295473387
 20
1616.795718805293
 30
0.0
 11
3576.321295473387
 21
1617.527769612862
 31
0.0
  0
ARC
  5
783B
330
1F
100
AcDbEntity
  8
圖層4尺寸線
100
AcDbCircle
 10
3575.321295473386
 20
1615.795718805294
 30
0.0
 40
3.5
100
AcDbArc
 50
163.3984504009703
 51
196.6015495990296
  0
LINE
  5
783C
330
1F
100
AcDbEntity
  8
圖層4尺寸線
100
AcDbLine
 10
3571.967193507137
 20
1616.795718805293
 30
0.0
 11
3574.321295473386
 21
1616.795718805293
 31
0.0
  0
LINE
  5
783D
330
1F
100
AcDbEntity
  8
圖層4尺寸線
100
AcDbLine
 10
3571.967193507137
 20
1614.795718805293
 30
0.0
 11
3574.321295473386
 21
1614.795718805293
 31
0.0
  0
LINE
  5
783E
330
1F
100
AcDbEntity
  8
圖層4尺寸線
100
AcDbLine
 10
3574.321295473386
 20
1614.063667997725
 30
0.0
 11
3574.321295473386
 21
1614.795718805293
 31
0.0
  0
LINE
  5
783F
330
1F
100
AcDbEntity
  8
圖層4尺寸線
100
AcDbLine
 10
3574.321295473386
 20
1616.795718805293
 30
0.0
 11
3574.321295473386
 21
1617.527769612862
 31
0.0
  0
ARC
  5
7840
330
1F
100
AcDbEntity
  8
圖層4尺寸線
100
AcDbCircle
 10
3575.321295473386
 20
1615.795718805294
 30
0.0
 40
2.0
100
AcDbArc
 50
60.00000000000272
 51
119.9999999999973
  0
ARC
  5
7841
330
1F
100
AcDbEntity
  8
圖層4尺寸線
100
AcDbCircle
 10
3575.321295473386
 20
1615.795718805294
 30
0.0
 40
2.0
100
AcDbArc
 50
240.0000000000027
 51
299.9999999999973
  0
ARC
  5
7842
330
1F
100
AcDbEntity
  8
圖層4尺寸線
100
AcDbCircle
 10
3575.321295473386
 20
1615.795718805294
 30
0.0
 40
3.5
100
AcDbArc
 50
343.3984504009703
 51
16.60154959901719
  0
LINE
  5
7843
330
1F
100
AcDbEntity
  8
圖層4尺寸線
100
AcDbLine
 10
3550.321295473386
 20
1632.795718805293
 30
0.0
 11
3556.321295473387
 21
1632.795718805293
 31
0.0
  0
LWPOLYLINE
  5
7844
330
1F
100
AcDbEntity
  8
圖層4尺寸線
100
AcDbPolyline
 90
        4
 70
     1
 43
0.0
 10
3541.321295473387
 20
1673.795718805293
 10
3547.321295473386
 20
1673.795718805293
 10
3547.321295473386
 20
1679.795718805294
 10
3541.321295473387
 20
1679.795718805294
  0
CIRCLE
  5
7845
330
1F
100
AcDbEntity
  8
圖層4尺寸線
100
AcDbCircle
 10
3575.321295473386
 20
1791.795718805293
 30
0.0
 40
4.0
  0
LINE
  5
7846
330
1F
100
AcDbEntity
  8
圖層4尺寸線
100
AcDbLine
 10
3550.321295473386
 20
1748.795718805293
 30
0.0
 11
3550.321295473386
 21
1760.795718805293
 31
0.0
  0
LINE
  5
7847
330
1F
100
AcDbEntity
  8
圖層4尺寸線
100
AcDbLine
 10
3556.321295473387
 20
1739.795718805293
 30
0.0
 11
3556.321295473387
 21
1764.795718805293
 31
0.0
  0
LINE
  5
7848
330
1F
100
AcDbEntity
  8
圖層4尺寸線
100
AcDbLine
 10
3544.352109882368
 20
1743.011475328131
 30
0.0
 11
3552.64561017216
 21
1743.011475328131
 31
0.0
  0
LINE
  5
7849
330
1F
100
AcDbEntity
  8
圖層4尺寸線
100
AcDbLine
 10
3544.352109882368
 20
1745.011475328131
 30
0.0
 11
3552.64561017216
 21
1745.011475328131
 31
0.0
  0
LINE
  5
784A
330
1F
100
AcDbEntity
  8
圖層4尺寸線
100
AcDbLine
 10
3554.72727298012
 20
1740.795718805294
 30
0.0
 11
3542.06578800762
 21
1740.795718805294
 31
0.0
  0
LINE
  5
784B
330
1F
100
AcDbEntity
  8
圖層4尺寸線
100
AcDbLine
 10
3542.06578800762
 20
1747.227231850969
 30
0.0
 11
3554.727272980119
 21
1747.227231850969
 31
0.0
  0
LINE
  5
784C
330
1F
100
AcDbEntity
  8
圖層4尺寸線
100
AcDbLine
 10
3545.502391830162
 20
1742.487287492128
 30
0.0
 11
3545.502391830162
 21
1741.487287492128
 31
0.0
  0
ARC
  5
784D
330
1F
100
AcDbEntity
  8
圖層4尺寸線
100
AcDbCircle
 10
3545.502391830162
 20
1744.011475328131
 30
0.0
 40
1.52418783600342
100
AcDbArc
 50
90.0
 51
270.0
  0
ARC
  5
784E
330
1F
100
AcDbEntity
  8
圖層4尺寸線
100
AcDbCircle
 10
3545.502391830162
 20
1744.011475328131
 30
0.0
 40
2.52418783600342
100
AcDbArc
 50
90.0
 51
270.0
  0
LINE
  5
784F
330
1F
100
AcDbEntity
  8
圖層4尺寸線
100
AcDbLine
 10
3545.502391830162
 20
1746.535663164134
 30
0.0
 11
3545.502391830162
 21
1745.535663164134
 31
0.0
  0
LINE
  5
7850
330
1F
100
AcDbEntity
  8
圖層4尺寸線
100
AcDbLine
 10
3542.06578800762
 20
1740.795718805294
 30
0.0
 11
3542.06578800762
 21
1747.227231850969
 31
0.0
  0
LINE
  5
7851
330
1F
100
AcDbEntity
  8
圖層4尺寸線
100
AcDbLine
 10
3551.495328224366
 20
1742.487287492128
 30
0.0
 11
3551.495328224366
 21
1741.487287492128
 31
0.0
  0
ARC
  5
7852
330
1F
100
AcDbEntity
  8
圖層4尺寸線
100
AcDbCircle
 10
3551.495328224366
 20
1744.011475328131
 30
0.0
 40
1.52418783600342
100
AcDbArc
 50
270.0
 51
90.0
  0
ARC
  5
7853
330
1F
100
AcDbEntity
  8
圖層4尺寸線
100
AcDbCircle
 10
3551.495328224366
 20
1744.011475328131
 30
0.0
 40
2.52418783600342
100
AcDbArc
 50
270.0
 51
90.0
  0
LINE
  5
7854
330
1F
100
AcDbEntity
  8
圖層4尺寸線
100
AcDbLine
 10
3551.495328224366
 20
1746.535663164134
 30
0.0
 11
3551.495328224366
 21
1745.535663164134
 31
0.0
  0
LINE
  5
7855
330
1F
100
AcDbEntity
  8
圖層4尺寸線
100
AcDbLine
 10
3554.727272980119
 20
1747.227231850969
 30
0.0
 11
3554.72727298012
 21
1740.795718805294
 31
0.0
  0
LINE
  5
7856
330
1F
100
AcDbEntity
  8
圖層4尺寸線
100
AcDbLine
 10
3531.321295473386
 20
1781.795718805294
 30
0.0
 11
3531.321295473386
 21
1787.795718805293
 31
0.0
  0
LINE
  5
7857
330
1F
100
AcDbEntity
  8
圖層4尺寸線
100
AcDbLine
 10
3528.321295473386
 20
1784.795718805293
 30
0.0
 11
3534.321295473386
 21
1784.795718805293
 31
0.0
  0
CIRCLE
  5
7858
330
1F
100
AcDbEntity
  8
圖層4尺寸線
100
AcDbCircle
 10
3531.321295473386
 20
1784.795718805293
 30
0.0
 40
3.0
  0
LINE
  5
7859
330
1F
100
AcDbEntity
  8
圖層4尺寸線
100
AcDbLine
 10
3576.321295473387
 20
1790.795718805293
 30
0.0
 11
3578.675397439636
 21
1790.795718805293
 31
0.0
  0
LINE
  5
785A
330
1F
100
AcDbEntity
  8
圖層4尺寸線
100
AcDbLine
 10
3576.321295473387
 20
1792.795718805293
 30
0.0
 11
3578.675397439636
 21
1792.795718805293
 31
0.0
  0
LINE
  5
785B
330
1F
100
AcDbEntity
  8
圖層4尺寸線
100
AcDbLine
 10
3574.321295473386
 20
1790.795718805293
 30
0.0
 11
3574.321295473386
 21
1790.063667997724
 31
0.0
  0
LINE
  5
785C
330
1F
100
AcDbEntity
  8
圖層4尺寸線
100
AcDbLine
 10
3574.321295473386
 20
1793.527769612862
 30
0.0
 11
3574.321295473386
 21
1792.795718805293
 31
0.0
  0
LINE
  5
785D
330
1F
100
AcDbEntity
  8
圖層4尺寸線
100
AcDbLine
 10
3571.967193507137
 20
1792.795718805293
 30
0.0
 11
3574.321295473386
 21
1792.795718805293
 31
0.0
  0
LINE
  5
785E
330
1F
100
AcDbEntity
  8
圖層4尺寸線
100
AcDbLine
 10
3571.967193507137
 20
1790.795718805293
 30
0.0
 11
3574.321295473386
 21
1790.795718805293
 31
0.0
  0
ARC
  5
785F
330
1F
100
AcDbEntity
  8
圖層4尺寸線
100
AcDbCircle
 10
3575.321295473386
 20
1791.795718805293
 30
0.0
 40
3.5
100
AcDbArc
 50
163.3984504009703
 51
196.6015495990296
  0
LINE
  5
7860
330
1F
100
AcDbEntity
  8
圖層4尺寸線
100
AcDbLine
 10
3576.321295473387
 20
1790.795718805293
 30
0.0
 11
3576.321295473387
 21
1790.063667997724
 31
0.0
  0
LINE
  5
7861
330
1F
100
AcDbEntity
  8
圖層4尺寸線
100
AcDbLine
 10
3576.321295473387
 20
1793.527769612862
 30
0.0
 11
3576.321295473387
 21
1792.795718805293
 31
0.0
  0
ARC
  5
7862
330
1F
100
AcDbEntity
  8
圖層4尺寸線
100
AcDbCircle
 10
3575.321295473386
 20
1791.795718805293
 30
0.0
 40
2.0
100
AcDbArc
 50
60.00000000000272
 51
119.9999999999973
  0
ARC
  5
7863
330
1F
100
AcDbEntity
  8
圖層4尺寸線
100
AcDbCircle
 10
3575.321295473386
 20
1791.795718805293
 30
0.0
 40
2.0
100
AcDbArc
 50
240.0000000000027
 51
299.9999999999973
  0
ARC
  5
7864
330
1F
100
AcDbEntity
  8
圖層4尺寸線
100
AcDbCircle
 10
3575.321295473386
 20
1791.795718805293
 30
0.0
 40
3.5
100
AcDbArc
 50
343.3984504009828
 51
16.60154959902968
  0
ENDSEC
  0
SECTION
  2
OBJECTS
  0
DICTIONARY
  5
C
330
0
100
AcDbDictionary
281
     1
  3
ACAD_COLOR
350
BE
  3
ACAD_GROUP
350
D
  3
ACAD_LAYOUT
350
1A
  3
ACAD_MATERIAL
350
BD
  3
ACAD_MLINESTYLE
350
17
  3
ACAD_PLOTSETTINGS
350
19
  3
ACAD_PLOTSTYLENAME
350
E
  3
ACAD_TABLESTYLE
350
11A
  3
ACDBHEADERROUNDTRIPXREC
350
7900
  3
AcDbVariableDictionary
350
94
  3
AcmDictionary
350
5B
  3
AMG
350
41
  3
AMGSNAPSETTINGS
350
1B8
  3
DWGPROPS
350
78FF
  0
DICTIONARY
  5
3F9
330
2
100
AcDbDictionary
280
     1
281
     1
  3
ACAD_LAYERFILTERS
360
63AB
  3
ACAD_LAYERSTATES
360
72C
  3
ACLYDICTIONARY
360
63AA
  0
DICTIONARY
  5
8F
330
1F
100
AcDbDictionary
280
     1
281
     1
  0
DICTIONARY
  5
199F
330
199E
100
AcDbDictionary
280
     1
281
     1
  3
ACAD_DIMASSOC
360
19A0
  0
DICTIONARY
  5
19A2
330
19A1
100
AcDbDictionary
280
     1
281
     1
  3
ACAD_DIMASSOC
360
19A3
  0
DICTIONARY
  5
19A5
330
19A4
100
AcDbDictionary
280
     1
281
     1
  3
ACAD_DIMASSOC
360
19A6
  0
DICTIONARY
  5
19A8
330
19A7
100
AcDbDictionary
280
     1
281
     1
  3
ACAD_DIMASSOC
360
19A9
  0
DICTIONARY
  5
BE
102
{ACAD_REACTORS
330
C
102
}
330
C
100
AcDbDictionary
281
     1
  0
DICTIONARY
  5
D
102
{ACAD_REACTORS
330
C
102
}
330
C
100
AcDbDictionary
281
     1
  0
DICTIONARY
  5
1A
102
{ACAD_REACTORS
330
C
102
}
330
C
100
AcDbDictionary
281
     1
  3
Model
350
22
  3
配置1
350
1E
  3
配置2
350
26
  0
DICTIONARY
  5
BD
102
{ACAD_REACTORS
330
C
102
}
330
C
100
AcDbDictionary
281
     1
  0
DICTIONARY
  5
17
102
{ACAD_REACTORS
330
C
102
}
330
C
100
AcDbDictionary
281
     1
  3
Standard
350
18
  0
DICTIONARY
  5
19
102
{ACAD_REACTORS
330
C
102
}
330
C
100
AcDbDictionary
281
     1
  0
ACDBDICTIONARYWDFLT
  5
E
102
{ACAD_REACTORS
330
C
102
}
330
C
100
AcDbDictionary
281
     1
  3
Normal
350
F
  3
型式 1
350
728
  3
型式 2
350
729
  3
型式 3
350
72A
  3
型式 4
350
72B
100
AcDbDictionaryWithDefault
340
F
  0
DICTIONARY
  5
11A
102
{ACAD_REACTORS
330
C
102
}
330
C
100
AcDbDictionary
281
     1
  3
Standard
350
11B
  0
DICTIONARY
  5
7900
102
{ACAD_REACTORS
330
C
102
}
330
C
100
AcDbDictionary
281
     1
  0
DICTIONARY
  5
94
102
{ACAD_REACTORS
330
C
102
}
330
C
100
AcDbDictionary
281
     1
  3
CTABLESTYLE
350
138
  3
DIMASSOC
350
96
  3
INDEXCTL
350
95
  3
PROJECTNAME
350
78FD
  0
DICTIONARY
  5
5B
102
{ACAD_REACTORS
330
C
102
}
330
C
100
AcDbDictionary
281
     1
  3
AcmBOM
350
1B5
  3
AcmStdDictionary
350
61
  3
AMDTSECTSYM_ARROWCOLOR
350
123
  0
DICTIONARY
  5
41
102
{ACAD_REACTORS
330
C
102
}
330
C
100
AcDbDictionary
281
     1
  0
DICTIONARY
  5
1B8
102
{ACAD_REACTORS
330
C
102
}
330
C
100
AcDbDictionary
281
     1
  0
XRECORD
  5
78FF
102
{ACAD_REACTORS
330
C
102
}
330
C
100
AcDbXrecord
280
     1
  1
DWGPROPS COOKIE
  2

  3

  4

  6

  7

  8

  9

300
AmdtFileType=84
301
=
302
=
303
=
304
=
305
=
306
=
307
=
308
=
309
=
 40
0.2772789814814815
 41
2453556.605858461
 42
2453557.596242767
  1

 90
        1
  0
DICTIONARY
  5
63AB
102
{ACAD_REACTORS
330
3F9
102
}
330
3F9
100
AcDbDictionary
281
     1
  0
DICTIONARY
  5
72C
102
{ACAD_REACTORS
330
3F9
102
}
330
3F9
100
AcDbDictionary
281
     1
  0
DICTIONARY
  5
63AA
102
{ACAD_REACTORS
330
3F9
102
}
330
3F9
100
AcDbDictionary
281
     1
1001
ACAD
1000
<All
  0
DIMASSOC
  5
19A0
102
{ACAD_REACTORS
330
199F
102
}
330
199F
100
AcDbDimAssoc
330
199E
 90
        3
 70
     0
 71
     0
  1
AcDbOsnapPointRef
 72
    13
331
1997
 73
     0
 91
        0
 40
0.0
 10
0.0
 20
0.0
 30
2.000000000000000E+50
 75
     0
  1
AcDbOsnapPointRef
 72
     1
331
1999
 73
     0
 91
        0
 40
0.0
 10
0.0
 20
0.0
 30
2.000000000000000E+50
 75
     0
  0
DIMASSOC
  5
19A3
102
{ACAD_REACTORS
330
19A2
102
}
330
19A2
100
AcDbDimAssoc
330
19A1
 90
        3
 70
     0
 71
     0
  1
AcDbOsnapPointRef
 72
    13
331
199C
 73
     0
 91
        0
 40
0.0
 10
0.0
 20
0.0
 30
2.000000000000000E+50
 75
     0
  1
AcDbOsnapPointRef
 72
    13
331
199D
 73
     0
 91
        0
 40
0.0
 10
0.0
 20
0.0
 30
2.000000000000000E+50
 75
     0
  0
DIMASSOC
  5
19A6
102
{ACAD_REACTORS
330
19A5
102
}
330
19A5
100
AcDbDimAssoc
330
19A4
 90
        3
 70
     0
 71
     0
  1
AcDbOsnapPointRef
 72
     1
331
199D
 73
     0
 91
        0
 40
0.0
 10
0.0
 20
0.0
 30
2.000000000000000E+50
 75
     0
  1
AcDbOsnapPointRef
 72
     1
331
199A
 73
     0
 91
        0
 40
0.0
 10
0.0
 20
0.0
 30
2.000000000000000E+50
 75
     0
  0
DIMASSOC
  5
19A9
102
{ACAD_REACTORS
330
19A8
102
}
330
19A8
100
AcDbDimAssoc
330
19A7
 90
        3
 70
     0
 71
     0
  1
AcDbOsnapPointRef
 72
     1
331
1997
 73
     0
 91
        0
 40
0.0
 10
0.0
 20
0.0
 30
2.000000000000000E+50
 75
     0
  1
AcDbOsnapPointRef
 72
    13
331
1997
 73
     0
 91
        0
 40
0.0
 10
0.0
 20
0.0
 30
2.000000000000000E+50
 75
     0
  0
LAYOUT
  5
22
102
{ACAD_XDICTIONARY
360
7903
102
}
102
{ACAD_REACTORS
330
1A
102
}
330
1A
100
AcDbPlotSettings
  1

  2
\\RD\EPSON Stylus C63 Series單色
  4
A4
  6

 40
3.757083177566528
 41
3.757076978683471
 42
3.757080078125
 43
3.757080078125
 44
209.9733276367187
 45
296.9683227539062
 46
0.0
 47
0.0
 48
0.0
 49
0.0
140
0.0
141
0.0
142
1.0
143
0.3405120737814363
 70
 11952
 72
     1
 73
     0
 74
     0
  7
單色出圖.ctb
 75
     0
147
2.936753428137963
148
-2047.07469463503
149
-1261.649717473083
100
AcDbLayout
  1
Model
 70
     1
 71
     0
 10
0.0
 20
0.0
 11
12.0
 21
9.0
 12
0.0
 22
0.0
 32
0.0
 14
0.0
 24
0.0
 34
0.0
 15
0.0
 25
0.0
 35
0.0
146
0.0
 13
0.0
 23
0.0
 33
0.0
 16
1.0
 26
0.0
 36
0.0
 17
0.0
 27
1.0
 37
0.0
 76
     0
330
1F
1001
ACAD_PSEXT
1000
\\RD\EPSON Stylus C63 Series單色
1000
EPSON Stylus C63 Series
1000
\\RD
1000

1070
     0
  0
LAYOUT
  5
1E
102
{ACAD_XDICTIONARY
360
7901
102
}
102
{ACAD_REACTORS
330
1A
102
}
330
1A
100
AcDbPlotSettings
  1

  2

  4

  6

 40
0.0
 41
0.0
 42
0.0
 43
0.0
 44
0.0
 45
0.0
 46
0.0
 47
0.0
 48
0.0
 49
0.0
140
0.0
141
0.0
142
1.0
143
1.0
 70
   688
 72
     0
 73
     0
 74
     5
  7
單色出圖.ctb
 75
    16
147
1.0
148
0.0
149
0.0
100
AcDbLayout
  1
配置1
 70
     1
 71
     1
 10
0.0
 20
0.0
 11
420.0
 21
297.0
 12
0.0
 22
0.0
 32
0.0
 14
1.000000000000000E+20
 24
1.000000000000000E+20
 34
1.000000000000000E+20
 15
-1.000000000000000E+20
 25
-1.000000000000000E+20
 35
-1.000000000000000E+20
146
0.0
 13
0.0
 23
0.0
 33
0.0
 16
1.0
 26
0.0
 36
0.0
 17
0.0
 27
1.0
 37
0.0
 76
     0
330
1B
  0
LAYOUT
  5
26
102
{ACAD_XDICTIONARY
360
7905
102
}
102
{ACAD_REACTORS
330
1A
102
}
330
1A
100
AcDbPlotSettings
  1

  2

  4

  6

 40
0.0
 41
0.0
 42
0.0
 43
0.0
 44
0.0
 45
0.0
 46
0.0
 47
0.0
 48
0.0
 49
0.0
140
0.0
141
0.0
142
1.0
143
1.0
 70
   688
 72
     0
 73
     0
 74
     5
  7
單色出圖.ctb
 75
    16
147
1.0
148
0.0
149
0.0
100
AcDbLayout
  1
配置2
 70
     1
 71
     2
 10
0.0
 20
0.0
 11
12.0
 21
9.0
 12
0.0
 22
0.0
 32
0.0
 14
0.0
 24
0.0
 34
0.0
 15
0.0
 25
0.0
 35
0.0
146
0.0
 13
0.0
 23
0.0
 33
0.0
 16
1.0
 26
0.0
 36
0.0
 17
0.0
 27
1.0
 37
0.0
 76
     0
330
23
  0
MLINESTYLE
  5
18
102
{ACAD_REACTORS
330
17
102
}
330
17
100
AcDbMlineStyle
  2
STANDARD
 70
     0
  3

 62
   256
 51
90.0
 52
90.0
 71
     2
 49
0.5
 62
   256
  6
BYLAYER
 49
-0.5
 62
   256
  6
BYLAYER
  0
ACDBPLACEHOLDER
  5
F
102
{ACAD_REACTORS
330
E
102
}
330
E
  0
ACDBPLACEHOLDER
  5
728
102
{ACAD_REACTORS
330
E
102
}
330
E
  0
ACDBPLACEHOLDER
  5
729
102
{ACAD_REACTORS
330
E
102
}
330
E
  0
ACDBPLACEHOLDER
  5
72A
102
{ACAD_REACTORS
330
E
102
}
330
E
  0
ACDBPLACEHOLDER
  5
72B
102
{ACAD_REACTORS
330
E
102
}
330
E
  0
TABLESTYLE
  5
11B
102
{ACAD_REACTORS
330
11A
102
}
330
11A
100
AcDbTableStyle
  3
Standard
 70
     0
 71
     0
 40
1.5
 41
1.5
280
     0
281
     0
  7
STANDARD
140
4.5
170
     2
 62
     0
 63
     7
283
     0
274
    -2
284
     1
 64
     0
275
    -2
285
     1
 65
     0
276
    -2
286
     1
 66
     0
277
    -2
287
     1
 67
     0
278
    -2
288
     1
 68
     0
279
    -2
289
     1
 69
     0
  7
STANDARD
140
6.0
170
     5
 62
     0
 63
     7
283
     0
274
    -2
284
     1
 64
     0
275
    -2
285
     1
 65
     0
276
    -2
286
     1
 66
     0
277
    -2
287
     1
 67
     0
278
    -2
288
     1
 68
     0
279
    -2
289
     1
 69
     0
  7
STANDARD
140
4.5
170
     5
 62
     0
 63
     7
283
     0
274
    -2
284
     1
 64
     0
275
    -2
285
     1
 65
     0
276
    -2
286
     1
 66
     0
277
    -2
287
     1
 67
     0
278
    -2
288
     1
 68
     0
279
    -2
289
     1
 69
     0
  0
DICTIONARYVAR
  5
138
102
{ACAD_REACTORS
330
94
102
}
330
94
100
DictionaryVariables
280
     0
  1
STANDARD
  0
DICTIONARYVAR
  5
96
102
{ACAD_REACTORS
330
94
102
}
330
94
100
DictionaryVariables
280
     0
  1
2
  0
DICTIONARYVAR
  5
95
102
{ACAD_REACTORS
330
94
102
}
330
94
100
DictionaryVariables
280
     0
  1
0
  0
DICTIONARYVAR
  5
78FD
102
{ACAD_REACTORS
330
94
102
}
330
94
100
DictionaryVariables
280
     0
  1

  0
DICTIONARY
  5
1B5
102
{ACAD_REACTORS
330
5B
102
}
330
5B
100
AcDbDictionary
281
     1
  0
DICTIONARY
  5
61
102
{ACAD_REACTORS
330
5B
102
}
330
5B
100
AcDbDictionary
281
     1
  0
XRECORD
  5
123
102
{ACAD_REACTORS
330
5B
102
}
330
5B
100
AcDbXrecord
280
     1
 90
-1023410169
  0
DICTIONARY
  5
7903
330
22
100
AcDbDictionary
280
     1
281
     1
  3
ACAD_XREC_ROUNDTRIP
360
7904
  0
DICTIONARY
  5
7901
330
1E
100
AcDbDictionary
280
     1
281
     1
  3
ACAD_XREC_ROUNDTRIP
360
7902
  0
DICTIONARY
  5
7905
330
26
100
AcDbDictionary
280
     1
281
     1
  3
ACAD_XREC_ROUNDTRIP
360
7906
  0
XRECORD
  5
7904
102
{ACAD_REACTORS
330
7903
102
}
330
7903
100
AcDbXrecord
280
     1
102
SHADEPLOT
 70
     0
102
SHADEPLOTRESLEVEL
 70
     2
102
SHADEPLOTCUSTOMDPI
 70
   300
  0
XRECORD
  5
7902
102
{ACAD_REACTORS
330
7901
102
}
330
7901
100
AcDbXrecord
280
     1
102
SHADEPLOT
 70
     0
102
SHADEPLOTRESLEVEL
 70
     2
102
SHADEPLOTCUSTOMDPI
 70
   300
  0
XRECORD
  5
7906
102
{ACAD_REACTORS
330
7905
102
}
330
7905
100
AcDbXrecord
280
     1
102
SHADEPLOT
 70
     0
102
SHADEPLOTRESLEVEL
 70
     2
102
SHADEPLOTCUSTOMDPI
 70
   300
  0
ENDSEC
  0
EOF
