  0
SECTION
  2
HEADER
  9
$ACADVER
  1
AC1015
  9
$ACADMAINTVER
 70
    20
  9
$DWGCODEPAGE
  3
ANSI_950
  9
$INSBASE
 10
0.0
 20
0.0
 30
0.0
  9
$EXTMIN
 10
1897.66338343946
 20
961.8147693198416
 30
-0.0157336333086278
  9
$EXTMAX
 10
2984.892451245947
 20
2417.187516536197
 30
1031.85943450289
  9
$LIMMIN
 10
0.0
 20
0.0
  9
$LIMMAX
 10
420.0
 20
297.0
  9
$ORTHOMODE
 70
     1
  9
$REGENMODE
 70
     1
  9
$FILLMODE
 70
     1
  9
$QTEXTMODE
 70
     0
  9
$MIRRTEXT
 70
     1
  9
$LTSCALE
 40
1.0
  9
$ATTMODE
 70
     1
  9
$TEXTSIZE
 40
3.0
  9
$TRACEWID
 40
1.0
  9
$TEXTSTYLE
  7
CHINESET
  9
$CLAYER
  8
0
  9
$CELTYPE
  6
ByLayer
  9
$CECOLOR
 62
   256
  9
$CELTSCALE
 40
1.0
  9
$DISPSILH
 70
     0
  9
$DIMSCALE
 40
1.0
  9
$DIMASZ
 40
20.0
  9
$DIMEXO
 40
3.0
  9
$DIMDLI
 40
50.0
  9
$DIMRND
 40
0.0
  9
$DIMDLE
 40
0.0
  9
$DIMEXE
 40
4.0
  9
$DIMTP
 40
0.1
  9
$DIMTM
 40
0.1
  9
$DIMTXT
 40
20.0
  9
$DIMCEN
 40
0.0
  9
$DIMTSZ
 40
0.0
  9
$DIMTOL
 70
     0
  9
$DIMLIM
 70
     0
  9
$DIMTIH
 70
     0
  9
$DIMTOH
 70
     0
  9
$DIMSE1
 70
     0
  9
$DIMSE2
 70
     0
  9
$DIMTAD
 70
     1
  9
$DIMZIN
 70
     8
  9
$DIMBLK
  1

  9
$DIMASO
 70
     1
  9
$DIMSHO
 70
     1
  9
$DIMPOST
  1

  9
$DIMAPOST
  1
"
  9
$DIMALT
 70
     0
  9
$DIMALTD
 70
     2
  9
$DIMALTF
 40
0.0393701
  9
$DIMLFAC
 40
1.0
  9
$DIMTOFL
 70
     1
  9
$DIMTVP
 40
0.0
  9
$DIMTIX
 70
     0
  9
$DIMSOXD
 70
     0
  9
$DIMSAH
 70
     0
  9
$DIMBLK1
  1

  9
$DIMBLK2
  1

  9
$DIMSTYLE
  2
AM_ISO
  9
$DIMCLRD
 70
   256
  9
$DIMCLRE
 70
   256
  9
$DIMCLRT
 70
   256
  9
$DIMTFAC
 40
0.71
  9
$DIMGAP
 40
6.0
  9
$DIMJUST
 70
     0
  9
$DIMSD1
 70
     0
  9
$DIMSD2
 70
     0
  9
$DIMTOLJ
 70
     2
  9
$DIMTZIN
 70
     8
  9
$DIMALTZ
 70
     0
  9
$DIMALTTZ
 70
     0
  9
$DIMUPT
 70
     0
  9
$DIMDEC
 70
     2
  9
$DIMTDEC
 70
     8
  9
$DIMALTU
 70
     2
  9
$DIMALTTD
 70
     2
  9
$DIMTXSTY
  7
STANDARD
  9
$DIMAUNIT
 70
     0
  9
$DIMADEC
 70
     0
  9
$DIMALTRND
 40
0.0
  9
$DIMAZIN
 70
     2
  9
$DIMDSEP
 70
    46
  9
$DIMATFIT
 70
     3
  9
$DIMFRAC
 70
     0
  9
$DIMLDRBLK
  1

  9
$DIMLUNIT
 70
     2
  9
$DIMLWD
 70
    -1
  9
$DIMLWE
 70
    -1
  9
$DIMTMOVE
 70
     0
  9
$LUNITS
 70
     2
  9
$LUPREC
 70
     2
  9
$SKETCHINC
 40
1.0
  9
$FILLETRAD
 40
2.5
  9
$AUNITS
 70
     0
  9
$AUPREC
 70
     0
  9
$MENU
  1
.
  9
$ELEVATION
 40
0.0
  9
$PELEVATION
 40
0.0
  9
$THICKNESS
 40
0.0
  9
$LIMCHECK
 70
     0
  9
$CHAMFERA
 40
2.5
  9
$CHAMFERB
 40
2.5
  9
$CHAMFERC
 40
20.0
  9
$CHAMFERD
 40
0.0
  9
$SKPOLY
 70
     0
  9
$TDCREATE
 40
2453556.605858461
  9
$TDUCREATE
 40
2453556.272525128
  9
$TDUPDATE
 40
2453557.596592882
  9
$TDUUPDATE
 40
2453557.263259549
  9
$TDINDWG
 40
0.2705418056
  9
$TDUSRTIMER
 40
0.2705416319
  9
$USRTIMER
 70
     1
  9
$ANGBASE
 50
0.0
  9
$ANGDIR
 70
     0
  9
$PDMODE
 70
     0
  9
$PDSIZE
 40
0.0
  9
$PLINEWID
 40
0.0
  9
$SPLFRAME
 70
     0
  9
$SPLINETYPE
 70
     6
  9
$SPLINESEGS
 70
     8
  9
$HANDSEED
  5
7918
  9
$SURFTAB1
 70
     6
  9
$SURFTAB2
 70
     6
  9
$SURFTYPE
 70
     6
  9
$SURFU
 70
     6
  9
$SURFV
 70
     6
  9
$UCSBASE
  2

  9
$UCSNAME
  2

  9
$UCSORG
 10
0.0
 20
0.0
 30
0.0
  9
$UCSXDIR
 10
1.0
 20
0.0
 30
0.0
  9
$UCSYDIR
 10
0.0
 20
1.0
 30
0.0
  9
$UCSORTHOREF
  2

  9
$UCSORTHOVIEW
 70
     0
  9
$UCSORGTOP
 10
0.0
 20
0.0
 30
0.0
  9
$UCSORGBOTTOM
 10
0.0
 20
0.0
 30
0.0
  9
$UCSORGLEFT
 10
0.0
 20
0.0
 30
0.0
  9
$UCSORGRIGHT
 10
0.0
 20
0.0
 30
0.0
  9
$UCSORGFRONT
 10
0.0
 20
0.0
 30
0.0
  9
$UCSORGBACK
 10
0.0
 20
0.0
 30
0.0
  9
$PUCSBASE
  2

  9
$PUCSNAME
  2

  9
$PUCSORG
 10
0.0
 20
0.0
 30
0.0
  9
$PUCSXDIR
 10
1.0
 20
0.0
 30
0.0
  9
$PUCSYDIR
 10
0.0
 20
1.0
 30
0.0
  9
$PUCSORTHOREF
  2

  9
$PUCSORTHOVIEW
 70
     0
  9
$PUCSORGTOP
 10
0.0
 20
0.0
 30
0.0
  9
$PUCSORGBOTTOM
 10
0.0
 20
0.0
 30
0.0
  9
$PUCSORGLEFT
 10
0.0
 20
0.0
 30
0.0
  9
$PUCSORGRIGHT
 10
0.0
 20
0.0
 30
0.0
  9
$PUCSORGFRONT
 10
0.0
 20
0.0
 30
0.0
  9
$PUCSORGBACK
 10
0.0
 20
0.0
 30
0.0
  9
$USERI1
 70
     0
  9
$USERI2
 70
     0
  9
$USERI3
 70
     0
  9
$USERI4
 70
     0
  9
$USERI5
 70
     0
  9
$USERR1
 40
0.0
  9
$USERR2
 40
0.0
  9
$USERR3
 40
0.0
  9
$USERR4
 40
0.0
  9
$USERR5
 40
0.0
  9
$WORLDVIEW
 70
     1
  9
$SHADEDGE
 70
     3
  9
$SHADEDIF
 70
    70
  9
$TILEMODE
 70
     1
  9
$MAXACTVP
 70
    64
  9
$PINSBASE
 10
0.0
 20
0.0
 30
0.0
  9
$PLIMCHECK
 70
     0
  9
$PEXTMIN
 10
1.000000000000000E+20
 20
1.000000000000000E+20
 30
1.000000000000000E+20
  9
$PEXTMAX
 10
-1.000000000000000E+20
 20
-1.000000000000000E+20
 30
-1.000000000000000E+20
  9
$PLIMMIN
 10
0.0
 20
0.0
  9
$PLIMMAX
 10
420.0
 20
297.0
  9
$UNITMODE
 70
     0
  9
$VISRETAIN
 70
     1
  9
$PLINEGEN
 70
     0
  9
$PSLTSCALE
 70
     1
  9
$TREEDEPTH
 70
  3020
  9
$CMLSTYLE
  2
Standard
  9
$CMLJUST
 70
     0
  9
$CMLSCALE
 40
20.0
  9
$PROXYGRAPHICS
 70
     1
  9
$MEASUREMENT
 70
     1
  9
$CELWEIGHT
370
    -1
  9
$ENDCAPS
280
     0
  9
$JOINSTYLE
280
     0
  9
$LWDISPLAY
290
     0
  9
$INSUNITS
 70
     4
  9
$HYPERLINKBASE
  1

  9
$STYLESHEET
  1
彩色出圖.ctb
  9
$XEDIT
290
     1
  9
$CEPSNTYPE
380
     0
  9
$PSTYLEMODE
290
     1
  9
$FINGERPRINTGUID
  2
{6FBFCDA8-F3CD-4AA6-B64B-DBECB1E66A4A}
  9
$VERSIONGUID
  2
{7F0C8EF5-5E45-4245-B319-517F11E19BF2}
  9
$EXTNAMES
290
     1
  9
$PSVPSCALE
 40
0.0
  9
$OLESTARTUP
290
     0
  0
ENDSEC
  0
SECTION
  2
CLASSES
  0
CLASS
  1
ACDBDICTIONARYWDFLT
  2
AcDbDictionaryWithDefault
  3
ObjectDBX Classes
 90
        0
280
     0
281
     0
  0
CLASS
  1
ACDBPLACEHOLDER
  2
AcDbPlaceHolder
  3
ObjectDBX Classes
 90
        0
280
     0
281
     0
  0
CLASS
  1
LAYOUT
  2
AcDbLayout
  3
ObjectDBX Classes
 90
        0
280
     0
281
     0
  0
CLASS
  1
ACME_DOCUMENT
  2
AcMeDbDoc
  3
AcMeServices
 90
        0
280
     0
281
     0
  0
CLASS
  1
AMGSETTINGSOBJ
  2
AmgSettingsObj
  3
"AcadM|Product Description: AutoCAD Mechanical 2000|Company: Autodesk"
 90
        0
280
     0
281
     0
  0
CLASS
  1
ACMESCOPE
  2
AcMeScope
  3
AcMeServices
 90
        0
280
     0
281
     0
  0
CLASS
  1
ACMECOMMANDHISTORY
  2
AcMeCommandHistory
  3
AcMeServices
 90
        0
280
     0
281
     0
  0
CLASS
  1
ACIMSYSVARMAN
  2
AcImSysVarManager
  3
AcMeServices
 90
        0
280
     0
281
     0
  0
CLASS
  1
ACIMREALSYSVAR
  2
AcImRealSysVar
  3
AcMeServices
 90
        0
280
     0
281
     0
  0
CLASS
  1
ACIMINTSYSVAR
  2
AcImIntSysVar
  3
AcMeServices
 90
        0
280
     0
281
     0
  0
CLASS
  1
ACMEDRAWINGMAN
  2
AcMeDrawingMan
  3
AcMeServices
 90
        0
280
     0
281
     0
  0
CLASS
  1
ACMEVIEW
  2
AcMeView
  3
AcMeServices
 90
        0
280
     0
281
     0
  0
CLASS
  1
ACDBENTITYCACHE
  2
AcMeEntityCache
  3
AcMeServices
 90
        0
280
     0
281
     0
  0
CLASS
  1
GSMANAGER
  2
AcMeGSManager
  3
AcMeServices
 90
        0
280
     0
281
     0
  0
CLASS
  1
AMDTINTERNALREACTOR
  2
AmdtInternalReactor
  3
AcMeServices
 90
        0
280
     0
281
     0
  0
CLASS
  1
ACMESTATEMGR
  2
AcMeStateMgr
  3
AcMeServices
 90
        0
280
     0
281
     0
  0
CLASS
  1
ACGREFMASTER
  2
AcGrefMaster
  3
AcAttribServices
 90
        0
280
     0
281
     0
  0
CLASS
  1
ACME_DATABASE
  2
AcMeDbDatabase
  3
AcMeServices
 90
        0
280
     0
281
     0
  0
CLASS
  1
ACRFINSADJUSTERMGR
  2
AcRfInsAdjusterMgr
  3
AcMeServices
 90
        0
280
     0
281
     0
  0
CLASS
  1
ACGREFACADMASTER
  2
AcGrefacadMaster
  3
AcGrefServices
 90
        0
280
     0
281
     0
  0
CLASS
  1
AMIMASTER
  2
AmiMaster
  3
AmiServices
 90
        0
280
     0
281
     0
  0
CLASS
  1
ACMDATADICTIONARY
  2
AcmDataDictionary
  3
"AcmSymBB|Product Description: AutoCAD Mechanical 2004 DX|Company: Autodesk"
 90
        0
280
     0
281
     0
  0
CLASS
  1
ACMDATAENTRYBLOCK
  2
AcmDataEntryBlock
  3
"AcmSymBB|Product Description: AutoCAD Mechanical 2004 DX|Company: Autodesk"
 90
        0
280
     0
281
     0
  0
CLASS
  1
ACIMSTRSYSVAR
  2
AcImStrSysVar
  3
AcMeServices
 90
        0
280
     0
281
     0
  0
CLASS
  1
ACMSTANDARDISO
  2
AcmStandardISO
  3
"Amdt_StdImp|Product Description: AutoCAD Mechanical 2004 DX|Company: Autodesk"
 90
        0
280
     0
281
     0
  0
CLASS
  1
AMGOBJPROPCFG
  2
AmgObjPropCfg
  3
"AmgLay|Product Description: AutoCAD Mechanical 2000|Company: Autodesk"
 90
        1
280
     0
281
     0
  0
CLASS
  1
AMDTEDGESTANDARDISO
  2
AmdtEdgeStdISO
  3
"Amdt_StdImp|Product Description: AutoCAD Mechanical 2004 DX|Company: Autodesk"
 90
        0
280
     0
281
     0
  0
CLASS
  1
ACMSURFSTANDARDISO
  2
AcmSurfTextStdISO
  3
"Amdt_StdImp|Product Description: AutoCAD Mechanical 2004 DX|Company: Autodesk"
 90
        0
280
     0
281
     0
  0
CLASS
  1
ACMFCFSTANDARDISO
  2
AcmFCFStdISO
  3
"Amdt_StdImp|Product Description: AutoCAD Mechanical 2004 DX|Company: Autodesk"
 90
        0
280
     0
281
     0
  0
CLASS
  1
ACMWELDSTANDARDISO
  2
AcmWeldingStdISO
  3
"Amdt_StdImp|Product Description: AutoCAD Mechanical 2004 DX|Company: Autodesk"
 90
        0
280
     0
281
     0
  0
CLASS
  1
ACMIDSTANDARDISO
  2
AcmIdStdISO
  3
"Amdt_StdImp|Product Description: AutoCAD Mechanical 2004 DX|Company: Autodesk"
 90
        0
280
     0
281
     0
  0
CLASS
  1
ACMDATUMSTANDARDISO
  2
AcmDatumStdISO
  3
"Amdt_StdImp|Product Description: AutoCAD Mechanical 2004 DX|Company: Autodesk"
 90
        0
280
     0
281
     0
  0
CLASS
  1
ACMBOMSTANDARDISO
  2
AcmBOMStdISO
  3
"Amdt_StdImp|Product Description: AutoCAD Mechanical 2004 DX|Company: Autodesk"
 90
        0
280
     0
281
     0
  0
CLASS
  1
ACMDETAILSTANDARDISO
  2
AmdtDetailSymStdISO
  3
"Amdt_StdImp|Product Description: AutoCAD Mechanical 2004 DX|Company: Autodesk"
 90
        0
280
     0
281
     0
  0
CLASS
  1
ACMSECTIONSTANDARDISO
  2
AmdtSectionSymStdISO
  3
"Amdt_StdImp|Product Description: AutoCAD Mechanical 2004 DX|Company: Autodesk"
 90
        0
280
     0
281
     0
  0
CLASS
  1
ACMCENTERLINESTANDARDISO
  2
AmdtCenterLineStdISO
  3
"Amdt_StdImp|Product Description: AutoCAD Mechanical 2004 DX|Company: Autodesk"
 90
        0
280
     0
281
     0
  0
CLASS
  1
ACMNOTESTANDARDISO
  2
AmdtNoteStdISO
  3
"Amdt_StdImp|Product Description: AutoCAD Mechanical 2004 DX|Company: Autodesk"
 90
        0
280
     0
281
     0
  0
CLASS
  1
ACAMGLAYSTD
  2
AcAmgLayStd
  3
"AcAmgLayStd|Product Description: AutoCAD Mechanical 2000|Company: Autodesk"
 90
        0
280
     0
281
     0
  0
CLASS
  1
ACAMGDIMSTD
  2
AcAmgDimStd
  3
"AcAmgDimStd|Product Description: AutoCAD Mechanical 2000|Company: Autodesk"
 90
        0
280
     0
281
     0
  0
CLASS
  1
ACAMGHOLECHARTSTDISO
  2
AcAmgHoleChartStdISO
  3
ACMSYMBB_MODULE_NAME
 90
        0
280
     0
281
     0
  0
CLASS
  1
ACAMGTITLESTD
  2
AcAmgTitleStd
  3
"TITLEAPP"
 90
        0
280
     0
281
     0
  0
CLASS
  1
LAYER_INDEX
  2
AcDbLayerIndex
  3
ObjectDBX Classes
 90
    32768
280
     0
281
     0
  0
CLASS
  1
IDBUFFER
  2
AcDbIdBuffer
  3
ObjectDBX Classes
 90
    32768
280
     0
281
     0
  0
CLASS
  1
DICTIONARYVAR
  2
AcDbDictionaryVar
  3
ObjectDBX Classes
 90
        0
280
     0
281
     0
  0
CLASS
  1
AM_DRAWING_MGR
  2
AcDmDwgMgr
  3
AcMechDwgViewMgmt
 90
        0
280
     0
281
     0
  0
CLASS
  1
AM_DWG_DOCUMENT
  2
AcDmDwgDocument
  3
AcMechDwgViewMgmt
 90
        0
280
     0
281
     0
  0
CLASS
  1
AM_DWG_SHEET
  2
AcDmSheet
  3
AcMechDwgViewMgmt
 90
        0
280
     0
281
     0
  0
CLASS
  1
AM_VIEWDIMPARMAP
  2
AcDmViewDimParMap
  3
AcMechDwgViewMgmt
 90
        0
280
     0
281
     0
  0
CLASS
  1
AM_DWGMGR_NAME
  2
AcDmDwgMgrName
  3
AcMechDwgViewMgmt
 90
        0
280
     0
281
     0
  0
CLASS
  1
AMDTMENUSTATEMGR
  2
AmdtMenuStateMgr
  3
McadcomServices
 90
        0
280
     0
281
     0
  0
CLASS
  1
AMDTMCOMMENUSTATE
  2
AmdtMcomMenuState
  3
McadcomServices
 90
        0
280
     0
281
     0
  0
CLASS
  1
MAPIAMMOUDLE
  2
MApiAmModule
  3
MApiAmServices
 90
        0
280
     0
281
     0
  0
CLASS
  1
AMDTADMENUSTATE
  2
AmdtAdMenuState
  3
DesignerServices
 90
        0
280
     0
281
     0
  0
CLASS
  1
ADAPPL
  2
AcAdAppl
  3
DesignerServices
 90
        0
280
     0
281
     0
  0
CLASS
  1
DEPMGR
  2
AcAdDepMgr
  3
DesignerServices
 90
        0
280
     0
281
     0
  0
CLASS
  1
PARAMMGR
  2
AcAdParamMgr
  3
DesignerServices
 90
        0
280
     0
281
     0
  0
CLASS
  1
PARAMSCOPE
  2
AcAdParamScope
  3
DesignerServices
 90
        0
280
     0
281
     0
  0
CLASS
  1
NAMEDAPPL
  2
AcAdNamedAppl
  3
DesignerServices
 90
        0
280
     0
281
     0
  0
CLASS
  1
AMDTDMMENUSTATE
  2
AmdtDmMenuState
  3
AcMechDwgViewMgmt
 90
        0
280
     0
281
     0
  0
CLASS
  1
AMDTAMMENUSTATE
  2
AmdtAmMenuState
  3
DesignerAssemblies
 90
        0
280
     0
281
     0
  0
CLASS
  1
ACAMPROJECT
  2
AcAmProject
  3
DesignerAssemblies
 90
        0
280
     0
281
     0
  0
CLASS
  1
ACAMGRCOMPDEF
  2
AcAmGrCompDef
  3
DesignerAssemblies
 90
        0
280
     0
281
     0
  0
CLASS
  1
ACCMCONTEXT
  2
AcCmContext
  3
DesignerAssemblies
 90
        0
280
     0
281
     0
  0
CLASS
  1
ACAMCOMPDEF
  2
AcAmCompDef
  3
DesignerAssemblies
 90
        0
280
     0
281
     0
  0
CLASS
  1
ACAMCOMPDEFMGR
  2
AcAmCompDefMgr
  3
DesignerAssemblies
 90
        0
280
     0
281
     0
  0
CLASS
  1
AMCONTEXTMGR
  2
AcAmContextMgr
  3
DesignerAssemblies
 90
        0
280
     0
281
     0
  0
CLASS
  1
ACAMCONTEXTMODELER
  2
AcAmContextModeler
  3
DesignerAssemblies
 90
        0
280
     0
281
     0
  0
CLASS
  1
ACMTHREADLINESTANDARDISO
  2
AmdtThreadLineStdISO
  3
"Amdt_StdImp|Product Description: AutoCAD Mechanical 2004 DX|Company: Autodesk"
 90
        0
280
     0
281
     0
  0
CLASS
  1
CATALOGSTATE
  2
AcAmCatalogState
  3
DesignerAssemblies
 90
        0
280
     0
281
     0
  0
CLASS
  1
ACAMGRCOMPDEFSET
  2
AcAmGrCompDefSet
  3
DesignerAssemblies
 90
        0
280
     0
281
     0
  0
CLASS
  1
AMDTBROWSERDBTAB
  2
AmdtBrowserDbTab
  3
McadcomServices
 90
        0
280
     0
281
     0
  0
CLASS
  1
CBROWSERAPPOBJECT
  2
CBrowserAppObject
  3
McadcomServices
 90
        0
280
     0
281
     0
  0
CLASS
  1
DM_PLACEHOLDER
  2
AcDmSelsetPlaceholder
  3
AcMechDwgViewMgmt
 90
        0
280
     0
281
     0
  0
CLASS
  1
TABLESTYLE
  2
AcDbTableStyle
  3
ObjectDBX Classes
 90
     2047
280
     0
281
     0
  0
CLASS
  1
VAACXREFPANELOBJECT
  2
VaAcXREFPanelObject
  3
VAAC_ADDIN
 90
    32768
280
     0
281
     0
  0
CLASS
  1
VAACIMAGEINVENTORY
  2
VaAcImageInventory
  3
VAAC_ADDIN
 90
    32768
280
     0
281
     0
  0
CLASS
  1
AMDTNOTETEMPLATEDB
  2
AmdtNoteTemplateDB
  3
AMDT_STDIMP_MODULE_NAME
 90
        0
280
     0
281
     0
  0
CLASS
  1
ACMBOM
  2
AcmBom
  3
"AcmSymBB|Product Description: AutoCAD Mechanical 2004 DX|Company: Autodesk"
 90
    32768
280
     0
281
     0
  0
CLASS
  1
AMDTFORMULAUPDATEDISPATCHER
  2
AmdtFormulaUpdateDispatcher
  3
AcMeServices
 90
        0
280
     0
281
     0
  0
CLASS
  1
ACMPARTLIST
  2
AcmPartList
  3
"AcmSymBB|Product Description: AutoCAD Mechanical 2004 DX|Company: Autodesk"
 90
    33791
280
     0
281
     1
  0
CLASS
  1
ACAMGFILTERDAT
  2
AcAmgFilterDat
  3
"AcadM|Product Description: AutoCAD Mechanical 2000|Company: Autodesk"
 90
        0
280
     0
281
     0
  0
CLASS
  1
DIMASSOC
  2
AcDbDimAssoc
  3
"AcDbDimAssoc|Product Desc:     AcDim ARX App For Dimension|Company:          Autodesk, Inc.|WEB Address:      www.autodesk.com"
 90
        0
280
     0
281
     0
  0
CLASS
  1
ACAMGHOLECHARTORIGIN
  2
AcAmgHoleChartOrigin
  3
ACMSYMBB_MODULE_NAME
 90
    33663
280
     0
281
     1
  0
CLASS
  1
AMDTNOTE
  2
AmdtNote
  3
"AcmSymBB|Product Description: AutoCAD Mechanical 2004 DX|Company: Autodesk"
 90
     1023
280
     0
281
     1
  0
CLASS
  1
ACRFATTGENMGR
  2
AcRfAttGeneralMgr
  3
AcAttribServices
 90
        0
280
     0
281
     0
  0
ENDSEC
  0
SECTION
  2
TABLES
  0
TABLE
  2
VPORT
  5
8
330
0
100
AcDbSymbolTable
 70
     3
  0
VPORT
  5
790F
330
8
100
AcDbSymbolTableRecord
100
AcDbViewportTableRecord
  2
*Active
 70
     0
 10
0.0
 20
0.0
 11
1.0
 21
1.0
 12
2441.317278390844
 22
1689.449581084824
 13
0.0
 23
0.0
 14
2.5
 24
2.5
 15
10.0
 25
10.0
 16
0.0
 26
0.0
 36
1.0
 17
0.0
 27
0.0
 37
0.0
 40
1471.922103683612
 41
1.817669172932331
 42
50.0
 43
0.0
 44
0.0
 50
0.0
 51
0.0
 71
     0
 72
   100
 73
     1
 74
     3
 75
     0
 76
     0
 77
     0
 78
     0
281
     0
 65
     1
110
0.0
120
0.0
130
0.0
111
1.0
121
0.0
131
0.0
112
0.0
122
1.0
132
0.0
 79
     0
146
0.0
  0
ENDTAB
  0
TABLE
  2
LTYPE
  5
5
330
0
100
AcDbSymbolTable
 70
    16
  0
LTYPE
  5
14
330
5
100
AcDbSymbolTableRecord
100
AcDbLinetypeTableRecord
  2
ByBlock
 70
     0
  3

 72
    65
 73
     0
 40
0.0
  0
LTYPE
  5
15
330
5
100
AcDbSymbolTableRecord
100
AcDbLinetypeTableRecord
  2
ByLayer
 70
     0
  3

 72
    65
 73
     0
 40
0.0
  0
LTYPE
  5
16
330
5
100
AcDbSymbolTableRecord
100
AcDbLinetypeTableRecord
  2
Continuous
 70
     0
  3
Solid line
 72
    65
 73
     0
 40
0.0
  0
LTYPE
  5
64
330
5
100
AcDbSymbolTableRecord
100
AcDbLinetypeTableRecord
  2
AM_ISO02W050
 70
     0
  3
__ __ __ __ __ __ __ __ __ __ __ __ __ __ __
 72
    65
 73
     2
 40
7.5
 49
6.0
 74
     0
 49
-1.5
 74
     0
  0
LTYPE
  5
65
330
5
100
AcDbSymbolTableRecord
100
AcDbLinetypeTableRecord
  2
AM_ISO08W050
 70
     0
  3
____ . ____ . ____ . ____ . ____ . ____ . ____
 72
    65
 73
     4
 40
18.0
 49
12.0
 74
     0
 49
-1.5
 74
     0
 49
3.0
 74
     0
 49
-1.5
 74
     0
  0
LTYPE
  5
66
330
5
100
AcDbSymbolTableRecord
100
AcDbLinetypeTableRecord
  2
AM_ISO09W050
 70
     0
  3
_____ . . _____ . . _____ . . ____ .. ____
 72
    65
 73
     6
 40
22.5
 49
12.0
 74
     0
 49
-1.5
 74
     0
 49
3.0
 74
     0
 49
-1.5
 74
     0
 49
3.0
 74
     0
 49
-1.5
 74
     0
  0
LTYPE
  5
67
330
5
100
AcDbSymbolTableRecord
100
AcDbLinetypeTableRecord
  2
Amconstr
 70
     0
  3
_______________________
 72
    65
 73
     2
 40
9999.0
 49
9999.0
 74
     0
 49
0.0
 74
     0
  0
LTYPE
  5
68
330
5
100
AcDbSymbolTableRecord
100
AcDbLinetypeTableRecord
  2
AM_ISO08W050x2
 70
     0
  3
__ . __ . __ . __ . __ . __
 72
    65
 73
     4
 40
9.0
 49
6.0
 74
     0
 49
-0.75
 74
     0
 49
1.5
 74
     0
 49
-0.75
 74
     0
  0
LTYPE
  5
69
330
5
100
AcDbSymbolTableRecord
100
AcDbLinetypeTableRecord
  2
AM_ISO02W050x2
 70
     0
  3
 _ _ _ _ _ _ _ _ _ _ _ _
 72
    65
 73
     2
 40
3.75
 49
3.0
 74
     0
 49
-0.75
 74
     0
  0
LTYPE
  5
6C
330
5
100
AcDbSymbolTableRecord
100
AcDbLinetypeTableRecord
  2
Amzigzag
 70
     0
  3
/\/-/\/-/\/-/\/-/\/-/\/
 72
    65
 73
     2
 40
11.0001
 49
0.0001
 74
     4
 75
   135
340
6B
 46
0.04
 50
0.0
 44
0.0
 45
0.0
 49
-11.0
 74
     0
  0
LTYPE
  5
7A
330
5
100
AcDbSymbolTableRecord
100
AcDbLinetypeTableRecord
  2
ACISOWELD
 70
     0
  3
_ _ _ _ _
 72
    65
 73
     2
 40
2.0
 49
2.0
 74
     0
 49
-1.0
 74
     0
  0
LTYPE
  5
7B
330
5
100
AcDbSymbolTableRecord
100
AcDbLinetypeTableRecord
  2
ACISOTGB
 70
     0
  3
__ . . __ . .
 72
    65
 73
     6
 40
9.0
 49
4.0
 74
     0
 49
-1.0
 74
     0
 49
1.0
 74
     0
 49
-1.0
 74
     0
 49
1.0
 74
     0
 49
-1.0
 74
     0
  0
LTYPE
  5
7C
330
5
100
AcDbSymbolTableRecord
100
AcDbLinetypeTableRecord
  2
ACISOTGL
 70
     0
  3
_ _ _ _ _
 72
    65
 73
     2
 40
3.0
 49
2.0
 74
     0
 49
-1.0
 74
     0
  0
LTYPE
  5
7E
330
5
100
AcDbSymbolTableRecord
100
AcDbLinetypeTableRecord
  2
CENTER
 70
     0
  3
__ . __
 72
    65
 73
     4
 40
7.0
 49
4.0
 74
     0
 49
-1.0
 74
     0
 49
1.0
 74
     0
 49
-1.0
 74
     0
  0
LTYPE
  5
D8
330
5
100
AcDbSymbolTableRecord
100
AcDbLinetypeTableRecord
  2
HIDDEN
 70
     0
  3
Hidden __ __ __ __ __ __ __ __ __ __ __ __ __ _
 72
    65
 73
     2
 40
9.524999999999998
 49
6.349999999999999
 74
     0
 49
-3.174999999999999
 74
     0
  0
LTYPE
  5
D9
330
5
100
AcDbSymbolTableRecord
100
AcDbLinetypeTableRecord
  2
PHANTOM2
 70
     0
  3
Phantom (.5x) ___ _ _ ___ _ _ ___ _ _ ___ _ _
 72
    65
 73
     6
 40
31.75
 49
15.875
 74
     0
 49
-3.174999999999999
 74
     0
 49
3.174999999999999
 74
     0
 49
-3.174999999999999
 74
     0
 49
3.174999999999999
 74
     0
 49
-3.174999999999999
 74
     0
  0
LTYPE
  5
71F
330
5
100
AcDbSymbolTableRecord
100
AcDbLinetypeTableRecord
  2
HIDDEN2
 70
     0
  3
Hidden (.5x) _ _ _ _ _ _ _ _ _ _ _ _ _ _ _ _ _
 72
    65
 73
     2
 40
4.762499999999999
 49
3.174999999999999
 74
     0
 49
-1.587499999999999
 74
     0
  0
LTYPE
  5
63A7
330
5
100
AcDbSymbolTableRecord
100
AcDbLinetypeTableRecord
  2
CENTERX2
 70
     0
  3
Center (2x) ________  __  ________  __  _____
 72
    65
 73
     4
 40
101.6
 49
63.5
 74
     0
 49
-12.7
 74
     0
 49
12.7
 74
     0
 49
-12.7
 74
     0
  0
ENDTAB
  0
TABLE
  2
LAYER
  5
2
102
{ACAD_XDICTIONARY
360
3F9
102
}
330
0
100
AcDbSymbolTable
 70
     9
  0
LAYER
  5
10
330
2
100
AcDbSymbolTableRecord
100
AcDbLayerTableRecord
  2
0
 70
     0
 62
     7
  6
Continuous
370
    -3
390
F
  0
LAYER
  5
206
330
2
100
AcDbSymbolTableRecord
100
AcDbLayerTableRecord
  2
Defpoints
 70
     0
 62
     7
  6
Continuous
290
     0
370
    -3
390
F
  0
LAYER
  5
720
330
2
100
AcDbSymbolTableRecord
100
AcDbLayerTableRecord
  2
圖層1輪廓線
 70
     0
 62
     7
  6
Continuous
370
    50
390
728
  0
LAYER
  5
721
330
2
100
AcDbSymbolTableRecord
100
AcDbLayerTableRecord
  2
圖層2中心線
 70
     0
 62
     1
  6
CENTERX2
370
    18
390
729
  0
LAYER
  5
722
330
2
100
AcDbSymbolTableRecord
100
AcDbLayerTableRecord
  2
圖層3虛線
 70
     0
 62
     3
  6
HIDDEN2
370
    25
390
72A
  0
LAYER
  5
723
330
2
100
AcDbSymbolTableRecord
100
AcDbLayerTableRecord
  2
圖層4尺寸線
 70
     0
 62
     5
  6
Continuous
370
    25
390
72B
  0
LAYER
  5
B2A
330
2
100
AcDbSymbolTableRecord
100
AcDbLayerTableRecord
  2
AM_5
 70
     0
 62
     5
  6
Continuous
370
    50
390
F
  0
LAYER
  5
15F9
330
2
100
AcDbSymbolTableRecord
100
AcDbLayerTableRecord
  2
AM_7
 70
     0
 62
     1
  6
CENTER
370
    25
390
F
  0
LAYER
  5
7624
330
2
100
AcDbSymbolTableRecord
100
AcDbLayerTableRecord
  2
LOGO
 70
     0
 62
     7
  6
Continuous
370
    -3
390
F
  0
ENDTAB
  0
TABLE
  2
STYLE
  5
3
330
0
100
AcDbSymbolTable
 70
     7
  0
STYLE
  5
11
330
3
100
AcDbSymbolTableRecord
100
AcDbTextStyleTableRecord
  2
STANDARD
 70
     0
 40
0.0
 41
1.0
 50
0.0
 71
     0
 42
3.0
  3
ISOCP.SHX
  4
CHINESET.SHX
  0
STYLE
  5
6B
330
3
100
AcDbSymbolTableRecord
100
AcDbTextStyleTableRecord
  2

 70
     1
 40
0.0
 41
1.0
 50
0.0
 71
     0
 42
2.5
  3
ltypeshp.shx
  4

  0
STYLE
  5
6D
330
3
100
AcDbSymbolTableRecord
100
AcDbTextStyleTableRecord
  2
ACISOTS
 70
     0
 40
1.0
 41
1.0
 50
0.0
 71
     0
 42
1.0
  3
isocp.shx
  4
chineset.shx
  0
STYLE
  5
79
330
3
100
AcDbSymbolTableRecord
100
AcDbTextStyleTableRecord
  2
ACISOGDT
 70
     0
 40
0.0
 41
1.0
 50
0.0
 71
     0
 42
2.5
  3
amgdt.shx
  4
chineset.shx
  0
STYLE
  5
60C
330
3
100
AcDbSymbolTableRecord
100
AcDbTextStyleTableRecord
  2
CHINESET
 70
     0
 40
0.0
 41
1.0
 50
0.0
 71
     0
 42
3.0
  3
simplex.shx
  4
CHINESET.SHX
  0
STYLE
  5
7753
330
3
100
AcDbSymbolTableRecord
100
AcDbTextStyleTableRecord
  2
WIN
 70
     0
 40
0.0
 41
1.0
 50
0.0
 71
     0
 42
4.0
  3
PMingLiU.ttf
  4

1001
ACAD
1000
PMingLiU
1071
    34834
  0
ENDTAB
  0
TABLE
  2
VIEW
  5
6
330
0
100
AcDbSymbolTable
 70
     0
  0
ENDTAB
  0
TABLE
  2
UCS
  5
7
330
0
100
AcDbSymbolTable
 70
     0
  0
ENDTAB
  0
TABLE
  2
APPID
  5
9
330
0
100
AcDbSymbolTable
 70
    21
  0
APPID
  5
12
330
9
100
AcDbSymbolTableRecord
100
AcDbRegAppTableRecord
  2
ACAD
 70
     0
  0
APPID
  5
46
330
9
100
AcDbSymbolTableRecord
100
AcDbRegAppTableRecord
  2
MCAD_NO_VIS
 70
     0
  0
APPID
  5
47
330
9
100
AcDbSymbolTableRecord
100
AcDbRegAppTableRecord
  2
ACAD_TEMP_GRAPHIC
 70
     0
  0
APPID
  5
58
330
9
100
AcDbSymbolTableRecord
100
AcDbRegAppTableRecord
  2
ACATTRIBSERVICES
 70
     0
  0
APPID
  5
EE
330
9
100
AcDbSymbolTableRecord
100
AcDbRegAppTableRecord
  2
AD_DRAW
 70
     0
  0
APPID
  5
10C
330
9
100
AcDbSymbolTableRecord
100
AcDbRegAppTableRecord
  2
DESIGNERASSEMBLIES
 70
     0
  0
APPID
  5
111
330
9
100
AcDbSymbolTableRecord
100
AcDbRegAppTableRecord
  2
ACADM_DIM_EDIT
 70
     0
  0
APPID
  5
112
330
9
100
AcDbSymbolTableRecord
100
AcDbRegAppTableRecord
  2
AMDT_DM_ADJ
 70
     0
  0
APPID
  5
22C
330
9
100
AcDbSymbolTableRecord
100
AcDbRegAppTableRecord
  2
ACAD_DSTYLE_DIMTEXT_FILL
 70
     0
  0
APPID
  5
452
330
9
100
AcDbSymbolTableRecord
100
AcDbRegAppTableRecord
  2
GENIUS_GENOENT_13
 70
     0
  0
APPID
  5
453
330
9
100
AcDbSymbolTableRecord
100
AcDbRegAppTableRecord
  2
GENIUS_GENOBJ-N-CRS_13
 70
     0
  0
APPID
  5
454
330
9
100
AcDbSymbolTableRecord
100
AcDbRegAppTableRecord
  2
GENIUS_GENOLIS_13
 70
     0
  0
APPID
  5
455
330
9
100
AcDbSymbolTableRecord
100
AcDbRegAppTableRecord
  2
GENIUS_GENODEF_13
 70
     0
  0
APPID
  5
456
330
9
100
AcDbSymbolTableRecord
100
AcDbRegAppTableRecord
  2
GENIUS_GENOREF_13
 70
     0
  0
APPID
  5
6F3
330
9
100
AcDbSymbolTableRecord
100
AcDbRegAppTableRecord
  2
ACAD_PSEXT
 70
     0
  0
APPID
  5
727
330
9
100
AcDbSymbolTableRecord
100
AcDbRegAppTableRecord
  2
AcAecLayerStandard
 70
     0
  0
APPID
  5
D7F
330
9
100
AcDbSymbolTableRecord
100
AcDbRegAppTableRecord
  2
GENIUS_GENDTOL_13
 70
     0
  0
APPID
  5
15FB
330
9
100
AcDbSymbolTableRecord
100
AcDbRegAppTableRecord
  2
GENIUS_GENOBJ-N-CEN_13
 70
     0
  0
APPID
  5
15FC
330
9
100
AcDbSymbolTableRecord
100
AcDbRegAppTableRecord
  2
GENIUS_GENCEN_19
 70
     0
  0
APPID
  5
300F
330
9
100
AcDbSymbolTableRecord
100
AcDbRegAppTableRecord
  2
GENIUS_GENREC_14
 70
     0
  0
APPID
  5
3010
330
9
100
AcDbSymbolTableRecord
100
AcDbRegAppTableRecord
  2
GENIUS_GENOBJ-N-REC_13
 70
     0
  0
ENDTAB
  0
TABLE
  2
DIMSTYLE
  5
A
330
0
100
AcDbSymbolTable
 70
     9
100
AcDbDimStyleTable
 71
     3
340
81
340
8B
340
86
  0
DIMSTYLE
105
81
330
A
100
AcDbSymbolTableRecord
100
AcDbDimStyleTableRecord
  2
AM_ISO
 70
     0
  4
"
 41
20.0
 42
3.0
 43
50.0
 44
4.0
 47
0.1
 48
0.1
 73
     0
 74
     0
 77
     1
 78
     8
 79
     2
140
20.0
141
0.0
143
0.0393701
146
0.71
147
6.0
172
     1
176
   256
177
   256
178
   256
271
     2
272
     2
283
     2
284
     8
340
11
371
    -1
372
    -1
  0
DIMSTYLE
105
82
330
A
100
AcDbSymbolTableRecord
100
AcDbDimStyleTableRecord
  2
AM_ISO$3
 70
     0
  4
"
 41
20.0
 42
3.0
 43
50.0
 44
4.0
 47
0.1
 48
0.1
 73
     0
 77
     1
 78
     8
 79
     2
140
20.0
141
0.0
143
0.0393701
146
0.71
147
6.0
176
   256
177
   256
178
   256
271
     2
272
     2
283
     2
284
     8
288
     1
289
     0
340
11
371
    -1
372
    -1
  0
DIMSTYLE
105
83
330
A
100
AcDbSymbolTableRecord
100
AcDbDimStyleTableRecord
  2
AM_ISO$4
 70
     0
  4
"
 41
20.0
 42
3.0
 43
50.0
 44
4.0
 47
0.1
 48
0.1
 73
     0
 77
     1
 78
     8
 79
     2
140
20.0
141
0.0
143
0.0393701
146
0.71
147
6.0
176
   256
177
   256
178
   256
271
     2
272
     2
283
     2
284
     8
288
     1
289
     0
340
11
371
    -1
372
    -1
  0
DIMSTYLE
105
84
330
A
100
AcDbSymbolTableRecord
100
AcDbDimStyleTableRecord
  2
AM_ISO$6
 70
     0
  4
"
 41
20.0
 42
3.0
 43
50.0
 44
4.0
 47
0.1
 48
0.1
 73
     0
 74
     0
 78
     8
 79
     2
140
20.0
141
0.0
143
0.0393701
146
0.71
147
6.0
172
     1
176
   256
177
   256
178
   256
271
     2
272
     2
283
     2
284
     8
340
11
371
    -1
372
    -1
  0
DIMSTYLE
105
85
330
A
100
AcDbSymbolTableRecord
100
AcDbDimStyleTableRecord
  2
AM_ISO$7
 70
     0
  4
"
 41
20.0
 42
3.0
 43
50.0
 44
4.0
 47
0.1
 48
0.1
 73
     0
 74
     0
 77
     1
 78
     8
 79
     2
140
5.0
141
0.0
143
0.0393701
146
0.71
147
6.0
172
     1
176
   256
177
   256
178
   256
271
     2
272
     2
283
     2
284
     8
340
11
371
    -1
372
    -1
  0
DIMSTYLE
105
86
330
A
100
AcDbSymbolTableRecord
100
AcDbDimStyleTableRecord
  2
AM_ISO$SF
 70
     0
  4
"
 41
2.5
 42
1.0
 43
10.0
 44
1.0
 47
0.1
 48
0.1
 73
     0
 74
     0
 75
     1
 76
     1
 77
     1
 78
     8
 79
     2
140
3.5
141
0.0
143
0.0393701
146
0.71
147
1.5
172
     1
176
   256
177
   256
178
     2
271
     2
272
     3
274
     4
283
     0
284
     8
340
11
371
    -1
372
    -1
  0
DIMSTYLE
105
8B
330
A
100
AcDbSymbolTableRecord
100
AcDbDimStyleTableRecord
  2
AM_ISO$SH
 70
     0
  4
"
 41
2.5
 42
1.0
 43
10.0
 44
1.0
 47
0.1
 48
0.1
 73
     0
 74
     0
 75
     1
 76
     1
 77
     1
 78
     8
 79
     2
140
3.5
141
0.0
143
0.0393701
144
2.0
146
0.71
147
1.5
172
     1
173
     1
176
   256
177
   256
178
     2
271
     2
272
     3
274
     4
283
     0
284
     8
340
11
343
87
371
    -1
372
    -1
  0
DIMSTYLE
105
40B
102
{ACAD_REACTORS
330
B39
330
B5F
330
BE0
330
C06
330
C56
330
C88
330
CAE
330
CD4
330
D67
330
DCC
330
DF2
330
E22
330
E4C
330
E80
330
EA6
330
FAF
330
103D
330
1009
330
17CB
330
18B9
330
153B
330
1511
330
14E7
330
14BD
330
2CFC
330
2FD3
102
}
330
A
100
AcDbSymbolTableRecord
100
AcDbDimStyleTableRecord
  2
AM_ISO$0
 70
     0
  4
"
 41
20.0
 42
3.0
 43
50.0
 44
4.0
 47
0.1
 48
0.1
 73
     0
 74
     0
 77
     1
 78
     8
 79
     2
140
20.0
141
0.0
143
0.0393701
146
0.71
147
6.0
172
     1
176
   256
177
   256
178
   256
271
     2
272
     2
283
     2
284
     8
340
11
371
    -1
372
    -1
  0
ENDTAB
  0
TABLE
  2
BLOCK_RECORD
  5
1
330
0
100
AcDbSymbolTable
 70
    32
  0
BLOCK_RECORD
  5
1F
102
{ACAD_XDICTIONARY
360
8F
102
}
330
1
100
AcDbSymbolTableRecord
100
AcDbBlockTableRecord
  2
*Model_Space
340
22
  0
BLOCK_RECORD
  5
1B
330
1
100
AcDbSymbolTableRecord
100
AcDbBlockTableRecord
  2
*Paper_Space
340
1E
  0
BLOCK_RECORD
  5
23
330
1
100
AcDbSymbolTableRecord
100
AcDbBlockTableRecord
  2
*Paper_Space0
340
26
  0
BLOCK_RECORD
  5
87
330
1
100
AcDbSymbolTableRecord
100
AcDbBlockTableRecord
  2
GENAXEH
340
0
  0
BLOCK_RECORD
  5
B3A
330
1
100
AcDbSymbolTableRecord
100
AcDbBlockTableRecord
  2
*D3
340
0
  0
BLOCK_RECORD
  5
B60
330
1
100
AcDbSymbolTableRecord
100
AcDbBlockTableRecord
  2
*D4
340
0
  0
BLOCK_RECORD
  5
BE1
330
1
100
AcDbSymbolTableRecord
100
AcDbBlockTableRecord
  2
*D5
340
0
  0
BLOCK_RECORD
  5
C07
330
1
100
AcDbSymbolTableRecord
100
AcDbBlockTableRecord
  2
*D6
340
0
  0
BLOCK_RECORD
  5
C57
330
1
100
AcDbSymbolTableRecord
100
AcDbBlockTableRecord
  2
*D7
340
0
  0
BLOCK_RECORD
  5
C89
330
1
100
AcDbSymbolTableRecord
100
AcDbBlockTableRecord
  2
*D8
340
0
  0
BLOCK_RECORD
  5
CAF
330
1
100
AcDbSymbolTableRecord
100
AcDbBlockTableRecord
  2
*D9
340
0
  0
BLOCK_RECORD
  5
CD5
330
1
100
AcDbSymbolTableRecord
100
AcDbBlockTableRecord
  2
*D10
340
0
  0
BLOCK_RECORD
  5
D68
330
1
100
AcDbSymbolTableRecord
100
AcDbBlockTableRecord
  2
*D11
340
0
  0
BLOCK_RECORD
  5
DCD
330
1
100
AcDbSymbolTableRecord
100
AcDbBlockTableRecord
  2
*D12
340
0
  0
BLOCK_RECORD
  5
DF3
330
1
100
AcDbSymbolTableRecord
100
AcDbBlockTableRecord
  2
*D13
340
0
  0
BLOCK_RECORD
  5
E23
330
1
100
AcDbSymbolTableRecord
100
AcDbBlockTableRecord
  2
*D14
340
0
  0
BLOCK_RECORD
  5
E4D
330
1
100
AcDbSymbolTableRecord
100
AcDbBlockTableRecord
  2
*D15
340
0
  0
BLOCK_RECORD
  5
E81
330
1
100
AcDbSymbolTableRecord
100
AcDbBlockTableRecord
  2
*D16
340
0
  0
BLOCK_RECORD
  5
EA7
330
1
100
AcDbSymbolTableRecord
100
AcDbBlockTableRecord
  2
*D17
340
0
  0
BLOCK_RECORD
  5
FB0
330
1
100
AcDbSymbolTableRecord
100
AcDbBlockTableRecord
  2
*D18
340
0
  0
BLOCK_RECORD
  5
100A
330
1
100
AcDbSymbolTableRecord
100
AcDbBlockTableRecord
  2
*D19
340
0
  0
BLOCK_RECORD
  5
103E
330
1
100
AcDbSymbolTableRecord
100
AcDbBlockTableRecord
  2
*D20
340
0
  0
BLOCK_RECORD
  5
14BE
330
1
100
AcDbSymbolTableRecord
100
AcDbBlockTableRecord
  2
*D21
340
0
  0
BLOCK_RECORD
  5
14E8
330
1
100
AcDbSymbolTableRecord
100
AcDbBlockTableRecord
  2
*D22
340
0
  0
BLOCK_RECORD
  5
1512
330
1
100
AcDbSymbolTableRecord
100
AcDbBlockTableRecord
  2
*D23
340
0
  0
BLOCK_RECORD
  5
153C
330
1
100
AcDbSymbolTableRecord
100
AcDbBlockTableRecord
  2
*D24
340
0
  0
BLOCK_RECORD
  5
17CC
330
1
100
AcDbSymbolTableRecord
100
AcDbBlockTableRecord
  2
*D25
340
0
  0
BLOCK_RECORD
  5
18BC
330
1
100
AcDbSymbolTableRecord
100
AcDbBlockTableRecord
  2
*D26
340
0
  0
BLOCK_RECORD
  5
2CFD
330
1
100
AcDbSymbolTableRecord
100
AcDbBlockTableRecord
  2
*D27
340
0
  0
BLOCK_RECORD
  5
2FD6
330
1
100
AcDbSymbolTableRecord
100
AcDbBlockTableRecord
  2
*D28
340
0
  0
BLOCK_RECORD
  5
78FD
330
1
100
AcDbSymbolTableRecord
100
AcDbBlockTableRecord
  2
*S30
340
0
  0
BLOCK_RECORD
  5
7905
330
1
100
AcDbSymbolTableRecord
100
AcDbBlockTableRecord
  2
*S31
340
0
  0
ENDTAB
  0
ENDSEC
  0
SECTION
  2
BLOCKS
  0
BLOCK
  5
20
330
1F
100
AcDbEntity
  8
0
100
AcDbBlockBegin
  2
*Model_Space
 70
     0
 10
0.0
 20
0.0
 30
0.0
  3
*Model_Space
  1

  0
ENDBLK
  5
21
330
1F
100
AcDbEntity
  8
0
100
AcDbBlockEnd
  0
BLOCK
  5
1C
330
1B
100
AcDbEntity
 67
     1
  8
0
100
AcDbBlockBegin
  2
*Paper_Space
 70
     0
 10
0.0
 20
0.0
 30
0.0
  3
*Paper_Space
  1

  0
ENDBLK
  5
1D
330
1B
100
AcDbEntity
 67
     1
  8
0
100
AcDbBlockEnd
  0
BLOCK
  5
24
330
23
100
AcDbEntity
  8
0
100
AcDbBlockBegin
  2
*Paper_Space0
 70
     0
 10
0.0
 20
0.0
 30
0.0
  3
*Paper_Space0
  1

  0
ENDBLK
  5
25
330
23
100
AcDbEntity
  8
0
100
AcDbBlockEnd
  0
BLOCK
  5
89
330
87
100
AcDbEntity
  8
0
100
AcDbBlockBegin
  2
GENAXEH
 70
     0
 10
0.0
 20
0.0
 30
0.0
  3
GENAXEH
  1

  0
LINE
  5
88
330
87
100
AcDbEntity
  8
0
100
AcDbLine
 10
-1.0
 20
0.0
 30
0.0
 11
1.0
 21
0.0
 31
0.0
  0
ENDBLK
  5
8A
330
87
100
AcDbEntity
  8
0
100
AcDbBlockEnd
  0
BLOCK
  5
B44
330
B3A
100
AcDbEntity
  8
0
100
AcDbBlockBegin
  2
*D3
 70
     1
 10
0.0
 20
0.0
 30
0.0
  3
*D3
  1

  0
LINE
  5
2849
330
B3A
100
AcDbEntity
  8
AM_5
100
AcDbLine
 10
2077.618939833576
 20
1282.164213141281
 30
0.0
 11
2077.618939833576
 21
1240.040545720783
 31
0.0
  0
LINE
  5
284A
330
B3A
100
AcDbEntity
  8
AM_5
100
AcDbLine
 10
2207.618939833576
 20
1282.164213141283
 30
0.0
 11
2207.618939833576
 21
1240.040545720783
 31
0.0
  0
LINE
  5
284B
330
B3A
100
AcDbEntity
  8
AM_5
100
AcDbLine
 10
2097.618939833576
 20
1244.040545720783
 30
0.0
 11
2187.618939833576
 21
1244.040545720783
 31
0.0
  0
SOLID
  5
284C
330
B3A
100
AcDbEntity
  8
AM_5
100
AcDbTrace
 10
2097.618939833576
 20
1247.373879054116
 30
0.0
 11
2097.618939833576
 21
1240.70721238745
 31
0.0
 12
2077.618939833576
 22
1244.040545720783
 32
0.0
 13
2077.618939833576
 23
1244.040545720783
 33
0.0
  0
SOLID
  5
284D
330
B3A
100
AcDbEntity
  8
AM_5
100
AcDbTrace
 10
2187.618939833576
 20
1247.373879054116
 30
0.0
 11
2187.618939833576
 21
1240.70721238745
 31
0.0
 12
2207.618939833576
 22
1244.040545720783
 32
0.0
 13
2207.618939833576
 23
1244.040545720783
 33
0.0
  0
MTEXT
  5
284E
330
B3A
100
AcDbEntity
  8
AM_5
100
AcDbMText
 10
2142.618939833575
 20
1260.040545720783
 30
0.0
 40
20.0
 41
0.0
 71
     5
 72
     1
  1
\A2;130
 73
     1
 44
1.0
1001
ACAD
1000
MTEXTBEGIN
1070
    73
1070
     1
1070
    44
1040
1.0
1070
    74
1070
     0
1000
MTEXTEND
  0
POINT
  5
284F
330
B3A
100
AcDbEntity
  8
Defpoints
 62
     0
100
AcDbPoint
 10
2077.618939833576
 20
1285.164213141281
 30
0.0
  0
POINT
  5
2850
330
B3A
100
AcDbEntity
  8
Defpoints
 62
     0
100
AcDbPoint
 10
2207.618939833576
 20
1285.164213141283
 30
0.0
  0
POINT
  5
2851
330
B3A
100
AcDbEntity
  8
Defpoints
 62
     0
100
AcDbPoint
 10
2207.618939833576
 20
1244.040545720783
 30
0.0
  0
ENDBLK
  5
B45
330
B3A
100
AcDbEntity
  8
0
100
AcDbBlockEnd
  0
BLOCK
  5
B6A
330
B60
100
AcDbEntity
  8
0
100
AcDbBlockBegin
  2
*D4
 70
     1
 10
0.0
 20
0.0
 30
0.0
  3
*D4
  1

  0
LINE
  5
2F57
330
B60
100
AcDbEntity
  8
AM_5
100
AcDbLine
 10
2067.618939833575
 20
1301.040545720783
 30
0.0
 11
2067.618939833575
 21
1190.040545720782
 31
0.0
  0
LINE
  5
2F58
330
B60
100
AcDbEntity
  8
AM_5
100
AcDbLine
 10
2217.618939833576
 20
1301.040545720783
 30
0.0
 11
2217.618939833576
 21
1190.040545720782
 31
0.0
  0
LINE
  5
2F59
330
B60
100
AcDbEntity
  8
AM_5
100
AcDbLine
 10
2087.618939833575
 20
1194.040545720783
 30
0.0
 11
2197.618939833576
 21
1194.040545720783
 31
0.0
  0
SOLID
  5
2F5A
330
B60
100
AcDbEntity
  8
AM_5
100
AcDbTrace
 10
2087.618939833575
 20
1197.373879054116
 30
0.0
 11
2087.618939833575
 21
1190.707212387449
 31
0.0
 12
2067.618939833575
 22
1194.040545720783
 32
0.0
 13
2067.618939833575
 23
1194.040545720783
 33
0.0
  0
SOLID
  5
2F5B
330
B60
100
AcDbEntity
  8
AM_5
100
AcDbTrace
 10
2197.618939833576
 20
1197.373879054116
 30
0.0
 11
2197.618939833576
 21
1190.707212387449
 31
0.0
 12
2217.618939833576
 22
1194.040545720783
 32
0.0
 13
2217.618939833576
 23
1194.040545720783
 33
0.0
  0
MTEXT
  5
2F5C
330
B60
100
AcDbEntity
  8
AM_5
100
AcDbMText
 10
2142.618939833575
 20
1210.040545720783
 30
0.0
 40
20.0
 41
0.0
 71
     5
 72
     1
  1
\A2;150
 73
     1
 44
1.0
1001
ACAD
1000
MTEXTBEGIN
1070
    73
1070
     1
1070
    44
1040
1.0
1070
    74
1070
     0
1000
MTEXTEND
  0
POINT
  5
2F5D
330
B60
100
AcDbEntity
  8
Defpoints
 62
     0
100
AcDbPoint
 10
2067.618939833575
 20
1304.040545720783
 30
0.0
  0
POINT
  5
2F5E
330
B60
100
AcDbEntity
  8
Defpoints
 62
     0
100
AcDbPoint
 10
2217.618939833576
 20
1304.040545720783
 30
0.0
  0
POINT
  5
2F5F
330
B60
100
AcDbEntity
  8
Defpoints
 62
     0
100
AcDbPoint
 10
2217.618939833576
 20
1194.040545720783
 30
0.0
  0
ENDBLK
  5
B6B
330
B60
100
AcDbEntity
  8
0
100
AcDbBlockEnd
  0
BLOCK
  5
BEB
330
BE1
100
AcDbEntity
  8
0
100
AcDbBlockBegin
  2
*D5
 70
     1
 10
0.0
 20
0.0
 30
0.0
  3
*D5
  1

  0
LINE
  5
2F7E
330
BE1
100
AcDbEntity
  8
AM_5
100
AcDbLine
 10
2483.634316385821
 20
1301.040545720783
 30
0.0
 11
2483.634316385821
 21
1240.040545720783
 31
0.0
  0
LINE
  5
2F7F
330
BE1
100
AcDbEntity
  8
AM_5
100
AcDbLine
 10
2558.634316385821
 20
1324.553462523839
 30
0.0
 11
2558.634316385821
 21
1240.040545720783
 31
0.0
  0
LINE
  5
2F80
330
BE1
100
AcDbEntity
  8
AM_5
100
AcDbLine
 10
2503.634316385821
 20
1244.040545720784
 30
0.0
 11
2538.634316385821
 21
1244.040545720784
 31
0.0
  0
SOLID
  5
2F81
330
BE1
100
AcDbEntity
  8
AM_5
100
AcDbTrace
 10
2503.634316385821
 20
1247.373879054117
 30
0.0
 11
2503.634316385821
 21
1240.70721238745
 31
0.0
 12
2483.634316385821
 22
1244.040545720784
 32
0.0
 13
2483.634316385821
 23
1244.040545720784
 33
0.0
  0
SOLID
  5
2F82
330
BE1
100
AcDbEntity
  8
AM_5
100
AcDbTrace
 10
2538.634316385821
 20
1247.373879054117
 30
0.0
 11
2538.634316385821
 21
1240.70721238745
 31
0.0
 12
2558.634316385821
 22
1244.040545720784
 32
0.0
 13
2558.634316385821
 23
1244.040545720784
 33
0.0
  0
MTEXT
  5
2F83
330
BE1
100
AcDbEntity
  8
AM_5
100
AcDbMText
 10
2521.134316385821
 20
1260.040545720784
 30
0.0
 40
20.0
 41
0.0
 71
     5
 72
     1
  1
\A2;75
 73
     1
 44
1.0
1001
ACAD
1000
MTEXTBEGIN
1070
    73
1070
     1
1070
    44
1040
1.0
1070
    74
1070
     0
1000
MTEXTEND
  0
POINT
  5
2F84
330
BE1
100
AcDbEntity
  8
Defpoints
 62
     0
100
AcDbPoint
 10
2483.634316385821
 20
1304.040545720783
 30
0.0
  0
POINT
  5
2F85
330
BE1
100
AcDbEntity
  8
Defpoints
 62
     0
100
AcDbPoint
 10
2558.634316385821
 20
1327.553462523839
 30
0.0
  0
POINT
  5
2F86
330
BE1
100
AcDbEntity
  8
Defpoints
 62
     0
100
AcDbPoint
 10
2558.634316385821
 20
1244.040545720784
 30
0.0
  0
ENDBLK
  5
BEC
330
BE1
100
AcDbEntity
  8
0
100
AcDbBlockEnd
  0
BLOCK
  5
C11
330
C07
100
AcDbEntity
  8
0
100
AcDbBlockBegin
  2
*D6
 70
     1
 10
0.0
 20
0.0
 30
0.0
  3
*D6
  1

  0
LINE
  5
2864
330
C07
100
AcDbEntity
  8
AM_5
100
AcDbLine
 10
2558.634316385821
 20
1290.052685913472
 30
0.0
 11
2558.634316385821
 21
1240.040545720783
 31
0.0
  0
LINE
  5
2865
330
C07
100
AcDbEntity
  8
AM_5
100
AcDbLine
 10
2648.634316385821
 20
1289.820440733964
 30
0.0
 11
2648.634316385821
 21
1240.040545720783
 31
0.0
  0
LINE
  5
2866
330
C07
100
AcDbEntity
  8
AM_5
100
AcDbLine
 10
2578.634316385821
 20
1244.040545720784
 30
0.0
 11
2628.634316385821
 21
1244.040545720784
 31
0.0
  0
SOLID
  5
2867
330
C07
100
AcDbEntity
  8
AM_5
100
AcDbTrace
 10
2578.634316385821
 20
1247.373879054117
 30
0.0
 11
2578.634316385821
 21
1240.70721238745
 31
0.0
 12
2558.634316385821
 22
1244.040545720784
 32
0.0
 13
2558.634316385821
 23
1244.040545720784
 33
0.0
  0
SOLID
  5
2868
330
C07
100
AcDbEntity
  8
AM_5
100
AcDbTrace
 10
2628.634316385821
 20
1247.373879054117
 30
0.0
 11
2628.634316385821
 21
1240.70721238745
 31
0.0
 12
2648.634316385821
 22
1244.040545720784
 32
0.0
 13
2648.634316385821
 23
1244.040545720784
 33
0.0
  0
MTEXT
  5
2869
330
C07
100
AcDbEntity
  8
AM_5
100
AcDbMText
 10
2603.634316385821
 20
1260.040545720784
 30
0.0
 40
20.0
 41
0.0
 71
     5
 72
     1
  1
\A2;90
 73
     1
 44
1.0
1001
ACAD
1000
MTEXTBEGIN
1070
    73
1070
     1
1070
    44
1040
1.0
1070
    74
1070
     0
1000
MTEXTEND
  0
POINT
  5
286A
330
C07
100
AcDbEntity
  8
Defpoints
 62
     0
100
AcDbPoint
 10
2558.634316385821
 20
1293.052685913472
 30
0.0
  0
POINT
  5
286B
330
C07
100
AcDbEntity
  8
Defpoints
 62
     0
100
AcDbPoint
 10
2648.634316385821
 20
1292.820440733964
 30
0.0
  0
POINT
  5
286C
330
C07
100
AcDbEntity
  8
Defpoints
 62
     0
100
AcDbPoint
 10
2648.634316385821
 20
1244.040545720784
 30
0.0
  0
ENDBLK
  5
C12
330
C07
100
AcDbEntity
  8
0
100
AcDbBlockEnd
  0
BLOCK
  5
C61
330
C57
100
AcDbEntity
  8
0
100
AcDbBlockBegin
  2
*D7
 70
     1
 10
0.0
 20
0.0
 30
0.0
  3
*D7
  1

  0
LINE
  5
286D
330
C57
100
AcDbEntity
  8
AM_5
100
AcDbLine
 10
2688.634316385821
 20
1288.820440733964
 30
0.0
 11
2688.634316385821
 21
1240.040545720783
 31
0.0
  0
LINE
  5
286E
330
C57
100
AcDbEntity
  8
AM_5
100
AcDbLine
 10
2743.634316385821
 20
1301.040545720783
 30
0.0
 11
2743.634316385821
 21
1240.040545720783
 31
0.0
  0
LINE
  5
286F
330
C57
100
AcDbEntity
  8
AM_5
100
AcDbLine
 10
2708.634316385821
 20
1244.040545720784
 30
0.0
 11
2723.634316385821
 21
1244.040545720784
 31
0.0
  0
SOLID
  5
2870
330
C57
100
AcDbEntity
  8
AM_5
100
AcDbTrace
 10
2708.634316385821
 20
1247.373879054117
 30
0.0
 11
2708.634316385821
 21
1240.70721238745
 31
0.0
 12
2688.634316385821
 22
1244.040545720784
 32
0.0
 13
2688.634316385821
 23
1244.040545720784
 33
0.0
  0
SOLID
  5
2871
330
C57
100
AcDbEntity
  8
AM_5
100
AcDbTrace
 10
2723.634316385821
 20
1247.373879054117
 30
0.0
 11
2723.634316385821
 21
1240.70721238745
 31
0.0
 12
2743.634316385821
 22
1244.040545720784
 32
0.0
 13
2743.634316385821
 23
1244.040545720784
 33
0.0
  0
MTEXT
  5
2872
330
C57
100
AcDbEntity
  8
AM_5
100
AcDbMText
 10
2716.134316385821
 20
1260.040545720784
 30
0.0
 40
20.0
 41
0.0
 71
     5
 72
     1
  1
\A2;55
 73
     1
 44
1.0
1001
ACAD
1000
MTEXTBEGIN
1070
    73
1070
     1
1070
    44
1040
1.0
1070
    74
1070
     0
1000
MTEXTEND
  0
POINT
  5
2873
330
C57
100
AcDbEntity
  8
Defpoints
 62
     0
100
AcDbPoint
 10
2688.634316385821
 20
1291.820440733964
 30
0.0
  0
POINT
  5
2874
330
C57
100
AcDbEntity
  8
Defpoints
 62
     0
100
AcDbPoint
 10
2743.634316385821
 20
1304.040545720783
 30
0.0
  0
POINT
  5
2875
330
C57
100
AcDbEntity
  8
Defpoints
 62
     0
100
AcDbPoint
 10
2743.634316385821
 20
1244.040545720784
 30
0.0
  0
ENDBLK
  5
C62
330
C57
100
AcDbEntity
  8
0
100
AcDbBlockEnd
  0
BLOCK
  5
C93
330
C89
100
AcDbEntity
  8
0
100
AcDbBlockBegin
  2
*D8
 70
     1
 10
0.0
 20
0.0
 30
0.0
  3
*D8
  1

  0
LINE
  5
7873
330
C89
100
AcDbEntity
  8
AM_5
100
AcDbLine
 10
2483.634316385821
 20
1301.040545720783
 30
0.0
 11
2483.634316385821
 21
1190.040545720784
 31
0.0
  0
LINE
  5
7874
330
C89
100
AcDbEntity
  8
AM_5
100
AcDbLine
 10
2743.634316385821
 20
1301.040545720783
 30
0.0
 11
2743.634316385821
 21
1190.040545720784
 31
0.0
  0
LINE
  5
7875
330
C89
100
AcDbEntity
  8
AM_5
100
AcDbLine
 10
2503.634316385821
 20
1194.040545720784
 30
0.0
 11
2723.634316385821
 21
1194.040545720784
 31
0.0
  0
SOLID
  5
7876
330
C89
100
AcDbEntity
  8
AM_5
100
AcDbTrace
 10
2503.634316385821
 20
1197.373879054117
 30
0.0
 11
2503.634316385821
 21
1190.70721238745
 31
0.0
 12
2483.634316385821
 22
1194.040545720784
 32
0.0
 13
2483.634316385821
 23
1194.040545720784
 33
0.0
  0
SOLID
  5
7877
330
C89
100
AcDbEntity
  8
AM_5
100
AcDbTrace
 10
2723.634316385821
 20
1197.373879054117
 30
0.0
 11
2723.634316385821
 21
1190.70721238745
 31
0.0
 12
2743.634316385821
 22
1194.040545720784
 32
0.0
 13
2743.634316385821
 23
1194.040545720784
 33
0.0
  0
MTEXT
  5
7878
330
C89
100
AcDbEntity
  8
AM_5
100
AcDbMText
 10
2613.634316385821
 20
1210.042514224721
 30
0.0
 40
20.0
 41
0.0
 71
     5
 72
     1
  1
\A2;260
 73
     1
 44
1.0
1001
ACAD
1000
MTEXTBEGIN
1070
    73
1070
     1
1070
    44
1040
1.0
1070
    74
1070
     0
1000
MTEXTEND
  0
POINT
  5
7879
330
C89
100
AcDbEntity
  8
Defpoints
 62
     0
100
AcDbPoint
 10
2483.634316385821
 20
1304.040545720783
 30
0.0
  0
POINT
  5
787A
330
C89
100
AcDbEntity
  8
Defpoints
 62
     0
100
AcDbPoint
 10
2743.634316385821
 20
1304.040545720783
 30
0.0
  0
POINT
  5
787B
330
C89
100
AcDbEntity
  8
Defpoints
 62
     0
100
AcDbPoint
 10
2743.634316385821
 20
1194.040545720784
 30
0.0
  0
ENDBLK
  5
C94
330
C89
100
AcDbEntity
  8
0
100
AcDbBlockEnd
  0
BLOCK
  5
CB9
330
CAF
100
AcDbEntity
  8
0
100
AcDbBlockBegin
  2
*D9
 70
     1
 10
0.0
 20
0.0
 30
0.0
  3
*D9
  1

  0
LINE
  5
787C
330
CAF
100
AcDbEntity
  8
AM_5
100
AcDbLine
 10
2746.634316385821
 20
1304.040545720783
 30
0.0
 11
2807.634316385821
 21
1304.040545720783
 31
0.0
  0
LINE
  5
787D
330
CAF
100
AcDbEntity
  8
AM_5
100
AcDbLine
 10
2746.634316385821
 20
1364.040545720783
 30
0.0
 11
2807.634316385821
 21
1364.040545720783
 31
0.0
  0
LINE
  5
787E
330
CAF
100
AcDbEntity
  8
AM_5
100
AcDbLine
 10
2803.634316385821
 20
1324.040545720783
 30
0.0
 11
2803.634316385821
 21
1344.040545720783
 31
0.0
  0
SOLID
  5
787F
330
CAF
100
AcDbEntity
  8
AM_5
100
AcDbTrace
 10
2800.300983052487
 20
1324.040545720783
 30
0.0
 11
2806.967649719155
 21
1324.040545720783
 31
0.0
 12
2803.634316385821
 22
1304.040545720783
 32
0.0
 13
2803.634316385821
 23
1304.040545720783
 33
0.0
  0
SOLID
  5
7880
330
CAF
100
AcDbEntity
  8
AM_5
100
AcDbTrace
 10
2800.300983052487
 20
1344.040545720783
 30
0.0
 11
2806.967649719155
 21
1344.040545720783
 31
0.0
 12
2803.634316385821
 22
1364.040545720783
 32
0.0
 13
2803.634316385821
 23
1364.040545720783
 33
0.0
  0
MTEXT
  5
7881
330
CAF
100
AcDbEntity
  8
AM_5
100
AcDbMText
 10
2787.634316385821
 20
1334.040545720784
 30
0.0
 40
20.0
 41
0.0
 71
     5
 72
     1
  1
\A2;60
 11
0.0000000000000001
 21
1.0
 31
0.0
 73
     1
 44
1.0
1001
ACAD
1000
MTEXTBEGIN
1070
    73
1070
     1
1070
    44
1040
1.0
1070
    74
1070
     0
1000
MTEXTEND
  0
POINT
  5
7882
330
CAF
100
AcDbEntity
  8
Defpoints
 62
     0
100
AcDbPoint
 10
2743.634316385821
 20
1304.040545720783
 30
0.0
  0
POINT
  5
7883
330
CAF
100
AcDbEntity
  8
Defpoints
 62
     0
100
AcDbPoint
 10
2743.634316385821
 20
1364.040545720783
 30
0.0
  0
POINT
  5
7884
330
CAF
100
AcDbEntity
  8
Defpoints
 62
     0
100
AcDbPoint
 10
2803.634316385821
 20
1364.040545720783
 30
0.0
  0
ENDBLK
  5
CBA
330
CAF
100
AcDbEntity
  8
0
100
AcDbBlockEnd
  0
BLOCK
  5
CDF
330
CD5
100
AcDbEntity
  8
0
100
AcDbBlockBegin
  2
*D10
 70
     1
 10
0.0
 20
0.0
 30
0.0
  3
*D10
  1

  0
LINE
  5
7885
330
CD5
100
AcDbEntity
  8
AM_5
100
AcDbLine
 10
2480.634316385821
 20
1304.040545720783
 30
0.0
 11
2419.634316385821
 21
1304.040545720783
 31
0.0
  0
LINE
  5
7886
330
CD5
100
AcDbEntity
  8
AM_5
100
AcDbLine
 10
2485.634316385821
 20
1364.040545720783
 30
0.0
 11
2419.634316385821
 21
1364.040545720783
 31
0.0
  0
LINE
  5
7887
330
CD5
100
AcDbEntity
  8
AM_5
100
AcDbLine
 10
2423.63431638582
 20
1324.040545720783
 30
0.0
 11
2423.63431638582
 21
1344.040545720783
 31
0.0
  0
SOLID
  5
7888
330
CD5
100
AcDbEntity
  8
AM_5
100
AcDbTrace
 10
2420.300983052487
 20
1324.040545720783
 30
0.0
 11
2426.967649719154
 21
1324.040545720783
 31
0.0
 12
2423.63431638582
 22
1304.040545720783
 32
0.0
 13
2423.63431638582
 23
1304.040545720783
 33
0.0
  0
SOLID
  5
7889
330
CD5
100
AcDbEntity
  8
AM_5
100
AcDbTrace
 10
2420.300983052487
 20
1344.040545720783
 30
0.0
 11
2426.967649719154
 21
1344.040545720783
 31
0.0
 12
2423.63431638582
 22
1364.040545720783
 32
0.0
 13
2423.63431638582
 23
1364.040545720783
 33
0.0
  0
MTEXT
  5
788A
330
CD5
100
AcDbEntity
  8
AM_5
100
AcDbMText
 10
2407.63431638582
 20
1334.040545720783
 30
0.0
 40
20.0
 41
0.0
 71
     5
 72
     1
  1
\A2;60
 11
0.0000000000000001
 21
1.0
 31
0.0
 73
     1
 44
1.0
1001
ACAD
1000
MTEXTBEGIN
1070
    73
1070
     1
1070
    44
1040
1.0
1070
    74
1070
     0
1000
MTEXTEND
  0
POINT
  5
788B
330
CD5
100
AcDbEntity
  8
Defpoints
 62
     0
100
AcDbPoint
 10
2483.634316385821
 20
1304.040545720783
 30
0.0
  0
POINT
  5
788C
330
CD5
100
AcDbEntity
  8
Defpoints
 62
     0
100
AcDbPoint
 10
2488.634316385821
 20
1364.040545720783
 30
0.0
  0
POINT
  5
788D
330
CD5
100
AcDbEntity
  8
Defpoints
 62
     0
100
AcDbPoint
 10
2423.63431638582
 20
1364.040545720783
 30
0.0
  0
ENDBLK
  5
CE0
330
CD5
100
AcDbEntity
  8
0
100
AcDbBlockEnd
  0
BLOCK
  5
D72
330
D68
100
AcDbEntity
  8
0
100
AcDbBlockBegin
  2
*D11
 70
     1
 10
0.0
 20
0.0
 30
0.0
  3
*D11
  1

  0
LINE
  5
788E
330
D68
100
AcDbEntity
  8
AM_5
100
AcDbLine
 10
2485.634316385821
 20
1364.040545720783
 30
0.0
 11
2419.634316385821
 21
1364.040545720783
 31
0.0
  0
LINE
  5
788F
330
D68
100
AcDbEntity
  8
AM_5
100
AcDbLine
 10
2535.13431638582
 20
1515.329505088287
 30
0.0
 11
2419.634316385821
 21
1515.329505088287
 31
0.0
  0
LINE
  5
7890
330
D68
100
AcDbEntity
  8
AM_5
100
AcDbLine
 10
2423.63431638582
 20
1384.040545720783
 30
0.0
 11
2423.63431638582
 21
1495.329505088287
 31
0.0
  0
SOLID
  5
7891
330
D68
100
AcDbEntity
  8
AM_5
100
AcDbTrace
 10
2420.300983052487
 20
1384.040545720783
 30
0.0
 11
2426.967649719154
 21
1384.040545720783
 31
0.0
 12
2423.63431638582
 22
1364.040545720783
 32
0.0
 13
2423.63431638582
 23
1364.040545720783
 33
0.0
  0
SOLID
  5
7892
330
D68
100
AcDbEntity
  8
AM_5
100
AcDbTrace
 10
2420.300983052487
 20
1495.329505088287
 30
0.0
 11
2426.967649719154
 21
1495.329505088287
 31
0.0
 12
2423.63431638582
 22
1515.329505088287
 32
0.0
 13
2423.63431638582
 23
1515.329505088287
 33
0.0
  0
MTEXT
  5
7893
330
D68
100
AcDbEntity
  8
AM_5
100
AcDbMText
 10
2407.63431638582
 20
1439.685025404535
 30
0.0
 40
20.0
 41
0.0
 71
     5
 72
     1
  1
\A2;Max. 150
 11
0.0000000000000001
 21
1.0
 31
0.0
 73
     1
 44
1.0
1001
ACAD
1000
MTEXTBEGIN
1070
    73
1070
     1
1070
    44
1040
1.0
1070
    74
1070
     0
1000
MTEXTEND
  0
POINT
  5
7894
330
D68
100
AcDbEntity
  8
Defpoints
 62
     0
100
AcDbPoint
 10
2488.634316385821
 20
1364.040545720783
 30
0.0
  0
POINT
  5
7895
330
D68
100
AcDbEntity
  8
Defpoints
 62
     0
100
AcDbPoint
 10
2538.13431638582
 20
1515.329505088287
 30
0.0
  0
POINT
  5
7896
330
D68
100
AcDbEntity
  8
Defpoints
 62
     0
100
AcDbPoint
 10
2423.63431638582
 20
1515.329505088287
 30
0.0
  0
ENDBLK
  5
D73
330
D68
100
AcDbEntity
  8
0
100
AcDbBlockEnd
  0
BLOCK
  5
DD7
330
DCD
100
AcDbEntity
  8
0
100
AcDbBlockBegin
  2
*D12
 70
     1
 10
0.0
 20
0.0
 30
0.0
  3
*D12
  1

  0
LINE
  5
7897
330
DCD
100
AcDbEntity
  8
AM_5
100
AcDbLine
 10
2535.13431638582
 20
1515.329505088288
 30
0.0
 11
2419.634316385821
 21
1515.329505088288
 31
0.0
  0
LINE
  5
7898
330
DCD
100
AcDbEntity
  8
AM_5
100
AcDbLine
 10
2505.634316385821
 20
1625.329505088288
 30
0.0
 11
2419.634316385821
 21
1625.329505088288
 31
0.0
  0
LINE
  5
7899
330
DCD
100
AcDbEntity
  8
AM_5
100
AcDbLine
 10
2423.63431638582
 20
1535.329505088288
 30
0.0
 11
2423.63431638582
 21
1605.329505088288
 31
0.0
  0
SOLID
  5
789A
330
DCD
100
AcDbEntity
  8
AM_5
100
AcDbTrace
 10
2420.300983052487
 20
1535.329505088288
 30
0.0
 11
2426.967649719154
 21
1535.329505088288
 31
0.0
 12
2423.63431638582
 22
1515.329505088288
 32
0.0
 13
2423.63431638582
 23
1515.329505088288
 33
0.0
  0
SOLID
  5
789B
330
DCD
100
AcDbEntity
  8
AM_5
100
AcDbTrace
 10
2420.300983052487
 20
1605.329505088288
 30
0.0
 11
2426.967649719154
 21
1605.329505088288
 31
0.0
 12
2423.63431638582
 22
1625.329505088288
 32
0.0
 13
2423.63431638582
 23
1625.329505088288
 33
0.0
  0
MTEXT
  5
789C
330
DCD
100
AcDbEntity
  8
AM_5
100
AcDbMText
 10
2407.63431638582
 20
1570.329505088288
 30
0.0
 40
20.0
 41
0.0
 71
     5
 72
     1
  1
\A2;110
 11
0.0000000000000001
 21
1.0
 31
0.0
 73
     1
 44
1.0
1001
ACAD
1000
MTEXTBEGIN
1070
    73
1070
     1
1070
    44
1040
1.0
1070
    74
1070
     0
1000
MTEXTEND
  0
POINT
  5
789D
330
DCD
100
AcDbEntity
  8
Defpoints
 62
     0
100
AcDbPoint
 10
2538.13431638582
 20
1515.329505088288
 30
0.0
  0
POINT
  5
789E
330
DCD
100
AcDbEntity
  8
Defpoints
 62
     0
100
AcDbPoint
 10
2508.634316385821
 20
1625.329505088288
 30
0.0
  0
POINT
  5
789F
330
DCD
100
AcDbEntity
  8
Defpoints
 62
     0
100
AcDbPoint
 10
2423.63431638582
 20
1625.329505088288
 30
0.0
  0
ENDBLK
  5
DD8
330
DCD
100
AcDbEntity
  8
0
100
AcDbBlockEnd
  0
BLOCK
  5
DFD
330
DF3
100
AcDbEntity
  8
0
100
AcDbBlockBegin
  2
*D13
 70
     1
 10
0.0
 20
0.0
 30
0.0
  3
*D13
  1

  0
LINE
  5
78A0
330
DF3
100
AcDbEntity
  8
AM_5
100
AcDbLine
 10
2505.634316385821
 20
1625.329505088288
 30
0.0
 11
2419.634316385821
 21
1625.329505088288
 31
0.0
  0
LINE
  5
78A1
330
DF3
100
AcDbEntity
  8
AM_5
100
AcDbLine
 10
2530.634316385821
 20
1911.329505088288
 30
0.0
 11
2419.634316385821
 21
1911.329505088288
 31
0.0
  0
LINE
  5
78A2
330
DF3
100
AcDbEntity
  8
AM_5
100
AcDbLine
 10
2423.63431638582
 20
1645.329505088288
 30
0.0
 11
2423.63431638582
 21
1891.329505088288
 31
0.0
  0
SOLID
  5
78A3
330
DF3
100
AcDbEntity
  8
AM_5
100
AcDbTrace
 10
2420.300983052487
 20
1645.329505088288
 30
0.0
 11
2426.967649719154
 21
1645.329505088288
 31
0.0
 12
2423.63431638582
 22
1625.329505088288
 32
0.0
 13
2423.63431638582
 23
1625.329505088288
 33
0.0
  0
SOLID
  5
78A4
330
DF3
100
AcDbEntity
  8
AM_5
100
AcDbTrace
 10
2420.300983052487
 20
1891.329505088288
 30
0.0
 11
2426.967649719154
 21
1891.329505088288
 31
0.0
 12
2423.63431638582
 22
1911.329505088288
 32
0.0
 13
2423.63431638582
 23
1911.329505088288
 33
0.0
  0
MTEXT
  5
78A5
330
DF3
100
AcDbEntity
  8
AM_5
100
AcDbMText
 10
2407.632347881883
 20
1768.329505088288
 30
0.0
 40
20.0
 41
0.0
 71
     5
 72
     1
  1
\A2;286
 11
0.0000000000000001
 21
1.0
 31
0.0
 73
     1
 44
1.0
1001
ACAD
1000
MTEXTBEGIN
1070
    73
1070
     1
1070
    44
1040
1.0
1070
    74
1070
     0
1000
MTEXTEND
  0
POINT
  5
78A6
330
DF3
100
AcDbEntity
  8
Defpoints
 62
     0
100
AcDbPoint
 10
2508.634316385821
 20
1625.329505088288
 30
0.0
  0
POINT
  5
78A7
330
DF3
100
AcDbEntity
  8
Defpoints
 62
     0
100
AcDbPoint
 10
2533.634316385821
 20
1911.329505088288
 30
0.0
  0
POINT
  5
78A8
330
DF3
100
AcDbEntity
  8
Defpoints
 62
     0
100
AcDbPoint
 10
2423.63431638582
 20
1911.329505088288
 30
0.0
  0
ENDBLK
  5
DFE
330
DF3
100
AcDbEntity
  8
0
100
AcDbBlockEnd
  0
BLOCK
  5
E2F
330
E23
100
AcDbEntity
  8
0
100
AcDbBlockBegin
  2
*D14
 70
     1
 10
0.0
 20
0.0
 30
0.0
  3
*D14
  1

  0
LINE
  5
28AC
330
E23
100
AcDbEntity
  8
AM_5
100
AcDbLine
 10
2648.634316385821
 20
1289.820440733964
 30
0.0
 11
2648.634316385821
 21
1240.040545720783
 31
0.0
  0
LINE
  5
28AD
330
E23
100
AcDbEntity
  8
AM_5
100
AcDbLine
 10
2688.634316385821
 20
1289.507678193797
 30
0.0
 11
2688.634316385821
 21
1240.040545720783
 31
0.0
  0
LINE
  5
28AE
330
E23
100
AcDbEntity
  8
AM_5
100
AcDbLine
 10
2628.634316385821
 20
1244.040545720784
 30
0.0
 11
2608.634316385821
 21
1244.040545720784
 31
0.0
  0
LINE
  5
28AF
330
E23
100
AcDbEntity
  8
AM_5
100
AcDbLine
 10
2708.634316385821
 20
1244.040545720784
 30
0.0
 11
2728.634316385821
 21
1244.040545720784
 31
0.0
  0
LINE
  5
28B0
330
E23
100
AcDbEntity
  8
AM_5
100
AcDbLine
 10
2648.634316385821
 20
1244.040545720784
 30
0.0
 11
2688.634316385821
 21
1244.040545720784
 31
0.0
  0
SOLID
  5
28B1
330
E23
100
AcDbEntity
  8
AM_5
100
AcDbTrace
 10
2628.634316385821
 20
1247.373879054117
 30
0.0
 11
2628.634316385821
 21
1240.70721238745
 31
0.0
 12
2648.634316385821
 22
1244.040545720784
 32
0.0
 13
2648.634316385821
 23
1244.040545720784
 33
0.0
  0
SOLID
  5
28B2
330
E23
100
AcDbEntity
  8
AM_5
100
AcDbTrace
 10
2708.634316385821
 20
1247.373879054117
 30
0.0
 11
2708.634316385821
 21
1240.70721238745
 31
0.0
 12
2688.634316385821
 22
1244.040545720784
 32
0.0
 13
2688.634316385821
 23
1244.040545720784
 33
0.0
  0
MTEXT
  5
28B3
330
E23
100
AcDbEntity
  8
AM_5
100
AcDbMText
 10
2668.634316385821
 20
1260.040545720784
 30
0.0
 40
20.0
 41
0.0
 71
     5
 72
     1
  1
\A2;40
 73
     1
 44
1.0
1001
ACAD
1000
MTEXTBEGIN
1070
    73
1070
     1
1070
    44
1040
1.0
1070
    74
1070
     0
1000
MTEXTEND
  0
POINT
  5
28B4
330
E23
100
AcDbEntity
  8
Defpoints
 62
     0
100
AcDbPoint
 10
2648.634316385821
 20
1292.820440733964
 30
0.0
  0
POINT
  5
28B5
330
E23
100
AcDbEntity
  8
Defpoints
 62
     0
100
AcDbPoint
 10
2688.634316385821
 20
1292.507678193797
 30
0.0
  0
POINT
  5
28B6
330
E23
100
AcDbEntity
  8
Defpoints
 62
     0
100
AcDbPoint
 10
2688.634316385821
 20
1244.040545720784
 30
0.0
  0
ENDBLK
  5
E30
330
E23
100
AcDbEntity
  8
0
100
AcDbBlockEnd
  0
BLOCK
  5
E57
330
E4D
100
AcDbEntity
  8
0
100
AcDbBlockBegin
  2
*D15
 70
     1
 10
0.0
 20
0.0
 30
0.0
  3
*D15
  1

  0
LINE
  5
28B7
330
E4D
100
AcDbEntity
  8
AM_5
100
AcDbLine
 10
2558.63431638582
 20
1492.553991285102
 30
0.0
 11
2558.63431638582
 21
1451.329505088288
 31
0.0
  0
LINE
  5
28B8
330
E4D
100
AcDbEntity
  8
AM_5
100
AcDbLine
 10
2663.634316385821
 20
1562.329505088287
 30
0.0
 11
2663.634316385821
 21
1451.329505088288
 31
0.0
  0
LINE
  5
28B9
330
E4D
100
AcDbEntity
  8
AM_5
100
AcDbLine
 10
2578.63431638582
 20
1455.329505088288
 30
0.0
 11
2643.634316385821
 21
1455.329505088288
 31
0.0
  0
SOLID
  5
28BA
330
E4D
100
AcDbEntity
  8
AM_5
100
AcDbTrace
 10
2578.63431638582
 20
1458.662838421621
 30
0.0
 11
2578.63431638582
 21
1451.996171754954
 31
0.0
 12
2558.63431638582
 22
1455.329505088288
 32
0.0
 13
2558.63431638582
 23
1455.329505088288
 33
0.0
  0
SOLID
  5
28BB
330
E4D
100
AcDbEntity
  8
AM_5
100
AcDbTrace
 10
2643.634316385821
 20
1458.662838421621
 30
0.0
 11
2643.634316385821
 21
1451.996171754954
 31
0.0
 12
2663.634316385821
 22
1455.329505088288
 32
0.0
 13
2663.634316385821
 23
1455.329505088288
 33
0.0
  0
MTEXT
  5
28BC
330
E4D
100
AcDbEntity
  8
AM_5
100
AcDbMText
 10
2611.13431638582
 20
1471.329505088287
 30
0.0
 40
20.0
 41
0.0
 71
     5
 72
     1
  1
\A2;105
 73
     1
 44
1.0
1001
ACAD
1000
MTEXTBEGIN
1070
    73
1070
     1
1070
    44
1040
1.0
1070
    74
1070
     0
1000
MTEXTEND
  0
POINT
  5
28BD
330
E4D
100
AcDbEntity
  8
Defpoints
 62
     0
100
AcDbPoint
 10
2558.63431638582
 20
1495.553991285102
 30
0.0
  0
POINT
  5
28BE
330
E4D
100
AcDbEntity
  8
Defpoints
 62
     0
100
AcDbPoint
 10
2663.634316385821
 20
1565.329505088288
 30
0.0
  0
POINT
  5
28BF
330
E4D
100
AcDbEntity
  8
Defpoints
 62
     0
100
AcDbPoint
 10
2663.634316385821
 20
1455.329505088288
 30
0.0
  0
ENDBLK
  5
E58
330
E4D
100
AcDbEntity
  8
0
100
AcDbBlockEnd
  0
BLOCK
  5
E8B
330
E81
100
AcDbEntity
  8
0
100
AcDbBlockBegin
  2
*D16
 70
     1
 10
0.0
 20
0.0
 30
0.0
  3
*D16
  1

  0
LINE
  5
2AF5
330
E81
100
AcDbEntity
  8
AM_5
100
AcDbLine
 10
2746.634316385821
 20
1625.329505088287
 30
0.0
 11
2807.634316385821
 21
1625.329505088287
 31
0.0
  0
LINE
  5
2AF6
330
E81
100
AcDbEntity
  8
AM_5
100
AcDbLine
 10
2746.634316385821
 20
1565.329505088288
 30
0.0
 11
2807.634316385821
 21
1565.329505088288
 31
0.0
  0
LINE
  5
2AF7
330
E81
100
AcDbEntity
  8
AM_5
100
AcDbLine
 10
2803.634316385821
 20
1605.329505088288
 30
0.0
 11
2803.634316385821
 21
1585.329505088288
 31
0.0
  0
SOLID
  5
2AF8
330
E81
100
AcDbEntity
  8
AM_5
100
AcDbTrace
 10
2800.300983052487
 20
1605.329505088288
 30
0.0
 11
2806.967649719155
 21
1605.329505088288
 31
0.0
 12
2803.634316385821
 22
1625.329505088287
 32
0.0
 13
2803.634316385821
 23
1625.329505088287
 33
0.0
  0
SOLID
  5
2AF9
330
E81
100
AcDbEntity
  8
AM_5
100
AcDbTrace
 10
2800.300983052487
 20
1585.329505088288
 30
0.0
 11
2806.967649719155
 21
1585.329505088288
 31
0.0
 12
2803.634316385821
 22
1565.329505088288
 32
0.0
 13
2803.634316385821
 23
1565.329505088288
 33
0.0
  0
MTEXT
  5
2AFA
330
E81
100
AcDbEntity
  8
AM_5
100
AcDbMText
 10
2787.634316385821
 20
1595.329505088288
 30
0.0
 40
20.0
 41
0.0
 71
     5
 72
     1
  1
\A2;60
 11
0.0000000000000001
 21
1.0
 31
0.0
 73
     1
 44
1.0
1001
ACAD
1000
MTEXTBEGIN
1070
    73
1070
     1
1070
    44
1040
1.0
1070
    74
1070
     0
1000
MTEXTEND
  0
POINT
  5
2AFB
330
E81
100
AcDbEntity
  8
Defpoints
 62
     0
100
AcDbPoint
 10
2743.634316385821
 20
1625.329505088287
 30
0.0
  0
POINT
  5
2AFC
330
E81
100
AcDbEntity
  8
Defpoints
 62
     0
100
AcDbPoint
 10
2743.634316385821
 20
1565.329505088288
 30
0.0
  0
POINT
  5
2AFD
330
E81
100
AcDbEntity
  8
Defpoints
 62
     0
100
AcDbPoint
 10
2803.634316385821
 20
1565.329505088288
 30
0.0
  0
ENDBLK
  5
E8C
330
E81
100
AcDbEntity
  8
0
100
AcDbBlockEnd
  0
BLOCK
  5
EB1
330
EA7
100
AcDbEntity
  8
0
100
AcDbBlockBegin
  2
*D17
 70
     1
 10
0.0
 20
0.0
 30
0.0
  3
*D17
  1

  0
LINE
  5
78A9
330
EA7
100
AcDbEntity
  8
AM_5
100
AcDbLine
 10
2746.634316385821
 20
1304.040545720783
 30
0.0
 11
2857.634316385821
 21
1304.040545720783
 31
0.0
  0
LINE
  5
78AA
330
EA7
100
AcDbEntity
  8
AM_5
100
AcDbLine
 10
2715.134316385821
 20
1654.040545720783
 30
0.0
 11
2857.634316385821
 21
1654.040545720783
 31
0.0
  0
LINE
  5
78AB
330
EA7
100
AcDbEntity
  8
AM_5
100
AcDbLine
 10
2853.634316385821
 20
1324.040545720783
 30
0.0
 11
2853.634316385821
 21
1634.040545720783
 31
0.0
  0
SOLID
  5
78AC
330
EA7
100
AcDbEntity
  8
AM_5
100
AcDbTrace
 10
2850.300983052488
 20
1324.040545720783
 30
0.0
 11
2856.967649719154
 21
1324.040545720783
 31
0.0
 12
2853.634316385821
 22
1304.040545720783
 32
0.0
 13
2853.634316385821
 23
1304.040545720783
 33
0.0
  0
SOLID
  5
78AD
330
EA7
100
AcDbEntity
  8
AM_5
100
AcDbTrace
 10
2850.300983052488
 20
1634.040545720783
 30
0.0
 11
2856.967649719154
 21
1634.040545720783
 31
0.0
 12
2853.634316385821
 22
1654.040545720783
 32
0.0
 13
2853.634316385821
 23
1654.040545720783
 33
0.0
  0
MTEXT
  5
78AE
330
EA7
100
AcDbEntity
  8
AM_5
100
AcDbMText
 10
2837.634316385821
 20
1479.040545720783
 30
0.0
 40
20.0
 41
0.0
 71
     5
 72
     1
  1
\A2;350
 11
0.0000000000000001
 21
1.0
 31
0.0
 73
     1
 44
1.0
1001
ACAD
1000
MTEXTBEGIN
1070
    73
1070
     1
1070
    44
1040
1.0
1070
    74
1070
     0
1000
MTEXTEND
  0
POINT
  5
78AF
330
EA7
100
AcDbEntity
  8
Defpoints
 62
     0
100
AcDbPoint
 10
2743.634316385821
 20
1304.040545720783
 30
0.0
  0
POINT
  5
78B0
330
EA7
100
AcDbEntity
  8
Defpoints
 62
     0
100
AcDbPoint
 10
2712.134316385821
 20
1654.040545720783
 30
0.0
  0
POINT
  5
78B1
330
EA7
100
AcDbEntity
  8
Defpoints
 62
     0
100
AcDbPoint
 10
2853.634316385821
 20
1654.040545720783
 30
0.0
  0
ENDBLK
  5
EB2
330
EA7
100
AcDbEntity
  8
0
100
AcDbBlockEnd
  0
BLOCK
  5
FBC
330
FB0
100
AcDbEntity
  8
0
100
AcDbBlockBegin
  2
*D18
 70
     1
 10
0.0
 20
0.0
 30
0.0
  3
*D18
  1

  0
LINE
  5
2B0D
330
FB0
100
AcDbEntity
  8
AM_5
100
AcDbLine
 10
2201.044431194094
 20
2134.797466552916
 30
0.0
 11
2201.044431194094
 21
2073.797466552916
 31
0.0
  0
LINE
  5
2B0E
330
FB0
100
AcDbEntity
  8
AM_5
100
AcDbLine
 10
2241.044431194094
 20
2134.797466552916
 30
0.0
 11
2241.044431194094
 21
2073.797466552916
 31
0.0
  0
LINE
  5
2B0F
330
FB0
100
AcDbEntity
  8
AM_5
100
AcDbLine
 10
2181.044431194094
 20
2077.797466552916
 30
0.0
 11
2161.044431194094
 21
2077.797466552916
 31
0.0
  0
LINE
  5
2B10
330
FB0
100
AcDbEntity
  8
AM_5
100
AcDbLine
 10
2261.044431194094
 20
2077.797466552916
 30
0.0
 11
2334.06017922559
 21
2077.797466552916
 31
0.0
  0
LINE
  5
2B11
330
FB0
100
AcDbEntity
  8
AM_5
100
AcDbLine
 10
2201.044431194094
 20
2077.797466552916
 30
0.0
 11
2241.044431194094
 21
2077.797466552916
 31
0.0
  0
SOLID
  5
2B12
330
FB0
100
AcDbEntity
  8
AM_5
100
AcDbTrace
 10
2181.044431194094
 20
2081.13079988625
 30
0.0
 11
2181.044431194094
 21
2074.464133219583
 31
0.0
 12
2201.044431194094
 22
2077.797466552916
 32
0.0
 13
2201.044431194094
 23
2077.797466552916
 33
0.0
  0
SOLID
  5
2B13
330
FB0
100
AcDbEntity
  8
AM_5
100
AcDbTrace
 10
2261.044431194094
 20
2081.13079988625
 30
0.0
 11
2261.044431194094
 21
2074.464133219583
 31
0.0
 12
2241.044431194094
 22
2077.797466552916
 32
0.0
 13
2241.044431194094
 23
2077.797466552916
 33
0.0
  0
MTEXT
  5
2B14
330
FB0
100
AcDbEntity
  8
AM_5
100
AcDbMText
 10
2308.052305209843
 20
2093.799435056853
 30
0.0
 40
20.0
 41
0.0
 71
     5
 72
     1
  1
\A2;%%c20
 73
     1
 44
1.0
1001
ACAD
1000
MTEXTBEGIN
1070
    73
1070
     1
1070
    44
1040
1.0
1070
    74
1070
     0
1000
MTEXTEND
  0
POINT
  5
2B15
330
FB0
100
AcDbEntity
  8
Defpoints
 62
     0
100
AcDbPoint
 10
2201.044431194094
 20
2137.797466552916
 30
0.0
  0
POINT
  5
2B16
330
FB0
100
AcDbEntity
  8
Defpoints
 62
     0
100
AcDbPoint
 10
2241.044431194094
 20
2137.797466552916
 30
0.0
  0
POINT
  5
2B17
330
FB0
100
AcDbEntity
  8
Defpoints
 62
     0
100
AcDbPoint
 10
2241.044431194094
 20
2077.797466552916
 30
0.0
  0
ENDBLK
  5
FBD
330
FB0
100
AcDbEntity
  8
0
100
AcDbBlockEnd
  0
BLOCK
  5
1016
330
100A
100
AcDbEntity
  8
0
100
AcDbBlockBegin
  2
*D19
 70
     1
 10
0.0
 20
0.0
 30
0.0
  3
*D19
  1

  0
LINE
  5
2B27
330
100A
100
AcDbEntity
  8
AM_5
100
AcDbLine
 10
2177.044431194095
 20
2137.797466552916
 30
0.0
 11
2109.701709120546
 21
2137.797466552916
 31
0.0
  0
LINE
  5
2B28
330
100A
100
AcDbEntity
  8
AM_5
100
AcDbLine
 10
2151.72590459201
 20
2167.797466552916
 30
0.0
 11
2109.701709120546
 21
2167.797466552916
 31
0.0
  0
LINE
  5
2B29
330
100A
100
AcDbEntity
  8
AM_5
100
AcDbLine
 10
2113.701709120546
 20
2187.797466552916
 30
0.0
 11
2113.701709120546
 21
2207.797466552916
 31
0.0
  0
LINE
  5
2B2A
330
100A
100
AcDbEntity
  8
AM_5
100
AcDbLine
 10
2113.701709120546
 20
2117.797466552916
 30
0.0
 11
2113.701709120546
 21
2066.96903942817
 31
0.0
  0
LINE
  5
2B2B
330
100A
100
AcDbEntity
  8
AM_5
100
AcDbLine
 10
2113.701709120546
 20
2167.797466552916
 30
0.0
 11
2113.701709120546
 21
2137.797466552916
 31
0.0
  0
SOLID
  5
2B2C
330
100A
100
AcDbEntity
  8
AM_5
100
AcDbTrace
 10
2110.368375787212
 20
2187.797466552916
 30
0.0
 11
2117.035042453879
 21
2187.797466552916
 31
0.0
 12
2113.701709120546
 22
2167.797466552916
 32
0.0
 13
2113.701709120546
 23
2167.797466552916
 33
0.0
  0
SOLID
  5
2B2D
330
100A
100
AcDbEntity
  8
AM_5
100
AcDbTrace
 10
2110.368375787212
 20
2117.797466552916
 30
0.0
 11
2117.035042453879
 21
2117.797466552916
 31
0.0
 12
2113.701709120546
 22
2137.797466552916
 32
0.0
 13
2113.701709120546
 23
2137.797466552916
 33
0.0
  0
MTEXT
  5
2B2E
330
100A
100
AcDbEntity
  8
AM_5
100
AcDbMText
 10
2097.701709120546
 20
2082.383252990544
 30
0.0
 40
20.0
 41
0.0
 71
     5
 72
     1
  1
\A2;15
 11
0.0000000000000001
 21
1.0
 31
0.0
 73
     1
 44
1.0
1001
ACAD
1000
MTEXTBEGIN
1070
    73
1070
     1
1070
    44
1040
1.0
1070
    74
1070
     0
1000
MTEXTEND
  0
POINT
  5
2B2F
330
100A
100
AcDbEntity
  8
Defpoints
 62
     0
100
AcDbPoint
 10
2180.044431194095
 20
2137.797466552916
 30
0.0
  0
POINT
  5
2B30
330
100A
100
AcDbEntity
  8
Defpoints
 62
     0
100
AcDbPoint
 10
2154.725904592011
 20
2167.797466552916
 30
0.0
  0
POINT
  5
2B31
330
100A
100
AcDbEntity
  8
Defpoints
 62
     0
100
AcDbPoint
 10
2113.701709120546
 20
2167.797466552916
 30
0.0
  0
ENDBLK
  5
1017
330
100A
100
AcDbEntity
  8
0
100
AcDbBlockEnd
  0
BLOCK
  5
1048
330
103E
100
AcDbEntity
  8
0
100
AcDbBlockBegin
  2
*D20
 70
     1
 10
0.0
 20
0.0
 30
0.0
  3
*D20
  1

  0
LINE
  5
2B1E
330
103E
100
AcDbEntity
  8
AM_5
100
AcDbLine
 10
2177.044431194095
 20
2137.797466552916
 30
0.0
 11
2059.701709120546
 21
2137.797466552916
 31
0.0
  0
LINE
  5
2B1F
330
103E
100
AcDbEntity
  8
AM_5
100
AcDbLine
 10
2198.044431194094
 20
2197.797466552916
 30
0.0
 11
2059.701709120546
 21
2197.797466552916
 31
0.0
  0
LINE
  5
2B20
330
103E
100
AcDbEntity
  8
AM_5
100
AcDbLine
 10
2063.701709120546
 20
2157.797466552916
 30
0.0
 11
2063.701709120546
 21
2177.797466552916
 31
0.0
  0
SOLID
  5
2B21
330
103E
100
AcDbEntity
  8
AM_5
100
AcDbTrace
 10
2060.368375787212
 20
2157.797466552916
 30
0.0
 11
2067.035042453879
 21
2157.797466552916
 31
0.0
 12
2063.701709120546
 22
2137.797466552916
 32
0.0
 13
2063.701709120546
 23
2137.797466552916
 33
0.0
  0
SOLID
  5
2B22
330
103E
100
AcDbEntity
  8
AM_5
100
AcDbTrace
 10
2060.368375787212
 20
2177.797466552916
 30
0.0
 11
2067.035042453879
 21
2177.797466552916
 31
0.0
 12
2063.701709120546
 22
2197.797466552916
 32
0.0
 13
2063.701709120546
 23
2197.797466552916
 33
0.0
  0
MTEXT
  5
2B23
330
103E
100
AcDbEntity
  8
AM_5
100
AcDbMText
 10
2047.701709120545
 20
2167.797466552916
 30
0.0
 40
20.0
 41
0.0
 71
     5
 72
     1
  1
\A2;30
 11
0.0000000000000001
 21
1.0
 31
0.0
 73
     1
 44
1.0
1001
ACAD
1000
MTEXTBEGIN
1070
    73
1070
     1
1070
    44
1040
1.0
1070
    74
1070
     0
1000
MTEXTEND
  0
POINT
  5
2B24
330
103E
100
AcDbEntity
  8
Defpoints
 62
     0
100
AcDbPoint
 10
2180.044431194095
 20
2137.797466552916
 30
0.0
  0
POINT
  5
2B25
330
103E
100
AcDbEntity
  8
Defpoints
 62
     0
100
AcDbPoint
 10
2201.044431194094
 20
2197.797466552916
 30
0.0
  0
POINT
  5
2B26
330
103E
100
AcDbEntity
  8
Defpoints
 62
     0
100
AcDbPoint
 10
2063.701709120546
 20
2197.797466552916
 30
0.0
  0
ENDBLK
  5
1049
330
103E
100
AcDbEntity
  8
0
100
AcDbBlockEnd
  0
BLOCK
  5
14CA
330
14BE
100
AcDbEntity
  8
0
100
AcDbBlockBegin
  2
*D21
 70
     1
 10
0.0
 20
0.0
 30
0.0
  3
*D21
  1

  0
LINE
  5
29E2
330
14BE
100
AcDbEntity
  8
AM_5
100
AcDbLine
 10
2524.431270342043
 20
2145.848595018393
 30
0.0
 11
2524.431270342043
 21
2084.848594018394
 31
0.0
  0
LINE
  5
29E3
330
14BE
100
AcDbEntity
  8
AM_5
100
AcDbLine
 10
2564.431270342043
 20
2145.848595018393
 30
0.0
 11
2564.431270342043
 21
2084.848594018394
 31
0.0
  0
LINE
  5
29E4
330
14BE
100
AcDbEntity
  8
AM_5
100
AcDbLine
 10
2504.431270342043
 20
2088.848594018394
 30
0.0
 11
2484.431270342043
 21
2088.848594018394
 31
0.0
  0
LINE
  5
29E5
330
14BE
100
AcDbEntity
  8
AM_5
100
AcDbLine
 10
2584.431270342043
 20
2088.848594018394
 30
0.0
 11
2604.431270342043
 21
2088.848594018394
 31
0.0
  0
LINE
  5
29E6
330
14BE
100
AcDbEntity
  8
AM_5
100
AcDbLine
 10
2524.431270342043
 20
2088.848594018394
 30
0.0
 11
2564.431270342043
 21
2088.848594018394
 31
0.0
  0
SOLID
  5
29E7
330
14BE
100
AcDbEntity
  8
AM_5
100
AcDbTrace
 10
2504.431270342043
 20
2092.181927351727
 30
0.0
 11
2504.431270342043
 21
2085.51526068506
 31
0.0
 12
2524.431270342043
 22
2088.848594018394
 32
0.0
 13
2524.431270342043
 23
2088.848594018394
 33
0.0
  0
SOLID
  5
29E8
330
14BE
100
AcDbEntity
  8
AM_5
100
AcDbTrace
 10
2584.431270342043
 20
2092.181927351727
 30
0.0
 11
2584.431270342043
 21
2085.51526068506
 31
0.0
 12
2564.431270342043
 22
2088.848594018394
 32
0.0
 13
2564.431270342043
 23
2088.848594018394
 33
0.0
  0
MTEXT
  5
29E9
330
14BE
100
AcDbEntity
  8
AM_5
100
AcDbMText
 10
2544.431270342043
 20
2104.850562522331
 30
0.0
 40
20.0
 41
0.0
 71
     5
 72
     1
  1
\A2;20
 73
     1
 44
1.0
1001
ACAD
1000
MTEXTBEGIN
1070
    73
1070
     1
1070
    44
1040
1.0
1070
    74
1070
     0
1000
MTEXTEND
  0
POINT
  5
29EA
330
14BE
100
AcDbEntity
  8
Defpoints
 62
     0
100
AcDbPoint
 10
2524.431270342043
 20
2148.848595018393
 30
0.0
  0
POINT
  5
29EB
330
14BE
100
AcDbEntity
  8
Defpoints
 62
     0
100
AcDbPoint
 10
2564.431270342043
 20
2148.848595018393
 30
0.0
  0
POINT
  5
29EC
330
14BE
100
AcDbEntity
  8
Defpoints
 62
     0
100
AcDbPoint
 10
2564.431270342043
 20
2088.848594018394
 30
0.0
  0
ENDBLK
  5
14CB
330
14BE
100
AcDbEntity
  8
0
100
AcDbBlockEnd
  0
BLOCK
  5
14F4
330
14E8
100
AcDbEntity
  8
0
100
AcDbBlockBegin
  2
*D22
 70
     1
 10
0.0
 20
0.0
 30
0.0
  3
*D22
  1

  0
LINE
  5
29D7
330
14E8
100
AcDbEntity
  8
AM_5
100
AcDbLine
 10
2532.431270342043
 20
2183.848595018393
 30
0.0
 11
2532.431270342043
 21
2244.848596018393
 31
0.0
  0
LINE
  5
29D8
330
14E8
100
AcDbEntity
  8
AM_5
100
AcDbLine
 10
2556.431270342043
 20
2183.848595018393
 30
0.0
 11
2556.431270342043
 21
2244.848596018393
 31
0.0
  0
LINE
  5
29D9
330
14E8
100
AcDbEntity
  8
AM_5
100
AcDbLine
 10
2512.431270342043
 20
2240.848596018393
 30
0.0
 11
2492.431270342043
 21
2240.848596018393
 31
0.0
  0
LINE
  5
29DA
330
14E8
100
AcDbEntity
  8
AM_5
100
AcDbLine
 10
2576.431270342043
 20
2240.848596018393
 30
0.0
 11
2596.431270342043
 21
2240.848596018393
 31
0.0
  0
LINE
  5
29DB
330
14E8
100
AcDbEntity
  8
AM_5
100
AcDbLine
 10
2532.431270342043
 20
2240.848596018393
 30
0.0
 11
2556.431270342043
 21
2240.848596018393
 31
0.0
  0
SOLID
  5
29DC
330
14E8
100
AcDbEntity
  8
AM_5
100
AcDbTrace
 10
2512.431270342043
 20
2244.181929351727
 30
0.0
 11
2512.431270342043
 21
2237.51526268506
 31
0.0
 12
2532.431270342043
 22
2240.848596018393
 32
0.0
 13
2532.431270342043
 23
2240.848596018393
 33
0.0
  0
SOLID
  5
29DD
330
14E8
100
AcDbEntity
  8
AM_5
100
AcDbTrace
 10
2576.431270342043
 20
2244.181929351727
 30
0.0
 11
2576.431270342043
 21
2237.51526268506
 31
0.0
 12
2556.431270342043
 22
2240.848596018393
 32
0.0
 13
2556.431270342043
 23
2240.848596018393
 33
0.0
  0
MTEXT
  5
29DE
330
14E8
100
AcDbEntity
  8
AM_5
100
AcDbMText
 10
2544.431270342043
 20
2256.850564522331
 30
0.0
 40
20.0
 41
0.0
 71
     5
 72
     1
  1
\A2;12
 73
     1
 44
1.0
1001
ACAD
1000
MTEXTBEGIN
1070
    73
1070
     1
1070
    44
1040
1.0
1070
    74
1070
     0
1000
MTEXTEND
  0
POINT
  5
29DF
330
14E8
100
AcDbEntity
  8
Defpoints
 62
     0
100
AcDbPoint
 10
2532.431270342043
 20
2180.848595018393
 30
0.0
  0
POINT
  5
29E0
330
14E8
100
AcDbEntity
  8
Defpoints
 62
     0
100
AcDbPoint
 10
2556.431270342043
 20
2180.848595018393
 30
0.0
  0
POINT
  5
29E1
330
14E8
100
AcDbEntity
  8
Defpoints
 62
     0
100
AcDbPoint
 10
2556.431270342043
 20
2240.848596018393
 30
0.0
  0
ENDBLK
  5
14F5
330
14E8
100
AcDbEntity
  8
0
100
AcDbBlockEnd
  0
BLOCK
  5
151E
330
1512
100
AcDbEntity
  8
0
100
AcDbBlockBegin
  2
*D23
 70
     1
 10
0.0
 20
0.0
 30
0.0
  3
*D23
  1

  0
LINE
  5
29CC
330
1512
100
AcDbEntity
  8
AM_5
100
AcDbLine
 10
2586.676467896472
 20
2180.848595018393
 30
0.0
 11
2647.676467896472
 21
2180.848595018393
 31
0.0
  0
LINE
  5
29CD
330
1512
100
AcDbEntity
  8
AM_5
100
AcDbLine
 10
2567.431270342043
 20
2164.848595018393
 30
0.0
 11
2647.676467896472
 21
2164.848595018393
 31
0.0
  0
LINE
  5
29CE
330
1512
100
AcDbEntity
  8
AM_5
100
AcDbLine
 10
2643.676467896473
 20
2200.848595018393
 30
0.0
 11
2643.676467896473
 21
2220.848595018393
 31
0.0
  0
LINE
  5
29CF
330
1512
100
AcDbEntity
  8
AM_5
100
AcDbLine
 10
2643.676467896473
 20
2144.848595018393
 30
0.0
 11
2643.676467896473
 21
2124.848595018393
 31
0.0
  0
LINE
  5
29D0
330
1512
100
AcDbEntity
  8
AM_5
100
AcDbLine
 10
2643.676467896473
 20
2180.848595018393
 30
0.0
 11
2643.676467896473
 21
2164.848595018393
 31
0.0
  0
SOLID
  5
29D1
330
1512
100
AcDbEntity
  8
AM_5
100
AcDbTrace
 10
2640.343134563139
 20
2200.848595018393
 30
0.0
 11
2647.009801229806
 21
2200.848595018393
 31
0.0
 12
2643.676467896473
 22
2180.848595018393
 32
0.0
 13
2643.676467896473
 23
2180.848595018393
 33
0.0
  0
SOLID
  5
29D2
330
1512
100
AcDbEntity
  8
AM_5
100
AcDbTrace
 10
2640.343134563139
 20
2144.848595018393
 30
0.0
 11
2647.009801229806
 21
2144.848595018393
 31
0.0
 12
2643.676467896473
 22
2164.848595018393
 32
0.0
 13
2643.676467896473
 23
2164.848595018393
 33
0.0
  0
MTEXT
  5
29D3
330
1512
100
AcDbEntity
  8
AM_5
100
AcDbMText
 10
2627.676467896472
 20
2172.848595018393
 30
0.0
 40
20.0
 41
0.0
 71
     5
 72
     1
  1
\A2;8
 11
0.0000000000000001
 21
1.0
 31
0.0
 73
     1
 44
1.0
1001
ACAD
1000
MTEXTBEGIN
1070
    73
1070
     1
1070
    44
1040
1.0
1070
    74
1070
     0
1000
MTEXTEND
  0
POINT
  5
29D4
330
1512
100
AcDbEntity
  8
Defpoints
 62
     0
100
AcDbPoint
 10
2583.676467896472
 20
2180.848595018393
 30
0.0
  0
POINT
  5
29D5
330
1512
100
AcDbEntity
  8
Defpoints
 62
     0
100
AcDbPoint
 10
2564.431270342043
 20
2164.848595018393
 30
0.0
  0
POINT
  5
29D6
330
1512
100
AcDbEntity
  8
Defpoints
 62
     0
100
AcDbPoint
 10
2643.676467896473
 20
2164.848595018393
 30
0.0
  0
ENDBLK
  5
151F
330
1512
100
AcDbEntity
  8
0
100
AcDbBlockEnd
  0
BLOCK
  5
1548
330
153C
100
AcDbEntity
  8
0
100
AcDbBlockBegin
  2
*D24
 70
     1
 10
0.0
 20
0.0
 30
0.0
  3
*D24
  1

  0
LINE
  5
29C1
330
153C
100
AcDbEntity
  8
AM_5
100
AcDbLine
 10
2521.431270342043
 20
2164.848595018393
 30
0.0
 11
2460.431270342044
 21
2164.848595018393
 31
0.0
  0
LINE
  5
29C2
330
153C
100
AcDbEntity
  8
AM_5
100
AcDbLine
 10
2521.431270342043
 20
2148.848595018393
 30
0.0
 11
2460.431270342044
 21
2148.848595018393
 31
0.0
  0
LINE
  5
29C3
330
153C
100
AcDbEntity
  8
AM_5
100
AcDbLine
 10
2464.431270342043
 20
2184.848595018393
 30
0.0
 11
2464.431270342043
 21
2204.848595018393
 31
0.0
  0
LINE
  5
29C4
330
153C
100
AcDbEntity
  8
AM_5
100
AcDbLine
 10
2464.431270342043
 20
2128.848595018393
 30
0.0
 11
2464.431270342043
 21
2108.848595018393
 31
0.0
  0
LINE
  5
29C5
330
153C
100
AcDbEntity
  8
AM_5
100
AcDbLine
 10
2464.431270342043
 20
2164.848595018393
 30
0.0
 11
2464.431270342043
 21
2148.848595018393
 31
0.0
  0
SOLID
  5
29C6
330
153C
100
AcDbEntity
  8
AM_5
100
AcDbTrace
 10
2461.09793700871
 20
2184.848595018393
 30
0.0
 11
2467.764603675377
 21
2184.848595018393
 31
0.0
 12
2464.431270342043
 22
2164.848595018393
 32
0.0
 13
2464.431270342043
 23
2164.848595018393
 33
0.0
  0
SOLID
  5
29C7
330
153C
100
AcDbEntity
  8
AM_5
100
AcDbTrace
 10
2461.09793700871
 20
2128.848595018393
 30
0.0
 11
2467.764603675377
 21
2128.848595018393
 31
0.0
 12
2464.431270342043
 22
2148.848595018393
 32
0.0
 13
2464.431270342043
 23
2148.848595018393
 33
0.0
  0
MTEXT
  5
29C8
330
153C
100
AcDbEntity
  8
AM_5
100
AcDbMText
 10
2448.431270342043
 20
2156.848595018394
 30
0.0
 40
20.0
 41
0.0
 71
     5
 72
     1
  1
\A2;8
 11
0.0000000000000001
 21
1.0
 31
0.0
 73
     1
 44
1.0
1001
ACAD
1000
MTEXTBEGIN
1070
    73
1070
     1
1070
    44
1040
1.0
1070
    74
1070
     0
1000
MTEXTEND
  0
POINT
  5
29C9
330
153C
100
AcDbEntity
  8
Defpoints
 62
     0
100
AcDbPoint
 10
2524.431270342043
 20
2164.848595018393
 30
0.0
  0
POINT
  5
29CA
330
153C
100
AcDbEntity
  8
Defpoints
 62
     0
100
AcDbPoint
 10
2524.431270342043
 20
2148.848595018393
 30
0.0
  0
POINT
  5
29CB
330
153C
100
AcDbEntity
  8
Defpoints
 62
     0
100
AcDbPoint
 10
2464.431270342043
 20
2148.848595018393
 30
0.0
  0
ENDBLK
  5
1549
330
153C
100
AcDbEntity
  8
0
100
AcDbBlockEnd
  0
BLOCK
  5
17D6
330
17CC
100
AcDbEntity
  8
0
100
AcDbBlockBegin
  2
*D25
 70
     1
 10
0.0
 20
0.0
 30
0.0
  3
*D25
  1

  0
LINE
  5
78B2
330
17CC
100
AcDbEntity
  8
AM_5
100
AcDbLine
 10
2480.634316385821
 20
1304.040545720783
 30
0.0
 11
2369.63431638582
 21
1304.040545720783
 31
0.0
  0
LINE
  5
78B3
330
17CC
100
AcDbEntity
  8
AM_5
100
AcDbLine
 10
2530.634316385821
 20
1911.329505088288
 30
0.0
 11
2369.63431638582
 21
1911.329505088288
 31
0.0
  0
LINE
  5
78B4
330
17CC
100
AcDbEntity
  8
AM_5
100
AcDbLine
 10
2373.63431638582
 20
1324.040545720783
 30
0.0
 11
2373.63431638582
 21
1891.329505088288
 31
0.0
  0
SOLID
  5
78B5
330
17CC
100
AcDbEntity
  8
AM_5
100
AcDbTrace
 10
2370.300983052487
 20
1324.040545720783
 30
0.0
 11
2376.967649719154
 21
1324.040545720783
 31
0.0
 12
2373.63431638582
 22
1304.040545720783
 32
0.0
 13
2373.63431638582
 23
1304.040545720783
 33
0.0
  0
SOLID
  5
78B6
330
17CC
100
AcDbEntity
  8
AM_5
100
AcDbTrace
 10
2370.300983052487
 20
1891.329505088288
 30
0.0
 11
2376.967649719154
 21
1891.329505088288
 31
0.0
 12
2373.63431638582
 22
1911.329505088288
 32
0.0
 13
2373.63431638582
 23
1911.329505088288
 33
0.0
  0
MTEXT
  5
78B7
330
17CC
100
AcDbEntity
  8
AM_5
100
AcDbMText
 10
2357.63431638582
 20
1607.685025404536
 30
0.0
 40
20.0
 41
0.0
 71
     5
 72
     1
  1
\A2;Max. 630
 11
0.0000000000000001
 21
1.0
 31
0.0
 73
     1
 44
1.0
1001
ACAD
1000
MTEXTBEGIN
1070
    73
1070
     1
1070
    44
1040
1.0
1070
    74
1070
     0
1000
MTEXTEND
  0
POINT
  5
78B8
330
17CC
100
AcDbEntity
  8
Defpoints
 62
     0
100
AcDbPoint
 10
2483.634316385821
 20
1304.040545720783
 30
0.0
  0
POINT
  5
78B9
330
17CC
100
AcDbEntity
  8
Defpoints
 62
     0
100
AcDbPoint
 10
2533.634316385821
 20
1911.329505088288
 30
0.0
  0
POINT
  5
78BA
330
17CC
100
AcDbEntity
  8
Defpoints
 62
     0
100
AcDbPoint
 10
2373.63431638582
 20
1911.329505088288
 30
0.0
  0
ENDBLK
  5
17D7
330
17CC
100
AcDbEntity
  8
0
100
AcDbBlockEnd
  0
BLOCK
  5
18C8
330
18BC
100
AcDbEntity
  8
0
100
AcDbBlockBegin
  2
*D26
 70
     1
 10
0.0
 20
0.0
 30
0.0
  3
*D26
  1

  0
LINE
  5
2997
330
18BC
100
AcDbEntity
  8
AM_5
100
AcDbLine
 10
2663.63431638582
 20
1562.329505088287
 30
0.0
 11
2663.63431638582
 21
1451.329505088287
 31
0.0
  0
LINE
  5
2998
330
18BC
100
AcDbEntity
  8
AM_5
100
AcDbLine
 10
2713.63431638582
 20
1562.329505088287
 30
0.0
 11
2713.63431638582
 21
1451.329505088287
 31
0.0
  0
LINE
  5
2999
330
18BC
100
AcDbEntity
  8
AM_5
100
AcDbLine
 10
2643.63431638582
 20
1455.329505088287
 30
0.0
 11
2623.63431638582
 21
1455.329505088287
 31
0.0
  0
LINE
  5
299A
330
18BC
100
AcDbEntity
  8
AM_5
100
AcDbLine
 10
2733.63431638582
 20
1455.329505088287
 30
0.0
 11
2805.650064417316
 21
1455.329505088287
 31
0.0
  0
LINE
  5
299B
330
18BC
100
AcDbEntity
  8
AM_5
100
AcDbLine
 10
2663.63431638582
 20
1455.329505088287
 30
0.0
 11
2713.63431638582
 21
1455.329505088287
 31
0.0
  0
SOLID
  5
299C
330
18BC
100
AcDbEntity
  8
AM_5
100
AcDbTrace
 10
2643.63431638582
 20
1458.66283842162
 30
0.0
 11
2643.63431638582
 21
1451.996171754954
 31
0.0
 12
2663.63431638582
 22
1455.329505088287
 32
0.0
 13
2663.63431638582
 23
1455.329505088287
 33
0.0
  0
SOLID
  5
299D
330
18BC
100
AcDbEntity
  8
AM_5
100
AcDbTrace
 10
2733.63431638582
 20
1458.66283842162
 30
0.0
 11
2733.63431638582
 21
1451.996171754954
 31
0.0
 12
2713.63431638582
 22
1455.329505088287
 32
0.0
 13
2713.63431638582
 23
1455.329505088287
 33
0.0
  0
MTEXT
  5
299E
330
18BC
100
AcDbEntity
  8
AM_5
100
AcDbMText
 10
2779.642190401568
 20
1471.329505088287
 30
0.0
 40
20.0
 41
0.0
 71
     5
 72
     1
  1
\A2;%%c50
 73
     1
 44
1.0
1001
ACAD
1000
MTEXTBEGIN
1070
    73
1070
     1
1070
    44
1040
1.0
1070
    74
1070
     0
1000
MTEXTEND
  0
POINT
  5
299F
330
18BC
100
AcDbEntity
  8
Defpoints
 62
     0
100
AcDbPoint
 10
2663.63431638582
 20
1565.329505088288
 30
0.0
  0
POINT
  5
29A0
330
18BC
100
AcDbEntity
  8
Defpoints
 62
     0
100
AcDbPoint
 10
2713.63431638582
 20
1565.329505088288
 30
0.0
  0
POINT
  5
29A1
330
18BC
100
AcDbEntity
  8
Defpoints
 62
     0
100
AcDbPoint
 10
2713.63431638582
 20
1455.329505088287
 30
0.0
  0
ENDBLK
  5
18C9
330
18BC
100
AcDbEntity
  8
0
100
AcDbBlockEnd
  0
BLOCK
  5
2D07
330
2CFD
100
AcDbEntity
  8
0
100
AcDbBlockBegin
  2
*D27
 70
     1
 10
0.0
 20
0.0
 30
0.0
  3
*D27
  1

  0
LINE
  5
7869
330
2CFD
100
AcDbEntity
  8
AM_5
100
AcDbLine
 10
2092.618939833576
 20
1568.329505088288
 30
0.0
 11
2092.618939833576
 21
1609.329505088288
 31
0.0
  0
LINE
  5
786A
330
2CFD
100
AcDbEntity
  8
AM_5
100
AcDbLine
 10
2192.618939833575
 20
1568.329505088288
 30
0.0
 11
2192.618939833575
 21
1609.329505088288
 31
0.0
  0
LINE
  5
786B
330
2CFD
100
AcDbEntity
  8
AM_5
100
AcDbLine
 10
2172.618939833576
 20
1605.329505088288
 30
0.0
 11
2112.618939833575
 21
1605.329505088288
 31
0.0
  0
LINE
  5
786C
330
2CFD
100
AcDbEntity
  8
AM_5
100
AcDbLine
 10
2092.618939833576
 20
1605.329505088288
 30
0.0
 11
2028.603191802079
 21
1605.329505088288
 31
0.0
  0
SOLID
  5
786D
330
2CFD
100
AcDbEntity
  8
AM_5
100
AcDbTrace
 10
2172.618939833576
 20
1608.662838421621
 30
0.0
 11
2172.618939833576
 21
1601.996171754955
 31
0.0
 12
2192.618939833575
 22
1605.329505088288
 32
0.0
 13
2192.618939833575
 23
1605.329505088288
 33
0.0
  0
SOLID
  5
786E
330
2CFD
100
AcDbEntity
  8
AM_5
100
AcDbTrace
 10
2112.618939833575
 20
1608.662838421621
 30
0.0
 11
2112.618939833575
 21
1601.996171754955
 31
0.0
 12
2092.618939833576
 22
1605.329505088288
 32
0.0
 13
2092.618939833576
 23
1605.329505088288
 33
0.0
  0
MTEXT
  5
786F
330
2CFD
100
AcDbEntity
  8
AM_5
100
AcDbMText
 10
2050.611065817828
 20
1621.329505088288
 30
0.0
 40
20.0
 41
0.0
 71
     5
 72
     1
  1
\A2;100
 73
     1
 44
1.0
1001
ACAD
1000
MTEXTBEGIN
1070
    73
1070
     1
1070
    44
1040
1.0
1070
    74
1070
     0
1000
MTEXTEND
  0
POINT
  5
7870
330
2CFD
100
AcDbEntity
  8
Defpoints
 62
     0
100
AcDbPoint
 10
2092.618939833576
 20
1565.329505088288
 30
0.0
  0
POINT
  5
7871
330
2CFD
100
AcDbEntity
  8
Defpoints
 62
     0
100
AcDbPoint
 10
2192.618939833575
 20
1565.329505088288
 30
0.0
  0
POINT
  5
7872
330
2CFD
100
AcDbEntity
  8
Defpoints
 62
     0
100
AcDbPoint
 10
2192.618939833575
 20
1605.329505088288
 30
0.0
  0
ENDBLK
  5
2D08
330
2CFD
100
AcDbEntity
  8
0
100
AcDbBlockEnd
  0
BLOCK
  5
2FE0
330
2FD6
100
AcDbEntity
  8
0
100
AcDbBlockBegin
  2
*D28
 70
     1
 10
0.0
 20
0.0
 30
0.0
  3
*D28
  1

  0
LINE
  5
2FEB
330
2FD6
100
AcDbEntity
  8
AM_5
100
AcDbLine
 10
2483.634316385821
 20
1362.040545720783
 30
0.0
 11
2483.634316385821
 21
1410.911965043284
 31
0.0
  0
LINE
  5
2FEC
330
2FD6
100
AcDbEntity
  8
AM_5
100
AcDbLine
 10
2633.634316385821
 20
1362.040545720783
 30
0.0
 11
2633.634316385821
 21
1410.911965043284
 31
0.0
  0
LINE
  5
2FED
330
2FD6
100
AcDbEntity
  8
AM_5
100
AcDbLine
 10
2503.634316385821
 20
1406.911965043284
 30
0.0
 11
2613.634316385821
 21
1406.911965043284
 31
0.0
  0
SOLID
  5
2FEE
330
2FD6
100
AcDbEntity
  8
AM_5
100
AcDbTrace
 10
2503.634316385821
 20
1410.245298376618
 30
0.0
 11
2503.634316385821
 21
1403.578631709951
 31
0.0
 12
2483.634316385821
 22
1406.911965043284
 32
0.0
 13
2483.634316385821
 23
1406.911965043284
 33
0.0
  0
SOLID
  5
2FEF
330
2FD6
100
AcDbEntity
  8
AM_5
100
AcDbTrace
 10
2613.634316385821
 20
1410.245298376618
 30
0.0
 11
2613.634316385821
 21
1403.578631709951
 31
0.0
 12
2633.634316385821
 22
1406.911965043284
 32
0.0
 13
2633.634316385821
 23
1406.911965043284
 33
0.0
  0
MTEXT
  5
2FF0
330
2FD6
100
AcDbEntity
  8
AM_5
100
AcDbMText
 10
2558.634316385821
 20
1422.911965043284
 30
0.0
 40
20.0
 41
0.0
 71
     5
 72
     1
  1
\A2;150
 73
     1
 44
1.0
1001
ACAD
1000
MTEXTBEGIN
1070
    73
1070
     1
1070
    44
1040
1.0
1070
    74
1070
     0
1000
MTEXTEND
  0
POINT
  5
2FF1
330
2FD6
100
AcDbEntity
  8
Defpoints
 62
     0
100
AcDbPoint
 10
2483.634316385821
 20
1359.040545720783
 30
0.0
  0
POINT
  5
2FF2
330
2FD6
100
AcDbEntity
  8
Defpoints
 62
     0
100
AcDbPoint
 10
2633.634316385821
 20
1359.040545720783
 30
0.0
  0
POINT
  5
2FF3
330
2FD6
100
AcDbEntity
  8
Defpoints
 62
     0
100
AcDbPoint
 10
2633.634316385821
 20
1406.911965043284
 30
0.0
  0
ENDBLK
  5
2FE1
330
2FD6
100
AcDbEntity
  8
0
100
AcDbBlockEnd
  0
BLOCK
  5
7902
330
78FD
100
AcDbEntity
  8
0
100
AcDbBlockBegin
  2
*S30
 70
     1
 10
0.0
 20
0.0
 30
0.0
  3
*S30
  1

  0
LINE
  5
78FE
330
78FD
100
AcDbEntity
  8
AM_5
 62
     5
100
AcDbLine
 10
2379.597432702033
 20
2204.140967995121
 30
0.0
 11
2304.558241488604
 21
2204.140967995121
 31
0.0
  0
LINE
  5
78FF
330
78FD
100
AcDbEntity
  8
AM_5
 62
     5
100
AcDbLine
 10
2304.558241488604
 20
2204.140967995121
 30
0.0
 11
2282.652130409271
 21
2182.253346638344
 31
0.0
  0
TRACE
  5
7900
330
78FD
100
AcDbEntity
  8
AM_5
 62
     5
370
    35
100
AcDbTrace
 10
2280.698016118258
 20
2184.209111681189
 30
0.0
 11
2284.606244700282
 21
2180.297581595498
 31
0.0
 12
2267.796619975272
 22
2167.410374909429
 32
0.0
 13
2267.796619975272
 23
2167.410374909429
 33
0.0
  0
MTEXT
  5
7901
330
78FD
100
AcDbEntity
  8
AM_5
 62
     2
100
AcDbMText
 10
2379.597432702033
 20
2199.496002990785
 30
0.0
 40
21.0
 41
0.0
 71
     7
 72
     5
  1

  7
ACISOTS
 73
     1
 44
1.0
1001
ACAD
1000
MTEXTBEGIN
1070
    73
1070
     1
1070
    44
1040
1.0
1070
    74
1070
     0
1000
MTEXTEND
  0
ENDBLK
  5
7903
330
78FD
100
AcDbEntity
  8
0
100
AcDbBlockEnd
  0
BLOCK
  5
790A
330
7905
100
AcDbEntity
  8
0
100
AcDbBlockBegin
  2
*S31
 70
     1
 10
0.0
 20
0.0
 30
0.0
  3
*S31
  1

  0
LINE
  5
7906
330
7905
100
AcDbEntity
  8
AM_5
 62
     5
100
AcDbLine
 10
2331.584102756165
 20
1245.060338563726
 30
0.0
 11
2256.544911542736
 21
1245.060338563726
 31
0.0
  0
LINE
  5
7907
330
7905
100
AcDbEntity
  8
AM_5
 62
     5
100
AcDbLine
 10
2256.544911542736
 20
1245.060338563726
 30
0.0
 11
2221.026518840509
 21
1287.877723406198
 31
0.0
  0
TRACE
  5
7908
330
7905
100
AcDbEntity
  8
AM_5
 62
     5
370
    35
100
AcDbTrace
 10
2223.154394756792
 20
1289.642864661186
 30
0.0
 11
2218.898642924227
 21
1286.112582151211
 31
0.0
 12
2207.618939833576
 22
1304.040545720783
 32
0.0
 13
2207.618939833576
 23
1304.040545720783
 33
0.0
  0
MTEXT
  5
7909
330
7905
100
AcDbEntity
  8
AM_5
 62
     2
100
AcDbMText
 10
2331.584102756165
 20
1240.415373559389
 30
0.0
 40
21.0
 41
0.0
 71
     7
 72
     5
  1

  7
ACISOTS
 73
     1
 44
1.0
1001
ACAD
1000
MTEXTBEGIN
1070
    73
1070
     1
1070
    44
1040
1.0
1070
    74
1070
     0
1000
MTEXTEND
  0
ENDBLK
  5
790B
330
7905
100
AcDbEntity
  8
0
100
AcDbBlockEnd
  0
ENDSEC
  0
SECTION
  2
ENTITIES
  0
LINE
  5
91A
102
{ACAD_REACTORS
330
BEE
102
}
330
1F
100
AcDbEntity
  8
圖層2中心線
 48
0.5
100
AcDbLine
 10
2558.634316385821
 20
1327.553462523839
 30
0.0
 11
2558.634316385821
 21
1380.697612971337
 31
0.0
  0
LINE
  5
91B
330
1F
100
AcDbEntity
  8
圖層1輪廓線
  6
Continuous
 62
     7
370
    50
100
AcDbLine
 10
2628.634316385821
 20
1364.040545720783
 30
0.0
 11
2564.63431638582
 21
1364.040545720783
 31
0.0
  0
LINE
  5
91C
330
1F
100
AcDbEntity
  8
圖層1輪廓線
  6
Continuous
 62
     7
370
    50
100
AcDbLine
 10
2483.634316385821
 20
1304.040545720783
 30
0.0
 11
2743.634316385821
 21
1304.040545720783
 31
0.0
  0
LINE
  5
91D
330
1F
100
AcDbEntity
  8
圖層1輪廓線
  6
Continuous
 62
     7
370
    50
100
AcDbLine
 10
2552.63431638582
 20
1364.040545720783
 30
0.0
 11
2488.634316385821
 21
1364.040545720783
 31
0.0
  0
LINE
  5
91E
330
1F
100
AcDbEntity
  8
圖層1輪廓線
  6
Continuous
 62
     7
370
    50
100
AcDbLine
 10
2483.634316385821
 20
1359.040545720783
 30
0.0
 11
2483.634316385821
 21
1304.040545720783
 31
0.0
  0
ARC
  5
91F
330
1F
100
AcDbEntity
  8
圖層1輪廓線
  6
Continuous
 62
     7
370
    50
100
AcDbCircle
 10
2488.634316385821
 20
1359.040545720783
 30
0.0
 40
5.0
100
AcDbArc
 50
90.0
 51
180.0
  0
LINE
  5
920
330
1F
100
AcDbEntity
  8
圖層1輪廓線
  6
Continuous
 62
     7
370
    50
100
AcDbLine
 10
2548.63431638582
 20
1356.040545720783
 30
0.0
 11
2552.63431638582
 21
1356.040545720783
 31
0.0
  0
LINE
  5
921
330
1F
100
AcDbEntity
  8
圖層1輪廓線
  6
Continuous
 62
     7
370
    50
100
AcDbLine
 10
2568.63431638582
 20
1348.040545720783
 30
0.0
 11
2548.63431638582
 21
1348.040545720783
 31
0.0
  0
LINE
  5
922
330
1F
100
AcDbEntity
  8
圖層1輪廓線
  6
Continuous
 62
     7
370
    50
100
AcDbLine
 10
2548.63431638582
 20
1348.040545720783
 30
0.0
 11
2548.63431638582
 21
1356.040545720783
 31
0.0
  0
LINE
  5
923
330
1F
100
AcDbEntity
  8
圖層1輪廓線
  6
Continuous
 62
     7
370
    50
100
AcDbLine
 10
2552.63431638582
 20
1356.040545720783
 30
0.0
 11
2552.63431638582
 21
1364.040545720783
 31
0.0
  0
LINE
  5
924
330
1F
100
AcDbEntity
  8
圖層1輪廓線
  6
Continuous
 62
     7
370
    50
100
AcDbLine
 10
2568.63431638582
 20
1356.040545720783
 30
0.0
 11
2568.63431638582
 21
1348.040545720783
 31
0.0
  0
LINE
  5
925
330
1F
100
AcDbEntity
  8
圖層1輪廓線
  6
Continuous
 62
     7
370
    50
100
AcDbLine
 10
2564.63431638582
 20
1356.040545720783
 30
0.0
 11
2568.63431638582
 21
1356.040545720783
 31
0.0
  0
LINE
  5
926
330
1F
100
AcDbEntity
  8
圖層1輪廓線
  6
Continuous
 62
     7
370
    50
100
AcDbLine
 10
2564.63431638582
 20
1364.040545720783
 30
0.0
 11
2564.63431638582
 21
1356.040545720783
 31
0.0
  0
LINE
  5
927
330
1F
100
AcDbEntity
  8
圖層1輪廓線
  6
Continuous
 62
     7
370
    50
100
AcDbLine
 10
2743.634316385821
 20
1364.040545720783
 30
0.0
 11
2653.634316385821
 21
1364.040545720783
 31
0.0
  0
LINE
  5
928
330
1F
100
AcDbEntity
  8
圖層1輪廓線
  6
Continuous
 62
     7
370
    50
100
AcDbLine
 10
2638.634316385821
 20
1314.040545720783
 30
0.0
 11
2653.634316385821
 21
1314.040545720783
 31
0.0
  0
LINE
  5
929
330
1F
100
AcDbEntity
  8
圖層1輪廓線
  6
Continuous
 62
     7
370
    50
100
AcDbLine
 10
2653.634316385821
 20
1359.040545720783
 30
0.0
 11
2633.634316385821
 21
1359.040545720783
 31
0.0
  0
LINE
  5
92A
330
1F
100
AcDbEntity
  8
圖層1輪廓線
  6
Continuous
 62
     7
370
    50
100
AcDbLine
 10
2633.634316385821
 20
1359.040545720783
 30
0.0
 11
2633.634316385821
 21
1319.040545720783
 31
0.0
  0
ARC
  5
92B
330
1F
100
AcDbEntity
  8
圖層1輪廓線
  6
Continuous
 62
     7
370
    50
100
AcDbCircle
 10
2638.634316385821
 20
1319.040545720783
 30
0.0
 40
5.0
100
AcDbArc
 50
180.0
 51
270.0
  0
ARC
  5
92C
330
1F
100
AcDbEntity
  8
圖層1輪廓線
  6
Continuous
 62
     7
370
    50
100
AcDbCircle
 10
2628.634316385821
 20
1359.040545720783
 30
0.0
 40
5.0
100
AcDbArc
 50
0.0
 51
90.0
  0
LINE
  5
92D
330
1F
100
AcDbEntity
  8
圖層1輪廓線
  6
Continuous
 62
     7
370
    50
100
AcDbLine
 10
2658.634316385821
 20
1309.040545720783
 30
0.0
 11
2658.634316385821
 21
1304.040545720783
 31
0.0
  0
LINE
  5
92E
102
{ACAD_REACTORS
330
C14
330
E32
102
}
330
1F
100
AcDbEntity
  8
圖層2中心線
 48
0.1
100
AcDbLine
 10
2648.634316385821
 20
1319.040545720783
 30
0.0
 11
2648.634316385821
 21
1292.820440733964
 31
0.0
  0
ARC
  5
92F
330
1F
100
AcDbEntity
  8
圖層1輪廓線
  6
Continuous
 62
     7
370
    50
100
AcDbCircle
 10
2653.634316385821
 20
1309.040545720783
 30
0.0
 40
5.0
100
AcDbArc
 50
0.0
 51
90.0
  0
LINE
  5
930
330
1F
100
AcDbEntity
  8
圖層1輪廓線
  6
Continuous
 62
     7
370
    50
100
AcDbLine
 10
2688.634316385821
 20
1364.040545720783
 30
0.0
 11
2653.634316385821
 21
1359.040545720783
 31
0.0
  0
LINE
  5
931
330
1F
100
AcDbEntity
  8
圖層1輪廓線
  6
Continuous
 62
     7
370
    50
100
AcDbLine
 10
2653.634316385821
 20
1364.040545720783
 30
0.0
 11
2653.634316385821
 21
1359.040545720783
 31
0.0
  0
LINE
  5
932
330
1F
100
AcDbEntity
  8
圖層1輪廓線
  6
Continuous
 62
     7
370
    50
100
AcDbLine
 10
2721.326058462376
 20
1364.040545720783
 30
0.0
 11
2721.326058462376
 21
1304.040545720783
 31
0.0
  0
LINE
  5
933
102
{ACAD_REACTORS
330
C64
102
}
330
1F
100
AcDbEntity
  8
圖層1輪廓線
  6
Continuous
 62
     7
370
    50
100
AcDbLine
 10
2743.634316385821
 20
1304.040545720783
 30
0.0
 11
2743.634316385821
 21
1364.040545720783
 31
0.0
  0
LINE
  5
934
330
1F
100
AcDbEntity
  8
圖層2中心線
 48
0.5
100
AcDbLine
 10
2625.727914318372
 20
1723.910228414526
 30
0.0
 11
2625.727914318372
 21
1495.471859734404
 31
0.0
  0
LINE
  5
935
330
1F
100
AcDbEntity
  8
圖層1輪廓線
100
AcDbLine
 10
2508.634316385821
 20
1585.329505088288
 30
0.0
 11
2508.634316385821
 21
1625.329505088288
 31
0.0
  0
LINE
  5
936
330
1F
100
AcDbEntity
  8
圖層1輪廓線
100
AcDbLine
 10
2743.634316385821
 20
1625.329505088287
 30
0.0
 11
2743.634316385821
 21
1565.329505088288
 31
0.0
  0
LINE
  5
937
330
1F
100
AcDbEntity
  8
圖層2中心線
 48
0.05
100
AcDbLine
 10
2733.634316385821
 20
1586.329505088287
 30
0.0
 11
2733.634316385821
 21
1574.329505088288
 31
0.0
  0
LINE
  5
938
330
1F
100
AcDbEntity
  8
圖層1輪廓線
100
AcDbLine
 10
2721.691085737952
 20
1625.329505088287
 30
0.0
 11
2721.691085737952
 21
1565.329505088288
 31
0.0
  0
CIRCLE
  5
939
330
1F
100
AcDbEntity
  8
圖層4尺寸線
100
AcDbCircle
 10
2733.634316385821
 20
1580.329505088288
 30
0.0
 40
3.0
  0
CIRCLE
  5
93A
330
1F
100
AcDbEntity
  8
圖層4尺寸線
100
AcDbCircle
 10
2733.634316385821
 20
1580.329505088288
 30
0.0
 40
5.0
  0
LINE
  5
93B
330
1F
100
AcDbEntity
  8
圖層2中心線
 48
0.05
100
AcDbLine
 10
2727.634316385821
 20
1580.329505088288
 30
0.0
 11
2739.634316385821
 21
1580.329505088288
 31
0.0
  0
CIRCLE
  5
93C
330
1F
100
AcDbEntity
  8
圖層4尺寸線
100
AcDbCircle
 10
2733.634316385821
 20
1595.329505088288
 30
0.0
 40
5.0
  0
CIRCLE
  5
93D
330
1F
100
AcDbEntity
  8
圖層4尺寸線
100
AcDbCircle
 10
2733.634316385821
 20
1595.329505088288
 30
0.0
 40
3.0
  0
CIRCLE
  5
93E
330
1F
100
AcDbEntity
  8
圖層4尺寸線
100
AcDbCircle
 10
2733.634316385821
 20
1610.329505088288
 30
0.0
 40
3.0
  0
CIRCLE
  5
93F
330
1F
100
AcDbEntity
  8
圖層4尺寸線
100
AcDbCircle
 10
2733.634316385821
 20
1610.329505088288
 30
0.0
 40
5.0
  0
LINE
  5
940
330
1F
100
AcDbEntity
  8
圖層2中心線
 48
0.05
100
AcDbLine
 10
2727.634316385821
 20
1595.329505088288
 30
0.0
 11
2739.634316385821
 21
1595.329505088288
 31
0.0
  0
LINE
  5
941
330
1F
100
AcDbEntity
  8
圖層2中心線
 48
0.05
100
AcDbLine
 10
2727.634316385821
 20
1610.329505088287
 30
0.0
 11
2739.634316385821
 21
1610.329505088287
 31
0.0
  0
LINE
  5
942
330
1F
100
AcDbEntity
  8
圖層2中心線
 48
0.05
100
AcDbLine
 10
2733.634316385821
 20
1601.329505088288
 30
0.0
 11
2733.634316385821
 21
1589.329505088288
 31
0.0
  0
LINE
  5
943
330
1F
100
AcDbEntity
  8
圖層2中心線
 48
0.05
100
AcDbLine
 10
2733.634316385821
 20
1616.329505088287
 30
0.0
 11
2733.634316385821
 21
1604.329505088288
 31
0.0
  0
LINE
  5
944
330
1F
100
AcDbEntity
  8
圖層4尺寸線
100
AcDbLine
 10
2568.63431638582
 20
1364.040545720783
 30
0.0
 11
2585.104933370449
 21
1364.040545720783
 31
0.0
  0
LINE
  5
945
330
1F
100
AcDbEntity
  8
圖層1輪廓線
100
AcDbLine
 10
2713.634316385821
 20
1364.040545720783
 30
0.0
 11
2713.634316385821
 21
1565.329505088288
 31
0.0
  0
LINE
  5
946
330
1F
100
AcDbEntity
  8
圖層1輪廓線
100
AcDbLine
 10
2663.634316385821
 20
1652.540545720783
 30
0.0
 11
2663.634316385821
 21
1630.329505088288
 31
0.0
  0
LINE
  5
947
330
1F
100
AcDbEntity
  8
圖層1輪廓線
100
AcDbLine
 10
2665.134316385821
 20
1304.040545720783
 30
0.0
 11
2712.134316385821
 21
1304.040545720783
 31
0.0
  0
LINE
  5
948
330
1F
100
AcDbEntity
  8
圖層1輪廓線
100
AcDbLine
 10
2663.634316385821
 20
1652.540545720783
 30
0.0
 11
2665.134316385821
 21
1654.040545720783
 31
0.0
  0
LINE
  5
949
330
1F
100
AcDbEntity
  8
圖層1輪廓線
100
AcDbLine
 10
2713.634316385821
 20
1652.540545720783
 30
0.0
 11
2663.634316385821
 21
1652.540545720783
 31
0.0
  0
LINE
  5
94A
330
1F
100
AcDbEntity
  8
圖層1輪廓線
100
AcDbLine
 10
2712.134316385821
 20
1654.040545720783
 30
0.0
 11
2665.134316385821
 21
1654.040545720783
 31
0.0
  0
LINE
  5
94B
330
1F
100
AcDbEntity
  8
圖層1輪廓線
100
AcDbLine
 10
2712.134316385821
 20
1654.040545720783
 30
0.0
 11
2713.634316385821
 21
1652.540545720783
 31
0.0
  0
LINE
  5
94C
330
1F
100
AcDbEntity
  8
圖層1輪廓線
100
AcDbLine
 10
2663.634316385821
 20
1565.329505088288
 30
0.0
 11
2663.634316385821
 21
1364.040545720783
 31
0.0
  0
LINE
  5
94D
330
1F
100
AcDbEntity
  8
圖層1輪廓線
100
AcDbLine
 10
2713.634316385821
 20
1625.329505088288
 30
0.0
 11
2713.634316385821
 21
1652.540545720783
 31
0.0
  0
LINE
  5
94E
330
1F
100
AcDbEntity
  8
圖層4尺寸線
100
AcDbLine
 10
2730.634316385821
 20
1578.597454280719
 30
0.0
 11
2733.634316385821
 21
1576.86540347315
 31
0.0
  0
LINE
  5
94F
330
1F
100
AcDbEntity
  8
圖層4尺寸線
100
AcDbLine
 10
2733.634316385821
 20
1576.86540347315
 30
0.0
 11
2736.634316385821
 21
1578.597454280719
 31
0.0
  0
LINE
  5
950
330
1F
100
AcDbEntity
  8
圖層4尺寸線
100
AcDbLine
 10
2736.634316385821
 20
1578.597454280719
 30
0.0
 11
2736.634316385821
 21
1582.061555895857
 31
0.0
  0
LINE
  5
951
330
1F
100
AcDbEntity
  8
圖層4尺寸線
100
AcDbLine
 10
2736.634316385821
 20
1582.061555895857
 30
0.0
 11
2733.634316385821
 21
1583.793606703425
 31
0.0
  0
LINE
  5
952
330
1F
100
AcDbEntity
  8
圖層4尺寸線
100
AcDbLine
 10
2733.634316385821
 20
1583.793606703425
 30
0.0
 11
2730.634316385821
 21
1582.061555895857
 31
0.0
  0
LINE
  5
953
330
1F
100
AcDbEntity
  8
圖層4尺寸線
100
AcDbLine
 10
2730.634316385821
 20
1582.061555895857
 30
0.0
 11
2730.634316385821
 21
1578.597454280719
 31
0.0
  0
LINE
  5
954
330
1F
100
AcDbEntity
  8
圖層4尺寸線
100
AcDbLine
 10
2730.634316385821
 20
1608.597454280719
 30
0.0
 11
2733.634316385821
 21
1606.86540347315
 31
0.0
  0
LINE
  5
955
330
1F
100
AcDbEntity
  8
圖層4尺寸線
100
AcDbLine
 10
2733.634316385821
 20
1606.86540347315
 30
0.0
 11
2736.634316385821
 21
1608.597454280719
 31
0.0
  0
LINE
  5
956
330
1F
100
AcDbEntity
  8
圖層4尺寸線
100
AcDbLine
 10
2736.634316385821
 20
1608.597454280719
 30
0.0
 11
2736.634316385821
 21
1612.061555895856
 31
0.0
  0
LINE
  5
957
330
1F
100
AcDbEntity
  8
圖層4尺寸線
100
AcDbLine
 10
2736.634316385821
 20
1612.061555895856
 30
0.0
 11
2733.634316385821
 21
1613.793606703425
 31
0.0
  0
LINE
  5
958
330
1F
100
AcDbEntity
  8
圖層4尺寸線
100
AcDbLine
 10
2733.634316385821
 20
1613.793606703425
 30
0.0
 11
2730.634316385821
 21
1612.061555895856
 31
0.0
  0
LINE
  5
959
330
1F
100
AcDbEntity
  8
圖層4尺寸線
100
AcDbLine
 10
2730.634316385821
 20
1612.061555895856
 30
0.0
 11
2730.634316385821
 21
1608.597454280719
 31
0.0
  0
LINE
  5
95A
330
1F
100
AcDbEntity
  8
圖層4尺寸線
100
AcDbLine
 10
2730.634316385821
 20
1593.597454280719
 30
0.0
 11
2733.634316385821
 21
1591.86540347315
 31
0.0
  0
LINE
  5
95B
330
1F
100
AcDbEntity
  8
圖層4尺寸線
100
AcDbLine
 10
2733.634316385821
 20
1591.86540347315
 30
0.0
 11
2736.634316385821
 21
1593.597454280719
 31
0.0
  0
LINE
  5
95C
330
1F
100
AcDbEntity
  8
圖層4尺寸線
100
AcDbLine
 10
2736.634316385821
 20
1593.597454280719
 30
0.0
 11
2736.634316385821
 21
1597.061555895856
 31
0.0
  0
LINE
  5
95D
330
1F
100
AcDbEntity
  8
圖層4尺寸線
100
AcDbLine
 10
2736.634316385821
 20
1597.061555895856
 30
0.0
 11
2733.634316385821
 21
1598.793606703426
 31
0.0
  0
LINE
  5
95E
330
1F
100
AcDbEntity
  8
圖層4尺寸線
100
AcDbLine
 10
2733.634316385821
 20
1598.793606703426
 30
0.0
 11
2730.634316385821
 21
1597.061555895856
 31
0.0
  0
LINE
  5
95F
330
1F
100
AcDbEntity
  8
圖層4尺寸線
100
AcDbLine
 10
2730.634316385821
 20
1597.061555895856
 30
0.0
 11
2730.634316385821
 21
1593.597454280719
 31
0.0
  0
LINE
  5
960
330
1F
100
AcDbEntity
  8
圖層1輪廓線
100
AcDbLine
 10
2526.634316385821
 20
1625.329505088288
 30
0.0
 11
2590.634316385821
 21
1625.329505088288
 31
0.0
  0
LINE
  5
961
330
1F
100
AcDbEntity
  8
圖層1輪廓線
100
AcDbLine
 10
2590.634316385821
 20
1625.329505088288
 30
0.0
 11
2526.634316385821
 21
1625.329505088288
 31
0.0
  0
LINE
  5
962
330
1F
100
AcDbEntity
  8
圖層1輪廓線
100
AcDbLine
 10
2217.618939833576
 20
1304.040545720783
 30
0.0
 11
2067.618939833575
 21
1304.040545720783
 31
0.0
  0
LINE
  5
963
330
1F
100
AcDbEntity
  8
圖層1輪廓線
100
AcDbLine
 10
2067.618939833575
 20
1304.040545720783
 30
0.0
 11
2067.618939833575
 21
1361.040545720783
 31
0.0
  0
LINE
  5
964
330
1F
100
AcDbEntity
  8
圖層1輪廓線
100
AcDbLine
 10
2070.618939833575
 20
1364.040545720783
 30
0.0
 11
2214.618939833576
 21
1364.040545720783
 31
0.0
  0
LINE
  5
965
330
1F
100
AcDbEntity
  8
圖層1輪廓線
100
AcDbLine
 10
2217.618939833576
 20
1311.040545720783
 30
0.0
 11
2217.618939833576
 21
1304.040545720783
 31
0.0
  0
LINE
  5
966
330
1F
100
AcDbEntity
  8
圖層1輪廓線
100
AcDbLine
 10
2092.618939833576
 20
1565.329505088288
 30
0.0
 11
2092.618939833576
 21
1625.329505088288
 31
0.0
  0
LINE
  5
967
330
1F
100
AcDbEntity
  8
圖層1輪廓線
100
AcDbLine
 10
2192.618939833575
 20
1565.329505088288
 30
0.0
 11
2192.618939833575
 21
1625.329505088288
 31
0.0
  0
LINE
  5
968
330
1F
100
AcDbEntity
  8
圖層1輪廓線
100
AcDbLine
 10
2192.618939833575
 20
1565.329505088288
 30
0.0
 11
2163.118939833575
 21
1565.329505088288
 31
0.0
  0
LINE
  5
969
330
1F
100
AcDbEntity
  8
圖層1輪廓線
100
AcDbLine
 10
2192.618939833575
 20
1585.329505088288
 30
0.0
 11
2092.618939833576
 21
1585.329505088288
 31
0.0
  0
LINE
  5
96A
330
1F
100
AcDbEntity
  8
圖層1輪廓線
100
AcDbLine
 10
2117.618939833576
 20
1364.040545720783
 30
0.0
 11
2117.618939833576
 21
1565.329505088288
 31
0.0
  0
LINE
  5
96B
330
1F
100
AcDbEntity
  8
圖層1輪廓線
100
AcDbLine
 10
2167.618939833575
 20
1364.040545720783
 30
0.0
 11
2167.618939833575
 21
1565.329505088288
 31
0.0
  0
LINE
  5
96C
330
1F
100
AcDbEntity
  8
圖層1輪廓線
100
AcDbLine
 10
2105.118939833575
 20
1565.329505088288
 30
0.0
 11
2105.118939833575
 21
1585.329505088288
 31
0.0
  0
LINE
  5
96D
330
1F
100
AcDbEntity
  8
圖層1輪廓線
100
AcDbLine
 10
2180.118939833576
 20
1565.329505088288
 30
0.0
 11
2180.118939833576
 21
1585.329505088288
 31
0.0
  0
LINE
  5
96E
330
1F
100
AcDbEntity
  8
圖層1輪廓線
100
AcDbLine
 10
2110.618939833575
 20
1625.329505088288
 30
0.0
 11
2174.618939833576
 21
1625.329505088288
 31
0.0
  0
LINE
  5
96F
330
1F
100
AcDbEntity
  8
圖層1輪廓線
100
AcDbLine
 10
2174.618939833576
 20
1625.329505088288
 30
0.0
 11
2110.618939833575
 21
1625.329505088288
 31
0.0
  0
ARC
  5
970
330
1F
100
AcDbEntity
  8
圖層1輪廓線
100
AcDbCircle
 10
2548.384316385821
 20
1597.595130088285
 30
0.0
 40
27.2656249999976
100
AcDbArc
 50
247.9181196393515
 51
292.0818803606484
  0
ARC
  5
971
330
1F
100
AcDbEntity
  8
圖層1輪廓線
100
AcDbCircle
 10
2548.384316385821
 20
1553.063880088286
 30
0.0
 40
27.26562500000156
100
AcDbArc
 50
67.91811963935156
 51
112.0818803606484
  0
LINE
  5
972
330
1F
100
AcDbEntity
  8
圖層1輪廓線
100
AcDbLine
 10
2538.134316385821
 20
1572.329505088288
 30
0.0
 11
2538.134316385821
 21
1578.329505088287
 31
0.0
  0
ARC
  5
973
330
1F
100
AcDbEntity
  8
圖層1輪廓線
100
AcDbCircle
 10
2568.884316385821
 20
1553.063880088289
 30
0.0
 40
27.26562499999825
100
AcDbArc
 50
99.93815598668136
 51
112.0818803606484
  0
ARC
  5
974
330
1F
100
AcDbEntity
  8
圖層1輪廓線
100
AcDbCircle
 10
2568.884316385821
 20
1597.595130088285
 30
0.0
 40
27.26562499999781
100
AcDbArc
 50
247.9181196393515
 51
279.9381559866814
  0
LINE
  5
975
330
1F
100
AcDbEntity
  8
圖層1輪廓線
100
AcDbLine
 10
2547.781887615654
 20
1570.329505088287
 30
0.0
 11
2569.48674515599
 21
1570.329505088287
 31
0.0
  0
LINE
  5
976
330
1F
100
AcDbEntity
  8
圖層1輪廓線
100
AcDbLine
 10
2547.781887615653
 20
1580.329505088288
 30
0.0
 11
2563.75931638582
 21
1580.329505088288
 31
0.0
  0
ARC
  5
977
330
1F
100
AcDbEntity
  8
圖層1輪廓線
100
AcDbCircle
 10
2124.865419055995
 20
1569.074296754956
 30
0.0
 40
9.755208333331509
100
AcDbArc
 50
52.65349068554314
 51
127.3465093144569
  0
ARC
  5
978
330
1F
100
AcDbEntity
  8
圖層1輪廓線
100
AcDbCircle
 10
2124.865419055995
 20
1578.584713421621
 30
0.0
 40
9.755208333333024
100
AcDbArc
 50
232.6534906855431
 51
307.3465093144569
  0
LINE
  5
979
330
1F
100
AcDbEntity
  8
圖層1輪廓線
100
AcDbLine
 10
2118.947578796801
 20
1570.829505088288
 30
0.0
 11
2118.947578796801
 21
1576.829505088288
 31
0.0
  0
LINE
  5
97A
330
1F
100
AcDbEntity
  8
圖層1輪廓線
100
AcDbLine
 10
2124.865419055995
 20
1568.829505088288
 30
0.0
 11
2160.372460611157
 21
1568.829505088288
 31
0.0
  0
LINE
  5
97B
330
1F
100
AcDbEntity
  8
圖層1輪廓線
100
AcDbLine
 10
2124.865419055995
 20
1578.829505088288
 30
0.0
 11
2160.372460611157
 21
1578.829505088288
 31
0.0
  0
ARC
  5
97C
330
1F
100
AcDbEntity
  8
圖層1輪廓線
100
AcDbCircle
 10
2142.618939833575
 20
1542.808671754957
 30
0.0
 40
36.02083333333123
100
AcDbArc
 50
70.81746569497115
 51
109.1825343050288
  0
ARC
  5
97D
330
1F
100
AcDbEntity
  8
圖層1輪廓線
100
AcDbCircle
 10
2142.618939833575
 20
1604.850338421622
 30
0.0
 40
36.02083333333455
100
AcDbArc
 50
250.8174656949711
 51
289.1825343050289
  0
LINE
  5
97E
330
1F
100
AcDbEntity
  8
圖層1輪廓線
100
AcDbLine
 10
2130.783259315188
 20
1570.829505088288
 30
0.0
 11
2130.783259315188
 21
1576.829505088287
 31
0.0
  0
LINE
  5
97F
330
1F
100
AcDbEntity
  8
圖層1輪廓線
100
AcDbLine
 10
2154.454620351963
 20
1570.829505088288
 30
0.0
 11
2154.454620351963
 21
1576.829505088288
 31
0.0
  0
LINE
  5
980
330
1F
100
AcDbEntity
  8
圖層1輪廓線
100
AcDbLine
 10
2166.29030087035
 20
1570.829505088288
 30
0.0
 11
2166.29030087035
 21
1576.829505088288
 31
0.0
  0
ARC
  5
981
330
1F
100
AcDbEntity
  8
圖層1輪廓線
100
AcDbCircle
 10
2160.372460611157
 20
1569.074296754954
 30
0.0
 40
9.755208333333525
100
AcDbArc
 50
52.65349068554314
 51
127.3465093144569
  0
ARC
  5
982
330
1F
100
AcDbEntity
  8
圖層1輪廓線
100
AcDbCircle
 10
2160.372460611156
 20
1578.584713421621
 30
0.0
 40
9.755208333333412
100
AcDbArc
 50
232.6534906855431
 51
307.3465093144569
  0
LINE
  5
983
330
1F
100
AcDbEntity
  8
圖層1輪廓線
100
AcDbLine
 10
2538.13431638582
 20
1555.329505088287
 30
0.0
 11
2579.13431638582
 21
1555.329505088287
 31
0.0
  0
LINE
  5
984
330
1F
100
AcDbEntity
  8
圖層1輪廓線
100
AcDbLine
 10
2538.13431638582
 20
1570.329505088287
 30
0.0
 11
2574.00931638582
 21
1570.329505088287
 31
0.0
  0
ARC
  5
985
330
1F
100
AcDbEntity
  8
圖層1輪廓線
100
AcDbCircle
 10
2548.38431638582
 20
1533.067005088287
 30
0.0
 40
22.26250000000009
100
AcDbArc
 50
62.58607799182947
 51
117.4139220081705
  0
LINE
  5
986
330
1F
100
AcDbEntity
  8
圖層1輪廓線
100
AcDbLine
 10
2538.13431638582
 20
1515.329505088287
 30
0.0
 11
2579.13431638582
 21
1515.329505088287
 31
0.0
  0
LINE
  5
987
330
1F
100
AcDbEntity
  8
圖層1輪廓線
100
AcDbLine
 10
2538.13431638582
 20
1520.329505088287
 30
0.0
 11
2579.13431638582
 21
1520.329505088287
 31
0.0
  0
ARC
  5
988
330
1F
100
AcDbEntity
  8
圖層1輪廓線
100
AcDbCircle
 10
2548.38431638582
 20
1542.592005088287
 30
0.0
 40
22.26249999999979
100
AcDbArc
 50
242.5860779918295
 51
297.4139220081705
  0
LINE
  5
989
330
1F
100
AcDbEntity
  8
圖層1輪廓線
100
AcDbLine
 10
2538.13431638582
 20
1515.329505088287
 30
0.0
 11
2538.13431638582
 21
1570.329505088287
 31
0.0
  0
LINE
  5
98A
330
1F
100
AcDbEntity
  8
圖層1輪廓線
100
AcDbLine
 10
2579.13431638582
 20
1520.329505088287
 30
0.0
 11
2579.13431638582
 21
1565.329505088288
 31
0.0
  0
ARC
  5
98B
330
1F
100
AcDbEntity
  8
圖層1輪廓線
100
AcDbCircle
 10
2568.884316385819
 20
1542.592005088287
 30
0.0
 40
22.26249999999903
100
AcDbArc
 50
242.5860779918295
 51
297.4139220081705
  0
LINE
  5
98C
330
1F
100
AcDbEntity
  8
圖層1輪廓線
100
AcDbLine
 10
2579.13431638582
 20
1515.329505088287
 30
0.0
 11
2579.13431638582
 21
1520.329505088287
 31
0.0
  0
ARC
  5
98D
330
1F
100
AcDbEntity
  8
圖層1輪廓線
100
AcDbCircle
 10
2568.884316385819
 20
1533.067005088287
 30
0.0
 40
22.26250000000009
100
AcDbArc
 50
62.58607799182947
 51
117.4139220081705
  0
LINE
  5
98E
330
1F
100
AcDbEntity
  8
圖層1輪廓線
100
AcDbLine
 10
2124.865419055994
 20
1553.829505088288
 30
0.0
 11
2160.372460611156
 21
1553.829505088288
 31
0.0
  0
ARC
  5
98F
330
1F
100
AcDbEntity
  8
圖層1輪廓線
100
AcDbCircle
 10
2142.618939833575
 20
1524.56283842162
 30
0.0
 40
29.26666666666804
100
AcDbArc
 50
66.14595163640235
 51
113.8540483635976
  0
LINE
  5
990
330
1F
100
AcDbEntity
  8
圖層1輪廓線
100
AcDbLine
 10
2124.865419055994
 20
1518.829505088288
 30
0.0
 11
2160.372460611156
 21
1518.829505088288
 31
0.0
  0
LINE
  5
991
330
1F
100
AcDbEntity
  8
圖層1輪廓線
100
AcDbLine
 10
2122.118939833575
 20
1513.829505088288
 30
0.0
 11
2163.118939833575
 21
1513.829505088288
 31
0.0
  0
ARC
  5
992
330
1F
100
AcDbEntity
  8
圖層1輪廓線
100
AcDbCircle
 10
2142.618939833575
 20
1547.916485187784
 30
0.0
 40
29.10241990186305
100
AcDbArc
 50
246.002887899326
 51
293.9971121006688
  0
LINE
  5
993
330
1F
100
AcDbEntity
  8
圖層1輪廓線
100
AcDbLine
 10
2122.118939833575
 20
1568.829505088288
 30
0.0
 11
2163.118939833575
 21
1568.829505088288
 31
0.0
  0
LINE
  5
994
330
1F
100
AcDbEntity
  8
圖層1輪廓線
100
AcDbLine
 10
2118.947578796801
 20
1521.329505088288
 30
0.0
 11
2118.947578796801
 21
1551.329505088288
 31
0.0
  0
LINE
  5
995
330
1F
100
AcDbEntity
  8
圖層1輪廓線
100
AcDbLine
 10
2130.783259315188
 20
1521.329505088288
 30
0.0
 11
2130.783259315188
 21
1551.329505088288
 31
0.0
  0
ARC
  5
996
330
1F
100
AcDbEntity
  8
圖層1輪廓線
100
AcDbCircle
 10
2124.865419055994
 20
1527.083671754954
 30
0.0
 40
8.254166666666545
100
AcDbArc
 50
224.1966084731079
 51
315.8033915268921
  0
LINE
  5
997
330
1F
100
AcDbEntity
  8
圖層1輪廓線
100
AcDbLine
 10
2122.118939833575
 20
1513.829505088288
 30
0.0
 11
2122.118939833575
 21
1519.299834703607
 31
0.0
  0
ARC
  5
998
330
1F
100
AcDbEntity
  8
圖層1輪廓線
100
AcDbCircle
 10
2124.865419055994
 20
1545.575338421621
 30
0.0
 40
8.254166666666389
100
AcDbArc
 50
44.19660847310786
 51
135.8033915268921
  0
LINE
  5
999
330
1F
100
AcDbEntity
  8
圖層1輪廓線
100
AcDbLine
 10
2122.118939833575
 20
1553.359175472968
 30
0.0
 11
2122.118939833575
 21
1568.829505088288
 31
0.0
  0
LINE
  5
99A
330
1F
100
AcDbEntity
  8
圖層1輪廓線
100
AcDbLine
 10
2154.454620351963
 20
1521.329505088288
 30
0.0
 11
2154.454620351963
 21
1551.329505088288
 31
0.0
  0
LINE
  5
99B
330
1F
100
AcDbEntity
  8
圖層1輪廓線
100
AcDbLine
 10
2166.29030087035
 20
1521.329505088288
 30
0.0
 11
2166.29030087035
 21
1551.329505088288
 31
0.0
  0
ARC
  5
99C
330
1F
100
AcDbEntity
  8
圖層1輪廓線
100
AcDbCircle
 10
2160.372460611156
 20
1527.083671754954
 30
0.0
 40
8.254166666666625
100
AcDbArc
 50
224.1966084731079
 51
315.8033915268921
  0
LINE
  5
99D
330
1F
100
AcDbEntity
  8
圖層1輪廓線
100
AcDbLine
 10
2163.118939833575
 20
1513.829505088288
 30
0.0
 11
2163.118939833575
 21
1519.299834703607
 31
0.0
  0
ARC
  5
99E
330
1F
100
AcDbEntity
  8
圖層1輪廓線
100
AcDbCircle
 10
2160.372460611156
 20
1545.575338421621
 30
0.0
 40
8.254166666666629
100
AcDbArc
 50
44.19660847310786
 51
135.8033915268921
  0
LINE
  5
99F
330
1F
100
AcDbEntity
  8
圖層1輪廓線
100
AcDbLine
 10
2163.118939833575
 20
1553.359175472969
 30
0.0
 11
2163.118939833575
 21
1568.829505088288
 31
0.0
  0
LINE
  5
9A0
330
1F
100
AcDbEntity
  8
圖層1輪廓線
100
AcDbLine
 10
2127.618939833576
 20
1585.329505088288
 30
0.0
 11
2127.618939833576
 21
1578.829505088288
 31
0.0
  0
LINE
  5
9A1
330
1F
100
AcDbEntity
  8
圖層1輪廓線
100
AcDbLine
 10
2127.618939833576
 20
1578.829505088288
 30
0.0
 11
2157.618939833576
 21
1578.829505088288
 31
0.0
  0
LINE
  5
9A2
330
1F
100
AcDbEntity
  8
圖層1輪廓線
100
AcDbLine
 10
2157.618939833576
 20
1578.829505088288
 30
0.0
 11
2157.618939833576
 21
1585.329505088288
 31
0.0
  0
LINE
  5
9A3
330
1F
100
AcDbEntity
  8
圖層1輪廓線
100
AcDbLine
 10
2122.118939833575
 20
1565.329505088288
 30
0.0
 11
2092.618939833576
 21
1565.329505088288
 31
0.0
  0
LINE
  5
9A4
330
1F
100
AcDbEntity
  8
圖層1輪廓線
100
AcDbLine
 10
2543.63431638582
 20
1585.329505088288
 30
0.0
 11
2543.63431638582
 21
1580.329505088288
 31
0.0
  0
LINE
  5
9A5
330
1F
100
AcDbEntity
  8
圖層1輪廓線
100
AcDbLine
 10
2543.63431638582
 20
1580.329505088288
 30
0.0
 11
2563.75931638582
 21
1580.329505088288
 31
0.0
  0
LINE
  5
9A6
330
1F
100
AcDbEntity
  8
圖層1輪廓線
100
AcDbLine
 10
2653.333046196599
 20
1707.829505088288
 30
0.0
 11
2652.333046196599
 21
1708.829505088288
 31
0.0
  0
LINE
  5
9A7
330
1F
100
AcDbEntity
  8
圖層1輪廓線
100
AcDbLine
 10
2638.333046196599
 20
1708.829505088288
 30
0.0
 11
2637.333046196599
 21
1707.829505088288
 31
0.0
  0
LINE
  5
9A8
330
1F
100
AcDbEntity
  8
圖層1輪廓線
100
AcDbLine
 10
2649.333046196599
 20
1708.829505088288
 30
0.0
 11
2649.333046196599
 21
1700.329505088287
 31
0.0
  0
LINE
  5
9A9
330
1F
100
AcDbEntity
  8
圖層1輪廓線
100
AcDbLine
 10
2641.333046196599
 20
1708.829505088288
 30
0.0
 11
2641.333046196599
 21
1700.329505088287
 31
0.0
  0
LINE
  5
9AA
330
1F
100
AcDbEntity
  8
圖層1輪廓線
100
AcDbLine
 10
2649.333046196599
 20
1708.829505088288
 30
0.0
 11
2641.333046196599
 21
1700.329505088287
 31
0.0
  0
LINE
  5
9AB
330
1F
100
AcDbEntity
  8
圖層1輪廓線
100
AcDbLine
 10
2649.333046196599
 20
1700.329505088287
 30
0.0
 11
2641.333046196599
 21
1708.829505088288
 31
0.0
  0
LINE
  5
9AC
330
1F
100
AcDbEntity
  8
圖層2中心線
 48
0.5
100
AcDbLine
 10
2645.333046196599
 20
1716.038940149777
 30
0.0
 11
2645.333046196599
 21
1552.064753265471
 31
0.0
  0
LINE
  5
9AD
330
1F
100
AcDbEntity
  8
圖層1輪廓線
100
AcDbLine
 10
2653.333046196599
 20
1707.829505088288
 30
0.0
 11
2649.333046196599
 21
1707.829505088288
 31
0.0
  0
LINE
  5
9AE
330
1F
100
AcDbEntity
  8
圖層1輪廓線
100
AcDbLine
 10
2637.333046196599
 20
1707.829505088288
 30
0.0
 11
2637.333046196599
 21
1630.329505088288
 31
0.0
  0
LINE
  5
9AF
330
1F
100
AcDbEntity
  8
圖層1輪廓線
100
AcDbLine
 10
2649.333046196599
 20
1700.329505088287
 30
0.0
 11
2641.333046196599
 21
1700.329505088287
 31
0.0
  0
ARC
  5
9B0
330
1F
100
AcDbEntity
  8
圖層1輪廓線
100
AcDbCircle
 10
2645.333046196599
 20
1704.912838421621
 30
0.0
 40
6.083333333333297
100
AcDbArc
 50
228.887909560832
 51
311.112090439168
  0
LINE
  5
9B1
330
1F
100
AcDbEntity
  8
圖層1輪廓線
100
AcDbLine
 10
2641.333046196599
 20
1707.829505088288
 30
0.0
 11
2637.333046196599
 21
1707.829505088288
 31
0.0
  0
LINE
  5
9B2
330
1F
100
AcDbEntity
  8
圖層1輪廓線
100
AcDbLine
 10
2652.333046196599
 20
1708.829505088288
 30
0.0
 11
2638.333046196599
 21
1708.829505088288
 31
0.0
  0
LINE
  5
9B3
330
1F
100
AcDbEntity
  8
圖層1輪廓線
100
AcDbLine
 10
2688.634316385821
 20
1654.040545720783
 30
0.0
 11
2706.634316385821
 21
1654.040545720783
 31
0.0
  0
LINE
  5
9B4
330
1F
100
AcDbEntity
  8
圖層1輪廓線
100
AcDbLine
 10
2706.634316385821
 20
1654.040545720783
 30
0.0
 11
2706.634316385821
 21
1664.040545720783
 31
0.0
  0
LINE
  5
9B5
330
1F
100
AcDbEntity
  8
圖層1輪廓線
100
AcDbLine
 10
2706.634316385821
 20
1664.040545720783
 30
0.0
 11
2653.333046196599
 21
1664.040545720783
 31
0.0
  0
LINE
  5
9B6
330
1F
100
AcDbEntity
  8
圖層1輪廓線
100
AcDbLine
 10
2611.727914318372
 20
1664.040545720783
 30
0.0
 11
2611.727914318372
 21
1654.040545720783
 31
0.0
  0
LINE
  5
9B7
330
1F
100
AcDbEntity
  8
圖層1輪廓線
100
AcDbLine
 10
2611.727914318372
 20
1654.040545720783
 30
0.0
 11
2637.333046196599
 21
1654.040545720783
 31
0.0
  0
LINE
  5
9B8
330
1F
100
AcDbEntity
  8
圖層1輪廓線
100
AcDbLine
 10
2688.634316385821
 20
1664.040545720783
 30
0.0
 11
2678.634316385821
 21
1664.040545720783
 31
0.0
  0
LINE
  5
9B9
330
1F
100
AcDbEntity
  8
圖層4尺寸線
100
AcDbLine
 10
2678.634316385821
 20
1664.040545720783
 30
0.0
 11
2678.634316385821
 21
1667.040545720783
 31
0.0
  0
LINE
  5
9BA
330
1F
100
AcDbEntity
  8
圖層1輪廓線
100
AcDbLine
 10
2678.634316385821
 20
1667.040545720783
 30
0.0
 11
2698.634316385821
 21
1667.040545720783
 31
0.0
  0
LINE
  5
9BB
330
1F
100
AcDbEntity
  8
圖層1輪廓線
100
AcDbLine
 10
2698.634316385821
 20
1667.040545720783
 30
0.0
 11
2698.634316385821
 21
1664.040545720783
 31
0.0
  0
ARC
  5
9BC
330
1F
100
AcDbEntity
  8
圖層1輪廓線
100
AcDbCircle
 10
2680.407075049869
 20
1674.16033738745
 30
0.0
 40
2.880208333333381
100
AcDbArc
 50
17.79461318390024
 51
162.2053868160997
  0
ARC
  5
9BD
330
1F
100
AcDbEntity
  8
圖層1輪廓線
100
AcDbCircle
 10
2680.407075049869
 20
1669.920754054116
 30
0.0
 40
2.880208333333234
100
AcDbArc
 50
197.7946131839002
 51
342.2053868160997
  0
LINE
  5
9BE
330
1F
100
AcDbEntity
  8
圖層1輪廓線
100
AcDbLine
 10
2680.242852469039
 20
1667.040545720783
 30
0.0
 11
2697.025780302604
 21
1667.040545720783
 31
0.0
  0
LINE
  5
9BF
330
1F
100
AcDbEntity
  8
圖層4尺寸線
100
AcDbLine
 10
2680.24285246904
 20
1677.040545720783
 30
0.0
 11
2697.025780302603
 21
1677.040545720783
 31
0.0
  0
LINE
  5
9C0
330
1F
100
AcDbEntity
  8
圖層4尺寸線
100
AcDbLine
 10
2677.664661271218
 20
1669.040545720783
 30
0.0
 11
2677.664661271218
 21
1675.040545720784
 31
0.0
  0
LINE
  5
9C1
330
1F
100
AcDbEntity
  8
圖層1輪廓線
100
AcDbLine
 10
2683.14948882852
 20
1669.040545720783
 30
0.0
 11
2683.149488828519
 21
1675.040545720783
 31
0.0
  0
ARC
  5
9C2
330
1F
100
AcDbEntity
  8
圖層1輪廓線
100
AcDbCircle
 10
2696.861557721773
 20
1674.16033738745
 30
0.0
 40
2.880208333333343
100
AcDbArc
 50
17.79461318390024
 51
162.2053868160997
  0
ARC
  5
9C3
330
1F
100
AcDbEntity
  8
圖層1輪廓線
100
AcDbCircle
 10
2696.861557721773
 20
1669.920754054116
 30
0.0
 40
2.880208333333234
100
AcDbArc
 50
197.7946131839002
 51
342.2053868160997
  0
LINE
  5
9C4
330
1F
100
AcDbEntity
  8
圖層1輪廓線
100
AcDbLine
 10
2699.603971500424
 20
1669.040545720783
 30
0.0
 11
2699.603971500424
 21
1675.040545720783
 31
0.0
  0
LINE
  5
9C5
330
1F
100
AcDbEntity
  8
圖層1輪廓線
100
AcDbLine
 10
2694.119143943123
 20
1669.040545720783
 30
0.0
 11
2694.119143943123
 21
1675.040545720783
 31
0.0
  0
ARC
  5
9C6
330
1F
100
AcDbEntity
  8
圖層1輪廓線
100
AcDbCircle
 10
2688.634316385821
 20
1675.561379054115
 30
0.0
 40
8.520833333332422
100
AcDbArc
 50
229.9320129505477
 51
310.0679870494523
  0
ARC
  5
9C7
330
1F
100
AcDbEntity
  8
圖層1輪廓線
100
AcDbCircle
 10
2688.634316385821
 20
1668.51971238745
 30
0.0
 40
8.520833333333246
100
AcDbArc
 50
49.9320129505477
 51
130.0679870494523
  0
LINE
  5
9C8
330
1F
100
AcDbEntity
  8
圖層1輪廓線
100
AcDbLine
 10
2645.333046196599
 20
1625.329505088287
 30
0.0
 11
2622.833046196599
 21
1625.329505088287
 31
0.0
  0
LINE
  5
9C9
330
1F
100
AcDbEntity
  8
圖層1輪廓線
100
AcDbLine
 10
2622.833046196599
 20
1625.329505088287
 30
0.0
 11
2622.833046196599
 21
1630.329505088288
 31
0.0
  0
LINE
  5
9CA
330
1F
100
AcDbEntity
  8
圖層1輪廓線
100
AcDbLine
 10
2622.833046196599
 20
1630.329505088288
 30
0.0
 11
2667.833046196599
 21
1630.329505088288
 31
0.0
  0
LINE
  5
9CB
330
1F
100
AcDbEntity
  8
圖層1輪廓線
100
AcDbLine
 10
2667.833046196599
 20
1630.329505088288
 30
0.0
 11
2667.833046196599
 21
1625.329505088288
 31
0.0
  0
LINE
  5
9CC
102
{ACAD_REACTORS
330
E8E
102
}
330
1F
100
AcDbEntity
  8
圖層1輪廓線
100
AcDbLine
 10
2508.634316385821
 20
1625.329505088288
 30
0.0
 11
2743.634316385821
 21
1625.329505088287
 31
0.0
  0
LINE
  5
9CD
330
1F
100
AcDbEntity
  8
圖層1輪廓線
100
AcDbLine
 10
2653.333046196599
 20
1654.040545720783
 30
0.0
 11
2688.634316385821
 21
1654.040545720783
 31
0.0
  0
LINE
  5
9CE
330
1F
100
AcDbEntity
  8
圖層1輪廓線
100
AcDbLine
 10
2653.333046196599
 20
1630.329505088288
 30
0.0
 11
2653.333046196599
 21
1707.829505088288
 31
0.0
  0
LINE
  5
9CF
330
1F
100
AcDbEntity
  8
圖層4尺寸線
100
AcDbLine
 10
2625.727914318372
 20
1514.040545720783
 30
0.0
 11
2621.227914318372
 21
1514.040545720783
 31
0.0
  0
LINE
  5
9D0
330
1F
100
AcDbEntity
  8
圖層4尺寸線
100
AcDbLine
 10
2630.227914318373
 20
1514.040545720783
 30
0.0
 11
2625.727914318372
 21
1514.040545720783
 31
0.0
  0
LINE
  5
9D1
330
1F
100
AcDbEntity
  8
圖層4尺寸線
100
AcDbLine
 10
2619.227914318372
 20
1654.040545720783
 30
0.0
 11
2619.227914318372
 21
1625.329505088287
 31
0.0
  0
LINE
  5
9D2
330
1F
100
AcDbEntity
  8
圖層4尺寸線
100
AcDbLine
 10
2632.227914318372
 20
1654.040545720783
 30
0.0
 11
2632.227914318372
 21
1630.329505088288
 31
0.0
  0
LINE
  5
9D3
330
1F
100
AcDbEntity
  8
圖層4尺寸線
100
AcDbLine
 10
2621.227914318372
 20
1654.040545720783
 30
0.0
 11
2621.227914318372
 21
1625.329505088287
 31
0.0
  0
LINE
  5
9D4
330
1F
100
AcDbEntity
  8
圖層4尺寸線
100
AcDbLine
 10
2630.227914318373
 20
1654.040545720783
 30
0.0
 11
2630.227914318372
 21
1630.329505088288
 31
0.0
  0
LINE
  5
9D5
330
1F
100
AcDbEntity
  8
圖層4尺寸線
100
AcDbLine
 10
2625.727914318372
 20
1516.040545720783
 30
0.0
 11
2619.227914318372
 21
1516.040545720783
 31
0.0
  0
LINE
  5
9D6
330
1F
100
AcDbEntity
  8
圖層4尺寸線
100
AcDbLine
 10
2632.227914318372
 20
1516.040545720783
 30
0.0
 11
2625.727914318372
 21
1516.040545720783
 31
0.0
  0
LINE
  5
9D7
330
1F
100
AcDbEntity
  8
圖層4尺寸線
100
AcDbLine
 10
2619.227914318372
 20
1516.040545720783
 30
0.0
 11
2621.227914318372
 21
1514.040545720783
 31
0.0
  0
LINE
  5
9D8
330
1F
100
AcDbEntity
  8
圖層4尺寸線
100
AcDbLine
 10
2630.227914318372
 20
1514.040545720783
 30
0.0
 11
2632.227914318372
 21
1516.040545720783
 31
0.0
  0
LINE
  5
9D9
330
1F
100
AcDbEntity
  8
圖層4尺寸線
100
AcDbLine
 10
2619.227914318372
 20
1565.329505088288
 30
0.0
 11
2619.227914318372
 21
1516.040545720783
 31
0.0
  0
LINE
  5
9DA
330
1F
100
AcDbEntity
  8
圖層4尺寸線
100
AcDbLine
 10
2621.227914318372
 20
1565.329505088288
 30
0.0
 11
2621.227914318372
 21
1514.040545720783
 31
0.0
  0
LINE
  5
9DB
330
1F
100
AcDbEntity
  8
圖層4尺寸線
100
AcDbLine
 10
2630.227914318372
 20
1565.329505088288
 30
0.0
 11
2630.227914318372
 21
1514.040545720783
 31
0.0
  0
LINE
  5
9DC
330
1F
100
AcDbEntity
  8
圖層4尺寸線
100
AcDbLine
 10
2632.227914318372
 20
1565.329505088288
 30
0.0
 11
2632.227914318372
 21
1516.040545720783
 31
0.0
  0
LINE
  5
9DD
330
1F
100
AcDbEntity
  8
圖層1輪廓線
100
AcDbLine
 10
2611.727914318372
 20
1664.040545720783
 30
0.0
 11
2637.333046196599
 21
1664.040545720783
 31
0.0
  0
LINE
  5
9DE
330
1F
100
AcDbEntity
  8
圖層1輪廓線
100
AcDbLine
 10
2625.727914318372
 20
1664.040545720783
 30
0.0
 11
2612.727914318372
 21
1664.040545720783
 31
0.0
  0
LINE
  5
9DF
330
1F
100
AcDbEntity
  8
圖層1輪廓線
100
AcDbLine
 10
2612.727914318372
 20
1664.040545720783
 30
0.0
 11
2612.727914318372
 21
1676.040545720783
 31
0.0
  0
LINE
  5
9E0
330
1F
100
AcDbEntity
  8
圖層1輪廓線
100
AcDbLine
 10
2612.727914318372
 20
1676.040545720783
 30
0.0
 11
2637.333046196599
 21
1676.040545720783
 31
0.0
  0
LINE
  5
9E1
330
1F
100
AcDbEntity
  8
圖層1輪廓線
100
AcDbLine
 10
2636.727914318373
 20
1688.040545720783
 30
0.0
 11
2637.333046196599
 21
1688.040545720783
 31
0.0
  0
LINE
  5
9E2
330
1F
100
AcDbEntity
  8
圖層2中心線
 48
0.2
100
AcDbLine
 10
2606.622565871925
 20
1682.040545720783
 30
0.0
 11
2644.527438865615
 21
1682.040545720783
 31
0.0
  0
LINE
  5
9E3
330
1F
100
AcDbEntity
  8
圖層1輪廓線
100
AcDbLine
 10
2594.727914318372
 20
1699.040545720783
 30
0.0
 11
2637.333046196599
 21
1699.040545720783
 31
0.0
  0
LINE
  5
9E4
330
1F
100
AcDbEntity
  8
圖層1輪廓線
100
AcDbLine
 10
2594.727914318372
 20
1711.040545720783
 30
0.0
 11
2656.727914318372
 21
1711.040545720783
 31
0.0
  0
LINE
  5
9E5
330
1F
100
AcDbEntity
  8
圖層2中心線
100
AcDbLine
 10
2625.727914318372
 20
1670.519432401853
 30
0.0
 11
2625.727914318372
 21
1719.419836729622
 31
0.0
  0
ARC
  5
9E6
330
1F
100
AcDbEntity
  8
圖層1輪廓線
100
AcDbCircle
 10
2594.727914318372
 20
1705.040545720783
 30
0.0
 40
6.000000000000074
100
AcDbArc
 50
90.0
 51
270.0
  0
LINE
  5
9E7
330
1F
100
AcDbEntity
  8
圖層1輪廓線
100
AcDbLine
 10
2610.727914318372
 20
1688.040545720783
 30
0.0
 11
2610.727914318372
 21
1676.040545720783
 31
0.0
  0
LINE
  5
9E8
330
1F
100
AcDbEntity
  8
圖層1輪廓線
100
AcDbLine
 10
2610.727914318372
 20
1676.040545720783
 30
0.0
 11
2637.333046196599
 21
1676.040545720783
 31
0.0
  0
ARC
  5
9E9
330
1F
100
AcDbEntity
  8
圖層1輪廓線
100
AcDbCircle
 10
2614.727914318372
 20
1691.040545720783
 30
0.0
 40
3.0
100
AcDbArc
 50
270.0
 51
0.0
  0
LINE
  5
9EA
330
1F
100
AcDbEntity
  8
圖層1輪廓線
100
AcDbLine
 10
2610.727914318372
 20
1688.040545720783
 30
0.0
 11
2637.333046196599
 21
1688.040545720783
 31
0.0
  0
LINE
  5
9EB
330
1F
100
AcDbEntity
  8
圖層1輪廓線
100
AcDbLine
 10
2603.904295220422
 20
1699.040545720783
 30
0.0
 11
2605.015493279234
 21
1694.893498108026
 31
0.0
  0
LINE
  5
9EC
330
1F
100
AcDbEntity
  8
圖層1輪廓線
100
AcDbLine
 10
2617.727914318372
 20
1699.040545720783
 30
0.0
 11
2617.727914318372
 21
1691.040545720783
 31
0.0
  0
LINE
  5
9ED
330
1F
100
AcDbEntity
  8
圖層1輪廓線
100
AcDbLine
 10
2598.727914318372
 20
1699.040545720783
 30
0.0
 11
2600.185864147789
 21
1693.599402882514
 31
0.0
  0
ARC
  5
9EE
330
1F
100
AcDbEntity
  8
圖層1輪廓線
100
AcDbCircle
 10
2607.430307844957
 20
1695.540545720783
 30
0.0
 40
2.5
100
AcDbArc
 50
194.9999999999944
 51
270.0
  0
ARC
  5
9EF
330
1F
100
AcDbEntity
  8
圖層1輪廓線
100
AcDbCircle
 10
2607.430307844957
 20
1695.540545720783
 30
0.0
 40
7.5
100
AcDbArc
 50
194.9999999999944
 51
270.0
  0
LINE
  5
9F0
330
1F
100
AcDbEntity
  8
圖層1輪廓線
100
AcDbLine
 10
2610.727914318372
 20
1693.040545720783
 30
0.0
 11
2617.727914318372
 21
1693.040545720783
 31
0.0
  0
LINE
  5
9F1
330
1F
100
AcDbEntity
  8
圖層1輪廓線
100
AcDbLine
 10
2610.727914318372
 20
1688.040545720783
 30
0.0
 11
2614.727914318372
 21
1688.040545720783
 31
0.0
  0
LINE
  5
9F2
330
1F
100
AcDbEntity
  8
圖層1輪廓線
100
AcDbLine
 10
2610.727914318372
 20
1693.040545720783
 30
0.0
 11
2607.430307844957
 21
1693.040545720783
 31
0.0
  0
LINE
  5
9F3
330
1F
100
AcDbEntity
  8
圖層1輪廓線
100
AcDbLine
 10
2610.727914318372
 20
1688.040545720783
 30
0.0
 11
2606.727914318372
 21
1688.040545720783
 31
0.0
  0
LINE
  5
9F4
330
1F
100
AcDbEntity
  8
圖層1輪廓線
100
AcDbLine
 10
2633.727914318372
 20
1699.040545720783
 30
0.0
 11
2633.727914318372
 21
1691.040545720783
 31
0.0
  0
CIRCLE
  5
9F5
330
1F
100
AcDbEntity
  8
圖層4尺寸線
100
AcDbCircle
 10
2625.727914318372
 20
1682.040545720783
 30
0.0
 40
3.0
  0
CIRCLE
  5
9F6
330
1F
100
AcDbEntity
  8
圖層3虛線
100
AcDbCircle
 10
2625.727914318372
 20
1682.040545720783
 30
0.0
 40
4.0
  0
LINE
  5
9F7
330
1F
100
AcDbEntity
  8
圖層1輪廓線
100
AcDbLine
 10
2633.727914318372
 20
1693.040545720783
 30
0.0
 11
2637.333046196599
 21
1693.040545720783
 31
0.0
  0
ARC
  5
9F8
330
1F
100
AcDbEntity
  8
圖層1輪廓線
100
AcDbCircle
 10
2636.727914318373
 20
1691.040545720783
 30
0.0
 40
3.0
100
AcDbArc
 50
180.0
 51
270.0
  0
ARC
  5
9F9
330
1F
100
AcDbEntity
  8
圖層1輪廓線
100
AcDbCircle
 10
2656.727914318372
 20
1705.040545720783
 30
0.0
 40
6.000000000000074
100
AcDbArc
 50
270.0
 51
90.0
  0
LINE
  5
9FA
330
1F
100
AcDbEntity
  8
圖層1輪廓線
100
AcDbLine
 10
2653.333046196599
 20
1699.040545720783
 30
0.0
 11
2656.727914318372
 21
1699.040545720783
 31
0.0
  0
LINE
  5
9FB
330
1F
100
AcDbEntity
  8
圖層2中心線
 48
0.2
100
AcDbLine
 10
2109.459676532533
 20
1528.829505088288
 30
0.0
 11
2177.59464627296
 21
1528.829505088288
 31
0.0
  0
LINE
  5
9FC
330
1F
100
AcDbEntity
  8
圖層3虛線
100
AcDbLine
 10
2132.618939833575
 20
1513.829505088288
 30
0.0
 11
2132.618939833575
 21
1543.829505088288
 31
0.0
  0
LINE
  5
9FD
330
1F
100
AcDbEntity
  8
圖層3虛線
100
AcDbLine
 10
2152.618939833574
 20
1513.829505088288
 30
0.0
 11
2152.618939833574
 21
1543.829505088288
 31
0.0
  0
LINE
  5
9FE
330
1F
100
AcDbEntity
  8
圖層3虛線
100
AcDbLine
 10
2132.618939833575
 20
1543.829505088288
 30
0.0
 11
2152.618939833574
 21
1543.829505088288
 31
0.0
  0
LINE
  5
9FF
330
1F
100
AcDbEntity
  8
圖層3虛線
100
AcDbLine
 10
2118.947578796801
 20
1533.829505088288
 30
0.0
 11
2132.618939833575
 21
1533.829505088288
 31
0.0
  0
LINE
  5
A00
330
1F
100
AcDbEntity
  8
圖層3虛線
100
AcDbLine
 10
2118.947578796801
 20
1523.829505088288
 30
0.0
 11
2132.618939833575
 21
1523.829505088288
 31
0.0
  0
LINE
  5
A01
330
1F
100
AcDbEntity
  8
圖層3虛線
100
AcDbLine
 10
2152.618939833574
 20
1533.829505088288
 30
0.0
 11
2166.29030087035
 21
1533.829505088288
 31
0.0
  0
LINE
  5
A02
330
1F
100
AcDbEntity
  8
圖層3虛線
100
AcDbLine
 10
2152.618939833574
 20
1523.829505088288
 30
0.0
 11
2166.29030087035
 21
1523.829505088288
 31
0.0
  0
LINE
  5
A03
330
1F
100
AcDbEntity
  8
圖層3虛線
100
AcDbLine
 10
2118.947578796801
 20
1531.829505088288
 30
0.0
 11
2132.618939833575
 21
1531.829505088288
 31
0.0
  0
LINE
  5
A04
330
1F
100
AcDbEntity
  8
圖層3虛線
100
AcDbLine
 10
2118.947578796801
 20
1525.829505088288
 30
0.0
 11
2132.618939833575
 21
1525.829505088288
 31
0.0
  0
LINE
  5
A05
330
1F
100
AcDbEntity
  8
圖層3虛線
100
AcDbLine
 10
2152.618939833574
 20
1531.829505088288
 30
0.0
 11
2166.29030087035
 21
1531.829505088288
 31
0.0
  0
LINE
  5
A06
330
1F
100
AcDbEntity
  8
圖層3虛線
100
AcDbLine
 10
2152.618939833574
 20
1525.829505088288
 30
0.0
 11
2166.29030087035
 21
1525.829505088288
 31
0.0
  0
LINE
  5
A07
330
1F
100
AcDbEntity
  8
圖層2中心線
 48
0.5
100
AcDbLine
 10
2142.618939833575
 20
1286.304150799154
 30
0.0
 11
2142.618939833575
 21
1381.560048380709
 31
0.0
  0
CIRCLE
  5
A08
330
1F
100
AcDbEntity
  8
圖層1輪廓線
100
AcDbCircle
 10
2142.618939833575
 20
1528.829505088288
 30
0.0
 40
5.0
  0
CIRCLE
  5
A09
330
1F
100
AcDbEntity
  8
圖層3虛線
100
AcDbCircle
 10
2142.618939833575
 20
1528.829505088288
 30
0.0
 40
3.0
  0
CIRCLE
  5
A0A
330
1F
100
AcDbEntity
  8
圖層1輪廓線
100
AcDbCircle
 10
2142.618939833575
 20
1528.829505088288
 30
0.0
 40
7.0
  0
LWPOLYLINE
  5
A0B
330
1F
100
AcDbEntity
  8
圖層1輪廓線
100
AcDbPolyline
 90
        6
 70
     1
 43
0.0
 10
2135.618939833575
 20
1524.788053203961
 10
2142.618939833575
 20
1520.746601319633
 10
2149.618939833575
 20
1524.788053203961
 10
2149.618939833575
 20
1532.870956972615
 10
2142.618939833575
 20
1536.912408856943
 10
2135.618939833575
 20
1532.870956972615
  0
ARC
  5
A0C
330
1F
100
AcDbEntity
  8
圖層1輪廓線
100
AcDbCircle
 10
2529.356538608042
 20
1530.329505088287
 30
0.0
 40
8.777777777777153
100
AcDbArc
 50
326.0078238856377
 51
33.9921761143623
  0
ARC
  5
A0D
330
1F
100
AcDbEntity
  8
圖層1輪廓線
100
AcDbCircle
 10
2538.912094163598
 20
1530.329505088287
 30
0.0
 40
8.777777777777844
100
AcDbArc
 50
146.0078238856377
 51
213.9921761143623
  0
LINE
  5
A0E
330
1F
100
AcDbEntity
  8
圖層4尺寸線
100
AcDbLine
 10
2530.13431638582
 20
1522.96828915612
 30
0.0
 11
2530.13431638582
 21
1537.690721020455
 31
0.0
  0
LINE
  5
A0F
330
1F
100
AcDbEntity
  8
圖層1輪廓線
100
AcDbLine
 10
2538.13431638582
 20
1522.96828915612
 30
0.0
 11
2538.13431638582
 21
1537.690721020455
 31
0.0
  0
ARC
  5
A10
330
1F
100
AcDbEntity
  8
圖層1輪廓線
100
AcDbCircle
 10
2535.377371941375
 20
1522.96828915612
 30
0.0
 40
2.756944444444471
100
AcDbArc
 50
297.1241053663717
 51
62.87589463362829
  0
ARC
  5
A11
330
1F
100
AcDbEntity
  8
圖層1輪廓線
100
AcDbCircle
 10
2532.891260830265
 20
1522.96828915612
 30
0.0
 40
2.756944444444574
100
AcDbArc
 50
117.1241053663717
 51
242.8758946336283
  0
LINE
  5
A12
330
1F
100
AcDbEntity
  8
圖層1輪廓線
100
AcDbLine
 10
2536.63431638582
 20
1525.422027800176
 30
0.0
 11
2531.63431638582
 21
1525.422027800176
 31
0.0
  0
LINE
  5
A13
330
1F
100
AcDbEntity
  8
圖層4尺寸線
100
AcDbLine
 10
2536.63431638582
 20
1520.514550512064
 30
0.0
 11
2531.63431638582
 21
1520.514550512064
 31
0.0
  0
ARC
  5
A14
330
1F
100
AcDbEntity
  8
圖層1輪廓線
100
AcDbCircle
 10
2535.377371941375
 20
1537.690721020455
 30
0.0
 40
2.756944444444263
100
AcDbArc
 50
297.1241053663657
 51
62.87589463363423
  0
ARC
  5
A15
330
1F
100
AcDbEntity
  8
圖層1輪廓線
100
AcDbCircle
 10
2532.891260830264
 20
1537.690721020455
 30
0.0
 40
2.756944444444471
100
AcDbArc
 50
117.1241053663717
 51
242.8758946336283
  0
LINE
  5
A16
330
1F
100
AcDbEntity
  8
圖層4尺寸線
100
AcDbLine
 10
2536.63431638582
 20
1540.144459664511
 30
0.0
 11
2531.63431638582
 21
1540.144459664511
 31
0.0
  0
LINE
  5
A17
330
1F
100
AcDbEntity
  8
圖層1輪廓線
100
AcDbLine
 10
2536.63431638582
 20
1535.236982376399
 30
0.0
 11
2531.63431638582
 21
1535.236982376399
 31
0.0
  0
LINE
  5
A18
330
1F
100
AcDbEntity
  8
圖層1輪廓線
100
AcDbLine
 10
2508.634316385821
 20
1585.329505088288
 30
0.0
 11
2558.63431638582
 21
1585.329505088288
 31
0.0
  0
LINE
  5
A19
330
1F
100
AcDbEntity
  8
圖層1輪廓線
100
AcDbLine
 10
2743.634316385821
 20
1565.329505088288
 30
0.0
 11
2579.13431638582
 21
1565.329505088288
 31
0.0
  0
LINE
  5
A1A
330
1F
100
AcDbEntity
  8
圖層1輪廓線
100
AcDbLine
 10
2558.63431638582
 20
1585.329505088288
 30
0.0
 11
2579.13431638582
 21
1565.329505088288
 31
0.0
  0
LINE
  5
A1B
330
1F
100
AcDbEntity
  8
圖層1輪廓線
100
AcDbLine
 10
2558.634316385821
 20
1578.329505088287
 30
0.0
 11
2558.634316385821
 21
1572.329505088288
 31
0.0
  0
LINE
  5
A1C
330
1F
100
AcDbEntity
  8
圖層1輪廓線
100
AcDbLine
 10
2558.634316385818
 20
1552.829505088288
 30
0.0
 11
2558.634316385817
 21
1522.829505088289
 31
0.0
  0
LINE
  5
A1D
330
1F
100
AcDbEntity
  8
圖層2中心線
 48
0.2
100
AcDbLine
 10
2523.879908160126
 20
1530.329505088287
 30
0.0
 11
2589.147257764414
 21
1530.329505088287
 31
0.0
  0
LINE
  5
A1E
330
1F
100
AcDbEntity
  8
圖層3虛線
100
AcDbLine
 10
2214.618939833576
 20
1314.040545720783
 30
0.0
 11
2187.618939833575
 21
1314.040545720783
 31
0.0
  0
LINE
  5
A1F
330
1F
100
AcDbEntity
  8
圖層3虛線
100
AcDbLine
 10
2182.618939833575
 20
1319.040545720781
 30
0.0
 11
2182.618939833575
 21
1327.606810608344
 31
0.0
  0
LINE
  5
A20
330
1F
100
AcDbEntity
  8
圖層3虛線
100
AcDbLine
 10
2102.618939833575
 20
1319.040545720783
 30
0.0
 11
2102.618939833575
 21
1327.606810608344
 31
0.0
  0
ARC
  5
A21
330
1F
100
AcDbEntity
  8
圖層3虛線
100
AcDbCircle
 10
2097.618939833575
 20
1319.040545720783
 30
0.0
 40
5.0
100
AcDbArc
 50
270.0
 51
0.0
  0
ARC
  5
A22
330
1F
100
AcDbEntity
  8
圖層3虛線
100
AcDbCircle
 10
2187.618939833575
 20
1319.040545720781
 30
0.0
 40
5.0
100
AcDbArc
 50
180.0
 51
270.0
  0
LINE
  5
A23
330
1F
100
AcDbEntity
  8
圖層3虛線
100
AcDbLine
 10
2097.618939833575
 20
1314.040545720783
 30
0.0
 11
2070.618939833575
 21
1314.040545720783
 31
0.0
  0
ARC
  5
A24
330
1F
100
AcDbEntity
  8
圖層3虛線
 48
0.3
100
AcDbCircle
 10
2214.618939833576
 20
1311.040545720783
 30
0.0
 40
3.0
100
AcDbArc
 50
0.0
 51
90.0
  0
LINE
  5
A25
330
1F
100
AcDbEntity
  8
圖層1輪廓線
100
AcDbLine
 10
2067.618939833575
 20
1311.040545720783
 30
0.0
 11
2067.618939833575
 21
1304.040545720783
 31
0.0
  0
LINE
  5
A26
330
1F
100
AcDbEntity
  8
圖層1輪廓線
100
AcDbLine
 10
2217.618939833576
 20
1361.040545720783
 30
0.0
 11
2217.618939833576
 21
1304.040545720783
 31
0.0
  0
ARC
  5
A27
330
1F
100
AcDbEntity
  8
圖層3虛線
100
AcDbCircle
 10
2070.618939833575
 20
1311.040545720783
 30
0.0
 40
3.0
100
AcDbArc
 50
90.0
 51
180.0
  0
LINE
  5
A28
330
1F
100
AcDbEntity
  8
圖層3虛線
100
AcDbLine
 10
2082.618939833576
 20
1304.040545720783
 30
0.0
 11
2082.618939833576
 21
1314.040545720783
 31
0.0
  0
LINE
  5
A29
330
1F
100
AcDbEntity
  8
圖層3虛線
100
AcDbLine
 10
2202.618939833576
 20
1314.040545720783
 30
0.0
 11
2202.618939833576
 21
1304.040545720783
 31
0.0
  0
LINE
  5
A2A
330
1F
100
AcDbEntity
  8
圖層2中心線
 48
0.2
100
AcDbLine
 10
2077.618939833576
 20
1324.602379431032
 30
0.0
 11
2077.618939833576
 21
1330.809387185123
 31
0.0
  0
LINE
  5
A2B
102
{ACAD_REACTORS
330
B47
102
}
330
1F
100
AcDbEntity
  8
圖層2中心線
 48
0.2
100
AcDbLine
 10
2077.618939833576
 20
1285.164213141281
 30
0.0
 11
2077.618939833576
 21
1324.56034581836
 31
0.0
  0
LINE
  5
A2C
330
1F
100
AcDbEntity
  8
圖層3虛線
100
AcDbLine
 10
2072.618939833576
 20
1304.040545720783
 30
0.0
 11
2072.618939833576
 21
1314.040545720783
 31
0.0
  0
LINE
  5
A2D
330
1F
100
AcDbEntity
  8
圖層3虛線
100
AcDbLine
 10
2212.618939833575
 20
1314.040545720783
 30
0.0
 11
2212.618939833575
 21
1304.040545720783
 31
0.0
  0
ARC
  5
A2E
330
1F
100
AcDbEntity
  8
圖層1輪廓線
100
AcDbCircle
 10
2070.618939833575
 20
1361.040545720783
 30
0.0
 40
3.0
100
AcDbArc
 50
90.0
 51
180.0
  0
ARC
  5
A2F
330
1F
100
AcDbEntity
  8
圖層1輪廓線
100
AcDbCircle
 10
2214.618939833576
 20
1361.040545720783
 30
0.0
 40
3.0
100
AcDbArc
 50
0.0
 51
90.0
  0
LINE
  5
A30
102
{ACAD_REACTORS
330
E32
102
}
330
1F
100
AcDbEntity
  8
圖層2中心線
 48
0.5
100
AcDbLine
 10
2688.634316385821
 20
1696.49655728064
 30
0.0
 11
2688.634316385821
 21
1292.507678193797
 31
0.0
  0
LINE
  5
A31
330
1F
100
AcDbEntity
  8
圖層2中心線
 48
0.1
100
AcDbLine
 10
2723.634316385821
 20
1349.040545720783
 30
0.0
 11
2743.634316385821
 21
1349.040545720783
 31
0.0
  0
LINE
  5
A32
330
1F
100
AcDbEntity
  8
圖層2中心線
 48
0.1
100
AcDbLine
 10
2733.634316385821
 20
1339.040545720783
 30
0.0
 11
2733.634316385821
 21
1359.040545720783
 31
0.0
  0
LINE
  5
A33
330
1F
100
AcDbEntity
  8
圖層2中心線
 48
0.1
100
AcDbLine
 10
2723.634316385821
 20
1319.040545720783
 30
0.0
 11
2743.634316385821
 21
1319.040545720783
 31
0.0
  0
LINE
  5
A34
330
1F
100
AcDbEntity
  8
圖層2中心線
 48
0.1
100
AcDbLine
 10
2733.634316385821
 20
1309.040545720783
 30
0.0
 11
2733.634316385821
 21
1329.040545720783
 31
0.0
  0
LINE
  5
A35
330
1F
100
AcDbEntity
  8
圖層1輪廓線
100
AcDbLine
 10
2092.618939833576
 20
1625.329505088288
 30
0.0
 11
2110.618939833575
 21
1625.329505088288
 31
0.0
  0
LINE
  5
A36
330
1F
100
AcDbEntity
  8
圖層1輪廓線
100
AcDbLine
 10
2174.618939833576
 20
1625.329505088288
 30
0.0
 11
2192.618939833575
 21
1625.329505088288
 31
0.0
  0
LINE
  5
A37
330
1F
100
AcDbEntity
  8
圖層1輪廓線
100
AcDbLine
 10
2508.634316385821
 20
1625.329505088288
 30
0.0
 11
2526.634316385821
 21
1625.329505088288
 31
0.0
  0
LINE
  5
A38
330
1F
100
AcDbEntity
  8
圖層1輪廓線
100
AcDbLine
 10
2590.634316385821
 20
1625.329505088288
 30
0.0
 11
2743.634316385821
 21
1625.329505088288
 31
0.0
  0
CIRCLE
  5
A39
330
1F
100
AcDbEntity
  8
圖層1輪廓線
100
AcDbCircle
 10
2733.634316385821
 20
1349.040545720783
 30
0.0
 40
3.0
  0
CIRCLE
  5
A3A
330
1F
100
AcDbEntity
  8
圖層1輪廓線
100
AcDbCircle
 10
2733.634316385821
 20
1319.040545720783
 30
0.0
 40
3.0
  0
CIRCLE
  5
A3B
330
1F
100
AcDbEntity
  8
圖層1輪廓線
100
AcDbCircle
 10
2733.634316385821
 20
1319.040545720783
 30
0.0
 40
5.0
  0
CIRCLE
  5
A3C
330
1F
100
AcDbEntity
  8
圖層1輪廓線
100
AcDbCircle
 10
2733.634316385821
 20
1349.040545720783
 30
0.0
 40
5.0
  0
LWPOLYLINE
  5
A3D
330
1F
100
AcDbEntity
  8
圖層1輪廓線
100
AcDbPolyline
 90
        6
 70
     1
 43
0.0
 10
2730.634316385821
 20
1347.308494913214
 10
2733.634316385821
 20
1345.576444105645
 10
2736.634316385821
 20
1347.308494913214
 10
2736.634316385821
 20
1350.772596528352
 10
2733.634316385821
 20
1352.504647335921
 10
2730.634316385821
 20
1350.772596528352
  0
LWPOLYLINE
  5
A3E
330
1F
100
AcDbEntity
  8
圖層1輪廓線
100
AcDbPolyline
 90
        6
 70
     1
 43
0.0
 10
2730.634316385821
 20
1317.308494913214
 10
2733.634316385821
 20
1315.576444105645
 10
2736.634316385821
 20
1317.308494913214
 10
2736.634316385821
 20
1320.772596528352
 10
2733.634316385821
 20
1322.50464733592
 10
2730.634316385821
 20
1320.772596528352
  0
LINE
  5
A3F
330
1F
100
AcDbEntity
  8
圖層3虛線
100
AcDbLine
 10
2643.634316385821
 20
1314.040545720783
 30
0.0
 11
2643.634316385821
 21
1304.040545720783
 31
0.0
  0
LINE
  5
A40
330
1F
100
AcDbEntity
  8
圖層3虛線
100
AcDbLine
 10
2653.634316385821
 20
1314.040545720783
 30
0.0
 11
2653.634316385821
 21
1304.040545720783
 31
0.0
  0
LINE
  5
A41
330
1F
100
AcDbEntity
  8
圖層2中心線
 48
0.5
100
AcDbLine
 10
2142.618939833575
 20
1508.146180290487
 30
0.0
 11
2142.618939833575
 21
1927.850338421625
 31
0.0
  0
LINE
  5
A42
330
1F
100
AcDbEntity
  8
圖層1輪廓線
100
AcDbLine
 10
2531.99431638582
 20
1655.329505088288
 30
0.0
 11
2531.99431638582
 21
1751.329505088288
 31
0.0
  0
LINE
  5
A43
330
1F
100
AcDbEntity
  8
圖層1輪廓線
100
AcDbLine
 10
2539.174316385821
 20
1655.329505088288
 30
0.0
 11
2539.174316385821
 21
1751.329505088288
 31
0.0
  0
LINE
  5
A44
330
1F
100
AcDbEntity
  8
圖層1輪廓線
100
AcDbLine
 10
2578.094316385821
 20
1655.329505088288
 30
0.0
 11
2578.094316385821
 21
1751.329505088288
 31
0.0
  0
LINE
  5
A45
330
1F
100
AcDbEntity
  8
圖層1輪廓線
100
AcDbLine
 10
2585.274316385821
 20
1655.329505088288
 30
0.0
 11
2585.274316385821
 21
1751.329505088288
 31
0.0
  0
LINE
  5
A46
330
1F
100
AcDbEntity
  8
圖層1輪廓線
100
AcDbLine
 10
2526.134316385821
 20
1655.329505088288
 30
0.0
 11
2526.634316385821
 21
1625.329505088288
 31
0.0
  0
LINE
  5
A47
330
1F
100
AcDbEntity
  8
圖層1輪廓線
100
AcDbLine
 10
2536.134316385821
 20
1655.329505088288
 30
0.0
 11
2536.568205197565
 21
1629.296176383619
 31
0.0
  0
LINE
  5
A48
330
1F
100
AcDbEntity
  8
圖層1輪廓線
100
AcDbLine
 10
2581.134316385821
 20
1655.329505088288
 30
0.0
 11
2580.700427574076
 21
1629.296176383619
 31
0.0
  0
LINE
  5
A49
330
1F
100
AcDbEntity
  8
圖層1輪廓線
100
AcDbLine
 10
2591.134316385821
 20
1655.329505088288
 30
0.0
 11
2590.634316385821
 21
1625.329505088288
 31
0.0
  0
LINE
  5
A4A
330
1F
100
AcDbEntity
  8
圖層1輪廓線
100
AcDbLine
 10
2538.567927477644
 20
1627.329505088288
 30
0.0
 11
2578.700705293997
 21
1627.329505088288
 31
0.0
  0
LINE
  5
A4B
330
1F
100
AcDbEntity
  8
圖層1輪廓線
100
AcDbLine
 10
2526.634316385821
 20
1625.329505088288
 30
0.0
 11
2590.634316385821
 21
1625.329505088288
 31
0.0
  0
ARC
  5
A4C
330
1F
100
AcDbEntity
  8
圖層1輪廓線
100
AcDbCircle
 10
2538.567927477644
 20
1629.329505088288
 30
0.0
 40
2.0
100
AcDbArc
 50
180.9548412538678
 51
270.0
  0
ARC
  5
A4D
330
1F
100
AcDbEntity
  8
圖層1輪廓線
100
AcDbCircle
 10
2578.700705293997
 20
1629.329505088288
 30
0.0
 40
2.0
100
AcDbArc
 50
270.0
 51
359.0451587461322
  0
LINE
  5
A4E
330
1F
100
AcDbEntity
  8
圖層1輪廓線
100
AcDbLine
 10
2526.134316385821
 20
1655.329505088288
 30
0.0
 11
2591.134316385821
 21
1655.329505088288
 31
0.0
  0
LINE
  5
A4F
330
1F
100
AcDbEntity
  8
圖層1輪廓線
100
AcDbLine
 10
2581.134316385821
 20
1751.329505088288
 30
0.0
 11
2580.700427574076
 21
1777.362833792956
 31
0.0
  0
LINE
  5
A50
330
1F
100
AcDbEntity
  8
圖層1輪廓線
100
AcDbLine
 10
2536.134316385821
 20
1751.329505088288
 30
0.0
 11
2536.568205197565
 21
1777.362833792956
 31
0.0
  0
LINE
  5
A51
330
1F
100
AcDbEntity
  8
圖層1輪廓線
100
AcDbLine
 10
2591.134316385821
 20
1751.329505088288
 30
0.0
 11
2590.634316385821
 21
1781.329505088288
 31
0.0
  0
LINE
  5
A52
330
1F
100
AcDbEntity
  8
圖層1輪廓線
100
AcDbLine
 10
2526.134316385821
 20
1751.329505088288
 30
0.0
 11
2526.634316385821
 21
1781.329505088288
 31
0.0
  0
LINE
  5
A53
330
1F
100
AcDbEntity
  8
圖層1輪廓線
100
AcDbLine
 10
2526.134316385821
 20
1751.329505088288
 30
0.0
 11
2591.134316385821
 21
1751.329505088288
 31
0.0
  0
LINE
  5
A54
330
1F
100
AcDbEntity
  8
圖層1輪廓線
100
AcDbLine
 10
2538.634316385821
 20
1791.829505088288
 30
0.0
 11
2538.634316385821
 21
1781.329505088288
 31
0.0
  0
LINE
  5
A55
330
1F
100
AcDbEntity
  8
圖層1輪廓線
100
AcDbLine
 10
2578.634316385821
 20
1791.829505088288
 30
0.0
 11
2578.634316385821
 21
1781.329505088288
 31
0.0
  0
LINE
  5
A56
330
1F
100
AcDbEntity
  8
圖層1輪廓線
100
AcDbLine
 10
2538.567927477644
 20
1779.329505088288
 30
0.0
 11
2578.700705293997
 21
1779.329505088288
 31
0.0
  0
LINE
  5
A57
330
1F
100
AcDbEntity
  8
圖層1輪廓線
100
AcDbLine
 10
2526.634316385821
 20
1781.329505088288
 30
0.0
 11
2590.634316385821
 21
1781.329505088288
 31
0.0
  0
ARC
  5
A58
330
1F
100
AcDbEntity
  8
圖層1輪廓線
100
AcDbCircle
 10
2538.567927477644
 20
1777.329505088288
 30
0.0
 40
2.0
100
AcDbArc
 50
90.0
 51
179.0451587461321
  0
ARC
  5
A59
330
1F
100
AcDbEntity
  8
圖層1輪廓線
100
AcDbCircle
 10
2578.700705293997
 20
1777.329505088288
 30
0.0
 40
2.0
100
AcDbArc
 50
0.9548412538678467
 51
90.0
  0
LINE
  5
A5A
330
1F
100
AcDbEntity
  8
圖層1輪廓線
100
AcDbLine
 10
2578.634316385821
 20
1791.829505088288
 30
0.0
 11
2538.634316385821
 21
1791.829505088288
 31
0.0
  0
LINE
  5
A5B
330
1F
100
AcDbEntity
  8
圖層1輪廓線
100
AcDbLine
 10
2539.134316385821
 20
1792.329505088288
 30
0.0
 11
2578.134316385821
 21
1792.329505088288
 31
0.0
  0
LINE
  5
A5C
330
1F
100
AcDbEntity
  8
圖層1輪廓線
100
AcDbLine
 10
2540.134316385821
 20
1806.329505088288
 30
0.0
 11
2577.134316385821
 21
1806.329505088288
 31
0.0
  0
LINE
  5
A5D
330
1F
100
AcDbEntity
  8
圖層1輪廓線
100
AcDbLine
 10
2539.134316385821
 20
1805.329505088288
 30
0.0
 11
2539.134316385821
 21
1792.329505088288
 31
0.0
  0
LINE
  5
A5E
330
1F
100
AcDbEntity
  8
圖層1輪廓線
100
AcDbLine
 10
2538.634316385821
 20
1791.829505088288
 30
0.0
 11
2539.134316385821
 21
1792.329505088288
 31
0.0
  0
ARC
  5
A5F
330
1F
100
AcDbEntity
  8
圖層1輪廓線
100
AcDbCircle
 10
2540.134316385821
 20
1805.329505088288
 30
0.0
 40
1.0
100
AcDbArc
 50
90.0
 51
180.0
  0
LINE
  5
A60
330
1F
100
AcDbEntity
  8
圖層1輪廓線
100
AcDbLine
 10
2578.134316385821
 20
1805.329505088288
 30
0.0
 11
2578.134316385821
 21
1792.329505088288
 31
0.0
  0
LINE
  5
A61
330
1F
100
AcDbEntity
  8
圖層1輪廓線
100
AcDbLine
 10
2578.134316385821
 20
1792.329505088288
 30
0.0
 11
2578.634316385821
 21
1791.829505088288
 31
0.0
  0
LINE
  5
A62
330
1F
100
AcDbEntity
  8
圖層1輪廓線
100
AcDbLine
 10
2566.634316385821
 20
1806.329505088288
 30
0.0
 11
2550.634316385821
 21
1806.329505088288
 31
0.0
  0
ARC
  5
A63
330
1F
100
AcDbEntity
  8
圖層1輪廓線
100
AcDbCircle
 10
2577.134316385821
 20
1805.329505088288
 30
0.0
 40
1.0
100
AcDbArc
 50
0.0
 51
90.0
  0
LINE
  5
A64
330
1F
100
AcDbEntity
  8
圖層1輪廓線
100
AcDbLine
 10
2581.634316385821
 20
1911.329505088288
 30
0.0
 11
2581.634316385821
 21
1781.329505088288
 31
0.0
  0
LINE
  5
A65
330
1F
100
AcDbEntity
  8
圖層1輪廓線
100
AcDbLine
 10
2535.634316385821
 20
1781.329505088288
 30
0.0
 11
2535.634316385821
 21
1911.329505088288
 31
0.0
  0
LINE
  5
A66
330
1F
100
AcDbEntity
  8
圖層1輪廓線
100
AcDbLine
 10
2583.634316385821
 20
1911.329505088288
 30
0.0
 11
2583.634316385821
 21
1781.329505088288
 31
0.0
  0
LINE
  5
A67
330
1F
100
AcDbEntity
  8
圖層1輪廓線
100
AcDbLine
 10
2533.634316385821
 20
1781.329505088288
 30
0.0
 11
2533.634316385821
 21
1911.329505088288
 31
0.0
  0
LINE
  5
A68
330
1F
100
AcDbEntity
  8
圖層1輪廓線
100
AcDbLine
 10
2576.941112846083
 20
1865.207707491757
 30
0.0
 11
2547.055185061333
 21
1826.977579999572
 31
0.0
  0
LINE
  5
A69
330
1F
100
AcDbEntity
  8
圖層1輪廓線
100
AcDbLine
 10
2573.789760952049
 20
1867.671237731061
 30
0.0
 11
2543.903833167298
 21
1829.441110238876
 31
0.0
  0
LINE
  5
A6A
330
1F
100
AcDbEntity
  8
圖層1輪廓線
100
AcDbLine
 10
2568.63431638582
 20
1810.329505088288
 30
0.0
 11
2568.63431638582
 21
1854.829505088288
 31
0.0
  0
LINE
  5
A6B
330
1F
100
AcDbEntity
  8
圖層1輪廓線
100
AcDbLine
 10
2548.63431638582
 20
1810.329505088288
 30
0.0
 11
2548.63431638582
 21
1854.829505088288
 31
0.0
  0
LINE
  5
A6C
330
1F
100
AcDbEntity
  8
圖層1輪廓線
100
AcDbLine
 10
2540.634316385821
 20
1810.329505088288
 30
0.0
 11
2576.634316385821
 21
1810.329505088288
 31
0.0
  0
LINE
  5
A6D
330
1F
100
AcDbEntity
  8
圖層1輪廓線
100
AcDbLine
 10
2558.634316385821
 20
1806.329505088288
 30
0.0
 11
2540.634316385821
 21
1806.329505088288
 31
0.0
  0
ARC
  5
A6E
330
1F
100
AcDbEntity
  8
圖層1輪廓線
100
AcDbCircle
 10
2540.634316385821
 20
1808.329505088288
 30
0.0
 40
2.0
100
AcDbArc
 50
180.0
 51
284.4775121859295
  0
ARC
  5
A6F
330
1F
100
AcDbEntity
  8
圖層1輪廓線
100
AcDbCircle
 10
2540.634316385821
 20
1808.329505088288
 30
0.0
 40
2.0
100
AcDbArc
 50
90.0
 51
180.0
  0
LINE
  5
A70
330
1F
100
AcDbEntity
  8
圖層1輪廓線
100
AcDbLine
 10
2538.634316385821
 20
1808.329505088288
 30
0.0
 11
2538.634316385821
 21
1808.329505088288
 31
0.0
  0
ARC
  5
A71
330
1F
100
AcDbEntity
  8
圖層1輪廓線
100
AcDbCircle
 10
2576.634316385821
 20
1808.329505088288
 30
0.0
 40
2.0
100
AcDbArc
 50
255.5224878140705
 51
0.0
  0
LINE
  5
A72
330
1F
100
AcDbEntity
  8
圖層1輪廓線
100
AcDbLine
 10
2558.63431638582
 20
1806.329505088288
 30
0.0
 11
2576.134316385821
 21
1806.329505088288
 31
0.0
  0
ARC
  5
A73
330
1F
100
AcDbEntity
  8
圖層1輪廓線
100
AcDbCircle
 10
2576.634316385821
 20
1808.329505088288
 30
0.0
 40
2.0
100
AcDbArc
 50
0.0
 51
90.0
  0
LINE
  5
A74
330
1F
100
AcDbEntity
  8
圖層1輪廓線
100
AcDbLine
 10
2578.634316385821
 20
1808.329505088288
 30
0.0
 11
2578.634316385821
 21
1808.329505088288
 31
0.0
  0
LINE
  5
A75
330
1F
100
AcDbEntity
  8
圖層1輪廓線
100
AcDbLine
 10
2548.63431638582
 20
1854.829505088288
 30
0.0
 11
2568.63431638582
 21
1854.829505088288
 31
0.0
  0
LINE
  5
A76
330
1F
100
AcDbEntity
  8
圖層1輪廓線
100
AcDbLine
 10
2548.63431638582
 20
1854.829505088288
 30
0.0
 11
2550.13431638582
 21
1856.329505088288
 31
0.0
  0
LINE
  5
A77
330
1F
100
AcDbEntity
  8
圖層1輪廓線
100
AcDbLine
 10
2568.63431638582
 20
1854.829505088288
 30
0.0
 11
2567.134316385821
 21
1856.329505088288
 31
0.0
  0
LINE
  5
A78
330
1F
100
AcDbEntity
  8
圖層1輪廓線
100
AcDbLine
 10
2533.634316385821
 20
1781.329505088288
 30
0.0
 11
2583.634316385821
 21
1781.329505088288
 31
0.0
  0
LINE
  5
A79
102
{ACAD_REACTORS
330
E5A
102
}
330
1F
100
AcDbEntity
  8
圖層2中心線
 48
0.5
100
AcDbLine
 10
2558.63431638582
 20
1495.553991285102
 30
0.0
 11
2558.63431638582
 21
1928.644512829465
 31
0.0
  0
LINE
  5
A7A
330
1F
100
AcDbEntity
  8
圖層1輪廓線
100
AcDbLine
 10
2160.118939833576
 20
1871.711818390872
 30
0.0
 11
2160.118939833576
 21
1856.329505088288
 31
0.0
  0
LINE
  5
A7B
330
1F
100
AcDbEntity
  8
圖層1輪廓線
100
AcDbLine
 10
2125.118939833575
 20
1871.711818390872
 30
0.0
 11
2125.118939833575
 21
1856.329505088288
 31
0.0
  0
LINE
  5
A7C
330
1F
100
AcDbEntity
  8
圖層1輪廓線
100
AcDbLine
 10
2165.618939833576
 20
1911.329505088288
 30
0.0
 11
2165.618939833576
 21
1781.329505088288
 31
0.0
  0
LINE
  5
A7D
330
1F
100
AcDbEntity
  8
圖層1輪廓線
100
AcDbLine
 10
2119.618939833575
 20
1781.329505088288
 30
0.0
 11
2119.618939833575
 21
1911.329505088288
 31
0.0
  0
LINE
  5
A7E
330
1F
100
AcDbEntity
  8
圖層1輪廓線
100
AcDbLine
 10
2167.618939833575
 20
1911.329505088288
 30
0.0
 11
2167.618939833575
 21
1781.329505088288
 31
0.0
  0
LINE
  5
A7F
330
1F
100
AcDbEntity
  8
圖層1輪廓線
100
AcDbLine
 10
2117.618939833576
 20
1781.329505088288
 30
0.0
 11
2117.618939833576
 21
1911.329505088288
 31
0.0
  0
LINE
  5
A80
330
1F
100
AcDbEntity
  8
圖層1輪廓線
100
AcDbLine
 10
2115.978939833576
 20
1655.329505088288
 30
0.0
 11
2115.978939833576
 21
1751.329505088288
 31
0.0
  0
LINE
  5
A81
330
1F
100
AcDbEntity
  8
圖層1輪廓線
100
AcDbLine
 10
2169.258939833575
 20
1655.329505088288
 30
0.0
 11
2169.258939833575
 21
1751.329505088288
 31
0.0
  0
LINE
  5
A82
330
1F
100
AcDbEntity
  8
圖層1輪廓線
100
AcDbLine
 10
2162.078939833576
 20
1655.329505088288
 30
0.0
 11
2162.078939833576
 21
1751.329505088288
 31
0.0
  0
LINE
  5
A83
330
1F
100
AcDbEntity
  8
圖層1輪廓線
100
AcDbLine
 10
2123.158939833575
 20
1655.329505088288
 30
0.0
 11
2123.158939833575
 21
1751.329505088288
 31
0.0
  0
LINE
  5
A84
330
1F
100
AcDbEntity
  8
圖層1輪廓線
100
AcDbLine
 10
2110.118939833576
 20
1655.329505088288
 30
0.0
 11
2175.118939833575
 21
1655.329505088288
 31
0.0
  0
LINE
  5
A85
330
1F
100
AcDbEntity
  8
圖層1輪廓線
100
AcDbLine
 10
2110.618939833575
 20
1625.329505088288
 30
0.0
 11
2174.618939833576
 21
1625.329505088288
 31
0.0
  0
LINE
  5
A86
330
1F
100
AcDbEntity
  8
圖層1輪廓線
100
AcDbLine
 10
2122.5525509254
 20
1627.329505088288
 30
0.0
 11
2162.685328741752
 21
1627.329505088288
 31
0.0
  0
LINE
  5
A87
330
1F
100
AcDbEntity
  8
圖層1輪廓線
100
AcDbLine
 10
2110.118939833576
 20
1655.329505088288
 30
0.0
 11
2110.618939833575
 21
1625.329505088288
 31
0.0
  0
LINE
  5
A88
330
1F
100
AcDbEntity
  8
圖層1輪廓線
100
AcDbLine
 10
2120.118939833576
 20
1655.329505088288
 30
0.0
 11
2120.55282864532
 21
1629.296176383619
 31
0.0
  0
ARC
  5
A89
330
1F
100
AcDbEntity
  8
圖層1輪廓線
100
AcDbCircle
 10
2122.5525509254
 20
1629.329505088288
 30
0.0
 40
2.0
100
AcDbArc
 50
180.9548412538678
 51
270.0
  0
LINE
  5
A8A
330
1F
100
AcDbEntity
  8
圖層1輪廓線
100
AcDbLine
 10
2175.118939833575
 20
1655.329505088288
 30
0.0
 11
2174.618939833576
 21
1625.329505088288
 31
0.0
  0
LINE
  5
A8B
330
1F
100
AcDbEntity
  8
圖層1輪廓線
100
AcDbLine
 10
2165.118939833575
 20
1655.329505088288
 30
0.0
 11
2164.685051021831
 21
1629.296176383619
 31
0.0
  0
ARC
  5
A8C
330
1F
100
AcDbEntity
  8
圖層1輪廓線
100
AcDbCircle
 10
2162.685328741752
 20
1629.329505088288
 30
0.0
 40
2.0
100
AcDbArc
 50
270.0
 51
359.0451587461322
  0
LINE
  5
A8D
330
1F
100
AcDbEntity
  8
圖層1輪廓線
100
AcDbLine
 10
2125.118939833575
 20
1856.329505088288
 30
0.0
 11
2160.118939833576
 21
1856.329505088288
 31
0.0
  0
LINE
  5
A8E
330
1F
100
AcDbEntity
  8
圖層1輪廓線
100
AcDbLine
 10
2132.618939833576
 20
1854.829505088288
 30
0.0
 11
2152.618939833576
 21
1854.829505088288
 31
0.0
  0
LINE
  5
A8F
330
1F
100
AcDbEntity
  8
圖層1輪廓線
100
AcDbLine
 10
2124.618939833576
 20
1810.329505088288
 30
0.0
 11
2160.618939833575
 21
1810.329505088288
 31
0.0
  0
LINE
  5
A90
330
1F
100
AcDbEntity
  8
圖層1輪廓線
100
AcDbLine
 10
2142.618939833575
 20
1806.329505088288
 30
0.0
 11
2160.118939833576
 21
1806.329505088288
 31
0.0
  0
LINE
  5
A91
330
1F
100
AcDbEntity
  8
圖層1輪廓線
100
AcDbLine
 10
2117.618939833576
 20
1781.329505088288
 30
0.0
 11
2167.618939833575
 21
1781.329505088288
 31
0.0
  0
LINE
  5
A92
330
1F
100
AcDbEntity
  8
圖層1輪廓線
100
AcDbLine
 10
2160.925736293838
 20
1865.207707491757
 30
0.0
 11
2131.039808509088
 21
1826.977579999572
 31
0.0
  0
LINE
  5
A93
330
1F
100
AcDbEntity
  8
圖層1輪廓線
100
AcDbLine
 10
2157.774384399803
 20
1867.671237731061
 30
0.0
 11
2127.888456615053
 21
1829.441110238876
 31
0.0
  0
LINE
  5
A94
330
1F
100
AcDbEntity
  8
圖層1輪廓線
100
AcDbLine
 10
2110.618939833575
 20
1781.329505088288
 30
0.0
 11
2174.618939833576
 21
1781.329505088288
 31
0.0
  0
LINE
  5
A95
330
1F
100
AcDbEntity
  8
圖層1輪廓線
100
AcDbLine
 10
2110.118939833576
 20
1751.329505088288
 30
0.0
 11
2175.118939833575
 21
1751.329505088288
 31
0.0
  0
LINE
  5
A96
330
1F
100
AcDbEntity
  8
圖層1輪廓線
100
AcDbLine
 10
2150.618939833575
 20
1806.329505088288
 30
0.0
 11
2134.618939833575
 21
1806.329505088288
 31
0.0
  0
LINE
  5
A97
330
1F
100
AcDbEntity
  8
圖層1輪廓線
100
AcDbLine
 10
2124.118939833576
 20
1806.329505088288
 30
0.0
 11
2161.118939833576
 21
1806.329505088288
 31
0.0
  0
LINE
  5
A98
330
1F
100
AcDbEntity
  8
圖層1輪廓線
100
AcDbLine
 10
2123.118939833576
 20
1792.329505088288
 30
0.0
 11
2162.118939833575
 21
1792.329505088288
 31
0.0
  0
LINE
  5
A99
330
1F
100
AcDbEntity
  8
圖層1輪廓線
100
AcDbLine
 10
2162.618939833576
 20
1791.829505088288
 30
0.0
 11
2122.618939833575
 21
1791.829505088288
 31
0.0
  0
LINE
  5
A9A
330
1F
100
AcDbEntity
  8
圖層1輪廓線
100
AcDbLine
 10
2122.5525509254
 20
1779.329505088288
 30
0.0
 11
2162.685328741752
 21
1779.329505088288
 31
0.0
  0
ARC
  5
A9B
330
1F
100
AcDbEntity
  8
圖層1輪廓線
100
AcDbCircle
 10
2124.618939833576
 20
1808.329505088288
 30
0.0
 40
2.0
100
AcDbArc
 50
180.0
 51
284.4775121859295
  0
ARC
  5
A9C
330
1F
100
AcDbEntity
  8
圖層1輪廓線
100
AcDbCircle
 10
2124.118939833576
 20
1805.329505088288
 30
0.0
 40
1.0
100
AcDbArc
 50
90.0
 51
180.0
  0
LINE
  5
A9D
330
1F
100
AcDbEntity
  8
圖層1輪廓線
100
AcDbLine
 10
2110.118939833576
 20
1751.329505088288
 30
0.0
 11
2110.618939833575
 21
1781.329505088288
 31
0.0
  0
LINE
  5
A9E
330
1F
100
AcDbEntity
  8
圖層1輪廓線
100
AcDbLine
 10
2120.118939833576
 20
1751.329505088288
 30
0.0
 11
2120.55282864532
 21
1777.362833792956
 31
0.0
  0
LINE
  5
A9F
330
1F
100
AcDbEntity
  8
圖層1輪廓線
100
AcDbLine
 10
2142.618939833575
 20
1806.329505088288
 30
0.0
 11
2124.618939833576
 21
1806.329505088288
 31
0.0
  0
LINE
  5
AA0
330
1F
100
AcDbEntity
  8
圖層1輪廓線
100
AcDbLine
 10
2122.618939833575
 20
1791.829505088288
 30
0.0
 11
2122.618939833575
 21
1781.329505088288
 31
0.0
  0
ARC
  5
AA1
330
1F
100
AcDbEntity
  8
圖層1輪廓線
100
AcDbCircle
 10
2122.5525509254
 20
1777.329505088288
 30
0.0
 40
2.0
100
AcDbArc
 50
90.0
 51
179.0451587461321
  0
LINE
  5
AA2
330
1F
100
AcDbEntity
  8
圖層1輪廓線
100
AcDbLine
 10
2122.618939833575
 20
1791.829505088288
 30
0.0
 11
2123.118939833576
 21
1792.329505088288
 31
0.0
  0
LINE
  5
AA3
330
1F
100
AcDbEntity
  8
圖層1輪廓線
100
AcDbLine
 10
2123.118939833576
 20
1805.329505088288
 30
0.0
 11
2123.118939833576
 21
1792.329505088288
 31
0.0
  0
LINE
  5
AA4
330
1F
100
AcDbEntity
  8
圖層1輪廓線
100
AcDbLine
 10
2132.618939833576
 20
1810.329505088288
 30
0.0
 11
2132.618939833576
 21
1854.829505088288
 31
0.0
  0
ARC
  5
AA5
330
1F
100
AcDbEntity
  8
圖層1輪廓線
100
AcDbCircle
 10
2124.618939833576
 20
1808.329505088288
 30
0.0
 40
2.0
100
AcDbArc
 50
90.0
 51
180.0
  0
LINE
  5
AA6
330
1F
100
AcDbEntity
  8
圖層1輪廓線
100
AcDbLine
 10
2122.618939833575
 20
1808.329505088288
 30
0.0
 11
2122.618939833575
 21
1808.329505088288
 31
0.0
  0
LINE
  5
AA7
330
1F
100
AcDbEntity
  8
圖層1輪廓線
100
AcDbLine
 10
2132.618939833576
 20
1854.829505088288
 30
0.0
 11
2134.118939833575
 21
1856.329505088288
 31
0.0
  0
ARC
  5
AA8
330
1F
100
AcDbEntity
  8
圖層1輪廓線
100
AcDbCircle
 10
2160.618939833575
 20
1808.329505088288
 30
0.0
 40
2.0
100
AcDbArc
 50
255.5224878140705
 51
0.0
  0
ARC
  5
AA9
330
1F
100
AcDbEntity
  8
圖層1輪廓線
100
AcDbCircle
 10
2161.118939833576
 20
1805.329505088288
 30
0.0
 40
1.0
100
AcDbArc
 50
0.0
 51
90.0
  0
LINE
  5
AAA
330
1F
100
AcDbEntity
  8
圖層1輪廓線
100
AcDbLine
 10
2175.118939833575
 20
1751.329505088288
 30
0.0
 11
2174.618939833576
 21
1781.329505088288
 31
0.0
  0
LINE
  5
AAB
330
1F
100
AcDbEntity
  8
圖層1輪廓線
100
AcDbLine
 10
2165.118939833575
 20
1751.329505088288
 30
0.0
 11
2164.685051021831
 21
1777.362833792956
 31
0.0
  0
LINE
  5
AAC
330
1F
100
AcDbEntity
  8
圖層1輪廓線
100
AcDbLine
 10
2162.618939833576
 20
1791.829505088288
 30
0.0
 11
2162.618939833576
 21
1781.329505088288
 31
0.0
  0
ARC
  5
AAD
330
1F
100
AcDbEntity
  8
圖層1輪廓線
100
AcDbCircle
 10
2162.685328741752
 20
1777.329505088288
 30
0.0
 40
2.0
100
AcDbArc
 50
0.9548412538678467
 51
90.0
  0
LINE
  5
AAE
330
1F
100
AcDbEntity
  8
圖層1輪廓線
100
AcDbLine
 10
2162.118939833575
 20
1792.329505088288
 30
0.0
 11
2162.618939833576
 21
1791.829505088288
 31
0.0
  0
LINE
  5
AAF
330
1F
100
AcDbEntity
  8
圖層1輪廓線
100
AcDbLine
 10
2162.118939833575
 20
1805.329505088288
 30
0.0
 11
2162.118939833575
 21
1792.329505088288
 31
0.0
  0
LINE
  5
AB0
330
1F
100
AcDbEntity
  8
圖層1輪廓線
100
AcDbLine
 10
2152.618939833576
 20
1810.329505088288
 30
0.0
 11
2152.618939833576
 21
1854.829505088288
 31
0.0
  0
ARC
  5
AB1
330
1F
100
AcDbEntity
  8
圖層1輪廓線
100
AcDbCircle
 10
2160.618939833575
 20
1808.329505088288
 30
0.0
 40
2.0
100
AcDbArc
 50
0.0
 51
90.0
  0
LINE
  5
AB2
330
1F
100
AcDbEntity
  8
圖層1輪廓線
100
AcDbLine
 10
2162.618939833576
 20
1808.329505088288
 30
0.0
 11
2162.618939833576
 21
1808.329505088288
 31
0.0
  0
LINE
  5
AB3
330
1F
100
AcDbEntity
  8
圖層1輪廓線
100
AcDbLine
 10
2152.618939833576
 20
1854.829505088288
 30
0.0
 11
2151.118939833576
 21
1856.329505088288
 31
0.0
  0
ARC
  5
AB4
330
1F
100
AcDbEntity
  8
圖層1輪廓線
100
AcDbCircle
 10
2142.618939833575
 20
1884.808671754955
 30
0.0
 40
26.52083333333277
100
AcDbArc
 50
67.60624878672202
 51
112.393751213278
  0
LINE
  5
AB5
330
1F
100
AcDbEntity
  8
圖層1輪廓線
100
AcDbLine
 10
2127.463495267349
 20
1901.329505088288
 30
0.0
 11
2157.774384399804
 21
1901.329505088288
 31
0.0
  0
LINE
  5
AB6
330
1F
100
AcDbEntity
  8
圖層1輪廓線
100
AcDbLine
 10
2127.463495267348
 20
1871.329505088288
 30
0.0
 11
2157.774384399803
 21
1871.329505088288
 31
0.0
  0
ARC
  5
AB7
330
1F
100
AcDbEntity
  8
圖層1輪廓線
100
AcDbCircle
 10
2142.618939833575
 20
1897.850338421621
 30
0.0
 40
26.52083333333282
100
AcDbArc
 50
247.606248786722
 51
292.393751213278
  0
ARC
  5
AB8
330
1F
100
AcDbEntity
  8
圖層1輪廓線
100
AcDbCircle
 10
2142.618939833575
 20
1874.808671754954
 30
0.0
 40
26.52083333333345
100
AcDbArc
 50
67.60624878672202
 51
112.393751213278
  0
ARC
  5
AB9
330
1F
100
AcDbEntity
  8
圖層1輪廓線
100
AcDbCircle
 10
2142.618939833575
 20
1927.850338421625
 30
0.0
 40
26.52083333333681
100
AcDbArc
 50
247.606248786722
 51
292.393751213278
  0
ARC
  5
ABA
330
1F
100
AcDbEntity
  8
圖層1輪廓線
100
AcDbCircle
 10
2127.463495267349
 20
1908.709713421621
 30
0.0
 40
7.380208333333537
100
AcDbArc
 50
226.803039406717
 51
313.196960593283
  0
ARC
  5
ABB
330
1F
100
AcDbEntity
  8
圖層1輪廓線
100
AcDbCircle
 10
2127.463495267348
 20
1893.949296754954
 30
0.0
 40
7.38020833333338
100
AcDbArc
 50
46.80303940671699
 51
133.196960593283
  0
ARC
  5
ABC
330
1F
100
AcDbEntity
  8
圖層1輪廓線
100
AcDbCircle
 10
2127.463495267348
 20
1878.709713421621
 30
0.0
 40
7.380208333333049
100
AcDbArc
 50
226.803039406717
 51
313.196960593283
  0
LINE
  5
ABD
330
1F
100
AcDbEntity
  8
圖層1輪廓線
100
AcDbLine
 10
2122.411680411939
 20
1899.329505088288
 30
0.0
 11
2122.411680411939
 21
1873.329505088288
 31
0.0
  0
LINE
  5
ABE
330
1F
100
AcDbEntity
  8
圖層1輪廓線
100
AcDbLine
 10
2132.515310122757
 20
1899.329505088288
 30
0.0
 11
2132.515310122757
 21
1873.329505088288
 31
0.0
  0
ARC
  5
ABF
330
1F
100
AcDbEntity
  8
圖層1輪廓線
100
AcDbCircle
 10
2127.463495267349
 20
1903.949296754954
 30
0.0
 40
7.380208333333293
100
AcDbArc
 50
46.80303940671699
 51
133.196960593283
  0
LINE
  5
AC0
330
1F
100
AcDbEntity
  8
圖層1輪廓線
100
AcDbLine
 10
2122.411680411939
 20
1903.329505088288
 30
0.0
 11
2122.411680411939
 21
1909.329505088288
 31
0.0
  0
LINE
  5
AC1
330
1F
100
AcDbEntity
  8
圖層1輪廓線
100
AcDbLine
 10
2132.515310122757
 20
1903.329505088288
 30
0.0
 11
2132.515310122757
 21
1909.329505088288
 31
0.0
  0
ARC
  5
AC2
330
1F
100
AcDbEntity
  8
圖層1輪廓線
100
AcDbCircle
 10
2157.774384399804
 20
1908.70971342162
 30
0.0
 40
7.380208333332386
100
AcDbArc
 50
226.803039406708
 51
313.196960593283
  0
LINE
  5
AC3
330
1F
100
AcDbEntity
  8
圖層1輪廓線
100
AcDbLine
 10
2162.826199255213
 20
1899.329505088288
 30
0.0
 11
2162.826199255213
 21
1873.329505088288
 31
0.0
  0
LINE
  5
AC4
330
1F
100
AcDbEntity
  8
圖層1輪廓線
100
AcDbLine
 10
2152.722569544394
 20
1899.329505088288
 30
0.0
 11
2152.722569544394
 21
1873.329505088288
 31
0.0
  0
ARC
  5
AC5
330
1F
100
AcDbEntity
  8
圖層1輪廓線
100
AcDbCircle
 10
2157.774384399803
 20
1878.709713421621
 30
0.0
 40
7.380208333333293
100
AcDbArc
 50
226.803039406717
 51
313.196960593283
  0
ARC
  5
AC6
330
1F
100
AcDbEntity
  8
圖層1輪廓線
100
AcDbCircle
 10
2157.774384399803
 20
1893.949296754954
 30
0.0
 40
7.380208333333371
100
AcDbArc
 50
46.80303940671699
 51
133.196960593283
  0
ARC
  5
AC7
330
1F
100
AcDbEntity
  8
圖層1輪廓線
100
AcDbCircle
 10
2157.774384399803
 20
1903.949296754954
 30
0.0
 40
7.38020833333379
100
AcDbArc
 50
46.80303940671699
 51
133.196960593283
  0
LINE
  5
AC8
330
1F
100
AcDbEntity
  8
圖層1輪廓線
100
AcDbLine
 10
2152.722569544394
 20
1903.329505088288
 30
0.0
 11
2152.722569544394
 21
1909.329505088288
 31
0.0
  0
LINE
  5
AC9
330
1F
100
AcDbEntity
  8
圖層1輪廓線
100
AcDbLine
 10
2162.826199255213
 20
1903.329505088287
 30
0.0
 11
2162.826199255213
 21
1909.329505088288
 31
0.0
  0
LINE
  5
ACA
330
1F
100
AcDbEntity
  8
圖層1輪廓線
100
AcDbLine
 10
2117.618939833576
 20
1911.329505088288
 30
0.0
 11
2167.618939833575
 21
1911.329505088288
 31
0.0
  0
LINE
  5
ACB
330
1F
100
AcDbEntity
  8
圖層4尺寸線
100
AcDbLine
 10
2067.618939833575
 20
1346.040545720783
 30
0.0
 11
2012.618939833576
 21
1346.040545720783
 31
0.0
  0
LINE
  5
ACC
330
1F
100
AcDbEntity
  8
圖層4尺寸線
100
AcDbLine
 10
2012.618939833576
 20
1304.040545720783
 30
0.0
 11
2067.618939833575
 21
1304.040545720783
 31
0.0
  0
LINE
  5
ACD
330
1F
100
AcDbEntity
  8
圖層4尺寸線
100
AcDbLine
 10
2012.618939833576
 20
1346.040545720783
 30
0.0
 11
2012.618939833576
 21
1304.040545720783
 31
0.0
  0
LINE
  5
ACE
330
1F
100
AcDbEntity
  8
圖層4尺寸線
100
AcDbLine
 10
2051.271765586934
 20
1356.206636680491
 30
0.0
 11
2052.118939833576
 21
1346.040545720783
 31
0.0
  0
LINE
  5
ACF
330
1F
100
AcDbEntity
  8
圖層4尺寸線
100
AcDbLine
 10
2028.966114080218
 20
1356.206636680491
 30
0.0
 11
2028.118939833575
 21
1346.040545720783
 31
0.0
  0
LINE
  5
AD0
330
1F
100
AcDbEntity
  8
圖層1輪廓線
100
AcDbLine
 10
2067.618939833575
 20
1304.040545720783
 30
0.0
 11
2067.618939833575
 21
1346.040545720783
 31
0.0
  0
LINE
  5
AD1
330
1F
100
AcDbEntity
  8
圖層4尺寸線
100
AcDbLine
 10
2047.118939833576
 20
1367.040545720783
 30
0.0
 11
2033.118939833576
 21
1367.040545720783
 31
0.0
  0
LINE
  5
AD2
330
1F
100
AcDbEntity
  8
圖層4尺寸線
100
AcDbLine
 10
2049.278674070443
 20
1358.040545720783
 30
0.0
 11
2030.959205596708
 21
1358.040545720783
 31
0.0
  0
ARC
  5
AD3
330
1F
100
AcDbEntity
  8
圖層4尺寸線
100
AcDbCircle
 10
2033.118939833576
 20
1365.040545720783
 30
0.0
 40
2.0
100
AcDbArc
 50
90.0
 51
180.0
  0
LINE
  5
AD4
330
1F
100
AcDbEntity
  8
圖層4尺寸線
100
AcDbLine
 10
2031.118939833576
 20
1365.040545720783
 30
0.0
 11
2031.118939833576
 21
1358.040545720783
 31
0.0
  0
ARC
  5
AD5
330
1F
100
AcDbEntity
  8
圖層4尺寸線
100
AcDbCircle
 10
2030.959205596708
 20
1356.040545720783
 30
0.0
 40
2.0
100
AcDbArc
 50
90.0
 51
175.2363583092695
  0
LINE
  5
AD6
330
1F
100
AcDbEntity
  8
圖層4尺寸線
100
AcDbLine
 10
2049.118939833576
 20
1365.040545720783
 30
0.0
 11
2049.118939833576
 21
1358.040545720783
 31
0.0
  0
ARC
  5
AD7
330
1F
100
AcDbEntity
  8
圖層4尺寸線
100
AcDbCircle
 10
2049.278674070443
 20
1356.040545720783
 30
0.0
 40
2.0
100
AcDbArc
 50
4.763641690730505
 51
90.0
  0
ARC
  5
AD8
330
1F
100
AcDbEntity
  8
圖層4尺寸線
100
AcDbCircle
 10
2047.118939833576
 20
1365.040545720783
 30
0.0
 40
2.0
100
AcDbArc
 50
0.0
 51
90.0
  0
LINE
  5
AD9
330
1F
100
AcDbEntity
  8
圖層4尺寸線
100
AcDbLine
 10
2272.618939833575
 20
1346.040545720783
 30
0.0
 11
2217.618939833576
 21
1346.040545720783
 31
0.0
  0
LINE
  5
ADA
330
1F
100
AcDbEntity
  8
圖層4尺寸線
100
AcDbLine
 10
2217.618939833576
 20
1304.040545720783
 30
0.0
 11
2272.618939833575
 21
1304.040545720783
 31
0.0
  0
LINE
  5
ADB
330
1F
100
AcDbEntity
  8
圖層4尺寸線
100
AcDbLine
 10
2256.271765586933
 20
1356.206636680491
 30
0.0
 11
2257.118939833576
 21
1346.040545720783
 31
0.0
  0
LINE
  5
ADC
330
1F
100
AcDbEntity
  8
圖層4尺寸線
100
AcDbLine
 10
2233.966114080218
 20
1356.206636680491
 30
0.0
 11
2233.118939833576
 21
1346.040545720783
 31
0.0
  0
LINE
  5
ADD
330
1F
100
AcDbEntity
  8
圖層1輪廓線
100
AcDbLine
 10
2217.618939833576
 20
1346.040545720783
 30
0.0
 11
2217.618939833576
 21
1304.040545720783
 31
0.0
  0
ARC
  5
ADE
330
1F
100
AcDbEntity
  8
圖層4尺寸線
100
AcDbCircle
 10
2235.959205596708
 20
1356.040545720783
 30
0.0
 40
2.0
100
AcDbArc
 50
90.0
 51
175.2363583092695
  0
LINE
  5
ADF
330
1F
100
AcDbEntity
  8
圖層4尺寸線
100
AcDbLine
 10
2252.118939833576
 20
1367.040545720783
 30
0.0
 11
2238.118939833576
 21
1367.040545720783
 31
0.0
  0
LINE
  5
AE0
330
1F
100
AcDbEntity
  8
圖層4尺寸線
100
AcDbLine
 10
2254.278674070443
 20
1358.040545720783
 30
0.0
 11
2235.959205596708
 21
1358.040545720783
 31
0.0
  0
LINE
  5
AE1
330
1F
100
AcDbEntity
  8
圖層4尺寸線
100
AcDbLine
 10
2236.118939833576
 20
1365.040545720783
 30
0.0
 11
2236.118939833576
 21
1358.040545720783
 31
0.0
  0
ARC
  5
AE2
330
1F
100
AcDbEntity
  8
圖層4尺寸線
100
AcDbCircle
 10
2238.118939833576
 20
1365.040545720783
 30
0.0
 40
2.0
100
AcDbArc
 50
90.0
 51
180.0
  0
LINE
  5
AE3
330
1F
100
AcDbEntity
  8
圖層4尺寸線
100
AcDbLine
 10
2254.118939833576
 20
1365.040545720783
 30
0.0
 11
2254.118939833576
 21
1358.040545720783
 31
0.0
  0
ARC
  5
AE4
330
1F
100
AcDbEntity
  8
圖層4尺寸線
100
AcDbCircle
 10
2254.278674070443
 20
1356.040545720783
 30
0.0
 40
2.0
100
AcDbArc
 50
4.763641690730505
 51
90.0
  0
ARC
  5
AE5
330
1F
100
AcDbEntity
  8
圖層4尺寸線
100
AcDbCircle
 10
2252.118939833576
 20
1365.040545720783
 30
0.0
 40
2.0
100
AcDbArc
 50
0.0
 51
90.0
  0
LINE
  5
AE6
330
1F
100
AcDbEntity
  8
圖層4尺寸線
100
AcDbLine
 10
2272.618939833575
 20
1304.040545720783
 30
0.0
 11
2272.618939833575
 21
1346.040545720783
 31
0.0
  0
LINE
  5
AE7
330
1F
100
AcDbEntity
  8
圖層4尺寸線
100
AcDbLine
 10
2067.618939833575
 20
1342.040545720783
 30
0.0
 11
2012.618939833576
 21
1342.040545720783
 31
0.0
  0
LINE
  5
AE8
330
1F
100
AcDbEntity
  8
圖層4尺寸線
100
AcDbLine
 10
2272.618939833575
 20
1342.040545720783
 30
0.0
 11
2217.618939833576
 21
1342.040545720783
 31
0.0
  0
LINE
  5
AE9
102
{ACAD_REACTORS
330
B47
102
}
330
1F
100
AcDbEntity
  8
圖層2中心線
 48
0.2
100
AcDbLine
 10
2207.618939833576
 20
1285.164213141283
 30
0.0
 11
2207.618939833575
 21
1324.560345818362
 31
0.0
  0
LINE
  5
AEA
330
1F
100
AcDbEntity
  8
圖層1輪廓線
100
AcDbLine
 10
2550.13431638582
 20
1856.329505088288
 30
0.0
 11
2567.134316385821
 21
1856.329505088288
 31
0.0
  0
ARC
  5
AEB
330
1F
100
AcDbEntity
  8
圖層1輪廓線
100
AcDbCircle
 10
2567.945742433289
 20
1921.470130088288
 30
0.0
 40
20.1406250000002
100
AcDbArc
 50
244.2499968807766
 51
295.7500031192235
  0
ARC
  5
AEC
330
1F
100
AcDbEntity
  8
圖層1輪廓線
100
AcDbCircle
 10
2550.445742433289
 20
1921.470130088289
 30
0.0
 40
20.14062500000072
100
AcDbArc
 50
244.2499968807766
 51
295.7500031192235
  0
LINE
  5
AED
330
1F
100
AcDbEntity
  8
圖層1輪廓線
100
AcDbLine
 10
2541.13431638582
 20
1871.329505088288
 30
0.0
 11
2576.13431638582
 21
1871.329505088288
 31
0.0
  0
ARC
  5
AEE
330
1F
100
AcDbEntity
  8
圖層1輪廓線
100
AcDbCircle
 10
2549.88431638582
 20
1891.470130088287
 30
0.0
 40
20.14062499999959
100
AcDbArc
 50
244.2499968807766
 51
295.7500031192235
  0
LINE
  5
AEF
330
1F
100
AcDbEntity
  8
圖層1輪廓線
100
AcDbLine
 10
2541.13431638582
 20
1856.329505088288
 30
0.0
 11
2576.13431638582
 21
1856.329505088288
 31
0.0
  0
ARC
  5
AF0
330
1F
100
AcDbEntity
  8
圖層1輪廓線
100
AcDbCircle
 10
2549.88431638582
 20
1881.188880088286
 30
0.0
 40
20.14062500000123
100
AcDbArc
 50
64.24999688077656
 51
115.7500031192234
  0
LINE
  5
AF1
330
1F
100
AcDbEntity
  8
圖層1輪廓線
100
AcDbLine
 10
2541.13431638582
 20
1899.329505088288
 30
0.0
 11
2541.13431638582
 21
1856.329505088288
 31
0.0
  0
LINE
  5
AF2
330
1F
100
AcDbEntity
  8
圖層1輪廓線
100
AcDbLine
 10
2576.13431638582
 20
1899.329505088288
 30
0.0
 11
2576.13431638582
 21
1856.329505088288
 31
0.0
  0
LINE
  5
AF3
330
1F
100
AcDbEntity
  8
圖層1輪廓線
100
AcDbLine
 10
2550.13431638582
 20
1856.329505088288
 30
0.0
 11
2567.13431638582
 21
1856.329505088288
 31
0.0
  0
LINE
  5
AF4
330
1F
100
AcDbEntity
  8
圖層1輪廓線
100
AcDbLine
 10
2550.445742433289
 20
1901.329505088288
 30
0.0
 11
2567.945742433289
 21
1901.329505088288
 31
0.0
  0
ARC
  5
AF5
330
1F
100
AcDbEntity
  8
圖層1輪廓線
100
AcDbCircle
 10
2567.38431638582
 20
1891.154930881511
 30
0.0
 40
19.85719780607825
100
AcDbArc
 50
243.8548774948501
 51
296.14512250515
  0
ARC
  5
AF6
330
1F
100
AcDbEntity
  8
圖層1輪廓線
100
AcDbCircle
 10
2567.38431638582
 20
1881.504079295064
 30
0.0
 40
19.85719780607835
100
AcDbArc
 50
63.85487749485006
 51
116.1451225051499
  0
LINE
  5
AF7
330
1F
100
AcDbEntity
  8
圖層1輪廓線
100
AcDbLine
 10
2549.88431638582
 20
1901.329505088288
 30
0.0
 11
2568.507168480758
 21
1901.329505088288
 31
0.0
  0
LINE
  5
AF8
330
1F
100
AcDbEntity
  8
圖層1輪廓線
100
AcDbLine
 10
2558.63431638582
 20
1899.329505088288
 30
0.0
 11
2558.63431638582
 21
1873.329505088288
 31
0.0
  0
ARC
  5
AF9
330
1F
100
AcDbEntity
  8
圖層1輪廓線
100
AcDbCircle
 10
2550.445742433289
 20
1891.188880088288
 30
0.0
 40
20.1406249999998
100
AcDbArc
 50
64.24999688077656
 51
115.7500031192234
  0
LINE
  5
AFA
330
1F
100
AcDbEntity
  8
圖層1輪廓線
100
AcDbLine
 10
2541.695742433289
 20
1903.329505088288
 30
0.0
 11
2541.695742433289
 21
1909.329505088288
 31
0.0
  0
LINE
  5
AFB
330
1F
100
AcDbEntity
  8
圖層1輪廓線
100
AcDbLine
 10
2550.445742433289
 20
1911.329505088288
 30
0.0
 11
2567.945742433289
 21
1911.329505088288
 31
0.0
  0
ARC
  5
AFC
330
1F
100
AcDbEntity
  8
圖層1輪廓線
100
AcDbCircle
 10
2567.945742433289
 20
1891.188880088288
 30
0.0
 40
20.1406249999998
100
AcDbArc
 50
64.24999688077656
 51
115.7500031192234
  0
LINE
  5
AFD
330
1F
100
AcDbEntity
  8
圖層1輪廓線
100
AcDbLine
 10
2559.195742433289
 20
1909.329505088288
 30
0.0
 11
2559.195742433289
 21
1903.329505088288
 31
0.0
  0
LINE
  5
AFE
330
1F
100
AcDbEntity
  8
圖層1輪廓線
100
AcDbLine
 10
2576.695742433289
 20
1903.329505088288
 30
0.0
 11
2576.695742433289
 21
1909.329505088288
 31
0.0
  0
LINE
  5
AFF
330
1F
100
AcDbEntity
  8
圖層1輪廓線
100
AcDbLine
 10
2533.634316385821
 20
1911.329505088288
 30
0.0
 11
2583.634316385821
 21
1911.329505088288
 31
0.0
  0
DIMENSION
  5
B39
102
{ACAD_XDICTIONARY
360
B46
102
}
102
{ACAD_REACTORS
330
B47
102
}
330
1F
100
AcDbEntity
  8
AM_5
100
AcDbDimension
  2
*D3
 10
2207.618939833576
 20
1244.040545720783
 30
0.0
 11
2142.618939833575
 21
1260.040545720783
 31
0.0
 70
    32
 71
     5
 42
130.0000000000004
  3
AM_ISO$0
100
AcDbAlignedDimension
 13
2077.618939833576
 23
1285.164213141281
 33
0.0
 14
2207.618939833576
 24
1285.164213141283
 34
0.0
 50
0.0000000000001132
100
AcDbRotatedDimension
1001
ACAD
1000
DSTYLE
1002
{
1070
    40
1040
1.0
1070
   144
1040
1.0
1002
}
  0
DIMENSION
  5
B5F
330
1F
100
AcDbEntity
  8
AM_5
100
AcDbDimension
  2
*D4
 10
2217.618939833576
 20
1194.040545720783
 30
0.0
 11
2142.618939833575
 21
1210.040545720783
 31
0.0
 70
    32
 71
     5
 42
150.0
  3
AM_ISO$0
100
AcDbAlignedDimension
 13
2067.618939833575
 23
1304.040545720783
 33
0.0
 14
2217.618939833576
 24
1304.040545720783
 34
0.0
 50
0.0000000000001132
100
AcDbRotatedDimension
1001
ACAD
1000
DSTYLE
1002
{
1070
    40
1040
1.0
1070
   144
1040
1.0
1002
}
  0
DIMENSION
  5
BE0
102
{ACAD_XDICTIONARY
360
BED
102
}
102
{ACAD_REACTORS
330
BEE
102
}
330
1F
100
AcDbEntity
  8
AM_5
100
AcDbDimension
  2
*D5
 10
2558.634316385821
 20
1244.040545720784
 30
0.0
 11
2521.134316385821
 21
1260.040545720784
 31
0.0
 70
    32
 71
     5
 42
75.0
  3
AM_ISO$0
100
AcDbAlignedDimension
 13
2483.634316385821
 23
1304.040545720783
 33
0.0
 14
2558.634316385821
 24
1327.553462523839
 34
0.0
 50
0.0000000000001132
100
AcDbRotatedDimension
1001
ACAD
1000
DSTYLE
1002
{
1070
    40
1040
1.0
1070
   144
1040
1.0
1002
}
  0
DIMENSION
  5
C06
102
{ACAD_XDICTIONARY
360
C13
102
}
102
{ACAD_REACTORS
330
C14
102
}
330
1F
100
AcDbEntity
  8
AM_5
100
AcDbDimension
  2
*D6
 10
2648.634316385821
 20
1244.040545720784
 30
0.0
 11
2603.634316385821
 21
1260.040545720784
 31
0.0
 70
    32
 71
     5
 42
90.0
  3
AM_ISO$0
100
AcDbAlignedDimension
 13
2558.634316385821
 23
1293.052685913472
 33
0.0
 14
2648.634316385821
 24
1292.820440733964
 34
0.0
 50
0.0000000000001132
100
AcDbRotatedDimension
1001
ACAD
1000
DSTYLE
1002
{
1070
    40
1040
1.0
1070
   144
1040
1.0
1002
}
  0
DIMENSION
  5
C56
102
{ACAD_XDICTIONARY
360
C63
102
}
102
{ACAD_REACTORS
330
C64
102
}
330
1F
100
AcDbEntity
  8
AM_5
100
AcDbDimension
  2
*D7
 10
2743.634316385821
 20
1244.040545720784
 30
0.0
 11
2716.134316385821
 21
1260.040545720784
 31
0.0
 70
    32
 71
     5
 42
55.0
  3
AM_ISO$0
100
AcDbAlignedDimension
 13
2688.634316385821
 23
1291.820440733964
 33
0.0
 14
2743.634316385821
 24
1304.040545720783
 34
0.0
 50
0.0000000000001132
100
AcDbRotatedDimension
1001
ACAD
1000
DSTYLE
1002
{
1070
    40
1040
1.0
1070
   144
1040
1.0
1002
}
  0
DIMENSION
  5
C88
330
1F
100
AcDbEntity
  8
AM_5
100
AcDbDimension
  2
*D8
 10
2743.634316385821
 20
1194.040545720784
 30
0.0
 11
2613.634316385821
 21
1210.042514224721
 31
0.0
 70
    32
 71
     5
 42
260.0000000000004
  3
AM_ISO$0
100
AcDbAlignedDimension
 13
2483.634316385821
 23
1304.040545720783
 33
0.0
 14
2743.634316385821
 24
1304.040545720783
 34
0.0
 50
0.0000000000001132
100
AcDbRotatedDimension
1001
ACAD
1000
DSTYLE
1002
{
1070
    40
1040
1.0
1070
   144
1040
1.0
1002
}
  0
DIMENSION
  5
CAE
330
1F
100
AcDbEntity
  8
AM_5
100
AcDbDimension
  2
*D9
 10
2803.634316385821
 20
1364.040545720783
 30
0.0
 11
2787.634316385821
 21
1334.040545720784
 31
0.0
 70
    32
 71
     5
 42
60.00000000000023
  3
AM_ISO$0
100
AcDbAlignedDimension
 13
2743.634316385821
 23
1304.040545720783
 33
0.0
 14
2743.634316385821
 24
1364.040545720783
 34
0.0
 50
90.00000000000003
100
AcDbRotatedDimension
1001
ACAD
1000
DSTYLE
1002
{
1070
    40
1040
1.0
1070
   144
1040
1.0
1002
}
  0
DIMENSION
  5
CD4
330
1F
100
AcDbEntity
  8
AM_5
100
AcDbDimension
  2
*D10
 10
2423.63431638582
 20
1364.040545720783
 30
0.0
 11
2407.63431638582
 21
1334.040545720783
 31
0.0
 70
    32
 71
     5
 42
60.0
  3
AM_ISO$0
100
AcDbAlignedDimension
 13
2483.634316385821
 23
1304.040545720783
 33
0.0
 14
2488.634316385821
 24
1364.040545720783
 34
0.0
 50
90.00000000000003
100
AcDbRotatedDimension
1001
ACAD
1000
DSTYLE
1002
{
1070
    40
1040
1.0
1070
   144
1040
1.0
1002
}
  0
DIMENSION
  5
D67
330
1F
100
AcDbEntity
  8
AM_5
100
AcDbDimension
  2
*D11
 10
2423.63431638582
 20
1515.329505088287
 30
0.0
 11
2407.63431638582
 21
1439.685025404535
 31
0.0
 70
    32
  1
Max. 150
 71
     5
 42
151.2889593675045
  3
AM_ISO$0
100
AcDbAlignedDimension
 13
2488.634316385821
 23
1364.040545720783
 33
0.0
 14
2538.13431638582
 24
1515.329505088287
 34
0.0
 50
90.00000000000003
100
AcDbRotatedDimension
1001
ACAD
1000
DSTYLE
1002
{
1070
    40
1040
1.0
1070
   144
1040
1.0
1002
}
  0
DIMENSION
  5
DCC
330
1F
100
AcDbEntity
  8
AM_5
100
AcDbDimension
  2
*D12
 10
2423.63431638582
 20
1625.329505088288
 30
0.0
 11
2407.63431638582
 21
1570.329505088288
 31
0.0
 70
    32
 71
     5
 42
110.0000000000002
  3
AM_ISO$0
100
AcDbAlignedDimension
 13
2538.13431638582
 23
1515.329505088288
 33
0.0
 14
2508.634316385821
 24
1625.329505088288
 34
0.0
 50
90.0
100
AcDbRotatedDimension
1001
ACAD
1000
DSTYLE
1002
{
1070
    40
1040
1.0
1070
   144
1040
1.0
1002
}
  0
DIMENSION
  5
DF2
330
1F
100
AcDbEntity
  8
AM_5
100
AcDbDimension
  2
*D13
 10
2423.63431638582
 20
1911.329505088288
 30
0.0
 11
2407.632347881883
 21
1768.329505088288
 31
0.0
 70
    32
 71
     5
 42
286.0
  3
AM_ISO$0
100
AcDbAlignedDimension
 13
2508.634316385821
 23
1625.329505088288
 33
0.0
 14
2533.634316385821
 24
1911.329505088288
 34
0.0
 50
90.00000000000003
100
AcDbRotatedDimension
1001
ACAD
1000
DSTYLE
1002
{
1070
    40
1040
1.0
1070
   144
1040
1.0
1002
}
  0
DIMENSION
  5
E22
102
{ACAD_XDICTIONARY
360
E31
102
}
102
{ACAD_REACTORS
330
E32
102
}
330
1F
100
AcDbEntity
  8
AM_5
100
AcDbDimension
  2
*D14
 10
2688.634316385821
 20
1244.040545720784
 30
0.0
 11
2668.634316385821
 21
1260.040545720784
 31
0.0
 70
    32
 71
     5
 42
40.0
  3
AM_ISO$0
100
AcDbAlignedDimension
 13
2648.634316385821
 23
1292.820440733964
 33
0.0
 14
2688.634316385821
 24
1292.507678193797
 34
0.0
 50
0.0000000000001132
100
AcDbRotatedDimension
1001
ACAD
1000
DSTYLE
1002
{
1070
    40
1040
1.0
1070
   144
1040
1.0
1002
}
  0
DIMENSION
  5
E4C
102
{ACAD_XDICTIONARY
360
E59
102
}
102
{ACAD_REACTORS
330
E5A
102
}
330
1F
100
AcDbEntity
  8
AM_5
100
AcDbDimension
  2
*D15
 10
2663.634316385821
 20
1455.329505088288
 30
0.0
 11
2611.13431638582
 21
1471.329505088287
 31
0.0
 70
    32
 71
     5
 42
105.0000000000009
  3
AM_ISO$0
100
AcDbAlignedDimension
 13
2558.63431638582
 23
1495.553991285102
 33
0.0
 14
2663.634316385821
 24
1565.329505088288
 34
0.0
 50
0.0000000000001132
100
AcDbRotatedDimension
1001
ACAD
1000
DSTYLE
1002
{
1070
    40
1040
1.0
1070
   144
1040
1.0
1002
}
  0
DIMENSION
  5
E80
102
{ACAD_XDICTIONARY
360
E8D
102
}
102
{ACAD_REACTORS
330
E8E
102
}
330
1F
100
AcDbEntity
  8
AM_5
100
AcDbDimension
  2
*D16
 10
2803.634316385821
 20
1565.329505088288
 30
0.0
 11
2787.634316385821
 21
1595.329505088288
 31
0.0
 70
    32
 71
     5
 42
60.0
  3
AM_ISO$0
100
AcDbAlignedDimension
 13
2743.634316385821
 23
1625.329505088287
 33
0.0
 14
2743.634316385821
 24
1565.329505088288
 34
0.0
 50
90.0
100
AcDbRotatedDimension
1001
ACAD
1000
DSTYLE
1002
{
1070
    40
1040
1.0
1070
   144
1040
1.0
1002
}
  0
DIMENSION
  5
EA6
330
1F
100
AcDbEntity
  8
AM_5
100
AcDbDimension
  2
*D17
 10
2853.634316385821
 20
1654.040545720783
 30
0.0
 11
2837.634316385821
 21
1479.040545720783
 31
0.0
 70
    32
 71
     5
 42
350.0
  3
AM_ISO$0
100
AcDbAlignedDimension
 13
2743.634316385821
 23
1304.040545720783
 33
0.0
 14
2712.134316385821
 24
1654.040545720783
 34
0.0
 50
90.00000000000003
100
AcDbRotatedDimension
1001
ACAD
1000
DSTYLE
1002
{
1070
    40
1040
1.0
1070
   144
1040
1.0
1002
}
  0
ARC
  5
F6E
330
1F
100
AcDbEntity
  8
圖層1輪廓線
100
AcDbCircle
 10
2185.537389638934
 20
2248.287049886252
 30
0.0
 40
19.51041666666302
100
AcDbArc
 50
52.65349068554314
 51
127.3465093144569
  0
ARC
  5
F6F
330
1F
100
AcDbEntity
  8
圖層1輪廓線
100
AcDbCircle
 10
2185.537389638934
 20
2267.307883219582
 30
0.0
 40
19.51041666666605
100
AcDbArc
 50
232.6534906855431
 51
307.3465093144569
  0
LINE
  5
F70
330
1F
100
AcDbEntity
  8
圖層1輪廓線
100
AcDbLine
 10
2173.701709120547
 20
2251.797466552916
 30
0.0
 11
2173.701709120547
 21
2263.797466552916
 31
0.0
  0
LINE
  5
F71
330
1F
100
AcDbEntity
  8
圖層1輪廓線
100
AcDbLine
 10
2185.537389638934
 20
2247.797466552916
 30
0.0
 11
2256.551472749259
 21
2247.797466552915
 31
0.0
  0
LINE
  5
F72
330
1F
100
AcDbEntity
  8
圖層1輪廓線
100
AcDbLine
 10
2185.537389638934
 20
2267.797466552916
 30
0.0
 11
2256.551472749259
 21
2267.797466552915
 31
0.0
  0
ARC
  5
F73
330
1F
100
AcDbEntity
  8
圖層1輪廓線
100
AcDbCircle
 10
2221.044431194095
 20
2195.755799886254
 30
0.0
 40
72.04166666666245
100
AcDbArc
 50
70.81746569497115
 51
109.1825343050288
  0
ARC
  5
F74
330
1F
100
AcDbEntity
  8
圖層1輪廓線
100
AcDbCircle
 10
2221.044431194095
 20
2319.839133219585
 30
0.0
 40
72.0416666666691
100
AcDbArc
 50
250.8174656949711
 51
289.1825343050289
  0
LINE
  5
F75
330
1F
100
AcDbEntity
  8
圖層1輪廓線
100
AcDbLine
 10
2197.373070157321
 20
2251.797466552916
 30
0.0
 11
2197.373070157321
 21
2263.797466552914
 31
0.0
  0
LINE
  5
F76
330
1F
100
AcDbEntity
  8
圖層1輪廓線
100
AcDbLine
 10
2244.71579223087
 20
2251.797466552916
 30
0.0
 11
2244.71579223087
 21
2263.797466552915
 31
0.0
  0
LINE
  5
F77
330
1F
100
AcDbEntity
  8
圖層1輪廓線
100
AcDbLine
 10
2268.387153267645
 20
2251.797466552915
 30
0.0
 11
2268.387153267645
 21
2263.797466552916
 31
0.0
  0
ARC
  5
F78
330
1F
100
AcDbEntity
  8
圖層1輪廓線
100
AcDbCircle
 10
2256.551472749259
 20
2248.287049886248
 30
0.0
 40
19.51041666666705
100
AcDbArc
 50
52.65349068554314
 51
127.3465093144569
  0
ARC
  5
F79
330
1F
100
AcDbEntity
  8
圖層1輪廓線
100
AcDbCircle
 10
2256.551472749258
 20
2267.307883219582
 30
0.0
 40
19.51041666666682
100
AcDbArc
 50
232.6534906855431
 51
307.3465093144569
  0
LINE
  5
F7A
330
1F
100
AcDbEntity
  8
圖層1輪廓線
100
AcDbLine
 10
2185.537389638932
 20
2217.797466552916
 30
0.0
 11
2256.551472749257
 21
2217.797466552915
 31
0.0
  0
ARC
  5
F7B
330
1F
100
AcDbEntity
  8
圖層1輪廓線
100
AcDbCircle
 10
2221.044431194096
 20
2159.264133219579
 30
0.0
 40
58.53333333333608
100
AcDbArc
 50
66.14595163640235
 51
113.8540483635976
  0
LINE
  5
F7C
330
1F
100
AcDbEntity
  8
圖層1輪廓線
100
AcDbLine
 10
2185.537389638932
 20
2147.797466552916
 30
0.0
 11
2256.551472749257
 21
2147.797466552916
 31
0.0
  0
LINE
  5
F7D
330
1F
100
AcDbEntity
  8
圖層1輪廓線
100
AcDbLine
 10
2180.044431194095
 20
2137.797466552916
 30
0.0
 11
2262.044431194095
 21
2137.797466552916
 31
0.0
  0
ARC
  5
F7E
330
1F
100
AcDbEntity
  8
圖層1輪廓線
100
AcDbCircle
 10
2221.044431194096
 20
2205.971426751908
 30
0.0
 40
58.2048398037261
100
AcDbArc
 50
246.002887899326
 51
293.9971121006688
  0
LINE
  5
F7F
330
1F
100
AcDbEntity
  8
圖層1輪廓線
100
AcDbLine
 10
2180.044431194095
 20
2247.797466552916
 30
0.0
 11
2262.044431194095
 21
2247.797466552915
 31
0.0
  0
LINE
  5
F80
330
1F
100
AcDbEntity
  8
圖層1輪廓線
100
AcDbLine
 10
2173.701709120546
 20
2152.797466552916
 30
0.0
 11
2173.701709120546
 21
2212.797466552915
 31
0.0
  0
LINE
  5
F81
330
1F
100
AcDbEntity
  8
圖層1輪廓線
100
AcDbLine
 10
2197.37307015732
 20
2152.797466552916
 30
0.0
 11
2197.37307015732
 21
2212.797466552915
 31
0.0
  0
ARC
  5
F82
330
1F
100
AcDbEntity
  8
圖層1輪廓線
100
AcDbCircle
 10
2185.537389638932
 20
2164.305799886248
 30
0.0
 40
16.50833333333309
100
AcDbArc
 50
224.1966084731079
 51
315.8033915268921
  0
LINE
  5
F83
102
{ACAD_REACTORS
330
1019
330
104B
102
}
330
1F
100
AcDbEntity
  8
圖層1輪廓線
100
AcDbLine
 10
2180.044431194095
 20
2137.797466552916
 30
0.0
 11
2180.044431194095
 21
2148.738125783554
 31
0.0
  0
ARC
  5
F84
330
1F
100
AcDbEntity
  8
圖層1輪廓線
100
AcDbCircle
 10
2185.537389638932
 20
2201.289133219582
 30
0.0
 40
16.50833333333278
100
AcDbArc
 50
44.19660847310786
 51
135.8033915268921
  0
LINE
  5
F85
330
1F
100
AcDbEntity
  8
圖層1輪廓線
100
AcDbLine
 10
2180.044431194095
 20
2216.856807322277
 30
0.0
 11
2180.044431194095
 21
2247.797466552916
 31
0.0
  0
LINE
  5
F86
330
1F
100
AcDbEntity
  8
圖層1輪廓線
100
AcDbLine
 10
2244.71579223087
 20
2152.797466552915
 30
0.0
 11
2244.71579223087
 21
2212.797466552916
 31
0.0
  0
LINE
  5
F87
330
1F
100
AcDbEntity
  8
圖層1輪廓線
100
AcDbLine
 10
2268.387153267644
 20
2152.797466552915
 30
0.0
 11
2268.387153267644
 21
2212.797466552915
 31
0.0
  0
ARC
  5
F88
330
1F
100
AcDbEntity
  8
圖層1輪廓線
100
AcDbCircle
 10
2256.551472749257
 20
2164.305799886248
 30
0.0
 40
16.50833333333325
100
AcDbArc
 50
224.1966084731079
 51
315.8033915268921
  0
LINE
  5
F89
330
1F
100
AcDbEntity
  8
圖層1輪廓線
100
AcDbLine
 10
2262.044431194095
 20
2137.797466552915
 30
0.0
 11
2262.044431194095
 21
2148.738125783553
 31
0.0
  0
ARC
  5
F8A
330
1F
100
AcDbEntity
  8
圖層1輪廓線
100
AcDbCircle
 10
2256.551472749256
 20
2201.289133219582
 30
0.0
 40
16.50833333333326
100
AcDbArc
 50
44.19660847310786
 51
135.8033915268921
  0
LINE
  5
F8B
330
1F
100
AcDbEntity
  8
圖層1輪廓線
100
AcDbLine
 10
2262.044431194095
 20
2216.856807322277
 30
0.0
 11
2262.044431194095
 21
2247.797466552915
 31
0.0
  0
LINE
  5
F8C
330
1F
100
AcDbEntity
  8
圖層1輪廓線
100
AcDbLine
 10
2191.044431194098
 20
2280.797466552916
 30
0.0
 11
2191.044431194098
 21
2267.797466552916
 31
0.0
  0
LINE
  5
F8D
330
1F
100
AcDbEntity
  8
圖層1輪廓線
100
AcDbLine
 10
2191.044431194098
 20
2267.797466552916
 30
0.0
 11
2251.044431194098
 21
2267.797466552916
 31
0.0
  0
LINE
  5
F8E
330
1F
100
AcDbEntity
  8
圖層1輪廓線
100
AcDbLine
 10
2251.044431194098
 20
2267.797466552916
 30
0.0
 11
2251.044431194098
 21
2280.797466552916
 31
0.0
  0
LINE
  5
F8F
102
{ACAD_REACTORS
330
1019
102
}
330
1F
100
AcDbEntity
  8
圖層2中心線
 48
0.2
100
AcDbLine
 10
2154.725904592011
 20
2167.797466552916
 30
0.0
 11
2290.995844072865
 21
2167.797466552916
 31
0.0
  0
LINE
  5
F90
102
{ACAD_REACTORS
330
FBF
102
}
330
1F
100
AcDbEntity
  8
圖層3虛線
100
AcDbLine
 10
2201.044431194094
 20
2137.797466552916
 30
0.0
 11
2201.044431194094
 21
2197.797466552916
 31
0.0
  0
LINE
  5
F91
102
{ACAD_REACTORS
330
FBF
102
}
330
1F
100
AcDbEntity
  8
圖層3虛線
100
AcDbLine
 10
2241.044431194094
 20
2137.797466552916
 30
0.0
 11
2241.044431194094
 21
2197.797466552916
 31
0.0
  0
LINE
  5
F92
102
{ACAD_REACTORS
330
104B
102
}
330
1F
100
AcDbEntity
  8
圖層3虛線
100
AcDbLine
 10
2201.044431194094
 20
2197.797466552916
 30
0.0
 11
2241.044431194094
 21
2197.797466552916
 31
0.0
  0
LINE
  5
F93
330
1F
100
AcDbEntity
  8
圖層3虛線
100
AcDbLine
 10
2173.701709120546
 20
2177.797466552916
 30
0.0
 11
2201.044431194094
 21
2177.797466552916
 31
0.0
  0
LINE
  5
F94
330
1F
100
AcDbEntity
  8
圖層3虛線
100
AcDbLine
 10
2173.701709120546
 20
2157.797466552916
 30
0.0
 11
2201.044431194094
 21
2157.797466552916
 31
0.0
  0
LINE
  5
F95
330
1F
100
AcDbEntity
  8
圖層3虛線
100
AcDbLine
 10
2241.044431194094
 20
2177.797466552916
 30
0.0
 11
2268.387153267644
 21
2177.797466552916
 31
0.0
  0
LINE
  5
F96
330
1F
100
AcDbEntity
  8
圖層3虛線
100
AcDbLine
 10
2241.044431194094
 20
2157.797466552916
 30
0.0
 11
2268.387153267644
 21
2157.797466552916
 31
0.0
  0
LINE
  5
F97
330
1F
100
AcDbEntity
  8
圖層3虛線
100
AcDbLine
 10
2173.701709120546
 20
2173.797466552916
 30
0.0
 11
2201.044431194094
 21
2173.797466552916
 31
0.0
  0
LINE
  5
F98
330
1F
100
AcDbEntity
  8
圖層3虛線
100
AcDbLine
 10
2173.701709120546
 20
2161.797466552916
 30
0.0
 11
2201.044431194094
 21
2161.797466552916
 31
0.0
  0
LINE
  5
F99
330
1F
100
AcDbEntity
  8
圖層3虛線
100
AcDbLine
 10
2241.044431194094
 20
2173.797466552916
 30
0.0
 11
2268.387153267644
 21
2173.797466552916
 31
0.0
  0
LINE
  5
F9A
330
1F
100
AcDbEntity
  8
圖層3虛線
100
AcDbLine
 10
2241.044431194094
 20
2161.797466552916
 30
0.0
 11
2268.387153267644
 21
2161.797466552916
 31
0.0
  0
CIRCLE
  5
F9B
330
1F
100
AcDbEntity
  8
圖層1輪廓線
100
AcDbCircle
 10
2221.044431194094
 20
2167.797466552916
 30
0.0
 40
10.0
  0
CIRCLE
  5
F9C
330
1F
100
AcDbEntity
  8
圖層3虛線
100
AcDbCircle
 10
2221.044431194094
 20
2167.797466552916
 30
0.0
 40
6.0
  0
CIRCLE
  5
F9D
330
1F
100
AcDbEntity
  8
圖層1輪廓線
100
AcDbCircle
 10
2221.044431194094
 20
2167.797466552916
 30
0.0
 40
14.0
  0
LWPOLYLINE
  5
F9E
330
1F
100
AcDbEntity
  8
圖層1輪廓線
100
AcDbPolyline
 90
        6
 70
     1
 43
0.0
 10
2207.044431194094
 20
2159.714562784261
 10
2221.044431194094
 20
2151.631659015606
 10
2235.044431194094
 20
2159.714562784261
 10
2235.044431194094
 20
2175.880370321571
 10
2221.044431194094
 20
2183.963274090225
 10
2207.044431194094
 20
2175.880370321571
  0
CIRCLE
  5
F9F
330
1F
100
AcDbEntity
  8
0
 62
     1
100
AcDbCircle
 10
2142.618939833575
 20
1528.829505088288
 30
0.0
 40
38.12167022467994
  0
DIMENSION
  5
FAF
102
{ACAD_XDICTIONARY
360
FBE
102
}
102
{ACAD_REACTORS
330
FBF
102
}
330
1F
100
AcDbEntity
  8
AM_5
100
AcDbDimension
  2
*D18
 10
2241.044431194094
 20
2077.797466552916
 30
0.0
 11
2308.052305209843
 21
2077.797466552916
 31
0.0
 70
   160
  1
%%c<>
 71
     5
 42
20.0
  3
AM_ISO$0
100
AcDbAlignedDimension
 13
2201.044431194094
 23
2137.797466552916
 33
0.0
 14
2241.044431194094
 24
2137.797466552916
 34
0.0
100
AcDbRotatedDimension
1001
ACAD
1000
DSTYLE
1002
{
1070
    40
1040
1.0
1070
   144
1040
0.5
1002
}
  0
DIMENSION
  5
1009
102
{ACAD_XDICTIONARY
360
1018
102
}
102
{ACAD_REACTORS
330
1019
102
}
330
1F
100
AcDbEntity
  8
AM_5
100
AcDbDimension
  2
*D19
 10
2113.701709120546
 20
2167.797466552916
 30
0.0
 11
2113.701709120546
 21
2082.383252990544
 31
0.0
 70
   160
 71
     5
 42
15.0
  3
AM_ISO$0
100
AcDbAlignedDimension
 13
2180.044431194095
 23
2137.797466552916
 33
0.0
 14
2154.725904592011
 24
2167.797466552916
 34
0.0
 50
90.0
100
AcDbRotatedDimension
1001
ACAD
1000
DSTYLE
1002
{
1070
   144
1040
0.5
1002
}
  0
DIMENSION
  5
103D
102
{ACAD_XDICTIONARY
360
104A
102
}
102
{ACAD_REACTORS
330
104B
102
}
330
1F
100
AcDbEntity
  8
AM_5
100
AcDbDimension
  2
*D20
 10
2063.701709120546
 20
2197.797466552916
 30
0.0
 11
2047.701709120545
 21
2167.797466552916
 31
0.0
 70
    32
 71
     5
 42
30.0
  3
AM_ISO$0
100
AcDbAlignedDimension
 13
2180.044431194095
 23
2137.797466552916
 33
0.0
 14
2201.044431194094
 24
2197.797466552916
 34
0.0
 50
90.0
100
AcDbRotatedDimension
1001
ACAD
1000
DSTYLE
1002
{
1070
   144
1040
0.5
1002
}
  0
INSERT
  5
1063
330
1F
100
AcDbEntity
  8
AM_5
100
AcDbBlockReference
  2
*S30
 10
0.0
 20
0.0
 30
0.0
  0
TEXT
  5
1065
330
1F
100
AcDbEntity
  8
AM_5
100
AcDbText
 10
2309.455625477358
 20
2208.689210236116
 30
0.0
 40
20.0
  1
3-M10
100
AcDbText
  0
TEXT
  5
1091
330
1F
100
AcDbEntity
  8
AM_5
 62
     0
100
AcDbText
 10
2086.166129887671
 20
1487.046880130183
 30
0.0
 40
20.0
  1
A
100
AcDbText
  0
TEXT
  5
109D
330
1F
100
AcDbEntity
  8
AM_5
 62
     0
100
AcDbText
 10
2176.845225751113
 20
2004.746998923152
 30
0.0
 40
30.0
  1
A 詳細
100
AcDbText
  0
LINE
  5
1499
330
1F
100
AcDbEntity
  8
圖層1輪廓線
  6
Continuous
 62
     7
370
    50
100
AcDbLine
 10
2524.431270342043
 20
2164.848595018393
 30
0.0
 11
2532.431270342043
 21
2164.848595018393
 31
0.0
  0
LINE
  5
149A
330
1F
100
AcDbEntity
  8
圖層1輪廓線
  6
Continuous
 62
     7
370
    50
100
AcDbLine
 10
2564.431270342043
 20
2148.848595018393
 30
0.0
 11
2524.431270342043
 21
2148.848595018393
 31
0.0
  0
LINE
  5
149B
102
{ACAD_REACTORS
330
14CD
330
154B
102
}
330
1F
100
AcDbEntity
  8
圖層1輪廓線
  6
Continuous
 62
     7
370
    50
100
AcDbLine
 10
2524.431270342043
 20
2148.848595018393
 30
0.0
 11
2524.431270342043
 21
2164.848595018393
 31
0.0
  0
LINE
  5
149C
330
1F
100
AcDbEntity
  8
圖層1輪廓線
  6
Continuous
 62
     7
370
    50
100
AcDbLine
 10
2532.431270342043
 20
2164.848595018393
 30
0.0
 11
2532.431270342043
 21
2180.848595018393
 31
0.0
  0
LINE
  5
149D
102
{ACAD_REACTORS
330
14CD
102
}
330
1F
100
AcDbEntity
  8
圖層1輪廓線
  6
Continuous
 62
     7
370
    50
100
AcDbLine
 10
2564.431270342043
 20
2164.848595018393
 30
0.0
 11
2564.431270342043
 21
2148.848595018393
 31
0.0
  0
LINE
  5
149E
102
{ACAD_REACTORS
330
1521
102
}
330
1F
100
AcDbEntity
  8
圖層1輪廓線
  6
Continuous
 62
     7
370
    50
100
AcDbLine
 10
2556.431270342043
 20
2164.848595018393
 30
0.0
 11
2564.431270342043
 21
2164.848595018393
 31
0.0
  0
LINE
  5
149F
330
1F
100
AcDbEntity
  8
圖層1輪廓線
  6
Continuous
 62
     7
370
    50
100
AcDbLine
 10
2556.431270342043
 20
2180.848595018393
 30
0.0
 11
2556.431270342043
 21
2164.848595018393
 31
0.0
  0
LINE
  5
14A2
102
{ACAD_REACTORS
330
14F7
102
}
330
1F
100
AcDbEntity
  8
0
100
AcDbLine
 10
2532.431270342043
 20
2180.848595018393
 30
0.0
 11
2505.186072787614
 21
2180.848595018393
 31
0.0
  0
LINE
  5
14A3
102
{ACAD_REACTORS
330
14F7
330
1521
102
}
330
1F
100
AcDbEntity
  8
0
100
AcDbLine
 10
2556.431270342043
 20
2180.848595018393
 30
0.0
 11
2583.676467896472
 21
2180.848595018393
 31
0.0
  0
DIMENSION
  5
14BD
102
{ACAD_XDICTIONARY
360
14CC
102
}
102
{ACAD_REACTORS
330
14CD
102
}
330
1F
100
AcDbEntity
  8
AM_5
100
AcDbDimension
  2
*D21
 10
2564.431270342043
 20
2088.848594018394
 30
0.0
 11
2544.431270342043
 21
2104.850562522331
 31
0.0
 70
    32
 71
     5
 42
20.0
  3
AM_ISO$0
100
AcDbAlignedDimension
 13
2524.431270342043
 23
2148.848595018393
 33
0.0
 14
2564.431270342043
 24
2148.848595018393
 34
0.0
100
AcDbRotatedDimension
1001
ACAD
1000
DSTYLE
1002
{
1070
   144
1040
0.5
1002
}
  0
DIMENSION
  5
14E7
102
{ACAD_XDICTIONARY
360
14F6
102
}
102
{ACAD_REACTORS
330
14F7
102
}
330
1F
100
AcDbEntity
  8
AM_5
100
AcDbDimension
  2
*D22
 10
2556.431270342043
 20
2240.848596018393
 30
0.0
 11
2544.431270342043
 21
2240.848596018393
 31
0.0
 70
   160
 71
     5
 42
12.0
  3
AM_ISO$0
100
AcDbAlignedDimension
 13
2532.431270342043
 23
2180.848595018393
 33
0.0
 14
2556.431270342043
 24
2180.848595018393
 34
0.0
100
AcDbRotatedDimension
1001
ACAD
1000
DSTYLE
1002
{
1070
   144
1040
0.5
1002
}
  0
DIMENSION
  5
1511
102
{ACAD_XDICTIONARY
360
1520
102
}
102
{ACAD_REACTORS
330
1521
102
}
330
1F
100
AcDbEntity
  8
AM_5
100
AcDbDimension
  2
*D23
 10
2643.676467896473
 20
2164.848595018393
 30
0.0
 11
2643.676467896472
 21
2172.848595018393
 31
0.0
 70
   160
 71
     5
 42
8.0
  3
AM_ISO$0
100
AcDbAlignedDimension
 13
2583.676467896472
 23
2180.848595018393
 33
0.0
 14
2564.431270342043
 24
2164.848595018393
 34
0.0
 50
90.0
100
AcDbRotatedDimension
1001
ACAD
1000
DSTYLE
1002
{
1070
   144
1040
0.5
1002
}
  0
DIMENSION
  5
153B
102
{ACAD_XDICTIONARY
360
154A
102
}
102
{ACAD_REACTORS
330
154B
102
}
330
1F
100
AcDbEntity
  8
AM_5
100
AcDbDimension
  2
*D24
 10
2464.431270342043
 20
2148.848595018393
 30
0.0
 11
2464.431270342043
 21
2156.848595018394
 31
0.0
 70
   160
 71
     5
 42
8.0
  3
AM_ISO$0
100
AcDbAlignedDimension
 13
2524.431270342043
 23
2164.848595018393
 33
0.0
 14
2524.431270342043
 24
2148.848595018393
 34
0.0
 50
90.0
100
AcDbRotatedDimension
1001
ACAD
1000
DSTYLE
1002
{
1070
   144
1040
0.5
1002
}
  0
CIRCLE
  5
15E9
330
1F
100
AcDbEntity
  8
0
 62
     1
100
AcDbCircle
 10
2558.22077374197
 20
1355.374623557614
 30
0.0
 40
22.13326886624224
  0
TEXT
  5
15EA
330
1F
100
AcDbEntity
  8
AM_5
 62
     0
100
AcDbText
 10
2511.695954942578
 20
1374.23994296232
 30
0.0
 40
20.0
  1
B
100
AcDbText
  0
TEXT
  5
15EC
330
1F
100
AcDbEntity
  8
AM_5
 62
     0
100
AcDbText
 10
2492.400124030611
 20
2004.746998923152
 30
0.0
 40
30.0
  1
B 詳細
100
AcDbText
  0
LINE
  5
15FA
330
1F
100
AcDbEntity
  8
AM_7
100
AcDbLine
 10
2544.431270342043
 20
2138.256794402093
 30
0.0
 11
2544.431270342043
 21
2188.793782699764
 31
0.0
1001
GENIUS_GENOBJ-N-CEN_13
1002
{
1000
OWNER
1000
GEN
1002
}
1001
GENIUS_GENODEF_13
1002
{
1000
HIER
1070
     0
1002
}
1002
{
1000
MANEDIT
1070
     0
1002
}
1002
{
1000
NOSEL
1070
     0
1002
}
1002
{
1000
BEHIND
1070
     0
1002
}
1002
{
1000
OTHER
1070
     0
1002
}
1002
{
1000
REACTOR
1002
}
1001
GENIUS_GENCEN_19
1002
{
1040
2.0
1002
}
  0
DIMENSION
  5
17CB
330
1F
100
AcDbEntity
  8
AM_5
100
AcDbDimension
  2
*D25
 10
2373.63431638582
 20
1911.329505088288
 30
0.0
 11
2357.63431638582
 21
1607.685025404536
 31
0.0
 70
    32
  1
Max. 630
 71
     5
 42
607.2889593675049
  3
AM_ISO$0
100
AcDbAlignedDimension
 13
2483.634316385821
 23
1304.040545720783
 33
0.0
 14
2533.634316385821
 24
1911.329505088288
 34
0.0
 50
90.00000000000003
100
AcDbRotatedDimension
1001
ACAD
1000
DSTYLE
1002
{
1070
    40
1040
1.0
1070
   144
1040
1.0
1002
}
  0
DIMENSION
  5
18B9
330
1F
100
AcDbEntity
  8
AM_5
100
AcDbDimension
  2
*D26
 10
2713.63431638582
 20
1455.329505088287
 30
0.0
 11
2779.642190401568
 21
1455.329505088287
 31
0.0
 70
   160
  1
%%c<>
 71
     5
 42
50.0
  3
AM_ISO$0
100
AcDbAlignedDimension
 13
2663.63431638582
 23
1565.329505088288
 33
0.0
 14
2713.63431638582
 24
1565.329505088288
 34
0.0
 50
359.9999999999996
100
AcDbRotatedDimension
1001
ACAD
1000
DSTYLE
1002
{
1070
    40
1040
1.0
1070
   144
1040
1.0
1002
}
  0
LINE
  5
1974
330
1F
100
AcDbEntity
  8
圖層2中心線
 48
0.2
100
AcDbLine
 10
2221.044431194095
 20
2135.797466552916
 30
0.0
 11
2221.044431194097
 21
2289.296765278748
 31
0.0
1001
GENIUS_GENOBJ-N-CEN_13
1002
{
1000
OWNER
1000
GEN
1002
}
1001
GENIUS_GENODEF_13
1002
{
1000
HIER
1070
     0
1002
}
1002
{
1000
MANEDIT
1070
     0
1002
}
1002
{
1000
NOSEL
1070
     0
1002
}
1002
{
1000
BEHIND
1070
     0
1002
}
1002
{
1000
OTHER
1070
     0
1002
}
1002
{
1000
REACTOR
1002
}
1001
GENIUS_GENCEN_19
1002
{
1040
2.0
1002
}
  0
DIMENSION
  5
2CFC
330
1F
100
AcDbEntity
  8
AM_5
100
AcDbDimension
  2
*D27
 10
2192.618939833575
 20
1605.329505088288
 30
0.0
 11
2050.611065817828
 21
1605.329505088288
 31
0.0
 70
   160
 71
     5
 42
100.0
  3
AM_ISO$0
100
AcDbAlignedDimension
 13
2092.618939833576
 23
1565.329505088288
 33
0.0
 14
2192.618939833575
 24
1565.329505088288
 34
0.0
 50
0.0000000000001132
100
AcDbRotatedDimension
1001
ACAD
1000
DSTYLE
1002
{
1070
    40
1040
1.0
1070
   144
1040
1.0
1002
}
  0
INSERT
  5
2F72
330
1F
100
AcDbEntity
  8
AM_5
100
AcDbBlockReference
  2
*S31
 10
0.0
 20
0.0
 30
0.0
  0
TEXT
  5
2F73
330
1F
100
AcDbEntity
  8
AM_5
100
AcDbText
 10
2261.44229553149
 20
1249.608580804721
 30
0.0
 40
20.0
  1
2-%%C10
100
AcDbText
  0
DIMENSION
  5
2FD3
330
1F
100
AcDbEntity
  8
AM_5
100
AcDbDimension
  2
*D28
 10
2633.634316385821
 20
1406.911965043284
 30
0.0
 11
2558.634316385821
 21
1422.911965043284
 31
0.0
 70
    32
 71
     5
 42
150.0
  3
AM_ISO$0
100
AcDbAlignedDimension
 13
2483.634316385821
 23
1359.040545720783
 33
0.0
 14
2633.634316385821
 24
1359.040545720783
 34
0.0
100
AcDbRotatedDimension
1001
ACAD
1000
DSTYLE
1002
{
1070
    40
1040
1.0
1070
   144
1040
1.0
1002
}
  0
TEXT
  5
76A4
330
1F
100
AcDbEntity
  8
LOGO
 62
     7
100
AcDbText
 10
2253.266749912494
 20
1050.391618767362
 30
0.0
 40
20.99215997104072
  1
Order example:
 41
0.8
  7
CHINESET
100
AcDbText
  0
TEXT
  5
76A5
330
1F
100
AcDbEntity
  8
LOGO
 62
     7
100
AcDbText
 10
2257.032917009399
 20
1079.944233524405
 30
0.0
 40
31.48823995656109
  1
訂購代號:
  7
CHINESET
100
AcDbText
  0
LINE
  5
76A6
330
1F
100
AcDbEntity
  8
LOGO
 62
     1
100
AcDbLine
 10
2984.815033227802
 20
1119.363929301266
 30
0.0
 11
1897.774945681594
 21
1119.363929301266
 31
0.0
  0
LINE
  5
76A7
330
1F
100
AcDbEntity
  8
LOGO
 62
     1
100
AcDbLine
 10
2244.145585203774
 20
961.9227295184609
 30
0.0
 11
2244.145585203774
 21
1119.363929301266
 31
0.0
  0
TEXT
  5
76A8
330
1F
100
AcDbEntity
  8
LOGO
  6
Continuous
 62
     5
100
AcDbText
 10
1954.328532355471
 20
992.8518156163054
 30
0.0
 40
23.61617996742082
  1
金器工業股份有限公司
  7
CHINESET
100
AcDbText
  0
TEXT
  5
76A9
330
1F
100
AcDbEntity
  8
LOGO
  6
Continuous
 62
     5
100
AcDbText
 10
1910.950281986105
 20
969.2310087291915
 30
0.0
 40
15.74411997828054
  1
MINDMAN INDUSTRIAL CO., LTD.
 41
0.85
  7
CHINESET
100
AcDbText
  0
LINE
  5
76AA
330
1F
100
AcDbEntity
  8
LOGO
 62
     1
100
AcDbLine
 10
2244.145585203774
 20
1087.875689344706
 30
0.0
 11
2013.23182552232
 21
1087.875689344706
 31
0.0
  0
LINE
  5
76AB
330
1F
100
AcDbEntity
  8
LOGO
 62
     1
100
AcDbLine
 10
2244.145585203774
 20
1056.387449388144
 30
0.0
 11
2013.23182552232
 21
1056.387449388144
 31
0.0
  0
LINE
  5
76AC
330
1F
100
AcDbEntity
  8
LOGO
 62
     1
100
AcDbLine
 10
2244.145585203774
 20
1024.899209431583
 30
0.0
 11
1897.774945681594
 21
1024.899209431583
 31
0.0
  0
LINE
  5
76AD
330
1F
100
AcDbEntity
  8
LOGO
 62
     1
100
AcDbLine
 10
2013.23182552232
 20
1024.899209431583
 30
0.0
 11
2013.23182552232
 21
1119.363929301266
 31
0.0
  0
TEXT
  5
76AE
330
1F
100
AcDbEntity
  8
LOGO
 62
     6
100
AcDbText
 10
2162.803561312534
 20
1032.771269420723
 30
0.0
 40
15.74411997828054
  1
m/m
  7
CHINESET
 72
     1
 11
2190.543201274267
 21
1040.643329409863
 31
0.0
100
AcDbText
 73
     2
  0
TEXT
  5
76AF
330
1F
100
AcDbEntity
  8
LOGO
 62
     6
100
AcDbText
 10
2162.803561312534
 20
1095.747749333846
 30
0.0
 40
15.74411997828054
  1
1 : 1
  7
CHINESET
 72
     1
 11
2190.543201274267
 21
1103.619809322986
 31
0.0
100
AcDbText
 73
     2
  0
LINE
  5
76B0
330
1F
100
AcDbEntity
  8
LOGO
 62
     1
100
AcDbLine
 10
2139.18478534856
 20
1024.899209431583
 30
0.0
 11
2139.18478534856
 21
1119.363929301266
 31
0.0
  0
CIRCLE
  5
76B1
330
1F
100
AcDbEntity
  8
LOGO
  6
Continuous
 62
     6
100
AcDbCircle
 10
2168.336992731755
 20
1072.16524615427
 30
0.0
 40
9.141406634200397
  0
CIRCLE
  5
76B2
330
1F
100
AcDbEntity
  8
LOGO
  6
Continuous
 62
     6
100
AcDbCircle
 10
2168.336992731755
 20
1072.16524615427
 30
0.0
 40
5.356055044697979
  0
LINE
  5
76B3
330
1F
100
AcDbEntity
  8
LOGO
 62
     6
100
AcDbLine
 10
2225.782652745037
 20
1063.023839520069
 30
0.0
 11
2225.782652745037
 21
1081.306652788471
 31
0.0
  0
LINE
  5
76B4
330
1F
100
AcDbEntity
  8
LOGO
 62
     6
100
AcDbLine
 10
2197.124867688595
 20
1066.809191109572
 30
0.0
 11
2197.124867688595
 21
1077.52130119897
 31
0.0
  0
LINE
  5
76B5
330
1F
100
AcDbEntity
  8
LOGO
  6
Continuous
 62
     6
100
AcDbLine
 10
2197.124867688595
 20
1077.52130119897
 30
0.0
 11
2225.782652745037
 21
1081.306652788471
 31
0.0
  0
LINE
  5
76B6
330
1F
100
AcDbEntity
  8
LOGO
  6
Continuous
 62
     6
100
AcDbLine
 10
2197.124867688595
 20
1066.809191109572
 30
0.0
 11
2225.782652745037
 21
1063.023839520069
 31
0.0
  0
LINE
  5
76B7
330
1F
100
AcDbEntity
  8
LOGO
 62
     6
100
AcDbLine
 10
2867.632240484489
 20
1103.619809322986
 30
0.0
 11
2783.372838102662
 21
1103.619809322986
 31
0.0
  0
LINE
  5
76B8
330
1F
100
AcDbEntity
  8
LOGO
 62
     6
100
AcDbLine
 10
2874.607748158778
 20
1032.771269420724
 30
0.0
 11
2776.397330428374
 21
1032.771269420724
 31
0.0
  0
LINE
  5
76B9
330
1F
100
AcDbEntity
  8
LOGO
 62
     6
100
AcDbLine
 10
2867.632240484489
 20
1056.387449388144
 30
0.0
 11
2783.372838102662
 21
1056.387449388144
 31
0.0
  0
LINE
  5
76BA
330
1F
100
AcDbEntity
  8
LOGO
 62
     6
100
AcDbLine
 10
2874.607748158778
 20
975.0428295003619
 30
0.0
 11
2776.397330428374
 21
975.0428295003612
 31
0.0
  0
LINE
  5
76BB
330
1F
100
AcDbEntity
  8
LOGO
 62
     6
100
AcDbLine
 10
2776.397330428374
 20
1032.771269420724
 30
0.0
 11
2776.397330428374
 21
975.0428295003619
 31
0.0
  0
LINE
  5
76BC
330
1F
100
AcDbEntity
  8
LOGO
 62
     6
100
AcDbLine
 10
2729.410291666478
 20
1032.771269420724
 30
0.0
 11
2729.410291666478
 21
975.0428295003612
 31
0.0
  0
LINE
  5
76BD
330
1F
100
AcDbEntity
  8
LOGO
 62
     6
100
AcDbLine
 10
2650.35438276006
 20
1032.771269420724
 30
0.0
 11
2650.35438276006
 21
975.0428295003612
 31
0.0
  0
LINE
  5
76BE
330
1F
100
AcDbEntity
  8
LOGO
 62
     6
100
AcDbLine
 10
2566.381898846429
 20
1032.771269420724
 30
0.0
 11
2566.381898846429
 21
975.0428295003612
 31
0.0
  0
LINE
  5
76BF
330
1F
100
AcDbEntity
  8
LOGO
 62
     6
100
AcDbLine
 10
2461.421098991227
 20
1032.771269420724
 30
0.0
 11
2461.421098991227
 21
975.0428295003612
 31
0.0
  0
LINE
  5
76C0
330
1F
100
AcDbEntity
  8
LOGO
 62
     6
100
AcDbLine
 10
2566.381898846429
 20
975.0428295003612
 30
0.0
 11
2461.421098991227
 21
975.0428295003612
 31
0.0
  0
LINE
  5
76C1
330
1F
100
AcDbEntity
  8
LOGO
 62
     6
100
AcDbLine
 10
2729.410291666478
 20
975.0428295003612
 30
0.0
 11
2650.35438276006
 21
975.0428295003612
 31
0.0
  0
LINE
  5
76C2
330
1F
100
AcDbEntity
  8
LOGO
  6
Continuous
 62
     7
100
AcDbLine
 10
2602.115457283567
 20
1079.836324872198
 30
0.0
 11
2622.971543998559
 21
1079.836324872198
 31
0.0
  0
LINE
  5
76C3
330
1F
100
AcDbEntity
  8
LOGO
 62
     6
100
AcDbLine
 10
2591.714636880505
 20
1103.619809322986
 30
0.0
 11
2460.698967909851
 21
1103.619809322986
 31
0.0
  0
LINE
  5
76C4
330
1F
100
AcDbEntity
  8
LOGO
 62
     6
100
AcDbLine
 10
2591.714636880505
 20
1056.387449388144
 30
0.0
 11
2460.698967909851
 21
1056.387449388144
 31
0.0
  0
LINE
  5
76C5
330
1F
100
AcDbEntity
  8
LOGO
 62
     6
100
AcDbLine
 10
2460.698967909851
 20
1103.619809322986
 30
0.0
 11
2460.698967909851
 21
1056.387449388144
 31
0.0
  0
LINE
  5
76C6
330
1F
100
AcDbEntity
  8
LOGO
 62
     6
100
AcDbLine
 10
2591.714636880505
 20
1103.619809322986
 30
0.0
 11
2591.714636880505
 21
1056.387449388144
 31
0.0
  0
LINE
  5
76C7
330
1F
100
AcDbEntity
  8
LOGO
 62
     6
100
AcDbLine
 10
2526.20680239518
 20
1056.387449388144
 30
0.0
 11
2526.20680239518
 21
1032.771269420724
 31
0.0
  0
TEXT
  5
76C8
330
1F
100
AcDbEntity
  8
LOGO
  6
Continuous
 62
     7
100
AcDbText
 10
2470.94751751167
 20
1066.883529373664
 30
0.0
 40
26.2401999638009
  1
MF100
  7
CHINESET
 72
     1
 11
2528.42605076571
 21
1080.003629355564
 31
0.0
100
AcDbText
 73
     2
  0
LINE
  5
76C9
330
1F
100
AcDbEntity
  8
LOGO
 62
     6
100
AcDbLine
 10
2566.381898846429
 20
1032.771269420724
 30
0.0
 11
2461.421098991227
 21
1032.771269420724
 31
0.0
  0
LINE
  5
76CA
330
1F
100
AcDbEntity
  8
LOGO
 62
     6
100
AcDbLine
 10
2747.04498994861
 20
1103.619809322986
 30
0.0
 11
2632.719684477929
 21
1103.619809322986
 31
0.0
  0
LINE
  5
76CB
330
1F
100
AcDbEntity
  8
LOGO
 62
     6
100
AcDbLine
 10
2729.410291666478
 20
1032.771269420724
 30
0.0
 11
2650.35438276006
 21
1032.771269420724
 31
0.0
  0
LINE
  5
76CC
330
1F
100
AcDbEntity
  8
LOGO
 62
     6
100
AcDbLine
 10
2747.04498994861
 20
1056.387449388144
 30
0.0
 11
2632.719684477929
 21
1056.387449388144
 31
0.0
  0
TEXT
  5
76CD
330
1F
100
AcDbEntity
  8
LOGO
  6
Continuous
 62
     7
100
AcDbText
 10
2665.790979933018
 20
1066.585963852607
 30
0.0
 40
26.2401999638009
  1
60
  7
CHINESET
 72
     1
 11
2687.03304657038
 21
1079.706063834508
 31
0.0
100
AcDbText
 73
     2
  0
LINE
  5
76CE
330
1F
100
AcDbEntity
  8
LOGO
 62
     6
100
AcDbLine
 10
2632.719684477929
 20
1103.619809322986
 30
0.0
 11
2632.719684477929
 21
1056.387449388144
 31
0.0
  0
TEXT
  5
76CF
330
1F
100
AcDbEntity
  8
LOGO
  6
Continuous
 62
     7
100
AcDbText
 10
2821.079191975577
 20
1066.585963852607
 30
0.0
 40
26.2401999638009
  1
?
  7
CHINESET
 72
     1
 11
2827.951625299429
 21
1079.706063834508
 31
0.0
100
AcDbText
 73
     2
  0
LINE
  5
76D0
330
1F
100
AcDbEntity
  8
LOGO
  6
Continuous
 62
     7
100
AcDbLine
 10
2754.348644216555
 20
1079.836324872198
 30
0.0
 11
2775.204730931561
 21
1079.836324872198
 31
0.0
  0
LINE
  5
76D1
330
1F
100
AcDbEntity
  8
LOGO
 62
     6
100
AcDbLine
 10
2783.372838102662
 20
1103.619809322986
 30
0.0
 11
2783.372838102662
 21
1056.387449388144
 31
0.0
  0
LINE
  5
76D2
330
1F
100
AcDbEntity
  8
LOGO
 62
     6
100
AcDbLine
 10
2747.04498994861
 20
1103.619809322986
 30
0.0
 11
2747.04498994861
 21
1056.387449388144
 31
0.0
  0
LINE
  5
76D3
330
1F
100
AcDbEntity
  8
LOGO
 62
     6
100
AcDbLine
 10
2874.607748158778
 20
1032.771269420724
 30
0.0
 11
2874.607748158778
 21
975.0428295003619
 31
0.0
  0
LINE
  5
76D4
330
1F
100
AcDbEntity
  8
LOGO
 62
     6
100
AcDbLine
 10
2867.632240484489
 20
1103.619809322986
 30
0.0
 11
2867.632240484489
 21
1056.387449388144
 31
0.0
  0
TEXT
  5
76D5
330
1F
100
AcDbEntity
  8
LOGO
 62
     6
100
AcDbText
 10
2026.213695879416
 20
1095.755497424387
 30
1031.843686454024
 40
15.74411997828054
  1
比例 Scale:
 41
0.9
  7
CHINESET
 72
     4
 11
2076.208305435447
 21
1103.619809322986
 31
1031.843686454024
100
AcDbText
  0
TEXT
  5
76D6
330
1F
100
AcDbEntity
  8
LOGO
 62
     6
100
AcDbText
 10
2031.717109246824
 20
1064.480975631899
 30
1031.843686454024
 40
15.74411997828054
  1
投影 View:
 41
0.9
  7
CHINESET
 72
     4
 11
2076.208305435447
 21
1072.131569366423
 31
1031.843686454024
100
AcDbText
  0
TEXT
  5
76D7
330
1F
100
AcDbEntity
  8
LOGO
 62
     6
100
AcDbText
 10
2033.256378119701
 20
1032.771269420723
 30
1031.843686454024
 40
15.74411997828054
  1
單位 Unit:
 41
0.9
  7
CHINESET
 72
     4
 11
2076.208305435447
 21
1040.643329409863
 31
1031.843686454024
100
AcDbText
  0
TEXT
  5
76D8
330
1F
100
AcDbEntity
  8
LOGO
  6
Continuous
 62
     6
100
AcDbText
 10
2488.910832286637
 20
981.602879491311
 30
1031.843686454024
 40
13.12009998190045
  1
Model
  7
CHINESET
 72
     4
 11
2513.901498918829
 21
988.1629294822612
 31
1031.843686454024
100
AcDbText
  0
TEXT
  5
76D9
330
1F
100
AcDbEntity
  8
LOGO
  6
Continuous
 62
     6
100
AcDbText
 10
2658.115092720775
 20
983.7895628216275
 30
1031.843686454024
 40
13.12009998190045
  1
output
  7
CHINESET
 72
     4
 11
2688.728659345209
 21
988.162929482261
 31
1031.843686454024
100
AcDbText
  0
TEXT
  5
76DA
330
1F
100
AcDbEntity
  8
LOGO
  6
Continuous
 62
     6
100
AcDbText
 10
2804.723159128132
 20
983.7895628216278
 30
1031.843686454024
 40
13.12009998190045
  1
Option
 41
0.8
  7
CHINESET
 72
     4
 11
2827.96447909607
 21
988.1629294822612
 31
1031.843686454024
100
AcDbText
  0
TEXT
  5
76DB
330
1F
100
AcDbEntity
  8
LOGO
 62
     6
100
AcDbText
 10
2492.472002281724
 20
1004.175649932612
 30
1031.843686454024
 40
20.99215997104072
  1
型號
  7
CHINESET
 72
     4
 11
2513.901498918829
 21
1014.403129446062
 31
1031.843686454024
100
AcDbText
  0
TEXT
  5
76DC
330
1F
100
AcDbEntity
  8
LOGO
 62
     6
100
AcDbText
 10
2657.707026618976
 20
1003.98108677015
 30
1031.843686454024
 40
20.99215997104072
  1
工作力
  7
CHINESET
 72
     4
 11
2688.728659345209
 21
1014.403129446062
 31
1031.843686454024
100
AcDbText
  0
TEXT
  5
76DD
330
1F
100
AcDbEntity
  8
LOGO
 62
     6
100
AcDbText
 10
2790.020530101171
 20
1004.07922925033
 30
1031.843686454024
 40
20.99215997104072
  1
選用配件
 41
0.9
  7
CHINESET
 72
     4
 11
2827.96447909607
 21
1014.403129446062
 31
1031.843686454024
100
AcDbText
  0
LWPOLYLINE
  5
76DE
330
1F
100
AcDbEntity
  8
0
 62
     4
100
AcDbPolyline
 90
        4
 70
     1
 43
0.0
 10
1897.774945681599
 20
1119.363929301266
 10
2984.815033227807
 20
1119.363929301266
 10
2984.815033227807
 20
2417.025298414548
 10
1897.774945681599
 20
2417.025298414548
1001
GENIUS_GENREC_14
1002
{
1000
PYDIR
1011
1897.774945681599
1021
2417.025298414548
1031
0.0
1002
}
1002
{
1000
PXDIR
1011
2984.815033227807
1021
1119.363929301266
1031
0.0
1002
}
1002
{
1000
PORI
1011
1897.774945681599
1021
1119.363929301266
1031
0.0
1002
}
1002
{
1000
PINS
1011
1897.774945681599
1021
1119.363929301266
1031
0.0
1002
}
1002
{
1000
PINS2
1011
2984.815033227807
1021
2417.025298414548
1031
0.0
1002
}
1002
{
1000
C
1070
     1
1002
}
1001
GENIUS_GENODEF_13
1002
{
1000
HIER
1070
     0
1002
}
1002
{
1000
MANEDIT
1070
     0
1002
}
1002
{
1000
NOSEL
1070
     0
1002
}
1002
{
1000
BEHIND
1070
     0
1002
}
1002
{
1000
OTHER
1070
     0
1002
}
1002
{
1000
REACTOR
1002
}
1001
GENIUS_GENOBJ-N-REC_13
1002
{
1000
OWNER
1000
GEN
1002
}
  0
SOLID
  5
76DF
330
1F
100
AcDbEntity
  8
LOGO
 62
     5
100
AcDbTrace
 10
1914.109722832974
 20
1051.071567896464
 30
0.0
 11
1920.917067185866
 21
1051.071567896462
 31
0.0
 12
1949.320124658319
 22
1115.623971242934
 32
0.0
 13
1956.127469011211
 23
1115.623971242929
 33
0.0
  0
SOLID
  5
76E0
330
1F
100
AcDbEntity
  8
LOGO
 62
     5
100
AcDbTrace
 10
1923.733899331902
 20
1051.071567896464
 30
0.0
 11
1930.541243684794
 21
1051.071567896464
 31
0.0
 12
1956.127469011211
 22
1110.459778975213
 32
0.0
 13
1949.320124658319
 23
1085.499516347911
 33
0.0
  0
SOLID
  5
76E1
330
1F
100
AcDbEntity
  8
LOGO
 62
     2
100
AcDbTrace
 10
1920.917067185866
 20
1051.071567896462
 30
0.0
 11
1923.733899331902
 21
1051.071567896464
 31
0.0
 12
1956.127469011211
 22
1115.623971242929
 32
0.0
 13
1958.944301157247
 23
1115.623971242929
 33
0.0
  0
SOLID
  5
76E2
330
1F
100
AcDbEntity
  8
LOGO
 62
     5
100
AcDbTrace
 10
1903.195880469949
 20
1027.597966679569
 30
0.0
 11
1905.543240591638
 21
1027.597966679569
 31
0.0
 12
1912.15358939823
 22
1039.334767288014
 32
0.0
 13
1914.50094951992
 23
1039.334767288014
 33
0.0
  0
SOLID
  5
76E3
330
1F
100
AcDbEntity
  8
LOGO
 62
     5
100
AcDbTrace
 10
1912.15358939823
 20
1039.334767288014
 30
0.0
 11
1914.50094951992
 21
1039.334767288014
 31
0.0
 12
1912.15358939823
 22
1027.597966679569
 32
0.0
 13
1914.50094951992
 23
1027.597966679569
 33
0.0
  0
SOLID
  5
76E4
330
1F
100
AcDbEntity
  8
LOGO
 62
     5
100
AcDbTrace
 10
1912.15358939823
 20
1027.597966679569
 30
0.0
 11
1914.50094951992
 21
1027.597966679569
 31
0.0
 12
1921.111298326512
 22
1039.334767288014
 32
0.0
 13
1923.458658448201
 23
1039.334767288014
 33
0.0
  0
SOLID
  5
76E5
330
1F
100
AcDbEntity
  8
LOGO
 62
     5
100
AcDbTrace
 10
1921.111298326512
 20
1039.334767288014
 30
0.0
 11
1923.458658448201
 21
1039.334767288014
 31
0.0
 12
1921.111298326512
 22
1027.597966679569
 32
0.0
 13
1923.458658448201
 23
1027.597966679569
 33
0.0
  0
POLYLINE
  5
76E6
330
1F
100
AcDbEntity
  8
LOGO
 62
     5
100
AcDb2dPolyline
 66
     1
 10
0.0
 20
0.0
 30
0.0
 40
2.35112191675656
 41
2.35112191675656
  0
VERTEX
  5
76E7
330
76E6
100
AcDbEntity
  8
LOGO
 62
     5
100
AcDbVertex
100
AcDb2dVertex
 10
1999.794009967244
 20
1034.640047044635
 30
0.0
 42
1.0
  0
VERTEX
  5
76E8
330
76E6
100
AcDbEntity
  8
LOGO
 62
     5
100
AcDbVertex
100
AcDb2dVertex
 10
1992.740644216984
 20
1034.640047044635
 30
0.0
 42
1.0
  0
SEQEND
  5
76E9
330
76E6
100
AcDbEntity
  8
LOGO
 62
     5
  0
POLYLINE
  5
76EA
330
1F
100
AcDbEntity
  8
LOGO
 62
     5
100
AcDb2dPolyline
 66
     1
 10
0.0
 20
0.0
 30
0.0
 70
     1
  0
VERTEX
  5
76EB
330
76EA
100
AcDbEntity
  8
LOGO
 62
     5
100
AcDbVertex
100
AcDb2dVertex
 10
1979.444736044006
 20
1033.466366983791
 30
0.0
 42
1.000000057330635
  0
VERTEX
  5
76EC
330
76EA
100
AcDbEntity
  8
LOGO
 62
     5
100
AcDbVertex
100
AcDb2dVertex
 10
1986.486816409087
 20
1033.466366983791
 30
0.0
 42
1.000000057330635
  0
SEQEND
  5
76ED
330
76EA
100
AcDbEntity
  8
LOGO
 62
     5
  0
CIRCLE
  5
76EE
330
1F
100
AcDbEntity
  8
LOGO
 62
     5
100
AcDbCircle
 10
1982.965776226545
 20
1033.466366983791
 30
0.0
 40
3.521040182534626
  0
POLYLINE
  5
76EF
330
1F
100
AcDbEntity
  8
LOGO
 62
     5
100
AcDb2dPolyline
 66
     1
 10
0.0
 20
0.0
 30
0.0
 70
     1
 40
2.35112191675656
 41
2.35112191675656
  0
VERTEX
  5
76F0
330
76EF
100
AcDbEntity
  8
LOGO
 62
     5
100
AcDbVertex
100
AcDb2dVertex
 10
1978.263532393029
 20
1033.466366983791
 30
0.0
 42
1.0
  0
VERTEX
  5
76F1
330
76EF
100
AcDbEntity
  8
LOGO
 62
     5
100
AcDbVertex
100
AcDb2dVertex
 10
1987.668020060063
 20
1033.466366983791
 30
0.0
 42
1.0
  0
SEQEND
  5
76F2
330
76EF
100
AcDbEntity
  8
LOGO
 62
     5
  0
LINE
  5
76F3
330
1F
100
AcDbEntity
  8
LOGO
 62
     5
100
AcDbLine
 10
2000.962047335499
 20
1027.597966679569
 30
0.0
 11
2000.962047335499
 21
1034.640047044635
 31
0.0
  0
SOLID
  5
76F4
330
1F
100
AcDbEntity
  8
LOGO
 62
     5
100
AcDbTrace
 10
1986.486581673074
 20
1039.334767288014
 30
0.0
 11
1988.833941794762
 21
1039.334767288014
 31
0.0
 12
1986.486581673074
 22
1027.597966679569
 32
0.0
 13
1988.833941794762
 23
1027.597966679569
 33
0.0
  0
SOLID
  5
76F5
330
1F
100
AcDbEntity
  8
LOGO
 62
     5
100
AcDbTrace
 10
1991.572606848729
 20
1027.597966679569
 30
0.0
 11
1993.919966970432
 21
1027.597966679569
 31
0.0
 12
1991.572606848729
 22
1039.334767288014
 32
0.0
 13
1993.919966970432
 23
1039.334767288014
 33
0.0
  0
SOLID
  5
76F6
330
1F
100
AcDbEntity
  8
LOGO
 62
     5
100
AcDbTrace
 10
1998.61468721381
 20
1034.640047044635
 30
0.0
 11
2000.962047335499
 21
1034.640047044635
 31
0.0
 12
1998.61468721381
 22
1027.597966679569
 32
0.0
 13
2000.962047335499
 23
1027.597966679569
 33
0.0
  0
SOLID
  5
76F7
330
1F
100
AcDbEntity
  8
LOGO
 62
     5
100
AcDbTrace
 10
1991.337870836571
 20
1110.459778975213
 30
0.0
 11
1984.530526483664
 21
1085.499516347911
 31
0.0
 12
1991.337870836571
 22
1051.071567896462
 32
0.0
 13
1984.530526483664
 23
1051.071567896462
 33
0.0
  0
SOLID
  5
76F8
330
1F
100
AcDbEntity
  8
LOGO
 62
     5
100
AcDbTrace
 10
1994.154702982591
 20
1051.071567896462
 30
0.0
 11
2000.962047335499
 21
1051.071567896462
 31
0.0
 12
1994.154702982591
 22
1115.623971242929
 32
0.0
 13
2000.962047335499
 23
1115.623971242934
 33
0.0
  0
SOLID
  5
76F9
330
1F
100
AcDbEntity
  8
LOGO
 62
     2
100
AcDbTrace
 10
1991.337870836571
 20
1115.623971242934
 30
0.0
 11
1994.154702982591
 21
1115.623971242929
 31
0.0
 12
1991.337870836571
 22
1051.071567896462
 32
0.0
 13
1994.154702982591
 23
1051.071567896462
 33
0.0
  0
POLYLINE
  5
76FA
330
1F
100
AcDbEntity
  8
LOGO
 62
     5
100
AcDb2dPolyline
 66
     1
 10
0.0
 20
0.0
 30
0.0
 40
2.35112191675656
 41
2.35112191675656
  0
VERTEX
  5
76FB
330
76FA
100
AcDbEntity
  8
LOGO
 62
     5
100
AcDbVertex
100
AcDb2dVertex
 10
1966.148358399017
 20
1034.640047044635
 30
0.0
 42
1.0
  0
VERTEX
  5
76FC
330
76FA
100
AcDbEntity
  8
LOGO
 62
     5
100
AcDbVertex
100
AcDb2dVertex
 10
1959.094992648756
 20
1034.640047044635
 30
0.0
 42
1.0
  0
SEQEND
  5
76FD
330
76FA
100
AcDbEntity
  8
LOGO
 62
     5
  0
POLYLINE
  5
76FE
330
1F
100
AcDbEntity
  8
LOGO
 62
     5
100
AcDb2dPolyline
 66
     1
 10
0.0
 20
0.0
 30
0.0
 40
2.35112191675656
 41
2.35112191675656
  0
VERTEX
  5
76FF
330
76FE
100
AcDbEntity
  8
LOGO
 62
     5
100
AcDbVertex
100
AcDb2dVertex
 10
1973.190438764082
 20
1034.640047044635
 30
0.0
 42
1.0
  0
VERTEX
  5
7700
330
76FE
100
AcDbEntity
  8
LOGO
 62
     5
100
AcDbVertex
100
AcDb2dVertex
 10
1966.137073013823
 20
1034.640047044635
 30
0.0
 42
1.0
  0
SEQEND
  5
7701
330
76FE
100
AcDbEntity
  8
LOGO
 62
     5
  0
POLYLINE
  5
7702
330
1F
100
AcDbEntity
  8
LOGO
 62
     5
100
AcDb2dPolyline
 66
     1
 10
0.0
 20
0.0
 30
0.0
 40
2.35112191675656
 41
2.35112191675656
  0
VERTEX
  5
7703
330
7702
100
AcDbEntity
  8
LOGO
 62
     5
100
AcDbVertex
100
AcDb2dVertex
 10
1939.544787195856
 20
1034.640047044635
 30
0.0
 42
1.0
  0
VERTEX
  5
7704
330
7702
100
AcDbEntity
  8
LOGO
 62
     5
100
AcDbVertex
100
AcDb2dVertex
 10
1932.491421445596
 20
1034.640047044635
 30
0.0
 42
1.0
  0
SEQEND
  5
7705
330
7702
100
AcDbEntity
  8
LOGO
 62
     5
  0
SOLID
  5
7706
330
1F
100
AcDbEntity
  8
LOGO
 62
     5
100
AcDbTrace
 10
1931.323384077356
 20
1039.334767288014
 30
0.0
 11
1933.67074419903
 21
1039.334767288014
 31
0.0
 12
1931.323384077356
 22
1027.597966679569
 32
0.0
 13
1933.67074419903
 23
1027.597966679569
 33
0.0
  0
SOLID
  5
7707
330
1F
100
AcDbEntity
  8
LOGO
 62
     5
100
AcDbTrace
 10
1938.36546444242
 20
1034.640047044635
 30
0.0
 11
1940.71282456411
 21
1034.640047044635
 31
0.0
 12
1938.36546444242
 22
1027.597966679569
 32
0.0
 13
1940.71282456411
 23
1027.597966679569
 33
0.0
  0
POLYLINE
  5
7708
330
1F
100
AcDbEntity
  8
LOGO
 62
     5
100
AcDb2dPolyline
 66
     1
 10
0.0
 20
0.0
 30
0.0
 70
     1
 40
2.35112191675656
 41
2.35112191675656
  0
VERTEX
  5
7709
330
7708
100
AcDbEntity
  8
LOGO
 62
     5
100
AcDbVertex
100
AcDb2dVertex
 10
1944.617880824801
 20
1033.466366983791
 30
0.0
 42
1.0
  0
VERTEX
  5
770A
330
7708
100
AcDbEntity
  8
LOGO
 62
     5
100
AcDbVertex
100
AcDb2dVertex
 10
1954.022368491834
 20
1033.466366983791
 30
0.0
 42
1.0
  0
SEQEND
  5
770B
330
7708
100
AcDbEntity
  8
LOGO
 62
     5
  0
SOLID
  5
770C
330
1F
100
AcDbEntity
  8
LOGO
 62
     5
100
AcDbTrace
 10
1952.840930104846
 20
1042.855807470551
 30
0.0
 11
1955.188290226535
 21
1042.855807470551
 31
0.0
 12
1952.840930104846
 22
1027.597966679569
 32
0.0
 13
1955.188290226535
 23
1027.597966679569
 33
0.0
  0
SOLID
  5
770D
330
1F
100
AcDbEntity
  8
LOGO
 62
     5
100
AcDbTrace
 10
1957.926955280501
 20
1039.334767288014
 30
0.0
 11
1960.274315402205
 21
1039.334767288014
 31
0.0
 12
1957.926955280501
 22
1027.597966679569
 32
0.0
 13
1960.274315402205
 23
1027.597966679569
 33
0.0
  0
SOLID
  5
770E
330
1F
100
AcDbEntity
  8
LOGO
 62
     5
100
AcDbTrace
 10
1964.969035645583
 20
1034.640047044635
 30
0.0
 11
1967.31639576727
 21
1034.640047044635
 31
0.0
 12
1964.969035645583
 22
1027.597966679569
 32
0.0
 13
1967.31639576727
 23
1027.597966679569
 33
0.0
  0
SOLID
  5
770F
330
1F
100
AcDbEntity
  8
LOGO
 62
     5
100
AcDbTrace
 10
1972.01111601065
 20
1034.640047044635
 30
0.0
 11
1974.358476132337
 21
1034.640047044635
 31
0.0
 12
1972.01111601065
 22
1027.597966679564
 32
0.0
 13
1974.358476132337
 23
1027.597966679564
 33
0.0
  0
SOLID
  5
7710
330
1F
100
AcDbEntity
  8
LOGO
 62
     5
100
AcDbTrace
 10
1926.237358901685
 20
1040.977919373196
 30
0.0
 11
1928.584719023374
 21
1040.977919373196
 31
0.0
 12
1926.237358901685
 22
1042.855807470551
 32
0.0
 13
1928.584719023374
 23
1042.855807470551
 33
0.0
  0
SOLID
  5
7711
330
1F
100
AcDbEntity
  8
LOGO
 62
     5
100
AcDbTrace
 10
1926.237358901685
 20
1039.334767288014
 30
0.0
 11
1928.584719023374
 21
1039.334767288014
 31
0.0
 12
1926.237358901685
 22
1027.597966679564
 32
0.0
 13
1928.584719023374
 23
1027.597966679569
 33
0.0
  0
SOLID
  5
7712
330
1F
100
AcDbEntity
  8
LOGO
 62
     5
100
AcDbTrace
 10
1949.320124658319
 20
1051.071567896464
 30
0.0
 11
1956.127469011211
 21
1051.071567896464
 31
0.0
 12
1949.320124658319
 22
1085.499516347911
 32
0.0
 13
1956.127469011211
 23
1110.459778975213
 33
0.0
  0
SOLID
  5
7713
330
1F
100
AcDbEntity
  8
LOGO
 62
     5
100
AcDbTrace
 10
1958.944301157247
 20
1115.623971242929
 30
0.0
 11
1965.751645510154
 21
1115.623971242934
 31
0.0
 12
1958.944301157247
 22
1056.23576016418
 32
0.0
 13
1965.751645510154
 23
1081.196022791482
 33
0.0
  0
SOLID
  5
7714
330
1F
100
AcDbEntity
  8
LOGO
 62
     2
100
AcDbTrace
 10
1956.127469011211
 20
1115.623971242929
 30
0.0
 11
1958.944301157247
 21
1115.623971242929
 31
0.0
 12
1956.127469011211
 22
1051.071567896464
 32
0.0
 13
1958.944301157247
 23
1051.071567896464
 33
0.0
  0
SOLID
  5
7715
330
1F
100
AcDbEntity
  8
LOGO
 62
     5
100
AcDbTrace
 10
1958.944301157247
 20
1056.23576016418
 30
0.0
 11
1965.751645510154
 21
1081.196022791482
 31
0.0
 12
1991.337870836571
 22
1115.623971242934
 32
0.0
 13
1984.530526483664
 23
1115.623971242934
 33
0.0
  0
SOLID
  5
7716
330
1F
100
AcDbEntity
  8
LOGO
 62
     5
100
AcDbTrace
 10
1958.944301157247
 20
1051.071567896464
 30
0.0
 11
1965.751645510154
 21
1051.071567896464
 31
0.0
 12
1991.337870836571
 22
1110.459778975213
 32
0.0
 13
1984.530526483664
 23
1085.499516347911
 33
0.0
  0
SOLID
  5
7717
330
1F
100
AcDbEntity
  8
LOGO
 62
     2
100
AcDbTrace
 10
1956.127469011211
 20
1051.071567896464
 30
0.0
 11
1958.944301157247
 21
1051.071567896464
 31
0.0
 12
1991.337870836571
 22
1115.623971242934
 32
0.0
 13
1994.154702982591
 23
1115.623971242929
 33
0.0
  0
TEXT
  5
7718
330
1F
100
AcDbEntity
  8
0
100
AcDbText
 10
2253.122579952114
 20
970.2985392058595
 30
0.0
 40
13.128482268
  1
1050701
 41
0.8
  7
CHINESET
 72
     1
 11
2283.380605750743
 21
970.2985392058595
 31
0.0
100
AcDbText
  0
LINE
  5
7719
330
1F
100
AcDbEntity
  8
LOGO
 62
     1
100
AcDbLine
 10
2323.887392022164
 20
993.4109694750228
 30
0.0
 11
2323.887392022164
 21
961.9227295184609
 31
0.0
  0
LINE
  5
771A
330
1F
100
AcDbEntity
  8
LOGO
 62
     1
100
AcDbLine
 10
2323.887392022164
 20
993.4109694750228
 30
0.0
 11
2244.145585203774
 21
993.4109694750228
 31
0.0
  0
LWPOLYLINE
  5
771B
330
1F
100
AcDbEntity
  8
0
 62
     1
100
AcDbPolyline
 90
        4
 70
     1
 43
0.0
 10
1897.774945681599
 20
1119.363929301266
 10
2984.815033227807
 20
1119.363929301266
 10
2984.815033227807
 20
961.9227295184609
 10
1897.774945681599
 20
961.9227295184609
1001
GENIUS_GENREC_14
1002
{
1000
PYDIR
1011
1897.774945681599
1021
961.9227295184609
1031
0.0
1002
}
1002
{
1000
PXDIR
1011
2984.815033227807
1021
1119.363929301266
1031
0.0
1002
}
1002
{
1000
PORI
1011
1897.774945681599
1021
1119.363929301266
1031
0.0
1002
}
1002
{
1000
PINS
1011
1897.774945681599
1021
1119.363929301266
1031
0.0
1002
}
1002
{
1000
PINS2
1011
2984.815033227807
1021
961.9227295184609
1031
0.0
1002
}
1002
{
1000
C
1070
     1
1002
}
1001
GENIUS_GENOBJ-N-REC_13
1002
{
1000
OWNER
1000
GEN
1002
}
1001
GENIUS_GENODEF_13
1002
{
1000
HIER
1070
     0
1002
}
1002
{
1000
MANEDIT
1070
     0
1002
}
1002
{
1000
NOSEL
1070
     0
1002
}
1002
{
1000
BEHIND
1070
     0
1002
}
1002
{
1000
OTHER
1070
     0
1002
}
1002
{
1000
REACTOR
1002
}
  0
LINE
  5
771C
330
1F
100
AcDbEntity
  8
LOGO
 62
     6
100
AcDbLine
 10
2689.88233721327
 20
1056.387449388144
 30
0.0
 11
2689.88233721327
 21
1032.771269420724
 31
0.0
  0
LINE
  5
771D
330
1F
100
AcDbEntity
  8
LOGO
 62
     6
100
AcDbLine
 10
2825.502539293576
 20
1056.387449388144
 30
0.0
 11
2825.502539293576
 21
1032.771269420724
 31
0.0
  0
LINE
  5
77DF
330
1F
100
AcDbEntity
  8
圖層4尺寸線
100
AcDbLine
 10
2263.618939833575
 20
1731.329505088288
 30
0.0
 11
2225.618939833576
 21
1731.329505088288
 31
0.0
  0
LINE
  5
77E0
330
1F
100
AcDbEntity
  8
圖層4尺寸線
100
AcDbLine
 10
2263.618939833575
 20
1743.329505088288
 30
0.0
 11
2225.618939833576
 21
1743.329505088288
 31
0.0
  0
LINE
  5
77E1
330
1F
100
AcDbEntity
  8
圖層4尺寸線
100
AcDbLine
 10
2269.618939833575
 20
1722.329505088288
 30
0.0
 11
2219.618939833575
 21
1722.329505088288
 31
0.0
  0
LINE
  5
77E2
330
1F
100
AcDbEntity
  8
圖層4尺寸線
100
AcDbLine
 10
2269.618939833575
 20
1747.329505088288
 30
0.0
 11
2219.618939833575
 21
1747.329505088288
 31
0.0
  0
TEXT
  5
77E3
330
1F
100
AcDbEntity
  8
圖層4尺寸線
100
AcDbText
 10
2208.654306104376
 20
1639.3393632086
 30
0.0
 40
5.0
  1
電源開關       緊急停止
  7
WIN
 72
     4
 11
2245.187736336934
 21
1641.577735301623
 31
0.0
100
AcDbText
  0
LWPOLYLINE
  5
77E4
330
1F
100
AcDbEntity
  8
圖層4尺寸線
100
AcDbPolyline
 90
        4
 70
     1
 43
0.0
 10
2201.320024969005
 20
1648.051293634072
 10
2289.055447704864
 20
1648.051293634072
 10
2289.055447704864
 20
1635.104176969174
 10
2201.320024969005
 20
1635.104176969174
  0
LINE
  5
77E5
330
1F
100
AcDbEntity
  8
圖層4尺寸線
100
AcDbLine
 10
2234.21113347303
 20
1668.023874558908
 30
0.0
 11
2242.606091001722
 21
1676.565450931224
 31
0.0
  0
LINE
  5
77E6
330
1F
100
AcDbEntity
  8
圖層4尺寸線
100
AcDbLine
 10
2226.618939833576
 20
1654.329505088288
 30
0.0
 11
2262.618939833576
 21
1654.329505088288
 31
0.0
  0
LINE
  5
77E7
330
1F
100
AcDbEntity
  8
圖層4尺寸線
100
AcDbLine
 10
2226.618939833576
 20
1702.329505088288
 30
0.0
 11
2262.618939833576
 21
1702.329505088288
 31
0.0
  0
CIRCLE
  5
77E8
330
1F
100
AcDbEntity
  8
圖層4尺寸線
100
AcDbCircle
 10
2244.618939833575
 20
1681.329505088288
 30
0.0
 40
5.0
  0
CIRCLE
  5
77E9
330
1F
100
AcDbEntity
  8
圖層4尺寸線
100
AcDbCircle
 10
2244.618939833575
 20
1681.329505088288
 30
0.0
 40
17.0
  0
CIRCLE
  5
77EA
330
1F
100
AcDbEntity
  8
圖層4尺寸線
100
AcDbCircle
 10
2244.618939833575
 20
1767.329505088288
 30
0.0
 40
5.0
  0
LINE
  5
77EB
330
1F
100
AcDbEntity
  8
圖層4尺寸線
100
AcDbLine
 10
2222.618939833576
 20
1706.329505088288
 30
0.0
 11
2266.618939833576
 21
1706.329505088288
 31
0.0
  0
LINE
  5
77EC
330
1F
100
AcDbEntity
  8
圖層4尺寸線
100
AcDbLine
 10
2222.618939833576
 20
1650.329505088288
 30
0.0
 11
2266.618939833576
 21
1650.329505088288
 31
0.0
  0
LINE
  5
77ED
330
1F
100
AcDbEntity
  8
圖層4尺寸線
100
AcDbLine
 10
2296.618939833575
 20
1787.329505088288
 30
0.0
 11
2192.618939833575
 21
1787.329505088288
 31
0.0
  0
LINE
  5
77EE
330
1F
100
AcDbEntity
  8
圖層4尺寸線
100
AcDbLine
 10
2192.618939833575
 20
1585.329505088288
 30
0.0
 11
2296.618939833575
 21
1585.329505088288
 31
0.0
  0
LINE
  5
77EF
330
1F
100
AcDbEntity
  8
圖層4尺寸線
100
AcDbLine
 10
2226.618939833576
 20
1654.329505088288
 30
0.0
 11
2226.618939833576
 21
1702.329505088288
 31
0.0
  0
LINE
  5
77F0
330
1F
100
AcDbEntity
  8
圖層4尺寸線
100
AcDbLine
 10
2222.618939833576
 20
1650.329505088288
 30
0.0
 11
2222.618939833576
 21
1706.329505088288
 31
0.0
  0
LINE
  5
77F1
330
1F
100
AcDbEntity
  8
圖層4尺寸線
100
AcDbLine
 10
2192.618939833575
 20
1787.329505088288
 30
0.0
 11
2192.618939833575
 21
1585.329505088288
 31
0.0
  0
LINE
  5
77F2
330
1F
100
AcDbEntity
  8
圖層4尺寸線
100
AcDbLine
 10
2225.534977798395
 20
1616.034290578866
 30
0.0
 11
2226.506990453335
 21
1612.012604772361
 31
0.0
  0
LINE
  5
77F3
330
1F
100
AcDbEntity
  8
圖層4尺寸線
100
AcDbLine
 10
2219.702901868756
 20
1616.034290578866
 30
0.0
 11
2218.730889213816
 21
1612.012604772361
 31
0.0
  0
CIRCLE
  5
77F4
330
1F
100
AcDbEntity
  8
圖層4尺寸線
100
AcDbCircle
 10
2222.618939833576
 20
1611.072890784923
 30
0.0
 40
4.0
  0
ARC
  5
77F5
330
1F
100
AcDbEntity
  8
圖層4尺寸線
100
AcDbCircle
 10
2222.618939833576
 20
1615.329505088288
 30
0.0
 40
12.0
100
AcDbArc
 50
131.8103148957701
 51
228.1896851042298
  0
ARC
  5
77F6
330
1F
100
AcDbEntity
  8
圖層4尺寸線
100
AcDbCircle
 10
2222.618939833576
 20
1615.329505088288
 30
0.0
 40
12.0
100
AcDbArc
 50
311.8103148957701
 51
48.18968510422114
  0
LWPOLYLINE
  5
77F7
330
1F
100
AcDbEntity
  8
圖層4尺寸線
100
AcDbPolyline
 90
        7
 70
     0
 43
0.0
 10
2226.216061383476
 20
1609.323400414776
 10
2229.618939833576
 20
1611.28805320396
 10
2229.618939833576
 20
1619.370956972615
 10
2222.618939833576
 20
1623.412408856943
 10
2215.618939833575
 20
1619.370956972615
 10
2215.618939833575
 20
1611.28805320396
 10
2219.021818283675
 20
1609.323400414776
  0
ARC
  5
77F8
330
1F
100
AcDbEntity
  8
圖層4尺寸線
100
AcDbCircle
 10
2222.618939833576
 20
1615.329505088288
 30
0.0
 40
7.0
100
AcDbArc
 50
300.9291072523213
 51
239.0708927476787
  0
ARC
  5
77F9
330
1F
100
AcDbEntity
  8
圖層4尺寸線
100
AcDbCircle
 10
2222.618939833576
 20
1615.329505088288
 30
0.0
 40
6.0
100
AcDbArc
 50
311.7321013756915
 51
228.2678986243085
  0
ARC
  5
77FA
330
1F
100
AcDbEntity
  8
圖層4尺寸線
100
AcDbCircle
 10
2200.618939833576
 20
1598.329505088288
 30
0.0
 40
2.0
100
AcDbArc
 50
240.0000000000027
 51
299.9999999999973
  0
ARC
  5
77FB
330
1F
100
AcDbEntity
  8
圖層4尺寸線
100
AcDbCircle
 10
2200.618939833576
 20
1598.329505088288
 30
0.0
 40
2.0
100
AcDbArc
 50
60.00000000000272
 51
119.9999999999973
  0
CIRCLE
  5
77FC
330
1F
100
AcDbEntity
  8
圖層4尺寸線
100
AcDbCircle
 10
2200.618939833576
 20
1598.329505088288
 30
0.0
 40
4.0
  0
LINE
  5
77FD
330
1F
100
AcDbEntity
  8
圖層4尺寸線
100
AcDbLine
 10
2199.618939833575
 20
1599.329505088288
 30
0.0
 11
2199.618939833575
 21
1600.061555895857
 31
0.0
  0
LINE
  5
77FE
330
1F
100
AcDbEntity
  8
圖層4尺寸線
100
AcDbLine
 10
2199.618939833575
 20
1596.597454280719
 30
0.0
 11
2199.618939833575
 21
1597.329505088288
 31
0.0
  0
LINE
  5
77FF
330
1F
100
AcDbEntity
  8
圖層4尺寸線
100
AcDbLine
 10
2199.618939833575
 20
1599.329505088288
 30
0.0
 11
2197.264837867326
 21
1599.329505088288
 31
0.0
  0
LINE
  5
7800
330
1F
100
AcDbEntity
  8
圖層4尺寸線
100
AcDbLine
 10
2199.618939833575
 20
1597.329505088288
 30
0.0
 11
2197.264837867326
 21
1597.329505088288
 31
0.0
  0
ARC
  5
7801
330
1F
100
AcDbEntity
  8
圖層4尺寸線
100
AcDbCircle
 10
2200.618939833576
 20
1598.329505088288
 30
0.0
 40
3.5
100
AcDbArc
 50
163.3984504009828
 51
196.6015495990296
  0
TEXT
  5
7802
330
1F
100
AcDbEntity
  8
圖層4尺寸線
100
AcDbText
 10
2217.491032856831
 20
1601.532993460381
 30
0.0
 40
4.0
  1
OFF
  7
WIN
 72
     4
 11
2222.618939833576
 21
1603.329505088288
 31
0.0
100
AcDbText
  0
LINE
  5
7803
330
1F
100
AcDbEntity
  8
圖層4尺寸線
100
AcDbLine
 10
2217.618939833576
 20
1598.329505088288
 30
0.0
 11
2227.618939833575
 21
1598.329505088288
 31
0.0
  0
LINE
  5
7804
330
1F
100
AcDbEntity
  8
圖層4尺寸線
100
AcDbLine
 10
2214.618939833576
 20
1605.131466061102
 30
0.0
 11
2214.618939833576
 21
1601.329505088288
 31
0.0
  0
LINE
  5
7805
330
1F
100
AcDbEntity
  8
圖層4尺寸線
100
AcDbLine
 10
2201.618939833576
 20
1599.329505088288
 30
0.0
 11
2201.618939833576
 21
1600.061555895857
 31
0.0
  0
LINE
  5
7806
330
1F
100
AcDbEntity
  8
圖層4尺寸線
100
AcDbLine
 10
2201.618939833576
 20
1596.597454280719
 30
0.0
 11
2201.618939833576
 21
1597.329505088288
 31
0.0
  0
LINE
  5
7807
330
1F
100
AcDbEntity
  8
圖層4尺寸線
100
AcDbLine
 10
2203.973041799825
 20
1597.329505088288
 30
0.0
 11
2201.618939833576
 21
1597.329505088288
 31
0.0
  0
LINE
  5
7808
330
1F
100
AcDbEntity
  8
圖層4尺寸線
100
AcDbLine
 10
2203.973041799825
 20
1599.329505088288
 30
0.0
 11
2201.618939833576
 21
1599.329505088288
 31
0.0
  0
ARC
  5
7809
330
1F
100
AcDbEntity
  8
圖層4尺寸線
100
AcDbCircle
 10
2200.618939833576
 20
1598.329505088288
 30
0.0
 40
3.5
100
AcDbArc
 50
343.3984504009703
 51
16.60154959902968
  0
ARC
  5
780A
330
1F
100
AcDbEntity
  8
圖層4尺寸線
100
AcDbCircle
 10
2217.618939833576
 20
1601.329505088288
 30
0.0
 40
3.0
100
AcDbArc
 50
180.0
 51
270.0
  0
ARC
  5
780B
330
1F
100
AcDbEntity
  8
圖層4尺寸線
100
AcDbCircle
 10
2211.618939833575
 20
1605.131466061102
 30
0.0
 40
3.0
100
AcDbArc
 50
0.0
 51
42.83342806607493
  0
ARC
  5
780C
330
1F
100
AcDbEntity
  8
圖層4尺寸線
100
AcDbCircle
 10
2211.618939833575
 20
1605.131466061102
 30
0.0
 40
3.0
100
AcDbArc
 50
0.0
 51
42.83342806607493
  0
LINE
  5
780D
330
1F
100
AcDbEntity
  8
圖層4尺寸線
100
AcDbLine
 10
2230.618939833576
 20
1605.131466061102
 30
0.0
 11
2230.618939833576
 21
1601.329505088288
 31
0.0
  0
ARC
  5
780E
330
1F
100
AcDbEntity
  8
圖層4尺寸線
100
AcDbCircle
 10
2227.618939833575
 20
1601.329505088288
 30
0.0
 40
3.0
100
AcDbArc
 50
270.0
 51
0.0
  0
ARC
  5
780F
330
1F
100
AcDbEntity
  8
圖層4尺寸線
100
AcDbCircle
 10
2233.618939833576
 20
1605.131466061102
 30
0.0
 40
3.0
100
AcDbArc
 50
137.166571933925
 51
180.0
  0
ARC
  5
7810
330
1F
100
AcDbEntity
  8
圖層4尺寸線
100
AcDbCircle
 10
2227.618939833575
 20
1629.329505088288
 30
0.0
 40
3.0
100
AcDbArc
 50
0.0
 51
90.0
  0
ARC
  5
7811
330
1F
100
AcDbEntity
  8
圖層4尺寸線
100
AcDbCircle
 10
2217.618939833576
 20
1629.329505088288
 30
0.0
 40
3.0
100
AcDbArc
 50
90.0
 51
180.0
  0
TEXT
  5
7812
330
1F
100
AcDbEntity
  8
圖層4尺寸線
100
AcDbText
 10
2218.584056112645
 20
1625.532993460381
 30
0.0
 40
4.0
  1
ON
  7
WIN
 72
     4
 11
2222.618939833576
 21
1627.329505088288
 31
0.0
100
AcDbText
  0
LINE
  5
7813
330
1F
100
AcDbEntity
  8
圖層4尺寸線
100
AcDbLine
 10
2217.618939833576
 20
1632.329505088288
 30
0.0
 11
2227.618939833575
 21
1632.329505088288
 31
0.0
  0
ARC
  5
7814
330
1F
100
AcDbEntity
  8
圖層4尺寸線
100
AcDbCircle
 10
2222.618939833576
 20
1615.329505088288
 30
0.0
 40
3.0
100
AcDbArc
 50
13.58740794753832
 51
166.4125920524616
  0
ARC
  5
7815
330
1F
100
AcDbEntity
  8
圖層4尺寸線
100
AcDbCircle
 10
2211.618939833575
 20
1625.527544115473
 30
0.0
 40
3.0
100
AcDbArc
 50
317.1665719339251
 51
0.0
  0
LINE
  5
7816
330
1F
100
AcDbEntity
  8
圖層4尺寸線
100
AcDbLine
 10
2214.618939833576
 20
1629.329505088288
 30
0.0
 11
2214.618939833576
 21
1625.527544115473
 31
0.0
  0
ARC
  5
7817
330
1F
100
AcDbEntity
  8
圖層4尺寸線
100
AcDbCircle
 10
2233.618939833576
 20
1625.527544115473
 30
0.0
 40
3.0
100
AcDbArc
 50
180.0
 51
222.833428066075
  0
LINE
  5
7818
330
1F
100
AcDbEntity
  8
圖層4尺寸線
100
AcDbLine
 10
2230.618939833576
 20
1629.329505088288
 30
0.0
 11
2230.618939833576
 21
1625.527544115473
 31
0.0
  0
LINE
  5
7819
330
1F
100
AcDbEntity
  8
圖層4尺寸線
100
AcDbLine
 10
2240.345910248228
 20
1678.177069479845
 30
0.0
 11
2234.21113347303
 21
1668.023874558908
 31
0.0
  0
LWPOLYLINE
  5
781A
330
1F
100
AcDbEntity
  8
圖層4尺寸線
100
AcDbPolyline
 90
        4
 70
     1
 43
0.0
 10
2228.618939833575
 20
1656.329505088288
 10
2234.618939833576
 20
1656.329505088288
 10
2234.618939833576
 20
1662.329505088288
 10
2228.618939833575
 20
1662.329505088288
  0
CIRCLE
  5
781B
330
1F
100
AcDbEntity
  8
圖層4尺寸線
100
AcDbCircle
 10
2200.618939833576
 20
1774.329505088288
 30
0.0
 40
4.0
  0
LINE
  5
781C
330
1F
100
AcDbEntity
  8
圖層4尺寸線
100
AcDbLine
 10
2225.618939833576
 20
1743.329505088288
 30
0.0
 11
2225.618939833576
 21
1731.329505088288
 31
0.0
  0
LINE
  5
781D
330
1F
100
AcDbEntity
  8
圖層4尺寸線
100
AcDbLine
 10
2219.618939833575
 20
1747.329505088288
 30
0.0
 11
2219.618939833575
 21
1722.329505088288
 31
0.0
  0
ARC
  5
781E
330
1F
100
AcDbEntity
  8
圖層4尺寸線
100
AcDbCircle
 10
2200.618939833576
 20
1774.329505088288
 30
0.0
 40
2.0
100
AcDbArc
 50
60.00000000000272
 51
119.9999999999973
  0
ARC
  5
781F
330
1F
100
AcDbEntity
  8
圖層4尺寸線
100
AcDbCircle
 10
2200.618939833576
 20
1774.329505088288
 30
0.0
 40
2.0
100
AcDbArc
 50
240.0000000000027
 51
299.9999999999973
  0
ARC
  5
7820
330
1F
100
AcDbEntity
  8
圖層4尺寸線
100
AcDbCircle
 10
2200.618939833576
 20
1774.329505088288
 30
0.0
 40
3.5
100
AcDbArc
 50
163.3984504009703
 51
196.6015495990172
  0
LINE
  5
7821
330
1F
100
AcDbEntity
  8
圖層4尺寸線
100
AcDbLine
 10
2199.618939833575
 20
1773.329505088288
 30
0.0
 11
2199.618939833575
 21
1772.597454280719
 31
0.0
  0
LINE
  5
7822
330
1F
100
AcDbEntity
  8
圖層4尺寸線
100
AcDbLine
 10
2199.618939833575
 20
1773.329505088288
 30
0.0
 11
2197.264837867326
 21
1773.329505088288
 31
0.0
  0
LINE
  5
7823
330
1F
100
AcDbEntity
  8
圖層4尺寸線
100
AcDbLine
 10
2199.618939833575
 20
1775.329505088288
 30
0.0
 11
2197.264837867326
 21
1775.329505088288
 31
0.0
  0
LINE
  5
7824
330
1F
100
AcDbEntity
  8
圖層4尺寸線
100
AcDbLine
 10
2199.618939833575
 20
1776.061555895857
 30
0.0
 11
2199.618939833575
 21
1775.329505088288
 31
0.0
  0
ARC
  5
7825
330
1F
100
AcDbEntity
  8
圖層4尺寸線
100
AcDbCircle
 10
2200.618939833576
 20
1774.329505088288
 30
0.0
 40
3.5
100
AcDbArc
 50
343.3984504009703
 51
16.60154959902968
  0
LINE
  5
7826
330
1F
100
AcDbEntity
  8
圖層4尺寸線
100
AcDbLine
 10
2201.618939833576
 20
1773.329505088288
 30
0.0
 11
2201.618939833576
 21
1772.597454280719
 31
0.0
  0
LINE
  5
7827
330
1F
100
AcDbEntity
  8
圖層4尺寸線
100
AcDbLine
 10
2201.618939833576
 20
1776.061555895857
 30
0.0
 11
2201.618939833576
 21
1775.329505088288
 31
0.0
  0
LINE
  5
7828
330
1F
100
AcDbEntity
  8
圖層4尺寸線
100
AcDbLine
 10
2203.973041799825
 20
1773.329505088288
 30
0.0
 11
2201.618939833576
 21
1773.329505088288
 31
0.0
  0
LINE
  5
7829
330
1F
100
AcDbEntity
  8
圖層4尺寸線
100
AcDbLine
 10
2203.973041799825
 20
1775.329505088288
 30
0.0
 11
2201.618939833576
 21
1775.329505088288
 31
0.0
  0
LINE
  5
782A
330
1F
100
AcDbEntity
  8
圖層4尺寸線
100
AcDbLine
 10
2262.618939833576
 20
1654.329505088288
 30
0.0
 11
2262.618939833576
 21
1702.329505088288
 31
0.0
  0
LINE
  5
782B
330
1F
100
AcDbEntity
  8
圖層4尺寸線
100
AcDbLine
 10
2266.618939833576
 20
1650.329505088288
 30
0.0
 11
2266.618939833576
 21
1706.329505088288
 31
0.0
  0
LINE
  5
782C
330
1F
100
AcDbEntity
  8
圖層4尺寸線
100
AcDbLine
 10
2296.618939833575
 20
1585.329505088288
 30
0.0
 11
2296.618939833575
 21
1787.329505088288
 31
0.0
  0
LINE
  5
782D
330
1F
100
AcDbEntity
  8
圖層4尺寸線
100
AcDbLine
 10
2266.618939833576
 20
1612.329505088288
 30
0.0
 11
2266.618939833576
 21
1618.329505088288
 31
0.0
  0
CIRCLE
  5
782E
330
1F
100
AcDbEntity
  8
圖層4尺寸線
100
AcDbCircle
 10
2266.618939833576
 20
1615.329505088288
 30
0.0
 40
8.110805357093454
  0
CIRCLE
  5
782F
330
1F
100
AcDbEntity
  8
圖層4尺寸線
100
AcDbCircle
 10
2266.618939833576
 20
1615.329505088288
 30
0.0
 40
7.0
  0
LINE
  5
7830
330
1F
100
AcDbEntity
  8
圖層4尺寸線
100
AcDbLine
 10
2289.618939833576
 20
1597.329505088288
 30
0.0
 11
2291.973041799825
 21
1597.329505088288
 31
0.0
  0
LINE
  5
7831
330
1F
100
AcDbEntity
  8
圖層4尺寸線
100
AcDbLine
 10
2289.618939833576
 20
1599.329505088288
 30
0.0
 11
2291.973041799825
 21
1599.329505088288
 31
0.0
  0
CIRCLE
  5
7832
330
1F
100
AcDbEntity
  8
圖層4尺寸線
100
AcDbCircle
 10
2288.618939833575
 20
1598.329505088288
 30
0.0
 40
4.0
  0
LINE
  5
7833
330
1F
100
AcDbEntity
  8
圖層4尺寸線
100
AcDbLine
 10
2289.618939833576
 20
1596.597454280719
 30
0.0
 11
2289.618939833576
 21
1597.329505088288
 31
0.0
  0
LINE
  5
7834
330
1F
100
AcDbEntity
  8
圖層4尺寸線
100
AcDbLine
 10
2289.618939833576
 20
1599.329505088288
 30
0.0
 11
2289.618939833576
 21
1600.061555895857
 31
0.0
  0
ARC
  5
7835
330
1F
100
AcDbEntity
  8
圖層4尺寸線
100
AcDbCircle
 10
2288.618939833575
 20
1598.329505088288
 30
0.0
 40
3.5
100
AcDbArc
 50
163.3984504009703
 51
196.6015495990296
  0
LINE
  5
7836
330
1F
100
AcDbEntity
  8
圖層4尺寸線
100
AcDbLine
 10
2285.264837867326
 20
1599.329505088288
 30
0.0
 11
2287.618939833576
 21
1599.329505088288
 31
0.0
  0
LINE
  5
7837
330
1F
100
AcDbEntity
  8
圖層4尺寸線
100
AcDbLine
 10
2285.264837867326
 20
1597.329505088288
 30
0.0
 11
2287.618939833576
 21
1597.329505088288
 31
0.0
  0
LINE
  5
7838
330
1F
100
AcDbEntity
  8
圖層4尺寸線
100
AcDbLine
 10
2287.618939833576
 20
1596.597454280719
 30
0.0
 11
2287.618939833576
 21
1597.329505088288
 31
0.0
  0
LINE
  5
7839
330
1F
100
AcDbEntity
  8
圖層4尺寸線
100
AcDbLine
 10
2287.618939833576
 20
1599.329505088288
 30
0.0
 11
2287.618939833576
 21
1600.061555895857
 31
0.0
  0
ARC
  5
783A
330
1F
100
AcDbEntity
  8
圖層4尺寸線
100
AcDbCircle
 10
2288.618939833575
 20
1598.329505088288
 30
0.0
 40
2.0
100
AcDbArc
 50
60.00000000000272
 51
119.9999999999973
  0
ARC
  5
783B
330
1F
100
AcDbEntity
  8
圖層4尺寸線
100
AcDbCircle
 10
2288.618939833575
 20
1598.329505088288
 30
0.0
 40
2.0
100
AcDbArc
 50
240.0000000000027
 51
299.9999999999973
  0
ARC
  5
783C
330
1F
100
AcDbEntity
  8
圖層4尺寸線
100
AcDbCircle
 10
2288.618939833575
 20
1598.329505088288
 30
0.0
 40
3.5
100
AcDbArc
 50
343.3984504009703
 51
16.60154959901719
  0
LINE
  5
783D
330
1F
100
AcDbEntity
  8
圖層4尺寸線
100
AcDbLine
 10
2263.618939833575
 20
1615.329505088288
 30
0.0
 11
2269.618939833575
 21
1615.329505088288
 31
0.0
  0
LWPOLYLINE
  5
783E
330
1F
100
AcDbEntity
  8
圖層4尺寸線
100
AcDbPolyline
 90
        4
 70
     1
 43
0.0
 10
2254.618939833576
 20
1656.329505088288
 10
2260.618939833575
 20
1656.329505088288
 10
2260.618939833575
 20
1662.329505088288
 10
2254.618939833576
 20
1662.329505088288
  0
CIRCLE
  5
783F
330
1F
100
AcDbEntity
  8
圖層4尺寸線
100
AcDbCircle
 10
2288.618939833575
 20
1774.329505088288
 30
0.0
 40
4.0
  0
LINE
  5
7840
330
1F
100
AcDbEntity
  8
圖層4尺寸線
100
AcDbLine
 10
2263.618939833575
 20
1731.329505088288
 30
0.0
 11
2263.618939833575
 21
1743.329505088288
 31
0.0
  0
LINE
  5
7841
330
1F
100
AcDbEntity
  8
圖層4尺寸線
100
AcDbLine
 10
2269.618939833575
 20
1722.329505088288
 30
0.0
 11
2269.618939833575
 21
1747.329505088288
 31
0.0
  0
LINE
  5
7842
330
1F
100
AcDbEntity
  8
圖層4尺寸線
100
AcDbLine
 10
2257.649754242557
 20
1725.545261611125
 30
0.0
 11
2265.943254532349
 21
1725.545261611125
 31
0.0
  0
LINE
  5
7843
330
1F
100
AcDbEntity
  8
圖層4尺寸線
100
AcDbLine
 10
2257.649754242557
 20
1727.545261611125
 30
0.0
 11
2265.943254532349
 21
1727.545261611125
 31
0.0
  0
LINE
  5
7844
330
1F
100
AcDbEntity
  8
圖層4尺寸線
100
AcDbLine
 10
2268.024917340309
 20
1723.329505088288
 30
0.0
 11
2255.363432367809
 21
1723.329505088288
 31
0.0
  0
LINE
  5
7845
330
1F
100
AcDbEntity
  8
圖層4尺寸線
100
AcDbLine
 10
2255.363432367809
 20
1729.761018133963
 30
0.0
 11
2268.024917340308
 21
1729.761018133963
 31
0.0
  0
LINE
  5
7846
330
1F
100
AcDbEntity
  8
圖層4尺寸線
100
AcDbLine
 10
2258.800036190351
 20
1725.021073775122
 30
0.0
 11
2258.800036190351
 21
1724.021073775122
 31
0.0
  0
ARC
  5
7847
330
1F
100
AcDbEntity
  8
圖層4尺寸線
100
AcDbCircle
 10
2258.800036190351
 20
1726.545261611126
 30
0.0
 40
1.52418783600342
100
AcDbArc
 50
90.0
 51
270.0
  0
ARC
  5
7848
330
1F
100
AcDbEntity
  8
圖層4尺寸線
100
AcDbCircle
 10
2258.800036190351
 20
1726.545261611126
 30
0.0
 40
2.52418783600342
100
AcDbArc
 50
90.0
 51
270.0
  0
LINE
  5
7849
330
1F
100
AcDbEntity
  8
圖層4尺寸線
100
AcDbLine
 10
2258.800036190351
 20
1729.069449447129
 30
0.0
 11
2258.800036190351
 21
1728.069449447129
 31
0.0
  0
LINE
  5
784A
330
1F
100
AcDbEntity
  8
圖層4尺寸線
100
AcDbLine
 10
2255.363432367809
 20
1723.329505088288
 30
0.0
 11
2255.363432367809
 21
1729.761018133963
 31
0.0
  0
LINE
  5
784B
330
1F
100
AcDbEntity
  8
圖層4尺寸線
100
AcDbLine
 10
2264.792972584555
 20
1725.021073775122
 30
0.0
 11
2264.792972584555
 21
1724.021073775122
 31
0.0
  0
ARC
  5
784C
330
1F
100
AcDbEntity
  8
圖層4尺寸線
100
AcDbCircle
 10
2264.792972584555
 20
1726.545261611126
 30
0.0
 40
1.52418783600342
100
AcDbArc
 50
270.0
 51
90.0
  0
ARC
  5
784D
330
1F
100
AcDbEntity
  8
圖層4尺寸線
100
AcDbCircle
 10
2264.792972584555
 20
1726.545261611126
 30
0.0
 40
2.52418783600342
100
AcDbArc
 50
270.0
 51
90.0
  0
LINE
  5
784E
330
1F
100
AcDbEntity
  8
圖層4尺寸線
100
AcDbLine
 10
2264.792972584555
 20
1729.069449447129
 30
0.0
 11
2264.792972584555
 21
1728.069449447129
 31
0.0
  0
LINE
  5
784F
330
1F
100
AcDbEntity
  8
圖層4尺寸線
100
AcDbLine
 10
2268.024917340308
 20
1729.761018133963
 30
0.0
 11
2268.024917340309
 21
1723.329505088288
 31
0.0
  0
LINE
  5
7850
330
1F
100
AcDbEntity
  8
圖層4尺寸線
100
AcDbLine
 10
2244.618939833575
 20
1764.329505088288
 30
0.0
 11
2244.618939833575
 21
1770.329505088288
 31
0.0
  0
LINE
  5
7851
330
1F
100
AcDbEntity
  8
圖層4尺寸線
100
AcDbLine
 10
2241.618939833576
 20
1767.329505088288
 30
0.0
 11
2247.618939833575
 21
1767.329505088288
 31
0.0
  0
CIRCLE
  5
7852
330
1F
100
AcDbEntity
  8
圖層4尺寸線
100
AcDbCircle
 10
2244.618939833575
 20
1767.329505088288
 30
0.0
 40
3.0
  0
LINE
  5
7853
330
1F
100
AcDbEntity
  8
圖層4尺寸線
100
AcDbLine
 10
2289.618939833576
 20
1773.329505088288
 30
0.0
 11
2291.973041799825
 21
1773.329505088288
 31
0.0
  0
LINE
  5
7854
330
1F
100
AcDbEntity
  8
圖層4尺寸線
100
AcDbLine
 10
2289.618939833576
 20
1775.329505088288
 30
0.0
 11
2291.973041799825
 21
1775.329505088288
 31
0.0
  0
LINE
  5
7855
330
1F
100
AcDbEntity
  8
圖層4尺寸線
100
AcDbLine
 10
2287.618939833576
 20
1773.329505088288
 30
0.0
 11
2287.618939833576
 21
1772.597454280719
 31
0.0
  0
LINE
  5
7856
330
1F
100
AcDbEntity
  8
圖層4尺寸線
100
AcDbLine
 10
2287.618939833576
 20
1776.061555895857
 30
0.0
 11
2287.618939833576
 21
1775.329505088288
 31
0.0
  0
LINE
  5
7857
330
1F
100
AcDbEntity
  8
圖層4尺寸線
100
AcDbLine
 10
2285.264837867326
 20
1775.329505088288
 30
0.0
 11
2287.618939833576
 21
1775.329505088288
 31
0.0
  0
LINE
  5
7858
330
1F
100
AcDbEntity
  8
圖層4尺寸線
100
AcDbLine
 10
2285.264837867326
 20
1773.329505088288
 30
0.0
 11
2287.618939833576
 21
1773.329505088288
 31
0.0
  0
ARC
  5
7859
330
1F
100
AcDbEntity
  8
圖層4尺寸線
100
AcDbCircle
 10
2288.618939833575
 20
1774.329505088288
 30
0.0
 40
3.5
100
AcDbArc
 50
163.3984504009703
 51
196.6015495990296
  0
LINE
  5
785A
330
1F
100
AcDbEntity
  8
圖層4尺寸線
100
AcDbLine
 10
2289.618939833576
 20
1773.329505088288
 30
0.0
 11
2289.618939833576
 21
1772.597454280719
 31
0.0
  0
LINE
  5
785B
330
1F
100
AcDbEntity
  8
圖層4尺寸線
100
AcDbLine
 10
2289.618939833576
 20
1776.061555895857
 30
0.0
 11
2289.618939833576
 21
1775.329505088288
 31
0.0
  0
ARC
  5
785C
330
1F
100
AcDbEntity
  8
圖層4尺寸線
100
AcDbCircle
 10
2288.618939833575
 20
1774.329505088288
 30
0.0
 40
2.0
100
AcDbArc
 50
60.00000000000272
 51
119.9999999999973
  0
ARC
  5
785D
330
1F
100
AcDbEntity
  8
圖層4尺寸線
100
AcDbCircle
 10
2288.618939833575
 20
1774.329505088288
 30
0.0
 40
2.0
100
AcDbArc
 50
240.0000000000027
 51
299.9999999999973
  0
ARC
  5
785E
330
1F
100
AcDbEntity
  8
圖層4尺寸線
100
AcDbCircle
 10
2288.618939833575
 20
1774.329505088288
 30
0.0
 40
3.5
100
AcDbArc
 50
343.3984504009828
 51
16.60154959902968
  0
ENDSEC
  0
SECTION
  2
OBJECTS
  0
DICTIONARY
  5
C
330
0
100
AcDbDictionary
281
     1
  3
ACAD_COLOR
350
BE
  3
ACAD_GROUP
350
D
  3
ACAD_LAYOUT
350
1A
  3
ACAD_MATERIAL
350
BD
  3
ACAD_MLINESTYLE
350
17
  3
ACAD_PLOTSETTINGS
350
19
  3
ACAD_PLOTSTYLENAME
350
E
  3
ACAD_TABLESTYLE
350
11A
  3
ACDBHEADERROUNDTRIPXREC
350
7911
  3
AcDbVariableDictionary
350
94
  3
AcmDictionary
350
5B
  3
AMG
350
41
  3
AMGSNAPSETTINGS
350
1B8
  3
DWGPROPS
350
7910
  0
DICTIONARY
  5
3F9
330
2
100
AcDbDictionary
280
     1
281
     1
  3
ACAD_LAYERFILTERS
360
63AB
  3
ACAD_LAYERSTATES
360
72C
  3
ACLYDICTIONARY
360
63AA
  0
DICTIONARY
  5
8F
330
1F
100
AcDbDictionary
280
     1
281
     1
  0
DICTIONARY
  5
B46
330
B39
100
AcDbDictionary
280
     1
281
     1
  3
ACAD_DIMASSOC
360
B47
  0
DICTIONARY
  5
BED
330
BE0
100
AcDbDictionary
280
     1
281
     1
  3
ACAD_DIMASSOC
360
BEE
  0
DICTIONARY
  5
C13
330
C06
100
AcDbDictionary
280
     1
281
     1
  3
ACAD_DIMASSOC
360
C14
  0
DICTIONARY
  5
C63
330
C56
100
AcDbDictionary
280
     1
281
     1
  3
ACAD_DIMASSOC
360
C64
  0
DICTIONARY
  5
E31
330
E22
100
AcDbDictionary
280
     1
281
     1
  3
ACAD_DIMASSOC
360
E32
  0
DICTIONARY
  5
E59
330
E4C
100
AcDbDictionary
280
     1
281
     1
  3
ACAD_DIMASSOC
360
E5A
  0
DICTIONARY
  5
E8D
330
E80
100
AcDbDictionary
280
     1
281
     1
  3
ACAD_DIMASSOC
360
E8E
  0
DICTIONARY
  5
FBE
330
FAF
100
AcDbDictionary
280
     1
281
     1
  3
ACAD_DIMASSOC
360
FBF
  0
DICTIONARY
  5
1018
330
1009
100
AcDbDictionary
280
     1
281
     1
  3
ACAD_DIMASSOC
360
1019
  0
DICTIONARY
  5
104A
330
103D
100
AcDbDictionary
280
     1
281
     1
  3
ACAD_DIMASSOC
360
104B
  0
DICTIONARY
  5
14CC
330
14BD
100
AcDbDictionary
280
     1
281
     1
  3
ACAD_DIMASSOC
360
14CD
  0
DICTIONARY
  5
14F6
330
14E7
100
AcDbDictionary
280
     1
281
     1
  3
ACAD_DIMASSOC
360
14F7
  0
DICTIONARY
  5
1520
330
1511
100
AcDbDictionary
280
     1
281
     1
  3
ACAD_DIMASSOC
360
1521
  0
DICTIONARY
  5
154A
330
153B
100
AcDbDictionary
280
     1
281
     1
  3
ACAD_DIMASSOC
360
154B
  0
DICTIONARY
  5
BE
102
{ACAD_REACTORS
330
C
102
}
330
C
100
AcDbDictionary
281
     1
  0
DICTIONARY
  5
D
102
{ACAD_REACTORS
330
C
102
}
330
C
100
AcDbDictionary
281
     1
  0
DICTIONARY
  5
1A
102
{ACAD_REACTORS
330
C
102
}
330
C
100
AcDbDictionary
281
     1
  3
Model
350
22
  3
配置1
350
1E
  3
配置2
350
26
  0
DICTIONARY
  5
BD
102
{ACAD_REACTORS
330
C
102
}
330
C
100
AcDbDictionary
281
     1
  0
DICTIONARY
  5
17
102
{ACAD_REACTORS
330
C
102
}
330
C
100
AcDbDictionary
281
     1
  3
Standard
350
18
  0
DICTIONARY
  5
19
102
{ACAD_REACTORS
330
C
102
}
330
C
100
AcDbDictionary
281
     1
  0
ACDBDICTIONARYWDFLT
  5
E
102
{ACAD_REACTORS
330
C
102
}
330
C
100
AcDbDictionary
281
     1
  3
Normal
350
F
  3
型式 1
350
728
  3
型式 2
350
729
  3
型式 3
350
72A
  3
型式 4
350
72B
100
AcDbDictionaryWithDefault
340
F
  0
DICTIONARY
  5
11A
102
{ACAD_REACTORS
330
C
102
}
330
C
100
AcDbDictionary
281
     1
  3
Standard
350
11B
  0
DICTIONARY
  5
7911
102
{ACAD_REACTORS
330
C
102
}
330
C
100
AcDbDictionary
281
     1
  0
DICTIONARY
  5
94
102
{ACAD_REACTORS
330
C
102
}
330
C
100
AcDbDictionary
281
     1
  3
CTABLESTYLE
350
138
  3
DIMASSOC
350
96
  3
INDEXCTL
350
95
  3
PROJECTNAME
350
790E
  0
DICTIONARY
  5
5B
102
{ACAD_REACTORS
330
C
102
}
330
C
100
AcDbDictionary
281
     1
  3
AcmBOM
350
1B5
  3
AcmStdDictionary
350
61
  3
AMDTSECTSYM_ARROWCOLOR
350
123
  0
DICTIONARY
  5
41
102
{ACAD_REACTORS
330
C
102
}
330
C
100
AcDbDictionary
281
     1
  0
DICTIONARY
  5
1B8
102
{ACAD_REACTORS
330
C
102
}
330
C
100
AcDbDictionary
281
     1
  0
XRECORD
  5
7910
102
{ACAD_REACTORS
330
C
102
}
330
C
100
AcDbXrecord
280
     1
  1
DWGPROPS COOKIE
  2

  3

  4

  6

  7

  8

  9

300
AmdtFileType=84
301
=
302
=
303
=
304
=
305
=
306
=
307
=
308
=
309
=
 40
0.2705414467592593
 41
2453556.605858461
 42
2453557.596592882
  1

 90
        1
  0
DICTIONARY
  5
63AB
102
{ACAD_REACTORS
330
3F9
102
}
330
3F9
100
AcDbDictionary
281
     1
  0
DICTIONARY
  5
72C
102
{ACAD_REACTORS
330
3F9
102
}
330
3F9
100
AcDbDictionary
281
     1
  0
DICTIONARY
  5
63AA
102
{ACAD_REACTORS
330
3F9
102
}
330
3F9
100
AcDbDictionary
281
     1
1001
ACAD
1000
<All
  0
DIMASSOC
  5
B47
102
{ACAD_REACTORS
330
B46
102
}
330
B46
100
AcDbDimAssoc
330
B39
 90
        3
 70
     0
 71
     0
  1
AcDbOsnapPointRef
 72
    13
331
A2B
 73
     0
 91
        0
 40
0.0
 10
0.0
 20
0.0
 30
2.000000000000000E+50
 75
     0
  1
AcDbOsnapPointRef
 72
    13
331
AE9
 73
     0
 91
        0
 40
0.0
 10
0.0
 20
0.0
 30
2.000000000000000E+50
 75
     0
  0
DIMASSOC
  5
BEE
102
{ACAD_REACTORS
330
BED
102
}
330
BED
100
AcDbDimAssoc
330
BE0
 90
        2
 70
     0
 71
     0
  1
AcDbOsnapPointRef
 72
    13
331
91A
 73
     0
 91
        0
 40
0.0
 10
0.0
 20
0.0
 30
2.000000000000000E+50
 75
     0
  0
DIMASSOC
  5
C14
102
{ACAD_REACTORS
330
C13
102
}
330
C13
100
AcDbDimAssoc
330
C06
 90
        2
 70
     0
 71
     0
  1
AcDbOsnapPointRef
 72
     1
331
92E
 73
     0
 91
        0
 40
0.0
 10
0.0
 20
0.0
 30
2.000000000000000E+50
 75
     0
  0
DIMASSOC
  5
C64
102
{ACAD_REACTORS
330
C63
102
}
330
C63
100
AcDbDimAssoc
330
C56
 90
        2
 70
     0
 71
     0
  1
AcDbOsnapPointRef
 72
    13
331
933
 73
     0
 91
        0
 40
0.0
 10
0.0
 20
0.0
 30
2.000000000000000E+50
 75
     0
  0
DIMASSOC
  5
E32
102
{ACAD_REACTORS
330
E31
102
}
330
E31
100
AcDbDimAssoc
330
E22
 90
        3
 70
     0
 71
     0
  1
AcDbOsnapPointRef
 72
     1
331
92E
 73
     0
 91
        0
 40
0.0
 10
0.0
 20
0.0
 30
2.000000000000000E+50
 75
     0
  1
AcDbOsnapPointRef
 72
     1
331
A30
 73
     0
 91
        0
 40
0.0
 10
0.0
 20
0.0
 30
2.000000000000000E+50
 75
     0
  0
DIMASSOC
  5
E5A
102
{ACAD_REACTORS
330
E59
102
}
330
E59
100
AcDbDimAssoc
330
E4C
 90
        1
 70
     0
 71
     0
  1
AcDbOsnapPointRef
 72
    13
331
A79
 73
     0
 91
        0
 40
0.0
 10
0.0
 20
0.0
 30
2.000000000000000E+50
 75
     0
  0
DIMASSOC
  5
E8E
102
{ACAD_REACTORS
330
E8D
102
}
330
E8D
100
AcDbDimAssoc
330
E80
 90
        1
 70
     0
 71
     0
  1
AcDbOsnapPointRef
 72
     1
331
9CC
 73
     0
 91
        0
 40
0.0
 10
0.0
 20
0.0
 30
2.000000000000000E+50
 75
     0
  0
DIMASSOC
  5
FBF
102
{ACAD_REACTORS
330
FBE
102
}
330
FBE
100
AcDbDimAssoc
330
FAF
 90
        3
 70
     0
 71
     0
  1
AcDbOsnapPointRef
 72
    13
331
F90
 73
     0
 91
        0
 40
0.0
 10
0.0
 20
0.0
 30
2.000000000000000E+50
 75
     0
  1
AcDbOsnapPointRef
 72
    13
331
F91
 73
     0
 91
        0
 40
0.0
 10
0.0
 20
0.0
 30
2.000000000000000E+50
 75
     0
  0
DIMASSOC
  5
1019
102
{ACAD_REACTORS
330
1018
102
}
330
1018
100
AcDbDimAssoc
330
1009
 90
        3
 70
     0
 71
     0
  1
AcDbOsnapPointRef
 72
    13
331
F83
 73
     0
 91
        0
 40
0.0
 10
0.0
 20
0.0
 30
2.000000000000000E+50
 75
     0
  1
AcDbOsnapPointRef
 72
    13
331
F8F
 73
     0
 91
        0
 40
0.0
 10
0.0
 20
0.0
 30
2.000000000000000E+50
 75
     0
  0
DIMASSOC
  5
104B
102
{ACAD_REACTORS
330
104A
102
}
330
104A
100
AcDbDimAssoc
330
103D
 90
        3
 70
     0
 71
     0
  1
AcDbOsnapPointRef
 72
    13
331
F83
 73
     0
 91
        0
 40
0.0
 10
0.0
 20
0.0
 30
2.000000000000000E+50
 75
     0
  1
AcDbOsnapPointRef
 72
    13
331
F92
 73
     0
 91
        0
 40
0.0
 10
0.0
 20
0.0
 30
2.000000000000000E+50
 75
     0
  0
DIMASSOC
  5
14CD
102
{ACAD_REACTORS
330
14CC
102
}
330
14CC
100
AcDbDimAssoc
330
14BD
 90
        3
 70
     0
 71
     0
  1
AcDbOsnapPointRef
 72
    13
331
149B
 73
     0
 91
        0
 40
0.0
 10
0.0
 20
0.0
 30
2.000000000000000E+50
 75
     0
  1
AcDbOsnapPointRef
 72
     1
331
149D
 73
     0
 91
        0
 40
0.0
 10
0.0
 20
0.0
 30
2.000000000000000E+50
 75
     0
  0
DIMASSOC
  5
14F7
102
{ACAD_REACTORS
330
14F6
102
}
330
14F6
100
AcDbDimAssoc
330
14E7
 90
        3
 70
     0
 71
     0
  1
AcDbOsnapPointRef
 72
    13
331
14A2
 73
     0
 91
        0
 40
0.0
 10
0.0
 20
0.0
 30
2.000000000000000E+50
 75
     0
  1
AcDbOsnapPointRef
 72
    13
331
14A3
 73
     0
 91
        0
 40
0.0
 10
0.0
 20
0.0
 30
2.000000000000000E+50
 75
     0
  0
DIMASSOC
  5
1521
102
{ACAD_REACTORS
330
1520
102
}
330
1520
100
AcDbDimAssoc
330
1511
 90
        3
 70
     0
 71
     0
  1
AcDbOsnapPointRef
 72
     1
331
14A3
 73
     0
 91
        0
 40
0.0
 10
0.0
 20
0.0
 30
2.000000000000000E+50
 75
     0
  1
AcDbOsnapPointRef
 72
     1
331
149E
 73
     0
 91
        0
 40
0.0
 10
0.0
 20
0.0
 30
2.000000000000000E+50
 75
     0
  0
DIMASSOC
  5
154B
102
{ACAD_REACTORS
330
154A
102
}
330
154A
100
AcDbDimAssoc
330
153B
 90
        3
 70
     0
 71
     0
  1
AcDbOsnapPointRef
 72
     1
331
149B
 73
     0
 91
        0
 40
0.0
 10
0.0
 20
0.0
 30
2.000000000000000E+50
 75
     0
  1
AcDbOsnapPointRef
 72
    13
331
149B
 73
     0
 91
        0
 40
0.0
 10
0.0
 20
0.0
 30
2.000000000000000E+50
 75
     0
  0
LAYOUT
  5
22
102
{ACAD_XDICTIONARY
360
7914
102
}
102
{ACAD_REACTORS
330
1A
102
}
330
1A
100
AcDbPlotSettings
  1

  2
\\RD\EPSON Stylus C63 Series單色
  4
A4
  6

 40
3.757083177566528
 41
3.757076978683471
 42
3.757080078125
 43
3.757080078125
 44
209.9733276367187
 45
296.9683227539062
 46
0.0
 47
0.0
 48
0.0
 49
0.0
140
0.0
141
0.0
142
1.0
143
0.3405120737814363
 70
 11952
 72
     1
 73
     0
 74
     0
  7
單色出圖.ctb
 75
     0
147
2.936753428137963
148
-2047.07469463503
149
-1261.649717473083
100
AcDbLayout
  1
Model
 70
     1
 71
     0
 10
0.0
 20
0.0
 11
12.0
 21
9.0
 12
0.0
 22
0.0
 32
0.0
 14
0.0
 24
0.0
 34
0.0
 15
0.0
 25
0.0
 35
0.0
146
0.0
 13
0.0
 23
0.0
 33
0.0
 16
1.0
 26
0.0
 36
0.0
 17
0.0
 27
1.0
 37
0.0
 76
     0
330
1F
1001
ACAD_PSEXT
1000
\\RD\EPSON Stylus C63 Series單色
1000
EPSON Stylus C63 Series
1000
\\RD
1000

1070
     0
  0
LAYOUT
  5
1E
102
{ACAD_XDICTIONARY
360
7912
102
}
102
{ACAD_REACTORS
330
1A
102
}
330
1A
100
AcDbPlotSettings
  1

  2

  4

  6

 40
0.0
 41
0.0
 42
0.0
 43
0.0
 44
0.0
 45
0.0
 46
0.0
 47
0.0
 48
0.0
 49
0.0
140
0.0
141
0.0
142
1.0
143
1.0
 70
   688
 72
     0
 73
     0
 74
     5
  7
單色出圖.ctb
 75
    16
147
1.0
148
0.0
149
0.0
100
AcDbLayout
  1
配置1
 70
     1
 71
     1
 10
0.0
 20
0.0
 11
420.0
 21
297.0
 12
0.0
 22
0.0
 32
0.0
 14
1.000000000000000E+20
 24
1.000000000000000E+20
 34
1.000000000000000E+20
 15
-1.000000000000000E+20
 25
-1.000000000000000E+20
 35
-1.000000000000000E+20
146
0.0
 13
0.0
 23
0.0
 33
0.0
 16
1.0
 26
0.0
 36
0.0
 17
0.0
 27
1.0
 37
0.0
 76
     0
330
1B
  0
LAYOUT
  5
26
102
{ACAD_XDICTIONARY
360
7916
102
}
102
{ACAD_REACTORS
330
1A
102
}
330
1A
100
AcDbPlotSettings
  1

  2

  4

  6

 40
0.0
 41
0.0
 42
0.0
 43
0.0
 44
0.0
 45
0.0
 46
0.0
 47
0.0
 48
0.0
 49
0.0
140
0.0
141
0.0
142
1.0
143
1.0
 70
   688
 72
     0
 73
     0
 74
     5
  7
單色出圖.ctb
 75
    16
147
1.0
148
0.0
149
0.0
100
AcDbLayout
  1
配置2
 70
     1
 71
     2
 10
0.0
 20
0.0
 11
12.0
 21
9.0
 12
0.0
 22
0.0
 32
0.0
 14
0.0
 24
0.0
 34
0.0
 15
0.0
 25
0.0
 35
0.0
146
0.0
 13
0.0
 23
0.0
 33
0.0
 16
1.0
 26
0.0
 36
0.0
 17
0.0
 27
1.0
 37
0.0
 76
     0
330
23
  0
MLINESTYLE
  5
18
102
{ACAD_REACTORS
330
17
102
}
330
17
100
AcDbMlineStyle
  2
STANDARD
 70
     0
  3

 62
   256
 51
90.0
 52
90.0
 71
     2
 49
0.5
 62
   256
  6
BYLAYER
 49
-0.5
 62
   256
  6
BYLAYER
  0
ACDBPLACEHOLDER
  5
F
102
{ACAD_REACTORS
330
E
102
}
330
E
  0
ACDBPLACEHOLDER
  5
728
102
{ACAD_REACTORS
330
E
102
}
330
E
  0
ACDBPLACEHOLDER
  5
729
102
{ACAD_REACTORS
330
E
102
}
330
E
  0
ACDBPLACEHOLDER
  5
72A
102
{ACAD_REACTORS
330
E
102
}
330
E
  0
ACDBPLACEHOLDER
  5
72B
102
{ACAD_REACTORS
330
E
102
}
330
E
  0
TABLESTYLE
  5
11B
102
{ACAD_REACTORS
330
11A
102
}
330
11A
100
AcDbTableStyle
  3
Standard
 70
     0
 71
     0
 40
1.5
 41
1.5
280
     0
281
     0
  7
STANDARD
140
4.5
170
     2
 62
     0
 63
     7
283
     0
274
    -2
284
     1
 64
     0
275
    -2
285
     1
 65
     0
276
    -2
286
     1
 66
     0
277
    -2
287
     1
 67
     0
278
    -2
288
     1
 68
     0
279
    -2
289
     1
 69
     0
  7
STANDARD
140
6.0
170
     5
 62
     0
 63
     7
283
     0
274
    -2
284
     1
 64
     0
275
    -2
285
     1
 65
     0
276
    -2
286
     1
 66
     0
277
    -2
287
     1
 67
     0
278
    -2
288
     1
 68
     0
279
    -2
289
     1
 69
     0
  7
STANDARD
140
4.5
170
     5
 62
     0
 63
     7
283
     0
274
    -2
284
     1
 64
     0
275
    -2
285
     1
 65
     0
276
    -2
286
     1
 66
     0
277
    -2
287
     1
 67
     0
278
    -2
288
     1
 68
     0
279
    -2
289
     1
 69
     0
  0
DICTIONARYVAR
  5
138
102
{ACAD_REACTORS
330
94
102
}
330
94
100
DictionaryVariables
280
     0
  1
STANDARD
  0
DICTIONARYVAR
  5
96
102
{ACAD_REACTORS
330
94
102
}
330
94
100
DictionaryVariables
280
     0
  1
2
  0
DICTIONARYVAR
  5
95
102
{ACAD_REACTORS
330
94
102
}
330
94
100
DictionaryVariables
280
     0
  1
0
  0
DICTIONARYVAR
  5
790E
102
{ACAD_REACTORS
330
94
102
}
330
94
100
DictionaryVariables
280
     0
  1

  0
DICTIONARY
  5
1B5
102
{ACAD_REACTORS
330
5B
102
}
330
5B
100
AcDbDictionary
281
     1
  0
DICTIONARY
  5
61
102
{ACAD_REACTORS
330
5B
102
}
330
5B
100
AcDbDictionary
281
     1
  0
XRECORD
  5
123
102
{ACAD_REACTORS
330
5B
102
}
330
5B
100
AcDbXrecord
280
     1
 90
-1023410169
  0
DICTIONARY
  5
7914
330
22
100
AcDbDictionary
280
     1
281
     1
  3
ACAD_XREC_ROUNDTRIP
360
7915
  0
DICTIONARY
  5
7912
330
1E
100
AcDbDictionary
280
     1
281
     1
  3
ACAD_XREC_ROUNDTRIP
360
7913
  0
DICTIONARY
  5
7916
330
26
100
AcDbDictionary
280
     1
281
     1
  3
ACAD_XREC_ROUNDTRIP
360
7917
  0
XRECORD
  5
7915
102
{ACAD_REACTORS
330
7914
102
}
330
7914
100
AcDbXrecord
280
     1
102
SHADEPLOT
 70
     0
102
SHADEPLOTRESLEVEL
 70
     2
102
SHADEPLOTCUSTOMDPI
 70
   300
  0
XRECORD
  5
7913
102
{ACAD_REACTORS
330
7912
102
}
330
7912
100
AcDbXrecord
280
     1
102
SHADEPLOT
 70
     0
102
SHADEPLOTRESLEVEL
 70
     2
102
SHADEPLOTCUSTOMDPI
 70
   300
  0
XRECORD
  5
7917
102
{ACAD_REACTORS
330
7916
102
}
330
7916
100
AcDbXrecord
280
     1
102
SHADEPLOT
 70
     0
102
SHADEPLOTRESLEVEL
 70
     2
102
SHADEPLOTCUSTOMDPI
 70
   300
  0
ENDSEC
  0
EOF
