  0
SECTION
  2
HEADER
  9
$ACADVER
  1
AC1015
  9
$ACADMAINTVER
 70
    20
  9
$DWGCODEPAGE
  3
ANSI_950
  9
$INSBASE
 10
0.0
 20
0.0
 30
0.0
  9
$EXTMIN
 10
815.3926836577866
 20
151.0320332496567
 30
-0.0174818147752376
  9
$EXTMAX
 10
2138.166904233794
 20
1922.607216998056
 30
1146.510482780989
  9
$LIMMIN
 10
0.0
 20
0.0
  9
$LIMMAX
 10
420.0
 20
297.0
  9
$ORTHOMODE
 70
     0
  9
$REGENMODE
 70
     1
  9
$FILLMODE
 70
     1
  9
$QTEXTMODE
 70
     0
  9
$MIRRTEXT
 70
     1
  9
$LTSCALE
 40
1.0
  9
$ATTMODE
 70
     1
  9
$TEXTSIZE
 40
3.0
  9
$TRACEWID
 40
1.0
  9
$TEXTSTYLE
  7
CHINESET
  9
$CLAYER
  8
0
  9
$CELTYPE
  6
ByLayer
  9
$CECOLOR
 62
   256
  9
$CELTSCALE
 40
1.0
  9
$DISPSILH
 70
     0
  9
$DIMSCALE
 40
1.0
  9
$DIMASZ
 40
20.0
  9
$DIMEXO
 40
3.0
  9
$DIMDLI
 40
50.0
  9
$DIMRND
 40
0.0
  9
$DIMDLE
 40
0.0
  9
$DIMEXE
 40
4.0
  9
$DIMTP
 40
0.1
  9
$DIMTM
 40
0.1
  9
$DIMTXT
 40
20.0
  9
$DIMCEN
 40
0.0
  9
$DIMTSZ
 40
0.0
  9
$DIMTOL
 70
     0
  9
$DIMLIM
 70
     0
  9
$DIMTIH
 70
     0
  9
$DIMTOH
 70
     0
  9
$DIMSE1
 70
     0
  9
$DIMSE2
 70
     0
  9
$DIMTAD
 70
     1
  9
$DIMZIN
 70
     8
  9
$DIMBLK
  1

  9
$DIMASO
 70
     1
  9
$DIMSHO
 70
     1
  9
$DIMPOST
  1

  9
$DIMAPOST
  1
"
  9
$DIMALT
 70
     0
  9
$DIMALTD
 70
     2
  9
$DIMALTF
 40
0.0393701
  9
$DIMLFAC
 40
1.0
  9
$DIMTOFL
 70
     1
  9
$DIMTVP
 40
0.0
  9
$DIMTIX
 70
     0
  9
$DIMSOXD
 70
     0
  9
$DIMSAH
 70
     0
  9
$DIMBLK1
  1

  9
$DIMBLK2
  1

  9
$DIMSTYLE
  2
AM_ISO
  9
$DIMCLRD
 70
   256
  9
$DIMCLRE
 70
   256
  9
$DIMCLRT
 70
   256
  9
$DIMTFAC
 40
0.71
  9
$DIMGAP
 40
6.0
  9
$DIMJUST
 70
     0
  9
$DIMSD1
 70
     0
  9
$DIMSD2
 70
     0
  9
$DIMTOLJ
 70
     2
  9
$DIMTZIN
 70
     8
  9
$DIMALTZ
 70
     0
  9
$DIMALTTZ
 70
     0
  9
$DIMUPT
 70
     0
  9
$DIMDEC
 70
     2
  9
$DIMTDEC
 70
     8
  9
$DIMALTU
 70
     2
  9
$DIMALTTD
 70
     2
  9
$DIMTXSTY
  7
STANDARD
  9
$DIMAUNIT
 70
     0
  9
$DIMADEC
 70
     0
  9
$DIMALTRND
 40
0.0
  9
$DIMAZIN
 70
     2
  9
$DIMDSEP
 70
    46
  9
$DIMATFIT
 70
     3
  9
$DIMFRAC
 70
     0
  9
$DIMLDRBLK
  1

  9
$DIMLUNIT
 70
     2
  9
$DIMLWD
 70
    -1
  9
$DIMLWE
 70
    -1
  9
$DIMTMOVE
 70
     0
  9
$LUNITS
 70
     2
  9
$LUPREC
 70
     2
  9
$SKETCHINC
 40
1.0
  9
$FILLETRAD
 40
2.5
  9
$AUNITS
 70
     0
  9
$AUPREC
 70
     0
  9
$MENU
  1
.
  9
$ELEVATION
 40
0.0
  9
$PELEVATION
 40
0.0
  9
$THICKNESS
 40
0.0
  9
$LIMCHECK
 70
     0
  9
$CHAMFERA
 40
2.5
  9
$CHAMFERB
 40
2.5
  9
$CHAMFERC
 40
20.0
  9
$CHAMFERD
 40
0.0
  9
$SKPOLY
 70
     0
  9
$TDCREATE
 40
2453556.605858461
  9
$TDUCREATE
 40
2453556.272525128
  9
$TDUPDATE
 40
2453557.595901331
  9
$TDUUPDATE
 40
2453557.262567998
  9
$TDINDWG
 40
0.2719610764
  9
$TDUSRTIMER
 40
0.2719609028
  9
$USRTIMER
 70
     1
  9
$ANGBASE
 50
0.0
  9
$ANGDIR
 70
     0
  9
$PDMODE
 70
     0
  9
$PDSIZE
 40
0.0
  9
$PLINEWID
 40
0.0
  9
$SPLFRAME
 70
     0
  9
$SPLINETYPE
 70
     6
  9
$SPLINESEGS
 70
     8
  9
$HANDSEED
  5
79CF
  9
$SURFTAB1
 70
     6
  9
$SURFTAB2
 70
     6
  9
$SURFTYPE
 70
     6
  9
$SURFU
 70
     6
  9
$SURFV
 70
     6
  9
$UCSBASE
  2

  9
$UCSNAME
  2

  9
$UCSORG
 10
0.0
 20
0.0
 30
0.0
  9
$UCSXDIR
 10
1.0
 20
0.0
 30
0.0
  9
$UCSYDIR
 10
0.0
 20
1.0
 30
0.0
  9
$UCSORTHOREF
  2

  9
$UCSORTHOVIEW
 70
     0
  9
$UCSORGTOP
 10
0.0
 20
0.0
 30
0.0
  9
$UCSORGBOTTOM
 10
0.0
 20
0.0
 30
0.0
  9
$UCSORGLEFT
 10
0.0
 20
0.0
 30
0.0
  9
$UCSORGRIGHT
 10
0.0
 20
0.0
 30
0.0
  9
$UCSORGFRONT
 10
0.0
 20
0.0
 30
0.0
  9
$UCSORGBACK
 10
0.0
 20
0.0
 30
0.0
  9
$PUCSBASE
  2

  9
$PUCSNAME
  2

  9
$PUCSORG
 10
0.0
 20
0.0
 30
0.0
  9
$PUCSXDIR
 10
1.0
 20
0.0
 30
0.0
  9
$PUCSYDIR
 10
0.0
 20
1.0
 30
0.0
  9
$PUCSORTHOREF
  2

  9
$PUCSORTHOVIEW
 70
     0
  9
$PUCSORGTOP
 10
0.0
 20
0.0
 30
0.0
  9
$PUCSORGBOTTOM
 10
0.0
 20
0.0
 30
0.0
  9
$PUCSORGLEFT
 10
0.0
 20
0.0
 30
0.0
  9
$PUCSORGRIGHT
 10
0.0
 20
0.0
 30
0.0
  9
$PUCSORGFRONT
 10
0.0
 20
0.0
 30
0.0
  9
$PUCSORGBACK
 10
0.0
 20
0.0
 30
0.0
  9
$USERI1
 70
     0
  9
$USERI2
 70
     0
  9
$USERI3
 70
     0
  9
$USERI4
 70
     0
  9
$USERI5
 70
     0
  9
$USERR1
 40
0.0
  9
$USERR2
 40
0.0
  9
$USERR3
 40
0.0
  9
$USERR4
 40
0.0
  9
$USERR5
 40
0.0
  9
$WORLDVIEW
 70
     1
  9
$SHADEDGE
 70
     3
  9
$SHADEDIF
 70
    70
  9
$TILEMODE
 70
     1
  9
$MAXACTVP
 70
    64
  9
$PINSBASE
 10
0.0
 20
0.0
 30
0.0
  9
$PLIMCHECK
 70
     0
  9
$PEXTMIN
 10
1.000000000000000E+20
 20
1.000000000000000E+20
 30
1.000000000000000E+20
  9
$PEXTMAX
 10
-1.000000000000000E+20
 20
-1.000000000000000E+20
 30
-1.000000000000000E+20
  9
$PLIMMIN
 10
0.0
 20
0.0
  9
$PLIMMAX
 10
420.0
 20
297.0
  9
$UNITMODE
 70
     0
  9
$VISRETAIN
 70
     1
  9
$PLINEGEN
 70
     0
  9
$PSLTSCALE
 70
     1
  9
$TREEDEPTH
 70
  3020
  9
$CMLSTYLE
  2
Standard
  9
$CMLJUST
 70
     0
  9
$CMLSCALE
 40
20.0
  9
$PROXYGRAPHICS
 70
     1
  9
$MEASUREMENT
 70
     1
  9
$CELWEIGHT
370
    -1
  9
$ENDCAPS
280
     0
  9
$JOINSTYLE
280
     0
  9
$LWDISPLAY
290
     0
  9
$INSUNITS
 70
     4
  9
$HYPERLINKBASE
  1

  9
$STYLESHEET
  1
彩色出圖.ctb
  9
$XEDIT
290
     1
  9
$CEPSNTYPE
380
     0
  9
$PSTYLEMODE
290
     1
  9
$FINGERPRINTGUID
  2
{6FBFCDA8-F3CD-4AA6-B64B-DBECB1E66A4A}
  9
$VERSIONGUID
  2
{C4F2C695-085F-4361-A788-00192010D230}
  9
$EXTNAMES
290
     1
  9
$PSVPSCALE
 40
0.0
  9
$OLESTARTUP
290
     0
  0
ENDSEC
  0
SECTION
  2
CLASSES
  0
CLASS
  1
ACDBDICTIONARYWDFLT
  2
AcDbDictionaryWithDefault
  3
ObjectDBX Classes
 90
        0
280
     0
281
     0
  0
CLASS
  1
ACDBPLACEHOLDER
  2
AcDbPlaceHolder
  3
ObjectDBX Classes
 90
        0
280
     0
281
     0
  0
CLASS
  1
LAYOUT
  2
AcDbLayout
  3
ObjectDBX Classes
 90
        0
280
     0
281
     0
  0
CLASS
  1
ACME_DOCUMENT
  2
AcMeDbDoc
  3
AcMeServices
 90
        0
280
     0
281
     0
  0
CLASS
  1
AMGSETTINGSOBJ
  2
AmgSettingsObj
  3
"AcadM|Product Description: AutoCAD Mechanical 2000|Company: Autodesk"
 90
        0
280
     0
281
     0
  0
CLASS
  1
ACMESCOPE
  2
AcMeScope
  3
AcMeServices
 90
        0
280
     0
281
     0
  0
CLASS
  1
ACMECOMMANDHISTORY
  2
AcMeCommandHistory
  3
AcMeServices
 90
        0
280
     0
281
     0
  0
CLASS
  1
ACIMSYSVARMAN
  2
AcImSysVarManager
  3
AcMeServices
 90
        0
280
     0
281
     0
  0
CLASS
  1
ACIMREALSYSVAR
  2
AcImRealSysVar
  3
AcMeServices
 90
        0
280
     0
281
     0
  0
CLASS
  1
ACIMINTSYSVAR
  2
AcImIntSysVar
  3
AcMeServices
 90
        0
280
     0
281
     0
  0
CLASS
  1
ACMEDRAWINGMAN
  2
AcMeDrawingMan
  3
AcMeServices
 90
        0
280
     0
281
     0
  0
CLASS
  1
ACMEVIEW
  2
AcMeView
  3
AcMeServices
 90
        0
280
     0
281
     0
  0
CLASS
  1
ACDBENTITYCACHE
  2
AcMeEntityCache
  3
AcMeServices
 90
        0
280
     0
281
     0
  0
CLASS
  1
GSMANAGER
  2
AcMeGSManager
  3
AcMeServices
 90
        0
280
     0
281
     0
  0
CLASS
  1
AMDTINTERNALREACTOR
  2
AmdtInternalReactor
  3
AcMeServices
 90
        0
280
     0
281
     0
  0
CLASS
  1
ACMESTATEMGR
  2
AcMeStateMgr
  3
AcMeServices
 90
        0
280
     0
281
     0
  0
CLASS
  1
ACGREFMASTER
  2
AcGrefMaster
  3
AcAttribServices
 90
        0
280
     0
281
     0
  0
CLASS
  1
ACME_DATABASE
  2
AcMeDbDatabase
  3
AcMeServices
 90
        0
280
     0
281
     0
  0
CLASS
  1
ACRFINSADJUSTERMGR
  2
AcRfInsAdjusterMgr
  3
AcMeServices
 90
        0
280
     0
281
     0
  0
CLASS
  1
ACGREFACADMASTER
  2
AcGrefacadMaster
  3
AcGrefServices
 90
        0
280
     0
281
     0
  0
CLASS
  1
AMIMASTER
  2
AmiMaster
  3
AmiServices
 90
        0
280
     0
281
     0
  0
CLASS
  1
ACMDATADICTIONARY
  2
AcmDataDictionary
  3
"AcmSymBB|Product Description: AutoCAD Mechanical 2004 DX|Company: Autodesk"
 90
        0
280
     0
281
     0
  0
CLASS
  1
ACMDATAENTRYBLOCK
  2
AcmDataEntryBlock
  3
"AcmSymBB|Product Description: AutoCAD Mechanical 2004 DX|Company: Autodesk"
 90
        0
280
     0
281
     0
  0
CLASS
  1
ACIMSTRSYSVAR
  2
AcImStrSysVar
  3
AcMeServices
 90
        0
280
     0
281
     0
  0
CLASS
  1
ACMSTANDARDISO
  2
AcmStandardISO
  3
"Amdt_StdImp|Product Description: AutoCAD Mechanical 2004 DX|Company: Autodesk"
 90
        0
280
     0
281
     0
  0
CLASS
  1
AMGOBJPROPCFG
  2
AmgObjPropCfg
  3
"AmgLay|Product Description: AutoCAD Mechanical 2000|Company: Autodesk"
 90
        1
280
     0
281
     0
  0
CLASS
  1
AMDTEDGESTANDARDISO
  2
AmdtEdgeStdISO
  3
"Amdt_StdImp|Product Description: AutoCAD Mechanical 2004 DX|Company: Autodesk"
 90
        0
280
     0
281
     0
  0
CLASS
  1
ACMSURFSTANDARDISO
  2
AcmSurfTextStdISO
  3
"Amdt_StdImp|Product Description: AutoCAD Mechanical 2004 DX|Company: Autodesk"
 90
        0
280
     0
281
     0
  0
CLASS
  1
ACMFCFSTANDARDISO
  2
AcmFCFStdISO
  3
"Amdt_StdImp|Product Description: AutoCAD Mechanical 2004 DX|Company: Autodesk"
 90
        0
280
     0
281
     0
  0
CLASS
  1
ACMWELDSTANDARDISO
  2
AcmWeldingStdISO
  3
"Amdt_StdImp|Product Description: AutoCAD Mechanical 2004 DX|Company: Autodesk"
 90
        0
280
     0
281
     0
  0
CLASS
  1
ACMIDSTANDARDISO
  2
AcmIdStdISO
  3
"Amdt_StdImp|Product Description: AutoCAD Mechanical 2004 DX|Company: Autodesk"
 90
        0
280
     0
281
     0
  0
CLASS
  1
ACMDATUMSTANDARDISO
  2
AcmDatumStdISO
  3
"Amdt_StdImp|Product Description: AutoCAD Mechanical 2004 DX|Company: Autodesk"
 90
        0
280
     0
281
     0
  0
CLASS
  1
ACMBOMSTANDARDISO
  2
AcmBOMStdISO
  3
"Amdt_StdImp|Product Description: AutoCAD Mechanical 2004 DX|Company: Autodesk"
 90
        0
280
     0
281
     0
  0
CLASS
  1
ACMDETAILSTANDARDISO
  2
AmdtDetailSymStdISO
  3
"Amdt_StdImp|Product Description: AutoCAD Mechanical 2004 DX|Company: Autodesk"
 90
        0
280
     0
281
     0
  0
CLASS
  1
ACMSECTIONSTANDARDISO
  2
AmdtSectionSymStdISO
  3
"Amdt_StdImp|Product Description: AutoCAD Mechanical 2004 DX|Company: Autodesk"
 90
        0
280
     0
281
     0
  0
CLASS
  1
ACMCENTERLINESTANDARDISO
  2
AmdtCenterLineStdISO
  3
"Amdt_StdImp|Product Description: AutoCAD Mechanical 2004 DX|Company: Autodesk"
 90
        0
280
     0
281
     0
  0
CLASS
  1
ACMNOTESTANDARDISO
  2
AmdtNoteStdISO
  3
"Amdt_StdImp|Product Description: AutoCAD Mechanical 2004 DX|Company: Autodesk"
 90
        0
280
     0
281
     0
  0
CLASS
  1
ACAMGLAYSTD
  2
AcAmgLayStd
  3
"AcAmgLayStd|Product Description: AutoCAD Mechanical 2000|Company: Autodesk"
 90
        0
280
     0
281
     0
  0
CLASS
  1
ACAMGDIMSTD
  2
AcAmgDimStd
  3
"AcAmgDimStd|Product Description: AutoCAD Mechanical 2000|Company: Autodesk"
 90
        0
280
     0
281
     0
  0
CLASS
  1
ACAMGHOLECHARTSTDISO
  2
AcAmgHoleChartStdISO
  3
ACMSYMBB_MODULE_NAME
 90
        0
280
     0
281
     0
  0
CLASS
  1
ACAMGTITLESTD
  2
AcAmgTitleStd
  3
"TITLEAPP"
 90
        0
280
     0
281
     0
  0
CLASS
  1
LAYER_INDEX
  2
AcDbLayerIndex
  3
ObjectDBX Classes
 90
    32768
280
     0
281
     0
  0
CLASS
  1
IDBUFFER
  2
AcDbIdBuffer
  3
ObjectDBX Classes
 90
    32768
280
     0
281
     0
  0
CLASS
  1
DICTIONARYVAR
  2
AcDbDictionaryVar
  3
ObjectDBX Classes
 90
        0
280
     0
281
     0
  0
CLASS
  1
AM_DRAWING_MGR
  2
AcDmDwgMgr
  3
AcMechDwgViewMgmt
 90
        0
280
     0
281
     0
  0
CLASS
  1
AM_DWG_DOCUMENT
  2
AcDmDwgDocument
  3
AcMechDwgViewMgmt
 90
        0
280
     0
281
     0
  0
CLASS
  1
AM_DWG_SHEET
  2
AcDmSheet
  3
AcMechDwgViewMgmt
 90
        0
280
     0
281
     0
  0
CLASS
  1
AM_VIEWDIMPARMAP
  2
AcDmViewDimParMap
  3
AcMechDwgViewMgmt
 90
        0
280
     0
281
     0
  0
CLASS
  1
AM_DWGMGR_NAME
  2
AcDmDwgMgrName
  3
AcMechDwgViewMgmt
 90
        0
280
     0
281
     0
  0
CLASS
  1
AMDTMENUSTATEMGR
  2
AmdtMenuStateMgr
  3
McadcomServices
 90
        0
280
     0
281
     0
  0
CLASS
  1
AMDTMCOMMENUSTATE
  2
AmdtMcomMenuState
  3
McadcomServices
 90
        0
280
     0
281
     0
  0
CLASS
  1
MAPIAMMOUDLE
  2
MApiAmModule
  3
MApiAmServices
 90
        0
280
     0
281
     0
  0
CLASS
  1
AMDTADMENUSTATE
  2
AmdtAdMenuState
  3
DesignerServices
 90
        0
280
     0
281
     0
  0
CLASS
  1
ADAPPL
  2
AcAdAppl
  3
DesignerServices
 90
        0
280
     0
281
     0
  0
CLASS
  1
DEPMGR
  2
AcAdDepMgr
  3
DesignerServices
 90
        0
280
     0
281
     0
  0
CLASS
  1
PARAMMGR
  2
AcAdParamMgr
  3
DesignerServices
 90
        0
280
     0
281
     0
  0
CLASS
  1
PARAMSCOPE
  2
AcAdParamScope
  3
DesignerServices
 90
        0
280
     0
281
     0
  0
CLASS
  1
NAMEDAPPL
  2
AcAdNamedAppl
  3
DesignerServices
 90
        0
280
     0
281
     0
  0
CLASS
  1
AMDTDMMENUSTATE
  2
AmdtDmMenuState
  3
AcMechDwgViewMgmt
 90
        0
280
     0
281
     0
  0
CLASS
  1
AMDTAMMENUSTATE
  2
AmdtAmMenuState
  3
DesignerAssemblies
 90
        0
280
     0
281
     0
  0
CLASS
  1
ACAMPROJECT
  2
AcAmProject
  3
DesignerAssemblies
 90
        0
280
     0
281
     0
  0
CLASS
  1
ACAMGRCOMPDEF
  2
AcAmGrCompDef
  3
DesignerAssemblies
 90
        0
280
     0
281
     0
  0
CLASS
  1
ACCMCONTEXT
  2
AcCmContext
  3
DesignerAssemblies
 90
        0
280
     0
281
     0
  0
CLASS
  1
ACAMCOMPDEF
  2
AcAmCompDef
  3
DesignerAssemblies
 90
        0
280
     0
281
     0
  0
CLASS
  1
ACAMCOMPDEFMGR
  2
AcAmCompDefMgr
  3
DesignerAssemblies
 90
        0
280
     0
281
     0
  0
CLASS
  1
AMCONTEXTMGR
  2
AcAmContextMgr
  3
DesignerAssemblies
 90
        0
280
     0
281
     0
  0
CLASS
  1
ACAMCONTEXTMODELER
  2
AcAmContextModeler
  3
DesignerAssemblies
 90
        0
280
     0
281
     0
  0
CLASS
  1
ACMTHREADLINESTANDARDISO
  2
AmdtThreadLineStdISO
  3
"Amdt_StdImp|Product Description: AutoCAD Mechanical 2004 DX|Company: Autodesk"
 90
        0
280
     0
281
     0
  0
CLASS
  1
CATALOGSTATE
  2
AcAmCatalogState
  3
DesignerAssemblies
 90
        0
280
     0
281
     0
  0
CLASS
  1
ACAMGRCOMPDEFSET
  2
AcAmGrCompDefSet
  3
DesignerAssemblies
 90
        0
280
     0
281
     0
  0
CLASS
  1
AMDTBROWSERDBTAB
  2
AmdtBrowserDbTab
  3
McadcomServices
 90
        0
280
     0
281
     0
  0
CLASS
  1
CBROWSERAPPOBJECT
  2
CBrowserAppObject
  3
McadcomServices
 90
        0
280
     0
281
     0
  0
CLASS
  1
DM_PLACEHOLDER
  2
AcDmSelsetPlaceholder
  3
AcMechDwgViewMgmt
 90
        0
280
     0
281
     0
  0
CLASS
  1
TABLESTYLE
  2
AcDbTableStyle
  3
ObjectDBX Classes
 90
     2047
280
     0
281
     0
  0
CLASS
  1
VAACXREFPANELOBJECT
  2
VaAcXREFPanelObject
  3
VAAC_ADDIN
 90
    32768
280
     0
281
     0
  0
CLASS
  1
VAACIMAGEINVENTORY
  2
VaAcImageInventory
  3
VAAC_ADDIN
 90
    32768
280
     0
281
     0
  0
CLASS
  1
AMDTNOTETEMPLATEDB
  2
AmdtNoteTemplateDB
  3
AMDT_STDIMP_MODULE_NAME
 90
        0
280
     0
281
     0
  0
CLASS
  1
ACMBOM
  2
AcmBom
  3
"AcmSymBB|Product Description: AutoCAD Mechanical 2004 DX|Company: Autodesk"
 90
    32768
280
     0
281
     0
  0
CLASS
  1
AMDTFORMULAUPDATEDISPATCHER
  2
AmdtFormulaUpdateDispatcher
  3
AcMeServices
 90
    32768
280
     0
281
     0
  0
CLASS
  1
ACMPARTLIST
  2
AcmPartList
  3
"AcmSymBB|Product Description: AutoCAD Mechanical 2004 DX|Company: Autodesk"
 90
    33791
280
     0
281
     1
  0
CLASS
  1
ACAMGFILTERDAT
  2
AcAmgFilterDat
  3
"AcadM|Product Description: AutoCAD Mechanical 2000|Company: Autodesk"
 90
        0
280
     0
281
     0
  0
CLASS
  1
DIMASSOC
  2
AcDbDimAssoc
  3
"AcDbDimAssoc|Product Desc:     AcDim ARX App For Dimension|Company:          Autodesk, Inc.|WEB Address:      www.autodesk.com"
 90
        0
280
     0
281
     0
  0
CLASS
  1
ACAMGHOLECHARTORIGIN
  2
AcAmgHoleChartOrigin
  3
ACMSYMBB_MODULE_NAME
 90
    33663
280
     0
281
     1
  0
CLASS
  1
AMDTNOTE
  2
AmdtNote
  3
"AcmSymBB|Product Description: AutoCAD Mechanical 2004 DX|Company: Autodesk"
 90
     1023
280
     0
281
     1
  0
CLASS
  1
ACRFATTGENMGR
  2
AcRfAttGeneralMgr
  3
AcAttribServices
 90
        0
280
     0
281
     0
  0
ENDSEC
  0
SECTION
  2
TABLES
  0
TABLE
  2
VPORT
  5
8
330
0
100
AcDbSymbolTable
 70
     3
  0
VPORT
  5
79C6
330
8
100
AcDbSymbolTableRecord
100
AcDbViewportTableRecord
  2
*Active
 70
     0
 10
0.0
 20
0.0
 11
1.0
 21
1.0
 12
1476.765829377104
 22
1036.861325215509
 13
0.0
 23
0.0
 14
2.5
 24
2.5
 15
10.0
 25
10.0
 16
0.0
 26
0.0
 36
1.0
 17
0.0
 27
0.0
 37
0.0
 40
1791.868504164837
 41
1.81766917293233
 42
50.0
 43
0.0
 44
0.0
 50
0.0
 51
0.0
 71
     0
 72
   100
 73
     1
 74
     3
 75
     0
 76
     0
 77
     0
 78
     0
281
     0
 65
     1
110
0.0
120
0.0
130
0.0
111
1.0
121
0.0
131
0.0
112
0.0
122
1.0
132
0.0
 79
     0
146
0.0
  0
ENDTAB
  0
TABLE
  2
LTYPE
  5
5
330
0
100
AcDbSymbolTable
 70
    16
  0
LTYPE
  5
14
330
5
100
AcDbSymbolTableRecord
100
AcDbLinetypeTableRecord
  2
ByBlock
 70
     0
  3

 72
    65
 73
     0
 40
0.0
  0
LTYPE
  5
15
330
5
100
AcDbSymbolTableRecord
100
AcDbLinetypeTableRecord
  2
ByLayer
 70
     0
  3

 72
    65
 73
     0
 40
0.0
  0
LTYPE
  5
16
330
5
100
AcDbSymbolTableRecord
100
AcDbLinetypeTableRecord
  2
Continuous
 70
     0
  3
Solid line
 72
    65
 73
     0
 40
0.0
  0
LTYPE
  5
64
330
5
100
AcDbSymbolTableRecord
100
AcDbLinetypeTableRecord
  2
AM_ISO02W050
 70
     0
  3
__ __ __ __ __ __ __ __ __ __ __ __ __ __ __
 72
    65
 73
     2
 40
7.5
 49
6.0
 74
     0
 49
-1.5
 74
     0
  0
LTYPE
  5
65
330
5
100
AcDbSymbolTableRecord
100
AcDbLinetypeTableRecord
  2
AM_ISO08W050
 70
     0
  3
____ . ____ . ____ . ____ . ____ . ____ . ____
 72
    65
 73
     4
 40
18.0
 49
12.0
 74
     0
 49
-1.5
 74
     0
 49
3.0
 74
     0
 49
-1.5
 74
     0
  0
LTYPE
  5
66
330
5
100
AcDbSymbolTableRecord
100
AcDbLinetypeTableRecord
  2
AM_ISO09W050
 70
     0
  3
_____ . . _____ . . _____ . . ____ .. ____
 72
    65
 73
     6
 40
22.5
 49
12.0
 74
     0
 49
-1.5
 74
     0
 49
3.0
 74
     0
 49
-1.5
 74
     0
 49
3.0
 74
     0
 49
-1.5
 74
     0
  0
LTYPE
  5
67
330
5
100
AcDbSymbolTableRecord
100
AcDbLinetypeTableRecord
  2
Amconstr
 70
     0
  3
_______________________
 72
    65
 73
     2
 40
9999.0
 49
9999.0
 74
     0
 49
0.0
 74
     0
  0
LTYPE
  5
68
330
5
100
AcDbSymbolTableRecord
100
AcDbLinetypeTableRecord
  2
AM_ISO08W050x2
 70
     0
  3
__ . __ . __ . __ . __ . __
 72
    65
 73
     4
 40
9.0
 49
6.0
 74
     0
 49
-0.75
 74
     0
 49
1.5
 74
     0
 49
-0.75
 74
     0
  0
LTYPE
  5
69
330
5
100
AcDbSymbolTableRecord
100
AcDbLinetypeTableRecord
  2
AM_ISO02W050x2
 70
     0
  3
 _ _ _ _ _ _ _ _ _ _ _ _
 72
    65
 73
     2
 40
3.75
 49
3.0
 74
     0
 49
-0.75
 74
     0
  0
LTYPE
  5
6C
330
5
100
AcDbSymbolTableRecord
100
AcDbLinetypeTableRecord
  2
Amzigzag
 70
     0
  3
/\/-/\/-/\/-/\/-/\/-/\/
 72
    65
 73
     2
 40
11.0001
 49
0.0001
 74
     4
 75
   135
340
6B
 46
0.04
 50
0.0
 44
0.0
 45
0.0
 49
-11.0
 74
     0
  0
LTYPE
  5
7A
330
5
100
AcDbSymbolTableRecord
100
AcDbLinetypeTableRecord
  2
ACISOWELD
 70
     0
  3
_ _ _ _ _
 72
    65
 73
     2
 40
2.0
 49
2.0
 74
     0
 49
-1.0
 74
     0
  0
LTYPE
  5
7B
330
5
100
AcDbSymbolTableRecord
100
AcDbLinetypeTableRecord
  2
ACISOTGB
 70
     0
  3
__ . . __ . .
 72
    65
 73
     6
 40
9.0
 49
4.0
 74
     0
 49
-1.0
 74
     0
 49
1.0
 74
     0
 49
-1.0
 74
     0
 49
1.0
 74
     0
 49
-1.0
 74
     0
  0
LTYPE
  5
7C
330
5
100
AcDbSymbolTableRecord
100
AcDbLinetypeTableRecord
  2
ACISOTGL
 70
     0
  3
_ _ _ _ _
 72
    65
 73
     2
 40
3.0
 49
2.0
 74
     0
 49
-1.0
 74
     0
  0
LTYPE
  5
7E
330
5
100
AcDbSymbolTableRecord
100
AcDbLinetypeTableRecord
  2
CENTER
 70
     0
  3
__ . __
 72
    65
 73
     4
 40
7.0
 49
4.0
 74
     0
 49
-1.0
 74
     0
 49
1.0
 74
     0
 49
-1.0
 74
     0
  0
LTYPE
  5
D8
330
5
100
AcDbSymbolTableRecord
100
AcDbLinetypeTableRecord
  2
HIDDEN
 70
     0
  3
Hidden __ __ __ __ __ __ __ __ __ __ __ __ __ _
 72
    65
 73
     2
 40
9.524999999999998
 49
6.349999999999999
 74
     0
 49
-3.174999999999999
 74
     0
  0
LTYPE
  5
D9
330
5
100
AcDbSymbolTableRecord
100
AcDbLinetypeTableRecord
  2
PHANTOM2
 70
     0
  3
Phantom (.5x) ___ _ _ ___ _ _ ___ _ _ ___ _ _
 72
    65
 73
     6
 40
31.75
 49
15.875
 74
     0
 49
-3.174999999999999
 74
     0
 49
3.174999999999999
 74
     0
 49
-3.174999999999999
 74
     0
 49
3.174999999999999
 74
     0
 49
-3.174999999999999
 74
     0
  0
LTYPE
  5
71F
330
5
100
AcDbSymbolTableRecord
100
AcDbLinetypeTableRecord
  2
HIDDEN2
 70
     0
  3
Hidden (.5x) _ _ _ _ _ _ _ _ _ _ _ _ _ _ _ _ _
 72
    65
 73
     2
 40
4.762499999999999
 49
3.174999999999999
 74
     0
 49
-1.587499999999999
 74
     0
  0
LTYPE
  5
63A7
330
5
100
AcDbSymbolTableRecord
100
AcDbLinetypeTableRecord
  2
CENTERX2
 70
     0
  3
Center (2x) ________  __  ________  __  _____
 72
    65
 73
     4
 40
101.6
 49
63.5
 74
     0
 49
-12.7
 74
     0
 49
12.7
 74
     0
 49
-12.7
 74
     0
  0
ENDTAB
  0
TABLE
  2
LAYER
  5
2
102
{ACAD_XDICTIONARY
360
3F9
102
}
330
0
100
AcDbSymbolTable
 70
     9
  0
LAYER
  5
10
330
2
100
AcDbSymbolTableRecord
100
AcDbLayerTableRecord
  2
0
 70
     0
 62
     7
  6
Continuous
370
    -3
390
F
  0
LAYER
  5
206
330
2
100
AcDbSymbolTableRecord
100
AcDbLayerTableRecord
  2
Defpoints
 70
     0
 62
     7
  6
Continuous
290
     0
370
    -3
390
F
  0
LAYER
  5
720
330
2
100
AcDbSymbolTableRecord
100
AcDbLayerTableRecord
  2
圖層1輪廓線
 70
     0
 62
     7
  6
Continuous
370
    50
390
728
  0
LAYER
  5
721
330
2
100
AcDbSymbolTableRecord
100
AcDbLayerTableRecord
  2
圖層2中心線
 70
     0
 62
     1
  6
CENTERX2
370
    18
390
729
  0
LAYER
  5
722
330
2
100
AcDbSymbolTableRecord
100
AcDbLayerTableRecord
  2
圖層3虛線
 70
     0
 62
     3
  6
HIDDEN2
370
    25
390
72A
  0
LAYER
  5
723
330
2
100
AcDbSymbolTableRecord
100
AcDbLayerTableRecord
  2
圖層4尺寸線
 70
     0
 62
     5
  6
Continuous
370
    25
390
72B
  0
LAYER
  5
B2A
330
2
100
AcDbSymbolTableRecord
100
AcDbLayerTableRecord
  2
AM_5
 70
     0
 62
     5
  6
Continuous
370
    50
390
F
  0
LAYER
  5
15F9
330
2
100
AcDbSymbolTableRecord
100
AcDbLayerTableRecord
  2
AM_7
 70
     0
 62
     1
  6
CENTER
370
    25
390
F
  0
LAYER
  5
7702
330
2
100
AcDbSymbolTableRecord
100
AcDbLayerTableRecord
  2
LOGO
 70
     0
 62
     7
  6
Continuous
370
    -3
390
F
  0
ENDTAB
  0
TABLE
  2
STYLE
  5
3
330
0
100
AcDbSymbolTable
 70
     7
  0
STYLE
  5
11
330
3
100
AcDbSymbolTableRecord
100
AcDbTextStyleTableRecord
  2
STANDARD
 70
     0
 40
0.0
 41
1.0
 50
0.0
 71
     0
 42
3.0
  3
ISOCP.SHX
  4
CHINESET.SHX
  0
STYLE
  5
6B
330
3
100
AcDbSymbolTableRecord
100
AcDbTextStyleTableRecord
  2

 70
     1
 40
0.0
 41
1.0
 50
0.0
 71
     0
 42
2.5
  3
ltypeshp.shx
  4

  0
STYLE
  5
6D
330
3
100
AcDbSymbolTableRecord
100
AcDbTextStyleTableRecord
  2
ACISOTS
 70
     0
 40
1.0
 41
1.0
 50
0.0
 71
     0
 42
1.0
  3
isocp.shx
  4
chineset.shx
  0
STYLE
  5
79
330
3
100
AcDbSymbolTableRecord
100
AcDbTextStyleTableRecord
  2
ACISOGDT
 70
     0
 40
0.0
 41
1.0
 50
0.0
 71
     0
 42
2.5
  3
amgdt.shx
  4
chineset.shx
  0
STYLE
  5
60C
330
3
100
AcDbSymbolTableRecord
100
AcDbTextStyleTableRecord
  2
CHINESET
 70
     0
 40
0.0
 41
1.0
 50
0.0
 71
     0
 42
3.0
  3
simplex.shx
  4
CHINESET.SHX
  0
STYLE
  5
7839
330
3
100
AcDbSymbolTableRecord
100
AcDbTextStyleTableRecord
  2
WIN
 70
     0
 40
0.0
 41
1.0
 50
0.0
 71
     0
 42
4.0
  3
PMingLiU.ttf
  4

1001
ACAD
1000
PMingLiU
1071
    34834
  0
ENDTAB
  0
TABLE
  2
VIEW
  5
6
330
0
100
AcDbSymbolTable
 70
     0
  0
ENDTAB
  0
TABLE
  2
UCS
  5
7
330
0
100
AcDbSymbolTable
 70
     0
  0
ENDTAB
  0
TABLE
  2
APPID
  5
9
330
0
100
AcDbSymbolTable
 70
    21
  0
APPID
  5
12
330
9
100
AcDbSymbolTableRecord
100
AcDbRegAppTableRecord
  2
ACAD
 70
     0
  0
APPID
  5
46
330
9
100
AcDbSymbolTableRecord
100
AcDbRegAppTableRecord
  2
MCAD_NO_VIS
 70
     0
  0
APPID
  5
47
330
9
100
AcDbSymbolTableRecord
100
AcDbRegAppTableRecord
  2
ACAD_TEMP_GRAPHIC
 70
     0
  0
APPID
  5
58
330
9
100
AcDbSymbolTableRecord
100
AcDbRegAppTableRecord
  2
ACATTRIBSERVICES
 70
     0
  0
APPID
  5
EE
330
9
100
AcDbSymbolTableRecord
100
AcDbRegAppTableRecord
  2
AD_DRAW
 70
     0
  0
APPID
  5
10C
330
9
100
AcDbSymbolTableRecord
100
AcDbRegAppTableRecord
  2
DESIGNERASSEMBLIES
 70
     0
  0
APPID
  5
111
330
9
100
AcDbSymbolTableRecord
100
AcDbRegAppTableRecord
  2
ACADM_DIM_EDIT
 70
     0
  0
APPID
  5
112
330
9
100
AcDbSymbolTableRecord
100
AcDbRegAppTableRecord
  2
AMDT_DM_ADJ
 70
     0
  0
APPID
  5
22C
330
9
100
AcDbSymbolTableRecord
100
AcDbRegAppTableRecord
  2
ACAD_DSTYLE_DIMTEXT_FILL
 70
     0
  0
APPID
  5
452
330
9
100
AcDbSymbolTableRecord
100
AcDbRegAppTableRecord
  2
GENIUS_GENOENT_13
 70
     0
  0
APPID
  5
453
330
9
100
AcDbSymbolTableRecord
100
AcDbRegAppTableRecord
  2
GENIUS_GENOBJ-N-CRS_13
 70
     0
  0
APPID
  5
454
330
9
100
AcDbSymbolTableRecord
100
AcDbRegAppTableRecord
  2
GENIUS_GENOLIS_13
 70
     0
  0
APPID
  5
455
330
9
100
AcDbSymbolTableRecord
100
AcDbRegAppTableRecord
  2
GENIUS_GENODEF_13
 70
     0
  0
APPID
  5
456
330
9
100
AcDbSymbolTableRecord
100
AcDbRegAppTableRecord
  2
GENIUS_GENOREF_13
 70
     0
  0
APPID
  5
6F3
330
9
100
AcDbSymbolTableRecord
100
AcDbRegAppTableRecord
  2
ACAD_PSEXT
 70
     0
  0
APPID
  5
727
330
9
100
AcDbSymbolTableRecord
100
AcDbRegAppTableRecord
  2
AcAecLayerStandard
 70
     0
  0
APPID
  5
D7F
330
9
100
AcDbSymbolTableRecord
100
AcDbRegAppTableRecord
  2
GENIUS_GENDTOL_13
 70
     0
  0
APPID
  5
15FB
330
9
100
AcDbSymbolTableRecord
100
AcDbRegAppTableRecord
  2
GENIUS_GENOBJ-N-CEN_13
 70
     0
  0
APPID
  5
15FC
330
9
100
AcDbSymbolTableRecord
100
AcDbRegAppTableRecord
  2
GENIUS_GENCEN_19
 70
     0
  0
APPID
  5
300F
330
9
100
AcDbSymbolTableRecord
100
AcDbRegAppTableRecord
  2
GENIUS_GENREC_14
 70
     0
  0
APPID
  5
3010
330
9
100
AcDbSymbolTableRecord
100
AcDbRegAppTableRecord
  2
GENIUS_GENOBJ-N-REC_13
 70
     0
  0
ENDTAB
  0
TABLE
  2
DIMSTYLE
  5
A
330
0
100
AcDbSymbolTable
 70
     9
100
AcDbDimStyleTable
 71
     3
340
81
340
8B
340
86
  0
DIMSTYLE
105
81
330
A
100
AcDbSymbolTableRecord
100
AcDbDimStyleTableRecord
  2
AM_ISO
 70
     0
  4
"
 41
20.0
 42
3.0
 43
50.0
 44
4.0
 47
0.1
 48
0.1
 73
     0
 74
     0
 77
     1
 78
     8
 79
     2
140
20.0
141
0.0
143
0.0393701
146
0.71
147
6.0
172
     1
176
   256
177
   256
178
   256
271
     2
272
     2
283
     2
284
     8
340
11
371
    -1
372
    -1
  0
DIMSTYLE
105
82
330
A
100
AcDbSymbolTableRecord
100
AcDbDimStyleTableRecord
  2
AM_ISO$3
 70
     0
  4
"
 41
20.0
 42
3.0
 43
50.0
 44
4.0
 47
0.1
 48
0.1
 73
     0
 77
     1
 78
     8
 79
     2
140
20.0
141
0.0
143
0.0393701
146
0.71
147
6.0
176
   256
177
   256
178
   256
271
     2
272
     2
283
     2
284
     8
288
     1
289
     0
340
11
371
    -1
372
    -1
  0
DIMSTYLE
105
83
330
A
100
AcDbSymbolTableRecord
100
AcDbDimStyleTableRecord
  2
AM_ISO$4
 70
     0
  4
"
 41
20.0
 42
3.0
 43
50.0
 44
4.0
 47
0.1
 48
0.1
 73
     0
 77
     1
 78
     8
 79
     2
140
20.0
141
0.0
143
0.0393701
146
0.71
147
6.0
176
   256
177
   256
178
   256
271
     2
272
     2
283
     2
284
     8
288
     1
289
     0
340
11
371
    -1
372
    -1
  0
DIMSTYLE
105
84
330
A
100
AcDbSymbolTableRecord
100
AcDbDimStyleTableRecord
  2
AM_ISO$6
 70
     0
  4
"
 41
20.0
 42
3.0
 43
50.0
 44
4.0
 47
0.1
 48
0.1
 73
     0
 74
     0
 78
     8
 79
     2
140
20.0
141
0.0
143
0.0393701
146
0.71
147
6.0
172
     1
176
   256
177
   256
178
   256
271
     2
272
     2
283
     2
284
     8
340
11
371
    -1
372
    -1
  0
DIMSTYLE
105
85
330
A
100
AcDbSymbolTableRecord
100
AcDbDimStyleTableRecord
  2
AM_ISO$7
 70
     0
  4
"
 41
20.0
 42
3.0
 43
50.0
 44
4.0
 47
0.1
 48
0.1
 73
     0
 74
     0
 77
     1
 78
     8
 79
     2
140
5.0
141
0.0
143
0.0393701
146
0.71
147
6.0
172
     1
176
   256
177
   256
178
   256
271
     2
272
     2
283
     2
284
     8
340
11
371
    -1
372
    -1
  0
DIMSTYLE
105
86
330
A
100
AcDbSymbolTableRecord
100
AcDbDimStyleTableRecord
  2
AM_ISO$SF
 70
     0
  4
"
 41
2.5
 42
1.0
 43
10.0
 44
1.0
 47
0.1
 48
0.1
 73
     0
 74
     0
 75
     1
 76
     1
 77
     1
 78
     8
 79
     2
140
3.5
141
0.0
143
0.0393701
146
0.71
147
1.5
172
     1
176
   256
177
   256
178
     2
271
     2
272
     3
274
     4
283
     0
284
     8
340
11
371
    -1
372
    -1
  0
DIMSTYLE
105
8B
330
A
100
AcDbSymbolTableRecord
100
AcDbDimStyleTableRecord
  2
AM_ISO$SH
 70
     0
  4
"
 41
2.5
 42
1.0
 43
10.0
 44
1.0
 47
0.1
 48
0.1
 73
     0
 74
     0
 75
     1
 76
     1
 77
     1
 78
     8
 79
     2
140
3.5
141
0.0
143
0.0393701
144
2.0
146
0.71
147
1.5
172
     1
173
     1
176
   256
177
   256
178
     2
271
     2
272
     3
274
     4
283
     0
284
     8
340
11
343
87
371
    -1
372
    -1
  0
DIMSTYLE
105
40B
102
{ACAD_REACTORS
330
259D
330
25A0
330
25E9
330
25F2
330
268F
330
26B5
330
26DB
330
270B
330
2731
330
2757
330
277D
330
27A3
330
27C9
330
2D68
330
2D97
330
2D9A
330
2D9D
330
2E10
330
2E13
330
2E16
330
2E19
330
2EF9
330
2FAF
102
}
330
A
100
AcDbSymbolTableRecord
100
AcDbDimStyleTableRecord
  2
AM_ISO$0
 70
     0
  4
"
 41
20.0
 42
3.0
 43
50.0
 44
4.0
 47
0.1
 48
0.1
 73
     0
 74
     0
 77
     1
 78
     8
 79
     2
140
20.0
141
0.0
143
0.0393701
146
0.71
147
6.0
172
     1
176
   256
177
   256
178
   256
271
     2
272
     2
283
     2
284
     8
340
11
371
    -1
372
    -1
  0
ENDTAB
  0
TABLE
  2
BLOCK_RECORD
  5
1
330
0
100
AcDbSymbolTable
 70
    29
  0
BLOCK_RECORD
  5
1F
102
{ACAD_XDICTIONARY
360
8F
102
}
330
1
100
AcDbSymbolTableRecord
100
AcDbBlockTableRecord
  2
*Model_Space
340
22
  0
BLOCK_RECORD
  5
1B
330
1
100
AcDbSymbolTableRecord
100
AcDbBlockTableRecord
  2
*Paper_Space
340
1E
  0
BLOCK_RECORD
  5
23
330
1
100
AcDbSymbolTableRecord
100
AcDbBlockTableRecord
  2
*Paper_Space0
340
26
  0
BLOCK_RECORD
  5
87
330
1
100
AcDbSymbolTableRecord
100
AcDbBlockTableRecord
  2
GENAXEH
340
0
  0
BLOCK_RECORD
  5
25A3
330
1
100
AcDbSymbolTableRecord
100
AcDbBlockTableRecord
  2
*D3
340
0
  0
BLOCK_RECORD
  5
25AF
330
1
100
AcDbSymbolTableRecord
100
AcDbBlockTableRecord
  2
*D4
340
0
  0
BLOCK_RECORD
  5
2606
330
1
100
AcDbSymbolTableRecord
100
AcDbBlockTableRecord
  2
*D5
340
0
  0
BLOCK_RECORD
  5
262A
330
1
100
AcDbSymbolTableRecord
100
AcDbBlockTableRecord
  2
*D6
340
0
  0
BLOCK_RECORD
  5
2690
330
1
100
AcDbSymbolTableRecord
100
AcDbBlockTableRecord
  2
*D7
340
0
  0
BLOCK_RECORD
  5
26B6
330
1
100
AcDbSymbolTableRecord
100
AcDbBlockTableRecord
  2
*D8
340
0
  0
BLOCK_RECORD
  5
26DC
330
1
100
AcDbSymbolTableRecord
100
AcDbBlockTableRecord
  2
*D9
340
0
  0
BLOCK_RECORD
  5
270C
330
1
100
AcDbSymbolTableRecord
100
AcDbBlockTableRecord
  2
*D10
340
0
  0
BLOCK_RECORD
  5
2732
330
1
100
AcDbSymbolTableRecord
100
AcDbBlockTableRecord
  2
*D11
340
0
  0
BLOCK_RECORD
  5
2758
330
1
100
AcDbSymbolTableRecord
100
AcDbBlockTableRecord
  2
*D12
340
0
  0
BLOCK_RECORD
  5
277E
330
1
100
AcDbSymbolTableRecord
100
AcDbBlockTableRecord
  2
*D13
340
0
  0
BLOCK_RECORD
  5
27A4
330
1
100
AcDbSymbolTableRecord
100
AcDbBlockTableRecord
  2
*D14
340
0
  0
BLOCK_RECORD
  5
27CA
330
1
100
AcDbSymbolTableRecord
100
AcDbBlockTableRecord
  2
*D15
340
0
  0
BLOCK_RECORD
  5
2D69
330
1
100
AcDbSymbolTableRecord
100
AcDbBlockTableRecord
  2
*D16
340
0
  0
BLOCK_RECORD
  5
2DA0
330
1
100
AcDbSymbolTableRecord
100
AcDbBlockTableRecord
  2
*D17
340
0
  0
BLOCK_RECORD
  5
2DAE
330
1
100
AcDbSymbolTableRecord
100
AcDbBlockTableRecord
  2
*D18
340
0
  0
BLOCK_RECORD
  5
2DBC
330
1
100
AcDbSymbolTableRecord
100
AcDbBlockTableRecord
  2
*D19
340
0
  0
BLOCK_RECORD
  5
2E1C
330
1
100
AcDbSymbolTableRecord
100
AcDbBlockTableRecord
  2
*D20
340
0
  0
BLOCK_RECORD
  5
2E2A
330
1
100
AcDbSymbolTableRecord
100
AcDbBlockTableRecord
  2
*D21
340
0
  0
BLOCK_RECORD
  5
2E38
330
1
100
AcDbSymbolTableRecord
100
AcDbBlockTableRecord
  2
*D22
340
0
  0
BLOCK_RECORD
  5
2E46
330
1
100
AcDbSymbolTableRecord
100
AcDbBlockTableRecord
  2
*D23
340
0
  0
BLOCK_RECORD
  5
2EFA
330
1
100
AcDbSymbolTableRecord
100
AcDbBlockTableRecord
  2
*D24
340
0
  0
BLOCK_RECORD
  5
2FB0
330
1
100
AcDbSymbolTableRecord
100
AcDbBlockTableRecord
  2
*D25
340
0
  0
BLOCK_RECORD
  5
79B4
330
1
100
AcDbSymbolTableRecord
100
AcDbBlockTableRecord
  2
*S27
340
0
  0
BLOCK_RECORD
  5
79BC
330
1
100
AcDbSymbolTableRecord
100
AcDbBlockTableRecord
  2
*S28
340
0
  0
ENDTAB
  0
ENDSEC
  0
SECTION
  2
BLOCKS
  0
BLOCK
  5
20
330
1F
100
AcDbEntity
  8
0
100
AcDbBlockBegin
  2
*Model_Space
 70
     0
 10
0.0
 20
0.0
 30
0.0
  3
*Model_Space
  1

  0
ENDBLK
  5
21
330
1F
100
AcDbEntity
  8
0
100
AcDbBlockEnd
  0
BLOCK
  5
1C
330
1B
100
AcDbEntity
 67
     1
  8
0
100
AcDbBlockBegin
  2
*Paper_Space
 70
     0
 10
0.0
 20
0.0
 30
0.0
  3
*Paper_Space
  1

  0
ENDBLK
  5
1D
330
1B
100
AcDbEntity
 67
     1
  8
0
100
AcDbBlockEnd
  0
BLOCK
  5
24
330
23
100
AcDbEntity
  8
0
100
AcDbBlockBegin
  2
*Paper_Space0
 70
     0
 10
0.0
 20
0.0
 30
0.0
  3
*Paper_Space0
  1

  0
ENDBLK
  5
25
330
23
100
AcDbEntity
  8
0
100
AcDbBlockEnd
  0
BLOCK
  5
89
330
87
100
AcDbEntity
  8
0
100
AcDbBlockBegin
  2
GENAXEH
 70
     0
 10
0.0
 20
0.0
 30
0.0
  3
GENAXEH
  1

  0
LINE
  5
88
330
87
100
AcDbEntity
  8
0
100
AcDbLine
 10
-1.0
 20
0.0
 30
0.0
 11
1.0
 21
0.0
 31
0.0
  0
ENDBLK
  5
8A
330
87
100
AcDbEntity
  8
0
100
AcDbBlockEnd
  0
BLOCK
  5
25AD
330
25A3
100
AcDbEntity
  8
0
100
AcDbBlockBegin
  2
*D3
 70
     1
 10
0.0
 20
0.0
 30
0.0
  3
*D3
  1

  0
LINE
  5
7623
330
25A3
100
AcDbEntity
  8
AM_5
100
AcDbLine
 10
1038.462785469703
 20
511.0220367957347
 30
0.0
 11
1038.462785469703
 21
462.4452132927006
 31
0.0
  0
LINE
  5
7624
330
25A3
100
AcDbEntity
  8
AM_5
100
AcDbLine
 10
1208.462785469704
 20
511.7896405799188
 30
0.0
 11
1208.462785469704
 21
462.4452132927006
 31
0.0
  0
LINE
  5
7625
330
25A3
100
AcDbEntity
  8
AM_5
100
AcDbLine
 10
1058.462785469703
 20
466.4452132927006
 30
0.0
 11
1188.462785469703
 21
466.4452132927006
 31
0.0
  0
SOLID
  5
7626
330
25A3
100
AcDbEntity
  8
AM_5
100
AcDbTrace
 10
1058.462785469703
 20
469.778546626034
 30
0.0
 11
1058.462785469703
 21
463.1118799593673
 31
0.0
 12
1038.462785469703
 22
466.4452132927006
 32
0.0
 13
1038.462785469703
 23
466.4452132927006
 33
0.0
  0
SOLID
  5
7627
330
25A3
100
AcDbEntity
  8
AM_5
100
AcDbTrace
 10
1188.462785469703
 20
469.778546626034
 30
0.0
 11
1188.462785469703
 21
463.1118799593673
 31
0.0
 12
1208.462785469704
 22
466.4452132927006
 32
0.0
 13
1208.462785469704
 23
466.4452132927006
 33
0.0
  0
MTEXT
  5
7628
330
25A3
100
AcDbEntity
  8
AM_5
100
AcDbMText
 10
1123.462785469703
 20
482.4452132927007
 30
0.0
 40
20.0
 41
0.0
 71
     5
 72
     1
  1
\A2;170
 73
     1
 44
1.0
1001
ACAD
1000
MTEXTBEGIN
1070
    73
1070
     1
1070
    44
1040
1.0
1070
    74
1070
     0
1000
MTEXTEND
  0
POINT
  5
7629
330
25A3
100
AcDbEntity
  8
Defpoints
 62
     0
100
AcDbPoint
 10
1038.462785469703
 20
514.0220367957347
 30
0.0
  0
POINT
  5
762A
330
25A3
100
AcDbEntity
  8
Defpoints
 62
     0
100
AcDbPoint
 10
1208.462785469704
 20
514.7896405799188
 30
0.0
  0
POINT
  5
762B
330
25A3
100
AcDbEntity
  8
Defpoints
 62
     0
100
AcDbPoint
 10
1208.462785469704
 20
466.4452132927006
 30
0.0
  0
ENDBLK
  5
25AE
330
25A3
100
AcDbEntity
  8
0
100
AcDbBlockEnd
  0
BLOCK
  5
25B9
330
25AF
100
AcDbEntity
  8
0
100
AcDbBlockBegin
  2
*D4
 70
     1
 10
0.0
 20
0.0
 30
0.0
  3
*D4
  1

  0
LINE
  5
762C
330
25AF
100
AcDbEntity
  8
AM_5
100
AcDbLine
 10
1023.462785469703
 20
523.4452132927008
 30
0.0
 11
1023.462785469703
 21
412.4452132927006
 31
0.0
  0
LINE
  5
762D
330
25AF
100
AcDbEntity
  8
AM_5
100
AcDbLine
 10
1223.462785469704
 20
523.4452132927008
 30
0.0
 11
1223.462785469704
 21
412.4452132927006
 31
0.0
  0
LINE
  5
762E
330
25AF
100
AcDbEntity
  8
AM_5
100
AcDbLine
 10
1043.462785469704
 20
416.4452132927006
 30
0.0
 11
1203.462785469703
 21
416.4452132927006
 31
0.0
  0
SOLID
  5
762F
330
25AF
100
AcDbEntity
  8
AM_5
100
AcDbTrace
 10
1043.462785469704
 20
419.778546626034
 30
0.0
 11
1043.462785469704
 21
413.1118799593673
 31
0.0
 12
1023.462785469703
 22
416.4452132927006
 32
0.0
 13
1023.462785469703
 23
416.4452132927006
 33
0.0
  0
SOLID
  5
7630
330
25AF
100
AcDbEntity
  8
AM_5
100
AcDbTrace
 10
1203.462785469703
 20
419.778546626034
 30
0.0
 11
1203.462785469703
 21
413.1118799593673
 31
0.0
 12
1223.462785469704
 22
416.4452132927006
 32
0.0
 13
1223.462785469704
 23
416.4452132927006
 33
0.0
  0
MTEXT
  5
7631
330
25AF
100
AcDbEntity
  8
AM_5
100
AcDbMText
 10
1123.462785469703
 20
432.4471817966377
 30
0.0
 40
20.0
 41
0.0
 71
     5
 72
     1
  1
\A2;200
 73
     1
 44
1.0
1001
ACAD
1000
MTEXTBEGIN
1070
    73
1070
     1
1070
    44
1040
1.0
1070
    74
1070
     0
1000
MTEXTEND
  0
POINT
  5
7632
330
25AF
100
AcDbEntity
  8
Defpoints
 62
     0
100
AcDbPoint
 10
1023.462785469703
 20
526.4452132927008
 30
0.0
  0
POINT
  5
7633
330
25AF
100
AcDbEntity
  8
Defpoints
 62
     0
100
AcDbPoint
 10
1223.462785469704
 20
526.4452132927008
 30
0.0
  0
POINT
  5
7634
330
25AF
100
AcDbEntity
  8
Defpoints
 62
     0
100
AcDbPoint
 10
1223.462785469704
 20
416.4452132927006
 30
0.0
  0
ENDBLK
  5
25BA
330
25AF
100
AcDbEntity
  8
0
100
AcDbBlockEnd
  0
BLOCK
  5
2610
330
2606
100
AcDbEntity
  8
0
100
AcDbBlockBegin
  2
*D5
 70
     1
 10
0.0
 20
0.0
 30
0.0
  3
*D5
  1

  0
LINE
  5
7635
330
2606
100
AcDbEntity
  8
AM_5
100
AcDbLine
 10
1530.067184052539
 20
510.6476055425253
 30
0.0
 11
1530.067184052539
 21
462.4452132927014
 31
0.0
  0
LINE
  5
7636
330
2606
100
AcDbEntity
  8
AM_5
100
AcDbLine
 10
1760.067184052539
 20
511.4948967661423
 30
0.0
 11
1760.067184052539
 21
462.4452132927014
 31
0.0
  0
LINE
  5
7637
330
2606
100
AcDbEntity
  8
AM_5
100
AcDbLine
 10
1550.067184052539
 20
466.4452132927014
 30
0.0
 11
1740.06718405254
 21
466.4452132927014
 31
0.0
  0
SOLID
  5
7638
330
2606
100
AcDbEntity
  8
AM_5
100
AcDbTrace
 10
1550.067184052539
 20
469.7785466260348
 30
0.0
 11
1550.067184052539
 21
463.1118799593681
 31
0.0
 12
1530.067184052539
 22
466.4452132927014
 32
0.0
 13
1530.067184052539
 23
466.4452132927014
 33
0.0
  0
SOLID
  5
7639
330
2606
100
AcDbEntity
  8
AM_5
100
AcDbTrace
 10
1740.06718405254
 20
469.7785466260348
 30
0.0
 11
1740.06718405254
 21
463.1118799593681
 31
0.0
 12
1760.067184052539
 22
466.4452132927014
 32
0.0
 13
1760.067184052539
 23
466.4452132927014
 33
0.0
  0
MTEXT
  5
763A
330
2606
100
AcDbEntity
  8
AM_5
100
AcDbMText
 10
1645.067184052539
 20
482.4471817966385
 30
0.0
 40
20.0
 41
0.0
 71
     5
 72
     1
  1
\A2;230
 73
     1
 44
1.0
1001
ACAD
1000
MTEXTBEGIN
1070
    73
1070
     1
1070
    44
1040
1.0
1070
    74
1070
     0
1000
MTEXTEND
  0
POINT
  5
763B
330
2606
100
AcDbEntity
  8
Defpoints
 62
     0
100
AcDbPoint
 10
1530.067184052539
 20
513.6476055425252
 30
0.0
  0
POINT
  5
763C
330
2606
100
AcDbEntity
  8
Defpoints
 62
     0
100
AcDbPoint
 10
1760.067184052539
 20
514.4948967661423
 30
0.0
  0
POINT
  5
763D
330
2606
100
AcDbEntity
  8
Defpoints
 62
     0
100
AcDbPoint
 10
1760.067184052539
 20
466.4452132927014
 30
0.0
  0
ENDBLK
  5
2611
330
2606
100
AcDbEntity
  8
0
100
AcDbBlockEnd
  0
BLOCK
  5
2634
330
262A
100
AcDbEntity
  8
0
100
AcDbBlockBegin
  2
*D6
 70
     1
 10
0.0
 20
0.0
 30
0.0
  3
*D6
  1

  0
LINE
  5
763E
330
262A
100
AcDbEntity
  8
AM_5
100
AcDbLine
 10
1515.067184052539
 20
523.4452132927008
 30
0.0
 11
1515.067184052539
 21
412.4452132927006
 31
0.0
  0
LINE
  5
763F
330
262A
100
AcDbEntity
  8
AM_5
100
AcDbLine
 10
1895.067184052539
 20
523.4452132927006
 30
0.0
 11
1895.067184052539
 21
412.4452132927006
 31
0.0
  0
LINE
  5
7640
330
262A
100
AcDbEntity
  8
AM_5
100
AcDbLine
 10
1535.067184052539
 20
416.4452132927006
 30
0.0
 11
1875.067184052539
 21
416.4452132927006
 31
0.0
  0
SOLID
  5
7641
330
262A
100
AcDbEntity
  8
AM_5
100
AcDbTrace
 10
1535.067184052539
 20
419.778546626034
 30
0.0
 11
1535.067184052539
 21
413.1118799593673
 31
0.0
 12
1515.067184052539
 22
416.4452132927006
 32
0.0
 13
1515.067184052539
 23
416.4452132927006
 33
0.0
  0
SOLID
  5
7642
330
262A
100
AcDbEntity
  8
AM_5
100
AcDbTrace
 10
1875.067184052539
 20
419.778546626034
 30
0.0
 11
1875.067184052539
 21
413.1118799593673
 31
0.0
 12
1895.067184052539
 22
416.4452132927006
 32
0.0
 13
1895.067184052539
 23
416.4452132927006
 33
0.0
  0
MTEXT
  5
7643
330
262A
100
AcDbEntity
  8
AM_5
100
AcDbMText
 10
1705.067184052539
 20
432.4452132927007
 30
0.0
 40
20.0
 41
0.0
 71
     5
 72
     1
  1
\A2;380
 73
     1
 44
1.0
1001
ACAD
1000
MTEXTBEGIN
1070
    73
1070
     1
1070
    44
1040
1.0
1070
    74
1070
     0
1000
MTEXTEND
  0
POINT
  5
7644
330
262A
100
AcDbEntity
  8
Defpoints
 62
     0
100
AcDbPoint
 10
1515.067184052539
 20
526.4452132927008
 30
0.0
  0
POINT
  5
7645
330
262A
100
AcDbEntity
  8
Defpoints
 62
     0
100
AcDbPoint
 10
1895.067184052539
 20
526.4452132927005
 30
0.0
  0
POINT
  5
7646
330
262A
100
AcDbEntity
  8
Defpoints
 62
     0
100
AcDbPoint
 10
1895.067184052539
 20
416.4452132927006
 30
0.0
  0
ENDBLK
  5
2635
330
262A
100
AcDbEntity
  8
0
100
AcDbBlockEnd
  0
BLOCK
  5
269A
330
2690
100
AcDbEntity
  8
0
100
AcDbBlockBegin
  2
*D7
 70
     1
 10
0.0
 20
0.0
 30
0.0
  3
*D7
  1

  0
LINE
  5
7647
330
2690
100
AcDbEntity
  8
AM_5
100
AcDbLine
 10
1512.067184052539
 20
526.4452132927007
 30
0.0
 11
1451.067184052539
 21
526.4452132927007
 31
0.0
  0
LINE
  5
7648
330
2690
100
AcDbEntity
  8
AM_5
100
AcDbLine
 10
1547.067184052539
 20
606.4452132927007
 30
0.0
 11
1451.067184052539
 21
606.4452132927007
 31
0.0
  0
LINE
  5
7649
330
2690
100
AcDbEntity
  8
AM_5
100
AcDbLine
 10
1455.067184052539
 20
546.4452132927006
 30
0.0
 11
1455.067184052539
 21
586.4452132927007
 31
0.0
  0
SOLID
  5
764A
330
2690
100
AcDbEntity
  8
AM_5
100
AcDbTrace
 10
1451.733850719206
 20
546.4452132927006
 30
0.0
 11
1458.400517385872
 21
546.4452132927006
 31
0.0
 12
1455.067184052539
 22
526.4452132927007
 32
0.0
 13
1455.067184052539
 23
526.4452132927007
 33
0.0
  0
SOLID
  5
764B
330
2690
100
AcDbEntity
  8
AM_5
100
AcDbTrace
 10
1451.733850719206
 20
586.4452132927007
 30
0.0
 11
1458.400517385872
 21
586.4452132927007
 31
0.0
 12
1455.067184052539
 22
606.4452132927007
 32
0.0
 13
1455.067184052539
 23
606.4452132927007
 33
0.0
  0
MTEXT
  5
764C
330
2690
100
AcDbEntity
  8
AM_5
100
AcDbMText
 10
1439.067184052539
 20
566.4452132927009
 30
0.0
 40
20.0
 41
0.0
 71
     5
 72
     1
  1
\A2;80
 11
0.0000000000000001
 21
1.0
 31
0.0
 73
     1
 44
1.0
1001
ACAD
1000
MTEXTBEGIN
1070
    73
1070
     1
1070
    44
1040
1.0
1070
    74
1070
     0
1000
MTEXTEND
  0
POINT
  5
764D
330
2690
100
AcDbEntity
  8
Defpoints
 62
     0
100
AcDbPoint
 10
1515.067184052539
 20
526.4452132927007
 30
0.0
  0
POINT
  5
764E
330
2690
100
AcDbEntity
  8
Defpoints
 62
     0
100
AcDbPoint
 10
1550.067184052539
 20
606.4452132927007
 30
0.0
  0
POINT
  5
764F
330
2690
100
AcDbEntity
  8
Defpoints
 62
     0
100
AcDbPoint
 10
1455.067184052539
 20
606.4452132927007
 30
0.0
  0
ENDBLK
  5
269B
330
2690
100
AcDbEntity
  8
0
100
AcDbBlockEnd
  0
BLOCK
  5
26C0
330
26B6
100
AcDbEntity
  8
0
100
AcDbBlockBegin
  2
*D8
 70
     1
 10
0.0
 20
0.0
 30
0.0
  3
*D8
  1

  0
LINE
  5
796A
330
26B6
100
AcDbEntity
  8
AM_5
100
AcDbLine
 10
1547.067184052539
 20
606.4452132927008
 30
0.0
 11
1451.067184052539
 21
606.4452132927008
 31
0.0
  0
LINE
  5
796B
330
26B6
100
AcDbEntity
  8
AM_5
100
AcDbLine
 10
1621.56718405254
 20
795.5695371864536
 30
0.0
 11
1451.067184052539
 21
795.5695371864536
 31
0.0
  0
LINE
  5
796C
330
26B6
100
AcDbEntity
  8
AM_5
100
AcDbLine
 10
1455.067184052539
 20
626.4452132927008
 30
0.0
 11
1455.067184052539
 21
775.5695371864536
 31
0.0
  0
SOLID
  5
796D
330
26B6
100
AcDbEntity
  8
AM_5
100
AcDbTrace
 10
1451.733850719206
 20
626.4452132927008
 30
0.0
 11
1458.400517385872
 21
626.4452132927008
 31
0.0
 12
1455.067184052539
 22
606.4452132927008
 32
0.0
 13
1455.067184052539
 23
606.4452132927008
 33
0.0
  0
SOLID
  5
796E
330
26B6
100
AcDbEntity
  8
AM_5
100
AcDbTrace
 10
1451.733850719206
 20
775.5695371864536
 30
0.0
 11
1458.400517385872
 21
775.5695371864536
 31
0.0
 12
1455.067184052539
 22
795.5695371864536
 32
0.0
 13
1455.067184052539
 23
795.5695371864536
 33
0.0
  0
MTEXT
  5
796F
330
26B6
100
AcDbEntity
  8
AM_5
100
AcDbMText
 10
1439.065215548602
 20
701.0073752395775
 30
0.0
 40
20.0
 41
0.0
 71
     5
 72
     1
  1
\A2;Max. 200
 11
0.0000000000000001
 21
1.0
 31
0.0
 73
     1
 44
1.0
1001
ACAD
1000
MTEXTBEGIN
1070
    73
1070
     1
1070
    44
1040
1.0
1070
    74
1070
     0
1000
MTEXTEND
  0
POINT
  5
7970
330
26B6
100
AcDbEntity
  8
Defpoints
 62
     0
100
AcDbPoint
 10
1550.067184052539
 20
606.4452132927008
 30
0.0
  0
POINT
  5
7971
330
26B6
100
AcDbEntity
  8
Defpoints
 62
     0
100
AcDbPoint
 10
1624.567184052541
 20
795.5695371864536
 30
0.0
  0
POINT
  5
7972
330
26B6
100
AcDbEntity
  8
Defpoints
 62
     0
100
AcDbPoint
 10
1455.067184052539
 20
795.5695371864536
 30
0.0
  0
ENDBLK
  5
26C1
330
26B6
100
AcDbEntity
  8
0
100
AcDbBlockEnd
  0
BLOCK
  5
26E6
330
26DC
100
AcDbEntity
  8
0
100
AcDbBlockBegin
  2
*D9
 70
     1
 10
0.0
 20
0.0
 30
0.0
  3
*D9
  1

  0
LINE
  5
7659
330
26DC
100
AcDbEntity
  8
AM_5
100
AcDbLine
 10
1621.56718405254
 20
795.5695371864536
 30
0.0
 11
1451.067184052539
 21
795.5695371864536
 31
0.0
  0
LINE
  5
765A
330
26DC
100
AcDbEntity
  8
AM_5
100
AcDbLine
 10
1577.067184052539
 20
910.5695371864539
 30
0.0
 11
1451.067184052539
 21
910.5695371864539
 31
0.0
  0
LINE
  5
765B
330
26DC
100
AcDbEntity
  8
AM_5
100
AcDbLine
 10
1455.067184052539
 20
815.5695371864537
 30
0.0
 11
1455.067184052539
 21
890.569537186454
 31
0.0
  0
SOLID
  5
765C
330
26DC
100
AcDbEntity
  8
AM_5
100
AcDbTrace
 10
1451.733850719206
 20
815.5695371864537
 30
0.0
 11
1458.400517385872
 21
815.5695371864537
 31
0.0
 12
1455.067184052539
 22
795.5695371864536
 32
0.0
 13
1455.067184052539
 23
795.5695371864536
 33
0.0
  0
SOLID
  5
765D
330
26DC
100
AcDbEntity
  8
AM_5
100
AcDbTrace
 10
1451.733850719206
 20
890.569537186454
 30
0.0
 11
1458.400517385872
 21
890.569537186454
 31
0.0
 12
1455.067184052539
 22
910.5695371864539
 32
0.0
 13
1455.067184052539
 23
910.5695371864539
 33
0.0
  0
MTEXT
  5
765E
330
26DC
100
AcDbEntity
  8
AM_5
100
AcDbMText
 10
1439.067184052539
 20
853.069537186454
 30
0.0
 40
20.0
 41
0.0
 71
     5
 72
     1
  1
\A2;115
 11
0.0000000000000001
 21
1.0
 31
0.0
 73
     1
 44
1.0
1001
ACAD
1000
MTEXTBEGIN
1070
    73
1070
     1
1070
    44
1040
1.0
1070
    74
1070
     0
1000
MTEXTEND
  0
POINT
  5
765F
330
26DC
100
AcDbEntity
  8
Defpoints
 62
     0
100
AcDbPoint
 10
1624.567184052541
 20
795.5695371864536
 30
0.0
  0
POINT
  5
7660
330
26DC
100
AcDbEntity
  8
Defpoints
 62
     0
100
AcDbPoint
 10
1580.067184052539
 20
910.5695371864539
 30
0.0
  0
POINT
  5
7661
330
26DC
100
AcDbEntity
  8
Defpoints
 62
     0
100
AcDbPoint
 10
1455.067184052539
 20
910.5695371864539
 30
0.0
  0
ENDBLK
  5
26E7
330
26DC
100
AcDbEntity
  8
0
100
AcDbBlockEnd
  0
BLOCK
  5
2716
330
270C
100
AcDbEntity
  8
0
100
AcDbBlockBegin
  2
*D10
 70
     1
 10
0.0
 20
0.0
 30
0.0
  3
*D10
  1

  0
LINE
  5
7662
330
270C
100
AcDbEntity
  8
AM_5
100
AcDbLine
 10
1577.067184052539
 20
910.5695371864539
 30
0.0
 11
1451.067184052539
 21
910.5695371864539
 31
0.0
  0
LINE
  5
7663
330
270C
100
AcDbEntity
  8
AM_5
100
AcDbLine
 10
1617.448433727602
 20
1312.569537186454
 30
0.0
 11
1451.067184052539
 21
1312.569537186455
 31
0.0
  0
LINE
  5
7664
330
270C
100
AcDbEntity
  8
AM_5
100
AcDbLine
 10
1455.067184052539
 20
930.569537186454
 30
0.0
 11
1455.067184052539
 21
1292.569537186455
 31
0.0
  0
SOLID
  5
7665
330
270C
100
AcDbEntity
  8
AM_5
100
AcDbTrace
 10
1451.733850719206
 20
930.569537186454
 30
0.0
 11
1458.400517385872
 21
930.569537186454
 31
0.0
 12
1455.067184052539
 22
910.5695371864539
 32
0.0
 13
1455.067184052539
 23
910.5695371864539
 33
0.0
  0
SOLID
  5
7666
330
270C
100
AcDbEntity
  8
AM_5
100
AcDbTrace
 10
1451.733850719206
 20
1292.569537186455
 30
0.0
 11
1458.400517385872
 21
1292.569537186455
 31
0.0
 12
1455.067184052539
 22
1312.569537186455
 32
0.0
 13
1455.067184052539
 23
1312.569537186455
 33
0.0
  0
MTEXT
  5
7667
330
270C
100
AcDbEntity
  8
AM_5
100
AcDbMText
 10
1439.065215548602
 20
1111.569537186454
 30
0.0
 40
20.0
 41
0.0
 71
     5
 72
     1
  1
\A2;402
 11
0.0000000000000001
 21
1.0
 31
0.0
 73
     1
 44
1.0
1001
ACAD
1000
MTEXTBEGIN
1070
    73
1070
     1
1070
    44
1040
1.0
1070
    74
1070
     0
1000
MTEXTEND
  0
POINT
  5
7668
330
270C
100
AcDbEntity
  8
Defpoints
 62
     0
100
AcDbPoint
 10
1580.067184052539
 20
910.5695371864539
 30
0.0
  0
POINT
  5
7669
330
270C
100
AcDbEntity
  8
Defpoints
 62
     0
100
AcDbPoint
 10
1620.448433727602
 20
1312.569537186454
 30
0.0
  0
POINT
  5
766A
330
270C
100
AcDbEntity
  8
Defpoints
 62
     0
100
AcDbPoint
 10
1455.067184052539
 20
1312.569537186455
 30
0.0
  0
ENDBLK
  5
2717
330
270C
100
AcDbEntity
  8
0
100
AcDbBlockEnd
  0
BLOCK
  5
273C
330
2732
100
AcDbEntity
  8
0
100
AcDbBlockBegin
  2
*D11
 70
     1
 10
0.0
 20
0.0
 30
0.0
  3
*D11
  1

  0
LINE
  5
7960
330
2732
100
AcDbEntity
  8
AM_5
100
AcDbLine
 10
1512.067184052539
 20
526.4452132927007
 30
0.0
 11
1401.067184052539
 21
526.4452132927007
 31
0.0
  0
LINE
  5
7961
330
2732
100
AcDbEntity
  8
AM_5
100
AcDbLine
 10
1617.448433727602
 20
1312.569537186454
 30
0.0
 11
1401.067184052539
 21
1312.569537186455
 31
0.0
  0
LINE
  5
7962
330
2732
100
AcDbEntity
  8
AM_5
100
AcDbLine
 10
1405.067184052539
 20
546.4452132927006
 30
0.0
 11
1405.067184052539
 21
1292.569537186455
 31
0.0
  0
SOLID
  5
7963
330
2732
100
AcDbEntity
  8
AM_5
100
AcDbTrace
 10
1401.733850719206
 20
546.4452132927006
 30
0.0
 11
1408.400517385872
 21
546.4452132927006
 31
0.0
 12
1405.067184052539
 22
526.4452132927007
 32
0.0
 13
1405.067184052539
 23
526.4452132927007
 33
0.0
  0
SOLID
  5
7964
330
2732
100
AcDbEntity
  8
AM_5
100
AcDbTrace
 10
1401.733850719206
 20
1292.569537186455
 30
0.0
 11
1408.400517385872
 21
1292.569537186455
 31
0.0
 12
1405.067184052539
 22
1312.569537186455
 32
0.0
 13
1405.067184052539
 23
1312.569537186455
 33
0.0
  0
MTEXT
  5
7965
330
2732
100
AcDbEntity
  8
AM_5
100
AcDbMText
 10
1389.067184052539
 20
919.507375239578
 30
0.0
 40
20.0
 41
0.0
 71
     5
 72
     1
  1
\A2;Max. 800
 11
0.0000000000000001
 21
1.0
 31
0.0
 73
     1
 44
1.0
1001
ACAD
1000
MTEXTBEGIN
1070
    73
1070
     1
1070
    44
1040
1.0
1070
    74
1070
     0
1000
MTEXTEND
  0
POINT
  5
7966
330
2732
100
AcDbEntity
  8
Defpoints
 62
     0
100
AcDbPoint
 10
1515.067184052539
 20
526.4452132927007
 30
0.0
  0
POINT
  5
7967
330
2732
100
AcDbEntity
  8
Defpoints
 62
     0
100
AcDbPoint
 10
1620.448433727602
 20
1312.569537186454
 30
0.0
  0
POINT
  5
7968
330
2732
100
AcDbEntity
  8
Defpoints
 62
     0
100
AcDbPoint
 10
1405.067184052539
 20
1312.569537186455
 30
0.0
  0
ENDBLK
  5
273D
330
2732
100
AcDbEntity
  8
0
100
AcDbBlockEnd
  0
BLOCK
  5
2762
330
2758
100
AcDbEntity
  8
0
100
AcDbBlockBegin
  2
*D12
 70
     1
 10
0.0
 20
0.0
 30
0.0
  3
*D12
  1

  0
LINE
  5
7826
330
2758
100
AcDbEntity
  8
AM_5
100
AcDbLine
 10
1898.067184052539
 20
526.4452132927005
 30
0.0
 11
1959.067184052539
 21
526.4452132927005
 31
0.0
  0
LINE
  5
7827
330
2758
100
AcDbEntity
  8
AM_5
100
AcDbLine
 10
1898.067184052539
 20
606.4452132927006
 30
0.0
 11
1959.067184052539
 21
606.4452132927006
 31
0.0
  0
LINE
  5
7828
330
2758
100
AcDbEntity
  8
AM_5
100
AcDbLine
 10
1955.067184052539
 20
546.4452132927005
 30
0.0
 11
1955.067184052539
 21
586.4452132927006
 31
0.0
  0
SOLID
  5
7829
330
2758
100
AcDbEntity
  8
AM_5
100
AcDbTrace
 10
1951.733850719206
 20
546.4452132927005
 30
0.0
 11
1958.400517385872
 21
546.4452132927005
 31
0.0
 12
1955.067184052539
 22
526.4452132927005
 32
0.0
 13
1955.067184052539
 23
526.4452132927005
 33
0.0
  0
SOLID
  5
782A
330
2758
100
AcDbEntity
  8
AM_5
100
AcDbTrace
 10
1951.733850719206
 20
586.4452132927006
 30
0.0
 11
1958.400517385872
 21
586.4452132927006
 31
0.0
 12
1955.067184052539
 22
606.4452132927006
 32
0.0
 13
1955.067184052539
 23
606.4452132927006
 33
0.0
  0
MTEXT
  5
782B
330
2758
100
AcDbEntity
  8
AM_5
100
AcDbMText
 10
1939.067184052539
 20
566.4452132927009
 30
0.0
 40
20.0
 41
0.0
 71
     5
 72
     1
  1
\A2;80
 11
0.0000000000000001
 21
1.0
 31
0.0
 73
     1
 44
1.0
1001
ACAD
1000
MTEXTBEGIN
1070
    73
1070
     1
1070
    44
1040
1.0
1070
    74
1070
     0
1000
MTEXTEND
  0
POINT
  5
782C
330
2758
100
AcDbEntity
  8
Defpoints
 62
     0
100
AcDbPoint
 10
1895.067184052539
 20
526.4452132927005
 30
0.0
  0
POINT
  5
782D
330
2758
100
AcDbEntity
  8
Defpoints
 62
     0
100
AcDbPoint
 10
1895.067184052539
 20
606.4452132927006
 30
0.0
  0
POINT
  5
782E
330
2758
100
AcDbEntity
  8
Defpoints
 62
     0
100
AcDbPoint
 10
1955.067184052539
 20
606.4452132927006
 30
0.0
  0
ENDBLK
  5
2763
330
2758
100
AcDbEntity
  8
0
100
AcDbBlockEnd
  0
BLOCK
  5
2788
330
277E
100
AcDbEntity
  8
0
100
AcDbBlockBegin
  2
*D13
 70
     1
 10
0.0
 20
0.0
 30
0.0
  3
*D13
  1

  0
LINE
  5
767D
330
277E
100
AcDbEntity
  8
AM_5
100
AcDbLine
 10
1645.067184052539
 20
768.6106673246745
 30
0.0
 11
1645.067184052539
 21
697.1221562630151
 31
0.0
  0
LINE
  5
767E
330
277E
100
AcDbEntity
  8
AM_5
100
AcDbLine
 10
1787.567184052539
 20
827.5695371864539
 30
0.0
 11
1787.567184052539
 21
697.1221562630151
 31
0.0
  0
LINE
  5
767F
330
277E
100
AcDbEntity
  8
AM_5
100
AcDbLine
 10
1665.067184052539
 20
701.1221562630151
 30
0.0
 11
1767.567184052539
 21
701.1221562630151
 31
0.0
  0
SOLID
  5
7680
330
277E
100
AcDbEntity
  8
AM_5
100
AcDbTrace
 10
1665.067184052539
 20
704.4554895963484
 30
0.0
 11
1665.067184052539
 21
697.7888229296817
 31
0.0
 12
1645.067184052539
 22
701.1221562630151
 32
0.0
 13
1645.067184052539
 23
701.1221562630151
 33
0.0
  0
SOLID
  5
7681
330
277E
100
AcDbEntity
  8
AM_5
100
AcDbTrace
 10
1767.567184052539
 20
704.4554895963484
 30
0.0
 11
1767.567184052539
 21
697.7888229296817
 31
0.0
 12
1787.567184052539
 22
701.1221562630151
 32
0.0
 13
1787.567184052539
 23
701.1221562630151
 33
0.0
  0
MTEXT
  5
7682
330
277E
100
AcDbEntity
  8
AM_5
100
AcDbMText
 10
1716.317184052539
 20
717.124124766952
 30
0.0
 40
20.0
 41
0.0
 71
     5
 72
     1
  1
\A2;142.5
 73
     1
 44
1.0
1001
ACAD
1000
MTEXTBEGIN
1070
    73
1070
     1
1070
    44
1040
1.0
1070
    74
1070
     0
1000
MTEXTEND
  0
POINT
  5
7683
330
277E
100
AcDbEntity
  8
Defpoints
 62
     0
100
AcDbPoint
 10
1645.067184052539
 20
771.6106673246745
 30
0.0
  0
POINT
  5
7684
330
277E
100
AcDbEntity
  8
Defpoints
 62
     0
100
AcDbPoint
 10
1787.567184052539
 20
830.5695371864539
 30
0.0
  0
POINT
  5
7685
330
277E
100
AcDbEntity
  8
Defpoints
 62
     0
100
AcDbPoint
 10
1787.567184052539
 20
701.1221562630151
 30
0.0
  0
ENDBLK
  5
2789
330
277E
100
AcDbEntity
  8
0
100
AcDbBlockEnd
  0
BLOCK
  5
27AE
330
27A4
100
AcDbEntity
  8
0
100
AcDbBlockBegin
  2
*D14
 70
     1
 10
0.0
 20
0.0
 30
0.0
  3
*D14
  1

  0
LINE
  5
7686
330
27A4
100
AcDbEntity
  8
AM_5
100
AcDbLine
 10
1898.067184052539
 20
830.5695371864539
 30
0.0
 11
1959.067184052539
 21
830.5695371864539
 31
0.0
  0
LINE
  5
7687
330
27A4
100
AcDbEntity
  8
AM_5
100
AcDbLine
 10
1898.067184052539
 20
910.5695371864539
 30
0.0
 11
1959.067184052539
 21
910.5695371864539
 31
0.0
  0
LINE
  5
7688
330
27A4
100
AcDbEntity
  8
AM_5
100
AcDbLine
 10
1955.067184052539
 20
850.5695371864538
 30
0.0
 11
1955.067184052539
 21
890.569537186454
 31
0.0
  0
SOLID
  5
7689
330
27A4
100
AcDbEntity
  8
AM_5
100
AcDbTrace
 10
1951.733850719206
 20
850.5695371864538
 30
0.0
 11
1958.400517385872
 21
850.5695371864538
 31
0.0
 12
1955.067184052539
 22
830.5695371864539
 32
0.0
 13
1955.067184052539
 23
830.5695371864539
 33
0.0
  0
SOLID
  5
768A
330
27A4
100
AcDbEntity
  8
AM_5
100
AcDbTrace
 10
1951.733850719206
 20
890.569537186454
 30
0.0
 11
1958.400517385872
 21
890.569537186454
 31
0.0
 12
1955.067184052539
 22
910.5695371864539
 32
0.0
 13
1955.067184052539
 23
910.5695371864539
 33
0.0
  0
MTEXT
  5
768B
330
27A4
100
AcDbEntity
  8
AM_5
100
AcDbMText
 10
1939.067184052539
 20
870.5695371864543
 30
0.0
 40
20.0
 41
0.0
 71
     5
 72
     1
  1
\A2;80
 11
0.0000000000000001
 21
1.0
 31
0.0
 73
     1
 44
1.0
1001
ACAD
1000
MTEXTBEGIN
1070
    73
1070
     1
1070
    44
1040
1.0
1070
    74
1070
     0
1000
MTEXTEND
  0
POINT
  5
768C
330
27A4
100
AcDbEntity
  8
Defpoints
 62
     0
100
AcDbPoint
 10
1895.067184052539
 20
830.5695371864539
 30
0.0
  0
POINT
  5
768D
330
27A4
100
AcDbEntity
  8
Defpoints
 62
     0
100
AcDbPoint
 10
1895.067184052539
 20
910.5695371864539
 30
0.0
  0
POINT
  5
768E
330
27A4
100
AcDbEntity
  8
Defpoints
 62
     0
100
AcDbPoint
 10
1955.067184052539
 20
910.5695371864539
 30
0.0
  0
ENDBLK
  5
27AF
330
27A4
100
AcDbEntity
  8
0
100
AcDbBlockEnd
  0
BLOCK
  5
27D4
330
27CA
100
AcDbEntity
  8
0
100
AcDbBlockBegin
  2
*D15
 70
     1
 10
0.0
 20
0.0
 30
0.0
  3
*D15
  1

  0
LINE
  5
782F
330
27CA
100
AcDbEntity
  8
AM_5
100
AcDbLine
 10
1898.067184052539
 20
526.4452132927005
 30
0.0
 11
2009.067184052539
 21
526.4452132927005
 31
0.0
  0
LINE
  5
7830
330
27CA
100
AcDbEntity
  8
AM_5
100
AcDbLine
 10
1863.567184052539
 20
926.4452132927006
 30
0.0
 11
2009.067184052539
 21
926.4452132927006
 31
0.0
  0
LINE
  5
7831
330
27CA
100
AcDbEntity
  8
AM_5
100
AcDbLine
 10
2005.067184052539
 20
546.4452132927005
 30
0.0
 11
2005.067184052539
 21
906.4452132927005
 31
0.0
  0
SOLID
  5
7832
330
27CA
100
AcDbEntity
  8
AM_5
100
AcDbTrace
 10
2001.733850719206
 20
546.4452132927005
 30
0.0
 11
2008.400517385872
 21
546.4452132927005
 31
0.0
 12
2005.067184052539
 22
526.4452132927005
 32
0.0
 13
2005.067184052539
 23
526.4452132927005
 33
0.0
  0
SOLID
  5
7833
330
27CA
100
AcDbEntity
  8
AM_5
100
AcDbTrace
 10
2001.733850719206
 20
906.4452132927005
 30
0.0
 11
2008.400517385872
 21
906.4452132927005
 31
0.0
 12
2005.067184052539
 22
926.4452132927006
 32
0.0
 13
2005.067184052539
 23
926.4452132927006
 33
0.0
  0
MTEXT
  5
7834
330
27CA
100
AcDbEntity
  8
AM_5
100
AcDbMText
 10
1989.067184052539
 20
726.4452132927009
 30
0.0
 40
20.0
 41
0.0
 71
     5
 72
     1
  1
\A2;400
 11
0.0000000000000001
 21
1.0
 31
0.0
 73
     1
 44
1.0
1001
ACAD
1000
MTEXTBEGIN
1070
    73
1070
     1
1070
    44
1040
1.0
1070
    74
1070
     0
1000
MTEXTEND
  0
POINT
  5
7835
330
27CA
100
AcDbEntity
  8
Defpoints
 62
     0
100
AcDbPoint
 10
1895.067184052539
 20
526.4452132927005
 30
0.0
  0
POINT
  5
7836
330
27CA
100
AcDbEntity
  8
Defpoints
 62
     0
100
AcDbPoint
 10
1860.567184052539
 20
926.4452132927006
 30
0.0
  0
POINT
  5
7837
330
27CA
100
AcDbEntity
  8
Defpoints
 62
     0
100
AcDbPoint
 10
2005.067184052539
 20
926.4452132927006
 30
0.0
  0
ENDBLK
  5
27D5
330
27CA
100
AcDbEntity
  8
0
100
AcDbBlockEnd
  0
BLOCK
  5
2D73
330
2D69
100
AcDbEntity
  8
0
100
AcDbBlockBegin
  2
*D16
 70
     1
 10
0.0
 20
0.0
 30
0.0
  3
*D16
  1

  0
LINE
  5
781C
330
2D69
100
AcDbEntity
  8
AM_5
100
AcDbLine
 10
1058.462785469703
 20
907.569537186454
 30
0.0
 11
1058.462785469703
 21
878.46102444002
 31
0.0
  0
LINE
  5
781D
330
2D69
100
AcDbEntity
  8
AM_5
100
AcDbLine
 10
1188.462785469703
 20
907.569537186454
 30
0.0
 11
1188.462785469703
 21
878.46102444002
 31
0.0
  0
LINE
  5
781E
330
2D69
100
AcDbEntity
  8
AM_5
100
AcDbLine
 10
1168.462785469704
 20
882.4610244400201
 30
0.0
 11
1078.462785469703
 21
882.4610244400201
 31
0.0
  0
LINE
  5
781F
330
2D69
100
AcDbEntity
  8
AM_5
100
AcDbLine
 10
1058.462785469703
 20
882.4610244400201
 30
0.0
 11
994.4470374382076
 21
882.4610244400201
 31
0.0
  0
SOLID
  5
7820
330
2D69
100
AcDbEntity
  8
AM_5
100
AcDbTrace
 10
1168.462785469704
 20
885.7943577733534
 30
0.0
 11
1168.462785469704
 21
879.1276911066868
 31
0.0
 12
1188.462785469703
 22
882.4610244400201
 32
0.0
 13
1188.462785469703
 23
882.4610244400201
 33
0.0
  0
SOLID
  5
7821
330
2D69
100
AcDbEntity
  8
AM_5
100
AcDbTrace
 10
1078.462785469703
 20
885.7943577733534
 30
0.0
 11
1078.462785469703
 21
879.1276911066868
 31
0.0
 12
1058.462785469703
 22
882.4610244400201
 32
0.0
 13
1058.462785469703
 23
882.4610244400201
 33
0.0
  0
MTEXT
  5
7822
330
2D69
100
AcDbEntity
  8
AM_5
100
AcDbMText
 10
1016.454911453956
 20
898.4610244400201
 30
0.0
 40
20.0
 41
0.0
 71
     5
 72
     1
  1
\A2;130
 73
     1
 44
1.0
1001
ACAD
1000
MTEXTBEGIN
1070
    73
1070
     1
1070
    44
1040
1.0
1070
    74
1070
     0
1000
MTEXTEND
  0
POINT
  5
7823
330
2D69
100
AcDbEntity
  8
Defpoints
 62
     0
100
AcDbPoint
 10
1058.462785469703
 20
910.5695371864539
 30
0.0
  0
POINT
  5
7824
330
2D69
100
AcDbEntity
  8
Defpoints
 62
     0
100
AcDbPoint
 10
1188.462785469703
 20
910.5695371864539
 30
0.0
  0
POINT
  5
7825
330
2D69
100
AcDbEntity
  8
Defpoints
 62
     0
100
AcDbPoint
 10
1188.462785469703
 20
882.4610244400201
 30
0.0
  0
ENDBLK
  5
2D74
330
2D69
100
AcDbEntity
  8
0
100
AcDbBlockEnd
  0
BLOCK
  5
2DAC
330
2DA0
100
AcDbEntity
  8
0
100
AcDbBlockBegin
  2
*D17
 70
     1
 10
0.0
 20
0.0
 30
0.0
  3
*D17
  1

  0
LINE
  5
76A2
330
2DA0
100
AcDbEntity
  8
AM_5
100
AcDbLine
 10
1103.462785469703
 20
1597.877368296447
 30
0.0
 11
1103.462785469703
 21
1536.877368296447
 31
0.0
  0
LINE
  5
76A3
330
2DA0
100
AcDbEntity
  8
AM_5
100
AcDbLine
 10
1143.462785469703
 20
1597.877368296447
 30
0.0
 11
1143.462785469703
 21
1536.877368296447
 31
0.0
  0
LINE
  5
76A4
330
2DA0
100
AcDbEntity
  8
AM_5
100
AcDbLine
 10
1083.462785469704
 20
1540.877368296446
 30
0.0
 11
1063.462785469703
 21
1540.877368296446
 31
0.0
  0
LINE
  5
76A5
330
2DA0
100
AcDbEntity
  8
AM_5
100
AcDbLine
 10
1163.462785469703
 20
1540.877368296446
 30
0.0
 11
1236.4785335012
 21
1540.877368296446
 31
0.0
  0
LINE
  5
76A6
330
2DA0
100
AcDbEntity
  8
AM_5
100
AcDbLine
 10
1103.462785469703
 20
1540.877368296446
 30
0.0
 11
1143.462785469703
 21
1540.877368296446
 31
0.0
  0
SOLID
  5
76A7
330
2DA0
100
AcDbEntity
  8
AM_5
100
AcDbTrace
 10
1083.462785469704
 20
1544.21070162978
 30
0.0
 11
1083.462785469704
 21
1537.544034963113
 31
0.0
 12
1103.462785469703
 22
1540.877368296446
 32
0.0
 13
1103.462785469703
 23
1540.877368296446
 33
0.0
  0
SOLID
  5
76A8
330
2DA0
100
AcDbEntity
  8
AM_5
100
AcDbTrace
 10
1163.462785469703
 20
1544.21070162978
 30
0.0
 11
1163.462785469703
 21
1537.544034963113
 31
0.0
 12
1143.462785469703
 22
1540.877368296446
 32
0.0
 13
1143.462785469703
 23
1540.877368296446
 33
0.0
  0
MTEXT
  5
76A9
330
2DA0
100
AcDbEntity
  8
AM_5
100
AcDbMText
 10
1210.470659485452
 20
1556.879336800384
 30
0.0
 40
20.0
 41
0.0
 71
     5
 72
     1
  1
\A2;%%c20
 73
     1
 44
1.0
1001
ACAD
1000
MTEXTBEGIN
1070
    73
1070
     1
1070
    44
1040
1.0
1070
    74
1070
     0
1000
MTEXTEND
  0
POINT
  5
76AA
330
2DA0
100
AcDbEntity
  8
Defpoints
 62
     0
100
AcDbPoint
 10
1103.462785469703
 20
1600.877368296447
 30
0.0
  0
POINT
  5
76AB
330
2DA0
100
AcDbEntity
  8
Defpoints
 62
     0
100
AcDbPoint
 10
1143.462785469703
 20
1600.877368296447
 30
0.0
  0
POINT
  5
76AC
330
2DA0
100
AcDbEntity
  8
Defpoints
 62
     0
100
AcDbPoint
 10
1143.462785469703
 20
1540.877368296446
 30
0.0
  0
ENDBLK
  5
2DAD
330
2DA0
100
AcDbEntity
  8
0
100
AcDbBlockEnd
  0
BLOCK
  5
2DBA
330
2DAE
100
AcDbEntity
  8
0
100
AcDbBlockBegin
  2
*D18
 70
     1
 10
0.0
 20
0.0
 30
0.0
  3
*D18
  1

  0
LINE
  5
76AD
330
2DAE
100
AcDbEntity
  8
AM_5
100
AcDbLine
 10
1079.462785469704
 20
1600.877368296447
 30
0.0
 11
1012.120063396155
 21
1600.877368296447
 31
0.0
  0
LINE
  5
76AE
330
2DAE
100
AcDbEntity
  8
AM_5
100
AcDbLine
 10
1068.089190502146
 20
1630.877368296447
 30
0.0
 11
1012.120063396155
 21
1630.877368296447
 31
0.0
  0
LINE
  5
76AF
330
2DAE
100
AcDbEntity
  8
AM_5
100
AcDbLine
 10
1016.120063396155
 20
1650.877368296447
 30
0.0
 11
1016.120063396155
 21
1670.877368296447
 31
0.0
  0
LINE
  5
76B0
330
2DAE
100
AcDbEntity
  8
AM_5
100
AcDbLine
 10
1016.120063396155
 20
1580.877368296446
 30
0.0
 11
1016.120063396155
 21
1530.0489411717
 31
0.0
  0
LINE
  5
76B1
330
2DAE
100
AcDbEntity
  8
AM_5
100
AcDbLine
 10
1016.120063396155
 20
1630.877368296447
 30
0.0
 11
1016.120063396155
 21
1600.877368296447
 31
0.0
  0
SOLID
  5
76B2
330
2DAE
100
AcDbEntity
  8
AM_5
100
AcDbTrace
 10
1012.786730062821
 20
1650.877368296447
 30
0.0
 11
1019.453396729488
 21
1650.877368296447
 31
0.0
 12
1016.120063396155
 22
1630.877368296447
 32
0.0
 13
1016.120063396155
 23
1630.877368296447
 33
0.0
  0
SOLID
  5
76B3
330
2DAE
100
AcDbEntity
  8
AM_5
100
AcDbTrace
 10
1012.786730062821
 20
1580.877368296446
 30
0.0
 11
1019.453396729488
 21
1580.877368296446
 31
0.0
 12
1016.120063396155
 22
1600.877368296447
 32
0.0
 13
1016.120063396155
 23
1600.877368296447
 33
0.0
  0
MTEXT
  5
76B4
330
2DAE
100
AcDbEntity
  8
AM_5
100
AcDbMText
 10
1000.120063396155
 20
1545.463154734074
 30
0.0
 40
20.0
 41
0.0
 71
     5
 72
     1
  1
\A2;15
 11
0.0000000000000001
 21
1.0
 31
0.0
 73
     1
 44
1.0
1001
ACAD
1000
MTEXTBEGIN
1070
    73
1070
     1
1070
    44
1040
1.0
1070
    74
1070
     0
1000
MTEXTEND
  0
POINT
  5
76B5
330
2DAE
100
AcDbEntity
  8
Defpoints
 62
     0
100
AcDbPoint
 10
1082.462785469704
 20
1600.877368296447
 30
0.0
  0
POINT
  5
76B6
330
2DAE
100
AcDbEntity
  8
Defpoints
 62
     0
100
AcDbPoint
 10
1071.089190502146
 20
1630.877368296447
 30
0.0
  0
POINT
  5
76B7
330
2DAE
100
AcDbEntity
  8
Defpoints
 62
     0
100
AcDbPoint
 10
1016.120063396155
 20
1630.877368296447
 30
0.0
  0
ENDBLK
  5
2DBB
330
2DAE
100
AcDbEntity
  8
0
100
AcDbBlockEnd
  0
BLOCK
  5
2DC6
330
2DBC
100
AcDbEntity
  8
0
100
AcDbBlockBegin
  2
*D19
 70
     1
 10
0.0
 20
0.0
 30
0.0
  3
*D19
  1

  0
LINE
  5
76B8
330
2DBC
100
AcDbEntity
  8
AM_5
100
AcDbLine
 10
1079.462785469704
 20
1600.877368296447
 30
0.0
 11
962.1200633961553
 21
1600.877368296447
 31
0.0
  0
LINE
  5
76B9
330
2DBC
100
AcDbEntity
  8
AM_5
100
AcDbLine
 10
1100.462785469703
 20
1660.877368296447
 30
0.0
 11
962.1200633961553
 21
1660.877368296447
 31
0.0
  0
LINE
  5
76BA
330
2DBC
100
AcDbEntity
  8
AM_5
100
AcDbLine
 10
966.1200633961552
 20
1620.877368296447
 30
0.0
 11
966.1200633961552
 21
1640.877368296447
 31
0.0
  0
SOLID
  5
76BB
330
2DBC
100
AcDbEntity
  8
AM_5
100
AcDbTrace
 10
962.7867300628219
 20
1620.877368296447
 30
0.0
 11
969.4533967294885
 21
1620.877368296447
 31
0.0
 12
966.1200633961552
 22
1600.877368296447
 32
0.0
 13
966.1200633961552
 23
1600.877368296447
 33
0.0
  0
SOLID
  5
76BC
330
2DBC
100
AcDbEntity
  8
AM_5
100
AcDbTrace
 10
962.7867300628219
 20
1640.877368296447
 30
0.0
 11
969.4533967294885
 21
1640.877368296447
 31
0.0
 12
966.1200633961552
 22
1660.877368296447
 32
0.0
 13
966.1200633961552
 23
1660.877368296447
 33
0.0
  0
MTEXT
  5
76BD
330
2DBC
100
AcDbEntity
  8
AM_5
100
AcDbMText
 10
950.120063396155
 20
1630.877368296447
 30
0.0
 40
20.0
 41
0.0
 71
     5
 72
     1
  1
\A2;30
 11
0.0000000000000001
 21
1.0
 31
0.0
 73
     1
 44
1.0
1001
ACAD
1000
MTEXTBEGIN
1070
    73
1070
     1
1070
    44
1040
1.0
1070
    74
1070
     0
1000
MTEXTEND
  0
POINT
  5
76BE
330
2DBC
100
AcDbEntity
  8
Defpoints
 62
     0
100
AcDbPoint
 10
1082.462785469704
 20
1600.877368296447
 30
0.0
  0
POINT
  5
76BF
330
2DBC
100
AcDbEntity
  8
Defpoints
 62
     0
100
AcDbPoint
 10
1103.462785469703
 20
1660.877368296447
 30
0.0
  0
POINT
  5
76C0
330
2DBC
100
AcDbEntity
  8
Defpoints
 62
     0
100
AcDbPoint
 10
966.1200633961552
 20
1660.877368296447
 30
0.0
  0
ENDBLK
  5
2DC7
330
2DBC
100
AcDbEntity
  8
0
100
AcDbBlockEnd
  0
BLOCK
  5
2E28
330
2E1C
100
AcDbEntity
  8
0
100
AcDbBlockBegin
  2
*D20
 70
     1
 10
0.0
 20
0.0
 30
0.0
  3
*D20
  1

  0
LINE
  5
76C1
330
2E1C
100
AcDbEntity
  8
AM_5
100
AcDbLine
 10
1620.067184052539
 20
1616.754899541804
 30
0.0
 11
1620.067184052539
 21
1555.754898541804
 31
0.0
  0
LINE
  5
76C2
330
2E1C
100
AcDbEntity
  8
AM_5
100
AcDbLine
 10
1670.067184052539
 20
1616.754899541804
 30
0.0
 11
1670.067184052539
 21
1555.754898541804
 31
0.0
  0
LINE
  5
76C3
330
2E1C
100
AcDbEntity
  8
AM_5
100
AcDbLine
 10
1600.067184052539
 20
1559.754898541804
 30
0.0
 11
1580.067184052539
 21
1559.754898541804
 31
0.0
  0
LINE
  5
76C4
330
2E1C
100
AcDbEntity
  8
AM_5
100
AcDbLine
 10
1690.067184052539
 20
1559.754898541804
 30
0.0
 11
1710.067184052539
 21
1559.754898541804
 31
0.0
  0
LINE
  5
76C5
330
2E1C
100
AcDbEntity
  8
AM_5
100
AcDbLine
 10
1620.067184052539
 20
1559.754898541804
 30
0.0
 11
1670.067184052539
 21
1559.754898541804
 31
0.0
  0
SOLID
  5
76C6
330
2E1C
100
AcDbEntity
  8
AM_5
100
AcDbTrace
 10
1600.067184052539
 20
1563.088231875138
 30
0.0
 11
1600.067184052539
 21
1556.421565208471
 31
0.0
 12
1620.067184052539
 22
1559.754898541804
 32
0.0
 13
1620.067184052539
 23
1559.754898541804
 33
0.0
  0
SOLID
  5
76C7
330
2E1C
100
AcDbEntity
  8
AM_5
100
AcDbTrace
 10
1690.067184052539
 20
1563.088231875138
 30
0.0
 11
1690.067184052539
 21
1556.421565208471
 31
0.0
 12
1670.067184052539
 22
1559.754898541804
 32
0.0
 13
1670.067184052539
 23
1559.754898541804
 33
0.0
  0
MTEXT
  5
76C8
330
2E1C
100
AcDbEntity
  8
AM_5
100
AcDbMText
 10
1645.067184052539
 20
1575.756867045741
 30
0.0
 40
20.0
 41
0.0
 71
     5
 72
     1
  1
\A2;25
 73
     1
 44
1.0
1001
ACAD
1000
MTEXTBEGIN
1070
    73
1070
     1
1070
    44
1040
1.0
1070
    74
1070
     0
1000
MTEXTEND
  0
POINT
  5
76C9
330
2E1C
100
AcDbEntity
  8
Defpoints
 62
     0
100
AcDbPoint
 10
1620.067184052539
 20
1619.754899541804
 30
0.0
  0
POINT
  5
76CA
330
2E1C
100
AcDbEntity
  8
Defpoints
 62
     0
100
AcDbPoint
 10
1670.067184052539
 20
1619.754899541804
 30
0.0
  0
POINT
  5
76CB
330
2E1C
100
AcDbEntity
  8
Defpoints
 62
     0
100
AcDbPoint
 10
1670.067184052539
 20
1559.754898541804
 30
0.0
  0
ENDBLK
  5
2E29
330
2E1C
100
AcDbEntity
  8
0
100
AcDbBlockEnd
  0
BLOCK
  5
2E36
330
2E2A
100
AcDbEntity
  8
0
100
AcDbBlockBegin
  2
*D21
 70
     1
 10
0.0
 20
0.0
 30
0.0
  3
*D21
  1

  0
LINE
  5
76CC
330
2E2A
100
AcDbEntity
  8
AM_5
100
AcDbLine
 10
1630.067184052539
 20
1664.754899541804
 30
0.0
 11
1630.067184052539
 21
1715.754900541804
 31
0.0
  0
LINE
  5
76CD
330
2E2A
100
AcDbEntity
  8
AM_5
100
AcDbLine
 10
1660.067184052539
 20
1664.754899541804
 30
0.0
 11
1660.067184052539
 21
1715.754900541804
 31
0.0
  0
LINE
  5
76CE
330
2E2A
100
AcDbEntity
  8
AM_5
100
AcDbLine
 10
1610.067184052539
 20
1711.754900541804
 30
0.0
 11
1590.067184052539
 21
1711.754900541804
 31
0.0
  0
LINE
  5
76CF
330
2E2A
100
AcDbEntity
  8
AM_5
100
AcDbLine
 10
1680.067184052539
 20
1711.754900541804
 30
0.0
 11
1700.067184052539
 21
1711.754900541804
 31
0.0
  0
LINE
  5
76D0
330
2E2A
100
AcDbEntity
  8
AM_5
100
AcDbLine
 10
1630.067184052539
 20
1711.754900541804
 30
0.0
 11
1660.067184052539
 21
1711.754900541804
 31
0.0
  0
SOLID
  5
76D1
330
2E2A
100
AcDbEntity
  8
AM_5
100
AcDbTrace
 10
1610.067184052539
 20
1715.088233875137
 30
0.0
 11
1610.067184052539
 21
1708.421567208471
 31
0.0
 12
1630.067184052539
 22
1711.754900541804
 32
0.0
 13
1630.067184052539
 23
1711.754900541804
 33
0.0
  0
SOLID
  5
76D2
330
2E2A
100
AcDbEntity
  8
AM_5
100
AcDbTrace
 10
1680.067184052539
 20
1715.088233875137
 30
0.0
 11
1680.067184052539
 21
1708.421567208471
 31
0.0
 12
1660.067184052539
 22
1711.754900541804
 32
0.0
 13
1660.067184052539
 23
1711.754900541804
 33
0.0
  0
MTEXT
  5
76D3
330
2E2A
100
AcDbEntity
  8
AM_5
100
AcDbMText
 10
1645.067184052539
 20
1727.754900541804
 30
0.0
 40
20.0
 41
0.0
 71
     5
 72
     1
  1
\A2;15
 73
     1
 44
1.0
1001
ACAD
1000
MTEXTBEGIN
1070
    73
1070
     1
1070
    44
1040
1.0
1070
    74
1070
     0
1000
MTEXTEND
  0
POINT
  5
76D4
330
2E2A
100
AcDbEntity
  8
Defpoints
 62
     0
100
AcDbPoint
 10
1630.067184052539
 20
1661.754899541804
 30
0.0
  0
POINT
  5
76D5
330
2E2A
100
AcDbEntity
  8
Defpoints
 62
     0
100
AcDbPoint
 10
1660.067184052539
 20
1661.754899541804
 30
0.0
  0
POINT
  5
76D6
330
2E2A
100
AcDbEntity
  8
Defpoints
 62
     0
100
AcDbPoint
 10
1660.067184052539
 20
1711.754900541804
 30
0.0
  0
ENDBLK
  5
2E37
330
2E2A
100
AcDbEntity
  8
0
100
AcDbBlockEnd
  0
BLOCK
  5
2E44
330
2E38
100
AcDbEntity
  8
0
100
AcDbBlockBegin
  2
*D22
 70
     1
 10
0.0
 20
0.0
 30
0.0
  3
*D22
  1

  0
LINE
  5
76D7
330
2E38
100
AcDbEntity
  8
AM_5
100
AcDbLine
 10
1683.007186273954
 20
1661.754899541804
 30
0.0
 11
1743.312381606969
 21
1661.754899541804
 31
0.0
  0
LINE
  5
76D8
330
2E38
100
AcDbEntity
  8
AM_5
100
AcDbLine
 10
1673.067184052539
 20
1639.754899541804
 30
0.0
 11
1743.312381606969
 21
1639.754899541804
 31
0.0
  0
LINE
  5
76D9
330
2E38
100
AcDbEntity
  8
AM_5
100
AcDbLine
 10
1739.312381606969
 20
1619.754899541804
 30
0.0
 11
1739.312381606969
 21
1599.754899541804
 31
0.0
  0
LINE
  5
76DA
330
2E38
100
AcDbEntity
  8
AM_5
100
AcDbLine
 10
1739.312381606969
 20
1681.754899541803
 30
0.0
 11
1739.312381606969
 21
1727.754899541803
 31
0.0
  0
LINE
  5
76DB
330
2E38
100
AcDbEntity
  8
AM_5
100
AcDbLine
 10
1739.312381606969
 20
1639.754899541804
 30
0.0
 11
1739.312381606969
 21
1661.754899541804
 31
0.0
  0
SOLID
  5
76DC
330
2E38
100
AcDbEntity
  8
AM_5
100
AcDbTrace
 10
1735.979048273635
 20
1619.754899541804
 30
0.0
 11
1742.645714940302
 21
1619.754899541804
 31
0.0
 12
1739.312381606969
 22
1639.754899541804
 32
0.0
 13
1739.312381606969
 23
1639.754899541804
 33
0.0
  0
SOLID
  5
76DD
330
2E38
100
AcDbEntity
  8
AM_5
100
AcDbTrace
 10
1735.979048273635
 20
1681.754899541803
 30
0.0
 11
1742.645714940302
 21
1681.754899541803
 31
0.0
 12
1739.312381606969
 22
1661.754899541804
 32
0.0
 13
1739.312381606969
 23
1661.754899541804
 33
0.0
  0
MTEXT
  5
76DE
330
2E38
100
AcDbEntity
  8
AM_5
100
AcDbMText
 10
1723.312381606968
 20
1714.754899541804
 30
0.0
 40
20.0
 41
0.0
 71
     5
 72
     1
  1
\A2;11
 11
0.0000000000000001
 21
1.0
 31
0.0
 73
     1
 44
1.0
1001
ACAD
1000
MTEXTBEGIN
1070
    73
1070
     1
1070
    44
1040
1.0
1070
    74
1070
     0
1000
MTEXTEND
  0
POINT
  5
76DF
330
2E38
100
AcDbEntity
  8
Defpoints
 62
     0
100
AcDbPoint
 10
1680.007186273954
 20
1661.754899541804
 30
0.0
  0
POINT
  5
76E0
330
2E38
100
AcDbEntity
  8
Defpoints
 62
     0
100
AcDbPoint
 10
1670.067184052539
 20
1639.754899541804
 30
0.0
  0
POINT
  5
76E1
330
2E38
100
AcDbEntity
  8
Defpoints
 62
     0
100
AcDbPoint
 10
1739.312381606969
 20
1639.754899541804
 30
0.0
  0
ENDBLK
  5
2E45
330
2E38
100
AcDbEntity
  8
0
100
AcDbBlockEnd
  0
BLOCK
  5
2E52
330
2E46
100
AcDbEntity
  8
0
100
AcDbBlockBegin
  2
*D23
 70
     1
 10
0.0
 20
0.0
 30
0.0
  3
*D23
  1

  0
LINE
  5
76E2
330
2E46
100
AcDbEntity
  8
AM_5
100
AcDbLine
 10
1617.067184052539
 20
1639.754899541804
 30
0.0
 11
1556.06718405254
 21
1639.754899541804
 31
0.0
  0
LINE
  5
76E3
330
2E46
100
AcDbEntity
  8
AM_5
100
AcDbLine
 10
1617.067184052539
 20
1619.754899541804
 30
0.0
 11
1556.06718405254
 21
1619.754899541804
 31
0.0
  0
LINE
  5
76E4
330
2E46
100
AcDbEntity
  8
AM_5
100
AcDbLine
 10
1560.067184052539
 20
1659.754899541804
 30
0.0
 11
1560.067184052539
 21
1679.754899541803
 31
0.0
  0
LINE
  5
76E5
330
2E46
100
AcDbEntity
  8
AM_5
100
AcDbLine
 10
1560.067184052539
 20
1599.754899541804
 30
0.0
 11
1560.067184052539
 21
1579.754899541804
 31
0.0
  0
LINE
  5
76E6
330
2E46
100
AcDbEntity
  8
AM_5
100
AcDbLine
 10
1560.067184052539
 20
1639.754899541804
 30
0.0
 11
1560.067184052539
 21
1619.754899541804
 31
0.0
  0
SOLID
  5
76E7
330
2E46
100
AcDbEntity
  8
AM_5
100
AcDbTrace
 10
1556.733850719206
 20
1659.754899541804
 30
0.0
 11
1563.400517385873
 21
1659.754899541804
 31
0.0
 12
1560.067184052539
 22
1639.754899541804
 32
0.0
 13
1560.067184052539
 23
1639.754899541804
 33
0.0
  0
SOLID
  5
76E8
330
2E46
100
AcDbEntity
  8
AM_5
100
AcDbTrace
 10
1556.733850719206
 20
1599.754899541804
 30
0.0
 11
1563.400517385873
 21
1599.754899541804
 31
0.0
 12
1560.067184052539
 22
1619.754899541804
 32
0.0
 13
1560.067184052539
 23
1619.754899541804
 33
0.0
  0
MTEXT
  5
76E9
330
2E46
100
AcDbEntity
  8
AM_5
100
AcDbMText
 10
1544.067184052539
 20
1629.754899541804
 30
0.0
 40
20.0
 41
0.0
 71
     5
 72
     1
  1
\A2;10
 11
0.0000000000000001
 21
1.0
 31
0.0
 73
     1
 44
1.0
1001
ACAD
1000
MTEXTBEGIN
1070
    73
1070
     1
1070
    44
1040
1.0
1070
    74
1070
     0
1000
MTEXTEND
  0
POINT
  5
76EA
330
2E46
100
AcDbEntity
  8
Defpoints
 62
     0
100
AcDbPoint
 10
1620.067184052539
 20
1639.754899541804
 30
0.0
  0
POINT
  5
76EB
330
2E46
100
AcDbEntity
  8
Defpoints
 62
     0
100
AcDbPoint
 10
1620.067184052539
 20
1619.754899541804
 30
0.0
  0
POINT
  5
76EC
330
2E46
100
AcDbEntity
  8
Defpoints
 62
     0
100
AcDbPoint
 10
1560.067184052539
 20
1619.754899541804
 30
0.0
  0
ENDBLK
  5
2E53
330
2E46
100
AcDbEntity
  8
0
100
AcDbBlockEnd
  0
BLOCK
  5
2F04
330
2EFA
100
AcDbEntity
  8
0
100
AcDbBlockBegin
  2
*D24
 70
     1
 10
0.0
 20
0.0
 30
0.0
  3
*D24
  1

  0
LINE
  5
76ED
330
2EFA
100
AcDbEntity
  8
AM_5
100
AcDbLine
 10
1787.567184052539
 20
704.122156263015
 30
0.0
 11
1787.567184052539
 21
705.1221562630153
 31
0.0
  0
LINE
  5
76EE
330
2EFA
100
AcDbEntity
  8
AM_5
100
AcDbLine
 10
1862.567184052539
 20
715.5073752395772
 30
0.0
 11
1862.567184052539
 21
697.1221562630153
 31
0.0
  0
LINE
  5
76EF
330
2EFA
100
AcDbEntity
  8
AM_5
100
AcDbLine
 10
1807.567184052539
 20
701.1221562630153
 30
0.0
 11
1842.567184052539
 21
701.1221562630153
 31
0.0
  0
LINE
  5
76F0
330
2EFA
100
AcDbEntity
  8
AM_5
100
AcDbLine
 10
1862.567184052539
 20
701.1221562630153
 30
0.0
 11
1935.395611177285
 21
701.1221562630153
 31
0.0
  0
SOLID
  5
76F1
330
2EFA
100
AcDbEntity
  8
AM_5
100
AcDbTrace
 10
1807.567184052539
 20
704.4554895963487
 30
0.0
 11
1807.567184052539
 21
697.7888229296819
 31
0.0
 12
1787.567184052539
 22
701.1221562630153
 32
0.0
 13
1787.567184052539
 23
701.1221562630153
 33
0.0
  0
SOLID
  5
76F2
330
2EFA
100
AcDbEntity
  8
AM_5
100
AcDbTrace
 10
1842.567184052539
 20
704.4554895963487
 30
0.0
 11
1842.567184052539
 21
697.7888229296819
 31
0.0
 12
1862.567184052539
 22
701.1221562630153
 32
0.0
 13
1862.567184052539
 23
701.1221562630153
 33
0.0
  0
MTEXT
  5
76F3
330
2EFA
100
AcDbEntity
  8
AM_5
100
AcDbMText
 10
1908.981397614913
 20
717.1221562630153
 30
0.0
 40
20.0
 41
0.0
 71
     5
 72
     1
  1
\A2;%%c75
 73
     1
 44
1.0
1001
ACAD
1000
MTEXTBEGIN
1070
    73
1070
     1
1070
    44
1040
1.0
1070
    74
1070
     0
1000
MTEXTEND
  0
POINT
  5
76F4
330
2EFA
100
AcDbEntity
  8
Defpoints
 62
     0
100
AcDbPoint
 10
1787.567184052539
 20
701.1221562630151
 30
0.0
  0
POINT
  5
76F5
330
2EFA
100
AcDbEntity
  8
Defpoints
 62
     0
100
AcDbPoint
 10
1862.567184052539
 20
718.5073752395772
 30
0.0
  0
POINT
  5
76F6
330
2EFA
100
AcDbEntity
  8
Defpoints
 62
     0
100
AcDbPoint
 10
1862.567184052539
 20
701.1221562630153
 30
0.0
  0
ENDBLK
  5
2F05
330
2EFA
100
AcDbEntity
  8
0
100
AcDbBlockEnd
  0
BLOCK
  5
2FBA
330
2FB0
100
AcDbEntity
  8
0
100
AcDbBlockBegin
  2
*D25
 70
     1
 10
0.0
 20
0.0
 30
0.0
  3
*D25
  1

  0
LINE
  5
76F7
330
2FB0
100
AcDbEntity
  8
AM_5
100
AcDbLine
 10
1545.067184052539
 20
604.4452132927006
 30
0.0
 11
1545.067184052539
 21
653.3166326152022
 31
0.0
  0
LINE
  5
76F8
330
2FB0
100
AcDbEntity
  8
AM_5
100
AcDbLine
 10
1745.067184052539
 20
604.4452132927005
 30
0.0
 11
1745.067184052539
 21
653.3166326152022
 31
0.0
  0
LINE
  5
76F9
330
2FB0
100
AcDbEntity
  8
AM_5
100
AcDbLine
 10
1565.067184052539
 20
649.3166326152022
 30
0.0
 11
1725.067184052539
 21
649.3166326152022
 31
0.0
  0
SOLID
  5
76FA
330
2FB0
100
AcDbEntity
  8
AM_5
100
AcDbTrace
 10
1565.067184052539
 20
652.6499659485356
 30
0.0
 11
1565.067184052539
 21
645.9832992818689
 31
0.0
 12
1545.067184052539
 22
649.3166326152022
 32
0.0
 13
1545.067184052539
 23
649.3166326152022
 33
0.0
  0
SOLID
  5
76FB
330
2FB0
100
AcDbEntity
  8
AM_5
100
AcDbTrace
 10
1725.067184052539
 20
652.6499659485356
 30
0.0
 11
1725.067184052539
 21
645.9832992818689
 31
0.0
 12
1745.067184052539
 22
649.3166326152022
 32
0.0
 13
1745.067184052539
 23
649.3166326152022
 33
0.0
  0
MTEXT
  5
76FC
330
2FB0
100
AcDbEntity
  8
AM_5
100
AcDbMText
 10
1645.067184052539
 20
665.3186011191392
 30
0.0
 40
20.0
 41
0.0
 71
     5
 72
     1
  1
\A2;200
 73
     1
 44
1.0
1001
ACAD
1000
MTEXTBEGIN
1070
    73
1070
     1
1070
    44
1040
1.0
1070
    74
1070
     0
1000
MTEXTEND
  0
POINT
  5
76FD
330
2FB0
100
AcDbEntity
  8
Defpoints
 62
     0
100
AcDbPoint
 10
1545.067184052539
 20
601.4452132927007
 30
0.0
  0
POINT
  5
76FE
330
2FB0
100
AcDbEntity
  8
Defpoints
 62
     0
100
AcDbPoint
 10
1745.067184052539
 20
601.4452132927004
 30
0.0
  0
POINT
  5
76FF
330
2FB0
100
AcDbEntity
  8
Defpoints
 62
     0
100
AcDbPoint
 10
1745.067184052539
 20
649.3166326152022
 30
0.0
  0
ENDBLK
  5
2FBB
330
2FB0
100
AcDbEntity
  8
0
100
AcDbBlockEnd
  0
BLOCK
  5
79B9
330
79B4
100
AcDbEntity
  8
0
100
AcDbBlockBegin
  2
*S27
 70
     1
 10
0.0
 20
0.0
 30
0.0
  3
*S27
  1

  0
LINE
  5
79B5
330
79B4
100
AcDbEntity
  8
AM_5
 62
     5
100
AcDbLine
 10
1282.015786977642
 20
1667.220869738652
 30
0.0
 11
1206.976595764213
 21
1667.220869738652
 31
0.0
  0
LINE
  5
79B6
330
79B4
100
AcDbEntity
  8
AM_5
 62
     5
100
AcDbLine
 10
1206.976595764213
 20
1667.220869738652
 30
0.0
 11
1185.07048468488
 21
1645.333248381874
 31
0.0
  0
TRACE
  5
79B7
330
79B4
100
AcDbEntity
  8
AM_5
 62
     5
370
    35
100
AcDbTrace
 10
1183.116370393868
 20
1647.28901342472
 30
0.0
 11
1187.024598975892
 21
1643.377483339029
 31
0.0
 12
1170.214974250881
 22
1630.49027665296
 32
0.0
 13
1170.214974250881
 23
1630.49027665296
 33
0.0
  0
MTEXT
  5
79B8
330
79B4
100
AcDbEntity
  8
AM_5
 62
     2
100
AcDbMText
 10
1282.015786977642
 20
1662.575904734315
 30
0.0
 40
21.0
 41
0.0
 71
     7
 72
     5
  1

  7
ACISOTS
 73
     1
 44
1.0
1001
ACAD
1000
MTEXTBEGIN
1070
    73
1070
     1
1070
    44
1040
1.0
1070
    74
1070
     0
1000
MTEXTEND
  0
ENDBLK
  5
79BA
330
79B4
100
AcDbEntity
  8
0
100
AcDbBlockEnd
  0
BLOCK
  5
79C1
330
79BC
100
AcDbEntity
  8
0
100
AcDbBlockBegin
  2
*S28
 70
     1
 10
0.0
 20
0.0
 30
0.0
  3
*S28
  1

  0
LINE
  5
79BD
330
79BC
100
AcDbEntity
  8
AM_5
 62
     5
100
AcDbLine
 10
1332.427948392293
 20
466.6432723766043
 30
0.0
 11
1257.388757178864
 21
466.6432723766043
 31
0.0
  0
LINE
  5
79BE
330
79BC
100
AcDbEntity
  8
AM_5
 62
     5
100
AcDbLine
 10
1257.388757178864
 20
466.6432723766043
 30
0.0
 11
1221.760308711962
 21
510.1917251864018
 31
0.0
  0
TRACE
  5
79BF
330
79BC
100
AcDbEntity
  8
AM_5
 62
     5
370
    35
100
AcDbTrace
 10
1223.900121006116
 20
511.9423773251607
 30
0.0
 11
1219.620496417808
 21
508.441073047643
 31
0.0
 12
1208.462785469704
 22
526.4452132927008
 32
0.0
 13
1208.462785469704
 23
526.4452132927008
 33
0.0
  0
MTEXT
  5
79C0
330
79BC
100
AcDbEntity
  8
AM_5
 62
     2
100
AcDbMText
 10
1332.427948392293
 20
461.9983073722678
 30
0.0
 40
21.0
 41
0.0
 71
     7
 72
     5
  1

  7
ACISOTS
 73
     1
 44
1.0
1001
ACAD
1000
MTEXTBEGIN
1070
    73
1070
     1
1070
    44
1040
1.0
1070
    74
1070
     0
1000
MTEXTEND
  0
ENDBLK
  5
79C2
330
79BC
100
AcDbEntity
  8
0
100
AcDbBlockEnd
  0
ENDSEC
  0
SECTION
  2
ENTITIES
  0
LINE
  5
237F
330
1F
100
AcDbEntity
  8
圖層1輪廓線
100
AcDbLine
 10
1026.462785469703
 20
606.4452132927008
 30
0.0
 11
1220.462785469704
 21
606.4452132927008
 31
0.0
  0
LINE
  5
2380
330
1F
100
AcDbEntity
  8
圖層1輪廓線
100
AcDbLine
 10
1223.462785469704
 20
541.4452132927008
 30
0.0
 11
1023.462785469703
 21
541.4452132927008
 31
0.0
  0
LINE
  5
2381
330
1F
100
AcDbEntity
  8
圖層1輪廓線
100
AcDbLine
 10
1223.462785469704
 20
526.4452132927008
 30
0.0
 11
1023.462785469703
 21
526.4452132927008
 31
0.0
  0
LINE
  5
2382
330
1F
100
AcDbEntity
  8
圖層3虛線
100
AcDbLine
 10
1032.462785469704
 20
526.4452132927008
 30
0.0
 11
1032.462785469704
 21
541.4452132927008
 31
0.0
  0
LINE
  5
2383
330
1F
100
AcDbEntity
  8
圖層3虛線
100
AcDbLine
 10
1044.462785469703
 20
526.4452132927008
 30
0.0
 11
1044.462785469703
 21
541.4452132927008
 31
0.0
  0
LINE
  5
2384
330
1F
100
AcDbEntity
  8
圖層2中心線
 48
0.2
370
    18
100
AcDbLine
 10
1038.462785469703
 20
514.0220367957347
 30
0.0
 11
1038.462785469703
 21
553.1697869662634
 31
0.0
  0
LINE
  5
2385
330
1F
100
AcDbEntity
  8
圖層1輪廓線
100
AcDbLine
 10
1023.462785469703
 20
526.4452132927008
 30
0.0
 11
1023.462785469703
 21
603.4452132927007
 31
0.0
  0
ARC
  5
2386
330
1F
100
AcDbEntity
  8
圖層1輪廓線
100
AcDbCircle
 10
1026.462785469703
 20
603.4452132927007
 30
0.0
 40
3.0
100
AcDbArc
 50
90.0
 51
180.0
  0
LINE
  5
2387
330
1F
100
AcDbEntity
  8
圖層3虛線
100
AcDbLine
 10
1202.462785469704
 20
541.4452132927008
 30
0.0
 11
1202.462785469704
 21
526.4452132927008
 31
0.0
  0
LINE
  5
2388
330
1F
100
AcDbEntity
  8
圖層3虛線
100
AcDbLine
 10
1214.462785469703
 20
541.4452132927008
 30
0.0
 11
1214.462785469703
 21
526.4452132927008
 31
0.0
  0
LINE
  5
2389
330
1F
100
AcDbEntity
  8
圖層2中心線
 48
0.2
370
    18
100
AcDbLine
 10
1208.462785469704
 20
553.9373888039538
 30
0.0
 11
1208.462785469704
 21
514.7896405799188
 31
0.0
  0
LINE
  5
238A
330
1F
100
AcDbEntity
  8
圖層1輪廓線
100
AcDbLine
 10
1223.462785469704
 20
603.4452132927007
 30
0.0
 11
1223.462785469704
 21
526.4452132927008
 31
0.0
  0
ARC
  5
238B
330
1F
100
AcDbEntity
  8
圖層1輪廓線
100
AcDbCircle
 10
1220.462785469704
 20
603.4452132927007
 30
0.0
 40
3.0
100
AcDbArc
 50
0.0
 51
90.0
  0
ARC
  5
238C
330
1F
100
AcDbEntity
  8
圖層1輪廓線
100
AcDbCircle
 10
1740.067184052539
 20
601.4452132927005
 30
0.0
 40
5.0
100
AcDbArc
 50
0.0
 51
90.0
  0
LINE
  5
238D
330
1F
100
AcDbEntity
  8
圖層1輪廓線
100
AcDbLine
 10
1515.067184052539
 20
526.4452132927007
 30
0.0
 11
1895.067184052539
 21
526.4452132927005
 31
0.0
  0
LINE
  5
238E
330
1F
100
AcDbEntity
  8
圖層1輪廓線
100
AcDbLine
 10
1515.067184052539
 20
536.4452132927008
 30
0.0
 11
1515.067184052539
 21
526.4452132927007
 31
0.0
  0
LINE
  5
238F
330
1F
100
AcDbEntity
  8
圖層2中心線
 48
0.2
370
    18
100
AcDbLine
 10
1530.067184052539
 20
555.9102565882406
 30
0.0
 11
1530.067184052539
 21
513.6476055425252
 31
0.0
  0
LINE
  5
2390
330
1F
100
AcDbEntity
  8
圖層3虛線
100
AcDbLine
 10
1524.067184052539
 20
541.4452132927008
 30
0.0
 11
1524.067184052539
 21
526.4452132927007
 31
0.0
  0
LINE
  5
2391
330
1F
100
AcDbEntity
  8
圖層3虛線
100
AcDbLine
 10
1536.067184052539
 20
541.4452132927006
 30
0.0
 11
1536.067184052539
 21
526.4452132927007
 31
0.0
  0
LINE
  5
2392
102
{ACAD_REACTORS
330
269D
102
}
330
1F
100
AcDbEntity
  8
圖層1輪廓線
100
AcDbLine
 10
1637.567184052539
 20
606.4452132927007
 30
0.0
 11
1550.067184052539
 21
606.4452132927007
 31
0.0
  0
LINE
  5
2393
102
{ACAD_REACTORS
330
2FBD
102
}
330
1F
100
AcDbEntity
  8
圖層1輪廓線
100
AcDbLine
 10
1545.067184052539
 20
601.4452132927007
 30
0.0
 11
1545.067184052539
 21
541.4452132927006
 31
0.0
  0
LINE
  5
2394
330
1F
100
AcDbEntity
  8
圖層1輪廓線
100
AcDbLine
 10
1520.067184052539
 20
541.4452132927008
 30
0.0
 11
1545.067184052539
 21
541.4452132927006
 31
0.0
  0
ARC
  5
2395
330
1F
100
AcDbEntity
  8
圖層1輪廓線
100
AcDbCircle
 10
1520.067184052539
 20
536.4452132927008
 30
0.0
 40
5.0
100
AcDbArc
 50
90.0
 51
180.0
  0
ARC
  5
2396
102
{ACAD_REACTORS
330
26C3
102
}
330
1F
100
AcDbEntity
  8
圖層1輪廓線
100
AcDbCircle
 10
1550.067184052539
 20
601.4452132927008
 30
0.0
 40
5.0
100
AcDbArc
 50
90.0
 51
180.0
  0
LINE
  5
2397
330
1F
100
AcDbEntity
  8
圖層1輪廓線
100
AcDbLine
 10
1657.567184052539
 20
595.4452132927007
 30
0.0
 11
1657.567184052539
 21
585.4452132927007
 31
0.0
  0
LINE
  5
2398
330
1F
100
AcDbEntity
  8
圖層1輪廓線
100
AcDbLine
 10
1632.567184052539
 20
585.4452132927007
 30
0.0
 11
1632.567184052539
 21
595.4452132927007
 31
0.0
  0
LINE
  5
2399
330
1F
100
AcDbEntity
  8
圖層1輪廓線
100
AcDbLine
 10
1657.567184052539
 20
585.4452132927007
 30
0.0
 11
1632.567184052539
 21
585.4452132927007
 31
0.0
  0
LINE
  5
239A
330
1F
100
AcDbEntity
  8
圖層1輪廓線
100
AcDbLine
 10
1632.567184052539
 20
595.4452132927007
 30
0.0
 11
1637.567184052539
 21
595.4452132927007
 31
0.0
  0
LINE
  5
239B
330
1F
100
AcDbEntity
  8
圖層1輪廓線
100
AcDbLine
 10
1637.567184052539
 20
595.4452132927007
 30
0.0
 11
1637.567184052539
 21
606.4452132927007
 31
0.0
  0
LINE
  5
239C
330
1F
100
AcDbEntity
  8
圖層1輪廓線
100
AcDbLine
 10
1652.567184052539
 20
606.4452132927007
 30
0.0
 11
1652.567184052539
 21
595.4452132927007
 31
0.0
  0
LINE
  5
239D
330
1F
100
AcDbEntity
  8
圖層1輪廓線
100
AcDbLine
 10
1652.567184052539
 20
595.4452132927007
 30
0.0
 11
1657.567184052539
 21
595.4452132927007
 31
0.0
  0
LINE
  5
239E
330
1F
100
AcDbEntity
  8
圖層2中心線
 48
0.2
370
    18
100
AcDbLine
 10
1760.067184052539
 20
561.2161417736031
 30
0.0
 11
1760.067184052539
 21
514.4948967661423
 31
0.0
  0
LINE
  5
239F
330
1F
100
AcDbEntity
  8
圖層3虛線
100
AcDbLine
 10
1754.067184052539
 20
541.4452132927006
 30
0.0
 11
1754.067184052539
 21
526.4452132927005
 31
0.0
  0
LINE
  5
23A0
330
1F
100
AcDbEntity
  8
圖層3虛線
100
AcDbLine
 10
1766.067184052539
 20
541.4452132927005
 30
0.0
 11
1766.067184052539
 21
526.4452132927005
 31
0.0
  0
LINE
  5
23A1
330
1F
100
AcDbEntity
  8
圖層1輪廓線
100
AcDbLine
 10
1775.067184052539
 20
536.4452132927006
 30
0.0
 11
1775.067184052539
 21
526.4452132927005
 31
0.0
  0
LINE
  5
23A2
330
1F
100
AcDbEntity
  8
圖層1輪廓線
100
AcDbLine
 10
1875.378713546284
 20
606.4452132927006
 30
0.0
 11
1875.378713546284
 21
526.4452132927005
 31
0.0
  0
LINE
  5
23A3
330
1F
100
AcDbEntity
  8
圖層1輪廓線
100
AcDbLine
 10
1895.067184052539
 20
526.4452132927005
 30
0.0
 11
1895.067184052539
 21
606.4452132927006
 31
0.0
  0
LINE
  5
23A4
330
1F
100
AcDbEntity
  8
圖層1輪廓線
100
AcDbLine
 10
1895.067184052539
 20
606.4452132927006
 30
0.0
 11
1773.817184052539
 21
606.4452132927006
 31
0.0
  0
LINE
  5
23A5
102
{ACAD_REACTORS
330
2FBD
102
}
330
1F
100
AcDbEntity
  8
圖層1輪廓線
100
AcDbLine
 10
1745.067184052539
 20
601.4452132927004
 30
0.0
 11
1745.067184052539
 21
541.4452132927006
 31
0.0
  0
LINE
  5
23A6
330
1F
100
AcDbEntity
  8
圖層1輪廓線
100
AcDbLine
 10
1745.067184052539
 20
541.4452132927006
 30
0.0
 11
1770.067184052539
 21
541.4452132927006
 31
0.0
  0
ARC
  5
23A7
330
1F
100
AcDbEntity
  8
圖層1輪廓線
100
AcDbCircle
 10
1770.067184052539
 20
536.4452132927007
 30
0.0
 40
5.0
100
AcDbArc
 50
0.0
 51
90.0
  0
LINE
  5
23A8
330
1F
100
AcDbEntity
  8
圖層1輪廓線
100
AcDbLine
 10
1805.067184052539
 20
598.4452132927006
 30
0.0
 11
1745.067184052539
 21
598.4452132927007
 31
0.0
  0
LINE
  5
23A9
330
1F
100
AcDbEntity
  8
圖層1輪廓線
100
AcDbLine
 10
1773.817184052539
 20
606.4452132927006
 30
0.0
 11
1773.817184052539
 21
598.4452132927006
 31
0.0
  0
LINE
  5
23AA
330
1F
100
AcDbEntity
  8
圖層1輪廓線
100
AcDbLine
 10
1823.564453437773
 20
606.4452132927006
 30
0.0
 11
1805.067184052539
 21
598.4452132927006
 31
0.0
  0
LINE
  5
23AB
330
1F
100
AcDbEntity
  8
圖層2中心線
 48
0.1
100
AcDbLine
 10
1885.067184052539
 20
551.4452132927005
 30
0.0
 11
1885.067184052539
 21
531.4452132927006
 31
0.0
  0
LINE
  5
23AC
330
1F
100
AcDbEntity
  8
圖層2中心線
 48
0.1
100
AcDbLine
 10
1875.067184052539
 20
541.4452132927006
 30
0.0
 11
1895.067184052539
 21
541.4452132927006
 31
0.0
  0
CIRCLE
  5
23AD
330
1F
100
AcDbEntity
  8
圖層1輪廓線
  6
Continuous
100
AcDbCircle
 10
1885.067184052539
 20
541.4452132927006
 30
0.0
 40
7.0
  0
CIRCLE
  5
23AE
330
1F
100
AcDbEntity
  8
圖層1輪廓線
  6
Continuous
100
AcDbCircle
 10
1885.067184052539
 20
541.4452132927006
 30
0.0
 40
5.0
  0
LINE
  5
23AF
330
1F
100
AcDbEntity
  8
圖層2中心線
 48
0.1
100
AcDbLine
 10
1885.067184052539
 20
601.4452132927005
 30
0.0
 11
1885.067184052539
 21
581.4452132927006
 31
0.0
  0
CIRCLE
  5
23B0
330
1F
100
AcDbEntity
  8
圖層1輪廓線
  6
Continuous
100
AcDbCircle
 10
1885.067184052539
 20
591.4452132927006
 30
0.0
 40
7.0
  0
CIRCLE
  5
23B1
330
1F
100
AcDbEntity
  8
圖層1輪廓線
  6
Continuous
100
AcDbCircle
 10
1885.067184052539
 20
591.4452132927006
 30
0.0
 40
5.0
  0
LINE
  5
23B2
330
1F
100
AcDbEntity
  8
圖層2中心線
 48
0.1
100
AcDbLine
 10
1875.067184052539
 20
591.4452132927006
 30
0.0
 11
1895.067184052539
 21
591.4452132927006
 31
0.0
  0
LINE
  5
23B3
330
1F
100
AcDbEntity
  8
圖層1輪廓線
100
AcDbLine
 10
1862.567184052539
 20
606.4452132927006
 30
0.0
 11
1862.567184052539
 21
830.569537186454
 31
0.0
  0
LINE
  5
23B4
330
1F
100
AcDbEntity
  8
圖層1輪廓線
100
AcDbLine
 10
1787.567184052539
 20
924.4452132927007
 30
0.0
 11
1787.567184052539
 21
917.569537186454
 31
0.0
  0
LINE
  5
23B5
330
1F
100
AcDbEntity
  8
圖層1輪廓線
100
AcDbLine
 10
1789.567184052539
 20
526.4452132927005
 30
0.0
 11
1860.567184052539
 21
526.4452132927005
 31
0.0
  0
LINE
  5
23B6
330
1F
100
AcDbEntity
  8
圖層1輪廓線
100
AcDbLine
 10
1860.567184052539
 20
926.4452132927006
 30
0.0
 11
1789.567184052539
 21
926.4452132927006
 31
0.0
  0
LINE
  5
23B7
330
1F
100
AcDbEntity
  8
圖層1輪廓線
100
AcDbLine
 10
1862.567184052539
 20
924.4452132927007
 30
0.0
 11
1787.567184052539
 21
924.4452132927007
 31
0.0
  0
LINE
  5
23B8
330
1F
100
AcDbEntity
  8
圖層1輪廓線
100
AcDbLine
 10
1789.567184052539
 20
926.4452132927006
 30
0.0
 11
1787.567184052539
 21
924.4452132927007
 31
0.0
  0
LINE
  5
23B9
330
1F
100
AcDbEntity
  8
圖層1輪廓線
100
AcDbLine
 10
1860.567184052539
 20
926.4452132927006
 30
0.0
 11
1862.567184052539
 21
924.4452132927007
 31
0.0
  0
LINE
  5
23BA
330
1F
100
AcDbEntity
  8
圖層1輪廓線
  6
Continuous
100
AcDbLine
 10
1880.067184052539
 20
538.5584619467525
 30
0.0
 11
1885.067184052539
 21
535.6717106008042
 31
0.0
  0
LINE
  5
23BB
330
1F
100
AcDbEntity
  8
圖層1輪廓線
  6
Continuous
100
AcDbLine
 10
1885.067184052539
 20
535.6717106008042
 30
0.0
 11
1890.067184052539
 21
538.5584619467524
 31
0.0
  0
LINE
  5
23BC
330
1F
100
AcDbEntity
  8
圖層1輪廓線
  6
Continuous
100
AcDbLine
 10
1890.067184052539
 20
538.5584619467524
 30
0.0
 11
1890.067184052539
 21
544.3319646386487
 31
0.0
  0
LINE
  5
23BD
330
1F
100
AcDbEntity
  8
圖層1輪廓線
  6
Continuous
100
AcDbLine
 10
1890.067184052539
 20
544.3319646386487
 30
0.0
 11
1885.067184052539
 21
547.2187159845969
 31
0.0
  0
LINE
  5
23BE
330
1F
100
AcDbEntity
  8
圖層1輪廓線
  6
Continuous
100
AcDbLine
 10
1885.067184052539
 20
547.2187159845969
 30
0.0
 11
1880.067184052539
 21
544.3319646386489
 31
0.0
  0
LINE
  5
23BF
330
1F
100
AcDbEntity
  8
圖層1輪廓線
  6
Continuous
100
AcDbLine
 10
1880.067184052539
 20
544.3319646386489
 30
0.0
 11
1880.067184052539
 21
538.5584619467525
 31
0.0
  0
LINE
  5
23C0
330
1F
100
AcDbEntity
  8
圖層1輪廓線
  6
Continuous
100
AcDbLine
 10
1880.067184052539
 20
588.5584619467525
 30
0.0
 11
1885.067184052539
 21
585.6717106008044
 31
0.0
  0
LINE
  5
23C1
330
1F
100
AcDbEntity
  8
圖層1輪廓線
  6
Continuous
100
AcDbLine
 10
1885.067184052539
 20
585.6717106008044
 30
0.0
 11
1890.067184052539
 21
588.5584619467525
 31
0.0
  0
LINE
  5
23C2
330
1F
100
AcDbEntity
  8
圖層1輪廓線
  6
Continuous
100
AcDbLine
 10
1890.067184052539
 20
588.5584619467525
 30
0.0
 11
1890.067184052539
 21
594.3319646386489
 31
0.0
  0
LINE
  5
23C3
330
1F
100
AcDbEntity
  8
圖層1輪廓線
  6
Continuous
100
AcDbLine
 10
1890.067184052539
 20
594.3319646386489
 30
0.0
 11
1885.067184052539
 21
597.218715984597
 31
0.0
  0
LINE
  5
23C4
330
1F
100
AcDbEntity
  8
圖層1輪廓線
  6
Continuous
100
AcDbLine
 10
1885.067184052539
 20
597.218715984597
 30
0.0
 11
1880.067184052539
 21
594.3319646386489
 31
0.0
  0
LINE
  5
23C5
330
1F
100
AcDbEntity
  8
圖層1輪廓線
  6
Continuous
100
AcDbLine
 10
1880.067184052539
 20
594.3319646386489
 30
0.0
 11
1880.067184052539
 21
588.5584619467525
 31
0.0
  0
LINE
  5
23C6
330
1F
100
AcDbEntity
  8
圖層1輪廓線
  6
Continuous
370
    50
100
AcDbLine
 10
1690.067184052539
 20
830.569537186454
 30
0.0
 11
1660.067184052539
 21
860.5695371864539
 31
0.0
  0
LINE
  5
23C7
330
1F
100
AcDbEntity
  8
圖層1輪廓線
  6
Continuous
100
AcDbLine
 10
1188.462785469703
 20
860.5695371864539
 30
0.0
 11
1058.462785469703
 21
860.5695371864539
 31
0.0
  0
LINE
  5
23C8
330
1F
100
AcDbEntity
  8
圖層1輪廓線
  6
Continuous
100
AcDbLine
 10
1058.462785469703
 20
830.569537186454
 30
0.0
 11
1099.791424432929
 21
830.569537186454
 31
0.0
  0
LINE
  5
23C9
330
1F
100
AcDbEntity
  8
圖層1輪廓線
  6
Continuous
100
AcDbLine
 10
1058.462785469703
 20
910.5695371864539
 30
0.0
 11
1058.462785469703
 21
830.569537186454
 31
0.0
  0
LINE
  5
23CA
330
1F
100
AcDbEntity
  8
圖層1輪廓線
  6
Continuous
100
AcDbLine
 10
1188.462785469703
 20
830.569537186454
 30
0.0
 11
1188.462785469703
 21
910.5695371864539
 31
0.0
  0
LINE
  5
23CB
330
1F
100
AcDbEntity
  8
圖層1輪廓線
  6
Continuous
370
    50
100
AcDbLine
 10
1580.067184052539
 20
860.5695371864539
 30
0.0
 11
1580.067184052539
 21
910.5695371864539
 31
0.0
  0
LINE
  5
23CC
330
1F
100
AcDbEntity
  8
圖層1輪廓線
  6
Continuous
100
AcDbLine
 10
1660.067184052539
 20
860.5695371864539
 30
0.0
 11
1580.067184052539
 21
860.5695371864539
 31
0.0
  0
LINE
  5
23CD
330
1F
100
AcDbEntity
  8
圖層1輪廓線
  6
Continuous
370
    50
100
AcDbLine
 10
1895.067184052539
 20
830.569537186454
 30
0.0
 11
1690.067184052539
 21
830.569537186454
 31
0.0
  0
LINE
  5
23CE
330
1F
100
AcDbEntity
  8
圖層1輪廓線
  6
Continuous
370
    50
100
AcDbLine
 10
1895.067184052539
 20
910.5695371864539
 30
0.0
 11
1895.067184052539
 21
830.569537186454
 31
0.0
  0
LINE
  5
23CF
330
1F
100
AcDbEntity
  8
圖層1輪廓線
  6
Continuous
370
    50
100
AcDbLine
 10
1875.378713546284
 20
910.5695371864539
 30
0.0
 11
1875.378713546284
 21
830.569537186454
 31
0.0
  0
CIRCLE
  5
23D0
330
1F
100
AcDbEntity
  8
圖層1輪廓線
  6
Continuous
100
AcDbCircle
 10
1885.067184052539
 20
845.5695371864539
 30
0.0
 40
7.0
  0
LINE
  5
23D1
330
1F
100
AcDbEntity
  8
圖層2中心線
 48
0.05
100
AcDbLine
 10
1875.067184052539
 20
845.5695371864539
 30
0.0
 11
1895.067184052539
 21
845.5695371864539
 31
0.0
  0
CIRCLE
  5
23D2
330
1F
100
AcDbEntity
  8
圖層1輪廓線
  6
Continuous
100
AcDbCircle
 10
1885.067184052539
 20
845.5695371864539
 30
0.0
 40
5.0
  0
LWPOLYLINE
  5
23D3
330
1F
100
AcDbEntity
  8
圖層1輪廓線
  6
Continuous
100
AcDbPolyline
 90
        6
 70
     1
 43
0.0
 10
1880.067184052539
 20
842.6827858405058
 10
1885.067184052539
 20
839.7960344945575
 10
1890.067184052539
 20
842.6827858405058
 10
1890.067184052539
 20
848.4562885324018
 10
1885.067184052539
 20
851.3430398783501
 10
1880.067184052539
 20
848.456288532402
  0
LINE
  5
23D4
330
1F
100
AcDbEntity
  8
圖層2中心線
 48
0.05
100
AcDbLine
 10
1885.067184052539
 20
855.569537186454
 30
0.0
 11
1885.067184052539
 21
835.5695371864539
 31
0.0
  0
CIRCLE
  5
23D5
330
1F
100
AcDbEntity
  8
圖層1輪廓線
  6
Continuous
100
AcDbCircle
 10
1885.067184052539
 20
870.5695371864539
 30
0.0
 40
5.0
  0
LWPOLYLINE
  5
23D6
330
1F
100
AcDbEntity
  8
圖層1輪廓線
  6
Continuous
100
AcDbPolyline
 90
        6
 70
     1
 43
0.0
 10
1880.067184052539
 20
867.6827858405058
 10
1885.067184052539
 20
864.7960344945575
 10
1890.067184052539
 20
867.6827858405058
 10
1890.067184052539
 20
873.4562885324018
 10
1885.067184052539
 20
876.3430398783501
 10
1880.067184052539
 20
873.456288532402
  0
CIRCLE
  5
23D7
330
1F
100
AcDbEntity
  8
圖層1輪廓線
  6
Continuous
100
AcDbCircle
 10
1885.067184052539
 20
870.5695371864539
 30
0.0
 40
7.0
  0
LINE
  5
23D8
330
1F
100
AcDbEntity
  8
圖層2中心線
 48
0.05
100
AcDbLine
 10
1875.067184052539
 20
870.5695371864539
 30
0.0
 11
1895.067184052539
 21
870.5695371864539
 31
0.0
  0
LINE
  5
23D9
330
1F
100
AcDbEntity
  8
圖層2中心線
 48
0.05
100
AcDbLine
 10
1885.067184052539
 20
880.569537186454
 30
0.0
 11
1885.067184052539
 21
860.5695371864539
 31
0.0
  0
LINE
  5
23DA
330
1F
100
AcDbEntity
  8
圖層2中心線
 48
0.05
100
AcDbLine
 10
1875.067184052539
 20
895.5695371864539
 30
0.0
 11
1895.067184052539
 21
895.5695371864539
 31
0.0
  0
CIRCLE
  5
23DB
330
1F
100
AcDbEntity
  8
圖層1輪廓線
  6
Continuous
100
AcDbCircle
 10
1885.067184052539
 20
895.5695371864539
 30
0.0
 40
5.0
  0
LWPOLYLINE
  5
23DC
330
1F
100
AcDbEntity
  8
圖層1輪廓線
  6
Continuous
100
AcDbPolyline
 90
        6
 70
     1
 43
0.0
 10
1880.067184052539
 20
892.6827858405058
 10
1885.067184052539
 20
889.7960344945575
 10
1890.067184052539
 20
892.6827858405058
 10
1890.067184052539
 20
898.456288532402
 10
1885.067184052539
 20
901.3430398783501
 10
1880.067184052539
 20
898.456288532402
  0
CIRCLE
  5
23DD
330
1F
100
AcDbEntity
  8
圖層1輪廓線
  6
Continuous
100
AcDbCircle
 10
1885.067184052539
 20
895.5695371864539
 30
0.0
 40
7.0
  0
LINE
  5
23DE
330
1F
100
AcDbEntity
  8
圖層2中心線
 48
0.05
100
AcDbLine
 10
1885.067184052539
 20
905.569537186454
 30
0.0
 11
1885.067184052539
 21
885.5695371864539
 31
0.0
  0
LINE
  5
23DF
330
1F
100
AcDbEntity
  8
圖層1輪廓線
100
AcDbLine
 10
1160.962785469703
 20
606.4452132927008
 30
0.0
 11
1160.962785469703
 21
830.569537186454
 31
0.0
  0
LINE
  5
23E0
330
1F
100
AcDbEntity
  8
圖層1輪廓線
100
AcDbLine
 10
1087.962785469704
 20
526.4452132927008
 30
0.0
 11
1158.962785469703
 21
526.4452132927008
 31
0.0
  0
LINE
  5
23E1
330
1F
100
AcDbEntity
  8
圖層1輪廓線
100
AcDbLine
 10
1085.962785469703
 20
830.569537186454
 30
0.0
 11
1085.962785469703
 21
606.4452132927008
 31
0.0
  0
ARC
  5
23E2
330
1F
100
AcDbEntity
  8
圖層1輪廓線
  6
Continuous
100
AcDbCircle
 10
1634.817184052539
 20
875.3351621864512
 30
0.0
 40
27.2656249999976
100
AcDbArc
 50
247.918119639351
 51
292.081880360649
  0
ARC
  5
23E3
330
1F
100
AcDbEntity
  8
圖層1輪廓線
  6
Continuous
100
AcDbCircle
 10
1634.81718405254
 20
830.8039121864521
 30
0.0
 40
27.26562500000156
100
AcDbArc
 50
67.91811963935105
 51
112.0818803606489
  0
LINE
  5
23E4
330
1F
100
AcDbEntity
  8
圖層1輪廓線
100
AcDbLine
 10
1624.56718405254
 20
850.0695371864539
 30
0.0
 11
1624.567184052539
 21
856.0695371864538
 31
0.0
  0
ARC
  5
23E5
330
1F
100
AcDbEntity
  8
圖層1輪廓線
  6
Continuous
100
AcDbCircle
 10
1655.317184052539
 20
830.8039121864553
 30
0.0
 40
27.26562499999825
100
AcDbArc
 50
71.47508599864774
 51
112.0818803606489
  0
ARC
  5
23E6
330
1F
100
AcDbEntity
  8
圖層1輪廓線
  6
Continuous
100
AcDbCircle
 10
1655.317184052539
 20
875.3351621864515
 30
0.0
 40
27.26562499999781
100
AcDbArc
 50
247.918119639351
 51
292.081880360649
  0
LINE
  5
23E7
330
1F
100
AcDbEntity
  8
圖層1輪廓線
100
AcDbLine
 10
1665.567184052539
 20
850.0695371864539
 30
0.0
 11
1665.567184052539
 21
855.0695371864534
 31
0.0
  0
LINE
  5
23E8
330
1F
100
AcDbEntity
  8
圖層1輪廓線
  6
Continuous
100
AcDbLine
 10
1624.567184052541
 20
833.0695371864536
 30
0.0
 11
1665.567184052541
 21
833.0695371864536
 31
0.0
  0
ARC
  5
23E9
330
1F
100
AcDbEntity
  8
圖層1輪廓線
  6
Continuous
100
AcDbCircle
 10
1634.81718405254
 20
810.8070371864537
 30
0.0
 40
22.26250000000009
100
AcDbArc
 50
62.58607799184569
 51
117.4139220081543
  0
LINE
  5
23EA
330
1F
100
AcDbEntity
  8
圖層1輪廓線
100
AcDbLine
 10
1624.567184052541
 20
795.5695371864536
 30
0.0
 11
1665.567184052541
 21
795.5695371864536
 31
0.0
  0
LINE
  5
23EB
330
1F
100
AcDbEntity
  8
圖層1輪廓線
  6
Continuous
100
AcDbLine
 10
1624.567184052541
 20
800.5695371864538
 30
0.0
 11
1665.567184052541
 21
800.5695371864538
 31
0.0
  0
ARC
  5
23EC
330
1F
100
AcDbEntity
  8
圖層1輪廓線
  6
Continuous
100
AcDbCircle
 10
1634.81718405254
 20
822.8320371864535
 30
0.0
 40
22.26249999999979
100
AcDbArc
 50
242.5860779918457
 51
297.4139220081543
  0
LINE
  5
23ED
330
1F
100
AcDbEntity
  8
圖層1輪廓線
100
AcDbLine
 10
1624.567184052541
 20
795.5695371864536
 30
0.0
 11
1624.567184052541
 21
848.0695371864536
 31
0.0
  0
LINE
  5
23EE
330
1F
100
AcDbEntity
  8
圖層1輪廓線
100
AcDbLine
 10
1665.567184052541
 20
800.5695371864536
 30
0.0
 11
1665.567184052541
 21
848.0695371864536
 31
0.0
  0
ARC
  5
23EF
330
1F
100
AcDbEntity
  8
圖層1輪廓線
  6
Continuous
100
AcDbCircle
 10
1655.31718405254
 20
822.8320371864528
 30
0.0
 40
22.26249999999903
100
AcDbArc
 50
242.586077991831
 51
297.4139220081689
  0
LINE
  5
23F0
330
1F
100
AcDbEntity
  8
圖層1輪廓線
100
AcDbLine
 10
1665.567184052541
 20
795.5695371864536
 30
0.0
 11
1665.567184052541
 21
800.5695371864536
 31
0.0
  0
ARC
  5
23F1
330
1F
100
AcDbEntity
  8
圖層1輪廓線
  6
Continuous
100
AcDbCircle
 10
1655.31718405254
 20
810.8070371864537
 30
0.0
 40
22.26250000000009
100
AcDbArc
 50
62.58607799184569
 51
117.4139220081543
  0
LINE
  5
23F2
330
1F
100
AcDbEntity
  8
圖層1輪廓線
  6
Continuous
100
AcDbLine
 10
1105.709264692123
 20
833.0695371864543
 30
0.0
 11
1141.216306247285
 21
833.0695371864539
 31
0.0
  0
ARC
  5
23F3
330
1F
100
AcDbEntity
  8
圖層1輪廓線
  6
Continuous
100
AcDbCircle
 10
1123.462785469705
 20
803.8028705197858
 30
0.0
 40
29.26666666666804
100
AcDbArc
 50
66.14595163640482
 51
113.8540483635952
  0
LINE
  5
23F4
330
1F
100
AcDbEntity
  8
圖層1輪廓線
  6
Continuous
100
AcDbLine
 10
1105.709264692123
 20
798.0695371864542
 30
0.0
 11
1141.216306247285
 21
798.0695371864542
 31
0.0
  0
LINE
  5
23F5
330
1F
100
AcDbEntity
  8
圖層1輪廓線
  6
Continuous
100
AcDbLine
 10
1102.962785469704
 20
793.0695371864542
 30
0.0
 11
1143.962785469703
 21
793.0695371864542
 31
0.0
  0
ARC
  5
23F6
330
1F
100
AcDbEntity
  8
圖層1輪廓線
  6
Continuous
100
AcDbCircle
 10
1123.462785469705
 20
827.1565172859505
 30
0.0
 40
29.10241990186305
100
AcDbArc
 50
246.0028878993282
 51
293.9971121006577
  0
LINE
  5
23F7
330
1F
100
AcDbEntity
  8
圖層1輪廓線
  6
Continuous
100
AcDbLine
 10
1102.962785469704
 20
848.0695371864541
 30
0.0
 11
1143.962785469703
 21
848.0695371864539
 31
0.0
  0
LINE
  5
23F8
330
1F
100
AcDbEntity
  8
圖層1輪廓線
  6
Continuous
100
AcDbLine
 10
1099.791424432929
 20
800.5695371864542
 30
0.0
 11
1099.791424432929
 21
830.569537186454
 31
0.0
  0
LINE
  5
23F9
330
1F
100
AcDbEntity
  8
圖層1輪廓線
  6
Continuous
100
AcDbLine
 10
1111.627104951317
 20
800.5695371864547
 30
0.0
 11
1111.627104951317
 21
830.569537186454
 31
0.0
  0
ARC
  5
23FA
330
1F
100
AcDbEntity
  8
圖層1輪廓線
  6
Continuous
100
AcDbCircle
 10
1105.709264692123
 20
806.3237038531205
 30
0.0
 40
8.254166666666545
100
AcDbArc
 50
224.1966084730937
 51
315.8033915269064
  0
LINE
  5
23FB
330
1F
100
AcDbEntity
  8
圖層1輪廓線
  6
Continuous
100
AcDbLine
 10
1102.962785469704
 20
793.0695371864542
 30
0.0
 11
1102.962785469704
 21
798.5398668017733
 31
0.0
  0
ARC
  5
23FC
330
1F
100
AcDbEntity
  8
圖層1輪廓線
  6
Continuous
100
AcDbCircle
 10
1105.709264692123
 20
824.8153705197873
 30
0.0
 40
8.254166666666389
100
AcDbArc
 50
44.19660847309365
 51
135.8033915269063
  0
LINE
  5
23FD
330
1F
100
AcDbEntity
  8
圖層1輪廓線
  6
Continuous
100
AcDbLine
 10
1102.962785469704
 20
832.5992075711349
 30
0.0
 11
1102.962785469704
 21
848.0695371864541
 31
0.0
  0
LINE
  5
23FE
330
1F
100
AcDbEntity
  8
圖層1輪廓線
  6
Continuous
100
AcDbLine
 10
1135.298465988091
 20
800.569537186454
 30
0.0
 11
1135.298465988091
 21
830.5695371864544
 31
0.0
  0
LINE
  5
23FF
330
1F
100
AcDbEntity
  8
圖層1輪廓線
  6
Continuous
100
AcDbLine
 10
1147.134146506479
 20
800.569537186454
 30
0.0
 11
1147.134146506479
 21
830.569537186454
 31
0.0
  0
ARC
  5
2400
330
1F
100
AcDbEntity
  8
圖層1輪廓線
  6
Continuous
100
AcDbCircle
 10
1141.216306247285
 20
806.3237038531205
 30
0.0
 40
8.254166666666625
100
AcDbArc
 50
224.1966084730937
 51
315.8033915269064
  0
LINE
  5
2401
330
1F
100
AcDbEntity
  8
圖層1輪廓線
  6
Continuous
100
AcDbLine
 10
1143.962785469704
 20
793.069537186454
 30
0.0
 11
1143.962785469704
 21
798.5398668017729
 31
0.0
  0
ARC
  5
2402
330
1F
100
AcDbEntity
  8
圖層1輪廓線
  6
Continuous
100
AcDbCircle
 10
1141.216306247284
 20
824.8153705197873
 30
0.0
 40
8.254166666666629
100
AcDbArc
 50
44.19660847309365
 51
135.8033915269063
  0
LINE
  5
2403
330
1F
100
AcDbEntity
  8
圖層1輪廓線
  6
Continuous
100
AcDbLine
 10
1143.962785469703
 20
832.5992075711351
 30
0.0
 11
1143.962785469703
 21
848.0695371864539
 31
0.0
  0
ARC
  5
2404
330
1F
100
AcDbEntity
  8
圖層1輪廓線
  6
Continuous
100
AcDbCircle
 10
1123.462785469703
 20
884.0903705197888
 30
0.0
 40
36.02083333333455
100
AcDbArc
 50
250.8174656949729
 51
289.1825343050271
  0
ARC
  5
2405
330
1F
100
AcDbEntity
  8
圖層1輪廓線
  6
Continuous
100
AcDbCircle
 10
1123.462785469703
 20
822.0487038531228
 30
0.0
 40
36.02083333333123
100
AcDbArc
 50
70.81746569497288
 51
109.1825343050271
  0
ARC
  5
2406
330
1F
100
AcDbEntity
  8
圖層1輪廓線
  6
Continuous
100
AcDbCircle
 10
1105.709264692123
 20
857.8247455197869
 30
0.0
 40
9.755208333333024
100
AcDbArc
 50
232.653490685543
 51
307.346509314457
  0
ARC
  5
2407
330
1F
100
AcDbEntity
  8
圖層1輪廓線
  6
Continuous
100
AcDbCircle
 10
1105.709264692123
 20
848.3143288531227
 30
0.0
 40
9.755208333331509
100
AcDbArc
 50
52.65349068554301
 51
127.346509314457
  0
LINE
  5
2408
330
1F
100
AcDbEntity
  8
圖層1輪廓線
  6
Continuous
100
AcDbLine
 10
1099.791424432929
 20
850.0695371864539
 30
0.0
 11
1099.791424432929
 21
856.0695371864539
 31
0.0
  0
LINE
  5
2409
330
1F
100
AcDbEntity
  8
圖層1輪廓線
  6
Continuous
100
AcDbLine
 10
1111.627104951316
 20
850.0695371864539
 30
0.0
 11
1111.627104951316
 21
856.0695371864536
 31
0.0
  0
ARC
  5
240A
330
1F
100
AcDbEntity
  8
圖層1輪廓線
  6
Continuous
100
AcDbCircle
 10
1141.216306247285
 20
857.8247455197875
 30
0.0
 40
9.755208333333412
100
AcDbArc
 50
232.653490685543
 51
307.346509314457
  0
ARC
  5
240B
330
1F
100
AcDbEntity
  8
圖層1輪廓線
  6
Continuous
100
AcDbCircle
 10
1141.216306247285
 20
848.3143288531206
 30
0.0
 40
9.755208333333525
100
AcDbArc
 50
52.65349068554301
 51
127.346509314457
  0
LINE
  5
240C
330
1F
100
AcDbEntity
  8
圖層1輪廓線
  6
Continuous
100
AcDbLine
 10
1135.298465988091
 20
850.0695371864539
 30
0.0
 11
1135.298465988091
 21
856.0695371864539
 31
0.0
  0
LINE
  5
240D
330
1F
100
AcDbEntity
  8
圖層1輪廓線
  6
Continuous
100
AcDbLine
 10
1147.134146506479
 20
850.0695371864539
 30
0.0
 11
1147.134146506479
 21
856.0695371864545
 31
0.0
  0
LINE
  5
240E
330
1F
100
AcDbEntity
  8
圖層1輪廓線
  6
Continuous
100
AcDbLine
 10
1103.462785469703
 20
860.5695371864539
 30
0.0
 11
1103.462785469703
 21
858.0695371864539
 31
0.0
  0
LINE
  5
240F
330
1F
100
AcDbEntity
  8
圖層1輪廓線
  6
Continuous
100
AcDbLine
 10
1103.462785469703
 20
858.0695371864539
 30
0.0
 11
1143.462785469703
 21
858.0695371864539
 31
0.0
  0
LINE
  5
2410
330
1F
100
AcDbEntity
  8
圖層1輪廓線
  6
Continuous
100
AcDbLine
 10
1143.462785469703
 20
858.0695371864539
 30
0.0
 11
1143.462785469703
 21
860.5695371864539
 31
0.0
  0
LINE
  5
2411
330
1F
100
AcDbEntity
  8
圖層1輪廓線
100
AcDbLine
 10
1625.067184052539
 20
860.5695371864539
 30
0.0
 11
1625.067184052539
 21
858.0695371864539
 31
0.0
  0
LINE
  5
2412
330
1F
100
AcDbEntity
  8
圖層1輪廓線
  6
Continuous
100
AcDbLine
 10
1147.134146506479
 20
830.569537186454
 30
0.0
 11
1188.462785469703
 21
830.569537186454
 31
0.0
  0
LINE
  5
2413
330
1F
100
AcDbEntity
  8
圖層1輪廓線
100
AcDbLine
 10
1732.067184052539
 20
1071.569537186454
 30
0.0
 11
1732.067184052539
 21
917.569537186454
 31
0.0
  0
LINE
  5
2414
330
1F
100
AcDbEntity
  8
圖層1輪廓線
  6
Continuous
100
AcDbLine
 10
1752.067184052539
 20
1071.569537186454
 30
0.0
 11
1747.067184052539
 21
1071.569537186454
 31
0.0
  0
LINE
  5
2415
330
1F
100
AcDbEntity
  8
圖層1輪廓線
100
AcDbLine
 10
1750.567184052539
 20
1073.069537186454
 30
0.0
 11
1733.567184052539
 21
1073.069537186454
 31
0.0
  0
ARC
  5
2416
330
1F
100
AcDbEntity
  8
圖層1輪廓線
  6
Continuous
100
AcDbCircle
 10
1742.067184052539
 20
1068.319537186454
 30
0.0
 40
7.250000000000031
100
AcDbArc
 50
226.3971810273016
 51
313.6028189726983
  0
LINE
  5
2417
330
1F
100
AcDbEntity
  8
圖層1輪廓線
100
AcDbLine
 10
1733.567184052539
 20
1073.069537186454
 30
0.0
 11
1732.067184052539
 21
1071.569537186454
 31
0.0
  0
LINE
  5
2418
330
1F
100
AcDbEntity
  8
圖層1輪廓線
  6
Continuous
100
AcDbLine
 10
1732.067184052539
 20
1071.569537186454
 30
0.0
 11
1737.067184052539
 21
1071.569537186454
 31
0.0
  0
LINE
  5
2419
330
1F
100
AcDbEntity
  8
圖層1輪廓線
  6
Continuous
100
AcDbLine
 10
1747.067184052539
 20
1073.069537186454
 30
0.0
 11
1747.067184052539
 21
1063.069537186454
 31
0.0
  0
LINE
  5
241A
330
1F
100
AcDbEntity
  8
圖層1輪廓線
  6
Continuous
100
AcDbLine
 10
1737.067184052539
 20
1073.069537186454
 30
0.0
 11
1737.067184052539
 21
1063.069537186454
 31
0.0
  0
LINE
  5
241B
330
1F
100
AcDbEntity
  8
圖層1輪廓線
  6
Continuous
100
AcDbLine
 10
1747.067184052539
 20
1073.069537186454
 30
0.0
 11
1737.067184052539
 21
1063.069537186454
 31
0.0
  0
LINE
  5
241C
330
1F
100
AcDbEntity
  8
圖層1輪廓線
  6
Continuous
100
AcDbLine
 10
1747.067184052539
 20
1063.069537186454
 30
0.0
 11
1737.067184052539
 21
1073.069537186454
 31
0.0
  0
LINE
  5
241D
330
1F
100
AcDbEntity
  8
圖層1輪廓線
  6
Continuous
100
AcDbLine
 10
1747.067184052539
 20
1063.069537186454
 30
0.0
 11
1737.067184052539
 21
1063.069537186454
 31
0.0
  0
LINE
  5
241E
330
1F
100
AcDbEntity
  8
圖層1輪廓線
100
AcDbLine
 10
1752.067184052539
 20
1071.569537186454
 30
0.0
 11
1750.567184052539
 21
1073.069537186454
 31
0.0
  0
LINE
  5
241F
330
1F
100
AcDbEntity
  8
圖層1輪廓線
100
AcDbLine
 10
1825.067184052539
 20
926.4452132927006
 30
0.0
 11
1852.067184052539
 21
926.4452132927006
 31
0.0
  0
LINE
  5
2420
330
1F
100
AcDbEntity
  8
圖層1輪廓線
100
AcDbLine
 10
1852.067184052539
 20
926.4452132927006
 30
0.0
 11
1852.067184052539
 21
941.4452132927006
 31
0.0
  0
LINE
  5
2421
330
1F
100
AcDbEntity
  8
圖層1輪廓線
100
AcDbLine
 10
1732.067184052539
 20
941.4452132927006
 30
0.0
 11
1724.067184052539
 21
941.4452132927006
 31
0.0
  0
LINE
  5
2422
330
1F
100
AcDbEntity
  8
圖層1輪廓線
100
AcDbLine
 10
1724.067184052539
 20
941.4452132927006
 30
0.0
 11
1724.067184052539
 21
926.4452132927006
 31
0.0
  0
LINE
  5
2423
330
1F
100
AcDbEntity
  8
圖層1輪廓線
100
AcDbLine
 10
1724.067184052539
 20
926.4452132927006
 30
0.0
 11
1732.067184052539
 21
926.4452132927006
 31
0.0
  0
LINE
  5
2424
330
1F
100
AcDbEntity
  8
圖層4尺寸線
100
AcDbLine
 10
1762.067184052539
 20
917.569537186454
 30
0.0
 11
1762.067184052539
 21
926.4452132927006
 31
0.0
  0
LINE
  5
2425
330
1F
100
AcDbEntity
  8
圖層4尺寸線
100
AcDbLine
 10
1776.067184052539
 20
926.4452132927006
 30
0.0
 11
1776.067184052539
 21
917.569537186454
 31
0.0
  0
LINE
  5
2426
330
1F
100
AcDbEntity
  8
圖層4尺寸線
100
AcDbLine
 10
1761.817184052539
 20
956.4452132927005
 30
0.0
 11
1776.317184052539
 21
956.4452132927005
 31
0.0
  0
LINE
  5
2427
330
1F
100
AcDbEntity
  8
圖層1輪廓線
100
AcDbLine
 10
1752.067184052539
 20
956.4452132927005
 30
0.0
 11
1787.067184052539
 21
956.4452132927005
 31
0.0
  0
LINE
  5
2428
330
1F
100
AcDbEntity
  8
圖層1輪廓線
100
AcDbLine
 10
1787.067184052539
 20
941.4452132927006
 30
0.0
 11
1752.067184052539
 21
941.4452132927006
 31
0.0
  0
CIRCLE
  5
2429
330
1F
100
AcDbEntity
  8
圖層3虛線
100
AcDbCircle
 10
1768.867517249834
 20
948.9452132927006
 30
0.0
 40
4.0
  0
CIRCLE
  5
242A
330
1F
100
AcDbEntity
  8
圖層4尺寸線
100
AcDbCircle
 10
1768.867517249834
 20
948.9452132927006
 30
0.0
 40
3.0
  0
LINE
  5
242B
330
1F
100
AcDbEntity
  8
圖層1輪廓線
100
AcDbLine
 10
1787.067184052539
 20
956.4452132927005
 30
0.0
 11
1787.067184052539
 21
941.4452132927006
 31
0.0
  0
LINE
  5
242C
330
1F
100
AcDbEntity
  8
圖層1輪廓線
100
AcDbLine
 10
1776.067184052539
 20
956.4452132927005
 30
0.0
 11
1776.067184052539
 21
978.6922403197277
 31
0.0
  0
LINE
  5
242D
330
1F
100
AcDbEntity
  8
圖層1輪廓線
100
AcDbLine
 10
1744.067184052539
 20
910.5695371864539
 30
0.0
 11
1794.067184052539
 21
910.5695371864539
 31
0.0
  0
LINE
  5
242E
330
1F
100
AcDbEntity
  8
圖層1輪廓線
100
AcDbLine
 10
1744.067184052539
 20
917.569537186454
 30
0.0
 11
1787.567184052539
 21
917.569537186454
 31
0.0
  0
LINE
  5
242F
330
1F
100
AcDbEntity
  8
圖層1輪廓線
100
AcDbLine
 10
1760.067184052539
 20
926.4452132927006
 30
0.0
 11
1769.067184052539
 21
926.4452132927006
 31
0.0
  0
LINE
  5
2430
330
1F
100
AcDbEntity
  8
圖層1輪廓線
100
AcDbLine
 10
1769.067184052539
 20
926.4452132927006
 30
0.0
 11
1778.067184052539
 21
926.4452132927006
 31
0.0
  0
LINE
  5
2431
330
1F
100
AcDbEntity
  8
圖層1輪廓線
100
AcDbLine
 10
1762.067184052539
 20
926.4452132927006
 30
0.0
 11
1776.067184052539
 21
926.4452132927006
 31
0.0
  0
ARC
  5
2432
330
1F
100
AcDbEntity
  8
圖層1輪廓線
100
AcDbCircle
 10
1812.959075944431
 20
1012.583429508917
 30
0.0
 40
6.108108108108208
100
AcDbArc
 50
270.0
 51
90.0
  0
ARC
  5
2433
330
1F
100
AcDbEntity
  8
圖層1輪廓線
100
AcDbCircle
 10
1725.175292160647
 20
1012.583429508917
 30
0.0
 40
6.108108108108208
100
AcDbArc
 50
90.0
 51
270.0
  0
LINE
  5
2434
330
1F
100
AcDbEntity
  8
圖層1輪廓線
100
AcDbLine
 10
1789.067184052539
 20
978.6922403197277
 30
0.0
 11
1752.067184052539
 21
978.6922403197277
 31
0.0
  0
ARC
  5
2435
330
1F
100
AcDbEntity
  8
圖層1輪廓線
100
AcDbCircle
 10
1754.202319187674
 20
995.7425105899979
 30
0.0
 40
4.054054054054054
100
AcDbArc
 50
270.0
 51
0.0
  0
LINE
  5
2436
330
1F
100
AcDbEntity
  8
圖層1輪廓線
100
AcDbLine
 10
1752.067184052538
 20
998.4452132927005
 30
0.0
 11
1758.256373241728
 21
998.4452132927009
 31
0.0
  0
LINE
  5
2437
330
1F
100
AcDbEntity
  8
圖層1輪廓線
100
AcDbLine
 10
1725.175292160647
 20
1006.475321400809
 30
0.0
 11
1732.067184052539
 21
1006.475321400809
 31
0.0
  0
LINE
  5
2438
330
1F
100
AcDbEntity
  8
圖層1輪廓線
100
AcDbLine
 10
1752.067184052539
 20
991.6884565359438
 30
0.0
 11
1754.202319187674
 21
991.6884565359438
 31
0.0
  0
LINE
  5
2439
330
1F
100
AcDbEntity
  8
圖層1輪廓線
100
AcDbLine
 10
1779.87799486335
 20
998.4452132927009
 30
0.0
 11
1789.337454322809
 21
998.4452132927009
 31
0.0
  0
LINE
  5
243A
330
1F
100
AcDbEntity
  8
圖層1輪廓線
100
AcDbLine
 10
1783.932048917404
 20
991.6884565359438
 30
0.0
 11
1794.742859728215
 21
991.6884565359438
 31
0.0
  0
CIRCLE
  5
243B
330
1F
100
AcDbEntity
  8
圖層4尺寸線
100
AcDbCircle
 10
1769.067184052539
 20
985.0803484278358
 30
0.0
 40
3.0
  0
CIRCLE
  5
243C
330
1F
100
AcDbEntity
  8
圖層3虛線
100
AcDbCircle
 10
1769.067184052539
 20
985.0803484278358
 30
0.0
 40
4.0
  0
LINE
  5
243D
330
1F
100
AcDbEntity
  8
圖層1輪廓線
100
AcDbLine
 10
1758.256373241728
 20
1006.475321400809
 30
0.0
 11
1758.256373241728
 21
995.7425105899979
 31
0.0
  0
LINE
  5
243E
330
1F
100
AcDbEntity
  8
圖層1輪廓線
100
AcDbLine
 10
1779.87799486335
 20
1006.475321400809
 30
0.0
 11
1779.87799486335
 21
995.7425105899979
 31
0.0
  0
ARC
  5
243F
330
1F
100
AcDbEntity
  8
圖層1輪廓線
100
AcDbCircle
 10
1783.932048917404
 20
995.7425105899979
 30
0.0
 40
4.054054054054054
100
AcDbArc
 50
180.0
 51
270.0
  0
LINE
  5
2440
330
1F
100
AcDbEntity
  8
圖層1輪廓線
100
AcDbLine
 10
1789.067184052539
 20
991.6884565359438
 30
0.0
 11
1789.067184052539
 21
978.6922403197277
 31
0.0
  0
ARC
  5
2441
330
1F
100
AcDbEntity
  8
圖層1輪廓線
100
AcDbCircle
 10
1793.793679286884
 20
1001.823591671079
 30
0.0
 40
10.13513513513513
100
AcDbArc
 50
270.0
 51
344.9999999999997
  0
LINE
  5
2442
330
1F
100
AcDbEntity
  8
圖層1輪廓線
100
AcDbLine
 10
1798.558561211931
 20
1006.475321400808
 30
0.0
 11
1797.056942213537
 21
1000.949203005192
 31
0.0
  0
LINE
  5
2443
330
1F
100
AcDbEntity
  8
圖層1輪廓線
100
AcDbLine
 10
1789.337454322809
 20
998.4452132927005
 30
0.0
 11
1793.793679286884
 21
998.4452132927005
 31
0.0
  0
ARC
  5
2444
330
1F
100
AcDbEntity
  8
圖層1輪廓線
100
AcDbCircle
 10
1793.793679286884
 20
1001.823591671079
 30
0.0
 40
3.378378378378378
100
AcDbArc
 50
270.0
 51
344.9999999999997
  0
ARC
  5
2445
330
1F
100
AcDbEntity
  8
圖層1輪廓線
100
AcDbCircle
 10
1793.793679286884
 20
1001.823591671079
 30
0.0
 40
3.378378378378378
100
AcDbArc
 50
270.0
 51
344.9999999999997
  0
LINE
  5
2446
330
1F
100
AcDbEntity
  8
圖層1輪廓線
100
AcDbLine
 10
1805.553670539026
 20
1006.475321400809
 30
0.0
 11
1803.583468066841
 21
999.2004256734185
 31
0.0
  0
LINE
  5
2447
330
1F
100
AcDbEntity
  8
圖層4尺寸線
100
AcDbLine
 10
1778.067184052539
 20
738.4452132927005
 30
0.0
 11
1760.067184052539
 21
738.4452132927005
 31
0.0
  0
LINE
  5
2448
330
1F
100
AcDbEntity
  8
圖層1輪廓線
100
AcDbLine
 10
1725.175292160647
 20
1018.691537617025
 30
0.0
 11
1732.067184052539
 21
1018.691537617025
 31
0.0
  0
LINE
  5
2449
330
1F
100
AcDbEntity
  8
圖層4尺寸線
100
AcDbLine
 10
1762.067184052539
 20
736.4452132927006
 30
0.0
 11
1762.067184052539
 21
830.569537186454
 31
0.0
  0
LINE
  5
244A
330
1F
100
AcDbEntity
  8
圖層4尺寸線
100
AcDbLine
 10
1776.067184052539
 20
736.4452132927006
 30
0.0
 11
1762.067184052539
 21
736.4452132927006
 31
0.0
  0
LINE
  5
244B
330
1F
100
AcDbEntity
  8
圖層1輪廓線
100
AcDbLine
 10
1742.067184052539
 20
910.5695371864539
 30
0.0
 11
1713.067184052539
 21
910.5695371864539
 31
0.0
  0
LINE
  5
244C
330
1F
100
AcDbEntity
  8
圖層1輪廓線
100
AcDbLine
 10
1713.067184052539
 20
910.5695371864539
 30
0.0
 11
1713.067184052539
 21
917.569537186454
 31
0.0
  0
LINE
  5
244D
330
1F
100
AcDbEntity
  8
圖層1輪廓線
100
AcDbLine
 10
1713.067184052539
 20
917.569537186454
 30
0.0
 11
1771.067184052539
 21
917.569537186454
 31
0.0
  0
LINE
  5
244E
330
1F
100
AcDbEntity
  8
圖層1輪廓線
100
AcDbLine
 10
1752.067184052539
 20
926.4452132927006
 30
0.0
 11
1789.567184052539
 21
926.4452132927006
 31
0.0
  0
LINE
  5
244F
330
1F
100
AcDbEntity
  8
圖層1輪廓線
100
AcDbLine
 10
1752.067184052539
 20
917.569537186454
 30
0.0
 11
1752.067184052539
 21
941.4452132927006
 31
0.0
  0
LINE
  5
2450
330
1F
100
AcDbEntity
  8
圖層4尺寸線
100
AcDbLine
 10
1776.067184052539
 20
830.569537186454
 30
0.0
 11
1776.067184052539
 21
736.4452132927006
 31
0.0
  0
LINE
  5
2451
330
1F
100
AcDbEntity
  8
圖層1輪廓線
100
AcDbLine
 10
1787.567184052539
 20
830.569537186454
 30
0.0
 11
1787.567184052539
 21
606.4452132927006
 31
0.0
  0
LINE
  5
2452
330
1F
100
AcDbEntity
  8
圖層1輪廓線
100
AcDbLine
 10
1787.567184052539
 20
917.569537186454
 30
0.0
 11
1787.567184052539
 21
910.5695371864539
 31
0.0
  0
LINE
  5
2453
330
1F
100
AcDbEntity
  8
圖層1輪廓線
100
AcDbLine
 10
1752.067184052539
 20
956.4452132927005
 30
0.0
 11
1752.067184052539
 21
1071.569537186454
 31
0.0
  0
LINE
  5
2454
330
1F
100
AcDbEntity
  8
圖層1輪廓線
100
AcDbLine
 10
1752.067184052539
 20
956.4452132927005
 30
0.0
 11
1752.067184052539
 21
941.4452132927006
 31
0.0
  0
LINE
  5
2455
330
1F
100
AcDbEntity
  8
圖層1輪廓線
100
AcDbLine
 10
1771.067184052539
 20
910.5695371864539
 30
0.0
 11
1771.067184052539
 21
917.569537186454
 31
0.0
  0
LINE
  5
2456
330
1F
100
AcDbEntity
  8
圖層1輪廓線
100
AcDbLine
 10
1752.067184052538
 20
1006.475321400809
 30
0.0
 11
1812.959075944431
 21
1006.475321400809
 31
0.0
  0
LINE
  5
2457
330
1F
100
AcDbEntity
  8
圖層1輪廓線
100
AcDbLine
 10
1752.067184052538
 20
1018.691537617025
 30
0.0
 11
1812.959075944431
 21
1018.691537617025
 31
0.0
  0
LINE
  5
2458
330
1F
100
AcDbEntity
  8
圖層1輪廓線
100
AcDbLine
 10
1762.067184052539
 20
978.6922403197277
 30
0.0
 11
1762.067184052539
 21
956.4452132927005
 31
0.0
  0
LINE
  5
2459
330
1F
100
AcDbEntity
  8
圖層1輪廓線
100
AcDbLine
 10
1754.202319187674
 20
991.6884565359438
 30
0.0
 11
1783.932048917404
 21
991.6884565359437
 31
0.0
  0
LINE
  5
245A
102
{ACAD_REACTORS
330
2D76
102
}
330
1F
100
AcDbEntity
  8
圖層1輪廓線
100
AcDbLine
 10
1058.462785469703
 20
910.5695371864539
 30
0.0
 11
1086.462785469703
 21
910.5695371864539
 31
0.0
  0
LINE
  5
245B
102
{ACAD_REACTORS
330
2D76
102
}
330
1F
100
AcDbEntity
  8
圖層1輪廓線
100
AcDbLine
 10
1160.462785469704
 20
910.5695371864539
 30
0.0
 11
1188.462785469703
 21
910.5695371864539
 31
0.0
  0
LINE
  5
245C
330
1F
100
AcDbEntity
  8
圖層1輪廓線
100
AcDbLine
 10
1086.462785469703
 20
910.5695371864539
 30
0.0
 11
1160.462785469704
 21
910.5695371864539
 31
0.0
  0
LINE
  5
245D
102
{ACAD_REACTORS
330
26E9
330
2719
102
}
330
1F
100
AcDbEntity
  8
圖層1輪廓線
100
AcDbLine
 10
1580.067184052539
 20
910.5695371864539
 30
0.0
 11
1608.067184052539
 21
910.5695371864539
 31
0.0
  0
LINE
  5
245E
102
{ACAD_REACTORS
330
27B1
102
}
330
1F
100
AcDbEntity
  8
圖層1輪廓線
100
AcDbLine
 10
1682.067184052539
 20
910.5695371864539
 30
0.0
 11
1895.067184052539
 21
910.5695371864539
 31
0.0
  0
LINE
  5
245F
330
1F
100
AcDbEntity
  8
圖層4尺寸線
100
AcDbLine
 10
1608.067184052539
 20
910.5695371864539
 30
0.0
 11
1682.067184052539
 21
910.5695371864539
 31
0.0
  0
LINE
  5
2460
330
1F
100
AcDbEntity
  8
圖層1輪廓線
100
AcDbLine
 10
1862.567184052539
 20
910.5695371864539
 30
0.0
 11
1862.567184052539
 21
924.4452132927007
 31
0.0
  0
LINE
  5
2461
330
1F
100
AcDbEntity
  8
圖層3虛線
100
AcDbLine
 10
1113.462785469703
 20
823.0695371864541
 30
0.0
 11
1133.462785469704
 21
823.0695371864541
 31
0.0
  0
LINE
  5
2462
330
1F
100
AcDbEntity
  8
圖層3虛線
100
AcDbLine
 10
1113.462785469704
 20
793.0695371864542
 30
0.0
 11
1113.462785469704
 21
823.0695371864541
 31
0.0
  0
LINE
  5
2463
330
1F
100
AcDbEntity
  8
圖層3虛線
100
AcDbLine
 10
1133.462785469704
 20
793.0695371864542
 30
0.0
 11
1133.462785469704
 21
823.0695371864541
 31
0.0
  0
LINE
  5
2464
330
1F
100
AcDbEntity
  8
圖層3虛線
100
AcDbLine
 10
1099.791424432929
 20
813.0695371864542
 30
0.0
 11
1113.462785469704
 21
813.0695371864543
 31
0.0
  0
LINE
  5
2465
330
1F
100
AcDbEntity
  8
圖層3虛線
100
AcDbLine
 10
1099.791424432929
 20
803.0695371864542
 30
0.0
 11
1113.462785469704
 21
803.0695371864544
 31
0.0
  0
LINE
  5
2466
330
1F
100
AcDbEntity
  8
圖層3虛線
100
AcDbLine
 10
1133.462785469704
 20
813.0695371864543
 30
0.0
 11
1147.134146506479
 21
813.0695371864542
 31
0.0
  0
LINE
  5
2467
330
1F
100
AcDbEntity
  8
圖層3虛線
100
AcDbLine
 10
1133.462785469704
 20
803.0695371864544
 30
0.0
 11
1147.134146506479
 21
803.0695371864542
 31
0.0
  0
LINE
  5
2468
330
1F
100
AcDbEntity
  8
圖層3虛線
100
AcDbLine
 10
1099.791424432929
 20
811.0695371864542
 30
0.0
 11
1113.462785469704
 21
811.0695371864544
 31
0.0
  0
LINE
  5
2469
330
1F
100
AcDbEntity
  8
圖層3虛線
100
AcDbLine
 10
1099.791424432929
 20
805.0695371864541
 30
0.0
 11
1113.462785469704
 21
805.0695371864543
 31
0.0
  0
LINE
  5
246A
330
1F
100
AcDbEntity
  8
圖層3虛線
100
AcDbLine
 10
1133.462785469704
 20
811.0695371864544
 30
0.0
 11
1147.134146506479
 21
811.0695371864542
 31
0.0
  0
LINE
  5
246B
330
1F
100
AcDbEntity
  8
圖層3虛線
100
AcDbLine
 10
1133.462785469704
 20
805.0695371864543
 30
0.0
 11
1147.134146506479
 21
805.0695371864541
 31
0.0
  0
LINE
  5
246C
330
1F
100
AcDbEntity
  8
圖層2中心線
 48
0.3
370
    18
100
AcDbLine
 10
1097.275987985925
 20
808.0695371864543
 30
0.0
 11
1150.782627412649
 21
808.0695371864543
 31
0.0
  0
LINE
  5
246D
330
1F
100
AcDbEntity
  8
圖層1輪廓線
  6
Continuous
100
AcDbLine
 10
1616.56718405254
 20
817.9307531186214
 30
0.0
 11
1616.56718405254
 21
803.2083212542858
 31
0.0
  0
LINE
  5
246E
330
1F
100
AcDbEntity
  8
圖層1輪廓線
  6
Continuous
100
AcDbLine
 10
1624.567184052541
 20
817.9307531186214
 30
0.0
 11
1624.567184052541
 21
803.2083212542858
 31
0.0
  0
ARC
  5
246F
330
1F
100
AcDbEntity
  8
圖層1輪廓線
  6
Continuous
100
AcDbCircle
 10
1615.789406274762
 20
810.5695371864536
 30
0.0
 40
8.777777777777844
100
AcDbArc
 50
326.0078238856337
 51
33.99217611436628
  0
ARC
  5
2470
330
1F
100
AcDbEntity
  8
圖層1輪廓線
  6
Continuous
100
AcDbCircle
 10
1625.344961830318
 20
810.5695371864536
 30
0.0
 40
8.777777777777153
100
AcDbArc
 50
146.0078238856337
 51
213.9921761143663
  0
LINE
  5
2471
330
1F
100
AcDbEntity
  8
圖層1輪廓線
  6
Continuous
100
AcDbLine
 10
1618.06718405254
 20
820.3844917626771
 30
0.0
 11
1623.067184052541
 21
820.3844917626771
 31
0.0
  0
LINE
  5
2472
330
1F
100
AcDbEntity
  8
圖層1輪廓線
  6
Continuous
100
AcDbLine
 10
1618.067184052541
 20
815.4770144745654
 30
0.0
 11
1623.06718405254
 21
815.4770144745654
 31
0.0
  0
ARC
  5
2473
330
1F
100
AcDbEntity
  8
圖層1輪廓線
  6
Continuous
100
AcDbCircle
 10
1619.324128496985
 20
817.9307531186214
 30
0.0
 40
2.756944444444471
100
AcDbArc
 50
117.124105366369
 51
242.8758946336309
  0
ARC
  5
2474
330
1F
100
AcDbEntity
  8
圖層1輪廓線
  6
Continuous
100
AcDbCircle
 10
1621.810239608096
 20
817.9307531186214
 30
0.0
 40
2.756944444444574
100
AcDbArc
 50
297.1241053663689
 51
62.875894633631
  0
LINE
  5
2475
330
1F
100
AcDbEntity
  8
圖層1輪廓線
  6
Continuous
100
AcDbLine
 10
1618.067184052541
 20
805.6620598983419
 30
0.0
 11
1623.067184052541
 21
805.6620598983419
 31
0.0
  0
LINE
  5
2476
330
1F
100
AcDbEntity
  8
圖層1輪廓線
  6
Continuous
100
AcDbLine
 10
1618.06718405254
 20
800.7545826102301
 30
0.0
 11
1623.067184052541
 21
800.7545826102301
 31
0.0
  0
ARC
  5
2477
330
1F
100
AcDbEntity
  8
圖層1輪廓線
  6
Continuous
100
AcDbCircle
 10
1619.324128496985
 20
803.2083212542858
 30
0.0
 40
2.756944444444263
100
AcDbArc
 50
117.1241053663544
 51
242.8758946336456
  0
ARC
  5
2478
330
1F
100
AcDbEntity
  8
圖層1輪廓線
  6
Continuous
100
AcDbCircle
 10
1621.810239608096
 20
803.2083212542859
 30
0.0
 40
2.756944444444471
100
AcDbArc
 50
297.1241053663689
 51
62.875894633631
  0
CIRCLE
  5
2479
330
1F
100
AcDbEntity
  8
圖層3虛線
100
AcDbCircle
 10
1123.462785469704
 20
808.0695371864543
 30
0.0
 40
5.0
  0
LINE
  5
247A
330
1F
100
AcDbEntity
  8
圖層2中心線
 48
0.3
370
    18
100
AcDbLine
 10
1598.692997300298
 20
810.5695371864536
 30
0.0
 11
1689.55772311354
 21
810.5695371864536
 31
0.0
  0
LINE
  5
247B
330
1F
100
AcDbEntity
  8
圖層1輪廓線
  6
Continuous
100
AcDbLine
 10
1645.067184052539
 20
814.9372896561169
 30
0.0
 11
1645.067184052538
 21
803.0695371864553
 31
0.0
  0
LINE
  5
247C
330
1F
100
AcDbEntity
  8
圖層1輪廓線
  6
Continuous
100
AcDbLine
 10
1645.06718405254
 20
856.0695371864536
 30
0.0
 11
1645.067184052539
 21
850.0695371864539
 31
0.0
  0
LINE
  5
247D
330
1F
100
AcDbEntity
  8
圖層2中心線
 48
0.5
370
    18
100
AcDbLine
 10
1825.067184052539
 20
513.6476055425252
 30
0.0
 11
1825.067184052539
 21
985.8130052400397
 31
0.0
  0
ARC
  5
247E
330
1F
100
AcDbEntity
  8
圖層1輪廓線
  6
Continuous
100
AcDbCircle
 10
1825.067184052539
 20
952.9660466260329
 30
0.0
 40
8.520833333332422
100
AcDbArc
 50
229.9320129505455
 51
310.0679870494545
  0
ARC
  5
247F
330
1F
100
AcDbEntity
  8
圖層1輪廓線
  6
Continuous
100
AcDbCircle
 10
1833.294425388491
 20
947.3254216260338
 30
0.0
 40
2.880208333333234
100
AcDbArc
 50
197.7946131838992
 51
342.2053868161008
  0
ARC
  5
2480
330
1F
100
AcDbEntity
  8
圖層1輪廓線
  6
Continuous
100
AcDbCircle
 10
1816.839942716587
 20
947.3254216260338
 30
0.0
 40
2.880208333333234
100
AcDbArc
 50
197.7946131838992
 51
342.2053868161008
  0
LINE
  5
2481
330
1F
100
AcDbEntity
  8
圖層1輪廓線
  6
Continuous
100
AcDbLine
 10
1816.675720135757
 20
944.4452132927006
 30
0.0
 11
1833.458647969322
 21
944.4452132927006
 31
0.0
  0
ARC
  5
2482
330
1F
100
AcDbEntity
  8
圖層1輪廓線
  6
Continuous
100
AcDbCircle
 10
1825.067184052539
 20
945.9243799593673
 30
0.0
 40
8.520833333333246
100
AcDbArc
 50
49.9320129505622
 51
130.0679870494378
  0
LINE
  5
2483
330
1F
100
AcDbEntity
  8
圖層4尺寸線
100
AcDbLine
 10
1816.675720135757
 20
954.4452132927006
 30
0.0
 11
1833.458647969321
 21
954.4452132927004
 31
0.0
  0
LINE
  5
2484
330
1F
100
AcDbEntity
  8
圖層1輪廓線
  6
Continuous
100
AcDbLine
 10
1819.582356495238
 20
946.4452132927011
 30
0.0
 11
1819.582356495237
 21
952.4452132927006
 31
0.0
  0
LINE
  5
2485
330
1F
100
AcDbEntity
  8
圖層4尺寸線
100
AcDbLine
 10
1814.097528937936
 20
946.4452132927004
 30
0.0
 11
1814.097528937936
 21
952.4452132927009
 31
0.0
  0
ARC
  5
2486
330
1F
100
AcDbEntity
  8
圖層1輪廓線
  6
Continuous
100
AcDbCircle
 10
1816.839942716587
 20
951.5650049593673
 30
0.0
 40
2.880208333333381
100
AcDbArc
 50
17.79461318389923
 51
162.2053868161007
  0
ARC
  5
2487
330
1F
100
AcDbEntity
  8
圖層1輪廓線
  6
Continuous
100
AcDbCircle
 10
1833.294425388491
 20
951.5650049593673
 30
0.0
 40
2.880208333333343
100
AcDbArc
 50
17.79461318389923
 51
162.2053868161007
  0
LINE
  5
2488
330
1F
100
AcDbEntity
  8
圖層1輪廓線
  6
Continuous
100
AcDbLine
 10
1830.552011609841
 20
946.4452132927005
 30
0.0
 11
1830.552011609841
 21
952.4452132927006
 31
0.0
  0
LINE
  5
2489
330
1F
100
AcDbEntity
  8
圖層4尺寸線
100
AcDbLine
 10
1836.036839167142
 20
946.4452132927007
 30
0.0
 11
1836.036839167142
 21
952.4452132927006
 31
0.0
  0
LINE
  5
248A
330
1F
100
AcDbEntity
  8
圖層4尺寸線
100
AcDbLine
 10
1814.067184052539
 20
941.4452132927006
 30
0.0
 11
1814.067184052539
 21
944.4452132927006
 31
0.0
  0
LINE
  5
248B
330
1F
100
AcDbEntity
  8
圖層1輪廓線
  6
Continuous
100
AcDbLine
 10
1814.067184052539
 20
944.4452132927006
 30
0.0
 11
1836.067184052539
 21
944.4452132927006
 31
0.0
  0
LINE
  5
248C
330
1F
100
AcDbEntity
  8
圖層4尺寸線
100
AcDbLine
 10
1836.067184052539
 20
944.4452132927006
 30
0.0
 11
1836.067184052539
 21
941.4452132927006
 31
0.0
  0
LINE
  5
248D
330
1F
100
AcDbEntity
  8
圖層1輪廓線
100
AcDbLine
 10
1787.067184052539
 20
941.4452132927006
 30
0.0
 11
1852.067184052539
 21
941.4452132927006
 31
0.0
  0
LINE
  5
248E
330
1F
100
AcDbEntity
  8
圖層2中心線
100
AcDbLine
 10
1759.067184052539
 20
985.0803484278358
 30
0.0
 11
1779.067184052539
 21
985.0803484278358
 31
0.0
  0
LINE
  5
248F
330
1F
100
AcDbEntity
  8
圖層2中心線
100
AcDbLine
 10
1769.067184052539
 20
975.0803484278359
 30
0.0
 11
1769.067184052539
 21
995.0803484278358
 31
0.0
  0
LINE
  5
2490
330
1F
100
AcDbEntity
  8
圖層2中心線
100
AcDbLine
 10
1758.867517249834
 20
948.9452132927006
 30
0.0
 11
1778.867517249834
 21
948.9452132927006
 31
0.0
  0
LINE
  5
2491
330
1F
100
AcDbEntity
  8
圖層2中心線
100
AcDbLine
 10
1768.867517249834
 20
938.9452132927006
 30
0.0
 11
1768.867517249834
 21
958.9452132927005
 31
0.0
  0
LINE
  5
2492
330
1F
100
AcDbEntity
  8
圖層1輪廓線
  6
Continuous
100
AcDbLine
 10
1625.067184052539
 20
858.0695371864539
 30
0.0
 11
1662.567184052539
 21
858.0695371864539
 31
0.0
  0
LINE
  5
2493
330
1F
100
AcDbEntity
  8
圖層1輪廓線
  6
Continuous
100
AcDbLine
 10
1624.567184052541
 20
848.0695371864536
 30
0.0
 11
1665.567184052541
 21
848.0695371864536
 31
0.0
  0
CIRCLE
  5
2494
330
1F
100
AcDbEntity
  8
圖層1輪廓線
  6
Continuous
100
AcDbCircle
 10
1123.462785469703
 20
808.0695371864543
 30
0.0
 40
7.0
  0
CIRCLE
  5
2495
330
1F
100
AcDbEntity
  8
圖層1輪廓線
  6
Continuous
100
AcDbCircle
 10
1123.462785469704
 20
808.0695371864543
 30
0.0
 40
3.0
  0
LWPOLYLINE
  5
2496
330
1F
100
AcDbEntity
  8
圖層1輪廓線
  6
Continuous
100
AcDbPolyline
 90
        6
 70
     1
 43
0.0
 10
1116.462785469704
 20
804.0280853021267
 10
1123.462785469704
 20
799.986633417799
 10
1130.462785469704
 20
804.0280853021267
 10
1130.462785469704
 20
812.1109890707817
 10
1123.462785469704
 20
816.1524409551095
 10
1116.462785469704
 20
812.1109890707819
  0
LINE
  5
2497
330
1F
100
AcDbEntity
  8
圖層4尺寸線
100
AcDbLine
 10
1779.067184052539
 20
926.4452132927006
 30
0.0
 11
1779.067184052539
 21
917.569537186454
 31
0.0
  0
LINE
  5
2498
330
1F
100
AcDbEntity
  8
圖層4尺寸線
100
AcDbLine
 10
1759.067184052539
 20
926.4452132927006
 30
0.0
 11
1759.067184052539
 21
917.569537186454
 31
0.0
  0
LINE
  5
2499
330
1F
100
AcDbEntity
  8
圖層4尺寸線
100
AcDbLine
 10
1759.067184052539
 20
830.569537186454
 30
0.0
 11
1759.067184052539
 21
738.4452132927005
 31
0.0
  0
LINE
  5
249A
330
1F
100
AcDbEntity
  8
圖層4尺寸線
100
AcDbLine
 10
1779.067184052539
 20
830.569537186454
 30
0.0
 11
1779.067184052539
 21
738.4452132927005
 31
0.0
  0
LINE
  5
249B
330
1F
100
AcDbEntity
  8
圖層4尺寸線
100
AcDbLine
 10
1759.067184052539
 20
738.4452132927005
 30
0.0
 11
1779.067184052539
 21
738.4452132927005
 31
0.0
  0
LINE
  5
249C
330
1F
100
AcDbEntity
  8
圖層4尺寸線
100
AcDbLine
 10
1759.067184052539
 20
738.4452132927005
 30
0.0
 11
1762.067184052539
 21
736.4452132927006
 31
0.0
  0
LINE
  5
249D
330
1F
100
AcDbEntity
  8
圖層4尺寸線
100
AcDbLine
 10
1776.067184052539
 20
736.4452132927006
 30
0.0
 11
1779.067184052539
 21
738.4452132927005
 31
0.0
  0
LINE
  5
249E
330
1F
100
AcDbEntity
  8
圖層2中心線
 48
0.5
370
    18
100
AcDbLine
 10
1769.067184052539
 20
736.4452132927006
 30
0.0
 11
1769.067184052539
 21
1035.325658569665
 31
0.0
  0
LINE
  5
249F
330
1F
100
AcDbEntity
  8
圖層2中心線
 48
0.5
370
    18
100
AcDbLine
 10
1742.067184052539
 20
1083.033183712636
 30
0.0
 11
1742.067184052539
 21
890.6641339503288
 31
0.0
  0
LINE
  5
24A0
330
1F
100
AcDbEntity
  8
圖層1輪廓線
100
AcDbLine
 10
1652.567184052539
 20
606.4452132927007
 30
0.0
 11
1740.067184052539
 21
606.4452132927006
 31
0.0
  0
LINE
  5
24A1
330
1F
100
AcDbEntity
  8
圖層2中心線
 48
0.5
370
    18
100
AcDbLine
 10
1645.067184052539
 20
515.9304562054521
 30
0.0
 11
1645.067184052539
 21
636.8309611810989
 31
0.0
  0
LINE
  5
24A2
330
1F
100
AcDbEntity
  8
圖層1輪廓線
100
AcDbLine
 10
1669.727184052539
 20
942.5695371864541
 30
0.0
 11
1669.727184052539
 21
1099.569537186454
 31
0.0
  0
LINE
  5
24A3
330
1F
100
AcDbEntity
  8
圖層1輪廓線
100
AcDbLine
 10
1676.907184052539
 20
942.5695371864541
 30
0.0
 11
1676.907184052539
 21
1099.569537186454
 31
0.0
  0
LINE
  5
24A4
330
1F
100
AcDbEntity
  8
圖層1輪廓線
100
AcDbLine
 10
1613.227184052539
 20
942.5695371864538
 30
0.0
 11
1613.227184052539
 21
1099.569537186454
 31
0.0
  0
LINE
  5
24A5
330
1F
100
AcDbEntity
  8
圖層1輪廓線
100
AcDbLine
 10
1620.407184052539
 20
942.5695371864538
 30
0.0
 11
1620.407184052539
 21
1099.569537186454
 31
0.0
  0
LINE
  5
24A6
330
1F
100
AcDbEntity
  8
圖層1輪廓線
100
AcDbLine
 10
1607.567184052539
 20
942.569537186454
 30
0.0
 11
1608.067184052539
 21
910.5695371864538
 31
0.0
  0
LINE
  5
24A7
330
1F
100
AcDbEntity
  8
圖層1輪廓線
100
AcDbLine
 10
1620.067184052539
 20
942.569537186454
 30
0.0
 11
1620.474166385023
 21
916.5226679074523
 31
0.0
  0
LINE
  5
24A8
330
1F
100
AcDbEntity
  8
圖層1輪廓線
100
AcDbLine
 10
1670.067184052539
 20
942.569537186454
 30
0.0
 11
1669.660201720055
 21
916.5226679074523
 31
0.0
  0
LINE
  5
24A9
330
1F
100
AcDbEntity
  8
圖層1輪廓線
100
AcDbLine
 10
1682.567184052539
 20
942.569537186454
 30
0.0
 11
1682.067184052539
 21
910.5695371864538
 31
0.0
  0
LINE
  5
24AA
330
1F
100
AcDbEntity
  8
圖層1輪廓線
100
AcDbLine
 10
1608.067184052539
 20
910.5695371864541
 30
0.0
 11
1682.067184052539
 21
910.5695371864538
 31
0.0
  0
LINE
  5
24AB
330
1F
100
AcDbEntity
  8
圖層1輪廓線
100
AcDbLine
 10
1623.473800241128
 20
913.5695371864541
 30
0.0
 11
1666.66056786395
 21
913.5695371864541
 31
0.0
  0
LINE
  5
24AC
330
1F
100
AcDbEntity
  8
圖層1輪廓線
  6
Continuous
100
AcDbLine
 10
1615.419355215961
 20
910.5695371864538
 30
0.0
 11
1675.477512239242
 21
910.5695371864538
 31
0.0
  0
ARC
  5
24AD
330
1F
100
AcDbEntity
  8
圖層1輪廓線
100
AcDbCircle
 10
1623.473800241128
 20
916.569537186454
 30
0.0
 40
3.0
100
AcDbArc
 50
180.8951737102086
 51
270.0
  0
ARC
  5
24AE
330
1F
100
AcDbEntity
  8
圖層1輪廓線
100
AcDbCircle
 10
1666.66056786395
 20
916.569537186454
 30
0.0
 40
3.0
100
AcDbArc
 50
270.0
 51
359.1048262897914
  0
LINE
  5
24AF
330
1F
100
AcDbEntity
  8
圖層1輪廓線
100
AcDbLine
 10
1607.567184052539
 20
942.569537186454
 30
0.0
 11
1682.567184052539
 21
942.569537186454
 31
0.0
  0
LINE
  5
24B0
330
1F
100
AcDbEntity
  8
圖層1輪廓線
100
AcDbLine
 10
1607.567184052539
 20
1099.569537186454
 30
0.0
 11
1608.067184052539
 21
1131.569537186454
 31
0.0
  0
LINE
  5
24B1
330
1F
100
AcDbEntity
  8
圖層1輪廓線
100
AcDbLine
 10
1620.067184052539
 20
1099.569537186454
 30
0.0
 11
1620.474166385023
 21
1125.616406465455
 31
0.0
  0
LINE
  5
24B2
330
1F
100
AcDbEntity
  8
圖層1輪廓線
100
AcDbLine
 10
1670.067184052539
 20
1099.569537186454
 30
0.0
 11
1669.660201720055
 21
1125.616406465455
 31
0.0
  0
LINE
  5
24B3
330
1F
100
AcDbEntity
  8
圖層1輪廓線
100
AcDbLine
 10
1682.567184052539
 20
1099.569537186454
 30
0.0
 11
1682.067184052539
 21
1131.569537186454
 31
0.0
  0
LINE
  5
24B4
330
1F
100
AcDbEntity
  8
圖層1輪廓線
100
AcDbLine
 10
1607.567184052539
 20
1099.569537186454
 30
0.0
 11
1682.567184052539
 21
1099.569537186454
 31
0.0
  0
LINE
  5
24B5
330
1F
100
AcDbEntity
  8
圖層1輪廓線
100
AcDbLine
 10
1625.067184052539
 20
1135.569537186454
 30
0.0
 11
1625.067184052539
 21
1145.069537186454
 31
0.0
  0
LINE
  5
24B6
330
1F
100
AcDbEntity
  8
圖層1輪廓線
100
AcDbLine
 10
1665.067184052539
 20
1135.569537186454
 30
0.0
 11
1665.067184052539
 21
1145.069537186454
 31
0.0
  0
LINE
  5
24B7
330
1F
100
AcDbEntity
  8
圖層1輪廓線
100
AcDbLine
 10
1608.067184052539
 20
1131.569537186454
 30
0.0
 11
1682.067184052539
 21
1131.569537186454
 31
0.0
  0
ARC
  5
24B8
330
1F
100
AcDbEntity
  8
圖層1輪廓線
100
AcDbCircle
 10
1666.66056786395
 20
1125.569537186454
 30
0.0
 40
3.0
100
AcDbArc
 50
0.8951737102086335
 51
90.0
  0
ARC
  5
24B9
330
1F
100
AcDbEntity
  8
圖層1輪廓線
100
AcDbCircle
 10
1623.473800241128
 20
1125.569537186454
 30
0.0
 40
3.0
100
AcDbArc
 50
90.0
 51
179.1048262897913
  0
LINE
  5
24BA
330
1F
100
AcDbEntity
  8
圖層1輪廓線
100
AcDbLine
 10
1623.473800241128
 20
1128.569537186454
 30
0.0
 11
1666.66056786395
 21
1128.569537186454
 31
0.0
  0
LINE
  5
24BB
330
1F
100
AcDbEntity
  8
圖層1輪廓線
100
AcDbLine
 10
1623.067184052539
 20
1135.569537186454
 30
0.0
 11
1667.067184052539
 21
1135.569537186454
 31
0.0
  0
LINE
  5
24BC
330
1F
100
AcDbEntity
  8
圖層1輪廓線
100
AcDbLine
 10
1615.419355215961
 20
1131.569537186454
 30
0.0
 11
1675.477512239242
 21
1131.569537186454
 31
0.0
  0
LINE
  5
24BD
330
1F
100
AcDbEntity
  8
圖層1輪廓線
100
AcDbLine
 10
1622.567184052539
 20
1131.569537186454
 30
0.0
 11
1622.567184052539
 21
1135.069537186454
 31
0.0
  0
ARC
  5
24BE
330
1F
100
AcDbEntity
  8
圖層1輪廓線
100
AcDbCircle
 10
1623.067184052539
 20
1135.069537186454
 30
0.0
 40
0.5
100
AcDbArc
 50
90.0
 51
180.0
  0
LINE
  5
24BF
330
1F
100
AcDbEntity
  8
圖層1輪廓線
100
AcDbLine
 10
1667.567184052539
 20
1131.569537186454
 30
0.0
 11
1667.567184052539
 21
1135.069537186454
 31
0.0
  0
ARC
  5
24C0
330
1F
100
AcDbEntity
  8
圖層1輪廓線
100
AcDbCircle
 10
1667.067184052539
 20
1135.069537186454
 30
0.0
 40
0.5
100
AcDbArc
 50
0.0
 51
90.0
  0
LINE
  5
24C1
330
1F
100
AcDbEntity
  8
圖層1輪廓線
100
AcDbLine
 10
1625.567184052539
 20
1145.569537186454
 30
0.0
 11
1625.567184052539
 21
1155.069537186454
 31
0.0
  0
LINE
  5
24C2
330
1F
100
AcDbEntity
  8
圖層1輪廓線
100
AcDbLine
 10
1664.567184052539
 20
1145.569537186454
 30
0.0
 11
1664.567184052539
 21
1155.069537186454
 31
0.0
  0
LINE
  5
24C3
330
1F
100
AcDbEntity
  8
圖層1輪廓線
100
AcDbLine
 10
1625.567184052539
 20
1145.569537186454
 30
0.0
 11
1664.567184052539
 21
1145.569537186454
 31
0.0
  0
LINE
  5
24C4
330
1F
100
AcDbEntity
  8
圖層1輪廓線
100
AcDbLine
 10
1625.067184052539
 20
1145.069537186454
 30
0.0
 11
1665.067184052539
 21
1145.069537186454
 31
0.0
  0
LINE
  5
24C5
330
1F
100
AcDbEntity
  8
圖層1輪廓線
100
AcDbLine
 10
1625.067184052539
 20
1145.069537186454
 30
0.0
 11
1625.567184052539
 21
1145.569537186454
 31
0.0
  0
LINE
  5
24C6
330
1F
100
AcDbEntity
  8
圖層1輪廓線
100
AcDbLine
 10
1664.567184052539
 20
1145.569537186454
 30
0.0
 11
1665.067184052539
 21
1145.069537186454
 31
0.0
  0
LINE
  5
24C7
330
1F
100
AcDbEntity
  8
圖層1輪廓線
100
AcDbLine
 10
1627.067184052539
 20
1156.569537186454
 30
0.0
 11
1663.067184052539
 21
1156.569537186454
 31
0.0
  0
ARC
  5
24C8
330
1F
100
AcDbEntity
  8
圖層1輪廓線
100
AcDbCircle
 10
1627.06718405254
 20
1155.069537186454
 30
0.0
 40
1.5
100
AcDbArc
 50
90.0
 51
180.0
  0
LINE
  5
24C9
330
1F
100
AcDbEntity
  8
圖層1輪廓線
100
AcDbLine
 10
1653.067184052539
 20
1156.569537186454
 30
0.0
 11
1637.067184052539
 21
1156.569537186454
 31
0.0
  0
ARC
  5
24CA
330
1F
100
AcDbEntity
  8
圖層1輪廓線
100
AcDbCircle
 10
1663.06718405254
 20
1155.069537186454
 30
0.0
 40
1.5
100
AcDbArc
 50
0.0
 51
90.0
  0
LINE
  5
24CB
330
1F
100
AcDbEntity
  8
圖層1輪廓線
100
AcDbLine
 10
1160.962785469703
 20
942.569537186454
 30
0.0
 11
1160.462785469704
 21
910.5695371864539
 31
0.0
  0
LINE
  5
24CC
330
1F
100
AcDbEntity
  8
圖層1輪廓線
100
AcDbLine
 10
1085.962785469703
 20
942.569537186454
 30
0.0
 11
1086.462785469703
 21
910.5695371864539
 31
0.0
  0
LINE
  5
24CD
330
1F
100
AcDbEntity
  8
圖層1輪廓線
100
AcDbLine
 10
1148.462785469703
 20
942.569537186454
 30
0.0
 11
1148.05580313722
 21
916.5226679074526
 31
0.0
  0
LINE
  5
24CE
330
1F
100
AcDbEntity
  8
圖層1輪廓線
100
AcDbLine
 10
1098.462785469703
 20
942.569537186454
 30
0.0
 11
1098.869767802188
 21
916.5226679074526
 31
0.0
  0
LINE
  5
24CF
330
1F
100
AcDbEntity
  8
圖層1輪廓線
100
AcDbLine
 10
1093.814956633126
 20
910.5695371864539
 30
0.0
 11
1153.873113656406
 21
910.5695371864539
 31
0.0
  0
LINE
  5
24D0
330
1F
100
AcDbEntity
  8
圖層1輪廓線
100
AcDbLine
 10
1101.869401658292
 20
913.5695371864541
 30
0.0
 11
1145.056169281115
 21
913.5695371864541
 31
0.0
  0
LINE
  5
24D1
330
1F
100
AcDbEntity
  8
圖層1輪廓線
100
AcDbLine
 10
1086.462785469703
 20
910.5695371864545
 30
0.0
 11
1160.462785469704
 21
910.5695371864539
 31
0.0
  0
ARC
  5
24D2
330
1F
100
AcDbEntity
  8
圖層1輪廓線
100
AcDbCircle
 10
1101.869401658292
 20
916.5695371864542
 30
0.0
 40
3.0
100
AcDbArc
 50
180.8951737102086
 51
270.0
  0
ARC
  5
24D3
330
1F
100
AcDbEntity
  8
圖層1輪廓線
100
AcDbCircle
 10
1145.056169281115
 20
916.569537186454
 30
0.0
 40
3.0
100
AcDbArc
 50
270.0
 51
359.1048262897914
  0
LINE
  5
24D4
330
1F
100
AcDbEntity
  8
圖層1輪廓線
100
AcDbLine
 10
1091.622785469703
 20
942.569537186454
 30
0.0
 11
1091.622785469703
 21
1099.569537186454
 31
0.0
  0
LINE
  5
24D5
330
1F
100
AcDbEntity
  8
圖層1輪廓線
100
AcDbLine
 10
1155.302785469704
 20
942.5695371864545
 30
0.0
 11
1155.302785469704
 21
1099.569537186454
 31
0.0
  0
LINE
  5
24D6
330
1F
100
AcDbEntity
  8
圖層1輪廓線
100
AcDbLine
 10
1098.802785469704
 20
942.569537186454
 30
0.0
 11
1098.802785469704
 21
1099.569537186454
 31
0.0
  0
LINE
  5
24D7
330
1F
100
AcDbEntity
  8
圖層1輪廓線
100
AcDbLine
 10
1148.122785469703
 20
942.5695371864545
 30
0.0
 11
1148.122785469703
 21
1099.569537186454
 31
0.0
  0
LINE
  5
24D8
330
1F
100
AcDbEntity
  8
圖層1輪廓線
100
AcDbLine
 10
1085.962785469703
 20
942.569537186454
 30
0.0
 11
1160.962785469703
 21
942.569537186454
 31
0.0
  0
LINE
  5
24D9
330
1F
100
AcDbEntity
  8
圖層1輪廓線
100
AcDbLine
 10
1143.462785469703
 20
1135.569537186454
 30
0.0
 11
1143.462785469703
 21
1145.069537186454
 31
0.0
  0
LINE
  5
24DA
330
1F
100
AcDbEntity
  8
圖層1輪廓線
100
AcDbLine
 10
1103.462785469703
 20
1135.569537186454
 30
0.0
 11
1103.462785469703
 21
1145.069537186454
 31
0.0
  0
LINE
  5
24DB
330
1F
100
AcDbEntity
  8
圖層1輪廓線
100
AcDbLine
 10
1086.462785469703
 20
1131.569537186454
 30
0.0
 11
1160.462785469704
 21
1131.569537186454
 31
0.0
  0
LINE
  5
24DC
330
1F
100
AcDbEntity
  8
圖層1輪廓線
100
AcDbLine
 10
1093.814956633126
 20
1131.569537186454
 30
0.0
 11
1153.873113656406
 21
1131.569537186454
 31
0.0
  0
LINE
  5
24DD
330
1F
100
AcDbEntity
  8
圖層1輪廓線
100
AcDbLine
 10
1085.962785469703
 20
1099.569537186454
 30
0.0
 11
1160.962785469703
 21
1099.569537186454
 31
0.0
  0
LINE
  5
24DE
330
1F
100
AcDbEntity
  8
圖層1輪廓線
100
AcDbLine
 10
1101.462785469704
 20
1135.569537186454
 30
0.0
 11
1145.462785469703
 21
1135.569537186454
 31
0.0
  0
LINE
  5
24DF
330
1F
100
AcDbEntity
  8
圖層1輪廓線
100
AcDbLine
 10
1101.869401658292
 20
1128.569537186454
 30
0.0
 11
1145.056169281115
 21
1128.569537186454
 31
0.0
  0
LINE
  5
24E0
330
1F
100
AcDbEntity
  8
圖層1輪廓線
100
AcDbLine
 10
1085.962785469703
 20
1099.569537186454
 30
0.0
 11
1086.462785469703
 21
1131.569537186454
 31
0.0
  0
LINE
  5
24E1
330
1F
100
AcDbEntity
  8
圖層1輪廓線
100
AcDbLine
 10
1098.462785469703
 20
1099.569537186454
 30
0.0
 11
1098.869767802188
 21
1125.616406465455
 31
0.0
  0
ARC
  5
24E2
330
1F
100
AcDbEntity
  8
圖層1輪廓線
100
AcDbCircle
 10
1101.462785469704
 20
1135.069537186454
 30
0.0
 40
0.5
100
AcDbArc
 50
90.0
 51
180.0
  0
LINE
  5
24E3
330
1F
100
AcDbEntity
  8
圖層1輪廓線
100
AcDbLine
 10
1100.962785469703
 20
1131.569537186454
 30
0.0
 11
1100.962785469703
 21
1135.069537186454
 31
0.0
  0
ARC
  5
24E4
330
1F
100
AcDbEntity
  8
圖層1輪廓線
100
AcDbCircle
 10
1101.869401658292
 20
1125.569537186454
 30
0.0
 40
3.0
100
AcDbArc
 50
90.0
 51
179.1048262897913
  0
LINE
  5
24E5
330
1F
100
AcDbEntity
  8
圖層1輪廓線
100
AcDbLine
 10
1160.962785469703
 20
1099.569537186454
 30
0.0
 11
1160.462785469704
 21
1131.569537186454
 31
0.0
  0
LINE
  5
24E6
330
1F
100
AcDbEntity
  8
圖層1輪廓線
100
AcDbLine
 10
1148.462785469703
 20
1099.569537186454
 30
0.0
 11
1148.05580313722
 21
1125.616406465455
 31
0.0
  0
ARC
  5
24E7
330
1F
100
AcDbEntity
  8
圖層1輪廓線
100
AcDbCircle
 10
1145.462785469704
 20
1135.069537186454
 30
0.0
 40
0.5
100
AcDbArc
 50
0.0
 51
90.0
  0
LINE
  5
24E8
330
1F
100
AcDbEntity
  8
圖層1輪廓線
100
AcDbLine
 10
1145.962785469704
 20
1131.569537186454
 30
0.0
 11
1145.962785469704
 21
1135.069537186454
 31
0.0
  0
ARC
  5
24E9
330
1F
100
AcDbEntity
  8
圖層1輪廓線
100
AcDbCircle
 10
1145.056169281115
 20
1125.569537186454
 30
0.0
 40
3.0
100
AcDbArc
 50
0.8951737102086335
 51
90.0
  0
LINE
  5
24EA
330
1F
100
AcDbEntity
  8
圖層1輪廓線
100
AcDbLine
 10
1131.462785469703
 20
1156.569537186454
 30
0.0
 11
1115.462785469704
 21
1156.569537186454
 31
0.0
  0
LINE
  5
24EB
330
1F
100
AcDbEntity
  8
圖層1輪廓線
100
AcDbLine
 10
1105.462785469703
 20
1156.569537186454
 30
0.0
 11
1141.462785469704
 21
1156.569537186454
 31
0.0
  0
LINE
  5
24EC
330
1F
100
AcDbEntity
  8
圖層1輪廓線
100
AcDbLine
 10
1103.462785469703
 20
1145.069537186454
 30
0.0
 11
1143.462785469703
 21
1145.069537186454
 31
0.0
  0
LINE
  5
24ED
330
1F
100
AcDbEntity
  8
圖層1輪廓線
100
AcDbLine
 10
1103.962785469704
 20
1145.569537186454
 30
0.0
 11
1142.962785469703
 21
1145.569537186454
 31
0.0
  0
ARC
  5
24EE
330
1F
100
AcDbEntity
  8
圖層1輪廓線
100
AcDbCircle
 10
1105.462785469704
 20
1155.069537186454
 30
0.0
 40
1.5
100
AcDbArc
 50
90.0
 51
180.0
  0
LINE
  5
24EF
330
1F
100
AcDbEntity
  8
圖層1輪廓線
100
AcDbLine
 10
1103.462785469703
 20
1145.069537186454
 30
0.0
 11
1103.962785469704
 21
1145.569537186454
 31
0.0
  0
LINE
  5
24F0
330
1F
100
AcDbEntity
  8
圖層1輪廓線
100
AcDbLine
 10
1103.962785469704
 20
1145.569537186454
 30
0.0
 11
1103.962785469704
 21
1155.069537186454
 31
0.0
  0
ARC
  5
24F1
330
1F
100
AcDbEntity
  8
圖層1輪廓線
100
AcDbCircle
 10
1141.462785469704
 20
1155.069537186454
 30
0.0
 40
1.5
100
AcDbArc
 50
0.0
 51
90.0
  0
LINE
  5
24F2
330
1F
100
AcDbEntity
  8
圖層1輪廓線
100
AcDbLine
 10
1142.962785469703
 20
1145.569537186454
 30
0.0
 11
1143.462785469703
 21
1145.069537186454
 31
0.0
  0
LINE
  5
24F3
330
1F
100
AcDbEntity
  8
圖層1輪廓線
100
AcDbLine
 10
1142.962785469703
 20
1145.569537186454
 30
0.0
 11
1142.962785469703
 21
1155.069537186454
 31
0.0
  0
LINE
  5
24F4
330
1F
100
AcDbEntity
  8
圖層1輪廓線
100
AcDbLine
 10
1146.844035144766
 20
1312.569537186454
 30
0.0
 11
1146.844035144766
 21
1131.569537186454
 31
0.0
  0
LINE
  5
24F5
330
1F
100
AcDbEntity
  8
圖層1輪廓線
100
AcDbLine
 10
1100.844035144766
 20
1131.569537186454
 30
0.0
 11
1100.844035144766
 21
1312.569537186454
 31
0.0
  0
LINE
  5
24F6
330
1F
100
AcDbEntity
  8
圖層1輪廓線
100
AcDbLine
 10
1148.844035144766
 20
1312.569537186454
 30
0.0
 11
1148.844035144766
 21
1131.569537186454
 31
0.0
  0
LINE
  5
24F7
330
1F
100
AcDbEntity
  8
圖層1輪廓線
100
AcDbLine
 10
1098.844035144766
 20
1131.569537186454
 30
0.0
 11
1098.844035144766
 21
1312.569537186454
 31
0.0
  0
LINE
  5
24F8
330
1F
100
AcDbEntity
  8
圖層1輪廓線
100
AcDbLine
 10
1113.844035144766
 20
1256.069537186454
 30
0.0
 11
1113.844035144766
 21
1161.569537186454
 31
0.0
  0
LINE
  5
24F9
330
1F
100
AcDbEntity
  8
圖層1輪廓線
100
AcDbLine
 10
1133.844035144766
 20
1256.069537186454
 30
0.0
 11
1133.844035144766
 21
1161.569537186454
 31
0.0
  0
LINE
  5
24FA
330
1F
100
AcDbEntity
  8
圖層1輪廓線
100
AcDbLine
 10
1105.844035144766
 20
1161.569537186454
 30
0.0
 11
1141.844035144766
 21
1161.569537186454
 31
0.0
  0
LINE
  5
24FB
330
1F
100
AcDbEntity
  8
圖層1輪廓線
100
AcDbLine
 10
1123.844035144766
 20
1157.569537186454
 30
0.0
 11
1105.844035144766
 21
1157.569537186454
 31
0.0
  0
LINE
  5
24FC
330
1F
100
AcDbEntity
  8
圖層1輪廓線
100
AcDbLine
 10
1106.649466987383
 20
1157.569537186454
 30
0.0
 11
1141.844035144766
 21
1157.569537186454
 31
0.0
  0
ARC
  5
24FD
330
1F
100
AcDbEntity
  8
圖層1輪廓線
100
AcDbCircle
 10
1105.844035144766
 20
1159.569537186454
 30
0.0
 40
2.0
100
AcDbArc
 50
180.0
 51
270.0
  0
ARC
  5
24FE
330
1F
100
AcDbEntity
  8
圖層1輪廓線
100
AcDbCircle
 10
1105.844035144766
 20
1159.569537186454
 30
0.0
 40
2.0
100
AcDbArc
 50
90.0
 51
180.0
  0
LINE
  5
24FF
330
1F
100
AcDbEntity
  8
圖層1輪廓線
100
AcDbLine
 10
1103.844035144766
 20
1159.569537186454
 30
0.0
 11
1103.844035144766
 21
1159.569537186454
 31
0.0
  0
LINE
  5
2500
330
1F
100
AcDbEntity
  8
圖層1輪廓線
100
AcDbLine
 10
1141.844035144766
 20
1157.569537186454
 30
0.0
 11
1123.844035144766
 21
1157.569537186454
 31
0.0
  0
ARC
  5
2501
330
1F
100
AcDbEntity
  8
圖層1輪廓線
100
AcDbCircle
 10
1141.844035144766
 20
1159.569537186454
 30
0.0
 40
2.0
100
AcDbArc
 50
270.0
 51
0.0
  0
ARC
  5
2502
330
1F
100
AcDbEntity
  8
圖層1輪廓線
100
AcDbCircle
 10
1141.844035144766
 20
1159.569537186454
 30
0.0
 40
2.0
100
AcDbArc
 50
0.0
 51
90.0
  0
LINE
  5
2503
330
1F
100
AcDbEntity
  8
圖層1輪廓線
100
AcDbLine
 10
1143.844035144766
 20
1159.569537186454
 30
0.0
 11
1143.844035144766
 21
1159.569537186454
 31
0.0
  0
LINE
  5
2504
330
1F
100
AcDbEntity
  8
圖層1輪廓線
100
AcDbLine
 10
1141.344035144767
 20
1248.768797626587
 30
0.0
 11
1107.237524355659
 21
1205.037091797009
 31
0.0
  0
LINE
  5
2505
330
1F
100
AcDbEntity
  8
圖層1輪廓線
100
AcDbLine
 10
1144.498191959282
 20
1246.308859662035
 30
0.0
 11
1110.391681170175
 21
1202.577153832457
 31
0.0
  0
LINE
  5
2506
330
1F
100
AcDbEntity
  8
圖層1輪廓線
100
AcDbLine
 10
1106.344035144766
 20
1257.569537186454
 30
0.0
 11
1141.344035144767
 21
1257.569537186454
 31
0.0
  0
ARC
  5
2507
330
1F
100
AcDbEntity
  8
圖層1輪廓線
100
AcDbCircle
 10
1108.688590578538
 20
1305.189328853121
 30
0.0
 40
7.380208333333293
100
AcDbArc
 50
46.80303940670995
 51
133.19696059329
  0
ARC
  5
2508
330
1F
100
AcDbEntity
  8
圖層1輪廓線
100
AcDbCircle
 10
1108.688590578539
 20
1309.949745519787
 30
0.0
 40
7.380208333333537
100
AcDbArc
 50
226.80303940671
 51
313.1969605932729
  0
LINE
  5
2509
330
1F
100
AcDbEntity
  8
圖層1輪廓線
100
AcDbLine
 10
1108.688590578539
 20
1302.569537186454
 30
0.0
 11
1138.999479710994
 21
1302.569537186454
 31
0.0
  0
ARC
  5
250A
330
1F
100
AcDbEntity
  8
圖層1輪廓線
100
AcDbCircle
 10
1108.688590578539
 20
1279.949745519787
 30
0.0
 40
7.380208333333049
100
AcDbArc
 50
226.80303940671
 51
313.19696059329
  0
ARC
  5
250B
330
1F
100
AcDbEntity
  8
圖層1輪廓線
100
AcDbCircle
 10
1108.688590578539
 20
1295.189328853121
 30
0.0
 40
7.38020833333338
100
AcDbArc
 50
46.80303940672703
 51
133.1969605932729
  0
LINE
  5
250C
330
1F
100
AcDbEntity
  8
圖層1輪廓線
100
AcDbLine
 10
1108.688590578539
 20
1272.569537186454
 30
0.0
 11
1138.999479710994
 21
1272.569537186454
 31
0.0
  0
LINE
  5
250D
330
1F
100
AcDbEntity
  8
圖層1輪廓線
100
AcDbLine
 10
1103.63677572313
 20
1300.569537186454
 30
0.0
 11
1103.63677572313
 21
1274.569537186454
 31
0.0
  0
LINE
  5
250E
330
1F
100
AcDbEntity
  8
圖層1輪廓線
100
AcDbLine
 10
1106.344035144766
 20
1272.951850489039
 30
0.0
 11
1106.344035144766
 21
1257.569537186454
 31
0.0
  0
LINE
  5
250F
330
1F
100
AcDbEntity
  8
圖層1輪廓線
100
AcDbLine
 10
1103.63677572313
 20
1304.569537186454
 30
0.0
 11
1103.63677572313
 21
1310.569537186454
 31
0.0
  0
LINE
  5
2510
330
1F
100
AcDbEntity
  8
圖層1輪廓線
100
AcDbLine
 10
1144.051294566403
 20
1300.569537186454
 30
0.0
 11
1144.051294566403
 21
1274.569537186454
 31
0.0
  0
LINE
  5
2511
330
1F
100
AcDbEntity
  8
圖層1輪廓線
100
AcDbLine
 10
1113.740405433948
 20
1300.569537186454
 30
0.0
 11
1113.740405433948
 21
1274.569537186454
 31
0.0
  0
LINE
  5
2512
330
1F
100
AcDbEntity
  8
圖層1輪廓線
100
AcDbLine
 10
1133.947664855585
 20
1300.569537186454
 30
0.0
 11
1133.947664855585
 21
1274.569537186454
 31
0.0
  0
LINE
  5
2513
330
1F
100
AcDbEntity
  8
圖層1輪廓線
100
AcDbLine
 10
1141.344035144767
 20
1272.951850489039
 30
0.0
 11
1141.344035144767
 21
1257.569537186454
 31
0.0
  0
LINE
  5
2514
330
1F
100
AcDbEntity
  8
圖層1輪廓線
100
AcDbLine
 10
1113.844035144766
 20
1256.069537186454
 30
0.0
 11
1133.844035144766
 21
1256.069537186454
 31
0.0
  0
LINE
  5
2515
330
1F
100
AcDbEntity
  8
圖層1輪廓線
100
AcDbLine
 10
1113.844035144766
 20
1256.069537186454
 30
0.0
 11
1115.344035144766
 21
1257.569537186454
 31
0.0
  0
LINE
  5
2516
330
1F
100
AcDbEntity
  8
圖層1輪廓線
100
AcDbLine
 10
1132.344035144766
 20
1257.569537186454
 30
0.0
 11
1133.844035144766
 21
1256.069537186454
 31
0.0
  0
ARC
  5
2517
330
1F
100
AcDbEntity
  8
圖層1輪廓線
100
AcDbCircle
 10
1123.844035144767
 20
1299.090370519787
 30
0.0
 40
26.52083333333282
100
AcDbArc
 50
247.6062487867092
 51
292.3937512132908
  0
ARC
  5
2518
330
1F
100
AcDbEntity
  8
圖層1輪廓線
100
AcDbCircle
 10
1138.999479710995
 20
1279.949745519787
 30
0.0
 40
7.380208333333293
100
AcDbArc
 50
226.80303940671
 51
313.19696059329
  0
ARC
  5
2519
330
1F
100
AcDbEntity
  8
圖層1輪廓線
100
AcDbCircle
 10
1123.844035144767
 20
1276.048703853121
 30
0.0
 40
26.52083333333345
100
AcDbArc
 50
67.6062487867092
 51
112.3937512132908
  0
ARC
  5
251A
330
1F
100
AcDbEntity
  8
圖層1輪廓線
100
AcDbCircle
 10
1138.999479710994
 20
1295.189328853121
 30
0.0
 40
7.380208333333371
100
AcDbArc
 50
46.80303940670995
 51
133.19696059329
  0
ARC
  5
251B
330
1F
100
AcDbEntity
  8
圖層1輪廓線
100
AcDbCircle
 10
1123.844035144766
 20
1329.090370519791
 30
0.0
 40
26.52083333333681
100
AcDbArc
 50
247.6062487867233
 51
292.3937512132767
  0
ARC
  5
251C
330
1F
100
AcDbEntity
  8
圖層1輪廓線
100
AcDbCircle
 10
1123.844035144766
 20
1286.048703853121
 30
0.0
 40
26.52083333333277
100
AcDbArc
 50
67.6062487867092
 51
112.3937512132908
  0
LINE
  5
251D
330
1F
100
AcDbEntity
  8
圖層1輪廓線
100
AcDbLine
 10
1113.740405433948
 20
1304.569537186454
 30
0.0
 11
1113.740405433948
 21
1310.569537186454
 31
0.0
  0
ARC
  5
251E
330
1F
100
AcDbEntity
  8
圖層1輪廓線
100
AcDbCircle
 10
1138.999479710994
 20
1305.18932885312
 30
0.0
 40
7.38020833333379
100
AcDbArc
 50
46.80303940672703
 51
133.1969605932729
  0
ARC
  5
251F
330
1F
100
AcDbEntity
  8
圖層1輪廓線
100
AcDbCircle
 10
1138.999479710994
 20
1309.949745519786
 30
0.0
 40
7.380208333332386
100
AcDbArc
 50
226.80303940671
 51
313.19696059329
  0
LINE
  5
2520
330
1F
100
AcDbEntity
  8
圖層1輪廓線
100
AcDbLine
 10
1144.051294566403
 20
1304.569537186454
 30
0.0
 11
1144.051294566403
 21
1310.569537186454
 31
0.0
  0
LINE
  5
2521
330
1F
100
AcDbEntity
  8
圖層1輪廓線
100
AcDbLine
 10
1133.947664855585
 20
1304.569537186454
 30
0.0
 11
1133.947664855585
 21
1310.569537186454
 31
0.0
  0
LINE
  5
2522
330
1F
100
AcDbEntity
  8
圖層1輪廓線
100
AcDbLine
 10
1668.448433727602
 20
1312.569537186454
 30
0.0
 11
1668.448433727602
 21
1131.569537186454
 31
0.0
  0
LINE
  5
2523
330
1F
100
AcDbEntity
  8
圖層1輪廓線
100
AcDbLine
 10
1622.448433727601
 20
1131.569537186454
 30
0.0
 11
1622.448433727601
 21
1312.569537186454
 31
0.0
  0
LINE
  5
2524
330
1F
100
AcDbEntity
  8
圖層1輪廓線
100
AcDbLine
 10
1670.448433727601
 20
1312.569537186454
 30
0.0
 11
1670.448433727601
 21
1131.569537186454
 31
0.0
  0
LINE
  5
2525
102
{ACAD_REACTORS
330
2719
330
273F
102
}
330
1F
100
AcDbEntity
  8
圖層1輪廓線
100
AcDbLine
 10
1620.448433727602
 20
1131.569537186454
 30
0.0
 11
1620.448433727602
 21
1312.569537186454
 31
0.0
  0
LINE
  5
2526
330
1F
100
AcDbEntity
  8
圖層1輪廓線
100
AcDbLine
 10
1635.448433727601
 20
1256.069537186454
 30
0.0
 11
1635.448433727601
 21
1161.569537186454
 31
0.0
  0
LINE
  5
2527
330
1F
100
AcDbEntity
  8
圖層1輪廓線
100
AcDbLine
 10
1655.448433727601
 20
1256.069537186454
 30
0.0
 11
1655.448433727601
 21
1161.569537186454
 31
0.0
  0
LINE
  5
2528
330
1F
100
AcDbEntity
  8
圖層1輪廓線
100
AcDbLine
 10
1627.85114964891
 20
1161.569537186454
 30
0.0
 11
1663.85114964891
 21
1161.569537186454
 31
0.0
  0
LINE
  5
2529
330
1F
100
AcDbEntity
  8
圖層1輪廓線
100
AcDbLine
 10
1645.85114964891
 20
1157.569537186454
 30
0.0
 11
1627.85114964891
 21
1157.569537186454
 31
0.0
  0
LINE
  5
252A
330
1F
100
AcDbEntity
  8
圖層1輪廓線
100
AcDbLine
 10
1628.253865570219
 20
1157.569537186454
 30
0.0
 11
1663.85114964891
 21
1157.569537186454
 31
0.0
  0
ARC
  5
252B
330
1F
100
AcDbEntity
  8
圖層1輪廓線
100
AcDbCircle
 10
1627.85114964891
 20
1159.569537186454
 30
0.0
 40
2.0
100
AcDbArc
 50
180.0
 51
270.0
  0
ARC
  5
252C
330
1F
100
AcDbEntity
  8
圖層1輪廓線
100
AcDbCircle
 10
1627.85114964891
 20
1159.569537186454
 30
0.0
 40
2.0
100
AcDbArc
 50
90.0
 51
180.0
  0
LINE
  5
252D
330
1F
100
AcDbEntity
  8
圖層1輪廓線
100
AcDbLine
 10
1625.85114964891
 20
1159.569537186454
 30
0.0
 11
1625.85114964891
 21
1159.569537186454
 31
0.0
  0
LINE
  5
252E
330
1F
100
AcDbEntity
  8
圖層1輪廓線
100
AcDbLine
 10
1663.85114964891
 20
1157.569537186454
 30
0.0
 11
1645.448433727602
 21
1157.569537186454
 31
0.0
  0
ARC
  5
252F
330
1F
100
AcDbEntity
  8
圖層1輪廓線
100
AcDbCircle
 10
1663.85114964891
 20
1159.569537186454
 30
0.0
 40
2.0
100
AcDbArc
 50
270.0
 51
0.0
  0
ARC
  5
2530
330
1F
100
AcDbEntity
  8
圖層1輪廓線
100
AcDbCircle
 10
1663.85114964891
 20
1159.569537186454
 30
0.0
 40
2.0
100
AcDbArc
 50
0.0
 51
90.0
  0
LINE
  5
2531
330
1F
100
AcDbEntity
  8
圖層1輪廓線
100
AcDbLine
 10
1665.85114964891
 20
1159.569537186454
 30
0.0
 11
1665.85114964891
 21
1159.569537186454
 31
0.0
  0
LINE
  5
2532
330
1F
100
AcDbEntity
  8
圖層1輪廓線
100
AcDbLine
 10
1666.306471834403
 20
1241.368641459134
 30
0.0
 11
1632.178192757768
 21
1188.63784042812
 31
0.0
  0
LINE
  5
2533
330
1F
100
AcDbEntity
  8
圖層1輪廓線
100
AcDbLine
 10
1662.948433727601
 20
1243.542021332341
 30
0.0
 11
1628.820154650966
 21
1190.811220301328
 31
0.0
  0
ARC
  5
2534
330
1F
100
AcDbEntity
  8
圖層1輪廓線
100
AcDbCircle
 10
1636.698433727601
 20
1322.710162186455
 30
0.0
 40
20.14062500000072
100
AcDbArc
 50
244.249996880775
 51
295.750003119225
  0
ARC
  5
2535
330
1F
100
AcDbEntity
  8
圖層1輪廓線
100
AcDbCircle
 10
1636.698433727601
 20
1292.428912186455
 30
0.0
 40
20.1406249999998
100
AcDbArc
 50
64.24999688077497
 51
115.750003119225
  0
ARC
  5
2536
330
1F
100
AcDbEntity
  8
圖層1輪廓線
100
AcDbCircle
 10
1636.698433727601
 20
1282.428912186453
 30
0.0
 40
20.14062500000123
100
AcDbArc
 50
64.24999688077497
 51
115.750003119225
  0
LINE
  5
2537
330
1F
100
AcDbEntity
  8
圖層1輪廓線
100
AcDbLine
 10
1627.948433727602
 20
1257.569537186454
 30
0.0
 11
1662.948433727601
 21
1257.569537186454
 31
0.0
  0
ARC
  5
2538
330
1F
100
AcDbEntity
  8
圖層1輪廓線
100
AcDbCircle
 10
1636.698433727601
 20
1292.710162186454
 30
0.0
 40
20.14062499999959
100
AcDbArc
 50
244.249996880775
 51
295.750003119225
  0
LINE
  5
2539
330
1F
100
AcDbEntity
  8
圖層1輪廓線
100
AcDbLine
 10
1627.948433727602
 20
1272.569537186454
 30
0.0
 11
1662.948433727602
 21
1272.569537186454
 31
0.0
  0
LINE
  5
253A
330
1F
100
AcDbEntity
  8
圖層1輪廓線
100
AcDbLine
 10
1627.948433727602
 20
1300.569537186454
 30
0.0
 11
1627.948433727602
 21
1257.569537186454
 31
0.0
  0
LINE
  5
253B
330
1F
100
AcDbEntity
  8
圖層1輪廓線
100
AcDbLine
 10
1627.948433727602
 20
1304.569537186454
 30
0.0
 11
1627.948433727602
 21
1310.569537186454
 31
0.0
  0
LINE
  5
253C
330
1F
100
AcDbEntity
  8
圖層1輪廓線
100
AcDbLine
 10
1645.448433727602
 20
1300.569537186454
 30
0.0
 11
1645.448433727601
 21
1274.569537186455
 31
0.0
  0
LINE
  5
253D
330
1F
100
AcDbEntity
  8
圖層1輪廓線
100
AcDbLine
 10
1662.948433727602
 20
1300.569537186454
 30
0.0
 11
1662.948433727601
 21
1257.569537186454
 31
0.0
  0
LINE
  5
253E
330
1F
100
AcDbEntity
  8
圖層1輪廓線
100
AcDbLine
 10
1635.448433727601
 20
1256.069537186454
 30
0.0
 11
1655.448433727601
 21
1256.069537186454
 31
0.0
  0
LINE
  5
253F
330
1F
100
AcDbEntity
  8
圖層1輪廓線
100
AcDbLine
 10
1636.948433727601
 20
1257.569537186454
 30
0.0
 11
1653.948433727602
 21
1257.569537186454
 31
0.0
  0
LINE
  5
2540
330
1F
100
AcDbEntity
  8
圖層1輪廓線
100
AcDbLine
 10
1635.448433727601
 20
1256.069537186454
 30
0.0
 11
1636.948433727601
 21
1257.569537186454
 31
0.0
  0
LINE
  5
2541
330
1F
100
AcDbEntity
  8
圖層1輪廓線
100
AcDbLine
 10
1653.948433727602
 20
1257.569537186454
 30
0.0
 11
1655.448433727601
 21
1256.069537186454
 31
0.0
  0
ARC
  5
2542
330
1F
100
AcDbEntity
  8
圖層1輪廓線
100
AcDbCircle
 10
1654.198433727601
 20
1292.394962979678
 30
0.0
 40
19.85719780607825
100
AcDbArc
 50
243.8548774948501
 51
296.14512250515
  0
ARC
  5
2543
330
1F
100
AcDbEntity
  8
圖層1輪廓線
100
AcDbCircle
 10
1654.198433727601
 20
1282.744111393231
 30
0.0
 40
19.85719780607835
100
AcDbArc
 50
63.85487749485006
 51
116.1451225051499
  0
ARC
  5
2544
330
1F
100
AcDbEntity
  8
圖層1輪廓線
100
AcDbCircle
 10
1654.198433727601
 20
1292.428912186455
 30
0.0
 40
20.1406249999998
100
AcDbArc
 50
64.24999688077497
 51
115.750003119225
  0
LINE
  5
2545
330
1F
100
AcDbEntity
  8
圖層1輪廓線
100
AcDbLine
 10
1636.698433727601
 20
1312.569537186454
 30
0.0
 11
1654.198433727601
 21
1312.569537186454
 31
0.0
  0
ARC
  5
2546
330
1F
100
AcDbEntity
  8
圖層1輪廓線
100
AcDbCircle
 10
1654.198433727601
 20
1322.710162186455
 30
0.0
 40
20.1406250000002
100
AcDbArc
 50
244.249996880775
 51
295.750003119225
  0
LINE
  5
2547
330
1F
100
AcDbEntity
  8
圖層1輪廓線
100
AcDbLine
 10
1636.698433727601
 20
1302.569537186454
 30
0.0
 11
1654.198433727601
 21
1302.569537186454
 31
0.0
  0
LINE
  5
2548
330
1F
100
AcDbEntity
  8
圖層1輪廓線
100
AcDbLine
 10
1645.448433727602
 20
1310.569537186454
 30
0.0
 11
1645.448433727601
 21
1304.569537186455
 31
0.0
  0
LINE
  5
2549
330
1F
100
AcDbEntity
  8
圖層1輪廓線
100
AcDbLine
 10
1662.948433727602
 20
1304.569537186454
 30
0.0
 11
1662.948433727602
 21
1310.569537186454
 31
0.0
  0
LINE
  5
254A
330
1F
100
AcDbEntity
  8
圖層1輪廓線
100
AcDbLine
 10
1098.844035144766
 20
1312.569537186454
 30
0.0
 11
1148.844035144766
 21
1312.569537186454
 31
0.0
  0
LINE
  5
254B
330
1F
100
AcDbEntity
  8
圖層1輪廓線
100
AcDbLine
 10
1670.448433727601
 20
1312.569537186454
 30
0.0
 11
1620.448433727602
 21
1312.569537186454
 31
0.0
  0
LINE
  5
254C
330
1F
100
AcDbEntity
  8
圖層1輪廓線
100
AcDbLine
 10
1620.448433727602
 20
1131.569537186454
 30
0.0
 11
1670.448433727601
 21
1131.569537186454
 31
0.0
  0
LINE
  5
254D
330
1F
100
AcDbEntity
  8
圖層1輪廓線
100
AcDbLine
 10
1098.844035144766
 20
1131.569537186454
 30
0.0
 11
1148.844035144766
 21
1131.569537186454
 31
0.0
  0
LINE
  5
254E
102
{ACAD_REACTORS
330
278B
102
}
330
1F
100
AcDbEntity
  8
圖層2中心線
 48
0.5
370
    18
100
AcDbLine
 10
1645.067184052539
 20
771.6106673246745
 30
0.0
 11
1645.067184052539
 21
1339.97347942887
 31
0.0
  0
LINE
  5
254F
330
1F
100
AcDbEntity
  8
圖層2中心線
 48
0.5
370
    18
100
AcDbLine
 10
1123.462785469704
 20
533.8289663793053
 30
0.0
 11
1123.462785469704
 21
1344.031160596749
 31
0.0
  0
LINE
  5
2550
330
1F
100
AcDbEntity
  8
圖層4尺寸線
100
AcDbLine
 10
1286.462785469703
 20
543.4452132927008
 30
0.0
 11
1301.462785469704
 21
543.4452132927008
 31
0.0
  0
LINE
  5
2551
330
1F
100
AcDbEntity
  8
圖層4尺寸線
100
AcDbLine
 10
1229.462785469704
 20
528.4452132927007
 30
0.0
 11
1301.462785469704
 21
528.4452132927007
 31
0.0
  0
LINE
  5
2552
330
1F
100
AcDbEntity
  8
圖層4尺寸線
100
AcDbLine
 10
1301.462785469704
 20
592.4452132927008
 30
0.0
 11
1229.462785469704
 21
592.4452132927008
 31
0.0
  0
LINE
  5
2553
330
1F
100
AcDbEntity
  8
圖層4尺寸線
100
AcDbLine
 10
1223.462785469704
 20
526.4452132927008
 30
0.0
 11
1301.462785469704
 21
526.4452132927008
 31
0.0
  0
LINE
  5
2554
330
1F
100
AcDbEntity
  8
圖層4尺寸線
100
AcDbLine
 10
1301.462785469704
 20
528.4452132927007
 30
0.0
 11
1227.462785469703
 21
528.4452132927007
 31
0.0
  0
LINE
  5
2555
330
1F
100
AcDbEntity
  8
圖層4尺寸線
100
AcDbLine
 10
1286.462785469703
 20
543.4452132927008
 30
0.0
 11
1286.462785469703
 21
558.4452132927008
 31
0.0
  0
LINE
  5
2556
330
1F
100
AcDbEntity
  8
圖層4尺寸線
100
AcDbLine
 10
1244.462785469704
 20
558.4452132927008
 30
0.0
 11
1244.462785469704
 21
543.4452132927008
 31
0.0
  0
LINE
  5
2557
330
1F
100
AcDbEntity
  8
圖層4尺寸線
100
AcDbLine
 10
1229.462785469704
 20
592.4452132927008
 30
0.0
 11
1229.462785469704
 21
528.4452132927007
 31
0.0
  0
LINE
  5
2558
330
1F
100
AcDbEntity
  8
圖層4尺寸線
100
AcDbLine
 10
1223.462785469704
 20
598.4452132927008
 30
0.0
 11
1223.462785469704
 21
526.4452132927008
 31
0.0
  0
LINE
  5
2559
330
1F
100
AcDbEntity
  8
圖層4尺寸線
100
AcDbLine
 10
1225.462785469703
 20
530.4452132927008
 30
0.0
 11
1225.462785469703
 21
598.4452132927008
 31
0.0
  0
ARC
  5
255A
330
1F
100
AcDbEntity
  8
圖層4尺寸線
100
AcDbCircle
 10
1225.462785469703
 20
528.4452132927007
 30
0.0
 40
2.0
100
AcDbArc
 50
180.0
 51
270.0
  0
CIRCLE
  5
255B
330
1F
100
AcDbEntity
  8
圖層4尺寸線
100
AcDbCircle
 10
1265.462785469704
 20
543.4452132927008
 30
0.0
 40
12.0
  0
CIRCLE
  5
255C
330
1F
100
AcDbEntity
  8
圖層4尺寸線
100
AcDbCircle
 10
1265.462785469704
 20
543.4452132927008
 30
0.0
 40
9.0
  0
ARC
  5
255D
330
1F
100
AcDbEntity
  8
圖層4尺寸線
100
AcDbCircle
 10
1227.462785469703
 20
530.4452132927008
 30
0.0
 40
2.0
100
AcDbArc
 50
180.0
 51
270.0
  0
LINE
  5
255E
330
1F
100
AcDbEntity
  8
圖層4尺寸線
100
AcDbLine
 10
1229.462785469704
 20
543.4452132927008
 30
0.0
 11
1244.462785469704
 21
543.4452132927008
 31
0.0
  0
LINE
  5
255F
330
1F
100
AcDbEntity
  8
圖層4尺寸線
100
AcDbLine
 10
1225.462785469703
 20
598.4452132927008
 30
0.0
 11
1223.462785469704
 21
598.4452132927008
 31
0.0
  0
LINE
  5
2560
330
1F
100
AcDbEntity
  8
圖層4尺寸線
100
AcDbLine
 10
1279.462785469704
 20
607.4452132927007
 30
0.0
 11
1279.462785469704
 21
592.4452132927007
 31
0.0
  0
LINE
  5
2561
330
1F
100
AcDbEntity
  8
圖層4尺寸線
100
AcDbLine
 10
1251.462785469704
 20
607.4452132927009
 30
0.0
 11
1251.462785469704
 21
592.4452132927009
 31
0.0
  0
LINE
  5
2562
330
1F
100
AcDbEntity
  8
圖層4尺寸線
100
AcDbLine
 10
1244.462785469704
 20
558.4452132927008
 30
0.0
 11
1286.462785469703
 21
558.4452132927008
 31
0.0
  0
HATCH
  5
2563
330
1F
100
AcDbEntity
  8
圖層4尺寸線
100
AcDbHatch
 10
0.0
 20
0.0
 30
0.0
210
0.0
220
0.0
230
1.0
  2
LINE
 70
     0
 71
     0
 91
        1
 92
        7
 72
     0
 73
     1
 93
        4
 10
1279.462785469704
 20
601.9452132927008
 10
1251.462785469704
 20
601.9452132927009
 10
1251.462785469704
 20
594.8151240130198
 10
1279.462785469704
 20
594.8151240130197
 97
        0
 75
     0
 76
     1
 52
90.0
 41
1.0
 77
     0
 78
     1
 53
90.0
 43
139.2987476214102
 44
3.504111862443323
 45
-3.174999999999999
 46
0.0000000000000002
 79
     0
 47
0.1347766415641304
 98
        1
 10
1265.154761796619
 20
598.7483773371778
  0
LINE
  5
2564
330
1F
100
AcDbEntity
  8
圖層4尺寸線
100
AcDbLine
 10
1251.462785469704
 20
601.9452132927009
 30
0.0
 11
1279.462785469704
 21
601.9452132927007
 31
0.0
  0
LINE
  5
2565
330
1F
100
AcDbEntity
  8
圖層4尺寸線
100
AcDbLine
 10
1251.462785469704
 20
594.8151240130198
 30
0.0
 11
1279.462785469704
 21
594.8151240130195
 31
0.0
  0
LINE
  5
2566
330
1F
100
AcDbEntity
  8
圖層4尺寸線
100
AcDbLine
 10
1279.462785469704
 20
607.4452132927008
 30
0.0
 11
1251.462785469704
 21
607.4452132927008
 31
0.0
  0
ARC
  5
2567
330
1F
100
AcDbEntity
  8
圖層4尺寸線
100
AcDbCircle
 10
1265.462785469704
 20
570.4452132927008
 30
0.0
 40
52.00000000000005
100
AcDbArc
 50
67.38013505195421
 51
112.6198649480318
  0
LINE
  5
2568
330
1F
100
AcDbEntity
  8
圖層4尺寸線
100
AcDbLine
 10
1285.462785469704
 20
618.4452132927008
 30
0.0
 11
1245.462785469704
 21
618.4452132927008
 31
0.0
  0
LINE
  5
2569
330
1F
100
AcDbEntity
  8
圖層4尺寸線
100
AcDbLine
 10
1285.462785469704
 20
616.4452132927008
 30
0.0
 11
1245.462785469704
 21
616.4452132927008
 31
0.0
  0
LINE
  5
256A
330
1F
100
AcDbEntity
  8
圖層4尺寸線
100
AcDbLine
 10
1254.462785469703
 20
616.4452132927008
 30
0.0
 11
1254.462785469703
 21
607.4452132927008
 31
0.0
  0
LINE
  5
256B
330
1F
100
AcDbEntity
  8
圖層4尺寸線
100
AcDbLine
 10
1254.462785469703
 20
607.4452132927008
 30
0.0
 11
1251.462785469704
 21
607.4452132927008
 31
0.0
  0
LINE
  5
256C
330
1F
100
AcDbEntity
  8
圖層4尺寸線
100
AcDbLine
 10
1245.462785469704
 20
616.4452132927008
 30
0.0
 11
1254.462785469703
 21
616.4452132927008
 31
0.0
  0
LINE
  5
256D
330
1F
100
AcDbEntity
  8
圖層4尺寸線
100
AcDbLine
 10
1245.462785469704
 20
618.4452132927008
 30
0.0
 11
1245.462785469704
 21
616.4452132927008
 31
0.0
  0
LINE
  5
256E
330
1F
100
AcDbEntity
  8
圖層4尺寸線
100
AcDbLine
 10
1285.462785469704
 20
618.4452132927008
 30
0.0
 11
1285.462785469704
 21
616.4452132927008
 31
0.0
  0
LINE
  5
256F
330
1F
100
AcDbEntity
  8
圖層4尺寸線
100
AcDbLine
 10
1276.462785469704
 20
616.4452132927008
 30
0.0
 11
1276.462785469704
 21
607.4452132927008
 31
0.0
  0
LINE
  5
2570
330
1F
100
AcDbEntity
  8
圖層4尺寸線
100
AcDbLine
 10
1279.462785469704
 20
607.4452132927007
 30
0.0
 11
1276.462785469704
 21
607.4452132927007
 31
0.0
  0
LINE
  5
2571
330
1F
100
AcDbEntity
  8
圖層4尺寸線
100
AcDbLine
 10
1285.462785469704
 20
616.4452132927008
 30
0.0
 11
1276.462785469704
 21
616.4452132927008
 31
0.0
  0
LINE
  5
2572
330
1F
100
AcDbEntity
  8
圖層4尺寸線
100
AcDbLine
 10
1301.462785469704
 20
528.4452132927007
 30
0.0
 11
1301.462785469704
 21
592.4452132927008
 31
0.0
  0
LINE
  5
2573
330
1F
100
AcDbEntity
  8
圖層4尺寸線
100
AcDbLine
 10
1301.462785469704
 20
526.4452132927008
 30
0.0
 11
1301.462785469704
 21
528.4452132927007
 31
0.0
  0
LINE
  5
2574
330
1F
100
AcDbEntity
  8
圖層4尺寸線
100
AcDbLine
 10
945.4627854697037
 20
528.4452132927007
 30
0.0
 11
945.4627854697037
 21
592.4452132927008
 31
0.0
  0
LINE
  5
2575
330
1F
100
AcDbEntity
  8
圖層4尺寸線
100
AcDbLine
 10
1021.462785469704
 20
530.4452132927008
 30
0.0
 11
1021.462785469704
 21
598.4452132927008
 31
0.0
  0
LINE
  5
2576
330
1F
100
AcDbEntity
  8
圖層4尺寸線
100
AcDbLine
 10
1023.462785469703
 20
598.4452132927008
 30
0.0
 11
1023.462785469703
 21
526.4452132927008
 31
0.0
  0
LINE
  5
2577
330
1F
100
AcDbEntity
  8
圖層4尺寸線
100
AcDbLine
 10
1017.462785469704
 20
592.4452132927008
 30
0.0
 11
1017.462785469704
 21
528.4452132927007
 31
0.0
  0
LINE
  5
2578
330
1F
100
AcDbEntity
  8
圖層4尺寸線
100
AcDbLine
 10
1017.462785469704
 20
543.4452132927008
 30
0.0
 11
1002.462785469703
 21
543.4452132927008
 31
0.0
  0
LINE
  5
2579
330
1F
100
AcDbEntity
  8
圖層4尺寸線
100
AcDbLine
 10
945.4627854697037
 20
528.4452132927007
 30
0.0
 11
1019.462785469704
 21
528.4452132927007
 31
0.0
  0
LINE
  5
257A
330
1F
100
AcDbEntity
  8
圖層4尺寸線
100
AcDbLine
 10
1023.462785469703
 20
526.4452132927008
 30
0.0
 11
945.4627854697037
 21
526.4452132927008
 31
0.0
  0
LINE
  5
257B
330
1F
100
AcDbEntity
  8
圖層4尺寸線
100
AcDbLine
 10
1017.462785469704
 20
528.4452132927007
 30
0.0
 11
945.4627854697037
 21
528.4452132927007
 31
0.0
  0
ARC
  5
257C
330
1F
100
AcDbEntity
  8
圖層4尺寸線
100
AcDbCircle
 10
1019.462785469704
 20
530.4452132927008
 30
0.0
 40
2.0
100
AcDbArc
 50
270.0
 51
0.0
  0
ARC
  5
257D
330
1F
100
AcDbEntity
  8
圖層4尺寸線
100
AcDbCircle
 10
1021.462785469704
 20
528.4452132927007
 30
0.0
 40
2.0
100
AcDbArc
 50
270.0
 51
0.0
  0
LINE
  5
257E
330
1F
100
AcDbEntity
  8
圖層4尺寸線
100
AcDbLine
 10
1002.462785469703
 20
558.4452132927008
 30
0.0
 11
1002.462785469703
 21
543.4452132927008
 31
0.0
  0
LINE
  5
257F
330
1F
100
AcDbEntity
  8
圖層4尺寸線
100
AcDbLine
 10
960.4627854697037
 20
543.4452132927008
 30
0.0
 11
960.4627854697037
 21
558.4452132927008
 31
0.0
  0
CIRCLE
  5
2580
330
1F
100
AcDbEntity
  8
圖層4尺寸線
100
AcDbCircle
 10
981.4627854697036
 20
543.4452132927008
 30
0.0
 40
9.0
  0
CIRCLE
  5
2581
330
1F
100
AcDbEntity
  8
圖層4尺寸線
100
AcDbCircle
 10
981.4627854697036
 20
543.4452132927008
 30
0.0
 40
12.0
  0
LINE
  5
2582
330
1F
100
AcDbEntity
  8
圖層4尺寸線
100
AcDbLine
 10
945.4627854697037
 20
526.4452132927008
 30
0.0
 11
945.4627854697037
 21
528.4452132927007
 31
0.0
  0
LINE
  5
2583
330
1F
100
AcDbEntity
  8
圖層4尺寸線
100
AcDbLine
 10
960.4627854697037
 20
543.4452132927008
 30
0.0
 11
945.4627854697037
 21
543.4452132927008
 31
0.0
  0
LINE
  5
2584
330
1F
100
AcDbEntity
  8
圖層4尺寸線
100
AcDbLine
 10
1002.462785469703
 20
558.4452132927008
 30
0.0
 11
960.4627854697037
 21
558.4452132927008
 31
0.0
  0
LINE
  5
2585
330
1F
100
AcDbEntity
  8
圖層4尺寸線
100
AcDbLine
 10
945.4627854697037
 20
592.4452132927008
 30
0.0
 11
1017.462785469704
 21
592.4452132927008
 31
0.0
  0
LINE
  5
2586
330
1F
100
AcDbEntity
  8
圖層4尺寸線
100
AcDbLine
 10
1021.462785469704
 20
598.4452132927008
 30
0.0
 11
1023.462785469703
 21
598.4452132927008
 31
0.0
  0
LINE
  5
2587
330
1F
100
AcDbEntity
  8
圖層4尺寸線
100
AcDbLine
 10
961.4627854697037
 20
616.4452132927008
 30
0.0
 11
1001.462785469704
 21
616.4452132927008
 31
0.0
  0
LINE
  5
2588
330
1F
100
AcDbEntity
  8
圖層4尺寸線
100
AcDbLine
 10
961.4627854697037
 20
618.4452132927008
 30
0.0
 11
1001.462785469704
 21
618.4452132927008
 31
0.0
  0
ARC
  5
2589
330
1F
100
AcDbEntity
  8
圖層4尺寸線
100
AcDbCircle
 10
981.4627854697036
 20
570.4452132927008
 30
0.0
 40
52.00000000000005
100
AcDbArc
 50
67.38013505196819
 51
112.6198649480458
  0
LINE
  5
258A
330
1F
100
AcDbEntity
  8
圖層4尺寸線
100
AcDbLine
 10
967.4627854697037
 20
607.4452132927008
 30
0.0
 11
995.4627854697037
 21
607.4452132927008
 31
0.0
  0
LINE
  5
258B
330
1F
100
AcDbEntity
  8
圖層4尺寸線
100
AcDbLine
 10
995.4627854697037
 20
594.8151240130198
 30
0.0
 11
967.4627854697037
 21
594.8151240130195
 31
0.0
  0
LINE
  5
258C
330
1F
100
AcDbEntity
  8
圖層4尺寸線
100
AcDbLine
 10
995.4627854697037
 20
601.9452132927009
 30
0.0
 11
967.4627854697037
 21
601.9452132927007
 31
0.0
  0
HATCH
  5
258D
330
1F
100
AcDbEntity
  8
圖層4尺寸線
100
AcDbHatch
 10
0.0
 20
0.0
 30
0.0
210
0.0
220
0.0
230
1.0
  2
LINE
 70
     0
 71
     0
 91
        1
 92
        7
 72
     0
 73
     1
 93
        4
 10
967.4627854697037
 20
601.9452132927008
 10
995.4627854697037
 20
601.9452132927009
 10
995.4627854697037
 20
594.8151240130198
 10
967.4627854697037
 20
594.8151240130197
 97
        0
 75
     0
 76
     1
 52
90.0
 41
1.0
 77
     0
 78
     1
 53
90.0
 43
2107.626823317997
 44
3.504111862443323
 45
3.174999999999999
 46
0.0000000000000002
 79
     0
 47
0.1347766415641304
 98
        1
 10
981.7708091427885
 20
598.7483773371778
  0
LINE
  5
258E
330
1F
100
AcDbEntity
  8
圖層4尺寸線
100
AcDbLine
 10
992.4627854697037
 20
616.4452132927008
 30
0.0
 11
992.4627854697037
 21
607.4452132927008
 31
0.0
  0
LINE
  5
258F
330
1F
100
AcDbEntity
  8
圖層4尺寸線
100
AcDbLine
 10
992.4627854697037
 20
607.4452132927008
 30
0.0
 11
995.4627854697037
 21
607.4452132927008
 31
0.0
  0
LINE
  5
2590
330
1F
100
AcDbEntity
  8
圖層4尺寸線
100
AcDbLine
 10
995.4627854697037
 20
607.4452132927009
 30
0.0
 11
995.4627854697037
 21
592.4452132927009
 31
0.0
  0
LINE
  5
2591
330
1F
100
AcDbEntity
  8
圖層4尺寸線
100
AcDbLine
 10
1001.462785469704
 20
616.4452132927008
 30
0.0
 11
992.4627854697037
 21
616.4452132927008
 31
0.0
  0
LINE
  5
2592
330
1F
100
AcDbEntity
  8
圖層4尺寸線
100
AcDbLine
 10
1001.462785469704
 20
618.4452132927008
 30
0.0
 11
1001.462785469704
 21
616.4452132927008
 31
0.0
  0
LINE
  5
2593
330
1F
100
AcDbEntity
  8
圖層4尺寸線
100
AcDbLine
 10
970.4627854697037
 20
616.4452132927008
 30
0.0
 11
970.4627854697037
 21
607.4452132927008
 31
0.0
  0
LINE
  5
2594
330
1F
100
AcDbEntity
  8
圖層4尺寸線
100
AcDbLine
 10
967.4627854697037
 20
607.4452132927007
 30
0.0
 11
970.4627854697037
 21
607.4452132927007
 31
0.0
  0
LINE
  5
2595
330
1F
100
AcDbEntity
  8
圖層4尺寸線
100
AcDbLine
 10
967.4627854697037
 20
607.4452132927007
 30
0.0
 11
967.4627854697037
 21
592.4452132927007
 31
0.0
  0
LINE
  5
2596
330
1F
100
AcDbEntity
  8
圖層4尺寸線
100
AcDbLine
 10
961.4627854697037
 20
616.4452132927008
 30
0.0
 11
970.4627854697037
 21
616.4452132927008
 31
0.0
  0
LINE
  5
2597
330
1F
100
AcDbEntity
  8
圖層4尺寸線
100
AcDbLine
 10
961.4627854697037
 20
618.4452132927008
 30
0.0
 11
961.4627854697037
 21
616.4452132927008
 31
0.0
  0
DIMENSION
  5
259D
330
1F
100
AcDbEntity
  8
AM_5
100
AcDbDimension
  2
*D3
 10
1208.462785469704
 20
466.4452132927006
 30
0.0
 11
1123.462785469703
 21
482.4452132927007
 31
0.0
 70
    32
 71
     5
 42
170.0
  3
AM_ISO$0
100
AcDbAlignedDimension
 13
1038.462785469703
 23
514.0220367957347
 33
0.0
 14
1208.462785469704
 24
514.7896405799188
 34
0.0
100
AcDbRotatedDimension
1001
ACAD
1000
DSTYLE
1002
{
1070
    40
1040
1.0
1070
   144
1040
1.0
1002
}
  0
DIMENSION
  5
25A0
330
1F
100
AcDbEntity
  8
AM_5
100
AcDbDimension
  2
*D4
 10
1223.462785469704
 20
416.4452132927006
 30
0.0
 11
1123.462785469703
 21
432.4471817966377
 31
0.0
 70
    32
 71
     5
 42
200.0
  3
AM_ISO$0
100
AcDbAlignedDimension
 13
1023.462785469703
 23
526.4452132927008
 33
0.0
 14
1223.462785469704
 24
526.4452132927008
 34
0.0
100
AcDbRotatedDimension
1001
ACAD
1000
DSTYLE
1002
{
1070
    40
1040
1.0
1070
   144
1040
1.0
1002
}
  0
DIMENSION
  5
25E9
330
1F
100
AcDbEntity
  8
AM_5
100
AcDbDimension
  2
*D5
 10
1760.067184052539
 20
466.4452132927014
 30
0.0
 11
1645.067184052539
 21
482.4471817966385
 31
0.0
 70
    32
 71
     5
 42
230.0000000000005
  3
AM_ISO$0
100
AcDbAlignedDimension
 13
1530.067184052539
 23
513.6476055425252
 33
0.0
 14
1760.067184052539
 24
514.4948967661423
 34
0.0
100
AcDbRotatedDimension
1001
ACAD
1000
DSTYLE
1002
{
1070
    40
1040
1.0
1070
   144
1040
1.0
1002
}
  0
DIMENSION
  5
25F2
330
1F
100
AcDbEntity
  8
AM_5
100
AcDbDimension
  2
*D6
 10
1895.067184052539
 20
416.4452132927006
 30
0.0
 11
1705.067184052539
 21
432.4452132927007
 31
0.0
 70
    32
 71
     5
 42
380.0
  3
AM_ISO$0
100
AcDbAlignedDimension
 13
1515.067184052539
 23
526.4452132927008
 33
0.0
 14
1895.067184052539
 24
526.4452132927005
 34
0.0
100
AcDbRotatedDimension
1001
ACAD
1000
DSTYLE
1002
{
1070
    40
1040
1.0
1070
   144
1040
1.0
1002
}
  0
DIMENSION
  5
268F
102
{ACAD_XDICTIONARY
360
269C
102
}
102
{ACAD_REACTORS
330
269D
102
}
330
1F
100
AcDbEntity
  8
AM_5
100
AcDbDimension
  2
*D7
 10
1455.067184052539
 20
606.4452132927007
 30
0.0
 11
1439.067184052539
 21
566.4452132927009
 31
0.0
 70
    32
 71
     5
 42
80.0
  3
AM_ISO$0
100
AcDbAlignedDimension
 13
1515.067184052539
 23
526.4452132927007
 33
0.0
 14
1550.067184052539
 24
606.4452132927007
 34
0.0
 50
90.0
100
AcDbRotatedDimension
1001
ACAD
1000
DSTYLE
1002
{
1070
    40
1040
1.0
1070
   144
1040
1.0
1002
}
  0
DIMENSION
  5
26B5
102
{ACAD_XDICTIONARY
360
26C2
102
}
102
{ACAD_REACTORS
330
26C3
102
}
330
1F
100
AcDbEntity
  8
AM_5
100
AcDbDimension
  2
*D8
 10
1455.067184052539
 20
795.5695371864536
 30
0.0
 11
1439.065215548602
 21
701.0073752395775
 31
0.0
 70
    32
  1
Max. 200
 71
     5
 42
189.1243238937528
  3
AM_ISO$0
100
AcDbAlignedDimension
 13
1550.067184052539
 23
606.4452132927008
 33
0.0
 14
1624.567184052541
 24
795.5695371864536
 34
0.0
 50
90.0
100
AcDbRotatedDimension
1001
ACAD
1000
DSTYLE
1002
{
1070
    40
1040
1.0
1070
   144
1040
1.0
1002
}
  0
DIMENSION
  5
26DB
102
{ACAD_XDICTIONARY
360
26E8
102
}
102
{ACAD_REACTORS
330
26E9
102
}
330
1F
100
AcDbEntity
  8
AM_5
100
AcDbDimension
  2
*D9
 10
1455.067184052539
 20
910.5695371864539
 30
0.0
 11
1439.067184052539
 21
853.069537186454
 31
0.0
 70
    32
 71
     5
 42
115.0000000000003
  3
AM_ISO$0
100
AcDbAlignedDimension
 13
1624.567184052541
 23
795.5695371864536
 33
0.0
 14
1580.067184052539
 24
910.5695371864539
 34
0.0
 50
90.0
100
AcDbRotatedDimension
1001
ACAD
1000
DSTYLE
1002
{
1070
    40
1040
1.0
1070
   144
1040
1.0
1002
}
  0
DIMENSION
  5
270B
102
{ACAD_XDICTIONARY
360
2718
102
}
102
{ACAD_REACTORS
330
2719
102
}
330
1F
100
AcDbEntity
  8
AM_5
100
AcDbDimension
  2
*D10
 10
1455.067184052539
 20
1312.569537186455
 30
0.0
 11
1439.065215548602
 21
1111.569537186454
 31
0.0
 70
    32
 71
     5
 42
402.0000000000008
  3
AM_ISO$0
100
AcDbAlignedDimension
 13
1580.067184052539
 23
910.5695371864539
 33
0.0
 14
1620.448433727602
 24
1312.569537186454
 34
0.0
 50
90.0
100
AcDbRotatedDimension
1001
ACAD
1000
DSTYLE
1002
{
1070
    40
1040
1.0
1070
   144
1040
1.0
1002
}
  0
DIMENSION
  5
2731
102
{ACAD_XDICTIONARY
360
273E
102
}
102
{ACAD_REACTORS
330
273F
102
}
330
1F
100
AcDbEntity
  8
AM_5
100
AcDbDimension
  2
*D11
 10
1405.067184052539
 20
1312.569537186455
 30
0.0
 11
1389.067184052539
 21
919.507375239578
 31
0.0
 70
    32
  1
Max. 800
 71
     5
 42
786.124323893754
  3
AM_ISO$0
100
AcDbAlignedDimension
 13
1515.067184052539
 23
526.4452132927007
 33
0.0
 14
1620.448433727602
 24
1312.569537186454
 34
0.0
 50
90.0
100
AcDbRotatedDimension
1001
ACAD
1000
DSTYLE
1002
{
1070
    40
1040
1.0
1070
   144
1040
1.0
1002
}
  0
DIMENSION
  5
2757
330
1F
100
AcDbEntity
  8
AM_5
100
AcDbDimension
  2
*D12
 10
1955.067184052539
 20
606.4452132927006
 30
0.0
 11
1939.067184052539
 21
566.4452132927009
 31
0.0
 70
    32
 71
     5
 42
80.0
  3
AM_ISO$0
100
AcDbAlignedDimension
 13
1895.067184052539
 23
526.4452132927005
 33
0.0
 14
1895.067184052539
 24
606.4452132927006
 34
0.0
 50
90.0
100
AcDbRotatedDimension
1001
ACAD
1000
DSTYLE
1002
{
1070
    40
1040
1.0
1070
   144
1040
1.0
1002
}
  0
DIMENSION
  5
277D
102
{ACAD_XDICTIONARY
360
278A
102
}
102
{ACAD_REACTORS
330
278B
102
}
330
1F
100
AcDbEntity
  8
AM_5
100
AcDbDimension
  2
*D13
 10
1787.567184052539
 20
701.1221562630151
 30
0.0
 11
1716.317184052539
 21
717.124124766952
 31
0.0
 70
    32
 71
     5
 42
142.5
  3
AM_ISO$0
100
AcDbAlignedDimension
 13
1645.067184052539
 23
771.6106673246745
 33
0.0
 14
1787.567184052539
 24
830.5695371864539
 34
0.0
100
AcDbRotatedDimension
1001
ACAD
1000
DSTYLE
1002
{
1070
    40
1040
1.0
1070
   144
1040
1.0
1002
}
  0
DIMENSION
  5
27A3
102
{ACAD_XDICTIONARY
360
27B0
102
}
102
{ACAD_REACTORS
330
27B1
102
}
330
1F
100
AcDbEntity
  8
AM_5
100
AcDbDimension
  2
*D14
 10
1955.067184052539
 20
910.5695371864539
 30
0.0
 11
1939.067184052539
 21
870.5695371864543
 31
0.0
 70
    32
 71
     5
 42
80.00000000000012
  3
AM_ISO$0
100
AcDbAlignedDimension
 13
1895.067184052539
 23
830.5695371864539
 33
0.0
 14
1895.067184052539
 24
910.5695371864539
 34
0.0
 50
90.0
100
AcDbRotatedDimension
1001
ACAD
1000
DSTYLE
1002
{
1070
    40
1040
1.0
1070
   144
1040
1.0
1002
}
  0
DIMENSION
  5
27C9
330
1F
100
AcDbEntity
  8
AM_5
100
AcDbDimension
  2
*D15
 10
2005.067184052539
 20
926.4452132927006
 30
0.0
 11
1989.067184052539
 21
726.4452132927009
 31
0.0
 70
    32
 71
     5
 42
400.0
  3
AM_ISO$0
100
AcDbAlignedDimension
 13
1895.067184052539
 23
526.4452132927005
 33
0.0
 14
1860.567184052539
 24
926.4452132927006
 34
0.0
 50
90.0
100
AcDbRotatedDimension
1001
ACAD
1000
DSTYLE
1002
{
1070
    40
1040
1.0
1070
   144
1040
1.0
1002
}
  0
LINE
  5
2CB1
330
1F
100
AcDbEntity
  8
圖層1輪廓線
  6
Continuous
100
AcDbLine
 10
1087.955743914542
 20
1680.877368296447
 30
0.0
 11
1158.969827024866
 21
1680.877368296446
 31
0.0
  0
ARC
  5
2CB2
330
1F
100
AcDbEntity
  8
圖層1輪廓線
  6
Continuous
100
AcDbCircle
 10
1123.462785469705
 20
1622.34403496311
 30
0.0
 40
58.53333333333608
100
AcDbArc
 50
66.14595163640482
 51
113.8540483635952
  0
LINE
  5
2CB3
330
1F
100
AcDbEntity
  8
圖層1輪廓線
  6
Continuous
100
AcDbLine
 10
1087.955743914542
 20
1610.877368296447
 30
0.0
 11
1158.969827024866
 21
1610.877368296447
 31
0.0
  0
LINE
  5
2CB4
330
1F
100
AcDbEntity
  8
圖層1輪廓線
  6
Continuous
100
AcDbLine
 10
1082.462785469704
 20
1600.877368296447
 30
0.0
 11
1164.462785469703
 21
1600.877368296447
 31
0.0
  0
ARC
  5
2CB5
330
1F
100
AcDbEntity
  8
圖層1輪廓線
  6
Continuous
100
AcDbCircle
 10
1123.462785469705
 20
1669.051328495439
 30
0.0
 40
58.2048398037261
100
AcDbArc
 50
246.0028878993282
 51
293.9971121006577
  0
LINE
  5
2CB6
330
1F
100
AcDbEntity
  8
圖層1輪廓線
  6
Continuous
100
AcDbLine
 10
1082.462785469704
 20
1710.877368296447
 30
0.0
 11
1164.462785469703
 21
1710.877368296446
 31
0.0
  0
LINE
  5
2CB7
330
1F
100
AcDbEntity
  8
圖層1輪廓線
  6
Continuous
100
AcDbLine
 10
1076.120063396155
 20
1615.877368296447
 30
0.0
 11
1076.120063396155
 21
1675.877368296446
 31
0.0
  0
LINE
  5
2CB8
330
1F
100
AcDbEntity
  8
圖層1輪廓線
  6
Continuous
100
AcDbLine
 10
1099.79142443293
 20
1615.877368296447
 30
0.0
 11
1099.79142443293
 21
1675.877368296446
 31
0.0
  0
ARC
  5
2CB9
330
1F
100
AcDbEntity
  8
圖層1輪廓線
  6
Continuous
100
AcDbCircle
 10
1087.955743914542
 20
1627.385701629779
 30
0.0
 40
16.50833333333309
100
AcDbArc
 50
224.1966084730937
 51
315.8033915269064
  0
LINE
  5
2CBA
330
1F
100
AcDbEntity
  8
圖層1輪廓線
  6
Continuous
100
AcDbLine
 10
1082.462785469704
 20
1600.877368296447
 30
0.0
 11
1082.462785469704
 21
1611.818027527085
 31
0.0
  0
ARC
  5
2CBB
330
1F
100
AcDbEntity
  8
圖層1輪廓線
  6
Continuous
100
AcDbCircle
 10
1087.955743914542
 20
1664.369034963113
 30
0.0
 40
16.50833333333278
100
AcDbArc
 50
44.19660847309365
 51
135.8033915269063
  0
LINE
  5
2CBC
330
1F
100
AcDbEntity
  8
圖層1輪廓線
  6
Continuous
100
AcDbLine
 10
1082.462785469704
 20
1679.936709065808
 30
0.0
 11
1082.462785469704
 21
1710.877368296447
 31
0.0
  0
LINE
  5
2CBD
330
1F
100
AcDbEntity
  8
圖層1輪廓線
  6
Continuous
100
AcDbLine
 10
1147.134146506479
 20
1615.877368296446
 30
0.0
 11
1147.134146506479
 21
1675.877368296447
 31
0.0
  0
LINE
  5
2CBE
330
1F
100
AcDbEntity
  8
圖層1輪廓線
  6
Continuous
100
AcDbLine
 10
1170.805507543254
 20
1615.877368296446
 30
0.0
 11
1170.805507543254
 21
1675.877368296446
 31
0.0
  0
ARC
  5
2CBF
330
1F
100
AcDbEntity
  8
圖層1輪廓線
  6
Continuous
100
AcDbCircle
 10
1158.969827024867
 20
1627.385701629779
 30
0.0
 40
16.50833333333325
100
AcDbArc
 50
224.1966084730937
 51
315.8033915269064
  0
LINE
  5
2CC0
330
1F
100
AcDbEntity
  8
圖層1輪廓線
  6
Continuous
100
AcDbLine
 10
1164.462785469704
 20
1600.877368296446
 30
0.0
 11
1164.462785469704
 21
1611.818027527084
 31
0.0
  0
ARC
  5
2CC1
330
1F
100
AcDbEntity
  8
圖層1輪廓線
  6
Continuous
100
AcDbCircle
 10
1158.969827024865
 20
1664.369034963113
 30
0.0
 40
16.50833333333326
100
AcDbArc
 50
44.19660847309365
 51
135.8033915269063
  0
LINE
  5
2CC2
330
1F
100
AcDbEntity
  8
圖層1輪廓線
  6
Continuous
100
AcDbLine
 10
1164.462785469703
 20
1679.936709065809
 30
0.0
 11
1164.462785469703
 21
1710.877368296446
 31
0.0
  0
ARC
  5
2CC3
330
1F
100
AcDbEntity
  8
圖層1輪廓線
  6
Continuous
100
AcDbCircle
 10
1123.462785469703
 20
1782.919034963116
 30
0.0
 40
72.0416666666691
100
AcDbArc
 50
250.8174656949729
 51
289.1825343050271
  0
ARC
  5
2CC4
330
1F
100
AcDbEntity
  8
圖層1輪廓線
  6
Continuous
100
AcDbCircle
 10
1123.462785469703
 20
1658.835701629784
 30
0.0
 40
72.04166666666245
100
AcDbArc
 50
70.81746569497288
 51
109.1825343050271
  0
ARC
  5
2CC5
330
1F
100
AcDbEntity
  8
圖層1輪廓線
  6
Continuous
100
AcDbCircle
 10
1087.955743914542
 20
1730.387784963112
 30
0.0
 40
19.51041666666605
100
AcDbArc
 50
232.653490685543
 51
307.346509314457
  0
ARC
  5
2CC6
330
1F
100
AcDbEntity
  8
圖層1輪廓線
  6
Continuous
100
AcDbCircle
 10
1087.955743914542
 20
1711.366951629784
 30
0.0
 40
19.51041666666302
100
AcDbArc
 50
52.65349068554301
 51
127.346509314457
  0
LINE
  5
2CC7
330
1F
100
AcDbEntity
  8
圖層1輪廓線
  6
Continuous
100
AcDbLine
 10
1076.120063396155
 20
1714.877368296446
 30
0.0
 11
1076.120063396155
 21
1726.877368296446
 31
0.0
  0
LINE
  5
2CC8
330
1F
100
AcDbEntity
  8
圖層1輪廓線
  6
Continuous
100
AcDbLine
 10
1099.791424432929
 20
1714.877368296446
 30
0.0
 11
1099.791424432929
 21
1726.877368296445
 31
0.0
  0
ARC
  5
2CC9
330
1F
100
AcDbEntity
  8
圖層1輪廓線
  6
Continuous
100
AcDbCircle
 10
1158.969827024866
 20
1730.387784963113
 30
0.0
 40
19.51041666666682
100
AcDbArc
 50
232.653490685543
 51
307.346509314457
  0
ARC
  5
2CCA
330
1F
100
AcDbEntity
  8
圖層1輪廓線
  6
Continuous
100
AcDbCircle
 10
1158.969827024867
 20
1711.366951629779
 30
0.0
 40
19.51041666666705
100
AcDbArc
 50
52.65349068554301
 51
127.346509314457
  0
LINE
  5
2CCB
330
1F
100
AcDbEntity
  8
圖層1輪廓線
  6
Continuous
100
AcDbLine
 10
1147.134146506479
 20
1714.877368296446
 30
0.0
 11
1147.134146506479
 21
1726.877368296446
 31
0.0
  0
LINE
  5
2CCC
330
1F
100
AcDbEntity
  8
圖層1輪廓線
  6
Continuous
100
AcDbLine
 10
1170.805507543254
 20
1714.877368296446
 30
0.0
 11
1170.805507543254
 21
1726.877368296447
 31
0.0
  0
LINE
  5
2CCD
330
1F
100
AcDbEntity
  8
圖層1輪廓線
  6
Continuous
100
AcDbLine
 10
1083.462785469704
 20
1735.877368296446
 30
0.0
 11
1083.462785469704
 21
1730.877368296446
 31
0.0
  0
LINE
  5
2CCE
330
1F
100
AcDbEntity
  8
圖層1輪廓線
  6
Continuous
100
AcDbLine
 10
1083.462785469704
 20
1730.877368296446
 30
0.0
 11
1163.462785469703
 21
1730.877368296446
 31
0.0
  0
LINE
  5
2CCF
330
1F
100
AcDbEntity
  8
圖層1輪廓線
  6
Continuous
100
AcDbLine
 10
1163.462785469703
 20
1730.877368296446
 30
0.0
 11
1163.462785469703
 21
1735.877368296446
 31
0.0
  0
LINE
  5
2CD0
330
1F
100
AcDbEntity
  8
圖層3虛線
 48
0.3
100
AcDbLine
 10
1103.462785469703
 20
1660.877368296447
 30
0.0
 11
1143.462785469704
 21
1660.877368296447
 31
0.0
  0
LINE
  5
2CD1
330
1F
100
AcDbEntity
  8
圖層3虛線
 48
0.3
100
AcDbLine
 10
1103.462785469704
 20
1600.877368296447
 30
0.0
 11
1103.462785469704
 21
1660.877368296447
 31
0.0
  0
LINE
  5
2CD2
330
1F
100
AcDbEntity
  8
圖層3虛線
 48
0.3
100
AcDbLine
 10
1143.462785469704
 20
1600.877368296447
 30
0.0
 11
1143.462785469704
 21
1660.877368296447
 31
0.0
  0
LINE
  5
2CD3
330
1F
100
AcDbEntity
  8
圖層3虛線
 48
0.3
100
AcDbLine
 10
1076.120063396155
 20
1640.877368296447
 30
0.0
 11
1103.462785469704
 21
1640.877368296447
 31
0.0
  0
LINE
  5
2CD4
330
1F
100
AcDbEntity
  8
圖層3虛線
 48
0.3
100
AcDbLine
 10
1076.120063396155
 20
1620.877368296447
 30
0.0
 11
1103.462785469704
 21
1620.877368296447
 31
0.0
  0
LINE
  5
2CD5
330
1F
100
AcDbEntity
  8
圖層3虛線
 48
0.3
100
AcDbLine
 10
1143.462785469704
 20
1640.877368296447
 30
0.0
 11
1170.805507543254
 21
1640.877368296447
 31
0.0
  0
LINE
  5
2CD6
330
1F
100
AcDbEntity
  8
圖層3虛線
 48
0.3
100
AcDbLine
 10
1143.462785469704
 20
1620.877368296447
 30
0.0
 11
1170.805507543254
 21
1620.877368296447
 31
0.0
  0
LINE
  5
2CD7
330
1F
100
AcDbEntity
  8
圖層3虛線
 48
0.3
100
AcDbLine
 10
1076.120063396155
 20
1636.877368296446
 30
0.0
 11
1103.462785469704
 21
1636.877368296447
 31
0.0
  0
LINE
  5
2CD8
330
1F
100
AcDbEntity
  8
圖層3虛線
 48
0.3
100
AcDbLine
 10
1076.120063396155
 20
1624.877368296447
 30
0.0
 11
1103.462785469704
 21
1624.877368296447
 31
0.0
  0
LINE
  5
2CD9
330
1F
100
AcDbEntity
  8
圖層3虛線
 48
0.3
100
AcDbLine
 10
1143.462785469704
 20
1636.877368296447
 30
0.0
 11
1170.805507543254
 21
1636.877368296446
 31
0.0
  0
LINE
  5
2CDA
330
1F
100
AcDbEntity
  8
圖層3虛線
 48
0.3
100
AcDbLine
 10
1143.462785469704
 20
1624.877368296447
 30
0.0
 11
1170.805507543254
 21
1624.877368296447
 31
0.0
  0
LINE
  5
2CDB
330
1F
100
AcDbEntity
  8
圖層2中心線
 48
0.3
370
    18
100
AcDbLine
 10
1071.089190502146
 20
1630.877368296447
 30
0.0
 11
1178.102469355595
 21
1630.877368296447
 31
0.0
  0
CIRCLE
  5
2CDC
330
1F
100
AcDbEntity
  8
圖層3虛線
 48
0.3
100
AcDbCircle
 10
1123.462785469705
 20
1630.877368296447
 30
0.0
 40
10.0
  0
CIRCLE
  5
2CDD
330
1F
100
AcDbEntity
  8
圖層1輪廓線
  6
Continuous
100
AcDbCircle
 10
1123.462785469703
 20
1630.877368296447
 30
0.0
 40
14.0
  0
CIRCLE
  5
2CDE
330
1F
100
AcDbEntity
  8
圖層1輪廓線
  6
Continuous
100
AcDbCircle
 10
1123.462785469705
 20
1630.877368296447
 30
0.0
 40
6.0
  0
LWPOLYLINE
  5
2CDF
330
1F
100
AcDbEntity
  8
圖層1輪廓線
  6
Continuous
100
AcDbPolyline
 90
        6
 70
     1
 43
0.0
 10
1109.462785469704
 20
1622.794464527791
 10
1123.462785469705
 20
1614.711560759136
 10
1137.462785469705
 20
1622.794464527791
 10
1137.462785469705
 20
1638.960272065102
 10
1123.462785469705
 20
1647.043175833757
 10
1109.462785469704
 20
1638.960272065102
  0
LINE
  5
2CEC
330
1F
100
AcDbEntity
  8
AM_7
100
AcDbLine
 10
1123.462785469704
 20
1593.41352292263
 30
0.0
 11
1123.462785469704
 21
1742.537179301848
 31
0.0
1001
GENIUS_GENOBJ-N-CEN_13
1002
{
1000
OWNER
1000
GEN
1002
}
1001
GENIUS_GENODEF_13
1002
{
1000
HIER
1070
     0
1002
}
1002
{
1000
MANEDIT
1070
     0
1002
}
1002
{
1000
NOSEL
1070
     0
1002
}
1002
{
1000
BEHIND
1070
     0
1002
}
1002
{
1000
OTHER
1070
     0
1002
}
1002
{
1000
REACTOR
1002
}
1001
GENIUS_GENCEN_19
1002
{
1040
2.0
1002
}
  0
DIMENSION
  5
2D68
102
{ACAD_XDICTIONARY
360
2D75
102
}
102
{ACAD_REACTORS
330
2D76
102
}
330
1F
100
AcDbEntity
  8
AM_5
100
AcDbDimension
  2
*D16
 10
1188.462785469703
 20
882.4610244400201
 30
0.0
 11
1016.454911453956
 21
882.4610244400201
 31
0.0
 70
   160
 71
     5
 42
130.0
  3
AM_ISO$0
100
AcDbAlignedDimension
 13
1058.462785469703
 23
910.5695371864539
 33
0.0
 14
1188.462785469703
 24
910.5695371864539
 34
0.0
100
AcDbRotatedDimension
1001
ACAD
1000
DSTYLE
1002
{
1070
    40
1040
1.0
1070
   144
1040
1.0
1002
}
  0
DIMENSION
  5
2D97
330
1F
100
AcDbEntity
  8
AM_5
100
AcDbDimension
  2
*D17
 10
1143.462785469703
 20
1540.877368296446
 30
0.0
 11
1210.470659485452
 21
1540.877368296446
 31
0.0
 70
   160
  1
%%c<>
 71
     5
 42
20.0
  3
AM_ISO$0
100
AcDbAlignedDimension
 13
1103.462785469703
 23
1600.877368296447
 33
0.0
 14
1143.462785469703
 24
1600.877368296447
 34
0.0
100
AcDbRotatedDimension
1001
ACAD
1000
DSTYLE
1002
{
1070
    40
1040
1.0
1070
   144
1040
0.5
1002
}
  0
DIMENSION
  5
2D9A
330
1F
100
AcDbEntity
  8
AM_5
100
AcDbDimension
  2
*D18
 10
1016.120063396155
 20
1630.877368296447
 30
0.0
 11
1016.120063396155
 21
1545.463154734074
 31
0.0
 70
   160
 71
     5
 42
15.0
  3
AM_ISO$0
100
AcDbAlignedDimension
 13
1082.462785469704
 23
1600.877368296447
 33
0.0
 14
1071.089190502146
 24
1630.877368296447
 34
0.0
 50
90.0
100
AcDbRotatedDimension
1001
ACAD
1000
DSTYLE
1002
{
1070
   144
1040
0.5
1002
}
  0
DIMENSION
  5
2D9D
330
1F
100
AcDbEntity
  8
AM_5
100
AcDbDimension
  2
*D19
 10
966.1200633961552
 20
1660.877368296447
 30
0.0
 11
950.120063396155
 21
1630.877368296447
 31
0.0
 70
    32
 71
     5
 42
30.0
  3
AM_ISO$0
100
AcDbAlignedDimension
 13
1082.462785469704
 23
1600.877368296447
 33
0.0
 14
1103.462785469703
 24
1660.877368296447
 34
0.0
 50
90.0
100
AcDbRotatedDimension
1001
ACAD
1000
DSTYLE
1002
{
1070
   144
1040
0.5
1002
}
  0
INSERT
  5
2DF2
330
1F
100
AcDbEntity
  8
AM_5
100
AcDbBlockReference
  2
*S27
 10
0.0
 20
0.0
 30
0.0
  0
TEXT
  5
2DF3
330
1F
100
AcDbEntity
  8
AM_5
100
AcDbText
 10
1211.873979752968
 20
1671.769111979647
 30
0.0
 40
20.0
  1
3-M10
100
AcDbText
  0
CIRCLE
  5
2DF4
330
1F
100
AcDbEntity
  8
0
 62
     1
100
AcDbCircle
 10
1123.462785469704
 20
808.0695371864543
 30
0.0
 40
44.34401303614731
  0
TEXT
  5
2DF5
330
1F
100
AcDbEntity
  8
AM_5
 62
     0
100
AcDbText
 10
1056.985182331024
 20
776.3032489414943
 30
0.0
 40
20.0
  1
A
100
AcDbText
  0
CIRCLE
  5
2DF6
330
1F
100
AcDbEntity
  8
0
 62
     1
100
AcDbCircle
 10
1645.067184052539
 20
599.4193130951294
 30
0.0
 40
34.84724155408339
  0
TEXT
  5
2DF7
330
1F
100
AcDbEntity
  8
AM_5
 62
     0
100
AcDbText
 10
1590.096969278099
 20
613.7355594917933
 30
0.0
 40
20.0
  1
B
100
AcDbText
  0
LINE
  5
2DF8
330
1F
100
AcDbEntity
  8
圖層1輪廓線
100
AcDbLine
 10
1670.067184052539
 20
1639.754899541804
 30
0.0
 11
1670.067184052539
 21
1619.754899541804
 31
0.0
  0
LINE
  5
2DF9
330
1F
100
AcDbEntity
  8
圖層1輪廓線
100
AcDbLine
 10
1620.067184052539
 20
1619.754899541804
 30
0.0
 11
1620.067184052539
 21
1639.754899541804
 31
0.0
  0
LINE
  5
2DFA
330
1F
100
AcDbEntity
  8
圖層1輪廓線
100
AcDbLine
 10
1670.067184052539
 20
1619.754899541804
 30
0.0
 11
1620.067184052539
 21
1619.754899541804
 31
0.0
  0
LINE
  5
2DFB
330
1F
100
AcDbEntity
  8
圖層1輪廓線
100
AcDbLine
 10
1620.067184052539
 20
1639.754899541804
 30
0.0
 11
1630.067184052539
 21
1639.754899541804
 31
0.0
  0
LINE
  5
2DFC
330
1F
100
AcDbEntity
  8
圖層1輪廓線
100
AcDbLine
 10
1630.067184052539
 20
1639.754899541804
 30
0.0
 11
1630.067184052539
 21
1661.754899541804
 31
0.0
  0
LINE
  5
2DFD
330
1F
100
AcDbEntity
  8
圖層1輪廓線
100
AcDbLine
 10
1660.067184052539
 20
1661.754899541804
 30
0.0
 11
1660.067184052539
 21
1639.754899541804
 31
0.0
  0
LINE
  5
2DFE
330
1F
100
AcDbEntity
  8
圖層1輪廓線
100
AcDbLine
 10
1660.067184052539
 20
1639.754899541804
 30
0.0
 11
1670.067184052539
 21
1639.754899541804
 31
0.0
  0
LINE
  5
2DFF
330
1F
100
AcDbEntity
  8
0
100
AcDbLine
 10
1630.067184052539
 20
1661.754899541804
 30
0.0
 11
1610.127181831125
 21
1661.754899541804
 31
0.0
  0
LINE
  5
2E01
330
1F
100
AcDbEntity
  8
0
100
AcDbLine
 10
1660.06718405254
 20
1661.754899541804
 30
0.0
 11
1680.007186273954
 21
1661.754899541804
 31
0.0
  0
LINE
  5
2E0E
330
1F
100
AcDbEntity
  8
AM_7
100
AcDbLine
 10
1645.067184052539
 20
1610.506867279054
 30
0.0
 11
1645.067184052539
 21
1672.990235742994
 31
0.0
1001
GENIUS_GENODEF_13
1002
{
1000
HIER
1070
     0
1002
}
1002
{
1000
MANEDIT
1070
     0
1002
}
1002
{
1000
NOSEL
1070
     0
1002
}
1002
{
1000
BEHIND
1070
     0
1002
}
1002
{
1000
OTHER
1070
     0
1002
}
1002
{
1000
REACTOR
1002
}
1001
GENIUS_GENOBJ-N-CEN_13
1002
{
1000
OWNER
1000
GEN
1002
}
1001
GENIUS_GENCEN_19
1002
{
1040
2.0
1002
}
  0
DIMENSION
  5
2E10
330
1F
100
AcDbEntity
  8
AM_5
100
AcDbDimension
  2
*D20
 10
1670.067184052539
 20
1559.754898541804
 30
0.0
 11
1645.067184052539
 21
1575.756867045741
 31
0.0
 70
    32
 71
     5
 42
25.0
  3
AM_ISO$0
100
AcDbAlignedDimension
 13
1620.067184052539
 23
1619.754899541804
 33
0.0
 14
1670.067184052539
 24
1619.754899541804
 34
0.0
100
AcDbRotatedDimension
1001
ACAD
1000
DSTYLE
1002
{
1070
   144
1040
0.5
1002
}
  0
DIMENSION
  5
2E13
330
1F
100
AcDbEntity
  8
AM_5
100
AcDbDimension
  2
*D21
 10
1660.067184052539
 20
1711.754900541804
 30
0.0
 11
1645.067184052539
 21
1711.754900541804
 31
0.0
 70
   160
 71
     5
 42
15.0
  3
AM_ISO$0
100
AcDbAlignedDimension
 13
1630.067184052539
 23
1661.754899541804
 33
0.0
 14
1660.067184052539
 24
1661.754899541804
 34
0.0
100
AcDbRotatedDimension
1001
ACAD
1000
DSTYLE
1002
{
1070
   144
1040
0.5
1002
}
  0
DIMENSION
  5
2E16
330
1F
100
AcDbEntity
  8
AM_5
100
AcDbDimension
  2
*D22
 10
1739.312381606969
 20
1639.754899541804
 30
0.0
 11
1739.312381606968
 21
1714.754899541804
 31
0.0
 70
   160
 71
     5
 42
11.0
  3
AM_ISO$0
100
AcDbAlignedDimension
 13
1680.007186273954
 23
1661.754899541804
 33
0.0
 14
1670.067184052539
 24
1639.754899541804
 34
0.0
 50
90.0
100
AcDbRotatedDimension
1001
ACAD
1000
DSTYLE
1002
{
1070
   144
1040
0.5
1002
}
  0
DIMENSION
  5
2E19
330
1F
100
AcDbEntity
  8
AM_5
100
AcDbDimension
  2
*D23
 10
1560.067184052539
 20
1619.754899541804
 30
0.0
 11
1560.067184052539
 21
1629.754899541804
 31
0.0
 70
   160
 71
     5
 42
10.0
  3
AM_ISO$0
100
AcDbAlignedDimension
 13
1620.067184052539
 23
1639.754899541804
 33
0.0
 14
1620.067184052539
 24
1619.754899541804
 34
0.0
 50
90.0
100
AcDbRotatedDimension
1001
ACAD
1000
DSTYLE
1002
{
1070
   144
1040
0.5
1002
}
  0
TEXT
  5
2EC3
330
1F
100
AcDbEntity
  8
AM_5
 62
     0
100
AcDbText
 10
1087.462668627343
 20
1470.621325705647
 30
0.0
 40
30.0
  1
A 詳細
100
AcDbText
  0
TEXT
  5
2EC4
330
1F
100
AcDbEntity
  8
AM_5
 62
     0
100
AcDbText
 10
1608.034838085561
 20
1470.621325705647
 30
0.0
 40
30.0
  1
B 詳細
100
AcDbText
  0
DIMENSION
  5
2EF9
330
1F
100
AcDbEntity
  8
AM_5
100
AcDbDimension
  2
*D24
 10
1862.567184052539
 20
701.1221562630153
 30
0.0
 11
1908.981397614913
 21
701.1221562630153
 31
0.0
 70
   160
  1
%%c<>
 71
     5
 42
75.0
  3
AM_ISO$0
100
AcDbAlignedDimension
 13
1787.567184052539
 23
701.1221562630151
 33
0.0
 14
1862.567184052539
 24
718.5073752395772
 34
0.0
100
AcDbRotatedDimension
1001
ACAD
1000
DSTYLE
1002
{
1070
    40
1040
1.0
1070
   144
1040
1.0
1002
}
  0
INSERT
  5
2F8C
330
1F
100
AcDbEntity
  8
AM_5
100
AcDbBlockReference
  2
*S28
 10
0.0
 20
0.0
 30
0.0
  0
TEXT
  5
2F8D
330
1F
100
AcDbEntity
  8
AM_5
100
AcDbText
 10
1262.286141167618
 20
471.1915146175993
 30
0.0
 40
20.0
  1
4-%%C12
100
AcDbText
  0
DIMENSION
  5
2FAF
102
{ACAD_XDICTIONARY
360
2FBC
102
}
102
{ACAD_REACTORS
330
2FBD
102
}
330
1F
100
AcDbEntity
  8
AM_5
100
AcDbDimension
  2
*D25
 10
1745.067184052539
 20
649.3166326152022
 30
0.0
 11
1645.067184052539
 21
665.3186011191392
 31
0.0
 70
    32
 71
     5
 42
200.0
  3
AM_ISO$0
100
AcDbAlignedDimension
 13
1545.067184052539
 23
601.4452132927007
 33
0.0
 14
1745.067184052539
 24
601.4452132927004
 34
0.0
100
AcDbRotatedDimension
1001
ACAD
1000
DSTYLE
1002
{
1070
    40
1040
1.0
1070
   144
1040
1.0
1002
}
  0
TEXT
  5
7792
330
1F
100
AcDbEntity
  8
LOGO
 62
     7
100
AcDbText
 10
1210.528518427188
 20
249.4256795857793
 30
0.0
 40
23.32462219004524
  1
Order example:
 41
0.8
  7
CHINESET
100
AcDbText
  0
TEXT
  5
7793
330
1F
100
AcDbEntity
  8
LOGO
 62
     7
100
AcDbText
 10
1214.71314853486
 20
282.2619182047152
 30
0.0
 40
34.98693328506787
  1
訂購代號:
  7
CHINESET
100
AcDbText
  0
LINE
  5
7794
330
1F
100
AcDbEntity
  8
LOGO
 62
     1
100
AcDbLine
 10
2138.023521510278
 20
326.0615801790054
 30
0.0
 11
815.5376248372995
 21
326.0615801790054
 31
0.0
  0
LINE
  5
7795
330
1F
100
AcDbEntity
  8
LOGO
 62
     1
100
AcDbLine
 10
1200.393890973054
 20
151.1269137536665
 30
0.0
 11
1200.393890973054
 21
326.0615801790054
 31
0.0
  0
TEXT
  5
7796
330
1F
100
AcDbEntity
  8
LOGO
  6
Continuous
 62
     5
100
AcDbText
 10
878.3749433638295
 20
185.4925649734934
 30
0.0
 40
26.2401999638009
  1
金器工業股份有限公司
  7
CHINESET
100
AcDbText
  0
TEXT
  5
7797
330
1F
100
AcDbEntity
  8
LOGO
  6
Continuous
 62
     5
100
AcDbText
 10
830.1768873978671
 20
159.2472239878113
 30
0.0
 40
17.49346664253393
  1
MINDMAN INDUSTRIAL CO., LTD.
 41
0.85
  7
CHINESET
100
AcDbText
  0
LINE
  5
7798
330
1F
100
AcDbEntity
  8
LOGO
 62
     1
100
AcDbLine
 10
1200.393890973054
 20
291.074646893939
 30
0.0
 11
943.8230468825505
 21
291.074646893939
 31
0.0
  0
LINE
  5
7799
330
1F
100
AcDbEntity
  8
LOGO
 62
     1
100
AcDbLine
 10
1200.393890973054
 20
256.0877136088698
 30
0.0
 11
943.8230468825505
 21
256.0877136088698
 31
0.0
  0
LINE
  5
779A
330
1F
100
AcDbEntity
  8
LOGO
 62
     1
100
AcDbLine
 10
1200.393890973054
 20
221.1007803238022
 30
0.0
 11
815.5376248372995
 21
221.1007803238022
 31
0.0
  0
LINE
  5
779B
330
1F
100
AcDbEntity
  8
LOGO
 62
     1
100
AcDbLine
 10
943.8230468825505
 20
221.1007803238022
 30
0.0
 11
943.8230468825505
 21
326.0615801790054
 31
0.0
  0
TEXT
  5
779C
330
1F
100
AcDbEntity
  8
LOGO
 62
     6
100
AcDbText
 10
1110.013864427233
 20
229.847513645069
 30
0.0
 40
17.49346664253393
  1
m/m
  7
CHINESET
 72
     1
 11
1140.835686606935
 21
238.594246966336
 31
0.0
100
AcDbText
 73
     2
  0
TEXT
  5
779D
330
1F
100
AcDbEntity
  8
LOGO
 62
     6
100
AcDbText
 10
1110.013864427233
 20
299.8213802152053
 30
0.0
 40
17.49346664253393
  1
1 : 1
  7
CHINESET
 72
     1
 11
1140.835686606935
 21
308.5681135364723
 31
0.0
100
AcDbText
 73
     2
  0
LINE
  5
779E
330
1F
100
AcDbEntity
  8
LOGO
 62
     1
100
AcDbLine
 10
1083.770780022816
 20
221.1007803238022
 30
0.0
 11
1083.770780022816
 21
326.0615801790054
 31
0.0
  0
CIRCLE
  5
779F
330
1F
100
AcDbEntity
  8
LOGO
  6
Continuous
 62
     6
100
AcDbCircle
 10
1116.162121559701
 20
273.6185989045659
 30
0.0
 40
10.15711848244488
  0
CIRCLE
  5
77A0
330
1F
100
AcDbEntity
  8
LOGO
  6
Continuous
 62
     6
100
AcDbCircle
 10
1116.162121559701
 20
273.6185989045659
 30
0.0
 40
5.951172271886643
  0
LINE
  5
77A1
330
1F
100
AcDbEntity
  8
LOGO
 62
     6
100
AcDbLine
 10
1179.990632685569
 20
263.4614804221203
 30
0.0
 11
1179.990632685569
 21
283.7757173870114
 31
0.0
  0
LINE
  5
77A2
330
1F
100
AcDbEntity
  8
LOGO
 62
     6
100
AcDbLine
 10
1148.148649289522
 20
267.6674266326795
 30
0.0
 11
1148.148649289522
 21
279.569771176454
 31
0.0
  0
LINE
  5
77A3
330
1F
100
AcDbEntity
  8
LOGO
  6
Continuous
 62
     6
100
AcDbLine
 10
1148.148649289522
 20
279.569771176454
 30
0.0
 11
1179.990632685569
 21
283.7757173870114
 31
0.0
  0
LINE
  5
77A4
330
1F
100
AcDbEntity
  8
LOGO
  6
Continuous
 62
     6
100
AcDbLine
 10
1148.148649289522
 20
267.6674266326795
 30
0.0
 11
1179.990632685569
 21
263.4614804221203
 31
0.0
  0
LINE
  5
77A5
330
1F
100
AcDbEntity
  8
LOGO
 62
     6
100
AcDbLine
 10
1944.915494080427
 20
308.5681135364723
 30
0.0
 11
1851.293935878396
 21
308.5681135364723
 31
0.0
  0
LINE
  5
77A6
330
1F
100
AcDbEntity
  8
LOGO
 62
     6
100
AcDbLine
 10
1961.733912165675
 20
229.8475136450702
 30
0.0
 11
1852.611225798559
 21
229.8475136450702
 31
0.0
  0
LINE
  5
77A7
330
1F
100
AcDbEntity
  8
LOGO
 62
     6
100
AcDbLine
 10
1944.915494080427
 20
256.0877136088698
 30
0.0
 11
1851.293935878396
 21
256.0877136088698
 31
0.0
  0
LINE
  5
77A8
330
1F
100
AcDbEntity
  8
LOGO
 62
     6
100
AcDbLine
 10
1961.733912165675
 20
165.7048026224452
 30
0.0
 11
1852.611225798559
 21
165.7048026224445
 31
0.0
  0
LINE
  5
77A9
330
1F
100
AcDbEntity
  8
LOGO
 62
     6
100
AcDbLine
 10
1852.611225798559
 20
229.8475136450702
 30
0.0
 11
1852.611225798559
 21
165.7048026224452
 31
0.0
  0
LINE
  5
77AA
330
1F
100
AcDbEntity
  8
LOGO
 62
     6
100
AcDbLine
 10
1835.062970141954
 20
229.8475136450702
 30
0.0
 11
1835.062970141954
 21
165.7048026224445
 31
0.0
  0
LINE
  5
77AB
330
1F
100
AcDbEntity
  8
LOGO
 62
     6
100
AcDbLine
 10
1747.223071357045
 20
229.8475136450702
 30
0.0
 11
1747.223071357045
 21
165.7048026224445
 31
0.0
  0
LINE
  5
77AC
330
1F
100
AcDbEntity
  8
LOGO
 62
     6
100
AcDbLine
 10
1558.434239464893
 20
229.8475136450702
 30
0.0
 11
1558.434239464893
 21
165.7048026224445
 31
0.0
  0
LINE
  5
77AD
330
1F
100
AcDbEntity
  8
LOGO
 62
     6
100
AcDbLine
 10
1441.811128514669
 20
229.8475136450702
 30
0.0
 11
1441.811128514669
 21
165.7048026224445
 31
0.0
  0
LINE
  5
77AE
330
1F
100
AcDbEntity
  8
LOGO
 62
     6
100
AcDbLine
 10
1558.434239464893
 20
165.7048026224445
 30
0.0
 11
1441.811128514669
 21
165.7048026224445
 31
0.0
  0
LINE
  5
77AF
330
1F
100
AcDbEntity
  8
LOGO
 62
     6
100
AcDbLine
 10
1835.062970141954
 20
165.7048026224445
 30
0.0
 11
1747.223071357045
 21
165.7048026224445
 31
0.0
  0
LINE
  5
77B0
330
1F
100
AcDbEntity
  8
LOGO
  6
Continuous
 62
     7
100
AcDbLine
 10
1649.896846079401
 20
282.1420197022637
 30
0.0
 11
1673.070275762725
 21
282.1420197022637
 31
0.0
  0
LINE
  5
77B1
330
1F
100
AcDbEntity
  8
LOGO
 62
     6
100
AcDbLine
 10
1586.581726169423
 20
308.5681135364723
 30
0.0
 11
1441.008760646472
 21
308.5681135364723
 31
0.0
  0
LINE
  5
77B2
330
1F
100
AcDbEntity
  8
LOGO
 62
     6
100
AcDbLine
 10
1586.581726169423
 20
256.0877136088698
 30
0.0
 11
1441.008760646472
 21
256.0877136088698
 31
0.0
  0
LINE
  5
77B3
330
1F
100
AcDbEntity
  8
LOGO
 62
     6
100
AcDbLine
 10
1441.008760646472
 20
308.5681135364723
 30
0.0
 11
1441.008760646472
 21
256.0877136088698
 31
0.0
  0
LINE
  5
77B4
330
1F
100
AcDbEntity
  8
LOGO
 62
     6
100
AcDbLine
 10
1586.581726169423
 20
308.5681135364723
 30
0.0
 11
1586.581726169423
 21
256.0877136088698
 31
0.0
  0
LINE
  5
77B5
330
1F
100
AcDbEntity
  8
LOGO
 62
     6
100
AcDbLine
 10
1513.795243407949
 20
256.0877136088698
 30
0.0
 11
1513.795243407949
 21
229.8475136450702
 31
0.0
  0
TEXT
  5
77B6
330
1F
100
AcDbEntity
  8
LOGO
  6
Continuous
 62
     7
100
AcDbText
 10
1458.643704639874
 20
267.7500247038919
 30
0.0
 40
29.15577773755656
  1
MF101
  7
CHINESET
 72
     1
 11
1516.26107493076
 21
282.3279135726703
 31
0.0
100
AcDbText
 73
     2
  0
LINE
  5
77B7
330
1F
100
AcDbEntity
  8
LOGO
 62
     6
100
AcDbLine
 10
1558.434239464893
 20
229.8475136450702
 30
0.0
 11
1441.811128514669
 21
229.8475136450702
 31
0.0
  0
LINE
  5
77B8
330
1F
100
AcDbEntity
  8
LOGO
 62
     6
100
AcDbLine
 10
1810.929660151671
 20
308.5681135364723
 30
0.0
 11
1683.901542962027
 21
308.5681135364723
 31
0.0
  0
LINE
  5
77B9
330
1F
100
AcDbEntity
  8
LOGO
 62
     6
100
AcDbLine
 10
1835.062970141954
 20
229.8475136450702
 30
0.0
 11
1747.223071357045
 21
229.8475136450702
 31
0.0
  0
LINE
  5
77BA
330
1F
100
AcDbEntity
  8
LOGO
 62
     6
100
AcDbLine
 10
1810.929660151671
 20
256.0877136088698
 30
0.0
 11
1683.901542962027
 21
256.0877136088698
 31
0.0
  0
TEXT
  5
77BB
330
1F
100
AcDbEntity
  8
LOGO
  6
Continuous
 62
     7
100
AcDbText
 10
1709.540463853373
 20
267.4193963471627
 30
0.0
 40
29.15577773755656
  1
100
  7
CHINESET
 72
     1
 11
1744.24972306475
 21
281.997285215941
 31
0.0
100
AcDbText
 73
     2
  0
LINE
  5
77BC
330
1F
100
AcDbEntity
  8
LOGO
 62
     6
100
AcDbLine
 10
1683.901542962027
 20
308.5681135364723
 30
0.0
 11
1683.901542962027
 21
256.0877136088698
 31
0.0
  0
TEXT
  5
77BD
330
1F
100
AcDbEntity
  8
LOGO
  6
Continuous
 62
     7
100
AcDbText
 10
1893.189884626078
 20
267.4193963471627
 30
0.0
 40
29.15577773755656
  1
?
  7
CHINESET
 72
     1
 11
1900.825921652581
 21
281.997285215941
 31
0.0
100
AcDbText
 73
     2
  0
LINE
  5
77BE
330
1F
100
AcDbEntity
  8
LOGO
  6
Continuous
 62
     7
100
AcDbLine
 10
1819.044831560499
 20
282.1420197022637
 30
0.0
 11
1842.218261243839
 21
282.1420197022637
 31
0.0
  0
LINE
  5
77BF
330
1F
100
AcDbEntity
  8
LOGO
 62
     6
100
AcDbLine
 10
1851.293935878396
 20
308.5681135364723
 30
0.0
 11
1851.293935878396
 21
256.0877136088698
 31
0.0
  0
LINE
  5
77C0
330
1F
100
AcDbEntity
  8
LOGO
 62
     6
100
AcDbLine
 10
1810.929660151671
 20
308.5681135364723
 30
0.0
 11
1810.929660151671
 21
256.0877136088698
 31
0.0
  0
LINE
  5
77C1
330
1F
100
AcDbEntity
  8
LOGO
 62
     6
100
AcDbLine
 10
1961.733912165675
 20
229.8475136450702
 30
0.0
 11
1961.733912165675
 21
165.7048026224452
 31
0.0
  0
LINE
  5
77C2
330
1F
100
AcDbEntity
  8
LOGO
 62
     6
100
AcDbLine
 10
1944.915494080427
 20
308.5681135364723
 30
0.0
 11
1944.915494080427
 21
256.0877136088698
 31
0.0
  0
TEXT
  5
77C3
330
1F
100
AcDbEntity
  8
LOGO
 62
     6
100
AcDbText
 10
958.2473472793234
 20
299.8299892046948
 30
1146.492984948915
 40
17.49346664253393
  1
比例 Scale:
 41
0.9
  7
CHINESET
 72
     4
 11
1013.796913452691
 21
308.5681135364723
 31
1146.492984948915
100
AcDbText
  0
TEXT
  5
77C4
330
1F
100
AcDbEntity
  8
LOGO
 62
     6
100
AcDbText
 10
964.3622510208876
 20
265.0805205463756
 30
1146.492984948915
 40
17.49346664253393
  1
投影 View:
 41
0.9
  7
CHINESET
 72
     4
 11
1013.796913452691
 21
273.5811802514029
 31
1146.492984948915
100
AcDbText
  0
TEXT
  5
77C5
330
1F
100
AcDbEntity
  8
LOGO
 62
     6
100
AcDbText
 10
966.0725497685282
 20
229.847513645069
 30
1146.492984948915
 40
17.49346664253393
  1
單位 Unit:
 41
0.9
  7
CHINESET
 72
     4
 11
1013.796913452691
 21
238.594246966336
 31
1146.492984948915
100
AcDbText
  0
TEXT
  5
77C6
330
1F
100
AcDbEntity
  8
LOGO
  6
Continuous
 62
     6
100
AcDbText
 10
1472.35527662068
 20
172.9937470568331
 30
1146.492984948915
 40
14.57788886877828
  1
Model
  7
CHINESET
 72
     4
 11
1500.122683989782
 21
180.2826914912223
 31
1146.492984948915
100
AcDbText
  0
TEXT
  5
77C7
330
1F
100
AcDbEntity
  8
LOGO
  6
Continuous
 62
     6
100
AcDbText
 10
1755.846082424505
 20
175.4233952016295
 30
1146.492984948915
 40
14.57788886877828
  1
output
  7
CHINESET
 72
     4
 11
1789.861156451655
 21
180.2826914912223
 31
1146.492984948915
100
AcDbText
  0
TEXT
  5
77C8
330
1F
100
AcDbEntity
  8
LOGO
  6
Continuous
 62
     6
100
AcDbText
 10
1884.084368798291
 20
175.4233952016295
 30
1146.492984948915
 40
14.57788886877828
  1
Option
 41
0.8
  7
CHINESET
 72
     4
 11
1909.908057651555
 21
180.2826914912223
 31
1146.492984948915
100
AcDbText
  0
TEXT
  5
77C9
330
1F
100
AcDbEntity
  8
LOGO
 62
     6
100
AcDbText
 10
1476.312132170777
 20
198.0746031027232
 30
1146.492984948915
 40
23.32462219004524
  1
型號
  7
CHINESET
 72
     4
 11
1500.122683989782
 21
209.4384692287788
 31
1146.492984948915
100
AcDbText
  0
TEXT
  5
77CA
330
1F
100
AcDbEntity
  8
LOGO
 62
     6
100
AcDbText
 10
1755.392675644729
 20
197.8584218110997
 30
1146.492984948915
 40
23.32462219004524
  1
工作力
  7
CHINESET
 72
     4
 11
1789.861156451655
 21
209.4384692287788
 31
1146.492984948915
100
AcDbText
  0
TEXT
  5
77CB
330
1F
100
AcDbEntity
  8
LOGO
 62
     6
100
AcDbText
 10
1867.748114323889
 20
197.9674690112992
 30
1146.492984948915
 40
23.32462219004524
  1
選用配件
 41
0.9
  7
CHINESET
 72
     4
 11
1909.908057651555
 21
209.4384692287788
 31
1146.492984948915
100
AcDbText
  0
LWPOLYLINE
  5
77CC
330
1F
100
AcDbEntity
  8
0
 62
     4
100
AcDbPolyline
 90
        4
 70
     1
 43
0.0
 10
815.537624837305
 20
326.0615801790059
 10
2138.023521510284
 20
326.0615801790059
 10
2138.023521510284
 20
1922.558485829988
 10
815.537624837305
 20
1922.558485829988
1001
GENIUS_GENREC_14
1002
{
1000
PYDIR
1011
815.537624837305
1021
1922.558485829988
1031
0.0
1002
}
1002
{
1000
PXDIR
1011
2138.023521510284
1021
326.0615801790059
1031
0.0
1002
}
1002
{
1000
PORI
1011
815.537624837305
1021
326.0615801790059
1031
0.0
1002
}
1002
{
1000
PINS
1011
815.537624837305
1021
326.0615801790059
1031
0.0
1002
}
1002
{
1000
PINS2
1011
2138.023521510284
1021
1922.558485829988
1031
0.0
1002
}
1002
{
1000
C
1070
     1
1002
}
1001
GENIUS_GENODEF_13
1002
{
1000
HIER
1070
     0
1002
}
1002
{
1000
MANEDIT
1070
     0
1002
}
1002
{
1000
NOSEL
1070
     0
1002
}
1002
{
1000
BEHIND
1070
     0
1002
}
1002
{
1000
OTHER
1070
     0
1002
}
1002
{
1000
REACTOR
1002
}
1001
GENIUS_GENOBJ-N-REC_13
1002
{
1000
OWNER
1000
GEN
1002
}
  0
SOLID
  5
77CD
330
1F
100
AcDbEntity
  8
LOGO
 62
     5
100
AcDbTrace
 10
833.6873772277213
 20
250.1811786181147
 30
0.0
 11
841.2510931753795
 21
250.1811786181122
 31
0.0
 12
872.8100459225489
 22
321.9060712253038
 32
0.0
 13
880.373761870207
 23
321.9060712252976
 33
0.0
  0
SOLID
  5
77CE
330
1F
100
AcDbEntity
  8
LOGO
 62
     5
100
AcDbTrace
 10
844.3809066709745
 20
250.1811786181147
 30
0.0
 11
851.9446226186328
 21
250.1811786181147
 31
0.0
 12
880.373761870207
 22
316.1680798167245
 32
0.0
 13
872.8100459225489
 23
288.434454675278
 33
0.0
  0
SOLID
  5
77CF
330
1F
100
AcDbEntity
  8
LOGO
 62
     2
100
AcDbTrace
 10
841.2510931753795
 20
250.1811786181122
 30
0.0
 11
844.3809066709745
 21
250.1811786181147
 31
0.0
 12
880.373761870207
 22
321.9060712252976
 32
0.0
 13
883.503575365802
 23
321.9060712252976
 33
0.0
  0
SOLID
  5
77D0
330
1F
100
AcDbEntity
  8
LOGO
 62
     5
100
AcDbTrace
 10
821.5608857132492
 20
224.0993994882306
 30
0.0
 11
824.1690636262374
 21
224.0993994882306
 31
0.0
 12
831.5138956335612
 22
237.1402890531704
 32
0.0
 13
834.1220735465494
 23
237.1402890531704
 33
0.0
  0
SOLID
  5
77D1
330
1F
100
AcDbEntity
  8
LOGO
 62
     5
100
AcDbTrace
 10
831.5138956335612
 20
237.1402890531704
 30
0.0
 11
834.1220735465494
 21
237.1402890531704
 31
0.0
 12
831.5138956335612
 22
224.0993994882306
 32
0.0
 13
834.1220735465494
 23
224.0993994882306
 33
0.0
  0
SOLID
  5
77D2
330
1F
100
AcDbEntity
  8
LOGO
 62
     5
100
AcDbTrace
 10
831.5138956335612
 20
224.0993994882306
 30
0.0
 11
834.1220735465494
 21
224.0993994882306
 31
0.0
 12
841.4669055538743
 22
237.1402890531704
 32
0.0
 13
844.0750834668625
 23
237.1402890531704
 33
0.0
  0
SOLID
  5
77D3
330
1F
100
AcDbEntity
  8
LOGO
 62
     5
100
AcDbTrace
 10
841.4669055538743
 20
237.1402890531704
 30
0.0
 11
844.0750834668625
 21
237.1402890531704
 31
0.0
 12
841.4669055538743
 22
224.0993994882306
 32
0.0
 13
844.0750834668625
 23
224.0993994882306
 33
0.0
  0
POLYLINE
  5
77D4
330
1F
100
AcDbEntity
  8
LOGO
 62
     5
100
AcDb2dPolyline
 66
     1
 10
0.0
 20
0.0
 30
0.0
 40
2.612357685285066
 41
2.612357685285066
  0
VERTEX
  5
77D5
330
77D4
100
AcDbEntity
  8
LOGO
 62
     5
100
AcDbVertex
100
AcDb2dVertex
 10
928.8921407102433
 20
231.923933227193
 30
0.0
 42
1.0
  0
VERTEX
  5
77D6
330
77D4
100
AcDbEntity
  8
LOGO
 62
     5
100
AcDbVertex
100
AcDb2dVertex
 10
921.055067654399
 20
231.923933227193
 30
0.0
 42
1.0
  0
SEQEND
  5
77D7
330
77D4
100
AcDbEntity
  8
LOGO
 62
     5
  0
POLYLINE
  5
77D8
330
1F
100
AcDbEntity
  8
LOGO
 62
     5
100
AcDb2dPolyline
 66
     1
 10
0.0
 20
0.0
 30
0.0
 70
     1
  0
VERTEX
  5
77D9
330
77D8
100
AcDbEntity
  8
LOGO
 62
     5
100
AcDbVertex
100
AcDb2dVertex
 10
906.2818363510896
 20
230.6198442707002
 30
0.0
 42
1.000000057330635
  0
VERTEX
  5
77DA
330
77D8
100
AcDbEntity
  8
LOGO
 62
     5
100
AcDbVertex
100
AcDb2dVertex
 10
914.1063700900685
 20
230.6198442707002
 30
0.0
 42
1.000000057330635
  0
SEQEND
  5
77DB
330
77D8
100
AcDbEntity
  8
LOGO
 62
     5
  0
CIRCLE
  5
77DC
330
1F
100
AcDbEntity
  8
LOGO
 62
     5
100
AcDbCircle
 10
910.1941032205786
 20
230.6198442707002
 30
0.0
 40
3.912266869482917
  0
POLYLINE
  5
77DD
330
1F
100
AcDbEntity
  8
LOGO
 62
     5
100
AcDb2dPolyline
 66
     1
 10
0.0
 20
0.0
 30
0.0
 70
     1
 40
2.612357685285066
 41
2.612357685285066
  0
VERTEX
  5
77DE
330
77DD
100
AcDbEntity
  8
LOGO
 62
     5
100
AcDbVertex
100
AcDb2dVertex
 10
904.9693878500047
 20
230.6198442707002
 30
0.0
 42
1.0
  0
VERTEX
  5
77DF
330
77DD
100
AcDbEntity
  8
LOGO
 62
     5
100
AcDbVertex
100
AcDb2dVertex
 10
915.4188185911534
 20
230.6198442707002
 30
0.0
 42
1.0
  0
SEQEND
  5
77E0
330
77DD
100
AcDbEntity
  8
LOGO
 62
     5
  0
LINE
  5
77E1
330
1F
100
AcDbEntity
  8
LOGO
 62
     5
100
AcDbLine
 10
930.1899600083043
 20
224.0993994882306
 30
0.0
 11
930.1899600083043
 21
231.923933227193
 31
0.0
  0
SOLID
  5
77E2
330
1F
100
AcDbEntity
  8
LOGO
 62
     5
100
AcDbTrace
 10
914.1061092722766
 20
237.1402890531704
 30
0.0
 11
916.7142871852638
 21
237.1402890531704
 31
0.0
 12
914.1061092722766
 22
224.0993994882306
 32
0.0
 13
916.7142871852638
 23
224.0993994882306
 33
0.0
  0
SOLID
  5
77E3
330
1F
100
AcDbEntity
  8
LOGO
 62
     5
100
AcDbTrace
 10
919.757248356338
 20
224.0993994882306
 30
0.0
 11
922.3654262693417
 21
224.0993994882306
 31
0.0
 12
919.757248356338
 22
237.1402890531704
 32
0.0
 13
922.3654262693417
 23
237.1402890531704
 33
0.0
  0
SOLID
  5
77E4
330
1F
100
AcDbEntity
  8
LOGO
 62
     5
100
AcDbTrace
 10
927.581782095317
 20
231.923933227193
 30
0.0
 11
930.1899600083043
 21
231.923933227193
 31
0.0
 12
927.581782095317
 22
224.0993994882306
 32
0.0
 13
930.1899600083043
 23
224.0993994882306
 33
0.0
  0
SOLID
  5
77E5
330
1F
100
AcDbEntity
  8
LOGO
 62
     5
100
AcDbTrace
 10
919.4964305650509
 20
316.1680798167245
 30
0.0
 11
911.9327146173764
 21
288.434454675278
 31
0.0
 12
919.4964305650509
 22
250.1811786181122
 32
0.0
 13
911.9327146173764
 23
250.1811786181122
 33
0.0
  0
SOLID
  5
77E6
330
1F
100
AcDbEntity
  8
LOGO
 62
     5
100
AcDbTrace
 10
922.6262440606296
 20
250.1811786181122
 30
0.0
 11
930.1899600083043
 21
250.1811786181122
 31
0.0
 12
922.6262440606296
 22
321.9060712252976
 32
0.0
 13
930.1899600083043
 23
321.9060712253038
 33
0.0
  0
SOLID
  5
77E7
330
1F
100
AcDbEntity
  8
LOGO
 62
     2
100
AcDbTrace
 10
919.4964305650509
 20
321.9060712253038
 30
0.0
 11
922.6262440606296
 21
321.9060712252976
 31
0.0
 12
919.4964305650509
 22
250.1811786181122
 32
0.0
 13
922.6262440606296
 23
250.1811786181122
 33
0.0
  0
POLYLINE
  5
77E8
330
1F
100
AcDbEntity
  8
LOGO
 62
     5
100
AcDb2dPolyline
 66
     1
 10
0.0
 20
0.0
 30
0.0
 40
2.612357685285066
 41
2.612357685285066
  0
VERTEX
  5
77E9
330
77E8
100
AcDbEntity
  8
LOGO
 62
     5
100
AcDbVertex
100
AcDb2dVertex
 10
891.5080834122136
 20
231.923933227193
 30
0.0
 42
1.0
  0
VERTEX
  5
77EA
330
77E8
100
AcDbEntity
  8
LOGO
 62
     5
100
AcDbVertex
100
AcDb2dVertex
 10
883.6710103563682
 20
231.923933227193
 30
0.0
 42
1.0
  0
SEQEND
  5
77EB
330
77E8
100
AcDbEntity
  8
LOGO
 62
     5
  0
POLYLINE
  5
77EC
330
1F
100
AcDbEntity
  8
LOGO
 62
     5
100
AcDb2dPolyline
 66
     1
 10
0.0
 20
0.0
 30
0.0
 40
2.612357685285066
 41
2.612357685285066
  0
VERTEX
  5
77ED
330
77EC
100
AcDbEntity
  8
LOGO
 62
     5
100
AcDbVertex
100
AcDb2dVertex
 10
899.3326171511744
 20
231.923933227193
 30
0.0
 42
1.0
  0
VERTEX
  5
77EE
330
77EC
100
AcDbEntity
  8
LOGO
 62
     5
100
AcDbVertex
100
AcDb2dVertex
 10
891.4955440953308
 20
231.923933227193
 30
0.0
 42
1.0
  0
SEQEND
  5
77EF
330
77EC
100
AcDbEntity
  8
LOGO
 62
     5
  0
POLYLINE
  5
77F0
330
1F
100
AcDbEntity
  8
LOGO
 62
     5
100
AcDb2dPolyline
 66
     1
 10
0.0
 20
0.0
 30
0.0
 40
2.612357685285066
 41
2.612357685285066
  0
VERTEX
  5
77F1
330
77F0
100
AcDbEntity
  8
LOGO
 62
     5
100
AcDbVertex
100
AcDb2dVertex
 10
861.9485598531454
 20
231.923933227193
 30
0.0
 42
1.0
  0
VERTEX
  5
77F2
330
77F0
100
AcDbEntity
  8
LOGO
 62
     5
100
AcDbVertex
100
AcDb2dVertex
 10
854.1114867973011
 20
231.923933227193
 30
0.0
 42
1.0
  0
SEQEND
  5
77F3
330
77F0
100
AcDbEntity
  8
LOGO
 62
     5
  0
SOLID
  5
77F4
330
1F
100
AcDbEntity
  8
LOGO
 62
     5
100
AcDbTrace
 10
852.8136674992564
 20
237.1402890531704
 30
0.0
 11
855.4218454122274
 21
237.1402890531704
 31
0.0
 12
852.8136674992564
 22
224.0993994882306
 32
0.0
 13
855.4218454122274
 23
224.0993994882306
 33
0.0
  0
SOLID
  5
77F5
330
1F
100
AcDbEntity
  8
LOGO
 62
     5
100
AcDbTrace
 10
860.6382012382173
 20
231.923933227193
 30
0.0
 11
863.2463791512055
 21
231.923933227193
 31
0.0
 12
860.6382012382173
 22
224.0993994882306
 32
0.0
 13
863.2463791512055
 23
224.0993994882306
 33
0.0
  0
POLYLINE
  5
77F6
330
1F
100
AcDbEntity
  8
LOGO
 62
     5
100
AcDb2dPolyline
 66
     1
 10
0.0
 20
0.0
 30
0.0
 70
     1
 40
2.612357685285066
 41
2.612357685285066
  0
VERTEX
  5
77F7
330
77F6
100
AcDbEntity
  8
LOGO
 62
     5
100
AcDbVertex
100
AcDb2dVertex
 10
867.5853305519741
 20
230.6198442707002
 30
0.0
 42
1.0
  0
VERTEX
  5
77F8
330
77F6
100
AcDbEntity
  8
LOGO
 62
     5
100
AcDbVertex
100
AcDb2dVertex
 10
878.0347612931219
 20
230.6198442707002
 30
0.0
 42
1.0
  0
SEQEND
  5
77F9
330
77F6
100
AcDbEntity
  8
LOGO
 62
     5
  0
SOLID
  5
77FA
330
1F
100
AcDbEntity
  8
LOGO
 62
     5
100
AcDbTrace
 10
876.7220519742458
 20
241.0525559226558
 30
0.0
 11
879.3302298872331
 21
241.0525559226558
 31
0.0
 12
876.7220519742458
 22
224.0993994882306
 32
0.0
 13
879.3302298872331
 23
224.0993994882306
 33
0.0
  0
SOLID
  5
77FB
330
1F
100
AcDbEntity
  8
LOGO
 62
     5
100
AcDbTrace
 10
882.3731910583074
 20
237.1402890531704
 30
0.0
 11
884.9813689713119
 21
237.1402890531704
 31
0.0
 12
882.3731910583074
 22
224.0993994882306
 32
0.0
 13
884.9813689713119
 23
224.0993994882306
 33
0.0
  0
SOLID
  5
77FC
330
1F
100
AcDbEntity
  8
LOGO
 62
     5
100
AcDbTrace
 10
890.1977247972864
 20
231.923933227193
 30
0.0
 11
892.8059027102726
 21
231.923933227193
 31
0.0
 12
890.1977247972864
 22
224.0993994882306
 32
0.0
 13
892.8059027102726
 23
224.0993994882306
 33
0.0
  0
SOLID
  5
77FD
330
1F
100
AcDbEntity
  8
LOGO
 62
     5
100
AcDbTrace
 10
898.0222585362499
 20
231.923933227193
 30
0.0
 11
900.6304364492352
 21
231.923933227193
 31
0.0
 12
898.0222585362499
 22
224.0993994882253
 32
0.0
 13
900.6304364492352
 23
224.0993994882253
 33
0.0
  0
SOLID
  5
77FE
330
1F
100
AcDbEntity
  8
LOGO
 62
     5
100
AcDbTrace
 10
847.1625284151778
 20
238.9660135922613
 30
0.0
 11
849.7707063281659
 21
238.9660135922613
 31
0.0
 12
847.1625284151778
 22
241.0525559226558
 32
0.0
 13
849.7707063281659
 23
241.0525559226558
 33
0.0
  0
SOLID
  5
77FF
330
1F
100
AcDbEntity
  8
LOGO
 62
     5
100
AcDbTrace
 10
847.1625284151778
 20
237.1402890531704
 30
0.0
 11
849.7707063281659
 21
237.1402890531704
 31
0.0
 12
847.1625284151778
 22
224.0993994882253
 32
0.0
 13
849.7707063281659
 23
224.0993994882306
 33
0.0
  0
SOLID
  5
7800
330
1F
100
AcDbEntity
  8
LOGO
 62
     5
100
AcDbTrace
 10
872.8100459225489
 20
250.1811786181147
 30
0.0
 11
880.373761870207
 21
250.1811786181147
 31
0.0
 12
872.8100459225489
 22
288.434454675278
 32
0.0
 13
880.373761870207
 23
316.1680798167245
 33
0.0
  0
SOLID
  5
7801
330
1F
100
AcDbEntity
  8
LOGO
 62
     5
100
AcDbTrace
 10
883.503575365802
 20
321.9060712252976
 30
0.0
 11
891.0672913134767
 21
321.9060712253038
 31
0.0
 12
883.503575365802
 22
255.9191700266879
 32
0.0
 13
891.0672913134767
 23
283.6527951681346
 33
0.0
  0
SOLID
  5
7802
330
1F
100
AcDbEntity
  8
LOGO
 62
     2
100
AcDbTrace
 10
880.373761870207
 20
321.9060712252976
 30
0.0
 11
883.503575365802
 21
321.9060712252976
 31
0.0
 12
880.373761870207
 22
250.1811786181147
 32
0.0
 13
883.503575365802
 23
250.1811786181147
 33
0.0
  0
SOLID
  5
7803
330
1F
100
AcDbEntity
  8
LOGO
 62
     5
100
AcDbTrace
 10
883.503575365802
 20
255.9191700266879
 30
0.0
 11
891.0672913134767
 21
283.6527951681346
 31
0.0
 12
919.4964305650509
 22
321.9060712253038
 32
0.0
 13
911.9327146173764
 23
321.9060712253038
 33
0.0
  0
SOLID
  5
7804
330
1F
100
AcDbEntity
  8
LOGO
 62
     5
100
AcDbTrace
 10
883.503575365802
 20
250.1811786181147
 30
0.0
 11
891.0672913134767
 21
250.1811786181147
 31
0.0
 12
919.4964305650509
 22
316.1680798167245
 32
0.0
 13
911.9327146173764
 23
288.434454675278
 33
0.0
  0
SOLID
  5
7805
330
1F
100
AcDbEntity
  8
LOGO
 62
     2
100
AcDbTrace
 10
880.373761870207
 20
250.1811786181147
 30
0.0
 11
883.503575365802
 21
250.1811786181147
 31
0.0
 12
919.4964305650509
 22
321.9060712253038
 32
0.0
 13
922.6262440606296
 23
321.9060712252976
 33
0.0
  0
TEXT
  5
7806
330
1F
100
AcDbEntity
  8
0
100
AcDbText
 10
1210.368329582321
 20
160.433368961887
 30
0.0
 40
14.58720251999999
  1
1050701
 41
0.8
  7
CHINESET
 72
     1
 11
1243.988358247464
 21
160.433368961887
 31
0.0
100
AcDbText
  0
LINE
  5
7807
330
1F
100
AcDbEntity
  8
LOGO
 62
     1
100
AcDbLine
 10
1288.995898549044
 20
186.113847038735
 30
0.0
 11
1288.995898549044
 21
151.1269137536665
 31
0.0
  0
LINE
  5
7808
330
1F
100
AcDbEntity
  8
LOGO
 62
     1
100
AcDbLine
 10
1288.995898549044
 20
186.113847038735
 30
0.0
 11
1200.393890973054
 21
186.113847038735
 31
0.0
  0
LWPOLYLINE
  5
7809
330
1F
100
AcDbEntity
  8
0
 62
     1
100
AcDbPolyline
 90
        4
 70
     1
 43
0.0
 10
815.537624837305
 20
326.0615801790059
 10
2138.023521510284
 20
326.0615801790059
 10
2138.023521510284
 20
151.1269137536665
 10
815.537624837305
 20
151.1269137536665
1001
GENIUS_GENREC_14
1002
{
1000
PYDIR
1011
815.537624837305
1021
151.1269137536665
1031
0.0
1002
}
1002
{
1000
PXDIR
1011
2138.023521510284
1021
326.0615801790059
1031
0.0
1002
}
1002
{
1000
PORI
1011
815.537624837305
1021
326.0615801790059
1031
0.0
1002
}
1002
{
1000
PINS
1011
815.537624837305
1021
326.0615801790059
1031
0.0
1002
}
1002
{
1000
PINS2
1011
2138.023521510284
1021
151.1269137536665
1031
0.0
1002
}
1002
{
1000
C
1070
     1
1002
}
1001
GENIUS_GENOBJ-N-REC_13
1002
{
1000
OWNER
1000
GEN
1002
}
1001
GENIUS_GENODEF_13
1002
{
1000
HIER
1070
     0
1002
}
1002
{
1000
MANEDIT
1070
     0
1002
}
1002
{
1000
NOSEL
1070
     0
1002
}
1002
{
1000
BEHIND
1070
     0
1002
}
1002
{
1000
OTHER
1070
     0
1002
}
1002
{
1000
REACTOR
1002
}
  0
LINE
  5
780A
330
1F
100
AcDbEntity
  8
LOGO
 62
     6
100
AcDbLine
 10
1737.81576164377
 20
229.8475136450702
 30
0.0
 11
1737.81576164377
 21
165.7048026224445
 31
0.0
  0
LINE
  5
780B
330
1F
100
AcDbEntity
  8
LOGO
 62
     6
100
AcDbLine
 10
1571.515740501471
 20
229.8475136450702
 30
0.0
 11
1571.515740501471
 21
165.7048026224445
 31
0.0
  0
LINE
  5
780C
330
1F
100
AcDbEntity
  8
LOGO
 62
     6
100
AcDbLine
 10
1737.81576164377
 20
165.7048026224445
 30
0.0
 11
1571.515740501471
 21
165.7048026224445
 31
0.0
  0
LINE
  5
780D
330
1F
100
AcDbEntity
  8
LOGO
 62
     6
100
AcDbLine
 10
1637.047827888666
 20
308.5681135364723
 30
0.0
 11
1593.55576592035
 21
308.5681135364723
 31
0.0
  0
LINE
  5
780E
330
1F
100
AcDbEntity
  8
LOGO
 62
     6
100
AcDbLine
 10
1637.047827888666
 20
256.0877136088698
 30
0.0
 11
1593.55576592035
 21
256.0877136088698
 31
0.0
  0
LINE
  5
780F
330
1F
100
AcDbEntity
  8
LOGO
 62
     6
100
AcDbLine
 10
1593.55576592035
 20
308.5681135364723
 30
0.0
 11
1593.55576592035
 21
256.0877136088698
 31
0.0
  0
LINE
  5
7810
330
1F
100
AcDbEntity
  8
LOGO
 62
     6
100
AcDbLine
 10
1637.047827888666
 20
308.5681135364723
 30
0.0
 11
1637.047827888666
 21
256.0877136088698
 31
0.0
  0
LINE
  5
7811
330
1F
100
AcDbEntity
  8
LOGO
 62
     6
100
AcDbLine
 10
1654.665751072621
 20
242.9676136269697
 30
0.0
 11
1654.665751072621
 21
229.8475136450702
 31
0.0
  0
TEXT
  5
7812
330
1F
100
AcDbEntity
  8
LOGO
  6
Continuous
 62
     7
100
AcDbText
 10
1603.014915252028
 20
267.7500247038919
 30
0.0
 40
29.15577773755656
  1
A
  7
CHINESET
 72
     1
 11
1614.121878199669
 21
282.3279135726703
 31
0.0
100
AcDbText
 73
     2
  0
LINE
  5
7813
330
1F
100
AcDbEntity
  8
LOGO
 62
     6
100
AcDbLine
 10
1737.81576164377
 20
229.8475136450702
 30
0.0
 11
1571.515740501471
 21
229.8475136450702
 31
0.0
  0
TEXT
  5
7814
330
1F
100
AcDbEntity
  8
LOGO
  6
Continuous
 62
     6
100
AcDbText
 10
1579.704314815589
 20
175.4233952016295
 30
1146.492984948915
 40
14.57788886877828
  1
Series symbol
  7
CHINESET
 72
     4
 11
1653.982129527935
 21
180.2826914912223
 31
1146.492984948915
100
AcDbText
  0
TEXT
  5
7815
330
1F
100
AcDbEntity
  8
LOGO
 62
     6
100
AcDbText
 10
1606.361025889926
 20
198.0746031027232
 30
1146.492984948915
 40
23.32462219004524
  1
系列編號
  7
CHINESET
 72
     4
 11
1653.982129527935
 21
209.4384692287788
 31
1146.492984948915
100
AcDbText
  0
LINE
  5
7816
330
1F
100
AcDbEntity
  8
LOGO
 62
     6
100
AcDbLine
 10
1654.665751072621
 20
242.9676136269697
 30
0.0
 11
1615.301796904509
 21
242.9676136269697
 31
0.0
  0
LINE
  5
7817
330
1F
100
AcDbEntity
  8
LOGO
 62
     6
100
AcDbLine
 10
1615.301796904509
 20
256.0877136088698
 30
0.0
 11
1615.301796904509
 21
242.9676136269697
 31
0.0
  0
LINE
  5
7818
330
1F
100
AcDbEntity
  8
LOGO
 62
     6
100
AcDbLine
 10
1791.1430207495
 20
242.9676136269697
 30
0.0
 11
1791.1430207495
 21
229.8475136450702
 31
0.0
  0
LINE
  5
7819
330
1F
100
AcDbEntity
  8
LOGO
 62
     6
100
AcDbLine
 10
1791.1430207495
 20
242.9676136269697
 30
0.0
 11
1747.415601556849
 21
242.9676136269697
 31
0.0
  0
LINE
  5
781A
330
1F
100
AcDbEntity
  8
LOGO
 62
     6
100
AcDbLine
 10
1747.41560155685
 20
256.0877136088698
 30
0.0
 11
1747.415601556849
 21
242.9676136269697
 31
0.0
  0
LINE
  5
781B
330
1F
100
AcDbEntity
  8
LOGO
 62
     6
100
AcDbLine
 10
1898.104714979411
 20
256.0877136088698
 30
0.0
 11
1898.104714979411
 21
229.8475136450702
 31
0.0
  0
LINE
  5
78C0
330
1F
100
AcDbEntity
  8
圖層4尺寸線
100
AcDbLine
 10
1259.462785469704
 20
1006.569537186454
 30
0.0
 11
1221.462785469703
 21
1006.569537186454
 31
0.0
  0
LINE
  5
78C1
330
1F
100
AcDbEntity
  8
圖層4尺寸線
100
AcDbLine
 10
1259.462785469704
 20
1018.569537186454
 30
0.0
 11
1221.462785469703
 21
1018.569537186454
 31
0.0
  0
LINE
  5
78C2
330
1F
100
AcDbEntity
  8
圖層4尺寸線
100
AcDbLine
 10
1265.462785469704
 20
997.569537186454
 30
0.0
 11
1215.462785469704
 21
997.569537186454
 31
0.0
  0
LINE
  5
78C3
330
1F
100
AcDbEntity
  8
圖層4尺寸線
100
AcDbLine
 10
1265.462785469704
 20
1022.569537186454
 30
0.0
 11
1215.462785469704
 21
1022.569537186454
 31
0.0
  0
TEXT
  5
78C4
330
1F
100
AcDbEntity
  8
圖層4尺寸線
100
AcDbText
 10
1204.498151740504
 20
914.5793953067665
 30
0.0
 40
5.0
  1
電源開關       緊急停止
  7
WIN
 72
     4
 11
1241.031581973062
 21
916.8177673997897
 31
0.0
100
AcDbText
  0
LWPOLYLINE
  5
78C5
330
1F
100
AcDbEntity
  8
圖層4尺寸線
100
AcDbPolyline
 90
        4
 70
     1
 43
0.0
 10
1197.163870605132
 20
923.2913257322383
 10
1284.899293340991
 20
923.2913257322383
 10
1284.899293340991
 20
910.3442090673407
 10
1197.163870605132
 20
910.3442090673407
  0
LINE
  5
78C6
330
1F
100
AcDbEntity
  8
圖層4尺寸線
100
AcDbLine
 10
1230.054979109158
 20
943.2639066570741
 30
0.0
 11
1238.449936637849
 21
951.8054830293904
 31
0.0
  0
LINE
  5
78C7
330
1F
100
AcDbEntity
  8
圖層4尺寸線
100
AcDbLine
 10
1222.462785469703
 20
929.5695371864539
 30
0.0
 11
1258.462785469704
 21
929.5695371864539
 31
0.0
  0
LINE
  5
78C8
330
1F
100
AcDbEntity
  8
圖層4尺寸線
100
AcDbLine
 10
1222.462785469703
 20
977.5695371864539
 30
0.0
 11
1258.462785469704
 21
977.5695371864539
 31
0.0
  0
CIRCLE
  5
78C9
330
1F
100
AcDbEntity
  8
圖層4尺寸線
100
AcDbCircle
 10
1240.462785469704
 20
956.569537186454
 30
0.0
 40
5.0
  0
CIRCLE
  5
78CA
330
1F
100
AcDbEntity
  8
圖層4尺寸線
100
AcDbCircle
 10
1240.462785469704
 20
956.569537186454
 30
0.0
 40
17.0
  0
CIRCLE
  5
78CB
330
1F
100
AcDbEntity
  8
圖層4尺寸線
100
AcDbCircle
 10
1240.462785469704
 20
1042.569537186454
 30
0.0
 40
5.0
  0
LINE
  5
78CC
330
1F
100
AcDbEntity
  8
圖層4尺寸線
100
AcDbLine
 10
1218.462785469704
 20
981.569537186454
 30
0.0
 11
1262.462785469703
 21
981.569537186454
 31
0.0
  0
LINE
  5
78CD
330
1F
100
AcDbEntity
  8
圖層4尺寸線
100
AcDbLine
 10
1218.462785469704
 20
925.569537186454
 30
0.0
 11
1262.462785469703
 21
925.569537186454
 31
0.0
  0
LINE
  5
78CE
330
1F
100
AcDbEntity
  8
圖層4尺寸線
100
AcDbLine
 10
1292.462785469704
 20
1062.569537186454
 30
0.0
 11
1188.462785469703
 21
1062.569537186454
 31
0.0
  0
LINE
  5
78CF
330
1F
100
AcDbEntity
  8
圖層4尺寸線
100
AcDbLine
 10
1188.462785469703
 20
860.5695371864539
 30
0.0
 11
1292.462785469704
 21
860.5695371864539
 31
0.0
  0
LINE
  5
78D0
330
1F
100
AcDbEntity
  8
圖層4尺寸線
100
AcDbLine
 10
1222.462785469703
 20
929.5695371864539
 30
0.0
 11
1222.462785469703
 21
977.5695371864539
 31
0.0
  0
LINE
  5
78D1
330
1F
100
AcDbEntity
  8
圖層4尺寸線
100
AcDbLine
 10
1218.462785469704
 20
925.569537186454
 30
0.0
 11
1218.462785469704
 21
981.569537186454
 31
0.0
  0
LINE
  5
78D2
330
1F
100
AcDbEntity
  8
圖層4尺寸線
100
AcDbLine
 10
1188.462785469703
 20
1062.569537186454
 30
0.0
 11
1188.462785469703
 21
860.5695371864539
 31
0.0
  0
LINE
  5
78D3
330
1F
100
AcDbEntity
  8
圖層4尺寸線
100
AcDbLine
 10
1221.378823434523
 20
891.2743226770325
 30
0.0
 11
1222.350836089463
 21
887.2526368705266
 31
0.0
  0
LINE
  5
78D4
330
1F
100
AcDbEntity
  8
圖層4尺寸線
100
AcDbLine
 10
1215.546747504884
 20
891.2743226770325
 30
0.0
 11
1214.574734849944
 21
887.2526368705266
 31
0.0
  0
CIRCLE
  5
78D5
330
1F
100
AcDbEntity
  8
圖層4尺寸線
100
AcDbCircle
 10
1218.462785469704
 20
886.3129228830889
 30
0.0
 40
4.0
  0
ARC
  5
78D6
330
1F
100
AcDbEntity
  8
圖層4尺寸線
100
AcDbCircle
 10
1218.462785469704
 20
890.569537186454
 30
0.0
 40
12.0
100
AcDbArc
 50
131.8103148958026
 51
228.1896851041974
  0
ARC
  5
78D7
330
1F
100
AcDbEntity
  8
圖層4尺寸線
100
AcDbCircle
 10
1218.462785469704
 20
890.569537186454
 30
0.0
 40
12.0
100
AcDbArc
 50
311.8103148958026
 51
48.18968510419736
  0
LWPOLYLINE
  5
78D8
330
1F
100
AcDbEntity
  8
圖層4尺寸線
100
AcDbPolyline
 90
        7
 70
     0
 43
0.0
 10
1222.059907019605
 20
884.5634325129426
 10
1225.462785469703
 20
886.5280853021268
 10
1225.462785469703
 20
894.6109890707813
 10
1218.462785469704
 20
898.6524409551089
 10
1211.462785469703
 20
894.6109890707813
 10
1211.462785469703
 20
886.5280853021268
 10
1214.865663919802
 20
884.5634325129426
  0
ARC
  5
78D9
330
1F
100
AcDbEntity
  8
圖層4尺寸線
100
AcDbCircle
 10
1218.462785469704
 20
890.569537186454
 30
0.0
 40
7.0
100
AcDbArc
 50
300.9291072523213
 51
239.0708927476787
  0
ARC
  5
78DA
330
1F
100
AcDbEntity
  8
圖層4尺寸線
100
AcDbCircle
 10
1218.462785469704
 20
890.569537186454
 30
0.0
 40
6.0
100
AcDbArc
 50
311.7321013757284
 51
228.2678986242717
  0
ARC
  5
78DB
330
1F
100
AcDbEntity
  8
圖層4尺寸線
100
AcDbCircle
 10
1196.462785469703
 20
873.569537186454
 30
0.0
 40
2.0
100
AcDbArc
 50
239.9999999999995
 51
300.0000000000005
  0
ARC
  5
78DC
330
1F
100
AcDbEntity
  8
圖層4尺寸線
100
AcDbCircle
 10
1196.462785469703
 20
873.569537186454
 30
0.0
 40
2.0
100
AcDbArc
 50
59.99999999999946
 51
120.0000000000005
  0
CIRCLE
  5
78DD
330
1F
100
AcDbEntity
  8
圖層4尺寸線
100
AcDbCircle
 10
1196.462785469703
 20
873.569537186454
 30
0.0
 40
4.0
  0
LINE
  5
78DE
330
1F
100
AcDbEntity
  8
圖層4尺寸線
100
AcDbLine
 10
1195.462785469703
 20
874.569537186454
 30
0.0
 11
1195.462785469703
 21
875.301587994023
 31
0.0
  0
LINE
  5
78DF
330
1F
100
AcDbEntity
  8
圖層4尺寸線
100
AcDbLine
 10
1195.462785469703
 20
871.8374863788849
 30
0.0
 11
1195.462785469703
 21
872.569537186454
 31
0.0
  0
LINE
  5
78E0
330
1F
100
AcDbEntity
  8
圖層4尺寸線
100
AcDbLine
 10
1195.462785469703
 20
874.569537186454
 30
0.0
 11
1193.108683503454
 21
874.569537186454
 31
0.0
  0
LINE
  5
78E1
330
1F
100
AcDbEntity
  8
圖層4尺寸線
100
AcDbLine
 10
1195.462785469703
 20
872.569537186454
 30
0.0
 11
1193.108683503454
 21
872.569537186454
 31
0.0
  0
ARC
  5
78E2
330
1F
100
AcDbEntity
  8
圖層4尺寸線
100
AcDbCircle
 10
1196.462785469703
 20
873.569537186454
 30
0.0
 40
3.5
100
AcDbArc
 50
163.398450400989
 51
196.6015495990109
  0
TEXT
  5
78E3
330
1F
100
AcDbEntity
  8
圖層4尺寸線
100
AcDbText
 10
1213.334878492959
 20
876.7730255585471
 30
0.0
 40
4.0
  1
OFF
  7
WIN
 72
     4
 11
1218.462785469704
 21
878.5695371864539
 31
0.0
100
AcDbText
  0
LINE
  5
78E4
330
1F
100
AcDbEntity
  8
圖層4尺寸線
100
AcDbLine
 10
1213.462785469703
 20
873.569537186454
 30
0.0
 11
1223.462785469704
 21
873.569537186454
 31
0.0
  0
LINE
  5
78E5
330
1F
100
AcDbEntity
  8
圖層4尺寸線
100
AcDbLine
 10
1210.462785469704
 20
880.3714981592683
 30
0.0
 11
1210.462785469704
 21
876.569537186454
 31
0.0
  0
LINE
  5
78E6
330
1F
100
AcDbEntity
  8
圖層4尺寸線
100
AcDbLine
 10
1197.462785469703
 20
874.569537186454
 30
0.0
 11
1197.462785469703
 21
875.301587994023
 31
0.0
  0
LINE
  5
78E7
330
1F
100
AcDbEntity
  8
圖層4尺寸線
100
AcDbLine
 10
1197.462785469703
 20
871.8374863788849
 30
0.0
 11
1197.462785469703
 21
872.569537186454
 31
0.0
  0
LINE
  5
78E8
330
1F
100
AcDbEntity
  8
圖層4尺寸線
100
AcDbLine
 10
1199.816887435953
 20
872.569537186454
 30
0.0
 11
1197.462785469703
 21
872.569537186454
 31
0.0
  0
LINE
  5
78E9
330
1F
100
AcDbEntity
  8
圖層4尺寸線
100
AcDbLine
 10
1199.816887435953
 20
874.569537186454
 30
0.0
 11
1197.462785469703
 21
874.569537186454
 31
0.0
  0
ARC
  5
78EA
330
1F
100
AcDbEntity
  8
圖層4尺寸線
100
AcDbCircle
 10
1196.462785469703
 20
873.569537186454
 30
0.0
 40
3.5
100
AcDbArc
 50
343.3984504009891
 51
16.60154959901094
  0
ARC
  5
78EB
330
1F
100
AcDbEntity
  8
圖層4尺寸線
100
AcDbCircle
 10
1213.462785469703
 20
876.569537186454
 30
0.0
 40
3.0
100
AcDbArc
 50
180.0
 51
270.0
  0
ARC
  5
78EC
330
1F
100
AcDbEntity
  8
圖層4尺寸線
100
AcDbCircle
 10
1207.462785469704
 20
880.3714981592683
 30
0.0
 40
3.0
100
AcDbArc
 50
0.0
 51
42.83342806604767
  0
ARC
  5
78ED
330
1F
100
AcDbEntity
  8
圖層4尺寸線
100
AcDbCircle
 10
1207.462785469704
 20
880.3714981592683
 30
0.0
 40
3.0
100
AcDbArc
 50
0.0
 51
42.83342806604767
  0
LINE
  5
78EE
330
1F
100
AcDbEntity
  8
圖層4尺寸線
100
AcDbLine
 10
1226.462785469704
 20
880.3714981592683
 30
0.0
 11
1226.462785469704
 21
876.569537186454
 31
0.0
  0
ARC
  5
78EF
330
1F
100
AcDbEntity
  8
圖層4尺寸線
100
AcDbCircle
 10
1223.462785469704
 20
876.569537186454
 30
0.0
 40
3.0
100
AcDbArc
 50
270.0
 51
0.0
  0
ARC
  5
78F0
330
1F
100
AcDbEntity
  8
圖層4尺寸線
100
AcDbCircle
 10
1229.462785469704
 20
880.3714981592683
 30
0.0
 40
3.0
100
AcDbArc
 50
137.1665719339523
 51
180.0
  0
ARC
  5
78F1
330
1F
100
AcDbEntity
  8
圖層4尺寸線
100
AcDbCircle
 10
1223.462785469704
 20
904.5695371864539
 30
0.0
 40
3.0
100
AcDbArc
 50
0.0
 51
90.0
  0
ARC
  5
78F2
330
1F
100
AcDbEntity
  8
圖層4尺寸線
100
AcDbCircle
 10
1213.462785469703
 20
904.5695371864539
 30
0.0
 40
3.0
100
AcDbArc
 50
90.0
 51
180.0
  0
TEXT
  5
78F3
330
1F
100
AcDbEntity
  8
圖層4尺寸線
100
AcDbText
 10
1214.427901748773
 20
900.7730255585469
 30
0.0
 40
4.0
  1
ON
  7
WIN
 72
     4
 11
1218.462785469704
 21
902.5695371864539
 31
0.0
100
AcDbText
  0
LINE
  5
78F4
330
1F
100
AcDbEntity
  8
圖層4尺寸線
100
AcDbLine
 10
1213.462785469703
 20
907.569537186454
 30
0.0
 11
1223.462785469704
 21
907.569537186454
 31
0.0
  0
ARC
  5
78F5
330
1F
100
AcDbEntity
  8
圖層4尺寸線
100
AcDbCircle
 10
1218.462785469704
 20
890.569537186454
 30
0.0
 40
3.0
100
AcDbArc
 50
13.58740794754771
 51
166.4125920524523
  0
ARC
  5
78F6
330
1F
100
AcDbEntity
  8
圖層4尺寸線
100
AcDbCircle
 10
1207.462785469704
 20
900.7675762136395
 30
0.0
 40
3.0
100
AcDbArc
 50
317.1665719339523
 51
0.0
  0
LINE
  5
78F7
330
1F
100
AcDbEntity
  8
圖層4尺寸線
100
AcDbLine
 10
1210.462785469704
 20
904.5695371864539
 30
0.0
 11
1210.462785469704
 21
900.7675762136395
 31
0.0
  0
ARC
  5
78F8
330
1F
100
AcDbEntity
  8
圖層4尺寸線
100
AcDbCircle
 10
1229.462785469704
 20
900.7675762136395
 30
0.0
 40
3.0
100
AcDbArc
 50
180.0
 51
222.8334280660476
  0
LINE
  5
78F9
330
1F
100
AcDbEntity
  8
圖層4尺寸線
100
AcDbLine
 10
1226.462785469704
 20
904.5695371864539
 30
0.0
 11
1226.462785469704
 21
900.7675762136395
 31
0.0
  0
LINE
  5
78FA
330
1F
100
AcDbEntity
  8
圖層4尺寸線
100
AcDbLine
 10
1236.189755884355
 20
953.4171015780112
 30
0.0
 11
1230.054979109158
 21
943.2639066570741
 31
0.0
  0
LWPOLYLINE
  5
78FB
330
1F
100
AcDbEntity
  8
圖層4尺寸線
100
AcDbPolyline
 90
        4
 70
     1
 43
0.0
 10
1224.462785469704
 20
931.569537186454
 10
1230.462785469703
 20
931.569537186454
 10
1230.462785469703
 20
937.5695371864539
 10
1224.462785469704
 20
937.5695371864539
  0
CIRCLE
  5
78FC
330
1F
100
AcDbEntity
  8
圖層4尺寸線
100
AcDbCircle
 10
1196.462785469703
 20
1049.569537186454
 30
0.0
 40
4.0
  0
LINE
  5
78FD
330
1F
100
AcDbEntity
  8
圖層4尺寸線
100
AcDbLine
 10
1221.462785469703
 20
1018.569537186454
 30
0.0
 11
1221.462785469703
 21
1006.569537186454
 31
0.0
  0
LINE
  5
78FE
330
1F
100
AcDbEntity
  8
圖層4尺寸線
100
AcDbLine
 10
1215.462785469704
 20
1022.569537186454
 30
0.0
 11
1215.462785469704
 21
997.569537186454
 31
0.0
  0
ARC
  5
78FF
330
1F
100
AcDbEntity
  8
圖層4尺寸線
100
AcDbCircle
 10
1196.462785469703
 20
1049.569537186454
 30
0.0
 40
2.0
100
AcDbArc
 50
59.99999999999946
 51
120.0000000000005
  0
ARC
  5
7900
330
1F
100
AcDbEntity
  8
圖層4尺寸線
100
AcDbCircle
 10
1196.462785469703
 20
1049.569537186454
 30
0.0
 40
2.0
100
AcDbArc
 50
239.9999999999995
 51
300.0000000000005
  0
ARC
  5
7901
330
1F
100
AcDbEntity
  8
圖層4尺寸線
100
AcDbCircle
 10
1196.462785469703
 20
1049.569537186454
 30
0.0
 40
3.5
100
AcDbArc
 50
163.398450400989
 51
196.6015495990109
  0
LINE
  5
7902
330
1F
100
AcDbEntity
  8
圖層4尺寸線
100
AcDbLine
 10
1195.462785469703
 20
1048.569537186454
 30
0.0
 11
1195.462785469703
 21
1047.837486378885
 31
0.0
  0
LINE
  5
7903
330
1F
100
AcDbEntity
  8
圖層4尺寸線
100
AcDbLine
 10
1195.462785469703
 20
1048.569537186454
 30
0.0
 11
1193.108683503454
 21
1048.569537186454
 31
0.0
  0
LINE
  5
7904
330
1F
100
AcDbEntity
  8
圖層4尺寸線
100
AcDbLine
 10
1195.462785469703
 20
1050.569537186454
 30
0.0
 11
1193.108683503454
 21
1050.569537186454
 31
0.0
  0
LINE
  5
7905
330
1F
100
AcDbEntity
  8
圖層4尺寸線
100
AcDbLine
 10
1195.462785469703
 20
1051.301587994023
 30
0.0
 11
1195.462785469703
 21
1050.569537186454
 31
0.0
  0
ARC
  5
7906
330
1F
100
AcDbEntity
  8
圖層4尺寸線
100
AcDbCircle
 10
1196.462785469703
 20
1049.569537186454
 30
0.0
 40
3.5
100
AcDbArc
 50
343.3984504009891
 51
16.60154959901094
  0
LINE
  5
7907
330
1F
100
AcDbEntity
  8
圖層4尺寸線
100
AcDbLine
 10
1197.462785469703
 20
1048.569537186454
 30
0.0
 11
1197.462785469703
 21
1047.837486378885
 31
0.0
  0
LINE
  5
7908
330
1F
100
AcDbEntity
  8
圖層4尺寸線
100
AcDbLine
 10
1197.462785469703
 20
1051.301587994023
 30
0.0
 11
1197.462785469703
 21
1050.569537186454
 31
0.0
  0
LINE
  5
7909
330
1F
100
AcDbEntity
  8
圖層4尺寸線
100
AcDbLine
 10
1199.816887435953
 20
1048.569537186454
 30
0.0
 11
1197.462785469703
 21
1048.569537186454
 31
0.0
  0
LINE
  5
790A
330
1F
100
AcDbEntity
  8
圖層4尺寸線
100
AcDbLine
 10
1199.816887435953
 20
1050.569537186454
 30
0.0
 11
1197.462785469703
 21
1050.569537186454
 31
0.0
  0
LINE
  5
790B
330
1F
100
AcDbEntity
  8
圖層4尺寸線
100
AcDbLine
 10
1258.462785469704
 20
929.5695371864539
 30
0.0
 11
1258.462785469704
 21
977.5695371864539
 31
0.0
  0
LINE
  5
790C
330
1F
100
AcDbEntity
  8
圖層4尺寸線
100
AcDbLine
 10
1262.462785469703
 20
925.569537186454
 30
0.0
 11
1262.462785469703
 21
981.569537186454
 31
0.0
  0
LINE
  5
790D
330
1F
100
AcDbEntity
  8
圖層4尺寸線
100
AcDbLine
 10
1292.462785469704
 20
860.5695371864539
 30
0.0
 11
1292.462785469704
 21
1062.569537186454
 31
0.0
  0
LINE
  5
790E
330
1F
100
AcDbEntity
  8
圖層4尺寸線
100
AcDbLine
 10
1262.462785469703
 20
887.5695371864539
 30
0.0
 11
1262.462785469703
 21
893.5695371864539
 31
0.0
  0
CIRCLE
  5
790F
330
1F
100
AcDbEntity
  8
圖層4尺寸線
100
AcDbCircle
 10
1262.462785469703
 20
890.569537186454
 30
0.0
 40
8.110805357093454
  0
CIRCLE
  5
7910
330
1F
100
AcDbEntity
  8
圖層4尺寸線
100
AcDbCircle
 10
1262.462785469703
 20
890.569537186454
 30
0.0
 40
7.0
  0
LINE
  5
7911
330
1F
100
AcDbEntity
  8
圖層4尺寸線
100
AcDbLine
 10
1285.462785469704
 20
872.569537186454
 30
0.0
 11
1287.816887435953
 21
872.569537186454
 31
0.0
  0
LINE
  5
7912
330
1F
100
AcDbEntity
  8
圖層4尺寸線
100
AcDbLine
 10
1285.462785469704
 20
874.569537186454
 30
0.0
 11
1287.816887435953
 21
874.569537186454
 31
0.0
  0
CIRCLE
  5
7913
330
1F
100
AcDbEntity
  8
圖層4尺寸線
100
AcDbCircle
 10
1284.462785469704
 20
873.569537186454
 30
0.0
 40
4.0
  0
LINE
  5
7914
330
1F
100
AcDbEntity
  8
圖層4尺寸線
100
AcDbLine
 10
1285.462785469704
 20
871.8374863788849
 30
0.0
 11
1285.462785469704
 21
872.569537186454
 31
0.0
  0
LINE
  5
7915
330
1F
100
AcDbEntity
  8
圖層4尺寸線
100
AcDbLine
 10
1285.462785469704
 20
874.569537186454
 30
0.0
 11
1285.462785469704
 21
875.301587994023
 31
0.0
  0
ARC
  5
7916
330
1F
100
AcDbEntity
  8
圖層4尺寸線
100
AcDbCircle
 10
1284.462785469704
 20
873.569537186454
 30
0.0
 40
3.5
100
AcDbArc
 50
163.398450400989
 51
196.6015495990109
  0
LINE
  5
7917
330
1F
100
AcDbEntity
  8
圖層4尺寸線
100
AcDbLine
 10
1281.108683503454
 20
874.569537186454
 30
0.0
 11
1283.462785469704
 21
874.569537186454
 31
0.0
  0
LINE
  5
7918
330
1F
100
AcDbEntity
  8
圖層4尺寸線
100
AcDbLine
 10
1281.108683503454
 20
872.569537186454
 30
0.0
 11
1283.462785469704
 21
872.569537186454
 31
0.0
  0
LINE
  5
7919
330
1F
100
AcDbEntity
  8
圖層4尺寸線
100
AcDbLine
 10
1283.462785469704
 20
871.8374863788849
 30
0.0
 11
1283.462785469704
 21
872.569537186454
 31
0.0
  0
LINE
  5
791A
330
1F
100
AcDbEntity
  8
圖層4尺寸線
100
AcDbLine
 10
1283.462785469704
 20
874.569537186454
 30
0.0
 11
1283.462785469704
 21
875.301587994023
 31
0.0
  0
ARC
  5
791B
330
1F
100
AcDbEntity
  8
圖層4尺寸線
100
AcDbCircle
 10
1284.462785469704
 20
873.569537186454
 30
0.0
 40
2.0
100
AcDbArc
 50
59.99999999999946
 51
120.0000000000005
  0
ARC
  5
791C
330
1F
100
AcDbEntity
  8
圖層4尺寸線
100
AcDbCircle
 10
1284.462785469704
 20
873.569537186454
 30
0.0
 40
2.0
100
AcDbArc
 50
239.9999999999995
 51
300.0000000000005
  0
ARC
  5
791D
330
1F
100
AcDbEntity
  8
圖層4尺寸線
100
AcDbCircle
 10
1284.462785469704
 20
873.569537186454
 30
0.0
 40
3.5
100
AcDbArc
 50
343.3984504009891
 51
16.60154959901094
  0
LINE
  5
791E
330
1F
100
AcDbEntity
  8
圖層4尺寸線
100
AcDbLine
 10
1259.462785469704
 20
890.569537186454
 30
0.0
 11
1265.462785469704
 21
890.569537186454
 31
0.0
  0
LWPOLYLINE
  5
791F
330
1F
100
AcDbEntity
  8
圖層4尺寸線
100
AcDbPolyline
 90
        4
 70
     1
 43
0.0
 10
1250.462785469704
 20
931.569537186454
 10
1256.462785469703
 20
931.569537186454
 10
1256.462785469703
 20
937.5695371864539
 10
1250.462785469704
 20
937.5695371864539
  0
CIRCLE
  5
7920
330
1F
100
AcDbEntity
  8
圖層4尺寸線
100
AcDbCircle
 10
1284.462785469704
 20
1049.569537186454
 30
0.0
 40
4.0
  0
LINE
  5
7921
330
1F
100
AcDbEntity
  8
圖層4尺寸線
100
AcDbLine
 10
1259.462785469704
 20
1006.569537186454
 30
0.0
 11
1259.462785469704
 21
1018.569537186454
 31
0.0
  0
LINE
  5
7922
330
1F
100
AcDbEntity
  8
圖層4尺寸線
100
AcDbLine
 10
1265.462785469704
 20
997.569537186454
 30
0.0
 11
1265.462785469704
 21
1022.569537186454
 31
0.0
  0
LINE
  5
7923
330
1F
100
AcDbEntity
  8
圖層4尺寸線
100
AcDbLine
 10
1253.493599878684
 20
1000.785293709292
 30
0.0
 11
1261.787100168477
 21
1000.785293709292
 31
0.0
  0
LINE
  5
7924
330
1F
100
AcDbEntity
  8
圖層4尺寸線
100
AcDbLine
 10
1253.493599878684
 20
1002.785293709291
 30
0.0
 11
1261.787100168477
 21
1002.785293709291
 31
0.0
  0
LINE
  5
7925
330
1F
100
AcDbEntity
  8
圖層4尺寸線
100
AcDbLine
 10
1263.868762976437
 20
998.569537186454
 30
0.0
 11
1251.207278003937
 21
998.569537186454
 31
0.0
  0
LINE
  5
7926
330
1F
100
AcDbEntity
  8
圖層4尺寸線
100
AcDbLine
 10
1251.207278003937
 20
1005.001050232129
 30
0.0
 11
1263.868762976436
 21
1005.001050232129
 31
0.0
  0
LINE
  5
7927
330
1F
100
AcDbEntity
  8
圖層4尺寸線
100
AcDbLine
 10
1254.643881826479
 20
1000.261105873288
 30
0.0
 11
1254.643881826479
 21
999.2611058732881
 31
0.0
  0
ARC
  5
7928
330
1F
100
AcDbEntity
  8
圖層4尺寸線
100
AcDbCircle
 10
1254.643881826479
 20
1001.785293709291
 30
0.0
 40
1.52418783600342
100
AcDbArc
 50
90.0
 51
270.0
  0
ARC
  5
7929
330
1F
100
AcDbEntity
  8
圖層4尺寸線
100
AcDbCircle
 10
1254.643881826479
 20
1001.785293709291
 30
0.0
 40
2.52418783600342
100
AcDbArc
 50
90.0
 51
270.0
  0
LINE
  5
792A
330
1F
100
AcDbEntity
  8
圖層4尺寸線
100
AcDbLine
 10
1254.643881826479
 20
1004.309481545295
 30
0.0
 11
1254.643881826479
 21
1003.309481545295
 31
0.0
  0
LINE
  5
792B
330
1F
100
AcDbEntity
  8
圖層4尺寸線
100
AcDbLine
 10
1251.207278003937
 20
998.569537186454
 30
0.0
 11
1251.207278003937
 21
1005.001050232129
 31
0.0
  0
LINE
  5
792C
330
1F
100
AcDbEntity
  8
圖層4尺寸線
100
AcDbLine
 10
1260.636818220683
 20
1000.261105873288
 30
0.0
 11
1260.636818220683
 21
999.2611058732881
 31
0.0
  0
ARC
  5
792D
330
1F
100
AcDbEntity
  8
圖層4尺寸線
100
AcDbCircle
 10
1260.636818220683
 20
1001.785293709291
 30
0.0
 40
1.52418783600342
100
AcDbArc
 50
270.0
 51
90.0
  0
ARC
  5
792E
330
1F
100
AcDbEntity
  8
圖層4尺寸線
100
AcDbCircle
 10
1260.636818220683
 20
1001.785293709291
 30
0.0
 40
2.52418783600342
100
AcDbArc
 50
270.0
 51
90.0
  0
LINE
  5
792F
330
1F
100
AcDbEntity
  8
圖層4尺寸線
100
AcDbLine
 10
1260.636818220683
 20
1004.309481545295
 30
0.0
 11
1260.636818220683
 21
1003.309481545295
 31
0.0
  0
LINE
  5
7930
330
1F
100
AcDbEntity
  8
圖層4尺寸線
100
AcDbLine
 10
1263.868762976436
 20
1005.001050232129
 30
0.0
 11
1263.868762976437
 21
998.569537186454
 31
0.0
  0
LINE
  5
7931
330
1F
100
AcDbEntity
  8
圖層4尺寸線
100
AcDbLine
 10
1240.462785469704
 20
1039.569537186454
 30
0.0
 11
1240.462785469704
 21
1045.569537186454
 31
0.0
  0
LINE
  5
7932
330
1F
100
AcDbEntity
  8
圖層4尺寸線
100
AcDbLine
 10
1237.462785469704
 20
1042.569537186454
 30
0.0
 11
1243.462785469704
 21
1042.569537186454
 31
0.0
  0
CIRCLE
  5
7933
330
1F
100
AcDbEntity
  8
圖層4尺寸線
100
AcDbCircle
 10
1240.462785469704
 20
1042.569537186454
 30
0.0
 40
3.0
  0
LINE
  5
7934
330
1F
100
AcDbEntity
  8
圖層4尺寸線
100
AcDbLine
 10
1285.462785469704
 20
1048.569537186454
 30
0.0
 11
1287.816887435953
 21
1048.569537186454
 31
0.0
  0
LINE
  5
7935
330
1F
100
AcDbEntity
  8
圖層4尺寸線
100
AcDbLine
 10
1285.462785469704
 20
1050.569537186454
 30
0.0
 11
1287.816887435953
 21
1050.569537186454
 31
0.0
  0
LINE
  5
7936
330
1F
100
AcDbEntity
  8
圖層4尺寸線
100
AcDbLine
 10
1283.462785469704
 20
1048.569537186454
 30
0.0
 11
1283.462785469704
 21
1047.837486378885
 31
0.0
  0
LINE
  5
7937
330
1F
100
AcDbEntity
  8
圖層4尺寸線
100
AcDbLine
 10
1283.462785469704
 20
1051.301587994023
 30
0.0
 11
1283.462785469704
 21
1050.569537186454
 31
0.0
  0
LINE
  5
7938
330
1F
100
AcDbEntity
  8
圖層4尺寸線
100
AcDbLine
 10
1281.108683503454
 20
1050.569537186454
 30
0.0
 11
1283.462785469704
 21
1050.569537186454
 31
0.0
  0
LINE
  5
7939
330
1F
100
AcDbEntity
  8
圖層4尺寸線
100
AcDbLine
 10
1281.108683503454
 20
1048.569537186454
 30
0.0
 11
1283.462785469704
 21
1048.569537186454
 31
0.0
  0
ARC
  5
793A
330
1F
100
AcDbEntity
  8
圖層4尺寸線
100
AcDbCircle
 10
1284.462785469704
 20
1049.569537186454
 30
0.0
 40
3.5
100
AcDbArc
 50
163.398450400989
 51
196.6015495990109
  0
LINE
  5
793B
330
1F
100
AcDbEntity
  8
圖層4尺寸線
100
AcDbLine
 10
1285.462785469704
 20
1048.569537186454
 30
0.0
 11
1285.462785469704
 21
1047.837486378885
 31
0.0
  0
LINE
  5
793C
330
1F
100
AcDbEntity
  8
圖層4尺寸線
100
AcDbLine
 10
1285.462785469704
 20
1051.301587994023
 30
0.0
 11
1285.462785469704
 21
1050.569537186454
 31
0.0
  0
ARC
  5
793D
330
1F
100
AcDbEntity
  8
圖層4尺寸線
100
AcDbCircle
 10
1284.462785469704
 20
1049.569537186454
 30
0.0
 40
2.0
100
AcDbArc
 50
59.99999999999946
 51
120.0000000000005
  0
ARC
  5
793E
330
1F
100
AcDbEntity
  8
圖層4尺寸線
100
AcDbCircle
 10
1284.462785469704
 20
1049.569537186454
 30
0.0
 40
2.0
100
AcDbArc
 50
239.9999999999995
 51
300.0000000000005
  0
ARC
  5
793F
330
1F
100
AcDbEntity
  8
圖層4尺寸線
100
AcDbCircle
 10
1284.462785469704
 20
1049.569537186454
 30
0.0
 40
3.5
100
AcDbArc
 50
343.3984504009891
 51
16.60154959901094
  0
ENDSEC
  0
SECTION
  2
OBJECTS
  0
DICTIONARY
  5
C
330
0
100
AcDbDictionary
281
     1
  3
ACAD_COLOR
350
BE
  3
ACAD_GROUP
350
D
  3
ACAD_LAYOUT
350
1A
  3
ACAD_MATERIAL
350
BD
  3
ACAD_MLINESTYLE
350
17
  3
ACAD_PLOTSETTINGS
350
19
  3
ACAD_PLOTSTYLENAME
350
E
  3
ACAD_TABLESTYLE
350
11A
  3
ACDBHEADERROUNDTRIPXREC
350
79C8
  3
AcDbVariableDictionary
350
94
  3
AcmDictionary
350
5B
  3
AMG
350
41
  3
AMGSNAPSETTINGS
350
1B8
  3
DWGPROPS
350
79C7
  0
DICTIONARY
  5
3F9
330
2
100
AcDbDictionary
280
     1
281
     1
  3
ACAD_LAYERFILTERS
360
63AB
  3
ACAD_LAYERSTATES
360
72C
  3
ACLYDICTIONARY
360
63AA
  0
DICTIONARY
  5
8F
330
1F
100
AcDbDictionary
280
     1
281
     1
  0
DICTIONARY
  5
269C
330
268F
100
AcDbDictionary
280
     1
281
     1
  3
ACAD_DIMASSOC
360
269D
  0
DICTIONARY
  5
26C2
330
26B5
100
AcDbDictionary
280
     1
281
     1
  3
ACAD_DIMASSOC
360
26C3
  0
DICTIONARY
  5
26E8
330
26DB
100
AcDbDictionary
280
     1
281
     1
  3
ACAD_DIMASSOC
360
26E9
  0
DICTIONARY
  5
2718
330
270B
100
AcDbDictionary
280
     1
281
     1
  3
ACAD_DIMASSOC
360
2719
  0
DICTIONARY
  5
273E
330
2731
100
AcDbDictionary
280
     1
281
     1
  3
ACAD_DIMASSOC
360
273F
  0
DICTIONARY
  5
278A
330
277D
100
AcDbDictionary
280
     1
281
     1
  3
ACAD_DIMASSOC
360
278B
  0
DICTIONARY
  5
27B0
330
27A3
100
AcDbDictionary
280
     1
281
     1
  3
ACAD_DIMASSOC
360
27B1
  0
DICTIONARY
  5
2D75
330
2D68
100
AcDbDictionary
280
     1
281
     1
  3
ACAD_DIMASSOC
360
2D76
  0
DICTIONARY
  5
2FBC
330
2FAF
100
AcDbDictionary
280
     1
281
     1
  3
ACAD_DIMASSOC
360
2FBD
  0
DICTIONARY
  5
BE
102
{ACAD_REACTORS
330
C
102
}
330
C
100
AcDbDictionary
281
     1
  0
DICTIONARY
  5
D
102
{ACAD_REACTORS
330
C
102
}
330
C
100
AcDbDictionary
281
     1
  0
DICTIONARY
  5
1A
102
{ACAD_REACTORS
330
C
102
}
330
C
100
AcDbDictionary
281
     1
  3
Model
350
22
  3
配置1
350
1E
  3
配置2
350
26
  0
DICTIONARY
  5
BD
102
{ACAD_REACTORS
330
C
102
}
330
C
100
AcDbDictionary
281
     1
  0
DICTIONARY
  5
17
102
{ACAD_REACTORS
330
C
102
}
330
C
100
AcDbDictionary
281
     1
  3
Standard
350
18
  0
DICTIONARY
  5
19
102
{ACAD_REACTORS
330
C
102
}
330
C
100
AcDbDictionary
281
     1
  0
ACDBDICTIONARYWDFLT
  5
E
102
{ACAD_REACTORS
330
C
102
}
330
C
100
AcDbDictionary
281
     1
  3
Normal
350
F
  3
型式 1
350
728
  3
型式 2
350
729
  3
型式 3
350
72A
  3
型式 4
350
72B
100
AcDbDictionaryWithDefault
340
F
  0
DICTIONARY
  5
11A
102
{ACAD_REACTORS
330
C
102
}
330
C
100
AcDbDictionary
281
     1
  3
Standard
350
11B
  0
DICTIONARY
  5
79C8
102
{ACAD_REACTORS
330
C
102
}
330
C
100
AcDbDictionary
281
     1
  0
DICTIONARY
  5
94
102
{ACAD_REACTORS
330
C
102
}
330
C
100
AcDbDictionary
281
     1
  3
CTABLESTYLE
350
138
  3
DIMASSOC
350
96
  3
INDEXCTL
350
95
  3
PROJECTNAME
350
79C5
  0
DICTIONARY
  5
5B
102
{ACAD_REACTORS
330
C
102
}
330
C
100
AcDbDictionary
281
     1
  3
AcmBOM
350
1B5
  3
AcmStdDictionary
350
61
  3
AMDTSECTSYM_ARROWCOLOR
350
123
  0
DICTIONARY
  5
41
102
{ACAD_REACTORS
330
C
102
}
330
C
100
AcDbDictionary
281
     1
  0
DICTIONARY
  5
1B8
102
{ACAD_REACTORS
330
C
102
}
330
C
100
AcDbDictionary
281
     1
  0
XRECORD
  5
79C7
102
{ACAD_REACTORS
330
C
102
}
330
C
100
AcDbXrecord
280
     1
  1
DWGPROPS COOKIE
  2

  3

  4

  6

  7

  8

  9

300
AmdtFileType=84
301
=
302
=
303
=
304
=
305
=
306
=
307
=
308
=
309
=
 40
0.2719607175925926
 41
2453556.605858461
 42
2453557.595901331
  1

 90
        1
  0
DICTIONARY
  5
63AB
102
{ACAD_REACTORS
330
3F9
102
}
330
3F9
100
AcDbDictionary
281
     1
  0
DICTIONARY
  5
72C
102
{ACAD_REACTORS
330
3F9
102
}
330
3F9
100
AcDbDictionary
281
     1
  0
DICTIONARY
  5
63AA
102
{ACAD_REACTORS
330
3F9
102
}
330
3F9
100
AcDbDictionary
281
     1
1001
ACAD
1000
<All
  0
DIMASSOC
  5
269D
102
{ACAD_REACTORS
330
269C
102
}
330
269C
100
AcDbDimAssoc
330
268F
 90
        2
 70
     0
 71
     0
  1
AcDbOsnapPointRef
 72
     1
331
2392
 73
     0
 91
        0
 40
0.0
 10
0.0
 20
0.0
 30
2.000000000000000E+50
 75
     0
  0
DIMASSOC
  5
26C3
102
{ACAD_REACTORS
330
26C2
102
}
330
26C2
100
AcDbDimAssoc
330
26B5
 90
        1
 70
     0
 71
     0
  1
AcDbOsnapPointRef
 72
    13
331
2396
 73
     0
 91
        0
 40
0.0
 10
0.0
 20
0.0
 30
2.000000000000000E+50
 75
     0
  0
DIMASSOC
  5
26E9
102
{ACAD_REACTORS
330
26E8
102
}
330
26E8
100
AcDbDimAssoc
330
26DB
 90
        2
 70
     0
 71
     0
  1
AcDbOsnapPointRef
 72
    13
331
245D
 73
     0
 91
        0
 40
0.0
 10
0.0
 20
0.0
 30
2.000000000000000E+50
 75
     0
  0
DIMASSOC
  5
2719
102
{ACAD_REACTORS
330
2718
102
}
330
2718
100
AcDbDimAssoc
330
270B
 90
        3
 70
     0
 71
     0
  1
AcDbOsnapPointRef
 72
    13
331
245D
 73
     0
 91
        0
 40
0.0
 10
0.0
 20
0.0
 30
2.000000000000000E+50
 75
     0
  1
AcDbOsnapPointRef
 72
     1
331
2525
 73
     0
 91
        0
 40
0.0
 10
0.0
 20
0.0
 30
2.000000000000000E+50
 75
     0
  0
DIMASSOC
  5
273F
102
{ACAD_REACTORS
330
273E
102
}
330
273E
100
AcDbDimAssoc
330
2731
 90
        2
 70
     0
 71
     0
  1
AcDbOsnapPointRef
 72
     1
331
2525
 73
     0
 91
        0
 40
0.0
 10
0.0
 20
0.0
 30
2.000000000000000E+50
 75
     0
  0
DIMASSOC
  5
278B
102
{ACAD_REACTORS
330
278A
102
}
330
278A
100
AcDbDimAssoc
330
277D
 90
        1
 70
     0
 71
     0
  1
AcDbOsnapPointRef
 72
    13
331
254E
 73
     0
 91
        0
 40
0.0
 10
0.0
 20
0.0
 30
2.000000000000000E+50
 75
     0
  0
DIMASSOC
  5
27B1
102
{ACAD_REACTORS
330
27B0
102
}
330
27B0
100
AcDbDimAssoc
330
27A3
 90
        2
 70
     0
 71
     0
  1
AcDbOsnapPointRef
 72
     1
331
245E
 73
     0
 91
        0
 40
0.0
 10
0.0
 20
0.0
 30
2.000000000000000E+50
 75
     0
  0
DIMASSOC
  5
2D76
102
{ACAD_REACTORS
330
2D75
102
}
330
2D75
100
AcDbDimAssoc
330
2D68
 90
        3
 70
     0
 71
     0
  1
AcDbOsnapPointRef
 72
    13
331
245A
 73
     0
 91
        0
 40
0.0
 10
0.0
 20
0.0
 30
2.000000000000000E+50
 75
     0
  1
AcDbOsnapPointRef
 72
     1
331
245B
 73
     0
 91
        0
 40
0.0
 10
0.0
 20
0.0
 30
2.000000000000000E+50
 75
     0
  0
DIMASSOC
  5
2FBD
102
{ACAD_REACTORS
330
2FBC
102
}
330
2FBC
100
AcDbDimAssoc
330
2FAF
 90
        3
 70
     0
 71
     0
  1
AcDbOsnapPointRef
 72
    13
331
2393
 73
     0
 91
        0
 40
0.0
 10
0.0
 20
0.0
 30
2.000000000000000E+50
 75
     0
  1
AcDbOsnapPointRef
 72
    13
331
23A5
 73
     0
 91
        0
 40
0.0
 10
0.0
 20
0.0
 30
2.000000000000000E+50
 75
     0
  0
LAYOUT
  5
22
102
{ACAD_XDICTIONARY
360
79CB
102
}
102
{ACAD_REACTORS
330
1A
102
}
330
1A
100
AcDbPlotSettings
  1

  2
\\RD\EPSON Stylus C63 Series單色
  4
A4
  6

 40
3.757083177566528
 41
3.757076978683471
 42
3.757080078125
 43
3.757080078125
 44
209.9733276367187
 45
296.9683227539062
 46
0.0
 47
0.0
 48
0.0
 49
0.0
140
0.0
141
0.0
142
1.0
143
0.3405120737814363
 70
 11952
 72
     1
 73
     0
 74
     0
  7
單色出圖.ctb
 75
     0
147
2.936753428137963
148
-2047.07469463503
149
-1261.649717473083
100
AcDbLayout
  1
Model
 70
     1
 71
     0
 10
0.0
 20
0.0
 11
12.0
 21
9.0
 12
0.0
 22
0.0
 32
0.0
 14
0.0
 24
0.0
 34
0.0
 15
0.0
 25
0.0
 35
0.0
146
0.0
 13
0.0
 23
0.0
 33
0.0
 16
1.0
 26
0.0
 36
0.0
 17
0.0
 27
1.0
 37
0.0
 76
     0
330
1F
1001
ACAD_PSEXT
1000
\\RD\EPSON Stylus C63 Series單色
1000
EPSON Stylus C63 Series
1000
\\RD
1000

1070
     0
  0
LAYOUT
  5
1E
102
{ACAD_XDICTIONARY
360
79C9
102
}
102
{ACAD_REACTORS
330
1A
102
}
330
1A
100
AcDbPlotSettings
  1

  2

  4

  6

 40
0.0
 41
0.0
 42
0.0
 43
0.0
 44
0.0
 45
0.0
 46
0.0
 47
0.0
 48
0.0
 49
0.0
140
0.0
141
0.0
142
1.0
143
1.0
 70
   688
 72
     0
 73
     0
 74
     5
  7
單色出圖.ctb
 75
    16
147
1.0
148
0.0
149
0.0
100
AcDbLayout
  1
配置1
 70
     1
 71
     1
 10
0.0
 20
0.0
 11
420.0
 21
297.0
 12
0.0
 22
0.0
 32
0.0
 14
1.000000000000000E+20
 24
1.000000000000000E+20
 34
1.000000000000000E+20
 15
-1.000000000000000E+20
 25
-1.000000000000000E+20
 35
-1.000000000000000E+20
146
0.0
 13
0.0
 23
0.0
 33
0.0
 16
1.0
 26
0.0
 36
0.0
 17
0.0
 27
1.0
 37
0.0
 76
     0
330
1B
  0
LAYOUT
  5
26
102
{ACAD_XDICTIONARY
360
79CD
102
}
102
{ACAD_REACTORS
330
1A
102
}
330
1A
100
AcDbPlotSettings
  1

  2

  4

  6

 40
0.0
 41
0.0
 42
0.0
 43
0.0
 44
0.0
 45
0.0
 46
0.0
 47
0.0
 48
0.0
 49
0.0
140
0.0
141
0.0
142
1.0
143
1.0
 70
   688
 72
     0
 73
     0
 74
     5
  7
單色出圖.ctb
 75
    16
147
1.0
148
0.0
149
0.0
100
AcDbLayout
  1
配置2
 70
     1
 71
     2
 10
0.0
 20
0.0
 11
12.0
 21
9.0
 12
0.0
 22
0.0
 32
0.0
 14
0.0
 24
0.0
 34
0.0
 15
0.0
 25
0.0
 35
0.0
146
0.0
 13
0.0
 23
0.0
 33
0.0
 16
1.0
 26
0.0
 36
0.0
 17
0.0
 27
1.0
 37
0.0
 76
     0
330
23
  0
MLINESTYLE
  5
18
102
{ACAD_REACTORS
330
17
102
}
330
17
100
AcDbMlineStyle
  2
STANDARD
 70
     0
  3

 62
   256
 51
90.0
 52
90.0
 71
     2
 49
0.5
 62
   256
  6
BYLAYER
 49
-0.5
 62
   256
  6
BYLAYER
  0
ACDBPLACEHOLDER
  5
F
102
{ACAD_REACTORS
330
E
102
}
330
E
  0
ACDBPLACEHOLDER
  5
728
102
{ACAD_REACTORS
330
E
102
}
330
E
  0
ACDBPLACEHOLDER
  5
729
102
{ACAD_REACTORS
330
E
102
}
330
E
  0
ACDBPLACEHOLDER
  5
72A
102
{ACAD_REACTORS
330
E
102
}
330
E
  0
ACDBPLACEHOLDER
  5
72B
102
{ACAD_REACTORS
330
E
102
}
330
E
  0
TABLESTYLE
  5
11B
102
{ACAD_REACTORS
330
11A
102
}
330
11A
100
AcDbTableStyle
  3
Standard
 70
     0
 71
     0
 40
1.5
 41
1.5
280
     0
281
     0
  7
STANDARD
140
4.5
170
     2
 62
     0
 63
     7
283
     0
274
    -2
284
     1
 64
     0
275
    -2
285
     1
 65
     0
276
    -2
286
     1
 66
     0
277
    -2
287
     1
 67
     0
278
    -2
288
     1
 68
     0
279
    -2
289
     1
 69
     0
  7
STANDARD
140
6.0
170
     5
 62
     0
 63
     7
283
     0
274
    -2
284
     1
 64
     0
275
    -2
285
     1
 65
     0
276
    -2
286
     1
 66
     0
277
    -2
287
     1
 67
     0
278
    -2
288
     1
 68
     0
279
    -2
289
     1
 69
     0
  7
STANDARD
140
4.5
170
     5
 62
     0
 63
     7
283
     0
274
    -2
284
     1
 64
     0
275
    -2
285
     1
 65
     0
276
    -2
286
     1
 66
     0
277
    -2
287
     1
 67
     0
278
    -2
288
     1
 68
     0
279
    -2
289
     1
 69
     0
  0
DICTIONARYVAR
  5
138
102
{ACAD_REACTORS
330
94
102
}
330
94
100
DictionaryVariables
280
     0
  1
STANDARD
  0
DICTIONARYVAR
  5
96
102
{ACAD_REACTORS
330
94
102
}
330
94
100
DictionaryVariables
280
     0
  1
2
  0
DICTIONARYVAR
  5
95
102
{ACAD_REACTORS
330
94
102
}
330
94
100
DictionaryVariables
280
     0
  1
0
  0
DICTIONARYVAR
  5
79C5
102
{ACAD_REACTORS
330
94
102
}
330
94
100
DictionaryVariables
280
     0
  1

  0
DICTIONARY
  5
1B5
102
{ACAD_REACTORS
330
5B
102
}
330
5B
100
AcDbDictionary
281
     1
  0
DICTIONARY
  5
61
102
{ACAD_REACTORS
330
5B
102
}
330
5B
100
AcDbDictionary
281
     1
  0
XRECORD
  5
123
102
{ACAD_REACTORS
330
5B
102
}
330
5B
100
AcDbXrecord
280
     1
 90
-1023410169
  0
DICTIONARY
  5
79CB
330
22
100
AcDbDictionary
280
     1
281
     1
  3
ACAD_XREC_ROUNDTRIP
360
79CC
  0
DICTIONARY
  5
79C9
330
1E
100
AcDbDictionary
280
     1
281
     1
  3
ACAD_XREC_ROUNDTRIP
360
79CA
  0
DICTIONARY
  5
79CD
330
26
100
AcDbDictionary
280
     1
281
     1
  3
ACAD_XREC_ROUNDTRIP
360
79CE
  0
XRECORD
  5
79CC
102
{ACAD_REACTORS
330
79CB
102
}
330
79CB
100
AcDbXrecord
280
     1
102
SHADEPLOT
 70
     0
102
SHADEPLOTRESLEVEL
 70
     2
102
SHADEPLOTCUSTOMDPI
 70
   300
  0
XRECORD
  5
79CA
102
{ACAD_REACTORS
330
79C9
102
}
330
79C9
100
AcDbXrecord
280
     1
102
SHADEPLOT
 70
     0
102
SHADEPLOTRESLEVEL
 70
     2
102
SHADEPLOTCUSTOMDPI
 70
   300
  0
XRECORD
  5
79CE
102
{ACAD_REACTORS
330
79CD
102
}
330
79CD
100
AcDbXrecord
280
     1
102
SHADEPLOT
 70
     0
102
SHADEPLOTRESLEVEL
 70
     2
102
SHADEPLOTCUSTOMDPI
 70
   300
  0
ENDSEC
  0
EOF
