  0
SECTION
  2
HEADER
  9
$ACADVER
  1
AC1015
  9
$ACADMAINTVER
 70
    20
  9
$DWGCODEPAGE
  3
ANSI_950
  9
$INSBASE
 10
0.0
 20
0.0
 30
0.0
  9
$EXTMIN
 10
3129.803096626747
 20
-906.6882626727792
 30
-0.0349855198919613
  9
$EXTMAX
 10
4452.570871453079
 20
864.8514290064559
 30
1146.527975807581
  9
$LIMMIN
 10
0.0
 20
0.0
  9
$LIMMAX
 10
420.0
 20
297.0
  9
$ORTHOMODE
 70
     0
  9
$REGENMODE
 70
     1
  9
$FILLMODE
 70
     1
  9
$QTEXTMODE
 70
     0
  9
$MIRRTEXT
 70
     1
  9
$LTSCALE
 40
1.0
  9
$ATTMODE
 70
     1
  9
$TEXTSIZE
 40
3.0
  9
$TRACEWID
 40
1.0
  9
$TEXTSTYLE
  7
CHINESET
  9
$CLAYER
  8
0
  9
$CELTYPE
  6
ByLayer
  9
$CECOLOR
 62
   256
  9
$CELTSCALE
 40
1.0
  9
$DISPSILH
 70
     0
  9
$DIMSCALE
 40
1.0
  9
$DIMASZ
 40
20.0
  9
$DIMEXO
 40
3.0
  9
$DIMDLI
 40
50.0
  9
$DIMRND
 40
0.0
  9
$DIMDLE
 40
0.0
  9
$DIMEXE
 40
4.0
  9
$DIMTP
 40
0.1
  9
$DIMTM
 40
0.1
  9
$DIMTXT
 40
20.0
  9
$DIMCEN
 40
0.0
  9
$DIMTSZ
 40
0.0
  9
$DIMTOL
 70
     0
  9
$DIMLIM
 70
     0
  9
$DIMTIH
 70
     0
  9
$DIMTOH
 70
     0
  9
$DIMSE1
 70
     0
  9
$DIMSE2
 70
     0
  9
$DIMTAD
 70
     1
  9
$DIMZIN
 70
     8
  9
$DIMBLK
  1

  9
$DIMASO
 70
     1
  9
$DIMSHO
 70
     1
  9
$DIMPOST
  1

  9
$DIMAPOST
  1
"
  9
$DIMALT
 70
     0
  9
$DIMALTD
 70
     2
  9
$DIMALTF
 40
0.0393701
  9
$DIMLFAC
 40
1.0
  9
$DIMTOFL
 70
     1
  9
$DIMTVP
 40
0.0
  9
$DIMTIX
 70
     0
  9
$DIMSOXD
 70
     0
  9
$DIMSAH
 70
     0
  9
$DIMBLK1
  1

  9
$DIMBLK2
  1

  9
$DIMSTYLE
  2
AM_ISO
  9
$DIMCLRD
 70
   256
  9
$DIMCLRE
 70
   256
  9
$DIMCLRT
 70
   256
  9
$DIMTFAC
 40
0.71
  9
$DIMGAP
 40
6.0
  9
$DIMJUST
 70
     0
  9
$DIMSD1
 70
     0
  9
$DIMSD2
 70
     0
  9
$DIMTOLJ
 70
     2
  9
$DIMTZIN
 70
     8
  9
$DIMALTZ
 70
     0
  9
$DIMALTTZ
 70
     0
  9
$DIMUPT
 70
     0
  9
$DIMDEC
 70
     2
  9
$DIMTDEC
 70
     8
  9
$DIMALTU
 70
     2
  9
$DIMALTTD
 70
     2
  9
$DIMTXSTY
  7
STANDARD
  9
$DIMAUNIT
 70
     0
  9
$DIMADEC
 70
     0
  9
$DIMALTRND
 40
0.0
  9
$DIMAZIN
 70
     2
  9
$DIMDSEP
 70
    46
  9
$DIMATFIT
 70
     3
  9
$DIMFRAC
 70
     0
  9
$DIMLDRBLK
  1

  9
$DIMLUNIT
 70
     2
  9
$DIMLWD
 70
    -1
  9
$DIMLWE
 70
    -1
  9
$DIMTMOVE
 70
     0
  9
$LUNITS
 70
     2
  9
$LUPREC
 70
     2
  9
$SKETCHINC
 40
1.0
  9
$FILLETRAD
 40
2.5
  9
$AUNITS
 70
     0
  9
$AUPREC
 70
     0
  9
$MENU
  1
.
  9
$ELEVATION
 40
0.0
  9
$PELEVATION
 40
0.0
  9
$THICKNESS
 40
0.0
  9
$LIMCHECK
 70
     0
  9
$CHAMFERA
 40
2.5
  9
$CHAMFERB
 40
2.5
  9
$CHAMFERC
 40
20.0
  9
$CHAMFERD
 40
0.0
  9
$SKPOLY
 70
     0
  9
$TDCREATE
 40
2453556.605858461
  9
$TDUCREATE
 40
2453556.272525128
  9
$TDUPDATE
 40
2453557.594973414
  9
$TDUUPDATE
 40
2453557.261640082
  9
$TDINDWG
 40
0.2984897569
  9
$TDUSRTIMER
 40
0.2984895833
  9
$USRTIMER
 70
     1
  9
$ANGBASE
 50
0.0
  9
$ANGDIR
 70
     0
  9
$PDMODE
 70
     0
  9
$PDSIZE
 40
0.0
  9
$PLINEWID
 40
0.0
  9
$SPLFRAME
 70
     0
  9
$SPLINETYPE
 70
     6
  9
$SPLINESEGS
 70
     8
  9
$HANDSEED
  5
78E0
  9
$SURFTAB1
 70
     6
  9
$SURFTAB2
 70
     6
  9
$SURFTYPE
 70
     6
  9
$SURFU
 70
     6
  9
$SURFV
 70
     6
  9
$UCSBASE
  2

  9
$UCSNAME
  2

  9
$UCSORG
 10
0.0
 20
0.0
 30
0.0
  9
$UCSXDIR
 10
1.0
 20
0.0
 30
0.0
  9
$UCSYDIR
 10
0.0
 20
1.0
 30
0.0
  9
$UCSORTHOREF
  2

  9
$UCSORTHOVIEW
 70
     0
  9
$UCSORGTOP
 10
0.0
 20
0.0
 30
0.0
  9
$UCSORGBOTTOM
 10
0.0
 20
0.0
 30
0.0
  9
$UCSORGLEFT
 10
0.0
 20
0.0
 30
0.0
  9
$UCSORGRIGHT
 10
0.0
 20
0.0
 30
0.0
  9
$UCSORGFRONT
 10
0.0
 20
0.0
 30
0.0
  9
$UCSORGBACK
 10
0.0
 20
0.0
 30
0.0
  9
$PUCSBASE
  2

  9
$PUCSNAME
  2

  9
$PUCSORG
 10
0.0
 20
0.0
 30
0.0
  9
$PUCSXDIR
 10
1.0
 20
0.0
 30
0.0
  9
$PUCSYDIR
 10
0.0
 20
1.0
 30
0.0
  9
$PUCSORTHOREF
  2

  9
$PUCSORTHOVIEW
 70
     0
  9
$PUCSORGTOP
 10
0.0
 20
0.0
 30
0.0
  9
$PUCSORGBOTTOM
 10
0.0
 20
0.0
 30
0.0
  9
$PUCSORGLEFT
 10
0.0
 20
0.0
 30
0.0
  9
$PUCSORGRIGHT
 10
0.0
 20
0.0
 30
0.0
  9
$PUCSORGFRONT
 10
0.0
 20
0.0
 30
0.0
  9
$PUCSORGBACK
 10
0.0
 20
0.0
 30
0.0
  9
$USERI1
 70
     0
  9
$USERI2
 70
     0
  9
$USERI3
 70
     0
  9
$USERI4
 70
     0
  9
$USERI5
 70
     0
  9
$USERR1
 40
0.0
  9
$USERR2
 40
0.0
  9
$USERR3
 40
0.0
  9
$USERR4
 40
0.0
  9
$USERR5
 40
0.0
  9
$WORLDVIEW
 70
     1
  9
$SHADEDGE
 70
     3
  9
$SHADEDIF
 70
    70
  9
$TILEMODE
 70
     1
  9
$MAXACTVP
 70
    64
  9
$PINSBASE
 10
0.0
 20
0.0
 30
0.0
  9
$PLIMCHECK
 70
     0
  9
$PEXTMIN
 10
1.000000000000000E+20
 20
1.000000000000000E+20
 30
1.000000000000000E+20
  9
$PEXTMAX
 10
-1.000000000000000E+20
 20
-1.000000000000000E+20
 30
-1.000000000000000E+20
  9
$PLIMMIN
 10
0.0
 20
0.0
  9
$PLIMMAX
 10
420.0
 20
297.0
  9
$UNITMODE
 70
     0
  9
$VISRETAIN
 70
     1
  9
$PLINEGEN
 70
     0
  9
$PSLTSCALE
 70
     1
  9
$TREEDEPTH
 70
  3020
  9
$CMLSTYLE
  2
Standard
  9
$CMLJUST
 70
     0
  9
$CMLSCALE
 40
20.0
  9
$PROXYGRAPHICS
 70
     1
  9
$MEASUREMENT
 70
     1
  9
$CELWEIGHT
370
    -1
  9
$ENDCAPS
280
     0
  9
$JOINSTYLE
280
     0
  9
$LWDISPLAY
290
     0
  9
$INSUNITS
 70
     4
  9
$HYPERLINKBASE
  1

  9
$STYLESHEET
  1
彩色出圖.ctb
  9
$XEDIT
290
     1
  9
$CEPSNTYPE
380
     0
  9
$PSTYLEMODE
290
     1
  9
$FINGERPRINTGUID
  2
{6FBFCDA8-F3CD-4AA6-B64B-DBECB1E66A4A}
  9
$VERSIONGUID
  2
{491A7328-E2C5-4CA4-A68C-7E2988D3FA4F}
  9
$EXTNAMES
290
     1
  9
$PSVPSCALE
 40
0.0
  9
$OLESTARTUP
290
     0
  0
ENDSEC
  0
SECTION
  2
CLASSES
  0
CLASS
  1
ACDBDICTIONARYWDFLT
  2
AcDbDictionaryWithDefault
  3
ObjectDBX Classes
 90
        0
280
     0
281
     0
  0
CLASS
  1
ACDBPLACEHOLDER
  2
AcDbPlaceHolder
  3
ObjectDBX Classes
 90
        0
280
     0
281
     0
  0
CLASS
  1
LAYOUT
  2
AcDbLayout
  3
ObjectDBX Classes
 90
        0
280
     0
281
     0
  0
CLASS
  1
ACME_DOCUMENT
  2
AcMeDbDoc
  3
AcMeServices
 90
        0
280
     0
281
     0
  0
CLASS
  1
AMGSETTINGSOBJ
  2
AmgSettingsObj
  3
"AcadM|Product Description: AutoCAD Mechanical 2000|Company: Autodesk"
 90
        0
280
     0
281
     0
  0
CLASS
  1
ACMESCOPE
  2
AcMeScope
  3
AcMeServices
 90
        0
280
     0
281
     0
  0
CLASS
  1
ACMECOMMANDHISTORY
  2
AcMeCommandHistory
  3
AcMeServices
 90
        0
280
     0
281
     0
  0
CLASS
  1
ACIMSYSVARMAN
  2
AcImSysVarManager
  3
AcMeServices
 90
        0
280
     0
281
     0
  0
CLASS
  1
ACIMREALSYSVAR
  2
AcImRealSysVar
  3
AcMeServices
 90
        0
280
     0
281
     0
  0
CLASS
  1
ACIMINTSYSVAR
  2
AcImIntSysVar
  3
AcMeServices
 90
        0
280
     0
281
     0
  0
CLASS
  1
ACMEDRAWINGMAN
  2
AcMeDrawingMan
  3
AcMeServices
 90
        0
280
     0
281
     0
  0
CLASS
  1
ACMEVIEW
  2
AcMeView
  3
AcMeServices
 90
        0
280
     0
281
     0
  0
CLASS
  1
ACDBENTITYCACHE
  2
AcMeEntityCache
  3
AcMeServices
 90
        0
280
     0
281
     0
  0
CLASS
  1
GSMANAGER
  2
AcMeGSManager
  3
AcMeServices
 90
        0
280
     0
281
     0
  0
CLASS
  1
AMDTINTERNALREACTOR
  2
AmdtInternalReactor
  3
AcMeServices
 90
        0
280
     0
281
     0
  0
CLASS
  1
ACMESTATEMGR
  2
AcMeStateMgr
  3
AcMeServices
 90
        0
280
     0
281
     0
  0
CLASS
  1
ACGREFMASTER
  2
AcGrefMaster
  3
AcAttribServices
 90
        0
280
     0
281
     0
  0
CLASS
  1
ACME_DATABASE
  2
AcMeDbDatabase
  3
AcMeServices
 90
        0
280
     0
281
     0
  0
CLASS
  1
ACRFINSADJUSTERMGR
  2
AcRfInsAdjusterMgr
  3
AcMeServices
 90
        0
280
     0
281
     0
  0
CLASS
  1
ACGREFACADMASTER
  2
AcGrefacadMaster
  3
AcGrefServices
 90
        0
280
     0
281
     0
  0
CLASS
  1
AMIMASTER
  2
AmiMaster
  3
AmiServices
 90
        0
280
     0
281
     0
  0
CLASS
  1
ACMDATADICTIONARY
  2
AcmDataDictionary
  3
"AcmSymBB|Product Description: AutoCAD Mechanical 2004 DX|Company: Autodesk"
 90
        0
280
     0
281
     0
  0
CLASS
  1
ACMDATAENTRYBLOCK
  2
AcmDataEntryBlock
  3
"AcmSymBB|Product Description: AutoCAD Mechanical 2004 DX|Company: Autodesk"
 90
        0
280
     0
281
     0
  0
CLASS
  1
ACIMSTRSYSVAR
  2
AcImStrSysVar
  3
AcMeServices
 90
        0
280
     0
281
     0
  0
CLASS
  1
ACMSTANDARDISO
  2
AcmStandardISO
  3
"Amdt_StdImp|Product Description: AutoCAD Mechanical 2004 DX|Company: Autodesk"
 90
        0
280
     0
281
     0
  0
CLASS
  1
AMGOBJPROPCFG
  2
AmgObjPropCfg
  3
"AmgLay|Product Description: AutoCAD Mechanical 2000|Company: Autodesk"
 90
        1
280
     0
281
     0
  0
CLASS
  1
AMDTEDGESTANDARDISO
  2
AmdtEdgeStdISO
  3
"Amdt_StdImp|Product Description: AutoCAD Mechanical 2004 DX|Company: Autodesk"
 90
        0
280
     0
281
     0
  0
CLASS
  1
ACMSURFSTANDARDISO
  2
AcmSurfTextStdISO
  3
"Amdt_StdImp|Product Description: AutoCAD Mechanical 2004 DX|Company: Autodesk"
 90
        0
280
     0
281
     0
  0
CLASS
  1
ACMFCFSTANDARDISO
  2
AcmFCFStdISO
  3
"Amdt_StdImp|Product Description: AutoCAD Mechanical 2004 DX|Company: Autodesk"
 90
        0
280
     0
281
     0
  0
CLASS
  1
ACMWELDSTANDARDISO
  2
AcmWeldingStdISO
  3
"Amdt_StdImp|Product Description: AutoCAD Mechanical 2004 DX|Company: Autodesk"
 90
        0
280
     0
281
     0
  0
CLASS
  1
ACMIDSTANDARDISO
  2
AcmIdStdISO
  3
"Amdt_StdImp|Product Description: AutoCAD Mechanical 2004 DX|Company: Autodesk"
 90
        0
280
     0
281
     0
  0
CLASS
  1
ACMDATUMSTANDARDISO
  2
AcmDatumStdISO
  3
"Amdt_StdImp|Product Description: AutoCAD Mechanical 2004 DX|Company: Autodesk"
 90
        0
280
     0
281
     0
  0
CLASS
  1
ACMBOMSTANDARDISO
  2
AcmBOMStdISO
  3
"Amdt_StdImp|Product Description: AutoCAD Mechanical 2004 DX|Company: Autodesk"
 90
        0
280
     0
281
     0
  0
CLASS
  1
ACMDETAILSTANDARDISO
  2
AmdtDetailSymStdISO
  3
"Amdt_StdImp|Product Description: AutoCAD Mechanical 2004 DX|Company: Autodesk"
 90
        0
280
     0
281
     0
  0
CLASS
  1
ACMSECTIONSTANDARDISO
  2
AmdtSectionSymStdISO
  3
"Amdt_StdImp|Product Description: AutoCAD Mechanical 2004 DX|Company: Autodesk"
 90
        0
280
     0
281
     0
  0
CLASS
  1
ACMCENTERLINESTANDARDISO
  2
AmdtCenterLineStdISO
  3
"Amdt_StdImp|Product Description: AutoCAD Mechanical 2004 DX|Company: Autodesk"
 90
        0
280
     0
281
     0
  0
CLASS
  1
ACMNOTESTANDARDISO
  2
AmdtNoteStdISO
  3
"Amdt_StdImp|Product Description: AutoCAD Mechanical 2004 DX|Company: Autodesk"
 90
        0
280
     0
281
     0
  0
CLASS
  1
ACAMGLAYSTD
  2
AcAmgLayStd
  3
"AcAmgLayStd|Product Description: AutoCAD Mechanical 2000|Company: Autodesk"
 90
        0
280
     0
281
     0
  0
CLASS
  1
ACAMGDIMSTD
  2
AcAmgDimStd
  3
"AcAmgDimStd|Product Description: AutoCAD Mechanical 2000|Company: Autodesk"
 90
        0
280
     0
281
     0
  0
CLASS
  1
ACAMGHOLECHARTSTDISO
  2
AcAmgHoleChartStdISO
  3
ACMSYMBB_MODULE_NAME
 90
        0
280
     0
281
     0
  0
CLASS
  1
ACAMGTITLESTD
  2
AcAmgTitleStd
  3
"TITLEAPP"
 90
        0
280
     0
281
     0
  0
CLASS
  1
LAYER_INDEX
  2
AcDbLayerIndex
  3
ObjectDBX Classes
 90
    32768
280
     0
281
     0
  0
CLASS
  1
IDBUFFER
  2
AcDbIdBuffer
  3
ObjectDBX Classes
 90
    32768
280
     0
281
     0
  0
CLASS
  1
DICTIONARYVAR
  2
AcDbDictionaryVar
  3
ObjectDBX Classes
 90
        0
280
     0
281
     0
  0
CLASS
  1
AM_DRAWING_MGR
  2
AcDmDwgMgr
  3
AcMechDwgViewMgmt
 90
        0
280
     0
281
     0
  0
CLASS
  1
AM_DWG_DOCUMENT
  2
AcDmDwgDocument
  3
AcMechDwgViewMgmt
 90
        0
280
     0
281
     0
  0
CLASS
  1
AM_DWG_SHEET
  2
AcDmSheet
  3
AcMechDwgViewMgmt
 90
        0
280
     0
281
     0
  0
CLASS
  1
AM_VIEWDIMPARMAP
  2
AcDmViewDimParMap
  3
AcMechDwgViewMgmt
 90
        0
280
     0
281
     0
  0
CLASS
  1
AM_DWGMGR_NAME
  2
AcDmDwgMgrName
  3
AcMechDwgViewMgmt
 90
        0
280
     0
281
     0
  0
CLASS
  1
AMDTMENUSTATEMGR
  2
AmdtMenuStateMgr
  3
McadcomServices
 90
        0
280
     0
281
     0
  0
CLASS
  1
AMDTMCOMMENUSTATE
  2
AmdtMcomMenuState
  3
McadcomServices
 90
        0
280
     0
281
     0
  0
CLASS
  1
MAPIAMMOUDLE
  2
MApiAmModule
  3
MApiAmServices
 90
        0
280
     0
281
     0
  0
CLASS
  1
AMDTADMENUSTATE
  2
AmdtAdMenuState
  3
DesignerServices
 90
        0
280
     0
281
     0
  0
CLASS
  1
ADAPPL
  2
AcAdAppl
  3
DesignerServices
 90
        0
280
     0
281
     0
  0
CLASS
  1
DEPMGR
  2
AcAdDepMgr
  3
DesignerServices
 90
        0
280
     0
281
     0
  0
CLASS
  1
PARAMMGR
  2
AcAdParamMgr
  3
DesignerServices
 90
        0
280
     0
281
     0
  0
CLASS
  1
PARAMSCOPE
  2
AcAdParamScope
  3
DesignerServices
 90
        0
280
     0
281
     0
  0
CLASS
  1
NAMEDAPPL
  2
AcAdNamedAppl
  3
DesignerServices
 90
        0
280
     0
281
     0
  0
CLASS
  1
AMDTDMMENUSTATE
  2
AmdtDmMenuState
  3
AcMechDwgViewMgmt
 90
        0
280
     0
281
     0
  0
CLASS
  1
AMDTAMMENUSTATE
  2
AmdtAmMenuState
  3
DesignerAssemblies
 90
        0
280
     0
281
     0
  0
CLASS
  1
ACAMPROJECT
  2
AcAmProject
  3
DesignerAssemblies
 90
        0
280
     0
281
     0
  0
CLASS
  1
ACAMGRCOMPDEF
  2
AcAmGrCompDef
  3
DesignerAssemblies
 90
        0
280
     0
281
     0
  0
CLASS
  1
ACCMCONTEXT
  2
AcCmContext
  3
DesignerAssemblies
 90
        0
280
     0
281
     0
  0
CLASS
  1
ACAMCOMPDEF
  2
AcAmCompDef
  3
DesignerAssemblies
 90
        0
280
     0
281
     0
  0
CLASS
  1
ACAMCOMPDEFMGR
  2
AcAmCompDefMgr
  3
DesignerAssemblies
 90
        0
280
     0
281
     0
  0
CLASS
  1
AMCONTEXTMGR
  2
AcAmContextMgr
  3
DesignerAssemblies
 90
        0
280
     0
281
     0
  0
CLASS
  1
ACAMCONTEXTMODELER
  2
AcAmContextModeler
  3
DesignerAssemblies
 90
        0
280
     0
281
     0
  0
CLASS
  1
ACMTHREADLINESTANDARDISO
  2
AmdtThreadLineStdISO
  3
"Amdt_StdImp|Product Description: AutoCAD Mechanical 2004 DX|Company: Autodesk"
 90
        0
280
     0
281
     0
  0
CLASS
  1
CATALOGSTATE
  2
AcAmCatalogState
  3
DesignerAssemblies
 90
        0
280
     0
281
     0
  0
CLASS
  1
ACAMGRCOMPDEFSET
  2
AcAmGrCompDefSet
  3
DesignerAssemblies
 90
        0
280
     0
281
     0
  0
CLASS
  1
AMDTBROWSERDBTAB
  2
AmdtBrowserDbTab
  3
McadcomServices
 90
        0
280
     0
281
     0
  0
CLASS
  1
CBROWSERAPPOBJECT
  2
CBrowserAppObject
  3
McadcomServices
 90
        0
280
     0
281
     0
  0
CLASS
  1
DM_PLACEHOLDER
  2
AcDmSelsetPlaceholder
  3
AcMechDwgViewMgmt
 90
        0
280
     0
281
     0
  0
CLASS
  1
TABLESTYLE
  2
AcDbTableStyle
  3
ObjectDBX Classes
 90
     2047
280
     0
281
     0
  0
CLASS
  1
VAACXREFPANELOBJECT
  2
VaAcXREFPanelObject
  3
VAAC_ADDIN
 90
    32768
280
     0
281
     0
  0
CLASS
  1
VAACIMAGEINVENTORY
  2
VaAcImageInventory
  3
VAAC_ADDIN
 90
    32768
280
     0
281
     0
  0
CLASS
  1
AMDTNOTETEMPLATEDB
  2
AmdtNoteTemplateDB
  3
AMDT_STDIMP_MODULE_NAME
 90
        0
280
     0
281
     0
  0
CLASS
  1
ACMBOM
  2
AcmBom
  3
"AcmSymBB|Product Description: AutoCAD Mechanical 2004 DX|Company: Autodesk"
 90
    32768
280
     0
281
     0
  0
CLASS
  1
AMDTFORMULAUPDATEDISPATCHER
  2
AmdtFormulaUpdateDispatcher
  3
AcMeServices
 90
    32768
280
     0
281
     0
  0
CLASS
  1
ACMPARTLIST
  2
AcmPartList
  3
"AcmSymBB|Product Description: AutoCAD Mechanical 2004 DX|Company: Autodesk"
 90
    33791
280
     0
281
     1
  0
CLASS
  1
ACAMGFILTERDAT
  2
AcAmgFilterDat
  3
"AcadM|Product Description: AutoCAD Mechanical 2000|Company: Autodesk"
 90
        0
280
     0
281
     0
  0
CLASS
  1
DIMASSOC
  2
AcDbDimAssoc
  3
"AcDbDimAssoc|Product Desc:     AcDim ARX App For Dimension|Company:          Autodesk, Inc.|WEB Address:      www.autodesk.com"
 90
    32768
280
     0
281
     0
  0
CLASS
  1
ACAMGHOLECHARTORIGIN
  2
AcAmgHoleChartOrigin
  3
ACMSYMBB_MODULE_NAME
 90
    33663
280
     0
281
     1
  0
CLASS
  1
AMDTNOTE
  2
AmdtNote
  3
"AcmSymBB|Product Description: AutoCAD Mechanical 2004 DX|Company: Autodesk"
 90
     1023
280
     0
281
     1
  0
CLASS
  1
ACRFATTGENMGR
  2
AcRfAttGeneralMgr
  3
AcAttribServices
 90
        0
280
     0
281
     0
  0
ENDSEC
  0
SECTION
  2
TABLES
  0
TABLE
  2
VPORT
  5
8
330
0
100
AcDbSymbolTable
 70
     3
  0
VPORT
  5
78D7
330
8
100
AcDbSymbolTableRecord
100
AcDbViewportTableRecord
  2
*Active
 70
     0
 10
0.0
 20
0.0
 11
1.0
 21
1.0
 12
3791.309385016107
 22
-20.85717710521021
 13
0.0
 23
0.0
 14
2.5
 24
2.5
 15
10.0
 25
10.0
 16
0.0
 26
0.0
 36
1.0
 17
0.0
 27
0.0
 37
0.0
 40
1792.756985263176
 41
1.81766917293233
 42
50.0
 43
0.0
 44
0.0
 50
0.0
 51
0.0
 71
     0
 72
   100
 73
     1
 74
     3
 75
     0
 76
     0
 77
     0
 78
     0
281
     0
 65
     1
110
0.0
120
0.0
130
0.0
111
1.0
121
0.0
131
0.0
112
0.0
122
1.0
132
0.0
 79
     0
146
0.0
  0
ENDTAB
  0
TABLE
  2
LTYPE
  5
5
330
0
100
AcDbSymbolTable
 70
    16
  0
LTYPE
  5
14
330
5
100
AcDbSymbolTableRecord
100
AcDbLinetypeTableRecord
  2
ByBlock
 70
     0
  3

 72
    65
 73
     0
 40
0.0
  0
LTYPE
  5
15
330
5
100
AcDbSymbolTableRecord
100
AcDbLinetypeTableRecord
  2
ByLayer
 70
     0
  3

 72
    65
 73
     0
 40
0.0
  0
LTYPE
  5
16
330
5
100
AcDbSymbolTableRecord
100
AcDbLinetypeTableRecord
  2
Continuous
 70
     0
  3
Solid line
 72
    65
 73
     0
 40
0.0
  0
LTYPE
  5
64
330
5
100
AcDbSymbolTableRecord
100
AcDbLinetypeTableRecord
  2
AM_ISO02W050
 70
     0
  3
__ __ __ __ __ __ __ __ __ __ __ __ __ __ __
 72
    65
 73
     2
 40
7.5
 49
6.0
 74
     0
 49
-1.5
 74
     0
  0
LTYPE
  5
65
330
5
100
AcDbSymbolTableRecord
100
AcDbLinetypeTableRecord
  2
AM_ISO08W050
 70
     0
  3
____ . ____ . ____ . ____ . ____ . ____ . ____
 72
    65
 73
     4
 40
18.0
 49
12.0
 74
     0
 49
-1.5
 74
     0
 49
3.0
 74
     0
 49
-1.5
 74
     0
  0
LTYPE
  5
66
330
5
100
AcDbSymbolTableRecord
100
AcDbLinetypeTableRecord
  2
AM_ISO09W050
 70
     0
  3
_____ . . _____ . . _____ . . ____ .. ____
 72
    65
 73
     6
 40
22.5
 49
12.0
 74
     0
 49
-1.5
 74
     0
 49
3.0
 74
     0
 49
-1.5
 74
     0
 49
3.0
 74
     0
 49
-1.5
 74
     0
  0
LTYPE
  5
67
330
5
100
AcDbSymbolTableRecord
100
AcDbLinetypeTableRecord
  2
Amconstr
 70
     0
  3
_______________________
 72
    65
 73
     2
 40
9999.0
 49
9999.0
 74
     0
 49
0.0
 74
     0
  0
LTYPE
  5
68
330
5
100
AcDbSymbolTableRecord
100
AcDbLinetypeTableRecord
  2
AM_ISO08W050x2
 70
     0
  3
__ . __ . __ . __ . __ . __
 72
    65
 73
     4
 40
9.0
 49
6.0
 74
     0
 49
-0.75
 74
     0
 49
1.5
 74
     0
 49
-0.75
 74
     0
  0
LTYPE
  5
69
330
5
100
AcDbSymbolTableRecord
100
AcDbLinetypeTableRecord
  2
AM_ISO02W050x2
 70
     0
  3
 _ _ _ _ _ _ _ _ _ _ _ _
 72
    65
 73
     2
 40
3.75
 49
3.0
 74
     0
 49
-0.75
 74
     0
  0
LTYPE
  5
6C
330
5
100
AcDbSymbolTableRecord
100
AcDbLinetypeTableRecord
  2
Amzigzag
 70
     0
  3
/\/-/\/-/\/-/\/-/\/-/\/
 72
    65
 73
     2
 40
11.0001
 49
0.0001
 74
     4
 75
   135
340
6B
 46
0.04
 50
0.0
 44
0.0
 45
0.0
 49
-11.0
 74
     0
  0
LTYPE
  5
7A
330
5
100
AcDbSymbolTableRecord
100
AcDbLinetypeTableRecord
  2
ACISOWELD
 70
     0
  3
_ _ _ _ _
 72
    65
 73
     2
 40
2.0
 49
2.0
 74
     0
 49
-1.0
 74
     0
  0
LTYPE
  5
7B
330
5
100
AcDbSymbolTableRecord
100
AcDbLinetypeTableRecord
  2
ACISOTGB
 70
     0
  3
__ . . __ . .
 72
    65
 73
     6
 40
9.0
 49
4.0
 74
     0
 49
-1.0
 74
     0
 49
1.0
 74
     0
 49
-1.0
 74
     0
 49
1.0
 74
     0
 49
-1.0
 74
     0
  0
LTYPE
  5
7C
330
5
100
AcDbSymbolTableRecord
100
AcDbLinetypeTableRecord
  2
ACISOTGL
 70
     0
  3
_ _ _ _ _
 72
    65
 73
     2
 40
3.0
 49
2.0
 74
     0
 49
-1.0
 74
     0
  0
LTYPE
  5
7E
330
5
100
AcDbSymbolTableRecord
100
AcDbLinetypeTableRecord
  2
CENTER
 70
     0
  3
__ . __
 72
    65
 73
     4
 40
7.0
 49
4.0
 74
     0
 49
-1.0
 74
     0
 49
1.0
 74
     0
 49
-1.0
 74
     0
  0
LTYPE
  5
D8
330
5
100
AcDbSymbolTableRecord
100
AcDbLinetypeTableRecord
  2
HIDDEN
 70
     0
  3
Hidden __ __ __ __ __ __ __ __ __ __ __ __ __ _
 72
    65
 73
     2
 40
9.524999999999998
 49
6.349999999999999
 74
     0
 49
-3.174999999999999
 74
     0
  0
LTYPE
  5
D9
330
5
100
AcDbSymbolTableRecord
100
AcDbLinetypeTableRecord
  2
PHANTOM2
 70
     0
  3
Phantom (.5x) ___ _ _ ___ _ _ ___ _ _ ___ _ _
 72
    65
 73
     6
 40
31.75
 49
15.875
 74
     0
 49
-3.174999999999999
 74
     0
 49
3.174999999999999
 74
     0
 49
-3.174999999999999
 74
     0
 49
3.174999999999999
 74
     0
 49
-3.174999999999999
 74
     0
  0
LTYPE
  5
71F
330
5
100
AcDbSymbolTableRecord
100
AcDbLinetypeTableRecord
  2
HIDDEN2
 70
     0
  3
Hidden (.5x) _ _ _ _ _ _ _ _ _ _ _ _ _ _ _ _ _
 72
    65
 73
     2
 40
4.762499999999999
 49
3.174999999999999
 74
     0
 49
-1.587499999999999
 74
     0
  0
LTYPE
  5
63A7
330
5
100
AcDbSymbolTableRecord
100
AcDbLinetypeTableRecord
  2
CENTERX2
 70
     0
  3
Center (2x) ________  __  ________  __  _____
 72
    65
 73
     4
 40
101.6
 49
63.5
 74
     0
 49
-12.7
 74
     0
 49
12.7
 74
     0
 49
-12.7
 74
     0
  0
ENDTAB
  0
TABLE
  2
LAYER
  5
2
102
{ACAD_XDICTIONARY
360
3F9
102
}
330
0
100
AcDbSymbolTable
 70
     9
  0
LAYER
  5
10
330
2
100
AcDbSymbolTableRecord
100
AcDbLayerTableRecord
  2
0
 70
     0
 62
     7
  6
Continuous
370
    -3
390
F
  0
LAYER
  5
206
330
2
100
AcDbSymbolTableRecord
100
AcDbLayerTableRecord
  2
Defpoints
 70
     0
 62
     7
  6
Continuous
290
     0
370
    -3
390
F
  0
LAYER
  5
720
330
2
100
AcDbSymbolTableRecord
100
AcDbLayerTableRecord
  2
圖層1輪廓線
 70
     0
 62
     7
  6
Continuous
370
    50
390
728
  0
LAYER
  5
721
330
2
100
AcDbSymbolTableRecord
100
AcDbLayerTableRecord
  2
圖層2中心線
 70
     0
 62
     1
  6
CENTERX2
370
    18
390
729
  0
LAYER
  5
722
330
2
100
AcDbSymbolTableRecord
100
AcDbLayerTableRecord
  2
圖層3虛線
 70
     0
 62
     3
  6
HIDDEN2
370
    25
390
72A
  0
LAYER
  5
723
330
2
100
AcDbSymbolTableRecord
100
AcDbLayerTableRecord
  2
圖層4尺寸線
 70
     0
 62
     5
  6
Continuous
370
    25
390
72B
  0
LAYER
  5
B2A
330
2
100
AcDbSymbolTableRecord
100
AcDbLayerTableRecord
  2
AM_5
 70
     0
 62
     5
  6
Continuous
370
    50
390
F
  0
LAYER
  5
15F9
330
2
100
AcDbSymbolTableRecord
100
AcDbLayerTableRecord
  2
AM_7
 70
     0
 62
     1
  6
CENTER
370
    25
390
F
  0
LAYER
  5
7624
330
2
100
AcDbSymbolTableRecord
100
AcDbLayerTableRecord
  2
LOGO
 70
     0
 62
     7
  6
Continuous
370
    -3
390
F
  0
ENDTAB
  0
TABLE
  2
STYLE
  5
3
330
0
100
AcDbSymbolTable
 70
     7
  0
STYLE
  5
11
330
3
100
AcDbSymbolTableRecord
100
AcDbTextStyleTableRecord
  2
STANDARD
 70
     0
 40
0.0
 41
1.0
 50
0.0
 71
     0
 42
3.0
  3
ISOCP.SHX
  4
CHINESET.SHX
  0
STYLE
  5
6B
330
3
100
AcDbSymbolTableRecord
100
AcDbTextStyleTableRecord
  2

 70
     1
 40
0.0
 41
1.0
 50
0.0
 71
     0
 42
2.5
  3
ltypeshp.shx
  4

  0
STYLE
  5
6D
330
3
100
AcDbSymbolTableRecord
100
AcDbTextStyleTableRecord
  2
ACISOTS
 70
     0
 40
1.0
 41
1.0
 50
0.0
 71
     0
 42
1.0
  3
isocp.shx
  4
chineset.shx
  0
STYLE
  5
79
330
3
100
AcDbSymbolTableRecord
100
AcDbTextStyleTableRecord
  2
ACISOGDT
 70
     0
 40
0.0
 41
1.0
 50
0.0
 71
     0
 42
2.5
  3
amgdt.shx
  4
chineset.shx
  0
STYLE
  5
60C
330
3
100
AcDbSymbolTableRecord
100
AcDbTextStyleTableRecord
  2
CHINESET
 70
     0
 40
0.0
 41
1.0
 50
0.0
 71
     0
 42
3.0
  3
simplex.shx
  4
CHINESET.SHX
  0
STYLE
  5
774A
330
3
100
AcDbSymbolTableRecord
100
AcDbTextStyleTableRecord
  2
WIN
 70
     0
 40
0.0
 41
1.0
 50
0.0
 71
     0
 42
4.0
  3
PMingLiU.ttf
  4

1001
ACAD
1000
PMingLiU
1071
    34834
  0
ENDTAB
  0
TABLE
  2
VIEW
  5
6
330
0
100
AcDbSymbolTable
 70
     0
  0
ENDTAB
  0
TABLE
  2
UCS
  5
7
330
0
100
AcDbSymbolTable
 70
     0
  0
ENDTAB
  0
TABLE
  2
APPID
  5
9
330
0
100
AcDbSymbolTable
 70
    21
  0
APPID
  5
12
330
9
100
AcDbSymbolTableRecord
100
AcDbRegAppTableRecord
  2
ACAD
 70
     0
  0
APPID
  5
46
330
9
100
AcDbSymbolTableRecord
100
AcDbRegAppTableRecord
  2
MCAD_NO_VIS
 70
     0
  0
APPID
  5
47
330
9
100
AcDbSymbolTableRecord
100
AcDbRegAppTableRecord
  2
ACAD_TEMP_GRAPHIC
 70
     0
  0
APPID
  5
58
330
9
100
AcDbSymbolTableRecord
100
AcDbRegAppTableRecord
  2
ACATTRIBSERVICES
 70
     0
  0
APPID
  5
EE
330
9
100
AcDbSymbolTableRecord
100
AcDbRegAppTableRecord
  2
AD_DRAW
 70
     0
  0
APPID
  5
10C
330
9
100
AcDbSymbolTableRecord
100
AcDbRegAppTableRecord
  2
DESIGNERASSEMBLIES
 70
     0
  0
APPID
  5
111
330
9
100
AcDbSymbolTableRecord
100
AcDbRegAppTableRecord
  2
ACADM_DIM_EDIT
 70
     0
  0
APPID
  5
112
330
9
100
AcDbSymbolTableRecord
100
AcDbRegAppTableRecord
  2
AMDT_DM_ADJ
 70
     0
  0
APPID
  5
22C
330
9
100
AcDbSymbolTableRecord
100
AcDbRegAppTableRecord
  2
ACAD_DSTYLE_DIMTEXT_FILL
 70
     0
  0
APPID
  5
452
330
9
100
AcDbSymbolTableRecord
100
AcDbRegAppTableRecord
  2
GENIUS_GENOENT_13
 70
     0
  0
APPID
  5
453
330
9
100
AcDbSymbolTableRecord
100
AcDbRegAppTableRecord
  2
GENIUS_GENOBJ-N-CRS_13
 70
     0
  0
APPID
  5
454
330
9
100
AcDbSymbolTableRecord
100
AcDbRegAppTableRecord
  2
GENIUS_GENOLIS_13
 70
     0
  0
APPID
  5
455
330
9
100
AcDbSymbolTableRecord
100
AcDbRegAppTableRecord
  2
GENIUS_GENODEF_13
 70
     0
  0
APPID
  5
456
330
9
100
AcDbSymbolTableRecord
100
AcDbRegAppTableRecord
  2
GENIUS_GENOREF_13
 70
     0
  0
APPID
  5
6F3
330
9
100
AcDbSymbolTableRecord
100
AcDbRegAppTableRecord
  2
ACAD_PSEXT
 70
     0
  0
APPID
  5
727
330
9
100
AcDbSymbolTableRecord
100
AcDbRegAppTableRecord
  2
AcAecLayerStandard
 70
     0
  0
APPID
  5
D7F
330
9
100
AcDbSymbolTableRecord
100
AcDbRegAppTableRecord
  2
GENIUS_GENDTOL_13
 70
     0
  0
APPID
  5
15FB
330
9
100
AcDbSymbolTableRecord
100
AcDbRegAppTableRecord
  2
GENIUS_GENOBJ-N-CEN_13
 70
     0
  0
APPID
  5
15FC
330
9
100
AcDbSymbolTableRecord
100
AcDbRegAppTableRecord
  2
GENIUS_GENCEN_19
 70
     0
  0
APPID
  5
300F
330
9
100
AcDbSymbolTableRecord
100
AcDbRegAppTableRecord
  2
GENIUS_GENREC_14
 70
     0
  0
APPID
  5
3010
330
9
100
AcDbSymbolTableRecord
100
AcDbRegAppTableRecord
  2
GENIUS_GENOBJ-N-REC_13
 70
     0
  0
ENDTAB
  0
TABLE
  2
DIMSTYLE
  5
A
330
0
100
AcDbSymbolTable
 70
     9
100
AcDbDimStyleTable
 71
     3
340
81
340
8B
340
86
  0
DIMSTYLE
105
81
330
A
100
AcDbSymbolTableRecord
100
AcDbDimStyleTableRecord
  2
AM_ISO
 70
     0
  4
"
 41
20.0
 42
3.0
 43
50.0
 44
4.0
 47
0.1
 48
0.1
 73
     0
 74
     0
 77
     1
 78
     8
 79
     2
140
20.0
141
0.0
143
0.0393701
146
0.71
147
6.0
172
     1
176
   256
177
   256
178
   256
271
     2
272
     2
283
     2
284
     8
340
11
371
    -1
372
    -1
  0
DIMSTYLE
105
82
330
A
100
AcDbSymbolTableRecord
100
AcDbDimStyleTableRecord
  2
AM_ISO$3
 70
     0
  4
"
 41
20.0
 42
3.0
 43
50.0
 44
4.0
 47
0.1
 48
0.1
 73
     0
 77
     1
 78
     8
 79
     2
140
20.0
141
0.0
143
0.0393701
146
0.71
147
6.0
176
   256
177
   256
178
   256
271
     2
272
     2
283
     2
284
     8
288
     1
289
     0
340
11
371
    -1
372
    -1
  0
DIMSTYLE
105
83
330
A
100
AcDbSymbolTableRecord
100
AcDbDimStyleTableRecord
  2
AM_ISO$4
 70
     0
  4
"
 41
20.0
 42
3.0
 43
50.0
 44
4.0
 47
0.1
 48
0.1
 73
     0
 77
     1
 78
     8
 79
     2
140
20.0
141
0.0
143
0.0393701
146
0.71
147
6.0
176
   256
177
   256
178
   256
271
     2
272
     2
283
     2
284
     8
288
     1
289
     0
340
11
371
    -1
372
    -1
  0
DIMSTYLE
105
84
330
A
100
AcDbSymbolTableRecord
100
AcDbDimStyleTableRecord
  2
AM_ISO$6
 70
     0
  4
"
 41
20.0
 42
3.0
 43
50.0
 44
4.0
 47
0.1
 48
0.1
 73
     0
 74
     0
 78
     8
 79
     2
140
20.0
141
0.0
143
0.0393701
146
0.71
147
6.0
172
     1
176
   256
177
   256
178
   256
271
     2
272
     2
283
     2
284
     8
340
11
371
    -1
372
    -1
  0
DIMSTYLE
105
85
330
A
100
AcDbSymbolTableRecord
100
AcDbDimStyleTableRecord
  2
AM_ISO$7
 70
     0
  4
"
 41
20.0
 42
3.0
 43
50.0
 44
4.0
 47
0.1
 48
0.1
 73
     0
 74
     0
 77
     1
 78
     8
 79
     2
140
5.0
141
0.0
143
0.0393701
146
0.71
147
6.0
172
     1
176
   256
177
   256
178
   256
271
     2
272
     2
283
     2
284
     8
340
11
371
    -1
372
    -1
  0
DIMSTYLE
105
86
330
A
100
AcDbSymbolTableRecord
100
AcDbDimStyleTableRecord
  2
AM_ISO$SF
 70
     0
  4
"
 41
2.5
 42
1.0
 43
10.0
 44
1.0
 47
0.1
 48
0.1
 73
     0
 74
     0
 75
     1
 76
     1
 77
     1
 78
     8
 79
     2
140
3.5
141
0.0
143
0.0393701
146
0.71
147
1.5
172
     1
176
   256
177
   256
178
     2
271
     2
272
     3
274
     4
283
     0
284
     8
340
11
371
    -1
372
    -1
  0
DIMSTYLE
105
8B
330
A
100
AcDbSymbolTableRecord
100
AcDbDimStyleTableRecord
  2
AM_ISO$SH
 70
     0
  4
"
 41
2.5
 42
1.0
 43
10.0
 44
1.0
 47
0.1
 48
0.1
 73
     0
 74
     0
 75
     1
 76
     1
 77
     1
 78
     8
 79
     2
140
3.5
141
0.0
143
0.0393701
144
2.0
146
0.71
147
1.5
172
     1
173
     1
176
   256
177
   256
178
     2
271
     2
272
     3
274
     4
283
     0
284
     8
340
11
343
87
371
    -1
372
    -1
  0
DIMSTYLE
105
40B
102
{ACAD_REACTORS
330
3454
330
3455
330
3482
330
3483
330
34AE
330
34B1
330
34B4
330
34B7
330
34BA
330
3542
330
355A
330
355D
330
3588
330
358B
330
358E
330
35F8
330
3644
330
3645
330
3646
330
3653
330
3654
330
3655
330
3656
102
}
330
A
100
AcDbSymbolTableRecord
100
AcDbDimStyleTableRecord
  2
AM_ISO$0
 70
     0
  4
"
 41
20.0
 42
3.0
 43
50.0
 44
4.0
 47
0.1
 48
0.1
 73
     0
 74
     0
 77
     1
 78
     8
 79
     2
140
20.0
141
0.0
143
0.0393701
146
0.71
147
6.0
172
     1
176
   256
177
   256
178
   256
271
     2
272
     2
283
     2
284
     8
340
11
371
    -1
372
    -1
  0
ENDTAB
  0
TABLE
  2
BLOCK_RECORD
  5
1
330
0
100
AcDbSymbolTable
 70
    29
  0
BLOCK_RECORD
  5
1F
102
{ACAD_XDICTIONARY
360
8F
102
}
330
1
100
AcDbSymbolTableRecord
100
AcDbBlockTableRecord
  2
*Model_Space
340
22
  0
BLOCK_RECORD
  5
1B
330
1
100
AcDbSymbolTableRecord
100
AcDbBlockTableRecord
  2
*Paper_Space
340
1E
  0
BLOCK_RECORD
  5
23
330
1
100
AcDbSymbolTableRecord
100
AcDbBlockTableRecord
  2
*Paper_Space0
340
26
  0
BLOCK_RECORD
  5
87
330
1
100
AcDbSymbolTableRecord
100
AcDbBlockTableRecord
  2
GENAXEH
340
0
  0
BLOCK_RECORD
  5
3457
330
1
100
AcDbSymbolTableRecord
100
AcDbBlockTableRecord
  2
*D3
340
0
  0
BLOCK_RECORD
  5
3463
330
1
100
AcDbSymbolTableRecord
100
AcDbBlockTableRecord
  2
*D4
340
0
  0
BLOCK_RECORD
  5
3484
330
1
100
AcDbSymbolTableRecord
100
AcDbBlockTableRecord
  2
*D5
340
0
  0
BLOCK_RECORD
  5
3490
330
1
100
AcDbSymbolTableRecord
100
AcDbBlockTableRecord
  2
*D6
340
0
  0
BLOCK_RECORD
  5
34BD
330
1
100
AcDbSymbolTableRecord
100
AcDbBlockTableRecord
  2
*D7
340
0
  0
BLOCK_RECORD
  5
34C9
330
1
100
AcDbSymbolTableRecord
100
AcDbBlockTableRecord
  2
*D8
340
0
  0
BLOCK_RECORD
  5
34D5
330
1
100
AcDbSymbolTableRecord
100
AcDbBlockTableRecord
  2
*D9
340
0
  0
BLOCK_RECORD
  5
34E1
330
1
100
AcDbSymbolTableRecord
100
AcDbBlockTableRecord
  2
*D10
340
0
  0
BLOCK_RECORD
  5
34ED
330
1
100
AcDbSymbolTableRecord
100
AcDbBlockTableRecord
  2
*D11
340
0
  0
BLOCK_RECORD
  5
3545
330
1
100
AcDbSymbolTableRecord
100
AcDbBlockTableRecord
  2
*D12
340
0
  0
BLOCK_RECORD
  5
355E
330
1
100
AcDbSymbolTableRecord
100
AcDbBlockTableRecord
  2
*D13
340
0
  0
BLOCK_RECORD
  5
356A
330
1
100
AcDbSymbolTableRecord
100
AcDbBlockTableRecord
  2
*D14
340
0
  0
BLOCK_RECORD
  5
3591
330
1
100
AcDbSymbolTableRecord
100
AcDbBlockTableRecord
  2
*D15
340
0
  0
BLOCK_RECORD
  5
359D
330
1
100
AcDbSymbolTableRecord
100
AcDbBlockTableRecord
  2
*D16
340
0
  0
BLOCK_RECORD
  5
35A9
330
1
100
AcDbSymbolTableRecord
100
AcDbBlockTableRecord
  2
*D17
340
0
  0
BLOCK_RECORD
  5
35FB
330
1
100
AcDbSymbolTableRecord
100
AcDbBlockTableRecord
  2
*D18
340
0
  0
BLOCK_RECORD
  5
3659
330
1
100
AcDbSymbolTableRecord
100
AcDbBlockTableRecord
  2
*D19
340
0
  0
BLOCK_RECORD
  5
3667
330
1
100
AcDbSymbolTableRecord
100
AcDbBlockTableRecord
  2
*D20
340
0
  0
BLOCK_RECORD
  5
3675
330
1
100
AcDbSymbolTableRecord
100
AcDbBlockTableRecord
  2
*D21
340
0
  0
BLOCK_RECORD
  5
3681
330
1
100
AcDbSymbolTableRecord
100
AcDbBlockTableRecord
  2
*D22
340
0
  0
BLOCK_RECORD
  5
368F
330
1
100
AcDbSymbolTableRecord
100
AcDbBlockTableRecord
  2
*D23
340
0
  0
BLOCK_RECORD
  5
369D
330
1
100
AcDbSymbolTableRecord
100
AcDbBlockTableRecord
  2
*D24
340
0
  0
BLOCK_RECORD
  5
36AB
330
1
100
AcDbSymbolTableRecord
100
AcDbBlockTableRecord
  2
*D25
340
0
  0
BLOCK_RECORD
  5
78C5
330
1
100
AcDbSymbolTableRecord
100
AcDbBlockTableRecord
  2
*S27
340
0
  0
BLOCK_RECORD
  5
78CD
330
1
100
AcDbSymbolTableRecord
100
AcDbBlockTableRecord
  2
*S28
340
0
  0
ENDTAB
  0
ENDSEC
  0
SECTION
  2
BLOCKS
  0
BLOCK
  5
20
330
1F
100
AcDbEntity
  8
0
100
AcDbBlockBegin
  2
*Model_Space
 70
     0
 10
0.0
 20
0.0
 30
0.0
  3
*Model_Space
  1

  0
ENDBLK
  5
21
330
1F
100
AcDbEntity
  8
0
100
AcDbBlockEnd
  0
BLOCK
  5
1C
330
1B
100
AcDbEntity
 67
     1
  8
0
100
AcDbBlockBegin
  2
*Paper_Space
 70
     0
 10
0.0
 20
0.0
 30
0.0
  3
*Paper_Space
  1

  0
ENDBLK
  5
1D
330
1B
100
AcDbEntity
 67
     1
  8
0
100
AcDbBlockEnd
  0
BLOCK
  5
24
330
23
100
AcDbEntity
  8
0
100
AcDbBlockBegin
  2
*Paper_Space0
 70
     0
 10
0.0
 20
0.0
 30
0.0
  3
*Paper_Space0
  1

  0
ENDBLK
  5
25
330
23
100
AcDbEntity
  8
0
100
AcDbBlockEnd
  0
BLOCK
  5
89
330
87
100
AcDbEntity
  8
0
100
AcDbBlockBegin
  2
GENAXEH
 70
     0
 10
0.0
 20
0.0
 30
0.0
  3
GENAXEH
  1

  0
LINE
  5
88
330
87
100
AcDbEntity
  8
0
100
AcDbLine
 10
-1.0
 20
0.0
 30
0.0
 11
1.0
 21
0.0
 31
0.0
  0
ENDBLK
  5
8A
330
87
100
AcDbEntity
  8
0
100
AcDbBlockEnd
  0
BLOCK
  5
3461
330
3457
100
AcDbEntity
  8
0
100
AcDbBlockBegin
  2
*D3
 70
     1
 10
0.0
 20
0.0
 30
0.0
  3
*D3
  1

  0
LINE
  5
3908
330
3457
100
AcDbEntity
  8
AM_5
100
AcDbLine
 10
3344.321295473387
 20
-541.7727669680593
 30
0.0
 11
3344.321295473387
 21
-590.3495904710934
 31
0.0
  0
LINE
  5
3909
330
3457
100
AcDbEntity
  8
AM_5
100
AcDbLine
 10
3514.321295473386
 20
-541.0051631838753
 30
0.0
 11
3514.321295473386
 21
-590.3495904710934
 31
0.0
  0
LINE
  5
390A
330
3457
100
AcDbEntity
  8
AM_5
100
AcDbLine
 10
3364.321295473386
 20
-586.3495904710934
 30
0.0
 11
3494.321295473387
 21
-586.3495904710934
 31
0.0
  0
SOLID
  5
390B
330
3457
100
AcDbEntity
  8
AM_5
100
AcDbTrace
 10
3364.321295473386
 20
-583.0162571377599
 30
0.0
 11
3364.321295473386
 21
-589.6829238044268
 31
0.0
 12
3344.321295473387
 22
-586.3495904710934
 32
0.0
 13
3344.321295473387
 23
-586.3495904710934
 33
0.0
  0
SOLID
  5
390C
330
3457
100
AcDbEntity
  8
AM_5
100
AcDbTrace
 10
3494.321295473387
 20
-583.0162571377599
 30
0.0
 11
3494.321295473387
 21
-589.6829238044268
 31
0.0
 12
3514.321295473386
 22
-586.3495904710934
 32
0.0
 13
3514.321295473386
 23
-586.3495904710934
 33
0.0
  0
MTEXT
  5
390D
330
3457
100
AcDbEntity
  8
AM_5
100
AcDbMText
 10
3429.321295473386
 20
-570.3495904710933
 30
0.0
 40
20.0
 41
0.0
 71
     5
 72
     1
  1
\A2;170
 73
     1
 44
1.0
1001
ACAD
1000
MTEXTBEGIN
1070
    73
1070
     1
1070
    44
1040
1.0
1070
    74
1070
     0
1000
MTEXTEND
  0
POINT
  5
390E
330
3457
100
AcDbEntity
  8
Defpoints
 62
     0
100
AcDbPoint
 10
3344.321295473387
 20
-538.7727669680593
 30
0.0
  0
POINT
  5
390F
330
3457
100
AcDbEntity
  8
Defpoints
 62
     0
100
AcDbPoint
 10
3514.321295473386
 20
-538.0051631838752
 30
0.0
  0
POINT
  5
3910
330
3457
100
AcDbEntity
  8
Defpoints
 62
     0
100
AcDbPoint
 10
3514.321295473386
 20
-586.3495904710934
 30
0.0
  0
ENDBLK
  5
3462
330
3457
100
AcDbEntity
  8
0
100
AcDbBlockEnd
  0
BLOCK
  5
346D
330
3463
100
AcDbEntity
  8
0
100
AcDbBlockBegin
  2
*D4
 70
     1
 10
0.0
 20
0.0
 30
0.0
  3
*D4
  1

  0
LINE
  5
3911
330
3463
100
AcDbEntity
  8
AM_5
100
AcDbLine
 10
3329.321295473386
 20
-529.3495904710932
 30
0.0
 11
3329.321295473386
 21
-640.3495904710934
 31
0.0
  0
LINE
  5
3912
330
3463
100
AcDbEntity
  8
AM_5
100
AcDbLine
 10
3529.321295473386
 20
-529.3495904710932
 30
0.0
 11
3529.321295473386
 21
-640.3495904710934
 31
0.0
  0
LINE
  5
3913
330
3463
100
AcDbEntity
  8
AM_5
100
AcDbLine
 10
3349.321295473386
 20
-636.3495904710934
 30
0.0
 11
3509.321295473387
 21
-636.3495904710934
 31
0.0
  0
SOLID
  5
3914
330
3463
100
AcDbEntity
  8
AM_5
100
AcDbTrace
 10
3349.321295473386
 20
-633.0162571377599
 30
0.0
 11
3349.321295473386
 21
-639.6829238044268
 31
0.0
 12
3329.321295473386
 22
-636.3495904710934
 32
0.0
 13
3329.321295473386
 23
-636.3495904710934
 33
0.0
  0
SOLID
  5
3915
330
3463
100
AcDbEntity
  8
AM_5
100
AcDbTrace
 10
3509.321295473387
 20
-633.0162571377599
 30
0.0
 11
3509.321295473387
 21
-639.6829238044268
 31
0.0
 12
3529.321295473386
 22
-636.3495904710934
 32
0.0
 13
3529.321295473386
 23
-636.3495904710934
 33
0.0
  0
MTEXT
  5
3916
330
3463
100
AcDbEntity
  8
AM_5
100
AcDbMText
 10
3429.321295473386
 20
-620.3476219671563
 30
0.0
 40
20.0
 41
0.0
 71
     5
 72
     1
  1
\A2;200
 73
     1
 44
1.0
1001
ACAD
1000
MTEXTBEGIN
1070
    73
1070
     1
1070
    44
1040
1.0
1070
    74
1070
     0
1000
MTEXTEND
  0
POINT
  5
3917
330
3463
100
AcDbEntity
  8
Defpoints
 62
     0
100
AcDbPoint
 10
3329.321295473386
 20
-526.3495904710932
 30
0.0
  0
POINT
  5
3918
330
3463
100
AcDbEntity
  8
Defpoints
 62
     0
100
AcDbPoint
 10
3529.321295473386
 20
-526.3495904710932
 30
0.0
  0
POINT
  5
3919
330
3463
100
AcDbEntity
  8
Defpoints
 62
     0
100
AcDbPoint
 10
3529.321295473386
 20
-636.3495904710934
 30
0.0
  0
ENDBLK
  5
346E
330
3463
100
AcDbEntity
  8
0
100
AcDbBlockEnd
  0
BLOCK
  5
348E
330
3484
100
AcDbEntity
  8
0
100
AcDbBlockBegin
  2
*D5
 70
     1
 10
0.0
 20
0.0
 30
0.0
  3
*D5
  1

  0
LINE
  5
391A
330
3484
100
AcDbEntity
  8
AM_5
100
AcDbLine
 10
3840.903923975402
 20
-542.1471982212688
 30
0.0
 11
3840.903923975402
 21
-590.3495904710926
 31
0.0
  0
LINE
  5
391B
330
3484
100
AcDbEntity
  8
AM_5
100
AcDbLine
 10
4070.903923975403
 20
-541.2999069976518
 30
0.0
 11
4070.903923975403
 21
-590.3495904710926
 31
0.0
  0
LINE
  5
391C
330
3484
100
AcDbEntity
  8
AM_5
100
AcDbLine
 10
3860.903923975402
 20
-586.3495904710926
 30
0.0
 11
4050.903923975403
 21
-586.3495904710926
 31
0.0
  0
SOLID
  5
391D
330
3484
100
AcDbEntity
  8
AM_5
100
AcDbTrace
 10
3860.903923975402
 20
-583.0162571377591
 30
0.0
 11
3860.903923975402
 21
-589.682923804426
 31
0.0
 12
3840.903923975402
 22
-586.3495904710926
 32
0.0
 13
3840.903923975402
 23
-586.3495904710926
 33
0.0
  0
SOLID
  5
391E
330
3484
100
AcDbEntity
  8
AM_5
100
AcDbTrace
 10
4050.903923975403
 20
-583.0162571377591
 30
0.0
 11
4050.903923975403
 21
-589.682923804426
 31
0.0
 12
4070.903923975403
 22
-586.3495904710926
 32
0.0
 13
4070.903923975403
 23
-586.3495904710926
 33
0.0
  0
MTEXT
  5
391F
330
3484
100
AcDbEntity
  8
AM_5
100
AcDbMText
 10
3955.903923975403
 20
-570.3476219671556
 30
0.0
 40
20.0
 41
0.0
 71
     5
 72
     1
  1
\A2;230
 73
     1
 44
1.0
1001
ACAD
1000
MTEXTBEGIN
1070
    73
1070
     1
1070
    44
1040
1.0
1070
    74
1070
     0
1000
MTEXTEND
  0
POINT
  5
3920
330
3484
100
AcDbEntity
  8
Defpoints
 62
     0
100
AcDbPoint
 10
3840.903923975402
 20
-539.1471982212688
 30
0.0
  0
POINT
  5
3921
330
3484
100
AcDbEntity
  8
Defpoints
 62
     0
100
AcDbPoint
 10
4070.903923975403
 20
-538.2999069976517
 30
0.0
  0
POINT
  5
3922
330
3484
100
AcDbEntity
  8
Defpoints
 62
     0
100
AcDbPoint
 10
4070.903923975403
 20
-586.3495904710926
 30
0.0
  0
ENDBLK
  5
348F
330
3484
100
AcDbEntity
  8
0
100
AcDbBlockEnd
  0
BLOCK
  5
349A
330
3490
100
AcDbEntity
  8
0
100
AcDbBlockBegin
  2
*D6
 70
     1
 10
0.0
 20
0.0
 30
0.0
  3
*D6
  1

  0
LINE
  5
3923
330
3490
100
AcDbEntity
  8
AM_5
100
AcDbLine
 10
3825.903923975403
 20
-529.3495904710932
 30
0.0
 11
3825.903923975403
 21
-640.3495904710934
 31
0.0
  0
LINE
  5
3924
330
3490
100
AcDbEntity
  8
AM_5
100
AcDbLine
 10
4205.903923975402
 20
-529.3495904710935
 30
0.0
 11
4205.903923975402
 21
-640.3495904710934
 31
0.0
  0
LINE
  5
3925
330
3490
100
AcDbEntity
  8
AM_5
100
AcDbLine
 10
3845.903923975402
 20
-636.3495904710934
 30
0.0
 11
4185.903923975401
 21
-636.3495904710934
 31
0.0
  0
SOLID
  5
3926
330
3490
100
AcDbEntity
  8
AM_5
100
AcDbTrace
 10
3845.903923975402
 20
-633.0162571377599
 30
0.0
 11
3845.903923975402
 21
-639.6829238044268
 31
0.0
 12
3825.903923975403
 22
-636.3495904710934
 32
0.0
 13
3825.903923975403
 23
-636.3495904710934
 33
0.0
  0
SOLID
  5
3927
330
3490
100
AcDbEntity
  8
AM_5
100
AcDbTrace
 10
4185.903923975401
 20
-633.0162571377599
 30
0.0
 11
4185.903923975401
 21
-639.6829238044268
 31
0.0
 12
4205.903923975402
 22
-636.3495904710934
 32
0.0
 13
4205.903923975402
 23
-636.3495904710934
 33
0.0
  0
MTEXT
  5
3928
330
3490
100
AcDbEntity
  8
AM_5
100
AcDbMText
 10
4015.903923975402
 20
-620.3495904710933
 30
0.0
 40
20.0
 41
0.0
 71
     5
 72
     1
  1
\A2;380
 73
     1
 44
1.0
1001
ACAD
1000
MTEXTBEGIN
1070
    73
1070
     1
1070
    44
1040
1.0
1070
    74
1070
     0
1000
MTEXTEND
  0
POINT
  5
3929
330
3490
100
AcDbEntity
  8
Defpoints
 62
     0
100
AcDbPoint
 10
3825.903923975403
 20
-526.3495904710932
 30
0.0
  0
POINT
  5
392A
330
3490
100
AcDbEntity
  8
Defpoints
 62
     0
100
AcDbPoint
 10
4205.903923975402
 20
-526.3495904710935
 30
0.0
  0
POINT
  5
392B
330
3490
100
AcDbEntity
  8
Defpoints
 62
     0
100
AcDbPoint
 10
4205.903923975402
 20
-636.3495904710934
 30
0.0
  0
ENDBLK
  5
349B
330
3490
100
AcDbEntity
  8
0
100
AcDbBlockEnd
  0
BLOCK
  5
34C7
330
34BD
100
AcDbEntity
  8
0
100
AcDbBlockBegin
  2
*D7
 70
     1
 10
0.0
 20
0.0
 30
0.0
  3
*D7
  1

  0
LINE
  5
392C
330
34BD
100
AcDbEntity
  8
AM_5
100
AcDbLine
 10
3822.903923975403
 20
-526.3495904710934
 30
0.0
 11
3761.903923975403
 21
-526.3495904710934
 31
0.0
  0
LINE
  5
392D
330
34BD
100
AcDbEntity
  8
AM_5
100
AcDbLine
 10
3857.903923975402
 20
-446.3495904710933
 30
0.0
 11
3761.903923975403
 21
-446.3495904710933
 31
0.0
  0
LINE
  5
392E
330
34BD
100
AcDbEntity
  8
AM_5
100
AcDbLine
 10
3765.903923975403
 20
-506.3495904710934
 30
0.0
 11
3765.903923975403
 21
-466.3495904710933
 31
0.0
  0
SOLID
  5
392F
330
34BD
100
AcDbEntity
  8
AM_5
100
AcDbTrace
 10
3762.570590642069
 20
-506.3495904710934
 30
0.0
 11
3769.237257308736
 21
-506.3495904710934
 31
0.0
 12
3765.903923975403
 22
-526.3495904710934
 32
0.0
 13
3765.903923975403
 23
-526.3495904710934
 33
0.0
  0
SOLID
  5
3930
330
34BD
100
AcDbEntity
  8
AM_5
100
AcDbTrace
 10
3762.570590642069
 20
-466.3495904710933
 30
0.0
 11
3769.237257308736
 21
-466.3495904710933
 31
0.0
 12
3765.903923975403
 22
-446.3495904710933
 32
0.0
 13
3765.903923975403
 23
-446.3495904710933
 33
0.0
  0
MTEXT
  5
3931
330
34BD
100
AcDbEntity
  8
AM_5
100
AcDbMText
 10
3749.903923975402
 20
-486.3495904710928
 30
0.0
 40
20.0
 41
0.0
 71
     5
 72
     1
  1
\A2;80
 11
0.0000000000000001
 21
1.0
 31
0.0
 73
     1
 44
1.0
1001
ACAD
1000
MTEXTBEGIN
1070
    73
1070
     1
1070
    44
1040
1.0
1070
    74
1070
     0
1000
MTEXTEND
  0
POINT
  5
3932
330
34BD
100
AcDbEntity
  8
Defpoints
 62
     0
100
AcDbPoint
 10
3825.903923975403
 20
-526.3495904710934
 30
0.0
  0
POINT
  5
3933
330
34BD
100
AcDbEntity
  8
Defpoints
 62
     0
100
AcDbPoint
 10
3860.903923975402
 20
-446.3495904710933
 30
0.0
  0
POINT
  5
3934
330
34BD
100
AcDbEntity
  8
Defpoints
 62
     0
100
AcDbPoint
 10
3765.903923975403
 20
-446.3495904710933
 30
0.0
  0
ENDBLK
  5
34C8
330
34BD
100
AcDbEntity
  8
0
100
AcDbBlockEnd
  0
BLOCK
  5
34D3
330
34C9
100
AcDbEntity
  8
0
100
AcDbBlockBegin
  2
*D8
 70
     1
 10
0.0
 20
0.0
 30
0.0
  3
*D8
  1

  0
LINE
  5
785F
330
34C9
100
AcDbEntity
  8
AM_5
100
AcDbLine
 10
3857.903923975402
 20
-446.3495904710932
 30
0.0
 11
3761.903923975403
 21
-446.3495904710932
 31
0.0
  0
LINE
  5
7860
330
34C9
100
AcDbEntity
  8
AM_5
100
AcDbLine
 10
3932.403923975403
 20
-257.2252665773405
 30
0.0
 11
3761.903923975403
 21
-257.2252665773405
 31
0.0
  0
LINE
  5
7861
330
34C9
100
AcDbEntity
  8
AM_5
100
AcDbLine
 10
3765.903923975403
 20
-426.3495904710932
 30
0.0
 11
3765.903923975403
 21
-277.2252665773404
 31
0.0
  0
SOLID
  5
7862
330
34C9
100
AcDbEntity
  8
AM_5
100
AcDbTrace
 10
3762.570590642069
 20
-426.3495904710932
 30
0.0
 11
3769.237257308736
 21
-426.3495904710932
 31
0.0
 12
3765.903923975403
 22
-446.3495904710932
 32
0.0
 13
3765.903923975403
 23
-446.3495904710932
 33
0.0
  0
SOLID
  5
7863
330
34C9
100
AcDbEntity
  8
AM_5
100
AcDbTrace
 10
3762.570590642069
 20
-277.2252665773404
 30
0.0
 11
3769.237257308736
 21
-277.2252665773404
 31
0.0
 12
3765.903923975403
 22
-257.2252665773405
 32
0.0
 13
3765.903923975403
 23
-257.2252665773405
 33
0.0
  0
MTEXT
  5
7864
330
34C9
100
AcDbEntity
  8
AM_5
100
AcDbMText
 10
3749.901955471465
 20
-351.7874285242162
 30
0.0
 40
20.0
 41
0.0
 71
     5
 72
     1
  1
\A2;Max. 200
 11
0.0000000000000001
 21
1.0
 31
0.0
 73
     1
 44
1.0
1001
ACAD
1000
MTEXTBEGIN
1070
    73
1070
     1
1070
    44
1040
1.0
1070
    74
1070
     0
1000
MTEXTEND
  0
POINT
  5
7865
330
34C9
100
AcDbEntity
  8
Defpoints
 62
     0
100
AcDbPoint
 10
3860.903923975402
 20
-446.3495904710932
 30
0.0
  0
POINT
  5
7866
330
34C9
100
AcDbEntity
  8
Defpoints
 62
     0
100
AcDbPoint
 10
3935.403923975403
 20
-257.2252665773405
 30
0.0
  0
POINT
  5
7867
330
34C9
100
AcDbEntity
  8
Defpoints
 62
     0
100
AcDbPoint
 10
3765.903923975403
 20
-257.2252665773405
 30
0.0
  0
ENDBLK
  5
34D4
330
34C9
100
AcDbEntity
  8
0
100
AcDbBlockEnd
  0
BLOCK
  5
34DF
330
34D5
100
AcDbEntity
  8
0
100
AcDbBlockBegin
  2
*D9
 70
     1
 10
0.0
 20
0.0
 30
0.0
  3
*D9
  1

  0
LINE
  5
393E
330
34D5
100
AcDbEntity
  8
AM_5
100
AcDbLine
 10
3932.403923975403
 20
-257.2252665773405
 30
0.0
 11
3761.903923975403
 21
-257.2252665773405
 31
0.0
  0
LINE
  5
393F
330
34D5
100
AcDbEntity
  8
AM_5
100
AcDbLine
 10
3887.903923975402
 20
-142.2252665773401
 30
0.0
 11
3761.903923975403
 21
-142.2252665773401
 31
0.0
  0
LINE
  5
3940
330
34D5
100
AcDbEntity
  8
AM_5
100
AcDbLine
 10
3765.903923975403
 20
-237.2252665773404
 30
0.0
 11
3765.903923975403
 21
-162.2252665773401
 31
0.0
  0
SOLID
  5
3941
330
34D5
100
AcDbEntity
  8
AM_5
100
AcDbTrace
 10
3762.570590642069
 20
-237.2252665773404
 30
0.0
 11
3769.237257308736
 21
-237.2252665773404
 31
0.0
 12
3765.903923975403
 22
-257.2252665773405
 32
0.0
 13
3765.903923975403
 23
-257.2252665773405
 33
0.0
  0
SOLID
  5
3942
330
34D5
100
AcDbEntity
  8
AM_5
100
AcDbTrace
 10
3762.570590642069
 20
-162.2252665773401
 30
0.0
 11
3769.237257308736
 21
-162.2252665773401
 31
0.0
 12
3765.903923975403
 22
-142.2252665773401
 32
0.0
 13
3765.903923975403
 23
-142.2252665773401
 33
0.0
  0
MTEXT
  5
3943
330
34D5
100
AcDbEntity
  8
AM_5
100
AcDbMText
 10
3749.903923975402
 20
-199.7252665773396
 30
0.0
 40
20.0
 41
0.0
 71
     5
 72
     1
  1
\A2;115
 11
0.0000000000000001
 21
1.0
 31
0.0
 73
     1
 44
1.0
1001
ACAD
1000
MTEXTBEGIN
1070
    73
1070
     1
1070
    44
1040
1.0
1070
    74
1070
     0
1000
MTEXTEND
  0
POINT
  5
3944
330
34D5
100
AcDbEntity
  8
Defpoints
 62
     0
100
AcDbPoint
 10
3935.403923975403
 20
-257.2252665773405
 30
0.0
  0
POINT
  5
3945
330
34D5
100
AcDbEntity
  8
Defpoints
 62
     0
100
AcDbPoint
 10
3890.903923975402
 20
-142.2252665773401
 30
0.0
  0
POINT
  5
3946
330
34D5
100
AcDbEntity
  8
Defpoints
 62
     0
100
AcDbPoint
 10
3765.903923975403
 20
-142.2252665773401
 30
0.0
  0
ENDBLK
  5
34E0
330
34D5
100
AcDbEntity
  8
0
100
AcDbBlockEnd
  0
BLOCK
  5
34EB
330
34E1
100
AcDbEntity
  8
0
100
AcDbBlockBegin
  2
*D10
 70
     1
 10
0.0
 20
0.0
 30
0.0
  3
*D10
  1

  0
LINE
  5
3947
330
34E1
100
AcDbEntity
  8
AM_5
100
AcDbLine
 10
3887.903923975402
 20
-142.2252665773401
 30
0.0
 11
3761.903923975403
 21
-142.2252665773401
 31
0.0
  0
LINE
  5
3948
330
34E1
100
AcDbEntity
  8
AM_5
100
AcDbLine
 10
3922.903923975403
 20
272.7747334226599
 30
0.0
 11
3761.903923975403
 21
272.7747334226599
 31
0.0
  0
LINE
  5
3949
330
34E1
100
AcDbEntity
  8
AM_5
100
AcDbLine
 10
3765.903923975403
 20
-122.2252665773401
 30
0.0
 11
3765.903923975403
 21
252.7747334226599
 31
0.0
  0
SOLID
  5
394A
330
34E1
100
AcDbEntity
  8
AM_5
100
AcDbTrace
 10
3762.570590642069
 20
-122.2252665773401
 30
0.0
 11
3769.237257308736
 21
-122.2252665773401
 31
0.0
 12
3765.903923975403
 22
-142.2252665773401
 32
0.0
 13
3765.903923975403
 23
-142.2252665773401
 33
0.0
  0
SOLID
  5
394B
330
34E1
100
AcDbEntity
  8
AM_5
100
AcDbTrace
 10
3762.570590642069
 20
252.7747334226599
 30
0.0
 11
3769.237257308736
 21
252.7747334226599
 31
0.0
 12
3765.903923975403
 22
272.7747334226599
 32
0.0
 13
3765.903923975403
 23
272.7747334226599
 33
0.0
  0
MTEXT
  5
394C
330
34E1
100
AcDbEntity
  8
AM_5
100
AcDbMText
 10
3749.903923975402
 20
65.27473342266052
 30
0.0
 40
20.0
 41
0.0
 71
     5
 72
     1
  1
\A2;415
 11
0.0000000000000001
 21
1.0
 31
0.0
 73
     1
 44
1.0
1001
ACAD
1000
MTEXTBEGIN
1070
    73
1070
     1
1070
    44
1040
1.0
1070
    74
1070
     0
1000
MTEXTEND
  0
POINT
  5
394D
330
34E1
100
AcDbEntity
  8
Defpoints
 62
     0
100
AcDbPoint
 10
3890.903923975402
 20
-142.2252665773401
 30
0.0
  0
POINT
  5
394E
330
34E1
100
AcDbEntity
  8
Defpoints
 62
     0
100
AcDbPoint
 10
3925.903923975403
 20
272.7747334226599
 30
0.0
  0
POINT
  5
394F
330
34E1
100
AcDbEntity
  8
Defpoints
 62
     0
100
AcDbPoint
 10
3765.903923975403
 20
272.7747334226599
 30
0.0
  0
ENDBLK
  5
34EC
330
34E1
100
AcDbEntity
  8
0
100
AcDbBlockEnd
  0
BLOCK
  5
34F7
330
34ED
100
AcDbEntity
  8
0
100
AcDbBlockBegin
  2
*D11
 70
     1
 10
0.0
 20
0.0
 30
0.0
  3
*D11
  1

  0
LINE
  5
7855
330
34ED
100
AcDbEntity
  8
AM_5
100
AcDbLine
 10
3822.903923975403
 20
-526.3495904710934
 30
0.0
 11
3711.903923975402
 21
-526.3495904710934
 31
0.0
  0
LINE
  5
7856
330
34ED
100
AcDbEntity
  8
AM_5
100
AcDbLine
 10
3922.903923975403
 20
272.7747334226599
 30
0.0
 11
3711.903923975402
 21
272.77473342266
 31
0.0
  0
LINE
  5
7857
330
34ED
100
AcDbEntity
  8
AM_5
100
AcDbLine
 10
3715.903923975402
 20
-506.3495904710934
 30
0.0
 11
3715.903923975402
 21
252.7747334226599
 31
0.0
  0
SOLID
  5
7858
330
34ED
100
AcDbEntity
  8
AM_5
100
AcDbTrace
 10
3712.570590642068
 20
-506.3495904710934
 30
0.0
 11
3719.237257308736
 21
-506.3495904710934
 31
0.0
 12
3715.903923975402
 22
-526.3495904710934
 32
0.0
 13
3715.903923975402
 23
-526.3495904710934
 33
0.0
  0
SOLID
  5
7859
330
34ED
100
AcDbEntity
  8
AM_5
100
AcDbTrace
 10
3712.570590642068
 20
252.7747334226599
 30
0.0
 11
3719.237257308736
 21
252.7747334226599
 31
0.0
 12
3715.903923975402
 22
272.7747334226599
 32
0.0
 13
3715.903923975402
 23
272.7747334226599
 33
0.0
  0
MTEXT
  5
785A
330
34ED
100
AcDbEntity
  8
AM_5
100
AcDbMText
 10
3699.903923975402
 20
-126.7874285242161
 30
0.0
 40
20.0
 41
0.0
 71
     5
 72
     1
  1
\A2;Max. 815
 11
0.0000000000000001
 21
1.0
 31
0.0
 73
     1
 44
1.0
1001
ACAD
1000
MTEXTBEGIN
1070
    73
1070
     1
1070
    44
1040
1.0
1070
    74
1070
     0
1000
MTEXTEND
  0
POINT
  5
785B
330
34ED
100
AcDbEntity
  8
Defpoints
 62
     0
100
AcDbPoint
 10
3825.903923975403
 20
-526.3495904710934
 30
0.0
  0
POINT
  5
785C
330
34ED
100
AcDbEntity
  8
Defpoints
 62
     0
100
AcDbPoint
 10
3925.903923975403
 20
272.7747334226599
 30
0.0
  0
POINT
  5
785D
330
34ED
100
AcDbEntity
  8
Defpoints
 62
     0
100
AcDbPoint
 10
3715.903923975402
 20
272.7747334226599
 30
0.0
  0
ENDBLK
  5
34F8
330
34ED
100
AcDbEntity
  8
0
100
AcDbBlockEnd
  0
BLOCK
  5
354F
330
3545
100
AcDbEntity
  8
0
100
AcDbBlockBegin
  2
*D12
 70
     1
 10
0.0
 20
0.0
 30
0.0
  3
*D12
  1

  0
LINE
  5
3959
330
3545
100
AcDbEntity
  8
AM_5
100
AcDbLine
 10
3855.903923975402
 20
-448.3495904710934
 30
0.0
 11
3855.903923975402
 21
-399.4781711485919
 31
0.0
  0
LINE
  5
395A
330
3545
100
AcDbEntity
  8
AM_5
100
AcDbLine
 10
4055.903923975402
 20
-448.3495904710935
 30
0.0
 11
4055.903923975402
 21
-399.4781711485919
 31
0.0
  0
LINE
  5
395B
330
3545
100
AcDbEntity
  8
AM_5
100
AcDbLine
 10
3875.903923975402
 20
-403.4781711485918
 30
0.0
 11
4035.903923975402
 21
-403.4781711485918
 31
0.0
  0
SOLID
  5
395C
330
3545
100
AcDbEntity
  8
AM_5
100
AcDbTrace
 10
3875.903923975402
 20
-400.1448378152585
 30
0.0
 11
3875.903923975402
 21
-406.8115044819252
 31
0.0
 12
3855.903923975402
 22
-403.4781711485918
 32
0.0
 13
3855.903923975402
 23
-403.4781711485918
 33
0.0
  0
SOLID
  5
395D
330
3545
100
AcDbEntity
  8
AM_5
100
AcDbTrace
 10
4035.903923975402
 20
-400.1448378152585
 30
0.0
 11
4035.903923975402
 21
-406.8115044819252
 31
0.0
 12
4055.903923975402
 22
-403.4781711485918
 32
0.0
 13
4055.903923975402
 23
-403.4781711485918
 33
0.0
  0
MTEXT
  5
395E
330
3545
100
AcDbEntity
  8
AM_5
100
AcDbMText
 10
3955.903923975402
 20
-387.4762026446548
 30
0.0
 40
20.0
 41
0.0
 71
     5
 72
     1
  1
\A2;200
 73
     1
 44
1.0
1001
ACAD
1000
MTEXTBEGIN
1070
    73
1070
     1
1070
    44
1040
1.0
1070
    74
1070
     0
1000
MTEXTEND
  0
POINT
  5
395F
330
3545
100
AcDbEntity
  8
Defpoints
 62
     0
100
AcDbPoint
 10
3855.903923975402
 20
-451.3495904710934
 30
0.0
  0
POINT
  5
3960
330
3545
100
AcDbEntity
  8
Defpoints
 62
     0
100
AcDbPoint
 10
4055.903923975402
 20
-451.3495904710936
 30
0.0
  0
POINT
  5
3961
330
3545
100
AcDbEntity
  8
Defpoints
 62
     0
100
AcDbPoint
 10
4055.903923975402
 20
-403.4781711485918
 30
0.0
  0
ENDBLK
  5
3550
330
3545
100
AcDbEntity
  8
0
100
AcDbBlockEnd
  0
BLOCK
  5
3568
330
355E
100
AcDbEntity
  8
0
100
AcDbBlockBegin
  2
*D13
 70
     1
 10
0.0
 20
0.0
 30
0.0
  3
*D13
  1

  0
LINE
  5
396B
330
355E
100
AcDbEntity
  8
AM_5
100
AcDbLine
 10
4098.403923975401
 20
-348.6726475007789
 30
0.0
 11
4098.403923975401
 21
-347.6726475007789
 31
0.0
  0
LINE
  5
396C
330
355E
100
AcDbEntity
  8
AM_5
100
AcDbLine
 10
4173.403923975401
 20
-337.2874285242168
 30
0.0
 11
4173.403923975401
 21
-355.6726475007789
 31
0.0
  0
LINE
  5
396D
330
355E
100
AcDbEntity
  8
AM_5
100
AcDbLine
 10
4118.403923975401
 20
-351.6726475007789
 30
0.0
 11
4153.403923975401
 21
-351.6726475007789
 31
0.0
  0
LINE
  5
396E
330
355E
100
AcDbEntity
  8
AM_5
100
AcDbLine
 10
4173.403923975401
 20
-351.6726475007789
 30
0.0
 11
4246.232351100147
 21
-351.6726475007789
 31
0.0
  0
SOLID
  5
396F
330
355E
100
AcDbEntity
  8
AM_5
100
AcDbTrace
 10
4118.403923975401
 20
-348.3393141674456
 30
0.0
 11
4118.403923975401
 21
-355.0059808341122
 31
0.0
 12
4098.403923975401
 22
-351.6726475007789
 32
0.0
 13
4098.403923975401
 23
-351.6726475007789
 33
0.0
  0
SOLID
  5
3970
330
355E
100
AcDbEntity
  8
AM_5
100
AcDbTrace
 10
4153.403923975401
 20
-348.3393141674456
 30
0.0
 11
4153.403923975401
 21
-355.0059808341122
 31
0.0
 12
4173.403923975401
 22
-351.6726475007789
 32
0.0
 13
4173.403923975401
 23
-351.6726475007789
 33
0.0
  0
MTEXT
  5
3971
330
355E
100
AcDbEntity
  8
AM_5
100
AcDbMText
 10
4219.818137537774
 20
-335.6726475007789
 30
0.0
 40
20.0
 41
0.0
 71
     5
 72
     1
  1
\A2;%%c75
 73
     1
 44
1.0
1001
ACAD
1000
MTEXTBEGIN
1070
    73
1070
     1
1070
    44
1040
1.0
1070
    74
1070
     0
1000
MTEXTEND
  0
POINT
  5
3972
330
355E
100
AcDbEntity
  8
Defpoints
 62
     0
100
AcDbPoint
 10
4098.403923975401
 20
-351.6726475007789
 30
0.0
  0
POINT
  5
3973
330
355E
100
AcDbEntity
  8
Defpoints
 62
     0
100
AcDbPoint
 10
4173.403923975401
 20
-334.2874285242168
 30
0.0
  0
POINT
  5
3974
330
355E
100
AcDbEntity
  8
Defpoints
 62
     0
100
AcDbPoint
 10
4173.403923975401
 20
-351.6726475007789
 30
0.0
  0
ENDBLK
  5
3569
330
355E
100
AcDbEntity
  8
0
100
AcDbBlockEnd
  0
BLOCK
  5
3574
330
356A
100
AcDbEntity
  8
0
100
AcDbBlockBegin
  2
*D14
 70
     1
 10
0.0
 20
0.0
 30
0.0
  3
*D14
  1

  0
LINE
  5
3962
330
356A
100
AcDbEntity
  8
AM_5
100
AcDbLine
 10
3955.903923975402
 20
-284.1841364391195
 30
0.0
 11
3955.903923975402
 21
-355.6726475007789
 31
0.0
  0
LINE
  5
3963
330
356A
100
AcDbEntity
  8
AM_5
100
AcDbLine
 10
4098.403923975401
 20
-225.2252665773402
 30
0.0
 11
4098.403923975401
 21
-355.6726475007789
 31
0.0
  0
LINE
  5
3964
330
356A
100
AcDbEntity
  8
AM_5
100
AcDbLine
 10
3975.903923975401
 20
-351.6726475007789
 30
0.0
 11
4078.4039239754
 21
-351.6726475007789
 31
0.0
  0
SOLID
  5
3965
330
356A
100
AcDbEntity
  8
AM_5
100
AcDbTrace
 10
3975.903923975401
 20
-348.3393141674456
 30
0.0
 11
3975.903923975401
 21
-355.0059808341122
 31
0.0
 12
3955.903923975402
 22
-351.6726475007789
 32
0.0
 13
3955.903923975402
 23
-351.6726475007789
 33
0.0
  0
SOLID
  5
3966
330
356A
100
AcDbEntity
  8
AM_5
100
AcDbTrace
 10
4078.4039239754
 20
-348.3393141674456
 30
0.0
 11
4078.4039239754
 21
-355.0059808341122
 31
0.0
 12
4098.403923975401
 22
-351.6726475007789
 32
0.0
 13
4098.403923975401
 23
-351.6726475007789
 33
0.0
  0
MTEXT
  5
3967
330
356A
100
AcDbEntity
  8
AM_5
100
AcDbMText
 10
4027.153923975401
 20
-335.6706789968419
 30
0.0
 40
20.0
 41
0.0
 71
     5
 72
     1
  1
\A2;142.5
 73
     1
 44
1.0
1001
ACAD
1000
MTEXTBEGIN
1070
    73
1070
     1
1070
    44
1040
1.0
1070
    74
1070
     0
1000
MTEXTEND
  0
POINT
  5
3968
330
356A
100
AcDbEntity
  8
Defpoints
 62
     0
100
AcDbPoint
 10
3955.903923975402
 20
-281.1841364391195
 30
0.0
  0
POINT
  5
3969
330
356A
100
AcDbEntity
  8
Defpoints
 62
     0
100
AcDbPoint
 10
4098.403923975401
 20
-222.2252665773402
 30
0.0
  0
POINT
  5
396A
330
356A
100
AcDbEntity
  8
Defpoints
 62
     0
100
AcDbPoint
 10
4098.403923975401
 20
-351.6726475007789
 30
0.0
  0
ENDBLK
  5
3575
330
356A
100
AcDbEntity
  8
0
100
AcDbBlockEnd
  0
BLOCK
  5
359B
330
3591
100
AcDbEntity
  8
0
100
AcDbBlockBegin
  2
*D15
 70
     1
 10
0.0
 20
0.0
 30
0.0
  3
*D15
  1

  0
LINE
  5
3975
330
3591
100
AcDbEntity
  8
AM_5
100
AcDbLine
 10
4208.903923975402
 20
-526.3495904710935
 30
0.0
 11
4269.903923975402
 21
-526.3495904710935
 31
0.0
  0
LINE
  5
3976
330
3591
100
AcDbEntity
  8
AM_5
100
AcDbLine
 10
4208.903923975402
 20
-446.3495904710935
 30
0.0
 11
4269.903923975402
 21
-446.3495904710935
 31
0.0
  0
LINE
  5
3977
330
3591
100
AcDbEntity
  8
AM_5
100
AcDbLine
 10
4265.903923975402
 20
-506.3495904710936
 30
0.0
 11
4265.903923975402
 21
-466.3495904710935
 31
0.0
  0
SOLID
  5
3978
330
3591
100
AcDbEntity
  8
AM_5
100
AcDbTrace
 10
4262.570590642069
 20
-506.3495904710936
 30
0.0
 11
4269.237257308735
 21
-506.3495904710936
 31
0.0
 12
4265.903923975402
 22
-526.3495904710935
 32
0.0
 13
4265.903923975402
 23
-526.3495904710935
 33
0.0
  0
SOLID
  5
3979
330
3591
100
AcDbEntity
  8
AM_5
100
AcDbTrace
 10
4262.570590642069
 20
-466.3495904710935
 30
0.0
 11
4269.237257308735
 21
-466.3495904710935
 31
0.0
 12
4265.903923975402
 22
-446.3495904710935
 32
0.0
 13
4265.903923975402
 23
-446.3495904710935
 33
0.0
  0
MTEXT
  5
397A
330
3591
100
AcDbEntity
  8
AM_5
100
AcDbMText
 10
4249.903923975401
 20
-486.3495904710928
 30
0.0
 40
20.0
 41
0.0
 71
     5
 72
     1
  1
\A2;80
 11
0.0000000000000001
 21
1.0
 31
0.0
 73
     1
 44
1.0
1001
ACAD
1000
MTEXTBEGIN
1070
    73
1070
     1
1070
    44
1040
1.0
1070
    74
1070
     0
1000
MTEXTEND
  0
POINT
  5
397B
330
3591
100
AcDbEntity
  8
Defpoints
 62
     0
100
AcDbPoint
 10
4205.903923975402
 20
-526.3495904710935
 30
0.0
  0
POINT
  5
397C
330
3591
100
AcDbEntity
  8
Defpoints
 62
     0
100
AcDbPoint
 10
4205.903923975402
 20
-446.3495904710935
 30
0.0
  0
POINT
  5
397D
330
3591
100
AcDbEntity
  8
Defpoints
 62
     0
100
AcDbPoint
 10
4265.903923975402
 20
-446.3495904710935
 30
0.0
  0
ENDBLK
  5
359C
330
3591
100
AcDbEntity
  8
0
100
AcDbBlockEnd
  0
BLOCK
  5
35A7
330
359D
100
AcDbEntity
  8
0
100
AcDbBlockBegin
  2
*D16
 70
     1
 10
0.0
 20
0.0
 30
0.0
  3
*D16
  1

  0
LINE
  5
397E
330
359D
100
AcDbEntity
  8
AM_5
100
AcDbLine
 10
4208.903923975402
 20
-222.2252665773402
 30
0.0
 11
4269.903923975402
 21
-222.2252665773402
 31
0.0
  0
LINE
  5
397F
330
359D
100
AcDbEntity
  8
AM_5
100
AcDbLine
 10
4208.903923975402
 20
-142.2252665773401
 30
0.0
 11
4269.903923975402
 21
-142.2252665773401
 31
0.0
  0
LINE
  5
3980
330
359D
100
AcDbEntity
  8
AM_5
100
AcDbLine
 10
4265.903923975402
 20
-202.2252665773402
 30
0.0
 11
4265.903923975402
 21
-162.2252665773401
 31
0.0
  0
SOLID
  5
3981
330
359D
100
AcDbEntity
  8
AM_5
100
AcDbTrace
 10
4262.570590642069
 20
-202.2252665773402
 30
0.0
 11
4269.237257308735
 21
-202.2252665773402
 31
0.0
 12
4265.903923975402
 22
-222.2252665773402
 32
0.0
 13
4265.903923975402
 23
-222.2252665773402
 33
0.0
  0
SOLID
  5
3982
330
359D
100
AcDbEntity
  8
AM_5
100
AcDbTrace
 10
4262.570590642069
 20
-162.2252665773401
 30
0.0
 11
4269.237257308735
 21
-162.2252665773401
 31
0.0
 12
4265.903923975402
 22
-142.2252665773401
 32
0.0
 13
4265.903923975402
 23
-142.2252665773401
 33
0.0
  0
MTEXT
  5
3983
330
359D
100
AcDbEntity
  8
AM_5
100
AcDbMText
 10
4249.903923975401
 20
-182.2252665773395
 30
0.0
 40
20.0
 41
0.0
 71
     5
 72
     1
  1
\A2;80
 11
0.0000000000000001
 21
1.0
 31
0.0
 73
     1
 44
1.0
1001
ACAD
1000
MTEXTBEGIN
1070
    73
1070
     1
1070
    44
1040
1.0
1070
    74
1070
     0
1000
MTEXTEND
  0
POINT
  5
3984
330
359D
100
AcDbEntity
  8
Defpoints
 62
     0
100
AcDbPoint
 10
4205.903923975402
 20
-222.2252665773402
 30
0.0
  0
POINT
  5
3985
330
359D
100
AcDbEntity
  8
Defpoints
 62
     0
100
AcDbPoint
 10
4205.903923975402
 20
-142.2252665773401
 30
0.0
  0
POINT
  5
3986
330
359D
100
AcDbEntity
  8
Defpoints
 62
     0
100
AcDbPoint
 10
4265.903923975402
 20
-142.2252665773401
 30
0.0
  0
ENDBLK
  5
35A8
330
359D
100
AcDbEntity
  8
0
100
AcDbBlockEnd
  0
BLOCK
  5
35B3
330
35A9
100
AcDbEntity
  8
0
100
AcDbBlockBegin
  2
*D17
 70
     1
 10
0.0
 20
0.0
 30
0.0
  3
*D17
  1

  0
LINE
  5
3987
330
35A9
100
AcDbEntity
  8
AM_5
100
AcDbLine
 10
4208.903923975402
 20
-526.3495904710935
 30
0.0
 11
4319.903923975402
 21
-526.3495904710935
 31
0.0
  0
LINE
  5
3988
330
35A9
100
AcDbEntity
  8
AM_5
100
AcDbLine
 10
4174.403923975402
 20
-126.3495904710935
 30
0.0
 11
4319.903923975402
 21
-126.3495904710935
 31
0.0
  0
LINE
  5
3989
330
35A9
100
AcDbEntity
  8
AM_5
100
AcDbLine
 10
4315.903923975402
 20
-506.3495904710936
 30
0.0
 11
4315.903923975402
 21
-146.3495904710935
 31
0.0
  0
SOLID
  5
398A
330
35A9
100
AcDbEntity
  8
AM_5
100
AcDbTrace
 10
4312.570590642069
 20
-506.3495904710936
 30
0.0
 11
4319.237257308735
 21
-506.3495904710936
 31
0.0
 12
4315.903923975402
 22
-526.3495904710935
 32
0.0
 13
4315.903923975402
 23
-526.3495904710935
 33
0.0
  0
SOLID
  5
398B
330
35A9
100
AcDbEntity
  8
AM_5
100
AcDbTrace
 10
4312.570590642069
 20
-146.3495904710935
 30
0.0
 11
4319.237257308735
 21
-146.3495904710935
 31
0.0
 12
4315.903923975402
 22
-126.3495904710935
 32
0.0
 13
4315.903923975402
 23
-126.3495904710935
 33
0.0
  0
MTEXT
  5
398C
330
35A9
100
AcDbEntity
  8
AM_5
100
AcDbMText
 10
4299.903923975402
 20
-326.3495904710929
 30
0.0
 40
20.0
 41
0.0
 71
     5
 72
     1
  1
\A2;400
 11
0.0000000000000001
 21
1.0
 31
0.0
 73
     1
 44
1.0
1001
ACAD
1000
MTEXTBEGIN
1070
    73
1070
     1
1070
    44
1040
1.0
1070
    74
1070
     0
1000
MTEXTEND
  0
POINT
  5
398D
330
35A9
100
AcDbEntity
  8
Defpoints
 62
     0
100
AcDbPoint
 10
4205.903923975402
 20
-526.3495904710935
 30
0.0
  0
POINT
  5
398E
330
35A9
100
AcDbEntity
  8
Defpoints
 62
     0
100
AcDbPoint
 10
4171.403923975402
 20
-126.3495904710935
 30
0.0
  0
POINT
  5
398F
330
35A9
100
AcDbEntity
  8
Defpoints
 62
     0
100
AcDbPoint
 10
4315.903923975402
 20
-126.3495904710935
 30
0.0
  0
ENDBLK
  5
35B4
330
35A9
100
AcDbEntity
  8
0
100
AcDbBlockEnd
  0
BLOCK
  5
3606
330
35FB
100
AcDbEntity
  8
0
100
AcDbBlockBegin
  2
*D18
 70
     1
 10
0.0
 20
0.0
 30
0.0
  3
*D18
  1

  0
LINE
  5
773F
330
35FB
100
AcDbEntity
  8
AM_5
100
AcDbLine
 10
3364.321295473386
 20
-145.22526657734
 30
0.0
 11
3364.321295473386
 21
-174.2441726883007
 31
0.0
  0
LINE
  5
7740
330
35FB
100
AcDbEntity
  8
AM_5
100
AcDbLine
 10
3494.321295473387
 20
-145.22526657734
 30
0.0
 11
3494.321295473387
 21
-174.2441726883007
 31
0.0
  0
LINE
  5
7741
330
35FB
100
AcDbEntity
  8
AM_5
100
AcDbLine
 10
3474.321295473386
 20
-170.2441726883007
 30
0.0
 11
3384.321295473387
 21
-170.2441726883007
 31
0.0
  0
LINE
  5
7742
330
35FB
100
AcDbEntity
  8
AM_5
100
AcDbLine
 10
3364.321295473386
 20
-170.2441726883007
 30
0.0
 11
3300.30554744189
 21
-170.2441726883007
 31
0.0
  0
SOLID
  5
7743
330
35FB
100
AcDbEntity
  8
AM_5
100
AcDbTrace
 10
3474.321295473386
 20
-166.9108393549674
 30
0.0
 11
3474.321295473386
 21
-173.5775060216341
 31
0.0
 12
3494.321295473387
 22
-170.2441726883007
 32
0.0
 13
3494.321295473387
 23
-170.2441726883007
 33
0.0
  0
SOLID
  5
7744
330
35FB
100
AcDbEntity
  8
AM_5
100
AcDbTrace
 10
3384.321295473387
 20
-166.9108393549674
 30
0.0
 11
3384.321295473387
 21
-173.5775060216341
 31
0.0
 12
3364.321295473386
 22
-170.2441726883007
 32
0.0
 13
3364.321295473386
 23
-170.2441726883007
 33
0.0
  0
MTEXT
  5
7745
330
35FB
100
AcDbEntity
  8
AM_5
100
AcDbMText
 10
3322.313421457638
 20
-154.2441726883007
 30
0.0
 40
20.0
 41
0.0
 71
     5
 72
     1
  1
\A2;130
 73
     1
 44
1.0
1001
ACAD
1000
MTEXTBEGIN
1070
    73
1070
     1
1070
    44
1040
1.0
1070
    74
1070
     0
1000
MTEXTEND
  0
POINT
  5
7746
330
35FB
100
AcDbEntity
  8
Defpoints
 62
     0
100
AcDbPoint
 10
3364.321295473386
 20
-142.22526657734
 30
0.0
  0
POINT
  5
7747
330
35FB
100
AcDbEntity
  8
Defpoints
 62
     0
100
AcDbPoint
 10
3494.321295473387
 20
-142.22526657734
 30
0.0
  0
POINT
  5
7748
330
35FB
100
AcDbEntity
  8
Defpoints
 62
     0
100
AcDbPoint
 10
3494.321295473387
 20
-170.2441726883007
 30
0.0
  0
ENDBLK
  5
3607
330
35FB
100
AcDbEntity
  8
0
100
AcDbBlockEnd
  0
BLOCK
  5
3665
330
3659
100
AcDbEntity
  8
0
100
AcDbBlockBegin
  2
*D19
 70
     1
 10
0.0
 20
0.0
 30
0.0
  3
*D19
  1

  0
LINE
  5
399A
330
3659
100
AcDbEntity
  8
AM_5
100
AcDbLine
 10
3409.321295473386
 20
558.0825645326524
 30
0.0
 11
3409.321295473386
 21
497.0825645326524
 31
0.0
  0
LINE
  5
399B
330
3659
100
AcDbEntity
  8
AM_5
100
AcDbLine
 10
3449.321295473386
 20
558.0825645326524
 30
0.0
 11
3449.321295473386
 21
497.0825645326524
 31
0.0
  0
LINE
  5
399C
330
3659
100
AcDbEntity
  8
AM_5
100
AcDbLine
 10
3389.321295473386
 20
501.0825645326524
 30
0.0
 11
3369.321295473386
 21
501.0825645326524
 31
0.0
  0
LINE
  5
399D
330
3659
100
AcDbEntity
  8
AM_5
100
AcDbLine
 10
3469.321295473386
 20
501.0825645326524
 30
0.0
 11
3542.337043504882
 21
501.0825645326524
 31
0.0
  0
LINE
  5
399E
330
3659
100
AcDbEntity
  8
AM_5
100
AcDbLine
 10
3409.321295473386
 20
501.0825645326524
 30
0.0
 11
3449.321295473386
 21
501.0825645326524
 31
0.0
  0
SOLID
  5
399F
330
3659
100
AcDbEntity
  8
AM_5
100
AcDbTrace
 10
3389.321295473386
 20
504.4158978659857
 30
0.0
 11
3389.321295473386
 21
497.7492311993191
 31
0.0
 12
3409.321295473386
 22
501.0825645326524
 32
0.0
 13
3409.321295473386
 23
501.0825645326524
 33
0.0
  0
SOLID
  5
39A0
330
3659
100
AcDbEntity
  8
AM_5
100
AcDbTrace
 10
3469.321295473386
 20
504.4158978659857
 30
0.0
 11
3469.321295473386
 21
497.7492311993191
 31
0.0
 12
3449.321295473386
 22
501.0825645326524
 32
0.0
 13
3449.321295473386
 23
501.0825645326524
 33
0.0
  0
MTEXT
  5
39A1
330
3659
100
AcDbEntity
  8
AM_5
100
AcDbMText
 10
3516.329169489134
 20
517.0845330365893
 30
0.0
 40
20.0
 41
0.0
 71
     5
 72
     1
  1
\A2;%%c20
 73
     1
 44
1.0
1001
ACAD
1000
MTEXTBEGIN
1070
    73
1070
     1
1070
    44
1040
1.0
1070
    74
1070
     0
1000
MTEXTEND
  0
POINT
  5
39A2
330
3659
100
AcDbEntity
  8
Defpoints
 62
     0
100
AcDbPoint
 10
3409.321295473386
 20
561.0825645326524
 30
0.0
  0
POINT
  5
39A3
330
3659
100
AcDbEntity
  8
Defpoints
 62
     0
100
AcDbPoint
 10
3449.321295473386
 20
561.0825645326524
 30
0.0
  0
POINT
  5
39A4
330
3659
100
AcDbEntity
  8
Defpoints
 62
     0
100
AcDbPoint
 10
3449.321295473386
 20
501.0825645326524
 30
0.0
  0
ENDBLK
  5
3666
330
3659
100
AcDbEntity
  8
0
100
AcDbBlockEnd
  0
BLOCK
  5
3673
330
3667
100
AcDbEntity
  8
0
100
AcDbBlockBegin
  2
*D20
 70
     1
 10
0.0
 20
0.0
 30
0.0
  3
*D20
  1

  0
LINE
  5
39A5
330
3667
100
AcDbEntity
  8
AM_5
100
AcDbLine
 10
3385.321295473387
 20
561.0825645326524
 30
0.0
 11
3317.978573399837
 21
561.0825645326525
 31
0.0
  0
LINE
  5
39A6
330
3667
100
AcDbEntity
  8
AM_5
100
AcDbLine
 10
3373.947700505829
 20
591.0825645326524
 30
0.0
 11
3317.978573399837
 21
591.0825645326525
 31
0.0
  0
LINE
  5
39A7
330
3667
100
AcDbEntity
  8
AM_5
100
AcDbLine
 10
3321.978573399837
 20
611.0825645326525
 30
0.0
 11
3321.978573399837
 21
631.0825645326525
 31
0.0
  0
LINE
  5
39A8
330
3667
100
AcDbEntity
  8
AM_5
100
AcDbLine
 10
3321.978573399837
 20
541.0825645326525
 30
0.0
 11
3321.978573399837
 21
490.254137407906
 31
0.0
  0
LINE
  5
39A9
330
3667
100
AcDbEntity
  8
AM_5
100
AcDbLine
 10
3321.978573399837
 20
591.0825645326525
 30
0.0
 11
3321.978573399837
 21
561.0825645326525
 31
0.0
  0
SOLID
  5
39AA
330
3667
100
AcDbEntity
  8
AM_5
100
AcDbTrace
 10
3318.645240066504
 20
611.0825645326525
 30
0.0
 11
3325.31190673317
 21
611.0825645326525
 31
0.0
 12
3321.978573399837
 22
591.0825645326525
 32
0.0
 13
3321.978573399837
 23
591.0825645326525
 33
0.0
  0
SOLID
  5
39AB
330
3667
100
AcDbEntity
  8
AM_5
100
AcDbTrace
 10
3318.645240066504
 20
541.0825645326525
 30
0.0
 11
3325.31190673317
 21
541.0825645326525
 31
0.0
 12
3321.978573399837
 22
561.0825645326525
 32
0.0
 13
3321.978573399837
 23
561.0825645326525
 33
0.0
  0
MTEXT
  5
39AC
330
3667
100
AcDbEntity
  8
AM_5
100
AcDbMText
 10
3305.978573399837
 20
505.6683509702796
 30
0.0
 40
20.0
 41
0.0
 71
     5
 72
     1
  1
\A2;15
 11
0.0000000000000001
 21
1.0
 31
0.0
 73
     1
 44
1.0
1001
ACAD
1000
MTEXTBEGIN
1070
    73
1070
     1
1070
    44
1040
1.0
1070
    74
1070
     0
1000
MTEXTEND
  0
POINT
  5
39AD
330
3667
100
AcDbEntity
  8
Defpoints
 62
     0
100
AcDbPoint
 10
3388.321295473387
 20
561.0825645326524
 30
0.0
  0
POINT
  5
39AE
330
3667
100
AcDbEntity
  8
Defpoints
 62
     0
100
AcDbPoint
 10
3376.947700505829
 20
591.0825645326524
 30
0.0
  0
POINT
  5
39AF
330
3667
100
AcDbEntity
  8
Defpoints
 62
     0
100
AcDbPoint
 10
3321.978573399837
 20
591.0825645326525
 30
0.0
  0
ENDBLK
  5
3674
330
3667
100
AcDbEntity
  8
0
100
AcDbBlockEnd
  0
BLOCK
  5
367F
330
3675
100
AcDbEntity
  8
0
100
AcDbBlockBegin
  2
*D21
 70
     1
 10
0.0
 20
0.0
 30
0.0
  3
*D21
  1

  0
LINE
  5
39B0
330
3675
100
AcDbEntity
  8
AM_5
100
AcDbLine
 10
3385.321295473387
 20
561.0825645326524
 30
0.0
 11
3267.978573399837
 21
561.0825645326525
 31
0.0
  0
LINE
  5
39B1
330
3675
100
AcDbEntity
  8
AM_5
100
AcDbLine
 10
3406.321295473386
 20
621.0825645326524
 30
0.0
 11
3267.978573399837
 21
621.0825645326525
 31
0.0
  0
LINE
  5
39B2
330
3675
100
AcDbEntity
  8
AM_5
100
AcDbLine
 10
3271.978573399837
 20
581.0825645326525
 30
0.0
 11
3271.978573399837
 21
601.0825645326526
 31
0.0
  0
SOLID
  5
39B3
330
3675
100
AcDbEntity
  8
AM_5
100
AcDbTrace
 10
3268.645240066504
 20
581.0825645326525
 30
0.0
 11
3275.311906733171
 21
581.0825645326525
 31
0.0
 12
3271.978573399837
 22
561.0825645326525
 32
0.0
 13
3271.978573399837
 23
561.0825645326525
 33
0.0
  0
SOLID
  5
39B4
330
3675
100
AcDbEntity
  8
AM_5
100
AcDbTrace
 10
3268.645240066504
 20
601.0825645326526
 30
0.0
 11
3275.311906733171
 21
601.0825645326526
 31
0.0
 12
3271.978573399837
 22
621.0825645326525
 32
0.0
 13
3271.978573399837
 23
621.0825645326525
 33
0.0
  0
MTEXT
  5
39B5
330
3675
100
AcDbEntity
  8
AM_5
100
AcDbMText
 10
3255.978573399838
 20
591.0825645326529
 30
0.0
 40
20.0
 41
0.0
 71
     5
 72
     1
  1
\A2;30
 11
0.0000000000000001
 21
1.0
 31
0.0
 73
     1
 44
1.0
1001
ACAD
1000
MTEXTBEGIN
1070
    73
1070
     1
1070
    44
1040
1.0
1070
    74
1070
     0
1000
MTEXTEND
  0
POINT
  5
39B6
330
3675
100
AcDbEntity
  8
Defpoints
 62
     0
100
AcDbPoint
 10
3388.321295473387
 20
561.0825645326524
 30
0.0
  0
POINT
  5
39B7
330
3675
100
AcDbEntity
  8
Defpoints
 62
     0
100
AcDbPoint
 10
3409.321295473386
 20
621.0825645326524
 30
0.0
  0
POINT
  5
39B8
330
3675
100
AcDbEntity
  8
Defpoints
 62
     0
100
AcDbPoint
 10
3271.978573399837
 20
621.0825645326525
 30
0.0
  0
ENDBLK
  5
3680
330
3675
100
AcDbEntity
  8
0
100
AcDbBlockEnd
  0
BLOCK
  5
368D
330
3681
100
AcDbEntity
  8
0
100
AcDbBlockBegin
  2
*D22
 70
     1
 10
0.0
 20
0.0
 30
0.0
  3
*D22
  1

  0
LINE
  5
39B9
330
3681
100
AcDbEntity
  8
AM_5
100
AcDbLine
 10
3925.925694056222
 20
576.9600957780093
 30
0.0
 11
3925.925694056222
 21
515.9600947780099
 31
0.0
  0
LINE
  5
39BA
330
3681
100
AcDbEntity
  8
AM_5
100
AcDbLine
 10
3975.925694056222
 20
576.9600957780093
 30
0.0
 11
3975.925694056222
 21
515.9600947780099
 31
0.0
  0
LINE
  5
39BB
330
3681
100
AcDbEntity
  8
AM_5
100
AcDbLine
 10
3905.925694056222
 20
519.9600947780099
 30
0.0
 11
3885.925694056222
 21
519.9600947780099
 31
0.0
  0
LINE
  5
39BC
330
3681
100
AcDbEntity
  8
AM_5
100
AcDbLine
 10
3995.925694056222
 20
519.9600947780099
 30
0.0
 11
4015.925694056221
 21
519.9600947780099
 31
0.0
  0
LINE
  5
39BD
330
3681
100
AcDbEntity
  8
AM_5
100
AcDbLine
 10
3925.925694056222
 20
519.9600947780099
 30
0.0
 11
3975.925694056222
 21
519.9600947780099
 31
0.0
  0
SOLID
  5
39BE
330
3681
100
AcDbEntity
  8
AM_5
100
AcDbTrace
 10
3905.925694056222
 20
523.2934281113434
 30
0.0
 11
3905.925694056222
 21
516.6267614446765
 31
0.0
 12
3925.925694056222
 22
519.9600947780099
 32
0.0
 13
3925.925694056222
 23
519.9600947780099
 33
0.0
  0
SOLID
  5
39BF
330
3681
100
AcDbEntity
  8
AM_5
100
AcDbTrace
 10
3995.925694056222
 20
523.2934281113434
 30
0.0
 11
3995.925694056222
 21
516.6267614446765
 31
0.0
 12
3975.925694056222
 22
519.9600947780099
 32
0.0
 13
3975.925694056222
 23
519.9600947780099
 33
0.0
  0
MTEXT
  5
39C0
330
3681
100
AcDbEntity
  8
AM_5
100
AcDbMText
 10
3950.925694056222
 20
535.9620632819469
 30
0.0
 40
20.0
 41
0.0
 71
     5
 72
     1
  1
\A2;25
 73
     1
 44
1.0
1001
ACAD
1000
MTEXTBEGIN
1070
    73
1070
     1
1070
    44
1040
1.0
1070
    74
1070
     0
1000
MTEXTEND
  0
POINT
  5
39C1
330
3681
100
AcDbEntity
  8
Defpoints
 62
     0
100
AcDbPoint
 10
3925.925694056222
 20
579.9600957780094
 30
0.0
  0
POINT
  5
39C2
330
3681
100
AcDbEntity
  8
Defpoints
 62
     0
100
AcDbPoint
 10
3975.925694056222
 20
579.9600957780093
 30
0.0
  0
POINT
  5
39C3
330
3681
100
AcDbEntity
  8
Defpoints
 62
     0
100
AcDbPoint
 10
3975.925694056222
 20
519.9600947780099
 30
0.0
  0
ENDBLK
  5
368E
330
3681
100
AcDbEntity
  8
0
100
AcDbBlockEnd
  0
BLOCK
  5
369B
330
368F
100
AcDbEntity
  8
0
100
AcDbBlockBegin
  2
*D23
 70
     1
 10
0.0
 20
0.0
 30
0.0
  3
*D23
  1

  0
LINE
  5
39C4
330
368F
100
AcDbEntity
  8
AM_5
100
AcDbLine
 10
3935.925694056222
 20
624.9600957780093
 30
0.0
 11
3935.925694056222
 21
675.9600967780097
 31
0.0
  0
LINE
  5
39C5
330
368F
100
AcDbEntity
  8
AM_5
100
AcDbLine
 10
3965.925694056222
 20
624.9600957780093
 30
0.0
 11
3965.925694056222
 21
675.9600967780097
 31
0.0
  0
LINE
  5
39C6
330
368F
100
AcDbEntity
  8
AM_5
100
AcDbLine
 10
3915.925694056222
 20
671.9600967780097
 30
0.0
 11
3895.925694056222
 21
671.9600967780097
 31
0.0
  0
LINE
  5
39C7
330
368F
100
AcDbEntity
  8
AM_5
100
AcDbLine
 10
3985.925694056222
 20
671.9600967780097
 30
0.0
 11
4005.925694056222
 21
671.9600967780097
 31
0.0
  0
LINE
  5
39C8
330
368F
100
AcDbEntity
  8
AM_5
100
AcDbLine
 10
3935.925694056222
 20
671.9600967780097
 30
0.0
 11
3965.925694056222
 21
671.9600967780097
 31
0.0
  0
SOLID
  5
39C9
330
368F
100
AcDbEntity
  8
AM_5
100
AcDbTrace
 10
3915.925694056222
 20
675.2934301113431
 30
0.0
 11
3915.925694056222
 21
668.6267634446764
 31
0.0
 12
3935.925694056222
 22
671.9600967780097
 32
0.0
 13
3935.925694056222
 23
671.9600967780097
 33
0.0
  0
SOLID
  5
39CA
330
368F
100
AcDbEntity
  8
AM_5
100
AcDbTrace
 10
3985.925694056222
 20
675.2934301113431
 30
0.0
 11
3985.925694056222
 21
668.6267634446764
 31
0.0
 12
3965.925694056222
 22
671.9600967780097
 32
0.0
 13
3965.925694056222
 23
671.9600967780097
 33
0.0
  0
MTEXT
  5
39CB
330
368F
100
AcDbEntity
  8
AM_5
100
AcDbMText
 10
3950.925694056222
 20
687.9600967780097
 30
0.0
 40
20.0
 41
0.0
 71
     5
 72
     1
  1
\A2;15
 73
     1
 44
1.0
1001
ACAD
1000
MTEXTBEGIN
1070
    73
1070
     1
1070
    44
1040
1.0
1070
    74
1070
     0
1000
MTEXTEND
  0
POINT
  5
39CC
330
368F
100
AcDbEntity
  8
Defpoints
 62
     0
100
AcDbPoint
 10
3935.925694056222
 20
621.9600957780093
 30
0.0
  0
POINT
  5
39CD
330
368F
100
AcDbEntity
  8
Defpoints
 62
     0
100
AcDbPoint
 10
3965.925694056222
 20
621.9600957780093
 30
0.0
  0
POINT
  5
39CE
330
368F
100
AcDbEntity
  8
Defpoints
 62
     0
100
AcDbPoint
 10
3965.925694056222
 20
671.9600967780097
 30
0.0
  0
ENDBLK
  5
369C
330
368F
100
AcDbEntity
  8
0
100
AcDbBlockEnd
  0
BLOCK
  5
36A9
330
369D
100
AcDbEntity
  8
0
100
AcDbBlockBegin
  2
*D24
 70
     1
 10
0.0
 20
0.0
 30
0.0
  3
*D24
  1

  0
LINE
  5
39CF
330
369D
100
AcDbEntity
  8
AM_5
100
AcDbLine
 10
3988.865696277636
 20
621.9600957780093
 30
0.0
 11
4049.17089161065
 21
621.9600957780093
 31
0.0
  0
LINE
  5
39D0
330
369D
100
AcDbEntity
  8
AM_5
100
AcDbLine
 10
3978.925694056222
 20
599.9600957780093
 30
0.0
 11
4049.17089161065
 21
599.9600957780093
 31
0.0
  0
LINE
  5
39D1
330
369D
100
AcDbEntity
  8
AM_5
100
AcDbLine
 10
4045.170891610649
 20
579.9600957780093
 30
0.0
 11
4045.170891610649
 21
559.9600957780093
 31
0.0
  0
LINE
  5
39D2
330
369D
100
AcDbEntity
  8
AM_5
100
AcDbLine
 10
4045.170891610649
 20
641.9600957780093
 30
0.0
 11
4045.170891610649
 21
687.9600957780094
 31
0.0
  0
LINE
  5
39D3
330
369D
100
AcDbEntity
  8
AM_5
100
AcDbLine
 10
4045.170891610649
 20
599.9600957780093
 30
0.0
 11
4045.170891610649
 21
621.9600957780093
 31
0.0
  0
SOLID
  5
39D4
330
369D
100
AcDbEntity
  8
AM_5
100
AcDbTrace
 10
4041.837558277316
 20
579.9600957780093
 30
0.0
 11
4048.504224943983
 21
579.9600957780093
 31
0.0
 12
4045.170891610649
 22
599.9600957780093
 32
0.0
 13
4045.170891610649
 23
599.9600957780093
 33
0.0
  0
SOLID
  5
39D5
330
369D
100
AcDbEntity
  8
AM_5
100
AcDbTrace
 10
4041.837558277316
 20
641.9600957780093
 30
0.0
 11
4048.504224943983
 21
641.9600957780093
 31
0.0
 12
4045.170891610649
 22
621.9600957780093
 32
0.0
 13
4045.170891610649
 23
621.9600957780093
 33
0.0
  0
MTEXT
  5
39D6
330
369D
100
AcDbEntity
  8
AM_5
100
AcDbMText
 10
4029.170891610649
 20
674.9600957780101
 30
0.0
 40
20.0
 41
0.0
 71
     5
 72
     1
  1
\A2;11
 11
0.0000000000000001
 21
1.0
 31
0.0
 73
     1
 44
1.0
1001
ACAD
1000
MTEXTBEGIN
1070
    73
1070
     1
1070
    44
1040
1.0
1070
    74
1070
     0
1000
MTEXTEND
  0
POINT
  5
39D7
330
369D
100
AcDbEntity
  8
Defpoints
 62
     0
100
AcDbPoint
 10
3985.865696277636
 20
621.9600957780093
 30
0.0
  0
POINT
  5
39D8
330
369D
100
AcDbEntity
  8
Defpoints
 62
     0
100
AcDbPoint
 10
3975.925694056222
 20
599.9600957780093
 30
0.0
  0
POINT
  5
39D9
330
369D
100
AcDbEntity
  8
Defpoints
 62
     0
100
AcDbPoint
 10
4045.170891610649
 20
599.9600957780093
 30
0.0
  0
ENDBLK
  5
36AA
330
369D
100
AcDbEntity
  8
0
100
AcDbBlockEnd
  0
BLOCK
  5
36B7
330
36AB
100
AcDbEntity
  8
0
100
AcDbBlockBegin
  2
*D25
 70
     1
 10
0.0
 20
0.0
 30
0.0
  3
*D25
  1

  0
LINE
  5
39DA
330
36AB
100
AcDbEntity
  8
AM_5
100
AcDbLine
 10
3922.925694056221
 20
599.9600957780093
 30
0.0
 11
3861.925694056222
 21
599.9600957780093
 31
0.0
  0
LINE
  5
39DB
330
36AB
100
AcDbEntity
  8
AM_5
100
AcDbLine
 10
3922.925694056221
 20
579.9600957780094
 30
0.0
 11
3861.925694056222
 21
579.9600957780094
 31
0.0
  0
LINE
  5
39DC
330
36AB
100
AcDbEntity
  8
AM_5
100
AcDbLine
 10
3865.925694056222
 20
619.9600957780092
 30
0.0
 11
3865.925694056222
 21
639.9600957780092
 31
0.0
  0
LINE
  5
39DD
330
36AB
100
AcDbEntity
  8
AM_5
100
AcDbLine
 10
3865.925694056222
 20
559.9600957780094
 30
0.0
 11
3865.925694056222
 21
539.9600957780093
 31
0.0
  0
LINE
  5
39DE
330
36AB
100
AcDbEntity
  8
AM_5
100
AcDbLine
 10
3865.925694056222
 20
599.9600957780093
 30
0.0
 11
3865.925694056222
 21
579.9600957780094
 31
0.0
  0
SOLID
  5
39DF
330
36AB
100
AcDbEntity
  8
AM_5
100
AcDbTrace
 10
3862.592360722889
 20
619.9600957780092
 30
0.0
 11
3869.259027389555
 21
619.9600957780092
 31
0.0
 12
3865.925694056222
 22
599.9600957780093
 32
0.0
 13
3865.925694056222
 23
599.9600957780093
 33
0.0
  0
SOLID
  5
39E0
330
36AB
100
AcDbEntity
  8
AM_5
100
AcDbTrace
 10
3862.592360722889
 20
559.9600957780094
 30
0.0
 11
3869.259027389555
 21
559.9600957780094
 31
0.0
 12
3865.925694056222
 22
579.9600957780094
 32
0.0
 13
3865.925694056222
 23
579.9600957780094
 33
0.0
  0
MTEXT
  5
39E1
330
36AB
100
AcDbEntity
  8
AM_5
100
AcDbMText
 10
3849.925694056222
 20
589.96009577801
 30
0.0
 40
20.0
 41
0.0
 71
     5
 72
     1
  1
\A2;10
 11
0.0000000000000001
 21
1.0
 31
0.0
 73
     1
 44
1.0
1001
ACAD
1000
MTEXTBEGIN
1070
    73
1070
     1
1070
    44
1040
1.0
1070
    74
1070
     0
1000
MTEXTEND
  0
POINT
  5
39E2
330
36AB
100
AcDbEntity
  8
Defpoints
 62
     0
100
AcDbPoint
 10
3925.925694056222
 20
599.9600957780093
 30
0.0
  0
POINT
  5
39E3
330
36AB
100
AcDbEntity
  8
Defpoints
 62
     0
100
AcDbPoint
 10
3925.925694056222
 20
579.9600957780094
 30
0.0
  0
POINT
  5
39E4
330
36AB
100
AcDbEntity
  8
Defpoints
 62
     0
100
AcDbPoint
 10
3865.925694056222
 20
579.9600957780094
 30
0.0
  0
ENDBLK
  5
36B8
330
36AB
100
AcDbEntity
  8
0
100
AcDbBlockEnd
  0
BLOCK
  5
78CA
330
78C5
100
AcDbEntity
  8
0
100
AcDbBlockBegin
  2
*S27
 70
     1
 10
0.0
 20
0.0
 30
0.0
  3
*S27
  1

  0
LINE
  5
78C6
330
78C5
100
AcDbEntity
  8
AM_5
 62
     5
100
AcDbLine
 10
3638.286458395975
 20
-586.1515313871898
 30
0.0
 11
3563.247267182546
 21
-586.1515313871898
 31
0.0
  0
LINE
  5
78C7
330
78C5
100
AcDbEntity
  8
AM_5
 62
     5
100
AcDbLine
 10
3563.247267182546
 20
-586.1515313871898
 30
0.0
 11
3527.72887448032
 21
-543.3341465447174
 31
0.0
  0
TRACE
  5
78C8
330
78C5
100
AcDbEntity
  8
AM_5
 62
     5
370
    35
100
AcDbTrace
 10
3529.856750396603
 20
-541.5690052897298
 30
0.0
 11
3525.600998564037
 21
-545.099287799705
 31
0.0
 12
3514.321295473386
 22
-527.1713242301327
 32
0.0
 13
3514.321295473386
 23
-527.1713242301327
 33
0.0
  0
MTEXT
  5
78C9
330
78C5
100
AcDbEntity
  8
AM_5
 62
     2
100
AcDbMText
 10
3638.286458395975
 20
-590.7964963915262
 30
0.0
 40
21.0
 41
0.0
 71
     7
 72
     5
  1

  7
ACISOTS
 73
     1
 44
1.0
1001
ACAD
1000
MTEXTBEGIN
1070
    73
1070
     1
1070
    44
1040
1.0
1070
    74
1070
     0
1000
MTEXTEND
  0
ENDBLK
  5
78CB
330
78C5
100
AcDbEntity
  8
0
100
AcDbBlockEnd
  0
BLOCK
  5
78D2
330
78CD
100
AcDbEntity
  8
0
100
AcDbBlockBegin
  2
*S28
 70
     1
 10
0.0
 20
0.0
 30
0.0
  3
*S28
  1

  0
LINE
  5
78CE
330
78CD
100
AcDbEntity
  8
AM_5
 62
     5
100
AcDbLine
 10
3587.874296981325
 20
627.4260659748577
 30
0.0
 11
3512.835105767896
 21
627.4260659748577
 31
0.0
  0
LINE
  5
78CF
330
78CD
100
AcDbEntity
  8
AM_5
 62
     5
100
AcDbLine
 10
3512.835105767896
 20
627.4260659748577
 30
0.0
 11
3490.928994688562
 21
605.5384446180801
 31
0.0
  0
TRACE
  5
78D0
330
78CD
100
AcDbEntity
  8
AM_5
 62
     5
370
    35
100
AcDbTrace
 10
3488.97488039755
 20
607.4942096609255
 30
0.0
 11
3492.883108979575
 21
603.5826795752346
 31
0.0
 12
3476.073484254564
 22
590.6954728891653
 32
0.0
 13
3476.073484254564
 23
590.6954728891653
 33
0.0
  0
MTEXT
  5
78D1
330
78CD
100
AcDbEntity
  8
AM_5
 62
     2
100
AcDbMText
 10
3587.874296981325
 20
622.7811009705212
 30
0.0
 40
21.0
 41
0.0
 71
     7
 72
     5
  1

  7
ACISOTS
 73
     1
 44
1.0
1001
ACAD
1000
MTEXTBEGIN
1070
    73
1070
     1
1070
    44
1040
1.0
1070
    74
1070
     0
1000
MTEXTEND
  0
ENDBLK
  5
78D3
330
78CD
100
AcDbEntity
  8
0
100
AcDbBlockEnd
  0
ENDSEC
  0
SECTION
  2
ENTITIES
  0
LINE
  5
3237
330
1F
100
AcDbEntity
  8
圖層1輪廓線
100
AcDbLine
 10
3332.321295473386
 20
-446.3495904710932
 30
0.0
 11
3526.321295473387
 21
-446.3495904710932
 31
0.0
  0
LINE
  5
3238
330
1F
100
AcDbEntity
  8
圖層1輪廓線
100
AcDbLine
 10
3529.321295473386
 20
-511.3495904710933
 30
0.0
 11
3329.321295473386
 21
-511.3495904710933
 31
0.0
  0
LINE
  5
3239
330
1F
100
AcDbEntity
  8
圖層1輪廓線
100
AcDbLine
 10
3529.321295473386
 20
-526.3495904710932
 30
0.0
 11
3329.321295473386
 21
-526.3495904710932
 31
0.0
  0
LINE
  5
323A
330
1F
100
AcDbEntity
  8
圖層3虛線
100
AcDbLine
 10
3338.321295473387
 20
-526.3495904710932
 30
0.0
 11
3338.321295473387
 21
-511.3495904710933
 31
0.0
  0
LINE
  5
323B
330
1F
100
AcDbEntity
  8
圖層3虛線
100
AcDbLine
 10
3350.321295473386
 20
-526.3495904710932
 30
0.0
 11
3350.321295473386
 21
-511.3495904710933
 31
0.0
  0
LINE
  5
323C
330
1F
100
AcDbEntity
  8
圖層2中心線
 48
0.2
370
    18
100
AcDbLine
 10
3344.321295473387
 20
-538.7727669680593
 30
0.0
 11
3344.321295473387
 21
-499.6250167975306
 31
0.0
  0
LINE
  5
323D
330
1F
100
AcDbEntity
  8
圖層1輪廓線
100
AcDbLine
 10
3329.321295473386
 20
-526.3495904710932
 30
0.0
 11
3329.321295473386
 21
-449.3495904710933
 31
0.0
  0
ARC
  5
323E
330
1F
100
AcDbEntity
  8
圖層1輪廓線
100
AcDbCircle
 10
3332.321295473386
 20
-449.3495904710933
 30
0.0
 40
3.0
100
AcDbArc
 50
90.0
 51
180.0
  0
LINE
  5
323F
330
1F
100
AcDbEntity
  8
圖層3虛線
100
AcDbLine
 10
3508.321295473387
 20
-511.3495904710933
 30
0.0
 11
3508.321295473387
 21
-526.3495904710932
 31
0.0
  0
LINE
  5
3240
330
1F
100
AcDbEntity
  8
圖層3虛線
100
AcDbLine
 10
3520.321295473387
 20
-511.3495904710933
 30
0.0
 11
3520.321295473387
 21
-526.3495904710932
 31
0.0
  0
LINE
  5
3241
330
1F
100
AcDbEntity
  8
圖層2中心線
 48
0.2
370
    18
100
AcDbLine
 10
3514.321295473386
 20
-498.8574149598402
 30
0.0
 11
3514.321295473386
 21
-538.0051631838752
 31
0.0
  0
LINE
  5
3242
330
1F
100
AcDbEntity
  8
圖層1輪廓線
100
AcDbLine
 10
3529.321295473386
 20
-449.3495904710933
 30
0.0
 11
3529.321295473386
 21
-526.3495904710932
 31
0.0
  0
ARC
  5
3243
330
1F
100
AcDbEntity
  8
圖層1輪廓線
100
AcDbCircle
 10
3526.321295473387
 20
-449.3495904710933
 30
0.0
 40
3.0
100
AcDbArc
 50
0.0
 51
90.0
  0
ARC
  5
3244
330
1F
100
AcDbEntity
  8
圖層1輪廓線
100
AcDbCircle
 10
4050.903923975402
 20
-451.3495904710935
 30
0.0
 40
5.0
100
AcDbArc
 50
0.0
 51
90.0
  0
LINE
  5
3245
330
1F
100
AcDbEntity
  8
圖層1輪廓線
100
AcDbLine
 10
3825.903923975403
 20
-526.3495904710934
 30
0.0
 11
4205.903923975402
 21
-526.3495904710935
 31
0.0
  0
LINE
  5
3246
330
1F
100
AcDbEntity
  8
圖層1輪廓線
100
AcDbLine
 10
3825.903923975403
 20
-516.3495904710933
 30
0.0
 11
3825.903923975403
 21
-526.3495904710934
 31
0.0
  0
LINE
  5
3247
330
1F
100
AcDbEntity
  8
圖層2中心線
 48
0.2
370
    18
100
AcDbLine
 10
3840.903923975402
 20
-496.8845471755534
 30
0.0
 11
3840.903923975402
 21
-537.4829829340728
 31
0.0
  0
LINE
  5
3248
330
1F
100
AcDbEntity
  8
圖層3虛線
100
AcDbLine
 10
3834.903923975402
 20
-511.3495904710933
 30
0.0
 11
3834.903923975402
 21
-526.3495904710934
 31
0.0
  0
LINE
  5
3249
330
1F
100
AcDbEntity
  8
圖層3虛線
100
AcDbLine
 10
3846.903923975402
 20
-511.3495904710934
 30
0.0
 11
3846.903923975402
 21
-526.3495904710934
 31
0.0
  0
LINE
  5
324A
330
1F
100
AcDbEntity
  8
圖層1輪廓線
100
AcDbLine
 10
3948.403923975402
 20
-446.3495904710933
 30
0.0
 11
3860.903923975402
 21
-446.3495904710933
 31
0.0
  0
LINE
  5
324B
330
1F
100
AcDbEntity
  8
圖層1輪廓線
100
AcDbLine
 10
3855.903923975402
 20
-451.3495904710934
 30
0.0
 11
3855.903923975402
 21
-511.3495904710934
 31
0.0
  0
LINE
  5
324C
330
1F
100
AcDbEntity
  8
圖層1輪廓線
100
AcDbLine
 10
3830.903923975402
 20
-511.3495904710933
 30
0.0
 11
3855.903923975402
 21
-511.3495904710934
 31
0.0
  0
ARC
  5
324D
330
1F
100
AcDbEntity
  8
圖層1輪廓線
100
AcDbCircle
 10
3830.903923975402
 20
-516.3495904710932
 30
0.0
 40
5.0
100
AcDbArc
 50
90.0
 51
180.0
  0
ARC
  5
324E
330
1F
100
AcDbEntity
  8
圖層1輪廓線
100
AcDbCircle
 10
3860.903923975402
 20
-451.3495904710934
 30
0.0
 40
5.0
100
AcDbArc
 50
90.0
 51
180.0
  0
LINE
  5
324F
330
1F
100
AcDbEntity
  8
圖層1輪廓線
100
AcDbLine
 10
3968.403923975402
 20
-457.3495904710934
 30
0.0
 11
3968.403923975402
 21
-467.3495904710933
 31
0.0
  0
LINE
  5
3250
330
1F
100
AcDbEntity
  8
圖層1輪廓線
100
AcDbLine
 10
3943.403923975402
 20
-467.3495904710933
 30
0.0
 11
3943.403923975402
 21
-457.3495904710934
 31
0.0
  0
LINE
  5
3251
330
1F
100
AcDbEntity
  8
圖層1輪廓線
100
AcDbLine
 10
3968.403923975402
 20
-467.3495904710933
 30
0.0
 11
3943.403923975402
 21
-467.3495904710933
 31
0.0
  0
LINE
  5
3252
330
1F
100
AcDbEntity
  8
圖層1輪廓線
100
AcDbLine
 10
3943.403923975402
 20
-457.3495904710934
 30
0.0
 11
3948.403923975402
 21
-457.3495904710934
 31
0.0
  0
LINE
  5
3253
330
1F
100
AcDbEntity
  8
圖層1輪廓線
100
AcDbLine
 10
3948.403923975402
 20
-457.3495904710934
 30
0.0
 11
3948.403923975402
 21
-446.3495904710933
 31
0.0
  0
LINE
  5
3254
330
1F
100
AcDbEntity
  8
圖層1輪廓線
100
AcDbLine
 10
3963.403923975402
 20
-446.3495904710933
 30
0.0
 11
3963.403923975402
 21
-457.3495904710934
 31
0.0
  0
LINE
  5
3255
330
1F
100
AcDbEntity
  8
圖層1輪廓線
100
AcDbLine
 10
3963.403923975402
 20
-457.3495904710934
 30
0.0
 11
3968.403923975402
 21
-457.3495904710934
 31
0.0
  0
LINE
  5
3256
330
1F
100
AcDbEntity
  8
圖層2中心線
 48
0.2
370
    18
100
AcDbLine
 10
4070.903923975404
 20
-491.578661990191
 30
0.0
 11
4070.903923975404
 21
-536.6777570661274
 31
0.0
  0
LINE
  5
3257
330
1F
100
AcDbEntity
  8
圖層3虛線
100
AcDbLine
 10
4064.903923975402
 20
-511.3495904710934
 30
0.0
 11
4064.903923975402
 21
-526.3495904710935
 31
0.0
  0
LINE
  5
3258
330
1F
100
AcDbEntity
  8
圖層3虛線
100
AcDbLine
 10
4076.903923975402
 20
-511.3495904710936
 30
0.0
 11
4076.903923975402
 21
-526.3495904710935
 31
0.0
  0
LINE
  5
3259
330
1F
100
AcDbEntity
  8
圖層1輪廓線
100
AcDbLine
 10
4085.903923975402
 20
-516.3495904710934
 30
0.0
 11
4085.903923975402
 21
-526.3495904710935
 31
0.0
  0
LINE
  5
325A
330
1F
100
AcDbEntity
  8
圖層1輪廓線
100
AcDbLine
 10
4186.215453469147
 20
-446.3495904710935
 30
0.0
 11
4186.215453469147
 21
-526.3495904710935
 31
0.0
  0
LINE
  5
325B
330
1F
100
AcDbEntity
  8
圖層1輪廓線
100
AcDbLine
 10
4205.903923975402
 20
-526.3495904710935
 30
0.0
 11
4205.903923975402
 21
-446.3495904710935
 31
0.0
  0
LINE
  5
325C
330
1F
100
AcDbEntity
  8
圖層1輪廓線
100
AcDbLine
 10
4205.903923975402
 20
-446.3495904710935
 30
0.0
 11
4084.653923975402
 21
-446.3495904710935
 31
0.0
  0
LINE
  5
325D
330
1F
100
AcDbEntity
  8
圖層1輪廓線
100
AcDbLine
 10
4055.903923975402
 20
-451.3495904710936
 30
0.0
 11
4055.903923975402
 21
-511.3495904710934
 31
0.0
  0
LINE
  5
325E
330
1F
100
AcDbEntity
  8
圖層1輪廓線
100
AcDbLine
 10
4055.903923975402
 20
-511.3495904710934
 30
0.0
 11
4080.903923975402
 21
-511.3495904710934
 31
0.0
  0
ARC
  5
325F
330
1F
100
AcDbEntity
  8
圖層1輪廓線
100
AcDbCircle
 10
4080.903923975402
 20
-516.3495904710933
 30
0.0
 40
5.0
100
AcDbArc
 50
0.0
 51
90.0
  0
LINE
  5
3260
330
1F
100
AcDbEntity
  8
圖層1輪廓線
100
AcDbLine
 10
4115.903923975402
 20
-454.3495904710935
 30
0.0
 11
4055.903923975402
 21
-454.3495904710933
 31
0.0
  0
LINE
  5
3261
330
1F
100
AcDbEntity
  8
圖層1輪廓線
100
AcDbLine
 10
4084.653923975402
 20
-446.3495904710935
 30
0.0
 11
4084.653923975402
 21
-454.3495904710935
 31
0.0
  0
LINE
  5
3262
330
1F
100
AcDbEntity
  8
圖層1輪廓線
100
AcDbLine
 10
4134.401193360638
 20
-446.3495904710935
 30
0.0
 11
4115.903923975402
 21
-454.3495904710935
 31
0.0
  0
LINE
  5
3263
330
1F
100
AcDbEntity
  8
圖層2中心線
 48
0.1
100
AcDbLine
 10
4195.903923975402
 20
-501.3495904710935
 30
0.0
 11
4195.903923975402
 21
-521.3495904710935
 31
0.0
  0
LINE
  5
3264
330
1F
100
AcDbEntity
  8
圖層2中心線
 48
0.1
100
AcDbLine
 10
4185.903923975401
 20
-511.3495904710934
 30
0.0
 11
4205.903923975402
 21
-511.3495904710934
 31
0.0
  0
CIRCLE
  5
3265
330
1F
100
AcDbEntity
  8
圖層1輪廓線
100
AcDbCircle
 10
4195.903923975402
 20
-511.3495904710934
 30
0.0
 40
7.0
  0
CIRCLE
  5
3266
330
1F
100
AcDbEntity
  8
圖層1輪廓線
100
AcDbCircle
 10
4195.903923975402
 20
-511.3495904710934
 30
0.0
 40
5.0
  0
LINE
  5
3267
330
1F
100
AcDbEntity
  8
圖層2中心線
 48
0.1
100
AcDbLine
 10
4195.903923975402
 20
-451.3495904710935
 30
0.0
 11
4195.903923975402
 21
-471.3495904710935
 31
0.0
  0
CIRCLE
  5
3268
330
1F
100
AcDbEntity
  8
圖層1輪廓線
100
AcDbCircle
 10
4195.903923975402
 20
-461.3495904710934
 30
0.0
 40
7.0
  0
CIRCLE
  5
3269
330
1F
100
AcDbEntity
  8
圖層1輪廓線
100
AcDbCircle
 10
4195.903923975402
 20
-461.3495904710934
 30
0.0
 40
5.0
  0
LINE
  5
326A
330
1F
100
AcDbEntity
  8
圖層2中心線
 48
0.1
100
AcDbLine
 10
4185.903923975401
 20
-461.3495904710934
 30
0.0
 11
4205.903923975402
 21
-461.3495904710934
 31
0.0
  0
LINE
  5
326B
330
1F
100
AcDbEntity
  8
圖層1輪廓線
100
AcDbLine
 10
4173.403923975402
 20
-446.3495904710935
 30
0.0
 11
4173.403923975402
 21
-222.2252665773402
 31
0.0
  0
LINE
  5
326C
330
1F
100
AcDbEntity
  8
圖層1輪廓線
100
AcDbLine
 10
4098.403923975402
 20
-128.3495904710935
 30
0.0
 11
4098.403923975402
 21
-135.2252665773401
 31
0.0
  0
LINE
  5
326D
330
1F
100
AcDbEntity
  8
圖層1輪廓線
100
AcDbLine
 10
4100.403923975401
 20
-526.3495904710935
 30
0.0
 11
4171.403923975402
 21
-526.3495904710935
 31
0.0
  0
LINE
  5
326E
330
1F
100
AcDbEntity
  8
圖層1輪廓線
100
AcDbLine
 10
4171.403923975402
 20
-126.3495904710935
 30
0.0
 11
4100.403923975401
 21
-126.3495904710935
 31
0.0
  0
LINE
  5
326F
330
1F
100
AcDbEntity
  8
圖層1輪廓線
100
AcDbLine
 10
4173.403923975402
 20
-128.3495904710935
 30
0.0
 11
4098.403923975402
 21
-128.3495904710935
 31
0.0
  0
LINE
  5
3270
330
1F
100
AcDbEntity
  8
圖層1輪廓線
100
AcDbLine
 10
4100.403923975401
 20
-126.3495904710935
 30
0.0
 11
4098.403923975402
 21
-128.3495904710935
 31
0.0
  0
LINE
  5
3271
330
1F
100
AcDbEntity
  8
圖層1輪廓線
100
AcDbLine
 10
4171.403923975402
 20
-126.3495904710935
 30
0.0
 11
4173.403923975402
 21
-128.3495904710935
 31
0.0
  0
LINE
  5
3272
330
1F
100
AcDbEntity
  8
圖層1輪廓線
100
AcDbLine
 10
4190.903923975402
 20
-514.2363418170415
 30
0.0
 11
4195.903923975402
 21
-517.1230931629898
 31
0.0
  0
LINE
  5
3273
330
1F
100
AcDbEntity
  8
圖層1輪廓線
100
AcDbLine
 10
4195.903923975402
 20
-517.1230931629898
 30
0.0
 11
4200.903923975402
 21
-514.2363418170416
 31
0.0
  0
LINE
  5
3274
330
1F
100
AcDbEntity
  8
圖層1輪廓線
100
AcDbLine
 10
4200.903923975402
 20
-514.2363418170416
 30
0.0
 11
4200.903923975402
 21
-508.4628391251454
 31
0.0
  0
LINE
  5
3275
330
1F
100
AcDbEntity
  8
圖層1輪廓線
100
AcDbLine
 10
4200.903923975402
 20
-508.4628391251454
 30
0.0
 11
4195.903923975402
 21
-505.5760877791972
 31
0.0
  0
LINE
  5
3276
330
1F
100
AcDbEntity
  8
圖層1輪廓線
100
AcDbLine
 10
4195.903923975402
 20
-505.5760877791972
 30
0.0
 11
4190.903923975402
 21
-508.4628391251452
 31
0.0
  0
LINE
  5
3277
330
1F
100
AcDbEntity
  8
圖層1輪廓線
100
AcDbLine
 10
4190.903923975402
 20
-508.4628391251452
 30
0.0
 11
4190.903923975402
 21
-514.2363418170415
 31
0.0
  0
LINE
  5
3278
330
1F
100
AcDbEntity
  8
圖層1輪廓線
100
AcDbLine
 10
4190.903923975402
 20
-464.2363418170415
 30
0.0
 11
4195.903923975402
 21
-467.1230931629897
 31
0.0
  0
LINE
  5
3279
330
1F
100
AcDbEntity
  8
圖層1輪廓線
100
AcDbLine
 10
4195.903923975402
 20
-467.1230931629897
 30
0.0
 11
4200.903923975402
 21
-464.2363418170415
 31
0.0
  0
LINE
  5
327A
330
1F
100
AcDbEntity
  8
圖層1輪廓線
100
AcDbLine
 10
4200.903923975402
 20
-464.2363418170415
 30
0.0
 11
4200.903923975402
 21
-458.4628391251452
 31
0.0
  0
LINE
  5
327B
330
1F
100
AcDbEntity
  8
圖層1輪廓線
100
AcDbLine
 10
4200.903923975402
 20
-458.4628391251452
 30
0.0
 11
4195.903923975402
 21
-455.576087779197
 31
0.0
  0
LINE
  5
327C
330
1F
100
AcDbEntity
  8
圖層1輪廓線
100
AcDbLine
 10
4195.903923975402
 20
-455.576087779197
 30
0.0
 11
4190.903923975402
 21
-458.4628391251452
 31
0.0
  0
LINE
  5
327D
330
1F
100
AcDbEntity
  8
圖層1輪廓線
100
AcDbLine
 10
4190.903923975402
 20
-458.4628391251452
 30
0.0
 11
4190.903923975402
 21
-464.2363418170415
 31
0.0
  0
LINE
  5
327E
330
1F
100
AcDbEntity
  8
圖層1輪廓線
  6
Continuous
370
    50
100
AcDbLine
 10
4000.903923975402
 20
-222.2252665773401
 30
0.0
 11
3970.903923975402
 21
-192.2252665773401
 31
0.0
  0
LINE
  5
327F
330
1F
100
AcDbEntity
  8
圖層1輪廓線
  6
Continuous
100
AcDbLine
 10
3494.321295473387
 20
-192.22526657734
 30
0.0
 11
3364.321295473386
 21
-192.22526657734
 31
0.0
  0
LINE
  5
3280
330
1F
100
AcDbEntity
  8
圖層1輪廓線
  6
Continuous
100
AcDbLine
 10
3364.321295473386
 20
-222.22526657734
 30
0.0
 11
3405.649934436611
 21
-222.2252665773401
 31
0.0
  0
LINE
  5
3281
330
1F
100
AcDbEntity
  8
圖層1輪廓線
  6
Continuous
100
AcDbLine
 10
3364.321295473386
 20
-142.22526657734
 30
0.0
 11
3364.321295473386
 21
-222.22526657734
 31
0.0
  0
LINE
  5
3282
330
1F
100
AcDbEntity
  8
圖層1輪廓線
  6
Continuous
100
AcDbLine
 10
3494.321295473387
 20
-222.22526657734
 30
0.0
 11
3494.321295473387
 21
-142.22526657734
 31
0.0
  0
LINE
  5
3283
330
1F
100
AcDbEntity
  8
圖層1輪廓線
  6
Continuous
370
    50
100
AcDbLine
 10
3890.903923975402
 20
-192.2252665773401
 30
0.0
 11
3890.903923975402
 21
-142.2252665773401
 31
0.0
  0
LINE
  5
3284
330
1F
100
AcDbEntity
  8
圖層1輪廓線
  6
Continuous
100
AcDbLine
 10
3970.903923975402
 20
-192.2252665773401
 30
0.0
 11
3890.903923975402
 21
-192.2252665773401
 31
0.0
  0
LINE
  5
3285
330
1F
100
AcDbEntity
  8
圖層1輪廓線
  6
Continuous
370
    50
100
AcDbLine
 10
4205.903923975402
 20
-222.2252665773402
 30
0.0
 11
4000.903923975402
 21
-222.2252665773401
 31
0.0
  0
LINE
  5
3286
330
1F
100
AcDbEntity
  8
圖層1輪廓線
  6
Continuous
370
    50
100
AcDbLine
 10
4205.903923975402
 20
-142.2252665773403
 30
0.0
 11
4205.903923975402
 21
-222.2252665773402
 31
0.0
  0
LINE
  5
3287
330
1F
100
AcDbEntity
  8
圖層1輪廓線
  6
Continuous
370
    50
100
AcDbLine
 10
4186.215453469147
 20
-142.2252665773403
 30
0.0
 11
4186.215453469147
 21
-222.2252665773402
 31
0.0
  0
CIRCLE
  5
3288
330
1F
100
AcDbEntity
  8
圖層1輪廓線
100
AcDbCircle
 10
4195.903923975402
 20
-207.2252665773402
 30
0.0
 40
7.0
  0
LINE
  5
3289
330
1F
100
AcDbEntity
  8
圖層2中心線
 48
0.1
100
AcDbLine
 10
4185.903923975401
 20
-207.2252665773403
 30
0.0
 11
4205.903923975402
 21
-207.2252665773403
 31
0.0
  0
CIRCLE
  5
328A
330
1F
100
AcDbEntity
  8
圖層1輪廓線
100
AcDbCircle
 10
4195.903923975402
 20
-207.2252665773402
 30
0.0
 40
5.0
  0
LWPOLYLINE
  5
328B
330
1F
100
AcDbEntity
  8
圖層1輪廓線
100
AcDbPolyline
 90
        6
 70
     1
 43
0.0
 10
4190.903923975402
 20
-210.1120179232883
 10
4195.903923975402
 20
-212.9987692692365
 10
4200.903923975402
 20
-210.1120179232883
 10
4200.903923975402
 20
-204.3385152313922
 10
4195.903923975402
 20
-201.4517638854439
 10
4190.903923975402
 20
-204.3385152313921
  0
LINE
  5
328C
330
1F
100
AcDbEntity
  8
圖層2中心線
 48
0.1
100
AcDbLine
 10
4195.903923975402
 20
-197.2252665773403
 30
0.0
 11
4195.903923975402
 21
-217.2252665773403
 31
0.0
  0
CIRCLE
  5
328D
330
1F
100
AcDbEntity
  8
圖層1輪廓線
100
AcDbCircle
 10
4195.903923975402
 20
-182.2252665773402
 30
0.0
 40
5.0
  0
LWPOLYLINE
  5
328E
330
1F
100
AcDbEntity
  8
圖層1輪廓線
100
AcDbPolyline
 90
        6
 70
     1
 43
0.0
 10
4190.903923975402
 20
-185.1120179232884
 10
4195.903923975402
 20
-187.9987692692365
 10
4200.903923975402
 20
-185.1120179232884
 10
4200.903923975402
 20
-179.3385152313922
 10
4195.903923975402
 20
-176.4517638854439
 10
4190.903923975402
 20
-179.3385152313921
  0
CIRCLE
  5
328F
330
1F
100
AcDbEntity
  8
圖層1輪廓線
100
AcDbCircle
 10
4195.903923975402
 20
-182.2252665773403
 30
0.0
 40
7.0
  0
LINE
  5
3290
330
1F
100
AcDbEntity
  8
圖層2中心線
 48
0.1
100
AcDbLine
 10
4185.903923975401
 20
-182.2252665773403
 30
0.0
 11
4205.903923975402
 21
-182.2252665773403
 31
0.0
  0
LINE
  5
3291
330
1F
100
AcDbEntity
  8
圖層2中心線
 48
0.1
100
AcDbLine
 10
4195.903923975402
 20
-172.2252665773403
 30
0.0
 11
4195.903923975402
 21
-192.2252665773403
 31
0.0
  0
LINE
  5
3292
330
1F
100
AcDbEntity
  8
圖層2中心線
 48
0.1
100
AcDbLine
 10
4185.903923975401
 20
-157.2252665773403
 30
0.0
 11
4205.903923975402
 21
-157.2252665773403
 31
0.0
  0
CIRCLE
  5
3293
330
1F
100
AcDbEntity
  8
圖層1輪廓線
100
AcDbCircle
 10
4195.903923975402
 20
-157.2252665773403
 30
0.0
 40
5.0
  0
LWPOLYLINE
  5
3294
330
1F
100
AcDbEntity
  8
圖層1輪廓線
100
AcDbPolyline
 90
        6
 70
     1
 43
0.0
 10
4190.903923975402
 20
-160.1120179232883
 10
4195.903923975402
 20
-162.9987692692365
 10
4200.903923975402
 20
-160.1120179232883
 10
4200.903923975402
 20
-154.3385152313921
 10
4195.903923975402
 20
-151.4517638854439
 10
4190.903923975402
 20
-154.3385152313921
  0
CIRCLE
  5
3295
330
1F
100
AcDbEntity
  8
圖層1輪廓線
100
AcDbCircle
 10
4195.903923975402
 20
-157.2252665773403
 30
0.0
 40
7.0
  0
LINE
  5
3296
330
1F
100
AcDbEntity
  8
圖層2中心線
 48
0.1
100
AcDbLine
 10
4195.903923975402
 20
-147.2252665773403
 30
0.0
 11
4195.903923975402
 21
-167.2252665773403
 31
0.0
  0
LINE
  5
3297
330
1F
100
AcDbEntity
  8
圖層1輪廓線
100
AcDbLine
 10
3466.821295473386
 20
-446.3495904710932
 30
0.0
 11
3466.821295473386
 21
-222.22526657734
 31
0.0
  0
LINE
  5
3298
330
1F
100
AcDbEntity
  8
圖層1輪廓線
100
AcDbLine
 10
3393.821295473387
 20
-526.3495904710932
 30
0.0
 11
3464.821295473387
 21
-526.3495904710932
 31
0.0
  0
LINE
  5
3299
330
1F
100
AcDbEntity
  8
圖層1輪廓線
100
AcDbLine
 10
3391.821295473386
 20
-222.22526657734
 30
0.0
 11
3391.821295473386
 21
-446.3495904710932
 31
0.0
  0
ARC
  5
329A
330
1F
100
AcDbEntity
  8
圖層1輪廓線
100
AcDbCircle
 10
3945.653923975402
 20
-177.4596415773427
 30
0.0
 40
27.2656249999976
100
AcDbArc
 50
247.9181196393515
 51
292.0818803606484
  0
ARC
  5
329B
330
1F
100
AcDbEntity
  8
圖層1輪廓線
100
AcDbCircle
 10
3945.653923975404
 20
-221.9908915773419
 30
0.0
 40
27.26562500000156
100
AcDbArc
 50
67.91811963935156
 51
112.0818803606484
  0
LINE
  5
329C
330
1F
100
AcDbEntity
  8
圖層1輪廓線
100
AcDbLine
 10
3935.403923975404
 20
-202.7252665773402
 30
0.0
 11
3935.403923975402
 21
-196.7252665773403
 31
0.0
  0
ARC
  5
329D
330
1F
100
AcDbEntity
  8
圖層1輪廓線
100
AcDbCircle
 10
3966.153923975402
 20
-221.9908915773386
 30
0.0
 40
27.26562499999825
100
AcDbArc
 50
71.47508599862073
 51
112.0818803606484
  0
ARC
  5
329E
330
1F
100
AcDbEntity
  8
圖層1輪廓線
100
AcDbCircle
 10
3966.153923975402
 20
-177.4596415773426
 30
0.0
 40
27.26562499999781
100
AcDbArc
 50
247.9181196393515
 51
292.0818803606484
  0
LINE
  5
329F
330
1F
100
AcDbEntity
  8
圖層1輪廓線
100
AcDbLine
 10
3976.403923975404
 20
-202.72526657734
 30
0.0
 11
3976.403923975404
 21
-197.7252665773407
 31
0.0
  0
LINE
  5
32A0
330
1F
100
AcDbEntity
  8
圖層1輪廓線
100
AcDbLine
 10
3935.403923975404
 20
-219.7252665773405
 30
0.0
 11
3976.403923975404
 21
-219.7252665773405
 31
0.0
  0
ARC
  5
32A1
330
1F
100
AcDbEntity
  8
圖層1輪廓線
100
AcDbCircle
 10
3945.653923975404
 20
-241.9877665773405
 30
0.0
 40
22.26250000000009
100
AcDbArc
 50
62.58607799183097
 51
117.413922008169
  0
LINE
  5
32A2
330
1F
100
AcDbEntity
  8
圖層1輪廓線
100
AcDbLine
 10
3935.403923975404
 20
-257.2252665773405
 30
0.0
 11
3976.403923975404
 21
-257.2252665773405
 31
0.0
  0
LINE
  5
32A3
330
1F
100
AcDbEntity
  8
圖層1輪廓線
100
AcDbLine
 10
3935.403923975404
 20
-252.2252665773403
 30
0.0
 11
3976.403923975404
 21
-252.2252665773403
 31
0.0
  0
ARC
  5
32A4
330
1F
100
AcDbEntity
  8
圖層1輪廓線
100
AcDbCircle
 10
3945.653923975404
 20
-229.9627665773405
 30
0.0
 40
22.26249999999979
100
AcDbArc
 50
242.586077991831
 51
297.413922008169
  0
LINE
  5
32A5
330
1F
100
AcDbEntity
  8
圖層1輪廓線
100
AcDbLine
 10
3935.403923975404
 20
-257.2252665773405
 30
0.0
 11
3935.403923975404
 21
-204.7252665773405
 31
0.0
  0
LINE
  5
32A6
330
1F
100
AcDbEntity
  8
圖層1輪廓線
100
AcDbLine
 10
3976.403923975404
 20
-252.2252665773404
 30
0.0
 11
3976.403923975404
 21
-204.7252665773405
 31
0.0
  0
ARC
  5
32A7
330
1F
100
AcDbEntity
  8
圖層1輪廓線
100
AcDbCircle
 10
3966.153923975404
 20
-229.9627665773413
 30
0.0
 40
22.26249999999903
100
AcDbArc
 50
242.586077991831
 51
297.413922008169
  0
LINE
  5
32A8
330
1F
100
AcDbEntity
  8
圖層1輪廓線
100
AcDbLine
 10
3976.403923975404
 20
-257.2252665773405
 30
0.0
 11
3976.403923975404
 21
-252.2252665773404
 31
0.0
  0
ARC
  5
32A9
330
1F
100
AcDbEntity
  8
圖層1輪廓線
100
AcDbCircle
 10
3966.153923975404
 20
-241.9877665773405
 30
0.0
 40
22.26250000000009
100
AcDbArc
 50
62.58607799183097
 51
117.413922008169
  0
LINE
  5
32AA
330
1F
100
AcDbEntity
  8
圖層1輪廓線
100
AcDbLine
 10
3411.567774695804
 20
-219.7252665773399
 30
0.0
 11
3447.074816250968
 21
-219.7252665773401
 31
0.0
  0
ARC
  5
32AB
330
1F
100
AcDbEntity
  8
圖層1輪廓線
100
AcDbCircle
 10
3429.321295473386
 20
-248.9919332440083
 30
0.0
 40
29.26666666666804
100
AcDbArc
 50
66.14595163640498
 51
113.854048363595
  0
LINE
  5
32AC
330
1F
100
AcDbEntity
  8
圖層1輪廓線
100
AcDbLine
 10
3411.567774695804
 20
-254.7252665773399
 30
0.0
 11
3447.074816250968
 21
-254.7252665773399
 31
0.0
  0
LINE
  5
32AD
330
1F
100
AcDbEntity
  8
圖層1輪廓線
100
AcDbLine
 10
3408.821295473386
 20
-259.7252665773399
 30
0.0
 11
3449.821295473387
 21
-259.7252665773399
 31
0.0
  0
ARC
  5
32AE
330
1F
100
AcDbEntity
  8
圖層1輪廓線
100
AcDbCircle
 10
3429.321295473386
 20
-225.6382864778435
 30
0.0
 40
29.10241990186305
100
AcDbArc
 50
246.0028878993564
 51
293.9971121006436
  0
LINE
  5
32AF
330
1F
100
AcDbEntity
  8
圖層1輪廓線
100
AcDbLine
 10
3408.821295473386
 20
-204.7252665773399
 30
0.0
 11
3449.821295473387
 21
-204.7252665773401
 31
0.0
  0
LINE
  5
32B0
330
1F
100
AcDbEntity
  8
圖層1輪廓線
100
AcDbLine
 10
3405.649934436611
 20
-252.2252665773399
 30
0.0
 11
3405.649934436611
 21
-222.2252665773401
 31
0.0
  0
LINE
  5
32B1
330
1F
100
AcDbEntity
  8
圖層1輪廓線
100
AcDbLine
 10
3417.485614955
 20
-252.2252665773394
 30
0.0
 11
3417.485614955
 21
-222.2252665773401
 31
0.0
  0
ARC
  5
32B2
330
1F
100
AcDbEntity
  8
圖層1輪廓線
100
AcDbCircle
 10
3411.567774695804
 20
-246.4710999106735
 30
0.0
 40
8.254166666666545
100
AcDbArc
 50
224.1966084730827
 51
315.8033915269173
  0
LINE
  5
32B3
330
1F
100
AcDbEntity
  8
圖層1輪廓線
100
AcDbLine
 10
3408.821295473386
 20
-259.7252665773399
 30
0.0
 11
3408.821295473386
 21
-254.2549369620208
 31
0.0
  0
ARC
  5
32B4
330
1F
100
AcDbEntity
  8
圖層1輪廓線
100
AcDbCircle
 10
3411.567774695804
 20
-227.9794332440067
 30
0.0
 40
8.254166666666389
100
AcDbArc
 50
44.19660847308269
 51
135.8033915269173
  0
LINE
  5
32B5
330
1F
100
AcDbEntity
  8
圖層1輪廓線
100
AcDbLine
 10
3408.821295473386
 20
-220.1955961926592
 30
0.0
 11
3408.821295473386
 21
-204.7252665773399
 31
0.0
  0
LINE
  5
32B6
330
1F
100
AcDbEntity
  8
圖層1輪廓線
100
AcDbLine
 10
3441.156975991773
 20
-252.2252665773401
 30
0.0
 11
3441.156975991773
 21
-222.2252665773396
 31
0.0
  0
LINE
  5
32B7
330
1F
100
AcDbEntity
  8
圖層1輪廓線
100
AcDbLine
 10
3452.992656510161
 20
-252.2252665773401
 30
0.0
 11
3452.992656510161
 21
-222.2252665773401
 31
0.0
  0
ARC
  5
32B8
330
1F
100
AcDbEntity
  8
圖層1輪廓線
100
AcDbCircle
 10
3447.074816250968
 20
-246.4710999106736
 30
0.0
 40
8.254166666666625
100
AcDbArc
 50
224.1966084730827
 51
315.8033915269173
  0
LINE
  5
32B9
330
1F
100
AcDbEntity
  8
圖層1輪廓線
100
AcDbLine
 10
3449.821295473387
 20
-259.7252665773401
 30
0.0
 11
3449.821295473387
 21
-254.2549369620212
 31
0.0
  0
ARC
  5
32BA
330
1F
100
AcDbEntity
  8
圖層1輪廓線
100
AcDbCircle
 10
3447.074816250967
 20
-227.9794332440068
 30
0.0
 40
8.254166666666629
100
AcDbArc
 50
44.19660847308269
 51
135.8033915269173
  0
LINE
  5
32BB
330
1F
100
AcDbEntity
  8
圖層1輪廓線
100
AcDbLine
 10
3449.821295473387
 20
-220.195596192659
 30
0.0
 11
3449.821295473387
 21
-204.7252665773401
 31
0.0
  0
ARC
  5
32BC
330
1F
100
AcDbEntity
  8
圖層1輪廓線
100
AcDbCircle
 10
3429.321295473386
 20
-168.7044332440053
 30
0.0
 40
36.02083333333455
100
AcDbArc
 50
250.8174656949733
 51
289.1825343050267
  0
ARC
  5
32BD
330
1F
100
AcDbEntity
  8
圖層1輪廓線
100
AcDbCircle
 10
3429.321295473386
 20
-230.7460999106712
 30
0.0
 40
36.02083333333123
100
AcDbArc
 50
70.81746569497328
 51
109.1825343050267
  0
ARC
  5
32BE
330
1F
100
AcDbEntity
  8
圖層1輪廓線
100
AcDbCircle
 10
3411.567774695804
 20
-194.9700582440069
 30
0.0
 40
9.755208333333024
100
AcDbArc
 50
232.6534906855718
 51
307.3465093144283
  0
ARC
  5
32BF
330
1F
100
AcDbEntity
  8
圖層1輪廓線
100
AcDbCircle
 10
3411.567774695804
 20
-204.4804749106714
 30
0.0
 40
9.755208333331509
100
AcDbArc
 50
52.65349068551451
 51
127.3465093144854
  0
LINE
  5
32C0
330
1F
100
AcDbEntity
  8
圖層1輪廓線
100
AcDbLine
 10
3405.649934436611
 20
-202.72526657734
 30
0.0
 11
3405.649934436611
 21
-196.72526657734
 31
0.0
  0
LINE
  5
32C1
330
1F
100
AcDbEntity
  8
圖層1輪廓線
100
AcDbLine
 10
3417.485614955
 20
-202.72526657734
 30
0.0
 11
3417.485614955
 21
-196.7252665773407
 31
0.0
  0
ARC
  5
32C2
330
1F
100
AcDbEntity
  8
圖層1輪廓線
100
AcDbCircle
 10
3447.074816250968
 20
-194.9700582440067
 30
0.0
 40
9.755208333333412
100
AcDbArc
 50
232.6534906855718
 51
307.3465093144283
  0
ARC
  5
32C3
330
1F
100
AcDbEntity
  8
圖層1輪廓線
100
AcDbCircle
 10
3447.074816250968
 20
-204.4804749106735
 30
0.0
 40
9.755208333333525
100
AcDbArc
 50
52.65349068557176
 51
127.3465093144282
  0
LINE
  5
32C4
330
1F
100
AcDbEntity
  8
圖層1輪廓線
100
AcDbLine
 10
3441.156975991773
 20
-202.72526657734
 30
0.0
 11
3441.156975991773
 21
-196.7252665773402
 31
0.0
  0
LINE
  5
32C5
330
1F
100
AcDbEntity
  8
圖層1輪廓線
100
AcDbLine
 10
3452.992656510161
 20
-202.7252665773402
 30
0.0
 11
3452.992656510161
 21
-196.7252665773397
 31
0.0
  0
LINE
  5
32C6
330
1F
100
AcDbEntity
  8
圖層1輪廓線
100
AcDbLine
 10
3409.321295473386
 20
-192.22526657734
 30
0.0
 11
3409.321295473386
 21
-194.72526657734
 31
0.0
  0
LINE
  5
32C7
330
1F
100
AcDbEntity
  8
圖層1輪廓線
100
AcDbLine
 10
3409.321295473386
 20
-194.72526657734
 30
0.0
 11
3449.321295473386
 21
-194.72526657734
 31
0.0
  0
LINE
  5
32C8
330
1F
100
AcDbEntity
  8
圖層1輪廓線
100
AcDbLine
 10
3449.321295473386
 20
-194.72526657734
 30
0.0
 11
3449.321295473386
 21
-192.22526657734
 31
0.0
  0
LINE
  5
32C9
330
1F
100
AcDbEntity
  8
圖層1輪廓線
100
AcDbLine
 10
3935.903923975402
 20
-192.2252665773401
 30
0.0
 11
3935.903923975402
 21
-194.7252665773402
 31
0.0
  0
LINE
  5
32CA
330
1F
100
AcDbEntity
  8
圖層1輪廓線
  6
Continuous
100
AcDbLine
 10
3452.992656510161
 20
-222.22526657734
 30
0.0
 11
3494.321295473387
 21
-222.22526657734
 31
0.0
  0
LINE
  5
32CB
330
1F
100
AcDbEntity
  8
圖層1輪廓線
100
AcDbLine
 10
4042.903923975401
 20
18.77473342265978
 30
0.0
 11
4042.903923975401
 21
-135.2252665773402
 31
0.0
  0
LINE
  5
32CC
330
1F
100
AcDbEntity
  8
圖層1輪廓線
100
AcDbLine
 10
4062.903923975402
 20
18.77473342265978
 30
0.0
 11
4057.903923975401
 21
18.77473342265978
 31
0.0
  0
LINE
  5
32CD
330
1F
100
AcDbEntity
  8
圖層1輪廓線
100
AcDbLine
 10
4061.403923975402
 20
20.27473342265978
 30
0.0
 11
4044.403923975401
 21
20.27473342265978
 31
0.0
  0
ARC
  5
32CE
330
1F
100
AcDbEntity
  8
圖層1輪廓線
100
AcDbCircle
 10
4052.903923975402
 20
15.52473342265978
 30
0.0
 40
7.250000000000031
100
AcDbArc
 50
226.3971810272852
 51
313.6028189727148
  0
LINE
  5
32CF
330
1F
100
AcDbEntity
  8
圖層1輪廓線
100
AcDbLine
 10
4044.403923975401
 20
20.27473342265978
 30
0.0
 11
4042.903923975401
 21
18.77473342265978
 31
0.0
  0
LINE
  5
32D0
330
1F
100
AcDbEntity
  8
圖層1輪廓線
100
AcDbLine
 10
4042.903923975401
 20
18.77473342265978
 30
0.0
 11
4047.903923975402
 21
18.77473342265978
 31
0.0
  0
LINE
  5
32D1
330
1F
100
AcDbEntity
  8
圖層1輪廓線
100
AcDbLine
 10
4057.903923975401
 20
20.27473342265978
 30
0.0
 11
4057.903923975401
 21
10.27473342265978
 31
0.0
  0
LINE
  5
32D2
330
1F
100
AcDbEntity
  8
圖層1輪廓線
100
AcDbLine
 10
4047.903923975402
 20
20.27473342265978
 30
0.0
 11
4047.903923975402
 21
10.27473342265978
 31
0.0
  0
LINE
  5
32D3
330
1F
100
AcDbEntity
  8
圖層1輪廓線
100
AcDbLine
 10
4057.903923975401
 20
20.27473342265978
 30
0.0
 11
4047.903923975402
 21
10.27473342265978
 31
0.0
  0
LINE
  5
32D4
330
1F
100
AcDbEntity
  8
圖層1輪廓線
100
AcDbLine
 10
4057.903923975401
 20
10.27473342265978
 30
0.0
 11
4047.903923975402
 21
20.27473342265978
 31
0.0
  0
LINE
  5
32D5
330
1F
100
AcDbEntity
  8
圖層1輪廓線
100
AcDbLine
 10
4057.903923975401
 20
10.27473342265978
 30
0.0
 11
4047.903923975402
 21
10.27473342265978
 31
0.0
  0
LINE
  5
32D6
330
1F
100
AcDbEntity
  8
圖層1輪廓線
100
AcDbLine
 10
4062.903923975402
 20
18.77473342265978
 30
0.0
 11
4061.403923975402
 21
20.27473342265978
 31
0.0
  0
LINE
  5
32D7
330
1F
100
AcDbEntity
  8
圖層1輪廓線
100
AcDbLine
 10
4135.903923975401
 20
-126.3495904710935
 30
0.0
 11
4162.903923975401
 21
-126.3495904710935
 31
0.0
  0
LINE
  5
32D8
330
1F
100
AcDbEntity
  8
圖層1輪廓線
100
AcDbLine
 10
4162.903923975401
 20
-126.3495904710935
 30
0.0
 11
4162.903923975401
 21
-111.3495904710935
 31
0.0
  0
LINE
  5
32D9
330
1F
100
AcDbEntity
  8
圖層1輪廓線
100
AcDbLine
 10
4042.903923975401
 20
-111.3495904710935
 30
0.0
 11
4034.903923975401
 21
-111.3495904710935
 31
0.0
  0
LINE
  5
32DA
330
1F
100
AcDbEntity
  8
圖層1輪廓線
100
AcDbLine
 10
4034.903923975401
 20
-111.3495904710935
 30
0.0
 11
4034.903923975401
 21
-126.3495904710935
 31
0.0
  0
LINE
  5
32DB
330
1F
100
AcDbEntity
  8
圖層1輪廓線
100
AcDbLine
 10
4034.903923975401
 20
-126.3495904710935
 30
0.0
 11
4042.903923975401
 21
-126.3495904710935
 31
0.0
  0
LINE
  5
32DC
330
1F
100
AcDbEntity
  8
圖層4尺寸線
100
AcDbLine
 10
4072.903923975402
 20
-135.2252665773401
 30
0.0
 11
4072.903923975402
 21
-126.3495904710935
 31
0.0
  0
LINE
  5
32DD
330
1F
100
AcDbEntity
  8
圖層4尺寸線
100
AcDbLine
 10
4086.903923975402
 20
-126.3495904710935
 30
0.0
 11
4086.903923975402
 21
-135.2252665773401
 31
0.0
  0
LINE
  5
32DE
330
1F
100
AcDbEntity
  8
圖層4尺寸線
100
AcDbLine
 10
4072.653923975401
 20
-96.34959047109351
 30
0.0
 11
4087.153923975402
 21
-96.34959047109351
 31
0.0
  0
LINE
  5
32DF
330
1F
100
AcDbEntity
  8
圖層1輪廓線
100
AcDbLine
 10
4062.903923975402
 20
-96.34959047109351
 30
0.0
 11
4097.903923975402
 21
-96.34959047109351
 31
0.0
  0
LINE
  5
32E0
330
1F
100
AcDbEntity
  8
圖層1輪廓線
100
AcDbLine
 10
4097.903923975402
 20
-111.3495904710935
 30
0.0
 11
4062.903923975402
 21
-111.3495904710935
 31
0.0
  0
CIRCLE
  5
32E1
330
1F
100
AcDbEntity
  8
圖層3虛線
 48
0.5
100
AcDbCircle
 10
4079.704257172698
 20
-103.8495904710935
 30
0.0
 40
4.0
  0
CIRCLE
  5
32E2
330
1F
100
AcDbEntity
  8
圖層4尺寸線
100
AcDbCircle
 10
4079.704257172698
 20
-103.8495904710935
 30
0.0
 40
3.0
  0
LINE
  5
32E3
330
1F
100
AcDbEntity
  8
圖層1輪廓線
100
AcDbLine
 10
4097.903923975402
 20
-96.34959047109351
 30
0.0
 11
4097.903923975402
 21
-111.3495904710935
 31
0.0
  0
LINE
  5
32E4
330
1F
100
AcDbEntity
  8
圖層1輪廓線
100
AcDbLine
 10
4086.903923975402
 20
-96.34959047109351
 30
0.0
 11
4086.903923975402
 21
-74.10256344406639
 31
0.0
  0
LINE
  5
32E5
330
1F
100
AcDbEntity
  8
圖層1輪廓線
100
AcDbLine
 10
4054.903923975402
 20
-142.2252665773401
 30
0.0
 11
4104.903923975402
 21
-142.2252665773401
 31
0.0
  0
LINE
  5
32E6
330
1F
100
AcDbEntity
  8
圖層1輪廓線
100
AcDbLine
 10
4054.903923975402
 20
-135.2252665773401
 30
0.0
 11
4098.403923975402
 21
-135.2252665773401
 31
0.0
  0
LINE
  5
32E7
330
1F
100
AcDbEntity
  8
圖層1輪廓線
100
AcDbLine
 10
4070.903923975402
 20
-126.3495904710935
 30
0.0
 11
4079.903923975402
 21
-126.3495904710935
 31
0.0
  0
LINE
  5
32E8
330
1F
100
AcDbEntity
  8
圖層1輪廓線
100
AcDbLine
 10
4079.903923975402
 20
-126.3495904710935
 30
0.0
 11
4088.903923975402
 21
-126.3495904710935
 31
0.0
  0
LINE
  5
32E9
330
1F
100
AcDbEntity
  8
圖層1輪廓線
100
AcDbLine
 10
4072.903923975402
 20
-126.3495904710935
 30
0.0
 11
4086.903923975402
 21
-126.3495904710935
 31
0.0
  0
ARC
  5
32EA
330
1F
100
AcDbEntity
  8
圖層1輪廓線
100
AcDbCircle
 10
4123.795815867294
 20
-40.21137425487722
 30
0.0
 40
6.108108108108208
100
AcDbArc
 50
270.0
 51
90.0
  0
ARC
  5
32EB
330
1F
100
AcDbEntity
  8
圖層1輪廓線
100
AcDbCircle
 10
4036.01203208351
 20
-40.21137425487722
 30
0.0
 40
6.108108108108208
100
AcDbArc
 50
90.0
 51
270.0
  0
LINE
  5
32EC
330
1F
100
AcDbEntity
  8
圖層1輪廓線
100
AcDbLine
 10
4099.903923975402
 20
-74.10256344406639
 30
0.0
 11
4062.903923975402
 21
-74.10256344406639
 31
0.0
  0
ARC
  5
32ED
330
1F
100
AcDbEntity
  8
圖層1輪廓線
100
AcDbCircle
 10
4065.039059110537
 20
-57.0522931737961
 30
0.0
 40
4.054054054054054
100
AcDbArc
 50
270.0
 51
0.0
  0
LINE
  5
32EE
330
1F
100
AcDbEntity
  8
圖層1輪廓線
100
AcDbLine
 10
4062.903923975402
 20
-54.34959047109351
 30
0.0
 11
4069.093113164591
 21
-54.34959047109339
 31
0.0
  0
LINE
  5
32EF
330
1F
100
AcDbEntity
  8
圖層1輪廓線
100
AcDbLine
 10
4036.01203208351
 20
-46.31948236298535
 30
0.0
 11
4042.903923975401
 21
-46.31948236298535
 31
0.0
  0
LINE
  5
32F0
330
1F
100
AcDbEntity
  8
圖層1輪廓線
100
AcDbLine
 10
4062.903923975402
 20
-61.10634722785016
 30
0.0
 11
4065.039059110537
 21
-61.10634722785016
 31
0.0
  0
LINE
  5
32F1
330
1F
100
AcDbEntity
  8
圖層1輪廓線
100
AcDbLine
 10
4090.714734786213
 20
-54.34959047109339
 30
0.0
 11
4100.174194245671
 21
-54.34959047109339
 31
0.0
  0
LINE
  5
32F2
330
1F
100
AcDbEntity
  8
圖層1輪廓線
100
AcDbLine
 10
4094.768788840267
 20
-61.10634722785016
 30
0.0
 11
4105.579599651078
 21
-61.10634722785016
 31
0.0
  0
CIRCLE
  5
32F3
330
1F
100
AcDbEntity
  8
圖層4尺寸線
100
AcDbCircle
 10
4079.903923975402
 20
-67.71445533595829
 30
0.0
 40
3.0
  0
CIRCLE
  5
32F4
330
1F
100
AcDbEntity
  8
圖層3虛線
 48
0.5
100
AcDbCircle
 10
4079.903923975402
 20
-67.71445533595829
 30
0.0
 40
4.0
  0
LINE
  5
32F5
330
1F
100
AcDbEntity
  8
圖層1輪廓線
100
AcDbLine
 10
4069.093113164591
 20
-46.31948236298535
 30
0.0
 11
4069.093113164591
 21
-57.0522931737961
 31
0.0
  0
LINE
  5
32F6
330
1F
100
AcDbEntity
  8
圖層1輪廓線
100
AcDbLine
 10
4090.714734786213
 20
-46.31948236298535
 30
0.0
 11
4090.714734786213
 21
-57.05229317379632
 31
0.0
  0
ARC
  5
32F7
330
1F
100
AcDbEntity
  8
圖層1輪廓線
100
AcDbCircle
 10
4094.768788840267
 20
-57.05229317379622
 30
0.0
 40
4.054054054054054
100
AcDbArc
 50
180.0
 51
270.0
  0
LINE
  5
32F8
330
1F
100
AcDbEntity
  8
圖層1輪廓線
100
AcDbLine
 10
4099.903923975402
 20
-61.10634722785016
 30
0.0
 11
4099.903923975402
 21
-74.10256344406639
 31
0.0
  0
ARC
  5
32F9
330
1F
100
AcDbEntity
  8
圖層1輪廓線
100
AcDbCircle
 10
4104.630419209748
 20
-50.97121209271495
 30
0.0
 40
10.13513513513513
100
AcDbArc
 50
270.0
 51
344.9999999999993
  0
LINE
  5
32FA
330
1F
100
AcDbEntity
  8
圖層1輪廓線
100
AcDbLine
 10
4109.395301134795
 20
-46.31948236298558
 30
0.0
 11
4107.8936821364
 21
-51.8456007586019
 31
0.0
  0
LINE
  5
32FB
330
1F
100
AcDbEntity
  8
圖層1輪廓線
100
AcDbLine
 10
4100.174194245671
 20
-54.34959047109351
 30
0.0
 11
4104.630419209748
 21
-54.34959047109351
 31
0.0
  0
ARC
  5
32FC
330
1F
100
AcDbEntity
  8
圖層1輪廓線
100
AcDbCircle
 10
4104.630419209748
 20
-50.97121209271495
 30
0.0
 40
3.378378378378378
100
AcDbArc
 50
270.0
 51
344.9999999999993
  0
ARC
  5
32FD
330
1F
100
AcDbEntity
  8
圖層1輪廓線
100
AcDbCircle
 10
4104.630419209748
 20
-50.97121209271495
 30
0.0
 40
3.378378378378378
100
AcDbArc
 50
270.0
 51
344.9999999999993
  0
LINE
  5
32FE
330
1F
100
AcDbEntity
  8
圖層1輪廓線
100
AcDbLine
 10
4116.390410461888
 20
-46.31948236298535
 30
0.0
 11
4114.420207989704
 21
-53.5943780903757
 31
0.0
  0
LINE
  5
32FF
330
1F
100
AcDbEntity
  8
圖層4尺寸線
100
AcDbLine
 10
4088.903923975402
 20
-314.3495904710935
 30
0.0
 11
4070.903923975402
 21
-314.3495904710935
 31
0.0
  0
LINE
  5
3300
330
1F
100
AcDbEntity
  8
圖層1輪廓線
100
AcDbLine
 10
4036.01203208351
 20
-34.10326614676899
 30
0.0
 11
4042.903923975401
 21
-34.10326614676899
 31
0.0
  0
LINE
  5
3301
330
1F
100
AcDbEntity
  8
圖層4尺寸線
100
AcDbLine
 10
4072.903923975402
 20
-316.3495904710935
 30
0.0
 11
4072.903923975402
 21
-222.2252665773402
 31
0.0
  0
LINE
  5
3302
330
1F
100
AcDbEntity
  8
圖層4尺寸線
100
AcDbLine
 10
4086.903923975402
 20
-316.3495904710935
 30
0.0
 11
4072.903923975402
 21
-316.3495904710935
 31
0.0
  0
LINE
  5
3303
330
1F
100
AcDbEntity
  8
圖層1輪廓線
100
AcDbLine
 10
4052.903923975402
 20
-142.2252665773401
 30
0.0
 11
4023.903923975402
 21
-142.2252665773401
 31
0.0
  0
LINE
  5
3304
330
1F
100
AcDbEntity
  8
圖層1輪廓線
100
AcDbLine
 10
4023.903923975402
 20
-142.2252665773401
 30
0.0
 11
4023.903923975402
 21
-135.2252665773401
 31
0.0
  0
LINE
  5
3305
330
1F
100
AcDbEntity
  8
圖層1輪廓線
100
AcDbLine
 10
4023.903923975402
 20
-135.2252665773401
 30
0.0
 11
4081.903923975402
 21
-135.2252665773401
 31
0.0
  0
LINE
  5
3306
330
1F
100
AcDbEntity
  8
圖層1輪廓線
100
AcDbLine
 10
4062.903923975402
 20
-126.3495904710935
 30
0.0
 11
4100.403923975401
 21
-126.3495904710935
 31
0.0
  0
LINE
  5
3307
330
1F
100
AcDbEntity
  8
圖層1輪廓線
100
AcDbLine
 10
4062.903923975402
 20
-135.2252665773402
 30
0.0
 11
4062.903923975402
 21
-111.3495904710935
 31
0.0
  0
LINE
  5
3308
330
1F
100
AcDbEntity
  8
圖層4尺寸線
100
AcDbLine
 10
4086.903923975402
 20
-222.2252665773402
 30
0.0
 11
4086.903923975402
 21
-316.3495904710935
 31
0.0
  0
LINE
  5
3309
330
1F
100
AcDbEntity
  8
圖層1輪廓線
100
AcDbLine
 10
4098.403923975402
 20
-222.2252665773402
 30
0.0
 11
4098.403923975402
 21
-446.3495904710935
 31
0.0
  0
LINE
  5
330A
330
1F
100
AcDbEntity
  8
圖層1輪廓線
100
AcDbLine
 10
4098.403923975402
 20
-135.2252665773401
 30
0.0
 11
4098.403923975402
 21
-142.2252665773401
 31
0.0
  0
LINE
  5
330B
330
1F
100
AcDbEntity
  8
圖層1輪廓線
100
AcDbLine
 10
4062.903923975402
 20
-96.34959047109351
 30
0.0
 11
4062.903923975402
 21
18.77473342265978
 31
0.0
  0
LINE
  5
330C
330
1F
100
AcDbEntity
  8
圖層1輪廓線
100
AcDbLine
 10
4062.903923975402
 20
-96.34959047109351
 30
0.0
 11
4062.903923975402
 21
-111.3495904710935
 31
0.0
  0
LINE
  5
330D
330
1F
100
AcDbEntity
  8
圖層1輪廓線
100
AcDbLine
 10
4081.903923975402
 20
-142.2252665773401
 30
0.0
 11
4081.903923975402
 21
-135.2252665773401
 31
0.0
  0
LINE
  5
330E
330
1F
100
AcDbEntity
  8
圖層1輪廓線
100
AcDbLine
 10
4062.903923975402
 20
-46.31948236298535
 30
0.0
 11
4123.795815867294
 21
-46.31948236298535
 31
0.0
  0
LINE
  5
330F
330
1F
100
AcDbEntity
  8
圖層1輪廓線
100
AcDbLine
 10
4062.903923975402
 20
-34.10326614676899
 30
0.0
 11
4123.795815867294
 21
-34.1032661467691
 31
0.0
  0
LINE
  5
3310
330
1F
100
AcDbEntity
  8
圖層1輪廓線
100
AcDbLine
 10
4072.903923975402
 20
-74.10256344406639
 30
0.0
 11
4072.903923975402
 21
-96.34959047109351
 31
0.0
  0
LINE
  5
3311
330
1F
100
AcDbEntity
  8
圖層1輪廓線
100
AcDbLine
 10
4065.039059110537
 20
-61.10634722785016
 30
0.0
 11
4094.768788840267
 21
-61.10634722785028
 31
0.0
  0
LINE
  5
3312
330
1F
100
AcDbEntity
  8
圖層1輪廓線
100
AcDbLine
 10
3364.321295473386
 20
-142.22526657734
 30
0.0
 11
3392.321295473387
 21
-142.22526657734
 31
0.0
  0
LINE
  5
3313
330
1F
100
AcDbEntity
  8
圖層1輪廓線
100
AcDbLine
 10
3466.321295473387
 20
-142.22526657734
 30
0.0
 11
3494.321295473387
 21
-142.22526657734
 31
0.0
  0
LINE
  5
3314
330
1F
100
AcDbEntity
  8
圖層1輪廓線
100
AcDbLine
 10
3392.321295473387
 20
-142.22526657734
 30
0.0
 11
3466.321295473387
 21
-142.22526657734
 31
0.0
  0
LINE
  5
3315
330
1F
100
AcDbEntity
  8
圖層1輪廓線
100
AcDbLine
 10
3890.903923975402
 20
-142.2252665773401
 30
0.0
 11
3918.903923975403
 21
-142.2252665773401
 31
0.0
  0
LINE
  5
3316
330
1F
100
AcDbEntity
  8
圖層1輪廓線
100
AcDbLine
 10
3992.903923975402
 20
-142.2252665773401
 30
0.0
 11
4205.903923975402
 21
-142.2252665773401
 31
0.0
  0
LINE
  5
3317
330
1F
100
AcDbEntity
  8
圖層1輪廓線
100
AcDbLine
 10
3918.903923975403
 20
-142.2252665773401
 30
0.0
 11
3992.903923975402
 21
-142.2252665773401
 31
0.0
  0
LINE
  5
3318
330
1F
100
AcDbEntity
  8
圖層1輪廓線
100
AcDbLine
 10
4173.403923975402
 20
-142.2252665773401
 30
0.0
 11
4173.403923975402
 21
-128.3495904710935
 31
0.0
  0
LINE
  5
3319
330
1F
100
AcDbEntity
  8
圖層3虛線
100
AcDbLine
 10
3419.321295473387
 20
-229.7252665773399
 30
0.0
 11
3439.321295473386
 21
-229.7252665773399
 31
0.0
  0
LINE
  5
331A
330
1F
100
AcDbEntity
  8
圖層3虛線
100
AcDbLine
 10
3419.321295473387
 20
-259.7252665773399
 30
0.0
 11
3419.321295473387
 21
-229.7252665773399
 31
0.0
  0
LINE
  5
331B
330
1F
100
AcDbEntity
  8
圖層3虛線
100
AcDbLine
 10
3439.321295473386
 20
-259.7252665773399
 30
0.0
 11
3439.321295473386
 21
-229.7252665773399
 31
0.0
  0
LINE
  5
331C
330
1F
100
AcDbEntity
  8
圖層3虛線
100
AcDbLine
 10
3405.649934436611
 20
-239.7252665773399
 30
0.0
 11
3419.321295473387
 21
-239.7252665773398
 31
0.0
  0
LINE
  5
331D
330
1F
100
AcDbEntity
  8
圖層3虛線
100
AcDbLine
 10
3405.649934436611
 20
-249.7252665773399
 30
0.0
 11
3419.321295473387
 21
-249.7252665773398
 31
0.0
  0
LINE
  5
331E
330
1F
100
AcDbEntity
  8
圖層3虛線
100
AcDbLine
 10
3439.321295473386
 20
-239.7252665773398
 30
0.0
 11
3452.992656510161
 21
-239.7252665773399
 31
0.0
  0
LINE
  5
331F
330
1F
100
AcDbEntity
  8
圖層3虛線
100
AcDbLine
 10
3439.321295473386
 20
-249.7252665773398
 30
0.0
 11
3452.992656510161
 21
-249.7252665773399
 31
0.0
  0
LINE
  5
3320
330
1F
100
AcDbEntity
  8
圖層3虛線
100
AcDbLine
 10
3405.649934436611
 20
-241.7252665773399
 30
0.0
 11
3419.321295473387
 21
-241.7252665773398
 31
0.0
  0
LINE
  5
3321
330
1F
100
AcDbEntity
  8
圖層3虛線
100
AcDbLine
 10
3405.649934436611
 20
-247.7252665773399
 30
0.0
 11
3419.321295473387
 21
-247.7252665773398
 31
0.0
  0
LINE
  5
3322
330
1F
100
AcDbEntity
  8
圖層3虛線
100
AcDbLine
 10
3439.321295473386
 20
-241.7252665773398
 30
0.0
 11
3452.992656510161
 21
-241.7252665773399
 31
0.0
  0
LINE
  5
3323
330
1F
100
AcDbEntity
  8
圖層3虛線
100
AcDbLine
 10
3439.321295473386
 20
-247.7252665773398
 30
0.0
 11
3452.992656510161
 21
-247.7252665773399
 31
0.0
  0
LINE
  5
3324
330
1F
100
AcDbEntity
  8
圖層2中心線
 48
0.3
370
    18
100
AcDbLine
 10
3403.134497989608
 20
-244.7252665773399
 30
0.0
 11
3456.641137416331
 21
-244.7252665773399
 31
0.0
  0
LINE
  5
3325
330
1F
100
AcDbEntity
  8
圖層4尺寸線
100
AcDbLine
 10
3927.403923975404
 20
-234.8640506451726
 30
0.0
 11
3927.403923975404
 21
-249.5864825095083
 31
0.0
  0
LINE
  5
3326
330
1F
100
AcDbEntity
  8
圖層1輪廓線
100
AcDbLine
 10
3935.403923975404
 20
-234.8640506451726
 30
0.0
 11
3935.403923975404
 21
-249.5864825095083
 31
0.0
  0
ARC
  5
3327
330
1F
100
AcDbEntity
  8
圖層1輪廓線
100
AcDbCircle
 10
3926.626146197627
 20
-242.2252665773405
 30
0.0
 40
8.777777777777844
100
AcDbArc
 50
326.0078238856431
 51
33.9921761143569
  0
ARC
  5
3328
330
1F
100
AcDbEntity
  8
圖層1輪廓線
100
AcDbCircle
 10
3936.181701753181
 20
-242.2252665773405
 30
0.0
 40
8.777777777777153
100
AcDbArc
 50
146.0078238856431
 51
213.9921761143569
  0
LINE
  5
3329
330
1F
100
AcDbEntity
  8
圖層4尺寸線
100
AcDbLine
 10
3928.903923975404
 20
-232.4103120011169
 30
0.0
 11
3933.903923975404
 21
-232.4103120011169
 31
0.0
  0
LINE
  5
332A
330
1F
100
AcDbEntity
  8
圖層1輪廓線
100
AcDbLine
 10
3928.903923975404
 20
-237.3177892892287
 30
0.0
 11
3933.903923975404
 21
-237.3177892892287
 31
0.0
  0
ARC
  5
332B
330
1F
100
AcDbEntity
  8
圖層1輪廓線
100
AcDbCircle
 10
3930.160868419849
 20
-234.8640506451726
 30
0.0
 40
2.756944444444471
100
AcDbArc
 50
117.1241053663964
 51
242.8758946336036
  0
ARC
  5
332C
330
1F
100
AcDbEntity
  8
圖層1輪廓線
100
AcDbCircle
 10
3932.646979530959
 20
-234.8640506451726
 30
0.0
 40
2.756944444444574
100
AcDbArc
 50
297.1241053663964
 51
62.87589463360361
  0
LINE
  5
332D
330
1F
100
AcDbEntity
  8
圖層1輪廓線
100
AcDbLine
 10
3928.903923975404
 20
-247.1327438654522
 30
0.0
 11
3933.903923975404
 21
-247.1327438654522
 31
0.0
  0
LINE
  5
332E
330
1F
100
AcDbEntity
  8
圖層4尺寸線
100
AcDbLine
 10
3928.903923975404
 20
-252.0402211535639
 30
0.0
 11
3933.903923975404
 21
-252.0402211535639
 31
0.0
  0
ARC
  5
332F
330
1F
100
AcDbEntity
  8
圖層1輪廓線
100
AcDbCircle
 10
3930.160868419849
 20
-249.5864825095083
 30
0.0
 40
2.756944444444263
100
AcDbArc
 50
117.1241053663411
 51
242.8758946336589
  0
ARC
  5
3330
330
1F
100
AcDbEntity
  8
圖層1輪廓線
100
AcDbCircle
 10
3932.646979530961
 20
-249.5864825095081
 30
0.0
 40
2.756944444444471
100
AcDbArc
 50
297.1241053663964
 51
62.87589463360361
  0
CIRCLE
  5
3331
330
1F
100
AcDbEntity
  8
圖層3虛線
100
AcDbCircle
 10
3429.321295473386
 20
-244.7252665773399
 30
0.0
 40
5.0
  0
LINE
  5
3332
330
1F
100
AcDbEntity
  8
圖層2中心線
 48
0.3
370
    18
100
AcDbLine
 10
3909.529737223162
 20
-242.2252665773405
 30
0.0
 11
4000.394463036403
 21
-242.2252665773405
 31
0.0
  0
LINE
  5
3333
330
1F
100
AcDbEntity
  8
圖層4尺寸線
100
AcDbLine
 10
3955.903923975402
 20
-237.8575141076772
 30
0.0
 11
3955.903923975402
 21
-249.7252665773388
 31
0.0
  0
LINE
  5
3334
330
1F
100
AcDbEntity
  8
圖層1輪廓線
100
AcDbLine
 10
3955.903923975404
 20
-196.7252665773404
 30
0.0
 11
3955.903923975402
 21
-202.7252665773402
 31
0.0
  0
LINE
  5
3335
330
1F
100
AcDbEntity
  8
圖層2中心線
 48
0.5
100
AcDbLine
 10
4135.903923975401
 20
-553.8199274597461
 30
0.0
 11
4135.903923975401
 21
-66.98179852375438
 31
0.0
  0
ARC
  5
3336
330
1F
100
AcDbEntity
  8
圖層1輪廓線
100
AcDbCircle
 10
4135.903923975401
 20
-99.82875713776117
 30
0.0
 40
8.520833333332422
100
AcDbArc
 50
229.9320129505173
 51
310.0679870494261
  0
ARC
  5
3337
330
1F
100
AcDbEntity
  8
圖層1輪廓線
100
AcDbCircle
 10
4144.131165311355
 20
-105.4693821377602
 30
0.0
 40
2.880208333333234
100
AcDbArc
 50
197.7946131839002
 51
342.2053868160997
  0
ARC
  5
3338
330
1F
100
AcDbEntity
  8
圖層1輪廓線
100
AcDbCircle
 10
4127.67668263945
 20
-105.4693821377602
 30
0.0
 40
2.880208333333234
100
AcDbArc
 50
197.7946131839002
 51
342.2053868160997
  0
LINE
  5
3339
330
1F
100
AcDbEntity
  8
圖層1輪廓線
100
AcDbLine
 10
4127.51246005862
 20
-108.3495904710935
 30
0.0
 11
4144.295387892185
 21
-108.3495904710935
 31
0.0
  0
ARC
  5
333A
330
1F
100
AcDbEntity
  8
圖層1輪廓線
100
AcDbCircle
 10
4135.903923975401
 20
-106.8704238044267
 30
0.0
 40
8.520833333333246
100
AcDbArc
 50
49.93201295057393
 51
130.0679870494261
  0
LINE
  5
333B
330
1F
100
AcDbEntity
  8
圖層1輪廓線
100
AcDbLine
 10
4127.51246005862
 20
-98.3495904710935
 30
0.0
 11
4144.295387892185
 21
-98.34959047109373
 31
0.0
  0
LINE
  5
333C
330
1F
100
AcDbEntity
  8
圖層1輪廓線
100
AcDbLine
 10
4130.419096418101
 20
-106.349590471093
 30
0.0
 11
4130.419096418101
 21
-100.3495904710935
 31
0.0
  0
LINE
  5
333D
330
1F
100
AcDbEntity
  8
圖層1輪廓線
100
AcDbLine
 10
4124.934268860799
 20
-106.3495904710937
 30
0.0
 11
4124.934268860799
 21
-100.349590471093
 31
0.0
  0
ARC
  5
333E
330
1F
100
AcDbEntity
  8
圖層1輪廓線
100
AcDbCircle
 10
4127.67668263945
 20
-101.2297988044267
 30
0.0
 40
2.880208333333381
100
AcDbArc
 50
17.79461318390024
 51
162.2053868160997
  0
ARC
  5
333F
330
1F
100
AcDbEntity
  8
圖層1輪廓線
100
AcDbCircle
 10
4144.131165311355
 20
-101.2297988044267
 30
0.0
 40
2.880208333333343
100
AcDbArc
 50
17.79461318390024
 51
162.2053868160997
  0
LINE
  5
3340
330
1F
100
AcDbEntity
  8
圖層1輪廓線
100
AcDbLine
 10
4141.388751532704
 20
-106.3495904710935
 30
0.0
 11
4141.388751532704
 21
-100.3495904710935
 31
0.0
  0
LINE
  5
3341
330
1F
100
AcDbEntity
  8
圖層1輪廓線
100
AcDbLine
 10
4146.873579090004
 20
-106.3495904710933
 30
0.0
 11
4146.873579090004
 21
-100.3495904710935
 31
0.0
  0
LINE
  5
3342
330
1F
100
AcDbEntity
  8
圖層1輪廓線
100
AcDbLine
 10
4124.903923975401
 20
-111.3495904710935
 30
0.0
 11
4124.903923975401
 21
-108.3495904710935
 31
0.0
  0
LINE
  5
3343
330
1F
100
AcDbEntity
  8
圖層1輪廓線
100
AcDbLine
 10
4124.903923975401
 20
-108.3495904710935
 30
0.0
 11
4146.903923975401
 21
-108.3495904710935
 31
0.0
  0
LINE
  5
3344
330
1F
100
AcDbEntity
  8
圖層1輪廓線
100
AcDbLine
 10
4146.903923975401
 20
-108.3495904710935
 30
0.0
 11
4146.903923975401
 21
-111.3495904710935
 31
0.0
  0
LINE
  5
3345
330
1F
100
AcDbEntity
  8
圖層1輪廓線
100
AcDbLine
 10
4097.903923975402
 20
-111.3495904710935
 30
0.0
 11
4162.903923975401
 21
-111.3495904710935
 31
0.0
  0
LINE
  5
3346
330
1F
100
AcDbEntity
  8
圖層2中心線
100
AcDbLine
 10
4069.903923975402
 20
-67.71445533595829
 30
0.0
 11
4089.903923975401
 21
-67.71445533595829
 31
0.0
  0
LINE
  5
3347
330
1F
100
AcDbEntity
  8
圖層2中心線
100
AcDbLine
 10
4079.903923975402
 20
-77.71445533595829
 30
0.0
 11
4079.903923975402
 21
-57.71445533595829
 31
0.0
  0
LINE
  5
3348
330
1F
100
AcDbEntity
  8
圖層2中心線
100
AcDbLine
 10
4069.704257172698
 20
-103.8495904710935
 30
0.0
 11
4089.704257172697
 21
-103.8495904710935
 31
0.0
  0
LINE
  5
3349
330
1F
100
AcDbEntity
  8
圖層2中心線
100
AcDbLine
 10
4079.704257172698
 20
-113.8495904710935
 30
0.0
 11
4079.704257172698
 21
-93.84959047109351
 31
0.0
  0
LINE
  5
334A
330
1F
100
AcDbEntity
  8
圖層1輪廓線
100
AcDbLine
 10
3935.903923975402
 20
-194.7252665773402
 30
0.0
 11
3973.403923975402
 21
-194.7252665773402
 31
0.0
  0
LINE
  5
334B
330
1F
100
AcDbEntity
  8
圖層1輪廓線
100
AcDbLine
 10
3935.403923975404
 20
-204.7252665773405
 30
0.0
 11
3976.403923975404
 21
-204.7252665773405
 31
0.0
  0
CIRCLE
  5
334C
330
1F
100
AcDbEntity
  8
圖層1輪廓線
100
AcDbCircle
 10
3429.321295473386
 20
-244.7252665773399
 30
0.0
 40
7.0
  0
CIRCLE
  5
334D
330
1F
100
AcDbEntity
  8
圖層1輪廓線
100
AcDbCircle
 10
3429.321295473386
 20
-244.7252665773399
 30
0.0
 40
3.0
  0
LWPOLYLINE
  5
334E
330
1F
100
AcDbEntity
  8
圖層1輪廓線
100
AcDbPolyline
 90
        6
 70
     1
 43
0.0
 10
3422.321295473386
 20
-248.7667184616674
 10
3429.321295473386
 20
-252.808170345995
 10
3436.321295473386
 20
-248.7667184616674
 10
3436.321295473386
 20
-240.6838146930123
 10
3429.321295473386
 20
-236.6423628086847
 10
3422.321295473386
 20
-240.6838146930122
  0
LINE
  5
334F
330
1F
100
AcDbEntity
  8
圖層4尺寸線
100
AcDbLine
 10
4089.903923975401
 20
-126.3495904710935
 30
0.0
 11
4089.903923975401
 21
-135.2252665773401
 31
0.0
  0
LINE
  5
3350
330
1F
100
AcDbEntity
  8
圖層4尺寸線
100
AcDbLine
 10
4069.903923975402
 20
-126.3495904710935
 30
0.0
 11
4069.903923975402
 21
-135.2252665773401
 31
0.0
  0
LINE
  5
3351
330
1F
100
AcDbEntity
  8
圖層4尺寸線
100
AcDbLine
 10
4069.903923975402
 20
-222.2252665773402
 30
0.0
 11
4069.903923975402
 21
-314.3495904710935
 31
0.0
  0
LINE
  5
3352
330
1F
100
AcDbEntity
  8
圖層4尺寸線
100
AcDbLine
 10
4089.903923975401
 20
-222.2252665773402
 30
0.0
 11
4089.903923975401
 21
-314.3495904710935
 31
0.0
  0
LINE
  5
3353
330
1F
100
AcDbEntity
  8
圖層4尺寸線
100
AcDbLine
 10
4069.903923975402
 20
-314.3495904710935
 30
0.0
 11
4089.903923975401
 21
-314.3495904710935
 31
0.0
  0
LINE
  5
3354
330
1F
100
AcDbEntity
  8
圖層4尺寸線
100
AcDbLine
 10
4069.903923975402
 20
-314.3495904710935
 30
0.0
 11
4072.903923975402
 21
-316.3495904710935
 31
0.0
  0
LINE
  5
3355
330
1F
100
AcDbEntity
  8
圖層4尺寸線
100
AcDbLine
 10
4086.903923975402
 20
-316.3495904710935
 30
0.0
 11
4089.903923975401
 21
-314.3495904710935
 31
0.0
  0
LINE
  5
3356
330
1F
100
AcDbEntity
  8
圖層2中心線
 48
0.5
100
AcDbLine
 10
4079.903923975402
 20
-325.1861961764535
 30
0.0
 11
4079.903923975402
 21
-17.46914519412849
 31
0.0
  0
LINE
  5
3357
330
1F
100
AcDbEntity
  8
圖層2中心線
 48
0.5
100
AcDbLine
 10
4052.903923975402
 20
30.23837994884207
 30
0.0
 11
4052.903923975402
 21
-162.1306698134653
 31
0.0
  0
LINE
  5
3358
330
1F
100
AcDbEntity
  8
圖層1輪廓線
100
AcDbLine
 10
3963.403923975402
 20
-446.3495904710933
 30
0.0
 11
4050.903923975402
 21
-446.3495904710935
 31
0.0
  0
LINE
  5
3359
330
1F
100
AcDbEntity
  8
圖層2中心線
 48
0.5
100
AcDbLine
 10
3955.903923975402
 20
-536.8643475583419
 30
0.0
 11
3955.903923975402
 21
-415.9638425826951
 31
0.0
  0
LINE
  5
335A
330
1F
100
AcDbEntity
  8
圖層1輪廓線
100
AcDbLine
 10
3376.321295473387
 20
-142.22526657734
 30
0.0
 11
3482.321295473386
 21
-142.2252665773399
 31
0.0
  0
LINE
  5
335B
330
1F
100
AcDbEntity
  8
圖層1輪廓線
100
AcDbLine
 10
3482.321295473386
 20
-142.22526657734
 30
0.0
 11
3376.321295473387
 21
-142.2252665773397
 31
0.0
  0
LINE
  5
335C
330
1F
100
AcDbEntity
  8
圖層1輪廓線
100
AcDbLine
 10
3429.321295473386
 20
-127.2252665773399
 30
0.0
 11
3429.321295473386
 21
-121.2252665773398
 31
0.0
  0
LINE
  5
335D
330
1F
100
AcDbEntity
  8
圖層2中心線
100
AcDbLine
 10
3429.321295473386
 20
33.77473342266012
 30
0.0
 11
3429.321295473386
 21
27.77473342266012
 31
0.0
  0
LINE
  5
335E
330
1F
100
AcDbEntity
  8
圖層1輪廓線
100
AcDbLine
 10
4008.903923975402
 20
-142.2252665773401
 30
0.0
 11
3902.903923975402
 21
-142.2252665773399
 31
0.0
  0
LINE
  5
335F
330
1F
100
AcDbEntity
  8
圖層1輪廓線
100
AcDbLine
 10
3902.903923975402
 20
-142.2252665773401
 30
0.0
 11
4008.903923975402
 21
-142.22526657734
 31
0.0
  0
LINE
  5
3360
330
1F
100
AcDbEntity
  8
圖層1輪廓線
100
AcDbLine
 10
3969.403923975402
 20
165.7747334226601
 30
0.0
 11
3970.903923975402
 21
164.2747334226599
 31
0.0
  0
LINE
  5
3361
330
1F
100
AcDbEntity
  8
圖層1輪廓線
100
AcDbLine
 10
3969.403923975402
 20
165.7747334226601
 30
0.0
 11
3967.403923975402
 21
165.7747334226601
 31
0.0
  0
LINE
  5
3362
330
1F
100
AcDbEntity
  8
圖層2中心線
 48
0.5
100
AcDbLine
 10
3955.903923975402
 20
-281.1841364391196
 30
0.0
 11
3955.903923975402
 21
287.993889722823
 31
0.0
  0
LINE
  5
3363
330
1F
100
AcDbEntity
  8
圖層2中心線
 48
0.5
100
AcDbLine
 10
3429.321295473386
 20
-538.2702191777548
 30
0.0
 11
3429.321295473386
 21
288.3238081883619
 31
0.0
  0
LINE
  5
3364
330
1F
100
AcDbEntity
  8
圖層1輪廓線
100
AcDbLine
 10
3955.903923975402
 20
207.7747334226599
 30
0.0
 11
3955.903923975402
 21
183.7747334226603
 31
0.0
  0
LINE
  5
3365
330
1F
100
AcDbEntity
  8
圖層1輪廓線
100
AcDbLine
 10
3955.903923975404
 20
218.7747334226601
 30
0.0
 11
3955.903923975404
 21
212.7747334226601
 31
0.0
  0
LINE
  5
3366
330
1F
100
AcDbEntity
  8
圖層1輪廓線
100
AcDbLine
 10
3987.438923975402
 20
-104.2252665773401
 30
0.0
 11
3987.438923975402
 21
47.77473342265989
 31
0.0
  0
LINE
  5
3367
330
1F
100
AcDbEntity
  8
圖層1輪廓線
  6
Continuous
100
AcDbLine
 10
3996.368923975403
 20
-104.2252665773401
 30
0.0
 11
3996.368923975403
 21
47.77473342265989
 31
0.0
  0
LINE
  5
3368
330
1F
100
AcDbEntity
  8
圖層1輪廓線
  6
Continuous
100
AcDbLine
 10
3915.438923975402
 20
-104.2252665773401
 30
0.0
 11
3915.438923975402
 21
47.77473342265989
 31
0.0
  0
LINE
  5
3369
330
1F
100
AcDbEntity
  8
圖層1輪廓線
100
AcDbLine
 10
3924.368923975402
 20
-104.2252665773401
 30
0.0
 11
3924.368923975402
 21
47.77473342265989
 31
0.0
  0
LINE
  5
336A
330
1F
100
AcDbEntity
  8
圖層1輪廓線
100
AcDbLine
 10
3908.403923975402
 20
-104.2252665773401
 30
0.0
 11
3908.653923975402
 21
-142.2252665773401
 31
0.0
  0
LINE
  5
336B
330
1F
100
AcDbEntity
  8
圖層1輪廓線
100
AcDbLine
 10
3920.903923975402
 20
-104.2252665773401
 30
0.0
 11
3921.108044470271
 21
-135.2515817973251
 31
0.0
  0
LINE
  5
336C
330
1F
100
AcDbEntity
  8
圖層1輪廓線
100
AcDbLine
 10
3990.903923975402
 20
-104.2252665773401
 30
0.0
 11
3990.699803480535
 21
-135.2515817973251
 31
0.0
  0
LINE
  5
336D
330
1F
100
AcDbEntity
  8
圖層1輪廓線
100
AcDbLine
 10
4003.403923975402
 20
-104.2252665773401
 30
0.0
 11
4003.153923975402
 21
-142.2252665773401
 31
0.0
  0
LINE
  5
336E
330
1F
100
AcDbEntity
  8
圖層1輪廓線
100
AcDbLine
 10
3925.107957907984
 20
-139.2252665773401
 30
0.0
 11
3986.699890042821
 21
-139.2252665773401
 31
0.0
  0
LINE
  5
336F
330
1F
100
AcDbEntity
  8
圖層1輪廓線
100
AcDbLine
 10
3908.653923975402
 20
-142.2252665773401
 30
0.0
 11
4003.153923975402
 21
-142.2252665773401
 31
0.0
  0
ARC
  5
3370
330
1F
100
AcDbEntity
  8
圖層1輪廓線
100
AcDbCircle
 10
3925.107957907984
 20
-135.22526657734
 30
0.0
 40
4.0
100
AcDbArc
 50
180.376940479598
 51
270.0
  0
ARC
  5
3371
330
1F
100
AcDbEntity
  8
圖層1輪廓線
100
AcDbCircle
 10
3986.699890042821
 20
-135.22526657734
 30
0.0
 40
4.0
100
AcDbArc
 50
270.0
 51
359.623059520402
  0
LINE
  5
3372
330
1F
100
AcDbEntity
  8
圖層1輪廓線
100
AcDbLine
 10
3908.403923975402
 20
-104.2252665773401
 30
0.0
 11
4003.403923975402
 21
-104.2252665773401
 31
0.0
  0
LINE
  5
3373
330
1F
100
AcDbEntity
  8
圖層1輪廓線
100
AcDbLine
 10
3933.403923975402
 20
99.77473342265989
 30
0.0
 11
3933.403923975402
 21
85.77473342265989
 31
0.0
  0
LINE
  5
3374
330
1F
100
AcDbEntity
  8
圖層1輪廓線
100
AcDbLine
 10
3978.403923975402
 20
99.77473342265989
 30
0.0
 11
3978.403923975402
 21
85.77473342265989
 31
0.0
  0
LINE
  5
3375
330
1F
100
AcDbEntity
  8
圖層1輪廓線
100
AcDbLine
 10
3908.403923975402
 20
47.77473342265989
 30
0.0
 11
3908.653923975402
 21
85.77473342265989
 31
0.0
  0
LINE
  5
3376
330
1F
100
AcDbEntity
  8
圖層1輪廓線
100
AcDbLine
 10
3920.903923975402
 20
47.77473342265989
 30
0.0
 11
3921.108044470271
 21
78.8010486426449
 31
0.0
  0
LINE
  5
3377
330
1F
100
AcDbEntity
  8
圖層1輪廓線
100
AcDbLine
 10
3990.903923975402
 20
47.77473342265989
 30
0.0
 11
3990.699803480535
 21
78.8010486426449
 31
0.0
  0
LINE
  5
3378
330
1F
100
AcDbEntity
  8
圖層1輪廓線
100
AcDbLine
 10
4003.403923975402
 20
47.77473342265989
 30
0.0
 11
4003.153923975402
 21
85.77473342265989
 31
0.0
  0
LINE
  5
3379
330
1F
100
AcDbEntity
  8
圖層1輪廓線
100
AcDbLine
 10
3908.403923975402
 20
47.77473342265989
 30
0.0
 11
4003.403923975402
 21
47.77473342265989
 31
0.0
  0
LINE
  5
337A
330
1F
100
AcDbEntity
  8
圖層1輪廓線
100
AcDbLine
 10
3925.107957907984
 20
82.7747334226599
 30
0.0
 11
3986.699890042821
 21
82.7747334226599
 31
0.0
  0
LINE
  5
337B
330
1F
100
AcDbEntity
  8
圖層1輪廓線
100
AcDbLine
 10
3908.653923975402
 20
85.77473342265989
 30
0.0
 11
4003.153923975402
 21
85.77473342265989
 31
0.0
  0
ARC
  5
337C
330
1F
100
AcDbEntity
  8
圖層1輪廓線
100
AcDbCircle
 10
3925.107957907984
 20
78.77473342266012
 30
0.0
 40
4.0
100
AcDbArc
 50
90.0
 51
179.623059520402
  0
ARC
  5
337D
330
1F
100
AcDbEntity
  8
圖層1輪廓線
100
AcDbCircle
 10
3986.699890042821
 20
78.77473342266012
 30
0.0
 40
4.0
100
AcDbArc
 50
0.3769404795979903
 51
90.0
  0
LINE
  5
337E
330
1F
100
AcDbEntity
  8
圖層1輪廓線
100
AcDbLine
 10
3934.403923975402
 20
116.7747334226599
 30
0.0
 11
3934.403923975402
 21
100.7747334226599
 31
0.0
  0
LINE
  5
337F
330
1F
100
AcDbEntity
  8
圖層1輪廓線
100
AcDbLine
 10
3977.403923975402
 20
116.7747334226599
 30
0.0
 11
3977.403923975402
 21
100.7747334226599
 31
0.0
  0
LINE
  5
3380
330
1F
100
AcDbEntity
  8
圖層1輪廓線
100
AcDbLine
 10
3934.403923975402
 20
100.7747334226599
 30
0.0
 11
3977.403923975402
 21
100.7747334226599
 31
0.0
  0
LINE
  5
3381
330
1F
100
AcDbEntity
  8
圖層1輪廓線
100
AcDbLine
 10
3933.403923975402
 20
99.77473342265989
 30
0.0
 11
3978.403923975402
 21
99.77473342265989
 31
0.0
  0
LINE
  5
3382
330
1F
100
AcDbEntity
  8
圖層1輪廓線
100
AcDbLine
 10
3933.403923975402
 20
99.77473342265989
 30
0.0
 11
3934.403923975402
 21
100.7747334226599
 31
0.0
  0
LINE
  5
3383
330
1F
100
AcDbEntity
  8
圖層1輪廓線
100
AcDbLine
 10
3977.403923975402
 20
100.7747334226599
 30
0.0
 11
3978.403923975402
 21
99.77473342265989
 31
0.0
  0
LINE
  5
3384
330
1F
100
AcDbEntity
  8
圖層1輪廓線
100
AcDbLine
 10
3935.403923975402
 20
117.7747334226599
 30
0.0
 11
3976.403923975402
 21
117.7747334226599
 31
0.0
  0
LINE
  5
3385
330
1F
100
AcDbEntity
  8
圖層1輪廓線
100
AcDbLine
 10
3966.403923975402
 20
117.7747334226599
 30
0.0
 11
3945.403923975402
 21
117.7747334226599
 31
0.0
  0
ARC
  5
3386
330
1F
100
AcDbEntity
  8
圖層1輪廓線
100
AcDbCircle
 10
3935.403923975402
 20
116.7747334226601
 30
0.0
 40
1.0
100
AcDbArc
 50
90.0
 51
180.0
  0
ARC
  5
3387
330
1F
100
AcDbEntity
  8
圖層1輪廓線
100
AcDbCircle
 10
3976.403923975402
 20
116.7747334226601
 30
0.0
 40
1.0
100
AcDbArc
 50
0.0
 51
90.0
  0
LINE
  5
3388
330
1F
100
AcDbEntity
  8
圖層4尺寸線
100
AcDbLine
 10
3592.321295473386
 20
-509.3495904710932
 30
0.0
 11
3607.321295473386
 21
-509.3495904710932
 31
0.0
  0
LINE
  5
3389
330
1F
100
AcDbEntity
  8
圖層4尺寸線
100
AcDbLine
 10
3535.321295473386
 20
-524.3495904710933
 30
0.0
 11
3607.321295473386
 21
-524.3495904710933
 31
0.0
  0
LINE
  5
338A
330
1F
100
AcDbEntity
  8
圖層4尺寸線
100
AcDbLine
 10
3607.321295473386
 20
-460.3495904710932
 30
0.0
 11
3535.321295473386
 21
-460.3495904710932
 31
0.0
  0
LINE
  5
338B
330
1F
100
AcDbEntity
  8
圖層4尺寸線
100
AcDbLine
 10
3529.321295473386
 20
-526.3495904710932
 30
0.0
 11
3607.321295473386
 21
-526.3495904710932
 31
0.0
  0
LINE
  5
338C
330
1F
100
AcDbEntity
  8
圖層4尺寸線
100
AcDbLine
 10
3607.321295473386
 20
-524.3495904710933
 30
0.0
 11
3533.321295473387
 21
-524.3495904710933
 31
0.0
  0
LINE
  5
338D
330
1F
100
AcDbEntity
  8
圖層4尺寸線
100
AcDbLine
 10
3592.321295473386
 20
-509.3495904710932
 30
0.0
 11
3592.321295473386
 21
-494.3495904710933
 31
0.0
  0
LINE
  5
338E
330
1F
100
AcDbEntity
  8
圖層4尺寸線
100
AcDbLine
 10
3550.321295473386
 20
-494.3495904710933
 30
0.0
 11
3550.321295473386
 21
-509.3495904710932
 31
0.0
  0
LINE
  5
338F
330
1F
100
AcDbEntity
  8
圖層4尺寸線
100
AcDbLine
 10
3535.321295473386
 20
-460.3495904710932
 30
0.0
 11
3535.321295473386
 21
-524.3495904710933
 31
0.0
  0
LINE
  5
3390
330
1F
100
AcDbEntity
  8
圖層4尺寸線
100
AcDbLine
 10
3529.321295473386
 20
-454.3495904710932
 30
0.0
 11
3529.321295473386
 21
-526.3495904710932
 31
0.0
  0
LINE
  5
3391
330
1F
100
AcDbEntity
  8
圖層4尺寸線
100
AcDbLine
 10
3531.321295473386
 20
-522.3495904710932
 30
0.0
 11
3531.321295473386
 21
-454.3495904710932
 31
0.0
  0
ARC
  5
3392
330
1F
100
AcDbEntity
  8
圖層4尺寸線
100
AcDbCircle
 10
3531.321295473386
 20
-524.3495904710933
 30
0.0
 40
2.0
100
AcDbArc
 50
180.0
 51
270.0
  0
CIRCLE
  5
3393
330
1F
100
AcDbEntity
  8
圖層4尺寸線
100
AcDbCircle
 10
3571.321295473386
 20
-509.3495904710932
 30
0.0
 40
12.0
  0
CIRCLE
  5
3394
330
1F
100
AcDbEntity
  8
圖層4尺寸線
100
AcDbCircle
 10
3571.321295473386
 20
-509.3495904710932
 30
0.0
 40
9.0
  0
ARC
  5
3395
330
1F
100
AcDbEntity
  8
圖層4尺寸線
100
AcDbCircle
 10
3533.321295473387
 20
-522.3495904710932
 30
0.0
 40
2.0
100
AcDbArc
 50
180.0
 51
270.0
  0
LINE
  5
3396
330
1F
100
AcDbEntity
  8
圖層4尺寸線
100
AcDbLine
 10
3535.321295473386
 20
-509.3495904710932
 30
0.0
 11
3550.321295473386
 21
-509.3495904710932
 31
0.0
  0
LINE
  5
3397
330
1F
100
AcDbEntity
  8
圖層4尺寸線
100
AcDbLine
 10
3531.321295473386
 20
-454.3495904710932
 30
0.0
 11
3529.321295473386
 21
-454.3495904710932
 31
0.0
  0
LINE
  5
3398
330
1F
100
AcDbEntity
  8
圖層4尺寸線
100
AcDbLine
 10
3585.321295473387
 20
-445.3495904710933
 30
0.0
 11
3585.321295473387
 21
-460.3495904710934
 31
0.0
  0
LINE
  5
3399
330
1F
100
AcDbEntity
  8
圖層4尺寸線
100
AcDbLine
 10
3557.321295473386
 20
-445.3495904710932
 30
0.0
 11
3557.321295473386
 21
-460.3495904710931
 31
0.0
  0
LINE
  5
339A
330
1F
100
AcDbEntity
  8
圖層4尺寸線
100
AcDbLine
 10
3550.321295473386
 20
-494.3495904710933
 30
0.0
 11
3592.321295473386
 21
-494.3495904710933
 31
0.0
  0
HATCH
  5
339B
330
1F
100
AcDbEntity
  8
圖層4尺寸線
100
AcDbHatch
 10
0.0
 20
0.0
 30
0.0
210
0.0
220
0.0
230
1.0
  2
LINE
 70
     0
 71
     0
 91
        1
 92
        7
 72
     0
 73
     1
 93
        4
 10
3585.321295473387
 20
-450.8495904710932
 10
3557.321295473386
 20
-450.8495904710931
 10
3557.321295473386
 20
-457.9796797507742
 10
3585.321295473387
 20
-457.9796797507744
 97
        0
 75
     0
 76
     1
 52
90.0
 41
1.0
 77
     0
 78
     1
 53
90.0
 43
2445.157257625093
 44
-1049.290691901351
 45
-3.174999999999999
 46
0.0000000000000002
 79
     0
 47
0.1347766415641304
 98
        1
 10
3571.013271800301
 20
-454.0464264266163
  0
LINE
  5
339C
330
1F
100
AcDbEntity
  8
圖層4尺寸線
100
AcDbLine
 10
3557.321295473386
 20
-450.8495904710931
 30
0.0
 11
3585.321295473387
 21
-450.8495904710933
 31
0.0
  0
LINE
  5
339D
330
1F
100
AcDbEntity
  8
圖層4尺寸線
100
AcDbLine
 10
3557.321295473386
 20
-457.9796797507742
 30
0.0
 11
3585.321295473387
 21
-457.9796797507745
 31
0.0
  0
LINE
  5
339E
330
1F
100
AcDbEntity
  8
圖層4尺寸線
100
AcDbLine
 10
3585.321295473387
 20
-445.3495904710933
 30
0.0
 11
3557.321295473386
 21
-445.3495904710933
 31
0.0
  0
ARC
  5
339F
330
1F
100
AcDbEntity
  8
圖層4尺寸線
100
AcDbCircle
 10
3571.321295473386
 20
-482.3495904710933
 30
0.0
 40
52.00000000000005
100
AcDbArc
 50
67.38013505196784
 51
112.6198649480321
  0
LINE
  5
33A0
330
1F
100
AcDbEntity
  8
圖層4尺寸線
100
AcDbLine
 10
3591.321295473387
 20
-434.3495904710932
 30
0.0
 11
3551.321295473387
 21
-434.3495904710932
 31
0.0
  0
LINE
  5
33A1
330
1F
100
AcDbEntity
  8
圖層4尺寸線
100
AcDbLine
 10
3591.321295473387
 20
-436.3495904710933
 30
0.0
 11
3551.321295473387
 21
-436.3495904710933
 31
0.0
  0
LINE
  5
33A2
330
1F
100
AcDbEntity
  8
圖層4尺寸線
100
AcDbLine
 10
3560.321295473386
 20
-436.3495904710933
 30
0.0
 11
3560.321295473386
 21
-445.3495904710933
 31
0.0
  0
LINE
  5
33A3
330
1F
100
AcDbEntity
  8
圖層4尺寸線
100
AcDbLine
 10
3560.321295473386
 20
-445.3495904710933
 30
0.0
 11
3557.321295473386
 21
-445.3495904710933
 31
0.0
  0
LINE
  5
33A4
330
1F
100
AcDbEntity
  8
圖層4尺寸線
100
AcDbLine
 10
3551.321295473387
 20
-436.3495904710933
 30
0.0
 11
3560.321295473386
 21
-436.3495904710933
 31
0.0
  0
LINE
  5
33A5
330
1F
100
AcDbEntity
  8
圖層4尺寸線
100
AcDbLine
 10
3551.321295473387
 20
-434.3495904710932
 30
0.0
 11
3551.321295473387
 21
-436.3495904710933
 31
0.0
  0
LINE
  5
33A6
330
1F
100
AcDbEntity
  8
圖層4尺寸線
100
AcDbLine
 10
3591.321295473387
 20
-434.3495904710932
 30
0.0
 11
3591.321295473387
 21
-436.3495904710933
 31
0.0
  0
LINE
  5
33A7
330
1F
100
AcDbEntity
  8
圖層4尺寸線
100
AcDbLine
 10
3582.321295473386
 20
-436.3495904710933
 30
0.0
 11
3582.321295473386
 21
-445.3495904710933
 31
0.0
  0
LINE
  5
33A8
330
1F
100
AcDbEntity
  8
圖層4尺寸線
100
AcDbLine
 10
3585.321295473387
 20
-445.3495904710933
 30
0.0
 11
3582.321295473386
 21
-445.3495904710933
 31
0.0
  0
LINE
  5
33A9
330
1F
100
AcDbEntity
  8
圖層4尺寸線
100
AcDbLine
 10
3591.321295473387
 20
-436.3495904710933
 30
0.0
 11
3582.321295473386
 21
-436.3495904710933
 31
0.0
  0
LINE
  5
33AA
330
1F
100
AcDbEntity
  8
圖層4尺寸線
100
AcDbLine
 10
3607.321295473386
 20
-524.3495904710933
 30
0.0
 11
3607.321295473386
 21
-460.3495904710932
 31
0.0
  0
LINE
  5
33AB
330
1F
100
AcDbEntity
  8
圖層4尺寸線
100
AcDbLine
 10
3607.321295473386
 20
-526.3495904710932
 30
0.0
 11
3607.321295473386
 21
-524.3495904710933
 31
0.0
  0
LINE
  5
33AC
330
1F
100
AcDbEntity
  8
圖層4尺寸線
100
AcDbLine
 10
3251.321295473387
 20
-524.3495904710933
 30
0.0
 11
3251.321295473387
 21
-460.3495904710932
 31
0.0
  0
LINE
  5
33AD
330
1F
100
AcDbEntity
  8
圖層4尺寸線
100
AcDbLine
 10
3327.321295473387
 20
-522.3495904710932
 30
0.0
 11
3327.321295473387
 21
-454.3495904710932
 31
0.0
  0
LINE
  5
33AE
330
1F
100
AcDbEntity
  8
圖層4尺寸線
100
AcDbLine
 10
3329.321295473386
 20
-454.3495904710932
 30
0.0
 11
3329.321295473386
 21
-526.3495904710932
 31
0.0
  0
LINE
  5
33AF
330
1F
100
AcDbEntity
  8
圖層4尺寸線
100
AcDbLine
 10
3323.321295473387
 20
-460.3495904710932
 30
0.0
 11
3323.321295473387
 21
-524.3495904710933
 31
0.0
  0
LINE
  5
33B0
330
1F
100
AcDbEntity
  8
圖層4尺寸線
100
AcDbLine
 10
3308.321295473387
 20
-494.3495904710933
 30
0.0
 11
3308.321295473387
 21
-509.3495904710932
 31
0.0
  0
LINE
  5
33B1
330
1F
100
AcDbEntity
  8
圖層4尺寸線
100
AcDbLine
 10
3266.321295473387
 20
-509.3495904710932
 30
0.0
 11
3266.321295473387
 21
-494.3495904710933
 31
0.0
  0
LINE
  5
33B2
330
1F
100
AcDbEntity
  8
圖層4尺寸線
100
AcDbLine
 10
3323.321295473387
 20
-509.3495904710932
 30
0.0
 11
3308.321295473387
 21
-509.3495904710932
 31
0.0
  0
LINE
  5
33B3
330
1F
100
AcDbEntity
  8
圖層4尺寸線
100
AcDbLine
 10
3251.321295473387
 20
-524.3495904710933
 30
0.0
 11
3325.321295473386
 21
-524.3495904710933
 31
0.0
  0
LINE
  5
33B4
330
1F
100
AcDbEntity
  8
圖層4尺寸線
100
AcDbLine
 10
3329.321295473386
 20
-526.3495904710932
 30
0.0
 11
3251.321295473387
 21
-526.3495904710932
 31
0.0
  0
LINE
  5
33B5
330
1F
100
AcDbEntity
  8
圖層4尺寸線
100
AcDbLine
 10
3323.321295473387
 20
-524.3495904710933
 30
0.0
 11
3251.321295473387
 21
-524.3495904710933
 31
0.0
  0
ARC
  5
33B6
330
1F
100
AcDbEntity
  8
圖層4尺寸線
100
AcDbCircle
 10
3327.321295473387
 20
-524.3495904710933
 30
0.0
 40
2.0
100
AcDbArc
 50
270.0
 51
0.0
  0
ARC
  5
33B7
330
1F
100
AcDbEntity
  8
圖層4尺寸線
100
AcDbCircle
 10
3325.321295473386
 20
-522.3495904710932
 30
0.0
 40
2.0
100
AcDbArc
 50
270.0
 51
0.0
  0
CIRCLE
  5
33B8
330
1F
100
AcDbEntity
  8
圖層4尺寸線
100
AcDbCircle
 10
3287.321295473387
 20
-509.3495904710932
 30
0.0
 40
12.0
  0
CIRCLE
  5
33B9
330
1F
100
AcDbEntity
  8
圖層4尺寸線
100
AcDbCircle
 10
3287.321295473387
 20
-509.3495904710932
 30
0.0
 40
9.0
  0
LINE
  5
33BA
330
1F
100
AcDbEntity
  8
圖層4尺寸線
100
AcDbLine
 10
3251.321295473387
 20
-526.3495904710932
 30
0.0
 11
3251.321295473387
 21
-524.3495904710933
 31
0.0
  0
LINE
  5
33BB
330
1F
100
AcDbEntity
  8
圖層4尺寸線
100
AcDbLine
 10
3266.321295473387
 20
-509.3495904710932
 30
0.0
 11
3251.321295473387
 21
-509.3495904710932
 31
0.0
  0
LINE
  5
33BC
330
1F
100
AcDbEntity
  8
圖層4尺寸線
100
AcDbLine
 10
3251.321295473387
 20
-460.3495904710932
 30
0.0
 11
3323.321295473387
 21
-460.3495904710932
 31
0.0
  0
LINE
  5
33BD
330
1F
100
AcDbEntity
  8
圖層4尺寸線
100
AcDbLine
 10
3327.321295473387
 20
-454.3495904710932
 30
0.0
 11
3329.321295473386
 21
-454.3495904710932
 31
0.0
  0
LINE
  5
33BE
330
1F
100
AcDbEntity
  8
圖層4尺寸線
100
AcDbLine
 10
3308.321295473387
 20
-494.3495904710933
 30
0.0
 11
3266.321295473387
 21
-494.3495904710933
 31
0.0
  0
LINE
  5
33BF
330
1F
100
AcDbEntity
  8
圖層4尺寸線
100
AcDbLine
 10
3267.321295473387
 20
-436.3495904710933
 30
0.0
 11
3276.321295473387
 21
-436.3495904710933
 31
0.0
  0
LINE
  5
33C0
330
1F
100
AcDbEntity
  8
圖層4尺寸線
100
AcDbLine
 10
3273.321295473387
 20
-445.3495904710933
 30
0.0
 11
3276.321295473387
 21
-445.3495904710933
 31
0.0
  0
LINE
  5
33C1
330
1F
100
AcDbEntity
  8
圖層4尺寸線
100
AcDbLine
 10
3267.321295473387
 20
-436.3495904710933
 30
0.0
 11
3307.321295473386
 21
-436.3495904710933
 31
0.0
  0
LINE
  5
33C2
330
1F
100
AcDbEntity
  8
圖層4尺寸線
100
AcDbLine
 10
3267.321295473387
 20
-434.3495904710932
 30
0.0
 11
3307.321295473386
 21
-434.3495904710932
 31
0.0
  0
ARC
  5
33C3
330
1F
100
AcDbEntity
  8
圖層4尺寸線
100
AcDbCircle
 10
3287.321295473387
 20
-482.3495904710933
 30
0.0
 40
52.00000000000005
100
AcDbArc
 50
67.38013505196784
 51
112.6198649480321
  0
LINE
  5
33C4
330
1F
100
AcDbEntity
  8
圖層4尺寸線
100
AcDbLine
 10
3273.321295473387
 20
-445.3495904710933
 30
0.0
 11
3301.321295473387
 21
-445.3495904710933
 31
0.0
  0
LINE
  5
33C5
330
1F
100
AcDbEntity
  8
圖層4尺寸線
100
AcDbLine
 10
3301.321295473387
 20
-457.9796797507742
 30
0.0
 11
3273.321295473387
 21
-457.9796797507745
 31
0.0
  0
LINE
  5
33C6
330
1F
100
AcDbEntity
  8
圖層4尺寸線
100
AcDbLine
 10
3301.321295473387
 20
-450.8495904710931
 30
0.0
 11
3273.321295473387
 21
-450.8495904710933
 31
0.0
  0
HATCH
  5
33C7
330
1F
100
AcDbEntity
  8
圖層4尺寸線
100
AcDbHatch
 10
0.0
 20
0.0
 30
0.0
210
0.0
220
0.0
230
1.0
  2
LINE
 70
     0
 71
     0
 91
        1
 92
        7
 72
     0
 73
     1
 93
        4
 10
3273.321295473387
 20
-450.8495904710932
 10
3301.321295473387
 20
-450.8495904710931
 10
3301.321295473387
 20
-457.9796797507742
 10
3273.321295473387
 20
-457.9796797507744
 97
        0
 75
     0
 76
     1
 52
90.0
 41
1.0
 77
     0
 78
     1
 53
90.0
 43
4413.48533332168
 44
-1049.290691901351
 45
3.174999999999999
 46
0.0000000000000002
 79
     0
 47
0.1347766415641304
 98
        1
 10
3287.62931914647
 20
-454.0464264266163
  0
LINE
  5
33C8
330
1F
100
AcDbEntity
  8
圖層4尺寸線
100
AcDbLine
 10
3276.321295473387
 20
-436.3495904710933
 30
0.0
 11
3276.321295473387
 21
-445.3495904710933
 31
0.0
  0
LINE
  5
33C9
330
1F
100
AcDbEntity
  8
圖層4尺寸線
100
AcDbLine
 10
3298.321295473387
 20
-436.3495904710933
 30
0.0
 11
3298.321295473387
 21
-445.3495904710933
 31
0.0
  0
LINE
  5
33CA
330
1F
100
AcDbEntity
  8
圖層4尺寸線
100
AcDbLine
 10
3298.321295473387
 20
-445.3495904710933
 30
0.0
 11
3301.321295473387
 21
-445.3495904710933
 31
0.0
  0
LINE
  5
33CB
330
1F
100
AcDbEntity
  8
圖層4尺寸線
100
AcDbLine
 10
3301.321295473387
 20
-445.3495904710932
 30
0.0
 11
3301.321295473387
 21
-460.3495904710931
 31
0.0
  0
LINE
  5
33CC
330
1F
100
AcDbEntity
  8
圖層4尺寸線
100
AcDbLine
 10
3307.321295473386
 20
-434.3495904710932
 30
0.0
 11
3307.321295473386
 21
-436.3495904710933
 31
0.0
  0
LINE
  5
33CD
330
1F
100
AcDbEntity
  8
圖層4尺寸線
100
AcDbLine
 10
3307.321295473386
 20
-436.3495904710933
 30
0.0
 11
3298.321295473387
 21
-436.3495904710933
 31
0.0
  0
LINE
  5
33CE
330
1F
100
AcDbEntity
  8
圖層4尺寸線
100
AcDbLine
 10
3273.321295473387
 20
-445.3495904710933
 30
0.0
 11
3273.321295473387
 21
-460.3495904710934
 31
0.0
  0
LINE
  5
33CF
330
1F
100
AcDbEntity
  8
圖層4尺寸線
100
AcDbLine
 10
3267.321295473387
 20
-434.3495904710932
 30
0.0
 11
3267.321295473387
 21
-436.3495904710933
 31
0.0
  0
LINE
  5
33D0
330
1F
100
AcDbEntity
  8
圖層1輪廓線
  6
Continuous
100
AcDbLine
 10
3388.856295473387
 20
-104.22526657734
 30
0.0
 11
3388.856295473387
 21
47.77473342266012
 31
0.0
  0
LINE
  5
33D1
330
1F
100
AcDbEntity
  8
圖層1輪廓線
  6
Continuous
100
AcDbLine
 10
3469.786295473387
 20
-104.22526657734
 30
0.0
 11
3469.786295473387
 21
47.77473342266012
 31
0.0
  0
LINE
  5
33D2
330
1F
100
AcDbEntity
  8
圖層1輪廓線
100
AcDbLine
 10
3397.786295473387
 20
-104.22526657734
 30
0.0
 11
3397.786295473387
 21
47.77473342266012
 31
0.0
  0
LINE
  5
33D3
330
1F
100
AcDbEntity
  8
圖層1輪廓線
100
AcDbLine
 10
3460.856295473386
 20
-104.22526657734
 30
0.0
 11
3460.856295473386
 21
47.77473342266012
 31
0.0
  0
LINE
  5
33D4
330
1F
100
AcDbEntity
  8
圖層1輪廓線
100
AcDbLine
 10
3381.821295473387
 20
-104.22526657734
 30
0.0
 11
3382.071295473386
 21
-142.22526657734
 31
0.0
  0
LINE
  5
33D5
330
1F
100
AcDbEntity
  8
圖層1輪廓線
100
AcDbLine
 10
3476.821295473386
 20
-104.22526657734
 30
0.0
 11
3476.571295473386
 21
-142.22526657734
 31
0.0
  0
LINE
  5
33D6
330
1F
100
AcDbEntity
  8
圖層1輪廓線
100
AcDbLine
 10
3464.321295473386
 20
-104.22526657734
 30
0.0
 11
3464.117174978517
 21
-135.251581797325
 31
0.0
  0
LINE
  5
33D7
330
1F
100
AcDbEntity
  8
圖層1輪廓線
100
AcDbLine
 10
3394.321295473387
 20
-104.22526657734
 30
0.0
 11
3394.525415968256
 21
-135.251581797325
 31
0.0
  0
LINE
  5
33D8
330
1F
100
AcDbEntity
  8
圖層1輪廓線
100
AcDbLine
 10
3382.071295473386
 20
-142.22526657734
 30
0.0
 11
3476.571295473386
 21
-142.22526657734
 31
0.0
  0
LINE
  5
33D9
330
1F
100
AcDbEntity
  8
圖層1輪廓線
100
AcDbLine
 10
3398.525329405968
 20
-139.22526657734
 30
0.0
 11
3460.117261540805
 21
-139.22526657734
 31
0.0
  0
ARC
  5
33DA
330
1F
100
AcDbEntity
  8
圖層1輪廓線
100
AcDbCircle
 10
3398.525329405968
 20
-135.2252665773399
 30
0.0
 40
4.0
100
AcDbArc
 50
180.376940479598
 51
270.0
  0
ARC
  5
33DB
330
1F
100
AcDbEntity
  8
圖層1輪廓線
100
AcDbCircle
 10
3460.117261540805
 20
-135.2252665773399
 30
0.0
 40
4.0
100
AcDbArc
 50
270.0
 51
359.623059520402
  0
LINE
  5
33DC
330
1F
100
AcDbEntity
  8
圖層1輪廓線
100
AcDbLine
 10
3381.821295473387
 20
-104.22526657734
 30
0.0
 11
3476.821295473386
 21
-104.22526657734
 31
0.0
  0
LINE
  5
33DD
330
1F
100
AcDbEntity
  8
圖層1輪廓線
100
AcDbLine
 10
3451.821295473386
 20
99.77473342266012
 30
0.0
 11
3451.821295473386
 21
85.77473342266012
 31
0.0
  0
LINE
  5
33DE
330
1F
100
AcDbEntity
  8
圖層1輪廓線
100
AcDbLine
 10
3406.821295473387
 20
99.77473342266012
 30
0.0
 11
3406.821295473387
 21
85.77473342266012
 31
0.0
  0
LINE
  5
33DF
330
1F
100
AcDbEntity
  8
圖層1輪廓線
100
AcDbLine
 10
3381.821295473387
 20
47.77473342266012
 30
0.0
 11
3476.821295473386
 21
47.77473342266012
 31
0.0
  0
LINE
  5
33E0
330
1F
100
AcDbEntity
  8
圖層1輪廓線
100
AcDbLine
 10
3382.071295473386
 20
85.77473342266012
 30
0.0
 11
3476.571295473386
 21
85.77473342266012
 31
0.0
  0
LINE
  5
33E1
330
1F
100
AcDbEntity
  8
圖層1輪廓線
100
AcDbLine
 10
3398.525329405968
 20
82.77473342266011
 30
0.0
 11
3460.117261540805
 21
82.77473342266011
 31
0.0
  0
LINE
  5
33E2
330
1F
100
AcDbEntity
  8
圖層1輪廓線
100
AcDbLine
 10
3381.821295473387
 20
47.77473342266012
 30
0.0
 11
3382.071295473386
 21
85.77473342266012
 31
0.0
  0
LINE
  5
33E3
330
1F
100
AcDbEntity
  8
圖層1輪廓線
100
AcDbLine
 10
3394.321295473387
 20
47.77473342266012
 30
0.0
 11
3394.525415968256
 21
78.80104864264513
 31
0.0
  0
ARC
  5
33E4
330
1F
100
AcDbEntity
  8
圖層1輪廓線
100
AcDbCircle
 10
3398.525329405968
 20
78.77473342266012
 30
0.0
 40
4.0
100
AcDbArc
 50
90.0
 51
179.623059520402
  0
LINE
  5
33E5
330
1F
100
AcDbEntity
  8
圖層1輪廓線
100
AcDbLine
 10
3476.821295473386
 20
47.77473342266012
 30
0.0
 11
3476.571295473386
 21
85.77473342266012
 31
0.0
  0
LINE
  5
33E6
330
1F
100
AcDbEntity
  8
圖層1輪廓線
100
AcDbLine
 10
3464.321295473386
 20
47.77473342266012
 30
0.0
 11
3464.117174978517
 21
78.80104864264513
 31
0.0
  0
ARC
  5
33E7
330
1F
100
AcDbEntity
  8
圖層1輪廓線
100
AcDbCircle
 10
3460.117261540805
 20
78.77473342266012
 30
0.0
 40
4.0
100
AcDbArc
 50
0.3769404795979903
 51
90.0
  0
LINE
  5
33E8
330
1F
100
AcDbEntity
  8
圖層1輪廓線
100
AcDbLine
 10
3439.821295473386
 20
117.7747334226601
 30
0.0
 11
3418.821295473386
 21
117.7747334226601
 31
0.0
  0
LINE
  5
33E9
330
1F
100
AcDbEntity
  8
圖層1輪廓線
100
AcDbLine
 10
3408.821295473386
 20
117.7747334226601
 30
0.0
 11
3449.821295473387
 21
117.7747334226601
 31
0.0
  0
LINE
  5
33EA
330
1F
100
AcDbEntity
  8
圖層1輪廓線
100
AcDbLine
 10
3406.821295473387
 20
99.77473342266012
 30
0.0
 11
3451.821295473386
 21
99.77473342266012
 31
0.0
  0
LINE
  5
33EB
330
1F
100
AcDbEntity
  8
圖層1輪廓線
100
AcDbLine
 10
3407.821295473386
 20
100.7747334226601
 30
0.0
 11
3450.821295473387
 21
100.7747334226601
 31
0.0
  0
LINE
  5
33EC
330
1F
100
AcDbEntity
  8
圖層1輪廓線
100
AcDbLine
 10
3407.821295473386
 20
116.7747334226601
 30
0.0
 11
3407.821295473386
 21
100.7747334226601
 31
0.0
  0
LINE
  5
33ED
330
1F
100
AcDbEntity
  8
圖層1輪廓線
100
AcDbLine
 10
3406.821295473387
 20
99.77473342266012
 30
0.0
 11
3407.821295473386
 21
100.7747334226601
 31
0.0
  0
ARC
  5
33EE
330
1F
100
AcDbEntity
  8
圖層1輪廓線
100
AcDbCircle
 10
3408.821295473386
 20
116.7747334226601
 30
0.0
 40
1.0
100
AcDbArc
 50
90.0
 51
180.0
  0
LINE
  5
33EF
330
1F
100
AcDbEntity
  8
圖層1輪廓線
100
AcDbLine
 10
3450.821295473387
 20
116.7747334226601
 30
0.0
 11
3450.821295473387
 21
100.7747334226601
 31
0.0
  0
LINE
  5
33F0
330
1F
100
AcDbEntity
  8
圖層1輪廓線
100
AcDbLine
 10
3450.821295473387
 20
100.7747334226601
 30
0.0
 11
3451.821295473386
 21
99.77473342266012
 31
0.0
  0
ARC
  5
33F1
330
1F
100
AcDbEntity
  8
圖層1輪廓線
100
AcDbCircle
 10
3449.821295473387
 20
116.7747334226601
 30
0.0
 40
1.0
100
AcDbArc
 50
0.0
 51
90.0
  0
LINE
  5
33F2
330
1F
100
AcDbEntity
  8
圖層1輪廓線
100
AcDbLine
 10
3457.321295473386
 20
272.7747334226601
 30
0.0
 11
3457.321295473386
 21
85.77473342266012
 31
0.0
  0
LINE
  5
33F3
330
1F
100
AcDbEntity
  8
圖層1輪廓線
100
AcDbLine
 10
3401.321295473387
 20
85.77473342266012
 30
0.0
 11
3401.321295473387
 21
272.7747334226601
 31
0.0
  0
LINE
  5
33F4
330
1F
100
AcDbEntity
  8
圖層1輪廓線
100
AcDbLine
 10
3459.321295473387
 20
272.7747334226601
 30
0.0
 11
3459.321295473387
 21
85.77473342266012
 31
0.0
  0
LINE
  5
33F5
330
1F
100
AcDbEntity
  8
圖層1輪廓線
100
AcDbLine
 10
3399.321295473387
 20
85.77473342266012
 30
0.0
 11
3399.321295473387
 21
272.7747334226601
 31
0.0
  0
LINE
  5
33F6
330
1F
100
AcDbEntity
  8
圖層1輪廓線
100
AcDbLine
 10
3444.321295473387
 20
216.2747334226601
 30
0.0
 11
3444.321295473387
 21
121.7747334226601
 31
0.0
  0
LINE
  5
33F7
330
1F
100
AcDbEntity
  8
圖層1輪廓線
100
AcDbLine
 10
3414.321295473386
 20
216.2747334226601
 30
0.0
 11
3414.321295473386
 21
121.7747334226601
 31
0.0
  0
LINE
  5
33F8
330
1F
100
AcDbEntity
  8
圖層1輪廓線
100
AcDbLine
 10
3405.321295473387
 20
117.7747334226601
 30
0.0
 11
3453.321295473386
 21
117.7747334226599
 31
0.0
  0
LINE
  5
33F9
330
1F
100
AcDbEntity
  8
圖層1輪廓線
100
AcDbLine
 10
3405.321295473387
 20
121.7747334226601
 30
0.0
 11
3453.321295473386
 21
121.7747334226601
 31
0.0
  0
ARC
  5
33FA
330
1F
100
AcDbEntity
  8
圖層1輪廓線
100
AcDbCircle
 10
3405.321295473387
 20
119.7747334226601
 30
0.0
 40
2.0
100
AcDbArc
 50
180.0
 51
270.0
  0
ARC
  5
33FB
330
1F
100
AcDbEntity
  8
圖層1輪廓線
100
AcDbCircle
 10
3405.321295473387
 20
119.7747334226601
 30
0.0
 40
2.0
100
AcDbArc
 50
90.0
 51
180.0
  0
LINE
  5
33FC
330
1F
100
AcDbEntity
  8
圖層1輪廓線
100
AcDbLine
 10
3403.321295473386
 20
119.7747334226601
 30
0.0
 11
3403.321295473386
 21
119.7747334226601
 31
0.0
  0
ARC
  5
33FD
330
1F
100
AcDbEntity
  8
圖層1輪廓線
100
AcDbCircle
 10
3453.321295473386
 20
119.7747334226601
 30
0.0
 40
2.0
100
AcDbArc
 50
0.0
 51
90.0
  0
ARC
  5
33FE
330
1F
100
AcDbEntity
  8
圖層1輪廓線
100
AcDbCircle
 10
3453.321295473386
 20
119.7747334226599
 30
0.0
 40
2.0
100
AcDbArc
 50
270.0
 51
0.0
  0
LINE
  5
33FF
330
1F
100
AcDbEntity
  8
圖層1輪廓線
100
AcDbLine
 10
3455.321295473387
 20
119.7747334226601
 30
0.0
 11
3455.321295473387
 21
119.7747334226599
 31
0.0
  0
ARC
  5
3400
330
1F
100
AcDbEntity
  8
圖層1輪廓線
100
AcDbCircle
 10
3449.23987976043
 20
260.7539000893278
 30
0.0
 40
12.02083333333214
100
AcDbArc
 50
56.47264195072998
 51
123.52735804927
  0
ARC
  5
3401
330
1F
100
AcDbEntity
  8
圖層1輪廓線
100
AcDbCircle
 10
3409.402711186344
 20
260.7539000893264
 30
0.0
 40
12.02083333333346
100
AcDbArc
 50
56.47264195072998
 51
123.52735804927
  0
ARC
  5
3402
330
1F
100
AcDbEntity
  8
圖層1輪廓線
100
AcDbCircle
 10
3429.321295473386
 20
227.6914000893237
 30
0.0
 40
45.08333333333623
100
AcDbArc
 50
72.86976332493989
 51
107.1302366750601
  0
LINE
  5
3403
330
1F
100
AcDbEntity
  8
圖層1輪廓線
100
AcDbLine
 10
3454.819562860409
 20
209.3553807534231
 30
0.0
 11
3410.511226492927
 21
157.656132621637
 31
0.0
  0
LINE
  5
3404
330
1F
100
AcDbEntity
  8
圖層1輪廓線
100
AcDbLine
 10
3451.782382466099
 20
211.9583665875052
 30
0.0
 11
3407.474046098618
 21
160.2591184557191
 31
0.0
  0
ARC
  5
3405
330
1F
100
AcDbEntity
  8
圖層1輪廓線
100
AcDbCircle
 10
3429.321295473385
 20
307.8580667559982
 30
0.0
 40
45.08333333333824
100
AcDbArc
 50
252.8697633249399
 51
287.1302366750601
  0
LINE
  5
3406
330
1F
100
AcDbEntity
  8
圖層1輪廓線
100
AcDbLine
 10
3409.402711186344
 20
262.7747334226597
 30
0.0
 11
3449.239879760428
 21
262.7747334226597
 31
0.0
  0
ARC
  5
3407
330
1F
100
AcDbEntity
  8
圖層1輪廓線
100
AcDbCircle
 10
3429.321295473386
 20
231.8858445337678
 30
0.0
 40
30.88888888889169
100
AcDbArc
 50
64.53894442322542
 51
115.4610555767746
  0
LINE
  5
3408
330
1F
100
AcDbEntity
  8
圖層1輪廓線
100
AcDbLine
 10
3409.402711186345
 20
262.7747334226597
 30
0.0
 11
3449.23987976043
 21
262.7747334226597
 31
0.0
  0
LINE
  5
3409
330
1F
100
AcDbEntity
  8
圖層1輪廓線
100
AcDbLine
 10
3406.321295473386
 20
217.7747334226597
 30
0.0
 11
3452.321295473387
 21
217.7747334226597
 31
0.0
  0
ARC
  5
340A
330
1F
100
AcDbEntity
  8
圖層1輪廓線
100
AcDbCircle
 10
3429.321295473386
 20
263.6636223115516
 30
0.0
 40
30.88888888889164
100
AcDbArc
 50
244.5389444232254
 51
295.4610555767746
  0
LINE
  5
340B
330
1F
100
AcDbEntity
  8
圖層1輪廓線
100
AcDbLine
 10
3409.402711186344
 20
232.7747334226601
 30
0.0
 11
3449.23987976043
 21
232.7747334226597
 31
0.0
  0
LINE
  5
340C
330
1F
100
AcDbEntity
  8
圖層1輪廓線
100
AcDbLine
 10
3416.821295473386
 20
217.7747334226601
 30
0.0
 11
3440.821295473386
 21
217.7747334226601
 31
0.0
  0
LINE
  5
340D
330
1F
100
AcDbEntity
  8
圖層1輪廓線
100
AcDbLine
 10
3414.321295473386
 20
216.2747334226601
 30
0.0
 11
3444.321295473387
 21
216.2747334226599
 31
0.0
  0
LINE
  5
340E
330
1F
100
AcDbEntity
  8
圖層1輪廓線
100
AcDbLine
 10
3415.821295473386
 20
217.7747334226601
 30
0.0
 11
3442.821295473386
 21
217.7747334226601
 31
0.0
  0
LINE
  5
340F
330
1F
100
AcDbEntity
  8
圖層1輪廓線
100
AcDbLine
 10
3402.763183090663
 20
259.7747334226597
 30
0.0
 11
3402.763183090663
 21
235.7747334226597
 31
0.0
  0
LINE
  5
3410
330
1F
100
AcDbEntity
  8
圖層1輪廓線
100
AcDbLine
 10
3416.042239282026
 20
259.7747334226597
 30
0.0
 11
3416.042239282026
 21
235.7747334226597
 31
0.0
  0
LINE
  5
3411
330
1F
100
AcDbEntity
  8
圖層1輪廓線
100
AcDbLine
 10
3406.321295473386
 20
233.328692218865
 30
0.0
 11
3406.321295473386
 21
217.7747334226597
 31
0.0
  0
LINE
  5
3412
330
1F
100
AcDbEntity
  8
圖層1輪廓線
100
AcDbLine
 10
3415.821295473386
 20
217.7747334226601
 30
0.0
 11
3417.821295473387
 21
217.7747334226601
 31
0.0
  0
LINE
  5
3413
330
1F
100
AcDbEntity
  8
圖層1輪廓線
100
AcDbLine
 10
3414.321295473386
 20
216.2747334226601
 30
0.0
 11
3415.821295473386
 21
217.7747334226601
 31
0.0
  0
ARC
  5
3414
330
1F
100
AcDbEntity
  8
圖層1輪廓線
100
AcDbCircle
 10
3409.402711186345
 20
241.6219556448825
 30
0.0
 40
8.84722222222258
100
AcDbArc
 50
221.3693510925612
 51
318.6306489074389
  0
ARC
  5
3415
330
1F
100
AcDbEntity
  8
圖層1輪廓線
100
AcDbCircle
 10
3409.402711186344
 20
274.7955667559929
 30
0.0
 40
12.02083333333334
100
AcDbArc
 50
236.47264195073
 51
303.5273580492701
  0
LINE
  5
3416
330
1F
100
AcDbEntity
  8
圖層1輪廓線
100
AcDbLine
 10
3416.042239282024
 20
264.7747334226594
 30
0.0
 11
3416.042239282024
 21
270.7747334226599
 31
0.0
  0
LINE
  5
3417
330
1F
100
AcDbEntity
  8
圖層1輪廓線
100
AcDbLine
 10
3402.763183090663
 20
264.7747334226597
 30
0.0
 11
3402.763183090663
 21
270.7747334226599
 31
0.0
  0
ARC
  5
3418
330
1F
100
AcDbEntity
  8
圖層1輪廓線
100
AcDbCircle
 10
3409.402711186345
 20
253.9275112004366
 30
0.0
 40
8.847222222222624
100
AcDbArc
 50
41.36935109256359
 51
138.6306489074364
  0
LINE
  5
3419
330
1F
100
AcDbEntity
  8
圖層1輪廓線
100
AcDbLine
 10
3455.87940785611
 20
259.7747334226597
 30
0.0
 11
3455.87940785611
 21
235.7747334226601
 31
0.0
  0
LINE
  5
341A
330
1F
100
AcDbEntity
  8
圖層1輪廓線
100
AcDbLine
 10
3442.600351664747
 20
259.7747334226601
 30
0.0
 11
3442.600351664747
 21
235.7747334226597
 31
0.0
  0
ARC
  5
341B
330
1F
100
AcDbEntity
  8
圖層1輪廓線
100
AcDbCircle
 10
3449.23987976043
 20
241.6219556448821
 30
0.0
 40
8.847222222222258
100
AcDbArc
 50
221.3693510925612
 51
318.6306489074389
  0
LINE
  5
341C
330
1F
100
AcDbEntity
  8
圖層1輪廓線
100
AcDbLine
 10
3452.321295473387
 20
233.3286922188645
 30
0.0
 11
3452.321295473387
 21
217.7747334226597
 31
0.0
  0
LINE
  5
341D
330
1F
100
AcDbEntity
  8
圖層1輪廓線
100
AcDbLine
 10
3442.821295473386
 20
217.7747334226601
 30
0.0
 11
3440.821295473386
 21
217.7747334226601
 31
0.0
  0
LINE
  5
341E
330
1F
100
AcDbEntity
  8
圖層1輪廓線
100
AcDbLine
 10
3442.821295473386
 20
217.7747334226601
 30
0.0
 11
3444.321295473387
 21
216.2747334226599
 31
0.0
  0
ARC
  5
341F
330
1F
100
AcDbEntity
  8
圖層1輪廓線
100
AcDbCircle
 10
3449.239879760428
 20
274.7955667559931
 30
0.0
 40
12.02083333333321
100
AcDbArc
 50
236.47264195073
 51
303.5273580492701
  0
ARC
  5
3420
330
1F
100
AcDbEntity
  8
圖層1輪廓線
100
AcDbCircle
 10
3449.23987976043
 20
253.9275112004371
 30
0.0
 40
8.847222222222258
100
AcDbArc
 50
41.36935109256115
 51
138.6306489074388
  0
LINE
  5
3421
330
1F
100
AcDbEntity
  8
圖層1輪廓線
100
AcDbLine
 10
3442.600351664747
 20
264.7747334226599
 30
0.0
 11
3442.600351664747
 21
270.7747334226592
 31
0.0
  0
LINE
  5
3422
330
1F
100
AcDbEntity
  8
圖層1輪廓線
100
AcDbLine
 10
3455.87940785611
 20
264.7747334226601
 30
0.0
 11
3455.87940785611
 21
270.7747334226601
 31
0.0
  0
LINE
  5
3423
330
1F
100
AcDbEntity
  8
圖層1輪廓線
100
AcDbLine
 10
3409.402711186344
 20
272.7747334226599
 30
0.0
 11
3449.23987976043
 21
272.7747334226599
 31
0.0
  0
LINE
  5
3424
330
1F
100
AcDbEntity
  8
圖層1輪廓線
100
AcDbLine
 10
3399.321295473387
 20
272.7747334226601
 30
0.0
 11
3459.321295473387
 21
272.7747334226601
 31
0.0
  0
LINE
  5
3425
330
1F
100
AcDbEntity
  8
圖層1輪廓線
100
AcDbLine
 10
3983.903923975402
 20
272.7747334226599
 30
0.0
 11
3983.903923975402
 21
85.77473342265989
 31
0.0
  0
LINE
  5
3426
330
1F
100
AcDbEntity
  8
圖層1輪廓線
100
AcDbLine
 10
3927.903923975402
 20
85.77473342265989
 30
0.0
 11
3927.903923975402
 21
272.7747334226599
 31
0.0
  0
LINE
  5
3427
330
1F
100
AcDbEntity
  8
圖層1輪廓線
100
AcDbLine
 10
3985.903923975402
 20
272.7747334226599
 30
0.0
 11
3985.903923975402
 21
85.77473342265989
 31
0.0
  0
LINE
  5
3428
330
1F
100
AcDbEntity
  8
圖層1輪廓線
100
AcDbLine
 10
3925.903923975403
 20
85.77473342265989
 30
0.0
 11
3925.903923975403
 21
272.7747334226599
 31
0.0
  0
LINE
  5
3429
330
1F
100
AcDbEntity
  8
圖層1輪廓線
100
AcDbLine
 10
3940.903923975402
 20
216.2747334226601
 30
0.0
 11
3940.903923975402
 21
121.7747334226599
 31
0.0
  0
LINE
  5
342A
330
1F
100
AcDbEntity
  8
圖層1輪廓線
100
AcDbLine
 10
3970.903923975402
 20
216.2747334226599
 30
0.0
 11
3970.903923975402
 21
121.7747334226599
 31
0.0
  0
LINE
  5
342B
330
1F
100
AcDbEntity
  8
圖層1輪廓線
100
AcDbLine
 10
3931.903923975402
 20
117.7747334226599
 30
0.0
 11
3979.903923975403
 21
117.7747334226599
 31
0.0
  0
LINE
  5
342C
330
1F
100
AcDbEntity
  8
圖層1輪廓線
100
AcDbLine
 10
3931.903923975402
 20
121.7747334226599
 30
0.0
 11
3979.903923975403
 21
121.7747334226599
 31
0.0
  0
ARC
  5
342D
330
1F
100
AcDbEntity
  8
圖層1輪廓線
100
AcDbCircle
 10
3931.903923975402
 20
119.7747334226599
 30
0.0
 40
2.0
100
AcDbArc
 50
180.0
 51
270.0
  0
ARC
  5
342E
330
1F
100
AcDbEntity
  8
圖層1輪廓線
100
AcDbCircle
 10
3931.903923975402
 20
119.7747334226599
 30
0.0
 40
2.0
100
AcDbArc
 50
90.0
 51
180.0
  0
LINE
  5
342F
330
1F
100
AcDbEntity
  8
圖層1輪廓線
100
AcDbLine
 10
3929.903923975402
 20
119.7747334226599
 30
0.0
 11
3929.903923975402
 21
119.7747334226599
 31
0.0
  0
ARC
  5
3430
330
1F
100
AcDbEntity
  8
圖層1輪廓線
100
AcDbCircle
 10
3979.903923975403
 20
119.7747334226599
 30
0.0
 40
2.0
100
AcDbArc
 50
270.0
 51
0.0
  0
ARC
  5
3431
330
1F
100
AcDbEntity
  8
圖層1輪廓線
100
AcDbCircle
 10
3979.903923975403
 20
119.7747334226599
 30
0.0
 40
2.0
100
AcDbArc
 50
0.0
 51
90.0
  0
LINE
  5
3432
330
1F
100
AcDbEntity
  8
圖層1輪廓線
100
AcDbLine
 10
3981.903923975402
 20
119.7747334226599
 30
0.0
 11
3981.903923975402
 21
119.7747334226599
 31
0.0
  0
ARC
  5
3433
330
1F
100
AcDbEntity
  8
圖層1輪廓線
100
AcDbCircle
 10
3967.403923975404
 20
238.712233422661
 30
0.0
 40
34.06249999999879
100
AcDbArc
 50
70.26838611385321
 51
109.7316138861468
  0
ARC
  5
3434
330
1F
100
AcDbEntity
  8
圖層1輪廓線
100
AcDbCircle
 10
3944.403923975402
 20
238.7122334226587
 30
0.0
 40
34.06250000000099
100
AcDbArc
 50
70.26838611385321
 51
109.7316138861468
  0
LINE
  5
3435
330
1F
100
AcDbEntity
  8
圖層1輪廓線
100
AcDbLine
 10
3981.120659812869
 20
206.4148642896621
 30
0.0
 11
3937.698073093514
 21
160.1776742368579
 31
0.0
  0
LINE
  5
3436
330
1F
100
AcDbEntity
  8
圖層1輪廓線
100
AcDbLine
 10
3978.204878928822
 20
209.1531524111406
 30
0.0
 11
3934.782292209467
 21
162.9159623583364
 31
0.0
  0
LINE
  5
3437
330
1F
100
AcDbEntity
  8
圖層1輪廓線
100
AcDbLine
 10
3943.294797072923
 20
262.7747334226599
 30
0.0
 11
3968.513050877886
 21
262.7747334226599
 31
0.0
  0
ARC
  5
3438
330
1F
100
AcDbEntity
  8
圖層1輪廓線
100
AcDbCircle
 10
3944.403923975402
 20
296.8372334226581
 30
0.0
 40
34.06249999999821
100
AcDbArc
 50
250.2683861138532
 51
289.7316138861468
  0
ARC
  5
3439
330
1F
100
AcDbEntity
  8
圖層1輪廓線
100
AcDbCircle
 10
3944.403923975402
 20
239.2330667559929
 30
0.0
 40
23.54166666666703
100
AcDbArc
 50
60.75825202272874
 51
119.2417479772712
  0
LINE
  5
343A
330
1F
100
AcDbEntity
  8
圖層1輪廓線
100
AcDbLine
 10
3932.903923975402
 20
217.7747334226601
 30
0.0
 11
3978.903923975402
 21
217.7747334226601
 31
0.0
  0
LINE
  5
343B
330
1F
100
AcDbEntity
  8
圖層1輪廓線
100
AcDbLine
 10
3932.903923975402
 20
232.7747334226601
 30
0.0
 11
3978.903923975402
 21
232.7747334226601
 31
0.0
  0
ARC
  5
343C
330
1F
100
AcDbEntity
  8
圖層1輪廓線
100
AcDbCircle
 10
3944.403923975402
 20
256.3164000893276
 30
0.0
 40
23.54166666666754
100
AcDbArc
 50
240.7582520227303
 51
299.2417479772712
  0
LINE
  5
343D
330
1F
100
AcDbEntity
  8
圖層1輪廓線
100
AcDbLine
 10
3942.403923975403
 20
217.7747334226599
 30
0.0
 11
3944.403923975402
 21
217.7747334226599
 31
0.0
  0
LINE
  5
343E
330
1F
100
AcDbEntity
  8
圖層1輪廓線
100
AcDbLine
 10
3942.403923975403
 20
217.7747334226599
 30
0.0
 11
3969.403923975402
 21
217.7747334226599
 31
0.0
  0
LINE
  5
343F
330
1F
100
AcDbEntity
  8
圖層1輪廓線
100
AcDbLine
 10
3940.903923975402
 20
216.2747334226599
 30
0.0
 11
3970.903923975402
 21
216.2747334226597
 31
0.0
  0
LINE
  5
3440
330
1F
100
AcDbEntity
  8
圖層1輪廓線
100
AcDbLine
 10
3943.403923975402
 20
217.7747334226599
 30
0.0
 11
3967.403923975402
 21
217.7747334226599
 31
0.0
  0
LINE
  5
3441
330
1F
100
AcDbEntity
  8
圖層1輪廓線
100
AcDbLine
 10
3932.903923975402
 20
259.7747334226601
 30
0.0
 11
3932.903923975402
 21
217.7747334226601
 31
0.0
  0
LINE
  5
3442
330
1F
100
AcDbEntity
  8
圖層1輪廓線
100
AcDbLine
 10
3940.903923975402
 20
216.2747334226599
 30
0.0
 11
3942.403923975403
 21
217.7747334226599
 31
0.0
  0
LINE
  5
3443
330
1F
100
AcDbEntity
  8
圖層1輪廓線
100
AcDbLine
 10
3932.903923975404
 20
264.7747334226599
 30
0.0
 11
3932.903923975404
 21
270.7747334226599
 31
0.0
  0
LINE
  5
3444
330
1F
100
AcDbEntity
  8
圖層1輪廓線
100
AcDbLine
 10
3978.903923975402
 20
259.7747334226597
 30
0.0
 11
3978.903923975402
 21
217.7747334226601
 31
0.0
  0
LINE
  5
3445
330
1F
100
AcDbEntity
  8
圖層1輪廓線
100
AcDbLine
 10
3955.903923975402
 20
244.7747334226597
 30
0.0
 11
3955.903923975402
 21
220.7747334226601
 31
0.0
  0
LINE
  5
3446
330
1F
100
AcDbEntity
  8
圖層1輪廓線
100
AcDbLine
 10
3969.403923975402
 20
217.7747334226599
 30
0.0
 11
3967.403923975402
 21
217.7747334226599
 31
0.0
  0
LINE
  5
3447
330
1F
100
AcDbEntity
  8
圖層1輪廓線
100
AcDbLine
 10
3969.403923975402
 20
217.7747334226599
 30
0.0
 11
3970.903923975402
 21
216.2747334226597
 31
0.0
  0
ARC
  5
3448
330
1F
100
AcDbEntity
  8
圖層1輪廓線
100
AcDbCircle
 10
3967.403923975402
 20
256.3164000893266
 30
0.0
 40
23.54166666666653
100
AcDbArc
 50
240.7582520227287
 51
299.2417479772712
  0
ARC
  5
3449
330
1F
100
AcDbEntity
  8
圖層1輪廓線
100
AcDbCircle
 10
3967.403923975402
 20
296.8372334226588
 30
0.0
 40
34.062499999999
100
AcDbArc
 50
250.2683861138532
 51
289.7316138861468
  0
LINE
  5
344A
330
1F
100
AcDbEntity
  8
圖層1輪廓線
100
AcDbLine
 10
3944.403923975402
 20
262.7747334226599
 30
0.0
 11
3967.403923975402
 21
262.7747334226601
 31
0.0
  0
ARC
  5
344B
330
1F
100
AcDbEntity
  8
圖層1輪廓線
100
AcDbCircle
 10
3967.403923975402
 20
239.2330667559943
 30
0.0
 40
23.54166666666563
100
AcDbArc
 50
60.75825202272874
 51
119.2417479772712
  0
LINE
  5
344C
330
1F
100
AcDbEntity
  8
圖層1輪廓線
100
AcDbLine
 10
3955.903923975404
 20
255.7747334226599
 30
0.0
 11
3955.903923975404
 21
249.7747334226599
 31
0.0
  0
LINE
  5
344D
330
1F
100
AcDbEntity
  8
圖層1輪廓線
100
AcDbLine
 10
3978.903923975404
 20
264.7747334226599
 30
0.0
 11
3978.903923975404
 21
270.7747334226596
 31
0.0
  0
LINE
  5
344E
330
1F
100
AcDbEntity
  8
圖層1輪廓線
100
AcDbLine
 10
3925.903923975403
 20
272.7747334226599
 30
0.0
 11
3985.903923975402
 21
272.7747334226599
 31
0.0
  0
LINE
  5
344F
330
1F
100
AcDbEntity
  8
圖層1輪廓線
100
AcDbLine
 10
3944.403923975402
 20
272.7747334226596
 30
0.0
 11
3967.403923975404
 21
272.7747334226596
 31
0.0
  0
LINE
  5
3450
330
1F
100
AcDbEntity
  8
圖層1輪廓線
100
AcDbLine
 10
3399.321295473387
 20
85.77473342266012
 30
0.0
 11
3459.321295473387
 21
85.77473342266012
 31
0.0
  0
LINE
  5
3451
330
1F
100
AcDbEntity
  8
圖層1輪廓線
100
AcDbLine
 10
3925.903923975403
 20
85.77473342265989
 30
0.0
 11
3985.903923975402
 21
85.77473342265989
 31
0.0
  0
DIMENSION
  5
3454
330
1F
100
AcDbEntity
  8
AM_5
100
AcDbDimension
  2
*D3
 10
3514.321295473386
 20
-586.3495904710934
 30
0.0
 11
3429.321295473386
 21
-570.3495904710933
 31
0.0
 70
    32
 71
     5
 42
170.0
  3
AM_ISO$0
100
AcDbAlignedDimension
 13
3344.321295473387
 23
-538.7727669680593
 33
0.0
 14
3514.321295473386
 24
-538.0051631838752
 34
0.0
100
AcDbRotatedDimension
1001
ACAD
1000
DSTYLE
1002
{
1070
    40
1040
1.0
1070
   144
1040
1.0
1002
}
  0
DIMENSION
  5
3455
330
1F
100
AcDbEntity
  8
AM_5
100
AcDbDimension
  2
*D4
 10
3529.321295473386
 20
-636.3495904710934
 30
0.0
 11
3429.321295473386
 21
-620.3476219671563
 31
0.0
 70
    32
 71
     5
 42
200.0
  3
AM_ISO$0
100
AcDbAlignedDimension
 13
3329.321295473386
 23
-526.3495904710932
 33
0.0
 14
3529.321295473386
 24
-526.3495904710932
 34
0.0
100
AcDbRotatedDimension
1001
ACAD
1000
DSTYLE
1002
{
1070
    40
1040
1.0
1070
   144
1040
1.0
1002
}
  0
INSERT
  5
3456
330
1F
100
AcDbEntity
  8
AM_5
100
AcDbBlockReference
  2
*S27
 10
0.0
 20
0.0
 30
0.0
  0
TEXT
  5
3481
330
1F
100
AcDbEntity
  8
AM_5
100
AcDbText
 10
3568.144651171301
 20
-581.6032891461948
 30
0.0
 40
20.0
  1
4-%%C12
100
AcDbText
  0
DIMENSION
  5
3482
330
1F
100
AcDbEntity
  8
AM_5
100
AcDbDimension
  2
*D5
 10
4070.903923975403
 20
-586.3495904710926
 30
0.0
 11
3955.903923975403
 21
-570.3476219671556
 31
0.0
 70
    32
 71
     5
 42
230.0000000000009
  3
AM_ISO$0
100
AcDbAlignedDimension
 13
3840.903923975402
 23
-539.1471982212688
 33
0.0
 14
4070.903923975403
 24
-538.2999069976517
 34
0.0
100
AcDbRotatedDimension
1001
ACAD
1000
DSTYLE
1002
{
1070
    40
1040
1.0
1070
   144
1040
1.0
1002
}
  0
DIMENSION
  5
3483
330
1F
100
AcDbEntity
  8
AM_5
100
AcDbDimension
  2
*D6
 10
4205.903923975402
 20
-636.3495904710934
 30
0.0
 11
4015.903923975402
 21
-620.3495904710933
 31
0.0
 70
    32
 71
     5
 42
380.0
  3
AM_ISO$0
100
AcDbAlignedDimension
 13
3825.903923975403
 23
-526.3495904710932
 33
0.0
 14
4205.903923975402
 24
-526.3495904710935
 34
0.0
100
AcDbRotatedDimension
1001
ACAD
1000
DSTYLE
1002
{
1070
    40
1040
1.0
1070
   144
1040
1.0
1002
}
  0
DIMENSION
  5
34AE
330
1F
100
AcDbEntity
  8
AM_5
100
AcDbDimension
  2
*D7
 10
3765.903923975403
 20
-446.3495904710933
 30
0.0
 11
3749.903923975402
 21
-486.3495904710928
 31
0.0
 70
    32
 71
     5
 42
80.00000000000005
  3
AM_ISO$0
100
AcDbAlignedDimension
 13
3825.903923975403
 23
-526.3495904710934
 33
0.0
 14
3860.903923975402
 24
-446.3495904710933
 34
0.0
 50
90.0
100
AcDbRotatedDimension
1001
ACAD
1000
DSTYLE
1002
{
1070
    40
1040
1.0
1070
   144
1040
1.0
1002
}
  0
DIMENSION
  5
34B1
330
1F
100
AcDbEntity
  8
AM_5
100
AcDbDimension
  2
*D8
 10
3765.903923975403
 20
-257.2252665773405
 30
0.0
 11
3749.901955471465
 21
-351.7874285242162
 31
0.0
 70
    32
  1
Max. 200
 71
     5
 42
189.1243238937528
  3
AM_ISO$0
100
AcDbAlignedDimension
 13
3860.903923975402
 23
-446.3495904710932
 33
0.0
 14
3935.403923975403
 24
-257.2252665773405
 34
0.0
 50
90.0
100
AcDbRotatedDimension
1001
ACAD
1000
DSTYLE
1002
{
1070
    40
1040
1.0
1070
   144
1040
1.0
1002
}
  0
DIMENSION
  5
34B4
330
1F
100
AcDbEntity
  8
AM_5
100
AcDbDimension
  2
*D9
 10
3765.903923975403
 20
-142.2252665773401
 30
0.0
 11
3749.903923975402
 21
-199.7252665773396
 31
0.0
 70
    32
 71
     5
 42
115.0000000000003
  3
AM_ISO$0
100
AcDbAlignedDimension
 13
3935.403923975403
 23
-257.2252665773405
 33
0.0
 14
3890.903923975402
 24
-142.2252665773401
 34
0.0
 50
90.0
100
AcDbRotatedDimension
1001
ACAD
1000
DSTYLE
1002
{
1070
    40
1040
1.0
1070
   144
1040
1.0
1002
}
  0
DIMENSION
  5
34B7
330
1F
100
AcDbEntity
  8
AM_5
100
AcDbDimension
  2
*D10
 10
3765.903923975403
 20
272.7747334226599
 30
0.0
 11
3749.903923975402
 21
65.27473342266052
 31
0.0
 70
    32
 71
     5
 42
415.0
  3
AM_ISO$0
100
AcDbAlignedDimension
 13
3890.903923975402
 23
-142.2252665773401
 33
0.0
 14
3925.903923975403
 24
272.7747334226599
 34
0.0
 50
90.0
100
AcDbRotatedDimension
1001
ACAD
1000
DSTYLE
1002
{
1070
    40
1040
1.0
1070
   144
1040
1.0
1002
}
  0
DIMENSION
  5
34BA
330
1F
100
AcDbEntity
  8
AM_5
100
AcDbDimension
  2
*D11
 10
3715.903923975402
 20
272.7747334226599
 30
0.0
 11
3699.903923975402
 21
-126.7874285242161
 31
0.0
 70
    32
  1
Max. 815
 71
     5
 42
799.1243238937534
  3
AM_ISO$0
100
AcDbAlignedDimension
 13
3825.903923975403
 23
-526.3495904710934
 33
0.0
 14
3925.903923975403
 24
272.7747334226599
 34
0.0
 50
90.0
100
AcDbRotatedDimension
1001
ACAD
1000
DSTYLE
1002
{
1070
    40
1040
1.0
1070
   144
1040
1.0
1002
}
  0
DIMENSION
  5
3542
330
1F
100
AcDbEntity
  8
AM_5
100
AcDbDimension
  2
*D12
 10
4055.903923975402
 20
-403.4781711485918
 30
0.0
 11
3955.903923975402
 21
-387.4762026446548
 31
0.0
 70
    32
 71
     5
 42
200.0
  3
AM_ISO$0
100
AcDbAlignedDimension
 13
3855.903923975402
 23
-451.3495904710934
 33
0.0
 14
4055.903923975402
 24
-451.3495904710936
 34
0.0
100
AcDbRotatedDimension
1001
ACAD
1000
DSTYLE
1002
{
1070
    40
1040
1.0
1070
   144
1040
1.0
1002
}
  0
DIMENSION
  5
355A
330
1F
100
AcDbEntity
  8
AM_5
100
AcDbDimension
  2
*D14
 10
4098.403923975401
 20
-351.6726475007789
 30
0.0
 11
4027.153923975401
 21
-335.6706789968419
 31
0.0
 70
    32
 71
     5
 42
142.5
  3
AM_ISO$0
100
AcDbAlignedDimension
 13
3955.903923975402
 23
-281.1841364391195
 33
0.0
 14
4098.403923975401
 24
-222.2252665773402
 34
0.0
100
AcDbRotatedDimension
1001
ACAD
1000
DSTYLE
1002
{
1070
    40
1040
1.0
1070
   144
1040
1.0
1002
}
  0
DIMENSION
  5
355D
330
1F
100
AcDbEntity
  8
AM_5
100
AcDbDimension
  2
*D13
 10
4173.403923975401
 20
-351.6726475007789
 30
0.0
 11
4219.818137537774
 21
-351.6726475007789
 31
0.0
 70
   160
  1
%%c<>
 71
     5
 42
75.0
  3
AM_ISO$0
100
AcDbAlignedDimension
 13
4098.403923975401
 23
-351.6726475007789
 33
0.0
 14
4173.403923975401
 24
-334.2874285242168
 34
0.0
100
AcDbRotatedDimension
1001
ACAD
1000
DSTYLE
1002
{
1070
    40
1040
1.0
1070
   144
1040
1.0
1002
}
  0
DIMENSION
  5
3588
330
1F
100
AcDbEntity
  8
AM_5
100
AcDbDimension
  2
*D15
 10
4265.903923975402
 20
-446.3495904710935
 30
0.0
 11
4249.903923975401
 21
-486.3495904710928
 31
0.0
 70
    32
 71
     5
 42
80.0
  3
AM_ISO$0
100
AcDbAlignedDimension
 13
4205.903923975402
 23
-526.3495904710935
 33
0.0
 14
4205.903923975402
 24
-446.3495904710935
 34
0.0
 50
90.0
100
AcDbRotatedDimension
1001
ACAD
1000
DSTYLE
1002
{
1070
    40
1040
1.0
1070
   144
1040
1.0
1002
}
  0
DIMENSION
  5
358B
330
1F
100
AcDbEntity
  8
AM_5
100
AcDbDimension
  2
*D16
 10
4265.903923975402
 20
-142.2252665773401
 30
0.0
 11
4249.903923975401
 21
-182.2252665773395
 31
0.0
 70
    32
 71
     5
 42
80.00000000000012
  3
AM_ISO$0
100
AcDbAlignedDimension
 13
4205.903923975402
 23
-222.2252665773402
 33
0.0
 14
4205.903923975402
 24
-142.2252665773401
 34
0.0
 50
90.0
100
AcDbRotatedDimension
1001
ACAD
1000
DSTYLE
1002
{
1070
    40
1040
1.0
1070
   144
1040
1.0
1002
}
  0
DIMENSION
  5
358E
330
1F
100
AcDbEntity
  8
AM_5
100
AcDbDimension
  2
*D17
 10
4315.903923975402
 20
-126.3495904710935
 30
0.0
 11
4299.903923975402
 21
-326.3495904710929
 31
0.0
 70
    32
 71
     5
 42
400.0
  3
AM_ISO$0
100
AcDbAlignedDimension
 13
4205.903923975402
 23
-526.3495904710935
 33
0.0
 14
4171.403923975402
 24
-126.3495904710935
 34
0.0
 50
90.0
100
AcDbRotatedDimension
1001
ACAD
1000
DSTYLE
1002
{
1070
    40
1040
1.0
1070
   144
1040
1.0
1002
}
  0
DIMENSION
  5
35F8
330
1F
100
AcDbEntity
  8
AM_5
100
AcDbDimension
  2
*D18
 10
3494.321295473387
 20
-170.2441726883007
 30
0.0
 11
3322.313421457638
 21
-170.2441726883007
 31
0.0
 70
   160
 71
     5
 42
130.0
  3
AM_ISO$0
100
AcDbAlignedDimension
 13
3364.321295473386
 23
-142.22526657734
 33
0.0
 14
3494.321295473387
 24
-142.22526657734
 34
0.0
100
AcDbRotatedDimension
1001
ACAD
1000
DSTYLE
1002
{
1070
    40
1040
1.0
1070
   144
1040
1.0
1002
}
  0
CIRCLE
  5
3612
330
1F
100
AcDbEntity
  8
0
 62
     1
100
AcDbCircle
 10
3429.321295473387
 20
-244.7252665773399
 30
0.0
 40
44.34401303614731
  0
TEXT
  5
3613
330
1F
100
AcDbEntity
  8
AM_5
 62
     0
100
AcDbText
 10
3362.843692334706
 20
-276.4915548222998
 30
0.0
 40
20.0
  1
A
100
AcDbText
  0
LINE
  5
3614
330
1F
100
AcDbEntity
  8
圖層1輪廓線
  6
Continuous
100
AcDbLine
 10
3393.814253918224
 20
641.0825645326524
 30
0.0
 11
3464.828337028548
 21
641.082564532652
 31
0.0
  0
ARC
  5
3615
330
1F
100
AcDbEntity
  8
圖層1輪廓線
  6
Continuous
100
AcDbCircle
 10
3429.321295473388
 20
582.5492311993157
 30
0.0
 40
58.53333333333608
100
AcDbArc
 50
66.14595163640482
 51
113.8540483635952
  0
LINE
  5
3616
330
1F
100
AcDbEntity
  8
圖層1輪廓線
  6
Continuous
100
AcDbLine
 10
3393.814253918224
 20
571.0825645326524
 30
0.0
 11
3464.828337028548
 21
571.0825645326524
 31
0.0
  0
LINE
  5
3617
330
1F
100
AcDbEntity
  8
圖層1輪廓線
  6
Continuous
100
AcDbLine
 10
3388.321295473387
 20
561.0825645326524
 30
0.0
 11
3470.321295473386
 21
561.0825645326524
 31
0.0
  0
ARC
  5
3618
330
1F
100
AcDbEntity
  8
圖層1輪廓線
  6
Continuous
100
AcDbCircle
 10
3429.321295473388
 20
629.2565247316449
 30
0.0
 40
58.2048398037261
100
AcDbArc
 50
246.0028878993282
 51
293.9971121006577
  0
LINE
  5
3619
330
1F
100
AcDbEntity
  8
圖層1輪廓線
  6
Continuous
100
AcDbLine
 10
3388.321295473387
 20
671.0825645326524
 30
0.0
 11
3470.321295473386
 21
671.082564532652
 31
0.0
  0
LINE
  5
361A
330
1F
100
AcDbEntity
  8
圖層1輪廓線
  6
Continuous
100
AcDbLine
 10
3381.978573399837
 20
576.0825645326524
 30
0.0
 11
3381.978573399837
 21
636.082564532652
 31
0.0
  0
LINE
  5
361B
330
1F
100
AcDbEntity
  8
圖層1輪廓線
  6
Continuous
100
AcDbLine
 10
3405.649934436612
 20
576.0825645326533
 30
0.0
 11
3405.649934436612
 21
636.082564532652
 31
0.0
  0
ARC
  5
361C
330
1F
100
AcDbEntity
  8
圖層1輪廓線
  6
Continuous
100
AcDbCircle
 10
3393.814253918224
 20
587.5908978659851
 30
0.0
 40
16.50833333333309
100
AcDbArc
 50
224.1966084730937
 51
315.8033915269064
  0
LINE
  5
361D
330
1F
100
AcDbEntity
  8
圖層1輪廓線
  6
Continuous
100
AcDbLine
 10
3388.321295473387
 20
561.0825645326524
 30
0.0
 11
3388.321295473387
 21
572.0232237632906
 31
0.0
  0
ARC
  5
361E
330
1F
100
AcDbEntity
  8
圖層1輪廓線
  6
Continuous
100
AcDbCircle
 10
3393.814253918224
 20
624.5742311993187
 30
0.0
 40
16.50833333333278
100
AcDbArc
 50
44.19660847309365
 51
135.8033915269063
  0
LINE
  5
361F
330
1F
100
AcDbEntity
  8
圖層1輪廓線
  6
Continuous
100
AcDbLine
 10
3388.321295473387
 20
640.1419053020138
 30
0.0
 11
3388.321295473387
 21
671.0825645326524
 31
0.0
  0
LINE
  5
3620
330
1F
100
AcDbEntity
  8
圖層1輪廓線
  6
Continuous
100
AcDbLine
 10
3452.992656510161
 20
576.0825645326519
 30
0.0
 11
3452.992656510161
 21
636.0825645326529
 31
0.0
  0
LINE
  5
3621
330
1F
100
AcDbEntity
  8
圖層1輪廓線
  6
Continuous
100
AcDbLine
 10
3476.664017546936
 20
576.0825645326519
 30
0.0
 11
3476.664017546936
 21
636.082564532652
 31
0.0
  0
ARC
  5
3622
330
1F
100
AcDbEntity
  8
圖層1輪廓線
  6
Continuous
100
AcDbCircle
 10
3464.82833702855
 20
587.5908978659849
 30
0.0
 40
16.50833333333325
100
AcDbArc
 50
224.1966084730937
 51
315.8033915269064
  0
LINE
  5
3623
330
1F
100
AcDbEntity
  8
圖層1輪廓線
  6
Continuous
100
AcDbLine
 10
3470.321295473387
 20
561.082564532652
 30
0.0
 11
3470.321295473387
 21
572.0232237632897
 31
0.0
  0
ARC
  5
3624
330
1F
100
AcDbEntity
  8
圖層1輪廓線
  6
Continuous
100
AcDbCircle
 10
3464.828337028548
 20
624.5742311993187
 30
0.0
 40
16.50833333333326
100
AcDbArc
 50
44.19660847309365
 51
135.8033915269063
  0
LINE
  5
3625
330
1F
100
AcDbEntity
  8
圖層1輪廓線
  6
Continuous
100
AcDbLine
 10
3470.321295473386
 20
640.1419053020142
 30
0.0
 11
3470.321295473386
 21
671.082564532652
 31
0.0
  0
ARC
  5
3626
330
1F
100
AcDbEntity
  8
圖層1輪廓線
  6
Continuous
100
AcDbCircle
 10
3429.321295473386
 20
743.1242311993217
 30
0.0
 40
72.0416666666691
100
AcDbArc
 50
250.8174656949729
 51
289.1825343050271
  0
ARC
  5
3627
330
1F
100
AcDbEntity
  8
圖層1輪廓線
  6
Continuous
100
AcDbCircle
 10
3429.321295473386
 20
619.0408978659895
 30
0.0
 40
72.04166666666245
100
AcDbArc
 50
70.81746569497288
 51
109.1825343050271
  0
ARC
  5
3628
330
1F
100
AcDbEntity
  8
圖層1輪廓線
  6
Continuous
100
AcDbCircle
 10
3393.814253918224
 20
690.592981199318
 30
0.0
 40
19.51041666666605
100
AcDbArc
 50
232.653490685543
 51
307.346509314457
  0
ARC
  5
3629
330
1F
100
AcDbEntity
  8
圖層1輪廓線
  6
Continuous
100
AcDbCircle
 10
3393.814253918224
 20
671.5721478659895
 30
0.0
 40
19.51041666666302
100
AcDbArc
 50
52.65349068554301
 51
127.346509314457
  0
LINE
  5
362A
330
1F
100
AcDbEntity
  8
圖層1輪廓線
  6
Continuous
100
AcDbLine
 10
3381.978573399837
 20
675.082564532652
 30
0.0
 11
3381.978573399837
 21
687.082564532652
 31
0.0
  0
LINE
  5
362B
330
1F
100
AcDbEntity
  8
圖層1輪廓線
  6
Continuous
100
AcDbLine
 10
3405.649934436612
 20
675.082564532652
 30
0.0
 11
3405.649934436612
 21
687.0825645326511
 31
0.0
  0
ARC
  5
362C
330
1F
100
AcDbEntity
  8
圖層1輪廓線
  6
Continuous
100
AcDbCircle
 10
3464.828337028548
 20
690.5929811993189
 30
0.0
 40
19.51041666666682
100
AcDbArc
 50
232.653490685543
 51
307.346509314457
  0
ARC
  5
362D
330
1F
100
AcDbEntity
  8
圖層1輪廓線
  6
Continuous
100
AcDbCircle
 10
3464.82833702855
 20
671.572147865985
 30
0.0
 40
19.51041666666705
100
AcDbArc
 50
52.65349068554301
 51
127.346509314457
  0
LINE
  5
362E
330
1F
100
AcDbEntity
  8
圖層1輪廓線
  6
Continuous
100
AcDbLine
 10
3452.992656510161
 20
675.082564532652
 30
0.0
 11
3452.992656510161
 21
687.082564532652
 31
0.0
  0
LINE
  5
362F
330
1F
100
AcDbEntity
  8
圖層1輪廓線
  6
Continuous
100
AcDbLine
 10
3476.664017546936
 20
675.082564532652
 30
0.0
 11
3476.664017546936
 21
687.0825645326529
 31
0.0
  0
LINE
  5
3630
330
1F
100
AcDbEntity
  8
圖層1輪廓線
  6
Continuous
100
AcDbLine
 10
3389.321295473386
 20
696.082564532652
 30
0.0
 11
3389.321295473386
 21
691.082564532652
 31
0.0
  0
LINE
  5
3631
330
1F
100
AcDbEntity
  8
圖層1輪廓線
  6
Continuous
100
AcDbLine
 10
3389.321295473386
 20
691.082564532652
 30
0.0
 11
3469.321295473386
 21
691.082564532652
 31
0.0
  0
LINE
  5
3632
330
1F
100
AcDbEntity
  8
圖層1輪廓線
  6
Continuous
100
AcDbLine
 10
3469.321295473386
 20
691.082564532652
 30
0.0
 11
3469.321295473386
 21
696.082564532652
 31
0.0
  0
LINE
  5
3633
330
1F
100
AcDbEntity
  8
圖層3虛線
 48
0.3
100
AcDbLine
 10
3409.321295473386
 20
621.0825645326524
 30
0.0
 11
3449.321295473387
 21
621.0825645326524
 31
0.0
  0
LINE
  5
3634
330
1F
100
AcDbEntity
  8
圖層3虛線
 48
0.3
100
AcDbLine
 10
3409.321295473386
 20
561.0825645326524
 30
0.0
 11
3409.321295473386
 21
621.0825645326524
 31
0.0
  0
LINE
  5
3635
330
1F
100
AcDbEntity
  8
圖層3虛線
100
AcDbLine
 10
3449.321295473387
 20
561.0825645326524
 30
0.0
 11
3449.321295473387
 21
621.0825645326524
 31
0.0
  0
LINE
  5
3636
330
1F
100
AcDbEntity
  8
圖層3虛線
 48
0.3
100
AcDbLine
 10
3381.978573399837
 20
601.0825645326524
 30
0.0
 11
3409.321295473386
 21
601.0825645326526
 31
0.0
  0
LINE
  5
3637
330
1F
100
AcDbEntity
  8
圖層3虛線
 48
0.3
100
AcDbLine
 10
3381.978573399837
 20
581.0825645326524
 30
0.0
 11
3409.321295473386
 21
581.0825645326526
 31
0.0
  0
LINE
  5
3638
330
1F
100
AcDbEntity
  8
圖層3虛線
100
AcDbLine
 10
3449.321295473387
 20
601.0825645326526
 30
0.0
 11
3476.664017546936
 21
601.0825645326524
 31
0.0
  0
LINE
  5
3639
330
1F
100
AcDbEntity
  8
圖層3虛線
100
AcDbLine
 10
3449.321295473387
 20
581.0825645326526
 30
0.0
 11
3476.664017546936
 21
581.0825645326524
 31
0.0
  0
LINE
  5
363A
330
1F
100
AcDbEntity
  8
圖層3虛線
 48
0.3
100
AcDbLine
 10
3381.978573399837
 20
597.0825645326524
 30
0.0
 11
3409.321295473386
 21
597.0825645326526
 31
0.0
  0
LINE
  5
363B
330
1F
100
AcDbEntity
  8
圖層3虛線
 48
0.3
100
AcDbLine
 10
3381.978573399837
 20
585.0825645326524
 30
0.0
 11
3409.321295473386
 21
585.0825645326526
 31
0.0
  0
LINE
  5
363C
330
1F
100
AcDbEntity
  8
圖層3虛線
100
AcDbLine
 10
3449.321295473387
 20
597.0825645326526
 30
0.0
 11
3476.664017546936
 21
597.0825645326524
 31
0.0
  0
LINE
  5
363D
330
1F
100
AcDbEntity
  8
圖層3虛線
100
AcDbLine
 10
3449.321295473387
 20
585.0825645326526
 30
0.0
 11
3476.664017546936
 21
585.0825645326524
 31
0.0
  0
LINE
  5
363E
330
1F
100
AcDbEntity
  8
圖層2中心線
 48
0.3
370
    18
100
AcDbLine
 10
3376.947700505829
 20
591.0825645326524
 30
0.0
 11
3483.960979359277
 21
591.0825645326524
 31
0.0
  0
CIRCLE
  5
363F
330
1F
100
AcDbEntity
  8
圖層3虛線
 48
0.3
100
AcDbCircle
 10
3429.321295473387
 20
591.0825645326524
 30
0.0
 40
10.0
  0
CIRCLE
  5
3640
330
1F
100
AcDbEntity
  8
圖層1輪廓線
  6
Continuous
100
AcDbCircle
 10
3429.321295473386
 20
591.0825645326524
 30
0.0
 40
14.0
  0
CIRCLE
  5
3641
330
1F
100
AcDbEntity
  8
圖層1輪廓線
  6
Continuous
100
AcDbCircle
 10
3429.321295473387
 20
591.0825645326524
 30
0.0
 40
6.0
  0
LWPOLYLINE
  5
3642
330
1F
100
AcDbEntity
  8
圖層1輪廓線
  6
Continuous
100
AcDbPolyline
 90
        6
 70
     1
 43
0.0
 10
3415.321295473386
 20
582.9996607639973
 10
3429.321295473387
 20
574.9167569953422
 10
3443.321295473388
 20
582.9996607639973
 10
3443.321295473388
 20
599.1654683013075
 10
3429.321295473387
 20
607.2483720699628
 10
3415.321295473386
 20
599.1654683013077
  0
LINE
  5
3643
330
1F
100
AcDbEntity
  8
AM_7
100
AcDbLine
 10
3429.321295473386
 20
553.618719158836
 30
0.0
 11
3429.321295473386
 21
702.7423755380541
 31
0.0
1001
GENIUS_GENOBJ-N-CEN_13
1002
{
1000
OWNER
1000
GEN
1002
}
1001
GENIUS_GENODEF_13
1002
{
1000
HIER
1070
     0
1002
}
1002
{
1000
MANEDIT
1070
     0
1002
}
1002
{
1000
NOSEL
1070
     0
1002
}
1002
{
1000
BEHIND
1070
     0
1002
}
1002
{
1000
OTHER
1070
     0
1002
}
1002
{
1000
REACTOR
1002
}
1001
GENIUS_GENCEN_19
1002
{
1040
2.0
1002
}
  0
DIMENSION
  5
3644
330
1F
100
AcDbEntity
  8
AM_5
100
AcDbDimension
  2
*D19
 10
3449.321295473386
 20
501.0825645326524
 30
0.0
 11
3516.329169489134
 21
501.0825645326524
 31
0.0
 70
   160
  1
%%c<>
 71
     5
 42
20.0
  3
AM_ISO$0
100
AcDbAlignedDimension
 13
3409.321295473386
 23
561.0825645326524
 33
0.0
 14
3449.321295473386
 24
561.0825645326524
 34
0.0
100
AcDbRotatedDimension
1001
ACAD
1000
DSTYLE
1002
{
1070
    40
1040
1.0
1070
   144
1040
0.5
1002
}
  0
DIMENSION
  5
3645
330
1F
100
AcDbEntity
  8
AM_5
100
AcDbDimension
  2
*D20
 10
3321.978573399837
 20
591.0825645326525
 30
0.0
 11
3321.978573399837
 21
505.6683509702796
 31
0.0
 70
   160
 71
     5
 42
15.0
  3
AM_ISO$0
100
AcDbAlignedDimension
 13
3388.321295473387
 23
561.0825645326524
 33
0.0
 14
3376.947700505829
 24
591.0825645326524
 34
0.0
 50
90.0
100
AcDbRotatedDimension
1001
ACAD
1000
DSTYLE
1002
{
1070
   144
1040
0.5
1002
}
  0
DIMENSION
  5
3646
330
1F
100
AcDbEntity
  8
AM_5
100
AcDbDimension
  2
*D21
 10
3271.978573399837
 20
621.0825645326525
 30
0.0
 11
3255.978573399838
 21
591.0825645326529
 31
0.0
 70
    32
 71
     5
 42
30.0
  3
AM_ISO$0
100
AcDbAlignedDimension
 13
3388.321295473387
 23
561.0825645326524
 33
0.0
 14
3409.321295473386
 24
621.0825645326524
 34
0.0
 50
90.0
100
AcDbRotatedDimension
1001
ACAD
1000
DSTYLE
1002
{
1070
   144
1040
0.5
1002
}
  0
INSERT
  5
3647
330
1F
100
AcDbEntity
  8
AM_5
100
AcDbBlockReference
  2
*S28
 10
0.0
 20
0.0
 30
0.0
  0
TEXT
  5
3648
330
1F
100
AcDbEntity
  8
AM_5
100
AcDbText
 10
3517.73248975665
 20
631.9743082158526
 30
0.0
 40
20.0
  1
3-M10
100
AcDbText
  0
LINE
  5
3649
330
1F
100
AcDbEntity
  8
圖層1輪廓線
100
AcDbLine
 10
3975.925694056222
 20
599.9600957780094
 30
0.0
 11
3975.925694056222
 21
579.9600957780094
 31
0.0
  0
LINE
  5
364A
330
1F
100
AcDbEntity
  8
圖層1輪廓線
100
AcDbLine
 10
3925.925694056222
 20
579.9600957780094
 30
0.0
 11
3925.925694056222
 21
599.9600957780094
 31
0.0
  0
LINE
  5
364B
330
1F
100
AcDbEntity
  8
圖層1輪廓線
100
AcDbLine
 10
3975.925694056222
 20
579.9600957780094
 30
0.0
 11
3925.925694056222
 21
579.9600957780094
 31
0.0
  0
LINE
  5
364C
330
1F
100
AcDbEntity
  8
圖層1輪廓線
100
AcDbLine
 10
3925.925694056222
 20
599.9600957780094
 30
0.0
 11
3935.925694056222
 21
599.9600957780094
 31
0.0
  0
LINE
  5
364D
330
1F
100
AcDbEntity
  8
圖層1輪廓線
100
AcDbLine
 10
3935.925694056222
 20
599.9600957780094
 30
0.0
 11
3935.925694056222
 21
621.9600957780094
 31
0.0
  0
LINE
  5
364E
330
1F
100
AcDbEntity
  8
圖層1輪廓線
100
AcDbLine
 10
3965.925694056222
 20
621.9600957780094
 30
0.0
 11
3965.925694056222
 21
599.9600957780094
 31
0.0
  0
LINE
  5
364F
330
1F
100
AcDbEntity
  8
圖層1輪廓線
100
AcDbLine
 10
3965.925694056222
 20
599.9600957780094
 30
0.0
 11
3975.925694056222
 21
599.9600957780094
 31
0.0
  0
LINE
  5
3650
330
1F
100
AcDbEntity
  8
0
100
AcDbLine
 10
3935.925694056222
 20
621.9600957780094
 30
0.0
 11
3915.985691834808
 21
621.9600957780094
 31
0.0
  0
LINE
  5
3651
330
1F
100
AcDbEntity
  8
0
100
AcDbLine
 10
3965.925694056222
 20
621.9600957780094
 30
0.0
 11
3985.865696277636
 21
621.9600957780094
 31
0.0
  0
LINE
  5
3652
330
1F
100
AcDbEntity
  8
AM_7
100
AcDbLine
 10
3950.925694056222
 20
570.7120635152604
 30
0.0
 11
3950.925694056222
 21
633.1954319792003
 31
0.0
1001
GENIUS_GENODEF_13
1002
{
1000
HIER
1070
     0
1002
}
1002
{
1000
MANEDIT
1070
     0
1002
}
1002
{
1000
NOSEL
1070
     0
1002
}
1002
{
1000
BEHIND
1070
     0
1002
}
1002
{
1000
OTHER
1070
     0
1002
}
1002
{
1000
REACTOR
1002
}
1001
GENIUS_GENOBJ-N-CEN_13
1002
{
1000
OWNER
1000
GEN
1002
}
1001
GENIUS_GENCEN_19
1002
{
1040
2.0
1002
}
  0
DIMENSION
  5
3653
330
1F
100
AcDbEntity
  8
AM_5
100
AcDbDimension
  2
*D22
 10
3975.925694056222
 20
519.9600947780099
 30
0.0
 11
3950.925694056222
 21
535.9620632819469
 31
0.0
 70
    32
 71
     5
 42
25.0
  3
AM_ISO$0
100
AcDbAlignedDimension
 13
3925.925694056222
 23
579.9600957780094
 33
0.0
 14
3975.925694056222
 24
579.9600957780093
 34
0.0
100
AcDbRotatedDimension
1001
ACAD
1000
DSTYLE
1002
{
1070
   144
1040
0.5
1002
}
  0
DIMENSION
  5
3654
330
1F
100
AcDbEntity
  8
AM_5
100
AcDbDimension
  2
*D23
 10
3965.925694056222
 20
671.9600967780097
 30
0.0
 11
3950.925694056222
 21
671.9600967780097
 31
0.0
 70
   160
 71
     5
 42
15.0
  3
AM_ISO$0
100
AcDbAlignedDimension
 13
3935.925694056222
 23
621.9600957780093
 33
0.0
 14
3965.925694056222
 24
621.9600957780093
 34
0.0
100
AcDbRotatedDimension
1001
ACAD
1000
DSTYLE
1002
{
1070
   144
1040
0.5
1002
}
  0
DIMENSION
  5
3655
330
1F
100
AcDbEntity
  8
AM_5
100
AcDbDimension
  2
*D24
 10
4045.170891610649
 20
599.9600957780093
 30
0.0
 11
4045.170891610649
 21
674.9600957780101
 31
0.0
 70
   160
 71
     5
 42
11.0
  3
AM_ISO$0
100
AcDbAlignedDimension
 13
3985.865696277636
 23
621.9600957780093
 33
0.0
 14
3975.925694056222
 24
599.9600957780093
 34
0.0
 50
90.0
100
AcDbRotatedDimension
1001
ACAD
1000
DSTYLE
1002
{
1070
   144
1040
0.5
1002
}
  0
DIMENSION
  5
3656
330
1F
100
AcDbEntity
  8
AM_5
100
AcDbDimension
  2
*D25
 10
3865.925694056222
 20
579.9600957780094
 30
0.0
 11
3865.925694056222
 21
589.96009577801
 31
0.0
 70
   160
 71
     5
 42
9.999999999999943
  3
AM_ISO$0
100
AcDbAlignedDimension
 13
3925.925694056222
 23
599.9600957780093
 33
0.0
 14
3925.925694056222
 24
579.9600957780094
 34
0.0
 50
90.0
100
AcDbRotatedDimension
1001
ACAD
1000
DSTYLE
1002
{
1070
   144
1040
0.5
1002
}
  0
TEXT
  5
3657
330
1F
100
AcDbEntity
  8
AM_5
 62
     0
100
AcDbText
 10
3393.321178631025
 20
430.8265219418533
 30
0.0
 40
30.0
  1
A 詳細
100
AcDbText
  0
TEXT
  5
3658
330
1F
100
AcDbEntity
  8
AM_5
 62
     0
100
AcDbText
 10
3913.893348089244
 20
430.8265219418533
 30
0.0
 40
30.0
  1
B 詳細
100
AcDbText
  0
CIRCLE
  5
39E5
330
1F
100
AcDbEntity
  8
0
 62
     1
100
AcDbCircle
 10
3955.903923975402
 20
-453.3754906686647
 30
0.0
 40
34.84724155408339
  0
TEXT
  5
39E6
330
1F
100
AcDbEntity
  8
AM_5
 62
     0
100
AcDbText
 10
3900.933709200963
 20
-439.0592442720008
 30
0.0
 40
20.0
  1
B
100
AcDbText
  0
TEXT
  5
76B4
330
1F
100
AcDbEntity
  8
LOGO
 62
     7
100
AcDbText
 10
3524.939980470735
 20
-808.3354411636452
 30
0.0
 40
23.32462219004524
  1
Order example:
 41
0.8
  7
CHINESET
100
AcDbText
  0
TEXT
  5
76B5
330
1F
100
AcDbEntity
  8
LOGO
 62
     7
100
AcDbText
 10
3529.124610578407
 20
-775.4992025447095
 30
0.0
 40
34.98693328506787
  1
訂購代號:
  7
CHINESET
100
AcDbText
  0
LINE
  5
76B6
330
1F
100
AcDbEntity
  8
LOGO
 62
     1
100
AcDbLine
 10
4452.434983553824
 20
-731.6995405704192
 30
0.0
 11
3129.949086880846
 21
-731.6995405704192
 31
0.0
  0
LINE
  5
76B7
330
1F
100
AcDbEntity
  8
LOGO
 62
     1
100
AcDbLine
 10
3514.805353016601
 20
-906.6342069957581
 30
0.0
 11
3514.805353016601
 21
-731.6995405704192
 31
0.0
  0
TEXT
  5
76B8
330
1F
100
AcDbEntity
  8
LOGO
  6
Continuous
 62
     5
100
AcDbText
 10
3192.786405407376
 20
-872.2685557759312
 30
0.0
 40
26.2401999638009
  1
金器工業股份有限公司
  7
CHINESET
100
AcDbText
  0
TEXT
  5
76B9
330
1F
100
AcDbEntity
  8
LOGO
  6
Continuous
 62
     5
100
AcDbText
 10
3144.588349441414
 20
-898.5138967616133
 30
0.0
 40
17.49346664253393
  1
MINDMAN INDUSTRIAL CO., LTD.
 41
0.85
  7
CHINESET
100
AcDbText
  0
LINE
  5
76BA
330
1F
100
AcDbEntity
  8
LOGO
 62
     1
100
AcDbLine
 10
3514.805353016601
 20
-766.6864738554856
 30
0.0
 11
3258.234508926097
 21
-766.6864738554856
 31
0.0
  0
LINE
  5
76BB
330
1F
100
AcDbEntity
  8
LOGO
 62
     1
100
AcDbLine
 10
3514.805353016601
 20
-801.6734071405549
 30
0.0
 11
3258.234508926097
 21
-801.6734071405549
 31
0.0
  0
LINE
  5
76BC
330
1F
100
AcDbEntity
  8
LOGO
 62
     1
100
AcDbLine
 10
3514.805353016601
 20
-836.6603404256224
 30
0.0
 11
3129.949086880846
 21
-836.6603404256224
 31
0.0
  0
LINE
  5
76BD
330
1F
100
AcDbEntity
  8
LOGO
 62
     1
100
AcDbLine
 10
3258.234508926097
 20
-836.6603404256224
 30
0.0
 11
3258.234508926097
 21
-731.6995405704192
 31
0.0
  0
TEXT
  5
76BE
330
1F
100
AcDbEntity
  8
LOGO
 62
     6
100
AcDbText
 10
3424.42532647078
 20
-827.9136071043557
 30
0.0
 40
17.49346664253393
  1
m/m
  7
CHINESET
 72
     1
 11
3455.247148650482
 21
-819.1668737830887
 31
0.0
100
AcDbText
 73
     2
  0
TEXT
  5
76BF
330
1F
100
AcDbEntity
  8
LOGO
 62
     6
100
AcDbText
 10
3424.42532647078
 20
-757.9397405342193
 30
0.0
 40
17.49346664253393
  1
1 : 1
  7
CHINESET
 72
     1
 11
3455.247148650482
 21
-749.1930072129523
 31
0.0
100
AcDbText
 73
     2
  0
LINE
  5
76C0
330
1F
100
AcDbEntity
  8
LOGO
 62
     1
100
AcDbLine
 10
3398.182242066364
 20
-836.6603404256224
 30
0.0
 11
3398.182242066364
 21
-731.6995405704192
 31
0.0
  0
CIRCLE
  5
76C1
330
1F
100
AcDbEntity
  8
LOGO
  6
Continuous
 62
     6
100
AcDbCircle
 10
3430.573583603248
 20
-784.1425218448587
 30
0.0
 40
10.15711848244488
  0
CIRCLE
  5
76C2
330
1F
100
AcDbEntity
  8
LOGO
  6
Continuous
 62
     6
100
AcDbCircle
 10
3430.573583603248
 20
-784.1425218448587
 30
0.0
 40
5.951172271886643
  0
LINE
  5
76C3
330
1F
100
AcDbEntity
  8
LOGO
 62
     6
100
AcDbLine
 10
3494.402094729116
 20
-794.2996403273043
 30
0.0
 11
3494.402094729116
 21
-773.9854033624133
 31
0.0
  0
LINE
  5
76C4
330
1F
100
AcDbEntity
  8
LOGO
 62
     6
100
AcDbLine
 10
3462.560111333069
 20
-790.0936941167452
 30
0.0
 11
3462.560111333069
 21
-778.1913495729707
 31
0.0
  0
LINE
  5
76C5
330
1F
100
AcDbEntity
  8
LOGO
  6
Continuous
 62
     6
100
AcDbLine
 10
3462.560111333069
 20
-778.1913495729707
 30
0.0
 11
3494.402094729116
 21
-773.9854033624133
 31
0.0
  0
LINE
  5
76C6
330
1F
100
AcDbEntity
  8
LOGO
  6
Continuous
 62
     6
100
AcDbLine
 10
3462.560111333069
 20
-790.0936941167452
 30
0.0
 11
3494.402094729116
 21
-794.2996403273043
 31
0.0
  0
LINE
  5
76C7
330
1F
100
AcDbEntity
  8
LOGO
 62
     6
100
AcDbLine
 10
4259.326956123973
 20
-749.1930072129523
 30
0.0
 11
4165.705397921942
 21
-749.1930072129523
 31
0.0
  0
LINE
  5
76C8
330
1F
100
AcDbEntity
  8
LOGO
 62
     6
100
AcDbLine
 10
4276.145374209221
 20
-827.9136071043545
 30
0.0
 11
4167.022687842105
 21
-827.9136071043545
 31
0.0
  0
LINE
  5
76C9
330
1F
100
AcDbEntity
  8
LOGO
 62
     6
100
AcDbLine
 10
4259.326956123973
 20
-801.6734071405549
 30
0.0
 11
4165.705397921942
 21
-801.6734071405549
 31
0.0
  0
LINE
  5
76CA
330
1F
100
AcDbEntity
  8
LOGO
 62
     6
100
AcDbLine
 10
4276.145374209221
 20
-892.0563181269795
 30
0.0
 11
4167.022687842105
 21
-892.0563181269802
 31
0.0
  0
LINE
  5
76CB
330
1F
100
AcDbEntity
  8
LOGO
 62
     6
100
AcDbLine
 10
4167.022687842105
 20
-827.9136071043545
 30
0.0
 11
4167.022687842105
 21
-892.0563181269795
 31
0.0
  0
LINE
  5
76CC
330
1F
100
AcDbEntity
  8
LOGO
 62
     6
100
AcDbLine
 10
4149.474432185501
 20
-827.9136071043545
 30
0.0
 11
4149.474432185501
 21
-892.0563181269802
 31
0.0
  0
LINE
  5
76CD
330
1F
100
AcDbEntity
  8
LOGO
 62
     6
100
AcDbLine
 10
4061.634533400591
 20
-827.9136071043545
 30
0.0
 11
4061.634533400591
 21
-892.0563181269802
 31
0.0
  0
LINE
  5
76CE
330
1F
100
AcDbEntity
  8
LOGO
 62
     6
100
AcDbLine
 10
3872.84570150844
 20
-827.9136071043545
 30
0.0
 11
3872.84570150844
 21
-892.0563181269802
 31
0.0
  0
LINE
  5
76CF
330
1F
100
AcDbEntity
  8
LOGO
 62
     6
100
AcDbLine
 10
3756.222590558217
 20
-827.9136071043545
 30
0.0
 11
3756.222590558217
 21
-892.0563181269802
 31
0.0
  0
LINE
  5
76D0
330
1F
100
AcDbEntity
  8
LOGO
 62
     6
100
AcDbLine
 10
3872.84570150844
 20
-892.0563181269802
 30
0.0
 11
3756.222590558217
 21
-892.0563181269802
 31
0.0
  0
LINE
  5
76D1
330
1F
100
AcDbEntity
  8
LOGO
 62
     6
100
AcDbLine
 10
4149.474432185501
 20
-892.0563181269802
 30
0.0
 11
4061.634533400591
 21
-892.0563181269802
 31
0.0
  0
LINE
  5
76D2
330
1F
100
AcDbEntity
  8
LOGO
  6
Continuous
 62
     7
100
AcDbLine
 10
3964.308308122948
 20
-775.6191010471609
 30
0.0
 11
3987.481737806272
 21
-775.6191010471609
 31
0.0
  0
LINE
  5
76D3
330
1F
100
AcDbEntity
  8
LOGO
 62
     6
100
AcDbLine
 10
3900.99318821297
 20
-749.1930072129523
 30
0.0
 11
3755.420222690019
 21
-749.1930072129523
 31
0.0
  0
LINE
  5
76D4
330
1F
100
AcDbEntity
  8
LOGO
 62
     6
100
AcDbLine
 10
3900.99318821297
 20
-801.6734071405549
 30
0.0
 11
3755.420222690019
 21
-801.6734071405549
 31
0.0
  0
LINE
  5
76D5
330
1F
100
AcDbEntity
  8
LOGO
 62
     6
100
AcDbLine
 10
3755.420222690019
 20
-749.1930072129523
 30
0.0
 11
3755.420222690019
 21
-801.6734071405549
 31
0.0
  0
LINE
  5
76D6
330
1F
100
AcDbEntity
  8
LOGO
 62
     6
100
AcDbLine
 10
3900.99318821297
 20
-749.1930072129523
 30
0.0
 11
3900.99318821297
 21
-801.6734071405549
 31
0.0
  0
LINE
  5
76D7
330
1F
100
AcDbEntity
  8
LOGO
 62
     6
100
AcDbLine
 10
3828.206705451497
 20
-801.6734071405549
 30
0.0
 11
3828.206705451497
 21
-827.9136071043545
 31
0.0
  0
TEXT
  5
76D8
330
1F
100
AcDbEntity
  8
LOGO
  6
Continuous
 62
     7
100
AcDbText
 10
3773.055166683422
 20
-790.0110960455326
 30
0.0
 40
29.15577773755656
  1
MF101
  7
CHINESET
 72
     1
 11
3830.672536974307
 21
-775.4332071767544
 31
0.0
100
AcDbText
 73
     2
  0
LINE
  5
76D9
330
1F
100
AcDbEntity
  8
LOGO
 62
     6
100
AcDbLine
 10
3872.84570150844
 20
-827.9136071043545
 30
0.0
 11
3756.222590558217
 21
-827.9136071043545
 31
0.0
  0
LINE
  5
76DA
330
1F
100
AcDbEntity
  8
LOGO
 62
     6
100
AcDbLine
 10
4125.341122195218
 20
-749.1930072129523
 30
0.0
 11
3998.313005005574
 21
-749.1930072129523
 31
0.0
  0
LINE
  5
76DB
330
1F
100
AcDbEntity
  8
LOGO
 62
     6
100
AcDbLine
 10
4149.474432185501
 20
-827.9136071043545
 30
0.0
 11
4061.634533400591
 21
-827.9136071043545
 31
0.0
  0
LINE
  5
76DC
330
1F
100
AcDbEntity
  8
LOGO
 62
     6
100
AcDbLine
 10
4125.341122195218
 20
-801.6734071405549
 30
0.0
 11
3998.313005005574
 21
-801.6734071405549
 31
0.0
  0
TEXT
  5
76DD
330
1F
100
AcDbEntity
  8
LOGO
  6
Continuous
 62
     7
100
AcDbText
 10
4021.175185160009
 20
-790.3417244022619
 30
0.0
 40
29.15577773755656
  1
200
  7
CHINESET
 72
     1
 11
4058.661185108296
 21
-775.7638355334836
 31
0.0
100
AcDbText
 73
     2
  0
LINE
  5
76DE
330
1F
100
AcDbEntity
  8
LOGO
 62
     6
100
AcDbLine
 10
3998.313005005574
 20
-749.1930072129523
 30
0.0
 11
3998.313005005574
 21
-801.6734071405549
 31
0.0
  0
TEXT
  5
76DF
330
1F
100
AcDbEntity
  8
LOGO
  6
Continuous
 62
     7
100
AcDbText
 10
4207.601346669625
 20
-790.3417244022619
 30
0.0
 40
29.15577773755656
  1
?
  7
CHINESET
 72
     1
 11
4215.237383696128
 21
-775.7638355334836
 31
0.0
100
AcDbText
 73
     2
  0
LINE
  5
76E0
330
1F
100
AcDbEntity
  8
LOGO
  6
Continuous
 62
     7
100
AcDbLine
 10
4133.456293604045
 20
-775.6191010471609
 30
0.0
 11
4156.629723287386
 21
-775.6191010471609
 31
0.0
  0
LINE
  5
76E1
330
1F
100
AcDbEntity
  8
LOGO
 62
     6
100
AcDbLine
 10
4165.705397921942
 20
-749.1930072129523
 30
0.0
 11
4165.705397921942
 21
-801.6734071405549
 31
0.0
  0
LINE
  5
76E2
330
1F
100
AcDbEntity
  8
LOGO
 62
     6
100
AcDbLine
 10
4125.341122195218
 20
-749.1930072129523
 30
0.0
 11
4125.341122195218
 21
-801.6734071405549
 31
0.0
  0
LINE
  5
76E3
330
1F
100
AcDbEntity
  8
LOGO
 62
     6
100
AcDbLine
 10
4276.145374209221
 20
-827.9136071043545
 30
0.0
 11
4276.145374209221
 21
-892.0563181269795
 31
0.0
  0
LINE
  5
76E4
330
1F
100
AcDbEntity
  8
LOGO
 62
     6
100
AcDbLine
 10
4259.326956123973
 20
-749.1930072129523
 30
0.0
 11
4259.326956123973
 21
-801.6734071405549
 31
0.0
  0
TEXT
  5
76E5
330
1F
100
AcDbEntity
  8
LOGO
 62
     6
100
AcDbText
 10
3272.65880932287
 20
-757.9311315447299
 30
1146.492984948915
 40
17.49346664253393
  1
比例 Scale:
 41
0.9
  7
CHINESET
 72
     4
 11
3328.208375496238
 21
-749.1930072129523
 31
1146.492984948915
100
AcDbText
  0
TEXT
  5
76E6
330
1F
100
AcDbEntity
  8
LOGO
 62
     6
100
AcDbText
 10
3278.773713064435
 20
-792.680600203049
 30
1146.492984948915
 40
17.49346664253393
  1
投影 View:
 41
0.9
  7
CHINESET
 72
     4
 11
3328.208375496238
 21
-784.1799404980218
 31
1146.492984948915
100
AcDbText
  0
TEXT
  5
76E7
330
1F
100
AcDbEntity
  8
LOGO
 62
     6
100
AcDbText
 10
3280.484011812074
 20
-827.9136071043557
 30
1146.492984948915
 40
17.49346664253393
  1
單位 Unit:
 41
0.9
  7
CHINESET
 72
     4
 11
3328.208375496238
 21
-819.1668737830887
 31
1146.492984948915
100
AcDbText
  0
TEXT
  5
76E8
330
1F
100
AcDbEntity
  8
LOGO
  6
Continuous
 62
     6
100
AcDbText
 10
3786.766738664227
 20
-884.7673736925914
 30
1146.492984948915
 40
14.57788886877828
  1
Model
  7
CHINESET
 72
     4
 11
3814.534146033329
 21
-877.4784292582024
 31
1146.492984948915
100
AcDbText
  0
TEXT
  5
76E9
330
1F
100
AcDbEntity
  8
LOGO
  6
Continuous
 62
     6
100
AcDbText
 10
4070.257544468052
 20
-882.337725547795
 30
1146.492984948915
 40
14.57788886877828
  1
output
  7
CHINESET
 72
     4
 11
4104.272618495201
 21
-877.4784292582024
 31
1146.492984948915
100
AcDbText
  0
TEXT
  5
76EA
330
1F
100
AcDbEntity
  8
LOGO
  6
Continuous
 62
     6
100
AcDbText
 10
4198.495830841837
 20
-882.337725547795
 30
1146.492984948915
 40
14.57788886877828
  1
Option
 41
0.8
  7
CHINESET
 72
     4
 11
4224.319519695102
 21
-877.4784292582024
 31
1146.492984948915
100
AcDbText
  0
TEXT
  5
76EB
330
1F
100
AcDbEntity
  8
LOGO
 62
     6
100
AcDbText
 10
3790.723594214324
 20
-859.6865176467014
 30
1146.492984948915
 40
23.32462219004524
  1
型號
  7
CHINESET
 72
     4
 11
3814.534146033329
 21
-848.3226515206458
 31
1146.492984948915
100
AcDbText
  0
TEXT
  5
76EC
330
1F
100
AcDbEntity
  8
LOGO
 62
     6
100
AcDbText
 10
4069.804137688275
 20
-859.9026989383249
 30
1146.492984948915
 40
23.32462219004524
  1
工作力
  7
CHINESET
 72
     4
 11
4104.272618495201
 21
-848.3226515206458
 31
1146.492984948915
100
AcDbText
  0
TEXT
  5
76ED
330
1F
100
AcDbEntity
  8
LOGO
 62
     6
100
AcDbText
 10
4182.159576367435
 20
-859.7936517381254
 30
1146.492984948915
 40
23.32462219004524
  1
選用配件
 41
0.9
  7
CHINESET
 72
     4
 11
4224.319519695102
 21
-848.3226515206458
 31
1146.492984948915
100
AcDbText
  0
LWPOLYLINE
  5
76EE
330
1F
100
AcDbEntity
  8
0
 62
     4
100
AcDbPolyline
 90
        4
 70
     1
 43
0.0
 10
3129.949086880852
 20
-731.6995405704187
 10
4452.434983553831
 20
-731.6995405704187
 10
4452.434983553831
 20
864.7973650805639
 10
3129.949086880852
 20
864.7973650805639
1001
GENIUS_GENREC_14
1002
{
1000
PYDIR
1011
3129.949086880852
1021
864.7973650805639
1031
0.0
1002
}
1002
{
1000
PXDIR
1011
4452.434983553831
1021
-731.6995405704187
1031
0.0
1002
}
1002
{
1000
PORI
1011
3129.949086880852
1021
-731.6995405704187
1031
0.0
1002
}
1002
{
1000
PINS
1011
3129.949086880852
1021
-731.6995405704187
1031
0.0
1002
}
1002
{
1000
PINS2
1011
4452.434983553831
1021
864.7973650805639
1031
0.0
1002
}
1002
{
1000
C
1070
     1
1002
}
1001
GENIUS_GENODEF_13
1002
{
1000
HIER
1070
     0
1002
}
1002
{
1000
MANEDIT
1070
     0
1002
}
1002
{
1000
NOSEL
1070
     0
1002
}
1002
{
1000
BEHIND
1070
     0
1002
}
1002
{
1000
OTHER
1070
     0
1002
}
1002
{
1000
REACTOR
1002
}
1001
GENIUS_GENOBJ-N-REC_13
1002
{
1000
OWNER
1000
GEN
1002
}
  0
SOLID
  5
76EF
330
1F
100
AcDbEntity
  8
LOGO
 62
     5
100
AcDbTrace
 10
3148.098839271268
 20
-807.5799421313099
 30
0.0
 11
3155.662555218926
 21
-807.5799421313124
 31
0.0
 12
3187.221507966095
 22
-735.8550495241209
 32
0.0
 13
3194.785223913754
 23
-735.855049524127
 33
0.0
  0
SOLID
  5
76F0
330
1F
100
AcDbEntity
  8
LOGO
 62
     5
100
AcDbTrace
 10
3158.792368714522
 20
-807.5799421313099
 30
0.0
 11
3166.35608466218
 21
-807.5799421313099
 31
0.0
 12
3194.785223913754
 22
-741.5930409327001
 32
0.0
 13
3187.221507966095
 23
-769.3266660741467
 33
0.0
  0
SOLID
  5
76F1
330
1F
100
AcDbEntity
  8
LOGO
 62
     2
100
AcDbTrace
 10
3155.662555218926
 20
-807.5799421313124
 30
0.0
 11
3158.792368714522
 21
-807.5799421313099
 31
0.0
 12
3194.785223913754
 22
-735.855049524127
 32
0.0
 13
3197.915037409349
 23
-735.855049524127
 33
0.0
  0
SOLID
  5
76F2
330
1F
100
AcDbEntity
  8
LOGO
 62
     5
100
AcDbTrace
 10
3135.972347756796
 20
-833.661721261194
 30
0.0
 11
3138.580525669784
 21
-833.661721261194
 31
0.0
 12
3145.925357677108
 22
-820.6208316962543
 32
0.0
 13
3148.533535590096
 23
-820.6208316962543
 33
0.0
  0
SOLID
  5
76F3
330
1F
100
AcDbEntity
  8
LOGO
 62
     5
100
AcDbTrace
 10
3145.925357677108
 20
-820.6208316962543
 30
0.0
 11
3148.533535590096
 21
-820.6208316962543
 31
0.0
 12
3145.925357677108
 22
-833.661721261194
 32
0.0
 13
3148.533535590096
 23
-833.661721261194
 33
0.0
  0
SOLID
  5
76F4
330
1F
100
AcDbEntity
  8
LOGO
 62
     5
100
AcDbTrace
 10
3145.925357677108
 20
-833.661721261194
 30
0.0
 11
3148.533535590096
 21
-833.661721261194
 31
0.0
 12
3155.878367597421
 22
-820.6208316962543
 32
0.0
 13
3158.486545510409
 23
-820.6208316962543
 33
0.0
  0
SOLID
  5
76F5
330
1F
100
AcDbEntity
  8
LOGO
 62
     5
100
AcDbTrace
 10
3155.878367597421
 20
-820.6208316962543
 30
0.0
 11
3158.486545510409
 21
-820.6208316962543
 31
0.0
 12
3155.878367597421
 22
-833.661721261194
 32
0.0
 13
3158.486545510409
 23
-833.661721261194
 33
0.0
  0
POLYLINE
  5
76F6
330
1F
100
AcDbEntity
  8
LOGO
 62
     5
100
AcDb2dPolyline
 66
     1
 10
0.0
 20
0.0
 30
0.0
 40
2.612357685285066
 41
2.612357685285066
  0
VERTEX
  5
76F7
330
76F6
100
AcDbEntity
  8
LOGO
 62
     5
100
AcDbVertex
100
AcDb2dVertex
 10
3243.30360275379
 20
-825.8371875222318
 30
0.0
 42
1.0
  0
VERTEX
  5
76F8
330
76F6
100
AcDbEntity
  8
LOGO
 62
     5
100
AcDbVertex
100
AcDb2dVertex
 10
3235.466529697946
 20
-825.8371875222318
 30
0.0
 42
1.0
  0
SEQEND
  5
76F9
330
76F6
100
AcDbEntity
  8
LOGO
 62
     5
  0
POLYLINE
  5
76FA
330
1F
100
AcDbEntity
  8
LOGO
 62
     5
100
AcDb2dPolyline
 66
     1
 10
0.0
 20
0.0
 30
0.0
 70
     1
  0
VERTEX
  5
76FB
330
76FA
100
AcDbEntity
  8
LOGO
 62
     5
100
AcDbVertex
100
AcDb2dVertex
 10
3220.693298394637
 20
-827.1412764787244
 30
0.0
 42
1.000000057330635
  0
VERTEX
  5
76FC
330
76FA
100
AcDbEntity
  8
LOGO
 62
     5
100
AcDbVertex
100
AcDb2dVertex
 10
3228.517832133615
 20
-827.1412764787244
 30
0.0
 42
1.000000057330635
  0
SEQEND
  5
76FD
330
76FA
100
AcDbEntity
  8
LOGO
 62
     5
  0
CIRCLE
  5
76FE
330
1F
100
AcDbEntity
  8
LOGO
 62
     5
100
AcDbCircle
 10
3224.605565264126
 20
-827.1412764787244
 30
0.0
 40
3.912266869482917
  0
POLYLINE
  5
76FF
330
1F
100
AcDbEntity
  8
LOGO
 62
     5
100
AcDb2dPolyline
 66
     1
 10
0.0
 20
0.0
 30
0.0
 70
     1
 40
2.612357685285066
 41
2.612357685285066
  0
VERTEX
  5
7700
330
76FF
100
AcDbEntity
  8
LOGO
 62
     5
100
AcDbVertex
100
AcDb2dVertex
 10
3219.380849893552
 20
-827.1412764787244
 30
0.0
 42
1.0
  0
VERTEX
  5
7701
330
76FF
100
AcDbEntity
  8
LOGO
 62
     5
100
AcDbVertex
100
AcDb2dVertex
 10
3229.830280634701
 20
-827.1412764787244
 30
0.0
 42
1.0
  0
SEQEND
  5
7702
330
76FF
100
AcDbEntity
  8
LOGO
 62
     5
  0
LINE
  5
7703
330
1F
100
AcDbEntity
  8
LOGO
 62
     5
100
AcDbLine
 10
3244.601422051851
 20
-833.661721261194
 30
0.0
 11
3244.601422051851
 21
-825.8371875222318
 31
0.0
  0
SOLID
  5
7704
330
1F
100
AcDbEntity
  8
LOGO
 62
     5
100
AcDbTrace
 10
3228.517571315823
 20
-820.6208316962543
 30
0.0
 11
3231.125749228811
 21
-820.6208316962543
 31
0.0
 12
3228.517571315823
 22
-833.661721261194
 32
0.0
 13
3231.125749228811
 23
-833.661721261194
 33
0.0
  0
SOLID
  5
7705
330
1F
100
AcDbEntity
  8
LOGO
 62
     5
100
AcDbTrace
 10
3234.168710399885
 20
-833.661721261194
 30
0.0
 11
3236.776888312888
 21
-833.661721261194
 31
0.0
 12
3234.168710399885
 22
-820.6208316962543
 32
0.0
 13
3236.776888312888
 23
-820.6208316962543
 33
0.0
  0
SOLID
  5
7706
330
1F
100
AcDbEntity
  8
LOGO
 62
     5
100
AcDbTrace
 10
3241.993244138864
 20
-825.8371875222318
 30
0.0
 11
3244.601422051851
 21
-825.8371875222318
 31
0.0
 12
3241.993244138864
 22
-833.661721261194
 32
0.0
 13
3244.601422051851
 23
-833.661721261194
 33
0.0
  0
SOLID
  5
7707
330
1F
100
AcDbEntity
  8
LOGO
 62
     5
100
AcDbTrace
 10
3233.907892608598
 20
-741.5930409327001
 30
0.0
 11
3226.344176660923
 21
-769.3266660741467
 31
0.0
 12
3233.907892608598
 22
-807.5799421313124
 32
0.0
 13
3226.344176660923
 23
-807.5799421313124
 33
0.0
  0
SOLID
  5
7708
330
1F
100
AcDbEntity
  8
LOGO
 62
     5
100
AcDbTrace
 10
3237.037706104177
 20
-807.5799421313124
 30
0.0
 11
3244.601422051851
 21
-807.5799421313124
 31
0.0
 12
3237.037706104177
 22
-735.855049524127
 32
0.0
 13
3244.601422051851
 23
-735.8550495241209
 33
0.0
  0
SOLID
  5
7709
330
1F
100
AcDbEntity
  8
LOGO
 62
     2
100
AcDbTrace
 10
3233.907892608598
 20
-735.8550495241209
 30
0.0
 11
3237.037706104177
 21
-735.855049524127
 31
0.0
 12
3233.907892608598
 22
-807.5799421313124
 32
0.0
 13
3237.037706104177
 23
-807.5799421313124
 33
0.0
  0
POLYLINE
  5
770A
330
1F
100
AcDbEntity
  8
LOGO
 62
     5
100
AcDb2dPolyline
 66
     1
 10
0.0
 20
0.0
 30
0.0
 40
2.612357685285066
 41
2.612357685285066
  0
VERTEX
  5
770B
330
770A
100
AcDbEntity
  8
LOGO
 62
     5
100
AcDbVertex
100
AcDb2dVertex
 10
3205.91954545576
 20
-825.8371875222318
 30
0.0
 42
1.0
  0
VERTEX
  5
770C
330
770A
100
AcDbEntity
  8
LOGO
 62
     5
100
AcDbVertex
100
AcDb2dVertex
 10
3198.082472399915
 20
-825.8371875222318
 30
0.0
 42
1.0
  0
SEQEND
  5
770D
330
770A
100
AcDbEntity
  8
LOGO
 62
     5
  0
POLYLINE
  5
770E
330
1F
100
AcDbEntity
  8
LOGO
 62
     5
100
AcDb2dPolyline
 66
     1
 10
0.0
 20
0.0
 30
0.0
 40
2.612357685285066
 41
2.612357685285066
  0
VERTEX
  5
770F
330
770E
100
AcDbEntity
  8
LOGO
 62
     5
100
AcDbVertex
100
AcDb2dVertex
 10
3213.744079194722
 20
-825.8371875222318
 30
0.0
 42
1.0
  0
VERTEX
  5
7710
330
770E
100
AcDbEntity
  8
LOGO
 62
     5
100
AcDbVertex
100
AcDb2dVertex
 10
3205.907006138878
 20
-825.8371875222318
 30
0.0
 42
1.0
  0
SEQEND
  5
7711
330
770E
100
AcDbEntity
  8
LOGO
 62
     5
  0
POLYLINE
  5
7712
330
1F
100
AcDbEntity
  8
LOGO
 62
     5
100
AcDb2dPolyline
 66
     1
 10
0.0
 20
0.0
 30
0.0
 40
2.612357685285066
 41
2.612357685285066
  0
VERTEX
  5
7713
330
7712
100
AcDbEntity
  8
LOGO
 62
     5
100
AcDbVertex
100
AcDb2dVertex
 10
3176.360021896692
 20
-825.8371875222318
 30
0.0
 42
1.0
  0
VERTEX
  5
7714
330
7712
100
AcDbEntity
  8
LOGO
 62
     5
100
AcDbVertex
100
AcDb2dVertex
 10
3168.522948840848
 20
-825.8371875222318
 30
0.0
 42
1.0
  0
SEQEND
  5
7715
330
7712
100
AcDbEntity
  8
LOGO
 62
     5
  0
SOLID
  5
7716
330
1F
100
AcDbEntity
  8
LOGO
 62
     5
100
AcDbTrace
 10
3167.225129542803
 20
-820.6208316962543
 30
0.0
 11
3169.833307455774
 21
-820.6208316962543
 31
0.0
 12
3167.225129542803
 22
-833.661721261194
 32
0.0
 13
3169.833307455774
 23
-833.661721261194
 33
0.0
  0
SOLID
  5
7717
330
1F
100
AcDbEntity
  8
LOGO
 62
     5
100
AcDbTrace
 10
3175.049663281764
 20
-825.8371875222318
 30
0.0
 11
3177.657841194752
 21
-825.8371875222318
 31
0.0
 12
3175.049663281764
 22
-833.661721261194
 32
0.0
 13
3177.657841194752
 23
-833.661721261194
 33
0.0
  0
POLYLINE
  5
7718
330
1F
100
AcDbEntity
  8
LOGO
 62
     5
100
AcDb2dPolyline
 66
     1
 10
0.0
 20
0.0
 30
0.0
 70
     1
 40
2.612357685285066
 41
2.612357685285066
  0
VERTEX
  5
7719
330
7718
100
AcDbEntity
  8
LOGO
 62
     5
100
AcDbVertex
100
AcDb2dVertex
 10
3181.996792595521
 20
-827.1412764787244
 30
0.0
 42
1.0
  0
VERTEX
  5
771A
330
7718
100
AcDbEntity
  8
LOGO
 62
     5
100
AcDbVertex
100
AcDb2dVertex
 10
3192.446223336669
 20
-827.1412764787244
 30
0.0
 42
1.0
  0
SEQEND
  5
771B
330
7718
100
AcDbEntity
  8
LOGO
 62
     5
  0
SOLID
  5
771C
330
1F
100
AcDbEntity
  8
LOGO
 62
     5
100
AcDbTrace
 10
3191.133514017792
 20
-816.7085648267688
 30
0.0
 11
3193.74169193078
 21
-816.7085648267688
 31
0.0
 12
3191.133514017792
 22
-833.661721261194
 32
0.0
 13
3193.74169193078
 23
-833.661721261194
 33
0.0
  0
SOLID
  5
771D
330
1F
100
AcDbEntity
  8
LOGO
 62
     5
100
AcDbTrace
 10
3196.784653101854
 20
-820.6208316962543
 30
0.0
 11
3199.392831014859
 21
-820.6208316962543
 31
0.0
 12
3196.784653101854
 22
-833.661721261194
 32
0.0
 13
3199.392831014859
 23
-833.661721261194
 33
0.0
  0
SOLID
  5
771E
330
1F
100
AcDbEntity
  8
LOGO
 62
     5
100
AcDbTrace
 10
3204.609186840833
 20
-825.8371875222318
 30
0.0
 11
3207.21736475382
 21
-825.8371875222318
 31
0.0
 12
3204.609186840833
 22
-833.661721261194
 32
0.0
 13
3207.21736475382
 23
-833.661721261194
 33
0.0
  0
SOLID
  5
771F
330
1F
100
AcDbEntity
  8
LOGO
 62
     5
100
AcDbTrace
 10
3212.433720579797
 20
-825.8371875222318
 30
0.0
 11
3215.041898492782
 21
-825.8371875222318
 31
0.0
 12
3212.433720579797
 22
-833.6617212611994
 32
0.0
 13
3215.041898492782
 23
-833.6617212611994
 33
0.0
  0
SOLID
  5
7720
330
1F
100
AcDbEntity
  8
LOGO
 62
     5
100
AcDbTrace
 10
3161.573990458725
 20
-818.7951071571633
 30
0.0
 11
3164.182168371713
 21
-818.7951071571633
 31
0.0
 12
3161.573990458725
 22
-816.7085648267688
 32
0.0
 13
3164.182168371713
 23
-816.7085648267688
 33
0.0
  0
SOLID
  5
7721
330
1F
100
AcDbEntity
  8
LOGO
 62
     5
100
AcDbTrace
 10
3161.573990458725
 20
-820.6208316962543
 30
0.0
 11
3164.182168371713
 21
-820.6208316962543
 31
0.0
 12
3161.573990458725
 22
-833.6617212611994
 32
0.0
 13
3164.182168371713
 23
-833.661721261194
 33
0.0
  0
SOLID
  5
7722
330
1F
100
AcDbEntity
  8
LOGO
 62
     5
100
AcDbTrace
 10
3187.221507966095
 20
-807.5799421313099
 30
0.0
 11
3194.785223913754
 21
-807.5799421313099
 31
0.0
 12
3187.221507966095
 22
-769.3266660741467
 32
0.0
 13
3194.785223913754
 23
-741.5930409327001
 33
0.0
  0
SOLID
  5
7723
330
1F
100
AcDbEntity
  8
LOGO
 62
     5
100
AcDbTrace
 10
3197.915037409349
 20
-735.855049524127
 30
0.0
 11
3205.478753357024
 21
-735.8550495241209
 31
0.0
 12
3197.915037409349
 22
-801.8419507227367
 32
0.0
 13
3205.478753357024
 23
-774.10832558129
 33
0.0
  0
SOLID
  5
7724
330
1F
100
AcDbEntity
  8
LOGO
 62
     2
100
AcDbTrace
 10
3194.785223913754
 20
-735.855049524127
 30
0.0
 11
3197.915037409349
 21
-735.855049524127
 31
0.0
 12
3194.785223913754
 22
-807.5799421313099
 32
0.0
 13
3197.915037409349
 23
-807.5799421313099
 33
0.0
  0
SOLID
  5
7725
330
1F
100
AcDbEntity
  8
LOGO
 62
     5
100
AcDbTrace
 10
3197.915037409349
 20
-801.8419507227367
 30
0.0
 11
3205.478753357024
 21
-774.10832558129
 31
0.0
 12
3233.907892608598
 22
-735.8550495241209
 32
0.0
 13
3226.344176660923
 23
-735.8550495241209
 33
0.0
  0
SOLID
  5
7726
330
1F
100
AcDbEntity
  8
LOGO
 62
     5
100
AcDbTrace
 10
3197.915037409349
 20
-807.5799421313099
 30
0.0
 11
3205.478753357024
 21
-807.5799421313099
 31
0.0
 12
3233.907892608598
 22
-741.5930409327001
 32
0.0
 13
3226.344176660923
 23
-769.3266660741467
 33
0.0
  0
SOLID
  5
7727
330
1F
100
AcDbEntity
  8
LOGO
 62
     2
100
AcDbTrace
 10
3194.785223913754
 20
-807.5799421313099
 30
0.0
 11
3197.915037409349
 21
-807.5799421313099
 31
0.0
 12
3233.907892608598
 22
-735.8550495241209
 32
0.0
 13
3237.037706104177
 23
-735.855049524127
 33
0.0
  0
TEXT
  5
7728
330
1F
100
AcDbEntity
  8
0
100
AcDbText
 10
3524.779791625868
 20
-897.3277517875375
 30
0.0
 40
14.58720251999999
  1
1050701
 41
0.8
  7
CHINESET
 72
     1
 11
3558.399820291011
 21
-897.3277517875375
 31
0.0
100
AcDbText
  0
LINE
  5
7729
330
1F
100
AcDbEntity
  8
LOGO
 62
     1
100
AcDbLine
 10
3603.407360592591
 20
-871.6472737106895
 30
0.0
 11
3603.407360592591
 21
-906.6342069957581
 31
0.0
  0
LINE
  5
772A
330
1F
100
AcDbEntity
  8
LOGO
 62
     1
100
AcDbLine
 10
3603.407360592591
 20
-871.6472737106895
 30
0.0
 11
3514.805353016601
 21
-871.6472737106895
 31
0.0
  0
LWPOLYLINE
  5
772B
330
1F
100
AcDbEntity
  8
0
 62
     1
100
AcDbPolyline
 90
        4
 70
     1
 43
0.0
 10
3129.949086880852
 20
-731.6995405704187
 10
4452.434983553831
 20
-731.6995405704187
 10
4452.434983553831
 20
-906.6342069957581
 10
3129.949086880852
 20
-906.6342069957581
1001
GENIUS_GENREC_14
1002
{
1000
PYDIR
1011
3129.949086880852
1021
-906.6342069957581
1031
0.0
1002
}
1002
{
1000
PXDIR
1011
4452.434983553831
1021
-731.6995405704187
1031
0.0
1002
}
1002
{
1000
PORI
1011
3129.949086880852
1021
-731.6995405704187
1031
0.0
1002
}
1002
{
1000
PINS
1011
3129.949086880852
1021
-731.6995405704187
1031
0.0
1002
}
1002
{
1000
PINS2
1011
4452.434983553831
1021
-906.6342069957581
1031
0.0
1002
}
1002
{
1000
C
1070
     1
1002
}
1001
GENIUS_GENOBJ-N-REC_13
1002
{
1000
OWNER
1000
GEN
1002
}
1001
GENIUS_GENODEF_13
1002
{
1000
HIER
1070
     0
1002
}
1002
{
1000
MANEDIT
1070
     0
1002
}
1002
{
1000
NOSEL
1070
     0
1002
}
1002
{
1000
BEHIND
1070
     0
1002
}
1002
{
1000
OTHER
1070
     0
1002
}
1002
{
1000
REACTOR
1002
}
  0
LINE
  5
772C
330
1F
100
AcDbEntity
  8
LOGO
 62
     6
100
AcDbLine
 10
4052.227223687316
 20
-827.9136071043545
 30
0.0
 11
4052.227223687316
 21
-892.0563181269802
 31
0.0
  0
LINE
  5
772D
330
1F
100
AcDbEntity
  8
LOGO
 62
     6
100
AcDbLine
 10
3885.927202545018
 20
-827.9136071043545
 30
0.0
 11
3885.927202545018
 21
-892.0563181269802
 31
0.0
  0
LINE
  5
772E
330
1F
100
AcDbEntity
  8
LOGO
 62
     6
100
AcDbLine
 10
4052.227223687316
 20
-892.0563181269802
 30
0.0
 11
3885.927202545018
 21
-892.0563181269802
 31
0.0
  0
LINE
  5
772F
330
1F
100
AcDbEntity
  8
LOGO
 62
     6
100
AcDbLine
 10
3951.459289932213
 20
-749.1930072129523
 30
0.0
 11
3907.967227963897
 21
-749.1930072129523
 31
0.0
  0
LINE
  5
7730
330
1F
100
AcDbEntity
  8
LOGO
 62
     6
100
AcDbLine
 10
3951.459289932213
 20
-801.6734071405549
 30
0.0
 11
3907.967227963897
 21
-801.6734071405549
 31
0.0
  0
LINE
  5
7731
330
1F
100
AcDbEntity
  8
LOGO
 62
     6
100
AcDbLine
 10
3907.967227963897
 20
-749.1930072129523
 30
0.0
 11
3907.967227963897
 21
-801.6734071405549
 31
0.0
  0
LINE
  5
7732
330
1F
100
AcDbEntity
  8
LOGO
 62
     6
100
AcDbLine
 10
3951.459289932213
 20
-749.1930072129523
 30
0.0
 11
3951.459289932213
 21
-801.6734071405549
 31
0.0
  0
LINE
  5
7733
330
1F
100
AcDbEntity
  8
LOGO
 62
     6
100
AcDbLine
 10
3969.077213116167
 20
-814.7935071224548
 30
0.0
 11
3969.077213116167
 21
-827.9136071043545
 31
0.0
  0
TEXT
  5
7734
330
1F
100
AcDbEntity
  8
LOGO
  6
Continuous
 62
     7
100
AcDbText
 10
3917.426377295575
 20
-790.0110960455326
 30
0.0
 40
29.15577773755656
  1
A
  7
CHINESET
 72
     1
 11
3928.533340243216
 21
-775.4332071767544
 31
0.0
100
AcDbText
 73
     2
  0
LINE
  5
7735
330
1F
100
AcDbEntity
  8
LOGO
 62
     6
100
AcDbLine
 10
4052.227223687316
 20
-827.9136071043545
 30
0.0
 11
3885.927202545018
 21
-827.9136071043545
 31
0.0
  0
TEXT
  5
7736
330
1F
100
AcDbEntity
  8
LOGO
  6
Continuous
 62
     6
100
AcDbText
 10
3894.115776859136
 20
-882.337725547795
 30
1146.492984948915
 40
14.57788886877828
  1
Series symbol
  7
CHINESET
 72
     4
 11
3968.393591571482
 21
-877.4784292582024
 31
1146.492984948915
100
AcDbText
  0
TEXT
  5
7737
330
1F
100
AcDbEntity
  8
LOGO
 62
     6
100
AcDbText
 10
3920.772487933473
 20
-859.6865176467014
 30
1146.492984948915
 40
23.32462219004524
  1
系列編號
  7
CHINESET
 72
     4
 11
3968.393591571482
 21
-848.3226515206458
 31
1146.492984948915
100
AcDbText
  0
LINE
  5
7738
330
1F
100
AcDbEntity
  8
LOGO
 62
     6
100
AcDbLine
 10
3969.077213116167
 20
-814.7935071224548
 30
0.0
 11
3929.713258948056
 21
-814.7935071224548
 31
0.0
  0
LINE
  5
7739
330
1F
100
AcDbEntity
  8
LOGO
 62
     6
100
AcDbLine
 10
3929.713258948056
 20
-801.6734071405549
 30
0.0
 11
3929.713258948056
 21
-814.7935071224548
 31
0.0
  0
LINE
  5
773A
330
1F
100
AcDbEntity
  8
LOGO
 62
     6
100
AcDbLine
 10
4105.554482793047
 20
-814.7935071224548
 30
0.0
 11
4105.554482793047
 21
-827.9136071043545
 31
0.0
  0
LINE
  5
773B
330
1F
100
AcDbEntity
  8
LOGO
 62
     6
100
AcDbLine
 10
4105.554482793047
 20
-814.7935071224548
 30
0.0
 11
4061.827063600396
 21
-814.7935071224548
 31
0.0
  0
LINE
  5
773C
330
1F
100
AcDbEntity
  8
LOGO
 62
     6
100
AcDbLine
 10
4061.827063600396
 20
-801.6734071405549
 30
0.0
 11
4061.827063600396
 21
-814.7935071224548
 31
0.0
  0
LINE
  5
773D
330
1F
100
AcDbEntity
  8
LOGO
 62
     6
100
AcDbLine
 10
4212.516177022957
 20
-801.6734071405549
 30
0.0
 11
4212.516177022957
 21
-827.9136071043545
 31
0.0
  0
LINE
  5
77D1
330
1F
100
AcDbEntity
  8
圖層4尺寸線
100
AcDbLine
 10
3565.321295473387
 20
-46.22526657733999
 30
0.0
 11
3527.321295473387
 21
-46.22526657733999
 31
0.0
  0
LINE
  5
77D2
330
1F
100
AcDbEntity
  8
圖層4尺寸線
100
AcDbLine
 10
3565.321295473387
 20
-34.22526657734
 30
0.0
 11
3527.321295473387
 21
-34.22526657734
 31
0.0
  0
LINE
  5
77D3
330
1F
100
AcDbEntity
  8
圖層4尺寸線
100
AcDbLine
 10
3571.321295473386
 20
-55.22526657733999
 30
0.0
 11
3521.321295473387
 21
-55.22526657733999
 31
0.0
  0
LINE
  5
77D4
330
1F
100
AcDbEntity
  8
圖層4尺寸線
100
AcDbLine
 10
3571.321295473386
 20
-30.22526657734
 30
0.0
 11
3521.321295473387
 21
-30.22526657734
 31
0.0
  0
TEXT
  5
77D5
330
1F
100
AcDbEntity
  8
圖層4尺寸線
100
AcDbText
 10
3510.356661744186
 20
-138.2154084570275
 30
0.0
 40
5.0
  1
電源開關       緊急停止
  7
WIN
 72
     4
 11
3546.890091976745
 21
-135.9770363640042
 31
0.0
100
AcDbText
  0
LWPOLYLINE
  5
77D6
330
1F
100
AcDbEntity
  8
圖層4尺寸線
100
AcDbPolyline
 90
        4
 70
     1
 43
0.0
 10
3503.022380608815
 20
-129.5034780315555
 10
3590.757803344675
 20
-129.5034780315555
 10
3590.757803344675
 20
-142.4505946964533
 10
3503.022380608815
 20
-142.4505946964533
  0
LINE
  5
77D7
330
1F
100
AcDbEntity
  8
圖層4尺寸線
100
AcDbLine
 10
3535.913489112841
 20
-109.5308971067198
 30
0.0
 11
3544.308446641532
 21
-100.9893207344036
 31
0.0
  0
LINE
  5
77D8
330
1F
100
AcDbEntity
  8
圖層4尺寸線
100
AcDbLine
 10
3528.321295473386
 20
-123.22526657734
 30
0.0
 11
3564.321295473386
 21
-123.22526657734
 31
0.0
  0
LINE
  5
77D9
330
1F
100
AcDbEntity
  8
圖層4尺寸線
100
AcDbLine
 10
3528.321295473386
 20
-75.22526657733999
 30
0.0
 11
3564.321295473386
 21
-75.22526657733999
 31
0.0
  0
CIRCLE
  5
77DA
330
1F
100
AcDbEntity
  8
圖層4尺寸線
100
AcDbCircle
 10
3546.321295473386
 20
-96.22526657733999
 30
0.0
 40
5.0
  0
CIRCLE
  5
77DB
330
1F
100
AcDbEntity
  8
圖層4尺寸線
100
AcDbCircle
 10
3546.321295473386
 20
-96.22526657733999
 30
0.0
 40
17.0
  0
CIRCLE
  5
77DC
330
1F
100
AcDbEntity
  8
圖層4尺寸線
100
AcDbCircle
 10
3546.321295473386
 20
-10.22526657733999
 30
0.0
 40
5.0
  0
LINE
  5
77DD
330
1F
100
AcDbEntity
  8
圖層4尺寸線
100
AcDbLine
 10
3524.321295473387
 20
-71.22526657733999
 30
0.0
 11
3568.321295473386
 21
-71.22526657733999
 31
0.0
  0
LINE
  5
77DE
330
1F
100
AcDbEntity
  8
圖層4尺寸線
100
AcDbLine
 10
3524.321295473387
 20
-127.22526657734
 30
0.0
 11
3568.321295473386
 21
-127.22526657734
 31
0.0
  0
LINE
  5
77DF
330
1F
100
AcDbEntity
  8
圖層4尺寸線
100
AcDbLine
 10
3598.321295473386
 20
9.774733422660005
 30
0.0
 11
3494.321295473387
 21
9.774733422660005
 31
0.0
  0
LINE
  5
77E0
330
1F
100
AcDbEntity
  8
圖層4尺寸線
100
AcDbLine
 10
3494.321295473387
 20
-192.22526657734
 30
0.0
 11
3598.321295473386
 21
-192.22526657734
 31
0.0
  0
LINE
  5
77E1
330
1F
100
AcDbEntity
  8
圖層4尺寸線
100
AcDbLine
 10
3528.321295473386
 20
-123.22526657734
 30
0.0
 11
3528.321295473386
 21
-75.22526657733999
 31
0.0
  0
LINE
  5
77E2
330
1F
100
AcDbEntity
  8
圖層4尺寸線
100
AcDbLine
 10
3524.321295473387
 20
-127.22526657734
 30
0.0
 11
3524.321295473387
 21
-71.22526657733999
 31
0.0
  0
LINE
  5
77E3
330
1F
100
AcDbEntity
  8
圖層4尺寸線
100
AcDbLine
 10
3494.321295473387
 20
9.774733422660005
 30
0.0
 11
3494.321295473387
 21
-192.22526657734
 31
0.0
  0
LINE
  5
77E4
330
1F
100
AcDbEntity
  8
圖層4尺寸線
100
AcDbLine
 10
3527.237333438205
 20
-161.5204810867614
 30
0.0
 11
3528.209346093146
 21
-165.5421668932673
 31
0.0
  0
LINE
  5
77E5
330
1F
100
AcDbEntity
  8
圖層4尺寸線
100
AcDbLine
 10
3521.405257508567
 20
-161.5204810867614
 30
0.0
 11
3520.433244853627
 21
-165.5421668932673
 31
0.0
  0
CIRCLE
  5
77E6
330
1F
100
AcDbEntity
  8
圖層4尺寸線
100
AcDbCircle
 10
3524.321295473387
 20
-166.481880880705
 30
0.0
 40
4.0
  0
ARC
  5
77E7
330
1F
100
AcDbEntity
  8
圖層4尺寸線
100
AcDbCircle
 10
3524.321295473387
 20
-162.22526657734
 30
0.0
 40
12.0
100
AcDbArc
 50
131.8103148958004
 51
228.1896851041996
  0
ARC
  5
77E8
330
1F
100
AcDbEntity
  8
圖層4尺寸線
100
AcDbCircle
 10
3524.321295473387
 20
-162.22526657734
 30
0.0
 40
12.0
100
AcDbArc
 50
311.8103148958005
 51
48.18968510419955
  0
LWPOLYLINE
  5
77E9
330
1F
100
AcDbEntity
  8
圖層4尺寸線
100
AcDbPolyline
 90
        7
 70
     0
 43
0.0
 10
3527.918417023288
 20
-168.2313712508513
 10
3531.321295473386
 20
-166.2667184616672
 10
3531.321295473386
 20
-158.1838146930128
 10
3524.321295473387
 20
-154.1423628086851
 10
3517.321295473387
 20
-158.1838146930128
 10
3517.321295473387
 20
-166.2667184616672
 10
3520.724173923485
 20
-168.2313712508513
  0
ARC
  5
77EA
330
1F
100
AcDbEntity
  8
圖層4尺寸線
100
AcDbCircle
 10
3524.321295473387
 20
-162.22526657734
 30
0.0
 40
7.0
100
AcDbArc
 50
300.9291072523188
 51
239.0708927476812
  0
ARC
  5
77EB
330
1F
100
AcDbEntity
  8
圖層4尺寸線
100
AcDbCircle
 10
3524.321295473387
 20
-162.22526657734
 30
0.0
 40
6.0
100
AcDbArc
 50
311.732101375724
 51
228.267898624276
  0
ARC
  5
77EC
330
1F
100
AcDbEntity
  8
圖層4尺寸線
100
AcDbCircle
 10
3502.321295473386
 20
-179.22526657734
 30
0.0
 40
2.0
100
AcDbArc
 50
240.0000000000002
 51
299.9999999999989
  0
ARC
  5
77ED
330
1F
100
AcDbEntity
  8
圖層4尺寸線
100
AcDbCircle
 10
3502.321295473386
 20
-179.22526657734
 30
0.0
 40
2.0
100
AcDbArc
 50
60.00000000000109
 51
119.9999999999997
  0
CIRCLE
  5
77EE
330
1F
100
AcDbEntity
  8
圖層4尺寸線
100
AcDbCircle
 10
3502.321295473386
 20
-179.22526657734
 30
0.0
 40
4.0
  0
LINE
  5
77EF
330
1F
100
AcDbEntity
  8
圖層4尺寸線
100
AcDbLine
 10
3501.321295473387
 20
-178.22526657734
 30
0.0
 11
3501.321295473387
 21
-177.4932157697709
 31
0.0
  0
LINE
  5
77F0
330
1F
100
AcDbEntity
  8
圖層4尺寸線
100
AcDbLine
 10
3501.321295473387
 20
-180.957317384909
 30
0.0
 11
3501.321295473387
 21
-180.22526657734
 31
0.0
  0
LINE
  5
77F1
330
1F
100
AcDbEntity
  8
圖層4尺寸線
100
AcDbLine
 10
3501.321295473387
 20
-178.22526657734
 30
0.0
 11
3498.967193507136
 21
-178.22526657734
 31
0.0
  0
LINE
  5
77F2
330
1F
100
AcDbEntity
  8
圖層4尺寸線
100
AcDbLine
 10
3501.321295473387
 20
-180.22526657734
 30
0.0
 11
3498.967193507136
 21
-180.22526657734
 31
0.0
  0
ARC
  5
77F3
330
1F
100
AcDbEntity
  8
圖層4尺寸線
100
AcDbCircle
 10
3502.321295473386
 20
-179.22526657734
 30
0.0
 40
3.5
100
AcDbArc
 50
163.398450400989
 51
196.6015495990109
  0
TEXT
  5
77F4
330
1F
100
AcDbEntity
  8
圖層4尺寸線
100
AcDbText
 10
3519.193388496642
 20
-176.0217782052469
 30
0.0
 40
4.0
  1
OFF
  7
WIN
 72
     4
 11
3524.321295473387
 21
-174.22526657734
 31
0.0
100
AcDbText
  0
LINE
  5
77F5
330
1F
100
AcDbEntity
  8
圖層4尺寸線
100
AcDbLine
 10
3519.321295473387
 20
-179.22526657734
 30
0.0
 11
3529.321295473386
 21
-179.22526657734
 31
0.0
  0
LINE
  5
77F6
330
1F
100
AcDbEntity
  8
圖層4尺寸線
100
AcDbLine
 10
3516.321295473387
 20
-172.4233056045256
 30
0.0
 11
3516.321295473387
 21
-176.22526657734
 31
0.0
  0
LINE
  5
77F7
330
1F
100
AcDbEntity
  8
圖層4尺寸線
100
AcDbLine
 10
3503.321295473386
 20
-178.22526657734
 30
0.0
 11
3503.321295473386
 21
-177.4932157697709
 31
0.0
  0
LINE
  5
77F8
330
1F
100
AcDbEntity
  8
圖層4尺寸線
100
AcDbLine
 10
3503.321295473386
 20
-180.957317384909
 30
0.0
 11
3503.321295473386
 21
-180.22526657734
 31
0.0
  0
LINE
  5
77F9
330
1F
100
AcDbEntity
  8
圖層4尺寸線
100
AcDbLine
 10
3505.675397439637
 20
-180.22526657734
 30
0.0
 11
3503.321295473386
 21
-180.22526657734
 31
0.0
  0
LINE
  5
77FA
330
1F
100
AcDbEntity
  8
圖層4尺寸線
100
AcDbLine
 10
3505.675397439637
 20
-178.22526657734
 30
0.0
 11
3503.321295473386
 21
-178.22526657734
 31
0.0
  0
ARC
  5
77FB
330
1F
100
AcDbEntity
  8
圖層4尺寸線
100
AcDbCircle
 10
3502.321295473386
 20
-179.22526657734
 30
0.0
 40
3.5
100
AcDbArc
 50
343.3984504009891
 51
16.60154959901094
  0
ARC
  5
77FC
330
1F
100
AcDbEntity
  8
圖層4尺寸線
100
AcDbCircle
 10
3519.321295473387
 20
-176.22526657734
 30
0.0
 40
3.0
100
AcDbArc
 50
180.0
 51
270.0
  0
ARC
  5
77FD
330
1F
100
AcDbEntity
  8
圖層4尺寸線
100
AcDbCircle
 10
3513.321295473387
 20
-172.4233056045256
 30
0.0
 40
3.0
100
AcDbArc
 50
0.0
 51
42.83342806604767
  0
ARC
  5
77FE
330
1F
100
AcDbEntity
  8
圖層4尺寸線
100
AcDbCircle
 10
3513.321295473387
 20
-172.4233056045256
 30
0.0
 40
3.0
100
AcDbArc
 50
0.0
 51
42.83342806604767
  0
LINE
  5
77FF
330
1F
100
AcDbEntity
  8
圖層4尺寸線
100
AcDbLine
 10
3532.321295473386
 20
-172.4233056045256
 30
0.0
 11
3532.321295473386
 21
-176.22526657734
 31
0.0
  0
ARC
  5
7800
330
1F
100
AcDbEntity
  8
圖層4尺寸線
100
AcDbCircle
 10
3529.321295473386
 20
-176.22526657734
 30
0.0
 40
3.0
100
AcDbArc
 50
270.0
 51
0.0
  0
ARC
  5
7801
330
1F
100
AcDbEntity
  8
圖層4尺寸線
100
AcDbCircle
 10
3535.321295473386
 20
-172.4233056045256
 30
0.0
 40
3.0
100
AcDbArc
 50
137.1665719339523
 51
180.0
  0
ARC
  5
7802
330
1F
100
AcDbEntity
  8
圖層4尺寸線
100
AcDbCircle
 10
3529.321295473386
 20
-148.22526657734
 30
0.0
 40
3.0
100
AcDbArc
 50
0.0
 51
90.0
  0
ARC
  5
7803
330
1F
100
AcDbEntity
  8
圖層4尺寸線
100
AcDbCircle
 10
3519.321295473387
 20
-148.22526657734
 30
0.0
 40
3.0
100
AcDbArc
 50
90.0
 51
180.0
  0
TEXT
  5
7804
330
1F
100
AcDbEntity
  8
圖層4尺寸線
100
AcDbText
 10
3520.286411752457
 20
-152.0217782052469
 30
0.0
 40
4.0
  1
ON
  7
WIN
 72
     4
 11
3524.321295473387
 21
-150.22526657734
 31
0.0
100
AcDbText
  0
LINE
  5
7805
330
1F
100
AcDbEntity
  8
圖層4尺寸線
100
AcDbLine
 10
3519.321295473387
 20
-145.22526657734
 30
0.0
 11
3529.321295473386
 21
-145.22526657734
 31
0.0
  0
ARC
  5
7806
330
1F
100
AcDbEntity
  8
圖層4尺寸線
100
AcDbCircle
 10
3524.321295473387
 20
-162.22526657734
 30
0.0
 40
3.0
100
AcDbArc
 50
13.5874079475494
 51
166.4125920524506
  0
ARC
  5
7807
330
1F
100
AcDbEntity
  8
圖層4尺寸線
100
AcDbCircle
 10
3513.321295473387
 20
-152.0272275501544
 30
0.0
 40
3.0
100
AcDbArc
 50
317.1665719339523
 51
0.0
  0
LINE
  5
7808
330
1F
100
AcDbEntity
  8
圖層4尺寸線
100
AcDbLine
 10
3516.321295473387
 20
-148.22526657734
 30
0.0
 11
3516.321295473387
 21
-152.0272275501544
 31
0.0
  0
ARC
  5
7809
330
1F
100
AcDbEntity
  8
圖層4尺寸線
100
AcDbCircle
 10
3535.321295473386
 20
-152.0272275501544
 30
0.0
 40
3.0
100
AcDbArc
 50
180.0
 51
222.8334280660476
  0
LINE
  5
780A
330
1F
100
AcDbEntity
  8
圖層4尺寸線
100
AcDbLine
 10
3532.321295473386
 20
-148.22526657734
 30
0.0
 11
3532.321295473386
 21
-152.0272275501544
 31
0.0
  0
LINE
  5
780B
330
1F
100
AcDbEntity
  8
圖層4尺寸線
100
AcDbLine
 10
3542.048265888038
 20
-99.37770218578283
 30
0.0
 11
3535.913489112841
 21
-109.5308971067198
 31
0.0
  0
LWPOLYLINE
  5
780C
330
1F
100
AcDbEntity
  8
圖層4尺寸線
100
AcDbPolyline
 90
        4
 70
     1
 43
0.0
 10
3530.321295473387
 20
-121.22526657734
 10
3536.321295473386
 20
-121.22526657734
 10
3536.321295473386
 20
-115.22526657734
 10
3530.321295473387
 20
-115.22526657734
  0
CIRCLE
  5
780D
330
1F
100
AcDbEntity
  8
圖層4尺寸線
100
AcDbCircle
 10
3502.321295473386
 20
-3.225266577339994
 30
0.0
 40
4.0
  0
LINE
  5
780E
330
1F
100
AcDbEntity
  8
圖層4尺寸線
100
AcDbLine
 10
3527.321295473387
 20
-34.22526657734
 30
0.0
 11
3527.321295473387
 21
-46.22526657733999
 31
0.0
  0
LINE
  5
780F
330
1F
100
AcDbEntity
  8
圖層4尺寸線
100
AcDbLine
 10
3521.321295473387
 20
-30.22526657734
 30
0.0
 11
3521.321295473387
 21
-55.22526657733999
 31
0.0
  0
ARC
  5
7810
330
1F
100
AcDbEntity
  8
圖層4尺寸線
100
AcDbCircle
 10
3502.321295473386
 20
-3.225266577339994
 30
0.0
 40
2.0
100
AcDbArc
 50
60.00000000000109
 51
119.9999999999997
  0
ARC
  5
7811
330
1F
100
AcDbEntity
  8
圖層4尺寸線
100
AcDbCircle
 10
3502.321295473386
 20
-3.225266577339994
 30
0.0
 40
2.0
100
AcDbArc
 50
240.0000000000002
 51
299.9999999999989
  0
ARC
  5
7812
330
1F
100
AcDbEntity
  8
圖層4尺寸線
100
AcDbCircle
 10
3502.321295473386
 20
-3.225266577339994
 30
0.0
 40
3.5
100
AcDbArc
 50
163.398450400989
 51
196.6015495990109
  0
LINE
  5
7813
330
1F
100
AcDbEntity
  8
圖層4尺寸線
100
AcDbLine
 10
3501.321295473387
 20
-4.225266577339994
 30
0.0
 11
3501.321295473387
 21
-4.95731738490906
 31
0.0
  0
LINE
  5
7814
330
1F
100
AcDbEntity
  8
圖層4尺寸線
100
AcDbLine
 10
3501.321295473387
 20
-4.225266577339994
 30
0.0
 11
3498.967193507136
 21
-4.225266577339994
 31
0.0
  0
LINE
  5
7815
330
1F
100
AcDbEntity
  8
圖層4尺寸線
100
AcDbLine
 10
3501.321295473387
 20
-2.225266577339994
 30
0.0
 11
3498.967193507136
 21
-2.225266577339994
 31
0.0
  0
LINE
  5
7816
330
1F
100
AcDbEntity
  8
圖層4尺寸線
100
AcDbLine
 10
3501.321295473387
 20
-1.493215769770927
 30
0.0
 11
3501.321295473387
 21
-2.225266577339994
 31
0.0
  0
ARC
  5
7817
330
1F
100
AcDbEntity
  8
圖層4尺寸線
100
AcDbCircle
 10
3502.321295473386
 20
-3.225266577339994
 30
0.0
 40
3.5
100
AcDbArc
 50
343.3984504009891
 51
16.60154959901094
  0
LINE
  5
7818
330
1F
100
AcDbEntity
  8
圖層4尺寸線
100
AcDbLine
 10
3503.321295473386
 20
-4.225266577339994
 30
0.0
 11
3503.321295473386
 21
-4.95731738490906
 31
0.0
  0
LINE
  5
7819
330
1F
100
AcDbEntity
  8
圖層4尺寸線
100
AcDbLine
 10
3503.321295473386
 20
-1.493215769770927
 30
0.0
 11
3503.321295473386
 21
-2.225266577339994
 31
0.0
  0
LINE
  5
781A
330
1F
100
AcDbEntity
  8
圖層4尺寸線
100
AcDbLine
 10
3505.675397439637
 20
-4.225266577339994
 30
0.0
 11
3503.321295473386
 21
-4.225266577339994
 31
0.0
  0
LINE
  5
781B
330
1F
100
AcDbEntity
  8
圖層4尺寸線
100
AcDbLine
 10
3505.675397439637
 20
-2.225266577339994
 30
0.0
 11
3503.321295473386
 21
-2.225266577339994
 31
0.0
  0
LINE
  5
781C
330
1F
100
AcDbEntity
  8
圖層4尺寸線
100
AcDbLine
 10
3564.321295473386
 20
-123.22526657734
 30
0.0
 11
3564.321295473386
 21
-75.22526657733999
 31
0.0
  0
LINE
  5
781D
330
1F
100
AcDbEntity
  8
圖層4尺寸線
100
AcDbLine
 10
3568.321295473386
 20
-127.22526657734
 30
0.0
 11
3568.321295473386
 21
-71.22526657733999
 31
0.0
  0
LINE
  5
781E
330
1F
100
AcDbEntity
  8
圖層4尺寸線
100
AcDbLine
 10
3598.321295473386
 20
-192.22526657734
 30
0.0
 11
3598.321295473386
 21
9.774733422660005
 31
0.0
  0
LINE
  5
781F
330
1F
100
AcDbEntity
  8
圖層4尺寸線
100
AcDbLine
 10
3568.321295473386
 20
-165.22526657734
 30
0.0
 11
3568.321295473386
 21
-159.22526657734
 31
0.0
  0
CIRCLE
  5
7820
330
1F
100
AcDbEntity
  8
圖層4尺寸線
100
AcDbCircle
 10
3568.321295473386
 20
-162.22526657734
 30
0.0
 40
8.110805357093454
  0
CIRCLE
  5
7821
330
1F
100
AcDbEntity
  8
圖層4尺寸線
100
AcDbCircle
 10
3568.321295473386
 20
-162.22526657734
 30
0.0
 40
7.0
  0
LINE
  5
7822
330
1F
100
AcDbEntity
  8
圖層4尺寸線
100
AcDbLine
 10
3591.321295473387
 20
-180.22526657734
 30
0.0
 11
3593.675397439636
 21
-180.22526657734
 31
0.0
  0
LINE
  5
7823
330
1F
100
AcDbEntity
  8
圖層4尺寸線
100
AcDbLine
 10
3591.321295473387
 20
-178.22526657734
 30
0.0
 11
3593.675397439636
 21
-178.22526657734
 31
0.0
  0
CIRCLE
  5
7824
330
1F
100
AcDbEntity
  8
圖層4尺寸線
100
AcDbCircle
 10
3590.321295473387
 20
-179.22526657734
 30
0.0
 40
4.0
  0
LINE
  5
7825
330
1F
100
AcDbEntity
  8
圖層4尺寸線
100
AcDbLine
 10
3591.321295473387
 20
-180.957317384909
 30
0.0
 11
3591.321295473387
 21
-180.22526657734
 31
0.0
  0
LINE
  5
7826
330
1F
100
AcDbEntity
  8
圖層4尺寸線
100
AcDbLine
 10
3591.321295473387
 20
-178.22526657734
 30
0.0
 11
3591.321295473387
 21
-177.4932157697709
 31
0.0
  0
ARC
  5
7827
330
1F
100
AcDbEntity
  8
圖層4尺寸線
100
AcDbCircle
 10
3590.321295473387
 20
-179.22526657734
 30
0.0
 40
3.5
100
AcDbArc
 50
163.398450400989
 51
196.6015495990109
  0
LINE
  5
7828
330
1F
100
AcDbEntity
  8
圖層4尺寸線
100
AcDbLine
 10
3586.967193507137
 20
-178.22526657734
 30
0.0
 11
3589.321295473386
 21
-178.22526657734
 31
0.0
  0
LINE
  5
7829
330
1F
100
AcDbEntity
  8
圖層4尺寸線
100
AcDbLine
 10
3586.967193507137
 20
-180.22526657734
 30
0.0
 11
3589.321295473386
 21
-180.22526657734
 31
0.0
  0
LINE
  5
782A
330
1F
100
AcDbEntity
  8
圖層4尺寸線
100
AcDbLine
 10
3589.321295473386
 20
-180.957317384909
 30
0.0
 11
3589.321295473386
 21
-180.22526657734
 31
0.0
  0
LINE
  5
782B
330
1F
100
AcDbEntity
  8
圖層4尺寸線
100
AcDbLine
 10
3589.321295473386
 20
-178.22526657734
 30
0.0
 11
3589.321295473386
 21
-177.4932157697709
 31
0.0
  0
ARC
  5
782C
330
1F
100
AcDbEntity
  8
圖層4尺寸線
100
AcDbCircle
 10
3590.321295473387
 20
-179.22526657734
 30
0.0
 40
2.0
100
AcDbArc
 50
60.00000000000109
 51
119.9999999999997
  0
ARC
  5
782D
330
1F
100
AcDbEntity
  8
圖層4尺寸線
100
AcDbCircle
 10
3590.321295473387
 20
-179.22526657734
 30
0.0
 40
2.0
100
AcDbArc
 50
240.0000000000002
 51
299.9999999999989
  0
ARC
  5
782E
330
1F
100
AcDbEntity
  8
圖層4尺寸線
100
AcDbCircle
 10
3590.321295473387
 20
-179.22526657734
 30
0.0
 40
3.5
100
AcDbArc
 50
343.3984504009891
 51
16.60154959901094
  0
LINE
  5
782F
330
1F
100
AcDbEntity
  8
圖層4尺寸線
100
AcDbLine
 10
3565.321295473387
 20
-162.22526657734
 30
0.0
 11
3571.321295473386
 21
-162.22526657734
 31
0.0
  0
LWPOLYLINE
  5
7830
330
1F
100
AcDbEntity
  8
圖層4尺寸線
100
AcDbPolyline
 90
        4
 70
     1
 43
0.0
 10
3556.321295473387
 20
-121.22526657734
 10
3562.321295473387
 20
-121.22526657734
 10
3562.321295473387
 20
-115.22526657734
 10
3556.321295473387
 20
-115.22526657734
  0
CIRCLE
  5
7831
330
1F
100
AcDbEntity
  8
圖層4尺寸線
100
AcDbCircle
 10
3590.321295473387
 20
-3.225266577339994
 30
0.0
 40
4.0
  0
LINE
  5
7832
330
1F
100
AcDbEntity
  8
圖層4尺寸線
100
AcDbLine
 10
3565.321295473387
 20
-46.22526657733999
 30
0.0
 11
3565.321295473387
 21
-34.22526657734
 31
0.0
  0
LINE
  5
7833
330
1F
100
AcDbEntity
  8
圖層4尺寸線
100
AcDbLine
 10
3571.321295473386
 20
-55.22526657733999
 30
0.0
 11
3571.321295473386
 21
-30.22526657734
 31
0.0
  0
LINE
  5
7834
330
1F
100
AcDbEntity
  8
圖層4尺寸線
100
AcDbLine
 10
3559.352109882367
 20
-52.00951005450235
 30
0.0
 11
3567.64561017216
 21
-52.00951005450235
 31
0.0
  0
LINE
  5
7835
330
1F
100
AcDbEntity
  8
圖層4尺寸線
100
AcDbLine
 10
3559.352109882367
 20
-50.00951005450236
 30
0.0
 11
3567.64561017216
 21
-50.00951005450236
 31
0.0
  0
LINE
  5
7836
330
1F
100
AcDbEntity
  8
圖層4尺寸線
100
AcDbLine
 10
3569.72727298012
 20
-54.22526657734
 30
0.0
 11
3557.06578800762
 21
-54.22526657734
 31
0.0
  0
LINE
  5
7837
330
1F
100
AcDbEntity
  8
圖層4尺寸線
100
AcDbLine
 10
3557.06578800762
 20
-47.79375353166471
 30
0.0
 11
3569.727272980119
 21
-47.79375353166471
 31
0.0
  0
LINE
  5
7838
330
1F
100
AcDbEntity
  8
圖層4尺寸線
100
AcDbLine
 10
3560.502391830161
 20
-52.53369789050577
 30
0.0
 11
3560.502391830161
 21
-53.53369789050578
 31
0.0
  0
ARC
  5
7839
330
1F
100
AcDbEntity
  8
圖層4尺寸線
100
AcDbCircle
 10
3560.502391830161
 20
-51.00951005450236
 30
0.0
 40
1.52418783600342
100
AcDbArc
 50
90.0
 51
270.0
  0
ARC
  5
783A
330
1F
100
AcDbEntity
  8
圖層4尺寸線
100
AcDbCircle
 10
3560.502391830161
 20
-51.00951005450236
 30
0.0
 40
2.52418783600342
100
AcDbArc
 50
90.0
 51
270.0
  0
LINE
  5
783B
330
1F
100
AcDbEntity
  8
圖層4尺寸線
100
AcDbLine
 10
3560.502391830161
 20
-48.48532221849893
 30
0.0
 11
3560.502391830161
 21
-49.48532221849894
 31
0.0
  0
LINE
  5
783C
330
1F
100
AcDbEntity
  8
圖層4尺寸線
100
AcDbLine
 10
3557.06578800762
 20
-54.22526657734
 30
0.0
 11
3557.06578800762
 21
-47.79375353166471
 31
0.0
  0
LINE
  5
783D
330
1F
100
AcDbEntity
  8
圖層4尺寸線
100
AcDbLine
 10
3566.495328224366
 20
-52.53369789050577
 30
0.0
 11
3566.495328224366
 21
-53.53369789050578
 31
0.0
  0
ARC
  5
783E
330
1F
100
AcDbEntity
  8
圖層4尺寸線
100
AcDbCircle
 10
3566.495328224366
 20
-51.00951005450236
 30
0.0
 40
1.52418783600342
100
AcDbArc
 50
270.0
 51
90.0
  0
ARC
  5
783F
330
1F
100
AcDbEntity
  8
圖層4尺寸線
100
AcDbCircle
 10
3566.495328224366
 20
-51.00951005450236
 30
0.0
 40
2.52418783600342
100
AcDbArc
 50
270.0
 51
90.0
  0
LINE
  5
7840
330
1F
100
AcDbEntity
  8
圖層4尺寸線
100
AcDbLine
 10
3566.495328224366
 20
-48.48532221849893
 30
0.0
 11
3566.495328224366
 21
-49.48532221849894
 31
0.0
  0
LINE
  5
7841
330
1F
100
AcDbEntity
  8
圖層4尺寸線
100
AcDbLine
 10
3569.727272980119
 20
-47.79375353166471
 30
0.0
 11
3569.72727298012
 21
-54.22526657734
 31
0.0
  0
LINE
  5
7842
330
1F
100
AcDbEntity
  8
圖層4尺寸線
100
AcDbLine
 10
3546.321295473386
 20
-13.22526657733999
 30
0.0
 11
3546.321295473386
 21
-7.225266577339994
 31
0.0
  0
LINE
  5
7843
330
1F
100
AcDbEntity
  8
圖層4尺寸線
100
AcDbLine
 10
3543.321295473386
 20
-10.22526657733999
 30
0.0
 11
3549.321295473387
 21
-10.22526657733999
 31
0.0
  0
CIRCLE
  5
7844
330
1F
100
AcDbEntity
  8
圖層4尺寸線
100
AcDbCircle
 10
3546.321295473386
 20
-10.22526657733999
 30
0.0
 40
3.0
  0
LINE
  5
7845
330
1F
100
AcDbEntity
  8
圖層4尺寸線
100
AcDbLine
 10
3591.321295473387
 20
-4.225266577339994
 30
0.0
 11
3593.675397439636
 21
-4.225266577339994
 31
0.0
  0
LINE
  5
7846
330
1F
100
AcDbEntity
  8
圖層4尺寸線
100
AcDbLine
 10
3591.321295473387
 20
-2.225266577339994
 30
0.0
 11
3593.675397439636
 21
-2.225266577339994
 31
0.0
  0
LINE
  5
7847
330
1F
100
AcDbEntity
  8
圖層4尺寸線
100
AcDbLine
 10
3589.321295473386
 20
-4.225266577339994
 30
0.0
 11
3589.321295473386
 21
-4.95731738490906
 31
0.0
  0
LINE
  5
7848
330
1F
100
AcDbEntity
  8
圖層4尺寸線
100
AcDbLine
 10
3589.321295473386
 20
-1.493215769770927
 30
0.0
 11
3589.321295473386
 21
-2.225266577339994
 31
0.0
  0
LINE
  5
7849
330
1F
100
AcDbEntity
  8
圖層4尺寸線
100
AcDbLine
 10
3586.967193507137
 20
-2.225266577339994
 30
0.0
 11
3589.321295473386
 21
-2.225266577339994
 31
0.0
  0
LINE
  5
784A
330
1F
100
AcDbEntity
  8
圖層4尺寸線
100
AcDbLine
 10
3586.967193507137
 20
-4.225266577339994
 30
0.0
 11
3589.321295473386
 21
-4.225266577339994
 31
0.0
  0
ARC
  5
784B
330
1F
100
AcDbEntity
  8
圖層4尺寸線
100
AcDbCircle
 10
3590.321295473387
 20
-3.225266577339994
 30
0.0
 40
3.5
100
AcDbArc
 50
163.398450400989
 51
196.6015495990109
  0
LINE
  5
784C
330
1F
100
AcDbEntity
  8
圖層4尺寸線
100
AcDbLine
 10
3591.321295473387
 20
-4.225266577339994
 30
0.0
 11
3591.321295473387
 21
-4.95731738490906
 31
0.0
  0
LINE
  5
784D
330
1F
100
AcDbEntity
  8
圖層4尺寸線
100
AcDbLine
 10
3591.321295473387
 20
-1.493215769770927
 30
0.0
 11
3591.321295473387
 21
-2.225266577339994
 31
0.0
  0
ARC
  5
784E
330
1F
100
AcDbEntity
  8
圖層4尺寸線
100
AcDbCircle
 10
3590.321295473387
 20
-3.225266577339994
 30
0.0
 40
2.0
100
AcDbArc
 50
60.00000000000109
 51
119.9999999999997
  0
ARC
  5
784F
330
1F
100
AcDbEntity
  8
圖層4尺寸線
100
AcDbCircle
 10
3590.321295473387
 20
-3.225266577339994
 30
0.0
 40
2.0
100
AcDbArc
 50
240.0000000000002
 51
299.9999999999989
  0
ARC
  5
7850
330
1F
100
AcDbEntity
  8
圖層4尺寸線
100
AcDbCircle
 10
3590.321295473387
 20
-3.225266577339994
 30
0.0
 40
3.5
100
AcDbArc
 50
343.3984504009891
 51
16.60154959901094
  0
ENDSEC
  0
SECTION
  2
OBJECTS
  0
DICTIONARY
  5
C
330
0
100
AcDbDictionary
281
     1
  3
ACAD_COLOR
350
BE
  3
ACAD_GROUP
350
D
  3
ACAD_LAYOUT
350
1A
  3
ACAD_MATERIAL
350
BD
  3
ACAD_MLINESTYLE
350
17
  3
ACAD_PLOTSETTINGS
350
19
  3
ACAD_PLOTSTYLENAME
350
E
  3
ACAD_TABLESTYLE
350
11A
  3
ACDBHEADERROUNDTRIPXREC
350
78D9
  3
AcDbVariableDictionary
350
94
  3
AcmDictionary
350
5B
  3
AMG
350
41
  3
AMGSNAPSETTINGS
350
1B8
  3
DWGPROPS
350
78D8
  0
DICTIONARY
  5
3F9
330
2
100
AcDbDictionary
280
     1
281
     1
  3
ACAD_LAYERFILTERS
360
63AB
  3
ACAD_LAYERSTATES
360
72C
  3
ACLYDICTIONARY
360
63AA
  0
DICTIONARY
  5
8F
330
1F
100
AcDbDictionary
280
     1
281
     1
  0
DICTIONARY
  5
BE
102
{ACAD_REACTORS
330
C
102
}
330
C
100
AcDbDictionary
281
     1
  0
DICTIONARY
  5
D
102
{ACAD_REACTORS
330
C
102
}
330
C
100
AcDbDictionary
281
     1
  0
DICTIONARY
  5
1A
102
{ACAD_REACTORS
330
C
102
}
330
C
100
AcDbDictionary
281
     1
  3
Model
350
22
  3
配置1
350
1E
  3
配置2
350
26
  0
DICTIONARY
  5
BD
102
{ACAD_REACTORS
330
C
102
}
330
C
100
AcDbDictionary
281
     1
  0
DICTIONARY
  5
17
102
{ACAD_REACTORS
330
C
102
}
330
C
100
AcDbDictionary
281
     1
  3
Standard
350
18
  0
DICTIONARY
  5
19
102
{ACAD_REACTORS
330
C
102
}
330
C
100
AcDbDictionary
281
     1
  0
ACDBDICTIONARYWDFLT
  5
E
102
{ACAD_REACTORS
330
C
102
}
330
C
100
AcDbDictionary
281
     1
  3
Normal
350
F
  3
型式 1
350
728
  3
型式 2
350
729
  3
型式 3
350
72A
  3
型式 4
350
72B
100
AcDbDictionaryWithDefault
340
F
  0
DICTIONARY
  5
11A
102
{ACAD_REACTORS
330
C
102
}
330
C
100
AcDbDictionary
281
     1
  3
Standard
350
11B
  0
DICTIONARY
  5
78D9
102
{ACAD_REACTORS
330
C
102
}
330
C
100
AcDbDictionary
281
     1
  0
DICTIONARY
  5
94
102
{ACAD_REACTORS
330
C
102
}
330
C
100
AcDbDictionary
281
     1
  3
CTABLESTYLE
350
138
  3
DIMASSOC
350
96
  3
INDEXCTL
350
95
  3
PROJECTNAME
350
78D6
  0
DICTIONARY
  5
5B
102
{ACAD_REACTORS
330
C
102
}
330
C
100
AcDbDictionary
281
     1
  3
AcmBOM
350
1B5
  3
AcmStdDictionary
350
61
  3
AMDTSECTSYM_ARROWCOLOR
350
123
  0
DICTIONARY
  5
41
102
{ACAD_REACTORS
330
C
102
}
330
C
100
AcDbDictionary
281
     1
  0
DICTIONARY
  5
1B8
102
{ACAD_REACTORS
330
C
102
}
330
C
100
AcDbDictionary
281
     1
  0
XRECORD
  5
78D8
102
{ACAD_REACTORS
330
C
102
}
330
C
100
AcDbXrecord
280
     1
  1
DWGPROPS COOKIE
  2

  3

  4

  6

  7

  8

  9

300
AmdtFileType=84
301
=
302
=
303
=
304
=
305
=
306
=
307
=
308
=
309
=
 40
0.2984895717592593
 41
2453556.605858461
 42
2453557.594973414
  1

 90
        1
  0
DICTIONARY
  5
63AB
102
{ACAD_REACTORS
330
3F9
102
}
330
3F9
100
AcDbDictionary
281
     1
  0
DICTIONARY
  5
72C
102
{ACAD_REACTORS
330
3F9
102
}
330
3F9
100
AcDbDictionary
281
     1
  0
DICTIONARY
  5
63AA
102
{ACAD_REACTORS
330
3F9
102
}
330
3F9
100
AcDbDictionary
281
     1
1001
ACAD
1000
<All
  0
LAYOUT
  5
22
102
{ACAD_XDICTIONARY
360
78DC
102
}
102
{ACAD_REACTORS
330
1A
102
}
330
1A
100
AcDbPlotSettings
  1

  2
\\RD\EPSON Stylus C63 Series單色
  4
A4
  6

 40
3.757083177566528
 41
3.757076978683471
 42
3.757080078125
 43
3.757080078125
 44
209.9733276367187
 45
296.9683227539062
 46
0.0
 47
0.0
 48
0.0
 49
0.0
140
0.0
141
0.0
142
1.0
143
0.3405120737814363
 70
 11952
 72
     1
 73
     0
 74
     0
  7
單色出圖.ctb
 75
     0
147
2.936753428137963
148
-2047.07469463503
149
-1261.649717473083
100
AcDbLayout
  1
Model
 70
     1
 71
     0
 10
0.0
 20
0.0
 11
12.0
 21
9.0
 12
0.0
 22
0.0
 32
0.0
 14
0.0
 24
0.0
 34
0.0
 15
0.0
 25
0.0
 35
0.0
146
0.0
 13
0.0
 23
0.0
 33
0.0
 16
1.0
 26
0.0
 36
0.0
 17
0.0
 27
1.0
 37
0.0
 76
     0
330
1F
1001
ACAD_PSEXT
1000
\\RD\EPSON Stylus C63 Series單色
1000
EPSON Stylus C63 Series
1000
\\RD
1000

1070
     0
  0
LAYOUT
  5
1E
102
{ACAD_XDICTIONARY
360
78DA
102
}
102
{ACAD_REACTORS
330
1A
102
}
330
1A
100
AcDbPlotSettings
  1

  2

  4

  6

 40
0.0
 41
0.0
 42
0.0
 43
0.0
 44
0.0
 45
0.0
 46
0.0
 47
0.0
 48
0.0
 49
0.0
140
0.0
141
0.0
142
1.0
143
1.0
 70
   688
 72
     0
 73
     0
 74
     5
  7
單色出圖.ctb
 75
    16
147
1.0
148
0.0
149
0.0
100
AcDbLayout
  1
配置1
 70
     1
 71
     1
 10
0.0
 20
0.0
 11
420.0
 21
297.0
 12
0.0
 22
0.0
 32
0.0
 14
1.000000000000000E+20
 24
1.000000000000000E+20
 34
1.000000000000000E+20
 15
-1.000000000000000E+20
 25
-1.000000000000000E+20
 35
-1.000000000000000E+20
146
0.0
 13
0.0
 23
0.0
 33
0.0
 16
1.0
 26
0.0
 36
0.0
 17
0.0
 27
1.0
 37
0.0
 76
     0
330
1B
  0
LAYOUT
  5
26
102
{ACAD_XDICTIONARY
360
78DE
102
}
102
{ACAD_REACTORS
330
1A
102
}
330
1A
100
AcDbPlotSettings
  1

  2

  4

  6

 40
0.0
 41
0.0
 42
0.0
 43
0.0
 44
0.0
 45
0.0
 46
0.0
 47
0.0
 48
0.0
 49
0.0
140
0.0
141
0.0
142
1.0
143
1.0
 70
   688
 72
     0
 73
     0
 74
     5
  7
單色出圖.ctb
 75
    16
147
1.0
148
0.0
149
0.0
100
AcDbLayout
  1
配置2
 70
     1
 71
     2
 10
0.0
 20
0.0
 11
12.0
 21
9.0
 12
0.0
 22
0.0
 32
0.0
 14
0.0
 24
0.0
 34
0.0
 15
0.0
 25
0.0
 35
0.0
146
0.0
 13
0.0
 23
0.0
 33
0.0
 16
1.0
 26
0.0
 36
0.0
 17
0.0
 27
1.0
 37
0.0
 76
     0
330
23
  0
MLINESTYLE
  5
18
102
{ACAD_REACTORS
330
17
102
}
330
17
100
AcDbMlineStyle
  2
STANDARD
 70
     0
  3

 62
   256
 51
90.0
 52
90.0
 71
     2
 49
0.5
 62
   256
  6
BYLAYER
 49
-0.5
 62
   256
  6
BYLAYER
  0
ACDBPLACEHOLDER
  5
F
102
{ACAD_REACTORS
330
E
102
}
330
E
  0
ACDBPLACEHOLDER
  5
728
102
{ACAD_REACTORS
330
E
102
}
330
E
  0
ACDBPLACEHOLDER
  5
729
102
{ACAD_REACTORS
330
E
102
}
330
E
  0
ACDBPLACEHOLDER
  5
72A
102
{ACAD_REACTORS
330
E
102
}
330
E
  0
ACDBPLACEHOLDER
  5
72B
102
{ACAD_REACTORS
330
E
102
}
330
E
  0
TABLESTYLE
  5
11B
102
{ACAD_REACTORS
330
11A
102
}
330
11A
100
AcDbTableStyle
  3
Standard
 70
     0
 71
     0
 40
1.5
 41
1.5
280
     0
281
     0
  7
STANDARD
140
4.5
170
     2
 62
     0
 63
     7
283
     0
274
    -2
284
     1
 64
     0
275
    -2
285
     1
 65
     0
276
    -2
286
     1
 66
     0
277
    -2
287
     1
 67
     0
278
    -2
288
     1
 68
     0
279
    -2
289
     1
 69
     0
  7
STANDARD
140
6.0
170
     5
 62
     0
 63
     7
283
     0
274
    -2
284
     1
 64
     0
275
    -2
285
     1
 65
     0
276
    -2
286
     1
 66
     0
277
    -2
287
     1
 67
     0
278
    -2
288
     1
 68
     0
279
    -2
289
     1
 69
     0
  7
STANDARD
140
4.5
170
     5
 62
     0
 63
     7
283
     0
274
    -2
284
     1
 64
     0
275
    -2
285
     1
 65
     0
276
    -2
286
     1
 66
     0
277
    -2
287
     1
 67
     0
278
    -2
288
     1
 68
     0
279
    -2
289
     1
 69
     0
  0
DICTIONARYVAR
  5
138
102
{ACAD_REACTORS
330
94
102
}
330
94
100
DictionaryVariables
280
     0
  1
STANDARD
  0
DICTIONARYVAR
  5
96
102
{ACAD_REACTORS
330
94
102
}
330
94
100
DictionaryVariables
280
     0
  1
2
  0
DICTIONARYVAR
  5
95
102
{ACAD_REACTORS
330
94
102
}
330
94
100
DictionaryVariables
280
     0
  1
0
  0
DICTIONARYVAR
  5
78D6
102
{ACAD_REACTORS
330
94
102
}
330
94
100
DictionaryVariables
280
     0
  1

  0
DICTIONARY
  5
1B5
102
{ACAD_REACTORS
330
5B
102
}
330
5B
100
AcDbDictionary
281
     1
  0
DICTIONARY
  5
61
102
{ACAD_REACTORS
330
5B
102
}
330
5B
100
AcDbDictionary
281
     1
  0
XRECORD
  5
123
102
{ACAD_REACTORS
330
5B
102
}
330
5B
100
AcDbXrecord
280
     1
 90
-1023410169
  0
DICTIONARY
  5
78DC
330
22
100
AcDbDictionary
280
     1
281
     1
  3
ACAD_XREC_ROUNDTRIP
360
78DD
  0
DICTIONARY
  5
78DA
330
1E
100
AcDbDictionary
280
     1
281
     1
  3
ACAD_XREC_ROUNDTRIP
360
78DB
  0
DICTIONARY
  5
78DE
330
26
100
AcDbDictionary
280
     1
281
     1
  3
ACAD_XREC_ROUNDTRIP
360
78DF
  0
XRECORD
  5
78DD
102
{ACAD_REACTORS
330
78DC
102
}
330
78DC
100
AcDbXrecord
280
     1
102
SHADEPLOT
 70
     0
102
SHADEPLOTRESLEVEL
 70
     2
102
SHADEPLOTCUSTOMDPI
 70
   300
  0
XRECORD
  5
78DB
102
{ACAD_REACTORS
330
78DA
102
}
330
78DA
100
AcDbXrecord
280
     1
102
SHADEPLOT
 70
     0
102
SHADEPLOTRESLEVEL
 70
     2
102
SHADEPLOTCUSTOMDPI
 70
   300
  0
XRECORD
  5
78DF
102
{ACAD_REACTORS
330
78DE
102
}
330
78DE
100
AcDbXrecord
280
     1
102
SHADEPLOT
 70
     0
102
SHADEPLOTRESLEVEL
 70
     2
102
SHADEPLOTCUSTOMDPI
 70
   300
  0
ENDSEC
  0
EOF
