  0
SECTION
  2
HEADER
  9
$ACADVER
  1
AC1015
  9
$ACADMAINTVER
 70
    20
  9
$DWGCODEPAGE
  3
ANSI_950
  9
$INSBASE
 10
0.0
 20
0.0
 30
0.0
  9
$EXTMIN
 10
5633.672104592817
 20
1357.210805051766
 30
-0.0349855198919613
  9
$EXTMAX
 10
6956.825537638568
 20
3128.918016307677
 30
1146.527975807581
  9
$LIMMIN
 10
0.0
 20
0.0
  9
$LIMMAX
 10
420.0
 20
297.0
  9
$ORTHOMODE
 70
     1
  9
$REGENMODE
 70
     1
  9
$FILLMODE
 70
     1
  9
$QTEXTMODE
 70
     0
  9
$MIRRTEXT
 70
     1
  9
$LTSCALE
 40
1.0
  9
$ATTMODE
 70
     1
  9
$TEXTSIZE
 40
3.0
  9
$TRACEWID
 40
1.0
  9
$TEXTSTYLE
  7
CHINESET
  9
$CLAYER
  8
0
  9
$CELTYPE
  6
ByLayer
  9
$CECOLOR
 62
   256
  9
$CELTSCALE
 40
1.0
  9
$DISPSILH
 70
     0
  9
$DIMSCALE
 40
1.0
  9
$DIMASZ
 40
20.0
  9
$DIMEXO
 40
3.0
  9
$DIMDLI
 40
50.0
  9
$DIMRND
 40
0.0
  9
$DIMDLE
 40
0.0
  9
$DIMEXE
 40
4.0
  9
$DIMTP
 40
0.1
  9
$DIMTM
 40
0.1
  9
$DIMTXT
 40
20.0
  9
$DIMCEN
 40
0.0
  9
$DIMTSZ
 40
0.0
  9
$DIMTOL
 70
     0
  9
$DIMLIM
 70
     0
  9
$DIMTIH
 70
     0
  9
$DIMTOH
 70
     0
  9
$DIMSE1
 70
     0
  9
$DIMSE2
 70
     0
  9
$DIMTAD
 70
     1
  9
$DIMZIN
 70
     8
  9
$DIMBLK
  1

  9
$DIMASO
 70
     1
  9
$DIMSHO
 70
     1
  9
$DIMPOST
  1

  9
$DIMAPOST
  1
"
  9
$DIMALT
 70
     0
  9
$DIMALTD
 70
     2
  9
$DIMALTF
 40
0.0393701
  9
$DIMLFAC
 40
1.0
  9
$DIMTOFL
 70
     1
  9
$DIMTVP
 40
0.0
  9
$DIMTIX
 70
     0
  9
$DIMSOXD
 70
     0
  9
$DIMSAH
 70
     0
  9
$DIMBLK1
  1

  9
$DIMBLK2
  1

  9
$DIMSTYLE
  2
AM_ISO
  9
$DIMCLRD
 70
   256
  9
$DIMCLRE
 70
   256
  9
$DIMCLRT
 70
   256
  9
$DIMTFAC
 40
0.71
  9
$DIMGAP
 40
6.0
  9
$DIMJUST
 70
     0
  9
$DIMSD1
 70
     0
  9
$DIMSD2
 70
     0
  9
$DIMTOLJ
 70
     2
  9
$DIMTZIN
 70
     8
  9
$DIMALTZ
 70
     0
  9
$DIMALTTZ
 70
     0
  9
$DIMUPT
 70
     0
  9
$DIMDEC
 70
     2
  9
$DIMTDEC
 70
     8
  9
$DIMALTU
 70
     2
  9
$DIMALTTD
 70
     2
  9
$DIMTXSTY
  7
STANDARD
  9
$DIMAUNIT
 70
     0
  9
$DIMADEC
 70
     0
  9
$DIMALTRND
 40
0.0
  9
$DIMAZIN
 70
     2
  9
$DIMDSEP
 70
    46
  9
$DIMATFIT
 70
     3
  9
$DIMFRAC
 70
     0
  9
$DIMLDRBLK
  1

  9
$DIMLUNIT
 70
     2
  9
$DIMLWD
 70
    -1
  9
$DIMLWE
 70
    -1
  9
$DIMTMOVE
 70
     0
  9
$LUNITS
 70
     2
  9
$LUPREC
 70
     2
  9
$SKETCHINC
 40
1.0
  9
$FILLETRAD
 40
2.5
  9
$AUNITS
 70
     0
  9
$AUPREC
 70
     0
  9
$MENU
  1
.
  9
$ELEVATION
 40
0.0
  9
$PELEVATION
 40
0.0
  9
$THICKNESS
 40
0.0
  9
$LIMCHECK
 70
     0
  9
$CHAMFERA
 40
2.5
  9
$CHAMFERB
 40
2.5
  9
$CHAMFERC
 40
20.0
  9
$CHAMFERD
 40
0.0
  9
$SKPOLY
 70
     0
  9
$TDCREATE
 40
2453556.605858461
  9
$TDUCREATE
 40
2453556.272525128
  9
$TDUPDATE
 40
2453557.594407546
  9
$TDUUPDATE
 40
2453557.261074213
  9
$TDINDWG
 40
0.2756745602
  9
$TDUSRTIMER
 40
0.2756743866
  9
$USRTIMER
 70
     1
  9
$ANGBASE
 50
0.0
  9
$ANGDIR
 70
     0
  9
$PDMODE
 70
     0
  9
$PDSIZE
 40
0.0
  9
$PLINEWID
 40
0.0
  9
$SPLFRAME
 70
     0
  9
$SPLINETYPE
 70
     6
  9
$SPLINESEGS
 70
     8
  9
$HANDSEED
  5
7A2E
  9
$SURFTAB1
 70
     6
  9
$SURFTAB2
 70
     6
  9
$SURFTYPE
 70
     6
  9
$SURFU
 70
     6
  9
$SURFV
 70
     6
  9
$UCSBASE
  2

  9
$UCSNAME
  2

  9
$UCSORG
 10
0.0
 20
0.0
 30
0.0
  9
$UCSXDIR
 10
1.0
 20
0.0
 30
0.0
  9
$UCSYDIR
 10
0.0
 20
1.0
 30
0.0
  9
$UCSORTHOREF
  2

  9
$UCSORTHOVIEW
 70
     0
  9
$UCSORGTOP
 10
0.0
 20
0.0
 30
0.0
  9
$UCSORGBOTTOM
 10
0.0
 20
0.0
 30
0.0
  9
$UCSORGLEFT
 10
0.0
 20
0.0
 30
0.0
  9
$UCSORGRIGHT
 10
0.0
 20
0.0
 30
0.0
  9
$UCSORGFRONT
 10
0.0
 20
0.0
 30
0.0
  9
$UCSORGBACK
 10
0.0
 20
0.0
 30
0.0
  9
$PUCSBASE
  2

  9
$PUCSNAME
  2

  9
$PUCSORG
 10
0.0
 20
0.0
 30
0.0
  9
$PUCSXDIR
 10
1.0
 20
0.0
 30
0.0
  9
$PUCSYDIR
 10
0.0
 20
1.0
 30
0.0
  9
$PUCSORTHOREF
  2

  9
$PUCSORTHOVIEW
 70
     0
  9
$PUCSORGTOP
 10
0.0
 20
0.0
 30
0.0
  9
$PUCSORGBOTTOM
 10
0.0
 20
0.0
 30
0.0
  9
$PUCSORGLEFT
 10
0.0
 20
0.0
 30
0.0
  9
$PUCSORGRIGHT
 10
0.0
 20
0.0
 30
0.0
  9
$PUCSORGFRONT
 10
0.0
 20
0.0
 30
0.0
  9
$PUCSORGBACK
 10
0.0
 20
0.0
 30
0.0
  9
$USERI1
 70
     0
  9
$USERI2
 70
     0
  9
$USERI3
 70
     0
  9
$USERI4
 70
     0
  9
$USERI5
 70
     0
  9
$USERR1
 40
0.0
  9
$USERR2
 40
0.0
  9
$USERR3
 40
0.0
  9
$USERR4
 40
0.0
  9
$USERR5
 40
0.0
  9
$WORLDVIEW
 70
     1
  9
$SHADEDGE
 70
     3
  9
$SHADEDIF
 70
    70
  9
$TILEMODE
 70
     1
  9
$MAXACTVP
 70
    64
  9
$PINSBASE
 10
0.0
 20
0.0
 30
0.0
  9
$PLIMCHECK
 70
     0
  9
$PEXTMIN
 10
1.000000000000000E+20
 20
1.000000000000000E+20
 30
1.000000000000000E+20
  9
$PEXTMAX
 10
-1.000000000000000E+20
 20
-1.000000000000000E+20
 30
-1.000000000000000E+20
  9
$PLIMMIN
 10
0.0
 20
0.0
  9
$PLIMMAX
 10
420.0
 20
297.0
  9
$UNITMODE
 70
     0
  9
$VISRETAIN
 70
     1
  9
$PLINEGEN
 70
     0
  9
$PSLTSCALE
 70
     1
  9
$TREEDEPTH
 70
  3020
  9
$CMLSTYLE
  2
Standard
  9
$CMLJUST
 70
     0
  9
$CMLSCALE
 40
20.0
  9
$PROXYGRAPHICS
 70
     1
  9
$MEASUREMENT
 70
     1
  9
$CELWEIGHT
370
    -1
  9
$ENDCAPS
280
     0
  9
$JOINSTYLE
280
     0
  9
$LWDISPLAY
290
     0
  9
$INSUNITS
 70
     4
  9
$HYPERLINKBASE
  1

  9
$STYLESHEET
  1
彩色出圖.ctb
  9
$XEDIT
290
     1
  9
$CEPSNTYPE
380
     0
  9
$PSTYLEMODE
290
     1
  9
$FINGERPRINTGUID
  2
{6FBFCDA8-F3CD-4AA6-B64B-DBECB1E66A4A}
  9
$VERSIONGUID
  2
{6083ED2D-E7EE-4FFC-B960-2011BE3C6C00}
  9
$EXTNAMES
290
     1
  9
$PSVPSCALE
 40
0.0
  9
$OLESTARTUP
290
     0
  0
ENDSEC
  0
SECTION
  2
CLASSES
  0
CLASS
  1
ACDBDICTIONARYWDFLT
  2
AcDbDictionaryWithDefault
  3
ObjectDBX Classes
 90
        0
280
     0
281
     0
  0
CLASS
  1
ACDBPLACEHOLDER
  2
AcDbPlaceHolder
  3
ObjectDBX Classes
 90
        0
280
     0
281
     0
  0
CLASS
  1
LAYOUT
  2
AcDbLayout
  3
ObjectDBX Classes
 90
        0
280
     0
281
     0
  0
CLASS
  1
ACME_DOCUMENT
  2
AcMeDbDoc
  3
AcMeServices
 90
        0
280
     0
281
     0
  0
CLASS
  1
AMGSETTINGSOBJ
  2
AmgSettingsObj
  3
"AcadM|Product Description: AutoCAD Mechanical 2000|Company: Autodesk"
 90
        0
280
     0
281
     0
  0
CLASS
  1
ACMESCOPE
  2
AcMeScope
  3
AcMeServices
 90
        0
280
     0
281
     0
  0
CLASS
  1
ACMECOMMANDHISTORY
  2
AcMeCommandHistory
  3
AcMeServices
 90
        0
280
     0
281
     0
  0
CLASS
  1
ACIMSYSVARMAN
  2
AcImSysVarManager
  3
AcMeServices
 90
        0
280
     0
281
     0
  0
CLASS
  1
ACIMREALSYSVAR
  2
AcImRealSysVar
  3
AcMeServices
 90
        0
280
     0
281
     0
  0
CLASS
  1
ACIMINTSYSVAR
  2
AcImIntSysVar
  3
AcMeServices
 90
        0
280
     0
281
     0
  0
CLASS
  1
ACMEDRAWINGMAN
  2
AcMeDrawingMan
  3
AcMeServices
 90
        0
280
     0
281
     0
  0
CLASS
  1
ACMEVIEW
  2
AcMeView
  3
AcMeServices
 90
        0
280
     0
281
     0
  0
CLASS
  1
ACDBENTITYCACHE
  2
AcMeEntityCache
  3
AcMeServices
 90
        0
280
     0
281
     0
  0
CLASS
  1
GSMANAGER
  2
AcMeGSManager
  3
AcMeServices
 90
        0
280
     0
281
     0
  0
CLASS
  1
AMDTINTERNALREACTOR
  2
AmdtInternalReactor
  3
AcMeServices
 90
        0
280
     0
281
     0
  0
CLASS
  1
ACMESTATEMGR
  2
AcMeStateMgr
  3
AcMeServices
 90
        0
280
     0
281
     0
  0
CLASS
  1
ACGREFMASTER
  2
AcGrefMaster
  3
AcAttribServices
 90
        0
280
     0
281
     0
  0
CLASS
  1
ACME_DATABASE
  2
AcMeDbDatabase
  3
AcMeServices
 90
        0
280
     0
281
     0
  0
CLASS
  1
ACRFINSADJUSTERMGR
  2
AcRfInsAdjusterMgr
  3
AcMeServices
 90
        0
280
     0
281
     0
  0
CLASS
  1
ACGREFACADMASTER
  2
AcGrefacadMaster
  3
AcGrefServices
 90
        0
280
     0
281
     0
  0
CLASS
  1
AMIMASTER
  2
AmiMaster
  3
AmiServices
 90
        0
280
     0
281
     0
  0
CLASS
  1
ACMDATADICTIONARY
  2
AcmDataDictionary
  3
"AcmSymBB|Product Description: AutoCAD Mechanical 2004 DX|Company: Autodesk"
 90
        0
280
     0
281
     0
  0
CLASS
  1
ACMDATAENTRYBLOCK
  2
AcmDataEntryBlock
  3
"AcmSymBB|Product Description: AutoCAD Mechanical 2004 DX|Company: Autodesk"
 90
        0
280
     0
281
     0
  0
CLASS
  1
ACIMSTRSYSVAR
  2
AcImStrSysVar
  3
AcMeServices
 90
        0
280
     0
281
     0
  0
CLASS
  1
ACMSTANDARDISO
  2
AcmStandardISO
  3
"Amdt_StdImp|Product Description: AutoCAD Mechanical 2004 DX|Company: Autodesk"
 90
        0
280
     0
281
     0
  0
CLASS
  1
AMGOBJPROPCFG
  2
AmgObjPropCfg
  3
"AmgLay|Product Description: AutoCAD Mechanical 2000|Company: Autodesk"
 90
        1
280
     0
281
     0
  0
CLASS
  1
AMDTEDGESTANDARDISO
  2
AmdtEdgeStdISO
  3
"Amdt_StdImp|Product Description: AutoCAD Mechanical 2004 DX|Company: Autodesk"
 90
        0
280
     0
281
     0
  0
CLASS
  1
ACMSURFSTANDARDISO
  2
AcmSurfTextStdISO
  3
"Amdt_StdImp|Product Description: AutoCAD Mechanical 2004 DX|Company: Autodesk"
 90
        0
280
     0
281
     0
  0
CLASS
  1
ACMFCFSTANDARDISO
  2
AcmFCFStdISO
  3
"Amdt_StdImp|Product Description: AutoCAD Mechanical 2004 DX|Company: Autodesk"
 90
        0
280
     0
281
     0
  0
CLASS
  1
ACMWELDSTANDARDISO
  2
AcmWeldingStdISO
  3
"Amdt_StdImp|Product Description: AutoCAD Mechanical 2004 DX|Company: Autodesk"
 90
        0
280
     0
281
     0
  0
CLASS
  1
ACMIDSTANDARDISO
  2
AcmIdStdISO
  3
"Amdt_StdImp|Product Description: AutoCAD Mechanical 2004 DX|Company: Autodesk"
 90
        0
280
     0
281
     0
  0
CLASS
  1
ACMDATUMSTANDARDISO
  2
AcmDatumStdISO
  3
"Amdt_StdImp|Product Description: AutoCAD Mechanical 2004 DX|Company: Autodesk"
 90
        0
280
     0
281
     0
  0
CLASS
  1
ACMBOMSTANDARDISO
  2
AcmBOMStdISO
  3
"Amdt_StdImp|Product Description: AutoCAD Mechanical 2004 DX|Company: Autodesk"
 90
        0
280
     0
281
     0
  0
CLASS
  1
ACMDETAILSTANDARDISO
  2
AmdtDetailSymStdISO
  3
"Amdt_StdImp|Product Description: AutoCAD Mechanical 2004 DX|Company: Autodesk"
 90
        0
280
     0
281
     0
  0
CLASS
  1
ACMSECTIONSTANDARDISO
  2
AmdtSectionSymStdISO
  3
"Amdt_StdImp|Product Description: AutoCAD Mechanical 2004 DX|Company: Autodesk"
 90
        0
280
     0
281
     0
  0
CLASS
  1
ACMCENTERLINESTANDARDISO
  2
AmdtCenterLineStdISO
  3
"Amdt_StdImp|Product Description: AutoCAD Mechanical 2004 DX|Company: Autodesk"
 90
        0
280
     0
281
     0
  0
CLASS
  1
ACMNOTESTANDARDISO
  2
AmdtNoteStdISO
  3
"Amdt_StdImp|Product Description: AutoCAD Mechanical 2004 DX|Company: Autodesk"
 90
        0
280
     0
281
     0
  0
CLASS
  1
ACAMGLAYSTD
  2
AcAmgLayStd
  3
"AcAmgLayStd|Product Description: AutoCAD Mechanical 2000|Company: Autodesk"
 90
        0
280
     0
281
     0
  0
CLASS
  1
ACAMGDIMSTD
  2
AcAmgDimStd
  3
"AcAmgDimStd|Product Description: AutoCAD Mechanical 2000|Company: Autodesk"
 90
        0
280
     0
281
     0
  0
CLASS
  1
ACAMGHOLECHARTSTDISO
  2
AcAmgHoleChartStdISO
  3
ACMSYMBB_MODULE_NAME
 90
        0
280
     0
281
     0
  0
CLASS
  1
ACAMGTITLESTD
  2
AcAmgTitleStd
  3
"TITLEAPP"
 90
        0
280
     0
281
     0
  0
CLASS
  1
LAYER_INDEX
  2
AcDbLayerIndex
  3
ObjectDBX Classes
 90
    32768
280
     0
281
     0
  0
CLASS
  1
IDBUFFER
  2
AcDbIdBuffer
  3
ObjectDBX Classes
 90
    32768
280
     0
281
     0
  0
CLASS
  1
DICTIONARYVAR
  2
AcDbDictionaryVar
  3
ObjectDBX Classes
 90
        0
280
     0
281
     0
  0
CLASS
  1
AM_DRAWING_MGR
  2
AcDmDwgMgr
  3
AcMechDwgViewMgmt
 90
        0
280
     0
281
     0
  0
CLASS
  1
AM_DWG_DOCUMENT
  2
AcDmDwgDocument
  3
AcMechDwgViewMgmt
 90
        0
280
     0
281
     0
  0
CLASS
  1
AM_DWG_SHEET
  2
AcDmSheet
  3
AcMechDwgViewMgmt
 90
        0
280
     0
281
     0
  0
CLASS
  1
AM_VIEWDIMPARMAP
  2
AcDmViewDimParMap
  3
AcMechDwgViewMgmt
 90
        0
280
     0
281
     0
  0
CLASS
  1
AM_DWGMGR_NAME
  2
AcDmDwgMgrName
  3
AcMechDwgViewMgmt
 90
        0
280
     0
281
     0
  0
CLASS
  1
AMDTMENUSTATEMGR
  2
AmdtMenuStateMgr
  3
McadcomServices
 90
        0
280
     0
281
     0
  0
CLASS
  1
AMDTMCOMMENUSTATE
  2
AmdtMcomMenuState
  3
McadcomServices
 90
        0
280
     0
281
     0
  0
CLASS
  1
MAPIAMMOUDLE
  2
MApiAmModule
  3
MApiAmServices
 90
        0
280
     0
281
     0
  0
CLASS
  1
AMDTADMENUSTATE
  2
AmdtAdMenuState
  3
DesignerServices
 90
        0
280
     0
281
     0
  0
CLASS
  1
ADAPPL
  2
AcAdAppl
  3
DesignerServices
 90
        0
280
     0
281
     0
  0
CLASS
  1
DEPMGR
  2
AcAdDepMgr
  3
DesignerServices
 90
        0
280
     0
281
     0
  0
CLASS
  1
PARAMMGR
  2
AcAdParamMgr
  3
DesignerServices
 90
        0
280
     0
281
     0
  0
CLASS
  1
PARAMSCOPE
  2
AcAdParamScope
  3
DesignerServices
 90
        0
280
     0
281
     0
  0
CLASS
  1
NAMEDAPPL
  2
AcAdNamedAppl
  3
DesignerServices
 90
        0
280
     0
281
     0
  0
CLASS
  1
AMDTDMMENUSTATE
  2
AmdtDmMenuState
  3
AcMechDwgViewMgmt
 90
        0
280
     0
281
     0
  0
CLASS
  1
AMDTAMMENUSTATE
  2
AmdtAmMenuState
  3
DesignerAssemblies
 90
        0
280
     0
281
     0
  0
CLASS
  1
ACAMPROJECT
  2
AcAmProject
  3
DesignerAssemblies
 90
        0
280
     0
281
     0
  0
CLASS
  1
ACAMGRCOMPDEF
  2
AcAmGrCompDef
  3
DesignerAssemblies
 90
        0
280
     0
281
     0
  0
CLASS
  1
ACCMCONTEXT
  2
AcCmContext
  3
DesignerAssemblies
 90
        0
280
     0
281
     0
  0
CLASS
  1
ACAMCOMPDEF
  2
AcAmCompDef
  3
DesignerAssemblies
 90
        0
280
     0
281
     0
  0
CLASS
  1
ACAMCOMPDEFMGR
  2
AcAmCompDefMgr
  3
DesignerAssemblies
 90
        0
280
     0
281
     0
  0
CLASS
  1
AMCONTEXTMGR
  2
AcAmContextMgr
  3
DesignerAssemblies
 90
        0
280
     0
281
     0
  0
CLASS
  1
ACAMCONTEXTMODELER
  2
AcAmContextModeler
  3
DesignerAssemblies
 90
        0
280
     0
281
     0
  0
CLASS
  1
ACMTHREADLINESTANDARDISO
  2
AmdtThreadLineStdISO
  3
"Amdt_StdImp|Product Description: AutoCAD Mechanical 2004 DX|Company: Autodesk"
 90
        0
280
     0
281
     0
  0
CLASS
  1
CATALOGSTATE
  2
AcAmCatalogState
  3
DesignerAssemblies
 90
        0
280
     0
281
     0
  0
CLASS
  1
ACAMGRCOMPDEFSET
  2
AcAmGrCompDefSet
  3
DesignerAssemblies
 90
        0
280
     0
281
     0
  0
CLASS
  1
AMDTBROWSERDBTAB
  2
AmdtBrowserDbTab
  3
McadcomServices
 90
        0
280
     0
281
     0
  0
CLASS
  1
CBROWSERAPPOBJECT
  2
CBrowserAppObject
  3
McadcomServices
 90
        0
280
     0
281
     0
  0
CLASS
  1
DM_PLACEHOLDER
  2
AcDmSelsetPlaceholder
  3
AcMechDwgViewMgmt
 90
        0
280
     0
281
     0
  0
CLASS
  1
TABLESTYLE
  2
AcDbTableStyle
  3
ObjectDBX Classes
 90
     2047
280
     0
281
     0
  0
CLASS
  1
VAACXREFPANELOBJECT
  2
VaAcXREFPanelObject
  3
VAAC_ADDIN
 90
    32768
280
     0
281
     0
  0
CLASS
  1
VAACIMAGEINVENTORY
  2
VaAcImageInventory
  3
VAAC_ADDIN
 90
    32768
280
     0
281
     0
  0
CLASS
  1
AMDTNOTETEMPLATEDB
  2
AmdtNoteTemplateDB
  3
AMDT_STDIMP_MODULE_NAME
 90
        0
280
     0
281
     0
  0
CLASS
  1
ACMBOM
  2
AcmBom
  3
"AcmSymBB|Product Description: AutoCAD Mechanical 2004 DX|Company: Autodesk"
 90
    32768
280
     0
281
     0
  0
CLASS
  1
AMDTFORMULAUPDATEDISPATCHER
  2
AmdtFormulaUpdateDispatcher
  3
AcMeServices
 90
    32768
280
     0
281
     0
  0
CLASS
  1
ACMPARTLIST
  2
AcmPartList
  3
"AcmSymBB|Product Description: AutoCAD Mechanical 2004 DX|Company: Autodesk"
 90
    33791
280
     0
281
     1
  0
CLASS
  1
ACAMGFILTERDAT
  2
AcAmgFilterDat
  3
"AcadM|Product Description: AutoCAD Mechanical 2000|Company: Autodesk"
 90
        0
280
     0
281
     0
  0
CLASS
  1
DIMASSOC
  2
AcDbDimAssoc
  3
"AcDbDimAssoc|Product Desc:     AcDim ARX App For Dimension|Company:          Autodesk, Inc.|WEB Address:      www.autodesk.com"
 90
    32768
280
     0
281
     0
  0
CLASS
  1
ACAMGHOLECHARTORIGIN
  2
AcAmgHoleChartOrigin
  3
ACMSYMBB_MODULE_NAME
 90
    33663
280
     0
281
     1
  0
CLASS
  1
AMDTNOTE
  2
AmdtNote
  3
"AcmSymBB|Product Description: AutoCAD Mechanical 2004 DX|Company: Autodesk"
 90
     1023
280
     0
281
     1
  0
CLASS
  1
ACRFATTGENMGR
  2
AcRfAttGeneralMgr
  3
AcAttribServices
 90
        0
280
     0
281
     0
  0
ENDSEC
  0
SECTION
  2
TABLES
  0
TABLE
  2
VPORT
  5
8
330
0
100
AcDbSymbolTable
 70
     3
  0
VPORT
  5
7A25
330
8
100
AcDbSymbolTableRecord
100
AcDbViewportTableRecord
  2
*Active
 70
     0
 10
0.0
 20
0.0
 11
1.0
 21
1.0
 12
6295.641417125944
 22
2243.169496801785
 13
0.0
 23
0.0
 14
2.5
 24
2.5
 15
10.0
 25
10.0
 16
0.0
 26
0.0
 36
1.0
 17
0.0
 27
0.0
 37
0.0
 40
1793.312539293675
 41
1.81766917293233
 42
50.0
 43
0.0
 44
0.0
 50
0.0
 51
0.0
 71
     0
 72
   100
 73
     1
 74
     3
 75
     0
 76
     0
 77
     0
 78
     0
281
     0
 65
     1
110
0.0
120
0.0
130
0.0
111
1.0
121
0.0
131
0.0
112
0.0
122
1.0
132
0.0
 79
     0
146
0.0
  0
ENDTAB
  0
TABLE
  2
LTYPE
  5
5
330
0
100
AcDbSymbolTable
 70
    16
  0
LTYPE
  5
14
330
5
100
AcDbSymbolTableRecord
100
AcDbLinetypeTableRecord
  2
ByBlock
 70
     0
  3

 72
    65
 73
     0
 40
0.0
  0
LTYPE
  5
15
330
5
100
AcDbSymbolTableRecord
100
AcDbLinetypeTableRecord
  2
ByLayer
 70
     0
  3

 72
    65
 73
     0
 40
0.0
  0
LTYPE
  5
16
330
5
100
AcDbSymbolTableRecord
100
AcDbLinetypeTableRecord
  2
Continuous
 70
     0
  3
Solid line
 72
    65
 73
     0
 40
0.0
  0
LTYPE
  5
64
330
5
100
AcDbSymbolTableRecord
100
AcDbLinetypeTableRecord
  2
AM_ISO02W050
 70
     0
  3
__ __ __ __ __ __ __ __ __ __ __ __ __ __ __
 72
    65
 73
     2
 40
7.5
 49
6.0
 74
     0
 49
-1.5
 74
     0
  0
LTYPE
  5
65
330
5
100
AcDbSymbolTableRecord
100
AcDbLinetypeTableRecord
  2
AM_ISO08W050
 70
     0
  3
____ . ____ . ____ . ____ . ____ . ____ . ____
 72
    65
 73
     4
 40
18.0
 49
12.0
 74
     0
 49
-1.5
 74
     0
 49
3.0
 74
     0
 49
-1.5
 74
     0
  0
LTYPE
  5
66
330
5
100
AcDbSymbolTableRecord
100
AcDbLinetypeTableRecord
  2
AM_ISO09W050
 70
     0
  3
_____ . . _____ . . _____ . . ____ .. ____
 72
    65
 73
     6
 40
22.5
 49
12.0
 74
     0
 49
-1.5
 74
     0
 49
3.0
 74
     0
 49
-1.5
 74
     0
 49
3.0
 74
     0
 49
-1.5
 74
     0
  0
LTYPE
  5
67
330
5
100
AcDbSymbolTableRecord
100
AcDbLinetypeTableRecord
  2
Amconstr
 70
     0
  3
_______________________
 72
    65
 73
     2
 40
9999.0
 49
9999.0
 74
     0
 49
0.0
 74
     0
  0
LTYPE
  5
68
330
5
100
AcDbSymbolTableRecord
100
AcDbLinetypeTableRecord
  2
AM_ISO08W050x2
 70
     0
  3
__ . __ . __ . __ . __ . __
 72
    65
 73
     4
 40
9.0
 49
6.0
 74
     0
 49
-0.75
 74
     0
 49
1.5
 74
     0
 49
-0.75
 74
     0
  0
LTYPE
  5
69
330
5
100
AcDbSymbolTableRecord
100
AcDbLinetypeTableRecord
  2
AM_ISO02W050x2
 70
     0
  3
 _ _ _ _ _ _ _ _ _ _ _ _
 72
    65
 73
     2
 40
3.75
 49
3.0
 74
     0
 49
-0.75
 74
     0
  0
LTYPE
  5
6C
330
5
100
AcDbSymbolTableRecord
100
AcDbLinetypeTableRecord
  2
Amzigzag
 70
     0
  3
/\/-/\/-/\/-/\/-/\/-/\/
 72
    65
 73
     2
 40
11.0001
 49
0.0001
 74
     4
 75
   135
340
6B
 46
0.04
 50
0.0
 44
0.0
 45
0.0
 49
-11.0
 74
     0
  0
LTYPE
  5
7A
330
5
100
AcDbSymbolTableRecord
100
AcDbLinetypeTableRecord
  2
ACISOWELD
 70
     0
  3
_ _ _ _ _
 72
    65
 73
     2
 40
2.0
 49
2.0
 74
     0
 49
-1.0
 74
     0
  0
LTYPE
  5
7B
330
5
100
AcDbSymbolTableRecord
100
AcDbLinetypeTableRecord
  2
ACISOTGB
 70
     0
  3
__ . . __ . .
 72
    65
 73
     6
 40
9.0
 49
4.0
 74
     0
 49
-1.0
 74
     0
 49
1.0
 74
     0
 49
-1.0
 74
     0
 49
1.0
 74
     0
 49
-1.0
 74
     0
  0
LTYPE
  5
7C
330
5
100
AcDbSymbolTableRecord
100
AcDbLinetypeTableRecord
  2
ACISOTGL
 70
     0
  3
_ _ _ _ _
 72
    65
 73
     2
 40
3.0
 49
2.0
 74
     0
 49
-1.0
 74
     0
  0
LTYPE
  5
7E
330
5
100
AcDbSymbolTableRecord
100
AcDbLinetypeTableRecord
  2
CENTER
 70
     0
  3
__ . __
 72
    65
 73
     4
 40
7.0
 49
4.0
 74
     0
 49
-1.0
 74
     0
 49
1.0
 74
     0
 49
-1.0
 74
     0
  0
LTYPE
  5
D8
330
5
100
AcDbSymbolTableRecord
100
AcDbLinetypeTableRecord
  2
HIDDEN
 70
     0
  3
Hidden __ __ __ __ __ __ __ __ __ __ __ __ __ _
 72
    65
 73
     2
 40
9.524999999999998
 49
6.349999999999999
 74
     0
 49
-3.174999999999999
 74
     0
  0
LTYPE
  5
D9
330
5
100
AcDbSymbolTableRecord
100
AcDbLinetypeTableRecord
  2
PHANTOM2
 70
     0
  3
Phantom (.5x) ___ _ _ ___ _ _ ___ _ _ ___ _ _
 72
    65
 73
     6
 40
31.75
 49
15.875
 74
     0
 49
-3.174999999999999
 74
     0
 49
3.174999999999999
 74
     0
 49
-3.174999999999999
 74
     0
 49
3.174999999999999
 74
     0
 49
-3.174999999999999
 74
     0
  0
LTYPE
  5
71F
330
5
100
AcDbSymbolTableRecord
100
AcDbLinetypeTableRecord
  2
HIDDEN2
 70
     0
  3
Hidden (.5x) _ _ _ _ _ _ _ _ _ _ _ _ _ _ _ _ _
 72
    65
 73
     2
 40
4.762499999999999
 49
3.174999999999999
 74
     0
 49
-1.587499999999999
 74
     0
  0
LTYPE
  5
63A7
330
5
100
AcDbSymbolTableRecord
100
AcDbLinetypeTableRecord
  2
CENTERX2
 70
     0
  3
Center (2x) ________  __  ________  __  _____
 72
    65
 73
     4
 40
101.6
 49
63.5
 74
     0
 49
-12.7
 74
     0
 49
12.7
 74
     0
 49
-12.7
 74
     0
  0
ENDTAB
  0
TABLE
  2
LAYER
  5
2
102
{ACAD_XDICTIONARY
360
3F9
102
}
330
0
100
AcDbSymbolTable
 70
     9
  0
LAYER
  5
10
330
2
100
AcDbSymbolTableRecord
100
AcDbLayerTableRecord
  2
0
 70
     0
 62
     7
  6
Continuous
370
    -3
390
F
  0
LAYER
  5
206
330
2
100
AcDbSymbolTableRecord
100
AcDbLayerTableRecord
  2
Defpoints
 70
     0
 62
     7
  6
Continuous
290
     0
370
    -3
390
F
  0
LAYER
  5
720
330
2
100
AcDbSymbolTableRecord
100
AcDbLayerTableRecord
  2
圖層1輪廓線
 70
     0
 62
     7
  6
Continuous
370
    50
390
728
  0
LAYER
  5
721
330
2
100
AcDbSymbolTableRecord
100
AcDbLayerTableRecord
  2
圖層2中心線
 70
     0
 62
     1
  6
CENTERX2
370
    18
390
729
  0
LAYER
  5
722
330
2
100
AcDbSymbolTableRecord
100
AcDbLayerTableRecord
  2
圖層3虛線
 70
     0
 62
     3
  6
HIDDEN2
370
    25
390
72A
  0
LAYER
  5
723
330
2
100
AcDbSymbolTableRecord
100
AcDbLayerTableRecord
  2
圖層4尺寸線
 70
     0
 62
     5
  6
Continuous
370
    25
390
72B
  0
LAYER
  5
B2A
330
2
100
AcDbSymbolTableRecord
100
AcDbLayerTableRecord
  2
AM_5
 70
     0
 62
     5
  6
Continuous
370
    50
390
F
  0
LAYER
  5
15F9
330
2
100
AcDbSymbolTableRecord
100
AcDbLayerTableRecord
  2
AM_7
 70
     0
 62
     1
  6
CENTER
370
    25
390
F
  0
LAYER
  5
778A
330
2
100
AcDbSymbolTableRecord
100
AcDbLayerTableRecord
  2
LOGO
 70
     0
 62
     7
  6
Continuous
370
    -3
390
F
  0
ENDTAB
  0
TABLE
  2
STYLE
  5
3
330
0
100
AcDbSymbolTable
 70
     7
  0
STYLE
  5
11
330
3
100
AcDbSymbolTableRecord
100
AcDbTextStyleTableRecord
  2
STANDARD
 70
     0
 40
0.0
 41
1.0
 50
0.0
 71
     0
 42
3.0
  3
ISOCP.SHX
  4
CHINESET.SHX
  0
STYLE
  5
6B
330
3
100
AcDbSymbolTableRecord
100
AcDbTextStyleTableRecord
  2

 70
     1
 40
0.0
 41
1.0
 50
0.0
 71
     0
 42
2.5
  3
ltypeshp.shx
  4

  0
STYLE
  5
6D
330
3
100
AcDbSymbolTableRecord
100
AcDbTextStyleTableRecord
  2
ACISOTS
 70
     0
 40
1.0
 41
1.0
 50
0.0
 71
     0
 42
1.0
  3
isocp.shx
  4
chineset.shx
  0
STYLE
  5
79
330
3
100
AcDbSymbolTableRecord
100
AcDbTextStyleTableRecord
  2
ACISOGDT
 70
     0
 40
0.0
 41
1.0
 50
0.0
 71
     0
 42
2.5
  3
amgdt.shx
  4
chineset.shx
  0
STYLE
  5
60C
330
3
100
AcDbSymbolTableRecord
100
AcDbTextStyleTableRecord
  2
CHINESET
 70
     0
 40
0.0
 41
1.0
 50
0.0
 71
     0
 42
3.0
  3
simplex.shx
  4
CHINESET.SHX
  0
STYLE
  5
75F2
330
3
100
AcDbSymbolTableRecord
100
AcDbTextStyleTableRecord
  2
WIN
 70
     0
 40
0.0
 41
1.0
 50
0.0
 71
     0
 42
4.0
  3
PMingLiU.ttf
  4

1001
ACAD
1000
PMingLiU
1071
    34834
  0
ENDTAB
  0
TABLE
  2
VIEW
  5
6
330
0
100
AcDbSymbolTable
 70
     0
  0
ENDTAB
  0
TABLE
  2
UCS
  5
7
330
0
100
AcDbSymbolTable
 70
     0
  0
ENDTAB
  0
TABLE
  2
APPID
  5
9
330
0
100
AcDbSymbolTable
 70
    21
  0
APPID
  5
12
330
9
100
AcDbSymbolTableRecord
100
AcDbRegAppTableRecord
  2
ACAD
 70
     0
  0
APPID
  5
46
330
9
100
AcDbSymbolTableRecord
100
AcDbRegAppTableRecord
  2
MCAD_NO_VIS
 70
     0
  0
APPID
  5
47
330
9
100
AcDbSymbolTableRecord
100
AcDbRegAppTableRecord
  2
ACAD_TEMP_GRAPHIC
 70
     0
  0
APPID
  5
58
330
9
100
AcDbSymbolTableRecord
100
AcDbRegAppTableRecord
  2
ACATTRIBSERVICES
 70
     0
  0
APPID
  5
EE
330
9
100
AcDbSymbolTableRecord
100
AcDbRegAppTableRecord
  2
AD_DRAW
 70
     0
  0
APPID
  5
10C
330
9
100
AcDbSymbolTableRecord
100
AcDbRegAppTableRecord
  2
DESIGNERASSEMBLIES
 70
     0
  0
APPID
  5
111
330
9
100
AcDbSymbolTableRecord
100
AcDbRegAppTableRecord
  2
ACADM_DIM_EDIT
 70
     0
  0
APPID
  5
112
330
9
100
AcDbSymbolTableRecord
100
AcDbRegAppTableRecord
  2
AMDT_DM_ADJ
 70
     0
  0
APPID
  5
22C
330
9
100
AcDbSymbolTableRecord
100
AcDbRegAppTableRecord
  2
ACAD_DSTYLE_DIMTEXT_FILL
 70
     0
  0
APPID
  5
452
330
9
100
AcDbSymbolTableRecord
100
AcDbRegAppTableRecord
  2
GENIUS_GENOENT_13
 70
     0
  0
APPID
  5
453
330
9
100
AcDbSymbolTableRecord
100
AcDbRegAppTableRecord
  2
GENIUS_GENOBJ-N-CRS_13
 70
     0
  0
APPID
  5
454
330
9
100
AcDbSymbolTableRecord
100
AcDbRegAppTableRecord
  2
GENIUS_GENOLIS_13
 70
     0
  0
APPID
  5
455
330
9
100
AcDbSymbolTableRecord
100
AcDbRegAppTableRecord
  2
GENIUS_GENODEF_13
 70
     0
  0
APPID
  5
456
330
9
100
AcDbSymbolTableRecord
100
AcDbRegAppTableRecord
  2
GENIUS_GENOREF_13
 70
     0
  0
APPID
  5
6F3
330
9
100
AcDbSymbolTableRecord
100
AcDbRegAppTableRecord
  2
ACAD_PSEXT
 70
     0
  0
APPID
  5
727
330
9
100
AcDbSymbolTableRecord
100
AcDbRegAppTableRecord
  2
AcAecLayerStandard
 70
     0
  0
APPID
  5
D7F
330
9
100
AcDbSymbolTableRecord
100
AcDbRegAppTableRecord
  2
GENIUS_GENDTOL_13
 70
     0
  0
APPID
  5
15FB
330
9
100
AcDbSymbolTableRecord
100
AcDbRegAppTableRecord
  2
GENIUS_GENOBJ-N-CEN_13
 70
     0
  0
APPID
  5
15FC
330
9
100
AcDbSymbolTableRecord
100
AcDbRegAppTableRecord
  2
GENIUS_GENCEN_19
 70
     0
  0
APPID
  5
300F
330
9
100
AcDbSymbolTableRecord
100
AcDbRegAppTableRecord
  2
GENIUS_GENREC_14
 70
     0
  0
APPID
  5
3010
330
9
100
AcDbSymbolTableRecord
100
AcDbRegAppTableRecord
  2
GENIUS_GENOBJ-N-REC_13
 70
     0
  0
ENDTAB
  0
TABLE
  2
DIMSTYLE
  5
A
330
0
100
AcDbSymbolTable
 70
     9
100
AcDbDimStyleTable
 71
     3
340
81
340
8B
340
86
  0
DIMSTYLE
105
81
330
A
100
AcDbSymbolTableRecord
100
AcDbDimStyleTableRecord
  2
AM_ISO
 70
     0
  4
"
 41
20.0
 42
3.0
 43
50.0
 44
4.0
 47
0.1
 48
0.1
 73
     0
 74
     0
 77
     1
 78
     8
 79
     2
140
20.0
141
0.0
143
0.0393701
146
0.71
147
6.0
172
     1
176
   256
177
   256
178
   256
271
     2
272
     2
283
     2
284
     8
340
11
371
    -1
372
    -1
  0
DIMSTYLE
105
82
330
A
100
AcDbSymbolTableRecord
100
AcDbDimStyleTableRecord
  2
AM_ISO$3
 70
     0
  4
"
 41
20.0
 42
3.0
 43
50.0
 44
4.0
 47
0.1
 48
0.1
 73
     0
 77
     1
 78
     8
 79
     2
140
20.0
141
0.0
143
0.0393701
146
0.71
147
6.0
176
   256
177
   256
178
   256
271
     2
272
     2
283
     2
284
     8
288
     1
289
     0
340
11
371
    -1
372
    -1
  0
DIMSTYLE
105
83
330
A
100
AcDbSymbolTableRecord
100
AcDbDimStyleTableRecord
  2
AM_ISO$4
 70
     0
  4
"
 41
20.0
 42
3.0
 43
50.0
 44
4.0
 47
0.1
 48
0.1
 73
     0
 77
     1
 78
     8
 79
     2
140
20.0
141
0.0
143
0.0393701
146
0.71
147
6.0
176
   256
177
   256
178
   256
271
     2
272
     2
283
     2
284
     8
288
     1
289
     0
340
11
371
    -1
372
    -1
  0
DIMSTYLE
105
84
330
A
100
AcDbSymbolTableRecord
100
AcDbDimStyleTableRecord
  2
AM_ISO$6
 70
     0
  4
"
 41
20.0
 42
3.0
 43
50.0
 44
4.0
 47
0.1
 48
0.1
 73
     0
 74
     0
 78
     8
 79
     2
140
20.0
141
0.0
143
0.0393701
146
0.71
147
6.0
172
     1
176
   256
177
   256
178
   256
271
     2
272
     2
283
     2
284
     8
340
11
371
    -1
372
    -1
  0
DIMSTYLE
105
85
330
A
100
AcDbSymbolTableRecord
100
AcDbDimStyleTableRecord
  2
AM_ISO$7
 70
     0
  4
"
 41
20.0
 42
3.0
 43
50.0
 44
4.0
 47
0.1
 48
0.1
 73
     0
 74
     0
 77
     1
 78
     8
 79
     2
140
5.0
141
0.0
143
0.0393701
146
0.71
147
6.0
172
     1
176
   256
177
   256
178
   256
271
     2
272
     2
283
     2
284
     8
340
11
371
    -1
372
    -1
  0
DIMSTYLE
105
86
330
A
100
AcDbSymbolTableRecord
100
AcDbDimStyleTableRecord
  2
AM_ISO$SF
 70
     0
  4
"
 41
2.5
 42
1.0
 43
10.0
 44
1.0
 47
0.1
 48
0.1
 73
     0
 74
     0
 75
     1
 76
     1
 77
     1
 78
     8
 79
     2
140
3.5
141
0.0
143
0.0393701
146
0.71
147
1.5
172
     1
176
   256
177
   256
178
     2
271
     2
272
     3
274
     4
283
     0
284
     8
340
11
371
    -1
372
    -1
  0
DIMSTYLE
105
8B
330
A
100
AcDbSymbolTableRecord
100
AcDbDimStyleTableRecord
  2
AM_ISO$SH
 70
     0
  4
"
 41
2.5
 42
1.0
 43
10.0
 44
1.0
 47
0.1
 48
0.1
 73
     0
 74
     0
 75
     1
 76
     1
 77
     1
 78
     8
 79
     2
140
3.5
141
0.0
143
0.0393701
144
2.0
146
0.71
147
1.5
172
     1
173
     1
176
   256
177
   256
178
     2
271
     2
272
     3
274
     4
283
     0
284
     8
340
11
343
87
371
    -1
372
    -1
  0
DIMSTYLE
105
40B
102
{ACAD_REACTORS
330
3E57
330
3E58
330
3E89
330
3E8A
330
3EB5
330
3EB6
330
3EB7
330
3EB8
330
3EB9
330
3F23
330
3F24
330
3F25
330
3F65
330
3F66
330
3F93
330
4175
330
4176
330
4177
330
4184
330
4185
330
4186
330
4187
330
741A
102
}
330
A
100
AcDbSymbolTableRecord
100
AcDbDimStyleTableRecord
  2
AM_ISO$0
 70
     0
  4
"
 41
20.0
 42
3.0
 43
50.0
 44
4.0
 47
0.1
 48
0.1
 73
     0
 74
     0
 77
     1
 78
     8
 79
     2
140
20.0
141
0.0
143
0.0393701
146
0.71
147
6.0
172
     1
176
   256
177
   256
178
   256
271
     2
272
     2
283
     2
284
     8
340
11
371
    -1
372
    -1
  0
ENDTAB
  0
TABLE
  2
BLOCK_RECORD
  5
1
330
0
100
AcDbSymbolTable
 70
    29
  0
BLOCK_RECORD
  5
1F
102
{ACAD_XDICTIONARY
360
8F
102
}
330
1
100
AcDbSymbolTableRecord
100
AcDbBlockTableRecord
  2
*Model_Space
340
22
  0
BLOCK_RECORD
  5
1B
330
1
100
AcDbSymbolTableRecord
100
AcDbBlockTableRecord
  2
*Paper_Space
340
1E
  0
BLOCK_RECORD
  5
23
330
1
100
AcDbSymbolTableRecord
100
AcDbBlockTableRecord
  2
*Paper_Space0
340
26
  0
BLOCK_RECORD
  5
87
330
1
100
AcDbSymbolTableRecord
100
AcDbBlockTableRecord
  2
GENAXEH
340
0
  0
BLOCK_RECORD
  5
3E5B
330
1
100
AcDbSymbolTableRecord
100
AcDbBlockTableRecord
  2
*D3
340
0
  0
BLOCK_RECORD
  5
3E67
330
1
100
AcDbSymbolTableRecord
100
AcDbBlockTableRecord
  2
*D4
340
0
  0
BLOCK_RECORD
  5
3E8B
330
1
100
AcDbSymbolTableRecord
100
AcDbBlockTableRecord
  2
*D5
340
0
  0
BLOCK_RECORD
  5
3E97
330
1
100
AcDbSymbolTableRecord
100
AcDbBlockTableRecord
  2
*D6
340
0
  0
BLOCK_RECORD
  5
3EBA
330
1
100
AcDbSymbolTableRecord
100
AcDbBlockTableRecord
  2
*D7
340
0
  0
BLOCK_RECORD
  5
3EC6
330
1
100
AcDbSymbolTableRecord
100
AcDbBlockTableRecord
  2
*D8
340
0
  0
BLOCK_RECORD
  5
3ED2
330
1
100
AcDbSymbolTableRecord
100
AcDbBlockTableRecord
  2
*D9
340
0
  0
BLOCK_RECORD
  5
3EDE
330
1
100
AcDbSymbolTableRecord
100
AcDbBlockTableRecord
  2
*D10
340
0
  0
BLOCK_RECORD
  5
3EEA
330
1
100
AcDbSymbolTableRecord
100
AcDbBlockTableRecord
  2
*D11
340
0
  0
BLOCK_RECORD
  5
3F26
330
1
100
AcDbSymbolTableRecord
100
AcDbBlockTableRecord
  2
*D12
340
0
  0
BLOCK_RECORD
  5
3F32
330
1
100
AcDbSymbolTableRecord
100
AcDbBlockTableRecord
  2
*D13
340
0
  0
BLOCK_RECORD
  5
3F3E
330
1
100
AcDbSymbolTableRecord
100
AcDbBlockTableRecord
  2
*D14
340
0
  0
BLOCK_RECORD
  5
3F67
330
1
100
AcDbSymbolTableRecord
100
AcDbBlockTableRecord
  2
*D15
340
0
  0
BLOCK_RECORD
  5
3F73
330
1
100
AcDbSymbolTableRecord
100
AcDbBlockTableRecord
  2
*D16
340
0
  0
BLOCK_RECORD
  5
3F94
330
1
100
AcDbSymbolTableRecord
100
AcDbBlockTableRecord
  2
*D17
340
0
  0
BLOCK_RECORD
  5
418A
330
1
100
AcDbSymbolTableRecord
100
AcDbBlockTableRecord
  2
*D18
340
0
  0
BLOCK_RECORD
  5
4198
330
1
100
AcDbSymbolTableRecord
100
AcDbBlockTableRecord
  2
*D19
340
0
  0
BLOCK_RECORD
  5
41A6
330
1
100
AcDbSymbolTableRecord
100
AcDbBlockTableRecord
  2
*D20
340
0
  0
BLOCK_RECORD
  5
41B2
330
1
100
AcDbSymbolTableRecord
100
AcDbBlockTableRecord
  2
*D21
340
0
  0
BLOCK_RECORD
  5
41C0
330
1
100
AcDbSymbolTableRecord
100
AcDbBlockTableRecord
  2
*D22
340
0
  0
BLOCK_RECORD
  5
41CE
330
1
100
AcDbSymbolTableRecord
100
AcDbBlockTableRecord
  2
*D23
340
0
  0
BLOCK_RECORD
  5
41DC
330
1
100
AcDbSymbolTableRecord
100
AcDbBlockTableRecord
  2
*D24
340
0
  0
BLOCK_RECORD
  5
741B
330
1
100
AcDbSymbolTableRecord
100
AcDbBlockTableRecord
  2
*D25
340
0
  0
BLOCK_RECORD
  5
7A13
330
1
100
AcDbSymbolTableRecord
100
AcDbBlockTableRecord
  2
*S27
340
0
  0
BLOCK_RECORD
  5
7A1B
330
1
100
AcDbSymbolTableRecord
100
AcDbBlockTableRecord
  2
*S28
340
0
  0
ENDTAB
  0
ENDSEC
  0
SECTION
  2
BLOCKS
  0
BLOCK
  5
20
330
1F
100
AcDbEntity
  8
0
100
AcDbBlockBegin
  2
*Model_Space
 70
     0
 10
0.0
 20
0.0
 30
0.0
  3
*Model_Space
  1

  0
ENDBLK
  5
21
330
1F
100
AcDbEntity
  8
0
100
AcDbBlockEnd
  0
BLOCK
  5
1C
330
1B
100
AcDbEntity
 67
     1
  8
0
100
AcDbBlockBegin
  2
*Paper_Space
 70
     0
 10
0.0
 20
0.0
 30
0.0
  3
*Paper_Space
  1

  0
ENDBLK
  5
1D
330
1B
100
AcDbEntity
 67
     1
  8
0
100
AcDbBlockEnd
  0
BLOCK
  5
24
330
23
100
AcDbEntity
  8
0
100
AcDbBlockBegin
  2
*Paper_Space0
 70
     0
 10
0.0
 20
0.0
 30
0.0
  3
*Paper_Space0
  1

  0
ENDBLK
  5
25
330
23
100
AcDbEntity
  8
0
100
AcDbBlockEnd
  0
BLOCK
  5
89
330
87
100
AcDbEntity
  8
0
100
AcDbBlockBegin
  2
GENAXEH
 70
     0
 10
0.0
 20
0.0
 30
0.0
  3
GENAXEH
  1

  0
LINE
  5
88
330
87
100
AcDbEntity
  8
0
100
AcDbLine
 10
-1.0
 20
0.0
 30
0.0
 11
1.0
 21
0.0
 31
0.0
  0
ENDBLK
  5
8A
330
87
100
AcDbEntity
  8
0
100
AcDbBlockEnd
  0
BLOCK
  5
3E65
330
3E5B
100
AcDbEntity
  8
0
100
AcDbBlockBegin
  2
*D3
 70
     1
 10
0.0
 20
0.0
 30
0.0
  3
*D3
  1

  0
LINE
  5
6A97
330
3E5B
100
AcDbEntity
  8
AM_5
100
AcDbLine
 10
5835.444932861902
 20
1724.343980758828
 30
0.0
 11
5835.444932861902
 21
1675.767157255794
 31
0.0
  0
LINE
  5
6A98
330
3E5B
100
AcDbEntity
  8
AM_5
100
AcDbLine
 10
6005.444932861902
 20
1725.111584543012
 30
0.0
 11
6005.444932861902
 21
1675.767157255794
 31
0.0
  0
LINE
  5
6A99
330
3E5B
100
AcDbEntity
  8
AM_5
100
AcDbLine
 10
5855.444932861902
 20
1679.767157255794
 30
0.0
 11
5985.444932861902
 21
1679.767157255794
 31
0.0
  0
SOLID
  5
6A9A
330
3E5B
100
AcDbEntity
  8
AM_5
100
AcDbTrace
 10
5855.444932861902
 20
1683.100490589128
 30
0.0
 11
5855.444932861902
 21
1676.433823922461
 31
0.0
 12
5835.444932861902
 22
1679.767157255794
 32
0.0
 13
5835.444932861902
 23
1679.767157255794
 33
0.0
  0
SOLID
  5
6A9B
330
3E5B
100
AcDbEntity
  8
AM_5
100
AcDbTrace
 10
5985.444932861902
 20
1683.100490589128
 30
0.0
 11
5985.444932861902
 21
1676.433823922461
 31
0.0
 12
6005.444932861902
 22
1679.767157255794
 32
0.0
 13
6005.444932861902
 23
1679.767157255794
 33
0.0
  0
MTEXT
  5
6A9C
330
3E5B
100
AcDbEntity
  8
AM_5
100
AcDbMText
 10
5920.444932861902
 20
1695.767157255794
 30
0.0
 40
20.0
 41
0.0
 71
     5
 72
     1
  1
\A2;170
 73
     1
 44
1.0
1001
ACAD
1000
MTEXTBEGIN
1070
    73
1070
     1
1070
    44
1040
1.0
1070
    74
1070
     0
1000
MTEXTEND
  0
POINT
  5
6A9D
330
3E5B
100
AcDbEntity
  8
Defpoints
 62
     0
100
AcDbPoint
 10
5835.444932861902
 20
1727.343980758828
 30
0.0
  0
POINT
  5
6A9E
330
3E5B
100
AcDbEntity
  8
Defpoints
 62
     0
100
AcDbPoint
 10
6005.444932861902
 20
1728.111584543012
 30
0.0
  0
POINT
  5
6A9F
330
3E5B
100
AcDbEntity
  8
Defpoints
 62
     0
100
AcDbPoint
 10
6005.444932861902
 20
1679.767157255794
 30
0.0
  0
ENDBLK
  5
3E66
330
3E5B
100
AcDbEntity
  8
0
100
AcDbBlockEnd
  0
BLOCK
  5
3E71
330
3E67
100
AcDbEntity
  8
0
100
AcDbBlockBegin
  2
*D4
 70
     1
 10
0.0
 20
0.0
 30
0.0
  3
*D4
  1

  0
LINE
  5
6AA0
330
3E67
100
AcDbEntity
  8
AM_5
100
AcDbLine
 10
5820.444932861902
 20
1736.767157255794
 30
0.0
 11
5820.444932861902
 21
1625.767157255794
 31
0.0
  0
LINE
  5
6AA1
330
3E67
100
AcDbEntity
  8
AM_5
100
AcDbLine
 10
6020.444932861902
 20
1736.767157255794
 30
0.0
 11
6020.444932861902
 21
1625.767157255794
 31
0.0
  0
LINE
  5
6AA2
330
3E67
100
AcDbEntity
  8
AM_5
100
AcDbLine
 10
5840.444932861903
 20
1629.767157255794
 30
0.0
 11
6000.444932861903
 21
1629.767157255794
 31
0.0
  0
SOLID
  5
6AA3
330
3E67
100
AcDbEntity
  8
AM_5
100
AcDbTrace
 10
5840.444932861903
 20
1633.100490589128
 30
0.0
 11
5840.444932861903
 21
1626.433823922461
 31
0.0
 12
5820.444932861902
 22
1629.767157255794
 32
0.0
 13
5820.444932861902
 23
1629.767157255794
 33
0.0
  0
SOLID
  5
6AA4
330
3E67
100
AcDbEntity
  8
AM_5
100
AcDbTrace
 10
6000.444932861903
 20
1633.100490589128
 30
0.0
 11
6000.444932861903
 21
1626.433823922461
 31
0.0
 12
6020.444932861902
 22
1629.767157255794
 32
0.0
 13
6020.444932861902
 23
1629.767157255794
 33
0.0
  0
MTEXT
  5
6AA5
330
3E67
100
AcDbEntity
  8
AM_5
100
AcDbMText
 10
5920.444932861902
 20
1645.769125759731
 30
0.0
 40
20.0
 41
0.0
 71
     5
 72
     1
  1
\A2;200
 73
     1
 44
1.0
1001
ACAD
1000
MTEXTBEGIN
1070
    73
1070
     1
1070
    44
1040
1.0
1070
    74
1070
     0
1000
MTEXTEND
  0
POINT
  5
6AA6
330
3E67
100
AcDbEntity
  8
Defpoints
 62
     0
100
AcDbPoint
 10
5820.444932861902
 20
1739.767157255794
 30
0.0
  0
POINT
  5
6AA7
330
3E67
100
AcDbEntity
  8
Defpoints
 62
     0
100
AcDbPoint
 10
6020.444932861902
 20
1739.767157255794
 30
0.0
  0
POINT
  5
6AA8
330
3E67
100
AcDbEntity
  8
Defpoints
 62
     0
100
AcDbPoint
 10
6020.444932861902
 20
1629.767157255794
 30
0.0
  0
ENDBLK
  5
3E72
330
3E67
100
AcDbEntity
  8
0
100
AcDbBlockEnd
  0
BLOCK
  5
3E95
330
3E8B
100
AcDbEntity
  8
0
100
AcDbBlockBegin
  2
*D5
 70
     1
 10
0.0
 20
0.0
 30
0.0
  3
*D5
  1

  0
LINE
  5
6AA9
330
3E8B
100
AcDbEntity
  8
AM_5
100
AcDbLine
 10
6328.842631888591
 20
1723.969549505618
 30
0.0
 11
6328.842631888591
 21
1675.767157255794
 31
0.0
  0
LINE
  5
6AAA
330
3E8B
100
AcDbEntity
  8
AM_5
100
AcDbLine
 10
6558.842631888591
 20
1724.816840729235
 30
0.0
 11
6558.842631888591
 21
1675.767157255794
 31
0.0
  0
LINE
  5
6AAB
330
3E8B
100
AcDbEntity
  8
AM_5
100
AcDbLine
 10
6348.84263188859
 20
1679.767157255795
 30
0.0
 11
6538.842631888591
 21
1679.767157255795
 31
0.0
  0
SOLID
  5
6AAC
330
3E8B
100
AcDbEntity
  8
AM_5
100
AcDbTrace
 10
6348.84263188859
 20
1683.100490589128
 30
0.0
 11
6348.84263188859
 21
1676.433823922461
 31
0.0
 12
6328.842631888591
 22
1679.767157255795
 32
0.0
 13
6328.842631888591
 23
1679.767157255795
 33
0.0
  0
SOLID
  5
6AAD
330
3E8B
100
AcDbEntity
  8
AM_5
100
AcDbTrace
 10
6538.842631888591
 20
1683.100490589128
 30
0.0
 11
6538.842631888591
 21
1676.433823922461
 31
0.0
 12
6558.842631888591
 22
1679.767157255795
 32
0.0
 13
6558.842631888591
 23
1679.767157255795
 33
0.0
  0
MTEXT
  5
6AAE
330
3E8B
100
AcDbEntity
  8
AM_5
100
AcDbMText
 10
6443.84263188859
 20
1695.769125759731
 30
0.0
 40
20.0
 41
0.0
 71
     5
 72
     1
  1
\A2;230
 73
     1
 44
1.0
1001
ACAD
1000
MTEXTBEGIN
1070
    73
1070
     1
1070
    44
1040
1.0
1070
    74
1070
     0
1000
MTEXTEND
  0
POINT
  5
6AAF
330
3E8B
100
AcDbEntity
  8
Defpoints
 62
     0
100
AcDbPoint
 10
6328.842631888591
 20
1726.969549505619
 30
0.0
  0
POINT
  5
6AB0
330
3E8B
100
AcDbEntity
  8
Defpoints
 62
     0
100
AcDbPoint
 10
6558.842631888591
 20
1727.816840729235
 30
0.0
  0
POINT
  5
6AB1
330
3E8B
100
AcDbEntity
  8
Defpoints
 62
     0
100
AcDbPoint
 10
6558.842631888591
 20
1679.767157255795
 30
0.0
  0
ENDBLK
  5
3E96
330
3E8B
100
AcDbEntity
  8
0
100
AcDbBlockEnd
  0
BLOCK
  5
3EA1
330
3E97
100
AcDbEntity
  8
0
100
AcDbBlockBegin
  2
*D6
 70
     1
 10
0.0
 20
0.0
 30
0.0
  3
*D6
  1

  0
LINE
  5
6AB2
330
3E97
100
AcDbEntity
  8
AM_5
100
AcDbLine
 10
6313.84263188859
 20
1736.767157255794
 30
0.0
 11
6313.84263188859
 21
1625.767157255794
 31
0.0
  0
LINE
  5
6AB3
330
3E97
100
AcDbEntity
  8
AM_5
100
AcDbLine
 10
6693.84263188859
 20
1736.767157255794
 30
0.0
 11
6693.84263188859
 21
1625.767157255794
 31
0.0
  0
LINE
  5
6AB4
330
3E97
100
AcDbEntity
  8
AM_5
100
AcDbLine
 10
6333.84263188859
 20
1629.767157255794
 30
0.0
 11
6673.842631888589
 21
1629.767157255794
 31
0.0
  0
SOLID
  5
6AB5
330
3E97
100
AcDbEntity
  8
AM_5
100
AcDbTrace
 10
6333.84263188859
 20
1633.100490589127
 30
0.0
 11
6333.84263188859
 21
1626.43382392246
 31
0.0
 12
6313.84263188859
 22
1629.767157255794
 32
0.0
 13
6313.84263188859
 23
1629.767157255794
 33
0.0
  0
SOLID
  5
6AB6
330
3E97
100
AcDbEntity
  8
AM_5
100
AcDbTrace
 10
6673.842631888589
 20
1633.100490589127
 30
0.0
 11
6673.842631888589
 21
1626.43382392246
 31
0.0
 12
6693.84263188859
 22
1629.767157255794
 32
0.0
 13
6693.84263188859
 23
1629.767157255794
 33
0.0
  0
MTEXT
  5
6AB7
330
3E97
100
AcDbEntity
  8
AM_5
100
AcDbMText
 10
6503.842631888591
 20
1645.767157255794
 30
0.0
 40
20.0
 41
0.0
 71
     5
 72
     1
  1
\A2;380
 73
     1
 44
1.0
1001
ACAD
1000
MTEXTBEGIN
1070
    73
1070
     1
1070
    44
1040
1.0
1070
    74
1070
     0
1000
MTEXTEND
  0
POINT
  5
6AB8
330
3E97
100
AcDbEntity
  8
Defpoints
 62
     0
100
AcDbPoint
 10
6313.84263188859
 20
1739.767157255794
 30
0.0
  0
POINT
  5
6AB9
330
3E97
100
AcDbEntity
  8
Defpoints
 62
     0
100
AcDbPoint
 10
6693.84263188859
 20
1739.767157255794
 30
0.0
  0
POINT
  5
6ABA
330
3E97
100
AcDbEntity
  8
Defpoints
 62
     0
100
AcDbPoint
 10
6693.84263188859
 20
1629.767157255794
 30
0.0
  0
ENDBLK
  5
3EA2
330
3E97
100
AcDbEntity
  8
0
100
AcDbBlockEnd
  0
BLOCK
  5
3EC4
330
3EBA
100
AcDbEntity
  8
0
100
AcDbBlockBegin
  2
*D7
 70
     1
 10
0.0
 20
0.0
 30
0.0
  3
*D7
  1

  0
LINE
  5
6ABB
330
3EBA
100
AcDbEntity
  8
AM_5
100
AcDbLine
 10
6310.84263188859
 20
1739.767157255794
 30
0.0
 11
6249.84263188859
 21
1739.767157255794
 31
0.0
  0
LINE
  5
6ABC
330
3EBA
100
AcDbEntity
  8
AM_5
100
AcDbLine
 10
6345.84263188859
 20
1819.767157255794
 30
0.0
 11
6249.84263188859
 21
1819.767157255794
 31
0.0
  0
LINE
  5
6ABD
330
3EBA
100
AcDbEntity
  8
AM_5
100
AcDbLine
 10
6253.84263188859
 20
1759.767157255794
 30
0.0
 11
6253.84263188859
 21
1799.767157255794
 31
0.0
  0
SOLID
  5
6ABE
330
3EBA
100
AcDbEntity
  8
AM_5
100
AcDbTrace
 10
6250.509298555257
 20
1759.767157255794
 30
0.0
 11
6257.175965221923
 21
1759.767157255794
 31
0.0
 12
6253.84263188859
 22
1739.767157255794
 32
0.0
 13
6253.84263188859
 23
1739.767157255794
 33
0.0
  0
SOLID
  5
6ABF
330
3EBA
100
AcDbEntity
  8
AM_5
100
AcDbTrace
 10
6250.509298555257
 20
1799.767157255794
 30
0.0
 11
6257.175965221923
 21
1799.767157255794
 31
0.0
 12
6253.84263188859
 22
1819.767157255794
 32
0.0
 13
6253.84263188859
 23
1819.767157255794
 33
0.0
  0
MTEXT
  5
6AC0
330
3EBA
100
AcDbEntity
  8
AM_5
100
AcDbMText
 10
6237.84263188859
 20
1779.767157255795
 30
0.0
 40
20.0
 41
0.0
 71
     5
 72
     1
  1
\A2;80
 11
0.0000000000000001
 21
1.0
 31
0.0
 73
     1
 44
1.0
1001
ACAD
1000
MTEXTBEGIN
1070
    73
1070
     1
1070
    44
1040
1.0
1070
    74
1070
     0
1000
MTEXTEND
  0
POINT
  5
6AC1
330
3EBA
100
AcDbEntity
  8
Defpoints
 62
     0
100
AcDbPoint
 10
6313.84263188859
 20
1739.767157255794
 30
0.0
  0
POINT
  5
6AC2
330
3EBA
100
AcDbEntity
  8
Defpoints
 62
     0
100
AcDbPoint
 10
6348.84263188859
 20
1819.767157255794
 30
0.0
  0
POINT
  5
6AC3
330
3EBA
100
AcDbEntity
  8
Defpoints
 62
     0
100
AcDbPoint
 10
6253.84263188859
 20
1819.767157255794
 30
0.0
  0
ENDBLK
  5
3EC5
330
3EBA
100
AcDbEntity
  8
0
100
AcDbBlockEnd
  0
BLOCK
  5
3ED0
330
3EC6
100
AcDbEntity
  8
0
100
AcDbBlockBegin
  2
*D8
 70
     1
 10
0.0
 20
0.0
 30
0.0
  3
*D8
  1

  0
LINE
  5
79AD
330
3EC6
100
AcDbEntity
  8
AM_5
100
AcDbLine
 10
6345.84263188859
 20
1819.767157255794
 30
0.0
 11
6249.84263188859
 21
1819.767157255794
 31
0.0
  0
LINE
  5
79AE
330
3EC6
100
AcDbEntity
  8
AM_5
100
AcDbLine
 10
6420.342631888591
 20
2008.891481149547
 30
0.0
 11
6249.84263188859
 21
2008.891481149547
 31
0.0
  0
LINE
  5
79AF
330
3EC6
100
AcDbEntity
  8
AM_5
100
AcDbLine
 10
6253.84263188859
 20
1839.767157255794
 30
0.0
 11
6253.84263188859
 21
1988.891481149547
 31
0.0
  0
SOLID
  5
79B0
330
3EC6
100
AcDbEntity
  8
AM_5
100
AcDbTrace
 10
6250.509298555257
 20
1839.767157255794
 30
0.0
 11
6257.175965221923
 21
1839.767157255794
 31
0.0
 12
6253.84263188859
 22
1819.767157255794
 32
0.0
 13
6253.84263188859
 23
1819.767157255794
 33
0.0
  0
SOLID
  5
79B1
330
3EC6
100
AcDbEntity
  8
AM_5
100
AcDbTrace
 10
6250.509298555257
 20
1988.891481149547
 30
0.0
 11
6257.175965221923
 21
1988.891481149547
 31
0.0
 12
6253.84263188859
 22
2008.891481149547
 32
0.0
 13
6253.84263188859
 23
2008.891481149547
 33
0.0
  0
MTEXT
  5
79B2
330
3EC6
100
AcDbEntity
  8
AM_5
100
AcDbMText
 10
6237.840663384654
 20
1914.329319202671
 30
0.0
 40
20.0
 41
0.0
 71
     5
 72
     1
  1
\A2;Max. 200
 11
0.0000000000000001
 21
1.0
 31
0.0
 73
     1
 44
1.0
1001
ACAD
1000
MTEXTBEGIN
1070
    73
1070
     1
1070
    44
1040
1.0
1070
    74
1070
     0
1000
MTEXTEND
  0
POINT
  5
79B3
330
3EC6
100
AcDbEntity
  8
Defpoints
 62
     0
100
AcDbPoint
 10
6348.84263188859
 20
1819.767157255794
 30
0.0
  0
POINT
  5
79B4
330
3EC6
100
AcDbEntity
  8
Defpoints
 62
     0
100
AcDbPoint
 10
6423.342631888592
 20
2008.891481149547
 30
0.0
  0
POINT
  5
79B5
330
3EC6
100
AcDbEntity
  8
Defpoints
 62
     0
100
AcDbPoint
 10
6253.84263188859
 20
2008.891481149547
 30
0.0
  0
ENDBLK
  5
3ED1
330
3EC6
100
AcDbEntity
  8
0
100
AcDbBlockEnd
  0
BLOCK
  5
3EDC
330
3ED2
100
AcDbEntity
  8
0
100
AcDbBlockBegin
  2
*D9
 70
     1
 10
0.0
 20
0.0
 30
0.0
  3
*D9
  1

  0
LINE
  5
6ACD
330
3ED2
100
AcDbEntity
  8
AM_5
100
AcDbLine
 10
6420.342631888591
 20
2008.891481149547
 30
0.0
 11
6249.84263188859
 21
2008.891481149547
 31
0.0
  0
LINE
  5
6ACE
330
3ED2
100
AcDbEntity
  8
AM_5
100
AcDbLine
 10
6375.84263188859
 20
2123.891481149547
 30
0.0
 11
6249.84263188859
 21
2123.891481149547
 31
0.0
  0
LINE
  5
6ACF
330
3ED2
100
AcDbEntity
  8
AM_5
100
AcDbLine
 10
6253.84263188859
 20
2028.891481149547
 30
0.0
 11
6253.84263188859
 21
2103.891481149547
 31
0.0
  0
SOLID
  5
6AD0
330
3ED2
100
AcDbEntity
  8
AM_5
100
AcDbTrace
 10
6250.509298555257
 20
2028.891481149547
 30
0.0
 11
6257.175965221922
 21
2028.891481149547
 31
0.0
 12
6253.84263188859
 22
2008.891481149547
 32
0.0
 13
6253.84263188859
 23
2008.891481149547
 33
0.0
  0
SOLID
  5
6AD1
330
3ED2
100
AcDbEntity
  8
AM_5
100
AcDbTrace
 10
6250.509298555257
 20
2103.891481149547
 30
0.0
 11
6257.175965221923
 21
2103.891481149547
 31
0.0
 12
6253.84263188859
 22
2123.891481149547
 32
0.0
 13
6253.84263188859
 23
2123.891481149547
 33
0.0
  0
MTEXT
  5
6AD2
330
3ED2
100
AcDbEntity
  8
AM_5
100
AcDbMText
 10
6237.84263188859
 20
2066.391481149548
 30
0.0
 40
20.0
 41
0.0
 71
     5
 72
     1
  1
\A2;115
 11
0.0000000000000001
 21
1.0
 31
0.0
 73
     1
 44
1.0
1001
ACAD
1000
MTEXTBEGIN
1070
    73
1070
     1
1070
    44
1040
1.0
1070
    74
1070
     0
1000
MTEXTEND
  0
POINT
  5
6AD3
330
3ED2
100
AcDbEntity
  8
Defpoints
 62
     0
100
AcDbPoint
 10
6423.342631888592
 20
2008.891481149547
 30
0.0
  0
POINT
  5
6AD4
330
3ED2
100
AcDbEntity
  8
Defpoints
 62
     0
100
AcDbPoint
 10
6378.84263188859
 20
2123.891481149547
 30
0.0
  0
POINT
  5
6AD5
330
3ED2
100
AcDbEntity
  8
Defpoints
 62
     0
100
AcDbPoint
 10
6253.84263188859
 20
2123.891481149547
 30
0.0
  0
ENDBLK
  5
3EDD
330
3ED2
100
AcDbEntity
  8
0
100
AcDbBlockEnd
  0
BLOCK
  5
3EE8
330
3EDE
100
AcDbEntity
  8
0
100
AcDbBlockBegin
  2
*D10
 70
     1
 10
0.0
 20
0.0
 30
0.0
  3
*D10
  1

  0
LINE
  5
6AD6
330
3EDE
100
AcDbEntity
  8
AM_5
100
AcDbLine
 10
6375.84263188859
 20
2123.891481149547
 30
0.0
 11
6249.84263188859
 21
2123.891481149547
 31
0.0
  0
LINE
  5
6AD7
330
3EDE
100
AcDbEntity
  8
AM_5
100
AcDbLine
 10
6410.84263188859
 20
2566.891481149548
 30
0.0
 11
6249.84263188859
 21
2566.891481149548
 31
0.0
  0
LINE
  5
6AD8
330
3EDE
100
AcDbEntity
  8
AM_5
100
AcDbLine
 10
6253.84263188859
 20
2143.891481149548
 30
0.0
 11
6253.84263188859
 21
2546.891481149548
 31
0.0
  0
SOLID
  5
6AD9
330
3EDE
100
AcDbEntity
  8
AM_5
100
AcDbTrace
 10
6250.509298555257
 20
2143.891481149548
 30
0.0
 11
6257.175965221923
 21
2143.891481149548
 31
0.0
 12
6253.84263188859
 22
2123.891481149547
 32
0.0
 13
6253.84263188859
 23
2123.891481149547
 33
0.0
  0
SOLID
  5
6ADA
330
3EDE
100
AcDbEntity
  8
AM_5
100
AcDbTrace
 10
6250.509298555257
 20
2546.891481149548
 30
0.0
 11
6257.175965221923
 21
2546.891481149548
 31
0.0
 12
6253.84263188859
 22
2566.891481149548
 32
0.0
 13
6253.84263188859
 23
2566.891481149548
 33
0.0
  0
MTEXT
  5
6ADB
330
3EDE
100
AcDbEntity
  8
AM_5
100
AcDbMText
 10
6237.84263188859
 20
2345.391481149548
 30
0.0
 40
20.0
 41
0.0
 71
     5
 72
     1
  1
\A2;443
 11
0.0000000000000001
 21
1.0
 31
0.0
 73
     1
 44
1.0
1001
ACAD
1000
MTEXTBEGIN
1070
    73
1070
     1
1070
    44
1040
1.0
1070
    74
1070
     0
1000
MTEXTEND
  0
POINT
  5
6ADC
330
3EDE
100
AcDbEntity
  8
Defpoints
 62
     0
100
AcDbPoint
 10
6378.84263188859
 20
2123.891481149547
 30
0.0
  0
POINT
  5
6ADD
330
3EDE
100
AcDbEntity
  8
Defpoints
 62
     0
100
AcDbPoint
 10
6413.842631888591
 20
2566.891481149548
 30
0.0
  0
POINT
  5
6ADE
330
3EDE
100
AcDbEntity
  8
Defpoints
 62
     0
100
AcDbPoint
 10
6253.84263188859
 20
2566.891481149548
 30
0.0
  0
ENDBLK
  5
3EE9
330
3EDE
100
AcDbEntity
  8
0
100
AcDbBlockEnd
  0
BLOCK
  5
3EF4
330
3EEA
100
AcDbEntity
  8
0
100
AcDbBlockBegin
  2
*D11
 70
     1
 10
0.0
 20
0.0
 30
0.0
  3
*D11
  1

  0
LINE
  5
79A3
330
3EEA
100
AcDbEntity
  8
AM_5
100
AcDbLine
 10
6310.84263188859
 20
1739.767157255794
 30
0.0
 11
6199.842631888589
 21
1739.767157255794
 31
0.0
  0
LINE
  5
79A4
330
3EEA
100
AcDbEntity
  8
AM_5
100
AcDbLine
 10
6410.84263188859
 20
2566.891481149548
 30
0.0
 11
6199.84263188859
 21
2566.891481149548
 31
0.0
  0
LINE
  5
79A5
330
3EEA
100
AcDbEntity
  8
AM_5
100
AcDbLine
 10
6203.84263188859
 20
1759.767157255794
 30
0.0
 11
6203.842631888591
 21
2546.891481149548
 31
0.0
  0
SOLID
  5
79A6
330
3EEA
100
AcDbEntity
  8
AM_5
100
AcDbTrace
 10
6200.509298555257
 20
1759.767157255794
 30
0.0
 11
6207.175965221923
 21
1759.767157255794
 31
0.0
 12
6203.84263188859
 22
1739.767157255794
 32
0.0
 13
6203.84263188859
 23
1739.767157255794
 33
0.0
  0
SOLID
  5
79A7
330
3EEA
100
AcDbEntity
  8
AM_5
100
AcDbTrace
 10
6200.509298555257
 20
2546.891481149548
 30
0.0
 11
6207.175965221924
 21
2546.891481149548
 31
0.0
 12
6203.842631888591
 22
2566.891481149548
 32
0.0
 13
6203.842631888591
 23
2566.891481149548
 33
0.0
  0
MTEXT
  5
79A8
330
3EEA
100
AcDbEntity
  8
AM_5
100
AcDbMText
 10
6187.842631888589
 20
2153.329319202672
 30
0.0
 40
20.0
 41
0.0
 71
     5
 72
     1
  1
\A2;Max. 850
 11
0.0000000000000001
 21
1.0
 31
0.0
 73
     1
 44
1.0
1001
ACAD
1000
MTEXTBEGIN
1070
    73
1070
     1
1070
    44
1040
1.0
1070
    74
1070
     0
1000
MTEXTEND
  0
POINT
  5
79A9
330
3EEA
100
AcDbEntity
  8
Defpoints
 62
     0
100
AcDbPoint
 10
6313.84263188859
 20
1739.767157255794
 30
0.0
  0
POINT
  5
79AA
330
3EEA
100
AcDbEntity
  8
Defpoints
 62
     0
100
AcDbPoint
 10
6413.842631888591
 20
2566.891481149548
 30
0.0
  0
POINT
  5
79AB
330
3EEA
100
AcDbEntity
  8
Defpoints
 62
     0
100
AcDbPoint
 10
6203.842631888591
 20
2566.891481149548
 30
0.0
  0
ENDBLK
  5
3EF5
330
3EEA
100
AcDbEntity
  8
0
100
AcDbBlockEnd
  0
BLOCK
  5
3F30
330
3F26
100
AcDbEntity
  8
0
100
AcDbBlockBegin
  2
*D12
 70
     1
 10
0.0
 20
0.0
 30
0.0
  3
*D12
  1

  0
LINE
  5
6AE8
330
3F26
100
AcDbEntity
  8
AM_5
100
AcDbLine
 10
6696.84263188859
 20
1739.767157255794
 30
0.0
 11
6757.84263188859
 21
1739.767157255794
 31
0.0
  0
LINE
  5
6AE9
330
3F26
100
AcDbEntity
  8
AM_5
100
AcDbLine
 10
6696.84263188859
 20
1819.767157255794
 30
0.0
 11
6757.84263188859
 21
1819.767157255794
 31
0.0
  0
LINE
  5
6AEA
330
3F26
100
AcDbEntity
  8
AM_5
100
AcDbLine
 10
6753.842631888591
 20
1759.767157255794
 30
0.0
 11
6753.842631888591
 21
1799.767157255794
 31
0.0
  0
SOLID
  5
6AEB
330
3F26
100
AcDbEntity
  8
AM_5
100
AcDbTrace
 10
6750.509298555257
 20
1759.767157255794
 30
0.0
 11
6757.175965221924
 21
1759.767157255794
 31
0.0
 12
6753.842631888591
 22
1739.767157255794
 32
0.0
 13
6753.842631888591
 23
1739.767157255794
 33
0.0
  0
SOLID
  5
6AEC
330
3F26
100
AcDbEntity
  8
AM_5
100
AcDbTrace
 10
6750.509298555257
 20
1799.767157255794
 30
0.0
 11
6757.175965221924
 21
1799.767157255794
 31
0.0
 12
6753.842631888591
 22
1819.767157255794
 32
0.0
 13
6753.842631888591
 23
1819.767157255794
 33
0.0
  0
MTEXT
  5
6AED
330
3F26
100
AcDbEntity
  8
AM_5
100
AcDbMText
 10
6737.84263188859
 20
1779.767157255795
 30
0.0
 40
20.0
 41
0.0
 71
     5
 72
     1
  1
\A2;80
 11
0.0000000000000001
 21
1.0
 31
0.0
 73
     1
 44
1.0
1001
ACAD
1000
MTEXTBEGIN
1070
    73
1070
     1
1070
    44
1040
1.0
1070
    74
1070
     0
1000
MTEXTEND
  0
POINT
  5
6AEE
330
3F26
100
AcDbEntity
  8
Defpoints
 62
     0
100
AcDbPoint
 10
6693.84263188859
 20
1739.767157255794
 30
0.0
  0
POINT
  5
6AEF
330
3F26
100
AcDbEntity
  8
Defpoints
 62
     0
100
AcDbPoint
 10
6693.84263188859
 20
1819.767157255794
 30
0.0
  0
POINT
  5
6AF0
330
3F26
100
AcDbEntity
  8
Defpoints
 62
     0
100
AcDbPoint
 10
6753.842631888591
 20
1819.767157255794
 30
0.0
  0
ENDBLK
  5
3F31
330
3F26
100
AcDbEntity
  8
0
100
AcDbBlockEnd
  0
BLOCK
  5
3F3C
330
3F32
100
AcDbEntity
  8
0
100
AcDbBlockBegin
  2
*D13
 70
     1
 10
0.0
 20
0.0
 30
0.0
  3
*D13
  1

  0
LINE
  5
6AF1
330
3F32
100
AcDbEntity
  8
AM_5
100
AcDbLine
 10
6696.84263188859
 20
2043.891481149548
 30
0.0
 11
6757.84263188859
 21
2043.891481149548
 31
0.0
  0
LINE
  5
6AF2
330
3F32
100
AcDbEntity
  8
AM_5
100
AcDbLine
 10
6696.84263188859
 20
2123.891481149547
 30
0.0
 11
6757.84263188859
 21
2123.891481149547
 31
0.0
  0
LINE
  5
6AF3
330
3F32
100
AcDbEntity
  8
AM_5
100
AcDbLine
 10
6753.842631888591
 20
2063.891481149548
 30
0.0
 11
6753.842631888591
 21
2103.891481149547
 31
0.0
  0
SOLID
  5
6AF4
330
3F32
100
AcDbEntity
  8
AM_5
100
AcDbTrace
 10
6750.509298555257
 20
2063.891481149548
 30
0.0
 11
6757.175965221924
 21
2063.891481149548
 31
0.0
 12
6753.84263188859
 22
2043.891481149548
 32
0.0
 13
6753.84263188859
 23
2043.891481149548
 33
0.0
  0
SOLID
  5
6AF5
330
3F32
100
AcDbEntity
  8
AM_5
100
AcDbTrace
 10
6750.509298555257
 20
2103.891481149547
 30
0.0
 11
6757.175965221924
 21
2103.891481149547
 31
0.0
 12
6753.842631888591
 22
2123.891481149547
 32
0.0
 13
6753.842631888591
 23
2123.891481149547
 33
0.0
  0
MTEXT
  5
6AF6
330
3F32
100
AcDbEntity
  8
AM_5
100
AcDbMText
 10
6737.84263188859
 20
2083.891481149549
 30
0.0
 40
20.0
 41
0.0
 71
     5
 72
     1
  1
\A2;80
 11
0.0000000000000001
 21
1.0
 31
0.0
 73
     1
 44
1.0
1001
ACAD
1000
MTEXTBEGIN
1070
    73
1070
     1
1070
    44
1040
1.0
1070
    74
1070
     0
1000
MTEXTEND
  0
POINT
  5
6AF7
330
3F32
100
AcDbEntity
  8
Defpoints
 62
     0
100
AcDbPoint
 10
6693.84263188859
 20
2043.891481149548
 30
0.0
  0
POINT
  5
6AF8
330
3F32
100
AcDbEntity
  8
Defpoints
 62
     0
100
AcDbPoint
 10
6693.84263188859
 20
2123.891481149547
 30
0.0
  0
POINT
  5
6AF9
330
3F32
100
AcDbEntity
  8
Defpoints
 62
     0
100
AcDbPoint
 10
6753.842631888591
 20
2123.891481149547
 30
0.0
  0
ENDBLK
  5
3F3D
330
3F32
100
AcDbEntity
  8
0
100
AcDbBlockEnd
  0
BLOCK
  5
3F48
330
3F3E
100
AcDbEntity
  8
0
100
AcDbBlockBegin
  2
*D14
 70
     1
 10
0.0
 20
0.0
 30
0.0
  3
*D14
  1

  0
LINE
  5
6AFA
330
3F3E
100
AcDbEntity
  8
AM_5
100
AcDbLine
 10
6696.84263188859
 20
1739.767157255794
 30
0.0
 11
6807.84263188859
 21
1739.767157255794
 31
0.0
  0
LINE
  5
6AFB
330
3F3E
100
AcDbEntity
  8
AM_5
100
AcDbLine
 10
6662.34263188859
 20
2139.767157255794
 30
0.0
 11
6807.84263188859
 21
2139.767157255794
 31
0.0
  0
LINE
  5
6AFC
330
3F3E
100
AcDbEntity
  8
AM_5
100
AcDbLine
 10
6803.842631888589
 20
1759.767157255794
 30
0.0
 11
6803.842631888591
 21
2119.767157255794
 31
0.0
  0
SOLID
  5
6AFD
330
3F3E
100
AcDbEntity
  8
AM_5
100
AcDbTrace
 10
6800.509298555256
 20
1759.767157255794
 30
0.0
 11
6807.175965221922
 21
1759.767157255794
 31
0.0
 12
6803.842631888589
 22
1739.767157255794
 32
0.0
 13
6803.842631888589
 23
1739.767157255794
 33
0.0
  0
SOLID
  5
6AFE
330
3F3E
100
AcDbEntity
  8
AM_5
100
AcDbTrace
 10
6800.509298555258
 20
2119.767157255794
 30
0.0
 11
6807.175965221924
 21
2119.767157255794
 31
0.0
 12
6803.842631888591
 22
2139.767157255794
 32
0.0
 13
6803.842631888591
 23
2139.767157255794
 33
0.0
  0
MTEXT
  5
6AFF
330
3F3E
100
AcDbEntity
  8
AM_5
100
AcDbMText
 10
6787.84263188859
 20
1939.767157255795
 30
0.0
 40
20.0
 41
0.0
 71
     5
 72
     1
  1
\A2;400
 11
0.0000000000000001
 21
1.0
 31
0.0
 73
     1
 44
1.0
1001
ACAD
1000
MTEXTBEGIN
1070
    73
1070
     1
1070
    44
1040
1.0
1070
    74
1070
     0
1000
MTEXTEND
  0
POINT
  5
6B00
330
3F3E
100
AcDbEntity
  8
Defpoints
 62
     0
100
AcDbPoint
 10
6693.84263188859
 20
1739.767157255794
 30
0.0
  0
POINT
  5
6B01
330
3F3E
100
AcDbEntity
  8
Defpoints
 62
     0
100
AcDbPoint
 10
6659.34263188859
 20
2139.767157255794
 30
0.0
  0
POINT
  5
6B02
330
3F3E
100
AcDbEntity
  8
Defpoints
 62
     0
100
AcDbPoint
 10
6803.842631888591
 20
2139.767157255794
 30
0.0
  0
ENDBLK
  5
3F49
330
3F3E
100
AcDbEntity
  8
0
100
AcDbBlockEnd
  0
BLOCK
  5
3F71
330
3F67
100
AcDbEntity
  8
0
100
AcDbBlockBegin
  2
*D15
 70
     1
 10
0.0
 20
0.0
 30
0.0
  3
*D15
  1

  0
LINE
  5
6B03
330
3F67
100
AcDbEntity
  8
AM_5
100
AcDbLine
 10
6443.842631888589
 20
1981.932611287768
 30
0.0
 11
6443.842631888589
 21
1910.444100226109
 31
0.0
  0
LINE
  5
6B04
330
3F67
100
AcDbEntity
  8
AM_5
100
AcDbLine
 10
6586.342631888588
 20
2040.891481149547
 30
0.0
 11
6586.342631888588
 21
1910.444100226109
 31
0.0
  0
LINE
  5
6B05
330
3F67
100
AcDbEntity
  8
AM_5
100
AcDbLine
 10
6463.842631888589
 20
1914.444100226108
 30
0.0
 11
6566.342631888588
 21
1914.444100226108
 31
0.0
  0
SOLID
  5
6B06
330
3F67
100
AcDbEntity
  8
AM_5
100
AcDbTrace
 10
6463.842631888589
 20
1917.777433559442
 30
0.0
 11
6463.842631888589
 21
1911.110766892775
 31
0.0
 12
6443.842631888589
 22
1914.444100226108
 32
0.0
 13
6443.842631888589
 23
1914.444100226108
 33
0.0
  0
SOLID
  5
6B07
330
3F67
100
AcDbEntity
  8
AM_5
100
AcDbTrace
 10
6566.342631888588
 20
1917.777433559442
 30
0.0
 11
6566.342631888588
 21
1911.110766892775
 31
0.0
 12
6586.342631888588
 22
1914.444100226108
 32
0.0
 13
6586.342631888588
 23
1914.444100226108
 33
0.0
  0
MTEXT
  5
6B08
330
3F67
100
AcDbEntity
  8
AM_5
100
AcDbMText
 10
6515.092631888589
 20
1930.446068730046
 30
0.0
 40
20.0
 41
0.0
 71
     5
 72
     1
  1
\A2;142.5
 73
     1
 44
1.0
1001
ACAD
1000
MTEXTBEGIN
1070
    73
1070
     1
1070
    44
1040
1.0
1070
    74
1070
     0
1000
MTEXTEND
  0
POINT
  5
6B09
330
3F67
100
AcDbEntity
  8
Defpoints
 62
     0
100
AcDbPoint
 10
6443.842631888589
 20
1984.932611287768
 30
0.0
  0
POINT
  5
6B0A
330
3F67
100
AcDbEntity
  8
Defpoints
 62
     0
100
AcDbPoint
 10
6586.342631888588
 20
2043.891481149548
 30
0.0
  0
POINT
  5
6B0B
330
3F67
100
AcDbEntity
  8
Defpoints
 62
     0
100
AcDbPoint
 10
6586.342631888588
 20
1914.444100226108
 30
0.0
  0
ENDBLK
  5
3F72
330
3F67
100
AcDbEntity
  8
0
100
AcDbBlockEnd
  0
BLOCK
  5
3F7E
330
3F73
100
AcDbEntity
  8
0
100
AcDbBlockBegin
  2
*D16
 70
     1
 10
0.0
 20
0.0
 30
0.0
  3
*D16
  1

  0
LINE
  5
6B0C
330
3F73
100
AcDbEntity
  8
AM_5
100
AcDbLine
 10
6586.342631888588
 20
1917.444100226109
 30
0.0
 11
6586.342631888588
 21
1918.444100226109
 31
0.0
  0
LINE
  5
6B0D
330
3F73
100
AcDbEntity
  8
AM_5
100
AcDbLine
 10
6661.342631888588
 20
1928.829319202671
 30
0.0
 11
6661.342631888588
 21
1910.444100226109
 31
0.0
  0
LINE
  5
6B0E
330
3F73
100
AcDbEntity
  8
AM_5
100
AcDbLine
 10
6606.342631888589
 20
1914.444100226108
 30
0.0
 11
6641.342631888588
 21
1914.444100226108
 31
0.0
  0
LINE
  5
6B0F
330
3F73
100
AcDbEntity
  8
AM_5
100
AcDbLine
 10
6661.342631888588
 20
1914.444100226108
 30
0.0
 11
6734.171059013334
 21
1914.444100226108
 31
0.0
  0
SOLID
  5
6B10
330
3F73
100
AcDbEntity
  8
AM_5
100
AcDbTrace
 10
6606.342631888589
 20
1917.777433559442
 30
0.0
 11
6606.342631888589
 21
1911.110766892775
 31
0.0
 12
6586.342631888588
 22
1914.444100226108
 32
0.0
 13
6586.342631888588
 23
1914.444100226108
 33
0.0
  0
SOLID
  5
6B11
330
3F73
100
AcDbEntity
  8
AM_5
100
AcDbTrace
 10
6641.342631888588
 20
1917.777433559442
 30
0.0
 11
6641.342631888588
 21
1911.110766892775
 31
0.0
 12
6661.342631888588
 22
1914.444100226108
 32
0.0
 13
6661.342631888588
 23
1914.444100226108
 33
0.0
  0
MTEXT
  5
6B12
330
3F73
100
AcDbEntity
  8
AM_5
100
AcDbMText
 10
6707.756845450962
 20
1930.444100226108
 30
0.0
 40
20.0
 41
0.0
 71
     5
 72
     1
  1
\A2;%%c75
 73
     1
 44
1.0
1001
ACAD
1000
MTEXTBEGIN
1070
    73
1070
     1
1070
    44
1040
1.0
1070
    74
1070
     0
1000
MTEXTEND
  0
POINT
  5
6B13
330
3F73
100
AcDbEntity
  8
Defpoints
 62
     0
100
AcDbPoint
 10
6586.342631888588
 20
1914.444100226108
 30
0.0
  0
POINT
  5
6B14
330
3F73
100
AcDbEntity
  8
Defpoints
 62
     0
100
AcDbPoint
 10
6661.342631888588
 20
1931.829319202671
 30
0.0
  0
POINT
  5
6B15
330
3F73
100
AcDbEntity
  8
Defpoints
 62
     0
100
AcDbPoint
 10
6661.342631888588
 20
1914.444100226108
 30
0.0
  0
ENDBLK
  5
3F7F
330
3F73
100
AcDbEntity
  8
0
100
AcDbBlockEnd
  0
BLOCK
  5
3F9E
330
3F94
100
AcDbEntity
  8
0
100
AcDbBlockBegin
  2
*D17
 70
     1
 10
0.0
 20
0.0
 30
0.0
  3
*D17
  1

  0
LINE
  5
6B16
330
3F94
100
AcDbEntity
  8
AM_5
100
AcDbLine
 10
6343.84263188859
 20
1817.767157255794
 30
0.0
 11
6343.84263188859
 21
1866.638576578296
 31
0.0
  0
LINE
  5
6B17
330
3F94
100
AcDbEntity
  8
AM_5
100
AcDbLine
 10
6543.84263188859
 20
1817.767157255794
 30
0.0
 11
6543.84263188859
 21
1866.638576578296
 31
0.0
  0
LINE
  5
6B18
330
3F94
100
AcDbEntity
  8
AM_5
100
AcDbLine
 10
6363.842631888591
 20
1862.638576578295
 30
0.0
 11
6523.84263188859
 21
1862.638576578295
 31
0.0
  0
SOLID
  5
6B19
330
3F94
100
AcDbEntity
  8
AM_5
100
AcDbTrace
 10
6363.842631888591
 20
1865.971909911629
 30
0.0
 11
6363.842631888591
 21
1859.305243244962
 31
0.0
 12
6343.84263188859
 22
1862.638576578295
 32
0.0
 13
6343.84263188859
 23
1862.638576578295
 33
0.0
  0
SOLID
  5
6B1A
330
3F94
100
AcDbEntity
  8
AM_5
100
AcDbTrace
 10
6523.84263188859
 20
1865.971909911629
 30
0.0
 11
6523.84263188859
 21
1859.305243244962
 31
0.0
 12
6543.84263188859
 22
1862.638576578295
 32
0.0
 13
6543.84263188859
 23
1862.638576578295
 33
0.0
  0
MTEXT
  5
6B1B
330
3F94
100
AcDbEntity
  8
AM_5
100
AcDbMText
 10
6443.84263188859
 20
1878.640545082232
 30
0.0
 40
20.0
 41
0.0
 71
     5
 72
     1
  1
\A2;200
 73
     1
 44
1.0
1001
ACAD
1000
MTEXTBEGIN
1070
    73
1070
     1
1070
    44
1040
1.0
1070
    74
1070
     0
1000
MTEXTEND
  0
POINT
  5
6B1C
330
3F94
100
AcDbEntity
  8
Defpoints
 62
     0
100
AcDbPoint
 10
6343.84263188859
 20
1814.767157255794
 30
0.0
  0
POINT
  5
6B1D
330
3F94
100
AcDbEntity
  8
Defpoints
 62
     0
100
AcDbPoint
 10
6543.84263188859
 20
1814.767157255794
 30
0.0
  0
POINT
  5
6B1E
330
3F94
100
AcDbEntity
  8
Defpoints
 62
     0
100
AcDbPoint
 10
6543.84263188859
 20
1862.638576578295
 30
0.0
  0
ENDBLK
  5
3F9F
330
3F94
100
AcDbEntity
  8
0
100
AcDbBlockEnd
  0
BLOCK
  5
4196
330
418A
100
AcDbEntity
  8
0
100
AcDbBlockBegin
  2
*D18
 70
     1
 10
0.0
 20
0.0
 30
0.0
  3
*D18
  1

  0
LINE
  5
6B1F
330
418A
100
AcDbEntity
  8
AM_5
100
AcDbLine
 10
5900.444932861901
 20
2852.199312259541
 30
0.0
 11
5900.444932861901
 21
2791.199312259541
 31
0.0
  0
LINE
  5
6B20
330
418A
100
AcDbEntity
  8
AM_5
100
AcDbLine
 10
5940.444932861901
 20
2852.199312259541
 30
0.0
 11
5940.444932861901
 21
2791.199312259541
 31
0.0
  0
LINE
  5
6B21
330
418A
100
AcDbEntity
  8
AM_5
100
AcDbLine
 10
5880.444932861902
 20
2795.199312259541
 30
0.0
 11
5860.444932861901
 21
2795.199312259541
 31
0.0
  0
LINE
  5
6B22
330
418A
100
AcDbEntity
  8
AM_5
100
AcDbLine
 10
5960.444932861901
 20
2795.199312259541
 30
0.0
 11
6033.460680893398
 21
2795.199312259541
 31
0.0
  0
LINE
  5
6B23
330
418A
100
AcDbEntity
  8
AM_5
100
AcDbLine
 10
5900.444932861901
 20
2795.199312259541
 30
0.0
 11
5940.444932861901
 21
2795.199312259541
 31
0.0
  0
SOLID
  5
6B24
330
418A
100
AcDbEntity
  8
AM_5
100
AcDbTrace
 10
5880.444932861902
 20
2798.532645592874
 30
0.0
 11
5880.444932861902
 21
2791.865978926207
 31
0.0
 12
5900.444932861901
 22
2795.199312259541
 32
0.0
 13
5900.444932861901
 23
2795.199312259541
 33
0.0
  0
SOLID
  5
6B25
330
418A
100
AcDbEntity
  8
AM_5
100
AcDbTrace
 10
5960.444932861901
 20
2798.532645592874
 30
0.0
 11
5960.444932861901
 21
2791.865978926207
 31
0.0
 12
5940.444932861901
 22
2795.199312259541
 32
0.0
 13
5940.444932861901
 23
2795.199312259541
 33
0.0
  0
MTEXT
  5
6B26
330
418A
100
AcDbEntity
  8
AM_5
100
AcDbMText
 10
6007.452806877648
 20
2811.201280763477
 30
0.0
 40
20.0
 41
0.0
 71
     5
 72
     1
  1
\A2;%%c20
 73
     1
 44
1.0
1001
ACAD
1000
MTEXTBEGIN
1070
    73
1070
     1
1070
    44
1040
1.0
1070
    74
1070
     0
1000
MTEXTEND
  0
POINT
  5
6B27
330
418A
100
AcDbEntity
  8
Defpoints
 62
     0
100
AcDbPoint
 10
5900.444932861901
 20
2855.199312259541
 30
0.0
  0
POINT
  5
6B28
330
418A
100
AcDbEntity
  8
Defpoints
 62
     0
100
AcDbPoint
 10
5940.444932861901
 20
2855.199312259541
 30
0.0
  0
POINT
  5
6B29
330
418A
100
AcDbEntity
  8
Defpoints
 62
     0
100
AcDbPoint
 10
5940.444932861901
 20
2795.199312259541
 30
0.0
  0
ENDBLK
  5
4197
330
418A
100
AcDbEntity
  8
0
100
AcDbBlockEnd
  0
BLOCK
  5
41A4
330
4198
100
AcDbEntity
  8
0
100
AcDbBlockBegin
  2
*D19
 70
     1
 10
0.0
 20
0.0
 30
0.0
  3
*D19
  1

  0
LINE
  5
6B2A
330
4198
100
AcDbEntity
  8
AM_5
100
AcDbLine
 10
5876.444932861901
 20
2855.199312259541
 30
0.0
 11
5809.102210788353
 21
2855.199312259541
 31
0.0
  0
LINE
  5
6B2B
330
4198
100
AcDbEntity
  8
AM_5
100
AcDbLine
 10
5865.071337894343
 20
2885.199312259541
 30
0.0
 11
5809.102210788353
 21
2885.199312259541
 31
0.0
  0
LINE
  5
6B2C
330
4198
100
AcDbEntity
  8
AM_5
100
AcDbLine
 10
5813.102210788353
 20
2905.19931225954
 30
0.0
 11
5813.102210788353
 21
2925.19931225954
 31
0.0
  0
LINE
  5
6B2D
330
4198
100
AcDbEntity
  8
AM_5
100
AcDbLine
 10
5813.102210788353
 20
2835.199312259541
 30
0.0
 11
5813.102210788353
 21
2784.370885134794
 31
0.0
  0
LINE
  5
6B2E
330
4198
100
AcDbEntity
  8
AM_5
100
AcDbLine
 10
5813.102210788353
 20
2885.199312259541
 30
0.0
 11
5813.102210788353
 21
2855.199312259541
 31
0.0
  0
SOLID
  5
6B2F
330
4198
100
AcDbEntity
  8
AM_5
100
AcDbTrace
 10
5809.76887745502
 20
2905.19931225954
 30
0.0
 11
5816.435544121685
 21
2905.19931225954
 31
0.0
 12
5813.102210788353
 22
2885.199312259541
 32
0.0
 13
5813.102210788353
 23
2885.199312259541
 33
0.0
  0
SOLID
  5
6B30
330
4198
100
AcDbEntity
  8
AM_5
100
AcDbTrace
 10
5809.76887745502
 20
2835.199312259541
 30
0.0
 11
5816.435544121685
 21
2835.199312259541
 31
0.0
 12
5813.102210788353
 22
2855.199312259541
 32
0.0
 13
5813.102210788353
 23
2855.199312259541
 33
0.0
  0
MTEXT
  5
6B31
330
4198
100
AcDbEntity
  8
AM_5
100
AcDbMText
 10
5797.102210788352
 20
2799.785098697168
 30
0.0
 40
20.0
 41
0.0
 71
     5
 72
     1
  1
\A2;15
 11
0.0000000000000001
 21
1.0
 31
0.0
 73
     1
 44
1.0
1001
ACAD
1000
MTEXTBEGIN
1070
    73
1070
     1
1070
    44
1040
1.0
1070
    74
1070
     0
1000
MTEXTEND
  0
POINT
  5
6B32
330
4198
100
AcDbEntity
  8
Defpoints
 62
     0
100
AcDbPoint
 10
5879.4449328619
 20
2855.199312259541
 30
0.0
  0
POINT
  5
6B33
330
4198
100
AcDbEntity
  8
Defpoints
 62
     0
100
AcDbPoint
 10
5868.071337894344
 20
2885.199312259541
 30
0.0
  0
POINT
  5
6B34
330
4198
100
AcDbEntity
  8
Defpoints
 62
     0
100
AcDbPoint
 10
5813.102210788353
 20
2885.199312259541
 30
0.0
  0
ENDBLK
  5
41A5
330
4198
100
AcDbEntity
  8
0
100
AcDbBlockEnd
  0
BLOCK
  5
41B0
330
41A6
100
AcDbEntity
  8
0
100
AcDbBlockBegin
  2
*D20
 70
     1
 10
0.0
 20
0.0
 30
0.0
  3
*D20
  1

  0
LINE
  5
6B35
330
41A6
100
AcDbEntity
  8
AM_5
100
AcDbLine
 10
5876.444932861901
 20
2855.199312259541
 30
0.0
 11
5759.102210788353
 21
2855.199312259541
 31
0.0
  0
LINE
  5
6B36
330
41A6
100
AcDbEntity
  8
AM_5
100
AcDbLine
 10
5897.444932861901
 20
2915.19931225954
 30
0.0
 11
5759.102210788353
 21
2915.19931225954
 31
0.0
  0
LINE
  5
6B37
330
41A6
100
AcDbEntity
  8
AM_5
100
AcDbLine
 10
5763.102210788353
 20
2875.199312259541
 30
0.0
 11
5763.102210788353
 21
2895.199312259541
 31
0.0
  0
SOLID
  5
6B38
330
41A6
100
AcDbEntity
  8
AM_5
100
AcDbTrace
 10
5759.768877455019
 20
2875.199312259541
 30
0.0
 11
5766.435544121685
 21
2875.199312259541
 31
0.0
 12
5763.102210788353
 22
2855.199312259541
 32
0.0
 13
5763.102210788353
 23
2855.199312259541
 33
0.0
  0
SOLID
  5
6B39
330
41A6
100
AcDbEntity
  8
AM_5
100
AcDbTrace
 10
5759.768877455019
 20
2895.199312259541
 30
0.0
 11
5766.435544121685
 21
2895.199312259541
 31
0.0
 12
5763.102210788353
 22
2915.19931225954
 32
0.0
 13
5763.102210788353
 23
2915.19931225954
 33
0.0
  0
MTEXT
  5
6B3A
330
41A6
100
AcDbEntity
  8
AM_5
100
AcDbMText
 10
5747.102210788352
 20
2885.199312259541
 30
0.0
 40
20.0
 41
0.0
 71
     5
 72
     1
  1
\A2;30
 11
0.0000000000000001
 21
1.0
 31
0.0
 73
     1
 44
1.0
1001
ACAD
1000
MTEXTBEGIN
1070
    73
1070
     1
1070
    44
1040
1.0
1070
    74
1070
     0
1000
MTEXTEND
  0
POINT
  5
6B3B
330
41A6
100
AcDbEntity
  8
Defpoints
 62
     0
100
AcDbPoint
 10
5879.4449328619
 20
2855.199312259541
 30
0.0
  0
POINT
  5
6B3C
330
41A6
100
AcDbEntity
  8
Defpoints
 62
     0
100
AcDbPoint
 10
5900.444932861901
 20
2915.19931225954
 30
0.0
  0
POINT
  5
6B3D
330
41A6
100
AcDbEntity
  8
Defpoints
 62
     0
100
AcDbPoint
 10
5763.102210788353
 20
2915.19931225954
 30
0.0
  0
ENDBLK
  5
41B1
330
41A6
100
AcDbEntity
  8
0
100
AcDbBlockEnd
  0
BLOCK
  5
41BE
330
41B2
100
AcDbEntity
  8
0
100
AcDbBlockBegin
  2
*D21
 70
     1
 10
0.0
 20
0.0
 30
0.0
  3
*D21
  1

  0
LINE
  5
6B3E
330
41B2
100
AcDbEntity
  8
AM_5
100
AcDbLine
 10
6417.049331444736
 20
2871.076843504898
 30
0.0
 11
6417.049331444736
 21
2810.076842504898
 31
0.0
  0
LINE
  5
6B3F
330
41B2
100
AcDbEntity
  8
AM_5
100
AcDbLine
 10
6467.049331444737
 20
2871.076843504898
 30
0.0
 11
6467.049331444737
 21
2810.076842504898
 31
0.0
  0
LINE
  5
6B40
330
41B2
100
AcDbEntity
  8
AM_5
100
AcDbLine
 10
6397.049331444737
 20
2814.076842504898
 30
0.0
 11
6377.049331444737
 21
2814.076842504898
 31
0.0
  0
LINE
  5
6B41
330
41B2
100
AcDbEntity
  8
AM_5
100
AcDbLine
 10
6487.049331444737
 20
2814.076842504898
 30
0.0
 11
6507.049331444736
 21
2814.076842504898
 31
0.0
  0
LINE
  5
6B42
330
41B2
100
AcDbEntity
  8
AM_5
100
AcDbLine
 10
6417.049331444736
 20
2814.076842504898
 30
0.0
 11
6467.049331444737
 21
2814.076842504898
 31
0.0
  0
SOLID
  5
6B43
330
41B2
100
AcDbEntity
  8
AM_5
100
AcDbTrace
 10
6397.049331444737
 20
2817.410175838232
 30
0.0
 11
6397.049331444737
 21
2810.743509171565
 31
0.0
 12
6417.049331444736
 22
2814.076842504898
 32
0.0
 13
6417.049331444736
 23
2814.076842504898
 33
0.0
  0
SOLID
  5
6B44
330
41B2
100
AcDbEntity
  8
AM_5
100
AcDbTrace
 10
6487.049331444737
 20
2817.410175838232
 30
0.0
 11
6487.049331444737
 21
2810.743509171565
 31
0.0
 12
6467.049331444737
 22
2814.076842504898
 32
0.0
 13
6467.049331444737
 23
2814.076842504898
 33
0.0
  0
MTEXT
  5
6B45
330
41B2
100
AcDbEntity
  8
AM_5
100
AcDbMText
 10
6442.049331444737
 20
2830.078811008835
 30
0.0
 40
20.0
 41
0.0
 71
     5
 72
     1
  1
\A2;25
 73
     1
 44
1.0
1001
ACAD
1000
MTEXTBEGIN
1070
    73
1070
     1
1070
    44
1040
1.0
1070
    74
1070
     0
1000
MTEXTEND
  0
POINT
  5
6B46
330
41B2
100
AcDbEntity
  8
Defpoints
 62
     0
100
AcDbPoint
 10
6417.049331444736
 20
2874.076843504898
 30
0.0
  0
POINT
  5
6B47
330
41B2
100
AcDbEntity
  8
Defpoints
 62
     0
100
AcDbPoint
 10
6467.049331444737
 20
2874.076843504898
 30
0.0
  0
POINT
  5
6B48
330
41B2
100
AcDbEntity
  8
Defpoints
 62
     0
100
AcDbPoint
 10
6467.049331444737
 20
2814.076842504898
 30
0.0
  0
ENDBLK
  5
41BF
330
41B2
100
AcDbEntity
  8
0
100
AcDbBlockEnd
  0
BLOCK
  5
41CC
330
41C0
100
AcDbEntity
  8
0
100
AcDbBlockBegin
  2
*D22
 70
     1
 10
0.0
 20
0.0
 30
0.0
  3
*D22
  1

  0
LINE
  5
6B49
330
41C0
100
AcDbEntity
  8
AM_5
100
AcDbLine
 10
6427.049331444736
 20
2919.076843504898
 30
0.0
 11
6427.049331444736
 21
2970.076844504898
 31
0.0
  0
LINE
  5
6B4A
330
41C0
100
AcDbEntity
  8
AM_5
100
AcDbLine
 10
6457.049331444736
 20
2919.076843504898
 30
0.0
 11
6457.049331444736
 21
2970.076844504898
 31
0.0
  0
LINE
  5
6B4B
330
41C0
100
AcDbEntity
  8
AM_5
100
AcDbLine
 10
6407.049331444736
 20
2966.076844504898
 30
0.0
 11
6387.049331444736
 21
2966.076844504898
 31
0.0
  0
LINE
  5
6B4C
330
41C0
100
AcDbEntity
  8
AM_5
100
AcDbLine
 10
6477.049331444736
 20
2966.076844504898
 30
0.0
 11
6497.049331444737
 21
2966.076844504898
 31
0.0
  0
LINE
  5
6B4D
330
41C0
100
AcDbEntity
  8
AM_5
100
AcDbLine
 10
6427.049331444736
 20
2966.076844504898
 30
0.0
 11
6457.049331444736
 21
2966.076844504898
 31
0.0
  0
SOLID
  5
6B4E
330
41C0
100
AcDbEntity
  8
AM_5
100
AcDbTrace
 10
6407.049331444736
 20
2969.410177838232
 30
0.0
 11
6407.049331444736
 21
2962.743511171565
 31
0.0
 12
6427.049331444736
 22
2966.076844504898
 32
0.0
 13
6427.049331444736
 23
2966.076844504898
 33
0.0
  0
SOLID
  5
6B4F
330
41C0
100
AcDbEntity
  8
AM_5
100
AcDbTrace
 10
6477.049331444736
 20
2969.410177838232
 30
0.0
 11
6477.049331444736
 21
2962.743511171565
 31
0.0
 12
6457.049331444736
 22
2966.076844504898
 32
0.0
 13
6457.049331444736
 23
2966.076844504898
 33
0.0
  0
MTEXT
  5
6B50
330
41C0
100
AcDbEntity
  8
AM_5
100
AcDbMText
 10
6442.049331444737
 20
2982.076844504898
 30
0.0
 40
20.0
 41
0.0
 71
     5
 72
     1
  1
\A2;15
 73
     1
 44
1.0
1001
ACAD
1000
MTEXTBEGIN
1070
    73
1070
     1
1070
    44
1040
1.0
1070
    74
1070
     0
1000
MTEXTEND
  0
POINT
  5
6B51
330
41C0
100
AcDbEntity
  8
Defpoints
 62
     0
100
AcDbPoint
 10
6427.049331444736
 20
2916.076843504898
 30
0.0
  0
POINT
  5
6B52
330
41C0
100
AcDbEntity
  8
Defpoints
 62
     0
100
AcDbPoint
 10
6457.049331444736
 20
2916.076843504898
 30
0.0
  0
POINT
  5
6B53
330
41C0
100
AcDbEntity
  8
Defpoints
 62
     0
100
AcDbPoint
 10
6457.049331444736
 20
2966.076844504898
 30
0.0
  0
ENDBLK
  5
41CD
330
41C0
100
AcDbEntity
  8
0
100
AcDbBlockEnd
  0
BLOCK
  5
41DA
330
41CE
100
AcDbEntity
  8
0
100
AcDbBlockBegin
  2
*D23
 70
     1
 10
0.0
 20
0.0
 30
0.0
  3
*D23
  1

  0
LINE
  5
6B54
330
41CE
100
AcDbEntity
  8
AM_5
100
AcDbLine
 10
6479.989333666151
 20
2916.076843504898
 30
0.0
 11
6540.294528999166
 21
2916.076843504898
 31
0.0
  0
LINE
  5
6B55
330
41CE
100
AcDbEntity
  8
AM_5
100
AcDbLine
 10
6470.049331444737
 20
2894.076843504898
 30
0.0
 11
6540.294528999166
 21
2894.076843504898
 31
0.0
  0
LINE
  5
6B56
330
41CE
100
AcDbEntity
  8
AM_5
100
AcDbLine
 10
6536.294528999166
 20
2874.076843504898
 30
0.0
 11
6536.294528999166
 21
2854.076843504898
 31
0.0
  0
LINE
  5
6B57
330
41CE
100
AcDbEntity
  8
AM_5
100
AcDbLine
 10
6536.294528999166
 20
2936.076843504898
 30
0.0
 11
6536.294528999166
 21
2982.076843504898
 31
0.0
  0
LINE
  5
6B58
330
41CE
100
AcDbEntity
  8
AM_5
100
AcDbLine
 10
6536.294528999166
 20
2894.076843504898
 30
0.0
 11
6536.294528999166
 21
2916.076843504898
 31
0.0
  0
SOLID
  5
6B59
330
41CE
100
AcDbEntity
  8
AM_5
100
AcDbTrace
 10
6532.961195665833
 20
2874.076843504898
 30
0.0
 11
6539.627862332499
 21
2874.076843504898
 31
0.0
 12
6536.294528999166
 22
2894.076843504898
 32
0.0
 13
6536.294528999166
 23
2894.076843504898
 33
0.0
  0
SOLID
  5
6B5A
330
41CE
100
AcDbEntity
  8
AM_5
100
AcDbTrace
 10
6532.961195665833
 20
2936.076843504898
 30
0.0
 11
6539.627862332499
 21
2936.076843504898
 31
0.0
 12
6536.294528999166
 22
2916.076843504898
 32
0.0
 13
6536.294528999166
 23
2916.076843504898
 33
0.0
  0
MTEXT
  5
6B5B
330
41CE
100
AcDbEntity
  8
AM_5
100
AcDbMText
 10
6520.294528999165
 20
2969.076843504899
 30
0.0
 40
20.0
 41
0.0
 71
     5
 72
     1
  1
\A2;11
 11
0.0000000000000001
 21
1.0
 31
0.0
 73
     1
 44
1.0
1001
ACAD
1000
MTEXTBEGIN
1070
    73
1070
     1
1070
    44
1040
1.0
1070
    74
1070
     0
1000
MTEXTEND
  0
POINT
  5
6B5C
330
41CE
100
AcDbEntity
  8
Defpoints
 62
     0
100
AcDbPoint
 10
6476.989333666151
 20
2916.076843504898
 30
0.0
  0
POINT
  5
6B5D
330
41CE
100
AcDbEntity
  8
Defpoints
 62
     0
100
AcDbPoint
 10
6467.049331444737
 20
2894.076843504898
 30
0.0
  0
POINT
  5
6B5E
330
41CE
100
AcDbEntity
  8
Defpoints
 62
     0
100
AcDbPoint
 10
6536.294528999166
 20
2894.076843504898
 30
0.0
  0
ENDBLK
  5
41DB
330
41CE
100
AcDbEntity
  8
0
100
AcDbBlockEnd
  0
BLOCK
  5
41E8
330
41DC
100
AcDbEntity
  8
0
100
AcDbBlockBegin
  2
*D24
 70
     1
 10
0.0
 20
0.0
 30
0.0
  3
*D24
  1

  0
LINE
  5
6B5F
330
41DC
100
AcDbEntity
  8
AM_5
100
AcDbLine
 10
6414.049331444736
 20
2894.076843504898
 30
0.0
 11
6353.049331444737
 21
2894.076843504898
 31
0.0
  0
LINE
  5
6B60
330
41DC
100
AcDbEntity
  8
AM_5
100
AcDbLine
 10
6414.049331444736
 20
2874.076843504898
 30
0.0
 11
6353.049331444737
 21
2874.076843504898
 31
0.0
  0
LINE
  5
6B61
330
41DC
100
AcDbEntity
  8
AM_5
100
AcDbLine
 10
6357.049331444738
 20
2914.076843504897
 30
0.0
 11
6357.049331444738
 21
2934.076843504898
 31
0.0
  0
LINE
  5
6B62
330
41DC
100
AcDbEntity
  8
AM_5
100
AcDbLine
 10
6357.049331444738
 20
2854.076843504898
 30
0.0
 11
6357.049331444738
 21
2834.076843504897
 31
0.0
  0
LINE
  5
6B63
330
41DC
100
AcDbEntity
  8
AM_5
100
AcDbLine
 10
6357.049331444738
 20
2894.076843504898
 30
0.0
 11
6357.049331444738
 21
2874.076843504898
 31
0.0
  0
SOLID
  5
6B64
330
41DC
100
AcDbEntity
  8
AM_5
100
AcDbTrace
 10
6353.715998111404
 20
2914.076843504897
 30
0.0
 11
6360.382664778071
 21
2914.076843504897
 31
0.0
 12
6357.049331444738
 22
2894.076843504898
 32
0.0
 13
6357.049331444738
 23
2894.076843504898
 33
0.0
  0
SOLID
  5
6B65
330
41DC
100
AcDbEntity
  8
AM_5
100
AcDbTrace
 10
6353.715998111404
 20
2854.076843504898
 30
0.0
 11
6360.382664778071
 21
2854.076843504898
 31
0.0
 12
6357.049331444738
 22
2874.076843504898
 32
0.0
 13
6357.049331444738
 23
2874.076843504898
 33
0.0
  0
MTEXT
  5
6B66
330
41DC
100
AcDbEntity
  8
AM_5
100
AcDbMText
 10
6341.049331444737
 20
2884.076843504899
 30
0.0
 40
20.0
 41
0.0
 71
     5
 72
     1
  1
\A2;10
 11
0.0000000000000001
 21
1.0
 31
0.0
 73
     1
 44
1.0
1001
ACAD
1000
MTEXTBEGIN
1070
    73
1070
     1
1070
    44
1040
1.0
1070
    74
1070
     0
1000
MTEXTEND
  0
POINT
  5
6B67
330
41DC
100
AcDbEntity
  8
Defpoints
 62
     0
100
AcDbPoint
 10
6417.049331444736
 20
2894.076843504898
 30
0.0
  0
POINT
  5
6B68
330
41DC
100
AcDbEntity
  8
Defpoints
 62
     0
100
AcDbPoint
 10
6417.049331444736
 20
2874.076843504898
 30
0.0
  0
POINT
  5
6B69
330
41DC
100
AcDbEntity
  8
Defpoints
 62
     0
100
AcDbPoint
 10
6357.049331444738
 20
2874.076843504898
 30
0.0
  0
ENDBLK
  5
41E9
330
41DC
100
AcDbEntity
  8
0
100
AcDbBlockEnd
  0
BLOCK
  5
7426
330
741B
100
AcDbEntity
  8
0
100
AcDbBlockBegin
  2
*D25
 70
     1
 10
0.0
 20
0.0
 30
0.0
  3
*D25
  1

  0
LINE
  5
777F
330
741B
100
AcDbEntity
  8
AM_5
100
AcDbLine
 10
5855.444932861901
 20
2120.891481149548
 30
0.0
 11
5855.444932861901
 21
2099.955586054521
 31
0.0
  0
LINE
  5
7780
330
741B
100
AcDbEntity
  8
AM_5
100
AcDbLine
 10
5985.444932861901
 20
2120.891481149548
 30
0.0
 11
5985.444932861901
 21
2099.955586054521
 31
0.0
  0
LINE
  5
7781
330
741B
100
AcDbEntity
  8
AM_5
100
AcDbLine
 10
5965.444932861902
 20
2103.955586054521
 30
0.0
 11
5875.444932861901
 21
2103.955586054521
 31
0.0
  0
LINE
  5
7782
330
741B
100
AcDbEntity
  8
AM_5
100
AcDbLine
 10
5855.444932861901
 20
2103.955586054521
 30
0.0
 11
5791.429184830406
 21
2103.955586054521
 31
0.0
  0
SOLID
  5
7783
330
741B
100
AcDbEntity
  8
AM_5
100
AcDbTrace
 10
5965.444932861902
 20
2107.288919387854
 30
0.0
 11
5965.444932861902
 21
2100.622252721187
 31
0.0
 12
5985.444932861901
 22
2103.955586054521
 32
0.0
 13
5985.444932861901
 23
2103.955586054521
 33
0.0
  0
SOLID
  5
7784
330
741B
100
AcDbEntity
  8
AM_5
100
AcDbTrace
 10
5875.444932861901
 20
2107.288919387854
 30
0.0
 11
5875.444932861901
 21
2100.622252721187
 31
0.0
 12
5855.444932861901
 22
2103.955586054521
 32
0.0
 13
5855.444932861901
 23
2103.955586054521
 33
0.0
  0
MTEXT
  5
7785
330
741B
100
AcDbEntity
  8
AM_5
100
AcDbMText
 10
5813.437058846154
 20
2119.955586054521
 30
0.0
 40
20.0
 41
0.0
 71
     5
 72
     1
  1
\A2;130
 73
     1
 44
1.0
1001
ACAD
1000
MTEXTBEGIN
1070
    73
1070
     1
1070
    44
1040
1.0
1070
    74
1070
     0
1000
MTEXTEND
  0
POINT
  5
7786
330
741B
100
AcDbEntity
  8
Defpoints
 62
     0
100
AcDbPoint
 10
5855.444932861901
 20
2123.891481149548
 30
0.0
  0
POINT
  5
7787
330
741B
100
AcDbEntity
  8
Defpoints
 62
     0
100
AcDbPoint
 10
5985.444932861901
 20
2123.891481149548
 30
0.0
  0
POINT
  5
7788
330
741B
100
AcDbEntity
  8
Defpoints
 62
     0
100
AcDbPoint
 10
5985.444932861901
 20
2103.955586054521
 30
0.0
  0
ENDBLK
  5
7427
330
741B
100
AcDbEntity
  8
0
100
AcDbBlockEnd
  0
BLOCK
  5
7A18
330
7A13
100
AcDbEntity
  8
0
100
AcDbBlockBegin
  2
*S27
 70
     1
 10
0.0
 20
0.0
 30
0.0
  3
*S27
  1

  0
LINE
  5
7A14
330
7A13
100
AcDbEntity
  8
AM_5
 62
     5
100
AcDbLine
 10
6129.410095784491
 20
1679.965216339698
 30
0.0
 11
6054.370904571062
 21
1679.965216339698
 31
0.0
  0
LINE
  5
7A15
330
7A13
100
AcDbEntity
  8
AM_5
 62
     5
100
AcDbLine
 10
6054.370904571062
 20
1679.965216339698
 30
0.0
 11
6018.852511868836
 21
1722.78260118217
 31
0.0
  0
TRACE
  5
7A16
330
7A13
100
AcDbEntity
  8
AM_5
 62
     5
370
    35
100
AcDbTrace
 10
6020.980387785119
 20
1724.547742437158
 30
0.0
 11
6016.724635952553
 21
1721.017459927182
 31
0.0
 12
6005.444932861902
 22
1738.945423496755
 32
0.0
 13
6005.444932861902
 23
1738.945423496755
 33
0.0
  0
MTEXT
  5
7A17
330
7A13
100
AcDbEntity
  8
AM_5
 62
     2
100
AcDbMText
 10
6129.410095784491
 20
1675.320251335361
 30
0.0
 40
21.0
 41
0.0
 71
     7
 72
     5
  1

  7
ACISOTS
 73
     1
 44
1.0
1001
ACAD
1000
MTEXTBEGIN
1070
    73
1070
     1
1070
    44
1040
1.0
1070
    74
1070
     0
1000
MTEXTEND
  0
ENDBLK
  5
7A19
330
7A13
100
AcDbEntity
  8
0
100
AcDbBlockEnd
  0
BLOCK
  5
7A20
330
7A1B
100
AcDbEntity
  8
0
100
AcDbBlockBegin
  2
*S28
 70
     1
 10
0.0
 20
0.0
 30
0.0
  3
*S28
  1

  0
LINE
  5
7A1C
330
7A1B
100
AcDbEntity
  8
AM_5
 62
     5
100
AcDbLine
 10
6078.99793436984
 20
2921.542813701746
 30
0.0
 11
6003.95874315641
 21
2921.542813701746
 31
0.0
  0
LINE
  5
7A1D
330
7A1B
100
AcDbEntity
  8
AM_5
 62
     5
100
AcDbLine
 10
6003.95874315641
 20
2921.542813701746
 30
0.0
 11
5982.052632077077
 21
2899.655192344969
 31
0.0
  0
TRACE
  5
7A1E
330
7A1B
100
AcDbEntity
  8
AM_5
 62
     5
370
    35
100
AcDbTrace
 10
5980.098517786064
 20
2901.610957387814
 30
0.0
 11
5984.006746368089
 21
2897.699427302123
 31
0.0
 12
5967.197121643078
 22
2884.812220616053
 32
0.0
 13
5967.197121643078
 23
2884.812220616053
 33
0.0
  0
MTEXT
  5
7A1F
330
7A1B
100
AcDbEntity
  8
AM_5
 62
     2
100
AcDbMText
 10
6078.99793436984
 20
2916.89784869741
 30
0.0
 40
21.0
 41
0.0
 71
     7
 72
     5
  1

  7
ACISOTS
 73
     1
 44
1.0
1001
ACAD
1000
MTEXTBEGIN
1070
    73
1070
     1
1070
    44
1040
1.0
1070
    74
1070
     0
1000
MTEXTEND
  0
ENDBLK
  5
7A21
330
7A1B
100
AcDbEntity
  8
0
100
AcDbBlockEnd
  0
ENDSEC
  0
SECTION
  2
ENTITIES
  0
LINE
  5
3C2F
330
1F
100
AcDbEntity
  8
圖層1輪廓線
100
AcDbLine
 10
5823.444932861902
 20
1819.767157255794
 30
0.0
 11
6017.444932861902
 21
1819.767157255794
 31
0.0
  0
LINE
  5
3C30
330
1F
100
AcDbEntity
  8
圖層1輪廓線
100
AcDbLine
 10
6020.444932861902
 20
1754.767157255794
 30
0.0
 11
5820.444932861902
 21
1754.767157255794
 31
0.0
  0
LINE
  5
3C31
330
1F
100
AcDbEntity
  8
圖層1輪廓線
100
AcDbLine
 10
6020.444932861902
 20
1739.767157255794
 30
0.0
 11
5820.444932861902
 21
1739.767157255794
 31
0.0
  0
LINE
  5
3C32
330
1F
100
AcDbEntity
  8
圖層3虛線
100
AcDbLine
 10
5829.444932861902
 20
1739.767157255794
 30
0.0
 11
5829.444932861902
 21
1754.767157255794
 31
0.0
  0
LINE
  5
3C33
330
1F
100
AcDbEntity
  8
圖層3虛線
100
AcDbLine
 10
5841.444932861902
 20
1739.767157255794
 30
0.0
 11
5841.444932861902
 21
1754.767157255794
 31
0.0
  0
LINE
  5
3C34
330
1F
100
AcDbEntity
  8
圖層2中心線
 48
0.2
370
    18
100
AcDbLine
 10
5835.444932861902
 20
1727.343980758828
 30
0.0
 11
5835.444932861902
 21
1766.491730929357
 31
0.0
  0
LINE
  5
3C35
330
1F
100
AcDbEntity
  8
圖層1輪廓線
100
AcDbLine
 10
5820.444932861902
 20
1739.767157255794
 30
0.0
 11
5820.444932861902
 21
1816.767157255794
 31
0.0
  0
ARC
  5
3C36
330
1F
100
AcDbEntity
  8
圖層1輪廓線
100
AcDbCircle
 10
5823.444932861902
 20
1816.767157255794
 30
0.0
 40
3.0
100
AcDbArc
 50
90.0
 51
180.0
  0
LINE
  5
3C37
330
1F
100
AcDbEntity
  8
圖層3虛線
100
AcDbLine
 10
5999.444932861901
 20
1754.767157255794
 30
0.0
 11
5999.444932861901
 21
1739.767157255794
 31
0.0
  0
LINE
  5
3C38
330
1F
100
AcDbEntity
  8
圖層3虛線
100
AcDbLine
 10
6011.444932861902
 20
1754.767157255794
 30
0.0
 11
6011.444932861902
 21
1739.767157255794
 31
0.0
  0
LINE
  5
3C39
330
1F
100
AcDbEntity
  8
圖層2中心線
 48
0.2
370
    18
100
AcDbLine
 10
6005.444932861902
 20
1767.259332767047
 30
0.0
 11
6005.444932861902
 21
1728.111584543012
 31
0.0
  0
LINE
  5
3C3A
330
1F
100
AcDbEntity
  8
圖層1輪廓線
100
AcDbLine
 10
6020.444932861902
 20
1816.767157255794
 30
0.0
 11
6020.444932861902
 21
1739.767157255794
 31
0.0
  0
ARC
  5
3C3B
330
1F
100
AcDbEntity
  8
圖層1輪廓線
100
AcDbCircle
 10
6017.444932861902
 20
1816.767157255794
 30
0.0
 40
3.0
100
AcDbArc
 50
0.0
 51
90.0
  0
ARC
  5
3C3C
330
1F
100
AcDbEntity
  8
圖層1輪廓線
100
AcDbCircle
 10
6538.842631888591
 20
1814.767157255794
 30
0.0
 40
5.0
100
AcDbArc
 50
0.0
 51
90.0
  0
LINE
  5
3C3D
330
1F
100
AcDbEntity
  8
圖層1輪廓線
100
AcDbLine
 10
6313.84263188859
 20
1739.767157255794
 30
0.0
 11
6693.84263188859
 21
1739.767157255794
 31
0.0
  0
LINE
  5
3C3E
330
1F
100
AcDbEntity
  8
圖層1輪廓線
100
AcDbLine
 10
6313.84263188859
 20
1749.767157255794
 30
0.0
 11
6313.84263188859
 21
1739.767157255794
 31
0.0
  0
LINE
  5
3C3F
330
1F
100
AcDbEntity
  8
圖層2中心線
 48
0.2
370
    18
100
AcDbLine
 10
6328.842631888591
 20
1769.232200551334
 30
0.0
 11
6328.842631888591
 21
1714.404720302589
 31
0.0
  0
LINE
  5
3C40
330
1F
100
AcDbEntity
  8
圖層3虛線
100
AcDbLine
 10
6322.84263188859
 20
1754.767157255794
 30
0.0
 11
6322.84263188859
 21
1739.767157255794
 31
0.0
  0
LINE
  5
3C41
330
1F
100
AcDbEntity
  8
圖層3虛線
100
AcDbLine
 10
6334.842631888591
 20
1754.767157255794
 30
0.0
 11
6334.842631888591
 21
1739.767157255794
 31
0.0
  0
LINE
  5
3C42
330
1F
100
AcDbEntity
  8
圖層1輪廓線
100
AcDbLine
 10
6436.34263188859
 20
1819.767157255794
 30
0.0
 11
6348.84263188859
 21
1819.767157255794
 31
0.0
  0
LINE
  5
3C43
330
1F
100
AcDbEntity
  8
圖層1輪廓線
100
AcDbLine
 10
6343.84263188859
 20
1814.767157255794
 30
0.0
 11
6343.84263188859
 21
1754.767157255794
 31
0.0
  0
LINE
  5
3C44
330
1F
100
AcDbEntity
  8
圖層1輪廓線
100
AcDbLine
 10
6318.84263188859
 20
1754.767157255794
 30
0.0
 11
6343.84263188859
 21
1754.767157255794
 31
0.0
  0
ARC
  5
3C45
330
1F
100
AcDbEntity
  8
圖層1輪廓線
100
AcDbCircle
 10
6318.84263188859
 20
1749.767157255794
 30
0.0
 40
5.0
100
AcDbArc
 50
90.0
 51
180.0
  0
ARC
  5
3C46
330
1F
100
AcDbEntity
  8
圖層1輪廓線
100
AcDbCircle
 10
6348.84263188859
 20
1814.767157255794
 30
0.0
 40
5.0
100
AcDbArc
 50
90.0
 51
180.0
  0
LINE
  5
3C47
330
1F
100
AcDbEntity
  8
圖層1輪廓線
100
AcDbLine
 10
6456.34263188859
 20
1808.767157255794
 30
0.0
 11
6456.34263188859
 21
1798.767157255794
 31
0.0
  0
LINE
  5
3C48
330
1F
100
AcDbEntity
  8
圖層1輪廓線
100
AcDbLine
 10
6431.34263188859
 20
1798.767157255794
 30
0.0
 11
6431.34263188859
 21
1808.767157255794
 31
0.0
  0
LINE
  5
3C49
330
1F
100
AcDbEntity
  8
圖層1輪廓線
100
AcDbLine
 10
6456.34263188859
 20
1798.767157255794
 30
0.0
 11
6431.34263188859
 21
1798.767157255794
 31
0.0
  0
LINE
  5
3C4A
330
1F
100
AcDbEntity
  8
圖層1輪廓線
100
AcDbLine
 10
6431.34263188859
 20
1808.767157255794
 30
0.0
 11
6436.34263188859
 21
1808.767157255794
 31
0.0
  0
LINE
  5
3C4B
330
1F
100
AcDbEntity
  8
圖層1輪廓線
100
AcDbLine
 10
6436.34263188859
 20
1808.767157255794
 30
0.0
 11
6436.34263188859
 21
1819.767157255794
 31
0.0
  0
LINE
  5
3C4C
330
1F
100
AcDbEntity
  8
圖層1輪廓線
100
AcDbLine
 10
6451.34263188859
 20
1819.767157255794
 30
0.0
 11
6451.34263188859
 21
1808.767157255794
 31
0.0
  0
LINE
  5
3C4D
330
1F
100
AcDbEntity
  8
圖層1輪廓線
100
AcDbLine
 10
6451.34263188859
 20
1808.767157255794
 30
0.0
 11
6456.34263188859
 21
1808.767157255794
 31
0.0
  0
LINE
  5
3C4E
330
1F
100
AcDbEntity
  8
圖層2中心線
 48
0.2
370
    18
100
AcDbLine
 10
6558.842631888591
 20
1774.538085736696
 30
0.0
 11
6558.842631888591
 21
1718.26524032743
 31
0.0
  0
LINE
  5
3C4F
330
1F
100
AcDbEntity
  8
圖層3虛線
100
AcDbLine
 10
6552.842631888591
 20
1754.767157255794
 30
0.0
 11
6552.842631888591
 21
1739.767157255794
 31
0.0
  0
LINE
  5
3C50
330
1F
100
AcDbEntity
  8
圖層3虛線
100
AcDbLine
 10
6564.842631888591
 20
1754.767157255794
 30
0.0
 11
6564.842631888591
 21
1739.767157255794
 31
0.0
  0
LINE
  5
3C51
330
1F
100
AcDbEntity
  8
圖層1輪廓線
100
AcDbLine
 10
6573.84263188859
 20
1749.767157255794
 30
0.0
 11
6573.84263188859
 21
1739.767157255794
 31
0.0
  0
LINE
  5
3C52
330
1F
100
AcDbEntity
  8
圖層1輪廓線
100
AcDbLine
 10
6674.154161382336
 20
1819.767157255794
 30
0.0
 11
6674.154161382336
 21
1739.767157255794
 31
0.0
  0
LINE
  5
3C53
330
1F
100
AcDbEntity
  8
圖層1輪廓線
100
AcDbLine
 10
6693.84263188859
 20
1739.767157255794
 30
0.0
 11
6693.84263188859
 21
1819.767157255794
 31
0.0
  0
LINE
  5
3C54
330
1F
100
AcDbEntity
  8
圖層1輪廓線
100
AcDbLine
 10
6693.84263188859
 20
1819.767157255794
 30
0.0
 11
6572.592631888591
 21
1819.767157255794
 31
0.0
  0
LINE
  5
3C55
330
1F
100
AcDbEntity
  8
圖層1輪廓線
100
AcDbLine
 10
6543.84263188859
 20
1814.767157255794
 30
0.0
 11
6543.84263188859
 21
1754.767157255794
 31
0.0
  0
LINE
  5
3C56
330
1F
100
AcDbEntity
  8
圖層1輪廓線
100
AcDbLine
 10
6543.84263188859
 20
1754.767157255794
 30
0.0
 11
6568.84263188859
 21
1754.767157255794
 31
0.0
  0
ARC
  5
3C57
330
1F
100
AcDbEntity
  8
圖層1輪廓線
100
AcDbCircle
 10
6568.84263188859
 20
1749.767157255794
 30
0.0
 40
5.0
100
AcDbArc
 50
0.0
 51
90.0
  0
LINE
  5
3C58
330
1F
100
AcDbEntity
  8
圖層1輪廓線
100
AcDbLine
 10
6603.842631888591
 20
1811.767157255794
 30
0.0
 11
6543.84263188859
 21
1811.767157255794
 31
0.0
  0
LINE
  5
3C59
330
1F
100
AcDbEntity
  8
圖層1輪廓線
100
AcDbLine
 10
6572.592631888591
 20
1819.767157255794
 30
0.0
 11
6572.592631888591
 21
1811.767157255794
 31
0.0
  0
LINE
  5
3C5A
330
1F
100
AcDbEntity
  8
圖層1輪廓線
100
AcDbLine
 10
6622.339901273825
 20
1819.767157255794
 30
0.0
 11
6603.842631888591
 21
1811.767157255794
 31
0.0
  0
LINE
  5
3C5B
330
1F
100
AcDbEntity
  8
圖層2中心線
 48
0.1
100
AcDbLine
 10
6683.842631888591
 20
1764.767157255794
 30
0.0
 11
6683.842631888591
 21
1744.767157255794
 31
0.0
  0
LINE
  5
3C5C
330
1F
100
AcDbEntity
  8
圖層2中心線
 48
0.1
100
AcDbLine
 10
6673.842631888589
 20
1754.767157255794
 30
0.0
 11
6693.84263188859
 21
1754.767157255794
 31
0.0
  0
CIRCLE
  5
3C5D
330
1F
100
AcDbEntity
  8
圖層1輪廓線
  6
Continuous
370
    50
100
AcDbCircle
 10
6683.842631888591
 20
1754.767157255794
 30
0.0
 40
7.0
  0
CIRCLE
  5
3C5E
330
1F
100
AcDbEntity
  8
圖層1輪廓線
  6
Continuous
370
    50
100
AcDbCircle
 10
6683.842631888591
 20
1754.767157255794
 30
0.0
 40
5.0
  0
LINE
  5
3C5F
330
1F
100
AcDbEntity
  8
圖層2中心線
 48
0.1
100
AcDbLine
 10
6683.842631888591
 20
1814.767157255794
 30
0.0
 11
6683.842631888591
 21
1794.767157255794
 31
0.0
  0
CIRCLE
  5
3C60
330
1F
100
AcDbEntity
  8
圖層1輪廓線
  6
Continuous
370
    50
100
AcDbCircle
 10
6683.842631888591
 20
1804.767157255794
 30
0.0
 40
7.0
  0
CIRCLE
  5
3C61
330
1F
100
AcDbEntity
  8
圖層1輪廓線
  6
Continuous
370
    50
100
AcDbCircle
 10
6683.842631888591
 20
1804.767157255794
 30
0.0
 40
5.0
  0
LINE
  5
3C62
330
1F
100
AcDbEntity
  8
圖層2中心線
 48
0.1
100
AcDbLine
 10
6673.842631888589
 20
1804.767157255794
 30
0.0
 11
6693.84263188859
 21
1804.767157255794
 31
0.0
  0
LINE
  5
3C63
330
1F
100
AcDbEntity
  8
圖層1輪廓線
100
AcDbLine
 10
6661.34263188859
 20
1819.767157255794
 30
0.0
 11
6661.34263188859
 21
2043.891481149547
 31
0.0
  0
LINE
  5
3C64
330
1F
100
AcDbEntity
  8
圖層1輪廓線
100
AcDbLine
 10
6586.34263188859
 20
2137.767157255794
 30
0.0
 11
6586.34263188859
 21
2130.891481149547
 31
0.0
  0
LINE
  5
3C65
330
1F
100
AcDbEntity
  8
圖層1輪廓線
100
AcDbLine
 10
6588.342631888591
 20
1739.767157255794
 30
0.0
 11
6659.34263188859
 21
1739.767157255794
 31
0.0
  0
LINE
  5
3C66
330
1F
100
AcDbEntity
  8
圖層1輪廓線
100
AcDbLine
 10
6659.34263188859
 20
2139.767157255794
 30
0.0
 11
6588.342631888591
 21
2139.767157255794
 31
0.0
  0
LINE
  5
3C67
330
1F
100
AcDbEntity
  8
圖層1輪廓線
100
AcDbLine
 10
6661.34263188859
 20
2137.767157255794
 30
0.0
 11
6586.34263188859
 21
2137.767157255794
 31
0.0
  0
LINE
  5
3C68
330
1F
100
AcDbEntity
  8
圖層1輪廓線
100
AcDbLine
 10
6588.342631888591
 20
2139.767157255794
 30
0.0
 11
6586.34263188859
 21
2137.767157255794
 31
0.0
  0
LINE
  5
3C69
330
1F
100
AcDbEntity
  8
圖層1輪廓線
100
AcDbLine
 10
6659.34263188859
 20
2139.767157255794
 30
0.0
 11
6661.34263188859
 21
2137.767157255794
 31
0.0
  0
LINE
  5
3C6A
330
1F
100
AcDbEntity
  8
圖層1輪廓線
  6
Continuous
370
    50
100
AcDbLine
 10
6678.842631888591
 20
1751.880405909846
 30
0.0
 11
6683.842631888591
 21
1748.993654563898
 31
0.0
  0
LINE
  5
3C6B
330
1F
100
AcDbEntity
  8
圖層1輪廓線
  6
Continuous
370
    50
100
AcDbLine
 10
6683.842631888591
 20
1748.993654563898
 30
0.0
 11
6688.84263188859
 21
1751.880405909846
 31
0.0
  0
LINE
  5
3C6C
330
1F
100
AcDbEntity
  8
圖層1輪廓線
  6
Continuous
370
    50
100
AcDbLine
 10
6688.84263188859
 20
1751.880405909846
 30
0.0
 11
6688.84263188859
 21
1757.653908601742
 31
0.0
  0
LINE
  5
3C6D
330
1F
100
AcDbEntity
  8
圖層1輪廓線
  6
Continuous
370
    50
100
AcDbLine
 10
6688.84263188859
 20
1757.653908601742
 30
0.0
 11
6683.842631888591
 21
1760.54065994769
 31
0.0
  0
LINE
  5
3C6E
330
1F
100
AcDbEntity
  8
圖層1輪廓線
  6
Continuous
370
    50
100
AcDbLine
 10
6683.842631888591
 20
1760.54065994769
 30
0.0
 11
6678.842631888591
 21
1757.653908601742
 31
0.0
  0
LINE
  5
3C6F
330
1F
100
AcDbEntity
  8
圖層1輪廓線
  6
Continuous
370
    50
100
AcDbLine
 10
6678.842631888591
 20
1757.653908601742
 30
0.0
 11
6678.842631888591
 21
1751.880405909846
 31
0.0
  0
LINE
  5
3C70
330
1F
100
AcDbEntity
  8
圖層1輪廓線
  6
Continuous
370
    50
100
AcDbLine
 10
6678.842631888591
 20
1801.880405909846
 30
0.0
 11
6683.842631888591
 21
1798.993654563898
 31
0.0
  0
LINE
  5
3C71
330
1F
100
AcDbEntity
  8
圖層1輪廓線
  6
Continuous
370
    50
100
AcDbLine
 10
6683.842631888591
 20
1798.993654563898
 30
0.0
 11
6688.84263188859
 21
1801.880405909846
 31
0.0
  0
LINE
  5
3C72
330
1F
100
AcDbEntity
  8
圖層1輪廓線
  6
Continuous
370
    50
100
AcDbLine
 10
6688.84263188859
 20
1801.880405909846
 30
0.0
 11
6688.84263188859
 21
1807.653908601742
 31
0.0
  0
LINE
  5
3C73
330
1F
100
AcDbEntity
  8
圖層1輪廓線
  6
Continuous
370
    50
100
AcDbLine
 10
6688.84263188859
 20
1807.653908601742
 30
0.0
 11
6683.842631888591
 21
1810.54065994769
 31
0.0
  0
LINE
  5
3C74
330
1F
100
AcDbEntity
  8
圖層1輪廓線
  6
Continuous
370
    50
100
AcDbLine
 10
6683.842631888591
 20
1810.54065994769
 30
0.0
 11
6678.842631888591
 21
1807.653908601742
 31
0.0
  0
LINE
  5
3C75
330
1F
100
AcDbEntity
  8
圖層1輪廓線
  6
Continuous
370
    50
100
AcDbLine
 10
6678.842631888591
 20
1807.653908601742
 30
0.0
 11
6678.842631888591
 21
1801.880405909846
 31
0.0
  0
LINE
  5
3C76
330
1F
100
AcDbEntity
  8
圖層1輪廓線
  6
Continuous
370
    50
100
AcDbLine
 10
6488.842631888591
 20
2043.891481149548
 30
0.0
 11
6458.84263188859
 21
2073.891481149547
 31
0.0
  0
LINE
  5
3C77
330
1F
100
AcDbEntity
  8
圖層1輪廓線
  6
Continuous
100
AcDbLine
 10
5985.444932861902
 20
2073.891481149548
 30
0.0
 11
5855.444932861902
 21
2073.891481149548
 31
0.0
  0
LINE
  5
3C78
330
1F
100
AcDbEntity
  8
圖層1輪廓線
  6
Continuous
100
AcDbLine
 10
5855.444932861902
 20
2043.891481149548
 30
0.0
 11
5896.773571825128
 21
2043.891481149548
 31
0.0
  0
LINE
  5
3C79
330
1F
100
AcDbEntity
  8
圖層1輪廓線
  6
Continuous
100
AcDbLine
 10
5855.444932861902
 20
2123.891481149548
 30
0.0
 11
5855.444932861902
 21
2043.891481149548
 31
0.0
  0
LINE
  5
3C7A
330
1F
100
AcDbEntity
  8
圖層1輪廓線
  6
Continuous
100
AcDbLine
 10
5985.444932861902
 20
2043.891481149548
 30
0.0
 11
5985.444932861902
 21
2123.891481149548
 31
0.0
  0
LINE
  5
3C7B
330
1F
100
AcDbEntity
  8
圖層1輪廓線
  6
Continuous
370
    50
100
AcDbLine
 10
6378.84263188859
 20
2073.891481149547
 30
0.0
 11
6378.84263188859
 21
2123.891481149547
 31
0.0
  0
LINE
  5
3C7C
330
1F
100
AcDbEntity
  8
圖層1輪廓線
  6
Continuous
100
AcDbLine
 10
6458.84263188859
 20
2073.891481149547
 30
0.0
 11
6378.84263188859
 21
2073.891481149547
 31
0.0
  0
LINE
  5
3C7D
330
1F
100
AcDbEntity
  8
圖層1輪廓線
  6
Continuous
370
    50
100
AcDbLine
 10
6693.84263188859
 20
2043.891481149547
 30
0.0
 11
6488.842631888591
 21
2043.891481149548
 31
0.0
  0
LINE
  5
3C7E
330
1F
100
AcDbEntity
  8
圖層1輪廓線
  6
Continuous
370
    50
100
AcDbLine
 10
6693.84263188859
 20
2123.891481149547
 30
0.0
 11
6693.84263188859
 21
2043.891481149547
 31
0.0
  0
LINE
  5
3C7F
330
1F
100
AcDbEntity
  8
圖層1輪廓線
  6
Continuous
370
    50
100
AcDbLine
 10
6674.154161382336
 20
2123.891481149547
 30
0.0
 11
6674.154161382336
 21
2043.891481149547
 31
0.0
  0
CIRCLE
  5
3C80
330
1F
100
AcDbEntity
  8
圖層1輪廓線
  6
Continuous
370
    50
100
AcDbCircle
 10
6683.842631888591
 20
2058.891481149547
 30
0.0
 40
7.0
  0
LINE
  5
3C81
330
1F
100
AcDbEntity
  8
圖層2中心線
 48
0.1
100
AcDbLine
 10
6673.842631888589
 20
2058.891481149547
 30
0.0
 11
6693.84263188859
 21
2058.891481149547
 31
0.0
  0
LWPOLYLINE
  5
3C82
330
1F
100
AcDbEntity
  8
圖層1輪廓線
  6
Continuous
370
    50
100
AcDbPolyline
 90
        6
 70
     1
 43
0.0
 10
6678.842631888591
 20
2056.004729803599
 10
6683.842631888591
 20
2053.117978457651
 10
6688.84263188859
 20
2056.004729803599
 10
6688.84263188859
 20
2061.778232495495
 10
6683.842631888591
 20
2064.664983841443
 10
6678.842631888591
 20
2061.778232495495
  0
LINE
  5
3C83
330
1F
100
AcDbEntity
  8
圖層2中心線
 48
0.1
100
AcDbLine
 10
6683.842631888591
 20
2068.891481149547
 30
0.0
 11
6683.842631888591
 21
2048.891481149547
 31
0.0
  0
LWPOLYLINE
  5
3C84
330
1F
100
AcDbEntity
  8
圖層1輪廓線
  6
Continuous
370
    50
100
AcDbPolyline
 90
        6
 70
     1
 43
0.0
 10
6678.842631888591
 20
2081.004729803599
 10
6683.842631888591
 20
2078.117978457651
 10
6688.84263188859
 20
2081.004729803599
 10
6688.84263188859
 20
2086.778232495495
 10
6683.842631888591
 20
2089.664983841443
 10
6678.842631888591
 20
2086.778232495495
  0
CIRCLE
  5
3C85
330
1F
100
AcDbEntity
  8
圖層1輪廓線
  6
Continuous
370
    50
100
AcDbCircle
 10
6683.842631888591
 20
2083.891481149547
 30
0.0
 40
7.0
  0
LINE
  5
3C86
330
1F
100
AcDbEntity
  8
圖層2中心線
 48
0.1
100
AcDbLine
 10
6673.842631888589
 20
2083.891481149547
 30
0.0
 11
6693.84263188859
 21
2083.891481149547
 31
0.0
  0
LINE
  5
3C87
330
1F
100
AcDbEntity
  8
圖層2中心線
 48
0.1
100
AcDbLine
 10
6683.842631888591
 20
2093.891481149547
 30
0.0
 11
6683.842631888591
 21
2073.891481149547
 31
0.0
  0
LINE
  5
3C88
330
1F
100
AcDbEntity
  8
圖層2中心線
 48
0.1
100
AcDbLine
 10
6673.842631888589
 20
2108.891481149547
 30
0.0
 11
6693.84263188859
 21
2108.891481149547
 31
0.0
  0
LWPOLYLINE
  5
3C89
330
1F
100
AcDbEntity
  8
圖層1輪廓線
  6
Continuous
370
    50
100
AcDbPolyline
 90
        6
 70
     1
 43
0.0
 10
6678.842631888591
 20
2106.004729803599
 10
6683.842631888591
 20
2103.117978457651
 10
6688.84263188859
 20
2106.004729803599
 10
6688.84263188859
 20
2111.778232495495
 10
6683.842631888591
 20
2114.664983841443
 10
6678.842631888591
 20
2111.778232495495
  0
CIRCLE
  5
3C8A
330
1F
100
AcDbEntity
  8
圖層1輪廓線
  6
Continuous
370
    50
100
AcDbCircle
 10
6683.842631888591
 20
2108.891481149547
 30
0.0
 40
7.0
  0
LINE
  5
3C8B
330
1F
100
AcDbEntity
  8
圖層2中心線
 48
0.1
100
AcDbLine
 10
6683.842631888591
 20
2118.891481149547
 30
0.0
 11
6683.842631888591
 21
2098.891481149547
 31
0.0
  0
LINE
  5
3C8C
330
1F
100
AcDbEntity
  8
圖層1輪廓線
100
AcDbLine
 10
5957.944932861902
 20
1819.767157255794
 30
0.0
 11
5957.944932861902
 21
2043.891481149548
 31
0.0
  0
LINE
  5
3C8D
330
1F
100
AcDbEntity
  8
圖層1輪廓線
100
AcDbLine
 10
5884.944932861902
 20
1739.767157255794
 30
0.0
 11
5955.944932861902
 21
1739.767157255794
 31
0.0
  0
LINE
  5
3C8E
330
1F
100
AcDbEntity
  8
圖層1輪廓線
100
AcDbLine
 10
5882.944932861902
 20
2043.891481149548
 30
0.0
 11
5882.944932861902
 21
1819.767157255794
 31
0.0
  0
ARC
  5
3C8F
330
1F
100
AcDbEntity
  8
圖層1輪廓線
  6
Continuous
100
AcDbCircle
 10
6433.592631888591
 20
2088.657106149545
 30
0.0
 40
27.2656249999976
100
AcDbArc
 50
247.9181196393515
 51
292.0818803606484
  0
ARC
  5
3C90
330
1F
100
AcDbEntity
  8
圖層1輪廓線
  6
Continuous
100
AcDbCircle
 10
6433.592631888591
 20
2044.125856149546
 30
0.0
 40
27.26562500000156
100
AcDbArc
 50
67.91811963935156
 51
112.0818803606484
  0
LINE
  5
3C91
330
1F
100
AcDbEntity
  8
圖層1輪廓線
100
AcDbLine
 10
6423.342631888592
 20
2063.391481149547
 30
0.0
 11
6423.342631888591
 21
2069.391481149547
 31
0.0
  0
ARC
  5
3C92
330
1F
100
AcDbEntity
  8
圖層1輪廓線
  6
Continuous
100
AcDbCircle
 10
6454.092631888591
 20
2044.125856149549
 30
0.0
 40
27.26562499999825
100
AcDbArc
 50
71.47508599862487
 51
112.0818803606484
  0
ARC
  5
3C93
330
1F
100
AcDbEntity
  8
圖層1輪廓線
  6
Continuous
100
AcDbCircle
 10
6454.092631888591
 20
2088.657106149545
 30
0.0
 40
27.26562499999781
100
AcDbArc
 50
247.9181196393515
 51
292.0818803606484
  0
LINE
  5
3C94
330
1F
100
AcDbEntity
  8
圖層1輪廓線
100
AcDbLine
 10
6464.342631888591
 20
2063.391481149548
 30
0.0
 11
6464.342631888591
 21
2068.391481149547
 31
0.0
  0
LINE
  5
3C95
330
1F
100
AcDbEntity
  8
圖層1輪廓線
  6
Continuous
100
AcDbLine
 10
6423.342631888592
 20
2046.391481149547
 30
0.0
 11
6464.342631888591
 21
2046.391481149547
 31
0.0
  0
ARC
  5
3C96
330
1F
100
AcDbEntity
  8
圖層1輪廓線
  6
Continuous
100
AcDbCircle
 10
6433.592631888591
 20
2024.128981149547
 30
0.0
 40
22.26250000000009
100
AcDbArc
 50
62.58607799182947
 51
117.4139220081705
  0
LINE
  5
3C97
330
1F
100
AcDbEntity
  8
圖層1輪廓線
100
AcDbLine
 10
6423.342631888592
 20
2008.891481149547
 30
0.0
 11
6464.342631888591
 21
2008.891481149547
 31
0.0
  0
LINE
  5
3C98
330
1F
100
AcDbEntity
  8
圖層1輪廓線
  6
Continuous
100
AcDbLine
 10
6423.342631888592
 20
2013.891481149547
 30
0.0
 11
6464.342631888591
 21
2013.891481149547
 31
0.0
  0
ARC
  5
3C99
330
1F
100
AcDbEntity
  8
圖層1輪廓線
  6
Continuous
100
AcDbCircle
 10
6433.592631888591
 20
2036.153981149547
 30
0.0
 40
22.26249999999979
100
AcDbArc
 50
242.5860779918295
 51
297.4139220081705
  0
LINE
  5
3C9A
330
1F
100
AcDbEntity
  8
圖層1輪廓線
100
AcDbLine
 10
6423.342631888592
 20
2008.891481149547
 30
0.0
 11
6423.342631888592
 21
2061.391481149547
 31
0.0
  0
LINE
  5
3C9B
330
1F
100
AcDbEntity
  8
圖層1輪廓線
100
AcDbLine
 10
6464.342631888591
 20
2013.891481149547
 30
0.0
 11
6464.342631888591
 21
2061.391481149547
 31
0.0
  0
ARC
  5
3C9C
330
1F
100
AcDbEntity
  8
圖層1輪廓線
  6
Continuous
100
AcDbCircle
 10
6454.092631888591
 20
2036.153981149546
 30
0.0
 40
22.26249999999903
100
AcDbArc
 50
242.5860779918295
 51
297.4139220081705
  0
LINE
  5
3C9D
330
1F
100
AcDbEntity
  8
圖層1輪廓線
100
AcDbLine
 10
6464.342631888591
 20
2008.891481149547
 30
0.0
 11
6464.342631888591
 21
2013.891481149547
 31
0.0
  0
ARC
  5
3C9E
330
1F
100
AcDbEntity
  8
圖層1輪廓線
  6
Continuous
100
AcDbCircle
 10
6454.092631888591
 20
2024.128981149547
 30
0.0
 40
22.26250000000009
100
AcDbArc
 50
62.58607799182947
 51
117.4139220081705
  0
LINE
  5
3C9F
330
1F
100
AcDbEntity
  8
圖層1輪廓線
  6
Continuous
100
AcDbLine
 10
5902.691412084322
 20
2046.391481149548
 30
0.0
 11
5938.198453639484
 21
2046.391481149548
 31
0.0
  0
ARC
  5
3CA0
330
1F
100
AcDbEntity
  8
圖層1輪廓線
  6
Continuous
100
AcDbCircle
 10
5920.444932861903
 20
2017.12481448288
 30
0.0
 40
29.26666666666804
100
AcDbArc
 50
66.14595163640235
 51
113.8540483635976
  0
LINE
  5
3CA1
330
1F
100
AcDbEntity
  8
圖層1輪廓線
  6
Continuous
100
AcDbLine
 10
5902.691412084322
 20
2011.391481149548
 30
0.0
 11
5938.198453639484
 21
2011.391481149548
 31
0.0
  0
LINE
  5
3CA2
330
1F
100
AcDbEntity
  8
圖層1輪廓線
  6
Continuous
100
AcDbLine
 10
5899.944932861902
 20
2006.391481149548
 30
0.0
 11
5940.944932861902
 21
2006.391481149548
 31
0.0
  0
ARC
  5
3CA3
330
1F
100
AcDbEntity
  8
圖層1輪廓線
  6
Continuous
100
AcDbCircle
 10
5920.444932861903
 20
2040.478461249044
 30
0.0
 40
29.10241990186305
100
AcDbArc
 50
246.0028878993498
 51
293.9971121006502
  0
LINE
  5
3CA4
330
1F
100
AcDbEntity
  8
圖層1輪廓線
  6
Continuous
100
AcDbLine
 10
5899.944932861902
 20
2061.391481149548
 30
0.0
 11
5940.944932861902
 21
2061.391481149547
 31
0.0
  0
LINE
  5
3CA5
330
1F
100
AcDbEntity
  8
圖層1輪廓線
  6
Continuous
100
AcDbLine
 10
5896.773571825128
 20
2013.891481149548
 30
0.0
 11
5896.773571825128
 21
2043.891481149548
 31
0.0
  0
LINE
  5
3CA6
330
1F
100
AcDbEntity
  8
圖層1輪廓線
  6
Continuous
100
AcDbLine
 10
5908.609252343516
 20
2013.891481149548
 30
0.0
 11
5908.609252343516
 21
2043.891481149548
 31
0.0
  0
ARC
  5
3CA7
330
1F
100
AcDbEntity
  8
圖層1輪廓線
  6
Continuous
100
AcDbCircle
 10
5902.691412084322
 20
2019.645647816214
 30
0.0
 40
8.254166666666545
100
AcDbArc
 50
224.1966084730897
 51
315.8033915269103
  0
LINE
  5
3CA8
330
1F
100
AcDbEntity
  8
圖層1輪廓線
  6
Continuous
100
AcDbLine
 10
5899.944932861902
 20
2006.391481149548
 30
0.0
 11
5899.944932861902
 21
2011.861810764867
 31
0.0
  0
ARC
  5
3CA9
330
1F
100
AcDbEntity
  8
圖層1輪廓線
  6
Continuous
100
AcDbCircle
 10
5902.691412084322
 20
2038.137314482881
 30
0.0
 40
8.254166666666389
100
AcDbArc
 50
44.1966084730897
 51
135.8033915269103
  0
LINE
  5
3CAA
330
1F
100
AcDbEntity
  8
圖層1輪廓線
  6
Continuous
100
AcDbLine
 10
5899.944932861902
 20
2045.921151534228
 30
0.0
 11
5899.944932861902
 21
2061.391481149548
 31
0.0
  0
LINE
  5
3CAB
330
1F
100
AcDbEntity
  8
圖層1輪廓線
  6
Continuous
100
AcDbLine
 10
5932.28061338029
 20
2013.891481149547
 30
0.0
 11
5932.28061338029
 21
2043.891481149548
 31
0.0
  0
LINE
  5
3CAC
330
1F
100
AcDbEntity
  8
圖層1輪廓線
  6
Continuous
100
AcDbLine
 10
5944.116293898677
 20
2013.891481149547
 30
0.0
 11
5944.116293898677
 21
2043.891481149548
 31
0.0
  0
ARC
  5
3CAD
330
1F
100
AcDbEntity
  8
圖層1輪廓線
  6
Continuous
100
AcDbCircle
 10
5938.198453639484
 20
2019.645647816214
 30
0.0
 40
8.254166666666625
100
AcDbArc
 50
224.1966084730897
 51
315.8033915269103
  0
LINE
  5
3CAE
330
1F
100
AcDbEntity
  8
圖層1輪廓線
  6
Continuous
100
AcDbLine
 10
5940.944932861902
 20
2006.391481149548
 30
0.0
 11
5940.944932861902
 21
2011.861810764866
 31
0.0
  0
ARC
  5
3CAF
330
1F
100
AcDbEntity
  8
圖層1輪廓線
  6
Continuous
100
AcDbCircle
 10
5938.198453639483
 20
2038.137314482881
 30
0.0
 40
8.254166666666629
100
AcDbArc
 50
44.1966084730897
 51
135.8033915269103
  0
LINE
  5
3CB0
330
1F
100
AcDbEntity
  8
圖層1輪廓線
  6
Continuous
100
AcDbLine
 10
5940.944932861902
 20
2045.921151534229
 30
0.0
 11
5940.944932861902
 21
2061.391481149547
 31
0.0
  0
ARC
  5
3CB1
330
1F
100
AcDbEntity
  8
圖層1輪廓線
  6
Continuous
100
AcDbCircle
 10
5920.444932861902
 20
2097.412314482882
 30
0.0
 40
36.02083333333455
100
AcDbArc
 50
250.8174656949711
 51
289.1825343050289
  0
ARC
  5
3CB2
330
1F
100
AcDbEntity
  8
圖層1輪廓線
  6
Continuous
100
AcDbCircle
 10
5920.444932861902
 20
2035.370647816217
 30
0.0
 40
36.02083333333123
100
AcDbArc
 50
70.81746569497115
 51
109.1825343050288
  0
ARC
  5
3CB3
330
1F
100
AcDbEntity
  8
圖層1輪廓線
  6
Continuous
100
AcDbCircle
 10
5902.691412084322
 20
2071.146689482881
 30
0.0
 40
9.755208333333024
100
AcDbArc
 50
232.6534906855639
 51
307.3465093144361
  0
ARC
  5
3CB4
330
1F
100
AcDbEntity
  8
圖層1輪廓線
  6
Continuous
100
AcDbCircle
 10
5902.691412084322
 20
2061.636272816216
 30
0.0
 40
9.755208333331509
100
AcDbArc
 50
52.65349068552243
 51
127.3465093144775
  0
LINE
  5
3CB5
330
1F
100
AcDbEntity
  8
圖層1輪廓線
  6
Continuous
100
AcDbLine
 10
5896.773571825128
 20
2063.391481149548
 30
0.0
 11
5896.773571825128
 21
2069.391481149548
 31
0.0
  0
LINE
  5
3CB6
330
1F
100
AcDbEntity
  8
圖層1輪廓線
  6
Continuous
100
AcDbLine
 10
5908.609252343516
 20
2063.391481149548
 30
0.0
 11
5908.609252343516
 21
2069.391481149547
 31
0.0
  0
ARC
  5
3CB7
330
1F
100
AcDbEntity
  8
圖層1輪廓線
  6
Continuous
100
AcDbCircle
 10
5938.198453639484
 20
2071.146689482881
 30
0.0
 40
9.755208333333412
100
AcDbArc
 50
232.6534906855639
 51
307.3465093144361
  0
ARC
  5
3CB8
330
1F
100
AcDbEntity
  8
圖層1輪廓線
  6
Continuous
100
AcDbCircle
 10
5938.198453639484
 20
2061.636272816214
 30
0.0
 40
9.755208333333525
100
AcDbArc
 50
52.65349068556385
 51
127.3465093144361
  0
LINE
  5
3CB9
330
1F
100
AcDbEntity
  8
圖層1輪廓線
  6
Continuous
100
AcDbLine
 10
5932.28061338029
 20
2063.391481149548
 30
0.0
 11
5932.28061338029
 21
2069.391481149547
 31
0.0
  0
LINE
  5
3CBA
330
1F
100
AcDbEntity
  8
圖層1輪廓線
  6
Continuous
100
AcDbLine
 10
5944.116293898677
 20
2063.391481149547
 30
0.0
 11
5944.116293898677
 21
2069.391481149548
 31
0.0
  0
LINE
  5
3CBB
330
1F
100
AcDbEntity
  8
圖層1輪廓線
  6
Continuous
100
AcDbLine
 10
5900.444932861902
 20
2073.891481149548
 30
0.0
 11
5900.444932861902
 21
2071.391481149548
 31
0.0
  0
LINE
  5
3CBC
330
1F
100
AcDbEntity
  8
圖層1輪廓線
  6
Continuous
100
AcDbLine
 10
5900.444932861902
 20
2071.391481149548
 30
0.0
 11
5940.444932861902
 21
2071.391481149548
 31
0.0
  0
LINE
  5
3CBD
330
1F
100
AcDbEntity
  8
圖層1輪廓線
  6
Continuous
100
AcDbLine
 10
5940.444932861902
 20
2071.391481149548
 30
0.0
 11
5940.444932861902
 21
2073.891481149548
 31
0.0
  0
LINE
  5
3CBE
330
1F
100
AcDbEntity
  8
圖層1輪廓線
100
AcDbLine
 10
6423.842631888589
 20
2073.891481149547
 30
0.0
 11
6423.842631888589
 21
2071.391481149547
 31
0.0
  0
LINE
  5
3CBF
330
1F
100
AcDbEntity
  8
圖層1輪廓線
  6
Continuous
100
AcDbLine
 10
5944.116293898677
 20
2043.891481149548
 30
0.0
 11
5985.444932861902
 21
2043.891481149548
 31
0.0
  0
LINE
  5
3CC0
330
1F
100
AcDbEntity
  8
圖層1輪廓線
100
AcDbLine
 10
6530.842631888591
 20
2284.891481149547
 30
0.0
 11
6530.842631888591
 21
2130.891481149547
 31
0.0
  0
LINE
  5
3CC1
330
1F
100
AcDbEntity
  8
圖層1輪廓線
  6
Continuous
100
AcDbLine
 10
6550.842631888591
 20
2284.891481149547
 30
0.0
 11
6545.842631888589
 21
2284.891481149547
 31
0.0
  0
LINE
  5
3CC2
330
1F
100
AcDbEntity
  8
圖層1輪廓線
  6
Continuous
100
AcDbLine
 10
6549.342631888591
 20
2286.391481149547
 30
0.0
 11
6532.342631888591
 21
2286.391481149547
 31
0.0
  0
ARC
  5
3CC3
330
1F
100
AcDbEntity
  8
圖層1輪廓線
  6
Continuous
100
AcDbCircle
 10
6540.84263188859
 20
2281.641481149547
 30
0.0
 40
7.250000000000031
100
AcDbArc
 50
226.3971810272874
 51
313.6028189727126
  0
LINE
  5
3CC4
330
1F
100
AcDbEntity
  8
圖層1輪廓線
  6
Continuous
100
AcDbLine
 10
6532.342631888591
 20
2286.391481149547
 30
0.0
 11
6530.842631888591
 21
2284.891481149547
 31
0.0
  0
LINE
  5
3CC5
330
1F
100
AcDbEntity
  8
圖層1輪廓線
  6
Continuous
100
AcDbLine
 10
6530.842631888591
 20
2284.891481149547
 30
0.0
 11
6535.84263188859
 21
2284.891481149547
 31
0.0
  0
LINE
  5
3CC6
330
1F
100
AcDbEntity
  8
圖層1輪廓線
  6
Continuous
100
AcDbLine
 10
6545.842631888589
 20
2286.391481149547
 30
0.0
 11
6545.842631888589
 21
2276.391481149547
 31
0.0
  0
LINE
  5
3CC7
330
1F
100
AcDbEntity
  8
圖層1輪廓線
  6
Continuous
100
AcDbLine
 10
6535.84263188859
 20
2286.391481149547
 30
0.0
 11
6535.84263188859
 21
2276.391481149547
 31
0.0
  0
LINE
  5
3CC8
330
1F
100
AcDbEntity
  8
圖層1輪廓線
  6
Continuous
100
AcDbLine
 10
6545.842631888589
 20
2286.391481149547
 30
0.0
 11
6535.84263188859
 21
2276.391481149547
 31
0.0
  0
LINE
  5
3CC9
330
1F
100
AcDbEntity
  8
圖層1輪廓線
  6
Continuous
100
AcDbLine
 10
6545.842631888589
 20
2276.391481149547
 30
0.0
 11
6535.84263188859
 21
2286.391481149547
 31
0.0
  0
LINE
  5
3CCA
330
1F
100
AcDbEntity
  8
圖層1輪廓線
  6
Continuous
100
AcDbLine
 10
6545.842631888589
 20
2276.391481149547
 30
0.0
 11
6535.84263188859
 21
2276.391481149547
 31
0.0
  0
LINE
  5
3CCB
330
1F
100
AcDbEntity
  8
圖層1輪廓線
  6
Continuous
100
AcDbLine
 10
6550.842631888591
 20
2284.891481149547
 30
0.0
 11
6549.342631888591
 21
2286.391481149547
 31
0.0
  0
LINE
  5
3CCC
330
1F
100
AcDbEntity
  8
圖層1輪廓線
100
AcDbLine
 10
6623.84263188859
 20
2139.767157255794
 30
0.0
 11
6650.842631888591
 21
2139.767157255794
 31
0.0
  0
LINE
  5
3CCD
330
1F
100
AcDbEntity
  8
圖層1輪廓線
100
AcDbLine
 10
6650.842631888591
 20
2139.767157255794
 30
0.0
 11
6650.842631888591
 21
2154.767157255794
 31
0.0
  0
LINE
  5
3CCE
330
1F
100
AcDbEntity
  8
圖層1輪廓線
100
AcDbLine
 10
6530.842631888591
 20
2154.767157255794
 30
0.0
 11
6522.842631888591
 21
2154.767157255794
 31
0.0
  0
LINE
  5
3CCF
330
1F
100
AcDbEntity
  8
圖層1輪廓線
100
AcDbLine
 10
6522.842631888591
 20
2154.767157255794
 30
0.0
 11
6522.842631888591
 21
2139.767157255794
 31
0.0
  0
LINE
  5
3CD0
330
1F
100
AcDbEntity
  8
圖層1輪廓線
100
AcDbLine
 10
6522.842631888591
 20
2139.767157255794
 30
0.0
 11
6530.842631888591
 21
2139.767157255794
 31
0.0
  0
LINE
  5
3CD1
330
1F
100
AcDbEntity
  8
圖層4尺寸線
100
AcDbLine
 10
6560.84263188859
 20
2130.891481149547
 30
0.0
 11
6560.84263188859
 21
2139.767157255794
 31
0.0
  0
LINE
  5
3CD2
330
1F
100
AcDbEntity
  8
圖層4尺寸線
100
AcDbLine
 10
6574.84263188859
 20
2139.767157255794
 30
0.0
 11
6574.84263188859
 21
2130.891481149547
 31
0.0
  0
LINE
  5
3CD3
330
1F
100
AcDbEntity
  8
圖層4尺寸線
100
AcDbLine
 10
6560.59263188859
 20
2169.767157255794
 30
0.0
 11
6575.09263188859
 21
2169.767157255794
 31
0.0
  0
LINE
  5
3CD4
330
1F
100
AcDbEntity
  8
圖層1輪廓線
100
AcDbLine
 10
6550.842631888591
 20
2169.767157255794
 30
0.0
 11
6585.84263188859
 21
2169.767157255794
 31
0.0
  0
LINE
  5
3CD5
330
1F
100
AcDbEntity
  8
圖層1輪廓線
100
AcDbLine
 10
6585.84263188859
 20
2154.767157255794
 30
0.0
 11
6550.842631888591
 21
2154.767157255794
 31
0.0
  0
CIRCLE
  5
3CD6
330
1F
100
AcDbEntity
  8
圖層3虛線
100
AcDbCircle
 10
6567.642965085885
 20
2162.267157255794
 30
0.0
 40
4.0
  0
CIRCLE
  5
3CD7
330
1F
100
AcDbEntity
  8
圖層4尺寸線
100
AcDbCircle
 10
6567.642965085885
 20
2162.267157255794
 30
0.0
 40
3.0
  0
LINE
  5
3CD8
330
1F
100
AcDbEntity
  8
圖層1輪廓線
100
AcDbLine
 10
6585.84263188859
 20
2169.767157255794
 30
0.0
 11
6585.84263188859
 21
2154.767157255794
 31
0.0
  0
LINE
  5
3CD9
330
1F
100
AcDbEntity
  8
圖層1輪廓線
100
AcDbLine
 10
6574.84263188859
 20
2169.767157255794
 30
0.0
 11
6574.84263188859
 21
2192.014184282821
 31
0.0
  0
LINE
  5
3CDA
330
1F
100
AcDbEntity
  8
圖層1輪廓線
100
AcDbLine
 10
6542.842631888591
 20
2123.891481149547
 30
0.0
 11
6592.842631888591
 21
2123.891481149547
 31
0.0
  0
LINE
  5
3CDB
330
1F
100
AcDbEntity
  8
圖層1輪廓線
100
AcDbLine
 10
6542.842631888591
 20
2130.891481149547
 30
0.0
 11
6586.34263188859
 21
2130.891481149547
 31
0.0
  0
LINE
  5
3CDC
330
1F
100
AcDbEntity
  8
圖層1輪廓線
100
AcDbLine
 10
6558.842631888591
 20
2139.767157255794
 30
0.0
 11
6567.842631888591
 21
2139.767157255794
 31
0.0
  0
LINE
  5
3CDD
330
1F
100
AcDbEntity
  8
圖層1輪廓線
100
AcDbLine
 10
6567.842631888591
 20
2139.767157255794
 30
0.0
 11
6576.84263188859
 21
2139.767157255794
 31
0.0
  0
LINE
  5
3CDE
330
1F
100
AcDbEntity
  8
圖層1輪廓線
100
AcDbLine
 10
6560.84263188859
 20
2139.767157255794
 30
0.0
 11
6574.84263188859
 21
2139.767157255794
 31
0.0
  0
ARC
  5
3CDF
330
1F
100
AcDbEntity
  8
圖層1輪廓線
100
AcDbCircle
 10
6611.734523780483
 20
2225.90537347201
 30
0.0
 40
6.108108108108208
100
AcDbArc
 50
270.0
 51
90.0
  0
ARC
  5
3CE0
330
1F
100
AcDbEntity
  8
圖層1輪廓線
100
AcDbCircle
 10
6523.950739996698
 20
2225.90537347201
 30
0.0
 40
6.108108108108208
100
AcDbArc
 50
90.0
 51
270.0
  0
LINE
  5
3CE1
330
1F
100
AcDbEntity
  8
圖層1輪廓線
100
AcDbLine
 10
6587.84263188859
 20
2192.014184282821
 30
0.0
 11
6550.842631888591
 21
2192.014184282821
 31
0.0
  0
ARC
  5
3CE2
330
1F
100
AcDbEntity
  8
圖層1輪廓線
100
AcDbCircle
 10
6552.977767023725
 20
2209.064454553091
 30
0.0
 40
4.054054054054054
100
AcDbArc
 50
270.0
 51
0.0
  0
LINE
  5
3CE3
330
1F
100
AcDbEntity
  8
圖層1輪廓線
100
AcDbLine
 10
6550.842631888589
 20
2211.767157255794
 30
0.0
 11
6557.03182107778
 21
2211.767157255794
 31
0.0
  0
LINE
  5
3CE4
330
1F
100
AcDbEntity
  8
圖層1輪廓線
100
AcDbLine
 10
6523.950739996698
 20
2219.797265363903
 30
0.0
 11
6530.842631888591
 21
2219.797265363903
 31
0.0
  0
LINE
  5
3CE5
330
1F
100
AcDbEntity
  8
圖層1輪廓線
100
AcDbLine
 10
6550.842631888591
 20
2205.010400499037
 30
0.0
 11
6552.977767023725
 21
2205.010400499037
 31
0.0
  0
LINE
  5
3CE6
330
1F
100
AcDbEntity
  8
圖層1輪廓線
100
AcDbLine
 10
6578.653442699401
 20
2211.767157255794
 30
0.0
 11
6588.112902158861
 21
2211.767157255794
 31
0.0
  0
LINE
  5
3CE7
330
1F
100
AcDbEntity
  8
圖層1輪廓線
100
AcDbLine
 10
6582.707496753456
 20
2205.010400499037
 30
0.0
 11
6593.518307564266
 21
2205.010400499037
 31
0.0
  0
CIRCLE
  5
3CE8
330
1F
100
AcDbEntity
  8
圖層4尺寸線
100
AcDbCircle
 10
6567.842631888591
 20
2198.402292390929
 30
0.0
 40
3.0
  0
CIRCLE
  5
3CE9
330
1F
100
AcDbEntity
  8
圖層3虛線
100
AcDbCircle
 10
6567.842631888591
 20
2198.402292390929
 30
0.0
 40
4.0
  0
LINE
  5
3CEA
330
1F
100
AcDbEntity
  8
圖層1輪廓線
100
AcDbLine
 10
6557.03182107778
 20
2219.797265363903
 30
0.0
 11
6557.03182107778
 21
2209.064454553091
 31
0.0
  0
LINE
  5
3CEB
330
1F
100
AcDbEntity
  8
圖層1輪廓線
100
AcDbLine
 10
6578.653442699401
 20
2219.797265363903
 30
0.0
 11
6578.653442699401
 21
2209.064454553091
 31
0.0
  0
ARC
  5
3CEC
330
1F
100
AcDbEntity
  8
圖層1輪廓線
100
AcDbCircle
 10
6582.707496753456
 20
2209.064454553091
 30
0.0
 40
4.054054054054054
100
AcDbArc
 50
180.0
 51
270.0
  0
LINE
  5
3CED
330
1F
100
AcDbEntity
  8
圖層1輪廓線
100
AcDbLine
 10
6587.84263188859
 20
2205.010400499037
 30
0.0
 11
6587.84263188859
 21
2192.014184282821
 31
0.0
  0
ARC
  5
3CEE
330
1F
100
AcDbEntity
  8
圖層1輪廓線
100
AcDbCircle
 10
6592.569127122937
 20
2215.145535634173
 30
0.0
 40
10.13513513513513
100
AcDbArc
 50
270.0
 51
345.0000000000056
  0
LINE
  5
3CEF
330
1F
100
AcDbEntity
  8
圖層1輪廓線
100
AcDbLine
 10
6597.334009047982
 20
2219.797265363902
 30
0.0
 11
6595.832390049588
 21
2214.271146968286
 31
0.0
  0
LINE
  5
3CF0
330
1F
100
AcDbEntity
  8
圖層1輪廓線
100
AcDbLine
 10
6588.112902158861
 20
2211.767157255794
 30
0.0
 11
6592.569127122937
 21
2211.767157255794
 31
0.0
  0
ARC
  5
3CF1
330
1F
100
AcDbEntity
  8
圖層1輪廓線
100
AcDbCircle
 10
6592.569127122937
 20
2215.145535634173
 30
0.0
 40
3.378378378378378
100
AcDbArc
 50
270.0
 51
345.0000000000056
  0
ARC
  5
3CF2
330
1F
100
AcDbEntity
  8
圖層1輪廓線
100
AcDbCircle
 10
6592.569127122937
 20
2215.145535634173
 30
0.0
 40
3.378378378378378
100
AcDbArc
 50
270.0
 51
345.0000000000056
  0
LINE
  5
3CF3
330
1F
100
AcDbEntity
  8
圖層1輪廓線
100
AcDbLine
 10
6604.329118375076
 20
2219.797265363903
 30
0.0
 11
6602.358915902893
 21
2212.522369636512
 31
0.0
  0
LINE
  5
3CF4
330
1F
100
AcDbEntity
  8
圖層4尺寸線
100
AcDbLine
 10
6576.84263188859
 20
1951.767157255794
 30
0.0
 11
6558.842631888591
 21
1951.767157255794
 31
0.0
  0
LINE
  5
3CF5
330
1F
100
AcDbEntity
  8
圖層1輪廓線
100
AcDbLine
 10
6523.950739996698
 20
2232.013481580119
 30
0.0
 11
6530.842631888591
 21
2232.013481580119
 31
0.0
  0
LINE
  5
3CF6
330
1F
100
AcDbEntity
  8
圖層4尺寸線
100
AcDbLine
 10
6560.84263188859
 20
1949.767157255794
 30
0.0
 11
6560.84263188859
 21
2043.891481149547
 31
0.0
  0
LINE
  5
3CF7
330
1F
100
AcDbEntity
  8
圖層1輪廓線
  6
Continuous
100
AcDbLine
 10
6574.84263188859
 20
1949.767157255794
 30
0.0
 11
6560.84263188859
 21
1949.767157255794
 31
0.0
  0
LINE
  5
3CF8
330
1F
100
AcDbEntity
  8
圖層1輪廓線
100
AcDbLine
 10
6540.84263188859
 20
2123.891481149547
 30
0.0
 11
6511.84263188859
 21
2123.891481149547
 31
0.0
  0
LINE
  5
3CF9
330
1F
100
AcDbEntity
  8
圖層1輪廓線
100
AcDbLine
 10
6511.84263188859
 20
2123.891481149547
 30
0.0
 11
6511.84263188859
 21
2130.891481149547
 31
0.0
  0
LINE
  5
3CFA
330
1F
100
AcDbEntity
  8
圖層1輪廓線
100
AcDbLine
 10
6511.84263188859
 20
2130.891481149547
 30
0.0
 11
6569.84263188859
 21
2130.891481149547
 31
0.0
  0
LINE
  5
3CFB
330
1F
100
AcDbEntity
  8
圖層1輪廓線
100
AcDbLine
 10
6550.842631888591
 20
2139.767157255794
 30
0.0
 11
6588.342631888591
 21
2139.767157255794
 31
0.0
  0
LINE
  5
3CFC
330
1F
100
AcDbEntity
  8
圖層1輪廓線
100
AcDbLine
 10
6550.842631888591
 20
2130.891481149547
 30
0.0
 11
6550.842631888591
 21
2154.767157255794
 31
0.0
  0
LINE
  5
3CFD
330
1F
100
AcDbEntity
  8
圖層4尺寸線
100
AcDbLine
 10
6574.84263188859
 20
2043.891481149547
 30
0.0
 11
6574.84263188859
 21
1949.767157255794
 31
0.0
  0
LINE
  5
3CFE
330
1F
100
AcDbEntity
  8
圖層1輪廓線
100
AcDbLine
 10
6586.34263188859
 20
2043.891481149547
 30
0.0
 11
6586.34263188859
 21
1819.767157255794
 31
0.0
  0
LINE
  5
3CFF
330
1F
100
AcDbEntity
  8
圖層1輪廓線
100
AcDbLine
 10
6586.34263188859
 20
2130.891481149547
 30
0.0
 11
6586.34263188859
 21
2123.891481149547
 31
0.0
  0
LINE
  5
3D00
330
1F
100
AcDbEntity
  8
圖層1輪廓線
100
AcDbLine
 10
6550.842631888591
 20
2169.767157255794
 30
0.0
 11
6550.842631888591
 21
2284.891481149547
 31
0.0
  0
LINE
  5
3D01
330
1F
100
AcDbEntity
  8
圖層1輪廓線
100
AcDbLine
 10
6550.842631888591
 20
2169.767157255794
 30
0.0
 11
6550.842631888591
 21
2154.767157255794
 31
0.0
  0
LINE
  5
3D02
330
1F
100
AcDbEntity
  8
圖層1輪廓線
100
AcDbLine
 10
6569.84263188859
 20
2123.891481149547
 30
0.0
 11
6569.84263188859
 21
2130.891481149547
 31
0.0
  0
LINE
  5
3D03
330
1F
100
AcDbEntity
  8
圖層1輪廓線
100
AcDbLine
 10
6550.842631888589
 20
2219.797265363903
 30
0.0
 11
6611.734523780483
 21
2219.797265363903
 31
0.0
  0
LINE
  5
3D04
330
1F
100
AcDbEntity
  8
圖層1輪廓線
100
AcDbLine
 10
6550.842631888589
 20
2232.013481580119
 30
0.0
 11
6611.734523780483
 21
2232.013481580119
 31
0.0
  0
LINE
  5
3D05
330
1F
100
AcDbEntity
  8
圖層1輪廓線
100
AcDbLine
 10
6560.84263188859
 20
2192.014184282821
 30
0.0
 11
6560.84263188859
 21
2169.767157255794
 31
0.0
  0
LINE
  5
3D06
330
1F
100
AcDbEntity
  8
圖層1輪廓線
100
AcDbLine
 10
6552.977767023725
 20
2205.010400499037
 30
0.0
 11
6582.707496753456
 21
2205.010400499037
 31
0.0
  0
LINE
  5
3D07
330
1F
100
AcDbEntity
  8
圖層1輪廓線
100
AcDbLine
 10
5855.444932861902
 20
2123.891481149548
 30
0.0
 11
5883.444932861902
 21
2123.891481149548
 31
0.0
  0
LINE
  5
3D08
330
1F
100
AcDbEntity
  8
圖層1輪廓線
100
AcDbLine
 10
5957.444932861903
 20
2123.891481149548
 30
0.0
 11
5985.444932861902
 21
2123.891481149548
 31
0.0
  0
LINE
  5
3D09
330
1F
100
AcDbEntity
  8
圖層4尺寸線
100
AcDbLine
 10
5883.444932861902
 20
2123.891481149548
 30
0.0
 11
5957.444932861903
 21
2123.891481149548
 31
0.0
  0
LINE
  5
3D0A
330
1F
100
AcDbEntity
  8
圖層1輪廓線
100
AcDbLine
 10
6378.84263188859
 20
2123.891481149547
 30
0.0
 11
6406.842631888591
 21
2123.891481149547
 31
0.0
  0
LINE
  5
3D0B
330
1F
100
AcDbEntity
  8
圖層1輪廓線
100
AcDbLine
 10
6480.842631888591
 20
2123.891481149547
 30
0.0
 11
6693.84263188859
 21
2123.891481149547
 31
0.0
  0
LINE
  5
3D0C
330
1F
100
AcDbEntity
  8
圖層4尺寸線
100
AcDbLine
 10
6406.842631888591
 20
2123.891481149547
 30
0.0
 11
6480.842631888591
 21
2123.891481149547
 31
0.0
  0
LINE
  5
3D0D
330
1F
100
AcDbEntity
  8
圖層1輪廓線
100
AcDbLine
 10
6661.34263188859
 20
2123.891481149547
 30
0.0
 11
6661.34263188859
 21
2137.767157255794
 31
0.0
  0
LINE
  5
3D0E
330
1F
100
AcDbEntity
  8
圖層3虛線
100
AcDbLine
 10
5910.444932861902
 20
2036.391481149548
 30
0.0
 11
5930.444932861902
 21
2036.391481149548
 31
0.0
  0
LINE
  5
3D0F
330
1F
100
AcDbEntity
  8
圖層3虛線
100
AcDbLine
 10
5910.444932861902
 20
2006.391481149548
 30
0.0
 11
5910.444932861902
 21
2036.391481149548
 31
0.0
  0
LINE
  5
3D10
330
1F
100
AcDbEntity
  8
圖層3虛線
100
AcDbLine
 10
5930.444932861902
 20
2006.391481149548
 30
0.0
 11
5930.444932861902
 21
2036.391481149548
 31
0.0
  0
LINE
  5
3D11
330
1F
100
AcDbEntity
  8
圖層3虛線
100
AcDbLine
 10
5896.773571825128
 20
2026.391481149548
 30
0.0
 11
5910.444932861902
 21
2026.391481149548
 31
0.0
  0
LINE
  5
3D12
330
1F
100
AcDbEntity
  8
圖層3虛線
100
AcDbLine
 10
5896.773571825128
 20
2016.391481149548
 30
0.0
 11
5910.444932861902
 21
2016.391481149548
 31
0.0
  0
LINE
  5
3D13
330
1F
100
AcDbEntity
  8
圖層3虛線
100
AcDbLine
 10
5930.444932861902
 20
2026.391481149548
 30
0.0
 11
5944.116293898677
 21
2026.391481149548
 31
0.0
  0
LINE
  5
3D14
330
1F
100
AcDbEntity
  8
圖層3虛線
100
AcDbLine
 10
5930.444932861902
 20
2016.391481149548
 30
0.0
 11
5944.116293898677
 21
2016.391481149548
 31
0.0
  0
LINE
  5
3D15
330
1F
100
AcDbEntity
  8
圖層3虛線
100
AcDbLine
 10
5896.773571825128
 20
2024.391481149548
 30
0.0
 11
5910.444932861902
 21
2024.391481149548
 31
0.0
  0
LINE
  5
3D16
330
1F
100
AcDbEntity
  8
圖層3虛線
100
AcDbLine
 10
5896.773571825128
 20
2018.391481149548
 30
0.0
 11
5910.444932861902
 21
2018.391481149548
 31
0.0
  0
LINE
  5
3D17
330
1F
100
AcDbEntity
  8
圖層3虛線
100
AcDbLine
 10
5930.444932861902
 20
2024.391481149548
 30
0.0
 11
5944.116293898677
 21
2024.391481149548
 31
0.0
  0
LINE
  5
3D18
330
1F
100
AcDbEntity
  8
圖層3虛線
100
AcDbLine
 10
5930.444932861902
 20
2018.391481149548
 30
0.0
 11
5944.116293898677
 21
2018.391481149548
 31
0.0
  0
LINE
  5
3D19
330
1F
100
AcDbEntity
  8
圖層2中心線
 48
0.3
370
    18
100
AcDbLine
 10
5894.258135378123
 20
2021.391481149548
 30
0.0
 11
5947.764774804848
 21
2021.391481149548
 31
0.0
  0
LINE
  5
3D1A
330
1F
100
AcDbEntity
  8
圖層1輪廓線
  6
Continuous
100
AcDbLine
 10
6415.342631888591
 20
2031.252697081715
 30
0.0
 11
6415.342631888591
 21
2016.530265217379
 31
0.0
  0
LINE
  5
3D1B
330
1F
100
AcDbEntity
  8
圖層1輪廓線
  6
Continuous
100
AcDbLine
 10
6423.342631888592
 20
2031.252697081715
 30
0.0
 11
6423.342631888592
 21
2016.530265217379
 31
0.0
  0
ARC
  5
3D1C
330
1F
100
AcDbEntity
  8
圖層1輪廓線
  6
Continuous
100
AcDbCircle
 10
6414.564854110814
 20
2023.891481149547
 30
0.0
 40
8.777777777777844
100
AcDbArc
 50
326.0078238856523
 51
33.99217611434772
  0
ARC
  5
3D1D
330
1F
100
AcDbEntity
  8
圖層1輪廓線
  6
Continuous
100
AcDbCircle
 10
6424.120409666369
 20
2023.891481149547
 30
0.0
 40
8.777777777777153
100
AcDbArc
 50
146.0078238856523
 51
213.9921761143477
  0
LINE
  5
3D1E
330
1F
100
AcDbEntity
  8
圖層1輪廓線
  6
Continuous
100
AcDbLine
 10
6416.842631888592
 20
2033.706435725771
 30
0.0
 11
6421.842631888591
 21
2033.706435725771
 31
0.0
  0
LINE
  5
3D1F
330
1F
100
AcDbEntity
  8
圖層1輪廓線
  6
Continuous
100
AcDbLine
 10
6416.842631888592
 20
2028.798958437659
 30
0.0
 11
6421.842631888591
 21
2028.798958437659
 31
0.0
  0
ARC
  5
3D20
330
1F
100
AcDbEntity
  8
圖層1輪廓線
  6
Continuous
100
AcDbCircle
 10
6418.099576333037
 20
2031.252697081715
 30
0.0
 40
2.756944444444471
100
AcDbArc
 50
117.1241053663949
 51
242.8758946336051
  0
ARC
  5
3D21
330
1F
100
AcDbEntity
  8
圖層1輪廓線
  6
Continuous
100
AcDbCircle
 10
6420.585687444146
 20
2031.252697081715
 30
0.0
 40
2.756944444444574
100
AcDbArc
 50
297.1241053663949
 51
62.8758946336051
  0
LINE
  5
3D22
330
1F
100
AcDbEntity
  8
圖層1輪廓線
  6
Continuous
100
AcDbLine
 10
6416.842631888592
 20
2018.984003861436
 30
0.0
 11
6421.842631888591
 21
2018.984003861436
 31
0.0
  0
LINE
  5
3D23
330
1F
100
AcDbEntity
  8
圖層1輪廓線
  6
Continuous
100
AcDbLine
 10
6416.842631888592
 20
2014.076526573324
 30
0.0
 11
6421.842631888591
 21
2014.076526573324
 31
0.0
  0
ARC
  5
3D24
330
1F
100
AcDbEntity
  8
圖層1輪廓線
  6
Continuous
100
AcDbCircle
 10
6418.099576333037
 20
2016.530265217379
 30
0.0
 40
2.756944444444263
100
AcDbArc
 50
117.1241053663426
 51
242.8758946336574
  0
ARC
  5
3D25
330
1F
100
AcDbEntity
  8
圖層1輪廓線
  6
Continuous
100
AcDbCircle
 10
6420.585687444148
 20
2016.530265217379
 30
0.0
 40
2.756944444444471
100
AcDbArc
 50
297.1241053663949
 51
62.8758946336051
  0
CIRCLE
  5
3D26
330
1F
100
AcDbEntity
  8
圖層3虛線
100
AcDbCircle
 10
5920.444932861902
 20
2021.391481149548
 30
0.0
 40
5.0
  0
LINE
  5
3D27
330
1F
100
AcDbEntity
  8
圖層2中心線
 48
0.3
370
    18
100
AcDbLine
 10
6397.468445136349
 20
2023.891481149547
 30
0.0
 11
6488.333170949592
 21
2023.891481149547
 31
0.0
  0
LINE
  5
3D28
330
1F
100
AcDbEntity
  8
圖層4尺寸線
100
AcDbLine
 10
6443.84263188859
 20
2028.25923361921
 30
0.0
 11
6443.84263188859
 21
2016.391481149549
 31
0.0
  0
LINE
  5
3D29
330
1F
100
AcDbEntity
  8
圖層4尺寸線
100
AcDbLine
 10
6443.842631888592
 20
2069.391481149547
 30
0.0
 11
6443.84263188859
 21
2063.391481149547
 31
0.0
  0
LINE
  5
3D2A
330
1F
100
AcDbEntity
  8
圖層2中心線
100
AcDbLine
 10
6623.84263188859
 20
1712.296820267141
 30
0.0
 11
6623.84263188859
 21
2199.134949203133
 31
0.0
  0
ARC
  5
3D2B
330
1F
100
AcDbEntity
  8
圖層1輪廓線
  6
Continuous
100
AcDbCircle
 10
6623.84263188859
 20
2166.287990589126
 30
0.0
 40
8.520833333332422
100
AcDbArc
 50
229.9320129505278
 51
310.0679870494324
  0
ARC
  5
3D2C
330
1F
100
AcDbEntity
  8
圖層1輪廓線
  6
Continuous
100
AcDbCircle
 10
6632.069873224543
 20
2160.647365589127
 30
0.0
 40
2.880208333333234
100
AcDbArc
 50
197.7946131839002
 51
342.2053868160997
  0
ARC
  5
3D2D
330
1F
100
AcDbEntity
  8
圖層1輪廓線
  6
Continuous
100
AcDbCircle
 10
6615.615390552638
 20
2160.647365589127
 30
0.0
 40
2.880208333333234
100
AcDbArc
 50
197.7946131839002
 51
342.2053868160997
  0
LINE
  5
3D2E
330
1F
100
AcDbEntity
  8
圖層1輪廓線
  6
Continuous
100
AcDbLine
 10
6615.451167971809
 20
2157.767157255794
 30
0.0
 11
6632.234095805372
 21
2157.767157255794
 31
0.0
  0
ARC
  5
3D2F
330
1F
100
AcDbEntity
  8
圖層1輪廓線
  6
Continuous
100
AcDbCircle
 10
6623.84263188859
 20
2159.246323922461
 30
0.0
 40
8.520833333333246
100
AcDbArc
 50
49.93201295056764
 51
130.0679870494323
  0
LINE
  5
3D30
330
1F
100
AcDbEntity
  8
圖層1輪廓線
  6
Continuous
100
AcDbLine
 10
6615.451167971809
 20
2167.767157255794
 30
0.0
 11
6632.234095805372
 21
2167.767157255794
 31
0.0
  0
LINE
  5
3D31
330
1F
100
AcDbEntity
  8
圖層1輪廓線
  6
Continuous
100
AcDbLine
 10
6618.357804331289
 20
2159.767157255795
 30
0.0
 11
6618.357804331289
 21
2165.767157255794
 31
0.0
  0
LINE
  5
3D32
330
1F
100
AcDbEntity
  8
圖層1輪廓線
  6
Continuous
100
AcDbLine
 10
6612.872976773987
 20
2159.767157255794
 30
0.0
 11
6612.872976773987
 21
2165.767157255795
 31
0.0
  0
ARC
  5
3D33
330
1F
100
AcDbEntity
  8
圖層1輪廓線
  6
Continuous
100
AcDbCircle
 10
6615.615390552638
 20
2164.886948922461
 30
0.0
 40
2.880208333333381
100
AcDbArc
 50
17.79461318390024
 51
162.2053868160997
  0
ARC
  5
3D34
330
1F
100
AcDbEntity
  8
圖層1輪廓線
  6
Continuous
100
AcDbCircle
 10
6632.069873224543
 20
2164.886948922461
 30
0.0
 40
2.880208333333343
100
AcDbArc
 50
17.79461318390024
 51
162.2053868160997
  0
LINE
  5
3D35
330
1F
100
AcDbEntity
  8
圖層1輪廓線
  6
Continuous
100
AcDbLine
 10
6629.327459445892
 20
2159.767157255794
 30
0.0
 11
6629.327459445892
 21
2165.767157255794
 31
0.0
  0
LINE
  5
3D36
330
1F
100
AcDbEntity
  8
圖層1輪廓線
  6
Continuous
100
AcDbLine
 10
6634.812287003192
 20
2159.767157255794
 30
0.0
 11
6634.812287003192
 21
2165.767157255794
 31
0.0
  0
LINE
  5
3D37
330
1F
100
AcDbEntity
  8
圖層1輪廓線
  6
Continuous
100
AcDbLine
 10
6612.84263188859
 20
2154.767157255794
 30
0.0
 11
6612.84263188859
 21
2157.767157255794
 31
0.0
  0
LINE
  5
3D38
330
1F
100
AcDbEntity
  8
圖層1輪廓線
  6
Continuous
100
AcDbLine
 10
6612.84263188859
 20
2157.767157255794
 30
0.0
 11
6634.84263188859
 21
2157.767157255794
 31
0.0
  0
LINE
  5
3D39
330
1F
100
AcDbEntity
  8
圖層1輪廓線
  6
Continuous
100
AcDbLine
 10
6634.84263188859
 20
2157.767157255794
 30
0.0
 11
6634.84263188859
 21
2154.767157255794
 31
0.0
  0
LINE
  5
3D3A
330
1F
100
AcDbEntity
  8
圖層1輪廓線
100
AcDbLine
 10
6585.84263188859
 20
2154.767157255794
 30
0.0
 11
6650.842631888591
 21
2154.767157255794
 31
0.0
  0
LINE
  5
3D3B
330
1F
100
AcDbEntity
  8
圖層2中心線
100
AcDbLine
 10
6557.84263188859
 20
2198.402292390929
 30
0.0
 11
6577.84263188859
 21
2198.402292390929
 31
0.0
  0
LINE
  5
3D3C
330
1F
100
AcDbEntity
  8
圖層2中心線
100
AcDbLine
 10
6567.842631888591
 20
2188.402292390929
 30
0.0
 11
6567.842631888591
 21
2208.402292390929
 31
0.0
  0
LINE
  5
3D3D
330
1F
100
AcDbEntity
  8
圖層2中心線
100
AcDbLine
 10
6557.642965085886
 20
2162.267157255794
 30
0.0
 11
6577.642965085885
 21
2162.267157255794
 31
0.0
  0
LINE
  5
3D3E
330
1F
100
AcDbEntity
  8
圖層2中心線
100
AcDbLine
 10
6567.642965085885
 20
2152.267157255794
 30
0.0
 11
6567.642965085885
 21
2172.267157255794
 31
0.0
  0
LINE
  5
3D3F
330
1F
100
AcDbEntity
  8
圖層1輪廓線
  6
Continuous
100
AcDbLine
 10
6423.842631888589
 20
2071.391481149547
 30
0.0
 11
6461.34263188859
 21
2071.391481149547
 31
0.0
  0
LINE
  5
3D40
330
1F
100
AcDbEntity
  8
圖層1輪廓線
  6
Continuous
100
AcDbLine
 10
6423.342631888592
 20
2061.391481149547
 30
0.0
 11
6464.342631888591
 21
2061.391481149547
 31
0.0
  0
CIRCLE
  5
3D41
330
1F
100
AcDbEntity
  8
圖層1輪廓線
  6
Continuous
100
AcDbCircle
 10
5920.444932861902
 20
2021.391481149548
 30
0.0
 40
7.0
  0
CIRCLE
  5
3D42
330
1F
100
AcDbEntity
  8
圖層1輪廓線
  6
Continuous
100
AcDbCircle
 10
5920.444932861902
 20
2021.391481149548
 30
0.0
 40
3.0
  0
LWPOLYLINE
  5
3D43
330
1F
100
AcDbEntity
  8
圖層1輪廓線
  6
Continuous
100
AcDbPolyline
 90
        6
 70
     1
 43
0.0
 10
5913.444932861902
 20
2017.35002926522
 10
5920.444932861902
 20
2013.308577380893
 10
5927.444932861902
 20
2017.35002926522
 10
5927.444932861902
 20
2025.432933033875
 10
5920.444932861902
 20
2029.474384918203
 10
5913.444932861902
 20
2025.432933033875
  0
LINE
  5
3D44
330
1F
100
AcDbEntity
  8
圖層4尺寸線
100
AcDbLine
 10
6577.84263188859
 20
2139.767157255794
 30
0.0
 11
6577.84263188859
 21
2130.891481149547
 31
0.0
  0
LINE
  5
3D45
330
1F
100
AcDbEntity
  8
圖層4尺寸線
100
AcDbLine
 10
6557.84263188859
 20
2139.767157255794
 30
0.0
 11
6557.84263188859
 21
2130.891481149547
 31
0.0
  0
LINE
  5
3D46
330
1F
100
AcDbEntity
  8
圖層1輪廓線
  6
Continuous
100
AcDbLine
 10
6557.84263188859
 20
2043.891481149547
 30
0.0
 11
6557.84263188859
 21
1951.767157255794
 31
0.0
  0
LINE
  5
3D47
330
1F
100
AcDbEntity
  8
圖層1輪廓線
  6
Continuous
100
AcDbLine
 10
6577.84263188859
 20
2043.891481149547
 30
0.0
 11
6577.84263188859
 21
1951.767157255794
 31
0.0
  0
LINE
  5
3D48
330
1F
100
AcDbEntity
  8
圖層4尺寸線
100
AcDbLine
 10
6557.84263188859
 20
1951.767157255794
 30
0.0
 11
6577.84263188859
 21
1951.767157255794
 31
0.0
  0
LINE
  5
3D49
330
1F
100
AcDbEntity
  8
圖層1輪廓線
  6
Continuous
100
AcDbLine
 10
6557.84263188859
 20
1951.767157255794
 30
0.0
 11
6560.84263188859
 21
1949.767157255794
 31
0.0
  0
LINE
  5
3D4A
330
1F
100
AcDbEntity
  8
圖層1輪廓線
  6
Continuous
100
AcDbLine
 10
6574.84263188859
 20
1949.767157255794
 30
0.0
 11
6577.84263188859
 21
1951.767157255794
 31
0.0
  0
LINE
  5
3D4B
330
1F
100
AcDbEntity
  8
圖層2中心線
 48
0.5
100
AcDbLine
 10
6567.842631888591
 20
1943.867548094957
 30
0.0
 11
6567.842631888591
 21
2248.647602532759
 31
0.0
  0
LINE
  5
3D4C
330
1F
100
AcDbEntity
  8
圖層2中心線
 48
0.5
100
AcDbLine
 10
6540.84263188859
 20
2296.35512767573
 30
0.0
 11
6540.84263188859
 21
2103.986077913422
 31
0.0
  0
LINE
  5
3D4D
330
1F
100
AcDbEntity
  8
圖層1輪廓線
100
AcDbLine
 10
6451.34263188859
 20
1819.767157255794
 30
0.0
 11
6538.842631888591
 21
1819.767157255794
 31
0.0
  0
LINE
  5
3D4E
330
1F
100
AcDbEntity
  8
圖層2中心線
100
AcDbLine
 10
6443.84263188859
 20
1729.252400168546
 30
0.0
 11
6443.84263188859
 21
1850.152905144192
 31
0.0
  0
LINE
  5
3D4F
330
1F
100
AcDbEntity
  8
圖層1輪廓線
100
AcDbLine
 10
5867.444932861902
 20
2123.891481149548
 30
0.0
 11
5973.444932861902
 21
2123.891481149548
 31
0.0
  0
LINE
  5
3D50
330
1F
100
AcDbEntity
  8
圖層1輪廓線
100
AcDbLine
 10
5973.444932861902
 20
2123.891481149548
 30
0.0
 11
5867.444932861902
 21
2123.891481149548
 31
0.0
  0
LINE
  5
3D51
330
1F
100
AcDbEntity
  8
圖層1輪廓線
100
AcDbLine
 10
6496.84263188859
 20
2123.891481149547
 30
0.0
 11
6390.842631888591
 21
2123.891481149548
 31
0.0
  0
LINE
  5
3D52
330
1F
100
AcDbEntity
  8
圖層1輪廓線
100
AcDbLine
 10
6390.842631888591
 20
2123.891481149547
 30
0.0
 11
6496.84263188859
 21
2123.891481149548
 31
0.0
  0
LINE
  5
3D53
330
1F
100
AcDbEntity
  8
圖層1輪廓線
100
AcDbLine
 10
6378.84263188859
 20
2123.891481149548
 30
0.0
 11
6508.84263188859
 21
2123.891481149548
 31
0.0
  0
LINE
  5
3D54
330
1F
100
AcDbEntity
  8
圖層1輪廓線
100
AcDbLine
 10
6508.84263188859
 20
2123.891481149548
 30
0.0
 11
6378.84263188859
 21
2123.891481149548
 31
0.0
  0
LINE
  5
3D55
330
1F
100
AcDbEntity
  8
圖層1輪廓線
100
AcDbLine
 10
5985.444932861902
 20
2123.891481149548
 30
0.0
 11
5855.444932861902
 21
2123.891481149548
 31
0.0
  0
LINE
  5
3D56
330
1F
100
AcDbEntity
  8
圖層1輪廓線
100
AcDbLine
 10
5855.444932861902
 20
2123.891481149548
 30
0.0
 11
5985.444932861902
 21
2123.891481149548
 31
0.0
  0
LINE
  5
3D57
330
1F
100
AcDbEntity
  8
圖層1輪廓線
  6
Continuous
100
AcDbLine
 10
6443.84263188859
 20
2513.891481149547
 30
0.0
 11
6443.84263188859
 21
2489.891481149548
 31
0.0
  0
LINE
  5
3D58
330
1F
100
AcDbEntity
  8
圖層1輪廓線
  6
Continuous
100
AcDbLine
 10
6443.84263188859
 20
2524.891481149547
 30
0.0
 11
6443.84263188859
 21
2518.891481149547
 31
0.0
  0
LINE
  5
3D59
330
1F
100
AcDbEntity
  8
圖層2中心線
 48
0.5
100
AcDbLine
 10
6443.84263188859
 20
1984.932611287768
 30
0.0
 11
6443.84263188859
 21
2590.953981149546
 31
0.0
  0
LINE
  5
3D5A
330
1F
100
AcDbEntity
  8
圖層2中心線
100
AcDbLine
 10
5920.444932861901
 20
2588.709795073532
 30
0.0
 11
5920.444932861901
 21
1727.177329193197
 31
0.0
  0
LINE
  5
3D5B
330
1F
100
AcDbEntity
  8
圖層4尺寸線
100
AcDbLine
 10
6083.444932861902
 20
1756.767157255794
 30
0.0
 11
6098.444932861902
 21
1756.767157255794
 31
0.0
  0
LINE
  5
3D5C
330
1F
100
AcDbEntity
  8
圖層4尺寸線
100
AcDbLine
 10
6026.444932861902
 20
1741.767157255794
 30
0.0
 11
6098.444932861902
 21
1741.767157255794
 31
0.0
  0
LINE
  5
3D5D
330
1F
100
AcDbEntity
  8
圖層4尺寸線
100
AcDbLine
 10
6098.444932861902
 20
1805.767157255794
 30
0.0
 11
6026.444932861902
 21
1805.767157255794
 31
0.0
  0
LINE
  5
3D5E
330
1F
100
AcDbEntity
  8
圖層4尺寸線
100
AcDbLine
 10
6020.444932861902
 20
1739.767157255794
 30
0.0
 11
6098.444932861902
 21
1739.767157255794
 31
0.0
  0
LINE
  5
3D5F
330
1F
100
AcDbEntity
  8
圖層4尺寸線
100
AcDbLine
 10
6098.444932861902
 20
1741.767157255794
 30
0.0
 11
6024.444932861902
 21
1741.767157255794
 31
0.0
  0
LINE
  5
3D60
330
1F
100
AcDbEntity
  8
圖層4尺寸線
100
AcDbLine
 10
6083.444932861902
 20
1756.767157255794
 30
0.0
 11
6083.444932861902
 21
1771.767157255794
 31
0.0
  0
LINE
  5
3D61
330
1F
100
AcDbEntity
  8
圖層4尺寸線
100
AcDbLine
 10
6041.444932861902
 20
1771.767157255794
 30
0.0
 11
6041.444932861902
 21
1756.767157255794
 31
0.0
  0
LINE
  5
3D62
330
1F
100
AcDbEntity
  8
圖層4尺寸線
100
AcDbLine
 10
6026.444932861902
 20
1805.767157255794
 30
0.0
 11
6026.444932861902
 21
1741.767157255794
 31
0.0
  0
LINE
  5
3D63
330
1F
100
AcDbEntity
  8
圖層1輪廓線
  6
Continuous
100
AcDbLine
 10
6020.444932861902
 20
1811.767157255794
 30
0.0
 11
6020.444932861902
 21
1739.767157255794
 31
0.0
  0
LINE
  5
3D64
330
1F
100
AcDbEntity
  8
圖層4尺寸線
100
AcDbLine
 10
6022.444932861902
 20
1743.767157255794
 30
0.0
 11
6022.444932861902
 21
1811.767157255794
 31
0.0
  0
ARC
  5
3D65
330
1F
100
AcDbEntity
  8
圖層4尺寸線
100
AcDbCircle
 10
6022.444932861902
 20
1741.767157255794
 30
0.0
 40
2.0
100
AcDbArc
 50
180.0
 51
270.0
  0
CIRCLE
  5
3D66
330
1F
100
AcDbEntity
  8
圖層4尺寸線
100
AcDbCircle
 10
6062.444932861902
 20
1756.767157255794
 30
0.0
 40
12.0
  0
CIRCLE
  5
3D67
330
1F
100
AcDbEntity
  8
圖層4尺寸線
100
AcDbCircle
 10
6062.444932861902
 20
1756.767157255794
 30
0.0
 40
9.0
  0
ARC
  5
3D68
330
1F
100
AcDbEntity
  8
圖層4尺寸線
100
AcDbCircle
 10
6024.444932861902
 20
1743.767157255794
 30
0.0
 40
2.0
100
AcDbArc
 50
180.0
 51
270.0
  0
LINE
  5
3D69
330
1F
100
AcDbEntity
  8
圖層4尺寸線
100
AcDbLine
 10
6026.444932861902
 20
1756.767157255794
 30
0.0
 11
6041.444932861902
 21
1756.767157255794
 31
0.0
  0
LINE
  5
3D6A
330
1F
100
AcDbEntity
  8
圖層4尺寸線
100
AcDbLine
 10
6022.444932861902
 20
1811.767157255794
 30
0.0
 11
6020.444932861902
 21
1811.767157255794
 31
0.0
  0
LINE
  5
3D6B
330
1F
100
AcDbEntity
  8
圖層4尺寸線
100
AcDbLine
 10
6076.444932861902
 20
1820.767157255794
 30
0.0
 11
6076.444932861902
 21
1805.767157255794
 31
0.0
  0
LINE
  5
3D6C
330
1F
100
AcDbEntity
  8
圖層4尺寸線
100
AcDbLine
 10
6048.444932861902
 20
1820.767157255794
 30
0.0
 11
6048.444932861902
 21
1805.767157255795
 31
0.0
  0
LINE
  5
3D6D
330
1F
100
AcDbEntity
  8
圖層4尺寸線
100
AcDbLine
 10
6041.444932861902
 20
1771.767157255794
 30
0.0
 11
6083.444932861902
 21
1771.767157255794
 31
0.0
  0
HATCH
  5
3D6E
330
1F
100
AcDbEntity
  8
圖層4尺寸線
100
AcDbHatch
 10
0.0
 20
0.0
 30
0.0
210
0.0
220
0.0
230
1.0
  2
LINE
 70
     0
 71
     0
 91
        1
 92
        7
 72
     0
 73
     1
 93
        4
 10
6076.444932861902
 20
1815.267157255794
 10
6048.444932861902
 20
1815.267157255794
 10
6048.444932861902
 20
1808.137067976113
 10
6076.444932861902
 20
1808.137067976113
 97
        0
 75
     0
 76
     1
 52
90.0
 41
1.0
 77
     0
 78
     1
 53
90.0
 43
4936.280895013609
 44
1216.826055825537
 45
-3.174999999999999
 46
0.0000000000000002
 79
     0
 47
0.1347766415641304
 98
        1
 10
6062.136909188818
 20
1812.070321300271
  0
LINE
  5
3D6F
330
1F
100
AcDbEntity
  8
圖層4尺寸線
100
AcDbLine
 10
6048.444932861902
 20
1815.267157255794
 30
0.0
 11
6076.444932861902
 21
1815.267157255794
 31
0.0
  0
LINE
  5
3D70
330
1F
100
AcDbEntity
  8
圖層4尺寸線
100
AcDbLine
 10
6048.444932861902
 20
1808.137067976113
 30
0.0
 11
6076.444932861902
 21
1808.137067976113
 31
0.0
  0
LINE
  5
3D71
330
1F
100
AcDbEntity
  8
圖層4尺寸線
100
AcDbLine
 10
6076.444932861902
 20
1820.767157255794
 30
0.0
 11
6048.444932861902
 21
1820.767157255794
 31
0.0
  0
ARC
  5
3D72
330
1F
100
AcDbEntity
  8
圖層4尺寸線
100
AcDbCircle
 10
6062.444932861902
 20
1783.767157255794
 30
0.0
 40
52.00000000000005
100
AcDbArc
 50
67.38013505196659
 51
112.6198649480334
  0
LINE
  5
3D73
330
1F
100
AcDbEntity
  8
圖層4尺寸線
100
AcDbLine
 10
6082.444932861903
 20
1831.767157255794
 30
0.0
 11
6042.444932861902
 21
1831.767157255794
 31
0.0
  0
LINE
  5
3D74
330
1F
100
AcDbEntity
  8
圖層4尺寸線
100
AcDbLine
 10
6082.444932861903
 20
1829.767157255794
 30
0.0
 11
6042.444932861902
 21
1829.767157255794
 31
0.0
  0
LINE
  5
3D75
330
1F
100
AcDbEntity
  8
圖層4尺寸線
100
AcDbLine
 10
6051.444932861902
 20
1829.767157255794
 30
0.0
 11
6051.444932861902
 21
1820.767157255794
 31
0.0
  0
LINE
  5
3D76
330
1F
100
AcDbEntity
  8
圖層4尺寸線
100
AcDbLine
 10
6051.444932861902
 20
1820.767157255794
 30
0.0
 11
6048.444932861902
 21
1820.767157255794
 31
0.0
  0
LINE
  5
3D77
330
1F
100
AcDbEntity
  8
圖層4尺寸線
100
AcDbLine
 10
6042.444932861902
 20
1829.767157255794
 30
0.0
 11
6051.444932861902
 21
1829.767157255794
 31
0.0
  0
LINE
  5
3D78
330
1F
100
AcDbEntity
  8
圖層4尺寸線
100
AcDbLine
 10
6042.444932861902
 20
1831.767157255794
 30
0.0
 11
6042.444932861902
 21
1829.767157255794
 31
0.0
  0
LINE
  5
3D79
330
1F
100
AcDbEntity
  8
圖層4尺寸線
100
AcDbLine
 10
6082.444932861903
 20
1831.767157255794
 30
0.0
 11
6082.444932861903
 21
1829.767157255794
 31
0.0
  0
LINE
  5
3D7A
330
1F
100
AcDbEntity
  8
圖層4尺寸線
100
AcDbLine
 10
6073.444932861902
 20
1829.767157255794
 30
0.0
 11
6073.444932861902
 21
1820.767157255794
 31
0.0
  0
LINE
  5
3D7B
330
1F
100
AcDbEntity
  8
圖層4尺寸線
100
AcDbLine
 10
6076.444932861902
 20
1820.767157255794
 30
0.0
 11
6073.444932861902
 21
1820.767157255794
 31
0.0
  0
LINE
  5
3D7C
330
1F
100
AcDbEntity
  8
圖層4尺寸線
100
AcDbLine
 10
6082.444932861903
 20
1829.767157255794
 30
0.0
 11
6073.444932861902
 21
1829.767157255794
 31
0.0
  0
LINE
  5
3D7D
330
1F
100
AcDbEntity
  8
圖層4尺寸線
100
AcDbLine
 10
6098.444932861902
 20
1741.767157255794
 30
0.0
 11
6098.444932861902
 21
1805.767157255794
 31
0.0
  0
LINE
  5
3D7E
330
1F
100
AcDbEntity
  8
圖層4尺寸線
100
AcDbLine
 10
6098.444932861902
 20
1739.767157255794
 30
0.0
 11
6098.444932861902
 21
1741.767157255794
 31
0.0
  0
LINE
  5
3D7F
330
1F
100
AcDbEntity
  8
圖層1輪廓線
  6
Continuous
100
AcDbLine
 10
5862.969932861902
 20
2178.891481149548
 30
0.0
 11
5863.272432861902
 21
2138.891481149548
 31
0.0
  0
LINE
  5
3D80
330
1F
100
AcDbEntity
  8
圖層1輪廓線
  6
Continuous
100
AcDbLine
 10
5878.094932861902
 20
2178.891481149548
 30
0.0
 11
5878.341918660693
 21
2147.329639733366
 31
0.0
  0
LINE
  5
3D81
330
1F
100
AcDbEntity
  8
圖層1輪廓線
  6
Continuous
100
AcDbLine
 10
5962.794932861902
 20
2178.891481149548
 30
0.0
 11
5962.547947063111
 21
2147.329639733366
 31
0.0
  0
LINE
  5
3D82
330
1F
100
AcDbEntity
  8
圖層1輪廓線
  6
Continuous
100
AcDbLine
 10
5977.919932861901
 20
2178.891481149548
 30
0.0
 11
5977.617432861901
 21
2138.891481149548
 31
0.0
  0
LINE
  5
3D83
330
1F
100
AcDbEntity
  8
圖層1輪廓線
  6
Continuous
100
AcDbLine
 10
5883.181813920325
 20
2142.521481149548
 30
0.0
 11
5957.708051803479
 21
2142.521481149548
 31
0.0
  0
LINE
  5
3D84
330
1F
100
AcDbEntity
  8
圖層1輪廓線
  6
Continuous
100
AcDbLine
 10
5863.272432861902
 20
2138.891481149548
 30
0.0
 11
5977.617432861901
 21
2138.891481149548
 31
0.0
  0
ARC
  5
3D85
330
1F
100
AcDbEntity
  8
圖層1輪廓線
  6
Continuous
100
AcDbCircle
 10
5883.181813920325
 20
2147.361481149548
 30
0.0
 40
4.839999999999999
100
AcDbArc
 50
180.3769404795978
 51
270.0
  0
ARC
  5
3D86
330
1F
100
AcDbEntity
  8
圖層1輪廓線
  6
Continuous
100
AcDbCircle
 10
5957.708051803479
 20
2147.361481149548
 30
0.0
 40
4.839999999999999
100
AcDbArc
 50
270.0
 51
359.6230595204022
  0
LINE
  5
3D87
330
1F
100
AcDbEntity
  8
圖層1輪廓線
  6
Continuous
100
AcDbLine
 10
5973.644932861901
 20
2178.891481149548
 30
0.0
 11
5973.644932861901
 21
2336.891481149548
 31
0.0
  0
LINE
  5
3D88
330
1F
100
AcDbEntity
  8
圖層1輪廓線
  6
Continuous
100
AcDbLine
 10
5959.539932861901
 20
2178.891481149548
 30
0.0
 11
5959.539932861901
 21
2336.891481149548
 31
0.0
  0
LINE
  5
3D89
330
1F
100
AcDbEntity
  8
圖層1輪廓線
  6
Continuous
100
AcDbLine
 10
5968.469932861902
 20
2178.891481149548
 30
0.0
 11
5968.469932861902
 21
2336.891481149548
 31
0.0
  0
LINE
  5
3D8A
330
1F
100
AcDbEntity
  8
圖層1輪廓線
  6
Continuous
100
AcDbLine
 10
5867.244932861901
 20
2178.891481149548
 30
0.0
 11
5867.244932861901
 21
2336.891481149548
 31
0.0
  0
LINE
  5
3D8B
330
1F
100
AcDbEntity
  8
圖層1輪廓線
  6
Continuous
100
AcDbLine
 10
5872.419932861902
 20
2178.891481149548
 30
0.0
 11
5872.419932861902
 21
2336.891481149548
 31
0.0
  0
LINE
  5
3D8C
330
1F
100
AcDbEntity
  8
圖層1輪廓線
  6
Continuous
100
AcDbLine
 10
5881.349932861901
 20
2178.891481149548
 30
0.0
 11
5881.349932861901
 21
2336.891481149548
 31
0.0
  0
LINE
  5
3D8D
330
1F
100
AcDbEntity
  8
圖層1輪廓線
  6
Continuous
100
AcDbLine
 10
5959.539932861901
 20
2336.891481149548
 30
0.0
 11
5959.539932861901
 21
2178.891481149548
 31
0.0
  0
LINE
  5
3D8E
330
1F
100
AcDbEntity
  8
圖層1輪廓線
  6
Continuous
100
AcDbLine
 10
5968.469932861902
 20
2336.891481149548
 30
0.0
 11
5968.469932861902
 21
2178.891481149548
 31
0.0
  0
LINE
  5
3D8F
330
1F
100
AcDbEntity
  8
圖層1輪廓線
  6
Continuous
100
AcDbLine
 10
5872.419932861902
 20
2336.891481149548
 30
0.0
 11
5872.419932861902
 21
2178.891481149548
 31
0.0
  0
LINE
  5
3D90
330
1F
100
AcDbEntity
  8
圖層1輪廓線
  6
Continuous
100
AcDbLine
 10
5881.349932861901
 20
2336.891481149548
 30
0.0
 11
5881.349932861901
 21
2178.891481149548
 31
0.0
  0
LINE
  5
3D91
330
1F
100
AcDbEntity
  8
圖層1輪廓線
  6
Continuous
100
AcDbLine
 10
5862.969932861902
 20
2178.891481149548
 30
0.0
 11
5977.919932861901
 21
2178.891481149548
 31
0.0
  0
LINE
  5
3D92
330
1F
100
AcDbEntity
  8
圖層1輪廓線
  6
Continuous
100
AcDbLine
 10
5862.969932861902
 20
2336.891481149548
 30
0.0
 11
5863.272432861902
 21
2376.891481149548
 31
0.0
  0
ARC
  5
3D93
330
1F
100
AcDbEntity
  8
圖層1輪廓線
  6
Continuous
100
AcDbCircle
 10
5883.181813920325
 20
2368.421481149548
 30
0.0
 40
4.839999999999999
100
AcDbArc
 50
90.0
 51
179.6230595204022
  0
ARC
  5
3D94
330
1F
100
AcDbEntity
  8
圖層1輪廓線
  6
Continuous
100
AcDbCircle
 10
5957.708051803479
 20
2368.421481149548
 30
0.0
 40
4.839999999999999
100
AcDbArc
 50
0.3769404795978188
 51
90.0
  0
LINE
  5
3D95
330
1F
100
AcDbEntity
  8
圖層1輪廓線
  6
Continuous
100
AcDbLine
 10
5977.919932861901
 20
2336.891481149548
 30
0.0
 11
5977.617432861901
 21
2376.891481149548
 31
0.0
  0
LINE
  5
3D96
330
1F
100
AcDbEntity
  8
圖層1輪廓線
  6
Continuous
100
AcDbLine
 10
5862.969932861902
 20
2336.891481149548
 30
0.0
 11
5977.919932861901
 21
2336.891481149548
 31
0.0
  0
LINE
  5
3D97
330
1F
100
AcDbEntity
  8
圖層1輪廓線
  6
Continuous
100
AcDbLine
 10
5878.094932861902
 20
2336.891481149548
 30
0.0
 11
5878.341918660693
 21
2368.45332256573
 31
0.0
  0
LINE
  5
3D98
330
1F
100
AcDbEntity
  8
圖層1輪廓線
  6
Continuous
100
AcDbLine
 10
5962.794932861902
 20
2336.891481149548
 30
0.0
 11
5962.547947063111
 21
2368.45332256573
 31
0.0
  0
LINE
  5
3D99
330
1F
100
AcDbEntity
  8
圖層1輪廓線
  6
Continuous
100
AcDbLine
 10
5930.944932861902
 20
2411.891481149548
 30
0.0
 11
5909.944932861902
 21
2411.891481149548
 31
0.0
  0
LINE
  5
3D9A
330
1F
100
AcDbEntity
  8
圖層1輪廓線
  6
Continuous
100
AcDbLine
 10
5895.154932861902
 20
2411.891481149548
 30
0.0
 11
5945.734932861901
 21
2411.891481149548
 31
0.0
  0
LINE
  5
3D9B
330
1F
100
AcDbEntity
  8
圖層1輪廓線
  6
Continuous
100
AcDbLine
 10
5893.944932861901
 20
2391.891481149548
 30
0.0
 11
5946.944932861902
 21
2391.891481149548
 31
0.0
  0
LINE
  5
3D9C
330
1F
100
AcDbEntity
  8
圖層1輪廓線
  6
Continuous
100
AcDbLine
 10
5892.944932861902
 20
2390.681481149548
 30
0.0
 11
5947.944932861901
 21
2390.681481149548
 31
0.0
  0
LINE
  5
3D9D
330
1F
100
AcDbEntity
  8
圖層1輪廓線
  6
Continuous
100
AcDbLine
 10
5883.181813920325
 20
2373.261481149548
 30
0.0
 11
5957.708051803479
 21
2373.261481149548
 31
0.0
  0
LINE
  5
3D9E
330
1F
100
AcDbEntity
  8
圖層1輪廓線
  6
Continuous
100
AcDbLine
 10
5863.272432861902
 20
2376.891481149548
 30
0.0
 11
5977.617432861901
 21
2376.891481149548
 31
0.0
  0
LINE
  5
3D9F
330
1F
100
AcDbEntity
  8
圖層1輪廓線
  6
Continuous
100
AcDbLine
 10
5893.944932861901
 20
2410.681481149548
 30
0.0
 11
5893.944932861901
 21
2391.891481149548
 31
0.0
  0
LINE
  5
3DA0
330
1F
100
AcDbEntity
  8
圖層1輪廓線
  6
Continuous
100
AcDbLine
 10
5892.944932861902
 20
2390.681481149548
 30
0.0
 11
5892.944932861902
 21
2376.891481149548
 31
0.0
  0
LINE
  5
3DA1
330
1F
100
AcDbEntity
  8
圖層1輪廓線
  6
Continuous
100
AcDbLine
 10
5892.944932861902
 20
2390.681481149548
 30
0.0
 11
5893.944932861901
 21
2391.891481149548
 31
0.0
  0
ARC
  5
3DA2
330
1F
100
AcDbEntity
  8
圖層1輪廓線
  6
Continuous
100
AcDbCircle
 10
5895.154932861902
 20
2410.681481149548
 30
0.0
 40
1.209999999999999
100
AcDbArc
 50
90.0
 51
180.0
  0
LINE
  5
3DA3
330
1F
100
AcDbEntity
  8
圖層1輪廓線
  6
Continuous
100
AcDbLine
 10
5946.944932861902
 20
2410.681481149548
 30
0.0
 11
5946.944932861902
 21
2391.891481149548
 31
0.0
  0
LINE
  5
3DA4
330
1F
100
AcDbEntity
  8
圖層1輪廓線
  6
Continuous
100
AcDbLine
 10
5947.944932861901
 20
2390.681481149548
 30
0.0
 11
5947.944932861901
 21
2376.891481149548
 31
0.0
  0
LINE
  5
3DA5
330
1F
100
AcDbEntity
  8
圖層1輪廓線
  6
Continuous
100
AcDbLine
 10
5946.944932861902
 20
2391.891481149548
 30
0.0
 11
5947.944932861901
 21
2390.681481149548
 31
0.0
  0
ARC
  5
3DA6
330
1F
100
AcDbEntity
  8
圖層1輪廓線
  6
Continuous
100
AcDbCircle
 10
5945.734932861901
 20
2410.681481149548
 30
0.0
 40
1.209999999999999
100
AcDbArc
 50
0.0
 51
90.0
  0
HATCH
  5
3DA7
330
1F
100
AcDbEntity
  8
圖層4尺寸線
100
AcDbHatch
 10
0.0
 20
0.0
 30
0.0
210
0.0
220
0.0
230
1.0
  2
LINE
 70
     0
 71
     0
 91
        1
 92
        7
 72
     0
 73
     1
 93
        4
 10
5764.444932861902
 20
1815.267157255794
 10
5792.444932861902
 20
1815.267157255794
 10
5792.444932861902
 20
1808.137067976113
 10
5764.444932861902
 20
1808.137067976113
 97
        0
 75
     0
 76
     1
 52
90.0
 41
1.0
 77
     0
 78
     1
 53
90.0
 43
6904.608970710196
 44
1216.826055825537
 45
3.174999999999999
 46
0.0000000000000002
 79
     0
 47
0.1347766415641304
 98
        1
 10
5778.752956534987
 20
1812.070321300271
  0
LINE
  5
3DA8
330
1F
100
AcDbEntity
  8
圖層4尺寸線
100
AcDbLine
 10
5792.444932861902
 20
1820.767157255794
 30
0.0
 11
5792.444932861902
 21
1805.767157255795
 31
0.0
  0
LINE
  5
3DA9
330
1F
100
AcDbEntity
  8
圖層4尺寸線
100
AcDbLine
 10
5764.444932861902
 20
1820.767157255794
 30
0.0
 11
5764.444932861902
 21
1805.767157255794
 31
0.0
  0
LINE
  5
3DAA
330
1F
100
AcDbEntity
  8
圖層4尺寸線
100
AcDbLine
 10
5742.444932861902
 20
1741.767157255794
 30
0.0
 11
5816.444932861902
 21
1741.767157255794
 31
0.0
  0
LINE
  5
3DAB
330
1F
100
AcDbEntity
  8
圖層4尺寸線
100
AcDbLine
 10
5820.444932861902
 20
1739.767157255794
 30
0.0
 11
5742.444932861902
 21
1739.767157255794
 31
0.0
  0
LINE
  5
3DAC
330
1F
100
AcDbEntity
  8
圖層4尺寸線
100
AcDbLine
 10
5742.444932861902
 20
1805.767157255794
 30
0.0
 11
5814.444932861903
 21
1805.767157255794
 31
0.0
  0
LINE
  5
3DAD
330
1F
100
AcDbEntity
  8
圖層4尺寸線
100
AcDbLine
 10
5814.444932861903
 20
1741.767157255794
 30
0.0
 11
5742.444932861902
 21
1741.767157255794
 31
0.0
  0
LINE
  5
3DAE
330
1F
100
AcDbEntity
  8
圖層4尺寸線
100
AcDbLine
 10
5757.444932861902
 20
1756.767157255794
 30
0.0
 11
5742.444932861902
 21
1756.767157255794
 31
0.0
  0
LINE
  5
3DAF
330
1F
100
AcDbEntity
  8
圖層4尺寸線
100
AcDbLine
 10
5818.444932861902
 20
1743.767157255794
 30
0.0
 11
5818.444932861902
 21
1811.767157255794
 31
0.0
  0
LINE
  5
3DB0
330
1F
100
AcDbEntity
  8
圖層1輪廓線
  6
Continuous
100
AcDbLine
 10
5820.444932861902
 20
1811.767157255794
 30
0.0
 11
5820.444932861902
 21
1739.767157255794
 31
0.0
  0
LINE
  5
3DB1
330
1F
100
AcDbEntity
  8
圖層4尺寸線
100
AcDbLine
 10
5814.444932861903
 20
1805.767157255794
 30
0.0
 11
5814.444932861903
 21
1741.767157255794
 31
0.0
  0
LINE
  5
3DB2
330
1F
100
AcDbEntity
  8
圖層4尺寸線
100
AcDbLine
 10
5799.444932861902
 20
1771.767157255794
 30
0.0
 11
5799.444932861902
 21
1756.767157255794
 31
0.0
  0
LINE
  5
3DB3
330
1F
100
AcDbEntity
  8
圖層4尺寸線
100
AcDbLine
 10
5757.444932861902
 20
1756.767157255794
 30
0.0
 11
5757.444932861902
 21
1771.767157255794
 31
0.0
  0
LINE
  5
3DB4
330
1F
100
AcDbEntity
  8
圖層4尺寸線
100
AcDbLine
 10
5814.444932861903
 20
1756.767157255794
 30
0.0
 11
5799.444932861902
 21
1756.767157255794
 31
0.0
  0
ARC
  5
3DB5
330
1F
100
AcDbEntity
  8
圖層4尺寸線
100
AcDbCircle
 10
5816.444932861902
 20
1743.767157255794
 30
0.0
 40
2.0
100
AcDbArc
 50
270.0
 51
0.0
  0
ARC
  5
3DB6
330
1F
100
AcDbEntity
  8
圖層4尺寸線
100
AcDbCircle
 10
5818.444932861902
 20
1741.767157255794
 30
0.0
 40
2.0
100
AcDbArc
 50
270.0
 51
0.0
  0
CIRCLE
  5
3DB7
330
1F
100
AcDbEntity
  8
圖層4尺寸線
100
AcDbCircle
 10
5778.444932861901
 20
1756.767157255794
 30
0.0
 40
12.0
  0
CIRCLE
  5
3DB8
330
1F
100
AcDbEntity
  8
圖層4尺寸線
100
AcDbCircle
 10
5778.444932861901
 20
1756.767157255794
 30
0.0
 40
9.0
  0
LINE
  5
3DB9
330
1F
100
AcDbEntity
  8
圖層4尺寸線
100
AcDbLine
 10
5818.444932861902
 20
1811.767157255794
 30
0.0
 11
5820.444932861902
 21
1811.767157255794
 31
0.0
  0
LINE
  5
3DBA
330
1F
100
AcDbEntity
  8
圖層4尺寸線
100
AcDbLine
 10
5799.444932861902
 20
1771.767157255794
 30
0.0
 11
5757.444932861902
 21
1771.767157255794
 31
0.0
  0
LINE
  5
3DBB
330
1F
100
AcDbEntity
  8
圖層4尺寸線
100
AcDbLine
 10
5792.444932861902
 20
1808.137067976113
 30
0.0
 11
5764.444932861902
 21
1808.137067976113
 31
0.0
  0
LINE
  5
3DBC
330
1F
100
AcDbEntity
  8
圖層4尺寸線
100
AcDbLine
 10
5742.444932861902
 20
1741.767157255794
 30
0.0
 11
5742.444932861902
 21
1805.767157255794
 31
0.0
  0
LINE
  5
3DBD
330
1F
100
AcDbEntity
  8
圖層4尺寸線
100
AcDbLine
 10
5742.444932861902
 20
1739.767157255794
 30
0.0
 11
5742.444932861902
 21
1741.767157255794
 31
0.0
  0
LINE
  5
3DBE
330
1F
100
AcDbEntity
  8
圖層4尺寸線
100
AcDbLine
 10
5758.444932861902
 20
1829.767157255794
 30
0.0
 11
5798.444932861902
 21
1829.767157255794
 31
0.0
  0
LINE
  5
3DBF
330
1F
100
AcDbEntity
  8
圖層4尺寸線
100
AcDbLine
 10
5758.444932861902
 20
1831.767157255794
 30
0.0
 11
5798.444932861902
 21
1831.767157255794
 31
0.0
  0
ARC
  5
3DC0
330
1F
100
AcDbEntity
  8
圖層4尺寸線
100
AcDbCircle
 10
5778.444932861901
 20
1783.767157255794
 30
0.0
 40
52.00000000000005
100
AcDbArc
 50
67.38013505196659
 51
112.6198649480334
  0
LINE
  5
3DC1
330
1F
100
AcDbEntity
  8
圖層4尺寸線
100
AcDbLine
 10
5764.444932861902
 20
1820.767157255794
 30
0.0
 11
5792.444932861902
 21
1820.767157255794
 31
0.0
  0
LINE
  5
3DC2
330
1F
100
AcDbEntity
  8
圖層4尺寸線
100
AcDbLine
 10
5792.444932861902
 20
1815.267157255794
 30
0.0
 11
5764.444932861902
 21
1815.267157255794
 31
0.0
  0
LINE
  5
3DC3
330
1F
100
AcDbEntity
  8
圖層4尺寸線
100
AcDbLine
 10
5798.444932861902
 20
1831.767157255794
 30
0.0
 11
5798.444932861902
 21
1829.767157255794
 31
0.0
  0
LINE
  5
3DC4
330
1F
100
AcDbEntity
  8
圖層4尺寸線
100
AcDbLine
 10
5798.444932861902
 20
1829.767157255794
 30
0.0
 11
5789.444932861902
 21
1829.767157255794
 31
0.0
  0
LINE
  5
3DC5
330
1F
100
AcDbEntity
  8
圖層4尺寸線
100
AcDbLine
 10
5789.444932861902
 20
1820.767157255794
 30
0.0
 11
5792.444932861902
 21
1820.767157255794
 31
0.0
  0
LINE
  5
3DC6
330
1F
100
AcDbEntity
  8
圖層4尺寸線
100
AcDbLine
 10
5789.444932861902
 20
1829.767157255794
 30
0.0
 11
5789.444932861902
 21
1820.767157255794
 31
0.0
  0
LINE
  5
3DC7
330
1F
100
AcDbEntity
  8
圖層4尺寸線
100
AcDbLine
 10
5758.444932861902
 20
1829.767157255794
 30
0.0
 11
5767.444932861902
 21
1829.767157255794
 31
0.0
  0
LINE
  5
3DC8
330
1F
100
AcDbEntity
  8
圖層4尺寸線
100
AcDbLine
 10
5764.444932861902
 20
1820.767157255794
 30
0.0
 11
5767.444932861902
 21
1820.767157255794
 31
0.0
  0
LINE
  5
3DC9
330
1F
100
AcDbEntity
  8
圖層4尺寸線
100
AcDbLine
 10
5767.444932861902
 20
1829.767157255794
 30
0.0
 11
5767.444932861902
 21
1820.767157255794
 31
0.0
  0
LINE
  5
3DCA
330
1F
100
AcDbEntity
  8
圖層4尺寸線
100
AcDbLine
 10
5758.444932861902
 20
1831.767157255794
 30
0.0
 11
5758.444932861902
 21
1829.767157255794
 31
0.0
  0
LINE
  5
3DCB
330
1F
100
AcDbEntity
  8
圖層1輪廓線
  6
Continuous
100
AcDbLine
 10
5948.444932861901
 20
2566.891481149548
 30
0.0
 11
5948.444932861901
 21
2376.891481149548
 31
0.0
  0
LINE
  5
3DCC
330
1F
100
AcDbEntity
  8
圖層1輪廓線
  6
Continuous
100
AcDbLine
 10
5892.444932861901
 20
2376.891481149548
 30
0.0
 11
5892.444932861901
 21
2566.891481149548
 31
0.0
  0
LINE
  5
3DCD
330
1F
100
AcDbEntity
  8
圖層1輪廓線
  6
Continuous
100
AcDbLine
 10
5950.444932861901
 20
2566.891481149548
 30
0.0
 11
5950.444932861901
 21
2376.891481149548
 31
0.0
  0
LINE
  5
3DCE
330
1F
100
AcDbEntity
  8
圖層1輪廓線
  6
Continuous
100
AcDbLine
 10
5890.444932861901
 20
2376.891481149548
 30
0.0
 11
5890.444932861901
 21
2566.891481149548
 31
0.0
  0
LINE
  5
3DCF
330
1F
100
AcDbEntity
  8
圖層1輪廓線
  6
Continuous
100
AcDbLine
 10
5905.444932861902
 20
2415.891481149548
 30
0.0
 11
5905.444932861901
 21
2510.391481149548
 31
0.0
  0
LINE
  5
3DD0
330
1F
100
AcDbEntity
  8
圖層1輪廓線
  6
Continuous
100
AcDbLine
 10
5935.444932861901
 20
2415.891481149548
 30
0.0
 11
5935.444932861901
 21
2510.391481149548
 31
0.0
  0
LINE
  5
3DD1
330
1F
100
AcDbEntity
  8
圖層1輪廓線
  6
Continuous
100
AcDbLine
 10
5896.444932861901
 20
2415.891481149548
 30
0.0
 11
5944.444932861902
 21
2415.891481149548
 31
0.0
  0
LINE
  5
3DD2
330
1F
100
AcDbEntity
  8
圖層1輪廓線
  6
Continuous
100
AcDbLine
 10
5920.444932861901
 20
2411.891481149548
 30
0.0
 11
5896.444932861901
 21
2411.891481149548
 31
0.0
  0
ARC
  5
3DD3
330
1F
100
AcDbEntity
  8
圖層1輪廓線
  6
Continuous
100
AcDbCircle
 10
5896.444932861901
 20
2413.891481149548
 30
0.0
 40
2.0
100
AcDbArc
 50
180.0
 51
270.0
  0
ARC
  5
3DD4
330
1F
100
AcDbEntity
  8
圖層1輪廓線
  6
Continuous
100
AcDbCircle
 10
5896.444932861901
 20
2413.891481149548
 30
0.0
 40
2.0
100
AcDbArc
 50
90.0
 51
180.0
  0
LINE
  5
3DD5
330
1F
100
AcDbEntity
  8
圖層1輪廓線
  6
Continuous
100
AcDbLine
 10
5894.444932861901
 20
2413.891481149548
 30
0.0
 11
5894.444932861901
 21
2413.891481149548
 31
0.0
  0
ARC
  5
3DD6
330
1F
100
AcDbEntity
  8
圖層1輪廓線
  6
Continuous
100
AcDbCircle
 10
5944.444932861902
 20
2413.891481149548
 30
0.0
 40
2.0
100
AcDbArc
 50
270.0
 51
0.0
  0
LINE
  5
3DD7
330
1F
100
AcDbEntity
  8
圖層1輪廓線
  6
Continuous
100
AcDbLine
 10
5920.444932861901
 20
2411.891481149548
 30
0.0
 11
5944.444932861902
 21
2411.891481149548
 31
0.0
  0
ARC
  5
3DD8
330
1F
100
AcDbEntity
  8
圖層1輪廓線
  6
Continuous
100
AcDbCircle
 10
5944.444932861902
 20
2413.891481149548
 30
0.0
 40
2.0
100
AcDbArc
 50
0.0
 51
90.0
  0
LINE
  5
3DD9
330
1F
100
AcDbEntity
  8
圖層1輪廓線
  6
Continuous
100
AcDbLine
 10
5946.444932861901
 20
2413.891481149548
 30
0.0
 11
5946.444932861901
 21
2413.891481149548
 31
0.0
  0
LINE
  5
3DDA
330
1F
100
AcDbEntity
  8
圖層1輪廓線
  6
Continuous
100
AcDbLine
 10
5943.444932861901
 20
2527.445439945753
 30
0.0
 11
5943.444932861901
 21
2511.891481149548
 31
0.0
  0
LINE
  5
3DDB
330
1F
100
AcDbEntity
  8
圖層1輪廓線
  6
Continuous
100
AcDbLine
 10
5897.444932861901
 20
2527.445439945753
 30
0.0
 11
5897.444932861901
 21
2511.891481149548
 31
0.0
  0
LINE
  5
3DDC
330
1F
100
AcDbEntity
  8
圖層1輪廓線
  6
Continuous
100
AcDbLine
 10
5944.437817517524
 20
2500.843112811397
 30
0.0
 11
5902.525278834993
 21
2460.267586783396
 31
0.0
  0
LINE
  5
3DDD
330
1F
100
AcDbEntity
  8
圖層1輪廓線
  6
Continuous
100
AcDbLine
 10
5941.655600564769
 20
2503.71700717755
 30
0.0
 11
5899.743061882237
 21
2463.141481149548
 31
0.0
  0
LINE
  5
3DDE
330
1F
100
AcDbEntity
  8
圖層1輪廓線
  6
Continuous
100
AcDbLine
 10
5897.444932861901
 20
2511.891481149548
 30
0.0
 11
5943.444932861901
 21
2511.891481149548
 31
0.0
  0
LINE
  5
3DDF
330
1F
100
AcDbEntity
  8
圖層1輪廓線
  6
Continuous
100
AcDbLine
 10
5906.944932861901
 20
2511.891481149548
 30
0.0
 11
5933.944932861901
 21
2511.891481149548
 31
0.0
  0
LINE
  5
3DE0
330
1F
100
AcDbEntity
  8
圖層1輪廓線
  6
Continuous
100
AcDbLine
 10
5905.444932861901
 20
2510.391481149548
 30
0.0
 11
5935.444932861901
 21
2510.391481149548
 31
0.0
  0
LINE
  5
3DE1
330
1F
100
AcDbEntity
  8
圖層1輪廓線
  6
Continuous
100
AcDbLine
 10
5906.944932861901
 20
2511.891481149548
 30
0.0
 11
5905.444932861901
 21
2510.391481149548
 31
0.0
  0
LINE
  5
3DE2
330
1F
100
AcDbEntity
  8
圖層1輪廓線
  6
Continuous
100
AcDbLine
 10
5933.944932861901
 20
2511.891481149548
 30
0.0
 11
5935.444932861901
 21
2510.391481149548
 31
0.0
  0
ARC
  5
3DE3
330
1F
100
AcDbEntity
  8
圖層1輪廓線
  6
Continuous
100
AcDbCircle
 10
5900.526348574859
 20
2554.870647816215
 30
0.0
 40
12.02083333333346
100
AcDbArc
 50
56.47264195073179
 51
123.5273580492682
  0
ARC
  5
3DE4
330
1F
100
AcDbEntity
  8
圖層1輪廓線
  6
Continuous
100
AcDbCircle
 10
5900.526348574859
 20
2568.912314482881
 30
0.0
 40
12.02083333333334
100
AcDbArc
 50
236.4726419507317
 51
303.5273580492682
  0
LINE
  5
3DE5
330
1F
100
AcDbEntity
  8
圖層1輪廓線
  6
Continuous
100
AcDbLine
 10
5900.526348574859
 20
2566.891481149548
 30
0.0
 11
5940.363517148944
 21
2566.891481149549
 31
0.0
  0
LINE
  5
3DE6
330
1F
100
AcDbEntity
  8
圖層1輪廓線
  6
Continuous
100
AcDbLine
 10
5900.526348574859
 20
2556.891481149548
 30
0.0
 11
5940.363517148943
 21
2556.891481149548
 31
0.0
  0
ARC
  5
3DE7
330
1F
100
AcDbEntity
  8
圖層1輪廓線
  6
Continuous
100
AcDbCircle
 10
5900.526348574859
 20
2548.044258927325
 30
0.0
 40
8.847222222222624
100
AcDbArc
 50
41.36935109256115
 51
138.6306489074388
  0
LINE
  5
3DE8
330
1F
100
AcDbEntity
  8
圖層1輪廓線
  6
Continuous
100
AcDbLine
 10
5900.526348574859
 20
2556.891481149548
 30
0.0
 11
5940.363517148943
 21
2556.891481149548
 31
0.0
  0
ARC
  5
3DE9
330
1F
100
AcDbEntity
  8
圖層1輪廓線
  6
Continuous
100
AcDbCircle
 10
5900.526348574859
 20
2535.738703371771
 30
0.0
 40
8.84722222222258
100
AcDbArc
 50
221.3693510925612
 51
318.6306489074389
  0
LINE
  5
3DEA
330
1F
100
AcDbEntity
  8
圖層1輪廓線
  6
Continuous
100
AcDbLine
 10
5900.526348574859
 20
2526.891481149549
 30
0.0
 11
5940.363517148943
 21
2526.891481149548
 31
0.0
  0
LINE
  5
3DEB
330
1F
100
AcDbEntity
  8
圖層1輪廓線
  6
Continuous
100
AcDbLine
 10
5893.886820479179
 20
2553.891481149548
 30
0.0
 11
5893.886820479179
 21
2529.891481149548
 31
0.0
  0
LINE
  5
3DEC
330
1F
100
AcDbEntity
  8
圖層1輪廓線
  6
Continuous
100
AcDbLine
 10
5893.886820479179
 20
2558.891481149548
 30
0.0
 11
5893.886820479179
 21
2564.891481149548
 31
0.0
  0
LINE
  5
3DED
330
1F
100
AcDbEntity
  8
圖層1輪廓線
  6
Continuous
100
AcDbLine
 10
5907.165876670539
 20
2553.891481149548
 30
0.0
 11
5907.165876670539
 21
2529.891481149548
 31
0.0
  0
LINE
  5
3DEE
330
1F
100
AcDbEntity
  8
圖層1輪廓線
  6
Continuous
100
AcDbLine
 10
5947.003045244624
 20
2553.891481149548
 30
0.0
 11
5947.003045244624
 21
2529.891481149548
 31
0.0
  0
LINE
  5
3DEF
330
1F
100
AcDbEntity
  8
圖層1輪廓線
  6
Continuous
100
AcDbLine
 10
5933.723989053262
 20
2553.891481149549
 30
0.0
 11
5933.723989053262
 21
2529.891481149548
 31
0.0
  0
ARC
  5
3DF0
330
1F
100
AcDbEntity
  8
圖層1輪廓線
  6
Continuous
100
AcDbCircle
 10
5920.444932861901
 20
2557.78037003844
 30
0.0
 40
30.88888888889164
100
AcDbArc
 50
244.5389444232198
 51
295.4610555767802
  0
ARC
  5
3DF1
330
1F
100
AcDbEntity
  8
圖層1輪廓線
  6
Continuous
100
AcDbCircle
 10
5940.363517148943
 20
2535.738703371771
 30
0.0
 40
8.847222222222258
100
AcDbArc
 50
221.3693510925612
 51
318.6306489074389
  0
ARC
  5
3DF2
330
1F
100
AcDbEntity
  8
圖層1輪廓線
  6
Continuous
100
AcDbCircle
 10
5920.444932861901
 20
2601.974814482887
 30
0.0
 40
45.08333333333824
100
AcDbArc
 50
252.8697633249418
 51
287.1302366750582
  0
ARC
  5
3DF3
330
1F
100
AcDbEntity
  8
圖層1輪廓線
  6
Continuous
100
AcDbCircle
 10
5920.444932861902
 20
2521.808147816213
 30
0.0
 40
45.08333333333623
100
AcDbArc
 50
72.86976332494181
 51
107.1302366750582
  0
ARC
  5
3DF4
330
1F
100
AcDbEntity
  8
圖層1輪廓線
  6
Continuous
100
AcDbCircle
 10
5920.444932861902
 20
2526.002592260657
 30
0.0
 40
30.88888888889169
100
AcDbArc
 50
64.5389444232198
 51
115.4610555767802
  0
LINE
  5
3DF5
330
1F
100
AcDbEntity
  8
圖層1輪廓線
  6
Continuous
100
AcDbLine
 10
5907.165876670539
 20
2558.891481149548
 30
0.0
 11
5907.165876670539
 21
2564.891481149548
 31
0.0
  0
LINE
  5
3DF6
330
1F
100
AcDbEntity
  8
圖層1輪廓線
  6
Continuous
100
AcDbLine
 10
5947.003045244624
 20
2558.891481149549
 30
0.0
 11
5947.003045244624
 21
2564.891481149549
 31
0.0
  0
LINE
  5
3DF7
330
1F
100
AcDbEntity
  8
圖層1輪廓線
  6
Continuous
100
AcDbLine
 10
5933.723989053262
 20
2558.891481149548
 30
0.0
 11
5933.723989053262
 21
2564.891481149548
 31
0.0
  0
ARC
  5
3DF8
330
1F
100
AcDbEntity
  8
圖層1輪廓線
  6
Continuous
100
AcDbCircle
 10
5940.363517148943
 20
2568.912314482882
 30
0.0
 40
12.02083333333321
100
AcDbArc
 50
236.4726419507317
 51
303.5273580492682
  0
ARC
  5
3DF9
330
1F
100
AcDbEntity
  8
圖層1輪廓線
  6
Continuous
100
AcDbCircle
 10
5940.363517148944
 20
2554.870647816216
 30
0.0
 40
12.02083333333214
100
AcDbArc
 50
56.47264195073179
 51
123.5273580492682
  0
ARC
  5
3DFA
330
1F
100
AcDbEntity
  8
圖層1輪廓線
  6
Continuous
100
AcDbCircle
 10
5940.363517148944
 20
2548.044258927325
 30
0.0
 40
8.847222222222258
100
AcDbArc
 50
41.36935109256115
 51
138.6306489074388
  0
LINE
  5
3DFB
330
1F
100
AcDbEntity
  8
圖層1輪廓線
  6
Continuous
100
AcDbLine
 10
5890.444932861901
 20
2566.891481149548
 30
0.0
 11
5950.444932861901
 21
2566.891481149548
 31
0.0
  0
LINE
  5
3DFC
330
1F
100
AcDbEntity
  8
圖層1輪廓線
  6
Continuous
100
AcDbLine
 10
6471.84263188859
 20
2566.891481149548
 30
0.0
 11
6471.84263188859
 21
2376.891481149548
 31
0.0
  0
LINE
  5
3DFD
330
1F
100
AcDbEntity
  8
圖層1輪廓線
  6
Continuous
100
AcDbLine
 10
6415.84263188859
 20
2376.891481149548
 30
0.0
 11
6415.84263188859
 21
2566.891481149548
 31
0.0
  0
LINE
  5
3DFE
330
1F
100
AcDbEntity
  8
圖層1輪廓線
  6
Continuous
100
AcDbLine
 10
6473.84263188859
 20
2566.891481149548
 30
0.0
 11
6473.84263188859
 21
2376.891481149548
 31
0.0
  0
LINE
  5
3DFF
330
1F
100
AcDbEntity
  8
圖層1輪廓線
  6
Continuous
100
AcDbLine
 10
6413.842631888591
 20
2376.891481149548
 30
0.0
 11
6413.842631888591
 21
2566.891481149548
 31
0.0
  0
LINE
  5
3E00
330
1F
100
AcDbEntity
  8
圖層1輪廓線
  6
Continuous
100
AcDbLine
 10
6458.84263188859
 20
2415.891481149548
 30
0.0
 11
6458.84263188859
 21
2510.391481149548
 31
0.0
  0
LINE
  5
3E01
330
1F
100
AcDbEntity
  8
圖層1輪廓線
  6
Continuous
100
AcDbLine
 10
6428.842631888591
 20
2415.891481149548
 30
0.0
 11
6428.842631888591
 21
2510.391481149548
 31
0.0
  0
LINE
  5
3E02
330
1F
100
AcDbEntity
  8
圖層1輪廓線
  6
Continuous
100
AcDbLine
 10
6467.842631888591
 20
2411.891481149548
 30
0.0
 11
6419.842631888591
 21
2411.891481149548
 31
0.0
  0
LINE
  5
3E03
330
1F
100
AcDbEntity
  8
圖層1輪廓線
  6
Continuous
100
AcDbLine
 10
6419.842631888591
 20
2415.891481149548
 30
0.0
 11
6467.842631888591
 21
2415.891481149548
 31
0.0
  0
ARC
  5
3E04
330
1F
100
AcDbEntity
  8
圖層1輪廓線
  6
Continuous
100
AcDbCircle
 10
6419.842631888591
 20
2413.891481149548
 30
0.0
 40
2.0
100
AcDbArc
 50
180.0
 51
270.0
  0
ARC
  5
3E05
330
1F
100
AcDbEntity
  8
圖層1輪廓線
  6
Continuous
100
AcDbCircle
 10
6419.842631888591
 20
2413.891481149548
 30
0.0
 40
2.0
100
AcDbArc
 50
90.0
 51
180.0
  0
LINE
  5
3E06
330
1F
100
AcDbEntity
  8
圖層1輪廓線
  6
Continuous
100
AcDbLine
 10
6417.842631888591
 20
2413.891481149548
 30
0.0
 11
6417.842631888591
 21
2413.891481149548
 31
0.0
  0
ARC
  5
3E07
330
1F
100
AcDbEntity
  8
圖層1輪廓線
  6
Continuous
100
AcDbCircle
 10
6467.842631888591
 20
2413.891481149548
 30
0.0
 40
2.0
100
AcDbArc
 50
270.0
 51
0.0
  0
ARC
  5
3E08
330
1F
100
AcDbEntity
  8
圖層1輪廓線
  6
Continuous
100
AcDbCircle
 10
6467.842631888591
 20
2413.891481149548
 30
0.0
 40
2.0
100
AcDbArc
 50
0.0
 51
90.0
  0
LINE
  5
3E09
330
1F
100
AcDbEntity
  8
圖層1輪廓線
  6
Continuous
100
AcDbLine
 10
6469.842631888591
 20
2413.891481149548
 30
0.0
 11
6469.842631888591
 21
2413.891481149548
 31
0.0
  0
LINE
  5
3E0A
330
1F
100
AcDbEntity
  8
圖層1輪廓線
  6
Continuous
100
AcDbLine
 10
6420.842631888589
 20
2553.891481149548
 30
0.0
 11
6420.842631888589
 21
2511.891481149548
 31
0.0
  0
LINE
  5
3E0B
330
1F
100
AcDbEntity
  8
圖層1輪廓線
  6
Continuous
100
AcDbLine
 10
6466.84263188859
 20
2553.891481149547
 30
0.0
 11
6466.84263188859
 21
2511.891481149548
 31
0.0
  0
LINE
  5
3E0C
330
1F
100
AcDbEntity
  8
圖層1輪廓線
  6
Continuous
100
AcDbLine
 10
6469.291402767422
 20
2501.017196296454
 30
0.0
 11
6424.52119148934
 21
2451.570005866735
 31
0.0
  0
LINE
  5
3E0D
330
1F
100
AcDbEntity
  8
圖層1輪廓線
  6
Continuous
100
AcDbLine
 10
6466.32622278847
 20
2503.701913728963
 30
0.0
 11
6421.556011510387
 21
2454.254723299244
 31
0.0
  0
LINE
  5
3E0E
330
1F
100
AcDbEntity
  8
圖層1輪廓線
  6
Continuous
100
AcDbLine
 10
6420.842631888589
 20
2511.891481149548
 30
0.0
 11
6466.84263188859
 21
2511.891481149548
 31
0.0
  0
LINE
  5
3E0F
330
1F
100
AcDbEntity
  8
圖層1輪廓線
  6
Continuous
100
AcDbLine
 10
6430.342631888591
 20
2511.891481149548
 30
0.0
 11
6457.34263188859
 21
2511.891481149548
 31
0.0
  0
LINE
  5
3E10
330
1F
100
AcDbEntity
  8
圖層1輪廓線
  6
Continuous
100
AcDbLine
 10
6428.842631888591
 20
2510.391481149548
 30
0.0
 11
6458.84263188859
 21
2510.391481149548
 31
0.0
  0
LINE
  5
3E11
330
1F
100
AcDbEntity
  8
圖層1輪廓線
  6
Continuous
100
AcDbLine
 10
6428.842631888591
 20
2510.391481149548
 30
0.0
 11
6430.342631888591
 21
2511.891481149548
 31
0.0
  0
LINE
  5
3E12
330
1F
100
AcDbEntity
  8
圖層1輪廓線
  6
Continuous
100
AcDbLine
 10
6458.84263188859
 20
2510.391481149548
 30
0.0
 11
6457.34263188859
 21
2511.891481149548
 31
0.0
  0
ARC
  5
3E13
330
1F
100
AcDbEntity
  8
圖層1輪廓線
  6
Continuous
100
AcDbCircle
 10
6455.342631888591
 20
2532.828981149549
 30
0.0
 40
34.06249999999879
100
AcDbArc
 50
70.26838611380087
 51
109.7316138861991
  0
ARC
  5
3E14
330
1F
100
AcDbEntity
  8
圖層1輪廓線
  6
Continuous
100
AcDbCircle
 10
6455.34263188859
 20
2590.953981149546
 30
0.0
 40
34.062499999999
100
AcDbArc
 50
250.2683861138008
 51
289.7316138861991
  0
ARC
  5
3E15
330
1F
100
AcDbEntity
  8
圖層1輪廓線
  6
Continuous
100
AcDbCircle
 10
6455.342631888591
 20
2533.349814482882
 30
0.0
 40
23.54166666666563
100
AcDbArc
 50
60.75825202273033
 51
119.2417479772696
  0
ARC
  5
3E16
330
1F
100
AcDbEntity
  8
圖層1輪廓線
  6
Continuous
100
AcDbCircle
 10
6455.342631888591
 20
2550.433147816214
 30
0.0
 40
23.54166666666653
100
AcDbArc
 50
240.7582520227303
 51
299.2417479772697
  0
LINE
  5
3E17
330
1F
100
AcDbEntity
  8
圖層1輪廓線
  6
Continuous
100
AcDbLine
 10
6420.842631888589
 20
2526.891481149548
 30
0.0
 11
6466.84263188859
 21
2526.891481149548
 31
0.0
  0
LINE
  5
3E18
330
1F
100
AcDbEntity
  8
圖層1輪廓線
  6
Continuous
100
AcDbLine
 10
6413.842631888591
 20
2566.891481149548
 30
0.0
 11
6473.84263188859
 21
2566.891481149548
 31
0.0
  0
LINE
  5
3E19
330
1F
100
AcDbEntity
  8
圖層1輪廓線
  6
Continuous
100
AcDbLine
 10
6443.84263188859
 20
2553.891481149547
 30
0.0
 11
6443.84263188859
 21
2529.891481149548
 31
0.0
  0
ARC
  5
3E1A
330
1F
100
AcDbEntity
  8
圖層1輪廓線
  6
Continuous
100
AcDbCircle
 10
6432.342631888591
 20
2550.433147816215
 30
0.0
 40
23.54166666666754
100
AcDbArc
 50
240.7582520227367
 51
299.2417479772697
  0
LINE
  5
3E1B
330
1F
100
AcDbEntity
  8
圖層1輪廓線
  6
Continuous
100
AcDbLine
 10
6431.233504986109
 20
2556.891481149548
 30
0.0
 11
6456.451758791073
 21
2556.891481149548
 31
0.0
  0
LINE
  5
3E1C
330
1F
100
AcDbEntity
  8
圖層1輪廓線
  6
Continuous
100
AcDbLine
 10
6431.233504986107
 20
2566.891481149548
 30
0.0
 11
6456.451758791072
 21
2566.891481149547
 31
0.0
  0
ARC
  5
3E1D
330
1F
100
AcDbEntity
  8
圖層1輪廓線
  6
Continuous
100
AcDbCircle
 10
6432.342631888589
 20
2590.953981149546
 30
0.0
 40
34.06249999999821
100
AcDbArc
 50
250.2683861138008
 51
289.7316138861991
  0
ARC
  5
3E1E
330
1F
100
AcDbEntity
  8
圖層1輪廓線
  6
Continuous
100
AcDbCircle
 10
6432.342631888589
 20
2532.828981149546
 30
0.0
 40
34.06250000000099
100
AcDbArc
 50
70.26838611380087
 51
109.7316138861991
  0
LINE
  5
3E1F
330
1F
100
AcDbEntity
  8
圖層1輪廓線
  6
Continuous
100
AcDbLine
 10
6432.342631888591
 20
2556.891481149548
 30
0.0
 11
6455.34263188859
 21
2556.891481149548
 31
0.0
  0
ARC
  5
3E20
330
1F
100
AcDbEntity
  8
圖層1輪廓線
  6
Continuous
100
AcDbCircle
 10
6432.342631888591
 20
2533.349814482881
 30
0.0
 40
23.54166666666703
100
AcDbArc
 50
60.75825202273033
 51
119.2417479772696
  0
LINE
  5
3E21
330
1F
100
AcDbEntity
  8
圖層1輪廓線
  6
Continuous
100
AcDbLine
 10
6420.842631888589
 20
2558.891481149548
 30
0.0
 11
6420.842631888589
 21
2564.891481149548
 31
0.0
  0
LINE
  5
3E22
330
1F
100
AcDbEntity
  8
圖層1輪廓線
  6
Continuous
100
AcDbLine
 10
6443.84263188859
 20
2564.891481149548
 30
0.0
 11
6443.84263188859
 21
2558.891481149548
 31
0.0
  0
LINE
  5
3E23
330
1F
100
AcDbEntity
  8
圖層1輪廓線
  6
Continuous
100
AcDbLine
 10
6466.842631888589
 20
2558.891481149548
 30
0.0
 11
6466.842631888589
 21
2564.891481149547
 31
0.0
  0
LINE
  5
3E24
330
1F
100
AcDbEntity
  8
圖層1輪廓線
  6
Continuous
100
AcDbLine
 10
5890.444932861901
 20
2376.891481149548
 30
0.0
 11
5950.444932861901
 21
2376.891481149548
 31
0.0
  0
LINE
  5
3E25
330
1F
100
AcDbEntity
  8
圖層1輪廓線
  6
Continuous
100
AcDbLine
 10
6413.842631888591
 20
2376.891481149548
 30
0.0
 11
6473.84263188859
 21
2376.891481149548
 31
0.0
  0
LINE
  5
3E26
330
1F
100
AcDbEntity
  8
圖層1輪廓線
  6
Continuous
370
    50
100
AcDbLine
 10
6501.317631888589
 20
2336.891481149548
 30
0.0
 11
6501.01513188859
 21
2376.891481149548
 31
0.0
  0
ARC
  5
3E27
330
1F
100
AcDbEntity
  8
圖層1輪廓線
  6
Continuous
100
AcDbCircle
 10
6481.105750830167
 20
2368.421481149548
 30
0.0
 40
4.839999999999999
100
AcDbArc
 50
0.3769404795978188
 51
90.0
  0
ARC
  5
3E28
330
1F
100
AcDbEntity
  8
圖層1輪廓線
  6
Continuous
100
AcDbCircle
 10
6406.579512947015
 20
2368.421481149548
 30
0.0
 40
4.839999999999999
100
AcDbArc
 50
90.0
 51
179.6230595204022
  0
LINE
  5
3E29
330
1F
100
AcDbEntity
  8
圖層1輪廓線
  6
Continuous
370
    50
100
AcDbLine
 10
6386.36763188859
 20
2336.891481149548
 30
0.0
 11
6386.670131888591
 21
2376.891481149548
 31
0.0
  0
LINE
  5
3E2A
330
1F
100
AcDbEntity
  8
圖層1輪廓線
  6
Continuous
100
AcDbLine
 10
6404.747631888589
 20
2336.891481149548
 30
0.0
 11
6404.747631888589
 21
2178.891481149548
 31
0.0
  0
LINE
  5
3E2B
330
1F
100
AcDbEntity
  8
圖層1輪廓線
  6
Continuous
100
AcDbLine
 10
6395.81763188859
 20
2336.891481149548
 30
0.0
 11
6395.81763188859
 21
2178.891481149548
 31
0.0
  0
LINE
  5
3E2C
330
1F
100
AcDbEntity
  8
圖層1輪廓線
  6
Continuous
100
AcDbLine
 10
6491.86763188859
 20
2336.891481149548
 30
0.0
 11
6491.86763188859
 21
2178.891481149548
 31
0.0
  0
LINE
  5
3E2D
330
1F
100
AcDbEntity
  8
圖層1輪廓線
  6
Continuous
100
AcDbLine
 10
6482.93763188859
 20
2336.891481149548
 30
0.0
 11
6482.93763188859
 21
2178.891481149548
 31
0.0
  0
LINE
  5
3E2E
330
1F
100
AcDbEntity
  8
圖層1輪廓線
  6
Continuous
100
AcDbLine
 10
6404.747631888589
 20
2178.891481149548
 30
0.0
 11
6404.747631888589
 21
2336.891481149548
 31
0.0
  0
LINE
  5
3E2F
330
1F
100
AcDbEntity
  8
圖層1輪廓線
  6
Continuous
100
AcDbLine
 10
6395.81763188859
 20
2178.891481149548
 30
0.0
 11
6395.81763188859
 21
2336.891481149548
 31
0.0
  0
LINE
  5
3E30
330
1F
100
AcDbEntity
  8
圖層1輪廓線
  6
Continuous
100
AcDbLine
 10
6390.64263188859
 20
2178.891481149548
 30
0.0
 11
6390.64263188859
 21
2336.891481149548
 31
0.0
  0
LINE
  5
3E31
330
1F
100
AcDbEntity
  8
圖層1輪廓線
  6
Continuous
100
AcDbLine
 10
6491.86763188859
 20
2178.891481149548
 30
0.0
 11
6491.86763188859
 21
2336.891481149548
 31
0.0
  0
LINE
  5
3E32
330
1F
100
AcDbEntity
  8
圖層1輪廓線
  6
Continuous
100
AcDbLine
 10
6482.93763188859
 20
2178.891481149548
 30
0.0
 11
6482.93763188859
 21
2336.891481149548
 31
0.0
  0
LINE
  5
3E33
330
1F
100
AcDbEntity
  8
圖層1輪廓線
  6
Continuous
100
AcDbLine
 10
6497.042631888589
 20
2178.891481149548
 30
0.0
 11
6497.042631888589
 21
2336.891481149548
 31
0.0
  0
LINE
  5
3E34
330
1F
100
AcDbEntity
  8
圖層1輪廓線
  6
Continuous
100
AcDbLine
 10
6386.36763188859
 20
2178.891481149548
 30
0.0
 11
6501.317631888589
 21
2178.891481149548
 31
0.0
  0
LINE
  5
3E35
330
1F
100
AcDbEntity
  8
圖層1輪廓線
  6
Continuous
100
AcDbLine
 10
6386.670131888591
 20
2138.891481149548
 30
0.0
 11
6501.01513188859
 21
2138.891481149548
 31
0.0
  0
LINE
  5
3E36
330
1F
100
AcDbEntity
  8
圖層1輪廓線
  6
Continuous
100
AcDbLine
 10
6406.579512947013
 20
2142.521481149548
 30
0.0
 11
6481.105750830167
 21
2142.521481149548
 31
0.0
  0
LINE
  5
3E37
330
1F
100
AcDbEntity
  8
圖層1輪廓線
  6
Continuous
100
AcDbLine
 10
6401.49263188859
 20
2178.891481149548
 30
0.0
 11
6401.73961768738
 21
2147.329639733366
 31
0.0
  0
LINE
  5
3E38
330
1F
100
AcDbEntity
  8
圖層1輪廓線
  6
Continuous
100
AcDbLine
 10
6386.36763188859
 20
2178.891481149548
 30
0.0
 11
6386.670131888591
 21
2138.891481149548
 31
0.0
  0
ARC
  5
3E39
330
1F
100
AcDbEntity
  8
圖層1輪廓線
  6
Continuous
100
AcDbCircle
 10
6406.579512947015
 20
2147.361481149548
 30
0.0
 40
4.839999999999999
100
AcDbArc
 50
180.3769404795978
 51
270.0
  0
LINE
  5
3E3A
330
1F
100
AcDbEntity
  8
圖層1輪廓線
  6
Continuous
100
AcDbLine
 10
6501.317631888589
 20
2178.891481149548
 30
0.0
 11
6501.01513188859
 21
2138.891481149548
 31
0.0
  0
LINE
  5
3E3B
330
1F
100
AcDbEntity
  8
圖層1輪廓線
  6
Continuous
100
AcDbLine
 10
6486.192631888591
 20
2178.891481149548
 30
0.0
 11
6485.945646089799
 21
2147.329639733366
 31
0.0
  0
ARC
  5
3E3C
330
1F
100
AcDbEntity
  8
圖層1輪廓線
  6
Continuous
100
AcDbCircle
 10
6481.105750830167
 20
2147.361481149548
 30
0.0
 40
4.839999999999999
100
AcDbArc
 50
270.0
 51
359.6230595204022
  0
LINE
  5
3E3D
330
1F
100
AcDbEntity
  8
圖層1輪廓線
  6
Continuous
100
AcDbLine
 10
6406.579512947013
 20
2373.261481149548
 30
0.0
 11
6481.105750830167
 21
2373.261481149548
 31
0.0
  0
LINE
  5
3E3E
330
1F
100
AcDbEntity
  8
圖層1輪廓線
  6
Continuous
370
    50
100
AcDbLine
 10
6386.36763188859
 20
2336.891481149548
 30
0.0
 11
6501.317631888589
 21
2336.891481149548
 31
0.0
  0
LINE
  5
3E3F
330
1F
100
AcDbEntity
  8
圖層1輪廓線
  6
Continuous
100
AcDbLine
 10
6401.49263188859
 20
2336.891481149548
 30
0.0
 11
6401.73961768738
 21
2368.45332256573
 31
0.0
  0
LINE
  5
3E40
330
1F
100
AcDbEntity
  8
圖層1輪廓線
  6
Continuous
100
AcDbLine
 10
6486.192631888591
 20
2336.891481149548
 30
0.0
 11
6485.945646089799
 21
2368.45332256573
 31
0.0
  0
LINE
  5
3E41
330
1F
100
AcDbEntity
  8
圖層1輪廓線
  6
Continuous
100
AcDbLine
 10
6386.670131888591
 20
2376.891481149548
 30
0.0
 11
6501.01513188859
 21
2376.891481149548
 31
0.0
  0
LINE
  5
3E42
330
1F
100
AcDbEntity
  8
圖層1輪廓線
  6
Continuous
100
AcDbLine
 10
6416.342631888591
 20
2390.681481149548
 30
0.0
 11
6471.342631888591
 21
2390.681481149548
 31
0.0
  0
LINE
  5
3E43
330
1F
100
AcDbEntity
  8
圖層1輪廓線
  6
Continuous
100
AcDbLine
 10
6417.34263188859
 20
2391.891481149548
 30
0.0
 11
6470.34263188859
 21
2391.891481149548
 31
0.0
  0
LINE
  5
3E44
330
1F
100
AcDbEntity
  8
圖層1輪廓線
  6
Continuous
100
AcDbLine
 10
6418.552631888591
 20
2411.891481149548
 30
0.0
 11
6469.13263188859
 21
2411.891481149548
 31
0.0
  0
LINE
  5
3E45
330
1F
100
AcDbEntity
  8
圖層1輪廓線
  6
Continuous
100
AcDbLine
 10
6417.34263188859
 20
2410.681481149548
 30
0.0
 11
6417.34263188859
 21
2391.891481149548
 31
0.0
  0
LINE
  5
3E46
330
1F
100
AcDbEntity
  8
圖層1輪廓線
  6
Continuous
100
AcDbLine
 10
6416.342631888591
 20
2390.681481149548
 30
0.0
 11
6417.34263188859
 21
2391.891481149548
 31
0.0
  0
LINE
  5
3E47
330
1F
100
AcDbEntity
  8
圖層1輪廓線
  6
Continuous
100
AcDbLine
 10
6416.342631888591
 20
2390.681481149548
 30
0.0
 11
6416.342631888591
 21
2376.891481149548
 31
0.0
  0
LINE
  5
3E48
330
1F
100
AcDbEntity
  8
圖層1輪廓線
  6
Continuous
100
AcDbLine
 10
6454.34263188859
 20
2411.891481149548
 30
0.0
 11
6433.34263188859
 21
2411.891481149548
 31
0.0
  0
ARC
  5
3E49
330
1F
100
AcDbEntity
  8
圖層1輪廓線
  6
Continuous
100
AcDbCircle
 10
6418.552631888591
 20
2410.681481149548
 30
0.0
 40
1.209999999999999
100
AcDbArc
 50
90.0
 51
180.0
  0
LINE
  5
3E4A
330
1F
100
AcDbEntity
  8
圖層1輪廓線
  6
Continuous
100
AcDbLine
 10
6470.34263188859
 20
2410.681481149548
 30
0.0
 11
6470.34263188859
 21
2391.891481149548
 31
0.0
  0
LINE
  5
3E4B
330
1F
100
AcDbEntity
  8
圖層1輪廓線
  6
Continuous
100
AcDbLine
 10
6470.34263188859
 20
2391.891481149548
 30
0.0
 11
6471.342631888591
 21
2390.681481149548
 31
0.0
  0
LINE
  5
3E4C
330
1F
100
AcDbEntity
  8
圖層1輪廓線
  6
Continuous
100
AcDbLine
 10
6471.342631888591
 20
2390.681481149548
 30
0.0
 11
6471.342631888591
 21
2376.891481149548
 31
0.0
  0
ARC
  5
3E4D
330
1F
100
AcDbEntity
  8
圖層1輪廓線
  6
Continuous
100
AcDbCircle
 10
6469.13263188859
 20
2410.681481149548
 30
0.0
 40
1.209999999999999
100
AcDbArc
 50
0.0
 51
90.0
  0
LINE
  5
3E4E
330
1F
100
AcDbEntity
  8
圖層1輪廓線
  6
Continuous
370
    50
100
AcDbLine
 10
5863.272432861902
 20
2138.891481149548
 30
0.0
 11
5863.272432861902
 21
2123.891481149548
 31
0.0
  0
LINE
  5
3E4F
330
1F
100
AcDbEntity
  8
圖層1輪廓線
  6
Continuous
100
AcDbLine
 10
5863.272432861902
 20
2123.891481149548
 30
0.0
 11
5977.617432861901
 21
2123.891481149548
 31
0.0
  0
LINE
  5
3E50
330
1F
100
AcDbEntity
  8
圖層1輪廓線
  6
Continuous
370
    50
100
AcDbLine
 10
5977.617432861901
 20
2123.891481149548
 30
0.0
 11
5977.617432861901
 21
2138.891481149548
 31
0.0
  0
LINE
  5
3E51
330
1F
100
AcDbEntity
  8
圖層1輪廓線
  6
Continuous
100
AcDbLine
 10
6386.670131888591
 20
2123.891481149548
 30
0.0
 11
6501.01513188859
 21
2123.891481149547
 31
0.0
  0
LINE
  5
3E52
330
1F
100
AcDbEntity
  8
圖層1輪廓線
  6
Continuous
370
    50
100
AcDbLine
 10
6386.670131888591
 20
2138.891481149548
 30
0.0
 11
6386.670131888591
 21
2123.891481149548
 31
0.0
  0
LINE
  5
3E53
330
1F
100
AcDbEntity
  8
圖層1輪廓線
  6
Continuous
370
    50
100
AcDbLine
 10
6501.01513188859
 20
2123.891481149547
 30
0.0
 11
6501.01513188859
 21
2138.891481149548
 31
0.0
  0
CIRCLE
  5
3E54
330
1F
100
AcDbEntity
  8
圖層1輪廓線
  6
Continuous
370
    50
100
AcDbCircle
 10
6683.842631888591
 20
2058.891481149547
 30
0.0
 40
5.0
  0
CIRCLE
  5
3E55
330
1F
100
AcDbEntity
  8
圖層1輪廓線
  6
Continuous
370
    50
100
AcDbCircle
 10
6683.842631888591
 20
2083.891481149547
 30
0.0
 40
5.0
  0
CIRCLE
  5
3E56
330
1F
100
AcDbEntity
  8
圖層1輪廓線
  6
Continuous
370
    50
100
AcDbCircle
 10
6683.842631888591
 20
2108.891481149547
 30
0.0
 40
5.0
  0
DIMENSION
  5
3E57
330
1F
100
AcDbEntity
  8
AM_5
100
AcDbDimension
  2
*D3
 10
6005.444932861902
 20
1679.767157255794
 30
0.0
 11
5920.444932861902
 21
1695.767157255794
 31
0.0
 70
    32
 71
     5
 42
170.0
  3
AM_ISO$0
100
AcDbAlignedDimension
 13
5835.444932861902
 23
1727.343980758828
 33
0.0
 14
6005.444932861902
 24
1728.111584543012
 34
0.0
100
AcDbRotatedDimension
1001
ACAD
1000
DSTYLE
1002
{
1070
    40
1040
1.0
1070
   144
1040
1.0
1002
}
  0
DIMENSION
  5
3E58
330
1F
100
AcDbEntity
  8
AM_5
100
AcDbDimension
  2
*D4
 10
6020.444932861902
 20
1629.767157255794
 30
0.0
 11
5920.444932861902
 21
1645.769125759731
 31
0.0
 70
    32
 71
     5
 42
200.0
  3
AM_ISO$0
100
AcDbAlignedDimension
 13
5820.444932861902
 23
1739.767157255794
 33
0.0
 14
6020.444932861902
 24
1739.767157255794
 34
0.0
100
AcDbRotatedDimension
1001
ACAD
1000
DSTYLE
1002
{
1070
    40
1040
1.0
1070
   144
1040
1.0
1002
}
  0
INSERT
  5
3E59
330
1F
100
AcDbEntity
  8
AM_5
100
AcDbBlockReference
  2
*S27
 10
0.0
 20
0.0
 30
0.0
  0
TEXT
  5
3E5A
330
1F
100
AcDbEntity
  8
AM_5
100
AcDbText
 10
6059.268288559816
 20
1684.513458580693
 30
0.0
 40
20.0
  1
4-%%C12
100
AcDbText
  0
DIMENSION
  5
3E89
330
1F
100
AcDbEntity
  8
AM_5
100
AcDbDimension
  2
*D5
 10
6558.842631888591
 20
1679.767157255795
 30
0.0
 11
6443.84263188859
 21
1695.769125759731
 31
0.0
 70
    32
 71
     5
 42
230.0000000000009
  3
AM_ISO$0
100
AcDbAlignedDimension
 13
6328.842631888591
 23
1726.969549505619
 33
0.0
 14
6558.842631888591
 24
1727.816840729235
 34
0.0
100
AcDbRotatedDimension
1001
ACAD
1000
DSTYLE
1002
{
1070
    40
1040
1.0
1070
   144
1040
1.0
1002
}
  0
DIMENSION
  5
3E8A
330
1F
100
AcDbEntity
  8
AM_5
100
AcDbDimension
  2
*D6
 10
6693.84263188859
 20
1629.767157255794
 30
0.0
 11
6503.842631888591
 21
1645.767157255794
 31
0.0
 70
    32
 71
     5
 42
380.0
  3
AM_ISO$0
100
AcDbAlignedDimension
 13
6313.84263188859
 23
1739.767157255794
 33
0.0
 14
6693.84263188859
 24
1739.767157255794
 34
0.0
100
AcDbRotatedDimension
1001
ACAD
1000
DSTYLE
1002
{
1070
    40
1040
1.0
1070
   144
1040
1.0
1002
}
  0
DIMENSION
  5
3EB5
330
1F
100
AcDbEntity
  8
AM_5
100
AcDbDimension
  2
*D7
 10
6253.84263188859
 20
1819.767157255794
 30
0.0
 11
6237.84263188859
 21
1779.767157255795
 31
0.0
 70
    32
 71
     5
 42
80.0
  3
AM_ISO$0
100
AcDbAlignedDimension
 13
6313.84263188859
 23
1739.767157255794
 33
0.0
 14
6348.84263188859
 24
1819.767157255794
 34
0.0
 50
90.0
100
AcDbRotatedDimension
1001
ACAD
1000
DSTYLE
1002
{
1070
    40
1040
1.0
1070
   144
1040
1.0
1002
}
  0
DIMENSION
  5
3EB6
330
1F
100
AcDbEntity
  8
AM_5
100
AcDbDimension
  2
*D8
 10
6253.84263188859
 20
2008.891481149547
 30
0.0
 11
6237.840663384654
 21
1914.329319202671
 31
0.0
 70
    32
  1
Max. 200
 71
     5
 42
189.1243238937527
  3
AM_ISO$0
100
AcDbAlignedDimension
 13
6348.84263188859
 23
1819.767157255794
 33
0.0
 14
6423.342631888592
 24
2008.891481149547
 34
0.0
 50
90.0
100
AcDbRotatedDimension
1001
ACAD
1000
DSTYLE
1002
{
1070
    40
1040
1.0
1070
   144
1040
1.0
1002
}
  0
DIMENSION
  5
3EB7
330
1F
100
AcDbEntity
  8
AM_5
100
AcDbDimension
  2
*D9
 10
6253.84263188859
 20
2123.891481149547
 30
0.0
 11
6237.84263188859
 21
2066.391481149548
 31
0.0
 70
    32
 71
     5
 42
115.0000000000004
  3
AM_ISO$0
100
AcDbAlignedDimension
 13
6423.342631888592
 23
2008.891481149547
 33
0.0
 14
6378.84263188859
 24
2123.891481149547
 34
0.0
 50
90.0
100
AcDbRotatedDimension
1001
ACAD
1000
DSTYLE
1002
{
1070
    40
1040
1.0
1070
   144
1040
1.0
1002
}
  0
DIMENSION
  5
3EB8
330
1F
100
AcDbEntity
  8
AM_5
100
AcDbDimension
  2
*D10
 10
6253.84263188859
 20
2566.891481149548
 30
0.0
 11
6237.84263188859
 21
2345.391481149548
 31
0.0
 70
    32
 71
     5
 42
443.0000000000005
  3
AM_ISO$0
100
AcDbAlignedDimension
 13
6378.84263188859
 23
2123.891481149547
 33
0.0
 14
6413.842631888591
 24
2566.891481149548
 34
0.0
 50
90.0
100
AcDbRotatedDimension
1001
ACAD
1000
DSTYLE
1002
{
1070
    40
1040
1.0
1070
   144
1040
1.0
1002
}
  0
DIMENSION
  5
3EB9
330
1F
100
AcDbEntity
  8
AM_5
100
AcDbDimension
  2
*D11
 10
6203.842631888591
 20
2566.891481149548
 30
0.0
 11
6187.842631888589
 21
2153.329319202672
 31
0.0
 70
    32
  1
Max. 850
 71
     5
 42
827.1243238937538
  3
AM_ISO$0
100
AcDbAlignedDimension
 13
6313.84263188859
 23
1739.767157255794
 33
0.0
 14
6413.842631888591
 24
2566.891481149548
 34
0.0
 50
90.0
100
AcDbRotatedDimension
1001
ACAD
1000
DSTYLE
1002
{
1070
    40
1040
1.0
1070
   144
1040
1.0
1002
}
  0
DIMENSION
  5
3F23
330
1F
100
AcDbEntity
  8
AM_5
100
AcDbDimension
  2
*D12
 10
6753.842631888591
 20
1819.767157255794
 30
0.0
 11
6737.84263188859
 21
1779.767157255795
 31
0.0
 70
    32
 71
     5
 42
80.0
  3
AM_ISO$0
100
AcDbAlignedDimension
 13
6693.84263188859
 23
1739.767157255794
 33
0.0
 14
6693.84263188859
 24
1819.767157255794
 34
0.0
 50
90.0
100
AcDbRotatedDimension
1001
ACAD
1000
DSTYLE
1002
{
1070
    40
1040
1.0
1070
   144
1040
1.0
1002
}
  0
DIMENSION
  5
3F24
330
1F
100
AcDbEntity
  8
AM_5
100
AcDbDimension
  2
*D13
 10
6753.842631888591
 20
2123.891481149547
 30
0.0
 11
6737.84263188859
 21
2083.891481149549
 31
0.0
 70
    32
 71
     5
 42
79.99999999999977
  3
AM_ISO$0
100
AcDbAlignedDimension
 13
6693.84263188859
 23
2043.891481149548
 33
0.0
 14
6693.84263188859
 24
2123.891481149547
 34
0.0
 50
90.0
100
AcDbRotatedDimension
1001
ACAD
1000
DSTYLE
1002
{
1070
    40
1040
1.0
1070
   144
1040
1.0
1002
}
  0
DIMENSION
  5
3F25
330
1F
100
AcDbEntity
  8
AM_5
100
AcDbDimension
  2
*D14
 10
6803.842631888591
 20
2139.767157255794
 30
0.0
 11
6787.84263188859
 21
1939.767157255795
 31
0.0
 70
    32
 71
     5
 42
399.9999999999996
  3
AM_ISO$0
100
AcDbAlignedDimension
 13
6693.84263188859
 23
1739.767157255794
 33
0.0
 14
6659.34263188859
 24
2139.767157255794
 34
0.0
 50
90.0
100
AcDbRotatedDimension
1001
ACAD
1000
DSTYLE
1002
{
1070
    40
1040
1.0
1070
   144
1040
1.0
1002
}
  0
DIMENSION
  5
3F65
330
1F
100
AcDbEntity
  8
AM_5
100
AcDbDimension
  2
*D15
 10
6586.342631888588
 20
1914.444100226108
 30
0.0
 11
6515.092631888589
 21
1930.446068730046
 31
0.0
 70
    32
 71
     5
 42
142.5
  3
AM_ISO$0
100
AcDbAlignedDimension
 13
6443.842631888589
 23
1984.932611287768
 33
0.0
 14
6586.342631888588
 24
2043.891481149548
 34
0.0
100
AcDbRotatedDimension
1001
ACAD
1000
DSTYLE
1002
{
1070
    40
1040
1.0
1070
   144
1040
1.0
1002
}
  0
DIMENSION
  5
3F66
330
1F
100
AcDbEntity
  8
AM_5
100
AcDbDimension
  2
*D16
 10
6661.342631888588
 20
1914.444100226108
 30
0.0
 11
6707.756845450962
 21
1914.444100226108
 31
0.0
 70
   160
  1
%%c<>
 71
     5
 42
75.0
  3
AM_ISO$0
100
AcDbAlignedDimension
 13
6586.342631888588
 23
1914.444100226108
 33
0.0
 14
6661.342631888588
 24
1931.829319202671
 34
0.0
100
AcDbRotatedDimension
1001
ACAD
1000
DSTYLE
1002
{
1070
    40
1040
1.0
1070
   144
1040
1.0
1002
}
  0
DIMENSION
  5
3F93
330
1F
100
AcDbEntity
  8
AM_5
100
AcDbDimension
  2
*D17
 10
6543.84263188859
 20
1862.638576578295
 30
0.0
 11
6443.84263188859
 21
1878.640545082232
 31
0.0
 70
    32
 71
     5
 42
200.0
  3
AM_ISO$0
100
AcDbAlignedDimension
 13
6343.84263188859
 23
1814.767157255794
 33
0.0
 14
6543.84263188859
 24
1814.767157255794
 34
0.0
100
AcDbRotatedDimension
1001
ACAD
1000
DSTYLE
1002
{
1070
    40
1040
1.0
1070
   144
1040
1.0
1002
}
  0
LINE
  5
4145
330
1F
100
AcDbEntity
  8
圖層1輪廓線
  6
Continuous
100
AcDbLine
 10
5884.93789130674
 20
2935.199312259541
 30
0.0
 11
5955.951974417063
 21
2935.199312259541
 31
0.0
  0
ARC
  5
4146
330
1F
100
AcDbEntity
  8
圖層1輪廓線
  6
Continuous
100
AcDbCircle
 10
5920.444932861903
 20
2876.665978926204
 30
0.0
 40
58.53333333333608
100
AcDbArc
 50
66.14595163640482
 51
113.8540483635952
  0
LINE
  5
4147
330
1F
100
AcDbEntity
  8
圖層1輪廓線
  6
Continuous
100
AcDbLine
 10
5884.93789130674
 20
2865.199312259541
 30
0.0
 11
5955.951974417063
 21
2865.199312259541
 31
0.0
  0
LINE
  5
4148
330
1F
100
AcDbEntity
  8
圖層1輪廓線
  6
Continuous
100
AcDbLine
 10
5879.4449328619
 20
2855.199312259541
 30
0.0
 11
5961.444932861901
 21
2855.199312259541
 31
0.0
  0
ARC
  5
4149
330
1F
100
AcDbEntity
  8
圖層1輪廓線
  6
Continuous
100
AcDbCircle
 10
5920.444932861903
 20
2923.373272458534
 30
0.0
 40
58.2048398037261
100
AcDbArc
 50
246.0028878993282
 51
293.9971121006577
  0
LINE
  5
414A
330
1F
100
AcDbEntity
  8
圖層1輪廓線
  6
Continuous
100
AcDbLine
 10
5879.4449328619
 20
2965.199312259541
 30
0.0
 11
5961.444932861901
 21
2965.199312259541
 31
0.0
  0
LINE
  5
414B
330
1F
100
AcDbEntity
  8
圖層1輪廓線
  6
Continuous
100
AcDbLine
 10
5873.102210788353
 20
2870.19931225954
 30
0.0
 11
5873.102210788353
 21
2930.199312259541
 31
0.0
  0
LINE
  5
414C
330
1F
100
AcDbEntity
  8
圖層1輪廓線
  6
Continuous
100
AcDbLine
 10
5896.773571825128
 20
2870.199312259542
 30
0.0
 11
5896.773571825128
 21
2930.199312259541
 31
0.0
  0
ARC
  5
414D
330
1F
100
AcDbEntity
  8
圖層1輪廓線
  6
Continuous
100
AcDbCircle
 10
5884.93789130674
 20
2881.707645592874
 30
0.0
 40
16.50833333333309
100
AcDbArc
 50
224.1966084730937
 51
315.8033915269064
  0
LINE
  5
414E
330
1F
100
AcDbEntity
  8
圖層1輪廓線
  6
Continuous
100
AcDbLine
 10
5879.4449328619
 20
2855.199312259541
 30
0.0
 11
5879.4449328619
 21
2866.139971490179
 31
0.0
  0
ARC
  5
414F
330
1F
100
AcDbEntity
  8
圖層1輪廓線
  6
Continuous
100
AcDbCircle
 10
5884.93789130674
 20
2918.690978926207
 30
0.0
 40
16.50833333333278
100
AcDbArc
 50
44.19660847309365
 51
135.8033915269063
  0
LINE
  5
4150
330
1F
100
AcDbEntity
  8
圖層1輪廓線
  6
Continuous
100
AcDbLine
 10
5879.4449328619
 20
2934.258653028902
 30
0.0
 11
5879.4449328619
 21
2965.199312259541
 31
0.0
  0
LINE
  5
4151
330
1F
100
AcDbEntity
  8
圖層1輪廓線
  6
Continuous
100
AcDbLine
 10
5944.116293898677
 20
2870.19931225954
 30
0.0
 11
5944.116293898677
 21
2930.199312259541
 31
0.0
  0
LINE
  5
4152
330
1F
100
AcDbEntity
  8
圖層1輪廓線
  6
Continuous
100
AcDbLine
 10
5967.787654935452
 20
2870.19931225954
 30
0.0
 11
5967.787654935452
 21
2930.199312259541
 31
0.0
  0
ARC
  5
4153
330
1F
100
AcDbEntity
  8
圖層1輪廓線
  6
Continuous
100
AcDbCircle
 10
5955.951974417065
 20
2881.707645592873
 30
0.0
 40
16.50833333333325
100
AcDbArc
 50
224.1966084730937
 51
315.8033915269064
  0
LINE
  5
4154
330
1F
100
AcDbEntity
  8
圖層1輪廓線
  6
Continuous
100
AcDbLine
 10
5961.444932861901
 20
2855.199312259541
 30
0.0
 11
5961.444932861901
 21
2866.139971490179
 31
0.0
  0
ARC
  5
4155
330
1F
100
AcDbEntity
  8
圖層1輪廓線
  6
Continuous
100
AcDbCircle
 10
5955.951974417063
 20
2918.690978926207
 30
0.0
 40
16.50833333333326
100
AcDbArc
 50
44.19660847309365
 51
135.8033915269063
  0
LINE
  5
4156
330
1F
100
AcDbEntity
  8
圖層1輪廓線
  6
Continuous
100
AcDbLine
 10
5961.444932861901
 20
2934.258653028903
 30
0.0
 11
5961.444932861901
 21
2965.199312259541
 31
0.0
  0
ARC
  5
4157
330
1F
100
AcDbEntity
  8
圖層1輪廓線
  6
Continuous
100
AcDbCircle
 10
5920.444932861901
 20
3037.24097892621
 30
0.0
 40
72.0416666666691
100
AcDbArc
 50
250.8174656949729
 51
289.1825343050271
  0
ARC
  5
4158
330
1F
100
AcDbEntity
  8
圖層1輪廓線
  6
Continuous
100
AcDbCircle
 10
5920.444932861901
 20
2913.157645592878
 30
0.0
 40
72.04166666666245
100
AcDbArc
 50
70.81746569497288
 51
109.1825343050271
  0
ARC
  5
4159
330
1F
100
AcDbEntity
  8
圖層1輪廓線
  6
Continuous
100
AcDbCircle
 10
5884.93789130674
 20
2984.709728926207
 30
0.0
 40
19.51041666666605
100
AcDbArc
 50
232.653490685543
 51
307.346509314457
  0
ARC
  5
415A
330
1F
100
AcDbEntity
  8
圖層1輪廓線
  6
Continuous
100
AcDbCircle
 10
5884.93789130674
 20
2965.688895592878
 30
0.0
 40
19.51041666666302
100
AcDbArc
 50
52.65349068554301
 51
127.346509314457
  0
LINE
  5
415B
330
1F
100
AcDbEntity
  8
圖層1輪廓線
  6
Continuous
100
AcDbLine
 10
5873.102210788353
 20
2969.19931225954
 30
0.0
 11
5873.102210788353
 21
2981.199312259541
 31
0.0
  0
LINE
  5
415C
330
1F
100
AcDbEntity
  8
圖層1輪廓線
  6
Continuous
100
AcDbLine
 10
5896.773571825126
 20
2969.19931225954
 30
0.0
 11
5896.773571825126
 21
2981.19931225954
 31
0.0
  0
ARC
  5
415D
330
1F
100
AcDbEntity
  8
圖層1輪廓線
  6
Continuous
100
AcDbCircle
 10
5955.951974417063
 20
2984.709728926207
 30
0.0
 40
19.51041666666682
100
AcDbArc
 50
232.653490685543
 51
307.346509314457
  0
ARC
  5
415E
330
1F
100
AcDbEntity
  8
圖層1輪廓線
  6
Continuous
100
AcDbCircle
 10
5955.951974417065
 20
2965.688895592874
 30
0.0
 40
19.51041666666705
100
AcDbArc
 50
52.65349068554301
 51
127.346509314457
  0
LINE
  5
415F
330
1F
100
AcDbEntity
  8
圖層1輪廓線
  6
Continuous
100
AcDbLine
 10
5944.116293898677
 20
2969.19931225954
 30
0.0
 11
5944.116293898677
 21
2981.199312259541
 31
0.0
  0
LINE
  5
4160
330
1F
100
AcDbEntity
  8
圖層1輪廓線
  6
Continuous
100
AcDbLine
 10
5967.787654935452
 20
2969.19931225954
 30
0.0
 11
5967.787654935452
 21
2981.199312259541
 31
0.0
  0
LINE
  5
4161
330
1F
100
AcDbEntity
  8
圖層1輪廓線
  6
Continuous
100
AcDbLine
 10
5880.444932861902
 20
2990.199312259541
 30
0.0
 11
5880.444932861902
 21
2985.19931225954
 31
0.0
  0
LINE
  5
4162
330
1F
100
AcDbEntity
  8
圖層1輪廓線
  6
Continuous
100
AcDbLine
 10
5880.444932861902
 20
2985.19931225954
 30
0.0
 11
5960.444932861901
 21
2985.19931225954
 31
0.0
  0
LINE
  5
4163
330
1F
100
AcDbEntity
  8
圖層1輪廓線
  6
Continuous
100
AcDbLine
 10
5960.444932861901
 20
2985.19931225954
 30
0.0
 11
5960.444932861901
 21
2990.199312259541
 31
0.0
  0
LINE
  5
4164
330
1F
100
AcDbEntity
  8
圖層3虛線
 48
0.3
100
AcDbLine
 10
5900.444932861901
 20
2915.19931225954
 30
0.0
 11
5940.444932861901
 21
2915.19931225954
 31
0.0
  0
LINE
  5
4165
330
1F
100
AcDbEntity
  8
圖層3虛線
 48
0.3
100
AcDbLine
 10
5900.444932861901
 20
2855.199312259541
 30
0.0
 11
5900.444932861901
 21
2915.19931225954
 31
0.0
  0
LINE
  5
4166
330
1F
100
AcDbEntity
  8
圖層3虛線
 48
0.3
100
AcDbLine
 10
5940.444932861901
 20
2855.199312259541
 30
0.0
 11
5940.444932861901
 21
2915.19931225954
 31
0.0
  0
LINE
  5
4167
330
1F
100
AcDbEntity
  8
圖層3虛線
 48
0.3
100
AcDbLine
 10
5873.102210788353
 20
2895.199312259541
 30
0.0
 11
5900.444932861901
 21
2895.199312259541
 31
0.0
  0
LINE
  5
4168
330
1F
100
AcDbEntity
  8
圖層3虛線
 48
0.3
100
AcDbLine
 10
5873.102210788353
 20
2875.199312259541
 30
0.0
 11
5900.444932861901
 21
2875.199312259541
 31
0.0
  0
LINE
  5
4169
330
1F
100
AcDbEntity
  8
圖層3虛線
 48
0.3
100
AcDbLine
 10
5940.444932861901
 20
2895.199312259541
 30
0.0
 11
5967.787654935452
 21
2895.199312259541
 31
0.0
  0
LINE
  5
416A
330
1F
100
AcDbEntity
  8
圖層3虛線
 48
0.3
100
AcDbLine
 10
5940.444932861901
 20
2875.199312259541
 30
0.0
 11
5967.787654935452
 21
2875.199312259541
 31
0.0
  0
LINE
  5
416B
330
1F
100
AcDbEntity
  8
圖層3虛線
 48
0.3
100
AcDbLine
 10
5873.102210788353
 20
2891.199312259541
 30
0.0
 11
5900.444932861901
 21
2891.199312259541
 31
0.0
  0
LINE
  5
416C
330
1F
100
AcDbEntity
  8
圖層3虛線
 48
0.3
100
AcDbLine
 10
5873.102210788353
 20
2879.199312259541
 30
0.0
 11
5900.444932861901
 21
2879.199312259541
 31
0.0
  0
LINE
  5
416D
330
1F
100
AcDbEntity
  8
圖層3虛線
 48
0.3
100
AcDbLine
 10
5940.444932861901
 20
2891.199312259541
 30
0.0
 11
5967.787654935452
 21
2891.199312259541
 31
0.0
  0
LINE
  5
416E
330
1F
100
AcDbEntity
  8
圖層3虛線
 48
0.3
100
AcDbLine
 10
5940.444932861901
 20
2879.199312259541
 30
0.0
 11
5967.787654935452
 21
2879.199312259541
 31
0.0
  0
LINE
  5
416F
330
1F
100
AcDbEntity
  8
圖層2中心線
 48
0.3
370
    18
100
AcDbLine
 10
5868.071337894344
 20
2885.199312259541
 30
0.0
 11
5975.084616747793
 21
2885.199312259541
 31
0.0
  0
CIRCLE
  5
4170
330
1F
100
AcDbEntity
  8
圖層3虛線
 48
0.3
100
AcDbCircle
 10
5920.444932861901
 20
2885.199312259541
 30
0.0
 40
10.0
  0
CIRCLE
  5
4171
330
1F
100
AcDbEntity
  8
圖層1輪廓線
  6
Continuous
100
AcDbCircle
 10
5920.444932861901
 20
2885.199312259541
 30
0.0
 40
14.0
  0
CIRCLE
  5
4172
330
1F
100
AcDbEntity
  8
圖層1輪廓線
  6
Continuous
100
AcDbCircle
 10
5920.444932861901
 20
2885.199312259541
 30
0.0
 40
6.0
  0
LWPOLYLINE
  5
4173
330
1F
100
AcDbEntity
  8
圖層1輪廓線
  6
Continuous
100
AcDbPolyline
 90
        6
 70
     1
 43
0.0
 10
5906.444932861901
 20
2877.116408490886
 10
5920.444932861901
 20
2869.033504722231
 10
5934.444932861903
 20
2877.116408490886
 10
5934.444932861903
 20
2893.282216028196
 10
5920.444932861901
 20
2901.365119796851
 10
5906.444932861901
 20
2893.282216028196
  0
LINE
  5
4174
330
1F
100
AcDbEntity
  8
AM_7
100
AcDbLine
 10
5920.444932861901
 20
2847.735466885724
 30
0.0
 11
5920.444932861901
 21
2996.859123264942
 31
0.0
1001
GENIUS_GENOBJ-N-CEN_13
1002
{
1000
OWNER
1000
GEN
1002
}
1001
GENIUS_GENODEF_13
1002
{
1000
HIER
1070
     0
1002
}
1002
{
1000
MANEDIT
1070
     0
1002
}
1002
{
1000
NOSEL
1070
     0
1002
}
1002
{
1000
BEHIND
1070
     0
1002
}
1002
{
1000
OTHER
1070
     0
1002
}
1002
{
1000
REACTOR
1002
}
1001
GENIUS_GENCEN_19
1002
{
1040
2.0
1002
}
  0
DIMENSION
  5
4175
330
1F
100
AcDbEntity
  8
AM_5
100
AcDbDimension
  2
*D18
 10
5940.444932861901
 20
2795.199312259541
 30
0.0
 11
6007.452806877648
 21
2795.199312259541
 31
0.0
 70
   160
  1
%%c<>
 71
     5
 42
20.0
  3
AM_ISO$0
100
AcDbAlignedDimension
 13
5900.444932861901
 23
2855.199312259541
 33
0.0
 14
5940.444932861901
 24
2855.199312259541
 34
0.0
100
AcDbRotatedDimension
1001
ACAD
1000
DSTYLE
1002
{
1070
    40
1040
1.0
1070
   144
1040
0.5
1002
}
  0
DIMENSION
  5
4176
330
1F
100
AcDbEntity
  8
AM_5
100
AcDbDimension
  2
*D19
 10
5813.102210788353
 20
2885.199312259541
 30
0.0
 11
5813.102210788351
 21
2799.785098697168
 31
0.0
 70
   160
 71
     5
 42
15.0
  3
AM_ISO$0
100
AcDbAlignedDimension
 13
5879.4449328619
 23
2855.199312259541
 33
0.0
 14
5868.071337894344
 24
2885.199312259541
 34
0.0
 50
90.0
100
AcDbRotatedDimension
1001
ACAD
1000
DSTYLE
1002
{
1070
   144
1040
0.5
1002
}
  0
DIMENSION
  5
4177
330
1F
100
AcDbEntity
  8
AM_5
100
AcDbDimension
  2
*D20
 10
5763.102210788353
 20
2915.19931225954
 30
0.0
 11
5747.102210788352
 21
2885.199312259541
 31
0.0
 70
    32
 71
     5
 42
30.0
  3
AM_ISO$0
100
AcDbAlignedDimension
 13
5879.4449328619
 23
2855.199312259541
 33
0.0
 14
5900.444932861901
 24
2915.19931225954
 34
0.0
 50
90.0
100
AcDbRotatedDimension
1001
ACAD
1000
DSTYLE
1002
{
1070
   144
1040
0.5
1002
}
  0
INSERT
  5
4178
330
1F
100
AcDbEntity
  8
AM_5
100
AcDbBlockReference
  2
*S28
 10
0.0
 20
0.0
 30
0.0
  0
TEXT
  5
4179
330
1F
100
AcDbEntity
  8
AM_5
100
AcDbText
 10
6008.856127145165
 20
2926.091055942741
 30
0.0
 40
20.0
  1
3-M10
100
AcDbText
  0
LINE
  5
417A
330
1F
100
AcDbEntity
  8
圖層1輪廓線
100
AcDbLine
 10
6467.049331444737
 20
2894.076843504898
 30
0.0
 11
6467.049331444737
 21
2874.076843504898
 31
0.0
  0
LINE
  5
417B
330
1F
100
AcDbEntity
  8
圖層1輪廓線
100
AcDbLine
 10
6417.049331444736
 20
2874.076843504898
 30
0.0
 11
6417.049331444736
 21
2894.076843504898
 31
0.0
  0
LINE
  5
417C
330
1F
100
AcDbEntity
  8
圖層1輪廓線
100
AcDbLine
 10
6467.049331444737
 20
2874.076843504898
 30
0.0
 11
6417.049331444736
 21
2874.076843504898
 31
0.0
  0
LINE
  5
417D
330
1F
100
AcDbEntity
  8
圖層1輪廓線
100
AcDbLine
 10
6417.049331444736
 20
2894.076843504898
 30
0.0
 11
6427.049331444736
 21
2894.076843504898
 31
0.0
  0
LINE
  5
417E
330
1F
100
AcDbEntity
  8
圖層1輪廓線
100
AcDbLine
 10
6427.049331444736
 20
2894.076843504898
 30
0.0
 11
6427.049331444736
 21
2916.076843504898
 31
0.0
  0
LINE
  5
417F
330
1F
100
AcDbEntity
  8
圖層1輪廓線
100
AcDbLine
 10
6457.049331444736
 20
2916.076843504898
 30
0.0
 11
6457.049331444736
 21
2894.076843504898
 31
0.0
  0
LINE
  5
4180
330
1F
100
AcDbEntity
  8
圖層1輪廓線
100
AcDbLine
 10
6457.049331444736
 20
2894.076843504898
 30
0.0
 11
6467.049331444737
 21
2894.076843504898
 31
0.0
  0
LINE
  5
4181
330
1F
100
AcDbEntity
  8
0
100
AcDbLine
 10
6427.049331444736
 20
2916.076843504898
 30
0.0
 11
6407.109329223323
 21
2916.076843504898
 31
0.0
  0
LINE
  5
4182
330
1F
100
AcDbEntity
  8
0
100
AcDbLine
 10
6457.049331444736
 20
2916.076843504898
 30
0.0
 11
6476.989333666151
 21
2916.076843504898
 31
0.0
  0
LINE
  5
4183
330
1F
100
AcDbEntity
  8
AM_7
100
AcDbLine
 10
6442.049331444737
 20
2864.828811242149
 30
0.0
 11
6442.049331444737
 21
2927.312179706089
 31
0.0
1001
GENIUS_GENODEF_13
1002
{
1000
HIER
1070
     0
1002
}
1002
{
1000
MANEDIT
1070
     0
1002
}
1002
{
1000
NOSEL
1070
     0
1002
}
1002
{
1000
BEHIND
1070
     0
1002
}
1002
{
1000
OTHER
1070
     0
1002
}
1002
{
1000
REACTOR
1002
}
1001
GENIUS_GENOBJ-N-CEN_13
1002
{
1000
OWNER
1000
GEN
1002
}
1001
GENIUS_GENCEN_19
1002
{
1040
2.0
1002
}
  0
DIMENSION
  5
4184
330
1F
100
AcDbEntity
  8
AM_5
100
AcDbDimension
  2
*D21
 10
6467.049331444737
 20
2814.076842504898
 30
0.0
 11
6442.049331444737
 21
2830.078811008835
 31
0.0
 70
    32
 71
     5
 42
25.0
  3
AM_ISO$0
100
AcDbAlignedDimension
 13
6417.049331444736
 23
2874.076843504898
 33
0.0
 14
6467.049331444737
 24
2874.076843504898
 34
0.0
100
AcDbRotatedDimension
1001
ACAD
1000
DSTYLE
1002
{
1070
   144
1040
0.5
1002
}
  0
DIMENSION
  5
4185
330
1F
100
AcDbEntity
  8
AM_5
100
AcDbDimension
  2
*D22
 10
6457.049331444736
 20
2966.076844504898
 30
0.0
 11
6442.049331444737
 21
2966.076844504898
 31
0.0
 70
   160
 71
     5
 42
15.0
  3
AM_ISO$0
100
AcDbAlignedDimension
 13
6427.049331444736
 23
2916.076843504898
 33
0.0
 14
6457.049331444736
 24
2916.076843504898
 34
0.0
100
AcDbRotatedDimension
1001
ACAD
1000
DSTYLE
1002
{
1070
   144
1040
0.5
1002
}
  0
DIMENSION
  5
4186
330
1F
100
AcDbEntity
  8
AM_5
100
AcDbDimension
  2
*D23
 10
6536.294528999166
 20
2894.076843504898
 30
0.0
 11
6536.294528999164
 21
2969.076843504899
 31
0.0
 70
   160
 71
     5
 42
11.0
  3
AM_ISO$0
100
AcDbAlignedDimension
 13
6476.989333666151
 23
2916.076843504898
 33
0.0
 14
6467.049331444737
 24
2894.076843504898
 34
0.0
 50
90.0
100
AcDbRotatedDimension
1001
ACAD
1000
DSTYLE
1002
{
1070
   144
1040
0.5
1002
}
  0
DIMENSION
  5
4187
330
1F
100
AcDbEntity
  8
AM_5
100
AcDbDimension
  2
*D24
 10
6357.049331444738
 20
2874.076843504898
 30
0.0
 11
6357.049331444737
 21
2884.076843504899
 31
0.0
 70
   160
 71
     5
 42
10.0
  3
AM_ISO$0
100
AcDbAlignedDimension
 13
6417.049331444736
 23
2894.076843504898
 33
0.0
 14
6417.049331444736
 24
2874.076843504898
 34
0.0
 50
90.0
100
AcDbRotatedDimension
1001
ACAD
1000
DSTYLE
1002
{
1070
   144
1040
0.5
1002
}
  0
TEXT
  5
4188
330
1F
100
AcDbEntity
  8
AM_5
 62
     0
100
AcDbText
 10
5884.444816019541
 20
2724.943269668742
 30
0.0
 40
30.0
  1
A 詳細
100
AcDbText
  0
TEXT
  5
4189
330
1F
100
AcDbEntity
  8
AM_5
 62
     0
100
AcDbText
 10
6405.016985477759
 20
2724.943269668742
 30
0.0
 40
30.0
  1
B 詳細
100
AcDbText
  0
CIRCLE
  5
42AB
330
1F
100
AcDbEntity
  8
0
 62
     1
100
AcDbCircle
 10
5920.444932861901
 20
2037.983602689396
 30
0.0
 40
47.13684785527402
  0
TEXT
  5
42AC
330
1F
100
AcDbEntity
  8
AM_5
 62
     0
100
AcDbText
 10
5853.967329723221
 20
1999.237386997503
 30
0.0
 40
20.0
  1
A
100
AcDbText
  0
CIRCLE
  5
42AD
330
1F
100
AcDbEntity
  8
0
 62
     1
100
AcDbCircle
 10
6443.84263188859
 20
1812.741257058222
 30
0.0
 40
34.84724155408339
  0
TEXT
  5
42AE
330
1F
100
AcDbEntity
  8
AM_5
 62
     0
100
AcDbText
 10
6388.872417114151
 20
1827.057503454886
 30
0.0
 40
20.0
  1
B
100
AcDbText
  0
DIMENSION
  5
741A
330
1F
100
AcDbEntity
  8
AM_5
100
AcDbDimension
  2
*D25
 10
5985.444932861901
 20
2103.955586054521
 30
0.0
 11
5813.437058846154
 21
2103.955586054521
 31
0.0
 70
   160
 71
     5
 42
130.0
  3
AM_ISO$0
100
AcDbAlignedDimension
 13
5855.444932861901
 23
2123.891481149548
 33
0.0
 14
5985.444932861901
 24
2123.891481149548
 34
0.0
100
AcDbRotatedDimension
1001
ACAD
1000
DSTYLE
1002
{
1070
    40
1040
1.0
1070
   144
1040
1.0
1002
}
  0
LINE
  5
76FF
330
1F
100
AcDbEntity
  8
圖層4尺寸線
100
AcDbLine
 10
6056.444932861902
 20
2219.891481149548
 30
0.0
 11
6018.444932861902
 21
2219.891481149548
 31
0.0
  0
LINE
  5
7700
330
1F
100
AcDbEntity
  8
圖層4尺寸線
100
AcDbLine
 10
6056.444932861902
 20
2231.891481149548
 30
0.0
 11
6018.444932861902
 21
2231.891481149548
 31
0.0
  0
LINE
  5
7701
330
1F
100
AcDbEntity
  8
圖層4尺寸線
100
AcDbLine
 10
6062.444932861902
 20
2210.891481149548
 30
0.0
 11
6012.444932861902
 21
2210.891481149548
 31
0.0
  0
LINE
  5
7702
330
1F
100
AcDbEntity
  8
圖層4尺寸線
100
AcDbLine
 10
6062.444932861902
 20
2235.891481149548
 30
0.0
 11
6012.444932861902
 21
2235.891481149548
 31
0.0
  0
TEXT
  5
7703
330
1F
100
AcDbEntity
  8
圖層4尺寸線
100
AcDbText
 10
6001.480299132702
 20
2127.90133926986
 30
0.0
 40
5.0
  1
電源開關       緊急停止
  7
WIN
 72
     4
 11
6038.01372936526
 21
2130.139711362884
 31
0.0
100
AcDbText
  0
LWPOLYLINE
  5
7704
330
1F
100
AcDbEntity
  8
圖層4尺寸線
100
AcDbPolyline
 90
        4
 70
     1
 43
0.0
 10
5994.146017997331
 20
2136.613269695332
 10
6081.88144073319
 20
2136.613269695332
 10
6081.88144073319
 20
2123.666153030435
 10
5994.146017997331
 20
2123.666153030435
  0
LINE
  5
7705
330
1F
100
AcDbEntity
  8
圖層4尺寸線
100
AcDbLine
 10
6027.037126501356
 20
2156.585850620168
 30
0.0
 11
6035.432084030048
 21
2165.127426992484
 31
0.0
  0
LINE
  5
7706
330
1F
100
AcDbEntity
  8
圖層4尺寸線
100
AcDbLine
 10
6019.444932861902
 20
2142.891481149548
 30
0.0
 11
6055.444932861902
 21
2142.891481149548
 31
0.0
  0
LINE
  5
7707
330
1F
100
AcDbEntity
  8
圖層4尺寸線
100
AcDbLine
 10
6019.444932861902
 20
2190.891481149548
 30
0.0
 11
6055.444932861902
 21
2190.891481149548
 31
0.0
  0
CIRCLE
  5
7708
330
1F
100
AcDbEntity
  8
圖層4尺寸線
100
AcDbCircle
 10
6037.444932861902
 20
2169.891481149548
 30
0.0
 40
5.0
  0
CIRCLE
  5
7709
330
1F
100
AcDbEntity
  8
圖層4尺寸線
100
AcDbCircle
 10
6037.444932861902
 20
2169.891481149548
 30
0.0
 40
17.0
  0
CIRCLE
  5
770A
330
1F
100
AcDbEntity
  8
圖層4尺寸線
100
AcDbCircle
 10
6037.444932861902
 20
2255.891481149548
 30
0.0
 40
5.0
  0
LINE
  5
770B
330
1F
100
AcDbEntity
  8
圖層4尺寸線
100
AcDbLine
 10
6015.444932861902
 20
2194.891481149548
 30
0.0
 11
6059.444932861902
 21
2194.891481149548
 31
0.0
  0
LINE
  5
770C
330
1F
100
AcDbEntity
  8
圖層4尺寸線
100
AcDbLine
 10
6015.444932861902
 20
2138.891481149548
 30
0.0
 11
6059.444932861902
 21
2138.891481149548
 31
0.0
  0
LINE
  5
770D
330
1F
100
AcDbEntity
  8
圖層4尺寸線
100
AcDbLine
 10
6089.444932861902
 20
2275.891481149548
 30
0.0
 11
5985.444932861902
 21
2275.891481149548
 31
0.0
  0
LINE
  5
770E
330
1F
100
AcDbEntity
  8
圖層4尺寸線
100
AcDbLine
 10
5985.444932861902
 20
2073.891481149548
 30
0.0
 11
6089.444932861902
 21
2073.891481149548
 31
0.0
  0
LINE
  5
770F
330
1F
100
AcDbEntity
  8
圖層4尺寸線
100
AcDbLine
 10
6019.444932861902
 20
2142.891481149548
 30
0.0
 11
6019.444932861902
 21
2190.891481149548
 31
0.0
  0
LINE
  5
7710
330
1F
100
AcDbEntity
  8
圖層4尺寸線
100
AcDbLine
 10
6015.444932861902
 20
2138.891481149548
 30
0.0
 11
6015.444932861902
 21
2194.891481149548
 31
0.0
  0
LINE
  5
7711
330
1F
100
AcDbEntity
  8
圖層4尺寸線
100
AcDbLine
 10
5985.444932861902
 20
2275.891481149548
 30
0.0
 11
5985.444932861902
 21
2073.891481149548
 31
0.0
  0
LINE
  5
7712
330
1F
100
AcDbEntity
  8
圖層4尺寸線
100
AcDbLine
 10
6018.360970826721
 20
2104.596266640127
 30
0.0
 11
6019.332983481661
 21
2100.574580833621
 31
0.0
  0
LINE
  5
7713
330
1F
100
AcDbEntity
  8
圖層4尺寸線
100
AcDbLine
 10
6012.528894897083
 20
2104.596266640127
 30
0.0
 11
6011.556882242143
 21
2100.574580833621
 31
0.0
  0
CIRCLE
  5
7714
330
1F
100
AcDbEntity
  8
圖層4尺寸線
100
AcDbCircle
 10
6015.444932861902
 20
2099.634866846183
 30
0.0
 40
4.0
  0
ARC
  5
7715
330
1F
100
AcDbEntity
  8
圖層4尺寸線
100
AcDbCircle
 10
6015.444932861902
 20
2103.891481149548
 30
0.0
 40
12.0
100
AcDbArc
 50
131.8103148957983
 51
228.1896851042017
  0
ARC
  5
7716
330
1F
100
AcDbEntity
  8
圖層4尺寸線
100
AcDbCircle
 10
6015.444932861902
 20
2103.891481149548
 30
0.0
 40
12.0
100
AcDbArc
 50
311.8103148957982
 51
48.18968510420172
  0
LWPOLYLINE
  5
7717
330
1F
100
AcDbEntity
  8
圖層4尺寸線
100
AcDbPolyline
 90
        7
 70
     0
 43
0.0
 10
6019.042054411803
 20
2097.885376476037
 10
6022.444932861902
 20
2099.850029265221
 10
6022.444932861902
 20
2107.932933033875
 10
6015.444932861902
 20
2111.974384918203
 10
6008.444932861902
 20
2107.932933033875
 10
6008.444932861902
 20
2099.850029265221
 10
6011.847811312001
 20
2097.885376476037
  0
ARC
  5
7718
330
1F
100
AcDbEntity
  8
圖層4尺寸線
100
AcDbCircle
 10
6015.444932861902
 20
2103.891481149548
 30
0.0
 40
7.0
100
AcDbArc
 50
300.9291072523146
 51
239.0708927476854
  0
ARC
  5
7719
330
1F
100
AcDbEntity
  8
圖層4尺寸線
100
AcDbCircle
 10
6015.444932861902
 20
2103.891481149548
 30
0.0
 40
6.0
100
AcDbArc
 50
311.7321013757197
 51
228.2678986242803
  0
ARC
  5
771A
330
1F
100
AcDbEntity
  8
圖層4尺寸線
100
AcDbCircle
 10
5993.444932861902
 20
2086.891481149548
 30
0.0
 40
2.0
100
AcDbArc
 50
240.0000000000027
 51
299.9999999999973
  0
ARC
  5
771B
330
1F
100
AcDbEntity
  8
圖層4尺寸線
100
AcDbCircle
 10
5993.444932861902
 20
2086.891481149548
 30
0.0
 40
2.0
100
AcDbArc
 50
60.00000000000272
 51
119.9999999999973
  0
CIRCLE
  5
771C
330
1F
100
AcDbEntity
  8
圖層4尺寸線
100
AcDbCircle
 10
5993.444932861902
 20
2086.891481149548
 30
0.0
 40
4.0
  0
LINE
  5
771D
330
1F
100
AcDbEntity
  8
圖層4尺寸線
100
AcDbLine
 10
5992.444932861902
 20
2087.891481149548
 30
0.0
 11
5992.444932861902
 21
2088.623531957117
 31
0.0
  0
LINE
  5
771E
330
1F
100
AcDbEntity
  8
圖層4尺寸線
100
AcDbLine
 10
5992.444932861902
 20
2085.159430341979
 30
0.0
 11
5992.444932861902
 21
2085.891481149548
 31
0.0
  0
LINE
  5
771F
330
1F
100
AcDbEntity
  8
圖層4尺寸線
100
AcDbLine
 10
5992.444932861902
 20
2087.891481149548
 30
0.0
 11
5990.090830895653
 21
2087.891481149548
 31
0.0
  0
LINE
  5
7720
330
1F
100
AcDbEntity
  8
圖層4尺寸線
100
AcDbLine
 10
5992.444932861902
 20
2085.891481149548
 30
0.0
 11
5990.090830895653
 21
2085.891481149548
 31
0.0
  0
ARC
  5
7721
330
1F
100
AcDbEntity
  8
圖層4尺寸線
100
AcDbCircle
 10
5993.444932861902
 20
2086.891481149548
 30
0.0
 40
3.5
100
AcDbArc
 50
163.3984504009902
 51
196.6015495990097
  0
TEXT
  5
7722
330
1F
100
AcDbEntity
  8
圖層4尺寸線
100
AcDbText
 10
6010.317025885157
 20
2090.094969521641
 30
0.0
 40
4.0
  1
OFF
  7
WIN
 72
     4
 11
6015.444932861902
 21
2091.891481149548
 31
0.0
100
AcDbText
  0
LINE
  5
7723
330
1F
100
AcDbEntity
  8
圖層4尺寸線
100
AcDbLine
 10
6010.444932861902
 20
2086.891481149548
 30
0.0
 11
6020.444932861902
 21
2086.891481149548
 31
0.0
  0
LINE
  5
7724
330
1F
100
AcDbEntity
  8
圖層4尺寸線
100
AcDbLine
 10
6007.444932861902
 20
2093.693442122362
 30
0.0
 11
6007.444932861902
 21
2089.891481149548
 31
0.0
  0
LINE
  5
7725
330
1F
100
AcDbEntity
  8
圖層4尺寸線
100
AcDbLine
 10
5994.444932861902
 20
2087.891481149548
 30
0.0
 11
5994.444932861902
 21
2088.623531957117
 31
0.0
  0
LINE
  5
7726
330
1F
100
AcDbEntity
  8
圖層4尺寸線
100
AcDbLine
 10
5994.444932861902
 20
2085.159430341979
 30
0.0
 11
5994.444932861902
 21
2085.891481149548
 31
0.0
  0
LINE
  5
7727
330
1F
100
AcDbEntity
  8
圖層4尺寸線
100
AcDbLine
 10
5996.799034828152
 20
2085.891481149548
 30
0.0
 11
5994.444932861902
 21
2085.891481149548
 31
0.0
  0
LINE
  5
7728
330
1F
100
AcDbEntity
  8
圖層4尺寸線
100
AcDbLine
 10
5996.799034828152
 20
2087.891481149548
 30
0.0
 11
5994.444932861902
 21
2087.891481149548
 31
0.0
  0
ARC
  5
7729
330
1F
100
AcDbEntity
  8
圖層4尺寸線
100
AcDbCircle
 10
5993.444932861902
 20
2086.891481149548
 30
0.0
 40
3.5
100
AcDbArc
 50
343.3984504009902
 51
16.60154959900975
  0
ARC
  5
772A
330
1F
100
AcDbEntity
  8
圖層4尺寸線
100
AcDbCircle
 10
6010.444932861902
 20
2089.891481149548
 30
0.0
 40
3.0
100
AcDbArc
 50
180.0
 51
270.0
  0
ARC
  5
772B
330
1F
100
AcDbEntity
  8
圖層4尺寸線
100
AcDbCircle
 10
6004.444932861902
 20
2093.693442122362
 30
0.0
 40
3.0
100
AcDbArc
 50
0.0
 51
42.83342806604767
  0
ARC
  5
772C
330
1F
100
AcDbEntity
  8
圖層4尺寸線
100
AcDbCircle
 10
6004.444932861902
 20
2093.693442122362
 30
0.0
 40
3.0
100
AcDbArc
 50
0.0
 51
42.83342806604767
  0
LINE
  5
772D
330
1F
100
AcDbEntity
  8
圖層4尺寸線
100
AcDbLine
 10
6023.444932861902
 20
2093.693442122362
 30
0.0
 11
6023.444932861902
 21
2089.891481149548
 31
0.0
  0
ARC
  5
772E
330
1F
100
AcDbEntity
  8
圖層4尺寸線
100
AcDbCircle
 10
6020.444932861902
 20
2089.891481149548
 30
0.0
 40
3.0
100
AcDbArc
 50
270.0
 51
0.0
  0
ARC
  5
772F
330
1F
100
AcDbEntity
  8
圖層4尺寸線
100
AcDbCircle
 10
6026.444932861902
 20
2093.693442122362
 30
0.0
 40
3.0
100
AcDbArc
 50
137.1665719339523
 51
180.0
  0
ARC
  5
7730
330
1F
100
AcDbEntity
  8
圖層4尺寸線
100
AcDbCircle
 10
6020.444932861902
 20
2117.891481149548
 30
0.0
 40
3.0
100
AcDbArc
 50
0.0
 51
90.0
  0
ARC
  5
7731
330
1F
100
AcDbEntity
  8
圖層4尺寸線
100
AcDbCircle
 10
6010.444932861902
 20
2117.891481149548
 30
0.0
 40
3.0
100
AcDbArc
 50
90.0
 51
180.0
  0
TEXT
  5
7732
330
1F
100
AcDbEntity
  8
圖層4尺寸線
100
AcDbText
 10
6011.410049140971
 20
2114.094969521641
 30
0.0
 40
4.0
  1
ON
  7
WIN
 72
     4
 11
6015.444932861902
 21
2115.891481149548
 31
0.0
100
AcDbText
  0
LINE
  5
7733
330
1F
100
AcDbEntity
  8
圖層4尺寸線
100
AcDbLine
 10
6010.444932861902
 20
2120.891481149548
 30
0.0
 11
6020.444932861902
 21
2120.891481149548
 31
0.0
  0
ARC
  5
7734
330
1F
100
AcDbEntity
  8
圖層4尺寸線
100
AcDbCircle
 10
6015.444932861902
 20
2103.891481149548
 30
0.0
 40
3.0
100
AcDbArc
 50
13.58740794755098
 51
166.412592052449
  0
ARC
  5
7735
330
1F
100
AcDbEntity
  8
圖層4尺寸線
100
AcDbCircle
 10
6004.444932861902
 20
2114.089520176734
 30
0.0
 40
3.0
100
AcDbArc
 50
317.1665719339523
 51
0.0
  0
LINE
  5
7736
330
1F
100
AcDbEntity
  8
圖層4尺寸線
100
AcDbLine
 10
6007.444932861902
 20
2117.891481149548
 30
0.0
 11
6007.444932861902
 21
2114.089520176734
 31
0.0
  0
ARC
  5
7737
330
1F
100
AcDbEntity
  8
圖層4尺寸線
100
AcDbCircle
 10
6026.444932861902
 20
2114.089520176734
 30
0.0
 40
3.0
100
AcDbArc
 50
180.0
 51
222.8334280660476
  0
LINE
  5
7738
330
1F
100
AcDbEntity
  8
圖層4尺寸線
100
AcDbLine
 10
6023.444932861902
 20
2117.891481149548
 30
0.0
 11
6023.444932861902
 21
2114.089520176734
 31
0.0
  0
LINE
  5
7739
330
1F
100
AcDbEntity
  8
圖層4尺寸線
100
AcDbLine
 10
6033.171903276554
 20
2166.739045541105
 30
0.0
 11
6027.037126501356
 21
2156.585850620168
 31
0.0
  0
LWPOLYLINE
  5
773A
330
1F
100
AcDbEntity
  8
圖層4尺寸線
100
AcDbPolyline
 90
        4
 70
     1
 43
0.0
 10
6021.444932861903
 20
2144.891481149548
 10
6027.444932861902
 20
2144.891481149548
 10
6027.444932861902
 20
2150.891481149548
 10
6021.444932861903
 20
2150.891481149548
  0
CIRCLE
  5
773B
330
1F
100
AcDbEntity
  8
圖層4尺寸線
100
AcDbCircle
 10
5993.444932861902
 20
2262.891481149548
 30
0.0
 40
4.0
  0
LINE
  5
773C
330
1F
100
AcDbEntity
  8
圖層4尺寸線
100
AcDbLine
 10
6018.444932861902
 20
2231.891481149548
 30
0.0
 11
6018.444932861902
 21
2219.891481149548
 31
0.0
  0
LINE
  5
773D
330
1F
100
AcDbEntity
  8
圖層4尺寸線
100
AcDbLine
 10
6012.444932861902
 20
2235.891481149548
 30
0.0
 11
6012.444932861902
 21
2210.891481149548
 31
0.0
  0
ARC
  5
773E
330
1F
100
AcDbEntity
  8
圖層4尺寸線
100
AcDbCircle
 10
5993.444932861902
 20
2262.891481149548
 30
0.0
 40
2.0
100
AcDbArc
 50
60.00000000000272
 51
119.9999999999973
  0
ARC
  5
773F
330
1F
100
AcDbEntity
  8
圖層4尺寸線
100
AcDbCircle
 10
5993.444932861902
 20
2262.891481149548
 30
0.0
 40
2.0
100
AcDbArc
 50
240.0000000000027
 51
299.9999999999973
  0
ARC
  5
7740
330
1F
100
AcDbEntity
  8
圖層4尺寸線
100
AcDbCircle
 10
5993.444932861902
 20
2262.891481149548
 30
0.0
 40
3.5
100
AcDbArc
 50
163.3984504009902
 51
196.6015495990097
  0
LINE
  5
7741
330
1F
100
AcDbEntity
  8
圖層4尺寸線
100
AcDbLine
 10
5992.444932861902
 20
2261.891481149548
 30
0.0
 11
5992.444932861902
 21
2261.159430341979
 31
0.0
  0
LINE
  5
7742
330
1F
100
AcDbEntity
  8
圖層4尺寸線
100
AcDbLine
 10
5992.444932861902
 20
2261.891481149548
 30
0.0
 11
5990.090830895653
 21
2261.891481149548
 31
0.0
  0
LINE
  5
7743
330
1F
100
AcDbEntity
  8
圖層4尺寸線
100
AcDbLine
 10
5992.444932861902
 20
2263.891481149548
 30
0.0
 11
5990.090830895653
 21
2263.891481149548
 31
0.0
  0
LINE
  5
7744
330
1F
100
AcDbEntity
  8
圖層4尺寸線
100
AcDbLine
 10
5992.444932861902
 20
2264.623531957117
 30
0.0
 11
5992.444932861902
 21
2263.891481149548
 31
0.0
  0
ARC
  5
7745
330
1F
100
AcDbEntity
  8
圖層4尺寸線
100
AcDbCircle
 10
5993.444932861902
 20
2262.891481149548
 30
0.0
 40
3.5
100
AcDbArc
 50
343.3984504009902
 51
16.60154959900975
  0
LINE
  5
7746
330
1F
100
AcDbEntity
  8
圖層4尺寸線
100
AcDbLine
 10
5994.444932861902
 20
2261.891481149548
 30
0.0
 11
5994.444932861902
 21
2261.159430341979
 31
0.0
  0
LINE
  5
7747
330
1F
100
AcDbEntity
  8
圖層4尺寸線
100
AcDbLine
 10
5994.444932861902
 20
2264.623531957117
 30
0.0
 11
5994.444932861902
 21
2263.891481149548
 31
0.0
  0
LINE
  5
7748
330
1F
100
AcDbEntity
  8
圖層4尺寸線
100
AcDbLine
 10
5996.799034828152
 20
2261.891481149548
 30
0.0
 11
5994.444932861902
 21
2261.891481149548
 31
0.0
  0
LINE
  5
7749
330
1F
100
AcDbEntity
  8
圖層4尺寸線
100
AcDbLine
 10
5996.799034828152
 20
2263.891481149548
 30
0.0
 11
5994.444932861902
 21
2263.891481149548
 31
0.0
  0
LINE
  5
774A
330
1F
100
AcDbEntity
  8
圖層4尺寸線
100
AcDbLine
 10
6055.444932861902
 20
2142.891481149548
 30
0.0
 11
6055.444932861902
 21
2190.891481149548
 31
0.0
  0
LINE
  5
774B
330
1F
100
AcDbEntity
  8
圖層4尺寸線
100
AcDbLine
 10
6059.444932861902
 20
2138.891481149548
 30
0.0
 11
6059.444932861902
 21
2194.891481149548
 31
0.0
  0
LINE
  5
774C
330
1F
100
AcDbEntity
  8
圖層4尺寸線
100
AcDbLine
 10
6089.444932861902
 20
2073.891481149548
 30
0.0
 11
6089.444932861902
 21
2275.891481149548
 31
0.0
  0
LINE
  5
774D
330
1F
100
AcDbEntity
  8
圖層4尺寸線
100
AcDbLine
 10
6059.444932861902
 20
2100.891481149548
 30
0.0
 11
6059.444932861902
 21
2106.891481149548
 31
0.0
  0
CIRCLE
  5
774E
330
1F
100
AcDbEntity
  8
圖層4尺寸線
100
AcDbCircle
 10
6059.444932861902
 20
2103.891481149548
 30
0.0
 40
8.110805357093454
  0
CIRCLE
  5
774F
330
1F
100
AcDbEntity
  8
圖層4尺寸線
100
AcDbCircle
 10
6059.444932861902
 20
2103.891481149548
 30
0.0
 40
7.0
  0
LINE
  5
7750
330
1F
100
AcDbEntity
  8
圖層4尺寸線
100
AcDbLine
 10
6082.444932861903
 20
2085.891481149548
 30
0.0
 11
6084.799034828152
 21
2085.891481149548
 31
0.0
  0
LINE
  5
7751
330
1F
100
AcDbEntity
  8
圖層4尺寸線
100
AcDbLine
 10
6082.444932861903
 20
2087.891481149548
 30
0.0
 11
6084.799034828152
 21
2087.891481149548
 31
0.0
  0
CIRCLE
  5
7752
330
1F
100
AcDbEntity
  8
圖層4尺寸線
100
AcDbCircle
 10
6081.444932861902
 20
2086.891481149548
 30
0.0
 40
4.0
  0
LINE
  5
7753
330
1F
100
AcDbEntity
  8
圖層4尺寸線
100
AcDbLine
 10
6082.444932861903
 20
2085.159430341979
 30
0.0
 11
6082.444932861903
 21
2085.891481149548
 31
0.0
  0
LINE
  5
7754
330
1F
100
AcDbEntity
  8
圖層4尺寸線
100
AcDbLine
 10
6082.444932861903
 20
2087.891481149548
 30
0.0
 11
6082.444932861903
 21
2088.623531957117
 31
0.0
  0
ARC
  5
7755
330
1F
100
AcDbEntity
  8
圖層4尺寸線
100
AcDbCircle
 10
6081.444932861902
 20
2086.891481149548
 30
0.0
 40
3.5
100
AcDbArc
 50
163.3984504009902
 51
196.6015495990097
  0
LINE
  5
7756
330
1F
100
AcDbEntity
  8
圖層4尺寸線
100
AcDbLine
 10
6078.090830895653
 20
2087.891481149548
 30
0.0
 11
6080.444932861902
 21
2087.891481149548
 31
0.0
  0
LINE
  5
7757
330
1F
100
AcDbEntity
  8
圖層4尺寸線
100
AcDbLine
 10
6078.090830895653
 20
2085.891481149548
 30
0.0
 11
6080.444932861902
 21
2085.891481149548
 31
0.0
  0
LINE
  5
7758
330
1F
100
AcDbEntity
  8
圖層4尺寸線
100
AcDbLine
 10
6080.444932861902
 20
2085.159430341979
 30
0.0
 11
6080.444932861902
 21
2085.891481149548
 31
0.0
  0
LINE
  5
7759
330
1F
100
AcDbEntity
  8
圖層4尺寸線
100
AcDbLine
 10
6080.444932861902
 20
2087.891481149548
 30
0.0
 11
6080.444932861902
 21
2088.623531957117
 31
0.0
  0
ARC
  5
775A
330
1F
100
AcDbEntity
  8
圖層4尺寸線
100
AcDbCircle
 10
6081.444932861902
 20
2086.891481149548
 30
0.0
 40
2.0
100
AcDbArc
 50
60.00000000000272
 51
119.9999999999973
  0
ARC
  5
775B
330
1F
100
AcDbEntity
  8
圖層4尺寸線
100
AcDbCircle
 10
6081.444932861902
 20
2086.891481149548
 30
0.0
 40
2.0
100
AcDbArc
 50
240.0000000000027
 51
299.9999999999973
  0
ARC
  5
775C
330
1F
100
AcDbEntity
  8
圖層4尺寸線
100
AcDbCircle
 10
6081.444932861902
 20
2086.891481149548
 30
0.0
 40
3.5
100
AcDbArc
 50
343.3984504009902
 51
16.60154959900975
  0
LINE
  5
775D
330
1F
100
AcDbEntity
  8
圖層4尺寸線
100
AcDbLine
 10
6056.444932861902
 20
2103.891481149548
 30
0.0
 11
6062.444932861902
 21
2103.891481149548
 31
0.0
  0
LWPOLYLINE
  5
775E
330
1F
100
AcDbEntity
  8
圖層4尺寸線
100
AcDbPolyline
 90
        4
 70
     1
 43
0.0
 10
6047.444932861902
 20
2144.891481149548
 10
6053.444932861902
 20
2144.891481149548
 10
6053.444932861902
 20
2150.891481149548
 10
6047.444932861902
 20
2150.891481149548
  0
CIRCLE
  5
775F
330
1F
100
AcDbEntity
  8
圖層4尺寸線
100
AcDbCircle
 10
6081.444932861902
 20
2262.891481149548
 30
0.0
 40
4.0
  0
LINE
  5
7760
330
1F
100
AcDbEntity
  8
圖層4尺寸線
100
AcDbLine
 10
6056.444932861902
 20
2219.891481149548
 30
0.0
 11
6056.444932861902
 21
2231.891481149548
 31
0.0
  0
LINE
  5
7761
330
1F
100
AcDbEntity
  8
圖層4尺寸線
100
AcDbLine
 10
6062.444932861902
 20
2210.891481149548
 30
0.0
 11
6062.444932861902
 21
2235.891481149548
 31
0.0
  0
LINE
  5
7762
330
1F
100
AcDbEntity
  8
圖層4尺寸線
100
AcDbLine
 10
6050.475747270882
 20
2214.107237672386
 30
0.0
 11
6058.769247560675
 21
2214.107237672386
 31
0.0
  0
LINE
  5
7763
330
1F
100
AcDbEntity
  8
圖層4尺寸線
100
AcDbLine
 10
6050.475747270882
 20
2216.107237672385
 30
0.0
 11
6058.769247560675
 21
2216.107237672385
 31
0.0
  0
LINE
  5
7764
330
1F
100
AcDbEntity
  8
圖層4尺寸線
100
AcDbLine
 10
6060.850910368635
 20
2211.891481149548
 30
0.0
 11
6048.189425396135
 21
2211.891481149548
 31
0.0
  0
LINE
  5
7765
330
1F
100
AcDbEntity
  8
圖層4尺寸線
100
AcDbLine
 10
6048.189425396135
 20
2218.322994195223
 30
0.0
 11
6060.850910368634
 21
2218.322994195223
 31
0.0
  0
LINE
  5
7766
330
1F
100
AcDbEntity
  8
圖層4尺寸線
100
AcDbLine
 10
6051.626029218677
 20
2213.583049836382
 30
0.0
 11
6051.626029218677
 21
2212.583049836382
 31
0.0
  0
ARC
  5
7767
330
1F
100
AcDbEntity
  8
圖層4尺寸線
100
AcDbCircle
 10
6051.626029218677
 20
2215.107237672386
 30
0.0
 40
1.52418783600342
100
AcDbArc
 50
90.0
 51
270.0
  0
ARC
  5
7768
330
1F
100
AcDbEntity
  8
圖層4尺寸線
100
AcDbCircle
 10
6051.626029218677
 20
2215.107237672386
 30
0.0
 40
2.52418783600342
100
AcDbArc
 50
90.0
 51
270.0
  0
LINE
  5
7769
330
1F
100
AcDbEntity
  8
圖層4尺寸線
100
AcDbLine
 10
6051.626029218677
 20
2217.631425508389
 30
0.0
 11
6051.626029218677
 21
2216.631425508389
 31
0.0
  0
LINE
  5
776A
330
1F
100
AcDbEntity
  8
圖層4尺寸線
100
AcDbLine
 10
6048.189425396135
 20
2211.891481149548
 30
0.0
 11
6048.189425396135
 21
2218.322994195223
 31
0.0
  0
LINE
  5
776B
330
1F
100
AcDbEntity
  8
圖層4尺寸線
100
AcDbLine
 10
6057.618965612881
 20
2213.583049836382
 30
0.0
 11
6057.618965612881
 21
2212.583049836382
 31
0.0
  0
ARC
  5
776C
330
1F
100
AcDbEntity
  8
圖層4尺寸線
100
AcDbCircle
 10
6057.618965612881
 20
2215.107237672386
 30
0.0
 40
1.52418783600342
100
AcDbArc
 50
270.0
 51
90.0
  0
ARC
  5
776D
330
1F
100
AcDbEntity
  8
圖層4尺寸線
100
AcDbCircle
 10
6057.618965612881
 20
2215.107237672386
 30
0.0
 40
2.52418783600342
100
AcDbArc
 50
270.0
 51
90.0
  0
LINE
  5
776E
330
1F
100
AcDbEntity
  8
圖層4尺寸線
100
AcDbLine
 10
6057.618965612881
 20
2217.631425508389
 30
0.0
 11
6057.618965612881
 21
2216.631425508389
 31
0.0
  0
LINE
  5
776F
330
1F
100
AcDbEntity
  8
圖層4尺寸線
100
AcDbLine
 10
6060.850910368634
 20
2218.322994195223
 30
0.0
 11
6060.850910368635
 21
2211.891481149548
 31
0.0
  0
LINE
  5
7770
330
1F
100
AcDbEntity
  8
圖層4尺寸線
100
AcDbLine
 10
6037.444932861902
 20
2252.891481149548
 30
0.0
 11
6037.444932861902
 21
2258.891481149548
 31
0.0
  0
LINE
  5
7771
330
1F
100
AcDbEntity
  8
圖層4尺寸線
100
AcDbLine
 10
6034.444932861902
 20
2255.891481149548
 30
0.0
 11
6040.444932861902
 21
2255.891481149548
 31
0.0
  0
CIRCLE
  5
7772
330
1F
100
AcDbEntity
  8
圖層4尺寸線
100
AcDbCircle
 10
6037.444932861902
 20
2255.891481149548
 30
0.0
 40
3.0
  0
LINE
  5
7773
330
1F
100
AcDbEntity
  8
圖層4尺寸線
100
AcDbLine
 10
6082.444932861903
 20
2261.891481149548
 30
0.0
 11
6084.799034828152
 21
2261.891481149548
 31
0.0
  0
LINE
  5
7774
330
1F
100
AcDbEntity
  8
圖層4尺寸線
100
AcDbLine
 10
6082.444932861903
 20
2263.891481149548
 30
0.0
 11
6084.799034828152
 21
2263.891481149548
 31
0.0
  0
LINE
  5
7775
330
1F
100
AcDbEntity
  8
圖層4尺寸線
100
AcDbLine
 10
6080.444932861902
 20
2261.891481149548
 30
0.0
 11
6080.444932861902
 21
2261.159430341979
 31
0.0
  0
LINE
  5
7776
330
1F
100
AcDbEntity
  8
圖層4尺寸線
100
AcDbLine
 10
6080.444932861902
 20
2264.623531957117
 30
0.0
 11
6080.444932861902
 21
2263.891481149548
 31
0.0
  0
LINE
  5
7777
330
1F
100
AcDbEntity
  8
圖層4尺寸線
100
AcDbLine
 10
6078.090830895653
 20
2263.891481149548
 30
0.0
 11
6080.444932861902
 21
2263.891481149548
 31
0.0
  0
LINE
  5
7778
330
1F
100
AcDbEntity
  8
圖層4尺寸線
100
AcDbLine
 10
6078.090830895653
 20
2261.891481149548
 30
0.0
 11
6080.444932861902
 21
2261.891481149548
 31
0.0
  0
ARC
  5
7779
330
1F
100
AcDbEntity
  8
圖層4尺寸線
100
AcDbCircle
 10
6081.444932861902
 20
2262.891481149548
 30
0.0
 40
3.5
100
AcDbArc
 50
163.3984504009902
 51
196.6015495990097
  0
LINE
  5
777A
330
1F
100
AcDbEntity
  8
圖層4尺寸線
100
AcDbLine
 10
6082.444932861903
 20
2261.891481149548
 30
0.0
 11
6082.444932861903
 21
2261.159430341979
 31
0.0
  0
LINE
  5
777B
330
1F
100
AcDbEntity
  8
圖層4尺寸線
100
AcDbLine
 10
6082.444932861903
 20
2264.623531957117
 30
0.0
 11
6082.444932861903
 21
2263.891481149548
 31
0.0
  0
ARC
  5
777C
330
1F
100
AcDbEntity
  8
圖層4尺寸線
100
AcDbCircle
 10
6081.444932861902
 20
2262.891481149548
 30
0.0
 40
2.0
100
AcDbArc
 50
60.00000000000272
 51
119.9999999999973
  0
ARC
  5
777D
330
1F
100
AcDbEntity
  8
圖層4尺寸線
100
AcDbCircle
 10
6081.444932861902
 20
2262.891481149548
 30
0.0
 40
2.0
100
AcDbArc
 50
240.0000000000027
 51
299.9999999999973
  0
ARC
  5
777E
330
1F
100
AcDbEntity
  8
圖層4尺寸線
100
AcDbCircle
 10
6081.444932861902
 20
2262.891481149548
 30
0.0
 40
3.5
100
AcDbArc
 50
343.3984504009902
 51
16.60154959900975
  0
TEXT
  5
7914
330
1F
100
AcDbEntity
  8
LOGO
 62
     7
100
AcDbText
 10
6029.118219370598
 20
1455.689718692655
 30
0.0
 40
23.32462219004524
  1
Order example:
 41
0.8
  7
CHINESET
100
AcDbText
  0
TEXT
  5
7915
330
1F
100
AcDbEntity
  8
LOGO
 62
     7
100
AcDbText
 10
6033.30284947827
 20
1488.525957311591
 30
0.0
 40
34.98693328506787
  1
訂購代號:
  7
CHINESET
100
AcDbText
  0
LINE
  5
7916
330
1F
100
AcDbEntity
  8
LOGO
 62
     1
100
AcDbLine
 10
6956.613222453687
 20
1532.325619285882
 30
0.0
 11
5634.12732578071
 21
1532.325619285882
 31
0.0
  0
LINE
  5
7917
330
1F
100
AcDbEntity
  8
LOGO
 62
     1
100
AcDbLine
 10
6018.983591916464
 20
1357.390952860543
 30
0.0
 11
6018.983591916464
 21
1532.325619285882
 31
0.0
  0
TEXT
  5
7918
330
1F
100
AcDbEntity
  8
LOGO
  6
Continuous
 62
     5
100
AcDbText
 10
5696.964644307239
 20
1391.756604080369
 30
0.0
 40
26.2401999638009
  1
金器工業股份有限公司
  7
CHINESET
100
AcDbText
  0
TEXT
  5
7919
330
1F
100
AcDbEntity
  8
LOGO
  6
Continuous
 62
     5
100
AcDbText
 10
5648.766588341278
 20
1365.511263094687
 30
0.0
 40
17.49346664253393
  1
MINDMAN INDUSTRIAL CO., LTD.
 41
0.85
  7
CHINESET
100
AcDbText
  0
LINE
  5
791A
330
1F
100
AcDbEntity
  8
LOGO
 62
     1
100
AcDbLine
 10
6018.983591916464
 20
1497.338686000815
 30
0.0
 11
5762.412747825961
 21
1497.338686000815
 31
0.0
  0
LINE
  5
791B
330
1F
100
AcDbEntity
  8
LOGO
 62
     1
100
AcDbLine
 10
6018.983591916464
 20
1462.351752715746
 30
0.0
 11
5762.412747825961
 21
1462.351752715746
 31
0.0
  0
LINE
  5
791C
330
1F
100
AcDbEntity
  8
LOGO
 62
     1
100
AcDbLine
 10
6018.983591916464
 20
1427.364819430678
 30
0.0
 11
5634.12732578071
 21
1427.364819430678
 31
0.0
  0
LINE
  5
791D
330
1F
100
AcDbEntity
  8
LOGO
 62
     1
100
AcDbLine
 10
5762.412747825961
 20
1427.364819430678
 30
0.0
 11
5762.412747825961
 21
1532.325619285882
 31
0.0
  0
TEXT
  5
791E
330
1F
100
AcDbEntity
  8
LOGO
 62
     6
100
AcDbText
 10
5928.603565370643
 20
1436.111552751945
 30
0.0
 40
17.49346664253393
  1
m/m
  7
CHINESET
 72
     1
 11
5959.425387550346
 21
1444.858286073212
 31
0.0
100
AcDbText
 73
     2
  0
TEXT
  5
791F
330
1F
100
AcDbEntity
  8
LOGO
 62
     6
100
AcDbText
 10
5928.603565370643
 20
1506.085419322081
 30
0.0
 40
17.49346664253393
  1
1 : 1
  7
CHINESET
 72
     1
 11
5959.425387550346
 21
1514.832152643348
 31
0.0
100
AcDbText
 73
     2
  0
LINE
  5
7920
330
1F
100
AcDbEntity
  8
LOGO
 62
     1
100
AcDbLine
 10
5902.360480966226
 20
1427.364819430678
 30
0.0
 11
5902.360480966226
 21
1532.325619285882
 31
0.0
  0
CIRCLE
  5
7921
330
1F
100
AcDbEntity
  8
LOGO
  6
Continuous
 62
     6
100
AcDbCircle
 10
5934.751822503111
 20
1479.882638011442
 30
0.0
 40
10.15711848244488
  0
CIRCLE
  5
7922
330
1F
100
AcDbEntity
  8
LOGO
  6
Continuous
 62
     6
100
AcDbCircle
 10
5934.751822503111
 20
1479.882638011442
 30
0.0
 40
5.951172271886643
  0
LINE
  5
7923
330
1F
100
AcDbEntity
  8
LOGO
 62
     6
100
AcDbLine
 10
5998.580333628979
 20
1469.725519528996
 30
0.0
 11
5998.580333628979
 21
1490.039756493887
 31
0.0
  0
LINE
  5
7924
330
1F
100
AcDbEntity
  8
LOGO
 62
     6
100
AcDbLine
 10
5966.738350232932
 20
1473.931465739555
 30
0.0
 11
5966.738350232932
 21
1485.83381028333
 31
0.0
  0
LINE
  5
7925
330
1F
100
AcDbEntity
  8
LOGO
  6
Continuous
 62
     6
100
AcDbLine
 10
5966.738350232932
 20
1485.83381028333
 30
0.0
 11
5998.580333628979
 21
1490.039756493887
 31
0.0
  0
LINE
  5
7926
330
1F
100
AcDbEntity
  8
LOGO
  6
Continuous
 62
     6
100
AcDbLine
 10
5966.738350232932
 20
1473.931465739555
 30
0.0
 11
5998.580333628979
 21
1469.725519528996
 31
0.0
  0
LINE
  5
7927
330
1F
100
AcDbEntity
  8
LOGO
 62
     6
100
AcDbLine
 10
6763.505195023836
 20
1514.832152643348
 30
0.0
 11
6669.883636821807
 21
1514.832152643348
 31
0.0
  0
LINE
  5
7928
330
1F
100
AcDbEntity
  8
LOGO
 62
     6
100
AcDbLine
 10
6780.323613109086
 20
1436.111552751946
 30
0.0
 11
6671.200926741969
 21
1436.111552751946
 31
0.0
  0
LINE
  5
7929
330
1F
100
AcDbEntity
  8
LOGO
 62
     6
100
AcDbLine
 10
6763.505195023836
 20
1462.351752715746
 30
0.0
 11
6669.883636821807
 21
1462.351752715746
 31
0.0
  0
LINE
  5
792A
330
1F
100
AcDbEntity
  8
LOGO
 62
     6
100
AcDbLine
 10
6780.323613109086
 20
1371.968841729321
 30
0.0
 11
6671.200926741969
 21
1371.96884172932
 31
0.0
  0
LINE
  5
792B
330
1F
100
AcDbEntity
  8
LOGO
 62
     6
100
AcDbLine
 10
6671.200926741969
 20
1436.111552751946
 30
0.0
 11
6671.200926741969
 21
1371.968841729321
 31
0.0
  0
LINE
  5
792C
330
1F
100
AcDbEntity
  8
LOGO
 62
     6
100
AcDbLine
 10
6653.652671085364
 20
1436.111552751946
 30
0.0
 11
6653.652671085364
 21
1371.96884172932
 31
0.0
  0
LINE
  5
792D
330
1F
100
AcDbEntity
  8
LOGO
 62
     6
100
AcDbLine
 10
6565.812772300455
 20
1436.111552751946
 30
0.0
 11
6565.812772300455
 21
1371.96884172932
 31
0.0
  0
LINE
  5
792E
330
1F
100
AcDbEntity
  8
LOGO
 62
     6
100
AcDbLine
 10
6377.023940408303
 20
1436.111552751946
 30
0.0
 11
6377.023940408303
 21
1371.96884172932
 31
0.0
  0
LINE
  5
792F
330
1F
100
AcDbEntity
  8
LOGO
 62
     6
100
AcDbLine
 10
6260.40082945808
 20
1436.111552751946
 30
0.0
 11
6260.40082945808
 21
1371.96884172932
 31
0.0
  0
LINE
  5
7930
330
1F
100
AcDbEntity
  8
LOGO
 62
     6
100
AcDbLine
 10
6377.023940408303
 20
1371.96884172932
 30
0.0
 11
6260.40082945808
 21
1371.96884172932
 31
0.0
  0
LINE
  5
7931
330
1F
100
AcDbEntity
  8
LOGO
 62
     6
100
AcDbLine
 10
6653.652671085364
 20
1371.96884172932
 30
0.0
 11
6565.812772300455
 21
1371.96884172932
 31
0.0
  0
LINE
  5
7932
330
1F
100
AcDbEntity
  8
LOGO
  6
Continuous
 62
     7
100
AcDbLine
 10
6468.486547022812
 20
1488.40605880914
 30
0.0
 11
6491.659976706135
 21
1488.40605880914
 31
0.0
  0
LINE
  5
7933
330
1F
100
AcDbEntity
  8
LOGO
 62
     6
100
AcDbLine
 10
6405.171427112833
 20
1514.832152643348
 30
0.0
 11
6259.598461589883
 21
1514.832152643348
 31
0.0
  0
LINE
  5
7934
330
1F
100
AcDbEntity
  8
LOGO
 62
     6
100
AcDbLine
 10
6405.171427112833
 20
1462.351752715746
 30
0.0
 11
6259.598461589883
 21
1462.351752715746
 31
0.0
  0
LINE
  5
7935
330
1F
100
AcDbEntity
  8
LOGO
 62
     6
100
AcDbLine
 10
6259.598461589883
 20
1514.832152643348
 30
0.0
 11
6259.598461589883
 21
1462.351752715746
 31
0.0
  0
LINE
  5
7936
330
1F
100
AcDbEntity
  8
LOGO
 62
     6
100
AcDbLine
 10
6405.171427112833
 20
1514.832152643348
 30
0.0
 11
6405.171427112833
 21
1462.351752715746
 31
0.0
  0
LINE
  5
7937
330
1F
100
AcDbEntity
  8
LOGO
 62
     6
100
AcDbLine
 10
6332.38494435136
 20
1462.351752715746
 30
0.0
 11
6332.38494435136
 21
1436.111552751946
 31
0.0
  0
TEXT
  5
7938
330
1F
100
AcDbEntity
  8
LOGO
  6
Continuous
 62
     7
100
AcDbText
 10
6277.233405583285
 20
1474.014063810768
 30
0.0
 40
29.15577773755656
  1
MF101
  7
CHINESET
 72
     1
 11
6334.850775874171
 21
1488.591952679546
 31
0.0
100
AcDbText
 73
     2
  0
LINE
  5
7939
330
1F
100
AcDbEntity
  8
LOGO
 62
     6
100
AcDbLine
 10
6377.023940408303
 20
1436.111552751946
 30
0.0
 11
6260.40082945808
 21
1436.111552751946
 31
0.0
  0
LINE
  5
793A
330
1F
100
AcDbEntity
  8
LOGO
 62
     6
100
AcDbLine
 10
6629.519361095081
 20
1514.832152643348
 30
0.0
 11
6502.491243905438
 21
1514.832152643348
 31
0.0
  0
LINE
  5
793B
330
1F
100
AcDbEntity
  8
LOGO
 62
     6
100
AcDbLine
 10
6653.652671085364
 20
1436.111552751946
 30
0.0
 11
6565.812772300455
 21
1436.111552751946
 31
0.0
  0
LINE
  5
793C
330
1F
100
AcDbEntity
  8
LOGO
 62
     6
100
AcDbLine
 10
6629.519361095081
 20
1462.351752715746
 30
0.0
 11
6502.491243905438
 21
1462.351752715746
 31
0.0
  0
TEXT
  5
793D
330
1F
100
AcDbEntity
  8
LOGO
  6
Continuous
 62
     7
100
AcDbText
 10
6525.353424059872
 20
1473.683435454039
 30
0.0
 40
29.15577773755656
  1
300
  7
CHINESET
 72
     1
 11
6562.83942400816
 21
1488.261324322817
 31
0.0
100
AcDbText
 73
     2
  0
LINE
  5
793E
330
1F
100
AcDbEntity
  8
LOGO
 62
     6
100
AcDbLine
 10
6502.491243905438
 20
1514.832152643348
 30
0.0
 11
6502.491243905438
 21
1462.351752715746
 31
0.0
  0
TEXT
  5
793F
330
1F
100
AcDbEntity
  8
LOGO
  6
Continuous
 62
     7
100
AcDbText
 10
6711.779585569487
 20
1473.683435454039
 30
0.0
 40
29.15577773755656
  1
?
  7
CHINESET
 72
     1
 11
6719.415622595992
 21
1488.261324322817
 31
0.0
100
AcDbText
 73
     2
  0
LINE
  5
7940
330
1F
100
AcDbEntity
  8
LOGO
  6
Continuous
 62
     7
100
AcDbLine
 10
6637.634532503909
 20
1488.40605880914
 30
0.0
 11
6660.807962187249
 21
1488.40605880914
 31
0.0
  0
LINE
  5
7941
330
1F
100
AcDbEntity
  8
LOGO
 62
     6
100
AcDbLine
 10
6669.883636821807
 20
1514.832152643348
 30
0.0
 11
6669.883636821807
 21
1462.351752715746
 31
0.0
  0
LINE
  5
7942
330
1F
100
AcDbEntity
  8
LOGO
 62
     6
100
AcDbLine
 10
6629.519361095081
 20
1514.832152643348
 30
0.0
 11
6629.519361095081
 21
1462.351752715746
 31
0.0
  0
LINE
  5
7943
330
1F
100
AcDbEntity
  8
LOGO
 62
     6
100
AcDbLine
 10
6780.323613109086
 20
1436.111552751946
 30
0.0
 11
6780.323613109086
 21
1371.968841729321
 31
0.0
  0
LINE
  5
7944
330
1F
100
AcDbEntity
  8
LOGO
 62
     6
100
AcDbLine
 10
6763.505195023836
 20
1514.832152643348
 30
0.0
 11
6763.505195023836
 21
1462.351752715746
 31
0.0
  0
TEXT
  5
7945
330
1F
100
AcDbEntity
  8
LOGO
 62
     6
100
AcDbText
 10
5776.837048222734
 20
1506.094028311571
 30
1146.492984948915
 40
17.49346664253393
  1
比例 Scale:
 41
0.9
  7
CHINESET
 72
     4
 11
5832.386614396101
 21
1514.832152643348
 31
1146.492984948915
100
AcDbText
  0
TEXT
  5
7946
330
1F
100
AcDbEntity
  8
LOGO
 62
     6
100
AcDbText
 10
5782.951951964299
 20
1471.344559653252
 30
1146.492984948915
 40
17.49346664253393
  1
投影 View:
 41
0.9
  7
CHINESET
 72
     4
 11
5832.386614396101
 21
1479.845219358279
 31
1146.492984948915
100
AcDbText
  0
TEXT
  5
7947
330
1F
100
AcDbEntity
  8
LOGO
 62
     6
100
AcDbText
 10
5784.662250711939
 20
1436.111552751945
 30
1146.492984948915
 40
17.49346664253393
  1
單位 Unit:
 41
0.9
  7
CHINESET
 72
     4
 11
5832.386614396101
 21
1444.858286073212
 31
1146.492984948915
100
AcDbText
  0
TEXT
  5
7948
330
1F
100
AcDbEntity
  8
LOGO
  6
Continuous
 62
     6
100
AcDbText
 10
6290.944977564091
 20
1379.257786163709
 30
1146.492984948915
 40
14.57788886877828
  1
Model
  7
CHINESET
 72
     4
 11
6318.712384933192
 21
1386.546730598098
 31
1146.492984948915
100
AcDbText
  0
TEXT
  5
7949
330
1F
100
AcDbEntity
  8
LOGO
  6
Continuous
 62
     6
100
AcDbText
 10
6574.435783367916
 20
1381.687434308506
 30
1146.492984948915
 40
14.57788886877828
  1
output
  7
CHINESET
 72
     4
 11
6608.450857395066
 21
1386.546730598098
 31
1146.492984948915
100
AcDbText
  0
TEXT
  5
794A
330
1F
100
AcDbEntity
  8
LOGO
  6
Continuous
 62
     6
100
AcDbText
 10
6702.674069741701
 20
1381.687434308506
 30
1146.492984948915
 40
14.57788886877828
  1
Option
 41
0.8
  7
CHINESET
 72
     4
 11
6728.497758594966
 21
1386.546730598098
 31
1146.492984948915
100
AcDbText
  0
TEXT
  5
794B
330
1F
100
AcDbEntity
  8
LOGO
 62
     6
100
AcDbText
 10
6294.901833114188
 20
1404.338642209599
 30
1146.492984948915
 40
23.32462219004524
  1
型號
  7
CHINESET
 72
     4
 11
6318.712384933192
 21
1415.702508335655
 31
1146.492984948915
100
AcDbText
  0
TEXT
  5
794C
330
1F
100
AcDbEntity
  8
LOGO
 62
     6
100
AcDbText
 10
6573.98237658814
 20
1404.122460917976
 30
1146.492984948915
 40
23.32462219004524
  1
工作力
  7
CHINESET
 72
     4
 11
6608.450857395066
 21
1415.702508335655
 31
1146.492984948915
100
AcDbText
  0
TEXT
  5
794D
330
1F
100
AcDbEntity
  8
LOGO
 62
     6
100
AcDbText
 10
6686.337815267299
 20
1404.231508118175
 30
1146.492984948915
 40
23.32462219004524
  1
選用配件
 41
0.9
  7
CHINESET
 72
     4
 11
6728.497758594966
 21
1415.702508335655
 31
1146.492984948915
100
AcDbText
  0
LWPOLYLINE
  5
794E
330
1F
100
AcDbEntity
  8
0
 62
     4
100
AcDbPolyline
 90
        4
 70
     1
 43
0.0
 10
5634.127325780715
 20
1532.325619285882
 10
6956.613222453694
 20
1532.325619285882
 10
6956.613222453694
 20
3128.822524936865
 10
5634.127325780715
 20
3128.822524936865
1001
GENIUS_GENREC_14
1002
{
1000
PYDIR
1011
5634.127325780715
1021
3128.822524936865
1031
0.0
1002
}
1002
{
1000
PXDIR
1011
6956.613222453694
1021
1532.325619285882
1031
0.0
1002
}
1002
{
1000
PORI
1011
5634.127325780715
1021
1532.325619285882
1031
0.0
1002
}
1002
{
1000
PINS
1011
5634.127325780715
1021
1532.325619285882
1031
0.0
1002
}
1002
{
1000
PINS2
1011
6956.613222453694
1021
3128.822524936865
1031
0.0
1002
}
1002
{
1000
C
1070
     1
1002
}
1001
GENIUS_GENODEF_13
1002
{
1000
HIER
1070
     0
1002
}
1002
{
1000
MANEDIT
1070
     0
1002
}
1002
{
1000
NOSEL
1070
     0
1002
}
1002
{
1000
BEHIND
1070
     0
1002
}
1002
{
1000
OTHER
1070
     0
1002
}
1002
{
1000
REACTOR
1002
}
1001
GENIUS_GENOBJ-N-REC_13
1002
{
1000
OWNER
1000
GEN
1002
}
  0
SOLID
  5
794F
330
1F
100
AcDbEntity
  8
LOGO
 62
     5
100
AcDbTrace
 10
5652.277078171131
 20
1456.445217724991
 30
0.0
 11
5659.84079411879
 21
1456.445217724988
 31
0.0
 12
5691.399746865959
 22
1528.17011033218
 32
0.0
 13
5698.963462813617
 23
1528.170110332174
 33
0.0
  0
SOLID
  5
7950
330
1F
100
AcDbEntity
  8
LOGO
 62
     5
100
AcDbTrace
 10
5662.970607614385
 20
1456.445217724991
 30
0.0
 11
5670.534323562043
 21
1456.445217724991
 31
0.0
 12
5698.963462813617
 22
1522.432118923601
 32
0.0
 13
5691.399746865959
 23
1494.698493782154
 33
0.0
  0
SOLID
  5
7951
330
1F
100
AcDbEntity
  8
LOGO
 62
     2
100
AcDbTrace
 10
5659.84079411879
 20
1456.445217724988
 30
0.0
 11
5662.970607614385
 21
1456.445217724991
 31
0.0
 12
5698.963462813617
 22
1528.170110332174
 32
0.0
 13
5702.093276309213
 23
1528.170110332174
 33
0.0
  0
SOLID
  5
7952
330
1F
100
AcDbEntity
  8
LOGO
 62
     5
100
AcDbTrace
 10
5640.150586656659
 20
1430.363438595107
 30
0.0
 11
5642.758764569648
 21
1430.363438595107
 31
0.0
 12
5650.103596576972
 22
1443.404328160047
 32
0.0
 13
5652.71177448996
 23
1443.404328160047
 33
0.0
  0
SOLID
  5
7953
330
1F
100
AcDbEntity
  8
LOGO
 62
     5
100
AcDbTrace
 10
5650.103596576972
 20
1443.404328160047
 30
0.0
 11
5652.71177448996
 21
1443.404328160047
 31
0.0
 12
5650.103596576972
 22
1430.363438595107
 32
0.0
 13
5652.71177448996
 23
1430.363438595107
 33
0.0
  0
SOLID
  5
7954
330
1F
100
AcDbEntity
  8
LOGO
 62
     5
100
AcDbTrace
 10
5650.103596576972
 20
1430.363438595107
 30
0.0
 11
5652.71177448996
 21
1430.363438595107
 31
0.0
 12
5660.056606497285
 22
1443.404328160047
 32
0.0
 13
5662.664784410273
 23
1443.404328160047
 33
0.0
  0
SOLID
  5
7955
330
1F
100
AcDbEntity
  8
LOGO
 62
     5
100
AcDbTrace
 10
5660.056606497285
 20
1443.404328160047
 30
0.0
 11
5662.664784410273
 21
1443.404328160047
 31
0.0
 12
5660.056606497285
 22
1430.363438595107
 32
0.0
 13
5662.664784410273
 23
1430.363438595107
 33
0.0
  0
POLYLINE
  5
7956
330
1F
100
AcDbEntity
  8
LOGO
 62
     5
100
AcDb2dPolyline
 66
     1
 10
0.0
 20
0.0
 30
0.0
 40
2.612357685285066
 41
2.612357685285066
  0
VERTEX
  5
7957
330
7956
100
AcDbEntity
  8
LOGO
 62
     5
100
AcDbVertex
100
AcDb2dVertex
 10
5747.481841653653
 20
1438.187972334069
 30
0.0
 42
1.0
  0
VERTEX
  5
7958
330
7956
100
AcDbEntity
  8
LOGO
 62
     5
100
AcDbVertex
100
AcDb2dVertex
 10
5739.644768597809
 20
1438.187972334069
 30
0.0
 42
1.0
  0
SEQEND
  5
7959
330
7956
100
AcDbEntity
  8
LOGO
 62
     5
  0
POLYLINE
  5
795A
330
1F
100
AcDbEntity
  8
LOGO
 62
     5
100
AcDb2dPolyline
 66
     1
 10
0.0
 20
0.0
 30
0.0
 70
     1
  0
VERTEX
  5
795B
330
795A
100
AcDbEntity
  8
LOGO
 62
     5
100
AcDbVertex
100
AcDb2dVertex
 10
5724.8715372945
 20
1436.883883377576
 30
0.0
 42
1.000000057330635
  0
VERTEX
  5
795C
330
795A
100
AcDbEntity
  8
LOGO
 62
     5
100
AcDbVertex
100
AcDb2dVertex
 10
5732.696071033479
 20
1436.883883377576
 30
0.0
 42
1.000000057330635
  0
SEQEND
  5
795D
330
795A
100
AcDbEntity
  8
LOGO
 62
     5
  0
CIRCLE
  5
795E
330
1F
100
AcDbEntity
  8
LOGO
 62
     5
100
AcDbCircle
 10
5728.783804163988
 20
1436.883883377576
 30
0.0
 40
3.912266869482917
  0
POLYLINE
  5
795F
330
1F
100
AcDbEntity
  8
LOGO
 62
     5
100
AcDb2dPolyline
 66
     1
 10
0.0
 20
0.0
 30
0.0
 70
     1
 40
2.612357685285066
 41
2.612357685285066
  0
VERTEX
  5
7960
330
795F
100
AcDbEntity
  8
LOGO
 62
     5
100
AcDbVertex
100
AcDb2dVertex
 10
5723.559088793415
 20
1436.883883377576
 30
0.0
 42
1.0
  0
VERTEX
  5
7961
330
795F
100
AcDbEntity
  8
LOGO
 62
     5
100
AcDbVertex
100
AcDb2dVertex
 10
5734.008519534564
 20
1436.883883377576
 30
0.0
 42
1.0
  0
SEQEND
  5
7962
330
795F
100
AcDbEntity
  8
LOGO
 62
     5
  0
LINE
  5
7963
330
1F
100
AcDbEntity
  8
LOGO
 62
     5
100
AcDbLine
 10
5748.779660951715
 20
1430.363438595107
 30
0.0
 11
5748.779660951715
 21
1438.187972334069
 31
0.0
  0
SOLID
  5
7964
330
1F
100
AcDbEntity
  8
LOGO
 62
     5
100
AcDbTrace
 10
5732.695810215687
 20
1443.404328160047
 30
0.0
 11
5735.303988128674
 21
1443.404328160047
 31
0.0
 12
5732.695810215687
 22
1430.363438595107
 32
0.0
 13
5735.303988128674
 23
1430.363438595107
 33
0.0
  0
SOLID
  5
7965
330
1F
100
AcDbEntity
  8
LOGO
 62
     5
100
AcDbTrace
 10
5738.346949299748
 20
1430.363438595107
 30
0.0
 11
5740.955127212752
 21
1430.363438595107
 31
0.0
 12
5738.346949299748
 22
1443.404328160047
 32
0.0
 13
5740.955127212752
 23
1443.404328160047
 33
0.0
  0
SOLID
  5
7966
330
1F
100
AcDbEntity
  8
LOGO
 62
     5
100
AcDbTrace
 10
5746.171483038727
 20
1438.187972334069
 30
0.0
 11
5748.779660951715
 21
1438.187972334069
 31
0.0
 12
5746.171483038727
 22
1430.363438595107
 32
0.0
 13
5748.779660951715
 23
1430.363438595107
 33
0.0
  0
SOLID
  5
7967
330
1F
100
AcDbEntity
  8
LOGO
 62
     5
100
AcDbTrace
 10
5738.086131508461
 20
1522.432118923601
 30
0.0
 11
5730.522415560787
 21
1494.698493782154
 31
0.0
 12
5738.086131508461
 22
1456.445217724988
 32
0.0
 13
5730.522415560787
 23
1456.445217724988
 33
0.0
  0
SOLID
  5
7968
330
1F
100
AcDbEntity
  8
LOGO
 62
     5
100
AcDbTrace
 10
5741.215945004039
 20
1456.445217724988
 30
0.0
 11
5748.779660951715
 21
1456.445217724988
 31
0.0
 12
5741.215945004039
 22
1528.170110332174
 32
0.0
 13
5748.779660951715
 23
1528.17011033218
 33
0.0
  0
SOLID
  5
7969
330
1F
100
AcDbEntity
  8
LOGO
 62
     2
100
AcDbTrace
 10
5738.086131508461
 20
1528.17011033218
 30
0.0
 11
5741.215945004039
 21
1528.170110332174
 31
0.0
 12
5738.086131508461
 22
1456.445217724988
 32
0.0
 13
5741.215945004039
 23
1456.445217724988
 33
0.0
  0
POLYLINE
  5
796A
330
1F
100
AcDbEntity
  8
LOGO
 62
     5
100
AcDb2dPolyline
 66
     1
 10
0.0
 20
0.0
 30
0.0
 40
2.612357685285066
 41
2.612357685285066
  0
VERTEX
  5
796B
330
796A
100
AcDbEntity
  8
LOGO
 62
     5
100
AcDbVertex
100
AcDb2dVertex
 10
5710.097784355624
 20
1438.187972334069
 30
0.0
 42
1.0
  0
VERTEX
  5
796C
330
796A
100
AcDbEntity
  8
LOGO
 62
     5
100
AcDbVertex
100
AcDb2dVertex
 10
5702.260711299778
 20
1438.187972334069
 30
0.0
 42
1.0
  0
SEQEND
  5
796D
330
796A
100
AcDbEntity
  8
LOGO
 62
     5
  0
POLYLINE
  5
796E
330
1F
100
AcDbEntity
  8
LOGO
 62
     5
100
AcDb2dPolyline
 66
     1
 10
0.0
 20
0.0
 30
0.0
 40
2.612357685285066
 41
2.612357685285066
  0
VERTEX
  5
796F
330
796E
100
AcDbEntity
  8
LOGO
 62
     5
100
AcDbVertex
100
AcDb2dVertex
 10
5717.922318094585
 20
1438.187972334069
 30
0.0
 42
1.0
  0
VERTEX
  5
7970
330
796E
100
AcDbEntity
  8
LOGO
 62
     5
100
AcDbVertex
100
AcDb2dVertex
 10
5710.085245038741
 20
1438.187972334069
 30
0.0
 42
1.0
  0
SEQEND
  5
7971
330
796E
100
AcDbEntity
  8
LOGO
 62
     5
  0
POLYLINE
  5
7972
330
1F
100
AcDbEntity
  8
LOGO
 62
     5
100
AcDb2dPolyline
 66
     1
 10
0.0
 20
0.0
 30
0.0
 40
2.612357685285066
 41
2.612357685285066
  0
VERTEX
  5
7973
330
7972
100
AcDbEntity
  8
LOGO
 62
     5
100
AcDbVertex
100
AcDb2dVertex
 10
5680.538260796556
 20
1438.187972334069
 30
0.0
 42
1.0
  0
VERTEX
  5
7974
330
7972
100
AcDbEntity
  8
LOGO
 62
     5
100
AcDbVertex
100
AcDb2dVertex
 10
5672.701187740711
 20
1438.187972334069
 30
0.0
 42
1.0
  0
SEQEND
  5
7975
330
7972
100
AcDbEntity
  8
LOGO
 62
     5
  0
SOLID
  5
7976
330
1F
100
AcDbEntity
  8
LOGO
 62
     5
100
AcDbTrace
 10
5671.403368442667
 20
1443.404328160047
 30
0.0
 11
5674.011546355638
 21
1443.404328160047
 31
0.0
 12
5671.403368442667
 22
1430.363438595107
 32
0.0
 13
5674.011546355638
 23
1430.363438595107
 33
0.0
  0
SOLID
  5
7977
330
1F
100
AcDbEntity
  8
LOGO
 62
     5
100
AcDbTrace
 10
5679.227902181628
 20
1438.187972334069
 30
0.0
 11
5681.836080094615
 21
1438.187972334069
 31
0.0
 12
5679.227902181628
 22
1430.363438595107
 32
0.0
 13
5681.836080094615
 23
1430.363438595107
 33
0.0
  0
POLYLINE
  5
7978
330
1F
100
AcDbEntity
  8
LOGO
 62
     5
100
AcDb2dPolyline
 66
     1
 10
0.0
 20
0.0
 30
0.0
 70
     1
 40
2.612357685285066
 41
2.612357685285066
  0
VERTEX
  5
7979
330
7978
100
AcDbEntity
  8
LOGO
 62
     5
100
AcDbVertex
100
AcDb2dVertex
 10
5686.175031495384
 20
1436.883883377576
 30
0.0
 42
1.0
  0
VERTEX
  5
797A
330
7978
100
AcDbEntity
  8
LOGO
 62
     5
100
AcDbVertex
100
AcDb2dVertex
 10
5696.624462236532
 20
1436.883883377576
 30
0.0
 42
1.0
  0
SEQEND
  5
797B
330
7978
100
AcDbEntity
  8
LOGO
 62
     5
  0
SOLID
  5
797C
330
1F
100
AcDbEntity
  8
LOGO
 62
     5
100
AcDbTrace
 10
5695.311752917656
 20
1447.316595029532
 30
0.0
 11
5697.919930830643
 21
1447.316595029532
 31
0.0
 12
5695.311752917656
 22
1430.363438595107
 32
0.0
 13
5697.919930830643
 23
1430.363438595107
 33
0.0
  0
SOLID
  5
797D
330
1F
100
AcDbEntity
  8
LOGO
 62
     5
100
AcDbTrace
 10
5700.962892001718
 20
1443.404328160047
 30
0.0
 11
5703.571069914723
 21
1443.404328160047
 31
0.0
 12
5700.962892001718
 22
1430.363438595107
 32
0.0
 13
5703.571069914723
 23
1430.363438595107
 33
0.0
  0
SOLID
  5
797E
330
1F
100
AcDbEntity
  8
LOGO
 62
     5
100
AcDbTrace
 10
5708.787425740696
 20
1438.187972334069
 30
0.0
 11
5711.395603653683
 21
1438.187972334069
 31
0.0
 12
5708.787425740696
 22
1430.363438595107
 32
0.0
 13
5711.395603653683
 23
1430.363438595107
 33
0.0
  0
SOLID
  5
797F
330
1F
100
AcDbEntity
  8
LOGO
 62
     5
100
AcDbTrace
 10
5716.61195947966
 20
1438.187972334069
 30
0.0
 11
5719.220137392646
 21
1438.187972334069
 31
0.0
 12
5716.61195947966
 22
1430.363438595101
 32
0.0
 13
5719.220137392646
 23
1430.363438595101
 33
0.0
  0
SOLID
  5
7980
330
1F
100
AcDbEntity
  8
LOGO
 62
     5
100
AcDbTrace
 10
5665.752229358588
 20
1445.230052699137
 30
0.0
 11
5668.360407271576
 21
1445.230052699137
 31
0.0
 12
5665.752229358588
 22
1447.316595029532
 32
0.0
 13
5668.360407271576
 23
1447.316595029532
 33
0.0
  0
SOLID
  5
7981
330
1F
100
AcDbEntity
  8
LOGO
 62
     5
100
AcDbTrace
 10
5665.752229358588
 20
1443.404328160047
 30
0.0
 11
5668.360407271576
 21
1443.404328160047
 31
0.0
 12
5665.752229358588
 22
1430.363438595101
 32
0.0
 13
5668.360407271576
 23
1430.363438595107
 33
0.0
  0
SOLID
  5
7982
330
1F
100
AcDbEntity
  8
LOGO
 62
     5
100
AcDbTrace
 10
5691.399746865959
 20
1456.445217724991
 30
0.0
 11
5698.963462813617
 21
1456.445217724991
 31
0.0
 12
5691.399746865959
 22
1494.698493782154
 32
0.0
 13
5698.963462813617
 23
1522.432118923601
 33
0.0
  0
SOLID
  5
7983
330
1F
100
AcDbEntity
  8
LOGO
 62
     5
100
AcDbTrace
 10
5702.093276309213
 20
1528.170110332174
 30
0.0
 11
5709.656992256887
 21
1528.17011033218
 31
0.0
 12
5702.093276309213
 22
1462.183209133564
 32
0.0
 13
5709.656992256887
 23
1489.916834275011
 33
0.0
  0
SOLID
  5
7984
330
1F
100
AcDbEntity
  8
LOGO
 62
     2
100
AcDbTrace
 10
5698.963462813617
 20
1528.170110332174
 30
0.0
 11
5702.093276309213
 21
1528.170110332174
 31
0.0
 12
5698.963462813617
 22
1456.445217724991
 32
0.0
 13
5702.093276309213
 23
1456.445217724991
 33
0.0
  0
SOLID
  5
7985
330
1F
100
AcDbEntity
  8
LOGO
 62
     5
100
AcDbTrace
 10
5702.093276309213
 20
1462.183209133564
 30
0.0
 11
5709.656992256887
 21
1489.916834275011
 31
0.0
 12
5738.086131508461
 22
1528.17011033218
 32
0.0
 13
5730.522415560787
 23
1528.17011033218
 33
0.0
  0
SOLID
  5
7986
330
1F
100
AcDbEntity
  8
LOGO
 62
     5
100
AcDbTrace
 10
5702.093276309213
 20
1456.445217724991
 30
0.0
 11
5709.656992256887
 21
1456.445217724991
 31
0.0
 12
5738.086131508461
 22
1522.432118923601
 32
0.0
 13
5730.522415560787
 23
1494.698493782154
 33
0.0
  0
SOLID
  5
7987
330
1F
100
AcDbEntity
  8
LOGO
 62
     2
100
AcDbTrace
 10
5698.963462813617
 20
1456.445217724991
 30
0.0
 11
5702.093276309213
 21
1456.445217724991
 31
0.0
 12
5738.086131508461
 22
1528.17011033218
 32
0.0
 13
5741.215945004039
 23
1528.170110332174
 33
0.0
  0
TEXT
  5
7988
330
1F
100
AcDbEntity
  8
0
100
AcDbText
 10
6028.958030525732
 20
1366.697408068763
 30
0.0
 40
14.58720251999999
  1
1050701
 41
0.8
  7
CHINESET
 72
     1
 11
6062.578059190874
 21
1366.697408068763
 31
0.0
100
AcDbText
  0
LINE
  5
7989
330
1F
100
AcDbEntity
  8
LOGO
 62
     1
100
AcDbLine
 10
6107.585599492455
 20
1392.377886145611
 30
0.0
 11
6107.585599492455
 21
1357.390952860543
 31
0.0
  0
LINE
  5
798A
330
1F
100
AcDbEntity
  8
LOGO
 62
     1
100
AcDbLine
 10
6107.585599492455
 20
1392.377886145611
 30
0.0
 11
6018.983591916464
 21
1392.377886145611
 31
0.0
  0
LWPOLYLINE
  5
798B
330
1F
100
AcDbEntity
  8
0
 62
     1
100
AcDbPolyline
 90
        4
 70
     1
 43
0.0
 10
5634.127325780715
 20
1532.325619285882
 10
6956.613222453694
 20
1532.325619285882
 10
6956.613222453694
 20
1357.390952860543
 10
5634.127325780715
 20
1357.390952860543
1001
GENIUS_GENREC_14
1002
{
1000
PYDIR
1011
5634.127325780715
1021
1357.390952860543
1031
0.0
1002
}
1002
{
1000
PXDIR
1011
6956.613222453694
1021
1532.325619285882
1031
0.0
1002
}
1002
{
1000
PORI
1011
5634.127325780715
1021
1532.325619285882
1031
0.0
1002
}
1002
{
1000
PINS
1011
5634.127325780715
1021
1532.325619285882
1031
0.0
1002
}
1002
{
1000
PINS2
1011
6956.613222453694
1021
1357.390952860543
1031
0.0
1002
}
1002
{
1000
C
1070
     1
1002
}
1001
GENIUS_GENOBJ-N-REC_13
1002
{
1000
OWNER
1000
GEN
1002
}
1001
GENIUS_GENODEF_13
1002
{
1000
HIER
1070
     0
1002
}
1002
{
1000
MANEDIT
1070
     0
1002
}
1002
{
1000
NOSEL
1070
     0
1002
}
1002
{
1000
BEHIND
1070
     0
1002
}
1002
{
1000
OTHER
1070
     0
1002
}
1002
{
1000
REACTOR
1002
}
  0
LINE
  5
798C
330
1F
100
AcDbEntity
  8
LOGO
 62
     6
100
AcDbLine
 10
6556.40546258718
 20
1436.111552751946
 30
0.0
 11
6556.40546258718
 21
1371.96884172932
 31
0.0
  0
LINE
  5
798D
330
1F
100
AcDbEntity
  8
LOGO
 62
     6
100
AcDbLine
 10
6390.10544144488
 20
1436.111552751946
 30
0.0
 11
6390.10544144488
 21
1371.96884172932
 31
0.0
  0
LINE
  5
798E
330
1F
100
AcDbEntity
  8
LOGO
 62
     6
100
AcDbLine
 10
6556.40546258718
 20
1371.96884172932
 30
0.0
 11
6390.10544144488
 21
1371.96884172932
 31
0.0
  0
LINE
  5
798F
330
1F
100
AcDbEntity
  8
LOGO
 62
     6
100
AcDbLine
 10
6455.637528832077
 20
1514.832152643348
 30
0.0
 11
6412.145466863761
 21
1514.832152643348
 31
0.0
  0
LINE
  5
7990
330
1F
100
AcDbEntity
  8
LOGO
 62
     6
100
AcDbLine
 10
6455.637528832077
 20
1462.351752715746
 30
0.0
 11
6412.145466863761
 21
1462.351752715746
 31
0.0
  0
LINE
  5
7991
330
1F
100
AcDbEntity
  8
LOGO
 62
     6
100
AcDbLine
 10
6412.145466863761
 20
1514.832152643348
 30
0.0
 11
6412.145466863761
 21
1462.351752715746
 31
0.0
  0
LINE
  5
7992
330
1F
100
AcDbEntity
  8
LOGO
 62
     6
100
AcDbLine
 10
6455.637528832077
 20
1514.832152643348
 30
0.0
 11
6455.637528832077
 21
1462.351752715746
 31
0.0
  0
LINE
  5
7993
330
1F
100
AcDbEntity
  8
LOGO
 62
     6
100
AcDbLine
 10
6473.25545201603
 20
1449.231652733846
 30
0.0
 11
6473.25545201603
 21
1436.111552751946
 31
0.0
  0
TEXT
  5
7994
330
1F
100
AcDbEntity
  8
LOGO
  6
Continuous
 62
     7
100
AcDbText
 10
6421.604616195439
 20
1474.014063810768
 30
0.0
 40
29.15577773755656
  1
A
  7
CHINESET
 72
     1
 11
6432.71157914308
 21
1488.591952679546
 31
0.0
100
AcDbText
 73
     2
  0
LINE
  5
7995
330
1F
100
AcDbEntity
  8
LOGO
 62
     6
100
AcDbLine
 10
6556.40546258718
 20
1436.111552751946
 30
0.0
 11
6390.10544144488
 21
1436.111552751946
 31
0.0
  0
TEXT
  5
7996
330
1F
100
AcDbEntity
  8
LOGO
  6
Continuous
 62
     6
100
AcDbText
 10
6398.294015758999
 20
1381.687434308506
 30
1146.492984948915
 40
14.57788886877828
  1
Series symbol
  7
CHINESET
 72
     4
 11
6472.571830471345
 21
1386.546730598098
 31
1146.492984948915
100
AcDbText
  0
TEXT
  5
7997
330
1F
100
AcDbEntity
  8
LOGO
 62
     6
100
AcDbText
 10
6424.950726833336
 20
1404.338642209599
 30
1146.492984948915
 40
23.32462219004524
  1
系列編號
  7
CHINESET
 72
     4
 11
6472.571830471345
 21
1415.702508335655
 31
1146.492984948915
100
AcDbText
  0
LINE
  5
7998
330
1F
100
AcDbEntity
  8
LOGO
 62
     6
100
AcDbLine
 10
6473.25545201603
 20
1449.231652733846
 30
0.0
 11
6433.89149784792
 21
1449.231652733846
 31
0.0
  0
LINE
  5
7999
330
1F
100
AcDbEntity
  8
LOGO
 62
     6
100
AcDbLine
 10
6433.89149784792
 20
1462.351752715746
 30
0.0
 11
6433.89149784792
 21
1449.231652733846
 31
0.0
  0
LINE
  5
799A
330
1F
100
AcDbEntity
  8
LOGO
 62
     6
100
AcDbLine
 10
6609.73272169291
 20
1449.231652733846
 30
0.0
 11
6609.73272169291
 21
1436.111552751946
 31
0.0
  0
LINE
  5
799B
330
1F
100
AcDbEntity
  8
LOGO
 62
     6
100
AcDbLine
 10
6609.73272169291
 20
1449.231652733846
 30
0.0
 11
6566.00530250026
 21
1449.231652733846
 31
0.0
  0
LINE
  5
799C
330
1F
100
AcDbEntity
  8
LOGO
 62
     6
100
AcDbLine
 10
6566.00530250026
 20
1462.351752715746
 30
0.0
 11
6566.00530250026
 21
1449.231652733846
 31
0.0
  0
LINE
  5
799D
330
1F
100
AcDbEntity
  8
LOGO
 62
     6
100
AcDbLine
 10
6716.694415922822
 20
1462.351752715746
 30
0.0
 11
6716.694415922822
 21
1436.111552751946
 31
0.0
  0
ENDSEC
  0
SECTION
  2
OBJECTS
  0
DICTIONARY
  5
C
330
0
100
AcDbDictionary
281
     1
  3
ACAD_COLOR
350
BE
  3
ACAD_GROUP
350
D
  3
ACAD_LAYOUT
350
1A
  3
ACAD_MATERIAL
350
BD
  3
ACAD_MLINESTYLE
350
17
  3
ACAD_PLOTSETTINGS
350
19
  3
ACAD_PLOTSTYLENAME
350
E
  3
ACAD_TABLESTYLE
350
11A
  3
ACDBHEADERROUNDTRIPXREC
350
7A27
  3
AcDbVariableDictionary
350
94
  3
AcmDictionary
350
5B
  3
AMG
350
41
  3
AMGSNAPSETTINGS
350
1B8
  3
DWGPROPS
350
7A26
  0
DICTIONARY
  5
3F9
330
2
100
AcDbDictionary
280
     1
281
     1
  3
ACAD_LAYERFILTERS
360
63AB
  3
ACAD_LAYERSTATES
360
72C
  3
ACLYDICTIONARY
360
63AA
  0
DICTIONARY
  5
8F
330
1F
100
AcDbDictionary
280
     1
281
     1
  0
DICTIONARY
  5
BE
102
{ACAD_REACTORS
330
C
102
}
330
C
100
AcDbDictionary
281
     1
  0
DICTIONARY
  5
D
102
{ACAD_REACTORS
330
C
102
}
330
C
100
AcDbDictionary
281
     1
  0
DICTIONARY
  5
1A
102
{ACAD_REACTORS
330
C
102
}
330
C
100
AcDbDictionary
281
     1
  3
Model
350
22
  3
配置1
350
1E
  3
配置2
350
26
  0
DICTIONARY
  5
BD
102
{ACAD_REACTORS
330
C
102
}
330
C
100
AcDbDictionary
281
     1
  0
DICTIONARY
  5
17
102
{ACAD_REACTORS
330
C
102
}
330
C
100
AcDbDictionary
281
     1
  3
Standard
350
18
  0
DICTIONARY
  5
19
102
{ACAD_REACTORS
330
C
102
}
330
C
100
AcDbDictionary
281
     1
  0
ACDBDICTIONARYWDFLT
  5
E
102
{ACAD_REACTORS
330
C
102
}
330
C
100
AcDbDictionary
281
     1
  3
Normal
350
F
  3
型式 1
350
728
  3
型式 2
350
729
  3
型式 3
350
72A
  3
型式 4
350
72B
100
AcDbDictionaryWithDefault
340
F
  0
DICTIONARY
  5
11A
102
{ACAD_REACTORS
330
C
102
}
330
C
100
AcDbDictionary
281
     1
  3
Standard
350
11B
  0
DICTIONARY
  5
7A27
102
{ACAD_REACTORS
330
C
102
}
330
C
100
AcDbDictionary
281
     1
  0
DICTIONARY
  5
94
102
{ACAD_REACTORS
330
C
102
}
330
C
100
AcDbDictionary
281
     1
  3
CTABLESTYLE
350
138
  3
DIMASSOC
350
96
  3
INDEXCTL
350
95
  3
PROJECTNAME
350
7A24
  0
DICTIONARY
  5
5B
102
{ACAD_REACTORS
330
C
102
}
330
C
100
AcDbDictionary
281
     1
  3
AcmBOM
350
1B5
  3
AcmStdDictionary
350
61
  3
AMDTSECTSYM_ARROWCOLOR
350
123
  0
DICTIONARY
  5
41
102
{ACAD_REACTORS
330
C
102
}
330
C
100
AcDbDictionary
281
     1
  0
DICTIONARY
  5
1B8
102
{ACAD_REACTORS
330
C
102
}
330
C
100
AcDbDictionary
281
     1
  0
XRECORD
  5
7A26
102
{ACAD_REACTORS
330
C
102
}
330
C
100
AcDbXrecord
280
     1
  1
DWGPROPS COOKIE
  2

  3

  4

  6

  7

  8

  9

300
AmdtFileType=84
301
=
302
=
303
=
304
=
305
=
306
=
307
=
308
=
309
=
 40
0.2756741898148149
 41
2453556.605858461
 42
2453557.594407546
  1

 90
        1
  0
DICTIONARY
  5
63AB
102
{ACAD_REACTORS
330
3F9
102
}
330
3F9
100
AcDbDictionary
281
     1
  0
DICTIONARY
  5
72C
102
{ACAD_REACTORS
330
3F9
102
}
330
3F9
100
AcDbDictionary
281
     1
  0
DICTIONARY
  5
63AA
102
{ACAD_REACTORS
330
3F9
102
}
330
3F9
100
AcDbDictionary
281
     1
1001
ACAD
1000
<All
  0
LAYOUT
  5
22
102
{ACAD_XDICTIONARY
360
7A2A
102
}
102
{ACAD_REACTORS
330
1A
102
}
330
1A
100
AcDbPlotSettings
  1

  2
\\RD\EPSON Stylus C63 Series單色
  4
A4
  6

 40
3.757083177566528
 41
3.757076978683471
 42
3.757080078125
 43
3.757080078125
 44
209.9733276367187
 45
296.9683227539062
 46
0.0
 47
0.0
 48
0.0
 49
0.0
140
0.0
141
0.0
142
1.0
143
0.3405120737814363
 70
 11952
 72
     1
 73
     0
 74
     0
  7
單色出圖.ctb
 75
     0
147
2.936753428137963
148
-2047.07469463503
149
-1261.649717473083
100
AcDbLayout
  1
Model
 70
     1
 71
     0
 10
0.0
 20
0.0
 11
12.0
 21
9.0
 12
0.0
 22
0.0
 32
0.0
 14
0.0
 24
0.0
 34
0.0
 15
0.0
 25
0.0
 35
0.0
146
0.0
 13
0.0
 23
0.0
 33
0.0
 16
1.0
 26
0.0
 36
0.0
 17
0.0
 27
1.0
 37
0.0
 76
     0
330
1F
1001
ACAD_PSEXT
1000
\\RD\EPSON Stylus C63 Series單色
1000
EPSON Stylus C63 Series
1000
\\RD
1000

1070
     0
  0
LAYOUT
  5
1E
102
{ACAD_XDICTIONARY
360
7A28
102
}
102
{ACAD_REACTORS
330
1A
102
}
330
1A
100
AcDbPlotSettings
  1

  2

  4

  6

 40
0.0
 41
0.0
 42
0.0
 43
0.0
 44
0.0
 45
0.0
 46
0.0
 47
0.0
 48
0.0
 49
0.0
140
0.0
141
0.0
142
1.0
143
1.0
 70
   688
 72
     0
 73
     0
 74
     5
  7
單色出圖.ctb
 75
    16
147
1.0
148
0.0
149
0.0
100
AcDbLayout
  1
配置1
 70
     1
 71
     1
 10
0.0
 20
0.0
 11
420.0
 21
297.0
 12
0.0
 22
0.0
 32
0.0
 14
1.000000000000000E+20
 24
1.000000000000000E+20
 34
1.000000000000000E+20
 15
-1.000000000000000E+20
 25
-1.000000000000000E+20
 35
-1.000000000000000E+20
146
0.0
 13
0.0
 23
0.0
 33
0.0
 16
1.0
 26
0.0
 36
0.0
 17
0.0
 27
1.0
 37
0.0
 76
     0
330
1B
  0
LAYOUT
  5
26
102
{ACAD_XDICTIONARY
360
7A2C
102
}
102
{ACAD_REACTORS
330
1A
102
}
330
1A
100
AcDbPlotSettings
  1

  2

  4

  6

 40
0.0
 41
0.0
 42
0.0
 43
0.0
 44
0.0
 45
0.0
 46
0.0
 47
0.0
 48
0.0
 49
0.0
140
0.0
141
0.0
142
1.0
143
1.0
 70
   688
 72
     0
 73
     0
 74
     5
  7
單色出圖.ctb
 75
    16
147
1.0
148
0.0
149
0.0
100
AcDbLayout
  1
配置2
 70
     1
 71
     2
 10
0.0
 20
0.0
 11
12.0
 21
9.0
 12
0.0
 22
0.0
 32
0.0
 14
0.0
 24
0.0
 34
0.0
 15
0.0
 25
0.0
 35
0.0
146
0.0
 13
0.0
 23
0.0
 33
0.0
 16
1.0
 26
0.0
 36
0.0
 17
0.0
 27
1.0
 37
0.0
 76
     0
330
23
  0
MLINESTYLE
  5
18
102
{ACAD_REACTORS
330
17
102
}
330
17
100
AcDbMlineStyle
  2
STANDARD
 70
     0
  3

 62
   256
 51
90.0
 52
90.0
 71
     2
 49
0.5
 62
   256
  6
BYLAYER
 49
-0.5
 62
   256
  6
BYLAYER
  0
ACDBPLACEHOLDER
  5
F
102
{ACAD_REACTORS
330
E
102
}
330
E
  0
ACDBPLACEHOLDER
  5
728
102
{ACAD_REACTORS
330
E
102
}
330
E
  0
ACDBPLACEHOLDER
  5
729
102
{ACAD_REACTORS
330
E
102
}
330
E
  0
ACDBPLACEHOLDER
  5
72A
102
{ACAD_REACTORS
330
E
102
}
330
E
  0
ACDBPLACEHOLDER
  5
72B
102
{ACAD_REACTORS
330
E
102
}
330
E
  0
TABLESTYLE
  5
11B
102
{ACAD_REACTORS
330
11A
102
}
330
11A
100
AcDbTableStyle
  3
Standard
 70
     0
 71
     0
 40
1.5
 41
1.5
280
     0
281
     0
  7
STANDARD
140
4.5
170
     2
 62
     0
 63
     7
283
     0
274
    -2
284
     1
 64
     0
275
    -2
285
     1
 65
     0
276
    -2
286
     1
 66
     0
277
    -2
287
     1
 67
     0
278
    -2
288
     1
 68
     0
279
    -2
289
     1
 69
     0
  7
STANDARD
140
6.0
170
     5
 62
     0
 63
     7
283
     0
274
    -2
284
     1
 64
     0
275
    -2
285
     1
 65
     0
276
    -2
286
     1
 66
     0
277
    -2
287
     1
 67
     0
278
    -2
288
     1
 68
     0
279
    -2
289
     1
 69
     0
  7
STANDARD
140
4.5
170
     5
 62
     0
 63
     7
283
     0
274
    -2
284
     1
 64
     0
275
    -2
285
     1
 65
     0
276
    -2
286
     1
 66
     0
277
    -2
287
     1
 67
     0
278
    -2
288
     1
 68
     0
279
    -2
289
     1
 69
     0
  0
DICTIONARYVAR
  5
138
102
{ACAD_REACTORS
330
94
102
}
330
94
100
DictionaryVariables
280
     0
  1
STANDARD
  0
DICTIONARYVAR
  5
96
102
{ACAD_REACTORS
330
94
102
}
330
94
100
DictionaryVariables
280
     0
  1
2
  0
DICTIONARYVAR
  5
95
102
{ACAD_REACTORS
330
94
102
}
330
94
100
DictionaryVariables
280
     0
  1
0
  0
DICTIONARYVAR
  5
7A24
102
{ACAD_REACTORS
330
94
102
}
330
94
100
DictionaryVariables
280
     0
  1

  0
DICTIONARY
  5
1B5
102
{ACAD_REACTORS
330
5B
102
}
330
5B
100
AcDbDictionary
281
     1
  0
DICTIONARY
  5
61
102
{ACAD_REACTORS
330
5B
102
}
330
5B
100
AcDbDictionary
281
     1
  0
XRECORD
  5
123
102
{ACAD_REACTORS
330
5B
102
}
330
5B
100
AcDbXrecord
280
     1
 90
-1023410169
  0
DICTIONARY
  5
7A2A
330
22
100
AcDbDictionary
280
     1
281
     1
  3
ACAD_XREC_ROUNDTRIP
360
7A2B
  0
DICTIONARY
  5
7A28
330
1E
100
AcDbDictionary
280
     1
281
     1
  3
ACAD_XREC_ROUNDTRIP
360
7A29
  0
DICTIONARY
  5
7A2C
330
26
100
AcDbDictionary
280
     1
281
     1
  3
ACAD_XREC_ROUNDTRIP
360
7A2D
  0
XRECORD
  5
7A2B
102
{ACAD_REACTORS
330
7A2A
102
}
330
7A2A
100
AcDbXrecord
280
     1
102
SHADEPLOT
 70
     0
102
SHADEPLOTRESLEVEL
 70
     2
102
SHADEPLOTCUSTOMDPI
 70
   300
  0
XRECORD
  5
7A29
102
{ACAD_REACTORS
330
7A28
102
}
330
7A28
100
AcDbXrecord
280
     1
102
SHADEPLOT
 70
     0
102
SHADEPLOTRESLEVEL
 70
     2
102
SHADEPLOTCUSTOMDPI
 70
   300
  0
XRECORD
  5
7A2D
102
{ACAD_REACTORS
330
7A2C
102
}
330
7A2C
100
AcDbXrecord
280
     1
102
SHADEPLOT
 70
     0
102
SHADEPLOTRESLEVEL
 70
     2
102
SHADEPLOTCUSTOMDPI
 70
   300
  0
ENDSEC
  0
EOF
