  0
SECTION
  2
HEADER
  9
$ACADVER
  1
AC1015
  9
$ACADMAINTVER
 70
    20
  9
$DWGCODEPAGE
  3
ANSI_950
  9
$INSBASE
 10
0.0
 20
0.0
 30
0.0
  9
$EXTMIN
 10
7108.897398086985
 20
1318.967036335046
 30
-0.0388727998797549
  9
$EXTMAX
 10
8688.490328635699
 20
3064.466153586039
 30
1273.919973119535
  9
$LIMMIN
 10
0.0
 20
0.0
  9
$LIMMAX
 10
420.0
 20
297.0
  9
$ORTHOMODE
 70
     1
  9
$REGENMODE
 70
     1
  9
$FILLMODE
 70
     1
  9
$QTEXTMODE
 70
     0
  9
$MIRRTEXT
 70
     1
  9
$LTSCALE
 40
1.0
  9
$ATTMODE
 70
     1
  9
$TEXTSIZE
 40
3.0
  9
$TRACEWID
 40
1.0
  9
$TEXTSTYLE
  7
CHINESET
  9
$CLAYER
  8
0
  9
$CELTYPE
  6
ByLayer
  9
$CECOLOR
 62
   256
  9
$CELTSCALE
 40
1.0
  9
$DISPSILH
 70
     0
  9
$DIMSCALE
 40
1.0
  9
$DIMASZ
 40
20.0
  9
$DIMEXO
 40
3.0
  9
$DIMDLI
 40
50.0
  9
$DIMRND
 40
0.0
  9
$DIMDLE
 40
0.0
  9
$DIMEXE
 40
4.0
  9
$DIMTP
 40
0.1
  9
$DIMTM
 40
0.1
  9
$DIMTXT
 40
20.0
  9
$DIMCEN
 40
0.0
  9
$DIMTSZ
 40
0.0
  9
$DIMTOL
 70
     0
  9
$DIMLIM
 70
     0
  9
$DIMTIH
 70
     0
  9
$DIMTOH
 70
     0
  9
$DIMSE1
 70
     0
  9
$DIMSE2
 70
     0
  9
$DIMTAD
 70
     1
  9
$DIMZIN
 70
     8
  9
$DIMBLK
  1

  9
$DIMASO
 70
     1
  9
$DIMSHO
 70
     1
  9
$DIMPOST
  1

  9
$DIMAPOST
  1
"
  9
$DIMALT
 70
     0
  9
$DIMALTD
 70
     2
  9
$DIMALTF
 40
0.0393701
  9
$DIMLFAC
 40
1.0
  9
$DIMTOFL
 70
     1
  9
$DIMTVP
 40
0.0
  9
$DIMTIX
 70
     0
  9
$DIMSOXD
 70
     0
  9
$DIMSAH
 70
     0
  9
$DIMBLK1
  1

  9
$DIMBLK2
  1

  9
$DIMSTYLE
  2
AM_ISO
  9
$DIMCLRD
 70
   256
  9
$DIMCLRE
 70
   256
  9
$DIMCLRT
 70
   256
  9
$DIMTFAC
 40
0.71
  9
$DIMGAP
 40
6.0
  9
$DIMJUST
 70
     0
  9
$DIMSD1
 70
     0
  9
$DIMSD2
 70
     0
  9
$DIMTOLJ
 70
     2
  9
$DIMTZIN
 70
     8
  9
$DIMALTZ
 70
     0
  9
$DIMALTTZ
 70
     0
  9
$DIMUPT
 70
     0
  9
$DIMDEC
 70
     2
  9
$DIMTDEC
 70
     8
  9
$DIMALTU
 70
     2
  9
$DIMALTTD
 70
     2
  9
$DIMTXSTY
  7
STANDARD
  9
$DIMAUNIT
 70
     0
  9
$DIMADEC
 70
     0
  9
$DIMALTRND
 40
0.0
  9
$DIMAZIN
 70
     2
  9
$DIMDSEP
 70
    46
  9
$DIMATFIT
 70
     3
  9
$DIMFRAC
 70
     0
  9
$DIMLDRBLK
  1

  9
$DIMLUNIT
 70
     2
  9
$DIMLWD
 70
    -1
  9
$DIMLWE
 70
    -1
  9
$DIMTMOVE
 70
     0
  9
$LUNITS
 70
     2
  9
$LUPREC
 70
     2
  9
$SKETCHINC
 40
1.0
  9
$FILLETRAD
 40
2.5
  9
$AUNITS
 70
     0
  9
$AUPREC
 70
     0
  9
$MENU
  1
.
  9
$ELEVATION
 40
0.0
  9
$PELEVATION
 40
0.0
  9
$THICKNESS
 40
0.0
  9
$LIMCHECK
 70
     0
  9
$CHAMFERA
 40
2.5
  9
$CHAMFERB
 40
2.5
  9
$CHAMFERC
 40
20.0
  9
$CHAMFERD
 40
0.0
  9
$SKPOLY
 70
     0
  9
$TDCREATE
 40
2453556.605858461
  9
$TDUCREATE
 40
2453556.272525128
  9
$TDUPDATE
 40
2453557.594061227
  9
$TDUUPDATE
 40
2453557.260727894
  9
$TDINDWG
 40
0.2817798958
  9
$TDUSRTIMER
 40
0.2817797222
  9
$USRTIMER
 70
     1
  9
$ANGBASE
 50
0.0
  9
$ANGDIR
 70
     0
  9
$PDMODE
 70
     0
  9
$PDSIZE
 40
0.0
  9
$PLINEWID
 40
0.0
  9
$SPLFRAME
 70
     0
  9
$SPLINETYPE
 70
     6
  9
$SPLINESEGS
 70
     8
  9
$HANDSEED
  5
78A6
  9
$SURFTAB1
 70
     6
  9
$SURFTAB2
 70
     6
  9
$SURFTYPE
 70
     6
  9
$SURFU
 70
     6
  9
$SURFV
 70
     6
  9
$UCSBASE
  2

  9
$UCSNAME
  2

  9
$UCSORG
 10
0.0
 20
0.0
 30
0.0
  9
$UCSXDIR
 10
1.0
 20
0.0
 30
0.0
  9
$UCSYDIR
 10
0.0
 20
1.0
 30
0.0
  9
$UCSORTHOREF
  2

  9
$UCSORTHOVIEW
 70
     0
  9
$UCSORGTOP
 10
0.0
 20
0.0
 30
0.0
  9
$UCSORGBOTTOM
 10
0.0
 20
0.0
 30
0.0
  9
$UCSORGLEFT
 10
0.0
 20
0.0
 30
0.0
  9
$UCSORGRIGHT
 10
0.0
 20
0.0
 30
0.0
  9
$UCSORGFRONT
 10
0.0
 20
0.0
 30
0.0
  9
$UCSORGBACK
 10
0.0
 20
0.0
 30
0.0
  9
$PUCSBASE
  2

  9
$PUCSNAME
  2

  9
$PUCSORG
 10
0.0
 20
0.0
 30
0.0
  9
$PUCSXDIR
 10
1.0
 20
0.0
 30
0.0
  9
$PUCSYDIR
 10
0.0
 20
1.0
 30
0.0
  9
$PUCSORTHOREF
  2

  9
$PUCSORTHOVIEW
 70
     0
  9
$PUCSORGTOP
 10
0.0
 20
0.0
 30
0.0
  9
$PUCSORGBOTTOM
 10
0.0
 20
0.0
 30
0.0
  9
$PUCSORGLEFT
 10
0.0
 20
0.0
 30
0.0
  9
$PUCSORGRIGHT
 10
0.0
 20
0.0
 30
0.0
  9
$PUCSORGFRONT
 10
0.0
 20
0.0
 30
0.0
  9
$PUCSORGBACK
 10
0.0
 20
0.0
 30
0.0
  9
$USERI1
 70
     0
  9
$USERI2
 70
     0
  9
$USERI3
 70
     0
  9
$USERI4
 70
     0
  9
$USERI5
 70
     0
  9
$USERR1
 40
0.0
  9
$USERR2
 40
0.0
  9
$USERR3
 40
0.0
  9
$USERR4
 40
0.0
  9
$USERR5
 40
0.0
  9
$WORLDVIEW
 70
     1
  9
$SHADEDGE
 70
     3
  9
$SHADEDIF
 70
    70
  9
$TILEMODE
 70
     1
  9
$MAXACTVP
 70
    64
  9
$PINSBASE
 10
0.0
 20
0.0
 30
0.0
  9
$PLIMCHECK
 70
     0
  9
$PEXTMIN
 10
1.000000000000000E+20
 20
1.000000000000000E+20
 30
1.000000000000000E+20
  9
$PEXTMAX
 10
-1.000000000000000E+20
 20
-1.000000000000000E+20
 30
-1.000000000000000E+20
  9
$PLIMMIN
 10
0.0
 20
0.0
  9
$PLIMMAX
 10
420.0
 20
297.0
  9
$UNITMODE
 70
     0
  9
$VISRETAIN
 70
     1
  9
$PLINEGEN
 70
     0
  9
$PSLTSCALE
 70
     1
  9
$TREEDEPTH
 70
  3020
  9
$CMLSTYLE
  2
Standard
  9
$CMLJUST
 70
     0
  9
$CMLSCALE
 40
20.0
  9
$PROXYGRAPHICS
 70
     1
  9
$MEASUREMENT
 70
     1
  9
$CELWEIGHT
370
    -1
  9
$ENDCAPS
280
     0
  9
$JOINSTYLE
280
     0
  9
$LWDISPLAY
290
     0
  9
$INSUNITS
 70
     4
  9
$HYPERLINKBASE
  1

  9
$STYLESHEET
  1
彩色出圖.ctb
  9
$XEDIT
290
     1
  9
$CEPSNTYPE
380
     0
  9
$PSTYLEMODE
290
     1
  9
$FINGERPRINTGUID
  2
{6FBFCDA8-F3CD-4AA6-B64B-DBECB1E66A4A}
  9
$VERSIONGUID
  2
{0C6A1A1F-1B87-40CE-94CC-F81D5CD3ED8D}
  9
$EXTNAMES
290
     1
  9
$PSVPSCALE
 40
0.0
  9
$OLESTARTUP
290
     0
  0
ENDSEC
  0
SECTION
  2
CLASSES
  0
CLASS
  1
ACDBDICTIONARYWDFLT
  2
AcDbDictionaryWithDefault
  3
ObjectDBX Classes
 90
        0
280
     0
281
     0
  0
CLASS
  1
ACDBPLACEHOLDER
  2
AcDbPlaceHolder
  3
ObjectDBX Classes
 90
        0
280
     0
281
     0
  0
CLASS
  1
LAYOUT
  2
AcDbLayout
  3
ObjectDBX Classes
 90
        0
280
     0
281
     0
  0
CLASS
  1
ACME_DOCUMENT
  2
AcMeDbDoc
  3
AcMeServices
 90
        0
280
     0
281
     0
  0
CLASS
  1
AMGSETTINGSOBJ
  2
AmgSettingsObj
  3
"AcadM|Product Description: AutoCAD Mechanical 2000|Company: Autodesk"
 90
        0
280
     0
281
     0
  0
CLASS
  1
ACMESCOPE
  2
AcMeScope
  3
AcMeServices
 90
        0
280
     0
281
     0
  0
CLASS
  1
ACMECOMMANDHISTORY
  2
AcMeCommandHistory
  3
AcMeServices
 90
        0
280
     0
281
     0
  0
CLASS
  1
ACIMSYSVARMAN
  2
AcImSysVarManager
  3
AcMeServices
 90
        0
280
     0
281
     0
  0
CLASS
  1
ACIMREALSYSVAR
  2
AcImRealSysVar
  3
AcMeServices
 90
        0
280
     0
281
     0
  0
CLASS
  1
ACIMINTSYSVAR
  2
AcImIntSysVar
  3
AcMeServices
 90
        0
280
     0
281
     0
  0
CLASS
  1
ACMEDRAWINGMAN
  2
AcMeDrawingMan
  3
AcMeServices
 90
        0
280
     0
281
     0
  0
CLASS
  1
ACMEVIEW
  2
AcMeView
  3
AcMeServices
 90
        0
280
     0
281
     0
  0
CLASS
  1
ACDBENTITYCACHE
  2
AcMeEntityCache
  3
AcMeServices
 90
        0
280
     0
281
     0
  0
CLASS
  1
GSMANAGER
  2
AcMeGSManager
  3
AcMeServices
 90
        0
280
     0
281
     0
  0
CLASS
  1
AMDTINTERNALREACTOR
  2
AmdtInternalReactor
  3
AcMeServices
 90
        0
280
     0
281
     0
  0
CLASS
  1
ACMESTATEMGR
  2
AcMeStateMgr
  3
AcMeServices
 90
        0
280
     0
281
     0
  0
CLASS
  1
ACGREFMASTER
  2
AcGrefMaster
  3
AcAttribServices
 90
        0
280
     0
281
     0
  0
CLASS
  1
ACME_DATABASE
  2
AcMeDbDatabase
  3
AcMeServices
 90
        0
280
     0
281
     0
  0
CLASS
  1
ACRFINSADJUSTERMGR
  2
AcRfInsAdjusterMgr
  3
AcMeServices
 90
        0
280
     0
281
     0
  0
CLASS
  1
ACGREFACADMASTER
  2
AcGrefacadMaster
  3
AcGrefServices
 90
        0
280
     0
281
     0
  0
CLASS
  1
AMIMASTER
  2
AmiMaster
  3
AmiServices
 90
        0
280
     0
281
     0
  0
CLASS
  1
ACMDATADICTIONARY
  2
AcmDataDictionary
  3
"AcmSymBB|Product Description: AutoCAD Mechanical 2004 DX|Company: Autodesk"
 90
        0
280
     0
281
     0
  0
CLASS
  1
ACMDATAENTRYBLOCK
  2
AcmDataEntryBlock
  3
"AcmSymBB|Product Description: AutoCAD Mechanical 2004 DX|Company: Autodesk"
 90
        0
280
     0
281
     0
  0
CLASS
  1
ACIMSTRSYSVAR
  2
AcImStrSysVar
  3
AcMeServices
 90
        0
280
     0
281
     0
  0
CLASS
  1
ACMSTANDARDISO
  2
AcmStandardISO
  3
"Amdt_StdImp|Product Description: AutoCAD Mechanical 2004 DX|Company: Autodesk"
 90
        0
280
     0
281
     0
  0
CLASS
  1
AMGOBJPROPCFG
  2
AmgObjPropCfg
  3
"AmgLay|Product Description: AutoCAD Mechanical 2000|Company: Autodesk"
 90
        1
280
     0
281
     0
  0
CLASS
  1
AMDTEDGESTANDARDISO
  2
AmdtEdgeStdISO
  3
"Amdt_StdImp|Product Description: AutoCAD Mechanical 2004 DX|Company: Autodesk"
 90
        0
280
     0
281
     0
  0
CLASS
  1
ACMSURFSTANDARDISO
  2
AcmSurfTextStdISO
  3
"Amdt_StdImp|Product Description: AutoCAD Mechanical 2004 DX|Company: Autodesk"
 90
        0
280
     0
281
     0
  0
CLASS
  1
ACMFCFSTANDARDISO
  2
AcmFCFStdISO
  3
"Amdt_StdImp|Product Description: AutoCAD Mechanical 2004 DX|Company: Autodesk"
 90
        0
280
     0
281
     0
  0
CLASS
  1
ACMWELDSTANDARDISO
  2
AcmWeldingStdISO
  3
"Amdt_StdImp|Product Description: AutoCAD Mechanical 2004 DX|Company: Autodesk"
 90
        0
280
     0
281
     0
  0
CLASS
  1
ACMIDSTANDARDISO
  2
AcmIdStdISO
  3
"Amdt_StdImp|Product Description: AutoCAD Mechanical 2004 DX|Company: Autodesk"
 90
        0
280
     0
281
     0
  0
CLASS
  1
ACMDATUMSTANDARDISO
  2
AcmDatumStdISO
  3
"Amdt_StdImp|Product Description: AutoCAD Mechanical 2004 DX|Company: Autodesk"
 90
        0
280
     0
281
     0
  0
CLASS
  1
ACMBOMSTANDARDISO
  2
AcmBOMStdISO
  3
"Amdt_StdImp|Product Description: AutoCAD Mechanical 2004 DX|Company: Autodesk"
 90
        0
280
     0
281
     0
  0
CLASS
  1
ACMDETAILSTANDARDISO
  2
AmdtDetailSymStdISO
  3
"Amdt_StdImp|Product Description: AutoCAD Mechanical 2004 DX|Company: Autodesk"
 90
        0
280
     0
281
     0
  0
CLASS
  1
ACMSECTIONSTANDARDISO
  2
AmdtSectionSymStdISO
  3
"Amdt_StdImp|Product Description: AutoCAD Mechanical 2004 DX|Company: Autodesk"
 90
        0
280
     0
281
     0
  0
CLASS
  1
ACMCENTERLINESTANDARDISO
  2
AmdtCenterLineStdISO
  3
"Amdt_StdImp|Product Description: AutoCAD Mechanical 2004 DX|Company: Autodesk"
 90
        0
280
     0
281
     0
  0
CLASS
  1
ACMNOTESTANDARDISO
  2
AmdtNoteStdISO
  3
"Amdt_StdImp|Product Description: AutoCAD Mechanical 2004 DX|Company: Autodesk"
 90
        0
280
     0
281
     0
  0
CLASS
  1
ACAMGLAYSTD
  2
AcAmgLayStd
  3
"AcAmgLayStd|Product Description: AutoCAD Mechanical 2000|Company: Autodesk"
 90
        0
280
     0
281
     0
  0
CLASS
  1
ACAMGDIMSTD
  2
AcAmgDimStd
  3
"AcAmgDimStd|Product Description: AutoCAD Mechanical 2000|Company: Autodesk"
 90
        0
280
     0
281
     0
  0
CLASS
  1
ACAMGHOLECHARTSTDISO
  2
AcAmgHoleChartStdISO
  3
ACMSYMBB_MODULE_NAME
 90
        0
280
     0
281
     0
  0
CLASS
  1
ACAMGTITLESTD
  2
AcAmgTitleStd
  3
"TITLEAPP"
 90
        0
280
     0
281
     0
  0
CLASS
  1
LAYER_INDEX
  2
AcDbLayerIndex
  3
ObjectDBX Classes
 90
    32768
280
     0
281
     0
  0
CLASS
  1
IDBUFFER
  2
AcDbIdBuffer
  3
ObjectDBX Classes
 90
    32768
280
     0
281
     0
  0
CLASS
  1
DICTIONARYVAR
  2
AcDbDictionaryVar
  3
ObjectDBX Classes
 90
        0
280
     0
281
     0
  0
CLASS
  1
AM_DRAWING_MGR
  2
AcDmDwgMgr
  3
AcMechDwgViewMgmt
 90
        0
280
     0
281
     0
  0
CLASS
  1
AM_DWG_DOCUMENT
  2
AcDmDwgDocument
  3
AcMechDwgViewMgmt
 90
        0
280
     0
281
     0
  0
CLASS
  1
AM_DWG_SHEET
  2
AcDmSheet
  3
AcMechDwgViewMgmt
 90
        0
280
     0
281
     0
  0
CLASS
  1
AM_VIEWDIMPARMAP
  2
AcDmViewDimParMap
  3
AcMechDwgViewMgmt
 90
        0
280
     0
281
     0
  0
CLASS
  1
AM_DWGMGR_NAME
  2
AcDmDwgMgrName
  3
AcMechDwgViewMgmt
 90
        0
280
     0
281
     0
  0
CLASS
  1
AMDTMENUSTATEMGR
  2
AmdtMenuStateMgr
  3
McadcomServices
 90
        0
280
     0
281
     0
  0
CLASS
  1
AMDTMCOMMENUSTATE
  2
AmdtMcomMenuState
  3
McadcomServices
 90
        0
280
     0
281
     0
  0
CLASS
  1
MAPIAMMOUDLE
  2
MApiAmModule
  3
MApiAmServices
 90
        0
280
     0
281
     0
  0
CLASS
  1
AMDTADMENUSTATE
  2
AmdtAdMenuState
  3
DesignerServices
 90
        0
280
     0
281
     0
  0
CLASS
  1
ADAPPL
  2
AcAdAppl
  3
DesignerServices
 90
        0
280
     0
281
     0
  0
CLASS
  1
DEPMGR
  2
AcAdDepMgr
  3
DesignerServices
 90
        0
280
     0
281
     0
  0
CLASS
  1
PARAMMGR
  2
AcAdParamMgr
  3
DesignerServices
 90
        0
280
     0
281
     0
  0
CLASS
  1
PARAMSCOPE
  2
AcAdParamScope
  3
DesignerServices
 90
        0
280
     0
281
     0
  0
CLASS
  1
NAMEDAPPL
  2
AcAdNamedAppl
  3
DesignerServices
 90
        0
280
     0
281
     0
  0
CLASS
  1
AMDTDMMENUSTATE
  2
AmdtDmMenuState
  3
AcMechDwgViewMgmt
 90
        0
280
     0
281
     0
  0
CLASS
  1
AMDTAMMENUSTATE
  2
AmdtAmMenuState
  3
DesignerAssemblies
 90
        0
280
     0
281
     0
  0
CLASS
  1
ACAMPROJECT
  2
AcAmProject
  3
DesignerAssemblies
 90
        0
280
     0
281
     0
  0
CLASS
  1
ACAMGRCOMPDEF
  2
AcAmGrCompDef
  3
DesignerAssemblies
 90
        0
280
     0
281
     0
  0
CLASS
  1
ACCMCONTEXT
  2
AcCmContext
  3
DesignerAssemblies
 90
        0
280
     0
281
     0
  0
CLASS
  1
ACAMCOMPDEF
  2
AcAmCompDef
  3
DesignerAssemblies
 90
        0
280
     0
281
     0
  0
CLASS
  1
ACAMCOMPDEFMGR
  2
AcAmCompDefMgr
  3
DesignerAssemblies
 90
        0
280
     0
281
     0
  0
CLASS
  1
AMCONTEXTMGR
  2
AcAmContextMgr
  3
DesignerAssemblies
 90
        0
280
     0
281
     0
  0
CLASS
  1
ACAMCONTEXTMODELER
  2
AcAmContextModeler
  3
DesignerAssemblies
 90
        0
280
     0
281
     0
  0
CLASS
  1
ACMTHREADLINESTANDARDISO
  2
AmdtThreadLineStdISO
  3
"Amdt_StdImp|Product Description: AutoCAD Mechanical 2004 DX|Company: Autodesk"
 90
        0
280
     0
281
     0
  0
CLASS
  1
CATALOGSTATE
  2
AcAmCatalogState
  3
DesignerAssemblies
 90
        0
280
     0
281
     0
  0
CLASS
  1
ACAMGRCOMPDEFSET
  2
AcAmGrCompDefSet
  3
DesignerAssemblies
 90
        0
280
     0
281
     0
  0
CLASS
  1
AMDTBROWSERDBTAB
  2
AmdtBrowserDbTab
  3
McadcomServices
 90
        0
280
     0
281
     0
  0
CLASS
  1
CBROWSERAPPOBJECT
  2
CBrowserAppObject
  3
McadcomServices
 90
        0
280
     0
281
     0
  0
CLASS
  1
DM_PLACEHOLDER
  2
AcDmSelsetPlaceholder
  3
AcMechDwgViewMgmt
 90
        0
280
     0
281
     0
  0
CLASS
  1
TABLESTYLE
  2
AcDbTableStyle
  3
ObjectDBX Classes
 90
     2047
280
     0
281
     0
  0
CLASS
  1
VAACXREFPANELOBJECT
  2
VaAcXREFPanelObject
  3
VAAC_ADDIN
 90
    32768
280
     0
281
     0
  0
CLASS
  1
VAACIMAGEINVENTORY
  2
VaAcImageInventory
  3
VAAC_ADDIN
 90
    32768
280
     0
281
     0
  0
CLASS
  1
AMDTNOTETEMPLATEDB
  2
AmdtNoteTemplateDB
  3
AMDT_STDIMP_MODULE_NAME
 90
        0
280
     0
281
     0
  0
CLASS
  1
ACMBOM
  2
AcmBom
  3
"AcmSymBB|Product Description: AutoCAD Mechanical 2004 DX|Company: Autodesk"
 90
    32768
280
     0
281
     0
  0
CLASS
  1
AMDTFORMULAUPDATEDISPATCHER
  2
AmdtFormulaUpdateDispatcher
  3
AcMeServices
 90
    32768
280
     0
281
     0
  0
CLASS
  1
ACMPARTLIST
  2
AcmPartList
  3
"AcmSymBB|Product Description: AutoCAD Mechanical 2004 DX|Company: Autodesk"
 90
    33791
280
     0
281
     1
  0
CLASS
  1
ACAMGFILTERDAT
  2
AcAmgFilterDat
  3
"AcadM|Product Description: AutoCAD Mechanical 2000|Company: Autodesk"
 90
        0
280
     0
281
     0
  0
CLASS
  1
DIMASSOC
  2
AcDbDimAssoc
  3
"AcDbDimAssoc|Product Desc:     AcDim ARX App For Dimension|Company:          Autodesk, Inc.|WEB Address:      www.autodesk.com"
 90
        0
280
     0
281
     0
  0
CLASS
  1
ACAMGHOLECHARTORIGIN
  2
AcAmgHoleChartOrigin
  3
ACMSYMBB_MODULE_NAME
 90
    33663
280
     0
281
     1
  0
CLASS
  1
AMDTNOTE
  2
AmdtNote
  3
"AcmSymBB|Product Description: AutoCAD Mechanical 2004 DX|Company: Autodesk"
 90
     1023
280
     0
281
     1
  0
CLASS
  1
ACRFATTGENMGR
  2
AcRfAttGeneralMgr
  3
AcAttribServices
 90
        0
280
     0
281
     0
  0
ENDSEC
  0
SECTION
  2
TABLES
  0
TABLE
  2
VPORT
  5
8
330
0
100
AcDbSymbolTable
 70
     3
  0
VPORT
  5
789D
330
8
100
AcDbSymbolTableRecord
100
AcDbViewportTableRecord
  2
*Active
 70
     0
 10
0.0
 20
0.0
 11
1.0
 21
1.0
 12
7898.589543476166
 22
2191.842142709962
 13
0.0
 23
0.0
 14
2.5
 24
2.5
 15
10.0
 25
10.0
 16
0.0
 26
0.0
 36
1.0
 17
0.0
 27
0.0
 37
0.0
 40
1767.244747645603
 41
1.81766917293233
 42
50.0
 43
0.0
 44
0.0
 50
0.0
 51
0.0
 71
     0
 72
   100
 73
     1
 74
     3
 75
     0
 76
     0
 77
     0
 78
     0
281
     0
 65
     1
110
0.0
120
0.0
130
0.0
111
1.0
121
0.0
131
0.0
112
0.0
122
1.0
132
0.0
 79
     0
146
0.0
  0
ENDTAB
  0
TABLE
  2
LTYPE
  5
5
330
0
100
AcDbSymbolTable
 70
    17
  0
LTYPE
  5
14
330
5
100
AcDbSymbolTableRecord
100
AcDbLinetypeTableRecord
  2
ByBlock
 70
     0
  3

 72
    65
 73
     0
 40
0.0
  0
LTYPE
  5
15
330
5
100
AcDbSymbolTableRecord
100
AcDbLinetypeTableRecord
  2
ByLayer
 70
     0
  3

 72
    65
 73
     0
 40
0.0
  0
LTYPE
  5
16
330
5
100
AcDbSymbolTableRecord
100
AcDbLinetypeTableRecord
  2
Continuous
 70
     0
  3
Solid line
 72
    65
 73
     0
 40
0.0
  0
LTYPE
  5
64
330
5
100
AcDbSymbolTableRecord
100
AcDbLinetypeTableRecord
  2
AM_ISO02W050
 70
     0
  3
__ __ __ __ __ __ __ __ __ __ __ __ __ __ __
 72
    65
 73
     2
 40
7.5
 49
6.0
 74
     0
 49
-1.5
 74
     0
  0
LTYPE
  5
65
330
5
100
AcDbSymbolTableRecord
100
AcDbLinetypeTableRecord
  2
AM_ISO08W050
 70
     0
  3
____ . ____ . ____ . ____ . ____ . ____ . ____
 72
    65
 73
     4
 40
18.0
 49
12.0
 74
     0
 49
-1.5
 74
     0
 49
3.0
 74
     0
 49
-1.5
 74
     0
  0
LTYPE
  5
66
330
5
100
AcDbSymbolTableRecord
100
AcDbLinetypeTableRecord
  2
AM_ISO09W050
 70
     0
  3
_____ . . _____ . . _____ . . ____ .. ____
 72
    65
 73
     6
 40
22.5
 49
12.0
 74
     0
 49
-1.5
 74
     0
 49
3.0
 74
     0
 49
-1.5
 74
     0
 49
3.0
 74
     0
 49
-1.5
 74
     0
  0
LTYPE
  5
67
330
5
100
AcDbSymbolTableRecord
100
AcDbLinetypeTableRecord
  2
Amconstr
 70
     0
  3
_______________________
 72
    65
 73
     2
 40
9999.0
 49
9999.0
 74
     0
 49
0.0
 74
     0
  0
LTYPE
  5
68
330
5
100
AcDbSymbolTableRecord
100
AcDbLinetypeTableRecord
  2
AM_ISO08W050x2
 70
     0
  3
__ . __ . __ . __ . __ . __
 72
    65
 73
     4
 40
9.0
 49
6.0
 74
     0
 49
-0.75
 74
     0
 49
1.5
 74
     0
 49
-0.75
 74
     0
  0
LTYPE
  5
69
330
5
100
AcDbSymbolTableRecord
100
AcDbLinetypeTableRecord
  2
AM_ISO02W050x2
 70
     0
  3
 _ _ _ _ _ _ _ _ _ _ _ _
 72
    65
 73
     2
 40
3.75
 49
3.0
 74
     0
 49
-0.75
 74
     0
  0
LTYPE
  5
6C
330
5
100
AcDbSymbolTableRecord
100
AcDbLinetypeTableRecord
  2
Amzigzag
 70
     0
  3
/\/-/\/-/\/-/\/-/\/-/\/
 72
    65
 73
     2
 40
11.0001
 49
0.0001
 74
     4
 75
   135
340
6B
 46
0.04
 50
0.0
 44
0.0
 45
0.0
 49
-11.0
 74
     0
  0
LTYPE
  5
7A
330
5
100
AcDbSymbolTableRecord
100
AcDbLinetypeTableRecord
  2
ACISOWELD
 70
     0
  3
_ _ _ _ _
 72
    65
 73
     2
 40
2.0
 49
2.0
 74
     0
 49
-1.0
 74
     0
  0
LTYPE
  5
7B
330
5
100
AcDbSymbolTableRecord
100
AcDbLinetypeTableRecord
  2
ACISOTGB
 70
     0
  3
__ . . __ . .
 72
    65
 73
     6
 40
9.0
 49
4.0
 74
     0
 49
-1.0
 74
     0
 49
1.0
 74
     0
 49
-1.0
 74
     0
 49
1.0
 74
     0
 49
-1.0
 74
     0
  0
LTYPE
  5
7C
330
5
100
AcDbSymbolTableRecord
100
AcDbLinetypeTableRecord
  2
ACISOTGL
 70
     0
  3
_ _ _ _ _
 72
    65
 73
     2
 40
3.0
 49
2.0
 74
     0
 49
-1.0
 74
     0
  0
LTYPE
  5
7E
330
5
100
AcDbSymbolTableRecord
100
AcDbLinetypeTableRecord
  2
CENTER
 70
     0
  3
__ . __
 72
    65
 73
     4
 40
7.0
 49
4.0
 74
     0
 49
-1.0
 74
     0
 49
1.0
 74
     0
 49
-1.0
 74
     0
  0
LTYPE
  5
D8
330
5
100
AcDbSymbolTableRecord
100
AcDbLinetypeTableRecord
  2
HIDDEN
 70
     0
  3
Hidden __ __ __ __ __ __ __ __ __ __ __ __ __ _
 72
    65
 73
     2
 40
9.524999999999998
 49
6.349999999999999
 74
     0
 49
-3.174999999999999
 74
     0
  0
LTYPE
  5
D9
330
5
100
AcDbSymbolTableRecord
100
AcDbLinetypeTableRecord
  2
PHANTOM2
 70
     0
  3
Phantom (.5x) ___ _ _ ___ _ _ ___ _ _ ___ _ _
 72
    65
 73
     6
 40
31.75
 49
15.875
 74
     0
 49
-3.174999999999999
 74
     0
 49
3.174999999999999
 74
     0
 49
-3.174999999999999
 74
     0
 49
3.174999999999999
 74
     0
 49
-3.174999999999999
 74
     0
  0
LTYPE
  5
71E
330
5
100
AcDbSymbolTableRecord
100
AcDbLinetypeTableRecord
  2
CENTER2
 70
     0
  3
Center (.5x) ___ _ ___ _ ___ _ ___ _ ___ _ ___
 72
    65
 73
     4
 40
28.575
 49
19.05
 74
     0
 49
-3.174999999999999
 74
     0
 49
3.174999999999999
 74
     0
 49
-3.174999999999999
 74
     0
  0
LTYPE
  5
71F
330
5
100
AcDbSymbolTableRecord
100
AcDbLinetypeTableRecord
  2
HIDDEN2
 70
     0
  3
Hidden (.5x) _ _ _ _ _ _ _ _ _ _ _ _ _ _ _ _ _
 72
    65
 73
     2
 40
4.762499999999999
 49
3.174999999999999
 74
     0
 49
-1.587499999999999
 74
     0
  0
LTYPE
  5
63A7
330
5
100
AcDbSymbolTableRecord
100
AcDbLinetypeTableRecord
  2
CENTERX2
 70
     0
  3
Center (2x) ________  __  ________  __  _____
 72
    65
 73
     4
 40
101.6
 49
63.5
 74
     0
 49
-12.7
 74
     0
 49
12.7
 74
     0
 49
-12.7
 74
     0
  0
ENDTAB
  0
TABLE
  2
LAYER
  5
2
102
{ACAD_XDICTIONARY
360
3F9
102
}
330
0
100
AcDbSymbolTable
 70
     9
  0
LAYER
  5
10
330
2
100
AcDbSymbolTableRecord
100
AcDbLayerTableRecord
  2
0
 70
     0
 62
     7
  6
Continuous
370
    -3
390
F
  0
LAYER
  5
206
330
2
100
AcDbSymbolTableRecord
100
AcDbLayerTableRecord
  2
Defpoints
 70
     0
 62
     7
  6
Continuous
290
     0
370
    -3
390
F
  0
LAYER
  5
720
330
2
100
AcDbSymbolTableRecord
100
AcDbLayerTableRecord
  2
圖層1輪廓線
 70
     0
 62
     7
  6
Continuous
370
    50
390
728
  0
LAYER
  5
721
330
2
100
AcDbSymbolTableRecord
100
AcDbLayerTableRecord
  2
圖層2中心線
 70
     0
 62
     1
  6
CENTERX2
370
    18
390
729
  0
LAYER
  5
722
330
2
100
AcDbSymbolTableRecord
100
AcDbLayerTableRecord
  2
圖層3虛線
 70
     0
 62
     3
  6
HIDDEN2
370
    25
390
72A
  0
LAYER
  5
723
330
2
100
AcDbSymbolTableRecord
100
AcDbLayerTableRecord
  2
圖層4尺寸線
 70
     0
 62
     5
  6
Continuous
370
    25
390
72B
  0
LAYER
  5
B2A
330
2
100
AcDbSymbolTableRecord
100
AcDbLayerTableRecord
  2
AM_5
 70
     0
 62
     5
  6
Continuous
370
    50
390
F
  0
LAYER
  5
15F9
330
2
100
AcDbSymbolTableRecord
100
AcDbLayerTableRecord
  2
AM_7
 70
     0
 62
     1
  6
CENTER
370
    25
390
F
  0
LAYER
  5
75F1
330
2
100
AcDbSymbolTableRecord
100
AcDbLayerTableRecord
  2
LOGO
 70
     0
 62
     7
  6
Continuous
370
    -3
390
F
  0
ENDTAB
  0
TABLE
  2
STYLE
  5
3
330
0
100
AcDbSymbolTable
 70
     7
  0
STYLE
  5
11
330
3
100
AcDbSymbolTableRecord
100
AcDbTextStyleTableRecord
  2
STANDARD
 70
     0
 40
0.0
 41
1.0
 50
0.0
 71
     0
 42
3.0
  3
ISOCP.SHX
  4
CHINESET.SHX
  0
STYLE
  5
6B
330
3
100
AcDbSymbolTableRecord
100
AcDbTextStyleTableRecord
  2

 70
     1
 40
0.0
 41
1.0
 50
0.0
 71
     0
 42
2.5
  3
ltypeshp.shx
  4

  0
STYLE
  5
6D
330
3
100
AcDbSymbolTableRecord
100
AcDbTextStyleTableRecord
  2
ACISOTS
 70
     0
 40
1.0
 41
1.0
 50
0.0
 71
     0
 42
1.0
  3
isocp.shx
  4
chineset.shx
  0
STYLE
  5
79
330
3
100
AcDbSymbolTableRecord
100
AcDbTextStyleTableRecord
  2
ACISOGDT
 70
     0
 40
0.0
 41
1.0
 50
0.0
 71
     0
 42
2.5
  3
amgdt.shx
  4
chineset.shx
  0
STYLE
  5
60C
330
3
100
AcDbSymbolTableRecord
100
AcDbTextStyleTableRecord
  2
CHINESET
 70
     0
 40
0.0
 41
1.0
 50
0.0
 71
     0
 42
3.0
  3
simplex.shx
  4
CHINESET.SHX
  0
STYLE
  5
7721
330
3
100
AcDbSymbolTableRecord
100
AcDbTextStyleTableRecord
  2
WIN
 70
     0
 40
0.0
 41
1.0
 50
0.0
 71
     0
 42
4.0
  3
PMingLiU.ttf
  4

1001
ACAD
1000
PMingLiU
1071
    34834
  0
ENDTAB
  0
TABLE
  2
VIEW
  5
6
330
0
100
AcDbSymbolTable
 70
     0
  0
ENDTAB
  0
TABLE
  2
UCS
  5
7
330
0
100
AcDbSymbolTable
 70
     0
  0
ENDTAB
  0
TABLE
  2
APPID
  5
9
330
0
100
AcDbSymbolTable
 70
    21
  0
APPID
  5
12
330
9
100
AcDbSymbolTableRecord
100
AcDbRegAppTableRecord
  2
ACAD
 70
     0
  0
APPID
  5
46
330
9
100
AcDbSymbolTableRecord
100
AcDbRegAppTableRecord
  2
MCAD_NO_VIS
 70
     0
  0
APPID
  5
47
330
9
100
AcDbSymbolTableRecord
100
AcDbRegAppTableRecord
  2
ACAD_TEMP_GRAPHIC
 70
     0
  0
APPID
  5
58
330
9
100
AcDbSymbolTableRecord
100
AcDbRegAppTableRecord
  2
ACATTRIBSERVICES
 70
     0
  0
APPID
  5
EE
330
9
100
AcDbSymbolTableRecord
100
AcDbRegAppTableRecord
  2
AD_DRAW
 70
     0
  0
APPID
  5
10C
330
9
100
AcDbSymbolTableRecord
100
AcDbRegAppTableRecord
  2
DESIGNERASSEMBLIES
 70
     0
  0
APPID
  5
111
330
9
100
AcDbSymbolTableRecord
100
AcDbRegAppTableRecord
  2
ACADM_DIM_EDIT
 70
     0
  0
APPID
  5
112
330
9
100
AcDbSymbolTableRecord
100
AcDbRegAppTableRecord
  2
AMDT_DM_ADJ
 70
     0
  0
APPID
  5
22C
330
9
100
AcDbSymbolTableRecord
100
AcDbRegAppTableRecord
  2
ACAD_DSTYLE_DIMTEXT_FILL
 70
     0
  0
APPID
  5
452
330
9
100
AcDbSymbolTableRecord
100
AcDbRegAppTableRecord
  2
GENIUS_GENOENT_13
 70
     0
  0
APPID
  5
453
330
9
100
AcDbSymbolTableRecord
100
AcDbRegAppTableRecord
  2
GENIUS_GENOBJ-N-CRS_13
 70
     0
  0
APPID
  5
454
330
9
100
AcDbSymbolTableRecord
100
AcDbRegAppTableRecord
  2
GENIUS_GENOLIS_13
 70
     0
  0
APPID
  5
455
330
9
100
AcDbSymbolTableRecord
100
AcDbRegAppTableRecord
  2
GENIUS_GENODEF_13
 70
     0
  0
APPID
  5
456
330
9
100
AcDbSymbolTableRecord
100
AcDbRegAppTableRecord
  2
GENIUS_GENOREF_13
 70
     0
  0
APPID
  5
6F3
330
9
100
AcDbSymbolTableRecord
100
AcDbRegAppTableRecord
  2
ACAD_PSEXT
 70
     0
  0
APPID
  5
727
330
9
100
AcDbSymbolTableRecord
100
AcDbRegAppTableRecord
  2
AcAecLayerStandard
 70
     0
  0
APPID
  5
D7F
330
9
100
AcDbSymbolTableRecord
100
AcDbRegAppTableRecord
  2
GENIUS_GENDTOL_13
 70
     0
  0
APPID
  5
15FB
330
9
100
AcDbSymbolTableRecord
100
AcDbRegAppTableRecord
  2
GENIUS_GENOBJ-N-CEN_13
 70
     0
  0
APPID
  5
15FC
330
9
100
AcDbSymbolTableRecord
100
AcDbRegAppTableRecord
  2
GENIUS_GENCEN_19
 70
     0
  0
APPID
  5
300F
330
9
100
AcDbSymbolTableRecord
100
AcDbRegAppTableRecord
  2
GENIUS_GENREC_14
 70
     0
  0
APPID
  5
3010
330
9
100
AcDbSymbolTableRecord
100
AcDbRegAppTableRecord
  2
GENIUS_GENOBJ-N-REC_13
 70
     0
  0
ENDTAB
  0
TABLE
  2
DIMSTYLE
  5
A
330
0
100
AcDbSymbolTable
 70
    12
100
AcDbDimStyleTable
 71
     3
340
81
340
8B
340
86
  0
DIMSTYLE
105
81
330
A
100
AcDbSymbolTableRecord
100
AcDbDimStyleTableRecord
  2
AM_ISO
 70
     0
  4
"
 41
20.0
 42
3.0
 43
50.0
 44
4.0
 47
0.1
 48
0.1
 73
     0
 74
     0
 77
     1
 78
     8
 79
     2
140
20.0
141
0.0
143
0.0393701
146
0.71
147
6.0
172
     1
176
   256
177
   256
178
   256
271
     2
272
     2
283
     2
284
     8
340
11
371
    -1
372
    -1
  0
DIMSTYLE
105
82
330
A
100
AcDbSymbolTableRecord
100
AcDbDimStyleTableRecord
  2
AM_ISO$3
 70
     0
  4
"
 41
20.0
 42
3.0
 43
50.0
 44
4.0
 47
0.1
 48
0.1
 73
     0
 77
     1
 78
     8
 79
     2
140
20.0
141
0.0
143
0.0393701
146
0.71
147
6.0
176
   256
177
   256
178
   256
271
     2
272
     2
283
     2
284
     8
288
     1
289
     0
340
11
371
    -1
372
    -1
  0
DIMSTYLE
105
83
330
A
100
AcDbSymbolTableRecord
100
AcDbDimStyleTableRecord
  2
AM_ISO$4
 70
     0
  4
"
 41
20.0
 42
3.0
 43
50.0
 44
4.0
 47
0.1
 48
0.1
 73
     0
 77
     1
 78
     8
 79
     2
140
20.0
141
0.0
143
0.0393701
146
0.71
147
6.0
176
   256
177
   256
178
   256
271
     2
272
     2
283
     2
284
     8
288
     1
289
     0
340
11
371
    -1
372
    -1
  0
DIMSTYLE
105
84
330
A
100
AcDbSymbolTableRecord
100
AcDbDimStyleTableRecord
  2
AM_ISO$6
 70
     0
  4
"
 41
20.0
 42
3.0
 43
50.0
 44
4.0
 47
0.1
 48
0.1
 73
     0
 74
     0
 78
     8
 79
     2
140
20.0
141
0.0
143
0.0393701
146
0.71
147
6.0
172
     1
176
   256
177
   256
178
   256
271
     2
272
     2
283
     2
284
     8
340
11
371
    -1
372
    -1
  0
DIMSTYLE
105
85
330
A
100
AcDbSymbolTableRecord
100
AcDbDimStyleTableRecord
  2
AM_ISO$7
 70
     0
  4
"
 41
20.0
 42
3.0
 43
50.0
 44
4.0
 47
0.1
 48
0.1
 73
     0
 74
     0
 77
     1
 78
     8
 79
     2
140
5.0
141
0.0
143
0.0393701
146
0.71
147
6.0
172
     1
176
   256
177
   256
178
   256
271
     2
272
     2
283
     2
284
     8
340
11
371
    -1
372
    -1
  0
DIMSTYLE
105
86
330
A
100
AcDbSymbolTableRecord
100
AcDbDimStyleTableRecord
  2
AM_ISO$SF
 70
     0
  4
"
 41
2.5
 42
1.0
 43
10.0
 44
1.0
 47
0.1
 48
0.1
 73
     0
 74
     0
 75
     1
 76
     1
 77
     1
 78
     8
 79
     2
140
3.5
141
0.0
143
0.0393701
146
0.71
147
1.5
172
     1
176
   256
177
   256
178
     2
271
     2
272
     3
274
     4
283
     0
284
     8
340
11
371
    -1
372
    -1
  0
DIMSTYLE
105
8B
330
A
100
AcDbSymbolTableRecord
100
AcDbDimStyleTableRecord
  2
AM_ISO$SH
 70
     0
  4
"
 41
2.5
 42
1.0
 43
10.0
 44
1.0
 47
0.1
 48
0.1
 73
     0
 74
     0
 75
     1
 76
     1
 77
     1
 78
     8
 79
     2
140
3.5
141
0.0
143
0.0393701
144
2.0
146
0.71
147
1.5
172
     1
173
     1
176
   256
177
   256
178
     2
271
     2
272
     3
274
     4
283
     0
284
     8
340
11
343
87
371
    -1
372
    -1
  0
DIMSTYLE
105
40B
102
{ACAD_REACTORS
330
492F
330
4930
330
495E
330
495F
330
499C
330
499D
330
499E
330
499F
330
4A2E
330
4A2F
330
4A75
330
4A76
330
4A78
330
4A79
330
5025
330
5026
330
5027
330
51F8
330
51F9
330
51FA
330
51FB
330
7469
330
74CA
102
}
330
A
100
AcDbSymbolTableRecord
100
AcDbDimStyleTableRecord
  2
AM_ISO$0
 70
     0
  4
"
 41
20.0
 42
3.0
 43
50.0
 44
4.0
 47
0.1
 48
0.1
 73
     0
 74
     0
 77
     1
 78
     8
 79
     2
140
20.0
141
0.0
143
0.0393701
146
0.71
147
6.0
172
     1
176
   256
177
   256
178
   256
271
     2
272
     2
283
     2
284
     8
340
11
371
    -1
372
    -1
  0
DIMSTYLE
105
7722
330
A
100
AcDbSymbolTableRecord
100
AcDbDimStyleTableRecord
  2
ISO-25
 70
     0
 41
2.5
 42
0.625
 43
3.75
 44
1.25
 73
     0
 74
     0
 77
     1
 78
     8
140
2.5
141
2.5
143
0.03937007874016
147
0.625
171
     3
172
     1
271
     2
272
     2
274
     3
278
    44
283
     0
284
     8
340
11
  0
DIMSTYLE
105
7723
330
A
100
AcDbSymbolTableRecord
100
AcDbDimStyleTableRecord
  2
複本 ISO-150
 70
     0
 41
15.0
 42
4.0
 43
20.0
 44
4.0
 73
     0
 74
     0
 77
     1
 78
     8
140
15.0
141
12.0
143
0.03937007874016
147
4.0
171
     3
172
     1
271
     1
272
     1
274
     3
278
    44
283
     0
284
     8
340
11
  0
DIMSTYLE
105
7724
330
A
100
AcDbSymbolTableRecord
100
AcDbDimStyleTableRecord
  2
弧 自由無內線
 70
     0
 41
15.0
 42
2.0
 43
20.0
 44
2.0
 77
     1
 78
     8
140
15.0
141
0.0
143
0.03937007874016
147
2.0
171
     3
271
     2
272
     2
274
     3
278
    44
283
     0
284
     8
340
11
  0
ENDTAB
  0
TABLE
  2
BLOCK_RECORD
  5
1
330
0
100
AcDbSymbolTable
 70
    30
  0
BLOCK_RECORD
  5
1F
102
{ACAD_XDICTIONARY
360
8F
102
}
330
1
100
AcDbSymbolTableRecord
100
AcDbBlockTableRecord
  2
*Model_Space
340
22
  0
BLOCK_RECORD
  5
1B
330
1
100
AcDbSymbolTableRecord
100
AcDbBlockTableRecord
  2
*Paper_Space
340
1E
  0
BLOCK_RECORD
  5
23
330
1
100
AcDbSymbolTableRecord
100
AcDbBlockTableRecord
  2
*Paper_Space0
340
26
  0
BLOCK_RECORD
  5
87
330
1
100
AcDbSymbolTableRecord
100
AcDbBlockTableRecord
  2
GENAXEH
340
0
  0
BLOCK_RECORD
  5
4933
330
1
100
AcDbSymbolTableRecord
100
AcDbBlockTableRecord
  2
*D3
340
0
  0
BLOCK_RECORD
  5
493F
330
1
100
AcDbSymbolTableRecord
100
AcDbBlockTableRecord
  2
*D4
340
0
  0
BLOCK_RECORD
  5
4960
330
1
100
AcDbSymbolTableRecord
100
AcDbBlockTableRecord
  2
*D5
340
0
  0
BLOCK_RECORD
  5
496C
330
1
100
AcDbSymbolTableRecord
100
AcDbBlockTableRecord
  2
*D6
340
0
  0
BLOCK_RECORD
  5
49A0
330
1
100
AcDbSymbolTableRecord
100
AcDbBlockTableRecord
  2
*D7
340
0
  0
BLOCK_RECORD
  5
49AC
330
1
100
AcDbSymbolTableRecord
100
AcDbBlockTableRecord
  2
*D8
340
0
  0
BLOCK_RECORD
  5
49B8
330
1
100
AcDbSymbolTableRecord
100
AcDbBlockTableRecord
  2
*D9
340
0
  0
BLOCK_RECORD
  5
49C4
330
1
100
AcDbSymbolTableRecord
100
AcDbBlockTableRecord
  2
*D10
340
0
  0
BLOCK_RECORD
  5
4A30
330
1
100
AcDbSymbolTableRecord
100
AcDbBlockTableRecord
  2
*D11
340
0
  0
BLOCK_RECORD
  5
4A3C
330
1
100
AcDbSymbolTableRecord
100
AcDbBlockTableRecord
  2
*D12
340
0
  0
BLOCK_RECORD
  5
4A7A
330
1
100
AcDbSymbolTableRecord
100
AcDbBlockTableRecord
  2
*D13
340
0
  0
BLOCK_RECORD
  5
4A86
330
1
100
AcDbSymbolTableRecord
100
AcDbBlockTableRecord
  2
*D14
340
0
  0
BLOCK_RECORD
  5
4A9E
330
1
100
AcDbSymbolTableRecord
100
AcDbBlockTableRecord
  2
*D15
340
0
  0
BLOCK_RECORD
  5
4AAA
330
1
100
AcDbSymbolTableRecord
100
AcDbBlockTableRecord
  2
*D16
340
0
  0
BLOCK_RECORD
  5
5028
330
1
100
AcDbSymbolTableRecord
100
AcDbBlockTableRecord
  2
*D17
340
0
  0
BLOCK_RECORD
  5
5036
330
1
100
AcDbSymbolTableRecord
100
AcDbBlockTableRecord
  2
*D18
340
0
  0
BLOCK_RECORD
  5
5044
330
1
100
AcDbSymbolTableRecord
100
AcDbBlockTableRecord
  2
*D19
340
0
  0
BLOCK_RECORD
  5
51FC
330
1
100
AcDbSymbolTableRecord
100
AcDbBlockTableRecord
  2
*D20
340
0
  0
BLOCK_RECORD
  5
520A
330
1
100
AcDbSymbolTableRecord
100
AcDbBlockTableRecord
  2
*D21
340
0
  0
BLOCK_RECORD
  5
5218
330
1
100
AcDbSymbolTableRecord
100
AcDbBlockTableRecord
  2
*D22
340
0
  0
BLOCK_RECORD
  5
5226
330
1
100
AcDbSymbolTableRecord
100
AcDbBlockTableRecord
  2
*D23
340
0
  0
BLOCK_RECORD
  5
746A
330
1
100
AcDbSymbolTableRecord
100
AcDbBlockTableRecord
  2
*D24
340
0
  0
BLOCK_RECORD
  5
74CB
330
1
100
AcDbSymbolTableRecord
100
AcDbBlockTableRecord
  2
*D25
340
0
  0
BLOCK_RECORD
  5
7725
330
1
100
AcDbSymbolTableRecord
100
AcDbBlockTableRecord
  2
A$C6CD92E8B
340
0
  0
BLOCK_RECORD
  5
788B
330
1
100
AcDbSymbolTableRecord
100
AcDbBlockTableRecord
  2
*S28
340
0
  0
BLOCK_RECORD
  5
7893
330
1
100
AcDbSymbolTableRecord
100
AcDbBlockTableRecord
  2
*S29
340
0
  0
ENDTAB
  0
ENDSEC
  0
SECTION
  2
BLOCKS
  0
BLOCK
  5
20
330
1F
100
AcDbEntity
  8
0
100
AcDbBlockBegin
  2
*Model_Space
 70
     0
 10
0.0
 20
0.0
 30
0.0
  3
*Model_Space
  1

  0
ENDBLK
  5
21
330
1F
100
AcDbEntity
  8
0
100
AcDbBlockEnd
  0
BLOCK
  5
1C
330
1B
100
AcDbEntity
 67
     1
  8
0
100
AcDbBlockBegin
  2
*Paper_Space
 70
     0
 10
0.0
 20
0.0
 30
0.0
  3
*Paper_Space
  1

  0
ENDBLK
  5
1D
330
1B
100
AcDbEntity
 67
     1
  8
0
100
AcDbBlockEnd
  0
BLOCK
  5
24
330
23
100
AcDbEntity
  8
0
100
AcDbBlockBegin
  2
*Paper_Space0
 70
     0
 10
0.0
 20
0.0
 30
0.0
  3
*Paper_Space0
  1

  0
ENDBLK
  5
25
330
23
100
AcDbEntity
  8
0
100
AcDbBlockEnd
  0
BLOCK
  5
89
330
87
100
AcDbEntity
  8
0
100
AcDbBlockBegin
  2
GENAXEH
 70
     0
 10
0.0
 20
0.0
 30
0.0
  3
GENAXEH
  1

  0
LINE
  5
88
330
87
100
AcDbEntity
  8
0
100
AcDbLine
 10
-1.0
 20
0.0
 30
0.0
 11
1.0
 21
0.0
 31
0.0
  0
ENDBLK
  5
8A
330
87
100
AcDbEntity
  8
0
100
AcDbBlockEnd
  0
BLOCK
  5
493D
330
4933
100
AcDbEntity
  8
0
100
AcDbBlockBegin
  2
*D3
 70
     1
 10
0.0
 20
0.0
 30
0.0
  3
*D3
  1

  0
LINE
  5
6F98
330
4933
100
AcDbEntity
  8
AM_5
100
AcDbLine
 10
7378.731263768234
 20
1705.501698481497
 30
0.0
 11
7378.731263768234
 21
1653.677944902668
 31
0.0
  0
LINE
  5
6F99
330
4933
100
AcDbEntity
  8
AM_5
100
AcDbLine
 10
7598.731263768233
 20
1703.863995443376
 30
0.0
 11
7598.731263768233
 21
1653.677944902668
 31
0.0
  0
LINE
  5
6F9A
330
4933
100
AcDbEntity
  8
AM_5
100
AcDbLine
 10
7398.731263768233
 20
1657.677944902668
 30
0.0
 11
7578.731263768233
 21
1657.677944902668
 31
0.0
  0
SOLID
  5
6F9B
330
4933
100
AcDbEntity
  8
AM_5
100
AcDbTrace
 10
7398.731263768233
 20
1661.011278236002
 30
0.0
 11
7398.731263768233
 21
1654.344611569335
 31
0.0
 12
7378.731263768234
 22
1657.677944902668
 32
0.0
 13
7378.731263768234
 23
1657.677944902668
 33
0.0
  0
SOLID
  5
6F9C
330
4933
100
AcDbEntity
  8
AM_5
100
AcDbTrace
 10
7578.731263768233
 20
1661.011278236002
 30
0.0
 11
7578.731263768233
 21
1654.344611569335
 31
0.0
 12
7598.731263768233
 22
1657.677944902668
 32
0.0
 13
7598.731263768233
 23
1657.677944902668
 33
0.0
  0
MTEXT
  5
6F9D
330
4933
100
AcDbEntity
  8
AM_5
100
AcDbMText
 10
7488.731263768234
 20
1673.679913406605
 30
0.0
 40
20.0
 41
0.0
 71
     5
 72
     1
  1
\A2;220
 73
     1
 44
1.0
1001
ACAD
1000
MTEXTBEGIN
1070
    73
1070
     1
1070
    44
1040
1.0
1070
    74
1070
     0
1000
MTEXTEND
  0
POINT
  5
6F9E
330
4933
100
AcDbEntity
  8
Defpoints
 62
     0
100
AcDbPoint
 10
7378.731263768234
 20
1708.501698481497
 30
0.0
  0
POINT
  5
6F9F
330
4933
100
AcDbEntity
  8
Defpoints
 62
     0
100
AcDbPoint
 10
7598.731263768233
 20
1706.863995443376
 30
0.0
  0
POINT
  5
6FA0
330
4933
100
AcDbEntity
  8
Defpoints
 62
     0
100
AcDbPoint
 10
7598.731263768233
 20
1657.677944902668
 30
0.0
  0
ENDBLK
  5
493E
330
4933
100
AcDbEntity
  8
0
100
AcDbBlockEnd
  0
BLOCK
  5
4949
330
493F
100
AcDbEntity
  8
0
100
AcDbBlockBegin
  2
*D4
 70
     1
 10
0.0
 20
0.0
 30
0.0
  3
*D4
  1

  0
LINE
  5
6FA1
330
493F
100
AcDbEntity
  8
AM_5
100
AcDbLine
 10
7363.731263768234
 20
1714.677944902668
 30
0.0
 11
7363.731263768234
 21
1603.677944902668
 31
0.0
  0
LINE
  5
6FA2
330
493F
100
AcDbEntity
  8
AM_5
100
AcDbLine
 10
7613.731263768234
 20
1714.677944902668
 30
0.0
 11
7613.731263768234
 21
1603.677944902668
 31
0.0
  0
LINE
  5
6FA3
330
493F
100
AcDbEntity
  8
AM_5
100
AcDbLine
 10
7383.731263768233
 20
1607.677944902668
 30
0.0
 11
7593.731263768233
 21
1607.677944902668
 31
0.0
  0
SOLID
  5
6FA4
330
493F
100
AcDbEntity
  8
AM_5
100
AcDbTrace
 10
7383.731263768233
 20
1611.011278236002
 30
0.0
 11
7383.731263768233
 21
1604.344611569335
 31
0.0
 12
7363.731263768234
 22
1607.677944902668
 32
0.0
 13
7363.731263768234
 23
1607.677944902668
 33
0.0
  0
SOLID
  5
6FA5
330
493F
100
AcDbEntity
  8
AM_5
100
AcDbTrace
 10
7593.731263768233
 20
1611.011278236002
 30
0.0
 11
7593.731263768233
 21
1604.344611569335
 31
0.0
 12
7613.731263768234
 22
1607.677944902668
 32
0.0
 13
7613.731263768234
 23
1607.677944902668
 33
0.0
  0
MTEXT
  5
6FA6
330
493F
100
AcDbEntity
  8
AM_5
100
AcDbMText
 10
7488.731263768234
 20
1623.679913406605
 30
0.0
 40
20.0
 41
0.0
 71
     5
 72
     1
  1
\A2;250
 73
     1
 44
1.0
1001
ACAD
1000
MTEXTBEGIN
1070
    73
1070
     1
1070
    44
1040
1.0
1070
    74
1070
     0
1000
MTEXTEND
  0
POINT
  5
6FA7
330
493F
100
AcDbEntity
  8
Defpoints
 62
     0
100
AcDbPoint
 10
7363.731263768234
 20
1717.677944902668
 30
0.0
  0
POINT
  5
6FA8
330
493F
100
AcDbEntity
  8
Defpoints
 62
     0
100
AcDbPoint
 10
7613.731263768234
 20
1717.677944902668
 30
0.0
  0
POINT
  5
6FA9
330
493F
100
AcDbEntity
  8
Defpoints
 62
     0
100
AcDbPoint
 10
7613.731263768234
 20
1607.677944902668
 30
0.0
  0
ENDBLK
  5
494A
330
493F
100
AcDbEntity
  8
0
100
AcDbBlockEnd
  0
BLOCK
  5
496A
330
4960
100
AcDbEntity
  8
0
100
AcDbBlockBegin
  2
*D5
 70
     1
 10
0.0
 20
0.0
 30
0.0
  3
*D5
  1

  0
LINE
  5
6FAA
330
4960
100
AcDbEntity
  8
AM_5
100
AcDbLine
 10
7986.331059155457
 20
1701.880337152493
 30
0.0
 11
7986.331059155457
 21
1653.677944902669
 31
0.0
  0
LINE
  5
6FAB
330
4960
100
AcDbEntity
  8
AM_5
100
AcDbLine
 10
8276.331059155458
 20
1701.41567440982
 30
0.0
 11
8276.331059155458
 21
1653.677944902669
 31
0.0
  0
LINE
  5
6FAC
330
4960
100
AcDbEntity
  8
AM_5
100
AcDbLine
 10
8006.331059155456
 20
1657.677944902669
 30
0.0
 11
8256.331059155456
 21
1657.677944902669
 31
0.0
  0
SOLID
  5
6FAD
330
4960
100
AcDbEntity
  8
AM_5
100
AcDbTrace
 10
8006.331059155456
 20
1661.011278236002
 30
0.0
 11
8006.331059155456
 21
1654.344611569335
 31
0.0
 12
7986.331059155457
 22
1657.677944902669
 32
0.0
 13
7986.331059155457
 23
1657.677944902669
 33
0.0
  0
SOLID
  5
6FAE
330
4960
100
AcDbEntity
  8
AM_5
100
AcDbTrace
 10
8256.331059155456
 20
1661.011278236002
 30
0.0
 11
8256.331059155456
 21
1654.344611569335
 31
0.0
 12
8276.331059155458
 22
1657.677944902669
 32
0.0
 13
8276.331059155458
 23
1657.677944902669
 33
0.0
  0
MTEXT
  5
6FAF
330
4960
100
AcDbEntity
  8
AM_5
100
AcDbMText
 10
8131.331059155456
 20
1673.679913406606
 30
0.0
 40
20.0
 41
0.0
 71
     5
 72
     1
  1
\A2;290
 73
     1
 44
1.0
1001
ACAD
1000
MTEXTBEGIN
1070
    73
1070
     1
1070
    44
1040
1.0
1070
    74
1070
     0
1000
MTEXTEND
  0
POINT
  5
6FB0
330
4960
100
AcDbEntity
  8
Defpoints
 62
     0
100
AcDbPoint
 10
7986.331059155457
 20
1704.880337152493
 30
0.0
  0
POINT
  5
6FB1
330
4960
100
AcDbEntity
  8
Defpoints
 62
     0
100
AcDbPoint
 10
8276.331059155458
 20
1704.41567440982
 30
0.0
  0
POINT
  5
6FB2
330
4960
100
AcDbEntity
  8
Defpoints
 62
     0
100
AcDbPoint
 10
8276.331059155458
 20
1657.677944902669
 30
0.0
  0
ENDBLK
  5
496B
330
4960
100
AcDbEntity
  8
0
100
AcDbBlockEnd
  0
BLOCK
  5
4976
330
496C
100
AcDbEntity
  8
0
100
AcDbBlockBegin
  2
*D6
 70
     1
 10
0.0
 20
0.0
 30
0.0
  3
*D6
  1

  0
LINE
  5
6FB3
330
496C
100
AcDbEntity
  8
AM_5
100
AcDbLine
 10
7971.331059155456
 20
1714.677944902668
 30
0.0
 11
7971.331059155456
 21
1603.677944902668
 31
0.0
  0
LINE
  5
6FB4
330
496C
100
AcDbEntity
  8
AM_5
100
AcDbLine
 10
8451.331059155457
 20
1714.677944902668
 30
0.0
 11
8451.331059155457
 21
1603.677944902668
 31
0.0
  0
LINE
  5
6FB5
330
496C
100
AcDbEntity
  8
AM_5
100
AcDbLine
 10
7991.331059155456
 20
1607.677944902668
 30
0.0
 11
8431.331059155457
 21
1607.677944902668
 31
0.0
  0
SOLID
  5
6FB6
330
496C
100
AcDbEntity
  8
AM_5
100
AcDbTrace
 10
7991.331059155456
 20
1611.011278236001
 30
0.0
 11
7991.331059155456
 21
1604.344611569335
 31
0.0
 12
7971.331059155456
 22
1607.677944902668
 32
0.0
 13
7971.331059155456
 23
1607.677944902668
 33
0.0
  0
SOLID
  5
6FB7
330
496C
100
AcDbEntity
  8
AM_5
100
AcDbTrace
 10
8431.331059155457
 20
1611.011278236001
 30
0.0
 11
8431.331059155457
 21
1604.344611569335
 31
0.0
 12
8451.331059155457
 22
1607.677944902668
 32
0.0
 13
8451.331059155457
 23
1607.677944902668
 33
0.0
  0
MTEXT
  5
6FB8
330
496C
100
AcDbEntity
  8
AM_5
100
AcDbMText
 10
8211.331059155456
 20
1623.677944902668
 30
0.0
 40
20.0
 41
0.0
 71
     5
 72
     1
  1
\A2;480
 73
     1
 44
1.0
1001
ACAD
1000
MTEXTBEGIN
1070
    73
1070
     1
1070
    44
1040
1.0
1070
    74
1070
     0
1000
MTEXTEND
  0
POINT
  5
6FB9
330
496C
100
AcDbEntity
  8
Defpoints
 62
     0
100
AcDbPoint
 10
7971.331059155456
 20
1717.677944902668
 30
0.0
  0
POINT
  5
6FBA
330
496C
100
AcDbEntity
  8
Defpoints
 62
     0
100
AcDbPoint
 10
8451.331059155457
 20
1717.677944902668
 30
0.0
  0
POINT
  5
6FBB
330
496C
100
AcDbEntity
  8
Defpoints
 62
     0
100
AcDbPoint
 10
8451.331059155457
 20
1607.677944902668
 30
0.0
  0
ENDBLK
  5
4977
330
496C
100
AcDbEntity
  8
0
100
AcDbBlockEnd
  0
BLOCK
  5
49AA
330
49A0
100
AcDbEntity
  8
0
100
AcDbBlockBegin
  2
*D7
 70
     1
 10
0.0
 20
0.0
 30
0.0
  3
*D7
  1

  0
LINE
  5
6FBC
330
49A0
100
AcDbEntity
  8
AM_5
100
AcDbLine
 10
8454.331059155457
 20
1717.677944902668
 30
0.0
 11
8515.331059155457
 21
1717.677944902668
 31
0.0
  0
LINE
  5
6FBD
330
49A0
100
AcDbEntity
  8
AM_5
100
AcDbLine
 10
8454.331059155457
 20
1817.677944902668
 30
0.0
 11
8515.331059155457
 21
1817.677944902668
 31
0.0
  0
LINE
  5
6FBE
330
49A0
100
AcDbEntity
  8
AM_5
100
AcDbLine
 10
8511.331059155457
 20
1737.677944902668
 30
0.0
 11
8511.331059155457
 21
1797.677944902669
 31
0.0
  0
SOLID
  5
6FBF
330
49A0
100
AcDbEntity
  8
AM_5
100
AcDbTrace
 10
8507.997725822121
 20
1737.677944902668
 30
0.0
 11
8514.664392488791
 21
1737.677944902668
 31
0.0
 12
8511.331059155457
 22
1717.677944902668
 32
0.0
 13
8511.331059155457
 23
1717.677944902668
 33
0.0
  0
SOLID
  5
6FC0
330
49A0
100
AcDbEntity
  8
AM_5
100
AcDbTrace
 10
8507.997725822121
 20
1797.677944902669
 30
0.0
 11
8514.664392488791
 21
1797.677944902669
 31
0.0
 12
8511.331059155457
 22
1817.677944902668
 32
0.0
 13
8511.331059155457
 23
1817.677944902668
 33
0.0
  0
MTEXT
  5
6FC1
330
49A0
100
AcDbEntity
  8
AM_5
100
AcDbMText
 10
8495.331059155457
 20
1767.67794490267
 30
0.0
 40
20.0
 41
0.0
 71
     5
 72
     1
  1
\A2;100
 11
0.0000000000000001
 21
1.0
 31
0.0
 73
     1
 44
1.0
1001
ACAD
1000
MTEXTBEGIN
1070
    73
1070
     1
1070
    44
1040
1.0
1070
    74
1070
     0
1000
MTEXTEND
  0
POINT
  5
6FC2
330
49A0
100
AcDbEntity
  8
Defpoints
 62
     0
100
AcDbPoint
 10
8451.331059155457
 20
1717.677944902668
 30
0.0
  0
POINT
  5
6FC3
330
49A0
100
AcDbEntity
  8
Defpoints
 62
     0
100
AcDbPoint
 10
8451.331059155457
 20
1817.677944902668
 30
0.0
  0
POINT
  5
6FC4
330
49A0
100
AcDbEntity
  8
Defpoints
 62
     0
100
AcDbPoint
 10
8511.331059155457
 20
1817.677944902668
 30
0.0
  0
ENDBLK
  5
49AB
330
49A0
100
AcDbEntity
  8
0
100
AcDbBlockEnd
  0
BLOCK
  5
49B6
330
49AC
100
AcDbEntity
  8
0
100
AcDbBlockBegin
  2
*D8
 70
     1
 10
0.0
 20
0.0
 30
0.0
  3
*D8
  1

  0
LINE
  5
6FC5
330
49AC
100
AcDbEntity
  8
AM_5
100
AcDbLine
 10
8454.331059155457
 20
2066.070414545765
 30
0.0
 11
8515.331059155457
 21
2066.070414545765
 31
0.0
  0
LINE
  5
6FC6
330
49AC
100
AcDbEntity
  8
AM_5
100
AcDbLine
 10
8454.331059155457
 20
2166.070414545765
 30
0.0
 11
8515.331059155457
 21
2166.070414545765
 31
0.0
  0
LINE
  5
6FC7
330
49AC
100
AcDbEntity
  8
AM_5
100
AcDbLine
 10
8511.331059155457
 20
2086.070414545765
 30
0.0
 11
8511.331059155457
 21
2146.070414545765
 31
0.0
  0
SOLID
  5
6FC8
330
49AC
100
AcDbEntity
  8
AM_5
100
AcDbTrace
 10
8507.997725822121
 20
2086.070414545765
 30
0.0
 11
8514.664392488791
 21
2086.070414545765
 31
0.0
 12
8511.331059155457
 22
2066.070414545765
 32
0.0
 13
8511.331059155457
 23
2066.070414545765
 33
0.0
  0
SOLID
  5
6FC9
330
49AC
100
AcDbEntity
  8
AM_5
100
AcDbTrace
 10
8507.997725822121
 20
2146.070414545765
 30
0.0
 11
8514.664392488791
 21
2146.070414545765
 31
0.0
 12
8511.331059155457
 22
2166.070414545765
 32
0.0
 13
8511.331059155457
 23
2166.070414545765
 33
0.0
  0
MTEXT
  5
6FCA
330
49AC
100
AcDbEntity
  8
AM_5
100
AcDbMText
 10
8495.331059155457
 20
2116.070414545766
 30
0.0
 40
20.0
 41
0.0
 71
     5
 72
     1
  1
\A2;100
 11
0.0000000000000001
 21
1.0
 31
0.0
 73
     1
 44
1.0
1001
ACAD
1000
MTEXTBEGIN
1070
    73
1070
     1
1070
    44
1040
1.0
1070
    74
1070
     0
1000
MTEXTEND
  0
POINT
  5
6FCB
330
49AC
100
AcDbEntity
  8
Defpoints
 62
     0
100
AcDbPoint
 10
8451.331059155457
 20
2066.070414545765
 30
0.0
  0
POINT
  5
6FCC
330
49AC
100
AcDbEntity
  8
Defpoints
 62
     0
100
AcDbPoint
 10
8451.331059155457
 20
2166.070414545765
 30
0.0
  0
POINT
  5
6FCD
330
49AC
100
AcDbEntity
  8
Defpoints
 62
     0
100
AcDbPoint
 10
8511.331059155457
 20
2166.070414545765
 30
0.0
  0
ENDBLK
  5
49B7
330
49AC
100
AcDbEntity
  8
0
100
AcDbBlockEnd
  0
BLOCK
  5
49C2
330
49B8
100
AcDbEntity
  8
0
100
AcDbBlockBegin
  2
*D9
 70
     1
 10
0.0
 20
0.0
 30
0.0
  3
*D9
  1

  0
LINE
  5
6FCE
330
49B8
100
AcDbEntity
  8
AM_5
100
AcDbLine
 10
8454.331059155457
 20
1717.677944902668
 30
0.0
 11
8565.331059155457
 21
1717.677944902668
 31
0.0
  0
LINE
  5
6FCF
330
49B8
100
AcDbEntity
  8
AM_5
100
AcDbLine
 10
8412.331059155457
 20
2217.677944902669
 30
0.0
 11
8565.331059155457
 21
2217.677944902669
 31
0.0
  0
LINE
  5
6FD0
330
49B8
100
AcDbEntity
  8
AM_5
100
AcDbLine
 10
8561.331059155456
 20
1737.677944902668
 30
0.0
 11
8561.331059155456
 21
2197.677944902669
 31
0.0
  0
SOLID
  5
6FD1
330
49B8
100
AcDbEntity
  8
AM_5
100
AcDbTrace
 10
8557.997725822122
 20
1737.677944902668
 30
0.0
 11
8564.664392488792
 21
1737.677944902668
 31
0.0
 12
8561.331059155456
 22
1717.677944902668
 32
0.0
 13
8561.331059155456
 23
1717.677944902668
 33
0.0
  0
SOLID
  5
6FD2
330
49B8
100
AcDbEntity
  8
AM_5
100
AcDbTrace
 10
8557.997725822122
 20
2197.677944902669
 30
0.0
 11
8564.664392488792
 21
2197.677944902669
 31
0.0
 12
8561.331059155456
 22
2217.677944902669
 32
0.0
 13
8561.331059155456
 23
2217.677944902669
 33
0.0
  0
MTEXT
  5
6FD3
330
49B8
100
AcDbEntity
  8
AM_5
100
AcDbMText
 10
8545.331059155456
 20
1967.67794490267
 30
0.0
 40
20.0
 41
0.0
 71
     5
 72
     1
  1
\A2;500
 11
0.0000000000000001
 21
1.0
 31
0.0
 73
     1
 44
1.0
1001
ACAD
1000
MTEXTBEGIN
1070
    73
1070
     1
1070
    44
1040
1.0
1070
    74
1070
     0
1000
MTEXTEND
  0
POINT
  5
6FD4
330
49B8
100
AcDbEntity
  8
Defpoints
 62
     0
100
AcDbPoint
 10
8451.331059155457
 20
1717.677944902668
 30
0.0
  0
POINT
  5
6FD5
330
49B8
100
AcDbEntity
  8
Defpoints
 62
     0
100
AcDbPoint
 10
8409.331059155457
 20
2217.677944902669
 30
0.0
  0
POINT
  5
6FD6
330
49B8
100
AcDbEntity
  8
Defpoints
 62
     0
100
AcDbPoint
 10
8561.331059155456
 20
2217.677944902669
 30
0.0
  0
ENDBLK
  5
49C3
330
49B8
100
AcDbEntity
  8
0
100
AcDbBlockEnd
  0
BLOCK
  5
49CF
330
49C4
100
AcDbEntity
  8
0
100
AcDbBlockBegin
  2
*D10
 70
     1
 10
0.0
 20
0.0
 30
0.0
  3
*D10
  1

  0
LINE
  5
6FD7
330
49C4
100
AcDbEntity
  8
AM_5
100
AcDbLine
 10
8311.331059155456
 20
1944.874179724217
 30
0.0
 11
8311.331059155456
 21
1945.874179724216
 31
0.0
  0
LINE
  5
6FD8
330
49C4
100
AcDbEntity
  8
AM_5
100
AcDbLine
 10
8411.331059155456
 20
1938.874179724217
 30
0.0
 11
8411.331059155456
 21
1937.874179724216
 31
0.0
  0
LINE
  5
6FD9
330
49C4
100
AcDbEntity
  8
AM_5
100
AcDbLine
 10
8331.331059155457
 20
1941.874179724216
 30
0.0
 11
8391.331059155456
 21
1941.874179724216
 31
0.0
  0
LINE
  5
6FDA
330
49C4
100
AcDbEntity
  8
AM_5
100
AcDbLine
 10
8411.331059155456
 20
1941.874179724216
 30
0.0
 11
8493.346807186952
 21
1941.874179724216
 31
0.0
  0
SOLID
  5
6FDB
330
49C4
100
AcDbEntity
  8
AM_5
100
AcDbTrace
 10
8331.331059155457
 20
1945.20751305755
 30
0.0
 11
8331.331059155457
 21
1938.540846390883
 31
0.0
 12
8311.331059155456
 22
1941.874179724216
 32
0.0
 13
8311.331059155456
 23
1941.874179724216
 33
0.0
  0
SOLID
  5
6FDC
330
49C4
100
AcDbEntity
  8
AM_5
100
AcDbTrace
 10
8391.331059155456
 20
1945.20751305755
 30
0.0
 11
8391.331059155456
 21
1938.540846390883
 31
0.0
 12
8411.331059155456
 22
1941.874179724216
 32
0.0
 13
8411.331059155456
 23
1941.874179724216
 33
0.0
  0
MTEXT
  5
6FDD
330
49C4
100
AcDbEntity
  8
AM_5
100
AcDbMText
 10
8462.338933171205
 20
1957.874179724217
 30
0.0
 40
20.0
 41
0.0
 71
     5
 72
     1
  1
\A2;%%c100
 73
     1
 44
1.0
1001
ACAD
1000
MTEXTBEGIN
1070
    73
1070
     1
1070
    44
1040
1.0
1070
    74
1070
     0
1000
MTEXTEND
  0
POINT
  5
6FDE
330
49C4
100
AcDbEntity
  8
Defpoints
 62
     0
100
AcDbPoint
 10
8311.331059155456
 20
1941.874179724216
 30
0.0
  0
POINT
  5
6FDF
330
49C4
100
AcDbEntity
  8
Defpoints
 62
     0
100
AcDbPoint
 10
8411.331059155456
 20
1941.874179724217
 30
0.0
  0
POINT
  5
6FE0
330
49C4
100
AcDbEntity
  8
Defpoints
 62
     0
100
AcDbPoint
 10
8411.331059155456
 20
1941.874179724216
 30
0.0
  0
ENDBLK
  5
49D0
330
49C4
100
AcDbEntity
  8
0
100
AcDbBlockEnd
  0
BLOCK
  5
4A3A
330
4A30
100
AcDbEntity
  8
0
100
AcDbBlockBegin
  2
*D11
 70
     1
 10
0.0
 20
0.0
 30
0.0
  3
*D11
  1

  0
LINE
  5
6FE1
330
4A30
100
AcDbEntity
  8
AM_5
100
AcDbLine
 10
8131.331059155456
 20
2029.51079250158
 30
0.0
 11
8131.331059155456
 21
1937.874179724217
 31
0.0
  0
LINE
  5
6FE2
330
4A30
100
AcDbEntity
  8
AM_5
100
AcDbLine
 10
8311.331059155456
 20
2063.070414545765
 30
0.0
 11
8311.331059155456
 21
1937.874179724217
 31
0.0
  0
LINE
  5
6FE3
330
4A30
100
AcDbEntity
  8
AM_5
100
AcDbLine
 10
8151.331059155458
 20
1941.874179724217
 30
0.0
 11
8291.331059155456
 21
1941.874179724217
 31
0.0
  0
SOLID
  5
6FE4
330
4A30
100
AcDbEntity
  8
AM_5
100
AcDbTrace
 10
8151.331059155458
 20
1945.20751305755
 30
0.0
 11
8151.331059155458
 21
1938.540846390884
 31
0.0
 12
8131.331059155456
 22
1941.874179724217
 32
0.0
 13
8131.331059155456
 23
1941.874179724217
 33
0.0
  0
SOLID
  5
6FE5
330
4A30
100
AcDbEntity
  8
AM_5
100
AcDbTrace
 10
8291.331059155456
 20
1945.20751305755
 30
0.0
 11
8291.331059155456
 21
1938.540846390884
 31
0.0
 12
8311.331059155456
 22
1941.874179724217
 32
0.0
 13
8311.331059155456
 23
1941.874179724217
 33
0.0
  0
MTEXT
  5
6FE6
330
4A30
100
AcDbEntity
  8
AM_5
100
AcDbMText
 10
8221.331059155456
 20
1957.874179724217
 30
0.0
 40
20.0
 41
0.0
 71
     5
 72
     1
  1
\A2;180
 73
     1
 44
1.0
1001
ACAD
1000
MTEXTBEGIN
1070
    73
1070
     1
1070
    44
1040
1.0
1070
    74
1070
     0
1000
MTEXTEND
  0
POINT
  5
6FE7
330
4A30
100
AcDbEntity
  8
Defpoints
 62
     0
100
AcDbPoint
 10
8131.331059155456
 20
2032.51079250158
 30
0.0
  0
POINT
  5
6FE8
330
4A30
100
AcDbEntity
  8
Defpoints
 62
     0
100
AcDbPoint
 10
8311.331059155456
 20
2066.070414545765
 30
0.0
  0
POINT
  5
6FE9
330
4A30
100
AcDbEntity
  8
Defpoints
 62
     0
100
AcDbPoint
 10
8311.331059155456
 20
1941.874179724217
 30
0.0
  0
ENDBLK
  5
4A3B
330
4A30
100
AcDbEntity
  8
0
100
AcDbBlockEnd
  0
BLOCK
  5
4A46
330
4A3C
100
AcDbEntity
  8
0
100
AcDbBlockBegin
  2
*D12
 70
     1
 10
0.0
 20
0.0
 30
0.0
  3
*D12
  1

  0
LINE
  5
6FEA
330
4A3C
100
AcDbEntity
  8
AM_5
100
AcDbLine
 10
8006.331059155456
 20
1815.677944902668
 30
0.0
 11
8006.331059155456
 21
1864.54936422517
 31
0.0
  0
LINE
  5
6FEB
330
4A3C
100
AcDbEntity
  8
AM_5
100
AcDbLine
 10
8256.331059155456
 20
1814.677944902668
 30
0.0
 11
8256.331059155456
 21
1864.54936422517
 31
0.0
  0
LINE
  5
6FEC
330
4A3C
100
AcDbEntity
  8
AM_5
100
AcDbLine
 10
8026.331059155458
 20
1860.54936422517
 30
0.0
 11
8236.331059155457
 21
1860.54936422517
 31
0.0
  0
SOLID
  5
6FED
330
4A3C
100
AcDbEntity
  8
AM_5
100
AcDbTrace
 10
8026.331059155458
 20
1863.882697558503
 30
0.0
 11
8026.331059155458
 21
1857.216030891837
 31
0.0
 12
8006.331059155456
 22
1860.54936422517
 32
0.0
 13
8006.331059155456
 23
1860.54936422517
 33
0.0
  0
SOLID
  5
6FEE
330
4A3C
100
AcDbEntity
  8
AM_5
100
AcDbTrace
 10
8236.331059155457
 20
1863.882697558503
 30
0.0
 11
8236.331059155457
 21
1857.216030891837
 31
0.0
 12
8256.331059155456
 22
1860.54936422517
 32
0.0
 13
8256.331059155456
 23
1860.54936422517
 33
0.0
  0
MTEXT
  5
6FEF
330
4A3C
100
AcDbEntity
  8
AM_5
100
AcDbMText
 10
8131.331059155456
 20
1876.551332729107
 30
0.0
 40
20.0
 41
0.0
 71
     5
 72
     1
  1
\A2;250
 73
     1
 44
1.0
1001
ACAD
1000
MTEXTBEGIN
1070
    73
1070
     1
1070
    44
1040
1.0
1070
    74
1070
     0
1000
MTEXTEND
  0
POINT
  5
6FF0
330
4A3C
100
AcDbEntity
  8
Defpoints
 62
     0
100
AcDbPoint
 10
8006.331059155456
 20
1812.677944902668
 30
0.0
  0
POINT
  5
6FF1
330
4A3C
100
AcDbEntity
  8
Defpoints
 62
     0
100
AcDbPoint
 10
8256.331059155456
 20
1811.677944902669
 30
0.0
  0
POINT
  5
6FF2
330
4A3C
100
AcDbEntity
  8
Defpoints
 62
     0
100
AcDbPoint
 10
8256.331059155456
 20
1860.54936422517
 30
0.0
  0
ENDBLK
  5
4A47
330
4A3C
100
AcDbEntity
  8
0
100
AcDbBlockEnd
  0
BLOCK
  5
4A84
330
4A7A
100
AcDbEntity
  8
0
100
AcDbBlockBegin
  2
*D13
 70
     1
 10
0.0
 20
0.0
 30
0.0
  3
*D13
  1

  0
LINE
  5
7497
330
4A7A
100
AcDbEntity
  8
AM_5
100
AcDbLine
 10
7968.331059155456
 20
1717.677944902668
 30
0.0
 11
7907.331059155456
 21
1717.677944902668
 31
0.0
  0
LINE
  5
7498
330
4A7A
100
AcDbEntity
  8
AM_5
100
AcDbLine
 10
8008.331059155457
 20
1817.677944902669
 30
0.0
 11
7907.331059155456
 21
1817.677944902669
 31
0.0
  0
LINE
  5
7499
330
4A7A
100
AcDbEntity
  8
AM_5
100
AcDbLine
 10
7911.331059155457
 20
1737.677944902668
 30
0.0
 11
7911.331059155457
 21
1797.677944902669
 31
0.0
  0
SOLID
  5
749A
330
4A7A
100
AcDbEntity
  8
AM_5
100
AcDbTrace
 10
7907.997725822124
 20
1737.677944902668
 30
0.0
 11
7914.66439248879
 21
1737.677944902668
 31
0.0
 12
7911.331059155457
 22
1717.677944902668
 32
0.0
 13
7911.331059155457
 23
1717.677944902668
 33
0.0
  0
SOLID
  5
749B
330
4A7A
100
AcDbEntity
  8
AM_5
100
AcDbTrace
 10
7907.997725822124
 20
1797.677944902669
 30
0.0
 11
7914.66439248879
 21
1797.677944902669
 31
0.0
 12
7911.331059155457
 22
1817.677944902669
 32
0.0
 13
7911.331059155457
 23
1817.677944902669
 33
0.0
  0
MTEXT
  5
749C
330
4A7A
100
AcDbEntity
  8
AM_5
100
AcDbMText
 10
7895.331059155457
 20
1767.67794490267
 30
0.0
 40
20.0
 41
0.0
 71
     5
 72
     1
  1
\A2;100
 11
0.0000000000000001
 21
1.0
 31
0.0
 73
     1
 44
1.0
1001
ACAD
1000
MTEXTBEGIN
1070
    73
1070
     1
1070
    44
1040
1.0
1070
    74
1070
     0
1000
MTEXTEND
  0
POINT
  5
749D
330
4A7A
100
AcDbEntity
  8
Defpoints
 62
     0
100
AcDbPoint
 10
7971.331059155456
 20
1717.677944902668
 30
0.0
  0
POINT
  5
749E
330
4A7A
100
AcDbEntity
  8
Defpoints
 62
     0
100
AcDbPoint
 10
8011.331059155457
 20
1817.677944902669
 30
0.0
  0
POINT
  5
749F
330
4A7A
100
AcDbEntity
  8
Defpoints
 62
     0
100
AcDbPoint
 10
7911.331059155457
 20
1817.677944902669
 30
0.0
  0
ENDBLK
  5
4A85
330
4A7A
100
AcDbEntity
  8
0
100
AcDbBlockEnd
  0
BLOCK
  5
4A90
330
4A86
100
AcDbEntity
  8
0
100
AcDbBlockBegin
  2
*D14
 70
     1
 10
0.0
 20
0.0
 30
0.0
  3
*D14
  1

  0
LINE
  5
7716
330
4A86
100
AcDbEntity
  8
AM_5
100
AcDbLine
 10
8008.331059155457
 20
1817.677944902669
 30
0.0
 11
7907.331059155456
 21
1817.677944902669
 31
0.0
  0
LINE
  5
7717
330
4A86
100
AcDbEntity
  8
AM_5
100
AcDbLine
 10
8103.331059155456
 20
2046.070414545765
 30
0.0
 11
7907.331059155456
 21
2046.070414545765
 31
0.0
  0
LINE
  5
7718
330
4A86
100
AcDbEntity
  8
AM_5
100
AcDbLine
 10
7911.331059155457
 20
1837.677944902669
 30
0.0
 11
7911.331059155457
 21
2026.070414545765
 31
0.0
  0
SOLID
  5
7719
330
4A86
100
AcDbEntity
  8
AM_5
100
AcDbTrace
 10
7907.997725822124
 20
1837.677944902669
 30
0.0
 11
7914.66439248879
 21
1837.677944902669
 31
0.0
 12
7911.331059155457
 22
1817.677944902669
 32
0.0
 13
7911.331059155457
 23
1817.677944902669
 33
0.0
  0
SOLID
  5
771A
330
4A86
100
AcDbEntity
  8
AM_5
100
AcDbTrace
 10
7907.997725822124
 20
2026.070414545765
 30
0.0
 11
7914.66439248879
 21
2026.070414545765
 31
0.0
 12
7911.331059155457
 22
2046.070414545765
 32
0.0
 13
7911.331059155457
 23
2046.070414545765
 33
0.0
  0
MTEXT
  5
771B
330
4A86
100
AcDbEntity
  8
AM_5
100
AcDbMText
 10
7895.329090651519
 20
1931.874179724218
 30
0.0
 40
20.0
 41
0.0
 71
     5
 72
     1
  1
\A2;Max. 250
 11
0.0000000000000001
 21
1.0
 31
0.0
 73
     1
 44
1.0
1001
ACAD
1000
MTEXTBEGIN
1070
    73
1070
     1
1070
    44
1040
1.0
1070
    74
1070
     0
1000
MTEXTEND
  0
POINT
  5
771C
330
4A86
100
AcDbEntity
  8
Defpoints
 62
     0
100
AcDbPoint
 10
8011.331059155457
 20
1817.677944902669
 30
0.0
  0
POINT
  5
771D
330
4A86
100
AcDbEntity
  8
Defpoints
 62
     0
100
AcDbPoint
 10
8106.331059155456
 20
2046.070414545765
 30
0.0
  0
POINT
  5
771E
330
4A86
100
AcDbEntity
  8
Defpoints
 62
     0
100
AcDbPoint
 10
7911.331059155457
 20
2046.070414545765
 30
0.0
  0
ENDBLK
  5
4A91
330
4A86
100
AcDbEntity
  8
0
100
AcDbBlockEnd
  0
BLOCK
  5
4AA8
330
4A9E
100
AcDbEntity
  8
0
100
AcDbBlockBegin
  2
*D15
 70
     1
 10
0.0
 20
0.0
 30
0.0
  3
*D15
  1

  0
LINE
  5
7451
330
4A9E
100
AcDbEntity
  8
AM_5
100
AcDbLine
 10
8033.331059155457
 20
2166.070414545765
 30
0.0
 11
7907.331059155456
 21
2166.070414545765
 31
0.0
  0
LINE
  5
7452
330
4A9E
100
AcDbEntity
  8
AM_5
100
AcDbLine
 10
8096.331059155458
 20
2589.070414545765
 30
0.0
 11
7907.331059155456
 21
2589.070414545765
 31
0.0
  0
LINE
  5
7453
330
4A9E
100
AcDbEntity
  8
AM_5
100
AcDbLine
 10
7911.331059155457
 20
2186.070414545765
 30
0.0
 11
7911.331059155457
 21
2569.070414545765
 31
0.0
  0
SOLID
  5
7454
330
4A9E
100
AcDbEntity
  8
AM_5
100
AcDbTrace
 10
7907.997725822124
 20
2186.070414545765
 30
0.0
 11
7914.66439248879
 21
2186.070414545765
 31
0.0
 12
7911.331059155457
 22
2166.070414545765
 32
0.0
 13
7911.331059155457
 23
2166.070414545765
 33
0.0
  0
SOLID
  5
7455
330
4A9E
100
AcDbEntity
  8
AM_5
100
AcDbTrace
 10
7907.997725822124
 20
2569.070414545765
 30
0.0
 11
7914.66439248879
 21
2569.070414545765
 31
0.0
 12
7911.331059155457
 22
2589.070414545765
 32
0.0
 13
7911.331059155457
 23
2589.070414545765
 33
0.0
  0
MTEXT
  5
7456
330
4A9E
100
AcDbEntity
  8
AM_5
100
AcDbMText
 10
7895.329090651519
 20
2377.570414545767
 30
0.0
 40
20.0
 41
0.0
 71
     5
 72
     1
  1
\A2;423
 11
0.0000000000000001
 21
1.0
 31
0.0
 73
     1
 44
1.0
1001
ACAD
1000
MTEXTBEGIN
1070
    73
1070
     1
1070
    44
1040
1.0
1070
    74
1070
     0
1000
MTEXTEND
  0
POINT
  5
7457
330
4A9E
100
AcDbEntity
  8
Defpoints
 62
     0
100
AcDbPoint
 10
8036.331059155457
 20
2166.070414545765
 30
0.0
  0
POINT
  5
7458
330
4A9E
100
AcDbEntity
  8
Defpoints
 62
     0
100
AcDbPoint
 10
8099.331059155458
 20
2589.070414545765
 30
0.0
  0
POINT
  5
7459
330
4A9E
100
AcDbEntity
  8
Defpoints
 62
     0
100
AcDbPoint
 10
7911.331059155457
 20
2589.070414545765
 30
0.0
  0
ENDBLK
  5
4AA9
330
4A9E
100
AcDbEntity
  8
0
100
AcDbBlockEnd
  0
BLOCK
  5
4AB4
330
4AAA
100
AcDbEntity
  8
0
100
AcDbBlockBegin
  2
*D16
 70
     1
 10
0.0
 20
0.0
 30
0.0
  3
*D16
  1

  0
LINE
  5
770C
330
4AAA
100
AcDbEntity
  8
AM_5
100
AcDbLine
 10
7968.331059155456
 20
1717.677944902668
 30
0.0
 11
7857.331059155455
 21
1717.677944902668
 31
0.0
  0
LINE
  5
770D
330
4AAA
100
AcDbEntity
  8
AM_5
100
AcDbLine
 10
8093.331059155458
 20
2589.070414545765
 30
0.0
 11
7857.331059155455
 21
2589.070414545765
 31
0.0
  0
LINE
  5
770E
330
4AAA
100
AcDbEntity
  8
AM_5
100
AcDbLine
 10
7861.331059155455
 20
1737.677944902668
 30
0.0
 11
7861.331059155457
 21
2569.070414545765
 31
0.0
  0
SOLID
  5
770F
330
4AAA
100
AcDbEntity
  8
AM_5
100
AcDbTrace
 10
7857.997725822122
 20
1737.677944902668
 30
0.0
 11
7864.664392488788
 21
1737.677944902668
 31
0.0
 12
7861.331059155455
 22
1717.677944902668
 32
0.0
 13
7861.331059155455
 23
1717.677944902668
 33
0.0
  0
SOLID
  5
7710
330
4AAA
100
AcDbEntity
  8
AM_5
100
AcDbTrace
 10
7857.997725822123
 20
2569.070414545765
 30
0.0
 11
7864.66439248879
 21
2569.070414545765
 31
0.0
 12
7861.331059155457
 22
2589.070414545765
 32
0.0
 13
7861.331059155457
 23
2589.070414545765
 33
0.0
  0
MTEXT
  5
7711
330
4AAA
100
AcDbEntity
  8
AM_5
100
AcDbMText
 10
7845.331059155455
 20
2153.374179724218
 30
0.0
 40
20.0
 41
0.0
 71
     5
 72
     1
  1
\A2;Max. 900
 11
0.0000000000000001
 21
1.0
 31
0.0
 73
     1
 44
1.0
1001
ACAD
1000
MTEXTBEGIN
1070
    73
1070
     1
1070
    44
1040
1.0
1070
    74
1070
     0
1000
MTEXTEND
  0
POINT
  5
7712
330
4AAA
100
AcDbEntity
  8
Defpoints
 62
     0
100
AcDbPoint
 10
7971.331059155456
 20
1717.677944902668
 30
0.0
  0
POINT
  5
7713
330
4AAA
100
AcDbEntity
  8
Defpoints
 62
     0
100
AcDbPoint
 10
8096.331059155458
 20
2589.070414545765
 30
0.0
  0
POINT
  5
7714
330
4AAA
100
AcDbEntity
  8
Defpoints
 62
     0
100
AcDbPoint
 10
7861.331059155457
 20
2589.070414545765
 30
0.0
  0
ENDBLK
  5
4AB5
330
4AAA
100
AcDbEntity
  8
0
100
AcDbBlockEnd
  0
BLOCK
  5
5034
330
5028
100
AcDbEntity
  8
0
100
AcDbBlockBegin
  2
*D17
 70
     1
 10
0.0
 20
0.0
 30
0.0
  3
*D17
  1

  0
LINE
  5
755B
330
5028
100
AcDbEntity
  8
AM_5
100
AcDbLine
 10
7458.731263768233
 20
2790.473993723678
 30
0.0
 11
7458.731263768233
 21
2749.473993723678
 31
0.0
  0
LINE
  5
755C
330
5028
100
AcDbEntity
  8
AM_5
100
AcDbLine
 10
7518.731263768234
 20
2790.473993723678
 30
0.0
 11
7518.731263768234
 21
2749.473993723678
 31
0.0
  0
LINE
  5
755D
330
5028
100
AcDbEntity
  8
AM_5
100
AcDbLine
 10
7478.731263768233
 20
2753.473993723678
 30
0.0
 11
7498.731263768234
 21
2753.473993723678
 31
0.0
  0
LINE
  5
755E
330
5028
100
AcDbEntity
  8
AM_5
100
AcDbLine
 10
7518.731263768234
 20
2753.473993723678
 30
0.0
 11
7605.739137783982
 21
2753.473993723678
 31
0.0
  0
SOLID
  5
755F
330
5028
100
AcDbEntity
  8
AM_5
100
AcDbTrace
 10
7478.731263768233
 20
2756.807327057012
 30
0.0
 11
7478.731263768233
 21
2750.140660390345
 31
0.0
 12
7458.731263768233
 22
2753.473993723678
 32
0.0
 13
7458.731263768233
 23
2753.473993723678
 33
0.0
  0
SOLID
  5
7560
330
5028
100
AcDbEntity
  8
AM_5
100
AcDbTrace
 10
7498.731263768234
 20
2756.807327057012
 30
0.0
 11
7498.731263768234
 21
2750.140660390345
 31
0.0
 12
7518.731263768234
 22
2753.473993723678
 32
0.0
 13
7518.731263768234
 23
2753.473993723678
 33
0.0
  0
MTEXT
  5
7561
330
5028
100
AcDbEntity
  8
AM_5
100
AcDbMText
 10
7579.731263768234
 20
2769.473993723678
 30
0.0
 40
20.0
 41
0.0
 71
     5
 72
     1
  1
\A2;%%c30
 73
     1
 44
1.0
1001
ACAD
1000
MTEXTBEGIN
1070
    73
1070
     1
1070
    44
1040
1.0
1070
    74
1070
     0
1000
MTEXTEND
  0
POINT
  5
7562
330
5028
100
AcDbEntity
  8
Defpoints
 62
     0
100
AcDbPoint
 10
7458.731263768233
 20
2793.473993723678
 30
0.0
  0
POINT
  5
7563
330
5028
100
AcDbEntity
  8
Defpoints
 62
     0
100
AcDbPoint
 10
7518.731263768234
 20
2793.473993723678
 30
0.0
  0
POINT
  5
7564
330
5028
100
AcDbEntity
  8
Defpoints
 62
     0
100
AcDbPoint
 10
7518.731263768234
 20
2753.473993723678
 30
0.0
  0
ENDBLK
  5
5035
330
5028
100
AcDbEntity
  8
0
100
AcDbBlockEnd
  0
BLOCK
  5
5042
330
5036
100
AcDbEntity
  8
0
100
AcDbBlockBegin
  2
*D18
 70
     1
 10
0.0
 20
0.0
 30
0.0
  3
*D18
  1

  0
LINE
  5
702D
330
5036
100
AcDbEntity
  8
AM_5
100
AcDbLine
 10
7435.731263768234
 20
2793.473993723678
 30
0.0
 11
7377.388541694687
 21
2793.473993723678
 31
0.0
  0
LINE
  5
702E
330
5036
100
AcDbEntity
  8
AM_5
100
AcDbLine
 10
7415.749788467135
 20
2833.473993723679
 30
0.0
 11
7377.388541694687
 21
2833.473993723679
 31
0.0
  0
LINE
  5
702F
330
5036
100
AcDbEntity
  8
AM_5
100
AcDbLine
 10
7381.388541694686
 20
2773.473993723678
 30
0.0
 11
7381.388541694686
 21
2753.473993723678
 31
0.0
  0
LINE
  5
7030
330
5036
100
AcDbEntity
  8
AM_5
100
AcDbLine
 10
7381.388541694686
 20
2853.473993723678
 30
0.0
 11
7381.388541694686
 21
2873.473993723678
 31
0.0
  0
LINE
  5
7031
330
5036
100
AcDbEntity
  8
AM_5
100
AcDbLine
 10
7381.388541694686
 20
2793.473993723678
 30
0.0
 11
7381.388541694686
 21
2833.473993723679
 31
0.0
  0
SOLID
  5
7032
330
5036
100
AcDbEntity
  8
AM_5
100
AcDbTrace
 10
7378.055208361352
 20
2773.473993723678
 30
0.0
 11
7384.721875028019
 21
2773.473993723678
 31
0.0
 12
7381.388541694686
 22
2793.473993723678
 32
0.0
 13
7381.388541694686
 23
2793.473993723678
 33
0.0
  0
SOLID
  5
7033
330
5036
100
AcDbEntity
  8
AM_5
100
AcDbTrace
 10
7378.055208361352
 20
2853.473993723678
 30
0.0
 11
7384.721875028019
 21
2853.473993723678
 31
0.0
 12
7381.388541694686
 22
2833.473993723679
 32
0.0
 13
7381.388541694686
 23
2833.473993723679
 33
0.0
  0
MTEXT
  5
7034
330
5036
100
AcDbEntity
  8
AM_5
100
AcDbMText
 10
7365.386573190749
 20
2813.473993723679
 30
0.0
 40
20.0
 41
0.0
 71
     5
 72
     1
  1
\A2;20
 11
0.0000000000000001
 21
1.0
 31
0.0
 73
     1
 44
1.0
1001
ACAD
1000
MTEXTBEGIN
1070
    73
1070
     1
1070
    44
1040
1.0
1070
    74
1070
     0
1000
MTEXTEND
  0
POINT
  5
7035
330
5036
100
AcDbEntity
  8
Defpoints
 62
     0
100
AcDbPoint
 10
7438.731263768234
 20
2793.473993723678
 30
0.0
  0
POINT
  5
7036
330
5036
100
AcDbEntity
  8
Defpoints
 62
     0
100
AcDbPoint
 10
7418.749788467135
 20
2833.473993723679
 30
0.0
  0
POINT
  5
7037
330
5036
100
AcDbEntity
  8
Defpoints
 62
     0
100
AcDbPoint
 10
7381.388541694686
 20
2833.473993723679
 30
0.0
  0
ENDBLK
  5
5043
330
5036
100
AcDbEntity
  8
0
100
AcDbBlockEnd
  0
BLOCK
  5
504E
330
5044
100
AcDbEntity
  8
0
100
AcDbBlockBegin
  2
*D19
 70
     1
 10
0.0
 20
0.0
 30
0.0
  3
*D19
  1

  0
LINE
  5
7565
330
5044
100
AcDbEntity
  8
AM_5
100
AcDbLine
 10
7435.731263768234
 20
2793.473993723678
 30
0.0
 11
7327.388541694685
 21
2793.473993723678
 31
0.0
  0
LINE
  5
7566
330
5044
100
AcDbEntity
  8
AM_5
100
AcDbLine
 10
7455.731263768233
 20
2873.473993723678
 30
0.0
 11
7327.388541694685
 21
2873.473993723678
 31
0.0
  0
LINE
  5
7567
330
5044
100
AcDbEntity
  8
AM_5
100
AcDbLine
 10
7331.388541694685
 20
2813.473993723679
 30
0.0
 11
7331.388541694685
 21
2853.473993723678
 31
0.0
  0
SOLID
  5
7568
330
5044
100
AcDbEntity
  8
AM_5
100
AcDbTrace
 10
7328.055208361353
 20
2813.473993723679
 30
0.0
 11
7334.721875028018
 21
2813.473993723679
 31
0.0
 12
7331.388541694685
 22
2793.473993723678
 32
0.0
 13
7331.388541694685
 23
2793.473993723678
 33
0.0
  0
SOLID
  5
7569
330
5044
100
AcDbEntity
  8
AM_5
100
AcDbTrace
 10
7328.055208361353
 20
2853.473993723678
 30
0.0
 11
7334.721875028018
 21
2853.473993723678
 31
0.0
 12
7331.388541694685
 22
2873.473993723678
 32
0.0
 13
7331.388541694685
 23
2873.473993723678
 33
0.0
  0
MTEXT
  5
756A
330
5044
100
AcDbEntity
  8
AM_5
100
AcDbMText
 10
7315.388541694685
 20
2833.47399372368
 30
0.0
 40
20.0
 41
0.0
 71
     5
 72
     1
  1
\A2;40
 11
0.0000000000000001
 21
1.0
 31
0.0
 73
     1
 44
1.0
1001
ACAD
1000
MTEXTBEGIN
1070
    73
1070
     1
1070
    44
1040
1.0
1070
    74
1070
     0
1000
MTEXTEND
  0
POINT
  5
756B
330
5044
100
AcDbEntity
  8
Defpoints
 62
     0
100
AcDbPoint
 10
7438.731263768234
 20
2793.473993723678
 30
0.0
  0
POINT
  5
756C
330
5044
100
AcDbEntity
  8
Defpoints
 62
     0
100
AcDbPoint
 10
7458.731263768233
 20
2873.473993723678
 30
0.0
  0
POINT
  5
756D
330
5044
100
AcDbEntity
  8
Defpoints
 62
     0
100
AcDbPoint
 10
7331.388541694685
 20
2873.473993723678
 30
0.0
  0
ENDBLK
  5
504F
330
5044
100
AcDbEntity
  8
0
100
AcDbBlockEnd
  0
BLOCK
  5
5208
330
51FC
100
AcDbEntity
  8
0
100
AcDbBlockBegin
  2
*D20
 70
     1
 10
0.0
 20
0.0
 30
0.0
  3
*D20
  1

  0
LINE
  5
7041
330
51FC
100
AcDbEntity
  8
AM_5
100
AcDbLine
 10
8106.331059155456
 20
2822.085385812516
 30
0.0
 11
8106.331059155456
 21
2761.085384812516
 31
0.0
  0
LINE
  5
7042
330
51FC
100
AcDbEntity
  8
AM_5
100
AcDbLine
 10
8156.331059155457
 20
2822.085385812516
 30
0.0
 11
8156.331059155457
 21
2761.085384812516
 31
0.0
  0
LINE
  5
7043
330
51FC
100
AcDbEntity
  8
AM_5
100
AcDbLine
 10
8086.331059155456
 20
2765.085384812516
 30
0.0
 11
8066.331059155457
 21
2765.085384812516
 31
0.0
  0
LINE
  5
7044
330
51FC
100
AcDbEntity
  8
AM_5
100
AcDbLine
 10
8176.331059155456
 20
2765.085384812516
 30
0.0
 11
8196.331059155456
 21
2765.085384812516
 31
0.0
  0
LINE
  5
7045
330
51FC
100
AcDbEntity
  8
AM_5
100
AcDbLine
 10
8106.331059155456
 20
2765.085384812516
 30
0.0
 11
8156.331059155457
 21
2765.085384812516
 31
0.0
  0
SOLID
  5
7046
330
51FC
100
AcDbEntity
  8
AM_5
100
AcDbTrace
 10
8086.331059155456
 20
2768.418718145849
 30
0.0
 11
8086.331059155456
 21
2761.752051479183
 31
0.0
 12
8106.331059155456
 22
2765.085384812516
 32
0.0
 13
8106.331059155456
 23
2765.085384812516
 33
0.0
  0
SOLID
  5
7047
330
51FC
100
AcDbEntity
  8
AM_5
100
AcDbTrace
 10
8176.331059155456
 20
2768.418718145849
 30
0.0
 11
8176.331059155456
 21
2761.752051479183
 31
0.0
 12
8156.331059155457
 22
2765.085384812516
 32
0.0
 13
8156.331059155457
 23
2765.085384812516
 33
0.0
  0
MTEXT
  5
7048
330
51FC
100
AcDbEntity
  8
AM_5
100
AcDbMText
 10
8131.331059155456
 20
2781.087353316453
 30
0.0
 40
20.0
 41
0.0
 71
     5
 72
     1
  1
\A2;25
 73
     1
 44
1.0
1001
ACAD
1000
MTEXTBEGIN
1070
    73
1070
     1
1070
    44
1040
1.0
1070
    74
1070
     0
1000
MTEXTEND
  0
POINT
  5
7049
330
51FC
100
AcDbEntity
  8
Defpoints
 62
     0
100
AcDbPoint
 10
8106.331059155456
 20
2825.085385812515
 30
0.0
  0
POINT
  5
704A
330
51FC
100
AcDbEntity
  8
Defpoints
 62
     0
100
AcDbPoint
 10
8156.331059155457
 20
2825.085385812515
 30
0.0
  0
POINT
  5
704B
330
51FC
100
AcDbEntity
  8
Defpoints
 62
     0
100
AcDbPoint
 10
8156.331059155457
 20
2765.085384812516
 30
0.0
  0
ENDBLK
  5
5209
330
51FC
100
AcDbEntity
  8
0
100
AcDbBlockEnd
  0
BLOCK
  5
5216
330
520A
100
AcDbEntity
  8
0
100
AcDbBlockBegin
  2
*D21
 70
     1
 10
0.0
 20
0.0
 30
0.0
  3
*D21
  1

  0
LINE
  5
704C
330
520A
100
AcDbEntity
  8
AM_5
100
AcDbLine
 10
8116.331059155456
 20
2870.085385812516
 30
0.0
 11
8116.331059155456
 21
2921.085386812516
 31
0.0
  0
LINE
  5
704D
330
520A
100
AcDbEntity
  8
AM_5
100
AcDbLine
 10
8146.331059155455
 20
2870.085385812516
 30
0.0
 11
8146.331059155455
 21
2921.085386812516
 31
0.0
  0
LINE
  5
704E
330
520A
100
AcDbEntity
  8
AM_5
100
AcDbLine
 10
8096.331059155456
 20
2917.085386812516
 30
0.0
 11
8076.331059155457
 21
2917.085386812516
 31
0.0
  0
LINE
  5
704F
330
520A
100
AcDbEntity
  8
AM_5
100
AcDbLine
 10
8166.331059155456
 20
2917.085386812516
 30
0.0
 11
8186.331059155456
 21
2917.085386812516
 31
0.0
  0
LINE
  5
7050
330
520A
100
AcDbEntity
  8
AM_5
100
AcDbLine
 10
8116.331059155456
 20
2917.085386812516
 30
0.0
 11
8146.331059155455
 21
2917.085386812516
 31
0.0
  0
SOLID
  5
7051
330
520A
100
AcDbEntity
  8
AM_5
100
AcDbTrace
 10
8096.331059155456
 20
2920.418720145849
 30
0.0
 11
8096.331059155456
 21
2913.752053479182
 31
0.0
 12
8116.331059155456
 22
2917.085386812516
 32
0.0
 13
8116.331059155456
 23
2917.085386812516
 33
0.0
  0
SOLID
  5
7052
330
520A
100
AcDbEntity
  8
AM_5
100
AcDbTrace
 10
8166.331059155456
 20
2920.418720145849
 30
0.0
 11
8166.331059155456
 21
2913.752053479182
 31
0.0
 12
8146.331059155455
 22
2917.085386812516
 32
0.0
 13
8146.331059155455
 23
2917.085386812516
 33
0.0
  0
MTEXT
  5
7053
330
520A
100
AcDbEntity
  8
AM_5
100
AcDbMText
 10
8131.331059155456
 20
2933.085386812516
 30
0.0
 40
20.0
 41
0.0
 71
     5
 72
     1
  1
\A2;15
 73
     1
 44
1.0
1001
ACAD
1000
MTEXTBEGIN
1070
    73
1070
     1
1070
    44
1040
1.0
1070
    74
1070
     0
1000
MTEXTEND
  0
POINT
  5
7054
330
520A
100
AcDbEntity
  8
Defpoints
 62
     0
100
AcDbPoint
 10
8116.331059155456
 20
2867.085385812515
 30
0.0
  0
POINT
  5
7055
330
520A
100
AcDbEntity
  8
Defpoints
 62
     0
100
AcDbPoint
 10
8146.331059155455
 20
2867.085385812515
 30
0.0
  0
POINT
  5
7056
330
520A
100
AcDbEntity
  8
Defpoints
 62
     0
100
AcDbPoint
 10
8146.331059155455
 20
2917.085386812516
 30
0.0
  0
ENDBLK
  5
5217
330
520A
100
AcDbEntity
  8
0
100
AcDbBlockEnd
  0
BLOCK
  5
5224
330
5218
100
AcDbEntity
  8
0
100
AcDbBlockBegin
  2
*D22
 70
     1
 10
0.0
 20
0.0
 30
0.0
  3
*D22
  1

  0
LINE
  5
7057
330
5218
100
AcDbEntity
  8
AM_5
100
AcDbLine
 10
8169.773071306945
 20
2867.085385812515
 30
0.0
 11
8229.576256709885
 21
2867.085385812515
 31
0.0
  0
LINE
  5
7058
330
5218
100
AcDbEntity
  8
AM_5
100
AcDbLine
 10
8159.331059155457
 20
2845.085385812515
 30
0.0
 11
8229.576256709885
 21
2845.085385812515
 31
0.0
  0
LINE
  5
7059
330
5218
100
AcDbEntity
  8
AM_5
100
AcDbLine
 10
8225.576256709883
 20
2825.085385812515
 30
0.0
 11
8225.576256709883
 21
2805.085385812515
 31
0.0
  0
LINE
  5
705A
330
5218
100
AcDbEntity
  8
AM_5
100
AcDbLine
 10
8225.576256709883
 20
2887.085385812515
 30
0.0
 11
8225.576256709883
 21
2933.085385812515
 31
0.0
  0
LINE
  5
705B
330
5218
100
AcDbEntity
  8
AM_5
100
AcDbLine
 10
8225.576256709883
 20
2845.085385812515
 30
0.0
 11
8225.576256709883
 21
2867.085385812515
 31
0.0
  0
SOLID
  5
705C
330
5218
100
AcDbEntity
  8
AM_5
100
AcDbTrace
 10
8222.242923376551
 20
2825.085385812515
 30
0.0
 11
8228.909590043219
 21
2825.085385812515
 31
0.0
 12
8225.576256709883
 22
2845.085385812515
 32
0.0
 13
8225.576256709883
 23
2845.085385812515
 33
0.0
  0
SOLID
  5
705D
330
5218
100
AcDbEntity
  8
AM_5
100
AcDbTrace
 10
8222.242923376551
 20
2887.085385812515
 30
0.0
 11
8228.909590043219
 21
2887.085385812515
 31
0.0
 12
8225.576256709883
 22
2867.085385812515
 32
0.0
 13
8225.576256709883
 23
2867.085385812515
 33
0.0
  0
MTEXT
  5
705E
330
5218
100
AcDbEntity
  8
AM_5
100
AcDbMText
 10
8209.576256709885
 20
2920.085385812516
 30
0.0
 40
20.0
 41
0.0
 71
     5
 72
     1
  1
\A2;11
 11
0.0000000000000001
 21
1.0
 31
0.0
 73
     1
 44
1.0
1001
ACAD
1000
MTEXTBEGIN
1070
    73
1070
     1
1070
    44
1040
1.0
1070
    74
1070
     0
1000
MTEXTEND
  0
POINT
  5
705F
330
5218
100
AcDbEntity
  8
Defpoints
 62
     0
100
AcDbPoint
 10
8166.773071306945
 20
2867.085385812515
 30
0.0
  0
POINT
  5
7060
330
5218
100
AcDbEntity
  8
Defpoints
 62
     0
100
AcDbPoint
 10
8156.331059155457
 20
2845.085385812515
 30
0.0
  0
POINT
  5
7061
330
5218
100
AcDbEntity
  8
Defpoints
 62
     0
100
AcDbPoint
 10
8225.576256709883
 20
2845.085385812515
 30
0.0
  0
ENDBLK
  5
5225
330
5218
100
AcDbEntity
  8
0
100
AcDbBlockEnd
  0
BLOCK
  5
5232
330
5226
100
AcDbEntity
  8
0
100
AcDbBlockBegin
  2
*D23
 70
     1
 10
0.0
 20
0.0
 30
0.0
  3
*D23
  1

  0
LINE
  5
7062
330
5226
100
AcDbEntity
  8
AM_5
100
AcDbLine
 10
8103.331059155456
 20
2845.085385812515
 30
0.0
 11
8042.331059155456
 21
2845.085385812515
 31
0.0
  0
LINE
  5
7063
330
5226
100
AcDbEntity
  8
AM_5
100
AcDbLine
 10
8103.331059155456
 20
2825.085385812515
 30
0.0
 11
8042.331059155456
 21
2825.085385812515
 31
0.0
  0
LINE
  5
7064
330
5226
100
AcDbEntity
  8
AM_5
100
AcDbLine
 10
8046.331059155457
 20
2865.085385812515
 30
0.0
 11
8046.331059155457
 21
2885.085385812515
 31
0.0
  0
LINE
  5
7065
330
5226
100
AcDbEntity
  8
AM_5
100
AcDbLine
 10
8046.331059155457
 20
2805.085385812515
 30
0.0
 11
8046.331059155457
 21
2785.085385812515
 31
0.0
  0
LINE
  5
7066
330
5226
100
AcDbEntity
  8
AM_5
100
AcDbLine
 10
8046.331059155457
 20
2845.085385812515
 30
0.0
 11
8046.331059155457
 21
2825.085385812515
 31
0.0
  0
SOLID
  5
7067
330
5226
100
AcDbEntity
  8
AM_5
100
AcDbTrace
 10
8042.997725822123
 20
2865.085385812515
 30
0.0
 11
8049.664392488791
 21
2865.085385812515
 31
0.0
 12
8046.331059155457
 22
2845.085385812515
 32
0.0
 13
8046.331059155457
 23
2845.085385812515
 33
0.0
  0
SOLID
  5
7068
330
5226
100
AcDbEntity
  8
AM_5
100
AcDbTrace
 10
8042.997725822123
 20
2805.085385812515
 30
0.0
 11
8049.664392488791
 21
2805.085385812515
 31
0.0
 12
8046.331059155457
 22
2825.085385812515
 32
0.0
 13
8046.331059155457
 23
2825.085385812515
 33
0.0
  0
MTEXT
  5
7069
330
5226
100
AcDbEntity
  8
AM_5
100
AcDbMText
 10
8030.331059155455
 20
2835.085385812517
 30
0.0
 40
20.0
 41
0.0
 71
     5
 72
     1
  1
\A2;10
 11
0.0000000000000001
 21
1.0
 31
0.0
 73
     1
 44
1.0
1001
ACAD
1000
MTEXTBEGIN
1070
    73
1070
     1
1070
    44
1040
1.0
1070
    74
1070
     0
1000
MTEXTEND
  0
POINT
  5
706A
330
5226
100
AcDbEntity
  8
Defpoints
 62
     0
100
AcDbPoint
 10
8106.331059155456
 20
2845.085385812515
 30
0.0
  0
POINT
  5
706B
330
5226
100
AcDbEntity
  8
Defpoints
 62
     0
100
AcDbPoint
 10
8106.331059155456
 20
2825.085385812515
 30
0.0
  0
POINT
  5
706C
330
5226
100
AcDbEntity
  8
Defpoints
 62
     0
100
AcDbPoint
 10
8046.331059155457
 20
2825.085385812515
 30
0.0
  0
ENDBLK
  5
5233
330
5226
100
AcDbEntity
  8
0
100
AcDbBlockEnd
  0
BLOCK
  5
7474
330
746A
100
AcDbEntity
  8
0
100
AcDbBlockBegin
  2
*D24
 70
     1
 10
0.0
 20
0.0
 30
0.0
  3
*D24
  1

  0
LINE
  5
74B4
330
746A
100
AcDbEntity
  8
AM_5
100
AcDbLine
 10
8103.331059155456
 20
2046.070414545765
 30
0.0
 11
7907.331059155456
 21
2046.070414545765
 31
0.0
  0
LINE
  5
74B5
330
746A
100
AcDbEntity
  8
AM_5
100
AcDbLine
 10
8033.331059155456
 20
2166.070414545765
 30
0.0
 11
7907.331059155456
 21
2166.070414545765
 31
0.0
  0
LINE
  5
74B6
330
746A
100
AcDbEntity
  8
AM_5
100
AcDbLine
 10
7911.331059155457
 20
2066.070414545765
 30
0.0
 11
7911.331059155457
 21
2146.070414545765
 31
0.0
  0
SOLID
  5
74B7
330
746A
100
AcDbEntity
  8
AM_5
100
AcDbTrace
 10
7907.997725822124
 20
2066.070414545765
 30
0.0
 11
7914.66439248879
 21
2066.070414545765
 31
0.0
 12
7911.331059155455
 22
2046.070414545765
 32
0.0
 13
7911.331059155455
 23
2046.070414545765
 33
0.0
  0
SOLID
  5
74B8
330
746A
100
AcDbEntity
  8
AM_5
100
AcDbTrace
 10
7907.997725822124
 20
2146.070414545765
 30
0.0
 11
7914.66439248879
 21
2146.070414545765
 31
0.0
 12
7911.331059155457
 22
2166.070414545765
 32
0.0
 13
7911.331059155457
 23
2166.070414545765
 33
0.0
  0
MTEXT
  5
74B9
330
746A
100
AcDbEntity
  8
AM_5
100
AcDbMText
 10
7895.329090651519
 20
2106.070414545766
 30
0.0
 40
20.0
 41
0.0
 71
     5
 72
     1
  1
\A2;120
 11
0.0000000000000001
 21
1.0
 31
0.0
 73
     1
 44
1.0
1001
ACAD
1000
MTEXTBEGIN
1070
    73
1070
     1
1070
    44
1040
1.0
1070
    74
1070
     0
1000
MTEXTEND
  0
POINT
  5
74BA
330
746A
100
AcDbEntity
  8
Defpoints
 62
     0
100
AcDbPoint
 10
8106.331059155456
 20
2046.070414545765
 30
0.0
  0
POINT
  5
74BB
330
746A
100
AcDbEntity
  8
Defpoints
 62
     0
100
AcDbPoint
 10
8036.331059155456
 20
2166.070414545765
 30
0.0
  0
POINT
  5
74BC
330
746A
100
AcDbEntity
  8
Defpoints
 62
     0
100
AcDbPoint
 10
7911.331059155457
 20
2166.070414545765
 30
0.0
  0
ENDBLK
  5
7475
330
746A
100
AcDbEntity
  8
0
100
AcDbBlockEnd
  0
BLOCK
  5
74D6
330
74CB
100
AcDbEntity
  8
0
100
AcDbBlockBegin
  2
*D25
 70
     1
 10
0.0
 20
0.0
 30
0.0
  3
*D25
  1

  0
LINE
  5
7500
330
74CB
100
AcDbEntity
  8
AM_5
100
AcDbLine
 10
7393.731263768232
 20
2163.070414545765
 30
0.0
 11
7393.731263768232
 21
2124.136070567542
 31
0.0
  0
LINE
  5
7501
330
74CB
100
AcDbEntity
  8
AM_5
100
AcDbLine
 10
7583.731263768233
 20
2163.070414545765
 30
0.0
 11
7583.731263768233
 21
2124.136070567542
 31
0.0
  0
LINE
  5
7502
330
74CB
100
AcDbEntity
  8
AM_5
100
AcDbLine
 10
7413.731263768233
 20
2128.136070567542
 30
0.0
 11
7563.731263768232
 21
2128.136070567542
 31
0.0
  0
SOLID
  5
7503
330
74CB
100
AcDbEntity
  8
AM_5
100
AcDbTrace
 10
7413.731263768233
 20
2131.469403900875
 30
0.0
 11
7413.731263768233
 21
2124.802737234208
 31
0.0
 12
7393.731263768232
 22
2128.136070567542
 32
0.0
 13
7393.731263768232
 23
2128.136070567542
 33
0.0
  0
SOLID
  5
7504
330
74CB
100
AcDbEntity
  8
AM_5
100
AcDbTrace
 10
7563.731263768232
 20
2131.469403900875
 30
0.0
 11
7563.731263768232
 21
2124.802737234208
 31
0.0
 12
7583.731263768233
 22
2128.136070567542
 32
0.0
 13
7583.731263768233
 23
2128.136070567542
 33
0.0
  0
MTEXT
  5
7505
330
74CB
100
AcDbEntity
  8
AM_5
100
AcDbMText
 10
7544.187023779542
 20
2144.136070567542
 30
0.0
 40
20.0
 41
0.0
 71
     5
 72
     1
  1
\A2;190
 73
     1
 44
1.0
1001
ACAD
1000
MTEXTBEGIN
1070
    73
1070
     1
1070
    44
1040
1.0
1070
    74
1070
     0
1000
MTEXTEND
  0
POINT
  5
7506
330
74CB
100
AcDbEntity
  8
Defpoints
 62
     0
100
AcDbPoint
 10
7393.731263768232
 20
2166.070414545765
 30
0.0
  0
POINT
  5
7507
330
74CB
100
AcDbEntity
  8
Defpoints
 62
     0
100
AcDbPoint
 10
7583.731263768233
 20
2166.070414545765
 30
0.0
  0
POINT
  5
7508
330
74CB
100
AcDbEntity
  8
Defpoints
 62
     0
100
AcDbPoint
 10
7583.731263768233
 20
2128.136070567542
 30
0.0
  0
ENDBLK
  5
74D7
330
74CB
100
AcDbEntity
  8
0
100
AcDbBlockEnd
  0
BLOCK
  5
77A5
330
7725
100
AcDbEntity
  8
0
100
AcDbBlockBegin
  2
A$C6CD92E8B
 70
     0
 10
0.0
 20
0.0
 30
0.0
  3
A$C6CD92E8B
  1

  0
LINE
  5
7726
330
7725
100
AcDbEntity
  8
圖層4尺寸線
100
AcDbLine
 10
71.0
 20
146.0000000000001
 30
0.0
 11
33.0
 21
145.9999999999999
 31
0.0
  0
LINE
  5
7727
330
7725
100
AcDbEntity
  8
圖層4尺寸線
100
AcDbLine
 10
71.0
 20
158.0
 30
0.0
 11
33.0
 21
157.9999999999998
 31
0.0
  0
LINE
  5
7728
330
7725
100
AcDbEntity
  8
圖層4尺寸線
100
AcDbLine
 10
77.0
 20
137.0
 30
0.0
 11
27.0
 21
137.0
 31
0.0
  0
LINE
  5
7729
330
7725
100
AcDbEntity
  8
圖層4尺寸線
100
AcDbLine
 10
77.0
 20
162.0
 30
0.0
 11
27.0
 21
162.0
 31
0.0
  0
TEXT
  5
772A
330
7725
100
AcDbEntity
  8
圖層4尺寸線
100
AcDbText
 10
16.03536627080059
 20
54.00985812031229
 30
0.0
 40
5.0
  1
電源開關       緊急停止
  7
WIN
 72
     4
 11
52.56879650335872
 21
56.24823021333554
 31
0.0
100
AcDbText
  0
LWPOLYLINE
  5
772B
330
7725
100
AcDbEntity
  8
圖層4尺寸線
100
AcDbPolyline
 90
        4
 70
     1
 43
0.0
 10
8.701085135428911
 20
62.72178854578453
 10
96.43650787128855
 20
62.72178854578453
 10
96.43650787128855
 20
49.77467188088656
 10
8.701085135428911
 20
49.77467188088656
  0
LINE
  5
772C
330
7725
100
AcDbEntity
  8
圖層4尺寸線
100
AcDbLine
 10
41.59219363945431
 20
82.69436947062024
 30
0.0
 11
49.98715116814628
 21
91.23594584293631
 31
0.0
  0
LINE
  5
772D
330
7725
100
AcDbEntity
  8
圖層4尺寸線
100
AcDbLine
 10
34.0
 20
69.0
 30
0.0
 11
70.0
 21
69.0
 31
0.0
  0
LINE
  5
772E
330
7725
100
AcDbEntity
  8
圖層4尺寸線
100
AcDbLine
 10
34.0
 20
117.0
 30
0.0
 11
70.0
 21
117.0
 31
0.0
  0
CIRCLE
  5
772F
330
7725
100
AcDbEntity
  8
圖層4尺寸線
100
AcDbCircle
 10
52.0
 20
96.0
 30
0.0
 40
5.0
  0
CIRCLE
  5
7730
330
7725
100
AcDbEntity
  8
圖層4尺寸線
100
AcDbCircle
 10
52.0
 20
96.0
 30
0.0
 40
17.0
  0
CIRCLE
  5
7731
330
7725
100
AcDbEntity
  8
圖層4尺寸線
100
AcDbCircle
 10
52.0
 20
182.0
 30
0.0
 40
5.0
  0
LINE
  5
7732
330
7725
100
AcDbEntity
  8
圖層4尺寸線
100
AcDbLine
 10
30.0
 20
121.0
 30
0.0
 11
74.0
 21
121.0
 31
0.0
  0
LINE
  5
7733
330
7725
100
AcDbEntity
  8
圖層4尺寸線
100
AcDbLine
 10
30.0
 20
64.99999999999989
 30
0.0
 11
74.0
 21
65.0
 31
0.0
  0
LINE
  5
7734
330
7725
100
AcDbEntity
  8
圖層4尺寸線
100
AcDbLine
 10
104.0
 20
202.0
 30
0.0
 11
0.0
 21
202.0
 31
0.0
  0
LINE
  5
7735
330
7725
100
AcDbEntity
  8
圖層4尺寸線
100
AcDbLine
 10
0.0
 20
0.0
 30
0.0
 11
104.0
 21
0.0
 31
0.0
  0
LINE
  5
7736
330
7725
100
AcDbEntity
  8
圖層4尺寸線
100
AcDbLine
 10
34.00000000000023
 20
69.0
 30
0.0
 11
34.0
 21
117.0
 31
0.0
  0
LINE
  5
7737
330
7725
100
AcDbEntity
  8
圖層4尺寸線
100
AcDbLine
 10
30.0
 20
64.99999999999989
 30
0.0
 11
30.0
 21
121.0
 31
0.0
  0
LINE
  5
7738
330
7725
100
AcDbEntity
  8
圖層4尺寸線
100
AcDbLine
 10
0.0
 20
202.0
 30
0.0
 11
0.0
 21
0.0
 31
0.0
  0
LINE
  5
7739
330
7725
100
AcDbEntity
  8
圖層4尺寸線
100
AcDbLine
 10
32.91603796481968
 20
30.70478549057839
 30
0.0
 11
33.88805061975972
 21
26.68309968407289
 31
0.0
  0
LINE
  5
773A
330
7725
100
AcDbEntity
  8
圖層4尺寸線
100
AcDbLine
 10
27.08396203518032
 20
30.70478549057839
 30
0.0
 11
26.11194938024028
 21
26.68309968407289
 31
0.0
  0
CIRCLE
  5
773B
330
7725
100
AcDbEntity
  8
圖層4尺寸線
100
AcDbCircle
 10
30.0
 20
25.74338569663507
 30
0.0
 40
4.0
  0
ARC
  5
773C
330
7725
100
AcDbEntity
  8
圖層4尺寸線
100
AcDbCircle
 10
30.0
 20
30.0
 30
0.0
 40
12.0
100
AcDbArc
 50
131.8103148957794
 51
228.1896851042206
  0
ARC
  5
773D
330
7725
100
AcDbEntity
  8
圖層4尺寸線
100
AcDbCircle
 10
30.0
 20
30.0
 30
0.0
 40
12.0
100
AcDbArc
 50
311.8103148957794
 51
48.18968510421577
  0
LWPOLYLINE
  5
773E
330
7725
100
AcDbEntity
  8
圖層4尺寸線
100
AcDbPolyline
 90
        7
 70
     0
 43
0.0
 10
33.5971215499012
 20
23.99389532648854
 10
37.0
 20
25.95854811567267
 10
37.0
 20
34.04145188432733
 10
30.0
 20
38.08290376865477
 10
23.0
 20
34.04145188432733
 10
23.0
 20
25.95854811567267
 10
26.4028784500988
 20
23.99389532648854
  0
ARC
  5
773F
330
7725
100
AcDbEntity
  8
圖層4尺寸線
100
AcDbCircle
 10
30.0
 20
30.0
 30
0.0
 40
7.0
100
AcDbArc
 50
300.9291072523213
 51
239.0708927476787
  0
ARC
  5
7740
330
7725
100
AcDbEntity
  8
圖層4尺寸線
100
AcDbCircle
 10
30.0
 20
30.0
 30
0.0
 40
6.0
100
AcDbArc
 50
311.7321013756959
 51
228.2678986243041
  0
ARC
  5
7741
330
7725
100
AcDbEntity
  8
圖層4尺寸線
100
AcDbCircle
 10
8.0
 20
13.0
 30
0.0
 40
2.0
100
AcDbArc
 50
239.9999999999995
 51
300.0000000000005
  0
ARC
  5
7742
330
7725
100
AcDbEntity
  8
圖層4尺寸線
100
AcDbCircle
 10
8.0
 20
13.0
 30
0.0
 40
2.0
100
AcDbArc
 50
59.99999999999946
 51
120.0000000000005
  0
CIRCLE
  5
7743
330
7725
100
AcDbEntity
  8
圖層4尺寸線
100
AcDbCircle
 10
8.0
 20
13.0
 30
0.0
 40
4.0
  0
LINE
  5
7744
330
7725
100
AcDbEntity
  8
圖層4尺寸線
100
AcDbLine
 10
7.0
 20
13.99999999999989
 30
0.0
 11
7.0
 21
14.73205080756884
 31
0.0
  0
LINE
  5
7745
330
7725
100
AcDbEntity
  8
圖層4尺寸線
100
AcDbLine
 10
7.0
 20
11.26794919243105
 30
0.0
 11
7.0
 21
11.99999999999988
 31
0.0
  0
LINE
  5
7746
330
7725
100
AcDbEntity
  8
圖層4尺寸線
100
AcDbLine
 10
7.0
 20
14.0
 30
0.0
 11
4.645898033750199
 21
14.0
 31
0.0
  0
LINE
  5
7747
330
7725
100
AcDbEntity
  8
圖層4尺寸線
100
AcDbLine
 10
7.0
 20
12.0
 30
0.0
 11
4.645898033750199
 21
12.0
 31
0.0
  0
ARC
  5
7748
330
7725
100
AcDbEntity
  8
圖層4尺寸線
100
AcDbCircle
 10
8.0
 20
13.0
 30
0.0
 40
3.5
100
AcDbArc
 50
163.3984504009828
 51
196.6015495990234
  0
TEXT
  5
7749
330
7725
100
AcDbEntity
  8
圖層4尺寸線
100
AcDbText
 10
24.87209302325581
 20
16.20348837209302
 30
0.0
 40
4.0
  1
OFF
  7
WIN
 72
     4
 11
30.0
 21
18.0
 31
0.0
100
AcDbText
  0
LINE
  5
774A
330
7725
100
AcDbEntity
  8
圖層4尺寸線
100
AcDbLine
 10
25.0
 20
13.0
 30
0.0
 11
35.0
 21
12.99999999999988
 31
0.0
  0
LINE
  5
774B
330
7725
100
AcDbEntity
  8
圖層4尺寸線
100
AcDbLine
 10
22.0
 20
19.80196097281453
 30
0.0
 11
22.0
 21
16.0
 31
0.0
  0
LINE
  5
774C
330
7725
100
AcDbEntity
  8
圖層4尺寸線
100
AcDbLine
 10
9.0
 20
13.99999999999989
 30
0.0
 11
9.0
 21
14.73205080756884
 31
0.0
  0
LINE
  5
774D
330
7725
100
AcDbEntity
  8
圖層4尺寸線
100
AcDbLine
 10
9.0
 20
11.26794919243105
 30
0.0
 11
9.0
 21
11.99999999999988
 31
0.0
  0
LINE
  5
774E
330
7725
100
AcDbEntity
  8
圖層4尺寸線
100
AcDbLine
 10
11.3541019662498
 20
12.00000000000011
 30
0.0
 11
9.0
 21
12.0
 31
0.0
  0
LINE
  5
774F
330
7725
100
AcDbEntity
  8
圖層4尺寸線
100
AcDbLine
 10
11.3541019662498
 20
14.00000000000011
 30
0.0
 11
9.0
 21
14.0
 31
0.0
  0
ARC
  5
7750
330
7725
100
AcDbEntity
  8
圖層4尺寸線
100
AcDbCircle
 10
8.0
 20
13.0
 30
0.0
 40
3.5
100
AcDbArc
 50
343.3984504009766
 51
16.60154959902343
  0
ARC
  5
7751
330
7725
100
AcDbEntity
  8
圖層4尺寸線
100
AcDbCircle
 10
25.0
 20
16.0
 30
0.0
 40
3.0
100
AcDbArc
 50
180.0
 51
270.0
  0
ARC
  5
7752
330
7725
100
AcDbEntity
  8
圖層4尺寸線
100
AcDbCircle
 10
19.0
 20
19.80196097281453
 30
0.0
 40
3.0
100
AcDbArc
 50
0.0
 51
42.83342806606607
  0
ARC
  5
7753
330
7725
100
AcDbEntity
  8
圖層4尺寸線
100
AcDbCircle
 10
19.0
 20
19.80196097281453
 30
0.0
 40
3.0
100
AcDbArc
 50
0.0
 51
42.83342806606607
  0
LINE
  5
7754
330
7725
100
AcDbEntity
  8
圖層4尺寸線
100
AcDbLine
 10
38.0
 20
19.80196097281453
 30
0.0
 11
38.0
 21
15.99999999999988
 31
0.0
  0
ARC
  5
7755
330
7725
100
AcDbEntity
  8
圖層4尺寸線
100
AcDbCircle
 10
35.0
 20
15.99999999999988
 30
0.0
 40
3.0
100
AcDbArc
 50
270.0
 51
0.0
  0
ARC
  5
7756
330
7725
100
AcDbEntity
  8
圖層4尺寸線
100
AcDbCircle
 10
41.0
 20
19.80196097281453
 30
0.0
 40
3.0
100
AcDbArc
 50
137.1665719339339
 51
180.0
  0
ARC
  5
7757
330
7725
100
AcDbEntity
  8
圖層4尺寸線
100
AcDbCircle
 10
35.0
 20
43.99999999999988
 30
0.0
 40
3.0
100
AcDbArc
 50
0.0
 51
90.0
  0
ARC
  5
7758
330
7725
100
AcDbEntity
  8
圖層4尺寸線
100
AcDbCircle
 10
25.0
 20
43.99999999999988
 30
0.0
 40
3.0
100
AcDbArc
 50
90.0
 51
180.0
  0
TEXT
  5
7759
330
7725
100
AcDbEntity
  8
圖層4尺寸線
100
AcDbText
 10
25.96511627906977
 20
40.20348837209302
 30
0.0
 40
4.0
  1
ON
  7
WIN
 72
     4
 11
30.0
 21
42.0
 31
0.0
100
AcDbText
  0
LINE
  5
775A
330
7725
100
AcDbEntity
  8
圖層4尺寸線
100
AcDbLine
 10
25.0
 20
46.99999999999988
 30
0.0
 11
35.0
 21
46.99999999999988
 31
0.0
  0
ARC
  5
775B
330
7725
100
AcDbEntity
  8
圖層4尺寸線
100
AcDbCircle
 10
30.0
 20
30.0
 30
0.0
 40
3.0
100
AcDbArc
 50
13.58740794754618
 51
166.4125920524538
  0
ARC
  5
775C
330
7725
100
AcDbEntity
  8
圖層4尺寸線
100
AcDbCircle
 10
19.0
 20
40.19803902718547
 30
0.0
 40
3.0
100
AcDbArc
 50
317.166571933934
 51
0.0
  0
LINE
  5
775D
330
7725
100
AcDbEntity
  8
圖層4尺寸線
100
AcDbLine
 10
22.0
 20
43.99999999999988
 30
0.0
 11
22.0
 21
40.19803902718547
 31
0.0
  0
ARC
  5
775E
330
7725
100
AcDbEntity
  8
圖層4尺寸線
100
AcDbCircle
 10
41.0
 20
40.19803902718547
 30
0.0
 40
3.0
100
AcDbArc
 50
180.0
 51
222.8334280660661
  0
LINE
  5
775F
330
7725
100
AcDbEntity
  8
圖層4尺寸線
100
AcDbLine
 10
38.0
 20
43.99999999999988
 30
0.0
 11
38.0
 21
40.19803902718547
 31
0.0
  0
LINE
  5
7760
330
7725
100
AcDbEntity
  8
圖層4尺寸線
100
AcDbLine
 10
47.72697041465244
 20
92.84756439155694
 30
0.0
 11
41.59219363945431
 21
82.69436947062024
 31
0.0
  0
LWPOLYLINE
  5
7761
330
7725
100
AcDbEntity
  8
圖層4尺寸線
100
AcDbPolyline
 90
        4
 70
     1
 43
0.0
 10
36.00000000000023
 20
71.0
 10
42.00000000000023
 20
71.0
 10
42.00000000000023
 20
77.0
 10
36.00000000000023
 20
77.0
  0
CIRCLE
  5
7762
330
7725
100
AcDbEntity
  8
圖層4尺寸線
100
AcDbCircle
 10
8.0
 20
189.0
 30
0.0
 40
4.0
  0
LINE
  5
7763
330
7725
100
AcDbEntity
  8
圖層4尺寸線
100
AcDbLine
 10
33.0
 20
157.9999999999999
 30
0.0
 11
33.0
 21
146.0
 31
0.0
  0
LINE
  5
7764
330
7725
100
AcDbEntity
  8
圖層4尺寸線
100
AcDbLine
 10
27.0
 20
162.0
 30
0.0
 11
27.0
 21
137.0
 31
0.0
  0
ARC
  5
7765
330
7725
100
AcDbEntity
  8
圖層4尺寸線
100
AcDbCircle
 10
8.0
 20
189.0
 30
0.0
 40
2.0
100
AcDbArc
 50
59.99999999999946
 51
120.0000000000005
  0
ARC
  5
7766
330
7725
100
AcDbEntity
  8
圖層4尺寸線
100
AcDbCircle
 10
8.0
 20
189.0
 30
0.0
 40
2.0
100
AcDbArc
 50
239.9999999999995
 51
300.0000000000005
  0
ARC
  5
7767
330
7725
100
AcDbEntity
  8
圖層4尺寸線
100
AcDbCircle
 10
8.0
 20
189.0
 30
0.0
 40
3.5
100
AcDbArc
 50
163.3984504009766
 51
196.6015495990172
  0
LINE
  5
7768
330
7725
100
AcDbEntity
  8
圖層4尺寸線
100
AcDbLine
 10
7.0
 20
188.0
 30
0.0
 11
7.0
 21
187.2679491924311
 31
0.0
  0
LINE
  5
7769
330
7725
100
AcDbEntity
  8
圖層4尺寸線
100
AcDbLine
 10
7.0
 20
188.0
 30
0.0
 11
4.645898033750199
 21
188.0
 31
0.0
  0
LINE
  5
776A
330
7725
100
AcDbEntity
  8
圖層4尺寸線
100
AcDbLine
 10
7.0
 20
190.0
 30
0.0
 11
4.645898033750199
 21
190.0
 31
0.0
  0
LINE
  5
776B
330
7725
100
AcDbEntity
  8
圖層4尺寸線
100
AcDbLine
 10
7.0
 20
190.7320508075688
 30
0.0
 11
7.0
 21
190.0
 31
0.0
  0
ARC
  5
776C
330
7725
100
AcDbEntity
  8
圖層4尺寸線
100
AcDbCircle
 10
8.0
 20
189.0
 30
0.0
 40
3.5
100
AcDbArc
 50
343.3984504009766
 51
16.60154959902343
  0
LINE
  5
776D
330
7725
100
AcDbEntity
  8
圖層4尺寸線
100
AcDbLine
 10
9.0
 20
188.0
 30
0.0
 11
9.0
 21
187.2679491924311
 31
0.0
  0
LINE
  5
776E
330
7725
100
AcDbEntity
  8
圖層4尺寸線
100
AcDbLine
 10
9.0
 20
190.7320508075688
 30
0.0
 11
9.0
 21
190.0
 31
0.0
  0
LINE
  5
776F
330
7725
100
AcDbEntity
  8
圖層4尺寸線
100
AcDbLine
 10
11.3541019662498
 20
188.0
 30
0.0
 11
9.0
 21
188.0
 31
0.0
  0
LINE
  5
7770
330
7725
100
AcDbEntity
  8
圖層4尺寸線
100
AcDbLine
 10
11.3541019662498
 20
190.0
 30
0.0
 11
9.0
 21
190.0
 31
0.0
  0
LINE
  5
7771
330
7725
100
AcDbEntity
  8
圖層4尺寸線
100
AcDbLine
 10
70.0
 20
69.0
 30
0.0
 11
70.0
 21
117.0
 31
0.0
  0
LINE
  5
7772
330
7725
100
AcDbEntity
  8
圖層4尺寸線
100
AcDbLine
 10
74.0
 20
64.99999999999989
 30
0.0
 11
74.0
 21
121.0
 31
0.0
  0
LINE
  5
7773
330
7725
100
AcDbEntity
  8
圖層4尺寸線
100
AcDbLine
 10
74.0
 20
27.0
 30
0.0
 11
74.0
 21
33.0
 31
0.0
  0
CIRCLE
  5
7774
330
7725
100
AcDbEntity
  8
圖層4尺寸線
100
AcDbCircle
 10
74.0
 20
30.0
 30
0.0
 40
8.110805357093454
  0
CIRCLE
  5
7775
330
7725
100
AcDbEntity
  8
圖層4尺寸線
100
AcDbCircle
 10
74.0
 20
30.0
 30
0.0
 40
7.0
  0
LINE
  5
7776
330
7725
100
AcDbEntity
  8
圖層4尺寸線
100
AcDbLine
 10
97.0
 20
12.0
 30
0.0
 11
99.3541019662498
 21
12.0
 31
0.0
  0
LINE
  5
7777
330
7725
100
AcDbEntity
  8
圖層4尺寸線
100
AcDbLine
 10
97.0
 20
14.0
 30
0.0
 11
99.3541019662498
 21
14.0
 31
0.0
  0
CIRCLE
  5
7778
330
7725
100
AcDbEntity
  8
圖層4尺寸線
100
AcDbCircle
 10
96.0
 20
13.0
 30
0.0
 40
4.0
  0
LINE
  5
7779
330
7725
100
AcDbEntity
  8
圖層4尺寸線
100
AcDbLine
 10
97.0
 20
11.26794919243105
 30
0.0
 11
97.0
 21
11.99999999999988
 31
0.0
  0
LINE
  5
777A
330
7725
100
AcDbEntity
  8
圖層4尺寸線
100
AcDbLine
 10
97.0
 20
13.99999999999989
 30
0.0
 11
97.0
 21
14.73205080756884
 31
0.0
  0
ARC
  5
777B
330
7725
100
AcDbEntity
  8
圖層4尺寸線
100
AcDbCircle
 10
96.0
 20
13.0
 30
0.0
 40
3.5
100
AcDbArc
 50
163.3984504009766
 51
196.6015495990234
  0
LINE
  5
777C
330
7725
100
AcDbEntity
  8
圖層4尺寸線
100
AcDbLine
 10
92.6458980337502
 20
14.00000000000011
 30
0.0
 11
95.0
 21
14.0
 31
0.0
  0
LINE
  5
777D
330
7725
100
AcDbEntity
  8
圖層4尺寸線
100
AcDbLine
 10
92.6458980337502
 20
12.00000000000011
 30
0.0
 11
95.0
 21
12.0
 31
0.0
  0
LINE
  5
777E
330
7725
100
AcDbEntity
  8
圖層4尺寸線
100
AcDbLine
 10
95.0
 20
11.26794919243105
 30
0.0
 11
95.0
 21
11.99999999999988
 31
0.0
  0
LINE
  5
777F
330
7725
100
AcDbEntity
  8
圖層4尺寸線
100
AcDbLine
 10
95.0
 20
13.99999999999989
 30
0.0
 11
95.0
 21
14.73205080756884
 31
0.0
  0
ARC
  5
7780
330
7725
100
AcDbEntity
  8
圖層4尺寸線
100
AcDbCircle
 10
96.0
 20
13.0
 30
0.0
 40
2.0
100
AcDbArc
 50
59.99999999999946
 51
120.0000000000005
  0
ARC
  5
7781
330
7725
100
AcDbEntity
  8
圖層4尺寸線
100
AcDbCircle
 10
96.0
 20
13.0
 30
0.0
 40
2.0
100
AcDbArc
 50
239.9999999999995
 51
300.0000000000005
  0
ARC
  5
7782
330
7725
100
AcDbEntity
  8
圖層4尺寸線
100
AcDbCircle
 10
96.0
 20
13.0
 30
0.0
 40
3.5
100
AcDbArc
 50
343.3984504009766
 51
16.60154959901719
  0
LINE
  5
7783
330
7725
100
AcDbEntity
  8
圖層4尺寸線
100
AcDbLine
 10
71.0
 20
30.0
 30
0.0
 11
77.0
 21
30.0
 31
0.0
  0
LWPOLYLINE
  5
7784
330
7725
100
AcDbEntity
  8
圖層4尺寸線
100
AcDbPolyline
 90
        4
 70
     1
 43
0.0
 10
62.0
 20
71.0
 10
68.0
 20
71.0
 10
68.0
 20
77.0
 10
62.0
 20
77.0
  0
CIRCLE
  5
7785
330
7725
100
AcDbEntity
  8
圖層4尺寸線
100
AcDbCircle
 10
96.0
 20
189.0
 30
0.0
 40
4.0
  0
LINE
  5
7786
330
7725
100
AcDbEntity
  8
圖層4尺寸線
100
AcDbLine
 10
71.0
 20
146.0000000000001
 30
0.0
 11
71.0
 21
158.0
 31
0.0
  0
LINE
  5
7787
330
7725
100
AcDbEntity
  8
圖層4尺寸線
100
AcDbLine
 10
77.0
 20
137.0
 30
0.0
 11
77.0
 21
162.0
 31
0.0
  0
LINE
  5
7788
330
7725
100
AcDbEntity
  8
圖層4尺寸線
100
AcDbLine
 10
65.03081440898085
 20
140.2157565228376
 30
0.0
 11
73.32431469877338
 21
140.2157565228376
 31
0.0
  0
LINE
  5
7789
330
7725
100
AcDbEntity
  8
圖層4尺寸線
100
AcDbLine
 10
65.03081440898085
 20
142.2157565228376
 30
0.0
 11
73.32431469877338
 21
142.2157565228376
 31
0.0
  0
LINE
  5
778A
330
7725
100
AcDbEntity
  8
圖層4尺寸線
100
AcDbLine
 10
75.40597750673305
 20
138.0
 30
0.0
 11
62.74449253423313
 21
138.0
 31
0.0
  0
LINE
  5
778B
330
7725
100
AcDbEntity
  8
圖層4尺寸線
100
AcDbLine
 10
62.74449253423313
 20
144.4315130456752
 30
0.0
 11
75.40597750673282
 21
144.4315130456752
 31
0.0
  0
LINE
  5
778C
330
7725
100
AcDbEntity
  8
圖層4尺寸線
100
AcDbLine
 10
66.18109635677479
 20
139.6915686868342
 30
0.0
 11
66.18109635677479
 21
138.6915686868342
 31
0.0
  0
ARC
  5
778D
330
7725
100
AcDbEntity
  8
圖層4尺寸線
100
AcDbCircle
 10
66.18109635677479
 20
141.2157565228376
 30
0.0
 40
1.52418783600342
100
AcDbArc
 50
90.0
 51
270.0
  0
ARC
  5
778E
330
7725
100
AcDbEntity
  8
圖層4尺寸線
100
AcDbCircle
 10
66.18109635677479
 20
141.2157565228376
 30
0.0
 40
2.52418783600342
100
AcDbArc
 50
90.0
 51
270.0
  0
LINE
  5
778F
330
7725
100
AcDbEntity
  8
圖層4尺寸線
100
AcDbLine
 10
66.18109635677479
 20
143.739944358841
 30
0.0
 11
66.18109635677479
 21
142.739944358841
 31
0.0
  0
LINE
  5
7790
330
7725
100
AcDbEntity
  8
圖層4尺寸線
100
AcDbLine
 10
62.74449253423336
 20
138.0
 30
0.0
 11
62.74449253423313
 21
144.4315130456752
 31
0.0
  0
LINE
  5
7791
330
7725
100
AcDbEntity
  8
圖層4尺寸線
100
AcDbLine
 10
72.17403275097945
 20
139.6915686868342
 30
0.0
 11
72.17403275097945
 21
138.6915686868342
 31
0.0
  0
ARC
  5
7792
330
7725
100
AcDbEntity
  8
圖層4尺寸線
100
AcDbCircle
 10
72.17403275097945
 20
141.2157565228376
 30
0.0
 40
1.52418783600342
100
AcDbArc
 50
270.0
 51
90.0
  0
ARC
  5
7793
330
7725
100
AcDbEntity
  8
圖層4尺寸線
100
AcDbCircle
 10
72.17403275097945
 20
141.2157565228376
 30
0.0
 40
2.52418783600342
100
AcDbArc
 50
270.0
 51
90.0
  0
LINE
  5
7794
330
7725
100
AcDbEntity
  8
圖層4尺寸線
100
AcDbLine
 10
72.17403275097945
 20
143.739944358841
 30
0.0
 11
72.17403275097945
 21
142.739944358841
 31
0.0
  0
LINE
  5
7795
330
7725
100
AcDbEntity
  8
圖層4尺寸線
100
AcDbLine
 10
75.40597750673282
 20
144.4315130456752
 30
0.0
 11
75.40597750673305
 21
138.0
 31
0.0
  0
LINE
  5
7796
330
7725
100
AcDbEntity
  8
圖層4尺寸線
100
AcDbLine
 10
52.0
 20
179.0
 30
0.0
 11
52.0
 21
185.0
 31
0.0
  0
LINE
  5
7797
330
7725
100
AcDbEntity
  8
圖層4尺寸線
100
AcDbLine
 10
49.0
 20
182.0
 30
0.0
 11
55.0
 21
182.0
 31
0.0
  0
CIRCLE
  5
7798
330
7725
100
AcDbEntity
  8
圖層4尺寸線
100
AcDbCircle
 10
52.0
 20
182.0
 30
0.0
 40
3.0
  0
LINE
  5
7799
330
7725
100
AcDbEntity
  8
圖層4尺寸線
100
AcDbLine
 10
97.0
 20
188.0
 30
0.0
 11
99.3541019662498
 21
188.0
 31
0.0
  0
LINE
  5
779A
330
7725
100
AcDbEntity
  8
圖層4尺寸線
100
AcDbLine
 10
97.0
 20
190.0
 30
0.0
 11
99.3541019662498
 21
190.0
 31
0.0
  0
LINE
  5
779B
330
7725
100
AcDbEntity
  8
圖層4尺寸線
100
AcDbLine
 10
95.0
 20
188.0
 30
0.0
 11
95.0
 21
187.2679491924311
 31
0.0
  0
LINE
  5
779C
330
7725
100
AcDbEntity
  8
圖層4尺寸線
100
AcDbLine
 10
95.0
 20
190.7320508075688
 30
0.0
 11
95.0
 21
190.0
 31
0.0
  0
LINE
  5
779D
330
7725
100
AcDbEntity
  8
圖層4尺寸線
100
AcDbLine
 10
92.6458980337502
 20
190.0
 30
0.0
 11
95.0
 21
190.0
 31
0.0
  0
LINE
  5
779E
330
7725
100
AcDbEntity
  8
圖層4尺寸線
100
AcDbLine
 10
92.6458980337502
 20
188.0
 30
0.0
 11
95.0
 21
188.0
 31
0.0
  0
ARC
  5
779F
330
7725
100
AcDbEntity
  8
圖層4尺寸線
100
AcDbCircle
 10
96.0
 20
189.0
 30
0.0
 40
3.5
100
AcDbArc
 50
163.3984504009766
 51
196.6015495990234
  0
LINE
  5
77A0
330
7725
100
AcDbEntity
  8
圖層4尺寸線
100
AcDbLine
 10
97.0
 20
188.0
 30
0.0
 11
97.0
 21
187.2679491924311
 31
0.0
  0
LINE
  5
77A1
330
7725
100
AcDbEntity
  8
圖層4尺寸線
100
AcDbLine
 10
97.0
 20
190.7320508075688
 30
0.0
 11
97.0
 21
190.0
 31
0.0
  0
ARC
  5
77A2
330
7725
100
AcDbEntity
  8
圖層4尺寸線
100
AcDbCircle
 10
96.0
 20
189.0
 30
0.0
 40
2.0
100
AcDbArc
 50
59.99999999999946
 51
120.0000000000005
  0
ARC
  5
77A3
330
7725
100
AcDbEntity
  8
圖層4尺寸線
100
AcDbCircle
 10
96.0
 20
189.0
 30
0.0
 40
2.0
100
AcDbArc
 50
239.9999999999995
 51
300.0000000000005
  0
ARC
  5
77A4
330
7725
100
AcDbEntity
  8
圖層4尺寸線
100
AcDbCircle
 10
96.0
 20
189.0
 30
0.0
 40
3.5
100
AcDbArc
 50
343.3984504009828
 51
16.60154959902343
  0
ENDBLK
  5
77A6
330
7725
100
AcDbEntity
  8
0
100
AcDbBlockEnd
  0
BLOCK
  5
7890
330
788B
100
AcDbEntity
  8
0
100
AcDbBlockBegin
  2
*S28
 70
     1
 10
0.0
 20
0.0
 30
0.0
  3
*S28
  1

  0
LINE
  5
788C
330
788B
100
AcDbEntity
  8
AM_5
 62
     5
100
AcDbLine
 10
7722.696426690823
 20
1658.697737745611
 30
0.0
 11
7647.657235477393
 21
1658.697737745611
 31
0.0
  0
LINE
  5
788D
330
788B
100
AcDbEntity
  8
AM_5
 62
     5
100
AcDbLine
 10
7647.657235477393
 20
1658.697737745611
 30
0.0
 11
7612.138842775166
 21
1701.515122588084
 31
0.0
  0
TRACE
  5
788E
330
788B
100
AcDbEntity
  8
AM_5
 62
     5
370
    35
100
AcDbTrace
 10
7614.26671869145
 20
1703.280263843072
 30
0.0
 11
7610.010966858884
 21
1699.749981333096
 31
0.0
 12
7598.731263768233
 22
1717.677944902669
 32
0.0
 13
7598.731263768233
 23
1717.677944902669
 33
0.0
  0
MTEXT
  5
788F
330
788B
100
AcDbEntity
  8
AM_5
 62
     2
100
AcDbMText
 10
7722.696426690823
 20
1654.052772741275
 30
0.0
 40
21.0
 41
0.0
 71
     7
 72
     5
  1

  7
ACISOTS
 73
     1
 44
1.0
1001
ACAD
1000
MTEXTBEGIN
1070
    73
1070
     1
1070
    44
1040
1.0
1070
    74
1070
     0
1000
MTEXTEND
  0
ENDBLK
  5
7891
330
788B
100
AcDbEntity
  8
0
100
AcDbBlockEnd
  0
BLOCK
  5
7898
330
7893
100
AcDbEntity
  8
0
100
AcDbBlockBegin
  2
*S29
 70
     1
 10
0.0
 20
0.0
 30
0.0
  3
*S29
  1

  0
LINE
  5
7894
330
7893
100
AcDbEntity
  8
AM_5
 62
     5
100
AcDbLine
 10
7657.676570121584
 20
2869.817495165884
 30
0.0
 11
7582.637378908156
 21
2869.817495165884
 31
0.0
  0
LINE
  5
7895
330
7893
100
AcDbEntity
  8
AM_5
 62
     5
100
AcDbLine
 10
7582.637378908156
 20
2869.817495165884
 30
0.0
 11
7561.280185142194
 21
2848.358500133909
 31
0.0
  0
TRACE
  5
7896
330
7893
100
AcDbEntity
  8
AM_5
 62
     5
370
    35
100
AcDbTrace
 10
7559.320602706674
 20
2850.308786329204
 30
0.0
 11
7563.239767577712
 21
2846.408213938614
 31
0.0
 12
7546.466290687196
 22
2833.473993723679
 32
0.0
 13
7546.466290687196
 23
2833.473993723679
 33
0.0
  0
MTEXT
  5
7897
330
7893
100
AcDbEntity
  8
AM_5
 62
     2
100
AcDbMText
 10
7657.676570121584
 20
2865.172530161547
 30
0.0
 40
21.0
 41
0.0
 71
     7
 72
     5
  1

  7
ACISOTS
 73
     1
 44
1.0
1001
ACAD
1000
MTEXTBEGIN
1070
    73
1070
     1
1070
    44
1040
1.0
1070
    74
1070
     0
1000
MTEXTEND
  0
ENDBLK
  5
7899
330
7893
100
AcDbEntity
  8
0
100
AcDbBlockEnd
  0
ENDSEC
  0
SECTION
  2
ENTITIES
  0
LINE
  5
465E
330
1F
100
AcDbEntity
  8
圖層1輪廓線
100
AcDbLine
 10
7363.731263768234
 20
1717.677944902668
 30
0.0
 11
7363.731263768234
 21
1812.677944902668
 31
0.0
  0
LINE
  5
465F
330
1F
100
AcDbEntity
  8
圖層1輪廓線
100
AcDbLine
 10
7613.731263768234
 20
1812.677944902668
 30
0.0
 11
7613.731263768234
 21
1717.677944902668
 31
0.0
  0
LINE
  5
4660
330
1F
100
AcDbEntity
  8
圖層1輪廓線
100
AcDbLine
 10
7613.731263768234
 20
1732.677944902668
 30
0.0
 11
7363.731263768234
 21
1732.677944902668
 31
0.0
  0
LINE
  5
4661
330
1F
100
AcDbEntity
  8
圖層1輪廓線
100
AcDbLine
 10
7613.731263768234
 20
1717.677944902668
 30
0.0
 11
7363.731263768234
 21
1717.677944902668
 31
0.0
  0
LINE
  5
4662
330
1F
100
AcDbEntity
  8
圖層2中心線
 62
     1
 48
0.2
100
AcDbLine
 10
7378.731263768234
 20
1708.501698481497
 30
0.0
 11
7378.731263768234
 21
1745.778461109355
 31
0.0
  0
LINE
  5
4663
330
1F
100
AcDbEntity
  8
圖層3虛線
100
AcDbLine
 10
7384.731263768234
 20
1717.677944902669
 30
0.0
 11
7384.731263768234
 21
1732.677944902668
 31
0.0
  0
LINE
  5
4664
330
1F
100
AcDbEntity
  8
圖層3虛線
100
AcDbLine
 10
7372.731263768233
 20
1717.677944902668
 30
0.0
 11
7372.731263768233
 21
1732.677944902668
 31
0.0
  0
LINE
  5
4665
330
1F
100
AcDbEntity
  8
圖層2中心線
 62
     1
 48
0.2
100
AcDbLine
 10
7598.731263768232
 20
1744.959609590294
 30
0.0
 11
7598.731263768233
 21
1706.863995443376
 31
0.0
  0
LINE
  5
4666
330
1F
100
AcDbEntity
  8
圖層3虛線
100
AcDbLine
 10
7592.731263768233
 20
1732.677944902668
 30
0.0
 11
7592.731263768233
 21
1717.677944902668
 31
0.0
  0
LINE
  5
4667
330
1F
100
AcDbEntity
  8
圖層3虛線
100
AcDbLine
 10
7604.731263768233
 20
1732.677944902668
 30
0.0
 11
7604.731263768234
 21
1717.677944902669
 31
0.0
  0
LINE
  5
4668
330
1F
100
AcDbEntity
  8
圖層1輪廓線
100
AcDbLine
 10
7368.731263768234
 20
1817.677944902668
 30
0.0
 11
7608.731263768233
 21
1817.677944902668
 31
0.0
  0
ARC
  5
4669
330
1F
100
AcDbEntity
  8
圖層1輪廓線
100
AcDbCircle
 10
7368.731263768234
 20
1812.677944902668
 30
0.0
 40
5.0
100
AcDbArc
 50
90.0
 51
180.0
  0
ARC
  5
466A
330
1F
100
AcDbEntity
  8
圖層1輪廓線
100
AcDbCircle
 10
7608.731263768233
 20
1812.677944902668
 30
0.0
 40
5.0
100
AcDbArc
 50
0.0
 51
90.0
  0
LINE
  5
466B
330
1F
100
AcDbEntity
  8
圖層1輪廓線
  6
Continuous
 62
     7
370
    50
100
AcDbLine
 10
8123.831059155456
 20
1817.677944902668
 30
0.0
 11
8011.331059155457
 21
1817.677944902668
 31
0.0
  0
LINE
  5
466C
330
1F
100
AcDbEntity
  8
圖層1輪廓線
  6
Continuous
 62
     7
370
    50
100
AcDbLine
 10
7971.331059155456
 20
1717.677944902668
 30
0.0
 11
8451.331059155457
 21
1717.677944902668
 31
0.0
  0
LINE
  5
466D
330
1F
100
AcDbEntity
  8
圖層1輪廓線
  6
Continuous
 62
     7
370
    50
100
AcDbLine
 10
8006.331059155456
 20
1812.677944902668
 30
0.0
 11
8006.331059155456
 21
1737.677944902668
 31
0.0
  0
LINE
  5
466E
330
1F
100
AcDbEntity
  8
圖層1輪廓線
  6
Continuous
 62
     7
370
    50
100
AcDbLine
 10
7976.331059155457
 20
1732.677944902668
 30
0.0
 11
8001.331059155457
 21
1732.677944902668
 31
0.0
  0
LINE
  5
466F
330
1F
100
AcDbEntity
  8
圖層3虛線
100
AcDbLine
 10
7980.331059155457
 20
1732.677944902669
 30
0.0
 11
7980.331059155457
 21
1717.677944902668
 31
0.0
  0
LINE
  5
4670
330
1F
100
AcDbEntity
  8
圖層1輪廓線
  6
Continuous
 62
     7
370
    50
100
AcDbLine
 10
7971.331059155456
 20
1727.677944902669
 30
0.0
 11
7971.331059155456
 21
1717.677944902668
 31
0.0
  0
LINE
  5
4671
330
1F
100
AcDbEntity
  8
圖層2中心線
 62
     1
 48
0.2
100
AcDbLine
 10
7986.331059155457
 20
1756.098356085701
 30
0.0
 11
7986.331059155457
 21
1706.193553745385
 31
0.0
  0
ARC
  5
4672
330
1F
100
AcDbEntity
  8
圖層1輪廓線
  6
Continuous
 62
     7
370
    50
100
AcDbCircle
 10
7976.331059155457
 20
1727.677944902669
 30
0.0
 40
5.0
100
AcDbArc
 50
90.0
 51
180.0
  0
LINE
  5
4673
330
1F
100
AcDbEntity
  8
圖層3虛線
100
AcDbLine
 10
7992.331059155457
 20
1732.677944902668
 30
0.0
 11
7992.331059155457
 21
1717.677944902668
 31
0.0
  0
ARC
  5
4674
330
1F
100
AcDbEntity
  8
圖層1輪廓線
  6
Continuous
 62
     7
370
    50
100
AcDbCircle
 10
8001.331059155457
 20
1737.677944902668
 30
0.0
 40
5.0
100
AcDbArc
 50
270.0
 51
0.0
  0
ARC
  5
4675
330
1F
100
AcDbEntity
  8
圖層1輪廓線
  6
Continuous
 62
     7
370
    50
100
AcDbCircle
 10
8011.331059155457
 20
1812.677944902668
 30
0.0
 40
5.0
100
AcDbArc
 50
90.0
 51
180.0
  0
LINE
  5
4676
330
1F
100
AcDbEntity
  8
圖層1輪廓線
  6
Continuous
 62
     7
370
    50
100
AcDbLine
 10
8451.331059155457
 20
1817.677944902668
 30
0.0
 11
8291.331059155456
 21
1817.677944902668
 31
0.0
  0
LINE
  5
4677
330
1F
100
AcDbEntity
  8
圖層2中心線
  6
CENTER2
 48
0.5
370
    18
100
AcDbLine
 10
8361.331059155457
 20
2255.885460196541
 30
0.0
 11
8361.331059155457
 21
1684.206156651141
 31
0.0
  0
LINE
  5
4678
330
1F
100
AcDbEntity
  8
圖層1輪廓線
  6
Continuous
 62
     7
370
    50
100
AcDbLine
 10
8256.331059155456
 20
1812.677944902668
 30
0.0
 11
8256.331059155456
 21
1737.677944902668
 31
0.0
  0
LINE
  5
4679
330
1F
100
AcDbEntity
  8
圖層2中心線
  6
CENTER2
 48
0.5
370
    18
100
AcDbLine
 10
8131.331059155456
 20
1836.977081622282
 30
0.0
 11
8131.331059155456
 21
1709.788166062516
 31
0.0
  0
ARC
  5
467A
330
1F
100
AcDbEntity
  8
圖層1輪廓線
  6
Continuous
 62
     7
370
    50
100
AcDbCircle
 10
8286.331059155456
 20
1727.677944902669
 30
0.0
 40
5.0
100
AcDbArc
 50
0.0
 51
90.0
  0
LINE
  5
467B
330
1F
100
AcDbEntity
  8
圖層3虛線
100
AcDbLine
 10
8282.331059155456
 20
1732.677944902668
 30
0.0
 11
8282.331059155456
 21
1717.677944902668
 31
0.0
  0
LINE
  5
467C
330
1F
100
AcDbEntity
  8
圖層3虛線
100
AcDbLine
 10
8270.331059155457
 20
1732.677944902668
 30
0.0
 11
8270.331059155457
 21
1717.677944902668
 31
0.0
  0
LINE
  5
467D
330
1F
100
AcDbEntity
  8
圖層2中心線
 62
     1
 48
0.2
100
AcDbLine
 10
8276.331059155458
 20
1749.335917542724
 30
0.0
 11
8276.331059155458
 21
1704.41567440982
 31
0.0
  0
LINE
  5
467E
330
1F
100
AcDbEntity
  8
圖層1輪廓線
  6
Continuous
 62
     7
370
    50
100
AcDbLine
 10
8261.331059155457
 20
1732.677944902668
 30
0.0
 11
8286.331059155456
 21
1732.677944902668
 31
0.0
  0
ARC
  5
467F
330
1F
100
AcDbEntity
  8
圖層1輪廓線
  6
Continuous
 62
     7
370
    50
100
AcDbCircle
 10
8261.331059155457
 20
1737.677944902668
 30
0.0
 40
5.0
100
AcDbArc
 50
180.0
 51
270.0
  0
LINE
  5
4680
330
1F
100
AcDbEntity
  8
圖層1輪廓線
  6
Continuous
 62
     7
370
    50
100
AcDbLine
 10
8291.331059155456
 20
1727.677944902669
 30
0.0
 11
8291.331059155456
 21
1717.677944902668
 31
0.0
  0
LINE
  5
4681
330
1F
100
AcDbEntity
  8
圖層1輪廓線
  6
Continuous
 62
     7
370
    50
100
AcDbLine
 10
8251.331059155457
 20
1817.677944902668
 30
0.0
 11
8138.831059155457
 21
1817.677944902668
 31
0.0
  0
LINE
  5
4682
330
1F
100
AcDbEntity
  8
圖層1輪廓線
  6
Continuous
 62
     7
370
    50
100
AcDbLine
 10
8138.831059155457
 20
1806.677944902668
 30
0.0
 11
8143.831059155457
 21
1806.677944902668
 31
0.0
  0
LINE
  5
4683
330
1F
100
AcDbEntity
  8
圖層1輪廓線
  6
Continuous
 62
     7
370
    50
100
AcDbLine
 10
8143.831059155457
 20
1796.677944902668
 30
0.0
 11
8118.831059155457
 21
1796.677944902668
 31
0.0
  0
LINE
  5
4684
330
1F
100
AcDbEntity
  8
圖層1輪廓線
  6
Continuous
 62
     7
370
    50
100
AcDbLine
 10
8118.831059155457
 20
1806.677944902668
 30
0.0
 11
8123.831059155456
 21
1806.677944902668
 31
0.0
  0
LINE
  5
4685
330
1F
100
AcDbEntity
  8
圖層1輪廓線
  6
Continuous
 62
     7
370
    50
100
AcDbLine
 10
8118.831059155457
 20
1796.677944902668
 30
0.0
 11
8118.831059155457
 21
1806.677944902668
 31
0.0
  0
LINE
  5
4686
330
1F
100
AcDbEntity
  8
圖層1輪廓線
  6
Continuous
 62
     7
370
    50
100
AcDbLine
 10
8138.831059155457
 20
1817.677944902668
 30
0.0
 11
8138.831059155457
 21
1806.677944902668
 31
0.0
  0
LINE
  5
4687
330
1F
100
AcDbEntity
  8
圖層1輪廓線
  6
Continuous
 62
     7
370
    50
100
AcDbLine
 10
8123.831059155456
 20
1806.677944902668
 30
0.0
 11
8123.831059155456
 21
1817.677944902668
 31
0.0
  0
LINE
  5
4688
330
1F
100
AcDbEntity
  8
圖層1輪廓線
  6
Continuous
 62
     7
370
    50
100
AcDbLine
 10
8143.831059155457
 20
1806.677944902668
 30
0.0
 11
8143.831059155457
 21
1796.677944902668
 31
0.0
  0
LINE
  5
4689
330
1F
100
AcDbEntity
  8
圖層1輪廓線
  6
Continuous
 62
     7
370
    50
100
AcDbLine
 10
8291.331059155456
 20
1811.677944902669
 30
0.0
 11
8256.331059155456
 21
1811.677944902669
 31
0.0
  0
ARC
  5
468A
330
1F
100
AcDbEntity
  8
圖層1輪廓線
  6
Continuous
 62
     7
370
    50
100
AcDbCircle
 10
8251.331059155457
 20
1812.677944902668
 30
0.0
 40
5.0
100
AcDbArc
 50
0.0
 51
90.0
  0
LINE
  5
468B
330
1F
100
AcDbEntity
  8
圖層1輪廓線
  6
Continuous
 62
     7
370
    50
100
AcDbLine
 10
8340.710692975042
 20
1817.677944902668
 30
0.0
 11
8291.331059155456
 21
1811.677944902669
 31
0.0
  0
LINE
  5
468C
330
1F
100
AcDbEntity
  8
圖層1輪廓線
  6
Continuous
 62
     7
370
    50
100
AcDbLine
 10
8291.331059155456
 20
1817.677944902668
 30
0.0
 11
8291.331059155456
 21
1811.677944902669
 31
0.0
  0
LINE
  5
468D
330
1F
100
AcDbEntity
  8
圖層1輪廓線
  6
Continuous
 62
     7
370
    50
100
AcDbLine
 10
8427.947498567963
 20
1817.677944902668
 30
0.0
 11
8427.947498567963
 21
1717.677944902668
 31
0.0
  0
LINE
  5
468E
330
1F
100
AcDbEntity
  8
圖層1輪廓線
  6
Continuous
 62
     7
370
    50
100
AcDbLine
 10
8451.331059155457
 20
1717.677944902668
 30
0.0
 11
8451.331059155457
 21
1817.677944902668
 31
0.0
  0
CIRCLE
  5
468F
330
1F
100
AcDbEntity
  8
圖層1輪廓線
100
AcDbCircle
 10
8439.331059155456
 20
1732.677944902668
 30
0.0
 40
5.0
  0
CIRCLE
  5
4690
330
1F
100
AcDbEntity
  8
圖層1輪廓線
100
AcDbCircle
 10
8439.331059155456
 20
1732.677944902668
 30
0.0
 40
7.0
  0
CIRCLE
  5
4691
330
1F
100
AcDbEntity
  8
圖層1輪廓線
100
AcDbCircle
 10
8439.331059155456
 20
1802.677944902669
 30
0.0
 40
5.0
  0
CIRCLE
  5
4692
330
1F
100
AcDbEntity
  8
圖層1輪廓線
100
AcDbCircle
 10
8439.331059155456
 20
1802.677944902669
 30
0.0
 40
7.0
  0
LINE
  5
4693
330
1F
100
AcDbEntity
  8
圖層1輪廓線
100
AcDbLine
 10
8434.331059155457
 20
1729.79119355672
 30
0.0
 11
8439.331059155456
 21
1726.904442210772
 31
0.0
  0
LINE
  5
4694
330
1F
100
AcDbEntity
  8
圖層1輪廓線
100
AcDbLine
 10
8439.331059155456
 20
1726.904442210772
 30
0.0
 11
8444.331059155457
 21
1729.79119355672
 31
0.0
  0
LINE
  5
4695
330
1F
100
AcDbEntity
  8
圖層1輪廓線
100
AcDbLine
 10
8444.331059155457
 20
1729.79119355672
 30
0.0
 11
8444.331059155457
 21
1735.564696248616
 31
0.0
  0
LINE
  5
4696
330
1F
100
AcDbEntity
  8
圖層1輪廓線
100
AcDbLine
 10
8444.331059155457
 20
1735.564696248616
 30
0.0
 11
8439.331059155456
 21
1738.451447594564
 31
0.0
  0
LINE
  5
4697
330
1F
100
AcDbEntity
  8
圖層1輪廓線
100
AcDbLine
 10
8439.331059155456
 20
1738.451447594564
 30
0.0
 11
8434.331059155457
 21
1735.564696248616
 31
0.0
  0
LINE
  5
4698
330
1F
100
AcDbEntity
  8
圖層1輪廓線
100
AcDbLine
 10
8434.331059155457
 20
1735.564696248616
 30
0.0
 11
8434.331059155457
 21
1729.79119355672
 31
0.0
  0
LINE
  5
4699
330
1F
100
AcDbEntity
  8
圖層1輪廓線
100
AcDbLine
 10
8434.331059155457
 20
1799.79119355672
 30
0.0
 11
8439.331059155456
 21
1796.904442210772
 31
0.0
  0
LINE
  5
469A
330
1F
100
AcDbEntity
  8
圖層1輪廓線
100
AcDbLine
 10
8439.331059155456
 20
1796.904442210772
 30
0.0
 11
8444.331059155457
 21
1799.79119355672
 31
0.0
  0
LINE
  5
469B
330
1F
100
AcDbEntity
  8
圖層1輪廓線
100
AcDbLine
 10
8444.331059155457
 20
1799.79119355672
 30
0.0
 11
8444.331059155457
 21
1805.564696248617
 31
0.0
  0
LINE
  5
469C
330
1F
100
AcDbEntity
  8
圖層1輪廓線
100
AcDbLine
 10
8444.331059155457
 20
1805.564696248617
 30
0.0
 11
8439.331059155456
 21
1808.451447594565
 31
0.0
  0
LINE
  5
469D
330
1F
100
AcDbEntity
  8
圖層1輪廓線
100
AcDbLine
 10
8439.331059155456
 20
1808.451447594565
 30
0.0
 11
8434.331059155457
 21
1805.564696248617
 31
0.0
  0
LINE
  5
469E
330
1F
100
AcDbEntity
  8
圖層1輪廓線
100
AcDbLine
 10
8434.331059155457
 20
1805.564696248617
 30
0.0
 11
8434.331059155457
 21
1799.79119355672
 31
0.0
  0
LINE
  5
469F
330
1F
100
AcDbEntity
  8
圖層1輪廓線
100
AcDbLine
 10
8411.331059155456
 20
1817.677944902668
 30
0.0
 11
8411.331059155456
 21
2066.070414545765
 31
0.0
  0
LINE
  5
46A0
330
1F
100
AcDbEntity
  8
圖層1輪廓線
100
AcDbLine
 10
8311.331059155456
 20
2215.677944902669
 30
0.0
 11
8311.331059155456
 21
2166.070414545765
 31
0.0
  0
LINE
  5
46A1
330
1F
100
AcDbEntity
  8
圖層1輪廓線
100
AcDbLine
 10
8313.331059155457
 20
1717.677944902668
 30
0.0
 11
8409.331059155457
 21
1717.677944902668
 31
0.0
  0
LINE
  5
46A2
330
1F
100
AcDbEntity
  8
圖層1輪廓線
100
AcDbLine
 10
8409.331059155457
 20
2217.677944902669
 30
0.0
 11
8313.331059155457
 21
2217.677944902669
 31
0.0
  0
LINE
  5
46A3
330
1F
100
AcDbEntity
  8
圖層1輪廓線
100
AcDbLine
 10
8411.331059155456
 20
2215.677944902669
 30
0.0
 11
8311.331059155456
 21
2215.677944902669
 31
0.0
  0
LINE
  5
46A4
330
1F
100
AcDbEntity
  8
圖層1輪廓線
100
AcDbLine
 10
8311.331059155456
 20
2215.677944902669
 30
0.0
 11
8313.331059155457
 21
2217.677944902669
 31
0.0
  0
LINE
  5
46A5
330
1F
100
AcDbEntity
  8
圖層1輪廓線
100
AcDbLine
 10
8409.331059155457
 20
2217.677944902669
 30
0.0
 11
8411.331059155456
 21
2215.677944902669
 31
0.0
  0
LINE
  5
46A6
330
1F
100
AcDbEntity
  8
圖層1輪廓線
100
AcDbLine
 10
7538.731263768234
 20
1817.677944902668
 30
0.0
 11
7538.731263768234
 21
2066.070414545765
 31
0.0
  0
LINE
  5
46A7
330
1F
100
AcDbEntity
  8
圖層1輪廓線
100
AcDbLine
 10
7440.731263768234
 20
1717.677944902668
 30
0.0
 11
7536.731263768233
 21
1717.677944902668
 31
0.0
  0
LINE
  5
46A8
330
1F
100
AcDbEntity
  8
圖層1輪廓線
100
AcDbLine
 10
7583.731263768233
 20
2166.070414545765
 30
0.0
 11
7583.731263768233
 21
2066.070414545765
 31
0.0
  0
LINE
  5
46A9
330
1F
100
AcDbEntity
  8
圖層1輪廓線
100
AcDbLine
 10
7393.731263768232
 20
2066.070414545765
 30
0.0
 11
7393.731263768232
 21
2166.070414545765
 31
0.0
  0
LINE
  5
46AA
330
1F
100
AcDbEntity
  8
圖層1輪廓線
100
AcDbLine
 10
7583.731263768233
 20
2066.070414545765
 30
0.0
 11
7538.731263768234
 21
2066.070414545765
 31
0.0
  0
LINE
  5
46AB
330
1F
100
AcDbEntity
  8
圖層1輪廓線
100
AcDbLine
 10
7413.731263768233
 20
2066.070414545765
 30
0.0
 11
7413.731263768233
 21
2086.070414545765
 31
0.0
  0
LINE
  5
46AC
330
1F
100
AcDbEntity
  8
圖層1輪廓線
100
AcDbLine
 10
7563.731263768232
 20
2086.070414545765
 30
0.0
 11
7563.731263768232
 21
2066.070414545765
 31
0.0
  0
LINE
  5
46AD
330
1F
100
AcDbEntity
  8
圖層1輪廓線
100
AcDbLine
 10
7393.731263768232
 20
2166.070414545765
 30
0.0
 11
7583.731263768233
 21
2166.070414545765
 31
0.0
  0
LINE
  5
46AE
330
1F
100
AcDbEntity
  8
圖層1輪廓線
  6
Continuous
370
    50
100
AcDbLine
 10
8161.331059155456
 20
2066.070414545766
 30
0.0
 11
8451.331059155457
 21
2066.070414545765
 31
0.0
  0
LINE
  5
46AF
330
1F
100
AcDbEntity
  8
圖層1輪廓線
100
AcDbLine
 10
8451.331059155457
 20
2166.070414545765
 30
0.0
 11
8036.331059155456
 21
2166.070414545765
 31
0.0
  0
LINE
  5
46B0
102
{ACAD_REACTORS
330
7477
102
}
330
1F
100
AcDbEntity
  8
圖層1輪廓線
  6
Continuous
370
    50
100
AcDbLine
 10
8036.331059155456
 20
2166.070414545765
 30
0.0
 11
8036.331059155456
 21
2086.070414545766
 31
0.0
  0
LINE
  5
46B1
330
1F
100
AcDbEntity
  8
圖層1輪廓線
  6
Continuous
370
    50
100
AcDbLine
 10
8036.331059155456
 20
2086.070414545765
 30
0.0
 11
8131.331059155456
 21
2086.070414545766
 31
0.0
  0
LINE
  5
46B2
330
1F
100
AcDbEntity
  8
圖層1輪廓線
  6
Continuous
370
    50
100
AcDbLine
 10
8161.331059155456
 20
2066.070414545765
 30
0.0
 11
8131.331059155456
 21
2086.070414545765
 31
0.0
  0
LINE
  5
46B3
330
1F
100
AcDbEntity
  8
圖層1輪廓線
  6
Continuous
370
    50
100
AcDbLine
 10
8451.331059155457
 20
2066.070414545765
 30
0.0
 11
8451.331059155457
 21
2166.070414545765
 31
0.0
  0
LINE
  5
46B4
330
1F
100
AcDbEntity
  8
圖層1輪廓線
  6
Continuous
370
    50
100
AcDbLine
 10
8427.947498567963
 20
2166.070414545765
 30
0.0
 11
8427.947498567963
 21
2066.070414545765
 31
0.0
  0
LWPOLYLINE
  5
46B5
330
1F
100
AcDbEntity
  8
圖層1輪廓線
100
AcDbPolyline
 90
        6
 70
     1
 43
0.0
 10
8434.331059155457
 20
2078.183663199817
 10
8439.331059155456
 20
2075.296911853869
 10
8444.331059155457
 20
2078.183663199817
 10
8444.331059155457
 20
2083.957165891713
 10
8439.331059155456
 20
2086.843917237661
 10
8434.331059155457
 20
2083.957165891713
  0
CIRCLE
  5
46B6
330
1F
100
AcDbEntity
  8
圖層1輪廓線
100
AcDbCircle
 10
8439.331059155456
 20
2081.070414545765
 30
0.0
 40
7.0
  0
CIRCLE
  5
46B7
330
1F
100
AcDbEntity
  8
圖層1輪廓線
100
AcDbCircle
 10
8439.331059155456
 20
2081.070414545765
 30
0.0
 40
5.0
  0
CIRCLE
  5
46B8
330
1F
100
AcDbEntity
  8
圖層1輪廓線
100
AcDbCircle
 10
8439.331059155456
 20
2151.070414545765
 30
0.0
 40
7.0
  0
CIRCLE
  5
46B9
330
1F
100
AcDbEntity
  8
圖層1輪廓線
100
AcDbCircle
 10
8439.331059155456
 20
2116.070414545765
 30
0.0
 40
7.0
  0
LWPOLYLINE
  5
46BA
330
1F
100
AcDbEntity
  8
圖層1輪廓線
100
AcDbPolyline
 90
        6
 70
     1
 43
0.0
 10
8434.331059155457
 20
2113.183663199817
 10
8439.331059155456
 20
2110.296911853868
 10
8444.331059155457
 20
2113.183663199817
 10
8444.331059155457
 20
2118.957165891713
 10
8439.331059155456
 20
2121.843917237661
 10
8434.331059155457
 20
2118.957165891713
  0
CIRCLE
  5
46BB
330
1F
100
AcDbEntity
  8
圖層1輪廓線
100
AcDbCircle
 10
8439.331059155456
 20
2116.070414545765
 30
0.0
 40
5.0
  0
LWPOLYLINE
  5
46BC
330
1F
100
AcDbEntity
  8
圖層1輪廓線
100
AcDbPolyline
 90
        6
 70
     1
 43
0.0
 10
8434.331059155457
 20
2148.183663199817
 10
8439.331059155456
 20
2145.296911853868
 10
8444.331059155457
 20
2148.183663199817
 10
8444.331059155457
 20
2153.957165891713
 10
8439.331059155456
 20
2156.843917237661
 10
8434.331059155457
 20
2153.957165891713
  0
CIRCLE
  5
46BD
330
1F
100
AcDbEntity
  8
圖層1輪廓線
100
AcDbCircle
 10
8439.331059155456
 20
2151.070414545765
 30
0.0
 40
5.0
  0
LINE
  5
46BE
330
1F
100
AcDbEntity
  8
圖層1輪廓線
100
AcDbLine
 10
7438.731263768234
 20
2066.070414545765
 30
0.0
 11
7438.731263768234
 21
1817.677944902668
 31
0.0
  0
LINE
  5
46BF
330
1F
100
AcDbEntity
  8
圖層1輪廓線
100
AcDbLine
 10
8311.331059155456
 20
2066.070414545765
 30
0.0
 11
8311.331059155456
 21
1817.677944902668
 31
0.0
  0
LINE
  5
46C0
330
1F
100
AcDbEntity
  8
圖層1輪廓線
100
AcDbLine
 10
8411.331059155456
 20
2166.070414545765
 30
0.0
 11
8411.331059155456
 21
2215.677944902669
 31
0.0
  0
LINE
  5
46C1
330
1F
100
AcDbEntity
  8
圖層1輪廓線
100
AcDbLine
 10
7563.731263768232
 20
2166.070414545765
 30
0.0
 11
7413.731263768233
 21
2166.070414545765
 31
0.0
  0
LINE
  5
46C2
330
1F
100
AcDbEntity
  8
圖層1輪廓線
100
AcDbLine
 10
7413.731263768233
 20
2166.070414545765
 30
0.0
 11
7563.731263768232
 21
2166.070414545765
 31
0.0
  0
LINE
  5
46C3
330
1F
100
AcDbEntity
  8
圖層4尺寸線
100
AcDbLine
 10
7488.731263768233
 20
2185.070414545765
 30
0.0
 11
7488.731263768233
 21
2195.070414545765
 31
0.0
  0
LINE
  5
46C4
330
1F
100
AcDbEntity
  8
圖層1輪廓線
100
AcDbLine
 10
7488.731263768233
 20
2375.070414545765
 30
0.0
 11
7488.731263768233
 21
2365.070414545765
 31
0.0
  0
LINE
  5
46C5
330
1F
100
AcDbEntity
  8
圖層2中心線
 48
0.3
100
AcDbLine
 10
8131.331059155456
 20
2072.591363342552
 30
0.0
 11
8131.331059155458
 21
2086.070414545765
 31
0.0
  0
LINE
  5
46C6
330
1F
100
AcDbEntity
  8
圖層1輪廓線
100
AcDbLine
 10
8056.331059155457
 20
2166.070414545765
 30
0.0
 11
8206.331059155457
 21
2166.070414545765
 31
0.0
  0
LINE
  5
46C7
330
1F
100
AcDbEntity
  8
圖層1輪廓線
100
AcDbLine
 10
8206.331059155457
 20
2166.070414545765
 30
0.0
 11
8056.331059155457
 21
2166.070414545765
 31
0.0
  0
LINE
  5
46C8
330
1F
100
AcDbEntity
  8
圖層1輪廓線
100
AcDbLine
 10
8131.331059155458
 20
2567.070414545765
 30
0.0
 11
8131.331059155458
 21
2561.070414545765
 31
0.0
  0
LINE
  5
46C9
330
1F
100
AcDbEntity
  8
圖層1輪廓線
100
AcDbLine
 10
8156.331059155457
 20
2046.070414545765
 30
0.0
 11
8156.331059155455
 21
2069.403747879098
 31
0.0
  0
LINE
  5
46CA
330
1F
100
AcDbEntity
  8
圖層1輪廓線
  6
Continuous
370
    50
100
AcDbLine
 10
8106.331059155456
 20
2046.070414545765
 30
0.0
 11
8106.331059155456
 21
2086.070414545765
 31
0.0
  0
LINE
  5
46CB
330
1F
100
AcDbEntity
  8
圖層4尺寸線
100
AcDbLine
 10
8131.331059155456
 20
2050.070414545766
 30
0.0
 11
8131.331059155456
 21
2086.070414545765
 31
0.0
  0
LINE
  5
46CC
330
1F
100
AcDbEntity
  8
圖層1輪廓線
100
AcDbLine
 10
7503.165020497974
 20
2050.070414545765
 30
0.0
 11
7503.165020497974
 21
2086.070414545765
 31
0.0
  0
LINE
  5
46CD
330
1F
100
AcDbEntity
  8
圖層1輪廓線
100
AcDbLine
 10
7474.297507038492
 20
2050.070414545765
 30
0.0
 11
7474.297507038492
 21
2086.070414545765
 31
0.0
  0
LINE
  5
46CE
330
1F
100
AcDbEntity
  8
圖層1輪廓線
100
AcDbLine
 10
7517.598777227715
 20
2050.070414545765
 30
0.0
 11
7517.598777227715
 21
2086.070414545765
 31
0.0
  0
LINE
  5
46CF
330
1F
100
AcDbEntity
  8
圖層1輪廓線
100
AcDbLine
 10
7459.863750308752
 20
2050.070414545765
 30
0.0
 11
7459.863750308752
 21
2086.070414545765
 31
0.0
  0
ARC
  5
46D0
330
1F
100
AcDbEntity
  8
圖層1輪廓線
100
AcDbCircle
 10
8118.831059155457
 20
2078.61208121243
 30
0.0
 40
27.54166666666487
100
AcDbArc
 50
243.0085334384103
 51
296.9914665615897
  0
LINE
  5
46D1
330
1F
100
AcDbEntity
  8
圖層1輪廓線
100
AcDbLine
 10
8106.331059155456
 20
2051.070414545765
 30
0.0
 11
8156.331059155457
 21
2051.070414545765
 31
0.0
  0
LINE
  5
46D2
330
1F
100
AcDbEntity
  8
圖層1輪廓線
100
AcDbLine
 10
8106.331059155456
 20
2046.070414545765
 30
0.0
 11
8156.331059155457
 21
2046.070414545765
 31
0.0
  0
ARC
  5
46D3
330
1F
100
AcDbEntity
  8
圖層1輪廓線
100
AcDbCircle
 10
8143.831059155457
 20
2078.612081212432
 30
0.0
 40
27.54166666666719
100
AcDbArc
 50
243.0085334384103
 51
296.9914665615897
  0
ARC
  5
46D4
330
1F
100
AcDbEntity
  8
圖層1輪廓線
100
AcDbCircle
 10
7467.080628673622
 20
2057.250970101321
 30
0.0
 40
10.18055555555557
100
AcDbArc
 50
224.855450681714
 51
315.144549318286
  0
LINE
  5
46D5
330
1F
100
AcDbEntity
  8
圖層1輪廓線
100
AcDbLine
 10
7463.731263768234
 20
2042.070414545765
 30
0.0
 11
7513.731263768234
 21
2042.070414545765
 31
0.0
  0
LINE
  5
46D6
330
1F
100
AcDbEntity
  8
圖層1輪廓線
100
AcDbLine
 10
7467.080628673622
 20
2047.070414545765
 30
0.0
 11
7510.381898862845
 21
2047.070414545765
 31
0.0
  0
ARC
  5
46D7
330
1F
100
AcDbEntity
  8
圖層1輪廓線
100
AcDbCircle
 10
7488.731263768234
 20
2083.292636767986
 30
0.0
 40
36.22222222222079
100
AcDbArc
 50
246.5169380082317
 51
293.4830619917684
  0
LINE
  5
46D8
330
1F
100
AcDbEntity
  8
圖層1輪廓線
100
AcDbLine
 10
7463.731263768234
 20
2042.070414545765
 30
0.0
 11
7463.731263768234
 21
2047.637153681693
 31
0.0
  0
ARC
  5
46D9
330
1F
100
AcDbEntity
  8
圖層1輪廓線
100
AcDbCircle
 10
7510.381898862845
 20
2057.25097010132
 30
0.0
 40
10.18055555555541
100
AcDbArc
 50
224.855450681714
 51
315.144549318286
  0
LINE
  5
46DA
330
1F
100
AcDbEntity
  8
圖層1輪廓線
100
AcDbLine
 10
7513.731263768234
 20
2042.070414545765
 30
0.0
 11
7513.731263768234
 21
2047.637153681693
 31
0.0
  0
LINE
  5
46DB
330
1F
100
AcDbEntity
  8
圖層1輪廓線
100
AcDbLine
 10
8131.331059155456
 20
2556.070414545765
 30
0.0
 11
8131.331059155456
 21
2532.070414545766
 31
0.0
  0
LINE
  5
46DC
330
1F
100
AcDbEntity
  8
圖層1輪廓線
100
AcDbLine
 10
8265.331059155457
 20
2334.570414545765
 30
0.0
 11
8265.331059155457
 21
2173.070414545765
 31
0.0
  0
LINE
  5
46DD
330
1F
100
AcDbEntity
  8
圖層1輪廓線
100
AcDbLine
 10
8285.331059155456
 20
2334.570414545765
 30
0.0
 11
8280.331059155455
 21
2334.570414545765
 31
0.0
  0
LINE
  5
46DE
330
1F
100
AcDbEntity
  8
圖層1輪廓線
100
AcDbLine
 10
8283.831059155456
 20
2336.070414545765
 30
0.0
 11
8266.831059155457
 21
2336.070414545765
 31
0.0
  0
ARC
  5
46DF
330
1F
100
AcDbEntity
  8
圖層1輪廓線
100
AcDbCircle
 10
8275.331059155456
 20
2331.320414545765
 30
0.0
 40
7.250000000000031
100
AcDbArc
 50
226.3971810272874
 51
313.6028189727126
  0
LINE
  5
46E0
330
1F
100
AcDbEntity
  8
圖層1輪廓線
100
AcDbLine
 10
8266.831059155457
 20
2336.070414545765
 30
0.0
 11
8265.331059155457
 21
2334.570414545765
 31
0.0
  0
LINE
  5
46E1
330
1F
100
AcDbEntity
  8
圖層1輪廓線
100
AcDbLine
 10
8265.331059155457
 20
2334.570414545765
 30
0.0
 11
8270.331059155457
 21
2334.570414545765
 31
0.0
  0
LINE
  5
46E2
330
1F
100
AcDbEntity
  8
圖層1輪廓線
100
AcDbLine
 10
8280.331059155455
 20
2336.070414545765
 30
0.0
 11
8280.331059155455
 21
2326.070414545765
 31
0.0
  0
LINE
  5
46E3
330
1F
100
AcDbEntity
  8
圖層1輪廓線
100
AcDbLine
 10
8270.331059155457
 20
2336.070414545765
 30
0.0
 11
8270.331059155457
 21
2326.070414545765
 31
0.0
  0
LINE
  5
46E4
330
1F
100
AcDbEntity
  8
圖層1輪廓線
100
AcDbLine
 10
8280.331059155455
 20
2336.070414545765
 30
0.0
 11
8270.331059155457
 21
2326.070414545765
 31
0.0
  0
LINE
  5
46E5
330
1F
100
AcDbEntity
  8
圖層1輪廓線
100
AcDbLine
 10
8280.331059155455
 20
2326.070414545765
 30
0.0
 11
8270.331059155457
 21
2336.070414545765
 31
0.0
  0
LINE
  5
46E6
330
1F
100
AcDbEntity
  8
圖層1輪廓線
100
AcDbLine
 10
8280.331059155455
 20
2326.070414545765
 30
0.0
 11
8270.331059155457
 21
2326.070414545765
 31
0.0
  0
LINE
  5
46E7
330
1F
100
AcDbEntity
  8
圖層1輪廓線
100
AcDbLine
 10
8285.331059155456
 20
2334.570414545765
 30
0.0
 11
8283.831059155456
 21
2336.070414545765
 31
0.0
  0
LINE
  5
46E8
330
1F
100
AcDbEntity
  8
圖層1輪廓線
100
AcDbLine
 10
8361.331059155457
 20
2217.677944902669
 30
0.0
 11
8388.331059155456
 21
2217.677944902669
 31
0.0
  0
LINE
  5
46E9
330
1F
100
AcDbEntity
  8
圖層1輪廓線
100
AcDbLine
 10
8388.331059155456
 20
2217.677944902669
 30
0.0
 11
8388.331059155456
 21
2232.677944902669
 31
0.0
  0
LINE
  5
46EA
330
1F
100
AcDbEntity
  8
圖層1輪廓線
100
AcDbLine
 10
8388.331059155456
 20
2232.677944902669
 30
0.0
 11
8296.331059155455
 21
2232.677944902669
 31
0.0
  0
LINE
  5
46EB
330
1F
100
AcDbEntity
  8
圖層1輪廓線
100
AcDbLine
 10
8296.331059155455
 20
2232.677944902669
 30
0.0
 11
8285.331059155458
 21
2232.677944902669
 31
0.0
  0
LINE
  5
46EC
330
1F
100
AcDbEntity
  8
圖層1輪廓線
100
AcDbLine
 10
8285.331059155456
 20
2217.677944902669
 30
0.0
 11
8361.331059155457
 21
2217.677944902669
 31
0.0
  0
LINE
  5
46ED
330
1F
100
AcDbEntity
  8
圖層1輪廓線
100
AcDbLine
 10
8303.331059155457
 20
2217.677944902669
 30
0.0
 11
8303.331059155457
 21
2173.070414545765
 31
0.0
  0
LINE
  5
46EE
330
1F
100
AcDbEntity
  8
圖層4尺寸線
100
AcDbLine
 10
8289.081059155456
 20
2247.677944902669
 30
0.0
 11
8303.581059155456
 21
2247.677944902669
 31
0.0
  0
LINE
  5
46EF
330
1F
100
AcDbEntity
  8
圖層1輪廓線
100
AcDbLine
 10
8285.331059155458
 20
2247.677944902669
 30
0.0
 11
8314.331059155456
 21
2247.677944902669
 31
0.0
  0
LINE
  5
46F0
330
1F
100
AcDbEntity
  8
圖層1輪廓線
100
AcDbLine
 10
8314.331059155456
 20
2232.677944902669
 30
0.0
 11
8285.331059155458
 21
2232.677944902669
 31
0.0
  0
CIRCLE
  5
46F1
330
1F
100
AcDbEntity
  8
圖層3虛線
 48
0.5
100
AcDbCircle
 10
8296.131392352753
 20
2240.177944902669
 30
0.0
 40
4.0
  0
CIRCLE
  5
46F2
330
1F
100
AcDbEntity
  8
圖層4尺寸線
100
AcDbCircle
 10
8296.131392352753
 20
2240.177944902669
 30
0.0
 40
3.0
  0
LINE
  5
46F3
330
1F
100
AcDbEntity
  8
圖層1輪廓線
100
AcDbLine
 10
8314.331059155456
 20
2247.677944902669
 30
0.0
 11
8314.331059155456
 21
2232.677944902669
 31
0.0
  0
LINE
  5
46F4
330
1F
100
AcDbEntity
  8
圖層1輪廓線
100
AcDbLine
 10
8271.331059155455
 20
2166.070414545765
 30
0.0
 11
8321.331059155456
 21
2166.070414545765
 31
0.0
  0
LINE
  5
46F5
330
1F
100
AcDbEntity
  8
圖層1輪廓線
100
AcDbLine
 10
8271.331059155455
 20
2173.070414545765
 30
0.0
 11
8311.331059155456
 21
2173.070414545765
 31
0.0
  0
LINE
  5
46F6
330
1F
100
AcDbEntity
  8
圖層3虛線
 48
0.5
100
AcDbLine
 10
8311.331059155456
 20
2166.070414545765
 30
0.0
 11
8311.331059155456
 21
2173.070414545765
 31
0.0
  0
LINE
  5
46F7
330
1F
100
AcDbEntity
  8
圖層1輪廓線
100
AcDbLine
 10
8287.331059155457
 20
2217.677944902669
 30
0.0
 11
8296.331059155455
 21
2217.677944902669
 31
0.0
  0
LINE
  5
46F8
330
1F
100
AcDbEntity
  8
圖層1輪廓線
100
AcDbLine
 10
8296.331059155455
 20
2217.677944902669
 30
0.0
 11
8305.331059155456
 21
2217.677944902669
 31
0.0
  0
LINE
  5
46F9
330
1F
100
AcDbEntity
  8
圖層1輪廓線
100
AcDbLine
 10
8289.331059155456
 20
2217.677944902669
 30
0.0
 11
8303.331059155457
 21
2217.677944902669
 31
0.0
  0
ARC
  5
46FA
330
1F
100
AcDbEntity
  8
圖層1輪廓線
100
AcDbCircle
 10
8340.222951047348
 20
2303.816161118884
 30
0.0
 40
6.108108108108208
100
AcDbArc
 50
270.0
 51
90.0
  0
ARC
  5
46FB
330
1F
100
AcDbEntity
  8
圖層1輪廓線
100
AcDbCircle
 10
8252.439167263565
 20
2303.816161118884
 30
0.0
 40
6.108108108108208
100
AcDbArc
 50
90.0
 51
270.0
  0
LINE
  5
46FC
330
1F
100
AcDbEntity
  8
圖層1輪廓線
100
AcDbLine
 10
8316.331059155457
 20
2269.924971929695
 30
0.0
 11
8285.331059155456
 21
2269.924971929695
 31
0.0
  0
LINE
  5
46FD
330
1F
100
AcDbEntity
  8
圖層1輪廓線
100
AcDbLine
 10
8285.331059155456
 20
2282.921188145913
 30
0.0
 11
8316.601329425727
 21
2282.921188145913
 31
0.0
  0
LINE
  5
46FE
330
1F
100
AcDbEntity
  8
圖層1輪廓線
100
AcDbLine
 10
8252.439167263565
 20
2297.708053010776
 30
0.0
 11
8265.331059155458
 21
2297.708053010777
 31
0.0
  0
ARC
  5
46FF
330
1F
100
AcDbEntity
  8
圖層1輪廓線
100
AcDbCircle
 10
8271.604563921112
 20
2293.056323281048
 30
0.0
 40
10.13513513513513
100
AcDbArc
 50
194.9999999999944
 51
231.7578897568348
  0
LINE
  5
4700
330
1F
100
AcDbEntity
  8
圖層1輪廓線
100
AcDbLine
 10
8259.844572668971
 20
2297.708053010776
 30
0.0
 11
8261.814775141154
 21
2290.433157283386
 31
0.0
  0
LINE
  5
4701
330
1F
100
AcDbEntity
  8
圖層1輪廓線
100
AcDbLine
 10
8307.141869966269
 20
2289.677944902669
 30
0.0
 11
8316.601329425727
 21
2289.677944902669
 31
0.0
  0
LINE
  5
4702
330
1F
100
AcDbEntity
  8
圖層1輪廓線
100
AcDbLine
 10
8311.195924020323
 20
2282.921188145913
 30
0.0
 11
8322.006734831132
 21
2282.921188145913
 31
0.0
  0
CIRCLE
  5
4703
330
1F
100
AcDbEntity
  8
圖層4尺寸線
100
AcDbCircle
 10
8296.331059155455
 20
2276.313080037804
 30
0.0
 40
3.0
  0
CIRCLE
  5
4704
330
1F
100
AcDbEntity
  8
圖層3虛線
 48
0.5
100
AcDbCircle
 10
8296.331059155455
 20
2276.313080037804
 30
0.0
 40
4.0
  0
LINE
  5
4705
330
1F
100
AcDbEntity
  8
圖層1輪廓線
100
AcDbLine
 10
8307.141869966269
 20
2297.708053010776
 30
0.0
 11
8307.141869966269
 21
2286.975242199966
 31
0.0
  0
ARC
  5
4706
330
1F
100
AcDbEntity
  8
圖層1輪廓線
100
AcDbCircle
 10
8311.195924020323
 20
2286.975242199966
 30
0.0
 40
4.054054054054054
100
AcDbArc
 50
180.0
 51
270.0
  0
LINE
  5
4707
330
1F
100
AcDbEntity
  8
圖層1輪廓線
100
AcDbLine
 10
8316.331059155457
 20
2282.921188145913
 30
0.0
 11
8316.331059155457
 21
2269.924971929695
 31
0.0
  0
ARC
  5
4708
330
1F
100
AcDbEntity
  8
圖層1輪廓線
100
AcDbCircle
 10
8321.057554389801
 20
2293.056323281048
 30
0.0
 40
10.13513513513513
100
AcDbArc
 50
270.0
 51
345.0000000000056
  0
LINE
  5
4709
330
1F
100
AcDbEntity
  8
圖層1輪廓線
100
AcDbLine
 10
8325.822436314847
 20
2297.708053010776
 30
0.0
 11
8324.320817316454
 21
2292.181934615161
 31
0.0
  0
LINE
  5
470A
330
1F
100
AcDbEntity
  8
圖層1輪廓線
100
AcDbLine
 10
8316.601329425727
 20
2289.677944902669
 30
0.0
 11
8321.057554389801
 21
2289.677944902669
 31
0.0
  0
ARC
  5
470B
330
1F
100
AcDbEntity
  8
圖層1輪廓線
100
AcDbCircle
 10
8321.057554389801
 20
2293.056323281048
 30
0.0
 40
3.378378378378378
100
AcDbArc
 50
270.0
 51
345.0000000000056
  0
ARC
  5
470C
330
1F
100
AcDbEntity
  8
圖層1輪廓線
100
AcDbCircle
 10
8321.057554389801
 20
2293.056323281048
 30
0.0
 40
3.378378378378378
100
AcDbArc
 50
270.0
 51
345.0000000000056
  0
LINE
  5
470D
330
1F
100
AcDbEntity
  8
圖層1輪廓線
100
AcDbLine
 10
8332.817545641942
 20
2297.708053010776
 30
0.0
 11
8330.847343169759
 21
2290.433157283386
 31
0.0
  0
LINE
  5
470E
330
1F
100
AcDbEntity
  8
圖層4尺寸線
100
AcDbLine
 10
8303.331059155459
 20
2029.677944902669
 30
0.0
 11
8289.331059155456
 21
2029.677944902669
 31
0.0
  0
LINE
  5
470F
330
1F
100
AcDbEntity
  8
圖層1輪廓線
100
AcDbLine
 10
8252.439167263565
 20
2309.924269226993
 30
0.0
 11
8265.331059155458
 21
2309.924269226993
 31
0.0
  0
LINE
  5
4710
330
1F
100
AcDbEntity
  8
圖層1輪廓線
100
AcDbLine
 10
8289.331059155458
 20
2029.677944902668
 30
0.0
 11
8289.331059155458
 21
2066.070414545765
 31
0.0
  0
LINE
  5
4711
330
1F
100
AcDbEntity
  8
圖層1輪廓線
100
AcDbLine
 10
8300.331059155457
 20
2027.677944902669
 30
0.0
 11
8292.331059155456
 21
2027.677944902669
 31
0.0
  0
LINE
  5
4712
330
1F
100
AcDbEntity
  8
圖層1輪廓線
100
AcDbLine
 10
8275.331059155456
 20
2166.070414545765
 30
0.0
 11
8249.331059155457
 21
2166.070414545765
 31
0.0
  0
LINE
  5
4713
330
1F
100
AcDbEntity
  8
圖層1輪廓線
100
AcDbLine
 10
8249.331059155457
 20
2166.070414545765
 30
0.0
 11
8249.331059155457
 21
2173.070414545765
 31
0.0
  0
LINE
  5
4714
330
1F
100
AcDbEntity
  8
圖層1輪廓線
100
AcDbLine
 10
8249.331059155457
 20
2173.070414545765
 30
0.0
 11
8301.331059155456
 21
2173.070414545765
 31
0.0
  0
LINE
  5
4715
330
1F
100
AcDbEntity
  8
圖層1輪廓線
100
AcDbLine
 10
8301.331059155456
 20
2173.070414545765
 30
0.0
 11
8301.331059155456
 21
2166.070414545765
 31
0.0
  0
LINE
  5
4716
330
1F
100
AcDbEntity
  8
圖層1輪廓線
100
AcDbLine
 10
8285.331059155456
 20
2173.070414545765
 30
0.0
 11
8285.331059155456
 21
2334.570414545765
 31
0.0
  0
LINE
  5
4717
330
1F
100
AcDbEntity
  8
圖層1輪廓線
100
AcDbLine
 10
8289.331059155456
 20
2173.070414545765
 30
0.0
 11
8289.331059155456
 21
2217.677944902669
 31
0.0
  0
LINE
  5
4718
330
1F
100
AcDbEntity
  8
圖層1輪廓線
100
AcDbLine
 10
8303.331059155457
 20
2066.070414545765
 30
0.0
 11
8303.331059155457
 21
2029.677944902668
 31
0.0
  0
LINE
  5
4719
330
1F
100
AcDbEntity
  8
圖層1輪廓線
100
AcDbLine
 10
8285.331059155458
 20
2309.924269226993
 30
0.0
 11
8340.222951047348
 21
2309.924269226993
 31
0.0
  0
LINE
  5
471A
330
1F
100
AcDbEntity
  8
圖層1輪廓線
100
AcDbLine
 10
8285.331059155458
 20
2297.708053010777
 30
0.0
 11
8340.222951047348
 21
2297.708053010776
 31
0.0
  0
LINE
  5
471B
330
1F
100
AcDbEntity
  8
圖層1輪廓線
100
AcDbLine
 10
7438.731263768234
 20
2066.070414545765
 30
0.0
 11
7393.731263768232
 21
2066.070414545765
 31
0.0
  0
LINE
  5
471C
330
1F
100
AcDbEntity
  8
圖層1輪廓線
100
AcDbLine
 10
7393.731263768232
 20
2086.070414545765
 30
0.0
 11
7583.731263768233
 21
2086.070414545765
 31
0.0
  0
LINE
  5
471D
330
1F
100
AcDbEntity
  8
圖層3虛線
100
AcDbLine
 10
7476.731263768233
 20
2082.070414545765
 30
0.0
 11
7500.731263768233
 21
2082.070414545764
 31
0.0
  0
LINE
  5
471E
330
1F
100
AcDbEntity
  8
圖層3虛線
100
AcDbLine
 10
7476.731263768233
 20
2042.070414545765
 30
0.0
 11
7476.731263768233
 21
2082.070414545765
 31
0.0
  0
LINE
  5
471F
330
1F
100
AcDbEntity
  8
圖層3虛線
100
AcDbLine
 10
7500.731263768233
 20
2042.070414545765
 30
0.0
 11
7500.731263768233
 21
2082.070414545765
 31
0.0
  0
CIRCLE
  5
4720
330
1F
100
AcDbEntity
  8
圖層1輪廓線
100
AcDbCircle
 10
7488.731263768234
 20
2062.070414545765
 30
0.0
 40
5.0
  0
LWPOLYLINE
  5
4721
330
1F
100
AcDbEntity
  8
圖層1輪廓線
100
AcDbPolyline
 90
        6
 70
     1
 43
0.0
 10
7480.128382784591
 20
2057.341132348454
 10
7488.525501800949
 20
2052.255459969541
 10
7497.128382784591
 20
2056.984742166852
 10
7497.334144751876
 20
2066.799696743075
 10
7488.937025735518
 20
2071.885369121988
 10
7480.334144751876
 20
2067.156086924678
  0
CIRCLE
  5
4722
330
1F
100
AcDbEntity
  8
圖層1輪廓線
100
AcDbCircle
 10
7488.731263768234
 20
2062.070414545765
 30
0.0
 40
8.501867647192904
  0
LINE
  5
4723
330
1F
100
AcDbEntity
  8
圖層1輪廓線
100
AcDbLine
 10
8106.331059155458
 20
2058.709198613597
 30
0.0
 11
8106.331059155458
 21
2073.431630477933
 31
0.0
  0
LINE
  5
4724
330
1F
100
AcDbEntity
  8
圖層1輪廓線
100
AcDbLine
 10
8098.331059155457
 20
2058.709198613597
 30
0.0
 11
8098.331059155457
 21
2073.431630477933
 31
0.0
  0
ARC
  5
4725
330
1F
100
AcDbEntity
  8
圖層1輪廓線
100
AcDbCircle
 10
8107.108836933235
 20
2066.070414545765
 30
0.0
 40
8.777777777777844
100
AcDbArc
 50
146.0078238856523
 51
213.9921761143477
  0
ARC
  5
4726
330
1F
100
AcDbEntity
  8
圖層1輪廓線
100
AcDbCircle
 10
8097.553281377681
 20
2066.070414545765
 30
0.0
 40
8.777777777777153
100
AcDbArc
 50
326.0078238856523
 51
33.99217611434772
  0
LINE
  5
4727
330
1F
100
AcDbEntity
  8
圖層1輪廓線
100
AcDbLine
 10
8104.831059155456
 20
2056.255459969541
 30
0.0
 11
8099.831059155457
 21
2056.255459969541
 31
0.0
  0
LINE
  5
4728
330
1F
100
AcDbEntity
  8
圖層1輪廓線
100
AcDbLine
 10
8104.831059155456
 20
2061.162937257654
 30
0.0
 11
8099.831059155459
 21
2061.162937257654
 31
0.0
  0
ARC
  5
4729
330
1F
100
AcDbEntity
  8
圖層1輪廓線
100
AcDbCircle
 10
8103.574114711014
 20
2058.709198613597
 30
0.0
 40
2.756944444444471
100
AcDbArc
 50
297.1241053663949
 51
62.8758946336051
  0
ARC
  5
472A
330
1F
100
AcDbEntity
  8
圖層1輪廓線
100
AcDbCircle
 10
8101.088003599903
 20
2058.709198613597
 30
0.0
 40
2.756944444444574
100
AcDbArc
 50
117.1241053663949
 51
242.8758946336051
  0
LINE
  5
472B
330
1F
100
AcDbEntity
  8
圖層1輪廓線
100
AcDbLine
 10
8104.831059155456
 20
2070.977891833877
 30
0.0
 11
8099.831059155457
 21
2070.977891833877
 31
0.0
  0
LINE
  5
472C
330
1F
100
AcDbEntity
  8
圖層1輪廓線
100
AcDbLine
 10
8104.831059155458
 20
2075.885369121988
 30
0.0
 11
8099.831059155457
 21
2075.885369121988
 31
0.0
  0
ARC
  5
472D
330
1F
100
AcDbEntity
  8
圖層1輪廓線
100
AcDbCircle
 10
8103.574114711014
 20
2073.431630477933
 30
0.0
 40
2.756944444444263
100
AcDbArc
 50
297.1241053663426
 51
62.8758946336574
  0
ARC
  5
472E
330
1F
100
AcDbEntity
  8
圖層1輪廓線
100
AcDbCircle
 10
8101.088003599903
 20
2073.431630477933
 30
0.0
 40
2.756944444444471
100
AcDbArc
 50
117.1241053663949
 51
242.8758946336051
  0
LINE
  5
472F
330
1F
100
AcDbEntity
  8
圖層3虛線
100
AcDbLine
 10
7459.863750308752
 20
2065.070414545765
 30
0.0
 11
7476.731263768233
 21
2065.070414545765
 31
0.0
  0
LINE
  5
4730
330
1F
100
AcDbEntity
  8
圖層3虛線
100
AcDbLine
 10
7459.863750308752
 20
2059.070414545765
 30
0.0
 11
7476.731263768233
 21
2059.070414545765
 31
0.0
  0
LINE
  5
4731
330
1F
100
AcDbEntity
  8
圖層3虛線
100
AcDbLine
 10
7500.731263768233
 20
2065.070414545765
 30
0.0
 11
7517.598777227715
 21
2065.070414545765
 31
0.0
  0
LINE
  5
4732
330
1F
100
AcDbEntity
  8
圖層3虛線
100
AcDbLine
 10
7500.731263768233
 20
2059.070414545765
 30
0.0
 11
7517.598777227715
 21
2059.070414545765
 31
0.0
  0
LINE
  5
4733
330
1F
100
AcDbEntity
  8
圖層2中心線
100
AcDbLine
 10
7482.731263768234
 20
2062.070414545765
 30
0.0
 11
7494.731263768233
 21
2062.070414545765
 31
0.0
  0
LINE
  5
4734
330
1F
100
AcDbEntity
  8
圖層2中心線
100
AcDbLine
 10
7488.731263768234
 20
2056.070414545765
 30
0.0
 11
7488.731263768234
 21
2068.070414545765
 31
0.0
  0
LINE
  5
4735
330
1F
100
AcDbEntity
  8
圖層1輪廓線
100
AcDbLine
 10
8106.331059155456
 20
2066.070414545765
 30
0.0
 11
8156.331059155457
 21
2066.070414545766
 31
0.0
  0
LINE
  5
4736
330
1F
100
AcDbEntity
  8
圖層4尺寸線
100
AcDbLine
 10
8292.331059155456
 20
2027.677944902669
 30
0.0
 11
8292.331059155458
 21
2066.070414545765
 31
0.0
  0
LINE
  5
4737
330
1F
100
AcDbEntity
  8
圖層4尺寸線
100
AcDbLine
 10
8300.331059155457
 20
2066.070414545765
 30
0.0
 11
8300.331059155457
 21
2027.677944902669
 31
0.0
  0
LINE
  5
4738
330
1F
100
AcDbEntity
  8
圖層1輪廓線
100
AcDbLine
 10
8289.331059155456
 20
2029.677944902669
 30
0.0
 11
8292.331059155456
 21
2027.677944902669
 31
0.0
  0
LINE
  5
4739
330
1F
100
AcDbEntity
  8
圖層1輪廓線
100
AcDbLine
 10
8300.331059155457
 20
2027.677944902669
 30
0.0
 11
8303.331059155457
 21
2029.677944902669
 31
0.0
  0
LINE
  5
473A
330
1F
100
AcDbEntity
  8
圖層1輪廓線
100
AcDbLine
 10
8292.331059155456
 20
2173.070414545765
 30
0.0
 11
8292.331059155456
 21
2217.677944902669
 31
0.0
  0
LINE
  5
473B
330
1F
100
AcDbEntity
  8
圖層1輪廓線
100
AcDbLine
 10
8300.331059155457
 20
2217.677944902669
 30
0.0
 11
8300.331059155457
 21
2173.070414545765
 31
0.0
  0
LINE
  5
473C
330
1F
100
AcDbEntity
  8
圖層1輪廓線
100
AcDbLine
 10
8290.331059155457
 20
2247.677944902669
 30
0.0
 11
8290.331059155457
 21
2269.924971929695
 31
0.0
  0
LINE
  5
473D
330
1F
100
AcDbEntity
  8
圖層1輪廓線
100
AcDbLine
 10
8302.581059155455
 20
2247.677944902669
 30
0.0
 11
8302.581059155455
 21
2269.924971929695
 31
0.0
  0
ARC
  5
473E
330
1F
100
AcDbEntity
  8
圖層1輪廓線
100
AcDbCircle
 10
8361.331059155457
 20
2244.198778236001
 30
0.0
 40
8.520833333332422
100
AcDbArc
 50
229.9320129505278
 51
310.0679870494324
  0
ARC
  5
473F
330
1F
100
AcDbEntity
  8
圖層1輪廓線
100
AcDbCircle
 10
8369.558300491409
 20
2238.558153236001
 30
0.0
 40
2.880208333333234
100
AcDbArc
 50
197.7946131839002
 51
342.2053868160997
  0
ARC
  5
4740
330
1F
100
AcDbEntity
  8
圖層1輪廓線
100
AcDbCircle
 10
8353.103817819505
 20
2238.558153236001
 30
0.0
 40
2.880208333333234
100
AcDbArc
 50
197.7946131839002
 51
342.2053868160997
  0
LINE
  5
4741
330
1F
100
AcDbEntity
  8
圖層1輪廓線
100
AcDbLine
 10
8352.939595238673
 20
2235.677944902669
 30
0.0
 11
8369.722523072239
 21
2235.677944902669
 31
0.0
  0
ARC
  5
4742
330
1F
100
AcDbEntity
  8
圖層1輪廓線
100
AcDbCircle
 10
8361.331059155457
 20
2237.157111569335
 30
0.0
 40
8.520833333333246
100
AcDbArc
 50
49.93201295056764
 51
130.0679870494323
  0
LINE
  5
4743
330
1F
100
AcDbEntity
  8
圖層1輪廓線
100
AcDbLine
 10
8352.939595238675
 20
2245.677944902669
 30
0.0
 11
8369.722523072239
 21
2245.677944902668
 31
0.0
  0
LINE
  5
4744
330
1F
100
AcDbEntity
  8
圖層1輪廓線
100
AcDbLine
 10
8355.846231598155
 20
2237.677944902669
 30
0.0
 11
8355.846231598155
 21
2243.677944902669
 31
0.0
  0
LINE
  5
4745
330
1F
100
AcDbEntity
  8
圖層1輪廓線
100
AcDbLine
 10
8350.361404040853
 20
2237.677944902668
 30
0.0
 11
8350.361404040853
 21
2243.677944902669
 31
0.0
  0
ARC
  5
4746
330
1F
100
AcDbEntity
  8
圖層1輪廓線
100
AcDbCircle
 10
8353.103817819505
 20
2242.797736569335
 30
0.0
 40
2.880208333333381
100
AcDbArc
 50
17.79461318390024
 51
162.2053868160997
  0
ARC
  5
4747
330
1F
100
AcDbEntity
  8
圖層1輪廓線
100
AcDbCircle
 10
8369.558300491409
 20
2242.797736569335
 30
0.0
 40
2.880208333333343
100
AcDbArc
 50
17.79461318390024
 51
162.2053868160997
  0
LINE
  5
4748
330
1F
100
AcDbEntity
  8
圖層1輪廓線
100
AcDbLine
 10
8366.815886712759
 20
2237.677944902669
 30
0.0
 11
8366.815886712759
 21
2243.677944902669
 31
0.0
  0
LINE
  5
4749
330
1F
100
AcDbEntity
  8
圖層1輪廓線
100
AcDbLine
 10
8372.300714270059
 20
2237.677944902669
 30
0.0
 11
8372.300714270059
 21
2243.677944902669
 31
0.0
  0
LINE
  5
474A
330
1F
100
AcDbEntity
  8
圖層1輪廓線
100
AcDbLine
 10
8361.331059155457
 20
2232.677944902669
 30
0.0
 11
8350.331059155456
 21
2232.677944902669
 31
0.0
  0
LINE
  5
474B
330
1F
100
AcDbEntity
  8
圖層1輪廓線
100
AcDbLine
 10
8350.331059155456
 20
2232.677944902669
 30
0.0
 11
8350.331059155456
 21
2235.677944902669
 31
0.0
  0
LINE
  5
474C
330
1F
100
AcDbEntity
  8
圖層1輪廓線
100
AcDbLine
 10
8350.331059155456
 20
2235.677944902669
 30
0.0
 11
8372.331059155456
 21
2235.677944902669
 31
0.0
  0
LINE
  5
474D
330
1F
100
AcDbEntity
  8
圖層1輪廓線
100
AcDbLine
 10
8372.331059155456
 20
2235.677944902669
 30
0.0
 11
8372.331059155456
 21
2232.677944902669
 31
0.0
  0
LINE
  5
474E
330
1F
100
AcDbEntity
  8
圖層2中心線
  6
CENTER2
 48
0.5
370
    18
100
AcDbLine
 10
8131.331059155456
 20
2032.51079250158
 30
0.0
 11
8131.331059155458
 21
2593.132914545764
 31
0.0
  0
LINE
  5
474F
330
1F
100
AcDbEntity
  8
圖層2中心線
  6
CENTER2
 48
0.5
370
    18
100
AcDbLine
 10
7488.731263768234
 20
1702.848252586422
 30
0.0
 11
7488.731263768231
 21
2604.153747879104
 31
0.0
  0
LINE
  5
4750
330
1F
100
AcDbEntity
  8
圖層2中心線
  6
CENTER2
 48
0.5
370
    18
100
AcDbLine
 10
8275.331059155456
 20
2346.534651260073
 30
0.0
 11
8275.331059155456
 21
2119.810967578183
 31
0.0
  0
LINE
  5
4751
330
1F
100
AcDbEntity
  8
圖層2中心線
  6
CENTER2
 48
0.5
370
    18
100
AcDbLine
 10
8296.331059155455
 20
2016.096940547791
 30
0.0
 11
8296.331059155455
 21
2324.827065164804
 31
0.0
  0
LINE
  5
4752
330
1F
100
AcDbEntity
  8
圖層2中心線
100
AcDbLine
 10
8290.331059155457
 20
2276.313080037804
 30
0.0
 11
8302.331059155456
 21
2276.313080037804
 31
0.0
  0
LINE
  5
4753
330
1F
100
AcDbEntity
  8
圖層2中心線
100
AcDbLine
 10
8296.331059155455
 20
2270.313080037804
 30
0.0
 11
8296.331059155455
 21
2282.313080037804
 31
0.0
  0
LINE
  5
4754
330
1F
100
AcDbEntity
  8
圖層2中心線
100
AcDbLine
 10
8290.131392352753
 20
2240.177944902669
 30
0.0
 11
8302.131392352753
 21
2240.177944902669
 31
0.0
  0
LINE
  5
4755
330
1F
100
AcDbEntity
  8
圖層2中心線
100
AcDbLine
 10
8296.131392352753
 20
2234.177944902669
 30
0.0
 11
8296.131392352753
 21
2246.177944902669
 31
0.0
  0
LINE
  5
4756
330
1F
100
AcDbEntity
  8
圖層2中心線
  6
CENTER2
 48
0.3
370
    18
100
AcDbLine
 10
7453.740526117684
 20
2062.070414545765
 30
0.0
 11
7523.047062143584
 21
2062.070414545765
 31
0.0
  0
LINE
  5
4757
330
1F
100
AcDbEntity
  8
圖層1輪廓線
100
AcDbLine
 10
7438.731263768234
 20
2066.070414545765
 30
0.0
 11
7459.863750308752
 21
2066.070414545765
 31
0.0
  0
LINE
  5
4758
330
1F
100
AcDbEntity
  8
圖層1輪廓線
100
AcDbLine
 10
7517.598777227715
 20
2066.070414545765
 30
0.0
 11
7538.731263768234
 21
2066.070414545765
 31
0.0
  0
LINE
  5
4759
330
1F
100
AcDbEntity
  8
圖層3虛線
100
AcDbLine
 10
7459.863750308752
 20
2068.070414545765
 30
0.0
 11
7476.731263768233
 21
2068.070414545765
 31
0.0
  0
LINE
  5
475A
330
1F
100
AcDbEntity
  8
圖層3虛線
100
AcDbLine
 10
7500.731263768233
 20
2068.070414545765
 30
0.0
 11
7517.598777227715
 21
2068.070414545765
 31
0.0
  0
LINE
  5
475B
330
1F
100
AcDbEntity
  8
圖層3虛線
100
AcDbLine
 10
7500.731263768233
 20
2056.070414545765
 30
0.0
 11
7517.598777227715
 21
2056.070414545765
 31
0.0
  0
LINE
  5
475C
330
1F
100
AcDbEntity
  8
圖層3虛線
100
AcDbLine
 10
7459.863750308752
 20
2056.070414545765
 30
0.0
 11
7476.731263768233
 21
2056.070414545765
 31
0.0
  0
LINE
  5
475D
330
1F
100
AcDbEntity
  8
圖層4尺寸線
100
AcDbLine
 10
7676.731263768234
 20
1734.677944902669
 30
0.0
 11
7691.731263768234
 21
1734.677944902669
 31
0.0
  0
LINE
  5
475E
330
1F
100
AcDbEntity
  8
圖層4尺寸線
100
AcDbLine
 10
7619.731263768233
 20
1719.677944902669
 30
0.0
 11
7691.731263768234
 21
1719.677944902669
 31
0.0
  0
LINE
  5
475F
330
1F
100
AcDbEntity
  8
圖層4尺寸線
100
AcDbLine
 10
7691.731263768234
 20
1783.677944902669
 30
0.0
 11
7619.731263768233
 21
1783.677944902669
 31
0.0
  0
LINE
  5
4760
330
1F
100
AcDbEntity
  8
圖層4尺寸線
100
AcDbLine
 10
7613.731263768234
 20
1717.677944902668
 30
0.0
 11
7691.731263768234
 21
1717.677944902669
 31
0.0
  0
LINE
  5
4761
330
1F
100
AcDbEntity
  8
圖層4尺寸線
100
AcDbLine
 10
7691.731263768234
 20
1719.677944902669
 30
0.0
 11
7617.731263768233
 21
1719.677944902669
 31
0.0
  0
LINE
  5
4762
330
1F
100
AcDbEntity
  8
圖層4尺寸線
100
AcDbLine
 10
7676.731263768232
 20
1734.677944902669
 30
0.0
 11
7676.731263768234
 21
1749.677944902669
 31
0.0
  0
LINE
  5
4763
330
1F
100
AcDbEntity
  8
圖層4尺寸線
100
AcDbLine
 10
7634.731263768234
 20
1749.677944902669
 30
0.0
 11
7634.731263768232
 21
1734.677944902669
 31
0.0
  0
LINE
  5
4764
330
1F
100
AcDbEntity
  8
圖層4尺寸線
100
AcDbLine
 10
7619.731263768233
 20
1783.677944902669
 30
0.0
 11
7619.731263768233
 21
1719.677944902669
 31
0.0
  0
LINE
  5
4765
330
1F
100
AcDbEntity
  8
圖層1輪廓線
100
AcDbLine
 10
7613.731263768234
 20
1789.677944902669
 30
0.0
 11
7613.731263768234
 21
1717.677944902668
 31
0.0
  0
LINE
  5
4766
330
1F
100
AcDbEntity
  8
圖層4尺寸線
100
AcDbLine
 10
7615.731263768234
 20
1721.677944902669
 30
0.0
 11
7615.731263768234
 21
1789.677944902669
 31
0.0
  0
ARC
  5
4767
330
1F
100
AcDbEntity
  8
圖層4尺寸線
100
AcDbCircle
 10
7615.731263768234
 20
1719.677944902669
 30
0.0
 40
2.0
100
AcDbArc
 50
180.0
 51
270.0
  0
CIRCLE
  5
4768
330
1F
100
AcDbEntity
  8
圖層4尺寸線
100
AcDbCircle
 10
7655.731263768233
 20
1734.677944902669
 30
0.0
 40
12.0
  0
CIRCLE
  5
4769
330
1F
100
AcDbEntity
  8
圖層4尺寸線
100
AcDbCircle
 10
7655.731263768233
 20
1734.677944902669
 30
0.0
 40
9.0
  0
ARC
  5
476A
330
1F
100
AcDbEntity
  8
圖層4尺寸線
100
AcDbCircle
 10
7617.731263768233
 20
1721.677944902669
 30
0.0
 40
2.0
100
AcDbArc
 50
180.0
 51
270.0
  0
LINE
  5
476B
330
1F
100
AcDbEntity
  8
圖層4尺寸線
100
AcDbLine
 10
7619.731263768233
 20
1734.677944902669
 30
0.0
 11
7634.731263768234
 21
1734.677944902669
 31
0.0
  0
LINE
  5
476C
330
1F
100
AcDbEntity
  8
圖層4尺寸線
100
AcDbLine
 10
7615.731263768234
 20
1789.677944902669
 30
0.0
 11
7613.731263768234
 21
1789.677944902669
 31
0.0
  0
LINE
  5
476D
330
1F
100
AcDbEntity
  8
圖層4尺寸線
100
AcDbLine
 10
7669.731263768233
 20
1798.677944902668
 30
0.0
 11
7669.731263768233
 21
1783.677944902668
 31
0.0
  0
LINE
  5
476E
330
1F
100
AcDbEntity
  8
圖層4尺寸線
100
AcDbLine
 10
7641.731263768234
 20
1798.677944902669
 30
0.0
 11
7641.731263768233
 21
1783.677944902669
 31
0.0
  0
LINE
  5
476F
330
1F
100
AcDbEntity
  8
圖層4尺寸線
100
AcDbLine
 10
7634.731263768234
 20
1749.677944902669
 30
0.0
 11
7676.731263768234
 21
1749.677944902669
 31
0.0
  0
HATCH
  5
4770
330
1F
100
AcDbEntity
  8
圖層4尺寸線
100
AcDbHatch
 10
0.0
 20
0.0
 30
0.0
210
0.0
220
0.0
230
1.0
  2
LINE
 70
     0
 71
     0
 91
        1
 92
        7
 72
     0
 73
     1
 93
        4
 10
7669.731263768233
 20
1793.177944902669
 10
7641.731263768233
 20
1793.177944902669
 10
7641.731263768234
 20
1786.047855622988
 10
7669.731263768233
 20
1786.047855622987
 97
        0
 75
     0
 76
     1
 52
90.0
 41
1.0
 77
     0
 78
     1
 53
90.0
 43
6529.567225919939
 44
1194.736843472411
 45
-3.174999999999999
 46
0.0000000000000002
 79
     0
 47
0.1347766415641304
 98
        1
 10
7655.423240095148
 20
1789.981108947145
  0
LINE
  5
4771
330
1F
100
AcDbEntity
  8
圖層4尺寸線
100
AcDbLine
 10
7641.731263768234
 20
1793.177944902669
 30
0.0
 11
7669.731263768233
 21
1793.177944902668
 31
0.0
  0
LINE
  5
4772
330
1F
100
AcDbEntity
  8
圖層4尺寸線
100
AcDbLine
 10
7641.731263768233
 20
1786.047855622988
 30
0.0
 11
7669.731263768233
 21
1786.047855622987
 31
0.0
  0
LINE
  5
4773
330
1F
100
AcDbEntity
  8
圖層4尺寸線
100
AcDbLine
 10
7669.731263768233
 20
1798.677944902669
 30
0.0
 11
7641.731263768234
 21
1798.677944902669
 31
0.0
  0
ARC
  5
4774
330
1F
100
AcDbEntity
  8
圖層4尺寸線
100
AcDbCircle
 10
7655.731263768233
 20
1761.677944902669
 30
0.0
 40
52.00000000000005
100
AcDbArc
 50
67.38013505196659
 51
112.6198649480334
  0
LINE
  5
4775
330
1F
100
AcDbEntity
  8
圖層4尺寸線
100
AcDbLine
 10
7675.731263768233
 20
1809.677944902669
 30
0.0
 11
7635.731263768234
 21
1809.677944902669
 31
0.0
  0
LINE
  5
4776
330
1F
100
AcDbEntity
  8
圖層4尺寸線
100
AcDbLine
 10
7675.731263768233
 20
1807.677944902669
 30
0.0
 11
7635.731263768234
 21
1807.677944902669
 31
0.0
  0
LINE
  5
4777
330
1F
100
AcDbEntity
  8
圖層4尺寸線
100
AcDbLine
 10
7644.731263768233
 20
1807.677944902669
 30
0.0
 11
7644.731263768233
 21
1798.677944902669
 31
0.0
  0
LINE
  5
4778
330
1F
100
AcDbEntity
  8
圖層4尺寸線
100
AcDbLine
 10
7644.731263768233
 20
1798.677944902669
 30
0.0
 11
7641.731263768234
 21
1798.677944902669
 31
0.0
  0
LINE
  5
4779
330
1F
100
AcDbEntity
  8
圖層4尺寸線
100
AcDbLine
 10
7635.731263768234
 20
1807.677944902669
 30
0.0
 11
7644.731263768233
 21
1807.677944902669
 31
0.0
  0
LINE
  5
477A
330
1F
100
AcDbEntity
  8
圖層4尺寸線
100
AcDbLine
 10
7635.731263768232
 20
1809.677944902669
 30
0.0
 11
7635.731263768232
 21
1807.677944902669
 31
0.0
  0
LINE
  5
477B
330
1F
100
AcDbEntity
  8
圖層4尺寸線
100
AcDbLine
 10
7675.731263768233
 20
1809.677944902669
 30
0.0
 11
7675.731263768233
 21
1807.677944902669
 31
0.0
  0
LINE
  5
477C
330
1F
100
AcDbEntity
  8
圖層4尺寸線
100
AcDbLine
 10
7666.731263768234
 20
1807.677944902669
 30
0.0
 11
7666.731263768234
 21
1798.677944902669
 31
0.0
  0
LINE
  5
477D
330
1F
100
AcDbEntity
  8
圖層4尺寸線
100
AcDbLine
 10
7669.731263768233
 20
1798.677944902668
 30
0.0
 11
7666.731263768234
 21
1798.677944902668
 31
0.0
  0
LINE
  5
477E
330
1F
100
AcDbEntity
  8
圖層4尺寸線
100
AcDbLine
 10
7675.731263768233
 20
1807.677944902669
 30
0.0
 11
7666.731263768234
 21
1807.677944902669
 31
0.0
  0
LINE
  5
477F
330
1F
100
AcDbEntity
  8
圖層4尺寸線
100
AcDbLine
 10
7691.731263768234
 20
1719.677944902669
 30
0.0
 11
7691.731263768234
 21
1783.677944902669
 31
0.0
  0
LINE
  5
4780
330
1F
100
AcDbEntity
  8
圖層4尺寸線
100
AcDbLine
 10
7691.731263768234
 20
1717.677944902669
 30
0.0
 11
7691.731263768234
 21
1719.677944902669
 31
0.0
  0
LINE
  5
4801
330
1F
100
AcDbEntity
  8
圖層1輪廓線
100
AcDbLine
 10
7436.481263768233
 20
2198.070414545765
 30
0.0
 11
7436.481263768233
 21
2370.070414545765
 31
0.0
  0
LINE
  5
4802
330
1F
100
AcDbEntity
  8
圖層1輪廓線
100
AcDbLine
 10
7423.981263768233
 20
2198.070414545765
 30
0.0
 11
7423.981263768233
 21
2370.070414545765
 31
0.0
  0
LINE
  5
4803
330
1F
100
AcDbEntity
  8
圖層1輪廓線
100
AcDbLine
 10
7553.481263768233
 20
2198.070414545765
 30
0.0
 11
7553.481263768233
 21
2370.070414545765
 31
0.0
  0
LINE
  5
4804
330
1F
100
AcDbEntity
  8
圖層1輪廓線
100
AcDbLine
 10
7540.981263768234
 20
2198.070414545765
 30
0.0
 11
7540.981263768234
 21
2370.070414545765
 31
0.0
  0
LINE
  5
4805
330
1F
100
AcDbEntity
  8
圖層1輪廓線
100
AcDbLine
 10
7512.486262788225
 20
2178.070414545765
 30
0.0
 11
7563.731263768234
 21
2178.070414545765
 31
0.0
  0
LINE
  5
4806
330
1F
100
AcDbEntity
  8
圖層1輪廓線
100
AcDbLine
 10
7413.731263768233
 20
2198.070414545765
 30
0.0
 11
7563.731263768234
 21
2198.070414545765
 31
0.0
  0
LINE
  5
4807
330
1F
100
AcDbEntity
  8
圖層1輪廓線
100
AcDbLine
 10
7413.731263768233
 20
2166.070414545765
 30
0.0
 11
7413.731263768233
 21
2198.070414545765
 31
0.0
  0
LINE
  5
4808
330
1F
100
AcDbEntity
  8
圖層1輪廓線
100
AcDbLine
 10
7413.731263768233
 20
2178.070414545765
 30
0.0
 11
7467.731263768233
 21
2178.070414545765
 31
0.0
  0
LINE
  5
4809
330
1F
100
AcDbEntity
  8
圖層1輪廓線
100
AcDbLine
 10
7413.731263768233
 20
2166.070414545765
 30
0.0
 11
7563.731263768234
 21
2166.070414545765
 31
0.0
  0
LINE
  5
480A
330
1F
100
AcDbEntity
  8
圖層1輪廓線
100
AcDbLine
 10
7455.731263768233
 20
2166.070414545765
 30
0.0
 11
7455.731263768233
 21
2178.070414545765
 31
0.0
  0
LINE
  5
480B
330
1F
100
AcDbEntity
  8
圖層1輪廓線
100
AcDbLine
 10
7521.731263768234
 20
2166.070414545765
 30
0.0
 11
7521.731263768234
 21
2178.070414545765
 31
0.0
  0
LINE
  5
480C
330
1F
100
AcDbEntity
  8
圖層1輪廓線
100
AcDbLine
 10
7563.731263768234
 20
2166.070414545765
 30
0.0
 11
7563.731263768234
 21
2198.070414545765
 31
0.0
  0
ARC
  5
480D
330
1F
100
AcDbEntity
  8
圖層1輪廓線
100
AcDbCircle
 10
7556.757543209862
 20
2398.447604499233
 30
0.0
 40
5.622810046531069
100
AcDbArc
 50
55.61575253196838
 51
124.3842474680316
  0
LINE
  5
480E
330
1F
100
AcDbEntity
  8
圖層1輪廓線
100
AcDbLine
 10
7559.932969690405
 20
2393.070414545765
 30
0.0
 11
7534.52955784606
 21
2393.070414545765
 31
0.0
  0
LINE
  5
480F
330
1F
100
AcDbEntity
  8
圖層1輪廓線
100
AcDbLine
 10
7558.231263768234
 20
2404.070414545765
 30
0.0
 11
7536.231263768233
 21
2404.070414545765
 31
0.0
  0
LINE
  5
4810
330
1F
100
AcDbEntity
  8
圖層1輪廓線
100
AcDbLine
 10
7413.731263768233
 20
2370.070414545765
 30
0.0
 11
7563.731263768234
 21
2370.070414545765
 31
0.0
  0
LINE
  5
4811
330
1F
100
AcDbEntity
  8
圖層1輪廓線
100
AcDbLine
 10
7563.731263768234
 20
2370.070414545765
 30
0.0
 11
7413.731263768234
 21
2370.070414545765
 31
0.0
  0
LINE
  5
4812
330
1F
100
AcDbEntity
  8
圖層1輪廓線
100
AcDbLine
 10
7563.731263768234
 20
2390.070414545765
 30
0.0
 11
7509.731263768234
 21
2390.070414545765
 31
0.0
  0
LINE
  5
4813
330
1F
100
AcDbEntity
  8
圖層1輪廓線
100
AcDbLine
 10
7423.981263768233
 20
2421.820414545765
 30
0.0
 11
7423.981263768233
 21
2404.070414545765
 31
0.0
  0
LINE
  5
4814
330
1F
100
AcDbEntity
  8
圖層1輪廓線
100
AcDbLine
 10
7423.231263768234
 20
2421.070414545765
 30
0.0
 11
7423.231263768234
 21
2404.070414545765
 31
0.0
  0
LINE
  5
4815
330
1F
100
AcDbEntity
  8
圖層1輪廓線
100
AcDbLine
 10
7436.481263768233
 20
2421.820414545765
 30
0.0
 11
7436.481263768233
 21
2404.070414545765
 31
0.0
  0
LINE
  5
4816
330
1F
100
AcDbEntity
  8
圖層1輪廓線
100
AcDbLine
 10
7437.231263768234
 20
2421.070414545765
 30
0.0
 11
7437.231263768234
 21
2404.070414545765
 31
0.0
  0
LINE
  5
4817
330
1F
100
AcDbEntity
  8
圖層1輪廓線
100
AcDbLine
 10
7459.731263768233
 20
2434.070414545765
 30
0.0
 11
7459.731263768233
 21
2402.070414545765
 31
0.0
  0
LINE
  5
4818
330
1F
100
AcDbEntity
  8
圖層1輪廓線
100
AcDbLine
 10
7517.731263768233
 20
2434.070414545765
 30
0.0
 11
7517.731263768233
 21
2402.070414545765
 31
0.0
  0
LINE
  5
4819
330
1F
100
AcDbEntity
  8
圖層1輪廓線
100
AcDbLine
 10
7540.231263768234
 20
2421.070414545765
 30
0.0
 11
7540.231263768234
 21
2404.070414545765
 31
0.0
  0
LINE
  5
481A
330
1F
100
AcDbEntity
  8
圖層1輪廓線
100
AcDbLine
 10
7540.981263768234
 20
2421.820414545765
 30
0.0
 11
7540.981263768234
 21
2404.070414545765
 31
0.0
  0
LINE
  5
481B
330
1F
100
AcDbEntity
  8
圖層1輪廓線
100
AcDbLine
 10
7554.231263768234
 20
2421.070414545765
 30
0.0
 11
7554.231263768234
 21
2404.070414545765
 31
0.0
  0
LINE
  5
481C
330
1F
100
AcDbEntity
  8
圖層1輪廓線
100
AcDbLine
 10
7553.481263768233
 20
2421.820414545765
 30
0.0
 11
7553.481263768233
 21
2404.070414545765
 31
0.0
  0
LINE
  5
481D
330
1F
100
AcDbEntity
  8
圖層1輪廓線
100
AcDbLine
 10
7442.932969690405
 20
2393.070414545765
 30
0.0
 11
7417.52955784606
 21
2393.070414545765
 31
0.0
  0
LINE
  5
481E
330
1F
100
AcDbEntity
  8
圖層1輪廓線
100
AcDbLine
 10
7441.231263768234
 20
2404.070414545765
 30
0.0
 11
7419.231263768233
 21
2404.070414545765
 31
0.0
  0
ARC
  5
481F
330
1F
100
AcDbEntity
  8
圖層1輪廓線
100
AcDbCircle
 10
7430.231263768233
 20
2383.052894918012
 30
0.0
 40
21.01751962775257
100
AcDbArc
 50
72.4120462260324
 51
107.5879537739676
  0
LINE
  5
4820
330
1F
100
AcDbEntity
  8
圖層1輪廓線
100
AcDbLine
 10
7464.976264748241
 20
2390.070414545765
 30
0.0
 11
7413.731263768234
 21
2390.070414545765
 31
0.0
  0
LINE
  5
4821
330
1F
100
AcDbEntity
  8
圖層1輪廓線
100
AcDbLine
 10
7413.731263768234
 20
2402.070414545765
 30
0.0
 11
7413.731263768234
 21
2370.070414545765
 31
0.0
  0
LINE
  5
4822
330
1F
100
AcDbEntity
  8
圖層1輪廓線
100
AcDbLine
 10
7417.52955784606
 20
2403.087934173517
 30
0.0
 11
7417.52955784606
 21
2393.070414545765
 31
0.0
  0
LINE
  5
4823
330
1F
100
AcDbEntity
  8
圖層1輪廓線
100
AcDbLine
 10
7423.880410807147
 20
2403.087934173517
 30
0.0
 11
7423.880410807147
 21
2393.070414545765
 31
0.0
  0
LINE
  5
4824
330
1F
100
AcDbEntity
  8
圖層1輪廓線
100
AcDbLine
 10
7417.731263768233
 20
2393.070414545765
 30
0.0
 11
7417.731263768233
 21
2390.070414545765
 31
0.0
  0
LINE
  5
4825
330
1F
100
AcDbEntity
  8
圖層1輪廓線
100
AcDbLine
 10
7431.272521127148
 20
2393.070414545765
 30
0.0
 11
7428.22224813178
 21
2390.070414545765
 31
0.0
  0
LINE
  5
4826
330
1F
100
AcDbEntity
  8
圖層1輪廓線
100
AcDbLine
 10
7429.498571968403
 20
2393.070414545765
 30
0.0
 11
7426.448298973034
 21
2390.070414545765
 31
0.0
  0
LINE
  5
4827
330
1F
100
AcDbEntity
  8
圖層1輪廓線
100
AcDbLine
 10
7417.52955784606
 20
2402.070414545765
 30
0.0
 11
7413.731263768234
 21
2402.070414545765
 31
0.0
  0
LINE
  5
4828
330
1F
100
AcDbEntity
  8
圖層1輪廓線
100
AcDbLine
 10
7419.231263768233
 20
2404.070414545765
 30
0.0
 11
7417.52955784606
 21
2403.087934173517
 31
0.0
  0
ARC
  5
4829
330
1F
100
AcDbEntity
  8
圖層1輪廓線
100
AcDbCircle
 10
7420.704984326604
 20
2398.447604499233
 30
0.0
 40
5.622810046531069
100
AcDbArc
 50
55.61575253196838
 51
124.3842474680316
  0
LINE
  5
482A
330
1F
100
AcDbEntity
  8
圖層1輪廓線
100
AcDbLine
 10
7534.52955784606
 20
2402.070414545765
 30
0.0
 11
7442.932969690405
 21
2402.070414545765
 31
0.0
  0
LINE
  5
482B
330
1F
100
AcDbEntity
  8
圖層1輪廓線
100
AcDbLine
 10
7436.582116729319
 20
2403.087934173517
 30
0.0
 11
7436.582116729319
 21
2393.070414545765
 31
0.0
  0
LINE
  5
482C
330
1F
100
AcDbEntity
  8
圖層1輪廓線
100
AcDbLine
 10
7442.932969690405
 20
2403.087934173518
 30
0.0
 11
7442.932969690405
 21
2393.070414545765
 31
0.0
  0
LINE
  5
482D
330
1F
100
AcDbEntity
  8
圖層1輪廓線
100
AcDbLine
 10
7455.731263768233
 20
2402.070414545765
 30
0.0
 11
7455.731263768233
 21
2390.070414545765
 31
0.0
  0
LINE
  5
482E
330
1F
100
AcDbEntity
  8
圖層1輪廓線
100
AcDbLine
 10
7442.731263768234
 20
2393.070414545765
 30
0.0
 11
7442.731263768234
 21
2390.070414545765
 31
0.0
  0
LINE
  5
482F
330
1F
100
AcDbEntity
  8
圖層1輪廓線
100
AcDbLine
 10
7441.231263768234
 20
2404.070414545765
 30
0.0
 11
7442.932969690405
 21
2403.087934173517
 31
0.0
  0
ARC
  5
4830
330
1F
100
AcDbEntity
  8
圖層1輪廓線
100
AcDbCircle
 10
7439.757543209862
 20
2398.447604499233
 30
0.0
 40
5.622810046531069
100
AcDbArc
 50
55.61575253196838
 51
124.3842474680316
  0
LINE
  5
4831
330
1F
100
AcDbEntity
  8
圖層1輪廓線
100
AcDbLine
 10
7521.731263768234
 20
2402.070414545765
 30
0.0
 11
7521.731263768234
 21
2390.070414545765
 31
0.0
  0
LINE
  5
4832
330
1F
100
AcDbEntity
  8
圖層1輪廓線
100
AcDbLine
 10
7540.880410807147
 20
2403.087934173517
 30
0.0
 11
7540.880410807147
 21
2393.070414545765
 31
0.0
  0
LINE
  5
4833
330
1F
100
AcDbEntity
  8
圖層1輪廓線
100
AcDbLine
 10
7534.52955784606
 20
2403.087934173517
 30
0.0
 11
7534.52955784606
 21
2393.070414545765
 31
0.0
  0
LINE
  5
4834
330
1F
100
AcDbEntity
  8
圖層1輪廓線
100
AcDbLine
 10
7553.58211672932
 20
2403.087934173517
 30
0.0
 11
7553.58211672932
 21
2393.070414545765
 31
0.0
  0
LINE
  5
4835
330
1F
100
AcDbEntity
  8
圖層1輪廓線
100
AcDbLine
 10
7534.731263768233
 20
2393.070414545765
 30
0.0
 11
7534.731263768233
 21
2390.070414545765
 31
0.0
  0
LINE
  5
4836
330
1F
100
AcDbEntity
  8
圖層1輪廓線
100
AcDbLine
 10
7546.498571968403
 20
2393.070414545765
 30
0.0
 11
7543.448298973032
 21
2390.070414545765
 31
0.0
  0
LINE
  5
4837
330
1F
100
AcDbEntity
  8
圖層1輪廓線
100
AcDbLine
 10
7548.272521127149
 20
2393.070414545765
 30
0.0
 11
7545.222248131778
 21
2390.070414545765
 31
0.0
  0
ARC
  5
4838
330
1F
100
AcDbEntity
  8
圖層1輪廓線
100
AcDbCircle
 10
7537.704984326603
 20
2398.447604499233
 30
0.0
 40
5.622810046531069
100
AcDbArc
 50
55.61575253196838
 51
124.3842474680316
  0
LINE
  5
4839
330
1F
100
AcDbEntity
  8
圖層1輪廓線
100
AcDbLine
 10
7536.231263768233
 20
2404.070414545765
 30
0.0
 11
7534.52955784606
 21
2403.087934173517
 31
0.0
  0
ARC
  5
483A
330
1F
100
AcDbEntity
  8
圖層1輪廓線
100
AcDbCircle
 10
7547.231263768233
 20
2383.052894918012
 30
0.0
 40
21.01751962775257
100
AcDbArc
 50
72.4120462260324
 51
107.5879537739676
  0
LINE
  5
483B
330
1F
100
AcDbEntity
  8
圖層1輪廓線
100
AcDbLine
 10
7437.231263768234
 20
2421.070414545765
 30
0.0
 11
7423.231263768234
 21
2421.070414545765
 31
0.0
  0
LINE
  5
483C
330
1F
100
AcDbEntity
  8
圖層1輪廓線
100
AcDbLine
 10
7436.231263768234
 20
2422.070414545765
 30
0.0
 11
7424.231263768233
 21
2422.070414545765
 31
0.0
  0
LINE
  5
483D
330
1F
100
AcDbEntity
  8
圖層1輪廓線
100
AcDbLine
 10
7424.231263768233
 20
2422.070414545765
 30
0.0
 11
7423.231263768234
 21
2421.070414545765
 31
0.0
  0
LINE
  5
483E
330
1F
100
AcDbEntity
  8
圖層1輪廓線
100
AcDbLine
 10
7517.731263768233
 20
2434.070414545765
 30
0.0
 11
7459.731263768233
 21
2434.070414545765
 31
0.0
  0
LINE
  5
483F
330
1F
100
AcDbEntity
  8
圖層1輪廓線
100
AcDbLine
 10
7436.231263768234
 20
2422.070414545765
 30
0.0
 11
7437.231263768234
 21
2421.070414545765
 31
0.0
  0
LINE
  5
4840
330
1F
100
AcDbEntity
  8
圖層1輪廓線
100
AcDbLine
 10
7541.231263768233
 20
2422.070414545765
 30
0.0
 11
7540.231263768234
 21
2421.070414545765
 31
0.0
  0
LINE
  5
4841
330
1F
100
AcDbEntity
  8
圖層1輪廓線
100
AcDbLine
 10
7553.231263768234
 20
2422.070414545765
 30
0.0
 11
7554.231263768234
 21
2421.070414545765
 31
0.0
  0
LINE
  5
4842
330
1F
100
AcDbEntity
  8
圖層1輪廓線
100
AcDbLine
 10
7554.231263768234
 20
2421.070414545765
 30
0.0
 11
7540.231263768234
 21
2421.070414545765
 31
0.0
  0
LINE
  5
4843
330
1F
100
AcDbEntity
  8
圖層1輪廓線
100
AcDbLine
 10
7553.231263768234
 20
2422.070414545765
 30
0.0
 11
7541.231263768233
 21
2422.070414545765
 31
0.0
  0
LINE
  5
4844
330
1F
100
AcDbEntity
  8
圖層1輪廓線
100
AcDbLine
 10
7563.731263768234
 20
2402.070414545765
 30
0.0
 11
7563.731263768234
 21
2370.070414545765
 31
0.0
  0
LINE
  5
4845
330
1F
100
AcDbEntity
  8
圖層1輪廓線
100
AcDbLine
 10
7559.932969690405
 20
2403.087934173518
 30
0.0
 11
7559.932969690405
 21
2393.070414545765
 31
0.0
  0
LINE
  5
4846
330
1F
100
AcDbEntity
  8
圖層1輪廓線
100
AcDbLine
 10
7559.731263768234
 20
2393.070414545765
 30
0.0
 11
7559.731263768234
 21
2390.070414545765
 31
0.0
  0
LINE
  5
4847
330
1F
100
AcDbEntity
  8
圖層1輪廓線
100
AcDbLine
 10
7558.231263768234
 20
2404.070414545765
 30
0.0
 11
7559.932969690405
 21
2403.087934173517
 31
0.0
  0
LINE
  5
4848
330
1F
100
AcDbEntity
  8
圖層1輪廓線
100
AcDbLine
 10
7563.731263768234
 20
2402.070414545765
 30
0.0
 11
7559.932969690405
 21
2402.070414545765
 31
0.0
  0
LINE
  5
4849
330
1F
100
AcDbEntity
  8
圖層1輪廓線
100
AcDbLine
 10
7423.981263768233
 20
2178.070414545765
 30
0.0
 11
7423.981263768233
 21
2166.070414545765
 31
0.0
  0
LINE
  5
484A
330
1F
100
AcDbEntity
  8
圖層1輪廓線
100
AcDbLine
 10
7436.481263768233
 20
2178.070414545765
 30
0.0
 11
7436.481263768233
 21
2166.070414545765
 31
0.0
  0
LINE
  5
484B
330
1F
100
AcDbEntity
  8
圖層1輪廓線
100
AcDbLine
 10
7540.981263768232
 20
2178.070414545765
 30
0.0
 11
7540.981263768232
 21
2166.070414545765
 31
0.0
  0
LINE
  5
484C
330
1F
100
AcDbEntity
  8
圖層1輪廓線
100
AcDbLine
 10
7553.481263768232
 20
2178.070414545765
 30
0.0
 11
7553.481263768232
 21
2166.070414545765
 31
0.0
  0
LINE
  5
484D
330
1F
100
AcDbEntity
  8
圖層1輪廓線
100
AcDbLine
 10
7520.731263768233
 20
2589.070414545765
 30
0.0
 11
7520.731263768233
 21
2402.070414545765
 31
0.0
  0
LINE
  5
484E
330
1F
100
AcDbEntity
  8
圖層1輪廓線
100
AcDbLine
 10
7456.731263768233
 20
2402.070414545765
 30
0.0
 11
7456.731263768233
 21
2589.070414545765
 31
0.0
  0
LINE
  5
484F
330
1F
100
AcDbEntity
  8
圖層1輪廓線
100
AcDbLine
 10
7518.731263768234
 20
2589.070414545765
 30
0.0
 11
7518.731263768234
 21
2402.070414545765
 31
0.0
  0
LINE
  5
4850
330
1F
100
AcDbEntity
  8
圖層1輪廓線
100
AcDbLine
 10
7458.731263768233
 20
2402.070414545765
 30
0.0
 11
7458.731263768233
 21
2589.070414545765
 31
0.0
  0
LINE
  5
4851
330
1F
100
AcDbEntity
  8
圖層1輪廓線
100
AcDbLine
 10
7503.731263768234
 20
2438.070414545765
 30
0.0
 11
7503.731263768234
 21
2532.570414545765
 31
0.0
  0
LINE
  5
4852
330
1F
100
AcDbEntity
  8
圖層1輪廓線
100
AcDbLine
 10
7473.731263768233
 20
2438.070414545765
 30
0.0
 11
7473.731263768233
 21
2532.570414545765
 31
0.0
  0
LINE
  5
4853
330
1F
100
AcDbEntity
  8
圖層1輪廓線
100
AcDbLine
 10
7464.231263768233
 20
2434.070414545765
 30
0.0
 11
7512.731263768234
 21
2434.070414545765
 31
0.0
  0
LINE
  5
4854
330
1F
100
AcDbEntity
  8
圖層1輪廓線
100
AcDbLine
 10
7464.731263768233
 20
2438.070414545765
 30
0.0
 11
7512.731263768234
 21
2438.070414545765
 31
0.0
  0
ARC
  5
4855
330
1F
100
AcDbEntity
  8
圖層1輪廓線
100
AcDbCircle
 10
7464.731263768233
 20
2436.070414545765
 30
0.0
 40
2.0
100
AcDbArc
 50
180.0
 51
270.0
  0
ARC
  5
4856
330
1F
100
AcDbEntity
  8
圖層1輪廓線
100
AcDbCircle
 10
7464.731263768233
 20
2436.070414545765
 30
0.0
 40
2.0
100
AcDbArc
 50
90.0
 51
180.0
  0
LINE
  5
4857
330
1F
100
AcDbEntity
  8
圖層1輪廓線
100
AcDbLine
 10
7462.731263768233
 20
2436.070414545765
 30
0.0
 11
7462.731263768233
 21
2436.070414545765
 31
0.0
  0
ARC
  5
4858
330
1F
100
AcDbEntity
  8
圖層1輪廓線
100
AcDbCircle
 10
7512.731263768234
 20
2436.070414545765
 30
0.0
 40
2.0
100
AcDbArc
 50
0.0
 51
90.0
  0
ARC
  5
4859
330
1F
100
AcDbEntity
  8
圖層1輪廓線
100
AcDbCircle
 10
7512.731263768234
 20
2436.070414545765
 30
0.0
 40
2.0
100
AcDbArc
 50
270.0
 51
0.0
  0
LINE
  5
485A
330
1F
100
AcDbEntity
  8
圖層1輪廓線
100
AcDbLine
 10
7514.731263768233
 20
2436.070414545765
 30
0.0
 11
7514.731263768233
 21
2436.070414545765
 31
0.0
  0
LINE
  5
485B
330
1F
100
AcDbEntity
  8
圖層1輪廓線
100
AcDbLine
 10
7516.673012057593
 20
2523.010434320546
 30
0.0
 11
7466.217233309858
 21
2475.85706708734
 31
0.0
  0
LINE
  5
485C
330
1F
100
AcDbEntity
  8
圖層1輪廓線
100
AcDbLine
 10
7513.259049292894
 20
2526.663495809386
 30
0.0
 11
7462.803270545157
 21
2479.51012857618
 31
0.0
  0
LINE
  5
485D
330
1F
100
AcDbEntity
  8
圖層1輪廓線
100
AcDbLine
 10
7462.173151385511
 20
2576.070414545765
 30
0.0
 11
7462.173151385511
 21
2552.070414545765
 31
0.0
  0
LINE
  5
485E
330
1F
100
AcDbEntity
  8
圖層1輪廓線
100
AcDbLine
 10
7475.452207576871
 20
2576.070414545765
 30
0.0
 11
7475.452207576871
 21
2552.070414545765
 31
0.0
  0
LINE
  5
485F
330
1F
100
AcDbEntity
  8
圖層1輪廓線
100
AcDbLine
 10
7515.289376150956
 20
2576.070414545765
 30
0.0
 11
7515.289376150956
 21
2552.070414545765
 31
0.0
  0
LINE
  5
4860
330
1F
100
AcDbEntity
  8
圖層1輪廓線
100
AcDbLine
 10
7502.010319959594
 20
2576.070414545765
 30
0.0
 11
7502.010319959594
 21
2552.070414545765
 31
0.0
  0
LINE
  5
4861
330
1F
100
AcDbEntity
  8
圖層1輪廓線
100
AcDbLine
 10
7465.731263768233
 20
2534.070414545765
 30
0.0
 11
7511.731263768233
 21
2534.070414545765
 31
0.0
  0
ARC
  5
4862
330
1F
100
AcDbEntity
  8
圖層1輪廓線
100
AcDbCircle
 10
7488.731263768234
 20
2579.959303434657
 30
0.0
 40
30.88888888889164
100
AcDbArc
 50
244.5389444232198
 51
295.4610555767802
  0
LINE
  5
4863
330
1F
100
AcDbEntity
  8
圖層1輪廓線
100
AcDbLine
 10
7468.812679481191
 20
2549.070414545765
 30
0.0
 11
7508.649848055275
 21
2549.070414545765
 31
0.0
  0
LINE
  5
4864
330
1F
100
AcDbEntity
  8
圖層1輪廓線
100
AcDbLine
 10
7503.731263768234
 20
2532.570414545765
 30
0.0
 11
7473.731263768233
 21
2532.570414545765
 31
0.0
  0
LINE
  5
4865
330
1F
100
AcDbEntity
  8
圖層1輪廓線
100
AcDbLine
 10
7502.231263768234
 20
2534.070414545765
 30
0.0
 11
7475.231263768233
 21
2534.070414545765
 31
0.0
  0
ARC
  5
4866
330
1F
100
AcDbEntity
  8
圖層1輪廓線
100
AcDbCircle
 10
7468.812679481191
 20
2557.917636767987
 30
0.0
 40
8.84722222222258
100
AcDbArc
 50
221.3693510925612
 51
318.6306489074389
  0
LINE
  5
4867
330
1F
100
AcDbEntity
  8
圖層1輪廓線
100
AcDbLine
 10
7465.731263768233
 20
2549.62437334197
 30
0.0
 11
7465.731263768233
 21
2534.070414545765
 31
0.0
  0
LINE
  5
4868
330
1F
100
AcDbEntity
  8
圖層1輪廓線
100
AcDbLine
 10
7473.731263768233
 20
2532.570414545765
 30
0.0
 11
7475.231263768233
 21
2534.070414545765
 31
0.0
  0
LINE
  5
4869
330
1F
100
AcDbEntity
  8
圖層1輪廓線
100
AcDbLine
 10
7475.231263768233
 20
2534.070414545765
 30
0.0
 11
7477.231263768233
 21
2534.070414545765
 31
0.0
  0
LINE
  5
486A
330
1F
100
AcDbEntity
  8
圖層1輪廓線
100
AcDbLine
 10
7475.231263768233
 20
2534.070414545765
 30
0.0
 11
7477.231263768233
 21
2534.070414545765
 31
0.0
  0
ARC
  5
486B
330
1F
100
AcDbEntity
  8
圖層1輪廓線
100
AcDbCircle
 10
7508.649848055275
 20
2557.917636767987
 30
0.0
 40
8.847222222222258
100
AcDbArc
 50
221.3693510925612
 51
318.6306489074389
  0
LINE
  5
486C
330
1F
100
AcDbEntity
  8
圖層1輪廓線
100
AcDbLine
 10
7503.731263768234
 20
2532.570414545765
 30
0.0
 11
7502.231263768234
 21
2534.070414545765
 31
0.0
  0
LINE
  5
486D
330
1F
100
AcDbEntity
  8
圖層1輪廓線
100
AcDbLine
 10
7502.231263768234
 20
2534.070414545765
 30
0.0
 11
7500.231263768234
 21
2534.070414545765
 31
0.0
  0
LINE
  5
486E
330
1F
100
AcDbEntity
  8
圖層1輪廓線
100
AcDbLine
 10
7511.731263768233
 20
2549.62437334197
 30
0.0
 11
7511.731263768233
 21
2534.070414545765
 31
0.0
  0
LINE
  5
486F
330
1F
100
AcDbEntity
  8
圖層1輪廓線
100
AcDbLine
 10
7456.731263768233
 20
2589.070414545765
 30
0.0
 11
7520.731263768233
 21
2589.070414545765
 31
0.0
  0
ARC
  5
4870
330
1F
100
AcDbEntity
  8
圖層1輪廓線
100
AcDbCircle
 10
7488.731263768234
 20
2548.181525656873
 30
0.0
 40
30.88888888889169
100
AcDbArc
 50
64.5389444232198
 51
115.4610555767802
  0
LINE
  5
4871
330
1F
100
AcDbEntity
  8
圖層1輪廓線
100
AcDbLine
 10
7468.812679481191
 20
2579.070414545765
 30
0.0
 11
7508.649848055275
 21
2579.070414545765
 31
0.0
  0
ARC
  5
4872
330
1F
100
AcDbEntity
  8
圖層1輪廓線
100
AcDbCircle
 10
7488.731263768231
 20
2624.153747879104
 30
0.0
 40
45.08333333333824
100
AcDbArc
 50
252.8697633249418
 51
287.1302366750582
  0
ARC
  5
4873
330
1F
100
AcDbEntity
  8
圖層1輪廓線
100
AcDbCircle
 10
7488.731263768234
 20
2543.987081212428
 30
0.0
 40
45.08333333333623
100
AcDbArc
 50
72.86976332494181
 51
107.1302366750582
  0
LINE
  5
4874
330
1F
100
AcDbEntity
  8
圖層1輪廓線
100
AcDbLine
 10
7468.812679481191
 20
2589.070414545765
 30
0.0
 11
7508.649848055276
 21
2589.070414545765
 31
0.0
  0
LINE
  5
4875
330
1F
100
AcDbEntity
  8
圖層1輪廓線
100
AcDbLine
 10
7468.812679481191
 20
2579.070414545765
 30
0.0
 11
7508.649848055275
 21
2579.070414545765
 31
0.0
  0
LINE
  5
4876
330
1F
100
AcDbEntity
  8
圖層1輪廓線
100
AcDbLine
 10
7500.231263768234
 20
2589.070414545765
 30
0.0
 11
7477.231263768233
 21
2589.070414545765
 31
0.0
  0
ARC
  5
4877
330
1F
100
AcDbEntity
  8
圖層1輪廓線
100
AcDbCircle
 10
7468.812679481191
 20
2570.223192323541
 30
0.0
 40
8.847222222222624
100
AcDbArc
 50
41.36935109256115
 51
138.6306489074388
  0
ARC
  5
4878
330
1F
100
AcDbEntity
  8
圖層1輪廓線
100
AcDbCircle
 10
7468.812679481191
 20
2577.049581212432
 30
0.0
 40
12.02083333333346
100
AcDbArc
 50
56.47264195073179
 51
123.5273580492682
  0
ARC
  5
4879
330
1F
100
AcDbEntity
  8
圖層1輪廓線
100
AcDbCircle
 10
7468.812679481191
 20
2591.091247879098
 30
0.0
 40
12.02083333333334
100
AcDbArc
 50
236.4726419507317
 51
303.5273580492682
  0
LINE
  5
487A
330
1F
100
AcDbEntity
  8
圖層1輪廓線
100
AcDbLine
 10
7475.452207576871
 20
2581.070414545764
 30
0.0
 11
7475.452207576871
 21
2587.070414545765
 31
0.0
  0
LINE
  5
487B
330
1F
100
AcDbEntity
  8
圖層1輪廓線
100
AcDbLine
 10
7462.173151385511
 20
2581.070414545765
 30
0.0
 11
7462.173151385511
 21
2587.070414545765
 31
0.0
  0
ARC
  5
487C
330
1F
100
AcDbEntity
  8
圖層1輪廓線
100
AcDbCircle
 10
7508.649848055276
 20
2570.223192323542
 30
0.0
 40
8.847222222222258
100
AcDbArc
 50
41.36935109256115
 51
138.6306489074388
  0
ARC
  5
487D
330
1F
100
AcDbEntity
  8
圖層1輪廓線
100
AcDbCircle
 10
7508.649848055275
 20
2591.091247879098
 30
0.0
 40
12.02083333333321
100
AcDbArc
 50
236.4726419507317
 51
303.5273580492682
  0
ARC
  5
487E
330
1F
100
AcDbEntity
  8
圖層1輪廓線
100
AcDbCircle
 10
7508.649848055276
 20
2577.049581212433
 30
0.0
 40
12.02083333333214
100
AcDbArc
 50
56.47264195073179
 51
123.5273580492682
  0
LINE
  5
487F
330
1F
100
AcDbEntity
  8
圖層1輪廓線
100
AcDbLine
 10
7502.010319959594
 20
2581.070414545765
 30
0.0
 11
7502.010319959594
 21
2587.070414545764
 31
0.0
  0
LINE
  5
4880
330
1F
100
AcDbEntity
  8
圖層1輪廓線
100
AcDbLine
 10
7515.289376150954
 20
2581.070414545765
 30
0.0
 11
7515.289376150954
 21
2587.070414545765
 31
0.0
  0
LINE
  5
4881
330
1F
100
AcDbEntity
  8
圖層1輪廓線
100
AcDbLine
 10
7456.731263768233
 20
2402.070414545765
 30
0.0
 11
7520.731263768233
 21
2402.070414545765
 31
0.0
  0
LINE
  5
4882
330
1F
100
AcDbEntity
  8
圖層1輪廓線
100
AcDbLine
 10
8163.331059155458
 20
2589.070414545765
 30
0.0
 11
8163.331059155458
 21
2402.070414545765
 31
0.0
  0
LINE
  5
4883
330
1F
100
AcDbEntity
  8
圖層1輪廓線
100
AcDbLine
 10
8099.331059155458
 20
2402.070414545765
 30
0.0
 11
8099.331059155458
 21
2589.070414545765
 31
0.0
  0
LINE
  5
4884
330
1F
100
AcDbEntity
  8
圖層1輪廓線
100
AcDbLine
 10
8161.331059155457
 20
2589.070414545765
 30
0.0
 11
8161.331059155457
 21
2402.070414545765
 31
0.0
  0
LINE
  5
4885
330
1F
100
AcDbEntity
  8
圖層1輪廓線
100
AcDbLine
 10
8101.331059155459
 20
2402.070414545765
 30
0.0
 11
8101.331059155459
 21
2589.070414545765
 31
0.0
  0
LINE
  5
4886
330
1F
100
AcDbEntity
  8
圖層1輪廓線
100
AcDbLine
 10
8116.331059155458
 20
2438.070414545765
 30
0.0
 11
8116.331059155458
 21
2532.570414545765
 31
0.0
  0
LINE
  5
4887
330
1F
100
AcDbEntity
  8
圖層1輪廓線
100
AcDbLine
 10
8146.331059155459
 20
2438.070414545765
 30
0.0
 11
8146.331059155459
 21
2532.570414545765
 31
0.0
  0
LINE
  5
4888
330
1F
100
AcDbEntity
  8
圖層1輪廓線
100
AcDbLine
 10
8107.331059155459
 20
2434.070414545765
 30
0.0
 11
8155.331059155457
 21
2434.070414545765
 31
0.0
  0
LINE
  5
4889
330
1F
100
AcDbEntity
  8
圖層1輪廓線
100
AcDbLine
 10
8107.331059155459
 20
2438.070414545765
 30
0.0
 11
8155.331059155457
 21
2438.070414545765
 31
0.0
  0
ARC
  5
488A
330
1F
100
AcDbEntity
  8
圖層1輪廓線
100
AcDbCircle
 10
8107.331059155459
 20
2436.070414545765
 30
0.0
 40
2.0
100
AcDbArc
 50
180.0
 51
270.0
  0
ARC
  5
488B
330
1F
100
AcDbEntity
  8
圖層1輪廓線
100
AcDbCircle
 10
8107.331059155459
 20
2436.070414545765
 30
0.0
 40
2.0
100
AcDbArc
 50
90.0
 51
180.0
  0
LINE
  5
488C
330
1F
100
AcDbEntity
  8
圖層1輪廓線
100
AcDbLine
 10
8105.331059155458
 20
2436.070414545765
 30
0.0
 11
8105.331059155458
 21
2436.070414545765
 31
0.0
  0
ARC
  5
488D
330
1F
100
AcDbEntity
  8
圖層1輪廓線
100
AcDbCircle
 10
8155.331059155457
 20
2436.070414545765
 30
0.0
 40
2.0
100
AcDbArc
 50
270.0
 51
0.0
  0
ARC
  5
488E
330
1F
100
AcDbEntity
  8
圖層1輪廓線
100
AcDbCircle
 10
8155.331059155457
 20
2436.070414545765
 30
0.0
 40
2.0
100
AcDbArc
 50
0.0
 51
90.0
  0
LINE
  5
488F
330
1F
100
AcDbEntity
  8
圖層1輪廓線
100
AcDbLine
 10
8157.331059155458
 20
2436.070414545765
 30
0.0
 11
8157.331059155458
 21
2436.070414545765
 31
0.0
  0
LINE
  5
4890
330
1F
100
AcDbEntity
  8
圖層1輪廓線
100
AcDbLine
 10
8158.230679722
 20
2522.399682649731
 30
0.0
 11
8109.643861103487
 21
2481.657458855091
 31
0.0
  0
LINE
  5
4891
330
1F
100
AcDbEntity
  8
圖層1輪廓線
100
AcDbLine
 10
8155.017989274471
 20
2526.230951380627
 30
0.0
 11
8106.431170655955
 21
2485.488727585988
 31
0.0
  0
LINE
  5
4892
330
1F
100
AcDbEntity
  8
圖層1輪廓線
100
AcDbLine
 10
8099.331059155458
 20
2589.070414545765
 30
0.0
 11
8163.331059155458
 21
2589.070414545765
 31
0.0
  0
ARC
  5
4893
330
1F
100
AcDbEntity
  8
圖層1輪廓線
100
AcDbCircle
 10
8119.831059155458
 20
2555.528747879098
 30
0.0
 40
23.54166666666703
100
AcDbArc
 50
60.75825202273033
 51
119.2417479772696
  0
LINE
  5
4894
330
1F
100
AcDbEntity
  8
圖層1輪廓線
100
AcDbLine
 10
8108.331059155458
 20
2534.070414545765
 30
0.0
 11
8154.331059155458
 21
2534.070414545765
 31
0.0
  0
LINE
  5
4895
330
1F
100
AcDbEntity
  8
圖層1輪廓線
100
AcDbLine
 10
8108.331059155458
 20
2549.070414545765
 30
0.0
 11
8154.331059155458
 21
2549.070414545765
 31
0.0
  0
ARC
  5
4896
330
1F
100
AcDbEntity
  8
圖層1輪廓線
100
AcDbCircle
 10
8119.831059155458
 20
2572.612081212433
 30
0.0
 40
23.54166666666754
100
AcDbArc
 50
240.7582520227367
 51
299.2417479772697
  0
ARC
  5
4897
330
1F
100
AcDbEntity
  8
圖層1輪廓線
100
AcDbCircle
 10
8119.831059155458
 20
2613.132914545763
 30
0.0
 40
34.06249999999821
100
AcDbArc
 50
250.2683861138499
 51
289.7316138861501
  0
ARC
  5
4898
330
1F
100
AcDbEntity
  8
圖層1輪廓線
100
AcDbCircle
 10
8119.831059155458
 20
2555.007914545764
 30
0.0
 40
34.06250000000099
100
AcDbArc
 50
70.26838611384992
 51
109.73161388615
  0
LINE
  5
4899
330
1F
100
AcDbEntity
  8
圖層1輪廓線
100
AcDbLine
 10
8108.331059155458
 20
2576.070414545765
 30
0.0
 11
8108.331059155458
 21
2534.070414545765
 31
0.0
  0
LINE
  5
489A
330
1F
100
AcDbEntity
  8
圖層1輪廓線
100
AcDbLine
 10
8108.331059155458
 20
2581.070414545765
 30
0.0
 11
8108.331059155458
 21
2587.070414545765
 31
0.0
  0
LINE
  5
489B
330
1F
100
AcDbEntity
  8
圖層1輪廓線
100
AcDbLine
 10
8154.331059155458
 20
2576.070414545765
 30
0.0
 11
8154.331059155458
 21
2534.070414545765
 31
0.0
  0
LINE
  5
489C
330
1F
100
AcDbEntity
  8
圖層1輪廓線
100
AcDbLine
 10
8131.331059155458
 20
2576.070414545765
 30
0.0
 11
8131.331059155456
 21
2552.070414545766
 31
0.0
  0
ARC
  5
489D
330
1F
100
AcDbEntity
  8
圖層1輪廓線
100
AcDbCircle
 10
8142.831059155458
 20
2572.612081212432
 30
0.0
 40
23.54166666666653
100
AcDbArc
 50
240.7582520227303
 51
299.2417479772697
  0
LINE
  5
489E
330
1F
100
AcDbEntity
  8
圖層1輪廓線
100
AcDbLine
 10
8144.831059155459
 20
2534.070414545765
 30
0.0
 11
8117.831059155458
 21
2534.070414545765
 31
0.0
  0
LINE
  5
489F
330
1F
100
AcDbEntity
  8
圖層1輪廓線
100
AcDbLine
 10
8146.331059155459
 20
2532.570414545765
 30
0.0
 11
8116.331059155458
 21
2532.570414545765
 31
0.0
  0
LINE
  5
48A0
330
1F
100
AcDbEntity
  8
圖層1輪廓線
100
AcDbLine
 10
8117.831059155458
 20
2534.070414545765
 30
0.0
 11
8119.831059155458
 21
2534.070414545765
 31
0.0
  0
LINE
  5
48A1
330
1F
100
AcDbEntity
  8
圖層1輪廓線
100
AcDbLine
 10
8117.831059155458
 20
2534.070414545765
 30
0.0
 11
8119.831059155458
 21
2534.070414545765
 31
0.0
  0
LINE
  5
48A2
330
1F
100
AcDbEntity
  8
圖層1輪廓線
100
AcDbLine
 10
8116.331059155458
 20
2532.570414545765
 30
0.0
 11
8117.831059155458
 21
2534.070414545765
 31
0.0
  0
LINE
  5
48A3
330
1F
100
AcDbEntity
  8
圖層1輪廓線
100
AcDbLine
 10
8144.831059155459
 20
2534.070414545765
 30
0.0
 11
8142.831059155458
 21
2534.070414545765
 31
0.0
  0
LINE
  5
48A4
330
1F
100
AcDbEntity
  8
圖層1輪廓線
100
AcDbLine
 10
8146.331059155459
 20
2532.570414545765
 30
0.0
 11
8144.831059155459
 21
2534.070414545765
 31
0.0
  0
LINE
  5
48A5
330
1F
100
AcDbEntity
  8
圖層1輪廓線
100
AcDbLine
 10
8119.831059155458
 20
2579.070414545765
 30
0.0
 11
8142.831059155456
 21
2579.070414545765
 31
0.0
  0
ARC
  5
48A6
330
1F
100
AcDbEntity
  8
圖層1輪廓線
100
AcDbCircle
 10
8142.831059155458
 20
2555.5287478791
 30
0.0
 40
23.54166666666563
100
AcDbArc
 50
60.75825202273033
 51
119.2417479772696
  0
ARC
  5
48A7
330
1F
100
AcDbEntity
  8
圖層1輪廓線
100
AcDbCircle
 10
8142.831059155458
 20
2555.007914545766
 30
0.0
 40
34.06249999999879
100
AcDbArc
 50
70.26838611384992
 51
109.73161388615
  0
ARC
  5
48A8
330
1F
100
AcDbEntity
  8
圖層1輪廓線
100
AcDbCircle
 10
8142.831059155458
 20
2613.132914545764
 30
0.0
 40
34.062499999999
100
AcDbArc
 50
250.2683861138499
 51
289.7316138861501
  0
LINE
  5
48A9
330
1F
100
AcDbEntity
  8
圖層1輪廓線
100
AcDbLine
 10
8118.721932252977
 20
2579.070414545765
 30
0.0
 11
8143.940186057941
 21
2579.070414545765
 31
0.0
  0
LINE
  5
48AA
330
1F
100
AcDbEntity
  8
圖層1輪廓線
100
AcDbLine
 10
8118.721932252974
 20
2589.070414545765
 30
0.0
 11
8143.940186057937
 21
2589.070414545765
 31
0.0
  0
LINE
  5
48AB
330
1F
100
AcDbEntity
  8
圖層1輪廓線
100
AcDbLine
 10
8142.831059155458
 20
2589.070414545765
 30
0.0
 11
8119.831059155458
 21
2589.070414545765
 31
0.0
  0
LINE
  5
48AC
330
1F
100
AcDbEntity
  8
圖層1輪廓線
100
AcDbLine
 10
8131.331059155458
 20
2587.070414545765
 30
0.0
 11
8131.331059155458
 21
2581.070414545765
 31
0.0
  0
LINE
  5
48AD
330
1F
100
AcDbEntity
  8
圖層1輪廓線
100
AcDbLine
 10
8154.331059155458
 20
2581.070414545765
 30
0.0
 11
8154.331059155458
 21
2587.070414545765
 31
0.0
  0
LINE
  5
48AE
330
1F
100
AcDbEntity
  8
圖層1輪廓線
100
AcDbLine
 10
8099.331059155458
 20
2402.070414545765
 30
0.0
 11
8163.331059155458
 21
2402.070414545765
 31
0.0
  0
LINE
  5
48AF
330
1F
100
AcDbEntity
  8
圖層1輪廓線
100
AcDbLine
 10
8202.33105915546
 20
2393.070414545765
 30
0.0
 11
8202.33105915546
 21
2390.070414545765
 31
0.0
  0
LINE
  5
48B0
330
1F
100
AcDbEntity
  8
圖層1輪廓線
100
AcDbLine
 10
8206.331059155457
 20
2402.070414545765
 30
0.0
 11
8206.331059155457
 21
2370.070414545765
 31
0.0
  0
LINE
  5
48B1
330
1F
100
AcDbEntity
  8
圖層1輪廓線
100
AcDbLine
 10
8190.872316514372
 20
2393.070414545765
 30
0.0
 11
8187.822043519004
 21
2390.070414545765
 31
0.0
  0
LINE
  5
48B2
330
1F
100
AcDbEntity
  8
圖層1輪廓線
100
AcDbLine
 10
8189.098367355628
 20
2393.070414545765
 30
0.0
 11
8186.048094360257
 21
2390.070414545765
 31
0.0
  0
LINE
  5
48B3
330
1F
100
AcDbEntity
  8
圖層1輪廓線
100
AcDbLine
 10
8177.331059155459
 20
2393.070414545765
 30
0.0
 11
8177.331059155459
 21
2390.070414545765
 31
0.0
  0
LINE
  5
48B4
330
1F
100
AcDbEntity
  8
圖層1輪廓線
100
AcDbLine
 10
8164.331059155458
 20
2402.070414545765
 30
0.0
 11
8164.331059155458
 21
2390.070414545765
 31
0.0
  0
LINE
  5
48B5
330
1F
100
AcDbEntity
  8
圖層1輪廓線
100
AcDbLine
 10
8085.331059155459
 20
2393.070414545765
 30
0.0
 11
8085.331059155459
 21
2390.070414545765
 31
0.0
  0
LINE
  5
48B6
330
1F
100
AcDbEntity
  8
圖層1輪廓線
100
AcDbLine
 10
8098.331059155459
 20
2402.070414545765
 30
0.0
 11
8098.331059155459
 21
2390.070414545765
 31
0.0
  0
LINE
  5
48B7
330
1F
100
AcDbEntity
  8
圖層1輪廓線
100
AcDbLine
 10
8072.098367355627
 20
2393.070414545765
 30
0.0
 11
8069.048094360258
 21
2390.070414545765
 31
0.0
  0
LINE
  5
48B8
330
1F
100
AcDbEntity
  8
圖層1輪廓線
100
AcDbLine
 10
8073.872316514373
 20
2393.070414545765
 30
0.0
 11
8070.822043519003
 21
2390.070414545765
 31
0.0
  0
LINE
  5
48B9
330
1F
100
AcDbEntity
  8
圖層1輪廓線
100
AcDbLine
 10
8060.331059155458
 20
2393.070414545765
 30
0.0
 11
8060.331059155458
 21
2390.070414545765
 31
0.0
  0
LINE
  5
48BA
330
1F
100
AcDbEntity
  8
圖層1輪廓線
100
AcDbLine
 10
8056.331059155459
 20
2402.070414545765
 30
0.0
 11
8056.331059155459
 21
2370.070414545765
 31
0.0
  0
LINE
  5
48BB
330
1F
100
AcDbEntity
  8
圖層1輪廓線
100
AcDbLine
 10
8056.331059155457
 20
2166.070414545765
 30
0.0
 11
8206.331059155457
 21
2166.070414545765
 31
0.0
  0
LINE
  5
48BC
330
1F
100
AcDbEntity
  8
圖層1輪廓線
100
AcDbLine
 10
8206.331059155457
 20
2370.070414545765
 30
0.0
 11
8056.331059155459
 21
2370.070414545765
 31
0.0
  0
LINE
  5
48BD
330
1F
100
AcDbEntity
  8
圖層1輪廓線
100
AcDbLine
 10
8056.331059155457
 20
2370.070414545765
 30
0.0
 11
8206.331059155457
 21
2370.070414545765
 31
0.0
  0
LINE
  5
48BE
330
1F
100
AcDbEntity
  8
圖層1輪廓線
100
AcDbLine
 10
8056.331059155457
 20
2198.070414545765
 30
0.0
 11
8206.331059155457
 21
2198.070414545765
 31
0.0
  0
LINE
  5
48BF
330
1F
100
AcDbEntity
  8
圖層1輪廓線
100
AcDbLine
 10
8066.581059155458
 20
2198.070414545765
 30
0.0
 11
8066.581059155458
 21
2370.070414545765
 31
0.0
  0
LINE
  5
48C0
330
1F
100
AcDbEntity
  8
圖層1輪廓線
100
AcDbLine
 10
8079.081059155459
 20
2198.070414545765
 30
0.0
 11
8079.081059155459
 21
2370.070414545765
 31
0.0
  0
LINE
  5
48C1
330
1F
100
AcDbEntity
  8
圖層1輪廓線
100
AcDbLine
 10
8056.331059155457
 20
2166.070414545765
 30
0.0
 11
8056.331059155457
 21
2198.070414545765
 31
0.0
  0
LINE
  5
48C2
330
1F
100
AcDbEntity
  8
圖層1輪廓線
100
AcDbLine
 10
8056.331059155457
 20
2178.070414545765
 30
0.0
 11
8110.331059155459
 21
2178.070414545765
 31
0.0
  0
LINE
  5
48C3
330
1F
100
AcDbEntity
  8
圖層1輪廓線
100
AcDbLine
 10
8079.081059155459
 20
2178.070414545765
 30
0.0
 11
8079.081059155459
 21
2166.070414545765
 31
0.0
  0
LINE
  5
48C4
330
1F
100
AcDbEntity
  8
圖層1輪廓線
100
AcDbLine
 10
8066.581059155458
 20
2178.070414545765
 30
0.0
 11
8066.581059155458
 21
2166.070414545765
 31
0.0
  0
LINE
  5
48C5
330
1F
100
AcDbEntity
  8
圖層1輪廓線
100
AcDbLine
 10
8098.331059155457
 20
2166.070414545765
 30
0.0
 11
8098.331059155457
 21
2178.070414545765
 31
0.0
  0
LINE
  5
48C6
330
1F
100
AcDbEntity
  8
圖層1輪廓線
100
AcDbLine
 10
8107.576060135464
 20
2390.070414545765
 30
0.0
 11
8056.331059155459
 21
2390.070414545765
 31
0.0
  0
LINE
  5
48C7
330
1F
100
AcDbEntity
  8
圖層1輪廓線
100
AcDbLine
 10
8183.581059155459
 20
2198.070414545765
 30
0.0
 11
8183.581059155459
 21
2370.070414545765
 31
0.0
  0
LINE
  5
48C8
330
1F
100
AcDbEntity
  8
圖層1輪廓線
100
AcDbLine
 10
8196.081059155458
 20
2198.070414545765
 30
0.0
 11
8196.081059155458
 21
2370.070414545765
 31
0.0
  0
LINE
  5
48C9
330
1F
100
AcDbEntity
  8
圖層1輪廓線
100
AcDbLine
 10
8206.331059155457
 20
2166.070414545765
 30
0.0
 11
8206.331059155457
 21
2198.070414545765
 31
0.0
  0
LINE
  5
48CA
330
1F
100
AcDbEntity
  8
圖層1輪廓線
100
AcDbLine
 10
8155.086058175449
 20
2178.070414545765
 30
0.0
 11
8206.331059155457
 21
2178.070414545765
 31
0.0
  0
LINE
  5
48CB
330
1F
100
AcDbEntity
  8
圖層1輪廓線
100
AcDbLine
 10
8164.331059155458
 20
2166.070414545765
 30
0.0
 11
8164.331059155458
 21
2178.070414545765
 31
0.0
  0
LINE
  5
48CC
330
1F
100
AcDbEntity
  8
圖層1輪廓線
100
AcDbLine
 10
8196.081059155456
 20
2178.070414545765
 30
0.0
 11
8196.081059155456
 21
2166.070414545765
 31
0.0
  0
LINE
  5
48CD
330
1F
100
AcDbEntity
  8
圖層1輪廓線
100
AcDbLine
 10
8183.581059155455
 20
2178.070414545765
 30
0.0
 11
8183.581059155455
 21
2166.070414545765
 31
0.0
  0
LINE
  5
48CE
330
1F
100
AcDbEntity
  8
圖層1輪廓線
100
AcDbLine
 10
8206.331059155457
 20
2390.070414545765
 30
0.0
 11
8152.331059155459
 21
2390.070414545765
 31
0.0
  0
LINE
  5
48CF
330
1F
100
AcDbEntity
  8
圖層1輪廓線
100
AcDbLine
 10
8160.331059155458
 20
2434.070414545765
 30
0.0
 11
8102.331059155458
 21
2434.070414545765
 31
0.0
  0
LINE
  5
48D0
330
1F
100
AcDbEntity
  8
圖層1輪廓線
100
AcDbLine
 10
8177.129353233286
 20
2402.070414545765
 30
0.0
 11
8085.532765077628
 21
2402.070414545765
 31
0.0
  0
ARC
  5
48D1
330
1F
100
AcDbEntity
  8
圖層1輪廓線
100
AcDbCircle
 10
8082.357338597084
 20
2398.447604499233
 30
0.0
 40
5.622810046531069
100
AcDbArc
 50
55.61575253196838
 51
124.3842474680316
  0
LINE
  5
48D2
330
1F
100
AcDbEntity
  8
圖層1輪廓線
100
AcDbLine
 10
8083.831059155459
 20
2404.070414545765
 30
0.0
 11
8085.532765077628
 21
2403.087934173517
 31
0.0
  0
LINE
  5
48D3
330
1F
100
AcDbEntity
  8
圖層1輪廓線
100
AcDbLine
 10
8085.532765077628
 20
2393.070414545765
 30
0.0
 11
8060.129353233286
 21
2393.070414545765
 31
0.0
  0
LINE
  5
48D4
330
1F
100
AcDbEntity
  8
圖層1輪廓線
100
AcDbLine
 10
8079.831059155457
 20
2421.070414545765
 30
0.0
 11
8079.831059155457
 21
2404.070414545765
 31
0.0
  0
LINE
  5
48D5
330
1F
100
AcDbEntity
  8
圖層1輪廓線
100
AcDbLine
 10
8079.081059155459
 20
2421.820414545765
 30
0.0
 11
8079.081059155459
 21
2404.070414545765
 31
0.0
  0
LINE
  5
48D6
330
1F
100
AcDbEntity
  8
圖層1輪廓線
100
AcDbLine
 10
8065.831059155458
 20
2421.070414545765
 30
0.0
 11
8065.831059155458
 21
2404.070414545765
 31
0.0
  0
LINE
  5
48D7
330
1F
100
AcDbEntity
  8
圖層1輪廓線
100
AcDbLine
 10
8066.581059155458
 20
2421.820414545765
 30
0.0
 11
8066.581059155458
 21
2404.070414545765
 31
0.0
  0
ARC
  5
48D8
330
1F
100
AcDbEntity
  8
圖層1輪廓線
100
AcDbCircle
 10
8063.304779713828
 20
2398.447604499233
 30
0.0
 40
5.622810046531069
100
AcDbArc
 50
55.61575253196838
 51
124.3842474680316
  0
LINE
  5
48D9
330
1F
100
AcDbEntity
  8
圖層1輪廓線
100
AcDbLine
 10
8061.831059155458
 20
2404.070414545765
 30
0.0
 11
8060.129353233286
 21
2403.087934173517
 31
0.0
  0
LINE
  5
48DA
330
1F
100
AcDbEntity
  8
圖層1輪廓線
100
AcDbLine
 10
8060.129353233286
 20
2402.070414545765
 30
0.0
 11
8056.331059155459
 21
2402.070414545765
 31
0.0
  0
LINE
  5
48DB
330
1F
100
AcDbEntity
  8
圖層1輪廓線
100
AcDbLine
 10
8060.129353233286
 20
2403.087934173517
 30
0.0
 11
8060.129353233286
 21
2393.070414545765
 31
0.0
  0
LINE
  5
48DC
330
1F
100
AcDbEntity
  8
圖層1輪廓線
100
AcDbLine
 10
8079.181912116544
 20
2403.087934173517
 30
0.0
 11
8079.181912116544
 21
2393.070414545765
 31
0.0
  0
LINE
  5
48DD
330
1F
100
AcDbEntity
  8
圖層1輪廓線
100
AcDbLine
 10
8066.48020619437
 20
2403.087934173517
 30
0.0
 11
8066.48020619437
 21
2393.070414545765
 31
0.0
  0
ARC
  5
48DE
330
1F
100
AcDbEntity
  8
圖層1輪廓線
100
AcDbCircle
 10
8072.831059155459
 20
2383.052894918012
 30
0.0
 40
21.01751962775257
100
AcDbArc
 50
72.4120462260324
 51
107.5879537739676
  0
LINE
  5
48DF
330
1F
100
AcDbEntity
  8
圖層1輪廓線
100
AcDbLine
 10
8083.831059155459
 20
2404.070414545765
 30
0.0
 11
8061.831059155458
 21
2404.070414545765
 31
0.0
  0
LINE
  5
48E0
330
1F
100
AcDbEntity
  8
圖層1輪廓線
100
AcDbLine
 10
8078.831059155458
 20
2422.070414545765
 30
0.0
 11
8079.831059155457
 21
2421.070414545765
 31
0.0
  0
LINE
  5
48E1
330
1F
100
AcDbEntity
  8
圖層1輪廓線
100
AcDbLine
 10
8066.831059155459
 20
2422.070414545765
 30
0.0
 11
8065.831059155458
 21
2421.070414545765
 31
0.0
  0
LINE
  5
48E2
330
1F
100
AcDbEntity
  8
圖層1輪廓線
100
AcDbLine
 10
8078.831059155458
 20
2422.070414545765
 30
0.0
 11
8066.831059155459
 21
2422.070414545765
 31
0.0
  0
LINE
  5
48E3
330
1F
100
AcDbEntity
  8
圖層1輪廓線
100
AcDbLine
 10
8079.831059155457
 20
2421.070414545765
 30
0.0
 11
8065.831059155458
 21
2421.070414545765
 31
0.0
  0
LINE
  5
48E4
330
1F
100
AcDbEntity
  8
圖層1輪廓線
100
AcDbLine
 10
8102.331059155458
 20
2434.070414545765
 30
0.0
 11
8102.331059155458
 21
2402.070414545765
 31
0.0
  0
LINE
  5
48E5
330
1F
100
AcDbEntity
  8
圖層1輪廓線
100
AcDbLine
 10
8085.532765077628
 20
2403.087934173518
 30
0.0
 11
8085.532765077628
 21
2393.070414545765
 31
0.0
  0
ARC
  5
48E6
330
1F
100
AcDbEntity
  8
圖層1輪廓線
100
AcDbCircle
 10
8180.304779713827
 20
2398.447604499233
 30
0.0
 40
5.622810046531069
100
AcDbArc
 50
55.61575253196838
 51
124.3842474680316
  0
LINE
  5
48E7
330
1F
100
AcDbEntity
  8
圖層1輪廓線
100
AcDbLine
 10
8200.83105915546
 20
2404.070414545765
 30
0.0
 11
8178.831059155458
 21
2404.070414545765
 31
0.0
  0
LINE
  5
48E8
330
1F
100
AcDbEntity
  8
圖層1輪廓線
100
AcDbLine
 10
8202.532765077629
 20
2393.070414545765
 30
0.0
 11
8177.129353233286
 21
2393.070414545765
 31
0.0
  0
LINE
  5
48E9
330
1F
100
AcDbEntity
  8
圖層1輪廓線
100
AcDbLine
 10
8160.331059155458
 20
2434.070414545765
 30
0.0
 11
8160.331059155458
 21
2402.070414545765
 31
0.0
  0
LINE
  5
48EA
330
1F
100
AcDbEntity
  8
圖層1輪廓線
100
AcDbLine
 10
8178.831059155458
 20
2404.070414545765
 30
0.0
 11
8177.129353233286
 21
2403.087934173517
 31
0.0
  0
LINE
  5
48EB
330
1F
100
AcDbEntity
  8
圖層1輪廓線
100
AcDbLine
 10
8177.129353233286
 20
2403.087934173517
 30
0.0
 11
8177.129353233286
 21
2393.070414545765
 31
0.0
  0
LINE
  5
48EC
330
1F
100
AcDbEntity
  8
圖層1輪廓線
100
AcDbLine
 10
8196.081059155458
 20
2421.820414545765
 30
0.0
 11
8196.081059155458
 21
2404.070414545765
 31
0.0
  0
LINE
  5
48ED
330
1F
100
AcDbEntity
  8
圖層1輪廓線
100
AcDbLine
 10
8196.831059155458
 20
2421.070414545765
 30
0.0
 11
8196.831059155458
 21
2404.070414545765
 31
0.0
  0
LINE
  5
48EE
330
1F
100
AcDbEntity
  8
圖層1輪廓線
100
AcDbLine
 10
8183.581059155459
 20
2421.820414545765
 30
0.0
 11
8183.581059155459
 21
2404.070414545765
 31
0.0
  0
LINE
  5
48EF
330
1F
100
AcDbEntity
  8
圖層1輪廓線
100
AcDbLine
 10
8182.831059155459
 20
2421.070414545765
 30
0.0
 11
8182.831059155459
 21
2404.070414545765
 31
0.0
  0
LINE
  5
48F0
330
1F
100
AcDbEntity
  8
圖層1輪廓線
100
AcDbLine
 10
8200.83105915546
 20
2404.070414545765
 30
0.0
 11
8202.532765077629
 21
2403.087934173517
 31
0.0
  0
ARC
  5
48F1
330
1F
100
AcDbEntity
  8
圖層1輪廓線
100
AcDbCircle
 10
8199.357338597085
 20
2398.447604499233
 30
0.0
 40
5.622810046531069
100
AcDbArc
 50
55.61575253196838
 51
124.3842474680316
  0
ARC
  5
48F2
330
1F
100
AcDbEntity
  8
圖層1輪廓線
100
AcDbCircle
 10
8189.831059155459
 20
2383.052894918012
 30
0.0
 40
21.01751962775257
100
AcDbArc
 50
72.4120462260324
 51
107.5879537739676
  0
LINE
  5
48F3
330
1F
100
AcDbEntity
  8
圖層1輪廓線
100
AcDbLine
 10
8196.181912116543
 20
2403.087934173517
 30
0.0
 11
8196.181912116543
 21
2393.070414545765
 31
0.0
  0
LINE
  5
48F4
330
1F
100
AcDbEntity
  8
圖層1輪廓線
100
AcDbLine
 10
8183.480206194371
 20
2403.087934173517
 30
0.0
 11
8183.480206194371
 21
2393.070414545765
 31
0.0
  0
LINE
  5
48F5
330
1F
100
AcDbEntity
  8
圖層1輪廓線
100
AcDbLine
 10
8206.331059155457
 20
2402.070414545765
 30
0.0
 11
8202.532765077629
 21
2402.070414545765
 31
0.0
  0
LINE
  5
48F6
330
1F
100
AcDbEntity
  8
圖層1輪廓線
100
AcDbLine
 10
8202.532765077629
 20
2403.087934173518
 30
0.0
 11
8202.532765077629
 21
2393.070414545765
 31
0.0
  0
LINE
  5
48F7
330
1F
100
AcDbEntity
  8
圖層1輪廓線
100
AcDbLine
 10
8195.831059155457
 20
2422.070414545765
 30
0.0
 11
8183.831059155458
 21
2422.070414545765
 31
0.0
  0
LINE
  5
48F8
330
1F
100
AcDbEntity
  8
圖層1輪廓線
100
AcDbLine
 10
8196.831059155458
 20
2421.070414545765
 30
0.0
 11
8182.831059155459
 21
2421.070414545765
 31
0.0
  0
LINE
  5
48F9
330
1F
100
AcDbEntity
  8
圖層1輪廓線
100
AcDbLine
 10
8195.831059155457
 20
2422.070414545765
 30
0.0
 11
8196.831059155458
 21
2421.070414545765
 31
0.0
  0
LINE
  5
48FA
330
1F
100
AcDbEntity
  8
圖層1輪廓線
100
AcDbLine
 10
8183.831059155458
 20
2422.070414545765
 30
0.0
 11
8182.831059155459
 21
2421.070414545765
 31
0.0
  0
LINE
  5
48FB
330
1F
100
AcDbEntity
  8
圖層4尺寸線
100
AcDbLine
 10
7285.731263768234
 20
1719.677944902669
 30
0.0
 11
7285.731263768234
 21
1783.677944902669
 31
0.0
  0
CIRCLE
  5
48FC
330
1F
100
AcDbEntity
  8
圖層4尺寸線
100
AcDbCircle
 10
7321.731263768234
 20
1734.677944902669
 30
0.0
 40
9.0
  0
CIRCLE
  5
48FD
330
1F
100
AcDbEntity
  8
圖層4尺寸線
100
AcDbCircle
 10
7321.731263768234
 20
1734.677944902669
 30
0.0
 40
12.0
  0
LINE
  5
48FE
330
1F
100
AcDbEntity
  8
圖層4尺寸線
100
AcDbLine
 10
7361.731263768233
 20
1721.677944902669
 30
0.0
 11
7361.731263768233
 21
1789.677944902669
 31
0.0
  0
LINE
  5
48FF
330
1F
100
AcDbEntity
  8
圖層1輪廓線
100
AcDbLine
 10
7363.731263768234
 20
1789.677944902669
 30
0.0
 11
7363.731263768234
 21
1717.677944902668
 31
0.0
  0
LINE
  5
4900
330
1F
100
AcDbEntity
  8
圖層4尺寸線
100
AcDbLine
 10
7357.731263768234
 20
1783.677944902669
 30
0.0
 11
7357.731263768234
 21
1719.677944902669
 31
0.0
  0
LINE
  5
4901
330
1F
100
AcDbEntity
  8
圖層4尺寸線
100
AcDbLine
 10
7285.731263768234
 20
1719.677944902669
 30
0.0
 11
7359.731263768233
 21
1719.677944902669
 31
0.0
  0
LINE
  5
4902
330
1F
100
AcDbEntity
  8
圖層4尺寸線
100
AcDbLine
 10
7363.731263768234
 20
1717.677944902668
 30
0.0
 11
7285.731263768234
 21
1717.677944902669
 31
0.0
  0
LINE
  5
4903
330
1F
100
AcDbEntity
  8
圖層4尺寸線
100
AcDbLine
 10
7357.731263768234
 20
1719.677944902669
 30
0.0
 11
7285.731263768234
 21
1719.677944902669
 31
0.0
  0
ARC
  5
4904
330
1F
100
AcDbEntity
  8
圖層4尺寸線
100
AcDbCircle
 10
7361.731263768233
 20
1719.677944902669
 30
0.0
 40
2.0
100
AcDbArc
 50
270.0
 51
0.0
  0
ARC
  5
4905
330
1F
100
AcDbEntity
  8
圖層4尺寸線
100
AcDbCircle
 10
7359.731263768233
 20
1721.677944902669
 30
0.0
 40
2.0
100
AcDbArc
 50
270.0
 51
0.0
  0
LINE
  5
4906
330
1F
100
AcDbEntity
  8
圖層4尺寸線
100
AcDbLine
 10
7285.731263768234
 20
1717.677944902669
 30
0.0
 11
7285.731263768234
 21
1719.677944902669
 31
0.0
  0
LINE
  5
4907
330
1F
100
AcDbEntity
  8
圖層4尺寸線
100
AcDbLine
 10
7301.731263768234
 20
1807.677944902669
 30
0.0
 11
7341.731263768235
 21
1807.677944902669
 31
0.0
  0
LINE
  5
4908
330
1F
100
AcDbEntity
  8
圖層4尺寸線
100
AcDbLine
 10
7301.731263768234
 20
1809.677944902669
 30
0.0
 11
7341.731263768235
 21
1809.677944902669
 31
0.0
  0
ARC
  5
4909
330
1F
100
AcDbEntity
  8
圖層4尺寸線
100
AcDbCircle
 10
7321.731263768234
 20
1761.677944902669
 30
0.0
 40
52.00000000000005
100
AcDbArc
 50
67.38013505196659
 51
112.6198649480334
  0
LINE
  5
490A
330
1F
100
AcDbEntity
  8
圖層4尺寸線
100
AcDbLine
 10
7307.731263768234
 20
1798.677944902669
 30
0.0
 11
7335.731263768234
 21
1798.677944902669
 31
0.0
  0
LINE
  5
490B
330
1F
100
AcDbEntity
  8
圖層4尺寸線
100
AcDbLine
 10
7335.731263768234
 20
1786.047855622988
 30
0.0
 11
7307.731263768234
 21
1786.047855622987
 31
0.0
  0
LINE
  5
490C
330
1F
100
AcDbEntity
  8
圖層4尺寸線
100
AcDbLine
 10
7335.731263768234
 20
1793.177944902669
 30
0.0
 11
7307.731263768234
 21
1793.177944902668
 31
0.0
  0
HATCH
  5
490D
330
1F
100
AcDbEntity
  8
圖層4尺寸線
100
AcDbHatch
 10
0.0
 20
0.0
 30
0.0
210
0.0
220
0.0
230
1.0
  2
LINE
 70
     0
 71
     0
 91
        1
 92
        7
 72
     0
 73
     1
 93
        4
 10
7307.731263768234
 20
1793.177944902669
 10
7335.731263768234
 20
1793.177944902669
 10
7335.731263768234
 20
1786.047855622988
 10
7307.731263768234
 20
1786.047855622987
 97
        0
 75
     0
 76
     1
 52
90.0
 41
1.0
 77
     0
 78
     1
 53
90.0
 43
8447.895301616528
 44
1194.736843472411
 45
3.174999999999999
 46
0.0000000000000002
 79
     0
 47
0.1347766415641304
 98
        1
 10
7322.039287441318
 20
1789.981108947145
  0
LINE
  5
490E
330
1F
100
AcDbEntity
  8
圖層4尺寸線
100
AcDbLine
 10
7342.731263768233
 20
1749.677944902669
 30
0.0
 11
7300.731263768233
 21
1749.677944902669
 31
0.0
  0
LINE
  5
490F
330
1F
100
AcDbEntity
  8
圖層4尺寸線
100
AcDbLine
 10
7285.731263768234
 20
1783.677944902669
 30
0.0
 11
7357.731263768234
 21
1783.677944902669
 31
0.0
  0
LINE
  5
4910
330
1F
100
AcDbEntity
  8
圖層4尺寸線
100
AcDbLine
 10
7342.731263768233
 20
1749.677944902669
 30
0.0
 11
7342.731263768233
 21
1734.677944902669
 31
0.0
  0
LINE
  5
4911
330
1F
100
AcDbEntity
  8
圖層4尺寸線
100
AcDbLine
 10
7357.731263768234
 20
1734.677944902669
 30
0.0
 11
7342.731263768233
 21
1734.677944902669
 31
0.0
  0
LINE
  5
4912
330
1F
100
AcDbEntity
  8
圖層4尺寸線
100
AcDbLine
 10
7335.731263768234
 20
1798.677944902669
 30
0.0
 11
7335.731263768234
 21
1783.677944902669
 31
0.0
  0
LINE
  5
4913
330
1F
100
AcDbEntity
  8
圖層4尺寸線
100
AcDbLine
 10
7361.731263768233
 20
1789.677944902669
 30
0.0
 11
7363.731263768234
 21
1789.677944902669
 31
0.0
  0
LINE
  5
4914
330
1F
100
AcDbEntity
  8
圖層4尺寸線
100
AcDbLine
 10
7341.731263768235
 20
1807.677944902669
 30
0.0
 11
7332.731263768234
 21
1807.677944902669
 31
0.0
  0
LINE
  5
4915
330
1F
100
AcDbEntity
  8
圖層4尺寸線
100
AcDbLine
 10
7341.731263768235
 20
1809.677944902669
 30
0.0
 11
7341.731263768235
 21
1807.677944902669
 31
0.0
  0
LINE
  5
4916
330
1F
100
AcDbEntity
  8
圖層4尺寸線
100
AcDbLine
 10
7332.731263768234
 20
1798.677944902669
 30
0.0
 11
7335.731263768234
 21
1798.677944902669
 31
0.0
  0
LINE
  5
4917
330
1F
100
AcDbEntity
  8
圖層4尺寸線
100
AcDbLine
 10
7332.731263768234
 20
1807.677944902669
 30
0.0
 11
7332.731263768234
 21
1798.677944902669
 31
0.0
  0
LINE
  5
4918
330
1F
100
AcDbEntity
  8
圖層4尺寸線
100
AcDbLine
 10
7300.731263768233
 20
1734.677944902669
 30
0.0
 11
7300.731263768233
 21
1749.677944902669
 31
0.0
  0
LINE
  5
4919
330
1F
100
AcDbEntity
  8
圖層4尺寸線
100
AcDbLine
 10
7300.731263768233
 20
1734.677944902669
 30
0.0
 11
7285.731263768234
 21
1734.677944902669
 31
0.0
  0
LINE
  5
491A
330
1F
100
AcDbEntity
  8
圖層4尺寸線
100
AcDbLine
 10
7307.731263768234
 20
1798.677944902668
 30
0.0
 11
7307.731263768234
 21
1783.677944902668
 31
0.0
  0
LINE
  5
491B
330
1F
100
AcDbEntity
  8
圖層4尺寸線
100
AcDbLine
 10
7301.731263768234
 20
1807.677944902669
 30
0.0
 11
7310.731263768234
 21
1807.677944902669
 31
0.0
  0
LINE
  5
491C
330
1F
100
AcDbEntity
  8
圖層4尺寸線
100
AcDbLine
 10
7307.731263768234
 20
1798.677944902668
 30
0.0
 11
7310.731263768234
 21
1798.677944902668
 31
0.0
  0
LINE
  5
491D
330
1F
100
AcDbEntity
  8
圖層4尺寸線
100
AcDbLine
 10
7310.731263768234
 20
1807.677944902669
 30
0.0
 11
7310.731263768234
 21
1798.677944902669
 31
0.0
  0
LINE
  5
491E
330
1F
100
AcDbEntity
  8
圖層4尺寸線
100
AcDbLine
 10
7301.731263768234
 20
1809.677944902669
 30
0.0
 11
7301.731263768234
 21
1807.677944902669
 31
0.0
  0
LINE
  5
491F
330
1F
100
AcDbEntity
  8
圖層2中心線
 62
     1
 48
0.1
100
AcDbLine
 10
8427.331059155456
 20
1732.677944902668
 30
0.0
 11
8451.331059155457
 21
1732.677944902668
 31
0.0
  0
LINE
  5
4920
330
1F
100
AcDbEntity
  8
圖層2中心線
 62
     1
 48
0.1
100
AcDbLine
 10
8439.331059155456
 20
1720.677944902669
 30
0.0
 11
8439.331059155456
 21
1744.677944902668
 31
0.0
  0
LINE
  5
4921
330
1F
100
AcDbEntity
  8
圖層2中心線
 62
     1
 48
0.1
100
AcDbLine
 10
8427.331059155456
 20
1802.677944902669
 30
0.0
 11
8451.331059155457
 21
1802.677944902669
 31
0.0
  0
LINE
  5
4922
330
1F
100
AcDbEntity
  8
圖層2中心線
 62
     1
 48
0.1
100
AcDbLine
 10
8439.331059155456
 20
1790.677944902668
 30
0.0
 11
8439.331059155456
 21
1814.677944902668
 31
0.0
  0
LINE
  5
4923
330
1F
100
AcDbEntity
  8
圖層2中心線
 62
     1
 48
0.1
100
AcDbLine
 10
8427.331059155456
 20
2151.070414545765
 30
0.0
 11
8451.331059155457
 21
2151.070414545765
 31
0.0
  0
LINE
  5
4924
330
1F
100
AcDbEntity
  8
圖層2中心線
 62
     1
 48
0.1
100
AcDbLine
 10
8439.331059155456
 20
2139.070414545765
 30
0.0
 11
8439.331059155456
 21
2163.070414545765
 31
0.0
  0
LINE
  5
4925
330
1F
100
AcDbEntity
  8
圖層2中心線
 62
     1
 48
0.1
100
AcDbLine
 10
8427.331059155456
 20
2116.070414545765
 30
0.0
 11
8451.331059155457
 21
2116.070414545765
 31
0.0
  0
LINE
  5
4926
330
1F
100
AcDbEntity
  8
圖層2中心線
 62
     1
 48
0.1
100
AcDbLine
 10
8439.331059155456
 20
2104.070414545765
 30
0.0
 11
8439.331059155456
 21
2128.070414545765
 31
0.0
  0
LINE
  5
4927
330
1F
100
AcDbEntity
  8
圖層2中心線
 62
     1
 48
0.1
100
AcDbLine
 10
8427.331059155456
 20
2081.070414545765
 30
0.0
 11
8451.331059155457
 21
2081.070414545765
 31
0.0
  0
LINE
  5
4928
330
1F
100
AcDbEntity
  8
圖層2中心線
 62
     1
 48
0.1
100
AcDbLine
 10
8439.331059155456
 20
2069.070414545765
 30
0.0
 11
8439.331059155456
 21
2093.070414545765
 31
0.0
  0
DIMENSION
  5
492F
330
1F
100
AcDbEntity
  8
AM_5
100
AcDbDimension
  2
*D3
 10
7598.731263768233
 20
1657.677944902668
 30
0.0
 11
7488.731263768234
 21
1673.679913406605
 31
0.0
 70
    32
 71
     5
 42
220.0
  3
AM_ISO$0
100
AcDbAlignedDimension
 13
7378.731263768234
 23
1708.501698481497
 33
0.0
 14
7598.731263768233
 24
1706.863995443376
 34
0.0
100
AcDbRotatedDimension
1001
ACAD
1000
DSTYLE
1002
{
1070
    40
1040
1.0
1070
   144
1040
1.0
1002
}
  0
DIMENSION
  5
4930
330
1F
100
AcDbEntity
  8
AM_5
100
AcDbDimension
  2
*D4
 10
7613.731263768234
 20
1607.677944902668
 30
0.0
 11
7488.731263768234
 21
1623.679913406605
 31
0.0
 70
    32
 71
     5
 42
250.0
  3
AM_ISO$0
100
AcDbAlignedDimension
 13
7363.731263768234
 23
1717.677944902668
 33
0.0
 14
7613.731263768234
 24
1717.677944902668
 34
0.0
100
AcDbRotatedDimension
1001
ACAD
1000
DSTYLE
1002
{
1070
    40
1040
1.0
1070
   144
1040
1.0
1002
}
  0
INSERT
  5
4931
330
1F
100
AcDbEntity
  8
AM_5
100
AcDbBlockReference
  2
*S28
 10
0.0
 20
0.0
 30
0.0
  0
TEXT
  5
4932
330
1F
100
AcDbEntity
  8
AM_5
100
AcDbText
 10
7652.554619466148
 20
1663.245979986606
 30
0.0
 40
20.0
  1
4-%%C12
100
AcDbText
  0
DIMENSION
  5
495E
330
1F
100
AcDbEntity
  8
AM_5
100
AcDbDimension
  2
*D5
 10
8276.331059155458
 20
1657.677944902669
 30
0.0
 11
8131.331059155456
 21
1673.679913406606
 31
0.0
 70
    32
 71
     5
 42
290.0
  3
AM_ISO$0
100
AcDbAlignedDimension
 13
7986.331059155457
 23
1704.880337152493
 33
0.0
 14
8276.331059155458
 24
1704.41567440982
 34
0.0
100
AcDbRotatedDimension
1001
ACAD
1000
DSTYLE
1002
{
1070
    40
1040
1.0
1070
   144
1040
1.0
1002
}
  0
DIMENSION
  5
495F
330
1F
100
AcDbEntity
  8
AM_5
100
AcDbDimension
  2
*D6
 10
8451.331059155457
 20
1607.677944902668
 30
0.0
 11
8211.331059155456
 21
1623.677944902668
 31
0.0
 70
    32
 71
     5
 42
480.0
  3
AM_ISO$0
100
AcDbAlignedDimension
 13
7971.331059155456
 23
1717.677944902668
 33
0.0
 14
8451.331059155457
 24
1717.677944902668
 34
0.0
100
AcDbRotatedDimension
1001
ACAD
1000
DSTYLE
1002
{
1070
    40
1040
1.0
1070
   144
1040
1.0
1002
}
  0
DIMENSION
  5
499C
330
1F
100
AcDbEntity
  8
AM_5
100
AcDbDimension
  2
*D7
 10
8511.331059155457
 20
1817.677944902668
 30
0.0
 11
8495.331059155457
 21
1767.67794490267
 31
0.0
 70
    32
 71
     5
 42
100.0
  3
AM_ISO$0
100
AcDbAlignedDimension
 13
8451.331059155457
 23
1717.677944902668
 33
0.0
 14
8451.331059155457
 24
1817.677944902668
 34
0.0
 50
90.0
100
AcDbRotatedDimension
1001
ACAD
1000
DSTYLE
1002
{
1070
    40
1040
1.0
1070
   144
1040
1.0
1002
}
  0
DIMENSION
  5
499D
330
1F
100
AcDbEntity
  8
AM_5
100
AcDbDimension
  2
*D8
 10
8511.331059155457
 20
2166.070414545765
 30
0.0
 11
8495.331059155457
 21
2116.070414545766
 31
0.0
 70
    32
 71
     5
 42
100.0
  3
AM_ISO$0
100
AcDbAlignedDimension
 13
8451.331059155457
 23
2066.070414545765
 33
0.0
 14
8451.331059155457
 24
2166.070414545765
 34
0.0
 50
90.0
100
AcDbRotatedDimension
1001
ACAD
1000
DSTYLE
1002
{
1070
    40
1040
1.0
1070
   144
1040
1.0
1002
}
  0
DIMENSION
  5
499E
330
1F
100
AcDbEntity
  8
AM_5
100
AcDbDimension
  2
*D9
 10
8561.331059155456
 20
2217.677944902669
 30
0.0
 11
8545.331059155456
 21
1967.67794490267
 31
0.0
 70
    32
 71
     5
 42
500.0
  3
AM_ISO$0
100
AcDbAlignedDimension
 13
8451.331059155457
 23
1717.677944902668
 33
0.0
 14
8409.331059155457
 24
2217.677944902669
 34
0.0
 50
90.0
100
AcDbRotatedDimension
1001
ACAD
1000
DSTYLE
1002
{
1070
    40
1040
1.0
1070
   144
1040
1.0
1002
}
  0
DIMENSION
  5
499F
330
1F
100
AcDbEntity
  8
AM_5
100
AcDbDimension
  2
*D10
 10
8411.331059155456
 20
1941.874179724216
 30
0.0
 11
8462.338933171205
 21
1941.874179724216
 31
0.0
 70
   160
  1
%%c<>
 71
     5
 42
100.0
  3
AM_ISO$0
100
AcDbAlignedDimension
 13
8311.331059155456
 23
1941.874179724216
 33
0.0
 14
8411.331059155456
 24
1941.874179724217
 34
0.0
100
AcDbRotatedDimension
1001
ACAD
1000
DSTYLE
1002
{
1070
    40
1040
1.0
1070
   144
1040
1.0
1002
}
  0
DIMENSION
  5
4A2E
330
1F
100
AcDbEntity
  8
AM_5
100
AcDbDimension
  2
*D11
 10
8311.331059155456
 20
1941.874179724217
 30
0.0
 11
8221.331059155456
 21
1957.874179724217
 31
0.0
 70
    32
 71
     5
 42
180.0
  3
AM_ISO$0
100
AcDbAlignedDimension
 13
8131.331059155456
 23
2032.51079250158
 33
0.0
 14
8311.331059155456
 24
2066.070414545765
 34
0.0
100
AcDbRotatedDimension
1001
ACAD
1000
DSTYLE
1002
{
1070
    40
1040
1.0
1070
   144
1040
1.0
1002
}
  0
DIMENSION
  5
4A2F
330
1F
100
AcDbEntity
  8
AM_5
100
AcDbDimension
  2
*D12
 10
8256.331059155456
 20
1860.54936422517
 30
0.0
 11
8131.331059155456
 21
1876.551332729107
 31
0.0
 70
    32
 71
     5
 42
250.0
  3
AM_ISO$0
100
AcDbAlignedDimension
 13
8006.331059155456
 23
1812.677944902668
 33
0.0
 14
8256.331059155456
 24
1811.677944902669
 34
0.0
100
AcDbRotatedDimension
1001
ACAD
1000
DSTYLE
1002
{
1070
    40
1040
1.0
1070
   144
1040
1.0
1002
}
  0
DIMENSION
  5
4A75
330
1F
100
AcDbEntity
  8
AM_5
100
AcDbDimension
  2
*D13
 10
7911.331059155457
 20
1817.677944902669
 30
0.0
 11
7895.331059155457
 21
1767.67794490267
 31
0.0
 70
    32
 71
     5
 42
100.0000000000004
  3
AM_ISO$0
100
AcDbAlignedDimension
 13
7971.331059155456
 23
1717.677944902668
 33
0.0
 14
8011.331059155457
 24
1817.677944902669
 34
0.0
 50
90.0
100
AcDbRotatedDimension
1001
ACAD
1000
DSTYLE
1002
{
1070
    40
1040
1.0
1070
   144
1040
1.0
1002
}
  0
DIMENSION
  5
4A76
330
1F
100
AcDbEntity
  8
AM_5
100
AcDbDimension
  2
*D14
 10
7911.331059155457
 20
2046.070414545765
 30
0.0
 11
7895.329090651519
 21
1931.874179724218
 31
0.0
 70
    32
  1
Max. 250
 71
     5
 42
228.3924696430961
  3
AM_ISO$0
100
AcDbAlignedDimension
 13
8011.331059155457
 23
1817.677944902669
 33
0.0
 14
8106.331059155456
 24
2046.070414545765
 34
0.0
 50
90.0
100
AcDbRotatedDimension
1001
ACAD
1000
DSTYLE
1002
{
1070
    40
1040
1.0
1070
   144
1040
1.0
1002
}
  0
DIMENSION
  5
4A78
330
1F
100
AcDbEntity
  8
AM_5
100
AcDbDimension
  2
*D15
 10
7911.331059155457
 20
2589.070414545765
 30
0.0
 11
7895.329090651519
 21
2377.570414545767
 31
0.0
 70
    32
 71
     5
 42
423.0
  3
AM_ISO$0
100
AcDbAlignedDimension
 13
8036.331059155457
 23
2166.070414545765
 33
0.0
 14
8099.331059155458
 24
2589.070414545765
 34
0.0
 50
90.0
100
AcDbRotatedDimension
1001
ACAD
1000
DSTYLE
1002
{
1070
    40
1040
1.0
1070
   144
1040
1.0
1002
}
  0
DIMENSION
  5
4A79
330
1F
100
AcDbEntity
  8
AM_5
100
AcDbDimension
  2
*D16
 10
7861.331059155457
 20
2589.070414545765
 30
0.0
 11
7845.331059155455
 21
2153.374179724218
 31
0.0
 70
    32
  1
Max. 900
 71
     5
 42
871.3924696430964
  3
AM_ISO$0
100
AcDbAlignedDimension
 13
7971.331059155456
 23
1717.677944902668
 33
0.0
 14
8096.331059155458
 24
2589.070414545765
 34
0.0
 50
90.0
100
AcDbRotatedDimension
1001
ACAD
1000
DSTYLE
1002
{
1070
    40
1040
1.0
1070
   144
1040
1.0
1002
}
  0
LINE
  5
5008
330
1F
100
AcDbEntity
  8
圖層1輪廓線
100
AcDbLine
 10
7517.598777227715
 20
2809.473993723678
 30
0.0
 11
7517.598777227715
 21
2881.473993723679
 31
0.0
  0
LINE
  5
5009
330
1F
100
AcDbEntity
  8
圖層1輪廓線
100
AcDbLine
 10
7459.863750308752
 20
2809.473993723678
 30
0.0
 11
7459.863750308752
 21
2881.473993723679
 31
0.0
  0
LINE
  5
500A
330
1F
100
AcDbEntity
  8
圖層1輪廓線
100
AcDbLine
 10
7546.466290687196
 20
2809.473993723678
 30
0.0
 11
7546.466290687196
 21
2881.473993723679
 31
0.0
  0
LINE
  5
500B
330
1F
100
AcDbEntity
  8
圖層1輪廓線
100
AcDbLine
 10
7430.996236849271
 20
2809.473993723678
 30
0.0
 11
7430.996236849271
 21
2881.473993723679
 31
0.0
  0
ARC
  5
500C
330
1F
100
AcDbEntity
  8
圖層1輪廓線
100
AcDbCircle
 10
7445.429993579011
 20
2823.83510483479
 30
0.0
 40
20.36111111111114
100
AcDbArc
 50
224.855450681714
 51
315.144549318286
  0
LINE
  5
500D
330
1F
100
AcDbEntity
  8
圖層1輪廓線
100
AcDbLine
 10
7438.731263768234
 20
2793.473993723678
 30
0.0
 11
7538.731263768234
 21
2793.473993723678
 31
0.0
  0
LINE
  5
500E
330
1F
100
AcDbEntity
  8
圖層1輪廓線
100
AcDbLine
 10
7445.429993579011
 20
2803.473993723678
 30
0.0
 11
7532.032533957455
 21
2803.473993723678
 31
0.0
  0
ARC
  5
500F
330
1F
100
AcDbEntity
  8
圖層1輪廓線
100
AcDbCircle
 10
7488.731263768234
 20
2875.91843816812
 30
0.0
 40
72.44444444444157
100
AcDbArc
 50
246.5169380082317
 51
293.4830619917684
  0
LINE
  5
5010
330
1F
100
AcDbEntity
  8
圖層1輪廓線
100
AcDbLine
 10
7438.731263768234
 20
2793.473993723678
 30
0.0
 11
7438.731263768234
 21
2804.607471995533
 31
0.0
  0
ARC
  5
5011
330
1F
100
AcDbEntity
  8
圖層1輪廓線
100
AcDbCircle
 10
7532.032533957455
 20
2823.835104834789
 30
0.0
 40
20.36111111111082
100
AcDbArc
 50
224.855450681714
 51
315.144549318286
  0
LINE
  5
5012
330
1F
100
AcDbEntity
  8
圖層1輪廓線
100
AcDbLine
 10
7538.731263768234
 20
2793.473993723678
 30
0.0
 11
7538.731263768234
 21
2804.607471995533
 31
0.0
  0
LINE
  5
5013
330
1F
100
AcDbEntity
  8
圖層1輪廓線
100
AcDbLine
 10
7413.096764233698
 20
2881.473993723679
 30
0.0
 11
7566.952779082662
 21
2881.473993723679
 31
0.0
  0
LINE
  5
5014
330
1F
100
AcDbEntity
  8
圖層3虛線
100
AcDbLine
 10
7458.731263768233
 20
2873.473993723678
 30
0.0
 11
7518.731263768234
 21
2873.473993723678
 31
0.0
  0
LINE
  5
5015
330
1F
100
AcDbEntity
  8
圖層3虛線
100
AcDbLine
 10
7458.731263768233
 20
2793.473993723678
 30
0.0
 11
7458.731263768233
 21
2873.473993723678
 31
0.0
  0
LINE
  5
5016
330
1F
100
AcDbEntity
  8
圖層3虛線
100
AcDbLine
 10
7518.731263768234
 20
2793.473993723678
 30
0.0
 11
7518.731263768234
 21
2873.473993723678
 31
0.0
  0
CIRCLE
  5
5017
330
1F
100
AcDbEntity
  8
圖層1輪廓線
100
AcDbCircle
 10
7488.731263768234
 20
2833.473993723679
 30
0.0
 40
10.0
  0
LWPOLYLINE
  5
5018
330
1F
100
AcDbEntity
  8
圖層1輪廓線
100
AcDbPolyline
 90
        6
 70
     1
 43
0.0
 10
7471.525501800948
 20
2824.015429329057
 10
7488.319739833663
 20
2813.844084571231
 10
7505.525501800949
 20
2823.302648965853
 10
7505.937025735518
 20
2842.932558118299
 10
7489.142787702802
 20
2853.103902876125
 10
7471.937025735518
 20
2843.645338481504
  0
CIRCLE
  5
5019
330
1F
100
AcDbEntity
  8
圖層1輪廓線
100
AcDbCircle
 10
7488.731263768234
 20
2833.473993723679
 30
0.0
 40
17.00373529438581
  0
LINE
  5
501A
330
1F
100
AcDbEntity
  8
圖層3虛線
100
AcDbLine
 10
7430.996236849271
 20
2839.473993723678
 30
0.0
 11
7458.731263768233
 21
2839.473993723678
 31
0.0
  0
LINE
  5
501B
330
1F
100
AcDbEntity
  8
圖層3虛線
100
AcDbLine
 10
7430.996236849271
 20
2827.473993723678
 30
0.0
 11
7458.731263768233
 21
2827.473993723678
 31
0.0
  0
LINE
  5
501C
330
1F
100
AcDbEntity
  8
圖層3虛線
100
AcDbLine
 10
7518.731263768234
 20
2839.473993723678
 30
0.0
 11
7546.466290687196
 21
2839.473993723678
 31
0.0
  0
LINE
  5
501D
330
1F
100
AcDbEntity
  8
圖層3虛線
 48
0.2
100
AcDbLine
 10
7518.731263768234
 20
2827.473993723678
 30
0.0
 11
7546.466290687196
 21
2827.473993723678
 31
0.0
  0
LINE
  5
501E
330
1F
100
AcDbEntity
  8
圖層2中心線
100
AcDbLine
 10
7476.731263768233
 20
2833.473993723679
 30
0.0
 11
7500.731263768233
 21
2833.473993723679
 31
0.0
  0
LINE
  5
501F
330
1F
100
AcDbEntity
  8
圖層2中心線
100
AcDbLine
 10
7488.731263768234
 20
2821.473993723678
 30
0.0
 11
7488.731263768234
 21
2845.473993723678
 31
0.0
  0
LINE
  5
5020
330
1F
100
AcDbEntity
  8
圖層2中心線
  6
CENTER2
 48
0.3
370
    18
100
AcDbLine
 10
7418.749788467135
 20
2833.473993723679
 30
0.0
 11
7557.362860518934
 21
2833.473993723679
 31
0.0
  0
LINE
  5
5021
330
1F
100
AcDbEntity
  8
圖層3虛線
100
AcDbLine
 10
7430.996236849271
 20
2845.473993723678
 30
0.0
 11
7458.731263768233
 21
2845.473993723678
 31
0.0
  0
LINE
  5
5022
330
1F
100
AcDbEntity
  8
圖層3虛線
100
AcDbLine
 10
7518.731263768234
 20
2845.473993723678
 30
0.0
 11
7546.466290687196
 21
2845.473993723678
 31
0.0
  0
LINE
  5
5023
330
1F
100
AcDbEntity
  8
圖層3虛線
 48
0.2
100
AcDbLine
 10
7518.731263768234
 20
2821.473993723678
 30
0.0
 11
7546.466290687196
 21
2821.473993723678
 31
0.0
  0
LINE
  5
5024
330
1F
100
AcDbEntity
  8
圖層3虛線
100
AcDbLine
 10
7430.996236849271
 20
2821.473993723678
 30
0.0
 11
7458.731263768233
 21
2821.473993723678
 31
0.0
  0
DIMENSION
  5
5025
330
1F
100
AcDbEntity
  8
AM_5
100
AcDbDimension
  2
*D17
 10
7518.731263768234
 20
2753.473993723678
 30
0.0
 11
7579.731263768234
 21
2753.473993723678
 31
0.0
 70
   160
  1
%%c<>
 71
     5
 42
30.0
  3
AM_ISO$0
100
AcDbAlignedDimension
 13
7458.731263768233
 23
2793.473993723678
 33
0.0
 14
7518.731263768234
 24
2793.473993723678
 34
0.0
100
AcDbRotatedDimension
1001
ACAD
1000
DSTYLE
1002
{
1070
    40
1040
1.0
1070
   144
1040
0.5
1002
}
  0
DIMENSION
  5
5026
330
1F
100
AcDbEntity
  8
AM_5
100
AcDbDimension
  2
*D18
 10
7381.388541694686
 20
2833.473993723679
 30
0.0
 11
7381.388541694684
 21
2813.473993723679
 31
0.0
 70
   160
 71
     5
 42
20.0
  3
AM_ISO$0
100
AcDbAlignedDimension
 13
7438.731263768234
 23
2793.473993723678
 33
0.0
 14
7418.749788467135
 24
2833.473993723679
 34
0.0
 50
90.0
100
AcDbRotatedDimension
1001
ACAD
1000
DSTYLE
1002
{
1070
   144
1040
0.5
1002
}
  0
DIMENSION
  5
5027
330
1F
100
AcDbEntity
  8
AM_5
100
AcDbDimension
  2
*D19
 10
7331.388541694685
 20
2873.473993723678
 30
0.0
 11
7315.388541694685
 21
2833.47399372368
 31
0.0
 70
    32
 71
     5
 42
40.0
  3
AM_ISO$0
100
AcDbAlignedDimension
 13
7438.731263768234
 23
2793.473993723678
 33
0.0
 14
7458.731263768233
 24
2873.473993723678
 34
0.0
 50
90.0
100
AcDbRotatedDimension
1001
ACAD
1000
DSTYLE
1002
{
1070
   144
1040
0.5
1002
}
  0
LINE
  5
507B
330
1F
100
AcDbEntity
  8
AM_7
100
AcDbLine
 10
7488.731263768234
 20
2789.473993723678
 30
0.0
 11
7488.731263768234
 21
2888.638936345985
 31
0.0
1001
GENIUS_GENOBJ-N-CEN_13
1002
{
1000
OWNER
1000
GEN
1002
}
1001
GENIUS_GENODEF_13
1002
{
1000
HIER
1070
     0
1002
}
1002
{
1000
MANEDIT
1070
     0
1002
}
1002
{
1000
NOSEL
1070
     0
1002
}
1002
{
1000
BEHIND
1070
     0
1002
}
1002
{
1000
OTHER
1070
     0
1002
}
1002
{
1000
REACTOR
1002
}
1001
GENIUS_GENCEN_19
1002
{
1040
2.0
1002
}
  0
INSERT
  5
50BD
330
1F
100
AcDbEntity
  8
AM_5
100
AcDbBlockReference
  2
*S29
 10
0.0
 20
0.0
 30
0.0
  0
TEXT
  5
50BE
330
1F
100
AcDbEntity
  8
AM_5
100
AcDbText
 10
7587.534762896911
 20
2874.365737406879
 30
0.0
 40
20.0
  1
3-M10
100
AcDbText
  0
LINE
  5
517A
330
1F
100
AcDbEntity
  8
圖層1輪廓線
  6
Continuous
 62
     7
370
    50
100
AcDbLine
 10
8146.331059155455
 20
2845.085385812516
 30
0.0
 11
8156.331059155457
 21
2845.085385812516
 31
0.0
  0
LINE
  5
517B
330
1F
100
AcDbEntity
  8
圖層1輪廓線
  6
Continuous
 62
     7
370
    50
100
AcDbLine
 10
8156.331059155457
 20
2825.085385812516
 30
0.0
 11
8106.331059155456
 21
2825.085385812516
 31
0.0
  0
LINE
  5
517C
330
1F
100
AcDbEntity
  8
圖層1輪廓線
  6
Continuous
 62
     7
370
    50
100
AcDbLine
 10
8106.331059155456
 20
2845.085385812516
 30
0.0
 11
8116.331059155456
 21
2845.085385812516
 31
0.0
  0
LINE
  5
517D
330
1F
100
AcDbEntity
  8
圖層1輪廓線
  6
Continuous
 62
     7
370
    50
100
AcDbLine
 10
8106.331059155456
 20
2825.085385812516
 30
0.0
 11
8106.331059155456
 21
2845.085385812516
 31
0.0
  0
LINE
  5
517E
330
1F
100
AcDbEntity
  8
圖層1輪廓線
  6
Continuous
 62
     7
370
    50
100
AcDbLine
 10
8146.331059155455
 20
2867.085385812515
 30
0.0
 11
8146.331059155455
 21
2845.085385812516
 31
0.0
  0
LINE
  5
517F
330
1F
100
AcDbEntity
  8
圖層1輪廓線
  6
Continuous
 62
     7
370
    50
100
AcDbLine
 10
8116.331059155456
 20
2845.085385812516
 30
0.0
 11
8116.331059155456
 21
2867.085385812515
 31
0.0
  0
LINE
  5
5180
330
1F
100
AcDbEntity
  8
圖層1輪廓線
  6
Continuous
 62
     7
370
    50
100
AcDbLine
 10
8156.331059155457
 20
2845.085385812516
 30
0.0
 11
8156.331059155457
 21
2825.085385812516
 31
0.0
  0
LINE
  5
5181
330
1F
100
AcDbEntity
  8
圖層1輪廓線
  6
Continuous
 62
     7
370
    50
100
AcDbLine
 10
8116.331059155456
 20
2867.085385812515
 30
0.0
 11
8095.889047003968
 21
2867.085385812515
 31
0.0
  0
LINE
  5
5182
330
1F
100
AcDbEntity
  8
圖層1輪廓線
  6
Continuous
 62
     7
370
    50
100
AcDbLine
 10
8146.331059155455
 20
2867.085385812515
 30
0.0
 11
8166.773071306945
 21
2867.085385812515
 31
0.0
  0
LINE
  5
518F
330
1F
100
AcDbEntity
  8
AM_7
100
AcDbLine
 10
8131.331059155456
 20
2819.137380844326
 30
0.0
 11
8131.331059155456
 21
2877.015179304952
 31
0.0
1001
GENIUS_GENODEF_13
1002
{
1000
HIER
1070
     0
1002
}
1002
{
1000
MANEDIT
1070
     0
1002
}
1002
{
1000
NOSEL
1070
     0
1002
}
1002
{
1000
BEHIND
1070
     0
1002
}
1002
{
1000
OTHER
1070
     0
1002
}
1002
{
1000
REACTOR
1002
}
1001
GENIUS_GENOBJ-N-CEN_13
1002
{
1000
OWNER
1000
GEN
1002
}
1001
GENIUS_GENCEN_19
1002
{
1040
2.0
1002
}
  0
DIMENSION
  5
51F8
330
1F
100
AcDbEntity
  8
AM_5
100
AcDbDimension
  2
*D20
 10
8156.331059155457
 20
2765.085384812516
 30
0.0
 11
8131.331059155456
 21
2781.087353316453
 31
0.0
 70
    32
 71
     5
 42
25.0
  3
AM_ISO$0
100
AcDbAlignedDimension
 13
8106.331059155456
 23
2825.085385812515
 33
0.0
 14
8156.331059155457
 24
2825.085385812515
 34
0.0
100
AcDbRotatedDimension
1001
ACAD
1000
DSTYLE
1002
{
1070
   144
1040
0.5
1002
}
  0
DIMENSION
  5
51F9
330
1F
100
AcDbEntity
  8
AM_5
100
AcDbDimension
  2
*D21
 10
8146.331059155455
 20
2917.085386812516
 30
0.0
 11
8131.331059155456
 21
2917.085386812516
 31
0.0
 70
   160
 71
     5
 42
15.0
  3
AM_ISO$0
100
AcDbAlignedDimension
 13
8116.331059155456
 23
2867.085385812515
 33
0.0
 14
8146.331059155455
 24
2867.085385812515
 34
0.0
100
AcDbRotatedDimension
1001
ACAD
1000
DSTYLE
1002
{
1070
   144
1040
0.5
1002
}
  0
DIMENSION
  5
51FA
330
1F
100
AcDbEntity
  8
AM_5
100
AcDbDimension
  2
*D22
 10
8225.576256709883
 20
2845.085385812515
 30
0.0
 11
8225.576256709883
 21
2920.085385812516
 31
0.0
 70
   160
 71
     5
 42
11.0
  3
AM_ISO$0
100
AcDbAlignedDimension
 13
8166.773071306945
 23
2867.085385812515
 33
0.0
 14
8156.331059155457
 24
2845.085385812515
 34
0.0
 50
90.0
100
AcDbRotatedDimension
1001
ACAD
1000
DSTYLE
1002
{
1070
   144
1040
0.5
1002
}
  0
DIMENSION
  5
51FB
330
1F
100
AcDbEntity
  8
AM_5
100
AcDbDimension
  2
*D23
 10
8046.331059155457
 20
2825.085385812515
 30
0.0
 11
8046.331059155455
 21
2835.085385812517
 31
0.0
 70
   160
 71
     5
 42
10.0
  3
AM_ISO$0
100
AcDbAlignedDimension
 13
8106.331059155456
 23
2845.085385812515
 33
0.0
 14
8106.331059155456
 24
2825.085385812515
 34
0.0
 50
90.0
100
AcDbRotatedDimension
1001
ACAD
1000
DSTYLE
1002
{
1070
   144
1040
0.5
1002
}
  0
CIRCLE
  5
55A4
330
1F
100
AcDbEntity
  8
0
 62
     1
100
AcDbCircle
 10
7488.731263768233
 20
2062.070414545765
 30
0.0
 40
52.79168824246585
  0
TEXT
  5
55A5
330
1F
100
AcDbEntity
  8
AM_5
 62
     0
100
AcDbText
 10
7415.302445683066
 20
2030.304126300805
 30
0.0
 40
20.0
  1
A
100
AcDbText
  0
CIRCLE
  5
55A6
330
1F
100
AcDbEntity
  8
0
 62
     1
100
AcDbCircle
 10
8131.331059155456
 20
1810.652044705097
 30
0.0
 40
34.84724155408339
  0
TEXT
  5
55A7
330
1F
100
AcDbEntity
  8
AM_5
 62
     0
100
AcDbText
 10
8076.360844381017
 20
1824.968291101761
 30
0.0
 40
20.0
  1
B
100
AcDbText
  0
TEXT
  5
63D2
330
1F
100
AcDbEntity
  8
AM_5
 62
     0
100
AcDbText
 10
7439.311787127232
 20
2693.227967474408
 30
0.0
 40
30.0
  1
A 詳細
100
AcDbText
  0
TEXT
  5
63D3
330
1F
100
AcDbEntity
  8
AM_5
 62
     0
100
AcDbText
 10
8106.481035873546
 20
2693.227967474408
 30
0.0
 40
30.0
  1
B 詳細
100
AcDbText
  0
DIMENSION
  5
7469
102
{ACAD_XDICTIONARY
360
7476
102
}
102
{ACAD_REACTORS
330
7477
102
}
330
1F
100
AcDbEntity
  8
AM_5
100
AcDbDimension
  2
*D24
 10
7911.331059155457
 20
2166.070414545765
 30
0.0
 11
7895.329090651519
 21
2106.070414545766
 31
0.0
 70
    32
 71
     5
 42
120.0
  3
AM_ISO$0
100
AcDbAlignedDimension
 13
8106.331059155456
 23
2046.070414545765
 33
0.0
 14
8036.331059155456
 24
2166.070414545765
 34
0.0
 50
90.0
100
AcDbRotatedDimension
1001
ACAD
1000
DSTYLE
1002
{
1070
    40
1040
1.0
1070
   144
1040
1.0
1002
}
  0
DIMENSION
  5
74CA
330
1F
100
AcDbEntity
  8
AM_5
100
AcDbDimension
  2
*D25
 10
7583.731263768233
 20
2128.136070567542
 30
0.0
 11
7544.187023779542
 21
2128.136070567542
 31
0.0
 70
   160
 71
     5
 42
190.0
  3
AM_ISO$0
100
AcDbAlignedDimension
 13
7393.731263768232
 23
2166.070414545765
 33
0.0
 14
7583.731263768233
 24
2166.070414545765
 34
0.0
100
AcDbRotatedDimension
1001
ACAD
1000
DSTYLE
1002
{
1070
    40
1040
1.0
1070
   144
1040
1.0
1002
}
  0
TEXT
  5
7681
330
1F
100
AcDbEntity
  8
LOGO
 62
     7
100
AcDbText
 10
7548.415584290999
 20
1428.306373295199
 30
0.0
 40
25.91624687782805
  1
Order example:
 41
0.8
  7
CHINESET
100
AcDbText
  0
TEXT
  5
7682
330
1F
100
AcDbEntity
  8
LOGO
 62
     7
100
AcDbText
 10
7553.065173299525
 20
1464.791082871795
 30
0.0
 40
38.87437031674208
  1
訂購代號:
  7
CHINESET
100
AcDbText
  0
LINE
  5
7683
330
1F
100
AcDbEntity
  8
LOGO
 62
     1
100
AcDbLine
 10
8688.225164816302
 20
1513.45737395434
 30
0.0
 11
7109.536813635568
 21
1513.45737395434
 31
0.0
  0
LINE
  5
7684
330
1F
100
AcDbEntity
  8
LOGO
 62
     1
100
AcDbLine
 10
7537.154887119739
 20
1319.08552237063
 30
0.0
 11
7537.154887119739
 21
1513.45737395434
 31
0.0
  0
TEXT
  5
7685
330
1F
100
AcDbEntity
  8
LOGO
  6
Continuous
 62
     5
100
AcDbText
 10
7179.356056442824
 20
1357.269579281549
 30
0.0
 40
29.15577773755656
  1
金器工業股份有限公司
  7
CHINESET
100
AcDbText
  0
TEXT
  5
7686
330
1F
100
AcDbEntity
  8
LOGO
  6
Continuous
 62
     5
100
AcDbText
 10
7125.802660925089
 20
1328.108089297457
 30
0.0
 40
19.43718515837104
  1
MINDMAN INDUSTRIAL CO., LTD.
 41
0.85
  7
CHINESET
100
AcDbText
  0
LINE
  5
7687
330
1F
100
AcDbEntity
  8
LOGO
 62
     1
100
AcDbLine
 10
7537.154887119739
 20
1474.583003637599
 30
0.0
 11
7252.076171463625
 21
1474.583003637599
 31
0.0
  0
LINE
  5
7688
330
1F
100
AcDbEntity
  8
LOGO
 62
     1
100
AcDbLine
 10
7537.154887119739
 20
1435.708633320856
 30
0.0
 11
7252.076171463625
 21
1435.708633320856
 31
0.0
  0
LINE
  5
7689
330
1F
100
AcDbEntity
  8
LOGO
 62
     1
100
AcDbLine
 10
7537.154887119739
 20
1396.834263004114
 30
0.0
 11
7109.536813635568
 21
1396.834263004114
 31
0.0
  0
LINE
  5
768A
330
1F
100
AcDbEntity
  8
LOGO
 62
     1
100
AcDbLine
 10
7252.076171463625
 20
1396.834263004114
 30
0.0
 11
7252.076171463625
 21
1513.45737395434
 31
0.0
  0
TEXT
  5
768B
330
1F
100
AcDbEntity
  8
LOGO
 62
     6
100
AcDbText
 10
7436.732635402162
 20
1406.552855583299
 30
0.0
 40
19.43718515837104
  1
m/m
  7
CHINESET
 72
     1
 11
7470.979104490719
 21
1416.271448162485
 31
0.0
100
AcDbText
 73
     2
  0
TEXT
  5
768C
330
1F
100
AcDbEntity
  8
LOGO
 62
     6
100
AcDbText
 10
7436.732635402162
 20
1484.301596216784
 30
0.0
 40
19.43718515837104
  1
1 : 1
  7
CHINESET
 72
     1
 11
7470.979104490719
 21
1494.02018879597
 31
0.0
100
AcDbText
 73
     2
  0
LINE
  5
768D
330
1F
100
AcDbEntity
  8
LOGO
 62
     1
100
AcDbLine
 10
7407.573652730587
 20
1396.834263004114
 30
0.0
 11
7407.573652730587
 21
1513.45737395434
 31
0.0
  0
CIRCLE
  5
768E
330
1F
100
AcDbEntity
  8
LOGO
  6
Continuous
 62
     6
100
AcDbCircle
 10
7443.564032216014
 20
1455.187394760518
 30
0.0
 40
11.28568720271654
  0
CIRCLE
  5
768F
330
1F
100
AcDbEntity
  8
LOGO
  6
Continuous
 62
     6
100
AcDbCircle
 10
7443.564032216014
 20
1455.187394760518
 30
0.0
 40
6.612413635429604
  0
LINE
  5
7690
330
1F
100
AcDbEntity
  8
LOGO
 62
     6
100
AcDbLine
 10
7514.484600133646
 20
1443.901707557801
 30
0.0
 11
7514.484600133646
 21
1466.473081963235
 31
0.0
  0
LINE
  5
7691
330
1F
100
AcDbEntity
  8
LOGO
 62
     6
100
AcDbLine
 10
7479.104618582484
 20
1448.574981125088
 30
0.0
 11
7479.104618582484
 21
1461.799808395949
 31
0.0
  0
LINE
  5
7692
330
1F
100
AcDbEntity
  8
LOGO
  6
Continuous
 62
     6
100
AcDbLine
 10
7479.104618582484
 20
1461.799808395949
 30
0.0
 11
7514.484600133646
 21
1466.473081963235
 31
0.0
  0
LINE
  5
7693
330
1F
100
AcDbEntity
  8
LOGO
  6
Continuous
 62
     6
100
AcDbLine
 10
7479.104618582484
 20
1448.574981125088
 30
0.0
 11
7514.484600133646
 21
1443.901707557801
 31
0.0
  0
LINE
  5
7694
330
1F
100
AcDbEntity
  8
LOGO
 62
     6
100
AcDbLine
 10
8302.701763985625
 20
1494.02018879597
 30
0.0
 11
8198.677810427815
 21
1494.02018879597
 31
0.0
  0
LINE
  5
7695
330
1F
100
AcDbEntity
  8
LOGO
 62
     6
100
AcDbLine
 10
8311.313501855119
 20
1406.5528555833
 30
0.0
 11
8190.066072558321
 21
1406.5528555833
 31
0.0
  0
LINE
  5
7696
330
1F
100
AcDbEntity
  8
LOGO
 62
     6
100
AcDbLine
 10
8302.701763985625
 20
1435.708633320856
 30
0.0
 11
8198.677810427815
 21
1435.708633320856
 31
0.0
  0
LINE
  5
7697
330
1F
100
AcDbEntity
  8
LOGO
 62
     6
100
AcDbLine
 10
8311.313501855119
 20
1335.283176669273
 30
0.0
 11
8190.066072558321
 21
1335.283176669272
 31
0.0
  0
LINE
  5
7698
330
1F
100
AcDbEntity
  8
LOGO
 62
     6
100
AcDbLine
 10
8190.066072558321
 20
1406.5528555833
 30
0.0
 11
8190.066072558321
 21
1335.283176669273
 31
0.0
  0
LINE
  5
7699
330
1F
100
AcDbEntity
  8
LOGO
 62
     6
100
AcDbLine
 10
8131.861226398653
 20
1406.5528555833
 30
0.0
 11
8131.861226398653
 21
1335.283176669272
 31
0.0
  0
LINE
  5
769A
330
1F
100
AcDbEntity
  8
LOGO
 62
     6
100
AcDbLine
 10
8034.261338859867
 20
1406.5528555833
 30
0.0
 11
8034.261338859867
 21
1335.283176669272
 31
0.0
  0
LINE
  5
769B
330
1F
100
AcDbEntity
  8
LOGO
 62
     6
100
AcDbLine
 10
7934.977496555117
 20
1406.5528555833
 30
0.0
 11
7934.977496555117
 21
1335.283176669272
 31
0.0
  0
LINE
  5
769C
330
1F
100
AcDbEntity
  8
LOGO
 62
     6
100
AcDbLine
 10
7805.396262165979
 20
1406.5528555833
 30
0.0
 11
7805.396262165979
 21
1335.283176669272
 31
0.0
  0
LINE
  5
769D
330
1F
100
AcDbEntity
  8
LOGO
 62
     6
100
AcDbLine
 10
7934.977496555117
 20
1335.283176669272
 30
0.0
 11
7805.396262165979
 21
1335.283176669272
 31
0.0
  0
LINE
  5
769E
330
1F
100
AcDbEntity
  8
LOGO
 62
     6
100
AcDbLine
 10
8131.861226398653
 20
1335.283176669272
 30
0.0
 11
8034.261338859867
 21
1335.283176669272
 31
0.0
  0
LINE
  5
769F
330
1F
100
AcDbEntity
  8
LOGO
  6
Continuous
 62
     7
100
AcDbLine
 10
7974.903266206709
 20
1464.657862313515
 30
0.0
 11
8000.651521410402
 21
1464.657862313515
 31
0.0
  0
LINE
  5
76A0
330
1F
100
AcDbEntity
  8
LOGO
 62
     6
100
AcDbLine
 10
7966.252481782372
 20
1494.02018879597
 30
0.0
 11
7804.504742312428
 21
1494.02018879597
 31
0.0
  0
LINE
  5
76A1
330
1F
100
AcDbEntity
  8
LOGO
 62
     6
100
AcDbLine
 10
7966.252481782372
 20
1435.708633320856
 30
0.0
 11
7804.504742312428
 21
1435.708633320856
 31
0.0
  0
LINE
  5
76A2
330
1F
100
AcDbEntity
  8
LOGO
 62
     6
100
AcDbLine
 10
7804.504742312428
 20
1494.02018879597
 30
0.0
 11
7804.504742312428
 21
1435.708633320856
 31
0.0
  0
LINE
  5
76A3
330
1F
100
AcDbEntity
  8
LOGO
 62
     6
100
AcDbLine
 10
7966.252481782372
 20
1494.02018879597
 30
0.0
 11
7966.252481782372
 21
1435.708633320856
 31
0.0
  0
LINE
  5
76A4
330
1F
100
AcDbEntity
  8
LOGO
 62
     6
100
AcDbLine
 10
7885.378612047401
 20
1435.708633320856
 30
0.0
 11
7885.378612047401
 21
1406.5528555833
 31
0.0
  0
TEXT
  5
76A5
330
1F
100
AcDbEntity
  8
LOGO
  6
Continuous
 62
     7
100
AcDbText
 10
7817.157272685044
 20
1448.666756759769
 30
0.0
 40
32.39530859728506
  1
MF102
  7
CHINESET
 72
     1
 11
7888.118424850524
 21
1464.864411058412
 31
0.0
100
AcDbText
 73
     2
  0
LINE
  5
76A6
330
1F
100
AcDbEntity
  8
LOGO
 62
     6
100
AcDbLine
 10
7934.977496555117
 20
1406.5528555833
 30
0.0
 11
7805.396262165979
 21
1406.5528555833
 31
0.0
  0
LINE
  5
76A7
330
1F
100
AcDbEntity
  8
LOGO
 62
     6
100
AcDbLine
 10
8153.828615175898
 20
1494.02018879597
 30
0.0
 11
8012.68626274296
 21
1494.02018879597
 31
0.0
  0
LINE
  5
76A8
330
1F
100
AcDbEntity
  8
LOGO
 62
     6
100
AcDbLine
 10
8131.861226398653
 20
1406.5528555833
 30
0.0
 11
8034.261338859867
 21
1406.5528555833
 31
0.0
  0
LINE
  5
76A9
330
1F
100
AcDbEntity
  8
LOGO
 62
     6
100
AcDbLine
 10
8153.828615175898
 20
1435.708633320856
 30
0.0
 11
8012.68626274296
 21
1435.708633320856
 31
0.0
  0
TEXT
  5
76AA
330
1F
100
AcDbEntity
  8
LOGO
  6
Continuous
 62
     7
100
AcDbText
 10
8043.780722075059
 20
1448.299391918959
 30
0.0
 40
32.39530859728506
  1
500
  7
CHINESET
 72
     1
 11
8085.43183312871
 21
1464.497046217601
 31
0.0
100
AcDbText
 73
     2
  0
LINE
  5
76AB
330
1F
100
AcDbEntity
  8
LOGO
 62
     6
100
AcDbLine
 10
8012.68626274296
 20
1494.02018879597
 30
0.0
 11
8012.68626274296
 21
1435.708633320856
 31
0.0
  0
TEXT
  5
76AC
330
1F
100
AcDbEntity
  8
LOGO
  6
Continuous
 62
     7
100
AcDbText
 10
8245.228864591906
 20
1448.299391918959
 30
0.0
 40
32.39530859728506
  1
?
  7
CHINESET
 72
     1
 11
8253.713350176909
 21
1464.497046217601
 31
0.0
100
AcDbText
 73
     2
  0
LINE
  5
76AD
330
1F
100
AcDbEntity
  8
LOGO
  6
Continuous
 62
     7
100
AcDbLine
 10
8162.845472296819
 20
1464.657862313515
 30
0.0
 11
8188.59372750053
 21
1464.657862313515
 31
0.0
  0
LINE
  5
76AE
330
1F
100
AcDbEntity
  8
LOGO
 62
     6
100
AcDbLine
 10
8198.677810427815
 20
1494.02018879597
 30
0.0
 11
8198.677810427815
 21
1435.708633320856
 31
0.0
  0
LINE
  5
76AF
330
1F
100
AcDbEntity
  8
LOGO
 62
     6
100
AcDbLine
 10
8153.828615175898
 20
1494.02018879597
 30
0.0
 11
8153.828615175898
 21
1435.708633320856
 31
0.0
  0
LINE
  5
76B0
330
1F
100
AcDbEntity
  8
LOGO
 62
     6
100
AcDbLine
 10
8311.313501855119
 20
1406.5528555833
 30
0.0
 11
8311.313501855119
 21
1335.283176669273
 31
0.0
  0
LINE
  5
76B1
330
1F
100
AcDbEntity
  8
LOGO
 62
     6
100
AcDbLine
 10
8302.701763985625
 20
1494.02018879597
 30
0.0
 11
8302.701763985625
 21
1435.708633320856
 31
0.0
  0
TEXT
  5
76B2
330
1F
100
AcDbEntity
  8
LOGO
 62
     6
100
AcDbText
 10
7268.103171904484
 20
1484.311161760661
 30
1273.881094387684
 40
19.43718515837104
  1
比例 Scale:
 41
0.9
  7
CHINESET
 72
     4
 11
7329.824912097113
 21
1494.02018879597
 31
1273.881094387684
100
AcDbText
  0
TEXT
  5
76B3
330
1F
100
AcDbEntity
  8
LOGO
 62
     6
100
AcDbText
 10
7274.89750939511
 20
1445.700641029195
 30
1273.881094387684
 40
19.43718515837104
  1
投影 View:
 41
0.9
  7
CHINESET
 72
     4
 11
7329.824912097113
 21
1455.145818479226
 31
1273.881094387684
100
AcDbText
  0
TEXT
  5
76B4
330
1F
100
AcDbEntity
  8
LOGO
 62
     6
100
AcDbText
 10
7276.797841336933
 20
1406.552855583299
 30
1273.881094387684
 40
19.43718515837104
  1
單位 Unit:
 41
0.9
  7
CHINESET
 72
     4
 11
7329.824912097113
 21
1416.271448162485
 31
1273.881094387684
100
AcDbText
  0
TEXT
  5
76B5
330
1F
100
AcDbEntity
  8
LOGO
  6
Continuous
 62
     6
100
AcDbText
 10
7839.334204505991
 20
1343.382003818593
 30
1273.881094387684
 40
16.19765429864253
  1
Model
  7
CHINESET
 72
     4
 11
7870.186879360549
 21
1351.480830967914
 31
1273.881094387684
100
AcDbText
  0
TEXT
  5
76B6
330
1F
100
AcDbEntity
  8
LOGO
  6
Continuous
 62
     6
100
AcDbText
 10
8043.842462268154
 20
1346.081612868366
 30
1273.881094387684
 40
16.19765429864253
  1
output
  7
CHINESET
 72
     4
 11
8081.636988964985
 21
1351.480830967914
 31
1273.881094387684
100
AcDbText
  0
TEXT
  5
76B7
330
1F
100
AcDbEntity
  8
LOGO
  6
Continuous
 62
     6
100
AcDbText
 10
8225.036231446912
 20
1346.081612868366
 30
1273.881094387684
 40
16.19765429864253
  1
Option
 41
0.8
  7
CHINESET
 72
     4
 11
8253.729219061652
 21
1351.480830967914
 31
1273.881094387684
100
AcDbText
  0
TEXT
  5
76B8
330
1F
100
AcDbEntity
  8
LOGO
 62
     6
100
AcDbText
 10
7843.730710672764
 20
1371.249621647359
 30
1273.881094387684
 40
25.91624687782805
  1
型號
  7
CHINESET
 72
     4
 11
7870.186879360549
 21
1383.876139565199
 31
1273.881094387684
100
AcDbText
  0
TEXT
  5
76B9
330
1F
100
AcDbEntity
  8
LOGO
 62
     6
100
AcDbText
 10
8043.33867695729
 20
1371.009420212222
 30
1273.881094387684
 40
25.91624687782805
  1
工作力
  7
CHINESET
 72
     4
 11
8081.636988964985
 21
1383.876139565199
 31
1273.881094387684
100
AcDbText
  0
TEXT
  5
76BA
330
1F
100
AcDbEntity
  8
LOGO
 62
     6
100
AcDbText
 10
8206.884837586468
 20
1371.130583767999
 30
1273.881094387684
 40
25.91624687782805
  1
選用配件
 41
0.9
  7
CHINESET
 72
     4
 11
8253.729219061652
 21
1383.876139565199
 31
1273.881094387684
100
AcDbText
  0
LWPOLYLINE
  5
76BB
330
1F
100
AcDbEntity
  8
0
 62
     4
100
AcDbPolyline
 90
        4
 70
     1
 43
0.0
 10
7109.536813635575
 20
1513.45737395434
 10
8688.225164816309
 20
1513.45737395434
 10
8688.225164816309
 20
3064.372629220015
 10
7109.536813635575
 20
3064.372629220015
1001
GENIUS_GENREC_14
1002
{
1000
PYDIR
1011
7109.536813635575
1021
3064.372629220015
1031
0.0
1002
}
1002
{
1000
PXDIR
1011
8688.225164816309
1021
1513.45737395434
1031
0.0
1002
}
1002
{
1000
PORI
1011
7109.536813635575
1021
1513.45737395434
1031
0.0
1002
}
1002
{
1000
PINS
1011
7109.536813635575
1021
1513.45737395434
1031
0.0
1002
}
1002
{
1000
PINS2
1011
8688.225164816309
1021
3064.372629220015
1031
0.0
1002
}
1002
{
1000
C
1070
     1
1002
}
1001
GENIUS_GENODEF_13
1002
{
1000
HIER
1070
     0
1002
}
1002
{
1000
MANEDIT
1070
     0
1002
}
1002
{
1000
NOSEL
1070
     0
1002
}
1002
{
1000
BEHIND
1070
     0
1002
}
1002
{
1000
OTHER
1070
     0
1002
}
1002
{
1000
REACTOR
1002
}
1001
GENIUS_GENOBJ-N-REC_13
1002
{
1000
OWNER
1000
GEN
1002
}
  0
SOLID
  5
76BC
330
1F
100
AcDbEntity
  8
LOGO
 62
     5
100
AcDbTrace
 10
7129.70320518048
 20
1429.145816664461
 30
0.0
 11
7138.107334011213
 21
1429.145816664458
 31
0.0
 12
7173.172837063623
 22
1508.84014178356
 32
0.0
 13
7181.576965894355
 23
1508.840141783553
 33
0.0
  0
SOLID
  5
76BD
330
1F
100
AcDbEntity
  8
LOGO
 62
     5
100
AcDbTrace
 10
7141.584904561873
 20
1429.145816664461
 30
0.0
 11
7149.989033392604
 21
1429.145816664461
 31
0.0
 12
7181.576965894355
 22
1502.464595774027
 32
0.0
 13
7173.172837063623
 23
1471.649456727976
 33
0.0
  0
SOLID
  5
76BE
330
1F
100
AcDbEntity
  8
LOGO
 62
     2
100
AcDbTrace
 10
7138.107334011213
 20
1429.145816664458
 30
0.0
 11
7141.584904561873
 21
1429.145816664461
 31
0.0
 12
7181.576965894355
 22
1508.840141783553
 32
0.0
 13
7185.054536445015
 23
1508.840141783553
 33
0.0
  0
SOLID
  5
76BF
330
1F
100
AcDbEntity
  8
LOGO
 62
     5
100
AcDbTrace
 10
7116.229325719958
 20
1400.166062075701
 30
0.0
 11
7119.127301178832
 21
1400.166062075701
 31
0.0
 12
7127.288225631414
 22
1414.655939370078
 32
0.0
 13
7130.186201090289
 23
1414.655939370078
 33
0.0
  0
SOLID
  5
76C0
330
1F
100
AcDbEntity
  8
LOGO
 62
     5
100
AcDbTrace
 10
7127.288225631414
 20
1414.655939370078
 30
0.0
 11
7130.186201090289
 21
1414.655939370078
 31
0.0
 12
7127.288225631414
 22
1400.166062075701
 32
0.0
 13
7130.186201090289
 23
1400.166062075701
 33
0.0
  0
SOLID
  5
76C1
330
1F
100
AcDbEntity
  8
LOGO
 62
     5
100
AcDbTrace
 10
7127.288225631414
 20
1400.166062075701
 30
0.0
 11
7130.186201090289
 21
1400.166062075701
 31
0.0
 12
7138.347125542875
 22
1414.655939370078
 32
0.0
 13
7141.245101001749
 23
1414.655939370078
 33
0.0
  0
SOLID
  5
76C2
330
1F
100
AcDbEntity
  8
LOGO
 62
     5
100
AcDbTrace
 10
7138.347125542875
 20
1414.655939370078
 30
0.0
 11
7141.245101001749
 21
1414.655939370078
 31
0.0
 12
7138.347125542875
 22
1400.166062075701
 32
0.0
 13
7141.245101001749
 23
1400.166062075701
 33
0.0
  0
POLYLINE
  5
76C3
330
1F
100
AcDbEntity
  8
LOGO
 62
     5
100
AcDb2dPolyline
 66
     1
 10
0.0
 20
0.0
 30
0.0
 40
2.90261965031674
 41
2.90261965031674
  0
VERTEX
  5
76C4
330
76C3
100
AcDbEntity
  8
LOGO
 62
     5
100
AcDbVertex
100
AcDb2dVertex
 10
7235.486275716617
 20
1408.859988452326
 30
0.0
 42
1.0
  0
VERTEX
  5
76C5
330
76C3
100
AcDbEntity
  8
LOGO
 62
     5
100
AcDbVertex
100
AcDb2dVertex
 10
7226.778416765677
 20
1408.859988452326
 30
0.0
 42
1.0
  0
SEQEND
  5
76C6
330
76C3
100
AcDbEntity
  8
LOGO
 62
     5
  0
POLYLINE
  5
76C7
330
1F
100
AcDbEntity
  8
LOGO
 62
     5
100
AcDb2dPolyline
 66
     1
 10
0.0
 20
0.0
 30
0.0
 70
     1
  0
VERTEX
  5
76C8
330
76C7
100
AcDbEntity
  8
LOGO
 62
     5
100
AcDbVertex
100
AcDb2dVertex
 10
7210.363715317557
 20
1407.411000722889
 30
0.0
 42
1.000000057330635
  0
VERTEX
  5
76C9
330
76C7
100
AcDbEntity
  8
LOGO
 62
     5
100
AcDbVertex
100
AcDb2dVertex
 10
7219.057641694201
 20
1407.411000722889
 30
0.0
 42
1.000000057330635
  0
SEQEND
  5
76CA
330
76C7
100
AcDbEntity
  8
LOGO
 62
     5
  0
CIRCLE
  5
76CB
330
1F
100
AcDbEntity
  8
LOGO
 62
     5
100
AcDbCircle
 10
7214.710678505878
 20
1407.411000722889
 30
0.0
 40
4.346963188314353
  0
POLYLINE
  5
76CC
330
1F
100
AcDbEntity
  8
LOGO
 62
     5
100
AcDb2dPolyline
 66
     1
 10
0.0
 20
0.0
 30
0.0
 70
     1
 40
2.90261965031674
 41
2.90261965031674
  0
VERTEX
  5
76CD
330
76CC
100
AcDbEntity
  8
LOGO
 62
     5
100
AcDbVertex
100
AcDb2dVertex
 10
7208.90543920524
 20
1407.411000722889
 30
0.0
 42
1.0
  0
VERTEX
  5
76CE
330
76CC
100
AcDbEntity
  8
LOGO
 62
     5
100
AcDbVertex
100
AcDb2dVertex
 10
7220.515917806517
 20
1407.411000722889
 30
0.0
 42
1.0
  0
SEQEND
  5
76CF
330
76CC
100
AcDbEntity
  8
LOGO
 62
     5
  0
LINE
  5
76D0
330
1F
100
AcDbEntity
  8
LOGO
 62
     5
100
AcDbLine
 10
7236.928297158907
 20
1400.166062075701
 30
0.0
 11
7236.928297158907
 21
1408.859988452326
 31
0.0
  0
SOLID
  5
76D1
330
1F
100
AcDbEntity
  8
LOGO
 62
     5
100
AcDbTrace
 10
7219.057351896655
 20
1414.655939370078
 30
0.0
 11
7221.955327355529
 21
1414.655939370078
 31
0.0
 12
7219.057351896655
 22
1400.166062075701
 32
0.0
 13
7221.955327355529
 23
1400.166062075701
 33
0.0
  0
SOLID
  5
76D2
330
1F
100
AcDbEntity
  8
LOGO
 62
     5
100
AcDbTrace
 10
7225.336395323387
 20
1400.166062075701
 30
0.0
 11
7228.234370782281
 21
1400.166062075701
 31
0.0
 12
7225.336395323387
 22
1414.655939370078
 32
0.0
 13
7228.234370782281
 23
1414.655939370078
 33
0.0
  0
SOLID
  5
76D3
330
1F
100
AcDbEntity
  8
LOGO
 62
     5
100
AcDbTrace
 10
7234.030321700031
 20
1408.859988452326
 30
0.0
 11
7236.928297158907
 21
1408.859988452326
 31
0.0
 12
7234.030321700031
 22
1400.166062075701
 32
0.0
 13
7236.928297158907
 23
1400.166062075701
 33
0.0
  0
SOLID
  5
76D4
330
1F
100
AcDbEntity
  8
LOGO
 62
     5
100
AcDbTrace
 10
7225.046597777515
 20
1502.464595774027
 30
0.0
 11
7216.642468946766
 21
1471.649456727976
 31
0.0
 12
7225.046597777515
 22
1429.145816664458
 32
0.0
 13
7216.642468946766
 23
1429.145816664458
 33
0.0
  0
SOLID
  5
76D5
330
1F
100
AcDbEntity
  8
LOGO
 62
     5
100
AcDbTrace
 10
7228.524168328158
 20
1429.145816664458
 30
0.0
 11
7236.928297158907
 21
1429.145816664458
 31
0.0
 12
7228.524168328158
 22
1508.840141783553
 32
0.0
 13
7236.928297158907
 23
1508.84014178356
 33
0.0
  0
SOLID
  5
76D6
330
1F
100
AcDbEntity
  8
LOGO
 62
     2
100
AcDbTrace
 10
7225.046597777515
 20
1508.84014178356
 30
0.0
 11
7228.524168328158
 21
1508.840141783553
 31
0.0
 12
7225.046597777515
 22
1429.145816664458
 32
0.0
 13
7228.524168328158
 23
1429.145816664458
 33
0.0
  0
POLYLINE
  5
76D7
330
1F
100
AcDbEntity
  8
LOGO
 62
     5
100
AcDb2dPolyline
 66
     1
 10
0.0
 20
0.0
 30
0.0
 40
2.90261965031674
 41
2.90261965031674
  0
VERTEX
  5
76D8
330
76D7
100
AcDbEntity
  8
LOGO
 62
     5
100
AcDbVertex
100
AcDb2dVertex
 10
7193.948434274362
 20
1408.859988452326
 30
0.0
 42
1.0
  0
VERTEX
  5
76D9
330
76D7
100
AcDbEntity
  8
LOGO
 62
     5
100
AcDbVertex
100
AcDb2dVertex
 10
7185.240575323422
 20
1408.859988452326
 30
0.0
 42
1.0
  0
SEQEND
  5
76DA
330
76D7
100
AcDbEntity
  8
LOGO
 62
     5
  0
POLYLINE
  5
76DB
330
1F
100
AcDbEntity
  8
LOGO
 62
     5
100
AcDb2dPolyline
 66
     1
 10
0.0
 20
0.0
 30
0.0
 40
2.90261965031674
 41
2.90261965031674
  0
VERTEX
  5
76DC
330
76DB
100
AcDbEntity
  8
LOGO
 62
     5
100
AcDbVertex
100
AcDb2dVertex
 10
7202.642360650985
 20
1408.859988452326
 30
0.0
 42
1.0
  0
VERTEX
  5
76DD
330
76DB
100
AcDbEntity
  8
LOGO
 62
     5
100
AcDbVertex
100
AcDb2dVertex
 10
7193.934501700048
 20
1408.859988452326
 30
0.0
 42
1.0
  0
SEQEND
  5
76DE
330
76DB
100
AcDbEntity
  8
LOGO
 62
     5
  0
POLYLINE
  5
76DF
330
1F
100
AcDbEntity
  8
LOGO
 62
     5
100
AcDb2dPolyline
 66
     1
 10
0.0
 20
0.0
 30
0.0
 40
2.90261965031674
 41
2.90261965031674
  0
VERTEX
  5
76E0
330
76DF
100
AcDbEntity
  8
LOGO
 62
     5
100
AcDbVertex
100
AcDb2dVertex
 10
7161.104519208731
 20
1408.859988452326
 30
0.0
 42
1.0
  0
VERTEX
  5
76E1
330
76DF
100
AcDbEntity
  8
LOGO
 62
     5
100
AcDbVertex
100
AcDb2dVertex
 10
7152.396660257791
 20
1408.859988452326
 30
0.0
 42
1.0
  0
SEQEND
  5
76E2
330
76DF
100
AcDbEntity
  8
LOGO
 62
     5
  0
SOLID
  5
76E3
330
1F
100
AcDbEntity
  8
LOGO
 62
     5
100
AcDbTrace
 10
7150.95463881552
 20
1414.655939370078
 30
0.0
 11
7153.852614274377
 21
1414.655939370078
 31
0.0
 12
7150.95463881552
 22
1400.166062075701
 32
0.0
 13
7153.852614274377
 23
1400.166062075701
 33
0.0
  0
SOLID
  5
76E4
330
1F
100
AcDbEntity
  8
LOGO
 62
     5
100
AcDbTrace
 10
7159.648565192146
 20
1408.859988452326
 30
0.0
 11
7162.54654065102
 21
1408.859988452326
 31
0.0
 12
7159.648565192146
 22
1400.166062075701
 32
0.0
 13
7162.54654065102
 23
1400.166062075701
 33
0.0
  0
POLYLINE
  5
76E5
330
1F
100
AcDbEntity
  8
LOGO
 62
     5
100
AcDb2dPolyline
 66
     1
 10
0.0
 20
0.0
 30
0.0
 70
     1
 40
2.90261965031674
 41
2.90261965031674
  0
VERTEX
  5
76E6
330
76E5
100
AcDbEntity
  8
LOGO
 62
     5
100
AcDbVertex
100
AcDb2dVertex
 10
7167.367597762984
 20
1407.411000722889
 30
0.0
 42
1.0
  0
VERTEX
  5
76E7
330
76E5
100
AcDbEntity
  8
LOGO
 62
     5
100
AcDbVertex
100
AcDb2dVertex
 10
7178.978076364259
 20
1407.411000722889
 30
0.0
 42
1.0
  0
SEQEND
  5
76E8
330
76E5
100
AcDbEntity
  8
LOGO
 62
     5
  0
SOLID
  5
76E9
330
1F
100
AcDbEntity
  8
LOGO
 62
     5
100
AcDbTrace
 10
7177.519510454398
 20
1419.002902558396
 30
0.0
 11
7180.417485913273
 21
1419.002902558396
 31
0.0
 12
7177.519510454398
 22
1400.166062075701
 32
0.0
 13
7180.417485913273
 23
1400.166062075701
 33
0.0
  0
SOLID
  5
76EA
330
1F
100
AcDbEntity
  8
LOGO
 62
     5
100
AcDbTrace
 10
7183.798553881132
 20
1414.655939370078
 30
0.0
 11
7186.696529340027
 21
1414.655939370078
 31
0.0
 12
7183.798553881132
 22
1400.166062075701
 32
0.0
 13
7186.696529340027
 23
1400.166062075701
 33
0.0
  0
SOLID
  5
76EB
330
1F
100
AcDbEntity
  8
LOGO
 62
     5
100
AcDbTrace
 10
7192.492480257775
 20
1408.859988452326
 30
0.0
 11
7195.390455716649
 21
1408.859988452326
 31
0.0
 12
7192.492480257775
 22
1400.166062075701
 32
0.0
 13
7195.390455716649
 23
1400.166062075701
 33
0.0
  0
SOLID
  5
76EC
330
1F
100
AcDbEntity
  8
LOGO
 62
     5
100
AcDbTrace
 10
7201.1864066344
 20
1408.859988452326
 30
0.0
 11
7204.084382093275
 21
1408.859988452326
 31
0.0
 12
7201.1864066344
 22
1400.166062075695
 32
0.0
 13
7204.084382093275
 23
1400.166062075695
 33
0.0
  0
SOLID
  5
76ED
330
1F
100
AcDbEntity
  8
LOGO
 62
     5
100
AcDbTrace
 10
7144.675595388767
 20
1416.684522191291
 30
0.0
 11
7147.573570847642
 21
1416.684522191291
 31
0.0
 12
7144.675595388767
 22
1419.002902558396
 32
0.0
 13
7147.573570847642
 23
1419.002902558396
 33
0.0
  0
SOLID
  5
76EE
330
1F
100
AcDbEntity
  8
LOGO
 62
     5
100
AcDbTrace
 10
7144.675595388767
 20
1414.655939370078
 30
0.0
 11
7147.573570847642
 21
1414.655939370078
 31
0.0
 12
7144.675595388767
 22
1400.166062075695
 32
0.0
 13
7147.573570847642
 23
1400.166062075701
 33
0.0
  0
SOLID
  5
76EF
330
1F
100
AcDbEntity
  8
LOGO
 62
     5
100
AcDbTrace
 10
7173.172837063623
 20
1429.145816664461
 30
0.0
 11
7181.576965894355
 21
1429.145816664461
 31
0.0
 12
7173.172837063623
 22
1471.649456727976
 32
0.0
 13
7181.576965894355
 23
1502.464595774027
 33
0.0
  0
SOLID
  5
76F0
330
1F
100
AcDbEntity
  8
LOGO
 62
     5
100
AcDbTrace
 10
7185.054536445015
 20
1508.840141783553
 30
0.0
 11
7193.458665275766
 21
1508.84014178356
 31
0.0
 12
7185.054536445015
 22
1435.521362673987
 32
0.0
 13
7193.458665275766
 23
1466.336501720039
 33
0.0
  0
SOLID
  5
76F1
330
1F
100
AcDbEntity
  8
LOGO
 62
     2
100
AcDbTrace
 10
7181.576965894355
 20
1508.840141783553
 30
0.0
 11
7185.054536445015
 21
1508.840141783553
 31
0.0
 12
7181.576965894355
 22
1429.145816664461
 32
0.0
 13
7185.054536445015
 23
1429.145816664461
 33
0.0
  0
SOLID
  5
76F2
330
1F
100
AcDbEntity
  8
LOGO
 62
     5
100
AcDbTrace
 10
7185.054536445015
 20
1435.521362673987
 30
0.0
 11
7193.458665275766
 21
1466.336501720039
 31
0.0
 12
7225.046597777515
 22
1508.84014178356
 32
0.0
 13
7216.642468946766
 23
1508.84014178356
 33
0.0
  0
SOLID
  5
76F3
330
1F
100
AcDbEntity
  8
LOGO
 62
     5
100
AcDbTrace
 10
7185.054536445015
 20
1429.145816664461
 30
0.0
 11
7193.458665275766
 21
1429.145816664461
 31
0.0
 12
7225.046597777515
 22
1502.464595774027
 32
0.0
 13
7216.642468946766
 23
1471.649456727976
 33
0.0
  0
SOLID
  5
76F4
330
1F
100
AcDbEntity
  8
LOGO
 62
     2
100
AcDbTrace
 10
7181.576965894355
 20
1429.145816664461
 30
0.0
 11
7185.054536445015
 21
1429.145816664461
 31
0.0
 12
7225.046597777515
 22
1508.84014178356
 32
0.0
 13
7228.524168328158
 23
1508.840141783553
 33
0.0
  0
TEXT
  5
76F5
330
1F
100
AcDbEntity
  8
0
100
AcDbText
 10
7548.237596685591
 20
1329.426028157542
 30
0.0
 40
16.20800279999999
  1
1050701
 41
0.8
  7
CHINESET
 72
     1
 11
7585.593184091306
 21
1329.426028157542
 31
0.0
100
AcDbText
  0
LINE
  5
76F6
330
1F
100
AcDbEntity
  8
LOGO
 62
     1
100
AcDbLine
 10
7635.601562204172
 20
1357.959892687372
 30
0.0
 11
7635.601562204172
 21
1319.08552237063
 31
0.0
  0
LINE
  5
76F7
330
1F
100
AcDbEntity
  8
LOGO
 62
     1
100
AcDbLine
 10
7635.601562204172
 20
1357.959892687372
 30
0.0
 11
7537.154887119739
 21
1357.959892687372
 31
0.0
  0
LWPOLYLINE
  5
76F8
330
1F
100
AcDbEntity
  8
0
 62
     1
100
AcDbPolyline
 90
        4
 70
     1
 43
0.0
 10
7109.536813635575
 20
1513.45737395434
 10
8688.225164816309
 20
1513.45737395434
 10
8688.225164816309
 20
1319.08552237063
 10
7109.536813635575
 20
1319.08552237063
1001
GENIUS_GENREC_14
1002
{
1000
PYDIR
1011
7109.536813635575
1021
1319.08552237063
1031
0.0
1002
}
1002
{
1000
PXDIR
1011
8688.225164816309
1021
1513.45737395434
1031
0.0
1002
}
1002
{
1000
PORI
1011
7109.536813635575
1021
1513.45737395434
1031
0.0
1002
}
1002
{
1000
PINS
1011
7109.536813635575
1021
1513.45737395434
1031
0.0
1002
}
1002
{
1000
PINS2
1011
8688.225164816309
1021
1319.08552237063
1031
0.0
1002
}
1002
{
1000
C
1070
     1
1002
}
1001
GENIUS_GENOBJ-N-REC_13
1002
{
1000
OWNER
1000
GEN
1002
}
1001
GENIUS_GENODEF_13
1002
{
1000
HIER
1070
     0
1002
}
1002
{
1000
MANEDIT
1070
     0
1002
}
1002
{
1000
NOSEL
1070
     0
1002
}
1002
{
1000
BEHIND
1070
     0
1002
}
1002
{
1000
OTHER
1070
     0
1002
}
1002
{
1000
REACTOR
1002
}
  0
LINE
  5
7709
330
1F
100
AcDbEntity
  8
LOGO
 62
     6
100
AcDbLine
 10
8083.25743895943
 20
1435.708633320856
 30
0.0
 11
8083.257438959426
 21
1406.5528555833
 31
0.0
  0
LINE
  5
770A
330
1F
100
AcDbEntity
  8
LOGO
 62
     6
100
AcDbLine
 10
8250.68978720672
 20
1435.708633320856
 30
0.0
 11
8250.68978720672
 21
1406.5528555833
 31
0.0
  0
LINE
  5
77A9
330
1F
100
AcDbEntity
  8
圖層4尺寸線
100
AcDbLine
 10
7654.731263768232
 20
2232.070414545765
 30
0.0
 11
7616.731263768233
 21
2232.070414545765
 31
0.0
  0
LINE
  5
77AA
330
1F
100
AcDbEntity
  8
圖層4尺寸線
100
AcDbLine
 10
7654.731263768232
 20
2244.070414545765
 30
0.0
 11
7616.731263768233
 21
2244.070414545765
 31
0.0
  0
LINE
  5
77AB
330
1F
100
AcDbEntity
  8
圖層4尺寸線
100
AcDbLine
 10
7660.731263768233
 20
2223.070414545765
 30
0.0
 11
7610.731263768233
 21
2223.070414545765
 31
0.0
  0
LINE
  5
77AC
330
1F
100
AcDbEntity
  8
圖層4尺寸線
100
AcDbLine
 10
7660.731263768233
 20
2248.070414545765
 30
0.0
 11
7610.731263768233
 21
2248.070414545765
 31
0.0
  0
TEXT
  5
77AD
330
1F
100
AcDbEntity
  8
圖層4尺寸線
100
AcDbText
 10
7599.766630039034
 20
2140.080272666077
 30
0.0
 40
5.0
  1
電源開關       緊急停止
  7
WIN
 72
     4
 11
7636.300060271591
 21
2142.318644759101
 31
0.0
100
AcDbText
  0
LWPOLYLINE
  5
77AE
330
1F
100
AcDbEntity
  8
圖層4尺寸線
100
AcDbPolyline
 90
        4
 70
     1
 43
0.0
 10
7592.432348903661
 20
2148.792203091549
 10
7680.167771639521
 20
2148.792203091549
 10
7680.167771639521
 20
2135.845086426652
 10
7592.432348903661
 20
2135.845086426652
  0
LINE
  5
77AF
330
1F
100
AcDbEntity
  8
圖層4尺寸線
100
AcDbLine
 10
7625.323457407687
 20
2168.764784016385
 30
0.0
 11
7633.718414936378
 21
2177.306360388701
 31
0.0
  0
LINE
  5
77B0
330
1F
100
AcDbEntity
  8
圖層4尺寸線
100
AcDbLine
 10
7617.731263768233
 20
2155.070414545765
 30
0.0
 11
7653.731263768233
 21
2155.070414545765
 31
0.0
  0
LINE
  5
77B1
330
1F
100
AcDbEntity
  8
圖層4尺寸線
100
AcDbLine
 10
7617.731263768233
 20
2203.070414545765
 30
0.0
 11
7653.731263768233
 21
2203.070414545765
 31
0.0
  0
CIRCLE
  5
77B2
330
1F
100
AcDbEntity
  8
圖層4尺寸線
100
AcDbCircle
 10
7635.731263768232
 20
2182.070414545765
 30
0.0
 40
5.0
  0
CIRCLE
  5
77B3
330
1F
100
AcDbEntity
  8
圖層4尺寸線
100
AcDbCircle
 10
7635.731263768232
 20
2182.070414545765
 30
0.0
 40
17.0
  0
CIRCLE
  5
77B4
330
1F
100
AcDbEntity
  8
圖層4尺寸線
100
AcDbCircle
 10
7635.731263768232
 20
2268.070414545765
 30
0.0
 40
5.0
  0
LINE
  5
77B5
330
1F
100
AcDbEntity
  8
圖層4尺寸線
100
AcDbLine
 10
7613.731263768233
 20
2207.070414545765
 30
0.0
 11
7657.731263768233
 21
2207.070414545765
 31
0.0
  0
LINE
  5
77B6
330
1F
100
AcDbEntity
  8
圖層4尺寸線
100
AcDbLine
 10
7613.731263768233
 20
2151.070414545765
 30
0.0
 11
7657.731263768233
 21
2151.070414545765
 31
0.0
  0
LINE
  5
77B7
330
1F
100
AcDbEntity
  8
圖層4尺寸線
100
AcDbLine
 10
7687.731263768232
 20
2288.070414545765
 30
0.0
 11
7583.731263768233
 21
2288.070414545765
 31
0.0
  0
LINE
  5
77B8
330
1F
100
AcDbEntity
  8
圖層4尺寸線
100
AcDbLine
 10
7583.731263768233
 20
2086.070414545765
 30
0.0
 11
7687.731263768232
 21
2086.070414545765
 31
0.0
  0
LINE
  5
77B9
330
1F
100
AcDbEntity
  8
圖層4尺寸線
100
AcDbLine
 10
7617.731263768233
 20
2155.070414545765
 30
0.0
 11
7617.731263768233
 21
2203.070414545765
 31
0.0
  0
LINE
  5
77BA
330
1F
100
AcDbEntity
  8
圖層4尺寸線
100
AcDbLine
 10
7613.731263768233
 20
2151.070414545765
 30
0.0
 11
7613.731263768233
 21
2207.070414545765
 31
0.0
  0
LINE
  5
77BB
330
1F
100
AcDbEntity
  8
圖層4尺寸線
100
AcDbLine
 10
7583.731263768233
 20
2288.070414545765
 30
0.0
 11
7583.731263768233
 21
2086.070414545765
 31
0.0
  0
LINE
  5
77BC
330
1F
100
AcDbEntity
  8
圖層4尺寸線
100
AcDbLine
 10
7616.647301733052
 20
2116.775200036344
 30
0.0
 11
7617.619314387991
 21
2112.753514229837
 31
0.0
  0
LINE
  5
77BD
330
1F
100
AcDbEntity
  8
圖層4尺寸線
100
AcDbLine
 10
7610.815225803413
 20
2116.775200036344
 30
0.0
 11
7609.843213148472
 21
2112.753514229837
 31
0.0
  0
CIRCLE
  5
77BE
330
1F
100
AcDbEntity
  8
圖層4尺寸線
100
AcDbCircle
 10
7613.731263768233
 20
2111.8138002424
 30
0.0
 40
4.0
  0
ARC
  5
77BF
330
1F
100
AcDbEntity
  8
圖層4尺寸線
100
AcDbCircle
 10
7613.731263768233
 20
2116.070414545765
 30
0.0
 40
12.0
100
AcDbArc
 50
131.8103148957983
 51
228.1896851042017
  0
ARC
  5
77C0
330
1F
100
AcDbEntity
  8
圖層4尺寸線
100
AcDbCircle
 10
7613.731263768233
 20
2116.070414545765
 30
0.0
 40
12.0
100
AcDbArc
 50
311.8103148957982
 51
48.18968510420172
  0
LWPOLYLINE
  5
77C1
330
1F
100
AcDbEntity
  8
圖層4尺寸線
100
AcDbPolyline
 90
        7
 70
     0
 43
0.0
 10
7617.328385318135
 20
2110.064309872254
 10
7620.731263768232
 20
2112.028962661438
 10
7620.731263768232
 20
2120.111866430092
 10
7613.731263768233
 20
2124.15331831442
 10
7606.731263768232
 20
2120.111866430092
 10
7606.731263768232
 20
2112.028962661438
 10
7610.134142218331
 20
2110.064309872254
  0
ARC
  5
77C2
330
1F
100
AcDbEntity
  8
圖層4尺寸線
100
AcDbCircle
 10
7613.731263768233
 20
2116.070414545765
 30
0.0
 40
7.0
100
AcDbArc
 50
300.9291072523146
 51
239.0708927476854
  0
ARC
  5
77C3
330
1F
100
AcDbEntity
  8
圖層4尺寸線
100
AcDbCircle
 10
7613.731263768233
 20
2116.070414545765
 30
0.0
 40
6.0
100
AcDbArc
 50
311.7321013757197
 51
228.2678986242803
  0
ARC
  5
77C4
330
1F
100
AcDbEntity
  8
圖層4尺寸線
100
AcDbCircle
 10
7591.731263768233
 20
2099.070414545765
 30
0.0
 40
2.0
100
AcDbArc
 50
240.0000000000027
 51
299.9999999999973
  0
ARC
  5
77C5
330
1F
100
AcDbEntity
  8
圖層4尺寸線
100
AcDbCircle
 10
7591.731263768233
 20
2099.070414545765
 30
0.0
 40
2.0
100
AcDbArc
 50
60.00000000000272
 51
119.9999999999973
  0
CIRCLE
  5
77C6
330
1F
100
AcDbEntity
  8
圖層4尺寸線
100
AcDbCircle
 10
7591.731263768233
 20
2099.070414545765
 30
0.0
 40
4.0
  0
LINE
  5
77C7
330
1F
100
AcDbEntity
  8
圖層4尺寸線
100
AcDbLine
 10
7590.731263768232
 20
2100.070414545765
 30
0.0
 11
7590.731263768232
 21
2100.802465353334
 31
0.0
  0
LINE
  5
77C8
330
1F
100
AcDbEntity
  8
圖層4尺寸線
100
AcDbLine
 10
7590.731263768232
 20
2097.338363738196
 30
0.0
 11
7590.731263768232
 21
2098.070414545765
 31
0.0
  0
LINE
  5
77C9
330
1F
100
AcDbEntity
  8
圖層4尺寸線
100
AcDbLine
 10
7590.731263768232
 20
2100.070414545765
 30
0.0
 11
7588.377161801983
 21
2100.070414545765
 31
0.0
  0
LINE
  5
77CA
330
1F
100
AcDbEntity
  8
圖層4尺寸線
100
AcDbLine
 10
7590.731263768232
 20
2098.070414545765
 30
0.0
 11
7588.377161801983
 21
2098.070414545765
 31
0.0
  0
ARC
  5
77CB
330
1F
100
AcDbEntity
  8
圖層4尺寸線
100
AcDbCircle
 10
7591.731263768233
 20
2099.070414545765
 30
0.0
 40
3.5
100
AcDbArc
 50
163.3984504009902
 51
196.6015495990097
  0
TEXT
  5
77CC
330
1F
100
AcDbEntity
  8
圖層4尺寸線
100
AcDbText
 10
7608.603356791488
 20
2102.273902917858
 30
0.0
 40
4.0
  1
OFF
  7
WIN
 72
     4
 11
7613.731263768233
 21
2104.070414545765
 31
0.0
100
AcDbText
  0
LINE
  5
77CD
330
1F
100
AcDbEntity
  8
圖層4尺寸線
100
AcDbLine
 10
7608.731263768233
 20
2099.070414545765
 30
0.0
 11
7618.731263768232
 21
2099.070414545765
 31
0.0
  0
LINE
  5
77CE
330
1F
100
AcDbEntity
  8
圖層4尺寸線
100
AcDbLine
 10
7605.731263768233
 20
2105.872375518579
 30
0.0
 11
7605.731263768233
 21
2102.070414545765
 31
0.0
  0
LINE
  5
77CF
330
1F
100
AcDbEntity
  8
圖層4尺寸線
100
AcDbLine
 10
7592.731263768233
 20
2100.070414545765
 30
0.0
 11
7592.731263768233
 21
2100.802465353334
 31
0.0
  0
LINE
  5
77D0
330
1F
100
AcDbEntity
  8
圖層4尺寸線
100
AcDbLine
 10
7592.731263768233
 20
2097.338363738196
 30
0.0
 11
7592.731263768233
 21
2098.070414545765
 31
0.0
  0
LINE
  5
77D1
330
1F
100
AcDbEntity
  8
圖層4尺寸線
100
AcDbLine
 10
7595.085365734482
 20
2098.070414545765
 30
0.0
 11
7592.731263768233
 21
2098.070414545765
 31
0.0
  0
LINE
  5
77D2
330
1F
100
AcDbEntity
  8
圖層4尺寸線
100
AcDbLine
 10
7595.085365734482
 20
2100.070414545765
 30
0.0
 11
7592.731263768233
 21
2100.070414545765
 31
0.0
  0
ARC
  5
77D3
330
1F
100
AcDbEntity
  8
圖層4尺寸線
100
AcDbCircle
 10
7591.731263768233
 20
2099.070414545765
 30
0.0
 40
3.5
100
AcDbArc
 50
343.3984504009902
 51
16.60154959900975
  0
ARC
  5
77D4
330
1F
100
AcDbEntity
  8
圖層4尺寸線
100
AcDbCircle
 10
7608.731263768233
 20
2102.070414545765
 30
0.0
 40
3.0
100
AcDbArc
 50
180.0
 51
270.0
  0
ARC
  5
77D5
330
1F
100
AcDbEntity
  8
圖層4尺寸線
100
AcDbCircle
 10
7602.731263768233
 20
2105.872375518579
 30
0.0
 40
3.0
100
AcDbArc
 50
0.0
 51
42.83342806604767
  0
ARC
  5
77D6
330
1F
100
AcDbEntity
  8
圖層4尺寸線
100
AcDbCircle
 10
7602.731263768233
 20
2105.872375518579
 30
0.0
 40
3.0
100
AcDbArc
 50
0.0
 51
42.83342806604767
  0
LINE
  5
77D7
330
1F
100
AcDbEntity
  8
圖層4尺寸線
100
AcDbLine
 10
7621.731263768232
 20
2105.872375518579
 30
0.0
 11
7621.731263768232
 21
2102.070414545765
 31
0.0
  0
ARC
  5
77D8
330
1F
100
AcDbEntity
  8
圖層4尺寸線
100
AcDbCircle
 10
7618.731263768232
 20
2102.070414545765
 30
0.0
 40
3.0
100
AcDbArc
 50
270.0
 51
0.0
  0
ARC
  5
77D9
330
1F
100
AcDbEntity
  8
圖層4尺寸線
100
AcDbCircle
 10
7624.731263768232
 20
2105.872375518579
 30
0.0
 40
3.0
100
AcDbArc
 50
137.1665719339523
 51
180.0
  0
ARC
  5
77DA
330
1F
100
AcDbEntity
  8
圖層4尺寸線
100
AcDbCircle
 10
7618.731263768232
 20
2130.070414545765
 30
0.0
 40
3.0
100
AcDbArc
 50
0.0
 51
90.0
  0
ARC
  5
77DB
330
1F
100
AcDbEntity
  8
圖層4尺寸線
100
AcDbCircle
 10
7608.731263768233
 20
2130.070414545765
 30
0.0
 40
3.0
100
AcDbArc
 50
90.0
 51
180.0
  0
TEXT
  5
77DC
330
1F
100
AcDbEntity
  8
圖層4尺寸線
100
AcDbText
 10
7609.696380047302
 20
2126.273902917858
 30
0.0
 40
4.0
  1
ON
  7
WIN
 72
     4
 11
7613.731263768233
 21
2128.070414545765
 31
0.0
100
AcDbText
  0
LINE
  5
77DD
330
1F
100
AcDbEntity
  8
圖層4尺寸線
100
AcDbLine
 10
7608.731263768233
 20
2133.070414545765
 30
0.0
 11
7618.731263768232
 21
2133.070414545765
 31
0.0
  0
ARC
  5
77DE
330
1F
100
AcDbEntity
  8
圖層4尺寸線
100
AcDbCircle
 10
7613.731263768233
 20
2116.070414545765
 30
0.0
 40
3.0
100
AcDbArc
 50
13.58740794755098
 51
166.412592052449
  0
ARC
  5
77DF
330
1F
100
AcDbEntity
  8
圖層4尺寸線
100
AcDbCircle
 10
7602.731263768233
 20
2126.268453572951
 30
0.0
 40
3.0
100
AcDbArc
 50
317.1665719339523
 51
0.0
  0
LINE
  5
77E0
330
1F
100
AcDbEntity
  8
圖層4尺寸線
100
AcDbLine
 10
7605.731263768233
 20
2130.070414545765
 30
0.0
 11
7605.731263768233
 21
2126.268453572951
 31
0.0
  0
ARC
  5
77E1
330
1F
100
AcDbEntity
  8
圖層4尺寸線
100
AcDbCircle
 10
7624.731263768232
 20
2126.268453572951
 30
0.0
 40
3.0
100
AcDbArc
 50
180.0
 51
222.8334280660476
  0
LINE
  5
77E2
330
1F
100
AcDbEntity
  8
圖層4尺寸線
100
AcDbLine
 10
7621.731263768232
 20
2130.070414545765
 30
0.0
 11
7621.731263768232
 21
2126.268453572951
 31
0.0
  0
LINE
  5
77E3
330
1F
100
AcDbEntity
  8
圖層4尺寸線
100
AcDbLine
 10
7631.458234182885
 20
2178.917978937322
 30
0.0
 11
7625.323457407687
 21
2168.764784016385
 31
0.0
  0
LWPOLYLINE
  5
77E4
330
1F
100
AcDbEntity
  8
圖層4尺寸線
100
AcDbPolyline
 90
        4
 70
     1
 43
0.0
 10
7619.731263768233
 20
2157.070414545765
 10
7625.731263768233
 20
2157.070414545765
 10
7625.731263768233
 20
2163.070414545765
 10
7619.731263768233
 20
2163.070414545765
  0
CIRCLE
  5
77E5
330
1F
100
AcDbEntity
  8
圖層4尺寸線
100
AcDbCircle
 10
7591.731263768233
 20
2275.070414545765
 30
0.0
 40
4.0
  0
LINE
  5
77E6
330
1F
100
AcDbEntity
  8
圖層4尺寸線
100
AcDbLine
 10
7616.731263768233
 20
2244.070414545765
 30
0.0
 11
7616.731263768233
 21
2232.070414545765
 31
0.0
  0
LINE
  5
77E7
330
1F
100
AcDbEntity
  8
圖層4尺寸線
100
AcDbLine
 10
7610.731263768233
 20
2248.070414545765
 30
0.0
 11
7610.731263768233
 21
2223.070414545765
 31
0.0
  0
ARC
  5
77E8
330
1F
100
AcDbEntity
  8
圖層4尺寸線
100
AcDbCircle
 10
7591.731263768233
 20
2275.070414545765
 30
0.0
 40
2.0
100
AcDbArc
 50
60.00000000000272
 51
119.9999999999973
  0
ARC
  5
77E9
330
1F
100
AcDbEntity
  8
圖層4尺寸線
100
AcDbCircle
 10
7591.731263768233
 20
2275.070414545765
 30
0.0
 40
2.0
100
AcDbArc
 50
240.0000000000027
 51
299.9999999999973
  0
ARC
  5
77EA
330
1F
100
AcDbEntity
  8
圖層4尺寸線
100
AcDbCircle
 10
7591.731263768233
 20
2275.070414545765
 30
0.0
 40
3.5
100
AcDbArc
 50
163.3984504009902
 51
196.6015495990097
  0
LINE
  5
77EB
330
1F
100
AcDbEntity
  8
圖層4尺寸線
100
AcDbLine
 10
7590.731263768232
 20
2274.070414545765
 30
0.0
 11
7590.731263768232
 21
2273.338363738196
 31
0.0
  0
LINE
  5
77EC
330
1F
100
AcDbEntity
  8
圖層4尺寸線
100
AcDbLine
 10
7590.731263768232
 20
2274.070414545765
 30
0.0
 11
7588.377161801983
 21
2274.070414545765
 31
0.0
  0
LINE
  5
77ED
330
1F
100
AcDbEntity
  8
圖層4尺寸線
100
AcDbLine
 10
7590.731263768232
 20
2276.070414545765
 30
0.0
 11
7588.377161801983
 21
2276.070414545765
 31
0.0
  0
LINE
  5
77EE
330
1F
100
AcDbEntity
  8
圖層4尺寸線
100
AcDbLine
 10
7590.731263768232
 20
2276.802465353334
 30
0.0
 11
7590.731263768232
 21
2276.070414545765
 31
0.0
  0
ARC
  5
77EF
330
1F
100
AcDbEntity
  8
圖層4尺寸線
100
AcDbCircle
 10
7591.731263768233
 20
2275.070414545765
 30
0.0
 40
3.5
100
AcDbArc
 50
343.3984504009902
 51
16.60154959900975
  0
LINE
  5
77F0
330
1F
100
AcDbEntity
  8
圖層4尺寸線
100
AcDbLine
 10
7592.731263768233
 20
2274.070414545765
 30
0.0
 11
7592.731263768233
 21
2273.338363738196
 31
0.0
  0
LINE
  5
77F1
330
1F
100
AcDbEntity
  8
圖層4尺寸線
100
AcDbLine
 10
7592.731263768233
 20
2276.802465353334
 30
0.0
 11
7592.731263768233
 21
2276.070414545765
 31
0.0
  0
LINE
  5
77F2
330
1F
100
AcDbEntity
  8
圖層4尺寸線
100
AcDbLine
 10
7595.085365734482
 20
2274.070414545765
 30
0.0
 11
7592.731263768233
 21
2274.070414545765
 31
0.0
  0
LINE
  5
77F3
330
1F
100
AcDbEntity
  8
圖層4尺寸線
100
AcDbLine
 10
7595.085365734482
 20
2276.070414545765
 30
0.0
 11
7592.731263768233
 21
2276.070414545765
 31
0.0
  0
LINE
  5
77F4
330
1F
100
AcDbEntity
  8
圖層4尺寸線
100
AcDbLine
 10
7653.731263768233
 20
2155.070414545765
 30
0.0
 11
7653.731263768233
 21
2203.070414545765
 31
0.0
  0
LINE
  5
77F5
330
1F
100
AcDbEntity
  8
圖層4尺寸線
100
AcDbLine
 10
7657.731263768233
 20
2151.070414545765
 30
0.0
 11
7657.731263768233
 21
2207.070414545765
 31
0.0
  0
LINE
  5
77F6
330
1F
100
AcDbEntity
  8
圖層4尺寸線
100
AcDbLine
 10
7657.731263768233
 20
2113.070414545765
 30
0.0
 11
7657.731263768233
 21
2119.070414545765
 31
0.0
  0
CIRCLE
  5
77F7
330
1F
100
AcDbEntity
  8
圖層4尺寸線
100
AcDbCircle
 10
7657.731263768233
 20
2116.070414545765
 30
0.0
 40
8.110805357093454
  0
CIRCLE
  5
77F8
330
1F
100
AcDbEntity
  8
圖層4尺寸線
100
AcDbCircle
 10
7657.731263768233
 20
2116.070414545765
 30
0.0
 40
7.0
  0
LINE
  5
77F9
330
1F
100
AcDbEntity
  8
圖層4尺寸線
100
AcDbLine
 10
7680.731263768233
 20
2098.070414545765
 30
0.0
 11
7683.085365734483
 21
2098.070414545765
 31
0.0
  0
LINE
  5
77FA
330
1F
100
AcDbEntity
  8
圖層4尺寸線
100
AcDbLine
 10
7680.731263768233
 20
2100.070414545765
 30
0.0
 11
7683.085365734483
 21
2100.070414545765
 31
0.0
  0
CIRCLE
  5
77FB
330
1F
100
AcDbEntity
  8
圖層4尺寸線
100
AcDbCircle
 10
7679.731263768232
 20
2099.070414545765
 30
0.0
 40
4.0
  0
LINE
  5
77FC
330
1F
100
AcDbEntity
  8
圖層4尺寸線
100
AcDbLine
 10
7680.731263768233
 20
2097.338363738196
 30
0.0
 11
7680.731263768233
 21
2098.070414545765
 31
0.0
  0
LINE
  5
77FD
330
1F
100
AcDbEntity
  8
圖層4尺寸線
100
AcDbLine
 10
7680.731263768233
 20
2100.070414545765
 30
0.0
 11
7680.731263768233
 21
2100.802465353334
 31
0.0
  0
ARC
  5
77FE
330
1F
100
AcDbEntity
  8
圖層4尺寸線
100
AcDbCircle
 10
7679.731263768232
 20
2099.070414545765
 30
0.0
 40
3.5
100
AcDbArc
 50
163.3984504009902
 51
196.6015495990097
  0
LINE
  5
77FF
330
1F
100
AcDbEntity
  8
圖層4尺寸線
100
AcDbLine
 10
7676.377161801983
 20
2100.070414545765
 30
0.0
 11
7678.731263768233
 21
2100.070414545765
 31
0.0
  0
LINE
  5
7800
330
1F
100
AcDbEntity
  8
圖層4尺寸線
100
AcDbLine
 10
7676.377161801983
 20
2098.070414545765
 30
0.0
 11
7678.731263768233
 21
2098.070414545765
 31
0.0
  0
LINE
  5
7801
330
1F
100
AcDbEntity
  8
圖層4尺寸線
100
AcDbLine
 10
7678.731263768233
 20
2097.338363738196
 30
0.0
 11
7678.731263768233
 21
2098.070414545765
 31
0.0
  0
LINE
  5
7802
330
1F
100
AcDbEntity
  8
圖層4尺寸線
100
AcDbLine
 10
7678.731263768233
 20
2100.070414545765
 30
0.0
 11
7678.731263768233
 21
2100.802465353334
 31
0.0
  0
ARC
  5
7803
330
1F
100
AcDbEntity
  8
圖層4尺寸線
100
AcDbCircle
 10
7679.731263768232
 20
2099.070414545765
 30
0.0
 40
2.0
100
AcDbArc
 50
60.00000000000272
 51
119.9999999999973
  0
ARC
  5
7804
330
1F
100
AcDbEntity
  8
圖層4尺寸線
100
AcDbCircle
 10
7679.731263768232
 20
2099.070414545765
 30
0.0
 40
2.0
100
AcDbArc
 50
240.0000000000027
 51
299.9999999999973
  0
ARC
  5
7805
330
1F
100
AcDbEntity
  8
圖層4尺寸線
100
AcDbCircle
 10
7679.731263768232
 20
2099.070414545765
 30
0.0
 40
3.5
100
AcDbArc
 50
343.3984504009902
 51
16.60154959900975
  0
LINE
  5
7806
330
1F
100
AcDbEntity
  8
圖層4尺寸線
100
AcDbLine
 10
7654.731263768232
 20
2116.070414545765
 30
0.0
 11
7660.731263768233
 21
2116.070414545765
 31
0.0
  0
LWPOLYLINE
  5
7807
330
1F
100
AcDbEntity
  8
圖層4尺寸線
100
AcDbPolyline
 90
        4
 70
     1
 43
0.0
 10
7645.731263768232
 20
2157.070414545765
 10
7651.731263768232
 20
2157.070414545765
 10
7651.731263768232
 20
2163.070414545765
 10
7645.731263768232
 20
2163.070414545765
  0
CIRCLE
  5
7808
330
1F
100
AcDbEntity
  8
圖層4尺寸線
100
AcDbCircle
 10
7679.731263768232
 20
2275.070414545765
 30
0.0
 40
4.0
  0
LINE
  5
7809
330
1F
100
AcDbEntity
  8
圖層4尺寸線
100
AcDbLine
 10
7654.731263768232
 20
2232.070414545765
 30
0.0
 11
7654.731263768232
 21
2244.070414545765
 31
0.0
  0
LINE
  5
780A
330
1F
100
AcDbEntity
  8
圖層4尺寸線
100
AcDbLine
 10
7660.731263768233
 20
2223.070414545765
 30
0.0
 11
7660.731263768233
 21
2248.070414545765
 31
0.0
  0
LINE
  5
780B
330
1F
100
AcDbEntity
  8
圖層4尺寸線
100
AcDbLine
 10
7648.762078177213
 20
2226.286171068602
 30
0.0
 11
7657.055578467006
 21
2226.286171068602
 31
0.0
  0
LINE
  5
780C
330
1F
100
AcDbEntity
  8
圖層4尺寸線
100
AcDbLine
 10
7648.762078177213
 20
2228.286171068603
 30
0.0
 11
7657.055578467006
 21
2228.286171068603
 31
0.0
  0
LINE
  5
780D
330
1F
100
AcDbEntity
  8
圖層4尺寸線
100
AcDbLine
 10
7659.137241274966
 20
2224.070414545765
 30
0.0
 11
7646.475756302466
 21
2224.070414545765
 31
0.0
  0
LINE
  5
780E
330
1F
100
AcDbEntity
  8
圖層4尺寸線
100
AcDbLine
 10
7646.475756302466
 20
2230.50192759144
 30
0.0
 11
7659.137241274965
 21
2230.50192759144
 31
0.0
  0
LINE
  5
780F
330
1F
100
AcDbEntity
  8
圖層4尺寸線
100
AcDbLine
 10
7649.912360125007
 20
2225.761983232599
 30
0.0
 11
7649.912360125007
 21
2224.761983232599
 31
0.0
  0
ARC
  5
7810
330
1F
100
AcDbEntity
  8
圖層4尺寸線
100
AcDbCircle
 10
7649.912360125007
 20
2227.286171068603
 30
0.0
 40
1.52418783600342
100
AcDbArc
 50
90.0
 51
270.0
  0
ARC
  5
7811
330
1F
100
AcDbEntity
  8
圖層4尺寸線
100
AcDbCircle
 10
7649.912360125007
 20
2227.286171068603
 30
0.0
 40
2.52418783600342
100
AcDbArc
 50
90.0
 51
270.0
  0
LINE
  5
7812
330
1F
100
AcDbEntity
  8
圖層4尺寸線
100
AcDbLine
 10
7649.912360125007
 20
2229.810358904606
 30
0.0
 11
7649.912360125007
 21
2228.810358904606
 31
0.0
  0
LINE
  5
7813
330
1F
100
AcDbEntity
  8
圖層4尺寸線
100
AcDbLine
 10
7646.475756302466
 20
2224.070414545765
 30
0.0
 11
7646.475756302466
 21
2230.50192759144
 31
0.0
  0
LINE
  5
7814
330
1F
100
AcDbEntity
  8
圖層4尺寸線
100
AcDbLine
 10
7655.905296519212
 20
2225.761983232599
 30
0.0
 11
7655.905296519212
 21
2224.761983232599
 31
0.0
  0
ARC
  5
7815
330
1F
100
AcDbEntity
  8
圖層4尺寸線
100
AcDbCircle
 10
7655.905296519212
 20
2227.286171068603
 30
0.0
 40
1.52418783600342
100
AcDbArc
 50
270.0
 51
90.0
  0
ARC
  5
7816
330
1F
100
AcDbEntity
  8
圖層4尺寸線
100
AcDbCircle
 10
7655.905296519212
 20
2227.286171068603
 30
0.0
 40
2.52418783600342
100
AcDbArc
 50
270.0
 51
90.0
  0
LINE
  5
7817
330
1F
100
AcDbEntity
  8
圖層4尺寸線
100
AcDbLine
 10
7655.905296519212
 20
2229.810358904606
 30
0.0
 11
7655.905296519212
 21
2228.810358904606
 31
0.0
  0
LINE
  5
7818
330
1F
100
AcDbEntity
  8
圖層4尺寸線
100
AcDbLine
 10
7659.137241274965
 20
2230.50192759144
 30
0.0
 11
7659.137241274966
 21
2224.070414545765
 31
0.0
  0
LINE
  5
7819
330
1F
100
AcDbEntity
  8
圖層4尺寸線
100
AcDbLine
 10
7635.731263768232
 20
2265.070414545765
 30
0.0
 11
7635.731263768232
 21
2271.070414545765
 31
0.0
  0
LINE
  5
781A
330
1F
100
AcDbEntity
  8
圖層4尺寸線
100
AcDbLine
 10
7632.731263768232
 20
2268.070414545765
 30
0.0
 11
7638.731263768232
 21
2268.070414545765
 31
0.0
  0
CIRCLE
  5
781B
330
1F
100
AcDbEntity
  8
圖層4尺寸線
100
AcDbCircle
 10
7635.731263768232
 20
2268.070414545765
 30
0.0
 40
3.0
  0
LINE
  5
781C
330
1F
100
AcDbEntity
  8
圖層4尺寸線
100
AcDbLine
 10
7680.731263768233
 20
2274.070414545765
 30
0.0
 11
7683.085365734483
 21
2274.070414545765
 31
0.0
  0
LINE
  5
781D
330
1F
100
AcDbEntity
  8
圖層4尺寸線
100
AcDbLine
 10
7680.731263768233
 20
2276.070414545765
 30
0.0
 11
7683.085365734483
 21
2276.070414545765
 31
0.0
  0
LINE
  5
781E
330
1F
100
AcDbEntity
  8
圖層4尺寸線
100
AcDbLine
 10
7678.731263768233
 20
2274.070414545765
 30
0.0
 11
7678.731263768233
 21
2273.338363738196
 31
0.0
  0
LINE
  5
781F
330
1F
100
AcDbEntity
  8
圖層4尺寸線
100
AcDbLine
 10
7678.731263768233
 20
2276.802465353334
 30
0.0
 11
7678.731263768233
 21
2276.070414545765
 31
0.0
  0
LINE
  5
7820
330
1F
100
AcDbEntity
  8
圖層4尺寸線
100
AcDbLine
 10
7676.377161801983
 20
2276.070414545765
 30
0.0
 11
7678.731263768233
 21
2276.070414545765
 31
0.0
  0
LINE
  5
7821
330
1F
100
AcDbEntity
  8
圖層4尺寸線
100
AcDbLine
 10
7676.377161801983
 20
2274.070414545765
 30
0.0
 11
7678.731263768233
 21
2274.070414545765
 31
0.0
  0
ARC
  5
7822
330
1F
100
AcDbEntity
  8
圖層4尺寸線
100
AcDbCircle
 10
7679.731263768232
 20
2275.070414545765
 30
0.0
 40
3.5
100
AcDbArc
 50
163.3984504009902
 51
196.6015495990097
  0
LINE
  5
7823
330
1F
100
AcDbEntity
  8
圖層4尺寸線
100
AcDbLine
 10
7680.731263768233
 20
2274.070414545765
 30
0.0
 11
7680.731263768233
 21
2273.338363738196
 31
0.0
  0
LINE
  5
7824
330
1F
100
AcDbEntity
  8
圖層4尺寸線
100
AcDbLine
 10
7680.731263768233
 20
2276.802465353334
 30
0.0
 11
7680.731263768233
 21
2276.070414545765
 31
0.0
  0
ARC
  5
7825
330
1F
100
AcDbEntity
  8
圖層4尺寸線
100
AcDbCircle
 10
7679.731263768232
 20
2275.070414545765
 30
0.0
 40
2.0
100
AcDbArc
 50
60.00000000000272
 51
119.9999999999973
  0
ARC
  5
7826
330
1F
100
AcDbEntity
  8
圖層4尺寸線
100
AcDbCircle
 10
7679.731263768232
 20
2275.070414545765
 30
0.0
 40
2.0
100
AcDbArc
 50
240.0000000000027
 51
299.9999999999973
  0
ARC
  5
7827
330
1F
100
AcDbEntity
  8
圖層4尺寸線
100
AcDbCircle
 10
7679.731263768232
 20
2275.070414545765
 30
0.0
 40
3.5
100
AcDbArc
 50
343.3984504009902
 51
16.60154959900975
  0
LINE
  5
7828
330
1F
100
AcDbEntity
  8
圖層4尺寸線
100
AcDbLine
 10
7687.731263768232
 20
2288.070414545765
 30
0.0
 11
7687.731263768232
 21
2086.070414545765
 31
0.0
  0
ENDSEC
  0
SECTION
  2
OBJECTS
  0
DICTIONARY
  5
C
330
0
100
AcDbDictionary
281
     1
  3
ACAD_COLOR
350
BE
  3
ACAD_GROUP
350
D
  3
ACAD_LAYOUT
350
1A
  3
ACAD_MATERIAL
350
BD
  3
ACAD_MLINESTYLE
350
17
  3
ACAD_PLOTSETTINGS
350
19
  3
ACAD_PLOTSTYLENAME
350
E
  3
ACAD_TABLESTYLE
350
11A
  3
ACDBHEADERROUNDTRIPXREC
350
789F
  3
AcDbVariableDictionary
350
94
  3
AcmDictionary
350
5B
  3
AMG
350
41
  3
AMGSNAPSETTINGS
350
1B8
  3
DWGPROPS
350
789E
  0
DICTIONARY
  5
3F9
330
2
100
AcDbDictionary
280
     1
281
     1
  3
ACAD_LAYERFILTERS
360
63AB
  3
ACAD_LAYERSTATES
360
72C
  3
ACLYDICTIONARY
360
63AA
  0
DICTIONARY
  5
8F
330
1F
100
AcDbDictionary
280
     1
281
     1
  0
DICTIONARY
  5
7476
330
7469
100
AcDbDictionary
280
     1
281
     1
  3
ACAD_DIMASSOC
360
7477
  0
DICTIONARY
  5
BE
102
{ACAD_REACTORS
330
C
102
}
330
C
100
AcDbDictionary
281
     1
  0
DICTIONARY
  5
D
102
{ACAD_REACTORS
330
C
102
}
330
C
100
AcDbDictionary
281
     1
  0
DICTIONARY
  5
1A
102
{ACAD_REACTORS
330
C
102
}
330
C
100
AcDbDictionary
281
     1
  3
Model
350
22
  3
配置1
350
1E
  3
配置2
350
26
  0
DICTIONARY
  5
BD
102
{ACAD_REACTORS
330
C
102
}
330
C
100
AcDbDictionary
281
     1
  0
DICTIONARY
  5
17
102
{ACAD_REACTORS
330
C
102
}
330
C
100
AcDbDictionary
281
     1
  3
Standard
350
18
  0
DICTIONARY
  5
19
102
{ACAD_REACTORS
330
C
102
}
330
C
100
AcDbDictionary
281
     1
  0
ACDBDICTIONARYWDFLT
  5
E
102
{ACAD_REACTORS
330
C
102
}
330
C
100
AcDbDictionary
281
     1
  3
Normal
350
F
  3
型式 1
350
728
  3
型式 2
350
729
  3
型式 3
350
72A
  3
型式 4
350
72B
100
AcDbDictionaryWithDefault
340
F
  0
DICTIONARY
  5
11A
102
{ACAD_REACTORS
330
C
102
}
330
C
100
AcDbDictionary
281
     1
  3
Standard
350
11B
  0
DICTIONARY
  5
789F
102
{ACAD_REACTORS
330
C
102
}
330
C
100
AcDbDictionary
281
     1
  0
DICTIONARY
  5
94
102
{ACAD_REACTORS
330
C
102
}
330
C
100
AcDbDictionary
281
     1
  3
CTABLESTYLE
350
138
  3
DIMASSOC
350
96
  3
INDEXCTL
350
95
  3
PROJECTNAME
350
789C
  0
DICTIONARY
  5
5B
102
{ACAD_REACTORS
330
C
102
}
330
C
100
AcDbDictionary
281
     1
  3
AcmBOM
350
1B5
  3
AcmStdDictionary
350
61
  3
AMDTSECTSYM_ARROWCOLOR
350
123
  0
DICTIONARY
  5
41
102
{ACAD_REACTORS
330
C
102
}
330
C
100
AcDbDictionary
281
     1
  0
DICTIONARY
  5
1B8
102
{ACAD_REACTORS
330
C
102
}
330
C
100
AcDbDictionary
281
     1
  0
XRECORD
  5
789E
102
{ACAD_REACTORS
330
C
102
}
330
C
100
AcDbXrecord
280
     1
  1
DWGPROPS COOKIE
  2

  3

  4

  6

  7

  8

  9

300
AmdtFileType=84
301
=
302
=
303
=
304
=
305
=
306
=
307
=
308
=
309
=
 40
0.281779525462963
 41
2453556.605858461
 42
2453557.594061227
  1

 90
        1
  0
DICTIONARY
  5
63AB
102
{ACAD_REACTORS
330
3F9
102
}
330
3F9
100
AcDbDictionary
281
     1
  0
DICTIONARY
  5
72C
102
{ACAD_REACTORS
330
3F9
102
}
330
3F9
100
AcDbDictionary
281
     1
  0
DICTIONARY
  5
63AA
102
{ACAD_REACTORS
330
3F9
102
}
330
3F9
100
AcDbDictionary
281
     1
1001
ACAD
1000
<All
  0
DIMASSOC
  5
7477
102
{ACAD_REACTORS
330
7476
102
}
330
7476
100
AcDbDimAssoc
330
7469
 90
        2
 70
     0
 71
     0
  1
AcDbOsnapPointRef
 72
    13
331
46B0
 73
     0
 91
        0
 40
0.0
 10
0.0
 20
0.0
 30
2.000000000000000E+50
 75
     0
  0
LAYOUT
  5
22
102
{ACAD_XDICTIONARY
360
78A2
102
}
102
{ACAD_REACTORS
330
1A
102
}
330
1A
100
AcDbPlotSettings
  1

  2
\\RD\EPSON Stylus C63 Series單色
  4
A4
  6

 40
3.757083177566528
 41
3.757076978683471
 42
3.757080078125
 43
3.757080078125
 44
209.9733276367187
 45
296.9683227539062
 46
0.0
 47
0.0
 48
0.0
 49
0.0
140
0.0
141
0.0
142
1.0
143
0.3405120737814363
 70
 11952
 72
     1
 73
     0
 74
     0
  7
單色出圖.ctb
 75
     0
147
2.936753428137963
148
-2047.07469463503
149
-1261.649717473083
100
AcDbLayout
  1
Model
 70
     1
 71
     0
 10
0.0
 20
0.0
 11
12.0
 21
9.0
 12
0.0
 22
0.0
 32
0.0
 14
0.0
 24
0.0
 34
0.0
 15
0.0
 25
0.0
 35
0.0
146
0.0
 13
0.0
 23
0.0
 33
0.0
 16
1.0
 26
0.0
 36
0.0
 17
0.0
 27
1.0
 37
0.0
 76
     0
330
1F
1001
ACAD_PSEXT
1000
\\RD\EPSON Stylus C63 Series單色
1000
EPSON Stylus C63 Series
1000
\\RD
1000

1070
     0
  0
LAYOUT
  5
1E
102
{ACAD_XDICTIONARY
360
78A0
102
}
102
{ACAD_REACTORS
330
1A
102
}
330
1A
100
AcDbPlotSettings
  1

  2

  4

  6

 40
0.0
 41
0.0
 42
0.0
 43
0.0
 44
0.0
 45
0.0
 46
0.0
 47
0.0
 48
0.0
 49
0.0
140
0.0
141
0.0
142
1.0
143
1.0
 70
   688
 72
     0
 73
     0
 74
     5
  7
單色出圖.ctb
 75
    16
147
1.0
148
0.0
149
0.0
100
AcDbLayout
  1
配置1
 70
     1
 71
     1
 10
0.0
 20
0.0
 11
420.0
 21
297.0
 12
0.0
 22
0.0
 32
0.0
 14
1.000000000000000E+20
 24
1.000000000000000E+20
 34
1.000000000000000E+20
 15
-1.000000000000000E+20
 25
-1.000000000000000E+20
 35
-1.000000000000000E+20
146
0.0
 13
0.0
 23
0.0
 33
0.0
 16
1.0
 26
0.0
 36
0.0
 17
0.0
 27
1.0
 37
0.0
 76
     0
330
1B
  0
LAYOUT
  5
26
102
{ACAD_XDICTIONARY
360
78A4
102
}
102
{ACAD_REACTORS
330
1A
102
}
330
1A
100
AcDbPlotSettings
  1

  2

  4

  6

 40
0.0
 41
0.0
 42
0.0
 43
0.0
 44
0.0
 45
0.0
 46
0.0
 47
0.0
 48
0.0
 49
0.0
140
0.0
141
0.0
142
1.0
143
1.0
 70
   688
 72
     0
 73
     0
 74
     5
  7
單色出圖.ctb
 75
    16
147
1.0
148
0.0
149
0.0
100
AcDbLayout
  1
配置2
 70
     1
 71
     2
 10
0.0
 20
0.0
 11
12.0
 21
9.0
 12
0.0
 22
0.0
 32
0.0
 14
0.0
 24
0.0
 34
0.0
 15
0.0
 25
0.0
 35
0.0
146
0.0
 13
0.0
 23
0.0
 33
0.0
 16
1.0
 26
0.0
 36
0.0
 17
0.0
 27
1.0
 37
0.0
 76
     0
330
23
  0
MLINESTYLE
  5
18
102
{ACAD_REACTORS
330
17
102
}
330
17
100
AcDbMlineStyle
  2
STANDARD
 70
     0
  3

 62
   256
 51
90.0
 52
90.0
 71
     2
 49
0.5
 62
   256
  6
BYLAYER
 49
-0.5
 62
   256
  6
BYLAYER
  0
ACDBPLACEHOLDER
  5
F
102
{ACAD_REACTORS
330
E
102
}
330
E
  0
ACDBPLACEHOLDER
  5
728
102
{ACAD_REACTORS
330
E
102
}
330
E
  0
ACDBPLACEHOLDER
  5
729
102
{ACAD_REACTORS
330
E
102
}
330
E
  0
ACDBPLACEHOLDER
  5
72A
102
{ACAD_REACTORS
330
E
102
}
330
E
  0
ACDBPLACEHOLDER
  5
72B
102
{ACAD_REACTORS
330
E
102
}
330
E
  0
TABLESTYLE
  5
11B
102
{ACAD_REACTORS
330
11A
102
}
330
11A
100
AcDbTableStyle
  3
Standard
 70
     0
 71
     0
 40
1.5
 41
1.5
280
     0
281
     0
  7
STANDARD
140
4.5
170
     2
 62
     0
 63
     7
283
     0
274
    -2
284
     1
 64
     0
275
    -2
285
     1
 65
     0
276
    -2
286
     1
 66
     0
277
    -2
287
     1
 67
     0
278
    -2
288
     1
 68
     0
279
    -2
289
     1
 69
     0
  7
STANDARD
140
6.0
170
     5
 62
     0
 63
     7
283
     0
274
    -2
284
     1
 64
     0
275
    -2
285
     1
 65
     0
276
    -2
286
     1
 66
     0
277
    -2
287
     1
 67
     0
278
    -2
288
     1
 68
     0
279
    -2
289
     1
 69
     0
  7
STANDARD
140
4.5
170
     5
 62
     0
 63
     7
283
     0
274
    -2
284
     1
 64
     0
275
    -2
285
     1
 65
     0
276
    -2
286
     1
 66
     0
277
    -2
287
     1
 67
     0
278
    -2
288
     1
 68
     0
279
    -2
289
     1
 69
     0
  0
DICTIONARYVAR
  5
138
102
{ACAD_REACTORS
330
94
102
}
330
94
100
DictionaryVariables
280
     0
  1
STANDARD
  0
DICTIONARYVAR
  5
96
102
{ACAD_REACTORS
330
94
102
}
330
94
100
DictionaryVariables
280
     0
  1
2
  0
DICTIONARYVAR
  5
95
102
{ACAD_REACTORS
330
94
102
}
330
94
100
DictionaryVariables
280
     0
  1
0
  0
DICTIONARYVAR
  5
789C
102
{ACAD_REACTORS
330
94
102
}
330
94
100
DictionaryVariables
280
     0
  1

  0
DICTIONARY
  5
1B5
102
{ACAD_REACTORS
330
5B
102
}
330
5B
100
AcDbDictionary
281
     1
  0
DICTIONARY
  5
61
102
{ACAD_REACTORS
330
5B
102
}
330
5B
100
AcDbDictionary
281
     1
  0
XRECORD
  5
123
102
{ACAD_REACTORS
330
5B
102
}
330
5B
100
AcDbXrecord
280
     1
 90
-1023410169
  0
DICTIONARY
  5
78A2
330
22
100
AcDbDictionary
280
     1
281
     1
  3
ACAD_XREC_ROUNDTRIP
360
78A3
  0
DICTIONARY
  5
78A0
330
1E
100
AcDbDictionary
280
     1
281
     1
  3
ACAD_XREC_ROUNDTRIP
360
78A1
  0
DICTIONARY
  5
78A4
330
26
100
AcDbDictionary
280
     1
281
     1
  3
ACAD_XREC_ROUNDTRIP
360
78A5
  0
XRECORD
  5
78A3
102
{ACAD_REACTORS
330
78A2
102
}
330
78A2
100
AcDbXrecord
280
     1
102
SHADEPLOT
 70
     0
102
SHADEPLOTRESLEVEL
 70
     2
102
SHADEPLOTCUSTOMDPI
 70
   300
  0
XRECORD
  5
78A1
102
{ACAD_REACTORS
330
78A0
102
}
330
78A0
100
AcDbXrecord
280
     1
102
SHADEPLOT
 70
     0
102
SHADEPLOTRESLEVEL
 70
     2
102
SHADEPLOTCUSTOMDPI
 70
   300
  0
XRECORD
  5
78A5
102
{ACAD_REACTORS
330
78A4
102
}
330
78A4
100
AcDbXrecord
280
     1
102
SHADEPLOT
 70
     0
102
SHADEPLOTRESLEVEL
 70
     2
102
SHADEPLOTCUSTOMDPI
 70
   300
  0
ENDSEC
  0
EOF
