  0
SECTION
  2
HEADER
  9
$ACADVER
  1
AC1015
  9
$ACADMAINTVER
 70
    20
  9
$DWGCODEPAGE
  3
ANSI_950
  9
$INSBASE
 10
0.0
 20
0.0
 30
0.0
  9
$EXTMIN
 10
5583.489307621968
 20
-893.1237150354085
 30
-0.0408164398736517
  9
$EXTMAX
 10
7111.25037086215
 20
911.1678100233429
 30
1337.615971775511
  9
$LIMMIN
 10
0.0
 20
0.0
  9
$LIMMAX
 10
420.0
 20
297.0
  9
$ORTHOMODE
 70
     1
  9
$REGENMODE
 70
     1
  9
$FILLMODE
 70
     1
  9
$QTEXTMODE
 70
     0
  9
$MIRRTEXT
 70
     1
  9
$LTSCALE
 40
1.0
  9
$ATTMODE
 70
     1
  9
$TEXTSIZE
 40
3.0
  9
$TRACEWID
 40
1.0
  9
$TEXTSTYLE
  7
CHINESET
  9
$CLAYER
  8
0
  9
$CELTYPE
  6
ByLayer
  9
$CECOLOR
 62
   256
  9
$CELTSCALE
 40
1.0
  9
$DISPSILH
 70
     0
  9
$DIMSCALE
 40
1.0
  9
$DIMASZ
 40
20.0
  9
$DIMEXO
 40
3.0
  9
$DIMDLI
 40
50.0
  9
$DIMRND
 40
0.0
  9
$DIMDLE
 40
0.0
  9
$DIMEXE
 40
4.0
  9
$DIMTP
 40
0.1
  9
$DIMTM
 40
0.1
  9
$DIMTXT
 40
20.0
  9
$DIMCEN
 40
0.0
  9
$DIMTSZ
 40
0.0
  9
$DIMTOL
 70
     0
  9
$DIMLIM
 70
     0
  9
$DIMTIH
 70
     0
  9
$DIMTOH
 70
     0
  9
$DIMSE1
 70
     0
  9
$DIMSE2
 70
     0
  9
$DIMTAD
 70
     1
  9
$DIMZIN
 70
     8
  9
$DIMBLK
  1

  9
$DIMASO
 70
     1
  9
$DIMSHO
 70
     1
  9
$DIMPOST
  1

  9
$DIMAPOST
  1
"
  9
$DIMALT
 70
     0
  9
$DIMALTD
 70
     2
  9
$DIMALTF
 40
0.0393701
  9
$DIMLFAC
 40
1.0
  9
$DIMTOFL
 70
     1
  9
$DIMTVP
 40
0.0
  9
$DIMTIX
 70
     0
  9
$DIMSOXD
 70
     0
  9
$DIMSAH
 70
     0
  9
$DIMBLK1
  1

  9
$DIMBLK2
  1

  9
$DIMSTYLE
  2
AM_ISO
  9
$DIMCLRD
 70
   256
  9
$DIMCLRE
 70
   256
  9
$DIMCLRT
 70
   256
  9
$DIMTFAC
 40
0.71
  9
$DIMGAP
 40
6.0
  9
$DIMJUST
 70
     0
  9
$DIMSD1
 70
     0
  9
$DIMSD2
 70
     0
  9
$DIMTOLJ
 70
     2
  9
$DIMTZIN
 70
     8
  9
$DIMALTZ
 70
     0
  9
$DIMALTTZ
 70
     0
  9
$DIMUPT
 70
     0
  9
$DIMDEC
 70
     2
  9
$DIMTDEC
 70
     8
  9
$DIMALTU
 70
     2
  9
$DIMALTTD
 70
     2
  9
$DIMTXSTY
  7
STANDARD
  9
$DIMAUNIT
 70
     0
  9
$DIMADEC
 70
     0
  9
$DIMALTRND
 40
0.0
  9
$DIMAZIN
 70
     2
  9
$DIMDSEP
 70
    46
  9
$DIMATFIT
 70
     3
  9
$DIMFRAC
 70
     0
  9
$DIMLDRBLK
  1

  9
$DIMLUNIT
 70
     2
  9
$DIMLWD
 70
    -1
  9
$DIMLWE
 70
    -1
  9
$DIMTMOVE
 70
     0
  9
$LUNITS
 70
     2
  9
$LUPREC
 70
     2
  9
$SKETCHINC
 40
1.0
  9
$FILLETRAD
 40
2.5
  9
$AUNITS
 70
     0
  9
$AUPREC
 70
     0
  9
$MENU
  1
.
  9
$ELEVATION
 40
0.0
  9
$PELEVATION
 40
0.0
  9
$THICKNESS
 40
0.0
  9
$LIMCHECK
 70
     0
  9
$CHAMFERA
 40
2.5
  9
$CHAMFERB
 40
2.5
  9
$CHAMFERC
 40
20.0
  9
$CHAMFERD
 40
0.0
  9
$SKPOLY
 70
     0
  9
$TDCREATE
 40
2453556.605858461
  9
$TDUCREATE
 40
2453556.272525128
  9
$TDUPDATE
 40
2453557.593653600
  9
$TDUUPDATE
 40
2453557.260320266
  9
$TDINDWG
 40
0.2801996528
  9
$TDUSRTIMER
 40
0.2801994792
  9
$USRTIMER
 70
     1
  9
$ANGBASE
 50
0.0
  9
$ANGDIR
 70
     0
  9
$PDMODE
 70
     0
  9
$PDSIZE
 40
0.0
  9
$PLINEWID
 40
0.0
  9
$SPLFRAME
 70
     0
  9
$SPLINETYPE
 70
     6
  9
$SPLINESEGS
 70
     8
  9
$HANDSEED
  5
7883
  9
$SURFTAB1
 70
     6
  9
$SURFTAB2
 70
     6
  9
$SURFTYPE
 70
     6
  9
$SURFU
 70
     6
  9
$SURFV
 70
     6
  9
$UCSBASE
  2

  9
$UCSNAME
  2

  9
$UCSORG
 10
0.0
 20
0.0
 30
0.0
  9
$UCSXDIR
 10
1.0
 20
0.0
 30
0.0
  9
$UCSYDIR
 10
0.0
 20
1.0
 30
0.0
  9
$UCSORTHOREF
  2

  9
$UCSORTHOVIEW
 70
     0
  9
$UCSORGTOP
 10
0.0
 20
0.0
 30
0.0
  9
$UCSORGBOTTOM
 10
0.0
 20
0.0
 30
0.0
  9
$UCSORGLEFT
 10
0.0
 20
0.0
 30
0.0
  9
$UCSORGRIGHT
 10
0.0
 20
0.0
 30
0.0
  9
$UCSORGFRONT
 10
0.0
 20
0.0
 30
0.0
  9
$UCSORGBACK
 10
0.0
 20
0.0
 30
0.0
  9
$PUCSBASE
  2

  9
$PUCSNAME
  2

  9
$PUCSORG
 10
0.0
 20
0.0
 30
0.0
  9
$PUCSXDIR
 10
1.0
 20
0.0
 30
0.0
  9
$PUCSYDIR
 10
0.0
 20
1.0
 30
0.0
  9
$PUCSORTHOREF
  2

  9
$PUCSORTHOVIEW
 70
     0
  9
$PUCSORGTOP
 10
0.0
 20
0.0
 30
0.0
  9
$PUCSORGBOTTOM
 10
0.0
 20
0.0
 30
0.0
  9
$PUCSORGLEFT
 10
0.0
 20
0.0
 30
0.0
  9
$PUCSORGRIGHT
 10
0.0
 20
0.0
 30
0.0
  9
$PUCSORGFRONT
 10
0.0
 20
0.0
 30
0.0
  9
$PUCSORGBACK
 10
0.0
 20
0.0
 30
0.0
  9
$USERI1
 70
     0
  9
$USERI2
 70
     0
  9
$USERI3
 70
     0
  9
$USERI4
 70
     0
  9
$USERI5
 70
     0
  9
$USERR1
 40
0.0
  9
$USERR2
 40
0.0
  9
$USERR3
 40
0.0
  9
$USERR4
 40
0.0
  9
$USERR5
 40
0.0
  9
$WORLDVIEW
 70
     1
  9
$SHADEDGE
 70
     3
  9
$SHADEDIF
 70
    70
  9
$TILEMODE
 70
     1
  9
$MAXACTVP
 70
    64
  9
$PINSBASE
 10
0.0
 20
0.0
 30
0.0
  9
$PLIMCHECK
 70
     0
  9
$PEXTMIN
 10
1.000000000000000E+20
 20
1.000000000000000E+20
 30
1.000000000000000E+20
  9
$PEXTMAX
 10
-1.000000000000000E+20
 20
-1.000000000000000E+20
 30
-1.000000000000000E+20
  9
$PLIMMIN
 10
0.0
 20
0.0
  9
$PLIMMAX
 10
420.0
 20
297.0
  9
$UNITMODE
 70
     0
  9
$VISRETAIN
 70
     1
  9
$PLINEGEN
 70
     0
  9
$PSLTSCALE
 70
     1
  9
$TREEDEPTH
 70
  3020
  9
$CMLSTYLE
  2
Standard
  9
$CMLJUST
 70
     0
  9
$CMLSCALE
 40
20.0
  9
$PROXYGRAPHICS
 70
     1
  9
$MEASUREMENT
 70
     1
  9
$CELWEIGHT
370
    -1
  9
$ENDCAPS
280
     0
  9
$JOINSTYLE
280
     0
  9
$LWDISPLAY
290
     0
  9
$INSUNITS
 70
     4
  9
$HYPERLINKBASE
  1

  9
$STYLESHEET
  1
彩色出圖.ctb
  9
$XEDIT
290
     1
  9
$CEPSNTYPE
380
     0
  9
$PSTYLEMODE
290
     1
  9
$FINGERPRINTGUID
  2
{6FBFCDA8-F3CD-4AA6-B64B-DBECB1E66A4A}
  9
$VERSIONGUID
  2
{BF017A22-A13E-420B-9387-311C0687BD53}
  9
$EXTNAMES
290
     1
  9
$PSVPSCALE
 40
0.0
  9
$OLESTARTUP
290
     0
  0
ENDSEC
  0
SECTION
  2
CLASSES
  0
CLASS
  1
ACDBDICTIONARYWDFLT
  2
AcDbDictionaryWithDefault
  3
ObjectDBX Classes
 90
        0
280
     0
281
     0
  0
CLASS
  1
ACDBPLACEHOLDER
  2
AcDbPlaceHolder
  3
ObjectDBX Classes
 90
        0
280
     0
281
     0
  0
CLASS
  1
LAYOUT
  2
AcDbLayout
  3
ObjectDBX Classes
 90
        0
280
     0
281
     0
  0
CLASS
  1
ACME_DOCUMENT
  2
AcMeDbDoc
  3
AcMeServices
 90
        0
280
     0
281
     0
  0
CLASS
  1
AMGSETTINGSOBJ
  2
AmgSettingsObj
  3
"AcadM|Product Description: AutoCAD Mechanical 2000|Company: Autodesk"
 90
        0
280
     0
281
     0
  0
CLASS
  1
ACMESCOPE
  2
AcMeScope
  3
AcMeServices
 90
        0
280
     0
281
     0
  0
CLASS
  1
ACMECOMMANDHISTORY
  2
AcMeCommandHistory
  3
AcMeServices
 90
        0
280
     0
281
     0
  0
CLASS
  1
ACIMSYSVARMAN
  2
AcImSysVarManager
  3
AcMeServices
 90
        0
280
     0
281
     0
  0
CLASS
  1
ACIMREALSYSVAR
  2
AcImRealSysVar
  3
AcMeServices
 90
        0
280
     0
281
     0
  0
CLASS
  1
ACIMINTSYSVAR
  2
AcImIntSysVar
  3
AcMeServices
 90
        0
280
     0
281
     0
  0
CLASS
  1
ACMEDRAWINGMAN
  2
AcMeDrawingMan
  3
AcMeServices
 90
        0
280
     0
281
     0
  0
CLASS
  1
ACMEVIEW
  2
AcMeView
  3
AcMeServices
 90
        0
280
     0
281
     0
  0
CLASS
  1
ACDBENTITYCACHE
  2
AcMeEntityCache
  3
AcMeServices
 90
        0
280
     0
281
     0
  0
CLASS
  1
GSMANAGER
  2
AcMeGSManager
  3
AcMeServices
 90
        0
280
     0
281
     0
  0
CLASS
  1
AMDTINTERNALREACTOR
  2
AmdtInternalReactor
  3
AcMeServices
 90
        0
280
     0
281
     0
  0
CLASS
  1
ACMESTATEMGR
  2
AcMeStateMgr
  3
AcMeServices
 90
        0
280
     0
281
     0
  0
CLASS
  1
ACGREFMASTER
  2
AcGrefMaster
  3
AcAttribServices
 90
        0
280
     0
281
     0
  0
CLASS
  1
ACME_DATABASE
  2
AcMeDbDatabase
  3
AcMeServices
 90
        0
280
     0
281
     0
  0
CLASS
  1
ACRFINSADJUSTERMGR
  2
AcRfInsAdjusterMgr
  3
AcMeServices
 90
        0
280
     0
281
     0
  0
CLASS
  1
ACGREFACADMASTER
  2
AcGrefacadMaster
  3
AcGrefServices
 90
        0
280
     0
281
     0
  0
CLASS
  1
AMIMASTER
  2
AmiMaster
  3
AmiServices
 90
        0
280
     0
281
     0
  0
CLASS
  1
ACMDATADICTIONARY
  2
AcmDataDictionary
  3
"AcmSymBB|Product Description: AutoCAD Mechanical 2004 DX|Company: Autodesk"
 90
        0
280
     0
281
     0
  0
CLASS
  1
ACMDATAENTRYBLOCK
  2
AcmDataEntryBlock
  3
"AcmSymBB|Product Description: AutoCAD Mechanical 2004 DX|Company: Autodesk"
 90
        0
280
     0
281
     0
  0
CLASS
  1
ACIMSTRSYSVAR
  2
AcImStrSysVar
  3
AcMeServices
 90
        0
280
     0
281
     0
  0
CLASS
  1
ACMSTANDARDISO
  2
AcmStandardISO
  3
"Amdt_StdImp|Product Description: AutoCAD Mechanical 2004 DX|Company: Autodesk"
 90
        0
280
     0
281
     0
  0
CLASS
  1
AMGOBJPROPCFG
  2
AmgObjPropCfg
  3
"AmgLay|Product Description: AutoCAD Mechanical 2000|Company: Autodesk"
 90
        1
280
     0
281
     0
  0
CLASS
  1
AMDTEDGESTANDARDISO
  2
AmdtEdgeStdISO
  3
"Amdt_StdImp|Product Description: AutoCAD Mechanical 2004 DX|Company: Autodesk"
 90
        0
280
     0
281
     0
  0
CLASS
  1
ACMSURFSTANDARDISO
  2
AcmSurfTextStdISO
  3
"Amdt_StdImp|Product Description: AutoCAD Mechanical 2004 DX|Company: Autodesk"
 90
        0
280
     0
281
     0
  0
CLASS
  1
ACMFCFSTANDARDISO
  2
AcmFCFStdISO
  3
"Amdt_StdImp|Product Description: AutoCAD Mechanical 2004 DX|Company: Autodesk"
 90
        0
280
     0
281
     0
  0
CLASS
  1
ACMWELDSTANDARDISO
  2
AcmWeldingStdISO
  3
"Amdt_StdImp|Product Description: AutoCAD Mechanical 2004 DX|Company: Autodesk"
 90
        0
280
     0
281
     0
  0
CLASS
  1
ACMIDSTANDARDISO
  2
AcmIdStdISO
  3
"Amdt_StdImp|Product Description: AutoCAD Mechanical 2004 DX|Company: Autodesk"
 90
        0
280
     0
281
     0
  0
CLASS
  1
ACMDATUMSTANDARDISO
  2
AcmDatumStdISO
  3
"Amdt_StdImp|Product Description: AutoCAD Mechanical 2004 DX|Company: Autodesk"
 90
        0
280
     0
281
     0
  0
CLASS
  1
ACMBOMSTANDARDISO
  2
AcmBOMStdISO
  3
"Amdt_StdImp|Product Description: AutoCAD Mechanical 2004 DX|Company: Autodesk"
 90
        0
280
     0
281
     0
  0
CLASS
  1
ACMDETAILSTANDARDISO
  2
AmdtDetailSymStdISO
  3
"Amdt_StdImp|Product Description: AutoCAD Mechanical 2004 DX|Company: Autodesk"
 90
        0
280
     0
281
     0
  0
CLASS
  1
ACMSECTIONSTANDARDISO
  2
AmdtSectionSymStdISO
  3
"Amdt_StdImp|Product Description: AutoCAD Mechanical 2004 DX|Company: Autodesk"
 90
        0
280
     0
281
     0
  0
CLASS
  1
ACMCENTERLINESTANDARDISO
  2
AmdtCenterLineStdISO
  3
"Amdt_StdImp|Product Description: AutoCAD Mechanical 2004 DX|Company: Autodesk"
 90
        0
280
     0
281
     0
  0
CLASS
  1
ACMNOTESTANDARDISO
  2
AmdtNoteStdISO
  3
"Amdt_StdImp|Product Description: AutoCAD Mechanical 2004 DX|Company: Autodesk"
 90
        0
280
     0
281
     0
  0
CLASS
  1
ACAMGLAYSTD
  2
AcAmgLayStd
  3
"AcAmgLayStd|Product Description: AutoCAD Mechanical 2000|Company: Autodesk"
 90
        0
280
     0
281
     0
  0
CLASS
  1
ACAMGDIMSTD
  2
AcAmgDimStd
  3
"AcAmgDimStd|Product Description: AutoCAD Mechanical 2000|Company: Autodesk"
 90
        0
280
     0
281
     0
  0
CLASS
  1
ACAMGHOLECHARTSTDISO
  2
AcAmgHoleChartStdISO
  3
ACMSYMBB_MODULE_NAME
 90
        0
280
     0
281
     0
  0
CLASS
  1
ACAMGTITLESTD
  2
AcAmgTitleStd
  3
"TITLEAPP"
 90
        0
280
     0
281
     0
  0
CLASS
  1
LAYER_INDEX
  2
AcDbLayerIndex
  3
ObjectDBX Classes
 90
    32768
280
     0
281
     0
  0
CLASS
  1
IDBUFFER
  2
AcDbIdBuffer
  3
ObjectDBX Classes
 90
    32768
280
     0
281
     0
  0
CLASS
  1
DICTIONARYVAR
  2
AcDbDictionaryVar
  3
ObjectDBX Classes
 90
        0
280
     0
281
     0
  0
CLASS
  1
AM_DRAWING_MGR
  2
AcDmDwgMgr
  3
AcMechDwgViewMgmt
 90
        0
280
     0
281
     0
  0
CLASS
  1
AM_DWG_DOCUMENT
  2
AcDmDwgDocument
  3
AcMechDwgViewMgmt
 90
        0
280
     0
281
     0
  0
CLASS
  1
AM_DWG_SHEET
  2
AcDmSheet
  3
AcMechDwgViewMgmt
 90
        0
280
     0
281
     0
  0
CLASS
  1
AM_VIEWDIMPARMAP
  2
AcDmViewDimParMap
  3
AcMechDwgViewMgmt
 90
        0
280
     0
281
     0
  0
CLASS
  1
AM_DWGMGR_NAME
  2
AcDmDwgMgrName
  3
AcMechDwgViewMgmt
 90
        0
280
     0
281
     0
  0
CLASS
  1
AMDTMENUSTATEMGR
  2
AmdtMenuStateMgr
  3
McadcomServices
 90
        0
280
     0
281
     0
  0
CLASS
  1
AMDTMCOMMENUSTATE
  2
AmdtMcomMenuState
  3
McadcomServices
 90
        0
280
     0
281
     0
  0
CLASS
  1
MAPIAMMOUDLE
  2
MApiAmModule
  3
MApiAmServices
 90
        0
280
     0
281
     0
  0
CLASS
  1
AMDTADMENUSTATE
  2
AmdtAdMenuState
  3
DesignerServices
 90
        0
280
     0
281
     0
  0
CLASS
  1
ADAPPL
  2
AcAdAppl
  3
DesignerServices
 90
        0
280
     0
281
     0
  0
CLASS
  1
DEPMGR
  2
AcAdDepMgr
  3
DesignerServices
 90
        0
280
     0
281
     0
  0
CLASS
  1
PARAMMGR
  2
AcAdParamMgr
  3
DesignerServices
 90
        0
280
     0
281
     0
  0
CLASS
  1
PARAMSCOPE
  2
AcAdParamScope
  3
DesignerServices
 90
        0
280
     0
281
     0
  0
CLASS
  1
NAMEDAPPL
  2
AcAdNamedAppl
  3
DesignerServices
 90
        0
280
     0
281
     0
  0
CLASS
  1
AMDTDMMENUSTATE
  2
AmdtDmMenuState
  3
AcMechDwgViewMgmt
 90
        0
280
     0
281
     0
  0
CLASS
  1
AMDTAMMENUSTATE
  2
AmdtAmMenuState
  3
DesignerAssemblies
 90
        0
280
     0
281
     0
  0
CLASS
  1
ACAMPROJECT
  2
AcAmProject
  3
DesignerAssemblies
 90
        0
280
     0
281
     0
  0
CLASS
  1
ACAMGRCOMPDEF
  2
AcAmGrCompDef
  3
DesignerAssemblies
 90
        0
280
     0
281
     0
  0
CLASS
  1
ACCMCONTEXT
  2
AcCmContext
  3
DesignerAssemblies
 90
        0
280
     0
281
     0
  0
CLASS
  1
ACAMCOMPDEF
  2
AcAmCompDef
  3
DesignerAssemblies
 90
        0
280
     0
281
     0
  0
CLASS
  1
ACAMCOMPDEFMGR
  2
AcAmCompDefMgr
  3
DesignerAssemblies
 90
        0
280
     0
281
     0
  0
CLASS
  1
AMCONTEXTMGR
  2
AcAmContextMgr
  3
DesignerAssemblies
 90
        0
280
     0
281
     0
  0
CLASS
  1
ACAMCONTEXTMODELER
  2
AcAmContextModeler
  3
DesignerAssemblies
 90
        0
280
     0
281
     0
  0
CLASS
  1
ACMTHREADLINESTANDARDISO
  2
AmdtThreadLineStdISO
  3
"Amdt_StdImp|Product Description: AutoCAD Mechanical 2004 DX|Company: Autodesk"
 90
        0
280
     0
281
     0
  0
CLASS
  1
CATALOGSTATE
  2
AcAmCatalogState
  3
DesignerAssemblies
 90
        0
280
     0
281
     0
  0
CLASS
  1
ACAMGRCOMPDEFSET
  2
AcAmGrCompDefSet
  3
DesignerAssemblies
 90
        0
280
     0
281
     0
  0
CLASS
  1
AMDTBROWSERDBTAB
  2
AmdtBrowserDbTab
  3
McadcomServices
 90
        0
280
     0
281
     0
  0
CLASS
  1
CBROWSERAPPOBJECT
  2
CBrowserAppObject
  3
McadcomServices
 90
        0
280
     0
281
     0
  0
CLASS
  1
DM_PLACEHOLDER
  2
AcDmSelsetPlaceholder
  3
AcMechDwgViewMgmt
 90
        0
280
     0
281
     0
  0
CLASS
  1
TABLESTYLE
  2
AcDbTableStyle
  3
ObjectDBX Classes
 90
     2047
280
     0
281
     0
  0
CLASS
  1
VAACXREFPANELOBJECT
  2
VaAcXREFPanelObject
  3
VAAC_ADDIN
 90
    32768
280
     0
281
     0
  0
CLASS
  1
VAACIMAGEINVENTORY
  2
VaAcImageInventory
  3
VAAC_ADDIN
 90
    32768
280
     0
281
     0
  0
CLASS
  1
AMDTNOTETEMPLATEDB
  2
AmdtNoteTemplateDB
  3
AMDT_STDIMP_MODULE_NAME
 90
        0
280
     0
281
     0
  0
CLASS
  1
ACMBOM
  2
AcmBom
  3
"AcmSymBB|Product Description: AutoCAD Mechanical 2004 DX|Company: Autodesk"
 90
    32768
280
     0
281
     0
  0
CLASS
  1
AMDTFORMULAUPDATEDISPATCHER
  2
AmdtFormulaUpdateDispatcher
  3
AcMeServices
 90
    32768
280
     0
281
     0
  0
CLASS
  1
ACMPARTLIST
  2
AcmPartList
  3
"AcmSymBB|Product Description: AutoCAD Mechanical 2004 DX|Company: Autodesk"
 90
    33791
280
     0
281
     1
  0
CLASS
  1
ACAMGFILTERDAT
  2
AcAmgFilterDat
  3
"AcadM|Product Description: AutoCAD Mechanical 2000|Company: Autodesk"
 90
        0
280
     0
281
     0
  0
CLASS
  1
DIMASSOC
  2
AcDbDimAssoc
  3
"AcDbDimAssoc|Product Desc:     AcDim ARX App For Dimension|Company:          Autodesk, Inc.|WEB Address:      www.autodesk.com"
 90
    32768
280
     0
281
     0
  0
CLASS
  1
ACAMGHOLECHARTORIGIN
  2
AcAmgHoleChartOrigin
  3
ACMSYMBB_MODULE_NAME
 90
    33663
280
     0
281
     1
  0
CLASS
  1
AMDTNOTE
  2
AmdtNote
  3
"AcmSymBB|Product Description: AutoCAD Mechanical 2004 DX|Company: Autodesk"
 90
     1023
280
     0
281
     1
  0
CLASS
  1
ACRFATTGENMGR
  2
AcRfAttGeneralMgr
  3
AcAttribServices
 90
        0
280
     0
281
     0
  0
ENDSEC
  0
SECTION
  2
TABLES
  0
TABLE
  2
VPORT
  5
8
330
0
100
AcDbSymbolTable
 70
     3
  0
VPORT
  5
787A
330
8
100
AcDbSymbolTableRecord
100
AcDbViewportTableRecord
  2
*Active
 70
     0
 10
0.0
 20
0.0
 11
1.0
 21
1.0
 12
6347.399895070259
 22
9.112095431295983
 13
0.0
 23
0.0
 14
2.5
 24
2.5
 15
10.0
 25
10.0
 16
0.0
 26
0.0
 36
1.0
 17
0.0
 27
0.0
 37
0.0
 40
1827.422837933514
 41
1.81766917293233
 42
50.0
 43
0.0
 44
0.0
 50
0.0
 51
0.0
 71
     0
 72
   100
 73
     1
 74
     3
 75
     0
 76
     0
 77
     0
 78
     0
281
     0
 65
     1
110
0.0
120
0.0
130
0.0
111
1.0
121
0.0
131
0.0
112
0.0
122
1.0
132
0.0
 79
     0
146
0.0
  0
ENDTAB
  0
TABLE
  2
LTYPE
  5
5
330
0
100
AcDbSymbolTable
 70
    17
  0
LTYPE
  5
14
330
5
100
AcDbSymbolTableRecord
100
AcDbLinetypeTableRecord
  2
ByBlock
 70
     0
  3

 72
    65
 73
     0
 40
0.0
  0
LTYPE
  5
15
330
5
100
AcDbSymbolTableRecord
100
AcDbLinetypeTableRecord
  2
ByLayer
 70
     0
  3

 72
    65
 73
     0
 40
0.0
  0
LTYPE
  5
16
330
5
100
AcDbSymbolTableRecord
100
AcDbLinetypeTableRecord
  2
Continuous
 70
     0
  3
Solid line
 72
    65
 73
     0
 40
0.0
  0
LTYPE
  5
64
330
5
100
AcDbSymbolTableRecord
100
AcDbLinetypeTableRecord
  2
AM_ISO02W050
 70
     0
  3
__ __ __ __ __ __ __ __ __ __ __ __ __ __ __
 72
    65
 73
     2
 40
7.5
 49
6.0
 74
     0
 49
-1.5
 74
     0
  0
LTYPE
  5
65
330
5
100
AcDbSymbolTableRecord
100
AcDbLinetypeTableRecord
  2
AM_ISO08W050
 70
     0
  3
____ . ____ . ____ . ____ . ____ . ____ . ____
 72
    65
 73
     4
 40
18.0
 49
12.0
 74
     0
 49
-1.5
 74
     0
 49
3.0
 74
     0
 49
-1.5
 74
     0
  0
LTYPE
  5
66
330
5
100
AcDbSymbolTableRecord
100
AcDbLinetypeTableRecord
  2
AM_ISO09W050
 70
     0
  3
_____ . . _____ . . _____ . . ____ .. ____
 72
    65
 73
     6
 40
22.5
 49
12.0
 74
     0
 49
-1.5
 74
     0
 49
3.0
 74
     0
 49
-1.5
 74
     0
 49
3.0
 74
     0
 49
-1.5
 74
     0
  0
LTYPE
  5
67
330
5
100
AcDbSymbolTableRecord
100
AcDbLinetypeTableRecord
  2
Amconstr
 70
     0
  3
_______________________
 72
    65
 73
     2
 40
9999.0
 49
9999.0
 74
     0
 49
0.0
 74
     0
  0
LTYPE
  5
68
330
5
100
AcDbSymbolTableRecord
100
AcDbLinetypeTableRecord
  2
AM_ISO08W050x2
 70
     0
  3
__ . __ . __ . __ . __ . __
 72
    65
 73
     4
 40
9.0
 49
6.0
 74
     0
 49
-0.75
 74
     0
 49
1.5
 74
     0
 49
-0.75
 74
     0
  0
LTYPE
  5
69
330
5
100
AcDbSymbolTableRecord
100
AcDbLinetypeTableRecord
  2
AM_ISO02W050x2
 70
     0
  3
 _ _ _ _ _ _ _ _ _ _ _ _
 72
    65
 73
     2
 40
3.75
 49
3.0
 74
     0
 49
-0.75
 74
     0
  0
LTYPE
  5
6C
330
5
100
AcDbSymbolTableRecord
100
AcDbLinetypeTableRecord
  2
Amzigzag
 70
     0
  3
/\/-/\/-/\/-/\/-/\/-/\/
 72
    65
 73
     2
 40
11.0001
 49
0.0001
 74
     4
 75
   135
340
6B
 46
0.04
 50
0.0
 44
0.0
 45
0.0
 49
-11.0
 74
     0
  0
LTYPE
  5
7A
330
5
100
AcDbSymbolTableRecord
100
AcDbLinetypeTableRecord
  2
ACISOWELD
 70
     0
  3
_ _ _ _ _
 72
    65
 73
     2
 40
2.0
 49
2.0
 74
     0
 49
-1.0
 74
     0
  0
LTYPE
  5
7B
330
5
100
AcDbSymbolTableRecord
100
AcDbLinetypeTableRecord
  2
ACISOTGB
 70
     0
  3
__ . . __ . .
 72
    65
 73
     6
 40
9.0
 49
4.0
 74
     0
 49
-1.0
 74
     0
 49
1.0
 74
     0
 49
-1.0
 74
     0
 49
1.0
 74
     0
 49
-1.0
 74
     0
  0
LTYPE
  5
7C
330
5
100
AcDbSymbolTableRecord
100
AcDbLinetypeTableRecord
  2
ACISOTGL
 70
     0
  3
_ _ _ _ _
 72
    65
 73
     2
 40
3.0
 49
2.0
 74
     0
 49
-1.0
 74
     0
  0
LTYPE
  5
7E
330
5
100
AcDbSymbolTableRecord
100
AcDbLinetypeTableRecord
  2
CENTER
 70
     0
  3
__ . __
 72
    65
 73
     4
 40
7.0
 49
4.0
 74
     0
 49
-1.0
 74
     0
 49
1.0
 74
     0
 49
-1.0
 74
     0
  0
LTYPE
  5
D8
330
5
100
AcDbSymbolTableRecord
100
AcDbLinetypeTableRecord
  2
HIDDEN
 70
     0
  3
Hidden __ __ __ __ __ __ __ __ __ __ __ __ __ _
 72
    65
 73
     2
 40
9.524999999999998
 49
6.349999999999999
 74
     0
 49
-3.174999999999999
 74
     0
  0
LTYPE
  5
D9
330
5
100
AcDbSymbolTableRecord
100
AcDbLinetypeTableRecord
  2
PHANTOM2
 70
     0
  3
Phantom (.5x) ___ _ _ ___ _ _ ___ _ _ ___ _ _
 72
    65
 73
     6
 40
31.75
 49
15.875
 74
     0
 49
-3.174999999999999
 74
     0
 49
3.174999999999999
 74
     0
 49
-3.174999999999999
 74
     0
 49
3.174999999999999
 74
     0
 49
-3.174999999999999
 74
     0
  0
LTYPE
  5
71E
330
5
100
AcDbSymbolTableRecord
100
AcDbLinetypeTableRecord
  2
CENTER2
 70
     0
  3
Center (.5x) ___ _ ___ _ ___ _ ___ _ ___ _ ___
 72
    65
 73
     4
 40
28.575
 49
19.05
 74
     0
 49
-3.174999999999999
 74
     0
 49
3.174999999999999
 74
     0
 49
-3.174999999999999
 74
     0
  0
LTYPE
  5
71F
330
5
100
AcDbSymbolTableRecord
100
AcDbLinetypeTableRecord
  2
HIDDEN2
 70
     0
  3
Hidden (.5x) _ _ _ _ _ _ _ _ _ _ _ _ _ _ _ _ _
 72
    65
 73
     2
 40
4.762499999999999
 49
3.174999999999999
 74
     0
 49
-1.587499999999999
 74
     0
  0
LTYPE
  5
63A7
330
5
100
AcDbSymbolTableRecord
100
AcDbLinetypeTableRecord
  2
CENTERX2
 70
     0
  3
Center (2x) ________  __  ________  __  _____
 72
    65
 73
     4
 40
101.6
 49
63.5
 74
     0
 49
-12.7
 74
     0
 49
12.7
 74
     0
 49
-12.7
 74
     0
  0
ENDTAB
  0
TABLE
  2
LAYER
  5
2
102
{ACAD_XDICTIONARY
360
3F9
102
}
330
0
100
AcDbSymbolTable
 70
     9
  0
LAYER
  5
10
330
2
100
AcDbSymbolTableRecord
100
AcDbLayerTableRecord
  2
0
 70
     0
 62
     7
  6
Continuous
370
    -3
390
F
  0
LAYER
  5
206
330
2
100
AcDbSymbolTableRecord
100
AcDbLayerTableRecord
  2
Defpoints
 70
     0
 62
     7
  6
Continuous
290
     0
370
    -3
390
F
  0
LAYER
  5
720
330
2
100
AcDbSymbolTableRecord
100
AcDbLayerTableRecord
  2
圖層1輪廓線
 70
     0
 62
     7
  6
Continuous
370
    50
390
728
  0
LAYER
  5
721
330
2
100
AcDbSymbolTableRecord
100
AcDbLayerTableRecord
  2
圖層2中心線
 70
     0
 62
     1
  6
CENTERX2
370
    18
390
729
  0
LAYER
  5
722
330
2
100
AcDbSymbolTableRecord
100
AcDbLayerTableRecord
  2
圖層3虛線
 70
     0
 62
     3
  6
HIDDEN2
370
    25
390
72A
  0
LAYER
  5
723
330
2
100
AcDbSymbolTableRecord
100
AcDbLayerTableRecord
  2
圖層4尺寸線
 70
     0
 62
     5
  6
Continuous
370
    25
390
72B
  0
LAYER
  5
B2A
330
2
100
AcDbSymbolTableRecord
100
AcDbLayerTableRecord
  2
AM_5
 70
     0
 62
     5
  6
Continuous
370
    50
390
F
  0
LAYER
  5
15F9
330
2
100
AcDbSymbolTableRecord
100
AcDbLayerTableRecord
  2
AM_7
 70
     0
 62
     1
  6
CENTER
370
    25
390
F
  0
LAYER
  5
76FB
330
2
100
AcDbSymbolTableRecord
100
AcDbLayerTableRecord
  2
LOGO
 70
     0
 62
     7
  6
Continuous
370
    -3
390
F
  0
ENDTAB
  0
TABLE
  2
STYLE
  5
3
330
0
100
AcDbSymbolTable
 70
     7
  0
STYLE
  5
11
330
3
100
AcDbSymbolTableRecord
100
AcDbTextStyleTableRecord
  2
STANDARD
 70
     0
 40
0.0
 41
1.0
 50
0.0
 71
     0
 42
3.0
  3
ISOCP.SHX
  4
CHINESET.SHX
  0
STYLE
  5
6B
330
3
100
AcDbSymbolTableRecord
100
AcDbTextStyleTableRecord
  2

 70
     1
 40
0.0
 41
1.0
 50
0.0
 71
     0
 42
2.5
  3
ltypeshp.shx
  4

  0
STYLE
  5
6D
330
3
100
AcDbSymbolTableRecord
100
AcDbTextStyleTableRecord
  2
ACISOTS
 70
     0
 40
1.0
 41
1.0
 50
0.0
 71
     0
 42
1.0
  3
isocp.shx
  4
chineset.shx
  0
STYLE
  5
79
330
3
100
AcDbSymbolTableRecord
100
AcDbTextStyleTableRecord
  2
ACISOGDT
 70
     0
 40
0.0
 41
1.0
 50
0.0
 71
     0
 42
2.5
  3
amgdt.shx
  4
chineset.shx
  0
STYLE
  5
60C
330
3
100
AcDbSymbolTableRecord
100
AcDbTextStyleTableRecord
  2
CHINESET
 70
     0
 40
0.0
 41
1.0
 50
0.0
 71
     0
 42
3.0
  3
simplex.shx
  4
CHINESET.SHX
  0
STYLE
  5
75F1
330
3
100
AcDbSymbolTableRecord
100
AcDbTextStyleTableRecord
  2
WIN
 70
     0
 40
0.0
 41
1.0
 50
0.0
 71
     0
 42
4.0
  3
PMingLiU.ttf
  4

1001
ACAD
1000
PMingLiU
1071
    34834
  0
ENDTAB
  0
TABLE
  2
VIEW
  5
6
330
0
100
AcDbSymbolTable
 70
     0
  0
ENDTAB
  0
TABLE
  2
UCS
  5
7
330
0
100
AcDbSymbolTable
 70
     0
  0
ENDTAB
  0
TABLE
  2
APPID
  5
9
330
0
100
AcDbSymbolTable
 70
    21
  0
APPID
  5
12
330
9
100
AcDbSymbolTableRecord
100
AcDbRegAppTableRecord
  2
ACAD
 70
     0
  0
APPID
  5
46
330
9
100
AcDbSymbolTableRecord
100
AcDbRegAppTableRecord
  2
MCAD_NO_VIS
 70
     0
  0
APPID
  5
47
330
9
100
AcDbSymbolTableRecord
100
AcDbRegAppTableRecord
  2
ACAD_TEMP_GRAPHIC
 70
     0
  0
APPID
  5
58
330
9
100
AcDbSymbolTableRecord
100
AcDbRegAppTableRecord
  2
ACATTRIBSERVICES
 70
     0
  0
APPID
  5
EE
330
9
100
AcDbSymbolTableRecord
100
AcDbRegAppTableRecord
  2
AD_DRAW
 70
     0
  0
APPID
  5
10C
330
9
100
AcDbSymbolTableRecord
100
AcDbRegAppTableRecord
  2
DESIGNERASSEMBLIES
 70
     0
  0
APPID
  5
111
330
9
100
AcDbSymbolTableRecord
100
AcDbRegAppTableRecord
  2
ACADM_DIM_EDIT
 70
     0
  0
APPID
  5
112
330
9
100
AcDbSymbolTableRecord
100
AcDbRegAppTableRecord
  2
AMDT_DM_ADJ
 70
     0
  0
APPID
  5
22C
330
9
100
AcDbSymbolTableRecord
100
AcDbRegAppTableRecord
  2
ACAD_DSTYLE_DIMTEXT_FILL
 70
     0
  0
APPID
  5
452
330
9
100
AcDbSymbolTableRecord
100
AcDbRegAppTableRecord
  2
GENIUS_GENOENT_13
 70
     0
  0
APPID
  5
453
330
9
100
AcDbSymbolTableRecord
100
AcDbRegAppTableRecord
  2
GENIUS_GENOBJ-N-CRS_13
 70
     0
  0
APPID
  5
454
330
9
100
AcDbSymbolTableRecord
100
AcDbRegAppTableRecord
  2
GENIUS_GENOLIS_13
 70
     0
  0
APPID
  5
455
330
9
100
AcDbSymbolTableRecord
100
AcDbRegAppTableRecord
  2
GENIUS_GENODEF_13
 70
     0
  0
APPID
  5
456
330
9
100
AcDbSymbolTableRecord
100
AcDbRegAppTableRecord
  2
GENIUS_GENOREF_13
 70
     0
  0
APPID
  5
6F3
330
9
100
AcDbSymbolTableRecord
100
AcDbRegAppTableRecord
  2
ACAD_PSEXT
 70
     0
  0
APPID
  5
727
330
9
100
AcDbSymbolTableRecord
100
AcDbRegAppTableRecord
  2
AcAecLayerStandard
 70
     0
  0
APPID
  5
D7F
330
9
100
AcDbSymbolTableRecord
100
AcDbRegAppTableRecord
  2
GENIUS_GENDTOL_13
 70
     0
  0
APPID
  5
15FB
330
9
100
AcDbSymbolTableRecord
100
AcDbRegAppTableRecord
  2
GENIUS_GENOBJ-N-CEN_13
 70
     0
  0
APPID
  5
15FC
330
9
100
AcDbSymbolTableRecord
100
AcDbRegAppTableRecord
  2
GENIUS_GENCEN_19
 70
     0
  0
APPID
  5
300F
330
9
100
AcDbSymbolTableRecord
100
AcDbRegAppTableRecord
  2
GENIUS_GENREC_14
 70
     0
  0
APPID
  5
3010
330
9
100
AcDbSymbolTableRecord
100
AcDbRegAppTableRecord
  2
GENIUS_GENOBJ-N-REC_13
 70
     0
  0
ENDTAB
  0
TABLE
  2
DIMSTYLE
  5
A
330
0
100
AcDbSymbolTable
 70
     9
100
AcDbDimStyleTable
 71
     3
340
81
340
8B
340
86
  0
DIMSTYLE
105
81
330
A
100
AcDbSymbolTableRecord
100
AcDbDimStyleTableRecord
  2
AM_ISO
 70
     0
  4
"
 41
20.0
 42
3.0
 43
50.0
 44
4.0
 47
0.1
 48
0.1
 73
     0
 74
     0
 77
     1
 78
     8
 79
     2
140
20.0
141
0.0
143
0.0393701
146
0.71
147
6.0
172
     1
176
   256
177
   256
178
   256
271
     2
272
     2
283
     2
284
     8
340
11
371
    -1
372
    -1
  0
DIMSTYLE
105
82
330
A
100
AcDbSymbolTableRecord
100
AcDbDimStyleTableRecord
  2
AM_ISO$3
 70
     0
  4
"
 41
20.0
 42
3.0
 43
50.0
 44
4.0
 47
0.1
 48
0.1
 73
     0
 77
     1
 78
     8
 79
     2
140
20.0
141
0.0
143
0.0393701
146
0.71
147
6.0
176
   256
177
   256
178
   256
271
     2
272
     2
283
     2
284
     8
288
     1
289
     0
340
11
371
    -1
372
    -1
  0
DIMSTYLE
105
83
330
A
100
AcDbSymbolTableRecord
100
AcDbDimStyleTableRecord
  2
AM_ISO$4
 70
     0
  4
"
 41
20.0
 42
3.0
 43
50.0
 44
4.0
 47
0.1
 48
0.1
 73
     0
 77
     1
 78
     8
 79
     2
140
20.0
141
0.0
143
0.0393701
146
0.71
147
6.0
176
   256
177
   256
178
   256
271
     2
272
     2
283
     2
284
     8
288
     1
289
     0
340
11
371
    -1
372
    -1
  0
DIMSTYLE
105
84
330
A
100
AcDbSymbolTableRecord
100
AcDbDimStyleTableRecord
  2
AM_ISO$6
 70
     0
  4
"
 41
20.0
 42
3.0
 43
50.0
 44
4.0
 47
0.1
 48
0.1
 73
     0
 74
     0
 78
     8
 79
     2
140
20.0
141
0.0
143
0.0393701
146
0.71
147
6.0
172
     1
176
   256
177
   256
178
   256
271
     2
272
     2
283
     2
284
     8
340
11
371
    -1
372
    -1
  0
DIMSTYLE
105
85
330
A
100
AcDbSymbolTableRecord
100
AcDbDimStyleTableRecord
  2
AM_ISO$7
 70
     0
  4
"
 41
20.0
 42
3.0
 43
50.0
 44
4.0
 47
0.1
 48
0.1
 73
     0
 74
     0
 77
     1
 78
     8
 79
     2
140
5.0
141
0.0
143
0.0393701
146
0.71
147
6.0
172
     1
176
   256
177
   256
178
   256
271
     2
272
     2
283
     2
284
     8
340
11
371
    -1
372
    -1
  0
DIMSTYLE
105
86
330
A
100
AcDbSymbolTableRecord
100
AcDbDimStyleTableRecord
  2
AM_ISO$SF
 70
     0
  4
"
 41
2.5
 42
1.0
 43
10.0
 44
1.0
 47
0.1
 48
0.1
 73
     0
 74
     0
 75
     1
 76
     1
 77
     1
 78
     8
 79
     2
140
3.5
141
0.0
143
0.0393701
146
0.71
147
1.5
172
     1
176
   256
177
   256
178
     2
271
     2
272
     3
274
     4
283
     0
284
     8
340
11
371
    -1
372
    -1
  0
DIMSTYLE
105
8B
330
A
100
AcDbSymbolTableRecord
100
AcDbDimStyleTableRecord
  2
AM_ISO$SH
 70
     0
  4
"
 41
2.5
 42
1.0
 43
10.0
 44
1.0
 47
0.1
 48
0.1
 73
     0
 74
     0
 75
     1
 76
     1
 77
     1
 78
     8
 79
     2
140
3.5
141
0.0
143
0.0393701
144
2.0
146
0.71
147
1.5
172
     1
173
     1
176
   256
177
   256
178
     2
271
     2
272
     3
274
     4
283
     0
284
     8
340
11
343
87
371
    -1
372
    -1
  0
DIMSTYLE
105
40B
102
{ACAD_REACTORS
330
528F
330
5290
330
5291
330
52ED
330
52EE
330
52EF
330
52F0
330
5359
330
535A
330
53AD
330
53AE
330
53D9
330
53DA
330
53DC
330
53DD
330
546F
330
5470
330
5471
330
54B1
330
54B2
330
54F1
330
53DB
330
7509
102
}
330
A
100
AcDbSymbolTableRecord
100
AcDbDimStyleTableRecord
  2
AM_ISO$0
 70
     0
  4
"
 41
20.0
 42
3.0
 43
50.0
 44
4.0
 47
0.1
 48
0.1
 73
     0
 74
     0
 77
     1
 78
     8
 79
     2
140
20.0
141
0.0
143
0.0393701
146
0.71
147
6.0
172
     1
176
   256
177
   256
178
   256
271
     2
272
     2
283
     2
284
     8
340
11
371
    -1
372
    -1
  0
ENDTAB
  0
TABLE
  2
BLOCK_RECORD
  5
1
330
0
100
AcDbSymbolTable
 70
    29
  0
BLOCK_RECORD
  5
1F
102
{ACAD_XDICTIONARY
360
8F
102
}
330
1
100
AcDbSymbolTableRecord
100
AcDbBlockTableRecord
  2
*Model_Space
340
22
  0
BLOCK_RECORD
  5
1B
330
1
100
AcDbSymbolTableRecord
100
AcDbBlockTableRecord
  2
*Paper_Space
340
1E
  0
BLOCK_RECORD
  5
23
330
1
100
AcDbSymbolTableRecord
100
AcDbBlockTableRecord
  2
*Paper_Space0
340
26
  0
BLOCK_RECORD
  5
87
330
1
100
AcDbSymbolTableRecord
100
AcDbBlockTableRecord
  2
GENAXEH
340
0
  0
BLOCK_RECORD
  5
5294
330
1
100
AcDbSymbolTableRecord
100
AcDbBlockTableRecord
  2
*D3
340
0
  0
BLOCK_RECORD
  5
52A2
330
1
100
AcDbSymbolTableRecord
100
AcDbBlockTableRecord
  2
*D4
340
0
  0
BLOCK_RECORD
  5
52B0
330
1
100
AcDbSymbolTableRecord
100
AcDbBlockTableRecord
  2
*D5
340
0
  0
BLOCK_RECORD
  5
52F1
330
1
100
AcDbSymbolTableRecord
100
AcDbBlockTableRecord
  2
*D6
340
0
  0
BLOCK_RECORD
  5
52FF
330
1
100
AcDbSymbolTableRecord
100
AcDbBlockTableRecord
  2
*D7
340
0
  0
BLOCK_RECORD
  5
530D
330
1
100
AcDbSymbolTableRecord
100
AcDbBlockTableRecord
  2
*D8
340
0
  0
BLOCK_RECORD
  5
531B
330
1
100
AcDbSymbolTableRecord
100
AcDbBlockTableRecord
  2
*D9
340
0
  0
BLOCK_RECORD
  5
535D
330
1
100
AcDbSymbolTableRecord
100
AcDbBlockTableRecord
  2
*D10
340
0
  0
BLOCK_RECORD
  5
5369
330
1
100
AcDbSymbolTableRecord
100
AcDbBlockTableRecord
  2
*D11
340
0
  0
BLOCK_RECORD
  5
53AF
330
1
100
AcDbSymbolTableRecord
100
AcDbBlockTableRecord
  2
*D12
340
0
  0
BLOCK_RECORD
  5
53BB
330
1
100
AcDbSymbolTableRecord
100
AcDbBlockTableRecord
  2
*D13
340
0
  0
BLOCK_RECORD
  5
53DE
330
1
100
AcDbSymbolTableRecord
100
AcDbBlockTableRecord
  2
*D14
340
0
  0
BLOCK_RECORD
  5
53EA
330
1
100
AcDbSymbolTableRecord
100
AcDbBlockTableRecord
  2
*D15
340
0
  0
BLOCK_RECORD
  5
53F6
330
1
100
AcDbSymbolTableRecord
100
AcDbBlockTableRecord
  2
*D16
340
0
  0
BLOCK_RECORD
  5
5404
330
1
100
AcDbSymbolTableRecord
100
AcDbBlockTableRecord
  2
*D17
340
0
  0
BLOCK_RECORD
  5
5410
330
1
100
AcDbSymbolTableRecord
100
AcDbBlockTableRecord
  2
*D18
340
0
  0
BLOCK_RECORD
  5
5472
330
1
100
AcDbSymbolTableRecord
100
AcDbBlockTableRecord
  2
*D19
340
0
  0
BLOCK_RECORD
  5
547E
330
1
100
AcDbSymbolTableRecord
100
AcDbBlockTableRecord
  2
*D20
340
0
  0
BLOCK_RECORD
  5
548A
330
1
100
AcDbSymbolTableRecord
100
AcDbBlockTableRecord
  2
*D21
340
0
  0
BLOCK_RECORD
  5
54B3
330
1
100
AcDbSymbolTableRecord
100
AcDbBlockTableRecord
  2
*D22
340
0
  0
BLOCK_RECORD
  5
54C0
330
1
100
AcDbSymbolTableRecord
100
AcDbBlockTableRecord
  2
*D23
340
0
  0
BLOCK_RECORD
  5
54F2
330
1
100
AcDbSymbolTableRecord
100
AcDbBlockTableRecord
  2
*D24
340
0
  0
BLOCK_RECORD
  5
750A
330
1
100
AcDbSymbolTableRecord
100
AcDbBlockTableRecord
  2
*D25
340
0
  0
BLOCK_RECORD
  5
7868
330
1
100
AcDbSymbolTableRecord
100
AcDbBlockTableRecord
  2
*S27
340
0
  0
BLOCK_RECORD
  5
7870
330
1
100
AcDbSymbolTableRecord
100
AcDbBlockTableRecord
  2
*S28
340
0
  0
ENDTAB
  0
ENDSEC
  0
SECTION
  2
BLOCKS
  0
BLOCK
  5
20
330
1F
100
AcDbEntity
  8
0
100
AcDbBlockBegin
  2
*Model_Space
 70
     0
 10
0.0
 20
0.0
 30
0.0
  3
*Model_Space
  1

  0
ENDBLK
  5
21
330
1F
100
AcDbEntity
  8
0
100
AcDbBlockEnd
  0
BLOCK
  5
1C
330
1B
100
AcDbEntity
 67
     1
  8
0
100
AcDbBlockBegin
  2
*Paper_Space
 70
     0
 10
0.0
 20
0.0
 30
0.0
  3
*Paper_Space
  1

  0
ENDBLK
  5
1D
330
1B
100
AcDbEntity
 67
     1
  8
0
100
AcDbBlockEnd
  0
BLOCK
  5
24
330
23
100
AcDbEntity
  8
0
100
AcDbBlockBegin
  2
*Paper_Space0
 70
     0
 10
0.0
 20
0.0
 30
0.0
  3
*Paper_Space0
  1

  0
ENDBLK
  5
25
330
23
100
AcDbEntity
  8
0
100
AcDbBlockEnd
  0
BLOCK
  5
89
330
87
100
AcDbEntity
  8
0
100
AcDbBlockBegin
  2
GENAXEH
 70
     0
 10
0.0
 20
0.0
 30
0.0
  3
GENAXEH
  1

  0
LINE
  5
88
330
87
100
AcDbEntity
  8
0
100
AcDbLine
 10
-1.0
 20
0.0
 30
0.0
 11
1.0
 21
0.0
 31
0.0
  0
ENDBLK
  5
8A
330
87
100
AcDbEntity
  8
0
100
AcDbBlockEnd
  0
BLOCK
  5
52A0
330
5294
100
AcDbEntity
  8
0
100
AcDbBlockBegin
  2
*D3
 70
     1
 10
0.0
 20
0.0
 30
0.0
  3
*D3
  1

  0
LINE
  5
7535
330
5294
100
AcDbEntity
  8
AM_5
100
AcDbLine
 10
5890.444932861901
 20
673.7039937425533
 30
0.0
 11
5890.444932861901
 21
632.7039937425533
 31
0.0
  0
LINE
  5
7536
330
5294
100
AcDbEntity
  8
AM_5
100
AcDbLine
 10
5950.444932861901
 20
673.7039937425533
 30
0.0
 11
5950.444932861901
 21
632.7039937425533
 31
0.0
  0
LINE
  5
7537
330
5294
100
AcDbEntity
  8
AM_5
100
AcDbLine
 10
5910.444932861901
 20
636.7039937425533
 30
0.0
 11
5930.444932861901
 21
636.7039937425533
 31
0.0
  0
LINE
  5
7538
330
5294
100
AcDbEntity
  8
AM_5
100
AcDbLine
 10
5950.444932861901
 20
636.7039937425533
 30
0.0
 11
6049.867020440023
 21
636.7039937425533
 31
0.0
  0
SOLID
  5
7539
330
5294
100
AcDbEntity
  8
AM_5
100
AcDbTrace
 10
5910.444932861901
 20
640.0373270758867
 30
0.0
 11
5910.444932861901
 21
633.37066040922
 31
0.0
 12
5890.444932861901
 22
636.7039937425533
 32
0.0
 13
5890.444932861901
 23
636.7039937425533
 33
0.0
  0
SOLID
  5
753A
330
5294
100
AcDbEntity
  8
AM_5
100
AcDbTrace
 10
5930.444932861901
 20
640.0373270758867
 30
0.0
 11
5930.444932861901
 21
633.37066040922
 31
0.0
 12
5950.444932861901
 22
636.7039937425533
 32
0.0
 13
5950.444932861901
 23
636.7039937425533
 33
0.0
  0
MTEXT
  5
753B
330
5294
100
AcDbEntity
  8
AM_5
100
AcDbMText
 10
6023.859146424275
 20
652.7039937425533
 30
0.0
 40
20.0
 41
0.0
 71
     5
 72
     1
  1
\A2;%%c30
 73
     1
 44
1.0
1001
ACAD
1000
MTEXTBEGIN
1070
    73
1070
     1
1070
    44
1040
1.0
1070
    74
1070
     0
1000
MTEXTEND
  0
POINT
  5
753C
330
5294
100
AcDbEntity
  8
Defpoints
 62
     0
100
AcDbPoint
 10
5890.444932861901
 20
676.7039937425534
 30
0.0
  0
POINT
  5
753D
330
5294
100
AcDbEntity
  8
Defpoints
 62
     0
100
AcDbPoint
 10
5950.444932861901
 20
676.7039937425534
 30
0.0
  0
POINT
  5
753E
330
5294
100
AcDbEntity
  8
Defpoints
 62
     0
100
AcDbPoint
 10
5950.444932861901
 20
636.7039937425533
 30
0.0
  0
ENDBLK
  5
52A1
330
5294
100
AcDbEntity
  8
0
100
AcDbBlockEnd
  0
BLOCK
  5
52AE
330
52A2
100
AcDbEntity
  8
0
100
AcDbBlockBegin
  2
*D4
 70
     1
 10
0.0
 20
0.0
 30
0.0
  3
*D4
  1

  0
LINE
  5
7198
330
52A2
100
AcDbEntity
  8
AM_5
100
AcDbLine
 10
5867.444932861901
 20
676.7039937425534
 30
0.0
 11
5809.102210788353
 21
676.7039937425534
 31
0.0
  0
LINE
  5
7199
330
52A2
100
AcDbEntity
  8
AM_5
100
AcDbLine
 10
5847.463457560801
 20
716.7039937425534
 30
0.0
 11
5809.102210788353
 21
716.7039937425534
 31
0.0
  0
LINE
  5
719A
330
52A2
100
AcDbEntity
  8
AM_5
100
AcDbLine
 10
5813.102210788353
 20
656.7039937425533
 30
0.0
 11
5813.102210788353
 21
636.7039937425533
 31
0.0
  0
LINE
  5
719B
330
52A2
100
AcDbEntity
  8
AM_5
100
AcDbLine
 10
5813.102210788353
 20
736.7039937425533
 30
0.0
 11
5813.102210788353
 21
756.7039937425533
 31
0.0
  0
LINE
  5
719C
330
52A2
100
AcDbEntity
  8
AM_5
100
AcDbLine
 10
5813.102210788353
 20
676.7039937425534
 30
0.0
 11
5813.102210788353
 21
716.7039937425534
 31
0.0
  0
SOLID
  5
719D
330
52A2
100
AcDbEntity
  8
AM_5
100
AcDbTrace
 10
5809.76887745502
 20
656.7039937425533
 30
0.0
 11
5816.435544121685
 21
656.7039937425533
 31
0.0
 12
5813.102210788353
 22
676.7039937425534
 32
0.0
 13
5813.102210788353
 23
676.7039937425534
 33
0.0
  0
SOLID
  5
719E
330
52A2
100
AcDbEntity
  8
AM_5
100
AcDbTrace
 10
5809.76887745502
 20
736.7039937425533
 30
0.0
 11
5816.435544121685
 21
736.7039937425533
 31
0.0
 12
5813.102210788353
 22
716.7039937425534
 32
0.0
 13
5813.102210788353
 23
716.7039937425534
 33
0.0
  0
MTEXT
  5
719F
330
52A2
100
AcDbEntity
  8
AM_5
100
AcDbMText
 10
5797.100242284416
 20
696.7039937425543
 30
0.0
 40
20.0
 41
0.0
 71
     5
 72
     1
  1
\A2;20
 11
0.0000000000000001
 21
1.0
 31
0.0
 73
     1
 44
1.0
1001
ACAD
1000
MTEXTBEGIN
1070
    73
1070
     1
1070
    44
1040
1.0
1070
    74
1070
     0
1000
MTEXTEND
  0
POINT
  5
71A0
330
52A2
100
AcDbEntity
  8
Defpoints
 62
     0
100
AcDbPoint
 10
5870.444932861901
 20
676.7039937425534
 30
0.0
  0
POINT
  5
71A1
330
52A2
100
AcDbEntity
  8
Defpoints
 62
     0
100
AcDbPoint
 10
5850.463457560802
 20
716.7039937425534
 30
0.0
  0
POINT
  5
71A2
330
52A2
100
AcDbEntity
  8
Defpoints
 62
     0
100
AcDbPoint
 10
5813.102210788353
 20
716.7039937425534
 30
0.0
  0
ENDBLK
  5
52AF
330
52A2
100
AcDbEntity
  8
0
100
AcDbBlockEnd
  0
BLOCK
  5
52BA
330
52B0
100
AcDbEntity
  8
0
100
AcDbBlockBegin
  2
*D5
 70
     1
 10
0.0
 20
0.0
 30
0.0
  3
*D5
  1

  0
LINE
  5
7548
330
52B0
100
AcDbEntity
  8
AM_5
100
AcDbLine
 10
5867.444932861901
 20
676.7039937425534
 30
0.0
 11
5759.102210788353
 21
676.7039937425534
 31
0.0
  0
LINE
  5
7549
330
52B0
100
AcDbEntity
  8
AM_5
100
AcDbLine
 10
5887.444932861901
 20
756.7039937425534
 30
0.0
 11
5759.102210788353
 21
756.7039937425534
 31
0.0
  0
LINE
  5
754A
330
52B0
100
AcDbEntity
  8
AM_5
100
AcDbLine
 10
5763.102210788353
 20
696.7039937425534
 30
0.0
 11
5763.102210788353
 21
736.7039937425535
 31
0.0
  0
SOLID
  5
754B
330
52B0
100
AcDbEntity
  8
AM_5
100
AcDbTrace
 10
5759.768877455019
 20
696.7039937425534
 30
0.0
 11
5766.435544121685
 21
696.7039937425534
 31
0.0
 12
5763.102210788353
 22
676.7039937425534
 32
0.0
 13
5763.102210788353
 23
676.7039937425534
 33
0.0
  0
SOLID
  5
754C
330
52B0
100
AcDbEntity
  8
AM_5
100
AcDbTrace
 10
5759.768877455019
 20
736.7039937425535
 30
0.0
 11
5766.435544121685
 21
736.7039937425535
 31
0.0
 12
5763.102210788353
 22
756.7039937425534
 32
0.0
 13
5763.102210788353
 23
756.7039937425534
 33
0.0
  0
MTEXT
  5
754D
330
52B0
100
AcDbEntity
  8
AM_5
100
AcDbMText
 10
5747.102210788352
 20
716.7039937425544
 30
0.0
 40
20.0
 41
0.0
 71
     5
 72
     1
  1
\A2;40
 11
0.0000000000000001
 21
1.0
 31
0.0
 73
     1
 44
1.0
1001
ACAD
1000
MTEXTBEGIN
1070
    73
1070
     1
1070
    44
1040
1.0
1070
    74
1070
     0
1000
MTEXTEND
  0
POINT
  5
754E
330
52B0
100
AcDbEntity
  8
Defpoints
 62
     0
100
AcDbPoint
 10
5870.444932861901
 20
676.7039937425534
 30
0.0
  0
POINT
  5
754F
330
52B0
100
AcDbEntity
  8
Defpoints
 62
     0
100
AcDbPoint
 10
5890.444932861901
 20
756.7039937425533
 30
0.0
  0
POINT
  5
7550
330
52B0
100
AcDbEntity
  8
Defpoints
 62
     0
100
AcDbPoint
 10
5763.102210788353
 20
756.7039937425534
 30
0.0
  0
ENDBLK
  5
52BB
330
52B0
100
AcDbEntity
  8
0
100
AcDbBlockEnd
  0
BLOCK
  5
52FD
330
52F1
100
AcDbEntity
  8
0
100
AcDbBlockBegin
  2
*D6
 70
     1
 10
0.0
 20
0.0
 30
0.0
  3
*D6
  1

  0
LINE
  5
71AC
330
52F1
100
AcDbEntity
  8
AM_5
100
AcDbLine
 10
6514.334805051678
 20
691.1437330143726
 30
0.0
 11
6514.334805051678
 21
630.1437320143731
 31
0.0
  0
LINE
  5
71AD
330
52F1
100
AcDbEntity
  8
AM_5
100
AcDbLine
 10
6564.334805051678
 20
691.1437330143726
 30
0.0
 11
6564.334805051678
 21
630.1437320143731
 31
0.0
  0
LINE
  5
71AE
330
52F1
100
AcDbEntity
  8
AM_5
100
AcDbLine
 10
6494.334805051678
 20
634.1437320143731
 30
0.0
 11
6474.334805051679
 21
634.1437320143731
 31
0.0
  0
LINE
  5
71AF
330
52F1
100
AcDbEntity
  8
AM_5
100
AcDbLine
 10
6584.334805051678
 20
634.1437320143731
 30
0.0
 11
6604.334805051678
 21
634.1437320143731
 31
0.0
  0
LINE
  5
71B0
330
52F1
100
AcDbEntity
  8
AM_5
100
AcDbLine
 10
6514.334805051678
 20
634.1437320143731
 30
0.0
 11
6564.334805051678
 21
634.1437320143731
 31
0.0
  0
SOLID
  5
71B1
330
52F1
100
AcDbEntity
  8
AM_5
100
AcDbTrace
 10
6494.334805051678
 20
637.4770653477066
 30
0.0
 11
6494.334805051678
 21
630.8103986810398
 31
0.0
 12
6514.334805051678
 22
634.1437320143731
 32
0.0
 13
6514.334805051678
 23
634.1437320143731
 33
0.0
  0
SOLID
  5
71B2
330
52F1
100
AcDbEntity
  8
AM_5
100
AcDbTrace
 10
6584.334805051678
 20
637.4770653477066
 30
0.0
 11
6584.334805051678
 21
630.8103986810398
 31
0.0
 12
6564.334805051678
 22
634.1437320143731
 32
0.0
 13
6564.334805051678
 23
634.1437320143731
 33
0.0
  0
MTEXT
  5
71B3
330
52F1
100
AcDbEntity
  8
AM_5
100
AcDbMText
 10
6539.334805051677
 20
650.1457005183101
 30
0.0
 40
20.0
 41
0.0
 71
     5
 72
     1
  1
\A2;25
 73
     1
 44
1.0
1001
ACAD
1000
MTEXTBEGIN
1070
    73
1070
     1
1070
    44
1040
1.0
1070
    74
1070
     0
1000
MTEXTEND
  0
POINT
  5
71B4
330
52F1
100
AcDbEntity
  8
Defpoints
 62
     0
100
AcDbPoint
 10
6514.334805051678
 20
694.1437330143726
 30
0.0
  0
POINT
  5
71B5
330
52F1
100
AcDbEntity
  8
Defpoints
 62
     0
100
AcDbPoint
 10
6564.334805051678
 20
694.1437330143726
 30
0.0
  0
POINT
  5
71B6
330
52F1
100
AcDbEntity
  8
Defpoints
 62
     0
100
AcDbPoint
 10
6564.334805051678
 20
634.1437320143731
 30
0.0
  0
ENDBLK
  5
52FE
330
52F1
100
AcDbEntity
  8
0
100
AcDbBlockEnd
  0
BLOCK
  5
530B
330
52FF
100
AcDbEntity
  8
0
100
AcDbBlockBegin
  2
*D7
 70
     1
 10
0.0
 20
0.0
 30
0.0
  3
*D7
  1

  0
LINE
  5
71B7
330
52FF
100
AcDbEntity
  8
AM_5
100
AcDbLine
 10
6524.334805051679
 20
739.1437330143726
 30
0.0
 11
6524.334805051679
 21
790.1437340143729
 31
0.0
  0
LINE
  5
71B8
330
52FF
100
AcDbEntity
  8
AM_5
100
AcDbLine
 10
6554.334805051678
 20
739.1437330143726
 30
0.0
 11
6554.334805051678
 21
790.1437340143729
 31
0.0
  0
LINE
  5
71B9
330
52FF
100
AcDbEntity
  8
AM_5
100
AcDbLine
 10
6504.334805051678
 20
786.1437340143729
 30
0.0
 11
6484.334805051678
 21
786.1437340143729
 31
0.0
  0
LINE
  5
71BA
330
52FF
100
AcDbEntity
  8
AM_5
100
AcDbLine
 10
6574.334805051678
 20
786.1437340143729
 30
0.0
 11
6594.334805051677
 21
786.1437340143729
 31
0.0
  0
LINE
  5
71BB
330
52FF
100
AcDbEntity
  8
AM_5
100
AcDbLine
 10
6524.334805051679
 20
786.1437340143729
 30
0.0
 11
6554.334805051678
 21
786.1437340143729
 31
0.0
  0
SOLID
  5
71BC
330
52FF
100
AcDbEntity
  8
AM_5
100
AcDbTrace
 10
6504.334805051678
 20
789.4770673477063
 30
0.0
 11
6504.334805051678
 21
782.8104006810396
 31
0.0
 12
6524.334805051679
 22
786.1437340143729
 32
0.0
 13
6524.334805051679
 23
786.1437340143729
 33
0.0
  0
SOLID
  5
71BD
330
52FF
100
AcDbEntity
  8
AM_5
100
AcDbTrace
 10
6574.334805051678
 20
789.4770673477063
 30
0.0
 11
6574.334805051678
 21
782.8104006810396
 31
0.0
 12
6554.334805051678
 22
786.1437340143729
 32
0.0
 13
6554.334805051678
 23
786.1437340143729
 33
0.0
  0
MTEXT
  5
71BE
330
52FF
100
AcDbEntity
  8
AM_5
100
AcDbMText
 10
6539.334805051677
 20
802.143734014373
 30
0.0
 40
20.0
 41
0.0
 71
     5
 72
     1
  1
\A2;15
 73
     1
 44
1.0
1001
ACAD
1000
MTEXTBEGIN
1070
    73
1070
     1
1070
    44
1040
1.0
1070
    74
1070
     0
1000
MTEXTEND
  0
POINT
  5
71BF
330
52FF
100
AcDbEntity
  8
Defpoints
 62
     0
100
AcDbPoint
 10
6524.334805051679
 20
736.1437330143726
 30
0.0
  0
POINT
  5
71C0
330
52FF
100
AcDbEntity
  8
Defpoints
 62
     0
100
AcDbPoint
 10
6554.334805051678
 20
736.1437330143726
 30
0.0
  0
POINT
  5
71C1
330
52FF
100
AcDbEntity
  8
Defpoints
 62
     0
100
AcDbPoint
 10
6554.334805051678
 20
786.1437340143729
 30
0.0
  0
ENDBLK
  5
530C
330
52FF
100
AcDbEntity
  8
0
100
AcDbBlockEnd
  0
BLOCK
  5
5319
330
530D
100
AcDbEntity
  8
0
100
AcDbBlockBegin
  2
*D8
 70
     1
 10
0.0
 20
0.0
 30
0.0
  3
*D8
  1

  0
LINE
  5
71C2
330
530D
100
AcDbEntity
  8
AM_5
100
AcDbLine
 10
6577.776817203167
 20
736.1437330143726
 30
0.0
 11
6637.580002606106
 21
736.1437330143726
 31
0.0
  0
LINE
  5
71C3
330
530D
100
AcDbEntity
  8
AM_5
100
AcDbLine
 10
6567.334805051678
 20
714.1437330143726
 30
0.0
 11
6637.580002606106
 21
714.1437330143726
 31
0.0
  0
LINE
  5
71C4
330
530D
100
AcDbEntity
  8
AM_5
100
AcDbLine
 10
6633.580002606106
 20
694.1437330143726
 30
0.0
 11
6633.580002606106
 21
674.1437330143726
 31
0.0
  0
LINE
  5
71C5
330
530D
100
AcDbEntity
  8
AM_5
100
AcDbLine
 10
6633.580002606106
 20
756.1437330143726
 30
0.0
 11
6633.580002606106
 21
802.1437330143735
 31
0.0
  0
LINE
  5
71C6
330
530D
100
AcDbEntity
  8
AM_5
100
AcDbLine
 10
6633.580002606106
 20
714.1437330143726
 30
0.0
 11
6633.580002606106
 21
736.1437330143726
 31
0.0
  0
SOLID
  5
71C7
330
530D
100
AcDbEntity
  8
AM_5
100
AcDbTrace
 10
6630.246669272773
 20
694.1437330143726
 30
0.0
 11
6636.913335939439
 21
694.1437330143726
 31
0.0
 12
6633.580002606106
 22
714.1437330143726
 32
0.0
 13
6633.580002606106
 23
714.1437330143726
 33
0.0
  0
SOLID
  5
71C8
330
530D
100
AcDbEntity
  8
AM_5
100
AcDbTrace
 10
6630.246669272773
 20
756.1437330143726
 30
0.0
 11
6636.913335939439
 21
756.1437330143726
 31
0.0
 12
6633.580002606106
 22
736.1437330143726
 32
0.0
 13
6633.580002606106
 23
736.1437330143726
 33
0.0
  0
MTEXT
  5
71C9
330
530D
100
AcDbEntity
  8
AM_5
100
AcDbMText
 10
6617.580002606107
 20
789.1437330143745
 30
0.0
 40
20.0
 41
0.0
 71
     5
 72
     1
  1
\A2;11
 11
0.0000000000000001
 21
1.0
 31
0.0
 73
     1
 44
1.0
1001
ACAD
1000
MTEXTBEGIN
1070
    73
1070
     1
1070
    44
1040
1.0
1070
    74
1070
     0
1000
MTEXTEND
  0
POINT
  5
71CA
330
530D
100
AcDbEntity
  8
Defpoints
 62
     0
100
AcDbPoint
 10
6574.776817203167
 20
736.1437330143726
 30
0.0
  0
POINT
  5
71CB
330
530D
100
AcDbEntity
  8
Defpoints
 62
     0
100
AcDbPoint
 10
6564.334805051678
 20
714.1437330143726
 30
0.0
  0
POINT
  5
71CC
330
530D
100
AcDbEntity
  8
Defpoints
 62
     0
100
AcDbPoint
 10
6633.580002606106
 20
714.1437330143726
 30
0.0
  0
ENDBLK
  5
531A
330
530D
100
AcDbEntity
  8
0
100
AcDbBlockEnd
  0
BLOCK
  5
5327
330
531B
100
AcDbEntity
  8
0
100
AcDbBlockBegin
  2
*D9
 70
     1
 10
0.0
 20
0.0
 30
0.0
  3
*D9
  1

  0
LINE
  5
71CD
330
531B
100
AcDbEntity
  8
AM_5
100
AcDbLine
 10
6511.334805051678
 20
714.1437330143726
 30
0.0
 11
6450.334805051678
 21
714.1437330143726
 31
0.0
  0
LINE
  5
71CE
330
531B
100
AcDbEntity
  8
AM_5
100
AcDbLine
 10
6511.334805051678
 20
694.1437330143726
 30
0.0
 11
6450.334805051678
 21
694.1437330143726
 31
0.0
  0
LINE
  5
71CF
330
531B
100
AcDbEntity
  8
AM_5
100
AcDbLine
 10
6454.334805051678
 20
734.1437330143726
 30
0.0
 11
6454.334805051678
 21
754.1437330143726
 31
0.0
  0
LINE
  5
71D0
330
531B
100
AcDbEntity
  8
AM_5
100
AcDbLine
 10
6454.334805051678
 20
674.1437330143726
 30
0.0
 11
6454.334805051678
 21
654.1437330143726
 31
0.0
  0
LINE
  5
71D1
330
531B
100
AcDbEntity
  8
AM_5
100
AcDbLine
 10
6454.334805051678
 20
714.1437330143726
 30
0.0
 11
6454.334805051678
 21
694.1437330143726
 31
0.0
  0
SOLID
  5
71D2
330
531B
100
AcDbEntity
  8
AM_5
100
AcDbTrace
 10
6451.001471718345
 20
734.1437330143726
 30
0.0
 11
6457.668138385011
 21
734.1437330143726
 31
0.0
 12
6454.334805051678
 22
714.1437330143726
 32
0.0
 13
6454.334805051678
 23
714.1437330143726
 33
0.0
  0
SOLID
  5
71D3
330
531B
100
AcDbEntity
  8
AM_5
100
AcDbTrace
 10
6451.001471718345
 20
674.1437330143726
 30
0.0
 11
6457.668138385011
 21
674.1437330143726
 31
0.0
 12
6454.334805051678
 22
694.1437330143726
 32
0.0
 13
6454.334805051678
 23
694.1437330143726
 33
0.0
  0
MTEXT
  5
71D4
330
531B
100
AcDbEntity
  8
AM_5
100
AcDbMText
 10
6438.334805051678
 20
704.1437330143737
 30
0.0
 40
20.0
 41
0.0
 71
     5
 72
     1
  1
\A2;10
 11
0.0000000000000001
 21
1.0
 31
0.0
 73
     1
 44
1.0
1001
ACAD
1000
MTEXTBEGIN
1070
    73
1070
     1
1070
    44
1040
1.0
1070
    74
1070
     0
1000
MTEXTEND
  0
POINT
  5
71D5
330
531B
100
AcDbEntity
  8
Defpoints
 62
     0
100
AcDbPoint
 10
6514.334805051678
 20
714.1437330143726
 30
0.0
  0
POINT
  5
71D6
330
531B
100
AcDbEntity
  8
Defpoints
 62
     0
100
AcDbPoint
 10
6514.334805051678
 20
694.1437330143726
 30
0.0
  0
POINT
  5
71D7
330
531B
100
AcDbEntity
  8
Defpoints
 62
     0
100
AcDbPoint
 10
6454.334805051678
 20
694.1437330143726
 30
0.0
  0
ENDBLK
  5
5328
330
531B
100
AcDbEntity
  8
0
100
AcDbBlockEnd
  0
BLOCK
  5
5367
330
535D
100
AcDbEntity
  8
0
100
AcDbBlockBegin
  2
*D10
 70
     1
 10
0.0
 20
0.0
 30
0.0
  3
*D10
  1

  0
LINE
  5
71D8
330
535D
100
AcDbEntity
  8
AM_5
100
AcDbLine
 10
5810.444932861901
 20
-480.3297745211896
 30
0.0
 11
5810.444932861901
 21
-525.2123065469827
 31
0.0
  0
LINE
  5
71D9
330
535D
100
AcDbEntity
  8
AM_5
100
AcDbLine
 10
6030.444932861901
 20
-481.9674775593107
 30
0.0
 11
6030.444932861901
 21
-525.2123065469827
 31
0.0
  0
LINE
  5
71DA
330
535D
100
AcDbEntity
  8
AM_5
100
AcDbLine
 10
5830.444932861901
 20
-521.2123065469827
 30
0.0
 11
6010.444932861901
 21
-521.2123065469827
 31
0.0
  0
SOLID
  5
71DB
330
535D
100
AcDbEntity
  8
AM_5
100
AcDbTrace
 10
5830.444932861901
 20
-517.8789732136493
 30
0.0
 11
5830.444932861901
 21
-524.5456398803161
 31
0.0
 12
5810.444932861901
 22
-521.2123065469827
 32
0.0
 13
5810.444932861901
 23
-521.2123065469827
 33
0.0
  0
SOLID
  5
71DC
330
535D
100
AcDbEntity
  8
AM_5
100
AcDbTrace
 10
6010.444932861901
 20
-517.8789732136493
 30
0.0
 11
6010.444932861901
 21
-524.5456398803161
 31
0.0
 12
6030.444932861901
 22
-521.2123065469827
 32
0.0
 13
6030.444932861901
 23
-521.2123065469827
 33
0.0
  0
MTEXT
  5
71DD
330
535D
100
AcDbEntity
  8
AM_5
100
AcDbMText
 10
5920.444932861901
 20
-505.2103380430457
 30
0.0
 40
20.0
 41
0.0
 71
     5
 72
     1
  1
\A2;220
 73
     1
 44
1.0
1001
ACAD
1000
MTEXTBEGIN
1070
    73
1070
     1
1070
    44
1040
1.0
1070
    74
1070
     0
1000
MTEXTEND
  0
POINT
  5
71DE
330
535D
100
AcDbEntity
  8
Defpoints
 62
     0
100
AcDbPoint
 10
5810.444932861901
 20
-477.3297745211896
 30
0.0
  0
POINT
  5
71DF
330
535D
100
AcDbEntity
  8
Defpoints
 62
     0
100
AcDbPoint
 10
6030.444932861901
 20
-478.9674775593107
 30
0.0
  0
POINT
  5
71E0
330
535D
100
AcDbEntity
  8
Defpoints
 62
     0
100
AcDbPoint
 10
6030.444932861901
 20
-521.2123065469827
 30
0.0
  0
ENDBLK
  5
5368
330
535D
100
AcDbEntity
  8
0
100
AcDbBlockEnd
  0
BLOCK
  5
5373
330
5369
100
AcDbEntity
  8
0
100
AcDbBlockBegin
  2
*D11
 70
     1
 10
0.0
 20
0.0
 30
0.0
  3
*D11
  1

  0
LINE
  5
71E1
330
5369
100
AcDbEntity
  8
AM_5
100
AcDbLine
 10
5795.444932861901
 20
-464.2123065469827
 30
0.0
 11
5795.444932861901
 21
-575.2123065469827
 31
0.0
  0
LINE
  5
71E2
330
5369
100
AcDbEntity
  8
AM_5
100
AcDbLine
 10
6045.444932861901
 20
-464.2123065469827
 30
0.0
 11
6045.444932861901
 21
-575.2123065469827
 31
0.0
  0
LINE
  5
71E3
330
5369
100
AcDbEntity
  8
AM_5
100
AcDbLine
 10
5815.444932861901
 20
-571.2123065469827
 30
0.0
 11
6025.444932861901
 21
-571.2123065469827
 31
0.0
  0
SOLID
  5
71E4
330
5369
100
AcDbEntity
  8
AM_5
100
AcDbTrace
 10
5815.444932861901
 20
-567.8789732136493
 30
0.0
 11
5815.444932861901
 21
-574.5456398803161
 31
0.0
 12
5795.444932861901
 22
-571.2123065469827
 32
0.0
 13
5795.444932861901
 23
-571.2123065469827
 33
0.0
  0
SOLID
  5
71E5
330
5369
100
AcDbEntity
  8
AM_5
100
AcDbTrace
 10
6025.444932861901
 20
-567.8789732136493
 30
0.0
 11
6025.444932861901
 21
-574.5456398803161
 31
0.0
 12
6045.444932861901
 22
-571.2123065469827
 32
0.0
 13
6045.444932861901
 23
-571.2123065469827
 33
0.0
  0
MTEXT
  5
71E6
330
5369
100
AcDbEntity
  8
AM_5
100
AcDbMText
 10
5920.444932861901
 20
-555.2103380430458
 30
0.0
 40
20.0
 41
0.0
 71
     5
 72
     1
  1
\A2;250
 73
     1
 44
1.0
1001
ACAD
1000
MTEXTBEGIN
1070
    73
1070
     1
1070
    44
1040
1.0
1070
    74
1070
     0
1000
MTEXTEND
  0
POINT
  5
71E7
330
5369
100
AcDbEntity
  8
Defpoints
 62
     0
100
AcDbPoint
 10
5795.444932861901
 20
-461.2123065469827
 30
0.0
  0
POINT
  5
71E8
330
5369
100
AcDbEntity
  8
Defpoints
 62
     0
100
AcDbPoint
 10
6045.444932861901
 20
-461.2123065469827
 30
0.0
  0
POINT
  5
71E9
330
5369
100
AcDbEntity
  8
Defpoints
 62
     0
100
AcDbPoint
 10
6045.444932861901
 20
-571.2123065469827
 30
0.0
  0
ENDBLK
  5
5374
330
5369
100
AcDbEntity
  8
0
100
AcDbBlockEnd
  0
BLOCK
  5
53B9
330
53AF
100
AcDbEntity
  8
0
100
AcDbBlockBegin
  2
*D12
 70
     1
 10
0.0
 20
0.0
 30
0.0
  3
*D12
  1

  0
LINE
  5
71EA
330
53AF
100
AcDbEntity
  8
AM_5
100
AcDbLine
 10
6394.334805051678
 20
-477.0099142971584
 30
0.0
 11
6394.334805051678
 21
-525.2123065469823
 31
0.0
  0
LINE
  5
71EB
330
53AF
100
AcDbEntity
  8
AM_5
100
AcDbLine
 10
6684.334805051678
 20
-477.4745770398308
 30
0.0
 11
6684.334805051678
 21
-525.2123065469823
 31
0.0
  0
LINE
  5
71EC
330
53AF
100
AcDbEntity
  8
AM_5
100
AcDbLine
 10
6414.334805051677
 20
-521.2123065469823
 30
0.0
 11
6664.334805051677
 21
-521.2123065469823
 31
0.0
  0
SOLID
  5
71ED
330
53AF
100
AcDbEntity
  8
AM_5
100
AcDbTrace
 10
6414.334805051677
 20
-517.8789732136489
 30
0.0
 11
6414.334805051677
 21
-524.5456398803156
 31
0.0
 12
6394.334805051678
 22
-521.2123065469823
 32
0.0
 13
6394.334805051678
 23
-521.2123065469823
 33
0.0
  0
SOLID
  5
71EE
330
53AF
100
AcDbEntity
  8
AM_5
100
AcDbTrace
 10
6664.334805051677
 20
-517.8789732136489
 30
0.0
 11
6664.334805051677
 21
-524.5456398803156
 31
0.0
 12
6684.334805051678
 22
-521.2123065469823
 32
0.0
 13
6684.334805051678
 23
-521.2123065469823
 33
0.0
  0
MTEXT
  5
71EF
330
53AF
100
AcDbEntity
  8
AM_5
100
AcDbMText
 10
6539.334805051677
 20
-505.2103380430453
 30
0.0
 40
20.0
 41
0.0
 71
     5
 72
     1
  1
\A2;290
 73
     1
 44
1.0
1001
ACAD
1000
MTEXTBEGIN
1070
    73
1070
     1
1070
    44
1040
1.0
1070
    74
1070
     0
1000
MTEXTEND
  0
POINT
  5
71F0
330
53AF
100
AcDbEntity
  8
Defpoints
 62
     0
100
AcDbPoint
 10
6394.334805051678
 20
-474.0099142971585
 30
0.0
  0
POINT
  5
71F1
330
53AF
100
AcDbEntity
  8
Defpoints
 62
     0
100
AcDbPoint
 10
6684.334805051678
 20
-474.4745770398308
 30
0.0
  0
POINT
  5
71F2
330
53AF
100
AcDbEntity
  8
Defpoints
 62
     0
100
AcDbPoint
 10
6684.334805051678
 20
-521.2123065469823
 30
0.0
  0
ENDBLK
  5
53BA
330
53AF
100
AcDbEntity
  8
0
100
AcDbBlockEnd
  0
BLOCK
  5
53C5
330
53BB
100
AcDbEntity
  8
0
100
AcDbBlockBegin
  2
*D13
 70
     1
 10
0.0
 20
0.0
 30
0.0
  3
*D13
  1

  0
LINE
  5
71F3
330
53BB
100
AcDbEntity
  8
AM_5
100
AcDbLine
 10
6379.334805051678
 20
-464.2123065469827
 30
0.0
 11
6379.334805051678
 21
-575.2123065469829
 31
0.0
  0
LINE
  5
71F4
330
53BB
100
AcDbEntity
  8
AM_5
100
AcDbLine
 10
6859.334805051678
 20
-464.2123065469827
 30
0.0
 11
6859.334805051678
 21
-575.2123065469829
 31
0.0
  0
LINE
  5
71F5
330
53BB
100
AcDbEntity
  8
AM_5
100
AcDbLine
 10
6399.334805051678
 20
-571.2123065469829
 30
0.0
 11
6839.334805051677
 21
-571.2123065469829
 31
0.0
  0
SOLID
  5
71F6
330
53BB
100
AcDbEntity
  8
AM_5
100
AcDbTrace
 10
6399.334805051678
 20
-567.8789732136496
 30
0.0
 11
6399.334805051678
 21
-574.5456398803163
 31
0.0
 12
6379.334805051678
 22
-571.2123065469829
 32
0.0
 13
6379.334805051678
 23
-571.2123065469829
 33
0.0
  0
SOLID
  5
71F7
330
53BB
100
AcDbEntity
  8
AM_5
100
AcDbTrace
 10
6839.334805051677
 20
-567.8789732136496
 30
0.0
 11
6839.334805051677
 21
-574.5456398803163
 31
0.0
 12
6859.334805051678
 22
-571.2123065469829
 32
0.0
 13
6859.334805051678
 23
-571.2123065469829
 33
0.0
  0
MTEXT
  5
71F8
330
53BB
100
AcDbEntity
  8
AM_5
100
AcDbMText
 10
6619.334805051678
 20
-555.2123065469829
 30
0.0
 40
20.0
 41
0.0
 71
     5
 72
     1
  1
\A2;480
 73
     1
 44
1.0
1001
ACAD
1000
MTEXTBEGIN
1070
    73
1070
     1
1070
    44
1040
1.0
1070
    74
1070
     0
1000
MTEXTEND
  0
POINT
  5
71F9
330
53BB
100
AcDbEntity
  8
Defpoints
 62
     0
100
AcDbPoint
 10
6379.334805051678
 20
-461.2123065469827
 30
0.0
  0
POINT
  5
71FA
330
53BB
100
AcDbEntity
  8
Defpoints
 62
     0
100
AcDbPoint
 10
6859.334805051678
 20
-461.2123065469827
 30
0.0
  0
POINT
  5
71FB
330
53BB
100
AcDbEntity
  8
Defpoints
 62
     0
100
AcDbPoint
 10
6859.334805051678
 20
-571.2123065469829
 30
0.0
  0
ENDBLK
  5
53C6
330
53BB
100
AcDbEntity
  8
0
100
AcDbBlockEnd
  0
BLOCK
  5
53E8
330
53DE
100
AcDbEntity
  8
0
100
AcDbBlockBegin
  2
*D14
 70
     1
 10
0.0
 20
0.0
 30
0.0
  3
*D14
  1

  0
LINE
  5
71FC
330
53DE
100
AcDbEntity
  8
AM_5
100
AcDbLine
 10
6376.334805051678
 20
-461.2123065469829
 30
0.0
 11
6315.334805051678
 21
-461.2123065469829
 31
0.0
  0
LINE
  5
71FD
330
53DE
100
AcDbEntity
  8
AM_5
100
AcDbLine
 10
6416.334805051677
 20
-361.2123065469827
 30
0.0
 11
6315.334805051678
 21
-361.2123065469827
 31
0.0
  0
LINE
  5
71FE
330
53DE
100
AcDbEntity
  8
AM_5
100
AcDbLine
 10
6319.334805051678
 20
-441.2123065469829
 30
0.0
 11
6319.334805051678
 21
-381.2123065469828
 31
0.0
  0
SOLID
  5
71FF
330
53DE
100
AcDbEntity
  8
AM_5
100
AcDbTrace
 10
6316.001471718345
 20
-441.2123065469829
 30
0.0
 11
6322.668138385012
 21
-441.2123065469829
 31
0.0
 12
6319.334805051678
 22
-461.2123065469829
 32
0.0
 13
6319.334805051678
 23
-461.2123065469829
 33
0.0
  0
SOLID
  5
7200
330
53DE
100
AcDbEntity
  8
AM_5
100
AcDbTrace
 10
6316.001471718345
 20
-381.2123065469828
 30
0.0
 11
6322.668138385012
 21
-381.2123065469828
 31
0.0
 12
6319.334805051678
 22
-361.2123065469827
 32
0.0
 13
6319.334805051678
 23
-361.2123065469827
 33
0.0
  0
MTEXT
  5
7201
330
53DE
100
AcDbEntity
  8
AM_5
100
AcDbMText
 10
6303.334805051678
 20
-411.2123065469818
 30
0.0
 40
20.0
 41
0.0
 71
     5
 72
     1
  1
\A2;100
 11
0.0000000000000001
 21
1.0
 31
0.0
 73
     1
 44
1.0
1001
ACAD
1000
MTEXTBEGIN
1070
    73
1070
     1
1070
    44
1040
1.0
1070
    74
1070
     0
1000
MTEXTEND
  0
POINT
  5
7202
330
53DE
100
AcDbEntity
  8
Defpoints
 62
     0
100
AcDbPoint
 10
6379.334805051678
 20
-461.2123065469829
 30
0.0
  0
POINT
  5
7203
330
53DE
100
AcDbEntity
  8
Defpoints
 62
     0
100
AcDbPoint
 10
6419.334805051677
 20
-361.2123065469827
 30
0.0
  0
POINT
  5
7204
330
53DE
100
AcDbEntity
  8
Defpoints
 62
     0
100
AcDbPoint
 10
6319.334805051678
 20
-361.2123065469827
 30
0.0
  0
ENDBLK
  5
53E9
330
53DE
100
AcDbEntity
  8
0
100
AcDbBlockEnd
  0
BLOCK
  5
53F4
330
53EA
100
AcDbEntity
  8
0
100
AcDbBlockBegin
  2
*D15
 70
     1
 10
0.0
 20
0.0
 30
0.0
  3
*D15
  1

  0
LINE
  5
7801
330
53EA
100
AcDbEntity
  8
AM_5
100
AcDbLine
 10
6416.334805051677
 20
-361.2123065469827
 30
0.0
 11
6315.334805051678
 21
-361.2123065469827
 31
0.0
  0
LINE
  5
7802
330
53EA
100
AcDbEntity
  8
AM_5
100
AcDbLine
 10
6511.334805051679
 20
-132.8198369038862
 30
0.0
 11
6315.334805051678
 21
-132.8198369038861
 31
0.0
  0
LINE
  5
7803
330
53EA
100
AcDbEntity
  8
AM_5
100
AcDbLine
 10
6319.334805051678
 20
-341.2123065469828
 30
0.0
 11
6319.334805051678
 21
-152.8198369038861
 31
0.0
  0
SOLID
  5
7804
330
53EA
100
AcDbEntity
  8
AM_5
100
AcDbTrace
 10
6316.001471718345
 20
-341.2123065469828
 30
0.0
 11
6322.668138385012
 21
-341.2123065469828
 31
0.0
 12
6319.334805051678
 22
-361.2123065469827
 32
0.0
 13
6319.334805051678
 23
-361.2123065469827
 33
0.0
  0
SOLID
  5
7805
330
53EA
100
AcDbEntity
  8
AM_5
100
AcDbTrace
 10
6316.001471718345
 20
-152.8198369038861
 30
0.0
 11
6322.668138385012
 21
-152.8198369038861
 31
0.0
 12
6319.334805051678
 22
-132.8198369038861
 32
0.0
 13
6319.334805051678
 23
-132.8198369038861
 33
0.0
  0
MTEXT
  5
7806
330
53EA
100
AcDbEntity
  8
AM_5
100
AcDbMText
 10
6303.332836547741
 20
-247.0160717254334
 30
0.0
 40
20.0
 41
0.0
 71
     5
 72
     1
  1
\A2;Max. 250
 11
0.0000000000000001
 21
1.0
 31
0.0
 73
     1
 44
1.0
1001
ACAD
1000
MTEXTBEGIN
1070
    73
1070
     1
1070
    44
1040
1.0
1070
    74
1070
     0
1000
MTEXTEND
  0
POINT
  5
7807
330
53EA
100
AcDbEntity
  8
Defpoints
 62
     0
100
AcDbPoint
 10
6419.334805051677
 20
-361.2123065469827
 30
0.0
  0
POINT
  5
7808
330
53EA
100
AcDbEntity
  8
Defpoints
 62
     0
100
AcDbPoint
 10
6514.334805051679
 20
-132.8198369038862
 30
0.0
  0
POINT
  5
7809
330
53EA
100
AcDbEntity
  8
Defpoints
 62
     0
100
AcDbPoint
 10
6319.334805051678
 20
-132.8198369038861
 30
0.0
  0
ENDBLK
  5
53F5
330
53EA
100
AcDbEntity
  8
0
100
AcDbBlockEnd
  0
BLOCK
  5
5402
330
53F6
100
AcDbEntity
  8
0
100
AcDbBlockBegin
  2
*D16
 70
     1
 10
0.0
 20
0.0
 30
0.0
  3
*D16
  1

  0
LINE
  5
756F
330
53F6
100
AcDbEntity
  8
AM_5
100
AcDbLine
 10
6511.334805051678
 20
-132.8198369038862
 30
0.0
 11
6315.334805051678
 21
-132.8198369038861
 31
0.0
  0
LINE
  5
7570
330
53F6
100
AcDbEntity
  8
AM_5
100
AcDbLine
 10
6441.334805051678
 20
-12.81983690388619
 30
0.0
 11
6315.334805051678
 21
-12.81983690388616
 31
0.0
  0
LINE
  5
7571
330
53F6
100
AcDbEntity
  8
AM_5
100
AcDbLine
 10
6319.334805051678
 20
-112.8198369038861
 30
0.0
 11
6319.334805051678
 21
-32.81983690388616
 31
0.0
  0
SOLID
  5
7572
330
53F6
100
AcDbEntity
  8
AM_5
100
AcDbTrace
 10
6316.001471718345
 20
-112.8198369038861
 30
0.0
 11
6322.668138385012
 21
-112.8198369038861
 31
0.0
 12
6319.334805051678
 22
-132.8198369038861
 32
0.0
 13
6319.334805051678
 23
-132.8198369038861
 33
0.0
  0
SOLID
  5
7573
330
53F6
100
AcDbEntity
  8
AM_5
100
AcDbTrace
 10
6316.001471718345
 20
-32.81983690388616
 30
0.0
 11
6322.668138385012
 21
-32.81983690388617
 31
0.0
 12
6319.334805051678
 22
-12.81983690388616
 32
0.0
 13
6319.334805051678
 23
-12.81983690388616
 33
0.0
  0
MTEXT
  5
7574
330
53F6
100
AcDbEntity
  8
AM_5
100
AcDbMText
 10
6303.332836547741
 20
-72.81983690388513
 30
0.0
 40
20.0
 41
0.0
 71
     5
 72
     1
  1
\A2;120
 11
0.0000000000000001
 21
1.0
 31
0.0
 73
     1
 44
1.0
1001
ACAD
1000
MTEXTBEGIN
1070
    73
1070
     1
1070
    44
1040
1.0
1070
    74
1070
     0
1000
MTEXTEND
  0
POINT
  5
7575
330
53F6
100
AcDbEntity
  8
Defpoints
 62
     0
100
AcDbPoint
 10
6514.334805051678
 20
-132.8198369038862
 30
0.0
  0
POINT
  5
7576
330
53F6
100
AcDbEntity
  8
Defpoints
 62
     0
100
AcDbPoint
 10
6444.334805051678
 20
-12.8198369038862
 30
0.0
  0
POINT
  5
7577
330
53F6
100
AcDbEntity
  8
Defpoints
 62
     0
100
AcDbPoint
 10
6319.334805051678
 20
-12.81983690388616
 30
0.0
  0
ENDBLK
  5
5403
330
53F6
100
AcDbEntity
  8
0
100
AcDbBlockEnd
  0
BLOCK
  5
540E
330
5404
100
AcDbEntity
  8
0
100
AcDbBlockBegin
  2
*D17
 70
     1
 10
0.0
 20
0.0
 30
0.0
  3
*D17
  1

  0
LINE
  5
7217
330
5404
100
AcDbEntity
  8
AM_5
100
AcDbLine
 10
6441.334805051678
 20
-12.81983690388619
 30
0.0
 11
6315.334805051678
 21
-12.81983690388616
 31
0.0
  0
LINE
  5
7218
330
5404
100
AcDbEntity
  8
AM_5
100
AcDbLine
 10
6496.334805051678
 20
427.180163096114
 30
0.0
 11
6315.334805051678
 21
427.180163096114
 31
0.0
  0
LINE
  5
7219
330
5404
100
AcDbEntity
  8
AM_5
100
AcDbLine
 10
6319.334805051678
 20
7.180163096113837
 30
0.0
 11
6319.334805051678
 21
407.180163096114
 31
0.0
  0
SOLID
  5
721A
330
5404
100
AcDbEntity
  8
AM_5
100
AcDbTrace
 10
6316.001471718345
 20
7.180163096113838
 30
0.0
 11
6322.668138385012
 21
7.180163096113836
 31
0.0
 12
6319.334805051678
 22
-12.81983690388616
 32
0.0
 13
6319.334805051678
 23
-12.81983690388616
 33
0.0
  0
SOLID
  5
721B
330
5404
100
AcDbEntity
  8
AM_5
100
AcDbTrace
 10
6316.001471718345
 20
407.180163096114
 30
0.0
 11
6322.668138385012
 21
407.180163096114
 31
0.0
 12
6319.334805051678
 22
427.180163096114
 32
0.0
 13
6319.334805051678
 23
427.180163096114
 33
0.0
  0
MTEXT
  5
721C
330
5404
100
AcDbEntity
  8
AM_5
100
AcDbMText
 10
6303.334805051678
 20
207.1801630961149
 30
0.0
 40
20.0
 41
0.0
 71
     5
 72
     1
  1
\A2;440
 11
0.0000000000000001
 21
1.0
 31
0.0
 73
     1
 44
1.0
1001
ACAD
1000
MTEXTBEGIN
1070
    73
1070
     1
1070
    44
1040
1.0
1070
    74
1070
     0
1000
MTEXTEND
  0
POINT
  5
721D
330
5404
100
AcDbEntity
  8
Defpoints
 62
     0
100
AcDbPoint
 10
6444.334805051678
 20
-12.8198369038862
 30
0.0
  0
POINT
  5
721E
330
5404
100
AcDbEntity
  8
Defpoints
 62
     0
100
AcDbPoint
 10
6499.334805051678
 20
427.180163096114
 30
0.0
  0
POINT
  5
721F
330
5404
100
AcDbEntity
  8
Defpoints
 62
     0
100
AcDbPoint
 10
6319.334805051678
 20
427.180163096114
 30
0.0
  0
ENDBLK
  5
540F
330
5404
100
AcDbEntity
  8
0
100
AcDbBlockEnd
  0
BLOCK
  5
541A
330
5410
100
AcDbEntity
  8
0
100
AcDbBlockBegin
  2
*D18
 70
     1
 10
0.0
 20
0.0
 30
0.0
  3
*D18
  1

  0
LINE
  5
77F7
330
5410
100
AcDbEntity
  8
AM_5
100
AcDbLine
 10
6376.334805051678
 20
-461.2123065469829
 30
0.0
 11
6265.334805051678
 21
-461.2123065469829
 31
0.0
  0
LINE
  5
77F8
330
5410
100
AcDbEntity
  8
AM_5
100
AcDbLine
 10
6496.334805051678
 20
427.180163096114
 30
0.0
 11
6265.334805051678
 21
427.1801630961141
 31
0.0
  0
LINE
  5
77F9
330
5410
100
AcDbEntity
  8
AM_5
100
AcDbLine
 10
6269.334805051678
 20
-441.2123065469828
 30
0.0
 11
6269.334805051678
 21
407.180163096114
 31
0.0
  0
SOLID
  5
77FA
330
5410
100
AcDbEntity
  8
AM_5
100
AcDbTrace
 10
6266.001471718345
 20
-441.2123065469828
 30
0.0
 11
6272.668138385011
 21
-441.2123065469829
 31
0.0
 12
6269.334805051678
 22
-461.2123065469829
 32
0.0
 13
6269.334805051678
 23
-461.2123065469829
 33
0.0
  0
SOLID
  5
77FB
330
5410
100
AcDbEntity
  8
AM_5
100
AcDbTrace
 10
6266.001471718345
 20
407.180163096114
 30
0.0
 11
6272.668138385011
 21
407.180163096114
 31
0.0
 12
6269.334805051678
 22
427.1801630961141
 32
0.0
 13
6269.334805051678
 23
427.1801630961141
 33
0.0
  0
MTEXT
  5
77FC
330
5410
100
AcDbEntity
  8
AM_5
100
AcDbMText
 10
6253.334805051678
 20
-17.01607172543343
 30
0.0
 40
20.0
 41
0.0
 71
     5
 72
     1
  1
\A2;Max. 900
 11
0.0000000000000001
 21
1.0
 31
0.0
 73
     1
 44
1.0
1001
ACAD
1000
MTEXTBEGIN
1070
    73
1070
     1
1070
    44
1040
1.0
1070
    74
1070
     0
1000
MTEXTEND
  0
POINT
  5
77FD
330
5410
100
AcDbEntity
  8
Defpoints
 62
     0
100
AcDbPoint
 10
6379.334805051678
 20
-461.2123065469829
 30
0.0
  0
POINT
  5
77FE
330
5410
100
AcDbEntity
  8
Defpoints
 62
     0
100
AcDbPoint
 10
6499.334805051678
 20
427.180163096114
 30
0.0
  0
POINT
  5
77FF
330
5410
100
AcDbEntity
  8
Defpoints
 62
     0
100
AcDbPoint
 10
6269.334805051678
 20
427.1801630961141
 30
0.0
  0
ENDBLK
  5
541B
330
5410
100
AcDbEntity
  8
0
100
AcDbBlockEnd
  0
BLOCK
  5
547C
330
5472
100
AcDbEntity
  8
0
100
AcDbBlockBegin
  2
*D19
 70
     1
 10
0.0
 20
0.0
 30
0.0
  3
*D19
  1

  0
LINE
  5
7229
330
5472
100
AcDbEntity
  8
AM_5
100
AcDbLine
 10
6862.33480505168
 20
-461.2123065469827
 30
0.0
 11
6923.33480505168
 21
-461.2123065469827
 31
0.0
  0
LINE
  5
722A
330
5472
100
AcDbEntity
  8
AM_5
100
AcDbLine
 10
6862.33480505168
 20
-361.2123065469827
 30
0.0
 11
6923.33480505168
 21
-361.2123065469827
 31
0.0
  0
LINE
  5
722B
330
5472
100
AcDbEntity
  8
AM_5
100
AcDbLine
 10
6919.33480505168
 20
-441.2123065469827
 30
0.0
 11
6919.33480505168
 21
-381.2123065469828
 31
0.0
  0
SOLID
  5
722C
330
5472
100
AcDbEntity
  8
AM_5
100
AcDbTrace
 10
6916.001471718347
 20
-441.2123065469827
 30
0.0
 11
6922.668138385013
 21
-441.2123065469827
 31
0.0
 12
6919.33480505168
 22
-461.2123065469827
 32
0.0
 13
6919.33480505168
 23
-461.2123065469827
 33
0.0
  0
SOLID
  5
722D
330
5472
100
AcDbEntity
  8
AM_5
100
AcDbTrace
 10
6916.001471718347
 20
-381.2123065469828
 30
0.0
 11
6922.668138385013
 21
-381.2123065469828
 31
0.0
 12
6919.33480505168
 22
-361.2123065469827
 32
0.0
 13
6919.33480505168
 23
-361.2123065469827
 33
0.0
  0
MTEXT
  5
722E
330
5472
100
AcDbEntity
  8
AM_5
100
AcDbMText
 10
6903.334805051679
 20
-411.2123065469815
 30
0.0
 40
20.0
 41
0.0
 71
     5
 72
     1
  1
\A2;100
 11
0.0000000000000001
 21
1.0
 31
0.0
 73
     1
 44
1.0
1001
ACAD
1000
MTEXTBEGIN
1070
    73
1070
     1
1070
    44
1040
1.0
1070
    74
1070
     0
1000
MTEXTEND
  0
POINT
  5
722F
330
5472
100
AcDbEntity
  8
Defpoints
 62
     0
100
AcDbPoint
 10
6859.33480505168
 20
-461.2123065469827
 30
0.0
  0
POINT
  5
7230
330
5472
100
AcDbEntity
  8
Defpoints
 62
     0
100
AcDbPoint
 10
6859.33480505168
 20
-361.2123065469827
 30
0.0
  0
POINT
  5
7231
330
5472
100
AcDbEntity
  8
Defpoints
 62
     0
100
AcDbPoint
 10
6919.33480505168
 20
-361.2123065469827
 30
0.0
  0
ENDBLK
  5
547D
330
5472
100
AcDbEntity
  8
0
100
AcDbBlockEnd
  0
BLOCK
  5
5488
330
547E
100
AcDbEntity
  8
0
100
AcDbBlockBegin
  2
*D20
 70
     1
 10
0.0
 20
0.0
 30
0.0
  3
*D20
  1

  0
LINE
  5
7232
330
547E
100
AcDbEntity
  8
AM_5
100
AcDbLine
 10
6862.33480505168
 20
-112.8198369038864
 30
0.0
 11
6923.33480505168
 21
-112.8198369038864
 31
0.0
  0
LINE
  5
7233
330
547E
100
AcDbEntity
  8
AM_5
100
AcDbLine
 10
6862.33480505168
 20
-12.8198369038862
 30
0.0
 11
6923.33480505168
 21
-12.81983690388621
 31
0.0
  0
LINE
  5
7234
330
547E
100
AcDbEntity
  8
AM_5
100
AcDbLine
 10
6919.33480505168
 20
-92.81983690388644
 30
0.0
 11
6919.33480505168
 21
-32.81983690388621
 31
0.0
  0
SOLID
  5
7235
330
547E
100
AcDbEntity
  8
AM_5
100
AcDbTrace
 10
6916.001471718347
 20
-92.81983690388644
 30
0.0
 11
6922.668138385013
 21
-92.81983690388644
 31
0.0
 12
6919.33480505168
 22
-112.8198369038864
 32
0.0
 13
6919.33480505168
 23
-112.8198369038864
 33
0.0
  0
SOLID
  5
7236
330
547E
100
AcDbEntity
  8
AM_5
100
AcDbTrace
 10
6916.001471718347
 20
-32.81983690388621
 30
0.0
 11
6922.668138385013
 21
-32.81983690388621
 31
0.0
 12
6919.33480505168
 22
-12.81983690388621
 32
0.0
 13
6919.33480505168
 23
-12.81983690388621
 33
0.0
  0
MTEXT
  5
7237
330
547E
100
AcDbEntity
  8
AM_5
100
AcDbMText
 10
6903.334805051679
 20
-62.81983690388521
 30
0.0
 40
20.0
 41
0.0
 71
     5
 72
     1
  1
\A2;100
 11
0.0000000000000001
 21
1.0
 31
0.0
 73
     1
 44
1.0
1001
ACAD
1000
MTEXTBEGIN
1070
    73
1070
     1
1070
    44
1040
1.0
1070
    74
1070
     0
1000
MTEXTEND
  0
POINT
  5
7238
330
547E
100
AcDbEntity
  8
Defpoints
 62
     0
100
AcDbPoint
 10
6859.33480505168
 20
-112.8198369038864
 30
0.0
  0
POINT
  5
7239
330
547E
100
AcDbEntity
  8
Defpoints
 62
     0
100
AcDbPoint
 10
6859.33480505168
 20
-12.8198369038862
 30
0.0
  0
POINT
  5
723A
330
547E
100
AcDbEntity
  8
Defpoints
 62
     0
100
AcDbPoint
 10
6919.33480505168
 20
-12.81983690388621
 30
0.0
  0
ENDBLK
  5
5489
330
547E
100
AcDbEntity
  8
0
100
AcDbBlockEnd
  0
BLOCK
  5
5494
330
548A
100
AcDbEntity
  8
0
100
AcDbBlockBegin
  2
*D21
 70
     1
 10
0.0
 20
0.0
 30
0.0
  3
*D21
  1

  0
LINE
  5
723B
330
548A
100
AcDbEntity
  8
AM_5
100
AcDbLine
 10
6862.33480505168
 20
-461.2123065469827
 30
0.0
 11
6973.334805051679
 21
-461.2123065469827
 31
0.0
  0
LINE
  5
723C
330
548A
100
AcDbEntity
  8
AM_5
100
AcDbLine
 10
6820.334805051679
 20
38.78769345301726
 30
0.0
 11
6973.334805051679
 21
38.78769345301721
 31
0.0
  0
LINE
  5
723D
330
548A
100
AcDbEntity
  8
AM_5
100
AcDbLine
 10
6969.33480505168
 20
-441.2123065469827
 30
0.0
 11
6969.33480505168
 21
18.78769345301721
 31
0.0
  0
SOLID
  5
723E
330
548A
100
AcDbEntity
  8
AM_5
100
AcDbTrace
 10
6966.001471718347
 20
-441.2123065469827
 30
0.0
 11
6972.668138385014
 21
-441.2123065469827
 31
0.0
 12
6969.33480505168
 22
-461.2123065469827
 32
0.0
 13
6969.33480505168
 23
-461.2123065469827
 33
0.0
  0
SOLID
  5
723F
330
548A
100
AcDbEntity
  8
AM_5
100
AcDbTrace
 10
6966.001471718347
 20
18.78769345301721
 30
0.0
 11
6972.668138385014
 21
18.78769345301721
 31
0.0
 12
6969.33480505168
 22
38.78769345301721
 32
0.0
 13
6969.33480505168
 23
38.78769345301721
 33
0.0
  0
MTEXT
  5
7240
330
548A
100
AcDbEntity
  8
AM_5
100
AcDbMText
 10
6953.334805051679
 20
-211.2123065469816
 30
0.0
 40
20.0
 41
0.0
 71
     5
 72
     1
  1
\A2;500
 11
0.0000000000000001
 21
1.0
 31
0.0
 73
     1
 44
1.0
1001
ACAD
1000
MTEXTBEGIN
1070
    73
1070
     1
1070
    44
1040
1.0
1070
    74
1070
     0
1000
MTEXTEND
  0
POINT
  5
7241
330
548A
100
AcDbEntity
  8
Defpoints
 62
     0
100
AcDbPoint
 10
6859.33480505168
 20
-461.2123065469827
 30
0.0
  0
POINT
  5
7242
330
548A
100
AcDbEntity
  8
Defpoints
 62
     0
100
AcDbPoint
 10
6817.334805051679
 20
38.78769345301726
 30
0.0
  0
POINT
  5
7243
330
548A
100
AcDbEntity
  8
Defpoints
 62
     0
100
AcDbPoint
 10
6969.33480505168
 20
38.78769345301721
 30
0.0
  0
ENDBLK
  5
5495
330
548A
100
AcDbEntity
  8
0
100
AcDbBlockEnd
  0
BLOCK
  5
54BE
330
54B3
100
AcDbEntity
  8
0
100
AcDbBlockBegin
  2
*D22
 70
     1
 10
0.0
 20
0.0
 30
0.0
  3
*D22
  1

  0
LINE
  5
7244
330
54B3
100
AcDbEntity
  8
AM_5
100
AcDbLine
 10
6719.334805051676
 20
-234.0160717254348
 30
0.0
 11
6719.334805051676
 21
-233.0160717254348
 31
0.0
  0
LINE
  5
7245
330
54B3
100
AcDbEntity
  8
AM_5
100
AcDbLine
 10
6819.334805051676
 20
-240.0160717254346
 30
0.0
 11
6819.334805051676
 21
-241.0160717254348
 31
0.0
  0
LINE
  5
7246
330
54B3
100
AcDbEntity
  8
AM_5
100
AcDbLine
 10
6739.334805051676
 20
-237.0160717254348
 30
0.0
 11
6799.334805051675
 21
-237.0160717254348
 31
0.0
  0
LINE
  5
7247
330
54B3
100
AcDbEntity
  8
AM_5
100
AcDbLine
 10
6819.334805051676
 20
-237.0160717254348
 30
0.0
 11
6901.350553083172
 21
-237.0160717254348
 31
0.0
  0
SOLID
  5
7248
330
54B3
100
AcDbEntity
  8
AM_5
100
AcDbTrace
 10
6739.334805051676
 20
-233.6827383921015
 30
0.0
 11
6739.334805051676
 21
-240.3494050587681
 31
0.0
 12
6719.334805051676
 22
-237.0160717254348
 32
0.0
 13
6719.334805051676
 23
-237.0160717254348
 33
0.0
  0
SOLID
  5
7249
330
54B3
100
AcDbEntity
  8
AM_5
100
AcDbTrace
 10
6799.334805051675
 20
-233.6827383921015
 30
0.0
 11
6799.334805051675
 21
-240.3494050587681
 31
0.0
 12
6819.334805051676
 22
-237.0160717254348
 32
0.0
 13
6819.334805051676
 23
-237.0160717254348
 33
0.0
  0
MTEXT
  5
724A
330
54B3
100
AcDbEntity
  8
AM_5
100
AcDbMText
 10
6870.342679067424
 20
-221.0160717254348
 30
0.0
 40
20.0
 41
0.0
 71
     5
 72
     1
  1
\A2;%%c100
 73
     1
 44
1.0
1001
ACAD
1000
MTEXTBEGIN
1070
    73
1070
     1
1070
    44
1040
1.0
1070
    74
1070
     0
1000
MTEXTEND
  0
POINT
  5
724B
330
54B3
100
AcDbEntity
  8
Defpoints
 62
     0
100
AcDbPoint
 10
6719.334805051676
 20
-237.0160717254348
 30
0.0
  0
POINT
  5
724C
330
54B3
100
AcDbEntity
  8
Defpoints
 62
     0
100
AcDbPoint
 10
6819.334805051676
 20
-237.0160717254346
 30
0.0
  0
POINT
  5
724D
330
54B3
100
AcDbEntity
  8
Defpoints
 62
     0
100
AcDbPoint
 10
6819.334805051676
 20
-237.0160717254348
 30
0.0
  0
ENDBLK
  5
54BF
330
54B3
100
AcDbEntity
  8
0
100
AcDbBlockEnd
  0
BLOCK
  5
54CA
330
54C0
100
AcDbEntity
  8
0
100
AcDbBlockBegin
  2
*D23
 70
     1
 10
0.0
 20
0.0
 30
0.0
  3
*D23
  1

  0
LINE
  5
724E
330
54C0
100
AcDbEntity
  8
AM_5
100
AcDbLine
 10
6539.334805051677
 20
-148.2216614625595
 30
0.0
 11
6539.334805051677
 21
-241.0160717254346
 31
0.0
  0
LINE
  5
724F
330
54C0
100
AcDbEntity
  8
AM_5
100
AcDbLine
 10
6719.334805051676
 20
-115.8198369038866
 30
0.0
 11
6719.334805051676
 21
-241.0160717254346
 31
0.0
  0
LINE
  5
7250
330
54C0
100
AcDbEntity
  8
AM_5
100
AcDbLine
 10
6559.334805051678
 20
-237.0160717254346
 30
0.0
 11
6699.334805051676
 21
-237.0160717254346
 31
0.0
  0
SOLID
  5
7251
330
54C0
100
AcDbEntity
  8
AM_5
100
AcDbTrace
 10
6559.334805051678
 20
-233.6827383921012
 30
0.0
 11
6559.334805051678
 21
-240.3494050587679
 31
0.0
 12
6539.334805051677
 22
-237.0160717254346
 32
0.0
 13
6539.334805051677
 23
-237.0160717254346
 33
0.0
  0
SOLID
  5
7252
330
54C0
100
AcDbEntity
  8
AM_5
100
AcDbTrace
 10
6699.334805051676
 20
-233.6827383921012
 30
0.0
 11
6699.334805051676
 21
-240.3494050587679
 31
0.0
 12
6719.334805051676
 22
-237.0160717254346
 32
0.0
 13
6719.334805051676
 23
-237.0160717254346
 33
0.0
  0
MTEXT
  5
7253
330
54C0
100
AcDbEntity
  8
AM_5
100
AcDbMText
 10
6629.334805051676
 20
-221.0160717254346
 30
0.0
 40
20.0
 41
0.0
 71
     5
 72
     1
  1
\A2;180
 73
     1
 44
1.0
1001
ACAD
1000
MTEXTBEGIN
1070
    73
1070
     1
1070
    44
1040
1.0
1070
    74
1070
     0
1000
MTEXTEND
  0
POINT
  5
7254
330
54C0
100
AcDbEntity
  8
Defpoints
 62
     0
100
AcDbPoint
 10
6539.334805051677
 20
-145.2216614625595
 30
0.0
  0
POINT
  5
7255
330
54C0
100
AcDbEntity
  8
Defpoints
 62
     0
100
AcDbPoint
 10
6719.334805051676
 20
-112.8198369038866
 30
0.0
  0
POINT
  5
7256
330
54C0
100
AcDbEntity
  8
Defpoints
 62
     0
100
AcDbPoint
 10
6719.334805051676
 20
-237.0160717254346
 30
0.0
  0
ENDBLK
  5
54CB
330
54C0
100
AcDbEntity
  8
0
100
AcDbBlockEnd
  0
BLOCK
  5
54FC
330
54F2
100
AcDbEntity
  8
0
100
AcDbBlockBegin
  2
*D24
 70
     1
 10
0.0
 20
0.0
 30
0.0
  3
*D24
  1

  0
LINE
  5
7257
330
54F2
100
AcDbEntity
  8
AM_5
100
AcDbLine
 10
6414.334805051677
 20
-363.2123065469837
 30
0.0
 11
6414.334805051677
 21
-314.340887224482
 31
0.0
  0
LINE
  5
7258
330
54F2
100
AcDbEntity
  8
AM_5
100
AcDbLine
 10
6664.334805051677
 20
-364.2123065469836
 30
0.0
 11
6664.334805051677
 21
-314.340887224482
 31
0.0
  0
LINE
  5
7259
330
54F2
100
AcDbEntity
  8
AM_5
100
AcDbLine
 10
6434.334805051678
 20
-318.340887224482
 30
0.0
 11
6644.334805051677
 21
-318.340887224482
 31
0.0
  0
SOLID
  5
725A
330
54F2
100
AcDbEntity
  8
AM_5
100
AcDbTrace
 10
6434.334805051678
 20
-315.0075538911487
 30
0.0
 11
6434.334805051678
 21
-321.6742205578153
 31
0.0
 12
6414.334805051677
 22
-318.340887224482
 32
0.0
 13
6414.334805051677
 23
-318.340887224482
 33
0.0
  0
SOLID
  5
725B
330
54F2
100
AcDbEntity
  8
AM_5
100
AcDbTrace
 10
6644.334805051677
 20
-315.0075538911487
 30
0.0
 11
6644.334805051677
 21
-321.6742205578153
 31
0.0
 12
6664.334805051677
 22
-318.340887224482
 32
0.0
 13
6664.334805051677
 23
-318.340887224482
 33
0.0
  0
MTEXT
  5
725C
330
54F2
100
AcDbEntity
  8
AM_5
100
AcDbMText
 10
6539.334805051677
 20
-302.338918720545
 30
0.0
 40
20.0
 41
0.0
 71
     5
 72
     1
  1
\A2;250
 73
     1
 44
1.0
1001
ACAD
1000
MTEXTBEGIN
1070
    73
1070
     1
1070
    44
1040
1.0
1070
    74
1070
     0
1000
MTEXTEND
  0
POINT
  5
725D
330
54F2
100
AcDbEntity
  8
Defpoints
 62
     0
100
AcDbPoint
 10
6414.334805051677
 20
-366.2123065469836
 30
0.0
  0
POINT
  5
725E
330
54F2
100
AcDbEntity
  8
Defpoints
 62
     0
100
AcDbPoint
 10
6664.334805051677
 20
-367.2123065469837
 30
0.0
  0
POINT
  5
725F
330
54F2
100
AcDbEntity
  8
Defpoints
 62
     0
100
AcDbPoint
 10
6664.334805051677
 20
-318.340887224482
 30
0.0
  0
ENDBLK
  5
54FD
330
54F2
100
AcDbEntity
  8
0
100
AcDbBlockEnd
  0
BLOCK
  5
7514
330
750A
100
AcDbEntity
  8
0
100
AcDbBlockBegin
  2
*D25
 70
     1
 10
0.0
 20
0.0
 30
0.0
  3
*D25
  1

  0
LINE
  5
7581
330
750A
100
AcDbEntity
  8
AM_5
100
AcDbLine
 10
5825.4449328619
 20
-15.81983690388642
 30
0.0
 11
5825.4449328619
 21
-54.75418088210972
 31
0.0
  0
LINE
  5
7582
330
750A
100
AcDbEntity
  8
AM_5
100
AcDbLine
 10
6015.4449328619
 20
-15.81983690388642
 30
0.0
 11
6015.4449328619
 21
-54.75418088210972
 31
0.0
  0
LINE
  5
7583
330
750A
100
AcDbEntity
  8
AM_5
100
AcDbLine
 10
5845.444932861901
 20
-50.75418088210972
 30
0.0
 11
5995.4449328619
 21
-50.75418088210972
 31
0.0
  0
SOLID
  5
7584
330
750A
100
AcDbEntity
  8
AM_5
100
AcDbTrace
 10
5845.444932861901
 20
-47.42084754877638
 30
0.0
 11
5845.444932861901
 21
-54.08751421544305
 31
0.0
 12
5825.4449328619
 22
-50.75418088210972
 32
0.0
 13
5825.4449328619
 23
-50.75418088210972
 33
0.0
  0
SOLID
  5
7585
330
750A
100
AcDbEntity
  8
AM_5
100
AcDbTrace
 10
5995.4449328619
 20
-47.42084754877638
 30
0.0
 11
5995.4449328619
 21
-54.08751421544305
 31
0.0
 12
6015.4449328619
 22
-50.75418088210972
 32
0.0
 13
6015.4449328619
 23
-50.75418088210972
 33
0.0
  0
MTEXT
  5
7586
330
750A
100
AcDbEntity
  8
AM_5
100
AcDbMText
 10
5970.444281099675
 20
-34.75418088210972
 30
0.0
 40
20.0
 41
0.0
 71
     5
 72
     1
  1
\A2;190
 73
     1
 44
1.0
1001
ACAD
1000
MTEXTBEGIN
1070
    73
1070
     1
1070
    44
1040
1.0
1070
    74
1070
     0
1000
MTEXTEND
  0
POINT
  5
7587
330
750A
100
AcDbEntity
  8
Defpoints
 62
     0
100
AcDbPoint
 10
5825.4449328619
 20
-12.81983690388642
 30
0.0
  0
POINT
  5
7588
330
750A
100
AcDbEntity
  8
Defpoints
 62
     0
100
AcDbPoint
 10
6015.4449328619
 20
-12.81983690388642
 30
0.0
  0
POINT
  5
7589
330
750A
100
AcDbEntity
  8
Defpoints
 62
     0
100
AcDbPoint
 10
6015.4449328619
 20
-50.75418088210972
 30
0.0
  0
ENDBLK
  5
7515
330
750A
100
AcDbEntity
  8
0
100
AcDbBlockEnd
  0
BLOCK
  5
786D
330
7868
100
AcDbEntity
  8
0
100
AcDbBlockBegin
  2
*S27
 70
     1
 10
0.0
 20
0.0
 30
0.0
  3
*S27
  1

  0
LINE
  5
7869
330
7868
100
AcDbEntity
  8
AM_5
 62
     5
100
AcDbLine
 10
6089.390239215252
 20
753.047495184759
 30
0.0
 11
6014.351048001823
 21
753.047495184759
 31
0.0
  0
LINE
  5
786A
330
7868
100
AcDbEntity
  8
AM_5
 62
     5
100
AcDbLine
 10
6014.351048001823
 20
753.047495184759
 30
0.0
 11
5992.993854235861
 21
731.588500152784
 31
0.0
  0
TRACE
  5
786B
330
7868
100
AcDbEntity
  8
AM_5
 62
     5
370
    35
100
AcDbTrace
 10
5991.034271800342
 20
733.5387863480789
 30
0.0
 11
5994.95343667138
 21
729.6382139574891
 31
0.0
 12
5978.179959780864
 22
716.7039937425534
 32
0.0
 13
5978.179959780864
 23
716.7039937425534
 33
0.0
  0
MTEXT
  5
786C
330
7868
100
AcDbEntity
  8
AM_5
 62
     2
100
AcDbMText
 10
6089.390239215252
 20
748.4025301804222
 30
0.0
 40
21.0
 41
0.0
 71
     7
 72
     5
  1

  7
ACISOTS
 73
     1
 44
1.0
1001
ACAD
1000
MTEXTBEGIN
1070
    73
1070
     1
1070
    44
1040
1.0
1070
    74
1070
     0
1000
MTEXTEND
  0
ENDBLK
  5
786E
330
7868
100
AcDbEntity
  8
0
100
AcDbBlockEnd
  0
BLOCK
  5
7875
330
7870
100
AcDbEntity
  8
0
100
AcDbBlockBegin
  2
*S28
 70
     1
 10
0.0
 20
0.0
 30
0.0
  3
*S28
  1

  0
LINE
  5
7871
330
7870
100
AcDbEntity
  8
AM_5
 62
     5
100
AcDbLine
 10
6154.41009578449
 20
-520.1925137040396
 30
0.0
 11
6079.37090457106
 21
-520.1925137040396
 31
0.0
  0
LINE
  5
7872
330
7870
100
AcDbEntity
  8
AM_5
 62
     5
100
AcDbLine
 10
6079.37090457106
 20
-520.1925137040396
 30
0.0
 11
6043.852511868834
 21
-477.3751288615673
 31
0.0
  0
TRACE
  5
7873
330
7870
100
AcDbEntity
  8
AM_5
 62
     5
370
    35
100
AcDbTrace
 10
6045.980387785117
 20
-475.6099876065797
 30
0.0
 11
6041.724635952553
 21
-479.1402701165548
 31
0.0
 12
6030.444932861901
 22
-461.2123065469825
 32
0.0
 13
6030.444932861901
 23
-461.2123065469825
 33
0.0
  0
MTEXT
  5
7874
330
7870
100
AcDbEntity
  8
AM_5
 62
     2
100
AcDbMText
 10
6154.41009578449
 20
-524.837478708376
 30
0.0
 40
21.0
 41
0.0
 71
     7
 72
     5
  1

  7
ACISOTS
 73
     1
 44
1.0
1001
ACAD
1000
MTEXTBEGIN
1070
    73
1070
     1
1070
    44
1040
1.0
1070
    74
1070
     0
1000
MTEXTEND
  0
ENDBLK
  5
7876
330
7870
100
AcDbEntity
  8
0
100
AcDbBlockEnd
  0
ENDSEC
  0
SECTION
  2
ENTITIES
  0
LINE
  5
4DB9
330
1F
100
AcDbEntity
  8
圖層1輪廓線
100
AcDbLine
 10
5795.444932861901
 20
-461.2123065469827
 30
0.0
 11
5795.444932861901
 21
-366.2123065469828
 31
0.0
  0
LINE
  5
4DBA
330
1F
100
AcDbEntity
  8
圖層1輪廓線
100
AcDbLine
 10
6045.444932861901
 20
-366.2123065469828
 30
0.0
 11
6045.444932861901
 21
-461.2123065469827
 31
0.0
  0
LINE
  5
4DBB
330
1F
100
AcDbEntity
  8
圖層1輪廓線
100
AcDbLine
 10
6045.444932861901
 20
-446.2123065469829
 30
0.0
 11
5795.444932861901
 21
-446.2123065469829
 31
0.0
  0
LINE
  5
4DBC
330
1F
100
AcDbEntity
  8
圖層1輪廓線
100
AcDbLine
 10
6045.444932861901
 20
-461.2123065469827
 30
0.0
 11
5795.444932861901
 21
-461.2123065469827
 31
0.0
  0
LINE
  5
4DBD
330
1F
100
AcDbEntity
  8
圖層2中心線
 62
     1
 48
0.2
100
AcDbLine
 10
5810.444932861901
 20
-477.3297745211896
 30
0.0
 11
5810.444932861901
 21
-433.111790340296
 31
0.0
  0
LINE
  5
4DBE
330
1F
100
AcDbEntity
  8
圖層3虛線
100
AcDbLine
 10
5816.444932861902
 20
-461.2123065469825
 30
0.0
 11
5816.444932861902
 21
-446.2123065469829
 31
0.0
  0
LINE
  5
4DBF
330
1F
100
AcDbEntity
  8
圖層3虛線
100
AcDbLine
 10
5804.444932861901
 20
-461.2123065469827
 30
0.0
 11
5804.444932861901
 21
-446.2123065469829
 31
0.0
  0
LINE
  5
4DC0
330
1F
100
AcDbEntity
  8
圖層2中心線
 62
     1
 48
0.2
100
AcDbLine
 10
6030.444932861901
 20
-433.9306418593569
 30
0.0
 11
6030.444932861901
 21
-478.9674775593107
 31
0.0
  0
LINE
  5
4DC1
330
1F
100
AcDbEntity
  8
圖層3虛線
100
AcDbLine
 10
6024.444932861901
 20
-446.2123065469829
 30
0.0
 11
6024.444932861901
 21
-461.2123065469827
 31
0.0
  0
LINE
  5
4DC2
330
1F
100
AcDbEntity
  8
圖層3虛線
100
AcDbLine
 10
6036.4449328619
 20
-446.2123065469827
 30
0.0
 11
6036.4449328619
 21
-461.2123065469825
 31
0.0
  0
LINE
  5
4DC3
330
1F
100
AcDbEntity
  8
圖層1輪廓線
100
AcDbLine
 10
5800.444932861901
 20
-361.2123065469827
 30
0.0
 11
6040.444932861902
 21
-361.2123065469827
 31
0.0
  0
ARC
  5
4DC4
330
1F
100
AcDbEntity
  8
圖層1輪廓線
100
AcDbCircle
 10
5800.444932861901
 20
-366.2123065469828
 30
0.0
 40
5.0
100
AcDbArc
 50
90.0
 51
180.0
  0
ARC
  5
4DC5
330
1F
100
AcDbEntity
  8
圖層1輪廓線
100
AcDbCircle
 10
6040.444932861902
 20
-366.2123065469828
 30
0.0
 40
5.0
100
AcDbArc
 50
0.0
 51
90.0
  0
LINE
  5
4DC6
330
1F
100
AcDbEntity
  8
圖層1輪廓線
  6
Continuous
 62
     7
370
    50
100
AcDbLine
 10
6531.834805051677
 20
-361.2123065469827
 30
0.0
 11
6419.334805051677
 21
-361.2123065469827
 31
0.0
  0
LINE
  5
4DC7
330
1F
100
AcDbEntity
  8
圖層1輪廓線
  6
Continuous
 62
     7
370
    50
100
AcDbLine
 10
6379.334805051678
 20
-461.2123065469827
 30
0.0
 11
6859.334805051678
 21
-461.2123065469827
 31
0.0
  0
LINE
  5
4DC8
330
1F
100
AcDbEntity
  8
圖層1輪廓線
  6
Continuous
 62
     7
370
    50
100
AcDbLine
 10
6414.334805051677
 20
-366.2123065469828
 30
0.0
 11
6414.334805051677
 21
-441.2123065469829
 31
0.0
  0
LINE
  5
4DC9
330
1F
100
AcDbEntity
  8
圖層1輪廓線
  6
Continuous
 62
     7
370
    50
100
AcDbLine
 10
6384.334805051678
 20
-446.2123065469827
 30
0.0
 11
6409.334805051678
 21
-446.2123065469829
 31
0.0
  0
LINE
  5
4DCA
330
1F
100
AcDbEntity
  8
圖層3虛線
100
AcDbLine
 10
6388.334805051678
 20
-446.2123065469825
 30
0.0
 11
6388.334805051678
 21
-461.2123065469827
 31
0.0
  0
LINE
  5
4DCB
330
1F
100
AcDbEntity
  8
圖層1輪廓線
  6
Continuous
 62
     7
370
    50
100
AcDbLine
 10
6379.334805051678
 20
-451.2123065469827
 30
0.0
 11
6379.334805051678
 21
-461.2123065469827
 31
0.0
  0
LINE
  5
4DCC
330
1F
100
AcDbEntity
  8
圖層2中心線
 62
     1
 48
0.2
100
AcDbLine
 10
6394.334805051678
 20
-422.7918953639504
 30
0.0
 11
6394.334805051678
 21
-482.1029610701639
 31
0.0
  0
ARC
  5
4DCD
330
1F
100
AcDbEntity
  8
圖層1輪廓線
  6
Continuous
 62
     7
370
    50
100
AcDbCircle
 10
6384.334805051678
 20
-451.2123065469825
 30
0.0
 40
5.0
100
AcDbArc
 50
90.0
 51
180.0
  0
LINE
  5
4DCE
330
1F
100
AcDbEntity
  8
圖層3虛線
100
AcDbLine
 10
6400.334805051677
 20
-446.2123065469827
 30
0.0
 11
6400.334805051677
 21
-461.2123065469827
 31
0.0
  0
ARC
  5
4DCF
330
1F
100
AcDbEntity
  8
圖層1輪廓線
  6
Continuous
 62
     7
370
    50
100
AcDbCircle
 10
6409.334805051678
 20
-441.2123065469829
 30
0.0
 40
5.0
100
AcDbArc
 50
270.0
 51
0.0
  0
ARC
  5
4DD0
330
1F
100
AcDbEntity
  8
圖層1輪廓線
  6
Continuous
 62
     7
370
    50
100
AcDbCircle
 10
6419.334805051677
 20
-366.2123065469828
 30
0.0
 40
5.0
100
AcDbArc
 50
90.0
 51
180.0
  0
LINE
  5
4DD1
330
1F
100
AcDbEntity
  8
圖層1輪廓線
  6
Continuous
 62
     7
370
    50
100
AcDbLine
 10
6859.334805051678
 20
-361.2123065469827
 30
0.0
 11
6699.334805051678
 21
-361.2123065469827
 31
0.0
  0
LINE
  5
4DD2
330
1F
100
AcDbEntity
  8
圖層2中心線
 62
     1
 48
0.5
100
AcDbLine
 10
6769.334805051677
 20
76.99520874689051
 30
0.0
 11
6769.334805051677
 21
-474.9345502026426
 31
0.0
  0
LINE
  5
4DD3
330
1F
100
AcDbEntity
  8
圖層1輪廓線
  6
Continuous
 62
     7
370
    50
100
AcDbLine
 10
6664.334805051677
 20
-366.212306546983
 30
0.0
 11
6664.334805051677
 21
-441.2123065469827
 31
0.0
  0
LINE
  5
4DD4
330
1F
100
AcDbEntity
  8
圖層2中心線
 62
     1
 48
0.5
100
AcDbLine
 10
6539.334805051677
 20
-341.9131698273691
 30
0.0
 11
6539.334805051677
 21
-478.5083487530323
 31
0.0
  0
ARC
  5
4DD5
330
1F
100
AcDbEntity
  8
圖層1輪廓線
  6
Continuous
 62
     7
370
    50
100
AcDbCircle
 10
6694.334805051678
 20
-451.2123065469827
 30
0.0
 40
5.0
100
AcDbArc
 50
0.0
 51
90.0
  0
LINE
  5
4DD6
330
1F
100
AcDbEntity
  8
圖層3虛線
100
AcDbLine
 10
6690.334805051678
 20
-446.2123065469827
 30
0.0
 11
6690.334805051678
 21
-461.2123065469827
 31
0.0
  0
LINE
  5
4DD7
330
1F
100
AcDbEntity
  8
圖層3虛線
100
AcDbLine
 10
6678.334805051678
 20
-446.2123065469827
 30
0.0
 11
6678.334805051678
 21
-461.2123065469827
 31
0.0
  0
LINE
  5
4DD8
330
1F
100
AcDbEntity
  8
圖層2中心線
 62
     1
 48
0.2
100
AcDbLine
 10
6684.334805051678
 20
-429.5543339069272
 30
0.0
 11
6684.334805051678
 21
-483.8808404057285
 31
0.0
  0
LINE
  5
4DD9
330
1F
100
AcDbEntity
  8
圖層1輪廓線
  6
Continuous
 62
     7
370
    50
100
AcDbLine
 10
6669.334805051677
 20
-446.2123065469827
 30
0.0
 11
6694.334805051678
 21
-446.2123065469827
 31
0.0
  0
ARC
  5
4DDA
330
1F
100
AcDbEntity
  8
圖層1輪廓線
  6
Continuous
 62
     7
370
    50
100
AcDbCircle
 10
6669.334805051677
 20
-441.2123065469827
 30
0.0
 40
5.0
100
AcDbArc
 50
180.0
 51
270.0
  0
LINE
  5
4DDB
330
1F
100
AcDbEntity
  8
圖層1輪廓線
  6
Continuous
 62
     7
370
    50
100
AcDbLine
 10
6699.334805051678
 20
-451.2123065469827
 30
0.0
 11
6699.334805051678
 21
-461.2123065469827
 31
0.0
  0
LINE
  5
4DDC
330
1F
100
AcDbEntity
  8
圖層1輪廓線
  6
Continuous
 62
     7
370
    50
100
AcDbLine
 10
6659.334805051678
 20
-361.212306546983
 30
0.0
 11
6546.834805051678
 21
-361.2123065469827
 31
0.0
  0
LINE
  5
4DDD
330
1F
100
AcDbEntity
  8
圖層1輪廓線
  6
Continuous
 62
     7
370
    50
100
AcDbLine
 10
6546.834805051678
 20
-372.2123065469828
 30
0.0
 11
6551.834805051678
 21
-372.2123065469828
 31
0.0
  0
LINE
  5
4DDE
330
1F
100
AcDbEntity
  8
圖層1輪廓線
  6
Continuous
 62
     7
370
    50
100
AcDbLine
 10
6551.834805051678
 20
-382.2123065469828
 30
0.0
 11
6526.834805051677
 21
-382.2123065469828
 31
0.0
  0
LINE
  5
4DDF
330
1F
100
AcDbEntity
  8
圖層1輪廓線
  6
Continuous
 62
     7
370
    50
100
AcDbLine
 10
6526.834805051677
 20
-372.2123065469828
 30
0.0
 11
6531.834805051677
 21
-372.2123065469828
 31
0.0
  0
LINE
  5
4DE0
330
1F
100
AcDbEntity
  8
圖層1輪廓線
  6
Continuous
 62
     7
370
    50
100
AcDbLine
 10
6526.834805051677
 20
-382.2123065469828
 30
0.0
 11
6526.834805051677
 21
-372.2123065469828
 31
0.0
  0
LINE
  5
4DE1
330
1F
100
AcDbEntity
  8
圖層1輪廓線
  6
Continuous
 62
     7
370
    50
100
AcDbLine
 10
6546.834805051678
 20
-361.2123065469827
 30
0.0
 11
6546.834805051678
 21
-372.2123065469828
 31
0.0
  0
LINE
  5
4DE2
330
1F
100
AcDbEntity
  8
圖層1輪廓線
  6
Continuous
 62
     7
370
    50
100
AcDbLine
 10
6531.834805051677
 20
-372.2123065469828
 30
0.0
 11
6531.834805051677
 21
-361.2123065469827
 31
0.0
  0
LINE
  5
4DE3
330
1F
100
AcDbEntity
  8
圖層1輪廓線
  6
Continuous
 62
     7
370
    50
100
AcDbLine
 10
6551.834805051678
 20
-372.2123065469828
 30
0.0
 11
6551.834805051678
 21
-382.2123065469828
 31
0.0
  0
LINE
  5
4DE4
330
1F
100
AcDbEntity
  8
圖層1輪廓線
  6
Continuous
 62
     7
370
    50
100
AcDbLine
 10
6699.334805051678
 20
-367.2123065469827
 30
0.0
 11
6664.334805051677
 21
-367.2123065469827
 31
0.0
  0
ARC
  5
4DE5
330
1F
100
AcDbEntity
  8
圖層1輪廓線
  6
Continuous
 62
     7
370
    50
100
AcDbCircle
 10
6659.334805051678
 20
-366.2123065469828
 30
0.0
 40
5.0
100
AcDbArc
 50
0.0
 51
90.0
  0
LINE
  5
4DE6
330
1F
100
AcDbEntity
  8
圖層1輪廓線
  6
Continuous
 62
     7
370
    50
100
AcDbLine
 10
6748.714438871264
 20
-361.2123065469827
 30
0.0
 11
6699.334805051678
 21
-367.2123065469827
 31
0.0
  0
LINE
  5
4DE7
330
1F
100
AcDbEntity
  8
圖層1輪廓線
  6
Continuous
 62
     7
370
    50
100
AcDbLine
 10
6699.334805051678
 20
-361.2123065469827
 30
0.0
 11
6699.334805051678
 21
-367.2123065469827
 31
0.0
  0
LINE
  5
4DE8
330
1F
100
AcDbEntity
  8
圖層1輪廓線
  6
Continuous
 62
     7
370
    50
100
AcDbLine
 10
6835.951244464183
 20
-361.2123065469827
 30
0.0
 11
6835.951244464183
 21
-461.2123065469827
 31
0.0
  0
LINE
  5
4DE9
330
1F
100
AcDbEntity
  8
圖層1輪廓線
  6
Continuous
 62
     7
370
    50
100
AcDbLine
 10
6859.334805051678
 20
-461.2123065469827
 30
0.0
 11
6859.334805051678
 21
-361.2123065469827
 31
0.0
  0
CIRCLE
  5
4DEA
330
1F
100
AcDbEntity
  8
圖層1輪廓線
100
AcDbCircle
 10
6847.334805051677
 20
-446.2123065469827
 30
0.0
 40
5.0
  0
CIRCLE
  5
4DEB
330
1F
100
AcDbEntity
  8
圖層1輪廓線
100
AcDbCircle
 10
6847.334805051677
 20
-446.2123065469827
 30
0.0
 40
7.0
  0
CIRCLE
  5
4DEC
330
1F
100
AcDbEntity
  8
圖層1輪廓線
100
AcDbCircle
 10
6847.334805051677
 20
-376.2123065469828
 30
0.0
 40
5.0
  0
CIRCLE
  5
4DED
330
1F
100
AcDbEntity
  8
圖層1輪廓線
100
AcDbCircle
 10
6847.334805051677
 20
-376.2123065469828
 30
0.0
 40
7.0
  0
LINE
  5
4DEE
330
1F
100
AcDbEntity
  8
圖層1輪廓線
100
AcDbLine
 10
6842.334805051677
 20
-449.0990578929308
 30
0.0
 11
6847.334805051677
 21
-451.985809238879
 31
0.0
  0
LINE
  5
4DEF
330
1F
100
AcDbEntity
  8
圖層1輪廓線
100
AcDbLine
 10
6847.334805051677
 20
-451.985809238879
 30
0.0
 11
6852.334805051679
 21
-449.0990578929311
 31
0.0
  0
LINE
  5
4DF0
330
1F
100
AcDbEntity
  8
圖層1輪廓線
100
AcDbLine
 10
6852.334805051679
 20
-449.0990578929311
 30
0.0
 11
6852.334805051679
 21
-443.3255552010348
 31
0.0
  0
LINE
  5
4DF1
330
1F
100
AcDbEntity
  8
圖層1輪廓線
100
AcDbLine
 10
6852.334805051679
 20
-443.3255552010348
 30
0.0
 11
6847.334805051677
 21
-440.4388038550864
 31
0.0
  0
LINE
  5
4DF2
330
1F
100
AcDbEntity
  8
圖層1輪廓線
100
AcDbLine
 10
6847.334805051677
 20
-440.4388038550864
 30
0.0
 11
6842.334805051677
 21
-443.3255552010345
 31
0.0
  0
LINE
  5
4DF3
330
1F
100
AcDbEntity
  8
圖層1輪廓線
100
AcDbLine
 10
6842.334805051677
 20
-443.3255552010345
 30
0.0
 11
6842.334805051677
 21
-449.0990578929308
 31
0.0
  0
LINE
  5
4DF4
330
1F
100
AcDbEntity
  8
圖層1輪廓線
100
AcDbLine
 10
6842.334805051677
 20
-379.0990578929309
 30
0.0
 11
6847.334805051677
 21
-381.985809238879
 31
0.0
  0
LINE
  5
4DF5
330
1F
100
AcDbEntity
  8
圖層1輪廓線
100
AcDbLine
 10
6847.334805051677
 20
-381.985809238879
 30
0.0
 11
6852.334805051679
 21
-379.0990578929309
 31
0.0
  0
LINE
  5
4DF6
330
1F
100
AcDbEntity
  8
圖層1輪廓線
100
AcDbLine
 10
6852.334805051679
 20
-379.0990578929309
 30
0.0
 11
6852.334805051679
 21
-373.3255552010346
 31
0.0
  0
LINE
  5
4DF7
330
1F
100
AcDbEntity
  8
圖層1輪廓線
100
AcDbLine
 10
6852.334805051679
 20
-373.3255552010346
 30
0.0
 11
6847.334805051677
 21
-370.4388038550864
 31
0.0
  0
LINE
  5
4DF8
330
1F
100
AcDbEntity
  8
圖層1輪廓線
100
AcDbLine
 10
6847.334805051677
 20
-370.4388038550864
 30
0.0
 11
6842.334805051677
 21
-373.3255552010346
 31
0.0
  0
LINE
  5
4DF9
330
1F
100
AcDbEntity
  8
圖層1輪廓線
100
AcDbLine
 10
6842.334805051677
 20
-373.3255552010346
 30
0.0
 11
6842.334805051677
 21
-379.0990578929309
 31
0.0
  0
LINE
  5
4DFA
330
1F
100
AcDbEntity
  8
圖層1輪廓線
100
AcDbLine
 10
6819.334805051678
 20
-361.2123065469827
 30
0.0
 11
6819.334805051678
 21
-112.8198369038862
 31
0.0
  0
LINE
  5
4DFB
330
1F
100
AcDbEntity
  8
圖層1輪廓線
100
AcDbLine
 10
6719.334805051677
 20
36.78769345301726
 30
0.0
 11
6719.334805051677
 21
-12.81983690388642
 31
0.0
  0
LINE
  5
4DFC
330
1F
100
AcDbEntity
  8
圖層1輪廓線
100
AcDbLine
 10
6721.334805051679
 20
-461.2123065469827
 30
0.0
 11
6817.334805051678
 21
-461.2123065469827
 31
0.0
  0
LINE
  5
4DFD
330
1F
100
AcDbEntity
  8
圖層1輪廓線
100
AcDbLine
 10
6817.334805051678
 20
38.78769345301726
 30
0.0
 11
6721.334805051679
 21
38.78769345301726
 31
0.0
  0
LINE
  5
4DFE
330
1F
100
AcDbEntity
  8
圖層1輪廓線
100
AcDbLine
 10
6819.334805051678
 20
36.78769345301726
 30
0.0
 11
6719.334805051677
 21
36.78769345301726
 31
0.0
  0
LINE
  5
4DFF
330
1F
100
AcDbEntity
  8
圖層1輪廓線
100
AcDbLine
 10
6719.334805051677
 20
36.78769345301726
 30
0.0
 11
6721.334805051679
 21
38.78769345301726
 31
0.0
  0
LINE
  5
4E00
330
1F
100
AcDbEntity
  8
圖層1輪廓線
100
AcDbLine
 10
6817.334805051678
 20
38.78769345301726
 30
0.0
 11
6819.334805051678
 21
36.78769345301726
 31
0.0
  0
LINE
  5
4E01
330
1F
100
AcDbEntity
  8
圖層1輪廓線
100
AcDbLine
 10
5970.444932861902
 20
-361.2123065469827
 30
0.0
 11
5970.444932861902
 21
-112.8198369038864
 31
0.0
  0
LINE
  5
4E02
330
1F
100
AcDbEntity
  8
圖層1輪廓線
100
AcDbLine
 10
5872.444932861902
 20
-461.2123065469827
 30
0.0
 11
5968.444932861901
 21
-461.2123065469827
 31
0.0
  0
LINE
  5
4E03
330
1F
100
AcDbEntity
  8
圖層1輪廓線
100
AcDbLine
 10
6015.444932861901
 20
-12.8198369038862
 30
0.0
 11
6015.444932861901
 21
-112.8198369038864
 31
0.0
  0
LINE
  5
4E04
330
1F
100
AcDbEntity
  8
圖層1輪廓線
100
AcDbLine
 10
5825.444932861901
 20
-112.8198369038864
 30
0.0
 11
5825.444932861901
 21
-12.8198369038862
 31
0.0
  0
LINE
  5
4E05
330
1F
100
AcDbEntity
  8
圖層1輪廓線
100
AcDbLine
 10
6015.444932861901
 20
-112.8198369038864
 30
0.0
 11
5970.444932861902
 21
-112.8198369038864
 31
0.0
  0
LINE
  5
4E06
330
1F
100
AcDbEntity
  8
圖層1輪廓線
100
AcDbLine
 10
5845.444932861902
 20
-112.8198369038864
 30
0.0
 11
5845.444932861902
 21
-92.81983690388642
 31
0.0
  0
LINE
  5
4E07
330
1F
100
AcDbEntity
  8
圖層1輪廓線
100
AcDbLine
 10
5995.444932861901
 20
-92.81983690388642
 30
0.0
 11
5995.444932861901
 21
-112.8198369038864
 31
0.0
  0
LINE
  5
4E08
330
1F
100
AcDbEntity
  8
圖層1輪廓線
100
AcDbLine
 10
5825.444932861901
 20
-12.8198369038862
 30
0.0
 11
6015.444932861901
 21
-12.8198369038862
 31
0.0
  0
LINE
  5
4E09
330
1F
100
AcDbEntity
  8
圖層1輪廓線
  6
Continuous
370
    50
100
AcDbLine
 10
6569.334805051678
 20
-112.8198369038859
 30
0.0
 11
6859.334805051678
 21
-112.8198369038864
 31
0.0
  0
LINE
  5
4E0A
330
1F
100
AcDbEntity
  8
圖層1輪廓線
  6
Continuous
370
    50
100
AcDbLine
 10
6859.334805051678
 20
-12.81983690388642
 30
0.0
 11
6444.334805051678
 21
-12.8198369038862
 31
0.0
  0
LINE
  5
4E0B
330
1F
100
AcDbEntity
  8
圖層1輪廓線
  6
Continuous
370
    50
100
AcDbLine
 10
6444.334805051678
 20
-12.8198369038862
 30
0.0
 11
6444.334805051678
 21
-92.81983690388598
 31
0.0
  0
LINE
  5
4E0C
330
1F
100
AcDbEntity
  8
圖層1輪廓線
  6
Continuous
370
    50
100
AcDbLine
 10
6444.334805051678
 20
-92.81983690388619
 30
0.0
 11
6539.334805051677
 21
-92.81983690388598
 31
0.0
  0
LINE
  5
4E0D
330
1F
100
AcDbEntity
  8
圖層1輪廓線
100
AcDbLine
 10
6569.334805051678
 20
-112.8198369038862
 30
0.0
 11
6539.334805051677
 21
-92.81983690388619
 31
0.0
  0
LINE
  5
4E0E
330
1F
100
AcDbEntity
  8
圖層1輪廓線
  6
Continuous
370
    50
100
AcDbLine
 10
6859.334805051678
 20
-112.8198369038864
 30
0.0
 11
6859.334805051678
 21
-12.81983690388642
 31
0.0
  0
LINE
  5
4E0F
330
1F
100
AcDbEntity
  8
圖層1輪廓線
  6
Continuous
370
    50
100
AcDbLine
 10
6835.951244464183
 20
-12.81983690388642
 30
0.0
 11
6835.951244464183
 21
-112.8198369038864
 31
0.0
  0
LWPOLYLINE
  5
4E10
330
1F
100
AcDbEntity
  8
圖層1輪廓線
100
AcDbPolyline
 90
        6
 70
     1
 43
0.0
 10
6842.334805051677
 20
-100.7065882498345
 10
6847.334805051677
 20
-103.5933395957827
 10
6852.334805051679
 20
-100.7065882498345
 10
6852.334805051679
 20
-94.93308555793829
 10
6847.334805051677
 20
-92.04633421199014
 10
6842.334805051677
 20
-94.93308555793829
  0
CIRCLE
  5
4E11
330
1F
100
AcDbEntity
  8
圖層1輪廓線
100
AcDbCircle
 10
6847.334805051677
 20
-97.81983690388642
 30
0.0
 40
7.0
  0
CIRCLE
  5
4E12
330
1F
100
AcDbEntity
  8
圖層1輪廓線
100
AcDbCircle
 10
6847.334805051677
 20
-97.81983690388642
 30
0.0
 40
5.0
  0
CIRCLE
  5
4E13
330
1F
100
AcDbEntity
  8
圖層1輪廓線
100
AcDbCircle
 10
6847.334805051677
 20
-27.81983690388643
 30
0.0
 40
7.0
  0
CIRCLE
  5
4E14
330
1F
100
AcDbEntity
  8
圖層1輪廓線
100
AcDbCircle
 10
6847.334805051677
 20
-62.81983690388642
 30
0.0
 40
7.0
  0
LWPOLYLINE
  5
4E15
330
1F
100
AcDbEntity
  8
圖層1輪廓線
100
AcDbPolyline
 90
        6
 70
     1
 43
0.0
 10
6842.334805051677
 20
-65.70658824983457
 10
6847.334805051677
 20
-68.59333959578271
 10
6852.334805051679
 20
-65.70658824983457
 10
6852.334805051679
 20
-59.93308555793828
 10
6847.334805051677
 20
-57.04633421199014
 10
6842.334805051677
 20
-59.93308555793828
  0
CIRCLE
  5
4E16
330
1F
100
AcDbEntity
  8
圖層1輪廓線
100
AcDbCircle
 10
6847.334805051677
 20
-62.81983690388642
 30
0.0
 40
5.0
  0
LWPOLYLINE
  5
4E17
330
1F
100
AcDbEntity
  8
圖層1輪廓線
100
AcDbPolyline
 90
        6
 70
     1
 43
0.0
 10
6842.334805051677
 20
-30.70658824983457
 10
6847.334805051677
 20
-33.59333959578248
 10
6852.334805051679
 20
-30.70658824983457
 10
6852.334805051679
 20
-24.93308555793829
 10
6847.334805051677
 20
-22.04633421199014
 10
6842.334805051677
 20
-24.93308555793829
  0
CIRCLE
  5
4E18
330
1F
100
AcDbEntity
  8
圖層1輪廓線
100
AcDbCircle
 10
6847.334805051677
 20
-27.81983690388643
 30
0.0
 40
5.0
  0
LINE
  5
4E19
330
1F
100
AcDbEntity
  8
圖層1輪廓線
100
AcDbLine
 10
5870.444932861901
 20
-112.8198369038864
 30
0.0
 11
5870.444932861901
 21
-361.2123065469827
 31
0.0
  0
LINE
  5
4E1A
330
1F
100
AcDbEntity
  8
圖層1輪廓線
100
AcDbLine
 10
6719.334805051677
 20
-112.8198369038862
 30
0.0
 11
6719.334805051677
 21
-361.2123065469827
 31
0.0
  0
LINE
  5
4E1B
330
1F
100
AcDbEntity
  8
圖層1輪廓線
100
AcDbLine
 10
6819.334805051678
 20
-12.81983690388642
 30
0.0
 11
6819.334805051678
 21
36.78769345301726
 31
0.0
  0
LINE
  5
4E1C
330
1F
100
AcDbEntity
  8
圖層1輪廓線
100
AcDbLine
 10
5995.444932861901
 20
-12.8198369038862
 30
0.0
 11
5845.444932861902
 21
-12.8198369038862
 31
0.0
  0
LINE
  5
4E1D
330
1F
100
AcDbEntity
  8
圖層1輪廓線
100
AcDbLine
 10
5845.444932861902
 20
-12.8198369038862
 30
0.0
 11
5995.444932861901
 21
-12.8198369038862
 31
0.0
  0
LINE
  5
4E1E
330
1F
100
AcDbEntity
  8
圖層1輪廓線
100
AcDbLine
 10
6539.334805051677
 20
-102.2988881070916
 30
0.0
 11
6539.334805051679
 21
-88.81983690387864
 31
0.0
  0
LINE
  5
4E1F
330
1F
100
AcDbEntity
  8
圖層1輪廓線
100
AcDbLine
 10
6464.334805051677
 20
-12.8198369038862
 30
0.0
 11
6614.334805051678
 21
-12.8198369038862
 31
0.0
  0
LINE
  5
4E20
330
1F
100
AcDbEntity
  8
圖層1輪廓線
100
AcDbLine
 10
6614.334805051678
 20
-12.8198369038862
 30
0.0
 11
6464.334805051677
 21
-12.8198369038862
 31
0.0
  0
LINE
  5
4E21
330
1F
100
AcDbEntity
  8
圖層1輪廓線
100
AcDbLine
 10
6564.334805051678
 20
-132.8198369038786
 30
0.0
 11
6564.334805051679
 21
-109.4865035705451
 31
0.0
  0
LINE
  5
4E22
330
1F
100
AcDbEntity
  8
圖層1輪廓線
100
AcDbLine
 10
6514.334805051678
 20
-132.8198369038786
 30
0.0
 11
6514.334805051678
 21
-92.81983690387846
 31
0.0
  0
LINE
  5
4E23
330
1F
100
AcDbEntity
  8
圖層1輪廓線
100
AcDbLine
 10
6539.334805051677
 20
-124.8198369038782
 30
0.0
 11
6539.334805051677
 21
-88.81983690387864
 31
0.0
  0
LINE
  5
4E24
330
1F
100
AcDbEntity
  8
圖層1輪廓線
100
AcDbLine
 10
5934.878689591641
 20
-128.8198369038866
 30
0.0
 11
5934.878689591641
 21
-92.81983690388642
 31
0.0
  0
LINE
  5
4E25
330
1F
100
AcDbEntity
  8
圖層1輪廓線
100
AcDbLine
 10
5906.01117613216
 20
-128.8198369038864
 30
0.0
 11
5906.01117613216
 21
-92.81983690388642
 31
0.0
  0
LINE
  5
4E26
330
1F
100
AcDbEntity
  8
圖層1輪廓線
100
AcDbLine
 10
5949.312446321382
 20
-128.8198369038866
 30
0.0
 11
5949.312446321382
 21
-92.81983690388642
 31
0.0
  0
LINE
  5
4E27
330
1F
100
AcDbEntity
  8
圖層1輪廓線
100
AcDbLine
 10
5891.57741940242
 20
-128.8198369038866
 30
0.0
 11
5891.57741940242
 21
-92.81983690388642
 31
0.0
  0
ARC
  5
4E28
330
1F
100
AcDbEntity
  8
圖層1輪廓線
100
AcDbCircle
 10
6526.834805051677
 20
-100.2781702372137
 30
0.0
 40
27.54166666666487
100
AcDbArc
 50
243.0085334383639
 51
296.9914665616361
  0
LINE
  5
4E29
330
1F
100
AcDbEntity
  8
圖層1輪廓線
100
AcDbLine
 10
6514.334805051678
 20
-127.8198369038786
 30
0.0
 11
6564.334805051678
 21
-127.8198369038784
 31
0.0
  0
LINE
  5
4E2A
330
1F
100
AcDbEntity
  8
圖層1輪廓線
100
AcDbLine
 10
6514.334805051678
 20
-132.8198369038786
 30
0.0
 11
6564.334805051678
 21
-132.8198369038784
 31
0.0
  0
ARC
  5
4E2B
330
1F
100
AcDbEntity
  8
圖層1輪廓線
100
AcDbCircle
 10
6551.834805051678
 20
-100.2781702372114
 30
0.0
 40
27.54166666666719
100
AcDbArc
 50
243.0085334383639
 51
296.9914665616361
  0
ARC
  5
4E2C
330
1F
100
AcDbEntity
  8
圖層1輪廓線
100
AcDbCircle
 10
5898.79429776729
 20
-121.639281348331
 30
0.0
 40
10.18055555555557
100
AcDbArc
 50
224.855450681714
 51
315.144549318286
  0
LINE
  5
4E2D
330
1F
100
AcDbEntity
  8
圖層1輪廓線
100
AcDbLine
 10
5895.444932861901
 20
-136.8198369038866
 30
0.0
 11
5945.444932861901
 21
-136.8198369038866
 31
0.0
  0
LINE
  5
4E2E
330
1F
100
AcDbEntity
  8
圖層1輪廓線
100
AcDbLine
 10
5898.79429776729
 20
-131.8198369038866
 30
0.0
 11
5942.095567956513
 21
-131.8198369038866
 31
0.0
  0
ARC
  5
4E2F
330
1F
100
AcDbEntity
  8
圖層1輪廓線
100
AcDbCircle
 10
5920.444932861901
 20
-95.59761468166584
 30
0.0
 40
36.22222222222079
100
AcDbArc
 50
246.5169380082317
 51
293.4830619917684
  0
LINE
  5
4E30
330
1F
100
AcDbEntity
  8
圖層1輪廓線
100
AcDbLine
 10
5895.444932861901
 20
-136.8198369038866
 30
0.0
 11
5895.444932861901
 21
-131.2530977679587
 31
0.0
  0
ARC
  5
4E31
330
1F
100
AcDbEntity
  8
圖層1輪廓線
100
AcDbCircle
 10
5942.095567956513
 20
-121.6392813483312
 30
0.0
 40
10.18055555555541
100
AcDbArc
 50
224.855450681714
 51
315.144549318286
  0
LINE
  5
4E32
330
1F
100
AcDbEntity
  8
圖層1輪廓線
100
AcDbLine
 10
5945.444932861901
 20
-136.8198369038866
 30
0.0
 11
5945.444932861901
 21
-131.2530977679587
 31
0.0
  0
LINE
  5
4E33
330
1F
100
AcDbEntity
  8
圖層1輪廓線
100
AcDbLine
 10
6673.334805051678
 20
155.6801630961138
 30
0.0
 11
6673.334805051678
 21
-5.819836903886425
 31
0.0
  0
LINE
  5
4E34
330
1F
100
AcDbEntity
  8
圖層1輪廓線
100
AcDbLine
 10
6693.334805051678
 20
155.6801630961138
 30
0.0
 11
6688.334805051678
 21
155.6801630961138
 31
0.0
  0
LINE
  5
4E35
330
1F
100
AcDbEntity
  8
圖層1輪廓線
100
AcDbLine
 10
6691.834805051678
 20
157.1801630961138
 30
0.0
 11
6674.834805051678
 21
157.1801630961138
 31
0.0
  0
ARC
  5
4E36
330
1F
100
AcDbEntity
  8
圖層1輪廓線
100
AcDbCircle
 10
6683.334805051678
 20
152.4301630961138
 30
0.0
 40
7.250000000000031
100
AcDbArc
 50
226.3971810273251
 51
313.6028189726749
  0
LINE
  5
4E37
330
1F
100
AcDbEntity
  8
圖層1輪廓線
100
AcDbLine
 10
6674.834805051678
 20
157.1801630961138
 30
0.0
 11
6673.334805051678
 21
155.6801630961138
 31
0.0
  0
LINE
  5
4E38
330
1F
100
AcDbEntity
  8
圖層1輪廓線
100
AcDbLine
 10
6673.334805051678
 20
155.6801630961138
 30
0.0
 11
6678.334805051678
 21
155.6801630961138
 31
0.0
  0
LINE
  5
4E39
330
1F
100
AcDbEntity
  8
圖層1輪廓線
100
AcDbLine
 10
6688.334805051678
 20
157.1801630961138
 30
0.0
 11
6688.334805051678
 21
147.1801630961138
 31
0.0
  0
LINE
  5
4E3A
330
1F
100
AcDbEntity
  8
圖層1輪廓線
100
AcDbLine
 10
6678.334805051678
 20
157.1801630961138
 30
0.0
 11
6678.334805051678
 21
147.1801630961138
 31
0.0
  0
LINE
  5
4E3B
330
1F
100
AcDbEntity
  8
圖層1輪廓線
100
AcDbLine
 10
6688.334805051678
 20
157.1801630961138
 30
0.0
 11
6678.334805051678
 21
147.1801630961138
 31
0.0
  0
LINE
  5
4E3C
330
1F
100
AcDbEntity
  8
圖層1輪廓線
100
AcDbLine
 10
6688.334805051678
 20
147.1801630961138
 30
0.0
 11
6678.334805051678
 21
157.1801630961138
 31
0.0
  0
LINE
  5
4E3D
330
1F
100
AcDbEntity
  8
圖層1輪廓線
100
AcDbLine
 10
6688.334805051678
 20
147.1801630961138
 30
0.0
 11
6678.334805051678
 21
147.1801630961138
 31
0.0
  0
LINE
  5
4E3E
330
1F
100
AcDbEntity
  8
圖層1輪廓線
100
AcDbLine
 10
6693.334805051678
 20
155.6801630961138
 30
0.0
 11
6691.834805051678
 21
157.1801630961138
 31
0.0
  0
LINE
  5
4E3F
330
1F
100
AcDbEntity
  8
圖層1輪廓線
100
AcDbLine
 10
6769.334805051677
 20
38.78769345301726
 30
0.0
 11
6796.334805051678
 21
38.78769345301726
 31
0.0
  0
LINE
  5
4E40
330
1F
100
AcDbEntity
  8
圖層1輪廓線
100
AcDbLine
 10
6796.334805051678
 20
38.78769345301726
 30
0.0
 11
6796.334805051678
 21
53.78769345301726
 31
0.0
  0
LINE
  5
4E41
330
1F
100
AcDbEntity
  8
圖層1輪廓線
100
AcDbLine
 10
6796.334805051678
 20
53.78769345301726
 30
0.0
 11
6704.334805051678
 21
53.78769345301726
 31
0.0
  0
LINE
  5
4E42
330
1F
100
AcDbEntity
  8
圖層1輪廓線
100
AcDbLine
 10
6704.334805051678
 20
53.78769345301726
 30
0.0
 11
6693.33480505168
 21
53.78769345301726
 31
0.0
  0
LINE
  5
4E43
330
1F
100
AcDbEntity
  8
圖層1輪廓線
100
AcDbLine
 10
6693.334805051678
 20
38.78769345301726
 30
0.0
 11
6769.334805051677
 21
38.78769345301726
 31
0.0
  0
LINE
  5
4E44
330
1F
100
AcDbEntity
  8
圖層1輪廓線
100
AcDbLine
 10
6711.334805051677
 20
38.78769345301726
 30
0.0
 11
6711.334805051677
 21
-5.819836903886198
 31
0.0
  0
LINE
  5
4E45
330
1F
100
AcDbEntity
  8
圖層4尺寸線
100
AcDbLine
 10
6697.084805051678
 20
68.78769345301726
 30
0.0
 11
6711.584805051677
 21
68.78769345301726
 31
0.0
  0
LINE
  5
4E46
330
1F
100
AcDbEntity
  8
圖層1輪廓線
100
AcDbLine
 10
6693.33480505168
 20
68.78769345301726
 30
0.0
 11
6722.334805051677
 21
68.78769345301726
 31
0.0
  0
LINE
  5
4E47
330
1F
100
AcDbEntity
  8
圖層1輪廓線
100
AcDbLine
 10
6722.334805051677
 20
53.78769345301726
 30
0.0
 11
6693.33480505168
 21
53.78769345301726
 31
0.0
  0
CIRCLE
  5
4E48
330
1F
100
AcDbEntity
  8
圖層3虛線
 48
0.5
100
AcDbCircle
 10
6704.135138248974
 20
61.28769345301726
 30
0.0
 40
4.0
  0
CIRCLE
  5
4E49
330
1F
100
AcDbEntity
  8
圖層4尺寸線
100
AcDbCircle
 10
6704.135138248974
 20
61.28769345301726
 30
0.0
 40
3.0
  0
LINE
  5
4E4A
330
1F
100
AcDbEntity
  8
圖層1輪廓線
100
AcDbLine
 10
6722.334805051677
 20
68.78769345301726
 30
0.0
 11
6722.334805051677
 21
53.78769345301726
 31
0.0
  0
LINE
  5
4E4B
330
1F
100
AcDbEntity
  8
圖層1輪廓線
100
AcDbLine
 10
6679.334805051678
 20
-12.81983690388642
 30
0.0
 11
6729.334805051678
 21
-12.81983690388642
 31
0.0
  0
LINE
  5
4E4C
330
1F
100
AcDbEntity
  8
圖層1輪廓線
100
AcDbLine
 10
6679.334805051678
 20
-5.819836903886198
 30
0.0
 11
6719.334805051677
 21
-5.819836903886425
 31
0.0
  0
LINE
  5
4E4D
330
1F
100
AcDbEntity
  8
圖層3虛線
 48
0.5
100
AcDbLine
 10
6719.334805051677
 20
-12.81983690388642
 30
0.0
 11
6719.334805051677
 21
-5.819836903886425
 31
0.0
  0
LINE
  5
4E4E
330
1F
100
AcDbEntity
  8
圖層1輪廓線
100
AcDbLine
 10
6695.334805051678
 20
38.78769345301726
 30
0.0
 11
6704.334805051678
 21
38.78769345301726
 31
0.0
  0
LINE
  5
4E4F
330
1F
100
AcDbEntity
  8
圖層1輪廓線
100
AcDbLine
 10
6704.334805051678
 20
38.78769345301726
 30
0.0
 11
6713.334805051679
 21
38.78769345301726
 31
0.0
  0
LINE
  5
4E50
330
1F
100
AcDbEntity
  8
圖層1輪廓線
100
AcDbLine
 10
6697.334805051678
 20
38.78769345301726
 30
0.0
 11
6711.334805051677
 21
38.78769345301726
 31
0.0
  0
ARC
  5
4E51
330
1F
100
AcDbEntity
  8
圖層1輪廓線
100
AcDbCircle
 10
6748.22669694357
 20
124.9259096692335
 30
0.0
 40
6.108108108108208
100
AcDbArc
 50
270.0
 51
90.0
  0
ARC
  5
4E52
330
1F
100
AcDbEntity
  8
圖層1輪廓線
100
AcDbCircle
 10
6660.442913159787
 20
124.9259096692335
 30
0.0
 40
6.108108108108208
100
AcDbArc
 50
90.0
 51
270.0
  0
LINE
  5
4E53
330
1F
100
AcDbEntity
  8
圖層1輪廓線
100
AcDbLine
 10
6724.334805051679
 20
91.03472048004414
 30
0.0
 11
6693.334805051678
 21
91.03472048004414
 31
0.0
  0
LINE
  5
4E54
330
1F
100
AcDbEntity
  8
圖層1輪廓線
100
AcDbLine
 10
6693.334805051678
 20
104.0309366962606
 30
0.0
 11
6724.605075321948
 21
104.0309366962606
 31
0.0
  0
LINE
  5
4E55
330
1F
100
AcDbEntity
  8
圖層1輪廓線
100
AcDbLine
 10
6660.442913159787
 20
118.8178015611252
 30
0.0
 11
6673.33480505168
 21
118.8178015611254
 31
0.0
  0
ARC
  5
4E56
330
1F
100
AcDbEntity
  8
圖層1輪廓線
100
AcDbCircle
 10
6679.608309817332
 20
114.1660718313955
 30
0.0
 40
10.13513513513513
100
AcDbArc
 50
194.9999999999944
 51
231.7578897568348
  0
LINE
  5
4E57
330
1F
100
AcDbEntity
  8
圖層1輪廓線
100
AcDbLine
 10
6667.848318565191
 20
118.8178015611252
 30
0.0
 11
6669.818521037377
 21
111.5429058337349
 31
0.0
  0
LINE
  5
4E58
330
1F
100
AcDbEntity
  8
圖層1輪廓線
100
AcDbLine
 10
6715.145615862489
 20
110.7876934530172
 30
0.0
 11
6724.605075321948
 21
110.7876934530172
 31
0.0
  0
LINE
  5
4E59
330
1F
100
AcDbEntity
  8
圖層1輪廓線
100
AcDbLine
 10
6719.199669916543
 20
104.0309366962606
 30
0.0
 11
6730.010480727354
 21
104.0309366962606
 31
0.0
  0
CIRCLE
  5
4E5A
330
1F
100
AcDbEntity
  8
圖層4尺寸線
100
AcDbCircle
 10
6704.334805051678
 20
97.42282858815224
 30
0.0
 40
3.0
  0
CIRCLE
  5
4E5B
330
1F
100
AcDbEntity
  8
圖層3虛線
 48
0.5
100
AcDbCircle
 10
6704.334805051678
 20
97.42282858815224
 30
0.0
 40
4.0
  0
LINE
  5
4E5C
330
1F
100
AcDbEntity
  8
圖層1輪廓線
100
AcDbLine
 10
6715.145615862489
 20
118.8178015611252
 30
0.0
 11
6715.145615862489
 21
108.0849907503143
 31
0.0
  0
ARC
  5
4E5D
330
1F
100
AcDbEntity
  8
圖層1輪廓線
100
AcDbCircle
 10
6719.199669916543
 20
108.0849907503143
 30
0.0
 40
4.054054054054054
100
AcDbArc
 50
180.0
 51
270.0
  0
LINE
  5
4E5E
330
1F
100
AcDbEntity
  8
圖層1輪廓線
100
AcDbLine
 10
6724.334805051679
 20
104.0309366962606
 30
0.0
 11
6724.334805051679
 21
91.03472048004414
 31
0.0
  0
ARC
  5
4E5F
330
1F
100
AcDbEntity
  8
圖層1輪廓線
100
AcDbCircle
 10
6729.061300286023
 20
114.1660718313955
 30
0.0
 40
10.13513513513513
100
AcDbArc
 50
270.0
 51
345.0000000000056
  0
LINE
  5
4E60
330
1F
100
AcDbEntity
  8
圖層1輪廓線
100
AcDbLine
 10
6733.826182211069
 20
118.8178015611252
 30
0.0
 11
6732.324563212677
 21
113.2916831655088
 31
0.0
  0
LINE
  5
4E61
330
1F
100
AcDbEntity
  8
圖層1輪廓線
100
AcDbLine
 10
6724.605075321948
 20
110.7876934530172
 30
0.0
 11
6729.061300286023
 21
110.7876934530172
 31
0.0
  0
ARC
  5
4E62
330
1F
100
AcDbEntity
  8
圖層1輪廓線
100
AcDbCircle
 10
6729.061300286023
 20
114.1660718313955
 30
0.0
 40
3.378378378378378
100
AcDbArc
 50
270.0
 51
345.0000000000056
  0
ARC
  5
4E63
330
1F
100
AcDbEntity
  8
圖層1輪廓線
100
AcDbCircle
 10
6729.061300286023
 20
114.1660718313955
 30
0.0
 40
3.378378378378378
100
AcDbArc
 50
270.0
 51
345.0000000000056
  0
LINE
  5
4E64
330
1F
100
AcDbEntity
  8
圖層1輪廓線
100
AcDbLine
 10
6740.821291538165
 20
118.8178015611252
 30
0.0
 11
6738.85108906598
 21
111.5429058337349
 31
0.0
  0
LINE
  5
4E65
330
1F
100
AcDbEntity
  8
圖層4尺寸線
100
AcDbLine
 10
6711.334805051681
 20
-149.2123065469827
 30
0.0
 11
6697.334805051678
 21
-149.2123065469827
 31
0.0
  0
LINE
  5
4E66
330
1F
100
AcDbEntity
  8
圖層1輪廓線
100
AcDbLine
 10
6660.442913159787
 20
131.0340177773416
 30
0.0
 11
6673.33480505168
 21
131.0340177773414
 31
0.0
  0
LINE
  5
4E67
330
1F
100
AcDbEntity
  8
圖層1輪廓線
100
AcDbLine
 10
6697.33480505168
 20
-149.2123065469829
 30
0.0
 11
6697.33480505168
 21
-112.8198369038862
 31
0.0
  0
LINE
  5
4E68
330
1F
100
AcDbEntity
  8
圖層1輪廓線
100
AcDbLine
 10
6708.334805051677
 20
-151.2123065469827
 30
0.0
 11
6700.334805051678
 21
-151.2123065469827
 31
0.0
  0
LINE
  5
4E69
330
1F
100
AcDbEntity
  8
圖層1輪廓線
100
AcDbLine
 10
6683.334805051678
 20
-12.81983690388642
 30
0.0
 11
6657.334805051679
 21
-12.81983690388642
 31
0.0
  0
LINE
  5
4E6A
330
1F
100
AcDbEntity
  8
圖層1輪廓線
100
AcDbLine
 10
6657.334805051679
 20
-12.81983690388642
 30
0.0
 11
6657.334805051679
 21
-5.819836903886425
 31
0.0
  0
LINE
  5
4E6B
330
1F
100
AcDbEntity
  8
圖層1輪廓線
100
AcDbLine
 10
6657.334805051679
 20
-5.819836903886425
 30
0.0
 11
6709.334805051678
 21
-5.819836903886425
 31
0.0
  0
LINE
  5
4E6C
330
1F
100
AcDbEntity
  8
圖層1輪廓線
100
AcDbLine
 10
6709.334805051678
 20
-5.819836903886425
 30
0.0
 11
6709.334805051678
 21
-12.81983690388642
 31
0.0
  0
LINE
  5
4E6D
330
1F
100
AcDbEntity
  8
圖層1輪廓線
100
AcDbLine
 10
6693.334805051678
 20
-5.819836903886425
 30
0.0
 11
6693.334805051678
 21
155.6801630961138
 31
0.0
  0
LINE
  5
4E6E
330
1F
100
AcDbEntity
  8
圖層1輪廓線
100
AcDbLine
 10
6697.334805051678
 20
-5.819836903886198
 30
0.0
 11
6697.334805051678
 21
38.78769345301726
 31
0.0
  0
LINE
  5
4E6F
330
1F
100
AcDbEntity
  8
圖層1輪廓線
100
AcDbLine
 10
6711.334805051677
 20
-112.8198369038862
 30
0.0
 11
6711.334805051677
 21
-149.2123065469829
 31
0.0
  0
LINE
  5
4E70
330
1F
100
AcDbEntity
  8
圖層1輪廓線
100
AcDbLine
 10
6693.33480505168
 20
131.0340177773414
 30
0.0
 11
6748.22669694357
 21
131.0340177773414
 31
0.0
  0
LINE
  5
4E71
330
1F
100
AcDbEntity
  8
圖層1輪廓線
100
AcDbLine
 10
6693.33480505168
 20
118.8178015611254
 30
0.0
 11
6748.22669694357
 21
118.8178015611252
 31
0.0
  0
LINE
  5
4E72
330
1F
100
AcDbEntity
  8
圖層1輪廓線
100
AcDbLine
 10
5870.444932861901
 20
-112.8198369038864
 30
0.0
 11
5825.444932861901
 21
-112.8198369038864
 31
0.0
  0
LINE
  5
4E73
330
1F
100
AcDbEntity
  8
圖層1輪廓線
100
AcDbLine
 10
5825.444932861901
 20
-92.81983690388642
 30
0.0
 11
6015.444932861901
 21
-92.81983690388642
 31
0.0
  0
LINE
  5
4E74
330
1F
100
AcDbEntity
  8
圖層3虛線
100
AcDbLine
 10
5908.444932861901
 20
-96.81983690388666
 30
0.0
 11
5932.444932861901
 21
-96.81983690388689
 31
0.0
  0
LINE
  5
4E75
330
1F
100
AcDbEntity
  8
圖層3虛線
100
AcDbLine
 10
5908.444932861901
 20
-136.8198369038866
 30
0.0
 11
5908.444932861901
 21
-96.81983690388666
 31
0.0
  0
LINE
  5
4E76
330
1F
100
AcDbEntity
  8
圖層3虛線
100
AcDbLine
 10
5932.444932861901
 20
-136.8198369038866
 30
0.0
 11
5932.444932861901
 21
-96.81983690388666
 31
0.0
  0
CIRCLE
  5
4E77
330
1F
100
AcDbEntity
  8
圖層1輪廓線
100
AcDbCircle
 10
5920.444932861901
 20
-116.8198369038866
 30
0.0
 40
5.0
  0
LWPOLYLINE
  5
4E78
330
1F
100
AcDbEntity
  8
圖層1輪廓線
100
AcDbPolyline
 90
        6
 70
     1
 43
0.0
 10
5911.842051878259
 20
-121.5491191011972
 10
5920.239170894616
 20
-126.6347914801104
 10
5928.842051878259
 20
-121.9055092827996
 10
5929.047813845544
 20
-112.0905547065761
 10
5920.650694829186
 20
-107.0048823276629
 10
5912.047813845544
 20
-111.7341645249737
  0
CIRCLE
  5
4E79
330
1F
100
AcDbEntity
  8
圖層1輪廓線
100
AcDbCircle
 10
5920.444932861901
 20
-116.8198369038866
 30
0.0
 40
8.501867647192904
  0
LINE
  5
4E7A
330
1F
100
AcDbEntity
  8
圖層1輪廓線
100
AcDbLine
 10
6514.334805051679
 20
-120.1810528360465
 30
0.0
 11
6514.334805051679
 21
-105.4586209717108
 31
0.0
  0
LINE
  5
4E7B
330
1F
100
AcDbEntity
  8
圖層1輪廓線
100
AcDbLine
 10
6506.334805051678
 20
-120.1810528360465
 30
0.0
 11
6506.334805051678
 21
-105.4586209717108
 31
0.0
  0
ARC
  5
4E7C
330
1F
100
AcDbEntity
  8
圖層1輪廓線
100
AcDbCircle
 10
6515.112582829456
 20
-112.8198369038786
 30
0.0
 40
8.777777777777844
100
AcDbArc
 50
146.0078238856231
 51
213.9921761143769
  0
ARC
  5
4E7D
330
1F
100
AcDbEntity
  8
圖層1輪廓線
100
AcDbCircle
 10
6505.557027273901
 20
-112.8198369038786
 30
0.0
 40
8.777777777777153
100
AcDbArc
 50
326.0078238856232
 51
33.99217611437686
  0
LINE
  5
4E7E
330
1F
100
AcDbEntity
  8
圖層1輪廓線
100
AcDbLine
 10
6512.834805051678
 20
-122.6347914801021
 30
0.0
 11
6507.834805051678
 21
-122.6347914801021
 31
0.0
  0
LINE
  5
4E7F
330
1F
100
AcDbEntity
  8
圖層1輪廓線
100
AcDbLine
 10
6512.834805051678
 20
-117.7273141919904
 30
0.0
 11
6507.834805051679
 21
-117.7273141919904
 31
0.0
  0
ARC
  5
4E80
330
1F
100
AcDbEntity
  8
圖層1輪廓線
100
AcDbCircle
 10
6511.577860607234
 20
-120.1810528360465
 30
0.0
 40
2.756944444444471
100
AcDbArc
 50
297.1241053663949
 51
62.8758946336051
  0
ARC
  5
4E81
330
1F
100
AcDbEntity
  8
圖層1輪廓線
100
AcDbCircle
 10
6509.091749496123
 20
-120.1810528360465
 30
0.0
 40
2.756944444444574
100
AcDbArc
 50
117.1241053663949
 51
242.8758946336051
  0
LINE
  5
4E82
330
1F
100
AcDbEntity
  8
圖層1輪廓線
100
AcDbLine
 10
6512.834805051678
 20
-107.9123596157669
 30
0.0
 11
6507.834805051678
 21
-107.9123596157669
 31
0.0
  0
LINE
  5
4E83
330
1F
100
AcDbEntity
  8
圖層1輪廓線
100
AcDbLine
 10
6512.834805051679
 20
-103.0048823276551
 30
0.0
 11
6507.834805051678
 21
-103.0048823276551
 31
0.0
  0
ARC
  5
4E84
330
1F
100
AcDbEntity
  8
圖層1輪廓線
100
AcDbCircle
 10
6511.577860607234
 20
-105.4586209717108
 30
0.0
 40
2.756944444444263
100
AcDbArc
 50
297.124105366389
 51
62.87589463361104
  0
ARC
  5
4E85
330
1F
100
AcDbEntity
  8
圖層1輪廓線
100
AcDbCircle
 10
6509.091749496123
 20
-105.458620971711
 30
0.0
 40
2.756944444444471
100
AcDbArc
 50
117.1241053663949
 51
242.8758946336051
  0
LINE
  5
4E86
330
1F
100
AcDbEntity
  8
圖層3虛線
100
AcDbLine
 10
5891.57741940242
 20
-113.8198369038866
 30
0.0
 11
5908.444932861901
 21
-113.8198369038866
 31
0.0
  0
LINE
  5
4E87
330
1F
100
AcDbEntity
  8
圖層3虛線
100
AcDbLine
 10
5891.57741940242
 20
-119.8198369038866
 30
0.0
 11
5908.444932861901
 21
-119.8198369038866
 31
0.0
  0
LINE
  5
4E88
330
1F
100
AcDbEntity
  8
圖層3虛線
100
AcDbLine
 10
5932.444932861901
 20
-113.8198369038866
 30
0.0
 11
5949.312446321382
 21
-113.8198369038866
 31
0.0
  0
LINE
  5
4E89
330
1F
100
AcDbEntity
  8
圖層3虛線
100
AcDbLine
 10
5932.444932861901
 20
-119.8198369038866
 30
0.0
 11
5949.312446321382
 21
-119.8198369038866
 31
0.0
  0
LINE
  5
4E8A
330
1F
100
AcDbEntity
  8
圖層2中心線
100
AcDbLine
 10
5914.444932861901
 20
-116.8198369038866
 30
0.0
 11
5926.444932861901
 21
-116.8198369038866
 31
0.0
  0
LINE
  5
4E8B
330
1F
100
AcDbEntity
  8
圖層2中心線
100
AcDbLine
 10
5920.444932861901
 20
-122.8198369038866
 30
0.0
 11
5920.444932861901
 21
-110.8198369038866
 31
0.0
  0
LINE
  5
4E8C
330
1F
100
AcDbEntity
  8
圖層1輪廓線
100
AcDbLine
 10
6514.334805051678
 20
-112.8198369038786
 30
0.0
 11
6564.334805051678
 21
-112.8198369038784
 31
0.0
  0
LINE
  5
4E8D
330
1F
100
AcDbEntity
  8
圖層4尺寸線
100
AcDbLine
 10
6700.334805051678
 20
-151.2123065469827
 30
0.0
 11
6700.334805051679
 21
-112.8198369038862
 31
0.0
  0
LINE
  5
4E8E
330
1F
100
AcDbEntity
  8
圖層4尺寸線
100
AcDbLine
 10
6708.334805051677
 20
-112.8198369038862
 30
0.0
 11
6708.334805051677
 21
-151.2123065469827
 31
0.0
  0
LINE
  5
4E8F
330
1F
100
AcDbEntity
  8
圖層1輪廓線
100
AcDbLine
 10
6697.334805051678
 20
-149.2123065469827
 30
0.0
 11
6700.334805051678
 21
-151.2123065469827
 31
0.0
  0
LINE
  5
4E90
330
1F
100
AcDbEntity
  8
圖層1輪廓線
100
AcDbLine
 10
6708.334805051677
 20
-151.2123065469827
 30
0.0
 11
6711.334805051677
 21
-149.2123065469827
 31
0.0
  0
LINE
  5
4E91
330
1F
100
AcDbEntity
  8
圖層4尺寸線
100
AcDbLine
 10
6700.334805051678
 20
-5.819836903886198
 30
0.0
 11
6700.334805051678
 21
38.78769345301726
 31
0.0
  0
LINE
  5
4E92
330
1F
100
AcDbEntity
  8
圖層4尺寸線
100
AcDbLine
 10
6708.334805051677
 20
38.78769345301726
 30
0.0
 11
6708.334805051677
 21
-5.819836903886198
 31
0.0
  0
LINE
  5
4E93
330
1F
100
AcDbEntity
  8
圖層1輪廓線
100
AcDbLine
 10
6698.334805051678
 20
68.78769345301726
 30
0.0
 11
6698.334805051678
 21
91.03472048004414
 31
0.0
  0
LINE
  5
4E94
330
1F
100
AcDbEntity
  8
圖層1輪廓線
100
AcDbLine
 10
6710.584805051678
 20
68.78769345301726
 30
0.0
 11
6710.584805051678
 21
91.03472048004414
 31
0.0
  0
ARC
  5
4E95
330
1F
100
AcDbEntity
  8
圖層1輪廓線
100
AcDbCircle
 10
6769.334805051677
 20
65.30852678634937
 30
0.0
 40
8.520833333332422
100
AcDbArc
 50
229.9320129505278
 51
310.0679870494722
  0
ARC
  5
4E96
330
1F
100
AcDbEntity
  8
圖層1輪廓線
100
AcDbCircle
 10
6777.562046387629
 20
59.66790178635029
 30
0.0
 40
2.880208333333234
100
AcDbArc
 50
197.7946131839162
 51
342.2053868160838
  0
ARC
  5
4E97
330
1F
100
AcDbEntity
  8
圖層1輪廓線
100
AcDbCircle
 10
6761.107563715727
 20
59.66790178635029
 30
0.0
 40
2.880208333333234
100
AcDbArc
 50
197.7946131839162
 51
342.2053868160838
  0
LINE
  5
4E98
330
1F
100
AcDbEntity
  8
圖層1輪廓線
100
AcDbLine
 10
6760.943341134894
 20
56.78769345301725
 30
0.0
 11
6777.726268968462
 21
56.78769345301725
 31
0.0
  0
ARC
  5
4E99
330
1F
100
AcDbEntity
  8
圖層1輪廓線
100
AcDbCircle
 10
6769.334805051677
 20
58.26686011968376
 30
0.0
 40
8.520833333333246
100
AcDbArc
 50
49.93201295052776
 51
130.0679870494722
  0
LINE
  5
4E9A
330
1F
100
AcDbEntity
  8
圖層1輪廓線
100
AcDbLine
 10
6760.943341134896
 20
66.78769345301725
 30
0.0
 11
6777.726268968462
 21
66.7876934530168
 31
0.0
  0
LINE
  5
4E9B
330
1F
100
AcDbEntity
  8
圖層1輪廓線
100
AcDbLine
 10
6763.849977494378
 20
58.78769345301771
 30
0.0
 11
6763.849977494378
 21
64.78769345301725
 31
0.0
  0
LINE
  5
4E9C
330
1F
100
AcDbEntity
  8
圖層1輪廓線
100
AcDbLine
 10
6758.365149937076
 20
58.7876934530168
 30
0.0
 11
6758.365149937076
 21
64.7876934530177
 31
0.0
  0
ARC
  5
4E9D
330
1F
100
AcDbEntity
  8
圖層1輪廓線
100
AcDbCircle
 10
6761.107563715727
 20
63.90748511968377
 30
0.0
 40
2.880208333333381
100
AcDbArc
 50
17.79461318391617
 51
162.2053868160838
  0
ARC
  5
4E9E
330
1F
100
AcDbEntity
  8
圖層1輪廓線
100
AcDbCircle
 10
6777.562046387629
 20
63.90748511968377
 30
0.0
 40
2.880208333333343
100
AcDbArc
 50
17.79461318391617
 51
162.2053868160838
  0
LINE
  5
4E9F
330
1F
100
AcDbEntity
  8
圖層1輪廓線
100
AcDbLine
 10
6774.81963260898
 20
58.78769345301726
 30
0.0
 11
6774.81963260898
 21
64.78769345301725
 31
0.0
  0
LINE
  5
4EA0
330
1F
100
AcDbEntity
  8
圖層1輪廓線
100
AcDbLine
 10
6780.304460166281
 20
58.78769345301726
 30
0.0
 11
6780.304460166281
 21
64.78769345301725
 31
0.0
  0
LINE
  5
4EA1
330
1F
100
AcDbEntity
  8
圖層1輪廓線
100
AcDbLine
 10
6769.334805051677
 20
53.78769345301726
 30
0.0
 11
6758.334805051678
 21
53.78769345301726
 31
0.0
  0
LINE
  5
4EA2
330
1F
100
AcDbEntity
  8
圖層1輪廓線
100
AcDbLine
 10
6758.334805051678
 20
53.78769345301726
 30
0.0
 11
6758.334805051678
 21
56.78769345301725
 31
0.0
  0
LINE
  5
4EA3
330
1F
100
AcDbEntity
  8
圖層1輪廓線
100
AcDbLine
 10
6758.334805051678
 20
56.78769345301725
 30
0.0
 11
6780.334805051677
 21
56.78769345301725
 31
0.0
  0
LINE
  5
4EA4
330
1F
100
AcDbEntity
  8
圖層1輪廓線
100
AcDbLine
 10
6780.334805051677
 20
56.78769345301725
 30
0.0
 11
6780.334805051677
 21
53.78769345301726
 31
0.0
  0
LINE
  5
4EA5
330
1F
100
AcDbEntity
  8
圖層2中心線
 62
     1
 48
0.5
100
AcDbLine
 10
6683.334805051678
 20
167.6443998104228
 30
0.0
 11
6683.334805051678
 21
-18.94134000524354
 31
0.0
  0
LINE
  5
4EA6
330
1F
100
AcDbEntity
  8
圖層2中心線
 62
     1
 48
0.5
100
AcDbLine
 10
6704.334805051678
 20
-162.7933109018604
 30
0.0
 11
6704.334805051678
 21
145.9368137151527
 31
0.0
  0
LINE
  5
4EA7
330
1F
100
AcDbEntity
  8
圖層2中心線
100
AcDbLine
 10
6698.334805051678
 20
97.42282858815224
 30
0.0
 11
6710.334805051679
 21
97.42282858815224
 31
0.0
  0
LINE
  5
4EA8
330
1F
100
AcDbEntity
  8
圖層2中心線
100
AcDbLine
 10
6704.334805051678
 20
91.42282858815224
 30
0.0
 11
6704.334805051678
 21
103.4228285881522
 31
0.0
  0
LINE
  5
4EA9
330
1F
100
AcDbEntity
  8
圖層2中心線
100
AcDbLine
 10
6698.135138248973
 20
61.28769345301726
 30
0.0
 11
6710.135138248974
 21
61.28769345301726
 31
0.0
  0
LINE
  5
4EAA
330
1F
100
AcDbEntity
  8
圖層2中心線
100
AcDbLine
 10
6704.135138248974
 20
55.28769345301725
 30
0.0
 11
6704.135138248974
 21
67.28769345301725
 31
0.0
  0
LINE
  5
4EAB
330
1F
100
AcDbEntity
  8
圖層2中心線
  6
CENTER2
 48
0.3
370
    18
100
AcDbLine
 10
5885.454195211351
 20
-116.8198369038866
 30
0.0
 11
5954.760731237251
 21
-116.8198369038866
 31
0.0
  0
LINE
  5
4EAC
330
1F
100
AcDbEntity
  8
圖層1輪廓線
100
AcDbLine
 10
5870.444932861901
 20
-112.8198369038864
 30
0.0
 11
5891.57741940242
 21
-112.8198369038864
 31
0.0
  0
LINE
  5
4EAD
330
1F
100
AcDbEntity
  8
圖層1輪廓線
100
AcDbLine
 10
5949.312446321382
 20
-112.8198369038864
 30
0.0
 11
5970.444932861902
 21
-112.8198369038864
 31
0.0
  0
LINE
  5
4EAE
330
1F
100
AcDbEntity
  8
圖層3虛線
100
AcDbLine
 10
5891.57741940242
 20
-110.8198369038866
 30
0.0
 11
5908.444932861901
 21
-110.8198369038866
 31
0.0
  0
LINE
  5
4EAF
330
1F
100
AcDbEntity
  8
圖層3虛線
100
AcDbLine
 10
5932.444932861901
 20
-110.8198369038866
 30
0.0
 11
5949.312446321382
 21
-110.8198369038866
 31
0.0
  0
LINE
  5
4EB0
330
1F
100
AcDbEntity
  8
圖層3虛線
100
AcDbLine
 10
5932.444932861901
 20
-122.8198369038866
 30
0.0
 11
5949.312446321382
 21
-122.8198369038866
 31
0.0
  0
LINE
  5
4EB1
330
1F
100
AcDbEntity
  8
圖層3虛線
100
AcDbLine
 10
5891.57741940242
 20
-122.8198369038866
 30
0.0
 11
5908.444932861901
 21
-122.8198369038866
 31
0.0
  0
LINE
  5
4EB2
330
1F
100
AcDbEntity
  8
圖層1輪廓線
100
AcDbLine
 10
6447.334805051678
 20
-12.8198369038862
 30
0.0
 11
6631.334805051678
 21
-12.8198369038862
 31
0.0
  0
LINE
  5
4EB3
330
1F
100
AcDbEntity
  8
圖層1輪廓線
100
AcDbLine
 10
6631.334805051678
 20
-12.8198369038862
 30
0.0
 11
6447.334805051678
 21
-12.8198369038862
 31
0.0
  0
LINE
  5
4EB4
330
1F
100
AcDbEntity
  8
圖層1輪廓線
100
AcDbLine
 10
6012.444932861901
 20
-12.8198369038862
 30
0.0
 11
5828.444932861901
 21
-12.81983690388597
 31
0.0
  0
LINE
  5
4EB5
330
1F
100
AcDbEntity
  8
圖層1輪廓線
100
AcDbLine
 10
5828.444932861901
 20
-12.8198369038862
 30
0.0
 11
6012.444932861901
 21
-12.81983690388597
 31
0.0
  0
LINE
  5
4EB6
330
1F
100
AcDbEntity
  8
圖層4尺寸線
100
AcDbLine
 10
5920.444932861901
 20
5.180163096114029
 30
0.0
 11
5920.444932861901
 21
17.1801630961138
 31
0.0
  0
LINE
  5
4EB7
330
1F
100
AcDbEntity
  8
圖層1輪廓線
100
AcDbLine
 10
5920.444932861901
 20
202.1801630961138
 30
0.0
 11
5920.444932861901
 21
190.1801630961138
 31
0.0
  0
LINE
  5
4EB8
330
1F
100
AcDbEntity
  8
圖層1輪廓線
100
AcDbLine
 10
6539.334805051677
 20
387.180163096114
 30
0.0
 11
6539.334805051677
 21
363.180163096114
 31
0.0
  0
LINE
  5
4EB9
330
1F
100
AcDbEntity
  8
圖層1輪廓線
100
AcDbLine
 10
6539.334805051677
 20
398.1801630961141
 30
0.0
 11
6539.334805051677
 21
392.1801630961141
 31
0.0
  0
LINE
  5
4EBA
330
1F
100
AcDbEntity
  8
圖層2中心線
 62
     1
 48
0.5
100
AcDbLine
 10
6539.334805051677
 20
-145.2216614625595
 30
0.0
 11
6539.334805051677
 21
459.4684721083244
 31
0.0
  0
LINE
  5
4EBB
330
1F
100
AcDbEntity
  8
圖層2中心線
 62
     1
 48
0.5
100
AcDbLine
 10
5920.444932861901
 20
-472.8010784733578
 30
0.0
 11
5920.444932861901
 21
437.394287403918
 31
0.0
  0
LINE
  5
4EBC
330
1F
100
AcDbEntity
  8
圖層4尺寸線
100
AcDbLine
 10
6108.444932861901
 20
-444.2123065469827
 30
0.0
 11
6123.444932861901
 21
-444.2123065469827
 31
0.0
  0
LINE
  5
4EBD
330
1F
100
AcDbEntity
  8
圖層4尺寸線
100
AcDbLine
 10
6051.444932861901
 20
-459.2123065469827
 30
0.0
 11
6123.444932861901
 21
-459.2123065469827
 31
0.0
  0
LINE
  5
4EBE
330
1F
100
AcDbEntity
  8
圖層4尺寸線
100
AcDbLine
 10
6123.444932861901
 20
-395.2123065469828
 30
0.0
 11
6051.444932861901
 21
-395.2123065469828
 31
0.0
  0
LINE
  5
4EBF
330
1F
100
AcDbEntity
  8
圖層4尺寸線
100
AcDbLine
 10
6045.444932861901
 20
-461.2123065469827
 30
0.0
 11
6123.444932861901
 21
-461.2123065469827
 31
0.0
  0
LINE
  5
4EC0
330
1F
100
AcDbEntity
  8
圖層4尺寸線
100
AcDbLine
 10
6123.444932861901
 20
-459.2123065469827
 30
0.0
 11
6049.444932861901
 21
-459.2123065469827
 31
0.0
  0
LINE
  5
4EC1
330
1F
100
AcDbEntity
  8
圖層4尺寸線
100
AcDbLine
 10
6108.444932861901
 20
-444.2123065469827
 30
0.0
 11
6108.444932861901
 21
-429.2123065469827
 31
0.0
  0
LINE
  5
4EC2
330
1F
100
AcDbEntity
  8
圖層4尺寸線
100
AcDbLine
 10
6066.444932861902
 20
-429.2123065469827
 30
0.0
 11
6066.444932861902
 21
-444.2123065469827
 31
0.0
  0
LINE
  5
4EC3
330
1F
100
AcDbEntity
  8
圖層4尺寸線
100
AcDbLine
 10
6051.444932861901
 20
-395.2123065469828
 30
0.0
 11
6051.444932861901
 21
-459.2123065469827
 31
0.0
  0
LINE
  5
4EC4
330
1F
100
AcDbEntity
  8
圖層1輪廓線
100
AcDbLine
 10
6045.444932861901
 20
-389.2123065469828
 30
0.0
 11
6045.444932861901
 21
-461.2123065469827
 31
0.0
  0
LINE
  5
4EC5
330
1F
100
AcDbEntity
  8
圖層4尺寸線
100
AcDbLine
 10
6047.444932861901
 20
-457.2123065469827
 30
0.0
 11
6047.444932861901
 21
-389.2123065469828
 31
0.0
  0
ARC
  5
4EC6
330
1F
100
AcDbEntity
  8
圖層4尺寸線
100
AcDbCircle
 10
6047.444932861901
 20
-459.2123065469827
 30
0.0
 40
2.0
100
AcDbArc
 50
180.0
 51
270.0
  0
CIRCLE
  5
4EC7
330
1F
100
AcDbEntity
  8
圖層4尺寸線
100
AcDbCircle
 10
6087.444932861902
 20
-444.2123065469827
 30
0.0
 40
12.0
  0
CIRCLE
  5
4EC8
330
1F
100
AcDbEntity
  8
圖層4尺寸線
100
AcDbCircle
 10
6087.444932861902
 20
-444.2123065469827
 30
0.0
 40
9.0
  0
ARC
  5
4EC9
330
1F
100
AcDbEntity
  8
圖層4尺寸線
100
AcDbCircle
 10
6049.444932861901
 20
-457.2123065469827
 30
0.0
 40
2.0
100
AcDbArc
 50
180.0
 51
270.0
  0
LINE
  5
4ECA
330
1F
100
AcDbEntity
  8
圖層4尺寸線
100
AcDbLine
 10
6051.444932861901
 20
-444.2123065469827
 30
0.0
 11
6066.444932861902
 21
-444.2123065469827
 31
0.0
  0
LINE
  5
4ECB
330
1F
100
AcDbEntity
  8
圖層4尺寸線
100
AcDbLine
 10
6047.444932861901
 20
-389.2123065469828
 30
0.0
 11
6045.444932861901
 21
-389.2123065469828
 31
0.0
  0
LINE
  5
4ECC
330
1F
100
AcDbEntity
  8
圖層4尺寸線
100
AcDbLine
 10
6101.444932861902
 20
-380.2123065469828
 30
0.0
 11
6101.444932861902
 21
-395.2123065469828
 31
0.0
  0
LINE
  5
4ECD
330
1F
100
AcDbEntity
  8
圖層4尺寸線
100
AcDbLine
 10
6073.444932861901
 20
-380.2123065469825
 30
0.0
 11
6073.444932861901
 21
-395.2123065469825
 31
0.0
  0
LINE
  5
4ECE
330
1F
100
AcDbEntity
  8
圖層4尺寸線
100
AcDbLine
 10
6066.444932861902
 20
-429.2123065469827
 30
0.0
 11
6108.444932861901
 21
-429.2123065469827
 31
0.0
  0
HATCH
  5
4ECF
330
1F
100
AcDbEntity
  8
圖層4尺寸線
100
AcDbHatch
 10
0.0
 20
0.0
 30
0.0
210
0.0
220
0.0
230
1.0
  2
LINE
 70
     0
 71
     0
 91
        1
 92
        7
 72
     0
 73
     1
 93
        4
 10
6101.444932861902
 20
-385.7123065469825
 10
6073.444932861901
 20
-385.7123065469825
 10
6073.444932861901
 20
-392.8423958266635
 10
6101.444932861902
 20
-392.8423958266638
 97
        0
 75
     0
 76
     1
 52
90.0
 41
1.0
 77
     0
 78
     1
 53
90.0
 43
4961.280895013606
 44
-984.1534079772399
 45
-3.174999999999999
 46
0.0000000000000002
 79
     0
 47
0.1347766415641304
 98
        1
 10
6087.136909188815
 20
-388.9091425025056
  0
LINE
  5
4ED0
330
1F
100
AcDbEntity
  8
圖層4尺寸線
100
AcDbLine
 10
6073.444932861901
 20
-385.7123065469825
 30
0.0
 11
6101.444932861902
 21
-385.7123065469827
 31
0.0
  0
LINE
  5
4ED1
330
1F
100
AcDbEntity
  8
圖層4尺寸線
100
AcDbLine
 10
6073.444932861901
 20
-392.8423958266635
 30
0.0
 11
6101.444932861902
 21
-392.842395826664
 31
0.0
  0
LINE
  5
4ED2
330
1F
100
AcDbEntity
  8
圖層4尺寸線
100
AcDbLine
 10
6101.444932861902
 20
-380.2123065469828
 30
0.0
 11
6073.444932861901
 21
-380.2123065469828
 31
0.0
  0
ARC
  5
4ED3
330
1F
100
AcDbEntity
  8
圖層4尺寸線
100
AcDbCircle
 10
6087.444932861902
 20
-417.2123065469827
 30
0.0
 40
52.00000000000005
100
AcDbArc
 50
67.38013505196659
 51
112.6198649480334
  0
LINE
  5
4ED4
330
1F
100
AcDbEntity
  8
圖層4尺寸線
100
AcDbLine
 10
6107.444932861901
 20
-369.2123065469827
 30
0.0
 11
6067.444932861901
 21
-369.2123065469827
 31
0.0
  0
LINE
  5
4ED5
330
1F
100
AcDbEntity
  8
圖層4尺寸線
100
AcDbLine
 10
6107.444932861901
 20
-371.2123065469827
 30
0.0
 11
6067.444932861901
 21
-371.2123065469827
 31
0.0
  0
LINE
  5
4ED6
330
1F
100
AcDbEntity
  8
圖層4尺寸線
100
AcDbLine
 10
6076.444932861901
 20
-371.2123065469827
 30
0.0
 11
6076.444932861901
 21
-380.2123065469828
 31
0.0
  0
LINE
  5
4ED7
330
1F
100
AcDbEntity
  8
圖層4尺寸線
100
AcDbLine
 10
6076.444932861901
 20
-380.2123065469828
 30
0.0
 11
6073.444932861901
 21
-380.2123065469828
 31
0.0
  0
LINE
  5
4ED8
330
1F
100
AcDbEntity
  8
圖層4尺寸線
100
AcDbLine
 10
6067.444932861901
 20
-371.2123065469827
 30
0.0
 11
6076.444932861901
 21
-371.2123065469827
 31
0.0
  0
LINE
  5
4ED9
330
1F
100
AcDbEntity
  8
圖層4尺寸線
100
AcDbLine
 10
6067.444932861901
 20
-369.2123065469827
 30
0.0
 11
6067.444932861901
 21
-371.2123065469827
 31
0.0
  0
LINE
  5
4EDA
330
1F
100
AcDbEntity
  8
圖層4尺寸線
100
AcDbLine
 10
6107.444932861901
 20
-369.2123065469827
 30
0.0
 11
6107.444932861901
 21
-371.2123065469827
 31
0.0
  0
LINE
  5
4EDB
330
1F
100
AcDbEntity
  8
圖層4尺寸線
100
AcDbLine
 10
6098.444932861902
 20
-371.2123065469827
 30
0.0
 11
6098.444932861902
 21
-380.2123065469828
 31
0.0
  0
LINE
  5
4EDC
330
1F
100
AcDbEntity
  8
圖層4尺寸線
100
AcDbLine
 10
6101.444932861902
 20
-380.2123065469828
 30
0.0
 11
6098.444932861902
 21
-380.2123065469828
 31
0.0
  0
LINE
  5
4EDD
330
1F
100
AcDbEntity
  8
圖層4尺寸線
100
AcDbLine
 10
6107.444932861901
 20
-371.2123065469827
 30
0.0
 11
6098.444932861902
 21
-371.2123065469827
 31
0.0
  0
LINE
  5
4EDE
330
1F
100
AcDbEntity
  8
圖層4尺寸線
100
AcDbLine
 10
6123.444932861901
 20
-459.2123065469827
 30
0.0
 11
6123.444932861901
 21
-395.2123065469828
 31
0.0
  0
LINE
  5
4EDF
330
1F
100
AcDbEntity
  8
圖層4尺寸線
100
AcDbLine
 10
6123.444932861901
 20
-461.2123065469827
 30
0.0
 11
6123.444932861901
 21
-459.2123065469827
 31
0.0
  0
LINE
  5
4EE0
330
1F
100
AcDbEntity
  8
圖層1輪廓線
100
AcDbLine
 10
6566.834805051678
 20
224.680163096114
 30
0.0
 11
6626.834805051678
 21
224.680163096114
 31
0.0
  0
LINE
  5
4EE1
330
1F
100
AcDbEntity
  8
圖層1輪廓線
100
AcDbLine
 10
6566.834805051678
 20
2.680163096114029
 30
0.0
 11
6626.834805051678
 21
2.680163096114029
 31
0.0
  0
LINE
  5
4EE2
330
1F
100
AcDbEntity
  8
圖層1輪廓線
100
AcDbLine
 10
6451.834805051678
 20
27.68016309611403
 30
0.0
 11
6626.834805051678
 21
27.68016309611403
 31
0.0
  0
LINE
  5
4EE3
330
1F
100
AcDbEntity
  8
圖層1輪廓線
100
AcDbLine
 10
6451.834805051678
 20
-12.81983690388597
 30
0.0
 11
6626.834805051678
 21
-12.81983690388642
 31
0.0
  0
LINE
  5
4EE4
330
1F
100
AcDbEntity
  8
圖層1輪廓線
100
AcDbLine
 10
6451.834805051678
 20
199.680163096114
 30
0.0
 11
6626.834805051678
 21
199.680163096114
 31
0.0
  0
LINE
  5
4EE5
330
1F
100
AcDbEntity
  8
圖層1輪廓線
100
AcDbLine
 10
6485.200830455461
 20
240.180163096114
 30
0.0
 11
6593.468779647894
 21
240.180163096114
 31
0.0
  0
LINE
  5
4EE6
330
1F
100
AcDbEntity
  8
圖層1輪廓線
100
AcDbLine
 10
6464.834805051677
 20
27.68016309611403
 30
0.0
 11
6464.834805051677
 21
199.680163096114
 31
0.0
  0
LINE
  5
4EE7
330
1F
100
AcDbEntity
  8
圖層1輪廓線
100
AcDbLine
 10
6479.834805051678
 20
27.68016309611403
 30
0.0
 11
6479.834805051678
 21
199.680163096114
 31
0.0
  0
LINE
  5
4EE8
330
1F
100
AcDbEntity
  8
圖層1輪廓線
100
AcDbLine
 10
6459.334805051678
 20
27.68016309611403
 30
0.0
 11
6459.334805051678
 21
199.680163096114
 31
0.0
  0
LINE
  5
4EE9
330
1F
100
AcDbEntity
  8
圖層1輪廓線
100
AcDbLine
 10
6451.834805051678
 20
2.680163096114029
 30
0.0
 11
6511.834805051678
 21
2.680163096114029
 31
0.0
  0
LINE
  5
4EEA
330
1F
100
AcDbEntity
  8
圖層1輪廓線
100
AcDbLine
 10
6451.834805051678
 20
-12.81983690388597
 30
0.0
 11
6451.834805051678
 21
27.68016309611403
 31
0.0
  0
LINE
  5
4EEB
330
1F
100
AcDbEntity
  8
圖層1輪廓線
100
AcDbLine
 10
6499.834805051678
 20
-12.81983690388597
 30
0.0
 11
6499.834805051678
 21
2.680163096114029
 31
0.0
  0
LINE
  5
4EEC
330
1F
100
AcDbEntity
  8
圖層1輪廓線
100
AcDbLine
 10
6464.334805051677
 20
255.180163096114
 30
0.0
 11
6464.334805051677
 21
240.6801630961136
 31
0.0
  0
LINE
  5
4EED
330
1F
100
AcDbEntity
  8
圖層1輪廓線
100
AcDbLine
 10
6465.084805051678
 20
255.930163096114
 30
0.0
 11
6465.084805051678
 21
240.680163096114
 31
0.0
  0
LINE
  5
4EEE
330
1F
100
AcDbEntity
  8
圖層1輪廓線
100
AcDbLine
 10
6480.334805051677
 20
255.180163096114
 30
0.0
 11
6480.334805051677
 21
240.680163096114
 31
0.0
  0
LINE
  5
4EEF
330
1F
100
AcDbEntity
  8
圖層1輪廓線
100
AcDbLine
 10
6479.584805051678
 20
255.930163096114
 30
0.0
 11
6479.584805051678
 21
240.680163096114
 31
0.0
  0
LINE
  5
4EF0
330
1F
100
AcDbEntity
  8
圖層1輪廓線
100
AcDbLine
 10
6509.334805051678
 20
272.180163096114
 30
0.0
 11
6509.334805051678
 21
240.180163096114
 31
0.0
  0
LINE
  5
4EF1
330
1F
100
AcDbEntity
  8
圖層1輪廓線
100
AcDbLine
 10
6569.334805051678
 20
272.180163096114
 30
0.0
 11
6569.334805051678
 21
240.180163096114
 31
0.0
  0
LINE
  5
4EF2
330
1F
100
AcDbEntity
  8
圖層1輪廓線
100
AcDbLine
 10
6451.834805051678
 20
224.680163096114
 30
0.0
 11
6511.834805051678
 21
224.680163096114
 31
0.0
  0
LINE
  5
4EF3
330
1F
100
AcDbEntity
  8
圖層1輪廓線
100
AcDbLine
 10
6458.834805051679
 20
227.680163096114
 30
0.0
 11
6458.834805051679
 21
224.680163096114
 31
0.0
  0
LINE
  5
4EF4
330
1F
100
AcDbEntity
  8
圖層1輪廓線
100
AcDbLine
 10
6473.698579760777
 20
227.680163096114
 30
0.0
 11
6475.817101173873
 21
224.680163096114
 31
0.0
  0
LINE
  5
4EF5
330
1F
100
AcDbEntity
  8
圖層1輪廓線
100
AcDbLine
 10
6471.568109104658
 20
227.680163096114
 30
0.0
 11
6473.686630517751
 21
224.680163096114
 31
0.0
  0
LINE
  5
4EF6
330
1F
100
AcDbEntity
  8
圖層1輪廓線
100
AcDbLine
 10
6485.834805051678
 20
227.680163096114
 30
0.0
 11
6485.834805051678
 21
224.680163096114
 31
0.0
  0
LINE
  5
4EF7
330
1F
100
AcDbEntity
  8
圖層1輪廓線
100
AcDbLine
 10
6451.834805051678
 20
240.180163096114
 30
0.0
 11
6451.834805051678
 21
199.680163096114
 31
0.0
  0
ARC
  5
4EF8
330
1F
100
AcDbEntity
  8
圖層1輪廓線
100
AcDbCircle
 10
6461.942500206266
 20
234.5461884998981
 30
0.0
 40
6.133974596215608
100
AcDbArc
 50
55.61575253192536
 51
124.3842474680746
  0
LINE
  5
4EF9
330
1F
100
AcDbEntity
  8
圖層1輪廓線
100
AcDbLine
 10
6460.334805051679
 20
240.680163096114
 30
0.0
 11
6484.334805051678
 21
240.680163096114
 31
0.0
  0
LINE
  5
4EFA
330
1F
100
AcDbEntity
  8
圖層1輪廓線
100
AcDbLine
 10
6458.478398591127
 20
227.680163096114
 30
0.0
 11
6486.191211512229
 21
227.680163096114
 31
0.0
  0
LINE
  5
4EFB
330
1F
100
AcDbEntity
  8
圖層1輪廓線
100
AcDbLine
 10
6460.334805051679
 20
240.680163096114
 30
0.0
 11
6458.478398591127
 21
239.6083663263894
 31
0.0
  0
LINE
  5
4EFC
330
1F
100
AcDbEntity
  8
圖層1輪廓線
100
AcDbLine
 10
6458.478398591127
 20
239.6083663263894
 30
0.0
 11
6458.478398591127
 21
227.680163096114
 31
0.0
  0
LINE
  5
4EFD
330
1F
100
AcDbEntity
  8
圖層1輪廓線
100
AcDbLine
 10
6451.834805051678
 20
240.180163096114
 30
0.0
 11
6459.468779647894
 21
240.180163096114
 31
0.0
  0
ARC
  5
4EFE
330
1F
100
AcDbEntity
  8
圖層1輪廓線
100
AcDbCircle
 10
6482.727109897092
 20
234.546188499899
 30
0.0
 40
6.133974596215608
100
AcDbArc
 50
55.61575253192536
 51
124.3842474680746
  0
LINE
  5
4EFF
330
1F
100
AcDbEntity
  8
圖層1輪廓線
100
AcDbLine
 10
6484.334805051678
 20
240.680163096114
 30
0.0
 11
6486.191211512229
 21
239.6083663263894
 31
0.0
  0
ARC
  5
4F00
330
1F
100
AcDbEntity
  8
圖層1輪廓線
100
AcDbCircle
 10
6472.33480505168
 20
217.7519598658391
 30
0.0
 40
22.92820323027502
100
AcDbArc
 50
72.4120462260324
 51
107.5879537739676
  0
LINE
  5
4F01
330
1F
100
AcDbEntity
  8
圖層1輪廓線
100
AcDbLine
 10
6465.406601821404
 20
239.6083663263894
 30
0.0
 11
6465.406601821404
 21
227.680163096114
 31
0.0
  0
LINE
  5
4F02
330
1F
100
AcDbEntity
  8
圖層1輪廓線
100
AcDbLine
 10
6479.263008281954
 20
239.6083663263894
 30
0.0
 11
6479.263008281954
 21
227.680163096114
 31
0.0
  0
LINE
  5
4F03
330
1F
100
AcDbEntity
  8
圖層1輪廓線
100
AcDbLine
 10
6486.191211512229
 20
239.6083663263894
 30
0.0
 11
6486.191211512229
 21
227.680163096114
 31
0.0
  0
LINE
  5
4F04
330
1F
100
AcDbEntity
  8
圖層1輪廓線
100
AcDbLine
 10
6499.834805051678
 20
240.180163096114
 30
0.0
 11
6499.834805051678
 21
224.680163096114
 31
0.0
  0
LINE
  5
4F05
330
1F
100
AcDbEntity
  8
圖層1輪廓線
100
AcDbLine
 10
6464.334805051677
 20
255.180163096114
 30
0.0
 11
6480.334805051677
 21
255.180163096114
 31
0.0
  0
LINE
  5
4F06
330
1F
100
AcDbEntity
  8
圖層1輪廓線
100
AcDbLine
 10
6465.334805051679
 20
256.1801630961138
 30
0.0
 11
6479.334805051678
 21
256.1801630961138
 31
0.0
  0
LINE
  5
4F07
330
1F
100
AcDbEntity
  8
圖層1輪廓線
100
AcDbLine
 10
6465.334805051679
 20
256.1801630961138
 30
0.0
 11
6464.334805051677
 21
255.180163096114
 31
0.0
  0
LINE
  5
4F08
330
1F
100
AcDbEntity
  8
圖層1輪廓線
100
AcDbLine
 10
6479.334805051678
 20
256.1801630961138
 30
0.0
 11
6480.334805051677
 21
255.180163096114
 31
0.0
  0
LINE
  5
4F09
330
1F
100
AcDbEntity
  8
圖層1輪廓線
100
AcDbLine
 10
6509.334805051678
 20
272.180163096114
 30
0.0
 11
6569.334805051678
 21
272.180163096114
 31
0.0
  0
LINE
  5
4F0A
330
1F
100
AcDbEntity
  8
圖層1輪廓線
100
AcDbLine
 10
6598.834805051677
 20
27.68016309611403
 30
0.0
 11
6598.834805051677
 21
199.680163096114
 31
0.0
  0
LINE
  5
4F0B
330
1F
100
AcDbEntity
  8
圖層1輪廓線
100
AcDbLine
 10
6613.834805051678
 20
27.68016309611403
 30
0.0
 11
6613.834805051678
 21
199.680163096114
 31
0.0
  0
LINE
  5
4F0C
330
1F
100
AcDbEntity
  8
圖層1輪廓線
100
AcDbLine
 10
6619.334805051678
 20
27.68016309611403
 30
0.0
 11
6619.334805051678
 21
199.680163096114
 31
0.0
  0
LINE
  5
4F0D
330
1F
100
AcDbEntity
  8
圖層1輪廓線
100
AcDbLine
 10
6626.834805051678
 20
-12.81983690388597
 30
0.0
 11
6626.834805051678
 21
27.68016309611403
 31
0.0
  0
LINE
  5
4F0E
330
1F
100
AcDbEntity
  8
圖層1輪廓線
100
AcDbLine
 10
6578.834805051677
 20
-12.81983690388597
 30
0.0
 11
6578.834805051677
 21
2.680163096114029
 31
0.0
  0
LINE
  5
4F0F
330
1F
100
AcDbEntity
  8
圖層1輪廓線
100
AcDbLine
 10
6598.334805051678
 20
255.180163096114
 30
0.0
 11
6598.334805051678
 21
240.6801630961136
 31
0.0
  0
LINE
  5
4F10
330
1F
100
AcDbEntity
  8
圖層1輪廓線
100
AcDbLine
 10
6599.084805051678
 20
255.930163096114
 30
0.0
 11
6599.084805051678
 21
240.680163096114
 31
0.0
  0
LINE
  5
4F11
330
1F
100
AcDbEntity
  8
圖層1輪廓線
100
AcDbLine
 10
6613.584805051679
 20
255.930163096114
 30
0.0
 11
6613.584805051679
 21
240.680163096114
 31
0.0
  0
LINE
  5
4F12
330
1F
100
AcDbEntity
  8
圖層1輪廓線
100
AcDbLine
 10
6614.334805051678
 20
255.180163096114
 30
0.0
 11
6614.334805051678
 21
240.680163096114
 31
0.0
  0
LINE
  5
4F13
330
1F
100
AcDbEntity
  8
圖層1輪廓線
100
AcDbLine
 10
6578.834805051677
 20
240.180163096114
 30
0.0
 11
6578.834805051677
 21
224.680163096114
 31
0.0
  0
LINE
  5
4F14
330
1F
100
AcDbEntity
  8
圖層1輪廓線
100
AcDbLine
 10
6592.834805051677
 20
227.680163096114
 30
0.0
 11
6592.834805051677
 21
224.680163096114
 31
0.0
  0
LINE
  5
4F15
330
1F
100
AcDbEntity
  8
圖層1輪廓線
100
AcDbLine
 10
6607.698579760778
 20
227.680163096114
 30
0.0
 11
6609.817101173874
 21
224.680163096114
 31
0.0
  0
LINE
  5
4F16
330
1F
100
AcDbEntity
  8
圖層1輪廓線
100
AcDbLine
 10
6605.568109104658
 20
227.680163096114
 30
0.0
 11
6607.686630517751
 21
224.680163096114
 31
0.0
  0
LINE
  5
4F17
330
1F
100
AcDbEntity
  8
圖層1輪廓線
100
AcDbLine
 10
6619.834805051678
 20
227.680163096114
 30
0.0
 11
6619.834805051678
 21
224.680163096114
 31
0.0
  0
LINE
  5
4F18
330
1F
100
AcDbEntity
  8
圖層1輪廓線
100
AcDbLine
 10
6626.834805051678
 20
240.180163096114
 30
0.0
 11
6626.834805051678
 21
199.680163096114
 31
0.0
  0
ARC
  5
4F19
330
1F
100
AcDbEntity
  8
圖層1輪廓線
100
AcDbCircle
 10
6606.334805051679
 20
217.7519598658391
 30
0.0
 40
22.92820323027502
100
AcDbArc
 50
72.4120462260324
 51
107.5879537739676
  0
LINE
  5
4F1A
330
1F
100
AcDbEntity
  8
圖層1輪廓線
100
AcDbLine
 10
6594.33480505168
 20
240.680163096114
 30
0.0
 11
6618.334805051678
 21
240.680163096114
 31
0.0
  0
LINE
  5
4F1B
330
1F
100
AcDbEntity
  8
圖層1輪廓線
100
AcDbLine
 10
6592.478398591127
 20
227.680163096114
 30
0.0
 11
6620.191211512228
 21
227.680163096114
 31
0.0
  0
LINE
  5
4F1C
330
1F
100
AcDbEntity
  8
圖層1輪廓線
100
AcDbLine
 10
6594.334805051677
 20
240.680163096114
 30
0.0
 11
6592.478398591127
 21
239.6083663263894
 31
0.0
  0
ARC
  5
4F1D
330
1F
100
AcDbEntity
  8
圖層1輪廓線
100
AcDbCircle
 10
6595.942500206266
 20
234.5461884998981
 30
0.0
 40
6.133974596215608
100
AcDbArc
 50
55.61575253192536
 51
124.3842474680746
  0
LINE
  5
4F1E
330
1F
100
AcDbEntity
  8
圖層1輪廓線
100
AcDbLine
 10
6592.478398591127
 20
239.6083663263894
 30
0.0
 11
6592.478398591127
 21
227.680163096114
 31
0.0
  0
LINE
  5
4F1F
330
1F
100
AcDbEntity
  8
圖層1輪廓線
100
AcDbLine
 10
6599.406601821404
 20
239.6083663263894
 30
0.0
 11
6599.406601821404
 21
227.680163096114
 31
0.0
  0
LINE
  5
4F20
330
1F
100
AcDbEntity
  8
圖層1輪廓線
100
AcDbLine
 10
6618.334805051678
 20
240.680163096114
 30
0.0
 11
6620.191211512228
 21
239.6083663263894
 31
0.0
  0
ARC
  5
4F21
330
1F
100
AcDbEntity
  8
圖層1輪廓線
100
AcDbCircle
 10
6616.727109897093
 20
234.546188499899
 30
0.0
 40
6.133974596215608
100
AcDbArc
 50
55.61575253192536
 51
124.3842474680746
  0
LINE
  5
4F22
330
1F
100
AcDbEntity
  8
圖層1輪廓線
100
AcDbLine
 10
6613.263008281954
 20
239.6083663263894
 30
0.0
 11
6613.263008281954
 21
227.680163096114
 31
0.0
  0
LINE
  5
4F23
330
1F
100
AcDbEntity
  8
圖層1輪廓線
100
AcDbLine
 10
6620.191211512228
 20
239.6083663263894
 30
0.0
 11
6620.191211512228
 21
227.680163096114
 31
0.0
  0
LINE
  5
4F24
330
1F
100
AcDbEntity
  8
圖層1輪廓線
100
AcDbLine
 10
6619.200830455461
 20
240.180163096114
 30
0.0
 11
6626.834805051678
 21
240.180163096114
 31
0.0
  0
LINE
  5
4F25
330
1F
100
AcDbEntity
  8
圖層1輪廓線
100
AcDbLine
 10
6599.334805051679
 20
256.1801630961138
 30
0.0
 11
6613.334805051678
 21
256.1801630961138
 31
0.0
  0
LINE
  5
4F26
330
1F
100
AcDbEntity
  8
圖層1輪廓線
100
AcDbLine
 10
6598.334805051678
 20
255.180163096114
 30
0.0
 11
6614.334805051678
 21
255.180163096114
 31
0.0
  0
LINE
  5
4F27
330
1F
100
AcDbEntity
  8
圖層1輪廓線
100
AcDbLine
 10
6599.334805051679
 20
256.1801630961138
 30
0.0
 11
6598.334805051678
 21
255.180163096114
 31
0.0
  0
LINE
  5
4F28
330
1F
100
AcDbEntity
  8
圖層1輪廓線
100
AcDbLine
 10
6613.334805051678
 20
256.1801630961138
 30
0.0
 11
6614.334805051678
 21
255.180163096114
 31
0.0
  0
LINE
  5
4F29
330
1F
100
AcDbEntity
  8
圖層1輪廓線
100
AcDbLine
 10
6464.834805051677
 20
2.680163096114029
 30
0.0
 11
6464.834805051677
 21
-12.8198369038862
 31
0.0
  0
LINE
  5
4F2A
330
1F
100
AcDbEntity
  8
圖層1輪廓線
100
AcDbLine
 10
6479.834805051678
 20
2.680163096114029
 30
0.0
 11
6479.834805051678
 21
-12.8198369038862
 31
0.0
  0
LINE
  5
4F2B
330
1F
100
AcDbEntity
  8
圖層1輪廓線
100
AcDbLine
 10
6598.834805051677
 20
2.680163096114029
 30
0.0
 11
6598.834805051677
 21
-12.81983690388642
 31
0.0
  0
LINE
  5
4F2C
330
1F
100
AcDbEntity
  8
圖層1輪廓線
100
AcDbLine
 10
6613.834805051678
 20
2.680163096114029
 30
0.0
 11
6613.834805051678
 21
-12.81983690388642
 31
0.0
  0
LINE
  5
4F2D
330
1F
100
AcDbEntity
  8
圖層1輪廓線
100
AcDbLine
 10
5883.444932861902
 20
240.180163096114
 30
0.0
 11
5883.444932861902
 21
427.180163096114
 31
0.0
  0
LINE
  5
4F2E
330
1F
100
AcDbEntity
  8
圖層1輪廓線
100
AcDbLine
 10
5957.444932861901
 20
427.180163096114
 30
0.0
 11
5957.444932861901
 21
240.180163096114
 31
0.0
  0
LINE
  5
4F2F
330
1F
100
AcDbEntity
  8
圖層1輪廓線
100
AcDbLine
 10
5960.444932861901
 20
427.180163096114
 30
0.0
 11
5960.444932861901
 21
240.180163096114
 31
0.0
  0
LINE
  5
4F30
330
1F
100
AcDbEntity
  8
圖層1輪廓線
100
AcDbLine
 10
5880.444932861902
 20
240.180163096114
 30
0.0
 11
5880.444932861902
 21
427.180163096114
 31
0.0
  0
LINE
  5
4F31
330
1F
100
AcDbEntity
  8
圖層1輪廓線
100
AcDbLine
 10
5940.444932861901
 20
277.180163096114
 30
0.0
 11
5940.444932861901
 21
370.180163096114
 31
0.0
  0
LINE
  5
4F32
330
1F
100
AcDbEntity
  8
圖層1輪廓線
100
AcDbLine
 10
5900.444932861901
 20
277.180163096114
 30
0.0
 11
5900.444932861901
 21
370.1801630961136
 31
0.0
  0
LINE
  5
4F33
330
1F
100
AcDbEntity
  8
圖層1輪廓線
100
AcDbLine
 10
5890.944932861901
 20
272.180163096114
 30
0.0
 11
5949.944932861901
 21
272.180163096114
 31
0.0
  0
LINE
  5
4F34
330
1F
100
AcDbEntity
  8
圖層1輪廓線
100
AcDbLine
 10
5889.444932861901
 20
277.180163096114
 30
0.0
 11
5951.444932861901
 21
277.180163096114
 31
0.0
  0
ARC
  5
4F35
330
1F
100
AcDbEntity
  8
圖層1輪廓線
100
AcDbCircle
 10
5889.444932861901
 20
274.180163096114
 30
0.0
 40
2.0
100
AcDbArc
 50
180.0
 51
270.0
  0
ARC
  5
4F36
330
1F
100
AcDbEntity
  8
圖層1輪廓線
100
AcDbCircle
 10
5889.444932861901
 20
275.180163096114
 30
0.0
 40
2.0
100
AcDbArc
 50
90.0
 51
180.0
  0
LINE
  5
4F37
330
1F
100
AcDbEntity
  8
圖層1輪廓線
100
AcDbLine
 10
5887.444932861901
 20
274.180163096114
 30
0.0
 11
5887.444932861901
 21
275.180163096114
 31
0.0
  0
ARC
  5
4F38
330
1F
100
AcDbEntity
  8
圖層1輪廓線
100
AcDbCircle
 10
5951.444932861901
 20
274.180163096114
 30
0.0
 40
2.0
100
AcDbArc
 50
270.0
 51
0.0
  0
ARC
  5
4F39
330
1F
100
AcDbEntity
  8
圖層1輪廓線
100
AcDbCircle
 10
5951.444932861901
 20
275.180163096114
 30
0.0
 40
2.0
100
AcDbArc
 50
0.0
 51
90.0
  0
LINE
  5
4F3A
330
1F
100
AcDbEntity
  8
圖層1輪廓線
100
AcDbLine
 10
5953.444932861901
 20
275.180163096114
 30
0.0
 11
5953.444932861901
 21
274.180163096114
 31
0.0
  0
LINE
  5
4F3B
330
1F
100
AcDbEntity
  8
圖層1輪廓線
100
AcDbLine
 10
5880.444932861902
 20
427.180163096114
 30
0.0
 11
5960.444932861901
 21
427.180163096114
 31
0.0
  0
LINE
  5
4F3C
330
1F
100
AcDbEntity
  8
圖層1輪廓線
100
AcDbLine
 10
5950.374510976806
 20
360.3200010190812
 30
0.0
 11
5892.983198723428
 21
303.0281147286633
 31
0.0
  0
LINE
  5
4F3D
330
1F
100
AcDbEntity
  8
圖層1輪廓線
100
AcDbLine
 10
5946.842043571585
 20
363.8585987683382
 30
0.0
 11
5889.450731318207
 21
306.5667124779202
 31
0.0
  0
LINE
  5
4F3E
330
1F
100
AcDbEntity
  8
圖層1輪廓線
100
AcDbLine
 10
5887.535967518092
 20
414.1801630961126
 30
0.0
 11
5887.535967518092
 21
390.1801630961127
 31
0.0
  0
LINE
  5
4F3F
330
1F
100
AcDbEntity
  8
圖層1輪廓線
100
AcDbLine
 10
5903.990450189997
 20
414.1801630961135
 30
0.0
 11
5903.990450189997
 21
390.1801630961131
 31
0.0
  0
LINE
  5
4F40
330
1F
100
AcDbEntity
  8
圖層1輪廓線
100
AcDbLine
 10
5953.353898205708
 20
414.1801630961131
 30
0.0
 11
5953.353898205708
 21
390.1801630961131
 31
0.0
  0
LINE
  5
4F41
330
1F
100
AcDbEntity
  8
圖層1輪廓線
100
AcDbLine
 10
5936.899415533805
 20
414.1801630961131
 30
0.0
 11
5936.899415533805
 21
390.1801630961131
 31
0.0
  0
LINE
  5
4F42
330
1F
100
AcDbEntity
  8
圖層1輪廓線
100
AcDbLine
 10
5891.944932861901
 20
372.1801630961127
 30
0.0
 11
5948.944932861901
 21
372.1801630961127
 31
0.0
  0
ARC
  5
4F43
330
1F
100
AcDbEntity
  8
圖層1輪廓線
100
AcDbCircle
 10
5920.444932861901
 20
433.8051630961117
 30
0.0
 40
46.62499999999855
100
AcDbArc
 50
249.3345218171076
 51
290.6654781828924
  0
LINE
  5
4F44
330
1F
100
AcDbEntity
  8
圖層1輪廓線
100
AcDbLine
 10
5945.126656869757
 20
387.1801630961131
 30
0.0
 11
5895.763208854045
 21
387.1801630961131
 31
0.0
  0
LINE
  5
4F45
330
1F
100
AcDbEntity
  8
圖層1輪廓線
100
AcDbLine
 10
5900.444932861901
 20
370.180163096114
 30
0.0
 11
5940.444932861901
 21
370.180163096114
 31
0.0
  0
ARC
  5
4F46
330
1F
100
AcDbEntity
  8
圖層1輪廓線
100
AcDbCircle
 10
5895.763208854045
 20
399.961413096114
 30
0.0
 40
12.78125000000118
100
AcDbArc
 50
229.9320129505278
 51
310.0679870494722
  0
LINE
  5
4F47
330
1F
100
AcDbEntity
  8
圖層1輪廓線
100
AcDbLine
 10
5900.444932861901
 20
370.180163096114
 30
0.0
 11
5902.444932861901
 21
372.1801630961131
 31
0.0
  0
LINE
  5
4F48
330
1F
100
AcDbEntity
  8
圖層1輪廓線
100
AcDbLine
 10
5891.944932861901
 20
387.7638264491438
 30
0.0
 11
5891.944932861901
 21
372.1801630961127
 31
0.0
  0
ARC
  5
4F49
330
1F
100
AcDbEntity
  8
圖層1輪廓線
100
AcDbCircle
 10
5903.990450189997
 20
390.1801630961127
 30
0.0
 40
0.0000000000002542
100
AcDbArc
 50
180.0
 51
80.13597409882518
  0
ARC
  5
4F4A
330
1F
100
AcDbEntity
  8
圖層1輪廓線
100
AcDbCircle
 10
5945.126656869757
 20
399.9614130961131
 30
0.0
 40
12.78125000000017
100
AcDbArc
 50
229.9320129505278
 51
310.0679870494722
  0
LINE
  5
4F4B
330
1F
100
AcDbEntity
  8
圖層1輪廓線
100
AcDbLine
 10
5938.444932861902
 20
372.1801630961131
 30
0.0
 11
5940.444932861901
 21
370.180163096114
 31
0.0
  0
LINE
  5
4F4C
330
1F
100
AcDbEntity
  8
圖層1輪廓線
100
AcDbLine
 10
5948.944932861901
 20
387.7638264491438
 30
0.0
 11
5948.944932861901
 21
372.1801630961127
 31
0.0
  0
ARC
  5
4F4D
330
1F
100
AcDbEntity
  8
圖層1輪廓線
100
AcDbCircle
 10
5920.444932861901
 20
485.867663096114
 30
0.0
 40
68.6875000000009
100
AcDbArc
 50
256.1396806366602
 51
283.8603193633399
  0
ARC
  5
4F4E
330
1F
100
AcDbEntity
  8
圖層1輪廓線
100
AcDbCircle
 10
5920.444932861901
 20
358.49266309611
 30
0.0
 40
68.68750000000348
100
AcDbArc
 50
76.13968063666018
 51
103.8603193633398
  0
LINE
  5
4F4F
330
1F
100
AcDbEntity
  8
圖層1輪廓線
100
AcDbLine
 10
5895.763208854045
 20
427.180163096114
 30
0.0
 11
5945.126656869757
 21
427.180163096114
 31
0.0
  0
LINE
  5
4F50
330
1F
100
AcDbEntity
  8
圖層1輪廓線
100
AcDbLine
 10
5895.763208854045
 20
417.1801630961131
 30
0.0
 11
5945.126656869757
 21
417.1801630961131
 31
0.0
  0
ARC
  5
4F51
330
1F
100
AcDbEntity
  8
圖層1輪廓線
100
AcDbCircle
 10
5920.444932861901
 20
370.5551630961118
 30
0.0
 40
46.62500000000131
100
AcDbArc
 50
69.33452181710759
 51
110.6654781828924
  0
LINE
  5
4F52
330
1F
100
AcDbEntity
  8
圖層1輪廓線
100
AcDbLine
 10
5945.126656869757
 20
417.1801630961131
 30
0.0
 11
5895.763208854045
 21
417.1801630961131
 31
0.0
  0
LINE
  5
4F53
330
1F
100
AcDbEntity
  8
圖層1輪廓線
100
AcDbLine
 10
5904.444932861901
 20
427.180163096114
 30
0.0
 11
5936.444932861901
 21
427.180163096114
 31
0.0
  0
ARC
  5
4F54
330
1F
100
AcDbEntity
  8
圖層1輪廓線
100
AcDbCircle
 10
5895.763208854045
 20
435.1020380961149
 30
0.0
 40
17.92187500000135
100
AcDbArc
 50
242.6734409628672
 51
297.3265590371327
  0
ARC
  5
4F55
330
1F
100
AcDbEntity
  8
圖層1輪廓線
100
AcDbCircle
 10
5895.763208854045
 20
409.2582880961136
 30
0.0
 40
17.92187499999979
100
AcDbArc
 50
62.67344096286728
 51
117.3265590371327
  0
ARC
  5
4F56
330
1F
100
AcDbEntity
  8
圖層1輪廓線
100
AcDbCircle
 10
5895.763208854045
 20
404.3989130961112
 30
0.0
 40
12.78125000000156
100
AcDbArc
 50
49.93201295052776
 51
130.0679870494722
  0
LINE
  5
4F57
330
1F
100
AcDbEntity
  8
圖層1輪廓線
100
AcDbLine
 10
5887.535967518092
 20
418.7833975106987
 30
0.0
 11
5887.535967518092
 21
425.1801630961136
 31
0.0
  0
LINE
  5
4F58
330
1F
100
AcDbEntity
  8
圖層1輪廓線
100
AcDbLine
 10
5903.990450189997
 20
419.1801630961131
 30
0.0
 11
5903.990450189997
 21
425.1801630961136
 31
0.0
  0
ARC
  5
4F59
330
1F
100
AcDbEntity
  8
圖層1輪廓線
100
AcDbCircle
 10
5945.126656869757
 20
435.1020380961144
 30
0.0
 40
17.92187500000115
100
AcDbArc
 50
242.6734409628672
 51
297.3265590371327
  0
ARC
  5
4F5A
330
1F
100
AcDbEntity
  8
圖層1輪廓線
100
AcDbCircle
 10
5945.126656869757
 20
409.258288096114
 30
0.0
 40
17.92187499999979
100
AcDbArc
 50
64.03344210089037
 51
117.3265590371327
  0
ARC
  5
4F5B
330
1F
100
AcDbEntity
  8
圖層1輪廓線
100
AcDbCircle
 10
5945.126656869757
 20
404.3989130961121
 30
0.0
 40
12.78125000000069
100
AcDbArc
 50
49.93201295052776
 51
130.0679870494722
  0
LINE
  5
4F5C
330
1F
100
AcDbEntity
  8
圖層1輪廓線
100
AcDbLine
 10
5936.899415533805
 20
419.1801630961135
 30
0.0
 11
5936.899415533805
 21
425.1801630961136
 31
0.0
  0
LINE
  5
4F5D
330
1F
100
AcDbEntity
  8
圖層1輪廓線
100
AcDbLine
 10
5953.353898205711
 20
419.1801630961131
 30
0.0
 11
5953.353898205711
 21
425.1801630961136
 31
0.0
  0
LINE
  5
4F5E
330
1F
100
AcDbEntity
  8
圖層1輪廓線
100
AcDbLine
 10
6502.334805051678
 20
240.180163096114
 30
0.0
 11
6502.334805051678
 21
427.180163096114
 31
0.0
  0
LINE
  5
4F5F
330
1F
100
AcDbEntity
  8
圖層1輪廓線
100
AcDbLine
 10
6576.334805051678
 20
427.180163096114
 30
0.0
 11
6576.334805051678
 21
240.180163096114
 31
0.0
  0
LINE
  5
4F60
330
1F
100
AcDbEntity
  8
圖層1輪廓線
100
AcDbLine
 10
6579.334805051678
 20
427.180163096114
 30
0.0
 11
6579.334805051678
 21
240.180163096114
 31
0.0
  0
LINE
  5
4F61
330
1F
100
AcDbEntity
  8
圖層1輪廓線
100
AcDbLine
 10
6499.334805051678
 20
240.180163096114
 30
0.0
 11
6499.334805051678
 21
427.180163096114
 31
0.0
  0
LINE
  5
4F62
330
1F
100
AcDbEntity
  8
圖層1輪廓線
100
AcDbLine
 10
6559.334805051678
 20
277.180163096114
 30
0.0
 11
6559.334805051678
 21
370.180163096114
 31
0.0
  0
LINE
  5
4F63
330
1F
100
AcDbEntity
  8
圖層1輪廓線
100
AcDbLine
 10
6519.334805051677
 20
277.180163096114
 30
0.0
 11
6519.334805051677
 21
370.180163096114
 31
0.0
  0
LINE
  5
4F64
330
1F
100
AcDbEntity
  8
圖層1輪廓線
100
AcDbLine
 10
6509.834805051678
 20
272.180163096114
 30
0.0
 11
6568.834805051678
 21
272.180163096114
 31
0.0
  0
LINE
  5
4F65
330
1F
100
AcDbEntity
  8
圖層1輪廓線
100
AcDbLine
 10
6508.334805051678
 20
277.180163096114
 30
0.0
 11
6570.334805051678
 21
277.180163096114
 31
0.0
  0
ARC
  5
4F66
330
1F
100
AcDbEntity
  8
圖層1輪廓線
100
AcDbCircle
 10
6508.334805051678
 20
274.180163096114
 30
0.0
 40
2.0
100
AcDbArc
 50
180.0
 51
270.0
  0
ARC
  5
4F67
330
1F
100
AcDbEntity
  8
圖層1輪廓線
100
AcDbCircle
 10
6508.334805051678
 20
275.180163096114
 30
0.0
 40
2.0
100
AcDbArc
 50
90.0
 51
180.0
  0
LINE
  5
4F68
330
1F
100
AcDbEntity
  8
圖層1輪廓線
100
AcDbLine
 10
6506.334805051678
 20
274.180163096114
 30
0.0
 11
6506.334805051678
 21
275.180163096114
 31
0.0
  0
ARC
  5
4F69
330
1F
100
AcDbEntity
  8
圖層1輪廓線
100
AcDbCircle
 10
6570.334805051678
 20
274.180163096114
 30
0.0
 40
2.0
100
AcDbArc
 50
270.0
 51
0.0
  0
ARC
  5
4F6A
330
1F
100
AcDbEntity
  8
圖層1輪廓線
100
AcDbCircle
 10
6570.334805051678
 20
275.180163096114
 30
0.0
 40
2.0
100
AcDbArc
 50
0.0
 51
90.0
  0
LINE
  5
4F6B
330
1F
100
AcDbEntity
  8
圖層1輪廓線
100
AcDbLine
 10
6572.334805051678
 20
275.180163096114
 30
0.0
 11
6572.334805051678
 21
274.180163096114
 31
0.0
  0
LINE
  5
4F6C
330
1F
100
AcDbEntity
  8
圖層1輪廓線
100
AcDbLine
 10
6567.283510562349
 20
360.3004315186172
 30
0.0
 11
6508.153071540418
 21
296.0640758199184
 31
0.0
  0
LINE
  5
4F6D
330
1F
100
AcDbEntity
  8
圖層1輪廓線
100
AcDbLine
 10
6570.962224060128
 20
356.9141257141637
 30
0.0
 11
6511.831785038194
 21
292.6777700154648
 31
0.0
  0
ARC
  5
4F6E
330
1F
100
AcDbEntity
  8
圖層1輪廓線
100
AcDbCircle
 10
6553.584805051677
 20
375.4145380961127
 30
0.0
 40
51.76562500000131
100
AcDbArc
 50
74.02134646722451
 51
105.9786535327755
  0
ARC
  5
4F6F
330
1F
100
AcDbEntity
  8
圖層1輪廓線
100
AcDbCircle
 10
6553.584805051681
 20
468.9457880961136
 30
0.0
 40
51.76562499999954
100
AcDbArc
 50
254.0213464672245
 51
285.9786535327755
  0
LINE
  5
4F70
330
1F
100
AcDbEntity
  8
圖層1輪廓線
100
AcDbLine
 10
6523.001925854323
 20
417.180163096114
 30
0.0
 11
6555.667684249034
 21
417.180163096114
 31
0.0
  0
LINE
  5
4F71
330
1F
100
AcDbEntity
  8
圖層1輪廓線
100
AcDbLine
 10
6523.001925854323
 20
427.180163096114
 30
0.0
 11
6555.667684249032
 21
427.180163096114
 31
0.0
  0
ARC
  5
4F72
330
1F
100
AcDbEntity
  8
圖層1輪廓線
100
AcDbCircle
 10
6553.584805051677
 20
381.8364130961136
 30
0.0
 40
35.34375000000031
100
AcDbArc
 50
66.2226839207388
 51
113.7773160792612
  0
LINE
  5
4F73
330
1F
100
AcDbEntity
  8
圖層1輪廓線
100
AcDbLine
 10
6553.584805051677
 20
417.180163096114
 30
0.0
 11
6525.084805051678
 21
417.180163096114
 31
0.0
  0
ARC
  5
4F74
330
1F
100
AcDbEntity
  8
圖層1輪廓線
100
AcDbCircle
 10
6553.584805051677
 20
422.5239130961135
 30
0.0
 40
35.34374999999969
100
AcDbArc
 50
246.2226839207388
 51
293.7773160792612
  0
LINE
  5
4F75
330
1F
100
AcDbEntity
  8
圖層1輪廓線
100
AcDbLine
 10
6567.834805051678
 20
372.180163096114
 30
0.0
 11
6510.834805051679
 21
372.180163096114
 31
0.0
  0
LINE
  5
4F76
330
1F
100
AcDbEntity
  8
圖層1輪廓線
100
AcDbLine
 10
6567.834805051678
 20
387.180163096114
 30
0.0
 11
6510.834805051679
 21
387.180163096114
 31
0.0
  0
LINE
  5
4F77
330
1F
100
AcDbEntity
  8
圖層1輪廓線
100
AcDbLine
 10
6499.334805051678
 20
427.180163096114
 30
0.0
 11
6579.334805051678
 21
427.180163096114
 31
0.0
  0
LINE
  5
4F78
330
1F
100
AcDbEntity
  8
圖層1輪廓線
100
AcDbLine
 10
6523.334805051678
 20
427.180163096114
 30
0.0
 11
6555.334805051677
 21
427.180163096114
 31
0.0
  0
LINE
  5
4F79
330
1F
100
AcDbEntity
  8
圖層1輪廓線
100
AcDbLine
 10
6521.334805051679
 20
372.180163096114
 30
0.0
 11
6557.334805051678
 21
372.1801630961145
 31
0.0
  0
LINE
  5
4F7A
330
1F
100
AcDbEntity
  8
圖層1輪廓線
100
AcDbLine
 10
6519.334805051677
 20
370.180163096114
 30
0.0
 11
6559.334805051678
 21
370.180163096114
 31
0.0
  0
LINE
  5
4F7B
330
1F
100
AcDbEntity
  8
圖層1輪廓線
100
AcDbLine
 10
6510.834805051678
 20
414.180163096114
 30
0.0
 11
6510.834805051678
 21
372.180163096114
 31
0.0
  0
LINE
  5
4F7C
330
1F
100
AcDbEntity
  8
圖層1輪廓線
100
AcDbLine
 10
6539.334805051677
 20
414.180163096114
 30
0.0
 11
6539.334805051677
 21
390.180163096114
 31
0.0
  0
ARC
  5
4F7D
330
1F
100
AcDbEntity
  8
圖層1輪廓線
100
AcDbCircle
 10
6525.084805051678
 20
422.5239130961135
 30
0.0
 40
35.34374999999969
100
AcDbArc
 50
246.2226839207388
 51
293.7773160792612
  0
LINE
  5
4F7E
330
1F
100
AcDbEntity
  8
圖層1輪廓線
100
AcDbLine
 10
6519.334805051677
 20
370.180163096114
 30
0.0
 11
6521.334805051679
 21
372.180163096114
 31
0.0
  0
LINE
  5
4F7F
330
1F
100
AcDbEntity
  8
圖層1輪廓線
100
AcDbLine
 10
6521.334805051679
 20
372.180163096114
 30
0.0
 11
6523.334805051678
 21
372.180163096114
 31
0.0
  0
LINE
  5
4F80
330
1F
100
AcDbEntity
  8
圖層1輪廓線
100
AcDbLine
 10
6521.334805051679
 20
372.180163096114
 30
0.0
 11
6523.334805051678
 21
372.180163096114
 31
0.0
  0
ARC
  5
4F81
330
1F
100
AcDbEntity
  8
圖層1輪廓線
100
AcDbCircle
 10
6525.084805051678
 20
375.4145380961127
 30
0.0
 40
51.76562500000131
100
AcDbArc
 50
74.02134646722451
 51
105.9786535327755
  0
ARC
  5
4F82
330
1F
100
AcDbEntity
  8
圖層1輪廓線
100
AcDbCircle
 10
6525.084805051678
 20
468.9457880961127
 30
0.0
 40
51.76562499999868
100
AcDbArc
 50
254.0213464672245
 51
285.9786535327755
  0
ARC
  5
4F83
330
1F
100
AcDbEntity
  8
圖層1輪廓線
100
AcDbCircle
 10
6525.084805051678
 20
381.8364130961136
 30
0.0
 40
35.34375000000031
100
AcDbArc
 50
66.2226839207388
 51
113.7773160792612
  0
LINE
  5
4F84
330
1F
100
AcDbEntity
  8
圖層1輪廓線
100
AcDbLine
 10
6510.834805051678
 20
419.180163096114
 30
0.0
 11
6510.834805051678
 21
425.180163096114
 31
0.0
  0
LINE
  5
4F85
330
1F
100
AcDbEntity
  8
圖層1輪廓線
100
AcDbLine
 10
6539.334805051677
 20
425.180163096114
 30
0.0
 11
6539.334805051677
 21
419.180163096114
 31
0.0
  0
LINE
  5
4F86
330
1F
100
AcDbEntity
  8
圖層1輪廓線
100
AcDbLine
 10
6567.834805051678
 20
414.180163096114
 30
0.0
 11
6567.834805051678
 21
372.180163096114
 31
0.0
  0
LINE
  5
4F87
330
1F
100
AcDbEntity
  8
圖層1輪廓線
100
AcDbLine
 10
6559.334805051678
 20
370.1801630961145
 30
0.0
 11
6557.334805051678
 21
372.1801630961145
 31
0.0
  0
LINE
  5
4F88
330
1F
100
AcDbEntity
  8
圖層1輪廓線
100
AcDbLine
 10
6557.334805051678
 20
372.1801630961145
 30
0.0
 11
6555.334805051677
 21
372.1801630961145
 31
0.0
  0
LINE
  5
4F89
330
1F
100
AcDbEntity
  8
圖層1輪廓線
100
AcDbLine
 10
6557.334805051678
 20
372.1801630961145
 30
0.0
 11
6555.334805051677
 21
372.180163096114
 31
0.0
  0
LINE
  5
4F8A
330
1F
100
AcDbEntity
  8
圖層1輪廓線
100
AcDbLine
 10
6567.834805051678
 20
419.180163096114
 30
0.0
 11
6567.834805051678
 21
425.180163096114
 31
0.0
  0
LINE
  5
4F8B
330
1F
100
AcDbEntity
  8
圖層1輪廓線
100
AcDbLine
 10
6499.334805051678
 20
240.180163096114
 30
0.0
 11
6579.334805051678
 21
240.180163096114
 31
0.0
  0
LINE
  5
4F8C
330
1F
100
AcDbEntity
  8
圖層1輪廓線
100
AcDbLine
 10
5880.444932861902
 20
240.180163096114
 30
0.0
 11
5960.444932861901
 21
240.180163096114
 31
0.0
  0
LINE
  5
4F8D
330
1F
100
AcDbEntity
  8
圖層1輪廓線
100
AcDbLine
 10
5832.944932861901
 20
27.68016309611403
 30
0.0
 11
6007.944932861901
 21
27.68016309611403
 31
0.0
  0
LINE
  5
4F8E
330
1F
100
AcDbEntity
  8
圖層1輪廓線
100
AcDbLine
 10
5832.944932861901
 20
199.680163096114
 30
0.0
 11
6007.944932861901
 21
199.680163096114
 31
0.0
  0
LINE
  5
4F8F
330
1F
100
AcDbEntity
  8
圖層1輪廓線
100
AcDbLine
 10
5866.310958265685
 20
240.180163096114
 30
0.0
 11
5974.578907458117
 21
240.180163096114
 31
0.0
  0
LINE
  5
4F90
330
1F
100
AcDbEntity
  8
圖層1輪廓線
100
AcDbLine
 10
5832.944932861901
 20
-12.81983690388597
 30
0.0
 11
6007.944932861901
 21
-12.81983690388642
 31
0.0
  0
LINE
  5
4F91
330
1F
100
AcDbEntity
  8
圖層1輪廓線
100
AcDbLine
 10
5947.944932861901
 20
2.680163096114029
 30
0.0
 11
6007.944932861901
 21
2.680163096114029
 31
0.0
  0
LINE
  5
4F92
330
1F
100
AcDbEntity
  8
圖層1輪廓線
100
AcDbLine
 10
5947.944932861901
 20
224.680163096114
 30
0.0
 11
6007.944932861901
 21
224.680163096114
 31
0.0
  0
LINE
  5
4F93
330
1F
100
AcDbEntity
  8
圖層1輪廓線
100
AcDbLine
 10
5832.944932861901
 20
240.180163096114
 30
0.0
 11
5832.944932861901
 21
199.680163096114
 31
0.0
  0
LINE
  5
4F94
330
1F
100
AcDbEntity
  8
圖層1輪廓線
100
AcDbLine
 10
5840.444932861902
 20
27.68016309611403
 30
0.0
 11
5840.444932861902
 21
199.680163096114
 31
0.0
  0
LINE
  5
4F95
330
1F
100
AcDbEntity
  8
圖層1輪廓線
100
AcDbLine
 10
5860.944932861901
 20
27.68016309611403
 30
0.0
 11
5860.944932861901
 21
199.680163096114
 31
0.0
  0
LINE
  5
4F96
330
1F
100
AcDbEntity
  8
圖層1輪廓線
100
AcDbLine
 10
5845.944932861901
 20
27.68016309611403
 30
0.0
 11
5845.944932861901
 21
199.680163096114
 31
0.0
  0
LINE
  5
4F97
330
1F
100
AcDbEntity
  8
圖層1輪廓線
100
AcDbLine
 10
5832.944932861901
 20
-12.81983690388597
 30
0.0
 11
5832.944932861901
 21
27.68016309611403
 31
0.0
  0
LINE
  5
4F98
330
1F
100
AcDbEntity
  8
圖層1輪廓線
100
AcDbLine
 10
5832.944932861901
 20
2.680163096114029
 30
0.0
 11
5892.944932861901
 21
2.680163096114029
 31
0.0
  0
LINE
  5
4F99
330
1F
100
AcDbEntity
  8
圖層1輪廓線
100
AcDbLine
 10
5845.944932861901
 20
2.680163096114029
 30
0.0
 11
5845.944932861901
 21
-12.8198369038862
 31
0.0
  0
LINE
  5
4F9A
330
1F
100
AcDbEntity
  8
圖層1輪廓線
100
AcDbLine
 10
5860.944932861901
 20
2.680163096114029
 30
0.0
 11
5860.944932861901
 21
-12.8198369038862
 31
0.0
  0
LINE
  5
4F9B
330
1F
100
AcDbEntity
  8
圖層1輪廓線
100
AcDbLine
 10
5880.944932861901
 20
-12.81983690388597
 30
0.0
 11
5880.944932861901
 21
2.680163096114029
 31
0.0
  0
LINE
  5
4F9C
330
1F
100
AcDbEntity
  8
圖層1輪廓線
100
AcDbLine
 10
5959.944932861901
 20
-12.81983690388597
 30
0.0
 11
5959.944932861901
 21
2.680163096114029
 31
0.0
  0
LINE
  5
4F9D
330
1F
100
AcDbEntity
  8
圖層1輪廓線
100
AcDbLine
 10
5890.444932861901
 20
272.180163096114
 30
0.0
 11
5950.444932861901
 21
272.180163096114
 31
0.0
  0
LINE
  5
4F9E
330
1F
100
AcDbEntity
  8
圖層1輪廓線
100
AcDbLine
 10
5890.444932861901
 20
272.180163096114
 30
0.0
 11
5890.444932861901
 21
240.180163096114
 31
0.0
  0
LINE
  5
4F9F
330
1F
100
AcDbEntity
  8
圖層1輪廓線
100
AcDbLine
 10
5846.444932861901
 20
256.1801630961138
 30
0.0
 11
5860.444932861901
 21
256.1801630961138
 31
0.0
  0
LINE
  5
4FA0
330
1F
100
AcDbEntity
  8
圖層1輪廓線
100
AcDbLine
 10
5845.444932861902
 20
255.180163096114
 30
0.0
 11
5861.444932861901
 21
255.180163096114
 31
0.0
  0
ARC
  5
4FA1
330
1F
100
AcDbEntity
  8
圖層1輪廓線
100
AcDbCircle
 10
5853.444932861901
 20
217.7519598658391
 30
0.0
 40
22.92820323027502
100
AcDbArc
 50
72.4120462260324
 51
107.5879537739676
  0
LINE
  5
4FA2
330
1F
100
AcDbEntity
  8
圖層1輪廓線
100
AcDbLine
 10
5839.58852640135
 20
227.680163096114
 30
0.0
 11
5867.301339322452
 21
227.680163096114
 31
0.0
  0
LINE
  5
4FA3
330
1F
100
AcDbEntity
  8
圖層1輪廓線
100
AcDbLine
 10
5841.444932861901
 20
240.680163096114
 30
0.0
 11
5865.444932861901
 21
240.680163096114
 31
0.0
  0
LINE
  5
4FA4
330
1F
100
AcDbEntity
  8
圖層1輪廓線
100
AcDbLine
 10
5854.808707571001
 20
227.680163096114
 30
0.0
 11
5856.927228984096
 21
224.680163096114
 31
0.0
  0
LINE
  5
4FA5
330
1F
100
AcDbEntity
  8
圖層1輪廓線
100
AcDbLine
 10
5832.944932861901
 20
224.680163096114
 30
0.0
 11
5892.944932861901
 21
224.680163096114
 31
0.0
  0
LINE
  5
4FA6
330
1F
100
AcDbEntity
  8
圖層1輪廓線
100
AcDbLine
 10
5846.194932861902
 20
255.930163096114
 30
0.0
 11
5846.194932861902
 21
240.680163096114
 31
0.0
  0
LINE
  5
4FA7
330
1F
100
AcDbEntity
  8
圖層1輪廓線
100
AcDbLine
 10
5845.444932861902
 20
255.180163096114
 30
0.0
 11
5845.444932861902
 21
240.6801630961136
 31
0.0
  0
LINE
  5
4FA8
330
1F
100
AcDbEntity
  8
圖層1輪廓線
100
AcDbLine
 10
5832.944932861901
 20
240.180163096114
 30
0.0
 11
5840.578907458117
 21
240.180163096114
 31
0.0
  0
LINE
  5
4FA9
330
1F
100
AcDbEntity
  8
圖層1輪廓線
100
AcDbLine
 10
5846.516729631625
 20
239.6083663263894
 30
0.0
 11
5846.516729631625
 21
227.680163096114
 31
0.0
  0
LINE
  5
4FAA
330
1F
100
AcDbEntity
  8
圖層1輪廓線
100
AcDbLine
 10
5839.58852640135
 20
239.6083663263894
 30
0.0
 11
5839.58852640135
 21
227.680163096114
 31
0.0
  0
LINE
  5
4FAB
330
1F
100
AcDbEntity
  8
圖層1輪廓線
100
AcDbLine
 10
5841.444932861901
 20
240.680163096114
 30
0.0
 11
5839.58852640135
 21
239.6083663263894
 31
0.0
  0
ARC
  5
4FAC
330
1F
100
AcDbEntity
  8
圖層1輪廓線
100
AcDbCircle
 10
5843.052628016488
 20
234.5461884998981
 30
0.0
 40
6.133974596215608
100
AcDbArc
 50
55.61575253192536
 51
124.3842474680746
  0
LINE
  5
4FAD
330
1F
100
AcDbEntity
  8
圖層1輪廓線
100
AcDbLine
 10
5852.67823691488
 20
227.680163096114
 30
0.0
 11
5854.796758327974
 21
224.680163096114
 31
0.0
  0
LINE
  5
4FAE
330
1F
100
AcDbEntity
  8
圖層1輪廓線
100
AcDbLine
 10
5839.944932861901
 20
227.680163096114
 30
0.0
 11
5839.944932861901
 21
224.680163096114
 31
0.0
  0
LINE
  5
4FAF
330
1F
100
AcDbEntity
  8
圖層1輪廓線
100
AcDbLine
 10
5846.444932861901
 20
256.1801630961138
 30
0.0
 11
5845.444932861902
 21
255.180163096114
 31
0.0
  0
LINE
  5
4FB0
330
1F
100
AcDbEntity
  8
圖層1輪廓線
100
AcDbLine
 10
5860.694932861901
 20
255.930163096114
 30
0.0
 11
5860.694932861901
 21
240.680163096114
 31
0.0
  0
LINE
  5
4FB1
330
1F
100
AcDbEntity
  8
圖層1輪廓線
100
AcDbLine
 10
5861.444932861901
 20
255.180163096114
 30
0.0
 11
5861.444932861901
 21
240.680163096114
 31
0.0
  0
LINE
  5
4FB2
330
1F
100
AcDbEntity
  8
圖層1輪廓線
100
AcDbLine
 10
5867.301339322452
 20
239.6083663263894
 30
0.0
 11
5867.301339322452
 21
227.680163096114
 31
0.0
  0
LINE
  5
4FB3
330
1F
100
AcDbEntity
  8
圖層1輪廓線
100
AcDbLine
 10
5860.373136092178
 20
239.6083663263894
 30
0.0
 11
5860.373136092178
 21
227.680163096114
 31
0.0
  0
LINE
  5
4FB4
330
1F
100
AcDbEntity
  8
圖層1輪廓線
100
AcDbLine
 10
5865.444932861901
 20
240.680163096114
 30
0.0
 11
5867.301339322452
 21
239.6083663263894
 31
0.0
  0
ARC
  5
4FB5
330
1F
100
AcDbEntity
  8
圖層1輪廓線
100
AcDbCircle
 10
5863.837237707315
 20
234.546188499899
 30
0.0
 40
6.133974596215608
100
AcDbArc
 50
55.61575253192536
 51
124.3842474680746
  0
LINE
  5
4FB6
330
1F
100
AcDbEntity
  8
圖層1輪廓線
100
AcDbLine
 10
5866.944932861901
 20
227.680163096114
 30
0.0
 11
5866.944932861901
 21
224.680163096114
 31
0.0
  0
LINE
  5
4FB7
330
1F
100
AcDbEntity
  8
圖層1輪廓線
100
AcDbLine
 10
5880.944932861901
 20
240.180163096114
 30
0.0
 11
5880.944932861901
 21
224.680163096114
 31
0.0
  0
LINE
  5
4FB8
330
1F
100
AcDbEntity
  8
圖層1輪廓線
100
AcDbLine
 10
5860.444932861901
 20
256.1801630961138
 30
0.0
 11
5861.444932861901
 21
255.180163096114
 31
0.0
  0
LINE
  5
4FB9
330
1F
100
AcDbEntity
  8
圖層1輪廓線
100
AcDbLine
 10
5950.444932861901
 20
272.180163096114
 30
0.0
 11
5950.444932861901
 21
240.180163096114
 31
0.0
  0
LINE
  5
4FBA
330
1F
100
AcDbEntity
  8
圖層1輪廓線
100
AcDbLine
 10
5959.944932861901
 20
240.180163096114
 30
0.0
 11
5959.944932861901
 21
224.680163096114
 31
0.0
  0
LINE
  5
4FBB
330
1F
100
AcDbEntity
  8
圖層1輪廓線
100
AcDbLine
 10
6007.944932861901
 20
240.180163096114
 30
0.0
 11
6007.944932861901
 21
199.680163096114
 31
0.0
  0
LINE
  5
4FBC
330
1F
100
AcDbEntity
  8
圖層1輪廓線
100
AcDbLine
 10
6000.444932861901
 20
27.68016309611403
 30
0.0
 11
6000.444932861901
 21
199.680163096114
 31
0.0
  0
LINE
  5
4FBD
330
1F
100
AcDbEntity
  8
圖層1輪廓線
100
AcDbLine
 10
5994.944932861901
 20
27.68016309611403
 30
0.0
 11
5994.944932861901
 21
199.680163096114
 31
0.0
  0
LINE
  5
4FBE
330
1F
100
AcDbEntity
  8
圖層1輪廓線
100
AcDbLine
 10
5979.944932861901
 20
27.68016309611403
 30
0.0
 11
5979.944932861901
 21
199.680163096114
 31
0.0
  0
LINE
  5
4FBF
330
1F
100
AcDbEntity
  8
圖層1輪廓線
100
AcDbLine
 10
6007.944932861901
 20
-12.81983690388597
 30
0.0
 11
6007.944932861901
 21
27.68016309611403
 31
0.0
  0
LINE
  5
4FC0
330
1F
100
AcDbEntity
  8
圖層1輪廓線
100
AcDbLine
 10
5979.944932861901
 20
2.680163096114029
 30
0.0
 11
5979.944932861901
 21
-12.81983690388642
 31
0.0
  0
LINE
  5
4FC1
330
1F
100
AcDbEntity
  8
圖層1輪廓線
100
AcDbLine
 10
5994.944932861901
 20
2.680163096114029
 30
0.0
 11
5994.944932861901
 21
-12.81983690388642
 31
0.0
  0
LINE
  5
4FC2
330
1F
100
AcDbEntity
  8
圖層1輪廓線
100
AcDbLine
 10
5995.444932861901
 20
255.180163096114
 30
0.0
 11
5995.444932861901
 21
240.680163096114
 31
0.0
  0
LINE
  5
4FC3
330
1F
100
AcDbEntity
  8
圖層1輪廓線
100
AcDbLine
 10
5994.694932861901
 20
255.930163096114
 30
0.0
 11
5994.694932861901
 21
240.680163096114
 31
0.0
  0
LINE
  5
4FC4
330
1F
100
AcDbEntity
  8
圖層1輪廓線
100
AcDbLine
 10
5980.194932861901
 20
255.930163096114
 30
0.0
 11
5980.194932861901
 21
240.680163096114
 31
0.0
  0
LINE
  5
4FC5
330
1F
100
AcDbEntity
  8
圖層1輪廓線
100
AcDbLine
 10
5979.444932861901
 20
255.180163096114
 30
0.0
 11
5979.444932861901
 21
240.6801630961136
 31
0.0
  0
LINE
  5
4FC6
330
1F
100
AcDbEntity
  8
圖層1輪廓線
100
AcDbLine
 10
5973.58852640135
 20
227.680163096114
 30
0.0
 11
6001.301339322452
 21
227.680163096114
 31
0.0
  0
LINE
  5
4FC7
330
1F
100
AcDbEntity
  8
圖層1輪廓線
100
AcDbLine
 10
5975.444932861901
 20
240.680163096114
 30
0.0
 11
5999.444932861901
 21
240.680163096114
 31
0.0
  0
ARC
  5
4FC8
330
1F
100
AcDbEntity
  8
圖層1輪廓線
100
AcDbCircle
 10
5987.444932861901
 20
217.7519598658391
 30
0.0
 40
22.92820323027502
100
AcDbArc
 50
72.4120462260324
 51
107.5879537739676
  0
LINE
  5
4FC9
330
1F
100
AcDbEntity
  8
圖層1輪廓線
100
AcDbLine
 10
5980.516729631625
 20
239.6083663263894
 30
0.0
 11
5980.516729631625
 21
227.680163096114
 31
0.0
  0
LINE
  5
4FCA
330
1F
100
AcDbEntity
  8
圖層1輪廓線
100
AcDbLine
 10
5973.58852640135
 20
239.6083663263894
 30
0.0
 11
5973.58852640135
 21
227.680163096114
 31
0.0
  0
ARC
  5
4FCB
330
1F
100
AcDbEntity
  8
圖層1輪廓線
100
AcDbCircle
 10
5977.052628016489
 20
234.5461884998981
 30
0.0
 40
6.133974596215608
100
AcDbArc
 50
55.61575253192536
 51
124.3842474680746
  0
LINE
  5
4FCC
330
1F
100
AcDbEntity
  8
圖層1輪廓線
100
AcDbLine
 10
5975.444932861901
 20
240.680163096114
 30
0.0
 11
5973.58852640135
 21
239.6083663263894
 31
0.0
  0
LINE
  5
4FCD
330
1F
100
AcDbEntity
  8
圖層1輪廓線
100
AcDbLine
 10
5986.67823691488
 20
227.680163096114
 30
0.0
 11
5988.796758327975
 21
224.680163096114
 31
0.0
  0
LINE
  5
4FCE
330
1F
100
AcDbEntity
  8
圖層1輪廓線
100
AcDbLine
 10
5988.808707571003
 20
227.680163096114
 30
0.0
 11
5990.927228984095
 21
224.680163096114
 31
0.0
  0
LINE
  5
4FCF
330
1F
100
AcDbEntity
  8
圖層1輪廓線
100
AcDbLine
 10
5973.9449328619
 20
227.680163096114
 30
0.0
 11
5973.9449328619
 21
224.680163096114
 31
0.0
  0
LINE
  5
4FD0
330
1F
100
AcDbEntity
  8
圖層1輪廓線
100
AcDbLine
 10
6000.310958265686
 20
240.180163096114
 30
0.0
 11
6007.944932861901
 21
240.180163096114
 31
0.0
  0
LINE
  5
4FD1
330
1F
100
AcDbEntity
  8
圖層1輪廓線
100
AcDbLine
 10
6001.301339322452
 20
239.6083663263894
 30
0.0
 11
6001.301339322452
 21
227.680163096114
 31
0.0
  0
LINE
  5
4FD2
330
1F
100
AcDbEntity
  8
圖層1輪廓線
100
AcDbLine
 10
5994.373136092177
 20
239.6083663263894
 30
0.0
 11
5994.373136092177
 21
227.680163096114
 31
0.0
  0
ARC
  5
4FD3
330
1F
100
AcDbEntity
  8
圖層1輪廓線
100
AcDbCircle
 10
5997.837237707315
 20
234.546188499899
 30
0.0
 40
6.133974596215608
100
AcDbArc
 50
55.61575253192536
 51
124.3842474680746
  0
LINE
  5
4FD4
330
1F
100
AcDbEntity
  8
圖層1輪廓線
100
AcDbLine
 10
5999.444932861901
 20
240.680163096114
 30
0.0
 11
6001.301339322452
 21
239.6083663263894
 31
0.0
  0
LINE
  5
4FD5
330
1F
100
AcDbEntity
  8
圖層1輪廓線
100
AcDbLine
 10
6000.944932861902
 20
227.680163096114
 30
0.0
 11
6000.944932861902
 21
224.680163096114
 31
0.0
  0
LINE
  5
4FD6
330
1F
100
AcDbEntity
  8
圖層1輪廓線
100
AcDbLine
 10
5979.444932861901
 20
255.180163096114
 30
0.0
 11
5995.444932861901
 21
255.180163096114
 31
0.0
  0
LINE
  5
4FD7
330
1F
100
AcDbEntity
  8
圖層1輪廓線
100
AcDbLine
 10
5980.444932861901
 20
256.1801630961138
 30
0.0
 11
5994.444932861902
 21
256.1801630961138
 31
0.0
  0
LINE
  5
4FD8
330
1F
100
AcDbEntity
  8
圖層1輪廓線
100
AcDbLine
 10
5980.444932861901
 20
256.1801630961138
 30
0.0
 11
5979.444932861901
 21
255.180163096114
 31
0.0
  0
LINE
  5
4FD9
330
1F
100
AcDbEntity
  8
圖層1輪廓線
100
AcDbLine
 10
5994.444932861902
 20
256.1801630961138
 30
0.0
 11
5995.444932861901
 21
255.180163096114
 31
0.0
  0
LINE
  5
4FDA
330
1F
100
AcDbEntity
  8
圖層4尺寸線
100
AcDbLine
 10
5717.444932861901
 20
-459.2123065469827
 30
0.0
 11
5717.444932861901
 21
-395.2123065469828
 31
0.0
  0
LINE
  5
4FDB
330
1F
100
AcDbEntity
  8
圖層4尺寸線
100
AcDbLine
 10
5789.444932861901
 20
-395.2123065469828
 30
0.0
 11
5789.444932861901
 21
-459.2123065469827
 31
0.0
  0
LINE
  5
4FDC
330
1F
100
AcDbEntity
  8
圖層1輪廓線
100
AcDbLine
 10
5795.444932861901
 20
-389.2123065469828
 30
0.0
 11
5795.444932861901
 21
-461.2123065469827
 31
0.0
  0
LINE
  5
4FDD
330
1F
100
AcDbEntity
  8
圖層4尺寸線
100
AcDbLine
 10
5793.444932861901
 20
-457.2123065469827
 30
0.0
 11
5793.444932861901
 21
-389.2123065469828
 31
0.0
  0
LINE
  5
4FDE
330
1F
100
AcDbEntity
  8
圖層4尺寸線
100
AcDbLine
 10
5789.444932861901
 20
-459.2123065469827
 30
0.0
 11
5717.444932861901
 21
-459.2123065469827
 31
0.0
  0
LINE
  5
4FDF
330
1F
100
AcDbEntity
  8
圖層4尺寸線
100
AcDbLine
 10
5795.444932861901
 20
-461.2123065469827
 30
0.0
 11
5717.444932861901
 21
-461.2123065469827
 31
0.0
  0
LINE
  5
4FE0
330
1F
100
AcDbEntity
  8
圖層4尺寸線
100
AcDbLine
 10
5717.444932861901
 20
-459.2123065469827
 30
0.0
 11
5791.444932861901
 21
-459.2123065469827
 31
0.0
  0
CIRCLE
  5
4FE1
330
1F
100
AcDbEntity
  8
圖層4尺寸線
100
AcDbCircle
 10
5753.444932861901
 20
-444.2123065469827
 30
0.0
 40
12.0
  0
LINE
  5
4FE2
330
1F
100
AcDbEntity
  8
圖層4尺寸線
100
AcDbLine
 10
5774.444932861901
 20
-429.2123065469827
 30
0.0
 11
5732.444932861901
 21
-429.2123065469827
 31
0.0
  0
CIRCLE
  5
4FE3
330
1F
100
AcDbEntity
  8
圖層4尺寸線
100
AcDbCircle
 10
5753.444932861901
 20
-444.2123065469827
 30
0.0
 40
9.0
  0
ARC
  5
4FE4
330
1F
100
AcDbEntity
  8
圖層4尺寸線
100
AcDbCircle
 10
5793.444932861901
 20
-459.2123065469827
 30
0.0
 40
2.0
100
AcDbArc
 50
270.0
 51
0.0
  0
ARC
  5
4FE5
330
1F
100
AcDbEntity
  8
圖層4尺寸線
100
AcDbCircle
 10
5791.444932861901
 20
-457.2123065469827
 30
0.0
 40
2.0
100
AcDbArc
 50
270.0
 51
0.0
  0
LINE
  5
4FE6
330
1F
100
AcDbEntity
  8
圖層4尺寸線
100
AcDbLine
 10
5789.444932861901
 20
-444.2123065469827
 30
0.0
 11
5774.444932861901
 21
-444.2123065469827
 31
0.0
  0
LINE
  5
4FE7
330
1F
100
AcDbEntity
  8
圖層4尺寸線
100
AcDbLine
 10
5774.444932861901
 20
-429.2123065469827
 30
0.0
 11
5774.444932861901
 21
-444.2123065469827
 31
0.0
  0
LINE
  5
4FE8
330
1F
100
AcDbEntity
  8
圖層4尺寸線
100
AcDbLine
 10
5717.444932861901
 20
-461.2123065469827
 30
0.0
 11
5717.444932861901
 21
-459.2123065469827
 31
0.0
  0
LINE
  5
4FE9
330
1F
100
AcDbEntity
  8
圖層4尺寸線
100
AcDbLine
 10
5732.444932861901
 20
-444.2123065469827
 30
0.0
 11
5717.444932861901
 21
-444.2123065469827
 31
0.0
  0
LINE
  5
4FEA
330
1F
100
AcDbEntity
  8
圖層4尺寸線
100
AcDbLine
 10
5732.444932861901
 20
-444.2123065469827
 30
0.0
 11
5732.444932861901
 21
-429.2123065469827
 31
0.0
  0
LINE
  5
4FEB
330
1F
100
AcDbEntity
  8
圖層4尺寸線
100
AcDbLine
 10
5717.444932861901
 20
-395.2123065469828
 30
0.0
 11
5789.444932861901
 21
-395.2123065469828
 31
0.0
  0
HATCH
  5
4FEC
330
1F
100
AcDbEntity
  8
圖層4尺寸線
100
AcDbHatch
 10
0.0
 20
0.0
 30
0.0
210
0.0
220
0.0
230
1.0
  2
LINE
 70
     0
 71
     0
 91
        1
 92
        7
 72
     0
 73
     1
 93
        4
 10
5739.444932861901
 20
-385.7123065469825
 10
5767.444932861901
 20
-385.7123065469825
 10
5767.444932861901
 20
-392.8423958266635
 10
5739.444932861901
 20
-392.8423958266638
 97
        0
 75
     0
 76
     1
 52
90.0
 41
1.0
 77
     0
 78
     1
 53
90.0
 43
6879.608970710194
 44
-984.1534079772399
 45
3.174999999999999
 46
0.0000000000000002
 79
     0
 47
0.1347766415641304
 98
        1
 10
5753.752956534984
 20
-388.9091425025056
  0
LINE
  5
4FED
330
1F
100
AcDbEntity
  8
圖層4尺寸線
100
AcDbLine
 10
5767.444932861901
 20
-385.7123065469825
 30
0.0
 11
5739.444932861901
 21
-385.7123065469827
 31
0.0
  0
LINE
  5
4FEE
330
1F
100
AcDbEntity
  8
圖層4尺寸線
100
AcDbLine
 10
5767.444932861901
 20
-392.8423958266635
 30
0.0
 11
5739.444932861901
 21
-392.842395826664
 31
0.0
  0
LINE
  5
4FEF
330
1F
100
AcDbEntity
  8
圖層4尺寸線
100
AcDbLine
 10
5739.444932861901
 20
-380.2123065469828
 30
0.0
 11
5767.444932861901
 21
-380.2123065469828
 31
0.0
  0
ARC
  5
4FF0
330
1F
100
AcDbEntity
  8
圖層4尺寸線
100
AcDbCircle
 10
5753.444932861901
 20
-417.2123065469827
 30
0.0
 40
52.00000000000005
100
AcDbArc
 50
67.38013505196659
 51
112.6198649480334
  0
LINE
  5
4FF1
330
1F
100
AcDbEntity
  8
圖層4尺寸線
100
AcDbLine
 10
5733.444932861901
 20
-369.2123065469827
 30
0.0
 11
5773.444932861901
 21
-369.2123065469827
 31
0.0
  0
LINE
  5
4FF2
330
1F
100
AcDbEntity
  8
圖層4尺寸線
100
AcDbLine
 10
5733.444932861901
 20
-371.2123065469827
 30
0.0
 11
5773.444932861901
 21
-371.2123065469827
 31
0.0
  0
LINE
  5
4FF3
330
1F
100
AcDbEntity
  8
圖層4尺寸線
100
AcDbLine
 10
5793.444932861901
 20
-389.2123065469828
 30
0.0
 11
5795.444932861901
 21
-389.2123065469828
 31
0.0
  0
LINE
  5
4FF4
330
1F
100
AcDbEntity
  8
圖層4尺寸線
100
AcDbLine
 10
5767.444932861901
 20
-380.2123065469825
 30
0.0
 11
5767.444932861901
 21
-395.2123065469825
 31
0.0
  0
LINE
  5
4FF5
330
1F
100
AcDbEntity
  8
圖層4尺寸線
100
AcDbLine
 10
5764.444932861901
 20
-371.2123065469827
 30
0.0
 11
5764.444932861901
 21
-380.2123065469828
 31
0.0
  0
LINE
  5
4FF6
330
1F
100
AcDbEntity
  8
圖層4尺寸線
100
AcDbLine
 10
5764.444932861901
 20
-380.2123065469828
 30
0.0
 11
5767.444932861901
 21
-380.2123065469828
 31
0.0
  0
LINE
  5
4FF7
330
1F
100
AcDbEntity
  8
圖層4尺寸線
100
AcDbLine
 10
5773.444932861901
 20
-369.2123065469827
 30
0.0
 11
5773.444932861901
 21
-371.2123065469827
 31
0.0
  0
LINE
  5
4FF8
330
1F
100
AcDbEntity
  8
圖層4尺寸線
100
AcDbLine
 10
5773.444932861901
 20
-371.2123065469827
 30
0.0
 11
5764.444932861901
 21
-371.2123065469827
 31
0.0
  0
LINE
  5
4FF9
330
1F
100
AcDbEntity
  8
圖層4尺寸線
100
AcDbLine
 10
5739.444932861901
 20
-380.2123065469828
 30
0.0
 11
5739.444932861901
 21
-395.2123065469828
 31
0.0
  0
LINE
  5
4FFA
330
1F
100
AcDbEntity
  8
圖層4尺寸線
100
AcDbLine
 10
5733.444932861901
 20
-369.2123065469827
 30
0.0
 11
5733.444932861901
 21
-371.2123065469827
 31
0.0
  0
LINE
  5
4FFB
330
1F
100
AcDbEntity
  8
圖層4尺寸線
100
AcDbLine
 10
5742.444932861901
 20
-371.2123065469827
 30
0.0
 11
5742.444932861901
 21
-380.2123065469828
 31
0.0
  0
LINE
  5
4FFC
330
1F
100
AcDbEntity
  8
圖層4尺寸線
100
AcDbLine
 10
5739.444932861901
 20
-380.2123065469828
 30
0.0
 11
5742.444932861901
 21
-380.2123065469828
 31
0.0
  0
LINE
  5
4FFD
330
1F
100
AcDbEntity
  8
圖層4尺寸線
100
AcDbLine
 10
5733.444932861901
 20
-371.2123065469827
 30
0.0
 11
5742.444932861901
 21
-371.2123065469827
 31
0.0
  0
LINE
  5
4FFE
330
1F
100
AcDbEntity
  8
圖層2中心線
 62
     1
 48
0.1
100
AcDbLine
 10
6835.334805051679
 20
-376.2123065469828
 30
0.0
 11
6859.334805051678
 21
-376.2123065469828
 31
0.0
  0
LINE
  5
4FFF
330
1F
100
AcDbEntity
  8
圖層2中心線
 62
     1
 48
0.1
100
AcDbLine
 10
6847.334805051677
 20
-388.2123065469827
 30
0.0
 11
6847.334805051677
 21
-364.2123065469828
 31
0.0
  0
LINE
  5
5000
330
1F
100
AcDbEntity
  8
圖層2中心線
 62
     1
 48
0.1
100
AcDbLine
 10
6835.334805051679
 20
-446.2123065469827
 30
0.0
 11
6859.334805051678
 21
-446.2123065469827
 31
0.0
  0
LINE
  5
5001
330
1F
100
AcDbEntity
  8
圖層2中心線
 62
     1
 48
0.1
100
AcDbLine
 10
6847.334805051677
 20
-458.2123065469827
 30
0.0
 11
6847.334805051677
 21
-434.2123065469827
 31
0.0
  0
LINE
  5
5002
330
1F
100
AcDbEntity
  8
圖層2中心線
 62
     1
 48
0.1
100
AcDbLine
 10
6835.334805051679
 20
-27.81983690388643
 30
0.0
 11
6859.334805051678
 21
-27.81983690388643
 31
0.0
  0
LINE
  5
5003
330
1F
100
AcDbEntity
  8
圖層2中心線
 62
     1
 48
0.1
100
AcDbLine
 10
6847.334805051677
 20
-39.81983690388643
 30
0.0
 11
6847.334805051677
 21
-15.81983690388642
 31
0.0
  0
LINE
  5
5004
330
1F
100
AcDbEntity
  8
圖層2中心線
 62
     1
 48
0.1
100
AcDbLine
 10
6835.334805051679
 20
-62.81983690388642
 30
0.0
 11
6859.334805051678
 21
-62.81983690388642
 31
0.0
  0
LINE
  5
5005
330
1F
100
AcDbEntity
  8
圖層2中心線
 62
     1
 48
0.1
100
AcDbLine
 10
6847.334805051677
 20
-74.81983690388642
 30
0.0
 11
6847.334805051677
 21
-50.81983690388643
 31
0.0
  0
LINE
  5
5006
330
1F
100
AcDbEntity
  8
圖層2中心線
 62
     1
 48
0.1
100
AcDbLine
 10
6835.334805051679
 20
-97.81983690388642
 30
0.0
 11
6859.334805051678
 21
-97.81983690388642
 31
0.0
  0
LINE
  5
5007
330
1F
100
AcDbEntity
  8
圖層2中心線
 62
     1
 48
0.1
100
AcDbLine
 10
6847.334805051677
 20
-109.8198369038864
 30
0.0
 11
6847.334805051677
 21
-85.81983690388643
 31
0.0
  0
LINE
  5
5272
330
1F
100
AcDbEntity
  8
圖層1輪廓線
100
AcDbLine
 10
5949.312446321382
 20
692.7039937425534
 30
0.0
 11
5949.312446321382
 21
764.7039937425534
 31
0.0
  0
LINE
  5
5273
330
1F
100
AcDbEntity
  8
圖層1輪廓線
100
AcDbLine
 10
5891.57741940242
 20
692.7039937425534
 30
0.0
 11
5891.57741940242
 21
764.7039937425534
 31
0.0
  0
LINE
  5
5274
330
1F
100
AcDbEntity
  8
圖層1輪廓線
100
AcDbLine
 10
5978.179959780864
 20
692.7039937425534
 30
0.0
 11
5978.179959780864
 21
764.7039937425534
 31
0.0
  0
LINE
  5
5275
330
1F
100
AcDbEntity
  8
圖層1輪廓線
100
AcDbLine
 10
5862.709905942939
 20
692.7039937425534
 30
0.0
 11
5862.709905942939
 21
764.7039937425534
 31
0.0
  0
ARC
  5
5276
330
1F
100
AcDbEntity
  8
圖層1輪廓線
100
AcDbCircle
 10
5877.143662672679
 20
707.0651048536647
 30
0.0
 40
20.36111111111114
100
AcDbArc
 50
224.855450681714
 51
315.144549318286
  0
LINE
  5
5277
330
1F
100
AcDbEntity
  8
圖層1輪廓線
100
AcDbLine
 10
5870.444932861901
 20
676.7039937425534
 30
0.0
 11
5970.444932861902
 21
676.7039937425534
 31
0.0
  0
LINE
  5
5278
330
1F
100
AcDbEntity
  8
圖層1輪廓線
100
AcDbLine
 10
5877.143662672679
 20
686.7039937425533
 30
0.0
 11
5963.746203051123
 21
686.7039937425533
 31
0.0
  0
ARC
  5
5279
330
1F
100
AcDbEntity
  8
圖層1輪廓線
100
AcDbCircle
 10
5920.444932861901
 20
759.148438186995
 30
0.0
 40
72.44444444444157
100
AcDbArc
 50
246.5169380082317
 51
293.4830619917684
  0
LINE
  5
527A
330
1F
100
AcDbEntity
  8
圖層1輪廓線
100
AcDbLine
 10
5870.444932861901
 20
676.7039937425534
 30
0.0
 11
5870.444932861901
 21
687.8374720144083
 31
0.0
  0
ARC
  5
527B
330
1F
100
AcDbEntity
  8
圖層1輪廓線
100
AcDbCircle
 10
5963.746203051123
 20
707.0651048536638
 30
0.0
 40
20.36111111111082
100
AcDbArc
 50
224.855450681714
 51
315.144549318286
  0
LINE
  5
527C
330
1F
100
AcDbEntity
  8
圖層1輪廓線
100
AcDbLine
 10
5970.444932861902
 20
676.7039937425534
 30
0.0
 11
5970.444932861902
 21
687.8374720144083
 31
0.0
  0
LINE
  5
527D
330
1F
100
AcDbEntity
  8
圖層1輪廓線
100
AcDbLine
 10
5845.633710135626
 20
764.7039937425534
 30
0.0
 11
5998.469493986203
 21
764.7039937425534
 31
0.0
  0
LINE
  5
527E
330
1F
100
AcDbEntity
  8
圖層3虛線
100
AcDbLine
 10
5890.444932861901
 20
756.7039937425533
 30
0.0
 11
5950.444932861901
 21
756.7039937425533
 31
0.0
  0
LINE
  5
527F
330
1F
100
AcDbEntity
  8
圖層3虛線
100
AcDbLine
 10
5890.444932861901
 20
676.7039937425534
 30
0.0
 11
5890.444932861901
 21
756.7039937425533
 31
0.0
  0
LINE
  5
5280
330
1F
100
AcDbEntity
  8
圖層3虛線
100
AcDbLine
 10
5950.444932861901
 20
676.7039937425534
 30
0.0
 11
5950.444932861901
 21
756.7039937425533
 31
0.0
  0
CIRCLE
  5
5281
330
1F
100
AcDbEntity
  8
圖層1輪廓線
100
AcDbCircle
 10
5920.444932861901
 20
716.7039937425534
 30
0.0
 40
10.0
  0
LWPOLYLINE
  5
5282
330
1F
100
AcDbEntity
  8
圖層1輪廓線
100
AcDbPolyline
 90
        6
 70
     1
 43
0.0
 10
5903.239170894616
 20
707.2454293479323
 10
5920.033408927331
 20
697.0740845901055
 10
5937.239170894616
 20
706.5326489847275
 10
5937.650694829186
 20
726.1625581371745
 10
5920.856456796471
 20
736.3339028950004
 10
5903.650694829186
 20
726.8753385003792
  0
CIRCLE
  5
5283
330
1F
100
AcDbEntity
  8
圖層1輪廓線
100
AcDbCircle
 10
5920.444932861901
 20
716.7039937425534
 30
0.0
 40
17.00373529438581
  0
LINE
  5
5284
330
1F
100
AcDbEntity
  8
圖層3虛線
100
AcDbLine
 10
5862.709905942939
 20
722.7039937425534
 30
0.0
 11
5890.444932861901
 21
722.7039937425534
 31
0.0
  0
LINE
  5
5285
330
1F
100
AcDbEntity
  8
圖層3虛線
100
AcDbLine
 10
5862.709905942939
 20
710.7039937425533
 30
0.0
 11
5890.444932861901
 21
710.7039937425533
 31
0.0
  0
LINE
  5
5286
330
1F
100
AcDbEntity
  8
圖層3虛線
100
AcDbLine
 10
5950.444932861901
 20
722.7039937425534
 30
0.0
 11
5978.179959780864
 21
722.7039937425534
 31
0.0
  0
LINE
  5
5287
330
1F
100
AcDbEntity
  8
圖層3虛線
100
AcDbLine
 10
5950.444932861901
 20
710.7039937425533
 30
0.0
 11
5978.179959780864
 21
710.7039937425533
 31
0.0
  0
LINE
  5
5288
330
1F
100
AcDbEntity
  8
圖層2中心線
100
AcDbLine
 10
5908.444932861901
 20
716.7039937425534
 30
0.0
 11
5932.444932861901
 21
716.7039937425534
 31
0.0
  0
LINE
  5
5289
330
1F
100
AcDbEntity
  8
圖層2中心線
100
AcDbLine
 10
5920.444932861901
 20
704.7039937425534
 30
0.0
 11
5920.444932861901
 21
728.7039937425533
 31
0.0
  0
LINE
  5
528A
330
1F
100
AcDbEntity
  8
圖層2中心線
  6
CENTER2
 48
0.3
370
    18
100
AcDbLine
 10
5850.4634575608
 20
716.7039937425534
 30
0.0
 11
5989.076529612601
 21
716.7039937425534
 31
0.0
  0
LINE
  5
528B
330
1F
100
AcDbEntity
  8
圖層3虛線
100
AcDbLine
 10
5862.709905942939
 20
728.7039937425533
 30
0.0
 11
5890.444932861901
 21
728.7039937425533
 31
0.0
  0
LINE
  5
528C
330
1F
100
AcDbEntity
  8
圖層3虛線
100
AcDbLine
 10
5950.444932861901
 20
728.7039937425533
 30
0.0
 11
5978.179959780864
 21
728.7039937425533
 31
0.0
  0
LINE
  5
528D
330
1F
100
AcDbEntity
  8
圖層3虛線
100
AcDbLine
 10
5950.444932861901
 20
704.7039937425534
 30
0.0
 11
5978.179959780864
 21
704.7039937425534
 31
0.0
  0
LINE
  5
528E
330
1F
100
AcDbEntity
  8
圖層3虛線
100
AcDbLine
 10
5862.709905942939
 20
704.7039937425534
 30
0.0
 11
5890.444932861901
 21
704.7039937425534
 31
0.0
  0
DIMENSION
  5
528F
330
1F
100
AcDbEntity
  8
AM_5
100
AcDbDimension
  2
*D3
 10
5950.444932861901
 20
636.7039937425533
 30
0.0
 11
6023.859146424275
 21
636.7039937425533
 31
0.0
 70
   160
  1
%%c<>
 71
     5
 42
30.0
  3
AM_ISO$0
100
AcDbAlignedDimension
 13
5890.444932861901
 23
676.7039937425534
 33
0.0
 14
5950.444932861901
 24
676.7039937425534
 34
0.0
100
AcDbRotatedDimension
1001
ACAD
1000
DSTYLE
1002
{
1070
    40
1040
1.0
1070
   144
1040
0.5
1002
}
  0
DIMENSION
  5
5290
330
1F
100
AcDbEntity
  8
AM_5
100
AcDbDimension
  2
*D4
 10
5813.102210788353
 20
716.7039937425534
 30
0.0
 11
5813.102210788353
 21
696.7039937425543
 31
0.0
 70
   160
 71
     5
 42
20.0
  3
AM_ISO$0
100
AcDbAlignedDimension
 13
5870.444932861901
 23
676.7039937425534
 33
0.0
 14
5850.463457560802
 24
716.7039937425534
 34
0.0
 50
90.0
100
AcDbRotatedDimension
1001
ACAD
1000
DSTYLE
1002
{
1070
   144
1040
0.5
1002
}
  0
DIMENSION
  5
5291
330
1F
100
AcDbEntity
  8
AM_5
100
AcDbDimension
  2
*D5
 10
5763.102210788353
 20
756.7039937425534
 30
0.0
 11
5747.102210788352
 21
716.7039937425544
 31
0.0
 70
    32
 71
     5
 42
40.00000000000006
  3
AM_ISO$0
100
AcDbAlignedDimension
 13
5870.444932861901
 23
676.7039937425534
 33
0.0
 14
5890.444932861901
 24
756.7039937425533
 34
0.0
 50
90.0
100
AcDbRotatedDimension
1001
ACAD
1000
DSTYLE
1002
{
1070
   144
1040
0.5
1002
}
  0
INSERT
  5
5292
330
1F
100
AcDbEntity
  8
AM_5
100
AcDbBlockReference
  2
*S27
 10
0.0
 20
0.0
 30
0.0
  0
TEXT
  5
5293
330
1F
100
AcDbEntity
  8
AM_5
100
AcDbText
 10
6019.248431990578
 20
757.5957374257541
 30
0.0
 40
20.0
  1
3-M10
100
AcDbText
  0
LINE
  5
52E3
330
1F
100
AcDbEntity
  8
圖層1輪廓線
  6
Continuous
 62
     7
370
    50
100
AcDbLine
 10
6554.334805051678
 20
714.1437330143726
 30
0.0
 11
6564.334805051678
 21
714.1437330143726
 31
0.0
  0
LINE
  5
52E4
330
1F
100
AcDbEntity
  8
圖層1輪廓線
  6
Continuous
 62
     7
370
    50
100
AcDbLine
 10
6564.334805051678
 20
694.1437330143726
 30
0.0
 11
6514.334805051678
 21
694.1437330143726
 31
0.0
  0
LINE
  5
52E5
330
1F
100
AcDbEntity
  8
圖層1輪廓線
  6
Continuous
 62
     7
370
    50
100
AcDbLine
 10
6514.334805051678
 20
714.1437330143726
 30
0.0
 11
6524.334805051679
 21
714.1437330143726
 31
0.0
  0
LINE
  5
52E6
330
1F
100
AcDbEntity
  8
圖層1輪廓線
  6
Continuous
 62
     7
370
    50
100
AcDbLine
 10
6514.334805051678
 20
694.1437330143726
 30
0.0
 11
6514.334805051678
 21
714.1437330143726
 31
0.0
  0
LINE
  5
52E7
330
1F
100
AcDbEntity
  8
圖層1輪廓線
  6
Continuous
 62
     7
370
    50
100
AcDbLine
 10
6554.334805051678
 20
736.1437330143726
 30
0.0
 11
6554.334805051678
 21
714.1437330143726
 31
0.0
  0
LINE
  5
52E8
330
1F
100
AcDbEntity
  8
圖層1輪廓線
  6
Continuous
 62
     7
370
    50
100
AcDbLine
 10
6524.334805051679
 20
714.1437330143726
 30
0.0
 11
6524.334805051679
 21
736.1437330143726
 31
0.0
  0
LINE
  5
52E9
330
1F
100
AcDbEntity
  8
圖層1輪廓線
  6
Continuous
 62
     7
370
    50
100
AcDbLine
 10
6564.334805051678
 20
714.1437330143726
 30
0.0
 11
6564.334805051678
 21
694.1437330143726
 31
0.0
  0
LINE
  5
52EA
330
1F
100
AcDbEntity
  8
圖層1輪廓線
  6
Continuous
 62
     7
370
    50
100
AcDbLine
 10
6524.334805051679
 20
736.1437330143726
 30
0.0
 11
6503.89279290019
 21
736.1437330143726
 31
0.0
  0
LINE
  5
52EB
330
1F
100
AcDbEntity
  8
圖層1輪廓線
  6
Continuous
 62
     7
370
    50
100
AcDbLine
 10
6554.334805051678
 20
736.1437330143726
 30
0.0
 11
6574.776817203167
 21
736.1437330143726
 31
0.0
  0
LINE
  5
52EC
330
1F
100
AcDbEntity
  8
AM_7
100
AcDbLine
 10
6539.334805051677
 20
688.1957280461834
 30
0.0
 11
6539.334805051677
 21
746.0735265068096
 31
0.0
1001
GENIUS_GENODEF_13
1002
{
1000
HIER
1070
     0
1002
}
1002
{
1000
MANEDIT
1070
     0
1002
}
1002
{
1000
NOSEL
1070
     0
1002
}
1002
{
1000
BEHIND
1070
     0
1002
}
1002
{
1000
OTHER
1070
     0
1002
}
1002
{
1000
REACTOR
1002
}
1001
GENIUS_GENOBJ-N-CEN_13
1002
{
1000
OWNER
1000
GEN
1002
}
1001
GENIUS_GENCEN_19
1002
{
1040
2.0
1002
}
  0
DIMENSION
  5
52ED
330
1F
100
AcDbEntity
  8
AM_5
100
AcDbDimension
  2
*D6
 10
6564.334805051678
 20
634.1437320143731
 30
0.0
 11
6539.334805051677
 21
650.1457005183101
 31
0.0
 70
    32
 71
     5
 42
25.0
  3
AM_ISO$0
100
AcDbAlignedDimension
 13
6514.334805051678
 23
694.1437330143726
 33
0.0
 14
6564.334805051678
 24
694.1437330143726
 34
0.0
100
AcDbRotatedDimension
1001
ACAD
1000
DSTYLE
1002
{
1070
   144
1040
0.5
1002
}
  0
DIMENSION
  5
52EE
330
1F
100
AcDbEntity
  8
AM_5
100
AcDbDimension
  2
*D7
 10
6554.334805051678
 20
786.1437340143729
 30
0.0
 11
6539.334805051677
 21
786.1437340143729
 31
0.0
 70
   160
 71
     5
 42
15.0
  3
AM_ISO$0
100
AcDbAlignedDimension
 13
6524.334805051679
 23
736.1437330143726
 33
0.0
 14
6554.334805051678
 24
736.1437330143726
 34
0.0
100
AcDbRotatedDimension
1001
ACAD
1000
DSTYLE
1002
{
1070
   144
1040
0.5
1002
}
  0
DIMENSION
  5
52EF
330
1F
100
AcDbEntity
  8
AM_5
100
AcDbDimension
  2
*D8
 10
6633.580002606106
 20
714.1437330143726
 30
0.0
 11
6633.580002606106
 21
789.1437330143745
 31
0.0
 70
   160
 71
     5
 42
11.0
  3
AM_ISO$0
100
AcDbAlignedDimension
 13
6574.776817203167
 23
736.1437330143726
 33
0.0
 14
6564.334805051678
 24
714.1437330143726
 34
0.0
 50
90.0
100
AcDbRotatedDimension
1001
ACAD
1000
DSTYLE
1002
{
1070
   144
1040
0.5
1002
}
  0
DIMENSION
  5
52F0
330
1F
100
AcDbEntity
  8
AM_5
100
AcDbDimension
  2
*D9
 10
6454.334805051678
 20
694.1437330143726
 30
0.0
 11
6454.334805051678
 21
704.1437330143737
 31
0.0
 70
   160
 71
     5
 42
10.0
  3
AM_ISO$0
100
AcDbAlignedDimension
 13
6514.334805051678
 23
714.1437330143726
 33
0.0
 14
6514.334805051678
 24
694.1437330143726
 34
0.0
 50
90.0
100
AcDbRotatedDimension
1001
ACAD
1000
DSTYLE
1002
{
1070
   144
1040
0.5
1002
}
  0
DIMENSION
  5
5359
330
1F
100
AcDbEntity
  8
AM_5
100
AcDbDimension
  2
*D10
 10
6030.444932861901
 20
-521.2123065469827
 30
0.0
 11
5920.444932861901
 21
-505.2103380430457
 31
0.0
 70
    32
 71
     5
 42
220.0
  3
AM_ISO$0
100
AcDbAlignedDimension
 13
5810.444932861901
 23
-477.3297745211896
 33
0.0
 14
6030.444932861901
 24
-478.9674775593107
 34
0.0
100
AcDbRotatedDimension
1001
ACAD
1000
DSTYLE
1002
{
1070
    40
1040
1.0
1070
   144
1040
1.0
1002
}
  0
DIMENSION
  5
535A
330
1F
100
AcDbEntity
  8
AM_5
100
AcDbDimension
  2
*D11
 10
6045.444932861901
 20
-571.2123065469827
 30
0.0
 11
5920.444932861901
 21
-555.2103380430458
 31
0.0
 70
    32
 71
     5
 42
250.0
  3
AM_ISO$0
100
AcDbAlignedDimension
 13
5795.444932861901
 23
-461.2123065469827
 33
0.0
 14
6045.444932861901
 24
-461.2123065469827
 34
0.0
100
AcDbRotatedDimension
1001
ACAD
1000
DSTYLE
1002
{
1070
    40
1040
1.0
1070
   144
1040
1.0
1002
}
  0
INSERT
  5
535B
330
1F
100
AcDbEntity
  8
AM_5
100
AcDbBlockReference
  2
*S28
 10
0.0
 20
0.0
 30
0.0
  0
TEXT
  5
535C
330
1F
100
AcDbEntity
  8
AM_5
100
AcDbText
 10
6084.268288559815
 20
-515.6442714630445
 30
0.0
 40
20.0
  1
4-%%C12
100
AcDbText
  0
DIMENSION
  5
53AD
330
1F
100
AcDbEntity
  8
AM_5
100
AcDbDimension
  2
*D12
 10
6684.334805051678
 20
-521.2123065469823
 30
0.0
 11
6539.334805051677
 21
-505.2103380430453
 31
0.0
 70
    32
 71
     5
 42
290.0
  3
AM_ISO$0
100
AcDbAlignedDimension
 13
6394.334805051678
 23
-474.0099142971585
 33
0.0
 14
6684.334805051678
 24
-474.4745770398308
 34
0.0
100
AcDbRotatedDimension
1001
ACAD
1000
DSTYLE
1002
{
1070
    40
1040
1.0
1070
   144
1040
1.0
1002
}
  0
DIMENSION
  5
53AE
330
1F
100
AcDbEntity
  8
AM_5
100
AcDbDimension
  2
*D13
 10
6859.334805051678
 20
-571.2123065469829
 30
0.0
 11
6619.334805051678
 21
-555.2123065469829
 31
0.0
 70
    32
 71
     5
 42
480.0
  3
AM_ISO$0
100
AcDbAlignedDimension
 13
6379.334805051678
 23
-461.2123065469827
 33
0.0
 14
6859.334805051678
 24
-461.2123065469827
 34
0.0
100
AcDbRotatedDimension
1001
ACAD
1000
DSTYLE
1002
{
1070
    40
1040
1.0
1070
   144
1040
1.0
1002
}
  0
DIMENSION
  5
53D9
330
1F
100
AcDbEntity
  8
AM_5
100
AcDbDimension
  2
*D14
 10
6319.334805051678
 20
-361.2123065469827
 30
0.0
 11
6303.334805051678
 21
-411.2123065469818
 31
0.0
 70
    32
 71
     5
 42
100.0000000000002
  3
AM_ISO$0
100
AcDbAlignedDimension
 13
6379.334805051678
 23
-461.2123065469829
 33
0.0
 14
6419.334805051677
 24
-361.2123065469827
 34
0.0
 50
90.0
100
AcDbRotatedDimension
1001
ACAD
1000
DSTYLE
1002
{
1070
    40
1040
1.0
1070
   144
1040
1.0
1002
}
  0
DIMENSION
  5
53DA
330
1F
100
AcDbEntity
  8
AM_5
100
AcDbDimension
  2
*D15
 10
6319.334805051678
 20
-132.8198369038861
 30
0.0
 11
6303.332836547741
 21
-247.0160717254334
 31
0.0
 70
    32
  1
Max. 250
 71
     5
 42
228.3924696430966
  3
AM_ISO$0
100
AcDbAlignedDimension
 13
6419.334805051677
 23
-361.2123065469827
 33
0.0
 14
6514.334805051679
 24
-132.8198369038862
 34
0.0
 50
90.0
100
AcDbRotatedDimension
1001
ACAD
1000
DSTYLE
1002
{
1070
    40
1040
1.0
1070
   144
1040
1.0
1002
}
  0
DIMENSION
  5
53DB
330
1F
100
AcDbEntity
  8
AM_5
100
AcDbDimension
  2
*D16
 10
6319.334805051678
 20
-12.81983690388616
 30
0.0
 11
6303.332836547741
 21
-72.81983690388513
 31
0.0
 70
    32
 71
     5
 42
120.0
  3
AM_ISO$0
100
AcDbAlignedDimension
 13
6514.334805051678
 23
-132.8198369038862
 33
0.0
 14
6444.334805051678
 24
-12.8198369038862
 34
0.0
 50
90.0
100
AcDbRotatedDimension
1001
ACAD
1000
DSTYLE
1002
{
1070
    40
1040
1.0
1070
   144
1040
1.0
1002
}
  0
DIMENSION
  5
53DC
330
1F
100
AcDbEntity
  8
AM_5
100
AcDbDimension
  2
*D17
 10
6319.334805051678
 20
427.180163096114
 30
0.0
 11
6303.334805051678
 21
207.1801630961149
 31
0.0
 70
    32
 71
     5
 42
440.0000000000002
  3
AM_ISO$0
100
AcDbAlignedDimension
 13
6444.334805051678
 23
-12.8198369038862
 33
0.0
 14
6499.334805051678
 24
427.180163096114
 34
0.0
 50
90.0
100
AcDbRotatedDimension
1001
ACAD
1000
DSTYLE
1002
{
1070
    40
1040
1.0
1070
   144
1040
1.0
1002
}
  0
DIMENSION
  5
53DD
330
1F
100
AcDbEntity
  8
AM_5
100
AcDbDimension
  2
*D18
 10
6269.334805051678
 20
427.1801630961141
 30
0.0
 11
6253.334805051678
 21
-17.01607172543343
 31
0.0
 70
    32
  1
Max. 900
 71
     5
 42
888.392469643097
  3
AM_ISO$0
100
AcDbAlignedDimension
 13
6379.334805051678
 23
-461.2123065469829
 33
0.0
 14
6499.334805051678
 24
427.180163096114
 34
0.0
 50
90.0
100
AcDbRotatedDimension
1001
ACAD
1000
DSTYLE
1002
{
1070
    40
1040
1.0
1070
   144
1040
1.0
1002
}
  0
DIMENSION
  5
546F
330
1F
100
AcDbEntity
  8
AM_5
100
AcDbDimension
  2
*D19
 10
6919.33480505168
 20
-361.2123065469827
 30
0.0
 11
6903.334805051679
 21
-411.2123065469815
 31
0.0
 70
    32
 71
     5
 42
100.0
  3
AM_ISO$0
100
AcDbAlignedDimension
 13
6859.33480505168
 23
-461.2123065469827
 33
0.0
 14
6859.33480505168
 24
-361.2123065469827
 34
0.0
 50
90.0
100
AcDbRotatedDimension
1001
ACAD
1000
DSTYLE
1002
{
1070
    40
1040
1.0
1070
   144
1040
1.0
1002
}
  0
DIMENSION
  5
5470
330
1F
100
AcDbEntity
  8
AM_5
100
AcDbDimension
  2
*D20
 10
6919.33480505168
 20
-12.81983690388621
 30
0.0
 11
6903.334805051679
 21
-62.81983690388521
 31
0.0
 70
    32
 71
     5
 42
100.0000000000002
  3
AM_ISO$0
100
AcDbAlignedDimension
 13
6859.33480505168
 23
-112.8198369038864
 33
0.0
 14
6859.33480505168
 24
-12.8198369038862
 34
0.0
 50
90.0
100
AcDbRotatedDimension
1001
ACAD
1000
DSTYLE
1002
{
1070
    40
1040
1.0
1070
   144
1040
1.0
1002
}
  0
DIMENSION
  5
5471
330
1F
100
AcDbEntity
  8
AM_5
100
AcDbDimension
  2
*D21
 10
6969.33480505168
 20
38.78769345301721
 30
0.0
 11
6953.334805051679
 21
-211.2123065469816
 31
0.0
 70
    32
 71
     5
 42
500.0
  3
AM_ISO$0
100
AcDbAlignedDimension
 13
6859.33480505168
 23
-461.2123065469827
 33
0.0
 14
6817.334805051679
 24
38.78769345301726
 34
0.0
 50
90.0
100
AcDbRotatedDimension
1001
ACAD
1000
DSTYLE
1002
{
1070
    40
1040
1.0
1070
   144
1040
1.0
1002
}
  0
DIMENSION
  5
54B1
330
1F
100
AcDbEntity
  8
AM_5
100
AcDbDimension
  2
*D22
 10
6819.334805051676
 20
-237.0160717254348
 30
0.0
 11
6870.342679067424
 21
-237.0160717254348
 31
0.0
 70
   160
  1
%%c<>
 71
     5
 42
100.0
  3
AM_ISO$0
100
AcDbAlignedDimension
 13
6719.334805051676
 23
-237.0160717254348
 33
0.0
 14
6819.334805051676
 24
-237.0160717254346
 34
0.0
100
AcDbRotatedDimension
1001
ACAD
1000
DSTYLE
1002
{
1070
    40
1040
1.0
1070
   144
1040
1.0
1002
}
  0
DIMENSION
  5
54B2
330
1F
100
AcDbEntity
  8
AM_5
100
AcDbDimension
  2
*D23
 10
6719.334805051676
 20
-237.0160717254346
 30
0.0
 11
6629.334805051676
 21
-221.0160717254346
 31
0.0
 70
    32
 71
     5
 42
179.9999999999982
  3
AM_ISO$0
100
AcDbAlignedDimension
 13
6539.334805051677
 23
-145.2216614625595
 33
0.0
 14
6719.334805051676
 24
-112.8198369038866
 34
0.0
100
AcDbRotatedDimension
1001
ACAD
1000
DSTYLE
1002
{
1070
    40
1040
1.0
1070
   144
1040
1.0
1002
}
  0
DIMENSION
  5
54F1
330
1F
100
AcDbEntity
  8
AM_5
100
AcDbDimension
  2
*D24
 10
6664.334805051677
 20
-318.340887224482
 30
0.0
 11
6539.334805051677
 21
-302.338918720545
 31
0.0
 70
    32
 71
     5
 42
250.0
  3
AM_ISO$0
100
AcDbAlignedDimension
 13
6414.334805051677
 23
-366.2123065469836
 33
0.0
 14
6664.334805051677
 24
-367.2123065469837
 34
0.0
100
AcDbRotatedDimension
1001
ACAD
1000
DSTYLE
1002
{
1070
    40
1040
1.0
1070
   144
1040
1.0
1002
}
  0
CIRCLE
  5
55A8
330
1F
100
AcDbEntity
  8
0
 62
     1
100
AcDbCircle
 10
6539.334805051679
 20
-368.2382067445544
 30
0.0
 40
34.84724155408339
  0
TEXT
  5
55A9
330
1F
100
AcDbEntity
  8
AM_5
 62
     0
100
AcDbText
 10
6484.364590277241
 20
-353.9219603478905
 30
0.0
 40
20.0
  1
B
100
AcDbText
  0
CIRCLE
  5
55AA
330
1F
100
AcDbEntity
  8
0
 62
     1
100
AcDbCircle
 10
5920.444932861901
 20
-116.8198369038866
 30
0.0
 40
52.79168824246585
  0
TEXT
  5
55AB
330
1F
100
AcDbEntity
  8
AM_5
 62
     0
100
AcDbText
 10
5847.016114776734
 20
-148.5861251488465
 30
0.0
 40
20.0
  1
A
100
AcDbText
  0
TEXT
  5
63D4
330
1F
100
AcDbEntity
  8
AM_5
 62
     0
100
AcDbText
 10
5875.634369492609
 20
578.3525497151203
 30
0.0
 40
30.0
  1
A 詳細
100
AcDbText
  0
TEXT
  5
63D5
330
1F
100
AcDbEntity
  8
AM_5
 62
     0
100
AcDbText
 10
6499.243012116749
 20
578.3525497151203
 30
0.0
 40
30.0
  1
B 詳細
100
AcDbText
  0
DIMENSION
  5
7509
330
1F
100
AcDbEntity
  8
AM_5
100
AcDbDimension
  2
*D25
 10
6015.4449328619
 20
-50.75418088210972
 30
0.0
 11
5970.444281099675
 21
-50.75418088210972
 31
0.0
 70
   160
 71
     5
 42
190.0
  3
AM_ISO$0
100
AcDbAlignedDimension
 13
5825.4449328619
 23
-12.81983690388642
 33
0.0
 14
6015.4449328619
 24
-12.81983690388642
 34
0.0
100
AcDbRotatedDimension
1001
ACAD
1000
DSTYLE
1002
{
1070
    40
1040
1.0
1070
   144
1040
1.0
1002
}
  0
LINE
  5
767A
330
1F
100
AcDbEntity
  8
圖層4尺寸線
100
AcDbLine
 10
6086.444932861901
 20
53.18016309611369
 30
0.0
 11
6048.444932861901
 21
53.18016309611346
 31
0.0
  0
LINE
  5
767B
330
1F
100
AcDbEntity
  8
圖層4尺寸線
100
AcDbLine
 10
6086.444932861901
 20
65.18016309611358
 30
0.0
 11
6048.444932861901
 21
65.18016309611335
 31
0.0
  0
LINE
  5
767C
330
1F
100
AcDbEntity
  8
圖層4尺寸線
100
AcDbLine
 10
6092.444932861901
 20
44.18016309611357
 30
0.0
 11
6042.444932861901
 21
44.18016309611357
 31
0.0
  0
LINE
  5
767D
330
1F
100
AcDbEntity
  8
圖層4尺寸線
100
AcDbLine
 10
6092.444932861901
 20
69.18016309611357
 30
0.0
 11
6042.444932861901
 21
69.18016309611357
 31
0.0
  0
TEXT
  5
767E
330
1F
100
AcDbEntity
  8
圖層4尺寸線
100
AcDbText
 10
6031.480299132701
 20
-38.80997878357414
 30
0.0
 40
5.0
  1
電源開關       緊急停止
  7
WIN
 72
     4
 11
6068.01372936526
 21
-36.57160669055088
 31
0.0
100
AcDbText
  0
LWPOLYLINE
  5
767F
330
1F
100
AcDbEntity
  8
圖層4尺寸線
100
AcDbPolyline
 90
        4
 70
     1
 43
0.0
 10
6024.14601799733
 20
-30.09804835810189
 10
6111.88144073319
 20
-30.09804835810189
 10
6111.88144073319
 20
-43.04516502299986
 10
6024.14601799733
 20
-43.04516502299986
  0
LINE
  5
7680
330
1F
100
AcDbEntity
  8
圖層4尺寸線
100
AcDbLine
 10
6057.037126501356
 20
-10.12546743326618
 30
0.0
 11
6065.432084030048
 21
-1.583891060950122
 31
0.0
  0
LINE
  5
7681
330
1F
100
AcDbEntity
  8
圖層4尺寸線
100
AcDbLine
 10
6049.444932861901
 20
-23.81983690388643
 30
0.0
 11
6085.444932861901
 21
-23.81983690388643
 31
0.0
  0
LINE
  5
7682
330
1F
100
AcDbEntity
  8
圖層4尺寸線
100
AcDbLine
 10
6049.444932861901
 20
24.18016309611358
 30
0.0
 11
6085.444932861901
 21
24.18016309611358
 31
0.0
  0
CIRCLE
  5
7683
330
1F
100
AcDbEntity
  8
圖層4尺寸線
100
AcDbCircle
 10
6067.444932861901
 20
3.180163096113574
 30
0.0
 40
5.0
  0
CIRCLE
  5
7684
330
1F
100
AcDbEntity
  8
圖層4尺寸線
100
AcDbCircle
 10
6067.444932861901
 20
3.180163096113574
 30
0.0
 40
17.0
  0
CIRCLE
  5
7685
330
1F
100
AcDbEntity
  8
圖層4尺寸線
100
AcDbCircle
 10
6067.444932861901
 20
89.18016309611358
 30
0.0
 40
5.0
  0
LINE
  5
7686
330
1F
100
AcDbEntity
  8
圖層4尺寸線
100
AcDbLine
 10
6045.444932861901
 20
28.18016309611357
 30
0.0
 11
6089.444932861901
 21
28.18016309611357
 31
0.0
  0
LINE
  5
7687
330
1F
100
AcDbEntity
  8
圖層4尺寸線
100
AcDbLine
 10
6045.444932861901
 20
-27.81983690388654
 30
0.0
 11
6089.444932861901
 21
-27.81983690388643
 31
0.0
  0
LINE
  5
7688
330
1F
100
AcDbEntity
  8
圖層4尺寸線
100
AcDbLine
 10
6119.444932861902
 20
109.1801630961136
 30
0.0
 11
6015.444932861901
 21
109.1801630961136
 31
0.0
  0
LINE
  5
7689
330
1F
100
AcDbEntity
  8
圖層4尺寸線
100
AcDbLine
 10
6015.444932861901
 20
-92.81983690388642
 30
0.0
 11
6119.444932861902
 21
-92.81983690388642
 31
0.0
  0
LINE
  5
768A
330
1F
100
AcDbEntity
  8
圖層4尺寸線
100
AcDbLine
 10
6049.444932861901
 20
-23.81983690388643
 30
0.0
 11
6049.444932861901
 21
24.18016309611358
 31
0.0
  0
LINE
  5
768B
330
1F
100
AcDbEntity
  8
圖層4尺寸線
100
AcDbLine
 10
6045.444932861901
 20
-27.81983690388654
 30
0.0
 11
6045.444932861901
 21
28.18016309611357
 31
0.0
  0
LINE
  5
768C
330
1F
100
AcDbEntity
  8
圖層4尺寸線
100
AcDbLine
 10
6015.444932861901
 20
109.1801630961136
 30
0.0
 11
6015.444932861901
 21
-92.81983690388642
 31
0.0
  0
LINE
  5
768D
330
1F
100
AcDbEntity
  8
圖層4尺寸線
100
AcDbLine
 10
6048.360970826721
 20
-62.11505141330803
 30
0.0
 11
6049.332983481662
 21
-66.13673721981354
 31
0.0
  0
LINE
  5
768E
330
1F
100
AcDbEntity
  8
圖層4尺寸線
100
AcDbLine
 10
6042.528894897081
 20
-62.11505141330803
 30
0.0
 11
6041.556882242141
 21
-66.13673721981354
 31
0.0
  0
CIRCLE
  5
768F
330
1F
100
AcDbEntity
  8
圖層4尺寸線
100
AcDbCircle
 10
6045.444932861901
 20
-67.07645120725135
 30
0.0
 40
4.0
  0
ARC
  5
7690
330
1F
100
AcDbEntity
  8
圖層4尺寸線
100
AcDbCircle
 10
6045.444932861901
 20
-62.81983690388642
 30
0.0
 40
12.0
100
AcDbArc
 50
131.8103148957918
 51
228.1896851042082
  0
ARC
  5
7691
330
1F
100
AcDbEntity
  8
圖層4尺寸線
100
AcDbCircle
 10
6045.444932861901
 20
-62.81983690388642
 30
0.0
 40
12.0
100
AcDbArc
 50
311.8103148957918
 51
48.18968510420605
  0
LWPOLYLINE
  5
7692
330
1F
100
AcDbEntity
  8
圖層4尺寸線
100
AcDbPolyline
 90
        7
 70
     0
 43
0.0
 10
6049.042054411803
 20
-68.82594157739788
 10
6052.444932861901
 20
-66.86128878821375
 10
6052.444932861901
 20
-58.7783850195591
 10
6045.444932861901
 20
-54.73693313523165
 10
6038.444932861901
 20
-58.7783850195591
 10
6038.444932861901
 20
-66.86128878821375
 10
6041.847811312
 20
-68.82594157739788
  0
ARC
  5
7693
330
1F
100
AcDbEntity
  8
圖層4尺寸線
100
AcDbCircle
 10
6045.444932861901
 20
-62.81983690388642
 30
0.0
 40
7.0
100
AcDbArc
 50
300.9291072523205
 51
239.0708927476795
  0
ARC
  5
7694
330
1F
100
AcDbEntity
  8
圖層4尺寸線
100
AcDbCircle
 10
6045.444932861901
 20
-62.81983690388642
 30
0.0
 40
6.0
100
AcDbArc
 50
311.7321013757138
 51
228.2678986242863
  0
ARC
  5
7695
330
1F
100
AcDbEntity
  8
圖層4尺寸線
100
AcDbCircle
 10
6023.444932861901
 20
-79.81983690388642
 30
0.0
 40
2.0
100
AcDbArc
 50
239.9999999999998
 51
300.0000000000001
  0
ARC
  5
7696
330
1F
100
AcDbEntity
  8
圖層4尺寸線
100
AcDbCircle
 10
6023.444932861901
 20
-79.81983690388642
 30
0.0
 40
2.0
100
AcDbArc
 50
59.99999999999986
 51
120.0000000000001
  0
CIRCLE
  5
7697
330
1F
100
AcDbEntity
  8
圖層4尺寸線
100
AcDbCircle
 10
6023.444932861901
 20
-79.81983690388642
 30
0.0
 40
4.0
  0
LINE
  5
7698
330
1F
100
AcDbEntity
  8
圖層4尺寸線
100
AcDbLine
 10
6022.444932861901
 20
-78.81983690388654
 30
0.0
 11
6022.444932861901
 21
-78.08778609631758
 31
0.0
  0
LINE
  5
7699
330
1F
100
AcDbEntity
  8
圖層4尺寸線
100
AcDbLine
 10
6022.444932861901
 20
-81.55188771145537
 30
0.0
 11
6022.444932861901
 21
-80.81983690388653
 31
0.0
  0
LINE
  5
769A
330
1F
100
AcDbEntity
  8
圖層4尺寸線
100
AcDbLine
 10
6022.444932861901
 20
-78.81983690388643
 30
0.0
 11
6020.090830895651
 21
-78.81983690388643
 31
0.0
  0
LINE
  5
769B
330
1F
100
AcDbEntity
  8
圖層4尺寸線
100
AcDbLine
 10
6022.444932861901
 20
-80.81983690388643
 30
0.0
 11
6020.090830895651
 21
-80.81983690388643
 31
0.0
  0
ARC
  5
769C
330
1F
100
AcDbEntity
  8
圖層4尺寸線
100
AcDbCircle
 10
6023.444932861901
 20
-79.81983690388642
 30
0.0
 40
3.5
100
AcDbArc
 50
163.3984504009895
 51
196.601549599016
  0
TEXT
  5
769D
330
1F
100
AcDbEntity
  8
圖層4尺寸線
100
AcDbText
 10
6040.317025885157
 20
-76.6163485317934
 30
0.0
 40
4.0
  1
OFF
  7
WIN
 72
     4
 11
6045.444932861901
 21
-74.81983690388642
 31
0.0
100
AcDbText
  0
LINE
  5
769E
330
1F
100
AcDbEntity
  8
圖層4尺寸線
100
AcDbLine
 10
6040.444932861902
 20
-79.81983690388642
 30
0.0
 11
6050.444932861901
 21
-79.81983690388654
 31
0.0
  0
LINE
  5
769F
330
1F
100
AcDbEntity
  8
圖層4尺寸線
100
AcDbLine
 10
6037.444932861902
 20
-73.0178759310719
 30
0.0
 11
6037.444932861902
 21
-76.81983690388642
 31
0.0
  0
LINE
  5
76A0
330
1F
100
AcDbEntity
  8
圖層4尺寸線
100
AcDbLine
 10
6024.444932861901
 20
-78.81983690388654
 30
0.0
 11
6024.444932861901
 21
-78.08778609631758
 31
0.0
  0
LINE
  5
76A1
330
1F
100
AcDbEntity
  8
圖層4尺寸線
100
AcDbLine
 10
6024.444932861901
 20
-81.55188771145537
 30
0.0
 11
6024.444932861901
 21
-80.81983690388653
 31
0.0
  0
LINE
  5
76A2
330
1F
100
AcDbEntity
  8
圖層4尺寸線
100
AcDbLine
 10
6026.799034828151
 20
-80.8198369038863
 30
0.0
 11
6024.444932861901
 21
-80.81983690388643
 31
0.0
  0
LINE
  5
76A3
330
1F
100
AcDbEntity
  8
圖層4尺寸線
100
AcDbLine
 10
6026.799034828151
 20
-78.81983690388631
 30
0.0
 11
6024.444932861901
 21
-78.81983690388643
 31
0.0
  0
ARC
  5
76A4
330
1F
100
AcDbEntity
  8
圖層4尺寸線
100
AcDbCircle
 10
6023.444932861901
 20
-79.81983690388642
 30
0.0
 40
3.5
100
AcDbArc
 50
343.398450400984
 51
16.60154959901598
  0
ARC
  5
76A5
330
1F
100
AcDbEntity
  8
圖層4尺寸線
100
AcDbCircle
 10
6040.444932861902
 20
-76.81983690388642
 30
0.0
 40
3.0
100
AcDbArc
 50
180.0
 51
270.0
  0
ARC
  5
76A6
330
1F
100
AcDbEntity
  8
圖層4尺寸線
100
AcDbCircle
 10
6034.444932861902
 20
-73.0178759310719
 30
0.0
 40
3.0
100
AcDbArc
 50
0.0
 51
42.83342806605722
  0
ARC
  5
76A7
330
1F
100
AcDbEntity
  8
圖層4尺寸線
100
AcDbCircle
 10
6034.444932861902
 20
-73.0178759310719
 30
0.0
 40
3.0
100
AcDbArc
 50
0.0
 51
42.83342806605722
  0
LINE
  5
76A8
330
1F
100
AcDbEntity
  8
圖層4尺寸線
100
AcDbLine
 10
6053.444932861901
 20
-73.0178759310719
 30
0.0
 11
6053.444932861901
 21
-76.81983690388654
 31
0.0
  0
ARC
  5
76A9
330
1F
100
AcDbEntity
  8
圖層4尺寸線
100
AcDbCircle
 10
6050.444932861901
 20
-76.81983690388654
 30
0.0
 40
3.0
100
AcDbArc
 50
270.0
 51
0.0
  0
ARC
  5
76AA
330
1F
100
AcDbEntity
  8
圖層4尺寸線
100
AcDbCircle
 10
6056.444932861901
 20
-73.0178759310719
 30
0.0
 40
3.0
100
AcDbArc
 50
137.1665719339427
 51
180.0
  0
ARC
  5
76AB
330
1F
100
AcDbEntity
  8
圖層4尺寸線
100
AcDbCircle
 10
6050.444932861901
 20
-48.81983690388654
 30
0.0
 40
3.0
100
AcDbArc
 50
0.0
 51
90.0
  0
ARC
  5
76AC
330
1F
100
AcDbEntity
  8
圖層4尺寸線
100
AcDbCircle
 10
6040.444932861902
 20
-48.81983690388654
 30
0.0
 40
3.0
100
AcDbArc
 50
90.0
 51
180.0
  0
TEXT
  5
76AD
330
1F
100
AcDbEntity
  8
圖層4尺寸線
100
AcDbText
 10
6041.410049140971
 20
-52.61634853179341
 30
0.0
 40
4.0
  1
ON
  7
WIN
 72
     4
 11
6045.444932861901
 21
-50.81983690388643
 31
0.0
100
AcDbText
  0
LINE
  5
76AE
330
1F
100
AcDbEntity
  8
圖層4尺寸線
100
AcDbLine
 10
6040.444932861902
 20
-45.81983690388653
 30
0.0
 11
6050.444932861901
 21
-45.81983690388653
 31
0.0
  0
ARC
  5
76AF
330
1F
100
AcDbEntity
  8
圖層4尺寸線
100
AcDbCircle
 10
6045.444932861901
 20
-62.81983690388642
 30
0.0
 40
3.0
100
AcDbArc
 50
13.58740794754465
 51
166.4125920524553
  0
ARC
  5
76B0
330
1F
100
AcDbEntity
  8
圖層4尺寸線
100
AcDbCircle
 10
6034.444932861902
 20
-52.62179787670095
 30
0.0
 40
3.0
100
AcDbArc
 50
317.1665719339428
 51
0.0
  0
LINE
  5
76B1
330
1F
100
AcDbEntity
  8
圖層4尺寸線
100
AcDbLine
 10
6037.444932861902
 20
-48.81983690388654
 30
0.0
 11
6037.444932861902
 21
-52.62179787670095
 31
0.0
  0
ARC
  5
76B2
330
1F
100
AcDbEntity
  8
圖層4尺寸線
100
AcDbCircle
 10
6056.444932861901
 20
-52.62179787670095
 30
0.0
 40
3.0
100
AcDbArc
 50
180.0
 51
222.8334280660572
  0
LINE
  5
76B3
330
1F
100
AcDbEntity
  8
圖層4尺寸線
100
AcDbLine
 10
6053.444932861901
 20
-48.81983690388654
 30
0.0
 11
6053.444932861901
 21
-52.62179787670095
 31
0.0
  0
LINE
  5
76B4
330
1F
100
AcDbEntity
  8
圖層4尺寸線
100
AcDbLine
 10
6063.171903276554
 20
0.0277274876705178
 30
0.0
 11
6057.037126501356
 21
-10.12546743326618
 31
0.0
  0
LWPOLYLINE
  5
76B5
330
1F
100
AcDbEntity
  8
圖層4尺寸線
100
AcDbPolyline
 90
        4
 70
     1
 43
0.0
 10
6051.444932861901
 20
-21.81983690388642
 10
6057.444932861901
 20
-21.81983690388642
 10
6057.444932861901
 20
-15.81983690388642
 10
6051.444932861901
 20
-15.81983690388642
  0
CIRCLE
  5
76B6
330
1F
100
AcDbEntity
  8
圖層4尺寸線
100
AcDbCircle
 10
6023.444932861901
 20
96.18016309611357
 30
0.0
 40
4.0
  0
LINE
  5
76B7
330
1F
100
AcDbEntity
  8
圖層4尺寸線
100
AcDbLine
 10
6048.444932861901
 20
65.18016309611346
 30
0.0
 11
6048.444932861901
 21
53.18016309611357
 31
0.0
  0
LINE
  5
76B8
330
1F
100
AcDbEntity
  8
圖層4尺寸線
100
AcDbLine
 10
6042.444932861901
 20
69.18016309611357
 30
0.0
 11
6042.444932861901
 21
44.18016309611357
 31
0.0
  0
ARC
  5
76B9
330
1F
100
AcDbEntity
  8
圖層4尺寸線
100
AcDbCircle
 10
6023.444932861901
 20
96.18016309611357
 30
0.0
 40
2.0
100
AcDbArc
 50
59.99999999999986
 51
120.0000000000001
  0
ARC
  5
76BA
330
1F
100
AcDbEntity
  8
圖層4尺寸線
100
AcDbCircle
 10
6023.444932861901
 20
96.18016309611357
 30
0.0
 40
2.0
100
AcDbArc
 50
239.9999999999998
 51
300.0000000000001
  0
ARC
  5
76BB
330
1F
100
AcDbEntity
  8
圖層4尺寸線
100
AcDbCircle
 10
6023.444932861901
 20
96.18016309611357
 30
0.0
 40
3.5
100
AcDbArc
 50
163.398450400984
 51
196.6015495990105
  0
LINE
  5
76BC
330
1F
100
AcDbEntity
  8
圖層4尺寸線
100
AcDbLine
 10
6022.444932861901
 20
95.18016309611358
 30
0.0
 11
6022.444932861901
 21
94.44811228854474
 31
0.0
  0
LINE
  5
76BD
330
1F
100
AcDbEntity
  8
圖層4尺寸線
100
AcDbLine
 10
6022.444932861901
 20
95.18016309611358
 30
0.0
 11
6020.090830895651
 21
95.18016309611358
 31
0.0
  0
LINE
  5
76BE
330
1F
100
AcDbEntity
  8
圖層4尺寸線
100
AcDbLine
 10
6022.444932861901
 20
97.18016309611357
 30
0.0
 11
6020.090830895651
 21
97.18016309611357
 31
0.0
  0
LINE
  5
76BF
330
1F
100
AcDbEntity
  8
圖層4尺寸線
100
AcDbLine
 10
6022.444932861901
 20
97.91221390368242
 30
0.0
 11
6022.444932861901
 21
97.18016309611357
 31
0.0
  0
ARC
  5
76C0
330
1F
100
AcDbEntity
  8
圖層4尺寸線
100
AcDbCircle
 10
6023.444932861901
 20
96.18016309611357
 30
0.0
 40
3.5
100
AcDbArc
 50
343.398450400984
 51
16.60154959901598
  0
LINE
  5
76C1
330
1F
100
AcDbEntity
  8
圖層4尺寸線
100
AcDbLine
 10
6024.444932861901
 20
95.18016309611358
 30
0.0
 11
6024.444932861901
 21
94.44811228854474
 31
0.0
  0
LINE
  5
76C2
330
1F
100
AcDbEntity
  8
圖層4尺寸線
100
AcDbLine
 10
6024.444932861901
 20
97.91221390368242
 30
0.0
 11
6024.444932861901
 21
97.18016309611357
 31
0.0
  0
LINE
  5
76C3
330
1F
100
AcDbEntity
  8
圖層4尺寸線
100
AcDbLine
 10
6026.799034828151
 20
95.18016309611358
 30
0.0
 11
6024.444932861901
 21
95.18016309611358
 31
0.0
  0
LINE
  5
76C4
330
1F
100
AcDbEntity
  8
圖層4尺寸線
100
AcDbLine
 10
6026.799034828151
 20
97.18016309611357
 30
0.0
 11
6024.444932861901
 21
97.18016309611357
 31
0.0
  0
LINE
  5
76C5
330
1F
100
AcDbEntity
  8
圖層4尺寸線
100
AcDbLine
 10
6085.444932861901
 20
-23.81983690388643
 30
0.0
 11
6085.444932861901
 21
24.18016309611358
 31
0.0
  0
LINE
  5
76C6
330
1F
100
AcDbEntity
  8
圖層4尺寸線
100
AcDbLine
 10
6089.444932861901
 20
-27.81983690388654
 30
0.0
 11
6089.444932861901
 21
28.18016309611357
 31
0.0
  0
LINE
  5
76C7
330
1F
100
AcDbEntity
  8
圖層4尺寸線
100
AcDbLine
 10
6119.444932861902
 20
-92.81983690388642
 30
0.0
 11
6119.444932861902
 21
109.1801630961136
 31
0.0
  0
LINE
  5
76C8
330
1F
100
AcDbEntity
  8
圖層4尺寸線
100
AcDbLine
 10
6089.444932861901
 20
-65.81983690388643
 30
0.0
 11
6089.444932861901
 21
-59.81983690388642
 31
0.0
  0
CIRCLE
  5
76C9
330
1F
100
AcDbEntity
  8
圖層4尺寸線
100
AcDbCircle
 10
6089.444932861901
 20
-62.81983690388642
 30
0.0
 40
8.110805357093454
  0
CIRCLE
  5
76CA
330
1F
100
AcDbEntity
  8
圖層4尺寸線
100
AcDbCircle
 10
6089.444932861901
 20
-62.81983690388642
 30
0.0
 40
7.0
  0
LINE
  5
76CB
330
1F
100
AcDbEntity
  8
圖層4尺寸線
100
AcDbLine
 10
6112.444932861901
 20
-80.81983690388643
 30
0.0
 11
6114.799034828151
 21
-80.81983690388643
 31
0.0
  0
LINE
  5
76CC
330
1F
100
AcDbEntity
  8
圖層4尺寸線
100
AcDbLine
 10
6112.444932861901
 20
-78.81983690388643
 30
0.0
 11
6114.799034828151
 21
-78.81983690388643
 31
0.0
  0
CIRCLE
  5
76CD
330
1F
100
AcDbEntity
  8
圖層4尺寸線
100
AcDbCircle
 10
6111.444932861901
 20
-79.81983690388642
 30
0.0
 40
4.0
  0
LINE
  5
76CE
330
1F
100
AcDbEntity
  8
圖層4尺寸線
100
AcDbLine
 10
6112.444932861901
 20
-81.55188771145537
 30
0.0
 11
6112.444932861901
 21
-80.81983690388653
 31
0.0
  0
LINE
  5
76CF
330
1F
100
AcDbEntity
  8
圖層4尺寸線
100
AcDbLine
 10
6112.444932861901
 20
-78.81983690388654
 30
0.0
 11
6112.444932861901
 21
-78.08778609631758
 31
0.0
  0
ARC
  5
76D0
330
1F
100
AcDbEntity
  8
圖層4尺寸線
100
AcDbCircle
 10
6111.444932861901
 20
-79.81983690388642
 30
0.0
 40
3.5
100
AcDbArc
 50
163.398450400984
 51
196.601549599016
  0
LINE
  5
76D1
330
1F
100
AcDbEntity
  8
圖層4尺寸線
100
AcDbLine
 10
6108.090830895651
 20
-78.81983690388631
 30
0.0
 11
6110.444932861901
 21
-78.81983690388643
 31
0.0
  0
LINE
  5
76D2
330
1F
100
AcDbEntity
  8
圖層4尺寸線
100
AcDbLine
 10
6108.090830895651
 20
-80.8198369038863
 30
0.0
 11
6110.444932861901
 21
-80.81983690388643
 31
0.0
  0
LINE
  5
76D3
330
1F
100
AcDbEntity
  8
圖層4尺寸線
100
AcDbLine
 10
6110.444932861901
 20
-81.55188771145537
 30
0.0
 11
6110.444932861901
 21
-80.81983690388653
 31
0.0
  0
LINE
  5
76D4
330
1F
100
AcDbEntity
  8
圖層4尺寸線
100
AcDbLine
 10
6110.444932861901
 20
-78.81983690388654
 30
0.0
 11
6110.444932861901
 21
-78.08778609631758
 31
0.0
  0
ARC
  5
76D5
330
1F
100
AcDbEntity
  8
圖層4尺寸線
100
AcDbCircle
 10
6111.444932861901
 20
-79.81983690388642
 30
0.0
 40
2.0
100
AcDbArc
 50
59.99999999999986
 51
120.0000000000001
  0
ARC
  5
76D6
330
1F
100
AcDbEntity
  8
圖層4尺寸線
100
AcDbCircle
 10
6111.444932861901
 20
-79.81983690388642
 30
0.0
 40
2.0
100
AcDbArc
 50
239.9999999999998
 51
300.0000000000001
  0
ARC
  5
76D7
330
1F
100
AcDbEntity
  8
圖層4尺寸線
100
AcDbCircle
 10
6111.444932861901
 20
-79.81983690388642
 30
0.0
 40
3.5
100
AcDbArc
 50
343.398450400984
 51
16.60154959901052
  0
LINE
  5
76D8
330
1F
100
AcDbEntity
  8
圖層4尺寸線
100
AcDbLine
 10
6086.444932861901
 20
-62.81983690388642
 30
0.0
 11
6092.444932861901
 21
-62.81983690388642
 31
0.0
  0
LWPOLYLINE
  5
76D9
330
1F
100
AcDbEntity
  8
圖層4尺寸線
100
AcDbPolyline
 90
        4
 70
     1
 43
0.0
 10
6077.444932861901
 20
-21.81983690388642
 10
6083.444932861901
 20
-21.81983690388642
 10
6083.444932861901
 20
-15.81983690388642
 10
6077.444932861901
 20
-15.81983690388642
  0
CIRCLE
  5
76DA
330
1F
100
AcDbEntity
  8
圖層4尺寸線
100
AcDbCircle
 10
6111.444932861901
 20
96.18016309611357
 30
0.0
 40
4.0
  0
LINE
  5
76DB
330
1F
100
AcDbEntity
  8
圖層4尺寸線
100
AcDbLine
 10
6086.444932861901
 20
53.18016309611369
 30
0.0
 11
6086.444932861901
 21
65.18016309611358
 31
0.0
  0
LINE
  5
76DC
330
1F
100
AcDbEntity
  8
圖層4尺寸線
100
AcDbLine
 10
6092.444932861901
 20
44.18016309611357
 30
0.0
 11
6092.444932861901
 21
69.18016309611357
 31
0.0
  0
LINE
  5
76DD
330
1F
100
AcDbEntity
  8
圖層4尺寸線
100
AcDbLine
 10
6080.475747270883
 20
47.39591961895121
 30
0.0
 11
6088.769247560675
 21
47.39591961895121
 31
0.0
  0
LINE
  5
76DE
330
1F
100
AcDbEntity
  8
圖層4尺寸線
100
AcDbLine
 10
6080.475747270883
 20
49.39591961895121
 30
0.0
 11
6088.769247560675
 21
49.39591961895121
 31
0.0
  0
LINE
  5
76DF
330
1F
100
AcDbEntity
  8
圖層4尺寸線
100
AcDbLine
 10
6090.850910368634
 20
45.18016309611357
 30
0.0
 11
6078.189425396135
 21
45.18016309611357
 31
0.0
  0
LINE
  5
76E0
330
1F
100
AcDbEntity
  8
圖層4尺寸線
100
AcDbLine
 10
6078.189425396135
 20
51.61167614178885
 30
0.0
 11
6090.850910368634
 21
51.61167614178885
 31
0.0
  0
LINE
  5
76E1
330
1F
100
AcDbEntity
  8
圖層4尺寸線
100
AcDbLine
 10
6081.626029218676
 20
46.87173178294779
 30
0.0
 11
6081.626029218676
 21
45.87173178294778
 31
0.0
  0
ARC
  5
76E2
330
1F
100
AcDbEntity
  8
圖層4尺寸線
100
AcDbCircle
 10
6081.626029218676
 20
48.39591961895121
 30
0.0
 40
1.52418783600342
100
AcDbArc
 50
90.0
 51
270.0
  0
ARC
  5
76E3
330
1F
100
AcDbEntity
  8
圖層4尺寸線
100
AcDbCircle
 10
6081.626029218676
 20
48.39591961895121
 30
0.0
 40
2.52418783600342
100
AcDbArc
 50
90.0
 51
270.0
  0
LINE
  5
76E4
330
1F
100
AcDbEntity
  8
圖層4尺寸線
100
AcDbLine
 10
6081.626029218676
 20
50.92010745495463
 30
0.0
 11
6081.626029218676
 21
49.92010745495463
 31
0.0
  0
LINE
  5
76E5
330
1F
100
AcDbEntity
  8
圖層4尺寸線
100
AcDbLine
 10
6078.189425396135
 20
45.18016309611357
 30
0.0
 11
6078.189425396135
 21
51.61167614178885
 31
0.0
  0
LINE
  5
76E6
330
1F
100
AcDbEntity
  8
圖層4尺寸線
100
AcDbLine
 10
6087.618965612881
 20
46.87173178294779
 30
0.0
 11
6087.618965612881
 21
45.87173178294778
 31
0.0
  0
ARC
  5
76E7
330
1F
100
AcDbEntity
  8
圖層4尺寸線
100
AcDbCircle
 10
6087.618965612881
 20
48.39591961895121
 30
0.0
 40
1.52418783600342
100
AcDbArc
 50
270.0
 51
90.0
  0
ARC
  5
76E8
330
1F
100
AcDbEntity
  8
圖層4尺寸線
100
AcDbCircle
 10
6087.618965612881
 20
48.39591961895121
 30
0.0
 40
2.52418783600342
100
AcDbArc
 50
270.0
 51
90.0
  0
LINE
  5
76E9
330
1F
100
AcDbEntity
  8
圖層4尺寸線
100
AcDbLine
 10
6087.618965612881
 20
50.92010745495463
 30
0.0
 11
6087.618965612881
 21
49.92010745495463
 31
0.0
  0
LINE
  5
76EA
330
1F
100
AcDbEntity
  8
圖層4尺寸線
100
AcDbLine
 10
6090.850910368634
 20
51.61167614178885
 30
0.0
 11
6090.850910368634
 21
45.18016309611357
 31
0.0
  0
LINE
  5
76EB
330
1F
100
AcDbEntity
  8
圖層4尺寸線
100
AcDbLine
 10
6067.444932861901
 20
86.18016309611357
 30
0.0
 11
6067.444932861901
 21
92.18016309611357
 31
0.0
  0
LINE
  5
76EC
330
1F
100
AcDbEntity
  8
圖層4尺寸線
100
AcDbLine
 10
6064.444932861901
 20
89.18016309611358
 30
0.0
 11
6070.444932861901
 21
89.18016309611358
 31
0.0
  0
CIRCLE
  5
76ED
330
1F
100
AcDbEntity
  8
圖層4尺寸線
100
AcDbCircle
 10
6067.444932861901
 20
89.18016309611358
 30
0.0
 40
3.0
  0
LINE
  5
76EE
330
1F
100
AcDbEntity
  8
圖層4尺寸線
100
AcDbLine
 10
6112.444932861901
 20
95.18016309611358
 30
0.0
 11
6114.799034828151
 21
95.18016309611358
 31
0.0
  0
LINE
  5
76EF
330
1F
100
AcDbEntity
  8
圖層4尺寸線
100
AcDbLine
 10
6112.444932861901
 20
97.18016309611357
 30
0.0
 11
6114.799034828151
 21
97.18016309611357
 31
0.0
  0
LINE
  5
76F0
330
1F
100
AcDbEntity
  8
圖層4尺寸線
100
AcDbLine
 10
6110.444932861901
 20
95.18016309611358
 30
0.0
 11
6110.444932861901
 21
94.44811228854474
 31
0.0
  0
LINE
  5
76F1
330
1F
100
AcDbEntity
  8
圖層4尺寸線
100
AcDbLine
 10
6110.444932861901
 20
97.91221390368242
 30
0.0
 11
6110.444932861901
 21
97.18016309611357
 31
0.0
  0
LINE
  5
76F2
330
1F
100
AcDbEntity
  8
圖層4尺寸線
100
AcDbLine
 10
6108.090830895651
 20
97.18016309611357
 30
0.0
 11
6110.444932861901
 21
97.18016309611357
 31
0.0
  0
LINE
  5
76F3
330
1F
100
AcDbEntity
  8
圖層4尺寸線
100
AcDbLine
 10
6108.090830895651
 20
95.18016309611358
 30
0.0
 11
6110.444932861901
 21
95.18016309611358
 31
0.0
  0
ARC
  5
76F4
330
1F
100
AcDbEntity
  8
圖層4尺寸線
100
AcDbCircle
 10
6111.444932861901
 20
96.18016309611357
 30
0.0
 40
3.5
100
AcDbArc
 50
163.398450400984
 51
196.601549599016
  0
LINE
  5
76F5
330
1F
100
AcDbEntity
  8
圖層4尺寸線
100
AcDbLine
 10
6112.444932861901
 20
95.18016309611358
 30
0.0
 11
6112.444932861901
 21
94.44811228854474
 31
0.0
  0
LINE
  5
76F6
330
1F
100
AcDbEntity
  8
圖層4尺寸線
100
AcDbLine
 10
6112.444932861901
 20
97.91221390368242
 30
0.0
 11
6112.444932861901
 21
97.18016309611357
 31
0.0
  0
ARC
  5
76F7
330
1F
100
AcDbEntity
  8
圖層4尺寸線
100
AcDbCircle
 10
6111.444932861901
 20
96.18016309611357
 30
0.0
 40
2.0
100
AcDbArc
 50
59.99999999999986
 51
120.0000000000001
  0
ARC
  5
76F8
330
1F
100
AcDbEntity
  8
圖層4尺寸線
100
AcDbCircle
 10
6111.444932861901
 20
96.18016309611357
 30
0.0
 40
2.0
100
AcDbArc
 50
239.9999999999998
 51
300.0000000000001
  0
ARC
  5
76F9
330
1F
100
AcDbEntity
  8
圖層4尺寸線
100
AcDbCircle
 10
6111.444932861901
 20
96.18016309611357
 30
0.0
 40
3.5
100
AcDbArc
 50
343.3984504009895
 51
16.60154959901598
  0
TEXT
  5
777B
330
1F
100
AcDbEntity
  8
LOGO
 62
     7
100
AcDbText
 10
6044.720248233409
 20
-778.3867665182067
 30
0.0
 40
27.21205922171945
  1
Order example:
 41
0.8
  7
CHINESET
100
AcDbText
  0
TEXT
  5
777C
330
1F
100
AcDbEntity
  8
LOGO
 62
     7
100
AcDbText
 10
6049.602316692361
 20
-740.0778214627816
 30
0.0
 40
40.81808883257918
  1
訂購代號:
  7
CHINESET
100
AcDbText
  0
LINE
  5
777D
330
1F
100
AcDbEntity
  8
LOGO
 62
     1
100
AcDbLine
 10
7111.033342789638
 20
-688.9782158261096
 30
0.0
 11
5583.897539045207
 21
-688.9782158261096
 31
0.0
  0
LINE
  5
777E
330
1F
100
AcDbEntity
  8
LOGO
 62
     1
100
AcDbLine
 10
6032.896516203586
 20
-893.068659989005
 30
0.0
 11
6032.896516203586
 21
-688.9782158261096
 31
0.0
  0
TEXT
  5
777F
330
1F
100
AcDbEntity
  8
LOGO
  6
Continuous
 62
     5
100
AcDbText
 10
5657.207743992826
 20
-852.9754002325402
 30
0.0
 40
30.61356662443439
  1
金器工業股份有限公司
  7
CHINESET
100
AcDbText
  0
TEXT
  5
7780
330
1F
100
AcDbEntity
  8
LOGO
  6
Continuous
 62
     5
100
AcDbText
 10
5600.976678699203
 20
-883.5949647158358
 30
0.0
 40
20.40904441628959
  1
MINDMAN INDUSTRIAL CO., LTD.
 41
0.85
  7
CHINESET
100
AcDbText
  0
LINE
  5
7781
330
1F
100
AcDbEntity
  8
LOGO
 62
     1
100
AcDbLine
 10
6032.896516203586
 20
-729.7963046586873
 30
0.0
 11
5733.563864764667
 21
-729.7963046586873
 31
0.0
  0
LINE
  5
7782
330
1F
100
AcDbEntity
  8
LOGO
 62
     1
100
AcDbLine
 10
6032.896516203586
 20
-770.6143934912679
 30
0.0
 11
5733.563864764667
 21
-770.6143934912679
 31
0.0
  0
LINE
  5
7783
330
1F
100
AcDbEntity
  8
LOGO
 62
     1
100
AcDbLine
 10
6032.896516203586
 20
-811.4324823238469
 30
0.0
 11
5583.897539045207
 21
-811.4324823238469
 31
0.0
  0
LINE
  5
7784
330
1F
100
AcDbEntity
  8
LOGO
 62
     1
100
AcDbLine
 10
5733.563864764667
 20
-811.4324823238469
 30
0.0
 11
5733.563864764667
 21
-688.9782158261096
 31
0.0
  0
TEXT
  5
7785
330
1F
100
AcDbEntity
  8
LOGO
 62
     6
100
AcDbText
 10
5927.45315190013
 20
-801.227960115702
 30
0.0
 40
20.40904441628959
  1
m/m
  7
CHINESET
 72
     1
 11
5963.411944443116
 21
-791.0234379075573
 31
0.0
100
AcDbText
 73
     2
  0
TEXT
  5
7786
330
1F
100
AcDbEntity
  8
LOGO
 62
     6
100
AcDbText
 10
5927.45315190013
 20
-719.5917824505429
 30
0.0
 40
20.40904441628959
  1
1 : 1
  7
CHINESET
 72
     1
 11
5963.411944443116
 21
-709.3872602423981
 31
0.0
100
AcDbText
 73
     2
  0
LINE
  5
7787
330
1F
100
AcDbEntity
  8
LOGO
 62
     1
100
AcDbLine
 10
5896.836220094977
 20
-811.4324823238469
 30
0.0
 11
5896.836220094977
 21
-688.9782158261096
 31
0.0
  0
CIRCLE
  5
7788
330
1F
100
AcDbEntity
  8
LOGO
  6
Continuous
 62
     6
100
AcDbCircle
 10
5934.626118554676
 20
-750.1616939796223
 30
0.0
 40
11.84997156285236
  0
CIRCLE
  5
7789
330
1F
100
AcDbEntity
  8
LOGO
  6
Continuous
 62
     6
100
AcDbCircle
 10
5934.626118554676
 20
-750.1616939796223
 30
0.0
 40
6.943034317201083
  0
LINE
  5
778A
330
1F
100
AcDbEntity
  8
LOGO
 62
     6
100
AcDbLine
 10
6009.092714868189
 20
-762.0116655424754
 30
0.0
 11
6009.092714868189
 21
-738.3117224167693
 31
0.0
  0
LINE
  5
778B
330
1F
100
AcDbEntity
  8
LOGO
 62
     6
100
AcDbLine
 10
5971.943734239467
 20
-757.1047282968232
 30
0.0
 11
5971.943734239467
 21
-743.2186596624197
 31
0.0
  0
LINE
  5
778C
330
1F
100
AcDbEntity
  8
LOGO
  6
Continuous
 62
     6
100
AcDbLine
 10
5971.943734239467
 20
-743.2186596624197
 30
0.0
 11
6009.092714868189
 21
-738.3117224167693
 31
0.0
  0
LINE
  5
778D
330
1F
100
AcDbEntity
  8
LOGO
  6
Continuous
 62
     6
100
AcDbLine
 10
5971.943734239467
 20
-757.1047282968232
 30
0.0
 11
6009.092714868189
 21
-762.0116655424754
 31
0.0
  0
LINE
  5
778E
330
1F
100
AcDbEntity
  8
LOGO
 62
     6
100
AcDbLine
 10
6836.720736912766
 20
-709.3872602423981
 30
0.0
 11
6727.495585677066
 21
-709.3872602423981
 31
0.0
  0
LINE
  5
778F
330
1F
100
AcDbEntity
  8
LOGO
 62
     6
100
AcDbLine
 10
6845.763061675734
 20
-801.2279601157006
 30
0.0
 11
6718.453260914097
 21
-801.2279601157006
 31
0.0
  0
LINE
  5
7790
330
1F
100
AcDbEntity
  8
LOGO
 62
     6
100
AcDbLine
 10
6836.720736912766
 20
-770.6143934912679
 30
0.0
 11
6727.495585677066
 21
-770.6143934912679
 31
0.0
  0
LINE
  5
7791
330
1F
100
AcDbEntity
  8
LOGO
 62
     6
100
AcDbLine
 10
6845.763061675734
 20
-876.0611229754298
 30
0.0
 11
6718.453260914097
 21
-876.0611229754307
 31
0.0
  0
LINE
  5
7792
330
1F
100
AcDbEntity
  8
LOGO
 62
     6
100
AcDbLine
 10
6718.453260914097
 20
-801.2279601157006
 30
0.0
 11
6718.453260914097
 21
-876.0611229754298
 31
0.0
  0
LINE
  5
7793
330
1F
100
AcDbEntity
  8
LOGO
 62
     6
100
AcDbLine
 10
6657.338172446445
 20
-801.2279601157006
 30
0.0
 11
6657.338172446445
 21
-876.0611229754307
 31
0.0
  0
LINE
  5
7794
330
1F
100
AcDbEntity
  8
LOGO
 62
     6
100
AcDbLine
 10
6554.85829053072
 20
-801.2279601157006
 30
0.0
 11
6554.85829053072
 21
-876.0611229754307
 31
0.0
  0
LINE
  5
7795
330
1F
100
AcDbEntity
  8
LOGO
 62
     6
100
AcDbLine
 10
6450.610256110732
 20
-801.2279601157006
 30
0.0
 11
6450.610256110732
 21
-876.0611229754307
 31
0.0
  0
LINE
  5
7796
330
1F
100
AcDbEntity
  8
LOGO
 62
     6
100
AcDbLine
 10
6314.549960002139
 20
-801.2279601157006
 30
0.0
 11
6314.549960002139
 21
-876.0611229754307
 31
0.0
  0
LINE
  5
7797
330
1F
100
AcDbEntity
  8
LOGO
 62
     6
100
AcDbLine
 10
6450.610256110732
 20
-876.0611229754307
 30
0.0
 11
6314.549960002139
 21
-876.0611229754307
 31
0.0
  0
LINE
  5
7798
330
1F
100
AcDbEntity
  8
LOGO
 62
     6
100
AcDbLine
 10
6657.338172446445
 20
-876.0611229754307
 30
0.0
 11
6554.85829053072
 21
-876.0611229754307
 31
0.0
  0
LINE
  5
7799
330
1F
100
AcDbEntity
  8
LOGO
  6
Continuous
 62
     7
100
AcDbLine
 10
6492.532314244906
 20
-740.2177030489751
 30
0.0
 11
6519.567982208783
 21
-740.2177030489751
 31
0.0
  0
LINE
  5
779A
330
1F
100
AcDbEntity
  8
LOGO
 62
     6
100
AcDbLine
 10
6483.448990599351
 20
-709.3872602423981
 30
0.0
 11
6313.613864155908
 21
-709.3872602423981
 31
0.0
  0
LINE
  5
779B
330
1F
100
AcDbEntity
  8
LOGO
 62
     6
100
AcDbLine
 10
6483.448990599351
 20
-770.6143934912679
 30
0.0
 11
6313.613864155908
 21
-770.6143934912679
 31
0.0
  0
LINE
  5
779C
330
1F
100
AcDbEntity
  8
LOGO
 62
     6
100
AcDbLine
 10
6313.613864155908
 20
-709.3872602423981
 30
0.0
 11
6313.613864155908
 21
-770.6143934912679
 31
0.0
  0
LINE
  5
779D
330
1F
100
AcDbEntity
  8
LOGO
 62
     6
100
AcDbLine
 10
6483.448990599351
 20
-709.3872602423981
 30
0.0
 11
6483.448990599351
 21
-770.6143934912679
 31
0.0
  0
LINE
  5
779E
330
1F
100
AcDbEntity
  8
LOGO
 62
     6
100
AcDbLine
 10
6398.531427377633
 20
-770.6143934912679
 30
0.0
 11
6398.531427377633
 21
-801.2279601157006
 31
0.0
  0
TEXT
  5
779F
330
1F
100
AcDbEntity
  8
LOGO
  6
Continuous
 62
     7
100
AcDbText
 10
6326.899021047156
 20
-757.0083638804085
 30
0.0
 40
34.0150740271493
  1
MF102
  7
CHINESET
 72
     1
 11
6401.408230820911
 21
-740.0008268668338
 31
0.0
100
AcDbText
 73
     2
  0
LINE
  5
77A0
330
1F
100
AcDbEntity
  8
LOGO
 62
     6
100
AcDbLine
 10
6450.610256110732
 20
-801.2279601157006
 30
0.0
 11
6314.549960002139
 21
-801.2279601157006
 31
0.0
  0
LINE
  5
77A1
330
1F
100
AcDbEntity
  8
LOGO
 62
     6
100
AcDbLine
 10
6680.403930662554
 20
-709.3872602423981
 30
0.0
 11
6532.204460607968
 21
-709.3872602423981
 31
0.0
  0
LINE
  5
77A2
330
1F
100
AcDbEntity
  8
LOGO
 62
     6
100
AcDbLine
 10
6657.338172446445
 20
-801.2279601157006
 30
0.0
 11
6554.85829053072
 21
-801.2279601157006
 31
0.0
  0
LINE
  5
77A3
330
1F
100
AcDbEntity
  8
LOGO
 62
     6
100
AcDbLine
 10
6680.403930662554
 20
-770.6143934912679
 30
0.0
 11
6532.204460607968
 21
-770.6143934912679
 31
0.0
  0
TEXT
  5
77A4
330
1F
100
AcDbEntity
  8
LOGO
  6
Continuous
 62
     7
100
AcDbText
 10
6564.853642906673
 20
-757.3940969632594
 30
0.0
 40
34.0150740271493
  1
800
  7
CHINESET
 72
     1
 11
6608.587309513007
 21
-740.3865599496847
 31
0.0
100
AcDbText
 73
     2
  0
LINE
  5
77A5
330
1F
100
AcDbEntity
  8
LOGO
 62
     6
100
AcDbLine
 10
6532.204460607968
 20
-709.3872602423981
 30
0.0
 11
6532.204460607968
 21
-770.6143934912679
 31
0.0
  0
TEXT
  5
77A6
330
1F
100
AcDbEntity
  8
LOGO
  6
Continuous
 62
     7
100
AcDbText
 10
6776.374192549361
 20
-757.3940969632594
 30
0.0
 40
34.0150740271493
  1
?
  7
CHINESET
 72
     1
 11
6785.282902413616
 21
-740.3865599496847
 31
0.0
100
AcDbText
 73
     2
  0
LINE
  5
77A7
330
1F
100
AcDbEntity
  8
LOGO
  6
Continuous
 62
     7
100
AcDbLine
 10
6689.871630639519
 20
-740.2177030489751
 30
0.0
 11
6716.907298603415
 21
-740.2177030489751
 31
0.0
  0
LINE
  5
77A8
330
1F
100
AcDbEntity
  8
LOGO
 62
     6
100
AcDbLine
 10
6727.495585677066
 20
-709.3872602423981
 30
0.0
 11
6727.495585677066
 21
-770.6143934912679
 31
0.0
  0
LINE
  5
77A9
330
1F
100
AcDbEntity
  8
LOGO
 62
     6
100
AcDbLine
 10
6680.403930662554
 20
-709.3872602423981
 30
0.0
 11
6680.403930662554
 21
-770.6143934912679
 31
0.0
  0
LINE
  5
77AA
330
1F
100
AcDbEntity
  8
LOGO
 62
     6
100
AcDbLine
 10
6845.763061675734
 20
-801.2279601157006
 30
0.0
 11
6845.763061675734
 21
-876.0611229754298
 31
0.0
  0
LINE
  5
77AB
330
1F
100
AcDbEntity
  8
LOGO
 62
     6
100
AcDbLine
 10
6836.720736912766
 20
-709.3872602423981
 30
0.0
 11
6836.720736912766
 21
-770.6143934912679
 31
0.0
  0
TEXT
  5
77AC
330
1F
100
AcDbEntity
  8
LOGO
 62
     6
100
AcDbText
 10
5750.392215227568
 20
-719.5817386294719
 30
1337.575149107068
 40
20.40904441628959
  1
比例 Scale:
 41
0.9
  7
CHINESET
 72
     4
 11
5815.200042429831
 21
-709.3872602423981
 31
1337.575149107068
100
AcDbText
  0
TEXT
  5
77AD
330
1F
100
AcDbEntity
  8
LOGO
 62
     6
100
AcDbText
 10
5757.526269592726
 20
-760.1227853975109
 30
1337.575149107068
 40
20.40904441628959
  1
投影 View:
 41
0.9
  7
CHINESET
 72
     4
 11
5815.200042429831
 21
-750.2053490749791
 31
1337.575149107068
100
AcDbText
  0
TEXT
  5
77AE
330
1F
100
AcDbEntity
  8
LOGO
 62
     6
100
AcDbText
 10
5759.52161813164
 20
-801.227960115702
 30
1337.575149107068
 40
20.40904441628959
  1
單位 Unit:
 41
0.9
  7
CHINESET
 72
     4
 11
5815.200042429831
 21
-791.0234379075573
 31
1337.575149107068
100
AcDbText
  0
TEXT
  5
77AF
330
1F
100
AcDbEntity
  8
LOGO
  6
Continuous
 62
     6
100
AcDbText
 10
6350.18479945915
 20
-867.5573544686439
 30
1337.575149107068
 40
17.00753701357465
  1
Model
  7
CHINESET
 72
     4
 11
6382.580108056436
 21
-859.0535859618567
 31
1337.575149107068
100
AcDbText
  0
TEXT
  5
77B0
330
1F
100
AcDbEntity
  8
LOGO
  6
Continuous
 62
     6
100
AcDbText
 10
6564.918470109422
 20
-864.7227649663815
 30
1337.575149107068
 40
17.00753701357465
  1
output
  7
CHINESET
 72
     4
 11
6604.602723141096
 21
-859.0535859618567
 31
1337.575149107068
100
AcDbText
  0
TEXT
  5
77B1
330
1F
100
AcDbEntity
  8
LOGO
  6
Continuous
 62
     6
100
AcDbText
 10
6755.171927747119
 20
-864.7227649663815
 30
1337.575149107068
 40
17.00753701357465
  1
Option
 41
0.8
  7
CHINESET
 72
     4
 11
6785.299564742594
 21
-859.0535859618567
 31
1337.575149107068
100
AcDbText
  0
TEXT
  5
77B2
330
1F
100
AcDbEntity
  8
LOGO
 62
     6
100
AcDbText
 10
6354.801130934264
 20
-838.2963557484387
 30
1337.575149107068
 40
27.21205922171945
  1
型號
  7
CHINESET
 72
     4
 11
6382.580108056436
 21
-825.0385119347074
 31
1337.575149107068
100
AcDbText
  0
TEXT
  5
77B3
330
1F
100
AcDbEntity
  8
LOGO
 62
     6
100
AcDbText
 10
6564.389495533013
 20
-838.5485672553329
 30
1337.575149107068
 40
27.21205922171945
  1
工作力
  7
CHINESET
 72
     4
 11
6604.602723141096
 21
-825.0385119347074
 31
1337.575149107068
100
AcDbText
  0
TEXT
  5
77B4
330
1F
100
AcDbEntity
  8
LOGO
 62
     6
100
AcDbText
 10
6736.11296419365
 20
-838.4213455217668
 30
1337.575149107068
 40
27.21205922171945
  1
選用配件
 41
0.9
  7
CHINESET
 72
     4
 11
6785.299564742594
 21
-825.0385119347074
 31
1337.575149107068
100
AcDbText
  0
LWPOLYLINE
  5
77B5
330
1F
100
AcDbEntity
  8
0
 62
     4
100
AcDbPolyline
 90
        4
 70
     1
 43
0.0
 10
5583.897539045214
 20
-688.9782158261091
 10
7111.033342789645
 20
-688.9782158261091
 10
7111.033342789645
 20
911.1127465755657
 10
5583.897539045214
 20
911.1127465755657
1001
GENIUS_GENREC_14
1002
{
1000
PYDIR
1011
5583.897539045214
1021
911.1127465755657
1031
0.0
1002
}
1002
{
1000
PXDIR
1011
7111.033342789645
1021
-688.9782158261091
1031
0.0
1002
}
1002
{
1000
PORI
1011
5583.897539045214
1021
-688.9782158261091
1031
0.0
1002
}
1002
{
1000
PINS
1011
5583.897539045214
1021
-688.9782158261091
1031
0.0
1002
}
1002
{
1000
PINS2
1011
7111.033342789645
1021
911.1127465755657
1031
0.0
1002
}
1002
{
1000
C
1070
     1
1002
}
1001
GENIUS_GENODEF_13
1002
{
1000
HIER
1070
     0
1002
}
1002
{
1000
MANEDIT
1070
     0
1002
}
1002
{
1000
NOSEL
1070
     0
1002
}
1002
{
1000
BEHIND
1070
     0
1002
}
1002
{
1000
OTHER
1070
     0
1002
}
1002
{
1000
REACTOR
1002
}
1001
GENIUS_GENOBJ-N-REC_13
1002
{
1000
OWNER
1000
GEN
1002
}
  0
SOLID
  5
77B6
330
1F
100
AcDbEntity
  8
LOGO
 62
     5
100
AcDbTrace
 10
5605.072250167364
 20
-777.505350980482
 30
0.0
 11
5613.896585439634
 21
-777.5053509804851
 31
0.0
 12
5650.715363644664
 22
-693.826309605428
 32
0.0
 13
5659.539698916933
 23
-693.8263096054352
 33
0.0
  0
SOLID
  5
77B7
330
1F
100
AcDbEntity
  8
LOGO
 62
     5
100
AcDbTrace
 10
5617.548034517827
 20
-777.505350980482
 30
0.0
 11
5626.372369790096
 21
-777.505350980482
 31
0.0
 12
5659.539698916933
 22
-700.5206329154373
 32
0.0
 13
5650.715363644664
 23
-732.8765289137915
 33
0.0
  0
SOLID
  5
77B8
330
1F
100
AcDbEntity
  8
LOGO
 62
     2
100
AcDbTrace
 10
5613.896585439634
 20
-777.5053509804851
 30
0.0
 11
5617.548034517827
 21
-777.505350980482
 31
0.0
 12
5659.539698916933
 22
-693.8263096054352
 32
0.0
 13
5663.191147995127
 23
-693.8263096054352
 33
0.0
  0
SOLID
  5
77B9
330
1F
100
AcDbEntity
  8
LOGO
 62
     5
100
AcDbTrace
 10
5590.924676733816
 20
-807.9340932986802
 30
0.0
 11
5593.967550965635
 21
-807.9340932986802
 31
0.0
 12
5602.536521640846
 22
-792.7197221395838
 32
0.0
 13
5605.579395872664
 23
-792.7197221395838
 33
0.0
  0
SOLID
  5
77BA
330
1F
100
AcDbEntity
  8
LOGO
 62
     5
100
AcDbTrace
 10
5602.536521640846
 20
-792.7197221395838
 30
0.0
 11
5605.579395872664
 21
-792.7197221395838
 31
0.0
 12
5602.536521640846
 22
-807.9340932986802
 32
0.0
 13
5605.579395872664
 23
-807.9340932986802
 33
0.0
  0
SOLID
  5
77BB
330
1F
100
AcDbEntity
  8
LOGO
 62
     5
100
AcDbTrace
 10
5602.536521640846
 20
-807.9340932986802
 30
0.0
 11
5605.579395872664
 21
-807.9340932986802
 31
0.0
 12
5614.148366547878
 22
-792.7197221395838
 32
0.0
 13
5617.191240779696
 23
-792.7197221395838
 33
0.0
  0
SOLID
  5
77BC
330
1F
100
AcDbEntity
  8
LOGO
 62
     5
100
AcDbTrace
 10
5614.148366547878
 20
-792.7197221395838
 30
0.0
 11
5617.191240779696
 21
-792.7197221395838
 31
0.0
 12
5614.148366547878
 22
-807.9340932986802
 32
0.0
 13
5617.191240779696
 23
-807.9340932986802
 33
0.0
  0
POLYLINE
  5
77BD
330
1F
100
AcDbEntity
  8
LOGO
 62
     5
100
AcDb2dPolyline
 66
     1
 10
0.0
 20
0.0
 30
0.0
 40
3.047750632832578
 41
3.047750632832578
  0
VERTEX
  5
77BE
330
77BD
100
AcDbEntity
  8
LOGO
 62
     5
100
AcDbVertex
100
AcDb2dVertex
 10
5716.144474230308
 20
-798.805470603224
 30
0.0
 42
1.0
  0
VERTEX
  5
77BF
330
77BD
100
AcDbEntity
  8
LOGO
 62
     5
100
AcDbVertex
100
AcDb2dVertex
 10
5707.001222331822
 20
-798.805470603224
 30
0.0
 42
1.0
  0
SEQEND
  5
77C0
330
77BD
100
AcDbEntity
  8
LOGO
 62
     5
  0
POLYLINE
  5
77C1
330
1F
100
AcDbEntity
  8
LOGO
 62
     5
100
AcDb2dPolyline
 66
     1
 10
0.0
 20
0.0
 30
0.0
 70
     1
  0
VERTEX
  5
77C2
330
77C1
100
AcDbEntity
  8
LOGO
 62
     5
100
AcDbVertex
100
AcDb2dVertex
 10
5689.765785811295
 20
-800.3269077191323
 30
0.0
 42
1.000000057330635
  0
VERTEX
  5
77C3
330
77C1
100
AcDbEntity
  8
LOGO
 62
     5
100
AcDbVertex
100
AcDb2dVertex
 10
5698.89440850677
 20
-800.3269077191323
 30
0.0
 42
1.000000057330635
  0
SEQEND
  5
77C4
330
77C1
100
AcDbEntity
  8
LOGO
 62
     5
  0
CIRCLE
  5
77C5
330
1F
100
AcDbEntity
  8
LOGO
 62
     5
100
AcDbCircle
 10
5694.330097159032
 20
-800.3269077191323
 30
0.0
 40
4.56431134773007
  0
POLYLINE
  5
77C6
330
1F
100
AcDbEntity
  8
LOGO
 62
     5
100
AcDb2dPolyline
 66
     1
 10
0.0
 20
0.0
 30
0.0
 70
     1
 40
3.047750632832578
 41
3.047750632832578
  0
VERTEX
  5
77C7
330
77C6
100
AcDbEntity
  8
LOGO
 62
     5
100
AcDbVertex
100
AcDb2dVertex
 10
5688.234595893362
 20
-800.3269077191323
 30
0.0
 42
1.0
  0
VERTEX
  5
77C8
330
77C6
100
AcDbEntity
  8
LOGO
 62
     5
100
AcDbVertex
100
AcDb2dVertex
 10
5700.425598424703
 20
-800.3269077191323
 30
0.0
 42
1.0
  0
SEQEND
  5
77C9
330
77C6
100
AcDbEntity
  8
LOGO
 62
     5
  0
LINE
  5
77CA
330
1F
100
AcDbEntity
  8
LOGO
 62
     5
100
AcDbLine
 10
5717.658596744712
 20
-807.9340932986802
 30
0.0
 11
5717.658596744712
 21
-798.805470603224
 31
0.0
  0
SOLID
  5
77CB
330
1F
100
AcDbEntity
  8
LOGO
 62
     5
100
AcDbTrace
 10
5698.894104219347
 20
-792.7197221395838
 30
0.0
 11
5701.936978451165
 21
-792.7197221395838
 31
0.0
 12
5698.894104219347
 22
-807.9340932986802
 32
0.0
 13
5701.936978451165
 23
-807.9340932986802
 33
0.0
  0
SOLID
  5
77CC
330
1F
100
AcDbEntity
  8
LOGO
 62
     5
100
AcDbTrace
 10
5705.487099817418
 20
-807.9340932986802
 30
0.0
 11
5708.529974049256
 21
-807.9340932986802
 31
0.0
 12
5705.487099817418
 22
-792.7197221395838
 32
0.0
 13
5708.529974049256
 23
-792.7197221395838
 33
0.0
  0
SOLID
  5
77CD
330
1F
100
AcDbEntity
  8
LOGO
 62
     5
100
AcDbTrace
 10
5714.615722512893
 20
-798.805470603224
 30
0.0
 11
5717.658596744712
 21
-798.805470603224
 31
0.0
 12
5714.615722512893
 22
-807.9340932986802
 32
0.0
 13
5717.658596744712
 23
-807.9340932986802
 33
0.0
  0
SOLID
  5
77CE
330
1F
100
AcDbEntity
  8
LOGO
 62
     5
100
AcDbTrace
 10
5705.182812394251
 20
-700.5206329154373
 30
0.0
 11
5696.358477121965
 21
-732.8765289137915
 31
0.0
 12
5705.182812394251
 22
-777.5053509804851
 32
0.0
 13
5696.358477121965
 23
-777.5053509804851
 33
0.0
  0
SOLID
  5
77CF
330
1F
100
AcDbEntity
  8
LOGO
 62
     5
100
AcDbTrace
 10
5708.834261472426
 20
-777.5053509804851
 30
0.0
 11
5717.658596744712
 21
-777.5053509804851
 31
0.0
 12
5708.834261472426
 22
-693.8263096054352
 32
0.0
 13
5717.658596744712
 23
-693.826309605428
 33
0.0
  0
SOLID
  5
77D0
330
1F
100
AcDbEntity
  8
LOGO
 62
     2
100
AcDbTrace
 10
5705.182812394251
 20
-693.826309605428
 30
0.0
 11
5708.834261472426
 21
-693.8263096054352
 31
0.0
 12
5705.182812394251
 22
-777.5053509804851
 32
0.0
 13
5708.834261472426
 23
-777.5053509804851
 33
0.0
  0
POLYLINE
  5
77D1
330
1F
100
AcDbEntity
  8
LOGO
 62
     5
100
AcDb2dPolyline
 66
     1
 10
0.0
 20
0.0
 30
0.0
 40
3.047750632832578
 41
3.047750632832578
  0
VERTEX
  5
77D2
330
77D1
100
AcDbEntity
  8
LOGO
 62
     5
100
AcDbVertex
100
AcDb2dVertex
 10
5672.52974071594
 20
-798.805470603224
 30
0.0
 42
1.0
  0
VERTEX
  5
77D3
330
77D1
100
AcDbEntity
  8
LOGO
 62
     5
100
AcDbVertex
100
AcDb2dVertex
 10
5663.386488817453
 20
-798.805470603224
 30
0.0
 42
1.0
  0
SEQEND
  5
77D4
330
77D1
100
AcDbEntity
  8
LOGO
 62
     5
  0
POLYLINE
  5
77D5
330
1F
100
AcDbEntity
  8
LOGO
 62
     5
100
AcDb2dPolyline
 66
     1
 10
0.0
 20
0.0
 30
0.0
 40
3.047750632832578
 41
3.047750632832578
  0
VERTEX
  5
77D6
330
77D5
100
AcDbEntity
  8
LOGO
 62
     5
100
AcDbVertex
100
AcDb2dVertex
 10
5681.658363411395
 20
-798.805470603224
 30
0.0
 42
1.0
  0
VERTEX
  5
77D7
330
77D5
100
AcDbEntity
  8
LOGO
 62
     5
100
AcDbVertex
100
AcDb2dVertex
 10
5672.515111512909
 20
-798.805470603224
 30
0.0
 42
1.0
  0
SEQEND
  5
77D8
330
77D5
100
AcDbEntity
  8
LOGO
 62
     5
  0
POLYLINE
  5
77D9
330
1F
100
AcDbEntity
  8
LOGO
 62
     5
100
AcDb2dPolyline
 66
     1
 10
0.0
 20
0.0
 30
0.0
 40
3.047750632832578
 41
3.047750632832578
  0
VERTEX
  5
77DA
330
77D9
100
AcDbEntity
  8
LOGO
 62
     5
100
AcDbVertex
100
AcDb2dVertex
 10
5638.043629897028
 20
-798.805470603224
 30
0.0
 42
1.0
  0
VERTEX
  5
77DB
330
77D9
100
AcDbEntity
  8
LOGO
 62
     5
100
AcDbVertex
100
AcDb2dVertex
 10
5628.900377998541
 20
-798.805470603224
 30
0.0
 42
1.0
  0
SEQEND
  5
77DC
330
77D9
100
AcDbEntity
  8
LOGO
 62
     5
  0
SOLID
  5
77DD
330
1F
100
AcDbEntity
  8
LOGO
 62
     5
100
AcDbTrace
 10
5627.386255484156
 20
-792.7197221395838
 30
0.0
 11
5630.429129715957
 21
-792.7197221395838
 31
0.0
 12
5627.386255484156
 22
-807.9340932986802
 32
0.0
 13
5630.429129715957
 23
-807.9340932986802
 33
0.0
  0
SOLID
  5
77DE
330
1F
100
AcDbEntity
  8
LOGO
 62
     5
100
AcDbTrace
 10
5636.514878179612
 20
-798.805470603224
 30
0.0
 11
5639.55775241143
 21
-798.805470603224
 31
0.0
 12
5636.514878179612
 22
-807.9340932986802
 32
0.0
 13
5639.55775241143
 23
-807.9340932986802
 33
0.0
  0
POLYLINE
  5
77DF
330
1F
100
AcDbEntity
  8
LOGO
 62
     5
100
AcDb2dPolyline
 66
     1
 10
0.0
 20
0.0
 30
0.0
 70
     1
 40
3.047750632832578
 41
3.047750632832578
  0
VERTEX
  5
77E0
330
77DF
100
AcDbEntity
  8
LOGO
 62
     5
100
AcDbVertex
100
AcDb2dVertex
 10
5644.619862378994
 20
-800.3269077191323
 30
0.0
 42
1.0
  0
VERTEX
  5
77E1
330
77DF
100
AcDbEntity
  8
LOGO
 62
     5
100
AcDbVertex
100
AcDb2dVertex
 10
5656.810864910332
 20
-800.3269077191323
 30
0.0
 42
1.0
  0
SEQEND
  5
77E2
330
77DF
100
AcDbEntity
  8
LOGO
 62
     5
  0
SOLID
  5
77E3
330
1F
100
AcDbEntity
  8
LOGO
 62
     5
100
AcDbTrace
 10
5655.279370704978
 20
-788.1554107918507
 30
0.0
 11
5658.322244936797
 21
-788.1554107918507
 31
0.0
 12
5655.279370704978
 22
-807.9340932986802
 32
0.0
 13
5658.322244936797
 23
-807.9340932986802
 33
0.0
  0
SOLID
  5
77E4
330
1F
100
AcDbEntity
  8
LOGO
 62
     5
100
AcDbTrace
 10
5661.872366303049
 20
-792.7197221395838
 30
0.0
 11
5664.915240534888
 21
-792.7197221395838
 31
0.0
 12
5661.872366303049
 22
-807.9340932986802
 32
0.0
 13
5664.915240534888
 23
-807.9340932986802
 33
0.0
  0
SOLID
  5
77E5
330
1F
100
AcDbEntity
  8
LOGO
 62
     5
100
AcDbTrace
 10
5671.000988998525
 20
-798.805470603224
 30
0.0
 11
5674.043863230342
 21
-798.805470603224
 31
0.0
 12
5671.000988998525
 22
-807.9340932986802
 32
0.0
 13
5674.043863230342
 23
-807.9340932986802
 33
0.0
  0
SOLID
  5
77E6
330
1F
100
AcDbEntity
  8
LOGO
 62
     5
100
AcDbTrace
 10
5680.129611693981
 20
-798.805470603224
 30
0.0
 11
5683.172485925799
 21
-798.805470603224
 31
0.0
 12
5680.129611693981
 22
-807.9340932986864
 32
0.0
 13
5683.172485925799
 23
-807.9340932986864
 33
0.0
  0
SOLID
  5
77E7
330
1F
100
AcDbEntity
  8
LOGO
 62
     5
100
AcDbTrace
 10
5620.793259886067
 20
-790.5897101773109
 30
0.0
 11
5623.836134117884
 21
-790.5897101773109
 31
0.0
 12
5620.793259886067
 22
-788.1554107918507
 32
0.0
 13
5623.836134117884
 23
-788.1554107918507
 33
0.0
  0
SOLID
  5
77E8
330
1F
100
AcDbEntity
  8
LOGO
 62
     5
100
AcDbTrace
 10
5620.793259886067
 20
-792.7197221395838
 30
0.0
 11
5623.836134117884
 21
-792.7197221395838
 31
0.0
 12
5620.793259886067
 22
-807.9340932986864
 32
0.0
 13
5623.836134117884
 23
-807.9340932986802
 33
0.0
  0
SOLID
  5
77E9
330
1F
100
AcDbEntity
  8
LOGO
 62
     5
100
AcDbTrace
 10
5650.715363644664
 20
-777.505350980482
 30
0.0
 11
5659.539698916933
 21
-777.505350980482
 31
0.0
 12
5650.715363644664
 22
-732.8765289137915
 32
0.0
 13
5659.539698916933
 23
-700.5206329154373
 33
0.0
  0
SOLID
  5
77EA
330
1F
100
AcDbEntity
  8
LOGO
 62
     5
100
AcDbTrace
 10
5663.191147995127
 20
-693.8263096054352
 30
0.0
 11
5672.015483267415
 21
-693.826309605428
 31
0.0
 12
5663.191147995127
 22
-770.8110276704801
 32
0.0
 13
5672.015483267415
 23
-738.4551316721253
 33
0.0
  0
SOLID
  5
77EB
330
1F
100
AcDbEntity
  8
LOGO
 62
     2
100
AcDbTrace
 10
5659.539698916933
 20
-693.8263096054352
 30
0.0
 11
5663.191147995127
 21
-693.8263096054352
 31
0.0
 12
5659.539698916933
 22
-777.505350980482
 32
0.0
 13
5663.191147995127
 23
-777.505350980482
 33
0.0
  0
SOLID
  5
77EC
330
1F
100
AcDbEntity
  8
LOGO
 62
     5
100
AcDbTrace
 10
5663.191147995127
 20
-770.8110276704801
 30
0.0
 11
5672.015483267415
 21
-738.4551316721253
 31
0.0
 12
5705.182812394251
 22
-693.826309605428
 32
0.0
 13
5696.358477121965
 23
-693.826309605428
 33
0.0
  0
SOLID
  5
77ED
330
1F
100
AcDbEntity
  8
LOGO
 62
     5
100
AcDbTrace
 10
5663.191147995127
 20
-777.505350980482
 30
0.0
 11
5672.015483267415
 21
-777.505350980482
 31
0.0
 12
5705.182812394251
 22
-700.5206329154373
 32
0.0
 13
5696.358477121965
 23
-732.8765289137915
 33
0.0
  0
SOLID
  5
77EE
330
1F
100
AcDbEntity
  8
LOGO
 62
     2
100
AcDbTrace
 10
5659.539698916933
 20
-777.505350980482
 30
0.0
 11
5663.191147995127
 21
-777.505350980482
 31
0.0
 12
5705.182812394251
 22
-693.826309605428
 32
0.0
 13
5708.834261472426
 23
-693.8263096054352
 33
0.0
  0
TEXT
  5
77EF
330
1F
100
AcDbEntity
  8
0
100
AcDbText
 10
6044.53336124773
 20
-882.2111289127477
 30
0.0
 40
17.01840293999999
  1
1050701
 41
0.8
  7
CHINESET
 72
     1
 11
6083.756728023731
 21
-882.2111289127477
 31
0.0
100
AcDbText
  0
LINE
  5
77F0
330
1F
100
AcDbEntity
  8
LOGO
 62
     1
100
AcDbLine
 10
6136.265525042241
 20
-852.2505711564251
 30
0.0
 11
6136.265525042241
 21
-893.068659989005
 31
0.0
  0
LINE
  5
77F1
330
1F
100
AcDbEntity
  8
LOGO
 62
     1
100
AcDbLine
 10
6136.265525042241
 20
-852.2505711564251
 30
0.0
 11
6032.896516203586
 21
-852.2505711564251
 31
0.0
  0
LWPOLYLINE
  5
77F2
330
1F
100
AcDbEntity
  8
0
 62
     1
100
AcDbPolyline
 90
        4
 70
     1
 43
0.0
 10
5583.897539045214
 20
-688.9782158261091
 10
7111.033342789645
 20
-688.9782158261091
 10
7111.033342789645
 20
-893.068659989005
 10
5583.897539045214
 20
-893.068659989005
1001
GENIUS_GENREC_14
1002
{
1000
PYDIR
1011
5583.897539045214
1021
-893.068659989005
1031
0.0
1002
}
1002
{
1000
PXDIR
1011
7111.033342789645
1021
-688.9782158261091
1031
0.0
1002
}
1002
{
1000
PORI
1011
5583.897539045214
1021
-688.9782158261091
1031
0.0
1002
}
1002
{
1000
PINS
1011
5583.897539045214
1021
-688.9782158261091
1031
0.0
1002
}
1002
{
1000
PINS2
1011
7111.033342789645
1021
-893.068659989005
1031
0.0
1002
}
1002
{
1000
C
1070
     1
1002
}
1001
GENIUS_GENOBJ-N-REC_13
1002
{
1000
OWNER
1000
GEN
1002
}
1001
GENIUS_GENODEF_13
1002
{
1000
HIER
1070
     0
1002
}
1002
{
1000
MANEDIT
1070
     0
1002
}
1002
{
1000
NOSEL
1070
     0
1002
}
1002
{
1000
BEHIND
1070
     0
1002
}
1002
{
1000
OTHER
1070
     0
1002
}
1002
{
1000
REACTOR
1002
}
  0
LINE
  5
77F3
330
1F
100
AcDbEntity
  8
LOGO
 62
     6
100
AcDbLine
 10
6606.30419563526
 20
-770.6143934912679
 30
0.0
 11
6606.304195635259
 21
-801.2279601157008
 31
0.0
  0
LINE
  5
77F4
330
1F
100
AcDbEntity
  8
LOGO
 62
     6
100
AcDbLine
 10
6782.108161294916
 20
-770.6143934912679
 30
0.0
 11
6782.108161294916
 21
-801.2279601157006
 31
0.0
  0
ENDSEC
  0
SECTION
  2
OBJECTS
  0
DICTIONARY
  5
C
330
0
100
AcDbDictionary
281
     1
  3
ACAD_COLOR
350
BE
  3
ACAD_GROUP
350
D
  3
ACAD_LAYOUT
350
1A
  3
ACAD_MATERIAL
350
BD
  3
ACAD_MLINESTYLE
350
17
  3
ACAD_PLOTSETTINGS
350
19
  3
ACAD_PLOTSTYLENAME
350
E
  3
ACAD_TABLESTYLE
350
11A
  3
ACDBHEADERROUNDTRIPXREC
350
787C
  3
AcDbVariableDictionary
350
94
  3
AcmDictionary
350
5B
  3
AMG
350
41
  3
AMGSNAPSETTINGS
350
1B8
  3
DWGPROPS
350
787B
  0
DICTIONARY
  5
3F9
330
2
100
AcDbDictionary
280
     1
281
     1
  3
ACAD_LAYERFILTERS
360
63AB
  3
ACAD_LAYERSTATES
360
72C
  3
ACLYDICTIONARY
360
63AA
  0
DICTIONARY
  5
8F
330
1F
100
AcDbDictionary
280
     1
281
     1
  0
DICTIONARY
  5
BE
102
{ACAD_REACTORS
330
C
102
}
330
C
100
AcDbDictionary
281
     1
  0
DICTIONARY
  5
D
102
{ACAD_REACTORS
330
C
102
}
330
C
100
AcDbDictionary
281
     1
  0
DICTIONARY
  5
1A
102
{ACAD_REACTORS
330
C
102
}
330
C
100
AcDbDictionary
281
     1
  3
Model
350
22
  3
配置1
350
1E
  3
配置2
350
26
  0
DICTIONARY
  5
BD
102
{ACAD_REACTORS
330
C
102
}
330
C
100
AcDbDictionary
281
     1
  0
DICTIONARY
  5
17
102
{ACAD_REACTORS
330
C
102
}
330
C
100
AcDbDictionary
281
     1
  3
Standard
350
18
  0
DICTIONARY
  5
19
102
{ACAD_REACTORS
330
C
102
}
330
C
100
AcDbDictionary
281
     1
  0
ACDBDICTIONARYWDFLT
  5
E
102
{ACAD_REACTORS
330
C
102
}
330
C
100
AcDbDictionary
281
     1
  3
Normal
350
F
  3
型式 1
350
728
  3
型式 2
350
729
  3
型式 3
350
72A
  3
型式 4
350
72B
100
AcDbDictionaryWithDefault
340
F
  0
DICTIONARY
  5
11A
102
{ACAD_REACTORS
330
C
102
}
330
C
100
AcDbDictionary
281
     1
  3
Standard
350
11B
  0
DICTIONARY
  5
787C
102
{ACAD_REACTORS
330
C
102
}
330
C
100
AcDbDictionary
281
     1
  0
DICTIONARY
  5
94
102
{ACAD_REACTORS
330
C
102
}
330
C
100
AcDbDictionary
281
     1
  3
CTABLESTYLE
350
138
  3
DIMASSOC
350
96
  3
INDEXCTL
350
95
  3
PROJECTNAME
350
7879
  0
DICTIONARY
  5
5B
102
{ACAD_REACTORS
330
C
102
}
330
C
100
AcDbDictionary
281
     1
  3
AcmBOM
350
1B5
  3
AcmStdDictionary
350
61
  3
AMDTSECTSYM_ARROWCOLOR
350
123
  0
DICTIONARY
  5
41
102
{ACAD_REACTORS
330
C
102
}
330
C
100
AcDbDictionary
281
     1
  0
DICTIONARY
  5
1B8
102
{ACAD_REACTORS
330
C
102
}
330
C
100
AcDbDictionary
281
     1
  0
XRECORD
  5
787B
102
{ACAD_REACTORS
330
C
102
}
330
C
100
AcDbXrecord
280
     1
  1
DWGPROPS COOKIE
  2

  3

  4

  6

  7

  8

  9

300
AmdtFileType=84
301
=
302
=
303
=
304
=
305
=
306
=
307
=
308
=
309
=
 40
0.2801992939814815
 41
2453556.605858461
 42
2453557.5936536
  1

 90
        1
  0
DICTIONARY
  5
63AB
102
{ACAD_REACTORS
330
3F9
102
}
330
3F9
100
AcDbDictionary
281
     1
  0
DICTIONARY
  5
72C
102
{ACAD_REACTORS
330
3F9
102
}
330
3F9
100
AcDbDictionary
281
     1
  0
DICTIONARY
  5
63AA
102
{ACAD_REACTORS
330
3F9
102
}
330
3F9
100
AcDbDictionary
281
     1
1001
ACAD
1000
<All
  0
LAYOUT
  5
22
102
{ACAD_XDICTIONARY
360
787F
102
}
102
{ACAD_REACTORS
330
1A
102
}
330
1A
100
AcDbPlotSettings
  1

  2
\\RD\EPSON Stylus C63 Series單色
  4
A4
  6

 40
3.757083177566528
 41
3.757076978683471
 42
3.757080078125
 43
3.757080078125
 44
209.9733276367187
 45
296.9683227539062
 46
0.0
 47
0.0
 48
0.0
 49
0.0
140
0.0
141
0.0
142
1.0
143
0.3405120737814363
 70
 11952
 72
     1
 73
     0
 74
     0
  7
單色出圖.ctb
 75
     0
147
2.936753428137963
148
-2047.07469463503
149
-1261.649717473083
100
AcDbLayout
  1
Model
 70
     1
 71
     0
 10
0.0
 20
0.0
 11
12.0
 21
9.0
 12
0.0
 22
0.0
 32
0.0
 14
0.0
 24
0.0
 34
0.0
 15
0.0
 25
0.0
 35
0.0
146
0.0
 13
0.0
 23
0.0
 33
0.0
 16
1.0
 26
0.0
 36
0.0
 17
0.0
 27
1.0
 37
0.0
 76
     0
330
1F
1001
ACAD_PSEXT
1000
\\RD\EPSON Stylus C63 Series單色
1000
EPSON Stylus C63 Series
1000
\\RD
1000

1070
     0
  0
LAYOUT
  5
1E
102
{ACAD_XDICTIONARY
360
787D
102
}
102
{ACAD_REACTORS
330
1A
102
}
330
1A
100
AcDbPlotSettings
  1

  2

  4

  6

 40
0.0
 41
0.0
 42
0.0
 43
0.0
 44
0.0
 45
0.0
 46
0.0
 47
0.0
 48
0.0
 49
0.0
140
0.0
141
0.0
142
1.0
143
1.0
 70
   688
 72
     0
 73
     0
 74
     5
  7
單色出圖.ctb
 75
    16
147
1.0
148
0.0
149
0.0
100
AcDbLayout
  1
配置1
 70
     1
 71
     1
 10
0.0
 20
0.0
 11
420.0
 21
297.0
 12
0.0
 22
0.0
 32
0.0
 14
1.000000000000000E+20
 24
1.000000000000000E+20
 34
1.000000000000000E+20
 15
-1.000000000000000E+20
 25
-1.000000000000000E+20
 35
-1.000000000000000E+20
146
0.0
 13
0.0
 23
0.0
 33
0.0
 16
1.0
 26
0.0
 36
0.0
 17
0.0
 27
1.0
 37
0.0
 76
     0
330
1B
  0
LAYOUT
  5
26
102
{ACAD_XDICTIONARY
360
7881
102
}
102
{ACAD_REACTORS
330
1A
102
}
330
1A
100
AcDbPlotSettings
  1

  2

  4

  6

 40
0.0
 41
0.0
 42
0.0
 43
0.0
 44
0.0
 45
0.0
 46
0.0
 47
0.0
 48
0.0
 49
0.0
140
0.0
141
0.0
142
1.0
143
1.0
 70
   688
 72
     0
 73
     0
 74
     5
  7
單色出圖.ctb
 75
    16
147
1.0
148
0.0
149
0.0
100
AcDbLayout
  1
配置2
 70
     1
 71
     2
 10
0.0
 20
0.0
 11
12.0
 21
9.0
 12
0.0
 22
0.0
 32
0.0
 14
0.0
 24
0.0
 34
0.0
 15
0.0
 25
0.0
 35
0.0
146
0.0
 13
0.0
 23
0.0
 33
0.0
 16
1.0
 26
0.0
 36
0.0
 17
0.0
 27
1.0
 37
0.0
 76
     0
330
23
  0
MLINESTYLE
  5
18
102
{ACAD_REACTORS
330
17
102
}
330
17
100
AcDbMlineStyle
  2
STANDARD
 70
     0
  3

 62
   256
 51
90.0
 52
90.0
 71
     2
 49
0.5
 62
   256
  6
BYLAYER
 49
-0.5
 62
   256
  6
BYLAYER
  0
ACDBPLACEHOLDER
  5
F
102
{ACAD_REACTORS
330
E
102
}
330
E
  0
ACDBPLACEHOLDER
  5
728
102
{ACAD_REACTORS
330
E
102
}
330
E
  0
ACDBPLACEHOLDER
  5
729
102
{ACAD_REACTORS
330
E
102
}
330
E
  0
ACDBPLACEHOLDER
  5
72A
102
{ACAD_REACTORS
330
E
102
}
330
E
  0
ACDBPLACEHOLDER
  5
72B
102
{ACAD_REACTORS
330
E
102
}
330
E
  0
TABLESTYLE
  5
11B
102
{ACAD_REACTORS
330
11A
102
}
330
11A
100
AcDbTableStyle
  3
Standard
 70
     0
 71
     0
 40
1.5
 41
1.5
280
     0
281
     0
  7
STANDARD
140
4.5
170
     2
 62
     0
 63
     7
283
     0
274
    -2
284
     1
 64
     0
275
    -2
285
     1
 65
     0
276
    -2
286
     1
 66
     0
277
    -2
287
     1
 67
     0
278
    -2
288
     1
 68
     0
279
    -2
289
     1
 69
     0
  7
STANDARD
140
6.0
170
     5
 62
     0
 63
     7
283
     0
274
    -2
284
     1
 64
     0
275
    -2
285
     1
 65
     0
276
    -2
286
     1
 66
     0
277
    -2
287
     1
 67
     0
278
    -2
288
     1
 68
     0
279
    -2
289
     1
 69
     0
  7
STANDARD
140
4.5
170
     5
 62
     0
 63
     7
283
     0
274
    -2
284
     1
 64
     0
275
    -2
285
     1
 65
     0
276
    -2
286
     1
 66
     0
277
    -2
287
     1
 67
     0
278
    -2
288
     1
 68
     0
279
    -2
289
     1
 69
     0
  0
DICTIONARYVAR
  5
138
102
{ACAD_REACTORS
330
94
102
}
330
94
100
DictionaryVariables
280
     0
  1
STANDARD
  0
DICTIONARYVAR
  5
96
102
{ACAD_REACTORS
330
94
102
}
330
94
100
DictionaryVariables
280
     0
  1
2
  0
DICTIONARYVAR
  5
95
102
{ACAD_REACTORS
330
94
102
}
330
94
100
DictionaryVariables
280
     0
  1
0
  0
DICTIONARYVAR
  5
7879
102
{ACAD_REACTORS
330
94
102
}
330
94
100
DictionaryVariables
280
     0
  1

  0
DICTIONARY
  5
1B5
102
{ACAD_REACTORS
330
5B
102
}
330
5B
100
AcDbDictionary
281
     1
  0
DICTIONARY
  5
61
102
{ACAD_REACTORS
330
5B
102
}
330
5B
100
AcDbDictionary
281
     1
  0
XRECORD
  5
123
102
{ACAD_REACTORS
330
5B
102
}
330
5B
100
AcDbXrecord
280
     1
 90
-1023410169
  0
DICTIONARY
  5
787F
330
22
100
AcDbDictionary
280
     1
281
     1
  3
ACAD_XREC_ROUNDTRIP
360
7880
  0
DICTIONARY
  5
787D
330
1E
100
AcDbDictionary
280
     1
281
     1
  3
ACAD_XREC_ROUNDTRIP
360
787E
  0
DICTIONARY
  5
7881
330
26
100
AcDbDictionary
280
     1
281
     1
  3
ACAD_XREC_ROUNDTRIP
360
7882
  0
XRECORD
  5
7880
102
{ACAD_REACTORS
330
787F
102
}
330
787F
100
AcDbXrecord
280
     1
102
SHADEPLOT
 70
     0
102
SHADEPLOTRESLEVEL
 70
     2
102
SHADEPLOTCUSTOMDPI
 70
   300
  0
XRECORD
  5
787E
102
{ACAD_REACTORS
330
787D
102
}
330
787D
100
AcDbXrecord
280
     1
102
SHADEPLOT
 70
     0
102
SHADEPLOTRESLEVEL
 70
     2
102
SHADEPLOTCUSTOMDPI
 70
   300
  0
XRECORD
  5
7882
102
{ACAD_REACTORS
330
7881
102
}
330
7881
100
AcDbXrecord
280
     1
102
SHADEPLOT
 70
     0
102
SHADEPLOTRESLEVEL
 70
     2
102
SHADEPLOTCUSTOMDPI
 70
   300
  0
ENDSEC
  0
EOF
