  0
SECTION
  2
HEADER
  9
$ACADVER
  1
AC1015
  9
$ACADMAINTVER
 70
    20
  9
$DWGCODEPAGE
  3
ANSI_950
  9
$INSBASE
 10
0.0
 20
0.0
 30
0.0
  9
$EXTMIN
 10
7062.358332796709
 20
-876.4266592265094
 30
-0.0388727998797549
  9
$EXTMAX
 10
8860.462490938529
 20
1185.856919341322
 30
1273.919973119535
  9
$LIMMIN
 10
0.0
 20
0.0
  9
$LIMMAX
 10
420.0
 20
297.0
  9
$ORTHOMODE
 70
     1
  9
$REGENMODE
 70
     1
  9
$FILLMODE
 70
     1
  9
$QTEXTMODE
 70
     0
  9
$MIRRTEXT
 70
     1
  9
$LTSCALE
 40
1.0
  9
$ATTMODE
 70
     1
  9
$TEXTSIZE
 40
3.0
  9
$TRACEWID
 40
1.0
  9
$TEXTSTYLE
  7
CHINESET
  9
$CLAYER
  8
0
  9
$CELTYPE
  6
ByLayer
  9
$CECOLOR
 62
   256
  9
$CELTSCALE
 40
1.0
  9
$DISPSILH
 70
     0
  9
$DIMSCALE
 40
1.0
  9
$DIMASZ
 40
20.0
  9
$DIMEXO
 40
3.0
  9
$DIMDLI
 40
50.0
  9
$DIMRND
 40
0.0
  9
$DIMDLE
 40
0.0
  9
$DIMEXE
 40
4.0
  9
$DIMTP
 40
0.1
  9
$DIMTM
 40
0.1
  9
$DIMTXT
 40
20.0
  9
$DIMCEN
 40
0.0
  9
$DIMTSZ
 40
0.0
  9
$DIMTOL
 70
     0
  9
$DIMLIM
 70
     0
  9
$DIMTIH
 70
     0
  9
$DIMTOH
 70
     0
  9
$DIMSE1
 70
     0
  9
$DIMSE2
 70
     0
  9
$DIMTAD
 70
     1
  9
$DIMZIN
 70
     8
  9
$DIMBLK
  1

  9
$DIMASO
 70
     1
  9
$DIMSHO
 70
     1
  9
$DIMPOST
  1

  9
$DIMAPOST
  1
"
  9
$DIMALT
 70
     0
  9
$DIMALTD
 70
     2
  9
$DIMALTF
 40
0.0393701
  9
$DIMLFAC
 40
1.0
  9
$DIMTOFL
 70
     1
  9
$DIMTVP
 40
0.0
  9
$DIMTIX
 70
     0
  9
$DIMSOXD
 70
     0
  9
$DIMSAH
 70
     0
  9
$DIMBLK1
  1

  9
$DIMBLK2
  1

  9
$DIMSTYLE
  2
AM_ISO
  9
$DIMCLRD
 70
   256
  9
$DIMCLRE
 70
   256
  9
$DIMCLRT
 70
   256
  9
$DIMTFAC
 40
0.71
  9
$DIMGAP
 40
6.0
  9
$DIMJUST
 70
     0
  9
$DIMSD1
 70
     0
  9
$DIMSD2
 70
     0
  9
$DIMTOLJ
 70
     2
  9
$DIMTZIN
 70
     8
  9
$DIMALTZ
 70
     0
  9
$DIMALTTZ
 70
     0
  9
$DIMUPT
 70
     0
  9
$DIMDEC
 70
     2
  9
$DIMTDEC
 70
     8
  9
$DIMALTU
 70
     2
  9
$DIMALTTD
 70
     2
  9
$DIMTXSTY
  7
STANDARD
  9
$DIMAUNIT
 70
     0
  9
$DIMADEC
 70
     0
  9
$DIMALTRND
 40
0.0
  9
$DIMAZIN
 70
     2
  9
$DIMDSEP
 70
    46
  9
$DIMATFIT
 70
     3
  9
$DIMFRAC
 70
     0
  9
$DIMLDRBLK
  1

  9
$DIMLUNIT
 70
     2
  9
$DIMLWD
 70
    -1
  9
$DIMLWE
 70
    -1
  9
$DIMTMOVE
 70
     0
  9
$LUNITS
 70
     2
  9
$LUPREC
 70
     2
  9
$SKETCHINC
 40
1.0
  9
$FILLETRAD
 40
2.5
  9
$AUNITS
 70
     0
  9
$AUPREC
 70
     0
  9
$MENU
  1
.
  9
$ELEVATION
 40
0.0
  9
$PELEVATION
 40
0.0
  9
$THICKNESS
 40
0.0
  9
$LIMCHECK
 70
     0
  9
$CHAMFERA
 40
2.5
  9
$CHAMFERB
 40
2.5
  9
$CHAMFERC
 40
20.0
  9
$CHAMFERD
 40
0.0
  9
$SKPOLY
 70
     0
  9
$TDCREATE
 40
2453556.605858461
  9
$TDUCREATE
 40
2453556.272525128
  9
$TDUPDATE
 40
2453557.593181424
  9
$TDUUPDATE
 40
2453557.259848091
  9
$TDINDWG
 40
0.2972932870
  9
$TDUSRTIMER
 40
0.2972931134
  9
$USRTIMER
 70
     1
  9
$ANGBASE
 50
0.0
  9
$ANGDIR
 70
     0
  9
$PDMODE
 70
     0
  9
$PDSIZE
 40
0.0
  9
$PLINEWID
 40
0.0
  9
$SPLFRAME
 70
     0
  9
$SPLINETYPE
 70
     6
  9
$SPLINESEGS
 70
     8
  9
$HANDSEED
  5
7A42
  9
$SURFTAB1
 70
     6
  9
$SURFTAB2
 70
     6
  9
$SURFTYPE
 70
     6
  9
$SURFU
 70
     6
  9
$SURFV
 70
     6
  9
$UCSBASE
  2

  9
$UCSNAME
  2

  9
$UCSORG
 10
0.0
 20
0.0
 30
0.0
  9
$UCSXDIR
 10
1.0
 20
0.0
 30
0.0
  9
$UCSYDIR
 10
0.0
 20
1.0
 30
0.0
  9
$UCSORTHOREF
  2

  9
$UCSORTHOVIEW
 70
     0
  9
$UCSORGTOP
 10
0.0
 20
0.0
 30
0.0
  9
$UCSORGBOTTOM
 10
0.0
 20
0.0
 30
0.0
  9
$UCSORGLEFT
 10
0.0
 20
0.0
 30
0.0
  9
$UCSORGRIGHT
 10
0.0
 20
0.0
 30
0.0
  9
$UCSORGFRONT
 10
0.0
 20
0.0
 30
0.0
  9
$UCSORGBACK
 10
0.0
 20
0.0
 30
0.0
  9
$PUCSBASE
  2

  9
$PUCSNAME
  2

  9
$PUCSORG
 10
0.0
 20
0.0
 30
0.0
  9
$PUCSXDIR
 10
1.0
 20
0.0
 30
0.0
  9
$PUCSYDIR
 10
0.0
 20
1.0
 30
0.0
  9
$PUCSORTHOREF
  2

  9
$PUCSORTHOVIEW
 70
     0
  9
$PUCSORGTOP
 10
0.0
 20
0.0
 30
0.0
  9
$PUCSORGBOTTOM
 10
0.0
 20
0.0
 30
0.0
  9
$PUCSORGLEFT
 10
0.0
 20
0.0
 30
0.0
  9
$PUCSORGRIGHT
 10
0.0
 20
0.0
 30
0.0
  9
$PUCSORGFRONT
 10
0.0
 20
0.0
 30
0.0
  9
$PUCSORGBACK
 10
0.0
 20
0.0
 30
0.0
  9
$USERI1
 70
     0
  9
$USERI2
 70
     0
  9
$USERI3
 70
     0
  9
$USERI4
 70
     0
  9
$USERI5
 70
     0
  9
$USERR1
 40
0.0
  9
$USERR2
 40
0.0
  9
$USERR3
 40
0.0
  9
$USERR4
 40
0.0
  9
$USERR5
 40
0.0
  9
$WORLDVIEW
 70
     1
  9
$SHADEDGE
 70
     3
  9
$SHADEDIF
 70
    70
  9
$TILEMODE
 70
     1
  9
$MAXACTVP
 70
    64
  9
$PINSBASE
 10
0.0
 20
0.0
 30
0.0
  9
$PLIMCHECK
 70
     0
  9
$PEXTMIN
 10
1.000000000000000E+20
 20
1.000000000000000E+20
 30
1.000000000000000E+20
  9
$PEXTMAX
 10
-1.000000000000000E+20
 20
-1.000000000000000E+20
 30
-1.000000000000000E+20
  9
$PLIMMIN
 10
0.0
 20
0.0
  9
$PLIMMAX
 10
420.0
 20
297.0
  9
$UNITMODE
 70
     0
  9
$VISRETAIN
 70
     1
  9
$PLINEGEN
 70
     0
  9
$PSLTSCALE
 70
     1
  9
$TREEDEPTH
 70
  3020
  9
$CMLSTYLE
  2
Standard
  9
$CMLJUST
 70
     0
  9
$CMLSCALE
 40
20.0
  9
$PROXYGRAPHICS
 70
     1
  9
$MEASUREMENT
 70
     1
  9
$CELWEIGHT
370
    -1
  9
$ENDCAPS
280
     0
  9
$JOINSTYLE
280
     0
  9
$LWDISPLAY
290
     0
  9
$INSUNITS
 70
     4
  9
$HYPERLINKBASE
  1

  9
$STYLESHEET
  1
彩色出圖.ctb
  9
$XEDIT
290
     1
  9
$CEPSNTYPE
380
     0
  9
$PSTYLEMODE
290
     1
  9
$FINGERPRINTGUID
  2
{6FBFCDA8-F3CD-4AA6-B64B-DBECB1E66A4A}
  9
$VERSIONGUID
  2
{AB714FF4-AA14-46BA-B11B-372666072158}
  9
$EXTNAMES
290
     1
  9
$PSVPSCALE
 40
0.0
  9
$OLESTARTUP
290
     0
  0
ENDSEC
  0
SECTION
  2
CLASSES
  0
CLASS
  1
ACDBDICTIONARYWDFLT
  2
AcDbDictionaryWithDefault
  3
ObjectDBX Classes
 90
        0
280
     0
281
     0
  0
CLASS
  1
ACDBPLACEHOLDER
  2
AcDbPlaceHolder
  3
ObjectDBX Classes
 90
        0
280
     0
281
     0
  0
CLASS
  1
LAYOUT
  2
AcDbLayout
  3
ObjectDBX Classes
 90
        0
280
     0
281
     0
  0
CLASS
  1
ACME_DOCUMENT
  2
AcMeDbDoc
  3
AcMeServices
 90
        0
280
     0
281
     0
  0
CLASS
  1
AMGSETTINGSOBJ
  2
AmgSettingsObj
  3
"AcadM|Product Description: AutoCAD Mechanical 2000|Company: Autodesk"
 90
        0
280
     0
281
     0
  0
CLASS
  1
ACMESCOPE
  2
AcMeScope
  3
AcMeServices
 90
        0
280
     0
281
     0
  0
CLASS
  1
ACMECOMMANDHISTORY
  2
AcMeCommandHistory
  3
AcMeServices
 90
        0
280
     0
281
     0
  0
CLASS
  1
ACIMSYSVARMAN
  2
AcImSysVarManager
  3
AcMeServices
 90
        0
280
     0
281
     0
  0
CLASS
  1
ACIMREALSYSVAR
  2
AcImRealSysVar
  3
AcMeServices
 90
        0
280
     0
281
     0
  0
CLASS
  1
ACIMINTSYSVAR
  2
AcImIntSysVar
  3
AcMeServices
 90
        0
280
     0
281
     0
  0
CLASS
  1
ACMEDRAWINGMAN
  2
AcMeDrawingMan
  3
AcMeServices
 90
        0
280
     0
281
     0
  0
CLASS
  1
ACMEVIEW
  2
AcMeView
  3
AcMeServices
 90
        0
280
     0
281
     0
  0
CLASS
  1
ACDBENTITYCACHE
  2
AcMeEntityCache
  3
AcMeServices
 90
        0
280
     0
281
     0
  0
CLASS
  1
GSMANAGER
  2
AcMeGSManager
  3
AcMeServices
 90
        0
280
     0
281
     0
  0
CLASS
  1
AMDTINTERNALREACTOR
  2
AmdtInternalReactor
  3
AcMeServices
 90
        0
280
     0
281
     0
  0
CLASS
  1
ACMESTATEMGR
  2
AcMeStateMgr
  3
AcMeServices
 90
        0
280
     0
281
     0
  0
CLASS
  1
ACGREFMASTER
  2
AcGrefMaster
  3
AcAttribServices
 90
        0
280
     0
281
     0
  0
CLASS
  1
ACME_DATABASE
  2
AcMeDbDatabase
  3
AcMeServices
 90
        0
280
     0
281
     0
  0
CLASS
  1
ACRFINSADJUSTERMGR
  2
AcRfInsAdjusterMgr
  3
AcMeServices
 90
        0
280
     0
281
     0
  0
CLASS
  1
ACGREFACADMASTER
  2
AcGrefacadMaster
  3
AcGrefServices
 90
        0
280
     0
281
     0
  0
CLASS
  1
AMIMASTER
  2
AmiMaster
  3
AmiServices
 90
        0
280
     0
281
     0
  0
CLASS
  1
ACMDATADICTIONARY
  2
AcmDataDictionary
  3
"AcmSymBB|Product Description: AutoCAD Mechanical 2004 DX|Company: Autodesk"
 90
        0
280
     0
281
     0
  0
CLASS
  1
ACMDATAENTRYBLOCK
  2
AcmDataEntryBlock
  3
"AcmSymBB|Product Description: AutoCAD Mechanical 2004 DX|Company: Autodesk"
 90
        0
280
     0
281
     0
  0
CLASS
  1
ACIMSTRSYSVAR
  2
AcImStrSysVar
  3
AcMeServices
 90
        0
280
     0
281
     0
  0
CLASS
  1
ACMSTANDARDISO
  2
AcmStandardISO
  3
"Amdt_StdImp|Product Description: AutoCAD Mechanical 2004 DX|Company: Autodesk"
 90
        0
280
     0
281
     0
  0
CLASS
  1
AMGOBJPROPCFG
  2
AmgObjPropCfg
  3
"AmgLay|Product Description: AutoCAD Mechanical 2000|Company: Autodesk"
 90
        1
280
     0
281
     0
  0
CLASS
  1
AMDTEDGESTANDARDISO
  2
AmdtEdgeStdISO
  3
"Amdt_StdImp|Product Description: AutoCAD Mechanical 2004 DX|Company: Autodesk"
 90
        0
280
     0
281
     0
  0
CLASS
  1
ACMSURFSTANDARDISO
  2
AcmSurfTextStdISO
  3
"Amdt_StdImp|Product Description: AutoCAD Mechanical 2004 DX|Company: Autodesk"
 90
        0
280
     0
281
     0
  0
CLASS
  1
ACMFCFSTANDARDISO
  2
AcmFCFStdISO
  3
"Amdt_StdImp|Product Description: AutoCAD Mechanical 2004 DX|Company: Autodesk"
 90
        0
280
     0
281
     0
  0
CLASS
  1
ACMWELDSTANDARDISO
  2
AcmWeldingStdISO
  3
"Amdt_StdImp|Product Description: AutoCAD Mechanical 2004 DX|Company: Autodesk"
 90
        0
280
     0
281
     0
  0
CLASS
  1
ACMIDSTANDARDISO
  2
AcmIdStdISO
  3
"Amdt_StdImp|Product Description: AutoCAD Mechanical 2004 DX|Company: Autodesk"
 90
        0
280
     0
281
     0
  0
CLASS
  1
ACMDATUMSTANDARDISO
  2
AcmDatumStdISO
  3
"Amdt_StdImp|Product Description: AutoCAD Mechanical 2004 DX|Company: Autodesk"
 90
        0
280
     0
281
     0
  0
CLASS
  1
ACMBOMSTANDARDISO
  2
AcmBOMStdISO
  3
"Amdt_StdImp|Product Description: AutoCAD Mechanical 2004 DX|Company: Autodesk"
 90
        0
280
     0
281
     0
  0
CLASS
  1
ACMDETAILSTANDARDISO
  2
AmdtDetailSymStdISO
  3
"Amdt_StdImp|Product Description: AutoCAD Mechanical 2004 DX|Company: Autodesk"
 90
        0
280
     0
281
     0
  0
CLASS
  1
ACMSECTIONSTANDARDISO
  2
AmdtSectionSymStdISO
  3
"Amdt_StdImp|Product Description: AutoCAD Mechanical 2004 DX|Company: Autodesk"
 90
        0
280
     0
281
     0
  0
CLASS
  1
ACMCENTERLINESTANDARDISO
  2
AmdtCenterLineStdISO
  3
"Amdt_StdImp|Product Description: AutoCAD Mechanical 2004 DX|Company: Autodesk"
 90
        0
280
     0
281
     0
  0
CLASS
  1
ACMNOTESTANDARDISO
  2
AmdtNoteStdISO
  3
"Amdt_StdImp|Product Description: AutoCAD Mechanical 2004 DX|Company: Autodesk"
 90
        0
280
     0
281
     0
  0
CLASS
  1
ACAMGLAYSTD
  2
AcAmgLayStd
  3
"AcAmgLayStd|Product Description: AutoCAD Mechanical 2000|Company: Autodesk"
 90
        0
280
     0
281
     0
  0
CLASS
  1
ACAMGDIMSTD
  2
AcAmgDimStd
  3
"AcAmgDimStd|Product Description: AutoCAD Mechanical 2000|Company: Autodesk"
 90
        0
280
     0
281
     0
  0
CLASS
  1
ACAMGHOLECHARTSTDISO
  2
AcAmgHoleChartStdISO
  3
ACMSYMBB_MODULE_NAME
 90
        0
280
     0
281
     0
  0
CLASS
  1
ACAMGTITLESTD
  2
AcAmgTitleStd
  3
"TITLEAPP"
 90
        0
280
     0
281
     0
  0
CLASS
  1
LAYER_INDEX
  2
AcDbLayerIndex
  3
ObjectDBX Classes
 90
    32768
280
     0
281
     0
  0
CLASS
  1
IDBUFFER
  2
AcDbIdBuffer
  3
ObjectDBX Classes
 90
    32768
280
     0
281
     0
  0
CLASS
  1
DICTIONARYVAR
  2
AcDbDictionaryVar
  3
ObjectDBX Classes
 90
        0
280
     0
281
     0
  0
CLASS
  1
AM_DRAWING_MGR
  2
AcDmDwgMgr
  3
AcMechDwgViewMgmt
 90
        0
280
     0
281
     0
  0
CLASS
  1
AM_DWG_DOCUMENT
  2
AcDmDwgDocument
  3
AcMechDwgViewMgmt
 90
        0
280
     0
281
     0
  0
CLASS
  1
AM_DWG_SHEET
  2
AcDmSheet
  3
AcMechDwgViewMgmt
 90
        0
280
     0
281
     0
  0
CLASS
  1
AM_VIEWDIMPARMAP
  2
AcDmViewDimParMap
  3
AcMechDwgViewMgmt
 90
        0
280
     0
281
     0
  0
CLASS
  1
AM_DWGMGR_NAME
  2
AcDmDwgMgrName
  3
AcMechDwgViewMgmt
 90
        0
280
     0
281
     0
  0
CLASS
  1
AMDTMENUSTATEMGR
  2
AmdtMenuStateMgr
  3
McadcomServices
 90
        0
280
     0
281
     0
  0
CLASS
  1
AMDTMCOMMENUSTATE
  2
AmdtMcomMenuState
  3
McadcomServices
 90
        0
280
     0
281
     0
  0
CLASS
  1
MAPIAMMOUDLE
  2
MApiAmModule
  3
MApiAmServices
 90
        0
280
     0
281
     0
  0
CLASS
  1
AMDTADMENUSTATE
  2
AmdtAdMenuState
  3
DesignerServices
 90
        0
280
     0
281
     0
  0
CLASS
  1
ADAPPL
  2
AcAdAppl
  3
DesignerServices
 90
        0
280
     0
281
     0
  0
CLASS
  1
DEPMGR
  2
AcAdDepMgr
  3
DesignerServices
 90
        0
280
     0
281
     0
  0
CLASS
  1
PARAMMGR
  2
AcAdParamMgr
  3
DesignerServices
 90
        0
280
     0
281
     0
  0
CLASS
  1
PARAMSCOPE
  2
AcAdParamScope
  3
DesignerServices
 90
        0
280
     0
281
     0
  0
CLASS
  1
NAMEDAPPL
  2
AcAdNamedAppl
  3
DesignerServices
 90
        0
280
     0
281
     0
  0
CLASS
  1
AMDTDMMENUSTATE
  2
AmdtDmMenuState
  3
AcMechDwgViewMgmt
 90
        0
280
     0
281
     0
  0
CLASS
  1
AMDTAMMENUSTATE
  2
AmdtAmMenuState
  3
DesignerAssemblies
 90
        0
280
     0
281
     0
  0
CLASS
  1
ACAMPROJECT
  2
AcAmProject
  3
DesignerAssemblies
 90
        0
280
     0
281
     0
  0
CLASS
  1
ACAMGRCOMPDEF
  2
AcAmGrCompDef
  3
DesignerAssemblies
 90
        0
280
     0
281
     0
  0
CLASS
  1
ACCMCONTEXT
  2
AcCmContext
  3
DesignerAssemblies
 90
        0
280
     0
281
     0
  0
CLASS
  1
ACAMCOMPDEF
  2
AcAmCompDef
  3
DesignerAssemblies
 90
        0
280
     0
281
     0
  0
CLASS
  1
ACAMCOMPDEFMGR
  2
AcAmCompDefMgr
  3
DesignerAssemblies
 90
        0
280
     0
281
     0
  0
CLASS
  1
AMCONTEXTMGR
  2
AcAmContextMgr
  3
DesignerAssemblies
 90
        0
280
     0
281
     0
  0
CLASS
  1
ACAMCONTEXTMODELER
  2
AcAmContextModeler
  3
DesignerAssemblies
 90
        0
280
     0
281
     0
  0
CLASS
  1
ACMTHREADLINESTANDARDISO
  2
AmdtThreadLineStdISO
  3
"Amdt_StdImp|Product Description: AutoCAD Mechanical 2004 DX|Company: Autodesk"
 90
        0
280
     0
281
     0
  0
CLASS
  1
CATALOGSTATE
  2
AcAmCatalogState
  3
DesignerAssemblies
 90
        0
280
     0
281
     0
  0
CLASS
  1
ACAMGRCOMPDEFSET
  2
AcAmGrCompDefSet
  3
DesignerAssemblies
 90
        0
280
     0
281
     0
  0
CLASS
  1
AMDTBROWSERDBTAB
  2
AmdtBrowserDbTab
  3
McadcomServices
 90
        0
280
     0
281
     0
  0
CLASS
  1
CBROWSERAPPOBJECT
  2
CBrowserAppObject
  3
McadcomServices
 90
        0
280
     0
281
     0
  0
CLASS
  1
DM_PLACEHOLDER
  2
AcDmSelsetPlaceholder
  3
AcMechDwgViewMgmt
 90
        0
280
     0
281
     0
  0
CLASS
  1
TABLESTYLE
  2
AcDbTableStyle
  3
ObjectDBX Classes
 90
     2047
280
     0
281
     0
  0
CLASS
  1
VAACXREFPANELOBJECT
  2
VaAcXREFPanelObject
  3
VAAC_ADDIN
 90
    32768
280
     0
281
     0
  0
CLASS
  1
VAACIMAGEINVENTORY
  2
VaAcImageInventory
  3
VAAC_ADDIN
 90
    32768
280
     0
281
     0
  0
CLASS
  1
AMDTNOTETEMPLATEDB
  2
AmdtNoteTemplateDB
  3
AMDT_STDIMP_MODULE_NAME
 90
        0
280
     0
281
     0
  0
CLASS
  1
ACMBOM
  2
AcmBom
  3
"AcmSymBB|Product Description: AutoCAD Mechanical 2004 DX|Company: Autodesk"
 90
    32768
280
     0
281
     0
  0
CLASS
  1
AMDTFORMULAUPDATEDISPATCHER
  2
AmdtFormulaUpdateDispatcher
  3
AcMeServices
 90
    32768
280
     0
281
     0
  0
CLASS
  1
ACMPARTLIST
  2
AcmPartList
  3
"AcmSymBB|Product Description: AutoCAD Mechanical 2004 DX|Company: Autodesk"
 90
    33791
280
     0
281
     1
  0
CLASS
  1
ACAMGFILTERDAT
  2
AcAmgFilterDat
  3
"AcadM|Product Description: AutoCAD Mechanical 2000|Company: Autodesk"
 90
        0
280
     0
281
     0
  0
CLASS
  1
DIMASSOC
  2
AcDbDimAssoc
  3
"AcDbDimAssoc|Product Desc:     AcDim ARX App For Dimension|Company:          Autodesk, Inc.|WEB Address:      www.autodesk.com"
 90
        0
280
     0
281
     0
  0
CLASS
  1
ACAMGHOLECHARTORIGIN
  2
AcAmgHoleChartOrigin
  3
ACMSYMBB_MODULE_NAME
 90
    33663
280
     0
281
     1
  0
CLASS
  1
AMDTNOTE
  2
AmdtNote
  3
"AcmSymBB|Product Description: AutoCAD Mechanical 2004 DX|Company: Autodesk"
 90
     1023
280
     0
281
     1
  0
CLASS
  1
ACRFATTGENMGR
  2
AcRfAttGeneralMgr
  3
AcAttribServices
 90
        0
280
     0
281
     0
  0
ENDSEC
  0
SECTION
  2
TABLES
  0
TABLE
  2
VPORT
  5
8
330
0
100
AcDbSymbolTable
 70
     3
  0
VPORT
  5
7A39
330
8
100
AcDbSymbolTableRecord
100
AcDbViewportTableRecord
  2
*Active
 70
     0
 10
0.0
 20
0.0
 11
1.0
 21
1.0
 12
7961.868881618187
 22
154.6692374627706
 13
0.0
 23
0.0
 14
2.5
 24
2.5
 15
10.0
 25
10.0
 16
0.0
 26
0.0
 36
1.0
 17
0.0
 27
0.0
 37
0.0
 40
2089.873945271145
 41
1.81766917293233
 42
50.0
 43
0.0
 44
0.0
 50
0.0
 51
0.0
 71
     0
 72
   100
 73
     1
 74
     3
 75
     0
 76
     0
 77
     0
 78
     0
281
     0
 65
     1
110
0.0
120
0.0
130
0.0
111
1.0
121
0.0
131
0.0
112
0.0
122
1.0
132
0.0
 79
     0
146
0.0
  0
ENDTAB
  0
TABLE
  2
LTYPE
  5
5
330
0
100
AcDbSymbolTable
 70
    16
  0
LTYPE
  5
14
330
5
100
AcDbSymbolTableRecord
100
AcDbLinetypeTableRecord
  2
ByBlock
 70
     0
  3

 72
    65
 73
     0
 40
0.0
  0
LTYPE
  5
15
330
5
100
AcDbSymbolTableRecord
100
AcDbLinetypeTableRecord
  2
ByLayer
 70
     0
  3

 72
    65
 73
     0
 40
0.0
  0
LTYPE
  5
16
330
5
100
AcDbSymbolTableRecord
100
AcDbLinetypeTableRecord
  2
Continuous
 70
     0
  3
Solid line
 72
    65
 73
     0
 40
0.0
  0
LTYPE
  5
64
330
5
100
AcDbSymbolTableRecord
100
AcDbLinetypeTableRecord
  2
AM_ISO02W050
 70
     0
  3
__ __ __ __ __ __ __ __ __ __ __ __ __ __ __
 72
    65
 73
     2
 40
7.5
 49
6.0
 74
     0
 49
-1.5
 74
     0
  0
LTYPE
  5
65
330
5
100
AcDbSymbolTableRecord
100
AcDbLinetypeTableRecord
  2
AM_ISO08W050
 70
     0
  3
____ . ____ . ____ . ____ . ____ . ____ . ____
 72
    65
 73
     4
 40
18.0
 49
12.0
 74
     0
 49
-1.5
 74
     0
 49
3.0
 74
     0
 49
-1.5
 74
     0
  0
LTYPE
  5
66
330
5
100
AcDbSymbolTableRecord
100
AcDbLinetypeTableRecord
  2
AM_ISO09W050
 70
     0
  3
_____ . . _____ . . _____ . . ____ .. ____
 72
    65
 73
     6
 40
22.5
 49
12.0
 74
     0
 49
-1.5
 74
     0
 49
3.0
 74
     0
 49
-1.5
 74
     0
 49
3.0
 74
     0
 49
-1.5
 74
     0
  0
LTYPE
  5
67
330
5
100
AcDbSymbolTableRecord
100
AcDbLinetypeTableRecord
  2
Amconstr
 70
     0
  3
_______________________
 72
    65
 73
     2
 40
9999.0
 49
9999.0
 74
     0
 49
0.0
 74
     0
  0
LTYPE
  5
68
330
5
100
AcDbSymbolTableRecord
100
AcDbLinetypeTableRecord
  2
AM_ISO08W050x2
 70
     0
  3
__ . __ . __ . __ . __ . __
 72
    65
 73
     4
 40
9.0
 49
6.0
 74
     0
 49
-0.75
 74
     0
 49
1.5
 74
     0
 49
-0.75
 74
     0
  0
LTYPE
  5
69
330
5
100
AcDbSymbolTableRecord
100
AcDbLinetypeTableRecord
  2
AM_ISO02W050x2
 70
     0
  3
 _ _ _ _ _ _ _ _ _ _ _ _
 72
    65
 73
     2
 40
3.75
 49
3.0
 74
     0
 49
-0.75
 74
     0
  0
LTYPE
  5
6C
330
5
100
AcDbSymbolTableRecord
100
AcDbLinetypeTableRecord
  2
Amzigzag
 70
     0
  3
/\/-/\/-/\/-/\/-/\/-/\/
 72
    65
 73
     2
 40
11.0001
 49
0.0001
 74
     4
 75
   135
340
6B
 46
0.04
 50
0.0
 44
0.0
 45
0.0
 49
-11.0
 74
     0
  0
LTYPE
  5
7A
330
5
100
AcDbSymbolTableRecord
100
AcDbLinetypeTableRecord
  2
ACISOWELD
 70
     0
  3
_ _ _ _ _
 72
    65
 73
     2
 40
2.0
 49
2.0
 74
     0
 49
-1.0
 74
     0
  0
LTYPE
  5
7B
330
5
100
AcDbSymbolTableRecord
100
AcDbLinetypeTableRecord
  2
ACISOTGB
 70
     0
  3
__ . . __ . .
 72
    65
 73
     6
 40
9.0
 49
4.0
 74
     0
 49
-1.0
 74
     0
 49
1.0
 74
     0
 49
-1.0
 74
     0
 49
1.0
 74
     0
 49
-1.0
 74
     0
  0
LTYPE
  5
7C
330
5
100
AcDbSymbolTableRecord
100
AcDbLinetypeTableRecord
  2
ACISOTGL
 70
     0
  3
_ _ _ _ _
 72
    65
 73
     2
 40
3.0
 49
2.0
 74
     0
 49
-1.0
 74
     0
  0
LTYPE
  5
7E
330
5
100
AcDbSymbolTableRecord
100
AcDbLinetypeTableRecord
  2
CENTER
 70
     0
  3
__ . __
 72
    65
 73
     4
 40
7.0
 49
4.0
 74
     0
 49
-1.0
 74
     0
 49
1.0
 74
     0
 49
-1.0
 74
     0
  0
LTYPE
  5
D8
330
5
100
AcDbSymbolTableRecord
100
AcDbLinetypeTableRecord
  2
HIDDEN
 70
     0
  3
Hidden __ __ __ __ __ __ __ __ __ __ __ __ __ _
 72
    65
 73
     2
 40
9.524999999999998
 49
6.349999999999999
 74
     0
 49
-3.174999999999999
 74
     0
  0
LTYPE
  5
D9
330
5
100
AcDbSymbolTableRecord
100
AcDbLinetypeTableRecord
  2
PHANTOM2
 70
     0
  3
Phantom (.5x) ___ _ _ ___ _ _ ___ _ _ ___ _ _
 72
    65
 73
     6
 40
31.75
 49
15.875
 74
     0
 49
-3.174999999999999
 74
     0
 49
3.174999999999999
 74
     0
 49
-3.174999999999999
 74
     0
 49
3.174999999999999
 74
     0
 49
-3.174999999999999
 74
     0
  0
LTYPE
  5
71F
330
5
100
AcDbSymbolTableRecord
100
AcDbLinetypeTableRecord
  2
HIDDEN2
 70
     0
  3
Hidden (.5x) _ _ _ _ _ _ _ _ _ _ _ _ _ _ _ _ _
 72
    65
 73
     2
 40
4.762499999999999
 49
3.174999999999999
 74
     0
 49
-1.587499999999999
 74
     0
  0
LTYPE
  5
63A7
330
5
100
AcDbSymbolTableRecord
100
AcDbLinetypeTableRecord
  2
CENTERX2
 70
     0
  3
Center (2x) ________  __  ________  __  _____
 72
    65
 73
     4
 40
101.6
 49
63.5
 74
     0
 49
-12.7
 74
     0
 49
12.7
 74
     0
 49
-12.7
 74
     0
  0
ENDTAB
  0
TABLE
  2
LAYER
  5
2
102
{ACAD_XDICTIONARY
360
3F9
102
}
330
0
100
AcDbSymbolTable
 70
     9
  0
LAYER
  5
10
330
2
100
AcDbSymbolTableRecord
100
AcDbLayerTableRecord
  2
0
 70
     0
 62
     7
  6
Continuous
370
    -3
390
F
  0
LAYER
  5
206
330
2
100
AcDbSymbolTableRecord
100
AcDbLayerTableRecord
  2
Defpoints
 70
     0
 62
     7
  6
Continuous
290
     0
370
    -3
390
F
  0
LAYER
  5
720
330
2
100
AcDbSymbolTableRecord
100
AcDbLayerTableRecord
  2
圖層1輪廓線
 70
     0
 62
     7
  6
Continuous
370
    50
390
728
  0
LAYER
  5
721
330
2
100
AcDbSymbolTableRecord
100
AcDbLayerTableRecord
  2
圖層2中心線
 70
     0
 62
     1
  6
CENTERX2
370
    18
390
729
  0
LAYER
  5
722
330
2
100
AcDbSymbolTableRecord
100
AcDbLayerTableRecord
  2
圖層3虛線
 70
     0
 62
     3
  6
HIDDEN2
370
    25
390
72A
  0
LAYER
  5
723
330
2
100
AcDbSymbolTableRecord
100
AcDbLayerTableRecord
  2
圖層4尺寸線
 70
     0
 62
     5
  6
Continuous
370
    25
390
72B
  0
LAYER
  5
B2A
330
2
100
AcDbSymbolTableRecord
100
AcDbLayerTableRecord
  2
AM_5
 70
     0
 62
     5
  6
Continuous
370
    50
390
F
  0
LAYER
  5
15F9
330
2
100
AcDbSymbolTableRecord
100
AcDbLayerTableRecord
  2
AM_7
 70
     0
 62
     1
  6
CENTER
370
    25
390
F
  0
LAYER
  5
75F0
330
2
100
AcDbSymbolTableRecord
100
AcDbLayerTableRecord
  2
LOGO
 70
     0
 62
     7
  6
Continuous
370
    -3
390
F
  0
ENDTAB
  0
TABLE
  2
STYLE
  5
3
330
0
100
AcDbSymbolTable
 70
     7
  0
STYLE
  5
11
330
3
100
AcDbSymbolTableRecord
100
AcDbTextStyleTableRecord
  2
STANDARD
 70
     0
 40
0.0
 41
1.0
 50
0.0
 71
     0
 42
3.0
  3
ISOCP.SHX
  4
CHINESET.SHX
  0
STYLE
  5
6B
330
3
100
AcDbSymbolTableRecord
100
AcDbTextStyleTableRecord
  2

 70
     1
 40
0.0
 41
1.0
 50
0.0
 71
     0
 42
2.5
  3
ltypeshp.shx
  4

  0
STYLE
  5
6D
330
3
100
AcDbSymbolTableRecord
100
AcDbTextStyleTableRecord
  2
ACISOTS
 70
     0
 40
1.0
 41
1.0
 50
0.0
 71
     0
 42
1.0
  3
isocp.shx
  4
chineset.shx
  0
STYLE
  5
79
330
3
100
AcDbSymbolTableRecord
100
AcDbTextStyleTableRecord
  2
ACISOGDT
 70
     0
 40
0.0
 41
1.0
 50
0.0
 71
     0
 42
2.5
  3
amgdt.shx
  4
chineset.shx
  0
STYLE
  5
60C
330
3
100
AcDbSymbolTableRecord
100
AcDbTextStyleTableRecord
  2
CHINESET
 70
     0
 40
0.0
 41
1.0
 50
0.0
 71
     0
 42
3.0
  3
simplex.shx
  4
CHINESET.SHX
  0
STYLE
  5
770D
330
3
100
AcDbSymbolTableRecord
100
AcDbTextStyleTableRecord
  2
WIN
 70
     0
 40
0.0
 41
1.0
 50
0.0
 71
     0
 42
4.0
  3
PMingLiU.ttf
  4

1001
ACAD
1000
PMingLiU
1071
    34834
  0
ENDTAB
  0
TABLE
  2
VIEW
  5
6
330
0
100
AcDbSymbolTable
 70
     0
  0
ENDTAB
  0
TABLE
  2
UCS
  5
7
330
0
100
AcDbSymbolTable
 70
     0
  0
ENDTAB
  0
TABLE
  2
APPID
  5
9
330
0
100
AcDbSymbolTable
 70
    21
  0
APPID
  5
12
330
9
100
AcDbSymbolTableRecord
100
AcDbRegAppTableRecord
  2
ACAD
 70
     0
  0
APPID
  5
46
330
9
100
AcDbSymbolTableRecord
100
AcDbRegAppTableRecord
  2
MCAD_NO_VIS
 70
     0
  0
APPID
  5
47
330
9
100
AcDbSymbolTableRecord
100
AcDbRegAppTableRecord
  2
ACAD_TEMP_GRAPHIC
 70
     0
  0
APPID
  5
58
330
9
100
AcDbSymbolTableRecord
100
AcDbRegAppTableRecord
  2
ACATTRIBSERVICES
 70
     0
  0
APPID
  5
EE
330
9
100
AcDbSymbolTableRecord
100
AcDbRegAppTableRecord
  2
AD_DRAW
 70
     0
  0
APPID
  5
10C
330
9
100
AcDbSymbolTableRecord
100
AcDbRegAppTableRecord
  2
DESIGNERASSEMBLIES
 70
     0
  0
APPID
  5
111
330
9
100
AcDbSymbolTableRecord
100
AcDbRegAppTableRecord
  2
ACADM_DIM_EDIT
 70
     0
  0
APPID
  5
112
330
9
100
AcDbSymbolTableRecord
100
AcDbRegAppTableRecord
  2
AMDT_DM_ADJ
 70
     0
  0
APPID
  5
22C
330
9
100
AcDbSymbolTableRecord
100
AcDbRegAppTableRecord
  2
ACAD_DSTYLE_DIMTEXT_FILL
 70
     0
  0
APPID
  5
452
330
9
100
AcDbSymbolTableRecord
100
AcDbRegAppTableRecord
  2
GENIUS_GENOENT_13
 70
     0
  0
APPID
  5
453
330
9
100
AcDbSymbolTableRecord
100
AcDbRegAppTableRecord
  2
GENIUS_GENOBJ-N-CRS_13
 70
     0
  0
APPID
  5
454
330
9
100
AcDbSymbolTableRecord
100
AcDbRegAppTableRecord
  2
GENIUS_GENOLIS_13
 70
     0
  0
APPID
  5
455
330
9
100
AcDbSymbolTableRecord
100
AcDbRegAppTableRecord
  2
GENIUS_GENODEF_13
 70
     0
  0
APPID
  5
456
330
9
100
AcDbSymbolTableRecord
100
AcDbRegAppTableRecord
  2
GENIUS_GENOREF_13
 70
     0
  0
APPID
  5
6F3
330
9
100
AcDbSymbolTableRecord
100
AcDbRegAppTableRecord
  2
ACAD_PSEXT
 70
     0
  0
APPID
  5
727
330
9
100
AcDbSymbolTableRecord
100
AcDbRegAppTableRecord
  2
AcAecLayerStandard
 70
     0
  0
APPID
  5
D7F
330
9
100
AcDbSymbolTableRecord
100
AcDbRegAppTableRecord
  2
GENIUS_GENDTOL_13
 70
     0
  0
APPID
  5
15FB
330
9
100
AcDbSymbolTableRecord
100
AcDbRegAppTableRecord
  2
GENIUS_GENOBJ-N-CEN_13
 70
     0
  0
APPID
  5
15FC
330
9
100
AcDbSymbolTableRecord
100
AcDbRegAppTableRecord
  2
GENIUS_GENCEN_19
 70
     0
  0
APPID
  5
300F
330
9
100
AcDbSymbolTableRecord
100
AcDbRegAppTableRecord
  2
GENIUS_GENREC_14
 70
     0
  0
APPID
  5
3010
330
9
100
AcDbSymbolTableRecord
100
AcDbRegAppTableRecord
  2
GENIUS_GENOBJ-N-REC_13
 70
     0
  0
ENDTAB
  0
TABLE
  2
DIMSTYLE
  5
A
330
0
100
AcDbSymbolTable
 70
     9
100
AcDbDimStyleTable
 71
     3
340
81
340
8B
340
86
  0
DIMSTYLE
105
81
330
A
100
AcDbSymbolTableRecord
100
AcDbDimStyleTableRecord
  2
AM_ISO
 70
     0
  4
"
 41
20.0
 42
3.0
 43
50.0
 44
4.0
 47
0.1
 48
0.1
 73
     0
 74
     0
 77
     1
 78
     8
 79
     2
140
20.0
141
0.0
143
0.0393701
146
0.71
147
6.0
172
     1
176
   256
177
   256
178
   256
271
     2
272
     2
283
     2
284
     8
340
11
371
    -1
372
    -1
  0
DIMSTYLE
105
82
330
A
100
AcDbSymbolTableRecord
100
AcDbDimStyleTableRecord
  2
AM_ISO$3
 70
     0
  4
"
 41
20.0
 42
3.0
 43
50.0
 44
4.0
 47
0.1
 48
0.1
 73
     0
 77
     1
 78
     8
 79
     2
140
20.0
141
0.0
143
0.0393701
146
0.71
147
6.0
176
   256
177
   256
178
   256
271
     2
272
     2
283
     2
284
     8
288
     1
289
     0
340
11
371
    -1
372
    -1
  0
DIMSTYLE
105
83
330
A
100
AcDbSymbolTableRecord
100
AcDbDimStyleTableRecord
  2
AM_ISO$4
 70
     0
  4
"
 41
20.0
 42
3.0
 43
50.0
 44
4.0
 47
0.1
 48
0.1
 73
     0
 77
     1
 78
     8
 79
     2
140
20.0
141
0.0
143
0.0393701
146
0.71
147
6.0
176
   256
177
   256
178
   256
271
     2
272
     2
283
     2
284
     8
288
     1
289
     0
340
11
371
    -1
372
    -1
  0
DIMSTYLE
105
84
330
A
100
AcDbSymbolTableRecord
100
AcDbDimStyleTableRecord
  2
AM_ISO$6
 70
     0
  4
"
 41
20.0
 42
3.0
 43
50.0
 44
4.0
 47
0.1
 48
0.1
 73
     0
 74
     0
 78
     8
 79
     2
140
20.0
141
0.0
143
0.0393701
146
0.71
147
6.0
172
     1
176
   256
177
   256
178
   256
271
     2
272
     2
283
     2
284
     8
340
11
371
    -1
372
    -1
  0
DIMSTYLE
105
85
330
A
100
AcDbSymbolTableRecord
100
AcDbDimStyleTableRecord
  2
AM_ISO$7
 70
     0
  4
"
 41
20.0
 42
3.0
 43
50.0
 44
4.0
 47
0.1
 48
0.1
 73
     0
 74
     0
 77
     1
 78
     8
 79
     2
140
5.0
141
0.0
143
0.0393701
146
0.71
147
6.0
172
     1
176
   256
177
   256
178
   256
271
     2
272
     2
283
     2
284
     8
340
11
371
    -1
372
    -1
  0
DIMSTYLE
105
86
330
A
100
AcDbSymbolTableRecord
100
AcDbDimStyleTableRecord
  2
AM_ISO$SF
 70
     0
  4
"
 41
2.5
 42
1.0
 43
10.0
 44
1.0
 47
0.1
 48
0.1
 73
     0
 74
     0
 75
     1
 76
     1
 77
     1
 78
     8
 79
     2
140
3.5
141
0.0
143
0.0393701
146
0.71
147
1.5
172
     1
176
   256
177
   256
178
     2
271
     2
272
     3
274
     4
283
     0
284
     8
340
11
371
    -1
372
    -1
  0
DIMSTYLE
105
8B
330
A
100
AcDbSymbolTableRecord
100
AcDbDimStyleTableRecord
  2
AM_ISO$SH
 70
     0
  4
"
 41
2.5
 42
1.0
 43
10.0
 44
1.0
 47
0.1
 48
0.1
 73
     0
 74
     0
 75
     1
 76
     1
 77
     1
 78
     8
 79
     2
140
3.5
141
0.0
143
0.0393701
144
2.0
146
0.71
147
1.5
172
     1
173
     1
176
   256
177
   256
178
     2
271
     2
272
     3
274
     4
283
     0
284
     8
340
11
343
87
371
    -1
372
    -1
  0
DIMSTYLE
105
40B
102
{ACAD_REACTORS
330
59A4
330
59A3
330
59AB
330
59AC
330
5A1D
330
59AD
330
5A0E
330
5A0D
330
5B66
330
5B65
330
59AE
330
5A26
330
59AA
330
5B64
330
5B63
330
5B62
330
5B61
330
59A5
330
59B0
330
59B3
330
59B2
330
59B1
330
59AF
330
6198
330
6199
330
619A
330
619B
330
62AD
330
6306
330
62DC
102
}
330
A
100
AcDbSymbolTableRecord
100
AcDbDimStyleTableRecord
  2
AM_ISO$0
 70
     0
  4
"
 41
20.0
 42
3.0
 43
50.0
 44
4.0
 47
0.1
 48
0.1
 73
     0
 74
     0
 77
     1
 78
     8
 79
     2
140
20.0
141
0.0
143
0.0393701
146
0.71
147
6.0
172
     1
176
   256
177
   256
178
   256
271
     2
272
     2
283
     2
284
     8
340
11
371
    -1
372
    -1
  0
ENDTAB
  0
TABLE
  2
BLOCK_RECORD
  5
1
330
0
100
AcDbSymbolTable
 70
    35
  0
BLOCK_RECORD
  5
1F
102
{ACAD_XDICTIONARY
360
8F
102
}
330
1
100
AcDbSymbolTableRecord
100
AcDbBlockTableRecord
  2
*Model_Space
340
22
  0
BLOCK_RECORD
  5
1B
330
1
100
AcDbSymbolTableRecord
100
AcDbBlockTableRecord
  2
*Paper_Space
340
1E
  0
BLOCK_RECORD
  5
23
330
1
100
AcDbSymbolTableRecord
100
AcDbBlockTableRecord
  2
*Paper_Space0
340
26
  0
BLOCK_RECORD
  5
87
330
1
100
AcDbSymbolTableRecord
100
AcDbBlockTableRecord
  2
GENAXEH
340
0
  0
BLOCK_RECORD
  5
5B67
330
1
100
AcDbSymbolTableRecord
100
AcDbBlockTableRecord
  2
*D3
340
0
  0
BLOCK_RECORD
  5
5B73
330
1
100
AcDbSymbolTableRecord
100
AcDbBlockTableRecord
  2
*D4
340
0
  0
BLOCK_RECORD
  5
5B7F
330
1
100
AcDbSymbolTableRecord
100
AcDbBlockTableRecord
  2
*D5
340
0
  0
BLOCK_RECORD
  5
5B8B
330
1
100
AcDbSymbolTableRecord
100
AcDbBlockTableRecord
  2
*D6
340
0
  0
BLOCK_RECORD
  5
5B99
330
1
100
AcDbSymbolTableRecord
100
AcDbBlockTableRecord
  2
*D7
340
0
  0
BLOCK_RECORD
  5
5BA5
330
1
100
AcDbSymbolTableRecord
100
AcDbBlockTableRecord
  2
*D8
340
0
  0
BLOCK_RECORD
  5
5BB1
330
1
100
AcDbSymbolTableRecord
100
AcDbBlockTableRecord
  2
*D9
340
0
  0
BLOCK_RECORD
  5
5BBD
330
1
100
AcDbSymbolTableRecord
100
AcDbBlockTableRecord
  2
*D10
340
0
  0
BLOCK_RECORD
  5
5BC9
330
1
100
AcDbSymbolTableRecord
100
AcDbBlockTableRecord
  2
*D11
340
0
  0
BLOCK_RECORD
  5
5C0D
330
1
100
AcDbSymbolTableRecord
100
AcDbBlockTableRecord
  2
*D12
340
0
  0
BLOCK_RECORD
  5
5C19
330
1
100
AcDbSymbolTableRecord
100
AcDbBlockTableRecord
  2
*D13
340
0
  0
BLOCK_RECORD
  5
5C25
330
1
100
AcDbSymbolTableRecord
100
AcDbBlockTableRecord
  2
*D14
340
0
  0
BLOCK_RECORD
  5
5C31
330
1
100
AcDbSymbolTableRecord
100
AcDbBlockTableRecord
  2
*D15
340
0
  0
BLOCK_RECORD
  5
5C3D
330
1
100
AcDbSymbolTableRecord
100
AcDbBlockTableRecord
  2
*D16
340
0
  0
BLOCK_RECORD
  5
5C49
330
1
100
AcDbSymbolTableRecord
100
AcDbBlockTableRecord
  2
*D17
340
0
  0
BLOCK_RECORD
  5
5C55
330
1
100
AcDbSymbolTableRecord
100
AcDbBlockTableRecord
  2
*D18
340
0
  0
BLOCK_RECORD
  5
5C61
330
1
100
AcDbSymbolTableRecord
100
AcDbBlockTableRecord
  2
*D19
340
0
  0
BLOCK_RECORD
  5
5C6D
330
1
100
AcDbSymbolTableRecord
100
AcDbBlockTableRecord
  2
*D20
340
0
  0
BLOCK_RECORD
  5
5C7B
330
1
100
AcDbSymbolTableRecord
100
AcDbBlockTableRecord
  2
*D21
340
0
  0
BLOCK_RECORD
  5
5C89
330
1
100
AcDbSymbolTableRecord
100
AcDbBlockTableRecord
  2
*D22
340
0
  0
BLOCK_RECORD
  5
5C97
330
1
100
AcDbSymbolTableRecord
100
AcDbBlockTableRecord
  2
*D23
340
0
  0
BLOCK_RECORD
  5
5CCC
330
1
100
AcDbSymbolTableRecord
100
AcDbBlockTableRecord
  2
*D24
340
0
  0
BLOCK_RECORD
  5
5CD8
330
1
100
AcDbSymbolTableRecord
100
AcDbBlockTableRecord
  2
*D25
340
0
  0
BLOCK_RECORD
  5
619C
330
1
100
AcDbSymbolTableRecord
100
AcDbBlockTableRecord
  2
*D26
340
0
  0
BLOCK_RECORD
  5
61AA
330
1
100
AcDbSymbolTableRecord
100
AcDbBlockTableRecord
  2
*D27
340
0
  0
BLOCK_RECORD
  5
61B8
330
1
100
AcDbSymbolTableRecord
100
AcDbBlockTableRecord
  2
*D28
340
0
  0
BLOCK_RECORD
  5
61C6
330
1
100
AcDbSymbolTableRecord
100
AcDbBlockTableRecord
  2
*D29
340
0
  0
BLOCK_RECORD
  5
62AE
330
1
100
AcDbSymbolTableRecord
100
AcDbBlockTableRecord
  2
*D30
340
0
  0
BLOCK_RECORD
  5
62DD
330
1
100
AcDbSymbolTableRecord
100
AcDbBlockTableRecord
  2
*D31
340
0
  0
BLOCK_RECORD
  5
6307
330
1
100
AcDbSymbolTableRecord
100
AcDbBlockTableRecord
  2
*D32
340
0
  0
BLOCK_RECORD
  5
7A2F
330
1
100
AcDbSymbolTableRecord
100
AcDbBlockTableRecord
  2
*S34
340
0
  0
ENDTAB
  0
ENDSEC
  0
SECTION
  2
BLOCKS
  0
BLOCK
  5
20
330
1F
100
AcDbEntity
  8
0
100
AcDbBlockBegin
  2
*Model_Space
 70
     0
 10
0.0
 20
0.0
 30
0.0
  3
*Model_Space
  1

  0
ENDBLK
  5
21
330
1F
100
AcDbEntity
  8
0
100
AcDbBlockEnd
  0
BLOCK
  5
1C
330
1B
100
AcDbEntity
 67
     1
  8
0
100
AcDbBlockBegin
  2
*Paper_Space
 70
     0
 10
0.0
 20
0.0
 30
0.0
  3
*Paper_Space
  1

  0
ENDBLK
  5
1D
330
1B
100
AcDbEntity
 67
     1
  8
0
100
AcDbBlockEnd
  0
BLOCK
  5
24
330
23
100
AcDbEntity
  8
0
100
AcDbBlockBegin
  2
*Paper_Space0
 70
     0
 10
0.0
 20
0.0
 30
0.0
  3
*Paper_Space0
  1

  0
ENDBLK
  5
25
330
23
100
AcDbEntity
  8
0
100
AcDbBlockEnd
  0
BLOCK
  5
89
330
87
100
AcDbEntity
  8
0
100
AcDbBlockBegin
  2
GENAXEH
 70
     0
 10
0.0
 20
0.0
 30
0.0
  3
GENAXEH
  1

  0
LINE
  5
88
330
87
100
AcDbEntity
  8
0
100
AcDbLine
 10
-1.0
 20
0.0
 30
0.0
 11
1.0
 21
0.0
 31
0.0
  0
ENDBLK
  5
8A
330
87
100
AcDbEntity
  8
0
100
AcDbBlockEnd
  0
BLOCK
  5
5B71
330
5B67
100
AcDbEntity
  8
0
100
AcDbBlockBegin
  2
*D3
 70
     1
 10
0.0
 20
0.0
 30
0.0
  3
*D3
  1

  0
LINE
  5
72FF
330
5B67
100
AcDbEntity
  8
AM_5
100
AcDbLine
 10
7994.086668143376
 20
-464.2123065469827
 30
0.0
 11
7994.086668143376
 21
-525.2123065469827
 31
0.0
  0
LINE
  5
7300
330
5B67
100
AcDbEntity
  8
AM_5
100
AcDbLine
 10
8144.086668143376
 20
-488.8761497646169
 30
0.0
 11
8144.086668143376
 21
-525.2123065469827
 31
0.0
  0
LINE
  5
7301
330
5B67
100
AcDbEntity
  8
AM_5
100
AcDbLine
 10
8014.086668143376
 20
-521.2123065469827
 30
0.0
 11
8124.086668143375
 21
-521.2123065469827
 31
0.0
  0
SOLID
  5
7302
330
5B67
100
AcDbEntity
  8
AM_5
100
AcDbTrace
 10
8014.086668143376
 20
-517.8789732136493
 30
0.0
 11
8014.086668143376
 21
-524.5456398803161
 31
0.0
 12
7994.086668143376
 22
-521.2123065469827
 32
0.0
 13
7994.086668143376
 23
-521.2123065469827
 33
0.0
  0
SOLID
  5
7303
330
5B67
100
AcDbEntity
  8
AM_5
100
AcDbTrace
 10
8124.086668143375
 20
-517.8789732136493
 30
0.0
 11
8124.086668143375
 21
-524.5456398803161
 31
0.0
 12
8144.086668143376
 22
-521.2123065469827
 32
0.0
 13
8144.086668143376
 23
-521.2123065469827
 33
0.0
  0
MTEXT
  5
7304
330
5B67
100
AcDbEntity
  8
AM_5
100
AcDbMText
 10
8069.086668143375
 20
-505.2123065469827
 30
0.0
 40
20.0
 41
0.0
 71
     5
 72
     1
  1
\A2;150
 73
     1
 44
1.0
1001
ACAD
1000
MTEXTBEGIN
1070
    73
1070
     1
1070
    44
1040
1.0
1070
    74
1070
     0
1000
MTEXTEND
  0
POINT
  5
7305
330
5B67
100
AcDbEntity
  8
Defpoints
 62
     0
100
AcDbPoint
 10
7994.086668143376
 20
-461.2123065469827
 30
0.0
  0
POINT
  5
7306
330
5B67
100
AcDbEntity
  8
Defpoints
 62
     0
100
AcDbPoint
 10
8144.086668143376
 20
-485.8761497646169
 30
0.0
  0
POINT
  5
7307
330
5B67
100
AcDbEntity
  8
Defpoints
 62
     0
100
AcDbPoint
 10
8144.086668143376
 20
-521.2123065469827
 30
0.0
  0
ENDBLK
  5
5B72
330
5B67
100
AcDbEntity
  8
0
100
AcDbBlockEnd
  0
BLOCK
  5
5B7D
330
5B73
100
AcDbEntity
  8
0
100
AcDbBlockBegin
  2
*D4
 70
     1
 10
0.0
 20
0.0
 30
0.0
  3
*D4
  1

  0
LINE
  5
7308
330
5B73
100
AcDbEntity
  8
AM_5
100
AcDbLine
 10
8144.086668143376
 20
-488.8761497646169
 30
0.0
 11
8144.086668143376
 21
-525.2123065469827
 31
0.0
  0
LINE
  5
7309
330
5B73
100
AcDbEntity
  8
AM_5
100
AcDbLine
 10
8379.086668143377
 20
-488.8761497646169
 30
0.0
 11
8379.086668143377
 21
-525.2123065469827
 31
0.0
  0
LINE
  5
730A
330
5B73
100
AcDbEntity
  8
AM_5
100
AcDbLine
 10
8164.086668143376
 20
-521.2123065469827
 30
0.0
 11
8359.086668143376
 21
-521.2123065469827
 31
0.0
  0
SOLID
  5
730B
330
5B73
100
AcDbEntity
  8
AM_5
100
AcDbTrace
 10
8164.086668143376
 20
-517.8789732136493
 30
0.0
 11
8164.086668143376
 21
-524.5456398803161
 31
0.0
 12
8144.086668143376
 22
-521.2123065469827
 32
0.0
 13
8144.086668143376
 23
-521.2123065469827
 33
0.0
  0
SOLID
  5
730C
330
5B73
100
AcDbEntity
  8
AM_5
100
AcDbTrace
 10
8359.086668143376
 20
-517.8789732136493
 30
0.0
 11
8359.086668143376
 21
-524.5456398803161
 31
0.0
 12
8379.086668143377
 22
-521.2123065469827
 32
0.0
 13
8379.086668143377
 23
-521.2123065469827
 33
0.0
  0
MTEXT
  5
730D
330
5B73
100
AcDbEntity
  8
AM_5
100
AcDbMText
 10
8261.586668143376
 20
-505.2103380430457
 30
0.0
 40
20.0
 41
0.0
 71
     5
 72
     1
  1
\A2;235
 73
     1
 44
1.0
1001
ACAD
1000
MTEXTBEGIN
1070
    73
1070
     1
1070
    44
1040
1.0
1070
    74
1070
     0
1000
MTEXTEND
  0
POINT
  5
730E
330
5B73
100
AcDbEntity
  8
Defpoints
 62
     0
100
AcDbPoint
 10
8144.086668143376
 20
-485.8761497646169
 30
0.0
  0
POINT
  5
730F
330
5B73
100
AcDbEntity
  8
Defpoints
 62
     0
100
AcDbPoint
 10
8379.086668143377
 20
-485.8761497646169
 30
0.0
  0
POINT
  5
7310
330
5B73
100
AcDbEntity
  8
Defpoints
 62
     0
100
AcDbPoint
 10
8379.086668143377
 20
-521.2123065469827
 30
0.0
  0
ENDBLK
  5
5B7E
330
5B73
100
AcDbEntity
  8
0
100
AcDbBlockEnd
  0
BLOCK
  5
5B89
330
5B7F
100
AcDbEntity
  8
0
100
AcDbBlockBegin
  2
*D5
 70
     1
 10
0.0
 20
0.0
 30
0.0
  3
*D5
  1

  0
LINE
  5
7311
330
5B7F
100
AcDbEntity
  8
AM_5
100
AcDbLine
 10
8379.086668143377
 20
-488.8761497646169
 30
0.0
 11
8379.086668143377
 21
-525.2123065469827
 31
0.0
  0
LINE
  5
7312
330
5B7F
100
AcDbEntity
  8
AM_5
100
AcDbLine
 10
8544.086668143377
 20
-490.3646347642525
 30
0.0
 11
8544.086668143377
 21
-525.2123065469827
 31
0.0
  0
LINE
  5
7313
330
5B7F
100
AcDbEntity
  8
AM_5
100
AcDbLine
 10
8399.086668143375
 20
-521.2123065469827
 30
0.0
 11
8524.086668143375
 21
-521.2123065469827
 31
0.0
  0
SOLID
  5
7314
330
5B7F
100
AcDbEntity
  8
AM_5
100
AcDbTrace
 10
8399.086668143375
 20
-517.8789732136493
 30
0.0
 11
8399.086668143375
 21
-524.5456398803161
 31
0.0
 12
8379.086668143377
 22
-521.2123065469827
 32
0.0
 13
8379.086668143377
 23
-521.2123065469827
 33
0.0
  0
SOLID
  5
7315
330
5B7F
100
AcDbEntity
  8
AM_5
100
AcDbTrace
 10
8524.086668143375
 20
-517.8789732136493
 30
0.0
 11
8524.086668143375
 21
-524.5456398803161
 31
0.0
 12
8544.086668143377
 22
-521.2123065469827
 32
0.0
 13
8544.086668143377
 23
-521.2123065469827
 33
0.0
  0
MTEXT
  5
7316
330
5B7F
100
AcDbEntity
  8
AM_5
100
AcDbMText
 10
8461.586668143375
 20
-505.2123065469827
 30
0.0
 40
20.0
 41
0.0
 71
     5
 72
     1
  1
\A2;165
 73
     1
 44
1.0
1001
ACAD
1000
MTEXTBEGIN
1070
    73
1070
     1
1070
    44
1040
1.0
1070
    74
1070
     0
1000
MTEXTEND
  0
POINT
  5
7317
330
5B7F
100
AcDbEntity
  8
Defpoints
 62
     0
100
AcDbPoint
 10
8379.086668143377
 20
-485.8761497646169
 30
0.0
  0
POINT
  5
7318
330
5B7F
100
AcDbEntity
  8
Defpoints
 62
     0
100
AcDbPoint
 10
8544.086668143377
 20
-487.3646347642525
 30
0.0
  0
POINT
  5
7319
330
5B7F
100
AcDbEntity
  8
Defpoints
 62
     0
100
AcDbPoint
 10
8544.086668143377
 20
-521.2123065469827
 30
0.0
  0
ENDBLK
  5
5B8A
330
5B7F
100
AcDbEntity
  8
0
100
AcDbBlockEnd
  0
BLOCK
  5
5B97
330
5B8B
100
AcDbEntity
  8
0
100
AcDbBlockBegin
  2
*D6
 70
     1
 10
0.0
 20
0.0
 30
0.0
  3
*D6
  1

  0
LINE
  5
731A
330
5B8B
100
AcDbEntity
  8
AM_5
100
AcDbLine
 10
8544.086668143377
 20
-490.3646347642525
 30
0.0
 11
8544.086668143377
 21
-525.2123065469827
 31
0.0
  0
LINE
  5
731B
330
5B8B
100
AcDbEntity
  8
AM_5
100
AcDbLine
 10
8574.086668143376
 20
-464.2123065469827
 30
0.0
 11
8574.086668143376
 21
-525.2123065469827
 31
0.0
  0
LINE
  5
731C
330
5B8B
100
AcDbEntity
  8
AM_5
100
AcDbLine
 10
8524.086668143375
 20
-521.2123065469827
 30
0.0
 11
8504.086668143377
 21
-521.2123065469827
 31
0.0
  0
LINE
  5
731D
330
5B8B
100
AcDbEntity
  8
AM_5
100
AcDbLine
 10
8594.086668143376
 20
-521.2123065469827
 30
0.0
 11
8648.102416174872
 21
-521.2123065469827
 31
0.0
  0
LINE
  5
731E
330
5B8B
100
AcDbEntity
  8
AM_5
100
AcDbLine
 10
8544.086668143377
 20
-521.2123065469827
 30
0.0
 11
8574.086668143376
 21
-521.2123065469827
 31
0.0
  0
SOLID
  5
731F
330
5B8B
100
AcDbEntity
  8
AM_5
100
AcDbTrace
 10
8524.086668143375
 20
-517.8789732136493
 30
0.0
 11
8524.086668143375
 21
-524.5456398803161
 31
0.0
 12
8544.086668143377
 22
-521.2123065469827
 32
0.0
 13
8544.086668143377
 23
-521.2123065469827
 33
0.0
  0
SOLID
  5
7320
330
5B8B
100
AcDbEntity
  8
AM_5
100
AcDbTrace
 10
8594.086668143376
 20
-517.8789732136493
 30
0.0
 11
8594.086668143376
 21
-524.5456398803161
 31
0.0
 12
8574.086668143376
 22
-521.2123065469827
 32
0.0
 13
8574.086668143376
 23
-521.2123065469827
 33
0.0
  0
MTEXT
  5
7321
330
5B8B
100
AcDbEntity
  8
AM_5
100
AcDbMText
 10
8631.094542159123
 20
-505.2123065469827
 30
0.0
 40
20.0
 41
0.0
 71
     5
 72
     1
  1
\A2;30
 73
     1
 44
1.0
1001
ACAD
1000
MTEXTBEGIN
1070
    73
1070
     1
1070
    44
1040
1.0
1070
    74
1070
     0
1000
MTEXTEND
  0
POINT
  5
7322
330
5B8B
100
AcDbEntity
  8
Defpoints
 62
     0
100
AcDbPoint
 10
8544.086668143377
 20
-487.3646347642525
 30
0.0
  0
POINT
  5
7323
330
5B8B
100
AcDbEntity
  8
Defpoints
 62
     0
100
AcDbPoint
 10
8574.086668143376
 20
-461.2123065469827
 30
0.0
  0
POINT
  5
7324
330
5B8B
100
AcDbEntity
  8
Defpoints
 62
     0
100
AcDbPoint
 10
8574.086668143376
 20
-521.2123065469827
 30
0.0
  0
ENDBLK
  5
5B98
330
5B8B
100
AcDbEntity
  8
0
100
AcDbBlockEnd
  0
BLOCK
  5
5BA3
330
5B99
100
AcDbEntity
  8
0
100
AcDbBlockBegin
  2
*D7
 70
     1
 10
0.0
 20
0.0
 30
0.0
  3
*D7
  1

  0
LINE
  5
79D0
330
5B99
100
AcDbEntity
  8
AM_5
100
AcDbLine
 10
8018.086668143377
 20
188.7876934530172
 30
0.0
 11
7930.086668143376
 21
188.7876934530173
 31
0.0
  0
LINE
  5
79D1
330
5B99
100
AcDbEntity
  8
AM_5
100
AcDbLine
 10
8093.086668143376
 20
647.7876929410176
 30
0.0
 11
7930.086668143376
 21
647.7876929410178
 31
0.0
  0
LINE
  5
79D2
330
5B99
100
AcDbEntity
  8
AM_5
100
AcDbLine
 10
7934.086668143376
 20
208.7876934530173
 30
0.0
 11
7934.086668143376
 21
627.7876929410178
 31
0.0
  0
SOLID
  5
79D3
330
5B99
100
AcDbEntity
  8
AM_5
100
AcDbTrace
 10
7930.753334810043
 20
208.7876934530173
 30
0.0
 11
7937.420001476709
 21
208.7876934530173
 31
0.0
 12
7934.086668143376
 22
188.7876934530173
 32
0.0
 13
7934.086668143376
 23
188.7876934530173
 33
0.0
  0
SOLID
  5
79D4
330
5B99
100
AcDbEntity
  8
AM_5
100
AcDbTrace
 10
7930.753334810043
 20
627.7876929410178
 30
0.0
 11
7937.420001476709
 21
627.7876929410176
 31
0.0
 12
7934.086668143376
 22
647.7876929410178
 32
0.0
 13
7934.086668143376
 23
647.7876929410178
 33
0.0
  0
MTEXT
  5
79D5
330
5B99
100
AcDbEntity
  8
AM_5
100
AcDbMText
 10
7918.086668143377
 20
418.2876931970187
 30
0.0
 40
20.0
 41
0.0
 71
     5
 72
     1
  1
\A2;459
 11
0.0000000000000001
 21
1.0
 31
0.0
 73
     1
 44
1.0
1001
ACAD
1000
MTEXTBEGIN
1070
    73
1070
     1
1070
    44
1040
1.0
1070
    74
1070
     0
1000
MTEXTEND
  0
POINT
  5
79D6
330
5B99
100
AcDbEntity
  8
Defpoints
 62
     0
100
AcDbPoint
 10
8021.086668143377
 20
188.7876934530172
 30
0.0
  0
POINT
  5
79D7
330
5B99
100
AcDbEntity
  8
Defpoints
 62
     0
100
AcDbPoint
 10
8096.086668143376
 20
647.7876929410176
 30
0.0
  0
POINT
  5
79D8
330
5B99
100
AcDbEntity
  8
Defpoints
 62
     0
100
AcDbPoint
 10
7934.086668143376
 20
647.7876929410178
 30
0.0
  0
ENDBLK
  5
5BA4
330
5B99
100
AcDbEntity
  8
0
100
AcDbBlockEnd
  0
BLOCK
  5
5BAF
330
5BA5
100
AcDbEntity
  8
0
100
AcDbBlockBegin
  2
*D8
 70
     1
 10
0.0
 20
0.0
 30
0.0
  3
*D8
  1

  0
LINE
  5
79B5
330
5BA5
100
AcDbEntity
  8
AM_5
100
AcDbLine
 10
8088.086668143375
 20
647.7876929410176
 30
0.0
 11
7880.086668143376
 21
647.7876929410178
 31
0.0
  0
LINE
  5
79B6
330
5BA5
100
AcDbEntity
  8
AM_5
100
AcDbLine
 10
7991.086668143376
 20
-461.2123065469827
 30
0.0
 11
7880.086668143376
 21
-461.2123065469827
 31
0.0
  0
LINE
  5
79B7
330
5BA5
100
AcDbEntity
  8
AM_5
100
AcDbLine
 10
7884.086668143376
 20
627.7876929410178
 30
0.0
 11
7884.086668143376
 21
-441.2123065469827
 31
0.0
  0
SOLID
  5
79B8
330
5BA5
100
AcDbEntity
  8
AM_5
100
AcDbTrace
 10
7880.753334810044
 20
627.7876929410178
 30
0.0
 11
7887.420001476709
 21
627.7876929410178
 31
0.0
 12
7884.086668143376
 22
647.7876929410178
 32
0.0
 13
7884.086668143376
 23
647.7876929410178
 33
0.0
  0
SOLID
  5
79B9
330
5BA5
100
AcDbEntity
  8
AM_5
100
AcDbTrace
 10
7880.753334810044
 20
-441.2123065469827
 30
0.0
 11
7887.420001476709
 21
-441.2123065469827
 31
0.0
 12
7884.086668143376
 22
-461.2123065469827
 32
0.0
 13
7884.086668143376
 23
-461.2123065469827
 33
0.0
  0
MTEXT
  5
79BA
330
5BA5
100
AcDbEntity
  8
AM_5
100
AcDbMText
 10
7868.086668143376
 20
93.28769319701876
 30
0.0
 40
20.0
 41
0.0
 71
     5
 72
     1
  1
\A2;1109
 11
0.0000000000000001
 21
1.0
 31
0.0
 73
     1
 44
1.0
1001
ACAD
1000
MTEXTBEGIN
1070
    73
1070
     1
1070
    44
1040
1.0
1070
    74
1070
     0
1000
MTEXTEND
  0
POINT
  5
79BB
330
5BA5
100
AcDbEntity
  8
Defpoints
 62
     0
100
AcDbPoint
 10
8091.086668143375
 20
647.7876929410176
 30
0.0
  0
POINT
  5
79BC
330
5BA5
100
AcDbEntity
  8
Defpoints
 62
     0
100
AcDbPoint
 10
7994.086668143376
 20
-461.2123065469827
 30
0.0
  0
POINT
  5
79BD
330
5BA5
100
AcDbEntity
  8
Defpoints
 62
     0
100
AcDbPoint
 10
7884.086668143376
 20
-461.2123065469827
 30
0.0
  0
ENDBLK
  5
5BB0
330
5BA5
100
AcDbEntity
  8
0
100
AcDbBlockEnd
  0
BLOCK
  5
5BBB
330
5BB1
100
AcDbEntity
  8
0
100
AcDbBlockBegin
  2
*D9
 70
     1
 10
0.0
 20
0.0
 30
0.0
  3
*D9
  1

  0
LINE
  5
7260
330
5BB1
100
AcDbEntity
  8
AM_5
100
AcDbLine
 10
7383.731263768233
 20
-482.6192093830468
 30
0.0
 11
7383.731263768233
 21
-525.2123065469827
 31
0.0
  0
LINE
  5
7261
330
5BB1
100
AcDbEntity
  8
AM_5
100
AcDbLine
 10
7593.731263768233
 20
-485.9314120732483
 30
0.0
 11
7593.731263768233
 21
-525.2123065469827
 31
0.0
  0
LINE
  5
7262
330
5BB1
100
AcDbEntity
  8
AM_5
100
AcDbLine
 10
7403.731263768233
 20
-521.2123065469827
 30
0.0
 11
7573.731263768234
 21
-521.2123065469827
 31
0.0
  0
SOLID
  5
7263
330
5BB1
100
AcDbEntity
  8
AM_5
100
AcDbTrace
 10
7403.731263768233
 20
-517.8789732136493
 30
0.0
 11
7403.731263768233
 21
-524.5456398803161
 31
0.0
 12
7383.731263768233
 22
-521.2123065469827
 32
0.0
 13
7383.731263768233
 23
-521.2123065469827
 33
0.0
  0
SOLID
  5
7264
330
5BB1
100
AcDbEntity
  8
AM_5
100
AcDbTrace
 10
7573.731263768234
 20
-517.8789732136493
 30
0.0
 11
7573.731263768234
 21
-524.5456398803161
 31
0.0
 12
7593.731263768233
 22
-521.2123065469827
 32
0.0
 13
7593.731263768233
 23
-521.2123065469827
 33
0.0
  0
MTEXT
  5
7265
330
5BB1
100
AcDbEntity
  8
AM_5
100
AcDbMText
 10
7488.731263768234
 20
-505.2103380430457
 30
0.0
 40
20.0
 41
0.0
 71
     5
 72
     1
  1
\A2;210
 73
     1
 44
1.0
1001
ACAD
1000
MTEXTBEGIN
1070
    73
1070
     1
1070
    44
1040
1.0
1070
    74
1070
     0
1000
MTEXTEND
  0
POINT
  5
7266
330
5BB1
100
AcDbEntity
  8
Defpoints
 62
     0
100
AcDbPoint
 10
7383.731263768233
 20
-479.6192093830468
 30
0.0
  0
POINT
  5
7267
330
5BB1
100
AcDbEntity
  8
Defpoints
 62
     0
100
AcDbPoint
 10
7593.731263768233
 20
-482.9314120732483
 30
0.0
  0
POINT
  5
7268
330
5BB1
100
AcDbEntity
  8
Defpoints
 62
     0
100
AcDbPoint
 10
7593.731263768233
 20
-521.2123065469827
 30
0.0
  0
ENDBLK
  5
5BBC
330
5BB1
100
AcDbEntity
  8
0
100
AcDbBlockEnd
  0
BLOCK
  5
5BC7
330
5BBD
100
AcDbEntity
  8
0
100
AcDbBlockBegin
  2
*D10
 70
     1
 10
0.0
 20
0.0
 30
0.0
  3
*D10
  1

  0
LINE
  5
7269
330
5BBD
100
AcDbEntity
  8
AM_5
100
AcDbLine
 10
7338.731263768234
 20
-464.2123065469827
 30
0.0
 11
7338.731263768234
 21
-575.2123065469827
 31
0.0
  0
LINE
  5
726A
330
5BBD
100
AcDbEntity
  8
AM_5
100
AcDbLine
 10
7638.731263768234
 20
-464.2123065469827
 30
0.0
 11
7638.731263768234
 21
-575.2123065469827
 31
0.0
  0
LINE
  5
726B
330
5BBD
100
AcDbEntity
  8
AM_5
100
AcDbLine
 10
7358.731263768233
 20
-571.2123065469827
 30
0.0
 11
7618.731263768234
 21
-571.2123065469827
 31
0.0
  0
SOLID
  5
726C
330
5BBD
100
AcDbEntity
  8
AM_5
100
AcDbTrace
 10
7358.731263768233
 20
-567.8789732136493
 30
0.0
 11
7358.731263768233
 21
-574.5456398803161
 31
0.0
 12
7338.731263768234
 22
-571.2123065469827
 32
0.0
 13
7338.731263768234
 23
-571.2123065469827
 33
0.0
  0
SOLID
  5
726D
330
5BBD
100
AcDbEntity
  8
AM_5
100
AcDbTrace
 10
7618.731263768234
 20
-567.8789732136493
 30
0.0
 11
7618.731263768234
 21
-574.5456398803161
 31
0.0
 12
7638.731263768234
 22
-571.2123065469827
 32
0.0
 13
7638.731263768234
 23
-571.2123065469827
 33
0.0
  0
MTEXT
  5
726E
330
5BBD
100
AcDbEntity
  8
AM_5
100
AcDbMText
 10
7488.731263768234
 20
-555.2123065469827
 30
0.0
 40
20.0
 41
0.0
 71
     5
 72
     1
  1
\A2;300
 73
     1
 44
1.0
1001
ACAD
1000
MTEXTBEGIN
1070
    73
1070
     1
1070
    44
1040
1.0
1070
    74
1070
     0
1000
MTEXTEND
  0
POINT
  5
726F
330
5BBD
100
AcDbEntity
  8
Defpoints
 62
     0
100
AcDbPoint
 10
7338.731263768234
 20
-461.2123065469827
 30
0.0
  0
POINT
  5
7270
330
5BBD
100
AcDbEntity
  8
Defpoints
 62
     0
100
AcDbPoint
 10
7638.731263768234
 20
-461.2123065469827
 30
0.0
  0
POINT
  5
7271
330
5BBD
100
AcDbEntity
  8
Defpoints
 62
     0
100
AcDbPoint
 10
7638.731263768234
 20
-571.2123065469827
 30
0.0
  0
ENDBLK
  5
5BC8
330
5BBD
100
AcDbEntity
  8
0
100
AcDbBlockEnd
  0
BLOCK
  5
5BD3
330
5BC9
100
AcDbEntity
  8
0
100
AcDbBlockBegin
  2
*D11
 70
     1
 10
0.0
 20
0.0
 30
0.0
  3
*D11
  1

  0
LINE
  5
7272
330
5BC9
100
AcDbEntity
  8
AM_5
100
AcDbLine
 10
7994.086668143376
 20
-469.2123065469827
 30
0.0
 11
7994.086668143376
 21
-575.2123065469827
 31
0.0
  0
LINE
  5
7273
330
5BC9
100
AcDbEntity
  8
AM_5
100
AcDbLine
 10
8574.086668143376
 20
-469.2123065469827
 30
0.0
 11
8574.086668143376
 21
-575.2123065469827
 31
0.0
  0
LINE
  5
7274
330
5BC9
100
AcDbEntity
  8
AM_5
100
AcDbLine
 10
8014.086668143376
 20
-571.2123065469827
 30
0.0
 11
8554.086668143376
 21
-571.2123065469827
 31
0.0
  0
SOLID
  5
7275
330
5BC9
100
AcDbEntity
  8
AM_5
100
AcDbTrace
 10
8014.086668143376
 20
-567.8789732136493
 30
0.0
 11
8014.086668143376
 21
-574.5456398803161
 31
0.0
 12
7994.086668143376
 22
-571.2123065469827
 32
0.0
 13
7994.086668143376
 23
-571.2123065469827
 33
0.0
  0
SOLID
  5
7276
330
5BC9
100
AcDbEntity
  8
AM_5
100
AcDbTrace
 10
8554.086668143376
 20
-567.8789732136493
 30
0.0
 11
8554.086668143376
 21
-574.5456398803161
 31
0.0
 12
8574.086668143376
 22
-571.2123065469827
 32
0.0
 13
8574.086668143376
 23
-571.2123065469827
 33
0.0
  0
MTEXT
  5
7277
330
5BC9
100
AcDbEntity
  8
AM_5
100
AcDbMText
 10
8284.086668143377
 20
-555.2123065469827
 30
0.0
 40
20.0
 41
0.0
 71
     5
 72
     1
  1
\A2;580
 73
     1
 44
1.0
1001
ACAD
1000
MTEXTBEGIN
1070
    73
1070
     1
1070
    44
1040
1.0
1070
    74
1070
     0
1000
MTEXTEND
  0
POINT
  5
7278
330
5BC9
100
AcDbEntity
  8
Defpoints
 62
     0
100
AcDbPoint
 10
7994.086668143376
 20
-466.2123065469827
 30
0.0
  0
POINT
  5
7279
330
5BC9
100
AcDbEntity
  8
Defpoints
 62
     0
100
AcDbPoint
 10
8574.086668143376
 20
-466.2123065469827
 30
0.0
  0
POINT
  5
727A
330
5BC9
100
AcDbEntity
  8
Defpoints
 62
     0
100
AcDbPoint
 10
8574.086668143376
 20
-571.2123065469827
 30
0.0
  0
ENDBLK
  5
5BD4
330
5BC9
100
AcDbEntity
  8
0
100
AcDbBlockEnd
  0
BLOCK
  5
5C17
330
5C0D
100
AcDbEntity
  8
0
100
AcDbBlockBegin
  2
*D12
 70
     1
 10
0.0
 20
0.0
 30
0.0
  3
*D12
  1

  0
LINE
  5
727B
330
5C0D
100
AcDbEntity
  8
AM_5
100
AcDbLine
 10
8004.086668143377
 20
-308.2123065469827
 30
0.0
 11
8004.086668143377
 21
-248.7123065469827
 31
0.0
  0
LINE
  5
727C
330
5C0D
100
AcDbEntity
  8
AM_5
100
AcDbLine
 10
8284.086668143377
 20
-308.2123065469827
 30
0.0
 11
8284.086668143377
 21
-248.7123065469827
 31
0.0
  0
LINE
  5
727D
330
5C0D
100
AcDbEntity
  8
AM_5
100
AcDbLine
 10
8024.086668143375
 20
-252.7123065469827
 30
0.0
 11
8264.086668143376
 21
-252.7123065469827
 31
0.0
  0
SOLID
  5
727E
330
5C0D
100
AcDbEntity
  8
AM_5
100
AcDbTrace
 10
8024.086668143375
 20
-249.3789732136494
 30
0.0
 11
8024.086668143375
 21
-256.0456398803161
 31
0.0
 12
8004.086668143377
 22
-252.7123065469827
 32
0.0
 13
8004.086668143377
 23
-252.7123065469827
 33
0.0
  0
SOLID
  5
727F
330
5C0D
100
AcDbEntity
  8
AM_5
100
AcDbTrace
 10
8264.086668143376
 20
-249.3789732136494
 30
0.0
 11
8264.086668143376
 21
-256.0456398803161
 31
0.0
 12
8284.086668143377
 22
-252.7123065469827
 32
0.0
 13
8284.086668143377
 23
-252.7123065469827
 33
0.0
  0
MTEXT
  5
7280
330
5C0D
100
AcDbEntity
  8
AM_5
100
AcDbMText
 10
8100.425847491989
 20
-236.7103380430457
 30
0.0
 40
20.0
 41
0.0
 71
     5
 72
     1
  1
\A2;280
 73
     1
 44
1.0
1001
ACAD
1000
MTEXTBEGIN
1070
    73
1070
     1
1070
    44
1040
1.0
1070
    74
1070
     0
1000
MTEXTEND
  0
POINT
  5
7281
330
5C0D
100
AcDbEntity
  8
Defpoints
 62
     0
100
AcDbPoint
 10
8004.086668143377
 20
-311.2123065469827
 30
0.0
  0
POINT
  5
7282
330
5C0D
100
AcDbEntity
  8
Defpoints
 62
     0
100
AcDbPoint
 10
8284.086668143377
 20
-311.2123065469827
 30
0.0
  0
POINT
  5
7283
330
5C0D
100
AcDbEntity
  8
Defpoints
 62
     0
100
AcDbPoint
 10
8284.086668143377
 20
-252.7123065469827
 30
0.0
  0
ENDBLK
  5
5C18
330
5C0D
100
AcDbEntity
  8
0
100
AcDbBlockEnd
  0
BLOCK
  5
5C23
330
5C19
100
AcDbEntity
  8
0
100
AcDbBlockBegin
  2
*D13
 70
     1
 10
0.0
 20
0.0
 30
0.0
  3
*D13
  1

  0
LINE
  5
7284
330
5C19
100
AcDbEntity
  8
AM_5
100
AcDbLine
 10
7458.731263768233
 20
-308.2123065469827
 30
0.0
 11
7458.731263768233
 21
-271.630617450654
 31
0.0
  0
LINE
  5
7285
330
5C19
100
AcDbEntity
  8
AM_5
100
AcDbLine
 10
7518.731263768234
 20
-308.2123065469827
 30
0.0
 11
7518.731263768234
 21
-271.630617450654
 31
0.0
  0
LINE
  5
7286
330
5C19
100
AcDbEntity
  8
AM_5
100
AcDbLine
 10
7478.731263768233
 20
-275.630617450654
 30
0.0
 11
7498.731263768234
 21
-275.630617450654
 31
0.0
  0
SOLID
  5
7287
330
5C19
100
AcDbEntity
  8
AM_5
100
AcDbTrace
 10
7478.731263768233
 20
-272.2972841173207
 30
0.0
 11
7478.731263768233
 21
-278.9639507839873
 31
0.0
 12
7458.731263768233
 22
-275.630617450654
 32
0.0
 13
7458.731263768233
 23
-275.630617450654
 33
0.0
  0
SOLID
  5
7288
330
5C19
100
AcDbEntity
  8
AM_5
100
AcDbTrace
 10
7498.731263768234
 20
-272.2972841173207
 30
0.0
 11
7498.731263768234
 21
-278.9639507839873
 31
0.0
 12
7518.731263768234
 22
-275.630617450654
 32
0.0
 13
7518.731263768234
 23
-275.630617450654
 33
0.0
  0
MTEXT
  5
7289
330
5C19
100
AcDbEntity
  8
AM_5
100
AcDbMText
 10
7489.202323656339
 20
-259.630617450654
 30
0.0
 40
20.0
 41
0.0
 71
     5
 72
     1
  1
\A2;%%C60
 73
     1
 44
1.0
1001
ACAD
1000
MTEXTBEGIN
1070
    73
1070
     1
1070
    44
1040
1.0
1070
    74
1070
     0
1000
MTEXTEND
  0
POINT
  5
728A
330
5C19
100
AcDbEntity
  8
Defpoints
 62
     0
100
AcDbPoint
 10
7458.731263768233
 20
-311.2123065469827
 30
0.0
  0
POINT
  5
728B
330
5C19
100
AcDbEntity
  8
Defpoints
 62
     0
100
AcDbPoint
 10
7518.731263768234
 20
-311.2123065469827
 30
0.0
  0
POINT
  5
728C
330
5C19
100
AcDbEntity
  8
Defpoints
 62
     0
100
AcDbPoint
 10
7518.731263768234
 20
-275.630617450654
 30
0.0
  0
ENDBLK
  5
5C24
330
5C19
100
AcDbEntity
  8
0
100
AcDbBlockEnd
  0
BLOCK
  5
5C2F
330
5C25
100
AcDbEntity
  8
0
100
AcDbBlockBegin
  2
*D14
 70
     1
 10
0.0
 20
0.0
 30
0.0
  3
*D14
  1

  0
LINE
  5
728D
330
5C25
100
AcDbEntity
  8
AM_5
100
AcDbLine
 10
7348.731263768233
 20
-308.2123065469827
 30
0.0
 11
7348.731263768233
 21
-221.630617450654
 31
0.0
  0
LINE
  5
728E
330
5C25
100
AcDbEntity
  8
AM_5
100
AcDbLine
 10
7628.731263768234
 20
-308.2123065469827
 30
0.0
 11
7628.731263768234
 21
-221.630617450654
 31
0.0
  0
LINE
  5
728F
330
5C25
100
AcDbEntity
  8
AM_5
100
AcDbLine
 10
7368.731263768234
 20
-225.630617450654
 30
0.0
 11
7608.731263768233
 21
-225.630617450654
 31
0.0
  0
SOLID
  5
7290
330
5C25
100
AcDbEntity
  8
AM_5
100
AcDbTrace
 10
7368.731263768234
 20
-222.2972841173206
 30
0.0
 11
7368.731263768234
 21
-228.9639507839873
 31
0.0
 12
7348.731263768233
 22
-225.630617450654
 32
0.0
 13
7348.731263768233
 23
-225.630617450654
 33
0.0
  0
SOLID
  5
7291
330
5C25
100
AcDbEntity
  8
AM_5
100
AcDbTrace
 10
7608.731263768233
 20
-222.2972841173206
 30
0.0
 11
7608.731263768233
 21
-228.9639507839873
 31
0.0
 12
7628.731263768234
 22
-225.630617450654
 32
0.0
 13
7628.731263768234
 23
-225.630617450654
 33
0.0
  0
MTEXT
  5
7292
330
5C25
100
AcDbEntity
  8
AM_5
100
AcDbMText
 10
7486.087204723751
 20
-209.628648946717
 30
0.0
 40
20.0
 41
0.0
 71
     5
 72
     1
  1
\A2;280
 73
     1
 44
1.0
1001
ACAD
1000
MTEXTBEGIN
1070
    73
1070
     1
1070
    44
1040
1.0
1070
    74
1070
     0
1000
MTEXTEND
  0
POINT
  5
7293
330
5C25
100
AcDbEntity
  8
Defpoints
 62
     0
100
AcDbPoint
 10
7348.731263768233
 20
-311.2123065469827
 30
0.0
  0
POINT
  5
7294
330
5C25
100
AcDbEntity
  8
Defpoints
 62
     0
100
AcDbPoint
 10
7628.731263768234
 20
-311.2123065469827
 30
0.0
  0
POINT
  5
7295
330
5C25
100
AcDbEntity
  8
Defpoints
 62
     0
100
AcDbPoint
 10
7628.731263768234
 20
-225.630617450654
 30
0.0
  0
ENDBLK
  5
5C30
330
5C25
100
AcDbEntity
  8
0
100
AcDbBlockEnd
  0
BLOCK
  5
5C3B
330
5C31
100
AcDbEntity
  8
0
100
AcDbBlockBegin
  2
*D15
 70
     1
 10
0.0
 20
0.0
 30
0.0
  3
*D15
  1

  0
LINE
  5
7296
330
5C31
100
AcDbEntity
  8
AM_5
100
AcDbLine
 10
7991.086668143376
 20
-461.2123065469827
 30
0.0
 11
7930.086668143376
 21
-461.2123065469827
 31
0.0
  0
LINE
  5
7297
330
5C31
100
AcDbEntity
  8
AM_5
100
AcDbLine
 10
8001.086668143377
 20
-311.2123065469827
 30
0.0
 11
7930.086668143376
 21
-311.2123065469827
 31
0.0
  0
LINE
  5
7298
330
5C31
100
AcDbEntity
  8
AM_5
100
AcDbLine
 10
7934.086668143376
 20
-441.2123065469827
 30
0.0
 11
7934.086668143376
 21
-331.2123065469827
 31
0.0
  0
SOLID
  5
7299
330
5C31
100
AcDbEntity
  8
AM_5
100
AcDbTrace
 10
7930.753334810043
 20
-441.2123065469827
 30
0.0
 11
7937.420001476709
 21
-441.2123065469827
 31
0.0
 12
7934.086668143376
 22
-461.2123065469827
 32
0.0
 13
7934.086668143376
 23
-461.2123065469827
 33
0.0
  0
SOLID
  5
729A
330
5C31
100
AcDbEntity
  8
AM_5
100
AcDbTrace
 10
7930.753334810043
 20
-331.2123065469827
 30
0.0
 11
7937.420001476709
 21
-331.2123065469827
 31
0.0
 12
7934.086668143376
 22
-311.2123065469827
 32
0.0
 13
7934.086668143376
 23
-311.2123065469827
 33
0.0
  0
MTEXT
  5
729B
330
5C31
100
AcDbEntity
  8
AM_5
100
AcDbMText
 10
7918.086668143377
 20
-386.2123065469815
 30
0.0
 40
20.0
 41
0.0
 71
     5
 72
     1
  1
\A2;150
 11
0.0000000000000001
 21
1.0
 31
0.0
 73
     1
 44
1.0
1001
ACAD
1000
MTEXTBEGIN
1070
    73
1070
     1
1070
    44
1040
1.0
1070
    74
1070
     0
1000
MTEXTEND
  0
POINT
  5
729C
330
5C31
100
AcDbEntity
  8
Defpoints
 62
     0
100
AcDbPoint
 10
7994.086668143376
 20
-461.2123065469827
 30
0.0
  0
POINT
  5
729D
330
5C31
100
AcDbEntity
  8
Defpoints
 62
     0
100
AcDbPoint
 10
8004.086668143377
 20
-311.2123065469827
 30
0.0
  0
POINT
  5
729E
330
5C31
100
AcDbEntity
  8
Defpoints
 62
     0
100
AcDbPoint
 10
7934.086668143376
 20
-311.2123065469827
 30
0.0
  0
ENDBLK
  5
5C3C
330
5C31
100
AcDbEntity
  8
0
100
AcDbBlockEnd
  0
BLOCK
  5
5C47
330
5C3D
100
AcDbEntity
  8
0
100
AcDbBlockBegin
  2
*D16
 70
     1
 10
0.0
 20
0.0
 30
0.0
  3
*D16
  1

  0
LINE
  5
729F
330
5C3D
100
AcDbEntity
  8
AM_5
100
AcDbLine
 10
8023.086668143376
 20
38.78769345301726
 30
0.0
 11
7930.086668143376
 21
38.78769345301729
 31
0.0
  0
LINE
  5
72A0
330
5C3D
100
AcDbEntity
  8
AM_5
100
AcDbLine
 10
8023.086668143376
 20
188.7876934530172
 30
0.0
 11
7930.086668143376
 21
188.7876934530173
 31
0.0
  0
LINE
  5
72A1
330
5C3D
100
AcDbEntity
  8
AM_5
100
AcDbLine
 10
7934.086668143376
 20
58.78769345301728
 30
0.0
 11
7934.086668143376
 21
168.7876934530173
 31
0.0
  0
SOLID
  5
72A2
330
5C3D
100
AcDbEntity
  8
AM_5
100
AcDbTrace
 10
7930.753334810043
 20
58.78769345301728
 30
0.0
 11
7937.420001476709
 21
58.78769345301728
 31
0.0
 12
7934.086668143376
 22
38.78769345301729
 32
0.0
 13
7934.086668143376
 23
38.78769345301729
 33
0.0
  0
SOLID
  5
72A3
330
5C3D
100
AcDbEntity
  8
AM_5
100
AcDbTrace
 10
7930.753334810043
 20
168.7876934530173
 30
0.0
 11
7937.420001476709
 21
168.7876934530173
 31
0.0
 12
7934.086668143376
 22
188.7876934530173
 32
0.0
 13
7934.086668143376
 23
188.7876934530173
 33
0.0
  0
MTEXT
  5
72A4
330
5C3D
100
AcDbEntity
  8
AM_5
100
AcDbMText
 10
7918.086668143377
 20
113.7876934530185
 30
0.0
 40
20.0
 41
0.0
 71
     5
 72
     1
  1
\A2;150
 11
0.0000000000000001
 21
1.0
 31
0.0
 73
     1
 44
1.0
1001
ACAD
1000
MTEXTBEGIN
1070
    73
1070
     1
1070
    44
1040
1.0
1070
    74
1070
     0
1000
MTEXTEND
  0
POINT
  5
72A5
330
5C3D
100
AcDbEntity
  8
Defpoints
 62
     0
100
AcDbPoint
 10
8026.086668143376
 20
38.78769345301726
 30
0.0
  0
POINT
  5
72A6
330
5C3D
100
AcDbEntity
  8
Defpoints
 62
     0
100
AcDbPoint
 10
8026.086668143376
 20
188.7876934530172
 30
0.0
  0
POINT
  5
72A7
330
5C3D
100
AcDbEntity
  8
Defpoints
 62
     0
100
AcDbPoint
 10
7934.086668143376
 20
188.7876934530173
 30
0.0
  0
ENDBLK
  5
5C48
330
5C3D
100
AcDbEntity
  8
0
100
AcDbBlockEnd
  0
BLOCK
  5
5C53
330
5C49
100
AcDbEntity
  8
0
100
AcDbBlockBegin
  2
*D17
 70
     1
 10
0.0
 20
0.0
 30
0.0
  3
*D17
  1

  0
LINE
  5
72A8
330
5C49
100
AcDbEntity
  8
AM_5
100
AcDbLine
 10
8532.90840134702
 20
-1.212306546982746
 30
0.0
 11
8638.086668143376
 21
-1.212306546982775
 31
0.0
  0
LINE
  5
72A9
330
5C49
100
AcDbEntity
  8
AM_5
100
AcDbLine
 10
8532.90840134702
 20
-61.21230654698274
 30
0.0
 11
8638.086668143376
 21
-61.21230654698277
 31
0.0
  0
LINE
  5
72AA
330
5C49
100
AcDbEntity
  8
AM_5
100
AcDbLine
 10
8634.086668143376
 20
-21.21230654698278
 30
0.0
 11
8634.086668143376
 21
-41.21230654698277
 31
0.0
  0
SOLID
  5
72AB
330
5C49
100
AcDbEntity
  8
AM_5
100
AcDbTrace
 10
8630.753334810043
 20
-21.21230654698277
 30
0.0
 11
8637.42000147671
 21
-21.21230654698278
 31
0.0
 12
8634.086668143376
 22
-1.212306546982774
 32
0.0
 13
8634.086668143376
 23
-1.212306546982774
 33
0.0
  0
SOLID
  5
72AC
330
5C49
100
AcDbEntity
  8
AM_5
100
AcDbTrace
 10
8630.753334810043
 20
-41.21230654698277
 30
0.0
 11
8637.42000147671
 21
-41.21230654698277
 31
0.0
 12
8634.086668143376
 22
-61.21230654698277
 32
0.0
 13
8634.086668143376
 23
-61.21230654698277
 33
0.0
  0
MTEXT
  5
72AD
330
5C49
100
AcDbEntity
  8
AM_5
100
AcDbMText
 10
8618.086668143376
 20
-31.21230654698138
 30
0.0
 40
20.0
 41
0.0
 71
     5
 72
     1
  1
\A2;60
 11
0.0000000000000001
 21
1.0
 31
0.0
 73
     1
 44
1.0
1001
ACAD
1000
MTEXTBEGIN
1070
    73
1070
     1
1070
    44
1040
1.0
1070
    74
1070
     0
1000
MTEXTEND
  0
POINT
  5
72AE
330
5C49
100
AcDbEntity
  8
Defpoints
 62
     0
100
AcDbPoint
 10
8529.90840134702
 20
-1.212306546982745
 30
0.0
  0
POINT
  5
72AF
330
5C49
100
AcDbEntity
  8
Defpoints
 62
     0
100
AcDbPoint
 10
8529.90840134702
 20
-61.21230654698274
 30
0.0
  0
POINT
  5
72B0
330
5C49
100
AcDbEntity
  8
Defpoints
 62
     0
100
AcDbPoint
 10
8634.086668143376
 20
-61.21230654698277
 30
0.0
  0
ENDBLK
  5
5C54
330
5C49
100
AcDbEntity
  8
0
100
AcDbBlockEnd
  0
BLOCK
  5
5C5F
330
5C55
100
AcDbEntity
  8
0
100
AcDbBlockBegin
  2
*D18
 70
     1
 10
0.0
 20
0.0
 30
0.0
  3
*D18
  1

  0
LINE
  5
72B1
330
5C55
100
AcDbEntity
  8
AM_5
100
AcDbLine
 10
8577.086668143376
 20
-461.2123065469828
 30
0.0
 11
8638.086668143376
 21
-461.2123065469828
 31
0.0
  0
LINE
  5
72B2
330
5C55
100
AcDbEntity
  8
AM_5
100
AcDbLine
 10
8572.086668143375
 20
-401.2123065469827
 30
0.0
 11
8638.086668143376
 21
-401.2123065469827
 31
0.0
  0
LINE
  5
72B3
330
5C55
100
AcDbEntity
  8
AM_5
100
AcDbLine
 10
8634.086668143376
 20
-441.2123065469828
 30
0.0
 11
8634.086668143376
 21
-421.2123065469827
 31
0.0
  0
SOLID
  5
72B4
330
5C55
100
AcDbEntity
  8
AM_5
100
AcDbTrace
 10
8630.753334810043
 20
-441.2123065469828
 30
0.0
 11
8637.42000147671
 21
-441.2123065469828
 31
0.0
 12
8634.086668143376
 22
-461.2123065469828
 32
0.0
 13
8634.086668143376
 23
-461.2123065469828
 33
0.0
  0
SOLID
  5
72B5
330
5C55
100
AcDbEntity
  8
AM_5
100
AcDbTrace
 10
8630.753334810043
 20
-421.2123065469827
 30
0.0
 11
8637.42000147671
 21
-421.2123065469827
 31
0.0
 12
8634.086668143376
 22
-401.2123065469827
 32
0.0
 13
8634.086668143376
 23
-401.2123065469827
 33
0.0
  0
MTEXT
  5
72B6
330
5C55
100
AcDbEntity
  8
AM_5
100
AcDbMText
 10
8618.086668143376
 20
-431.2123065469814
 30
0.0
 40
20.0
 41
0.0
 71
     5
 72
     1
  1
\A2;60
 11
0.0000000000000001
 21
1.0
 31
0.0
 73
     1
 44
1.0
1001
ACAD
1000
MTEXTBEGIN
1070
    73
1070
     1
1070
    44
1040
1.0
1070
    74
1070
     0
1000
MTEXTEND
  0
POINT
  5
72B7
330
5C55
100
AcDbEntity
  8
Defpoints
 62
     0
100
AcDbPoint
 10
8574.086668143376
 20
-461.2123065469827
 30
0.0
  0
POINT
  5
72B8
330
5C55
100
AcDbEntity
  8
Defpoints
 62
     0
100
AcDbPoint
 10
8569.086668143375
 20
-401.2123065469827
 30
0.0
  0
POINT
  5
72B9
330
5C55
100
AcDbEntity
  8
Defpoints
 62
     0
100
AcDbPoint
 10
8634.086668143376
 20
-401.2123065469827
 30
0.0
  0
ENDBLK
  5
5C60
330
5C55
100
AcDbEntity
  8
0
100
AcDbBlockEnd
  0
BLOCK
  5
5C6B
330
5C61
100
AcDbEntity
  8
0
100
AcDbBlockBegin
  2
*D19
 70
     1
 10
0.0
 20
0.0
 30
0.0
  3
*D19
  1

  0
LINE
  5
72BA
330
5C61
100
AcDbEntity
  8
AM_5
100
AcDbLine
 10
8532.90840134702
 20
-1.212306546982746
 30
0.0
 11
8688.086668143375
 21
-1.21230654698279
 31
0.0
  0
LINE
  5
72BB
330
5C61
100
AcDbEntity
  8
AM_5
100
AcDbLine
 10
8582.086668143377
 20
-461.2123065469827
 30
0.0
 11
8688.086668143375
 21
-461.2123065469827
 31
0.0
  0
LINE
  5
72BC
330
5C61
100
AcDbEntity
  8
AM_5
100
AcDbLine
 10
8684.086668143377
 20
-21.21230654698279
 30
0.0
 11
8684.086668143377
 21
-441.2123065469827
 31
0.0
  0
SOLID
  5
72BD
330
5C61
100
AcDbEntity
  8
AM_5
100
AcDbTrace
 10
8680.753334810042
 20
-21.21230654698279
 30
0.0
 11
8687.420001476709
 21
-21.21230654698279
 31
0.0
 12
8684.086668143377
 22
-1.212306546982788
 32
0.0
 13
8684.086668143377
 23
-1.212306546982788
 33
0.0
  0
SOLID
  5
72BE
330
5C61
100
AcDbEntity
  8
AM_5
100
AcDbTrace
 10
8680.753334810042
 20
-441.2123065469827
 30
0.0
 11
8687.420001476709
 21
-441.2123065469827
 31
0.0
 12
8684.086668143377
 22
-461.2123065469827
 32
0.0
 13
8684.086668143377
 23
-461.2123065469827
 33
0.0
  0
MTEXT
  5
72BF
330
5C61
100
AcDbEntity
  8
AM_5
100
AcDbMText
 10
8668.086668143377
 20
-231.2123065469814
 30
0.0
 40
20.0
 41
0.0
 71
     5
 72
     1
  1
\A2;460
 11
0.0000000000000001
 21
1.0
 31
0.0
 73
     1
 44
1.0
1001
ACAD
1000
MTEXTBEGIN
1070
    73
1070
     1
1070
    44
1040
1.0
1070
    74
1070
     0
1000
MTEXTEND
  0
POINT
  5
72C0
330
5C61
100
AcDbEntity
  8
Defpoints
 62
     0
100
AcDbPoint
 10
8529.90840134702
 20
-1.212306546982745
 30
0.0
  0
POINT
  5
72C1
330
5C61
100
AcDbEntity
  8
Defpoints
 62
     0
100
AcDbPoint
 10
8579.086668143377
 20
-461.2123065469827
 30
0.0
  0
POINT
  5
72C2
330
5C61
100
AcDbEntity
  8
Defpoints
 62
     0
100
AcDbPoint
 10
8684.086668143377
 20
-461.2123065469827
 30
0.0
  0
ENDBLK
  5
5C6C
330
5C61
100
AcDbEntity
  8
0
100
AcDbBlockEnd
  0
BLOCK
  5
5C79
330
5C6D
100
AcDbEntity
  8
0
100
AcDbBlockBegin
  2
*D20
 70
     1
 10
0.0
 20
0.0
 30
0.0
  3
*D20
  1

  0
LINE
  5
72C3
330
5C6D
100
AcDbEntity
  8
AM_5
100
AcDbLine
 10
8368.086668143376
 20
-398.2123065469827
 30
0.0
 11
8368.086668143376
 21
-346.5530440445145
 31
0.0
  0
LINE
  5
72C4
330
5C6D
100
AcDbEntity
  8
AM_5
100
AcDbLine
 10
8390.086668143377
 20
-398.2123065469827
 30
0.0
 11
8390.086668143377
 21
-346.5530440445145
 31
0.0
  0
LINE
  5
72C5
330
5C6D
100
AcDbEntity
  8
AM_5
100
AcDbLine
 10
8348.086668143377
 20
-350.5530440445145
 30
0.0
 11
8328.086668143376
 21
-350.5530440445145
 31
0.0
  0
LINE
  5
72C6
330
5C6D
100
AcDbEntity
  8
AM_5
100
AcDbLine
 10
8410.086668143376
 20
-350.5530440445145
 30
0.0
 11
8465.795723261486
 21
-350.5530440445145
 31
0.0
  0
LINE
  5
72C7
330
5C6D
100
AcDbEntity
  8
AM_5
100
AcDbLine
 10
8368.086668143376
 20
-350.5530440445145
 30
0.0
 11
8390.086668143377
 21
-350.5530440445145
 31
0.0
  0
SOLID
  5
72C8
330
5C6D
100
AcDbEntity
  8
AM_5
100
AcDbTrace
 10
8348.086668143377
 20
-347.2197107111812
 30
0.0
 11
8348.086668143377
 21
-353.8863773778479
 31
0.0
 12
8368.086668143376
 22
-350.5530440445145
 32
0.0
 13
8368.086668143376
 23
-350.5530440445145
 33
0.0
  0
SOLID
  5
72C9
330
5C6D
100
AcDbEntity
  8
AM_5
100
AcDbTrace
 10
8410.086668143376
 20
-347.2197107111812
 30
0.0
 11
8410.086668143376
 21
-353.8863773778479
 31
0.0
 12
8390.086668143377
 22
-350.5530440445145
 32
0.0
 13
8390.086668143377
 23
-350.5530440445145
 33
0.0
  0
MTEXT
  5
72CA
330
5C6D
100
AcDbEntity
  8
AM_5
100
AcDbMText
 10
8447.941195702432
 20
-334.5510755405775
 30
0.0
 40
20.0
 41
0.0
 71
     5
 72
     1
  1
\A2;22
 73
     1
 44
1.0
1001
ACAD
1000
MTEXTBEGIN
1070
    73
1070
     1
1070
    44
1040
1.0
1070
    74
1070
     0
1000
MTEXTEND
  0
POINT
  5
72CB
330
5C6D
100
AcDbEntity
  8
Defpoints
 62
     0
100
AcDbPoint
 10
8368.086668143376
 20
-401.2123065469827
 30
0.0
  0
POINT
  5
72CC
330
5C6D
100
AcDbEntity
  8
Defpoints
 62
     0
100
AcDbPoint
 10
8390.086668143377
 20
-401.2123065469827
 30
0.0
  0
POINT
  5
72CD
330
5C6D
100
AcDbEntity
  8
Defpoints
 62
     0
100
AcDbPoint
 10
8390.086668143377
 20
-350.5530440445145
 30
0.0
  0
ENDBLK
  5
5C7A
330
5C6D
100
AcDbEntity
  8
0
100
AcDbBlockEnd
  0
BLOCK
  5
5C87
330
5C7B
100
AcDbEntity
  8
0
100
AcDbBlockBegin
  2
*D21
 70
     1
 10
0.0
 20
0.0
 30
0.0
  3
*D21
  1

  0
LINE
  5
72CE
330
5C7B
100
AcDbEntity
  8
AM_5
100
AcDbLine
 10
8533.086668143376
 20
-398.2123065469827
 30
0.0
 11
8533.086668143376
 21
-346.5530440445145
 31
0.0
  0
LINE
  5
72CF
330
5C7B
100
AcDbEntity
  8
AM_5
100
AcDbLine
 10
8555.086668143376
 20
-398.2123065469827
 30
0.0
 11
8555.086668143376
 21
-346.5530440445145
 31
0.0
  0
LINE
  5
72D0
330
5C7B
100
AcDbEntity
  8
AM_5
100
AcDbLine
 10
8513.086668143376
 20
-350.5530440445145
 30
0.0
 11
8493.086668143376
 21
-350.5530440445145
 31
0.0
  0
LINE
  5
72D1
330
5C7B
100
AcDbEntity
  8
AM_5
100
AcDbLine
 10
8575.086668143375
 20
-350.5530440445145
 30
0.0
 11
8634.607862369099
 21
-350.5530440445145
 31
0.0
  0
LINE
  5
72D2
330
5C7B
100
AcDbEntity
  8
AM_5
100
AcDbLine
 10
8533.086668143376
 20
-350.5530440445145
 30
0.0
 11
8555.086668143376
 21
-350.5530440445145
 31
0.0
  0
SOLID
  5
72D3
330
5C7B
100
AcDbEntity
  8
AM_5
100
AcDbTrace
 10
8513.086668143376
 20
-347.2197107111812
 30
0.0
 11
8513.086668143376
 21
-353.8863773778479
 31
0.0
 12
8533.086668143376
 22
-350.5530440445145
 32
0.0
 13
8533.086668143376
 23
-350.5530440445145
 33
0.0
  0
SOLID
  5
72D4
330
5C7B
100
AcDbEntity
  8
AM_5
100
AcDbTrace
 10
8575.086668143375
 20
-347.2197107111812
 30
0.0
 11
8575.086668143375
 21
-353.8863773778479
 31
0.0
 12
8555.086668143376
 22
-350.5530440445145
 32
0.0
 13
8555.086668143376
 23
-350.5530440445145
 33
0.0
  0
MTEXT
  5
72D5
330
5C7B
100
AcDbEntity
  8
AM_5
100
AcDbMText
 10
8616.753334810045
 20
-334.5510755405775
 30
0.0
 40
20.0
 41
0.0
 71
     5
 72
     1
  1
\A2;22
 73
     1
 44
1.0
1001
ACAD
1000
MTEXTBEGIN
1070
    73
1070
     1
1070
    44
1040
1.0
1070
    74
1070
     0
1000
MTEXTEND
  0
POINT
  5
72D6
330
5C7B
100
AcDbEntity
  8
Defpoints
 62
     0
100
AcDbPoint
 10
8533.086668143376
 20
-401.2123065469827
 30
0.0
  0
POINT
  5
72D7
330
5C7B
100
AcDbEntity
  8
Defpoints
 62
     0
100
AcDbPoint
 10
8555.086668143376
 20
-401.2123065469827
 30
0.0
  0
POINT
  5
72D8
330
5C7B
100
AcDbEntity
  8
Defpoints
 62
     0
100
AcDbPoint
 10
8555.086668143376
 20
-350.5530440445145
 30
0.0
  0
ENDBLK
  5
5C88
330
5C7B
100
AcDbEntity
  8
0
100
AcDbBlockEnd
  0
BLOCK
  5
5C95
330
5C89
100
AcDbEntity
  8
0
100
AcDbBlockBegin
  2
*D22
 70
     1
 10
0.0
 20
0.0
 30
0.0
  3
*D22
  1

  0
LINE
  5
72D9
330
5C89
100
AcDbEntity
  8
AM_5
100
AcDbLine
 10
8023.086668143376
 20
38.78769345301726
 30
0.0
 11
7930.086668143376
 21
38.78769345301729
 31
0.0
  0
LINE
  5
72DA
330
5C89
100
AcDbEntity
  8
AM_5
100
AcDbLine
 10
8106.086668143376
 20
-11.21230654698274
 30
0.0
 11
7930.086668143376
 21
-11.21230654698269
 31
0.0
  0
LINE
  5
72DB
330
5C89
100
AcDbEntity
  8
AM_5
100
AcDbLine
 10
7934.086668143376
 20
58.78769345301728
 30
0.0
 11
7934.086668143376
 21
78.78769345301728
 31
0.0
  0
LINE
  5
72DC
330
5C89
100
AcDbEntity
  8
AM_5
100
AcDbLine
 10
7934.086668143376
 20
-31.21230654698269
 30
0.0
 11
7934.086668143376
 21
-51.21230654698269
 31
0.0
  0
LINE
  5
72DD
330
5C89
100
AcDbEntity
  8
AM_5
100
AcDbLine
 10
7934.086668143376
 20
38.78769345301729
 30
0.0
 11
7934.086668143376
 21
-11.21230654698269
 31
0.0
  0
SOLID
  5
72DE
330
5C89
100
AcDbEntity
  8
AM_5
100
AcDbTrace
 10
7930.753334810043
 20
58.78769345301728
 30
0.0
 11
7937.420001476709
 21
58.78769345301728
 31
0.0
 12
7934.086668143376
 22
38.78769345301729
 32
0.0
 13
7934.086668143376
 23
38.78769345301729
 33
0.0
  0
SOLID
  5
72DF
330
5C89
100
AcDbEntity
  8
AM_5
100
AcDbTrace
 10
7930.753334810043
 20
-31.21230654698269
 30
0.0
 11
7937.420001476709
 21
-31.21230654698269
 31
0.0
 12
7934.086668143376
 22
-11.21230654698269
 32
0.0
 13
7934.086668143376
 23
-11.21230654698269
 33
0.0
  0
MTEXT
  5
72E0
330
5C89
100
AcDbEntity
  8
AM_5
100
AcDbMText
 10
7918.086668143377
 20
13.78769345301857
 30
0.0
 40
20.0
 41
0.0
 71
     5
 72
     1
  1
\A2;50
 11
0.0000000000000001
 21
1.0
 31
0.0
 73
     1
 44
1.0
1001
ACAD
1000
MTEXTBEGIN
1070
    73
1070
     1
1070
    44
1040
1.0
1070
    74
1070
     0
1000
MTEXTEND
  0
POINT
  5
72E1
330
5C89
100
AcDbEntity
  8
Defpoints
 62
     0
100
AcDbPoint
 10
8026.086668143376
 20
38.78769345301726
 30
0.0
  0
POINT
  5
72E2
330
5C89
100
AcDbEntity
  8
Defpoints
 62
     0
100
AcDbPoint
 10
8109.086668143376
 20
-11.21230654698274
 30
0.0
  0
POINT
  5
72E3
330
5C89
100
AcDbEntity
  8
Defpoints
 62
     0
100
AcDbPoint
 10
7934.086668143376
 20
-11.21230654698269
 30
0.0
  0
ENDBLK
  5
5C96
330
5C89
100
AcDbEntity
  8
0
100
AcDbBlockEnd
  0
BLOCK
  5
5CA1
330
5C97
100
AcDbEntity
  8
0
100
AcDbBlockBegin
  2
*D23
 70
     1
 10
0.0
 20
0.0
 30
0.0
  3
*D23
  1

  0
LINE
  5
72E4
330
5C97
100
AcDbEntity
  8
AM_5
100
AcDbLine
 10
8106.086668143376
 20
-11.21230654698274
 30
0.0
 11
7930.086668143376
 21
-11.21230654698269
 31
0.0
  0
LINE
  5
72E5
330
5C97
100
AcDbEntity
  8
AM_5
100
AcDbLine
 10
7996.086668143377
 20
-311.2123065469827
 30
0.0
 11
7930.086668143376
 21
-311.2123065469827
 31
0.0
  0
LINE
  5
72E6
330
5C97
100
AcDbEntity
  8
AM_5
100
AcDbLine
 10
7934.086668143376
 20
-31.21230654698269
 30
0.0
 11
7934.086668143376
 21
-291.2123065469828
 31
0.0
  0
SOLID
  5
72E7
330
5C97
100
AcDbEntity
  8
AM_5
100
AcDbTrace
 10
7930.753334810043
 20
-31.21230654698269
 30
0.0
 11
7937.420001476709
 21
-31.21230654698269
 31
0.0
 12
7934.086668143376
 22
-11.21230654698269
 32
0.0
 13
7934.086668143376
 23
-11.21230654698269
 33
0.0
  0
SOLID
  5
72E8
330
5C97
100
AcDbEntity
  8
AM_5
100
AcDbTrace
 10
7930.753334810043
 20
-291.2123065469828
 30
0.0
 11
7937.420001476709
 21
-291.2123065469828
 31
0.0
 12
7934.086668143376
 22
-311.2123065469827
 32
0.0
 13
7934.086668143376
 23
-311.2123065469827
 33
0.0
  0
MTEXT
  5
72E9
330
5C97
100
AcDbEntity
  8
AM_5
100
AcDbMText
 10
7918.086668143377
 20
-161.2123065469814
 30
0.0
 40
20.0
 41
0.0
 71
     5
 72
     1
  1
\A2;300
 11
0.0000000000000001
 21
1.0
 31
0.0
 73
     1
 44
1.0
1001
ACAD
1000
MTEXTBEGIN
1070
    73
1070
     1
1070
    44
1040
1.0
1070
    74
1070
     0
1000
MTEXTEND
  0
POINT
  5
72EA
330
5C97
100
AcDbEntity
  8
Defpoints
 62
     0
100
AcDbPoint
 10
8109.086668143376
 20
-11.21230654698274
 30
0.0
  0
POINT
  5
72EB
330
5C97
100
AcDbEntity
  8
Defpoints
 62
     0
100
AcDbPoint
 10
7999.086668143376
 20
-311.2123065469827
 30
0.0
  0
POINT
  5
72EC
330
5C97
100
AcDbEntity
  8
Defpoints
 62
     0
100
AcDbPoint
 10
7934.086668143376
 20
-311.2123065469827
 30
0.0
  0
ENDBLK
  5
5CA2
330
5C97
100
AcDbEntity
  8
0
100
AcDbBlockEnd
  0
BLOCK
  5
5CD6
330
5CCC
100
AcDbEntity
  8
0
100
AcDbBlockBegin
  2
*D24
 70
     1
 10
0.0
 20
0.0
 30
0.0
  3
*D24
  1

  0
LINE
  5
72ED
330
5CCC
100
AcDbEntity
  8
AM_5
100
AcDbLine
 10
7372.231263768234
 20
-136.1402035551041
 30
0.0
 11
7372.231263768234
 21
-180.0435311607948
 31
0.0
  0
LINE
  5
72EE
330
5CCC
100
AcDbEntity
  8
AM_5
100
AcDbLine
 10
7605.231263768233
 20
-136.1402035551041
 30
0.0
 11
7605.231263768233
 21
-180.0435311607948
 31
0.0
  0
LINE
  5
72EF
330
5CCC
100
AcDbEntity
  8
AM_5
100
AcDbLine
 10
7392.231263768234
 20
-176.0435311607948
 30
0.0
 11
7585.231263768233
 21
-176.0435311607948
 31
0.0
  0
SOLID
  5
72F0
330
5CCC
100
AcDbEntity
  8
AM_5
100
AcDbTrace
 10
7392.231263768234
 20
-172.7101978274615
 30
0.0
 11
7392.231263768234
 21
-179.3768644941281
 31
0.0
 12
7372.231263768234
 22
-176.0435311607948
 32
0.0
 13
7372.231263768234
 23
-176.0435311607948
 33
0.0
  0
SOLID
  5
72F1
330
5CCC
100
AcDbEntity
  8
AM_5
100
AcDbTrace
 10
7585.231263768233
 20
-172.7101978274615
 30
0.0
 11
7585.231263768233
 21
-179.3768644941281
 31
0.0
 12
7605.231263768233
 22
-176.0435311607948
 32
0.0
 13
7605.231263768233
 23
-176.0435311607948
 33
0.0
  0
MTEXT
  5
72F2
330
5CCC
100
AcDbEntity
  8
AM_5
100
AcDbMText
 10
7488.731263768234
 20
-160.0415626568578
 30
0.0
 40
20.0
 41
0.0
 71
     5
 72
     1
  1
\A2;235
 73
     1
 44
1.0
1001
ACAD
1000
MTEXTBEGIN
1070
    73
1070
     1
1070
    44
1040
1.0
1070
    74
1070
     0
1000
MTEXTEND
  0
POINT
  5
72F3
330
5CCC
100
AcDbEntity
  8
Defpoints
 62
     0
100
AcDbPoint
 10
7372.231263768234
 20
-133.1402035551041
 30
0.0
  0
POINT
  5
72F4
330
5CCC
100
AcDbEntity
  8
Defpoints
 62
     0
100
AcDbPoint
 10
7605.231263768233
 20
-133.1402035551041
 30
0.0
  0
POINT
  5
72F5
330
5CCC
100
AcDbEntity
  8
Defpoints
 62
     0
100
AcDbPoint
 10
7605.231263768233
 20
-176.0435311607948
 30
0.0
  0
ENDBLK
  5
5CD7
330
5CCC
100
AcDbEntity
  8
0
100
AcDbBlockEnd
  0
BLOCK
  5
5CE2
330
5CD8
100
AcDbEntity
  8
0
100
AcDbBlockBegin
  2
*D25
 70
     1
 10
0.0
 20
0.0
 30
0.0
  3
*D25
  1

  0
LINE
  5
72F6
330
5CD8
100
AcDbEntity
  8
AM_5
100
AcDbLine
 10
8144.086668143376
 20
-279.8326125514509
 30
0.0
 11
8144.086668143376
 21
-187.7949138841509
 31
0.0
  0
LINE
  5
72F7
330
5CD8
100
AcDbEntity
  8
AM_5
100
AcDbLine
 10
8324.086668143376
 20
-279.8326125514509
 30
0.0
 11
8324.086668143376
 21
-187.7949138841509
 31
0.0
  0
LINE
  5
72F8
330
5CD8
100
AcDbEntity
  8
AM_5
100
AcDbLine
 10
8164.086668143376
 20
-191.7949138841509
 30
0.0
 11
8304.086668143376
 21
-191.7949138841509
 31
0.0
  0
SOLID
  5
72F9
330
5CD8
100
AcDbEntity
  8
AM_5
100
AcDbTrace
 10
8164.086668143376
 20
-188.4615805508175
 30
0.0
 11
8164.086668143376
 21
-195.1282472174842
 31
0.0
 12
8144.086668143376
 22
-191.7949138841509
 32
0.0
 13
8144.086668143376
 23
-191.7949138841509
 33
0.0
  0
SOLID
  5
72FA
330
5CD8
100
AcDbEntity
  8
AM_5
100
AcDbTrace
 10
8304.086668143376
 20
-188.4615805508175
 30
0.0
 11
8304.086668143376
 21
-195.1282472174842
 31
0.0
 12
8324.086668143376
 22
-191.7949138841509
 32
0.0
 13
8324.086668143376
 23
-191.7949138841509
 33
0.0
  0
MTEXT
  5
72FB
330
5CD8
100
AcDbEntity
  8
AM_5
100
AcDbMText
 10
8234.086668143376
 20
-175.7949138841509
 30
0.0
 40
20.0
 41
0.0
 71
     5
 72
     1
  1
\A2;180
 73
     1
 44
1.0
1001
ACAD
1000
MTEXTBEGIN
1070
    73
1070
     1
1070
    44
1040
1.0
1070
    74
1070
     0
1000
MTEXTEND
  0
POINT
  5
72FC
330
5CD8
100
AcDbEntity
  8
Defpoints
 62
     0
100
AcDbPoint
 10
8144.086668143376
 20
-282.8326125514509
 30
0.0
  0
POINT
  5
72FD
330
5CD8
100
AcDbEntity
  8
Defpoints
 62
     0
100
AcDbPoint
 10
8324.086668143376
 20
-282.8326125514509
 30
0.0
  0
POINT
  5
72FE
330
5CD8
100
AcDbEntity
  8
Defpoints
 62
     0
100
AcDbPoint
 10
8324.086668143376
 20
-191.7949138841509
 30
0.0
  0
ENDBLK
  5
5CE3
330
5CD8
100
AcDbEntity
  8
0
100
AcDbBlockEnd
  0
BLOCK
  5
61A8
330
619C
100
AcDbEntity
  8
0
100
AcDbBlockBegin
  2
*D26
 70
     1
 10
0.0
 20
0.0
 30
0.0
  3
*D26
  1

  0
LINE
  5
7337
330
619C
100
AcDbEntity
  8
AM_5
100
AcDbLine
 10
8119.086668143376
 20
933.7586134150656
 30
0.0
 11
8119.086668143376
 21
872.7586124150661
 31
0.0
  0
LINE
  5
7338
330
619C
100
AcDbEntity
  8
AM_5
100
AcDbLine
 10
8169.086668143377
 20
933.7586134150656
 30
0.0
 11
8169.086668143377
 21
872.7586124150661
 31
0.0
  0
LINE
  5
7339
330
619C
100
AcDbEntity
  8
AM_5
100
AcDbLine
 10
8099.086668143376
 20
876.7586124150662
 30
0.0
 11
8079.086668143377
 21
876.7586124150662
 31
0.0
  0
LINE
  5
733A
330
619C
100
AcDbEntity
  8
AM_5
100
AcDbLine
 10
8189.086668143376
 20
876.7586124150662
 30
0.0
 11
8209.086668143376
 21
876.7586124150662
 31
0.0
  0
LINE
  5
733B
330
619C
100
AcDbEntity
  8
AM_5
100
AcDbLine
 10
8119.086668143376
 20
876.7586124150662
 30
0.0
 11
8169.086668143377
 21
876.7586124150662
 31
0.0
  0
SOLID
  5
733C
330
619C
100
AcDbEntity
  8
AM_5
100
AcDbTrace
 10
8099.086668143376
 20
880.0919457483995
 30
0.0
 11
8099.086668143376
 21
873.4252790817327
 31
0.0
 12
8119.086668143376
 22
876.7586124150662
 32
0.0
 13
8119.086668143376
 23
876.7586124150662
 33
0.0
  0
SOLID
  5
733D
330
619C
100
AcDbEntity
  8
AM_5
100
AcDbTrace
 10
8189.086668143376
 20
880.0919457483995
 30
0.0
 11
8189.086668143376
 21
873.4252790817327
 31
0.0
 12
8169.086668143377
 22
876.7586124150662
 32
0.0
 13
8169.086668143377
 23
876.7586124150662
 33
0.0
  0
MTEXT
  5
733E
330
619C
100
AcDbEntity
  8
AM_5
100
AcDbMText
 10
8144.086668143376
 20
892.7605809190032
 30
0.0
 40
20.0
 41
0.0
 71
     5
 72
     1
  1
\A2;25
 73
     1
 44
1.0
1001
ACAD
1000
MTEXTBEGIN
1070
    73
1070
     1
1070
    44
1040
1.0
1070
    74
1070
     0
1000
MTEXTEND
  0
POINT
  5
733F
330
619C
100
AcDbEntity
  8
Defpoints
 62
     0
100
AcDbPoint
 10
8119.086668143376
 20
936.7586134150656
 30
0.0
  0
POINT
  5
7340
330
619C
100
AcDbEntity
  8
Defpoints
 62
     0
100
AcDbPoint
 10
8169.086668143377
 20
936.7586134150656
 30
0.0
  0
POINT
  5
7341
330
619C
100
AcDbEntity
  8
Defpoints
 62
     0
100
AcDbPoint
 10
8169.086668143377
 20
876.7586124150662
 30
0.0
  0
ENDBLK
  5
61A9
330
619C
100
AcDbEntity
  8
0
100
AcDbBlockEnd
  0
BLOCK
  5
61B6
330
61AA
100
AcDbEntity
  8
0
100
AcDbBlockBegin
  2
*D27
 70
     1
 10
0.0
 20
0.0
 30
0.0
  3
*D27
  1

  0
LINE
  5
7342
330
61AA
100
AcDbEntity
  8
AM_5
100
AcDbLine
 10
8129.086668143377
 20
1001.758613415066
 30
0.0
 11
8129.086668143377
 21
1032.758614415066
 31
0.0
  0
LINE
  5
7343
330
61AA
100
AcDbEntity
  8
AM_5
100
AcDbLine
 10
8159.086668143377
 20
1001.758613415066
 30
0.0
 11
8159.086668143377
 21
1032.758614415066
 31
0.0
  0
LINE
  5
7344
330
61AA
100
AcDbEntity
  8
AM_5
100
AcDbLine
 10
8109.086668143376
 20
1028.758614415066
 30
0.0
 11
8089.086668143377
 21
1028.758614415066
 31
0.0
  0
LINE
  5
7345
330
61AA
100
AcDbEntity
  8
AM_5
100
AcDbLine
 10
8179.086668143376
 20
1028.758614415066
 30
0.0
 11
8199.086668143376
 21
1028.758614415066
 31
0.0
  0
LINE
  5
7346
330
61AA
100
AcDbEntity
  8
AM_5
100
AcDbLine
 10
8129.086668143377
 20
1028.758614415066
 30
0.0
 11
8159.086668143377
 21
1028.758614415066
 31
0.0
  0
SOLID
  5
7347
330
61AA
100
AcDbEntity
  8
AM_5
100
AcDbTrace
 10
8109.086668143376
 20
1032.091947748399
 30
0.0
 11
8109.086668143376
 21
1025.425281081733
 31
0.0
 12
8129.086668143377
 22
1028.758614415066
 32
0.0
 13
8129.086668143377
 23
1028.758614415066
 33
0.0
  0
SOLID
  5
7348
330
61AA
100
AcDbEntity
  8
AM_5
100
AcDbTrace
 10
8179.086668143376
 20
1032.091947748399
 30
0.0
 11
8179.086668143376
 21
1025.425281081733
 31
0.0
 12
8159.086668143377
 22
1028.758614415066
 32
0.0
 13
8159.086668143377
 23
1028.758614415066
 33
0.0
  0
MTEXT
  5
7349
330
61AA
100
AcDbEntity
  8
AM_5
100
AcDbMText
 10
8144.086668143376
 20
1044.758614415066
 30
0.0
 40
20.0
 41
0.0
 71
     5
 72
     1
  1
\A2;15
 73
     1
 44
1.0
1001
ACAD
1000
MTEXTBEGIN
1070
    73
1070
     1
1070
    44
1040
1.0
1070
    74
1070
     0
1000
MTEXTEND
  0
POINT
  5
734A
330
61AA
100
AcDbEntity
  8
Defpoints
 62
     0
100
AcDbPoint
 10
8129.086668143377
 20
998.7586134150657
 30
0.0
  0
POINT
  5
734B
330
61AA
100
AcDbEntity
  8
Defpoints
 62
     0
100
AcDbPoint
 10
8159.086668143377
 20
998.7586134150657
 30
0.0
  0
POINT
  5
734C
330
61AA
100
AcDbEntity
  8
Defpoints
 62
     0
100
AcDbPoint
 10
8159.086668143377
 20
1028.758614415066
 30
0.0
  0
ENDBLK
  5
61B7
330
61AA
100
AcDbEntity
  8
0
100
AcDbBlockEnd
  0
BLOCK
  5
61C4
330
61B8
100
AcDbEntity
  8
0
100
AcDbBlockBegin
  2
*D28
 70
     1
 10
0.0
 20
0.0
 30
0.0
  3
*D28
  1

  0
LINE
  5
734D
330
61B8
100
AcDbEntity
  8
AM_5
100
AcDbLine
 10
8189.010811497849
 20
998.7586134150657
 30
0.0
 11
8242.331865697805
 21
998.7586134150657
 31
0.0
  0
LINE
  5
734E
330
61B8
100
AcDbEntity
  8
AM_5
100
AcDbLine
 10
8172.086668143377
 20
968.7586134150656
 30
0.0
 11
8242.331865697805
 21
968.7586134150656
 31
0.0
  0
LINE
  5
734F
330
61B8
100
AcDbEntity
  8
AM_5
100
AcDbLine
 10
8238.331865697805
 20
948.7586134150657
 30
0.0
 11
8238.331865697805
 21
928.7586134150656
 31
0.0
  0
LINE
  5
7350
330
61B8
100
AcDbEntity
  8
AM_5
100
AcDbLine
 10
8238.331865697805
 20
1018.758613415065
 30
0.0
 11
8238.331865697805
 21
1069.587040539812
 31
0.0
  0
LINE
  5
7351
330
61B8
100
AcDbEntity
  8
AM_5
100
AcDbLine
 10
8238.331865697805
 20
968.7586134150656
 30
0.0
 11
8238.331865697805
 21
998.7586134150657
 31
0.0
  0
SOLID
  5
7352
330
61B8
100
AcDbEntity
  8
AM_5
100
AcDbTrace
 10
8234.998532364469
 20
948.7586134150657
 30
0.0
 11
8241.665199031137
 21
948.7586134150657
 31
0.0
 12
8238.331865697805
 22
968.7586134150656
 32
0.0
 13
8238.331865697805
 23
968.7586134150656
 33
0.0
  0
SOLID
  5
7353
330
61B8
100
AcDbEntity
  8
AM_5
100
AcDbTrace
 10
8234.998532364469
 20
1018.758613415065
 30
0.0
 11
8241.665199031137
 21
1018.758613415065
 31
0.0
 12
8238.331865697805
 22
998.7586134150657
 32
0.0
 13
8238.331865697805
 23
998.7586134150657
 33
0.0
  0
MTEXT
  5
7354
330
61B8
100
AcDbEntity
  8
AM_5
100
AcDbMText
 10
8222.331865697805
 20
1054.172826977441
 30
0.0
 40
20.0
 41
0.0
 71
     5
 72
     1
  1
\A2;15
 11
0.0000000000000001
 21
1.0
 31
0.0
 73
     1
 44
1.0
1001
ACAD
1000
MTEXTBEGIN
1070
    73
1070
     1
1070
    44
1040
1.0
1070
    74
1070
     0
1000
MTEXTEND
  0
POINT
  5
7355
330
61B8
100
AcDbEntity
  8
Defpoints
 62
     0
100
AcDbPoint
 10
8186.010811497849
 20
998.7586134150657
 30
0.0
  0
POINT
  5
7356
330
61B8
100
AcDbEntity
  8
Defpoints
 62
     0
100
AcDbPoint
 10
8169.086668143377
 20
968.7586134150656
 30
0.0
  0
POINT
  5
7357
330
61B8
100
AcDbEntity
  8
Defpoints
 62
     0
100
AcDbPoint
 10
8238.331865697805
 20
968.7586134150656
 30
0.0
  0
ENDBLK
  5
61C5
330
61B8
100
AcDbEntity
  8
0
100
AcDbBlockEnd
  0
BLOCK
  5
61D2
330
61C6
100
AcDbEntity
  8
0
100
AcDbBlockBegin
  2
*D29
 70
     1
 10
0.0
 20
0.0
 30
0.0
  3
*D29
  1

  0
LINE
  5
7358
330
61C6
100
AcDbEntity
  8
AM_5
100
AcDbLine
 10
8116.086668143376
 20
968.7586134150656
 30
0.0
 11
8055.086668143376
 21
968.7586134150656
 31
0.0
  0
LINE
  5
7359
330
61C6
100
AcDbEntity
  8
AM_5
100
AcDbLine
 10
8116.086668143376
 20
936.7586134150656
 30
0.0
 11
8055.086668143376
 21
936.7586134150656
 31
0.0
  0
LINE
  5
735A
330
61C6
100
AcDbEntity
  8
AM_5
100
AcDbLine
 10
8059.086668143377
 20
988.7586134150655
 30
0.0
 11
8059.086668143377
 21
1008.758613415065
 31
0.0
  0
LINE
  5
735B
330
61C6
100
AcDbEntity
  8
AM_5
100
AcDbLine
 10
8059.086668143377
 20
916.7586134150656
 30
0.0
 11
8059.086668143377
 21
896.7586134150655
 31
0.0
  0
LINE
  5
735C
330
61C6
100
AcDbEntity
  8
AM_5
100
AcDbLine
 10
8059.086668143377
 20
968.7586134150656
 30
0.0
 11
8059.086668143377
 21
936.7586134150656
 31
0.0
  0
SOLID
  5
735D
330
61C6
100
AcDbEntity
  8
AM_5
100
AcDbTrace
 10
8055.753334810043
 20
988.7586134150655
 30
0.0
 11
8062.420001476709
 21
988.7586134150655
 31
0.0
 12
8059.086668143377
 22
968.7586134150656
 32
0.0
 13
8059.086668143377
 23
968.7586134150656
 33
0.0
  0
SOLID
  5
735E
330
61C6
100
AcDbEntity
  8
AM_5
100
AcDbTrace
 10
8055.753334810043
 20
916.7586134150656
 30
0.0
 11
8062.420001476709
 21
916.7586134150656
 31
0.0
 12
8059.086668143377
 22
936.7586134150656
 32
0.0
 13
8059.086668143377
 23
936.7586134150656
 33
0.0
  0
MTEXT
  5
735F
330
61C6
100
AcDbEntity
  8
AM_5
100
AcDbMText
 10
8043.086668143377
 20
952.758613415067
 30
0.0
 40
20.0
 41
0.0
 71
     5
 72
     1
  1
\A2;16
 11
0.0000000000000001
 21
1.0
 31
0.0
 73
     1
 44
1.0
1001
ACAD
1000
MTEXTBEGIN
1070
    73
1070
     1
1070
    44
1040
1.0
1070
    74
1070
     0
1000
MTEXTEND
  0
POINT
  5
7360
330
61C6
100
AcDbEntity
  8
Defpoints
 62
     0
100
AcDbPoint
 10
8119.086668143376
 20
968.7586134150656
 30
0.0
  0
POINT
  5
7361
330
61C6
100
AcDbEntity
  8
Defpoints
 62
     0
100
AcDbPoint
 10
8119.086668143376
 20
936.7586134150656
 30
0.0
  0
POINT
  5
7362
330
61C6
100
AcDbEntity
  8
Defpoints
 62
     0
100
AcDbPoint
 10
8059.086668143377
 20
936.7586134150656
 30
0.0
  0
ENDBLK
  5
61D3
330
61C6
100
AcDbEntity
  8
0
100
AcDbBlockEnd
  0
BLOCK
  5
62B8
330
62AE
100
AcDbEntity
  8
0
100
AcDbBlockBegin
  2
*D30
 70
     1
 10
0.0
 20
0.0
 30
0.0
  3
*D30
  1

  0
LINE
  5
7363
330
62AE
100
AcDbEntity
  8
AM_5
100
AcDbLine
 10
7448.309894504993
 20
935.5699709315191
 30
0.0
 11
7448.309894504993
 21
874.5699709315189
 31
0.0
  0
LINE
  5
7364
330
62AE
100
AcDbEntity
  8
AM_5
100
AcDbLine
 10
7528.309894504992
 20
935.5699709315191
 30
0.0
 11
7528.309894504992
 21
874.5699709315189
 31
0.0
  0
LINE
  5
7365
330
62AE
100
AcDbEntity
  8
AM_5
100
AcDbLine
 10
7468.309894504994
 20
878.569970931519
 30
0.0
 11
7508.309894504994
 21
878.569970931519
 31
0.0
  0
SOLID
  5
7366
330
62AE
100
AcDbEntity
  8
AM_5
100
AcDbTrace
 10
7468.309894504994
 20
881.9033042648523
 30
0.0
 11
7468.309894504994
 21
875.2366375981857
 31
0.0
 12
7448.309894504993
 22
878.569970931519
 32
0.0
 13
7448.309894504993
 23
878.569970931519
 33
0.0
  0
SOLID
  5
7367
330
62AE
100
AcDbEntity
  8
AM_5
100
AcDbTrace
 10
7508.309894504994
 20
881.9033042648523
 30
0.0
 11
7508.309894504994
 21
875.2366375981857
 31
0.0
 12
7528.309894504992
 22
878.569970931519
 32
0.0
 13
7528.309894504992
 23
878.569970931519
 33
0.0
  0
MTEXT
  5
7368
330
62AE
100
AcDbEntity
  8
AM_5
100
AcDbMText
 10
7488.309894504993
 20
894.569970931519
 30
0.0
 40
20.0
 41
0.0
 71
     5
 72
     1
  1
\A2;%%c40
 73
     1
 44
1.0
1001
ACAD
1000
MTEXTBEGIN
1070
    73
1070
     1
1070
    44
1040
1.0
1070
    74
1070
     0
1000
MTEXTEND
  0
POINT
  5
7369
330
62AE
100
AcDbEntity
  8
Defpoints
 62
     0
100
AcDbPoint
 10
7448.309894504993
 20
938.569970931519
 30
0.0
  0
POINT
  5
736A
330
62AE
100
AcDbEntity
  8
Defpoints
 62
     0
100
AcDbPoint
 10
7528.309894504992
 20
938.569970931519
 30
0.0
  0
POINT
  5
736B
330
62AE
100
AcDbEntity
  8
Defpoints
 62
     0
100
AcDbPoint
 10
7528.309894504992
 20
878.569970931519
 30
0.0
  0
ENDBLK
  5
62B9
330
62AE
100
AcDbEntity
  8
0
100
AcDbBlockEnd
  0
BLOCK
  5
62E9
330
62DD
100
AcDbEntity
  8
0
100
AcDbBlockBegin
  2
*D31
 70
     1
 10
0.0
 20
0.0
 30
0.0
  3
*D31
  1

  0
LINE
  5
736C
330
62DD
100
AcDbEntity
  8
AM_5
100
AcDbLine
 10
7415.309894504993
 20
938.569970931519
 30
0.0
 11
7294.309894504994
 21
938.569970931519
 31
0.0
  0
LINE
  5
736D
330
62DD
100
AcDbEntity
  8
AM_5
100
AcDbLine
 10
7343.924782043334
 20
988.569970931519
 30
0.0
 11
7294.309894504994
 21
988.569970931519
 31
0.0
  0
LINE
  5
736E
330
62DD
100
AcDbEntity
  8
AM_5
100
AcDbLine
 10
7298.309894504993
 20
918.5699709315191
 30
0.0
 11
7298.309894504993
 21
898.569970931519
 31
0.0
  0
LINE
  5
736F
330
62DD
100
AcDbEntity
  8
AM_5
100
AcDbLine
 10
7298.309894504993
 20
1008.569970931519
 30
0.0
 11
7298.309894504993
 21
1028.569970931519
 31
0.0
  0
LINE
  5
7370
330
62DD
100
AcDbEntity
  8
AM_5
100
AcDbLine
 10
7298.309894504993
 20
938.569970931519
 30
0.0
 11
7298.309894504993
 21
988.569970931519
 31
0.0
  0
SOLID
  5
7371
330
62DD
100
AcDbEntity
  8
AM_5
100
AcDbTrace
 10
7294.97656117166
 20
918.5699709315191
 30
0.0
 11
7301.643227838326
 21
918.5699709315191
 31
0.0
 12
7298.309894504993
 22
938.569970931519
 32
0.0
 13
7298.309894504993
 23
938.569970931519
 33
0.0
  0
SOLID
  5
7372
330
62DD
100
AcDbEntity
  8
AM_5
100
AcDbTrace
 10
7294.97656117166
 20
1008.569970931519
 30
0.0
 11
7301.643227838326
 21
1008.569970931519
 31
0.0
 12
7298.309894504993
 22
988.569970931519
 32
0.0
 13
7298.309894504993
 23
988.569970931519
 33
0.0
  0
MTEXT
  5
7373
330
62DD
100
AcDbEntity
  8
AM_5
100
AcDbMText
 10
7282.307926001056
 20
963.5699709315202
 30
0.0
 40
20.0
 41
0.0
 71
     5
 72
     1
  1
\A2;25
 11
0.0000000000000001
 21
1.0
 31
0.0
 73
     1
 44
1.0
1001
ACAD
1000
MTEXTBEGIN
1070
    73
1070
     1
1070
    44
1040
1.0
1070
    74
1070
     0
1000
MTEXTEND
  0
POINT
  5
7374
330
62DD
100
AcDbEntity
  8
Defpoints
 62
     0
100
AcDbPoint
 10
7418.309894504993
 20
938.569970931519
 30
0.0
  0
POINT
  5
7375
330
62DD
100
AcDbEntity
  8
Defpoints
 62
     0
100
AcDbPoint
 10
7346.924782043334
 20
988.569970931519
 30
0.0
  0
POINT
  5
7376
330
62DD
100
AcDbEntity
  8
Defpoints
 62
     0
100
AcDbPoint
 10
7298.309894504993
 20
988.569970931519
 30
0.0
  0
ENDBLK
  5
62EA
330
62DD
100
AcDbEntity
  8
0
100
AcDbBlockEnd
  0
BLOCK
  5
6311
330
6307
100
AcDbEntity
  8
0
100
AcDbBlockBegin
  2
*D32
 70
     1
 10
0.0
 20
0.0
 30
0.0
  3
*D32
  1

  0
LINE
  5
7377
330
6307
100
AcDbEntity
  8
AM_5
100
AcDbLine
 10
7561.309894504994
 20
938.569970931519
 30
0.0
 11
7622.309894504994
 21
938.569970931519
 31
0.0
  0
LINE
  5
7378
330
6307
100
AcDbEntity
  8
AM_5
100
AcDbLine
 10
7531.309894504992
 20
1038.569970931519
 30
0.0
 11
7622.309894504994
 21
1038.569970931519
 31
0.0
  0
LINE
  5
7379
330
6307
100
AcDbEntity
  8
AM_5
100
AcDbLine
 10
7618.309894504993
 20
958.5699709315191
 30
0.0
 11
7618.309894504993
 21
1018.569970931519
 31
0.0
  0
SOLID
  5
737A
330
6307
100
AcDbEntity
  8
AM_5
100
AcDbTrace
 10
7614.97656117166
 20
958.5699709315191
 30
0.0
 11
7621.643227838326
 21
958.5699709315191
 31
0.0
 12
7618.309894504993
 22
938.569970931519
 32
0.0
 13
7618.309894504993
 23
938.569970931519
 33
0.0
  0
SOLID
  5
737B
330
6307
100
AcDbEntity
  8
AM_5
100
AcDbTrace
 10
7614.97656117166
 20
1018.569970931519
 30
0.0
 11
7621.643227838326
 21
1018.569970931519
 31
0.0
 12
7618.309894504993
 22
1038.569970931519
 32
0.0
 13
7618.309894504993
 23
1038.569970931519
 33
0.0
  0
MTEXT
  5
737C
330
6307
100
AcDbEntity
  8
AM_5
100
AcDbMText
 10
7602.309894504994
 20
988.5699709315202
 30
0.0
 40
20.0
 41
0.0
 71
     5
 72
     1
  1
\A2;50
 11
0.0000000000000001
 21
1.0
 31
0.0
 73
     1
 44
1.0
1001
ACAD
1000
MTEXTBEGIN
1070
    73
1070
     1
1070
    44
1040
1.0
1070
    74
1070
     0
1000
MTEXTEND
  0
POINT
  5
737D
330
6307
100
AcDbEntity
  8
Defpoints
 62
     0
100
AcDbPoint
 10
7558.309894504994
 20
938.569970931519
 30
0.0
  0
POINT
  5
737E
330
6307
100
AcDbEntity
  8
Defpoints
 62
     0
100
AcDbPoint
 10
7528.309894504992
 20
1038.569970931519
 30
0.0
  0
POINT
  5
737F
330
6307
100
AcDbEntity
  8
Defpoints
 62
     0
100
AcDbPoint
 10
7618.309894504993
 20
1038.569970931519
 30
0.0
  0
ENDBLK
  5
6312
330
6307
100
AcDbEntity
  8
0
100
AcDbBlockEnd
  0
BLOCK
  5
7A34
330
7A2F
100
AcDbEntity
  8
0
100
AcDbBlockBegin
  2
*S34
 70
     1
 10
0.0
 20
0.0
 30
0.0
  3
*S34
  1

  0
LINE
  5
7A30
330
7A2F
100
AcDbEntity
  8
AM_5
 62
     5
100
AcDbLine
 10
7719.614288424506
 20
-48.84366017348497
 30
0.0
 11
7644.575097211076
 21
-48.84366017348497
 31
0.0
  0
LINE
  5
7A31
330
7A2F
100
AcDbEntity
  8
AM_5
 62
     5
100
AcDbLine
 10
7644.575097211076
 20
-48.84366017348497
 30
0.0
 11
7571.020472442633
 21
1.867825021990249
 31
0.0
  0
TRACE
  5
7A32
330
7A2F
100
AcDbEntity
  8
AM_5
 62
     5
370
    35
100
AcDbTrace
 10
7572.58975288549
 20
4.143992515129282
 30
0.0
 11
7569.451191999776
 21
-0.408342471148794
 31
0.0
 12
7553.731263768232
 22
13.78769345301725
 32
0.0
 13
7553.731263768232
 23
13.78769345301725
 33
0.0
  0
MTEXT
  5
7A33
330
7A2F
100
AcDbEntity
  8
AM_5
 62
     2
100
AcDbMText
 10
7719.614288424506
 20
-53.48862517782141
 30
0.0
 40
21.0
 41
0.0
 71
     7
 72
     5
  1

  7
ACISOTS
 73
     1
 44
1.0
1001
ACAD
1000
MTEXTBEGIN
1070
    73
1070
     1
1070
    44
1040
1.0
1070
    74
1070
     0
1000
MTEXTEND
  0
ENDBLK
  5
7A35
330
7A2F
100
AcDbEntity
  8
0
100
AcDbBlockEnd
  0
ENDSEC
  0
SECTION
  2
ENTITIES
  0
LINE
  5
594E
330
1F
100
AcDbEntity
  8
圖層1輪廓線
100
AcDbLine
 10
8026.086668143376
 20
38.78769345301726
 30
0.0
 11
8026.086668143376
 21
188.7876934530172
 31
0.0
  0
LINE
  5
594F
330
1F
100
AcDbEntity
  8
圖層1輪廓線
100
AcDbLine
 10
8026.086668143376
 20
188.7876934530172
 30
0.0
 11
8349.086668143376
 21
188.7876934530172
 31
0.0
  0
LINE
  5
5950
330
1F
100
AcDbEntity
  8
圖層1輪廓線
100
AcDbLine
 10
8349.086668143376
 20
188.7876934530172
 30
0.0
 11
8349.086668143376
 21
-396.2123065469827
 31
0.0
  0
LINE
  5
5951
330
1F
100
AcDbEntity
  8
圖層1輪廓線
100
AcDbLine
 10
8349.086668143376
 20
-461.2123065469827
 30
0.0
 11
7994.086668143376
 21
-461.2123065469827
 31
0.0
  0
LINE
  5
5952
330
1F
100
AcDbEntity
  8
圖層1輪廓線
100
AcDbLine
 10
7994.086668143376
 20
-461.2123065469827
 30
0.0
 11
7994.086668143376
 21
-331.2123065469827
 31
0.0
  0
LINE
  5
5953
330
1F
100
AcDbEntity
  8
圖層1輪廓線
100
AcDbLine
 10
8349.086668143376
 20
-461.2123065469827
 30
0.0
 11
8574.086668143376
 21
-461.2123065469827
 31
0.0
  0
LINE
  5
5954
330
1F
100
AcDbEntity
  8
圖層1輪廓線
100
AcDbLine
 10
8574.086668143376
 20
-461.2123065469827
 30
0.0
 11
8574.086668143376
 21
-406.2123065469827
 31
0.0
  0
LINE
  5
5955
330
1F
100
AcDbEntity
  8
圖層1輪廓線
100
AcDbLine
 10
8409.086668143377
 20
188.7876934530172
 30
0.0
 11
8349.086668143376
 21
188.7876934530172
 31
0.0
  0
LINE
  5
5956
330
1F
100
AcDbEntity
  8
圖層1輪廓線
100
AcDbLine
 10
8324.086668143376
 20
-141.2123065469827
 30
0.0
 11
8324.086668143376
 21
-311.2123065469827
 31
0.0
  0
LINE
  5
5957
330
1F
100
AcDbEntity
  8
圖層1輪廓線
100
AcDbLine
 10
8354.086668143377
 20
-401.2123065469827
 30
0.0
 11
8401.086668143376
 21
-401.2123065469827
 31
0.0
  0
ARC
  5
5958
330
1F
100
AcDbEntity
  8
圖層1輪廓線
100
AcDbCircle
 10
8144.086668143376
 20
-141.2123065469827
 30
0.0
 40
180.0
100
AcDbArc
 50
0.0
 51
90.0
  0
ARC
  5
5959
330
1F
100
AcDbEntity
  8
圖層1輪廓線
100
AcDbCircle
 10
8409.086668143377
 20
83.78769345301725
 30
0.0
 40
105.0
100
AcDbArc
 50
6.961550178792782
 51
90.0
  0
LINE
  5
595A
330
1F
100
AcDbEntity
  8
圖層1輪廓線
100
AcDbLine
 10
8513.31257787511
 20
96.51403387721529
 30
0.0
 11
8525.245298633803
 21
-1.212306546982745
 31
0.0
  0
LINE
  5
595B
330
1F
100
AcDbEntity
  8
圖層1輪廓線
100
AcDbLine
 10
8409.086668143377
 20
163.7876934530172
 30
0.0
 11
8349.086668143376
 21
163.7876934530172
 31
0.0
  0
ARC
  5
595C
330
1F
100
AcDbEntity
  8
圖層1輪廓線
100
AcDbCircle
 10
8409.086668143377
 20
83.78769345301725
 30
0.0
 40
80.0
100
AcDbArc
 50
6.961550178792782
 51
90.0
  0
LINE
  5
595D
330
1F
100
AcDbEntity
  8
圖層1輪廓線
100
AcDbLine
 10
8488.496885081842
 20
93.48395282383467
 30
0.0
 11
8548.900992079175
 21
-401.2123065469827
 31
0.0
  0
LINE
  5
595E
330
1F
100
AcDbEntity
  8
圖層1輪廓線
100
AcDbLine
 10
8294.086668143377
 20
-331.2123065469827
 30
0.0
 11
8294.086668143377
 21
-461.2123065469827
 31
0.0
  0
LINE
  5
595F
330
1F
100
AcDbEntity
  8
圖層1輪廓線
100
AcDbLine
 10
8406.086668143377
 20
-406.2123065469827
 30
0.0
 11
8517.086668143376
 21
-406.2123065469827
 31
0.0
  0
LINE
  5
5960
330
1F
100
AcDbEntity
  8
圖層1輪廓線
100
AcDbLine
 10
8401.086668143376
 20
-401.2123065469827
 30
0.0
 11
8406.086668143377
 21
-406.2123065469827
 31
0.0
  0
LINE
  5
5961
330
1F
100
AcDbEntity
  8
圖層1輪廓線
100
AcDbLine
 10
8517.086668143376
 20
-406.2123065469827
 30
0.0
 11
8522.086668143376
 21
-401.2123065469827
 31
0.0
  0
LINE
  5
5962
330
1F
100
AcDbEntity
  8
圖層1輪廓線
100
AcDbLine
 10
8522.086668143376
 20
-401.2123065469827
 30
0.0
 11
8569.086668143375
 21
-401.2123065469827
 31
0.0
  0
LINE
  5
5963
330
1F
100
AcDbEntity
  8
圖層1輪廓線
100
AcDbLine
 10
8368.086668143376
 20
-401.2123065469827
 30
0.0
 11
8368.086668143376
 21
-461.2123065469827
 31
0.0
  0
LINE
  5
5964
330
1F
100
AcDbEntity
  8
圖層1輪廓線
100
AcDbLine
 10
8390.086668143377
 20
-401.2123065469827
 30
0.0
 11
8390.086668143377
 21
-461.2123065469827
 31
0.0
  0
LINE
  5
5965
330
1F
100
AcDbEntity
  8
圖層1輪廓線
100
AcDbLine
 10
8533.086668143376
 20
-401.2123065469827
 30
0.0
 11
8533.086668143376
 21
-461.2123065469827
 31
0.0
  0
LINE
  5
5966
330
1F
100
AcDbEntity
  8
圖層1輪廓線
100
AcDbLine
 10
8555.086668143376
 20
-401.2123065469827
 30
0.0
 11
8555.086668143376
 21
-461.2123065469827
 31
0.0
  0
ARC
  5
5967
330
1F
100
AcDbEntity
  8
圖層1輪廓線
100
AcDbCircle
 10
8354.086668143377
 20
-396.2123065469827
 30
0.0
 40
5.0
100
AcDbArc
 50
180.0
 51
270.0
  0
ARC
  5
5968
330
1F
100
AcDbEntity
  8
圖層1輪廓線
100
AcDbCircle
 10
8569.086668143375
 20
-406.2123065469827
 30
0.0
 40
5.0
100
AcDbArc
 50
0.0
 51
90.0
  0
LINE
  5
5969
330
1F
100
AcDbEntity
  8
圖層1輪廓線
100
AcDbLine
 10
8574.086668143376
 20
-401.2123065469827
 30
0.0
 11
8574.086668143376
 21
-406.2123065469827
 31
0.0
  0
LINE
  5
596A
330
1F
100
AcDbEntity
  8
圖層1輪廓線
100
AcDbLine
 10
8525.245298633803
 20
-1.212306546982745
 30
0.0
 11
8534.571504060238
 21
-1.212306546982745
 31
0.0
  0
LINE
  5
596B
330
1F
100
AcDbEntity
  8
圖層1輪廓線
100
AcDbLine
 10
8532.571504060239
 20
-61.21230654698274
 30
0.0
 11
8534.571504060238
 21
-61.21230654698274
 31
0.0
  0
LINE
  5
596C
330
1F
100
AcDbEntity
  8
圖層1輪廓線
100
AcDbLine
 10
8537.571504060238
 20
-58.21230654698275
 30
0.0
 11
8537.571504060238
 21
-4.212306546982745
 31
0.0
  0
LINE
  5
596D
330
1F
100
AcDbEntity
  8
圖層1輪廓線
100
AcDbLine
 10
8532.571504060239
 20
-61.21230654698274
 30
0.0
 11
8574.086668143376
 21
-401.2123065469827
 31
0.0
  0
ARC
  5
596E
330
1F
100
AcDbEntity
  8
圖層1輪廓線
100
AcDbCircle
 10
8534.571504060238
 20
-58.21230654698275
 30
0.0
 40
3.0
100
AcDbArc
 50
270.0
 51
0.0
  0
ARC
  5
596F
330
1F
100
AcDbEntity
  8
圖層1輪廓線
100
AcDbCircle
 10
8534.571504060238
 20
-4.212306546982745
 30
0.0
 40
3.0
100
AcDbArc
 50
0.0
 51
90.0
  0
LINE
  5
5970
330
1F
100
AcDbEntity
  8
圖層1輪廓線
100
AcDbLine
 10
8284.086668143377
 20
-311.2123065469827
 30
0.0
 11
8151.586668143377
 21
-311.2123065469827
 31
0.0
  0
LINE
  5
5971
330
1F
100
AcDbEntity
  8
圖層1輪廓線
100
AcDbLine
 10
8151.586668143377
 20
-311.2123065469827
 30
0.0
 11
8151.586668143377
 21
-326.2123065469828
 31
0.0
  0
LINE
  5
5972
330
1F
100
AcDbEntity
  8
圖層1輪廓線
100
AcDbLine
 10
8151.586668143377
 20
-326.2123065469828
 30
0.0
 11
8156.586668143376
 21
-326.2123065469828
 31
0.0
  0
LINE
  5
5973
330
1F
100
AcDbEntity
  8
圖層1輪廓線
100
AcDbLine
 10
8156.586668143376
 20
-326.2123065469828
 30
0.0
 11
8156.586668143376
 21
-342.2123065469827
 31
0.0
  0
LINE
  5
5974
330
1F
100
AcDbEntity
  8
圖層1輪廓線
100
AcDbLine
 10
8156.586668143376
 20
-342.2123065469827
 30
0.0
 11
8131.586668143375
 21
-342.2123065469827
 31
0.0
  0
LINE
  5
5975
330
1F
100
AcDbEntity
  8
圖層1輪廓線
100
AcDbLine
 10
8131.586668143375
 20
-342.2123065469827
 30
0.0
 11
8131.586668143375
 21
-326.2123065469828
 31
0.0
  0
LINE
  5
5976
330
1F
100
AcDbEntity
  8
圖層1輪廓線
100
AcDbLine
 10
8131.586668143375
 20
-326.2123065469828
 30
0.0
 11
8136.586668143376
 21
-326.2123065469828
 31
0.0
  0
LINE
  5
5977
330
1F
100
AcDbEntity
  8
圖層1輪廓線
100
AcDbLine
 10
8136.586668143376
 20
-311.2123065469827
 30
0.0
 11
8136.586668143376
 21
-326.2123065469828
 31
0.0
  0
LINE
  5
5978
330
1F
100
AcDbEntity
  8
圖層1輪廓線
100
AcDbLine
 10
7994.086668143376
 20
-331.2123065469827
 30
0.0
 11
8131.586668143375
 21
-331.2123065469827
 31
0.0
  0
LINE
  5
5979
330
1F
100
AcDbEntity
  8
圖層1輪廓線
100
AcDbLine
 10
8004.086668143377
 20
-311.2123065469827
 30
0.0
 11
7994.086668143376
 21
-331.2123065469827
 31
0.0
  0
LINE
  5
597A
330
1F
100
AcDbEntity
  8
圖層1輪廓線
100
AcDbLine
 10
8284.086668143377
 20
-311.2123065469827
 30
0.0
 11
8294.086668143377
 21
-331.2123065469827
 31
0.0
  0
ARC
  5
597B
330
1F
100
AcDbEntity
  8
圖層1輪廓線
100
AcDbCircle
 10
8294.18602138919
 20
-298.8613364157027
 30
0.0
 40
32.35112269307565
100
AcDbArc
 50
269.8240391634326
 51
337.5560958885591
  0
ARC
  5
597C
330
1F
100
AcDbEntity
  8
圖層1輪廓線
100
AcDbCircle
 10
8305.708829860332
 20
-277.4911728610109
 30
0.0
 40
54.94316801183902
100
AcDbArc
 50
257.8939202162866
 51
322.1391621898261
  0
LINE
  5
597D
330
1F
100
AcDbEntity
  8
圖層1輪廓線
100
AcDbLine
 10
8156.586668143376
 20
-331.2123065469827
 30
0.0
 11
8294.086668143377
 21
-331.2123065469827
 31
0.0
  0
LINE
  5
597E
330
1F
100
AcDbEntity
  8
圖層1輪廓線
100
AcDbLine
 10
8136.586668143376
 20
-311.2123065469827
 30
0.0
 11
8004.086668143377
 21
-311.2123065469827
 31
0.0
  0
LINE
  5
597F
330
1F
100
AcDbEntity
  8
圖層1輪廓線
100
AcDbLine
 10
7638.731263768234
 20
-461.2123065469827
 30
0.0
 11
7338.731263768234
 21
-461.2123065469827
 31
0.0
  0
LINE
  5
5980
330
1F
100
AcDbEntity
  8
圖層1輪廓線
100
AcDbLine
 10
7338.731263768234
 20
-461.2123065469827
 30
0.0
 11
7338.731263768234
 21
-331.2123065469827
 31
0.0
  0
LINE
  5
5981
330
1F
100
AcDbEntity
  8
圖層1輪廓線
100
AcDbLine
 10
7372.231263768234
 20
188.7876934530172
 30
0.0
 11
7605.231263768233
 21
188.7876934530172
 31
0.0
  0
LINE
  5
5982
330
1F
100
AcDbEntity
  8
圖層1輪廓線
100
AcDbLine
 10
7638.731263768234
 20
-331.2123065469827
 30
0.0
 11
7638.731263768234
 21
-461.2123065469827
 31
0.0
  0
LINE
  5
5983
330
1F
100
AcDbEntity
  8
圖層1輪廓線
100
AcDbLine
 10
7628.731263768234
 20
-311.2123065469827
 30
0.0
 11
7348.731263768233
 21
-311.2123065469827
 31
0.0
  0
LINE
  5
5984
330
1F
100
AcDbEntity
  8
圖層1輪廓線
100
AcDbLine
 10
7638.731263768234
 20
-331.2123065469827
 30
0.0
 11
7338.731263768234
 21
-331.2123065469827
 31
0.0
  0
LINE
  5
5985
330
1F
100
AcDbEntity
  8
圖層1輪廓線
100
AcDbLine
 10
7372.231263768234
 20
188.7876934530172
 30
0.0
 11
7372.231263768234
 21
-311.2123065469827
 31
0.0
  0
LINE
  5
5986
330
1F
100
AcDbEntity
  8
圖層1輪廓線
100
AcDbLine
 10
7605.231263768233
 20
188.7876934530172
 30
0.0
 11
7605.231263768233
 21
-311.2123065469827
 31
0.0
  0
LINE
  5
5987
330
1F
100
AcDbEntity
  8
圖層1輪廓線
100
AcDbLine
 10
7580.231263768233
 20
38.78769345301726
 30
0.0
 11
7580.231263768233
 21
-133.7123065469827
 31
0.0
  0
LINE
  5
5988
330
1F
100
AcDbEntity
  8
圖層1輪廓線
100
AcDbLine
 10
7397.231263768233
 20
38.78769345301726
 30
0.0
 11
7397.231263768233
 21
-133.7123065469827
 31
0.0
  0
LINE
  5
5989
330
1F
100
AcDbEntity
  8
圖層1輪廓線
100
AcDbLine
 10
7605.231263768233
 20
188.7876934530172
 30
0.0
 11
7605.231263768233
 21
-311.2123065469827
 31
0.0
  0
LINE
  5
598A
330
1F
100
AcDbEntity
  8
圖層1輪廓線
100
AcDbLine
 10
7605.231263768233
 20
188.7876934530172
 30
0.0
 11
7605.231263768233
 21
-311.2123065469827
 31
0.0
  0
ARC
  5
598B
330
1F
100
AcDbEntity
  8
圖層1輪廓線
100
AcDbCircle
 10
7404.731263768233
 20
-133.7123065469827
 30
0.0
 40
7.5
100
AcDbArc
 50
180.0
 51
270.0
  0
ARC
  5
598C
330
1F
100
AcDbEntity
  8
圖層1輪廓線
100
AcDbCircle
 10
7572.731263768233
 20
-133.7123065469827
 30
0.0
 40
7.5
100
AcDbArc
 50
270.0
 51
0.0
  0
LINE
  5
598D
330
1F
100
AcDbEntity
  8
圖層3虛線
 48
4.0
100
AcDbLine
 10
7605.231263768233
 20
-311.2123065469827
 30
0.0
 11
7605.231263768233
 21
-461.2123065469827
 31
0.0
  0
LINE
  5
598E
330
1F
100
AcDbEntity
  8
圖層3虛線
 48
4.0
100
AcDbLine
 10
7372.231263768234
 20
-311.2123065469827
 30
0.0
 11
7372.231263768234
 21
-461.2123065469827
 31
0.0
  0
LINE
  5
598F
330
1F
100
AcDbEntity
  8
圖層3虛線
 48
4.0
100
AcDbLine
 10
7605.231263768233
 20
-401.2123065469827
 30
0.0
 11
7518.731263768234
 21
-401.2123065469827
 31
0.0
  0
LINE
  5
5990
330
1F
100
AcDbEntity
  8
圖層2中心線
 48
0.5
100
AcDbLine
 10
7488.731263768234
 20
-475.464477394828
 30
0.0
 11
7488.731263768234
 21
-295.5710282568875
 31
0.0
  0
LINE
  5
5991
330
1F
100
AcDbEntity
  8
圖層3虛線
 48
4.0
100
AcDbLine
 10
7394.731263768233
 20
-461.2123065469827
 30
0.0
 11
7394.731263768233
 21
-401.2123065469827
 31
0.0
  0
LINE
  5
5992
330
1F
100
AcDbEntity
  8
圖層3虛線
 48
4.0
100
AcDbLine
 10
7582.731263768234
 20
-461.2123065469827
 30
0.0
 11
7582.731263768234
 21
-401.2123065469827
 31
0.0
  0
LINE
  5
5993
330
1F
100
AcDbEntity
  8
圖層2中心線
 48
0.3
100
AcDbLine
 10
7383.731263768233
 20
-479.6192093830468
 30
0.0
 11
7383.731263768233
 21
-378.0449944092852
 31
0.0
  0
LINE
  5
5994
330
1F
100
AcDbEntity
  8
圖層2中心線
 48
0.3
100
AcDbLine
 10
7593.731263768233
 20
-482.9314120732483
 30
0.0
 11
7593.731263768233
 21
-378.0449944092852
 31
0.0
  0
LINE
  5
5995
330
1F
100
AcDbEntity
  8
圖層3虛線
 48
4.0
100
AcDbLine
 10
7463.731263768234
 20
-396.2123065469827
 30
0.0
 11
7463.731263768234
 21
-361.2123065469827
 31
0.0
  0
LINE
  5
5996
330
1F
100
AcDbEntity
  8
圖層3虛線
 48
4.0
100
AcDbLine
 10
7513.731263768234
 20
-396.2123065469827
 30
0.0
 11
7513.731263768234
 21
-361.2123065469827
 31
0.0
  0
LINE
  5
5997
330
1F
100
AcDbEntity
  8
圖層3虛線
 48
4.0
100
AcDbLine
 10
7458.731263768233
 20
-401.2123065469827
 30
0.0
 11
7372.231263768234
 21
-401.2123065469827
 31
0.0
  0
ARC
  5
5998
330
1F
100
AcDbEntity
  8
圖層3虛線
 48
4.0
100
AcDbCircle
 10
7458.731263768233
 20
-396.2123065469827
 30
0.0
 40
5.0
100
AcDbArc
 50
270.0
 51
0.0
  0
ARC
  5
5999
330
1F
100
AcDbEntity
  8
圖層3虛線
 48
4.0
100
AcDbCircle
 10
7518.731263768234
 20
-396.2123065469827
 30
0.0
 40
5.0
100
AcDbArc
 50
180.0
 51
270.0
  0
LINE
  5
599A
330
1F
100
AcDbEntity
  8
圖層3虛線
 48
4.0
100
AcDbLine
 10
7458.731263768233
 20
-361.2123065469827
 30
0.0
 11
7458.731263768233
 21
-311.2123065469827
 31
0.0
  0
LINE
  5
599B
330
1F
100
AcDbEntity
  8
圖層3虛線
 48
4.0
100
AcDbLine
 10
7518.731263768234
 20
-361.2123065469827
 30
0.0
 11
7518.731263768234
 21
-311.2123065469827
 31
0.0
  0
LINE
  5
599C
330
1F
100
AcDbEntity
  8
圖層2中心線
100
AcDbLine
 10
8144.086668143376
 20
-282.8326125514509
 30
0.0
 11
8144.086668143376
 21
-485.8761497646169
 31
0.0
  0
LINE
  5
599D
330
1F
100
AcDbEntity
  8
圖層3虛線
 48
4.0
100
AcDbLine
 10
8114.086668143377
 20
-311.2123065469827
 30
0.0
 11
8114.086668143377
 21
-361.2123065469827
 31
0.0
  0
LINE
  5
599E
330
1F
100
AcDbEntity
  8
圖層3虛線
 48
4.0
100
AcDbLine
 10
8174.086668143376
 20
-311.2123065469827
 30
0.0
 11
8174.086668143376
 21
-361.2123065469827
 31
0.0
  0
LINE
  5
599F
330
1F
100
AcDbEntity
  8
圖層2中心線
100
AcDbLine
 10
8379.086668143377
 20
-485.8761497646169
 30
0.0
 11
8379.086668143377
 21
-373.3542828204095
 31
0.0
  0
LINE
  5
59A0
330
1F
100
AcDbEntity
  8
圖層2中心線
100
AcDbLine
 10
8544.086668143377
 20
-487.3646347642525
 30
0.0
 11
8544.086668143377
 21
-373.3542828204095
 31
0.0
  0
LINE
  5
59A1
330
1F
100
AcDbEntity
  8
圖層1輪廓線
100
AcDbLine
 10
7348.731263768233
 20
-311.2123065469827
 30
0.0
 11
7338.731263768234
 21
-331.2123065469827
 31
0.0
  0
LINE
  5
59A2
330
1F
100
AcDbEntity
  8
圖層1輪廓線
100
AcDbLine
 10
7628.731263768234
 20
-311.2123065469827
 30
0.0
 11
7638.731263768234
 21
-331.2123065469827
 31
0.0
  0
DIMENSION
  5
59A3
330
1F
100
AcDbEntity
  8
AM_5
100
AcDbDimension
  2
*D9
 10
7593.731263768233
 20
-521.2123065469827
 30
0.0
 11
7488.731263768234
 21
-505.2103380430457
 31
0.0
 70
    32
 71
     5
 42
210.0
  3
AM_ISO$0
100
AcDbAlignedDimension
 13
7383.731263768233
 23
-479.6192093830468
 33
0.0
 14
7593.731263768233
 24
-482.9314120732483
 34
0.0
100
AcDbRotatedDimension
  0
DIMENSION
  5
59A4
330
1F
100
AcDbEntity
  8
AM_5
100
AcDbDimension
  2
*D10
 10
7638.731263768234
 20
-571.2123065469827
 30
0.0
 11
7488.731263768234
 21
-555.2123065469827
 31
0.0
 70
    32
 71
     5
 42
300.0
  3
AM_ISO$0
100
AcDbAlignedDimension
 13
7338.731263768234
 23
-461.2123065469827
 33
0.0
 14
7638.731263768234
 24
-461.2123065469827
 34
0.0
100
AcDbRotatedDimension
  0
DIMENSION
  5
59A5
330
1F
100
AcDbEntity
  8
AM_5
100
AcDbDimension
  2
*D11
 10
8574.086668143376
 20
-571.2123065469827
 30
0.0
 11
8284.086668143377
 21
-555.2123065469827
 31
0.0
 70
    32
 71
     5
 42
580.0
  3
AM_ISO$0
100
AcDbAlignedDimension
 13
7994.086668143376
 23
-466.2123065469827
 33
0.0
 14
8574.086668143376
 24
-466.2123065469827
 34
0.0
100
AcDbRotatedDimension
  0
DIMENSION
  5
59AA
330
1F
100
AcDbEntity
  8
AM_5
100
AcDbDimension
  2
*D12
 10
8284.086668143377
 20
-252.7123065469827
 30
0.0
 11
8100.425847491989
 21
-252.7123065469827
 31
0.0
 70
   160
 71
     5
 42
280.0
  3
AM_ISO$0
100
AcDbAlignedDimension
 13
8004.086668143377
 23
-311.2123065469827
 33
0.0
 14
8284.086668143377
 24
-311.2123065469827
 34
0.0
100
AcDbRotatedDimension
  0
DIMENSION
  5
59AB
330
1F
100
AcDbEntity
  8
AM_5
100
AcDbDimension
  2
*D13
 10
7518.731263768234
 20
-275.630617450654
 30
0.0
 11
7489.202323656339
 21
-275.630617450654
 31
0.0
 70
   160
  1
%%C60
 71
     5
 42
60.0
  3
AM_ISO$0
100
AcDbAlignedDimension
 13
7458.731263768233
 23
-311.2123065469827
 33
0.0
 14
7518.731263768234
 24
-311.2123065469827
 34
0.0
100
AcDbRotatedDimension
  0
DIMENSION
  5
59AC
330
1F
100
AcDbEntity
  8
AM_5
100
AcDbDimension
  2
*D14
 10
7628.731263768234
 20
-225.630617450654
 30
0.0
 11
7486.087204723751
 21
-225.630617450654
 31
0.0
 70
   160
 71
     5
 42
280.0
  3
AM_ISO$0
100
AcDbAlignedDimension
 13
7348.731263768233
 23
-311.2123065469827
 33
0.0
 14
7628.731263768234
 24
-311.2123065469827
 34
0.0
100
AcDbRotatedDimension
  0
DIMENSION
  5
59AD
330
1F
100
AcDbEntity
  8
AM_5
100
AcDbDimension
  2
*D15
 10
7934.086668143376
 20
-311.2123065469827
 30
0.0
 11
7918.086668143377
 21
-386.2123065469815
 31
0.0
 70
    32
 71
     5
 42
150.0
  3
AM_ISO$0
100
AcDbAlignedDimension
 13
7994.086668143376
 23
-461.2123065469827
 33
0.0
 14
8004.086668143377
 24
-311.2123065469827
 34
0.0
 50
90.0
100
AcDbRotatedDimension
  0
DIMENSION
  5
59AE
330
1F
100
AcDbEntity
  8
AM_5
100
AcDbDimension
  2
*D16
 10
7934.086668143376
 20
188.7876934530173
 30
0.0
 11
7918.086668143377
 21
113.7876934530185
 31
0.0
 70
    32
 71
     5
 42
150.0
  3
AM_ISO$0
100
AcDbAlignedDimension
 13
8026.086668143376
 23
38.78769345301726
 33
0.0
 14
8026.086668143376
 24
188.7876934530172
 34
0.0
 50
90.0
100
AcDbRotatedDimension
  0
DIMENSION
  5
59AF
330
1F
100
AcDbEntity
  8
AM_5
100
AcDbDimension
  2
*D17
 10
8634.086668143376
 20
-61.21230654698277
 30
0.0
 11
8618.086668143376
 21
-31.21230654698138
 31
0.0
 70
    32
 71
     5
 42
60.0
  3
AM_ISO$0
100
AcDbAlignedDimension
 13
8529.90840134702
 23
-1.212306546982745
 33
0.0
 14
8529.90840134702
 24
-61.21230654698274
 34
0.0
 50
90.0
100
AcDbRotatedDimension
  0
DIMENSION
  5
59B0
330
1F
100
AcDbEntity
  8
AM_5
100
AcDbDimension
  2
*D18
 10
8634.086668143376
 20
-401.2123065469827
 30
0.0
 11
8618.086668143376
 21
-431.2123065469814
 31
0.0
 70
    32
 71
     5
 42
60.0
  3
AM_ISO$0
100
AcDbAlignedDimension
 13
8574.086668143376
 23
-461.2123065469827
 33
0.0
 14
8569.086668143375
 24
-401.2123065469827
 34
0.0
 50
90.0
100
AcDbRotatedDimension
  0
DIMENSION
  5
59B1
330
1F
100
AcDbEntity
  8
AM_5
100
AcDbDimension
  2
*D19
 10
8684.086668143377
 20
-461.2123065469827
 30
0.0
 11
8668.086668143377
 21
-231.2123065469814
 31
0.0
 70
    32
 71
     5
 42
459.9999999999999
  3
AM_ISO$0
100
AcDbAlignedDimension
 13
8529.90840134702
 23
-1.212306546982745
 33
0.0
 14
8579.086668143377
 24
-461.2123065469827
 34
0.0
 50
90.0
100
AcDbRotatedDimension
  0
DIMENSION
  5
59B2
330
1F
100
AcDbEntity
  8
AM_5
100
AcDbDimension
  2
*D20
 10
8390.086668143377
 20
-350.5530440445145
 30
0.0
 11
8447.941195702432
 21
-350.5530440445145
 31
0.0
 70
   160
 71
     5
 42
22.0
  3
AM_ISO$0
100
AcDbAlignedDimension
 13
8368.086668143376
 23
-401.2123065469827
 33
0.0
 14
8390.086668143377
 24
-401.2123065469827
 34
0.0
100
AcDbRotatedDimension
  0
DIMENSION
  5
59B3
330
1F
100
AcDbEntity
  8
AM_5
100
AcDbDimension
  2
*D21
 10
8555.086668143376
 20
-350.5530440445145
 30
0.0
 11
8616.753334810045
 21
-350.5530440445145
 31
0.0
 70
   160
 71
     5
 42
22.0
  3
AM_ISO$0
100
AcDbAlignedDimension
 13
8533.086668143376
 23
-401.2123065469827
 33
0.0
 14
8555.086668143376
 24
-401.2123065469827
 34
0.0
100
AcDbRotatedDimension
  0
LINE
  5
59B4
330
1F
100
AcDbEntity
  8
圖層1輪廓線
100
AcDbLine
 10
7372.231263768234
 20
38.78769345301817
 30
0.0
 11
7605.231263768233
 21
38.7876934530168
 31
0.0
  0
LINE
  5
59B5
330
1F
100
AcDbEntity
  8
圖層1輪廓線
100
AcDbLine
 10
7596.731263768234
 20
188.7876934530172
 30
0.0
 11
7380.731263768232
 21
188.7876934530172
 31
0.0
  0
LINE
  5
59B6
330
1F
100
AcDbEntity
  8
圖層1輪廓線
100
AcDbLine
 10
7380.731263768232
 20
188.7876934530172
 30
0.0
 11
7596.731263768234
 21
188.7876934530172
 31
0.0
  0
LINE
  5
59B7
330
1F
100
AcDbEntity
  8
圖層1輪廓線
100
AcDbLine
 10
8252.086668143375
 20
188.7876934530172
 30
0.0
 11
8036.086668143376
 21
188.7876934530172
 31
0.0
  0
LINE
  5
59B8
330
1F
100
AcDbEntity
  8
圖層1輪廓線
100
AcDbLine
 10
8036.086668143376
 20
188.7876934530172
 30
0.0
 11
8252.086668143375
 21
188.7876934530172
 31
0.0
  0
LINE
  5
59B9
330
1F
100
AcDbEntity
  8
圖層1輪廓線
100
AcDbLine
 10
7453.731263768233
 20
-11.21230654698274
 30
0.0
 11
7523.731263768233
 21
-11.21230654698274
 31
0.0
  0
LINE
  5
59BA
330
1F
100
AcDbEntity
  8
圖層2中心線
 48
0.5
100
AcDbLine
 10
7447.519721495371
 20
13.78769345301725
 30
0.0
 11
7560.041441577705
 21
13.78769345301725
 31
0.0
  0
LINE
  5
59BB
330
1F
100
AcDbEntity
  8
圖層1輪廓線
100
AcDbLine
 10
7453.731263768233
 20
38.78769345301726
 30
0.0
 11
7453.731263768233
 21
-11.21230654698274
 31
0.0
  0
LINE
  5
59BC
330
1F
100
AcDbEntity
  8
圖層1輪廓線
100
AcDbLine
 10
7523.731263768233
 20
-11.21230654698274
 30
0.0
 11
7523.731263768233
 21
38.78769345301726
 31
0.0
  0
LINE
  5
59BD
330
1F
100
AcDbEntity
  8
圖層1輪廓線
100
AcDbLine
 10
8179.086668143376
 20
35.35212928311307
 30
0.0
 11
8179.086668143376
 21
-11.21230654698274
 31
0.0
  0
LINE
  5
59BE
330
1F
100
AcDbEntity
  8
圖層2中心線
 48
0.2
100
AcDbLine
 10
8185.298210416238
 20
13.78769345301725
 30
0.0
 11
8103.296495133752
 21
13.78769345301725
 31
0.0
  0
LINE
  5
59BF
330
1F
100
AcDbEntity
  8
圖層1輪廓線
100
AcDbLine
 10
8179.086668143376
 20
-11.21230654698274
 30
0.0
 11
8109.086668143376
 21
-11.21230654698274
 31
0.0
  0
LINE
  5
59C0
330
1F
100
AcDbEntity
  8
圖層1輪廓線
100
AcDbLine
 10
8179.086668143376
 20
33.35212928311307
 30
0.0
 11
8179.086668143376
 21
-11.21230654698274
 31
0.0
  0
LINE
  5
59C1
330
1F
100
AcDbEntity
  8
圖層1輪廓線
100
AcDbLine
 10
8109.086668143376
 20
-11.21230654698274
 30
0.0
 11
8109.086668143376
 21
38.78769345301726
 31
0.0
  0
CIRCLE
  5
59C2
330
1F
100
AcDbEntity
  8
圖層1輪廓線
100
AcDbCircle
 10
7488.520579136615
 20
13.78769345301725
 30
0.0
 40
11.0
  0
LWPOLYLINE
  5
59C3
330
1F
100
AcDbEntity
  8
圖層1輪廓線
100
AcDbPolyline
 90
        6
 70
     1
 43
0.0
 10
7477.520579136615
 20
7.436840491931434
 10
7488.520579136615
 20
1.085987530845613
 10
7499.520579136616
 20
7.436840491931434
 10
7499.520579136616
 20
20.13854641410308
 10
7488.520579136615
 20
26.48939937518913
 10
7477.520579136615
 20
20.1385464141033
  0
LINE
  5
59C4
330
1F
100
AcDbEntity
  8
圖層1輪廓線
100
AcDbLine
 10
7553.731263768233
 20
4.261414011388524
 30
0.0
 11
7553.731263768233
 21
23.31397289464621
 31
0.0
  0
LINE
  5
59C5
330
1F
100
AcDbEntity
  8
圖層1輪廓線
100
AcDbLine
 10
7523.731263768233
 20
4.261414011388524
 30
0.0
 11
7523.731263768233
 21
23.31397289464621
 31
0.0
  0
LINE
  5
59C6
330
1F
100
AcDbEntity
  8
圖層1輪廓線
100
AcDbLine
 10
7543.731263768234
 20
1.085987530845613
 30
0.0
 11
7543.731263768234
 21
26.48939937518913
 31
0.0
  0
LINE
  5
59C7
330
1F
100
AcDbEntity
  8
圖層1輪廓線
100
AcDbLine
 10
7533.731263768233
 20
4.261414011388524
 30
0.0
 11
7533.731263768233
 21
23.31397289464621
 31
0.0
  0
LINE
  5
59C8
330
1F
100
AcDbEntity
  8
圖層1輪廓線
100
AcDbLine
 10
7551.731263768234
 20
1.085987530845613
 30
0.0
 11
7543.731263768234
 21
1.085987530845613
 31
0.0
  0
LINE
  5
59C9
330
1F
100
AcDbEntity
  8
圖層1輪廓線
100
AcDbLine
 10
7551.731263768234
 20
26.48939937518913
 30
0.0
 11
7543.731263768234
 21
26.48939937518913
 31
0.0
  0
LINE
  5
59CA
330
1F
100
AcDbEntity
  8
圖層1輪廓線
100
AcDbLine
 10
7531.731263768233
 20
26.48939937518913
 30
0.0
 11
7525.731263768233
 21
26.48939937518913
 31
0.0
  0
LINE
  5
59CB
330
1F
100
AcDbEntity
  8
圖層1輪廓線
100
AcDbLine
 10
7531.731263768233
 20
1.085987530845613
 30
0.0
 11
7525.731263768233
 21
1.085987530845613
 31
0.0
  0
LINE
  5
59CC
330
1F
100
AcDbEntity
  8
圖層1輪廓線
100
AcDbLine
 10
7543.731263768234
 20
7.787693453017254
 30
0.0
 11
7533.731263768233
 21
7.787693453017254
 31
0.0
  0
LINE
  5
59CD
330
1F
100
AcDbEntity
  8
圖層1輪廓線
100
AcDbLine
 10
7543.731263768234
 20
19.78769345301725
 30
0.0
 11
7533.731263768233
 21
19.78769345301725
 31
0.0
  0
ARC
  5
59CE
330
1F
100
AcDbEntity
  8
圖層1輪廓線
100
AcDbCircle
 10
7550.2104304349
 20
4.261414011388524
 30
0.0
 40
3.520833333333359
100
AcDbArc
 50
295.5915449920792
 51
64.40845500792076
  0
ARC
  5
59CF
330
1F
100
AcDbEntity
  8
圖層1輪廓線
100
AcDbCircle
 10
7542.6479304349
 20
13.78769345301725
 30
0.0
 40
11.0833333333333
100
AcDbArc
 50
325.0396595945076
 51
34.96034040549238
  0
ARC
  5
59D0
330
1F
100
AcDbEntity
  8
圖層1輪廓線
100
AcDbCircle
 10
7551.731263768234
 20
20.1385464141033
 30
0.0
 40
0.0000000000000804
100
AcDbArc
 50
24.92068081106263
 51
315.0000000000046
  0
ARC
  5
59D1
330
1F
100
AcDbEntity
  8
圖層1輪廓線
100
AcDbCircle
 10
7550.2104304349
 20
23.31397289464621
 30
0.0
 40
3.520833333333385
100
AcDbArc
 50
295.5915449920792
 51
64.40845500792076
  0
ARC
  5
59D2
330
1F
100
AcDbEntity
  8
圖層1輪廓線
100
AcDbCircle
 10
7530.2104304349
 20
4.261414011388524
 30
0.0
 40
3.520833333333384
100
AcDbArc
 50
295.5915449920792
 51
64.40845500792076
  0
ARC
  5
59D3
330
1F
100
AcDbEntity
  8
圖層1輪廓線
100
AcDbCircle
 10
7522.647930434899
 20
13.78769345301725
 30
0.0
 40
11.0833333333333
100
AcDbArc
 50
325.0396595945076
 51
34.96034040549238
  0
ARC
  5
59D4
330
1F
100
AcDbEntity
  8
圖層1輪廓線
100
AcDbCircle
 10
7530.2104304349
 20
23.31397289464621
 30
0.0
 40
3.520833333333296
100
AcDbArc
 50
295.5915449920792
 51
64.40845500792076
  0
ARC
  5
59D5
330
1F
100
AcDbEntity
  8
圖層1輪廓線
100
AcDbCircle
 10
7527.252097101565
 20
4.261414011388524
 30
0.0
 40
3.520833333333384
100
AcDbArc
 50
115.5915449920792
 51
244.4084550079208
  0
ARC
  5
59D6
330
1F
100
AcDbEntity
  8
圖層1輪廓線
100
AcDbCircle
 10
7534.814597101565
 20
13.78769345301725
 30
0.0
 40
11.0833333333333
100
AcDbArc
 50
145.0396595945076
 51
214.9603404054924
  0
ARC
  5
59D7
330
1F
100
AcDbEntity
  8
圖層1輪廓線
100
AcDbCircle
 10
7527.252097101565
 20
23.31397289464621
 30
0.0
 40
3.520833333333296
100
AcDbArc
 50
115.5915449920792
 51
244.4084550079208
  0
LINE
  5
59D8
330
1F
100
AcDbEntity
  8
圖層1輪廓線
100
AcDbLine
 10
7531.731263768233
 20
7.436840491931434
 30
0.0
 11
7525.731263768233
 21
7.436840491931434
 31
0.0
  0
LINE
  5
59D9
330
1F
100
AcDbEntity
  8
圖層1輪廓線
100
AcDbLine
 10
7531.731263768233
 20
20.1385464141033
 30
0.0
 11
7525.731263768233
 21
20.1385464141033
 31
0.0
  0
LINE
  5
59DA
330
1F
100
AcDbEntity
  8
圖層1輪廓線
100
AcDbLine
 10
7525.731263768233
 20
20.1385464141033
 30
0.0
 11
7531.731263768233
 21
20.1385464141033
 31
0.0
  0
LINE
  5
59DB
330
1F
100
AcDbEntity
  8
圖層1輪廓線
100
AcDbLine
 10
7551.731263768234
 20
20.13854641410308
 30
0.0
 11
7543.731263768234
 21
20.13854641410308
 31
0.0
  0
LINE
  5
59DC
330
1F
100
AcDbEntity
  8
圖層1輪廓線
100
AcDbLine
 10
7551.731263768234
 20
7.436840491931434
 30
0.0
 11
7543.731263768234
 21
7.436840491931434
 31
0.0
  0
LINE
  5
59DD
330
1F
100
AcDbEntity
  8
圖層1輪廓線
100
AcDbLine
 10
7543.731263768234
 20
20.13854641410308
 30
0.0
 11
7551.731263768234
 21
20.13854641410308
 31
0.0
  0
LWPOLYLINE
  5
59DE
330
1F
100
AcDbEntity
  8
圖層1輪廓線
100
AcDbPolyline
 90
        6
 70
     1
 43
0.0
 10
8133.297352774997
 20
7.436840491931434
 10
8144.297352774996
 20
1.085987530845613
 10
8155.297352774997
 20
7.436840491931434
 10
8155.297352774997
 20
20.13854641410308
 10
8144.297352774996
 20
26.48939937518913
 10
8133.297352774997
 20
20.1385464141033
  0
CIRCLE
  5
59DF
330
1F
100
AcDbEntity
  8
圖層1輪廓線
100
AcDbCircle
 10
8144.297352774996
 20
13.78769345301725
 30
0.0
 40
11.0
  0
LINE
  5
59E0
330
1F
100
AcDbEntity
  8
圖層1輪廓線
100
AcDbLine
 10
8079.086668143377
 20
23.31397289464621
 30
0.0
 11
8079.086668143377
 21
4.261414011388524
 31
0.0
  0
LINE
  5
59E1
330
1F
100
AcDbEntity
  8
圖層1輪廓線
100
AcDbLine
 10
8099.086668143376
 20
23.31397289464621
 30
0.0
 11
8099.086668143376
 21
4.261414011388524
 31
0.0
  0
LINE
  5
59E2
330
1F
100
AcDbEntity
  8
圖層1輪廓線
100
AcDbLine
 10
8109.086668143376
 20
23.31397289464621
 30
0.0
 11
8109.086668143376
 21
4.261414011388524
 31
0.0
  0
ARC
  5
59E3
330
1F
100
AcDbEntity
  8
圖層1輪廓線
100
AcDbCircle
 10
8105.565834810043
 20
4.261414011388524
 30
0.0
 40
3.520833333333296
100
AcDbArc
 50
295.5915449920792
 51
64.40845500792076
  0
ARC
  5
59E4
330
1F
100
AcDbEntity
  8
圖層1輪廓線
100
AcDbCircle
 10
8102.607501476709
 20
4.261414011388524
 30
0.0
 40
3.520833333333296
100
AcDbArc
 50
115.5915449920792
 51
244.4084550079208
  0
ARC
  5
59E5
330
1F
100
AcDbEntity
  8
圖層1輪廓線
100
AcDbCircle
 10
8082.60750147671
 20
4.261414011388524
 30
0.0
 40
3.520833333333385
100
AcDbArc
 50
115.5915449920792
 51
244.4084550079208
  0
LINE
  5
59E6
330
1F
100
AcDbEntity
  8
圖層1輪廓線
100
AcDbLine
 10
8089.086668143377
 20
26.48939937518913
 30
0.0
 11
8089.086668143377
 21
1.085987530845613
 31
0.0
  0
LINE
  5
59E7
330
1F
100
AcDbEntity
  8
圖層1輪廓線
100
AcDbLine
 10
8081.086668143376
 20
1.085987530845613
 30
0.0
 11
8089.086668143377
 21
1.085987530845613
 31
0.0
  0
LINE
  5
59E8
330
1F
100
AcDbEntity
  8
圖層1輪廓線
100
AcDbLine
 10
8101.086668143377
 20
1.085987530845613
 30
0.0
 11
8107.086668143377
 21
1.085987530845613
 31
0.0
  0
LINE
  5
59E9
330
1F
100
AcDbEntity
  8
圖層1輪廓線
100
AcDbLine
 10
8089.086668143377
 20
7.787693453017254
 30
0.0
 11
8099.086668143376
 21
7.787693453017254
 31
0.0
  0
LINE
  5
59EA
330
1F
100
AcDbEntity
  8
圖層1輪廓線
100
AcDbLine
 10
8089.086668143377
 20
19.78769345301725
 30
0.0
 11
8099.086668143376
 21
19.78769345301725
 31
0.0
  0
LINE
  5
59EB
330
1F
100
AcDbEntity
  8
圖層1輪廓線
100
AcDbLine
 10
8089.086668143377
 20
7.436840491931434
 30
0.0
 11
8081.086668143376
 21
7.436840491931434
 31
0.0
  0
LINE
  5
59EC
330
1F
100
AcDbEntity
  8
圖層1輪廓線
100
AcDbLine
 10
8081.086668143376
 20
20.13854641410308
 30
0.0
 11
8089.086668143377
 21
20.13854641410308
 31
0.0
  0
LINE
  5
59ED
330
1F
100
AcDbEntity
  8
圖層1輪廓線
100
AcDbLine
 10
8081.086668143376
 20
7.436840491931434
 30
0.0
 11
8089.086668143377
 21
7.436840491931434
 31
0.0
  0
ARC
  5
59EE
330
1F
100
AcDbEntity
  8
圖層1輪廓線
100
AcDbCircle
 10
8081.086668143376
 20
7.436840491931434
 30
0.0
 40
0.0000000000000804
100
AcDbArc
 50
204.9206808110626
 51
135.0000000000046
  0
ARC
  5
59EF
330
1F
100
AcDbEntity
  8
圖層1輪廓線
100
AcDbCircle
 10
8090.17000147671
 20
13.78769345301725
 30
0.0
 40
11.0833333333333
100
AcDbArc
 50
145.0396595945076
 51
214.9603404054924
  0
ARC
  5
59F0
330
1F
100
AcDbEntity
  8
圖層1輪廓線
100
AcDbCircle
 10
8082.60750147671
 20
23.31397289464621
 30
0.0
 40
3.520833333333359
100
AcDbArc
 50
115.5915449920792
 51
244.4084550079208
  0
LINE
  5
59F1
330
1F
100
AcDbEntity
  8
圖層1輪廓線
100
AcDbLine
 10
8107.086668143377
 20
7.436840491931434
 30
0.0
 11
8101.086668143377
 21
7.436840491931434
 31
0.0
  0
LINE
  5
59F2
330
1F
100
AcDbEntity
  8
圖層1輪廓線
100
AcDbLine
 10
8101.086668143377
 20
7.436840491931434
 30
0.0
 11
8107.086668143377
 21
7.436840491931434
 31
0.0
  0
LINE
  5
59F3
330
1F
100
AcDbEntity
  8
圖層1輪廓線
100
AcDbLine
 10
8101.086668143377
 20
20.13854641410308
 30
0.0
 11
8107.086668143377
 21
20.13854641410308
 31
0.0
  0
ARC
  5
59F4
330
1F
100
AcDbEntity
  8
圖層1輪廓線
100
AcDbCircle
 10
8098.003334810044
 20
13.78769345301725
 30
0.0
 40
11.0833333333333
100
AcDbArc
 50
325.0396595945076
 51
34.96034040549238
  0
ARC
  5
59F5
330
1F
100
AcDbEntity
  8
圖層1輪廓線
100
AcDbCircle
 10
8105.565834810043
 20
23.31397289464621
 30
0.0
 40
3.520833333333384
100
AcDbArc
 50
295.5915449920792
 51
64.40845500792076
  0
ARC
  5
59F6
330
1F
100
AcDbEntity
  8
圖層1輪廓線
100
AcDbCircle
 10
8110.17000147671
 20
13.78769345301725
 30
0.0
 40
11.0833333333333
100
AcDbArc
 50
145.0396595945076
 51
214.9603404054924
  0
ARC
  5
59F7
330
1F
100
AcDbEntity
  8
圖層1輪廓線
100
AcDbCircle
 10
8102.607501476709
 20
23.31397289464621
 30
0.0
 40
3.520833333333384
100
AcDbArc
 50
115.5915449920792
 51
244.4084550079208
  0
LINE
  5
59F8
330
1F
100
AcDbEntity
  8
圖層1輪廓線
100
AcDbLine
 10
7543.731263768234
 20
17.78769345301725
 30
0.0
 11
7533.731263768233
 21
17.78769345301725
 31
0.0
  0
LINE
  5
59F9
330
1F
100
AcDbEntity
  8
圖層1輪廓線
100
AcDbLine
 10
7543.731263768234
 20
9.787693453017254
 30
0.0
 11
7533.731263768233
 21
9.787693453017254
 31
0.0
  0
LINE
  5
59FA
330
1F
100
AcDbEntity
  8
圖層1輪廓線
100
AcDbLine
 10
8089.086668143377
 20
17.78769345301725
 30
0.0
 11
8099.086668143376
 21
17.78769345301725
 31
0.0
  0
LINE
  5
59FB
330
1F
100
AcDbEntity
  8
圖層1輪廓線
100
AcDbLine
 10
8089.086668143377
 20
9.787693453017254
 30
0.0
 11
8099.086668143376
 21
9.787693453017254
 31
0.0
  0
LINE
  5
59FC
330
1F
100
AcDbEntity
  8
圖層3虛線
 48
4.0
100
AcDbLine
 10
7458.731263768233
 20
-361.2123065469827
 30
0.0
 11
7518.731263768234
 21
-361.2123065469827
 31
0.0
  0
LINE
  5
59FD
330
1F
100
AcDbEntity
  8
圖層1輪廓線
100
AcDbLine
 10
8261.586668143376
 20
196.7876934530172
 30
0.0
 11
8261.586668143376
 21
188.7876934530172
 31
0.0
  0
LINE
  5
59FE
330
1F
100
AcDbEntity
  8
圖層1輪廓線
100
AcDbLine
 10
8326.586668143376
 20
196.7876934530172
 30
0.0
 11
8326.586668143376
 21
188.7876934530172
 31
0.0
  0
LINE
  5
59FF
330
1F
100
AcDbEntity
  8
圖層1輪廓線
100
AcDbLine
 10
8261.586668143376
 20
196.7876934530172
 30
0.0
 11
8326.586668143376
 21
196.7876934530172
 31
0.0
  0
LINE
  5
5A00
330
1F
100
AcDbEntity
  8
圖層1輪廓線
100
AcDbLine
 10
8279.086668143376
 20
376.7876934530173
 30
0.0
 11
8279.086668143376
 21
196.7876934530172
 31
0.0
  0
LINE
  5
5A01
330
1F
100
AcDbEntity
  8
圖層1輪廓線
100
AcDbLine
 10
8309.086668143377
 20
376.7876934530173
 30
0.0
 11
8309.086668143377
 21
196.7876934530172
 31
0.0
  0
LINE
  5
5A02
330
1F
100
AcDbEntity
  8
圖層1輪廓線
100
AcDbLine
 10
8281.086668143377
 20
378.7876934530173
 30
0.0
 11
8307.086668143377
 21
378.7876934530173
 31
0.0
  0
LINE
  5
5A03
330
1F
100
AcDbEntity
  8
圖層1輪廓線
100
AcDbLine
 10
8279.086668143376
 20
376.7876934530173
 30
0.0
 11
8288.086668143376
 21
376.7876934530173
 31
0.0
  0
LINE
  5
5A04
330
1F
100
AcDbEntity
  8
圖層1輪廓線
100
AcDbLine
 10
8288.086668143376
 20
366.7876934530172
 30
0.0
 11
8300.086668143377
 21
366.7876934530172
 31
0.0
  0
LINE
  5
5A05
330
1F
100
AcDbEntity
  8
圖層1輪廓線
100
AcDbLine
 10
8288.086668143376
 20
378.7876934530173
 30
0.0
 11
8288.086668143376
 21
366.7876934530172
 31
0.0
  0
LINE
  5
5A06
330
1F
100
AcDbEntity
  8
圖層1輪廓線
100
AcDbLine
 10
8300.086668143377
 20
378.7876934530173
 30
0.0
 11
8300.086668143377
 21
366.7876934530172
 31
0.0
  0
ARC
  5
5A07
330
1F
100
AcDbEntity
  8
圖層1輪廓線
100
AcDbCircle
 10
8294.086668143377
 20
374.7876934530173
 30
0.0
 40
10.0
100
AcDbArc
 50
233.1301023541378
 51
306.8698976458622
  0
LINE
  5
5A08
330
1F
100
AcDbEntity
  8
圖層1輪廓線
100
AcDbLine
 10
8281.086668143377
 20
378.7876934530173
 30
0.0
 11
8279.086668143376
 21
376.7876934530173
 31
0.0
  0
LINE
  5
5A09
330
1F
100
AcDbEntity
  8
圖層1輪廓線
100
AcDbLine
 10
8307.086668143377
 20
378.7876934530173
 30
0.0
 11
8309.086668143377
 21
376.7876934530173
 31
0.0
  0
LINE
  5
5A0A
330
1F
100
AcDbEntity
  8
圖層1輪廓線
100
AcDbLine
 10
8300.086668143377
 20
376.7876934530173
 30
0.0
 11
8309.086668143377
 21
376.7876934530173
 31
0.0
  0
LINE
  5
5A0B
330
1F
100
AcDbEntity
  8
圖層1輪廓線
100
AcDbLine
 10
8300.086668143377
 20
378.7876934530173
 30
0.0
 11
8288.086668143376
 21
366.7876934530172
 31
0.0
  0
LINE
  5
5A0C
330
1F
100
AcDbEntity
  8
圖層1輪廓線
100
AcDbLine
 10
8288.086668143376
 20
378.7876934530173
 30
0.0
 11
8300.086668143377
 21
366.7876934530172
 31
0.0
  0
DIMENSION
  5
5A0D
330
1F
100
AcDbEntity
  8
AM_5
100
AcDbDimension
  2
*D22
 10
7934.086668143376
 20
-11.21230654698269
 30
0.0
 11
7918.086668143377
 21
13.78769345301857
 31
0.0
 70
    32
 71
     5
 42
49.99999999999999
  3
AM_ISO$0
100
AcDbAlignedDimension
 13
8026.086668143376
 23
38.78769345301726
 33
0.0
 14
8109.086668143376
 24
-11.21230654698274
 34
0.0
 50
90.0
100
AcDbRotatedDimension
  0
DIMENSION
  5
5A0E
330
1F
100
AcDbEntity
  8
AM_5
100
AcDbDimension
  2
*D23
 10
7934.086668143376
 20
-311.2123065469827
 30
0.0
 11
7918.086668143377
 21
-161.2123065469814
 31
0.0
 70
    32
 71
     5
 42
300.0
  3
AM_ISO$0
100
AcDbAlignedDimension
 13
8109.086668143376
 23
-11.21230654698274
 33
0.0
 14
7999.086668143376
 24
-311.2123065469827
 34
0.0
 50
90.0
100
AcDbRotatedDimension
  0
LINE
  5
5A0F
330
1F
100
AcDbEntity
  8
圖層1輪廓線
100
AcDbLine
 10
8081.086668143376
 20
26.48939937518913
 30
0.0
 11
8089.086668143377
 21
26.48939937518913
 31
0.0
  0
LINE
  5
5A10
330
1F
100
AcDbEntity
  8
圖層1輪廓線
100
AcDbLine
 10
8101.086668143377
 20
26.48939937518913
 30
0.0
 11
8107.086668143377
 21
26.48939937518913
 31
0.0
  0
LINE
  5
5A11
330
1F
100
AcDbEntity
  8
圖層2中心線
 48
0.5
100
AcDbLine
 10
7488.731263768234
 20
-42.43677988375861
 30
0.0
 11
7488.731263768234
 21
673.2492165509588
 31
0.0
  0
LINE
  5
5A12
330
1F
100
AcDbEntity
  8
圖層3虛線
100
AcDbLine
 10
8124.086668143375
 20
-11.21230654698274
 30
0.0
 11
8124.086668143375
 21
38.78769345301726
 31
0.0
  0
LINE
  5
5A13
330
1F
100
AcDbEntity
  8
圖層3虛線
100
AcDbLine
 10
8164.086668143376
 20
38.78769345301726
 30
0.0
 11
8164.086668143376
 21
-11.21230654698274
 31
0.0
  0
LINE
  5
5A14
330
1F
100
AcDbEntity
  8
圖層3虛線
100
AcDbLine
 10
8124.086668143375
 20
19.78769345301725
 30
0.0
 11
8109.086668143376
 21
19.78769345301725
 31
0.0
  0
LINE
  5
5A15
330
1F
100
AcDbEntity
  8
圖層3虛線
100
AcDbLine
 10
8124.086668143375
 20
7.787693453017254
 30
0.0
 11
8109.086668143376
 21
7.787693453017254
 31
0.0
  0
LINE
  5
5A16
330
1F
100
AcDbEntity
  8
圖層3虛線
100
AcDbLine
 10
8124.086668143375
 20
17.78769345301725
 30
0.0
 11
8109.086668143376
 21
17.78769345301725
 31
0.0
  0
LINE
  5
5A17
330
1F
100
AcDbEntity
  8
圖層3虛線
100
AcDbLine
 10
8124.086668143375
 20
9.787693453017254
 30
0.0
 11
8109.086668143376
 21
9.787693453017254
 31
0.0
  0
LINE
  5
5A18
330
1F
100
AcDbEntity
  8
圖層3虛線
100
AcDbLine
 10
8124.086668143375
 20
38.78769345301726
 30
0.0
 11
8164.086668143376
 21
38.78769345301726
 31
0.0
  0
LINE
  5
5A19
330
1F
100
AcDbEntity
  8
圖層1輪廓線
100
AcDbLine
 10
8026.086668143376
 20
38.78769345301726
 30
0.0
 11
8144.086668143376
 21
38.78769345301726
 31
0.0
  0
DIMENSION
  5
5A1D
330
1F
100
AcDbEntity
  8
AM_5
100
AcDbDimension
  2
*D24
 10
7605.231263768233
 20
-176.0435311607948
 30
0.0
 11
7488.731263768234
 21
-160.0415626568578
 31
0.0
 70
    32
  1
235
 71
     5
 42
233.0
  3
AM_ISO$0
100
AcDbAlignedDimension
 13
7372.231263768234
 23
-133.1402035551041
 33
0.0
 14
7605.231263768233
 24
-133.1402035551041
 34
0.0
100
AcDbRotatedDimension
  0
LINE
  5
5A1E
330
1F
100
AcDbEntity
  8
圖層1輪廓線
100
AcDbLine
 10
8028.586668143375
 20
188.7876934530172
 30
0.0
 11
8259.586668143375
 21
188.7876934530172
 31
0.0
  0
LINE
  5
5A1F
330
1F
100
AcDbEntity
  8
圖層1輪廓線
100
AcDbLine
 10
8259.586668143375
 20
188.7876934530172
 30
0.0
 11
8028.586668143375
 21
188.7876934530172
 31
0.0
  0
LINE
  5
5A20
330
1F
100
AcDbEntity
  8
圖層1輪廓線
100
AcDbLine
 10
7373.231263768234
 20
188.7876934530172
 30
0.0
 11
7604.231263768234
 21
188.7876934530172
 31
0.0
  0
LINE
  5
5A21
330
1F
100
AcDbEntity
  8
圖層1輪廓線
100
AcDbLine
 10
7604.231263768234
 20
188.7876934530172
 30
0.0
 11
7373.231263768234
 21
188.7876934530172
 31
0.0
  0
LINE
  5
5A22
330
1F
100
AcDbEntity
  8
圖層1輪廓線
100
AcDbLine
 10
7488.731263768234
 20
423.7876934530172
 30
0.0
 11
7488.731263768234
 21
407.7876934530172
 31
0.0
  0
LINE
  5
5A23
330
1F
100
AcDbEntity
  8
圖層2中心線
100
AcDbLine
 10
7488.731263768234
 20
209.7876934530173
 30
0.0
 11
7488.731263768234
 21
225.7876934530173
 31
0.0
  0
LINE
  5
5A24
330
1F
100
AcDbEntity
  8
圖層2中心線
 48
0.5
100
AcDbLine
 10
8294.086668143377
 20
398.3593511520962
 30
0.0
 11
8294.086668143377
 21
171.9640813283927
 31
0.0
  0
LINE
  5
5A25
330
1F
100
AcDbEntity
  8
圖層2中心線
 48
0.5
100
AcDbLine
 10
8144.086668143376
 20
-26.31386671647715
 30
0.0
 11
8144.086668143376
 21
684.4586068394387
 31
0.0
  0
DIMENSION
  5
5A26
330
1F
100
AcDbEntity
  8
AM_5
100
AcDbDimension
  2
*D25
 10
8324.086668143376
 20
-191.7949138841509
 30
0.0
 11
8234.086668143376
 21
-175.7949138841509
 31
0.0
 70
    32
 71
     5
 42
180.0
  3
AM_ISO$0
100
AcDbAlignedDimension
 13
8144.086668143376
 23
-282.8326125514509
 33
0.0
 14
8324.086668143376
 24
-282.8326125514509
 34
0.0
100
AcDbRotatedDimension
  0
LINE
  5
5A29
330
1F
100
AcDbEntity
  8
圖層1輪廓線
100
AcDbLine
 10
8245.086667941377
 20
230.7876933670177
 30
0.0
 11
8245.086667941377
 21
400.7876930270172
 31
0.0
  0
LINE
  5
5A2A
330
1F
100
AcDbEntity
  8
圖層1輪廓線
100
AcDbLine
 10
8249.086667933378
 20
230.7876933670177
 30
0.0
 11
8249.086667933378
 21
400.7876930270172
 31
0.0
  0
LINE
  5
5A2B
330
1F
100
AcDbEntity
  8
圖層1輪廓線
100
AcDbLine
 10
8063.086668305379
 20
230.7876933670177
 30
0.0
 11
8063.086668305379
 21
400.7876930270172
 31
0.0
  0
LINE
  5
5A2C
330
1F
100
AcDbEntity
  8
圖層1輪廓線
100
AcDbLine
 10
8043.086668345377
 20
230.7876933670177
 30
0.0
 11
8043.086668345377
 21
400.7876930270172
 31
0.0
  0
LINE
  5
5A2D
330
1F
100
AcDbEntity
  8
圖層1輪廓線
100
AcDbLine
 10
8225.086667981377
 20
230.7876933670177
 30
0.0
 11
8225.086667981377
 21
400.7876930270172
 31
0.0
  0
LINE
  5
5A2E
330
1F
100
AcDbEntity
  8
圖層1輪廓線
100
AcDbLine
 10
8039.086668353377
 20
230.7876933670177
 30
0.0
 11
8039.086668353377
 21
400.7876930270172
 31
0.0
  0
LINE
  5
5A2F
330
1F
100
AcDbEntity
  8
圖層1輪廓線
100
AcDbLine
 10
8182.086668067377
 20
205.7876934170172
 30
0.0
 11
8257.086667917377
 21
205.7876934170172
 31
0.0
  0
LINE
  5
5A30
330
1F
100
AcDbEntity
  8
圖層1輪廓線
100
AcDbLine
 10
8031.086668369377
 20
230.7876933670177
 30
0.0
 11
8257.086667917377
 21
230.7876933670177
 31
0.0
  0
LINE
  5
5A31
330
1F
100
AcDbEntity
  8
圖層1輪廓線
100
AcDbLine
 10
8031.086668369377
 20
188.7876934530172
 30
0.0
 11
8031.086668369377
 21
230.7876933670177
 31
0.0
  0
LINE
  5
5A32
330
1F
100
AcDbEntity
  8
圖層1輪廓線
100
AcDbLine
 10
8031.086668369377
 20
205.7876934170172
 30
0.0
 11
8106.086668219377
 21
205.7876934170172
 31
0.0
  0
LINE
  5
5A33
330
1F
100
AcDbEntity
  8
圖層1輪廓線
100
AcDbLine
 10
8031.086668369377
 20
188.7876934530172
 30
0.0
 11
8257.086667917377
 21
188.7876934530172
 31
0.0
  0
LINE
  5
5A34
330
1F
100
AcDbEntity
  8
圖層1輪廓線
100
AcDbLine
 10
8094.086668243377
 20
188.7876934530172
 30
0.0
 11
8094.086668243377
 21
205.7876934170172
 31
0.0
  0
LINE
  5
5A35
330
1F
100
AcDbEntity
  8
圖層1輪廓線
100
AcDbLine
 10
8194.086668043377
 20
188.7876934530172
 30
0.0
 11
8194.086668043377
 21
205.7876934170172
 31
0.0
  0
LINE
  5
5A36
330
1F
100
AcDbEntity
  8
圖層1輪廓線
100
AcDbLine
 10
8257.086667917377
 20
188.7876934530172
 30
0.0
 11
8257.086667917377
 21
230.7876933670177
 31
0.0
  0
LINE
  5
5A37
330
1F
100
AcDbEntity
  8
圖層1輪廓線
100
AcDbLine
 10
8182.086668067377
 20
425.7876929770177
 30
0.0
 11
8257.086667917377
 21
425.7876929770177
 31
0.0
  0
LINE
  5
5A38
330
1F
100
AcDbEntity
  8
圖層1輪廓線
100
AcDbLine
 10
8217.766159920328
 20
429.2876929700173
 30
0.0
 11
8252.407176002426
 21
429.2876929700173
 31
0.0
  0
LINE
  5
5A39
330
1F
100
AcDbEntity
  8
圖層1輪廓線
100
AcDbLine
 10
8220.086667991379
 20
441.2876929460176
 30
0.0
 11
8250.086667931377
 21
441.2876929460176
 31
0.0
  0
ARC
  5
5A3A
330
1F
100
AcDbEntity
  8
圖層1輪廓線
100
AcDbCircle
 10
8235.086667961377
 20
412.6274389654945
 30
0.0
 40
28.660253980523
100
AcDbArc
 50
72.41204622603437
 51
107.5879537739656
  0
ARC
  5
5A3B
330
1F
100
AcDbEntity
  8
圖層1輪廓線
100
AcDbCircle
 10
8235.086667961377
 20
457.9479469505404
 30
0.0
 40
28.660253980523
100
AcDbArc
 50
252.4120462260344
 51
287.5879537739656
  0
LINE
  5
5A3C
330
1F
100
AcDbEntity
  8
圖層1輪廓線
100
AcDbLine
 10
8225.086667981377
 20
459.5876929094174
 30
0.0
 11
8245.086667941377
 21
459.5876929094174
 31
0.0
  0
LINE
  5
5A3D
330
1F
100
AcDbEntity
  8
圖層1輪廓線
100
AcDbLine
 10
8226.286667978977
 20
460.7876929070175
 30
0.0
 11
8243.886667943778
 21
460.7876929070175
 31
0.0
  0
LINE
  5
5A3E
330
1F
100
AcDbEntity
  8
圖層1輪廓線
100
AcDbLine
 10
8031.086668369377
 20
400.7876930270172
 30
0.0
 11
8257.086667917377
 21
400.7876930270172
 31
0.0
  0
LINE
  5
5A3F
330
1F
100
AcDbEntity
  8
圖層1輪廓線
100
AcDbLine
 10
8031.086668369377
 20
442.7876929410172
 30
0.0
 11
8031.086668369377
 21
400.7876930270172
 31
0.0
  0
LINE
  5
5A40
330
1F
100
AcDbEntity
  8
圖層1輪廓線
100
AcDbLine
 10
8031.086668369377
 20
425.7876929770177
 30
0.0
 11
8106.086668219377
 21
425.7876929770177
 31
0.0
  0
LINE
  5
5A41
330
1F
100
AcDbEntity
  8
圖層1輪廓線
100
AcDbLine
 10
8063.086668305379
 20
442.7876929410172
 30
0.0
 11
8225.086667981377
 21
442.7876929410172
 31
0.0
  0
LINE
  5
5A42
330
1F
100
AcDbEntity
  8
圖層1輪廓線
100
AcDbLine
 10
8043.836668343876
 20
460.3376929079177
 30
0.0
 11
8043.836668343876
 21
441.2876929460176
 31
0.0
  0
LINE
  5
5A43
330
1F
100
AcDbEntity
  8
圖層1輪廓線
100
AcDbLine
 10
8043.086668345377
 20
459.5876929094174
 30
0.0
 11
8043.086668345377
 21
441.2876929460176
 31
0.0
  0
LINE
  5
5A44
330
1F
100
AcDbEntity
  8
圖層1輪廓線
100
AcDbLine
 10
8063.086668305379
 20
459.5876929094174
 30
0.0
 11
8063.086668305379
 21
441.2876929460176
 31
0.0
  0
LINE
  5
5A45
330
1F
100
AcDbEntity
  8
圖層1輪廓線
100
AcDbLine
 10
8062.336668306878
 20
460.3376929079172
 30
0.0
 11
8062.336668306878
 21
441.2876929460176
 31
0.0
  0
LINE
  5
5A46
330
1F
100
AcDbEntity
  8
圖層1輪廓線
100
AcDbLine
 10
8061.746922345902
 20
439.9479469865414
 30
0.0
 11
8061.746922345902
 21
430.6274389294936
 31
0.0
  0
LINE
  5
5A47
330
1F
100
AcDbEntity
  8
圖層1輪廓線
100
AcDbLine
 10
8070.407176366426
 20
439.9479469865414
 30
0.0
 11
8070.407176366426
 21
430.6274389294936
 31
0.0
  0
LINE
  5
5A48
330
1F
100
AcDbEntity
  8
圖層1輪廓線
100
AcDbLine
 10
8035.76616028433
 20
439.9479469865414
 30
0.0
 11
8035.76616028433
 21
430.6274389294936
 31
0.0
  0
LINE
  5
5A49
330
1F
100
AcDbEntity
  8
圖層1輪廓線
100
AcDbLine
 10
8044.426414304853
 20
439.9479469865414
 30
0.0
 11
8044.426414304853
 21
430.6274389294936
 31
0.0
  0
LINE
  5
5A4A
330
1F
100
AcDbEntity
  8
圖層1輪廓線
100
AcDbLine
 10
8094.086668243377
 20
442.7876929410172
 30
0.0
 11
8094.086668243377
 21
425.7876929770177
 31
0.0
  0
LINE
  5
5A4B
330
1F
100
AcDbEntity
  8
圖層1輪廓線
100
AcDbLine
 10
8035.76616028433
 20
429.2876929700173
 30
0.0
 11
8070.407176366426
 21
429.2876929700173
 31
0.0
  0
ARC
  5
5A4C
330
1F
100
AcDbEntity
  8
圖層1輪廓線
100
AcDbCircle
 10
8053.086668325377
 20
457.9479469505408
 30
0.0
 40
28.660253980523
100
AcDbArc
 50
252.4120462260344
 51
287.5879537739656
  0
LINE
  5
5A4D
330
1F
100
AcDbEntity
  8
圖層1輪廓線
100
AcDbLine
 10
8035.76616028433
 20
429.2876929700173
 30
0.0
 11
8035.76616028433
 21
425.7876929770177
 31
0.0
  0
LINE
  5
5A4E
330
1F
100
AcDbEntity
  8
圖層1輪廓線
100
AcDbLine
 10
8038.086668355376
 20
429.2876929700173
 30
0.0
 11
8035.76616028433
 21
430.6274389294936
 31
0.0
  0
ARC
  5
5A4F
330
1F
100
AcDbEntity
  8
圖層1輪廓線
100
AcDbCircle
 10
8040.096287294591
 20
436.9551611999527
 30
0.0
 40
7.667468229934795
100
AcDbArc
 50
235.6157525319253
 51
304.3842474680746
  0
LINE
  5
5A50
330
1F
100
AcDbEntity
  8
圖層1輪廓線
100
AcDbLine
 10
8059.033969920536
 20
429.2876929700173
 30
0.0
 11
8060.868055970985
 21
425.7876929770177
 31
0.0
  0
LINE
  5
5A51
330
1F
100
AcDbEntity
  8
圖層1輪廓線
100
AcDbLine
 10
8057.281460010948
 20
429.2876929700173
 30
0.0
 11
8059.115546061397
 21
425.7876929770177
 31
0.0
  0
LINE
  5
5A52
330
1F
100
AcDbEntity
  8
圖層1輪廓線
100
AcDbLine
 10
8070.407176366426
 20
429.2876929700173
 30
0.0
 11
8070.407176366426
 21
425.7876929770177
 31
0.0
  0
LINE
  5
5A53
330
1F
100
AcDbEntity
  8
圖層1輪廓線
100
AcDbLine
 10
8068.086668295379
 20
429.2876929700173
 30
0.0
 11
8070.407176366426
 21
430.6274389294936
 31
0.0
  0
ARC
  5
5A54
330
1F
100
AcDbEntity
  8
圖層1輪廓線
100
AcDbCircle
 10
8066.077049356163
 20
436.9551611999527
 30
0.0
 40
7.667468229934795
100
AcDbArc
 50
235.6157525319253
 51
304.3842474680746
  0
ARC
  5
5A55
330
1F
100
AcDbEntity
  8
圖層1輪廓線
100
AcDbCircle
 10
8053.086668325377
 20
412.627438965495
 30
0.0
 40
28.660253980523
100
AcDbArc
 50
72.41204622603437
 51
107.5879537739656
  0
LINE
  5
5A56
330
1F
100
AcDbEntity
  8
圖層1輪廓線
100
AcDbLine
 10
8038.086668355376
 20
441.2876929460176
 30
0.0
 11
8068.086668295379
 21
441.2876929460176
 31
0.0
  0
LINE
  5
5A57
330
1F
100
AcDbEntity
  8
圖層1輪廓線
100
AcDbLine
 10
8031.086668369377
 20
442.7876929410172
 30
0.0
 11
8043.086668345377
 21
442.7876929410172
 31
0.0
  0
LINE
  5
5A58
330
1F
100
AcDbEntity
  8
圖層1輪廓線
100
AcDbLine
 10
8038.086668355376
 20
441.2876929460176
 30
0.0
 11
8035.76616028433
 21
439.9479469865414
 31
0.0
  0
ARC
  5
5A59
330
1F
100
AcDbEntity
  8
圖層1輪廓線
100
AcDbCircle
 10
8040.096287294591
 20
433.6202247160827
 30
0.0
 40
7.667468229934795
100
AcDbArc
 50
55.61575253192536
 51
124.3842474680746
  0
LINE
  5
5A5A
330
1F
100
AcDbEntity
  8
圖層1輪廓線
100
AcDbLine
 10
8068.086668295379
 20
441.2876929460176
 30
0.0
 11
8070.407176366426
 21
439.9479469865414
 31
0.0
  0
ARC
  5
5A5B
330
1F
100
AcDbEntity
  8
圖層1輪廓線
100
AcDbCircle
 10
8066.077049356163
 20
433.6202247160827
 30
0.0
 40
7.667468229934795
100
AcDbArc
 50
55.61575253192536
 51
124.3842474680746
  0
LINE
  5
5A5C
330
1F
100
AcDbEntity
  8
圖層1輪廓線
100
AcDbLine
 10
8044.286668342978
 20
460.7876929070175
 30
0.0
 11
8061.886668307778
 21
460.7876929070175
 31
0.0
  0
LINE
  5
5A5D
330
1F
100
AcDbEntity
  8
圖層1輪廓線
100
AcDbLine
 10
8043.086668345377
 20
459.5876929094174
 30
0.0
 11
8063.086668305379
 21
459.5876929094174
 31
0.0
  0
LINE
  5
5A5E
330
1F
100
AcDbEntity
  8
圖層1輪廓線
100
AcDbLine
 10
8044.286668342978
 20
460.7876929070175
 30
0.0
 11
8043.086668345377
 21
459.5876929094174
 31
0.0
  0
LINE
  5
5A5F
330
1F
100
AcDbEntity
  8
圖層1輪廓線
100
AcDbLine
 10
8061.886668307778
 20
460.7876929070175
 30
0.0
 11
8063.086668305379
 21
459.5876929094174
 31
0.0
  0
LINE
  5
5A60
330
1F
100
AcDbEntity
  8
圖層1輪廓線
100
AcDbLine
 10
8225.086667981377
 20
459.5876929094174
 30
0.0
 11
8225.086667981377
 21
441.2876929460176
 31
0.0
  0
LINE
  5
5A61
330
1F
100
AcDbEntity
  8
圖層1輪廓線
100
AcDbLine
 10
8225.836667979878
 20
460.3376929079177
 30
0.0
 11
8225.836667979878
 21
441.2876929460176
 31
0.0
  0
LINE
  5
5A62
330
1F
100
AcDbEntity
  8
圖層1輪廓線
100
AcDbLine
 10
8106.586668218376
 20
477.7876928710175
 30
0.0
 11
8106.586668218376
 21
442.7876929410172
 31
0.0
  0
LINE
  5
5A63
330
1F
100
AcDbEntity
  8
圖層1輪廓線
100
AcDbLine
 10
8181.586668068378
 20
477.7876928710175
 30
0.0
 11
8181.586668068378
 21
442.7876929410172
 31
0.0
  0
LINE
  5
5A64
330
1F
100
AcDbEntity
  8
圖層1輪廓線
100
AcDbLine
 10
8217.766159920328
 20
439.9479469865414
 30
0.0
 11
8217.766159920328
 21
430.6274389294936
 31
0.0
  0
LINE
  5
5A65
330
1F
100
AcDbEntity
  8
圖層1輪廓線
100
AcDbLine
 10
8226.426413940854
 20
439.9479469865414
 30
0.0
 11
8226.426413940854
 21
430.6274389294936
 31
0.0
  0
LINE
  5
5A66
330
1F
100
AcDbEntity
  8
圖層1輪廓線
100
AcDbLine
 10
8194.086668043377
 20
442.7876929410172
 30
0.0
 11
8194.086668043377
 21
425.7876929770177
 31
0.0
  0
ARC
  5
5A67
330
1F
100
AcDbEntity
  8
圖層1輪廓線
100
AcDbCircle
 10
8222.096286930591
 20
436.9551611999522
 30
0.0
 40
7.667468229934795
100
AcDbArc
 50
235.6157525319253
 51
304.3842474680746
  0
LINE
  5
5A68
330
1F
100
AcDbEntity
  8
圖層1輪廓線
100
AcDbLine
 10
8217.766159920328
 20
429.2876929700173
 30
0.0
 11
8217.766159920328
 21
425.7876929770177
 31
0.0
  0
LINE
  5
5A69
330
1F
100
AcDbEntity
  8
圖層1輪廓線
100
AcDbLine
 10
8220.086667991379
 20
429.2876929700173
 30
0.0
 11
8217.766159920328
 21
430.6274389294936
 31
0.0
  0
ARC
  5
5A6A
330
1F
100
AcDbEntity
  8
圖層1輪廓線
100
AcDbCircle
 10
8222.096286930591
 20
433.6202247160822
 30
0.0
 40
7.667468229934795
100
AcDbArc
 50
55.61575253192536
 51
124.3842474680746
  0
LINE
  5
5A6B
330
1F
100
AcDbEntity
  8
圖層1輪廓線
100
AcDbLine
 10
8220.086667991379
 20
441.2876929460176
 30
0.0
 11
8217.766159920328
 21
439.9479469865414
 31
0.0
  0
LINE
  5
5A6C
330
1F
100
AcDbEntity
  8
圖層1輪廓線
100
AcDbLine
 10
8106.586668218376
 20
477.7876928710175
 30
0.0
 11
8181.586668068375
 21
477.7876928710175
 31
0.0
  0
LINE
  5
5A6D
330
1F
100
AcDbEntity
  8
圖層1輪廓線
100
AcDbLine
 10
8226.286667978977
 20
460.7876929070175
 30
0.0
 11
8225.086667981377
 21
459.5876929094174
 31
0.0
  0
LINE
  5
5A6E
330
1F
100
AcDbEntity
  8
圖層1輪廓線
100
AcDbLine
 10
8257.086667917377
 20
442.7876929410172
 30
0.0
 11
8257.086667917377
 21
400.7876930270172
 31
0.0
  0
LINE
  5
5A6F
330
1F
100
AcDbEntity
  8
圖層1輪廓線
100
AcDbLine
 10
8244.336667942876
 20
460.3376929079172
 30
0.0
 11
8244.336667942876
 21
441.2876929460176
 31
0.0
  0
LINE
  5
5A70
330
1F
100
AcDbEntity
  8
圖層1輪廓線
100
AcDbLine
 10
8245.086667941377
 20
459.5876929094174
 30
0.0
 11
8245.086667941377
 21
441.2876929460176
 31
0.0
  0
LINE
  5
5A71
330
1F
100
AcDbEntity
  8
圖層1輪廓線
100
AcDbLine
 10
8243.746921981902
 20
439.9479469865414
 30
0.0
 11
8243.746921981902
 21
430.6274389294936
 31
0.0
  0
LINE
  5
5A72
330
1F
100
AcDbEntity
  8
圖層1輪廓線
100
AcDbLine
 10
8252.407176002426
 20
439.9479469865414
 30
0.0
 11
8252.407176002426
 21
430.6274389294936
 31
0.0
  0
LINE
  5
5A73
330
1F
100
AcDbEntity
  8
圖層1輪廓線
100
AcDbLine
 10
8241.033969556534
 20
429.2876929700173
 30
0.0
 11
8242.868055606985
 21
425.7876929770177
 31
0.0
  0
LINE
  5
5A74
330
1F
100
AcDbEntity
  8
圖層1輪廓線
100
AcDbLine
 10
8239.281459646948
 20
429.2876929700173
 30
0.0
 11
8241.115545697397
 21
425.7876929770177
 31
0.0
  0
LINE
  5
5A75
330
1F
100
AcDbEntity
  8
圖層1輪廓線
100
AcDbLine
 10
8252.407176002426
 20
429.2876929700173
 30
0.0
 11
8252.407176002426
 21
425.7876929770177
 31
0.0
  0
ARC
  5
5A76
330
1F
100
AcDbEntity
  8
圖層1輪廓線
100
AcDbCircle
 10
8248.077048992163
 20
436.9551611999522
 30
0.0
 40
7.667468229934795
100
AcDbArc
 50
235.6157525319253
 51
304.3842474680746
  0
LINE
  5
5A77
330
1F
100
AcDbEntity
  8
圖層1輪廓線
100
AcDbLine
 10
8250.086667931377
 20
429.2876929700173
 30
0.0
 11
8252.407176002426
 21
430.6274389294936
 31
0.0
  0
LINE
  5
5A78
330
1F
100
AcDbEntity
  8
圖層1輪廓線
100
AcDbLine
 10
8245.086667941377
 20
442.7876929410172
 30
0.0
 11
8257.086667917377
 21
442.7876929410172
 31
0.0
  0
LINE
  5
5A79
330
1F
100
AcDbEntity
  8
圖層1輪廓線
100
AcDbLine
 10
8250.086667931377
 20
441.2876929460176
 30
0.0
 11
8252.407176002426
 21
439.9479469865414
 31
0.0
  0
ARC
  5
5A7A
330
1F
100
AcDbEntity
  8
圖層1輪廓線
100
AcDbCircle
 10
8248.077048992163
 20
433.6202247160822
 30
0.0
 40
7.667468229934795
100
AcDbArc
 50
55.61575253192536
 51
124.3842474680746
  0
LINE
  5
5A7B
330
1F
100
AcDbEntity
  8
圖層1輪廓線
100
AcDbLine
 10
8243.886667943778
 20
460.7876929070175
 30
0.0
 11
8245.086667941377
 21
459.5876929094174
 31
0.0
  0
LINE
  5
5A7C
330
1F
100
AcDbEntity
  8
圖層1輪廓線
100
AcDbLine
 10
8192.086668143376
 20
442.7876929410172
 30
0.0
 11
8192.086668143376
 21
647.7876929410176
 31
0.0
  0
LINE
  5
5A7D
330
1F
100
AcDbEntity
  8
圖層1輪廓線
100
AcDbLine
 10
8096.086668143376
 20
442.7876929410172
 30
0.0
 11
8096.086668143376
 21
647.7876929410176
 31
0.0
  0
LINE
  5
5A7E
330
1F
100
AcDbEntity
  8
圖層1輪廓線
100
AcDbLine
 10
8189.086668143376
 20
442.7876929410172
 30
0.0
 11
8189.086668143376
 21
647.7876929410176
 31
0.0
  0
LINE
  5
5A7F
330
1F
100
AcDbEntity
  8
圖層1輪廓線
100
AcDbLine
 10
8099.086668143376
 20
442.7876929410172
 30
0.0
 11
8099.086668143376
 21
647.7876929410176
 31
0.0
  0
LINE
  5
5A80
330
1F
100
AcDbEntity
  8
圖層1輪廓線
100
AcDbLine
 10
8184.086668143377
 20
627.7876929410171
 30
0.0
 11
8184.086668143377
 21
647.7876929410172
 31
0.0
  0
LINE
  5
5A81
330
1F
100
AcDbEntity
  8
圖層1輪廓線
100
AcDbLine
 10
8104.086668143377
 20
647.7876929410172
 30
0.0
 11
8104.086668143377
 21
627.7876929410171
 31
0.0
  0
HATCH
  5
5A82
330
1F
100
AcDbEntity
  8
圖層1輪廓線
100
AcDbHatch
 10
0.0
 20
0.0
 30
0.0
210
0.0
220
0.0
230
1.0
  2
ANGLE
 70
     0
 71
     0
 91
        2
 92
        7
 72
     0
 73
     1
 93
        4
 10
8184.086668143377
 20
647.7876929410172
 10
8104.086668143377
 20
647.7876929410172
 10
8104.086668143377
 20
627.7876929410171
 10
8184.086668143377
 20
627.7876929410171
 97
        0
 92
        7
 72
     0
 73
     1
 93
        4
 10
8184.086668143377
 20
625.7876929410172
 10
8104.086668143377
 20
625.7876929410172
 10
8104.086668143377
 20
610.7876929410172
 10
8184.086668143377
 20
610.7876929410172
 97
        0
 75
     0
 76
     1
 52
45.0
 41
1.0
 77
     0
 78
     2
 53
45.0
 43
5950.727534106476
 44
-614.7123322703078
 45
-4.939140866588034
 46
4.939140866588035
 79
     2
 49
5.08
 49
-1.905
 53
135.0
 43
5950.727534106476
 44
-614.7123322703078
 45
-4.939140866588035
 46
-4.939140866588034
 79
     2
 49
5.08
 49
-1.905
 47
0.4216118112884125
 98
        2
 10
8125.308536542283
 20
636.3256029713743
 10
8124.04150576147
 20
619.8827446445152
  0
LINE
  5
5A83
330
1F
100
AcDbEntity
  8
圖層1輪廓線
100
AcDbLine
 10
8174.061334056329
 20
583.4827028304085
 30
0.0
 11
8121.168151847221
 21
521.3632192856817
 31
0.0
  0
LINE
  5
5A84
330
1F
100
AcDbEntity
  8
圖層1輪廓線
100
AcDbLine
 10
8167.208870111048
 20
589.3174040120134
 30
0.0
 11
8114.315687901941
 21
527.1979204672866
 31
0.0
  0
LINE
  5
5A85
330
1F
100
AcDbEntity
  8
圖層1輪廓線
100
AcDbLine
 10
8118.836668143377
 20
482.7876929410172
 30
0.0
 11
8118.836668143377
 21
571.7876929410172
 31
0.0
  0
LINE
  5
5A86
330
1F
100
AcDbEntity
  8
圖層1輪廓線
100
AcDbLine
 10
8168.836668143375
 20
482.7876929410172
 30
0.0
 11
8168.836668143375
 21
571.7876929410172
 31
0.0
  0
LINE
  5
5A87
330
1F
100
AcDbEntity
  8
圖層1輪廓線
100
AcDbLine
 10
8183.294237312967
 20
482.7876929410172
 30
0.0
 11
8104.336668143377
 21
482.7876929410172
 31
0.0
  0
LINE
  5
5A88
330
1F
100
AcDbEntity
  8
圖層1輪廓線
100
AcDbLine
 10
8104.336668143377
 20
477.7876929410171
 30
0.0
 11
8183.294237312967
 21
477.7876929410171
 31
0.0
  0
LINE
  5
5A89
330
1F
100
AcDbEntity
  8
圖層1輪廓線
100
AcDbLine
 10
8105.336668143376
 20
477.7876929410171
 30
0.0
 11
8182.336668143376
 21
477.7876929410171
 31
0.0
  0
ARC
  5
5A8A
330
1F
100
AcDbEntity
  8
圖層1輪廓線
100
AcDbCircle
 10
8104.336668143377
 20
480.7876929410172
 30
0.0
 40
2.0
100
AcDbArc
 50
90.0
 51
180.0
  0
ARC
  5
5A8B
330
1F
100
AcDbEntity
  8
圖層1輪廓線
100
AcDbCircle
 10
8104.336668143377
 20
479.7876929410172
 30
0.0
 40
2.0
100
AcDbArc
 50
180.0
 51
270.0
  0
LINE
  5
5A8C
330
1F
100
AcDbEntity
  8
圖層1輪廓線
100
AcDbLine
 10
8102.336668143378
 20
480.7876929410172
 30
0.0
 11
8102.336668143378
 21
479.7876929410172
 31
0.0
  0
ARC
  5
5A8D
330
1F
100
AcDbEntity
  8
圖層1輪廓線
100
AcDbCircle
 10
8183.294237312967
 20
480.7876929410172
 30
0.0
 40
2.0
100
AcDbArc
 50
0.0
 51
90.0
  0
ARC
  5
5A8E
330
1F
100
AcDbEntity
  8
圖層1輪廓線
100
AcDbCircle
 10
8183.294237312967
 20
479.7876929410172
 30
0.0
 40
2.0
100
AcDbArc
 50
270.0
 51
0.0
  0
LINE
  5
5A8F
330
1F
100
AcDbEntity
  8
圖層1輪廓線
100
AcDbLine
 10
8185.294237312966
 20
479.7876929410172
 30
0.0
 11
8185.294237312966
 21
480.7876929410172
 31
0.0
  0
LINE
  5
5A90
330
1F
100
AcDbEntity
  8
圖層1輪廓線
100
AcDbLine
 10
8104.086668143377
 20
574.7876929410172
 30
0.0
 11
8184.086668143377
 21
574.7876929410172
 31
0.0
  0
LINE
  5
5A91
330
1F
100
AcDbEntity
  8
圖層1輪廓線
100
AcDbLine
 10
8104.086668143377
 20
627.7876929410171
 30
0.0
 11
8184.086668143377
 21
627.7876929410171
 31
0.0
  0
LINE
  5
5A92
330
1F
100
AcDbEntity
  8
圖層1輪廓線
100
AcDbLine
 10
8184.086668143377
 20
610.7876929410172
 30
0.0
 11
8104.086668143377
 21
610.7876929410172
 31
0.0
  0
LINE
  5
5A93
330
1F
100
AcDbEntity
  8
圖層1輪廓線
100
AcDbLine
 10
8184.086668143377
 20
625.7876929410172
 30
0.0
 11
8104.086668143377
 21
625.7876929410172
 31
0.0
  0
LINE
  5
5A94
330
1F
100
AcDbEntity
  8
圖層1輪廓線
100
AcDbLine
 10
8184.086668143377
 20
627.7876929410171
 30
0.0
 11
8104.086668143377
 21
627.7876929410171
 31
0.0
  0
LINE
  5
5A95
330
1F
100
AcDbEntity
  8
圖層1輪廓線
100
AcDbLine
 10
8118.836668143377
 20
571.7876929410172
 30
0.0
 11
8168.836668143375
 21
571.7876929410172
 31
0.0
  0
LINE
  5
5A96
330
1F
100
AcDbEntity
  8
圖層1輪廓線
100
AcDbLine
 10
8104.086668143377
 20
627.7876929410171
 30
0.0
 11
8104.086668143377
 21
574.7876929410172
 31
0.0
  0
LINE
  5
5A97
330
1F
100
AcDbEntity
  8
圖層1輪廓線
100
AcDbLine
 10
8118.836668143377
 20
571.7876929410172
 30
0.0
 11
8121.836668143377
 21
574.7876929410172
 31
0.0
  0
LINE
  5
5A98
330
1F
100
AcDbEntity
  8
圖層1輪廓線
100
AcDbLine
 10
8184.086668143377
 20
574.7876929410172
 30
0.0
 11
8184.086668143377
 21
627.7876929410171
 31
0.0
  0
LINE
  5
5A99
330
1F
100
AcDbEntity
  8
圖層1輪廓線
100
AcDbLine
 10
8168.836668143375
 20
571.7876929410172
 30
0.0
 11
8166.336668143378
 21
574.7876929410172
 31
0.0
  0
LINE
  5
5A9A
330
1F
100
AcDbEntity
  8
圖層1輪廓線
100
AcDbLine
 10
8096.086668143376
 20
647.7876929410176
 30
0.0
 11
8189.086668143376
 21
647.7876929410176
 31
0.0
  0
LINE
  5
5A9B
330
1F
100
AcDbEntity
  8
圖層1輪廓線
100
AcDbLine
 10
8123.586668143376
 20
647.7876929410172
 30
0.0
 11
8164.586668143376
 21
647.7876929410172
 31
0.0
  0
LINE
  5
5A9C
330
1F
100
AcDbEntity
  8
圖層1輪廓線
100
AcDbLine
 10
8123.586668143376
 20
647.7876929410172
 30
0.0
 11
8164.586668143376
 21
647.7876929410172
 31
0.0
  0
LINE
  5
5A9D
330
1F
100
AcDbEntity
  8
圖層1輪廓線
100
AcDbLine
 10
8184.086668143377
 20
647.7876929410172
 30
0.0
 11
8104.086668143377
 21
647.7876929410172
 31
0.0
  0
LINE
  5
5A9E
330
1F
100
AcDbEntity
  8
圖層1輪廓線
100
AcDbLine
 10
8192.086668143376
 20
647.7876929410176
 30
0.0
 11
8189.086668143376
 21
647.7876929410176
 31
0.0
  0
LINE
  5
5A9F
330
1F
100
AcDbEntity
  8
圖層1輪廓線
100
AcDbLine
 10
8189.086668143376
 20
647.7876929410176
 30
0.0
 11
8189.086668143376
 21
647.7876929410176
 31
0.0
  0
LINE
  5
5AA0
330
1F
100
AcDbEntity
  8
圖層1輪廓線
100
AcDbLine
 10
8096.086668143376
 20
442.7876929410172
 30
0.0
 11
8192.086668143376
 21
442.7876929410172
 31
0.0
  0
LINE
  5
5AA1
330
1F
100
AcDbEntity
  8
圖層1輪廓線
100
AcDbLine
 10
7383.731263978233
 20
230.7876933670177
 30
0.0
 11
7383.731263978233
 21
400.7876930270172
 31
0.0
  0
LINE
  5
5AA2
330
1F
100
AcDbEntity
  8
圖層1輪廓線
100
AcDbLine
 10
7569.731263606232
 20
230.7876933670177
 30
0.0
 11
7569.731263606232
 21
400.7876930270172
 31
0.0
  0
LINE
  5
5AA3
330
1F
100
AcDbEntity
  8
圖層1輪廓線
100
AcDbLine
 10
7387.731263970232
 20
230.7876933670177
 30
0.0
 11
7387.731263970232
 21
400.7876930270172
 31
0.0
  0
LINE
  5
5AA4
330
1F
100
AcDbEntity
  8
圖層1輪廓線
100
AcDbLine
 10
7407.731263930234
 20
230.7876933670177
 30
0.0
 11
7407.731263930234
 21
400.7876930270172
 31
0.0
  0
LINE
  5
5AA5
330
1F
100
AcDbEntity
  8
圖層1輪廓線
100
AcDbLine
 10
7593.731263558233
 20
230.7876933670177
 30
0.0
 11
7593.731263558233
 21
400.7876930270172
 31
0.0
  0
LINE
  5
5AA6
330
1F
100
AcDbEntity
  8
圖層1輪廓線
100
AcDbLine
 10
7589.731263566233
 20
230.7876933670177
 30
0.0
 11
7589.731263566233
 21
400.7876930270172
 31
0.0
  0
LINE
  5
5AA7
330
1F
100
AcDbEntity
  8
圖層1輪廓線
100
AcDbLine
 10
7375.731263994232
 20
188.7876934530172
 30
0.0
 11
7601.731263542233
 21
188.7876934530172
 31
0.0
  0
LINE
  5
5AA8
330
1F
100
AcDbEntity
  8
圖層1輪廓線
100
AcDbLine
 10
7375.731263994232
 20
230.7876933670177
 30
0.0
 11
7601.731263542233
 21
230.7876933670177
 31
0.0
  0
LINE
  5
5AA9
330
1F
100
AcDbEntity
  8
圖層1輪廓線
100
AcDbLine
 10
7375.731263994232
 20
205.7876934170172
 30
0.0
 11
7450.731263844232
 21
205.7876934170172
 31
0.0
  0
LINE
  5
5AAA
330
1F
100
AcDbEntity
  8
圖層1輪廓線
100
AcDbLine
 10
7375.731263994232
 20
188.7876934530172
 30
0.0
 11
7375.731263994232
 21
230.7876933670177
 31
0.0
  0
LINE
  5
5AAB
330
1F
100
AcDbEntity
  8
圖層1輪廓線
100
AcDbLine
 10
7438.731263868233
 20
188.7876934530172
 30
0.0
 11
7438.731263868233
 21
205.7876934170172
 31
0.0
  0
LINE
  5
5AAC
330
1F
100
AcDbEntity
  8
圖層1輪廓線
100
AcDbLine
 10
7526.731263692233
 20
205.7876934170172
 30
0.0
 11
7601.731263542233
 21
205.7876934170172
 31
0.0
  0
LINE
  5
5AAD
330
1F
100
AcDbEntity
  8
圖層1輪廓線
100
AcDbLine
 10
7538.731263668232
 20
188.7876934530172
 30
0.0
 11
7538.731263668232
 21
205.7876934170172
 31
0.0
  0
LINE
  5
5AAE
330
1F
100
AcDbEntity
  8
圖層1輪廓線
100
AcDbLine
 10
7601.731263542233
 20
188.7876934530172
 30
0.0
 11
7601.731263542233
 21
230.7876933670177
 31
0.0
  0
LINE
  5
5AAF
330
1F
100
AcDbEntity
  8
圖層1輪廓線
100
AcDbLine
 10
7528.731263768233
 20
574.7876929410172
 30
0.0
 11
7528.731263768233
 21
627.7876929410171
 31
0.0
  0
LINE
  5
5AB0
330
1F
100
AcDbEntity
  8
圖層1輪廓線
100
AcDbLine
 10
7533.731263768233
 20
442.7876929410172
 30
0.0
 11
7533.731263768233
 21
647.7876929410176
 31
0.0
  0
LINE
  5
5AB1
330
1F
100
AcDbEntity
  8
圖層1輪廓線
100
AcDbLine
 10
7536.731263768233
 20
442.7876929410172
 30
0.0
 11
7536.731263768233
 21
647.7876929410176
 31
0.0
  0
LINE
  5
5AB2
330
1F
100
AcDbEntity
  8
圖層1輪廓線
100
AcDbLine
 10
7448.731263768234
 20
627.7876929410171
 30
0.0
 11
7448.731263768234
 21
574.7876929410172
 31
0.0
  0
LINE
  5
5AB3
330
1F
100
AcDbEntity
  8
圖層1輪廓線
100
AcDbLine
 10
7443.731263768234
 20
442.7876929410172
 30
0.0
 11
7443.731263768234
 21
647.7876929410176
 31
0.0
  0
LINE
  5
5AB4
330
1F
100
AcDbEntity
  8
圖層1輪廓線
100
AcDbLine
 10
7440.731263768234
 20
442.7876929410172
 30
0.0
 11
7440.731263768234
 21
647.7876929410176
 31
0.0
  0
LINE
  5
5AB5
330
1F
100
AcDbEntity
  8
圖層1輪廓線
100
AcDbLine
 10
7527.938832937824
 20
482.7876929410172
 30
0.0
 11
7448.981263768233
 21
482.7876929410172
 31
0.0
  0
LINE
  5
5AB6
330
1F
100
AcDbEntity
  8
圖層1輪廓線
100
AcDbLine
 10
7448.981263768233
 20
477.7876929410171
 30
0.0
 11
7527.938832937824
 21
477.7876929410171
 31
0.0
  0
LINE
  5
5AB7
330
1F
100
AcDbEntity
  8
圖層1輪廓線
100
AcDbLine
 10
7449.981263768234
 20
477.7876929410171
 30
0.0
 11
7526.981263768234
 21
477.7876929410171
 31
0.0
  0
LINE
  5
5AB8
330
1F
100
AcDbEntity
  8
圖層1輪廓線
100
AcDbLine
 10
7448.731263768234
 20
574.7876929410172
 30
0.0
 11
7528.731263768233
 21
574.7876929410172
 31
0.0
  0
LINE
  5
5AB9
330
1F
100
AcDbEntity
  8
圖層1輪廓線
100
AcDbLine
 10
7440.731263768234
 20
442.7876929410172
 30
0.0
 11
7536.731263768233
 21
442.7876929410172
 31
0.0
  0
LINE
  5
5ABA
330
1F
100
AcDbEntity
  8
圖層1輪廓線
100
AcDbLine
 10
7451.231263843232
 20
477.7876928710175
 30
0.0
 11
7526.231263693233
 21
477.7876928710175
 31
0.0
  0
LINE
  5
5ABB
330
1F
100
AcDbEntity
  8
圖層1輪廓線
100
AcDbLine
 10
7407.731263930234
 20
442.7876929410172
 30
0.0
 11
7569.731263606232
 21
442.7876929410172
 31
0.0
  0
LINE
  5
5ABC
330
1F
100
AcDbEntity
  8
圖層1輪廓線
100
AcDbLine
 10
7375.731263994232
 20
400.7876930270172
 30
0.0
 11
7601.731263542233
 21
400.7876930270172
 31
0.0
  0
LINE
  5
5ABD
330
1F
100
AcDbEntity
  8
圖層1輪廓線
100
AcDbLine
 10
7375.731263994232
 20
442.7876929410172
 30
0.0
 11
7387.731263970232
 21
442.7876929410172
 31
0.0
  0
LINE
  5
5ABE
330
1F
100
AcDbEntity
  8
圖層1輪廓線
100
AcDbLine
 10
7375.731263994232
 20
425.7876929770177
 30
0.0
 11
7450.731263844232
 21
425.7876929770177
 31
0.0
  0
LINE
  5
5ABF
330
1F
100
AcDbEntity
  8
圖層1輪廓線
100
AcDbLine
 10
7375.731263994232
 20
442.7876929410172
 30
0.0
 11
7375.731263994232
 21
400.7876930270172
 31
0.0
  0
LINE
  5
5AC0
330
1F
100
AcDbEntity
  8
圖層1輪廓線
100
AcDbLine
 10
7438.731263868233
 20
442.7876929410172
 30
0.0
 11
7438.731263868233
 21
425.7876929770177
 31
0.0
  0
LINE
  5
5AC1
330
1F
100
AcDbEntity
  8
圖層1輪廓線
100
AcDbLine
 10
7389.071009929711
 20
439.9479469865414
 30
0.0
 11
7389.071009929711
 21
430.6274389294936
 31
0.0
  0
LINE
  5
5AC2
330
1F
100
AcDbEntity
  8
圖層1輪廓線
100
AcDbLine
 10
7380.410755909185
 20
439.9479469865414
 30
0.0
 11
7380.410755909186
 21
430.6274389294936
 31
0.0
  0
LINE
  5
5AC3
330
1F
100
AcDbEntity
  8
圖層1輪廓線
100
AcDbLine
 10
7415.051771991281
 20
439.9479469865414
 30
0.0
 11
7415.051771991281
 21
430.6274389294936
 31
0.0
  0
LINE
  5
5AC4
330
1F
100
AcDbEntity
  8
圖層1輪廓線
100
AcDbLine
 10
7406.391517970757
 20
439.9479469865414
 30
0.0
 11
7406.391517970757
 21
430.6274389294936
 31
0.0
  0
ARC
  5
5AC5
330
1F
100
AcDbEntity
  8
圖層1輪廓線
100
AcDbCircle
 10
7410.721644981018
 20
436.9551611999527
 30
0.0
 40
7.667468229934795
100
AcDbArc
 50
235.6157525319253
 51
304.3842474680746
  0
LINE
  5
5AC6
330
1F
100
AcDbEntity
  8
圖層1輪廓線
100
AcDbLine
 10
7412.731263920232
 20
429.2876929700173
 30
0.0
 11
7415.051771991281
 21
430.6274389294936
 31
0.0
  0
LINE
  5
5AC7
330
1F
100
AcDbEntity
  8
圖層1輪廓線
100
AcDbLine
 10
7380.410755909186
 20
429.2876929700173
 30
0.0
 11
7415.051771991281
 21
429.2876929700173
 31
0.0
  0
ARC
  5
5AC8
330
1F
100
AcDbEntity
  8
圖層1輪廓線
100
AcDbCircle
 10
7397.731263950233
 20
457.9479469505408
 30
0.0
 40
28.660253980523
100
AcDbArc
 50
252.4120462260344
 51
287.5879537739656
  0
ARC
  5
5AC9
330
1F
100
AcDbEntity
  8
圖層1輪廓線
100
AcDbCircle
 10
7384.740882919446
 20
436.9551611999527
 30
0.0
 40
7.667468229934795
100
AcDbArc
 50
235.6157525319253
 51
304.3842474680746
  0
LINE
  5
5ACA
330
1F
100
AcDbEntity
  8
圖層1輪廓線
100
AcDbLine
 10
7382.731263980232
 20
429.2876929700173
 30
0.0
 11
7380.410755909186
 21
430.6274389294936
 31
0.0
  0
LINE
  5
5ACB
330
1F
100
AcDbEntity
  8
圖層1輪廓線
100
AcDbLine
 10
7380.410755909186
 20
429.2876929700173
 30
0.0
 11
7380.410755909186
 21
425.7876929770177
 31
0.0
  0
LINE
  5
5ACC
330
1F
100
AcDbEntity
  8
圖層1輪廓線
100
AcDbLine
 10
7401.926055635802
 20
429.2876929700173
 30
0.0
 11
7403.760141686253
 21
425.7876929770177
 31
0.0
  0
LINE
  5
5ACD
330
1F
100
AcDbEntity
  8
圖層1輪廓線
100
AcDbLine
 10
7403.678565545391
 20
429.2876929700173
 30
0.0
 11
7405.512651595841
 21
425.7876929770177
 31
0.0
  0
LINE
  5
5ACE
330
1F
100
AcDbEntity
  8
圖層1輪廓線
100
AcDbLine
 10
7415.051771991281
 20
429.2876929700173
 30
0.0
 11
7415.051771991281
 21
425.7876929770177
 31
0.0
  0
ARC
  5
5ACF
330
1F
100
AcDbEntity
  8
圖層1輪廓線
100
AcDbCircle
 10
7410.721644981018
 20
433.6202247160827
 30
0.0
 40
7.667468229934795
100
AcDbArc
 50
55.61575253192536
 51
124.3842474680746
  0
LINE
  5
5AD0
330
1F
100
AcDbEntity
  8
圖層1輪廓線
100
AcDbLine
 10
7412.731263920232
 20
441.2876929460176
 30
0.0
 11
7415.051771991281
 21
439.9479469865414
 31
0.0
  0
LINE
  5
5AD1
330
1F
100
AcDbEntity
  8
圖層1輪廓線
100
AcDbLine
 10
7387.731263970232
 20
459.5876929094174
 30
0.0
 11
7407.731263930234
 21
459.5876929094174
 31
0.0
  0
LINE
  5
5AD2
330
1F
100
AcDbEntity
  8
圖層1輪廓線
100
AcDbLine
 10
7388.931263967832
 20
460.7876929070175
 30
0.0
 11
7406.531263932634
 21
460.7876929070175
 31
0.0
  0
LINE
  5
5AD3
330
1F
100
AcDbEntity
  8
圖層1輪廓線
100
AcDbLine
 10
7382.731263980232
 20
441.2876929460176
 30
0.0
 11
7412.731263920232
 21
441.2876929460176
 31
0.0
  0
ARC
  5
5AD4
330
1F
100
AcDbEntity
  8
圖層1輪廓線
100
AcDbCircle
 10
7397.731263950233
 20
412.627438965495
 30
0.0
 40
28.660253980523
100
AcDbArc
 50
72.41204622603437
 51
107.5879537739656
  0
LINE
  5
5AD5
330
1F
100
AcDbEntity
  8
圖層1輪廓線
100
AcDbLine
 10
7388.931263967832
 20
460.7876929070175
 30
0.0
 11
7387.731263970232
 21
459.5876929094174
 31
0.0
  0
ARC
  5
5AD6
330
1F
100
AcDbEntity
  8
圖層1輪廓線
100
AcDbCircle
 10
7384.740882919446
 20
433.6202247160827
 30
0.0
 40
7.667468229934795
100
AcDbArc
 50
55.61575253192536
 51
124.3842474680746
  0
LINE
  5
5AD7
330
1F
100
AcDbEntity
  8
圖層1輪廓線
100
AcDbLine
 10
7382.731263980232
 20
441.2876929460176
 30
0.0
 11
7380.410755909186
 21
439.9479469865414
 31
0.0
  0
LINE
  5
5AD8
330
1F
100
AcDbEntity
  8
圖層1輪廓線
100
AcDbLine
 10
7387.731263970232
 20
459.5876929094174
 30
0.0
 11
7387.731263970232
 21
441.2876929460176
 31
0.0
  0
LINE
  5
5AD9
330
1F
100
AcDbEntity
  8
圖層1輪廓線
100
AcDbLine
 10
7388.481263968734
 20
460.3376929079177
 30
0.0
 11
7388.481263968734
 21
441.2876929460176
 31
0.0
  0
LINE
  5
5ADA
330
1F
100
AcDbEntity
  8
圖層1輪廓線
100
AcDbLine
 10
7406.531263932634
 20
460.7876929070175
 30
0.0
 11
7407.731263930234
 21
459.5876929094174
 31
0.0
  0
LINE
  5
5ADB
330
1F
100
AcDbEntity
  8
圖層1輪廓線
100
AcDbLine
 10
7406.981263931733
 20
460.3376929079172
 30
0.0
 11
7406.981263931733
 21
441.2876929460176
 31
0.0
  0
LINE
  5
5ADC
330
1F
100
AcDbEntity
  8
圖層1輪廓線
100
AcDbLine
 10
7407.731263930234
 20
459.5876929094174
 30
0.0
 11
7407.731263930234
 21
441.2876929460176
 31
0.0
  0
LINE
  5
5ADD
330
1F
100
AcDbEntity
  8
圖層1輪廓線
100
AcDbLine
 10
7451.231263843232
 20
477.7876928710175
 30
0.0
 11
7451.231263843232
 21
442.7876929410172
 31
0.0
  0
ARC
  5
5ADE
330
1F
100
AcDbEntity
  8
圖層1輪廓線
100
AcDbCircle
 10
7448.981263768233
 20
479.7876929410172
 30
0.0
 40
2.0
100
AcDbArc
 50
180.0
 51
270.0
  0
LINE
  5
5ADF
330
1F
100
AcDbEntity
  8
圖層1輪廓線
100
AcDbLine
 10
7446.981263768233
 20
480.7876929410172
 30
0.0
 11
7446.981263768233
 21
479.7876929410172
 31
0.0
  0
ARC
  5
5AE0
330
1F
100
AcDbEntity
  8
圖層1輪廓線
100
AcDbCircle
 10
7448.981263768233
 20
480.7876929410172
 30
0.0
 40
2.0
100
AcDbArc
 50
90.0
 51
180.0
  0
LINE
  5
5AE1
330
1F
100
AcDbEntity
  8
圖層1輪廓線
100
AcDbLine
 10
7463.481263768233
 20
482.7876929410172
 30
0.0
 11
7463.481263768233
 21
571.7876929410172
 31
0.0
  0
LINE
  5
5AE2
330
1F
100
AcDbEntity
  8
圖層1輪廓線
100
AcDbLine
 10
7513.481263768233
 20
482.7876929410172
 30
0.0
 11
7513.481263768233
 21
571.7876929410172
 31
0.0
  0
ARC
  5
5AE3
330
1F
100
AcDbEntity
  8
圖層1輪廓線
100
AcDbCircle
 10
7527.938832937824
 20
479.7876929410172
 30
0.0
 40
2.0
100
AcDbArc
 50
270.0
 51
0.0
  0
ARC
  5
5AE4
330
1F
100
AcDbEntity
  8
圖層1輪廓線
100
AcDbCircle
 10
7527.938832937824
 20
480.7876929410172
 30
0.0
 40
2.0
100
AcDbArc
 50
0.0
 51
90.0
  0
LINE
  5
5AE5
330
1F
100
AcDbEntity
  8
圖層1輪廓線
100
AcDbLine
 10
7526.731263692233
 20
425.7876929770177
 30
0.0
 11
7601.731263542233
 21
425.7876929770177
 31
0.0
  0
LINE
  5
5AE6
330
1F
100
AcDbEntity
  8
圖層1輪廓線
100
AcDbLine
 10
7526.231263693233
 20
477.7876928710175
 30
0.0
 11
7526.231263693233
 21
442.7876929410172
 31
0.0
  0
LINE
  5
5AE7
330
1F
100
AcDbEntity
  8
圖層1輪廓線
100
AcDbLine
 10
7597.051771627281
 20
439.9479469865414
 30
0.0
 11
7597.051771627281
 21
430.6274389294936
 31
0.0
  0
LINE
  5
5AE8
330
1F
100
AcDbEntity
  8
圖層1輪廓線
100
AcDbLine
 10
7588.391517606758
 20
439.9479469865414
 30
0.0
 11
7588.391517606758
 21
430.6274389294936
 31
0.0
  0
LINE
  5
5AE9
330
1F
100
AcDbEntity
  8
圖層1輪廓線
100
AcDbLine
 10
7601.731263542233
 20
442.7876929410172
 30
0.0
 11
7601.731263542233
 21
400.7876930270172
 31
0.0
  0
LINE
  5
5AEA
330
1F
100
AcDbEntity
  8
圖層1輪廓線
100
AcDbLine
 10
7538.731263668232
 20
442.7876929410172
 30
0.0
 11
7538.731263668232
 21
425.7876929770177
 31
0.0
  0
LINE
  5
5AEB
330
1F
100
AcDbEntity
  8
圖層1輪廓線
100
AcDbLine
 10
7571.071009565709
 20
439.9479469865414
 30
0.0
 11
7571.071009565709
 21
430.6274389294936
 31
0.0
  0
LINE
  5
5AEC
330
1F
100
AcDbEntity
  8
圖層1輪廓線
100
AcDbLine
 10
7562.410755545184
 20
439.9479469865414
 30
0.0
 11
7562.410755545184
 21
430.6274389294936
 31
0.0
  0
ARC
  5
5AED
330
1F
100
AcDbEntity
  8
圖層1輪廓線
100
AcDbCircle
 10
7566.740882555447
 20
436.9551611999522
 30
0.0
 40
7.667468229934795
100
AcDbArc
 50
235.6157525319253
 51
304.3842474680746
  0
LINE
  5
5AEE
330
1F
100
AcDbEntity
  8
圖層1輪廓線
100
AcDbLine
 10
7562.410755545184
 20
429.2876929700173
 30
0.0
 11
7597.051771627281
 21
429.2876929700173
 31
0.0
  0
LINE
  5
5AEF
330
1F
100
AcDbEntity
  8
圖層1輪廓線
100
AcDbLine
 10
7564.731263616234
 20
429.2876929700173
 30
0.0
 11
7562.410755545184
 21
430.6274389294936
 31
0.0
  0
LINE
  5
5AF0
330
1F
100
AcDbEntity
  8
圖層1輪廓線
100
AcDbLine
 10
7562.410755545184
 20
429.2876929700173
 30
0.0
 11
7562.410755545184
 21
425.7876929770177
 31
0.0
  0
LINE
  5
5AF1
330
1F
100
AcDbEntity
  8
圖層1輪廓線
100
AcDbLine
 10
7585.678565181392
 20
429.2876929700173
 30
0.0
 11
7587.51265123184
 21
425.7876929770177
 31
0.0
  0
ARC
  5
5AF2
330
1F
100
AcDbEntity
  8
圖層1輪廓線
100
AcDbCircle
 10
7579.731263586232
 20
457.9479469505404
 30
0.0
 40
28.660253980523
100
AcDbArc
 50
252.4120462260344
 51
287.5879537739656
  0
LINE
  5
5AF3
330
1F
100
AcDbEntity
  8
圖層1輪廓線
100
AcDbLine
 10
7583.926055271804
 20
429.2876929700173
 30
0.0
 11
7585.760141322253
 21
425.7876929770177
 31
0.0
  0
LINE
  5
5AF4
330
1F
100
AcDbEntity
  8
圖層1輪廓線
100
AcDbLine
 10
7594.731263556234
 20
429.2876929700173
 30
0.0
 11
7597.051771627281
 21
430.6274389294936
 31
0.0
  0
ARC
  5
5AF5
330
1F
100
AcDbEntity
  8
圖層1輪廓線
100
AcDbCircle
 10
7592.721644617019
 20
436.9551611999522
 30
0.0
 40
7.667468229934795
100
AcDbArc
 50
235.6157525319253
 51
304.3842474680746
  0
LINE
  5
5AF6
330
1F
100
AcDbEntity
  8
圖層1輪廓線
100
AcDbLine
 10
7597.051771627281
 20
429.2876929700173
 30
0.0
 11
7597.051771627281
 21
425.7876929770177
 31
0.0
  0
ARC
  5
5AF7
330
1F
100
AcDbEntity
  8
圖層1輪廓線
100
AcDbCircle
 10
7566.740882555447
 20
433.6202247160822
 30
0.0
 40
7.667468229934795
100
AcDbArc
 50
55.61575253192536
 51
124.3842474680746
  0
LINE
  5
5AF8
330
1F
100
AcDbEntity
  8
圖層1輪廓線
100
AcDbLine
 10
7564.731263616234
 20
441.2876929460176
 30
0.0
 11
7594.731263556234
 21
441.2876929460176
 31
0.0
  0
LINE
  5
5AF9
330
1F
100
AcDbEntity
  8
圖層1輪廓線
100
AcDbLine
 10
7564.731263616234
 20
441.2876929460176
 30
0.0
 11
7562.410755545184
 21
439.9479469865414
 31
0.0
  0
LINE
  5
5AFA
330
1F
100
AcDbEntity
  8
圖層1輪廓線
100
AcDbLine
 10
7529.938832937823
 20
479.7876929410172
 30
0.0
 11
7529.938832937823
 21
480.7876929410172
 31
0.0
  0
LINE
  5
5AFB
330
1F
100
AcDbEntity
  8
圖層1輪廓線
100
AcDbLine
 10
7570.931263603831
 20
460.7876929070175
 30
0.0
 11
7588.531263568633
 21
460.7876929070175
 31
0.0
  0
LINE
  5
5AFC
330
1F
100
AcDbEntity
  8
圖層1輪廓線
100
AcDbLine
 10
7569.731263606232
 20
459.5876929094174
 30
0.0
 11
7589.731263566233
 21
459.5876929094174
 31
0.0
  0
ARC
  5
5AFD
330
1F
100
AcDbEntity
  8
圖層1輪廓線
100
AcDbCircle
 10
7579.731263586232
 20
412.6274389654945
 30
0.0
 40
28.660253980523
100
AcDbArc
 50
72.41204622603437
 51
107.5879537739656
  0
LINE
  5
5AFE
330
1F
100
AcDbEntity
  8
圖層1輪廓線
100
AcDbLine
 10
7570.931263603831
 20
460.7876929070175
 30
0.0
 11
7569.731263606232
 21
459.5876929094174
 31
0.0
  0
LINE
  5
5AFF
330
1F
100
AcDbEntity
  8
圖層1輪廓線
100
AcDbLine
 10
7570.481263604732
 20
460.3376929079177
 30
0.0
 11
7570.481263604732
 21
441.2876929460176
 31
0.0
  0
LINE
  5
5B00
330
1F
100
AcDbEntity
  8
圖層1輪廓線
100
AcDbLine
 10
7569.731263606232
 20
459.5876929094174
 30
0.0
 11
7569.731263606232
 21
441.2876929460176
 31
0.0
  0
LINE
  5
5B01
330
1F
100
AcDbEntity
  8
圖層1輪廓線
100
AcDbLine
 10
7588.531263568633
 20
460.7876929070175
 30
0.0
 11
7589.731263566233
 21
459.5876929094174
 31
0.0
  0
ARC
  5
5B02
330
1F
100
AcDbEntity
  8
圖層1輪廓線
100
AcDbCircle
 10
7592.721644617019
 20
433.6202247160822
 30
0.0
 40
7.667468229934795
100
AcDbArc
 50
55.61575253192536
 51
124.3842474680746
  0
LINE
  5
5B03
330
1F
100
AcDbEntity
  8
圖層1輪廓線
100
AcDbLine
 10
7594.731263556234
 20
441.2876929460176
 30
0.0
 11
7597.051771627281
 21
439.9479469865414
 31
0.0
  0
LINE
  5
5B04
330
1F
100
AcDbEntity
  8
圖層1輪廓線
100
AcDbLine
 10
7589.731263566233
 20
442.7876929410172
 30
0.0
 11
7601.731263542233
 21
442.7876929410172
 31
0.0
  0
LINE
  5
5B05
330
1F
100
AcDbEntity
  8
圖層1輪廓線
100
AcDbLine
 10
7589.731263566233
 20
459.5876929094174
 30
0.0
 11
7589.731263566233
 21
441.2876929460176
 31
0.0
  0
LINE
  5
5B06
330
1F
100
AcDbEntity
  8
圖層1輪廓線
100
AcDbLine
 10
7588.981263567733
 20
460.3376929079172
 30
0.0
 11
7588.981263567733
 21
441.2876929460176
 31
0.0
  0
LINE
  5
5B07
330
1F
100
AcDbEntity
  8
圖層1輪廓線
100
AcDbLine
 10
7518.705929681184
 20
583.4827028304085
 30
0.0
 11
7465.812747472078
 21
521.3632192856817
 31
0.0
  0
LINE
  5
5B08
330
1F
100
AcDbEntity
  8
圖層1輪廓線
100
AcDbLine
 10
7511.853465735902
 20
589.3174040120134
 30
0.0
 11
7458.960283526798
 21
527.1979204672866
 31
0.0
  0
LINE
  5
5B09
330
1F
100
AcDbEntity
  8
圖層1輪廓線
100
AcDbLine
 10
7463.481263768233
 20
571.7876929410172
 30
0.0
 11
7513.481263768233
 21
571.7876929410172
 31
0.0
  0
LINE
  5
5B0A
330
1F
100
AcDbEntity
  8
圖層1輪廓線
100
AcDbLine
 10
7463.481263768233
 20
571.7876929410172
 30
0.0
 11
7466.481263768233
 21
574.7876929410172
 31
0.0
  0
LINE
  5
5B0B
330
1F
100
AcDbEntity
  8
圖層1輪廓線
100
AcDbLine
 10
7513.481263768233
 20
571.7876929410172
 30
0.0
 11
7510.981263768234
 21
574.7876929410172
 31
0.0
  0
HATCH
  5
5B0C
330
1F
100
AcDbEntity
  8
圖層1輪廓線
100
AcDbHatch
 10
0.0
 20
0.0
 30
0.0
210
0.0
220
0.0
230
1.0
  2
ANGLE
 70
     0
 71
     0
 91
        2
 92
        7
 72
     0
 73
     1
 93
        4
 10
7528.731263768232
 20
647.7876929410172
 10
7448.731263768234
 20
647.7876929410172
 10
7448.731263768234
 20
627.7876929410171
 10
7528.731263768233
 20
627.7876929410171
 97
        0
 92
        7
 72
     0
 73
     1
 93
        4
 10
7528.731263768233
 20
625.7876929410172
 10
7448.731263768234
 20
625.7876929410172
 10
7448.731263768234
 20
610.7876929410172
 10
7528.731263768233
 20
610.7876929410172
 97
        0
 75
     0
 76
     1
 52
45.0
 41
1.0
 77
     0
 78
     2
 53
45.0
 43
5295.372129731331
 44
-614.7123322703078
 45
-4.939140866588034
 46
4.939140866588035
 79
     2
 49
5.08
 49
-1.905
 53
135.0
 43
5295.372129731331
 44
-614.7123322703078
 45
-4.939140866588035
 46
-4.939140866588034
 79
     2
 49
5.08
 49
-1.905
 47
0.4216118112884125
 98
        2
 10
7469.953132167138
 20
636.3256029713743
 10
7468.686101386325
 20
619.8827446445152
  0
LINE
  5
5B0D
330
1F
100
AcDbEntity
  8
圖層1輪廓線
100
AcDbLine
 10
7448.731263768234
 20
627.7876929410171
 30
0.0
 11
7528.731263768233
 21
627.7876929410171
 31
0.0
  0
LINE
  5
5B0E
330
1F
100
AcDbEntity
  8
圖層1輪廓線
100
AcDbLine
 10
7528.731263768233
 20
610.7876929410172
 30
0.0
 11
7448.731263768234
 21
610.7876929410172
 31
0.0
  0
LINE
  5
5B0F
330
1F
100
AcDbEntity
  8
圖層1輪廓線
100
AcDbLine
 10
7528.731263768233
 20
625.7876929410172
 30
0.0
 11
7448.731263768234
 21
625.7876929410172
 31
0.0
  0
LINE
  5
5B10
330
1F
100
AcDbEntity
  8
圖層1輪廓線
100
AcDbLine
 10
7528.731263768233
 20
627.7876929410171
 30
0.0
 11
7448.731263768234
 21
627.7876929410171
 31
0.0
  0
LINE
  5
5B11
330
1F
100
AcDbEntity
  8
圖層1輪廓線
100
AcDbLine
 10
7440.731263768234
 20
647.7876929410176
 30
0.0
 11
7533.731263768233
 21
647.7876929410176
 31
0.0
  0
LINE
  5
5B12
330
1F
100
AcDbEntity
  8
圖層1輪廓線
100
AcDbLine
 10
7528.731263768233
 20
647.7876929410172
 30
0.0
 11
7448.731263768234
 21
647.7876929410172
 31
0.0
  0
LINE
  5
5B13
330
1F
100
AcDbEntity
  8
圖層1輪廓線
100
AcDbLine
 10
7448.731263768234
 20
647.7876929410172
 30
0.0
 11
7448.731263768234
 21
627.7876929410171
 31
0.0
  0
LINE
  5
5B14
330
1F
100
AcDbEntity
  8
圖層1輪廓線
100
AcDbLine
 10
7528.731263768233
 20
627.7876929410171
 30
0.0
 11
7528.731263768233
 21
647.7876929410172
 31
0.0
  0
LINE
  5
5B15
330
1F
100
AcDbEntity
  8
圖層1輪廓線
100
AcDbLine
 10
7468.231263768233
 20
647.7876929410172
 30
0.0
 11
7509.231263768234
 21
647.7876929410172
 31
0.0
  0
LINE
  5
5B16
330
1F
100
AcDbEntity
  8
圖層1輪廓線
100
AcDbLine
 10
7468.231263768233
 20
647.7876929410172
 30
0.0
 11
7509.231263768234
 21
647.7876929410172
 31
0.0
  0
LINE
  5
5B17
330
1F
100
AcDbEntity
  8
圖層1輪廓線
100
AcDbLine
 10
7533.731263768233
 20
647.7876929410176
 30
0.0
 11
7533.731263768233
 21
647.7876929410176
 31
0.0
  0
LINE
  5
5B18
330
1F
100
AcDbEntity
  8
圖層1輪廓線
100
AcDbLine
 10
7536.731263768233
 20
647.7876929410176
 30
0.0
 11
7533.731263768233
 21
647.7876929410176
 31
0.0
  0
LINE
  5
5B19
330
1F
100
AcDbEntity
  8
圖層4尺寸線
100
AcDbLine
 10
7701.731263768234
 20
-444.2123065469827
 30
0.0
 11
7716.731263768235
 21
-444.2123065469827
 31
0.0
  0
LINE
  5
5B1A
330
1F
100
AcDbEntity
  8
圖層4尺寸線
100
AcDbLine
 10
7644.731263768233
 20
-459.2123065469827
 30
0.0
 11
7716.731263768235
 21
-459.2123065469827
 31
0.0
  0
LINE
  5
5B1B
330
1F
100
AcDbEntity
  8
圖層4尺寸線
100
AcDbLine
 10
7716.731263768235
 20
-395.2123065469828
 30
0.0
 11
7644.731263768233
 21
-395.2123065469828
 31
0.0
  0
LINE
  5
5B1C
330
1F
100
AcDbEntity
  8
圖層4尺寸線
100
AcDbLine
 10
7638.731263768234
 20
-461.2123065469827
 30
0.0
 11
7716.731263768235
 21
-461.2123065469827
 31
0.0
  0
LINE
  5
5B1D
330
1F
100
AcDbEntity
  8
圖層4尺寸線
100
AcDbLine
 10
7716.731263768235
 20
-459.2123065469827
 30
0.0
 11
7642.731263768233
 21
-459.2123065469827
 31
0.0
  0
LINE
  5
5B1E
330
1F
100
AcDbEntity
  8
圖層4尺寸線
100
AcDbLine
 10
7701.731263768234
 20
-444.2123065469827
 30
0.0
 11
7701.731263768234
 21
-429.2123065469827
 31
0.0
  0
LINE
  5
5B1F
330
1F
100
AcDbEntity
  8
圖層4尺寸線
100
AcDbLine
 10
7659.731263768233
 20
-429.2123065469827
 30
0.0
 11
7659.731263768233
 21
-444.2123065469827
 31
0.0
  0
LINE
  5
5B20
330
1F
100
AcDbEntity
  8
圖層4尺寸線
100
AcDbLine
 10
7644.731263768233
 20
-395.2123065469828
 30
0.0
 11
7644.731263768233
 21
-459.2123065469827
 31
0.0
  0
LINE
  5
5B21
330
1F
100
AcDbEntity
  8
圖層4尺寸線
100
AcDbLine
 10
7638.731263768234
 20
-389.2123065469828
 30
0.0
 11
7638.731263768234
 21
-461.2123065469827
 31
0.0
  0
LINE
  5
5B22
330
1F
100
AcDbEntity
  8
圖層4尺寸線
100
AcDbLine
 10
7640.731263768234
 20
-457.2123065469827
 30
0.0
 11
7640.731263768234
 21
-389.2123065469828
 31
0.0
  0
ARC
  5
5B23
330
1F
100
AcDbEntity
  8
圖層4尺寸線
100
AcDbCircle
 10
7640.731263768234
 20
-459.2123065469827
 30
0.0
 40
2.0
100
AcDbArc
 50
180.0
 51
270.0
  0
CIRCLE
  5
5B24
330
1F
100
AcDbEntity
  8
圖層4尺寸線
100
AcDbCircle
 10
7680.731263768233
 20
-444.2123065469827
 30
0.0
 40
12.0
  0
CIRCLE
  5
5B25
330
1F
100
AcDbEntity
  8
圖層4尺寸線
100
AcDbCircle
 10
7680.731263768233
 20
-444.2123065469827
 30
0.0
 40
9.0
  0
ARC
  5
5B26
330
1F
100
AcDbEntity
  8
圖層4尺寸線
100
AcDbCircle
 10
7642.731263768233
 20
-457.2123065469827
 30
0.0
 40
2.0
100
AcDbArc
 50
180.0
 51
270.0
  0
LINE
  5
5B27
330
1F
100
AcDbEntity
  8
圖層4尺寸線
100
AcDbLine
 10
7644.731263768233
 20
-444.2123065469827
 30
0.0
 11
7659.731263768233
 21
-444.2123065469827
 31
0.0
  0
LINE
  5
5B28
330
1F
100
AcDbEntity
  8
圖層4尺寸線
100
AcDbLine
 10
7640.731263768234
 20
-389.2123065469828
 30
0.0
 11
7638.731263768234
 21
-389.2123065469828
 31
0.0
  0
LINE
  5
5B29
330
1F
100
AcDbEntity
  8
圖層4尺寸線
100
AcDbLine
 10
7694.731263768233
 20
-380.212306546983
 30
0.0
 11
7694.731263768233
 21
-395.212306546983
 31
0.0
  0
LINE
  5
5B2A
330
1F
100
AcDbEntity
  8
圖層4尺寸線
100
AcDbLine
 10
7666.731263768234
 20
-380.2123065469828
 30
0.0
 11
7666.731263768234
 21
-395.2123065469828
 31
0.0
  0
LINE
  5
5B2B
330
1F
100
AcDbEntity
  8
圖層4尺寸線
100
AcDbLine
 10
7659.731263768233
 20
-429.2123065469827
 30
0.0
 11
7701.731263768234
 21
-429.2123065469827
 31
0.0
  0
HATCH
  5
5B2C
330
1F
100
AcDbEntity
  8
圖層4尺寸線
100
AcDbHatch
 10
0.0
 20
0.0
 30
0.0
210
0.0
220
0.0
230
1.0
  2
LINE
 70
     0
 71
     0
 91
        1
 92
        7
 72
     0
 73
     1
 93
        4
 10
7694.731263768233
 20
-385.7123065469827
 10
7666.731263768234
 20
-385.7123065469827
 10
7666.731263768234
 20
-392.8423958266638
 10
7694.731263768233
 20
-392.842395826664
 97
        0
 75
     0
 76
     1
 52
90.0
 41
1.0
 77
     0
 78
     1
 53
90.0
 43
6554.567225919938
 44
-984.1534079772403
 45
-3.174999999999999
 46
0.0000000000000002
 79
     0
 47
0.1347766415641304
 98
        1
 10
7680.423240095148
 20
-388.9091425025058
  0
LINE
  5
5B2D
330
1F
100
AcDbEntity
  8
圖層4尺寸線
100
AcDbLine
 10
7666.731263768234
 20
-385.7123065469827
 30
0.0
 11
7694.731263768233
 21
-385.712306546983
 31
0.0
  0
LINE
  5
5B2E
330
1F
100
AcDbEntity
  8
圖層4尺寸線
100
AcDbLine
 10
7666.731263768234
 20
-392.8423958266638
 30
0.0
 11
7694.731263768233
 21
-392.842395826664
 31
0.0
  0
LINE
  5
5B2F
330
1F
100
AcDbEntity
  8
圖層4尺寸線
100
AcDbLine
 10
7694.731263768233
 20
-380.2123065469828
 30
0.0
 11
7666.731263768234
 21
-380.2123065469828
 31
0.0
  0
ARC
  5
5B30
330
1F
100
AcDbEntity
  8
圖層4尺寸線
100
AcDbCircle
 10
7680.731263768233
 20
-417.2123065469827
 30
0.0
 40
52.00000000000005
100
AcDbArc
 50
67.38013505196659
 51
112.6198649480309
  0
LINE
  5
5B31
330
1F
100
AcDbEntity
  8
圖層4尺寸線
100
AcDbLine
 10
7700.731263768233
 20
-369.2123065469827
 30
0.0
 11
7660.731263768234
 21
-369.2123065469827
 31
0.0
  0
LINE
  5
5B32
330
1F
100
AcDbEntity
  8
圖層4尺寸線
100
AcDbLine
 10
7700.731263768233
 20
-371.2123065469827
 30
0.0
 11
7660.731263768234
 21
-371.2123065469827
 31
0.0
  0
LINE
  5
5B33
330
1F
100
AcDbEntity
  8
圖層4尺寸線
100
AcDbLine
 10
7669.731263768233
 20
-371.2123065469827
 30
0.0
 11
7669.731263768233
 21
-380.2123065469828
 31
0.0
  0
LINE
  5
5B34
330
1F
100
AcDbEntity
  8
圖層4尺寸線
100
AcDbLine
 10
7669.731263768233
 20
-380.2123065469828
 30
0.0
 11
7666.731263768234
 21
-380.2123065469828
 31
0.0
  0
LINE
  5
5B35
330
1F
100
AcDbEntity
  8
圖層4尺寸線
100
AcDbLine
 10
7660.731263768234
 20
-371.2123065469827
 30
0.0
 11
7669.731263768233
 21
-371.2123065469827
 31
0.0
  0
LINE
  5
5B36
330
1F
100
AcDbEntity
  8
圖層4尺寸線
100
AcDbLine
 10
7660.731263768234
 20
-369.2123065469827
 30
0.0
 11
7660.731263768234
 21
-371.2123065469827
 31
0.0
  0
LINE
  5
5B37
330
1F
100
AcDbEntity
  8
圖層4尺寸線
100
AcDbLine
 10
7700.731263768233
 20
-369.2123065469827
 30
0.0
 11
7700.731263768233
 21
-371.2123065469827
 31
0.0
  0
LINE
  5
5B38
330
1F
100
AcDbEntity
  8
圖層4尺寸線
100
AcDbLine
 10
7691.731263768234
 20
-371.2123065469827
 30
0.0
 11
7691.731263768234
 21
-380.2123065469828
 31
0.0
  0
LINE
  5
5B39
330
1F
100
AcDbEntity
  8
圖層4尺寸線
100
AcDbLine
 10
7694.731263768233
 20
-380.212306546983
 30
0.0
 11
7691.731263768234
 21
-380.212306546983
 31
0.0
  0
LINE
  5
5B3A
330
1F
100
AcDbEntity
  8
圖層4尺寸線
100
AcDbLine
 10
7700.731263768233
 20
-371.2123065469827
 30
0.0
 11
7691.731263768234
 21
-371.2123065469827
 31
0.0
  0
LINE
  5
5B3B
330
1F
100
AcDbEntity
  8
圖層4尺寸線
100
AcDbLine
 10
7716.731263768235
 20
-459.2123065469827
 30
0.0
 11
7716.731263768235
 21
-395.2123065469828
 31
0.0
  0
LINE
  5
5B3C
330
1F
100
AcDbEntity
  8
圖層4尺寸線
100
AcDbLine
 10
7716.731263768235
 20
-461.2123065469827
 30
0.0
 11
7716.731263768235
 21
-459.2123065469827
 31
0.0
  0
LINE
  5
5B3D
330
1F
100
AcDbEntity
  8
圖層4尺寸線
100
AcDbLine
 10
7260.731263768234
 20
-459.2123065469827
 30
0.0
 11
7260.731263768234
 21
-395.2123065469828
 31
0.0
  0
CIRCLE
  5
5B3E
330
1F
100
AcDbEntity
  8
圖層4尺寸線
100
AcDbCircle
 10
7296.731263768234
 20
-444.2123065469827
 30
0.0
 40
9.0
  0
CIRCLE
  5
5B3F
330
1F
100
AcDbEntity
  8
圖層4尺寸線
100
AcDbCircle
 10
7296.731263768234
 20
-444.2123065469827
 30
0.0
 40
12.0
  0
LINE
  5
5B40
330
1F
100
AcDbEntity
  8
圖層4尺寸線
100
AcDbLine
 10
7336.731263768233
 20
-457.2123065469827
 30
0.0
 11
7336.731263768233
 21
-389.2123065469828
 31
0.0
  0
LINE
  5
5B41
330
1F
100
AcDbEntity
  8
圖層4尺寸線
100
AcDbLine
 10
7338.731263768234
 20
-389.2123065469828
 30
0.0
 11
7338.731263768234
 21
-461.2123065469827
 31
0.0
  0
LINE
  5
5B42
330
1F
100
AcDbEntity
  8
圖層4尺寸線
100
AcDbLine
 10
7332.731263768234
 20
-395.2123065469828
 30
0.0
 11
7332.731263768234
 21
-459.2123065469827
 31
0.0
  0
LINE
  5
5B43
330
1F
100
AcDbEntity
  8
圖層4尺寸線
100
AcDbLine
 10
7317.731263768234
 20
-429.2123065469827
 30
0.0
 11
7317.731263768234
 21
-444.2123065469827
 31
0.0
  0
LINE
  5
5B44
330
1F
100
AcDbEntity
  8
圖層4尺寸線
100
AcDbLine
 10
7275.731263768233
 20
-444.2123065469827
 30
0.0
 11
7275.731263768233
 21
-429.2123065469827
 31
0.0
  0
LINE
  5
5B45
330
1F
100
AcDbEntity
  8
圖層4尺寸線
100
AcDbLine
 10
7260.731263768234
 20
-459.2123065469827
 30
0.0
 11
7334.731263768233
 21
-459.2123065469827
 31
0.0
  0
LINE
  5
5B46
330
1F
100
AcDbEntity
  8
圖層4尺寸線
100
AcDbLine
 10
7338.731263768234
 20
-461.2123065469827
 30
0.0
 11
7260.731263768234
 21
-461.2123065469827
 31
0.0
  0
LINE
  5
5B47
330
1F
100
AcDbEntity
  8
圖層4尺寸線
100
AcDbLine
 10
7332.731263768234
 20
-459.2123065469827
 30
0.0
 11
7260.731263768234
 21
-459.2123065469827
 31
0.0
  0
LINE
  5
5B48
330
1F
100
AcDbEntity
  8
圖層4尺寸線
100
AcDbLine
 10
7332.731263768234
 20
-444.2123065469827
 30
0.0
 11
7317.731263768234
 21
-444.2123065469827
 31
0.0
  0
ARC
  5
5B49
330
1F
100
AcDbEntity
  8
圖層4尺寸線
100
AcDbCircle
 10
7334.731263768233
 20
-457.2123065469827
 30
0.0
 40
2.0
100
AcDbArc
 50
270.0
 51
0.0
  0
ARC
  5
5B4A
330
1F
100
AcDbEntity
  8
圖層4尺寸線
100
AcDbCircle
 10
7336.731263768233
 20
-459.2123065469827
 30
0.0
 40
2.0
100
AcDbArc
 50
270.0
 51
0.0
  0
LINE
  5
5B4B
330
1F
100
AcDbEntity
  8
圖層4尺寸線
100
AcDbLine
 10
7275.731263768233
 20
-444.2123065469827
 30
0.0
 11
7260.731263768234
 21
-444.2123065469827
 31
0.0
  0
LINE
  5
5B4C
330
1F
100
AcDbEntity
  8
圖層4尺寸線
100
AcDbLine
 10
7260.731263768234
 20
-461.2123065469827
 30
0.0
 11
7260.731263768234
 21
-459.2123065469827
 31
0.0
  0
LINE
  5
5B4D
330
1F
100
AcDbEntity
  8
圖層4尺寸線
100
AcDbLine
 10
7276.731263768233
 20
-371.2123065469827
 30
0.0
 11
7316.731263768234
 21
-371.2123065469827
 31
0.0
  0
LINE
  5
5B4E
330
1F
100
AcDbEntity
  8
圖層4尺寸線
100
AcDbLine
 10
7276.731263768233
 20
-369.2123065469827
 30
0.0
 11
7316.731263768234
 21
-369.2123065469827
 31
0.0
  0
ARC
  5
5B4F
330
1F
100
AcDbEntity
  8
圖層4尺寸線
100
AcDbCircle
 10
7296.731263768234
 20
-417.2123065469827
 30
0.0
 40
52.00000000000005
100
AcDbArc
 50
67.3801350519691
 51
112.6198649480334
  0
LINE
  5
5B50
330
1F
100
AcDbEntity
  8
圖層4尺寸線
100
AcDbLine
 10
7282.731263768233
 20
-380.2123065469828
 30
0.0
 11
7310.731263768234
 21
-380.2123065469828
 31
0.0
  0
LINE
  5
5B51
330
1F
100
AcDbEntity
  8
圖層4尺寸線
100
AcDbLine
 10
7310.731263768234
 20
-392.8423958266638
 30
0.0
 11
7282.731263768233
 21
-392.842395826664
 31
0.0
  0
LINE
  5
5B52
330
1F
100
AcDbEntity
  8
圖層4尺寸線
100
AcDbLine
 10
7310.731263768234
 20
-385.7123065469827
 30
0.0
 11
7282.731263768233
 21
-385.712306546983
 31
0.0
  0
HATCH
  5
5B53
330
1F
100
AcDbEntity
  8
圖層4尺寸線
100
AcDbHatch
 10
0.0
 20
0.0
 30
0.0
210
0.0
220
0.0
230
1.0
  2
LINE
 70
     0
 71
     0
 91
        1
 92
        7
 72
     0
 73
     1
 93
        4
 10
7282.731263768233
 20
-385.7123065469827
 10
7310.731263768234
 20
-385.7123065469827
 10
7310.731263768234
 20
-392.8423958266638
 10
7282.731263768233
 20
-392.842395826664
 97
        0
 75
     0
 76
     1
 52
90.0
 41
1.0
 77
     0
 78
     1
 53
90.0
 43
8422.895301616527
 44
-984.1534079772403
 45
3.174999999999999
 46
0.0000000000000002
 79
     0
 47
0.1347766415641304
 98
        1
 10
7297.039287441318
 20
-388.9091425025058
  0
LINE
  5
5B54
330
1F
100
AcDbEntity
  8
圖層4尺寸線
100
AcDbLine
 10
7317.731263768234
 20
-429.2123065469827
 30
0.0
 11
7275.731263768233
 21
-429.2123065469827
 31
0.0
  0
LINE
  5
5B55
330
1F
100
AcDbEntity
  8
圖層4尺寸線
100
AcDbLine
 10
7260.731263768234
 20
-395.2123065469828
 30
0.0
 11
7332.731263768234
 21
-395.2123065469828
 31
0.0
  0
LINE
  5
5B56
330
1F
100
AcDbEntity
  8
圖層4尺寸線
100
AcDbLine
 10
7310.731263768234
 20
-380.2123065469828
 30
0.0
 11
7310.731263768234
 21
-395.2123065469828
 31
0.0
  0
LINE
  5
5B57
330
1F
100
AcDbEntity
  8
圖層4尺寸線
100
AcDbLine
 10
7336.731263768233
 20
-389.2123065469828
 30
0.0
 11
7338.731263768234
 21
-389.2123065469828
 31
0.0
  0
LINE
  5
5B58
330
1F
100
AcDbEntity
  8
圖層4尺寸線
100
AcDbLine
 10
7316.731263768234
 20
-371.2123065469827
 30
0.0
 11
7307.731263768234
 21
-371.2123065469827
 31
0.0
  0
LINE
  5
5B59
330
1F
100
AcDbEntity
  8
圖層4尺寸線
100
AcDbLine
 10
7307.731263768234
 20
-380.2123065469828
 30
0.0
 11
7310.731263768234
 21
-380.2123065469828
 31
0.0
  0
LINE
  5
5B5A
330
1F
100
AcDbEntity
  8
圖層4尺寸線
100
AcDbLine
 10
7316.731263768234
 20
-369.2123065469827
 30
0.0
 11
7316.731263768234
 21
-371.2123065469827
 31
0.0
  0
LINE
  5
5B5B
330
1F
100
AcDbEntity
  8
圖層4尺寸線
100
AcDbLine
 10
7307.731263768234
 20
-371.2123065469827
 30
0.0
 11
7307.731263768234
 21
-380.2123065469828
 31
0.0
  0
LINE
  5
5B5C
330
1F
100
AcDbEntity
  8
圖層4尺寸線
100
AcDbLine
 10
7282.731263768233
 20
-380.212306546983
 30
0.0
 11
7282.731263768233
 21
-395.212306546983
 31
0.0
  0
LINE
  5
5B5D
330
1F
100
AcDbEntity
  8
圖層4尺寸線
100
AcDbLine
 10
7276.731263768233
 20
-371.2123065469827
 30
0.0
 11
7285.731263768234
 21
-371.2123065469827
 31
0.0
  0
LINE
  5
5B5E
330
1F
100
AcDbEntity
  8
圖層4尺寸線
100
AcDbLine
 10
7282.731263768233
 20
-380.212306546983
 30
0.0
 11
7285.731263768234
 21
-380.212306546983
 31
0.0
  0
LINE
  5
5B5F
330
1F
100
AcDbEntity
  8
圖層4尺寸線
100
AcDbLine
 10
7285.731263768234
 20
-371.2123065469827
 30
0.0
 11
7285.731263768234
 21
-380.2123065469828
 31
0.0
  0
LINE
  5
5B60
330
1F
100
AcDbEntity
  8
圖層4尺寸線
100
AcDbLine
 10
7276.731263768233
 20
-369.2123065469827
 30
0.0
 11
7276.731263768233
 21
-371.2123065469827
 31
0.0
  0
DIMENSION
  5
5B61
330
1F
100
AcDbEntity
  8
AM_5
100
AcDbDimension
  2
*D3
 10
8144.086668143376
 20
-521.2123065469827
 30
0.0
 11
8069.086668143375
 21
-505.2123065469827
 31
0.0
 70
    32
 71
     5
 42
150.0
  3
AM_ISO$0
100
AcDbAlignedDimension
 13
7994.086668143376
 23
-461.2123065469827
 33
0.0
 14
8144.086668143376
 24
-485.8761497646169
 34
0.0
100
AcDbRotatedDimension
  0
DIMENSION
  5
5B62
330
1F
100
AcDbEntity
  8
AM_5
100
AcDbDimension
  2
*D4
 10
8379.086668143377
 20
-521.2123065469827
 30
0.0
 11
8261.586668143376
 21
-505.2103380430457
 31
0.0
 70
    32
 71
     5
 42
235.0
  3
AM_ISO$0
100
AcDbAlignedDimension
 13
8144.086668143376
 23
-485.8761497646169
 33
0.0
 14
8379.086668143377
 24
-485.8761497646169
 34
0.0
100
AcDbRotatedDimension
  0
DIMENSION
  5
5B63
330
1F
100
AcDbEntity
  8
AM_5
100
AcDbDimension
  2
*D5
 10
8544.086668143377
 20
-521.2123065469827
 30
0.0
 11
8461.586668143375
 21
-505.2123065469827
 31
0.0
 70
    32
 71
     5
 42
165.0
  3
AM_ISO$0
100
AcDbAlignedDimension
 13
8379.086668143377
 23
-485.8761497646169
 33
0.0
 14
8544.086668143377
 24
-487.3646347642525
 34
0.0
100
AcDbRotatedDimension
  0
DIMENSION
  5
5B64
330
1F
100
AcDbEntity
  8
AM_5
100
AcDbDimension
  2
*D6
 10
8574.086668143376
 20
-521.2123065469827
 30
0.0
 11
8631.094542159123
 21
-521.2123065469827
 31
0.0
 70
   160
 71
     5
 42
30.0
  3
AM_ISO$0
100
AcDbAlignedDimension
 13
8544.086668143377
 23
-487.3646347642525
 33
0.0
 14
8574.086668143376
 24
-461.2123065469827
 34
0.0
100
AcDbRotatedDimension
  0
DIMENSION
  5
5B65
330
1F
100
AcDbEntity
  8
AM_5
100
AcDbDimension
  2
*D7
 10
7934.086668143376
 20
647.7876929410178
 30
0.0
 11
7918.086668143377
 21
418.2876931970187
 31
0.0
 70
    32
  1
<>
 71
     5
 42
458.9999994880003
  3
AM_ISO$0
100
AcDbAlignedDimension
 13
8021.086668143377
 23
188.7876934530172
 33
0.0
 14
8096.086668143376
 24
647.7876929410176
 34
0.0
 50
90.0
100
AcDbRotatedDimension
  0
DIMENSION
  5
5B66
330
1F
100
AcDbEntity
  8
AM_5
100
AcDbDimension
  2
*D8
 10
7884.086668143376
 20
-461.2123065469827
 30
0.0
 11
7868.086668143376
 21
93.28769319701876
 31
0.0
 70
    32
  1
<>
 71
     5
 42
1108.999999488
  3
AM_ISO$0
100
AcDbAlignedDimension
 13
8091.086668143375
 23
647.7876929410176
 33
0.0
 14
7994.086668143376
 24
-461.2123065469827
 34
0.0
 50
90.0
100
AcDbRotatedDimension
1001
ACAD
1000
DSTYLE
1002
{
1070
   271
1070
     0
1002
}
  0
INSERT
  5
5F8C
330
1F
100
AcDbEntity
  8
AM_5
100
AcDbBlockReference
  2
*S34
 10
0.0
 20
0.0
 30
0.0
  0
TEXT
  5
5F8D
330
1F
100
AcDbEntity
  8
AM_5
100
AcDbText
 10
7649.472481199831
 20
-44.29541793248995
 30
0.0
 40
20.0
  1
2-M12
100
AcDbText
  0
LINE
  5
60D8
330
1F
100
AcDbEntity
  8
圖層1輪廓線
100
AcDbLine
 10
8159.086668143377
 20
998.7586134150657
 30
0.0
 11
8159.086668143377
 21
968.7586134150656
 31
0.0
  0
LINE
  5
60D9
330
1F
100
AcDbEntity
  8
圖層1輪廓線
100
AcDbLine
 10
8159.086668143377
 20
968.7586134150656
 30
0.0
 11
8169.086668143377
 21
968.7586134150656
 31
0.0
  0
LINE
  5
60DA
330
1F
100
AcDbEntity
  8
圖層1輪廓線
100
AcDbLine
 10
8169.086668143377
 20
968.7586134150656
 30
0.0
 11
8169.086668143377
 21
936.7586134150656
 31
0.0
  0
LINE
  5
60DB
330
1F
100
AcDbEntity
  8
圖層1輪廓線
100
AcDbLine
 10
8169.086668143377
 20
936.7586134150656
 30
0.0
 11
8119.086668143376
 21
936.7586134150656
 31
0.0
  0
LINE
  5
60DC
330
1F
100
AcDbEntity
  8
圖層1輪廓線
100
AcDbLine
 10
8119.086668143376
 20
936.7586134150656
 30
0.0
 11
8119.086668143376
 21
968.7586134150656
 31
0.0
  0
LINE
  5
60DD
330
1F
100
AcDbEntity
  8
圖層1輪廓線
100
AcDbLine
 10
8119.086668143376
 20
968.7586134150656
 30
0.0
 11
8129.086668143377
 21
968.7586134150656
 31
0.0
  0
LINE
  5
60DE
330
1F
100
AcDbEntity
  8
圖層1輪廓線
100
AcDbLine
 10
8129.086668143377
 20
998.7586134150657
 30
0.0
 11
8129.086668143377
 21
968.7586134150656
 31
0.0
  0
LINE
  5
60DF
330
1F
100
AcDbEntity
  8
圖層1輪廓線
100
AcDbLine
 10
8129.086668143377
 20
998.7586134150657
 30
0.0
 11
8102.162524788901
 21
998.7586134150657
 31
0.0
  0
LINE
  5
6148
330
1F
100
AcDbEntity
  8
圖層1輪廓線
100
AcDbLine
 10
8159.086668143377
 20
998.7586134150657
 30
0.0
 11
8186.010811497849
 21
998.7586134150657
 31
0.0
  0
LINE
  5
6155
330
1F
100
AcDbEntity
  8
AM_7
100
AcDbLine
 10
8144.086668143376
 20
932.7586134150656
 30
0.0
 11
8144.086668143376
 21
1007.693037033379
 31
0.0
1001
GENIUS_GENODEF_13
1002
{
1000
HIER
1070
     0
1002
}
1002
{
1000
MANEDIT
1070
     0
1002
}
1002
{
1000
NOSEL
1070
     0
1002
}
1002
{
1000
BEHIND
1070
     0
1002
}
1002
{
1000
OTHER
1070
     0
1002
}
1002
{
1000
REACTOR
1002
}
1001
GENIUS_GENOBJ-N-CEN_13
1002
{
1000
OWNER
1000
GEN
1002
}
1001
GENIUS_GENCEN_19
1002
{
1040
2.0
1002
}
  0
DIMENSION
  5
6198
330
1F
100
AcDbEntity
  8
AM_5
100
AcDbDimension
  2
*D26
 10
8169.086668143377
 20
876.7586124150662
 30
0.0
 11
8144.086668143376
 21
892.7605809190032
 31
0.0
 70
    32
 71
     5
 42
25.0
  3
AM_ISO$0
100
AcDbAlignedDimension
 13
8119.086668143376
 23
936.7586134150656
 33
0.0
 14
8169.086668143377
 24
936.7586134150656
 34
0.0
100
AcDbRotatedDimension
1001
ACAD
1000
DSTYLE
1002
{
1070
   144
1040
0.5
1002
}
  0
DIMENSION
  5
6199
330
1F
100
AcDbEntity
  8
AM_5
100
AcDbDimension
  2
*D27
 10
8159.086668143377
 20
1028.758614415066
 30
0.0
 11
8144.086668143376
 21
1028.758614415066
 31
0.0
 70
   160
 71
     5
 42
15.0
  3
AM_ISO$0
100
AcDbAlignedDimension
 13
8129.086668143377
 23
998.7586134150657
 33
0.0
 14
8159.086668143377
 24
998.7586134150657
 34
0.0
100
AcDbRotatedDimension
1001
ACAD
1000
DSTYLE
1002
{
1070
   144
1040
0.5
1002
}
  0
DIMENSION
  5
619A
330
1F
100
AcDbEntity
  8
AM_5
100
AcDbDimension
  2
*D28
 10
8238.331865697805
 20
968.7586134150656
 30
0.0
 11
8238.331865697805
 21
1054.172826977441
 31
0.0
 70
   160
 71
     5
 42
15.0
  3
AM_ISO$0
100
AcDbAlignedDimension
 13
8186.010811497849
 23
998.7586134150657
 33
0.0
 14
8169.086668143377
 24
968.7586134150656
 34
0.0
 50
90.0
100
AcDbRotatedDimension
1001
ACAD
1000
DSTYLE
1002
{
1070
   144
1040
0.5
1002
}
  0
DIMENSION
  5
619B
330
1F
100
AcDbEntity
  8
AM_5
100
AcDbDimension
  2
*D29
 10
8059.086668143377
 20
936.7586134150656
 30
0.0
 11
8059.086668143377
 21
952.758613415067
 31
0.0
 70
   160
 71
     5
 42
16.0
  3
AM_ISO$0
100
AcDbAlignedDimension
 13
8119.086668143376
 23
968.7586134150656
 33
0.0
 14
8119.086668143376
 24
936.7586134150656
 34
0.0
 50
90.0
100
AcDbRotatedDimension
1001
ACAD
1000
DSTYLE
1002
{
1070
   144
1040
0.5
1002
}
  0
ARC
  5
6263
330
1F
100
AcDbEntity
  8
圖層1輪廓線
100
AcDbCircle
 10
7488.309894504993
 20
678.569970931519
 30
0.0
 40
360.0
100
AcDbArc
 50
59.42606971542506
 51
90.0
  0
LINE
  5
6264
330
1F
100
AcDbEntity
  8
圖層1輪廓線
100
AcDbLine
 10
7558.309894504994
 20
1031.698842591711
 30
0.0
 11
7558.309894504994
 21
938.569970931519
 31
0.0
  0
LINE
  5
6265
102
{ACAD_REACTORS
330
62EC
102
}
330
1F
100
AcDbEntity
  8
圖層2中心線
 48
0.2
100
AcDbLine
 10
7570.732979050717
 20
988.569970931519
 30
0.0
 11
7346.924782043334
 21
988.569970931519
 31
0.0
  0
LINE
  5
6266
330
1F
100
AcDbEntity
  8
圖層1輪廓線
100
AcDbLine
 10
7558.309894504994
 20
938.569970931519
 30
0.0
 11
7418.309894504993
 21
938.569970931519
 31
0.0
  0
LINE
  5
6267
102
{ACAD_REACTORS
330
6314
102
}
330
1F
100
AcDbEntity
  8
圖層1輪廓線
100
AcDbLine
 10
7558.309894504994
 20
1027.698842591711
 30
0.0
 11
7558.309894504994
 21
938.569970931519
 31
0.0
  0
LINE
  5
6268
102
{ACAD_REACTORS
330
62EC
102
}
330
1F
100
AcDbEntity
  8
圖層1輪廓線
100
AcDbLine
 10
7418.309894504993
 20
938.569970931519
 30
0.0
 11
7418.309894504993
 21
1038.569970931519
 31
0.0
  0
LWPOLYLINE
  5
6269
330
1F
100
AcDbEntity
  8
圖層1輪廓線
100
AcDbPolyline
 90
        6
 70
     1
 43
0.0
 10
7466.731263768235
 20
975.8682650093474
 10
7488.731263768234
 20
963.1665590871758
 10
7510.731263768234
 20
975.8682650093474
 10
7510.731263768234
 20
1001.27167685369
 10
7488.731263768234
 20
1013.973382775862
 10
7466.731263768235
 20
1001.271676853692
  0
CIRCLE
  5
626A
330
1F
100
AcDbEntity
  8
圖層1輪廓線
100
AcDbCircle
 10
7488.731263768234
 20
988.569970931519
 30
0.0
 40
22.0
  0
LINE
  5
626B
330
1F
100
AcDbEntity
  8
圖層1輪廓線
100
AcDbLine
 10
7358.309894504994
 20
1007.622529814777
 30
0.0
 11
7358.309894504994
 21
969.517412048262
 31
0.0
  0
LINE
  5
626C
330
1F
100
AcDbEntity
  8
圖層1輪廓線
100
AcDbLine
 10
7398.309894504993
 20
1007.622529814777
 30
0.0
 11
7398.309894504993
 21
969.517412048262
 31
0.0
  0
LINE
  5
626D
330
1F
100
AcDbEntity
  8
圖層1輪廓線
100
AcDbLine
 10
7418.309894504993
 20
1007.622529814777
 30
0.0
 11
7418.309894504993
 21
969.517412048262
 31
0.0
  0
ARC
  5
626E
330
1F
100
AcDbEntity
  8
圖層1輪廓線
100
AcDbCircle
 10
7411.268227838329
 20
969.517412048262
 30
0.0
 40
7.041666666666593
100
AcDbArc
 50
295.5915449920792
 51
64.40845500792076
  0
ARC
  5
626F
330
1F
100
AcDbEntity
  8
圖層1輪廓線
100
AcDbCircle
 10
7405.351561171662
 20
969.517412048262
 30
0.0
 40
7.041666666666593
100
AcDbArc
 50
115.5915449920792
 51
244.4084550079208
  0
ARC
  5
6270
330
1F
100
AcDbEntity
  8
圖層1輪廓線
100
AcDbCircle
 10
7365.351561171661
 20
969.517412048262
 30
0.0
 40
7.04166666666677
100
AcDbArc
 50
115.5915449920792
 51
244.4084550079208
  0
LINE
  5
6271
330
1F
100
AcDbEntity
  8
圖層1輪廓線
100
AcDbLine
 10
7378.309894504993
 20
1013.973382775862
 30
0.0
 11
7378.309894504993
 21
963.1665590871758
 31
0.0
  0
LINE
  5
6272
330
1F
100
AcDbEntity
  8
圖層1輪廓線
100
AcDbLine
 10
7362.309894504993
 20
963.1665590871758
 30
0.0
 11
7378.309894504993
 21
963.1665590871758
 31
0.0
  0
LINE
  5
6273
330
1F
100
AcDbEntity
  8
圖層1輪廓線
100
AcDbLine
 10
7402.309894504994
 20
963.1665590871758
 30
0.0
 11
7414.309894504993
 21
963.1665590871758
 31
0.0
  0
LINE
  5
6274
330
1F
100
AcDbEntity
  8
圖層1輪廓線
100
AcDbLine
 10
7378.309894504993
 20
976.5699709315191
 30
0.0
 11
7398.309894504993
 21
976.5699709315191
 31
0.0
  0
LINE
  5
6275
330
1F
100
AcDbEntity
  8
圖層1輪廓線
100
AcDbLine
 10
7378.309894504993
 20
1000.569970931519
 30
0.0
 11
7398.309894504993
 21
1000.569970931519
 31
0.0
  0
LINE
  5
6276
330
1F
100
AcDbEntity
  8
圖層1輪廓線
100
AcDbLine
 10
7378.309894504993
 20
975.8682650093474
 30
0.0
 11
7362.309894504993
 21
975.8682650093474
 31
0.0
  0
LINE
  5
6277
330
1F
100
AcDbEntity
  8
圖層1輪廓線
100
AcDbLine
 10
7362.309894504993
 20
1001.27167685369
 30
0.0
 11
7378.309894504993
 21
1001.27167685369
 31
0.0
  0
LINE
  5
6278
330
1F
100
AcDbEntity
  8
圖層1輪廓線
100
AcDbLine
 10
7362.309894504993
 20
975.8682650093474
 30
0.0
 11
7378.309894504993
 21
975.8682650093474
 31
0.0
  0
ARC
  5
6279
330
1F
100
AcDbEntity
  8
圖層1輪廓線
100
AcDbCircle
 10
7362.309894504993
 20
975.8682650093474
 30
0.0
 40
0.0000000000001608
100
AcDbArc
 50
204.9206808110626
 51
135.0000000000046
  0
ARC
  5
627A
330
1F
100
AcDbEntity
  8
圖層1輪廓線
100
AcDbCircle
 10
7380.476561171661
 20
988.569970931519
 30
0.0
 40
22.16666666666661
100
AcDbArc
 50
145.0396595945076
 51
214.9603404054924
  0
ARC
  5
627B
330
1F
100
AcDbEntity
  8
圖層1輪廓線
100
AcDbCircle
 10
7365.351561171661
 20
1007.622529814777
 30
0.0
 40
7.041666666666719
100
AcDbArc
 50
115.5915449920792
 51
244.4084550079208
  0
LINE
  5
627C
330
1F
100
AcDbEntity
  8
圖層1輪廓線
100
AcDbLine
 10
7414.309894504993
 20
975.8682650093474
 30
0.0
 11
7402.309894504994
 21
975.8682650093474
 31
0.0
  0
LINE
  5
627D
330
1F
100
AcDbEntity
  8
圖層1輪廓線
100
AcDbLine
 10
7402.309894504994
 20
975.8682650093474
 30
0.0
 11
7414.309894504993
 21
975.8682650093474
 31
0.0
  0
LINE
  5
627E
330
1F
100
AcDbEntity
  8
圖層1輪廓線
100
AcDbLine
 10
7402.309894504994
 20
1001.27167685369
 30
0.0
 11
7414.309894504993
 21
1001.27167685369
 31
0.0
  0
ARC
  5
627F
330
1F
100
AcDbEntity
  8
圖層1輪廓線
100
AcDbCircle
 10
7396.143227838329
 20
988.569970931519
 30
0.0
 40
22.16666666666661
100
AcDbArc
 50
325.0396595945076
 51
34.96034040549238
  0
ARC
  5
6280
330
1F
100
AcDbEntity
  8
圖層1輪廓線
100
AcDbCircle
 10
7411.268227838329
 20
1007.622529814777
 30
0.0
 40
7.041666666666768
100
AcDbArc
 50
295.5915449920792
 51
64.40845500792076
  0
ARC
  5
6281
330
1F
100
AcDbEntity
  8
圖層1輪廓線
100
AcDbCircle
 10
7420.47656117166
 20
988.569970931519
 30
0.0
 40
22.16666666666661
100
AcDbArc
 50
145.0396595945076
 51
214.9603404054924
  0
ARC
  5
6282
330
1F
100
AcDbEntity
  8
圖層1輪廓線
100
AcDbCircle
 10
7405.351561171662
 20
1007.622529814777
 30
0.0
 40
7.041666666666768
100
AcDbArc
 50
115.5915449920792
 51
244.4084550079208
  0
LINE
  5
6283
330
1F
100
AcDbEntity
  8
圖層1輪廓線
100
AcDbLine
 10
7378.309894504993
 20
996.569970931519
 30
0.0
 11
7398.309894504993
 21
996.569970931519
 31
0.0
  0
LINE
  5
6284
330
1F
100
AcDbEntity
  8
圖層1輪廓線
100
AcDbLine
 10
7378.309894504993
 20
980.569970931519
 30
0.0
 11
7398.309894504993
 21
980.569970931519
 31
0.0
  0
LINE
  5
6285
330
1F
100
AcDbEntity
  8
圖層1輪廓線
100
AcDbLine
 10
7362.309894504993
 20
1013.973382775862
 30
0.0
 11
7378.309894504993
 21
1013.973382775862
 31
0.0
  0
LINE
  5
6286
330
1F
100
AcDbEntity
  8
圖層1輪廓線
100
AcDbLine
 10
7402.309894504994
 20
1013.973382775862
 30
0.0
 11
7414.309894504993
 21
1013.973382775862
 31
0.0
  0
LINE
  5
6287
102
{ACAD_REACTORS
330
62BB
102
}
330
1F
100
AcDbEntity
  8
圖層3虛線
100
AcDbLine
 10
7448.309894504993
 20
938.569970931519
 30
0.0
 11
7448.309894504993
 21
1038.569970931519
 31
0.0
  0
LINE
  5
6288
102
{ACAD_REACTORS
330
62BB
102
}
330
1F
100
AcDbEntity
  8
圖層3虛線
100
AcDbLine
 10
7528.309894504992
 20
1038.569970931519
 30
0.0
 11
7528.309894504992
 21
938.569970931519
 31
0.0
  0
LINE
  5
6289
330
1F
100
AcDbEntity
  8
圖層3虛線
100
AcDbLine
 10
7448.309894504993
 20
1000.569970931519
 30
0.0
 11
7418.309894504993
 21
1000.569970931519
 31
0.0
  0
LINE
  5
628A
330
1F
100
AcDbEntity
  8
圖層3虛線
100
AcDbLine
 10
7448.309894504993
 20
976.5699709315191
 30
0.0
 11
7418.309894504993
 21
976.5699709315191
 31
0.0
  0
LINE
  5
628B
330
1F
100
AcDbEntity
  8
圖層3虛線
100
AcDbLine
 10
7448.309894504993
 20
996.569970931519
 30
0.0
 11
7418.309894504993
 21
996.569970931519
 31
0.0
  0
LINE
  5
628C
330
1F
100
AcDbEntity
  8
圖層3虛線
100
AcDbLine
 10
7448.309894504993
 20
980.569970931519
 30
0.0
 11
7418.309894504993
 21
980.569970931519
 31
0.0
  0
LINE
  5
628D
102
{ACAD_REACTORS
330
6314
102
}
330
1F
100
AcDbEntity
  8
圖層3虛線
100
AcDbLine
 10
7448.309894504993
 20
1038.569970931519
 30
0.0
 11
7528.309894504992
 21
1038.569970931519
 31
0.0
  0
LINE
  5
628E
330
1F
100
AcDbEntity
  8
圖層1輪廓線
100
AcDbLine
 10
7351.752654777794
 20
1038.569970931519
 30
0.0
 11
7488.309894504993
 21
1038.569970931519
 31
0.0
  0
LINE
  5
629D
330
1F
100
AcDbEntity
  8
AM_7
100
AcDbLine
 10
7488.731263768234
 20
931.8289430745531
 30
0.0
 11
7488.731263768234
 21
1026.503776054683
 31
0.0
1001
GENIUS_GENOBJ-N-CEN_13
1002
{
1000
OWNER
1000
GEN
1002
}
1001
GENIUS_GENODEF_13
1002
{
1000
HIER
1070
     0
1002
}
1002
{
1000
MANEDIT
1070
     0
1002
}
1002
{
1000
NOSEL
1070
     0
1002
}
1002
{
1000
BEHIND
1070
     0
1002
}
1002
{
1000
OTHER
1070
     0
1002
}
1002
{
1000
REACTOR
1002
}
1001
GENIUS_GENCEN_19
1002
{
1040
2.0
1002
}
  0
DIMENSION
  5
62AD
102
{ACAD_XDICTIONARY
360
62BA
102
}
102
{ACAD_REACTORS
330
62BB
102
}
330
1F
100
AcDbEntity
  8
AM_5
100
AcDbDimension
  2
*D30
 10
7528.309894504992
 20
878.569970931519
 30
0.0
 11
7488.309894504993
 21
894.569970931519
 31
0.0
 70
    32
  1
%%c<>
 71
     5
 42
40.0
  3
AM_ISO$0
100
AcDbAlignedDimension
 13
7448.309894504993
 23
938.569970931519
 33
0.0
 14
7528.309894504992
 24
938.569970931519
 34
0.0
100
AcDbRotatedDimension
1001
ACAD
1000
DSTYLE
1002
{
1070
   144
1040
0.5
1002
}
  0
DIMENSION
  5
62DC
102
{ACAD_XDICTIONARY
360
62EB
102
}
102
{ACAD_REACTORS
330
62EC
102
}
330
1F
100
AcDbEntity
  8
AM_5
100
AcDbDimension
  2
*D31
 10
7298.309894504993
 20
988.569970931519
 30
0.0
 11
7282.307926001056
 21
963.5699709315202
 31
0.0
 70
    32
 71
     5
 42
25.0
  3
AM_ISO$0
100
AcDbAlignedDimension
 13
7418.309894504993
 23
938.569970931519
 33
0.0
 14
7346.924782043334
 24
988.569970931519
 34
0.0
 50
90.0
100
AcDbRotatedDimension
1001
ACAD
1000
DSTYLE
1002
{
1070
   144
1040
0.5
1002
}
  0
DIMENSION
  5
6306
102
{ACAD_XDICTIONARY
360
6313
102
}
102
{ACAD_REACTORS
330
6314
102
}
330
1F
100
AcDbEntity
  8
AM_5
100
AcDbDimension
  2
*D32
 10
7618.309894504993
 20
1038.569970931519
 30
0.0
 11
7602.309894504994
 21
988.5699709315202
 31
0.0
 70
    32
 71
     5
 42
49.99999999999994
  3
AM_ISO$0
100
AcDbAlignedDimension
 13
7558.309894504994
 23
938.569970931519
 33
0.0
 14
7528.309894504992
 24
1038.569970931519
 34
0.0
 50
90.0
100
AcDbRotatedDimension
1001
ACAD
1000
DSTYLE
1002
{
1070
   144
1040
0.5
1002
}
  0
CIRCLE
  5
63CD
330
1F
100
AcDbEntity
  8
0
 62
     1
100
AcDbCircle
 10
8135.943255402946
 20
11.37909076841811
 30
0.0
 40
64.41958023534296
  0
TEXT
  5
63CE
330
1F
100
AcDbEntity
  8
AM_5
 62
     0
100
AcDbText
 10
8051.161395275629
 20
-46.23195426824281
 30
0.0
 40
20.0
  1
A
100
AcDbText
  0
CIRCLE
  5
63CF
330
1F
100
AcDbEntity
  8
0
 62
     1
100
AcDbCircle
 10
8144.086668143378
 20
-328.2382067445544
 30
0.0
 40
34.84724155408339
  0
TEXT
  5
63D0
330
1F
100
AcDbEntity
  8
AM_5
 62
     0
100
AcDbText
 10
8099.967675295035
 20
-298.6914115666368
 30
0.0
 40
20.0
  1
B
100
AcDbText
  0
TEXT
  5
643C
330
1F
100
AcDbEntity
  8
AM_5
 62
     0
100
AcDbText
 10
7480.234922101927
 20
776.7529498917733
 30
0.0
 40
30.0
  1
A 詳細
100
AcDbText
  0
TEXT
  5
643D
330
1F
100
AcDbEntity
  8
AM_5
 62
     0
100
AcDbText
 10
8055.101995548819
 20
776.7529498917733
 30
0.0
 40
30.0
  1
B 詳細
100
AcDbText
  0
TEXT
  5
7680
330
1F
100
AcDbEntity
  8
LOGO
 62
     7
100
AcDbText
 10
7501.909479552401
 20
-767.1428810440444
 30
0.0
 40
25.91624687782805
  1
Order example:
 41
0.8
  7
CHINESET
100
AcDbText
  0
TEXT
  5
7681
330
1F
100
AcDbEntity
  8
LOGO
 62
     7
100
AcDbText
 10
7506.559068560926
 20
-730.658171467449
 30
0.0
 40
38.87437031674208
  1
訂購代號:
  7
CHINESET
100
AcDbText
  0
LINE
  5
7682
330
1F
100
AcDbEntity
  8
LOGO
 62
     1
100
AcDbLine
 10
8860.192078704995
 20
-681.9918803849041
 30
0.0
 11
7063.03070889697
 21
-681.9918803849041
 31
0.0
  0
LINE
  5
7683
330
1F
100
AcDbEntity
  8
LOGO
 62
     1
100
AcDbLine
 10
7490.648782381142
 20
-876.3637319686139
 30
0.0
 11
7490.648782381142
 21
-681.9918803849041
 31
0.0
  0
TEXT
  5
7684
330
1F
100
AcDbEntity
  8
LOGO
  6
Continuous
 62
     5
100
AcDbText
 10
7132.849951704224
 20
-838.1796750576953
 30
0.0
 40
29.15577773755656
  1
金器工業股份有限公司
  7
CHINESET
100
AcDbText
  0
TEXT
  5
7685
330
1F
100
AcDbEntity
  8
LOGO
  6
Continuous
 62
     5
100
AcDbText
 10
7079.296556186489
 20
-867.3411650417863
 30
0.0
 40
19.43718515837104
  1
MINDMAN INDUSTRIAL CO., LTD.
 41
0.85
  7
CHINESET
100
AcDbText
  0
LINE
  5
7686
330
1F
100
AcDbEntity
  8
LOGO
 62
     1
100
AcDbLine
 10
7490.648782381142
 20
-720.8662507016447
 30
0.0
 11
7205.570066725027
 21
-720.8662507016447
 31
0.0
  0
LINE
  5
7687
330
1F
100
AcDbEntity
  8
LOGO
 62
     1
100
AcDbLine
 10
7490.648782381142
 20
-759.7406210183883
 30
0.0
 11
7205.570066725027
 21
-759.7406210183883
 31
0.0
  0
LINE
  5
7688
330
1F
100
AcDbEntity
  8
LOGO
 62
     1
100
AcDbLine
 10
7490.648782381142
 20
-798.6149913351299
 30
0.0
 11
7063.03070889697
 21
-798.6149913351299
 31
0.0
  0
LINE
  5
7689
330
1F
100
AcDbEntity
  8
LOGO
 62
     1
100
AcDbLine
 10
7205.570066725027
 20
-798.6149913351299
 30
0.0
 11
7205.570066725027
 21
-681.9918803849041
 31
0.0
  0
TEXT
  5
768A
330
1F
100
AcDbEntity
  8
LOGO
 62
     6
100
AcDbText
 10
7390.226530663561
 20
-788.8963987559446
 30
0.0
 40
19.43718515837104
  1
m/m
  7
CHINESET
 72
     1
 11
7424.47299975212
 21
-779.177806176759
 31
0.0
100
AcDbText
 73
     2
  0
TEXT
  5
768B
330
1F
100
AcDbEntity
  8
LOGO
 62
     6
100
AcDbText
 10
7390.226530663561
 20
-711.1476581224597
 30
0.0
 40
19.43718515837104
  1
1 : 1
  7
CHINESET
 72
     1
 11
7424.47299975212
 21
-701.4290655432743
 31
0.0
100
AcDbText
 73
     2
  0
LINE
  5
768C
330
1F
100
AcDbEntity
  8
LOGO
 62
     1
100
AcDbLine
 10
7361.067547991989
 20
-798.6149913351299
 30
0.0
 11
7361.067547991989
 21
-681.9918803849041
 31
0.0
  0
CIRCLE
  5
768D
330
1F
100
AcDbEntity
  8
LOGO
  6
Continuous
 62
     6
100
AcDbCircle
 10
7397.057927477415
 20
-740.2618595787259
 30
0.0
 40
11.28568720271654
  0
CIRCLE
  5
768E
330
1F
100
AcDbEntity
  8
LOGO
  6
Continuous
 62
     6
100
AcDbCircle
 10
7397.057927477415
 20
-740.2618595787259
 30
0.0
 40
6.612413635429604
  0
LINE
  5
768F
330
1F
100
AcDbEntity
  8
LOGO
 62
     6
100
AcDbLine
 10
7467.978495395048
 20
-751.5475467814431
 30
0.0
 11
7467.978495395048
 21
-728.9761723760086
 31
0.0
  0
LINE
  5
7690
330
1F
100
AcDbEntity
  8
LOGO
 62
     6
100
AcDbLine
 10
7432.598513843884
 20
-746.8742732141552
 30
0.0
 11
7432.598513843884
 21
-733.6494459432948
 31
0.0
  0
LINE
  5
7691
330
1F
100
AcDbEntity
  8
LOGO
  6
Continuous
 62
     6
100
AcDbLine
 10
7432.598513843884
 20
-733.6494459432948
 30
0.0
 11
7467.978495395048
 21
-728.9761723760086
 31
0.0
  0
LINE
  5
7692
330
1F
100
AcDbEntity
  8
LOGO
  6
Continuous
 62
     6
100
AcDbLine
 10
7432.598513843884
 20
-746.8742732141552
 30
0.0
 11
7467.978495395048
 21
-751.5475467814431
 31
0.0
  0
LINE
  5
7693
330
1F
100
AcDbEntity
  8
LOGO
 62
     6
100
AcDbLine
 10
8317.895008055998
 20
-701.4290655432743
 30
0.0
 11
8213.871054498188
 21
-701.4290655432743
 31
0.0
  0
LINE
  5
7694
330
1F
100
AcDbEntity
  8
LOGO
 62
     6
100
AcDbLine
 10
8336.582139261832
 20
-788.8963987559431
 30
0.0
 11
8215.334709965034
 21
-788.8963987559431
 31
0.0
  0
LINE
  5
7695
330
1F
100
AcDbEntity
  8
LOGO
 62
     6
100
AcDbLine
 10
8317.895008055998
 20
-759.7406210183883
 30
0.0
 11
8213.871054498188
 21
-759.7406210183883
 31
0.0
  0
LINE
  5
7696
330
1F
100
AcDbEntity
  8
LOGO
 62
     6
100
AcDbLine
 10
8336.582139261832
 20
-860.1660776699709
 30
0.0
 11
8215.334709965034
 21
-860.166077669972
 31
0.0
  0
LINE
  5
7697
330
1F
100
AcDbEntity
  8
LOGO
 62
     6
100
AcDbLine
 10
8215.334709965034
 20
-788.8963987559431
 30
0.0
 11
8215.334709965034
 21
-860.1660776699709
 31
0.0
  0
LINE
  5
7698
330
1F
100
AcDbEntity
  8
LOGO
 62
     6
100
AcDbLine
 10
8195.836648124362
 20
-788.8963987559431
 30
0.0
 11
8195.836648124362
 21
-860.166077669972
 31
0.0
  0
LINE
  5
7699
330
1F
100
AcDbEntity
  8
LOGO
 62
     6
100
AcDbLine
 10
8098.236760585576
 20
-788.8963987559431
 30
0.0
 11
8098.236760585576
 21
-860.166077669972
 31
0.0
  0
LINE
  5
769A
330
1F
100
AcDbEntity
  8
LOGO
 62
     6
100
AcDbLine
 10
7888.471391816517
 20
-788.8963987559431
 30
0.0
 11
7888.471391816517
 21
-860.166077669972
 31
0.0
  0
LINE
  5
769B
330
1F
100
AcDbEntity
  8
LOGO
 62
     6
100
AcDbLine
 10
7758.89015742738
 20
-788.8963987559431
 30
0.0
 11
7758.89015742738
 21
-860.166077669972
 31
0.0
  0
LINE
  5
769C
330
1F
100
AcDbEntity
  8
LOGO
 62
     6
100
AcDbLine
 10
7888.471391816517
 20
-860.166077669972
 30
0.0
 11
7758.89015742738
 21
-860.166077669972
 31
0.0
  0
LINE
  5
769D
330
1F
100
AcDbEntity
  8
LOGO
 62
     6
100
AcDbLine
 10
8195.836648124362
 20
-860.166077669972
 30
0.0
 11
8098.236760585576
 21
-860.166077669972
 31
0.0
  0
LINE
  5
769E
330
1F
100
AcDbEntity
  8
LOGO
  6
Continuous
 62
     7
100
AcDbLine
 10
7990.096510277083
 20
-730.7913920257282
 30
0.0
 11
8015.844765480775
 21
-730.7913920257282
 31
0.0
  0
LINE
  5
769F
330
1F
100
AcDbEntity
  8
LOGO
 62
     6
100
AcDbLine
 10
7919.746377043773
 20
-701.4290655432743
 30
0.0
 11
7757.998637573829
 21
-701.4290655432743
 31
0.0
  0
LINE
  5
76A0
330
1F
100
AcDbEntity
  8
LOGO
 62
     6
100
AcDbLine
 10
7919.746377043773
 20
-759.7406210183883
 30
0.0
 11
7757.998637573829
 21
-759.7406210183883
 31
0.0
  0
LINE
  5
76A1
330
1F
100
AcDbEntity
  8
LOGO
 62
     6
100
AcDbLine
 10
7757.998637573829
 20
-701.4290655432743
 30
0.0
 11
7757.998637573829
 21
-759.7406210183883
 31
0.0
  0
LINE
  5
76A2
330
1F
100
AcDbEntity
  8
LOGO
 62
     6
100
AcDbLine
 10
7919.746377043773
 20
-701.4290655432743
 30
0.0
 11
7919.746377043773
 21
-759.7406210183883
 31
0.0
  0
LINE
  5
76A3
330
1F
100
AcDbEntity
  8
LOGO
 62
     6
100
AcDbLine
 10
7838.872507308803
 20
-759.7406210183883
 30
0.0
 11
7838.872507308803
 21
-788.8963987559431
 31
0.0
  0
TEXT
  5
76A4
330
1F
100
AcDbEntity
  8
LOGO
  6
Continuous
 62
     7
100
AcDbText
 10
7770.651167946444
 20
-746.7824975794744
 30
0.0
 40
32.39530859728506
  1
MF103
  7
CHINESET
 72
     1
 11
7841.612320111924
 21
-730.5848432808319
 31
0.0
100
AcDbText
 73
     2
  0
LINE
  5
76A5
330
1F
100
AcDbEntity
  8
LOGO
 62
     6
100
AcDbLine
 10
7888.471391816517
 20
-788.8963987559431
 30
0.0
 11
7758.89015742738
 21
-788.8963987559431
 31
0.0
  0
LINE
  5
76A6
330
1F
100
AcDbEntity
  8
LOGO
 62
     6
100
AcDbLine
 10
8169.021859246271
 20
-701.4290655432743
 30
0.0
 11
8027.879506813333
 21
-701.4290655432743
 31
0.0
  0
LINE
  5
76A7
330
1F
100
AcDbEntity
  8
LOGO
 62
     6
100
AcDbLine
 10
8195.836648124362
 20
-788.8963987559431
 30
0.0
 11
8098.236760585576
 21
-788.8963987559431
 31
0.0
  0
LINE
  5
76A8
330
1F
100
AcDbEntity
  8
LOGO
 62
     6
100
AcDbLine
 10
8169.021859246271
 20
-759.7406210183883
 30
0.0
 11
8027.879506813333
 21
-759.7406210183883
 31
0.0
  0
TEXT
  5
76A9
330
1F
100
AcDbEntity
  8
LOGO
  6
Continuous
 62
     7
100
AcDbText
 10
8040.940859265329
 20
-747.1498624202848
 30
0.0
 40
32.39530859728506
  1
1500
  7
CHINESET
 72
     1
 11
8094.933040260803
 21
-730.9522081216423
 31
0.0
100
AcDbText
 73
     2
  0
LINE
  5
76AA
330
1F
100
AcDbEntity
  8
LOGO
 62
     6
100
AcDbLine
 10
8027.879506813333
 20
-701.4290655432743
 30
0.0
 11
8027.879506813333
 21
-759.7406210183883
 31
0.0
  0
TEXT
  5
76AB
330
1F
100
AcDbEntity
  8
LOGO
  6
Continuous
 62
     7
100
AcDbText
 10
8260.422108662281
 20
-747.1498624202848
 30
0.0
 40
32.39530859728506
  1
?
  7
CHINESET
 72
     1
 11
8268.906594247281
 21
-730.9522081216423
 31
0.0
100
AcDbText
 73
     2
  0
LINE
  5
76AC
330
1F
100
AcDbEntity
  8
LOGO
  6
Continuous
 62
     7
100
AcDbLine
 10
8178.038716367192
 20
-730.7913920257282
 30
0.0
 11
8203.786971570902
 21
-730.7913920257282
 31
0.0
  0
LINE
  5
76AD
330
1F
100
AcDbEntity
  8
LOGO
 62
     6
100
AcDbLine
 10
8213.871054498188
 20
-701.4290655432743
 30
0.0
 11
8213.871054498188
 21
-759.7406210183883
 31
0.0
  0
LINE
  5
76AE
330
1F
100
AcDbEntity
  8
LOGO
 62
     6
100
AcDbLine
 10
8169.021859246271
 20
-701.4290655432743
 30
0.0
 11
8169.021859246271
 21
-759.7406210183883
 31
0.0
  0
LINE
  5
76AF
330
1F
100
AcDbEntity
  8
LOGO
 62
     6
100
AcDbLine
 10
8336.582139261832
 20
-788.8963987559431
 30
0.0
 11
8336.582139261832
 21
-860.1660776699709
 31
0.0
  0
LINE
  5
76B0
330
1F
100
AcDbEntity
  8
LOGO
 62
     6
100
AcDbLine
 10
8317.895008055998
 20
-701.4290655432743
 30
0.0
 11
8317.895008055998
 21
-759.7406210183883
 31
0.0
  0
TEXT
  5
76B1
330
1F
100
AcDbEntity
  8
LOGO
 62
     6
100
AcDbText
 10
7221.597067165884
 20
-711.1380925785827
 30
1273.881094387684
 40
19.43718515837104
  1
比例 Scale:
 41
0.9
  7
CHINESET
 72
     4
 11
7283.318807358515
 21
-701.4290655432743
 31
1273.881094387684
100
AcDbText
  0
TEXT
  5
76B2
330
1F
100
AcDbEntity
  8
LOGO
 62
     6
100
AcDbText
 10
7228.391404656512
 20
-749.7486133100482
 30
1273.881094387684
 40
19.43718515837104
  1
投影 View:
 41
0.9
  7
CHINESET
 72
     4
 11
7283.318807358515
 21
-740.303435860018
 31
1273.881094387684
100
AcDbText
  0
TEXT
  5
76B3
330
1F
100
AcDbEntity
  8
LOGO
 62
     6
100
AcDbText
 10
7230.291736598335
 20
-788.8963987559446
 30
1273.881094387684
 40
19.43718515837104
  1
單位 Unit:
 41
0.9
  7
CHINESET
 72
     4
 11
7283.318807358515
 21
-779.177806176759
 31
1273.881094387684
100
AcDbText
  0
TEXT
  5
76B4
330
1F
100
AcDbEntity
  8
LOGO
  6
Continuous
 62
     6
100
AcDbText
 10
7792.82809976739
 20
-852.067250520651
 30
1273.881094387684
 40
16.19765429864253
  1
Model
  7
CHINESET
 72
     4
 11
7823.680774621948
 21
-843.9684233713299
 31
1273.881094387684
100
AcDbText
  0
TEXT
  5
76B5
330
1F
100
AcDbEntity
  8
LOGO
  6
Continuous
 62
     6
100
AcDbText
 10
8107.817883993865
 20
-849.3676414708774
 30
1273.881094387684
 40
16.19765429864253
  1
output
  7
CHINESET
 72
     4
 11
8145.612410690697
 21
-843.9684233713299
 31
1273.881094387684
100
AcDbText
  0
TEXT
  5
76B6
330
1F
100
AcDbEntity
  8
LOGO
  6
Continuous
 62
     6
100
AcDbText
 10
8250.304868853625
 20
-849.3676414708774
 30
1273.881094387684
 40
16.19765429864253
  1
Option
 41
0.8
  7
CHINESET
 72
     4
 11
8278.997856468365
 21
-843.9684233713299
 31
1273.881094387684
100
AcDbText
  0
TEXT
  5
76B7
330
1F
100
AcDbEntity
  8
LOGO
 62
     6
100
AcDbText
 10
7797.224605934165
 20
-824.1996326918842
 30
1273.881094387684
 40
25.91624687782805
  1
型號
  7
CHINESET
 72
     4
 11
7823.680774621948
 21
-811.5731147740447
 31
1273.881094387684
100
AcDbText
  0
TEXT
  5
76B8
330
1F
100
AcDbEntity
  8
LOGO
 62
     6
100
AcDbText
 10
8107.314098683001
 20
-824.4398341270215
 30
1273.881094387684
 40
25.91624687782805
  1
工作力
  7
CHINESET
 72
     4
 11
8145.612410690697
 21
-811.5731147740447
 31
1273.881094387684
100
AcDbText
  0
TEXT
  5
76B9
330
1F
100
AcDbEntity
  8
LOGO
 62
     6
100
AcDbText
 10
8232.153474993181
 20
-824.3186705712444
 30
1273.881094387684
 40
25.91624687782805
  1
選用配件
 41
0.9
  7
CHINESET
 72
     4
 11
8278.997856468365
 21
-811.5731147740447
 31
1273.881094387684
100
AcDbText
  0
LWPOLYLINE
  5
76BA
330
1F
100
AcDbEntity
  8
0
 62
     4
100
AcDbPolyline
 90
        4
 70
     1
 43
0.0
 10
7063.030708896976
 20
-681.9918803849037
 10
8860.192078705004
 20
-681.9918803849037
 10
8860.192078705004
 20
1185.793982480757
 10
7063.030708896976
 20
1185.793982480757
1001
GENIUS_GENREC_14
1002
{
1000
PYDIR
1011
7063.030708896976
1021
1185.793982480757
1031
0.0
1002
}
1002
{
1000
PXDIR
1011
8860.192078705004
1021
-681.9918803849037
1031
0.0
1002
}
1002
{
1000
PORI
1011
7063.030708896976
1021
-681.9918803849037
1031
0.0
1002
}
1002
{
1000
PINS
1011
7063.030708896976
1021
-681.9918803849037
1031
0.0
1002
}
1002
{
1000
PINS2
1011
8860.192078705004
1021
1185.793982480757
1031
0.0
1002
}
1002
{
1000
C
1070
     1
1002
}
1001
GENIUS_GENODEF_13
1002
{
1000
HIER
1070
     0
1002
}
1002
{
1000
MANEDIT
1070
     0
1002
}
1002
{
1000
NOSEL
1070
     0
1002
}
1002
{
1000
BEHIND
1070
     0
1002
}
1002
{
1000
OTHER
1070
     0
1002
}
1002
{
1000
REACTOR
1002
}
1001
GENIUS_GENOBJ-N-REC_13
1002
{
1000
OWNER
1000
GEN
1002
}
  0
SOLID
  5
76BB
330
1F
100
AcDbEntity
  8
LOGO
 62
     5
100
AcDbTrace
 10
7083.197100441882
 20
-766.3034376747825
 30
0.0
 11
7091.601229272614
 21
-766.3034376747856
 31
0.0
 12
7126.666732325024
 22
-686.6091125556835
 32
0.0
 13
7135.070861155757
 23
-686.6091125556906
 33
0.0
  0
SOLID
  5
76BC
330
1F
100
AcDbEntity
  8
LOGO
 62
     5
100
AcDbTrace
 10
7095.078799823274
 20
-766.3034376747825
 30
0.0
 11
7103.482928654006
 21
-766.3034376747825
 31
0.0
 12
7135.070861155757
 22
-692.9846585652161
 32
0.0
 13
7126.666732325024
 23
-723.7997976112678
 33
0.0
  0
SOLID
  5
76BD
330
1F
100
AcDbEntity
  8
LOGO
 62
     2
100
AcDbTrace
 10
7091.601229272614
 20
-766.3034376747856
 30
0.0
 11
7095.078799823274
 21
-766.3034376747825
 31
0.0
 12
7135.070861155757
 22
-686.6091125556906
 32
0.0
 13
7138.548431706417
 23
-686.6091125556906
 33
0.0
  0
SOLID
  5
76BE
330
1F
100
AcDbEntity
  8
LOGO
 62
     5
100
AcDbTrace
 10
7069.723220981358
 20
-795.2831922635428
 30
0.0
 11
7072.621196440234
 21
-795.2831922635428
 31
0.0
 12
7080.782120892816
 22
-780.7933149691652
 32
0.0
 13
7083.680096351692
 23
-780.7933149691652
 33
0.0
  0
SOLID
  5
76BF
330
1F
100
AcDbEntity
  8
LOGO
 62
     5
100
AcDbTrace
 10
7080.782120892816
 20
-780.7933149691652
 30
0.0
 11
7083.680096351692
 21
-780.7933149691652
 31
0.0
 12
7080.782120892816
 22
-795.2831922635428
 32
0.0
 13
7083.680096351692
 23
-795.2831922635428
 33
0.0
  0
SOLID
  5
76C0
330
1F
100
AcDbEntity
  8
LOGO
 62
     5
100
AcDbTrace
 10
7080.782120892816
 20
-795.2831922635428
 30
0.0
 11
7083.680096351692
 21
-795.2831922635428
 31
0.0
 12
7091.841020804276
 22
-780.7933149691652
 32
0.0
 13
7094.73899626315
 23
-780.7933149691652
 33
0.0
  0
SOLID
  5
76C1
330
1F
100
AcDbEntity
  8
LOGO
 62
     5
100
AcDbTrace
 10
7091.841020804276
 20
-780.7933149691652
 30
0.0
 11
7094.73899626315
 21
-780.7933149691652
 31
0.0
 12
7091.841020804276
 22
-795.2831922635428
 32
0.0
 13
7094.73899626315
 23
-795.2831922635428
 33
0.0
  0
POLYLINE
  5
76C2
330
1F
100
AcDbEntity
  8
LOGO
 62
     5
100
AcDb2dPolyline
 66
     1
 10
0.0
 20
0.0
 30
0.0
 40
2.90261965031674
 41
2.90261965031674
  0
VERTEX
  5
76C3
330
76C2
100
AcDbEntity
  8
LOGO
 62
     5
100
AcDbVertex
100
AcDb2dVertex
 10
7188.980170978019
 20
-786.589265886918
 30
0.0
 42
1.0
  0
VERTEX
  5
76C4
330
76C2
100
AcDbEntity
  8
LOGO
 62
     5
100
AcDbVertex
100
AcDb2dVertex
 10
7180.27231202708
 20
-786.589265886918
 30
0.0
 42
1.0
  0
SEQEND
  5
76C5
330
76C2
100
AcDbEntity
  8
LOGO
 62
     5
  0
POLYLINE
  5
76C6
330
1F
100
AcDbEntity
  8
LOGO
 62
     5
100
AcDb2dPolyline
 66
     1
 10
0.0
 20
0.0
 30
0.0
 70
     1
  0
VERTEX
  5
76C7
330
76C6
100
AcDbEntity
  8
LOGO
 62
     5
100
AcDbVertex
100
AcDb2dVertex
 10
7163.857610578958
 20
-788.0382536163543
 30
0.0
 42
1.000000057330635
  0
VERTEX
  5
76C8
330
76C6
100
AcDbEntity
  8
LOGO
 62
     5
100
AcDbVertex
100
AcDb2dVertex
 10
7172.551536955602
 20
-788.0382536163543
 30
0.0
 42
1.000000057330635
  0
SEQEND
  5
76C9
330
76C6
100
AcDbEntity
  8
LOGO
 62
     5
  0
CIRCLE
  5
76CA
330
1F
100
AcDbEntity
  8
LOGO
 62
     5
100
AcDbCircle
 10
7168.20457376728
 20
-788.0382536163543
 30
0.0
 40
4.346963188314353
  0
POLYLINE
  5
76CB
330
1F
100
AcDbEntity
  8
LOGO
 62
     5
100
AcDb2dPolyline
 66
     1
 10
0.0
 20
0.0
 30
0.0
 70
     1
 40
2.90261965031674
 41
2.90261965031674
  0
VERTEX
  5
76CC
330
76CB
100
AcDbEntity
  8
LOGO
 62
     5
100
AcDbVertex
100
AcDb2dVertex
 10
7162.399334466641
 20
-788.0382536163543
 30
0.0
 42
1.0
  0
VERTEX
  5
76CD
330
76CB
100
AcDbEntity
  8
LOGO
 62
     5
100
AcDbVertex
100
AcDb2dVertex
 10
7174.009813067918
 20
-788.0382536163543
 30
0.0
 42
1.0
  0
SEQEND
  5
76CE
330
76CB
100
AcDbEntity
  8
LOGO
 62
     5
  0
LINE
  5
76CF
330
1F
100
AcDbEntity
  8
LOGO
 62
     5
100
AcDbLine
 10
7190.422192420308
 20
-795.2831922635428
 30
0.0
 11
7190.422192420308
 21
-786.589265886918
 31
0.0
  0
SOLID
  5
76D0
330
1F
100
AcDbEntity
  8
LOGO
 62
     5
100
AcDbTrace
 10
7172.551247158056
 20
-780.7933149691652
 30
0.0
 11
7175.449222616929
 21
-780.7933149691652
 31
0.0
 12
7172.551247158056
 22
-795.2831922635428
 32
0.0
 13
7175.449222616929
 23
-795.2831922635428
 33
0.0
  0
SOLID
  5
76D1
330
1F
100
AcDbEntity
  8
LOGO
 62
     5
100
AcDbTrace
 10
7178.83029058479
 20
-795.2831922635428
 30
0.0
 11
7181.728266043683
 21
-795.2831922635428
 31
0.0
 12
7178.83029058479
 22
-780.7933149691652
 32
0.0
 13
7181.728266043683
 23
-780.7933149691652
 33
0.0
  0
SOLID
  5
76D2
330
1F
100
AcDbEntity
  8
LOGO
 62
     5
100
AcDbTrace
 10
7187.524216961434
 20
-786.589265886918
 30
0.0
 11
7190.422192420308
 21
-786.589265886918
 31
0.0
 12
7187.524216961434
 22
-795.2831922635428
 32
0.0
 13
7190.422192420308
 23
-795.2831922635428
 33
0.0
  0
SOLID
  5
76D3
330
1F
100
AcDbEntity
  8
LOGO
 62
     5
100
AcDbTrace
 10
7178.540493038916
 20
-692.9846585652161
 30
0.0
 11
7170.136364208166
 21
-723.7997976112678
 31
0.0
 12
7178.540493038916
 22
-766.3034376747856
 32
0.0
 13
7170.136364208166
 23
-766.3034376747856
 33
0.0
  0
SOLID
  5
76D4
330
1F
100
AcDbEntity
  8
LOGO
 62
     5
100
AcDbTrace
 10
7182.018063589558
 20
-766.3034376747856
 30
0.0
 11
7190.422192420308
 21
-766.3034376747856
 31
0.0
 12
7182.018063589558
 22
-686.6091125556906
 32
0.0
 13
7190.422192420308
 23
-686.6091125556835
 33
0.0
  0
SOLID
  5
76D5
330
1F
100
AcDbEntity
  8
LOGO
 62
     2
100
AcDbTrace
 10
7178.540493038916
 20
-686.6091125556835
 30
0.0
 11
7182.018063589558
 21
-686.6091125556906
 31
0.0
 12
7178.540493038916
 22
-766.3034376747856
 32
0.0
 13
7182.018063589558
 23
-766.3034376747856
 33
0.0
  0
POLYLINE
  5
76D6
330
1F
100
AcDbEntity
  8
LOGO
 62
     5
100
AcDb2dPolyline
 66
     1
 10
0.0
 20
0.0
 30
0.0
 40
2.90261965031674
 41
2.90261965031674
  0
VERTEX
  5
76D7
330
76D6
100
AcDbEntity
  8
LOGO
 62
     5
100
AcDbVertex
100
AcDb2dVertex
 10
7147.442329535762
 20
-786.589265886918
 30
0.0
 42
1.0
  0
VERTEX
  5
76D8
330
76D6
100
AcDbEntity
  8
LOGO
 62
     5
100
AcDbVertex
100
AcDb2dVertex
 10
7138.734470584823
 20
-786.589265886918
 30
0.0
 42
1.0
  0
SEQEND
  5
76D9
330
76D6
100
AcDbEntity
  8
LOGO
 62
     5
  0
POLYLINE
  5
76DA
330
1F
100
AcDbEntity
  8
LOGO
 62
     5
100
AcDb2dPolyline
 66
     1
 10
0.0
 20
0.0
 30
0.0
 40
2.90261965031674
 41
2.90261965031674
  0
VERTEX
  5
76DB
330
76DA
100
AcDbEntity
  8
LOGO
 62
     5
100
AcDbVertex
100
AcDb2dVertex
 10
7156.136255912386
 20
-786.589265886918
 30
0.0
 42
1.0
  0
VERTEX
  5
76DC
330
76DA
100
AcDbEntity
  8
LOGO
 62
     5
100
AcDbVertex
100
AcDb2dVertex
 10
7147.428396961449
 20
-786.589265886918
 30
0.0
 42
1.0
  0
SEQEND
  5
76DD
330
76DA
100
AcDbEntity
  8
LOGO
 62
     5
  0
POLYLINE
  5
76DE
330
1F
100
AcDbEntity
  8
LOGO
 62
     5
100
AcDb2dPolyline
 66
     1
 10
0.0
 20
0.0
 30
0.0
 40
2.90261965031674
 41
2.90261965031674
  0
VERTEX
  5
76DF
330
76DE
100
AcDbEntity
  8
LOGO
 62
     5
100
AcDbVertex
100
AcDb2dVertex
 10
7114.598414470131
 20
-786.589265886918
 30
0.0
 42
1.0
  0
VERTEX
  5
76E0
330
76DE
100
AcDbEntity
  8
LOGO
 62
     5
100
AcDbVertex
100
AcDb2dVertex
 10
7105.890555519192
 20
-786.589265886918
 30
0.0
 42
1.0
  0
SEQEND
  5
76E1
330
76DE
100
AcDbEntity
  8
LOGO
 62
     5
  0
SOLID
  5
76E2
330
1F
100
AcDbEntity
  8
LOGO
 62
     5
100
AcDbTrace
 10
7104.448534076921
 20
-780.7933149691652
 30
0.0
 11
7107.346509535777
 21
-780.7933149691652
 31
0.0
 12
7104.448534076921
 22
-795.2831922635428
 32
0.0
 13
7107.346509535777
 23
-795.2831922635428
 33
0.0
  0
SOLID
  5
76E3
330
1F
100
AcDbEntity
  8
LOGO
 62
     5
100
AcDbTrace
 10
7113.142460453545
 20
-786.589265886918
 30
0.0
 11
7116.04043591242
 21
-786.589265886918
 31
0.0
 12
7113.142460453545
 22
-795.2831922635428
 32
0.0
 13
7116.04043591242
 23
-795.2831922635428
 33
0.0
  0
POLYLINE
  5
76E4
330
1F
100
AcDbEntity
  8
LOGO
 62
     5
100
AcDb2dPolyline
 66
     1
 10
0.0
 20
0.0
 30
0.0
 70
     1
 40
2.90261965031674
 41
2.90261965031674
  0
VERTEX
  5
76E5
330
76E4
100
AcDbEntity
  8
LOGO
 62
     5
100
AcDbVertex
100
AcDb2dVertex
 10
7120.861493024385
 20
-788.0382536163543
 30
0.0
 42
1.0
  0
VERTEX
  5
76E6
330
76E4
100
AcDbEntity
  8
LOGO
 62
     5
100
AcDbVertex
100
AcDb2dVertex
 10
7132.471971625661
 20
-788.0382536163543
 30
0.0
 42
1.0
  0
SEQEND
  5
76E7
330
76E4
100
AcDbEntity
  8
LOGO
 62
     5
  0
SOLID
  5
76E8
330
1F
100
AcDbEntity
  8
LOGO
 62
     5
100
AcDbTrace
 10
7131.013405715798
 20
-776.4463517808479
 30
0.0
 11
7133.911381174674
 21
-776.4463517808479
 31
0.0
 12
7131.013405715798
 22
-795.2831922635428
 32
0.0
 13
7133.911381174674
 23
-795.2831922635428
 33
0.0
  0
SOLID
  5
76E9
330
1F
100
AcDbEntity
  8
LOGO
 62
     5
100
AcDbTrace
 10
7137.292449142534
 20
-780.7933149691652
 30
0.0
 11
7140.190424601427
 21
-780.7933149691652
 31
0.0
 12
7137.292449142534
 22
-795.2831922635428
 32
0.0
 13
7140.190424601427
 23
-795.2831922635428
 33
0.0
  0
SOLID
  5
76EA
330
1F
100
AcDbEntity
  8
LOGO
 62
     5
100
AcDbTrace
 10
7145.986375519178
 20
-786.589265886918
 30
0.0
 11
7148.88435097805
 21
-786.589265886918
 31
0.0
 12
7145.986375519178
 22
-795.2831922635428
 32
0.0
 13
7148.88435097805
 23
-795.2831922635428
 33
0.0
  0
SOLID
  5
76EB
330
1F
100
AcDbEntity
  8
LOGO
 62
     5
100
AcDbTrace
 10
7154.680301895803
 20
-786.589265886918
 30
0.0
 11
7157.578277354676
 21
-786.589265886918
 31
0.0
 12
7154.680301895803
 22
-795.2831922635486
 32
0.0
 13
7157.578277354676
 23
-795.2831922635486
 33
0.0
  0
SOLID
  5
76EC
330
1F
100
AcDbEntity
  8
LOGO
 62
     5
100
AcDbTrace
 10
7098.169490650168
 20
-778.764732147953
 30
0.0
 11
7101.067466109043
 21
-778.764732147953
 31
0.0
 12
7098.169490650168
 22
-776.4463517808479
 32
0.0
 13
7101.067466109043
 23
-776.4463517808479
 33
0.0
  0
SOLID
  5
76ED
330
1F
100
AcDbEntity
  8
LOGO
 62
     5
100
AcDbTrace
 10
7098.169490650168
 20
-780.7933149691652
 30
0.0
 11
7101.067466109043
 21
-780.7933149691652
 31
0.0
 12
7098.169490650168
 22
-795.2831922635486
 32
0.0
 13
7101.067466109043
 23
-795.2831922635428
 33
0.0
  0
SOLID
  5
76EE
330
1F
100
AcDbEntity
  8
LOGO
 62
     5
100
AcDbTrace
 10
7126.666732325024
 20
-766.3034376747825
 30
0.0
 11
7135.070861155757
 21
-766.3034376747825
 31
0.0
 12
7126.666732325024
 22
-723.7997976112678
 32
0.0
 13
7135.070861155757
 23
-692.9846585652161
 33
0.0
  0
SOLID
  5
76EF
330
1F
100
AcDbEntity
  8
LOGO
 62
     5
100
AcDbTrace
 10
7138.548431706417
 20
-686.6091125556906
 30
0.0
 11
7146.952560537167
 21
-686.6091125556835
 31
0.0
 12
7138.548431706417
 22
-759.9278916652569
 32
0.0
 13
7146.952560537167
 23
-729.1127526192049
 33
0.0
  0
SOLID
  5
76F0
330
1F
100
AcDbEntity
  8
LOGO
 62
     2
100
AcDbTrace
 10
7135.070861155757
 20
-686.6091125556906
 30
0.0
 11
7138.548431706417
 21
-686.6091125556906
 31
0.0
 12
7135.070861155757
 22
-766.3034376747825
 32
0.0
 13
7138.548431706417
 23
-766.3034376747825
 33
0.0
  0
SOLID
  5
76F1
330
1F
100
AcDbEntity
  8
LOGO
 62
     5
100
AcDbTrace
 10
7138.548431706417
 20
-759.9278916652569
 30
0.0
 11
7146.952560537167
 21
-729.1127526192049
 31
0.0
 12
7178.540493038916
 22
-686.6091125556835
 32
0.0
 13
7170.136364208166
 23
-686.6091125556835
 33
0.0
  0
SOLID
  5
76F2
330
1F
100
AcDbEntity
  8
LOGO
 62
     5
100
AcDbTrace
 10
7138.548431706417
 20
-766.3034376747825
 30
0.0
 11
7146.952560537167
 21
-766.3034376747825
 31
0.0
 12
7178.540493038916
 22
-692.9846585652161
 32
0.0
 13
7170.136364208166
 23
-723.7997976112678
 33
0.0
  0
SOLID
  5
76F3
330
1F
100
AcDbEntity
  8
LOGO
 62
     2
100
AcDbTrace
 10
7135.070861155757
 20
-766.3034376747825
 30
0.0
 11
7138.548431706417
 21
-766.3034376747825
 31
0.0
 12
7178.540493038916
 22
-686.6091125556835
 32
0.0
 13
7182.018063589558
 23
-686.6091125556906
 33
0.0
  0
TEXT
  5
76F4
330
1F
100
AcDbEntity
  8
0
100
AcDbText
 10
7501.731491946992
 20
-866.0232261817023
 30
0.0
 40
16.20800279999999
  1
1050701
 41
0.8
  7
CHINESET
 72
     1
 11
7539.087079352707
 21
-866.0232261817023
 31
0.0
100
AcDbText
  0
LINE
  5
76F5
330
1F
100
AcDbEntity
  8
LOGO
 62
     1
100
AcDbLine
 10
7589.095457465575
 20
-837.4893616518713
 30
0.0
 11
7589.095457465575
 21
-876.3637319686139
 31
0.0
  0
LINE
  5
76F6
330
1F
100
AcDbEntity
  8
LOGO
 62
     1
100
AcDbLine
 10
7589.095457465575
 20
-837.4893616518713
 30
0.0
 11
7490.648782381142
 21
-837.4893616518713
 31
0.0
  0
LWPOLYLINE
  5
76F7
330
1F
100
AcDbEntity
  8
0
 62
     1
100
AcDbPolyline
 90
        4
 70
     1
 43
0.0
 10
7063.030708896976
 20
-681.9918803849037
 10
8860.192078705004
 20
-681.9918803849037
 10
8860.192078705004
 20
-876.3637319686141
 10
7063.030708896976
 20
-876.3637319686141
1001
GENIUS_GENREC_14
1002
{
1000
PYDIR
1011
7063.030708896976
1021
-876.3637319686141
1031
0.0
1002
}
1002
{
1000
PXDIR
1011
8860.192078705004
1021
-681.9918803849037
1031
0.0
1002
}
1002
{
1000
PORI
1011
7063.030708896976
1021
-681.9918803849037
1031
0.0
1002
}
1002
{
1000
PINS
1011
7063.030708896976
1021
-681.9918803849037
1031
0.0
1002
}
1002
{
1000
PINS2
1011
8860.192078705004
1021
-876.3637319686141
1031
0.0
1002
}
1002
{
1000
C
1070
     1
1002
}
1001
GENIUS_GENOBJ-N-REC_13
1002
{
1000
OWNER
1000
GEN
1002
}
1001
GENIUS_GENODEF_13
1002
{
1000
HIER
1070
     0
1002
}
1002
{
1000
MANEDIT
1070
     0
1002
}
1002
{
1000
NOSEL
1070
     0
1002
}
1002
{
1000
BEHIND
1070
     0
1002
}
1002
{
1000
OTHER
1070
     0
1002
}
1002
{
1000
REACTOR
1002
}
  0
LINE
  5
76F8
330
1F
100
AcDbEntity
  8
LOGO
 62
     6
100
AcDbLine
 10
8087.784194237492
 20
-788.8963987559431
 30
0.0
 11
8087.784194237492
 21
-860.166077669972
 31
0.0
  0
LINE
  5
76F9
330
1F
100
AcDbEntity
  8
LOGO
 62
     6
100
AcDbLine
 10
7903.006392968271
 20
-788.8963987559431
 30
0.0
 11
7903.006392968271
 21
-860.166077669972
 31
0.0
  0
LINE
  5
76FA
330
1F
100
AcDbEntity
  8
LOGO
 62
     6
100
AcDbLine
 10
8087.784194237492
 20
-860.166077669972
 30
0.0
 11
7903.006392968271
 21
-860.166077669972
 31
0.0
  0
LINE
  5
76FB
330
1F
100
AcDbEntity
  8
LOGO
 62
     6
100
AcDbLine
 10
7975.819823398488
 20
-701.4290655432743
 30
0.0
 11
7927.49531010036
 21
-701.4290655432743
 31
0.0
  0
LINE
  5
76FC
330
1F
100
AcDbEntity
  8
LOGO
 62
     6
100
AcDbLine
 10
7975.819823398488
 20
-759.7406210183883
 30
0.0
 11
7927.49531010036
 21
-759.7406210183883
 31
0.0
  0
LINE
  5
76FD
330
1F
100
AcDbEntity
  8
LOGO
 62
     6
100
AcDbLine
 10
7927.49531010036
 20
-701.4290655432743
 30
0.0
 11
7927.49531010036
 21
-759.7406210183883
 31
0.0
  0
LINE
  5
76FE
330
1F
100
AcDbEntity
  8
LOGO
 62
     6
100
AcDbLine
 10
7975.819823398488
 20
-701.4290655432743
 30
0.0
 11
7975.819823398488
 21
-759.7406210183883
 31
0.0
  0
LINE
  5
76FF
330
1F
100
AcDbEntity
  8
LOGO
 62
     6
100
AcDbLine
 10
7995.395293602881
 20
-774.3185098871658
 30
0.0
 11
7995.395293602881
 21
-788.8963987559431
 31
0.0
  0
TEXT
  5
7700
330
1F
100
AcDbEntity
  8
LOGO
  6
Continuous
 62
     7
100
AcDbText
 10
7938.005476024446
 20
-746.7824975794744
 30
0.0
 40
32.39530859728506
  1
A
  7
CHINESET
 72
     1
 11
7950.346545966269
 21
-730.5848432808319
 31
0.0
100
AcDbText
 73
     2
  0
LINE
  5
7701
330
1F
100
AcDbEntity
  8
LOGO
 62
     6
100
AcDbLine
 10
8087.784194237492
 20
-788.8963987559431
 30
0.0
 11
7903.006392968271
 21
-788.8963987559431
 31
0.0
  0
TEXT
  5
7702
330
1F
100
AcDbEntity
  8
LOGO
  6
Continuous
 62
     6
100
AcDbText
 10
7912.104808872847
 20
-849.3676414708774
 30
1273.881094387684
 40
16.19765429864253
  1
Series symbol
  7
CHINESET
 72
     4
 11
7994.635714108787
 21
-843.9684233713299
 31
1273.881094387684
100
AcDbText
  0
TEXT
  5
7703
330
1F
100
AcDbEntity
  8
LOGO
 62
     6
100
AcDbText
 10
7941.723376733222
 20
-824.1996326918842
 30
1273.881094387684
 40
25.91624687782805
  1
系列編號
  7
CHINESET
 72
     4
 11
7994.635714108787
 21
-811.5731147740447
 31
1273.881094387684
100
AcDbText
  0
LINE
  5
7704
330
1F
100
AcDbEntity
  8
LOGO
 62
     6
100
AcDbLine
 10
7995.395293602881
 20
-774.3185098871658
 30
0.0
 11
7951.657566749425
 21
-774.3185098871658
 31
0.0
  0
LINE
  5
7705
330
1F
100
AcDbEntity
  8
LOGO
 62
     6
100
AcDbLine
 10
7951.657566749425
 20
-759.7406210183883
 30
0.0
 11
7951.657566749425
 21
-774.3185098871658
 31
0.0
  0
LINE
  5
7706
330
1F
100
AcDbEntity
  8
LOGO
 62
     6
100
AcDbLine
 10
8147.03670435497
 20
-774.3185098871658
 30
0.0
 11
8147.03670435497
 21
-788.8963987559431
 31
0.0
  0
LINE
  5
7707
330
1F
100
AcDbEntity
  8
LOGO
 62
     6
100
AcDbLine
 10
8147.03670435497
 20
-774.3185098871658
 30
0.0
 11
8098.450683029801
 21
-774.3185098871658
 31
0.0
  0
LINE
  5
7708
330
1F
100
AcDbEntity
  8
LOGO
 62
     6
100
AcDbLine
 10
8098.450683029803
 20
-759.7406210183883
 30
0.0
 11
8098.450683029801
 21
-774.3185098871658
 31
0.0
  0
LINE
  5
7709
330
1F
100
AcDbEntity
  8
LOGO
 62
     6
100
AcDbLine
 10
8265.883031277093
 20
-759.7406210183883
 30
0.0
 11
8265.883031277093
 21
-788.8963987559431
 31
0.0
  0
LINE
  5
7797
330
1F
100
AcDbEntity
  8
圖層4尺寸線
100
AcDbLine
 10
7676.231263768234
 20
184.7876934530169
 30
0.0
 11
7638.231263768233
 21
184.7876934530167
 31
0.0
  0
LINE
  5
7798
330
1F
100
AcDbEntity
  8
圖層4尺寸線
100
AcDbLine
 10
7676.231263768234
 20
196.7876934530168
 30
0.0
 11
7638.231263768233
 21
196.7876934530166
 31
0.0
  0
LINE
  5
7799
330
1F
100
AcDbEntity
  8
圖層4尺寸線
100
AcDbLine
 10
7682.231263768233
 20
175.7876934530168
 30
0.0
 11
7632.231263768233
 21
175.7876934530168
 31
0.0
  0
LINE
  5
779A
330
1F
100
AcDbEntity
  8
圖層4尺寸線
100
AcDbLine
 10
7682.231263768233
 20
200.7876934530168
 30
0.0
 11
7632.231263768233
 21
200.7876934530168
 31
0.0
  0
TEXT
  5
779B
330
1F
100
AcDbEntity
  8
圖層4尺寸線
100
AcDbText
 10
7621.266630039034
 20
92.79755157332909
 30
0.0
 40
5.0
  1
電源開關       緊急停止
  7
WIN
 72
     4
 11
7657.800060271592
 21
95.03592366635235
 31
0.0
100
AcDbText
  0
LWPOLYLINE
  5
779C
330
1F
100
AcDbEntity
  8
圖層4尺寸線
100
AcDbPolyline
 90
        4
 70
     1
 43
0.0
 10
7613.932348903663
 20
101.5094819988012
 10
7701.667771639522
 20
101.5094819988012
 10
7701.667771639522
 20
88.56236533390347
 10
7613.932348903663
 20
88.56236533390347
  0
LINE
  5
779D
330
1F
100
AcDbEntity
  8
圖層4尺寸線
100
AcDbLine
 10
7646.823457407688
 20
121.482062923637
 30
0.0
 11
7655.218414936381
 21
130.0236392959531
 31
0.0
  0
LINE
  5
779E
330
1F
100
AcDbEntity
  8
圖層4尺寸線
100
AcDbLine
 10
7639.231263768234
 20
107.7876934530168
 30
0.0
 11
7675.231263768234
 21
107.7876934530168
 31
0.0
  0
LINE
  5
779F
330
1F
100
AcDbEntity
  8
圖層4尺寸線
100
AcDbLine
 10
7639.231263768234
 20
155.7876934530168
 30
0.0
 11
7675.231263768234
 21
155.7876934530168
 31
0.0
  0
CIRCLE
  5
77A0
330
1F
100
AcDbEntity
  8
圖層4尺寸線
100
AcDbCircle
 10
7657.231263768233
 20
134.7876934530168
 30
0.0
 40
5.0
  0
CIRCLE
  5
77A1
330
1F
100
AcDbEntity
  8
圖層4尺寸線
100
AcDbCircle
 10
7657.231263768233
 20
134.7876934530168
 30
0.0
 40
17.0
  0
CIRCLE
  5
77A2
330
1F
100
AcDbEntity
  8
圖層4尺寸線
100
AcDbCircle
 10
7657.231263768233
 20
220.7876934530168
 30
0.0
 40
5.0
  0
LINE
  5
77A3
330
1F
100
AcDbEntity
  8
圖層4尺寸線
100
AcDbLine
 10
7635.231263768233
 20
159.7876934530168
 30
0.0
 11
7679.231263768234
 21
159.7876934530168
 31
0.0
  0
LINE
  5
77A4
330
1F
100
AcDbEntity
  8
圖層4尺寸線
100
AcDbLine
 10
7635.231263768233
 20
103.7876934530168
 30
0.0
 11
7679.231263768234
 21
103.7876934530168
 31
0.0
  0
LINE
  5
77A5
330
1F
100
AcDbEntity
  8
圖層4尺寸線
100
AcDbLine
 10
7709.231263768234
 20
240.7876934530168
 30
0.0
 11
7605.231263768233
 21
240.7876934530168
 31
0.0
  0
LINE
  5
77A6
330
1F
100
AcDbEntity
  8
圖層4尺寸線
100
AcDbLine
 10
7605.231263768233
 20
38.7876934530168
 30
0.0
 11
7709.231263768234
 21
38.7876934530168
 31
0.0
  0
LINE
  5
77A7
330
1F
100
AcDbEntity
  8
圖層4尺寸線
100
AcDbLine
 10
7639.231263768234
 20
107.7876934530168
 30
0.0
 11
7639.231263768234
 21
155.7876934530168
 31
0.0
  0
LINE
  5
77A8
330
1F
100
AcDbEntity
  8
圖層4尺寸線
100
AcDbLine
 10
7635.231263768233
 20
103.7876934530168
 30
0.0
 11
7635.231263768233
 21
159.7876934530168
 31
0.0
  0
LINE
  5
77A9
330
1F
100
AcDbEntity
  8
圖層4尺寸線
100
AcDbLine
 10
7605.231263768233
 20
240.7876934530168
 30
0.0
 11
7605.231263768233
 21
38.7876934530168
 31
0.0
  0
LINE
  5
77AA
330
1F
100
AcDbEntity
  8
圖層4尺寸線
100
AcDbLine
 10
7638.147301733053
 20
69.49247894359519
 30
0.0
 11
7639.119314387993
 21
65.47079313708969
 31
0.0
  0
LINE
  5
77AB
330
1F
100
AcDbEntity
  8
圖層4尺寸線
100
AcDbLine
 10
7632.315225803414
 20
69.49247894359519
 30
0.0
 11
7631.343213148473
 21
65.47079313708969
 31
0.0
  0
CIRCLE
  5
77AC
330
1F
100
AcDbEntity
  8
圖層4尺寸線
100
AcDbCircle
 10
7635.231263768233
 20
64.53107914965187
 30
0.0
 40
4.0
  0
ARC
  5
77AD
330
1F
100
AcDbEntity
  8
圖層4尺寸線
100
AcDbCircle
 10
7635.231263768233
 20
68.7876934530168
 30
0.0
 40
12.0
100
AcDbArc
 50
131.8103148957939
 51
228.189685104206
  0
ARC
  5
77AE
330
1F
100
AcDbEntity
  8
圖層4尺寸線
100
AcDbCircle
 10
7635.231263768233
 20
68.7876934530168
 30
0.0
 40
12.0
100
AcDbArc
 50
311.8103148957939
 51
48.18968510420605
  0
LWPOLYLINE
  5
77AF
330
1F
100
AcDbEntity
  8
圖層4尺寸線
100
AcDbPolyline
 90
        7
 70
     0
 43
0.0
 10
7638.828385318134
 20
62.78158877950534
 10
7642.231263768234
 20
64.74624156868935
 10
7642.231263768234
 20
72.82914533734424
 10
7635.231263768233
 20
76.87059722167157
 10
7628.231263768234
 20
72.82914533734424
 10
7628.231263768234
 20
64.74624156868935
 10
7631.634142218333
 20
62.78158877950534
  0
ARC
  5
77B0
330
1F
100
AcDbEntity
  8
圖層4尺寸線
100
AcDbCircle
 10
7635.231263768233
 20
68.7876934530168
 30
0.0
 40
7.0
100
AcDbArc
 50
300.9291072523203
 51
239.0708927476797
  0
ARC
  5
77B1
330
1F
100
AcDbEntity
  8
圖層4尺寸線
100
AcDbCircle
 10
7635.231263768233
 20
68.7876934530168
 30
0.0
 40
6.0
100
AcDbArc
 50
311.7321013757134
 51
228.2678986242865
  0
ARC
  5
77B2
330
1F
100
AcDbEntity
  8
圖層4尺寸線
100
AcDbCircle
 10
7613.231263768233
 20
51.7876934530168
 30
0.0
 40
2.0
100
AcDbArc
 50
239.9999999999998
 51
300.0000000000001
  0
ARC
  5
77B3
330
1F
100
AcDbEntity
  8
圖層4尺寸線
100
AcDbCircle
 10
7613.231263768233
 20
51.7876934530168
 30
0.0
 40
2.0
100
AcDbArc
 50
59.99999999999986
 51
120.0000000000001
  0
CIRCLE
  5
77B4
330
1F
100
AcDbEntity
  8
圖層4尺寸線
100
AcDbCircle
 10
7613.231263768233
 20
51.7876934530168
 30
0.0
 40
4.0
  0
LINE
  5
77B5
330
1F
100
AcDbEntity
  8
圖層4尺寸線
100
AcDbLine
 10
7612.231263768234
 20
52.7876934530168
 30
0.0
 11
7612.231263768234
 21
53.51974426058564
 31
0.0
  0
LINE
  5
77B6
330
1F
100
AcDbEntity
  8
圖層4尺寸線
100
AcDbLine
 10
7612.231263768234
 20
50.05564264544796
 30
0.0
 11
7612.231263768234
 21
50.7876934530168
 31
0.0
  0
LINE
  5
77B7
330
1F
100
AcDbEntity
  8
圖層4尺寸線
100
AcDbLine
 10
7612.231263768234
 20
52.7876934530168
 30
0.0
 11
7609.877161801984
 21
52.7876934530168
 31
0.0
  0
LINE
  5
77B8
330
1F
100
AcDbEntity
  8
圖層4尺寸線
100
AcDbLine
 10
7612.231263768234
 20
50.7876934530168
 30
0.0
 11
7609.877161801984
 21
50.7876934530168
 31
0.0
  0
ARC
  5
77B9
330
1F
100
AcDbEntity
  8
圖層4尺寸線
100
AcDbCircle
 10
7613.231263768233
 20
51.7876934530168
 30
0.0
 40
3.5
100
AcDbArc
 50
163.3984504009895
 51
196.6015495990164
  0
TEXT
  5
77BA
330
1F
100
AcDbEntity
  8
圖層4尺寸線
100
AcDbText
 10
7630.10335679149
 20
54.99118182510982
 30
0.0
 40
4.0
  1
OFF
  7
WIN
 72
     4
 11
7635.231263768233
 21
56.7876934530168
 31
0.0
100
AcDbText
  0
LINE
  5
77BB
330
1F
100
AcDbEntity
  8
圖層4尺寸線
100
AcDbLine
 10
7630.231263768234
 20
51.7876934530168
 30
0.0
 11
7640.231263768234
 21
51.78769345301657
 31
0.0
  0
LINE
  5
77BC
330
1F
100
AcDbEntity
  8
圖層4尺寸線
100
AcDbLine
 10
7627.231263768234
 20
58.58965442583121
 30
0.0
 11
7627.231263768234
 21
54.7876934530168
 31
0.0
  0
LINE
  5
77BD
330
1F
100
AcDbEntity
  8
圖層4尺寸線
100
AcDbLine
 10
7614.231263768234
 20
52.7876934530168
 30
0.0
 11
7614.231263768234
 21
53.51974426058564
 31
0.0
  0
LINE
  5
77BE
330
1F
100
AcDbEntity
  8
圖層4尺寸線
100
AcDbLine
 10
7614.231263768234
 20
50.05564264544796
 30
0.0
 11
7614.231263768234
 21
50.7876934530168
 31
0.0
  0
LINE
  5
77BF
330
1F
100
AcDbEntity
  8
圖層4尺寸線
100
AcDbLine
 10
7616.585365734484
 20
50.7876934530168
 30
0.0
 11
7614.231263768234
 21
50.7876934530168
 31
0.0
  0
LINE
  5
77C0
330
1F
100
AcDbEntity
  8
圖層4尺寸線
100
AcDbLine
 10
7616.585365734484
 20
52.7876934530168
 30
0.0
 11
7614.231263768234
 21
52.7876934530168
 31
0.0
  0
ARC
  5
77C1
330
1F
100
AcDbEntity
  8
圖層4尺寸線
100
AcDbCircle
 10
7613.231263768233
 20
51.7876934530168
 30
0.0
 40
3.5
100
AcDbArc
 50
343.3984504009836
 51
16.60154959901638
  0
ARC
  5
77C2
330
1F
100
AcDbEntity
  8
圖層4尺寸線
100
AcDbCircle
 10
7630.231263768234
 20
54.7876934530168
 30
0.0
 40
3.0
100
AcDbArc
 50
180.0
 51
270.0
  0
ARC
  5
77C3
330
1F
100
AcDbEntity
  8
圖層4尺寸線
100
AcDbCircle
 10
7624.231263768233
 20
58.58965442583121
 30
0.0
 40
3.0
100
AcDbArc
 50
0.0
 51
42.83342806605722
  0
ARC
  5
77C4
330
1F
100
AcDbEntity
  8
圖層4尺寸線
100
AcDbCircle
 10
7624.231263768233
 20
58.58965442583133
 30
0.0
 40
3.0
100
AcDbArc
 50
0.0
 51
42.83342806605722
  0
LINE
  5
77C5
330
1F
100
AcDbEntity
  8
圖層4尺寸線
100
AcDbLine
 10
7643.231263768233
 20
58.58965442583133
 30
0.0
 11
7643.231263768233
 21
54.78769345301657
 31
0.0
  0
ARC
  5
77C6
330
1F
100
AcDbEntity
  8
圖層4尺寸線
100
AcDbCircle
 10
7640.231263768234
 20
54.78769345301657
 30
0.0
 40
3.0
100
AcDbArc
 50
270.0
 51
0.0
  0
ARC
  5
77C7
330
1F
100
AcDbEntity
  8
圖層4尺寸線
100
AcDbCircle
 10
7646.231263768233
 20
58.58965442583133
 30
0.0
 40
3.0
100
AcDbArc
 50
137.1665719339427
 51
180.0
  0
ARC
  5
77C8
330
1F
100
AcDbEntity
  8
圖層4尺寸線
100
AcDbCircle
 10
7640.231263768234
 20
82.78769345301681
 30
0.0
 40
3.0
100
AcDbArc
 50
0.0
 51
90.0
  0
ARC
  5
77C9
330
1F
100
AcDbEntity
  8
圖層4尺寸線
100
AcDbCircle
 10
7630.231263768234
 20
82.78769345301681
 30
0.0
 40
3.0
100
AcDbArc
 50
90.0
 51
180.0
  0
TEXT
  5
77CA
330
1F
100
AcDbEntity
  8
圖層4尺寸線
100
AcDbText
 10
7631.196380047303
 20
78.99118182510981
 30
0.0
 40
4.0
  1
ON
  7
WIN
 72
     4
 11
7635.231263768233
 21
80.7876934530168
 31
0.0
100
AcDbText
  0
LINE
  5
77CB
330
1F
100
AcDbEntity
  8
圖層4尺寸線
100
AcDbLine
 10
7630.231263768234
 20
85.7876934530168
 30
0.0
 11
7640.231263768234
 21
85.7876934530168
 31
0.0
  0
ARC
  5
77CC
330
1F
100
AcDbEntity
  8
圖層4尺寸線
100
AcDbCircle
 10
7635.231263768233
 20
68.7876934530168
 30
0.0
 40
3.0
100
AcDbArc
 50
13.58740794754624
 51
166.4125920524537
  0
ARC
  5
77CD
330
1F
100
AcDbEntity
  8
圖層4尺寸線
100
AcDbCircle
 10
7624.231263768233
 20
78.98573248020238
 30
0.0
 40
3.0
100
AcDbArc
 50
317.1665719339428
 51
0.0
  0
LINE
  5
77CE
330
1F
100
AcDbEntity
  8
圖層4尺寸線
100
AcDbLine
 10
7627.231263768234
 20
82.78769345301681
 30
0.0
 11
7627.231263768234
 21
78.98573248020238
 31
0.0
  0
ARC
  5
77CF
330
1F
100
AcDbEntity
  8
圖層4尺寸線
100
AcDbCircle
 10
7646.231263768233
 20
78.98573248020238
 30
0.0
 40
3.0
100
AcDbArc
 50
180.0
 51
222.8334280660572
  0
LINE
  5
77D0
330
1F
100
AcDbEntity
  8
圖層4尺寸線
100
AcDbLine
 10
7643.231263768233
 20
82.78769345301681
 30
0.0
 11
7643.231263768233
 21
78.98573248020238
 31
0.0
  0
LINE
  5
77D1
330
1F
100
AcDbEntity
  8
圖層4尺寸線
100
AcDbLine
 10
7652.958234182887
 20
131.6352578445737
 30
0.0
 11
7646.823457407688
 21
121.482062923637
 31
0.0
  0
LWPOLYLINE
  5
77D2
330
1F
100
AcDbEntity
  8
圖層4尺寸線
100
AcDbPolyline
 90
        4
 70
     1
 43
0.0
 10
7641.231263768233
 20
109.7876934530168
 10
7647.231263768233
 20
109.7876934530168
 10
7647.231263768233
 20
115.7876934530168
 10
7641.231263768233
 20
115.7876934530168
  0
CIRCLE
  5
77D3
330
1F
100
AcDbEntity
  8
圖層4尺寸線
100
AcDbCircle
 10
7613.231263768233
 20
227.7876934530168
 30
0.0
 40
4.0
  0
LINE
  5
77D4
330
1F
100
AcDbEntity
  8
圖層4尺寸線
100
AcDbLine
 10
7638.231263768233
 20
196.7876934530167
 30
0.0
 11
7638.231263768233
 21
184.7876934530168
 31
0.0
  0
LINE
  5
77D5
330
1F
100
AcDbEntity
  8
圖層4尺寸線
100
AcDbLine
 10
7632.231263768233
 20
200.7876934530168
 30
0.0
 11
7632.231263768233
 21
175.7876934530168
 31
0.0
  0
ARC
  5
77D6
330
1F
100
AcDbEntity
  8
圖層4尺寸線
100
AcDbCircle
 10
7613.231263768233
 20
227.7876934530168
 30
0.0
 40
2.0
100
AcDbArc
 50
59.99999999999986
 51
120.0000000000001
  0
ARC
  5
77D7
330
1F
100
AcDbEntity
  8
圖層4尺寸線
100
AcDbCircle
 10
7613.231263768233
 20
227.7876934530168
 30
0.0
 40
2.0
100
AcDbArc
 50
239.9999999999998
 51
300.0000000000001
  0
ARC
  5
77D8
330
1F
100
AcDbEntity
  8
圖層4尺寸線
100
AcDbCircle
 10
7613.231263768233
 20
227.7876934530168
 30
0.0
 40
3.5
100
AcDbArc
 50
163.3984504009836
 51
196.6015495990105
  0
LINE
  5
77D9
330
1F
100
AcDbEntity
  8
圖層4尺寸線
100
AcDbLine
 10
7612.231263768234
 20
226.7876934530168
 30
0.0
 11
7612.231263768234
 21
226.0556426454479
 31
0.0
  0
LINE
  5
77DA
330
1F
100
AcDbEntity
  8
圖層4尺寸線
100
AcDbLine
 10
7612.231263768234
 20
226.7876934530168
 30
0.0
 11
7609.877161801984
 21
226.7876934530168
 31
0.0
  0
LINE
  5
77DB
330
1F
100
AcDbEntity
  8
圖層4尺寸線
100
AcDbLine
 10
7612.231263768234
 20
228.7876934530168
 30
0.0
 11
7609.877161801984
 21
228.7876934530168
 31
0.0
  0
LINE
  5
77DC
330
1F
100
AcDbEntity
  8
圖層4尺寸線
100
AcDbLine
 10
7612.231263768234
 20
229.5197442605856
 30
0.0
 11
7612.231263768234
 21
228.7876934530168
 31
0.0
  0
ARC
  5
77DD
330
1F
100
AcDbEntity
  8
圖層4尺寸線
100
AcDbCircle
 10
7613.231263768233
 20
227.7876934530168
 30
0.0
 40
3.5
100
AcDbArc
 50
343.3984504009836
 51
16.60154959901638
  0
LINE
  5
77DE
330
1F
100
AcDbEntity
  8
圖層4尺寸線
100
AcDbLine
 10
7614.231263768234
 20
226.7876934530168
 30
0.0
 11
7614.231263768234
 21
226.0556426454479
 31
0.0
  0
LINE
  5
77DF
330
1F
100
AcDbEntity
  8
圖層4尺寸線
100
AcDbLine
 10
7614.231263768234
 20
229.5197442605856
 30
0.0
 11
7614.231263768234
 21
228.7876934530168
 31
0.0
  0
LINE
  5
77E0
330
1F
100
AcDbEntity
  8
圖層4尺寸線
100
AcDbLine
 10
7616.585365734484
 20
226.7876934530168
 30
0.0
 11
7614.231263768234
 21
226.7876934530168
 31
0.0
  0
LINE
  5
77E1
330
1F
100
AcDbEntity
  8
圖層4尺寸線
100
AcDbLine
 10
7616.585365734484
 20
228.7876934530168
 30
0.0
 11
7614.231263768234
 21
228.7876934530168
 31
0.0
  0
LINE
  5
77E2
330
1F
100
AcDbEntity
  8
圖層4尺寸線
100
AcDbLine
 10
7675.231263768234
 20
107.7876934530168
 30
0.0
 11
7675.231263768234
 21
155.7876934530168
 31
0.0
  0
LINE
  5
77E3
330
1F
100
AcDbEntity
  8
圖層4尺寸線
100
AcDbLine
 10
7679.231263768234
 20
103.7876934530168
 30
0.0
 11
7679.231263768234
 21
159.7876934530168
 31
0.0
  0
LINE
  5
77E4
330
1F
100
AcDbEntity
  8
圖層4尺寸線
100
AcDbLine
 10
7709.231263768234
 20
38.7876934530168
 30
0.0
 11
7709.231263768234
 21
240.7876934530168
 31
0.0
  0
LINE
  5
77E5
330
1F
100
AcDbEntity
  8
圖層4尺寸線
100
AcDbLine
 10
7679.231263768234
 20
65.7876934530168
 30
0.0
 11
7679.231263768234
 21
71.7876934530168
 31
0.0
  0
CIRCLE
  5
77E6
330
1F
100
AcDbEntity
  8
圖層4尺寸線
100
AcDbCircle
 10
7679.231263768234
 20
68.7876934530168
 30
0.0
 40
8.110805357093454
  0
CIRCLE
  5
77E7
330
1F
100
AcDbEntity
  8
圖層4尺寸線
100
AcDbCircle
 10
7679.231263768234
 20
68.7876934530168
 30
0.0
 40
7.0
  0
LINE
  5
77E8
330
1F
100
AcDbEntity
  8
圖層4尺寸線
100
AcDbLine
 10
7702.231263768233
 20
50.7876934530168
 30
0.0
 11
7704.585365734484
 21
50.7876934530168
 31
0.0
  0
LINE
  5
77E9
330
1F
100
AcDbEntity
  8
圖層4尺寸線
100
AcDbLine
 10
7702.231263768233
 20
52.7876934530168
 30
0.0
 11
7704.585365734484
 21
52.7876934530168
 31
0.0
  0
CIRCLE
  5
77EA
330
1F
100
AcDbEntity
  8
圖層4尺寸線
100
AcDbCircle
 10
7701.231263768234
 20
51.7876934530168
 30
0.0
 40
4.0
  0
LINE
  5
77EB
330
1F
100
AcDbEntity
  8
圖層4尺寸線
100
AcDbLine
 10
7702.231263768233
 20
50.05564264544796
 30
0.0
 11
7702.231263768233
 21
50.7876934530168
 31
0.0
  0
LINE
  5
77EC
330
1F
100
AcDbEntity
  8
圖層4尺寸線
100
AcDbLine
 10
7702.231263768233
 20
52.7876934530168
 30
0.0
 11
7702.231263768233
 21
53.51974426058564
 31
0.0
  0
ARC
  5
77ED
330
1F
100
AcDbEntity
  8
圖層4尺寸線
100
AcDbCircle
 10
7701.231263768234
 20
51.7876934530168
 30
0.0
 40
3.5
100
AcDbArc
 50
163.3984504009836
 51
196.6015495990164
  0
LINE
  5
77EE
330
1F
100
AcDbEntity
  8
圖層4尺寸線
100
AcDbLine
 10
7697.877161801983
 20
52.7876934530168
 30
0.0
 11
7700.231263768234
 21
52.7876934530168
 31
0.0
  0
LINE
  5
77EF
330
1F
100
AcDbEntity
  8
圖層4尺寸線
100
AcDbLine
 10
7697.877161801983
 20
50.7876934530168
 30
0.0
 11
7700.231263768234
 21
50.7876934530168
 31
0.0
  0
LINE
  5
77F0
330
1F
100
AcDbEntity
  8
圖層4尺寸線
100
AcDbLine
 10
7700.231263768234
 20
50.05564264544796
 30
0.0
 11
7700.231263768234
 21
50.7876934530168
 31
0.0
  0
LINE
  5
77F1
330
1F
100
AcDbEntity
  8
圖層4尺寸線
100
AcDbLine
 10
7700.231263768234
 20
52.7876934530168
 30
0.0
 11
7700.231263768234
 21
53.51974426058564
 31
0.0
  0
ARC
  5
77F2
330
1F
100
AcDbEntity
  8
圖層4尺寸線
100
AcDbCircle
 10
7701.231263768234
 20
51.7876934530168
 30
0.0
 40
2.0
100
AcDbArc
 50
59.99999999999986
 51
120.0000000000001
  0
ARC
  5
77F3
330
1F
100
AcDbEntity
  8
圖層4尺寸線
100
AcDbCircle
 10
7701.231263768234
 20
51.7876934530168
 30
0.0
 40
2.0
100
AcDbArc
 50
239.9999999999998
 51
300.0000000000001
  0
ARC
  5
77F4
330
1F
100
AcDbEntity
  8
圖層4尺寸線
100
AcDbCircle
 10
7701.231263768234
 20
51.7876934530168
 30
0.0
 40
3.5
100
AcDbArc
 50
343.3984504009836
 51
16.60154959901052
  0
LINE
  5
77F5
330
1F
100
AcDbEntity
  8
圖層4尺寸線
100
AcDbLine
 10
7676.231263768234
 20
68.7876934530168
 30
0.0
 11
7682.231263768233
 21
68.7876934530168
 31
0.0
  0
LWPOLYLINE
  5
77F6
330
1F
100
AcDbEntity
  8
圖層4尺寸線
100
AcDbPolyline
 90
        4
 70
     1
 43
0.0
 10
7667.231263768234
 20
109.7876934530168
 10
7673.231263768234
 20
109.7876934530168
 10
7673.231263768234
 20
115.7876934530168
 10
7667.231263768234
 20
115.7876934530168
  0
CIRCLE
  5
77F7
330
1F
100
AcDbEntity
  8
圖層4尺寸線
100
AcDbCircle
 10
7701.231263768234
 20
227.7876934530168
 30
0.0
 40
4.0
  0
LINE
  5
77F8
330
1F
100
AcDbEntity
  8
圖層4尺寸線
100
AcDbLine
 10
7676.231263768234
 20
184.7876934530169
 30
0.0
 11
7676.231263768234
 21
196.7876934530168
 31
0.0
  0
LINE
  5
77F9
330
1F
100
AcDbEntity
  8
圖層4尺寸線
100
AcDbLine
 10
7682.231263768233
 20
175.7876934530168
 30
0.0
 11
7682.231263768233
 21
200.7876934530168
 31
0.0
  0
LINE
  5
77FA
330
1F
100
AcDbEntity
  8
圖層4尺寸線
100
AcDbLine
 10
7670.262078177215
 20
179.0034499758544
 30
0.0
 11
7678.555578467006
 21
179.0034499758544
 31
0.0
  0
LINE
  5
77FB
330
1F
100
AcDbEntity
  8
圖層4尺寸線
100
AcDbLine
 10
7670.262078177215
 20
181.0034499758544
 30
0.0
 11
7678.555578467006
 21
181.0034499758544
 31
0.0
  0
LINE
  5
77FC
330
1F
100
AcDbEntity
  8
圖層4尺寸線
100
AcDbLine
 10
7680.637241274967
 20
176.7876934530168
 30
0.0
 11
7667.975756302467
 21
176.7876934530168
 31
0.0
  0
LINE
  5
77FD
330
1F
100
AcDbEntity
  8
圖層4尺寸線
100
AcDbLine
 10
7667.975756302467
 20
183.219206498692
 30
0.0
 11
7680.637241274967
 21
183.219206498692
 31
0.0
  0
LINE
  5
77FE
330
1F
100
AcDbEntity
  8
圖層4尺寸線
100
AcDbLine
 10
7671.412360125008
 20
178.479262139851
 30
0.0
 11
7671.412360125008
 21
177.479262139851
 31
0.0
  0
ARC
  5
77FF
330
1F
100
AcDbEntity
  8
圖層4尺寸線
100
AcDbCircle
 10
7671.412360125008
 20
180.0034499758544
 30
0.0
 40
1.52418783600342
100
AcDbArc
 50
90.0
 51
270.0
  0
ARC
  5
7800
330
1F
100
AcDbEntity
  8
圖層4尺寸線
100
AcDbCircle
 10
7671.412360125008
 20
180.0034499758544
 30
0.0
 40
2.52418783600342
100
AcDbArc
 50
90.0
 51
270.0
  0
LINE
  5
7801
330
1F
100
AcDbEntity
  8
圖層4尺寸線
100
AcDbLine
 10
7671.412360125008
 20
182.5276378118578
 30
0.0
 11
7671.412360125008
 21
181.5276378118578
 31
0.0
  0
LINE
  5
7802
330
1F
100
AcDbEntity
  8
圖層4尺寸線
100
AcDbLine
 10
7667.975756302467
 20
176.7876934530168
 30
0.0
 11
7667.975756302467
 21
183.219206498692
 31
0.0
  0
LINE
  5
7803
330
1F
100
AcDbEntity
  8
圖層4尺寸線
100
AcDbLine
 10
7677.405296519212
 20
178.479262139851
 30
0.0
 11
7677.405296519212
 21
177.479262139851
 31
0.0
  0
ARC
  5
7804
330
1F
100
AcDbEntity
  8
圖層4尺寸線
100
AcDbCircle
 10
7677.405296519212
 20
180.0034499758544
 30
0.0
 40
1.52418783600342
100
AcDbArc
 50
270.0
 51
90.0
  0
ARC
  5
7805
330
1F
100
AcDbEntity
  8
圖層4尺寸線
100
AcDbCircle
 10
7677.405296519212
 20
180.0034499758544
 30
0.0
 40
2.52418783600342
100
AcDbArc
 50
270.0
 51
90.0
  0
LINE
  5
7806
330
1F
100
AcDbEntity
  8
圖層4尺寸線
100
AcDbLine
 10
7677.405296519212
 20
182.5276378118578
 30
0.0
 11
7677.405296519212
 21
181.5276378118578
 31
0.0
  0
LINE
  5
7807
330
1F
100
AcDbEntity
  8
圖層4尺寸線
100
AcDbLine
 10
7680.637241274967
 20
183.219206498692
 30
0.0
 11
7680.637241274967
 21
176.7876934530168
 31
0.0
  0
LINE
  5
7808
330
1F
100
AcDbEntity
  8
圖層4尺寸線
100
AcDbLine
 10
7657.231263768233
 20
217.7876934530168
 30
0.0
 11
7657.231263768233
 21
223.7876934530168
 31
0.0
  0
LINE
  5
7809
330
1F
100
AcDbEntity
  8
圖層4尺寸線
100
AcDbLine
 10
7654.231263768235
 20
220.7876934530168
 30
0.0
 11
7660.231263768233
 21
220.7876934530168
 31
0.0
  0
CIRCLE
  5
780A
330
1F
100
AcDbEntity
  8
圖層4尺寸線
100
AcDbCircle
 10
7657.231263768233
 20
220.7876934530168
 30
0.0
 40
3.0
  0
LINE
  5
780B
330
1F
100
AcDbEntity
  8
圖層4尺寸線
100
AcDbLine
 10
7702.231263768233
 20
226.7876934530168
 30
0.0
 11
7704.585365734484
 21
226.7876934530168
 31
0.0
  0
LINE
  5
780C
330
1F
100
AcDbEntity
  8
圖層4尺寸線
100
AcDbLine
 10
7702.231263768233
 20
228.7876934530168
 30
0.0
 11
7704.585365734484
 21
228.7876934530168
 31
0.0
  0
LINE
  5
780D
330
1F
100
AcDbEntity
  8
圖層4尺寸線
100
AcDbLine
 10
7700.231263768234
 20
226.7876934530168
 30
0.0
 11
7700.231263768234
 21
226.0556426454479
 31
0.0
  0
LINE
  5
780E
330
1F
100
AcDbEntity
  8
圖層4尺寸線
100
AcDbLine
 10
7700.231263768234
 20
229.5197442605856
 30
0.0
 11
7700.231263768234
 21
228.7876934530168
 31
0.0
  0
LINE
  5
780F
330
1F
100
AcDbEntity
  8
圖層4尺寸線
100
AcDbLine
 10
7697.877161801983
 20
228.7876934530168
 30
0.0
 11
7700.231263768234
 21
228.7876934530168
 31
0.0
  0
LINE
  5
7810
330
1F
100
AcDbEntity
  8
圖層4尺寸線
100
AcDbLine
 10
7697.877161801983
 20
226.7876934530168
 30
0.0
 11
7700.231263768234
 21
226.7876934530168
 31
0.0
  0
ARC
  5
7811
330
1F
100
AcDbEntity
  8
圖層4尺寸線
100
AcDbCircle
 10
7701.231263768234
 20
227.7876934530168
 30
0.0
 40
3.5
100
AcDbArc
 50
163.3984504009836
 51
196.6015495990164
  0
LINE
  5
7812
330
1F
100
AcDbEntity
  8
圖層4尺寸線
100
AcDbLine
 10
7702.231263768233
 20
226.7876934530168
 30
0.0
 11
7702.231263768233
 21
226.0556426454479
 31
0.0
  0
LINE
  5
7813
330
1F
100
AcDbEntity
  8
圖層4尺寸線
100
AcDbLine
 10
7702.231263768233
 20
229.5197442605856
 30
0.0
 11
7702.231263768233
 21
228.7876934530168
 31
0.0
  0
ARC
  5
7814
330
1F
100
AcDbEntity
  8
圖層4尺寸線
100
AcDbCircle
 10
7701.231263768234
 20
227.7876934530168
 30
0.0
 40
2.0
100
AcDbArc
 50
59.99999999999986
 51
120.0000000000001
  0
ARC
  5
7815
330
1F
100
AcDbEntity
  8
圖層4尺寸線
100
AcDbCircle
 10
7701.231263768234
 20
227.7876934530168
 30
0.0
 40
2.0
100
AcDbArc
 50
239.9999999999998
 51
300.0000000000001
  0
ARC
  5
7816
330
1F
100
AcDbEntity
  8
圖層4尺寸線
100
AcDbCircle
 10
7701.231263768234
 20
227.7876934530168
 30
0.0
 40
3.5
100
AcDbArc
 50
343.3984504009895
 51
16.60154959901638
  0
ENDSEC
  0
SECTION
  2
OBJECTS
  0
DICTIONARY
  5
C
330
0
100
AcDbDictionary
281
     1
  3
ACAD_COLOR
350
BE
  3
ACAD_GROUP
350
D
  3
ACAD_LAYOUT
350
1A
  3
ACAD_MATERIAL
350
BD
  3
ACAD_MLINESTYLE
350
17
  3
ACAD_PLOTSETTINGS
350
19
  3
ACAD_PLOTSTYLENAME
350
E
  3
ACAD_TABLESTYLE
350
11A
  3
ACDBHEADERROUNDTRIPXREC
350
7A3B
  3
AcDbVariableDictionary
350
94
  3
AcmDictionary
350
5B
  3
AMG
350
41
  3
AMGSNAPSETTINGS
350
1B8
  3
DWGPROPS
350
7A3A
  0
DICTIONARY
  5
3F9
330
2
100
AcDbDictionary
280
     1
281
     1
  3
ACAD_LAYERFILTERS
360
63AB
  3
ACAD_LAYERSTATES
360
72C
  3
ACLYDICTIONARY
360
63AA
  0
DICTIONARY
  5
8F
330
1F
100
AcDbDictionary
280
     1
281
     1
  0
DICTIONARY
  5
62BA
330
62AD
100
AcDbDictionary
280
     1
281
     1
  3
ACAD_DIMASSOC
360
62BB
  0
DICTIONARY
  5
62EB
330
62DC
100
AcDbDictionary
280
     1
281
     1
  3
ACAD_DIMASSOC
360
62EC
  0
DICTIONARY
  5
6313
330
6306
100
AcDbDictionary
280
     1
281
     1
  3
ACAD_DIMASSOC
360
6314
  0
DICTIONARY
  5
BE
102
{ACAD_REACTORS
330
C
102
}
330
C
100
AcDbDictionary
281
     1
  0
DICTIONARY
  5
D
102
{ACAD_REACTORS
330
C
102
}
330
C
100
AcDbDictionary
281
     1
  0
DICTIONARY
  5
1A
102
{ACAD_REACTORS
330
C
102
}
330
C
100
AcDbDictionary
281
     1
  3
Model
350
22
  3
配置1
350
1E
  3
配置2
350
26
  0
DICTIONARY
  5
BD
102
{ACAD_REACTORS
330
C
102
}
330
C
100
AcDbDictionary
281
     1
  0
DICTIONARY
  5
17
102
{ACAD_REACTORS
330
C
102
}
330
C
100
AcDbDictionary
281
     1
  3
Standard
350
18
  0
DICTIONARY
  5
19
102
{ACAD_REACTORS
330
C
102
}
330
C
100
AcDbDictionary
281
     1
  0
ACDBDICTIONARYWDFLT
  5
E
102
{ACAD_REACTORS
330
C
102
}
330
C
100
AcDbDictionary
281
     1
  3
Normal
350
F
  3
型式 1
350
728
  3
型式 2
350
729
  3
型式 3
350
72A
  3
型式 4
350
72B
100
AcDbDictionaryWithDefault
340
F
  0
DICTIONARY
  5
11A
102
{ACAD_REACTORS
330
C
102
}
330
C
100
AcDbDictionary
281
     1
  3
Standard
350
11B
  0
DICTIONARY
  5
7A3B
102
{ACAD_REACTORS
330
C
102
}
330
C
100
AcDbDictionary
281
     1
  0
DICTIONARY
  5
94
102
{ACAD_REACTORS
330
C
102
}
330
C
100
AcDbDictionary
281
     1
  3
CTABLESTYLE
350
138
  3
DIMASSOC
350
96
  3
INDEXCTL
350
95
  3
PROJECTNAME
350
7A38
  0
DICTIONARY
  5
5B
102
{ACAD_REACTORS
330
C
102
}
330
C
100
AcDbDictionary
281
     1
  3
AcmBOM
350
1B5
  3
AcmStdDictionary
350
61
  3
AMDTSECTSYM_ARROWCOLOR
350
123
  0
DICTIONARY
  5
41
102
{ACAD_REACTORS
330
C
102
}
330
C
100
AcDbDictionary
281
     1
  0
DICTIONARY
  5
1B8
102
{ACAD_REACTORS
330
C
102
}
330
C
100
AcDbDictionary
281
     1
  0
XRECORD
  5
7A3A
102
{ACAD_REACTORS
330
C
102
}
330
C
100
AcDbXrecord
280
     1
  1
DWGPROPS COOKIE
  2

  3

  4

  6

  7

  8

  9

300
AmdtFileType=84
301
=
302
=
303
=
304
=
305
=
306
=
307
=
308
=
309
=
 40
0.2972931134259259
 41
2453556.605858461
 42
2453557.593181424
  1

 90
        1
  0
DICTIONARY
  5
63AB
102
{ACAD_REACTORS
330
3F9
102
}
330
3F9
100
AcDbDictionary
281
     1
  0
DICTIONARY
  5
72C
102
{ACAD_REACTORS
330
3F9
102
}
330
3F9
100
AcDbDictionary
281
     1
  0
DICTIONARY
  5
63AA
102
{ACAD_REACTORS
330
3F9
102
}
330
3F9
100
AcDbDictionary
281
     1
1001
ACAD
1000
<All
  0
DIMASSOC
  5
62BB
102
{ACAD_REACTORS
330
62BA
102
}
330
62BA
100
AcDbDimAssoc
330
62AD
 90
        3
 70
     0
 71
     0
  1
AcDbOsnapPointRef
 72
    13
331
6287
 73
     0
 91
        0
 40
0.0
 10
0.0
 20
0.0
 30
2.000000000000000E+50
 75
     0
  1
AcDbOsnapPointRef
 72
     1
331
6288
 73
     0
 91
        0
 40
0.0
 10
0.0
 20
0.0
 30
2.000000000000000E+50
 75
     0
  0
DIMASSOC
  5
62EC
102
{ACAD_REACTORS
330
62EB
102
}
330
62EB
100
AcDbDimAssoc
330
62DC
 90
        3
 70
     0
 71
     0
  1
AcDbOsnapPointRef
 72
    13
331
6268
 73
     0
 91
        0
 40
0.0
 10
0.0
 20
0.0
 30
2.000000000000000E+50
 75
     0
  1
AcDbOsnapPointRef
 72
     1
331
6265
 73
     0
 91
        0
 40
0.0
 10
0.0
 20
0.0
 30
2.000000000000000E+50
 75
     0
  0
DIMASSOC
  5
6314
102
{ACAD_REACTORS
330
6313
102
}
330
6313
100
AcDbDimAssoc
330
6306
 90
        3
 70
     0
 71
     0
  1
AcDbOsnapPointRef
 72
     1
331
6267
 73
     0
 91
        0
 40
0.0
 10
0.0
 20
0.0
 30
2.000000000000000E+50
 75
     0
  1
AcDbOsnapPointRef
 72
     1
331
628D
 73
     0
 91
        0
 40
0.0
 10
0.0
 20
0.0
 30
2.000000000000000E+50
 75
     0
  0
LAYOUT
  5
22
102
{ACAD_XDICTIONARY
360
7A3E
102
}
102
{ACAD_REACTORS
330
1A
102
}
330
1A
100
AcDbPlotSettings
  1

  2
\\RD\EPSON Stylus C63 Series單色
  4
A4
  6

 40
3.757083177566528
 41
3.757076978683471
 42
3.757080078125
 43
3.757080078125
 44
209.9733276367187
 45
296.9683227539062
 46
0.0
 47
0.0
 48
0.0
 49
0.0
140
0.0
141
0.0
142
1.0
143
0.3405120737814363
 70
 11952
 72
     1
 73
     0
 74
     0
  7
單色出圖.ctb
 75
     0
147
2.936753428137963
148
-2047.07469463503
149
-1261.649717473083
100
AcDbLayout
  1
Model
 70
     1
 71
     0
 10
0.0
 20
0.0
 11
12.0
 21
9.0
 12
0.0
 22
0.0
 32
0.0
 14
0.0
 24
0.0
 34
0.0
 15
0.0
 25
0.0
 35
0.0
146
0.0
 13
0.0
 23
0.0
 33
0.0
 16
1.0
 26
0.0
 36
0.0
 17
0.0
 27
1.0
 37
0.0
 76
     0
330
1F
1001
ACAD_PSEXT
1000
\\RD\EPSON Stylus C63 Series單色
1000
EPSON Stylus C63 Series
1000
\\RD
1000

1070
     0
  0
LAYOUT
  5
1E
102
{ACAD_XDICTIONARY
360
7A3C
102
}
102
{ACAD_REACTORS
330
1A
102
}
330
1A
100
AcDbPlotSettings
  1

  2

  4

  6

 40
0.0
 41
0.0
 42
0.0
 43
0.0
 44
0.0
 45
0.0
 46
0.0
 47
0.0
 48
0.0
 49
0.0
140
0.0
141
0.0
142
1.0
143
1.0
 70
   688
 72
     0
 73
     0
 74
     5
  7
單色出圖.ctb
 75
    16
147
1.0
148
0.0
149
0.0
100
AcDbLayout
  1
配置1
 70
     1
 71
     1
 10
0.0
 20
0.0
 11
420.0
 21
297.0
 12
0.0
 22
0.0
 32
0.0
 14
1.000000000000000E+20
 24
1.000000000000000E+20
 34
1.000000000000000E+20
 15
-1.000000000000000E+20
 25
-1.000000000000000E+20
 35
-1.000000000000000E+20
146
0.0
 13
0.0
 23
0.0
 33
0.0
 16
1.0
 26
0.0
 36
0.0
 17
0.0
 27
1.0
 37
0.0
 76
     0
330
1B
  0
LAYOUT
  5
26
102
{ACAD_XDICTIONARY
360
7A40
102
}
102
{ACAD_REACTORS
330
1A
102
}
330
1A
100
AcDbPlotSettings
  1

  2

  4

  6

 40
0.0
 41
0.0
 42
0.0
 43
0.0
 44
0.0
 45
0.0
 46
0.0
 47
0.0
 48
0.0
 49
0.0
140
0.0
141
0.0
142
1.0
143
1.0
 70
   688
 72
     0
 73
     0
 74
     5
  7
單色出圖.ctb
 75
    16
147
1.0
148
0.0
149
0.0
100
AcDbLayout
  1
配置2
 70
     1
 71
     2
 10
0.0
 20
0.0
 11
12.0
 21
9.0
 12
0.0
 22
0.0
 32
0.0
 14
0.0
 24
0.0
 34
0.0
 15
0.0
 25
0.0
 35
0.0
146
0.0
 13
0.0
 23
0.0
 33
0.0
 16
1.0
 26
0.0
 36
0.0
 17
0.0
 27
1.0
 37
0.0
 76
     0
330
23
  0
MLINESTYLE
  5
18
102
{ACAD_REACTORS
330
17
102
}
330
17
100
AcDbMlineStyle
  2
STANDARD
 70
     0
  3

 62
   256
 51
90.0
 52
90.0
 71
     2
 49
0.5
 62
   256
  6
BYLAYER
 49
-0.5
 62
   256
  6
BYLAYER
  0
ACDBPLACEHOLDER
  5
F
102
{ACAD_REACTORS
330
E
102
}
330
E
  0
ACDBPLACEHOLDER
  5
728
102
{ACAD_REACTORS
330
E
102
}
330
E
  0
ACDBPLACEHOLDER
  5
729
102
{ACAD_REACTORS
330
E
102
}
330
E
  0
ACDBPLACEHOLDER
  5
72A
102
{ACAD_REACTORS
330
E
102
}
330
E
  0
ACDBPLACEHOLDER
  5
72B
102
{ACAD_REACTORS
330
E
102
}
330
E
  0
TABLESTYLE
  5
11B
102
{ACAD_REACTORS
330
11A
102
}
330
11A
100
AcDbTableStyle
  3
Standard
 70
     0
 71
     0
 40
1.5
 41
1.5
280
     0
281
     0
  7
STANDARD
140
4.5
170
     2
 62
     0
 63
     7
283
     0
274
    -2
284
     1
 64
     0
275
    -2
285
     1
 65
     0
276
    -2
286
     1
 66
     0
277
    -2
287
     1
 67
     0
278
    -2
288
     1
 68
     0
279
    -2
289
     1
 69
     0
  7
STANDARD
140
6.0
170
     5
 62
     0
 63
     7
283
     0
274
    -2
284
     1
 64
     0
275
    -2
285
     1
 65
     0
276
    -2
286
     1
 66
     0
277
    -2
287
     1
 67
     0
278
    -2
288
     1
 68
     0
279
    -2
289
     1
 69
     0
  7
STANDARD
140
4.5
170
     5
 62
     0
 63
     7
283
     0
274
    -2
284
     1
 64
     0
275
    -2
285
     1
 65
     0
276
    -2
286
     1
 66
     0
277
    -2
287
     1
 67
     0
278
    -2
288
     1
 68
     0
279
    -2
289
     1
 69
     0
  0
DICTIONARYVAR
  5
138
102
{ACAD_REACTORS
330
94
102
}
330
94
100
DictionaryVariables
280
     0
  1
STANDARD
  0
DICTIONARYVAR
  5
96
102
{ACAD_REACTORS
330
94
102
}
330
94
100
DictionaryVariables
280
     0
  1
2
  0
DICTIONARYVAR
  5
95
102
{ACAD_REACTORS
330
94
102
}
330
94
100
DictionaryVariables
280
     0
  1
0
  0
DICTIONARYVAR
  5
7A38
102
{ACAD_REACTORS
330
94
102
}
330
94
100
DictionaryVariables
280
     0
  1

  0
DICTIONARY
  5
1B5
102
{ACAD_REACTORS
330
5B
102
}
330
5B
100
AcDbDictionary
281
     1
  0
DICTIONARY
  5
61
102
{ACAD_REACTORS
330
5B
102
}
330
5B
100
AcDbDictionary
281
     1
  0
XRECORD
  5
123
102
{ACAD_REACTORS
330
5B
102
}
330
5B
100
AcDbXrecord
280
     1
 90
-1023410169
  0
DICTIONARY
  5
7A3E
330
22
100
AcDbDictionary
280
     1
281
     1
  3
ACAD_XREC_ROUNDTRIP
360
7A3F
  0
DICTIONARY
  5
7A3C
330
1E
100
AcDbDictionary
280
     1
281
     1
  3
ACAD_XREC_ROUNDTRIP
360
7A3D
  0
DICTIONARY
  5
7A40
330
26
100
AcDbDictionary
280
     1
281
     1
  3
ACAD_XREC_ROUNDTRIP
360
7A41
  0
XRECORD
  5
7A3F
102
{ACAD_REACTORS
330
7A3E
102
}
330
7A3E
100
AcDbXrecord
280
     1
102
SHADEPLOT
 70
     0
102
SHADEPLOTRESLEVEL
 70
     2
102
SHADEPLOTCUSTOMDPI
 70
   300
  0
XRECORD
  5
7A3D
102
{ACAD_REACTORS
330
7A3C
102
}
330
7A3C
100
AcDbXrecord
280
     1
102
SHADEPLOT
 70
     0
102
SHADEPLOTRESLEVEL
 70
     2
102
SHADEPLOTCUSTOMDPI
 70
   300
  0
XRECORD
  5
7A41
102
{ACAD_REACTORS
330
7A40
102
}
330
7A40
100
AcDbXrecord
280
     1
102
SHADEPLOT
 70
     0
102
SHADEPLOTRESLEVEL
 70
     2
102
SHADEPLOTCUSTOMDPI
 70
   300
  0
ENDSEC
  0
EOF
