  0
SECTION
  2
HEADER
  9
$ACADVER
  1
AC1015
  9
$ACADMAINTVER
 70
    20
  9
$DWGCODEPAGE
  3
ANSI_950
  9
$INSBASE
 10
0.0
 20
0.0
 30
0.0
  9
$EXTMIN
 10
901.8396678353738
 20
1195.586780626952
 30
-0.0431919998659396
  9
$EXTMAX
 10
2672.851617218598
 20
3216.863701005454
 30
1415.466636799483
  9
$LIMMIN
 10
0.0
 20
0.0
  9
$LIMMAX
 10
420.0
 20
297.0
  9
$ORTHOMODE
 70
     1
  9
$REGENMODE
 70
     1
  9
$FILLMODE
 70
     1
  9
$QTEXTMODE
 70
     0
  9
$MIRRTEXT
 70
     1
  9
$LTSCALE
 40
1.0
  9
$ATTMODE
 70
     1
  9
$TEXTSIZE
 40
3.0
  9
$TRACEWID
 40
1.0
  9
$TEXTSTYLE
  7
CHINESET
  9
$CLAYER
  8
0
  9
$CELTYPE
  6
ByLayer
  9
$CECOLOR
 62
   256
  9
$CELTSCALE
 40
1.0
  9
$DISPSILH
 70
     0
  9
$DIMSCALE
 40
1.0
  9
$DIMASZ
 40
20.0
  9
$DIMEXO
 40
3.0
  9
$DIMDLI
 40
50.0
  9
$DIMRND
 40
0.0
  9
$DIMDLE
 40
0.0
  9
$DIMEXE
 40
4.0
  9
$DIMTP
 40
0.1
  9
$DIMTM
 40
0.1
  9
$DIMTXT
 40
20.0
  9
$DIMCEN
 40
0.0
  9
$DIMTSZ
 40
0.0
  9
$DIMTOL
 70
     0
  9
$DIMLIM
 70
     0
  9
$DIMTIH
 70
     0
  9
$DIMTOH
 70
     0
  9
$DIMSE1
 70
     0
  9
$DIMSE2
 70
     0
  9
$DIMTAD
 70
     1
  9
$DIMZIN
 70
     8
  9
$DIMBLK
  1

  9
$DIMASO
 70
     1
  9
$DIMSHO
 70
     1
  9
$DIMPOST
  1

  9
$DIMAPOST
  1
"
  9
$DIMALT
 70
     0
  9
$DIMALTD
 70
     2
  9
$DIMALTF
 40
0.0393701
  9
$DIMLFAC
 40
1.0
  9
$DIMTOFL
 70
     1
  9
$DIMTVP
 40
0.0
  9
$DIMTIX
 70
     0
  9
$DIMSOXD
 70
     0
  9
$DIMSAH
 70
     0
  9
$DIMBLK1
  1

  9
$DIMBLK2
  1

  9
$DIMSTYLE
  2
AM_ISO
  9
$DIMCLRD
 70
   256
  9
$DIMCLRE
 70
   256
  9
$DIMCLRT
 70
   256
  9
$DIMTFAC
 40
0.71
  9
$DIMGAP
 40
6.0
  9
$DIMJUST
 70
     0
  9
$DIMSD1
 70
     0
  9
$DIMSD2
 70
     0
  9
$DIMTOLJ
 70
     2
  9
$DIMTZIN
 70
     8
  9
$DIMALTZ
 70
     0
  9
$DIMALTTZ
 70
     0
  9
$DIMUPT
 70
     0
  9
$DIMDEC
 70
     2
  9
$DIMTDEC
 70
     8
  9
$DIMALTU
 70
     2
  9
$DIMALTTD
 70
     2
  9
$DIMTXSTY
  7
STANDARD
  9
$DIMAUNIT
 70
     0
  9
$DIMADEC
 70
     0
  9
$DIMALTRND
 40
0.0
  9
$DIMAZIN
 70
     2
  9
$DIMDSEP
 70
    46
  9
$DIMATFIT
 70
     3
  9
$DIMFRAC
 70
     0
  9
$DIMLDRBLK
  1

  9
$DIMLUNIT
 70
     2
  9
$DIMLWD
 70
    -1
  9
$DIMLWE
 70
    -1
  9
$DIMTMOVE
 70
     0
  9
$LUNITS
 70
     2
  9
$LUPREC
 70
     2
  9
$SKETCHINC
 40
1.0
  9
$FILLETRAD
 40
2.5
  9
$AUNITS
 70
     0
  9
$AUPREC
 70
     0
  9
$MENU
  1
.
  9
$ELEVATION
 40
0.0
  9
$PELEVATION
 40
0.0
  9
$THICKNESS
 40
0.0
  9
$LIMCHECK
 70
     0
  9
$CHAMFERA
 40
2.5
  9
$CHAMFERB
 40
2.5
  9
$CHAMFERC
 40
20.0
  9
$CHAMFERD
 40
0.0
  9
$SKPOLY
 70
     0
  9
$TDCREATE
 40
2453556.605858461
  9
$TDUCREATE
 40
2453556.272525128
  9
$TDUPDATE
 40
2453557.592782836
  9
$TDUUPDATE
 40
2453557.259449503
  9
$TDINDWG
 40
0.2894167708
  9
$TDUSRTIMER
 40
0.2894165972
  9
$USRTIMER
 70
     1
  9
$ANGBASE
 50
0.0
  9
$ANGDIR
 70
     0
  9
$PDMODE
 70
     0
  9
$PDSIZE
 40
0.0
  9
$PLINEWID
 40
0.0
  9
$SPLFRAME
 70
     0
  9
$SPLINETYPE
 70
     6
  9
$SPLINESEGS
 70
     8
  9
$HANDSEED
  5
85B1
  9
$SURFTAB1
 70
     6
  9
$SURFTAB2
 70
     6
  9
$SURFTYPE
 70
     6
  9
$SURFU
 70
     6
  9
$SURFV
 70
     6
  9
$UCSBASE
  2

  9
$UCSNAME
  2

  9
$UCSORG
 10
0.0
 20
0.0
 30
0.0
  9
$UCSXDIR
 10
1.0
 20
0.0
 30
0.0
  9
$UCSYDIR
 10
0.0
 20
1.0
 30
0.0
  9
$UCSORTHOREF
  2

  9
$UCSORTHOVIEW
 70
     0
  9
$UCSORGTOP
 10
0.0
 20
0.0
 30
0.0
  9
$UCSORGBOTTOM
 10
0.0
 20
0.0
 30
0.0
  9
$UCSORGLEFT
 10
0.0
 20
0.0
 30
0.0
  9
$UCSORGRIGHT
 10
0.0
 20
0.0
 30
0.0
  9
$UCSORGFRONT
 10
0.0
 20
0.0
 30
0.0
  9
$UCSORGBACK
 10
0.0
 20
0.0
 30
0.0
  9
$PUCSBASE
  2

  9
$PUCSNAME
  2

  9
$PUCSORG
 10
0.0
 20
0.0
 30
0.0
  9
$PUCSXDIR
 10
1.0
 20
0.0
 30
0.0
  9
$PUCSYDIR
 10
0.0
 20
1.0
 30
0.0
  9
$PUCSORTHOREF
  2

  9
$PUCSORTHOVIEW
 70
     0
  9
$PUCSORGTOP
 10
0.0
 20
0.0
 30
0.0
  9
$PUCSORGBOTTOM
 10
0.0
 20
0.0
 30
0.0
  9
$PUCSORGLEFT
 10
0.0
 20
0.0
 30
0.0
  9
$PUCSORGRIGHT
 10
0.0
 20
0.0
 30
0.0
  9
$PUCSORGFRONT
 10
0.0
 20
0.0
 30
0.0
  9
$PUCSORGBACK
 10
0.0
 20
0.0
 30
0.0
  9
$USERI1
 70
     0
  9
$USERI2
 70
     0
  9
$USERI3
 70
     0
  9
$USERI4
 70
     0
  9
$USERI5
 70
     0
  9
$USERR1
 40
0.0
  9
$USERR2
 40
0.0
  9
$USERR3
 40
0.0
  9
$USERR4
 40
0.0
  9
$USERR5
 40
0.0
  9
$WORLDVIEW
 70
     1
  9
$SHADEDGE
 70
     3
  9
$SHADEDIF
 70
    70
  9
$TILEMODE
 70
     1
  9
$MAXACTVP
 70
    64
  9
$PINSBASE
 10
0.0
 20
0.0
 30
0.0
  9
$PLIMCHECK
 70
     0
  9
$PEXTMIN
 10
1.000000000000000E+20
 20
1.000000000000000E+20
 30
1.000000000000000E+20
  9
$PEXTMAX
 10
-1.000000000000000E+20
 20
-1.000000000000000E+20
 30
-1.000000000000000E+20
  9
$PLIMMIN
 10
0.0
 20
0.0
  9
$PLIMMAX
 10
420.0
 20
297.0
  9
$UNITMODE
 70
     0
  9
$VISRETAIN
 70
     1
  9
$PLINEGEN
 70
     0
  9
$PSLTSCALE
 70
     1
  9
$TREEDEPTH
 70
  3020
  9
$CMLSTYLE
  2
Standard
  9
$CMLJUST
 70
     0
  9
$CMLSCALE
 40
20.0
  9
$PROXYGRAPHICS
 70
     1
  9
$MEASUREMENT
 70
     1
  9
$CELWEIGHT
370
    -1
  9
$ENDCAPS
280
     0
  9
$JOINSTYLE
280
     0
  9
$LWDISPLAY
290
     0
  9
$INSUNITS
 70
     4
  9
$HYPERLINKBASE
  1

  9
$STYLESHEET
  1
彩色出圖.ctb
  9
$XEDIT
290
     1
  9
$CEPSNTYPE
380
     0
  9
$PSTYLEMODE
290
     1
  9
$FINGERPRINTGUID
  2
{6FBFCDA8-F3CD-4AA6-B64B-DBECB1E66A4A}
  9
$VERSIONGUID
  2
{92C746AC-E2F4-4DE9-AAAE-F4660735162B}
  9
$EXTNAMES
290
     1
  9
$PSVPSCALE
 40
0.0
  9
$OLESTARTUP
290
     0
  0
ENDSEC
  0
SECTION
  2
CLASSES
  0
CLASS
  1
ACDBDICTIONARYWDFLT
  2
AcDbDictionaryWithDefault
  3
ObjectDBX Classes
 90
        0
280
     0
281
     0
  0
CLASS
  1
ACDBPLACEHOLDER
  2
AcDbPlaceHolder
  3
ObjectDBX Classes
 90
        0
280
     0
281
     0
  0
CLASS
  1
LAYOUT
  2
AcDbLayout
  3
ObjectDBX Classes
 90
        0
280
     0
281
     0
  0
CLASS
  1
ACME_DOCUMENT
  2
AcMeDbDoc
  3
AcMeServices
 90
        0
280
     0
281
     0
  0
CLASS
  1
AMGSETTINGSOBJ
  2
AmgSettingsObj
  3
"AcadM|Product Description: AutoCAD Mechanical 2000|Company: Autodesk"
 90
        0
280
     0
281
     0
  0
CLASS
  1
ACMESCOPE
  2
AcMeScope
  3
AcMeServices
 90
        0
280
     0
281
     0
  0
CLASS
  1
ACMECOMMANDHISTORY
  2
AcMeCommandHistory
  3
AcMeServices
 90
        0
280
     0
281
     0
  0
CLASS
  1
ACIMSYSVARMAN
  2
AcImSysVarManager
  3
AcMeServices
 90
        0
280
     0
281
     0
  0
CLASS
  1
ACIMREALSYSVAR
  2
AcImRealSysVar
  3
AcMeServices
 90
        0
280
     0
281
     0
  0
CLASS
  1
ACIMINTSYSVAR
  2
AcImIntSysVar
  3
AcMeServices
 90
        0
280
     0
281
     0
  0
CLASS
  1
ACMEDRAWINGMAN
  2
AcMeDrawingMan
  3
AcMeServices
 90
        0
280
     0
281
     0
  0
CLASS
  1
ACMEVIEW
  2
AcMeView
  3
AcMeServices
 90
        0
280
     0
281
     0
  0
CLASS
  1
ACDBENTITYCACHE
  2
AcMeEntityCache
  3
AcMeServices
 90
        0
280
     0
281
     0
  0
CLASS
  1
GSMANAGER
  2
AcMeGSManager
  3
AcMeServices
 90
        0
280
     0
281
     0
  0
CLASS
  1
AMDTINTERNALREACTOR
  2
AmdtInternalReactor
  3
AcMeServices
 90
        0
280
     0
281
     0
  0
CLASS
  1
ACMESTATEMGR
  2
AcMeStateMgr
  3
AcMeServices
 90
        0
280
     0
281
     0
  0
CLASS
  1
ACGREFMASTER
  2
AcGrefMaster
  3
AcAttribServices
 90
        0
280
     0
281
     0
  0
CLASS
  1
ACME_DATABASE
  2
AcMeDbDatabase
  3
AcMeServices
 90
        0
280
     0
281
     0
  0
CLASS
  1
ACRFINSADJUSTERMGR
  2
AcRfInsAdjusterMgr
  3
AcMeServices
 90
        0
280
     0
281
     0
  0
CLASS
  1
ACGREFACADMASTER
  2
AcGrefacadMaster
  3
AcGrefServices
 90
        0
280
     0
281
     0
  0
CLASS
  1
AMIMASTER
  2
AmiMaster
  3
AmiServices
 90
        0
280
     0
281
     0
  0
CLASS
  1
ACMDATADICTIONARY
  2
AcmDataDictionary
  3
"AcmSymBB|Product Description: AutoCAD Mechanical 2004 DX|Company: Autodesk"
 90
        0
280
     0
281
     0
  0
CLASS
  1
ACMDATAENTRYBLOCK
  2
AcmDataEntryBlock
  3
"AcmSymBB|Product Description: AutoCAD Mechanical 2004 DX|Company: Autodesk"
 90
        0
280
     0
281
     0
  0
CLASS
  1
ACIMSTRSYSVAR
  2
AcImStrSysVar
  3
AcMeServices
 90
        0
280
     0
281
     0
  0
CLASS
  1
ACMSTANDARDISO
  2
AcmStandardISO
  3
"Amdt_StdImp|Product Description: AutoCAD Mechanical 2004 DX|Company: Autodesk"
 90
        0
280
     0
281
     0
  0
CLASS
  1
AMGOBJPROPCFG
  2
AmgObjPropCfg
  3
"AmgLay|Product Description: AutoCAD Mechanical 2000|Company: Autodesk"
 90
        1
280
     0
281
     0
  0
CLASS
  1
AMDTEDGESTANDARDISO
  2
AmdtEdgeStdISO
  3
"Amdt_StdImp|Product Description: AutoCAD Mechanical 2004 DX|Company: Autodesk"
 90
        0
280
     0
281
     0
  0
CLASS
  1
ACMSURFSTANDARDISO
  2
AcmSurfTextStdISO
  3
"Amdt_StdImp|Product Description: AutoCAD Mechanical 2004 DX|Company: Autodesk"
 90
        0
280
     0
281
     0
  0
CLASS
  1
ACMFCFSTANDARDISO
  2
AcmFCFStdISO
  3
"Amdt_StdImp|Product Description: AutoCAD Mechanical 2004 DX|Company: Autodesk"
 90
        0
280
     0
281
     0
  0
CLASS
  1
ACMWELDSTANDARDISO
  2
AcmWeldingStdISO
  3
"Amdt_StdImp|Product Description: AutoCAD Mechanical 2004 DX|Company: Autodesk"
 90
        0
280
     0
281
     0
  0
CLASS
  1
ACMIDSTANDARDISO
  2
AcmIdStdISO
  3
"Amdt_StdImp|Product Description: AutoCAD Mechanical 2004 DX|Company: Autodesk"
 90
        0
280
     0
281
     0
  0
CLASS
  1
ACMDATUMSTANDARDISO
  2
AcmDatumStdISO
  3
"Amdt_StdImp|Product Description: AutoCAD Mechanical 2004 DX|Company: Autodesk"
 90
        0
280
     0
281
     0
  0
CLASS
  1
ACMBOMSTANDARDISO
  2
AcmBOMStdISO
  3
"Amdt_StdImp|Product Description: AutoCAD Mechanical 2004 DX|Company: Autodesk"
 90
        0
280
     0
281
     0
  0
CLASS
  1
ACMDETAILSTANDARDISO
  2
AmdtDetailSymStdISO
  3
"Amdt_StdImp|Product Description: AutoCAD Mechanical 2004 DX|Company: Autodesk"
 90
        0
280
     0
281
     0
  0
CLASS
  1
ACMSECTIONSTANDARDISO
  2
AmdtSectionSymStdISO
  3
"Amdt_StdImp|Product Description: AutoCAD Mechanical 2004 DX|Company: Autodesk"
 90
        0
280
     0
281
     0
  0
CLASS
  1
ACMCENTERLINESTANDARDISO
  2
AmdtCenterLineStdISO
  3
"Amdt_StdImp|Product Description: AutoCAD Mechanical 2004 DX|Company: Autodesk"
 90
        0
280
     0
281
     0
  0
CLASS
  1
ACMNOTESTANDARDISO
  2
AmdtNoteStdISO
  3
"Amdt_StdImp|Product Description: AutoCAD Mechanical 2004 DX|Company: Autodesk"
 90
        0
280
     0
281
     0
  0
CLASS
  1
ACAMGLAYSTD
  2
AcAmgLayStd
  3
"AcAmgLayStd|Product Description: AutoCAD Mechanical 2000|Company: Autodesk"
 90
        0
280
     0
281
     0
  0
CLASS
  1
ACAMGDIMSTD
  2
AcAmgDimStd
  3
"AcAmgDimStd|Product Description: AutoCAD Mechanical 2000|Company: Autodesk"
 90
        0
280
     0
281
     0
  0
CLASS
  1
ACAMGHOLECHARTSTDISO
  2
AcAmgHoleChartStdISO
  3
ACMSYMBB_MODULE_NAME
 90
        0
280
     0
281
     0
  0
CLASS
  1
ACAMGTITLESTD
  2
AcAmgTitleStd
  3
"TITLEAPP"
 90
        0
280
     0
281
     0
  0
CLASS
  1
LAYER_INDEX
  2
AcDbLayerIndex
  3
ObjectDBX Classes
 90
    32768
280
     0
281
     0
  0
CLASS
  1
IDBUFFER
  2
AcDbIdBuffer
  3
ObjectDBX Classes
 90
    32768
280
     0
281
     0
  0
CLASS
  1
DICTIONARYVAR
  2
AcDbDictionaryVar
  3
ObjectDBX Classes
 90
        0
280
     0
281
     0
  0
CLASS
  1
AM_DRAWING_MGR
  2
AcDmDwgMgr
  3
AcMechDwgViewMgmt
 90
        0
280
     0
281
     0
  0
CLASS
  1
AM_DWG_DOCUMENT
  2
AcDmDwgDocument
  3
AcMechDwgViewMgmt
 90
        0
280
     0
281
     0
  0
CLASS
  1
AM_DWG_SHEET
  2
AcDmSheet
  3
AcMechDwgViewMgmt
 90
        0
280
     0
281
     0
  0
CLASS
  1
AM_VIEWDIMPARMAP
  2
AcDmViewDimParMap
  3
AcMechDwgViewMgmt
 90
        0
280
     0
281
     0
  0
CLASS
  1
AM_DWGMGR_NAME
  2
AcDmDwgMgrName
  3
AcMechDwgViewMgmt
 90
        0
280
     0
281
     0
  0
CLASS
  1
AMDTMENUSTATEMGR
  2
AmdtMenuStateMgr
  3
McadcomServices
 90
        0
280
     0
281
     0
  0
CLASS
  1
AMDTMCOMMENUSTATE
  2
AmdtMcomMenuState
  3
McadcomServices
 90
        0
280
     0
281
     0
  0
CLASS
  1
MAPIAMMOUDLE
  2
MApiAmModule
  3
MApiAmServices
 90
        0
280
     0
281
     0
  0
CLASS
  1
AMDTADMENUSTATE
  2
AmdtAdMenuState
  3
DesignerServices
 90
        0
280
     0
281
     0
  0
CLASS
  1
ADAPPL
  2
AcAdAppl
  3
DesignerServices
 90
        0
280
     0
281
     0
  0
CLASS
  1
DEPMGR
  2
AcAdDepMgr
  3
DesignerServices
 90
        0
280
     0
281
     0
  0
CLASS
  1
PARAMMGR
  2
AcAdParamMgr
  3
DesignerServices
 90
        0
280
     0
281
     0
  0
CLASS
  1
PARAMSCOPE
  2
AcAdParamScope
  3
DesignerServices
 90
        0
280
     0
281
     0
  0
CLASS
  1
NAMEDAPPL
  2
AcAdNamedAppl
  3
DesignerServices
 90
        0
280
     0
281
     0
  0
CLASS
  1
AMDTDMMENUSTATE
  2
AmdtDmMenuState
  3
AcMechDwgViewMgmt
 90
        0
280
     0
281
     0
  0
CLASS
  1
AMDTAMMENUSTATE
  2
AmdtAmMenuState
  3
DesignerAssemblies
 90
        0
280
     0
281
     0
  0
CLASS
  1
ACAMPROJECT
  2
AcAmProject
  3
DesignerAssemblies
 90
        0
280
     0
281
     0
  0
CLASS
  1
ACAMGRCOMPDEF
  2
AcAmGrCompDef
  3
DesignerAssemblies
 90
        0
280
     0
281
     0
  0
CLASS
  1
ACCMCONTEXT
  2
AcCmContext
  3
DesignerAssemblies
 90
        0
280
     0
281
     0
  0
CLASS
  1
ACAMCOMPDEF
  2
AcAmCompDef
  3
DesignerAssemblies
 90
        0
280
     0
281
     0
  0
CLASS
  1
ACAMCOMPDEFMGR
  2
AcAmCompDefMgr
  3
DesignerAssemblies
 90
        0
280
     0
281
     0
  0
CLASS
  1
AMCONTEXTMGR
  2
AcAmContextMgr
  3
DesignerAssemblies
 90
        0
280
     0
281
     0
  0
CLASS
  1
ACAMCONTEXTMODELER
  2
AcAmContextModeler
  3
DesignerAssemblies
 90
        0
280
     0
281
     0
  0
CLASS
  1
ACMTHREADLINESTANDARDISO
  2
AmdtThreadLineStdISO
  3
"Amdt_StdImp|Product Description: AutoCAD Mechanical 2004 DX|Company: Autodesk"
 90
        0
280
     0
281
     0
  0
CLASS
  1
CATALOGSTATE
  2
AcAmCatalogState
  3
DesignerAssemblies
 90
        0
280
     0
281
     0
  0
CLASS
  1
ACAMGRCOMPDEFSET
  2
AcAmGrCompDefSet
  3
DesignerAssemblies
 90
        0
280
     0
281
     0
  0
CLASS
  1
AMDTBROWSERDBTAB
  2
AmdtBrowserDbTab
  3
McadcomServices
 90
        0
280
     0
281
     0
  0
CLASS
  1
CBROWSERAPPOBJECT
  2
CBrowserAppObject
  3
McadcomServices
 90
        0
280
     0
281
     0
  0
CLASS
  1
DM_PLACEHOLDER
  2
AcDmSelsetPlaceholder
  3
AcMechDwgViewMgmt
 90
        0
280
     0
281
     0
  0
CLASS
  1
TABLESTYLE
  2
AcDbTableStyle
  3
ObjectDBX Classes
 90
     2047
280
     0
281
     0
  0
CLASS
  1
VAACXREFPANELOBJECT
  2
VaAcXREFPanelObject
  3
VAAC_ADDIN
 90
    32768
280
     0
281
     0
  0
CLASS
  1
VAACIMAGEINVENTORY
  2
VaAcImageInventory
  3
VAAC_ADDIN
 90
    32768
280
     0
281
     0
  0
CLASS
  1
AMDTNOTETEMPLATEDB
  2
AmdtNoteTemplateDB
  3
AMDT_STDIMP_MODULE_NAME
 90
        0
280
     0
281
     0
  0
CLASS
  1
ACMBOM
  2
AcmBom
  3
"AcmSymBB|Product Description: AutoCAD Mechanical 2004 DX|Company: Autodesk"
 90
    32768
280
     0
281
     0
  0
CLASS
  1
AMDTFORMULAUPDATEDISPATCHER
  2
AmdtFormulaUpdateDispatcher
  3
AcMeServices
 90
    32768
280
     0
281
     0
  0
CLASS
  1
ACMPARTLIST
  2
AcmPartList
  3
"AcmSymBB|Product Description: AutoCAD Mechanical 2004 DX|Company: Autodesk"
 90
    33791
280
     0
281
     1
  0
CLASS
  1
ACAMGFILTERDAT
  2
AcAmgFilterDat
  3
"AcadM|Product Description: AutoCAD Mechanical 2000|Company: Autodesk"
 90
        0
280
     0
281
     0
  0
CLASS
  1
DIMASSOC
  2
AcDbDimAssoc
  3
"AcDbDimAssoc|Product Desc:     AcDim ARX App For Dimension|Company:          Autodesk, Inc.|WEB Address:      www.autodesk.com"
 90
    32768
280
     0
281
     0
  0
CLASS
  1
ACAMGHOLECHARTORIGIN
  2
AcAmgHoleChartOrigin
  3
ACMSYMBB_MODULE_NAME
 90
    33663
280
     0
281
     1
  0
CLASS
  1
AMDTNOTE
  2
AmdtNote
  3
"AcmSymBB|Product Description: AutoCAD Mechanical 2004 DX|Company: Autodesk"
 90
    33791
280
     0
281
     1
  0
CLASS
  1
SORTENTSTABLE
  2
AcDbSortentsTable
  3
ObjectDBX Classes
 90
    32768
280
     0
281
     0
  0
CLASS
  1
ACRFATTGENMGR
  2
AcRfAttGeneralMgr
  3
AcAttribServices
 90
        0
280
     0
281
     0
  0
ENDSEC
  0
SECTION
  2
TABLES
  0
TABLE
  2
VPORT
  5
8
330
0
100
AcDbSymbolTable
 70
     3
  0
VPORT
  5
85A8
330
8
100
AcDbSymbolTableRecord
100
AcDbViewportTableRecord
  2
*Active
 70
     0
 10
0.0
 20
0.0
 11
1.0
 21
1.0
 12
1787.630920734378
 22
2206.357982507348
 13
0.0
 23
0.0
 14
2.5
 24
2.5
 15
10.0
 25
10.0
 16
0.0
 26
0.0
 36
1.0
 17
0.0
 27
0.0
 37
0.0
 40
2044.066406929447
 41
1.81766917293233
 42
50.0
 43
0.0
 44
0.0
 50
0.0
 51
0.0
 71
     0
 72
   100
 73
     1
 74
     3
 75
     0
 76
     0
 77
     0
 78
     0
281
     0
 65
     1
110
0.0
120
0.0
130
0.0
111
1.0
121
0.0
131
0.0
112
0.0
122
1.0
132
0.0
 79
     0
146
0.0
  0
ENDTAB
  0
TABLE
  2
LTYPE
  5
5
330
0
100
AcDbSymbolTable
 70
    16
  0
LTYPE
  5
14
330
5
100
AcDbSymbolTableRecord
100
AcDbLinetypeTableRecord
  2
ByBlock
 70
     0
  3

 72
    65
 73
     0
 40
0.0
  0
LTYPE
  5
15
330
5
100
AcDbSymbolTableRecord
100
AcDbLinetypeTableRecord
  2
ByLayer
 70
     0
  3

 72
    65
 73
     0
 40
0.0
  0
LTYPE
  5
16
330
5
100
AcDbSymbolTableRecord
100
AcDbLinetypeTableRecord
  2
Continuous
 70
     0
  3
Solid line
 72
    65
 73
     0
 40
0.0
  0
LTYPE
  5
64
330
5
100
AcDbSymbolTableRecord
100
AcDbLinetypeTableRecord
  2
AM_ISO02W050
 70
     0
  3
__ __ __ __ __ __ __ __ __ __ __ __ __ __ __
 72
    65
 73
     2
 40
7.5
 49
6.0
 74
     0
 49
-1.5
 74
     0
  0
LTYPE
  5
65
330
5
100
AcDbSymbolTableRecord
100
AcDbLinetypeTableRecord
  2
AM_ISO08W050
 70
     0
  3
____ . ____ . ____ . ____ . ____ . ____ . ____
 72
    65
 73
     4
 40
18.0
 49
12.0
 74
     0
 49
-1.5
 74
     0
 49
3.0
 74
     0
 49
-1.5
 74
     0
  0
LTYPE
  5
66
330
5
100
AcDbSymbolTableRecord
100
AcDbLinetypeTableRecord
  2
AM_ISO09W050
 70
     0
  3
_____ . . _____ . . _____ . . ____ .. ____
 72
    65
 73
     6
 40
22.5
 49
12.0
 74
     0
 49
-1.5
 74
     0
 49
3.0
 74
     0
 49
-1.5
 74
     0
 49
3.0
 74
     0
 49
-1.5
 74
     0
  0
LTYPE
  5
67
330
5
100
AcDbSymbolTableRecord
100
AcDbLinetypeTableRecord
  2
Amconstr
 70
     0
  3
_______________________
 72
    65
 73
     2
 40
9999.0
 49
9999.0
 74
     0
 49
0.0
 74
     0
  0
LTYPE
  5
68
330
5
100
AcDbSymbolTableRecord
100
AcDbLinetypeTableRecord
  2
AM_ISO08W050x2
 70
     0
  3
__ . __ . __ . __ . __ . __
 72
    65
 73
     4
 40
9.0
 49
6.0
 74
     0
 49
-0.75
 74
     0
 49
1.5
 74
     0
 49
-0.75
 74
     0
  0
LTYPE
  5
69
330
5
100
AcDbSymbolTableRecord
100
AcDbLinetypeTableRecord
  2
AM_ISO02W050x2
 70
     0
  3
 _ _ _ _ _ _ _ _ _ _ _ _
 72
    65
 73
     2
 40
3.75
 49
3.0
 74
     0
 49
-0.75
 74
     0
  0
LTYPE
  5
6C
330
5
100
AcDbSymbolTableRecord
100
AcDbLinetypeTableRecord
  2
Amzigzag
 70
     0
  3
/\/-/\/-/\/-/\/-/\/-/\/
 72
    65
 73
     2
 40
11.0001
 49
0.0001
 74
     4
 75
   135
340
6B
 46
0.04
 50
0.0
 44
0.0
 45
0.0
 49
-11.0
 74
     0
  0
LTYPE
  5
7A
330
5
100
AcDbSymbolTableRecord
100
AcDbLinetypeTableRecord
  2
ACISOWELD
 70
     0
  3
_ _ _ _ _
 72
    65
 73
     2
 40
2.0
 49
2.0
 74
     0
 49
-1.0
 74
     0
  0
LTYPE
  5
7B
330
5
100
AcDbSymbolTableRecord
100
AcDbLinetypeTableRecord
  2
ACISOTGB
 70
     0
  3
__ . . __ . .
 72
    65
 73
     6
 40
9.0
 49
4.0
 74
     0
 49
-1.0
 74
     0
 49
1.0
 74
     0
 49
-1.0
 74
     0
 49
1.0
 74
     0
 49
-1.0
 74
     0
  0
LTYPE
  5
7C
330
5
100
AcDbSymbolTableRecord
100
AcDbLinetypeTableRecord
  2
ACISOTGL
 70
     0
  3
_ _ _ _ _
 72
    65
 73
     2
 40
3.0
 49
2.0
 74
     0
 49
-1.0
 74
     0
  0
LTYPE
  5
7E
330
5
100
AcDbSymbolTableRecord
100
AcDbLinetypeTableRecord
  2
CENTER
 70
     0
  3
__ . __
 72
    65
 73
     4
 40
7.0
 49
4.0
 74
     0
 49
-1.0
 74
     0
 49
1.0
 74
     0
 49
-1.0
 74
     0
  0
LTYPE
  5
D8
330
5
100
AcDbSymbolTableRecord
100
AcDbLinetypeTableRecord
  2
HIDDEN
 70
     0
  3
Hidden __ __ __ __ __ __ __ __ __ __ __ __ __ _
 72
    65
 73
     2
 40
9.524999999999998
 49
6.349999999999999
 74
     0
 49
-3.174999999999999
 74
     0
  0
LTYPE
  5
D9
330
5
100
AcDbSymbolTableRecord
100
AcDbLinetypeTableRecord
  2
PHANTOM2
 70
     0
  3
Phantom (.5x) ___ _ _ ___ _ _ ___ _ _ ___ _ _
 72
    65
 73
     6
 40
31.75
 49
15.875
 74
     0
 49
-3.174999999999999
 74
     0
 49
3.174999999999999
 74
     0
 49
-3.174999999999999
 74
     0
 49
3.174999999999999
 74
     0
 49
-3.174999999999999
 74
     0
  0
LTYPE
  5
71F
330
5
100
AcDbSymbolTableRecord
100
AcDbLinetypeTableRecord
  2
HIDDEN2
 70
     0
  3
Hidden (.5x) _ _ _ _ _ _ _ _ _ _ _ _ _ _ _ _ _
 72
    65
 73
     2
 40
4.762499999999999
 49
3.174999999999999
 74
     0
 49
-1.587499999999999
 74
     0
  0
LTYPE
  5
63A7
330
5
100
AcDbSymbolTableRecord
100
AcDbLinetypeTableRecord
  2
CENTERX2
 70
     0
  3
Center (2x) ________  __  ________  __  _____
 72
    65
 73
     4
 40
101.6
 49
63.5
 74
     0
 49
-12.7
 74
     0
 49
12.7
 74
     0
 49
-12.7
 74
     0
  0
ENDTAB
  0
TABLE
  2
LAYER
  5
2
102
{ACAD_XDICTIONARY
360
3F9
102
}
330
0
100
AcDbSymbolTable
 70
     8
  0
LAYER
  5
10
330
2
100
AcDbSymbolTableRecord
100
AcDbLayerTableRecord
  2
0
 70
     0
 62
     7
  6
Continuous
370
    -3
390
F
  0
LAYER
  5
206
330
2
100
AcDbSymbolTableRecord
100
AcDbLayerTableRecord
  2
Defpoints
 70
     0
 62
     7
  6
Continuous
290
     0
370
    -3
390
F
  0
LAYER
  5
720
330
2
100
AcDbSymbolTableRecord
100
AcDbLayerTableRecord
  2
圖層1輪廓線
 70
     0
 62
     7
  6
Continuous
370
    50
390
728
  0
LAYER
  5
721
330
2
100
AcDbSymbolTableRecord
100
AcDbLayerTableRecord
  2
圖層2中心線
 70
     0
 62
     1
  6
CENTERX2
370
    18
390
729
  0
LAYER
  5
722
330
2
100
AcDbSymbolTableRecord
100
AcDbLayerTableRecord
  2
圖層3虛線
 70
     0
 62
     3
  6
HIDDEN2
370
    25
390
72A
  0
LAYER
  5
723
330
2
100
AcDbSymbolTableRecord
100
AcDbLayerTableRecord
  2
圖層4尺寸線
 70
     0
 62
     5
  6
Continuous
370
    25
390
72B
  0
LAYER
  5
B2A
330
2
100
AcDbSymbolTableRecord
100
AcDbLayerTableRecord
  2
AM_5
 70
     0
 62
     5
  6
Continuous
370
    50
390
F
  0
LAYER
  5
82F9
330
2
100
AcDbSymbolTableRecord
100
AcDbLayerTableRecord
  2
LOGO
 70
     0
 62
     7
  6
Continuous
370
    -3
390
F
  0
ENDTAB
  0
TABLE
  2
STYLE
  5
3
330
0
100
AcDbSymbolTable
 70
     8
  0
STYLE
  5
11
330
3
100
AcDbSymbolTableRecord
100
AcDbTextStyleTableRecord
  2
STANDARD
 70
     0
 40
0.0
 41
1.0
 50
0.0
 71
     0
 42
3.0
  3
ISOCP.SHX
  4
CHINESET.SHX
  0
STYLE
  5
6B
330
3
100
AcDbSymbolTableRecord
100
AcDbTextStyleTableRecord
  2

 70
     1
 40
0.0
 41
1.0
 50
0.0
 71
     0
 42
2.5
  3
ltypeshp.shx
  4

  0
STYLE
  5
6D
330
3
100
AcDbSymbolTableRecord
100
AcDbTextStyleTableRecord
  2
ACISOTS
 70
     0
 40
1.0
 41
1.0
 50
0.0
 71
     0
 42
1.0
  3
isocp.shx
  4
chineset.shx
  0
STYLE
  5
79
330
3
100
AcDbSymbolTableRecord
100
AcDbTextStyleTableRecord
  2
ACISOGDT
 70
     0
 40
0.0
 41
1.0
 50
0.0
 71
     0
 42
2.5
  3
amgdt.shx
  4
chineset.shx
  0
STYLE
  5
60C
330
3
100
AcDbSymbolTableRecord
100
AcDbTextStyleTableRecord
  2
CHINESET
 70
     0
 40
0.0
 41
1.0
 50
0.0
 71
     0
 42
3.0
  3
simplex.shx
  4
CHINESET.SHX
  0
STYLE
  5
7741
330
3
100
AcDbSymbolTableRecord
100
AcDbTextStyleTableRecord
  2
WIN
 70
     0
 40
0.0
 41
1.0
 50
0.0
 71
     0
 42
4.0
  3
PMingLiU.ttf
  4

1001
ACAD
1000
PMingLiU
1071
    34834
  0
ENDTAB
  0
TABLE
  2
VIEW
  5
6
330
0
100
AcDbSymbolTable
 70
     0
  0
ENDTAB
  0
TABLE
  2
UCS
  5
7
330
0
100
AcDbSymbolTable
 70
     0
  0
ENDTAB
  0
TABLE
  2
APPID
  5
9
330
0
100
AcDbSymbolTable
 70
    21
  0
APPID
  5
12
330
9
100
AcDbSymbolTableRecord
100
AcDbRegAppTableRecord
  2
ACAD
 70
     0
  0
APPID
  5
46
330
9
100
AcDbSymbolTableRecord
100
AcDbRegAppTableRecord
  2
MCAD_NO_VIS
 70
     0
  0
APPID
  5
47
330
9
100
AcDbSymbolTableRecord
100
AcDbRegAppTableRecord
  2
ACAD_TEMP_GRAPHIC
 70
     0
  0
APPID
  5
58
330
9
100
AcDbSymbolTableRecord
100
AcDbRegAppTableRecord
  2
ACATTRIBSERVICES
 70
     0
  0
APPID
  5
EE
330
9
100
AcDbSymbolTableRecord
100
AcDbRegAppTableRecord
  2
AD_DRAW
 70
     0
  0
APPID
  5
10C
330
9
100
AcDbSymbolTableRecord
100
AcDbRegAppTableRecord
  2
DESIGNERASSEMBLIES
 70
     0
  0
APPID
  5
111
330
9
100
AcDbSymbolTableRecord
100
AcDbRegAppTableRecord
  2
ACADM_DIM_EDIT
 70
     0
  0
APPID
  5
112
330
9
100
AcDbSymbolTableRecord
100
AcDbRegAppTableRecord
  2
AMDT_DM_ADJ
 70
     0
  0
APPID
  5
22C
330
9
100
AcDbSymbolTableRecord
100
AcDbRegAppTableRecord
  2
ACAD_DSTYLE_DIMTEXT_FILL
 70
     0
  0
APPID
  5
452
330
9
100
AcDbSymbolTableRecord
100
AcDbRegAppTableRecord
  2
GENIUS_GENOENT_13
 70
     0
  0
APPID
  5
453
330
9
100
AcDbSymbolTableRecord
100
AcDbRegAppTableRecord
  2
GENIUS_GENOBJ-N-CRS_13
 70
     0
  0
APPID
  5
454
330
9
100
AcDbSymbolTableRecord
100
AcDbRegAppTableRecord
  2
GENIUS_GENOLIS_13
 70
     0
  0
APPID
  5
455
330
9
100
AcDbSymbolTableRecord
100
AcDbRegAppTableRecord
  2
GENIUS_GENODEF_13
 70
     0
  0
APPID
  5
456
330
9
100
AcDbSymbolTableRecord
100
AcDbRegAppTableRecord
  2
GENIUS_GENOREF_13
 70
     0
  0
APPID
  5
6F3
330
9
100
AcDbSymbolTableRecord
100
AcDbRegAppTableRecord
  2
ACAD_PSEXT
 70
     0
  0
APPID
  5
727
330
9
100
AcDbSymbolTableRecord
100
AcDbRegAppTableRecord
  2
AcAecLayerStandard
 70
     0
  0
APPID
  5
D7F
330
9
100
AcDbSymbolTableRecord
100
AcDbRegAppTableRecord
  2
GENIUS_GENDTOL_13
 70
     0
  0
APPID
  5
15FB
330
9
100
AcDbSymbolTableRecord
100
AcDbRegAppTableRecord
  2
GENIUS_GENOBJ-N-CEN_13
 70
     0
  0
APPID
  5
15FC
330
9
100
AcDbSymbolTableRecord
100
AcDbRegAppTableRecord
  2
GENIUS_GENCEN_19
 70
     0
  0
APPID
  5
300F
330
9
100
AcDbSymbolTableRecord
100
AcDbRegAppTableRecord
  2
GENIUS_GENREC_14
 70
     0
  0
APPID
  5
3010
330
9
100
AcDbSymbolTableRecord
100
AcDbRegAppTableRecord
  2
GENIUS_GENOBJ-N-REC_13
 70
     0
  0
ENDTAB
  0
TABLE
  2
DIMSTYLE
  5
A
330
0
100
AcDbSymbolTable
 70
    11
100
AcDbDimStyleTable
 71
     3
340
81
340
8B
340
86
  0
DIMSTYLE
105
81
330
A
100
AcDbSymbolTableRecord
100
AcDbDimStyleTableRecord
  2
AM_ISO
 70
     0
  4
"
 41
20.0
 42
3.0
 43
50.0
 44
4.0
 47
0.1
 48
0.1
 73
     0
 74
     0
 77
     1
 78
     8
 79
     2
140
20.0
141
0.0
143
0.0393701
146
0.71
147
6.0
172
     1
176
   256
177
   256
178
   256
271
     2
272
     2
283
     2
284
     8
340
11
371
    -1
372
    -1
  0
DIMSTYLE
105
82
330
A
100
AcDbSymbolTableRecord
100
AcDbDimStyleTableRecord
  2
AM_ISO$3
 70
     0
  4
"
 41
20.0
 42
3.0
 43
50.0
 44
4.0
 47
0.1
 48
0.1
 73
     0
 77
     1
 78
     8
 79
     2
140
20.0
141
0.0
143
0.0393701
146
0.71
147
6.0
176
   256
177
   256
178
   256
271
     2
272
     2
283
     2
284
     8
288
     1
289
     0
340
11
371
    -1
372
    -1
  0
DIMSTYLE
105
83
330
A
100
AcDbSymbolTableRecord
100
AcDbDimStyleTableRecord
  2
AM_ISO$4
 70
     0
  4
"
 41
20.0
 42
3.0
 43
50.0
 44
4.0
 47
0.1
 48
0.1
 73
     0
 77
     1
 78
     8
 79
     2
140
20.0
141
0.0
143
0.0393701
146
0.71
147
6.0
176
   256
177
   256
178
   256
271
     2
272
     2
283
     2
284
     8
288
     1
289
     0
340
11
371
    -1
372
    -1
  0
DIMSTYLE
105
84
330
A
100
AcDbSymbolTableRecord
100
AcDbDimStyleTableRecord
  2
AM_ISO$6
 70
     0
  4
"
 41
20.0
 42
3.0
 43
50.0
 44
4.0
 47
0.1
 48
0.1
 73
     0
 74
     0
 78
     8
 79
     2
140
20.0
141
0.0
143
0.0393701
146
0.71
147
6.0
172
     1
176
   256
177
   256
178
   256
271
     2
272
     2
283
     2
284
     8
340
11
371
    -1
372
    -1
  0
DIMSTYLE
105
85
330
A
100
AcDbSymbolTableRecord
100
AcDbDimStyleTableRecord
  2
AM_ISO$7
 70
     0
  4
"
 41
20.0
 42
3.0
 43
50.0
 44
4.0
 47
0.1
 48
0.1
 73
     0
 74
     0
 77
     1
 78
     8
 79
     2
140
5.0
141
0.0
143
0.0393701
146
0.71
147
6.0
172
     1
176
   256
177
   256
178
   256
271
     2
272
     2
283
     2
284
     8
340
11
371
    -1
372
    -1
  0
DIMSTYLE
105
86
330
A
100
AcDbSymbolTableRecord
100
AcDbDimStyleTableRecord
  2
AM_ISO$SF
 70
     0
  4
"
 41
2.5
 42
1.0
 43
10.0
 44
1.0
 47
0.1
 48
0.1
 73
     0
 74
     0
 75
     1
 76
     1
 77
     1
 78
     8
 79
     2
140
3.5
141
0.0
143
0.0393701
146
0.71
147
1.5
172
     1
176
   256
177
   256
178
     2
271
     2
272
     3
274
     4
283
     0
284
     8
340
11
371
    -1
372
    -1
  0
DIMSTYLE
105
8B
330
A
100
AcDbSymbolTableRecord
100
AcDbDimStyleTableRecord
  2
AM_ISO$SH
 70
     0
  4
"
 41
2.5
 42
1.0
 43
10.0
 44
1.0
 47
0.1
 48
0.1
 73
     0
 74
     0
 75
     1
 76
     1
 77
     1
 78
     8
 79
     2
140
3.5
141
0.0
143
0.0393701
144
2.0
146
0.71
147
1.5
172
     1
173
     1
176
   256
177
   256
178
     2
271
     2
272
     3
274
     4
283
     0
284
     8
340
11
343
87
371
    -1
372
    -1
  0
DIMSTYLE
105
40B
102
{ACAD_REACTORS
330
7A49
330
7A48
330
7A51
330
7A50
330
7AC2
330
7C9D
330
7C9C
330
7A53
330
7ABF
330
7AC1
330
7ACF
330
7AC0
330
7A4F
330
7A4B
330
7A4E
330
7A4D
330
7A4C
330
7AB3
330
7A52
330
7C9B
330
7C9A
330
7C99
330
7C98
330
7A4A
330
7A55
330
7A57
330
7A58
330
7A56
330
7A54
102
}
330
A
100
AcDbSymbolTableRecord
100
AcDbDimStyleTableRecord
  2
AM_ISO$0
 70
     0
  4
"
 41
20.0
 42
3.0
 43
50.0
 44
4.0
 47
0.1
 48
0.1
 73
     0
 74
     0
 77
     1
 78
     8
 79
     2
140
20.0
141
0.0
143
0.0393701
146
0.71
147
6.0
172
     1
176
   256
177
   256
178
   256
271
     2
272
     2
283
     2
284
     8
340
11
371
    -1
372
    -1
  0
DIMSTYLE
105
7742
102
{ACAD_REACTORS
330
7AB2
102
}
330
A
100
AcDbSymbolTableRecord
100
AcDbDimStyleTableRecord
  2
直線
 70
     0
 41
20.0
 42
5.0
 43
8.0
 44
5.0
 73
     0
 74
     0
 77
     1
 78
     8
140
20.0
141
6.0
143
0.03937007874016
147
5.0
171
     3
172
     1
271
     2
272
     2
274
     3
278
    44
283
     0
284
     8
340
11
  0
ENDTAB
  0
TABLE
  2
BLOCK_RECORD
  5
1
330
0
100
AcDbSymbolTable
 70
    35
  0
BLOCK_RECORD
  5
1F
102
{ACAD_XDICTIONARY
360
8F
102
}
330
1
100
AcDbSymbolTableRecord
100
AcDbBlockTableRecord
  2
*Model_Space
340
22
  0
BLOCK_RECORD
  5
1B
330
1
100
AcDbSymbolTableRecord
100
AcDbBlockTableRecord
  2
*Paper_Space
340
1E
  0
BLOCK_RECORD
  5
23
330
1
100
AcDbSymbolTableRecord
100
AcDbBlockTableRecord
  2
*Paper_Space0
340
26
  0
BLOCK_RECORD
  5
87
330
1
100
AcDbSymbolTableRecord
100
AcDbBlockTableRecord
  2
GENAXEH
340
0
  0
BLOCK_RECORD
  5
7C9E
330
1
100
AcDbSymbolTableRecord
100
AcDbBlockTableRecord
  2
*D3
340
0
  0
BLOCK_RECORD
  5
7CAA
330
1
100
AcDbSymbolTableRecord
100
AcDbBlockTableRecord
  2
*D4
340
0
  0
BLOCK_RECORD
  5
7CB6
330
1
100
AcDbSymbolTableRecord
100
AcDbBlockTableRecord
  2
*D5
340
0
  0
BLOCK_RECORD
  5
7CC2
330
1
100
AcDbSymbolTableRecord
100
AcDbBlockTableRecord
  2
*D6
340
0
  0
BLOCK_RECORD
  5
7CD0
330
1
100
AcDbSymbolTableRecord
100
AcDbBlockTableRecord
  2
*D7
340
0
  0
BLOCK_RECORD
  5
7CDC
330
1
100
AcDbSymbolTableRecord
100
AcDbBlockTableRecord
  2
*D8
340
0
  0
BLOCK_RECORD
  5
7CE8
330
1
100
AcDbSymbolTableRecord
100
AcDbBlockTableRecord
  2
*D9
340
0
  0
BLOCK_RECORD
  5
7CF4
330
1
100
AcDbSymbolTableRecord
100
AcDbBlockTableRecord
  2
*D10
340
0
  0
BLOCK_RECORD
  5
7D00
330
1
100
AcDbSymbolTableRecord
100
AcDbBlockTableRecord
  2
*D11
340
0
  0
BLOCK_RECORD
  5
7D0C
330
1
100
AcDbSymbolTableRecord
100
AcDbBlockTableRecord
  2
*D12
340
0
  0
BLOCK_RECORD
  5
7D1A
330
1
100
AcDbSymbolTableRecord
100
AcDbBlockTableRecord
  2
*D13
340
0
  0
BLOCK_RECORD
  5
7D28
330
1
100
AcDbSymbolTableRecord
100
AcDbBlockTableRecord
  2
*D14
340
0
  0
BLOCK_RECORD
  5
7D36
330
1
100
AcDbSymbolTableRecord
100
AcDbBlockTableRecord
  2
*D15
340
0
  0
BLOCK_RECORD
  5
7D44
330
1
100
AcDbSymbolTableRecord
100
AcDbBlockTableRecord
  2
*D16
340
0
  0
BLOCK_RECORD
  5
7D50
330
1
100
AcDbSymbolTableRecord
100
AcDbBlockTableRecord
  2
*D17
340
0
  0
BLOCK_RECORD
  5
7D5C
330
1
100
AcDbSymbolTableRecord
100
AcDbBlockTableRecord
  2
*D18
340
0
  0
BLOCK_RECORD
  5
7D68
330
1
100
AcDbSymbolTableRecord
100
AcDbBlockTableRecord
  2
*D19
340
0
  0
BLOCK_RECORD
  5
7D74
330
1
100
AcDbSymbolTableRecord
100
AcDbBlockTableRecord
  2
*D20
340
0
  0
BLOCK_RECORD
  5
7D80
330
1
100
AcDbSymbolTableRecord
100
AcDbBlockTableRecord
  2
*D21
340
0
  0
BLOCK_RECORD
  5
7D8C
330
1
100
AcDbSymbolTableRecord
100
AcDbBlockTableRecord
  2
*D22
340
0
  0
BLOCK_RECORD
  5
7D98
330
1
100
AcDbSymbolTableRecord
100
AcDbBlockTableRecord
  2
*D23
340
0
  0
BLOCK_RECORD
  5
7DA4
330
1
100
AcDbSymbolTableRecord
100
AcDbBlockTableRecord
  2
*D24
340
0
  0
BLOCK_RECORD
  5
7DB2
330
1
100
AcDbSymbolTableRecord
100
AcDbBlockTableRecord
  2
*D25
340
0
  0
BLOCK_RECORD
  5
7DC0
330
1
100
AcDbSymbolTableRecord
100
AcDbBlockTableRecord
  2
*D26
340
0
  0
BLOCK_RECORD
  5
7DCE
330
1
100
AcDbSymbolTableRecord
100
AcDbBlockTableRecord
  2
*D27
340
0
  0
BLOCK_RECORD
  5
7DDA
330
1
100
AcDbSymbolTableRecord
100
AcDbBlockTableRecord
  2
*D28
340
0
  0
BLOCK_RECORD
  5
7DE8
330
1
100
AcDbSymbolTableRecord
100
AcDbBlockTableRecord
  2
*D29
340
0
  0
BLOCK_RECORD
  5
7DF6
330
1
100
AcDbSymbolTableRecord
100
AcDbBlockTableRecord
  2
*D30
340
0
  0
BLOCK_RECORD
  5
7E03
330
1
100
AcDbSymbolTableRecord
100
AcDbBlockTableRecord
  2
*D31
340
0
  0
BLOCK_RECORD
  5
7E0F
330
1
100
AcDbSymbolTableRecord
100
AcDbBlockTableRecord
  2
*D32
340
0
  0
ENDTAB
  0
ENDSEC
  0
SECTION
  2
BLOCKS
  0
BLOCK
  5
20
330
1F
100
AcDbEntity
  8
0
100
AcDbBlockBegin
  2
*Model_Space
 70
     0
 10
0.0
 20
0.0
 30
0.0
  3
*Model_Space
  1

  0
ENDBLK
  5
21
330
1F
100
AcDbEntity
  8
0
100
AcDbBlockEnd
  0
BLOCK
  5
1C
330
1B
100
AcDbEntity
 67
     1
  8
0
100
AcDbBlockBegin
  2
*Paper_Space
 70
     0
 10
0.0
 20
0.0
 30
0.0
  3
*Paper_Space
  1

  0
ENDBLK
  5
1D
330
1B
100
AcDbEntity
 67
     1
  8
0
100
AcDbBlockEnd
  0
BLOCK
  5
24
330
23
100
AcDbEntity
  8
0
100
AcDbBlockBegin
  2
*Paper_Space0
 70
     0
 10
0.0
 20
0.0
 30
0.0
  3
*Paper_Space0
  1

  0
ENDBLK
  5
25
330
23
100
AcDbEntity
  8
0
100
AcDbBlockEnd
  0
BLOCK
  5
89
330
87
100
AcDbEntity
  8
0
100
AcDbBlockBegin
  2
GENAXEH
 70
     0
 10
0.0
 20
0.0
 30
0.0
  3
GENAXEH
  1

  0
LINE
  5
88
330
87
100
AcDbEntity
  8
0
100
AcDbLine
 10
-1.0
 20
0.0
 30
0.0
 11
1.0
 21
0.0
 31
0.0
  0
ENDBLK
  5
8A
330
87
100
AcDbEntity
  8
0
100
AcDbBlockEnd
  0
BLOCK
  5
7CA8
330
7C9E
100
AcDbEntity
  8
0
100
AcDbBlockBegin
  2
*D3
 70
     1
 10
0.0
 20
0.0
 30
0.0
  3
*D3
  1

  0
LINE
  5
84FC
330
7C9E
100
AcDbEntity
  8
AM_5
100
AcDbLine
 10
1817.201533352716
 20
1622.674869639548
 30
0.0
 11
1817.201533352716
 21
1571.674869639548
 31
0.0
  0
LINE
  5
84FD
330
7C9E
100
AcDbEntity
  8
AM_5
100
AcDbLine
 10
1967.201533352716
 20
1599.727348854474
 30
0.0
 11
1967.201533352716
 21
1571.674869639548
 31
0.0
  0
LINE
  5
84FE
330
7C9E
100
AcDbEntity
  8
AM_5
100
AcDbLine
 10
1837.201533352716
 20
1575.674869639548
 30
0.0
 11
1947.201533352716
 21
1575.674869639548
 31
0.0
  0
SOLID
  5
84FF
330
7C9E
100
AcDbEntity
  8
AM_5
100
AcDbTrace
 10
1837.201533352716
 20
1579.008202972881
 30
0.0
 11
1837.201533352716
 21
1572.341536306215
 31
0.0
 12
1817.201533352716
 22
1575.674869639548
 32
0.0
 13
1817.201533352716
 23
1575.674869639548
 33
0.0
  0
SOLID
  5
8500
330
7C9E
100
AcDbEntity
  8
AM_5
100
AcDbTrace
 10
1947.201533352716
 20
1579.008202972881
 30
0.0
 11
1947.201533352716
 21
1572.341536306215
 31
0.0
 12
1967.201533352716
 22
1575.674869639548
 32
0.0
 13
1967.201533352716
 23
1575.674869639548
 33
0.0
  0
MTEXT
  5
8501
330
7C9E
100
AcDbEntity
  8
AM_5
100
AcDbMText
 10
1892.201533352716
 20
1591.674869639548
 30
0.0
 40
20.0
 41
0.0
 71
     5
 72
     1
  1
\A2;150
 73
     1
 44
1.0
1001
ACAD
1000
MTEXTBEGIN
1070
    73
1070
     1
1070
    44
1040
1.0
1070
    74
1070
     0
1000
MTEXTEND
  0
POINT
  5
8502
330
7C9E
100
AcDbEntity
  8
Defpoints
 62
     0
100
AcDbPoint
 10
1817.201533352716
 20
1625.674869639548
 30
0.0
  0
POINT
  5
8503
330
7C9E
100
AcDbEntity
  8
Defpoints
 62
     0
100
AcDbPoint
 10
1967.201533352716
 20
1602.727348854475
 30
0.0
  0
POINT
  5
8504
330
7C9E
100
AcDbEntity
  8
Defpoints
 62
     0
100
AcDbPoint
 10
1967.201533352716
 20
1575.674869639548
 30
0.0
  0
ENDBLK
  5
7CA9
330
7C9E
100
AcDbEntity
  8
0
100
AcDbBlockEnd
  0
BLOCK
  5
7CB4
330
7CAA
100
AcDbEntity
  8
0
100
AcDbBlockBegin
  2
*D4
 70
     1
 10
0.0
 20
0.0
 30
0.0
  3
*D4
  1

  0
LINE
  5
8505
330
7CAA
100
AcDbEntity
  8
AM_5
100
AcDbLine
 10
1967.201533352716
 20
1599.727348854474
 30
0.0
 11
1967.201533352716
 21
1571.674869639548
 31
0.0
  0
LINE
  5
8506
330
7CAA
100
AcDbEntity
  8
AM_5
100
AcDbLine
 10
2202.201533352716
 20
1592.016420310875
 30
0.0
 11
2202.201533352716
 21
1571.674869639548
 31
0.0
  0
LINE
  5
8507
330
7CAA
100
AcDbEntity
  8
AM_5
100
AcDbLine
 10
1987.201533352716
 20
1575.674869639548
 30
0.0
 11
2182.201533352716
 21
1575.674869639548
 31
0.0
  0
SOLID
  5
8508
330
7CAA
100
AcDbEntity
  8
AM_5
100
AcDbTrace
 10
1987.201533352716
 20
1579.008202972881
 30
0.0
 11
1987.201533352716
 21
1572.341536306215
 31
0.0
 12
1967.201533352716
 22
1575.674869639548
 32
0.0
 13
1967.201533352716
 23
1575.674869639548
 33
0.0
  0
SOLID
  5
8509
330
7CAA
100
AcDbEntity
  8
AM_5
100
AcDbTrace
 10
2182.201533352716
 20
1579.008202972881
 30
0.0
 11
2182.201533352716
 21
1572.341536306215
 31
0.0
 12
2202.201533352716
 22
1575.674869639548
 32
0.0
 13
2202.201533352716
 23
1575.674869639548
 33
0.0
  0
MTEXT
  5
850A
330
7CAA
100
AcDbEntity
  8
AM_5
100
AcDbMText
 10
2084.701533352716
 20
1591.676838143485
 30
0.0
 40
20.0
 41
0.0
 71
     5
 72
     1
  1
\A2;235
 73
     1
 44
1.0
1001
ACAD
1000
MTEXTBEGIN
1070
    73
1070
     1
1070
    44
1040
1.0
1070
    74
1070
     0
1000
MTEXTEND
  0
POINT
  5
850B
330
7CAA
100
AcDbEntity
  8
Defpoints
 62
     0
100
AcDbPoint
 10
1967.201533352716
 20
1602.727348854475
 30
0.0
  0
POINT
  5
850C
330
7CAA
100
AcDbEntity
  8
Defpoints
 62
     0
100
AcDbPoint
 10
2202.201533352716
 20
1595.016420310876
 30
0.0
  0
POINT
  5
850D
330
7CAA
100
AcDbEntity
  8
Defpoints
 62
     0
100
AcDbPoint
 10
2202.201533352716
 20
1575.674869639548
 30
0.0
  0
ENDBLK
  5
7CB5
330
7CAA
100
AcDbEntity
  8
0
100
AcDbBlockEnd
  0
BLOCK
  5
7CC0
330
7CB6
100
AcDbEntity
  8
0
100
AcDbBlockBegin
  2
*D5
 70
     1
 10
0.0
 20
0.0
 30
0.0
  3
*D5
  1

  0
LINE
  5
850E
330
7CB6
100
AcDbEntity
  8
AM_5
100
AcDbLine
 10
2202.201533352716
 20
1592.016420310875
 30
0.0
 11
2202.201533352716
 21
1571.674869639548
 31
0.0
  0
LINE
  5
850F
330
7CB6
100
AcDbEntity
  8
AM_5
100
AcDbLine
 10
2367.201533352716
 20
1592.016420310875
 30
0.0
 11
2367.201533352716
 21
1571.674869639548
 31
0.0
  0
LINE
  5
8510
330
7CB6
100
AcDbEntity
  8
AM_5
100
AcDbLine
 10
2222.201533352716
 20
1575.674869639548
 30
0.0
 11
2347.201533352716
 21
1575.674869639548
 31
0.0
  0
SOLID
  5
8511
330
7CB6
100
AcDbEntity
  8
AM_5
100
AcDbTrace
 10
2222.201533352716
 20
1579.008202972881
 30
0.0
 11
2222.201533352716
 21
1572.341536306215
 31
0.0
 12
2202.201533352716
 22
1575.674869639548
 32
0.0
 13
2202.201533352716
 23
1575.674869639548
 33
0.0
  0
SOLID
  5
8512
330
7CB6
100
AcDbEntity
  8
AM_5
100
AcDbTrace
 10
2347.201533352716
 20
1579.008202972881
 30
0.0
 11
2347.201533352716
 21
1572.341536306215
 31
0.0
 12
2367.201533352716
 22
1575.674869639548
 32
0.0
 13
2367.201533352716
 23
1575.674869639548
 33
0.0
  0
MTEXT
  5
8513
330
7CB6
100
AcDbEntity
  8
AM_5
100
AcDbMText
 10
2284.701533352716
 20
1591.674869639548
 30
0.0
 40
20.0
 41
0.0
 71
     5
 72
     1
  1
\A2;165
 73
     1
 44
1.0
1001
ACAD
1000
MTEXTBEGIN
1070
    73
1070
     1
1070
    44
1040
1.0
1070
    74
1070
     0
1000
MTEXTEND
  0
POINT
  5
8514
330
7CB6
100
AcDbEntity
  8
Defpoints
 62
     0
100
AcDbPoint
 10
2202.201533352716
 20
1595.016420310876
 30
0.0
  0
POINT
  5
8515
330
7CB6
100
AcDbEntity
  8
Defpoints
 62
     0
100
AcDbPoint
 10
2367.201533352716
 20
1595.016420310876
 30
0.0
  0
POINT
  5
8516
330
7CB6
100
AcDbEntity
  8
Defpoints
 62
     0
100
AcDbPoint
 10
2367.201533352716
 20
1575.674869639548
 30
0.0
  0
ENDBLK
  5
7CC1
330
7CB6
100
AcDbEntity
  8
0
100
AcDbBlockEnd
  0
BLOCK
  5
7CCE
330
7CC2
100
AcDbEntity
  8
0
100
AcDbBlockBegin
  2
*D6
 70
     1
 10
0.0
 20
0.0
 30
0.0
  3
*D6
  1

  0
LINE
  5
8517
330
7CC2
100
AcDbEntity
  8
AM_5
100
AcDbLine
 10
2367.201533352716
 20
1592.016420310875
 30
0.0
 11
2367.201533352716
 21
1571.674869639548
 31
0.0
  0
LINE
  5
8518
330
7CC2
100
AcDbEntity
  8
AM_5
100
AcDbLine
 10
2397.201533352716
 20
1632.674869639548
 30
0.0
 11
2397.201533352716
 21
1571.674869639548
 31
0.0
  0
LINE
  5
8519
330
7CC2
100
AcDbEntity
  8
AM_5
100
AcDbLine
 10
2347.201533352716
 20
1575.674869639548
 30
0.0
 11
2327.201533352716
 21
1575.674869639548
 31
0.0
  0
LINE
  5
851A
330
7CC2
100
AcDbEntity
  8
AM_5
100
AcDbLine
 10
2417.201533352716
 20
1575.674869639548
 30
0.0
 11
2471.217281384212
 21
1575.674869639548
 31
0.0
  0
LINE
  5
851B
330
7CC2
100
AcDbEntity
  8
AM_5
100
AcDbLine
 10
2367.201533352716
 20
1575.674869639548
 30
0.0
 11
2397.201533352716
 21
1575.674869639548
 31
0.0
  0
SOLID
  5
851C
330
7CC2
100
AcDbEntity
  8
AM_5
100
AcDbTrace
 10
2347.201533352716
 20
1579.008202972881
 30
0.0
 11
2347.201533352716
 21
1572.341536306215
 31
0.0
 12
2367.201533352716
 22
1575.674869639548
 32
0.0
 13
2367.201533352716
 23
1575.674869639548
 33
0.0
  0
SOLID
  5
851D
330
7CC2
100
AcDbEntity
  8
AM_5
100
AcDbTrace
 10
2417.201533352716
 20
1579.008202972881
 30
0.0
 11
2417.201533352716
 21
1572.341536306215
 31
0.0
 12
2397.201533352716
 22
1575.674869639548
 32
0.0
 13
2397.201533352716
 23
1575.674869639548
 33
0.0
  0
MTEXT
  5
851E
330
7CC2
100
AcDbEntity
  8
AM_5
100
AcDbMText
 10
2454.209407368464
 20
1591.674869639548
 30
0.0
 40
20.0
 41
0.0
 71
     5
 72
     1
  1
\A2;30
 73
     1
 44
1.0
1001
ACAD
1000
MTEXTBEGIN
1070
    73
1070
     1
1070
    44
1040
1.0
1070
    74
1070
     0
1000
MTEXTEND
  0
POINT
  5
851F
330
7CC2
100
AcDbEntity
  8
Defpoints
 62
     0
100
AcDbPoint
 10
2367.201533352716
 20
1595.016420310876
 30
0.0
  0
POINT
  5
8520
330
7CC2
100
AcDbEntity
  8
Defpoints
 62
     0
100
AcDbPoint
 10
2397.201533352716
 20
1635.674869639548
 30
0.0
  0
POINT
  5
8521
330
7CC2
100
AcDbEntity
  8
Defpoints
 62
     0
100
AcDbPoint
 10
2397.201533352716
 20
1575.674869639548
 30
0.0
  0
ENDBLK
  5
7CCF
330
7CC2
100
AcDbEntity
  8
0
100
AcDbBlockEnd
  0
BLOCK
  5
7CDA
330
7CD0
100
AcDbEntity
  8
0
100
AcDbBlockBegin
  2
*D7
 70
     1
 10
0.0
 20
0.0
 30
0.0
  3
*D7
  1

  0
LINE
  5
8522
330
7CD0
100
AcDbEntity
  8
AM_5
100
AcDbLine
 10
1841.201533352716
 20
2285.674869639548
 30
0.0
 11
1753.201533352716
 21
2285.674869639548
 31
0.0
  0
LINE
  5
8523
330
7CD0
100
AcDbEntity
  8
AM_5
100
AcDbLine
 10
1916.201533352718
 20
2956.674864510549
 30
0.0
 11
1753.201533352716
 21
2956.674864510549
 31
0.0
  0
LINE
  5
8524
330
7CD0
100
AcDbEntity
  8
AM_5
100
AcDbLine
 10
1757.201533352716
 20
2305.674869639548
 30
0.0
 11
1757.201533352716
 21
2936.674864510548
 31
0.0
  0
SOLID
  5
8525
330
7CD0
100
AcDbEntity
  8
AM_5
100
AcDbTrace
 10
1753.868200019383
 20
2305.674869639548
 30
0.0
 11
1760.534866686049
 21
2305.674869639548
 31
0.0
 12
1757.201533352716
 22
2285.674869639548
 32
0.0
 13
1757.201533352716
 23
2285.674869639548
 33
0.0
  0
SOLID
  5
8526
330
7CD0
100
AcDbEntity
  8
AM_5
100
AcDbTrace
 10
1753.868200019383
 20
2936.674864510548
 30
0.0
 11
1760.534866686049
 21
2936.674864510548
 31
0.0
 12
1757.201533352716
 22
2956.674864510549
 32
0.0
 13
1757.201533352716
 23
2956.674864510549
 33
0.0
  0
MTEXT
  5
8527
330
7CD0
100
AcDbEntity
  8
AM_5
100
AcDbMText
 10
1741.201533352716
 20
2621.174867075048
 30
0.0
 40
20.0
 41
0.0
 71
     5
 72
     1
  1
\A2;671
 11
0.0000000000000001
 21
1.0
 31
0.0
 73
     1
 44
1.0
1001
ACAD
1000
MTEXTBEGIN
1070
    73
1070
     1
1070
    44
1040
1.0
1070
    74
1070
     0
1000
MTEXTEND
  0
POINT
  5
8528
330
7CD0
100
AcDbEntity
  8
Defpoints
 62
     0
100
AcDbPoint
 10
1844.201533352716
 20
2285.674869639548
 30
0.0
  0
POINT
  5
8529
330
7CD0
100
AcDbEntity
  8
Defpoints
 62
     0
100
AcDbPoint
 10
1919.201533352718
 20
2956.674864510549
 30
0.0
  0
POINT
  5
852A
330
7CD0
100
AcDbEntity
  8
Defpoints
 62
     0
100
AcDbPoint
 10
1757.201533352716
 20
2956.674864510549
 30
0.0
  0
ENDBLK
  5
7CDB
330
7CD0
100
AcDbEntity
  8
0
100
AcDbBlockEnd
  0
BLOCK
  5
7CE6
330
7CDC
100
AcDbEntity
  8
0
100
AcDbBlockBegin
  2
*D8
 70
     1
 10
0.0
 20
0.0
 30
0.0
  3
*D8
  1

  0
LINE
  5
852B
330
7CDC
100
AcDbEntity
  8
AM_5
100
AcDbLine
 10
1911.201533352718
 20
2956.674864510549
 30
0.0
 11
1703.201533352716
 21
2956.674864510549
 31
0.0
  0
LINE
  5
852C
330
7CDC
100
AcDbEntity
  8
AM_5
100
AcDbLine
 10
1814.201533352716
 20
1635.674869639548
 30
0.0
 11
1703.201533352716
 21
1635.674869639548
 31
0.0
  0
LINE
  5
852D
330
7CDC
100
AcDbEntity
  8
AM_5
100
AcDbLine
 10
1707.201533352716
 20
2936.674864510548
 30
0.0
 11
1707.201533352716
 21
1655.674869639548
 31
0.0
  0
SOLID
  5
852E
330
7CDC
100
AcDbEntity
  8
AM_5
100
AcDbTrace
 10
1703.868200019383
 20
2936.674864510548
 30
0.0
 11
1710.53486668605
 21
2936.674864510548
 31
0.0
 12
1707.201533352716
 22
2956.674864510549
 32
0.0
 13
1707.201533352716
 23
2956.674864510549
 33
0.0
  0
SOLID
  5
852F
330
7CDC
100
AcDbEntity
  8
AM_5
100
AcDbTrace
 10
1703.868200019383
 20
1655.674869639548
 30
0.0
 11
1710.534866686049
 21
1655.674869639548
 31
0.0
 12
1707.201533352716
 22
1635.674869639548
 32
0.0
 13
1707.201533352716
 23
1635.674869639548
 33
0.0
  0
MTEXT
  5
8530
330
7CDC
100
AcDbEntity
  8
AM_5
100
AcDbMText
 10
1691.199564848779
 20
2296.174867075048
 30
0.0
 40
20.0
 41
0.0
 71
     5
 72
     1
  1
\A2;1321
 11
0.0000000000000001
 21
1.0
 31
0.0
 73
     1
 44
1.0
1001
ACAD
1000
MTEXTBEGIN
1070
    73
1070
     1
1070
    44
1040
1.0
1070
    74
1070
     0
1000
MTEXTEND
  0
POINT
  5
8531
330
7CDC
100
AcDbEntity
  8
Defpoints
 62
     0
100
AcDbPoint
 10
1914.201533352718
 20
2956.674864510549
 30
0.0
  0
POINT
  5
8532
330
7CDC
100
AcDbEntity
  8
Defpoints
 62
     0
100
AcDbPoint
 10
1817.201533352716
 20
1635.674869639548
 30
0.0
  0
POINT
  5
8533
330
7CDC
100
AcDbEntity
  8
Defpoints
 62
     0
100
AcDbPoint
 10
1707.201533352716
 20
1635.674869639548
 30
0.0
  0
ENDBLK
  5
7CE7
330
7CDC
100
AcDbEntity
  8
0
100
AcDbBlockEnd
  0
BLOCK
  5
7CF2
330
7CE8
100
AcDbEntity
  8
0
100
AcDbBlockBegin
  2
*D9
 70
     1
 10
0.0
 20
0.0
 30
0.0
  3
*D9
  1

  0
LINE
  5
8410
330
7CE8
100
AcDbEntity
  8
AM_5
100
AcDbLine
 10
1157.366545780365
 20
1614.267966803484
 30
0.0
 11
1157.366545780365
 21
1571.674869639548
 31
0.0
  0
LINE
  5
8411
330
7CE8
100
AcDbEntity
  8
AM_5
100
AcDbLine
 10
1367.366545780365
 20
1610.955764113282
 30
0.0
 11
1367.366545780365
 21
1571.674869639548
 31
0.0
  0
LINE
  5
8412
330
7CE8
100
AcDbEntity
  8
AM_5
100
AcDbLine
 10
1177.366545780365
 20
1575.674869639548
 30
0.0
 11
1347.366545780365
 21
1575.674869639548
 31
0.0
  0
SOLID
  5
8413
330
7CE8
100
AcDbEntity
  8
AM_5
100
AcDbTrace
 10
1177.366545780365
 20
1579.008202972881
 30
0.0
 11
1177.366545780365
 21
1572.341536306215
 31
0.0
 12
1157.366545780365
 22
1575.674869639548
 32
0.0
 13
1157.366545780365
 23
1575.674869639548
 33
0.0
  0
SOLID
  5
8414
330
7CE8
100
AcDbEntity
  8
AM_5
100
AcDbTrace
 10
1347.366545780365
 20
1579.008202972881
 30
0.0
 11
1347.366545780365
 21
1572.341536306215
 31
0.0
 12
1367.366545780365
 22
1575.674869639548
 32
0.0
 13
1367.366545780365
 23
1575.674869639548
 33
0.0
  0
MTEXT
  5
8415
330
7CE8
100
AcDbEntity
  8
AM_5
100
AcDbMText
 10
1262.366545780365
 20
1591.676838143485
 30
0.0
 40
20.0
 41
0.0
 71
     5
 72
     1
  1
\A2;210
 73
     1
 44
1.0
1001
ACAD
1000
MTEXTBEGIN
1070
    73
1070
     1
1070
    44
1040
1.0
1070
    74
1070
     0
1000
MTEXTEND
  0
POINT
  5
8416
330
7CE8
100
AcDbEntity
  8
Defpoints
 62
     0
100
AcDbPoint
 10
1157.366545780365
 20
1617.267966803484
 30
0.0
  0
POINT
  5
8417
330
7CE8
100
AcDbEntity
  8
Defpoints
 62
     0
100
AcDbPoint
 10
1367.366545780365
 20
1613.955764113282
 30
0.0
  0
POINT
  5
8418
330
7CE8
100
AcDbEntity
  8
Defpoints
 62
     0
100
AcDbPoint
 10
1367.366545780365
 20
1575.674869639548
 30
0.0
  0
ENDBLK
  5
7CF3
330
7CE8
100
AcDbEntity
  8
0
100
AcDbBlockEnd
  0
BLOCK
  5
7CFE
330
7CF4
100
AcDbEntity
  8
0
100
AcDbBlockBegin
  2
*D10
 70
     1
 10
0.0
 20
0.0
 30
0.0
  3
*D10
  1

  0
LINE
  5
8419
330
7CF4
100
AcDbEntity
  8
AM_5
100
AcDbLine
 10
1112.366545780365
 20
1632.674869639548
 30
0.0
 11
1112.366545780365
 21
1521.674869639548
 31
0.0
  0
LINE
  5
841A
330
7CF4
100
AcDbEntity
  8
AM_5
100
AcDbLine
 10
1412.366545780365
 20
1632.674869639548
 30
0.0
 11
1412.366545780365
 21
1521.674869639548
 31
0.0
  0
LINE
  5
841B
330
7CF4
100
AcDbEntity
  8
AM_5
100
AcDbLine
 10
1132.366545780365
 20
1525.674869639548
 30
0.0
 11
1392.366545780365
 21
1525.674869639548
 31
0.0
  0
SOLID
  5
841C
330
7CF4
100
AcDbEntity
  8
AM_5
100
AcDbTrace
 10
1132.366545780365
 20
1529.008202972881
 30
0.0
 11
1132.366545780365
 21
1522.341536306214
 31
0.0
 12
1112.366545780365
 22
1525.674869639548
 32
0.0
 13
1112.366545780365
 23
1525.674869639548
 33
0.0
  0
SOLID
  5
841D
330
7CF4
100
AcDbEntity
  8
AM_5
100
AcDbTrace
 10
1392.366545780365
 20
1529.008202972881
 30
0.0
 11
1392.366545780365
 21
1522.341536306214
 31
0.0
 12
1412.366545780365
 22
1525.674869639548
 32
0.0
 13
1412.366545780365
 23
1525.674869639548
 33
0.0
  0
MTEXT
  5
841E
330
7CF4
100
AcDbEntity
  8
AM_5
100
AcDbMText
 10
1262.366545780365
 20
1541.674869639548
 30
0.0
 40
20.0
 41
0.0
 71
     5
 72
     1
  1
\A2;300
 73
     1
 44
1.0
1001
ACAD
1000
MTEXTBEGIN
1070
    73
1070
     1
1070
    44
1040
1.0
1070
    74
1070
     0
1000
MTEXTEND
  0
POINT
  5
841F
330
7CF4
100
AcDbEntity
  8
Defpoints
 62
     0
100
AcDbPoint
 10
1112.366545780365
 20
1635.674869639548
 30
0.0
  0
POINT
  5
8420
330
7CF4
100
AcDbEntity
  8
Defpoints
 62
     0
100
AcDbPoint
 10
1412.366545780365
 20
1635.674869639548
 30
0.0
  0
POINT
  5
8421
330
7CF4
100
AcDbEntity
  8
Defpoints
 62
     0
100
AcDbPoint
 10
1412.366545780365
 20
1525.674869639548
 30
0.0
  0
ENDBLK
  5
7CFF
330
7CF4
100
AcDbEntity
  8
0
100
AcDbBlockEnd
  0
BLOCK
  5
7D0A
330
7D00
100
AcDbEntity
  8
0
100
AcDbBlockBegin
  2
*D11
 70
     1
 10
0.0
 20
0.0
 30
0.0
  3
*D11
  1

  0
LINE
  5
8422
330
7D00
100
AcDbEntity
  8
AM_5
100
AcDbLine
 10
1817.201533352716
 20
1627.674869639548
 30
0.0
 11
1817.201533352716
 21
1521.674869639548
 31
0.0
  0
LINE
  5
8423
330
7D00
100
AcDbEntity
  8
AM_5
100
AcDbLine
 10
2397.201533352716
 20
1627.674869639548
 30
0.0
 11
2397.201533352716
 21
1521.674869639548
 31
0.0
  0
LINE
  5
8424
330
7D00
100
AcDbEntity
  8
AM_5
100
AcDbLine
 10
1837.201533352716
 20
1525.674869639548
 30
0.0
 11
2377.201533352716
 21
1525.674869639548
 31
0.0
  0
SOLID
  5
8425
330
7D00
100
AcDbEntity
  8
AM_5
100
AcDbTrace
 10
1837.201533352716
 20
1529.008202972881
 30
0.0
 11
1837.201533352716
 21
1522.341536306214
 31
0.0
 12
1817.201533352716
 22
1525.674869639548
 32
0.0
 13
1817.201533352716
 23
1525.674869639548
 33
0.0
  0
SOLID
  5
8426
330
7D00
100
AcDbEntity
  8
AM_5
100
AcDbTrace
 10
2377.201533352716
 20
1529.008202972881
 30
0.0
 11
2377.201533352716
 21
1522.341536306214
 31
0.0
 12
2397.201533352716
 22
1525.674869639548
 32
0.0
 13
2397.201533352716
 23
1525.674869639548
 33
0.0
  0
MTEXT
  5
8427
330
7D00
100
AcDbEntity
  8
AM_5
100
AcDbMText
 10
2107.201533352716
 20
1541.674869639548
 30
0.0
 40
20.0
 41
0.0
 71
     5
 72
     1
  1
\A2;580
 73
     1
 44
1.0
1001
ACAD
1000
MTEXTBEGIN
1070
    73
1070
     1
1070
    44
1040
1.0
1070
    74
1070
     0
1000
MTEXTEND
  0
POINT
  5
8428
330
7D00
100
AcDbEntity
  8
Defpoints
 62
     0
100
AcDbPoint
 10
1817.201533352716
 20
1630.674869639548
 30
0.0
  0
POINT
  5
8429
330
7D00
100
AcDbEntity
  8
Defpoints
 62
     0
100
AcDbPoint
 10
2397.201533352716
 20
1630.674869639548
 30
0.0
  0
POINT
  5
842A
330
7D00
100
AcDbEntity
  8
Defpoints
 62
     0
100
AcDbPoint
 10
2397.201533352716
 20
1525.674869639548
 30
0.0
  0
ENDBLK
  5
7D0B
330
7D00
100
AcDbEntity
  8
0
100
AcDbBlockEnd
  0
BLOCK
  5
7D18
330
7D0C
100
AcDbEntity
  8
0
100
AcDbBlockBegin
  2
*D12
 70
     1
 10
0.0
 20
0.0
 30
0.0
  3
*D12
  1

  0
LINE
  5
842B
330
7D0C
100
AcDbEntity
  8
AM_5
100
AcDbLine
 10
1959.701533352716
 20
1788.674869639548
 30
0.0
 11
1959.701533352716
 21
1839.322956588921
 31
0.0
  0
LINE
  5
842C
330
7D0C
100
AcDbEntity
  8
AM_5
100
AcDbLine
 10
1974.701533352716
 20
1788.674869639548
 30
0.0
 11
1974.701533352716
 21
1839.322956588921
 31
0.0
  0
LINE
  5
842D
330
7D0C
100
AcDbEntity
  8
AM_5
100
AcDbLine
 10
1939.701533352716
 20
1835.32295658892
 30
0.0
 11
1919.701533352716
 21
1835.32295658892
 31
0.0
  0
LINE
  5
842E
330
7D0C
100
AcDbEntity
  8
AM_5
100
AcDbLine
 10
1994.701533352716
 20
1835.32295658892
 30
0.0
 11
2048.449080248423
 21
1835.32295658892
 31
0.0
  0
LINE
  5
842F
330
7D0C
100
AcDbEntity
  8
AM_5
100
AcDbLine
 10
1959.701533352716
 20
1835.32295658892
 30
0.0
 11
1974.701533352716
 21
1835.32295658892
 31
0.0
  0
SOLID
  5
8430
330
7D0C
100
AcDbEntity
  8
AM_5
100
AcDbTrace
 10
1939.701533352716
 20
1838.656289922254
 30
0.0
 11
1939.701533352716
 21
1831.989623255587
 31
0.0
 12
1959.701533352716
 22
1835.32295658892
 32
0.0
 13
1959.701533352716
 23
1835.32295658892
 33
0.0
  0
SOLID
  5
8431
330
7D0C
100
AcDbEntity
  8
AM_5
100
AcDbTrace
 10
1994.701533352716
 20
1838.656289922254
 30
0.0
 11
1994.701533352716
 21
1831.989623255587
 31
0.0
 12
1974.701533352716
 22
1835.32295658892
 32
0.0
 13
1974.701533352716
 23
1835.32295658892
 33
0.0
  0
MTEXT
  5
8432
330
7D0C
100
AcDbEntity
  8
AM_5
100
AcDbMText
 10
2033.03486668605
 20
1851.32295658892
 30
0.0
 40
20.0
 41
0.0
 71
     5
 72
     1
  1
\A2;15
 73
     1
 44
1.0
1001
ACAD
1000
MTEXTBEGIN
1070
    73
1070
     1
1070
    44
1040
1.0
1070
    74
1070
     0
1000
MTEXTEND
  0
POINT
  5
8433
330
7D0C
100
AcDbEntity
  8
Defpoints
 62
     0
100
AcDbPoint
 10
1959.701533352716
 20
1785.674869639548
 30
0.0
  0
POINT
  5
8434
330
7D0C
100
AcDbEntity
  8
Defpoints
 62
     0
100
AcDbPoint
 10
1974.701533352716
 20
1785.674869639548
 30
0.0
  0
POINT
  5
8435
330
7D0C
100
AcDbEntity
  8
Defpoints
 62
     0
100
AcDbPoint
 10
1974.701533352716
 20
1835.32295658892
 30
0.0
  0
ENDBLK
  5
7D19
330
7D0C
100
AcDbEntity
  8
0
100
AcDbBlockEnd
  0
BLOCK
  5
7D26
330
7D1A
100
AcDbEntity
  8
0
100
AcDbBlockBegin
  2
*D13
 70
     1
 10
0.0
 20
0.0
 30
0.0
  3
*D13
  1

  0
LINE
  5
8436
330
7D1A
100
AcDbEntity
  8
AM_5
100
AcDbLine
 10
1979.701533352716
 20
1751.674869639548
 30
0.0
 11
1979.701533352716
 21
1677.853357432132
 31
0.0
  0
LINE
  5
8437
330
7D1A
100
AcDbEntity
  8
AM_5
100
AcDbLine
 10
1954.701533352716
 20
1751.674869639548
 30
0.0
 11
1954.701533352716
 21
1677.853357432132
 31
0.0
  0
LINE
  5
8438
330
7D1A
100
AcDbEntity
  8
AM_5
100
AcDbLine
 10
1999.701533352716
 20
1681.853357432133
 30
0.0
 11
2019.701533352716
 21
1681.853357432133
 31
0.0
  0
LINE
  5
8439
330
7D1A
100
AcDbEntity
  8
AM_5
100
AcDbLine
 10
1934.701533352716
 20
1681.853357432133
 30
0.0
 11
1849.372400444128
 21
1681.853357432133
 31
0.0
  0
LINE
  5
843A
330
7D1A
100
AcDbEntity
  8
AM_5
100
AcDbLine
 10
1979.701533352716
 20
1681.853357432133
 30
0.0
 11
1954.701533352716
 21
1681.853357432133
 31
0.0
  0
SOLID
  5
843B
330
7D1A
100
AcDbEntity
  8
AM_5
100
AcDbTrace
 10
1999.701533352716
 20
1685.186690765466
 30
0.0
 11
1999.701533352716
 21
1678.520024098799
 31
0.0
 12
1979.701533352716
 22
1681.853357432133
 32
0.0
 13
1979.701533352716
 23
1681.853357432133
 33
0.0
  0
SOLID
  5
843C
330
7D1A
100
AcDbEntity
  8
AM_5
100
AcDbTrace
 10
1934.701533352716
 20
1685.186690765466
 30
0.0
 11
1934.701533352716
 21
1678.520024098799
 31
0.0
 12
1954.701533352716
 22
1681.853357432133
 32
0.0
 13
1954.701533352716
 23
1681.853357432133
 33
0.0
  0
MTEXT
  5
843D
330
7D1A
100
AcDbEntity
  8
AM_5
100
AcDbMText
 10
1867.040551014375
 20
1697.855325936069
 30
0.0
 40
20.0
 41
0.0
 71
     5
 72
     1
  1
\A2;25
 73
     1
 44
1.0
1001
ACAD
1000
MTEXTBEGIN
1070
    73
1070
     1
1070
    44
1040
1.0
1070
    74
1070
     0
1000
MTEXTEND
  0
POINT
  5
843E
330
7D1A
100
AcDbEntity
  8
Defpoints
 62
     0
100
AcDbPoint
 10
1979.701533352716
 20
1754.674869639548
 30
0.0
  0
POINT
  5
843F
330
7D1A
100
AcDbEntity
  8
Defpoints
 62
     0
100
AcDbPoint
 10
1954.701533352716
 20
1754.674869639548
 30
0.0
  0
POINT
  5
8440
330
7D1A
100
AcDbEntity
  8
Defpoints
 62
     0
100
AcDbPoint
 10
1954.701533352716
 20
1681.853357432133
 30
0.0
  0
ENDBLK
  5
7D27
330
7D1A
100
AcDbEntity
  8
0
100
AcDbBlockEnd
  0
BLOCK
  5
7D34
330
7D28
100
AcDbEntity
  8
0
100
AcDbBlockBegin
  2
*D14
 70
     1
 10
0.0
 20
0.0
 30
0.0
  3
*D14
  1

  0
LINE
  5
8441
330
7D28
100
AcDbEntity
  8
AM_5
100
AcDbLine
 10
1982.701533352716
 20
1770.674869639548
 30
0.0
 11
2057.652776796848
 21
1770.674869639548
 31
0.0
  0
LINE
  5
8442
330
7D28
100
AcDbEntity
  8
AM_5
100
AcDbLine
 10
1982.701533352716
 20
1785.674869639548
 30
0.0
 11
2057.652776796848
 21
1785.674869639548
 31
0.0
  0
LINE
  5
8443
330
7D28
100
AcDbEntity
  8
AM_5
100
AcDbLine
 10
2053.652776796848
 20
1805.674869639548
 30
0.0
 11
2053.652776796848
 21
1825.674869639548
 31
0.0
  0
LINE
  5
8444
330
7D28
100
AcDbEntity
  8
AM_5
100
AcDbLine
 10
2053.652776796848
 20
1750.674869639548
 30
0.0
 11
2053.652776796848
 21
1696.927322743842
 31
0.0
  0
LINE
  5
8445
330
7D28
100
AcDbEntity
  8
AM_5
100
AcDbLine
 10
2053.652776796848
 20
1785.674869639548
 30
0.0
 11
2053.652776796848
 21
1770.674869639548
 31
0.0
  0
SOLID
  5
8446
330
7D28
100
AcDbEntity
  8
AM_5
100
AcDbTrace
 10
2050.319443463514
 20
1805.674869639548
 30
0.0
 11
2056.986110130182
 21
1805.674869639548
 31
0.0
 12
2053.652776796848
 22
1785.674869639548
 32
0.0
 13
2053.652776796848
 23
1785.674869639548
 33
0.0
  0
SOLID
  5
8447
330
7D28
100
AcDbEntity
  8
AM_5
100
AcDbTrace
 10
2050.319443463514
 20
1750.674869639548
 30
0.0
 11
2056.986110130182
 21
1750.674869639548
 31
0.0
 12
2053.652776796848
 22
1770.674869639548
 32
0.0
 13
2053.652776796848
 23
1770.674869639548
 33
0.0
  0
MTEXT
  5
8448
330
7D28
100
AcDbEntity
  8
AM_5
100
AcDbMText
 10
2037.652776796847
 20
1712.341536306215
 30
0.0
 40
20.0
 41
0.0
 71
     5
 72
     1
  1
\A2;15
 11
0.0000000000000001
 21
1.0
 31
0.0
 73
     1
 44
1.0
1001
ACAD
1000
MTEXTBEGIN
1070
    73
1070
     1
1070
    44
1040
1.0
1070
    74
1070
     0
1000
MTEXTEND
  0
POINT
  5
8449
330
7D28
100
AcDbEntity
  8
Defpoints
 62
     0
100
AcDbPoint
 10
1979.701533352716
 20
1770.674869639548
 30
0.0
  0
POINT
  5
844A
330
7D28
100
AcDbEntity
  8
Defpoints
 62
     0
100
AcDbPoint
 10
1979.701533352716
 20
1785.674869639548
 30
0.0
  0
POINT
  5
844B
330
7D28
100
AcDbEntity
  8
Defpoints
 62
     0
100
AcDbPoint
 10
2053.652776796848
 20
1785.674869639548
 30
0.0
  0
ENDBLK
  5
7D35
330
7D28
100
AcDbEntity
  8
0
100
AcDbBlockEnd
  0
BLOCK
  5
7D42
330
7D36
100
AcDbEntity
  8
0
100
AcDbBlockBegin
  2
*D15
 70
     1
 10
0.0
 20
0.0
 30
0.0
  3
*D15
  1

  0
LINE
  5
844C
330
7D36
100
AcDbEntity
  8
AM_5
100
AcDbLine
 10
1951.701533352716
 20
1754.674869639548
 30
0.0
 11
1895.972115958445
 21
1754.674869639548
 31
0.0
  0
LINE
  5
844D
330
7D36
100
AcDbEntity
  8
AM_5
100
AcDbLine
 10
1951.701533352716
 20
1770.674869639548
 30
0.0
 11
1895.972115958445
 21
1770.674869639548
 31
0.0
  0
LINE
  5
844E
330
7D36
100
AcDbEntity
  8
AM_5
100
AcDbLine
 10
1899.972115958444
 20
1734.674869639548
 30
0.0
 11
1899.972115958444
 21
1714.674869639548
 31
0.0
  0
LINE
  5
844F
330
7D36
100
AcDbEntity
  8
AM_5
100
AcDbLine
 10
1899.972115958444
 20
1790.674869639548
 30
0.0
 11
1899.972115958444
 21
1844.504265965007
 31
0.0
  0
LINE
  5
8450
330
7D36
100
AcDbEntity
  8
AM_5
100
AcDbLine
 10
1899.972115958444
 20
1754.674869639548
 30
0.0
 11
1899.972115958444
 21
1770.674869639548
 31
0.0
  0
SOLID
  5
8451
330
7D36
100
AcDbEntity
  8
AM_5
100
AcDbTrace
 10
1896.638782625111
 20
1734.674869639548
 30
0.0
 11
1903.305449291778
 21
1734.674869639548
 31
0.0
 12
1899.972115958444
 22
1754.674869639548
 32
0.0
 13
1899.972115958444
 23
1754.674869639548
 33
0.0
  0
SOLID
  5
8452
330
7D36
100
AcDbEntity
  8
AM_5
100
AcDbTrace
 10
1896.638782625111
 20
1790.674869639548
 30
0.0
 11
1903.305449291778
 21
1790.674869639548
 31
0.0
 12
1899.972115958444
 22
1770.674869639548
 32
0.0
 13
1899.972115958444
 23
1770.674869639548
 33
0.0
  0
MTEXT
  5
8453
330
7D36
100
AcDbEntity
  8
AM_5
100
AcDbMText
 10
1883.972115958444
 20
1829.008202972881
 30
0.0
 40
20.0
 41
0.0
 71
     5
 72
     1
  1
\A2;16
 11
0.0000000000000001
 21
1.0
 31
0.0
 73
     1
 44
1.0
1001
ACAD
1000
MTEXTBEGIN
1070
    73
1070
     1
1070
    44
1040
1.0
1070
    74
1070
     0
1000
MTEXTEND
  0
POINT
  5
8454
330
7D36
100
AcDbEntity
  8
Defpoints
 62
     0
100
AcDbPoint
 10
1954.701533352716
 20
1754.674869639548
 30
0.0
  0
POINT
  5
8455
330
7D36
100
AcDbEntity
  8
Defpoints
 62
     0
100
AcDbPoint
 10
1954.701533352716
 20
1770.674869639548
 30
0.0
  0
POINT
  5
8456
330
7D36
100
AcDbEntity
  8
Defpoints
 62
     0
100
AcDbPoint
 10
1899.972115958444
 20
1770.674869639548
 30
0.0
  0
ENDBLK
  5
7D43
330
7D36
100
AcDbEntity
  8
0
100
AcDbBlockEnd
  0
BLOCK
  5
7D4E
330
7D44
100
AcDbEntity
  8
0
100
AcDbBlockBegin
  2
*D16
 70
     1
 10
0.0
 20
0.0
 30
0.0
  3
*D16
  1

  0
LINE
  5
8457
330
7D44
100
AcDbEntity
  8
AM_5
100
AcDbLine
 10
1827.201533352716
 20
1788.674869639548
 30
0.0
 11
1827.201533352716
 21
1877.690356378117
 31
0.0
  0
LINE
  5
8458
330
7D44
100
AcDbEntity
  8
AM_5
100
AcDbLine
 10
2107.201533352716
 20
1788.674869639548
 30
0.0
 11
2107.201533352716
 21
1877.690356378117
 31
0.0
  0
LINE
  5
8459
330
7D44
100
AcDbEntity
  8
AM_5
100
AcDbLine
 10
1847.201533352716
 20
1873.690356378117
 30
0.0
 11
2087.201533352716
 21
1873.690356378117
 31
0.0
  0
SOLID
  5
845A
330
7D44
100
AcDbEntity
  8
AM_5
100
AcDbTrace
 10
1847.201533352716
 20
1877.02368971145
 30
0.0
 11
1847.201533352716
 21
1870.357023044784
 31
0.0
 12
1827.201533352716
 22
1873.690356378117
 32
0.0
 13
1827.201533352716
 23
1873.690356378117
 33
0.0
  0
SOLID
  5
845B
330
7D44
100
AcDbEntity
  8
AM_5
100
AcDbTrace
 10
2087.201533352716
 20
1877.02368971145
 30
0.0
 11
2087.201533352716
 21
1870.357023044784
 31
0.0
 12
2107.201533352716
 22
1873.690356378117
 32
0.0
 13
2107.201533352716
 23
1873.690356378117
 33
0.0
  0
MTEXT
  5
845C
330
7D44
100
AcDbEntity
  8
AM_5
100
AcDbMText
 10
1919.182199872143
 20
1889.692324882054
 30
0.0
 40
20.0
 41
0.0
 71
     5
 72
     1
  1
\A2;280
 73
     1
 44
1.0
1001
ACAD
1000
MTEXTBEGIN
1070
    73
1070
     1
1070
    44
1040
1.0
1070
    74
1070
     0
1000
MTEXTEND
  0
POINT
  5
845D
330
7D44
100
AcDbEntity
  8
Defpoints
 62
     0
100
AcDbPoint
 10
1827.201533352716
 20
1785.674869639548
 30
0.0
  0
POINT
  5
845E
330
7D44
100
AcDbEntity
  8
Defpoints
 62
     0
100
AcDbPoint
 10
2107.201533352716
 20
1785.674869639548
 30
0.0
  0
POINT
  5
845F
330
7D44
100
AcDbEntity
  8
Defpoints
 62
     0
100
AcDbPoint
 10
2107.201533352716
 20
1873.690356378117
 30
0.0
  0
ENDBLK
  5
7D4F
330
7D44
100
AcDbEntity
  8
0
100
AcDbBlockEnd
  0
BLOCK
  5
7D5A
330
7D50
100
AcDbEntity
  8
0
100
AcDbBlockBegin
  2
*D17
 70
     1
 10
0.0
 20
0.0
 30
0.0
  3
*D17
  1

  0
LINE
  5
8460
330
7D50
100
AcDbEntity
  8
AM_5
100
AcDbLine
 10
1232.366545780365
 20
1788.674869639548
 30
0.0
 11
1232.366545780365
 21
1849.674869639548
 31
0.0
  0
LINE
  5
8461
330
7D50
100
AcDbEntity
  8
AM_5
100
AcDbLine
 10
1292.366545780365
 20
1788.674869639548
 30
0.0
 11
1292.366545780365
 21
1849.674869639548
 31
0.0
  0
LINE
  5
8462
330
7D50
100
AcDbEntity
  8
AM_5
100
AcDbLine
 10
1252.366545780365
 20
1845.674869639548
 30
0.0
 11
1272.366545780365
 21
1845.674869639548
 31
0.0
  0
SOLID
  5
8463
330
7D50
100
AcDbEntity
  8
AM_5
100
AcDbTrace
 10
1252.366545780365
 20
1849.008202972881
 30
0.0
 11
1252.366545780365
 21
1842.341536306214
 31
0.0
 12
1232.366545780365
 22
1845.674869639548
 32
0.0
 13
1232.366545780365
 23
1845.674869639548
 33
0.0
  0
SOLID
  5
8464
330
7D50
100
AcDbEntity
  8
AM_5
100
AcDbTrace
 10
1272.366545780365
 20
1849.008202972881
 30
0.0
 11
1272.366545780365
 21
1842.341536306214
 31
0.0
 12
1292.366545780365
 22
1845.674869639548
 32
0.0
 13
1292.366545780365
 23
1845.674869639548
 33
0.0
  0
MTEXT
  5
8465
330
7D50
100
AcDbEntity
  8
AM_5
100
AcDbMText
 10
1262.83760566847
 20
1861.674869639548
 30
0.0
 40
20.0
 41
0.0
 71
     5
 72
     1
  1
\A2;%%C60
 73
     1
 44
1.0
1001
ACAD
1000
MTEXTBEGIN
1070
    73
1070
     1
1070
    44
1040
1.0
1070
    74
1070
     0
1000
MTEXTEND
  0
POINT
  5
8466
330
7D50
100
AcDbEntity
  8
Defpoints
 62
     0
100
AcDbPoint
 10
1232.366545780365
 20
1785.674869639548
 30
0.0
  0
POINT
  5
8467
330
7D50
100
AcDbEntity
  8
Defpoints
 62
     0
100
AcDbPoint
 10
1292.366545780365
 20
1785.674869639548
 30
0.0
  0
POINT
  5
8468
330
7D50
100
AcDbEntity
  8
Defpoints
 62
     0
100
AcDbPoint
 10
1292.366545780365
 20
1845.674869639548
 30
0.0
  0
ENDBLK
  5
7D5B
330
7D50
100
AcDbEntity
  8
0
100
AcDbBlockEnd
  0
BLOCK
  5
7D66
330
7D5C
100
AcDbEntity
  8
0
100
AcDbBlockBegin
  2
*D18
 70
     1
 10
0.0
 20
0.0
 30
0.0
  3
*D18
  1

  0
LINE
  5
8469
330
7D5C
100
AcDbEntity
  8
AM_5
100
AcDbLine
 10
1122.366545780365
 20
1788.674869639548
 30
0.0
 11
1122.366545780365
 21
1899.674869639548
 31
0.0
  0
LINE
  5
846A
330
7D5C
100
AcDbEntity
  8
AM_5
100
AcDbLine
 10
1402.366545780365
 20
1788.674869639548
 30
0.0
 11
1402.366545780365
 21
1899.674869639548
 31
0.0
  0
LINE
  5
846B
330
7D5C
100
AcDbEntity
  8
AM_5
100
AcDbLine
 10
1142.366545780365
 20
1895.674869639548
 30
0.0
 11
1382.366545780365
 21
1895.674869639548
 31
0.0
  0
SOLID
  5
846C
330
7D5C
100
AcDbEntity
  8
AM_5
100
AcDbTrace
 10
1142.366545780365
 20
1899.008202972881
 30
0.0
 11
1142.366545780365
 21
1892.341536306215
 31
0.0
 12
1122.366545780365
 22
1895.674869639548
 32
0.0
 13
1122.366545780365
 23
1895.674869639548
 33
0.0
  0
SOLID
  5
846D
330
7D5C
100
AcDbEntity
  8
AM_5
100
AcDbTrace
 10
1382.366545780365
 20
1899.008202972881
 30
0.0
 11
1382.366545780365
 21
1892.341536306215
 31
0.0
 12
1402.366545780365
 22
1895.674869639548
 32
0.0
 13
1402.366545780365
 23
1895.674869639548
 33
0.0
  0
MTEXT
  5
846E
330
7D5C
100
AcDbEntity
  8
AM_5
100
AcDbMText
 10
1259.722486735882
 20
1911.676838143485
 30
0.0
 40
20.0
 41
0.0
 71
     5
 72
     1
  1
\A2;280
 73
     1
 44
1.0
1001
ACAD
1000
MTEXTBEGIN
1070
    73
1070
     1
1070
    44
1040
1.0
1070
    74
1070
     0
1000
MTEXTEND
  0
POINT
  5
846F
330
7D5C
100
AcDbEntity
  8
Defpoints
 62
     0
100
AcDbPoint
 10
1122.366545780365
 20
1785.674869639548
 30
0.0
  0
POINT
  5
8470
330
7D5C
100
AcDbEntity
  8
Defpoints
 62
     0
100
AcDbPoint
 10
1402.366545780365
 20
1785.674869639548
 30
0.0
  0
POINT
  5
8471
330
7D5C
100
AcDbEntity
  8
Defpoints
 62
     0
100
AcDbPoint
 10
1402.366545780365
 20
1895.674869639548
 30
0.0
  0
ENDBLK
  5
7D67
330
7D5C
100
AcDbEntity
  8
0
100
AcDbBlockEnd
  0
BLOCK
  5
7D72
330
7D68
100
AcDbEntity
  8
0
100
AcDbBlockBegin
  2
*D19
 70
     1
 10
0.0
 20
0.0
 30
0.0
  3
*D19
  1

  0
LINE
  5
8472
330
7D68
100
AcDbEntity
  8
AM_5
100
AcDbLine
 10
1814.201533352716
 20
1635.674869639548
 30
0.0
 11
1753.201533352716
 21
1635.674869639548
 31
0.0
  0
LINE
  5
8473
330
7D68
100
AcDbEntity
  8
AM_5
100
AcDbLine
 10
1824.201533352716
 20
1785.674869639548
 30
0.0
 11
1753.201533352716
 21
1785.674869639548
 31
0.0
  0
LINE
  5
8474
330
7D68
100
AcDbEntity
  8
AM_5
100
AcDbLine
 10
1757.201533352716
 20
1655.674869639548
 30
0.0
 11
1757.201533352716
 21
1765.674869639548
 31
0.0
  0
SOLID
  5
8475
330
7D68
100
AcDbEntity
  8
AM_5
100
AcDbTrace
 10
1753.868200019383
 20
1655.674869639548
 30
0.0
 11
1760.534866686049
 21
1655.674869639548
 31
0.0
 12
1757.201533352716
 22
1635.674869639548
 32
0.0
 13
1757.201533352716
 23
1635.674869639548
 33
0.0
  0
SOLID
  5
8476
330
7D68
100
AcDbEntity
  8
AM_5
100
AcDbTrace
 10
1753.868200019383
 20
1765.674869639548
 30
0.0
 11
1760.534866686049
 21
1765.674869639548
 31
0.0
 12
1757.201533352716
 22
1785.674869639548
 32
0.0
 13
1757.201533352716
 23
1785.674869639548
 33
0.0
  0
MTEXT
  5
8477
330
7D68
100
AcDbEntity
  8
AM_5
100
AcDbMText
 10
1741.201533352716
 20
1710.674869639548
 30
0.0
 40
20.0
 41
0.0
 71
     5
 72
     1
  1
\A2;150
 11
0.0000000000000001
 21
1.0
 31
0.0
 73
     1
 44
1.0
1001
ACAD
1000
MTEXTBEGIN
1070
    73
1070
     1
1070
    44
1040
1.0
1070
    74
1070
     0
1000
MTEXTEND
  0
POINT
  5
8478
330
7D68
100
AcDbEntity
  8
Defpoints
 62
     0
100
AcDbPoint
 10
1817.201533352716
 20
1635.674869639548
 30
0.0
  0
POINT
  5
8479
330
7D68
100
AcDbEntity
  8
Defpoints
 62
     0
100
AcDbPoint
 10
1827.201533352716
 20
1785.674869639548
 30
0.0
  0
POINT
  5
847A
330
7D68
100
AcDbEntity
  8
Defpoints
 62
     0
100
AcDbPoint
 10
1757.201533352716
 20
1785.674869639548
 30
0.0
  0
ENDBLK
  5
7D73
330
7D68
100
AcDbEntity
  8
0
100
AcDbBlockEnd
  0
BLOCK
  5
7D7E
330
7D74
100
AcDbEntity
  8
0
100
AcDbBlockBegin
  2
*D20
 70
     1
 10
0.0
 20
0.0
 30
0.0
  3
*D20
  1

  0
LINE
  5
847B
330
7D74
100
AcDbEntity
  8
AM_5
100
AcDbLine
 10
1846.201533352716
 20
2135.674869639548
 30
0.0
 11
1753.201533352716
 21
2135.674869639548
 31
0.0
  0
LINE
  5
847C
330
7D74
100
AcDbEntity
  8
AM_5
100
AcDbLine
 10
1846.201533352716
 20
2285.674869639548
 30
0.0
 11
1753.201533352716
 21
2285.674869639548
 31
0.0
  0
LINE
  5
847D
330
7D74
100
AcDbEntity
  8
AM_5
100
AcDbLine
 10
1757.201533352716
 20
2155.674869639548
 30
0.0
 11
1757.201533352716
 21
2265.674869639548
 31
0.0
  0
SOLID
  5
847E
330
7D74
100
AcDbEntity
  8
AM_5
100
AcDbTrace
 10
1753.868200019383
 20
2155.674869639548
 30
0.0
 11
1760.534866686049
 21
2155.674869639548
 31
0.0
 12
1757.201533352716
 22
2135.674869639548
 32
0.0
 13
1757.201533352716
 23
2135.674869639548
 33
0.0
  0
SOLID
  5
847F
330
7D74
100
AcDbEntity
  8
AM_5
100
AcDbTrace
 10
1753.868200019383
 20
2265.674869639548
 30
0.0
 11
1760.534866686049
 21
2265.674869639548
 31
0.0
 12
1757.201533352716
 22
2285.674869639548
 32
0.0
 13
1757.201533352716
 23
2285.674869639548
 33
0.0
  0
MTEXT
  5
8480
330
7D74
100
AcDbEntity
  8
AM_5
100
AcDbMText
 10
1741.201533352716
 20
2210.674869639548
 30
0.0
 40
20.0
 41
0.0
 71
     5
 72
     1
  1
\A2;150
 11
0.0000000000000001
 21
1.0
 31
0.0
 73
     1
 44
1.0
1001
ACAD
1000
MTEXTBEGIN
1070
    73
1070
     1
1070
    44
1040
1.0
1070
    74
1070
     0
1000
MTEXTEND
  0
POINT
  5
8481
330
7D74
100
AcDbEntity
  8
Defpoints
 62
     0
100
AcDbPoint
 10
1849.201533352716
 20
2135.674869639548
 30
0.0
  0
POINT
  5
8482
330
7D74
100
AcDbEntity
  8
Defpoints
 62
     0
100
AcDbPoint
 10
1849.201533352716
 20
2285.674869639548
 30
0.0
  0
POINT
  5
8483
330
7D74
100
AcDbEntity
  8
Defpoints
 62
     0
100
AcDbPoint
 10
1757.201533352716
 20
2285.674869639548
 30
0.0
  0
ENDBLK
  5
7D7F
330
7D74
100
AcDbEntity
  8
0
100
AcDbBlockEnd
  0
BLOCK
  5
7D8A
330
7D80
100
AcDbEntity
  8
0
100
AcDbBlockBegin
  2
*D21
 70
     1
 10
0.0
 20
0.0
 30
0.0
  3
*D21
  1

  0
LINE
  5
8484
330
7D80
100
AcDbEntity
  8
AM_5
100
AcDbLine
 10
2356.02326655636
 20
2095.674869639548
 30
0.0
 11
2461.201533352716
 21
2095.674869639548
 31
0.0
  0
LINE
  5
8485
330
7D80
100
AcDbEntity
  8
AM_5
100
AcDbLine
 10
2356.02326655636
 20
2035.674869639548
 30
0.0
 11
2461.201533352716
 21
2035.674869639548
 31
0.0
  0
LINE
  5
8486
330
7D80
100
AcDbEntity
  8
AM_5
100
AcDbLine
 10
2457.201533352716
 20
2075.674869639548
 30
0.0
 11
2457.201533352716
 21
2055.674869639548
 31
0.0
  0
SOLID
  5
8487
330
7D80
100
AcDbEntity
  8
AM_5
100
AcDbTrace
 10
2453.868200019383
 20
2075.674869639548
 30
0.0
 11
2460.53486668605
 21
2075.674869639548
 31
0.0
 12
2457.201533352716
 22
2095.674869639548
 32
0.0
 13
2457.201533352716
 23
2095.674869639548
 33
0.0
  0
SOLID
  5
8488
330
7D80
100
AcDbEntity
  8
AM_5
100
AcDbTrace
 10
2453.868200019383
 20
2055.674869639548
 30
0.0
 11
2460.53486668605
 21
2055.674869639548
 31
0.0
 12
2457.201533352716
 22
2035.674869639548
 32
0.0
 13
2457.201533352716
 23
2035.674869639548
 33
0.0
  0
MTEXT
  5
8489
330
7D80
100
AcDbEntity
  8
AM_5
100
AcDbMText
 10
2441.201533352716
 20
2065.674869639549
 30
0.0
 40
20.0
 41
0.0
 71
     5
 72
     1
  1
\A2;60
 11
0.0000000000000001
 21
1.0
 31
0.0
 73
     1
 44
1.0
1001
ACAD
1000
MTEXTBEGIN
1070
    73
1070
     1
1070
    44
1040
1.0
1070
    74
1070
     0
1000
MTEXTEND
  0
POINT
  5
848A
330
7D80
100
AcDbEntity
  8
Defpoints
 62
     0
100
AcDbPoint
 10
2353.02326655636
 20
2095.674869639548
 30
0.0
  0
POINT
  5
848B
330
7D80
100
AcDbEntity
  8
Defpoints
 62
     0
100
AcDbPoint
 10
2353.02326655636
 20
2035.674869639548
 30
0.0
  0
POINT
  5
848C
330
7D80
100
AcDbEntity
  8
Defpoints
 62
     0
100
AcDbPoint
 10
2457.201533352716
 20
2035.674869639548
 30
0.0
  0
ENDBLK
  5
7D8B
330
7D80
100
AcDbEntity
  8
0
100
AcDbBlockEnd
  0
BLOCK
  5
7D96
330
7D8C
100
AcDbEntity
  8
0
100
AcDbBlockBegin
  2
*D22
 70
     1
 10
0.0
 20
0.0
 30
0.0
  3
*D22
  1

  0
LINE
  5
848D
330
7D8C
100
AcDbEntity
  8
AM_5
100
AcDbLine
 10
2400.201533352716
 20
1635.674869639548
 30
0.0
 11
2461.201533352716
 21
1635.674869639548
 31
0.0
  0
LINE
  5
848E
330
7D8C
100
AcDbEntity
  8
AM_5
100
AcDbLine
 10
2395.201533352716
 20
1695.674869639548
 30
0.0
 11
2461.201533352716
 21
1695.674869639548
 31
0.0
  0
LINE
  5
848F
330
7D8C
100
AcDbEntity
  8
AM_5
100
AcDbLine
 10
2457.201533352716
 20
1655.674869639548
 30
0.0
 11
2457.201533352716
 21
1675.674869639548
 31
0.0
  0
SOLID
  5
8490
330
7D8C
100
AcDbEntity
  8
AM_5
100
AcDbTrace
 10
2453.868200019383
 20
1655.674869639548
 30
0.0
 11
2460.53486668605
 21
1655.674869639548
 31
0.0
 12
2457.201533352716
 22
1635.674869639548
 32
0.0
 13
2457.201533352716
 23
1635.674869639548
 33
0.0
  0
SOLID
  5
8491
330
7D8C
100
AcDbEntity
  8
AM_5
100
AcDbTrace
 10
2453.868200019383
 20
1675.674869639548
 30
0.0
 11
2460.53486668605
 21
1675.674869639548
 31
0.0
 12
2457.201533352716
 22
1695.674869639548
 32
0.0
 13
2457.201533352716
 23
1695.674869639548
 33
0.0
  0
MTEXT
  5
8492
330
7D8C
100
AcDbEntity
  8
AM_5
100
AcDbMText
 10
2441.201533352716
 20
1665.674869639548
 30
0.0
 40
20.0
 41
0.0
 71
     5
 72
     1
  1
\A2;60
 11
0.0000000000000001
 21
1.0
 31
0.0
 73
     1
 44
1.0
1001
ACAD
1000
MTEXTBEGIN
1070
    73
1070
     1
1070
    44
1040
1.0
1070
    74
1070
     0
1000
MTEXTEND
  0
POINT
  5
8493
330
7D8C
100
AcDbEntity
  8
Defpoints
 62
     0
100
AcDbPoint
 10
2397.201533352716
 20
1635.674869639548
 30
0.0
  0
POINT
  5
8494
330
7D8C
100
AcDbEntity
  8
Defpoints
 62
     0
100
AcDbPoint
 10
2392.201533352716
 20
1695.674869639548
 30
0.0
  0
POINT
  5
8495
330
7D8C
100
AcDbEntity
  8
Defpoints
 62
     0
100
AcDbPoint
 10
2457.201533352716
 20
1695.674869639548
 30
0.0
  0
ENDBLK
  5
7D97
330
7D8C
100
AcDbEntity
  8
0
100
AcDbBlockEnd
  0
BLOCK
  5
7DA2
330
7D98
100
AcDbEntity
  8
0
100
AcDbBlockBegin
  2
*D23
 70
     1
 10
0.0
 20
0.0
 30
0.0
  3
*D23
  1

  0
LINE
  5
8496
330
7D98
100
AcDbEntity
  8
AM_5
100
AcDbLine
 10
2356.02326655636
 20
2095.674869639548
 30
0.0
 11
2511.201533352716
 21
2095.674869639548
 31
0.0
  0
LINE
  5
8497
330
7D98
100
AcDbEntity
  8
AM_5
100
AcDbLine
 10
2405.201533352717
 20
1635.674869639548
 30
0.0
 11
2511.201533352716
 21
1635.674869639548
 31
0.0
  0
LINE
  5
8498
330
7D98
100
AcDbEntity
  8
AM_5
100
AcDbLine
 10
2507.201533352716
 20
2075.674869639548
 30
0.0
 11
2507.201533352716
 21
1655.674869639548
 31
0.0
  0
SOLID
  5
8499
330
7D98
100
AcDbEntity
  8
AM_5
100
AcDbTrace
 10
2503.868200019383
 20
2075.674869639548
 30
0.0
 11
2510.53486668605
 21
2075.674869639548
 31
0.0
 12
2507.201533352716
 22
2095.674869639548
 32
0.0
 13
2507.201533352716
 23
2095.674869639548
 33
0.0
  0
SOLID
  5
849A
330
7D98
100
AcDbEntity
  8
AM_5
100
AcDbTrace
 10
2503.868200019383
 20
1655.674869639548
 30
0.0
 11
2510.53486668605
 21
1655.674869639548
 31
0.0
 12
2507.201533352716
 22
1635.674869639548
 32
0.0
 13
2507.201533352716
 23
1635.674869639548
 33
0.0
  0
MTEXT
  5
849B
330
7D98
100
AcDbEntity
  8
AM_5
100
AcDbMText
 10
2491.201533352716
 20
1865.674869639548
 30
0.0
 40
20.0
 41
0.0
 71
     5
 72
     1
  1
\A2;460
 11
0.0000000000000001
 21
1.0
 31
0.0
 73
     1
 44
1.0
1001
ACAD
1000
MTEXTBEGIN
1070
    73
1070
     1
1070
    44
1040
1.0
1070
    74
1070
     0
1000
MTEXTEND
  0
POINT
  5
849C
330
7D98
100
AcDbEntity
  8
Defpoints
 62
     0
100
AcDbPoint
 10
2353.02326655636
 20
2095.674869639548
 30
0.0
  0
POINT
  5
849D
330
7D98
100
AcDbEntity
  8
Defpoints
 62
     0
100
AcDbPoint
 10
2402.201533352716
 20
1635.674869639548
 30
0.0
  0
POINT
  5
849E
330
7D98
100
AcDbEntity
  8
Defpoints
 62
     0
100
AcDbPoint
 10
2507.201533352716
 20
1635.674869639548
 30
0.0
  0
ENDBLK
  5
7DA3
330
7D98
100
AcDbEntity
  8
0
100
AcDbBlockEnd
  0
BLOCK
  5
7DB0
330
7DA4
100
AcDbEntity
  8
0
100
AcDbBlockBegin
  2
*D24
 70
     1
 10
0.0
 20
0.0
 30
0.0
  3
*D24
  1

  0
LINE
  5
849F
330
7DA4
100
AcDbEntity
  8
AM_5
100
AcDbLine
 10
2191.201533352716
 20
1698.674869639548
 30
0.0
 11
2191.201533352716
 21
1759.674869639548
 31
0.0
  0
LINE
  5
84A0
330
7DA4
100
AcDbEntity
  8
AM_5
100
AcDbLine
 10
2213.201533352716
 20
1698.674869639548
 30
0.0
 11
2213.201533352716
 21
1759.674869639548
 31
0.0
  0
LINE
  5
84A1
330
7DA4
100
AcDbEntity
  8
AM_5
100
AcDbLine
 10
2171.201533352716
 20
1755.674869639548
 30
0.0
 11
2151.201533352716
 21
1755.674869639548
 31
0.0
  0
LINE
  5
84A2
330
7DA4
100
AcDbEntity
  8
AM_5
100
AcDbLine
 10
2233.201533352716
 20
1755.674869639548
 30
0.0
 11
2288.910588470827
 21
1755.674869639548
 31
0.0
  0
LINE
  5
84A3
330
7DA4
100
AcDbEntity
  8
AM_5
100
AcDbLine
 10
2191.201533352716
 20
1755.674869639548
 30
0.0
 11
2213.201533352716
 21
1755.674869639548
 31
0.0
  0
SOLID
  5
84A4
330
7DA4
100
AcDbEntity
  8
AM_5
100
AcDbTrace
 10
2171.201533352716
 20
1759.008202972881
 30
0.0
 11
2171.201533352716
 21
1752.341536306215
 31
0.0
 12
2191.201533352716
 22
1755.674869639548
 32
0.0
 13
2191.201533352716
 23
1755.674869639548
 33
0.0
  0
SOLID
  5
84A5
330
7DA4
100
AcDbEntity
  8
AM_5
100
AcDbTrace
 10
2233.201533352716
 20
1759.008202972881
 30
0.0
 11
2233.201533352716
 21
1752.341536306215
 31
0.0
 12
2213.201533352716
 22
1755.674869639548
 32
0.0
 13
2213.201533352716
 23
1755.674869639548
 33
0.0
  0
MTEXT
  5
84A6
330
7DA4
100
AcDbEntity
  8
AM_5
100
AcDbMText
 10
2271.056060911771
 20
1771.676838143485
 30
0.0
 40
20.0
 41
0.0
 71
     5
 72
     1
  1
\A2;22
 73
     1
 44
1.0
1001
ACAD
1000
MTEXTBEGIN
1070
    73
1070
     1
1070
    44
1040
1.0
1070
    74
1070
     0
1000
MTEXTEND
  0
POINT
  5
84A7
330
7DA4
100
AcDbEntity
  8
Defpoints
 62
     0
100
AcDbPoint
 10
2191.201533352716
 20
1695.674869639548
 30
0.0
  0
POINT
  5
84A8
330
7DA4
100
AcDbEntity
  8
Defpoints
 62
     0
100
AcDbPoint
 10
2213.201533352716
 20
1695.674869639548
 30
0.0
  0
POINT
  5
84A9
330
7DA4
100
AcDbEntity
  8
Defpoints
 62
     0
100
AcDbPoint
 10
2213.201533352716
 20
1755.674869639548
 30
0.0
  0
ENDBLK
  5
7DB1
330
7DA4
100
AcDbEntity
  8
0
100
AcDbBlockEnd
  0
BLOCK
  5
7DBE
330
7DB2
100
AcDbEntity
  8
0
100
AcDbBlockBegin
  2
*D25
 70
     1
 10
0.0
 20
0.0
 30
0.0
  3
*D25
  1

  0
LINE
  5
84AA
330
7DB2
100
AcDbEntity
  8
AM_5
100
AcDbLine
 10
2356.201533352716
 20
1698.674869639548
 30
0.0
 11
2356.201533352716
 21
1759.674869639548
 31
0.0
  0
LINE
  5
84AB
330
7DB2
100
AcDbEntity
  8
AM_5
100
AcDbLine
 10
2378.201533352716
 20
1698.674869639548
 30
0.0
 11
2378.201533352716
 21
1759.674869639548
 31
0.0
  0
LINE
  5
84AC
330
7DB2
100
AcDbEntity
  8
AM_5
100
AcDbLine
 10
2336.201533352716
 20
1755.674869639548
 30
0.0
 11
2316.201533352716
 21
1755.674869639548
 31
0.0
  0
LINE
  5
84AD
330
7DB2
100
AcDbEntity
  8
AM_5
100
AcDbLine
 10
2398.201533352716
 20
1755.674869639548
 30
0.0
 11
2457.72272757844
 21
1755.674869639548
 31
0.0
  0
LINE
  5
84AE
330
7DB2
100
AcDbEntity
  8
AM_5
100
AcDbLine
 10
2356.201533352716
 20
1755.674869639548
 30
0.0
 11
2378.201533352716
 21
1755.674869639548
 31
0.0
  0
SOLID
  5
84AF
330
7DB2
100
AcDbEntity
  8
AM_5
100
AcDbTrace
 10
2336.201533352716
 20
1759.008202972881
 30
0.0
 11
2336.201533352716
 21
1752.341536306215
 31
0.0
 12
2356.201533352716
 22
1755.674869639548
 32
0.0
 13
2356.201533352716
 23
1755.674869639548
 33
0.0
  0
SOLID
  5
84B0
330
7DB2
100
AcDbEntity
  8
AM_5
100
AcDbTrace
 10
2398.201533352716
 20
1759.008202972881
 30
0.0
 11
2398.201533352716
 21
1752.341536306215
 31
0.0
 12
2378.201533352716
 22
1755.674869639548
 32
0.0
 13
2378.201533352716
 23
1755.674869639548
 33
0.0
  0
MTEXT
  5
84B1
330
7DB2
100
AcDbEntity
  8
AM_5
100
AcDbMText
 10
2439.868200019384
 20
1771.676838143485
 30
0.0
 40
20.0
 41
0.0
 71
     5
 72
     1
  1
\A2;22
 73
     1
 44
1.0
1001
ACAD
1000
MTEXTBEGIN
1070
    73
1070
     1
1070
    44
1040
1.0
1070
    74
1070
     0
1000
MTEXTEND
  0
POINT
  5
84B2
330
7DB2
100
AcDbEntity
  8
Defpoints
 62
     0
100
AcDbPoint
 10
2356.201533352716
 20
1695.674869639548
 30
0.0
  0
POINT
  5
84B3
330
7DB2
100
AcDbEntity
  8
Defpoints
 62
     0
100
AcDbPoint
 10
2378.201533352716
 20
1695.674869639548
 30
0.0
  0
POINT
  5
84B4
330
7DB2
100
AcDbEntity
  8
Defpoints
 62
     0
100
AcDbPoint
 10
2378.201533352716
 20
1755.674869639548
 30
0.0
  0
ENDBLK
  5
7DBF
330
7DB2
100
AcDbEntity
  8
0
100
AcDbBlockEnd
  0
BLOCK
  5
7DCC
330
7DC0
100
AcDbEntity
  8
0
100
AcDbBlockBegin
  2
*D26
 70
     1
 10
0.0
 20
0.0
 30
0.0
  3
*D26
  1

  0
LINE
  5
84B5
330
7DC0
100
AcDbEntity
  8
圖層4尺寸線
 62
     0
370
    -2
100
AcDbLine
 10
1844.201533352716
 20
2135.674869639548
 30
0.0
 11
1752.201533352716
 21
2135.674869639548
 31
0.0
  0
LINE
  5
84B6
330
7DC0
100
AcDbEntity
  8
圖層4尺寸線
 62
     0
370
    -2
100
AcDbLine
 10
1927.201533352716
 20
2085.674869639548
 30
0.0
 11
1752.201533352716
 21
2085.674869639548
 31
0.0
  0
LINE
  5
84B7
330
7DC0
100
AcDbEntity
  8
圖層4尺寸線
 62
     0
370
    -2
100
AcDbLine
 10
1757.201533352716
 20
2155.674869639548
 30
0.0
 11
1757.201533352716
 21
2175.674869639548
 31
0.0
  0
LINE
  5
84B8
330
7DC0
100
AcDbEntity
  8
圖層4尺寸線
 62
     0
370
    -2
100
AcDbLine
 10
1757.201533352716
 20
2065.674869639548
 30
0.0
 11
1757.201533352716
 21
2045.674869639548
 31
0.0
  0
LINE
  5
84B9
330
7DC0
100
AcDbEntity
  8
圖層4尺寸線
 62
     0
370
    -2
100
AcDbLine
 10
1757.201533352716
 20
2135.674869639548
 30
0.0
 11
1757.201533352716
 21
2085.674869639548
 31
0.0
  0
SOLID
  5
84BA
330
7DC0
100
AcDbEntity
  8
圖層4尺寸線
 62
     0
100
AcDbTrace
 10
1753.868200019383
 20
2155.674869639548
 30
0.0
 11
1760.534866686049
 21
2155.674869639548
 31
0.0
 12
1757.201533352716
 22
2135.674869639548
 32
0.0
 13
1757.201533352716
 23
2135.674869639548
 33
0.0
  0
SOLID
  5
84BB
330
7DC0
100
AcDbEntity
  8
圖層4尺寸線
 62
     0
100
AcDbTrace
 10
1753.868200019383
 20
2065.674869639548
 30
0.0
 11
1760.534866686049
 21
2065.674869639548
 31
0.0
 12
1757.201533352716
 22
2085.674869639548
 32
0.0
 13
1757.201533352716
 23
2085.674869639548
 33
0.0
  0
MTEXT
  5
84BC
330
7DC0
100
AcDbEntity
  8
圖層4尺寸線
 62
     0
100
AcDbMText
 10
1742.201533352716
 20
2110.674869639549
 30
0.0
 40
20.0
 41
0.0
 71
     5
 72
     1
  1
50
 11
0.0000000000000001
 21
1.0
 31
0.0
 73
     1
 44
1.0
1001
ACAD
1000
MTEXTBEGIN
1070
    73
1070
     1
1070
    44
1040
1.0
1070
    74
1070
     0
1000
MTEXTEND
  0
POINT
  5
84BD
330
7DC0
100
AcDbEntity
  8
Defpoints
 62
     0
100
AcDbPoint
 10
1849.201533352716
 20
2135.674869639548
 30
0.0
  0
POINT
  5
84BE
330
7DC0
100
AcDbEntity
  8
Defpoints
 62
     0
100
AcDbPoint
 10
1932.201533352716
 20
2085.674869639548
 30
0.0
  0
POINT
  5
84BF
330
7DC0
100
AcDbEntity
  8
Defpoints
 62
     0
100
AcDbPoint
 10
1757.201533352716
 20
2085.674869639548
 30
0.0
  0
ENDBLK
  5
7DCD
330
7DC0
100
AcDbEntity
  8
0
100
AcDbBlockEnd
  0
BLOCK
  5
7DD8
330
7DCE
100
AcDbEntity
  8
0
100
AcDbBlockBegin
  2
*D27
 70
     1
 10
0.0
 20
0.0
 30
0.0
  3
*D27
  1

  0
LINE
  5
84C0
330
7DCE
100
AcDbEntity
  8
AM_5
100
AcDbLine
 10
1929.201533352716
 20
2085.674869639548
 30
0.0
 11
1753.201533352716
 21
2085.674869639548
 31
0.0
  0
LINE
  5
84C1
330
7DCE
100
AcDbEntity
  8
AM_5
100
AcDbLine
 10
1819.201533352716
 20
1785.674869639548
 30
0.0
 11
1753.201533352716
 21
1785.674869639548
 31
0.0
  0
LINE
  5
84C2
330
7DCE
100
AcDbEntity
  8
AM_5
100
AcDbLine
 10
1757.201533352716
 20
2065.674869639548
 30
0.0
 11
1757.201533352716
 21
1805.674869639548
 31
0.0
  0
SOLID
  5
84C3
330
7DCE
100
AcDbEntity
  8
AM_5
100
AcDbTrace
 10
1753.868200019383
 20
2065.674869639548
 30
0.0
 11
1760.534866686049
 21
2065.674869639548
 31
0.0
 12
1757.201533352716
 22
2085.674869639548
 32
0.0
 13
1757.201533352716
 23
2085.674869639548
 33
0.0
  0
SOLID
  5
84C4
330
7DCE
100
AcDbEntity
  8
AM_5
100
AcDbTrace
 10
1753.868200019383
 20
1805.674869639548
 30
0.0
 11
1760.534866686049
 21
1805.674869639548
 31
0.0
 12
1757.201533352716
 22
1785.674869639548
 32
0.0
 13
1757.201533352716
 23
1785.674869639548
 33
0.0
  0
MTEXT
  5
84C5
330
7DCE
100
AcDbEntity
  8
AM_5
100
AcDbMText
 10
1741.201533352716
 20
1935.674869639548
 30
0.0
 40
20.0
 41
0.0
 71
     5
 72
     1
  1
\A2;300
 11
0.0000000000000001
 21
1.0
 31
0.0
 73
     1
 44
1.0
1001
ACAD
1000
MTEXTBEGIN
1070
    73
1070
     1
1070
    44
1040
1.0
1070
    74
1070
     0
1000
MTEXTEND
  0
POINT
  5
84C6
330
7DCE
100
AcDbEntity
  8
Defpoints
 62
     0
100
AcDbPoint
 10
1932.201533352716
 20
2085.674869639548
 30
0.0
  0
POINT
  5
84C7
330
7DCE
100
AcDbEntity
  8
Defpoints
 62
     0
100
AcDbPoint
 10
1822.201533352716
 20
1785.674869639548
 30
0.0
  0
POINT
  5
84C8
330
7DCE
100
AcDbEntity
  8
Defpoints
 62
     0
100
AcDbPoint
 10
1757.201533352716
 20
1785.674869639548
 30
0.0
  0
ENDBLK
  5
7DD9
330
7DCE
100
AcDbEntity
  8
0
100
AcDbBlockEnd
  0
BLOCK
  5
7DE6
330
7DDA
100
AcDbEntity
  8
0
100
AcDbBlockBegin
  2
*D28
 70
     1
 10
0.0
 20
0.0
 30
0.0
  3
*D28
  1

  0
LINE
  5
84C9
330
7DDA
100
AcDbEntity
  8
AM_5
100
AcDbLine
 10
1893.168269601654
 20
2110.674869639548
 30
0.0
 11
1871.621878451162
 21
2110.674869639548
 31
0.0
  0
LINE
  5
84CA
330
7DDA
100
AcDbEntity
  8
AM_5
100
AcDbLine
 10
1929.201533352716
 20
2085.674869639548
 30
0.0
 11
1871.621878451162
 21
2085.674869639548
 31
0.0
  0
LINE
  5
84CB
330
7DDA
100
AcDbEntity
  8
AM_5
100
AcDbLine
 10
1875.621878451162
 20
2130.674869639548
 30
0.0
 11
1875.621878451162
 21
2150.674869639548
 31
0.0
  0
LINE
  5
84CC
330
7DDA
100
AcDbEntity
  8
AM_5
100
AcDbLine
 10
1875.621878451162
 20
2065.674869639548
 30
0.0
 11
1875.621878451162
 21
2010.338568499054
 31
0.0
  0
LINE
  5
84CD
330
7DDA
100
AcDbEntity
  8
AM_5
100
AcDbLine
 10
1875.621878451162
 20
2110.674869639548
 30
0.0
 11
1875.621878451162
 21
2085.674869639548
 31
0.0
  0
SOLID
  5
84CE
330
7DDA
100
AcDbEntity
  8
AM_5
100
AcDbTrace
 10
1872.288545117829
 20
2130.674869639548
 30
0.0
 11
1878.955211784495
 21
2130.674869639548
 31
0.0
 12
1875.621878451162
 22
2110.674869639548
 32
0.0
 13
1875.621878451162
 23
2110.674869639548
 33
0.0
  0
SOLID
  5
84CF
330
7DDA
100
AcDbEntity
  8
AM_5
100
AcDbTrace
 10
1872.288545117829
 20
2065.674869639548
 30
0.0
 11
1878.955211784495
 21
2065.674869639548
 31
0.0
 12
1875.621878451162
 22
2085.674869639548
 32
0.0
 13
1875.621878451162
 23
2085.674869639548
 33
0.0
  0
MTEXT
  5
84D0
330
7DDA
100
AcDbEntity
  8
AM_5
100
AcDbMText
 10
1859.619909947225
 20
2028.006719069301
 30
0.0
 40
20.0
 41
0.0
 71
     5
 72
     1
  1
\A2;25
 11
0.0000000000000001
 21
1.0
 31
0.0
 73
     1
 44
1.0
1001
ACAD
1000
MTEXTBEGIN
1070
    73
1070
     1
1070
    44
1040
1.0
1070
    74
1070
     0
1000
MTEXTEND
  0
POINT
  5
84D1
330
7DDA
100
AcDbEntity
  8
Defpoints
 62
     0
100
AcDbPoint
 10
1896.168269601654
 20
2110.674869639548
 30
0.0
  0
POINT
  5
84D2
330
7DDA
100
AcDbEntity
  8
Defpoints
 62
     0
100
AcDbPoint
 10
1932.201533352716
 20
2085.674869639548
 30
0.0
  0
POINT
  5
84D3
330
7DDA
100
AcDbEntity
  8
Defpoints
 62
     0
100
AcDbPoint
 10
1875.621878451162
 20
2085.674869639548
 30
0.0
  0
ENDBLK
  5
7DE7
330
7DDA
100
AcDbEntity
  8
0
100
AcDbBlockEnd
  0
BLOCK
  5
7DF4
330
7DE8
100
AcDbEntity
  8
0
100
AcDbBlockBegin
  2
*D29
 70
     1
 10
0.0
 20
0.0
 30
0.0
  3
*D29
  1

  0
LINE
  5
84D4
330
7DE8
100
AcDbEntity
  8
AM_5
100
AcDbLine
 10
1947.201533352716
 20
2082.674869639548
 30
0.0
 11
1947.201533352716
 21
2018.341536306215
 31
0.0
  0
LINE
  5
84D5
330
7DE8
100
AcDbEntity
  8
AM_5
100
AcDbLine
 10
1987.201533352716
 20
2082.674869639548
 30
0.0
 11
1987.201533352716
 21
2018.341536306215
 31
0.0
  0
LINE
  5
84D6
330
7DE8
100
AcDbEntity
  8
AM_5
100
AcDbLine
 10
1927.201533352716
 20
2022.341536306215
 30
0.0
 11
1907.201533352716
 21
2022.341536306215
 31
0.0
  0
LINE
  5
84D7
330
7DE8
100
AcDbEntity
  8
AM_5
100
AcDbLine
 10
2007.201533352716
 20
2022.341536306215
 30
0.0
 11
2081.217281384212
 21
2022.341536306215
 31
0.0
  0
LINE
  5
84D8
330
7DE8
100
AcDbEntity
  8
AM_5
100
AcDbLine
 10
1947.201533352716
 20
2022.341536306215
 30
0.0
 11
1987.201533352716
 21
2022.341536306215
 31
0.0
  0
SOLID
  5
84D9
330
7DE8
100
AcDbEntity
  8
AM_5
100
AcDbTrace
 10
1927.201533352716
 20
2025.674869639548
 30
0.0
 11
1927.201533352716
 21
2019.008202972881
 31
0.0
 12
1947.201533352716
 22
2022.341536306215
 32
0.0
 13
1947.201533352716
 23
2022.341536306215
 33
0.0
  0
SOLID
  5
84DA
330
7DE8
100
AcDbEntity
  8
AM_5
100
AcDbTrace
 10
2007.201533352716
 20
2025.674869639548
 30
0.0
 11
2007.201533352716
 21
2019.008202972881
 31
0.0
 12
1987.201533352716
 22
2022.341536306215
 32
0.0
 13
1987.201533352716
 23
2022.341536306215
 33
0.0
  0
MTEXT
  5
84DB
330
7DE8
100
AcDbEntity
  8
AM_5
100
AcDbMText
 10
2054.209407368464
 20
2038.341536306215
 30
0.0
 40
20.0
 41
0.0
 71
     5
 72
     1
  1
\A2;%%C40
 73
     1
 44
1.0
1001
ACAD
1000
MTEXTBEGIN
1070
    73
1070
     1
1070
    44
1040
1.0
1070
    74
1070
     0
1000
MTEXTEND
  0
POINT
  5
84DC
330
7DE8
100
AcDbEntity
  8
Defpoints
 62
     0
100
AcDbPoint
 10
1947.201533352716
 20
2085.674869639548
 30
0.0
  0
POINT
  5
84DD
330
7DE8
100
AcDbEntity
  8
Defpoints
 62
     0
100
AcDbPoint
 10
1987.201533352716
 20
2085.674869639548
 30
0.0
  0
POINT
  5
84DE
330
7DE8
100
AcDbEntity
  8
Defpoints
 62
     0
100
AcDbPoint
 10
1987.201533352716
 20
2022.341536306215
 30
0.0
  0
ENDBLK
  5
7DF5
330
7DE8
100
AcDbEntity
  8
0
100
AcDbBlockEnd
  0
BLOCK
  5
7E01
330
7DF6
100
AcDbEntity
  8
0
100
AcDbBlockBegin
  2
*D30
 70
     1
 10
0.0
 20
0.0
 30
0.0
  3
*D30
  1

  0
LINE
  5
84DF
330
7DF6
100
AcDbEntity
  8
AM_5
100
AcDbLine
 10
1990.201533352716
 20
2135.674869639548
 30
0.0
 11
2036.679578854368
 21
2135.674869639548
 31
0.0
  0
LINE
  5
84E0
330
7DF6
100
AcDbEntity
  8
AM_5
100
AcDbLine
 10
2005.201533352716
 20
2085.674869639548
 30
0.0
 11
2036.679578854368
 21
2085.674869639548
 31
0.0
  0
LINE
  5
84E1
330
7DF6
100
AcDbEntity
  8
AM_5
100
AcDbLine
 10
2032.679578854368
 20
2065.674869639548
 30
0.0
 11
2032.679578854368
 21
2045.674869639548
 31
0.0
  0
LINE
  5
84E2
330
7DF6
100
AcDbEntity
  8
AM_5
100
AcDbLine
 10
2032.679578854368
 20
2155.674869639548
 30
0.0
 11
2032.679578854368
 21
2209.690617671046
 31
0.0
  0
LINE
  5
84E3
330
7DF6
100
AcDbEntity
  8
AM_5
100
AcDbLine
 10
2032.679578854368
 20
2085.674869639548
 30
0.0
 11
2032.679578854368
 21
2135.674869639548
 31
0.0
  0
SOLID
  5
84E4
330
7DF6
100
AcDbEntity
  8
AM_5
100
AcDbTrace
 10
2029.346245521034
 20
2065.674869639548
 30
0.0
 11
2036.012912187701
 21
2065.674869639548
 31
0.0
 12
2032.679578854368
 22
2085.674869639548
 32
0.0
 13
2032.679578854368
 23
2085.674869639548
 33
0.0
  0
SOLID
  5
84E5
330
7DF6
100
AcDbEntity
  8
AM_5
100
AcDbTrace
 10
2029.346245521034
 20
2155.674869639548
 30
0.0
 11
2036.012912187701
 21
2155.674869639548
 31
0.0
 12
2032.679578854368
 22
2135.674869639548
 32
0.0
 13
2032.679578854368
 23
2135.674869639548
 33
0.0
  0
MTEXT
  5
84E6
330
7DF6
100
AcDbEntity
  8
AM_5
100
AcDbMText
 10
2016.679578854368
 20
2192.682743655298
 30
0.0
 40
20.0
 41
0.0
 71
     5
 72
     1
  1
\A2;50
 11
0.0000000000000001
 21
1.0
 31
0.0
 73
     1
 44
1.0
1001
ACAD
1000
MTEXTBEGIN
1070
    73
1070
     1
1070
    44
1040
1.0
1070
    74
1070
     0
1000
MTEXTEND
  0
POINT
  5
84E7
330
7DF6
100
AcDbEntity
  8
Defpoints
 62
     0
100
AcDbPoint
 10
1987.201533352716
 20
2135.674869639548
 30
0.0
  0
POINT
  5
84E8
330
7DF6
100
AcDbEntity
  8
Defpoints
 62
     0
100
AcDbPoint
 10
2002.201533352716
 20
2085.674869639548
 30
0.0
  0
POINT
  5
84E9
330
7DF6
100
AcDbEntity
  8
Defpoints
 62
     0
100
AcDbPoint
 10
2032.679578854368
 20
2085.674869639548
 30
0.0
  0
ENDBLK
  5
7E02
330
7DF6
100
AcDbEntity
  8
0
100
AcDbBlockEnd
  0
BLOCK
  5
7E0D
330
7E03
100
AcDbEntity
  8
0
100
AcDbBlockBegin
  2
*D31
 70
     1
 10
0.0
 20
0.0
 30
0.0
  3
*D31
  1

  0
LINE
  5
84EA
330
7E03
100
AcDbEntity
  8
AM_5
100
AcDbLine
 10
1145.866545780365
 20
2032.674869639548
 30
0.0
 11
1145.866545780365
 21
1988.771542033857
 31
0.0
  0
LINE
  5
84EB
330
7E03
100
AcDbEntity
  8
AM_5
100
AcDbLine
 10
1378.866545780365
 20
2032.674869639548
 30
0.0
 11
1378.866545780365
 21
1988.771542033857
 31
0.0
  0
LINE
  5
84EC
330
7E03
100
AcDbEntity
  8
AM_5
100
AcDbLine
 10
1165.866545780365
 20
1992.771542033857
 30
0.0
 11
1358.866545780365
 21
1992.771542033857
 31
0.0
  0
SOLID
  5
84ED
330
7E03
100
AcDbEntity
  8
AM_5
100
AcDbTrace
 10
1165.866545780365
 20
1996.104875367191
 30
0.0
 11
1165.866545780365
 21
1989.438208700524
 31
0.0
 12
1145.866545780365
 22
1992.771542033857
 32
0.0
 13
1145.866545780365
 23
1992.771542033857
 33
0.0
  0
SOLID
  5
84EE
330
7E03
100
AcDbEntity
  8
AM_5
100
AcDbTrace
 10
1358.866545780365
 20
1996.104875367191
 30
0.0
 11
1358.866545780365
 21
1989.438208700524
 31
0.0
 12
1378.866545780365
 22
1992.771542033857
 32
0.0
 13
1378.866545780365
 23
1992.771542033857
 33
0.0
  0
MTEXT
  5
84EF
330
7E03
100
AcDbEntity
  8
AM_5
100
AcDbMText
 10
1262.366545780365
 20
2008.773510537794
 30
0.0
 40
20.0
 41
0.0
 71
     5
 72
     1
  1
\A2;235
 73
     1
 44
1.0
1001
ACAD
1000
MTEXTBEGIN
1070
    73
1070
     1
1070
    44
1040
1.0
1070
    74
1070
     0
1000
MTEXTEND
  0
POINT
  5
84F0
330
7E03
100
AcDbEntity
  8
Defpoints
 62
     0
100
AcDbPoint
 10
1145.866545780365
 20
2035.674869639548
 30
0.0
  0
POINT
  5
84F1
330
7E03
100
AcDbEntity
  8
Defpoints
 62
     0
100
AcDbPoint
 10
1378.866545780365
 20
2035.674869639548
 30
0.0
  0
POINT
  5
84F2
330
7E03
100
AcDbEntity
  8
Defpoints
 62
     0
100
AcDbPoint
 10
1378.866545780365
 20
1992.771542033857
 30
0.0
  0
ENDBLK
  5
7E0E
330
7E03
100
AcDbEntity
  8
0
100
AcDbBlockEnd
  0
BLOCK
  5
7E19
330
7E0F
100
AcDbEntity
  8
0
100
AcDbBlockBegin
  2
*D32
 70
     1
 10
0.0
 20
0.0
 30
0.0
  3
*D32
  1

  0
LINE
  5
84F3
330
7E0F
100
AcDbEntity
  8
AM_5
100
AcDbLine
 10
1967.201533352716
 20
1817.05456363508
 30
0.0
 11
1967.201533352716
 21
1918.579982582312
 31
0.0
  0
LINE
  5
84F4
330
7E0F
100
AcDbEntity
  8
AM_5
100
AcDbLine
 10
2147.201533352716
 20
1817.05456363508
 30
0.0
 11
2147.201533352716
 21
1918.579982582312
 31
0.0
  0
LINE
  5
84F5
330
7E0F
100
AcDbEntity
  8
AM_5
100
AcDbLine
 10
1987.201533352716
 20
1914.579982582312
 30
0.0
 11
2127.201533352716
 21
1914.579982582312
 31
0.0
  0
SOLID
  5
84F6
330
7E0F
100
AcDbEntity
  8
AM_5
100
AcDbTrace
 10
1987.201533352716
 20
1917.913315915646
 30
0.0
 11
1987.201533352716
 21
1911.246649248979
 31
0.0
 12
1967.201533352716
 22
1914.579982582312
 32
0.0
 13
1967.201533352716
 23
1914.579982582312
 33
0.0
  0
SOLID
  5
84F7
330
7E0F
100
AcDbEntity
  8
AM_5
100
AcDbTrace
 10
2127.201533352716
 20
1917.913315915646
 30
0.0
 11
2127.201533352716
 21
1911.246649248979
 31
0.0
 12
2147.201533352716
 22
1914.579982582312
 32
0.0
 13
2147.201533352716
 23
1914.579982582312
 33
0.0
  0
MTEXT
  5
84F8
330
7E0F
100
AcDbEntity
  8
AM_5
100
AcDbMText
 10
2057.201533352716
 20
1930.579982582312
 30
0.0
 40
20.0
 41
0.0
 71
     5
 72
     1
  1
\A2;180
 73
     1
 44
1.0
1001
ACAD
1000
MTEXTBEGIN
1070
    73
1070
     1
1070
    44
1040
1.0
1070
    74
1070
     0
1000
MTEXTEND
  0
POINT
  5
84F9
330
7E0F
100
AcDbEntity
  8
Defpoints
 62
     0
100
AcDbPoint
 10
1967.201533352716
 20
1814.05456363508
 30
0.0
  0
POINT
  5
84FA
330
7E0F
100
AcDbEntity
  8
Defpoints
 62
     0
100
AcDbPoint
 10
2147.201533352716
 20
1814.05456363508
 30
0.0
  0
POINT
  5
84FB
330
7E0F
100
AcDbEntity
  8
Defpoints
 62
     0
100
AcDbPoint
 10
2147.201533352716
 20
1914.579982582312
 30
0.0
  0
ENDBLK
  5
7E1A
330
7E0F
100
AcDbEntity
  8
0
100
AcDbBlockEnd
  0
ENDSEC
  0
SECTION
  2
ENTITIES
  0
LINE
  5
79F3
330
1F
100
AcDbEntity
  8
圖層1輪廓線
100
AcDbLine
 10
1849.201533352716
 20
2135.674869639548
 30
0.0
 11
1849.201533352716
 21
2285.674869639548
 31
0.0
  0
LINE
  5
79F4
330
1F
100
AcDbEntity
  8
圖層1輪廓線
100
AcDbLine
 10
1849.201533352716
 20
2285.674869639548
 30
0.0
 11
2172.201533352716
 21
2285.674869639548
 31
0.0
  0
LINE
  5
79F5
330
1F
100
AcDbEntity
  8
圖層1輪廓線
100
AcDbLine
 10
2172.201533352716
 20
2285.674869639548
 30
0.0
 11
2172.201533352716
 21
1700.674869639548
 31
0.0
  0
LINE
  5
79F6
330
1F
100
AcDbEntity
  8
圖層1輪廓線
100
AcDbLine
 10
2172.201533352716
 20
1635.674869639548
 30
0.0
 11
1817.201533352716
 21
1635.674869639548
 31
0.0
  0
LINE
  5
79F7
330
1F
100
AcDbEntity
  8
圖層1輪廓線
100
AcDbLine
 10
1817.201533352716
 20
1635.674869639548
 30
0.0
 11
1817.201533352716
 21
1765.674869639548
 31
0.0
  0
LINE
  5
79F8
330
1F
100
AcDbEntity
  8
圖層1輪廓線
100
AcDbLine
 10
2172.201533352716
 20
1635.674869639548
 30
0.0
 11
2397.201533352716
 21
1635.674869639548
 31
0.0
  0
LINE
  5
79F9
330
1F
100
AcDbEntity
  8
圖層1輪廓線
100
AcDbLine
 10
2397.201533352716
 20
1635.674869639548
 30
0.0
 11
2397.201533352716
 21
1690.674869639548
 31
0.0
  0
LINE
  5
79FA
330
1F
100
AcDbEntity
  8
圖層1輪廓線
100
AcDbLine
 10
2232.201533352716
 20
2285.674869639548
 30
0.0
 11
2172.201533352716
 21
2285.674869639548
 31
0.0
  0
LINE
  5
79FB
330
1F
100
AcDbEntity
  8
圖層1輪廓線
100
AcDbLine
 10
2147.201533352716
 20
1955.674869639548
 30
0.0
 11
2147.201533352716
 21
1785.674869639548
 31
0.0
  0
LINE
  5
79FC
330
1F
100
AcDbEntity
  8
圖層1輪廓線
100
AcDbLine
 10
2177.201533352716
 20
1695.674869639548
 30
0.0
 11
2224.201533352716
 21
1695.674869639548
 31
0.0
  0
ARC
  5
79FD
330
1F
100
AcDbEntity
  8
圖層1輪廓線
100
AcDbCircle
 10
1967.201533352716
 20
1955.674869639548
 30
0.0
 40
180.0
100
AcDbArc
 50
0.0
 51
90.0
  0
ARC
  5
79FE
330
1F
100
AcDbEntity
  8
圖層1輪廓線
100
AcDbCircle
 10
2232.201533352716
 20
2180.674869639548
 30
0.0
 40
105.0
100
AcDbArc
 50
6.961550178786316
 51
90.0
  0
LINE
  5
79FF
330
1F
100
AcDbEntity
  8
圖層1輪廓線
100
AcDbLine
 10
2336.427443084451
 20
2193.401210063746
 30
0.0
 11
2348.360163843143
 21
2095.674869639548
 31
0.0
  0
LINE
  5
7A00
330
1F
100
AcDbEntity
  8
圖層1輪廓線
100
AcDbLine
 10
2232.201533352716
 20
2260.674869639548
 30
0.0
 11
2172.201533352716
 21
2260.674869639548
 31
0.0
  0
ARC
  5
7A01
330
1F
100
AcDbEntity
  8
圖層1輪廓線
100
AcDbCircle
 10
2232.201533352716
 20
2180.674869639548
 30
0.0
 40
80.0
100
AcDbArc
 50
6.961550178786316
 51
90.0
  0
LINE
  5
7A02
330
1F
100
AcDbEntity
  8
圖層1輪廓線
100
AcDbLine
 10
2311.61175029118
 20
2190.371129010366
 30
0.0
 11
2372.015857288516
 21
1695.674869639548
 31
0.0
  0
LINE
  5
7A03
330
1F
100
AcDbEntity
  8
圖層1輪廓線
100
AcDbLine
 10
2117.201533352716
 20
1765.674869639548
 30
0.0
 11
2117.201533352716
 21
1635.674869639548
 31
0.0
  0
LINE
  5
7A04
330
1F
100
AcDbEntity
  8
圖層1輪廓線
100
AcDbLine
 10
2229.201533352716
 20
1690.674869639548
 30
0.0
 11
2340.201533352716
 21
1690.674869639548
 31
0.0
  0
LINE
  5
7A05
330
1F
100
AcDbEntity
  8
圖層1輪廓線
100
AcDbLine
 10
2224.201533352716
 20
1695.674869639548
 30
0.0
 11
2229.201533352716
 21
1690.674869639548
 31
0.0
  0
LINE
  5
7A06
330
1F
100
AcDbEntity
  8
圖層1輪廓線
100
AcDbLine
 10
2340.201533352716
 20
1690.674869639548
 30
0.0
 11
2345.201533352716
 21
1695.674869639548
 31
0.0
  0
LINE
  5
7A07
330
1F
100
AcDbEntity
  8
圖層1輪廓線
100
AcDbLine
 10
2345.201533352716
 20
1695.674869639548
 30
0.0
 11
2392.201533352716
 21
1695.674869639548
 31
0.0
  0
LINE
  5
7A08
330
1F
100
AcDbEntity
  8
圖層1輪廓線
100
AcDbLine
 10
2191.201533352716
 20
1695.674869639548
 30
0.0
 11
2191.201533352716
 21
1635.674869639548
 31
0.0
  0
LINE
  5
7A09
330
1F
100
AcDbEntity
  8
圖層1輪廓線
100
AcDbLine
 10
2213.201533352716
 20
1695.674869639548
 30
0.0
 11
2213.201533352716
 21
1635.674869639548
 31
0.0
  0
LINE
  5
7A0A
330
1F
100
AcDbEntity
  8
圖層1輪廓線
100
AcDbLine
 10
2356.201533352716
 20
1695.674869639548
 30
0.0
 11
2356.201533352716
 21
1635.674869639548
 31
0.0
  0
LINE
  5
7A0B
330
1F
100
AcDbEntity
  8
圖層1輪廓線
100
AcDbLine
 10
2378.201533352716
 20
1695.674869639548
 30
0.0
 11
2378.201533352716
 21
1635.674869639548
 31
0.0
  0
ARC
  5
7A0C
330
1F
100
AcDbEntity
  8
圖層1輪廓線
100
AcDbCircle
 10
2177.201533352716
 20
1700.674869639548
 30
0.0
 40
5.0
100
AcDbArc
 50
180.0
 51
270.0
  0
ARC
  5
7A0D
330
1F
100
AcDbEntity
  8
圖層1輪廓線
100
AcDbCircle
 10
2392.201533352716
 20
1690.674869639548
 30
0.0
 40
5.0
100
AcDbArc
 50
0.0
 51
90.0
  0
LINE
  5
7A0E
330
1F
100
AcDbEntity
  8
圖層1輪廓線
100
AcDbLine
 10
2397.201533352716
 20
1695.674869639548
 30
0.0
 11
2397.201533352716
 21
1690.674869639548
 31
0.0
  0
LINE
  5
7A0F
330
1F
100
AcDbEntity
  8
圖層1輪廓線
100
AcDbLine
 10
2348.360163843143
 20
2095.674869639548
 30
0.0
 11
2357.686369269579
 21
2095.674869639548
 31
0.0
  0
LINE
  5
7A10
330
1F
100
AcDbEntity
  8
圖層1輪廓線
100
AcDbLine
 10
2355.686369269579
 20
2035.674869639548
 30
0.0
 11
2357.686369269579
 21
2035.674869639548
 31
0.0
  0
LINE
  5
7A11
330
1F
100
AcDbEntity
  8
圖層1輪廓線
100
AcDbLine
 10
2360.686369269579
 20
2038.674869639548
 30
0.0
 11
2360.686369269579
 21
2092.674869639548
 31
0.0
  0
LINE
  5
7A12
330
1F
100
AcDbEntity
  8
圖層1輪廓線
100
AcDbLine
 10
2355.686369269579
 20
2035.674869639548
 30
0.0
 11
2397.201533352716
 21
1695.674869639548
 31
0.0
  0
ARC
  5
7A13
330
1F
100
AcDbEntity
  8
圖層1輪廓線
100
AcDbCircle
 10
2357.686369269579
 20
2038.674869639548
 30
0.0
 40
3.0
100
AcDbArc
 50
270.0
 51
0.0
  0
ARC
  5
7A14
330
1F
100
AcDbEntity
  8
圖層1輪廓線
100
AcDbCircle
 10
2357.686369269579
 20
2092.674869639548
 30
0.0
 40
3.0
100
AcDbArc
 50
0.0
 51
90.0
  0
LINE
  5
7A15
330
1F
100
AcDbEntity
  8
圖層1輪廓線
100
AcDbLine
 10
2107.201533352716
 20
1785.674869639548
 30
0.0
 11
1974.701533352716
 21
1785.674869639548
 31
0.0
  0
LINE
  5
7A16
330
1F
100
AcDbEntity
  8
圖層1輪廓線
100
AcDbLine
 10
1974.701533352716
 20
1785.674869639548
 30
0.0
 11
1974.701533352716
 21
1770.674869639548
 31
0.0
  0
LINE
  5
7A17
330
1F
100
AcDbEntity
  8
圖層1輪廓線
100
AcDbLine
 10
1974.701533352716
 20
1770.674869639548
 30
0.0
 11
1979.701533352716
 21
1770.674869639548
 31
0.0
  0
LINE
  5
7A18
330
1F
100
AcDbEntity
  8
圖層1輪廓線
100
AcDbLine
 10
1979.701533352716
 20
1770.674869639548
 30
0.0
 11
1979.701533352716
 21
1754.674869639548
 31
0.0
  0
LINE
  5
7A19
330
1F
100
AcDbEntity
  8
圖層1輪廓線
100
AcDbLine
 10
1979.701533352716
 20
1754.674869639548
 30
0.0
 11
1954.701533352716
 21
1754.674869639548
 31
0.0
  0
LINE
  5
7A1A
330
1F
100
AcDbEntity
  8
圖層1輪廓線
100
AcDbLine
 10
1954.701533352716
 20
1754.674869639548
 30
0.0
 11
1954.701533352716
 21
1770.674869639548
 31
0.0
  0
LINE
  5
7A1B
330
1F
100
AcDbEntity
  8
圖層1輪廓線
100
AcDbLine
 10
1954.701533352716
 20
1770.674869639548
 30
0.0
 11
1959.701533352716
 21
1770.674869639548
 31
0.0
  0
LINE
  5
7A1C
330
1F
100
AcDbEntity
  8
圖層1輪廓線
100
AcDbLine
 10
1959.701533352716
 20
1785.674869639548
 30
0.0
 11
1959.701533352716
 21
1770.674869639548
 31
0.0
  0
LINE
  5
7A1D
330
1F
100
AcDbEntity
  8
圖層1輪廓線
100
AcDbLine
 10
1817.201533352716
 20
1765.674869639548
 30
0.0
 11
1954.701533352716
 21
1765.674869639548
 31
0.0
  0
LINE
  5
7A1E
330
1F
100
AcDbEntity
  8
圖層1輪廓線
100
AcDbLine
 10
1827.201533352716
 20
1785.674869639548
 30
0.0
 11
1817.201533352716
 21
1765.674869639548
 31
0.0
  0
LINE
  5
7A1F
330
1F
100
AcDbEntity
  8
圖層1輪廓線
100
AcDbLine
 10
2107.201533352716
 20
1785.674869639548
 30
0.0
 11
2117.201533352716
 21
1765.674869639548
 31
0.0
  0
ARC
  5
7A20
330
1F
100
AcDbEntity
  8
圖層1輪廓線
100
AcDbCircle
 10
2117.30088659853
 20
1798.025839770828
 30
0.0
 40
32.35112269307565
100
AcDbArc
 50
269.8240391634326
 51
337.5560958885591
  0
ARC
  5
7A21
330
1F
100
AcDbEntity
  8
圖層1輪廓線
100
AcDbCircle
 10
2128.823695069672
 20
1819.39600332552
 30
0.0
 40
54.94316801183902
100
AcDbArc
 50
257.8939202162853
 51
322.1391621898313
  0
LINE
  5
7A22
330
1F
100
AcDbEntity
  8
圖層1輪廓線
100
AcDbLine
 10
1979.701533352716
 20
1765.674869639548
 30
0.0
 11
2117.201533352716
 21
1765.674869639548
 31
0.0
  0
LINE
  5
7A23
330
1F
100
AcDbEntity
  8
圖層1輪廓線
100
AcDbLine
 10
1959.701533352716
 20
1785.674869639548
 30
0.0
 11
1827.201533352716
 21
1785.674869639548
 31
0.0
  0
LINE
  5
7A24
330
1F
100
AcDbEntity
  8
圖層1輪廓線
100
AcDbLine
 10
1412.366545780365
 20
1635.674869639548
 30
0.0
 11
1112.366545780365
 21
1635.674869639548
 31
0.0
  0
LINE
  5
7A25
330
1F
100
AcDbEntity
  8
圖層1輪廓線
100
AcDbLine
 10
1112.366545780365
 20
1635.674869639548
 30
0.0
 11
1112.366545780365
 21
1765.674869639548
 31
0.0
  0
LINE
  5
7A26
330
1F
100
AcDbEntity
  8
圖層1輪廓線
100
AcDbLine
 10
1145.866545780365
 20
2285.674869639548
 30
0.0
 11
1378.866545780365
 21
2285.674869639548
 31
0.0
  0
LINE
  5
7A27
330
1F
100
AcDbEntity
  8
圖層1輪廓線
100
AcDbLine
 10
1412.366545780365
 20
1765.674869639548
 30
0.0
 11
1412.366545780365
 21
1635.674869639548
 31
0.0
  0
LINE
  5
7A28
330
1F
100
AcDbEntity
  8
圖層1輪廓線
100
AcDbLine
 10
1402.366545780365
 20
1785.674869639548
 30
0.0
 11
1122.366545780365
 21
1785.674869639548
 31
0.0
  0
LINE
  5
7A29
330
1F
100
AcDbEntity
  8
圖層1輪廓線
100
AcDbLine
 10
1412.366545780365
 20
1765.674869639548
 30
0.0
 11
1112.366545780365
 21
1765.674869639548
 31
0.0
  0
LINE
  5
7A2A
330
1F
100
AcDbEntity
  8
圖層1輪廓線
100
AcDbLine
 10
1145.866545780365
 20
2285.674869639548
 30
0.0
 11
1145.866545780365
 21
1785.674869639548
 31
0.0
  0
LINE
  5
7A2B
330
1F
100
AcDbEntity
  8
圖層1輪廓線
100
AcDbLine
 10
1378.866545780365
 20
2285.674869639548
 30
0.0
 11
1378.866545780365
 21
1785.674869639548
 31
0.0
  0
LINE
  5
7A2C
330
1F
100
AcDbEntity
  8
圖層1輪廓線
100
AcDbLine
 10
1353.866545780365
 20
2135.674869639548
 30
0.0
 11
1353.866545780365
 21
1963.174869639548
 31
0.0
  0
LINE
  5
7A2D
330
1F
100
AcDbEntity
  8
圖層1輪廓線
100
AcDbLine
 10
1170.866545780365
 20
2135.674869639548
 30
0.0
 11
1170.866545780365
 21
1963.174869639548
 31
0.0
  0
LINE
  5
7A2E
330
1F
100
AcDbEntity
  8
圖層1輪廓線
100
AcDbLine
 10
1378.866545780365
 20
2285.674869639548
 30
0.0
 11
1378.866545780365
 21
1785.674869639548
 31
0.0
  0
LINE
  5
7A2F
330
1F
100
AcDbEntity
  8
圖層1輪廓線
100
AcDbLine
 10
1378.866545780365
 20
2285.674869639548
 30
0.0
 11
1378.866545780365
 21
1785.674869639548
 31
0.0
  0
ARC
  5
7A30
330
1F
100
AcDbEntity
  8
圖層1輪廓線
100
AcDbCircle
 10
1178.366545780365
 20
1963.174869639548
 30
0.0
 40
7.5
100
AcDbArc
 50
180.0
 51
270.0
  0
ARC
  5
7A31
330
1F
100
AcDbEntity
  8
圖層1輪廓線
100
AcDbCircle
 10
1346.366545780365
 20
1963.174869639548
 30
0.0
 40
7.5
100
AcDbArc
 50
270.0
 51
0.0
  0
LINE
  5
7A32
330
1F
100
AcDbEntity
  8
圖層3虛線
 48
4.0
100
AcDbLine
 10
1378.866545780365
 20
1785.674869639548
 30
0.0
 11
1378.866545780365
 21
1635.674869639548
 31
0.0
  0
LINE
  5
7A33
330
1F
100
AcDbEntity
  8
圖層3虛線
 48
4.0
100
AcDbLine
 10
1145.866545780365
 20
1785.674869639548
 30
0.0
 11
1145.866545780365
 21
1635.674869639548
 31
0.0
  0
LINE
  5
7A34
330
1F
100
AcDbEntity
  8
圖層3虛線
 48
4.0
100
AcDbLine
 10
1378.866545780365
 20
1695.674869639548
 30
0.0
 11
1292.366545780365
 21
1695.674869639548
 31
0.0
  0
LINE
  5
7A35
330
1F
100
AcDbEntity
  8
圖層2中心線
 48
0.5
100
AcDbLine
 10
1262.366545780365
 20
1624.651297968592
 30
0.0
 11
1262.366545780365
 21
1804.322751847583
 31
0.0
  0
LINE
  5
7A36
330
1F
100
AcDbEntity
  8
圖層3虛線
 48
4.0
100
AcDbLine
 10
1168.366545780365
 20
1635.674869639548
 30
0.0
 11
1168.366545780365
 21
1695.674869639548
 31
0.0
  0
LINE
  5
7A37
330
1F
100
AcDbEntity
  8
圖層3虛線
 48
4.0
100
AcDbLine
 10
1356.366545780365
 20
1635.674869639548
 30
0.0
 11
1356.366545780365
 21
1695.674869639548
 31
0.0
  0
LINE
  5
7A38
330
1F
100
AcDbEntity
  8
圖層2中心線
 48
0.3
100
AcDbLine
 10
1157.366545780365
 20
1617.267966803484
 30
0.0
 11
1157.366545780365
 21
1718.842181777245
 31
0.0
  0
LINE
  5
7A39
330
1F
100
AcDbEntity
  8
圖層2中心線
 48
0.3
100
AcDbLine
 10
1367.366545780365
 20
1613.955764113282
 30
0.0
 11
1367.366545780365
 21
1718.842181777245
 31
0.0
  0
LINE
  5
7A3A
330
1F
100
AcDbEntity
  8
圖層3虛線
 48
4.0
100
AcDbLine
 10
1237.366545780365
 20
1700.674869639548
 30
0.0
 11
1237.366545780365
 21
1735.674869639548
 31
0.0
  0
LINE
  5
7A3B
330
1F
100
AcDbEntity
  8
圖層3虛線
 48
4.0
100
AcDbLine
 10
1287.366545780365
 20
1700.674869639548
 30
0.0
 11
1287.366545780365
 21
1735.674869639548
 31
0.0
  0
LINE
  5
7A3C
330
1F
100
AcDbEntity
  8
圖層3虛線
 48
4.0
100
AcDbLine
 10
1232.366545780365
 20
1695.674869639548
 30
0.0
 11
1145.866545780365
 21
1695.674869639548
 31
0.0
  0
ARC
  5
7A3D
330
1F
100
AcDbEntity
  8
圖層3虛線
 48
4.0
100
AcDbCircle
 10
1232.366545780365
 20
1700.674869639548
 30
0.0
 40
5.0
100
AcDbArc
 50
270.0
 51
0.0
  0
ARC
  5
7A3E
330
1F
100
AcDbEntity
  8
圖層3虛線
 48
4.0
100
AcDbCircle
 10
1292.366545780365
 20
1700.674869639548
 30
0.0
 40
5.0
100
AcDbArc
 50
180.0
 51
270.0
  0
LINE
  5
7A3F
330
1F
100
AcDbEntity
  8
圖層3虛線
 48
4.0
100
AcDbLine
 10
1232.366545780365
 20
1735.674869639548
 30
0.0
 11
1232.366545780365
 21
1785.674869639548
 31
0.0
  0
LINE
  5
7A40
330
1F
100
AcDbEntity
  8
圖層3虛線
 48
4.0
100
AcDbLine
 10
1292.366545780365
 20
1735.674869639548
 30
0.0
 11
1292.366545780365
 21
1785.674869639548
 31
0.0
  0
LINE
  5
7A41
330
1F
100
AcDbEntity
  8
圖層2中心線
 48
0.5
100
AcDbLine
 10
1967.201533352716
 20
1814.05456363508
 30
0.0
 11
1967.201533352716
 21
1602.727348854475
 31
0.0
  0
LINE
  5
7A42
330
1F
100
AcDbEntity
  8
圖層3虛線
 48
4.0
100
AcDbLine
 10
1937.201533352716
 20
1785.674869639548
 30
0.0
 11
1937.201533352716
 21
1735.674869639548
 31
0.0
  0
LINE
  5
7A43
330
1F
100
AcDbEntity
  8
圖層3虛線
 48
4.0
100
AcDbLine
 10
1997.201533352716
 20
1785.674869639548
 30
0.0
 11
1997.201533352716
 21
1735.674869639548
 31
0.0
  0
LINE
  5
7A44
330
1F
100
AcDbEntity
  8
圖層2中心線
 48
0.2
100
AcDbLine
 10
2202.201533352716
 20
1595.016420310876
 30
0.0
 11
2202.201533352716
 21
1723.532893366121
 31
0.0
  0
LINE
  5
7A45
330
1F
100
AcDbEntity
  8
圖層2中心線
 48
0.2
100
AcDbLine
 10
2367.201533352716
 20
1595.016420310876
 30
0.0
 11
2367.201533352716
 21
1723.532893366121
 31
0.0
  0
LINE
  5
7A46
330
1F
100
AcDbEntity
  8
圖層1輪廓線
100
AcDbLine
 10
1122.366545780365
 20
1785.674869639548
 30
0.0
 11
1112.366545780365
 21
1765.674869639548
 31
0.0
  0
LINE
  5
7A47
330
1F
100
AcDbEntity
  8
圖層1輪廓線
100
AcDbLine
 10
1402.366545780365
 20
1785.674869639548
 30
0.0
 11
1412.366545780365
 21
1765.674869639548
 31
0.0
  0
DIMENSION
  5
7A48
330
1F
100
AcDbEntity
  8
AM_5
100
AcDbDimension
  2
*D9
 10
1367.366545780365
 20
1575.674869639548
 30
0.0
 11
1262.366545780365
 21
1591.676838143485
 31
0.0
 70
    32
 71
     5
 42
210.0
  3
AM_ISO$0
100
AcDbAlignedDimension
 13
1157.366545780365
 23
1617.267966803484
 33
0.0
 14
1367.366545780365
 24
1613.955764113282
 34
0.0
100
AcDbRotatedDimension
  0
DIMENSION
  5
7A49
330
1F
100
AcDbEntity
  8
AM_5
100
AcDbDimension
  2
*D10
 10
1412.366545780365
 20
1525.674869639548
 30
0.0
 11
1262.366545780365
 21
1541.674869639548
 31
0.0
 70
    32
 71
     5
 42
300.0
  3
AM_ISO$0
100
AcDbAlignedDimension
 13
1112.366545780365
 23
1635.674869639548
 33
0.0
 14
1412.366545780365
 24
1635.674869639548
 34
0.0
100
AcDbRotatedDimension
  0
DIMENSION
  5
7A4A
330
1F
100
AcDbEntity
  8
AM_5
100
AcDbDimension
  2
*D11
 10
2397.201533352716
 20
1525.674869639548
 30
0.0
 11
2107.201533352716
 21
1541.674869639548
 31
0.0
 70
    32
 71
     5
 42
580.0
  3
AM_ISO$0
100
AcDbAlignedDimension
 13
1817.201533352716
 23
1630.674869639548
 33
0.0
 14
2397.201533352716
 24
1630.674869639548
 34
0.0
100
AcDbRotatedDimension
  0
DIMENSION
  5
7A4B
330
1F
100
AcDbEntity
  8
AM_5
100
AcDbDimension
  2
*D12
 10
1974.701533352716
 20
1835.32295658892
 30
0.0
 11
2033.03486668605
 21
1835.32295658892
 31
0.0
 70
   160
 71
     5
 42
15.0
  3
AM_ISO$0
100
AcDbAlignedDimension
 13
1959.701533352716
 23
1785.674869639548
 33
0.0
 14
1974.701533352716
 24
1785.674869639548
 34
0.0
100
AcDbRotatedDimension
  0
DIMENSION
  5
7A4C
330
1F
100
AcDbEntity
  8
AM_5
100
AcDbDimension
  2
*D13
 10
1954.701533352716
 20
1681.853357432133
 30
0.0
 11
1867.040551014375
 21
1681.853357432133
 31
0.0
 70
   160
 71
     5
 42
25.0
  3
AM_ISO$0
100
AcDbAlignedDimension
 13
1979.701533352716
 23
1754.674869639548
 33
0.0
 14
1954.701533352716
 24
1754.674869639548
 34
0.0
100
AcDbRotatedDimension
  0
DIMENSION
  5
7A4D
330
1F
100
AcDbEntity
  8
AM_5
100
AcDbDimension
  2
*D14
 10
2053.652776796848
 20
1785.674869639548
 30
0.0
 11
2053.652776796847
 21
1712.341536306215
 31
0.0
 70
   160
 71
     5
 42
15.0
  3
AM_ISO$0
100
AcDbAlignedDimension
 13
1979.701533352716
 23
1770.674869639548
 33
0.0
 14
1979.701533352716
 24
1785.674869639548
 34
0.0
 50
90.0
100
AcDbRotatedDimension
  0
DIMENSION
  5
7A4E
330
1F
100
AcDbEntity
  8
AM_5
100
AcDbDimension
  2
*D15
 10
1899.972115958444
 20
1770.674869639548
 30
0.0
 11
1899.972115958444
 21
1829.008202972881
 31
0.0
 70
   160
 71
     5
 42
16.0
  3
AM_ISO$0
100
AcDbAlignedDimension
 13
1954.701533352716
 23
1754.674869639548
 33
0.0
 14
1954.701533352716
 24
1770.674869639548
 34
0.0
 50
90.0
100
AcDbRotatedDimension
  0
DIMENSION
  5
7A4F
330
1F
100
AcDbEntity
  8
AM_5
100
AcDbDimension
  2
*D16
 10
2107.201533352716
 20
1873.690356378117
 30
0.0
 11
1919.182199872143
 21
1873.690356378117
 31
0.0
 70
   160
 71
     5
 42
280.0
  3
AM_ISO$0
100
AcDbAlignedDimension
 13
1827.201533352716
 23
1785.674869639548
 33
0.0
 14
2107.201533352716
 24
1785.674869639548
 34
0.0
100
AcDbRotatedDimension
  0
DIMENSION
  5
7A50
330
1F
100
AcDbEntity
  8
AM_5
100
AcDbDimension
  2
*D17
 10
1292.366545780365
 20
1845.674869639548
 30
0.0
 11
1262.83760566847
 21
1845.674869639548
 31
0.0
 70
   160
  1
%%C60
 71
     5
 42
60.0
  3
AM_ISO$0
100
AcDbAlignedDimension
 13
1232.366545780365
 23
1785.674869639548
 33
0.0
 14
1292.366545780365
 24
1785.674869639548
 34
0.0
100
AcDbRotatedDimension
  0
DIMENSION
  5
7A51
330
1F
100
AcDbEntity
  8
AM_5
100
AcDbDimension
  2
*D18
 10
1402.366545780365
 20
1895.674869639548
 30
0.0
 11
1259.722486735882
 21
1895.674869639548
 31
0.0
 70
   160
 71
     5
 42
280.0
  3
AM_ISO$0
100
AcDbAlignedDimension
 13
1122.366545780365
 23
1785.674869639548
 33
0.0
 14
1402.366545780365
 24
1785.674869639548
 34
0.0
100
AcDbRotatedDimension
  0
DIMENSION
  5
7A52
330
1F
100
AcDbEntity
  8
AM_5
100
AcDbDimension
  2
*D19
 10
1757.201533352716
 20
1785.674869639548
 30
0.0
 11
1741.201533352716
 21
1710.674869639548
 31
0.0
 70
    32
 71
     5
 42
150.0
  3
AM_ISO$0
100
AcDbAlignedDimension
 13
1817.201533352716
 23
1635.674869639548
 33
0.0
 14
1827.201533352716
 24
1785.674869639548
 34
0.0
 50
90.0
100
AcDbRotatedDimension
  0
DIMENSION
  5
7A53
330
1F
100
AcDbEntity
  8
AM_5
100
AcDbDimension
  2
*D20
 10
1757.201533352716
 20
2285.674869639548
 30
0.0
 11
1741.201533352716
 21
2210.674869639548
 31
0.0
 70
    32
 71
     5
 42
150.0
  3
AM_ISO$0
100
AcDbAlignedDimension
 13
1849.201533352716
 23
2135.674869639548
 33
0.0
 14
1849.201533352716
 24
2285.674869639548
 34
0.0
 50
90.0
100
AcDbRotatedDimension
  0
DIMENSION
  5
7A54
330
1F
100
AcDbEntity
  8
AM_5
100
AcDbDimension
  2
*D21
 10
2457.201533352716
 20
2035.674869639548
 30
0.0
 11
2441.201533352716
 21
2065.674869639549
 31
0.0
 70
    32
 71
     5
 42
60.0
  3
AM_ISO$0
100
AcDbAlignedDimension
 13
2353.02326655636
 23
2095.674869639548
 33
0.0
 14
2353.02326655636
 24
2035.674869639548
 34
0.0
 50
90.0
100
AcDbRotatedDimension
  0
DIMENSION
  5
7A55
330
1F
100
AcDbEntity
  8
AM_5
100
AcDbDimension
  2
*D22
 10
2457.201533352716
 20
1695.674869639548
 30
0.0
 11
2441.201533352716
 21
1665.674869639548
 31
0.0
 70
    32
 71
     5
 42
60.0
  3
AM_ISO$0
100
AcDbAlignedDimension
 13
2397.201533352716
 23
1635.674869639548
 33
0.0
 14
2392.201533352716
 24
1695.674869639548
 34
0.0
 50
90.0
100
AcDbRotatedDimension
  0
DIMENSION
  5
7A56
330
1F
100
AcDbEntity
  8
AM_5
100
AcDbDimension
  2
*D23
 10
2507.201533352716
 20
1635.674869639548
 30
0.0
 11
2491.201533352716
 21
1865.674869639548
 31
0.0
 70
    32
 71
     5
 42
460.0
  3
AM_ISO$0
100
AcDbAlignedDimension
 13
2353.02326655636
 23
2095.674869639548
 33
0.0
 14
2402.201533352716
 24
1635.674869639548
 34
0.0
 50
90.0
100
AcDbRotatedDimension
  0
DIMENSION
  5
7A57
330
1F
100
AcDbEntity
  8
AM_5
100
AcDbDimension
  2
*D24
 10
2213.201533352716
 20
1755.674869639548
 30
0.0
 11
2271.056060911771
 21
1755.674869639548
 31
0.0
 70
   160
 71
     5
 42
22.0
  3
AM_ISO$0
100
AcDbAlignedDimension
 13
2191.201533352716
 23
1695.674869639548
 33
0.0
 14
2213.201533352716
 24
1695.674869639548
 34
0.0
100
AcDbRotatedDimension
  0
DIMENSION
  5
7A58
330
1F
100
AcDbEntity
  8
AM_5
100
AcDbDimension
  2
*D25
 10
2378.201533352716
 20
1755.674869639548
 30
0.0
 11
2439.868200019384
 21
1755.674869639548
 31
0.0
 70
   160
 71
     5
 42
22.0
  3
AM_ISO$0
100
AcDbAlignedDimension
 13
2356.201533352716
 23
1695.674869639548
 33
0.0
 14
2378.201533352716
 24
1695.674869639548
 34
0.0
100
AcDbRotatedDimension
  0
LINE
  5
7A59
330
1F
100
AcDbEntity
  8
圖層1輪廓線
100
AcDbLine
 10
1145.866545780365
 20
2135.674869639549
 30
0.0
 11
1378.866545780365
 21
2135.674869639547
 31
0.0
  0
LINE
  5
7A5A
330
1F
100
AcDbEntity
  8
圖層1輪廓線
100
AcDbLine
 10
1370.366545780365
 20
2285.674869639548
 30
0.0
 11
1154.366545780365
 21
2285.674869639548
 31
0.0
  0
LINE
  5
7A5B
330
1F
100
AcDbEntity
  8
圖層1輪廓線
100
AcDbLine
 10
1154.366545780365
 20
2285.674869639548
 30
0.0
 11
1370.366545780365
 21
2285.674869639548
 31
0.0
  0
LINE
  5
7A5C
330
1F
100
AcDbEntity
  8
圖層1輪廓線
100
AcDbLine
 10
2075.201533352716
 20
2285.674869639548
 30
0.0
 11
1859.201533352716
 21
2285.674869639548
 31
0.0
  0
LINE
  5
7A5D
330
1F
100
AcDbEntity
  8
圖層1輪廓線
100
AcDbLine
 10
1859.201533352716
 20
2285.674869639548
 30
0.0
 11
2075.201533352716
 21
2285.674869639548
 31
0.0
  0
LINE
  5
7A5E
330
1F
100
AcDbEntity
  8
圖層1輪廓線
100
AcDbLine
 10
1227.366545780365
 20
2085.674869639548
 30
0.0
 11
1297.366545780365
 21
2085.674869639548
 31
0.0
  0
LINE
  5
7A5F
330
1F
100
AcDbEntity
  8
圖層2中心線
 48
0.5
100
AcDbLine
 10
1221.155003507503
 20
2110.674869639548
 30
0.0
 11
1333.669589259813
 21
2110.674869639548
 31
0.0
  0
LINE
  5
7A60
330
1F
100
AcDbEntity
  8
圖層1輪廓線
100
AcDbLine
 10
1227.366545780365
 20
2135.674869639548
 30
0.0
 11
1227.366545780365
 21
2085.674869639548
 31
0.0
  0
LINE
  5
7A61
330
1F
100
AcDbEntity
  8
圖層1輪廓線
100
AcDbLine
 10
1297.366545780365
 20
2085.674869639548
 30
0.0
 11
1297.366545780365
 21
2135.674869639548
 31
0.0
  0
LINE
  5
7A62
330
1F
100
AcDbEntity
  8
圖層1輪廓線
100
AcDbLine
 10
2002.201533352716
 20
2132.239305469644
 30
0.0
 11
2002.201533352716
 21
2085.674869639548
 31
0.0
  0
LINE
  5
7A63
330
1F
100
AcDbEntity
  8
圖層2中心線
 48
0.2
100
AcDbLine
 10
2008.413075625578
 20
2110.674869639548
 30
0.0
 11
1896.168269601654
 21
2110.674869639548
 31
0.0
  0
LINE
  5
7A64
330
1F
100
AcDbEntity
  8
圖層1輪廓線
100
AcDbLine
 10
2002.201533352716
 20
2085.674869639548
 30
0.0
 11
1932.201533352716
 21
2085.674869639548
 31
0.0
  0
LINE
  5
7A65
330
1F
100
AcDbEntity
  8
圖層1輪廓線
100
AcDbLine
 10
2002.201533352716
 20
2130.239305469644
 30
0.0
 11
2002.201533352716
 21
2085.674869639548
 31
0.0
  0
LINE
  5
7A66
330
1F
100
AcDbEntity
  8
圖層1輪廓線
100
AcDbLine
 10
1932.201533352716
 20
2085.674869639548
 30
0.0
 11
1932.201533352716
 21
2135.674869639548
 31
0.0
  0
CIRCLE
  5
7A67
330
1F
100
AcDbEntity
  8
圖層1輪廓線
100
AcDbCircle
 10
1262.155861148747
 20
2110.674869639548
 30
0.0
 40
11.0
  0
LWPOLYLINE
  5
7A68
330
1F
100
AcDbEntity
  8
圖層1輪廓線
100
AcDbPolyline
 90
        6
 70
     1
 43
0.0
 10
1251.155861148747
 20
2104.324016678462
 10
1262.155861148747
 20
2097.973163717377
 10
1273.155861148747
 20
2104.324016678462
 10
1273.155861148747
 20
2117.025722600634
 10
1262.155861148747
 20
2123.376575561719
 10
1251.155861148747
 20
2117.025722600634
  0
LINE
  5
7A69
330
1F
100
AcDbEntity
  8
圖層1輪廓線
100
AcDbLine
 10
1327.366545780365
 20
2101.14859019792
 30
0.0
 11
1327.366545780365
 21
2120.201149081177
 31
0.0
  0
LINE
  5
7A6A
330
1F
100
AcDbEntity
  8
圖層1輪廓線
100
AcDbLine
 10
1297.366545780365
 20
2101.14859019792
 30
0.0
 11
1297.366545780365
 21
2120.201149081177
 31
0.0
  0
LINE
  5
7A6B
330
1F
100
AcDbEntity
  8
圖層1輪廓線
100
AcDbLine
 10
1317.366545780365
 20
2097.973163717377
 30
0.0
 11
1317.366545780365
 21
2123.376575561719
 31
0.0
  0
LINE
  5
7A6C
330
1F
100
AcDbEntity
  8
圖層1輪廓線
100
AcDbLine
 10
1307.366545780365
 20
2101.14859019792
 30
0.0
 11
1307.366545780365
 21
2120.201149081177
 31
0.0
  0
LINE
  5
7A6D
330
1F
100
AcDbEntity
  8
圖層1輪廓線
100
AcDbLine
 10
1325.366545780365
 20
2097.973163717377
 30
0.0
 11
1317.366545780365
 21
2097.973163717377
 31
0.0
  0
LINE
  5
7A6E
330
1F
100
AcDbEntity
  8
圖層1輪廓線
100
AcDbLine
 10
1325.366545780365
 20
2123.376575561719
 30
0.0
 11
1317.366545780365
 21
2123.376575561719
 31
0.0
  0
LINE
  5
7A6F
330
1F
100
AcDbEntity
  8
圖層1輪廓線
100
AcDbLine
 10
1305.366545780365
 20
2123.376575561719
 30
0.0
 11
1299.366545780365
 21
2123.376575561719
 31
0.0
  0
LINE
  5
7A70
330
1F
100
AcDbEntity
  8
圖層1輪廓線
100
AcDbLine
 10
1305.366545780365
 20
2097.973163717377
 30
0.0
 11
1299.366545780365
 21
2097.973163717377
 31
0.0
  0
LINE
  5
7A71
330
1F
100
AcDbEntity
  8
圖層1輪廓線
100
AcDbLine
 10
1317.366545780365
 20
2104.674869639548
 30
0.0
 11
1307.366545780365
 21
2104.674869639548
 31
0.0
  0
LINE
  5
7A72
330
1F
100
AcDbEntity
  8
圖層1輪廓線
100
AcDbLine
 10
1317.366545780365
 20
2116.674869639548
 30
0.0
 11
1307.366545780365
 21
2116.674869639548
 31
0.0
  0
ARC
  5
7A73
330
1F
100
AcDbEntity
  8
圖層1輪廓線
100
AcDbCircle
 10
1323.845712447031
 20
2101.14859019792
 30
0.0
 40
3.520833333333359
100
AcDbArc
 50
295.5915449920792
 51
64.40845500792076
  0
ARC
  5
7A74
330
1F
100
AcDbEntity
  8
圖層1輪廓線
100
AcDbCircle
 10
1316.283212447031
 20
2110.674869639548
 30
0.0
 40
11.0833333333333
100
AcDbArc
 50
325.0396595945076
 51
34.96034040549238
  0
ARC
  5
7A75
330
1F
100
AcDbEntity
  8
圖層1輪廓線
100
AcDbCircle
 10
1325.366545780365
 20
2117.025722600634
 30
0.0
 40
0.0000000000000804
100
AcDbArc
 50
24.92068081106263
 51
315.0000000000092
  0
ARC
  5
7A76
330
1F
100
AcDbEntity
  8
圖層1輪廓線
100
AcDbCircle
 10
1323.845712447031
 20
2120.201149081177
 30
0.0
 40
3.520833333333385
100
AcDbArc
 50
295.5915449920792
 51
64.40845500792076
  0
ARC
  5
7A77
330
1F
100
AcDbEntity
  8
圖層1輪廓線
100
AcDbCircle
 10
1303.845712447031
 20
2101.14859019792
 30
0.0
 40
3.520833333333384
100
AcDbArc
 50
295.5915449920792
 51
64.40845500792076
  0
ARC
  5
7A78
330
1F
100
AcDbEntity
  8
圖層1輪廓線
100
AcDbCircle
 10
1296.283212447031
 20
2110.674869639548
 30
0.0
 40
11.0833333333333
100
AcDbArc
 50
325.0396595945076
 51
34.96034040549238
  0
ARC
  5
7A79
330
1F
100
AcDbEntity
  8
圖層1輪廓線
100
AcDbCircle
 10
1303.845712447031
 20
2120.201149081177
 30
0.0
 40
3.520833333333296
100
AcDbArc
 50
295.5915449920792
 51
64.40845500792076
  0
ARC
  5
7A7A
330
1F
100
AcDbEntity
  8
圖層1輪廓線
100
AcDbCircle
 10
1300.887379113697
 20
2101.14859019792
 30
0.0
 40
3.520833333333384
100
AcDbArc
 50
115.5915449920792
 51
244.4084550079208
  0
ARC
  5
7A7B
330
1F
100
AcDbEntity
  8
圖層1輪廓線
100
AcDbCircle
 10
1308.449879113698
 20
2110.674869639548
 30
0.0
 40
11.0833333333333
100
AcDbArc
 50
145.0396595945076
 51
214.9603404054924
  0
ARC
  5
7A7C
330
1F
100
AcDbEntity
  8
圖層1輪廓線
100
AcDbCircle
 10
1300.887379113697
 20
2120.201149081177
 30
0.0
 40
3.520833333333296
100
AcDbArc
 50
115.5915449920792
 51
244.4084550079208
  0
LINE
  5
7A7D
330
1F
100
AcDbEntity
  8
圖層1輪廓線
100
AcDbLine
 10
1305.366545780365
 20
2104.324016678462
 30
0.0
 11
1299.366545780365
 21
2104.324016678462
 31
0.0
  0
LINE
  5
7A7E
330
1F
100
AcDbEntity
  8
圖層1輪廓線
100
AcDbLine
 10
1305.366545780365
 20
2117.025722600634
 30
0.0
 11
1299.366545780365
 21
2117.025722600634
 31
0.0
  0
LINE
  5
7A7F
330
1F
100
AcDbEntity
  8
圖層1輪廓線
100
AcDbLine
 10
1299.366545780365
 20
2117.025722600634
 30
0.0
 11
1305.366545780365
 21
2117.025722600634
 31
0.0
  0
LINE
  5
7A80
330
1F
100
AcDbEntity
  8
圖層1輪廓線
100
AcDbLine
 10
1325.366545780365
 20
2117.025722600634
 30
0.0
 11
1317.366545780365
 21
2117.025722600634
 31
0.0
  0
LINE
  5
7A81
330
1F
100
AcDbEntity
  8
圖層1輪廓線
100
AcDbLine
 10
1325.366545780365
 20
2104.324016678462
 30
0.0
 11
1317.366545780365
 21
2104.324016678462
 31
0.0
  0
LINE
  5
7A82
330
1F
100
AcDbEntity
  8
圖層1輪廓線
100
AcDbLine
 10
1317.366545780365
 20
2117.025722600634
 30
0.0
 11
1325.366545780365
 21
2117.025722600634
 31
0.0
  0
LWPOLYLINE
  5
7A83
330
1F
100
AcDbEntity
  8
圖層1輪廓線
100
AcDbPolyline
 90
        6
 70
     1
 43
0.0
 10
1956.412217984336
 20
2104.324016678462
 10
1967.412217984336
 20
2097.973163717377
 10
1978.412217984336
 20
2104.324016678462
 10
1978.412217984336
 20
2117.025722600634
 10
1967.412217984336
 20
2123.376575561719
 10
1956.412217984336
 20
2117.025722600634
  0
CIRCLE
  5
7A84
330
1F
100
AcDbEntity
  8
圖層1輪廓線
100
AcDbCircle
 10
1967.412217984336
 20
2110.674869639548
 30
0.0
 40
11.0
  0
LINE
  5
7A85
330
1F
100
AcDbEntity
  8
圖層1輪廓線
100
AcDbLine
 10
1902.201533352716
 20
2120.201149081177
 30
0.0
 11
1902.201533352716
 21
2101.14859019792
 31
0.0
  0
LINE
  5
7A86
330
1F
100
AcDbEntity
  8
圖層1輪廓線
100
AcDbLine
 10
1922.201533352716
 20
2120.201149081177
 30
0.0
 11
1922.201533352716
 21
2101.14859019792
 31
0.0
  0
LINE
  5
7A87
330
1F
100
AcDbEntity
  8
圖層1輪廓線
100
AcDbLine
 10
1932.201533352716
 20
2120.201149081177
 30
0.0
 11
1932.201533352716
 21
2101.14859019792
 31
0.0
  0
ARC
  5
7A88
330
1F
100
AcDbEntity
  8
圖層1輪廓線
100
AcDbCircle
 10
1928.680700019384
 20
2101.14859019792
 30
0.0
 40
3.520833333333296
100
AcDbArc
 50
295.5915449920792
 51
64.40845500792076
  0
ARC
  5
7A89
330
1F
100
AcDbEntity
  8
圖層1輪廓線
100
AcDbCircle
 10
1925.72236668605
 20
2101.14859019792
 30
0.0
 40
3.520833333333296
100
AcDbArc
 50
115.5915449920792
 51
244.4084550079208
  0
ARC
  5
7A8A
330
1F
100
AcDbEntity
  8
圖層1輪廓線
100
AcDbCircle
 10
1905.72236668605
 20
2101.14859019792
 30
0.0
 40
3.520833333333385
100
AcDbArc
 50
115.5915449920792
 51
244.4084550079208
  0
LINE
  5
7A8B
330
1F
100
AcDbEntity
  8
圖層1輪廓線
100
AcDbLine
 10
1912.201533352716
 20
2123.376575561719
 30
0.0
 11
1912.201533352716
 21
2097.973163717377
 31
0.0
  0
LINE
  5
7A8C
330
1F
100
AcDbEntity
  8
圖層1輪廓線
100
AcDbLine
 10
1904.201533352716
 20
2097.973163717377
 30
0.0
 11
1912.201533352716
 21
2097.973163717377
 31
0.0
  0
LINE
  5
7A8D
330
1F
100
AcDbEntity
  8
圖層1輪廓線
100
AcDbLine
 10
1924.201533352716
 20
2097.973163717377
 30
0.0
 11
1930.201533352716
 21
2097.973163717377
 31
0.0
  0
LINE
  5
7A8E
330
1F
100
AcDbEntity
  8
圖層1輪廓線
100
AcDbLine
 10
1912.201533352716
 20
2104.674869639548
 30
0.0
 11
1922.201533352716
 21
2104.674869639548
 31
0.0
  0
LINE
  5
7A8F
330
1F
100
AcDbEntity
  8
圖層1輪廓線
100
AcDbLine
 10
1912.201533352716
 20
2116.674869639548
 30
0.0
 11
1922.201533352716
 21
2116.674869639548
 31
0.0
  0
LINE
  5
7A90
330
1F
100
AcDbEntity
  8
圖層1輪廓線
100
AcDbLine
 10
1912.201533352716
 20
2104.324016678462
 30
0.0
 11
1904.201533352716
 21
2104.324016678462
 31
0.0
  0
LINE
  5
7A91
330
1F
100
AcDbEntity
  8
圖層1輪廓線
100
AcDbLine
 10
1904.201533352716
 20
2117.025722600634
 30
0.0
 11
1912.201533352716
 21
2117.025722600634
 31
0.0
  0
LINE
  5
7A92
330
1F
100
AcDbEntity
  8
圖層1輪廓線
100
AcDbLine
 10
1904.201533352716
 20
2104.324016678462
 30
0.0
 11
1912.201533352716
 21
2104.324016678462
 31
0.0
  0
ARC
  5
7A93
330
1F
100
AcDbEntity
  8
圖層1輪廓線
100
AcDbCircle
 10
1904.201533352716
 20
2104.324016678462
 30
0.0
 40
0.0000000000000804
100
AcDbArc
 50
204.9206808110626
 51
135.0000000000092
  0
ARC
  5
7A94
330
1F
100
AcDbEntity
  8
圖層1輪廓線
100
AcDbCircle
 10
1913.28486668605
 20
2110.674869639548
 30
0.0
 40
11.0833333333333
100
AcDbArc
 50
145.0396595945076
 51
214.9603404054924
  0
ARC
  5
7A95
330
1F
100
AcDbEntity
  8
圖層1輪廓線
100
AcDbCircle
 10
1905.72236668605
 20
2120.201149081177
 30
0.0
 40
3.520833333333359
100
AcDbArc
 50
115.5915449920792
 51
244.4084550079208
  0
LINE
  5
7A96
330
1F
100
AcDbEntity
  8
圖層1輪廓線
100
AcDbLine
 10
1930.201533352716
 20
2104.324016678462
 30
0.0
 11
1924.201533352716
 21
2104.324016678462
 31
0.0
  0
LINE
  5
7A97
330
1F
100
AcDbEntity
  8
圖層1輪廓線
100
AcDbLine
 10
1924.201533352716
 20
2104.324016678462
 30
0.0
 11
1930.201533352716
 21
2104.324016678462
 31
0.0
  0
LINE
  5
7A98
330
1F
100
AcDbEntity
  8
圖層1輪廓線
100
AcDbLine
 10
1924.201533352716
 20
2117.025722600634
 30
0.0
 11
1930.201533352716
 21
2117.025722600634
 31
0.0
  0
ARC
  5
7A99
330
1F
100
AcDbEntity
  8
圖層1輪廓線
100
AcDbCircle
 10
1921.118200019384
 20
2110.674869639548
 30
0.0
 40
11.0833333333333
100
AcDbArc
 50
325.0396595945076
 51
34.96034040549238
  0
ARC
  5
7A9A
330
1F
100
AcDbEntity
  8
圖層1輪廓線
100
AcDbCircle
 10
1928.680700019384
 20
2120.201149081177
 30
0.0
 40
3.520833333333384
100
AcDbArc
 50
295.5915449920792
 51
64.40845500792076
  0
ARC
  5
7A9B
330
1F
100
AcDbEntity
  8
圖層1輪廓線
100
AcDbCircle
 10
1933.28486668605
 20
2110.674869639548
 30
0.0
 40
11.0833333333333
100
AcDbArc
 50
145.0396595945076
 51
214.9603404054924
  0
ARC
  5
7A9C
330
1F
100
AcDbEntity
  8
圖層1輪廓線
100
AcDbCircle
 10
1925.72236668605
 20
2120.201149081177
 30
0.0
 40
3.520833333333384
100
AcDbArc
 50
115.5915449920792
 51
244.4084550079208
  0
LINE
  5
7A9D
330
1F
100
AcDbEntity
  8
圖層1輪廓線
100
AcDbLine
 10
1317.366545780365
 20
2114.674869639548
 30
0.0
 11
1307.366545780365
 21
2114.674869639548
 31
0.0
  0
LINE
  5
7A9E
330
1F
100
AcDbEntity
  8
圖層1輪廓線
100
AcDbLine
 10
1317.366545780365
 20
2106.674869639548
 30
0.0
 11
1307.366545780365
 21
2106.674869639548
 31
0.0
  0
LINE
  5
7A9F
330
1F
100
AcDbEntity
  8
圖層1輪廓線
100
AcDbLine
 10
1912.201533352716
 20
2114.674869639548
 30
0.0
 11
1922.201533352716
 21
2114.674869639548
 31
0.0
  0
LINE
  5
7AA0
330
1F
100
AcDbEntity
  8
圖層1輪廓線
100
AcDbLine
 10
1912.201533352716
 20
2106.674869639548
 30
0.0
 11
1922.201533352716
 21
2106.674869639548
 31
0.0
  0
LINE
  5
7AA1
330
1F
100
AcDbEntity
  8
圖層3虛線
 48
4.0
100
AcDbLine
 10
1232.366545780365
 20
1735.674869639548
 30
0.0
 11
1292.366545780365
 21
1735.674869639548
 31
0.0
  0
LINE
  5
7AA2
330
1F
100
AcDbEntity
  8
圖層1輪廓線
100
AcDbLine
 10
2084.701533352716
 20
2293.674869639548
 30
0.0
 11
2084.701533352716
 21
2285.674869639548
 31
0.0
  0
LINE
  5
7AA3
330
1F
100
AcDbEntity
  8
圖層1輪廓線
100
AcDbLine
 10
2149.701533352716
 20
2293.674869639548
 30
0.0
 11
2149.701533352716
 21
2285.674869639548
 31
0.0
  0
LINE
  5
7AA4
330
1F
100
AcDbEntity
  8
圖層1輪廓線
100
AcDbLine
 10
2084.701533352716
 20
2293.674869639548
 30
0.0
 11
2149.701533352716
 21
2293.674869639548
 31
0.0
  0
LINE
  5
7AA5
330
1F
100
AcDbEntity
  8
圖層1輪廓線
100
AcDbLine
 10
2102.201533352716
 20
2473.674869639548
 30
0.0
 11
2102.201533352716
 21
2293.674869639548
 31
0.0
  0
LINE
  5
7AA6
330
1F
100
AcDbEntity
  8
圖層1輪廓線
100
AcDbLine
 10
2132.201533352716
 20
2473.674869639548
 30
0.0
 11
2132.201533352716
 21
2293.674869639548
 31
0.0
  0
LINE
  5
7AA7
330
1F
100
AcDbEntity
  8
圖層1輪廓線
100
AcDbLine
 10
2104.201533352716
 20
2475.674869639548
 30
0.0
 11
2130.201533352716
 21
2475.674869639548
 31
0.0
  0
LINE
  5
7AA8
330
1F
100
AcDbEntity
  8
圖層1輪廓線
100
AcDbLine
 10
2102.201533352716
 20
2473.674869639548
 30
0.0
 11
2111.201533352716
 21
2473.674869639548
 31
0.0
  0
LINE
  5
7AA9
330
1F
100
AcDbEntity
  8
圖層1輪廓線
100
AcDbLine
 10
2111.201533352716
 20
2463.674869639548
 30
0.0
 11
2123.201533352716
 21
2463.674869639548
 31
0.0
  0
LINE
  5
7AAA
330
1F
100
AcDbEntity
  8
圖層1輪廓線
100
AcDbLine
 10
2111.201533352716
 20
2475.674869639548
 30
0.0
 11
2111.201533352716
 21
2463.674869639548
 31
0.0
  0
LINE
  5
7AAB
330
1F
100
AcDbEntity
  8
圖層1輪廓線
100
AcDbLine
 10
2123.201533352716
 20
2475.674869639548
 30
0.0
 11
2123.201533352716
 21
2463.674869639548
 31
0.0
  0
ARC
  5
7AAC
330
1F
100
AcDbEntity
  8
圖層1輪廓線
100
AcDbCircle
 10
2117.201533352716
 20
2471.674869639548
 30
0.0
 40
10.0
100
AcDbArc
 50
233.1301023541378
 51
306.8698976458622
  0
LINE
  5
7AAD
330
1F
100
AcDbEntity
  8
圖層1輪廓線
100
AcDbLine
 10
2104.201533352716
 20
2475.674869639548
 30
0.0
 11
2102.201533352716
 21
2473.674869639548
 31
0.0
  0
LINE
  5
7AAE
330
1F
100
AcDbEntity
  8
圖層1輪廓線
100
AcDbLine
 10
2130.201533352716
 20
2475.674869639548
 30
0.0
 11
2132.201533352716
 21
2473.674869639548
 31
0.0
  0
LINE
  5
7AAF
330
1F
100
AcDbEntity
  8
圖層1輪廓線
100
AcDbLine
 10
2123.201533352716
 20
2473.674869639548
 30
0.0
 11
2132.201533352716
 21
2473.674869639548
 31
0.0
  0
LINE
  5
7AB0
330
1F
100
AcDbEntity
  8
圖層1輪廓線
100
AcDbLine
 10
2123.201533352716
 20
2475.674869639548
 30
0.0
 11
2111.201533352716
 21
2463.674869639548
 31
0.0
  0
LINE
  5
7AB1
330
1F
100
AcDbEntity
  8
圖層1輪廓線
100
AcDbLine
 10
2111.201533352716
 20
2475.674869639548
 30
0.0
 11
2123.201533352716
 21
2463.674869639548
 31
0.0
  0
DIMENSION
  5
7AB2
330
1F
100
AcDbEntity
  8
圖層4尺寸線
100
AcDbDimension
  2
*D26
 10
1757.201533352716
 20
2085.674869639548
 30
0.0
 11
1742.201533352716
 21
2110.674869639549
 31
0.0
 70
    32
 71
     5
 42
50.0
  3
直線
100
AcDbAlignedDimension
 13
1849.201533352716
 23
2135.674869639548
 33
0.0
 14
1932.201533352716
 24
2085.674869639548
 34
0.0
 50
90.0
100
AcDbRotatedDimension
  0
DIMENSION
  5
7AB3
330
1F
100
AcDbEntity
  8
AM_5
100
AcDbDimension
  2
*D27
 10
1757.201533352716
 20
1785.674869639548
 30
0.0
 11
1741.201533352716
 21
1935.674869639548
 31
0.0
 70
    32
 71
     5
 42
300.0
  3
AM_ISO$0
100
AcDbAlignedDimension
 13
1932.201533352716
 23
2085.674869639548
 33
0.0
 14
1822.201533352716
 24
1785.674869639548
 34
0.0
 50
90.0
100
AcDbRotatedDimension
  0
LINE
  5
7AB4
330
1F
100
AcDbEntity
  8
圖層1輪廓線
100
AcDbLine
 10
1904.201533352716
 20
2123.376575561719
 30
0.0
 11
1912.201533352716
 21
2123.376575561719
 31
0.0
  0
LINE
  5
7AB5
330
1F
100
AcDbEntity
  8
圖層1輪廓線
100
AcDbLine
 10
1924.201533352716
 20
2123.376575561719
 30
0.0
 11
1930.201533352716
 21
2123.376575561719
 31
0.0
  0
LINE
  5
7AB6
330
1F
100
AcDbEntity
  8
圖層2中心線
 48
0.5
100
AcDbLine
 10
1262.366545780365
 20
2039.478403106403
 30
0.0
 11
1262.366545780365
 21
2982.13639273749
 31
0.0
  0
LINE
  5
7AB7
330
1F
100
AcDbEntity
  8
圖層3虛線
100
AcDbLine
 10
1947.201533352716
 20
2085.674869639548
 30
0.0
 11
1947.201533352716
 21
2135.674869639548
 31
0.0
  0
LINE
  5
7AB8
330
1F
100
AcDbEntity
  8
圖層3虛線
100
AcDbLine
 10
1987.201533352716
 20
2135.674869639548
 30
0.0
 11
1987.201533352716
 21
2085.674869639548
 31
0.0
  0
LINE
  5
7AB9
330
1F
100
AcDbEntity
  8
圖層3虛線
100
AcDbLine
 10
1947.201533352716
 20
2116.674869639548
 30
0.0
 11
1932.201533352716
 21
2116.674869639548
 31
0.0
  0
LINE
  5
7ABA
330
1F
100
AcDbEntity
  8
圖層3虛線
100
AcDbLine
 10
1947.201533352716
 20
2104.674869639548
 30
0.0
 11
1932.201533352716
 21
2104.674869639548
 31
0.0
  0
LINE
  5
7ABB
330
1F
100
AcDbEntity
  8
圖層3虛線
100
AcDbLine
 10
1947.201533352716
 20
2114.674869639548
 30
0.0
 11
1932.201533352716
 21
2114.674869639548
 31
0.0
  0
LINE
  5
7ABC
330
1F
100
AcDbEntity
  8
圖層3虛線
100
AcDbLine
 10
1947.201533352716
 20
2106.674869639548
 30
0.0
 11
1932.201533352716
 21
2106.674869639548
 31
0.0
  0
LINE
  5
7ABD
330
1F
100
AcDbEntity
  8
圖層3虛線
100
AcDbLine
 10
1947.201533352716
 20
2135.674869639548
 30
0.0
 11
1987.201533352716
 21
2135.674869639548
 31
0.0
  0
LINE
  5
7ABE
330
1F
100
AcDbEntity
  8
圖層1輪廓線
100
AcDbLine
 10
1849.201533352716
 20
2135.674869639548
 30
0.0
 11
1967.201533352716
 21
2135.674869639548
 31
0.0
  0
DIMENSION
  5
7ABF
330
1F
100
AcDbEntity
  8
AM_5
100
AcDbDimension
  2
*D28
 10
1875.621878451162
 20
2085.674869639548
 30
0.0
 11
1859.619909947225
 21
2028.006719069301
 31
0.0
 70
    32
 71
     5
 42
25.0
  3
AM_ISO$0
100
AcDbAlignedDimension
 13
1896.168269601654
 23
2110.674869639548
 33
0.0
 14
1932.201533352716
 24
2085.674869639548
 34
0.0
 50
90.0
100
AcDbRotatedDimension
  0
DIMENSION
  5
7AC0
330
1F
100
AcDbEntity
  8
AM_5
100
AcDbDimension
  2
*D29
 10
1987.201533352716
 20
2022.341536306215
 30
0.0
 11
2054.209407368464
 21
2022.341536306215
 31
0.0
 70
   160
  1
%%C40
 71
     5
 42
40.0
  3
AM_ISO$0
100
AcDbAlignedDimension
 13
1947.201533352716
 23
2085.674869639548
 33
0.0
 14
1987.201533352716
 24
2085.674869639548
 34
0.0
100
AcDbRotatedDimension
  0
DIMENSION
  5
7AC1
330
1F
100
AcDbEntity
  8
AM_5
100
AcDbDimension
  2
*D30
 10
2032.679578854368
 20
2085.674869639548
 30
0.0
 11
2032.679578854368
 21
2192.682743655298
 31
0.0
 70
   160
 71
     5
 42
50.0
  3
AM_ISO$0
100
AcDbAlignedDimension
 13
1987.201533352716
 23
2135.674869639548
 33
0.0
 14
2002.201533352716
 24
2085.674869639548
 34
0.0
 50
90.0
100
AcDbRotatedDimension
  0
DIMENSION
  5
7AC2
330
1F
100
AcDbEntity
  8
AM_5
100
AcDbDimension
  2
*D31
 10
1378.866545780365
 20
1992.771542033857
 30
0.0
 11
1262.366545780365
 21
2008.773510537794
 31
0.0
 70
    32
  1
235
 71
     5
 42
233.0
  3
AM_ISO$0
100
AcDbAlignedDimension
 13
1145.866545780365
 23
2035.674869639548
 33
0.0
 14
1378.866545780365
 24
2035.674869639548
 34
0.0
100
AcDbRotatedDimension
  0
LINE
  5
7AC3
330
1F
100
AcDbEntity
  8
圖層1輪廓線
100
AcDbLine
 10
1851.701533352716
 20
2285.674869639548
 30
0.0
 11
2082.701533352716
 21
2285.674869639548
 31
0.0
  0
LINE
  5
7AC4
330
1F
100
AcDbEntity
  8
圖層1輪廓線
100
AcDbLine
 10
2082.701533352716
 20
2285.674869639548
 30
0.0
 11
1851.701533352716
 21
2285.674869639548
 31
0.0
  0
LINE
  5
7AC5
330
1F
100
AcDbEntity
  8
圖層1輪廓線
100
AcDbLine
 10
1146.866545780365
 20
2285.674869639548
 30
0.0
 11
1377.866545780365
 21
2285.674869639548
 31
0.0
  0
LINE
  5
7AC6
330
1F
100
AcDbEntity
  8
圖層1輪廓線
100
AcDbLine
 10
1377.866545780365
 20
2285.674869639548
 30
0.0
 11
1146.866545780365
 21
2285.674869639548
 31
0.0
  0
LINE
  5
7AC7
330
1F
100
AcDbEntity
  8
圖層1輪廓線
100
AcDbLine
 10
1146.866545780365
 20
2285.674869639548
 30
0.0
 11
1377.866545780365
 21
2285.674869639548
 31
0.0
  0
LINE
  5
7AC8
330
1F
100
AcDbEntity
  8
圖層1輪廓線
100
AcDbLine
 10
1377.866545780365
 20
2285.674869639548
 30
0.0
 11
1146.866545780365
 21
2285.674869639548
 31
0.0
  0
LINE
  5
7AC9
330
1F
100
AcDbEntity
  8
圖層1輪廓線
100
AcDbLine
 10
1262.366545780365
 20
2306.674869639548
 30
0.0
 11
1262.366545780365
 21
2322.674869639548
 31
0.0
  0
LINE
  5
7ACA
330
1F
100
AcDbEntity
  8
圖層1輪廓線
100
AcDbLine
 10
1262.366545780365
 20
2732.674869639548
 30
0.0
 11
1262.366545780365
 21
2716.674869639548
 31
0.0
  0
LINE
  5
7ACB
330
1F
100
AcDbEntity
  8
圖層1輪廓線
100
AcDbLine
 10
1851.701533352716
 20
2285.674869639548
 30
0.0
 11
2082.701533352716
 21
2285.674869639548
 31
0.0
  0
LINE
  5
7ACC
330
1F
100
AcDbEntity
  8
圖層1輪廓線
100
AcDbLine
 10
2082.701533352716
 20
2285.674869639548
 30
0.0
 11
1851.701533352716
 21
2285.674869639548
 31
0.0
  0
LINE
  5
7ACD
330
1F
100
AcDbEntity
  8
圖層2中心線
 48
0.2
100
AcDbLine
 10
1967.412217984336
 20
2069.566119641169
 30
0.0
 11
1967.412217984336
 21
2992.339747261758
 31
0.0
  0
LINE
  5
7ACE
330
1F
100
AcDbEntity
  8
圖層2中心線
 48
0.5
100
AcDbLine
 10
2117.201533352716
 20
2501.421537370284
 30
0.0
 11
2117.201533352716
 21
2260.739887785644
 31
0.0
  0
DIMENSION
  5
7ACF
330
1F
100
AcDbEntity
  8
AM_5
100
AcDbDimension
  2
*D32
 10
2147.201533352716
 20
1914.579982582312
 30
0.0
 11
2057.201533352716
 21
1930.579982582312
 31
0.0
 70
    32
 71
     5
 42
180.0
  3
AM_ISO$0
100
AcDbAlignedDimension
 13
1967.201533352716
 23
1814.05456363508
 33
0.0
 14
2147.201533352716
 24
1814.05456363508
 34
0.0
100
AcDbRotatedDimension
  0
LEADER
  5
7AD0
330
1F
100
AcDbEntity
  8
圖層4尺寸線
100
AcDbLeader
  3
直線
 73
     0
 74
     0
 75
     1
 40
20.00393700787402
 41
65.70905511811021
 76
     3
 10
1330.563671749214
 20
2111.843781860605
 30
0.0
 10
1443.51654599267
 20
1992.621500418259
 30
0.0
 10
1463.51654599267
 20
1992.621500418259
 30
0.0
340
7AD1
1001
ACAD
1000
DSTYLE
1002
{
1070
   147
1040
5.0
1070
    77
1070
     1
1002
}
  0
MTEXT
  5
7AD1
102
{ACAD_REACTORS
330
7AD0
102
}
330
1F
100
AcDbEntity
  8
圖層4尺寸線
100
AcDbMText
 10
1468.51654599267
 20
1997.621500418259
 30
0.0
 40
20.0
 41
0.0
 71
     7
 72
     1
  1
2-M12
 73
     1
 44
1.0
1001
ACAD
1000
MTEXTBEGIN
1070
    73
1070
     1
1070
    44
1040
1.0
1070
    74
1070
     0
1000
MTEXTEND
  0
LINE
  5
7AD2
330
1F
100
AcDbEntity
  8
圖層4尺寸線
100
AcDbLine
 10
1449.866545780365
 20
2281.674869639548
 30
0.0
 11
1411.866545780365
 21
2281.674869639548
 31
0.0
  0
LINE
  5
7AD3
330
1F
100
AcDbEntity
  8
圖層4尺寸線
100
AcDbLine
 10
1449.866545780365
 20
2293.674869639548
 30
0.0
 11
1411.866545780365
 21
2293.674869639547
 31
0.0
  0
LINE
  5
7AD4
330
1F
100
AcDbEntity
  8
圖層4尺寸線
100
AcDbLine
 10
1455.866545780365
 20
2272.674869639548
 30
0.0
 11
1405.866545780365
 21
2272.674869639548
 31
0.0
  0
LINE
  5
7AD5
330
1F
100
AcDbEntity
  8
圖層4尺寸線
100
AcDbLine
 10
1455.866545780365
 20
2297.674869639548
 30
0.0
 11
1405.866545780365
 21
2297.674869639548
 31
0.0
  0
TEXT
  5
7AD6
330
1F
100
AcDbEntity
  8
圖層4尺寸線
100
AcDbText
 10
1394.901912051165
 20
2189.68472775986
 30
0.0
 40
5.0
  1
電源開關       緊急停止
  7
WIN
 72
     4
 11
1431.435342283723
 21
2191.923099852883
 31
0.0
100
AcDbText
  0
LWPOLYLINE
  5
7AD7
330
1F
100
AcDbEntity
  8
圖層4尺寸線
100
AcDbPolyline
 90
        4
 70
     1
 43
0.0
 10
1387.567630915793
 20
2198.396658185332
 10
1475.303053651652
 20
2198.396658185332
 10
1475.303053651652
 20
2185.449541520434
 10
1387.567630915793
 20
2185.449541520434
  0
LINE
  5
7AD8
330
1F
100
AcDbEntity
  8
圖層4尺寸線
100
AcDbLine
 10
1420.458739419819
 20
2218.369239110168
 30
0.0
 11
1428.85369694851
 21
2226.910815482484
 31
0.0
  0
LINE
  5
7AD9
330
1F
100
AcDbEntity
  8
圖層4尺寸線
100
AcDbLine
 10
1412.866545780365
 20
2204.674869639548
 30
0.0
 11
1448.866545780365
 21
2204.674869639548
 31
0.0
  0
LINE
  5
7ADA
330
1F
100
AcDbEntity
  8
圖層4尺寸線
100
AcDbLine
 10
1412.866545780365
 20
2252.674869639548
 30
0.0
 11
1448.866545780365
 21
2252.674869639548
 31
0.0
  0
CIRCLE
  5
7ADB
330
1F
100
AcDbEntity
  8
圖層4尺寸線
100
AcDbCircle
 10
1430.866545780365
 20
2231.674869639547
 30
0.0
 40
5.0
  0
CIRCLE
  5
7ADC
330
1F
100
AcDbEntity
  8
圖層4尺寸線
100
AcDbCircle
 10
1430.866545780365
 20
2231.674869639547
 30
0.0
 40
17.0
  0
CIRCLE
  5
7ADD
330
1F
100
AcDbEntity
  8
圖層4尺寸線
100
AcDbCircle
 10
1430.866545780365
 20
2317.674869639548
 30
0.0
 40
5.0
  0
LINE
  5
7ADE
330
1F
100
AcDbEntity
  8
圖層4尺寸線
100
AcDbLine
 10
1408.866545780365
 20
2256.674869639548
 30
0.0
 11
1452.866545780365
 21
2256.674869639548
 31
0.0
  0
LINE
  5
7ADF
330
1F
100
AcDbEntity
  8
圖層4尺寸線
100
AcDbLine
 10
1408.866545780365
 20
2200.674869639548
 30
0.0
 11
1452.866545780365
 21
2200.674869639548
 31
0.0
  0
LINE
  5
7AE0
330
1F
100
AcDbEntity
  8
圖層4尺寸線
100
AcDbLine
 10
1482.866545780365
 20
2337.674869639548
 30
0.0
 11
1378.866545780365
 21
2337.674869639548
 31
0.0
  0
LINE
  5
7AE1
330
1F
100
AcDbEntity
  8
圖層4尺寸線
100
AcDbLine
 10
1378.866545780365
 20
2135.674869639547
 30
0.0
 11
1482.866545780365
 21
2135.674869639547
 31
0.0
  0
LINE
  5
7AE2
330
1F
100
AcDbEntity
  8
圖層4尺寸線
100
AcDbLine
 10
1412.866545780365
 20
2204.674869639548
 30
0.0
 11
1412.866545780365
 21
2252.674869639548
 31
0.0
  0
LINE
  5
7AE3
330
1F
100
AcDbEntity
  8
圖層4尺寸線
100
AcDbLine
 10
1408.866545780365
 20
2200.674869639548
 30
0.0
 11
1408.866545780365
 21
2256.674869639548
 31
0.0
  0
LINE
  5
7AE4
330
1F
100
AcDbEntity
  8
圖層4尺寸線
100
AcDbLine
 10
1378.866545780365
 20
2337.674869639548
 30
0.0
 11
1378.866545780365
 21
2135.674869639547
 31
0.0
  0
LINE
  5
7AE5
330
1F
100
AcDbEntity
  8
圖層4尺寸線
100
AcDbLine
 10
1411.782583745184
 20
2166.379655130126
 30
0.0
 11
1412.754596400124
 21
2162.357969323621
 31
0.0
  0
LINE
  5
7AE6
330
1F
100
AcDbEntity
  8
圖層4尺寸線
100
AcDbLine
 10
1405.950507815545
 20
2166.379655130126
 30
0.0
 11
1404.978495160605
 21
2162.357969323621
 31
0.0
  0
CIRCLE
  5
7AE7
330
1F
100
AcDbEntity
  8
圖層4尺寸線
100
AcDbCircle
 10
1408.866545780365
 20
2161.418255336183
 30
0.0
 40
4.0
  0
ARC
  5
7AE8
330
1F
100
AcDbEntity
  8
圖層4尺寸線
100
AcDbCircle
 10
1408.866545780365
 20
2165.674869639548
 30
0.0
 40
12.0
100
AcDbArc
 50
131.8103148957594
 51
228.1896851042406
  0
ARC
  5
7AE9
330
1F
100
AcDbEntity
  8
圖層4尺寸線
100
AcDbCircle
 10
1408.866545780365
 20
2165.674869639548
 30
0.0
 40
12.0
100
AcDbArc
 50
311.8103148957594
 51
48.18968510424055
  0
LWPOLYLINE
  5
7AEA
330
1F
100
AcDbEntity
  8
圖層4尺寸線
100
AcDbPolyline
 90
        7
 70
     0
 43
0.0
 10
1412.463667330266
 20
2159.668764966037
 10
1415.866545780365
 20
2161.63341775522
 10
1415.866545780365
 20
2169.716321523875
 10
1408.866545780365
 20
2173.757773408202
 10
1401.866545780365
 20
2169.716321523875
 10
1401.866545780365
 20
2161.63341775522
 10
1405.269424230464
 20
2159.668764966037
  0
ARC
  5
7AEB
330
1F
100
AcDbEntity
  8
圖層4尺寸線
100
AcDbCircle
 10
1408.866545780365
 20
2165.674869639548
 30
0.0
 40
7.0
100
AcDbArc
 50
300.929107252366
 51
239.070892747634
  0
ARC
  5
7AEC
330
1F
100
AcDbEntity
  8
圖層4尺寸線
100
AcDbCircle
 10
1408.866545780365
 20
2165.674869639548
 30
0.0
 40
6.0
100
AcDbArc
 50
311.7321013756721
 51
228.2678986243279
  0
ARC
  5
7AED
330
1F
100
AcDbEntity
  8
圖層4尺寸線
100
AcDbCircle
 10
1386.866545780365
 20
2148.674869639548
 30
0.0
 40
2.0
100
AcDbArc
 50
240.0000000000027
 51
299.9999999999973
  0
ARC
  5
7AEE
330
1F
100
AcDbEntity
  8
圖層4尺寸線
100
AcDbCircle
 10
1386.866545780365
 20
2148.674869639548
 30
0.0
 40
2.0
100
AcDbArc
 50
60.00000000000272
 51
119.9999999999973
  0
CIRCLE
  5
7AEF
330
1F
100
AcDbEntity
  8
圖層4尺寸線
100
AcDbCircle
 10
1386.866545780365
 20
2148.674869639548
 30
0.0
 40
4.0
  0
LINE
  5
7AF0
330
1F
100
AcDbEntity
  8
圖層4尺寸線
100
AcDbLine
 10
1385.866545780365
 20
2149.674869639548
 30
0.0
 11
1385.866545780365
 21
2150.406920447116
 31
0.0
  0
LINE
  5
7AF1
330
1F
100
AcDbEntity
  8
圖層4尺寸線
100
AcDbLine
 10
1385.866545780365
 20
2146.942818831979
 30
0.0
 11
1385.866545780365
 21
2147.674869639548
 31
0.0
  0
LINE
  5
7AF2
330
1F
100
AcDbEntity
  8
圖層4尺寸線
100
AcDbLine
 10
1385.866545780365
 20
2149.674869639548
 30
0.0
 11
1383.512443814115
 21
2149.674869639548
 31
0.0
  0
LINE
  5
7AF3
330
1F
100
AcDbEntity
  8
圖層4尺寸線
100
AcDbLine
 10
1385.866545780365
 20
2147.674869639548
 30
0.0
 11
1383.512443814115
 21
2147.674869639548
 31
0.0
  0
ARC
  5
7AF4
330
1F
100
AcDbEntity
  8
圖層4尺寸線
100
AcDbCircle
 10
1386.866545780365
 20
2148.674869639548
 30
0.0
 40
3.5
100
AcDbArc
 50
163.3984504009753
 51
196.6015495990371
  0
TEXT
  5
7AF5
330
1F
100
AcDbEntity
  8
圖層4尺寸線
100
AcDbText
 10
1403.738638803621
 20
2151.878358011641
 30
0.0
 40
4.0
  1
OFF
  7
WIN
 72
     4
 11
1408.866545780365
 21
2153.674869639548
 31
0.0
100
AcDbText
  0
LINE
  5
7AF6
330
1F
100
AcDbEntity
  8
圖層4尺寸線
100
AcDbLine
 10
1403.866545780365
 20
2148.674869639548
 30
0.0
 11
1413.866545780365
 21
2148.674869639547
 31
0.0
  0
LINE
  5
7AF7
330
1F
100
AcDbEntity
  8
圖層4尺寸線
100
AcDbLine
 10
1400.866545780365
 20
2155.476830612362
 30
0.0
 11
1400.866545780365
 21
2151.674869639547
 31
0.0
  0
LINE
  5
7AF8
330
1F
100
AcDbEntity
  8
圖層4尺寸線
100
AcDbLine
 10
1387.866545780365
 20
2149.674869639548
 30
0.0
 11
1387.866545780365
 21
2150.406920447116
 31
0.0
  0
LINE
  5
7AF9
330
1F
100
AcDbEntity
  8
圖層4尺寸線
100
AcDbLine
 10
1387.866545780365
 20
2146.942818831979
 30
0.0
 11
1387.866545780365
 21
2147.674869639548
 31
0.0
  0
LINE
  5
7AFA
330
1F
100
AcDbEntity
  8
圖層4尺寸線
100
AcDbLine
 10
1390.220647746615
 20
2147.674869639548
 30
0.0
 11
1387.866545780365
 21
2147.674869639548
 31
0.0
  0
LINE
  5
7AFB
330
1F
100
AcDbEntity
  8
圖層4尺寸線
100
AcDbLine
 10
1390.220647746615
 20
2149.674869639548
 30
0.0
 11
1387.866545780365
 21
2149.674869639548
 31
0.0
  0
ARC
  5
7AFC
330
1F
100
AcDbEntity
  8
圖層4尺寸線
100
AcDbCircle
 10
1386.866545780365
 20
2148.674869639548
 30
0.0
 40
3.5
100
AcDbArc
 50
343.3984504009629
 51
16.60154959903711
  0
ARC
  5
7AFD
330
1F
100
AcDbEntity
  8
圖層4尺寸線
100
AcDbCircle
 10
1403.866545780365
 20
2151.674869639547
 30
0.0
 40
3.0
100
AcDbArc
 50
180.0
 51
270.0
  0
ARC
  5
7AFE
330
1F
100
AcDbEntity
  8
圖層4尺寸線
100
AcDbCircle
 10
1397.866545780365
 20
2155.476830612362
 30
0.0
 40
3.0
100
AcDbArc
 50
0.0
 51
42.83342806605722
  0
ARC
  5
7AFF
330
1F
100
AcDbEntity
  8
圖層4尺寸線
100
AcDbCircle
 10
1397.866545780365
 20
2155.476830612362
 30
0.0
 40
3.0
100
AcDbArc
 50
0.0
 51
42.83342806605722
  0
LINE
  5
7B00
330
1F
100
AcDbEntity
  8
圖層4尺寸線
100
AcDbLine
 10
1416.866545780365
 20
2155.476830612362
 30
0.0
 11
1416.866545780365
 21
2151.674869639547
 31
0.0
  0
ARC
  5
7B01
330
1F
100
AcDbEntity
  8
圖層4尺寸線
100
AcDbCircle
 10
1413.866545780365
 20
2151.674869639547
 30
0.0
 40
3.0
100
AcDbArc
 50
270.0
 51
0.0
  0
ARC
  5
7B02
330
1F
100
AcDbEntity
  8
圖層4尺寸線
100
AcDbCircle
 10
1419.866545780365
 20
2155.476830612362
 30
0.0
 40
3.0
100
AcDbArc
 50
137.1665719339427
 51
180.0
  0
ARC
  5
7B03
330
1F
100
AcDbEntity
  8
圖層4尺寸線
100
AcDbCircle
 10
1413.866545780365
 20
2179.674869639548
 30
0.0
 40
3.0
100
AcDbArc
 50
0.0
 51
90.0
  0
ARC
  5
7B04
330
1F
100
AcDbEntity
  8
圖層4尺寸線
100
AcDbCircle
 10
1403.866545780365
 20
2179.674869639548
 30
0.0
 40
3.0
100
AcDbArc
 50
90.0
 51
180.0
  0
TEXT
  5
7B05
330
1F
100
AcDbEntity
  8
圖層4尺寸線
100
AcDbText
 10
1404.831662059435
 20
2175.878358011641
 30
0.0
 40
4.0
  1
ON
  7
WIN
 72
     4
 11
1408.866545780365
 21
2177.674869639548
 31
0.0
100
AcDbText
  0
LINE
  5
7B06
330
1F
100
AcDbEntity
  8
圖層4尺寸線
100
AcDbLine
 10
1403.866545780365
 20
2182.674869639548
 30
0.0
 11
1413.866545780365
 21
2182.674869639548
 31
0.0
  0
ARC
  5
7B07
330
1F
100
AcDbEntity
  8
圖層4尺寸線
100
AcDbCircle
 10
1408.866545780365
 20
2165.674869639548
 30
0.0
 40
3.0
100
AcDbArc
 50
13.58740794753832
 51
166.4125920524616
  0
ARC
  5
7B08
330
1F
100
AcDbEntity
  8
圖層4尺寸線
100
AcDbCircle
 10
1397.866545780365
 20
2175.872908666733
 30
0.0
 40
3.0
100
AcDbArc
 50
317.1665719339428
 51
0.0
  0
LINE
  5
7B09
330
1F
100
AcDbEntity
  8
圖層4尺寸線
100
AcDbLine
 10
1400.866545780365
 20
2179.674869639548
 30
0.0
 11
1400.866545780365
 21
2175.872908666733
 31
0.0
  0
ARC
  5
7B0A
330
1F
100
AcDbEntity
  8
圖層4尺寸線
100
AcDbCircle
 10
1419.866545780365
 20
2175.872908666733
 30
0.0
 40
3.0
100
AcDbArc
 50
180.0
 51
222.8334280660572
  0
LINE
  5
7B0B
330
1F
100
AcDbEntity
  8
圖層4尺寸線
100
AcDbLine
 10
1416.866545780365
 20
2179.674869639548
 30
0.0
 11
1416.866545780365
 21
2175.872908666733
 31
0.0
  0
LINE
  5
7B0C
330
1F
100
AcDbEntity
  8
圖層4尺寸線
100
AcDbLine
 10
1426.593516195016
 20
2228.522434031104
 30
0.0
 11
1420.458739419819
 21
2218.369239110168
 31
0.0
  0
LWPOLYLINE
  5
7B0D
330
1F
100
AcDbEntity
  8
圖層4尺寸線
100
AcDbPolyline
 90
        4
 70
     1
 43
0.0
 10
1414.866545780365
 20
2206.674869639547
 10
1420.866545780365
 20
2206.674869639547
 10
1420.866545780365
 20
2212.674869639548
 10
1414.866545780365
 20
2212.674869639548
  0
CIRCLE
  5
7B0E
330
1F
100
AcDbEntity
  8
圖層4尺寸線
100
AcDbCircle
 10
1386.866545780365
 20
2324.674869639547
 30
0.0
 40
4.0
  0
LINE
  5
7B0F
330
1F
100
AcDbEntity
  8
圖層4尺寸線
100
AcDbLine
 10
1411.866545780365
 20
2293.674869639548
 30
0.0
 11
1411.866545780365
 21
2281.674869639548
 31
0.0
  0
LINE
  5
7B10
330
1F
100
AcDbEntity
  8
圖層4尺寸線
100
AcDbLine
 10
1405.866545780365
 20
2297.674869639548
 30
0.0
 11
1405.866545780365
 21
2272.674869639548
 31
0.0
  0
ARC
  5
7B11
330
1F
100
AcDbEntity
  8
圖層4尺寸線
100
AcDbCircle
 10
1386.866545780365
 20
2324.674869639547
 30
0.0
 40
2.0
100
AcDbArc
 50
60.00000000000272
 51
119.9999999999973
  0
ARC
  5
7B12
330
1F
100
AcDbEntity
  8
圖層4尺寸線
100
AcDbCircle
 10
1386.866545780365
 20
2324.674869639547
 30
0.0
 40
2.0
100
AcDbArc
 50
240.0000000000027
 51
299.9999999999973
  0
ARC
  5
7B13
330
1F
100
AcDbEntity
  8
圖層4尺寸線
100
AcDbCircle
 10
1386.866545780365
 20
2324.674869639547
 30
0.0
 40
3.5
100
AcDbArc
 50
163.3984504009629
 51
196.6015495990246
  0
LINE
  5
7B14
330
1F
100
AcDbEntity
  8
圖層4尺寸線
100
AcDbLine
 10
1385.866545780365
 20
2323.674869639548
 30
0.0
 11
1385.866545780365
 21
2322.942818831979
 31
0.0
  0
LINE
  5
7B15
330
1F
100
AcDbEntity
  8
圖層4尺寸線
100
AcDbLine
 10
1385.866545780365
 20
2323.674869639548
 30
0.0
 11
1383.512443814115
 21
2323.674869639548
 31
0.0
  0
LINE
  5
7B16
330
1F
100
AcDbEntity
  8
圖層4尺寸線
100
AcDbLine
 10
1385.866545780365
 20
2325.674869639548
 30
0.0
 11
1383.512443814115
 21
2325.674869639548
 31
0.0
  0
LINE
  5
7B17
330
1F
100
AcDbEntity
  8
圖層4尺寸線
100
AcDbLine
 10
1385.866545780365
 20
2326.406920447116
 30
0.0
 11
1385.866545780365
 21
2325.674869639548
 31
0.0
  0
ARC
  5
7B18
330
1F
100
AcDbEntity
  8
圖層4尺寸線
100
AcDbCircle
 10
1386.866545780365
 20
2324.674869639547
 30
0.0
 40
3.5
100
AcDbArc
 50
343.3984504009629
 51
16.60154959903711
  0
LINE
  5
7B19
330
1F
100
AcDbEntity
  8
圖層4尺寸線
100
AcDbLine
 10
1387.866545780365
 20
2323.674869639548
 30
0.0
 11
1387.866545780365
 21
2322.942818831979
 31
0.0
  0
LINE
  5
7B1A
330
1F
100
AcDbEntity
  8
圖層4尺寸線
100
AcDbLine
 10
1387.866545780365
 20
2326.406920447116
 30
0.0
 11
1387.866545780365
 21
2325.674869639548
 31
0.0
  0
LINE
  5
7B1B
330
1F
100
AcDbEntity
  8
圖層4尺寸線
100
AcDbLine
 10
1390.220647746615
 20
2323.674869639548
 30
0.0
 11
1387.866545780365
 21
2323.674869639548
 31
0.0
  0
LINE
  5
7B1C
330
1F
100
AcDbEntity
  8
圖層4尺寸線
100
AcDbLine
 10
1390.220647746615
 20
2325.674869639548
 30
0.0
 11
1387.866545780365
 21
2325.674869639548
 31
0.0
  0
LINE
  5
7B1D
330
1F
100
AcDbEntity
  8
圖層4尺寸線
100
AcDbLine
 10
1448.866545780365
 20
2204.674869639548
 30
0.0
 11
1448.866545780365
 21
2252.674869639548
 31
0.0
  0
LINE
  5
7B1E
330
1F
100
AcDbEntity
  8
圖層4尺寸線
100
AcDbLine
 10
1452.866545780365
 20
2200.674869639548
 30
0.0
 11
1452.866545780365
 21
2256.674869639548
 31
0.0
  0
LINE
  5
7B1F
330
1F
100
AcDbEntity
  8
圖層4尺寸線
100
AcDbLine
 10
1482.866545780365
 20
2135.674869639547
 30
0.0
 11
1482.866545780365
 21
2337.674869639548
 31
0.0
  0
LINE
  5
7B20
330
1F
100
AcDbEntity
  8
圖層4尺寸線
100
AcDbLine
 10
1452.866545780365
 20
2162.674869639548
 30
0.0
 11
1452.866545780365
 21
2168.674869639548
 31
0.0
  0
CIRCLE
  5
7B21
330
1F
100
AcDbEntity
  8
圖層4尺寸線
100
AcDbCircle
 10
1452.866545780365
 20
2165.674869639548
 30
0.0
 40
8.110805357093454
  0
CIRCLE
  5
7B22
330
1F
100
AcDbEntity
  8
圖層4尺寸線
100
AcDbCircle
 10
1452.866545780365
 20
2165.674869639548
 30
0.0
 40
7.0
  0
LINE
  5
7B23
330
1F
100
AcDbEntity
  8
圖層4尺寸線
100
AcDbLine
 10
1475.866545780365
 20
2147.674869639548
 30
0.0
 11
1478.220647746615
 21
2147.674869639548
 31
0.0
  0
LINE
  5
7B24
330
1F
100
AcDbEntity
  8
圖層4尺寸線
100
AcDbLine
 10
1475.866545780365
 20
2149.674869639548
 30
0.0
 11
1478.220647746615
 21
2149.674869639548
 31
0.0
  0
CIRCLE
  5
7B25
330
1F
100
AcDbEntity
  8
圖層4尺寸線
100
AcDbCircle
 10
1474.866545780365
 20
2148.674869639548
 30
0.0
 40
4.0
  0
LINE
  5
7B26
330
1F
100
AcDbEntity
  8
圖層4尺寸線
100
AcDbLine
 10
1475.866545780365
 20
2146.942818831979
 30
0.0
 11
1475.866545780365
 21
2147.674869639548
 31
0.0
  0
LINE
  5
7B27
330
1F
100
AcDbEntity
  8
圖層4尺寸線
100
AcDbLine
 10
1475.866545780365
 20
2149.674869639548
 30
0.0
 11
1475.866545780365
 21
2150.406920447116
 31
0.0
  0
ARC
  5
7B28
330
1F
100
AcDbEntity
  8
圖層4尺寸線
100
AcDbCircle
 10
1474.866545780365
 20
2148.674869639548
 30
0.0
 40
3.5
100
AcDbArc
 50
163.3984504009629
 51
196.6015495990371
  0
LINE
  5
7B29
330
1F
100
AcDbEntity
  8
圖層4尺寸線
100
AcDbLine
 10
1471.512443814116
 20
2149.674869639548
 30
0.0
 11
1473.866545780365
 21
2149.674869639548
 31
0.0
  0
LINE
  5
7B2A
330
1F
100
AcDbEntity
  8
圖層4尺寸線
100
AcDbLine
 10
1471.512443814116
 20
2147.674869639548
 30
0.0
 11
1473.866545780365
 21
2147.674869639548
 31
0.0
  0
LINE
  5
7B2B
330
1F
100
AcDbEntity
  8
圖層4尺寸線
100
AcDbLine
 10
1473.866545780365
 20
2146.942818831979
 30
0.0
 11
1473.866545780365
 21
2147.674869639548
 31
0.0
  0
LINE
  5
7B2C
330
1F
100
AcDbEntity
  8
圖層4尺寸線
100
AcDbLine
 10
1473.866545780365
 20
2149.674869639548
 30
0.0
 11
1473.866545780365
 21
2150.406920447116
 31
0.0
  0
ARC
  5
7B2D
330
1F
100
AcDbEntity
  8
圖層4尺寸線
100
AcDbCircle
 10
1474.866545780365
 20
2148.674869639548
 30
0.0
 40
2.0
100
AcDbArc
 50
60.00000000000272
 51
119.9999999999973
  0
ARC
  5
7B2E
330
1F
100
AcDbEntity
  8
圖層4尺寸線
100
AcDbCircle
 10
1474.866545780365
 20
2148.674869639548
 30
0.0
 40
2.0
100
AcDbArc
 50
240.0000000000027
 51
299.9999999999973
  0
ARC
  5
7B2F
330
1F
100
AcDbEntity
  8
圖層4尺寸線
100
AcDbCircle
 10
1474.866545780365
 20
2148.674869639548
 30
0.0
 40
3.5
100
AcDbArc
 50
343.3984504009629
 51
16.60154959902463
  0
LINE
  5
7B30
330
1F
100
AcDbEntity
  8
圖層4尺寸線
100
AcDbLine
 10
1449.866545780365
 20
2165.674869639548
 30
0.0
 11
1455.866545780365
 21
2165.674869639548
 31
0.0
  0
LWPOLYLINE
  5
7B31
330
1F
100
AcDbEntity
  8
圖層4尺寸線
100
AcDbPolyline
 90
        4
 70
     1
 43
0.0
 10
1440.866545780365
 20
2206.674869639547
 10
1446.866545780365
 20
2206.674869639547
 10
1446.866545780365
 20
2212.674869639548
 10
1440.866545780365
 20
2212.674869639548
  0
CIRCLE
  5
7B32
330
1F
100
AcDbEntity
  8
圖層4尺寸線
100
AcDbCircle
 10
1474.866545780365
 20
2324.674869639547
 30
0.0
 40
4.0
  0
LINE
  5
7B33
330
1F
100
AcDbEntity
  8
圖層4尺寸線
100
AcDbLine
 10
1449.866545780365
 20
2281.674869639548
 30
0.0
 11
1449.866545780365
 21
2293.674869639548
 31
0.0
  0
LINE
  5
7B34
330
1F
100
AcDbEntity
  8
圖層4尺寸線
100
AcDbLine
 10
1455.866545780365
 20
2272.674869639548
 30
0.0
 11
1455.866545780365
 21
2297.674869639548
 31
0.0
  0
LINE
  5
7B35
330
1F
100
AcDbEntity
  8
圖層4尺寸線
100
AcDbLine
 10
1443.897360189345
 20
2275.890626162385
 30
0.0
 11
1452.190860479139
 21
2275.890626162385
 31
0.0
  0
LINE
  5
7B36
330
1F
100
AcDbEntity
  8
圖層4尺寸線
100
AcDbLine
 10
1443.897360189345
 20
2277.890626162385
 30
0.0
 11
1452.190860479139
 21
2277.890626162385
 31
0.0
  0
LINE
  5
7B37
330
1F
100
AcDbEntity
  8
圖層4尺寸線
100
AcDbLine
 10
1454.272523287098
 20
2273.674869639548
 30
0.0
 11
1441.611038314597
 21
2273.674869639548
 31
0.0
  0
LINE
  5
7B38
330
1F
100
AcDbEntity
  8
圖層4尺寸線
100
AcDbLine
 10
1441.611038314597
 20
2280.106382685223
 30
0.0
 11
1454.272523287098
 21
2280.106382685223
 31
0.0
  0
LINE
  5
7B39
330
1F
100
AcDbEntity
  8
圖層4尺寸線
100
AcDbLine
 10
1445.047642137138
 20
2275.366438326382
 30
0.0
 11
1445.047642137138
 21
2274.366438326381
 31
0.0
  0
ARC
  5
7B3A
330
1F
100
AcDbEntity
  8
圖層4尺寸線
100
AcDbCircle
 10
1445.047642137138
 20
2276.890626162385
 30
0.0
 40
1.52418783600342
100
AcDbArc
 50
90.0
 51
270.0
  0
ARC
  5
7B3B
330
1F
100
AcDbEntity
  8
圖層4尺寸線
100
AcDbCircle
 10
1445.047642137138
 20
2276.890626162385
 30
0.0
 40
2.52418783600342
100
AcDbArc
 50
90.0
 51
270.0
  0
LINE
  5
7B3C
330
1F
100
AcDbEntity
  8
圖層4尺寸線
100
AcDbLine
 10
1445.047642137138
 20
2279.414813998389
 30
0.0
 11
1445.047642137138
 21
2278.414813998389
 31
0.0
  0
LINE
  5
7B3D
330
1F
100
AcDbEntity
  8
圖層4尺寸線
100
AcDbLine
 10
1441.611038314599
 20
2273.674869639548
 30
0.0
 11
1441.611038314597
 21
2280.106382685223
 31
0.0
  0
LINE
  5
7B3E
330
1F
100
AcDbEntity
  8
圖層4尺寸線
100
AcDbLine
 10
1451.040578531345
 20
2275.366438326382
 30
0.0
 11
1451.040578531345
 21
2274.366438326381
 31
0.0
  0
ARC
  5
7B3F
330
1F
100
AcDbEntity
  8
圖層4尺寸線
100
AcDbCircle
 10
1451.040578531345
 20
2276.890626162385
 30
0.0
 40
1.52418783600342
100
AcDbArc
 50
270.0
 51
90.0
  0
ARC
  5
7B40
330
1F
100
AcDbEntity
  8
圖層4尺寸線
100
AcDbCircle
 10
1451.040578531345
 20
2276.890626162385
 30
0.0
 40
2.52418783600342
100
AcDbArc
 50
270.0
 51
90.0
  0
LINE
  5
7B41
330
1F
100
AcDbEntity
  8
圖層4尺寸線
100
AcDbLine
 10
1451.040578531345
 20
2279.414813998389
 30
0.0
 11
1451.040578531345
 21
2278.414813998389
 31
0.0
  0
LINE
  5
7B42
330
1F
100
AcDbEntity
  8
圖層4尺寸線
100
AcDbLine
 10
1454.272523287098
 20
2280.106382685223
 30
0.0
 11
1454.272523287098
 21
2273.674869639548
 31
0.0
  0
LINE
  5
7B43
330
1F
100
AcDbEntity
  8
圖層4尺寸線
100
AcDbLine
 10
1430.866545780365
 20
2314.674869639548
 30
0.0
 11
1430.866545780365
 21
2320.674869639548
 31
0.0
  0
LINE
  5
7B44
330
1F
100
AcDbEntity
  8
圖層4尺寸線
100
AcDbLine
 10
1427.866545780365
 20
2317.674869639548
 30
0.0
 11
1433.866545780365
 21
2317.674869639548
 31
0.0
  0
CIRCLE
  5
7B45
330
1F
100
AcDbEntity
  8
圖層4尺寸線
100
AcDbCircle
 10
1430.866545780365
 20
2317.674869639548
 30
0.0
 40
3.0
  0
LINE
  5
7B46
330
1F
100
AcDbEntity
  8
圖層4尺寸線
100
AcDbLine
 10
1475.866545780365
 20
2323.674869639548
 30
0.0
 11
1478.220647746615
 21
2323.674869639548
 31
0.0
  0
LINE
  5
7B47
330
1F
100
AcDbEntity
  8
圖層4尺寸線
100
AcDbLine
 10
1475.866545780365
 20
2325.674869639548
 30
0.0
 11
1478.220647746615
 21
2325.674869639548
 31
0.0
  0
LINE
  5
7B48
330
1F
100
AcDbEntity
  8
圖層4尺寸線
100
AcDbLine
 10
1473.866545780365
 20
2323.674869639548
 30
0.0
 11
1473.866545780365
 21
2322.942818831979
 31
0.0
  0
LINE
  5
7B49
330
1F
100
AcDbEntity
  8
圖層4尺寸線
100
AcDbLine
 10
1473.866545780365
 20
2326.406920447116
 30
0.0
 11
1473.866545780365
 21
2325.674869639548
 31
0.0
  0
LINE
  5
7B4A
330
1F
100
AcDbEntity
  8
圖層4尺寸線
100
AcDbLine
 10
1471.512443814116
 20
2325.674869639548
 30
0.0
 11
1473.866545780365
 21
2325.674869639548
 31
0.0
  0
LINE
  5
7B4B
330
1F
100
AcDbEntity
  8
圖層4尺寸線
100
AcDbLine
 10
1471.512443814116
 20
2323.674869639548
 30
0.0
 11
1473.866545780365
 21
2323.674869639548
 31
0.0
  0
ARC
  5
7B4C
330
1F
100
AcDbEntity
  8
圖層4尺寸線
100
AcDbCircle
 10
1474.866545780365
 20
2324.674869639547
 30
0.0
 40
3.5
100
AcDbArc
 50
163.3984504009629
 51
196.6015495990371
  0
LINE
  5
7B4D
330
1F
100
AcDbEntity
  8
圖層4尺寸線
100
AcDbLine
 10
1475.866545780365
 20
2323.674869639548
 30
0.0
 11
1475.866545780365
 21
2322.942818831979
 31
0.0
  0
LINE
  5
7B4E
330
1F
100
AcDbEntity
  8
圖層4尺寸線
100
AcDbLine
 10
1475.866545780365
 20
2326.406920447116
 30
0.0
 11
1475.866545780365
 21
2325.674869639548
 31
0.0
  0
ARC
  5
7B4F
330
1F
100
AcDbEntity
  8
圖層4尺寸線
100
AcDbCircle
 10
1474.866545780365
 20
2324.674869639547
 30
0.0
 40
2.0
100
AcDbArc
 50
60.00000000000272
 51
119.9999999999973
  0
ARC
  5
7B50
330
1F
100
AcDbEntity
  8
圖層4尺寸線
100
AcDbCircle
 10
1474.866545780365
 20
2324.674869639547
 30
0.0
 40
2.0
100
AcDbArc
 50
240.0000000000027
 51
299.9999999999973
  0
ARC
  5
7B51
330
1F
100
AcDbEntity
  8
圖層4尺寸線
100
AcDbCircle
 10
1474.866545780365
 20
2324.674869639547
 30
0.0
 40
3.5
100
AcDbArc
 50
343.3984504009754
 51
16.60154959903711
  0
LINE
  5
7B52
330
1F
100
AcDbEntity
  8
圖層4尺寸線
100
AcDbLine
 10
1475.366545780365
 20
1652.674869639548
 30
0.0
 11
1490.366545780365
 21
1652.674869639548
 31
0.0
  0
LINE
  5
7B53
330
1F
100
AcDbEntity
  8
圖層4尺寸線
100
AcDbLine
 10
1418.366545780365
 20
1637.674869639548
 30
0.0
 11
1490.366545780365
 21
1637.674869639548
 31
0.0
  0
LINE
  5
7B54
330
1F
100
AcDbEntity
  8
圖層4尺寸線
100
AcDbLine
 10
1490.366545780365
 20
1701.674869639548
 30
0.0
 11
1418.366545780365
 21
1701.674869639548
 31
0.0
  0
LINE
  5
7B55
330
1F
100
AcDbEntity
  8
圖層4尺寸線
100
AcDbLine
 10
1412.366545780365
 20
1635.674869639548
 30
0.0
 11
1490.366545780365
 21
1635.674869639548
 31
0.0
  0
LINE
  5
7B56
330
1F
100
AcDbEntity
  8
圖層4尺寸線
100
AcDbLine
 10
1490.366545780365
 20
1637.674869639548
 30
0.0
 11
1416.366545780365
 21
1637.674869639548
 31
0.0
  0
LINE
  5
7B57
330
1F
100
AcDbEntity
  8
圖層4尺寸線
100
AcDbLine
 10
1475.366545780365
 20
1652.674869639548
 30
0.0
 11
1475.366545780365
 21
1667.674869639548
 31
0.0
  0
LINE
  5
7B58
330
1F
100
AcDbEntity
  8
圖層4尺寸線
100
AcDbLine
 10
1433.366545780365
 20
1667.674869639548
 30
0.0
 11
1433.366545780365
 21
1652.674869639548
 31
0.0
  0
LINE
  5
7B59
330
1F
100
AcDbEntity
  8
圖層4尺寸線
100
AcDbLine
 10
1418.366545780365
 20
1701.674869639548
 30
0.0
 11
1418.366545780365
 21
1637.674869639548
 31
0.0
  0
LINE
  5
7B5A
330
1F
100
AcDbEntity
  8
圖層4尺寸線
100
AcDbLine
 10
1412.366545780365
 20
1707.674869639548
 30
0.0
 11
1412.366545780365
 21
1635.674869639548
 31
0.0
  0
LINE
  5
7B5B
330
1F
100
AcDbEntity
  8
圖層4尺寸線
100
AcDbLine
 10
1414.366545780365
 20
1639.674869639548
 30
0.0
 11
1414.366545780365
 21
1707.674869639548
 31
0.0
  0
ARC
  5
7B5C
330
1F
100
AcDbEntity
  8
圖層4尺寸線
100
AcDbCircle
 10
1414.366545780365
 20
1637.674869639548
 30
0.0
 40
2.0
100
AcDbArc
 50
180.0
 51
270.0
  0
CIRCLE
  5
7B5D
330
1F
100
AcDbEntity
  8
圖層4尺寸線
100
AcDbCircle
 10
1454.366545780365
 20
1652.674869639548
 30
0.0
 40
12.0
  0
CIRCLE
  5
7B5E
330
1F
100
AcDbEntity
  8
圖層4尺寸線
100
AcDbCircle
 10
1454.366545780365
 20
1652.674869639548
 30
0.0
 40
9.0
  0
ARC
  5
7B5F
330
1F
100
AcDbEntity
  8
圖層4尺寸線
100
AcDbCircle
 10
1416.366545780365
 20
1639.674869639548
 30
0.0
 40
2.0
100
AcDbArc
 50
180.0
 51
270.0
  0
LINE
  5
7B60
330
1F
100
AcDbEntity
  8
圖層4尺寸線
100
AcDbLine
 10
1418.366545780365
 20
1652.674869639548
 30
0.0
 11
1433.366545780365
 21
1652.674869639548
 31
0.0
  0
LINE
  5
7B61
330
1F
100
AcDbEntity
  8
圖層4尺寸線
100
AcDbLine
 10
1414.366545780365
 20
1707.674869639548
 30
0.0
 11
1412.366545780365
 21
1707.674869639548
 31
0.0
  0
LINE
  5
7B62
330
1F
100
AcDbEntity
  8
圖層4尺寸線
100
AcDbLine
 10
1468.366545780365
 20
1716.674869639548
 30
0.0
 11
1468.366545780365
 21
1701.674869639548
 31
0.0
  0
LINE
  5
7B63
330
1F
100
AcDbEntity
  8
圖層4尺寸線
100
AcDbLine
 10
1440.366545780365
 20
1716.674869639548
 30
0.0
 11
1440.366545780365
 21
1701.674869639548
 31
0.0
  0
LINE
  5
7B64
330
1F
100
AcDbEntity
  8
圖層4尺寸線
100
AcDbLine
 10
1433.366545780365
 20
1667.674869639548
 30
0.0
 11
1475.366545780365
 21
1667.674869639548
 31
0.0
  0
HATCH
  5
7B65
330
1F
100
AcDbEntity
  8
圖層4尺寸線
100
AcDbHatch
 10
0.0
 20
0.0
 30
0.0
210
0.0
220
0.0
230
1.0
  2
LINE
 70
     0
 71
     0
 91
        1
 92
        7
 72
     0
 73
     1
 93
        4
 10
1468.366545780365
 20
1711.174869639548
 10
1440.366545780365
 20
1711.174869639548
 10
1440.366545780365
 20
1704.044780359867
 10
1468.366545780365
 20
1704.044780359867
 97
        0
 75
     0
 76
     1
 52
90.0
 41
1.0
 77
     0
 78
     1
 53
90.0
 43
328.2025079320701
 44
1112.733768209291
 45
-3.174999999999999
 46
0.0000000000000002
 79
     0
 47
0.1347766415641304
 98
        1
 10
1454.05852210728
 20
1707.978033684025
  0
LINE
  5
7B66
330
1F
100
AcDbEntity
  8
圖層4尺寸線
100
AcDbLine
 10
1440.366545780365
 20
1711.174869639548
 30
0.0
 11
1468.366545780365
 21
1711.174869639548
 31
0.0
  0
LINE
  5
7B67
330
1F
100
AcDbEntity
  8
圖層4尺寸線
100
AcDbLine
 10
1440.366545780365
 20
1704.044780359867
 30
0.0
 11
1468.366545780365
 21
1704.044780359867
 31
0.0
  0
LINE
  5
7B68
330
1F
100
AcDbEntity
  8
圖層4尺寸線
100
AcDbLine
 10
1468.366545780365
 20
1716.674869639548
 30
0.0
 11
1440.366545780365
 21
1716.674869639548
 31
0.0
  0
ARC
  5
7B69
330
1F
100
AcDbEntity
  8
圖層4尺寸線
100
AcDbCircle
 10
1454.366545780365
 20
1679.674869639548
 30
0.0
 40
52.00000000000005
100
AcDbArc
 50
67.38013505196659
 51
112.6198649480334
  0
LINE
  5
7B6A
330
1F
100
AcDbEntity
  8
圖層4尺寸線
100
AcDbLine
 10
1474.366545780365
 20
1727.674869639548
 30
0.0
 11
1434.366545780365
 21
1727.674869639548
 31
0.0
  0
LINE
  5
7B6B
330
1F
100
AcDbEntity
  8
圖層4尺寸線
100
AcDbLine
 10
1474.366545780365
 20
1725.674869639548
 30
0.0
 11
1434.366545780365
 21
1725.674869639548
 31
0.0
  0
LINE
  5
7B6C
330
1F
100
AcDbEntity
  8
圖層4尺寸線
100
AcDbLine
 10
1443.366545780365
 20
1725.674869639548
 30
0.0
 11
1443.366545780365
 21
1716.674869639548
 31
0.0
  0
LINE
  5
7B6D
330
1F
100
AcDbEntity
  8
圖層4尺寸線
100
AcDbLine
 10
1443.366545780365
 20
1716.674869639548
 30
0.0
 11
1440.366545780365
 21
1716.674869639548
 31
0.0
  0
LINE
  5
7B6E
330
1F
100
AcDbEntity
  8
圖層4尺寸線
100
AcDbLine
 10
1434.366545780365
 20
1725.674869639548
 30
0.0
 11
1443.366545780365
 21
1725.674869639548
 31
0.0
  0
LINE
  5
7B6F
330
1F
100
AcDbEntity
  8
圖層4尺寸線
100
AcDbLine
 10
1434.366545780365
 20
1727.674869639548
 30
0.0
 11
1434.366545780365
 21
1725.674869639548
 31
0.0
  0
LINE
  5
7B70
330
1F
100
AcDbEntity
  8
圖層4尺寸線
100
AcDbLine
 10
1474.366545780365
 20
1727.674869639548
 30
0.0
 11
1474.366545780365
 21
1725.674869639548
 31
0.0
  0
LINE
  5
7B71
330
1F
100
AcDbEntity
  8
圖層4尺寸線
100
AcDbLine
 10
1465.366545780365
 20
1725.674869639548
 30
0.0
 11
1465.366545780365
 21
1716.674869639548
 31
0.0
  0
LINE
  5
7B72
330
1F
100
AcDbEntity
  8
圖層4尺寸線
100
AcDbLine
 10
1468.366545780365
 20
1716.674869639548
 30
0.0
 11
1465.366545780365
 21
1716.674869639548
 31
0.0
  0
LINE
  5
7B73
330
1F
100
AcDbEntity
  8
圖層4尺寸線
100
AcDbLine
 10
1474.366545780365
 20
1725.674869639548
 30
0.0
 11
1465.366545780365
 21
1725.674869639548
 31
0.0
  0
LINE
  5
7B74
330
1F
100
AcDbEntity
  8
圖層4尺寸線
100
AcDbLine
 10
1490.366545780365
 20
1637.674869639548
 30
0.0
 11
1490.366545780365
 21
1701.674869639548
 31
0.0
  0
LINE
  5
7B75
330
1F
100
AcDbEntity
  8
圖層4尺寸線
100
AcDbLine
 10
1490.366545780365
 20
1635.674869639548
 30
0.0
 11
1490.366545780365
 21
1637.674869639548
 31
0.0
  0
LINE
  5
7B76
330
1F
100
AcDbEntity
  8
圖層1輪廓線
100
AcDbLine
 10
1854.201534595717
 20
2539.674866843549
 30
0.0
 11
1854.201534595717
 21
2497.674867306549
 31
0.0
  0
LINE
  5
7B77
330
1F
100
AcDbEntity
  8
圖層1輪廓線
100
AcDbLine
 10
2080.201532109717
 20
2539.674866843549
 30
0.0
 11
2080.201532109717
 21
2497.674867306549
 31
0.0
  0
LINE
  5
7B78
330
1F
100
AcDbEntity
  8
圖層1輪廓線
100
AcDbLine
 10
1862.201534507718
 20
2327.674869176548
 30
0.0
 11
1862.201534507718
 21
2497.674867306548
 31
0.0
  0
LINE
  5
7B79
330
1F
100
AcDbEntity
  8
圖層1輪廓線
100
AcDbLine
 10
2072.201532197716
 20
2327.674869176548
 30
0.0
 11
2072.201532197716
 21
2497.674867306548
 31
0.0
  0
LINE
  5
7B7A
330
1F
100
AcDbEntity
  8
圖層1輪廓線
100
AcDbLine
 10
2068.201532241717
 20
2327.674869176548
 30
0.0
 11
2068.201532241717
 21
2497.674867306548
 31
0.0
  0
LINE
  5
7B7B
330
1F
100
AcDbEntity
  8
圖層1輪廓線
100
AcDbLine
 10
2048.201532461717
 20
2327.674869176548
 30
0.0
 11
2048.201532461717
 21
2497.674867306548
 31
0.0
  0
LINE
  5
7B7C
330
1F
100
AcDbEntity
  8
圖層1輪廓線
100
AcDbLine
 10
1886.201534243717
 20
2327.674869176548
 30
0.0
 11
1886.201534243717
 21
2497.674867306548
 31
0.0
  0
LINE
  5
7B7D
330
1F
100
AcDbEntity
  8
圖層1輪廓線
100
AcDbLine
 10
1866.201534463718
 20
2327.674869176548
 30
0.0
 11
1866.201534463718
 21
2497.674867306548
 31
0.0
  0
LINE
  5
7B7E
330
1F
100
AcDbEntity
  8
圖層1輪廓線
100
AcDbLine
 10
1854.201534595717
 20
2327.674869176548
 30
0.0
 11
2080.201532109717
 21
2327.674869176548
 31
0.0
  0
LINE
  5
7B7F
330
1F
100
AcDbEntity
  8
圖層4尺寸線
100
AcDbLine
 10
1854.201534595717
 20
2285.674869639548
 30
0.0
 11
2080.201532109717
 21
2285.674869639548
 31
0.0
  0
LINE
  5
7B80
330
1F
100
AcDbEntity
  8
圖層1輪廓線
100
AcDbLine
 10
2005.201532934718
 20
2302.674869451548
 30
0.0
 11
2080.201532109717
 21
2302.674869451548
 31
0.0
  0
LINE
  5
7B81
330
1F
100
AcDbEntity
  8
圖層1輪廓線
100
AcDbLine
 10
1854.201534595717
 20
2302.674869451548
 30
0.0
 11
1929.201533770716
 21
2302.674869451548
 31
0.0
  0
LINE
  5
7B82
330
1F
100
AcDbEntity
  8
圖層1輪廓線
100
AcDbLine
 10
1854.201534595717
 20
2285.674869639548
 30
0.0
 11
1854.201534595717
 21
2327.674869176548
 31
0.0
  0
LINE
  5
7B83
330
1F
100
AcDbEntity
  8
圖層1輪廓線
100
AcDbLine
 10
1917.201533902716
 20
2285.674869639548
 30
0.0
 11
1917.201533902716
 21
2302.674869451548
 31
0.0
  0
LINE
  5
7B84
330
1F
100
AcDbEntity
  8
圖層1輪廓線
100
AcDbLine
 10
2017.201532802717
 20
2285.674869639548
 30
0.0
 11
2017.201532802717
 21
2302.674869451548
 31
0.0
  0
LINE
  5
7B85
330
1F
100
AcDbEntity
  8
圖層1輪廓線
100
AcDbLine
 10
2080.201532109717
 20
2285.674869639548
 30
0.0
 11
2080.201532109717
 21
2327.674869176548
 31
0.0
  0
LINE
  5
7B86
330
1F
100
AcDbEntity
  8
圖層1輪廓線
100
AcDbLine
 10
1854.201534595717
 20
2497.674867306548
 30
0.0
 11
2080.201532109717
 21
2497.674867306548
 31
0.0
  0
LINE
  5
7B87
330
1F
100
AcDbEntity
  8
圖層1輪廓線
100
AcDbLine
 10
2072.201532197716
 20
2539.674866843549
 30
0.0
 11
2072.201532197716
 21
2709.674864973548
 31
0.0
  0
LINE
  5
7B88
330
1F
100
AcDbEntity
  8
圖層1輪廓線
100
AcDbLine
 10
1862.201534507718
 20
2539.674866843549
 30
0.0
 11
1862.201534507718
 21
2709.674864973548
 31
0.0
  0
LINE
  5
7B89
330
1F
100
AcDbEntity
  8
圖層1輪廓線
100
AcDbLine
 10
2068.201532241717
 20
2539.674866843549
 30
0.0
 11
2068.201532241717
 21
2709.674864973548
 31
0.0
  0
LINE
  5
7B8A
330
1F
100
AcDbEntity
  8
圖層1輪廓線
100
AcDbLine
 10
2048.201532461717
 20
2539.674866843549
 30
0.0
 11
2048.201532461717
 21
2709.674864973548
 31
0.0
  0
LINE
  5
7B8B
330
1F
100
AcDbEntity
  8
圖層1輪廓線
100
AcDbLine
 10
1886.201534243717
 20
2539.674866843549
 30
0.0
 11
1886.201534243717
 21
2709.674864973548
 31
0.0
  0
LINE
  5
7B8C
330
1F
100
AcDbEntity
  8
圖層1輪廓線
100
AcDbLine
 10
1866.201534463718
 20
2539.674866843549
 30
0.0
 11
1866.201534463718
 21
2709.674864973548
 31
0.0
  0
LINE
  5
7B8D
330
1F
100
AcDbEntity
  8
圖層1輪廓線
100
AcDbLine
 10
1854.201534595717
 20
2539.674866843549
 30
0.0
 11
2080.201532109717
 21
2539.674866843549
 31
0.0
  0
LINE
  5
7B8E
330
1F
100
AcDbEntity
  8
圖層1輪廓線
100
AcDbLine
 10
1886.201534243717
 20
2751.674864510548
 30
0.0
 11
2048.201532461717
 21
2751.674864510548
 31
0.0
  0
LINE
  5
7B8F
330
1F
100
AcDbEntity
  8
圖層1輪廓線
100
AcDbLine
 10
1854.201534595717
 20
2709.674864973548
 30
0.0
 11
2080.201532109717
 21
2709.674864973548
 31
0.0
  0
LINE
  5
7B90
330
1F
100
AcDbEntity
  8
圖層1輪廓線
100
AcDbLine
 10
2005.201532934718
 20
2734.674864698549
 30
0.0
 11
2080.201532109717
 21
2734.674864698549
 31
0.0
  0
LINE
  5
7B91
330
1F
100
AcDbEntity
  8
圖層1輪廓線
100
AcDbLine
 10
1854.201534595717
 20
2751.674864510548
 30
0.0
 11
1854.201534595717
 21
2709.674864973549
 31
0.0
  0
LINE
  5
7B92
330
1F
100
AcDbEntity
  8
圖層1輪廓線
100
AcDbLine
 10
1854.201534595717
 20
2734.674864698549
 30
0.0
 11
1929.201533770716
 21
2734.674864698549
 31
0.0
  0
LINE
  5
7B93
330
1F
100
AcDbEntity
  8
圖層1輪廓線
100
AcDbLine
 10
1885.451534251966
 20
2769.224864318499
 30
0.0
 11
1885.451534251966
 21
2750.174864528049
 31
0.0
  0
LINE
  5
7B94
330
1F
100
AcDbEntity
  8
圖層1輪廓線
100
AcDbLine
 10
1886.201534243717
 20
2768.474864326749
 30
0.0
 11
1886.201534243717
 21
2750.174864528049
 31
0.0
  0
LINE
  5
7B95
330
1F
100
AcDbEntity
  8
圖層1輪廓線
100
AcDbLine
 10
1866.201534463718
 20
2768.474864326749
 30
0.0
 11
1866.201534463718
 21
2750.174864528049
 31
0.0
  0
LINE
  5
7B96
330
1F
100
AcDbEntity
  8
圖層1輪廓線
100
AcDbLine
 10
1866.951534455467
 20
2769.224864318499
 30
0.0
 11
1866.951534455467
 21
2750.174864528049
 31
0.0
  0
LINE
  5
7B97
330
1F
100
AcDbEntity
  8
圖層1輪廓線
100
AcDbLine
 10
1858.881026468554
 20
2738.174864660048
 30
0.0
 11
1893.522042238881
 21
2738.174864660048
 31
0.0
  0
ARC
  5
7B98
330
1F
100
AcDbEntity
  8
圖層1輪廓線
100
AcDbCircle
 10
1863.211153439845
 20
2745.842332820976
 30
0.0
 40
7.667468160927581
100
AcDbArc
 50
235.6157525319253
 51
304.3842474680746
  0
LINE
  5
7B99
330
1F
100
AcDbEntity
  8
圖層1輪廓線
100
AcDbLine
 10
1861.201534518717
 20
2738.174864660048
 30
0.0
 11
1858.881026468554
 21
2739.514610607467
 31
0.0
  0
LINE
  5
7B9A
330
1F
100
AcDbEntity
  8
圖層1輪廓線
100
AcDbLine
 10
1854.201534595717
 20
2751.674864510548
 30
0.0
 11
1866.201534463718
 21
2751.674864510548
 31
0.0
  0
ARC
  5
7B9B
330
1F
100
AcDbEntity
  8
圖層1輪廓線
100
AcDbCircle
 10
1863.211153439845
 20
2742.507396367122
 30
0.0
 40
7.667468160927581
100
AcDbArc
 50
55.61575253192536
 51
124.3842474680746
  0
LINE
  5
7B9C
330
1F
100
AcDbEntity
  8
圖層1輪廓線
100
AcDbLine
 10
1861.201534518717
 20
2750.174864528049
 30
0.0
 11
1858.881026468554
 21
2748.835118580629
 31
0.0
  0
LINE
  5
7B9D
330
1F
100
AcDbEntity
  8
圖層1輪廓線
100
AcDbLine
 10
1858.881026468554
 20
2748.835118580629
 30
0.0
 11
1858.881026468554
 21
2739.514610607467
 31
0.0
  0
LINE
  5
7B9E
330
1F
100
AcDbEntity
  8
圖層1輪廓線
100
AcDbLine
 10
1858.881026468554
 20
2738.174864660048
 30
0.0
 11
1858.881026468554
 21
2734.674864698549
 31
0.0
  0
LINE
  5
7B9F
330
1F
100
AcDbEntity
  8
圖層1輪廓線
100
AcDbLine
 10
1884.861788296299
 20
2748.835118580629
 30
0.0
 11
1884.861788296299
 21
2739.514610607467
 31
0.0
  0
LINE
  5
7BA0
330
1F
100
AcDbEntity
  8
圖層1輪廓線
100
AcDbLine
 10
1867.541280411137
 20
2748.835118580629
 30
0.0
 11
1867.541280411137
 21
2739.514610607467
 31
0.0
  0
LINE
  5
7BA1
330
1F
100
AcDbEntity
  8
圖層1輪廓線
100
AcDbLine
 10
1893.522042238881
 20
2748.835118580629
 30
0.0
 11
1893.522042238881
 21
2739.514610607467
 31
0.0
  0
ARC
  5
7BA2
330
1F
100
AcDbEntity
  8
圖層1輪廓線
100
AcDbCircle
 10
1889.191915267589
 20
2745.842332820976
 30
0.0
 40
7.667468160927581
100
AcDbArc
 50
235.6157525319253
 51
304.3842474680746
  0
ARC
  5
7BA3
330
1F
100
AcDbEntity
  8
圖層1輪廓線
100
AcDbCircle
 10
1876.201534353717
 20
2766.835118382629
 30
0.0
 40
28.66025372258072
100
AcDbArc
 50
252.4120462260324
 51
287.5879537739676
  0
LINE
  5
7BA4
330
1F
100
AcDbEntity
  8
圖層1輪廓線
100
AcDbLine
 10
1882.14883589535
 20
2738.174864660048
 30
0.0
 11
1883.982921929291
 21
2734.674864698549
 31
0.0
  0
LINE
  5
7BA5
330
1F
100
AcDbEntity
  8
圖層1輪廓線
100
AcDbLine
 10
1880.396326001533
 20
2738.174864660048
 30
0.0
 11
1882.230412035478
 21
2734.674864698549
 31
0.0
  0
LINE
  5
7BA6
330
1F
100
AcDbEntity
  8
圖層1輪廓線
100
AcDbLine
 10
1891.201534188716
 20
2738.174864660048
 30
0.0
 11
1893.522042238881
 21
2739.514610607467
 31
0.0
  0
LINE
  5
7BA7
330
1F
100
AcDbEntity
  8
圖層1輪廓線
100
AcDbLine
 10
1893.522042238881
 20
2738.174864660048
 30
0.0
 11
1893.522042238881
 21
2734.674864698549
 31
0.0
  0
ARC
  5
7BA8
330
1F
100
AcDbEntity
  8
圖層1輪廓線
100
AcDbCircle
 10
1889.191915267589
 20
2742.507396367122
 30
0.0
 40
7.667468160927581
100
AcDbArc
 50
55.61575253192536
 51
124.3842474680746
  0
LINE
  5
7BA9
330
1F
100
AcDbEntity
  8
圖層1輪廓線
100
AcDbLine
 10
1861.201534518717
 20
2750.174864528049
 30
0.0
 11
1891.201534188716
 21
2750.174864528049
 31
0.0
  0
ARC
  5
7BAA
330
1F
100
AcDbEntity
  8
圖層1輪廓線
100
AcDbCircle
 10
1876.201534353717
 20
2721.514610805468
 30
0.0
 40
28.66025372258072
100
AcDbArc
 50
72.4120462260324
 51
107.5879537739676
  0
LINE
  5
7BAB
330
1F
100
AcDbEntity
  8
圖層1輪廓線
100
AcDbLine
 10
1891.201534188716
 20
2750.174864528049
 30
0.0
 11
1893.522042238881
 21
2748.835118580629
 31
0.0
  0
LINE
  5
7BAC
330
1F
100
AcDbEntity
  8
圖層1輪廓線
100
AcDbLine
 10
1866.201534463718
 20
2768.474864326749
 30
0.0
 11
1886.201534243717
 21
2768.474864326749
 31
0.0
  0
LINE
  5
7BAD
330
1F
100
AcDbEntity
  8
圖層1輪廓線
100
AcDbLine
 10
1867.401534450516
 20
2769.674864313549
 30
0.0
 11
1885.001534256917
 21
2769.674864313549
 31
0.0
  0
LINE
  5
7BAE
330
1F
100
AcDbEntity
  8
圖層1輪廓線
100
AcDbLine
 10
1867.401534450516
 20
2769.674864313549
 30
0.0
 11
1866.201534463718
 21
2768.474864326749
 31
0.0
  0
LINE
  5
7BAF
330
1F
100
AcDbEntity
  8
圖層1輪廓線
100
AcDbLine
 10
1885.001534256917
 20
2769.674864313549
 30
0.0
 11
1886.201534243717
 21
2768.474864326749
 31
0.0
  0
LINE
  5
7BB0
330
1F
100
AcDbEntity
  8
圖層1輪廓線
100
AcDbLine
 10
1917.201533902716
 20
2751.674864510548
 30
0.0
 11
1917.201533902716
 21
2734.674864698549
 31
0.0
  0
LINE
  5
7BB1
330
1F
100
AcDbEntity
  8
圖層1輪廓線
100
AcDbLine
 10
2017.201532802717
 20
2751.674864510548
 30
0.0
 11
2017.201532802717
 21
2734.674864698549
 31
0.0
  0
LINE
  5
7BB2
330
1F
100
AcDbEntity
  8
圖層1輪廓線
100
AcDbLine
 10
2080.201532109717
 20
2751.674864510548
 30
0.0
 11
2080.201532109717
 21
2709.674864973549
 31
0.0
  0
LINE
  5
7BB3
330
1F
100
AcDbEntity
  8
圖層1輪廓線
100
AcDbLine
 10
2048.951532453468
 20
2769.224864318499
 30
0.0
 11
2048.951532453468
 21
2750.174864528049
 31
0.0
  0
LINE
  5
7BB4
330
1F
100
AcDbEntity
  8
圖層1輪廓線
100
AcDbLine
 10
2048.201532461717
 20
2768.474864326749
 30
0.0
 11
2048.201532461717
 21
2750.174864528049
 31
0.0
  0
LINE
  5
7BB5
330
1F
100
AcDbEntity
  8
圖層1輪廓線
100
AcDbLine
 10
2068.201532241717
 20
2768.474864326749
 30
0.0
 11
2068.201532241717
 21
2750.174864528049
 31
0.0
  0
LINE
  5
7BB6
330
1F
100
AcDbEntity
  8
圖層1輪廓線
100
AcDbLine
 10
2067.451532249968
 20
2769.224864318499
 30
0.0
 11
2067.451532249968
 21
2750.174864528049
 31
0.0
  0
LINE
  5
7BB7
330
1F
100
AcDbEntity
  8
圖層1輪廓線
100
AcDbLine
 10
2040.881024466555
 20
2738.174864660048
 30
0.0
 11
2075.522040236879
 21
2738.174864660048
 31
0.0
  0
LINE
  5
7BB8
330
1F
100
AcDbEntity
  8
圖層1輪廓線
100
AcDbLine
 10
2073.201532186718
 20
2738.174864660048
 30
0.0
 11
2075.522040236879
 21
2739.514610607467
 31
0.0
  0
ARC
  5
7BB9
330
1F
100
AcDbEntity
  8
圖層1輪廓線
100
AcDbCircle
 10
2071.19191326559
 20
2745.842332820976
 30
0.0
 40
7.667468160927581
100
AcDbArc
 50
235.6157525319253
 51
304.3842474680746
  0
LINE
  5
7BBA
330
1F
100
AcDbEntity
  8
圖層1輪廓線
100
AcDbLine
 10
2068.201532241717
 20
2751.674864510548
 30
0.0
 11
2080.201532109717
 21
2751.674864510548
 31
0.0
  0
LINE
  5
7BBB
330
1F
100
AcDbEntity
  8
圖層1輪廓線
100
AcDbLine
 10
2073.201532186718
 20
2750.174864528049
 30
0.0
 11
2075.522040236879
 21
2748.835118580629
 31
0.0
  0
ARC
  5
7BBC
330
1F
100
AcDbEntity
  8
圖層1輪廓線
100
AcDbCircle
 10
2071.19191326559
 20
2742.507396367122
 30
0.0
 40
7.667468160927581
100
AcDbArc
 50
55.61575253192536
 51
124.3842474680746
  0
LINE
  5
7BBD
330
1F
100
AcDbEntity
  8
圖層1輪廓線
100
AcDbLine
 10
2040.881024466555
 20
2748.835118580629
 30
0.0
 11
2040.881024466555
 21
2739.514610607467
 31
0.0
  0
LINE
  5
7BBE
330
1F
100
AcDbEntity
  8
圖層1輪廓線
100
AcDbLine
 10
2066.861786294299
 20
2748.835118580629
 30
0.0
 11
2066.861786294299
 21
2739.514610607467
 31
0.0
  0
LINE
  5
7BBF
330
1F
100
AcDbEntity
  8
圖層1輪廓線
100
AcDbLine
 10
2049.541278409135
 20
2748.835118580629
 30
0.0
 11
2049.541278409135
 21
2739.514610607467
 31
0.0
  0
ARC
  5
7BC0
330
1F
100
AcDbEntity
  8
圖層1輪廓線
100
AcDbCircle
 10
2045.211151437845
 20
2745.842332820976
 30
0.0
 40
7.667468160927581
100
AcDbArc
 50
235.6157525319253
 51
304.3842474680746
  0
LINE
  5
7BC1
330
1F
100
AcDbEntity
  8
圖層1輪廓線
100
AcDbLine
 10
2043.201532516718
 20
2738.174864660048
 30
0.0
 11
2040.881024466555
 21
2739.514610607467
 31
0.0
  0
LINE
  5
7BC2
330
1F
100
AcDbEntity
  8
圖層1輪廓線
100
AcDbLine
 10
2040.881024466555
 20
2738.174864660048
 30
0.0
 11
2040.881024466555
 21
2734.674864698549
 31
0.0
  0
ARC
  5
7BC3
330
1F
100
AcDbEntity
  8
圖層1輪廓線
100
AcDbCircle
 10
2058.201532351719
 20
2766.835118382629
 30
0.0
 40
28.66025372258072
100
AcDbArc
 50
252.4120462260324
 51
287.5879537739676
  0
LINE
  5
7BC4
330
1F
100
AcDbEntity
  8
圖層1輪廓線
100
AcDbLine
 10
2062.396323999536
 20
2738.174864660048
 30
0.0
 11
2064.230410033477
 21
2734.674864698549
 31
0.0
  0
LINE
  5
7BC5
330
1F
100
AcDbEntity
  8
圖層1輪廓線
100
AcDbLine
 10
2064.148833893349
 20
2738.174864660048
 30
0.0
 11
2065.982919927292
 21
2734.674864698549
 31
0.0
  0
ARC
  5
7BC6
330
1F
100
AcDbEntity
  8
圖層1輪廓線
100
AcDbCircle
 10
2045.211151437845
 20
2742.507396367122
 30
0.0
 40
7.667468160927581
100
AcDbArc
 50
55.61575253192536
 51
124.3842474680746
  0
LINE
  5
7BC7
330
1F
100
AcDbEntity
  8
圖層1輪廓線
100
AcDbLine
 10
2043.201532516718
 20
2750.174864528049
 30
0.0
 11
2073.201532186718
 21
2750.174864528049
 31
0.0
  0
LINE
  5
7BC8
330
1F
100
AcDbEntity
  8
圖層1輪廓線
100
AcDbLine
 10
2043.201532516718
 20
2750.174864528049
 30
0.0
 11
2040.881024466555
 21
2748.835118580629
 31
0.0
  0
ARC
  5
7BC9
330
1F
100
AcDbEntity
  8
圖層1輪廓線
100
AcDbCircle
 10
2058.201532351719
 20
2721.514610805468
 30
0.0
 40
28.66025372258072
100
AcDbArc
 50
72.4120462260324
 51
107.5879537739676
  0
LINE
  5
7BCA
330
1F
100
AcDbEntity
  8
圖層1輪廓線
100
AcDbLine
 10
2075.522040236879
 20
2748.835118580629
 30
0.0
 11
2075.522040236879
 21
2739.514610607467
 31
0.0
  0
LINE
  5
7BCB
330
1F
100
AcDbEntity
  8
圖層1輪廓線
100
AcDbLine
 10
2075.522040236879
 20
2738.174864660048
 30
0.0
 11
2075.522040236879
 21
2734.674864698549
 31
0.0
  0
LINE
  5
7BCC
330
1F
100
AcDbEntity
  8
圖層1輪廓線
100
AcDbLine
 10
2048.201532461717
 20
2768.474864326749
 30
0.0
 11
2068.201532241717
 21
2768.474864326749
 31
0.0
  0
LINE
  5
7BCD
330
1F
100
AcDbEntity
  8
圖層1輪廓線
100
AcDbLine
 10
2049.401532448517
 20
2769.674864313549
 30
0.0
 11
2067.001532254917
 21
2769.674864313549
 31
0.0
  0
LINE
  5
7BCE
330
1F
100
AcDbEntity
  8
圖層1輪廓線
100
AcDbLine
 10
2049.401532448517
 20
2769.674864313549
 30
0.0
 11
2048.201532461717
 21
2768.474864326749
 31
0.0
  0
LINE
  5
7BCF
330
1F
100
AcDbEntity
  8
圖層1輪廓線
100
AcDbLine
 10
2067.001532254917
 20
2769.674864313549
 30
0.0
 11
2068.201532241717
 21
2768.474864326749
 31
0.0
  0
LINE
  5
7BD0
330
1F
100
AcDbEntity
  8
圖層1輪廓線
100
AcDbLine
 10
1997.176199265668
 20
2892.369874399939
 30
0.0
 11
1944.283017056563
 21
2830.250390855212
 31
0.0
  0
LINE
  5
7BD1
330
1F
100
AcDbEntity
  8
圖層1輪廓線
100
AcDbLine
 10
1990.323735320387
 20
2898.204575581545
 30
0.0
 11
1937.430553111281
 21
2836.085092036818
 31
0.0
  0
LINE
  5
7BD2
330
1F
100
AcDbEntity
  8
圖層1輪廓線
100
AcDbLine
 10
2015.201533352718
 20
2751.674864510548
 30
0.0
 11
2015.201533352718
 21
2956.674864510549
 31
0.0
  0
LINE
  5
7BD3
330
1F
100
AcDbEntity
  8
圖層1輪廓線
100
AcDbLine
 10
1919.201533352718
 20
2751.674864510548
 30
0.0
 11
1919.201533352718
 21
2956.674864510549
 31
0.0
  0
LINE
  5
7BD4
330
1F
100
AcDbEntity
  8
圖層1輪廓線
100
AcDbLine
 10
2012.201533352718
 20
2751.674864510548
 30
0.0
 11
2012.201533352718
 21
2956.674864510549
 31
0.0
  0
LINE
  5
7BD5
330
1F
100
AcDbEntity
  8
圖層1輪廓線
100
AcDbLine
 10
1922.201533352717
 20
2751.674864510548
 30
0.0
 11
1922.201533352717
 21
2956.674864510549
 31
0.0
  0
LINE
  5
7BD6
330
1F
100
AcDbEntity
  8
圖層1輪廓線
100
AcDbLine
 10
1941.951533352716
 20
2791.674864510548
 30
0.0
 11
1941.951533352718
 21
2880.674864510548
 31
0.0
  0
LINE
  5
7BD7
330
1F
100
AcDbEntity
  8
圖層1輪廓線
100
AcDbLine
 10
1991.951533352716
 20
2791.674864510548
 30
0.0
 11
1991.951533352718
 21
2880.674864510548
 31
0.0
  0
LINE
  5
7BD8
330
1F
100
AcDbEntity
  8
圖層1輪廓線
100
AcDbLine
 10
2006.409102522306
 20
2791.674864510548
 30
0.0
 11
1927.451533352716
 21
2791.674864510548
 31
0.0
  0
LINE
  5
7BD9
330
1F
100
AcDbEntity
  8
圖層1輪廓線
100
AcDbLine
 10
1927.451533352716
 20
2786.674864510548
 30
0.0
 11
2006.409102522306
 21
2786.674864510548
 31
0.0
  0
LINE
  5
7BDA
330
1F
100
AcDbEntity
  8
圖層1輪廓線
100
AcDbLine
 10
1928.451533352716
 20
2786.674864510548
 30
0.0
 11
2005.451533352716
 21
2786.674864510548
 31
0.0
  0
ARC
  5
7BDB
330
1F
100
AcDbEntity
  8
圖層1輪廓線
100
AcDbCircle
 10
1927.451533352716
 20
2788.674864510548
 30
0.0
 40
2.0
100
AcDbArc
 50
180.0
 51
270.0
  0
ARC
  5
7BDC
330
1F
100
AcDbEntity
  8
圖層1輪廓線
100
AcDbCircle
 10
1927.451533352716
 20
2789.674864510548
 30
0.0
 40
2.0
100
AcDbArc
 50
90.0
 51
180.0
  0
LINE
  5
7BDD
330
1F
100
AcDbEntity
  8
圖層1輪廓線
100
AcDbLine
 10
1925.451533352716
 20
2789.674864510548
 30
0.0
 11
1925.451533352716
 21
2788.674864510548
 31
0.0
  0
ARC
  5
7BDE
330
1F
100
AcDbEntity
  8
圖層1輪廓線
100
AcDbCircle
 10
2006.409102522306
 20
2788.674864510548
 30
0.0
 40
2.0
100
AcDbArc
 50
270.0
 51
0.0
  0
ARC
  5
7BDF
330
1F
100
AcDbEntity
  8
圖層1輪廓線
100
AcDbCircle
 10
2006.409102522306
 20
2789.674864510548
 30
0.0
 40
2.0
100
AcDbArc
 50
0.0
 51
90.0
  0
LINE
  5
7BE0
330
1F
100
AcDbEntity
  8
圖層1輪廓線
100
AcDbLine
 10
2008.409102522306
 20
2788.674864510548
 30
0.0
 11
2008.409102522306
 21
2789.674864510548
 31
0.0
  0
LINE
  5
7BE1
330
1F
100
AcDbEntity
  8
圖層1輪廓線
100
AcDbLine
 10
1927.201533352718
 20
2883.674864510548
 30
0.0
 11
2007.201533352718
 21
2883.674864510548
 31
0.0
  0
LINE
  5
7BE2
330
1F
100
AcDbEntity
  8
圖層1輪廓線
100
AcDbLine
 10
1919.201533352718
 20
2956.674864510549
 30
0.0
 11
2012.201533352718
 21
2956.674864510549
 31
0.0
  0
LINE
  5
7BE3
330
1F
100
AcDbEntity
  8
圖層1輪廓線
100
AcDbLine
 10
1946.701533352718
 20
2956.674864510548
 30
0.0
 11
1987.701533352718
 21
2956.674864510548
 31
0.0
  0
LINE
  5
7BE4
330
1F
100
AcDbEntity
  8
圖層1輪廓線
100
AcDbLine
 10
1946.701533352718
 20
2956.674864510548
 30
0.0
 11
1987.701533352718
 21
2956.674864510548
 31
0.0
  0
LINE
  5
7BE5
330
1F
100
AcDbEntity
  8
圖層1輪廓線
100
AcDbLine
 10
1927.201533352718
 20
2936.674864510548
 30
0.0
 11
2007.201533352718
 21
2936.674864510548
 31
0.0
  0
LINE
  5
7BE6
330
1F
100
AcDbEntity
  8
圖層1輪廓線
100
AcDbLine
 10
2007.201533352718
 20
2919.674864510549
 30
0.0
 11
1927.201533352718
 21
2919.674864510549
 31
0.0
  0
LINE
  5
7BE7
330
1F
100
AcDbEntity
  8
圖層1輪廓線
100
AcDbLine
 10
2007.201533352718
 20
2934.674864510548
 30
0.0
 11
1927.201533352718
 21
2934.674864510548
 31
0.0
  0
LINE
  5
7BE8
330
1F
100
AcDbEntity
  8
圖層1輪廓線
100
AcDbLine
 10
2007.201533352718
 20
2936.674864510548
 30
0.0
 11
1927.201533352718
 21
2936.674864510548
 31
0.0
  0
LINE
  5
7BE9
330
1F
100
AcDbEntity
  8
圖層1輪廓線
100
AcDbLine
 10
2007.201533352718
 20
2956.674864510548
 30
0.0
 11
1927.201533352718
 21
2956.674864510548
 31
0.0
  0
HATCH
  5
7BEA
330
1F
100
AcDbEntity
  8
圖層1輪廓線
100
AcDbHatch
 10
0.0
 20
0.0
 30
0.0
210
0.0
220
0.0
230
1.0
  2
ANGLE
 70
     0
 71
     0
 91
        2
 92
        7
 72
     0
 73
     1
 93
        4
 10
2007.201533352716
 20
2956.674864510548
 10
1927.201533352718
 20
2956.674864510548
 10
1927.201533352718
 20
2936.674864510548
 10
2007.201533352718
 20
2936.674864510548
 97
        0
 92
        7
 72
     0
 73
     1
 93
        4
 10
2007.201533352718
 20
2934.674864510548
 10
1927.201533352718
 20
2934.674864510548
 10
1927.201533352718
 20
2919.674864510549
 10
2007.201533352718
 20
2919.674864510549
 97
        0
 75
     0
 76
     1
 52
45.0
 41
1.0
 77
     0
 78
     2
 53
45.0
 43
-226.1576006841842
 44
1694.174839299223
 45
-4.939140866588034
 46
4.939140866588035
 79
     2
 49
5.08
 49
-1.905
 53
135.0
 43
-226.1576006841842
 44
1694.174839299223
 45
-4.939140866588035
 46
-4.939140866588034
 79
     2
 49
5.08
 49
-1.905
 47
0.4216118112884125
 98
        2
 10
1948.423401751623
 20
2945.212774540906
 10
1947.15637097081
 20
2928.769916214046
  0
LINE
  5
7BEB
330
1F
100
AcDbEntity
  8
圖層1輪廓線
100
AcDbLine
 10
1941.951533352718
 20
2880.674864510548
 30
0.0
 11
1991.951533352718
 21
2880.674864510548
 31
0.0
  0
LINE
  5
7BEC
330
1F
100
AcDbEntity
  8
圖層1輪廓線
100
AcDbLine
 10
1927.201533352718
 20
2936.674864510548
 30
0.0
 11
1927.201533352718
 21
2883.674864510548
 31
0.0
  0
LINE
  5
7BED
330
1F
100
AcDbEntity
  8
圖層1輪廓線
100
AcDbLine
 10
1941.951533352718
 20
2880.674864510548
 30
0.0
 11
1944.951533352718
 21
2883.674864510548
 31
0.0
  0
LINE
  5
7BEE
330
1F
100
AcDbEntity
  8
圖層1輪廓線
100
AcDbLine
 10
1927.201533352718
 20
2956.674864510548
 30
0.0
 11
1927.201533352718
 21
2936.674864510548
 31
0.0
  0
LINE
  5
7BEF
330
1F
100
AcDbEntity
  8
圖層1輪廓線
100
AcDbLine
 10
2007.201533352718
 20
2883.674864510548
 30
0.0
 11
2007.201533352718
 21
2936.674864510548
 31
0.0
  0
LINE
  5
7BF0
330
1F
100
AcDbEntity
  8
圖層1輪廓線
100
AcDbLine
 10
1991.951533352718
 20
2880.674864510548
 30
0.0
 11
1989.451533352716
 21
2883.674864510548
 31
0.0
  0
LINE
  5
7BF1
330
1F
100
AcDbEntity
  8
圖層1輪廓線
100
AcDbLine
 10
2007.201533352718
 20
2936.674864510548
 30
0.0
 11
2007.201533352718
 21
2956.674864510548
 31
0.0
  0
LINE
  5
7BF2
330
1F
100
AcDbEntity
  8
圖層1輪廓線
100
AcDbLine
 10
2015.201533352718
 20
2956.674864510549
 30
0.0
 11
2012.201533352718
 21
2956.674864510549
 31
0.0
  0
LINE
  5
7BF3
330
1F
100
AcDbEntity
  8
圖層1輪廓線
100
AcDbLine
 10
2012.201533352718
 20
2956.674864510549
 30
0.0
 11
2012.201533352718
 21
2956.674864510549
 31
0.0
  0
LINE
  5
7BF4
330
1F
100
AcDbEntity
  8
圖層1輪廓線
100
AcDbLine
 10
1919.201533352718
 20
2751.674864510548
 30
0.0
 11
2015.201533352718
 21
2751.674864510548
 31
0.0
  0
LINE
  5
7BF5
330
1F
100
AcDbEntity
  8
圖層1輪廓線
100
AcDbLine
 10
1161.366546891364
 20
2539.674866843549
 30
0.0
 11
1161.366546891364
 21
2709.674864973548
 31
0.0
  0
LINE
  5
7BF6
330
1F
100
AcDbEntity
  8
圖層1輪廓線
100
AcDbLine
 10
1181.366546671364
 20
2539.674866843549
 30
0.0
 11
1181.366546671364
 21
2709.674864973548
 31
0.0
  0
LINE
  5
7BF7
330
1F
100
AcDbEntity
  8
圖層1輪廓線
100
AcDbLine
 10
1343.366544889364
 20
2539.674866843549
 30
0.0
 11
1343.366544889364
 21
2709.674864973548
 31
0.0
  0
LINE
  5
7BF8
330
1F
100
AcDbEntity
  8
圖層1輪廓線
100
AcDbLine
 10
1363.366544669365
 20
2539.674866843549
 30
0.0
 11
1363.366544669365
 21
2709.674864973548
 31
0.0
  0
LINE
  5
7BF9
330
1F
100
AcDbEntity
  8
圖層1輪廓線
100
AcDbLine
 10
1157.366546935365
 20
2539.674866843549
 30
0.0
 11
1157.366546935365
 21
2709.674864973548
 31
0.0
  0
LINE
  5
7BFA
330
1F
100
AcDbEntity
  8
圖層1輪廓線
100
AcDbLine
 10
1367.366544625365
 20
2539.674866843549
 30
0.0
 11
1367.366544625365
 21
2709.674864973548
 31
0.0
  0
LINE
  5
7BFB
330
1F
100
AcDbEntity
  8
圖層4尺寸線
100
AcDbLine
 10
1149.366547023364
 20
2285.674869639548
 30
0.0
 11
1375.366544537364
 21
2285.674869639548
 31
0.0
  0
LINE
  5
7BFC
330
1F
100
AcDbEntity
  8
圖層1輪廓線
100
AcDbLine
 10
1149.366547023364
 20
2539.674866843549
 30
0.0
 11
1375.366544537364
 21
2539.674866843549
 31
0.0
  0
LINE
  5
7BFD
330
1F
100
AcDbEntity
  8
圖層1輪廓線
100
AcDbLine
 10
1149.366547023364
 20
2497.674867306548
 30
0.0
 11
1375.366544537364
 21
2497.674867306548
 31
0.0
  0
LINE
  5
7BFE
330
1F
100
AcDbEntity
  8
圖層1輪廓線
100
AcDbLine
 10
1149.366547023364
 20
2302.674869451548
 30
0.0
 11
1224.366546198365
 21
2302.674869451548
 31
0.0
  0
LINE
  5
7BFF
330
1F
100
AcDbEntity
  8
圖層1輪廓線
100
AcDbLine
 10
1149.366547023364
 20
2327.674869176548
 30
0.0
 11
1375.366544537364
 21
2327.674869176548
 31
0.0
  0
LINE
  5
7C00
330
1F
100
AcDbEntity
  8
圖層1輪廓線
100
AcDbLine
 10
1149.366547023364
 20
2285.674869639548
 30
0.0
 11
1149.366547023364
 21
2327.674869176548
 31
0.0
  0
LINE
  5
7C01
330
1F
100
AcDbEntity
  8
圖層1輪廓線
100
AcDbLine
 10
1157.366546935365
 20
2327.674869176548
 30
0.0
 11
1157.366546935365
 21
2497.674867306548
 31
0.0
  0
LINE
  5
7C02
330
1F
100
AcDbEntity
  8
圖層1輪廓線
100
AcDbLine
 10
1149.366547023364
 20
2539.674866843549
 30
0.0
 11
1149.366547023364
 21
2497.674867306549
 31
0.0
  0
LINE
  5
7C03
330
1F
100
AcDbEntity
  8
圖層1輪廓線
100
AcDbLine
 10
1375.366544537364
 20
2285.674869639548
 30
0.0
 11
1375.366544537364
 21
2327.674869176548
 31
0.0
  0
LINE
  5
7C04
330
1F
100
AcDbEntity
  8
圖層1輪廓線
100
AcDbLine
 10
1300.366545362365
 20
2302.674869451548
 30
0.0
 11
1375.366544537364
 21
2302.674869451548
 31
0.0
  0
LINE
  5
7C05
330
1F
100
AcDbEntity
  8
圖層1輪廓線
100
AcDbLine
 10
1212.366546330364
 20
2285.674869639548
 30
0.0
 11
1212.366546330364
 21
2302.674869451548
 31
0.0
  0
LINE
  5
7C06
330
1F
100
AcDbEntity
  8
圖層1輪廓線
100
AcDbLine
 10
1312.366545230365
 20
2285.674869639548
 30
0.0
 11
1312.366545230365
 21
2302.674869451548
 31
0.0
  0
LINE
  5
7C07
330
1F
100
AcDbEntity
  8
圖層1輪廓線
100
AcDbLine
 10
1161.366546891364
 20
2327.674869176548
 30
0.0
 11
1161.366546891364
 21
2497.674867306548
 31
0.0
  0
LINE
  5
7C08
330
1F
100
AcDbEntity
  8
圖層1輪廓線
100
AcDbLine
 10
1181.366546671364
 20
2327.674869176548
 30
0.0
 11
1181.366546671364
 21
2497.674867306548
 31
0.0
  0
LINE
  5
7C09
330
1F
100
AcDbEntity
  8
圖層1輪廓線
100
AcDbLine
 10
1343.366544889364
 20
2327.674869176548
 30
0.0
 11
1343.366544889364
 21
2497.674867306548
 31
0.0
  0
LINE
  5
7C0A
330
1F
100
AcDbEntity
  8
圖層1輪廓線
100
AcDbLine
 10
1363.366544669365
 20
2327.674869176548
 30
0.0
 11
1363.366544669365
 21
2497.674867306548
 31
0.0
  0
LINE
  5
7C0B
330
1F
100
AcDbEntity
  8
圖層1輪廓線
100
AcDbLine
 10
1367.366544625365
 20
2327.674869176548
 30
0.0
 11
1367.366544625365
 21
2497.674867306548
 31
0.0
  0
LINE
  5
7C0C
330
1F
100
AcDbEntity
  8
圖層1輪廓線
100
AcDbLine
 10
1375.366544537364
 20
2539.674866843549
 30
0.0
 11
1375.366544537364
 21
2497.674867306549
 31
0.0
  0
LINE
  5
7C0D
330
1F
100
AcDbEntity
  8
圖層1輪廓線
100
AcDbLine
 10
1156.366546946365
 20
2750.174864528049
 30
0.0
 11
1186.366546616365
 21
2750.174864528049
 31
0.0
  0
ARC
  5
7C0E
330
1F
100
AcDbEntity
  8
圖層1輪廓線
100
AcDbCircle
 10
1158.376165867492
 20
2742.507396367122
 30
0.0
 40
7.667468160927581
100
AcDbArc
 50
55.61575253192536
 51
124.3842474680746
  0
LINE
  5
7C0F
330
1F
100
AcDbEntity
  8
圖層1輪廓線
100
AcDbLine
 10
1149.366547023364
 20
2751.674864510548
 30
0.0
 11
1161.366546891364
 21
2751.674864510548
 31
0.0
  0
ARC
  5
7C10
330
1F
100
AcDbEntity
  8
圖層1輪廓線
100
AcDbCircle
 10
1158.376165867492
 20
2745.842332820976
 30
0.0
 40
7.667468160927581
100
AcDbArc
 50
235.6157525319253
 51
304.3842474680746
  0
LINE
  5
7C11
330
1F
100
AcDbEntity
  8
圖層1輪廓線
100
AcDbLine
 10
1154.046038896202
 20
2738.174864660048
 30
0.0
 11
1188.687054666528
 21
2738.174864660048
 31
0.0
  0
LINE
  5
7C12
330
1F
100
AcDbEntity
  8
圖層1輪廓線
100
AcDbLine
 10
1149.366547023364
 20
2734.674864698549
 30
0.0
 11
1224.366546198365
 21
2734.674864698549
 31
0.0
  0
LINE
  5
7C13
330
1F
100
AcDbEntity
  8
圖層1輪廓線
100
AcDbLine
 10
1149.366547023364
 20
2709.674864973548
 30
0.0
 11
1375.366544537364
 21
2709.674864973548
 31
0.0
  0
LINE
  5
7C14
330
1F
100
AcDbEntity
  8
圖層1輪廓線
100
AcDbLine
 10
1156.366546946365
 20
2750.174864528049
 30
0.0
 11
1154.046038896202
 21
2748.835118580629
 31
0.0
  0
LINE
  5
7C15
330
1F
100
AcDbEntity
  8
圖層1輪廓線
100
AcDbLine
 10
1149.366547023364
 20
2751.674864510548
 30
0.0
 11
1149.366547023364
 21
2709.674864973549
 31
0.0
  0
LINE
  5
7C16
330
1F
100
AcDbEntity
  8
圖層1輪廓線
100
AcDbLine
 10
1154.046038896202
 20
2738.174864660048
 30
0.0
 11
1154.046038896202
 21
2734.674864698549
 31
0.0
  0
LINE
  5
7C17
330
1F
100
AcDbEntity
  8
圖層1輪廓線
100
AcDbLine
 10
1154.046038896202
 20
2748.835118580629
 30
0.0
 11
1154.046038896202
 21
2739.514610607467
 31
0.0
  0
LINE
  5
7C18
330
1F
100
AcDbEntity
  8
圖層1輪廓線
100
AcDbLine
 10
1156.366546946365
 20
2738.174864660048
 30
0.0
 11
1154.046038896202
 21
2739.514610607467
 31
0.0
  0
LINE
  5
7C19
330
1F
100
AcDbEntity
  8
圖層1輪廓線
100
AcDbLine
 10
1237.116545780365
 20
2791.674864510548
 30
0.0
 11
1237.116545780365
 21
2880.674864510548
 31
0.0
  0
LINE
  5
7C1A
330
1F
100
AcDbEntity
  8
圖層1輪廓線
100
AcDbLine
 10
1287.116545780365
 20
2791.674864510548
 30
0.0
 11
1287.116545780365
 21
2880.674864510548
 31
0.0
  0
LINE
  5
7C1B
330
1F
100
AcDbEntity
  8
圖層1輪廓線
100
AcDbLine
 10
1310.366545780365
 20
2751.674864510548
 30
0.0
 11
1310.366545780365
 21
2956.674864510549
 31
0.0
  0
LINE
  5
7C1C
330
1F
100
AcDbEntity
  8
圖層1輪廓線
100
AcDbLine
 10
1307.366545780365
 20
2751.674864510548
 30
0.0
 11
1307.366545780365
 21
2956.674864510549
 31
0.0
  0
LINE
  5
7C1D
330
1F
100
AcDbEntity
  8
圖層1輪廓線
100
AcDbLine
 10
1214.366545780365
 20
2751.674864510548
 30
0.0
 11
1214.366545780365
 21
2956.674864510549
 31
0.0
  0
LINE
  5
7C1E
330
1F
100
AcDbEntity
  8
圖層1輪廓線
100
AcDbLine
 10
1217.366545780365
 20
2751.674864510548
 30
0.0
 11
1217.366545780365
 21
2956.674864510549
 31
0.0
  0
LINE
  5
7C1F
330
1F
100
AcDbEntity
  8
圖層1輪廓線
100
AcDbLine
 10
1300.366545362365
 20
2734.674864698549
 30
0.0
 11
1375.366544537364
 21
2734.674864698549
 31
0.0
  0
LINE
  5
7C20
330
1F
100
AcDbEntity
  8
圖層1輪廓線
100
AcDbLine
 10
1181.366546671364
 20
2751.674864510548
 30
0.0
 11
1343.366544889364
 21
2751.674864510548
 31
0.0
  0
LINE
  5
7C21
330
1F
100
AcDbEntity
  8
圖層1輪廓線
100
AcDbLine
 10
1301.574114949955
 20
2791.674864510548
 30
0.0
 11
1222.616545780365
 21
2791.674864510548
 31
0.0
  0
LINE
  5
7C22
330
1F
100
AcDbEntity
  8
圖層1輪廓線
100
AcDbLine
 10
1222.616545780365
 20
2786.674864510548
 30
0.0
 11
1301.574114949955
 21
2786.674864510548
 31
0.0
  0
LINE
  5
7C23
330
1F
100
AcDbEntity
  8
圖層1輪廓線
100
AcDbLine
 10
1223.616545780365
 20
2786.674864510548
 30
0.0
 11
1300.616545780365
 21
2786.674864510548
 31
0.0
  0
LINE
  5
7C24
330
1F
100
AcDbEntity
  8
圖層1輪廓線
100
AcDbLine
 10
1214.366545780365
 20
2751.674864510548
 30
0.0
 11
1310.366545780365
 21
2751.674864510548
 31
0.0
  0
LINE
  5
7C25
330
1F
100
AcDbEntity
  8
圖層1輪廓線
100
AcDbLine
 10
1212.366546330364
 20
2751.674864510548
 30
0.0
 11
1212.366546330364
 21
2734.674864698549
 31
0.0
  0
LINE
  5
7C26
330
1F
100
AcDbEntity
  8
圖層1輪廓線
100
AcDbLine
 10
1186.366546616364
 20
2750.174864528049
 30
0.0
 11
1188.687054666528
 21
2748.835118580629
 31
0.0
  0
ARC
  5
7C27
330
1F
100
AcDbEntity
  8
圖層1輪廓線
100
AcDbCircle
 10
1171.366546781364
 20
2721.514610805468
 30
0.0
 40
28.66025372258072
100
AcDbArc
 50
72.4120462260324
 51
107.5879537739676
  0
ARC
  5
7C28
330
1F
100
AcDbEntity
  8
圖層1輪廓線
100
AcDbCircle
 10
1184.356927695237
 20
2742.507396367122
 30
0.0
 40
7.667468160927581
100
AcDbArc
 50
55.61575253192536
 51
124.3842474680746
  0
ARC
  5
7C29
330
1F
100
AcDbEntity
  8
圖層1輪廓線
100
AcDbCircle
 10
1171.366546781364
 20
2766.835118382629
 30
0.0
 40
28.66025372258072
100
AcDbArc
 50
252.4120462260324
 51
287.5879537739676
  0
LINE
  5
7C2A
330
1F
100
AcDbEntity
  8
圖層1輪廓線
100
AcDbLine
 10
1175.561338429183
 20
2738.174864660048
 30
0.0
 11
1177.395424463124
 21
2734.674864698549
 31
0.0
  0
LINE
  5
7C2B
330
1F
100
AcDbEntity
  8
圖層1輪廓線
100
AcDbLine
 10
1177.313848322998
 20
2738.174864660048
 30
0.0
 11
1179.147934356939
 21
2734.674864698549
 31
0.0
  0
LINE
  5
7C2C
330
1F
100
AcDbEntity
  8
圖層1輪廓線
100
AcDbLine
 10
1162.706292838784
 20
2748.835118580629
 30
0.0
 11
1162.706292838784
 21
2739.514610607467
 31
0.0
  0
LINE
  5
7C2D
330
1F
100
AcDbEntity
  8
圖層1輪廓線
100
AcDbLine
 10
1188.687054666528
 20
2738.174864660048
 30
0.0
 11
1188.687054666528
 21
2734.674864698549
 31
0.0
  0
LINE
  5
7C2E
330
1F
100
AcDbEntity
  8
圖層1輪廓線
100
AcDbLine
 10
1186.366546616364
 20
2738.174864660048
 30
0.0
 11
1188.687054666528
 21
2739.514610607467
 31
0.0
  0
ARC
  5
7C2F
330
1F
100
AcDbEntity
  8
圖層1輪廓線
100
AcDbCircle
 10
1184.356927695237
 20
2745.842332820976
 30
0.0
 40
7.667468160927581
100
AcDbArc
 50
235.6157525319253
 51
304.3842474680746
  0
LINE
  5
7C30
330
1F
100
AcDbEntity
  8
圖層1輪廓線
100
AcDbLine
 10
1188.687054666528
 20
2748.835118580629
 30
0.0
 11
1188.687054666528
 21
2739.514610607467
 31
0.0
  0
LINE
  5
7C31
330
1F
100
AcDbEntity
  8
圖層1輪廓線
100
AcDbLine
 10
1180.026800723946
 20
2748.835118580629
 30
0.0
 11
1180.026800723946
 21
2739.514610607467
 31
0.0
  0
LINE
  5
7C32
330
1F
100
AcDbEntity
  8
圖層1輪廓線
100
AcDbLine
 10
1162.566546878164
 20
2769.674864313549
 30
0.0
 11
1180.166546684564
 21
2769.674864313549
 31
0.0
  0
LINE
  5
7C33
330
1F
100
AcDbEntity
  8
圖層1輪廓線
100
AcDbLine
 10
1161.366546891364
 20
2768.474864326749
 30
0.0
 11
1181.366546671364
 21
2768.474864326749
 31
0.0
  0
LINE
  5
7C34
330
1F
100
AcDbEntity
  8
圖層1輪廓線
100
AcDbLine
 10
1162.566546878164
 20
2769.674864313549
 30
0.0
 11
1161.366546891364
 21
2768.474864326749
 31
0.0
  0
LINE
  5
7C35
330
1F
100
AcDbEntity
  8
圖層1輪廓線
100
AcDbLine
 10
1162.116546883115
 20
2769.224864318499
 30
0.0
 11
1162.116546883115
 21
2750.174864528049
 31
0.0
  0
LINE
  5
7C36
330
1F
100
AcDbEntity
  8
圖層1輪廓線
100
AcDbLine
 10
1161.366546891364
 20
2768.474864326749
 30
0.0
 11
1161.366546891364
 21
2750.174864528049
 31
0.0
  0
LINE
  5
7C37
330
1F
100
AcDbEntity
  8
圖層1輪廓線
100
AcDbLine
 10
1180.166546684564
 20
2769.674864313549
 30
0.0
 11
1181.366546671364
 21
2768.474864326749
 31
0.0
  0
LINE
  5
7C38
330
1F
100
AcDbEntity
  8
圖層1輪廓線
100
AcDbLine
 10
1181.366546671364
 20
2768.474864326749
 30
0.0
 11
1181.366546671364
 21
2750.174864528049
 31
0.0
  0
LINE
  5
7C39
330
1F
100
AcDbEntity
  8
圖層1輪廓線
100
AcDbLine
 10
1180.616546679615
 20
2769.224864318499
 30
0.0
 11
1180.616546679615
 21
2750.174864528049
 31
0.0
  0
ARC
  5
7C3A
330
1F
100
AcDbEntity
  8
圖層1輪廓線
100
AcDbCircle
 10
1222.616545780365
 20
2788.674864510548
 30
0.0
 40
2.0
100
AcDbArc
 50
180.0
 51
270.0
  0
LINE
  5
7C3B
330
1F
100
AcDbEntity
  8
圖層1輪廓線
100
AcDbLine
 10
1220.616545780365
 20
2789.674864510548
 30
0.0
 11
1220.616545780365
 21
2788.674864510548
 31
0.0
  0
ARC
  5
7C3C
330
1F
100
AcDbEntity
  8
圖層1輪廓線
100
AcDbCircle
 10
1222.616545780365
 20
2789.674864510548
 30
0.0
 40
2.0
100
AcDbArc
 50
90.0
 51
180.0
  0
LINE
  5
7C3D
330
1F
100
AcDbEntity
  8
圖層1輪廓線
100
AcDbLine
 10
1312.366545230365
 20
2751.674864510548
 30
0.0
 11
1312.366545230365
 21
2734.674864698549
 31
0.0
  0
ARC
  5
7C3E
330
1F
100
AcDbEntity
  8
圖層1輪廓線
100
AcDbCircle
 10
1301.574114949955
 20
2788.674864510548
 30
0.0
 40
2.0
100
AcDbArc
 50
270.0
 51
0.0
  0
LINE
  5
7C3F
330
1F
100
AcDbEntity
  8
圖層1輪廓線
100
AcDbLine
 10
1303.574114949955
 20
2788.674864510548
 30
0.0
 11
1303.574114949955
 21
2789.674864510548
 31
0.0
  0
ARC
  5
7C40
330
1F
100
AcDbEntity
  8
圖層1輪廓線
100
AcDbCircle
 10
1301.574114949955
 20
2789.674864510548
 30
0.0
 40
2.0
100
AcDbArc
 50
0.0
 51
90.0
  0
ARC
  5
7C41
330
1F
100
AcDbEntity
  8
圖層1輪廓線
100
AcDbCircle
 10
1353.366544779365
 20
2721.514610805468
 30
0.0
 40
28.66025372258072
100
AcDbArc
 50
72.4120462260324
 51
107.5879537739676
  0
LINE
  5
7C42
330
1F
100
AcDbEntity
  8
圖層1輪廓線
100
AcDbLine
 10
1338.366544944365
 20
2750.174864528049
 30
0.0
 11
1336.046036894202
 21
2748.835118580629
 31
0.0
  0
ARC
  5
7C43
330
1F
100
AcDbEntity
  8
圖層1輪廓線
100
AcDbCircle
 10
1340.376163865492
 20
2742.507396367122
 30
0.0
 40
7.667468160927581
100
AcDbArc
 50
55.61575253192536
 51
124.3842474680746
  0
ARC
  5
7C44
330
1F
100
AcDbEntity
  8
圖層1輪廓線
100
AcDbCircle
 10
1366.356925693237
 20
2742.507396367122
 30
0.0
 40
7.667468160927581
100
AcDbArc
 50
55.61575253192536
 51
124.3842474680746
  0
LINE
  5
7C45
330
1F
100
AcDbEntity
  8
圖層1輪廓線
100
AcDbLine
 10
1368.366544614364
 20
2750.174864528049
 30
0.0
 11
1370.687052664529
 21
2748.835118580629
 31
0.0
  0
LINE
  5
7C46
330
1F
100
AcDbEntity
  8
圖層1輪廓線
100
AcDbLine
 10
1375.366544537364
 20
2751.674864510548
 30
0.0
 11
1375.366544537364
 21
2709.674864973549
 31
0.0
  0
ARC
  5
7C47
330
1F
100
AcDbEntity
  8
圖層1輪廓線
100
AcDbCircle
 10
1353.366544779365
 20
2766.835118382629
 30
0.0
 40
28.66025372258072
100
AcDbArc
 50
252.4120462260324
 51
287.5879537739676
  0
LINE
  5
7C48
330
1F
100
AcDbEntity
  8
圖層1輪廓線
100
AcDbLine
 10
1336.046036894202
 20
2738.174864660048
 30
0.0
 11
1370.687052664529
 21
2738.174864660048
 31
0.0
  0
LINE
  5
7C49
330
1F
100
AcDbEntity
  8
圖層1輪廓線
100
AcDbLine
 10
1336.046036894202
 20
2738.174864660048
 30
0.0
 11
1336.046036894202
 21
2734.674864698549
 31
0.0
  0
LINE
  5
7C4A
330
1F
100
AcDbEntity
  8
圖層1輪廓線
100
AcDbLine
 10
1338.366544944365
 20
2738.174864660048
 30
0.0
 11
1336.046036894202
 21
2739.514610607467
 31
0.0
  0
ARC
  5
7C4B
330
1F
100
AcDbEntity
  8
圖層1輪廓線
100
AcDbCircle
 10
1340.376163865492
 20
2745.842332820976
 30
0.0
 40
7.667468160927581
100
AcDbArc
 50
235.6157525319253
 51
304.3842474680746
  0
LINE
  5
7C4C
330
1F
100
AcDbEntity
  8
圖層1輪廓線
100
AcDbLine
 10
1344.706290836784
 20
2748.835118580629
 30
0.0
 11
1344.706290836784
 21
2739.514610607467
 31
0.0
  0
LINE
  5
7C4D
330
1F
100
AcDbEntity
  8
圖層1輪廓線
100
AcDbLine
 10
1336.046036894202
 20
2748.835118580629
 30
0.0
 11
1336.046036894202
 21
2739.514610607467
 31
0.0
  0
LINE
  5
7C4E
330
1F
100
AcDbEntity
  8
圖層1輪廓線
100
AcDbLine
 10
1370.687052664529
 20
2738.174864660048
 30
0.0
 11
1370.687052664529
 21
2734.674864698549
 31
0.0
  0
LINE
  5
7C4F
330
1F
100
AcDbEntity
  8
圖層1輪廓線
100
AcDbLine
 10
1370.687052664529
 20
2748.835118580629
 30
0.0
 11
1370.687052664529
 21
2739.514610607467
 31
0.0
  0
LINE
  5
7C50
330
1F
100
AcDbEntity
  8
圖層1輪廓線
100
AcDbLine
 10
1359.313846320998
 20
2738.174864660048
 30
0.0
 11
1361.147932354939
 21
2734.674864698549
 31
0.0
  0
LINE
  5
7C51
330
1F
100
AcDbEntity
  8
圖層1輪廓線
100
AcDbLine
 10
1357.561336427183
 20
2738.174864660048
 30
0.0
 11
1359.395422461124
 21
2734.674864698549
 31
0.0
  0
LINE
  5
7C52
330
1F
100
AcDbEntity
  8
圖層1輪廓線
100
AcDbLine
 10
1362.026798721946
 20
2748.835118580629
 30
0.0
 11
1362.026798721946
 21
2739.514610607467
 31
0.0
  0
ARC
  5
7C53
330
1F
100
AcDbEntity
  8
圖層1輪廓線
100
AcDbCircle
 10
1366.356925693237
 20
2745.842332820976
 30
0.0
 40
7.667468160927581
100
AcDbArc
 50
235.6157525319253
 51
304.3842474680746
  0
LINE
  5
7C54
330
1F
100
AcDbEntity
  8
圖層1輪廓線
100
AcDbLine
 10
1368.366544614364
 20
2738.174864660048
 30
0.0
 11
1370.687052664529
 21
2739.514610607467
 31
0.0
  0
LINE
  5
7C55
330
1F
100
AcDbEntity
  8
圖層1輪廓線
100
AcDbLine
 10
1344.566544876165
 20
2769.674864313549
 30
0.0
 11
1362.166544682564
 21
2769.674864313549
 31
0.0
  0
LINE
  5
7C56
330
1F
100
AcDbEntity
  8
圖層1輪廓線
100
AcDbLine
 10
1343.366544889364
 20
2768.474864326749
 30
0.0
 11
1363.366544669365
 21
2768.474864326749
 31
0.0
  0
LINE
  5
7C57
330
1F
100
AcDbEntity
  8
圖層1輪廓線
100
AcDbLine
 10
1338.366544944365
 20
2750.174864528049
 30
0.0
 11
1368.366544614364
 21
2750.174864528049
 31
0.0
  0
LINE
  5
7C58
330
1F
100
AcDbEntity
  8
圖層1輪廓線
100
AcDbLine
 10
1344.566544876165
 20
2769.674864313549
 30
0.0
 11
1343.366544889364
 21
2768.474864326749
 31
0.0
  0
LINE
  5
7C59
330
1F
100
AcDbEntity
  8
圖層1輪廓線
100
AcDbLine
 10
1343.366544889364
 20
2768.474864326749
 30
0.0
 11
1343.366544889364
 21
2750.174864528049
 31
0.0
  0
LINE
  5
7C5A
330
1F
100
AcDbEntity
  8
圖層1輪廓線
100
AcDbLine
 10
1344.116544881115
 20
2769.224864318499
 30
0.0
 11
1344.116544881115
 21
2750.174864528049
 31
0.0
  0
LINE
  5
7C5B
330
1F
100
AcDbEntity
  8
圖層1輪廓線
100
AcDbLine
 10
1363.366544669365
 20
2751.674864510548
 30
0.0
 11
1375.366544537364
 21
2751.674864510548
 31
0.0
  0
LINE
  5
7C5C
330
1F
100
AcDbEntity
  8
圖層1輪廓線
100
AcDbLine
 10
1362.166544682564
 20
2769.674864313549
 30
0.0
 11
1363.366544669365
 21
2768.474864326749
 31
0.0
  0
LINE
  5
7C5D
330
1F
100
AcDbEntity
  8
圖層1輪廓線
100
AcDbLine
 10
1362.616544677616
 20
2769.224864318499
 30
0.0
 11
1362.616544677616
 21
2750.174864528049
 31
0.0
  0
LINE
  5
7C5E
330
1F
100
AcDbEntity
  8
圖層1輪廓線
100
AcDbLine
 10
1363.366544669365
 20
2768.474864326749
 30
0.0
 11
1363.366544669365
 21
2750.174864528049
 31
0.0
  0
LINE
  5
7C5F
330
1F
100
AcDbEntity
  8
圖層1輪廓線
100
AcDbLine
 10
1302.366545780365
 20
2883.674864510548
 30
0.0
 11
1302.366545780365
 21
2936.674864510548
 31
0.0
  0
LINE
  5
7C60
330
1F
100
AcDbEntity
  8
圖層1輪廓線
100
AcDbLine
 10
1222.366545780365
 20
2936.674864510548
 30
0.0
 11
1222.366545780365
 21
2883.674864510548
 31
0.0
  0
HATCH
  5
7C61
330
1F
100
AcDbEntity
  8
圖層1輪廓線
100
AcDbHatch
 10
0.0
 20
0.0
 30
0.0
210
0.0
220
0.0
230
1.0
  2
ANGLE
 70
     0
 71
     0
 91
        2
 92
        7
 72
     0
 73
     1
 93
        4
 10
1302.366545780365
 20
2956.674864510548
 10
1222.366545780365
 20
2956.674864510548
 10
1222.366545780365
 20
2936.674864510548
 10
1302.366545780365
 20
2936.674864510548
 97
        0
 92
        7
 72
     0
 73
     1
 93
        4
 10
1302.366545780365
 20
2934.674864510548
 10
1222.366545780365
 20
2934.674864510548
 10
1222.366545780365
 20
2919.674864510549
 10
1302.366545780365
 20
2919.674864510549
 97
        0
 75
     0
 76
     1
 52
45.0
 41
1.0
 77
     0
 78
     2
 53
45.0
 43
-930.9925882565366
 44
1694.174839299223
 45
-4.939140866588034
 46
4.939140866588035
 79
     2
 49
5.08
 49
-1.905
 53
135.0
 43
-930.9925882565366
 44
1694.174839299223
 45
-4.939140866588035
 46
-4.939140866588034
 79
     2
 49
5.08
 49
-1.905
 47
0.4216118112884125
 98
        2
 10
1243.58841417927
 20
2945.212774540906
 10
1242.321383398457
 20
2928.769916214046
  0
LINE
  5
7C62
330
1F
100
AcDbEntity
  8
圖層1輪廓線
100
AcDbLine
 10
1237.116545780365
 20
2880.674864510548
 30
0.0
 11
1240.116545780365
 21
2883.674864510548
 31
0.0
  0
LINE
  5
7C63
330
1F
100
AcDbEntity
  8
圖層1輪廓線
100
AcDbLine
 10
1237.116545780365
 20
2880.674864510548
 30
0.0
 11
1287.116545780365
 21
2880.674864510548
 31
0.0
  0
LINE
  5
7C64
330
1F
100
AcDbEntity
  8
圖層1輪廓線
100
AcDbLine
 10
1222.366545780365
 20
2883.674864510548
 30
0.0
 11
1302.366545780365
 21
2883.674864510548
 31
0.0
  0
LINE
  5
7C65
330
1F
100
AcDbEntity
  8
圖層1輪廓線
100
AcDbLine
 10
1302.366545780365
 20
2919.674864510549
 30
0.0
 11
1222.366545780365
 21
2919.674864510549
 31
0.0
  0
LINE
  5
7C66
330
1F
100
AcDbEntity
  8
圖層1輪廓線
100
AcDbLine
 10
1285.488747748035
 20
2898.204575581545
 30
0.0
 11
1232.59556553893
 21
2836.085092036818
 31
0.0
  0
LINE
  5
7C67
330
1F
100
AcDbEntity
  8
圖層1輪廓線
100
AcDbLine
 10
1292.341211693316
 20
2892.369874399939
 30
0.0
 11
1239.44802948421
 21
2830.250390855212
 31
0.0
  0
LINE
  5
7C68
330
1F
100
AcDbEntity
  8
圖層1輪廓線
100
AcDbLine
 10
1287.116545780365
 20
2880.674864510548
 30
0.0
 11
1284.616545780365
 21
2883.674864510548
 31
0.0
  0
LINE
  5
7C69
330
1F
100
AcDbEntity
  8
圖層1輪廓線
100
AcDbLine
 10
1222.366545780365
 20
2936.674864510548
 30
0.0
 11
1302.366545780365
 21
2936.674864510548
 31
0.0
  0
LINE
  5
7C6A
330
1F
100
AcDbEntity
  8
圖層1輪廓線
100
AcDbLine
 10
1302.366545780365
 20
2934.674864510548
 30
0.0
 11
1222.366545780365
 21
2934.674864510548
 31
0.0
  0
LINE
  5
7C6B
330
1F
100
AcDbEntity
  8
圖層1輪廓線
100
AcDbLine
 10
1302.366545780365
 20
2936.674864510548
 30
0.0
 11
1222.366545780365
 21
2936.674864510548
 31
0.0
  0
LINE
  5
7C6C
330
1F
100
AcDbEntity
  8
圖層1輪廓線
100
AcDbLine
 10
1302.366545780365
 20
2956.674864510548
 30
0.0
 11
1222.366545780365
 21
2956.674864510548
 31
0.0
  0
LINE
  5
7C6D
330
1F
100
AcDbEntity
  8
圖層1輪廓線
100
AcDbLine
 10
1214.366545780365
 20
2956.674864510549
 30
0.0
 11
1307.366545780365
 21
2956.674864510549
 31
0.0
  0
LINE
  5
7C6E
330
1F
100
AcDbEntity
  8
圖層1輪廓線
100
AcDbLine
 10
1222.366545780365
 20
2956.674864510548
 30
0.0
 11
1222.366545780365
 21
2936.674864510548
 31
0.0
  0
LINE
  5
7C6F
330
1F
100
AcDbEntity
  8
圖層1輪廓線
100
AcDbLine
 10
1241.866545780365
 20
2956.674864510548
 30
0.0
 11
1282.866545780365
 21
2956.674864510548
 31
0.0
  0
LINE
  5
7C70
330
1F
100
AcDbEntity
  8
圖層1輪廓線
100
AcDbLine
 10
1241.866545780365
 20
2956.674864510548
 30
0.0
 11
1282.866545780365
 21
2956.674864510548
 31
0.0
  0
LINE
  5
7C71
330
1F
100
AcDbEntity
  8
圖層1輪廓線
100
AcDbLine
 10
1310.366545780365
 20
2956.674864510549
 30
0.0
 11
1307.366545780365
 21
2956.674864510549
 31
0.0
  0
LINE
  5
7C72
330
1F
100
AcDbEntity
  8
圖層1輪廓線
100
AcDbLine
 10
1307.366545780365
 20
2956.674864510549
 30
0.0
 11
1307.366545780365
 21
2956.674864510549
 31
0.0
  0
LINE
  5
7C73
330
1F
100
AcDbEntity
  8
圖層1輪廓線
100
AcDbLine
 10
1302.366545780365
 20
2936.674864510548
 30
0.0
 11
1302.366545780365
 21
2956.674864510548
 31
0.0
  0
LINE
  5
7C74
330
1F
100
AcDbEntity
  8
圖層4尺寸線
100
AcDbLine
 10
1059.366545780365
 20
1725.674869639548
 30
0.0
 11
1059.366545780365
 21
1716.674869639548
 31
0.0
  0
LINE
  5
7C75
330
1F
100
AcDbEntity
  8
圖層4尺寸線
100
AcDbLine
 10
1081.366545780365
 20
1725.674869639548
 30
0.0
 11
1081.366545780365
 21
1716.674869639548
 31
0.0
  0
LINE
  5
7C76
330
1F
100
AcDbEntity
  8
圖層4尺寸線
100
AcDbLine
 10
1091.366545780365
 20
1667.674869639548
 30
0.0
 11
1049.366545780365
 21
1667.674869639548
 31
0.0
  0
LINE
  5
7C77
330
1F
100
AcDbEntity
  8
圖層4尺寸線
100
AcDbLine
 10
1034.366545780365
 20
1637.674869639548
 30
0.0
 11
1108.366545780365
 21
1637.674869639548
 31
0.0
  0
LINE
  5
7C78
330
1F
100
AcDbEntity
  8
圖層4尺寸線
100
AcDbLine
 10
1112.366545780365
 20
1635.674869639548
 30
0.0
 11
1034.366545780365
 21
1635.674869639548
 31
0.0
  0
LINE
  5
7C79
330
1F
100
AcDbEntity
  8
圖層4尺寸線
100
AcDbLine
 10
1034.366545780365
 20
1701.674869639548
 30
0.0
 11
1106.366545780365
 21
1701.674869639548
 31
0.0
  0
LINE
  5
7C7A
330
1F
100
AcDbEntity
  8
圖層4尺寸線
100
AcDbLine
 10
1106.366545780365
 20
1637.674869639548
 30
0.0
 11
1034.366545780365
 21
1637.674869639548
 31
0.0
  0
CIRCLE
  5
7C7B
330
1F
100
AcDbEntity
  8
圖層4尺寸線
100
AcDbCircle
 10
1070.366545780365
 20
1652.674869639548
 30
0.0
 40
9.0
  0
CIRCLE
  5
7C7C
330
1F
100
AcDbEntity
  8
圖層4尺寸線
100
AcDbCircle
 10
1070.366545780365
 20
1652.674869639548
 30
0.0
 40
12.0
  0
LINE
  5
7C7D
330
1F
100
AcDbEntity
  8
圖層4尺寸線
100
AcDbLine
 10
1110.366545780365
 20
1639.674869639548
 30
0.0
 11
1110.366545780365
 21
1707.674869639548
 31
0.0
  0
LINE
  5
7C7E
330
1F
100
AcDbEntity
  8
圖層4尺寸線
100
AcDbLine
 10
1112.366545780365
 20
1707.674869639548
 30
0.0
 11
1112.366545780365
 21
1635.674869639548
 31
0.0
  0
LINE
  5
7C7F
330
1F
100
AcDbEntity
  8
圖層4尺寸線
100
AcDbLine
 10
1106.366545780365
 20
1701.674869639548
 30
0.0
 11
1106.366545780365
 21
1637.674869639548
 31
0.0
  0
LINE
  5
7C80
330
1F
100
AcDbEntity
  8
圖層4尺寸線
100
AcDbLine
 10
1091.366545780365
 20
1667.674869639548
 30
0.0
 11
1091.366545780365
 21
1652.674869639548
 31
0.0
  0
LINE
  5
7C81
330
1F
100
AcDbEntity
  8
圖層4尺寸線
100
AcDbLine
 10
1106.366545780365
 20
1652.674869639548
 30
0.0
 11
1091.366545780365
 21
1652.674869639548
 31
0.0
  0
ARC
  5
7C82
330
1F
100
AcDbEntity
  8
圖層4尺寸線
100
AcDbCircle
 10
1108.366545780365
 20
1639.674869639548
 30
0.0
 40
2.0
100
AcDbArc
 50
270.0
 51
0.0
  0
ARC
  5
7C83
330
1F
100
AcDbEntity
  8
圖層4尺寸線
100
AcDbCircle
 10
1110.366545780365
 20
1637.674869639548
 30
0.0
 40
2.0
100
AcDbArc
 50
270.0
 51
0.0
  0
LINE
  5
7C84
330
1F
100
AcDbEntity
  8
圖層4尺寸線
100
AcDbLine
 10
1110.366545780365
 20
1707.674869639548
 30
0.0
 11
1112.366545780365
 21
1707.674869639548
 31
0.0
  0
LINE
  5
7C85
330
1F
100
AcDbEntity
  8
圖層4尺寸線
100
AcDbLine
 10
1056.366545780365
 20
1716.674869639548
 30
0.0
 11
1084.366545780365
 21
1716.674869639548
 31
0.0
  0
LINE
  5
7C86
330
1F
100
AcDbEntity
  8
圖層4尺寸線
100
AcDbLine
 10
1084.366545780365
 20
1704.044780359867
 30
0.0
 11
1056.366545780365
 21
1704.044780359867
 31
0.0
  0
LINE
  5
7C87
330
1F
100
AcDbEntity
  8
圖層4尺寸線
100
AcDbLine
 10
1084.366545780365
 20
1711.174869639548
 30
0.0
 11
1056.366545780365
 21
1711.174869639548
 31
0.0
  0
HATCH
  5
7C88
330
1F
100
AcDbEntity
  8
圖層4尺寸線
100
AcDbHatch
 10
0.0
 20
0.0
 30
0.0
210
0.0
220
0.0
230
1.0
  2
LINE
 70
     0
 71
     0
 91
        1
 92
        7
 72
     0
 73
     1
 93
        4
 10
1056.366545780365
 20
1711.174869639548
 10
1084.366545780365
 20
1711.174869639548
 10
1084.366545780365
 20
1704.044780359867
 10
1056.366545780365
 20
1704.044780359867
 97
        0
 75
     0
 76
     1
 52
90.0
 41
1.0
 77
     0
 78
     1
 53
90.0
 43
2196.530583628659
 44
1112.733768209291
 45
3.174999999999999
 46
0.0000000000000002
 79
     0
 47
0.1347766415641304
 98
        1
 10
1070.674569453449
 20
1707.978033684025
  0
LINE
  5
7C89
330
1F
100
AcDbEntity
  8
圖層4尺寸線
100
AcDbLine
 10
1081.366545780365
 20
1716.674869639548
 30
0.0
 11
1084.366545780365
 21
1716.674869639548
 31
0.0
  0
LINE
  5
7C8A
330
1F
100
AcDbEntity
  8
圖層4尺寸線
100
AcDbLine
 10
1084.366545780365
 20
1716.674869639548
 30
0.0
 11
1084.366545780365
 21
1701.674869639548
 31
0.0
  0
LINE
  5
7C8B
330
1F
100
AcDbEntity
  8
圖層4尺寸線
100
AcDbLine
 10
1056.366545780365
 20
1716.674869639548
 30
0.0
 11
1059.366545780365
 21
1716.674869639548
 31
0.0
  0
LINE
  5
7C8C
330
1F
100
AcDbEntity
  8
圖層4尺寸線
100
AcDbLine
 10
1056.366545780365
 20
1716.674869639548
 30
0.0
 11
1056.366545780365
 21
1701.674869639548
 31
0.0
  0
LINE
  5
7C8D
330
1F
100
AcDbEntity
  8
圖層4尺寸線
100
AcDbLine
 10
1034.366545780365
 20
1637.674869639548
 30
0.0
 11
1034.366545780365
 21
1701.674869639548
 31
0.0
  0
LINE
  5
7C8E
330
1F
100
AcDbEntity
  8
圖層4尺寸線
100
AcDbLine
 10
1049.366545780365
 20
1652.674869639548
 30
0.0
 11
1049.366545780365
 21
1667.674869639548
 31
0.0
  0
LINE
  5
7C8F
330
1F
100
AcDbEntity
  8
圖層4尺寸線
100
AcDbLine
 10
1034.366545780365
 20
1635.674869639548
 30
0.0
 11
1034.366545780365
 21
1637.674869639548
 31
0.0
  0
LINE
  5
7C90
330
1F
100
AcDbEntity
  8
圖層4尺寸線
100
AcDbLine
 10
1049.366545780365
 20
1652.674869639548
 30
0.0
 11
1034.366545780365
 21
1652.674869639548
 31
0.0
  0
LINE
  5
7C91
330
1F
100
AcDbEntity
  8
圖層4尺寸線
100
AcDbLine
 10
1050.366545780365
 20
1725.674869639548
 30
0.0
 11
1059.366545780365
 21
1725.674869639548
 31
0.0
  0
LINE
  5
7C92
330
1F
100
AcDbEntity
  8
圖層4尺寸線
100
AcDbLine
 10
1050.366545780365
 20
1725.674869639548
 30
0.0
 11
1090.366545780365
 21
1725.674869639548
 31
0.0
  0
LINE
  5
7C93
330
1F
100
AcDbEntity
  8
圖層4尺寸線
100
AcDbLine
 10
1050.366545780365
 20
1727.674869639548
 30
0.0
 11
1090.366545780365
 21
1727.674869639548
 31
0.0
  0
ARC
  5
7C94
330
1F
100
AcDbEntity
  8
圖層4尺寸線
100
AcDbCircle
 10
1070.366545780365
 20
1679.674869639548
 30
0.0
 40
52.00000000000005
100
AcDbArc
 50
67.38013505196659
 51
112.6198649480334
  0
LINE
  5
7C95
330
1F
100
AcDbEntity
  8
圖層4尺寸線
100
AcDbLine
 10
1090.366545780365
 20
1727.674869639548
 30
0.0
 11
1090.366545780365
 21
1725.674869639548
 31
0.0
  0
LINE
  5
7C96
330
1F
100
AcDbEntity
  8
圖層4尺寸線
100
AcDbLine
 10
1090.366545780365
 20
1725.674869639548
 30
0.0
 11
1081.366545780365
 21
1725.674869639548
 31
0.0
  0
LINE
  5
7C97
330
1F
100
AcDbEntity
  8
圖層4尺寸線
100
AcDbLine
 10
1050.366545780365
 20
1727.674869639548
 30
0.0
 11
1050.366545780365
 21
1725.674869639548
 31
0.0
  0
DIMENSION
  5
7C98
330
1F
100
AcDbEntity
  8
AM_5
100
AcDbDimension
  2
*D3
 10
1967.201533352716
 20
1575.674869639548
 30
0.0
 11
1892.201533352716
 21
1591.674869639548
 31
0.0
 70
    32
 71
     5
 42
150.0
  3
AM_ISO$0
100
AcDbAlignedDimension
 13
1817.201533352716
 23
1625.674869639548
 33
0.0
 14
1967.201533352716
 24
1602.727348854475
 34
0.0
100
AcDbRotatedDimension
  0
DIMENSION
  5
7C99
330
1F
100
AcDbEntity
  8
AM_5
100
AcDbDimension
  2
*D4
 10
2202.201533352716
 20
1575.674869639548
 30
0.0
 11
2084.701533352716
 21
1591.676838143485
 31
0.0
 70
    32
 71
     5
 42
235.0
  3
AM_ISO$0
100
AcDbAlignedDimension
 13
1967.201533352716
 23
1602.727348854475
 33
0.0
 14
2202.201533352716
 24
1595.016420310876
 34
0.0
100
AcDbRotatedDimension
  0
DIMENSION
  5
7C9A
330
1F
100
AcDbEntity
  8
AM_5
100
AcDbDimension
  2
*D5
 10
2367.201533352716
 20
1575.674869639548
 30
0.0
 11
2284.701533352716
 21
1591.674869639548
 31
0.0
 70
    32
 71
     5
 42
165.0
  3
AM_ISO$0
100
AcDbAlignedDimension
 13
2202.201533352716
 23
1595.016420310876
 33
0.0
 14
2367.201533352716
 24
1595.016420310876
 34
0.0
100
AcDbRotatedDimension
  0
DIMENSION
  5
7C9B
330
1F
100
AcDbEntity
  8
AM_5
100
AcDbDimension
  2
*D6
 10
2397.201533352716
 20
1575.674869639548
 30
0.0
 11
2454.209407368464
 21
1575.674869639548
 31
0.0
 70
   160
 71
     5
 42
30.0
  3
AM_ISO$0
100
AcDbAlignedDimension
 13
2367.201533352716
 23
1595.016420310876
 33
0.0
 14
2397.201533352716
 24
1635.674869639548
 34
0.0
100
AcDbRotatedDimension
  0
DIMENSION
  5
7C9C
330
1F
100
AcDbEntity
  8
AM_5
100
AcDbDimension
  2
*D7
 10
1757.201533352716
 20
2956.674864510549
 30
0.0
 11
1741.201533352716
 21
2621.174867075048
 31
0.0
 70
    32
 71
     5
 42
670.9999948710006
  3
AM_ISO$0
100
AcDbAlignedDimension
 13
1844.201533352716
 23
2285.674869639548
 33
0.0
 14
1919.201533352718
 24
2956.674864510549
 34
0.0
 50
90.0
100
AcDbRotatedDimension
  0
DIMENSION
  5
7C9D
330
1F
100
AcDbEntity
  8
AM_5
100
AcDbDimension
  2
*D8
 10
1707.201533352716
 20
1635.674869639548
 30
0.0
 11
1691.199564848779
 21
2296.174867075048
 31
0.0
 70
    32
 71
     5
 42
1320.999994871
  3
AM_ISO$0
100
AcDbAlignedDimension
 13
1914.201533352718
 23
2956.674864510549
 33
0.0
 14
1817.201533352716
 24
1635.674869639548
 34
0.0
 50
90.0
100
AcDbRotatedDimension
  0
TEXT
  5
8387
330
1F
100
AcDbEntity
  8
LOGO
 62
     7
100
AcDbText
 10
1389.584361503026
 20
1317.076742085008
 30
0.0
 40
28.79582986425339
  1
Order example:
 41
0.8
  7
CHINESET
100
AcDbText
  0
TEXT
  5
8388
330
1F
100
AcDbEntity
  8
LOGO
 62
     7
100
AcDbText
 10
1394.750571512498
 20
1357.615308281225
 30
0.0
 40
43.19374479638009
  1
訂購代號:
  7
CHINESET
100
AcDbText
  0
LINE
  5
8389
330
1F
100
AcDbEntity
  8
LOGO
 62
     1
100
AcDbLine
 10
2672.770044526824
 20
1411.688965039609
 30
0.0
 11
901.9412829969915
 21
1411.688965039609
 31
0.0
  0
LINE
  5
838A
330
1F
100
AcDbEntity
  8
LOGO
 62
     1
100
AcDbLine
 10
1377.072475757183
 20
1195.720241057709
 30
0.0
 11
1377.072475757183
 21
1411.688965039609
 31
0.0
  0
TEXT
  5
838B
330
1F
100
AcDbEntity
  8
LOGO
  6
Continuous
 62
     5
100
AcDbText
 10
979.5182194494977
 20
1238.14697095873
 30
0.0
 40
32.39530859728507
  1
金器工業股份有限公司
  7
CHINESET
100
AcDbText
  0
TEXT
  5
838C
330
1F
100
AcDbEntity
  8
LOGO
  6
Continuous
 62
     5
100
AcDbText
 10
920.0144466520134
 20
1205.745315420851
 30
0.0
 40
21.59687239819005
  1
MINDMAN INDUSTRIAL CO., LTD.
 41
0.85
  7
CHINESET
100
AcDbText
  0
LINE
  5
838D
330
1F
100
AcDbEntity
  8
LOGO
 62
     1
100
AcDbLine
 10
1377.072475757183
 20
1368.49522024323
 30
0.0
 11
1060.318347250388
 21
1368.49522024323
 31
0.0
  0
LINE
  5
838E
330
1F
100
AcDbEntity
  8
LOGO
 62
     1
100
AcDbLine
 10
1377.072475757183
 20
1325.301475446848
 30
0.0
 11
1060.318347250388
 21
1325.301475446848
 31
0.0
  0
LINE
  5
838F
330
1F
100
AcDbEntity
  8
LOGO
 62
     1
100
AcDbLine
 10
1377.072475757183
 20
1282.107730650469
 30
0.0
 11
901.9412829969915
 21
1282.107730650469
 31
0.0
  0
LINE
  5
8390
330
1F
100
AcDbEntity
  8
LOGO
 62
     1
100
AcDbLine
 10
1060.318347250388
 20
1282.107730650469
 30
0.0
 11
1060.318347250388
 21
1411.688965039609
 31
0.0
  0
TEXT
  5
8391
330
1F
100
AcDbEntity
  8
LOGO
 62
     6
100
AcDbText
 10
1265.492196070983
 20
1292.906166849564
 30
0.0
 40
21.59687239819005
  1
m/m
  7
CHINESET
 72
     1
 11
1303.543828391603
 21
1303.704603048658
 31
0.0
100
AcDbText
 73
     2
  0
TEXT
  5
8392
330
1F
100
AcDbEntity
  8
LOGO
 62
     6
100
AcDbText
 10
1265.492196070983
 20
1379.293656442325
 30
0.0
 40
21.59687239819005
  1
1 : 1
  7
CHINESET
 72
     1
 11
1303.543828391603
 21
1390.092092641419
 31
0.0
100
AcDbText
 73
     2
  0
LINE
  5
8393
330
1F
100
AcDbEntity
  8
LOGO
 62
     1
100
AcDbLine
 10
1233.0933264359
 20
1282.107730650469
 30
0.0
 11
1233.0933264359
 21
1411.688965039609
 31
0.0
  0
CIRCLE
  5
8394
330
1F
100
AcDbEntity
  8
LOGO
  6
Continuous
 62
     6
100
AcDbCircle
 10
1273.082636975265
 20
1346.94454371314
 30
0.0
 40
12.53965244746282
  0
CIRCLE
  5
8395
330
1F
100
AcDbEntity
  8
LOGO
  6
Continuous
 62
     6
100
AcDbCircle
 10
1273.082636975265
 20
1346.94454371314
 30
0.0
 40
7.347126261588448
  0
LINE
  5
8396
330
1F
100
AcDbEntity
  8
LOGO
 62
     6
100
AcDbLine
 10
1351.883267994855
 20
1334.404891265676
 30
0.0
 11
1351.883267994855
 21
1359.484196160603
 31
0.0
  0
LINE
  5
8397
330
1F
100
AcDbEntity
  8
LOGO
 62
     6
100
AcDbLine
 10
1312.572177382452
 20
1339.597417451552
 30
0.0
 11
1312.572177382452
 21
1354.29166997473
 31
0.0
  0
LINE
  5
8398
330
1F
100
AcDbEntity
  8
LOGO
  6
Continuous
 62
     6
100
AcDbLine
 10
1312.572177382452
 20
1354.29166997473
 30
0.0
 11
1351.883267994855
 21
1359.484196160603
 31
0.0
  0
LINE
  5
8399
330
1F
100
AcDbEntity
  8
LOGO
  6
Continuous
 62
     6
100
AcDbLine
 10
1312.572177382452
 20
1339.597417451552
 30
0.0
 11
1351.883267994855
 21
1334.404891265676
 31
0.0
  0
LINE
  5
839A
330
1F
100
AcDbEntity
  8
LOGO
 62
     6
100
AcDbLine
 10
2296.234948729248
 20
1390.092092641419
 30
0.0
 11
2180.652778109457
 21
1390.092092641419
 31
0.0
  0
LINE
  5
839B
330
1F
100
AcDbEntity
  8
LOGO
 62
     6
100
AcDbLine
 10
2316.998427846838
 20
1292.906166849565
 30
0.0
 11
2182.279061961508
 21
1292.906166849565
 31
0.0
  0
LINE
  5
839C
330
1F
100
AcDbEntity
  8
LOGO
 62
     6
100
AcDbLine
 10
2296.234948729248
 20
1325.301475446848
 30
0.0
 11
2180.652778109457
 21
1325.301475446848
 31
0.0
  0
LINE
  5
839D
330
1F
100
AcDbEntity
  8
LOGO
 62
     6
100
AcDbLine
 10
2316.998427846838
 20
1213.717634722868
 30
0.0
 11
2182.279061961508
 21
1213.717634722867
 31
0.0
  0
LINE
  5
839E
330
1F
100
AcDbEntity
  8
LOGO
 62
     6
100
AcDbLine
 10
2182.279061961508
 20
1292.906166849565
 30
0.0
 11
2182.279061961508
 21
1213.717634722868
 31
0.0
  0
LINE
  5
839F
330
1F
100
AcDbEntity
  8
LOGO
 62
     6
100
AcDbLine
 10
2160.614548805206
 20
1292.906166849565
 30
0.0
 11
2160.614548805206
 21
1213.717634722867
 31
0.0
  0
LINE
  5
83A0
330
1F
100
AcDbEntity
  8
LOGO
 62
     6
100
AcDbLine
 10
2052.170229317666
 20
1292.906166849565
 30
0.0
 11
2052.170229317666
 21
1213.717634722867
 31
0.0
  0
LINE
  5
83A1
330
1F
100
AcDbEntity
  8
LOGO
 62
     6
100
AcDbLine
 10
1819.097597352044
 20
1292.906166849565
 30
0.0
 11
1819.097597352044
 21
1213.717634722867
 31
0.0
  0
LINE
  5
83A2
330
1F
100
AcDbEntity
  8
LOGO
 62
     6
100
AcDbLine
 10
1675.118448030781
 20
1292.906166849565
 30
0.0
 11
1675.118448030781
 21
1213.717634722867
 31
0.0
  0
LINE
  5
83A3
330
1F
100
AcDbEntity
  8
LOGO
 62
     6
100
AcDbLine
 10
1819.097597352044
 20
1213.717634722867
 30
0.0
 11
1675.118448030781
 21
1213.717634722867
 31
0.0
  0
LINE
  5
83A4
330
1F
100
AcDbEntity
  8
LOGO
 62
     6
100
AcDbLine
 10
2160.614548805206
 20
1213.717634722867
 30
0.0
 11
2052.170229317666
 21
1213.717634722867
 31
0.0
  0
LINE
  5
83A5
330
1F
100
AcDbEntity
  8
LOGO
  6
Continuous
 62
     7
100
AcDbLine
 10
1932.014395641561
 20
1357.467285438693
 30
0.0
 11
1960.623568090108
 21
1357.467285438693
 31
0.0
  0
LINE
  5
83A6
330
1F
100
AcDbEntity
  8
LOGO
 62
     6
100
AcDbLine
 10
1853.847580937885
 20
1390.092092641419
 30
0.0
 11
1674.127870415724
 21
1390.092092641419
 31
0.0
  0
LINE
  5
83A7
330
1F
100
AcDbEntity
  8
LOGO
 62
     6
100
AcDbLine
 10
1853.847580937885
 20
1325.301475446848
 30
0.0
 11
1674.127870415724
 21
1325.301475446848
 31
0.0
  0
LINE
  5
83A8
330
1F
100
AcDbEntity
  8
LOGO
 62
     6
100
AcDbLine
 10
1674.127870415724
 20
1390.092092641419
 30
0.0
 11
1674.127870415724
 21
1325.301475446848
 31
0.0
  0
LINE
  5
83A9
330
1F
100
AcDbEntity
  8
LOGO
 62
     6
100
AcDbLine
 10
1853.847580937885
 20
1390.092092641419
 30
0.0
 11
1853.847580937885
 21
1325.301475446848
 31
0.0
  0
LINE
  5
83AA
330
1F
100
AcDbEntity
  8
LOGO
 62
     6
100
AcDbLine
 10
1763.987725676804
 20
1325.301475446848
 30
0.0
 11
1763.987725676804
 21
1292.906166849565
 31
0.0
  0
TEXT
  5
83AB
330
1F
100
AcDbEntity
  8
LOGO
  6
Continuous
 62
     7
100
AcDbText
 10
1688.186237496406
 20
1339.699390378975
 30
0.0
 40
35.99478733031673
  1
MF103
  7
CHINESET
 72
     1
 11
1767.031962124719
 21
1357.696784044133
 31
0.0
100
AcDbText
 73
     2
  0
LINE
  5
83AC
330
1F
100
AcDbEntity
  8
LOGO
 62
     6
100
AcDbLine
 10
1819.097597352044
 20
1292.906166849565
 30
0.0
 11
1675.118448030781
 21
1292.906166849565
 31
0.0
  0
LINE
  5
83AD
330
1F
100
AcDbEntity
  8
LOGO
 62
     6
100
AcDbLine
 10
2130.82033894066
 20
1390.092092641419
 30
0.0
 11
1973.995502904061
 21
1390.092092641419
 31
0.0
  0
LINE
  5
83AE
330
1F
100
AcDbEntity
  8
LOGO
 62
     6
100
AcDbLine
 10
2160.614548805206
 20
1292.906166849565
 30
0.0
 11
2052.170229317666
 21
1292.906166849565
 31
0.0
  0
LINE
  5
83AF
330
1F
100
AcDbEntity
  8
LOGO
 62
     6
100
AcDbLine
 10
2130.82033894066
 20
1325.301475446848
 30
0.0
 11
1973.995502904061
 21
1325.301475446848
 31
0.0
  0
TEXT
  5
83B0
330
1F
100
AcDbEntity
  8
LOGO
  6
Continuous
 62
     7
100
AcDbText
 10
1985.080041755772
 20
1339.291207222519
 30
0.0
 40
35.99478733031673
  1
3000
  7
CHINESET
 72
     1
 11
2048.499428956807
 21
1357.288600887677
 31
0.0
100
AcDbText
 73
     2
  0
LINE
  5
83B2
330
1F
100
AcDbEntity
  8
LOGO
 62
     6
100
AcDbLine
 10
1973.995502904061
 20
1390.092092641419
 30
0.0
 11
1973.995502904061
 21
1325.301475446848
 31
0.0
  0
TEXT
  5
83B3
330
1F
100
AcDbEntity
  8
LOGO
  6
Continuous
 62
     7
100
AcDbText
 10
2232.376171625114
 20
1339.291207222519
 30
0.0
 40
35.99478733031673
  1
?
  7
CHINESET
 72
     1
 11
2241.803377830674
 21
1357.288600887677
 31
0.0
100
AcDbText
 73
     2
  0
LINE
  5
83B4
330
1F
100
AcDbEntity
  8
LOGO
  6
Continuous
 62
     7
100
AcDbLine
 10
2140.839069075017
 20
1357.467285438693
 30
0.0
 11
2169.448241523584
 21
1357.467285438693
 31
0.0
  0
LINE
  5
83B6
330
1F
100
AcDbEntity
  8
LOGO
 62
     6
100
AcDbLine
 10
2180.652778109457
 20
1390.092092641419
 30
0.0
 11
2180.652778109457
 21
1325.301475446848
 31
0.0
  0
LINE
  5
83B7
330
1F
100
AcDbEntity
  8
LOGO
 62
     6
100
AcDbLine
 10
2130.82033894066
 20
1390.092092641419
 30
0.0
 11
2130.82033894066
 21
1325.301475446848
 31
0.0
  0
LINE
  5
83BA
330
1F
100
AcDbEntity
  8
LOGO
 62
     6
100
AcDbLine
 10
2316.998427846838
 20
1292.906166849565
 30
0.0
 11
2316.998427846838
 21
1213.717634722868
 31
0.0
  0
LINE
  5
83C2
330
1F
100
AcDbEntity
  8
LOGO
 62
     6
100
AcDbLine
 10
2296.234948729248
 20
1390.092092641419
 30
0.0
 11
2296.234948729248
 21
1325.301475446848
 31
0.0
  0
TEXT
  5
83C5
330
1F
100
AcDbEntity
  8
LOGO
 62
     6
100
AcDbText
 10
1078.126125518009
 20
1379.30428482441
 30
1415.423438208538
 40
21.59687239819005
  1
比例 Scale:
 41
0.9
  7
CHINESET
 72
     4
 11
1146.705836843154
 21
1390.092092641419
 31
1415.423438208538
100
AcDbText
  0
TEXT
  5
83C6
330
1F
100
AcDbEntity
  8
LOGO
 62
     6
100
AcDbText
 10
1085.675389396483
 20
1336.403706233893
 30
1415.423438208538
 40
21.59687239819005
  1
投影 View:
 41
0.9
  7
CHINESET
 72
     4
 11
1146.705836843154
 21
1346.898347845038
 31
1415.423438208538
100
AcDbText
  0
TEXT
  5
83C7
330
1F
100
AcDbEntity
  8
LOGO
 62
     6
100
AcDbText
 10
1087.786869331842
 20
1292.906166849564
 30
1415.423438208538
 40
21.59687239819005
  1
單位 Unit:
 41
0.9
  7
CHINESET
 72
     4
 11
1146.705836843154
 21
1303.704603048658
 31
1415.423438208538
100
AcDbText
  0
TEXT
  5
83C8
330
1F
100
AcDbEntity
  8
LOGO
  6
Continuous
 62
     6
100
AcDbText
 10
1712.827272853016
 20
1222.716331555445
 30
1415.423438208538
 40
17.99739366515836
  1
Model
  7
CHINESET
 72
     4
 11
1747.108022691413
 21
1231.715028388024
 31
1415.423438208538
100
AcDbText
  0
TEXT
  5
83C9
330
1F
100
AcDbEntity
  8
LOGO
  6
Continuous
 62
     6
100
AcDbText
 10
2062.81592199354
 20
1225.715897166305
 30
1415.423438208538
 40
17.99739366515836
  1
output
  7
CHINESET
 72
     4
 11
2104.809840545576
 21
1231.715028388024
 31
1415.423438208538
100
AcDbText
  0
TEXT
  5
83CA
330
1F
100
AcDbEntity
  8
LOGO
  6
Continuous
 62
     6
100
AcDbText
 10
2221.134794059944
 20
1225.715897166305
 30
1415.423438208538
 40
17.99739366515836
  1
Option
 41
0.8
  7
CHINESET
 72
     4
 11
2253.015891409653
 21
1231.715028388024
 31
1415.423438208538
100
AcDbText
  0
TEXT
  5
83CB
330
1F
100
AcDbEntity
  8
LOGO
 62
     6
100
AcDbText
 10
1717.712279704988
 20
1253.680351365186
 30
1415.423438208538
 40
28.79582986425339
  1
型號
  7
CHINESET
 72
     4
 11
1747.108022691413
 21
1267.709815718341
 31
1415.423438208538
100
AcDbText
  0
TEXT
  5
83CC
330
1F
100
AcDbEntity
  8
LOGO
 62
     6
100
AcDbText
 10
2062.256160537025
 20
1253.4134608817
 30
1415.423438208538
 40
28.79582986425339
  1
工作力
  7
CHINESET
 72
     4
 11
2104.809840545576
 21
1267.709815718341
 31
1415.423438208538
100
AcDbText
  0
TEXT
  5
83CD
330
1F
100
AcDbEntity
  8
LOGO
 62
     6
100
AcDbText
 10
2200.966578659448
 20
1253.548087054786
 30
1415.423438208538
 40
28.79582986425339
  1
選用配件
 41
0.9
  7
CHINESET
 72
     4
 11
2253.015891409653
 21
1267.709815718341
 31
1415.423438208538
100
AcDbText
  0
LWPOLYLINE
  5
83D0
330
1F
100
AcDbEntity
  8
0
 62
     4
100
AcDbPolyline
 90
        4
 70
     1
 43
0.0
 10
901.9412829969979
 20
1411.688965039609
 10
2672.770044526831
 20
1411.688965039609
 10
2672.770044526831
 20
3216.765525622485
 10
901.9412829969979
 20
3216.765525622485
1001
GENIUS_GENREC_14
1002
{
1000
PYDIR
1011
901.9412829969979
1021
3216.765525622485
1031
0.0
1002
}
1002
{
1000
PXDIR
1011
2672.770044526831
1021
1411.688965039609
1031
0.0
1002
}
1002
{
1000
PORI
1011
901.9412829969979
1021
1411.688965039609
1031
0.0
1002
}
1002
{
1000
PINS
1011
901.9412829969979
1021
1411.688965039609
1031
0.0
1002
}
1002
{
1000
PINS2
1011
2672.770044526831
1021
3216.765525622485
1031
0.0
1002
}
1002
{
1000
C
1070
     1
1002
}
1001
GENIUS_GENODEF_13
1002
{
1000
HIER
1070
     0
1002
}
1002
{
1000
MANEDIT
1070
     0
1002
}
1002
{
1000
NOSEL
1070
     0
1002
}
1002
{
1000
BEHIND
1070
     0
1002
}
1002
{
1000
OTHER
1070
     0
1002
}
1002
{
1000
REACTOR
1002
}
1001
GENIUS_GENOBJ-N-REC_13
1002
{
1000
OWNER
1000
GEN
1002
}
  0
SOLID
  5
83D1
330
1F
100
AcDbEntity
  8
LOGO
 62
     5
100
AcDbTrace
 10
924.3483847135612
 20
1318.009456939744
 30
0.0
 11
933.6863056365968
 21
1318.00945693974
 31
0.0
 12
972.6479756948299
 22
1406.558707072076
 32
0.0
 13
981.9858966178653
 23
1406.558707072068
 33
0.0
  0
SOLID
  5
83D2
330
1F
100
AcDbEntity
  8
LOGO
 62
     5
100
AcDbTrace
 10
937.5502729151085
 20
1318.009456939744
 30
0.0
 11
946.8881938381441
 21
1318.009456939744
 31
0.0
 12
981.9858966178653
 22
1399.474767061484
 32
0.0
 13
972.6479756948299
 23
1365.235723676982
 33
0.0
  0
SOLID
  5
83D3
330
1F
100
AcDbEntity
  8
LOGO
 62
     2
100
AcDbTrace
 10
933.6863056365968
 20
1318.00945693974
 30
0.0
 11
937.5502729151085
 21
1318.009456939744
 31
0.0
 12
981.9858966178653
 22
1406.558707072068
 32
0.0
 13
985.8498638963771
 23
1406.558707072068
 33
0.0
  0
SOLID
  5
83D4
330
1F
100
AcDbEntity
  8
LOGO
 62
     5
100
AcDbTrace
 10
909.3774075352019
 20
1285.809729618899
 30
0.0
 11
912.5973802672852
 21
1285.809729618899
 31
0.0
 12
921.6650741034886
 22
1301.909593279318
 32
0.0
 13
924.8850468355719
 23
1301.909593279318
 33
0.0
  0
SOLID
  5
83D5
330
1F
100
AcDbEntity
  8
LOGO
 62
     5
100
AcDbTrace
 10
921.6650741034886
 20
1301.909593279318
 30
0.0
 11
924.8850468355719
 21
1301.909593279318
 31
0.0
 12
921.6650741034886
 22
1285.809729618899
 32
0.0
 13
924.8850468355719
 23
1285.809729618899
 33
0.0
  0
SOLID
  5
83D6
330
1F
100
AcDbEntity
  8
LOGO
 62
     5
100
AcDbTrace
 10
921.6650741034886
 20
1285.809729618899
 30
0.0
 11
924.8850468355719
 21
1285.809729618899
 31
0.0
 12
933.9527406717753
 22
1301.909593279318
 32
0.0
 13
937.1727134038586
 23
1301.909593279318
 33
0.0
  0
SOLID
  5
83D7
330
1F
100
AcDbEntity
  8
LOGO
 62
     5
100
AcDbTrace
 10
933.9527406717753
 20
1301.909593279318
 30
0.0
 11
937.1727134038586
 21
1301.909593279318
 31
0.0
 12
933.9527406717753
 22
1285.809729618899
 32
0.0
 13
937.1727134038586
 23
1285.809729618899
 33
0.0
  0
POLYLINE
  5
83D8
330
1F
100
AcDbEntity
  8
LOGO
 62
     5
100
AcDb2dPolyline
 66
     1
 10
0.0
 20
0.0
 30
0.0
 40
3.225132944796378
 41
3.225132944796378
  0
VERTEX
  5
83D9
330
83D8
100
AcDbEntity
  8
LOGO
 62
     5
100
AcDbVertex
100
AcDb2dVertex
 10
1041.885129753712
 20
1295.469647815149
 30
0.0
 42
1.0
  0
VERTEX
  5
83DA
330
83D8
100
AcDbEntity
  8
LOGO
 62
     5
100
AcDbVertex
100
AcDb2dVertex
 10
1032.209730919336
 20
1295.469647815149
 30
0.0
 42
1.0
  0
SEQEND
  5
83DB
330
83D8
100
AcDbEntity
  8
LOGO
 62
     5
  0
POLYLINE
  5
83DC
330
1F
100
AcDbEntity
  8
LOGO
 62
     5
100
AcDb2dPolyline
 66
     1
 10
0.0
 20
0.0
 30
0.0
 70
     1
  0
VERTEX
  5
83DD
330
83DC
100
AcDbEntity
  8
LOGO
 62
     5
100
AcDbVertex
100
AcDb2dVertex
 10
1013.971173754757
 20
1293.859661449108
 30
0.0
 42
1.000000057330635
  0
VERTEX
  5
83DE
330
83DC
100
AcDbEntity
  8
LOGO
 62
     5
100
AcDbVertex
100
AcDb2dVertex
 10
1023.631091951026
 20
1293.859661449108
 30
0.0
 42
1.000000057330635
  0
SEQEND
  5
83DF
330
83DC
100
AcDbEntity
  8
LOGO
 62
     5
  0
CIRCLE
  5
83E0
330
1F
100
AcDbEntity
  8
LOGO
 62
     5
100
AcDbCircle
 10
1018.801132852892
 20
1293.859661449108
 30
0.0
 40
4.829959098127059
  0
POLYLINE
  5
83E1
330
1F
100
AcDbEntity
  8
LOGO
 62
     5
100
AcDb2dPolyline
 66
     1
 10
0.0
 20
0.0
 30
0.0
 70
     1
 40
3.225132944796378
 41
3.225132944796378
  0
VERTEX
  5
83E2
330
83E1
100
AcDbEntity
  8
LOGO
 62
     5
100
AcDbVertex
100
AcDb2dVertex
 10
1012.350866963294
 20
1293.859661449108
 30
0.0
 42
1.0
  0
VERTEX
  5
83E3
330
83E1
100
AcDbEntity
  8
LOGO
 62
     5
100
AcDbVertex
100
AcDb2dVertex
 10
1025.251398742489
 20
1293.859661449108
 30
0.0
 42
1.0
  0
SEQEND
  5
83E4
330
83E1
100
AcDbEntity
  8
LOGO
 62
     5
  0
LINE
  5
83E5
330
1F
100
AcDbEntity
  8
LOGO
 62
     5
100
AcDbLine
 10
1043.487375800701
 20
1285.809729618899
 30
0.0
 11
1043.487375800701
 21
1295.469647815149
 31
0.0
  0
SOLID
  5
83E6
330
1F
100
AcDbEntity
  8
LOGO
 62
     5
100
AcDbTrace
 10
1023.630769953753
 20
1301.909593279318
 30
0.0
 11
1026.850742685836
 21
1301.909593279318
 31
0.0
 12
1023.630769953753
 22
1285.809729618899
 32
0.0
 13
1026.850742685836
 23
1285.809729618899
 33
0.0
  0
SOLID
  5
83E7
330
1F
100
AcDbEntity
  8
LOGO
 62
     5
100
AcDbTrace
 10
1030.607484872348
 20
1285.809729618899
 30
0.0
 11
1033.827457604451
 21
1285.809729618899
 31
0.0
 12
1030.607484872348
 22
1301.909593279318
 32
0.0
 13
1033.827457604451
 23
1301.909593279318
 33
0.0
  0
SOLID
  5
83E8
330
1F
100
AcDbEntity
  8
LOGO
 62
     5
100
AcDbTrace
 10
1040.267403068617
 20
1295.469647815149
 30
0.0
 11
1043.487375800701
 21
1295.469647815149
 31
0.0
 12
1040.267403068617
 22
1285.809729618899
 32
0.0
 13
1043.487375800701
 23
1285.809729618899
 33
0.0
  0
SOLID
  5
83E9
330
1F
100
AcDbEntity
  8
LOGO
 62
     5
100
AcDbTrace
 10
1030.285487599154
 20
1399.474767061484
 30
0.0
 11
1020.947566676098
 21
1365.235723676982
 31
0.0
 12
1030.285487599154
 22
1318.00945693974
 32
0.0
 13
1020.947566676098
 23
1318.00945693974
 33
0.0
  0
SOLID
  5
83EA
330
1F
100
AcDbEntity
  8
LOGO
 62
     5
100
AcDbTrace
 10
1034.149454877645
 20
1318.00945693974
 30
0.0
 11
1043.487375800701
 21
1318.00945693974
 31
0.0
 12
1034.149454877645
 22
1406.558707072068
 32
0.0
 13
1043.487375800701
 23
1406.558707072076
 33
0.0
  0
SOLID
  5
83EB
330
1F
100
AcDbEntity
  8
LOGO
 62
     2
100
AcDbTrace
 10
1030.285487599154
 20
1406.558707072076
 30
0.0
 11
1034.149454877645
 21
1406.558707072068
 31
0.0
 12
1030.285487599154
 22
1318.00945693974
 32
0.0
 13
1034.149454877645
 23
1318.00945693974
 33
0.0
  0
POLYLINE
  5
83EC
330
1F
100
AcDbEntity
  8
LOGO
 62
     5
100
AcDb2dPolyline
 66
     1
 10
0.0
 20
0.0
 30
0.0
 40
3.225132944796378
 41
3.225132944796378
  0
VERTEX
  5
83ED
330
83EC
100
AcDbEntity
  8
LOGO
 62
     5
100
AcDbVertex
100
AcDb2dVertex
 10
995.7319725956507
 20
1295.469647815149
 30
0.0
 42
1.0
  0
VERTEX
  5
83EE
330
83EC
100
AcDbEntity
  8
LOGO
 62
     5
100
AcDbVertex
100
AcDb2dVertex
 10
986.0565737612741
 20
1295.469647815149
 30
0.0
 42
1.0
  0
SEQEND
  5
83EF
330
83EC
100
AcDbEntity
  8
LOGO
 62
     5
  0
POLYLINE
  5
83F0
330
1F
100
AcDbEntity
  8
LOGO
 62
     5
100
AcDb2dPolyline
 66
     1
 10
0.0
 20
0.0
 30
0.0
 40
3.225132944796378
 41
3.225132944796378
  0
VERTEX
  5
83F1
330
83F0
100
AcDbEntity
  8
LOGO
 62
     5
100
AcDbVertex
100
AcDb2dVertex
 10
1005.3918907919
 20
1295.469647815149
 30
0.0
 42
1.0
  0
VERTEX
  5
83F2
330
83F0
100
AcDbEntity
  8
LOGO
 62
     5
100
AcDbVertex
100
AcDb2dVertex
 10
995.7164919575239
 20
1295.469647815149
 30
0.0
 42
1.0
  0
SEQEND
  5
83F3
330
83F0
100
AcDbEntity
  8
LOGO
 62
     5
  0
POLYLINE
  5
83F4
330
1F
100
AcDbEntity
  8
LOGO
 62
     5
100
AcDb2dPolyline
 66
     1
 10
0.0
 20
0.0
 30
0.0
 40
3.225132944796378
 41
3.225132944796378
  0
VERTEX
  5
83F5
330
83F4
100
AcDbEntity
  8
LOGO
 62
     5
100
AcDbVertex
100
AcDb2dVertex
 10
959.2387336338383
 20
1295.469647815149
 30
0.0
 42
1.0
  0
VERTEX
  5
83F6
330
83F4
100
AcDbEntity
  8
LOGO
 62
     5
100
AcDbVertex
100
AcDb2dVertex
 10
949.5633347994619
 20
1295.469647815149
 30
0.0
 42
1.0
  0
SEQEND
  5
83F7
330
83F4
100
AcDbEntity
  8
LOGO
 62
     5
  0
SOLID
  5
83F8
330
1F
100
AcDbEntity
  8
LOGO
 62
     5
100
AcDbTrace
 10
947.9610887524934
 20
1301.909593279318
 30
0.0
 11
951.181061484557
 21
1301.909593279318
 31
0.0
 12
947.9610887524934
 22
1285.809729618899
 32
0.0
 13
951.181061484557
 23
1285.809729618899
 33
0.0
  0
SOLID
  5
83F9
330
1F
100
AcDbEntity
  8
LOGO
 62
     5
100
AcDbTrace
 10
957.621006948743
 20
1295.469647815149
 30
0.0
 11
960.8409796808263
 21
1295.469647815149
 31
0.0
 12
957.621006948743
 22
1285.809729618899
 32
0.0
 13
960.8409796808263
 23
1285.809729618899
 33
0.0
  0
POLYLINE
  5
83FA
330
1F
100
AcDbEntity
  8
LOGO
 62
     5
100
AcDb2dPolyline
 66
     1
 10
0.0
 20
0.0
 30
0.0
 70
     1
 40
3.225132944796378
 41
3.225132944796378
  0
VERTEX
  5
83FB
330
83FA
100
AcDbEntity
  8
LOGO
 62
     5
100
AcDbVertex
100
AcDb2dVertex
 10
966.1977098052323
 20
1293.859661449108
 30
0.0
 42
1.0
  0
VERTEX
  5
83FC
330
83FA
100
AcDbEntity
  8
LOGO
 62
     5
100
AcDbVertex
100
AcDb2dVertex
 10
979.098241584427
 20
1293.859661449108
 30
0.0
 42
1.0
  0
SEQEND
  5
83FD
330
83FA
100
AcDbEntity
  8
LOGO
 62
     5
  0
SOLID
  5
83FE
330
1F
100
AcDbEntity
  8
LOGO
 62
     5
100
AcDbTrace
 10
977.477612795691
 20
1306.739552377449
 30
0.0
 11
980.6975855277741
 21
1306.739552377449
 31
0.0
 12
977.477612795691
 22
1285.809729618899
 32
0.0
 13
980.6975855277741
 23
1285.809729618899
 33
0.0
  0
SOLID
  5
83FF
330
1F
100
AcDbEntity
  8
LOGO
 62
     5
100
AcDbTrace
 10
984.4543277142859
 20
1301.909593279318
 30
0.0
 11
987.6743004463889
 21
1301.909593279318
 31
0.0
 12
984.4543277142859
 22
1285.809729618899
 32
0.0
 13
987.6743004463889
 23
1285.809729618899
 33
0.0
  0
SOLID
  5
8400
330
1F
100
AcDbEntity
  8
LOGO
 62
     5
100
AcDbTrace
 10
994.1142459105554
 20
1295.469647815149
 30
0.0
 11
997.3342186426387
 21
1295.469647815149
 31
0.0
 12
994.1142459105554
 22
1285.809729618899
 32
0.0
 13
997.3342186426387
 23
1285.809729618899
 33
0.0
  0
SOLID
  5
8401
330
1F
100
AcDbEntity
  8
LOGO
 62
     5
100
AcDbTrace
 10
1003.774164106805
 20
1295.469647815149
 30
0.0
 11
1006.994136838888
 21
1295.469647815149
 31
0.0
 12
1003.774164106805
 22
1285.809729618893
 32
0.0
 13
1006.994136838888
 23
1285.809729618893
 33
0.0
  0
SOLID
  5
8402
330
1F
100
AcDbEntity
  8
LOGO
 62
     5
100
AcDbTrace
 10
940.9843738338786
 20
1304.163574191776
 30
0.0
 11
944.2043465659619
 21
1304.163574191776
 31
0.0
 12
940.9843738338786
 22
1306.739552377449
 32
0.0
 13
944.2043465659619
 23
1306.739552377449
 33
0.0
  0
SOLID
  5
8403
330
1F
100
AcDbEntity
  8
LOGO
 62
     5
100
AcDbTrace
 10
940.9843738338786
 20
1301.909593279318
 30
0.0
 11
944.2043465659619
 21
1301.909593279318
 31
0.0
 12
940.9843738338786
 22
1285.809729618893
 32
0.0
 13
944.2043465659619
 23
1285.809729618899
 33
0.0
  0
SOLID
  5
8404
330
1F
100
AcDbEntity
  8
LOGO
 62
     5
100
AcDbTrace
 10
972.6479756948299
 20
1318.009456939744
 30
0.0
 11
981.9858966178653
 21
1318.009456939744
 31
0.0
 12
972.6479756948299
 22
1365.235723676982
 32
0.0
 13
981.9858966178653
 23
1399.474767061484
 33
0.0
  0
SOLID
  5
8405
330
1F
100
AcDbEntity
  8
LOGO
 62
     5
100
AcDbTrace
 10
985.8498638963771
 20
1406.558707072068
 30
0.0
 11
995.1877848194323
 21
1406.558707072076
 31
0.0
 12
985.8498638963771
 22
1325.093396950328
 32
0.0
 13
995.1877848194323
 23
1359.33244033483
 33
0.0
  0
SOLID
  5
8406
330
1F
100
AcDbEntity
  8
LOGO
 62
     2
100
AcDbTrace
 10
981.9858966178653
 20
1406.558707072068
 30
0.0
 11
985.8498638963771
 21
1406.558707072068
 31
0.0
 12
981.9858966178653
 22
1318.009456939744
 32
0.0
 13
985.8498638963771
 23
1318.009456939744
 33
0.0
  0
SOLID
  5
8407
330
1F
100
AcDbEntity
  8
LOGO
 62
     5
100
AcDbTrace
 10
985.8498638963771
 20
1325.093396950328
 30
0.0
 11
995.1877848194323
 21
1359.33244033483
 31
0.0
 12
1030.285487599154
 22
1406.558707072076
 32
0.0
 13
1020.947566676098
 23
1406.558707072076
 33
0.0
  0
SOLID
  5
8408
330
1F
100
AcDbEntity
  8
LOGO
 62
     5
100
AcDbTrace
 10
985.8498638963771
 20
1318.009456939744
 30
0.0
 11
995.1877848194323
 21
1318.009456939744
 31
0.0
 12
1030.285487599154
 22
1399.474767061484
 32
0.0
 13
1020.947566676098
 23
1365.235723676982
 33
0.0
  0
SOLID
  5
8409
330
1F
100
AcDbEntity
  8
LOGO
 62
     2
100
AcDbTrace
 10
981.9858966178653
 20
1318.009456939744
 30
0.0
 11
985.8498638963771
 21
1318.009456939744
 31
0.0
 12
1030.285487599154
 22
1406.558707072076
 32
0.0
 13
1034.149454877645
 23
1406.558707072068
 33
0.0
  0
TEXT
  5
840A
330
1F
100
AcDbEntity
  8
0
100
AcDbText
 10
1389.386597497018
 20
1207.209691932055
 30
0.0
 40
18.00889199999999
  1
1050701
 41
0.8
  7
CHINESET
 72
     1
 11
1430.89280572559
 21
1207.209691932055
 31
0.0
100
AcDbText
  0
LINE
  5
840B
330
1F
100
AcDbEntity
  8
LOGO
 62
     1
100
AcDbLine
 10
1486.457670295441
 20
1238.913985854089
 30
0.0
 11
1486.457670295441
 21
1195.720241057709
 31
0.0
  0
LINE
  5
840C
330
1F
100
AcDbEntity
  8
LOGO
 62
     1
100
AcDbLine
 10
1486.457670295441
 20
1238.913985854089
 30
0.0
 11
1377.072475757183
 21
1238.913985854089
 31
0.0
  0
LWPOLYLINE
  5
840D
330
1F
100
AcDbEntity
  8
0
 62
     1
100
AcDbPolyline
 90
        4
 70
     1
 43
0.0
 10
901.9412829969979
 20
1411.688965039609
 10
2672.770044526831
 20
1411.688965039609
 10
2672.770044526831
 20
1195.720241057709
 10
901.9412829969979
 20
1195.720241057709
1001
GENIUS_GENREC_14
1002
{
1000
PYDIR
1011
901.9412829969979
1021
1195.720241057709
1031
0.0
1002
}
1002
{
1000
PXDIR
1011
2672.770044526831
1021
1411.688965039609
1031
0.0
1002
}
1002
{
1000
PORI
1011
901.9412829969979
1021
1411.688965039609
1031
0.0
1002
}
1002
{
1000
PINS
1011
901.9412829969979
1021
1411.688965039609
1031
0.0
1002
}
1002
{
1000
PINS2
1011
2672.770044526831
1021
1195.720241057709
1031
0.0
1002
}
1002
{
1000
C
1070
     1
1002
}
1001
GENIUS_GENOBJ-N-REC_13
1002
{
1000
OWNER
1000
GEN
1002
}
1001
GENIUS_GENODEF_13
1002
{
1000
HIER
1070
     0
1002
}
1002
{
1000
MANEDIT
1070
     0
1002
}
1002
{
1000
NOSEL
1070
     0
1002
}
1002
{
1000
BEHIND
1070
     0
1002
}
1002
{
1000
OTHER
1070
     0
1002
}
1002
{
1000
REACTOR
1002
}
  0
LINE
  5
8535
330
1F
100
AcDbEntity
  8
LOGO
 62
     6
100
AcDbLine
 10
2040.556266708684
 20
1292.906166849565
 30
0.0
 11
2040.556266708684
 21
1213.717634722867
 31
0.0
  0
LINE
  5
8536
330
1F
100
AcDbEntity
  8
LOGO
 62
     6
100
AcDbLine
 10
1835.247598631772
 20
1292.906166849565
 30
0.0
 11
1835.247598631772
 21
1213.717634722867
 31
0.0
  0
LINE
  5
8537
330
1F
100
AcDbEntity
  8
LOGO
 62
     6
100
AcDbLine
 10
2040.556266708684
 20
1213.717634722867
 30
0.0
 11
1835.247598631772
 21
1213.717634722867
 31
0.0
  0
LINE
  5
8538
330
1F
100
AcDbEntity
  8
LOGO
 62
     6
100
AcDbLine
 10
1916.151410220902
 20
1390.092092641419
 30
0.0
 11
1862.457506556315
 21
1390.092092641419
 31
0.0
  0
LINE
  5
8539
330
1F
100
AcDbEntity
  8
LOGO
 62
     6
100
AcDbLine
 10
1916.151410220902
 20
1325.301475446848
 30
0.0
 11
1862.457506556315
 21
1325.301475446848
 31
0.0
  0
LINE
  5
853A
330
1F
100
AcDbEntity
  8
LOGO
 62
     6
100
AcDbLine
 10
1862.457506556315
 20
1390.092092641419
 30
0.0
 11
1862.457506556315
 21
1325.301475446848
 31
0.0
  0
LINE
  5
853B
330
1F
100
AcDbEntity
  8
LOGO
 62
     6
100
AcDbLine
 10
1916.151410220902
 20
1390.092092641419
 30
0.0
 11
1916.151410220902
 21
1325.301475446848
 31
0.0
  0
LINE
  5
853C
330
1F
100
AcDbEntity
  8
LOGO
 62
     6
100
AcDbLine
 10
1937.901932670228
 20
1309.103821148207
 30
0.0
 11
1937.901932670228
 21
1292.906166849565
 31
0.0
  0
TEXT
  5
853D
330
1F
100
AcDbEntity
  8
LOGO
  6
Continuous
 62
     7
100
AcDbText
 10
1875.849506186107
 20
1339.699390378975
 30
0.0
 40
35.99478733031673
  1
B
  7
CHINESET
 72
     1
 11
1887.847768629546
 21
1357.696784044133
 31
0.0
100
AcDbText
 73
     2
  0
LINE
  5
853E
330
1F
100
AcDbEntity
  8
LOGO
 62
     6
100
AcDbLine
 10
2040.556266708684
 20
1292.906166849565
 30
0.0
 11
1835.247598631772
 21
1292.906166849565
 31
0.0
  0
TEXT
  5
853F
330
1F
100
AcDbEntity
  8
LOGO
  6
Continuous
 62
     6
100
AcDbText
 10
1845.356949636856
 20
1225.715897166305
 30
1415.423438208538
 40
17.99739366515836
  1
Series symbol
  7
CHINESET
 72
     4
 11
1937.057955454568
 21
1231.715028388024
 31
1415.423438208538
100
AcDbText
  0
TEXT
  5
8540
330
1F
100
AcDbEntity
  8
LOGO
 62
     6
100
AcDbText
 10
1878.266469481717
 20
1253.680351365186
 30
1415.423438208538
 40
28.79582986425339
  1
系列編號
  7
CHINESET
 72
     4
 11
1937.057955454568
 21
1267.709815718341
 31
1415.423438208538
100
AcDbText
  0
LINE
  5
8541
330
1F
100
AcDbEntity
  8
LOGO
 62
     6
100
AcDbLine
 10
1937.901932670228
 20
1309.103821148207
 30
0.0
 11
1889.304458388608
 21
1309.103821148207
 31
0.0
  0
LINE
  5
8542
330
1F
100
AcDbEntity
  8
LOGO
 62
     6
100
AcDbLine
 10
1889.304458388608
 20
1325.301475446848
 30
0.0
 11
1889.304458388608
 21
1309.103821148207
 31
0.0
  0
LINE
  5
8543
330
1F
100
AcDbEntity
  8
LOGO
 62
     6
100
AcDbLine
 10
2106.392389061436
 20
1309.103821148207
 30
0.0
 11
2106.392389061436
 21
1292.906166849565
 31
0.0
  0
LINE
  5
8544
330
1F
100
AcDbEntity
  8
LOGO
 62
     6
100
AcDbLine
 10
2106.392389061436
 20
1309.103821148207
 30
0.0
 11
2052.407920922361
 21
1309.103821148207
 31
0.0
  0
LINE
  5
8545
330
1F
100
AcDbEntity
  8
LOGO
 62
     6
100
AcDbLine
 10
2052.407920922361
 20
1325.301475446848
 30
0.0
 11
2052.407920922361
 21
1309.103821148207
 31
0.0
  0
LINE
  5
8549
330
1F
100
AcDbEntity
  8
LOGO
 62
     6
100
AcDbLine
 10
2238.443863419352
 20
1325.301475446848
 30
0.0
 11
2238.443863419352
 21
1292.906166849565
 31
0.0
  0
ENDSEC
  0
SECTION
  2
OBJECTS
  0
DICTIONARY
  5
C
330
0
100
AcDbDictionary
281
     1
  3
ACAD_COLOR
350
BE
  3
ACAD_GROUP
350
D
  3
ACAD_LAYOUT
350
1A
  3
ACAD_MATERIAL
350
BD
  3
ACAD_MLINESTYLE
350
17
  3
ACAD_PLOTSETTINGS
350
19
  3
ACAD_PLOTSTYLENAME
350
E
  3
ACAD_TABLESTYLE
350
11A
  3
ACDBHEADERROUNDTRIPXREC
350
85AA
  3
AcDbVariableDictionary
350
94
  3
AcmDictionary
350
5B
  3
AMG
350
41
  3
AMGSNAPSETTINGS
350
1B8
  3
DWGPROPS
350
85A9
  0
DICTIONARY
  5
3F9
330
2
100
AcDbDictionary
280
     1
281
     1
  3
ACAD_LAYERFILTERS
360
63AB
  3
ACAD_LAYERSTATES
360
72C
  3
ACLYDICTIONARY
360
63AA
  0
DICTIONARY
  5
8F
330
1F
100
AcDbDictionary
280
     1
281
     1
  0
DICTIONARY
  5
BE
102
{ACAD_REACTORS
330
C
102
}
330
C
100
AcDbDictionary
281
     1
  0
DICTIONARY
  5
D
102
{ACAD_REACTORS
330
C
102
}
330
C
100
AcDbDictionary
281
     1
  0
DICTIONARY
  5
1A
102
{ACAD_REACTORS
330
C
102
}
330
C
100
AcDbDictionary
281
     1
  3
Model
350
22
  3
配置1
350
1E
  3
配置2
350
26
  0
DICTIONARY
  5
BD
102
{ACAD_REACTORS
330
C
102
}
330
C
100
AcDbDictionary
281
     1
  0
DICTIONARY
  5
17
102
{ACAD_REACTORS
330
C
102
}
330
C
100
AcDbDictionary
281
     1
  3
Standard
350
18
  0
DICTIONARY
  5
19
102
{ACAD_REACTORS
330
C
102
}
330
C
100
AcDbDictionary
281
     1
  0
ACDBDICTIONARYWDFLT
  5
E
102
{ACAD_REACTORS
330
C
102
}
330
C
100
AcDbDictionary
281
     1
  3
Normal
350
F
  3
型式 1
350
728
  3
型式 2
350
729
  3
型式 3
350
72A
  3
型式 4
350
72B
100
AcDbDictionaryWithDefault
340
F
  0
DICTIONARY
  5
11A
102
{ACAD_REACTORS
330
C
102
}
330
C
100
AcDbDictionary
281
     1
  3
Standard
350
11B
  0
DICTIONARY
  5
85AA
102
{ACAD_REACTORS
330
C
102
}
330
C
100
AcDbDictionary
281
     1
  0
DICTIONARY
  5
94
102
{ACAD_REACTORS
330
C
102
}
330
C
100
AcDbDictionary
281
     1
  3
CTABLESTYLE
350
138
  3
DIMASSOC
350
96
  3
INDEXCTL
350
95
  3
PROJECTNAME
350
85A7
  0
DICTIONARY
  5
5B
102
{ACAD_REACTORS
330
C
102
}
330
C
100
AcDbDictionary
281
     1
  3
AcmBOM
350
1B5
  3
AcmStdDictionary
350
61
  3
AMDTSECTSYM_ARROWCOLOR
350
123
  0
DICTIONARY
  5
41
102
{ACAD_REACTORS
330
C
102
}
330
C
100
AcDbDictionary
281
     1
  0
DICTIONARY
  5
1B8
102
{ACAD_REACTORS
330
C
102
}
330
C
100
AcDbDictionary
281
     1
  0
XRECORD
  5
85A9
102
{ACAD_REACTORS
330
C
102
}
330
C
100
AcDbXrecord
280
     1
  1
DWGPROPS COOKIE
  2

  3

  4

  6

  7

  8

  9

300
AmdtFileType=84
301
=
302
=
303
=
304
=
305
=
306
=
307
=
308
=
309
=
 40
0.2894162268518519
 41
2453556.605858461
 42
2453557.592782836
  1

 90
        1
  0
DICTIONARY
  5
63AB
102
{ACAD_REACTORS
330
3F9
102
}
330
3F9
100
AcDbDictionary
281
     1
  0
DICTIONARY
  5
72C
102
{ACAD_REACTORS
330
3F9
102
}
330
3F9
100
AcDbDictionary
281
     1
  0
DICTIONARY
  5
63AA
102
{ACAD_REACTORS
330
3F9
102
}
330
3F9
100
AcDbDictionary
281
     1
1001
ACAD
1000
<All
  0
LAYOUT
  5
22
102
{ACAD_XDICTIONARY
360
85AD
102
}
102
{ACAD_REACTORS
330
1A
102
}
330
1A
100
AcDbPlotSettings
  1

  2
\\RD\EPSON Stylus C63 Series單色
  4
A4
  6

 40
3.757083177566528
 41
3.757076978683471
 42
3.757080078125
 43
3.757080078125
 44
209.9733276367187
 45
296.9683227539062
 46
0.0
 47
0.0
 48
0.0
 49
0.0
140
0.0
141
0.0
142
1.0
143
0.3405120737814363
 70
 11952
 72
     1
 73
     0
 74
     0
  7
彩色出圖.ctb
 75
     0
147
2.936753428137963
148
-2047.07469463503
149
-1261.649717473083
100
AcDbLayout
  1
Model
 70
     1
 71
     0
 10
0.0
 20
0.0
 11
12.0
 21
9.0
 12
0.0
 22
0.0
 32
0.0
 14
0.0
 24
0.0
 34
0.0
 15
0.0
 25
0.0
 35
0.0
146
0.0
 13
0.0
 23
0.0
 33
0.0
 16
1.0
 26
0.0
 36
0.0
 17
0.0
 27
1.0
 37
0.0
 76
     0
330
1F
1001
ACAD_PSEXT
1000
\\RD\EPSON Stylus C63 Series單色
1000
EPSON Stylus C63 Series
1000
\\RD
1000

1070
     0
  0
LAYOUT
  5
1E
102
{ACAD_XDICTIONARY
360
85AB
102
}
102
{ACAD_REACTORS
330
1A
102
}
330
1A
100
AcDbPlotSettings
  1

  2

  4

  6

 40
0.0
 41
0.0
 42
0.0
 43
0.0
 44
0.0
 45
0.0
 46
0.0
 47
0.0
 48
0.0
 49
0.0
140
0.0
141
0.0
142
1.0
143
1.0
 70
   688
 72
     0
 73
     0
 74
     5
  7
彩色出圖.ctb
 75
    16
147
1.0
148
0.0
149
0.0
100
AcDbLayout
  1
配置1
 70
     1
 71
     1
 10
0.0
 20
0.0
 11
420.0
 21
297.0
 12
0.0
 22
0.0
 32
0.0
 14
1.000000000000000E+20
 24
1.000000000000000E+20
 34
1.000000000000000E+20
 15
-1.000000000000000E+20
 25
-1.000000000000000E+20
 35
-1.000000000000000E+20
146
0.0
 13
0.0
 23
0.0
 33
0.0
 16
1.0
 26
0.0
 36
0.0
 17
0.0
 27
1.0
 37
0.0
 76
     0
330
1B
  0
LAYOUT
  5
26
102
{ACAD_XDICTIONARY
360
85AF
102
}
102
{ACAD_REACTORS
330
1A
102
}
330
1A
100
AcDbPlotSettings
  1

  2

  4

  6

 40
0.0
 41
0.0
 42
0.0
 43
0.0
 44
0.0
 45
0.0
 46
0.0
 47
0.0
 48
0.0
 49
0.0
140
0.0
141
0.0
142
1.0
143
1.0
 70
   688
 72
     0
 73
     0
 74
     5
  7
彩色出圖.ctb
 75
    16
147
1.0
148
0.0
149
0.0
100
AcDbLayout
  1
配置2
 70
     1
 71
     2
 10
0.0
 20
0.0
 11
12.0
 21
9.0
 12
0.0
 22
0.0
 32
0.0
 14
0.0
 24
0.0
 34
0.0
 15
0.0
 25
0.0
 35
0.0
146
0.0
 13
0.0
 23
0.0
 33
0.0
 16
1.0
 26
0.0
 36
0.0
 17
0.0
 27
1.0
 37
0.0
 76
     0
330
23
  0
MLINESTYLE
  5
18
102
{ACAD_REACTORS
330
17
102
}
330
17
100
AcDbMlineStyle
  2
STANDARD
 70
     0
  3

 62
   256
 51
90.0
 52
90.0
 71
     2
 49
0.5
 62
   256
  6
BYLAYER
 49
-0.5
 62
   256
  6
BYLAYER
  0
ACDBPLACEHOLDER
  5
F
102
{ACAD_REACTORS
330
E
102
}
330
E
  0
ACDBPLACEHOLDER
  5
728
102
{ACAD_REACTORS
330
E
102
}
330
E
  0
ACDBPLACEHOLDER
  5
729
102
{ACAD_REACTORS
330
E
102
}
330
E
  0
ACDBPLACEHOLDER
  5
72A
102
{ACAD_REACTORS
330
E
102
}
330
E
  0
ACDBPLACEHOLDER
  5
72B
102
{ACAD_REACTORS
330
E
102
}
330
E
  0
TABLESTYLE
  5
11B
102
{ACAD_REACTORS
330
11A
102
}
330
11A
100
AcDbTableStyle
  3
Standard
 70
     0
 71
     0
 40
1.5
 41
1.5
280
     0
281
     0
  7
STANDARD
140
4.5
170
     2
 62
     0
 63
     7
283
     0
274
    -2
284
     1
 64
     0
275
    -2
285
     1
 65
     0
276
    -2
286
     1
 66
     0
277
    -2
287
     1
 67
     0
278
    -2
288
     1
 68
     0
279
    -2
289
     1
 69
     0
  7
STANDARD
140
6.0
170
     5
 62
     0
 63
     7
283
     0
274
    -2
284
     1
 64
     0
275
    -2
285
     1
 65
     0
276
    -2
286
     1
 66
     0
277
    -2
287
     1
 67
     0
278
    -2
288
     1
 68
     0
279
    -2
289
     1
 69
     0
  7
STANDARD
140
4.5
170
     5
 62
     0
 63
     7
283
     0
274
    -2
284
     1
 64
     0
275
    -2
285
     1
 65
     0
276
    -2
286
     1
 66
     0
277
    -2
287
     1
 67
     0
278
    -2
288
     1
 68
     0
279
    -2
289
     1
 69
     0
  0
DICTIONARYVAR
  5
138
102
{ACAD_REACTORS
330
94
102
}
330
94
100
DictionaryVariables
280
     0
  1
STANDARD
  0
DICTIONARYVAR
  5
96
102
{ACAD_REACTORS
330
94
102
}
330
94
100
DictionaryVariables
280
     0
  1
2
  0
DICTIONARYVAR
  5
95
102
{ACAD_REACTORS
330
94
102
}
330
94
100
DictionaryVariables
280
     0
  1
0
  0
DICTIONARYVAR
  5
85A7
102
{ACAD_REACTORS
330
94
102
}
330
94
100
DictionaryVariables
280
     0
  1

  0
DICTIONARY
  5
1B5
102
{ACAD_REACTORS
330
5B
102
}
330
5B
100
AcDbDictionary
281
     1
  0
DICTIONARY
  5
61
102
{ACAD_REACTORS
330
5B
102
}
330
5B
100
AcDbDictionary
281
     1
  0
XRECORD
  5
123
102
{ACAD_REACTORS
330
5B
102
}
330
5B
100
AcDbXrecord
280
     1
 90
-1023410169
  0
DICTIONARY
  5
85AD
330
22
100
AcDbDictionary
280
     1
281
     1
  3
ACAD_XREC_ROUNDTRIP
360
85AE
  0
DICTIONARY
  5
85AB
330
1E
100
AcDbDictionary
280
     1
281
     1
  3
ACAD_XREC_ROUNDTRIP
360
85AC
  0
DICTIONARY
  5
85AF
330
26
100
AcDbDictionary
280
     1
281
     1
  3
ACAD_XREC_ROUNDTRIP
360
85B0
  0
XRECORD
  5
85AE
102
{ACAD_REACTORS
330
85AD
102
}
330
85AD
100
AcDbXrecord
280
     1
102
SHADEPLOT
 70
     0
102
SHADEPLOTRESLEVEL
 70
     2
102
SHADEPLOTCUSTOMDPI
 70
   300
  0
XRECORD
  5
85AC
102
{ACAD_REACTORS
330
85AB
102
}
330
85AB
100
AcDbXrecord
280
     1
102
SHADEPLOT
 70
     0
102
SHADEPLOTRESLEVEL
 70
     2
102
SHADEPLOTCUSTOMDPI
 70
   300
  0
XRECORD
  5
85B0
102
{ACAD_REACTORS
330
85AF
102
}
330
85AF
100
AcDbXrecord
280
     1
102
SHADEPLOT
 70
     0
102
SHADEPLOTRESLEVEL
 70
     2
102
SHADEPLOTCUSTOMDPI
 70
   300
  0
ENDSEC
  0
EOF
