  0
SECTION
  2
HEADER
  9
$ACADVER
  1
AC1015
  9
$ACADMAINTVER
 70
    20
  9
$DWGCODEPAGE
  3
ANSI_950
  9
$INSBASE
 10
0.0
 20
0.0
 30
0.0
  9
$EXTMIN
 10
1932.46090517175
 20
25.09386588352027
 30
-0.0095193578090402
  9
$EXTMAX
 10
3032.711341139429
 20
825.1260356021166
 30
524.238903901198
  9
$LIMMIN
 10
0.0
 20
0.0
  9
$LIMMAX
 10
420.0
 20
297.0
  9
$ORTHOMODE
 70
     1
  9
$REGENMODE
 70
     1
  9
$FILLMODE
 70
     1
  9
$QTEXTMODE
 70
     0
  9
$MIRRTEXT
 70
     1
  9
$LTSCALE
 40
1.0
  9
$ATTMODE
 70
     1
  9
$TEXTSIZE
 40
3.0
  9
$TRACEWID
 40
1.0
  9
$TEXTSTYLE
  7
CHINESET
  9
$CLAYER
  8
0
  9
$CELTYPE
  6
ByLayer
  9
$CECOLOR
 62
   256
  9
$CELTSCALE
 40
1.0
  9
$DISPSILH
 70
     0
  9
$DIMSCALE
 40
1.0
  9
$DIMASZ
 40
3.0
  9
$DIMEXO
 40
1.0
  9
$DIMDLI
 40
10.0
  9
$DIMRND
 40
0.0
  9
$DIMDLE
 40
0.0
  9
$DIMEXE
 40
1.5
  9
$DIMTP
 40
0.1
  9
$DIMTM
 40
0.1
  9
$DIMTXT
 40
3.0
  9
$DIMCEN
 40
0.0
  9
$DIMTSZ
 40
0.0
  9
$DIMTOL
 70
     0
  9
$DIMLIM
 70
     0
  9
$DIMTIH
 70
     0
  9
$DIMTOH
 70
     0
  9
$DIMSE1
 70
     0
  9
$DIMSE2
 70
     0
  9
$DIMTAD
 70
     1
  9
$DIMZIN
 70
     8
  9
$DIMBLK
  1

  9
$DIMASO
 70
     1
  9
$DIMSHO
 70
     1
  9
$DIMPOST
  1

  9
$DIMAPOST
  1
"
  9
$DIMALT
 70
     0
  9
$DIMALTD
 70
     2
  9
$DIMALTF
 40
0.0393701
  9
$DIMLFAC
 40
1.0
  9
$DIMTOFL
 70
     1
  9
$DIMTVP
 40
0.0
  9
$DIMTIX
 70
     0
  9
$DIMSOXD
 70
     0
  9
$DIMSAH
 70
     0
  9
$DIMBLK1
  1

  9
$DIMBLK2
  1

  9
$DIMSTYLE
  2
AM_ISO
  9
$DIMCLRD
 70
   256
  9
$DIMCLRE
 70
   256
  9
$DIMCLRT
 70
   256
  9
$DIMTFAC
 40
0.71
  9
$DIMGAP
 40
1.0
  9
$DIMJUST
 70
     0
  9
$DIMSD1
 70
     0
  9
$DIMSD2
 70
     0
  9
$DIMTOLJ
 70
     0
  9
$DIMTZIN
 70
     8
  9
$DIMALTZ
 70
     0
  9
$DIMALTTZ
 70
     0
  9
$DIMUPT
 70
     0
  9
$DIMDEC
 70
     2
  9
$DIMTDEC
 70
     8
  9
$DIMALTU
 70
     2
  9
$DIMALTTD
 70
     2
  9
$DIMTXSTY
  7
CHINESET
  9
$DIMAUNIT
 70
     0
  9
$DIMADEC
 70
     0
  9
$DIMALTRND
 40
0.0
  9
$DIMAZIN
 70
     2
  9
$DIMDSEP
 70
    46
  9
$DIMATFIT
 70
     3
  9
$DIMFRAC
 70
     0
  9
$DIMLDRBLK
  1

  9
$DIMLUNIT
 70
     2
  9
$DIMLWD
 70
    -1
  9
$DIMLWE
 70
    -1
  9
$DIMTMOVE
 70
     0
  9
$LUNITS
 70
     2
  9
$LUPREC
 70
     2
  9
$SKETCHINC
 40
1.0
  9
$FILLETRAD
 40
2.5
  9
$AUNITS
 70
     0
  9
$AUPREC
 70
     0
  9
$MENU
  1
.
  9
$ELEVATION
 40
0.0
  9
$PELEVATION
 40
0.0
  9
$THICKNESS
 40
0.0
  9
$LIMCHECK
 70
     0
  9
$CHAMFERA
 40
2.5
  9
$CHAMFERB
 40
2.5
  9
$CHAMFERC
 40
20.0
  9
$CHAMFERD
 40
0.0
  9
$SKPOLY
 70
     0
  9
$TDCREATE
 40
2453731.618400787
  9
$TDUCREATE
 40
2453731.285067453
  9
$TDUPDATE
 40
2453732.404710278
  9
$TDUUPDATE
 40
2453732.071376945
  9
$TDINDWG
 40
0.0653678356
  9
$TDUSRTIMER
 40
0.0653678356
  9
$USRTIMER
 70
     1
  9
$ANGBASE
 50
0.0
  9
$ANGDIR
 70
     0
  9
$PDMODE
 70
     0
  9
$PDSIZE
 40
0.0
  9
$PLINEWID
 40
0.0
  9
$SPLFRAME
 70
     0
  9
$SPLINETYPE
 70
     6
  9
$SPLINESEGS
 70
     8
  9
$HANDSEED
  5
1B1D
  9
$SURFTAB1
 70
     6
  9
$SURFTAB2
 70
     6
  9
$SURFTYPE
 70
     6
  9
$SURFU
 70
     6
  9
$SURFV
 70
     6
  9
$UCSBASE
  2

  9
$UCSNAME
  2

  9
$UCSORG
 10
0.0
 20
0.0
 30
0.0
  9
$UCSXDIR
 10
1.0
 20
0.0
 30
0.0
  9
$UCSYDIR
 10
0.0
 20
1.0
 30
0.0
  9
$UCSORTHOREF
  2

  9
$UCSORTHOVIEW
 70
     0
  9
$UCSORGTOP
 10
0.0
 20
0.0
 30
0.0
  9
$UCSORGBOTTOM
 10
0.0
 20
0.0
 30
0.0
  9
$UCSORGLEFT
 10
0.0
 20
0.0
 30
0.0
  9
$UCSORGRIGHT
 10
0.0
 20
0.0
 30
0.0
  9
$UCSORGFRONT
 10
0.0
 20
0.0
 30
0.0
  9
$UCSORGBACK
 10
0.0
 20
0.0
 30
0.0
  9
$PUCSBASE
  2

  9
$PUCSNAME
  2

  9
$PUCSORG
 10
0.0
 20
0.0
 30
0.0
  9
$PUCSXDIR
 10
1.0
 20
0.0
 30
0.0
  9
$PUCSYDIR
 10
0.0
 20
1.0
 30
0.0
  9
$PUCSORTHOREF
  2

  9
$PUCSORTHOVIEW
 70
     0
  9
$PUCSORGTOP
 10
0.0
 20
0.0
 30
0.0
  9
$PUCSORGBOTTOM
 10
0.0
 20
0.0
 30
0.0
  9
$PUCSORGLEFT
 10
0.0
 20
0.0
 30
0.0
  9
$PUCSORGRIGHT
 10
0.0
 20
0.0
 30
0.0
  9
$PUCSORGFRONT
 10
0.0
 20
0.0
 30
0.0
  9
$PUCSORGBACK
 10
0.0
 20
0.0
 30
0.0
  9
$USERI1
 70
     0
  9
$USERI2
 70
     0
  9
$USERI3
 70
     0
  9
$USERI4
 70
     0
  9
$USERI5
 70
     0
  9
$USERR1
 40
0.0
  9
$USERR2
 40
0.0
  9
$USERR3
 40
0.0
  9
$USERR4
 40
0.0
  9
$USERR5
 40
0.0
  9
$WORLDVIEW
 70
     1
  9
$SHADEDGE
 70
     3
  9
$SHADEDIF
 70
    70
  9
$TILEMODE
 70
     1
  9
$MAXACTVP
 70
    64
  9
$PINSBASE
 10
0.0
 20
0.0
 30
0.0
  9
$PLIMCHECK
 70
     0
  9
$PEXTMIN
 10
1.000000000000000E+20
 20
1.000000000000000E+20
 30
1.000000000000000E+20
  9
$PEXTMAX
 10
-1.000000000000000E+20
 20
-1.000000000000000E+20
 30
-1.000000000000000E+20
  9
$PLIMMIN
 10
0.0
 20
0.0
  9
$PLIMMAX
 10
420.0
 20
297.0
  9
$UNITMODE
 70
     0
  9
$VISRETAIN
 70
     1
  9
$PLINEGEN
 70
     0
  9
$PSLTSCALE
 70
     1
  9
$TREEDEPTH
 70
  3020
  9
$CMLSTYLE
  2
Standard
  9
$CMLJUST
 70
     0
  9
$CMLSCALE
 40
20.0
  9
$PROXYGRAPHICS
 70
     1
  9
$MEASUREMENT
 70
     1
  9
$CELWEIGHT
370
    -1
  9
$ENDCAPS
280
     0
  9
$JOINSTYLE
280
     0
  9
$LWDISPLAY
290
     0
  9
$INSUNITS
 70
     4
  9
$HYPERLINKBASE
  1

  9
$STYLESHEET
  1
彩色出圖.ctb
  9
$XEDIT
290
     1
  9
$CEPSNTYPE
380
     0
  9
$PSTYLEMODE
290
     1
  9
$FINGERPRINTGUID
  2
{0D855794-04CD-42EC-BA89-F7EABE2626E6}
  9
$VERSIONGUID
  2
{AEDB8B96-4560-4BDE-A69C-08C268C78747}
  9
$EXTNAMES
290
     1
  9
$PSVPSCALE
 40
0.0
  9
$OLESTARTUP
290
     0
  0
ENDSEC
  0
SECTION
  2
CLASSES
  0
CLASS
  1
ACDBDICTIONARYWDFLT
  2
AcDbDictionaryWithDefault
  3
ObjectDBX Classes
 90
        0
280
     0
281
     0
  0
CLASS
  1
ACDBPLACEHOLDER
  2
AcDbPlaceHolder
  3
ObjectDBX Classes
 90
        0
280
     0
281
     0
  0
CLASS
  1
LAYOUT
  2
AcDbLayout
  3
ObjectDBX Classes
 90
        0
280
     0
281
     0
  0
CLASS
  1
ACME_DOCUMENT
  2
AcMeDbDoc
  3
AcMeServices
 90
        0
280
     0
281
     0
  0
CLASS
  1
AMGSETTINGSOBJ
  2
AmgSettingsObj
  3
"AcadM|Product Description: AutoCAD Mechanical 2000|Company: Autodesk"
 90
        0
280
     0
281
     0
  0
CLASS
  1
ACMESCOPE
  2
AcMeScope
  3
AcMeServices
 90
        0
280
     0
281
     0
  0
CLASS
  1
ACMECOMMANDHISTORY
  2
AcMeCommandHistory
  3
AcMeServices
 90
        0
280
     0
281
     0
  0
CLASS
  1
ACIMSYSVARMAN
  2
AcImSysVarManager
  3
AcMeServices
 90
        0
280
     0
281
     0
  0
CLASS
  1
ACIMREALSYSVAR
  2
AcImRealSysVar
  3
AcMeServices
 90
        0
280
     0
281
     0
  0
CLASS
  1
ACIMINTSYSVAR
  2
AcImIntSysVar
  3
AcMeServices
 90
        0
280
     0
281
     0
  0
CLASS
  1
ACMEDRAWINGMAN
  2
AcMeDrawingMan
  3
AcMeServices
 90
        0
280
     0
281
     0
  0
CLASS
  1
ACMEVIEW
  2
AcMeView
  3
AcMeServices
 90
        0
280
     0
281
     0
  0
CLASS
  1
ACDBENTITYCACHE
  2
AcMeEntityCache
  3
AcMeServices
 90
        0
280
     0
281
     0
  0
CLASS
  1
GSMANAGER
  2
AcMeGSManager
  3
AcMeServices
 90
        0
280
     0
281
     0
  0
CLASS
  1
AMDTINTERNALREACTOR
  2
AmdtInternalReactor
  3
AcMeServices
 90
        0
280
     0
281
     0
  0
CLASS
  1
ACMESTATEMGR
  2
AcMeStateMgr
  3
AcMeServices
 90
        0
280
     0
281
     0
  0
CLASS
  1
ACGREFMASTER
  2
AcGrefMaster
  3
AcAttribServices
 90
        0
280
     0
281
     0
  0
CLASS
  1
ACME_DATABASE
  2
AcMeDbDatabase
  3
AcMeServices
 90
        0
280
     0
281
     0
  0
CLASS
  1
ACRFINSADJUSTERMGR
  2
AcRfInsAdjusterMgr
  3
AcMeServices
 90
        0
280
     0
281
     0
  0
CLASS
  1
ACGREFACADMASTER
  2
AcGrefacadMaster
  3
AcGrefServices
 90
        0
280
     0
281
     0
  0
CLASS
  1
AMIMASTER
  2
AmiMaster
  3
AmiServices
 90
        0
280
     0
281
     0
  0
CLASS
  1
ACMDATADICTIONARY
  2
AcmDataDictionary
  3
"AcmSymBB|Product Description: AutoCAD Mechanical 2004 DX|Company: Autodesk"
 90
        0
280
     0
281
     0
  0
CLASS
  1
ACMDATAENTRYBLOCK
  2
AcmDataEntryBlock
  3
"AcmSymBB|Product Description: AutoCAD Mechanical 2004 DX|Company: Autodesk"
 90
        0
280
     0
281
     0
  0
CLASS
  1
ACIMSTRSYSVAR
  2
AcImStrSysVar
  3
AcMeServices
 90
        0
280
     0
281
     0
  0
CLASS
  1
ACMSTANDARDISO
  2
AcmStandardISO
  3
"Amdt_StdImp|Product Description: AutoCAD Mechanical 2004 DX|Company: Autodesk"
 90
        0
280
     0
281
     0
  0
CLASS
  1
AMGOBJPROPCFG
  2
AmgObjPropCfg
  3
"AmgLay|Product Description: AutoCAD Mechanical 2000|Company: Autodesk"
 90
        1
280
     0
281
     0
  0
CLASS
  1
AMDTEDGESTANDARDISO
  2
AmdtEdgeStdISO
  3
"Amdt_StdImp|Product Description: AutoCAD Mechanical 2004 DX|Company: Autodesk"
 90
        0
280
     0
281
     0
  0
CLASS
  1
ACMSURFSTANDARDISO
  2
AcmSurfTextStdISO
  3
"Amdt_StdImp|Product Description: AutoCAD Mechanical 2004 DX|Company: Autodesk"
 90
        0
280
     0
281
     0
  0
CLASS
  1
ACMFCFSTANDARDISO
  2
AcmFCFStdISO
  3
"Amdt_StdImp|Product Description: AutoCAD Mechanical 2004 DX|Company: Autodesk"
 90
        0
280
     0
281
     0
  0
CLASS
  1
ACMWELDSTANDARDISO
  2
AcmWeldingStdISO
  3
"Amdt_StdImp|Product Description: AutoCAD Mechanical 2004 DX|Company: Autodesk"
 90
        0
280
     0
281
     0
  0
CLASS
  1
ACMIDSTANDARDISO
  2
AcmIdStdISO
  3
"Amdt_StdImp|Product Description: AutoCAD Mechanical 2004 DX|Company: Autodesk"
 90
        0
280
     0
281
     0
  0
CLASS
  1
ACMDATUMSTANDARDISO
  2
AcmDatumStdISO
  3
"Amdt_StdImp|Product Description: AutoCAD Mechanical 2004 DX|Company: Autodesk"
 90
        0
280
     0
281
     0
  0
CLASS
  1
ACMBOMSTANDARDISO
  2
AcmBOMStdISO
  3
"Amdt_StdImp|Product Description: AutoCAD Mechanical 2004 DX|Company: Autodesk"
 90
        0
280
     0
281
     0
  0
CLASS
  1
ACMDETAILSTANDARDISO
  2
AmdtDetailSymStdISO
  3
"Amdt_StdImp|Product Description: AutoCAD Mechanical 2004 DX|Company: Autodesk"
 90
        0
280
     0
281
     0
  0
CLASS
  1
ACMSECTIONSTANDARDISO
  2
AmdtSectionSymStdISO
  3
"Amdt_StdImp|Product Description: AutoCAD Mechanical 2004 DX|Company: Autodesk"
 90
        0
280
     0
281
     0
  0
CLASS
  1
ACMCENTERLINESTANDARDISO
  2
AmdtCenterLineStdISO
  3
"Amdt_StdImp|Product Description: AutoCAD Mechanical 2004 DX|Company: Autodesk"
 90
        0
280
     0
281
     0
  0
CLASS
  1
ACMNOTESTANDARDISO
  2
AmdtNoteStdISO
  3
"Amdt_StdImp|Product Description: AutoCAD Mechanical 2004 DX|Company: Autodesk"
 90
        0
280
     0
281
     0
  0
CLASS
  1
ACAMGLAYSTD
  2
AcAmgLayStd
  3
"AcAmgLayStd|Product Description: AutoCAD Mechanical 2000|Company: Autodesk"
 90
        0
280
     0
281
     0
  0
CLASS
  1
ACAMGDIMSTD
  2
AcAmgDimStd
  3
"AcAmgDimStd|Product Description: AutoCAD Mechanical 2000|Company: Autodesk"
 90
        0
280
     0
281
     0
  0
CLASS
  1
ACAMGHOLECHARTSTDISO
  2
AcAmgHoleChartStdISO
  3
ACMSYMBB_MODULE_NAME
 90
        0
280
     0
281
     0
  0
CLASS
  1
ACAMGTITLESTD
  2
AcAmgTitleStd
  3
"TITLEAPP"
 90
        0
280
     0
281
     0
  0
CLASS
  1
LAYER_INDEX
  2
AcDbLayerIndex
  3
ObjectDBX Classes
 90
    32768
280
     0
281
     0
  0
CLASS
  1
IDBUFFER
  2
AcDbIdBuffer
  3
ObjectDBX Classes
 90
    32768
280
     0
281
     0
  0
CLASS
  1
DICTIONARYVAR
  2
AcDbDictionaryVar
  3
ObjectDBX Classes
 90
        0
280
     0
281
     0
  0
CLASS
  1
AM_DRAWING_MGR
  2
AcDmDwgMgr
  3
AcMechDwgViewMgmt
 90
        0
280
     0
281
     0
  0
CLASS
  1
AM_DWG_DOCUMENT
  2
AcDmDwgDocument
  3
AcMechDwgViewMgmt
 90
        0
280
     0
281
     0
  0
CLASS
  1
AM_DWG_SHEET
  2
AcDmSheet
  3
AcMechDwgViewMgmt
 90
        0
280
     0
281
     0
  0
CLASS
  1
AM_VIEWDIMPARMAP
  2
AcDmViewDimParMap
  3
AcMechDwgViewMgmt
 90
        0
280
     0
281
     0
  0
CLASS
  1
AM_DWGMGR_NAME
  2
AcDmDwgMgrName
  3
AcMechDwgViewMgmt
 90
        0
280
     0
281
     0
  0
CLASS
  1
AMDTMENUSTATEMGR
  2
AmdtMenuStateMgr
  3
McadcomServices
 90
        0
280
     0
281
     0
  0
CLASS
  1
AMDTMCOMMENUSTATE
  2
AmdtMcomMenuState
  3
McadcomServices
 90
        0
280
     0
281
     0
  0
CLASS
  1
MAPIAMMOUDLE
  2
MApiAmModule
  3
MApiAmServices
 90
        0
280
     0
281
     0
  0
CLASS
  1
AMDTADMENUSTATE
  2
AmdtAdMenuState
  3
DesignerServices
 90
        0
280
     0
281
     0
  0
CLASS
  1
ADAPPL
  2
AcAdAppl
  3
DesignerServices
 90
        0
280
     0
281
     0
  0
CLASS
  1
DEPMGR
  2
AcAdDepMgr
  3
DesignerServices
 90
        0
280
     0
281
     0
  0
CLASS
  1
PARAMMGR
  2
AcAdParamMgr
  3
DesignerServices
 90
        0
280
     0
281
     0
  0
CLASS
  1
PARAMSCOPE
  2
AcAdParamScope
  3
DesignerServices
 90
        0
280
     0
281
     0
  0
CLASS
  1
NAMEDAPPL
  2
AcAdNamedAppl
  3
DesignerServices
 90
        0
280
     0
281
     0
  0
CLASS
  1
AMDTDMMENUSTATE
  2
AmdtDmMenuState
  3
AcMechDwgViewMgmt
 90
        0
280
     0
281
     0
  0
CLASS
  1
AMDTAMMENUSTATE
  2
AmdtAmMenuState
  3
DesignerAssemblies
 90
        0
280
     0
281
     0
  0
CLASS
  1
ACAMPROJECT
  2
AcAmProject
  3
DesignerAssemblies
 90
        0
280
     0
281
     0
  0
CLASS
  1
ACAMGRCOMPDEF
  2
AcAmGrCompDef
  3
DesignerAssemblies
 90
        0
280
     0
281
     0
  0
CLASS
  1
ACCMCONTEXT
  2
AcCmContext
  3
DesignerAssemblies
 90
        0
280
     0
281
     0
  0
CLASS
  1
ACAMCOMPDEF
  2
AcAmCompDef
  3
DesignerAssemblies
 90
        0
280
     0
281
     0
  0
CLASS
  1
ACAMCOMPDEFMGR
  2
AcAmCompDefMgr
  3
DesignerAssemblies
 90
        0
280
     0
281
     0
  0
CLASS
  1
AMCONTEXTMGR
  2
AcAmContextMgr
  3
DesignerAssemblies
 90
        0
280
     0
281
     0
  0
CLASS
  1
ACAMCONTEXTMODELER
  2
AcAmContextModeler
  3
DesignerAssemblies
 90
        0
280
     0
281
     0
  0
CLASS
  1
ACMTHREADLINESTANDARDISO
  2
AmdtThreadLineStdISO
  3
"Amdt_StdImp|Product Description: AutoCAD Mechanical 2004 DX|Company: Autodesk"
 90
        0
280
     0
281
     0
  0
CLASS
  1
CATALOGSTATE
  2
AcAmCatalogState
  3
DesignerAssemblies
 90
        0
280
     0
281
     0
  0
CLASS
  1
ACAMGRCOMPDEFSET
  2
AcAmGrCompDefSet
  3
DesignerAssemblies
 90
        0
280
     0
281
     0
  0
CLASS
  1
AMDTBROWSERDBTAB
  2
AmdtBrowserDbTab
  3
McadcomServices
 90
        0
280
     0
281
     0
  0
CLASS
  1
CBROWSERAPPOBJECT
  2
CBrowserAppObject
  3
McadcomServices
 90
        0
280
     0
281
     0
  0
CLASS
  1
DM_PLACEHOLDER
  2
AcDmSelsetPlaceholder
  3
AcMechDwgViewMgmt
 90
        0
280
     0
281
     0
  0
CLASS
  1
TABLESTYLE
  2
AcDbTableStyle
  3
ObjectDBX Classes
 90
     2047
280
     0
281
     0
  0
CLASS
  1
VAACXREFPANELOBJECT
  2
VaAcXREFPanelObject
  3
VAAC_ADDIN
 90
    32768
280
     0
281
     0
  0
CLASS
  1
VAACIMAGEINVENTORY
  2
VaAcImageInventory
  3
VAAC_ADDIN
 90
    32768
280
     0
281
     0
  0
CLASS
  1
AMDTNOTETEMPLATEDB
  2
AmdtNoteTemplateDB
  3
AMDT_STDIMP_MODULE_NAME
 90
        0
280
     0
281
     0
  0
CLASS
  1
ACMBOM
  2
AcmBom
  3
"AcmSymBB|Product Description: AutoCAD Mechanical 2004 DX|Company: Autodesk"
 90
    32768
280
     0
281
     0
  0
CLASS
  1
AMDTFORMULAUPDATEDISPATCHER
  2
AmdtFormulaUpdateDispatcher
  3
AcMeServices
 90
    32768
280
     0
281
     0
  0
CLASS
  1
ACMPARTLIST
  2
AcmPartList
  3
"AcmSymBB|Product Description: AutoCAD Mechanical 2004 DX|Company: Autodesk"
 90
    33791
280
     0
281
     1
  0
CLASS
  1
ACAMGFILTERDAT
  2
AcAmgFilterDat
  3
"AcadM|Product Description: AutoCAD Mechanical 2000|Company: Autodesk"
 90
        0
280
     0
281
     0
  0
CLASS
  1
DIMASSOC
  2
AcDbDimAssoc
  3
"AcDbDimAssoc|Product Desc:     AcDim ARX App For Dimension|Company:          Autodesk, Inc.|WEB Address:      www.autodesk.com"
 90
        0
280
     0
281
     0
  0
CLASS
  1
ACMSTANDARDANSI
  2
AcmStandardANSI
  3
"Amdt_StdImp|Product Description: AutoCAD Mechanical 2004 DX|Company: Autodesk"
 90
        0
280
     0
281
     0
  0
CLASS
  1
ACMSURFSTANDARDANSI
  2
AcmSurfTextStdANSI
  3
"Amdt_StdImp|Product Description: AutoCAD Mechanical 2004 DX|Company: Autodesk"
 90
        0
280
     0
281
     0
  0
CLASS
  1
ACMFCFSTANDARDANSI
  2
AcmFCFStdANSI
  3
"Amdt_StdImp|Product Description: AutoCAD Mechanical 2004 DX|Company: Autodesk"
 90
        0
280
     0
281
     0
  0
CLASS
  1
ACMWELDSTANDARDANSI
  2
AcmWeldingStdANSI
  3
"Amdt_StdImp|Product Description: AutoCAD Mechanical 2004 DX|Company: Autodesk"
 90
        0
280
     0
281
     0
  0
CLASS
  1
ACMIDSTANDARDANSI
  2
AcmIdStdANSI
  3
"Amdt_StdImp|Product Description: AutoCAD Mechanical 2004 DX|Company: Autodesk"
 90
        0
280
     0
281
     0
  0
CLASS
  1
ACMDATUMSTANDARDANSI
  2
AcmDatumStdANSI
  3
"Amdt_StdImp|Product Description: AutoCAD Mechanical 2004 DX|Company: Autodesk"
 90
        0
280
     0
281
     0
  0
CLASS
  1
ACMBOMSTANDARDANSI
  2
AcmBOMStdANSI
  3
"Amdt_StdImp|Product Description: AutoCAD Mechanical 2004 DX|Company: Autodesk"
 90
        0
280
     0
281
     0
  0
CLASS
  1
ACMDETAILSTANDARDANSI
  2
AmdtDetailSymStdANSI
  3
"Amdt_StdImp|Product Description: AutoCAD Mechanical 2004 DX|Company: Autodesk"
 90
        0
280
     0
281
     0
  0
CLASS
  1
ACMSECTIONSTANDARDANSI
  2
AmdtSectionSymStdANSI
  3
"Amdt_StdImp|Product Description: AutoCAD Mechanical 2004 DX|Company: Autodesk"
 90
        0
280
     0
281
     0
  0
CLASS
  1
ACMCENTERLINESTANDARDANSI
  2
AmdtCenterLineStdANSI
  3
"Amdt_StdImp|Product Description: AutoCAD Mechanical 2004 DX|Company: Autodesk"
 90
        0
280
     0
281
     0
  0
CLASS
  1
ACMTHREADLINESTANDARDANSI
  2
AmdtThreadLineStdANSI
  3
"Amdt_StdImp|Product Description: AutoCAD Mechanical 2004 DX|Company: Autodesk"
 90
        0
280
     0
281
     0
  0
CLASS
  1
ACMNOTESTANDARDANSI
  2
AmdtNoteStdANSI
  3
"Amdt_StdImp|Product Description: AutoCAD Mechanical 2004 DX|Company: Autodesk"
 90
        0
280
     0
281
     0
  0
CLASS
  1
ACAMGHOLECHARTSTDANSI
  2
AcAmgHoleChartStdANSI
  3
ACMSYMBB_MODULE_NAME
 90
        0
280
     0
281
     0
  0
CLASS
  1
SORTENTSTABLE
  2
AcDbSortentsTable
  3
ObjectDBX Classes
 90
        0
280
     0
281
     0
  0
CLASS
  1
ACRFATTGENMGR
  2
AcRfAttGeneralMgr
  3
AcAttribServices
 90
        0
280
     0
281
     0
  0
ENDSEC
  0
SECTION
  2
TABLES
  0
TABLE
  2
VPORT
  5
8
330
0
100
AcDbSymbolTable
 70
     3
  0
VPORT
  5
1B14
330
8
100
AcDbSymbolTableRecord
100
AcDbViewportTableRecord
  2
*Active
 70
     0
 10
0.0
 20
0.0
 11
1.0
 21
1.0
 12
2482.741738215004
 22
425.1294106330131
 13
0.0
 23
0.0
 14
2.5
 24
2.5
 15
10.0
 25
10.0
 16
0.0
 26
0.0
 36
1.0
 17
0.0
 27
0.0
 37
0.0
 40
809.3646114176117
 41
1.81766917293233
 42
50.0
 43
0.0
 44
0.0
 50
0.0
 51
0.0
 71
     0
 72
   100
 73
     1
 74
     3
 75
     0
 76
     0
 77
     0
 78
     0
281
     0
 65
     1
110
0.0
120
0.0
130
0.0
111
1.0
121
0.0
131
0.0
112
0.0
122
1.0
132
0.0
 79
     0
146
0.0
  0
ENDTAB
  0
TABLE
  2
LTYPE
  5
5
330
0
100
AcDbSymbolTable
 70
    16
  0
LTYPE
  5
14
330
5
100
AcDbSymbolTableRecord
100
AcDbLinetypeTableRecord
  2
ByBlock
 70
     0
  3

 72
    65
 73
     0
 40
0.0
  0
LTYPE
  5
15
330
5
100
AcDbSymbolTableRecord
100
AcDbLinetypeTableRecord
  2
ByLayer
 70
     0
  3

 72
    65
 73
     0
 40
0.0
  0
LTYPE
  5
16
330
5
100
AcDbSymbolTableRecord
100
AcDbLinetypeTableRecord
  2
Continuous
 70
     0
  3
Solid line
 72
    65
 73
     0
 40
0.0
  0
LTYPE
  5
64
330
5
100
AcDbSymbolTableRecord
100
AcDbLinetypeTableRecord
  2
AM_ISO02W050
 70
     0
  3
__ __ __ __ __ __ __ __ __ __ __ __ __ __ __
 72
    65
 73
     2
 40
7.5
 49
6.0
 74
     0
 49
-1.5
 74
     0
  0
LTYPE
  5
65
330
5
100
AcDbSymbolTableRecord
100
AcDbLinetypeTableRecord
  2
AM_ISO08W050
 70
     0
  3
____ . ____ . ____ . ____ . ____ . ____ . ____
 72
    65
 73
     4
 40
18.0
 49
12.0
 74
     0
 49
-1.5
 74
     0
 49
3.0
 74
     0
 49
-1.5
 74
     0
  0
LTYPE
  5
66
330
5
100
AcDbSymbolTableRecord
100
AcDbLinetypeTableRecord
  2
AM_ISO09W050
 70
     0
  3
_____ . . _____ . . _____ . . ____ .. ____
 72
    65
 73
     6
 40
22.5
 49
12.0
 74
     0
 49
-1.5
 74
     0
 49
3.0
 74
     0
 49
-1.5
 74
     0
 49
3.0
 74
     0
 49
-1.5
 74
     0
  0
LTYPE
  5
67
330
5
100
AcDbSymbolTableRecord
100
AcDbLinetypeTableRecord
  2
Amconstr
 70
     0
  3
_______________________
 72
    65
 73
     2
 40
9999.0
 49
9999.0
 74
     0
 49
0.0
 74
     0
  0
LTYPE
  5
68
330
5
100
AcDbSymbolTableRecord
100
AcDbLinetypeTableRecord
  2
AM_ISO08W050x2
 70
     0
  3
__ . __ . __ . __ . __ . __
 72
    65
 73
     4
 40
9.0
 49
6.0
 74
     0
 49
-0.75
 74
     0
 49
1.5
 74
     0
 49
-0.75
 74
     0
  0
LTYPE
  5
69
330
5
100
AcDbSymbolTableRecord
100
AcDbLinetypeTableRecord
  2
AM_ISO02W050x2
 70
     0
  3
 _ _ _ _ _ _ _ _ _ _ _ _
 72
    65
 73
     2
 40
3.75
 49
3.0
 74
     0
 49
-0.75
 74
     0
  0
LTYPE
  5
6C
330
5
100
AcDbSymbolTableRecord
100
AcDbLinetypeTableRecord
  2
Amzigzag
 70
     0
  3
/\/-/\/-/\/-/\/-/\/-/\/
 72
    65
 73
     2
 40
11.0001
 49
0.0001
 74
     4
 75
   135
340
6B
 46
0.04
 50
0.0
 44
0.0
 45
0.0
 49
-11.0
 74
     0
  0
LTYPE
  5
7A
330
5
100
AcDbSymbolTableRecord
100
AcDbLinetypeTableRecord
  2
ACISOWELD
 70
     0
  3
_ _ _ _ _
 72
    65
 73
     2
 40
2.0
 49
2.0
 74
     0
 49
-1.0
 74
     0
  0
LTYPE
  5
7B
330
5
100
AcDbSymbolTableRecord
100
AcDbLinetypeTableRecord
  2
ACISOTGB
 70
     0
  3
__ . . __ . .
 72
    65
 73
     6
 40
9.0
 49
4.0
 74
     0
 49
-1.0
 74
     0
 49
1.0
 74
     0
 49
-1.0
 74
     0
 49
1.0
 74
     0
 49
-1.0
 74
     0
  0
LTYPE
  5
7C
330
5
100
AcDbSymbolTableRecord
100
AcDbLinetypeTableRecord
  2
ACISOTGL
 70
     0
  3
_ _ _ _ _
 72
    65
 73
     2
 40
3.0
 49
2.0
 74
     0
 49
-1.0
 74
     0
  0
LTYPE
  5
7E
330
5
100
AcDbSymbolTableRecord
100
AcDbLinetypeTableRecord
  2
CENTER
 70
     0
  3
__ . __
 72
    65
 73
     4
 40
7.0
 49
4.0
 74
     0
 49
-1.0
 74
     0
 49
1.0
 74
     0
 49
-1.0
 74
     0
  0
LTYPE
  5
D8
330
5
100
AcDbSymbolTableRecord
100
AcDbLinetypeTableRecord
  2
HIDDEN
 70
     0
  3
Hidden __ __ __ __ __ __ __ __ __ __ __ __ __ _
 72
    65
 73
     2
 40
9.524999999999998
 49
6.349999999999999
 74
     0
 49
-3.174999999999999
 74
     0
  0
LTYPE
  5
D9
330
5
100
AcDbSymbolTableRecord
100
AcDbLinetypeTableRecord
  2
PHANTOM2
 70
     0
  3
Phantom (.5x) ___ _ _ ___ _ _ ___ _ _ ___ _ _
 72
    65
 73
     6
 40
31.75
 49
15.875
 74
     0
 49
-3.174999999999999
 74
     0
 49
3.174999999999999
 74
     0
 49
-3.174999999999999
 74
     0
 49
3.174999999999999
 74
     0
 49
-3.174999999999999
 74
     0
  0
LTYPE
  5
7F5
330
5
100
AcDbSymbolTableRecord
100
AcDbLinetypeTableRecord
  2
ACANSTGB
 70
     0
  3
__ . . __ . .
 72
    65
 73
     6
 40
0.35433070866
 49
0.15748031496
 74
     0
 49
-0.03937007874
 74
     0
 49
0.03937007874
 74
     0
 49
-0.03937007874
 74
     0
 49
0.03937007874
 74
     0
 49
-0.03937007874
 74
     0
  0
LTYPE
  5
7F6
330
5
100
AcDbSymbolTableRecord
100
AcDbLinetypeTableRecord
  2
ACANSTGL
 70
     0
  3
_ _ _ _ _
 72
    65
 73
     2
 40
0.11811023622
 49
0.07874015748
 74
     0
 49
-0.03937007874
 74
     0
  0
ENDTAB
  0
TABLE
  2
LAYER
  5
2
102
{ACAD_XDICTIONARY
360
3F9
102
}
330
0
100
AcDbSymbolTable
 70
     6
  0
LAYER
  5
10
330
2
100
AcDbSymbolTableRecord
100
AcDbLayerTableRecord
  2
0
 70
     0
 62
     7
  6
Continuous
370
    -3
390
F
  0
LAYER
  5
8B2
330
2
100
AcDbSymbolTableRecord
100
AcDbLayerTableRecord
  2
AM_7
 70
     0
 62
     1
  6
CENTER
370
    25
390
F
  0
LAYER
  5
917
330
2
100
AcDbSymbolTableRecord
100
AcDbLayerTableRecord
  2
CENTER
 70
     0
 62
     7
  6
CENTER
370
    -3
390
F
  0
LAYER
  5
1083
330
2
100
AcDbSymbolTableRecord
100
AcDbLayerTableRecord
  2
AM_5
 70
     0
 62
     5
  6
Continuous
370
    50
390
F
  0
LAYER
  5
1093
330
2
100
AcDbSymbolTableRecord
100
AcDbLayerTableRecord
  2
Defpoints
 70
     0
 62
     7
  6
Continuous
290
     0
370
    -3
390
F
  0
LAYER
  5
1560
330
2
100
AcDbSymbolTableRecord
100
AcDbLayerTableRecord
  2
LOGO
 70
     0
 62
     7
  6
Continuous
370
    -3
390
F
  0
ENDTAB
  0
TABLE
  2
STYLE
  5
3
330
0
100
AcDbSymbolTable
 70
     8
  0
STYLE
  5
11
330
3
100
AcDbSymbolTableRecord
100
AcDbTextStyleTableRecord
  2
STANDARD
 70
     0
 40
0.0
 41
1.0
 50
0.0
 71
     0
 42
3.0
  3
ISOCP.SHX
  4
CHINESET.SHX
  0
STYLE
  5
6B
330
3
100
AcDbSymbolTableRecord
100
AcDbTextStyleTableRecord
  2

 70
     1
 40
0.0
 41
1.0
 50
0.0
 71
     0
 42
2.5
  3
ltypeshp.shx
  4

  0
STYLE
  5
6D
330
3
100
AcDbSymbolTableRecord
100
AcDbTextStyleTableRecord
  2
ACISOTS
 70
     0
 40
1.0
 41
1.0
 50
0.0
 71
     0
 42
1.0
  3
isocp.shx
  4
chineset.shx
  0
STYLE
  5
79
330
3
100
AcDbSymbolTableRecord
100
AcDbTextStyleTableRecord
  2
ACISOGDT
 70
     0
 40
0.0
 41
1.0
 50
0.0
 71
     0
 42
2.5
  3
amgdt.shx
  4
chineset.shx
  0
STYLE
  5
60C
330
3
100
AcDbSymbolTableRecord
100
AcDbTextStyleTableRecord
  2
CHINESET
 70
     0
 40
0.0
 41
0.75
 50
0.0
 71
     0
 42
3.0
  3
simplex.shx
  4
CHINESET.SHX
  0
STYLE
  5
7F9
330
3
100
AcDbSymbolTableRecord
100
AcDbTextStyleTableRecord
  2
ACANSTS
 70
     0
 40
1.0
 41
1.0
 50
0.0
 71
     0
 42
5.84703234913793
  3
romans.shx
  4
chineset.shx
  0
STYLE
  5
7FA
330
3
100
AcDbSymbolTableRecord
100
AcDbTextStyleTableRecord
  2
ACANSGDT
 70
     0
 40
0.0
 41
1.0
 50
0.0
 71
     0
 42
5.84703234913793
  3
amgdtans.shx
  4

  0
ENDTAB
  0
TABLE
  2
VIEW
  5
6
330
0
100
AcDbSymbolTable
 70
     0
  0
ENDTAB
  0
TABLE
  2
UCS
  5
7
330
0
100
AcDbSymbolTable
 70
     0
  0
ENDTAB
  0
TABLE
  2
APPID
  5
9
330
0
100
AcDbSymbolTable
 70
    19
  0
APPID
  5
12
330
9
100
AcDbSymbolTableRecord
100
AcDbRegAppTableRecord
  2
ACAD
 70
     0
  0
APPID
  5
46
330
9
100
AcDbSymbolTableRecord
100
AcDbRegAppTableRecord
  2
MCAD_NO_VIS
 70
     0
  0
APPID
  5
47
330
9
100
AcDbSymbolTableRecord
100
AcDbRegAppTableRecord
  2
ACAD_TEMP_GRAPHIC
 70
     0
  0
APPID
  5
58
330
9
100
AcDbSymbolTableRecord
100
AcDbRegAppTableRecord
  2
ACATTRIBSERVICES
 70
     0
  0
APPID
  5
EE
330
9
100
AcDbSymbolTableRecord
100
AcDbRegAppTableRecord
  2
AD_DRAW
 70
     0
  0
APPID
  5
10C
330
9
100
AcDbSymbolTableRecord
100
AcDbRegAppTableRecord
  2
DESIGNERASSEMBLIES
 70
     0
  0
APPID
  5
111
330
9
100
AcDbSymbolTableRecord
100
AcDbRegAppTableRecord
  2
ACADM_DIM_EDIT
 70
     0
  0
APPID
  5
112
330
9
100
AcDbSymbolTableRecord
100
AcDbRegAppTableRecord
  2
AMDT_DM_ADJ
 70
     0
  0
APPID
  5
22C
330
9
100
AcDbSymbolTableRecord
100
AcDbRegAppTableRecord
  2
ACAD_DSTYLE_DIMTEXT_FILL
 70
     0
  0
APPID
  5
452
330
9
100
AcDbSymbolTableRecord
100
AcDbRegAppTableRecord
  2
GENIUS_GENOENT_13
 70
     0
  0
APPID
  5
453
330
9
100
AcDbSymbolTableRecord
100
AcDbRegAppTableRecord
  2
GENIUS_GENOBJ-N-CRS_13
 70
     0
  0
APPID
  5
454
330
9
100
AcDbSymbolTableRecord
100
AcDbRegAppTableRecord
  2
GENIUS_GENOLIS_13
 70
     0
  0
APPID
  5
455
330
9
100
AcDbSymbolTableRecord
100
AcDbRegAppTableRecord
  2
GENIUS_GENODEF_13
 70
     0
  0
APPID
  5
456
330
9
100
AcDbSymbolTableRecord
100
AcDbRegAppTableRecord
  2
GENIUS_GENOREF_13
 70
     0
  0
APPID
  5
6F3
330
9
100
AcDbSymbolTableRecord
100
AcDbRegAppTableRecord
  2
ACAD_PSEXT
 70
     0
  0
APPID
  5
8B4
330
9
100
AcDbSymbolTableRecord
100
AcDbRegAppTableRecord
  2
GENIUS_GENOBJ-N-CEN_13
 70
     0
  0
APPID
  5
8B5
330
9
100
AcDbSymbolTableRecord
100
AcDbRegAppTableRecord
  2
GENIUS_GENCEN_19
 70
     0
  0
APPID
  5
1561
330
9
100
AcDbSymbolTableRecord
100
AcDbRegAppTableRecord
  2
GENIUS_GENREC_14
 70
     0
  0
APPID
  5
1562
330
9
100
AcDbSymbolTableRecord
100
AcDbRegAppTableRecord
  2
GENIUS_GENOBJ-N-REC_13
 70
     0
  0
ENDTAB
  0
TABLE
  2
DIMSTYLE
  5
A
330
0
100
AcDbSymbolTable
 70
    15
100
AcDbDimStyleTable
 71
     3
340
81
340
8B
340
86
  0
DIMSTYLE
105
81
330
A
100
AcDbSymbolTableRecord
100
AcDbDimStyleTableRecord
  2
AM_ISO
 70
     0
  4
"
 41
3.0
 42
1.0
 43
10.0
 44
1.5
 47
0.1
 48
0.1
 73
     0
 74
     0
 77
     1
 78
     8
 79
     2
140
3.0
141
0.0
143
0.0393701
146
0.71
147
1.0
172
     1
176
   256
177
   256
178
   256
271
     2
272
     2
283
     0
284
     8
340
60C
371
    -1
372
    -1
  0
DIMSTYLE
105
82
330
A
100
AcDbSymbolTableRecord
100
AcDbDimStyleTableRecord
  2
AM_ISO$3
 70
     0
  4
"
 41
3.0
 42
1.0
 43
10.0
 44
1.5
 47
0.1
 48
0.1
 73
     0
 77
     1
 78
     8
 79
     2
140
3.0
141
0.0
143
0.0393701
146
0.71
147
1.0
176
   256
177
   256
178
   256
271
     2
272
     2
283
     0
284
     8
288
     1
289
     0
340
60C
371
    -1
372
    -1
  0
DIMSTYLE
105
83
330
A
100
AcDbSymbolTableRecord
100
AcDbDimStyleTableRecord
  2
AM_ISO$4
 70
     0
  4
"
 41
3.0
 42
1.0
 43
10.0
 44
1.5
 47
0.1
 48
0.1
 73
     0
 77
     1
 78
     8
 79
     2
140
3.0
141
0.0
143
0.0393701
146
0.71
147
1.0
176
   256
177
   256
178
   256
271
     2
272
     2
283
     0
284
     8
288
     1
289
     0
340
60C
371
    -1
372
    -1
  0
DIMSTYLE
105
84
330
A
100
AcDbSymbolTableRecord
100
AcDbDimStyleTableRecord
  2
AM_ISO$6
 70
     0
  4
"
 41
3.0
 42
1.0
 43
10.0
 44
1.5
 47
0.1
 48
0.1
 73
     0
 74
     0
 78
     8
 79
     2
140
3.0
141
0.0
143
0.0393701
146
0.71
147
1.0
172
     1
176
   256
177
   256
178
   256
271
     2
272
     2
283
     0
284
     8
340
60C
371
    -1
372
    -1
  0
DIMSTYLE
105
85
330
A
100
AcDbSymbolTableRecord
100
AcDbDimStyleTableRecord
  2
AM_ISO$7
 70
     0
  4
"
 41
3.0
 42
1.0
 43
10.0
 44
1.5
 47
0.1
 48
0.1
 73
     0
 74
     0
 77
     1
 78
     8
 79
     2
140
5.0
141
0.0
143
0.0393701
146
0.71
147
1.0
172
     1
176
   256
177
   256
178
   256
271
     2
272
     2
283
     0
284
     8
340
60C
371
    -1
372
    -1
  0
DIMSTYLE
105
86
330
A
100
AcDbSymbolTableRecord
100
AcDbDimStyleTableRecord
  2
AM_ISO$SF
 70
     0
  4
"
 41
2.5
 42
1.0
 43
10.0
 44
1.0
 47
0.1
 48
0.1
 73
     0
 74
     0
 75
     1
 76
     1
 77
     1
 78
     8
 79
     2
140
3.5
141
0.0
143
0.0393701
146
0.71
147
1.5
172
     1
176
   256
177
   256
178
     2
271
     2
272
     3
274
     4
283
     0
284
     8
340
11
371
    -1
372
    -1
  0
DIMSTYLE
105
8B
330
A
100
AcDbSymbolTableRecord
100
AcDbDimStyleTableRecord
  2
AM_ISO$SH
 70
     0
  4
"
 41
2.5
 42
1.0
 43
10.0
 44
1.0
 47
0.1
 48
0.1
 73
     0
 74
     0
 75
     1
 76
     1
 77
     1
 78
     8
 79
     2
140
3.5
141
0.0
143
0.0393701
144
2.0
146
0.71
147
1.5
172
     1
173
     1
176
   256
177
   256
178
     2
271
     2
272
     3
274
     4
283
     0
284
     8
340
11
343
87
371
    -1
372
    -1
  0
DIMSTYLE
105
40B
102
{ACAD_REACTORS
330
1092
330
10B9
330
10DF
330
1105
330
112B
330
1151
330
11D8
330
11DB
330
1208
330
120B
330
120E
330
1211
330
1288
330
128B
330
128E
330
1291
330
12FA
330
12FB
330
1341
330
1342
330
1343
330
1344
330
13B4
330
13B5
330
13E0
330
13E1
330
13E2
330
1434
330
144A
330
144B
330
14AC
330
14AD
330
14AE
330
151C
330
1532
330
1533
102
}
330
A
100
AcDbSymbolTableRecord
100
AcDbDimStyleTableRecord
  2
AM_ISO$0
 70
     0
  4
"
 41
3.0
 42
1.0
 43
10.0
 44
1.5
 47
0.1
 48
0.1
 73
     0
 74
     0
 77
     1
 78
     8
 79
     2
140
3.0
141
0.0
143
0.0393701
146
0.71
147
1.0
172
     1
176
   256
177
   256
178
   256
271
     2
272
     2
283
     0
284
     8
340
60C
371
    -1
372
    -1
  0
DIMSTYLE
105
7FC
330
A
100
AcDbSymbolTableRecord
100
AcDbDimStyleTableRecord
  2
AM_ANSI
 70
     0
  4
mm
 41
0.1
 42
0.05
 43
0.5
 44
0.1
 47
0.1
 48
0.1
 78
     7
 79
     2
140
0.12
141
0.0
146
0.71
147
0.06
176
   256
177
   256
178
     2
274
     4
284
     7
340
11
371
    -1
372
    -1
  0
DIMSTYLE
105
7FD
330
A
100
AcDbSymbolTableRecord
100
AcDbDimStyleTableRecord
  2
AM_ANSI$3
 70
     0
  4
mm
 41
0.1
 42
0.05
 43
0.5
 44
0.1
 47
0.1
 48
0.1
 78
     7
 79
     2
140
0.12
141
0.0
146
0.71
147
0.06
176
   256
177
   256
178
     2
274
     4
284
     7
288
     1
289
     0
340
11
371
    -1
372
    -1
  0
DIMSTYLE
105
7FE
330
A
100
AcDbSymbolTableRecord
100
AcDbDimStyleTableRecord
  2
AM_ANSI$4
 70
     0
  4
mm
 41
0.1
 42
0.05
 43
0.5
 44
0.1
 47
0.1
 48
0.1
 78
     7
 79
     2
140
0.12
141
0.0
146
0.71
147
0.06
176
   256
177
   256
178
     2
274
     4
284
     7
288
     1
289
     0
340
11
371
    -1
372
    -1
  0
DIMSTYLE
105
7FF
330
A
100
AcDbSymbolTableRecord
100
AcDbDimStyleTableRecord
  2
AM_ANSI$7
 70
     0
  4
mm
 41
0.1
 42
0.05
 43
0.5
 44
0.1
 47
0.1
 48
0.1
 78
     7
 79
     2
140
0.24
141
0.0
146
0.71
147
0.06
176
   256
177
   256
178
     2
274
     4
284
     7
340
11
371
    -1
372
    -1
  0
DIMSTYLE
105
800
330
A
100
AcDbSymbolTableRecord
100
AcDbDimStyleTableRecord
  2
AM_ANSI$SF
 70
     0
  4
mm
 41
0.1
 42
0.05
 43
0.5
 44
0.1
 47
0.1
 48
0.1
 75
     1
 76
     1
 78
     7
 79
     2
140
0.12
141
0.0
146
0.71
147
0.06
176
   256
177
   256
178
     2
274
     4
284
     7
340
11
371
    -1
372
    -1
  0
DIMSTYLE
105
801
330
A
100
AcDbSymbolTableRecord
100
AcDbDimStyleTableRecord
  2
AM_ANSI$SH
 70
     0
  4
mm
 41
0.1
 42
0.05
 43
0.5
 44
0.1
 47
0.1
 48
0.1
 75
     1
 76
     1
 78
     7
 79
     2
140
0.12
141
0.0
146
0.71
147
0.06
173
     1
176
   256
177
   256
178
     2
274
     4
284
     7
340
11
343
87
371
    -1
372
    -1
  0
ENDTAB
  0
TABLE
  2
BLOCK_RECORD
  5
1
330
0
100
AcDbSymbolTable
 70
    41
  0
BLOCK_RECORD
  5
1F
102
{ACAD_XDICTIONARY
360
8F
102
}
330
1
100
AcDbSymbolTableRecord
100
AcDbBlockTableRecord
  2
*Model_Space
340
22
  0
BLOCK_RECORD
  5
1B
330
1
100
AcDbSymbolTableRecord
100
AcDbBlockTableRecord
  2
*Paper_Space
340
1E
  0
BLOCK_RECORD
  5
23
330
1
100
AcDbSymbolTableRecord
100
AcDbBlockTableRecord
  2
*Paper_Space0
340
26
  0
BLOCK_RECORD
  5
87
330
1
100
AcDbSymbolTableRecord
100
AcDbBlockTableRecord
  2
GENAXEH
340
0
  0
BLOCK_RECORD
  5
7DF
330
1
100
AcDbSymbolTableRecord
100
AcDbBlockTableRecord
  2
NUT
340
0
102
{BLKREFS
331
89A
331
999
102
}
  0
BLOCK_RECORD
  5
1094
330
1
100
AcDbSymbolTableRecord
100
AcDbBlockTableRecord
  2
*D4
340
0
  0
BLOCK_RECORD
  5
10BA
330
1
100
AcDbSymbolTableRecord
100
AcDbBlockTableRecord
  2
*D5
340
0
  0
BLOCK_RECORD
  5
10E0
330
1
100
AcDbSymbolTableRecord
100
AcDbBlockTableRecord
  2
*D6
340
0
  0
BLOCK_RECORD
  5
1106
330
1
100
AcDbSymbolTableRecord
100
AcDbBlockTableRecord
  2
*D7
340
0
  0
BLOCK_RECORD
  5
112C
330
1
100
AcDbSymbolTableRecord
100
AcDbBlockTableRecord
  2
*D8
340
0
  0
BLOCK_RECORD
  5
1152
330
1
100
AcDbSymbolTableRecord
100
AcDbBlockTableRecord
  2
*D9
340
0
  0
BLOCK_RECORD
  5
11DE
330
1
100
AcDbSymbolTableRecord
100
AcDbBlockTableRecord
  2
*D10
340
0
  0
BLOCK_RECORD
  5
11EA
330
1
100
AcDbSymbolTableRecord
100
AcDbBlockTableRecord
  2
*D11
340
0
  0
BLOCK_RECORD
  5
1214
330
1
100
AcDbSymbolTableRecord
100
AcDbBlockTableRecord
  2
*D12
340
0
  0
BLOCK_RECORD
  5
1220
330
1
100
AcDbSymbolTableRecord
100
AcDbBlockTableRecord
  2
*D13
340
0
  0
BLOCK_RECORD
  5
122C
330
1
100
AcDbSymbolTableRecord
100
AcDbBlockTableRecord
  2
*D14
340
0
  0
BLOCK_RECORD
  5
1238
330
1
100
AcDbSymbolTableRecord
100
AcDbBlockTableRecord
  2
*D15
340
0
  0
BLOCK_RECORD
  5
1294
330
1
100
AcDbSymbolTableRecord
100
AcDbBlockTableRecord
  2
*D16
340
0
  0
BLOCK_RECORD
  5
12A0
330
1
100
AcDbSymbolTableRecord
100
AcDbBlockTableRecord
  2
*D17
340
0
  0
BLOCK_RECORD
  5
12AC
330
1
100
AcDbSymbolTableRecord
100
AcDbBlockTableRecord
  2
*D18
340
0
  0
BLOCK_RECORD
  5
12B8
330
1
100
AcDbSymbolTableRecord
100
AcDbBlockTableRecord
  2
*D19
340
0
  0
BLOCK_RECORD
  5
12FC
330
1
100
AcDbSymbolTableRecord
100
AcDbBlockTableRecord
  2
*D20
340
0
  0
BLOCK_RECORD
  5
1308
330
1
100
AcDbSymbolTableRecord
100
AcDbBlockTableRecord
  2
*D21
340
0
  0
BLOCK_RECORD
  5
1345
330
1
100
AcDbSymbolTableRecord
100
AcDbBlockTableRecord
  2
*D22
340
0
  0
BLOCK_RECORD
  5
1351
330
1
100
AcDbSymbolTableRecord
100
AcDbBlockTableRecord
  2
*D23
340
0
  0
BLOCK_RECORD
  5
135D
330
1
100
AcDbSymbolTableRecord
100
AcDbBlockTableRecord
  2
*D24
340
0
  0
BLOCK_RECORD
  5
1369
330
1
100
AcDbSymbolTableRecord
100
AcDbBlockTableRecord
  2
*D25
340
0
  0
BLOCK_RECORD
  5
13B6
330
1
100
AcDbSymbolTableRecord
100
AcDbBlockTableRecord
  2
*D26
340
0
  0
BLOCK_RECORD
  5
13C2
330
1
100
AcDbSymbolTableRecord
100
AcDbBlockTableRecord
  2
*D27
340
0
  0
BLOCK_RECORD
  5
13E3
330
1
100
AcDbSymbolTableRecord
100
AcDbBlockTableRecord
  2
*D28
340
0
  0
BLOCK_RECORD
  5
13EF
330
1
100
AcDbSymbolTableRecord
100
AcDbBlockTableRecord
  2
*D29
340
0
  0
BLOCK_RECORD
  5
13FB
330
1
100
AcDbSymbolTableRecord
100
AcDbBlockTableRecord
  2
*D30
340
0
  0
BLOCK_RECORD
  5
1435
330
1
100
AcDbSymbolTableRecord
100
AcDbBlockTableRecord
  2
*D31
340
0
  0
BLOCK_RECORD
  5
144C
330
1
100
AcDbSymbolTableRecord
100
AcDbBlockTableRecord
  2
*D32
340
0
  0
BLOCK_RECORD
  5
1458
330
1
100
AcDbSymbolTableRecord
100
AcDbBlockTableRecord
  2
*D33
340
0
  0
BLOCK_RECORD
  5
14AF
330
1
100
AcDbSymbolTableRecord
100
AcDbBlockTableRecord
  2
*D34
340
0
  0
BLOCK_RECORD
  5
14BB
330
1
100
AcDbSymbolTableRecord
100
AcDbBlockTableRecord
  2
*D35
340
0
  0
BLOCK_RECORD
  5
14C7
330
1
100
AcDbSymbolTableRecord
100
AcDbBlockTableRecord
  2
*D36
340
0
  0
BLOCK_RECORD
  5
151D
330
1
100
AcDbSymbolTableRecord
100
AcDbBlockTableRecord
  2
*D37
340
0
  0
BLOCK_RECORD
  5
1534
330
1
100
AcDbSymbolTableRecord
100
AcDbBlockTableRecord
  2
*D38
340
0
  0
BLOCK_RECORD
  5
1540
330
1
100
AcDbSymbolTableRecord
100
AcDbBlockTableRecord
  2
*D39
340
0
  0
ENDTAB
  0
ENDSEC
  0
SECTION
  2
BLOCKS
  0
BLOCK
  5
20
330
1F
100
AcDbEntity
  8
0
100
AcDbBlockBegin
  2
*Model_Space
 70
     0
 10
0.0
 20
0.0
 30
0.0
  3
*Model_Space
  1

  0
ENDBLK
  5
21
330
1F
100
AcDbEntity
  8
0
100
AcDbBlockEnd
  0
BLOCK
  5
1C
330
1B
100
AcDbEntity
 67
     1
  8
0
100
AcDbBlockBegin
  2
*Paper_Space
 70
     0
 10
0.0
 20
0.0
 30
0.0
  3
*Paper_Space
  1

  0
ENDBLK
  5
1D
330
1B
100
AcDbEntity
 67
     1
  8
0
100
AcDbBlockEnd
  0
BLOCK
  5
24
330
23
100
AcDbEntity
  8
0
100
AcDbBlockBegin
  2
*Paper_Space0
 70
     0
 10
0.0
 20
0.0
 30
0.0
  3
*Paper_Space0
  1

  0
ENDBLK
  5
25
330
23
100
AcDbEntity
  8
0
100
AcDbBlockEnd
  0
BLOCK
  5
89
330
87
100
AcDbEntity
  8
0
100
AcDbBlockBegin
  2
GENAXEH
 70
     0
 10
0.0
 20
0.0
 30
0.0
  3
GENAXEH
  1

  0
LINE
  5
88
330
87
100
AcDbEntity
  8
0
100
AcDbLine
 10
-1.0
 20
0.0
 30
0.0
 11
1.0
 21
0.0
 31
0.0
  0
ENDBLK
  5
8A
330
87
100
AcDbEntity
  8
0
100
AcDbBlockEnd
  0
BLOCK
  5
7E0
330
7DF
100
AcDbEntity
  8
0
 62
    16
100
AcDbBlockBegin
  2
NUT
 70
     0
 10
0.0
 20
0.0
 30
0.0
  3
NUT
  1

  0
LINE
  5
7E1
330
7DF
100
AcDbEntity
  8
0
100
AcDbLine
 10
-14.1153332026718
 20
0.0
 30
0.0
 11
14.11533320267187
 21
0.0
 31
0.0
  0
LINE
  5
7E2
330
7DF
100
AcDbEntity
  8
0
100
AcDbLine
 10
9.237604307034043
 20
-1.0
 30
0.0
 11
9.237604307034043
 21
-6.0
 31
0.0
  0
LINE
  5
7E3
330
7DF
100
AcDbEntity
  8
0
100
AcDbLine
 10
18.47520861406805
 20
-1.0
 30
0.0
 11
18.47520861406805
 21
-5.999999999999992
 31
0.0
  0
LINE
  5
7E4
330
7DF
100
AcDbEntity
  8
0
100
AcDbLine
 10
-9.237604307033986
 20
-1.0
 30
0.0
 11
-9.237604307033985
 21
-6.0
 31
0.0
  0
LINE
  5
7E5
330
7DF
100
AcDbEntity
  8
0
100
AcDbLine
 10
-18.47520861406799
 20
-1.0
 30
0.0
 11
-18.47520861406799
 21
-5.999999999999992
 31
0.0
  0
ARC
  5
7E6
330
7DF
100
AcDbEntity
  8
0
100
AcDbCircle
 10
0.00000000000003
 20
-43.16666666666667
 30
0.0
 40
43.16666666666667
100
AcDbArc
 50
77.64321860963466
 51
102.3567813903654
  0
ARC
  5
7E7
330
7DF
100
AcDbEntity
  8
0
100
AcDbCircle
 10
-13.85640646055099
 20
-11.13314513777401
 30
0.0
 40
11.13615569739066
100
AcDbArc
 50
65.49596495353864
 51
114.5040350464613
  0
ARC
  5
7E8
330
7DF
100
AcDbEntity
  8
0
100
AcDbCircle
 10
13.85640646055104
 20
-11.13314513777401
 30
0.0
 40
11.13615569739066
100
AcDbArc
 50
65.49596495353866
 51
114.5040350464613
  0
ENDBLK
  5
7E9
330
7DF
100
AcDbEntity
  8
0
100
AcDbBlockEnd
  0
BLOCK
  5
109E
330
1094
100
AcDbEntity
  8
0
100
AcDbBlockBegin
  2
*D4
 70
     1
 10
0.0
 20
0.0
 30
0.0
  3
*D4
  1

  0
LINE
  5
17C9
330
1094
100
AcDbEntity
  8
AM_5
100
AcDbLine
 10
2163.44947363888
 20
691.4211251270351
 30
0.0
 11
2186.94947363888
 21
691.4211251270351
 31
0.0
  0
LINE
  5
17CA
330
1094
100
AcDbEntity
  8
AM_5
100
AcDbLine
 10
2163.44947363888
 20
737.4211251270351
 30
0.0
 11
2186.94947363888
 21
737.4211251270351
 31
0.0
  0
LINE
  5
17CB
330
1094
100
AcDbEntity
  8
AM_5
100
AcDbLine
 10
2185.44947363888
 20
694.4211251270351
 30
0.0
 11
2185.44947363888
 21
734.4211251270351
 31
0.0
  0
SOLID
  5
17CC
330
1094
100
AcDbEntity
  8
AM_5
100
AcDbTrace
 10
2184.94947363888
 20
694.4211251270351
 30
0.0
 11
2185.94947363888
 21
694.4211251270351
 31
0.0
 12
2185.44947363888
 22
691.4211251270351
 32
0.0
 13
2185.44947363888
 23
691.4211251270351
 33
0.0
  0
SOLID
  5
17CD
330
1094
100
AcDbEntity
  8
AM_5
100
AcDbTrace
 10
2184.94947363888
 20
734.4211251270351
 30
0.0
 11
2185.94947363888
 21
734.4211251270351
 31
0.0
 12
2185.44947363888
 22
737.4211251270351
 32
0.0
 13
2185.44947363888
 23
737.4211251270351
 33
0.0
  0
MTEXT
  5
17CE
330
1094
100
AcDbEntity
  8
AM_5
100
AcDbMText
 10
2182.94947363888
 20
714.4211251270355
 30
0.0
 40
3.0
 41
0.0
 71
     5
 72
     1
  1
46
  7
CHINESET
 11
0.0000000000000001
 21
1.0
 31
0.0
 73
     1
 44
1.0
1001
ACAD
1000
MTEXTBEGIN
1070
    73
1070
     1
1070
    44
1040
1.0
1070
    74
1070
     0
1000
MTEXTEND
  0
POINT
  5
17CF
330
1094
100
AcDbEntity
  8
Defpoints
 62
     0
100
AcDbPoint
 10
2162.44947363888
 20
691.4211251270351
 30
0.0
  0
POINT
  5
17D0
330
1094
100
AcDbEntity
  8
Defpoints
 62
     0
100
AcDbPoint
 10
2162.44947363888
 20
737.4211251270351
 30
0.0
  0
POINT
  5
17D1
330
1094
100
AcDbEntity
  8
Defpoints
 62
     0
100
AcDbPoint
 10
2185.44947363888
 20
737.4211251270351
 30
0.0
  0
ENDBLK
  5
109F
330
1094
100
AcDbEntity
  8
0
100
AcDbBlockEnd
  0
BLOCK
  5
10C4
330
10BA
100
AcDbEntity
  8
0
100
AcDbBlockBegin
  2
*D5
 70
     1
 10
0.0
 20
0.0
 30
0.0
  3
*D5
  1

  0
LINE
  5
17D2
330
10BA
100
AcDbEntity
  8
AM_5
100
AcDbLine
 10
2162.69947363888
 20
699.4211251270351
 30
0.0
 11
2176.94947363888
 21
699.4211251270351
 31
0.0
  0
LINE
  5
17D3
330
10BA
100
AcDbEntity
  8
AM_5
100
AcDbLine
 10
2162.69947363888
 20
729.421125127035
 30
0.0
 11
2176.94947363888
 21
729.421125127035
 31
0.0
  0
LINE
  5
17D4
330
10BA
100
AcDbEntity
  8
AM_5
100
AcDbLine
 10
2175.44947363888
 20
702.4211251270351
 30
0.0
 11
2175.44947363888
 21
726.4211251270351
 31
0.0
  0
SOLID
  5
17D5
330
10BA
100
AcDbEntity
  8
AM_5
100
AcDbTrace
 10
2174.94947363888
 20
702.4211251270351
 30
0.0
 11
2175.94947363888
 21
702.4211251270351
 31
0.0
 12
2175.44947363888
 22
699.4211251270351
 32
0.0
 13
2175.44947363888
 23
699.4211251270351
 33
0.0
  0
SOLID
  5
17D6
330
10BA
100
AcDbEntity
  8
AM_5
100
AcDbTrace
 10
2174.94947363888
 20
726.4211251270351
 30
0.0
 11
2175.94947363888
 21
726.4211251270351
 31
0.0
 12
2175.44947363888
 22
729.421125127035
 32
0.0
 13
2175.44947363888
 23
729.421125127035
 33
0.0
  0
MTEXT
  5
17D7
330
10BA
100
AcDbEntity
  8
AM_5
100
AcDbMText
 10
2172.94947363888
 20
714.4211251270355
 30
0.0
 40
3.0
 41
0.0
 71
     5
 72
     1
  1
30
  7
CHINESET
 11
0.0000000000000001
 21
1.0
 31
0.0
 73
     1
 44
1.0
1001
ACAD
1000
MTEXTBEGIN
1070
    73
1070
     1
1070
    44
1040
1.0
1070
    74
1070
     0
1000
MTEXTEND
  0
POINT
  5
17D8
330
10BA
100
AcDbEntity
  8
Defpoints
 62
     0
100
AcDbPoint
 10
2161.69947363888
 20
699.4211251270351
 30
0.0
  0
POINT
  5
17D9
330
10BA
100
AcDbEntity
  8
Defpoints
 62
     0
100
AcDbPoint
 10
2161.69947363888
 20
729.421125127035
 30
0.0
  0
POINT
  5
17DA
330
10BA
100
AcDbEntity
  8
Defpoints
 62
     0
100
AcDbPoint
 10
2175.44947363888
 20
729.421125127035
 30
0.0
  0
ENDBLK
  5
10C5
330
10BA
100
AcDbEntity
  8
0
100
AcDbBlockEnd
  0
BLOCK
  5
10EA
330
10E0
100
AcDbEntity
  8
0
100
AcDbBlockBegin
  2
*D6
 70
     1
 10
0.0
 20
0.0
 30
0.0
  3
*D6
  1

  0
LINE
  5
17DB
330
10E0
100
AcDbEntity
  8
AM_5
100
AcDbLine
 10
2164.407807601635
 20
508.9561227128467
 30
0.0
 11
2176.907807601635
 21
508.9561227128466
 31
0.0
  0
LINE
  5
17DC
330
10E0
100
AcDbEntity
  8
AM_5
100
AcDbLine
 10
2154.907807601635
 20
606.9561227128467
 30
0.0
 11
2176.907807601635
 21
606.9561227128467
 31
0.0
  0
LINE
  5
17DD
330
10E0
100
AcDbEntity
  8
AM_5
100
AcDbLine
 10
2175.407807601635
 20
511.9561227128468
 30
0.0
 11
2175.407807601635
 21
603.9561227128467
 31
0.0
  0
SOLID
  5
17DE
330
10E0
100
AcDbEntity
  8
AM_5
100
AcDbTrace
 10
2174.907807601635
 20
511.9561227128468
 30
0.0
 11
2175.907807601635
 21
511.9561227128468
 31
0.0
 12
2175.407807601635
 22
508.9561227128467
 32
0.0
 13
2175.407807601635
 23
508.9561227128467
 33
0.0
  0
SOLID
  5
17DF
330
10E0
100
AcDbEntity
  8
AM_5
100
AcDbTrace
 10
2174.907807601635
 20
603.9561227128467
 30
0.0
 11
2175.907807601635
 21
603.9561227128467
 31
0.0
 12
2175.407807601635
 22
606.9561227128467
 32
0.0
 13
2175.407807601635
 23
606.9561227128467
 33
0.0
  0
MTEXT
  5
17E0
330
10E0
100
AcDbEntity
  8
AM_5
100
AcDbMText
 10
2172.907807601635
 20
557.9561227128471
 30
0.0
 40
3.0
 41
0.0
 71
     5
 72
     1
  1
98
  7
CHINESET
 11
0.0000000000000001
 21
1.0
 31
0.0
 73
     1
 44
1.0
1001
ACAD
1000
MTEXTBEGIN
1070
    73
1070
     1
1070
    44
1040
1.0
1070
    74
1070
     0
1000
MTEXTEND
  0
POINT
  5
17E1
330
10E0
100
AcDbEntity
  8
Defpoints
 62
     0
100
AcDbPoint
 10
2163.407807601635
 20
508.9561227128467
 30
0.0
  0
POINT
  5
17E2
330
10E0
100
AcDbEntity
  8
Defpoints
 62
     0
100
AcDbPoint
 10
2153.907807601635
 20
606.9561227128467
 30
0.0
  0
POINT
  5
17E3
330
10E0
100
AcDbEntity
  8
Defpoints
 62
     0
100
AcDbPoint
 10
2175.407807601635
 20
606.9561227128467
 30
0.0
  0
ENDBLK
  5
10EB
330
10E0
100
AcDbEntity
  8
0
100
AcDbBlockEnd
  0
BLOCK
  5
1110
330
1106
100
AcDbEntity
  8
0
100
AcDbBlockBegin
  2
*D7
 70
     1
 10
0.0
 20
0.0
 30
0.0
  3
*D7
  1

  0
LINE
  5
17E4
330
1106
100
AcDbEntity
  8
AM_5
100
AcDbLine
 10
2164.407807601635
 20
508.9561227128467
 30
0.0
 11
2186.907807601635
 21
508.9561227128466
 31
0.0
  0
LINE
  5
17E5
330
1106
100
AcDbEntity
  8
AM_5
100
AcDbLine
 10
2147.407807601635
 20
635.9561227128467
 30
0.0
 11
2186.907807601635
 21
635.9561227128467
 31
0.0
  0
LINE
  5
17E6
330
1106
100
AcDbEntity
  8
AM_5
100
AcDbLine
 10
2185.407807601635
 20
511.9561227128467
 30
0.0
 11
2185.407807601635
 21
632.9561227128468
 31
0.0
  0
SOLID
  5
17E7
330
1106
100
AcDbEntity
  8
AM_5
100
AcDbTrace
 10
2184.907807601635
 20
511.9561227128467
 30
0.0
 11
2185.907807601635
 21
511.9561227128467
 31
0.0
 12
2185.407807601635
 22
508.9561227128466
 32
0.0
 13
2185.407807601635
 23
508.9561227128466
 33
0.0
  0
SOLID
  5
17E8
330
1106
100
AcDbEntity
  8
AM_5
100
AcDbTrace
 10
2184.907807601635
 20
632.9561227128468
 30
0.0
 11
2185.907807601635
 21
632.9561227128468
 31
0.0
 12
2185.407807601635
 22
635.9561227128467
 32
0.0
 13
2185.407807601635
 23
635.9561227128467
 33
0.0
  0
MTEXT
  5
17E9
330
1106
100
AcDbEntity
  8
AM_5
100
AcDbMText
 10
2182.907807601635
 20
572.4561227128471
 30
0.0
 40
3.0
 41
0.0
 71
     5
 72
     1
  1
127
  7
CHINESET
 11
0.0000000000000001
 21
1.0
 31
0.0
 73
     1
 44
1.0
1001
ACAD
1000
MTEXTBEGIN
1070
    73
1070
     1
1070
    44
1040
1.0
1070
    74
1070
     0
1000
MTEXTEND
  0
POINT
  5
17EA
330
1106
100
AcDbEntity
  8
Defpoints
 62
     0
100
AcDbPoint
 10
2163.407807601635
 20
508.9561227128467
 30
0.0
  0
POINT
  5
17EB
330
1106
100
AcDbEntity
  8
Defpoints
 62
     0
100
AcDbPoint
 10
2146.407807601635
 20
635.9561227128467
 30
0.0
  0
POINT
  5
17EC
330
1106
100
AcDbEntity
  8
Defpoints
 62
     0
100
AcDbPoint
 10
2185.407807601635
 20
635.9561227128467
 30
0.0
  0
ENDBLK
  5
1111
330
1106
100
AcDbEntity
  8
0
100
AcDbBlockEnd
  0
BLOCK
  5
1136
330
112C
100
AcDbEntity
  8
0
100
AcDbBlockBegin
  2
*D8
 70
     1
 10
0.0
 20
0.0
 30
0.0
  3
*D8
  1

  0
LINE
  5
17ED
330
112C
100
AcDbEntity
  8
AM_5
100
AcDbLine
 10
2098.407807601635
 20
526.9561227128467
 30
0.0
 11
2085.907806601635
 21
526.9561227128467
 31
0.0
  0
LINE
  5
17EE
330
112C
100
AcDbEntity
  8
AM_5
100
AcDbLine
 10
2098.407807601635
 20
508.9561227128467
 30
0.0
 11
2085.907806601635
 21
508.9561227128467
 31
0.0
  0
LINE
  5
17EF
330
112C
100
AcDbEntity
  8
AM_5
100
AcDbLine
 10
2087.407806601635
 20
523.9561227128468
 30
0.0
 11
2087.407806601635
 21
511.9561227128468
 31
0.0
  0
SOLID
  5
17F0
330
112C
100
AcDbEntity
  8
AM_5
100
AcDbTrace
 10
2086.907806601635
 20
523.9561227128468
 30
0.0
 11
2087.907806601635
 21
523.9561227128468
 31
0.0
 12
2087.407806601635
 22
526.9561227128467
 32
0.0
 13
2087.407806601635
 23
526.9561227128467
 33
0.0
  0
SOLID
  5
17F1
330
112C
100
AcDbEntity
  8
AM_5
100
AcDbTrace
 10
2086.907806601635
 20
511.9561227128468
 30
0.0
 11
2087.907806601635
 21
511.9561227128468
 31
0.0
 12
2087.407806601635
 22
508.9561227128467
 32
0.0
 13
2087.407806601635
 23
508.9561227128467
 33
0.0
  0
MTEXT
  5
17F2
330
112C
100
AcDbEntity
  8
AM_5
100
AcDbMText
 10
2084.907806601635
 20
517.9561227128471
 30
0.0
 40
3.0
 41
0.0
 71
     5
 72
     1
  1
18
  7
CHINESET
 11
0.0000000000000001
 21
1.0
 31
0.0
 73
     1
 44
1.0
1001
ACAD
1000
MTEXTBEGIN
1070
    73
1070
     1
1070
    44
1040
1.0
1070
    74
1070
     0
1000
MTEXTEND
  0
POINT
  5
17F3
330
112C
100
AcDbEntity
  8
Defpoints
 62
     0
100
AcDbPoint
 10
2099.407807601635
 20
526.9561227128467
 30
0.0
  0
POINT
  5
17F4
330
112C
100
AcDbEntity
  8
Defpoints
 62
     0
100
AcDbPoint
 10
2099.407807601635
 20
508.9561227128467
 30
0.0
  0
POINT
  5
17F5
330
112C
100
AcDbEntity
  8
Defpoints
 62
     0
100
AcDbPoint
 10
2087.407806601635
 20
508.9561227128467
 30
0.0
  0
ENDBLK
  5
1137
330
112C
100
AcDbEntity
  8
0
100
AcDbBlockEnd
  0
BLOCK
  5
115C
330
1152
100
AcDbEntity
  8
0
100
AcDbBlockBegin
  2
*D9
 70
     1
 10
0.0
 20
0.0
 30
0.0
  3
*D9
  1

  0
LINE
  5
17F6
330
1152
100
AcDbEntity
  8
AM_5
100
AcDbLine
 10
2147.407807601635
 20
654.9561227128467
 30
0.0
 11
2186.907807601635
 21
654.9561227128467
 31
0.0
  0
LINE
  5
17F7
330
1152
100
AcDbEntity
  8
AM_5
100
AcDbLine
 10
2147.407807601635
 20
635.9561227128467
 30
0.0
 11
2186.907807601635
 21
635.9561227128467
 31
0.0
  0
LINE
  5
17F8
330
1152
100
AcDbEntity
  8
AM_5
100
AcDbLine
 10
2185.407807601635
 20
651.9561227128467
 30
0.0
 11
2185.407807601635
 21
638.9561227128467
 31
0.0
  0
SOLID
  5
17F9
330
1152
100
AcDbEntity
  8
AM_5
100
AcDbTrace
 10
2184.907807601635
 20
651.9561227128467
 30
0.0
 11
2185.907807601635
 21
651.9561227128467
 31
0.0
 12
2185.407807601635
 22
654.9561227128467
 32
0.0
 13
2185.407807601635
 23
654.9561227128467
 33
0.0
  0
SOLID
  5
17FA
330
1152
100
AcDbEntity
  8
AM_5
100
AcDbTrace
 10
2184.907807601635
 20
638.9561227128467
 30
0.0
 11
2185.907807601635
 21
638.9561227128467
 31
0.0
 12
2185.407807601635
 22
635.9561227128467
 32
0.0
 13
2185.407807601635
 23
635.9561227128467
 33
0.0
  0
MTEXT
  5
17FB
330
1152
100
AcDbEntity
  8
AM_5
100
AcDbMText
 10
2182.907807601635
 20
645.4561227128471
 30
0.0
 40
3.0
 41
0.0
 71
     5
 72
     1
  1
19
  7
CHINESET
 11
0.0000000000000001
 21
1.0
 31
0.0
 73
     1
 44
1.0
1001
ACAD
1000
MTEXTBEGIN
1070
    73
1070
     1
1070
    44
1040
1.0
1070
    74
1070
     0
1000
MTEXTEND
  0
POINT
  5
17FC
330
1152
100
AcDbEntity
  8
Defpoints
 62
     0
100
AcDbPoint
 10
2146.407807601635
 20
654.9561227128467
 30
0.0
  0
POINT
  5
17FD
330
1152
100
AcDbEntity
  8
Defpoints
 62
     0
100
AcDbPoint
 10
2146.407807601635
 20
635.9561227128467
 30
0.0
  0
POINT
  5
17FE
330
1152
100
AcDbEntity
  8
Defpoints
 62
     0
100
AcDbPoint
 10
2185.407807601635
 20
635.9561227128467
 30
0.0
  0
ENDBLK
  5
115D
330
1152
100
AcDbEntity
  8
0
100
AcDbBlockEnd
  0
BLOCK
  5
11E8
330
11DE
100
AcDbEntity
  8
0
100
AcDbBlockBegin
  2
*D10
 70
     1
 10
0.0
 20
0.0
 30
0.0
  3
*D10
  1

  0
LINE
  5
186C
330
11DE
100
AcDbEntity
  8
AM_5
100
AcDbLine
 10
2163.407807601635
 20
341.7380259360413
 30
0.0
 11
2186.907807601635
 21
341.7380259360412
 31
0.0
  0
LINE
  5
186D
330
11DE
100
AcDbEntity
  8
AM_5
100
AcDbLine
 10
2163.407807601635
 20
387.7380259360413
 30
0.0
 11
2186.907807601635
 21
387.7380259360412
 31
0.0
  0
LINE
  5
186E
330
11DE
100
AcDbEntity
  8
AM_5
100
AcDbLine
 10
2185.407807601635
 20
344.7380259360412
 30
0.0
 11
2185.407807601635
 21
384.7380259360412
 31
0.0
  0
SOLID
  5
186F
330
11DE
100
AcDbEntity
  8
AM_5
100
AcDbTrace
 10
2184.907807601635
 20
344.7380259360412
 30
0.0
 11
2185.907807601635
 21
344.7380259360412
 31
0.0
 12
2185.407807601635
 22
341.7380259360412
 32
0.0
 13
2185.407807601635
 23
341.7380259360412
 33
0.0
  0
SOLID
  5
1870
330
11DE
100
AcDbEntity
  8
AM_5
100
AcDbTrace
 10
2184.907807601635
 20
384.7380259360412
 30
0.0
 11
2185.907807601635
 21
384.7380259360412
 31
0.0
 12
2185.407807601635
 22
387.7380259360412
 32
0.0
 13
2185.407807601635
 23
387.7380259360412
 33
0.0
  0
MTEXT
  5
1871
330
11DE
100
AcDbEntity
  8
AM_5
100
AcDbMText
 10
2182.907807601635
 20
364.7380259360416
 30
0.0
 40
3.0
 41
0.0
 71
     5
 72
     1
  1
46
  7
CHINESET
 11
0.0000000000000001
 21
1.0
 31
0.0
 73
     1
 44
1.0
1001
ACAD
1000
MTEXTBEGIN
1070
    73
1070
     1
1070
    44
1040
1.0
1070
    74
1070
     0
1000
MTEXTEND
  0
POINT
  5
1872
330
11DE
100
AcDbEntity
  8
Defpoints
 62
     0
100
AcDbPoint
 10
2162.407807601635
 20
341.7380259360413
 30
0.0
  0
POINT
  5
1873
330
11DE
100
AcDbEntity
  8
Defpoints
 62
     0
100
AcDbPoint
 10
2162.407807601635
 20
387.7380259360413
 30
0.0
  0
POINT
  5
1874
330
11DE
100
AcDbEntity
  8
Defpoints
 62
     0
100
AcDbPoint
 10
2185.407807601635
 20
387.7380259360412
 30
0.0
  0
ENDBLK
  5
11E9
330
11DE
100
AcDbEntity
  8
0
100
AcDbBlockEnd
  0
BLOCK
  5
11F4
330
11EA
100
AcDbEntity
  8
0
100
AcDbBlockBegin
  2
*D11
 70
     1
 10
0.0
 20
0.0
 30
0.0
  3
*D11
  1

  0
LINE
  5
1875
330
11EA
100
AcDbEntity
  8
AM_5
100
AcDbLine
 10
2162.657807601635
 20
349.7380259360412
 30
0.0
 11
2176.907807601635
 21
349.7380259360412
 31
0.0
  0
LINE
  5
1876
330
11EA
100
AcDbEntity
  8
AM_5
100
AcDbLine
 10
2162.657807601635
 20
379.7380259360413
 30
0.0
 11
2176.907807601635
 21
379.7380259360412
 31
0.0
  0
LINE
  5
1877
330
11EA
100
AcDbEntity
  8
AM_5
100
AcDbLine
 10
2175.407807601635
 20
352.7380259360413
 30
0.0
 11
2175.407807601635
 21
376.7380259360412
 31
0.0
  0
SOLID
  5
1878
330
11EA
100
AcDbEntity
  8
AM_5
100
AcDbTrace
 10
2174.907807601635
 20
352.7380259360413
 30
0.0
 11
2175.907807601635
 21
352.7380259360413
 31
0.0
 12
2175.407807601635
 22
349.7380259360412
 32
0.0
 13
2175.407807601635
 23
349.7380259360412
 33
0.0
  0
SOLID
  5
1879
330
11EA
100
AcDbEntity
  8
AM_5
100
AcDbTrace
 10
2174.907807601635
 20
376.7380259360412
 30
0.0
 11
2175.907807601635
 21
376.7380259360412
 31
0.0
 12
2175.407807601635
 22
379.7380259360413
 32
0.0
 13
2175.407807601635
 23
379.7380259360413
 33
0.0
  0
MTEXT
  5
187A
330
11EA
100
AcDbEntity
  8
AM_5
100
AcDbMText
 10
2172.907807601635
 20
364.7380259360416
 30
0.0
 40
3.0
 41
0.0
 71
     5
 72
     1
  1
30
  7
CHINESET
 11
0.0000000000000001
 21
1.0
 31
0.0
 73
     1
 44
1.0
1001
ACAD
1000
MTEXTBEGIN
1070
    73
1070
     1
1070
    44
1040
1.0
1070
    74
1070
     0
1000
MTEXTEND
  0
POINT
  5
187B
330
11EA
100
AcDbEntity
  8
Defpoints
 62
     0
100
AcDbPoint
 10
2161.657807601635
 20
349.7380259360412
 30
0.0
  0
POINT
  5
187C
330
11EA
100
AcDbEntity
  8
Defpoints
 62
     0
100
AcDbPoint
 10
2161.657807601635
 20
379.7380259360413
 30
0.0
  0
POINT
  5
187D
330
11EA
100
AcDbEntity
  8
Defpoints
 62
     0
100
AcDbPoint
 10
2175.407807601635
 20
379.7380259360413
 30
0.0
  0
ENDBLK
  5
11F5
330
11EA
100
AcDbEntity
  8
0
100
AcDbBlockEnd
  0
BLOCK
  5
121E
330
1214
100
AcDbEntity
  8
0
100
AcDbBlockBegin
  2
*D12
 70
     1
 10
0.0
 20
0.0
 30
0.0
  3
*D12
  1

  0
LINE
  5
187E
330
1214
100
AcDbEntity
  8
AM_5
100
AcDbLine
 10
2164.36614156439
 20
159.2730235218529
 30
0.0
 11
2176.86614156439
 21
159.2730235218529
 31
0.0
  0
LINE
  5
187F
330
1214
100
AcDbEntity
  8
AM_5
100
AcDbLine
 10
2154.86614156439
 20
257.2730235218529
 30
0.0
 11
2176.86614156439
 21
257.2730235218529
 31
0.0
  0
LINE
  5
1880
330
1214
100
AcDbEntity
  8
AM_5
100
AcDbLine
 10
2175.36614156439
 20
162.2730235218529
 30
0.0
 11
2175.36614156439
 21
254.2730235218529
 31
0.0
  0
SOLID
  5
1881
330
1214
100
AcDbEntity
  8
AM_5
100
AcDbTrace
 10
2174.86614156439
 20
162.2730235218529
 30
0.0
 11
2175.86614156439
 21
162.2730235218529
 31
0.0
 12
2175.36614156439
 22
159.2730235218529
 32
0.0
 13
2175.36614156439
 23
159.2730235218529
 33
0.0
  0
SOLID
  5
1882
330
1214
100
AcDbEntity
  8
AM_5
100
AcDbTrace
 10
2174.86614156439
 20
254.2730235218529
 30
0.0
 11
2175.86614156439
 21
254.2730235218529
 31
0.0
 12
2175.36614156439
 22
257.2730235218529
 32
0.0
 13
2175.36614156439
 23
257.2730235218529
 33
0.0
  0
MTEXT
  5
1883
330
1214
100
AcDbEntity
  8
AM_5
100
AcDbMText
 10
2172.866141564389
 20
208.2730235218532
 30
0.0
 40
3.0
 41
0.0
 71
     5
 72
     1
  1
98
  7
CHINESET
 11
0.0000000000000001
 21
1.0
 31
0.0
 73
     1
 44
1.0
1001
ACAD
1000
MTEXTBEGIN
1070
    73
1070
     1
1070
    44
1040
1.0
1070
    74
1070
     0
1000
MTEXTEND
  0
POINT
  5
1884
330
1214
100
AcDbEntity
  8
Defpoints
 62
     0
100
AcDbPoint
 10
2163.36614156439
 20
159.2730235218529
 30
0.0
  0
POINT
  5
1885
330
1214
100
AcDbEntity
  8
Defpoints
 62
     0
100
AcDbPoint
 10
2153.86614156439
 20
257.2730235218529
 30
0.0
  0
POINT
  5
1886
330
1214
100
AcDbEntity
  8
Defpoints
 62
     0
100
AcDbPoint
 10
2175.36614156439
 20
257.2730235218529
 30
0.0
  0
ENDBLK
  5
121F
330
1214
100
AcDbEntity
  8
0
100
AcDbBlockEnd
  0
BLOCK
  5
122A
330
1220
100
AcDbEntity
  8
0
100
AcDbBlockBegin
  2
*D13
 70
     1
 10
0.0
 20
0.0
 30
0.0
  3
*D13
  1

  0
LINE
  5
1887
330
1220
100
AcDbEntity
  8
AM_5
100
AcDbLine
 10
2164.36614156439
 20
159.2730235218529
 30
0.0
 11
2186.86614156439
 21
159.2730235218529
 31
0.0
  0
LINE
  5
1888
330
1220
100
AcDbEntity
  8
AM_5
100
AcDbLine
 10
2147.36614156439
 20
286.2730235218529
 30
0.0
 11
2186.86614156439
 21
286.2730235218529
 31
0.0
  0
LINE
  5
1889
330
1220
100
AcDbEntity
  8
AM_5
100
AcDbLine
 10
2185.36614156439
 20
162.2730235218529
 30
0.0
 11
2185.36614156439
 21
283.2730235218528
 31
0.0
  0
SOLID
  5
188A
330
1220
100
AcDbEntity
  8
AM_5
100
AcDbTrace
 10
2184.866141564389
 20
162.2730235218529
 30
0.0
 11
2185.86614156439
 21
162.2730235218529
 31
0.0
 12
2185.36614156439
 22
159.2730235218529
 32
0.0
 13
2185.36614156439
 23
159.2730235218529
 33
0.0
  0
SOLID
  5
188B
330
1220
100
AcDbEntity
  8
AM_5
100
AcDbTrace
 10
2184.866141564389
 20
283.2730235218528
 30
0.0
 11
2185.86614156439
 21
283.2730235218528
 31
0.0
 12
2185.36614156439
 22
286.2730235218529
 32
0.0
 13
2185.36614156439
 23
286.2730235218529
 33
0.0
  0
MTEXT
  5
188C
330
1220
100
AcDbEntity
  8
AM_5
100
AcDbMText
 10
2182.86614156439
 20
222.7730235218532
 30
0.0
 40
3.0
 41
0.0
 71
     5
 72
     1
  1
127
  7
CHINESET
 11
0.0000000000000001
 21
1.0
 31
0.0
 73
     1
 44
1.0
1001
ACAD
1000
MTEXTBEGIN
1070
    73
1070
     1
1070
    44
1040
1.0
1070
    74
1070
     0
1000
MTEXTEND
  0
POINT
  5
188D
330
1220
100
AcDbEntity
  8
Defpoints
 62
     0
100
AcDbPoint
 10
2163.36614156439
 20
159.2730235218529
 30
0.0
  0
POINT
  5
188E
330
1220
100
AcDbEntity
  8
Defpoints
 62
     0
100
AcDbPoint
 10
2146.36614156439
 20
286.2730235218529
 30
0.0
  0
POINT
  5
188F
330
1220
100
AcDbEntity
  8
Defpoints
 62
     0
100
AcDbPoint
 10
2185.36614156439
 20
286.2730235218529
 30
0.0
  0
ENDBLK
  5
122B
330
1220
100
AcDbEntity
  8
0
100
AcDbBlockEnd
  0
BLOCK
  5
1236
330
122C
100
AcDbEntity
  8
0
100
AcDbBlockBegin
  2
*D14
 70
     1
 10
0.0
 20
0.0
 30
0.0
  3
*D14
  1

  0
LINE
  5
1890
330
122C
100
AcDbEntity
  8
AM_5
100
AcDbLine
 10
2098.36614156439
 20
177.2730235218529
 30
0.0
 11
2085.86614056439
 21
177.2730235218529
 31
0.0
  0
LINE
  5
1891
330
122C
100
AcDbEntity
  8
AM_5
100
AcDbLine
 10
2098.36614156439
 20
159.2730235218529
 30
0.0
 11
2085.86614056439
 21
159.2730235218529
 31
0.0
  0
LINE
  5
1892
330
122C
100
AcDbEntity
  8
AM_5
100
AcDbLine
 10
2087.36614056439
 20
174.2730235218529
 30
0.0
 11
2087.36614056439
 21
162.2730235218529
 31
0.0
  0
SOLID
  5
1893
330
122C
100
AcDbEntity
  8
AM_5
100
AcDbTrace
 10
2086.86614056439
 20
174.2730235218529
 30
0.0
 11
2087.86614056439
 21
174.2730235218529
 31
0.0
 12
2087.36614056439
 22
177.2730235218529
 32
0.0
 13
2087.36614056439
 23
177.2730235218529
 33
0.0
  0
SOLID
  5
1894
330
122C
100
AcDbEntity
  8
AM_5
100
AcDbTrace
 10
2086.86614056439
 20
162.2730235218529
 30
0.0
 11
2087.86614056439
 21
162.2730235218529
 31
0.0
 12
2087.36614056439
 22
159.2730235218529
 32
0.0
 13
2087.36614056439
 23
159.2730235218529
 33
0.0
  0
MTEXT
  5
1895
330
122C
100
AcDbEntity
  8
AM_5
100
AcDbMText
 10
2084.86614056439
 20
168.2730235218532
 30
0.0
 40
3.0
 41
0.0
 71
     5
 72
     1
  1
18
  7
CHINESET
 11
0.0000000000000001
 21
1.0
 31
0.0
 73
     1
 44
1.0
1001
ACAD
1000
MTEXTBEGIN
1070
    73
1070
     1
1070
    44
1040
1.0
1070
    74
1070
     0
1000
MTEXTEND
  0
POINT
  5
1896
330
122C
100
AcDbEntity
  8
Defpoints
 62
     0
100
AcDbPoint
 10
2099.36614156439
 20
177.2730235218529
 30
0.0
  0
POINT
  5
1897
330
122C
100
AcDbEntity
  8
Defpoints
 62
     0
100
AcDbPoint
 10
2099.36614156439
 20
159.2730235218529
 30
0.0
  0
POINT
  5
1898
330
122C
100
AcDbEntity
  8
Defpoints
 62
     0
100
AcDbPoint
 10
2087.36614056439
 20
159.2730235218529
 30
0.0
  0
ENDBLK
  5
1237
330
122C
100
AcDbEntity
  8
0
100
AcDbBlockEnd
  0
BLOCK
  5
1242
330
1238
100
AcDbEntity
  8
0
100
AcDbBlockBegin
  2
*D15
 70
     1
 10
0.0
 20
0.0
 30
0.0
  3
*D15
  1

  0
LINE
  5
1899
330
1238
100
AcDbEntity
  8
AM_5
100
AcDbLine
 10
2147.36614156439
 20
305.2730235218529
 30
0.0
 11
2186.86614156439
 21
305.2730235218529
 31
0.0
  0
LINE
  5
189A
330
1238
100
AcDbEntity
  8
AM_5
100
AcDbLine
 10
2147.36614156439
 20
286.2730235218529
 30
0.0
 11
2186.86614156439
 21
286.2730235218529
 31
0.0
  0
LINE
  5
189B
330
1238
100
AcDbEntity
  8
AM_5
100
AcDbLine
 10
2185.36614156439
 20
302.2730235218528
 30
0.0
 11
2185.36614156439
 21
289.2730235218528
 31
0.0
  0
SOLID
  5
189C
330
1238
100
AcDbEntity
  8
AM_5
100
AcDbTrace
 10
2184.866141564389
 20
302.2730235218528
 30
0.0
 11
2185.86614156439
 21
302.2730235218528
 31
0.0
 12
2185.36614156439
 22
305.2730235218529
 32
0.0
 13
2185.36614156439
 23
305.2730235218529
 33
0.0
  0
SOLID
  5
189D
330
1238
100
AcDbEntity
  8
AM_5
100
AcDbTrace
 10
2184.866141564389
 20
289.2730235218528
 30
0.0
 11
2185.86614156439
 21
289.2730235218528
 31
0.0
 12
2185.36614156439
 22
286.2730235218529
 32
0.0
 13
2185.36614156439
 23
286.2730235218529
 33
0.0
  0
MTEXT
  5
189E
330
1238
100
AcDbEntity
  8
AM_5
100
AcDbMText
 10
2182.86614156439
 20
295.7730235218532
 30
0.0
 40
3.0
 41
0.0
 71
     5
 72
     1
  1
19
  7
CHINESET
 11
0.0000000000000001
 21
1.0
 31
0.0
 73
     1
 44
1.0
1001
ACAD
1000
MTEXTBEGIN
1070
    73
1070
     1
1070
    44
1040
1.0
1070
    74
1070
     0
1000
MTEXTEND
  0
POINT
  5
189F
330
1238
100
AcDbEntity
  8
Defpoints
 62
     0
100
AcDbPoint
 10
2146.36614156439
 20
305.2730235218529
 30
0.0
  0
POINT
  5
18A0
330
1238
100
AcDbEntity
  8
Defpoints
 62
     0
100
AcDbPoint
 10
2146.36614156439
 20
286.2730235218529
 30
0.0
  0
POINT
  5
18A1
330
1238
100
AcDbEntity
  8
Defpoints
 62
     0
100
AcDbPoint
 10
2185.36614156439
 20
286.2730235218529
 30
0.0
  0
ENDBLK
  5
1243
330
1238
100
AcDbEntity
  8
0
100
AcDbBlockEnd
  0
BLOCK
  5
129E
330
1294
100
AcDbEntity
  8
0
100
AcDbBlockBegin
  2
*D16
 70
     1
 10
0.0
 20
0.0
 30
0.0
  3
*D16
  1

  0
LINE
  5
1A53
330
1294
100
AcDbEntity
  8
AM_5
100
AcDbLine
 10
2518.476583508878
 20
508.9561227128467
 30
0.0
 11
2530.976583508878
 21
508.9561227128467
 31
0.0
  0
LINE
  5
1A54
330
1294
100
AcDbEntity
  8
AM_5
100
AcDbLine
 10
2507.476583508879
 20
605.9561227128467
 30
0.0
 11
2530.976583508878
 21
605.9561227128467
 31
0.0
  0
LINE
  5
1A55
330
1294
100
AcDbEntity
  8
AM_5
100
AcDbLine
 10
2529.476583508878
 20
511.9561227128468
 30
0.0
 11
2529.476583508878
 21
602.9561227128468
 31
0.0
  0
SOLID
  5
1A56
330
1294
100
AcDbEntity
  8
AM_5
100
AcDbTrace
 10
2528.976583508879
 20
511.9561227128468
 30
0.0
 11
2529.976583508878
 21
511.9561227128468
 31
0.0
 12
2529.476583508878
 22
508.9561227128467
 32
0.0
 13
2529.476583508878
 23
508.9561227128467
 33
0.0
  0
SOLID
  5
1A57
330
1294
100
AcDbEntity
  8
AM_5
100
AcDbTrace
 10
2528.976583508879
 20
602.9561227128468
 30
0.0
 11
2529.976583508878
 21
602.9561227128468
 31
0.0
 12
2529.476583508878
 22
605.9561227128467
 32
0.0
 13
2529.476583508878
 23
605.9561227128467
 33
0.0
  0
MTEXT
  5
1A58
330
1294
100
AcDbEntity
  8
AM_5
100
AcDbMText
 10
2526.976583508878
 20
557.4561227128472
 30
0.0
 40
3.0
 41
0.0
 71
     5
 72
     1
  1
97
  7
CHINESET
 11
0.0000000000000001
 21
1.0
 31
0.0
 73
     1
 44
1.0
1001
ACAD
1000
MTEXTBEGIN
1070
    73
1070
     1
1070
    44
1040
1.0
1070
    74
1070
     0
1000
MTEXTEND
  0
POINT
  5
1A59
330
1294
100
AcDbEntity
  8
Defpoints
 62
     0
100
AcDbPoint
 10
2517.476583508879
 20
508.9561227128467
 30
0.0
  0
POINT
  5
1A5A
330
1294
100
AcDbEntity
  8
Defpoints
 62
     0
100
AcDbPoint
 10
2506.476583508879
 20
605.9561227128467
 30
0.0
  0
POINT
  5
1A5B
330
1294
100
AcDbEntity
  8
Defpoints
 62
     0
100
AcDbPoint
 10
2529.476583508878
 20
605.9561227128467
 30
0.0
  0
ENDBLK
  5
129F
330
1294
100
AcDbEntity
  8
0
100
AcDbBlockEnd
  0
BLOCK
  5
12AA
330
12A0
100
AcDbEntity
  8
0
100
AcDbBlockBegin
  2
*D17
 70
     1
 10
0.0
 20
0.0
 30
0.0
  3
*D17
  1

  0
LINE
  5
1A5C
330
12A0
100
AcDbEntity
  8
AM_5
100
AcDbLine
 10
2518.476583508878
 20
508.9561227128467
 30
0.0
 11
2540.976583508879
 21
508.9561227128467
 31
0.0
  0
LINE
  5
1A5D
330
12A0
100
AcDbEntity
  8
AM_5
100
AcDbLine
 10
2501.476583508879
 20
635.9561227128467
 30
0.0
 11
2540.976583508879
 21
635.9561227128467
 31
0.0
  0
LINE
  5
1A5E
330
12A0
100
AcDbEntity
  8
AM_5
100
AcDbLine
 10
2539.476583508879
 20
511.9561227128468
 30
0.0
 11
2539.476583508879
 21
632.9561227128468
 31
0.0
  0
SOLID
  5
1A5F
330
12A0
100
AcDbEntity
  8
AM_5
100
AcDbTrace
 10
2538.976583508878
 20
511.9561227128468
 30
0.0
 11
2539.976583508878
 21
511.9561227128468
 31
0.0
 12
2539.476583508879
 22
508.9561227128467
 32
0.0
 13
2539.476583508879
 23
508.9561227128467
 33
0.0
  0
SOLID
  5
1A60
330
12A0
100
AcDbEntity
  8
AM_5
100
AcDbTrace
 10
2538.976583508878
 20
632.9561227128468
 30
0.0
 11
2539.976583508878
 21
632.9561227128468
 31
0.0
 12
2539.476583508879
 22
635.9561227128467
 32
0.0
 13
2539.476583508879
 23
635.9561227128467
 33
0.0
  0
MTEXT
  5
1A61
330
12A0
100
AcDbEntity
  8
AM_5
100
AcDbMText
 10
2536.976583508879
 20
572.4561227128472
 30
0.0
 40
3.0
 41
0.0
 71
     5
 72
     1
  1
127
  7
CHINESET
 11
0.0000000000000001
 21
1.0
 31
0.0
 73
     1
 44
1.0
1001
ACAD
1000
MTEXTBEGIN
1070
    73
1070
     1
1070
    44
1040
1.0
1070
    74
1070
     0
1000
MTEXTEND
  0
POINT
  5
1A62
330
12A0
100
AcDbEntity
  8
Defpoints
 62
     0
100
AcDbPoint
 10
2517.476583508879
 20
508.9561227128467
 30
0.0
  0
POINT
  5
1A63
330
12A0
100
AcDbEntity
  8
Defpoints
 62
     0
100
AcDbPoint
 10
2500.476583508878
 20
635.9561227128467
 30
0.0
  0
POINT
  5
1A64
330
12A0
100
AcDbEntity
  8
Defpoints
 62
     0
100
AcDbPoint
 10
2539.476583508879
 20
635.9561227128467
 30
0.0
  0
ENDBLK
  5
12AB
330
12A0
100
AcDbEntity
  8
0
100
AcDbBlockEnd
  0
BLOCK
  5
12B6
330
12AC
100
AcDbEntity
  8
0
100
AcDbBlockBegin
  2
*D18
 70
     1
 10
0.0
 20
0.0
 30
0.0
  3
*D18
  1

  0
LINE
  5
1A65
330
12AC
100
AcDbEntity
  8
AM_5
100
AcDbLine
 10
2450.476583508879
 20
526.9561227128467
 30
0.0
 11
2439.976582508879
 21
526.9561227128467
 31
0.0
  0
LINE
  5
1A66
330
12AC
100
AcDbEntity
  8
AM_5
100
AcDbLine
 10
2450.476583508879
 20
508.9561227128467
 30
0.0
 11
2439.976582508879
 21
508.9561227128467
 31
0.0
  0
LINE
  5
1A67
330
12AC
100
AcDbEntity
  8
AM_5
100
AcDbLine
 10
2441.476582508879
 20
523.9561227128468
 30
0.0
 11
2441.476582508879
 21
511.9561227128468
 31
0.0
  0
SOLID
  5
1A68
330
12AC
100
AcDbEntity
  8
AM_5
100
AcDbTrace
 10
2440.976582508878
 20
523.9561227128468
 30
0.0
 11
2441.976582508879
 21
523.9561227128468
 31
0.0
 12
2441.476582508879
 22
526.9561227128467
 32
0.0
 13
2441.476582508879
 23
526.9561227128467
 33
0.0
  0
SOLID
  5
1A69
330
12AC
100
AcDbEntity
  8
AM_5
100
AcDbTrace
 10
2440.976582508878
 20
511.9561227128468
 30
0.0
 11
2441.976582508879
 21
511.9561227128468
 31
0.0
 12
2441.476582508879
 22
508.9561227128467
 32
0.0
 13
2441.476582508879
 23
508.9561227128467
 33
0.0
  0
MTEXT
  5
1A6A
330
12AC
100
AcDbEntity
  8
AM_5
100
AcDbMText
 10
2438.976582508879
 20
517.9561227128472
 30
0.0
 40
3.0
 41
0.0
 71
     5
 72
     1
  1
18
  7
CHINESET
 11
0.0000000000000001
 21
1.0
 31
0.0
 73
     1
 44
1.0
1001
ACAD
1000
MTEXTBEGIN
1070
    73
1070
     1
1070
    44
1040
1.0
1070
    74
1070
     0
1000
MTEXTEND
  0
POINT
  5
1A6B
330
12AC
100
AcDbEntity
  8
Defpoints
 62
     0
100
AcDbPoint
 10
2451.476583508878
 20
526.9561227128467
 30
0.0
  0
POINT
  5
1A6C
330
12AC
100
AcDbEntity
  8
Defpoints
 62
     0
100
AcDbPoint
 10
2451.476583508878
 20
508.9561227128467
 30
0.0
  0
POINT
  5
1A6D
330
12AC
100
AcDbEntity
  8
Defpoints
 62
     0
100
AcDbPoint
 10
2441.476582508879
 20
508.9561227128467
 30
0.0
  0
ENDBLK
  5
12B7
330
12AC
100
AcDbEntity
  8
0
100
AcDbBlockEnd
  0
BLOCK
  5
12C2
330
12B8
100
AcDbEntity
  8
0
100
AcDbBlockBegin
  2
*D19
 70
     1
 10
0.0
 20
0.0
 30
0.0
  3
*D19
  1

  0
LINE
  5
1A6E
330
12B8
100
AcDbEntity
  8
AM_5
100
AcDbLine
 10
2501.476583508879
 20
654.9561227128467
 30
0.0
 11
2540.976583508879
 21
654.9561227128467
 31
0.0
  0
LINE
  5
1A6F
330
12B8
100
AcDbEntity
  8
AM_5
100
AcDbLine
 10
2501.476583508879
 20
635.9561227128467
 30
0.0
 11
2540.976583508879
 21
635.9561227128467
 31
0.0
  0
LINE
  5
1A70
330
12B8
100
AcDbEntity
  8
AM_5
100
AcDbLine
 10
2539.476583508879
 20
651.9561227128467
 30
0.0
 11
2539.476583508879
 21
638.9561227128467
 31
0.0
  0
SOLID
  5
1A71
330
12B8
100
AcDbEntity
  8
AM_5
100
AcDbTrace
 10
2538.976583508878
 20
651.9561227128467
 30
0.0
 11
2539.976583508878
 21
651.9561227128467
 31
0.0
 12
2539.476583508879
 22
654.9561227128467
 32
0.0
 13
2539.476583508879
 23
654.9561227128467
 33
0.0
  0
SOLID
  5
1A72
330
12B8
100
AcDbEntity
  8
AM_5
100
AcDbTrace
 10
2538.976583508878
 20
638.9561227128467
 30
0.0
 11
2539.976583508878
 21
638.9561227128467
 31
0.0
 12
2539.476583508879
 22
635.9561227128467
 32
0.0
 13
2539.476583508879
 23
635.9561227128467
 33
0.0
  0
MTEXT
  5
1A73
330
12B8
100
AcDbEntity
  8
AM_5
100
AcDbMText
 10
2536.976583508879
 20
645.4561227128472
 30
0.0
 40
3.0
 41
0.0
 71
     5
 72
     1
  1
19
  7
CHINESET
 11
0.0000000000000001
 21
1.0
 31
0.0
 73
     1
 44
1.0
1001
ACAD
1000
MTEXTBEGIN
1070
    73
1070
     1
1070
    44
1040
1.0
1070
    74
1070
     0
1000
MTEXTEND
  0
POINT
  5
1A74
330
12B8
100
AcDbEntity
  8
Defpoints
 62
     0
100
AcDbPoint
 10
2500.476583508878
 20
654.9561227128467
 30
0.0
  0
POINT
  5
1A75
330
12B8
100
AcDbEntity
  8
Defpoints
 62
     0
100
AcDbPoint
 10
2500.476583508878
 20
635.9561227128467
 30
0.0
  0
POINT
  5
1A76
330
12B8
100
AcDbEntity
  8
Defpoints
 62
     0
100
AcDbPoint
 10
2539.476583508879
 20
635.9561227128467
 30
0.0
  0
ENDBLK
  5
12C3
330
12B8
100
AcDbEntity
  8
0
100
AcDbBlockEnd
  0
BLOCK
  5
1306
330
12FC
100
AcDbEntity
  8
0
100
AcDbBlockBegin
  2
*D20
 70
     1
 10
0.0
 20
0.0
 30
0.0
  3
*D20
  1

  0
LINE
  5
1A77
330
12FC
100
AcDbEntity
  8
AM_5
100
AcDbLine
 10
2516.476583508878
 20
687.4211251270351
 30
0.0
 11
2539.976583508878
 21
687.4211251270351
 31
0.0
  0
LINE
  5
1A78
330
12FC
100
AcDbEntity
  8
AM_5
100
AcDbLine
 10
2516.476583508878
 20
741.4211251270351
 30
0.0
 11
2539.976583508878
 21
741.4211251270351
 31
0.0
  0
LINE
  5
1A79
330
12FC
100
AcDbEntity
  8
AM_5
100
AcDbLine
 10
2538.476583508879
 20
690.4211251270351
 30
0.0
 11
2538.476583508879
 21
738.421125127035
 31
0.0
  0
SOLID
  5
1A7A
330
12FC
100
AcDbEntity
  8
AM_5
100
AcDbTrace
 10
2537.976583508879
 20
690.4211251270351
 30
0.0
 11
2538.976583508878
 21
690.4211251270351
 31
0.0
 12
2538.476583508879
 22
687.4211251270351
 32
0.0
 13
2538.476583508879
 23
687.4211251270351
 33
0.0
  0
SOLID
  5
1A7B
330
12FC
100
AcDbEntity
  8
AM_5
100
AcDbTrace
 10
2537.976583508879
 20
738.421125127035
 30
0.0
 11
2538.976583508878
 21
738.421125127035
 31
0.0
 12
2538.476583508879
 22
741.4211251270351
 32
0.0
 13
2538.476583508879
 23
741.4211251270351
 33
0.0
  0
MTEXT
  5
1A7C
330
12FC
100
AcDbEntity
  8
AM_5
100
AcDbMText
 10
2535.976583508878
 20
714.4211251270355
 30
0.0
 40
3.0
 41
0.0
 71
     5
 72
     1
  1
54
  7
CHINESET
 11
0.0000000000000001
 21
1.0
 31
0.0
 73
     1
 44
1.0
1001
ACAD
1000
MTEXTBEGIN
1070
    73
1070
     1
1070
    44
1040
1.0
1070
    74
1070
     0
1000
MTEXTEND
  0
POINT
  5
1A7D
330
12FC
100
AcDbEntity
  8
Defpoints
 62
     0
100
AcDbPoint
 10
2515.476583508879
 20
687.4211251270351
 30
0.0
  0
POINT
  5
1A7E
330
12FC
100
AcDbEntity
  8
Defpoints
 62
     0
100
AcDbPoint
 10
2515.476583508879
 20
741.4211251270351
 30
0.0
  0
POINT
  5
1A7F
330
12FC
100
AcDbEntity
  8
Defpoints
 62
     0
100
AcDbPoint
 10
2538.476583508879
 20
741.4211251270351
 30
0.0
  0
ENDBLK
  5
1307
330
12FC
100
AcDbEntity
  8
0
100
AcDbBlockEnd
  0
BLOCK
  5
1312
330
1308
100
AcDbEntity
  8
0
100
AcDbBlockBegin
  2
*D21
 70
     1
 10
0.0
 20
0.0
 30
0.0
  3
*D21
  1

  0
LINE
  5
1A80
330
1308
100
AcDbEntity
  8
AM_5
100
AcDbLine
 10
2518.726583508879
 20
697.4211251270351
 30
0.0
 11
2529.976583508878
 21
697.4211251270351
 31
0.0
  0
LINE
  5
1A81
330
1308
100
AcDbEntity
  8
AM_5
100
AcDbLine
 10
2518.726583508879
 20
731.4211251270351
 30
0.0
 11
2529.976583508878
 21
731.4211251270351
 31
0.0
  0
LINE
  5
1A82
330
1308
100
AcDbEntity
  8
AM_5
100
AcDbLine
 10
2528.476583508878
 20
700.421125127035
 30
0.0
 11
2528.476583508878
 21
728.4211251270351
 31
0.0
  0
SOLID
  5
1A83
330
1308
100
AcDbEntity
  8
AM_5
100
AcDbTrace
 10
2527.976583508879
 20
700.421125127035
 30
0.0
 11
2528.976583508879
 21
700.421125127035
 31
0.0
 12
2528.476583508878
 22
697.4211251270351
 32
0.0
 13
2528.476583508878
 23
697.4211251270351
 33
0.0
  0
SOLID
  5
1A84
330
1308
100
AcDbEntity
  8
AM_5
100
AcDbTrace
 10
2527.976583508879
 20
728.4211251270351
 30
0.0
 11
2528.976583508879
 21
728.4211251270351
 31
0.0
 12
2528.476583508878
 22
731.4211251270351
 32
0.0
 13
2528.476583508878
 23
731.4211251270351
 33
0.0
  0
MTEXT
  5
1A85
330
1308
100
AcDbEntity
  8
AM_5
100
AcDbMText
 10
2525.976583508878
 20
714.4211251270355
 30
0.0
 40
3.0
 41
0.0
 71
     5
 72
     1
  1
34
  7
CHINESET
 11
0.0000000000000001
 21
1.0
 31
0.0
 73
     1
 44
1.0
1001
ACAD
1000
MTEXTBEGIN
1070
    73
1070
     1
1070
    44
1040
1.0
1070
    74
1070
     0
1000
MTEXTEND
  0
POINT
  5
1A86
330
1308
100
AcDbEntity
  8
Defpoints
 62
     0
100
AcDbPoint
 10
2517.726583508878
 20
697.4211251270351
 30
0.0
  0
POINT
  5
1A87
330
1308
100
AcDbEntity
  8
Defpoints
 62
     0
100
AcDbPoint
 10
2517.726583508878
 20
731.4211251270351
 30
0.0
  0
POINT
  5
1A88
330
1308
100
AcDbEntity
  8
Defpoints
 62
     0
100
AcDbPoint
 10
2528.476583508878
 20
731.4211251270351
 30
0.0
  0
ENDBLK
  5
1313
330
1308
100
AcDbEntity
  8
0
100
AcDbBlockEnd
  0
BLOCK
  5
134F
330
1345
100
AcDbEntity
  8
0
100
AcDbBlockBegin
  2
*D22
 70
     1
 10
0.0
 20
0.0
 30
0.0
  3
*D22
  1

  0
LINE
  5
19B1
330
1345
100
AcDbEntity
  8
AM_5
100
AcDbLine
 10
2518.476583508878
 20
159.2730235218528
 30
0.0
 11
2530.976583508878
 21
159.2730235218528
 31
0.0
  0
LINE
  5
19B2
330
1345
100
AcDbEntity
  8
AM_5
100
AcDbLine
 10
2507.476583508879
 20
256.2730235218528
 30
0.0
 11
2530.976583508878
 21
256.2730235218528
 31
0.0
  0
LINE
  5
19B3
330
1345
100
AcDbEntity
  8
AM_5
100
AcDbLine
 10
2529.476583508878
 20
162.2730235218528
 30
0.0
 11
2529.476583508878
 21
253.2730235218529
 31
0.0
  0
SOLID
  5
19B4
330
1345
100
AcDbEntity
  8
AM_5
100
AcDbTrace
 10
2528.976583508879
 20
162.2730235218528
 30
0.0
 11
2529.976583508878
 21
162.2730235218528
 31
0.0
 12
2529.476583508878
 22
159.2730235218528
 32
0.0
 13
2529.476583508878
 23
159.2730235218528
 33
0.0
  0
SOLID
  5
19B5
330
1345
100
AcDbEntity
  8
AM_5
100
AcDbTrace
 10
2528.976583508879
 20
253.2730235218529
 30
0.0
 11
2529.976583508878
 21
253.2730235218529
 31
0.0
 12
2529.476583508878
 22
256.2730235218528
 32
0.0
 13
2529.476583508878
 23
256.2730235218528
 33
0.0
  0
MTEXT
  5
19B6
330
1345
100
AcDbEntity
  8
AM_5
100
AcDbMText
 10
2526.976583508878
 20
207.7730235218533
 30
0.0
 40
3.0
 41
0.0
 71
     5
 72
     1
  1
97
  7
CHINESET
 11
0.0000000000000001
 21
1.0
 31
0.0
 73
     1
 44
1.0
1001
ACAD
1000
MTEXTBEGIN
1070
    73
1070
     1
1070
    44
1040
1.0
1070
    74
1070
     0
1000
MTEXTEND
  0
POINT
  5
19B7
330
1345
100
AcDbEntity
  8
Defpoints
 62
     0
100
AcDbPoint
 10
2517.476583508879
 20
159.2730235218528
 30
0.0
  0
POINT
  5
19B8
330
1345
100
AcDbEntity
  8
Defpoints
 62
     0
100
AcDbPoint
 10
2506.476583508879
 20
256.2730235218528
 30
0.0
  0
POINT
  5
19B9
330
1345
100
AcDbEntity
  8
Defpoints
 62
     0
100
AcDbPoint
 10
2529.476583508878
 20
256.2730235218528
 30
0.0
  0
ENDBLK
  5
1350
330
1345
100
AcDbEntity
  8
0
100
AcDbBlockEnd
  0
BLOCK
  5
135B
330
1351
100
AcDbEntity
  8
0
100
AcDbBlockBegin
  2
*D23
 70
     1
 10
0.0
 20
0.0
 30
0.0
  3
*D23
  1

  0
LINE
  5
19BA
330
1351
100
AcDbEntity
  8
AM_5
100
AcDbLine
 10
2518.476583508878
 20
159.2730235218528
 30
0.0
 11
2540.976583508879
 21
159.2730235218528
 31
0.0
  0
LINE
  5
19BB
330
1351
100
AcDbEntity
  8
AM_5
100
AcDbLine
 10
2502.476583508878
 20
292.2730235218529
 30
0.0
 11
2540.976583508879
 21
292.2730235218529
 31
0.0
  0
LINE
  5
19BC
330
1351
100
AcDbEntity
  8
AM_5
100
AcDbLine
 10
2539.476583508879
 20
162.2730235218528
 30
0.0
 11
2539.476583508879
 21
289.2730235218528
 31
0.0
  0
SOLID
  5
19BD
330
1351
100
AcDbEntity
  8
AM_5
100
AcDbTrace
 10
2538.976583508878
 20
162.2730235218528
 30
0.0
 11
2539.976583508878
 21
162.2730235218528
 31
0.0
 12
2539.476583508879
 22
159.2730235218528
 32
0.0
 13
2539.476583508879
 23
159.2730235218528
 33
0.0
  0
SOLID
  5
19BE
330
1351
100
AcDbEntity
  8
AM_5
100
AcDbTrace
 10
2538.976583508878
 20
289.2730235218528
 30
0.0
 11
2539.976583508878
 21
289.2730235218528
 31
0.0
 12
2539.476583508879
 22
292.2730235218529
 32
0.0
 13
2539.476583508879
 23
292.2730235218529
 33
0.0
  0
MTEXT
  5
19BF
330
1351
100
AcDbEntity
  8
AM_5
100
AcDbMText
 10
2536.976583508879
 20
225.7730235218533
 30
0.0
 40
3.0
 41
0.0
 71
     5
 72
     1
  1
133
  7
CHINESET
 11
0.0000000000000001
 21
1.0
 31
0.0
 73
     1
 44
1.0
1001
ACAD
1000
MTEXTBEGIN
1070
    73
1070
     1
1070
    44
1040
1.0
1070
    74
1070
     0
1000
MTEXTEND
  0
POINT
  5
19C0
330
1351
100
AcDbEntity
  8
Defpoints
 62
     0
100
AcDbPoint
 10
2517.476583508879
 20
159.2730235218528
 30
0.0
  0
POINT
  5
19C1
330
1351
100
AcDbEntity
  8
Defpoints
 62
     0
100
AcDbPoint
 10
2501.476583508879
 20
292.2730235218529
 30
0.0
  0
POINT
  5
19C2
330
1351
100
AcDbEntity
  8
Defpoints
 62
     0
100
AcDbPoint
 10
2539.476583508879
 20
292.2730235218529
 30
0.0
  0
ENDBLK
  5
135C
330
1351
100
AcDbEntity
  8
0
100
AcDbBlockEnd
  0
BLOCK
  5
1367
330
135D
100
AcDbEntity
  8
0
100
AcDbBlockBegin
  2
*D24
 70
     1
 10
0.0
 20
0.0
 30
0.0
  3
*D24
  1

  0
LINE
  5
19C3
330
135D
100
AcDbEntity
  8
AM_5
100
AcDbLine
 10
2450.476583508879
 20
177.2730235218528
 30
0.0
 11
2439.976582508879
 21
177.2730235218528
 31
0.0
  0
LINE
  5
19C4
330
135D
100
AcDbEntity
  8
AM_5
100
AcDbLine
 10
2450.476583508879
 20
159.2730235218528
 30
0.0
 11
2439.976582508879
 21
159.2730235218528
 31
0.0
  0
LINE
  5
19C5
330
135D
100
AcDbEntity
  8
AM_5
100
AcDbLine
 10
2441.476582508879
 20
174.2730235218528
 30
0.0
 11
2441.476582508879
 21
162.2730235218528
 31
0.0
  0
SOLID
  5
19C6
330
135D
100
AcDbEntity
  8
AM_5
100
AcDbTrace
 10
2440.976582508878
 20
174.2730235218528
 30
0.0
 11
2441.976582508879
 21
174.2730235218528
 31
0.0
 12
2441.476582508879
 22
177.2730235218528
 32
0.0
 13
2441.476582508879
 23
177.2730235218528
 33
0.0
  0
SOLID
  5
19C7
330
135D
100
AcDbEntity
  8
AM_5
100
AcDbTrace
 10
2440.976582508878
 20
162.2730235218528
 30
0.0
 11
2441.976582508879
 21
162.2730235218528
 31
0.0
 12
2441.476582508879
 22
159.2730235218528
 32
0.0
 13
2441.476582508879
 23
159.2730235218528
 33
0.0
  0
MTEXT
  5
19C8
330
135D
100
AcDbEntity
  8
AM_5
100
AcDbMText
 10
2438.976582508879
 20
168.2730235218532
 30
0.0
 40
3.0
 41
0.0
 71
     5
 72
     1
  1
18
  7
CHINESET
 11
0.0000000000000001
 21
1.0
 31
0.0
 73
     1
 44
1.0
1001
ACAD
1000
MTEXTBEGIN
1070
    73
1070
     1
1070
    44
1040
1.0
1070
    74
1070
     0
1000
MTEXTEND
  0
POINT
  5
19C9
330
135D
100
AcDbEntity
  8
Defpoints
 62
     0
100
AcDbPoint
 10
2451.476583508878
 20
177.2730235218528
 30
0.0
  0
POINT
  5
19CA
330
135D
100
AcDbEntity
  8
Defpoints
 62
     0
100
AcDbPoint
 10
2451.476583508878
 20
159.2730235218528
 30
0.0
  0
POINT
  5
19CB
330
135D
100
AcDbEntity
  8
Defpoints
 62
     0
100
AcDbPoint
 10
2441.476582508879
 20
159.2730235218528
 30
0.0
  0
ENDBLK
  5
1368
330
135D
100
AcDbEntity
  8
0
100
AcDbBlockEnd
  0
BLOCK
  5
1373
330
1369
100
AcDbEntity
  8
0
100
AcDbBlockBegin
  2
*D25
 70
     1
 10
0.0
 20
0.0
 30
0.0
  3
*D25
  1

  0
LINE
  5
19CC
330
1369
100
AcDbEntity
  8
AM_5
100
AcDbLine
 10
2502.476583508878
 20
311.2730235218529
 30
0.0
 11
2540.976583508879
 21
311.2730235218529
 31
0.0
  0
LINE
  5
19CD
330
1369
100
AcDbEntity
  8
AM_5
100
AcDbLine
 10
2502.476583508878
 20
292.2730235218529
 30
0.0
 11
2540.976583508879
 21
292.2730235218529
 31
0.0
  0
LINE
  5
19CE
330
1369
100
AcDbEntity
  8
AM_5
100
AcDbLine
 10
2539.476583508879
 20
308.2730235218528
 30
0.0
 11
2539.476583508879
 21
295.2730235218528
 31
0.0
  0
SOLID
  5
19CF
330
1369
100
AcDbEntity
  8
AM_5
100
AcDbTrace
 10
2538.976583508878
 20
308.2730235218528
 30
0.0
 11
2539.976583508878
 21
308.2730235218528
 31
0.0
 12
2539.476583508879
 22
311.2730235218529
 32
0.0
 13
2539.476583508879
 23
311.2730235218529
 33
0.0
  0
SOLID
  5
19D0
330
1369
100
AcDbEntity
  8
AM_5
100
AcDbTrace
 10
2538.976583508878
 20
295.2730235218528
 30
0.0
 11
2539.976583508878
 21
295.2730235218528
 31
0.0
 12
2539.476583508879
 22
292.2730235218529
 32
0.0
 13
2539.476583508879
 23
292.2730235218529
 33
0.0
  0
MTEXT
  5
19D1
330
1369
100
AcDbEntity
  8
AM_5
100
AcDbMText
 10
2536.976583508879
 20
301.7730235218532
 30
0.0
 40
3.0
 41
0.0
 71
     5
 72
     1
  1
19
  7
CHINESET
 11
0.0000000000000001
 21
1.0
 31
0.0
 73
     1
 44
1.0
1001
ACAD
1000
MTEXTBEGIN
1070
    73
1070
     1
1070
    44
1040
1.0
1070
    74
1070
     0
1000
MTEXTEND
  0
POINT
  5
19D2
330
1369
100
AcDbEntity
  8
Defpoints
 62
     0
100
AcDbPoint
 10
2501.476583508879
 20
311.2730235218529
 30
0.0
  0
POINT
  5
19D3
330
1369
100
AcDbEntity
  8
Defpoints
 62
     0
100
AcDbPoint
 10
2501.476583508879
 20
292.2730235218529
 30
0.0
  0
POINT
  5
19D4
330
1369
100
AcDbEntity
  8
Defpoints
 62
     0
100
AcDbPoint
 10
2539.476583508879
 20
292.2730235218529
 30
0.0
  0
ENDBLK
  5
1374
330
1369
100
AcDbEntity
  8
0
100
AcDbBlockEnd
  0
BLOCK
  5
13C0
330
13B6
100
AcDbEntity
  8
0
100
AcDbBlockBegin
  2
*D26
 70
     1
 10
0.0
 20
0.0
 30
0.0
  3
*D26
  1

  0
LINE
  5
19D5
330
13B6
100
AcDbEntity
  8
AM_5
100
AcDbLine
 10
2516.476583508878
 20
337.7380259360412
 30
0.0
 11
2539.976583508878
 21
337.7380259360412
 31
0.0
  0
LINE
  5
19D6
330
13B6
100
AcDbEntity
  8
AM_5
100
AcDbLine
 10
2516.476583508878
 20
391.7380259360412
 30
0.0
 11
2539.976583508878
 21
391.7380259360412
 31
0.0
  0
LINE
  5
19D7
330
13B6
100
AcDbEntity
  8
AM_5
100
AcDbLine
 10
2538.476583508879
 20
340.7380259360412
 30
0.0
 11
2538.476583508879
 21
388.7380259360412
 31
0.0
  0
SOLID
  5
19D8
330
13B6
100
AcDbEntity
  8
AM_5
100
AcDbTrace
 10
2537.976583508879
 20
340.7380259360412
 30
0.0
 11
2538.976583508878
 21
340.7380259360412
 31
0.0
 12
2538.476583508879
 22
337.7380259360412
 32
0.0
 13
2538.476583508879
 23
337.7380259360412
 33
0.0
  0
SOLID
  5
19D9
330
13B6
100
AcDbEntity
  8
AM_5
100
AcDbTrace
 10
2537.976583508879
 20
388.7380259360412
 30
0.0
 11
2538.976583508878
 21
388.7380259360412
 31
0.0
 12
2538.476583508879
 22
391.7380259360412
 32
0.0
 13
2538.476583508879
 23
391.7380259360412
 33
0.0
  0
MTEXT
  5
19DA
330
13B6
100
AcDbEntity
  8
AM_5
100
AcDbMText
 10
2535.976583508878
 20
364.7380259360416
 30
0.0
 40
3.0
 41
0.0
 71
     5
 72
     1
  1
54
  7
CHINESET
 11
0.0000000000000001
 21
1.0
 31
0.0
 73
     1
 44
1.0
1001
ACAD
1000
MTEXTBEGIN
1070
    73
1070
     1
1070
    44
1040
1.0
1070
    74
1070
     0
1000
MTEXTEND
  0
POINT
  5
19DB
330
13B6
100
AcDbEntity
  8
Defpoints
 62
     0
100
AcDbPoint
 10
2515.476583508879
 20
337.7380259360412
 30
0.0
  0
POINT
  5
19DC
330
13B6
100
AcDbEntity
  8
Defpoints
 62
     0
100
AcDbPoint
 10
2515.476583508879
 20
391.7380259360412
 30
0.0
  0
POINT
  5
19DD
330
13B6
100
AcDbEntity
  8
Defpoints
 62
     0
100
AcDbPoint
 10
2538.476583508879
 20
391.7380259360412
 30
0.0
  0
ENDBLK
  5
13C1
330
13B6
100
AcDbEntity
  8
0
100
AcDbBlockEnd
  0
BLOCK
  5
13CC
330
13C2
100
AcDbEntity
  8
0
100
AcDbBlockBegin
  2
*D27
 70
     1
 10
0.0
 20
0.0
 30
0.0
  3
*D27
  1

  0
LINE
  5
19DE
330
13C2
100
AcDbEntity
  8
AM_5
100
AcDbLine
 10
2518.726583508879
 20
347.7380259360412
 30
0.0
 11
2529.976583508878
 21
347.7380259360412
 31
0.0
  0
LINE
  5
19DF
330
13C2
100
AcDbEntity
  8
AM_5
100
AcDbLine
 10
2518.726583508879
 20
381.7380259360412
 30
0.0
 11
2529.976583508878
 21
381.7380259360412
 31
0.0
  0
LINE
  5
19E0
330
13C2
100
AcDbEntity
  8
AM_5
100
AcDbLine
 10
2528.476583508878
 20
350.7380259360412
 30
0.0
 11
2528.476583508878
 21
378.7380259360412
 31
0.0
  0
SOLID
  5
19E1
330
13C2
100
AcDbEntity
  8
AM_5
100
AcDbTrace
 10
2527.976583508879
 20
350.7380259360412
 30
0.0
 11
2528.976583508879
 21
350.7380259360412
 31
0.0
 12
2528.476583508878
 22
347.7380259360412
 32
0.0
 13
2528.476583508878
 23
347.7380259360412
 33
0.0
  0
SOLID
  5
19E2
330
13C2
100
AcDbEntity
  8
AM_5
100
AcDbTrace
 10
2527.976583508879
 20
378.7380259360412
 30
0.0
 11
2528.976583508879
 21
378.7380259360412
 31
0.0
 12
2528.476583508878
 22
381.7380259360412
 32
0.0
 13
2528.476583508878
 23
381.7380259360412
 33
0.0
  0
MTEXT
  5
19E3
330
13C2
100
AcDbEntity
  8
AM_5
100
AcDbMText
 10
2525.976583508878
 20
364.7380259360416
 30
0.0
 40
3.0
 41
0.0
 71
     5
 72
     1
  1
34
  7
CHINESET
 11
0.0000000000000001
 21
1.0
 31
0.0
 73
     1
 44
1.0
1001
ACAD
1000
MTEXTBEGIN
1070
    73
1070
     1
1070
    44
1040
1.0
1070
    74
1070
     0
1000
MTEXTEND
  0
POINT
  5
19E4
330
13C2
100
AcDbEntity
  8
Defpoints
 62
     0
100
AcDbPoint
 10
2517.726583508878
 20
347.7380259360412
 30
0.0
  0
POINT
  5
19E5
330
13C2
100
AcDbEntity
  8
Defpoints
 62
     0
100
AcDbPoint
 10
2517.726583508878
 20
381.7380259360412
 30
0.0
  0
POINT
  5
19E6
330
13C2
100
AcDbEntity
  8
Defpoints
 62
     0
100
AcDbPoint
 10
2528.476583508878
 20
381.7380259360412
 30
0.0
  0
ENDBLK
  5
13CD
330
13C2
100
AcDbEntity
  8
0
100
AcDbBlockEnd
  0
BLOCK
  5
13ED
330
13E3
100
AcDbEntity
  8
0
100
AcDbBlockBegin
  2
*D28
 70
     1
 10
0.0
 20
0.0
 30
0.0
  3
*D28
  1

  0
LINE
  5
1A1D
330
13E3
100
AcDbEntity
  8
AM_5
100
AcDbLine
 10
2879.206173790791
 20
508.9561227128467
 30
0.0
 11
2891.706173790791
 21
508.9561227128467
 31
0.0
  0
LINE
  5
1A1E
330
13E3
100
AcDbEntity
  8
AM_5
100
AcDbLine
 10
2869.70617379079
 20
606.9561227128467
 30
0.0
 11
2891.706173790791
 21
606.9561227128467
 31
0.0
  0
LINE
  5
1A1F
330
13E3
100
AcDbEntity
  8
AM_5
100
AcDbLine
 10
2890.206173790791
 20
511.9561227128468
 30
0.0
 11
2890.206173790791
 21
603.9561227128467
 31
0.0
  0
SOLID
  5
1A20
330
13E3
100
AcDbEntity
  8
AM_5
100
AcDbTrace
 10
2889.70617379079
 20
511.9561227128468
 30
0.0
 11
2890.70617379079
 21
511.9561227128468
 31
0.0
 12
2890.206173790791
 22
508.9561227128467
 32
0.0
 13
2890.206173790791
 23
508.9561227128467
 33
0.0
  0
SOLID
  5
1A21
330
13E3
100
AcDbEntity
  8
AM_5
100
AcDbTrace
 10
2889.70617379079
 20
603.9561227128467
 30
0.0
 11
2890.70617379079
 21
603.9561227128467
 31
0.0
 12
2890.206173790791
 22
606.9561227128467
 32
0.0
 13
2890.206173790791
 23
606.9561227128467
 33
0.0
  0
MTEXT
  5
1A22
330
13E3
100
AcDbEntity
  8
AM_5
100
AcDbMText
 10
2887.70617379079
 20
557.9561227128472
 30
0.0
 40
3.0
 41
0.0
 71
     5
 72
     1
  1
98
  7
CHINESET
 11
0.0000000000000001
 21
1.0
 31
0.0
 73
     1
 44
1.0
1001
ACAD
1000
MTEXTBEGIN
1070
    73
1070
     1
1070
    44
1040
1.0
1070
    74
1070
     0
1000
MTEXTEND
  0
POINT
  5
1A23
330
13E3
100
AcDbEntity
  8
Defpoints
 62
     0
100
AcDbPoint
 10
2878.20617379079
 20
508.9561227128467
 30
0.0
  0
POINT
  5
1A24
330
13E3
100
AcDbEntity
  8
Defpoints
 62
     0
100
AcDbPoint
 10
2868.706173790791
 20
606.9561227128467
 30
0.0
  0
POINT
  5
1A25
330
13E3
100
AcDbEntity
  8
Defpoints
 62
     0
100
AcDbPoint
 10
2890.206173790791
 20
606.9561227128467
 30
0.0
  0
ENDBLK
  5
13EE
330
13E3
100
AcDbEntity
  8
0
100
AcDbBlockEnd
  0
BLOCK
  5
13F9
330
13EF
100
AcDbEntity
  8
0
100
AcDbBlockBegin
  2
*D29
 70
     1
 10
0.0
 20
0.0
 30
0.0
  3
*D29
  1

  0
LINE
  5
1A26
330
13EF
100
AcDbEntity
  8
AM_5
100
AcDbLine
 10
2879.206173790791
 20
508.9561227128467
 30
0.0
 11
2901.70617379079
 21
508.9561227128467
 31
0.0
  0
LINE
  5
1A27
330
13EF
100
AcDbEntity
  8
AM_5
100
AcDbLine
 10
2862.20617379079
 20
635.9561227128467
 30
0.0
 11
2901.70617379079
 21
635.9561227128467
 31
0.0
  0
LINE
  5
1A28
330
13EF
100
AcDbEntity
  8
AM_5
100
AcDbLine
 10
2900.20617379079
 20
511.9561227128468
 30
0.0
 11
2900.20617379079
 21
632.9561227128468
 31
0.0
  0
SOLID
  5
1A29
330
13EF
100
AcDbEntity
  8
AM_5
100
AcDbTrace
 10
2899.70617379079
 20
511.9561227128468
 30
0.0
 11
2900.706173790791
 21
511.9561227128468
 31
0.0
 12
2900.20617379079
 22
508.9561227128467
 32
0.0
 13
2900.20617379079
 23
508.9561227128467
 33
0.0
  0
SOLID
  5
1A2A
330
13EF
100
AcDbEntity
  8
AM_5
100
AcDbTrace
 10
2899.70617379079
 20
632.9561227128468
 30
0.0
 11
2900.706173790791
 21
632.9561227128468
 31
0.0
 12
2900.20617379079
 22
635.9561227128467
 32
0.0
 13
2900.20617379079
 23
635.9561227128467
 33
0.0
  0
MTEXT
  5
1A2B
330
13EF
100
AcDbEntity
  8
AM_5
100
AcDbMText
 10
2897.70617379079
 20
572.4561227128472
 30
0.0
 40
3.0
 41
0.0
 71
     5
 72
     1
  1
127
  7
CHINESET
 11
0.0000000000000001
 21
1.0
 31
0.0
 73
     1
 44
1.0
1001
ACAD
1000
MTEXTBEGIN
1070
    73
1070
     1
1070
    44
1040
1.0
1070
    74
1070
     0
1000
MTEXTEND
  0
POINT
  5
1A2C
330
13EF
100
AcDbEntity
  8
Defpoints
 62
     0
100
AcDbPoint
 10
2878.20617379079
 20
508.9561227128467
 30
0.0
  0
POINT
  5
1A2D
330
13EF
100
AcDbEntity
  8
Defpoints
 62
     0
100
AcDbPoint
 10
2861.206173790791
 20
635.9561227128467
 30
0.0
  0
POINT
  5
1A2E
330
13EF
100
AcDbEntity
  8
Defpoints
 62
     0
100
AcDbPoint
 10
2900.20617379079
 20
635.9561227128467
 30
0.0
  0
ENDBLK
  5
13FA
330
13EF
100
AcDbEntity
  8
0
100
AcDbBlockEnd
  0
BLOCK
  5
1405
330
13FB
100
AcDbEntity
  8
0
100
AcDbBlockBegin
  2
*D30
 70
     1
 10
0.0
 20
0.0
 30
0.0
  3
*D30
  1

  0
LINE
  5
1A2F
330
13FB
100
AcDbEntity
  8
AM_5
100
AcDbLine
 10
2855.20617379079
 20
654.9562673618718
 30
0.0
 11
2901.70617379079
 21
654.9562673618718
 31
0.0
  0
LINE
  5
1A30
330
13FB
100
AcDbEntity
  8
AM_5
100
AcDbLine
 10
2855.20617379079
 20
635.9562673618718
 30
0.0
 11
2901.70617379079
 21
635.9562673618718
 31
0.0
  0
LINE
  5
1A31
330
13FB
100
AcDbEntity
  8
AM_5
100
AcDbLine
 10
2900.20617379079
 20
651.9562673618718
 30
0.0
 11
2900.20617379079
 21
638.9562673618718
 31
0.0
  0
SOLID
  5
1A32
330
13FB
100
AcDbEntity
  8
AM_5
100
AcDbTrace
 10
2899.70617379079
 20
651.9562673618718
 30
0.0
 11
2900.706173790791
 21
651.9562673618718
 31
0.0
 12
2900.20617379079
 22
654.9562673618718
 32
0.0
 13
2900.20617379079
 23
654.9562673618718
 33
0.0
  0
SOLID
  5
1A33
330
13FB
100
AcDbEntity
  8
AM_5
100
AcDbTrace
 10
2899.70617379079
 20
638.9562673618718
 30
0.0
 11
2900.706173790791
 21
638.9562673618718
 31
0.0
 12
2900.20617379079
 22
635.9562673618718
 32
0.0
 13
2900.20617379079
 23
635.9562673618718
 33
0.0
  0
MTEXT
  5
1A34
330
13FB
100
AcDbEntity
  8
AM_5
100
AcDbMText
 10
2897.70617379079
 20
645.4562673618722
 30
0.0
 40
3.0
 41
0.0
 71
     5
 72
     1
  1
19
  7
CHINESET
 11
0.0000000000000001
 21
1.0
 31
0.0
 73
     1
 44
1.0
1001
ACAD
1000
MTEXTBEGIN
1070
    73
1070
     1
1070
    44
1040
1.0
1070
    74
1070
     0
1000
MTEXTEND
  0
POINT
  5
1A35
330
13FB
100
AcDbEntity
  8
Defpoints
 62
     0
100
AcDbPoint
 10
2854.206173790791
 20
654.9562673618718
 30
0.0
  0
POINT
  5
1A36
330
13FB
100
AcDbEntity
  8
Defpoints
 62
     0
100
AcDbPoint
 10
2854.206173790791
 20
635.9562673618718
 30
0.0
  0
POINT
  5
1A37
330
13FB
100
AcDbEntity
  8
Defpoints
 62
     0
100
AcDbPoint
 10
2900.20617379079
 20
635.9562673618718
 30
0.0
  0
ENDBLK
  5
1406
330
13FB
100
AcDbEntity
  8
0
100
AcDbBlockEnd
  0
BLOCK
  5
143F
330
1435
100
AcDbEntity
  8
0
100
AcDbBlockBegin
  2
*D31
 70
     1
 10
0.0
 20
0.0
 30
0.0
  3
*D31
  1

  0
LINE
  5
1A38
330
1435
100
AcDbEntity
  8
AM_5
100
AcDbLine
 10
2795.20617379079
 20
526.9561227128467
 30
0.0
 11
2784.70617279079
 21
526.9561227128467
 31
0.0
  0
LINE
  5
1A39
330
1435
100
AcDbEntity
  8
AM_5
100
AcDbLine
 10
2795.20617379079
 20
508.9561227128467
 30
0.0
 11
2784.70617279079
 21
508.9561227128467
 31
0.0
  0
LINE
  5
1A3A
330
1435
100
AcDbEntity
  8
AM_5
100
AcDbLine
 10
2786.20617279079
 20
523.9561227128468
 30
0.0
 11
2786.20617279079
 21
511.9561227128468
 31
0.0
  0
SOLID
  5
1A3B
330
1435
100
AcDbEntity
  8
AM_5
100
AcDbTrace
 10
2785.706172790791
 20
523.9561227128468
 30
0.0
 11
2786.70617279079
 21
523.9561227128468
 31
0.0
 12
2786.20617279079
 22
526.9561227128467
 32
0.0
 13
2786.20617279079
 23
526.9561227128467
 33
0.0
  0
SOLID
  5
1A3C
330
1435
100
AcDbEntity
  8
AM_5
100
AcDbTrace
 10
2785.706172790791
 20
511.9561227128468
 30
0.0
 11
2786.70617279079
 21
511.9561227128468
 31
0.0
 12
2786.20617279079
 22
508.9561227128467
 32
0.0
 13
2786.20617279079
 23
508.9561227128467
 33
0.0
  0
MTEXT
  5
1A3D
330
1435
100
AcDbEntity
  8
AM_5
100
AcDbMText
 10
2783.706172790791
 20
517.9561227128472
 30
0.0
 40
3.0
 41
0.0
 71
     5
 72
     1
  1
18
  7
CHINESET
 11
0.0000000000000001
 21
1.0
 31
0.0
 73
     1
 44
1.0
1001
ACAD
1000
MTEXTBEGIN
1070
    73
1070
     1
1070
    44
1040
1.0
1070
    74
1070
     0
1000
MTEXTEND
  0
POINT
  5
1A3E
330
1435
100
AcDbEntity
  8
Defpoints
 62
     0
100
AcDbPoint
 10
2796.20617379079
 20
526.9561227128467
 30
0.0
  0
POINT
  5
1A3F
330
1435
100
AcDbEntity
  8
Defpoints
 62
     0
100
AcDbPoint
 10
2796.20617379079
 20
508.9561227128467
 30
0.0
  0
POINT
  5
1A40
330
1435
100
AcDbEntity
  8
Defpoints
 62
     0
100
AcDbPoint
 10
2786.20617279079
 20
508.9561227128467
 30
0.0
  0
ENDBLK
  5
1440
330
1435
100
AcDbEntity
  8
0
100
AcDbBlockEnd
  0
BLOCK
  5
1456
330
144C
100
AcDbEntity
  8
0
100
AcDbBlockBegin
  2
*D32
 70
     1
 10
0.0
 20
0.0
 30
0.0
  3
*D32
  1

  0
LINE
  5
1A41
330
144C
100
AcDbEntity
  8
AM_5
100
AcDbLine
 10
2879.206078826329
 20
682.4211251270351
 30
0.0
 11
2902.70607882633
 21
682.4211251270351
 31
0.0
  0
LINE
  5
1A42
330
144C
100
AcDbEntity
  8
AM_5
100
AcDbLine
 10
2879.206078826329
 20
746.421125127035
 30
0.0
 11
2902.70607882633
 21
746.421125127035
 31
0.0
  0
LINE
  5
1A43
330
144C
100
AcDbEntity
  8
AM_5
100
AcDbLine
 10
2901.20607882633
 20
685.4211251270351
 30
0.0
 11
2901.20607882633
 21
743.4211251270351
 31
0.0
  0
SOLID
  5
1A44
330
144C
100
AcDbEntity
  8
AM_5
100
AcDbTrace
 10
2900.706078826329
 20
685.4211251270351
 30
0.0
 11
2901.706078826329
 21
685.4211251270351
 31
0.0
 12
2901.20607882633
 22
682.4211251270351
 32
0.0
 13
2901.20607882633
 23
682.4211251270351
 33
0.0
  0
SOLID
  5
1A45
330
144C
100
AcDbEntity
  8
AM_5
100
AcDbTrace
 10
2900.706078826329
 20
743.4211251270351
 30
0.0
 11
2901.706078826329
 21
743.4211251270351
 31
0.0
 12
2901.20607882633
 22
746.421125127035
 32
0.0
 13
2901.20607882633
 23
746.421125127035
 33
0.0
  0
MTEXT
  5
1A46
330
144C
100
AcDbEntity
  8
AM_5
100
AcDbMText
 10
2898.706078826329
 20
714.4211251270355
 30
0.0
 40
3.0
 41
0.0
 71
     5
 72
     1
  1
64
  7
CHINESET
 11
0.0000000000000001
 21
1.0
 31
0.0
 73
     1
 44
1.0
1001
ACAD
1000
MTEXTBEGIN
1070
    73
1070
     1
1070
    44
1040
1.0
1070
    74
1070
     0
1000
MTEXTEND
  0
POINT
  5
1A47
330
144C
100
AcDbEntity
  8
Defpoints
 62
     0
100
AcDbPoint
 10
2878.206078826329
 20
682.4211251270351
 30
0.0
  0
POINT
  5
1A48
330
144C
100
AcDbEntity
  8
Defpoints
 62
     0
100
AcDbPoint
 10
2878.206078826329
 20
746.421125127035
 30
0.0
  0
POINT
  5
1A49
330
144C
100
AcDbEntity
  8
Defpoints
 62
     0
100
AcDbPoint
 10
2901.20607882633
 20
746.421125127035
 30
0.0
  0
ENDBLK
  5
1457
330
144C
100
AcDbEntity
  8
0
100
AcDbBlockEnd
  0
BLOCK
  5
1462
330
1458
100
AcDbEntity
  8
0
100
AcDbBlockBegin
  2
*D33
 70
     1
 10
0.0
 20
0.0
 30
0.0
  3
*D33
  1

  0
LINE
  5
1A4A
330
1458
100
AcDbEntity
  8
AM_5
100
AcDbLine
 10
2877.456078826329
 20
694.4211251270351
 30
0.0
 11
2892.706078826329
 21
694.4211251270351
 31
0.0
  0
LINE
  5
1A4B
330
1458
100
AcDbEntity
  8
AM_5
100
AcDbLine
 10
2877.456078826329
 20
734.4211251270351
 30
0.0
 11
2892.706078826329
 21
734.4211251270351
 31
0.0
  0
LINE
  5
1A4C
330
1458
100
AcDbEntity
  8
AM_5
100
AcDbLine
 10
2891.206078826329
 20
697.4211251270351
 30
0.0
 11
2891.206078826329
 21
731.4211251270351
 31
0.0
  0
SOLID
  5
1A4D
330
1458
100
AcDbEntity
  8
AM_5
100
AcDbTrace
 10
2890.70607882633
 20
697.4211251270351
 30
0.0
 11
2891.706078826329
 21
697.4211251270351
 31
0.0
 12
2891.206078826329
 22
694.4211251270351
 32
0.0
 13
2891.206078826329
 23
694.4211251270351
 33
0.0
  0
SOLID
  5
1A4E
330
1458
100
AcDbEntity
  8
AM_5
100
AcDbTrace
 10
2890.70607882633
 20
731.4211251270351
 30
0.0
 11
2891.706078826329
 21
731.4211251270351
 31
0.0
 12
2891.206078826329
 22
734.4211251270351
 32
0.0
 13
2891.206078826329
 23
734.4211251270351
 33
0.0
  0
MTEXT
  5
1A4F
330
1458
100
AcDbEntity
  8
AM_5
100
AcDbMText
 10
2888.706078826329
 20
714.4211251270355
 30
0.0
 40
3.0
 41
0.0
 71
     5
 72
     1
  1
40
  7
CHINESET
 11
0.0000000000000001
 21
1.0
 31
0.0
 73
     1
 44
1.0
1001
ACAD
1000
MTEXTBEGIN
1070
    73
1070
     1
1070
    44
1040
1.0
1070
    74
1070
     0
1000
MTEXTEND
  0
POINT
  5
1A50
330
1458
100
AcDbEntity
  8
Defpoints
 62
     0
100
AcDbPoint
 10
2876.456078826329
 20
694.4211251270351
 30
0.0
  0
POINT
  5
1A51
330
1458
100
AcDbEntity
  8
Defpoints
 62
     0
100
AcDbPoint
 10
2876.456078826329
 20
734.4211251270351
 30
0.0
  0
POINT
  5
1A52
330
1458
100
AcDbEntity
  8
Defpoints
 62
     0
100
AcDbPoint
 10
2891.206078826329
 20
734.4211251270351
 30
0.0
  0
ENDBLK
  5
1463
330
1458
100
AcDbEntity
  8
0
100
AcDbBlockEnd
  0
BLOCK
  5
14B9
330
14AF
100
AcDbEntity
  8
0
100
AcDbBlockBegin
  2
*D34
 70
     1
 10
0.0
 20
0.0
 30
0.0
  3
*D34
  1

  0
LINE
  5
19E7
330
14AF
100
AcDbEntity
  8
AM_5
100
AcDbLine
 10
2879.206173790791
 20
159.2730235218529
 30
0.0
 11
2891.706173790791
 21
159.2730235218529
 31
0.0
  0
LINE
  5
19E8
330
14AF
100
AcDbEntity
  8
AM_5
100
AcDbLine
 10
2866.20617379079
 20
257.2730235218529
 30
0.0
 11
2891.706173790791
 21
257.2730235218529
 31
0.0
  0
LINE
  5
19E9
330
14AF
100
AcDbEntity
  8
AM_5
100
AcDbLine
 10
2890.206173790791
 20
162.2730235218529
 30
0.0
 11
2890.206173790791
 21
254.2730235218529
 31
0.0
  0
SOLID
  5
19EA
330
14AF
100
AcDbEntity
  8
AM_5
100
AcDbTrace
 10
2889.70617379079
 20
162.2730235218529
 30
0.0
 11
2890.70617379079
 21
162.2730235218529
 31
0.0
 12
2890.206173790791
 22
159.2730235218529
 32
0.0
 13
2890.206173790791
 23
159.2730235218529
 33
0.0
  0
SOLID
  5
19EB
330
14AF
100
AcDbEntity
  8
AM_5
100
AcDbTrace
 10
2889.70617379079
 20
254.2730235218529
 30
0.0
 11
2890.70617379079
 21
254.2730235218529
 31
0.0
 12
2890.206173790791
 22
257.2730235218529
 32
0.0
 13
2890.206173790791
 23
257.2730235218529
 33
0.0
  0
MTEXT
  5
19EC
330
14AF
100
AcDbEntity
  8
AM_5
100
AcDbMText
 10
2887.70617379079
 20
208.2730235218534
 30
0.0
 40
3.0
 41
0.0
 71
     5
 72
     1
  1
98
  7
CHINESET
 11
0.0000000000000001
 21
1.0
 31
0.0
 73
     1
 44
1.0
1001
ACAD
1000
MTEXTBEGIN
1070
    73
1070
     1
1070
    44
1040
1.0
1070
    74
1070
     0
1000
MTEXTEND
  0
POINT
  5
19ED
330
14AF
100
AcDbEntity
  8
Defpoints
 62
     0
100
AcDbPoint
 10
2878.20617379079
 20
159.2730235218529
 30
0.0
  0
POINT
  5
19EE
330
14AF
100
AcDbEntity
  8
Defpoints
 62
     0
100
AcDbPoint
 10
2865.20617379079
 20
257.2730235218529
 30
0.0
  0
POINT
  5
19EF
330
14AF
100
AcDbEntity
  8
Defpoints
 62
     0
100
AcDbPoint
 10
2890.206173790791
 20
257.2730235218529
 30
0.0
  0
ENDBLK
  5
14BA
330
14AF
100
AcDbEntity
  8
0
100
AcDbBlockEnd
  0
BLOCK
  5
14C5
330
14BB
100
AcDbEntity
  8
0
100
AcDbBlockBegin
  2
*D35
 70
     1
 10
0.0
 20
0.0
 30
0.0
  3
*D35
  1

  0
LINE
  5
19F0
330
14BB
100
AcDbEntity
  8
AM_5
100
AcDbLine
 10
2879.206173790791
 20
159.2730235218529
 30
0.0
 11
2901.70617379079
 21
159.2730235218529
 31
0.0
  0
LINE
  5
19F1
330
14BB
100
AcDbEntity
  8
AM_5
100
AcDbLine
 10
2855.20617379079
 20
293.273168170878
 30
0.0
 11
2901.70617379079
 21
293.273168170878
 31
0.0
  0
LINE
  5
19F2
330
14BB
100
AcDbEntity
  8
AM_5
100
AcDbLine
 10
2900.20617379079
 20
162.2730235218529
 30
0.0
 11
2900.20617379079
 21
290.273168170878
 31
0.0
  0
SOLID
  5
19F3
330
14BB
100
AcDbEntity
  8
AM_5
100
AcDbTrace
 10
2899.70617379079
 20
162.2730235218529
 30
0.0
 11
2900.706173790791
 21
162.2730235218529
 31
0.0
 12
2900.20617379079
 22
159.2730235218529
 32
0.0
 13
2900.20617379079
 23
159.2730235218529
 33
0.0
  0
SOLID
  5
19F4
330
14BB
100
AcDbEntity
  8
AM_5
100
AcDbTrace
 10
2899.70617379079
 20
290.273168170878
 30
0.0
 11
2900.706173790791
 21
290.273168170878
 31
0.0
 12
2900.20617379079
 22
293.273168170878
 32
0.0
 13
2900.20617379079
 23
293.273168170878
 33
0.0
  0
MTEXT
  5
19F5
330
14BB
100
AcDbEntity
  8
AM_5
100
AcDbMText
 10
2897.70617379079
 20
226.2730958463659
 30
0.0
 40
3.0
 41
0.0
 71
     5
 72
     1
  1
134
  7
CHINESET
 11
0.0000000000000001
 21
1.0
 31
0.0
 73
     1
 44
1.0
1001
ACAD
1000
MTEXTBEGIN
1070
    73
1070
     1
1070
    44
1040
1.0
1070
    74
1070
     0
1000
MTEXTEND
  0
POINT
  5
19F6
330
14BB
100
AcDbEntity
  8
Defpoints
 62
     0
100
AcDbPoint
 10
2878.20617379079
 20
159.2730235218529
 30
0.0
  0
POINT
  5
19F7
330
14BB
100
AcDbEntity
  8
Defpoints
 62
     0
100
AcDbPoint
 10
2854.206173790791
 20
293.273168170878
 30
0.0
  0
POINT
  5
19F8
330
14BB
100
AcDbEntity
  8
Defpoints
 62
     0
100
AcDbPoint
 10
2900.20617379079
 20
293.273168170878
 30
0.0
  0
ENDBLK
  5
14C6
330
14BB
100
AcDbEntity
  8
0
100
AcDbBlockEnd
  0
BLOCK
  5
14D1
330
14C7
100
AcDbEntity
  8
0
100
AcDbBlockBegin
  2
*D36
 70
     1
 10
0.0
 20
0.0
 30
0.0
  3
*D36
  1

  0
LINE
  5
19F9
330
14C7
100
AcDbEntity
  8
AM_5
100
AcDbLine
 10
2855.20617379079
 20
312.273168170878
 30
0.0
 11
2901.70617379079
 21
312.273168170878
 31
0.0
  0
LINE
  5
19FA
330
14C7
100
AcDbEntity
  8
AM_5
100
AcDbLine
 10
2855.20617379079
 20
293.273168170878
 30
0.0
 11
2901.70617379079
 21
293.273168170878
 31
0.0
  0
LINE
  5
19FB
330
14C7
100
AcDbEntity
  8
AM_5
100
AcDbLine
 10
2900.20617379079
 20
309.273168170878
 30
0.0
 11
2900.20617379079
 21
296.273168170878
 31
0.0
  0
SOLID
  5
19FC
330
14C7
100
AcDbEntity
  8
AM_5
100
AcDbTrace
 10
2899.70617379079
 20
309.273168170878
 30
0.0
 11
2900.706173790791
 21
309.273168170878
 31
0.0
 12
2900.20617379079
 22
312.273168170878
 32
0.0
 13
2900.20617379079
 23
312.273168170878
 33
0.0
  0
SOLID
  5
19FD
330
14C7
100
AcDbEntity
  8
AM_5
100
AcDbTrace
 10
2899.70617379079
 20
296.273168170878
 30
0.0
 11
2900.706173790791
 21
296.273168170878
 31
0.0
 12
2900.20617379079
 22
293.273168170878
 32
0.0
 13
2900.20617379079
 23
293.273168170878
 33
0.0
  0
MTEXT
  5
19FE
330
14C7
100
AcDbEntity
  8
AM_5
100
AcDbMText
 10
2897.70617379079
 20
302.7731681708784
 30
0.0
 40
3.0
 41
0.0
 71
     5
 72
     1
  1
19
  7
CHINESET
 11
0.0000000000000001
 21
1.0
 31
0.0
 73
     1
 44
1.0
1001
ACAD
1000
MTEXTBEGIN
1070
    73
1070
     1
1070
    44
1040
1.0
1070
    74
1070
     0
1000
MTEXTEND
  0
POINT
  5
19FF
330
14C7
100
AcDbEntity
  8
Defpoints
 62
     0
100
AcDbPoint
 10
2854.206173790791
 20
312.273168170878
 30
0.0
  0
POINT
  5
1A00
330
14C7
100
AcDbEntity
  8
Defpoints
 62
     0
100
AcDbPoint
 10
2854.206173790791
 20
293.273168170878
 30
0.0
  0
POINT
  5
1A01
330
14C7
100
AcDbEntity
  8
Defpoints
 62
     0
100
AcDbPoint
 10
2900.20617379079
 20
293.273168170878
 30
0.0
  0
ENDBLK
  5
14D2
330
14C7
100
AcDbEntity
  8
0
100
AcDbBlockEnd
  0
BLOCK
  5
1527
330
151D
100
AcDbEntity
  8
0
100
AcDbBlockBegin
  2
*D37
 70
     1
 10
0.0
 20
0.0
 30
0.0
  3
*D37
  1

  0
LINE
  5
1A02
330
151D
100
AcDbEntity
  8
AM_5
100
AcDbLine
 10
2795.20617379079
 20
177.2730235218529
 30
0.0
 11
2784.70617279079
 21
177.2730235218529
 31
0.0
  0
LINE
  5
1A03
330
151D
100
AcDbEntity
  8
AM_5
100
AcDbLine
 10
2795.20617379079
 20
159.2730235218529
 30
0.0
 11
2784.70617279079
 21
159.2730235218529
 31
0.0
  0
LINE
  5
1A04
330
151D
100
AcDbEntity
  8
AM_5
100
AcDbLine
 10
2786.20617279079
 20
174.2730235218529
 30
0.0
 11
2786.20617279079
 21
162.2730235218529
 31
0.0
  0
SOLID
  5
1A05
330
151D
100
AcDbEntity
  8
AM_5
100
AcDbTrace
 10
2785.706172790791
 20
174.2730235218529
 30
0.0
 11
2786.70617279079
 21
174.2730235218529
 31
0.0
 12
2786.20617279079
 22
177.2730235218529
 32
0.0
 13
2786.20617279079
 23
177.2730235218529
 33
0.0
  0
SOLID
  5
1A06
330
151D
100
AcDbEntity
  8
AM_5
100
AcDbTrace
 10
2785.706172790791
 20
162.2730235218529
 30
0.0
 11
2786.70617279079
 21
162.2730235218529
 31
0.0
 12
2786.20617279079
 22
159.2730235218529
 32
0.0
 13
2786.20617279079
 23
159.2730235218529
 33
0.0
  0
MTEXT
  5
1A07
330
151D
100
AcDbEntity
  8
AM_5
100
AcDbMText
 10
2783.706172790791
 20
168.2730235218533
 30
0.0
 40
3.0
 41
0.0
 71
     5
 72
     1
  1
18
  7
CHINESET
 11
0.0000000000000001
 21
1.0
 31
0.0
 73
     1
 44
1.0
1001
ACAD
1000
MTEXTBEGIN
1070
    73
1070
     1
1070
    44
1040
1.0
1070
    74
1070
     0
1000
MTEXTEND
  0
POINT
  5
1A08
330
151D
100
AcDbEntity
  8
Defpoints
 62
     0
100
AcDbPoint
 10
2796.20617379079
 20
177.2730235218529
 30
0.0
  0
POINT
  5
1A09
330
151D
100
AcDbEntity
  8
Defpoints
 62
     0
100
AcDbPoint
 10
2796.20617379079
 20
159.2730235218529
 30
0.0
  0
POINT
  5
1A0A
330
151D
100
AcDbEntity
  8
Defpoints
 62
     0
100
AcDbPoint
 10
2786.20617279079
 20
159.2730235218529
 30
0.0
  0
ENDBLK
  5
1528
330
151D
100
AcDbEntity
  8
0
100
AcDbBlockEnd
  0
BLOCK
  5
153E
330
1534
100
AcDbEntity
  8
0
100
AcDbBlockBegin
  2
*D38
 70
     1
 10
0.0
 20
0.0
 30
0.0
  3
*D38
  1

  0
LINE
  5
1A0B
330
1534
100
AcDbEntity
  8
AM_5
100
AcDbLine
 10
2879.206078826329
 20
332.7380259360412
 30
0.0
 11
2902.706078826329
 21
332.7380259360412
 31
0.0
  0
LINE
  5
1A0C
330
1534
100
AcDbEntity
  8
AM_5
100
AcDbLine
 10
2879.206078826329
 20
396.7380259360412
 30
0.0
 11
2902.706078826329
 21
396.7380259360412
 31
0.0
  0
LINE
  5
1A0D
330
1534
100
AcDbEntity
  8
AM_5
100
AcDbLine
 10
2901.206078826329
 20
335.7380259360413
 30
0.0
 11
2901.206078826329
 21
393.7380259360413
 31
0.0
  0
SOLID
  5
1A0E
330
1534
100
AcDbEntity
  8
AM_5
100
AcDbTrace
 10
2900.706078826329
 20
335.7380259360413
 30
0.0
 11
2901.706078826329
 21
335.7380259360413
 31
0.0
 12
2901.206078826329
 22
332.7380259360412
 32
0.0
 13
2901.206078826329
 23
332.7380259360412
 33
0.0
  0
SOLID
  5
1A0F
330
1534
100
AcDbEntity
  8
AM_5
100
AcDbTrace
 10
2900.706078826329
 20
393.7380259360413
 30
0.0
 11
2901.706078826329
 21
393.7380259360413
 31
0.0
 12
2901.206078826329
 22
396.7380259360412
 32
0.0
 13
2901.206078826329
 23
396.7380259360412
 33
0.0
  0
MTEXT
  5
1A10
330
1534
100
AcDbEntity
  8
AM_5
100
AcDbMText
 10
2898.706078826329
 20
364.7380259360417
 30
0.0
 40
3.0
 41
0.0
 71
     5
 72
     1
  1
64
  7
CHINESET
 11
0.0000000000000001
 21
1.0
 31
0.0
 73
     1
 44
1.0
1001
ACAD
1000
MTEXTBEGIN
1070
    73
1070
     1
1070
    44
1040
1.0
1070
    74
1070
     0
1000
MTEXTEND
  0
POINT
  5
1A11
330
1534
100
AcDbEntity
  8
Defpoints
 62
     0
100
AcDbPoint
 10
2878.206078826329
 20
332.7380259360412
 30
0.0
  0
POINT
  5
1A12
330
1534
100
AcDbEntity
  8
Defpoints
 62
     0
100
AcDbPoint
 10
2878.206078826329
 20
396.7380259360412
 30
0.0
  0
POINT
  5
1A13
330
1534
100
AcDbEntity
  8
Defpoints
 62
     0
100
AcDbPoint
 10
2901.206078826329
 20
396.7380259360412
 30
0.0
  0
ENDBLK
  5
153F
330
1534
100
AcDbEntity
  8
0
100
AcDbBlockEnd
  0
BLOCK
  5
154A
330
1540
100
AcDbEntity
  8
0
100
AcDbBlockBegin
  2
*D39
 70
     1
 10
0.0
 20
0.0
 30
0.0
  3
*D39
  1

  0
LINE
  5
1A14
330
1540
100
AcDbEntity
  8
AM_5
100
AcDbLine
 10
2877.456078826329
 20
344.7380259360413
 30
0.0
 11
2892.706078826329
 21
344.7380259360413
 31
0.0
  0
LINE
  5
1A15
330
1540
100
AcDbEntity
  8
AM_5
100
AcDbLine
 10
2877.456078826329
 20
384.7380259360413
 30
0.0
 11
2892.706078826329
 21
384.7380259360413
 31
0.0
  0
LINE
  5
1A16
330
1540
100
AcDbEntity
  8
AM_5
100
AcDbLine
 10
2891.206078826329
 20
347.7380259360412
 30
0.0
 11
2891.206078826329
 21
381.7380259360413
 31
0.0
  0
SOLID
  5
1A17
330
1540
100
AcDbEntity
  8
AM_5
100
AcDbTrace
 10
2890.706078826329
 20
347.7380259360412
 30
0.0
 11
2891.706078826329
 21
347.7380259360412
 31
0.0
 12
2891.206078826329
 22
344.7380259360413
 32
0.0
 13
2891.206078826329
 23
344.7380259360413
 33
0.0
  0
SOLID
  5
1A18
330
1540
100
AcDbEntity
  8
AM_5
100
AcDbTrace
 10
2890.706078826329
 20
381.7380259360413
 30
0.0
 11
2891.706078826329
 21
381.7380259360413
 31
0.0
 12
2891.206078826329
 22
384.7380259360413
 32
0.0
 13
2891.206078826329
 23
384.7380259360413
 33
0.0
  0
MTEXT
  5
1A19
330
1540
100
AcDbEntity
  8
AM_5
100
AcDbMText
 10
2888.706078826329
 20
364.7380259360417
 30
0.0
 40
3.0
 41
0.0
 71
     5
 72
     1
  1
40
  7
CHINESET
 11
0.0000000000000001
 21
1.0
 31
0.0
 73
     1
 44
1.0
1001
ACAD
1000
MTEXTBEGIN
1070
    73
1070
     1
1070
    44
1040
1.0
1070
    74
1070
     0
1000
MTEXTEND
  0
POINT
  5
1A1A
330
1540
100
AcDbEntity
  8
Defpoints
 62
     0
100
AcDbPoint
 10
2876.456078826329
 20
344.7380259360413
 30
0.0
  0
POINT
  5
1A1B
330
1540
100
AcDbEntity
  8
Defpoints
 62
     0
100
AcDbPoint
 10
2876.456078826329
 20
384.7380259360413
 30
0.0
  0
POINT
  5
1A1C
330
1540
100
AcDbEntity
  8
Defpoints
 62
     0
100
AcDbPoint
 10
2891.206078826329
 20
384.7380259360413
 30
0.0
  0
ENDBLK
  5
154B
330
1540
100
AcDbEntity
  8
0
100
AcDbBlockEnd
  0
ENDSEC
  0
SECTION
  2
ENTITIES
  0
LINE
  5
862
330
1F
100
AcDbEntity
  8
0
100
AcDbLine
 10
2163.44947363888
 20
692.421125127035
 30
0.0
 11
2163.44947363888
 21
736.4211251270351
 31
0.0
  0
LINE
  5
863
330
1F
100
AcDbEntity
  8
0
100
AcDbLine
 10
2162.44947363888
 20
737.4211251270351
 30
0.0
 11
2100.44947363888
 21
737.4211251270351
 31
0.0
  0
LINE
  5
864
330
1F
100
AcDbEntity
  8
0
100
AcDbLine
 10
2100.44947363888
 20
691.4211251270351
 30
0.0
 11
2162.44947363888
 21
691.4211251270351
 31
0.0
  0
LINE
  5
865
330
1F
100
AcDbEntity
  8
0
100
AcDbLine
 10
2100.44947363888
 20
737.4211251270351
 30
0.0
 11
2099.44947363888
 21
736.4211251270351
 31
0.0
  0
LINE
  5
866
330
1F
100
AcDbEntity
  8
0
100
AcDbLine
 10
2099.44947363888
 20
692.421125127035
 30
0.0
 11
2100.44947363888
 21
691.4211251270351
 31
0.0
  0
LINE
  5
867
102
{ACAD_REACTORS
330
10A1
102
}
330
1F
100
AcDbEntity
  8
0
100
AcDbLine
 10
2162.44947363888
 20
691.4211251270351
 30
0.0
 11
2163.44947363888
 21
692.421125127035
 31
0.0
  0
LINE
  5
868
102
{ACAD_REACTORS
330
10A1
102
}
330
1F
100
AcDbEntity
  8
0
100
AcDbLine
 10
2163.44947363888
 20
736.4211251270351
 30
0.0
 11
2162.44947363888
 21
737.4211251270351
 31
0.0
  0
CIRCLE
  5
869
330
1F
100
AcDbEntity
  8
0
100
AcDbCircle
 10
2156.44947363888
 20
729.421125127035
 30
0.0
 40
3.25
  0
CIRCLE
  5
86A
330
1F
100
AcDbEntity
  8
0
100
AcDbCircle
 10
2156.44947363888
 20
699.4211251270351
 30
0.0
 40
3.25
  0
CIRCLE
  5
86B
330
1F
100
AcDbEntity
  8
0
100
AcDbCircle
 10
2131.44947363888
 20
714.4211251270351
 30
0.0
 40
9.0
  0
LINE
  5
86C
330
1F
100
AcDbEntity
  8
0
100
AcDbLine
 10
2146.44947363888
 20
714.4211251270351
 30
0.0
 11
2146.44947363888
 21
733.4211251270351
 31
0.0
  0
LINE
  5
86D
330
1F
100
AcDbEntity
  8
0
100
AcDbLine
 10
2146.44947363888
 20
714.4211251270351
 30
0.0
 11
2146.44947363888
 21
695.4211251270351
 31
0.0
  0
LINE
  5
86E
330
1F
100
AcDbEntity
  8
0
100
AcDbLine
 10
2146.44947363888
 20
695.4211251270351
 30
0.0
 11
2096.44947363888
 21
695.4211251270351
 31
0.0
  0
LINE
  5
86F
330
1F
100
AcDbEntity
  8
0
100
AcDbLine
 10
2076.44947363888
 20
702.4211251270351
 30
0.0
 11
2076.44947363888
 21
726.4211251270351
 31
0.0
  0
LINE
  5
870
330
1F
100
AcDbEntity
  8
0
100
AcDbLine
 10
2096.44947363888
 20
733.4211251270351
 30
0.0
 11
2146.44947363888
 21
733.4211251270351
 31
0.0
  0
CIRCLE
  5
871
330
1F
100
AcDbEntity
  8
0
100
AcDbCircle
 10
2086.449473638881
 20
714.4211251270351
 30
0.0
 40
6.0
  0
LINE
  5
872
330
1F
100
AcDbEntity
  8
0
100
AcDbLine
 10
2076.44947363888
 20
726.4211251270351
 30
0.0
 11
2096.44947363888
 21
733.4211251270351
 31
0.0
  0
LINE
  5
873
330
1F
100
AcDbEntity
  8
0
100
AcDbLine
 10
2076.44947363888
 20
702.4211251270351
 30
0.0
 11
2096.44947363888
 21
695.4211251270351
 31
0.0
  0
LINE
  5
874
330
1F
100
AcDbEntity
  8
0
100
AcDbLine
 10
2099.44947363888
 20
736.4211251270351
 30
0.0
 11
2099.44947363888
 21
733.4211251270351
 31
0.0
  0
LINE
  5
875
330
1F
100
AcDbEntity
  8
0
100
AcDbLine
 10
2099.44947363888
 20
695.4211251270351
 30
0.0
 11
2099.44947363888
 21
692.421125127035
 31
0.0
  0
LINE
  5
876
330
1F
100
AcDbEntity
  8
0
100
AcDbLine
 10
2099.407807601635
 20
508.9561227128467
 30
0.0
 11
2163.407807601635
 21
508.9561227128467
 31
0.0
  0
LINE
  5
877
330
1F
100
AcDbEntity
  8
0
100
AcDbLine
 10
2153.907807601635
 20
526.9561227128467
 30
0.0
 11
2153.907807601635
 21
606.9561227128467
 31
0.0
  0
LINE
  5
878
102
{ACAD_REACTORS
330
10ED
102
}
330
1F
100
AcDbEntity
  8
0
100
AcDbLine
 10
2153.907807601635
 20
606.9561227128467
 30
0.0
 11
2108.907807601635
 21
606.9561227128467
 31
0.0
  0
LINE
  5
879
330
1F
100
AcDbEntity
  8
0
100
AcDbLine
 10
2108.907807601635
 20
606.9561227128467
 30
0.0
 11
2108.907807601635
 21
526.9561227128467
 31
0.0
  0
LINE
  5
87A
330
1F
100
AcDbEntity
  8
0
100
AcDbLine
 10
2153.907807601635
 20
574.9561227128467
 30
0.0
 11
2108.907807601635
 21
574.9561227128467
 31
0.0
  0
LINE
  5
87C
330
1F
100
AcDbEntity
  8
0
100
AcDbLine
 10
2146.407807601635
 20
635.9561227128467
 30
0.0
 11
2146.407807601635
 21
654.9561227128467
 31
0.0
  0
LINE
  5
87D
102
{ACAD_REACTORS
330
115F
102
}
330
1F
100
AcDbEntity
  8
0
100
AcDbLine
 10
2146.407807601635
 20
654.9561227128467
 30
0.0
 11
2076.407807601635
 21
654.9561227128467
 31
0.0
  0
LINE
  5
87E
330
1F
100
AcDbEntity
  8
0
100
AcDbLine
 10
2076.407807601635
 20
654.9561227128467
 30
0.0
 11
2076.407807601635
 21
635.9561227128467
 31
0.0
  0
LINE
  5
87F
102
{ACAD_REACTORS
330
1113
330
115F
102
}
330
1F
100
AcDbEntity
  8
0
100
AcDbLine
 10
2076.407807601635
 20
635.9561227128467
 30
0.0
 11
2146.407807601635
 21
635.9561227128467
 31
0.0
  0
LINE
  5
880
330
1F
100
AcDbEntity
  8
0
100
AcDbLine
 10
2096.407807601635
 20
654.9561227128467
 30
0.0
 11
2096.407807601635
 21
635.9561227128467
 31
0.0
  0
LINE
  5
881
330
1F
100
AcDbEntity
  8
0
  6
Continuous
100
AcDbLine
 10
2122.407807601635
 20
635.9561227128467
 30
0.0
 11
2122.407807601635
 21
606.9561227128467
 31
0.0
  0
LINE
  5
882
330
1F
100
AcDbEntity
  8
0
  6
Continuous
100
AcDbLine
 10
2140.407807601635
 20
635.9561227128467
 30
0.0
 11
2140.407807601635
 21
606.9561227128467
 31
0.0
  0
CIRCLE
  5
883
330
1F
100
AcDbEntity
  8
0
100
AcDbCircle
 10
2086.449473638881
 20
714.4211251270351
 30
0.0
 40
5.0
  0
CIRCLE
  5
884
330
1F
100
AcDbEntity
  8
0
100
AcDbCircle
 10
2131.44947363888
 20
714.4211251270351
 30
0.0
 40
8.0
  0
POLYLINE
  5
885
330
1F
100
AcDbEntity
  8
0
100
AcDb2dPolyline
 66
     1
 10
0.0
 20
0.0
 30
0.0
 70
     1
  0
VERTEX
  5
886
330
885
100
AcDbEntity
  8
0
100
AcDbVertex
100
AcDb2dVertex
 10
2117.300650046352
 20
714.4211251270351
 30
0.0
  0
VERTEX
  5
887
330
885
100
AcDbEntity
  8
0
100
AcDbVertex
100
AcDb2dVertex
 10
2124.375061842616
 20
702.1678844622406
 30
0.0
  0
VERTEX
  5
888
330
885
100
AcDbEntity
  8
0
100
AcDbVertex
100
AcDb2dVertex
 10
2138.523885435144
 20
702.1678844622406
 30
0.0
  0
VERTEX
  5
889
330
885
100
AcDbEntity
  8
0
100
AcDbVertex
100
AcDb2dVertex
 10
2145.598297231408
 20
714.4211251270351
 30
0.0
  0
VERTEX
  5
88A
330
885
100
AcDbEntity
  8
0
100
AcDbVertex
100
AcDb2dVertex
 10
2138.523885435144
 20
726.6743657918295
 30
0.0
  0
VERTEX
  5
88B
330
885
100
AcDbEntity
  8
0
100
AcDbVertex
100
AcDb2dVertex
 10
2124.375061842616
 20
726.6743657918295
 30
0.0
  0
SEQEND
  5
88C
330
885
100
AcDbEntity
  8
0
  0
LINE
  5
893
330
1F
100
AcDbEntity
  8
0
  6
HIDDEN
 62
     3
 48
0.5
100
AcDbLine
 10
2092.407807601635
 20
654.9561227128467
 30
0.0
 11
2092.407807601635
 21
635.956122712847
 31
0.0
  0
LINE
  5
894
330
1F
100
AcDbEntity
  8
0
  6
HIDDEN
 62
     3
 48
0.5
100
AcDbLine
 10
2080.407807601635
 20
654.9561227128467
 30
0.0
 11
2080.407807601635
 21
635.956122712847
 31
0.0
  0
LINE
  5
895
330
1F
100
AcDbEntity
  8
0
  6
HIDDEN
 62
     3
 48
0.5
100
AcDbLine
 10
2081.407807601635
 20
654.9561227128467
 30
0.0
 11
2081.407807601635
 21
635.956122712847
 31
0.0
  0
LINE
  5
896
330
1F
100
AcDbEntity
  8
0
  6
HIDDEN
 62
     3
 48
0.5
100
AcDbLine
 10
2091.407807601635
 20
654.9561227128467
 30
0.0
 11
2091.407807601635
 21
635.956122712847
 31
0.0
  0
LINE
  5
897
330
1F
100
AcDbEntity
  8
0
100
AcDbLine
 10
2152.907807601635
 20
526.9561227128467
 30
0.0
 11
2152.907807601635
 21
574.9561227128467
 31
0.0
  0
LINE
  5
898
330
1F
100
AcDbEntity
  8
0
100
AcDbLine
 10
2109.907807601635
 20
574.9561227128467
 30
0.0
 11
2109.907807601635
 21
526.9561227128467
 31
0.0
  0
INSERT
  5
89A
330
1F
100
AcDbEntity
  8
0
100
AcDbBlockReference
  2
NUT
 10
2131.407807601635
 20
659.9151372901392
 30
0.0
 41
0.8000000000001818
 42
0.7999999999999546
 43
0.8
  0
ARC
  5
89B
330
1F
100
AcDbEntity
  8
0
100
AcDbCircle
 10
2131.44947363888
 20
714.4211251270351
 30
0.0
 40
22.0
100
AcDbArc
 50
312.9858860801832
 51
47.01411391981673
  0
ARC
  5
89C
330
1F
100
AcDbEntity
  8
0
100
AcDbCircle
 10
2131.44947363888
 20
714.4211251270351
 30
0.0
 40
22.5
100
AcDbArc
 50
311.8103148957701
 51
48.18968510422982
  0
ARC
  5
89D
330
1F
100
AcDbEntity
  8
0
100
AcDbCircle
 10
2131.44947363888
 20
714.4211251270351
 30
0.0
 40
22.0
100
AcDbArc
 50
59.72735868108006
 51
120.2726413189199
  0
ARC
  5
89E
330
1F
100
AcDbEntity
  8
0
100
AcDbCircle
 10
2131.44947363888
 20
714.4211251270351
 30
0.0
 40
22.0
100
AcDbArc
 50
239.7273586810801
 51
300.2726413189199
  0
ARC
  5
89F
330
1F
100
AcDbEntity
  8
0
100
AcDbCircle
 10
2131.44947363888
 20
714.4211251270351
 30
0.0
 40
22.5
100
AcDbArc
 50
57.61246146690424
 51
122.3875385330957
  0
ARC
  5
8A0
330
1F
100
AcDbEntity
  8
0
100
AcDbCircle
 10
2131.44947363888
 20
714.4211251270351
 30
0.0
 40
22.5
100
AcDbArc
 50
237.6124614669043
 51
302.3875385330958
  0
LINE
  5
8A1
330
1F
100
AcDbEntity
  8
0
100
AcDbLine
 10
2163.407807601635
 20
526.9561227128467
 30
0.0
 11
2099.407807601635
 21
526.9561227128467
 31
0.0
  0
LINE
  5
8A2
102
{ACAD_REACTORS
330
1139
102
}
330
1F
100
AcDbEntity
  8
0
100
AcDbLine
 10
2099.407807601635
 20
526.9561227128467
 30
0.0
 11
2099.407807601635
 21
508.9561227128467
 31
0.0
  0
LINE
  5
8A3
102
{ACAD_REACTORS
330
10ED
330
1113
102
}
330
1F
100
AcDbEntity
  8
0
100
AcDbLine
 10
2163.407807601635
 20
508.9561227128467
 30
0.0
 11
2163.407807601635
 21
526.9561227128467
 31
0.0
  0
LINE
  5
8B3
330
1F
100
AcDbEntity
  8
AM_7
100
AcDbLine
 10
2086.407807601635
 20
658.169927059932
 30
0.0
 11
2086.407807601635
 21
631.2974802145163
 31
0.0
1001
GENIUS_GENOBJ-N-CEN_13
1002
{
1000
OWNER
1000
GEN
1002
}
1001
GENIUS_GENODEF_13
1002
{
1000
HIER
1070
     0
1002
}
1002
{
1000
MANEDIT
1070
     0
1002
}
1002
{
1000
NOSEL
1070
     0
1002
}
1002
{
1000
BEHIND
1070
     0
1002
}
1002
{
1000
OTHER
1070
     0
1002
}
1002
{
1000
REACTOR
1002
}
1001
GENIUS_GENCEN_19
1002
{
1040
2.0
1002
}
  0
LINE
  5
8C2
330
1F
100
AcDbEntity
  8
AM_7
100
AcDbLine
 10
2131.407807601635
 20
506.9561227128467
 30
0.0
 11
2131.407807601635
 21
665.497162122369
 31
0.0
1001
GENIUS_GENOBJ-N-CEN_13
1002
{
1000
OWNER
1000
GEN
1002
}
1001
GENIUS_GENODEF_13
1002
{
1000
HIER
1070
     0
1002
}
1002
{
1000
MANEDIT
1070
     0
1002
}
1002
{
1000
NOSEL
1070
     0
1002
}
1002
{
1000
BEHIND
1070
     0
1002
}
1002
{
1000
OTHER
1070
     0
1002
}
1002
{
1000
REACTOR
1002
}
1001
GENIUS_GENCEN_19
1002
{
1040
2.0
1002
}
  0
LINE
  5
8D0
330
1F
100
AcDbEntity
  8
AM_7
100
AcDbLine
 10
2131.44947363888
 20
714.4211251270351
 30
0.0
 11
2155.44947363888
 21
714.4211251270351
 31
0.0
1001
GENIUS_GENOREF_13
1005
8D4
  0
LINE
  5
8D1
330
1F
100
AcDbEntity
  8
AM_7
100
AcDbLine
 10
2131.44947363888
 20
714.4211251270351
 30
0.0
 11
2131.44947363888
 21
738.421125127035
 31
0.0
1001
GENIUS_GENOREF_13
1005
8D4
  0
LINE
  5
8D2
330
1F
100
AcDbEntity
  8
AM_7
100
AcDbLine
 10
2168.219310264753
 20
714.4211251270351
 30
0.0
 11
2073.934578780425
 21
714.4211251270351
 31
0.0
1001
GENIUS_GENOREF_13
1005
8D4
  0
LINE
  5
8D3
330
1F
100
AcDbEntity
  8
AM_7
100
AcDbLine
 10
2131.44947363888
 20
714.4211251270351
 30
0.0
 11
2131.44947363888
 21
690.4211251270351
 31
0.0
1001
GENIUS_GENOREF_13
1005
8D4
  0
POINT
  5
8D4
330
1F
100
AcDbEntity
  8
0
 60
     1
100
AcDbPoint
 10
0.0
 20
0.0
 30
0.0
1001
GENIUS_GENOLIS_13
1002
{
1000
ENT
1005
8D3
1005
8D2
1005
8D1
1005
8D0
1002
}
1001
GENIUS_GENOBJ-N-CRS_13
1002
{
1000
OWNER
1000
GEN
1002
}
1001
GENIUS_GENOENT_13
1002
{
1000
MYREF
1005
8D4
1002
}
1002
{
1000
GRP
1005
0
1002
}
1001
GENIUS_GENODEF_13
1002
{
1000
HIER
1070
    10
1002
}
1002
{
1000
MANEDIT
1070
     0
1002
}
1002
{
1000
NOSEL
1070
     0
1002
}
1002
{
1000
BEHIND
1070
     0
1002
}
1002
{
1000
OTHER
1070
     0
1002
}
1002
{
1000
REACTOR
1002
}
  0
LINE
  5
8E2
330
1F
100
AcDbEntity
  8
AM_7
  6
AM_ISO08W050x2
100
AcDbLine
 10
2086.449473638881
 20
714.4211251270351
 30
0.0
 11
2094.44947363888
 21
714.4211251270351
 31
0.0
1001
GENIUS_GENOREF_13
1005
8E6
  0
LINE
  5
8E3
330
1F
100
AcDbEntity
  8
AM_7
  6
AM_ISO08W050x2
100
AcDbLine
 10
2086.449473638881
 20
714.4211251270351
 30
0.0
 11
2086.449473638881
 21
722.4211251270351
 31
0.0
1001
GENIUS_GENOREF_13
1005
8E6
  0
LINE
  5
8E4
330
1F
100
AcDbEntity
  8
AM_7
  6
AM_ISO08W050x2
100
AcDbLine
 10
2086.449473638881
 20
714.4211251270351
 30
0.0
 11
2078.44947363888
 21
714.4211251270351
 31
0.0
1001
GENIUS_GENOREF_13
1005
8E6
  0
LINE
  5
8E5
330
1F
100
AcDbEntity
  8
AM_7
  6
AM_ISO08W050x2
100
AcDbLine
 10
2086.449473638881
 20
714.4211251270351
 30
0.0
 11
2086.449473638881
 21
706.4211251270351
 31
0.0
1001
GENIUS_GENOREF_13
1005
8E6
  0
POINT
  5
8E6
330
1F
100
AcDbEntity
  8
0
 60
     1
100
AcDbPoint
 10
0.0
 20
0.0
 30
0.0
1001
GENIUS_GENODEF_13
1002
{
1000
HIER
1070
    10
1002
}
1002
{
1000
MANEDIT
1070
     0
1002
}
1002
{
1000
NOSEL
1070
     0
1002
}
1002
{
1000
BEHIND
1070
     0
1002
}
1002
{
1000
OTHER
1070
     0
1002
}
1002
{
1000
REACTOR
1002
}
1001
GENIUS_GENOBJ-N-CRS_13
1002
{
1000
OWNER
1000
GEN
1002
}
1001
GENIUS_GENOLIS_13
1002
{
1000
ENT
1005
8E5
1005
8E4
1005
8E3
1005
8E2
1002
}
1001
GENIUS_GENOENT_13
1002
{
1000
MYREF
1005
8E6
1002
}
1002
{
1000
GRP
1005
0
1002
}
  0
LINE
  5
8F4
102
{ACAD_REACTORS
330
10C7
102
}
330
1F
100
AcDbEntity
  8
AM_7
  6
AM_ISO08W050x2
100
AcDbLine
 10
2156.44947363888
 20
729.421125127035
 30
0.0
 11
2161.69947363888
 21
729.421125127035
 31
0.0
1001
GENIUS_GENOREF_13
1005
8F8
  0
LINE
  5
8F5
330
1F
100
AcDbEntity
  8
AM_7
  6
AM_ISO08W050x2
100
AcDbLine
 10
2156.44947363888
 20
729.421125127035
 30
0.0
 11
2156.44947363888
 21
734.6711251270351
 31
0.0
1001
GENIUS_GENOREF_13
1005
8F8
  0
LINE
  5
8F6
330
1F
100
AcDbEntity
  8
AM_7
  6
AM_ISO08W050x2
100
AcDbLine
 10
2156.44947363888
 20
729.421125127035
 30
0.0
 11
2151.19947363888
 21
729.421125127035
 31
0.0
1001
GENIUS_GENOREF_13
1005
8F8
  0
LINE
  5
8F7
330
1F
100
AcDbEntity
  8
AM_7
  6
AM_ISO08W050x2
100
AcDbLine
 10
2156.44947363888
 20
729.421125127035
 30
0.0
 11
2156.44947363888
 21
724.1711251270351
 31
0.0
1001
GENIUS_GENOREF_13
1005
8F8
  0
POINT
  5
8F8
330
1F
100
AcDbEntity
  8
0
 60
     1
100
AcDbPoint
 10
0.0
 20
0.0
 30
0.0
1001
GENIUS_GENOLIS_13
1002
{
1000
ENT
1005
8F7
1005
8F6
1005
8F5
1005
8F4
1002
}
1001
GENIUS_GENOENT_13
1002
{
1000
MYREF
1005
8F8
1002
}
1002
{
1000
GRP
1005
0
1002
}
1001
GENIUS_GENOBJ-N-CRS_13
1002
{
1000
OWNER
1000
GEN
1002
}
1001
GENIUS_GENODEF_13
1002
{
1000
HIER
1070
    10
1002
}
1002
{
1000
MANEDIT
1070
     0
1002
}
1002
{
1000
NOSEL
1070
     0
1002
}
1002
{
1000
BEHIND
1070
     0
1002
}
1002
{
1000
OTHER
1070
     0
1002
}
1002
{
1000
REACTOR
1002
}
  0
LINE
  5
906
102
{ACAD_REACTORS
330
10C7
102
}
330
1F
100
AcDbEntity
  8
AM_7
  6
AM_ISO08W050x2
100
AcDbLine
 10
2156.44947363888
 20
699.4211251270351
 30
0.0
 11
2161.69947363888
 21
699.4211251270351
 31
0.0
1001
GENIUS_GENOREF_13
1005
90A
  0
LINE
  5
907
330
1F
100
AcDbEntity
  8
AM_7
  6
AM_ISO08W050x2
100
AcDbLine
 10
2156.44947363888
 20
699.4211251270351
 30
0.0
 11
2156.44947363888
 21
704.6711251270351
 31
0.0
1001
GENIUS_GENOREF_13
1005
90A
  0
LINE
  5
908
330
1F
100
AcDbEntity
  8
AM_7
  6
AM_ISO08W050x2
100
AcDbLine
 10
2156.44947363888
 20
699.4211251270351
 30
0.0
 11
2151.19947363888
 21
699.4211251270351
 31
0.0
1001
GENIUS_GENOREF_13
1005
90A
  0
LINE
  5
909
330
1F
100
AcDbEntity
  8
AM_7
  6
AM_ISO08W050x2
100
AcDbLine
 10
2156.44947363888
 20
699.4211251270351
 30
0.0
 11
2156.44947363888
 21
694.171125127035
 31
0.0
1001
GENIUS_GENOREF_13
1005
90A
  0
POINT
  5
90A
330
1F
100
AcDbEntity
  8
0
 60
     1
100
AcDbPoint
 10
0.0
 20
0.0
 30
0.0
1001
GENIUS_GENOLIS_13
1002
{
1000
ENT
1005
909
1005
908
1005
907
1005
906
1002
}
1001
GENIUS_GENODEF_13
1002
{
1000
HIER
1070
    10
1002
}
1002
{
1000
MANEDIT
1070
     0
1002
}
1002
{
1000
NOSEL
1070
     0
1002
}
1002
{
1000
BEHIND
1070
     0
1002
}
1002
{
1000
OTHER
1070
     0
1002
}
1002
{
1000
REACTOR
1002
}
1001
GENIUS_GENOENT_13
1002
{
1000
MYREF
1005
90A
1002
}
1002
{
1000
GRP
1005
0
1002
}
1001
GENIUS_GENOBJ-N-CRS_13
1002
{
1000
OWNER
1000
GEN
1002
}
  0
LINE
  5
960
330
1F
100
AcDbEntity
  8
0
100
AcDbLine
 10
2163.407807601635
 20
342.7380259360413
 30
0.0
 11
2163.407807601635
 21
386.7380259360412
 31
0.0
  0
LINE
  5
961
330
1F
100
AcDbEntity
  8
0
100
AcDbLine
 10
2162.407807601635
 20
387.7380259360413
 30
0.0
 11
2100.407807601635
 21
387.7380259360413
 31
0.0
  0
LINE
  5
962
330
1F
100
AcDbEntity
  8
0
100
AcDbLine
 10
2100.407807601635
 20
341.7380259360413
 30
0.0
 11
2162.407807601635
 21
341.7380259360413
 31
0.0
  0
LINE
  5
963
330
1F
100
AcDbEntity
  8
0
100
AcDbLine
 10
2100.407807601635
 20
387.7380259360413
 30
0.0
 11
2099.407807601635
 21
386.7380259360412
 31
0.0
  0
LINE
  5
964
330
1F
100
AcDbEntity
  8
0
100
AcDbLine
 10
2099.407807601635
 20
342.7380259360413
 30
0.0
 11
2100.407807601635
 21
341.7380259360413
 31
0.0
  0
LINE
  5
965
330
1F
100
AcDbEntity
  8
0
100
AcDbLine
 10
2162.407807601635
 20
341.7380259360413
 30
0.0
 11
2163.407807601635
 21
342.7380259360413
 31
0.0
  0
LINE
  5
966
330
1F
100
AcDbEntity
  8
0
100
AcDbLine
 10
2163.407807601635
 20
386.7380259360412
 30
0.0
 11
2162.407807601635
 21
387.7380259360413
 31
0.0
  0
CIRCLE
  5
967
330
1F
100
AcDbEntity
  8
0
100
AcDbCircle
 10
2156.407807601635
 20
379.7380259360413
 30
0.0
 40
3.25
  0
CIRCLE
  5
968
330
1F
100
AcDbEntity
  8
0
100
AcDbCircle
 10
2156.407807601635
 20
349.7380259360412
 30
0.0
 40
3.25
  0
CIRCLE
  5
969
330
1F
100
AcDbEntity
  8
0
100
AcDbCircle
 10
2131.407807601635
 20
364.7380259360413
 30
0.0
 40
9.0
  0
LINE
  5
96A
330
1F
100
AcDbEntity
  8
0
100
AcDbLine
 10
2146.407807601635
 20
364.7380259360413
 30
0.0
 11
2146.407807601635
 21
383.7380259360413
 31
0.0
  0
LINE
  5
96B
330
1F
100
AcDbEntity
  8
0
100
AcDbLine
 10
2146.407807601635
 20
364.7380259360413
 30
0.0
 11
2146.407807601635
 21
345.7380259360413
 31
0.0
  0
LINE
  5
96C
330
1F
100
AcDbEntity
  8
0
100
AcDbLine
 10
2146.407807601635
 20
345.7380259360413
 30
0.0
 11
2096.407807601635
 21
345.7380259360413
 31
0.0
  0
LINE
  5
96D
330
1F
100
AcDbEntity
  8
0
100
AcDbLine
 10
2076.407807601635
 20
352.7380259360413
 30
0.0
 11
2076.407807601635
 21
376.7380259360412
 31
0.0
  0
LINE
  5
96E
330
1F
100
AcDbEntity
  8
0
100
AcDbLine
 10
2096.407807601635
 20
383.7380259360413
 30
0.0
 11
2146.407807601635
 21
383.7380259360413
 31
0.0
  0
CIRCLE
  5
96F
330
1F
100
AcDbEntity
  8
0
100
AcDbCircle
 10
2086.407807601635
 20
364.7380259360413
 30
0.0
 40
6.0
  0
LINE
  5
970
330
1F
100
AcDbEntity
  8
0
100
AcDbLine
 10
2076.407807601635
 20
376.7380259360412
 30
0.0
 11
2096.407807601635
 21
383.7380259360413
 31
0.0
  0
LINE
  5
971
330
1F
100
AcDbEntity
  8
0
100
AcDbLine
 10
2076.407807601635
 20
352.7380259360413
 30
0.0
 11
2096.407807601635
 21
345.7380259360413
 31
0.0
  0
LINE
  5
972
330
1F
100
AcDbEntity
  8
0
100
AcDbLine
 10
2099.407807601635
 20
386.7380259360412
 30
0.0
 11
2099.407807601635
 21
383.7380259360413
 31
0.0
  0
LINE
  5
973
330
1F
100
AcDbEntity
  8
0
100
AcDbLine
 10
2099.407807601635
 20
345.7380259360413
 30
0.0
 11
2099.407807601635
 21
342.7380259360413
 31
0.0
  0
LINE
  5
974
330
1F
100
AcDbEntity
  8
0
100
AcDbLine
 10
2099.36614156439
 20
159.2730235218529
 30
0.0
 11
2163.36614156439
 21
159.2730235218529
 31
0.0
  0
LINE
  5
975
330
1F
100
AcDbEntity
  8
0
100
AcDbLine
 10
2153.86614156439
 20
177.2730235218529
 30
0.0
 11
2153.86614156439
 21
257.2730235218529
 31
0.0
  0
LINE
  5
976
330
1F
100
AcDbEntity
  8
0
100
AcDbLine
 10
2153.86614156439
 20
257.2730235218529
 30
0.0
 11
2108.86614156439
 21
257.2730235218529
 31
0.0
  0
LINE
  5
977
330
1F
100
AcDbEntity
  8
0
100
AcDbLine
 10
2108.86614156439
 20
257.2730235218529
 30
0.0
 11
2108.86614156439
 21
177.2730235218529
 31
0.0
  0
LINE
  5
978
330
1F
100
AcDbEntity
  8
0
100
AcDbLine
 10
2153.86614156439
 20
225.2730235218529
 30
0.0
 11
2108.86614156439
 21
225.2730235218529
 31
0.0
  0
LINE
  5
97A
330
1F
100
AcDbEntity
  8
0
100
AcDbLine
 10
2146.36614156439
 20
293.2730235218529
 30
0.0
 11
2146.36614156439
 21
312.2730235218529
 31
0.0
  0
LINE
  5
97B
330
1F
100
AcDbEntity
  8
0
100
AcDbLine
 10
2146.36614156439
 20
312.2730235218529
 30
0.0
 11
2076.36614156439
 21
312.2730235218529
 31
0.0
  0
LINE
  5
97C
330
1F
100
AcDbEntity
  8
0
100
AcDbLine
 10
2076.36614156439
 20
312.2730235218529
 30
0.0
 11
2076.36614156439
 21
293.2730235218529
 31
0.0
  0
LINE
  5
97D
330
1F
100
AcDbEntity
  8
0
100
AcDbLine
 10
2076.36614156439
 20
293.2730235218529
 30
0.0
 11
2146.36614156439
 21
293.2730235218529
 31
0.0
  0
LINE
  5
97E
330
1F
100
AcDbEntity
  8
0
100
AcDbLine
 10
2096.36614156439
 20
312.2730235218529
 30
0.0
 11
2096.36614156439
 21
293.2730235218529
 31
0.0
  0
LINE
  5
97F
330
1F
100
AcDbEntity
  8
0
100
AcDbLine
 10
2122.366141564389
 20
293.2730235218529
 30
0.0
 11
2122.366141564389
 21
257.2730235218529
 31
0.0
  0
LINE
  5
980
330
1F
100
AcDbEntity
  8
0
100
AcDbLine
 10
2140.36614156439
 20
293.2730235218529
 30
0.0
 11
2140.36614156439
 21
257.2730235218529
 31
0.0
  0
CIRCLE
  5
981
330
1F
100
AcDbEntity
  8
0
100
AcDbCircle
 10
2086.407807601635
 20
364.7380259360413
 30
0.0
 40
5.0
  0
CIRCLE
  5
982
330
1F
100
AcDbEntity
  8
0
100
AcDbCircle
 10
2131.407807601635
 20
364.7380259360413
 30
0.0
 40
8.0
  0
POLYLINE
  5
983
330
1F
100
AcDbEntity
  8
0
100
AcDb2dPolyline
 66
     1
 10
0.0
 20
0.0
 30
0.0
 70
     1
  0
VERTEX
  5
984
330
983
100
AcDbEntity
  8
0
100
AcDbVertex
100
AcDb2dVertex
 10
2117.258984009106
 20
364.7380259360413
 30
0.0
  0
VERTEX
  5
985
330
983
100
AcDbEntity
  8
0
100
AcDbVertex
100
AcDb2dVertex
 10
2124.33339580537
 20
352.4847852712468
 30
0.0
  0
VERTEX
  5
986
330
983
100
AcDbEntity
  8
0
100
AcDbVertex
100
AcDb2dVertex
 10
2138.4822193979
 20
352.4847852712468
 30
0.0
  0
VERTEX
  5
987
330
983
100
AcDbEntity
  8
0
100
AcDbVertex
100
AcDb2dVertex
 10
2145.556631194164
 20
364.7380259360413
 30
0.0
  0
VERTEX
  5
988
330
983
100
AcDbEntity
  8
0
100
AcDbVertex
100
AcDb2dVertex
 10
2138.4822193979
 20
376.9912666008355
 30
0.0
  0
VERTEX
  5
989
330
983
100
AcDbEntity
  8
0
100
AcDbVertex
100
AcDb2dVertex
 10
2124.33339580537
 20
376.9912666008355
 30
0.0
  0
SEQEND
  5
98A
330
983
100
AcDbEntity
  8
0
  0
LINE
  5
991
330
1F
100
AcDbEntity
  8
0
  6
HIDDEN
 62
     3
 48
0.5
100
AcDbLine
 10
2092.36614156439
 20
312.2730235218529
 30
0.0
 11
2092.36614156439
 21
293.2730235218529
 31
0.0
  0
LINE
  5
992
330
1F
100
AcDbEntity
  8
0
  6
HIDDEN
 62
     3
 48
0.5
100
AcDbLine
 10
2080.36614156439
 20
312.2730235218529
 30
0.0
 11
2080.36614156439
 21
293.2730235218529
 31
0.0
  0
LINE
  5
993
330
1F
100
AcDbEntity
  8
0
  6
HIDDEN
 62
     3
 48
0.5
100
AcDbLine
 10
2081.36614156439
 20
312.2730235218529
 30
0.0
 11
2081.36614156439
 21
293.2730235218529
 31
0.0
  0
LINE
  5
994
330
1F
100
AcDbEntity
  8
0
  6
HIDDEN
 62
     3
 48
0.5
100
AcDbLine
 10
2091.36614156439
 20
312.2730235218529
 30
0.0
 11
2091.36614156439
 21
293.2730235218529
 31
0.0
  0
LINE
  5
996
330
1F
100
AcDbEntity
  8
0
100
AcDbLine
 10
2152.866141564389
 20
177.2730235218529
 30
0.0
 11
2152.866141564389
 21
225.2730235218529
 31
0.0
  0
LINE
  5
997
330
1F
100
AcDbEntity
  8
0
100
AcDbLine
 10
2109.86614156439
 20
225.2730235218529
 30
0.0
 11
2109.86614156439
 21
177.2730235218529
 31
0.0
  0
INSERT
  5
999
330
1F
100
AcDbEntity
  8
0
100
AcDbBlockReference
  2
NUT
 10
2131.375981587115
 20
317.2363057198658
 30
0.0
 41
0.8000000000001818
 42
0.7999999999999546
 43
0.8
  0
ARC
  5
99B
330
1F
100
AcDbEntity
  8
0
100
AcDbCircle
 10
2131.407807601635
 20
364.7380259360413
 30
0.0
 40
22.0
100
AcDbArc
 50
239.7273586810801
 51
300.2726413189199
  0
ARC
  5
99C
330
1F
100
AcDbEntity
  8
0
100
AcDbCircle
 10
2131.407807601635
 20
364.7380259360413
 30
0.0
 40
22.5
100
AcDbArc
 50
237.6124614669043
 51
302.3875385330958
  0
ARC
  5
99D
330
1F
100
AcDbEntity
  8
0
100
AcDbCircle
 10
2131.407807601635
 20
364.7380259360413
 30
0.0
 40
22.0
100
AcDbArc
 50
312.9858860801832
 51
47.01411391981673
  0
ARC
  5
99E
330
1F
100
AcDbEntity
  8
0
100
AcDbCircle
 10
2131.407807601635
 20
364.7380259360413
 30
0.0
 40
22.0
100
AcDbArc
 50
59.72735868108006
 51
120.2726413189199
  0
ARC
  5
99F
330
1F
100
AcDbEntity
  8
0
100
AcDbCircle
 10
2131.407807601635
 20
364.7380259360413
 30
0.0
 40
22.5
100
AcDbArc
 50
311.8103148957701
 51
48.18968510422982
  0
ARC
  5
9A0
330
1F
100
AcDbEntity
  8
0
100
AcDbCircle
 10
2131.407807601635
 20
364.7380259360413
 30
0.0
 40
22.5
100
AcDbArc
 50
57.61246146690424
 51
122.3875385330957
  0
LINE
  5
9A1
330
1F
100
AcDbEntity
  8
0
100
AcDbLine
 10
2163.36614156439
 20
177.2730235218529
 30
0.0
 11
2099.36614156439
 21
177.2730235218529
 31
0.0
  0
LINE
  5
9A2
330
1F
100
AcDbEntity
  8
0
100
AcDbLine
 10
2163.36614156439
 20
159.2730235218529
 30
0.0
 11
2163.36614156439
 21
177.2730235218529
 31
0.0
  0
LINE
  5
9A3
330
1F
100
AcDbEntity
  8
0
100
AcDbLine
 10
2099.36614156439
 20
177.2730235218529
 30
0.0
 11
2099.36614156439
 21
159.2730235218529
 31
0.0
  0
LINE
  5
9B1
330
1F
100
AcDbEntity
  8
AM_7
  6
AM_ISO08W050x2
100
AcDbLine
 10
2086.407807601635
 20
364.7380259360413
 30
0.0
 11
2094.407807601635
 21
364.7380259360413
 31
0.0
1001
GENIUS_GENOREF_13
1005
9B5
  0
LINE
  5
9B2
330
1F
100
AcDbEntity
  8
AM_7
  6
AM_ISO08W050x2
100
AcDbLine
 10
2086.407807601635
 20
364.7380259360413
 30
0.0
 11
2086.407807601635
 21
372.7380259360412
 31
0.0
1001
GENIUS_GENOREF_13
1005
9B5
  0
LINE
  5
9B3
330
1F
100
AcDbEntity
  8
AM_7
  6
AM_ISO08W050x2
100
AcDbLine
 10
2086.407807601635
 20
364.7380259360413
 30
0.0
 11
2078.407807601635
 21
364.7380259360413
 31
0.0
1001
GENIUS_GENOREF_13
1005
9B5
  0
LINE
  5
9B4
330
1F
100
AcDbEntity
  8
AM_7
  6
AM_ISO08W050x2
100
AcDbLine
 10
2086.407807601635
 20
364.7380259360413
 30
0.0
 11
2086.407807601635
 21
356.7380259360413
 31
0.0
1001
GENIUS_GENOREF_13
1005
9B5
  0
POINT
  5
9B5
330
1F
100
AcDbEntity
  8
0
 60
     1
100
AcDbPoint
 10
0.0
 20
0.0
 30
0.0
1001
GENIUS_GENOENT_13
1002
{
1000
MYREF
1005
9B5
1002
}
1002
{
1000
GRP
1005
0
1002
}
1001
GENIUS_GENOBJ-N-CRS_13
1002
{
1000
OWNER
1000
GEN
1002
}
1001
GENIUS_GENOLIS_13
1002
{
1000
ENT
1005
9B4
1005
9B3
1005
9B2
1005
9B1
1002
}
1001
GENIUS_GENODEF_13
1002
{
1000
HIER
1070
    10
1002
}
1002
{
1000
MANEDIT
1070
     0
1002
}
1002
{
1000
NOSEL
1070
     0
1002
}
1002
{
1000
BEHIND
1070
     0
1002
}
1002
{
1000
OTHER
1070
     0
1002
}
1002
{
1000
REACTOR
1002
}
  0
LINE
  5
9D4
330
1F
100
AcDbEntity
  8
AM_7
100
AcDbLine
 10
2086.36614156439
 20
314.2730235218529
 30
0.0
 11
2086.36614156439
 21
291.2730235218529
 31
0.0
1001
GENIUS_GENOBJ-N-CEN_13
1002
{
1000
OWNER
1000
GEN
1002
}
1001
GENIUS_GENODEF_13
1002
{
1000
HIER
1070
     0
1002
}
1002
{
1000
MANEDIT
1070
     0
1002
}
1002
{
1000
NOSEL
1070
     0
1002
}
1002
{
1000
BEHIND
1070
     0
1002
}
1002
{
1000
OTHER
1070
     0
1002
}
1002
{
1000
REACTOR
1002
}
1001
GENIUS_GENCEN_19
1002
{
1040
2.0
1002
}
  0
CIRCLE
  5
9E4
330
1F
100
AcDbEntity
  8
0
100
AcDbCircle
 10
2115.593300565904
 20
171.2634899391702
 30
0.0
 40
4.75
  0
CIRCLE
  5
9E5
330
1F
100
AcDbEntity
  8
0
100
AcDbCircle
 10
2115.593300565904
 20
171.2634899391702
 30
0.0
 40
3.75
  0
LINE
  5
9F4
330
1F
100
AcDbEntity
  8
AM_7
  6
AM_ISO08W050x2
100
AcDbLine
 10
2115.593300565904
 20
171.2634899391702
 30
0.0
 11
2122.343300565904
 21
171.2634899391702
 31
0.0
1001
GENIUS_GENOREF_13
1005
9F8
  0
LINE
  5
9F5
330
1F
100
AcDbEntity
  8
AM_7
  6
AM_ISO08W050x2
100
AcDbLine
 10
2115.593300565904
 20
171.2634899391702
 30
0.0
 11
2115.593300565904
 21
178.0134899391702
 31
0.0
1001
GENIUS_GENOREF_13
1005
9F8
  0
LINE
  5
9F6
330
1F
100
AcDbEntity
  8
AM_7
  6
AM_ISO08W050x2
100
AcDbLine
 10
2115.593300565904
 20
171.2634899391702
 30
0.0
 11
2108.843300565903
 21
171.2634899391702
 31
0.0
1001
GENIUS_GENOREF_13
1005
9F8
  0
LINE
  5
9F7
330
1F
100
AcDbEntity
  8
AM_7
  6
AM_ISO08W050x2
100
AcDbLine
 10
2115.593300565904
 20
171.2634899391702
 30
0.0
 11
2115.593300565904
 21
164.5134899391702
 31
0.0
1001
GENIUS_GENOREF_13
1005
9F8
  0
POINT
  5
9F8
330
1F
100
AcDbEntity
  8
0
 60
     1
100
AcDbPoint
 10
0.0
 20
0.0
 30
0.0
1001
GENIUS_GENODEF_13
1002
{
1000
HIER
1070
    10
1002
}
1002
{
1000
MANEDIT
1070
     0
1002
}
1002
{
1000
NOSEL
1070
     0
1002
}
1002
{
1000
BEHIND
1070
     0
1002
}
1002
{
1000
OTHER
1070
     0
1002
}
1002
{
1000
REACTOR
1002
}
1001
GENIUS_GENOBJ-N-CRS_13
1002
{
1000
OWNER
1000
GEN
1002
}
1001
GENIUS_GENOENT_13
1002
{
1000
MYREF
1005
9F8
1002
}
1002
{
1000
GRP
1005
0
1002
}
1001
GENIUS_GENOLIS_13
1002
{
1000
ENT
1005
9F7
1005
9F6
1005
9F5
1005
9F4
1002
}
  0
LINE
  5
A07
330
1F
100
AcDbEntity
  8
AM_7
  6
AM_ISO08W050x2
100
AcDbLine
 10
2156.407807601635
 20
379.7380259360413
 30
0.0
 11
2161.657807601635
 21
379.7380259360413
 31
0.0
1001
GENIUS_GENOREF_13
1005
A0B
  0
LINE
  5
A08
330
1F
100
AcDbEntity
  8
AM_7
  6
AM_ISO08W050x2
100
AcDbLine
 10
2156.407807601635
 20
379.7380259360413
 30
0.0
 11
2156.407807601635
 21
384.9880259360412
 31
0.0
1001
GENIUS_GENOREF_13
1005
A0B
  0
LINE
  5
A09
330
1F
100
AcDbEntity
  8
AM_7
  6
AM_ISO08W050x2
100
AcDbLine
 10
2156.407807601635
 20
379.7380259360413
 30
0.0
 11
2151.157807601635
 21
379.7380259360413
 31
0.0
1001
GENIUS_GENOREF_13
1005
A0B
  0
LINE
  5
A0A
330
1F
100
AcDbEntity
  8
AM_7
  6
AM_ISO08W050x2
100
AcDbLine
 10
2156.407807601635
 20
379.7380259360413
 30
0.0
 11
2156.407807601635
 21
374.4880259360412
 31
0.0
1001
GENIUS_GENOREF_13
1005
A0B
  0
POINT
  5
A0B
330
1F
100
AcDbEntity
  8
0
 60
     1
100
AcDbPoint
 10
0.0
 20
0.0
 30
0.0
1001
GENIUS_GENOLIS_13
1002
{
1000
ENT
1005
A0A
1005
A09
1005
A08
1005
A07
1002
}
1001
GENIUS_GENOENT_13
1002
{
1000
MYREF
1005
A0B
1002
}
1002
{
1000
GRP
1005
0
1002
}
1001
GENIUS_GENOBJ-N-CRS_13
1002
{
1000
OWNER
1000
GEN
1002
}
1001
GENIUS_GENODEF_13
1002
{
1000
HIER
1070
    10
1002
}
1002
{
1000
MANEDIT
1070
     0
1002
}
1002
{
1000
NOSEL
1070
     0
1002
}
1002
{
1000
BEHIND
1070
     0
1002
}
1002
{
1000
OTHER
1070
     0
1002
}
1002
{
1000
REACTOR
1002
}
  0
LINE
  5
A19
330
1F
100
AcDbEntity
  8
AM_7
  6
AM_ISO08W050x2
100
AcDbLine
 10
2156.407807601635
 20
349.7380259360412
 30
0.0
 11
2161.657807601635
 21
349.7380259360412
 31
0.0
1001
GENIUS_GENOREF_13
1005
A1D
  0
LINE
  5
A1A
330
1F
100
AcDbEntity
  8
AM_7
  6
AM_ISO08W050x2
100
AcDbLine
 10
2156.407807601635
 20
349.7380259360412
 30
0.0
 11
2156.407807601635
 21
354.9880259360413
 31
0.0
1001
GENIUS_GENOREF_13
1005
A1D
  0
LINE
  5
A1B
330
1F
100
AcDbEntity
  8
AM_7
  6
AM_ISO08W050x2
100
AcDbLine
 10
2156.407807601635
 20
349.7380259360412
 30
0.0
 11
2151.157807601635
 21
349.7380259360412
 31
0.0
1001
GENIUS_GENOREF_13
1005
A1D
  0
LINE
  5
A1C
330
1F
100
AcDbEntity
  8
AM_7
  6
AM_ISO08W050x2
100
AcDbLine
 10
2156.407807601635
 20
349.7380259360412
 30
0.0
 11
2156.407807601635
 21
344.4880259360413
 31
0.0
1001
GENIUS_GENOREF_13
1005
A1D
  0
POINT
  5
A1D
330
1F
100
AcDbEntity
  8
0
 60
     1
100
AcDbPoint
 10
0.0
 20
0.0
 30
0.0
1001
GENIUS_GENOENT_13
1002
{
1000
MYREF
1005
A1D
1002
}
1002
{
1000
GRP
1005
0
1002
}
1001
GENIUS_GENOBJ-N-CRS_13
1002
{
1000
OWNER
1000
GEN
1002
}
1001
GENIUS_GENOLIS_13
1002
{
1000
ENT
1005
A1C
1005
A1B
1005
A1A
1005
A19
1002
}
1001
GENIUS_GENODEF_13
1002
{
1000
HIER
1070
    10
1002
}
1002
{
1000
MANEDIT
1070
     0
1002
}
1002
{
1000
NOSEL
1070
     0
1002
}
1002
{
1000
BEHIND
1070
     0
1002
}
1002
{
1000
OTHER
1070
     0
1002
}
1002
{
1000
REACTOR
1002
}
  0
LINE
  5
A88
330
1F
100
AcDbEntity
  8
0
100
AcDbLine
 10
2453.476583508879
 20
741.4211251270351
 30
0.0
 11
2515.476583508879
 21
741.4211251270351
 31
0.0
  0
LINE
  5
A89
330
1F
100
AcDbEntity
  8
0
100
AcDbLine
 10
2453.476583508879
 20
687.4211251270351
 30
0.0
 11
2515.476583508879
 21
687.4211251270351
 31
0.0
  0
LINE
  5
A8A
330
1F
100
AcDbEntity
  8
0
100
AcDbLine
 10
2518.476583508878
 20
690.4211251270351
 30
0.0
 11
2518.476583508878
 21
738.421125127035
 31
0.0
  0
LINE
  5
A8B
330
1F
100
AcDbEntity
  8
0
100
AcDbLine
 10
2450.476583508879
 20
690.4211251270351
 30
0.0
 11
2453.476583508879
 21
687.4211251270351
 31
0.0
  0
LINE
  5
A8C
330
1F
100
AcDbEntity
  8
0
100
AcDbLine
 10
2515.476583508879
 20
687.4211251270351
 30
0.0
 11
2518.476583508878
 21
690.4211251270351
 31
0.0
  0
LINE
  5
A8D
330
1F
100
AcDbEntity
  8
0
100
AcDbLine
 10
2518.476583508878
 20
738.421125127035
 30
0.0
 11
2515.476583508879
 21
741.4211251270351
 31
0.0
  0
LINE
  5
A8E
330
1F
100
AcDbEntity
  8
0
100
AcDbLine
 10
2453.476583508879
 20
741.4211251270351
 30
0.0
 11
2450.476583508879
 21
738.421125127035
 31
0.0
  0
LINE
  5
A8F
330
1F
100
AcDbEntity
  8
0
100
AcDbLine
 10
2451.476583508878
 20
508.9561227128467
 30
0.0
 11
2517.476583508879
 21
508.9561227128467
 31
0.0
  0
LINE
  5
A91
330
1F
100
AcDbEntity
  8
0
100
AcDbLine
 10
2518.476583508878
 20
525.9561227128467
 30
0.0
 11
2518.476583508878
 21
509.9561227128467
 31
0.0
  0
LINE
  5
A92
330
1F
100
AcDbEntity
  8
0
100
AcDbLine
 10
2450.476583508879
 20
525.9561227128467
 30
0.0
 11
2450.476583508879
 21
509.9561227128467
 31
0.0
  0
LINE
  5
A93
330
1F
100
AcDbEntity
  8
0
100
AcDbLine
 10
2509.476583508878
 20
577.9561227128467
 30
0.0
 11
2509.476583508878
 21
528.9561227128467
 31
0.0
  0
LINE
  5
A94
330
1F
100
AcDbEntity
  8
0
100
AcDbLine
 10
2459.476583508878
 20
577.9561227128467
 30
0.0
 11
2459.476583508878
 21
528.9561227128467
 31
0.0
  0
LINE
  5
A95
330
1F
100
AcDbEntity
  8
0
100
AcDbLine
 10
2473.184316946741
 20
659.7561227128466
 30
0.0
 11
2495.768850071016
 21
659.7561227128466
 31
0.0
  0
LINE
  5
A96
330
1F
100
AcDbEntity
  8
0
100
AcDbLine
 10
2508.476583508878
 20
603.9561227128467
 30
0.0
 11
2508.476583508878
 21
526.9561227128467
 31
0.0
  0
LINE
  5
A97
330
1F
100
AcDbEntity
  8
0
100
AcDbLine
 10
2460.476583508878
 20
603.9561227128467
 30
0.0
 11
2460.476583508878
 21
526.9561227128467
 31
0.0
  0
LINE
  5
A98
330
1F
100
AcDbEntity
  8
0
100
AcDbLine
 10
2508.476583508878
 20
603.9561227128467
 30
0.0
 11
2506.476583508879
 21
605.9561227128467
 31
0.0
  0
LINE
  5
A99
330
1F
100
AcDbEntity
  8
0
100
AcDbLine
 10
2462.476583508879
 20
605.9561227128467
 30
0.0
 11
2460.476583508878
 21
603.9561227128467
 31
0.0
  0
LINE
  5
A9A
330
1F
100
AcDbEntity
  8
0
100
AcDbLine
 10
2460.476583508878
 20
578.9561227128467
 30
0.0
 11
2508.476583508878
 21
578.9561227128467
 31
0.0
  0
LINE
  5
A9B
330
1F
100
AcDbEntity
  8
0
100
AcDbLine
 10
2509.476583508878
 20
577.9561227128467
 30
0.0
 11
2508.476583508878
 21
578.9561227128467
 31
0.0
  0
LINE
  5
A9C
330
1F
100
AcDbEntity
  8
0
100
AcDbLine
 10
2518.476583508878
 20
509.9561227128467
 30
0.0
 11
2517.476583508879
 21
508.9561227128467
 31
0.0
  0
LINE
  5
A9D
330
1F
100
AcDbEntity
  8
0
100
AcDbLine
 10
2451.476583508878
 20
508.9561227128467
 30
0.0
 11
2450.476583508879
 21
509.9561227128467
 31
0.0
  0
LINE
  5
A9E
330
1F
100
AcDbEntity
  8
0
100
AcDbLine
 10
2424.476583508879
 20
653.9561227128467
 30
0.0
 11
2424.476583508879
 21
636.9561227128468
 31
0.0
  0
LINE
  5
A9F
330
1F
100
AcDbEntity
  8
0
100
AcDbLine
 10
2502.476583508878
 20
653.9561227128467
 30
0.0
 11
2502.476583508878
 21
636.9561227128468
 31
0.0
  0
LINE
  5
AA0
330
1F
100
AcDbEntity
  8
0
100
AcDbLine
 10
2501.476583508879
 20
635.9561227128467
 30
0.0
 11
2502.476583508878
 21
636.9561227128468
 31
0.0
  0
LINE
  5
AA1
330
1F
100
AcDbEntity
  8
0
100
AcDbLine
 10
2502.476583508878
 20
653.9561227128467
 30
0.0
 11
2501.476583508879
 21
654.9561227128467
 31
0.0
  0
LINE
  5
AA3
330
1F
100
AcDbEntity
  8
0
  6
HIDDEN
 62
     3
 48
0.5
100
AcDbLine
 10
2440.476583508879
 20
635.9561227128467
 30
0.0
 11
2440.476583508879
 21
654.9561227128467
 31
0.0
  0
LINE
  5
AA4
330
1F
100
AcDbEntity
  8
0
  6
HIDDEN
 62
     3
 48
0.5
100
AcDbLine
 10
2428.476583508878
 20
635.9561227128467
 30
0.0
 11
2428.476583508878
 21
654.9561227128467
 31
0.0
  0
LINE
  5
AA5
330
1F
100
AcDbEntity
  8
0
  6
HIDDEN
 62
     3
 48
0.5
100
AcDbLine
 10
2439.476583508878
 20
635.9561227128467
 30
0.0
 11
2439.476583508878
 21
654.9561227128467
 31
0.0
  0
LINE
  5
AA6
330
1F
100
AcDbEntity
  8
0
  6
HIDDEN
 62
     3
 48
0.5
100
AcDbLine
 10
2429.476583508879
 20
635.9561227128467
 30
0.0
 11
2429.476583508878
 21
654.9561227128467
 31
0.0
  0
LINE
  5
AA7
330
1F
100
AcDbEntity
  8
0
100
AcDbLine
 10
2491.866666954506
 20
658.9561227128467
 30
0.0
 11
2491.866666954506
 21
654.9561227128467
 31
0.0
  0
LINE
  5
AA8
330
1F
100
AcDbEntity
  8
0
100
AcDbLine
 10
2499.256750400133
 20
658.9561227128467
 30
0.0
 11
2499.256750400133
 21
654.9561227128467
 31
0.0
  0
LINE
  5
AA9
330
1F
100
AcDbEntity
  8
0
100
AcDbLine
 10
2477.086500063251
 20
658.9561227128467
 30
0.0
 11
2477.086500063251
 21
654.9561227128467
 31
0.0
  0
LINE
  5
AAA
330
1F
100
AcDbEntity
  8
0
100
AcDbLine
 10
2469.696416617624
 20
658.9561227128467
 30
0.0
 11
2469.696416617624
 21
654.9561227128467
 31
0.0
  0
ARC
  5
AAB
330
1F
100
AcDbEntity
  8
0
100
AcDbCircle
 10
2484.476583508878
 20
625.2227893795134
 30
0.0
 40
34.53333333333334
100
AcDbArc
 50
77.64321860963161
 51
102.3567813903684
  0
ARC
  5
AAC
330
1F
100
AcDbEntity
  8
0
100
AcDbCircle
 10
2473.391458340438
 20
650.8496066026275
 30
0.0
 40
8.908924557912527
100
AcDbArc
 50
65.49596495353821
 51
114.5040350464618
  0
ARC
  5
AAD
330
1F
100
AcDbEntity
  8
0
100
AcDbCircle
 10
2495.56170867732
 20
650.8496066026275
 30
0.0
 40
8.908924557912527
100
AcDbArc
 50
65.49596495353821
 51
114.5040350464618
  0
LINE
  5
AAE
330
1F
100
AcDbEntity
  8
CENTER
100
AcDbLine
 10
2484.476583508878
 20
599.9040959736435
 30
0.0
 11
2484.476583508878
 21
581.4302781764038
 31
0.0
  0
CIRCLE
  5
AB1
330
1F
100
AcDbEntity
  8
0
100
AcDbCircle
 10
2484.476583508878
 20
714.4211251270351
 30
0.0
 40
9.0
  0
LINE
  5
AB2
330
1F
100
AcDbEntity
  8
0
100
AcDbLine
 10
2502.476583508878
 20
714.4211251270351
 30
0.0
 11
2502.476583508878
 21
732.4211251270351
 31
0.0
  0
LINE
  5
AB3
330
1F
100
AcDbEntity
  8
0
100
AcDbLine
 10
2502.476583508878
 20
714.4211251270351
 30
0.0
 11
2502.476583508878
 21
696.421125127035
 31
0.0
  0
LINE
  5
AB4
330
1F
100
AcDbEntity
  8
0
100
AcDbLine
 10
2501.476583508879
 20
695.4211251270351
 30
0.0
 11
2444.476583508878
 21
695.4211251270351
 31
0.0
  0
LINE
  5
AB5
330
1F
100
AcDbEntity
  8
0
100
AcDbLine
 10
2424.476583508879
 20
702.4211251270351
 30
0.0
 11
2424.476583508879
 21
726.4211251270351
 31
0.0
  0
LINE
  5
AB6
330
1F
100
AcDbEntity
  8
0
100
AcDbLine
 10
2444.476583508879
 20
733.4211251270351
 30
0.0
 11
2501.476583508879
 21
733.4211251270351
 31
0.0
  0
CIRCLE
  5
AB7
330
1F
100
AcDbEntity
  8
0
100
AcDbCircle
 10
2434.476583508879
 20
714.4211251270351
 30
0.0
 40
6.0
  0
LINE
  5
AB8
330
1F
100
AcDbEntity
  8
0
100
AcDbLine
 10
2424.476583508879
 20
726.4211251270351
 30
0.0
 11
2444.476583508879
 21
733.4211251270351
 31
0.0
  0
LINE
  5
AB9
330
1F
100
AcDbEntity
  8
0
100
AcDbLine
 10
2424.476583508879
 20
702.4211251270351
 30
0.0
 11
2444.476583508878
 21
695.4211251270351
 31
0.0
  0
CIRCLE
  5
ABA
330
1F
100
AcDbEntity
  8
0
100
AcDbCircle
 10
2434.476583508879
 20
714.4211251270351
 30
0.0
 40
5.0
  0
CIRCLE
  5
ABB
330
1F
100
AcDbEntity
  8
0
100
AcDbCircle
 10
2484.476583508878
 20
714.4211251270351
 30
0.0
 40
8.0
  0
POLYLINE
  5
ABC
330
1F
100
AcDbEntity
  8
0
100
AcDb2dPolyline
 66
     1
 10
0.0
 20
0.0
 30
0.0
 70
     1
  0
VERTEX
  5
ABD
330
ABC
100
AcDbEntity
  8
0
100
AcDbVertex
100
AcDb2dVertex
 10
2470.32775991635
 20
714.4211251270351
 30
0.0
  0
VERTEX
  5
ABE
330
ABC
100
AcDbEntity
  8
0
100
AcDbVertex
100
AcDb2dVertex
 10
2477.402171712614
 20
702.1678844622406
 30
0.0
  0
VERTEX
  5
ABF
330
ABC
100
AcDbEntity
  8
0
100
AcDbVertex
100
AcDb2dVertex
 10
2491.550995305143
 20
702.1678844622406
 30
0.0
  0
VERTEX
  5
AC0
330
ABC
100
AcDbEntity
  8
0
100
AcDbVertex
100
AcDb2dVertex
 10
2498.625407101407
 20
714.4211251270351
 30
0.0
  0
VERTEX
  5
AC1
330
ABC
100
AcDbEntity
  8
0
100
AcDbVertex
100
AcDb2dVertex
 10
2491.550995305143
 20
726.6743657918295
 30
0.0
  0
VERTEX
  5
AC2
330
ABC
100
AcDbEntity
  8
0
100
AcDbVertex
100
AcDb2dVertex
 10
2477.402171712614
 20
726.6743657918295
 30
0.0
  0
SEQEND
  5
AC3
330
ABC
100
AcDbEntity
  8
0
  0
CIRCLE
  5
AC6
330
1F
100
AcDbEntity
  8
0
  6
Continuous
100
AcDbCircle
 10
2511.476583508879
 20
731.4211251270351
 30
0.0
 40
4.25
  0
CIRCLE
  5
AC7
330
1F
100
AcDbEntity
  8
0
  6
Continuous
100
AcDbCircle
 10
2511.476583508879
 20
697.4211251270351
 30
0.0
 40
4.25
  0
ARC
  5
AC8
330
1F
100
AcDbEntity
  8
0
  6
Continuous
100
AcDbCircle
 10
2457.476583508878
 20
731.4211251270351
 30
0.0
 40
4.25
100
AcDbArc
 50
28.07248693585142
 51
151.9275130641486
  0
LINE
  5
AC9
330
1F
100
AcDbEntity
  8
0
100
AcDbLine
 10
2450.476583508879
 20
733.4211251270351
 30
0.0
 11
2450.476583508879
 21
738.421125127035
 31
0.0
  0
LINE
  5
ACA
330
1F
100
AcDbEntity
  8
0
100
AcDbLine
 10
2450.476583508879
 20
690.4211251270351
 30
0.0
 11
2450.476583508879
 21
695.4211251270351
 31
0.0
  0
LINE
  5
ACB
330
1F
100
AcDbEntity
  8
0
100
AcDbLine
 10
2501.476583508879
 20
733.4211251270351
 30
0.0
 11
2502.476583508878
 21
732.4211251270351
 31
0.0
  0
LINE
  5
ACC
330
1F
100
AcDbEntity
  8
0
100
AcDbLine
 10
2502.476583508878
 20
696.421125127035
 30
0.0
 11
2501.476583508879
 21
695.4211251270351
 31
0.0
  0
ARC
  5
ACD
330
1F
100
AcDbEntity
  8
0
  6
Continuous
100
AcDbCircle
 10
2457.476583508878
 20
697.4211251270351
 30
0.0
 40
4.25
100
AcDbArc
 50
208.0724869358514
 51
331.9275130641486
  0
ARC
  5
ACE
330
1F
100
AcDbEntity
  8
0
100
AcDbCircle
 10
2484.476583508878
 20
714.4211251270351
 30
0.0
 40
25.0
100
AcDbArc
 50
229.4641978886903
 51
130.5358021113097
  0
LINE
  5
ACF
330
1F
100
AcDbEntity
  8
0
100
AcDbLine
 10
2495.476583508879
 20
635.9561227128467
 30
0.0
 11
2495.476583508879
 21
605.9561227128467
 31
0.0
  0
LINE
  5
AD0
330
1F
100
AcDbEntity
  8
0
100
AcDbLine
 10
2473.476583508878
 20
635.9561227128467
 30
0.0
 11
2473.476583508878
 21
605.9561227128467
 31
0.0
  0
LINE
  5
AD1
330
1F
100
AcDbEntity
  8
0
100
AcDbLine
 10
2460.476583508878
 20
578.9561227128467
 30
0.0
 11
2459.476583508878
 21
577.9561227128467
 31
0.0
  0
LINE
  5
AD2
330
1F
100
AcDbEntity
  8
0
100
AcDbLine
 10
2508.476583508878
 20
578.9561227128467
 30
0.0
 11
2509.476583508878
 21
577.9561227128467
 31
0.0
  0
LINE
  5
AD4
330
1F
100
AcDbEntity
  8
0
100
AcDbLine
 10
2462.476583508879
 20
605.9561227128467
 30
0.0
 11
2506.476583508879
 21
605.9561227128467
 31
0.0
  0
LINE
  5
AD5
330
1F
100
AcDbEntity
  8
0
100
AcDbLine
 10
2424.476583508879
 20
653.9561227128467
 30
0.0
 11
2425.476583508878
 21
654.9561227128467
 31
0.0
  0
LINE
  5
AD6
330
1F
100
AcDbEntity
  8
0
100
AcDbLine
 10
2424.476583508879
 20
636.9561227128468
 30
0.0
 11
2425.476583508879
 21
635.9561227128467
 31
0.0
  0
LINE
  5
AD7
330
1F
100
AcDbEntity
  8
0
100
AcDbLine
 10
2425.476583508878
 20
654.9561227128467
 30
0.0
 11
2501.476583508879
 21
654.9561227128467
 31
0.0
  0
LINE
  5
AD8
330
1F
100
AcDbEntity
  8
0
100
AcDbLine
 10
2425.476583508879
 20
635.9561227128467
 30
0.0
 11
2501.476583508879
 21
635.9561227128467
 31
0.0
  0
LINE
  5
AD9
330
1F
100
AcDbEntity
  8
0
  6
Continuous
100
AcDbLine
 10
2444.483872184211
 20
654.9561227128467
 30
0.0
 11
2444.483872184211
 21
635.9561227128467
 31
0.0
  0
LINE
  5
ADA
330
1F
100
AcDbEntity
  8
0
100
AcDbLine
 10
2451.476583508878
 20
526.9561227128467
 30
0.0
 11
2517.476583508879
 21
526.9561227128467
 31
0.0
  0
LINE
  5
ADB
330
1F
100
AcDbEntity
  8
0
100
AcDbLine
 10
2460.476583508878
 20
527.9561227128467
 30
0.0
 11
2508.476583508878
 21
527.9561227128467
 31
0.0
  0
LINE
  5
ADC
330
1F
100
AcDbEntity
  8
0
100
AcDbLine
 10
2508.476583508878
 20
527.9561227128467
 30
0.0
 11
2509.476583508878
 21
528.9561227128467
 31
0.0
  0
LINE
  5
ADD
330
1F
100
AcDbEntity
  8
0
100
AcDbLine
 10
2459.476583508878
 20
528.9561227128467
 30
0.0
 11
2460.476583508878
 21
527.9561227128467
 31
0.0
  0
LINE
  5
ADE
330
1F
100
AcDbEntity
  8
0
100
AcDbLine
 10
2451.476583508878
 20
526.9561227128467
 30
0.0
 11
2450.476583508879
 21
525.9561227128467
 31
0.0
  0
LINE
  5
ADF
330
1F
100
AcDbEntity
  8
0
100
AcDbLine
 10
2517.476583508879
 20
526.9561227128467
 30
0.0
 11
2518.476583508878
 21
525.9561227128467
 31
0.0
  0
LINE
  5
B24
330
1F
100
AcDbEntity
  8
AM_7
  6
AM_ISO08W050x2
100
AcDbLine
 10
2434.476583508879
 20
714.4211251270351
 30
0.0
 11
2442.476583508879
 21
714.4211251270351
 31
0.0
1001
GENIUS_GENOREF_13
1005
B28
  0
LINE
  5
B25
330
1F
100
AcDbEntity
  8
AM_7
  6
AM_ISO08W050x2
100
AcDbLine
 10
2434.476583508879
 20
714.4211251270351
 30
0.0
 11
2434.476583508879
 21
722.4211251270351
 31
0.0
1001
GENIUS_GENOREF_13
1005
B28
  0
LINE
  5
B26
330
1F
100
AcDbEntity
  8
AM_7
  6
AM_ISO08W050x2
100
AcDbLine
 10
2434.476583508879
 20
714.4211251270351
 30
0.0
 11
2426.476583508879
 21
714.4211251270351
 31
0.0
1001
GENIUS_GENOREF_13
1005
B28
  0
LINE
  5
B27
330
1F
100
AcDbEntity
  8
AM_7
  6
AM_ISO08W050x2
100
AcDbLine
 10
2434.476583508879
 20
714.4211251270351
 30
0.0
 11
2434.476583508879
 21
706.4211251270351
 31
0.0
1001
GENIUS_GENOREF_13
1005
B28
  0
POINT
  5
B28
330
1F
100
AcDbEntity
  8
0
 60
     1
100
AcDbPoint
 10
0.0
 20
0.0
 30
0.0
1001
GENIUS_GENOLIS_13
1002
{
1000
ENT
1005
B27
1005
B26
1005
B25
1005
B24
1002
}
1001
GENIUS_GENOBJ-N-CRS_13
1002
{
1000
OWNER
1000
GEN
1002
}
1001
GENIUS_GENODEF_13
1002
{
1000
HIER
1070
    10
1002
}
1002
{
1000
MANEDIT
1070
     0
1002
}
1002
{
1000
NOSEL
1070
     0
1002
}
1002
{
1000
BEHIND
1070
     0
1002
}
1002
{
1000
OTHER
1070
     0
1002
}
1002
{
1000
REACTOR
1002
}
1001
GENIUS_GENOENT_13
1002
{
1000
MYREF
1005
B28
1002
}
1002
{
1000
GRP
1005
0
1002
}
  0
LINE
  5
B48
330
1F
100
AcDbEntity
  8
AM_7
  6
AM_ISO08W050x2
100
AcDbLine
 10
2511.476583508879
 20
697.4211251270351
 30
0.0
 11
2517.726583508878
 21
697.4211251270351
 31
0.0
1001
GENIUS_GENOREF_13
1005
B4C
  0
LINE
  5
B49
330
1F
100
AcDbEntity
  8
AM_7
  6
AM_ISO08W050x2
100
AcDbLine
 10
2511.476583508879
 20
697.4211251270351
 30
0.0
 11
2511.476583508879
 21
703.6711251270351
 31
0.0
1001
GENIUS_GENOREF_13
1005
B4C
  0
LINE
  5
B4A
330
1F
100
AcDbEntity
  8
AM_7
  6
AM_ISO08W050x2
100
AcDbLine
 10
2511.476583508879
 20
697.4211251270351
 30
0.0
 11
2505.226583508878
 21
697.4211251270351
 31
0.0
1001
GENIUS_GENOREF_13
1005
B4C
  0
LINE
  5
B4B
330
1F
100
AcDbEntity
  8
AM_7
  6
AM_ISO08W050x2
100
AcDbLine
 10
2511.476583508879
 20
697.4211251270351
 30
0.0
 11
2511.476583508879
 21
691.1711251270351
 31
0.0
1001
GENIUS_GENOREF_13
1005
B4C
  0
POINT
  5
B4C
330
1F
100
AcDbEntity
  8
0
 60
     1
100
AcDbPoint
 10
0.0
 20
0.0
 30
0.0
1001
GENIUS_GENODEF_13
1002
{
1000
HIER
1070
    10
1002
}
1002
{
1000
MANEDIT
1070
     0
1002
}
1002
{
1000
NOSEL
1070
     0
1002
}
1002
{
1000
BEHIND
1070
     0
1002
}
1002
{
1000
OTHER
1070
     0
1002
}
1002
{
1000
REACTOR
1002
}
1001
GENIUS_GENOLIS_13
1002
{
1000
ENT
1005
B4B
1005
B4A
1005
B49
1005
B48
1002
}
1001
GENIUS_GENOENT_13
1002
{
1000
MYREF
1005
B4C
1002
}
1002
{
1000
GRP
1005
0
1002
}
1001
GENIUS_GENOBJ-N-CRS_13
1002
{
1000
OWNER
1000
GEN
1002
}
  0
LINE
  5
B5A
330
1F
100
AcDbEntity
  8
AM_7
  6
AM_ISO08W050x2
100
AcDbLine
 10
2511.476583508879
 20
731.4211251270351
 30
0.0
 11
2517.726583508878
 21
731.4211251270351
 31
0.0
1001
GENIUS_GENOREF_13
1005
B5E
  0
LINE
  5
B5B
330
1F
100
AcDbEntity
  8
AM_7
  6
AM_ISO08W050x2
100
AcDbLine
 10
2511.476583508879
 20
731.4211251270351
 30
0.0
 11
2511.476583508879
 21
737.6711251270351
 31
0.0
1001
GENIUS_GENOREF_13
1005
B5E
  0
LINE
  5
B5C
330
1F
100
AcDbEntity
  8
AM_7
  6
AM_ISO08W050x2
100
AcDbLine
 10
2511.476583508879
 20
731.4211251270351
 30
0.0
 11
2505.226583508878
 21
731.4211251270351
 31
0.0
1001
GENIUS_GENOREF_13
1005
B5E
  0
LINE
  5
B5D
330
1F
100
AcDbEntity
  8
AM_7
  6
AM_ISO08W050x2
100
AcDbLine
 10
2511.476583508879
 20
731.4211251270351
 30
0.0
 11
2511.476583508879
 21
725.1711251270351
 31
0.0
1001
GENIUS_GENOREF_13
1005
B5E
  0
POINT
  5
B5E
330
1F
100
AcDbEntity
  8
0
 60
     1
100
AcDbPoint
 10
0.0
 20
0.0
 30
0.0
1001
GENIUS_GENOENT_13
1002
{
1000
MYREF
1005
B5E
1002
}
1002
{
1000
GRP
1005
0
1002
}
1001
GENIUS_GENOBJ-N-CRS_13
1002
{
1000
OWNER
1000
GEN
1002
}
1001
GENIUS_GENODEF_13
1002
{
1000
HIER
1070
    10
1002
}
1002
{
1000
MANEDIT
1070
     0
1002
}
1002
{
1000
NOSEL
1070
     0
1002
}
1002
{
1000
BEHIND
1070
     0
1002
}
1002
{
1000
OTHER
1070
     0
1002
}
1002
{
1000
REACTOR
1002
}
1001
GENIUS_GENOLIS_13
1002
{
1000
ENT
1005
B5D
1005
B5C
1005
B5B
1005
B5A
1002
}
  0
LINE
  5
B6C
330
1F
100
AcDbEntity
  8
AM_7
  6
AM_ISO08W050x2
100
AcDbLine
 10
2457.476583508878
 20
731.4211251270351
 30
0.0
 11
2463.726583508878
 21
731.4211251270351
 31
0.0
1001
GENIUS_GENOREF_13
1005
B70
  0
LINE
  5
B6D
330
1F
100
AcDbEntity
  8
AM_7
  6
AM_ISO08W050x2
100
AcDbLine
 10
2457.476583508878
 20
731.4211251270351
 30
0.0
 11
2457.476583508878
 21
737.6711251270351
 31
0.0
1001
GENIUS_GENOREF_13
1005
B70
  0
LINE
  5
B6E
330
1F
100
AcDbEntity
  8
AM_7
  6
AM_ISO08W050x2
100
AcDbLine
 10
2457.476583508878
 20
731.4211251270351
 30
0.0
 11
2451.226583508879
 21
731.4211251270351
 31
0.0
1001
GENIUS_GENOREF_13
1005
B70
  0
LINE
  5
B6F
330
1F
100
AcDbEntity
  8
AM_7
  6
AM_ISO08W050x2
100
AcDbLine
 10
2457.476583508878
 20
731.4211251270351
 30
0.0
 11
2457.476583508878
 21
725.1711251270351
 31
0.0
1001
GENIUS_GENOREF_13
1005
B70
  0
POINT
  5
B70
330
1F
100
AcDbEntity
  8
0
 60
     1
100
AcDbPoint
 10
0.0
 20
0.0
 30
0.0
1001
GENIUS_GENOBJ-N-CRS_13
1002
{
1000
OWNER
1000
GEN
1002
}
1001
GENIUS_GENODEF_13
1002
{
1000
HIER
1070
    10
1002
}
1002
{
1000
MANEDIT
1070
     0
1002
}
1002
{
1000
NOSEL
1070
     0
1002
}
1002
{
1000
BEHIND
1070
     0
1002
}
1002
{
1000
OTHER
1070
     0
1002
}
1002
{
1000
REACTOR
1002
}
1001
GENIUS_GENOLIS_13
1002
{
1000
ENT
1005
B6F
1005
B6E
1005
B6D
1005
B6C
1002
}
1001
GENIUS_GENOENT_13
1002
{
1000
MYREF
1005
B70
1002
}
1002
{
1000
GRP
1005
0
1002
}
  0
LINE
  5
B7E
330
1F
100
AcDbEntity
  8
AM_7
  6
AM_ISO08W050x2
100
AcDbLine
 10
2457.476583508878
 20
697.4211251270351
 30
0.0
 11
2463.726583508878
 21
697.4211251270351
 31
0.0
1001
GENIUS_GENOREF_13
1005
B82
  0
LINE
  5
B7F
330
1F
100
AcDbEntity
  8
AM_7
  6
AM_ISO08W050x2
100
AcDbLine
 10
2457.476583508878
 20
697.4211251270351
 30
0.0
 11
2457.476583508878
 21
703.6711251270351
 31
0.0
1001
GENIUS_GENOREF_13
1005
B82
  0
LINE
  5
B80
330
1F
100
AcDbEntity
  8
AM_7
  6
AM_ISO08W050x2
100
AcDbLine
 10
2457.476583508878
 20
697.4211251270351
 30
0.0
 11
2451.226583508879
 21
697.4211251270351
 31
0.0
1001
GENIUS_GENOREF_13
1005
B82
  0
LINE
  5
B81
330
1F
100
AcDbEntity
  8
AM_7
  6
AM_ISO08W050x2
100
AcDbLine
 10
2457.476583508878
 20
697.4211251270351
 30
0.0
 11
2457.476583508878
 21
691.1711251270351
 31
0.0
1001
GENIUS_GENOREF_13
1005
B82
  0
POINT
  5
B82
330
1F
100
AcDbEntity
  8
0
 60
     1
100
AcDbPoint
 10
0.0
 20
0.0
 30
0.0
1001
GENIUS_GENOENT_13
1002
{
1000
MYREF
1005
B82
1002
}
1002
{
1000
GRP
1005
0
1002
}
1001
GENIUS_GENOLIS_13
1002
{
1000
ENT
1005
B81
1005
B80
1005
B7F
1005
B7E
1002
}
1001
GENIUS_GENODEF_13
1002
{
1000
HIER
1070
    10
1002
}
1002
{
1000
MANEDIT
1070
     0
1002
}
1002
{
1000
NOSEL
1070
     0
1002
}
1002
{
1000
BEHIND
1070
     0
1002
}
1002
{
1000
OTHER
1070
     0
1002
}
1002
{
1000
REACTOR
1002
}
1001
GENIUS_GENOBJ-N-CRS_13
1002
{
1000
OWNER
1000
GEN
1002
}
  0
LINE
  5
B8F
330
1F
100
AcDbEntity
  8
AM_7
100
AcDbLine
 10
2434.476583508879
 20
656.9561227128467
 30
0.0
 11
2434.476583508879
 21
633.9561227128467
 31
0.0
1001
GENIUS_GENODEF_13
1002
{
1000
HIER
1070
     0
1002
}
1002
{
1000
MANEDIT
1070
     0
1002
}
1002
{
1000
NOSEL
1070
     0
1002
}
1002
{
1000
BEHIND
1070
     0
1002
}
1002
{
1000
OTHER
1070
     0
1002
}
1002
{
1000
REACTOR
1002
}
1001
GENIUS_GENOBJ-N-CEN_13
1002
{
1000
OWNER
1000
GEN
1002
}
1001
GENIUS_GENCEN_19
1002
{
1040
2.0
1002
}
  0
LINE
  5
B9C
330
1F
100
AcDbEntity
  8
AM_7
100
AcDbLine
 10
2484.476583508878
 20
661.7561227128467
 30
0.0
 11
2484.476583508878
 21
506.9561227128467
 31
0.0
1001
GENIUS_GENODEF_13
1002
{
1000
HIER
1070
     0
1002
}
1002
{
1000
MANEDIT
1070
     0
1002
}
1002
{
1000
NOSEL
1070
     0
1002
}
1002
{
1000
BEHIND
1070
     0
1002
}
1002
{
1000
OTHER
1070
     0
1002
}
1002
{
1000
REACTOR
1002
}
1001
GENIUS_GENOBJ-N-CEN_13
1002
{
1000
OWNER
1000
GEN
1002
}
1001
GENIUS_GENCEN_19
1002
{
1040
2.0
1002
}
  0
LINE
  5
B9D
330
1F
100
AcDbEntity
  8
0
  6
HIDDEN
 62
     3
 48
0.5
100
AcDbLine
 10
2152.231160684956
 20
174.5711287750711
 30
0.0
 11
2163.187176618892
 21
174.5711287750711
 31
0.0
  0
LINE
  5
B9E
330
1F
100
AcDbEntity
  8
0
  6
HIDDEN
 62
     3
 48
0.5
100
AcDbLine
 10
2152.708411231781
 20
165.0711287750711
 30
0.0
 11
2163.187176618892
 21
165.0711287750711
 31
0.0
  0
LINE
  5
B9F
330
1F
100
AcDbEntity
  8
0
  6
HIDDEN
 62
     3
 48
0.5
100
AcDbLine
 10
2152.708411231781
 20
166.0711287750711
 30
0.0
 11
2163.187176618892
 21
166.0711287750711
 31
0.0
  0
LINE
  5
BA0
330
1F
100
AcDbEntity
  8
0
  6
HIDDEN
 62
     3
 48
0.5
100
AcDbLine
 10
2152.231160684956
 20
173.5711287750711
 30
0.0
 11
2163.187176618892
 21
173.5711287750711
 31
0.0
  0
LINE
  5
BA1
330
1F
100
AcDbEntity
  8
0
  6
HIDDEN
 62
     3
 48
0.5
100
AcDbLine
 10
2152.33875859692
 20
524.2341158341345
 30
0.0
 11
2163.294774530855
 21
524.2341158341345
 31
0.0
  0
LINE
  5
BA2
330
1F
100
AcDbEntity
  8
0
  6
HIDDEN
 62
     3
 48
0.5
100
AcDbLine
 10
2152.816009143745
 20
514.7341158341346
 30
0.0
 11
2163.294774530855
 21
514.7341158341346
 31
0.0
  0
LINE
  5
BA3
330
1F
100
AcDbEntity
  8
0
  6
HIDDEN
 62
     3
 48
0.5
100
AcDbLine
 10
2152.816009143745
 20
515.7341158341345
 30
0.0
 11
2163.294774530855
 21
515.7341158341345
 31
0.0
  0
LINE
  5
BA4
330
1F
100
AcDbEntity
  8
0
  6
HIDDEN
 62
     3
 48
0.5
100
AcDbLine
 10
2152.33875859692
 20
523.2341158341346
 30
0.0
 11
2163.294774530855
 21
523.2341158341346
 31
0.0
  0
LINE
  5
BA5
330
1F
100
AcDbEntity
  8
0
  6
HIDDEN
 62
     3
 48
0.5
100
AcDbLine
 10
2109.018602645526
 20
591.7993856670132
 30
0.0
 11
2119.974618579462
 21
591.7993856670132
 31
0.0
  0
LINE
  5
BA6
330
1F
100
AcDbEntity
  8
0
  6
HIDDEN
 62
     3
 48
0.5
100
AcDbLine
 10
2109.495853192351
 20
582.2993856670132
 30
0.0
 11
2119.974618579462
 21
582.2993856670132
 31
0.0
  0
LINE
  5
BA7
330
1F
100
AcDbEntity
  8
0
  6
HIDDEN
 62
     3
 48
0.5
100
AcDbLine
 10
2109.495853192351
 20
583.2993856670132
 30
0.0
 11
2119.974618579462
 21
583.2993856670132
 31
0.0
  0
LINE
  5
BA8
330
1F
100
AcDbEntity
  8
0
  6
HIDDEN
 62
     3
 48
0.5
100
AcDbLine
 10
2109.018602645526
 20
590.7993856670132
 30
0.0
 11
2119.974618579462
 21
590.7993856670132
 31
0.0
  0
LINE
  5
BA9
330
1F
100
AcDbEntity
  8
0
  6
HIDDEN
 62
     3
 48
0.5
100
AcDbLine
 10
2507.831001709037
 20
523.7304935176369
 30
0.0
 11
2518.787017642973
 21
523.7304935176369
 31
0.0
  0
LINE
  5
BAA
330
1F
100
AcDbEntity
  8
0
  6
HIDDEN
 62
     3
 48
0.5
100
AcDbLine
 10
2508.308252255862
 20
514.2304935176368
 30
0.0
 11
2518.787017642973
 21
514.2304935176368
 31
0.0
  0
LINE
  5
BAB
330
1F
100
AcDbEntity
  8
0
  6
HIDDEN
 62
     3
 48
0.5
100
AcDbLine
 10
2508.308252255862
 20
515.2304935176369
 30
0.0
 11
2518.787017642973
 21
515.2304935176369
 31
0.0
  0
LINE
  5
BAC
330
1F
100
AcDbEntity
  8
0
  6
HIDDEN
 62
     3
 48
0.5
100
AcDbLine
 10
2507.831001709037
 20
522.7304935176369
 30
0.0
 11
2518.787017642973
 21
522.7304935176369
 31
0.0
  0
LINE
  5
BAD
330
1F
100
AcDbEntity
  8
0
  6
HIDDEN
 62
     3
 48
0.5
100
AcDbLine
 10
2460.657029041482
 20
593.0470512020999
 30
0.0
 11
2471.613044975419
 21
593.0470512020999
 31
0.0
  0
LINE
  5
BAE
330
1F
100
AcDbEntity
  8
0
  6
HIDDEN
 62
     3
 48
0.5
100
AcDbLine
 10
2461.134279588307
 20
583.5470512020999
 30
0.0
 11
2471.613044975419
 21
583.5470512020999
 31
0.0
  0
LINE
  5
BAF
330
1F
100
AcDbEntity
  8
0
  6
HIDDEN
 62
     3
 48
0.5
100
AcDbLine
 10
2461.134279588307
 20
584.5470512020999
 30
0.0
 11
2471.613044975419
 21
584.5470512020999
 31
0.0
  0
LINE
  5
BB0
330
1F
100
AcDbEntity
  8
0
  6
HIDDEN
 62
     3
 48
0.5
100
AcDbLine
 10
2460.657029041482
 20
592.0470512020999
 30
0.0
 11
2471.613044975419
 21
592.0470512020999
 31
0.0
  0
LINE
  5
BBD
330
1F
100
AcDbEntity
  8
AM_7
100
AcDbLine
 10
2131.36614156439
 20
150.3978526583072
 30
0.0
 11
2131.36614156439
 21
320.3259902511705
 31
0.0
1001
GENIUS_GENOBJ-N-CEN_13
1002
{
1000
OWNER
1000
GEN
1002
}
1001
GENIUS_GENODEF_13
1002
{
1000
HIER
1070
     0
1002
}
1002
{
1000
MANEDIT
1070
     0
1002
}
1002
{
1000
NOSEL
1070
     0
1002
}
1002
{
1000
BEHIND
1070
     0
1002
}
1002
{
1000
OTHER
1070
     0
1002
}
1002
{
1000
REACTOR
1002
}
1001
GENIUS_GENCEN_19
1002
{
1040
2.0
1002
}
  0
LINE
  5
C29
330
1F
100
AcDbEntity
  8
0
100
AcDbLine
 10
2453.476583508879
 20
391.7380259360412
 30
0.0
 11
2515.476583508879
 21
391.7380259360412
 31
0.0
  0
LINE
  5
C2A
330
1F
100
AcDbEntity
  8
0
100
AcDbLine
 10
2453.476583508879
 20
337.7380259360412
 30
0.0
 11
2515.476583508879
 21
337.7380259360412
 31
0.0
  0
LINE
  5
C2B
330
1F
100
AcDbEntity
  8
0
100
AcDbLine
 10
2518.476583508878
 20
340.7380259360412
 30
0.0
 11
2518.476583508878
 21
388.7380259360412
 31
0.0
  0
LINE
  5
C2C
330
1F
100
AcDbEntity
  8
0
100
AcDbLine
 10
2450.476583508879
 20
340.7380259360412
 30
0.0
 11
2453.476583508879
 21
337.7380259360412
 31
0.0
  0
LINE
  5
C2D
330
1F
100
AcDbEntity
  8
0
100
AcDbLine
 10
2515.476583508879
 20
337.7380259360412
 30
0.0
 11
2518.476583508878
 21
340.7380259360412
 31
0.0
  0
LINE
  5
C2E
330
1F
100
AcDbEntity
  8
0
100
AcDbLine
 10
2518.476583508878
 20
388.7380259360412
 30
0.0
 11
2515.476583508879
 21
391.7380259360412
 31
0.0
  0
LINE
  5
C2F
330
1F
100
AcDbEntity
  8
0
100
AcDbLine
 10
2453.476583508879
 20
391.7380259360412
 30
0.0
 11
2450.476583508879
 21
388.7380259360412
 31
0.0
  0
LINE
  5
C30
330
1F
100
AcDbEntity
  8
0
100
AcDbLine
 10
2451.476583508878
 20
159.2730235218528
 30
0.0
 11
2517.476583508879
 21
159.2730235218528
 31
0.0
  0
LINE
  5
C32
330
1F
100
AcDbEntity
  8
0
100
AcDbLine
 10
2518.476583508878
 20
176.2730235218528
 30
0.0
 11
2518.476583508878
 21
160.2730235218528
 31
0.0
  0
LINE
  5
C33
330
1F
100
AcDbEntity
  8
0
100
AcDbLine
 10
2450.476583508879
 20
176.2730235218528
 30
0.0
 11
2450.476583508879
 21
160.2730235218528
 31
0.0
  0
LINE
  5
C34
330
1F
100
AcDbEntity
  8
0
100
AcDbLine
 10
2509.476583508878
 20
228.2730235218529
 30
0.0
 11
2509.476583508878
 21
179.2730235218528
 31
0.0
  0
LINE
  5
C35
330
1F
100
AcDbEntity
  8
0
100
AcDbLine
 10
2459.476583508878
 20
228.2730235218529
 30
0.0
 11
2459.476583508878
 21
179.2730235218528
 31
0.0
  0
LINE
  5
C36
330
1F
100
AcDbEntity
  8
0
100
AcDbLine
 10
2473.184316946741
 20
316.0730235218528
 30
0.0
 11
2495.768850071016
 21
316.0730235218528
 31
0.0
  0
LINE
  5
C37
330
1F
100
AcDbEntity
  8
0
100
AcDbLine
 10
2508.476583508878
 20
254.2730235218528
 30
0.0
 11
2508.476583508878
 21
177.2730235218528
 31
0.0
  0
LINE
  5
C38
330
1F
100
AcDbEntity
  8
0
100
AcDbLine
 10
2460.476583508878
 20
254.2730235218528
 30
0.0
 11
2460.476583508878
 21
177.2730235218528
 31
0.0
  0
LINE
  5
C39
330
1F
100
AcDbEntity
  8
0
100
AcDbLine
 10
2508.476583508878
 20
254.2730235218528
 30
0.0
 11
2506.476583508879
 21
256.2730235218528
 31
0.0
  0
LINE
  5
C3A
330
1F
100
AcDbEntity
  8
0
100
AcDbLine
 10
2462.476583508879
 20
256.2730235218528
 30
0.0
 11
2460.476583508878
 21
254.2730235218528
 31
0.0
  0
LINE
  5
C3B
330
1F
100
AcDbEntity
  8
0
100
AcDbLine
 10
2460.476583508878
 20
229.2730235218528
 30
0.0
 11
2508.476583508878
 21
229.2730235218528
 31
0.0
  0
LINE
  5
C3C
330
1F
100
AcDbEntity
  8
0
100
AcDbLine
 10
2509.476583508878
 20
228.2730235218529
 30
0.0
 11
2508.476583508878
 21
229.2730235218528
 31
0.0
  0
LINE
  5
C3D
330
1F
100
AcDbEntity
  8
0
100
AcDbLine
 10
2518.476583508878
 20
160.2730235218528
 30
0.0
 11
2517.476583508879
 21
159.2730235218528
 31
0.0
  0
LINE
  5
C3E
330
1F
100
AcDbEntity
  8
0
100
AcDbLine
 10
2451.476583508878
 20
159.2730235218528
 30
0.0
 11
2450.476583508879
 21
160.2730235218528
 31
0.0
  0
LINE
  5
C3F
330
1F
100
AcDbEntity
  8
0
100
AcDbLine
 10
2424.476583508879
 20
310.2730235218528
 30
0.0
 11
2424.476583508879
 21
293.2730235218528
 31
0.0
  0
LINE
  5
C40
330
1F
100
AcDbEntity
  8
0
100
AcDbLine
 10
2502.476583508878
 20
310.2730235218528
 30
0.0
 11
2502.476583508878
 21
293.2730235218528
 31
0.0
  0
LINE
  5
C41
330
1F
100
AcDbEntity
  8
0
100
AcDbLine
 10
2501.476583508879
 20
292.2730235218529
 30
0.0
 11
2502.476583508878
 21
293.2730235218528
 31
0.0
  0
LINE
  5
C42
330
1F
100
AcDbEntity
  8
0
100
AcDbLine
 10
2502.476583508878
 20
310.2730235218528
 30
0.0
 11
2501.476583508879
 21
311.2730235218529
 31
0.0
  0
LINE
  5
C44
330
1F
100
AcDbEntity
  8
0
  6
HIDDEN
 62
     3
 48
0.5
100
AcDbLine
 10
2440.476583508879
 20
292.2730235218529
 30
0.0
 11
2440.476583508879
 21
311.2730235218529
 31
0.0
  0
LINE
  5
C45
330
1F
100
AcDbEntity
  8
0
  6
HIDDEN
 62
     3
 48
0.5
100
AcDbLine
 10
2428.476583508878
 20
292.2730235218529
 30
0.0
 11
2428.476583508878
 21
311.2730235218529
 31
0.0
  0
LINE
  5
C46
330
1F
100
AcDbEntity
  8
0
  6
HIDDEN
 62
     3
 48
0.5
100
AcDbLine
 10
2439.476583508878
 20
292.2730235218529
 30
0.0
 11
2439.476583508878
 21
311.2730235218529
 31
0.0
  0
LINE
  5
C47
330
1F
100
AcDbEntity
  8
0
  6
HIDDEN
 62
     3
 48
0.5
100
AcDbLine
 10
2429.476583508878
 20
292.2730235218529
 30
0.0
 11
2429.476583508878
 21
311.2730235218529
 31
0.0
  0
LINE
  5
C48
330
1F
100
AcDbEntity
  8
0
100
AcDbLine
 10
2491.866666954506
 20
315.2730235218529
 30
0.0
 11
2491.866666954506
 21
311.2730235218529
 31
0.0
  0
LINE
  5
C49
330
1F
100
AcDbEntity
  8
0
100
AcDbLine
 10
2499.256750400133
 20
315.2730235218529
 30
0.0
 11
2499.256750400133
 21
311.2730235218529
 31
0.0
  0
LINE
  5
C4A
330
1F
100
AcDbEntity
  8
0
100
AcDbLine
 10
2477.086500063251
 20
315.2730235218529
 30
0.0
 11
2477.086500063251
 21
311.2730235218529
 31
0.0
  0
LINE
  5
C4B
330
1F
100
AcDbEntity
  8
0
100
AcDbLine
 10
2469.696416617624
 20
315.2730235218529
 30
0.0
 11
2469.696416617624
 21
311.2730235218529
 31
0.0
  0
ARC
  5
C4C
330
1F
100
AcDbEntity
  8
0
100
AcDbCircle
 10
2484.476583508878
 20
281.5396901885195
 30
0.0
 40
34.53333333333334
100
AcDbArc
 50
77.64321860963161
 51
102.3567813903684
  0
ARC
  5
C4D
330
1F
100
AcDbEntity
  8
0
100
AcDbCircle
 10
2473.391458340438
 20
307.1665074116336
 30
0.0
 40
8.908924557912527
100
AcDbArc
 50
65.49596495353821
 51
114.5040350464618
  0
ARC
  5
C4E
330
1F
100
AcDbEntity
  8
0
100
AcDbCircle
 10
2495.561708677319
 20
307.1665074116336
 30
0.0
 40
8.908924557912527
100
AcDbArc
 50
65.49596495353821
 51
114.5040350464618
  0
LINE
  5
C50
330
1F
100
AcDbEntity
  8
CENTER
100
AcDbLine
 10
2484.476583508878
 20
250.2209967826496
 30
0.0
 11
2484.476583508878
 21
231.7471789854099
 31
0.0
  0
CIRCLE
  5
C51
330
1F
100
AcDbEntity
  8
0
100
AcDbCircle
 10
2470.605851470747
 20
170.6771443539917
 30
0.0
 40
4.75
  0
CIRCLE
  5
C52
330
1F
100
AcDbEntity
  8
0
100
AcDbCircle
 10
2470.605851470747
 20
170.6771443539917
 30
0.0
 40
3.75
  0
CIRCLE
  5
C55
330
1F
100
AcDbEntity
  8
0
100
AcDbCircle
 10
2484.476583508878
 20
364.7380259360412
 30
0.0
 40
9.0
  0
LINE
  5
C56
330
1F
100
AcDbEntity
  8
0
100
AcDbLine
 10
2502.476583508878
 20
364.7380259360412
 30
0.0
 11
2502.476583508878
 21
382.7380259360412
 31
0.0
  0
LINE
  5
C57
330
1F
100
AcDbEntity
  8
0
100
AcDbLine
 10
2502.476583508878
 20
364.7380259360412
 30
0.0
 11
2502.476583508878
 21
346.7380259360412
 31
0.0
  0
LINE
  5
C58
330
1F
100
AcDbEntity
  8
0
100
AcDbLine
 10
2501.476583508879
 20
345.7380259360412
 30
0.0
 11
2444.476583508878
 21
345.7380259360412
 31
0.0
  0
LINE
  5
C59
330
1F
100
AcDbEntity
  8
0
100
AcDbLine
 10
2424.476583508879
 20
352.7380259360412
 30
0.0
 11
2424.476583508879
 21
376.7380259360412
 31
0.0
  0
LINE
  5
C5A
330
1F
100
AcDbEntity
  8
0
100
AcDbLine
 10
2444.476583508878
 20
383.7380259360412
 30
0.0
 11
2501.476583508879
 21
383.7380259360412
 31
0.0
  0
CIRCLE
  5
C5B
330
1F
100
AcDbEntity
  8
0
100
AcDbCircle
 10
2434.476583508879
 20
364.7380259360412
 30
0.0
 40
6.0
  0
LINE
  5
C5C
330
1F
100
AcDbEntity
  8
0
100
AcDbLine
 10
2424.476583508879
 20
376.7380259360412
 30
0.0
 11
2444.476583508878
 21
383.7380259360412
 31
0.0
  0
LINE
  5
C5D
330
1F
100
AcDbEntity
  8
0
100
AcDbLine
 10
2424.476583508879
 20
352.7380259360412
 30
0.0
 11
2444.476583508878
 21
345.7380259360412
 31
0.0
  0
CIRCLE
  5
C5E
330
1F
100
AcDbEntity
  8
0
100
AcDbCircle
 10
2434.476583508879
 20
364.7380259360412
 30
0.0
 40
5.0
  0
CIRCLE
  5
C5F
330
1F
100
AcDbEntity
  8
0
100
AcDbCircle
 10
2484.476583508878
 20
364.7380259360412
 30
0.0
 40
8.0
  0
POLYLINE
  5
C60
330
1F
100
AcDbEntity
  8
0
100
AcDb2dPolyline
 66
     1
 10
0.0
 20
0.0
 30
0.0
 70
     1
  0
VERTEX
  5
C61
330
C60
100
AcDbEntity
  8
0
100
AcDbVertex
100
AcDb2dVertex
 10
2470.32775991635
 20
364.7380259360412
 30
0.0
  0
VERTEX
  5
C62
330
C60
100
AcDbEntity
  8
0
100
AcDbVertex
100
AcDb2dVertex
 10
2477.402171712614
 20
352.4847852712467
 30
0.0
  0
VERTEX
  5
C63
330
C60
100
AcDbEntity
  8
0
100
AcDbVertex
100
AcDb2dVertex
 10
2491.550995305143
 20
352.4847852712467
 30
0.0
  0
VERTEX
  5
C64
330
C60
100
AcDbEntity
  8
0
100
AcDbVertex
100
AcDb2dVertex
 10
2498.625407101407
 20
364.7380259360412
 30
0.0
  0
VERTEX
  5
C65
330
C60
100
AcDbEntity
  8
0
100
AcDbVertex
100
AcDb2dVertex
 10
2491.550995305143
 20
376.9912666008357
 30
0.0
  0
VERTEX
  5
C66
330
C60
100
AcDbEntity
  8
0
100
AcDbVertex
100
AcDb2dVertex
 10
2477.402171712614
 20
376.9912666008357
 30
0.0
  0
SEQEND
  5
C67
330
C60
100
AcDbEntity
  8
0
  0
CIRCLE
  5
C6A
330
1F
100
AcDbEntity
  8
0
  6
Continuous
100
AcDbCircle
 10
2511.476583508879
 20
381.7380259360412
 30
0.0
 40
4.25
  0
CIRCLE
  5
C6B
330
1F
100
AcDbEntity
  8
0
  6
Continuous
100
AcDbCircle
 10
2511.476583508879
 20
347.7380259360412
 30
0.0
 40
4.25
  0
ARC
  5
C6C
330
1F
100
AcDbEntity
  8
0
  6
Continuous
100
AcDbCircle
 10
2457.476583508878
 20
381.7380259360412
 30
0.0
 40
4.25
100
AcDbArc
 50
28.07248693585142
 51
151.9275130641486
  0
LINE
  5
C6D
330
1F
100
AcDbEntity
  8
0
100
AcDbLine
 10
2450.476583508879
 20
383.7380259360412
 30
0.0
 11
2450.476583508879
 21
388.7380259360412
 31
0.0
  0
LINE
  5
C6E
330
1F
100
AcDbEntity
  8
0
100
AcDbLine
 10
2450.476583508879
 20
340.7380259360412
 30
0.0
 11
2450.476583508879
 21
345.7380259360412
 31
0.0
  0
LINE
  5
C6F
330
1F
100
AcDbEntity
  8
0
100
AcDbLine
 10
2501.476583508879
 20
383.7380259360412
 30
0.0
 11
2502.476583508878
 21
382.7380259360412
 31
0.0
  0
LINE
  5
C70
330
1F
100
AcDbEntity
  8
0
100
AcDbLine
 10
2502.476583508878
 20
346.7380259360412
 30
0.0
 11
2501.476583508879
 21
345.7380259360412
 31
0.0
  0
ARC
  5
C71
330
1F
100
AcDbEntity
  8
0
  6
Continuous
100
AcDbCircle
 10
2457.476583508878
 20
347.7380259360412
 30
0.0
 40
4.25
100
AcDbArc
 50
208.0724869358514
 51
331.9275130641486
  0
ARC
  5
C72
330
1F
100
AcDbEntity
  8
0
100
AcDbCircle
 10
2484.476583508878
 20
364.7380259360412
 30
0.0
 40
25.0
100
AcDbArc
 50
229.4641978886903
 51
130.5358021113097
  0
LINE
  5
C73
330
1F
100
AcDbEntity
  8
0
100
AcDbLine
 10
2495.476583508879
 20
292.2730235218529
 30
0.0
 11
2495.476583508879
 21
256.2730235218528
 31
0.0
  0
LINE
  5
C74
330
1F
100
AcDbEntity
  8
0
100
AcDbLine
 10
2473.476583508878
 20
292.2730235218529
 30
0.0
 11
2473.476583508878
 21
256.2730235218528
 31
0.0
  0
LINE
  5
C75
330
1F
100
AcDbEntity
  8
0
100
AcDbLine
 10
2460.476583508878
 20
229.2730235218528
 30
0.0
 11
2459.476583508878
 21
228.2730235218529
 31
0.0
  0
LINE
  5
C76
330
1F
100
AcDbEntity
  8
0
100
AcDbLine
 10
2508.476583508878
 20
229.2730235218528
 30
0.0
 11
2509.476583508878
 21
228.2730235218529
 31
0.0
  0
LINE
  5
C77
330
1F
100
AcDbEntity
  8
0
100
AcDbLine
 10
2462.476583508879
 20
256.2730235218528
 30
0.0
 11
2506.476583508879
 21
256.2730235218528
 31
0.0
  0
LINE
  5
C78
330
1F
100
AcDbEntity
  8
0
100
AcDbLine
 10
2424.476583508879
 20
310.2730235218528
 30
0.0
 11
2425.476583508878
 21
311.2730235218529
 31
0.0
  0
LINE
  5
C79
330
1F
100
AcDbEntity
  8
0
100
AcDbLine
 10
2424.476583508879
 20
293.2730235218528
 30
0.0
 11
2425.476583508878
 21
292.2730235218529
 31
0.0
  0
LINE
  5
C7A
330
1F
100
AcDbEntity
  8
0
100
AcDbLine
 10
2425.476583508878
 20
311.2730235218529
 30
0.0
 11
2501.476583508879
 21
311.2730235218529
 31
0.0
  0
LINE
  5
C7B
330
1F
100
AcDbEntity
  8
0
100
AcDbLine
 10
2425.476583508878
 20
292.2730235218529
 30
0.0
 11
2501.476583508879
 21
292.2730235218529
 31
0.0
  0
LINE
  5
C7E
330
1F
100
AcDbEntity
  8
0
  6
Continuous
100
AcDbLine
 10
2444.193627969916
 20
311.2730235218529
 30
0.0
 11
2444.193627969916
 21
292.2730235218529
 31
0.0
  0
LINE
  5
C7F
330
1F
100
AcDbEntity
  8
0
100
AcDbLine
 10
2451.476583508878
 20
177.2730235218528
 30
0.0
 11
2517.476583508879
 21
177.2730235218528
 31
0.0
  0
LINE
  5
C80
330
1F
100
AcDbEntity
  8
0
100
AcDbLine
 10
2460.476583508878
 20
178.2730235218528
 30
0.0
 11
2508.476583508878
 21
178.2730235218528
 31
0.0
  0
LINE
  5
C81
330
1F
100
AcDbEntity
  8
0
100
AcDbLine
 10
2459.476583508878
 20
179.2730235218528
 30
0.0
 11
2460.476583508878
 21
178.2730235218528
 31
0.0
  0
LINE
  5
C82
330
1F
100
AcDbEntity
  8
0
100
AcDbLine
 10
2509.476583508878
 20
179.2730235218528
 30
0.0
 11
2508.476583508878
 21
178.2730235218528
 31
0.0
  0
LINE
  5
C83
330
1F
100
AcDbEntity
  8
0
100
AcDbLine
 10
2451.476583508878
 20
177.2730235218528
 30
0.0
 11
2450.476583508879
 21
176.2730235218528
 31
0.0
  0
LINE
  5
C84
330
1F
100
AcDbEntity
  8
0
100
AcDbLine
 10
2517.476583508879
 20
177.2730235218528
 30
0.0
 11
2518.476583508878
 21
176.2730235218528
 31
0.0
  0
LINE
  5
CBF
330
1F
100
AcDbEntity
  8
AM_7
100
AcDbLine
 10
2484.476583508878
 20
318.0730235218528
 30
0.0
 11
2484.476583508878
 21
152.808130109217
 31
0.0
1001
GENIUS_GENOBJ-N-CEN_13
1002
{
1000
OWNER
1000
GEN
1002
}
1001
GENIUS_GENODEF_13
1002
{
1000
HIER
1070
     0
1002
}
1002
{
1000
MANEDIT
1070
     0
1002
}
1002
{
1000
NOSEL
1070
     0
1002
}
1002
{
1000
BEHIND
1070
     0
1002
}
1002
{
1000
OTHER
1070
     0
1002
}
1002
{
1000
REACTOR
1002
}
1001
GENIUS_GENCEN_19
1002
{
1040
2.0
1002
}
  0
LINE
  5
CCC
330
1F
100
AcDbEntity
  8
AM_7
100
AcDbLine
 10
2434.476583508879
 20
313.2730235218529
 30
0.0
 11
2434.476583508879
 21
290.2730235218529
 31
0.0
1001
GENIUS_GENODEF_13
1002
{
1000
HIER
1070
     0
1002
}
1002
{
1000
MANEDIT
1070
     0
1002
}
1002
{
1000
NOSEL
1070
     0
1002
}
1002
{
1000
BEHIND
1070
     0
1002
}
1002
{
1000
OTHER
1070
     0
1002
}
1002
{
1000
REACTOR
1002
}
1001
GENIUS_GENOBJ-N-CEN_13
1002
{
1000
OWNER
1000
GEN
1002
}
1001
GENIUS_GENCEN_19
1002
{
1040
2.0
1002
}
  0
LINE
  5
CDA
330
1F
100
AcDbEntity
  8
AM_7
  6
AM_ISO08W050x2
100
AcDbLine
 10
2434.476583508879
 20
364.7380259360412
 30
0.0
 11
2442.476583508879
 21
364.7380259360412
 31
0.0
1001
GENIUS_GENOREF_13
1005
CDE
  0
LINE
  5
CDB
330
1F
100
AcDbEntity
  8
AM_7
  6
AM_ISO08W050x2
100
AcDbLine
 10
2434.476583508879
 20
364.7380259360412
 30
0.0
 11
2434.476583508879
 21
372.7380259360412
 31
0.0
1001
GENIUS_GENOREF_13
1005
CDE
  0
LINE
  5
CDC
330
1F
100
AcDbEntity
  8
AM_7
  6
AM_ISO08W050x2
100
AcDbLine
 10
2434.476583508879
 20
364.7380259360412
 30
0.0
 11
2426.476583508879
 21
364.7380259360412
 31
0.0
1001
GENIUS_GENOREF_13
1005
CDE
  0
LINE
  5
CDD
330
1F
100
AcDbEntity
  8
AM_7
  6
AM_ISO08W050x2
100
AcDbLine
 10
2434.476583508879
 20
364.7380259360412
 30
0.0
 11
2434.476583508879
 21
356.7380259360412
 31
0.0
1001
GENIUS_GENOREF_13
1005
CDE
  0
POINT
  5
CDE
330
1F
100
AcDbEntity
  8
0
 60
     1
100
AcDbPoint
 10
0.0
 20
0.0
 30
0.0
1001
GENIUS_GENOLIS_13
1002
{
1000
ENT
1005
CDD
1005
CDC
1005
CDB
1005
CDA
1002
}
1001
GENIUS_GENODEF_13
1002
{
1000
HIER
1070
    10
1002
}
1002
{
1000
MANEDIT
1070
     0
1002
}
1002
{
1000
NOSEL
1070
     0
1002
}
1002
{
1000
BEHIND
1070
     0
1002
}
1002
{
1000
OTHER
1070
     0
1002
}
1002
{
1000
REACTOR
1002
}
1001
GENIUS_GENOENT_13
1002
{
1000
MYREF
1005
CDE
1002
}
1002
{
1000
GRP
1005
0
1002
}
1001
GENIUS_GENOBJ-N-CRS_13
1002
{
1000
OWNER
1000
GEN
1002
}
  0
LINE
  5
CFE
330
1F
100
AcDbEntity
  8
AM_7
  6
AM_ISO08W050x2
100
AcDbLine
 10
2511.476583508879
 20
347.7380259360412
 30
0.0
 11
2517.726583508878
 21
347.7380259360412
 31
0.0
1001
GENIUS_GENOREF_13
1005
D02
  0
LINE
  5
CFF
330
1F
100
AcDbEntity
  8
AM_7
  6
AM_ISO08W050x2
100
AcDbLine
 10
2511.476583508879
 20
347.7380259360412
 30
0.0
 11
2511.476583508879
 21
353.9880259360412
 31
0.0
1001
GENIUS_GENOREF_13
1005
D02
  0
LINE
  5
D00
330
1F
100
AcDbEntity
  8
AM_7
  6
AM_ISO08W050x2
100
AcDbLine
 10
2511.476583508879
 20
347.7380259360412
 30
0.0
 11
2505.226583508878
 21
347.7380259360412
 31
0.0
1001
GENIUS_GENOREF_13
1005
D02
  0
LINE
  5
D01
330
1F
100
AcDbEntity
  8
AM_7
  6
AM_ISO08W050x2
100
AcDbLine
 10
2511.476583508879
 20
347.7380259360412
 30
0.0
 11
2511.476583508879
 21
341.4880259360412
 31
0.0
1001
GENIUS_GENOREF_13
1005
D02
  0
POINT
  5
D02
330
1F
100
AcDbEntity
  8
0
 60
     1
100
AcDbPoint
 10
0.0
 20
0.0
 30
0.0
1001
GENIUS_GENOENT_13
1002
{
1000
MYREF
1005
D02
1002
}
1002
{
1000
GRP
1005
0
1002
}
1001
GENIUS_GENOBJ-N-CRS_13
1002
{
1000
OWNER
1000
GEN
1002
}
1001
GENIUS_GENOLIS_13
1002
{
1000
ENT
1005
D01
1005
D00
1005
CFF
1005
CFE
1002
}
1001
GENIUS_GENODEF_13
1002
{
1000
HIER
1070
    10
1002
}
1002
{
1000
MANEDIT
1070
     0
1002
}
1002
{
1000
NOSEL
1070
     0
1002
}
1002
{
1000
BEHIND
1070
     0
1002
}
1002
{
1000
OTHER
1070
     0
1002
}
1002
{
1000
REACTOR
1002
}
  0
LINE
  5
D10
330
1F
100
AcDbEntity
  8
AM_7
  6
AM_ISO08W050x2
100
AcDbLine
 10
2511.476583508879
 20
381.7380259360412
 30
0.0
 11
2517.726583508878
 21
381.7380259360412
 31
0.0
1001
GENIUS_GENOREF_13
1005
D14
  0
LINE
  5
D11
330
1F
100
AcDbEntity
  8
AM_7
  6
AM_ISO08W050x2
100
AcDbLine
 10
2511.476583508879
 20
381.7380259360412
 30
0.0
 11
2511.476583508879
 21
387.9880259360412
 31
0.0
1001
GENIUS_GENOREF_13
1005
D14
  0
LINE
  5
D12
330
1F
100
AcDbEntity
  8
AM_7
  6
AM_ISO08W050x2
100
AcDbLine
 10
2511.476583508879
 20
381.7380259360412
 30
0.0
 11
2505.226583508878
 21
381.7380259360412
 31
0.0
1001
GENIUS_GENOREF_13
1005
D14
  0
LINE
  5
D13
330
1F
100
AcDbEntity
  8
AM_7
  6
AM_ISO08W050x2
100
AcDbLine
 10
2511.476583508879
 20
381.7380259360412
 30
0.0
 11
2511.476583508879
 21
375.4880259360412
 31
0.0
1001
GENIUS_GENOREF_13
1005
D14
  0
POINT
  5
D14
330
1F
100
AcDbEntity
  8
0
 60
     1
100
AcDbPoint
 10
0.0
 20
0.0
 30
0.0
1001
GENIUS_GENOLIS_13
1002
{
1000
ENT
1005
D13
1005
D12
1005
D11
1005
D10
1002
}
1001
GENIUS_GENODEF_13
1002
{
1000
HIER
1070
    10
1002
}
1002
{
1000
MANEDIT
1070
     0
1002
}
1002
{
1000
NOSEL
1070
     0
1002
}
1002
{
1000
BEHIND
1070
     0
1002
}
1002
{
1000
OTHER
1070
     0
1002
}
1002
{
1000
REACTOR
1002
}
1001
GENIUS_GENOENT_13
1002
{
1000
MYREF
1005
D14
1002
}
1002
{
1000
GRP
1005
0
1002
}
1001
GENIUS_GENOBJ-N-CRS_13
1002
{
1000
OWNER
1000
GEN
1002
}
  0
LINE
  5
D22
330
1F
100
AcDbEntity
  8
AM_7
  6
AM_ISO08W050x2
100
AcDbLine
 10
2457.476583508878
 20
381.7380259360412
 30
0.0
 11
2463.726583508878
 21
381.7380259360412
 31
0.0
1001
GENIUS_GENOREF_13
1005
D26
  0
LINE
  5
D23
330
1F
100
AcDbEntity
  8
AM_7
  6
AM_ISO08W050x2
100
AcDbLine
 10
2457.476583508878
 20
381.7380259360412
 30
0.0
 11
2457.476583508878
 21
387.9880259360412
 31
0.0
1001
GENIUS_GENOREF_13
1005
D26
  0
LINE
  5
D24
330
1F
100
AcDbEntity
  8
AM_7
  6
AM_ISO08W050x2
100
AcDbLine
 10
2457.476583508878
 20
381.7380259360412
 30
0.0
 11
2451.226583508879
 21
381.7380259360412
 31
0.0
1001
GENIUS_GENOREF_13
1005
D26
  0
LINE
  5
D25
330
1F
100
AcDbEntity
  8
AM_7
  6
AM_ISO08W050x2
100
AcDbLine
 10
2457.476583508878
 20
381.7380259360412
 30
0.0
 11
2457.476583508878
 21
375.4880259360412
 31
0.0
1001
GENIUS_GENOREF_13
1005
D26
  0
POINT
  5
D26
330
1F
100
AcDbEntity
  8
0
 60
     1
100
AcDbPoint
 10
0.0
 20
0.0
 30
0.0
1001
GENIUS_GENODEF_13
1002
{
1000
HIER
1070
    10
1002
}
1002
{
1000
MANEDIT
1070
     0
1002
}
1002
{
1000
NOSEL
1070
     0
1002
}
1002
{
1000
BEHIND
1070
     0
1002
}
1002
{
1000
OTHER
1070
     0
1002
}
1002
{
1000
REACTOR
1002
}
1001
GENIUS_GENOENT_13
1002
{
1000
MYREF
1005
D26
1002
}
1002
{
1000
GRP
1005
0
1002
}
1001
GENIUS_GENOBJ-N-CRS_13
1002
{
1000
OWNER
1000
GEN
1002
}
1001
GENIUS_GENOLIS_13
1002
{
1000
ENT
1005
D25
1005
D24
1005
D23
1005
D22
1002
}
  0
LINE
  5
D34
330
1F
100
AcDbEntity
  8
AM_7
  6
AM_ISO08W050x2
100
AcDbLine
 10
2457.476583508878
 20
347.7380259360412
 30
0.0
 11
2463.726583508878
 21
347.7380259360412
 31
0.0
1001
GENIUS_GENOREF_13
1005
D38
  0
LINE
  5
D35
330
1F
100
AcDbEntity
  8
AM_7
  6
AM_ISO08W050x2
100
AcDbLine
 10
2457.476583508878
 20
347.7380259360412
 30
0.0
 11
2457.476583508878
 21
353.9880259360412
 31
0.0
1001
GENIUS_GENOREF_13
1005
D38
  0
LINE
  5
D36
330
1F
100
AcDbEntity
  8
AM_7
  6
AM_ISO08W050x2
100
AcDbLine
 10
2457.476583508878
 20
347.7380259360412
 30
0.0
 11
2451.226583508879
 21
347.7380259360412
 31
0.0
1001
GENIUS_GENOREF_13
1005
D38
  0
LINE
  5
D37
330
1F
100
AcDbEntity
  8
AM_7
  6
AM_ISO08W050x2
100
AcDbLine
 10
2457.476583508878
 20
347.7380259360412
 30
0.0
 11
2457.476583508878
 21
341.4880259360412
 31
0.0
1001
GENIUS_GENOREF_13
1005
D38
  0
POINT
  5
D38
330
1F
100
AcDbEntity
  8
0
 60
     1
100
AcDbPoint
 10
0.0
 20
0.0
 30
0.0
1001
GENIUS_GENOENT_13
1002
{
1000
MYREF
1005
D38
1002
}
1002
{
1000
GRP
1005
0
1002
}
1001
GENIUS_GENOLIS_13
1002
{
1000
ENT
1005
D37
1005
D36
1005
D35
1005
D34
1002
}
1001
GENIUS_GENOBJ-N-CRS_13
1002
{
1000
OWNER
1000
GEN
1002
}
1001
GENIUS_GENODEF_13
1002
{
1000
HIER
1070
    10
1002
}
1002
{
1000
MANEDIT
1070
     0
1002
}
1002
{
1000
NOSEL
1070
     0
1002
}
1002
{
1000
BEHIND
1070
     0
1002
}
1002
{
1000
OTHER
1070
     0
1002
}
1002
{
1000
REACTOR
1002
}
  0
LINE
  5
D46
330
1F
100
AcDbEntity
  8
AM_7
  6
AM_ISO08W050x2
100
AcDbLine
 10
2470.605851470747
 20
170.6771443539917
 30
0.0
 11
2477.355851470747
 21
170.6771443539917
 31
0.0
1001
GENIUS_GENOREF_13
1005
D4A
  0
LINE
  5
D47
330
1F
100
AcDbEntity
  8
AM_7
  6
AM_ISO08W050x2
100
AcDbLine
 10
2470.605851470747
 20
170.6771443539917
 30
0.0
 11
2470.605851470747
 21
177.4271443539917
 31
0.0
1001
GENIUS_GENOREF_13
1005
D4A
  0
LINE
  5
D48
330
1F
100
AcDbEntity
  8
AM_7
  6
AM_ISO08W050x2
100
AcDbLine
 10
2470.605851470747
 20
170.6771443539917
 30
0.0
 11
2463.855851470747
 21
170.6771443539917
 31
0.0
1001
GENIUS_GENOREF_13
1005
D4A
  0
LINE
  5
D49
330
1F
100
AcDbEntity
  8
AM_7
  6
AM_ISO08W050x2
100
AcDbLine
 10
2470.605851470747
 20
170.6771443539917
 30
0.0
 11
2470.605851470747
 21
163.9271443539917
 31
0.0
1001
GENIUS_GENOREF_13
1005
D4A
  0
POINT
  5
D4A
330
1F
100
AcDbEntity
  8
0
 60
     1
100
AcDbPoint
 10
0.0
 20
0.0
 30
0.0
1001
GENIUS_GENODEF_13
1002
{
1000
HIER
1070
    10
1002
}
1002
{
1000
MANEDIT
1070
     0
1002
}
1002
{
1000
NOSEL
1070
     0
1002
}
1002
{
1000
BEHIND
1070
     0
1002
}
1002
{
1000
OTHER
1070
     0
1002
}
1002
{
1000
REACTOR
1002
}
1001
GENIUS_GENOLIS_13
1002
{
1000
ENT
1005
D49
1005
D48
1005
D47
1005
D46
1002
}
1001
GENIUS_GENOBJ-N-CRS_13
1002
{
1000
OWNER
1000
GEN
1002
}
1001
GENIUS_GENOENT_13
1002
{
1000
MYREF
1005
D4A
1002
}
1002
{
1000
GRP
1005
0
1002
}
  0
LINE
  5
D4B
330
1F
100
AcDbEntity
  8
0
  6
HIDDEN
 62
     3
 48
0.5
100
AcDbLine
 10
2507.446287175714
 20
175.4901591831383
 30
0.0
 11
2518.402303109649
 21
175.4901591831383
 31
0.0
  0
LINE
  5
D4C
330
1F
100
AcDbEntity
  8
0
  6
HIDDEN
 62
     3
 48
0.5
100
AcDbLine
 10
2507.923537722539
 20
165.9901591831383
 30
0.0
 11
2518.402303109649
 21
165.9901591831383
 31
0.0
  0
LINE
  5
D4D
330
1F
100
AcDbEntity
  8
0
  6
HIDDEN
 62
     3
 48
0.5
100
AcDbLine
 10
2507.923537722539
 20
166.9901591831383
 30
0.0
 11
2518.402303109649
 21
166.9901591831383
 31
0.0
  0
LINE
  5
D4E
330
1F
100
AcDbEntity
  8
0
  6
HIDDEN
 62
     3
 48
0.5
100
AcDbLine
 10
2507.446287175714
 20
174.4901591831383
 30
0.0
 11
2518.402303109649
 21
174.4901591831383
 31
0.0
  0
LINE
  5
DBE
330
1F
100
AcDbEntity
  8
0
100
AcDbLine
 10
2796.20607882633
 20
682.4211251270351
 30
0.0
 11
2878.206078826329
 21
682.4211251270351
 31
0.0
  0
LINE
  5
DBF
330
1F
100
AcDbEntity
  8
0
100
AcDbLine
 10
2879.206078826329
 20
683.4211251270351
 30
0.0
 11
2879.206078826329
 21
745.4211251270351
 31
0.0
  0
LINE
  5
DC0
330
1F
100
AcDbEntity
  8
0
100
AcDbLine
 10
2878.206078826329
 20
746.421125127035
 30
0.0
 11
2796.20607882633
 21
746.421125127035
 31
0.0
  0
CIRCLE
  5
DC1
330
1F
100
AcDbEntity
  8
0
100
AcDbCircle
 10
2870.206078826329
 20
734.4211251270351
 30
0.0
 40
4.25
  0
CIRCLE
  5
DC2
330
1F
100
AcDbEntity
  8
0
100
AcDbCircle
 10
2870.206078826329
 20
694.4211251270351
 30
0.0
 40
4.25
  0
CIRCLE
  5
DC3
330
1F
100
AcDbEntity
  8
0
100
AcDbCircle
 10
2837.20607882633
 20
714.4211251270351
 30
0.0
 40
10.395
  0
LINE
  5
DC4
330
1F
100
AcDbEntity
  8
0
100
AcDbLine
 10
2855.206078826329
 20
714.4211251270351
 30
0.0
 11
2855.206078826329
 21
733.4211251270351
 31
0.0
  0
LINE
  5
DC5
330
1F
100
AcDbEntity
  8
0
100
AcDbLine
 10
2855.206078826329
 20
695.4211251270351
 30
0.0
 11
2855.206078826329
 21
714.4211251270351
 31
0.0
  0
LINE
  5
DC6
330
1F
100
AcDbEntity
  8
0
100
AcDbLine
 10
2855.206078826329
 20
695.4211251270351
 30
0.0
 11
2797.206078826329
 21
695.4211251270351
 31
0.0
  0
LINE
  5
DC7
330
1F
100
AcDbEntity
  8
0
100
AcDbLine
 10
2777.206078826329
 20
702.4211251270351
 30
0.0
 11
2777.206078826329
 21
726.4211251270351
 31
0.0
  0
LINE
  5
DC8
330
1F
100
AcDbEntity
  8
0
100
AcDbLine
 10
2797.206078826329
 20
733.4211251270351
 30
0.0
 11
2855.206078826329
 21
733.4211251270351
 31
0.0
  0
CIRCLE
  5
DC9
330
1F
100
AcDbEntity
  8
0
100
AcDbCircle
 10
2787.20607882633
 20
714.4211251270351
 30
0.0
 40
6.0
  0
LINE
  5
DCA
330
1F
100
AcDbEntity
  8
0
100
AcDbLine
 10
2777.206078826329
 20
726.4211251270351
 30
0.0
 11
2797.206078826329
 21
733.4211251270351
 31
0.0
  0
LINE
  5
DCB
330
1F
100
AcDbEntity
  8
0
100
AcDbLine
 10
2777.206078826329
 20
702.4211251270351
 30
0.0
 11
2797.206078826329
 21
695.4211251270351
 31
0.0
  0
CIRCLE
  5
DCC
330
1F
100
AcDbEntity
  8
0
100
AcDbCircle
 10
2787.20607882633
 20
714.4211251270351
 30
0.0
 40
5.0
  0
CIRCLE
  5
DCD
330
1F
100
AcDbEntity
  8
0
100
AcDbCircle
 10
2837.20607882633
 20
714.4211251270351
 30
0.0
 40
9.240000000000001
  0
POLYLINE
  5
DCE
330
1F
100
AcDbEntity
  8
0
100
AcDb2dPolyline
 66
     1
 10
0.0
 20
0.0
 30
0.0
 70
     1
  0
VERTEX
  5
DCF
330
DCE
100
AcDbEntity
  8
0
100
AcDbVertex
100
AcDb2dVertex
 10
2821.642372874548
 20
714.4211251270351
 30
0.0
  0
VERTEX
  5
DD0
330
DCE
100
AcDbEntity
  8
0
100
AcDbVertex
100
AcDb2dVertex
 10
2829.424225850438
 20
700.9425603957613
 30
0.0
  0
VERTEX
  5
DD1
330
DCE
100
AcDbEntity
  8
0
100
AcDbVertex
100
AcDb2dVertex
 10
2844.98793180222
 20
700.9425603957613
 30
0.0
  0
VERTEX
  5
DD2
330
DCE
100
AcDbEntity
  8
0
100
AcDbVertex
100
AcDb2dVertex
 10
2852.769784778111
 20
714.4211251270351
 30
0.0
  0
VERTEX
  5
DD3
330
DCE
100
AcDbEntity
  8
0
100
AcDbVertex
100
AcDb2dVertex
 10
2844.98793180222
 20
727.899689858309
 30
0.0
  0
VERTEX
  5
DD4
330
DCE
100
AcDbEntity
  8
0
100
AcDbVertex
100
AcDb2dVertex
 10
2829.424225850438
 20
727.899689858309
 30
0.0
  0
SEQEND
  5
DD5
330
DCE
100
AcDbEntity
  8
0
  0
ARC
  5
DDA
330
1F
100
AcDbEntity
  8
0
100
AcDbCircle
 10
2804.206078826329
 20
694.4211251270351
 30
0.0
 40
4.25
100
AcDbArc
 50
166.3910393692152
 51
13.60896063078481
  0
ARC
  5
DDB
330
1F
100
AcDbEntity
  8
0
100
AcDbCircle
 10
2804.206078826329
 20
734.4211251270351
 30
0.0
 40
4.25
100
AcDbArc
 50
346.3910393692152
 51
193.6089606307848
  0
ARC
  5
DDC
330
1F
100
AcDbEntity
  8
0
100
AcDbCircle
 10
2837.20607882633
 20
714.4211251270351
 30
0.0
 40
30.0
100
AcDbArc
 50
219.2964802391991
 51
140.7035197608008
  0
LINE
  5
DDD
330
1F
100
AcDbEntity
  8
0
100
AcDbLine
 10
2795.206078826329
 20
745.4211251270351
 30
0.0
 11
2795.206078826329
 21
732.721125127035
 31
0.0
  0
LINE
  5
DDE
330
1F
100
AcDbEntity
  8
0
100
AcDbLine
 10
2795.206078826329
 20
696.1211251270351
 30
0.0
 11
2795.206078826329
 21
683.4211251270351
 31
0.0
  0
LINE
  5
DDF
330
1F
100
AcDbEntity
  8
0
100
AcDbLine
 10
2795.206078826329
 20
745.4211251270351
 30
0.0
 11
2796.20607882633
 21
746.421125127035
 31
0.0
  0
LINE
  5
DE0
330
1F
100
AcDbEntity
  8
0
100
AcDbLine
 10
2878.206078826329
 20
746.421125127035
 30
0.0
 11
2879.206078826329
 21
745.4211251270351
 31
0.0
  0
LINE
  5
DE1
330
1F
100
AcDbEntity
  8
0
100
AcDbLine
 10
2878.206078826329
 20
682.4211251270351
 30
0.0
 11
2879.206078826329
 21
683.4211251270351
 31
0.0
  0
LINE
  5
DE2
330
1F
100
AcDbEntity
  8
0
100
AcDbLine
 10
2795.206078826329
 20
683.4211251270351
 30
0.0
 11
2796.20607882633
 21
682.4211251270351
 31
0.0
  0
ARC
  5
DE4
330
1F
100
AcDbEntity
  8
0
100
AcDbCircle
 10
2837.20607882633
 20
714.4211251270351
 30
0.0
 40
29.0
100
AcDbArc
 50
220.9327245741462
 51
139.0672754258538
  0
LINE
  5
DE5
330
1F
100
AcDbEntity
  8
0
100
AcDbLine
 10
2865.20617379079
 20
606.9561227128467
 30
0.0
 11
2809.20617379079
 21
606.9561227128467
 31
0.0
  0
LINE
  5
DE6
330
1F
100
AcDbEntity
  8
0
100
AcDbLine
 10
2796.20617379079
 20
508.9561227128467
 30
0.0
 11
2878.20617379079
 21
508.9561227128467
 31
0.0
  0
LINE
  5
DE7
330
1F
100
AcDbEntity
  8
0
100
AcDbLine
 10
2879.206173790791
 20
509.9561227128467
 30
0.0
 11
2879.206173790791
 21
525.9561227128467
 31
0.0
  0
LINE
  5
DE8
330
1F
100
AcDbEntity
  8
0
100
AcDbLine
 10
2795.20617379079
 20
525.9561227128467
 30
0.0
 11
2795.20617379079
 21
509.9561227128467
 31
0.0
  0
LINE
  5
DE9
330
1F
100
AcDbEntity
  8
0
100
AcDbLine
 10
2796.20617379079
 20
508.9561227128467
 30
0.0
 11
2795.20617379079
 21
509.9561227128467
 31
0.0
  0
LINE
  5
DEA
330
1F
100
AcDbEntity
  8
0
100
AcDbLine
 10
2878.20617379079
 20
508.9561227128467
 30
0.0
 11
2879.206173790791
 21
509.9561227128467
 31
0.0
  0
LINE
  5
DEB
330
1F
100
AcDbEntity
  8
0
100
AcDbLine
 10
2808.20617379079
 20
580.9561227128467
 30
0.0
 11
2866.20617379079
 21
580.9561227128467
 31
0.0
  0
LINE
  5
DEC
330
1F
100
AcDbEntity
  8
0
100
AcDbLine
 10
2807.20617379079
 20
579.9561227128467
 30
0.0
 11
2807.20617379079
 21
528.9561227128467
 31
0.0
  0
LINE
  5
DED
330
1F
100
AcDbEntity
  8
0
100
AcDbLine
 10
2867.206173790791
 20
528.9561227128467
 30
0.0
 11
2867.206173790791
 21
579.9561227128467
 31
0.0
  0
LINE
  5
DEE
330
1F
100
AcDbEntity
  8
0
 62
     2
100
AcDbLine
 10
2807.20617379079
 20
579.9561227128467
 30
0.0
 11
2808.20617379079
 21
580.9561227128467
 31
0.0
  0
LINE
  5
DEF
330
1F
100
AcDbEntity
  8
0
100
AcDbLine
 10
2866.20617379079
 20
580.9561227128467
 30
0.0
 11
2867.206173790791
 21
579.9561227128467
 31
0.0
  0
LINE
  5
DF0
330
1F
100
AcDbEntity
  8
0
100
AcDbLine
 10
2866.20617379079
 20
526.9561227128467
 30
0.0
 11
2866.20617379079
 21
605.9561227128467
 31
0.0
  0
LINE
  5
DF1
330
1F
100
AcDbEntity
  8
0
100
AcDbLine
 10
2808.20617379079
 20
605.9561227128467
 30
0.0
 11
2808.20617379079
 21
526.9561227128467
 31
0.0
  0
LINE
  5
DF2
330
1F
100
AcDbEntity
  8
0
100
AcDbLine
 10
2824.70617379079
 20
635.9562673618718
 30
0.0
 11
2824.70617379079
 21
606.9562673618718
 31
0.0
  0
LINE
  5
DF3
330
1F
100
AcDbEntity
  8
0
100
AcDbLine
 10
2849.70617379079
 20
635.9562673618718
 30
0.0
 11
2849.70617379079
 21
606.9562673618718
 31
0.0
  0
LINE
  5
DF5
330
1F
100
AcDbEntity
  8
0
100
AcDbLine
 10
2808.20617379079
 20
605.9561227128467
 30
0.0
 11
2809.20617379079
 21
606.9561227128467
 31
0.0
  0
LINE
  5
DF6
330
1F
100
AcDbEntity
  8
0
100
AcDbLine
 10
2865.20617379079
 20
606.9561227128467
 30
0.0
 11
2866.20617379079
 21
605.9561227128467
 31
0.0
  0
LINE
  5
DF8
330
1F
100
AcDbEntity
  8
0
100
AcDbLine
 10
2825.913907228653
 20
659.7562673618718
 30
0.0
 11
2848.498440352928
 21
659.7562673618718
 31
0.0
  0
LINE
  5
DF9
330
1F
100
AcDbEntity
  8
0
100
AcDbLine
 10
2777.206173790791
 20
653.9562673618718
 30
0.0
 11
2777.206173790791
 21
636.9562673618718
 31
0.0
  0
LINE
  5
DFA
330
1F
100
AcDbEntity
  8
0
100
AcDbLine
 10
2855.20617379079
 20
653.9562673618718
 30
0.0
 11
2855.20617379079
 21
636.9562673618718
 31
0.0
  0
LINE
  5
DFB
330
1F
100
AcDbEntity
  8
0
100
AcDbLine
 10
2854.206173790791
 20
635.9562673618718
 30
0.0
 11
2855.20617379079
 21
636.9562673618718
 31
0.0
  0
LINE
  5
DFC
330
1F
100
AcDbEntity
  8
0
100
AcDbLine
 10
2855.20617379079
 20
653.9562673618718
 30
0.0
 11
2854.206173790791
 21
654.9562673618718
 31
0.0
  0
LINE
  5
DFE
330
1F
100
AcDbEntity
  8
0
  6
HIDDEN
 62
     3
 48
0.5
100
AcDbLine
 10
2793.20617379079
 20
635.9562673618718
 30
0.0
 11
2793.20617379079
 21
654.9562673618718
 31
0.0
  0
LINE
  5
DFF
330
1F
100
AcDbEntity
  8
0
  6
HIDDEN
 62
     3
 48
0.5
100
AcDbLine
 10
2781.206173790791
 20
635.9562673618718
 30
0.0
 11
2781.206173790791
 21
654.9562673618718
 31
0.0
  0
LINE
  5
E00
330
1F
100
AcDbEntity
  8
0
  6
HIDDEN
 62
     3
 48
0.5
100
AcDbLine
 10
2792.20617379079
 20
635.9562673618718
 30
0.0
 11
2792.20617379079
 21
654.9562673618718
 31
0.0
  0
LINE
  5
E01
330
1F
100
AcDbEntity
  8
0
  6
HIDDEN
 62
     3
 48
0.5
100
AcDbLine
 10
2782.20617379079
 20
635.9562673618718
 30
0.0
 11
2782.20617379079
 21
654.9562673618718
 31
0.0
  0
LINE
  5
E02
330
1F
100
AcDbEntity
  8
0
100
AcDbLine
 10
2844.596257236418
 20
658.9562673618718
 30
0.0
 11
2844.596257236418
 21
654.9562673618718
 31
0.0
  0
LINE
  5
E03
330
1F
100
AcDbEntity
  8
0
100
AcDbLine
 10
2851.986340682044
 20
658.9562673618718
 30
0.0
 11
2851.986340682044
 21
654.9562673618718
 31
0.0
  0
LINE
  5
E04
330
1F
100
AcDbEntity
  8
0
100
AcDbLine
 10
2829.816090345163
 20
658.9562673618718
 30
0.0
 11
2829.816090345163
 21
654.9562673618718
 31
0.0
  0
LINE
  5
E05
330
1F
100
AcDbEntity
  8
0
100
AcDbLine
 10
2822.426006899536
 20
658.9562673618718
 30
0.0
 11
2822.426006899536
 21
654.9562673618718
 31
0.0
  0
ARC
  5
E06
330
1F
100
AcDbEntity
  8
0
100
AcDbCircle
 10
2837.20617379079
 20
625.2229340285384
 30
0.0
 40
34.53333333333334
100
AcDbArc
 50
77.64321860963161
 51
102.3567813903684
  0
ARC
  5
E07
330
1F
100
AcDbEntity
  8
0
100
AcDbCircle
 10
2826.121048622349
 20
650.8497512516526
 30
0.0
 40
8.908924557912527
100
AcDbArc
 50
65.49596495353821
 51
114.5040350464618
  0
ARC
  5
E08
330
1F
100
AcDbEntity
  8
0
100
AcDbCircle
 10
2848.291298959231
 20
650.8497512516526
 30
0.0
 40
8.908924557912527
100
AcDbArc
 50
65.49596495353821
 51
114.5040350464618
  0
LINE
  5
E0A
330
1F
100
AcDbEntity
  8
0
100
AcDbLine
 10
2777.206173790791
 20
653.9562673618718
 30
0.0
 11
2778.206173790791
 21
654.9562673618718
 31
0.0
  0
LINE
  5
E0B
330
1F
100
AcDbEntity
  8
0
100
AcDbLine
 10
2777.206173790791
 20
636.9562673618718
 30
0.0
 11
2778.206173790791
 21
635.9562673618718
 31
0.0
  0
LINE
  5
E0C
330
1F
100
AcDbEntity
  8
0
100
AcDbLine
 10
2778.206173790791
 20
654.9562673618718
 30
0.0
 11
2854.206173790791
 21
654.9562673618718
 31
0.0
  0
LINE
  5
E0D
330
1F
100
AcDbEntity
  8
0
100
AcDbLine
 10
2778.206173790791
 20
635.9562673618718
 30
0.0
 11
2854.206173790791
 21
635.9562673618718
 31
0.0
  0
LINE
  5
E0E
330
1F
100
AcDbEntity
  8
0
100
AcDbLine
 10
2797.841962652587
 20
654.9562673618718
 30
0.0
 11
2797.841962652587
 21
635.9562673618718
 31
0.0
  0
LINE
  5
E0F
330
1F
100
AcDbEntity
  8
0
100
AcDbLine
 10
2808.20617379079
 20
527.9561227128467
 30
0.0
 11
2866.20617379079
 21
527.9561227128467
 31
0.0
  0
LINE
  5
E10
330
1F
100
AcDbEntity
  8
0
100
AcDbLine
 10
2796.20617379079
 20
526.9561227128467
 30
0.0
 11
2878.20617379079
 21
526.9561227128467
 31
0.0
  0
LINE
  5
E11
330
1F
100
AcDbEntity
  8
0
100
AcDbLine
 10
2807.20617379079
 20
528.9561227128467
 30
0.0
 11
2808.20617379079
 21
527.9561227128467
 31
0.0
  0
LINE
  5
E12
330
1F
100
AcDbEntity
  8
0
100
AcDbLine
 10
2795.20617379079
 20
525.9561227128467
 30
0.0
 11
2796.20617379079
 21
526.9561227128467
 31
0.0
  0
LINE
  5
E13
330
1F
100
AcDbEntity
  8
0
100
AcDbLine
 10
2879.206173790791
 20
525.9561227128467
 30
0.0
 11
2878.20617379079
 21
526.9561227128467
 31
0.0
  0
LINE
  5
E14
330
1F
100
AcDbEntity
  8
0
100
AcDbLine
 10
2866.20617379079
 20
527.9561227128467
 30
0.0
 11
2867.206173790791
 21
528.9561227128467
 31
0.0
  0
LINE
  5
E7D
330
1F
100
AcDbEntity
  8
0
100
AcDbLine
 10
2796.206078826329
 20
332.7380259360412
 30
0.0
 11
2878.206078826329
 21
332.7380259360412
 31
0.0
  0
LINE
  5
E7E
330
1F
100
AcDbEntity
  8
0
100
AcDbLine
 10
2879.206078826329
 20
333.7380259360413
 30
0.0
 11
2879.206078826329
 21
395.7380259360413
 31
0.0
  0
LINE
  5
E7F
330
1F
100
AcDbEntity
  8
0
100
AcDbLine
 10
2878.206078826329
 20
396.7380259360412
 30
0.0
 11
2796.206078826329
 21
396.7380259360412
 31
0.0
  0
CIRCLE
  5
E80
330
1F
100
AcDbEntity
  8
0
100
AcDbCircle
 10
2870.206078826329
 20
384.7380259360413
 30
0.0
 40
4.25
  0
CIRCLE
  5
E81
330
1F
100
AcDbEntity
  8
0
100
AcDbCircle
 10
2870.206078826329
 20
344.7380259360413
 30
0.0
 40
4.25
  0
CIRCLE
  5
E82
330
1F
100
AcDbEntity
  8
0
100
AcDbCircle
 10
2837.206078826329
 20
364.7380259360413
 30
0.0
 40
10.395
  0
LINE
  5
E83
330
1F
100
AcDbEntity
  8
0
100
AcDbLine
 10
2855.206078826329
 20
364.7380259360413
 30
0.0
 11
2855.206078826329
 21
383.7380259360413
 31
0.0
  0
LINE
  5
E84
330
1F
100
AcDbEntity
  8
0
100
AcDbLine
 10
2855.206078826329
 20
345.7380259360413
 30
0.0
 11
2855.206078826329
 21
364.7380259360413
 31
0.0
  0
LINE
  5
E85
330
1F
100
AcDbEntity
  8
0
100
AcDbLine
 10
2855.206078826329
 20
345.7380259360413
 30
0.0
 11
2797.206078826329
 21
345.7380259360413
 31
0.0
  0
LINE
  5
E86
330
1F
100
AcDbEntity
  8
0
100
AcDbLine
 10
2777.206078826329
 20
352.7380259360413
 30
0.0
 11
2777.206078826329
 21
376.7380259360412
 31
0.0
  0
LINE
  5
E87
330
1F
100
AcDbEntity
  8
0
100
AcDbLine
 10
2797.206078826329
 20
383.7380259360413
 30
0.0
 11
2855.206078826329
 21
383.7380259360413
 31
0.0
  0
CIRCLE
  5
E88
330
1F
100
AcDbEntity
  8
0
100
AcDbCircle
 10
2787.206078826329
 20
364.7380259360413
 30
0.0
 40
6.0
  0
LINE
  5
E89
330
1F
100
AcDbEntity
  8
0
100
AcDbLine
 10
2777.206078826329
 20
376.7380259360412
 30
0.0
 11
2797.206078826329
 21
383.7380259360413
 31
0.0
  0
LINE
  5
E8A
330
1F
100
AcDbEntity
  8
0
100
AcDbLine
 10
2777.206078826329
 20
352.7380259360413
 30
0.0
 11
2797.206078826329
 21
345.7380259360413
 31
0.0
  0
CIRCLE
  5
E8B
330
1F
100
AcDbEntity
  8
0
100
AcDbCircle
 10
2787.206078826329
 20
364.7380259360413
 30
0.0
 40
5.0
  0
CIRCLE
  5
E8C
330
1F
100
AcDbEntity
  8
0
100
AcDbCircle
 10
2837.206078826329
 20
364.7380259360413
 30
0.0
 40
9.240000000000001
  0
POLYLINE
  5
E8D
330
1F
100
AcDbEntity
  8
0
100
AcDb2dPolyline
 66
     1
 10
0.0
 20
0.0
 30
0.0
 70
     1
  0
VERTEX
  5
E8E
330
E8D
100
AcDbEntity
  8
0
100
AcDbVertex
100
AcDb2dVertex
 10
2821.642372874548
 20
364.7380259360413
 30
0.0
  0
VERTEX
  5
E8F
330
E8D
100
AcDbEntity
  8
0
100
AcDbVertex
100
AcDb2dVertex
 10
2829.424225850438
 20
351.2594612047675
 30
0.0
  0
VERTEX
  5
E90
330
E8D
100
AcDbEntity
  8
0
100
AcDbVertex
100
AcDb2dVertex
 10
2844.98793180222
 20
351.2594612047675
 30
0.0
  0
VERTEX
  5
E91
330
E8D
100
AcDbEntity
  8
0
100
AcDbVertex
100
AcDb2dVertex
 10
2852.769784778111
 20
364.7380259360413
 30
0.0
  0
VERTEX
  5
E92
330
E8D
100
AcDbEntity
  8
0
100
AcDbVertex
100
AcDb2dVertex
 10
2844.98793180222
 20
378.216590667315
 30
0.0
  0
VERTEX
  5
E93
330
E8D
100
AcDbEntity
  8
0
100
AcDbVertex
100
AcDb2dVertex
 10
2829.424225850438
 20
378.216590667315
 30
0.0
  0
SEQEND
  5
E94
330
E8D
100
AcDbEntity
  8
0
  0
ARC
  5
E99
330
1F
100
AcDbEntity
  8
0
100
AcDbCircle
 10
2804.206078826329
 20
344.7380259360413
 30
0.0
 40
4.25
100
AcDbArc
 50
166.3910393692152
 51
13.60896063078481
  0
ARC
  5
E9A
330
1F
100
AcDbEntity
  8
0
100
AcDbCircle
 10
2804.206078826329
 20
384.7380259360413
 30
0.0
 40
4.25
100
AcDbArc
 50
346.3910393692152
 51
193.6089606307848
  0
ARC
  5
E9B
330
1F
100
AcDbEntity
  8
0
100
AcDbCircle
 10
2837.206078826329
 20
364.7380259360413
 30
0.0
 40
30.0
100
AcDbArc
 50
219.2964802391991
 51
140.7035197608008
  0
LINE
  5
E9C
330
1F
100
AcDbEntity
  8
0
100
AcDbLine
 10
2795.206078826329
 20
395.7380259360413
 30
0.0
 11
2795.206078826329
 21
383.0380259360412
 31
0.0
  0
LINE
  5
E9D
330
1F
100
AcDbEntity
  8
0
100
AcDbLine
 10
2795.206078826329
 20
346.4380259360413
 30
0.0
 11
2795.206078826329
 21
333.7380259360413
 31
0.0
  0
LINE
  5
E9E
330
1F
100
AcDbEntity
  8
0
100
AcDbLine
 10
2795.206078826329
 20
395.7380259360413
 30
0.0
 11
2796.206078826329
 21
396.7380259360412
 31
0.0
  0
LINE
  5
E9F
330
1F
100
AcDbEntity
  8
0
100
AcDbLine
 10
2878.206078826329
 20
396.7380259360412
 30
0.0
 11
2879.206078826329
 21
395.7380259360413
 31
0.0
  0
LINE
  5
EA0
330
1F
100
AcDbEntity
  8
0
100
AcDbLine
 10
2878.206078826329
 20
332.7380259360412
 30
0.0
 11
2879.206078826329
 21
333.7380259360413
 31
0.0
  0
LINE
  5
EA1
330
1F
100
AcDbEntity
  8
0
100
AcDbLine
 10
2795.206078826329
 20
333.7380259360413
 30
0.0
 11
2796.206078826329
 21
332.7380259360412
 31
0.0
  0
ARC
  5
EA3
330
1F
100
AcDbEntity
  8
0
100
AcDbCircle
 10
2837.206078826329
 20
364.7380259360413
 30
0.0
 40
29.0
100
AcDbArc
 50
220.9327245741462
 51
139.0672754258538
  0
LINE
  5
EA4
330
1F
100
AcDbEntity
  8
0
100
AcDbLine
 10
2865.20617379079
 20
257.2730235218529
 30
0.0
 11
2809.20617379079
 21
257.2730235218529
 31
0.0
  0
LINE
  5
EA5
330
1F
100
AcDbEntity
  8
0
100
AcDbLine
 10
2796.20617379079
 20
159.2730235218529
 30
0.0
 11
2878.20617379079
 21
159.2730235218529
 31
0.0
  0
LINE
  5
EA6
330
1F
100
AcDbEntity
  8
0
100
AcDbLine
 10
2879.206173790791
 20
160.2730235218529
 30
0.0
 11
2879.206173790791
 21
176.2730235218529
 31
0.0
  0
LINE
  5
EA7
330
1F
100
AcDbEntity
  8
0
100
AcDbLine
 10
2795.20617379079
 20
176.2730235218529
 30
0.0
 11
2795.20617379079
 21
160.2730235218529
 31
0.0
  0
LINE
  5
EA8
330
1F
100
AcDbEntity
  8
0
100
AcDbLine
 10
2796.20617379079
 20
159.2730235218529
 30
0.0
 11
2795.20617379079
 21
160.2730235218529
 31
0.0
  0
LINE
  5
EA9
330
1F
100
AcDbEntity
  8
0
100
AcDbLine
 10
2878.20617379079
 20
159.2730235218529
 30
0.0
 11
2879.206173790791
 21
160.2730235218529
 31
0.0
  0
LINE
  5
EAA
330
1F
100
AcDbEntity
  8
0
100
AcDbLine
 10
2808.20617379079
 20
231.2730235218529
 30
0.0
 11
2866.20617379079
 21
231.2730235218529
 31
0.0
  0
LINE
  5
EAB
330
1F
100
AcDbEntity
  8
0
100
AcDbLine
 10
2807.20617379079
 20
230.2730235218529
 30
0.0
 11
2807.20617379079
 21
179.2730235218529
 31
0.0
  0
LINE
  5
EAC
330
1F
100
AcDbEntity
  8
0
100
AcDbLine
 10
2867.206173790791
 20
179.2730235218529
 30
0.0
 11
2867.206173790791
 21
230.2730235218529
 31
0.0
  0
LINE
  5
EAD
330
1F
100
AcDbEntity
  8
0
100
AcDbLine
 10
2807.20617379079
 20
230.2730235218529
 30
0.0
 11
2808.20617379079
 21
231.2730235218529
 31
0.0
  0
LINE
  5
EAE
330
1F
100
AcDbEntity
  8
0
100
AcDbLine
 10
2866.20617379079
 20
231.2730235218529
 30
0.0
 11
2867.206173790791
 21
230.2730235218529
 31
0.0
  0
LINE
  5
EAF
330
1F
100
AcDbEntity
  8
0
100
AcDbLine
 10
2866.20617379079
 20
177.2730235218529
 30
0.0
 11
2866.20617379079
 21
256.2730235218529
 31
0.0
  0
LINE
  5
EB0
330
1F
100
AcDbEntity
  8
0
100
AcDbLine
 10
2808.20617379079
 20
256.2730235218529
 30
0.0
 11
2808.20617379079
 21
177.2730235218529
 31
0.0
  0
LINE
  5
EB1
330
1F
100
AcDbEntity
  8
0
100
AcDbLine
 10
2824.70617379079
 20
293.273168170878
 30
0.0
 11
2824.70617379079
 21
257.273168170878
 31
0.0
  0
LINE
  5
EB2
330
1F
100
AcDbEntity
  8
0
100
AcDbLine
 10
2849.70617379079
 20
293.273168170878
 30
0.0
 11
2849.70617379079
 21
257.273168170878
 31
0.0
  0
LINE
  5
EB5
330
1F
100
AcDbEntity
  8
0
100
AcDbLine
 10
2808.20617379079
 20
256.2730235218529
 30
0.0
 11
2809.20617379079
 21
257.2730235218529
 31
0.0
  0
LINE
  5
EB6
330
1F
100
AcDbEntity
  8
0
100
AcDbLine
 10
2865.20617379079
 20
257.2730235218529
 30
0.0
 11
2866.20617379079
 21
256.2730235218529
 31
0.0
  0
LINE
  5
EB8
330
1F
100
AcDbEntity
  8
0
100
AcDbLine
 10
2825.913907228653
 20
317.0731681708779
 30
0.0
 11
2848.498440352928
 21
317.0731681708779
 31
0.0
  0
LINE
  5
EB9
330
1F
100
AcDbEntity
  8
0
100
AcDbLine
 10
2777.206173790791
 20
311.273168170878
 30
0.0
 11
2777.206173790791
 21
294.273168170878
 31
0.0
  0
LINE
  5
EBA
330
1F
100
AcDbEntity
  8
0
100
AcDbLine
 10
2855.20617379079
 20
311.273168170878
 30
0.0
 11
2855.20617379079
 21
294.273168170878
 31
0.0
  0
LINE
  5
EBB
330
1F
100
AcDbEntity
  8
0
100
AcDbLine
 10
2854.206173790791
 20
293.273168170878
 30
0.0
 11
2855.20617379079
 21
294.273168170878
 31
0.0
  0
LINE
  5
EBC
330
1F
100
AcDbEntity
  8
0
100
AcDbLine
 10
2855.20617379079
 20
311.273168170878
 30
0.0
 11
2854.206173790791
 21
312.273168170878
 31
0.0
  0
LINE
  5
EBE
330
1F
100
AcDbEntity
  8
0
  6
HIDDEN
 62
     3
 48
0.5
100
AcDbLine
 10
2793.20617379079
 20
293.273168170878
 30
0.0
 11
2793.20617379079
 21
312.273168170878
 31
0.0
  0
LINE
  5
EBF
330
1F
100
AcDbEntity
  8
0
  6
HIDDEN
 62
     3
 48
0.5
100
AcDbLine
 10
2781.206173790791
 20
293.273168170878
 30
0.0
 11
2781.206173790791
 21
312.273168170878
 31
0.0
  0
LINE
  5
EC0
330
1F
100
AcDbEntity
  8
0
  6
HIDDEN
 62
     3
 48
0.5
100
AcDbLine
 10
2792.20617379079
 20
293.273168170878
 30
0.0
 11
2792.20617379079
 21
312.273168170878
 31
0.0
  0
LINE
  5
EC1
330
1F
100
AcDbEntity
  8
0
  6
HIDDEN
 62
     3
 48
0.5
100
AcDbLine
 10
2782.20617379079
 20
293.273168170878
 30
0.0
 11
2782.20617379079
 21
312.273168170878
 31
0.0
  0
LINE
  5
EC2
330
1F
100
AcDbEntity
  8
0
100
AcDbLine
 10
2844.596257236418
 20
316.273168170878
 30
0.0
 11
2844.596257236418
 21
312.273168170878
 31
0.0
  0
LINE
  5
EC3
330
1F
100
AcDbEntity
  8
0
100
AcDbLine
 10
2851.986340682044
 20
316.273168170878
 30
0.0
 11
2851.986340682044
 21
312.273168170878
 31
0.0
  0
LINE
  5
EC4
330
1F
100
AcDbEntity
  8
0
100
AcDbLine
 10
2829.816090345163
 20
316.273168170878
 30
0.0
 11
2829.816090345163
 21
312.273168170878
 31
0.0
  0
LINE
  5
EC5
330
1F
100
AcDbEntity
  8
0
100
AcDbLine
 10
2822.426006899536
 20
316.273168170878
 30
0.0
 11
2822.426006899536
 21
312.273168170878
 31
0.0
  0
ARC
  5
EC6
330
1F
100
AcDbEntity
  8
0
100
AcDbCircle
 10
2837.20617379079
 20
282.5398348375446
 30
0.0
 40
34.53333333333334
100
AcDbArc
 50
77.64321860963161
 51
102.3567813903684
  0
ARC
  5
EC7
330
1F
100
AcDbEntity
  8
0
100
AcDbCircle
 10
2826.121048622349
 20
308.1666520606587
 30
0.0
 40
8.908924557912527
100
AcDbArc
 50
65.49596495353821
 51
114.5040350464618
  0
ARC
  5
EC8
330
1F
100
AcDbEntity
  8
0
100
AcDbCircle
 10
2848.291298959231
 20
308.1666520606587
 30
0.0
 40
8.908924557912527
100
AcDbArc
 50
65.49596495353821
 51
114.5040350464618
  0
LINE
  5
ECA
330
1F
100
AcDbEntity
  8
0
100
AcDbLine
 10
2777.206173790791
 20
311.273168170878
 30
0.0
 11
2778.206173790791
 21
312.273168170878
 31
0.0
  0
LINE
  5
ECB
330
1F
100
AcDbEntity
  8
0
100
AcDbLine
 10
2777.206173790791
 20
294.273168170878
 30
0.0
 11
2778.206173790791
 21
293.273168170878
 31
0.0
  0
LINE
  5
ECC
330
1F
100
AcDbEntity
  8
0
100
AcDbLine
 10
2778.206173790791
 20
312.273168170878
 30
0.0
 11
2854.206173790791
 21
312.273168170878
 31
0.0
  0
LINE
  5
ECD
330
1F
100
AcDbEntity
  8
0
100
AcDbLine
 10
2778.206173790791
 20
293.273168170878
 30
0.0
 11
2854.206173790791
 21
293.273168170878
 31
0.0
  0
LINE
  5
ECE
330
1F
100
AcDbEntity
  8
0
100
AcDbLine
 10
2797.841962652586
 20
312.273168170878
 30
0.0
 11
2797.841962652586
 21
293.273168170878
 31
0.0
  0
LINE
  5
ED0
330
1F
100
AcDbEntity
  8
0
100
AcDbLine
 10
2796.20617379079
 20
177.2730235218529
 30
0.0
 11
2878.20617379079
 21
177.2730235218529
 31
0.0
  0
LINE
  5
ED1
330
1F
100
AcDbEntity
  8
0
100
AcDbLine
 10
2796.20617379079
 20
177.2730235218529
 30
0.0
 11
2878.20617379079
 21
177.2730235218529
 31
0.0
  0
LINE
  5
ED2
330
1F
100
AcDbEntity
  8
0
100
AcDbLine
 10
2808.20617379079
 20
178.2730235218529
 30
0.0
 11
2866.20617379079
 21
178.2730235218529
 31
0.0
  0
LINE
  5
ED3
330
1F
100
AcDbEntity
  8
0
100
AcDbLine
 10
2807.20617379079
 20
179.2730235218529
 30
0.0
 11
2808.20617379079
 21
178.2730235218529
 31
0.0
  0
LINE
  5
ED4
330
1F
100
AcDbEntity
  8
0
100
AcDbLine
 10
2867.206173790791
 20
179.2730235218529
 30
0.0
 11
2866.20617379079
 21
178.2730235218529
 31
0.0
  0
LINE
  5
ED5
330
1F
100
AcDbEntity
  8
0
100
AcDbLine
 10
2796.20617379079
 20
177.2730235218529
 30
0.0
 11
2795.20617379079
 21
176.2730235218529
 31
0.0
  0
LINE
  5
ED6
330
1F
100
AcDbEntity
  8
0
100
AcDbLine
 10
2878.20617379079
 20
177.2730235218529
 30
0.0
 11
2879.206173790791
 21
176.2730235218529
 31
0.0
  0
LINE
  5
ED7
330
1F
100
AcDbEntity
  8
0
  6
HIDDEN
 62
     3
 48
0.5
100
AcDbLine
 10
2808.948212669282
 20
595.1063893403663
 30
0.0
 11
2819.904228603218
 21
595.1063893403663
 31
0.0
  0
LINE
  5
ED8
330
1F
100
AcDbEntity
  8
0
  6
HIDDEN
 62
     3
 48
0.5
100
AcDbLine
 10
2809.425463216108
 20
585.6063893403663
 30
0.0
 11
2819.904228603218
 21
585.6063893403663
 31
0.0
  0
LINE
  5
ED9
330
1F
100
AcDbEntity
  8
0
  6
HIDDEN
 62
     3
 48
0.5
100
AcDbLine
 10
2809.425463216108
 20
586.6063893403663
 30
0.0
 11
2819.904228603218
 21
586.6063893403663
 31
0.0
  0
LINE
  5
EDA
330
1F
100
AcDbEntity
  8
0
  6
HIDDEN
 62
     3
 48
0.5
100
AcDbLine
 10
2808.948212669282
 20
594.1063893403663
 30
0.0
 11
2819.904228603218
 21
594.1063893403663
 31
0.0
  0
LINE
  5
EDB
330
1F
100
AcDbEntity
  8
0
  6
HIDDEN
 62
     3
 48
0.5
100
AcDbLine
 10
2868.557960761546
 20
524.8654924939232
 30
0.0
 11
2879.513976695482
 21
524.8654924939232
 31
0.0
  0
LINE
  5
EDC
330
1F
100
AcDbEntity
  8
0
  6
HIDDEN
 62
     3
 48
0.5
100
AcDbLine
 10
2869.035211308371
 20
515.3654924939233
 30
0.0
 11
2879.513976695482
 21
515.3654924939233
 31
0.0
  0
LINE
  5
EDD
330
1F
100
AcDbEntity
  8
0
  6
HIDDEN
 62
     3
 48
0.5
100
AcDbLine
 10
2869.035211308371
 20
516.3654924939232
 30
0.0
 11
2879.513976695482
 21
516.3654924939232
 31
0.0
  0
LINE
  5
EDE
330
1F
100
AcDbEntity
  8
0
  6
HIDDEN
 62
     3
 48
0.5
100
AcDbLine
 10
2868.557960761546
 20
523.8654924939233
 30
0.0
 11
2879.513976695482
 21
523.8654924939233
 31
0.0
  0
LINE
  5
EDF
330
1F
100
AcDbEntity
  8
0
  6
HIDDEN
 62
     3
 48
0.5
100
AcDbLine
 10
2868.120864462675
 20
174.4924127263592
 30
0.0
 11
2879.076880396612
 21
174.4924127263592
 31
0.0
  0
LINE
  5
EE0
330
1F
100
AcDbEntity
  8
0
  6
HIDDEN
 62
     3
 48
0.5
100
AcDbLine
 10
2868.598115009501
 20
164.9924127263592
 30
0.0
 11
2879.076880396612
 21
164.9924127263592
 31
0.0
  0
LINE
  5
EE1
330
1F
100
AcDbEntity
  8
0
  6
HIDDEN
 62
     3
 48
0.5
100
AcDbLine
 10
2868.598115009501
 20
165.9924127263592
 30
0.0
 11
2879.076880396612
 21
165.9924127263592
 31
0.0
  0
LINE
  5
EE2
330
1F
100
AcDbEntity
  8
0
  6
HIDDEN
 62
     3
 48
0.5
100
AcDbLine
 10
2868.120864462675
 20
173.4924127263592
 30
0.0
 11
2879.076880396612
 21
173.4924127263592
 31
0.0
  0
LINE
  5
EF0
330
1F
100
AcDbEntity
  8
AM_7
100
AcDbLine
 10
2787.20617379079
 20
656.9562673618718
 30
0.0
 11
2787.20617379079
 21
633.9562673618718
 31
0.0
1001
GENIUS_GENOBJ-N-CEN_13
1002
{
1000
OWNER
1000
GEN
1002
}
1001
GENIUS_GENODEF_13
1002
{
1000
HIER
1070
     0
1002
}
1002
{
1000
MANEDIT
1070
     0
1002
}
1002
{
1000
NOSEL
1070
     0
1002
}
1002
{
1000
BEHIND
1070
     0
1002
}
1002
{
1000
OTHER
1070
     0
1002
}
1002
{
1000
REACTOR
1002
}
1001
GENIUS_GENCEN_19
1002
{
1040
2.0
1002
}
  0
LINE
  5
EFD
330
1F
100
AcDbEntity
  8
AM_7
100
AcDbLine
 10
2837.206173790791
 20
661.7562673618717
 30
0.0
 11
2837.20617379079
 21
506.9561227128467
 31
0.0
1001
GENIUS_GENODEF_13
1002
{
1000
HIER
1070
     0
1002
}
1002
{
1000
MANEDIT
1070
     0
1002
}
1002
{
1000
NOSEL
1070
     0
1002
}
1002
{
1000
BEHIND
1070
     0
1002
}
1002
{
1000
OTHER
1070
     0
1002
}
1002
{
1000
REACTOR
1002
}
1001
GENIUS_GENOBJ-N-CEN_13
1002
{
1000
OWNER
1000
GEN
1002
}
1001
GENIUS_GENCEN_19
1002
{
1040
2.0
1002
}
  0
LINE
  5
F0A
330
1F
100
AcDbEntity
  8
AM_7
100
AcDbLine
 10
2787.20617379079
 20
314.273168170878
 30
0.0
 11
2787.20617379079
 21
291.273168170878
 31
0.0
1001
GENIUS_GENODEF_13
1002
{
1000
HIER
1070
     0
1002
}
1002
{
1000
MANEDIT
1070
     0
1002
}
1002
{
1000
NOSEL
1070
     0
1002
}
1002
{
1000
BEHIND
1070
     0
1002
}
1002
{
1000
OTHER
1070
     0
1002
}
1002
{
1000
REACTOR
1002
}
1001
GENIUS_GENOBJ-N-CEN_13
1002
{
1000
OWNER
1000
GEN
1002
}
1001
GENIUS_GENCEN_19
1002
{
1040
2.0
1002
}
  0
LINE
  5
F17
330
1F
100
AcDbEntity
  8
AM_7
100
AcDbLine
 10
2837.20617379079
 20
319.0731681708779
 30
0.0
 11
2837.20617379079
 21
157.2730235218529
 31
0.0
1001
GENIUS_GENODEF_13
1002
{
1000
HIER
1070
     0
1002
}
1002
{
1000
MANEDIT
1070
     0
1002
}
1002
{
1000
NOSEL
1070
     0
1002
}
1002
{
1000
BEHIND
1070
     0
1002
}
1002
{
1000
OTHER
1070
     0
1002
}
1002
{
1000
REACTOR
1002
}
1001
GENIUS_GENOBJ-N-CEN_13
1002
{
1000
OWNER
1000
GEN
1002
}
1001
GENIUS_GENCEN_19
1002
{
1040
2.0
1002
}
  0
CIRCLE
  5
F1A
330
1F
100
AcDbEntity
  8
0
100
AcDbCircle
 10
2819.966212326225
 20
169.5599215494115
 30
0.0
 40
4.75
  0
CIRCLE
  5
F1B
330
1F
100
AcDbEntity
  8
0
100
AcDbCircle
 10
2819.966212326225
 20
169.5599215494115
 30
0.0
 40
3.75
  0
LINE
  5
F29
330
1F
100
AcDbEntity
  8
AM_7
  6
AM_ISO08W050x2
100
AcDbLine
 10
2819.966212326225
 20
169.5599215494115
 30
0.0
 11
2826.716212326224
 21
169.5599215494115
 31
0.0
1001
GENIUS_GENOREF_13
1005
F2D
  0
LINE
  5
F2A
330
1F
100
AcDbEntity
  8
AM_7
  6
AM_ISO08W050x2
100
AcDbLine
 10
2819.966212326225
 20
169.5599215494115
 30
0.0
 11
2819.966212326225
 21
176.3099215494115
 31
0.0
1001
GENIUS_GENOREF_13
1005
F2D
  0
LINE
  5
F2B
330
1F
100
AcDbEntity
  8
AM_7
  6
AM_ISO08W050x2
100
AcDbLine
 10
2819.966212326225
 20
169.5599215494115
 30
0.0
 11
2813.216212326225
 21
169.5599215494115
 31
0.0
1001
GENIUS_GENOREF_13
1005
F2D
  0
LINE
  5
F2C
330
1F
100
AcDbEntity
  8
AM_7
  6
AM_ISO08W050x2
100
AcDbLine
 10
2819.966212326225
 20
169.5599215494115
 30
0.0
 11
2819.966212326225
 21
162.8099215494115
 31
0.0
1001
GENIUS_GENOREF_13
1005
F2D
  0
POINT
  5
F2D
330
1F
100
AcDbEntity
  8
0
 60
     1
100
AcDbPoint
 10
0.0
 20
0.0
 30
0.0
1001
GENIUS_GENOLIS_13
1002
{
1000
ENT
1005
F2C
1005
F2B
1005
F2A
1005
F29
1002
}
1001
GENIUS_GENODEF_13
1002
{
1000
HIER
1070
    10
1002
}
1002
{
1000
MANEDIT
1070
     0
1002
}
1002
{
1000
NOSEL
1070
     0
1002
}
1002
{
1000
BEHIND
1070
     0
1002
}
1002
{
1000
OTHER
1070
     0
1002
}
1002
{
1000
REACTOR
1002
}
1001
GENIUS_GENOENT_13
1002
{
1000
MYREF
1005
F2D
1002
}
1002
{
1000
GRP
1005
0
1002
}
1001
GENIUS_GENOBJ-N-CRS_13
1002
{
1000
OWNER
1000
GEN
1002
}
  0
LINE
  5
F45
330
1F
100
AcDbEntity
  8
AM_7
  6
AM_ISO08W050x2
100
AcDbLine
 10
2870.206078826329
 20
694.4211251270351
 30
0.0
 11
2876.456078826329
 21
694.4211251270351
 31
0.0
1001
GENIUS_GENOREF_13
1005
F49
  0
LINE
  5
F46
330
1F
100
AcDbEntity
  8
AM_7
  6
AM_ISO08W050x2
100
AcDbLine
 10
2870.206078826329
 20
694.4211251270351
 30
0.0
 11
2870.206078826329
 21
700.6711251270351
 31
0.0
1001
GENIUS_GENOREF_13
1005
F49
  0
LINE
  5
F47
330
1F
100
AcDbEntity
  8
AM_7
  6
AM_ISO08W050x2
100
AcDbLine
 10
2870.206078826329
 20
694.4211251270351
 30
0.0
 11
2863.956078826329
 21
694.4211251270351
 31
0.0
1001
GENIUS_GENOREF_13
1005
F49
  0
LINE
  5
F48
330
1F
100
AcDbEntity
  8
AM_7
  6
AM_ISO08W050x2
100
AcDbLine
 10
2870.206078826329
 20
694.4211251270351
 30
0.0
 11
2870.206078826329
 21
688.1711251270351
 31
0.0
1001
GENIUS_GENOREF_13
1005
F49
  0
POINT
  5
F49
330
1F
100
AcDbEntity
  8
0
 60
     1
100
AcDbPoint
 10
0.0
 20
0.0
 30
0.0
1001
GENIUS_GENOENT_13
1002
{
1000
MYREF
1005
F49
1002
}
1002
{
1000
GRP
1005
0
1002
}
1001
GENIUS_GENOBJ-N-CRS_13
1002
{
1000
OWNER
1000
GEN
1002
}
1001
GENIUS_GENOLIS_13
1002
{
1000
ENT
1005
F48
1005
F47
1005
F46
1005
F45
1002
}
1001
GENIUS_GENODEF_13
1002
{
1000
HIER
1070
    10
1002
}
1002
{
1000
MANEDIT
1070
     0
1002
}
1002
{
1000
NOSEL
1070
     0
1002
}
1002
{
1000
BEHIND
1070
     0
1002
}
1002
{
1000
OTHER
1070
     0
1002
}
1002
{
1000
REACTOR
1002
}
  0
LINE
  5
F57
330
1F
100
AcDbEntity
  8
AM_7
  6
AM_ISO08W050x2
100
AcDbLine
 10
2870.206078826329
 20
734.4211251270351
 30
0.0
 11
2876.456078826329
 21
734.4211251270351
 31
0.0
1001
GENIUS_GENOREF_13
1005
F5B
  0
LINE
  5
F58
330
1F
100
AcDbEntity
  8
AM_7
  6
AM_ISO08W050x2
100
AcDbLine
 10
2870.206078826329
 20
734.4211251270351
 30
0.0
 11
2870.206078826329
 21
740.6711251270351
 31
0.0
1001
GENIUS_GENOREF_13
1005
F5B
  0
LINE
  5
F59
330
1F
100
AcDbEntity
  8
AM_7
  6
AM_ISO08W050x2
100
AcDbLine
 10
2870.206078826329
 20
734.4211251270351
 30
0.0
 11
2863.956078826329
 21
734.4211251270351
 31
0.0
1001
GENIUS_GENOREF_13
1005
F5B
  0
LINE
  5
F5A
330
1F
100
AcDbEntity
  8
AM_7
  6
AM_ISO08W050x2
100
AcDbLine
 10
2870.206078826329
 20
734.4211251270351
 30
0.0
 11
2870.206078826329
 21
728.1711251270351
 31
0.0
1001
GENIUS_GENOREF_13
1005
F5B
  0
POINT
  5
F5B
330
1F
100
AcDbEntity
  8
0
 60
     1
100
AcDbPoint
 10
0.0
 20
0.0
 30
0.0
1001
GENIUS_GENOLIS_13
1002
{
1000
ENT
1005
F5A
1005
F59
1005
F58
1005
F57
1002
}
1001
GENIUS_GENOBJ-N-CRS_13
1002
{
1000
OWNER
1000
GEN
1002
}
1001
GENIUS_GENOENT_13
1002
{
1000
MYREF
1005
F5B
1002
}
1002
{
1000
GRP
1005
0
1002
}
1001
GENIUS_GENODEF_13
1002
{
1000
HIER
1070
    10
1002
}
1002
{
1000
MANEDIT
1070
     0
1002
}
1002
{
1000
NOSEL
1070
     0
1002
}
1002
{
1000
BEHIND
1070
     0
1002
}
1002
{
1000
OTHER
1070
     0
1002
}
1002
{
1000
REACTOR
1002
}
  0
LINE
  5
F69
330
1F
100
AcDbEntity
  8
AM_7
  6
AM_ISO08W050x2
100
AcDbLine
 10
2804.206078826329
 20
734.4211251270351
 30
0.0
 11
2810.456078826329
 21
734.4211251270351
 31
0.0
1001
GENIUS_GENOREF_13
1005
F6D
  0
LINE
  5
F6A
330
1F
100
AcDbEntity
  8
AM_7
  6
AM_ISO08W050x2
100
AcDbLine
 10
2804.206078826329
 20
734.4211251270351
 30
0.0
 11
2804.206078826329
 21
740.6711251270351
 31
0.0
1001
GENIUS_GENOREF_13
1005
F6D
  0
LINE
  5
F6B
330
1F
100
AcDbEntity
  8
AM_7
  6
AM_ISO08W050x2
100
AcDbLine
 10
2804.206078826329
 20
734.4211251270351
 30
0.0
 11
2797.95607882633
 21
734.4211251270351
 31
0.0
1001
GENIUS_GENOREF_13
1005
F6D
  0
LINE
  5
F6C
330
1F
100
AcDbEntity
  8
AM_7
  6
AM_ISO08W050x2
100
AcDbLine
 10
2804.206078826329
 20
734.4211251270351
 30
0.0
 11
2804.206078826329
 21
728.1711251270351
 31
0.0
1001
GENIUS_GENOREF_13
1005
F6D
  0
POINT
  5
F6D
330
1F
100
AcDbEntity
  8
0
 60
     1
100
AcDbPoint
 10
0.0
 20
0.0
 30
0.0
1001
GENIUS_GENODEF_13
1002
{
1000
HIER
1070
    10
1002
}
1002
{
1000
MANEDIT
1070
     0
1002
}
1002
{
1000
NOSEL
1070
     0
1002
}
1002
{
1000
BEHIND
1070
     0
1002
}
1002
{
1000
OTHER
1070
     0
1002
}
1002
{
1000
REACTOR
1002
}
1001
GENIUS_GENOBJ-N-CRS_13
1002
{
1000
OWNER
1000
GEN
1002
}
1001
GENIUS_GENOLIS_13
1002
{
1000
ENT
1005
F6C
1005
F6B
1005
F6A
1005
F69
1002
}
1001
GENIUS_GENOENT_13
1002
{
1000
MYREF
1005
F6D
1002
}
1002
{
1000
GRP
1005
0
1002
}
  0
LINE
  5
F7B
330
1F
100
AcDbEntity
  8
AM_7
  6
AM_ISO08W050x2
100
AcDbLine
 10
2804.206078826329
 20
694.4211251270351
 30
0.0
 11
2810.456078826329
 21
694.4211251270351
 31
0.0
1001
GENIUS_GENOREF_13
1005
F7F
  0
LINE
  5
F7C
330
1F
100
AcDbEntity
  8
AM_7
  6
AM_ISO08W050x2
100
AcDbLine
 10
2804.206078826329
 20
694.4211251270351
 30
0.0
 11
2804.206078826329
 21
700.6711251270351
 31
0.0
1001
GENIUS_GENOREF_13
1005
F7F
  0
LINE
  5
F7D
330
1F
100
AcDbEntity
  8
AM_7
  6
AM_ISO08W050x2
100
AcDbLine
 10
2804.206078826329
 20
694.4211251270351
 30
0.0
 11
2797.95607882633
 21
694.4211251270351
 31
0.0
1001
GENIUS_GENOREF_13
1005
F7F
  0
LINE
  5
F7E
330
1F
100
AcDbEntity
  8
AM_7
  6
AM_ISO08W050x2
100
AcDbLine
 10
2804.206078826329
 20
694.4211251270351
 30
0.0
 11
2804.206078826329
 21
688.1711251270351
 31
0.0
1001
GENIUS_GENOREF_13
1005
F7F
  0
POINT
  5
F7F
330
1F
100
AcDbEntity
  8
0
 60
     1
100
AcDbPoint
 10
0.0
 20
0.0
 30
0.0
1001
GENIUS_GENODEF_13
1002
{
1000
HIER
1070
    10
1002
}
1002
{
1000
MANEDIT
1070
     0
1002
}
1002
{
1000
NOSEL
1070
     0
1002
}
1002
{
1000
BEHIND
1070
     0
1002
}
1002
{
1000
OTHER
1070
     0
1002
}
1002
{
1000
REACTOR
1002
}
1001
GENIUS_GENOLIS_13
1002
{
1000
ENT
1005
F7E
1005
F7D
1005
F7C
1005
F7B
1002
}
1001
GENIUS_GENOENT_13
1002
{
1000
MYREF
1005
F7F
1002
}
1002
{
1000
GRP
1005
0
1002
}
1001
GENIUS_GENOBJ-N-CRS_13
1002
{
1000
OWNER
1000
GEN
1002
}
  0
LINE
  5
F8D
330
1F
100
AcDbEntity
  8
AM_7
  6
AM_ISO08W050x2
100
AcDbLine
 10
2787.20607882633
 20
714.4211251270351
 30
0.0
 11
2795.206078826329
 21
714.4211251270351
 31
0.0
1001
GENIUS_GENOREF_13
1005
F91
  0
LINE
  5
F8E
330
1F
100
AcDbEntity
  8
AM_7
  6
AM_ISO08W050x2
100
AcDbLine
 10
2787.20607882633
 20
714.4211251270351
 30
0.0
 11
2787.20607882633
 21
722.4211251270351
 31
0.0
1001
GENIUS_GENOREF_13
1005
F91
  0
LINE
  5
F8F
330
1F
100
AcDbEntity
  8
AM_7
  6
AM_ISO08W050x2
100
AcDbLine
 10
2787.20607882633
 20
714.4211251270351
 30
0.0
 11
2779.206078826329
 21
714.4211251270351
 31
0.0
1001
GENIUS_GENOREF_13
1005
F91
  0
LINE
  5
F90
330
1F
100
AcDbEntity
  8
AM_7
  6
AM_ISO08W050x2
100
AcDbLine
 10
2787.20607882633
 20
714.4211251270351
 30
0.0
 11
2787.20607882633
 21
706.4211251270351
 31
0.0
1001
GENIUS_GENOREF_13
1005
F91
  0
POINT
  5
F91
330
1F
100
AcDbEntity
  8
0
 60
     1
100
AcDbPoint
 10
0.0
 20
0.0
 30
0.0
1001
GENIUS_GENOBJ-N-CRS_13
1002
{
1000
OWNER
1000
GEN
1002
}
1001
GENIUS_GENODEF_13
1002
{
1000
HIER
1070
    10
1002
}
1002
{
1000
MANEDIT
1070
     0
1002
}
1002
{
1000
NOSEL
1070
     0
1002
}
1002
{
1000
BEHIND
1070
     0
1002
}
1002
{
1000
OTHER
1070
     0
1002
}
1002
{
1000
REACTOR
1002
}
1001
GENIUS_GENOLIS_13
1002
{
1000
ENT
1005
F90
1005
F8F
1005
F8E
1005
F8D
1002
}
1001
GENIUS_GENOENT_13
1002
{
1000
MYREF
1005
F91
1002
}
1002
{
1000
GRP
1005
0
1002
}
  0
LINE
  5
FC3
330
1F
100
AcDbEntity
  8
AM_7
  6
AM_ISO08W050x2
100
AcDbLine
 10
2870.206078826329
 20
344.7380259360413
 30
0.0
 11
2876.456078826329
 21
344.7380259360413
 31
0.0
1001
GENIUS_GENOREF_13
1005
FC7
  0
LINE
  5
FC4
330
1F
100
AcDbEntity
  8
AM_7
  6
AM_ISO08W050x2
100
AcDbLine
 10
2870.206078826329
 20
344.7380259360413
 30
0.0
 11
2870.206078826329
 21
350.9880259360413
 31
0.0
1001
GENIUS_GENOREF_13
1005
FC7
  0
LINE
  5
FC5
330
1F
100
AcDbEntity
  8
AM_7
  6
AM_ISO08W050x2
100
AcDbLine
 10
2870.206078826329
 20
344.7380259360413
 30
0.0
 11
2863.956078826329
 21
344.7380259360413
 31
0.0
1001
GENIUS_GENOREF_13
1005
FC7
  0
LINE
  5
FC6
330
1F
100
AcDbEntity
  8
AM_7
  6
AM_ISO08W050x2
100
AcDbLine
 10
2870.206078826329
 20
344.7380259360413
 30
0.0
 11
2870.206078826329
 21
338.4880259360413
 31
0.0
1001
GENIUS_GENOREF_13
1005
FC7
  0
POINT
  5
FC7
330
1F
100
AcDbEntity
  8
0
 60
     1
100
AcDbPoint
 10
0.0
 20
0.0
 30
0.0
1001
GENIUS_GENOLIS_13
1002
{
1000
ENT
1005
FC6
1005
FC5
1005
FC4
1005
FC3
1002
}
1001
GENIUS_GENOENT_13
1002
{
1000
MYREF
1005
FC7
1002
}
1002
{
1000
GRP
1005
0
1002
}
1001
GENIUS_GENOBJ-N-CRS_13
1002
{
1000
OWNER
1000
GEN
1002
}
1001
GENIUS_GENODEF_13
1002
{
1000
HIER
1070
    10
1002
}
1002
{
1000
MANEDIT
1070
     0
1002
}
1002
{
1000
NOSEL
1070
     0
1002
}
1002
{
1000
BEHIND
1070
     0
1002
}
1002
{
1000
OTHER
1070
     0
1002
}
1002
{
1000
REACTOR
1002
}
  0
LINE
  5
FD5
330
1F
100
AcDbEntity
  8
AM_7
  6
AM_ISO08W050x2
100
AcDbLine
 10
2870.206078826329
 20
384.7380259360413
 30
0.0
 11
2876.456078826329
 21
384.7380259360413
 31
0.0
1001
GENIUS_GENOREF_13
1005
FD9
  0
LINE
  5
FD6
330
1F
100
AcDbEntity
  8
AM_7
  6
AM_ISO08W050x2
100
AcDbLine
 10
2870.206078826329
 20
384.7380259360413
 30
0.0
 11
2870.206078826329
 21
390.9880259360413
 31
0.0
1001
GENIUS_GENOREF_13
1005
FD9
  0
LINE
  5
FD7
330
1F
100
AcDbEntity
  8
AM_7
  6
AM_ISO08W050x2
100
AcDbLine
 10
2870.206078826329
 20
384.7380259360413
 30
0.0
 11
2863.956078826329
 21
384.7380259360413
 31
0.0
1001
GENIUS_GENOREF_13
1005
FD9
  0
LINE
  5
FD8
330
1F
100
AcDbEntity
  8
AM_7
  6
AM_ISO08W050x2
100
AcDbLine
 10
2870.206078826329
 20
384.7380259360413
 30
0.0
 11
2870.206078826329
 21
378.4880259360412
 31
0.0
1001
GENIUS_GENOREF_13
1005
FD9
  0
POINT
  5
FD9
330
1F
100
AcDbEntity
  8
0
 60
     1
100
AcDbPoint
 10
0.0
 20
0.0
 30
0.0
1001
GENIUS_GENOLIS_13
1002
{
1000
ENT
1005
FD8
1005
FD7
1005
FD6
1005
FD5
1002
}
1001
GENIUS_GENODEF_13
1002
{
1000
HIER
1070
    10
1002
}
1002
{
1000
MANEDIT
1070
     0
1002
}
1002
{
1000
NOSEL
1070
     0
1002
}
1002
{
1000
BEHIND
1070
     0
1002
}
1002
{
1000
OTHER
1070
     0
1002
}
1002
{
1000
REACTOR
1002
}
1001
GENIUS_GENOENT_13
1002
{
1000
MYREF
1005
FD9
1002
}
1002
{
1000
GRP
1005
0
1002
}
1001
GENIUS_GENOBJ-N-CRS_13
1002
{
1000
OWNER
1000
GEN
1002
}
  0
LINE
  5
FE7
330
1F
100
AcDbEntity
  8
AM_7
  6
AM_ISO08W050x2
100
AcDbLine
 10
2804.206078826329
 20
384.7380259360413
 30
0.0
 11
2810.456078826329
 21
384.7380259360413
 31
0.0
1001
GENIUS_GENOREF_13
1005
FEB
  0
LINE
  5
FE8
330
1F
100
AcDbEntity
  8
AM_7
  6
AM_ISO08W050x2
100
AcDbLine
 10
2804.206078826329
 20
384.7380259360413
 30
0.0
 11
2804.206078826329
 21
390.9880259360413
 31
0.0
1001
GENIUS_GENOREF_13
1005
FEB
  0
LINE
  5
FE9
330
1F
100
AcDbEntity
  8
AM_7
  6
AM_ISO08W050x2
100
AcDbLine
 10
2804.206078826329
 20
384.7380259360413
 30
0.0
 11
2797.956078826329
 21
384.7380259360413
 31
0.0
1001
GENIUS_GENOREF_13
1005
FEB
  0
LINE
  5
FEA
330
1F
100
AcDbEntity
  8
AM_7
  6
AM_ISO08W050x2
100
AcDbLine
 10
2804.206078826329
 20
384.7380259360413
 30
0.0
 11
2804.206078826329
 21
378.4880259360412
 31
0.0
1001
GENIUS_GENOREF_13
1005
FEB
  0
POINT
  5
FEB
330
1F
100
AcDbEntity
  8
0
 60
     1
100
AcDbPoint
 10
0.0
 20
0.0
 30
0.0
1001
GENIUS_GENOLIS_13
1002
{
1000
ENT
1005
FEA
1005
FE9
1005
FE8
1005
FE7
1002
}
1001
GENIUS_GENOENT_13
1002
{
1000
MYREF
1005
FEB
1002
}
1002
{
1000
GRP
1005
0
1002
}
1001
GENIUS_GENOBJ-N-CRS_13
1002
{
1000
OWNER
1000
GEN
1002
}
1001
GENIUS_GENODEF_13
1002
{
1000
HIER
1070
    10
1002
}
1002
{
1000
MANEDIT
1070
     0
1002
}
1002
{
1000
NOSEL
1070
     0
1002
}
1002
{
1000
BEHIND
1070
     0
1002
}
1002
{
1000
OTHER
1070
     0
1002
}
1002
{
1000
REACTOR
1002
}
  0
LINE
  5
FF9
330
1F
100
AcDbEntity
  8
AM_7
  6
AM_ISO08W050x2
100
AcDbLine
 10
2787.206078826329
 20
364.7380259360413
 30
0.0
 11
2795.206078826329
 21
364.7380259360413
 31
0.0
1001
GENIUS_GENOREF_13
1005
FFD
  0
LINE
  5
FFA
330
1F
100
AcDbEntity
  8
AM_7
  6
AM_ISO08W050x2
100
AcDbLine
 10
2787.206078826329
 20
364.7380259360413
 30
0.0
 11
2787.206078826329
 21
372.7380259360412
 31
0.0
1001
GENIUS_GENOREF_13
1005
FFD
  0
LINE
  5
FFB
330
1F
100
AcDbEntity
  8
AM_7
  6
AM_ISO08W050x2
100
AcDbLine
 10
2787.206078826329
 20
364.7380259360413
 30
0.0
 11
2779.206078826329
 21
364.7380259360413
 31
0.0
1001
GENIUS_GENOREF_13
1005
FFD
  0
LINE
  5
FFC
330
1F
100
AcDbEntity
  8
AM_7
  6
AM_ISO08W050x2
100
AcDbLine
 10
2787.206078826329
 20
364.7380259360413
 30
0.0
 11
2787.206078826329
 21
356.7380259360413
 31
0.0
1001
GENIUS_GENOREF_13
1005
FFD
  0
POINT
  5
FFD
330
1F
100
AcDbEntity
  8
0
 60
     1
100
AcDbPoint
 10
0.0
 20
0.0
 30
0.0
1001
GENIUS_GENOLIS_13
1002
{
1000
ENT
1005
FFC
1005
FFB
1005
FFA
1005
FF9
1002
}
1001
GENIUS_GENOENT_13
1002
{
1000
MYREF
1005
FFD
1002
}
1002
{
1000
GRP
1005
0
1002
}
1001
GENIUS_GENOBJ-N-CRS_13
1002
{
1000
OWNER
1000
GEN
1002
}
1001
GENIUS_GENODEF_13
1002
{
1000
HIER
1070
    10
1002
}
1002
{
1000
MANEDIT
1070
     0
1002
}
1002
{
1000
NOSEL
1070
     0
1002
}
1002
{
1000
BEHIND
1070
     0
1002
}
1002
{
1000
OTHER
1070
     0
1002
}
1002
{
1000
REACTOR
1002
}
  0
LINE
  5
100B
330
1F
100
AcDbEntity
  8
AM_7
  6
AM_ISO08W050x2
100
AcDbLine
 10
2804.206078826329
 20
344.7380259360413
 30
0.0
 11
2810.456078826329
 21
344.7380259360413
 31
0.0
1001
GENIUS_GENOREF_13
1005
100F
  0
LINE
  5
100C
330
1F
100
AcDbEntity
  8
AM_7
  6
AM_ISO08W050x2
100
AcDbLine
 10
2804.206078826329
 20
344.7380259360413
 30
0.0
 11
2804.206078826329
 21
350.9880259360413
 31
0.0
1001
GENIUS_GENOREF_13
1005
100F
  0
LINE
  5
100D
330
1F
100
AcDbEntity
  8
AM_7
  6
AM_ISO08W050x2
100
AcDbLine
 10
2804.206078826329
 20
344.7380259360413
 30
0.0
 11
2797.956078826329
 21
344.7380259360413
 31
0.0
1001
GENIUS_GENOREF_13
1005
100F
  0
LINE
  5
100E
330
1F
100
AcDbEntity
  8
AM_7
  6
AM_ISO08W050x2
100
AcDbLine
 10
2804.206078826329
 20
344.7380259360413
 30
0.0
 11
2804.206078826329
 21
338.4880259360413
 31
0.0
1001
GENIUS_GENOREF_13
1005
100F
  0
POINT
  5
100F
330
1F
100
AcDbEntity
  8
0
 60
     1
100
AcDbPoint
 10
0.0
 20
0.0
 30
0.0
1001
GENIUS_GENOENT_13
1002
{
1000
MYREF
1005
100F
1002
}
1002
{
1000
GRP
1005
0
1002
}
1001
GENIUS_GENOBJ-N-CRS_13
1002
{
1000
OWNER
1000
GEN
1002
}
1001
GENIUS_GENODEF_13
1002
{
1000
HIER
1070
    10
1002
}
1002
{
1000
MANEDIT
1070
     0
1002
}
1002
{
1000
NOSEL
1070
     0
1002
}
1002
{
1000
BEHIND
1070
     0
1002
}
1002
{
1000
OTHER
1070
     0
1002
}
1002
{
1000
REACTOR
1002
}
1001
GENIUS_GENOLIS_13
1002
{
1000
ENT
1005
100E
1005
100D
1005
100C
1005
100B
1002
}
  0
LINE
  5
101D
330
1F
100
AcDbEntity
  8
AM_7
100
AcDbLine
 10
2837.206078826329
 20
364.7380259360413
 30
0.0
 11
2869.206078826329
 21
364.7380259360413
 31
0.0
1001
GENIUS_GENOREF_13
1005
1021
  0
LINE
  5
101E
330
1F
100
AcDbEntity
  8
AM_7
100
AcDbLine
 10
2837.206078826329
 20
364.7380259360413
 30
0.0
 11
2837.206078826329
 21
396.7380259360412
 31
0.0
1001
GENIUS_GENOREF_13
1005
1021
  0
LINE
  5
101F
330
1F
100
AcDbEntity
  8
AM_7
100
AcDbLine
 10
2837.206078826329
 20
364.7380259360413
 30
0.0
 11
2805.206078826329
 21
364.7380259360413
 31
0.0
1001
GENIUS_GENOREF_13
1005
1021
  0
LINE
  5
1020
330
1F
100
AcDbEntity
  8
AM_7
100
AcDbLine
 10
2837.206078826329
 20
364.7380259360413
 30
0.0
 11
2837.206078826329
 21
332.7380259360412
 31
0.0
1001
GENIUS_GENOREF_13
1005
1021
  0
POINT
  5
1021
330
1F
100
AcDbEntity
  8
0
 60
     1
100
AcDbPoint
 10
0.0
 20
0.0
 30
0.0
1001
GENIUS_GENODEF_13
1002
{
1000
HIER
1070
    10
1002
}
1002
{
1000
MANEDIT
1070
     0
1002
}
1002
{
1000
NOSEL
1070
     0
1002
}
1002
{
1000
BEHIND
1070
     0
1002
}
1002
{
1000
OTHER
1070
     0
1002
}
1002
{
1000
REACTOR
1002
}
1001
GENIUS_GENOLIS_13
1002
{
1000
ENT
1005
1020
1005
101F
1005
101E
1005
101D
1002
}
1001
GENIUS_GENOENT_13
1002
{
1000
MYREF
1005
1021
1002
}
1002
{
1000
GRP
1005
0
1002
}
1001
GENIUS_GENOBJ-N-CRS_13
1002
{
1000
OWNER
1000
GEN
1002
}
  0
LINE
  5
102F
330
1F
100
AcDbEntity
  8
AM_7
100
AcDbLine
 10
2837.20607882633
 20
714.4211251270351
 30
0.0
 11
2869.20607882633
 21
714.4211251270351
 31
0.0
1001
GENIUS_GENOREF_13
1005
1033
  0
LINE
  5
1030
330
1F
100
AcDbEntity
  8
AM_7
100
AcDbLine
 10
2837.20607882633
 20
714.4211251270351
 30
0.0
 11
2837.20607882633
 21
746.421125127035
 31
0.0
1001
GENIUS_GENOREF_13
1005
1033
  0
LINE
  5
1031
330
1F
100
AcDbEntity
  8
AM_7
100
AcDbLine
 10
2837.20607882633
 20
714.4211251270351
 30
0.0
 11
2805.20607882633
 21
714.4211251270351
 31
0.0
1001
GENIUS_GENOREF_13
1005
1033
  0
LINE
  5
1032
330
1F
100
AcDbEntity
  8
AM_7
100
AcDbLine
 10
2837.20607882633
 20
714.4211251270351
 30
0.0
 11
2837.20607882633
 21
682.4211251270351
 31
0.0
1001
GENIUS_GENOREF_13
1005
1033
  0
POINT
  5
1033
330
1F
100
AcDbEntity
  8
0
 60
     1
100
AcDbPoint
 10
0.0
 20
0.0
 30
0.0
1001
GENIUS_GENODEF_13
1002
{
1000
HIER
1070
    10
1002
}
1002
{
1000
MANEDIT
1070
     0
1002
}
1002
{
1000
NOSEL
1070
     0
1002
}
1002
{
1000
BEHIND
1070
     0
1002
}
1002
{
1000
OTHER
1070
     0
1002
}
1002
{
1000
REACTOR
1002
}
1001
GENIUS_GENOLIS_13
1002
{
1000
ENT
1005
1032
1005
1031
1005
1030
1005
102F
1002
}
1001
GENIUS_GENOENT_13
1002
{
1000
MYREF
1005
1033
1002
}
1002
{
1000
GRP
1005
0
1002
}
1001
GENIUS_GENOBJ-N-CRS_13
1002
{
1000
OWNER
1000
GEN
1002
}
  0
LINE
  5
1041
330
1F
100
AcDbEntity
  8
AM_7
100
AcDbLine
 10
2131.407807601635
 20
364.7380259360413
 30
0.0
 11
2155.907807601635
 21
364.7380259360413
 31
0.0
1001
GENIUS_GENOREF_13
1005
1045
  0
LINE
  5
1042
330
1F
100
AcDbEntity
  8
AM_7
100
AcDbLine
 10
2131.407807601635
 20
364.7380259360413
 30
0.0
 11
2131.407807601635
 21
389.2380259360412
 31
0.0
1001
GENIUS_GENOREF_13
1005
1045
  0
LINE
  5
1043
330
1F
100
AcDbEntity
  8
AM_7
100
AcDbLine
 10
2131.407807601635
 20
364.7380259360413
 30
0.0
 11
2106.907807601635
 21
364.7380259360413
 31
0.0
1001
GENIUS_GENOREF_13
1005
1045
  0
LINE
  5
1044
330
1F
100
AcDbEntity
  8
AM_7
100
AcDbLine
 10
2131.407807601635
 20
364.7380259360413
 30
0.0
 11
2131.407807601635
 21
340.2380259360413
 31
0.0
1001
GENIUS_GENOREF_13
1005
1045
  0
POINT
  5
1045
330
1F
100
AcDbEntity
  8
0
 60
     1
100
AcDbPoint
 10
0.0
 20
0.0
 30
0.0
1001
GENIUS_GENOBJ-N-CRS_13
1002
{
1000
OWNER
1000
GEN
1002
}
1001
GENIUS_GENODEF_13
1002
{
1000
HIER
1070
    10
1002
}
1002
{
1000
MANEDIT
1070
     0
1002
}
1002
{
1000
NOSEL
1070
     0
1002
}
1002
{
1000
BEHIND
1070
     0
1002
}
1002
{
1000
OTHER
1070
     0
1002
}
1002
{
1000
REACTOR
1002
}
1001
GENIUS_GENOENT_13
1002
{
1000
MYREF
1005
1045
1002
}
1002
{
1000
GRP
1005
0
1002
}
1001
GENIUS_GENOLIS_13
1002
{
1000
ENT
1005
1044
1005
1043
1005
1042
1005
1041
1002
}
  0
LINE
  5
1053
330
1F
100
AcDbEntity
  8
AM_7
100
AcDbLine
 10
2484.476583508878
 20
714.4211251270351
 30
0.0
 11
2511.476583508879
 21
714.4211251270351
 31
0.0
1001
GENIUS_GENOREF_13
1005
1057
  0
LINE
  5
1054
330
1F
100
AcDbEntity
  8
AM_7
100
AcDbLine
 10
2484.476583508878
 20
714.4211251270351
 30
0.0
 11
2484.476583508878
 21
741.4211251270351
 31
0.0
1001
GENIUS_GENOREF_13
1005
1057
  0
LINE
  5
1055
330
1F
100
AcDbEntity
  8
AM_7
100
AcDbLine
 10
2484.476583508878
 20
714.4211251270351
 30
0.0
 11
2457.476583508878
 21
714.4211251270351
 31
0.0
1001
GENIUS_GENOREF_13
1005
1057
  0
LINE
  5
1056
330
1F
100
AcDbEntity
  8
AM_7
100
AcDbLine
 10
2484.476583508878
 20
714.4211251270351
 30
0.0
 11
2484.476583508878
 21
687.4211251270351
 31
0.0
1001
GENIUS_GENOREF_13
1005
1057
  0
POINT
  5
1057
330
1F
100
AcDbEntity
  8
0
 60
     1
100
AcDbPoint
 10
0.0
 20
0.0
 30
0.0
1001
GENIUS_GENOBJ-N-CRS_13
1002
{
1000
OWNER
1000
GEN
1002
}
1001
GENIUS_GENOLIS_13
1002
{
1000
ENT
1005
1056
1005
1055
1005
1054
1005
1053
1002
}
1001
GENIUS_GENODEF_13
1002
{
1000
HIER
1070
    10
1002
}
1002
{
1000
MANEDIT
1070
     0
1002
}
1002
{
1000
NOSEL
1070
     0
1002
}
1002
{
1000
BEHIND
1070
     0
1002
}
1002
{
1000
OTHER
1070
     0
1002
}
1002
{
1000
REACTOR
1002
}
1001
GENIUS_GENOENT_13
1002
{
1000
MYREF
1005
1057
1002
}
1002
{
1000
GRP
1005
0
1002
}
  0
LINE
  5
1065
330
1F
100
AcDbEntity
  8
AM_7
100
AcDbLine
 10
2484.476583508878
 20
364.7380259360412
 30
0.0
 11
2511.476583508879
 21
364.7380259360412
 31
0.0
1001
GENIUS_GENOREF_13
1005
1069
  0
LINE
  5
1066
330
1F
100
AcDbEntity
  8
AM_7
100
AcDbLine
 10
2484.476583508878
 20
364.7380259360412
 30
0.0
 11
2484.476583508878
 21
391.7380259360412
 31
0.0
1001
GENIUS_GENOREF_13
1005
1069
  0
LINE
  5
1067
330
1F
100
AcDbEntity
  8
AM_7
100
AcDbLine
 10
2484.476583508878
 20
364.7380259360412
 30
0.0
 11
2457.476583508878
 21
364.7380259360412
 31
0.0
1001
GENIUS_GENOREF_13
1005
1069
  0
LINE
  5
1068
330
1F
100
AcDbEntity
  8
AM_7
100
AcDbLine
 10
2484.476583508878
 20
364.7380259360412
 30
0.0
 11
2484.476583508878
 21
337.7380259360412
 31
0.0
1001
GENIUS_GENOREF_13
1005
1069
  0
POINT
  5
1069
330
1F
100
AcDbEntity
  8
0
 60
     1
100
AcDbPoint
 10
0.0
 20
0.0
 30
0.0
1001
GENIUS_GENOBJ-N-CRS_13
1002
{
1000
OWNER
1000
GEN
1002
}
1001
GENIUS_GENOLIS_13
1002
{
1000
ENT
1005
1068
1005
1067
1005
1066
1005
1065
1002
}
1001
GENIUS_GENOENT_13
1002
{
1000
MYREF
1005
1069
1002
}
1002
{
1000
GRP
1005
0
1002
}
1001
GENIUS_GENODEF_13
1002
{
1000
HIER
1070
    10
1002
}
1002
{
1000
MANEDIT
1070
     0
1002
}
1002
{
1000
NOSEL
1070
     0
1002
}
1002
{
1000
BEHIND
1070
     0
1002
}
1002
{
1000
OTHER
1070
     0
1002
}
1002
{
1000
REACTOR
1002
}
  0
DIMENSION
  5
1092
102
{ACAD_XDICTIONARY
360
10A0
102
}
102
{ACAD_REACTORS
330
10A1
102
}
330
1F
100
AcDbEntity
  8
AM_5
100
AcDbDimension
  2
*D4
 10
2185.44947363888
 20
737.4211251270351
 30
0.0
 11
2182.94947363888
 21
714.4211251270355
 31
0.0
 70
    32
 71
     5
 42
46.0
  3
AM_ISO$0
100
AcDbAlignedDimension
 13
2162.44947363888
 23
691.4211251270351
 33
0.0
 14
2162.44947363888
 24
737.4211251270351
 34
0.0
 50
90.00000000000003
100
AcDbRotatedDimension
1001
ACAD
1000
DSTYLE
1002
{
1070
    40
1040
1.0
1070
   144
1040
1.0
1070
   272
1070
     8
1002
}
  0
DIMENSION
  5
10B9
102
{ACAD_XDICTIONARY
360
10C6
102
}
102
{ACAD_REACTORS
330
10C7
102
}
330
1F
100
AcDbEntity
  8
AM_5
100
AcDbDimension
  2
*D5
 10
2175.44947363888
 20
729.421125127035
 30
0.0
 11
2172.94947363888
 21
714.4211251270355
 31
0.0
 70
    32
 71
     5
 42
30.0
  3
AM_ISO$0
100
AcDbAlignedDimension
 13
2161.69947363888
 23
699.4211251270351
 33
0.0
 14
2161.69947363888
 24
729.421125127035
 34
0.0
 50
90.00000000000003
100
AcDbRotatedDimension
1001
ACAD
1000
DSTYLE
1002
{
1070
    40
1040
1.0
1070
   144
1040
1.0
1070
   272
1070
     8
1002
}
  0
DIMENSION
  5
10DF
102
{ACAD_XDICTIONARY
360
10EC
102
}
102
{ACAD_REACTORS
330
10ED
102
}
330
1F
100
AcDbEntity
  8
AM_5
100
AcDbDimension
  2
*D6
 10
2175.407807601635
 20
606.9561227128467
 30
0.0
 11
2172.907807601635
 21
557.9561227128471
 31
0.0
 70
    32
 71
     5
 42
98.0
  3
AM_ISO$0
100
AcDbAlignedDimension
 13
2163.407807601635
 23
508.9561227128467
 33
0.0
 14
2153.907807601635
 24
606.9561227128467
 34
0.0
 50
90.0
100
AcDbRotatedDimension
1001
ACAD
1000
DSTYLE
1002
{
1070
    40
1040
1.0
1070
   144
1040
1.0
1070
   272
1070
     8
1002
}
  0
DIMENSION
  5
1105
102
{ACAD_XDICTIONARY
360
1112
102
}
102
{ACAD_REACTORS
330
1113
102
}
330
1F
100
AcDbEntity
  8
AM_5
100
AcDbDimension
  2
*D7
 10
2185.407807601635
 20
635.9561227128467
 30
0.0
 11
2182.907807601635
 21
572.4561227128471
 31
0.0
 70
    32
 71
     5
 42
127.0
  3
AM_ISO$0
100
AcDbAlignedDimension
 13
2163.407807601635
 23
508.9561227128467
 33
0.0
 14
2146.407807601635
 24
635.9561227128467
 34
0.0
 50
90.0
100
AcDbRotatedDimension
1001
ACAD
1000
DSTYLE
1002
{
1070
    40
1040
1.0
1070
   144
1040
1.0
1070
   272
1070
     8
1002
}
  0
DIMENSION
  5
112B
102
{ACAD_XDICTIONARY
360
1138
102
}
102
{ACAD_REACTORS
330
1139
102
}
330
1F
100
AcDbEntity
  8
AM_5
100
AcDbDimension
  2
*D8
 10
2087.407806601635
 20
508.9561227128467
 30
0.0
 11
2084.907806601635
 21
517.9561227128471
 31
0.0
 70
    32
 71
     5
 42
18.0
  3
AM_ISO$0
100
AcDbAlignedDimension
 13
2099.407807601635
 23
526.9561227128467
 33
0.0
 14
2099.407807601635
 24
508.9561227128467
 34
0.0
 50
90.0
100
AcDbRotatedDimension
1001
ACAD
1000
DSTYLE
1002
{
1070
    40
1040
1.0
1070
   144
1040
1.0
1070
   272
1070
     8
1002
}
  0
DIMENSION
  5
1151
102
{ACAD_XDICTIONARY
360
115E
102
}
102
{ACAD_REACTORS
330
115F
102
}
330
1F
100
AcDbEntity
  8
AM_5
100
AcDbDimension
  2
*D9
 10
2185.407807601635
 20
635.9561227128467
 30
0.0
 11
2182.907807601635
 21
645.4561227128471
 31
0.0
 70
    32
 71
     5
 42
19.0
  3
AM_ISO$0
100
AcDbAlignedDimension
 13
2146.407807601635
 23
654.9561227128467
 33
0.0
 14
2146.407807601635
 24
635.9561227128467
 34
0.0
 50
90.00000000000003
100
AcDbRotatedDimension
1001
ACAD
1000
DSTYLE
1002
{
1070
    40
1040
1.0
1070
   144
1040
1.0
1070
   272
1070
     8
1002
}
  0
DIMENSION
  5
11D8
330
1F
100
AcDbEntity
  8
AM_5
100
AcDbDimension
  2
*D10
 10
2185.407807601635
 20
387.7380259360412
 30
0.0
 11
2182.907807601635
 21
364.7380259360416
 31
0.0
 70
    32
 71
     5
 42
46.0
  3
AM_ISO$0
100
AcDbAlignedDimension
 13
2162.407807601635
 23
341.7380259360413
 33
0.0
 14
2162.407807601635
 24
387.7380259360413
 34
0.0
 50
90.0
100
AcDbRotatedDimension
1001
ACAD
1000
DSTYLE
1002
{
1070
    40
1040
1.0
1070
   144
1040
1.0
1070
   272
1070
     8
1002
}
  0
DIMENSION
  5
11DB
330
1F
100
AcDbEntity
  8
AM_5
100
AcDbDimension
  2
*D11
 10
2175.407807601635
 20
379.7380259360413
 30
0.0
 11
2172.907807601635
 21
364.7380259360416
 31
0.0
 70
    32
 71
     5
 42
30.0
  3
AM_ISO$0
100
AcDbAlignedDimension
 13
2161.657807601635
 23
349.7380259360412
 33
0.0
 14
2161.657807601635
 24
379.7380259360413
 34
0.0
 50
90.0
100
AcDbRotatedDimension
1001
ACAD
1000
DSTYLE
1002
{
1070
    40
1040
1.0
1070
   144
1040
1.0
1070
   272
1070
     8
1002
}
  0
DIMENSION
  5
1208
330
1F
100
AcDbEntity
  8
AM_5
100
AcDbDimension
  2
*D12
 10
2175.36614156439
 20
257.2730235218529
 30
0.0
 11
2172.866141564389
 21
208.2730235218532
 31
0.0
 70
    32
 71
     5
 42
97.99999999999997
  3
AM_ISO$0
100
AcDbAlignedDimension
 13
2163.36614156439
 23
159.2730235218529
 33
0.0
 14
2153.86614156439
 24
257.2730235218529
 34
0.0
 50
90.0
100
AcDbRotatedDimension
1001
ACAD
1000
DSTYLE
1002
{
1070
    40
1040
1.0
1070
   144
1040
1.0
1070
   272
1070
     8
1002
}
  0
DIMENSION
  5
120B
330
1F
100
AcDbEntity
  8
AM_5
100
AcDbDimension
  2
*D13
 10
2185.36614156439
 20
286.2730235218529
 30
0.0
 11
2182.86614156439
 21
222.7730235218532
 31
0.0
 70
    32
 71
     5
 42
127.0
  3
AM_ISO$0
100
AcDbAlignedDimension
 13
2163.36614156439
 23
159.2730235218529
 33
0.0
 14
2146.36614156439
 24
286.2730235218529
 34
0.0
 50
90.0
100
AcDbRotatedDimension
1001
ACAD
1000
DSTYLE
1002
{
1070
    40
1040
1.0
1070
   144
1040
1.0
1070
   272
1070
     8
1002
}
  0
DIMENSION
  5
120E
330
1F
100
AcDbEntity
  8
AM_5
100
AcDbDimension
  2
*D14
 10
2087.36614056439
 20
159.2730235218529
 30
0.0
 11
2084.86614056439
 21
168.2730235218532
 31
0.0
 70
    32
 71
     5
 42
18.0
  3
AM_ISO$0
100
AcDbAlignedDimension
 13
2099.36614156439
 23
177.2730235218529
 33
0.0
 14
2099.36614156439
 24
159.2730235218529
 34
0.0
 50
90.0
100
AcDbRotatedDimension
1001
ACAD
1000
DSTYLE
1002
{
1070
    40
1040
1.0
1070
   144
1040
1.0
1070
   272
1070
     8
1002
}
  0
DIMENSION
  5
1211
330
1F
100
AcDbEntity
  8
AM_5
100
AcDbDimension
  2
*D15
 10
2185.36614156439
 20
286.2730235218529
 30
0.0
 11
2182.86614156439
 21
295.7730235218532
 31
0.0
 70
    32
 71
     5
 42
19.0
  3
AM_ISO$0
100
AcDbAlignedDimension
 13
2146.36614156439
 23
305.2730235218529
 33
0.0
 14
2146.36614156439
 24
286.2730235218529
 34
0.0
 50
90.0
100
AcDbRotatedDimension
1001
ACAD
1000
DSTYLE
1002
{
1070
    40
1040
1.0
1070
   144
1040
1.0
1070
   272
1070
     8
1002
}
  0
DIMENSION
  5
1288
330
1F
100
AcDbEntity
  8
AM_5
100
AcDbDimension
  2
*D16
 10
2529.476583508878
 20
605.9561227128467
 30
0.0
 11
2526.976583508878
 21
557.4561227128472
 31
0.0
 70
    32
 71
     5
 42
97.0
  3
AM_ISO$0
100
AcDbAlignedDimension
 13
2517.476583508879
 23
508.9561227128467
 33
0.0
 14
2506.476583508879
 24
605.9561227128467
 34
0.0
 50
90.0
100
AcDbRotatedDimension
1001
ACAD
1000
DSTYLE
1002
{
1070
    40
1040
1.0
1070
   144
1040
1.0
1070
   272
1070
     8
1002
}
  0
DIMENSION
  5
128B
330
1F
100
AcDbEntity
  8
AM_5
100
AcDbDimension
  2
*D17
 10
2539.476583508879
 20
635.9561227128467
 30
0.0
 11
2536.976583508879
 21
572.4561227128472
 31
0.0
 70
    32
 71
     5
 42
127.0
  3
AM_ISO$0
100
AcDbAlignedDimension
 13
2517.476583508879
 23
508.9561227128467
 33
0.0
 14
2500.476583508878
 24
635.9561227128467
 34
0.0
 50
90.0
100
AcDbRotatedDimension
1001
ACAD
1000
DSTYLE
1002
{
1070
    40
1040
1.0
1070
   144
1040
1.0
1070
   272
1070
     8
1002
}
  0
DIMENSION
  5
128E
330
1F
100
AcDbEntity
  8
AM_5
100
AcDbDimension
  2
*D18
 10
2441.476582508879
 20
508.9561227128467
 30
0.0
 11
2438.976582508879
 21
517.9561227128472
 31
0.0
 70
    32
 71
     5
 42
18.0
  3
AM_ISO$0
100
AcDbAlignedDimension
 13
2451.476583508878
 23
526.9561227128467
 33
0.0
 14
2451.476583508878
 24
508.9561227128467
 34
0.0
 50
90.0
100
AcDbRotatedDimension
1001
ACAD
1000
DSTYLE
1002
{
1070
    40
1040
1.0
1070
   144
1040
1.0
1070
   272
1070
     8
1002
}
  0
DIMENSION
  5
1291
330
1F
100
AcDbEntity
  8
AM_5
100
AcDbDimension
  2
*D19
 10
2539.476583508879
 20
635.9561227128467
 30
0.0
 11
2536.976583508879
 21
645.4561227128472
 31
0.0
 70
    32
 71
     5
 42
19.0
  3
AM_ISO$0
100
AcDbAlignedDimension
 13
2500.476583508878
 23
654.9561227128467
 33
0.0
 14
2500.476583508878
 24
635.9561227128467
 34
0.0
 50
90.0
100
AcDbRotatedDimension
1001
ACAD
1000
DSTYLE
1002
{
1070
    40
1040
1.0
1070
   144
1040
1.0
1070
   272
1070
     8
1002
}
  0
DIMENSION
  5
12FA
330
1F
100
AcDbEntity
  8
AM_5
100
AcDbDimension
  2
*D20
 10
2538.476583508879
 20
741.4211251270351
 30
0.0
 11
2535.976583508878
 21
714.4211251270355
 31
0.0
 70
    32
 71
     5
 42
54.0
  3
AM_ISO$0
100
AcDbAlignedDimension
 13
2515.476583508879
 23
687.4211251270351
 33
0.0
 14
2515.476583508879
 24
741.4211251270351
 34
0.0
 50
90.0
100
AcDbRotatedDimension
1001
ACAD
1000
DSTYLE
1002
{
1070
    40
1040
1.0
1070
   144
1040
1.0
1070
   272
1070
     8
1002
}
  0
DIMENSION
  5
12FB
330
1F
100
AcDbEntity
  8
AM_5
100
AcDbDimension
  2
*D21
 10
2528.476583508878
 20
731.4211251270351
 30
0.0
 11
2525.976583508878
 21
714.4211251270355
 31
0.0
 70
    32
 71
     5
 42
34.0
  3
AM_ISO$0
100
AcDbAlignedDimension
 13
2517.726583508878
 23
697.4211251270351
 33
0.0
 14
2517.726583508878
 24
731.4211251270351
 34
0.0
 50
90.0
100
AcDbRotatedDimension
1001
ACAD
1000
DSTYLE
1002
{
1070
    40
1040
1.0
1070
   144
1040
1.0
1070
   272
1070
     8
1002
}
  0
DIMENSION
  5
1341
330
1F
100
AcDbEntity
  8
AM_5
100
AcDbDimension
  2
*D22
 10
2529.476583508878
 20
256.2730235218528
 30
0.0
 11
2526.976583508878
 21
207.7730235218533
 31
0.0
 70
    32
 71
     5
 42
97.0
  3
AM_ISO$0
100
AcDbAlignedDimension
 13
2517.476583508879
 23
159.2730235218528
 33
0.0
 14
2506.476583508879
 24
256.2730235218528
 34
0.0
 50
90.0
100
AcDbRotatedDimension
1001
ACAD
1000
DSTYLE
1002
{
1070
    40
1040
1.0
1070
   144
1040
1.0
1070
   272
1070
     8
1002
}
  0
DIMENSION
  5
1342
330
1F
100
AcDbEntity
  8
AM_5
100
AcDbDimension
  2
*D23
 10
2539.476583508879
 20
292.2730235218529
 30
0.0
 11
2536.976583508879
 21
225.7730235218533
 31
0.0
 70
    32
 71
     5
 42
133.0
  3
AM_ISO$0
100
AcDbAlignedDimension
 13
2517.476583508879
 23
159.2730235218528
 33
0.0
 14
2501.476583508879
 24
292.2730235218529
 34
0.0
 50
90.0
100
AcDbRotatedDimension
1001
ACAD
1000
DSTYLE
1002
{
1070
    40
1040
1.0
1070
   144
1040
1.0
1070
   272
1070
     8
1002
}
  0
DIMENSION
  5
1343
330
1F
100
AcDbEntity
  8
AM_5
100
AcDbDimension
  2
*D24
 10
2441.476582508879
 20
159.2730235218528
 30
0.0
 11
2438.976582508879
 21
168.2730235218532
 31
0.0
 70
    32
 71
     5
 42
18.0
  3
AM_ISO$0
100
AcDbAlignedDimension
 13
2451.476583508878
 23
177.2730235218528
 33
0.0
 14
2451.476583508878
 24
159.2730235218528
 34
0.0
 50
90.0
100
AcDbRotatedDimension
1001
ACAD
1000
DSTYLE
1002
{
1070
    40
1040
1.0
1070
   144
1040
1.0
1070
   272
1070
     8
1002
}
  0
DIMENSION
  5
1344
330
1F
100
AcDbEntity
  8
AM_5
100
AcDbDimension
  2
*D25
 10
2539.476583508879
 20
292.2730235218529
 30
0.0
 11
2536.976583508879
 21
301.7730235218532
 31
0.0
 70
    32
 71
     5
 42
19.0
  3
AM_ISO$0
100
AcDbAlignedDimension
 13
2501.476583508879
 23
311.2730235218529
 33
0.0
 14
2501.476583508879
 24
292.2730235218529
 34
0.0
 50
90.0
100
AcDbRotatedDimension
1001
ACAD
1000
DSTYLE
1002
{
1070
    40
1040
1.0
1070
   144
1040
1.0
1070
   272
1070
     8
1002
}
  0
DIMENSION
  5
13B4
330
1F
100
AcDbEntity
  8
AM_5
100
AcDbDimension
  2
*D26
 10
2538.476583508879
 20
391.7380259360412
 30
0.0
 11
2535.976583508878
 21
364.7380259360416
 31
0.0
 70
    32
 71
     5
 42
54.0
  3
AM_ISO$0
100
AcDbAlignedDimension
 13
2515.476583508879
 23
337.7380259360412
 33
0.0
 14
2515.476583508879
 24
391.7380259360412
 34
0.0
 50
90.0
100
AcDbRotatedDimension
1001
ACAD
1000
DSTYLE
1002
{
1070
    40
1040
1.0
1070
   144
1040
1.0
1070
   272
1070
     8
1002
}
  0
DIMENSION
  5
13B5
330
1F
100
AcDbEntity
  8
AM_5
100
AcDbDimension
  2
*D27
 10
2528.476583508878
 20
381.7380259360412
 30
0.0
 11
2525.976583508878
 21
364.7380259360416
 31
0.0
 70
    32
 71
     5
 42
34.0
  3
AM_ISO$0
100
AcDbAlignedDimension
 13
2517.726583508878
 23
347.7380259360412
 33
0.0
 14
2517.726583508878
 24
381.7380259360412
 34
0.0
 50
90.0
100
AcDbRotatedDimension
1001
ACAD
1000
DSTYLE
1002
{
1070
    40
1040
1.0
1070
   144
1040
1.0
1070
   272
1070
     8
1002
}
  0
DIMENSION
  5
13E0
330
1F
100
AcDbEntity
  8
AM_5
100
AcDbDimension
  2
*D28
 10
2890.206173790791
 20
606.9561227128467
 30
0.0
 11
2887.70617379079
 21
557.9561227128472
 31
0.0
 70
    32
 71
     5
 42
98.00000000000006
  3
AM_ISO$0
100
AcDbAlignedDimension
 13
2878.20617379079
 23
508.9561227128467
 33
0.0
 14
2868.706173790791
 24
606.9561227128467
 34
0.0
 50
90.0
100
AcDbRotatedDimension
1001
ACAD
1000
DSTYLE
1002
{
1070
    40
1040
1.0
1070
   144
1040
1.0
1070
   272
1070
     8
1002
}
  0
DIMENSION
  5
13E1
330
1F
100
AcDbEntity
  8
AM_5
100
AcDbDimension
  2
*D29
 10
2900.20617379079
 20
635.9561227128467
 30
0.0
 11
2897.70617379079
 21
572.4561227128472
 31
0.0
 70
    32
 71
     5
 42
127.0
  3
AM_ISO$0
100
AcDbAlignedDimension
 13
2878.20617379079
 23
508.9561227128467
 33
0.0
 14
2861.206173790791
 24
635.9561227128467
 34
0.0
 50
90.0
100
AcDbRotatedDimension
1001
ACAD
1000
DSTYLE
1002
{
1070
    40
1040
1.0
1070
   144
1040
1.0
1070
   272
1070
     8
1002
}
  0
DIMENSION
  5
13E2
330
1F
100
AcDbEntity
  8
AM_5
100
AcDbDimension
  2
*D30
 10
2900.20617379079
 20
635.9562673618718
 30
0.0
 11
2897.70617379079
 21
645.4562673618722
 31
0.0
 70
    32
 71
     5
 42
19.0
  3
AM_ISO$0
100
AcDbAlignedDimension
 13
2854.206173790791
 23
654.9562673618718
 33
0.0
 14
2854.206173790791
 24
635.9562673618718
 34
0.0
 50
90.0
100
AcDbRotatedDimension
1001
ACAD
1000
DSTYLE
1002
{
1070
    40
1040
1.0
1070
   144
1040
1.0
1070
   272
1070
     8
1002
}
  0
DIMENSION
  5
1434
330
1F
100
AcDbEntity
  8
AM_5
100
AcDbDimension
  2
*D31
 10
2786.20617279079
 20
508.9561227128467
 30
0.0
 11
2783.706172790791
 21
517.9561227128472
 31
0.0
 70
    32
 71
     5
 42
17.99999999999994
  3
AM_ISO$0
100
AcDbAlignedDimension
 13
2796.20617379079
 23
526.9561227128467
 33
0.0
 14
2796.20617379079
 24
508.9561227128467
 34
0.0
 50
90.0
100
AcDbRotatedDimension
1001
ACAD
1000
DSTYLE
1002
{
1070
    40
1040
1.0
1070
   144
1040
1.0
1070
   272
1070
     8
1002
}
  0
DIMENSION
  5
144A
330
1F
100
AcDbEntity
  8
AM_5
100
AcDbDimension
  2
*D32
 10
2901.20607882633
 20
746.421125127035
 30
0.0
 11
2898.706078826329
 21
714.4211251270355
 31
0.0
 70
    32
 71
     5
 42
64.0
  3
AM_ISO$0
100
AcDbAlignedDimension
 13
2878.206078826329
 23
682.4211251270351
 33
0.0
 14
2878.206078826329
 24
746.421125127035
 34
0.0
 50
90.0
100
AcDbRotatedDimension
1001
ACAD
1000
DSTYLE
1002
{
1070
    40
1040
1.0
1070
   144
1040
1.0
1070
   272
1070
     8
1002
}
  0
DIMENSION
  5
144B
330
1F
100
AcDbEntity
  8
AM_5
100
AcDbDimension
  2
*D33
 10
2891.206078826329
 20
734.4211251270351
 30
0.0
 11
2888.706078826329
 21
714.4211251270355
 31
0.0
 70
    32
 71
     5
 42
40.0
  3
AM_ISO$0
100
AcDbAlignedDimension
 13
2876.456078826329
 23
694.4211251270351
 33
0.0
 14
2876.456078826329
 24
734.4211251270351
 34
0.0
 50
90.0
100
AcDbRotatedDimension
1001
ACAD
1000
DSTYLE
1002
{
1070
    40
1040
1.0
1070
   144
1040
1.0
1070
   272
1070
     8
1002
}
  0
DIMENSION
  5
14AC
330
1F
100
AcDbEntity
  8
AM_5
100
AcDbDimension
  2
*D34
 10
2890.206173790791
 20
257.2730235218529
 30
0.0
 11
2887.70617379079
 21
208.2730235218534
 31
0.0
 70
    32
 71
     5
 42
98.0
  3
AM_ISO$0
100
AcDbAlignedDimension
 13
2878.20617379079
 23
159.2730235218529
 33
0.0
 14
2865.20617379079
 24
257.2730235218529
 34
0.0
 50
90.0
100
AcDbRotatedDimension
1001
ACAD
1000
DSTYLE
1002
{
1070
    40
1040
1.0
1070
   144
1040
1.0
1070
   272
1070
     8
1002
}
  0
DIMENSION
  5
14AD
330
1F
100
AcDbEntity
  8
AM_5
100
AcDbDimension
  2
*D35
 10
2900.20617379079
 20
293.273168170878
 30
0.0
 11
2897.70617379079
 21
226.2730958463659
 31
0.0
 70
    32
 71
     5
 42
134.000144649025
  3
AM_ISO$0
100
AcDbAlignedDimension
 13
2878.20617379079
 23
159.2730235218529
 33
0.0
 14
2854.206173790791
 24
293.273168170878
 34
0.0
 50
90.0
100
AcDbRotatedDimension
1001
ACAD
1000
DSTYLE
1002
{
1070
    40
1040
1.0
1070
   144
1040
1.0
1070
   272
1070
     8
1002
}
  0
DIMENSION
  5
14AE
330
1F
100
AcDbEntity
  8
AM_5
100
AcDbDimension
  2
*D36
 10
2900.20617379079
 20
293.273168170878
 30
0.0
 11
2897.70617379079
 21
302.7731681708784
 31
0.0
 70
    32
 71
     5
 42
19.0
  3
AM_ISO$0
100
AcDbAlignedDimension
 13
2854.206173790791
 23
312.273168170878
 33
0.0
 14
2854.206173790791
 24
293.273168170878
 34
0.0
 50
90.0
100
AcDbRotatedDimension
1001
ACAD
1000
DSTYLE
1002
{
1070
    40
1040
1.0
1070
   144
1040
1.0
1070
   272
1070
     8
1002
}
  0
DIMENSION
  5
151C
330
1F
100
AcDbEntity
  8
AM_5
100
AcDbDimension
  2
*D37
 10
2786.20617279079
 20
159.2730235218529
 30
0.0
 11
2783.706172790791
 21
168.2730235218533
 31
0.0
 70
    32
 71
     5
 42
18.0
  3
AM_ISO$0
100
AcDbAlignedDimension
 13
2796.20617379079
 23
177.2730235218529
 33
0.0
 14
2796.20617379079
 24
159.2730235218529
 34
0.0
 50
90.0
100
AcDbRotatedDimension
1001
ACAD
1000
DSTYLE
1002
{
1070
    40
1040
1.0
1070
   144
1040
1.0
1070
   272
1070
     8
1002
}
  0
DIMENSION
  5
1532
330
1F
100
AcDbEntity
  8
AM_5
100
AcDbDimension
  2
*D38
 10
2901.206078826329
 20
396.7380259360412
 30
0.0
 11
2898.706078826329
 21
364.7380259360417
 31
0.0
 70
    32
 71
     5
 42
64.0
  3
AM_ISO$0
100
AcDbAlignedDimension
 13
2878.206078826329
 23
332.7380259360412
 33
0.0
 14
2878.206078826329
 24
396.7380259360412
 34
0.0
 50
90.0
100
AcDbRotatedDimension
1001
ACAD
1000
DSTYLE
1002
{
1070
    40
1040
1.0
1070
   144
1040
1.0
1070
   272
1070
     8
1002
}
  0
DIMENSION
  5
1533
330
1F
100
AcDbEntity
  8
AM_5
100
AcDbDimension
  2
*D39
 10
2891.206078826329
 20
384.7380259360413
 30
0.0
 11
2888.706078826329
 21
364.7380259360417
 31
0.0
 70
    32
 71
     5
 42
40.0
  3
AM_ISO$0
100
AcDbAlignedDimension
 13
2876.456078826329
 23
344.7380259360413
 33
0.0
 14
2876.456078826329
 24
384.7380259360413
 34
0.0
 50
90.0
100
AcDbRotatedDimension
1001
ACAD
1000
DSTYLE
1002
{
1070
    40
1040
1.0
1070
   144
1040
1.0
1070
   272
1070
     8
1002
}
  0
TEXT
  5
1728
330
1F
100
AcDbEntity
  8
LOGO
 62
     7
100
AcDbText
 10
2113.293317906104
 20
70.05363340389862
 30
0.0
 40
10.6651221719457
  1
Order example:
 41
0.8
  7
CHINESET
100
AcDbText
  0
TEXT
  5
1729
330
1F
100
AcDbEntity
  8
LOGO
 62
     7
100
AcDbText
 10
2115.206729020723
 20
85.06791718027557
 30
0.0
 40
15.99768325791855
  1
訂購代號:
  7
CHINESET
100
AcDbText
  0
LINE
  5
172A
330
1F
100
AcDbEntity
  8
LOGO
 62
     1
100
AcDbLine
 10
3032.684770311274
 20
105.0951974611587
 30
0.0
 11
1932.684770311274
 21
105.0951974611587
 31
0.0
  0
LINE
  5
172B
330
1F
100
AcDbEntity
  8
LOGO
 62
     1
100
AcDbLine
 10
2108.659286148379
 20
25.10678117156544
 30
0.0
 11
2108.659286148379
 21
105.0951974611587
 31
0.0
  0
TEXT
  5
172C
330
1F
100
AcDbEntity
  8
LOGO
  6
Continuous
 62
     5
100
AcDbText
 10
1961.416968997384
 20
40.82038483861083
 30
0.0
 40
11.99826244343891
  1
金器工業股份有限公司
  7
CHINESET
100
AcDbText
  0
TEXT
  5
172D
330
1F
100
AcDbEntity
  8
LOGO
  6
Continuous
 62
     5
100
AcDbText
 10
1939.378534627951
 20
28.81977167643322
 30
0.0
 40
7.998841628959275
  1
MINDMAN INDUSTRIAL CO., LTD.
 41
0.85
  7
CHINESET
100
AcDbText
  0
LINE
  5
172E
330
1F
100
AcDbEntity
  8
LOGO
 62
     1
100
AcDbLine
 10
2108.659286148379
 20
89.09751420324004
 30
0.0
 11
1991.342942256975
 21
89.09751420324004
 31
0.0
  0
LINE
  5
172F
330
1F
100
AcDbEntity
  8
LOGO
 62
     1
100
AcDbLine
 10
2108.659286148379
 20
73.0998309453214
 30
0.0
 11
1991.342942256975
 21
73.0998309453214
 31
0.0
  0
LINE
  5
1730
330
1F
100
AcDbEntity
  8
LOGO
 62
     1
100
AcDbLine
 10
2108.659286148379
 20
57.10214768740366
 30
0.0
 11
1932.684770311274
 21
57.10214768740366
 31
0.0
  0
LINE
  5
1731
330
1F
100
AcDbEntity
  8
LOGO
 62
     1
100
AcDbLine
 10
1991.342942256975
 20
57.10214768740366
 30
0.0
 11
1991.342942256975
 21
105.0951974611587
 31
0.0
  0
TEXT
  5
1732
330
1F
100
AcDbEntity
  8
LOGO
 62
     6
100
AcDbText
 10
2067.333256634968
 20
61.10156850188198
 30
0.0
 40
7.998841628959275
  1
m/m
  7
CHINESET
 72
     1
 11
2081.426453790753
 21
65.10098931636162
 31
0.0
100
AcDbText
 73
     2
  0
TEXT
  5
1733
330
1F
100
AcDbEntity
  8
LOGO
 62
     6
100
AcDbText
 10
2067.333256634968
 20
93.0969350177193
 30
0.0
 40
7.998841628959275
  1
1 : 1
  7
CHINESET
 72
     1
 11
2081.426453790753
 21
97.09635583219892
 31
0.0
100
AcDbText
 73
     2
  0
LINE
  5
1734
330
1F
100
AcDbEntity
  8
LOGO
 62
     1
100
AcDbLine
 10
2055.33367528865
 20
57.10214768740366
 30
0.0
 11
2055.33367528865
 21
105.0951974611587
 31
0.0
  0
CIRCLE
  5
1735
330
1F
100
AcDbEntity
  8
LOGO
  6
Continuous
 62
     6
100
AcDbCircle
 10
2070.144531043963
 20
81.11578215505938
 30
0.0
 40
4.644315721282525
  0
CIRCLE
  5
1736
330
1F
100
AcDbEntity
  8
LOGO
  6
Continuous
 62
     6
100
AcDbCircle
 10
2070.144531043963
 20
81.11578215505938
 30
0.0
 40
2.721157874662388
  0
LINE
  5
1737
330
1F
100
AcDbEntity
  8
LOGO
 62
     6
100
AcDbLine
 10
2099.329949940109
 20
76.47146643377595
 30
0.0
 11
2099.329949940109
 21
85.7600978763428
 31
0.0
  0
LINE
  5
1738
330
1F
100
AcDbEntity
  8
LOGO
 62
     6
100
AcDbLine
 10
2084.770286750332
 20
78.39462428039746
 30
0.0
 11
2084.770286750332
 21
83.8369400297222
 31
0.0
  0
LINE
  5
1739
330
1F
100
AcDbEntity
  8
LOGO
  6
Continuous
 62
     6
100
AcDbLine
 10
2084.770286750332
 20
83.8369400297222
 30
0.0
 11
2099.329949940109
 21
85.7600978763428
 31
0.0
  0
LINE
  5
173A
330
1F
100
AcDbEntity
  8
LOGO
  6
Continuous
 62
     6
100
AcDbLine
 10
2084.770286750332
 20
78.39462428039746
 30
0.0
 11
2099.329949940109
 21
76.47146643377595
 31
0.0
  0
TEXT
  5
173B
330
1F
100
AcDbEntity
  8
LOGO
 62
     6
100
AcDbText
 10
1997.938415689425
 20
93.10087145552882
 30
524.2309030401992
 40
7.998841628959275
  1
比例 Scale:
 41
0.9
  7
CHINESET
 72
     4
 11
2023.338308772812
 21
97.09635583219892
 31
524.2309030401992
100
AcDbText
  0
TEXT
  5
173C
330
1F
100
AcDbEntity
  8
LOGO
 62
     6
100
AcDbText
 10
1997.477768113472
 20
77.2117682738563
 30
524.2309030401992
 40
7.998841628959275
  1
投影  View:
 41
0.9
  7
CHINESET
 72
     4
 11
2023.338308772812
 21
81.09867257428026
 31
524.2309030401992
100
AcDbText
  0
TEXT
  5
173D
330
1F
100
AcDbEntity
  8
LOGO
 62
     6
100
AcDbText
 10
1998.25979771916
 20
61.10156850188198
 30
524.2309030401992
 40
7.998841628959275
  1
單位  Unit:
 41
0.9
  7
CHINESET
 72
     4
 11
2023.338308772812
 21
65.10098931636162
 31
524.2309030401992
100
AcDbText
  0
LWPOLYLINE
  5
173E
330
1F
100
AcDbEntity
  8
0
 62
     4
100
AcDbPolyline
 90
        4
 70
     1
 43
0.0
 10
1932.684770311274
 20
105.0951974611587
 10
3032.684770311274
 20
105.0951974611587
 10
3032.684770311274
 20
825.1067811715641
 10
1932.684770311274
 20
825.1067811715641
1001
GENIUS_GENREC_14
1002
{
1000
PYDIR
1011
1932.684770311274
1021
825.1067811715641
1031
0.0
1002
}
1002
{
1000
PXDIR
1011
3032.684770311274
1021
105.0951974611587
1031
0.0
1002
}
1002
{
1000
PORI
1011
1932.684770311274
1021
105.0951974611587
1031
0.0
1002
}
1002
{
1000
PINS
1011
1932.684770311274
1021
105.0951974611587
1031
0.0
1002
}
1002
{
1000
PINS2
1011
3032.684770311274
1021
825.1067811715641
1031
0.0
1002
}
1002
{
1000
C
1070
     1
1002
}
1001
GENIUS_GENODEF_13
1002
{
1000
HIER
1070
     0
1002
}
1002
{
1000
MANEDIT
1070
     0
1002
}
1002
{
1000
NOSEL
1070
     0
1002
}
1002
{
1000
BEHIND
1070
     0
1002
}
1002
{
1000
OTHER
1070
     0
1002
}
1002
{
1000
REACTOR
1002
}
1001
GENIUS_GENOBJ-N-REC_13
1002
{
1000
OWNER
1000
GEN
1002
}
  0
SOLID
  5
173F
330
1F
100
AcDbEntity
  8
LOGO
 62
     5
100
AcDbTrace
 10
1940.983696872963
 20
70.39908335009727
 30
0.0
 11
1944.442186103721
 21
70.39908335009636
 31
0.0
 12
1958.872434273433
 22
103.1951019176274
 32
0.0
 13
1962.330923504192
 23
103.1951019176256
 33
0.0
  0
SOLID
  5
1740
330
1F
100
AcDbEntity
  8
LOGO
 62
     5
100
AcDbTrace
 10
1945.873285095762
 20
70.39908335009727
 30
0.0
 11
1949.33177432652
 21
70.39908335009727
 31
0.0
 12
1962.330923504192
 22
100.5714204322237
 32
0.0
 13
1958.872434273433
 23
87.89029325277875
 33
0.0
  0
SOLID
  5
1741
330
1F
100
AcDbEntity
  8
LOGO
 62
     2
100
AcDbTrace
 10
1944.442186103721
 20
70.39908335009636
 30
0.0
 11
1945.873285095762
 21
70.39908335009727
 31
0.0
 12
1962.330923504192
 22
103.1951019176256
 32
0.0
 13
1963.762022496232
 23
103.1951019176256
 33
0.0
  0
SOLID
  5
1742
330
1F
100
AcDbEntity
  8
LOGO
 62
     5
100
AcDbTrace
 10
1935.43889051061
 20
58.47325841645101
 30
0.0
 11
1936.631473003975
 21
58.47325841645101
 31
0.0
 12
1939.989878128494
 22
64.43617088327369
 32
0.0
 13
1941.182460621856
 23
64.43617088327369
 33
0.0
  0
SOLID
  5
1743
330
1F
100
AcDbEntity
  8
LOGO
 62
     5
100
AcDbTrace
 10
1939.989878128494
 20
64.43617088327369
 30
0.0
 11
1941.182460621856
 21
64.43617088327369
 31
0.0
 12
1939.989878128494
 22
58.47325841645101
 32
0.0
 13
1941.182460621856
 23
58.47325841645101
 33
0.0
  0
SOLID
  5
1744
330
1F
100
AcDbEntity
  8
LOGO
 62
     5
100
AcDbTrace
 10
1939.989878128494
 20
58.47325841645101
 30
0.0
 11
1941.182460621856
 21
58.47325841645101
 31
0.0
 12
1944.540865746379
 22
64.43617088327369
 32
0.0
 13
1945.733448239744
 23
64.43617088327369
 33
0.0
  0
SOLID
  5
1745
330
1F
100
AcDbEntity
  8
LOGO
 62
     5
100
AcDbTrace
 10
1944.540865746379
 20
64.43617088327369
 30
0.0
 11
1945.733448239744
 21
64.43617088327369
 31
0.0
 12
1944.540865746379
 22
58.47325841645101
 32
0.0
 13
1945.733448239744
 23
58.47325841645101
 33
0.0
  0
POLYLINE
  5
1746
330
1F
100
AcDbEntity
  8
LOGO
 62
     5
100
AcDb2dPolyline
 66
     1
 10
0.0
 20
0.0
 30
0.0
 40
1.194493683257918
 41
1.194493683257918
  0
VERTEX
  5
1747
330
1746
100
AcDbEntity
  8
LOGO
 62
     5
100
AcDbVertex
100
AcDb2dVertex
 10
1984.515824665617
 20
62.05100589654444
 30
0.0
 42
1.0
  0
VERTEX
  5
1748
330
1746
100
AcDbEntity
  8
LOGO
 62
     5
100
AcDbVertex
100
AcDb2dVertex
 10
1980.932343615843
 20
62.05100589654444
 30
0.0
 42
1.0
  0
SEQEND
  5
1749
330
1746
100
AcDbEntity
  8
LOGO
 62
     5
  0
POLYLINE
  5
174A
330
1F
100
AcDbEntity
  8
LOGO
 62
     5
100
AcDb2dPolyline
 66
     1
 10
0.0
 20
0.0
 30
0.0
 70
     1
  0
VERTEX
  5
174B
330
174A
100
AcDbEntity
  8
LOGO
 62
     5
100
AcDbVertex
100
AcDb2dVertex
 10
1974.17732244378
 20
61.45471464986144
 30
0.0
 42
1.000000057330635
  0
VERTEX
  5
174C
330
174A
100
AcDbEntity
  8
LOGO
 62
     5
100
AcDbVertex
100
AcDb2dVertex
 10
1977.755069923874
 20
61.45471464986144
 30
0.0
 42
1.000000057330635
  0
SEQEND
  5
174D
330
174A
100
AcDbEntity
  8
LOGO
 62
     5
  0
CIRCLE
  5
174E
330
1F
100
AcDbEntity
  8
LOGO
 62
     5
100
AcDbCircle
 10
1975.96619618383
 20
61.45471464986144
 30
0.0
 40
1.788873740047058
  0
POLYLINE
  5
174F
330
1F
100
AcDbEntity
  8
LOGO
 62
     5
100
AcDb2dPolyline
 66
     1
 10
0.0
 20
0.0
 30
0.0
 70
     1
 40
1.194493683257918
 41
1.194493683257918
  0
VERTEX
  5
1750
330
174F
100
AcDbEntity
  8
LOGO
 62
     5
100
AcDbVertex
100
AcDb2dVertex
 10
1973.577208817312
 20
61.45471464986144
 30
0.0
 42
1.0
  0
VERTEX
  5
1751
330
174F
100
AcDbEntity
  8
LOGO
 62
     5
100
AcDbVertex
100
AcDb2dVertex
 10
1978.355183550344
 20
61.45471464986144
 30
0.0
 42
1.0
  0
SEQEND
  5
1752
330
174F
100
AcDbEntity
  8
LOGO
 62
     5
  0
LINE
  5
1753
330
1F
100
AcDbEntity
  8
LOGO
 62
     5
100
AcDbLine
 10
1985.109249127457
 20
58.47325841645101
 30
0.0
 11
1985.109249127457
 21
62.05100589654444
 31
0.0
  0
SOLID
  5
1754
330
1F
100
AcDbEntity
  8
LOGO
 62
     5
100
AcDbTrace
 10
1977.75495066563
 20
64.43617088327369
 30
0.0
 11
1978.947533158993
 21
64.43617088327369
 31
0.0
 12
1977.75495066563
 22
58.47325841645101
 32
0.0
 13
1978.947533158993
 23
58.47325841645101
 33
0.0
  0
SOLID
  5
1755
330
1F
100
AcDbEntity
  8
LOGO
 62
     5
100
AcDbTrace
 10
1980.338919153999
 20
58.47325841645101
 30
0.0
 11
1981.531501647365
 21
58.47325841645101
 31
0.0
 12
1980.338919153999
 22
64.43617088327369
 32
0.0
 13
1981.531501647365
 23
64.43617088327369
 33
0.0
  0
SOLID
  5
1756
330
1F
100
AcDbEntity
  8
LOGO
 62
     5
100
AcDbTrace
 10
1983.916666634095
 20
62.05100589654444
 30
0.0
 11
1985.109249127457
 21
62.05100589654444
 31
0.0
 12
1983.916666634095
 22
58.47325841645101
 32
0.0
 13
1985.109249127457
 23
58.47325841645101
 33
0.0
  0
SOLID
  5
1757
330
1F
100
AcDbEntity
  8
LOGO
 62
     5
100
AcDbTrace
 10
1980.219660904662
 20
100.5714204322237
 30
0.0
 11
1976.761171673906
 21
87.89029325277875
 31
0.0
 12
1980.219660904662
 22
70.39908335009636
 32
0.0
 13
1976.761171673906
 23
70.39908335009636
 33
0.0
  0
SOLID
  5
1758
330
1F
100
AcDbEntity
  8
LOGO
 62
     5
100
AcDbTrace
 10
1981.650759896702
 20
70.39908335009636
 30
0.0
 11
1985.109249127457
 21
70.39908335009636
 31
0.0
 12
1981.650759896702
 22
103.1951019176256
 32
0.0
 13
1985.109249127457
 23
103.1951019176274
 33
0.0
  0
SOLID
  5
1759
330
1F
100
AcDbEntity
  8
LOGO
 62
     2
100
AcDbTrace
 10
1980.219660904662
 20
103.1951019176274
 30
0.0
 11
1981.650759896702
 21
103.1951019176256
 31
0.0
 12
1980.219660904662
 22
70.39908335009636
 32
0.0
 13
1981.650759896702
 23
70.39908335009636
 33
0.0
  0
POLYLINE
  5
175A
330
1F
100
AcDbEntity
  8
LOGO
 62
     5
100
AcDb2dPolyline
 66
     1
 10
0.0
 20
0.0
 30
0.0
 40
1.194493683257918
 41
1.194493683257918
  0
VERTEX
  5
175B
330
175A
100
AcDbEntity
  8
LOGO
 62
     5
100
AcDbVertex
100
AcDb2dVertex
 10
1967.422062755224
 20
62.05100589654444
 30
0.0
 42
1.0
  0
VERTEX
  5
175C
330
175A
100
AcDbEntity
  8
LOGO
 62
     5
100
AcDbVertex
100
AcDb2dVertex
 10
1963.838581705449
 20
62.05100589654444
 30
0.0
 42
1.0
  0
SEQEND
  5
175D
330
175A
100
AcDbEntity
  8
LOGO
 62
     5
  0
POLYLINE
  5
175E
330
1F
100
AcDbEntity
  8
LOGO
 62
     5
100
AcDb2dPolyline
 66
     1
 10
0.0
 20
0.0
 30
0.0
 40
1.194493683257918
 41
1.194493683257918
  0
VERTEX
  5
175F
330
175E
100
AcDbEntity
  8
LOGO
 62
     5
100
AcDbVertex
100
AcDb2dVertex
 10
1970.999810235315
 20
62.05100589654444
 30
0.0
 42
1.0
  0
VERTEX
  5
1760
330
175E
100
AcDbEntity
  8
LOGO
 62
     5
100
AcDbVertex
100
AcDb2dVertex
 10
1967.416329185542
 20
62.05100589654444
 30
0.0
 42
1.0
  0
SEQEND
  5
1761
330
175E
100
AcDbEntity
  8
LOGO
 62
     5
  0
POLYLINE
  5
1762
330
1F
100
AcDbEntity
  8
LOGO
 62
     5
100
AcDb2dPolyline
 66
     1
 10
0.0
 20
0.0
 30
0.0
 40
1.194493683257918
 41
1.194493683257918
  0
VERTEX
  5
1763
330
1762
100
AcDbEntity
  8
LOGO
 62
     5
100
AcDbVertex
100
AcDb2dVertex
 10
1953.906048324921
 20
62.05100589654444
 30
0.0
 42
1.0
  0
VERTEX
  5
1764
330
1762
100
AcDbEntity
  8
LOGO
 62
     5
100
AcDbVertex
100
AcDb2dVertex
 10
1950.322567275149
 20
62.05100589654444
 30
0.0
 42
1.0
  0
SEQEND
  5
1765
330
1762
100
AcDbEntity
  8
LOGO
 62
     5
  0
SOLID
  5
1766
330
1F
100
AcDbEntity
  8
LOGO
 62
     5
100
AcDbTrace
 10
1949.729142813307
 20
64.43617088327369
 30
0.0
 11
1950.921725306669
 21
64.43617088327369
 31
0.0
 12
1949.729142813307
 22
58.47325841645101
 32
0.0
 13
1950.921725306669
 23
58.47325841645101
 33
0.0
  0
SOLID
  5
1767
330
1F
100
AcDbEntity
  8
LOGO
 62
     5
100
AcDbTrace
 10
1953.306890293401
 20
62.05100589654444
 30
0.0
 11
1954.499472786767
 21
62.05100589654444
 31
0.0
 12
1953.306890293401
 22
58.47325841645101
 32
0.0
 13
1954.499472786767
 23
58.47325841645101
 33
0.0
  0
POLYLINE
  5
1768
330
1F
100
AcDbEntity
  8
LOGO
 62
     5
100
AcDb2dPolyline
 66
     1
 10
0.0
 20
0.0
 30
0.0
 70
     1
 40
1.194493683257918
 41
1.194493683257918
  0
VERTEX
  5
1769
330
1768
100
AcDbEntity
  8
LOGO
 62
     5
100
AcDbVertex
100
AcDb2dVertex
 10
1956.483446906917
 20
61.45471464986144
 30
0.0
 42
1.0
  0
VERTEX
  5
176A
330
1768
100
AcDbEntity
  8
LOGO
 62
     5
100
AcDbVertex
100
AcDb2dVertex
 10
1961.261421639951
 20
61.45471464986144
 30
0.0
 42
1.0
  0
SEQEND
  5
176B
330
1768
100
AcDbEntity
  8
LOGO
 62
     5
  0
SOLID
  5
176C
330
1F
100
AcDbEntity
  8
LOGO
 62
     5
100
AcDbTrace
 10
1960.661188755233
 20
66.22504462332177
 30
0.0
 11
1961.853771248598
 21
66.22504462332177
 31
0.0
 12
1960.661188755233
 22
58.47325841645101
 32
0.0
 13
1961.853771248598
 23
58.47325841645101
 33
0.0
  0
SOLID
  5
176D
330
1F
100
AcDbEntity
  8
LOGO
 62
     5
100
AcDbTrace
 10
1963.245157243609
 20
64.43617088327369
 30
0.0
 11
1964.437739736971
 21
64.43617088327369
 31
0.0
 12
1963.245157243609
 22
58.47325841645101
 32
0.0
 13
1964.437739736971
 23
58.47325841645101
 33
0.0
  0
SOLID
  5
176E
330
1F
100
AcDbEntity
  8
LOGO
 62
     5
100
AcDbTrace
 10
1966.8229047237
 20
62.05100589654444
 30
0.0
 11
1968.015487217066
 21
62.05100589654444
 31
0.0
 12
1966.8229047237
 22
58.47325841645101
 32
0.0
 13
1968.015487217066
 23
58.47325841645101
 33
0.0
  0
SOLID
  5
176F
330
1F
100
AcDbEntity
  8
LOGO
 62
     5
100
AcDbTrace
 10
1970.400652203794
 20
62.05100589654444
 30
0.0
 11
1971.593234697158
 21
62.05100589654444
 31
0.0
 12
1970.400652203794
 22
58.4732584164492
 32
0.0
 13
1971.593234697158
 23
58.4732584164492
 33
0.0
  0
SOLID
  5
1770
330
1F
100
AcDbEntity
  8
LOGO
 62
     5
100
AcDbTrace
 10
1947.145174324933
 20
65.27097862862934
 30
0.0
 11
1948.3377568183
 21
65.27097862862934
 31
0.0
 12
1947.145174324933
 22
66.22504462332177
 32
0.0
 13
1948.3377568183
 23
66.22504462332177
 33
0.0
  0
SOLID
  5
1771
330
1F
100
AcDbEntity
  8
LOGO
 62
     5
100
AcDbTrace
 10
1947.145174324933
 20
64.43617088327369
 30
0.0
 11
1948.3377568183
 21
64.43617088327369
 31
0.0
 12
1947.145174324933
 22
58.4732584164492
 32
0.0
 13
1948.3377568183
 23
58.47325841645101
 33
0.0
  0
SOLID
  5
1772
330
1F
100
AcDbEntity
  8
LOGO
 62
     5
100
AcDbTrace
 10
1958.872434273433
 20
70.39908335009727
 30
0.0
 11
1962.330923504192
 21
70.39908335009727
 31
0.0
 12
1958.872434273433
 22
87.89029325277875
 32
0.0
 13
1962.330923504192
 23
100.5714204322237
 33
0.0
  0
SOLID
  5
1773
330
1F
100
AcDbEntity
  8
LOGO
 62
     5
100
AcDbTrace
 10
1963.762022496232
 20
103.1951019176256
 30
0.0
 11
1967.220511726988
 21
103.1951019176274
 31
0.0
 12
1963.762022496232
 22
73.02276483549917
 32
0.0
 13
1967.220511726988
 23
85.70389201494412
 33
0.0
  0
SOLID
  5
1774
330
1F
100
AcDbEntity
  8
LOGO
 62
     2
100
AcDbTrace
 10
1962.330923504192
 20
103.1951019176256
 30
0.0
 11
1963.762022496232
 21
103.1951019176256
 31
0.0
 12
1962.330923504192
 22
70.39908335009727
 32
0.0
 13
1963.762022496232
 23
70.39908335009727
 33
0.0
  0
SOLID
  5
1775
330
1F
100
AcDbEntity
  8
LOGO
 62
     5
100
AcDbTrace
 10
1963.762022496232
 20
73.02276483549917
 30
0.0
 11
1967.220511726988
 21
85.70389201494412
 31
0.0
 12
1980.219660904662
 22
103.1951019176274
 32
0.0
 13
1976.761171673906
 23
103.1951019176274
 33
0.0
  0
SOLID
  5
1776
330
1F
100
AcDbEntity
  8
LOGO
 62
     5
100
AcDbTrace
 10
1963.762022496232
 20
70.39908335009727
 30
0.0
 11
1967.220511726988
 21
70.39908335009727
 31
0.0
 12
1980.219660904662
 22
100.5714204322237
 32
0.0
 13
1976.761171673906
 23
87.89029325277875
 33
0.0
  0
SOLID
  5
1777
330
1F
100
AcDbEntity
  8
LOGO
 62
     2
100
AcDbTrace
 10
1962.330923504192
 20
70.39908335009727
 30
0.0
 11
1963.762022496232
 21
70.39908335009727
 31
0.0
 12
1980.219660904662
 22
103.1951019176274
 32
0.0
 13
1981.650759896702
 23
103.1951019176256
 33
0.0
  0
LWPOLYLINE
  5
1778
330
1F
100
AcDbEntity
  8
0
 62
     1
100
AcDbPolyline
 90
        4
 70
     1
 43
0.0
 10
1932.684770311274
 20
105.0951974611587
 10
3032.684770311274
 20
105.0951974611587
 10
3032.684770311274
 20
25.10678117156454
 10
1932.684770311274
 20
25.10678117156454
1001
GENIUS_GENREC_14
1002
{
1000
PYDIR
1011
1932.684770311274
1021
25.10678117156454
1031
0.0
1002
}
1002
{
1000
PXDIR
1011
3032.684770311274
1021
105.0951974611587
1031
0.0
1002
}
1002
{
1000
PORI
1011
1932.684770311274
1021
105.0951974611587
1031
0.0
1002
}
1002
{
1000
PINS
1011
1932.684770311274
1021
105.0951974611587
1031
0.0
1002
}
1002
{
1000
PINS2
1011
3032.684770311274
1021
25.10678117156454
1031
0.0
1002
}
1002
{
1000
C
1070
     1
1002
}
1001
GENIUS_GENOBJ-N-REC_13
1002
{
1000
OWNER
1000
GEN
1002
}
1001
GENIUS_GENODEF_13
1002
{
1000
HIER
1070
     0
1002
}
1002
{
1000
MANEDIT
1070
     0
1002
}
1002
{
1000
NOSEL
1070
     0
1002
}
1002
{
1000
BEHIND
1070
     0
1002
}
1002
{
1000
OTHER
1070
     0
1002
}
1002
{
1000
REACTOR
1002
}
  0
LINE
  5
1779
330
1F
100
AcDbEntity
  8
LOGO
 62
     6
100
AcDbLine
 10
2253.438076531225
 20
61.10156850188355
 30
0.0
 11
2253.438076531225
 21
31.77248252903132
 31
0.0
  0
LINE
  5
177A
330
1F
100
AcDbEntity
  8
LOGO
 62
     6
100
AcDbLine
 10
2218.679802688579
 20
61.10156850188355
 30
0.0
 11
2218.679802688579
 21
31.77248252903132
 31
0.0
  0
LINE
  5
177B
330
1F
100
AcDbEntity
  8
LOGO
 62
     6
100
AcDbLine
 10
2253.438076531225
 20
31.77248252903132
 30
0.0
 11
2218.679802688579
 21
31.77248252903132
 31
0.0
  0
LINE
  5
177C
330
1F
100
AcDbEntity
  8
LOGO
 62
     6
100
AcDbLine
 10
2265.830911889745
 20
97.09635583219892
 30
0.0
 11
2218.679802688579
 21
97.09635583219892
 31
0.0
  0
LINE
  5
177D
330
1F
100
AcDbEntity
  8
LOGO
 62
     6
100
AcDbLine
 10
2265.830911889745
 20
73.0998309453214
 30
0.0
 11
2218.679802688579
 21
73.0998309453214
 31
0.0
  0
LINE
  5
177E
330
1F
100
AcDbEntity
  8
LOGO
 62
     6
100
AcDbLine
 10
2218.679802688579
 20
97.09635583219892
 30
0.0
 11
2218.679802688579
 21
73.0998309453214
 31
0.0
  0
LINE
  5
177F
330
1F
100
AcDbEntity
  8
LOGO
 62
     6
100
AcDbLine
 10
2265.830911889745
 20
97.09635583219892
 30
0.0
 11
2265.830911889745
 21
73.0998309453214
 31
0.0
  0
LINE
  5
1780
330
1F
100
AcDbEntity
  8
LOGO
 62
     6
100
AcDbLine
 10
2239.567918878742
 20
73.0998309453214
 30
0.0
 11
2239.567918878742
 21
61.10156850188355
 31
0.0
  0
TEXT
  5
1781
330
1F
100
AcDbEntity
  8
LOGO
  6
Continuous
 62
     7
100
AcDbText
 10
2222.943609341699
 20
78.10907043254132
 30
0.0
 40
14.0
  1
MFS
  7
CHINESET
100
AcDbText
  0
LINE
  5
1782
330
1F
100
AcDbEntity
  8
LOGO
 62
     6
100
AcDbLine
 10
2253.438076531225
 20
61.10156850188355
 30
0.0
 11
2218.679802688579
 21
61.10156850188355
 31
0.0
  0
TEXT
  5
1783
330
1F
100
AcDbEntity
  8
LOGO
  6
Continuous
 62
     6
100
AcDbText
 10
2225.889250528475
 20
35.91222082032778
 30
524.2309030401992
 40
6.0
  1
Model
 41
0.8
  7
CHINESET
100
AcDbText
  0
TEXT
  5
1784
330
1F
100
AcDbEntity
  8
LOGO
 62
     6
100
AcDbText
 10
2224.292245576478
 20
47.03492772803724
 30
524.2309030401992
 40
10.0
  1
型號
  7
CHINESET
100
AcDbText
  0
LINE
  5
1791
330
1F
100
AcDbEntity
  8
LOGO
 62
     6
100
AcDbLine
 10
2384.499242307764
 20
61.10156850188355
 30
0.0
 11
2384.499242307764
 21
31.77248252903132
 31
0.0
  0
LINE
  5
1792
330
1F
100
AcDbEntity
  8
LOGO
 62
     6
100
AcDbLine
 10
2331.173631448035
 20
61.10156850188355
 30
0.0
 11
2331.173631448035
 21
31.77248252903132
 31
0.0
  0
LINE
  5
1793
330
1F
100
AcDbEntity
  8
LOGO
 62
     6
100
AcDbLine
 10
2384.499242307764
 20
31.77248252903132
 30
0.0
 11
2331.173631448035
 21
31.77248252903132
 31
0.0
  0
LINE
  5
1794
330
1F
100
AcDbEntity
  8
LOGO
 62
     6
100
AcDbLine
 10
2351.416092628193
 20
97.09635583219892
 30
0.0
 11
2306.541744148793
 21
97.09635583219892
 31
0.0
  0
LINE
  5
1795
330
1F
100
AcDbEntity
  8
LOGO
 62
     6
100
AcDbLine
 10
2351.416092628193
 20
73.0998309453214
 30
0.0
 11
2306.541744148793
 21
73.0998309453214
 31
0.0
  0
LINE
  5
1796
330
1F
100
AcDbEntity
  8
LOGO
 62
     6
100
AcDbLine
 10
2306.541744148793
 20
97.09635583219892
 30
0.0
 11
2306.541744148793
 21
73.0998309453214
 31
0.0
  0
LINE
  5
1797
330
1F
100
AcDbEntity
  8
LOGO
 62
     6
100
AcDbLine
 10
2351.416092628193
 20
97.09635583219892
 30
0.0
 11
2351.416092628193
 21
73.0998309453214
 31
0.0
  0
TEXT
  5
1799
330
1F
100
AcDbEntity
  8
LOGO
  6
Continuous
 62
     7
100
AcDbText
 10
2309.735617444572
 20
78.10907043254132
 30
0.0
 40
14.0
  1
32A
  7
CHINESET
100
AcDbText
  0
LINE
  5
179A
330
1F
100
AcDbEntity
  8
LOGO
 62
     6
100
AcDbLine
 10
2384.499242307764
 20
61.10156850188355
 30
0.0
 11
2331.173631448035
 21
61.10156850188355
 31
0.0
  0
TEXT
  5
17A8
330
1F
100
AcDbEntity
  8
LOGO
  6
Continuous
 62
     6
100
AcDbText
 10
2343.908860042409
 20
35.91222082032778
 30
524.2309030401992
 40
6.0
  1
Tube I.D.
 41
0.8
  7
CHINESET
100
AcDbText
  0
TEXT
  5
17A9
330
1F
100
AcDbEntity
  8
LOGO
 62
     6
100
AcDbText
 10
2346.328124686312
 20
47.03492772803724
 30
524.2309030401992
 40
10.0
  1
內徑
  7
CHINESET
100
AcDbText
  0
TEXT
  5
17B8
330
1F
100
AcDbEntity
  8
0
100
AcDbText
 10
2112.232095179996
 20
29.36213334725085
 30
0.0
 40
8.0
  1
10512264
 41
0.7
  7
CHINESET
 72
     1
 11
2131.832095179996
 21
29.36213334725085
 31
0.0
100
AcDbText
  0
LINE
  5
17B9
330
1F
100
AcDbEntity
  8
LOGO
 62
     1
100
AcDbLine
 10
2156.659286148375
 20
41.10446442948592
 30
0.0
 11
2156.659286148379
 21
25.10678117156635
 31
0.0
  0
LINE
  5
17BA
330
1F
100
AcDbEntity
  8
LOGO
 62
     1
100
AcDbLine
 10
2156.659286148375
 20
41.10446442948592
 30
0.0
 11
2108.659286148379
 21
41.10446442948592
 31
0.0
  0
LINE
  5
17BB
330
1F
100
AcDbEntity
  8
0
 62
     4
100
AcDbLine
 10
1932.684770311274
 20
465.1009893163614
 30
0.0
 11
3032.684770311274
 21
465.1009893163614
 31
0.0
  0
LINE
  5
198A
330
1F
100
AcDbEntity
  8
0
 62
     4
100
AcDbLine
 10
2298.684770311274
 20
825.1067811715641
 30
0.0
 11
2298.684770311274
 21
105.0951974611587
 31
0.0
  0
LINE
  5
198B
330
1F
100
AcDbEntity
  8
0
 62
     4
100
AcDbLine
 10
2664.684770311275
 20
825.1067811715641
 30
0.0
 11
2664.684770311275
 21
105.0951974611587
 31
0.0
  0
TEXT
  5
1A89
330
1F
100
AcDbEntity
  8
0
100
AcDbText
 10
1950.690524132943
 20
795.8336520981234
 30
0.0
 40
12.0
  1
MFS-25A
 41
0.75
  7
CHINESET
100
AcDbText
  0
TEXT
  5
1A8B
330
1F
100
AcDbEntity
  8
0
100
AcDbText
 10
2316.690524132943
 20
795.8336520981234
 30
0.0
 40
12.0
  1
MFS-32A
 41
0.75
  7
CHINESET
100
AcDbText
  0
TEXT
  5
1A8C
330
1F
100
AcDbEntity
  8
0
100
AcDbText
 10
2682.690524132943
 20
795.8336520981234
 30
0.0
 40
12.0
  1
MFS-40A
 41
0.75
  7
CHINESET
100
AcDbText
  0
TEXT
  5
1A8D
330
1F
100
AcDbEntity
  8
0
100
AcDbText
 10
1950.690524132943
 20
435.8278602429207
 30
0.0
 40
12.0
  1
MFS-25B
 41
0.75
  7
CHINESET
100
AcDbText
  0
TEXT
  5
1A8E
330
1F
100
AcDbEntity
  8
0
100
AcDbText
 10
2316.690524132943
 20
435.8278602429207
 30
0.0
 40
12.0
  1
MFS-32B
 41
0.75
  7
CHINESET
100
AcDbText
  0
TEXT
  5
1A8F
330
1F
100
AcDbEntity
  8
0
100
AcDbText
 10
2682.690524132943
 20
435.8278602429207
 30
0.0
 40
12.0
  1
MFS-40B
 41
0.75
  7
CHINESET
100
AcDbText
  0
LINE
  5
1A96
330
1F
100
AcDbEntity
  8
LOGO
 62
     6
100
AcDbLine
 10
2325.701762585913
 20
61.10156850188355
 30
0.0
 11
2325.701762585913
 21
31.77248252903132
 31
0.0
  0
LINE
  5
1A97
330
1F
100
AcDbEntity
  8
LOGO
 62
     6
100
AcDbLine
 10
2259.791624617458
 20
61.10156850188355
 30
0.0
 11
2259.791624617458
 21
31.77248252903132
 31
0.0
  0
LINE
  5
1A98
330
1F
100
AcDbEntity
  8
LOGO
 62
     6
100
AcDbLine
 10
2325.701762585913
 20
31.77248252903132
 30
0.0
 11
2259.791624617458
 21
31.77248252903132
 31
0.0
  0
LINE
  5
1A99
330
1F
100
AcDbEntity
  8
LOGO
 62
     6
100
AcDbLine
 10
2287.865466829118
 20
97.09635583219892
 30
0.0
 11
2271.043187950929
 21
97.09635583219892
 31
0.0
  0
LINE
  5
1A9A
330
1F
100
AcDbEntity
  8
LOGO
 62
     6
100
AcDbLine
 10
2287.865466829118
 20
73.0998309453214
 30
0.0
 11
2271.043187950929
 21
73.0998309453214
 31
0.0
  0
LINE
  5
1A9B
330
1F
100
AcDbEntity
  8
LOGO
 62
     6
100
AcDbLine
 10
2271.043187950929
 20
97.09635583219892
 30
0.0
 11
2271.043187950929
 21
73.0998309453214
 31
0.0
  0
LINE
  5
1A9C
330
1F
100
AcDbEntity
  8
LOGO
 62
     6
100
AcDbLine
 10
2287.865466829118
 20
97.09635583219892
 30
0.0
 11
2287.865466829118
 21
73.0998309453214
 31
0.0
  0
LINE
  5
1A9D
330
1F
100
AcDbEntity
  8
LOGO
 62
     6
100
AcDbLine
 10
2280.269028050499
 20
73.0998309453214
 30
0.0
 11
2280.269028050499
 21
61.10156850188355
 31
0.0
  0
TEXT
  5
1A9E
330
1F
100
AcDbEntity
  8
LOGO
  6
Continuous
 62
     7
100
AcDbText
 10
2276.032214502213
 20
78.10907043254132
 30
0.0
 40
14.0
  1
*
  7
CHINESET
100
AcDbText
  0
LINE
  5
1A9F
330
1F
100
AcDbEntity
  8
LOGO
 62
     6
100
AcDbLine
 10
2325.701762585913
 20
61.10156850188355
 30
0.0
 11
2259.791624617458
 21
61.10156850188355
 31
0.0
  0
TEXT
  5
1AA0
330
1F
100
AcDbEntity
  8
LOGO
  6
Continuous
 62
     6
100
AcDbText
 10
2265.144334813762
 20
35.91222082032778
 30
524.2309030401992
 40
6.0
  1
Swivel direction
 41
0.8
  7
CHINESET
100
AcDbText
  0
TEXT
  5
1AA1
330
1F
100
AcDbEntity
  8
LOGO
 62
     6
100
AcDbText
 10
2271.898273766908
 20
47.03492772803724
 30
524.2309030401992
 40
10.0
  1
旋轉方向
  7
CHINESET
100
AcDbText
  0
LINE
  5
1AA3
330
1F
100
AcDbEntity
  8
LOGO
  6
Continuous
 62
     7
100
AcDbLine
 10
2292.271191500926
 20
85.01309390526399
 30
0.0
 11
2302.867181296684
 21
85.01309390526399
 31
0.0
  0
TEXT
  5
1AA6
330
1F
100
AcDbEntity
  8
LOGO
  6
Continuous
 62
     7
100
AcDbText
 10
2356.634392843207
 20
78.10907043254132
 30
0.0
 40
14.0
  1
x
  7
CHINESET
100
AcDbText
  0
LINE
  5
1AA7
330
1F
100
AcDbEntity
  8
LOGO
 62
     6
100
AcDbLine
 10
2406.974627920213
 20
97.09635583219892
 30
0.0
 11
2369.037379059419
 21
97.09635583219892
 31
0.0
  0
LINE
  5
1AA8
330
1F
100
AcDbEntity
  8
LOGO
 62
     6
100
AcDbLine
 10
2406.974627920213
 20
73.0998309453214
 30
0.0
 11
2369.037379059419
 21
73.0998309453214
 31
0.0
  0
LINE
  5
1AA9
330
1F
100
AcDbEntity
  8
LOGO
 62
     6
100
AcDbLine
 10
2369.037379059419
 20
97.09635583219892
 30
0.0
 11
2369.037379059419
 21
73.0998309453214
 31
0.0
  0
LINE
  5
1AAA
330
1F
100
AcDbEntity
  8
LOGO
 62
     6
100
AcDbLine
 10
2406.974627920213
 20
97.09635583219892
 30
0.0
 11
2406.974627920213
 21
73.0998309453214
 31
0.0
  0
TEXT
  5
1AAB
330
1F
100
AcDbEntity
  8
LOGO
  6
Continuous
 62
     7
100
AcDbText
 10
2384.519746305021
 20
78.10907043254132
 30
0.0
 40
14.0
  1
*
  7
CHINESET
100
AcDbText
  0
LINE
  5
1AAC
330
1F
100
AcDbEntity
  8
LOGO
 62
     6
100
AcDbLine
 10
2438.903397885215
 20
61.10156850188355
 30
0.0
 11
2438.903397885215
 21
31.77248252903132
 31
0.0
  0
LINE
  5
1AAD
330
1F
100
AcDbEntity
  8
LOGO
 62
     6
100
AcDbLine
 10
2389.911313801174
 20
61.10156850188355
 30
0.0
 11
2389.911313801174
 21
31.77248252903132
 31
0.0
  0
LINE
  5
1AAE
330
1F
100
AcDbEntity
  8
LOGO
 62
     6
100
AcDbLine
 10
2438.903397885215
 20
31.77248252903132
 30
0.0
 11
2389.911313801174
 21
31.77248252903132
 31
0.0
  0
LINE
  5
1AAF
330
1F
100
AcDbEntity
  8
LOGO
 62
     6
100
AcDbLine
 10
2438.903397885215
 20
61.10156850188355
 30
0.0
 11
2389.911313801174
 21
61.10156850188355
 31
0.0
  0
TEXT
  5
1AB0
330
1F
100
AcDbEntity
  8
LOGO
  6
Continuous
 62
     6
100
AcDbText
 10
2402.292702325878
 20
35.91222082032778
 30
524.2309030401992
 40
6.0
  1
Angle
 41
0.8
  7
CHINESET
100
AcDbText
  0
TEXT
  5
1AB1
330
1F
100
AcDbEntity
  8
LOGO
 62
     6
100
AcDbText
 10
2394.685739553612
 20
47.03492772803724
 30
524.2309030401992
 40
10.0
  1
旋轉角度
  7
CHINESET
100
AcDbText
  0
LINE
  5
1AB7
330
1F
100
AcDbEntity
  8
LOGO
 62
     6
100
AcDbLine
 10
2388.006003489816
 20
73.09983094532142
 30
0.0
 11
2388.006003489816
 21
67.10069972360248
 31
0.0
  0
LINE
  5
1AB8
330
1F
100
AcDbEntity
  8
LOGO
 62
     6
100
AcDbLine
 10
2388.006003489816
 20
67.10069972360248
 30
0.0
 11
2414.407355843194
 21
67.10069972360248
 31
0.0
  0
LINE
  5
1AB9
330
1F
100
AcDbEntity
  8
LOGO
 62
     6
100
AcDbLine
 10
2414.407355843195
 20
61.10156850188355
 30
0.0
 11
2414.407355843194
 21
67.10069972360248
 31
0.0
  0
LINE
  5
1ABA
330
1F
100
AcDbEntity
  8
LOGO
 62
     6
100
AcDbLine
 10
2328.978918388493
 20
73.09983094532142
 30
0.0
 11
2328.978918388493
 21
67.10069972360248
 31
0.0
  0
LINE
  5
1ABB
330
1F
100
AcDbEntity
  8
LOGO
 62
     6
100
AcDbLine
 10
2328.978918388493
 20
67.10069972360248
 30
0.0
 11
2357.836436877899
 21
67.10069972360248
 31
0.0
  0
LINE
  5
1ABC
330
1F
100
AcDbEntity
  8
LOGO
 62
     6
100
AcDbLine
 10
2357.836436877899
 20
61.10156850188355
 30
0.0
 11
2357.836436877899
 21
67.10069972360248
 31
0.0
  0
ENDSEC
  0
SECTION
  2
OBJECTS
  0
DICTIONARY
  5
C
330
0
100
AcDbDictionary
281
     1
  3
ACAD_COLOR
350
BE
  3
ACAD_GROUP
350
D
  3
ACAD_LAYOUT
350
1A
  3
ACAD_MATERIAL
350
BD
  3
ACAD_MLINESTYLE
350
17
  3
ACAD_PLOTSETTINGS
350
19
  3
ACAD_PLOTSTYLENAME
350
E
  3
ACAD_TABLESTYLE
350
11A
  3
ACDBHEADERROUNDTRIPXREC
350
1B16
  3
AcDbVariableDictionary
350
94
  3
AcmDictionary
350
5B
  3
AMG
350
41
  3
AMGSNAPSETTINGS
350
1B8
  3
DWGPROPS
350
1B15
  0
DICTIONARY
  5
3F9
330
2
100
AcDbDictionary
280
     1
281
     1
  3
ACAD_LAYERFILTERS
360
5B7
  3
ACAD_LAYERSTATES
360
1563
  3
ACLYDICTIONARY
360
5B6
  0
DICTIONARY
  5
8F
330
1F
100
AcDbDictionary
280
     1
281
     1
  3
ACAD_SORTENTS
360
9E6
  0
DICTIONARY
  5
10A0
330
1092
100
AcDbDictionary
280
     1
281
     1
  3
ACAD_DIMASSOC
360
10A1
  0
DICTIONARY
  5
10C6
330
10B9
100
AcDbDictionary
280
     1
281
     1
  3
ACAD_DIMASSOC
360
10C7
  0
DICTIONARY
  5
10EC
330
10DF
100
AcDbDictionary
280
     1
281
     1
  3
ACAD_DIMASSOC
360
10ED
  0
DICTIONARY
  5
1112
330
1105
100
AcDbDictionary
280
     1
281
     1
  3
ACAD_DIMASSOC
360
1113
  0
DICTIONARY
  5
1138
330
112B
100
AcDbDictionary
280
     1
281
     1
  3
ACAD_DIMASSOC
360
1139
  0
DICTIONARY
  5
115E
330
1151
100
AcDbDictionary
280
     1
281
     1
  3
ACAD_DIMASSOC
360
115F
  0
DICTIONARY
  5
BE
102
{ACAD_REACTORS
330
C
102
}
330
C
100
AcDbDictionary
281
     1
  0
DICTIONARY
  5
D
102
{ACAD_REACTORS
330
C
102
}
330
C
100
AcDbDictionary
281
     1
  0
DICTIONARY
  5
1A
102
{ACAD_REACTORS
330
C
102
}
330
C
100
AcDbDictionary
281
     1
  3
Model
350
22
  3
配置1
350
1E
  3
配置2
350
26
  0
DICTIONARY
  5
BD
102
{ACAD_REACTORS
330
C
102
}
330
C
100
AcDbDictionary
281
     1
  0
DICTIONARY
  5
17
102
{ACAD_REACTORS
330
C
102
}
330
C
100
AcDbDictionary
281
     1
  3
Standard
350
18
  0
DICTIONARY
  5
19
102
{ACAD_REACTORS
330
C
102
}
330
C
100
AcDbDictionary
281
     1
  0
ACDBDICTIONARYWDFLT
  5
E
102
{ACAD_REACTORS
330
C
102
}
330
C
100
AcDbDictionary
281
     1
  3
Normal
350
F
100
AcDbDictionaryWithDefault
340
F
  0
DICTIONARY
  5
11A
102
{ACAD_REACTORS
330
C
102
}
330
C
100
AcDbDictionary
281
     1
  3
Standard
350
11B
  0
DICTIONARY
  5
1B16
102
{ACAD_REACTORS
330
C
102
}
330
C
100
AcDbDictionary
281
     1
  0
DICTIONARY
  5
94
102
{ACAD_REACTORS
330
C
102
}
330
C
100
AcDbDictionary
281
     1
  3
CTABLESTYLE
350
138
  3
DIMASSOC
350
96
  3
INDEXCTL
350
95
  3
PROJECTNAME
350
1B13
  0
DICTIONARY
  5
5B
102
{ACAD_REACTORS
330
C
102
}
330
C
100
AcDbDictionary
281
     1
  3
AcmBOM
350
1B5
  3
AcmStdDictionary
350
61
  3
AMDTSECTSYM_ARROWCOLOR
350
123
  0
DICTIONARY
  5
41
102
{ACAD_REACTORS
330
C
102
}
330
C
100
AcDbDictionary
281
     1
  0
DICTIONARY
  5
1B8
102
{ACAD_REACTORS
330
C
102
}
330
C
100
AcDbDictionary
281
     1
  0
XRECORD
  5
1B15
102
{ACAD_REACTORS
330
C
102
}
330
C
100
AcDbXrecord
280
     1
  1
DWGPROPS COOKIE
  2

  3

  4

  6

  7

  8

  9

300
AmdtFileType=84
301
=
302
=
303
=
304
=
305
=
306
=
307
=
308
=
309
=
 40
0.0653674768518519
 41
2453731.618400787
 42
2453732.404710278
  1

 90
        1
  0
DICTIONARY
  5
5B7
102
{ACAD_REACTORS
330
3F9
102
}
330
3F9
100
AcDbDictionary
281
     1
  0
DICTIONARY
  5
1563
102
{ACAD_REACTORS
330
3F9
102
}
330
3F9
100
AcDbDictionary
281
     1
  0
DICTIONARY
  5
5B6
102
{ACAD_REACTORS
330
3F9
102
}
330
3F9
100
AcDbDictionary
281
     1
1001
ACAD
1000
<All
  0
SORTENTSTABLE
  5
9E6
102
{ACAD_REACTORS
330
8F
102
}
330
8F
100
AcDbSortentsTable
330
1F
331
D49
  5
D4E
331
AD6
  5
B24
331
A9F
  5
AAC
331
CDA
  5
CEC
331
ECE
  5
ECE
331
C2C
  5
C2C
331
ADE
  5
B48
331
8E4
  5
908
331
973
  5
97C
331
8F4
  5
960
331
895
  5
895
331
97B
  5
983
331
983
  5
99A
331
89D
  5
89D
331
866
  5
866
331
DF8
  5
DF8
331
DC1
  5
DC1
331
E00
  5
E00
331
ED6
  5
ED6
331
C34
  5
C34
331
B26
  5
B80
331
991
  5
99C
331
AA7
  5
AB4
331
C6B
  5
C6B
331
EDE
  5
EDE
331
E08
  5
E08
331
DC9
  5
DC9
331
E9F
  5
E9F
331
D12
  5
D24
331
C73
  5
C73
331
C3C
  5
C3C
331
999
  5
9B3
331
A08
  5
A8D
331
E10
  5
E10
331
EA7
  5
EA7
331
C7B
  5
C7B
331
B9D
  5
9B4
331
AB7
  5
AD1
331
9A1
  5
9F4
331
C44
  5
C44
331
D22
  5
D34
331
EAF
  5
EAF
331
BA5
  5
8B3
331
C4C
  5
C4C
331
C83
  5
CDA
331
86E
  5
86E
331
876
  5
876
331
964
  5
96C
331
87E
  5
87E
331
96C
  5
974
331
A88
  5
A95
331
9B1
  5
9F7
331
E80
  5
E80
331
DE1
  5
DE1
331
AC7
  5
AD8
331
B6E
  5
BA9
331
BAD
  5
B5A
331
EBF
  5
EBF
331
DE9
  5
DE9
331
E88
  5
E88
331
A98
  5
AA5
331
ACF
  5
AE0
331
C5C
  5
C5C
331
DF1
  5
DF1
331
EC7
  5
EC7
331
BBD
  5
BBD
331
AD7
  5
B25
331
B7E
  5
BAB
331
CDB
  5
CED
331
ADF
  5
B49
331
C2D
  5
C2D
331
8E5
  5
909
331
974
  5
97D
331
97C
  5
98B
331
896
  5
896
331
8F5
  5
961
331
89E
  5
89E
331
867
  5
867
331
DF9
  5
DF9
331
AA0
  5
AAD
331
E01
  5
E01
331
DC2
  5
DC2
331
ED7
  5
ED7
331
C6C
  5
C6C
331
C35
  5
C35
331
AA8
  5
AB5
331
992
  5
99D
331
B27
  5
B81
331
EA0
  5
EA0
331
DCA
  5
DCA
331
EDF
  5
EDF
331
C74
  5
C74
331
C3D
  5
C3D
331
A09
  5
A8E
331
D13
  5
D25
331
E11
  5
E11
331
EA8
  5
EA8
331
D23
  5
D35
331
C45
  5
C45
331
B9E
  5
9C3
331
9A2
  5
9F5
331
A19
  5
A91
331
AB8
  5
AD2
331
C84
  5
CDB
331
BA6
  5
8C2
331
C4D
  5
C4D
331
86F
  5
86F
331
877
  5
877
331
965
  5
96D
331
87F
  5
87F
331
96D
  5
975
331
EB0
  5
EB0
331
DDA
  5
DDA
331
A89
  5
A96
331
9B2
  5
A07
331
EB8
  5
EB8
331
E81
  5
E81
331
DE2
  5
DE2
331
BAE
  5
B5B
331
A91
  5
A9D
331
AC8
  5
AD9
331
B6F
  5
BAA
331
C55
  5
C55
331
EC0
  5
EC0
331
DEA
  5
DEA
331
E89
  5
E89
331
CCC
  5
CDD
331
AD0
  5
AE1
331
A99
  5
AA6
331
C5D
  5
C5D
331
EC8
  5
EC8
331
DF2
  5
DF2
331
F17
  5
F17
331
D4B
  5
C7E
331
AD8
  5
B26
331
B7F
  5
BAC
331
CDC
  5
CEE
331
C2E
  5
C2E
331
975
  5
97E
331
8F6
  5
962
331
897
  5
897
331
97D
  5
991
331
89F
  5
89F
331
906
  5
964
331
DFA
  5
DFA
331
ED0
  5
ED0
331
AA1
  5
AAE
331
ED8
  5
ED8
331
DC3
  5
DC3
331
E02
  5
E02
331
E99
  5
E99
331
C36
  5
C36
331
993
  5
99F
331
AA9
  5
AB6
331
C6D
  5
C6D
331
EE0
  5
EE0
331
E0A
  5
E0A
331
DCB
  5
DCB
331
EA1
  5
EA1
331
C75
  5
C75
331
C3E
  5
C3E
331
B48
  5
B9F
331
AB1
  5
ACB
331
99B
  5
9C6
331
A0A
  5
A8F
331
B8F
  5
BAF
331
E12
  5
E12
331
EA9
  5
EA9
331
EF0
  5
EF0
331
D24
  5
D36
331
B9F
  5
9C4
331
A1A
  5
A92
331
9A3
  5
9F6
331
AB9
  5
AD3
331
C46
  5
C46
331
D34
  5
D46
331
C4E
  5
C4E
331
BA7
  5
8D0
331
868
  5
868
331
870
  5
870
331
878
  5
878
331
966
  5
96E
331
880
  5
880
331
96E
  5
976
331
EB1
  5
EB1
331
DDB
  5
DDB
331
A8A
  5
A97
331
9B3
  5
A08
331
E82
  5
E82
331
EB9
  5
EB9
331
C56
  5
C56
331
BAF
  5
B5C
331
A92
  5
A9E
331
AC9
  5
ADA
331
EC1
  5
EC1
331
DEB
  5
DEB
331
E8A
  5
E8A
331
A9A
  5
AA7
331
AD1
  5
B12
331
C5E
  5
C5E
331
DF3
  5
DF3
331
D4C
  5
C7F
331
CDD
  5
CEF
331
AD9
  5
B27
331
C2F
  5
C2F
331
976
  5
97F
331
97E
  5
992
331
898
  5
898
331
8F7
  5
963
331
907
  5
965
331
DFB
  5
DFB
331
ED1
  5
ED1
331
B80
  5
BAD
331
E9A
  5
E9A
331
DC4
  5
DC4
331
E03
  5
E03
331
ED9
  5
ED9
331
C6E
  5
C6E
331
AAA
  5
AB7
331
994
  5
9A0
331
C37
  5
C37
331
EE1
  5
EE1
331
DCC
  5
DCC
331
E0B
  5
E0B
331
C76
  5
C76
331
C3F
  5
C3F
331
AB2
  5
ACC
331
99C
  5
9D4
331
B49
  5
BA0
331
E13
  5
E13
331
EAA
  5
EAA
331
C47
  5
C47
331
BA0
  5
9C5
331
A1B
  5
A93
331
ABA
  5
AD4
331
C7E
  5
C82
331
D25
  5
D37
331
D35
  5
D47
331
869
  5
869
331
8A0
  5
8A0
331
871
  5
871
331
879
  5
879
331
967
  5
96F
331
881
  5
881
331
8D0
  5
8F4
331
96F
  5
977
331
EB2
  5
EB2
331
DDC
  5
DDC
331
A8B
  5
A98
331
EBA
  5
EBA
331
E83
  5
E83
331
DE4
  5
DE4
331
9B4
  5
A09
331
BA8
  5
8D1
331
BB0
  5
B5D
331
A93
  5
A9F
331
EC2
  5
EC2
331
DEC
  5
DEC
331
E8B
  5
E8B
331
9D4
  5
A1C
331
ACA
  5
ADB
331
C57
  5
C57
331
AD2
  5
B13
331
A9B
  5
AA8
331
ECA
  5
ECA
331
9E4
  5
9A1
331
C5F
  5
C5F
331
D4D
  5
C80
331
9F4
  5
A88
331
ADA
  5
B36
331
CFE
  5
D10
331
977
  5
980
331
97F
  5
993
331
862
  5
862
331
DFC
  5
DFC
331
ED2
  5
ED2
331
C30
  5
C30
331
EDA
  5
EDA
331
DC5
  5
DC5
331
E04
  5
E04
331
E9B
  5
E9B
331
AA3
  5
AB0
331
B81
  5
BAE
331
C6F
  5
C6F
331
EE2
  5
EE2
331
E0C
  5
E0C
331
DCD
  5
DCD
331
EA3
  5
EA3
331
AAB
  5
AB8
331
C38
  5
C38
331
C77
  5
C77
331
B4A
  5
BA1
331
AB3
  5
ACD
331
EAB
  5
EAB
331
E14
  5
E14
331
99D
  5
9E1
331
C40
  5
C40
331
C7F
  5
C83
331
BA1
  5
8D2
331
A1C
  5
A94
331
ABB
  5
AD5
331
B5A
  5
BA3
331
C48
  5
C48
331
D36
  5
D48
331
8A1
  5
8A1
331
86A
  5
86A
331
908
  5
966
331
872
  5
872
331
960
  5
968
331
87A
  5
87A
331
968
  5
970
331
882
  5
882
331
8D1
  5
8F5
331
DDD
  5
DDD
331
C50
  5
C50
331
F0A
  5
F0A
331
E84
  5
E84
331
DE5
  5
DE5
331
EBB
  5
EBB
331
A8C
  5
A99
331
BA9
  5
B6C
331
C58
  5
C58
331
EC3
  5
EC3
331
DED
  5
DED
331
E8C
  5
E8C
331
A94
  5
AA0
331
ACB
  5
ADC
331
CBF
  5
CDC
331
D46
  5
D4B
331
A9C
  5
AA9
331
DF5
  5
DF5
331
ECB
  5
ECB
331
9E5
  5
9A2
331
C60
  5
C60
331
D4E
  5
C81
331
ADB
  5
B37
331
9F5
  5
A89
331
C29
  5
C29
331
CFF
  5
D11
331
970
  5
978
331
978
  5
981
331
980
  5
994
331
89A
  5
89A
331
863
  5
863
331
ED3
  5
ED3
331
DBE
  5
DBE
331
F1A
  5
F1A
331
E9C
  5
E9C
331
DC6
  5
DC6
331
E05
  5
E05
331
EDB
  5
EDB
331
AA4
  5
AB1
331
C70
  5
C70
331
AAC
  5
AB9
331
EA4
  5
EA4
331
DCE
  5
DCE
331
E0D
  5
E0D
331
996
  5
9A3
331
C39
  5
C39
331
C78
  5
C78
331
C41
  5
C41
331
AB4
  5
ACE
331
EAC
  5
EAC
331
99E
  5
9E2
331
B4B
  5
BA2
331
C80
  5
C84
331
B5B
  5
BA4
331
ABC
  5
AD6
331
BA2
  5
8D3
331
C49
  5
C49
331
D37
  5
D49
331
909
  5
967
331
8A2
  5
8A2
331
86B
  5
86B
331
873
  5
873
331
961
  5
969
331
8C2
  5
8E5
331
969
  5
971
331
883
  5
883
331
8D2
  5
8F6
331
E7D
  5
E7D
331
DDE
  5
DDE
331
EBC
  5
EBC
331
E85
  5
E85
331
DE6
  5
DE6
331
A8D
  5
A9A
331
BAA
  5
B6D
331
C51
  5
C51
331
ACC
  5
ADD
331
EC4
  5
EC4
331
DEE
  5
DEE
331
E8D
  5
E8D
331
A95
  5
AA1
331
C59
  5
C59
331
AD4
  5
B15
331
A9D
  5
AAA
331
D47
  5
D4C
331
DF6
  5
DF6
331
ECC
  5
ECC
331
C2A
  5
C2A
331
9F6
  5
A8A
331
ADC
  5
B38
331
971
  5
97A
331
8E2
  5
906
331
893
  5
893
331
981
  5
998
331
89B
  5
89B
331
864
  5
864
331
DBF
  5
DBF
331
DFE
  5
DFE
331
ED4
  5
ED4
331
F1B
  5
F1B
331
C32
  5
C32
331
AA5
  5
AB2
331
B24
  5
B7E
331
D00
  5
D12
331
EDC
  5
EDC
331
E06
  5
E06
331
DC7
  5
DC7
331
E9D
  5
E9D
331
D10
  5
D22
331
C71
  5
C71
331
AAD
  5
ABA
331
997
  5
9B1
331
C3A
  5
C3A
331
E0E
  5
E0E
331
EA5
  5
EA5
331
C79
  5
C79
331
AB5
  5
ACF
331
99F
  5
9E3
331
C42
  5
C42
331
EAD
  5
EAD
331
C81
  5
CBF
331
BA3
  5
8E2
331
B5C
  5
BA5
331
C4A
  5
C4A
331
8A3
  5
8A3
331
86C
  5
86C
331
874
  5
874
331
8B3
  5
8E4
331
962
  5
96A
331
87C
  5
87C
331
96A
  5
972
331
884
  5
884
331
8D3
  5
8F7
331
EB5
  5
EB5
331
E7E
  5
E7E
331
DDF
  5
DDF
331
C52
  5
C52
331
B6C
  5
BA7
331
A8E
  5
A9B
331
BAB
  5
B6E
331
DE7
  5
DE7
331
E86
  5
E86
331
A96
  5
AA3
331
ACD
  5
ADE
331
C5A
  5
C5A
331
DEF
  5
DEF
331
EC5
  5
EC5
331
D48
  5
D4D
331
A9E
  5
AAB
331
AD5
  5
B16
331
ECD
  5
ECD
331
ADD
  5
B39
331
9F7
  5
A8B
331
C2B
  5
C2B
331
8E3
  5
907
331
972
  5
97B
331
97A
  5
982
331
894
  5
894
331
982
  5
999
331
89C
  5
89C
331
865
  5
865
331
DFF
  5
DFF
331
DC0
  5
DC0
331
ED5
  5
ED5
331
D01
  5
D13
331
C6A
  5
C6A
331
B25
  5
B7F
331
AA6
  5
AB3
331
C33
  5
C33
331
E9E
  5
E9E
331
DC8
  5
DC8
331
E07
  5
E07
331
EDD
  5
EDD
331
C72
  5
C72
331
AAE
  5
ABB
331
A07
  5
A8C
331
C3B
  5
C3B
331
D11
  5
D23
331
EA6
  5
EA6
331
E0F
  5
E0F
331
C7A
  5
C7A
331
AB6
  5
AD0
331
9A0
  5
9E4
331
B9C
  5
BB0
331
EAE
  5
EAE
331
C82
  5
CCC
331
B5D
  5
BA6
331
BA4
  5
8E3
331
C4B
  5
C4B
331
86D
  5
86D
331
875
  5
875
331
963
  5
96B
331
87D
  5
87D
331
96B
  5
973
331
885
  5
885
331
EB6
  5
EB6
331
E7F
  5
E7F
331
DE0
  5
DE0
331
EFD
  5
EFD
331
BAC
  5
B6F
331
A8F
  5
A9C
331
AC6
  5
AD7
331
B6D
  5
BA8
331
EBE
  5
EBE
331
DE8
  5
DE8
331
E87
  5
E87
331
ACE
  5
ADF
331
A97
  5
AA4
331
C5B
  5
C5B
331
DF0
  5
DF0
331
EC6
  5
EC6
  0
DIMASSOC
  5
10A1
102
{ACAD_REACTORS
330
10A0
102
}
330
10A0
100
AcDbDimAssoc
330
1092
 90
        3
 70
     0
 71
     0
  1
AcDbOsnapPointRef
 72
    13
331
867
 73
     0
 91
        0
 40
0.0
 10
0.0
 20
0.0
 30
2.000000000000000E+50
 75
     0
  1
AcDbOsnapPointRef
 72
     1
331
868
 73
     0
 91
        0
 40
0.0
 10
0.0
 20
0.0
 30
2.000000000000000E+50
 75
     0
  0
DIMASSOC
  5
10C7
102
{ACAD_REACTORS
330
10C6
102
}
330
10C6
100
AcDbDimAssoc
330
10B9
 90
        3
 70
     0
 71
     0
  1
AcDbOsnapPointRef
 72
     1
331
906
 73
     0
 91
        0
 40
0.0
 10
0.0
 20
0.0
 30
2.000000000000000E+50
 75
     0
  1
AcDbOsnapPointRef
 72
     1
331
8F4
 73
     0
 91
        0
 40
0.0
 10
0.0
 20
0.0
 30
2.000000000000000E+50
 75
     0
  0
DIMASSOC
  5
10ED
102
{ACAD_REACTORS
330
10EC
102
}
330
10EC
100
AcDbDimAssoc
330
10DF
 90
        3
 70
     0
 71
     0
  1
AcDbOsnapPointRef
 72
    13
331
8A3
 73
     0
 91
        0
 40
0.0
 10
0.0
 20
0.0
 30
2.000000000000000E+50
 75
     0
  1
AcDbOsnapPointRef
 72
    13
331
878
 73
     0
 91
        0
 40
0.0
 10
0.0
 20
0.0
 30
2.000000000000000E+50
 75
     0
  0
DIMASSOC
  5
1113
102
{ACAD_REACTORS
330
1112
102
}
330
1112
100
AcDbDimAssoc
330
1105
 90
        3
 70
     0
 71
     0
  1
AcDbOsnapPointRef
 72
    13
331
8A3
 73
     0
 91
        0
 40
0.0
 10
0.0
 20
0.0
 30
2.000000000000000E+50
 75
     0
  1
AcDbOsnapPointRef
 72
     1
331
87F
 73
     0
 91
        0
 40
0.0
 10
0.0
 20
0.0
 30
2.000000000000000E+50
 75
     0
  0
DIMASSOC
  5
1139
102
{ACAD_REACTORS
330
1138
102
}
330
1138
100
AcDbDimAssoc
330
112B
 90
        3
 70
     0
 71
     0
  1
AcDbOsnapPointRef
 72
    13
331
8A2
 73
     0
 91
        0
 40
0.0
 10
0.0
 20
0.0
 30
2.000000000000000E+50
 75
     0
  1
AcDbOsnapPointRef
 72
     1
331
8A2
 73
     0
 91
        0
 40
0.0
 10
0.0
 20
0.0
 30
2.000000000000000E+50
 75
     0
  0
DIMASSOC
  5
115F
102
{ACAD_REACTORS
330
115E
102
}
330
115E
100
AcDbDimAssoc
330
1151
 90
        3
 70
     0
 71
     0
  1
AcDbOsnapPointRef
 72
    13
331
87D
 73
     0
 91
        0
 40
0.0
 10
0.0
 20
0.0
 30
2.000000000000000E+50
 75
     0
  1
AcDbOsnapPointRef
 72
     1
331
87F
 73
     0
 91
        0
 40
0.0
 10
0.0
 20
0.0
 30
2.000000000000000E+50
 75
     0
  0
LAYOUT
  5
22
102
{ACAD_XDICTIONARY
360
1B19
102
}
102
{ACAD_REACTORS
330
1A
102
}
330
1A
100
AcDbPlotSettings
  1

  2
\\RD\EPSON Stylus C63 Series單色
  4
A4
  6

 40
3.757083177566528
 41
3.757076978683471
 42
3.757080078125
 43
3.757080078125
 44
209.9733276367187
 45
296.9683227539062
 46
0.0
 47
0.0
 48
0.0
 49
0.0
140
0.0
141
0.0
142
1.0
143
0.3405120737814363
 70
 11952
 72
     1
 73
     0
 74
     0
  7
彩色出圖.ctb
 75
     0
147
2.936753428137963
148
-2047.07469463503
149
-1261.649717473083
100
AcDbLayout
  1
Model
 70
     1
 71
     0
 10
0.0
 20
0.0
 11
12.0
 21
9.0
 12
0.0
 22
0.0
 32
0.0
 14
0.0
 24
0.0
 34
0.0
 15
0.0
 25
0.0
 35
0.0
146
0.0
 13
0.0
 23
0.0
 33
0.0
 16
1.0
 26
0.0
 36
0.0
 17
0.0
 27
1.0
 37
0.0
 76
     0
330
1F
1001
ACAD_PSEXT
1000
\\RD\EPSON Stylus C63 Series單色
1000
EPSON Stylus C63 Series
1000
\\RD
1000

1070
     0
  0
LAYOUT
  5
1E
102
{ACAD_XDICTIONARY
360
1B17
102
}
102
{ACAD_REACTORS
330
1A
102
}
330
1A
100
AcDbPlotSettings
  1

  2

  4

  6

 40
0.0
 41
0.0
 42
0.0
 43
0.0
 44
0.0
 45
0.0
 46
0.0
 47
0.0
 48
0.0
 49
0.0
140
0.0
141
0.0
142
1.0
143
1.0
 70
   688
 72
     0
 73
     0
 74
     5
  7
彩色出圖.ctb
 75
    16
147
1.0
148
0.0
149
0.0
100
AcDbLayout
  1
配置1
 70
     1
 71
     1
 10
0.0
 20
0.0
 11
420.0
 21
297.0
 12
0.0
 22
0.0
 32
0.0
 14
1.000000000000000E+20
 24
1.000000000000000E+20
 34
1.000000000000000E+20
 15
-1.000000000000000E+20
 25
-1.000000000000000E+20
 35
-1.000000000000000E+20
146
0.0
 13
0.0
 23
0.0
 33
0.0
 16
1.0
 26
0.0
 36
0.0
 17
0.0
 27
1.0
 37
0.0
 76
     0
330
1B
  0
LAYOUT
  5
26
102
{ACAD_XDICTIONARY
360
1B1B
102
}
102
{ACAD_REACTORS
330
1A
102
}
330
1A
100
AcDbPlotSettings
  1

  2

  4

  6

 40
0.0
 41
0.0
 42
0.0
 43
0.0
 44
0.0
 45
0.0
 46
0.0
 47
0.0
 48
0.0
 49
0.0
140
0.0
141
0.0
142
1.0
143
1.0
 70
   688
 72
     0
 73
     0
 74
     5
  7
彩色出圖.ctb
 75
    16
147
1.0
148
0.0
149
0.0
100
AcDbLayout
  1
配置2
 70
     1
 71
     2
 10
0.0
 20
0.0
 11
12.0
 21
9.0
 12
0.0
 22
0.0
 32
0.0
 14
0.0
 24
0.0
 34
0.0
 15
0.0
 25
0.0
 35
0.0
146
0.0
 13
0.0
 23
0.0
 33
0.0
 16
1.0
 26
0.0
 36
0.0
 17
0.0
 27
1.0
 37
0.0
 76
     0
330
23
  0
MLINESTYLE
  5
18
102
{ACAD_REACTORS
330
17
102
}
330
17
100
AcDbMlineStyle
  2
STANDARD
 70
     0
  3

 62
   256
 51
90.0
 52
90.0
 71
     2
 49
0.5
 62
   256
  6
BYLAYER
 49
-0.5
 62
   256
  6
BYLAYER
  0
ACDBPLACEHOLDER
  5
F
102
{ACAD_REACTORS
330
E
102
}
330
E
  0
TABLESTYLE
  5
11B
102
{ACAD_REACTORS
330
11A
102
}
330
11A
100
AcDbTableStyle
  3
Standard
 70
     0
 71
     0
 40
1.5
 41
1.5
280
     0
281
     0
  7
STANDARD
140
4.5
170
     2
 62
     0
 63
     7
283
     0
274
    -2
284
     1
 64
     0
275
    -2
285
     1
 65
     0
276
    -2
286
     1
 66
     0
277
    -2
287
     1
 67
     0
278
    -2
288
     1
 68
     0
279
    -2
289
     1
 69
     0
  7
STANDARD
140
6.0
170
     5
 62
     0
 63
     7
283
     0
274
    -2
284
     1
 64
     0
275
    -2
285
     1
 65
     0
276
    -2
286
     1
 66
     0
277
    -2
287
     1
 67
     0
278
    -2
288
     1
 68
     0
279
    -2
289
     1
 69
     0
  7
STANDARD
140
4.5
170
     5
 62
     0
 63
     7
283
     0
274
    -2
284
     1
 64
     0
275
    -2
285
     1
 65
     0
276
    -2
286
     1
 66
     0
277
    -2
287
     1
 67
     0
278
    -2
288
     1
 68
     0
279
    -2
289
     1
 69
     0
  0
DICTIONARYVAR
  5
138
102
{ACAD_REACTORS
330
94
102
}
330
94
100
DictionaryVariables
280
     0
  1
STANDARD
  0
DICTIONARYVAR
  5
96
102
{ACAD_REACTORS
330
94
102
}
330
94
100
DictionaryVariables
280
     0
  1
2
  0
DICTIONARYVAR
  5
95
102
{ACAD_REACTORS
330
94
102
}
330
94
100
DictionaryVariables
280
     0
  1
0
  0
DICTIONARYVAR
  5
1B13
102
{ACAD_REACTORS
330
94
102
}
330
94
100
DictionaryVariables
280
     0
  1

  0
DICTIONARY
  5
1B5
102
{ACAD_REACTORS
330
5B
102
}
330
5B
100
AcDbDictionary
281
     1
  0
DICTIONARY
  5
61
102
{ACAD_REACTORS
330
5B
102
}
330
5B
100
AcDbDictionary
281
     1
  0
XRECORD
  5
123
102
{ACAD_REACTORS
330
5B
102
}
330
5B
100
AcDbXrecord
280
     1
 90
-1023410169
  0
DICTIONARY
  5
1B19
330
22
100
AcDbDictionary
280
     1
281
     1
  3
ACAD_XREC_ROUNDTRIP
360
1B1A
  0
DICTIONARY
  5
1B17
330
1E
100
AcDbDictionary
280
     1
281
     1
  3
ACAD_XREC_ROUNDTRIP
360
1B18
  0
DICTIONARY
  5
1B1B
330
26
100
AcDbDictionary
280
     1
281
     1
  3
ACAD_XREC_ROUNDTRIP
360
1B1C
  0
XRECORD
  5
1B1A
102
{ACAD_REACTORS
330
1B19
102
}
330
1B19
100
AcDbXrecord
280
     1
102
SHADEPLOT
 70
     0
102
SHADEPLOTRESLEVEL
 70
     2
102
SHADEPLOTCUSTOMDPI
 70
   300
  0
XRECORD
  5
1B18
102
{ACAD_REACTORS
330
1B17
102
}
330
1B17
100
AcDbXrecord
280
     1
102
SHADEPLOT
 70
     0
102
SHADEPLOTRESLEVEL
 70
     2
102
SHADEPLOTCUSTOMDPI
 70
   300
  0
XRECORD
  5
1B1C
102
{ACAD_REACTORS
330
1B1B
102
}
330
1B1B
100
AcDbXrecord
280
     1
102
SHADEPLOT
 70
     0
102
SHADEPLOTRESLEVEL
 70
     2
102
SHADEPLOTCUSTOMDPI
 70
   300
  0
ENDSEC
  0
EOF
