  0
SECTION
  2
HEADER
  9
$ACADVER
  1
AC1015
  9
$ACADMAINTVER
 70
    20
  9
$DWGCODEPAGE
  3
ANSI_950
  9
$INSBASE
 10
0.0
 20
0.0
 30
0.0
  9
$EXTMIN
 10
127.9367076697954
 20
155.3950796549104
 30
-0.0058069244264516
  9
$EXTMAX
 10
403.7667856269595
 20
445.8382294028677
 30
190.3016256141528
  9
$LIMMIN
 10
0.0
 20
0.0
  9
$LIMMAX
 10
420.0
 20
297.0
  9
$ORTHOMODE
 70
     1
  9
$REGENMODE
 70
     1
  9
$FILLMODE
 70
     1
  9
$QTEXTMODE
 70
     0
  9
$MIRRTEXT
 70
     1
  9
$LTSCALE
 40
1.0
  9
$ATTMODE
 70
     1
  9
$TEXTSIZE
 40
3.0
  9
$TRACEWID
 40
1.0
  9
$TEXTSTYLE
  7
STANDARD
  9
$CLAYER
  8
0
  9
$CELTYPE
  6
ByLayer
  9
$CECOLOR
 62
   256
  9
$CELTSCALE
 40
1.0
  9
$DISPSILH
 70
     0
  9
$DIMSCALE
 40
1.0
  9
$DIMASZ
 40
3.0
  9
$DIMEXO
 40
1.5
  9
$DIMDLI
 40
8.0
  9
$DIMRND
 40
0.0
  9
$DIMDLE
 40
0.0
  9
$DIMEXE
 40
1.5
  9
$DIMTP
 40
0.1
  9
$DIMTM
 40
0.1
  9
$DIMTXT
 40
3.5
  9
$DIMCEN
 40
0.0
  9
$DIMTSZ
 40
0.0
  9
$DIMTOL
 70
     0
  9
$DIMLIM
 70
     0
  9
$DIMTIH
 70
     0
  9
$DIMTOH
 70
     0
  9
$DIMSE1
 70
     0
  9
$DIMSE2
 70
     0
  9
$DIMTAD
 70
     1
  9
$DIMZIN
 70
     8
  9
$DIMBLK
  1

  9
$DIMASO
 70
     1
  9
$DIMSHO
 70
     1
  9
$DIMPOST
  1

  9
$DIMAPOST
  1
"
  9
$DIMALT
 70
     0
  9
$DIMALTD
 70
     2
  9
$DIMALTF
 40
0.0393701
  9
$DIMLFAC
 40
1.0
  9
$DIMTOFL
 70
     1
  9
$DIMTVP
 40
0.0
  9
$DIMTIX
 70
     0
  9
$DIMSOXD
 70
     0
  9
$DIMSAH
 70
     0
  9
$DIMBLK1
  1

  9
$DIMBLK2
  1

  9
$DIMSTYLE
  2
AM_ISO
  9
$DIMCLRD
 70
   256
  9
$DIMCLRE
 70
   256
  9
$DIMCLRT
 70
   256
  9
$DIMTFAC
 40
0.71
  9
$DIMGAP
 40
1.5
  9
$DIMJUST
 70
     0
  9
$DIMSD1
 70
     0
  9
$DIMSD2
 70
     0
  9
$DIMTOLJ
 70
     0
  9
$DIMTZIN
 70
     8
  9
$DIMALTZ
 70
     0
  9
$DIMALTTZ
 70
     0
  9
$DIMUPT
 70
     0
  9
$DIMDEC
 70
     2
  9
$DIMTDEC
 70
     2
  9
$DIMALTU
 70
     2
  9
$DIMALTTD
 70
     2
  9
$DIMTXSTY
  7
STANDARD
  9
$DIMAUNIT
 70
     0
  9
$DIMADEC
 70
     0
  9
$DIMALTRND
 40
0.0
  9
$DIMAZIN
 70
     2
  9
$DIMDSEP
 70
    46
  9
$DIMATFIT
 70
     3
  9
$DIMFRAC
 70
     0
  9
$DIMLDRBLK
  1

  9
$DIMLUNIT
 70
     2
  9
$DIMLWD
 70
    -1
  9
$DIMLWE
 70
    -1
  9
$DIMTMOVE
 70
     0
  9
$LUNITS
 70
     2
  9
$LUPREC
 70
     2
  9
$SKETCHINC
 40
1.0
  9
$FILLETRAD
 40
2.5
  9
$AUNITS
 70
     0
  9
$AUPREC
 70
     0
  9
$MENU
  1
.
  9
$ELEVATION
 40
0.0
  9
$PELEVATION
 40
0.0
  9
$THICKNESS
 40
0.0
  9
$LIMCHECK
 70
     0
  9
$CHAMFERA
 40
2.5
  9
$CHAMFERB
 40
2.5
  9
$CHAMFERC
 40
20.0
  9
$CHAMFERD
 40
0.0
  9
$SKPOLY
 70
     0
  9
$TDCREATE
 40
2453883.442184063
  9
$TDUCREATE
 40
2453883.108850730
  9
$TDUPDATE
 40
2453883.462234329
  9
$TDUUPDATE
 40
2453883.128900996
  9
$TDINDWG
 40
0.0200511806
  9
$TDUSRTIMER
 40
0.0200511806
  9
$USRTIMER
 70
     1
  9
$ANGBASE
 50
0.0
  9
$ANGDIR
 70
     0
  9
$PDMODE
 70
     0
  9
$PDSIZE
 40
0.0
  9
$PLINEWID
 40
0.0
  9
$SPLFRAME
 70
     0
  9
$SPLINETYPE
 70
     6
  9
$SPLINESEGS
 70
     8
  9
$HANDSEED
  5
859
  9
$SURFTAB1
 70
     6
  9
$SURFTAB2
 70
     6
  9
$SURFTYPE
 70
     6
  9
$SURFU
 70
     6
  9
$SURFV
 70
     6
  9
$UCSBASE
  2

  9
$UCSNAME
  2

  9
$UCSORG
 10
0.0
 20
0.0
 30
0.0
  9
$UCSXDIR
 10
1.0
 20
0.0
 30
0.0
  9
$UCSYDIR
 10
0.0
 20
1.0
 30
0.0
  9
$UCSORTHOREF
  2

  9
$UCSORTHOVIEW
 70
     0
  9
$UCSORGTOP
 10
0.0
 20
0.0
 30
0.0
  9
$UCSORGBOTTOM
 10
0.0
 20
0.0
 30
0.0
  9
$UCSORGLEFT
 10
0.0
 20
0.0
 30
0.0
  9
$UCSORGRIGHT
 10
0.0
 20
0.0
 30
0.0
  9
$UCSORGFRONT
 10
0.0
 20
0.0
 30
0.0
  9
$UCSORGBACK
 10
0.0
 20
0.0
 30
0.0
  9
$PUCSBASE
  2

  9
$PUCSNAME
  2

  9
$PUCSORG
 10
0.0
 20
0.0
 30
0.0
  9
$PUCSXDIR
 10
1.0
 20
0.0
 30
0.0
  9
$PUCSYDIR
 10
0.0
 20
1.0
 30
0.0
  9
$PUCSORTHOREF
  2

  9
$PUCSORTHOVIEW
 70
     0
  9
$PUCSORGTOP
 10
0.0
 20
0.0
 30
0.0
  9
$PUCSORGBOTTOM
 10
0.0
 20
0.0
 30
0.0
  9
$PUCSORGLEFT
 10
0.0
 20
0.0
 30
0.0
  9
$PUCSORGRIGHT
 10
0.0
 20
0.0
 30
0.0
  9
$PUCSORGFRONT
 10
0.0
 20
0.0
 30
0.0
  9
$PUCSORGBACK
 10
0.0
 20
0.0
 30
0.0
  9
$USERI1
 70
     0
  9
$USERI2
 70
     0
  9
$USERI3
 70
     0
  9
$USERI4
 70
     0
  9
$USERI5
 70
     0
  9
$USERR1
 40
0.0
  9
$USERR2
 40
0.0
  9
$USERR3
 40
0.0
  9
$USERR4
 40
0.0
  9
$USERR5
 40
0.0
  9
$WORLDVIEW
 70
     1
  9
$SHADEDGE
 70
     3
  9
$SHADEDIF
 70
    70
  9
$TILEMODE
 70
     1
  9
$MAXACTVP
 70
    64
  9
$PINSBASE
 10
0.0
 20
0.0
 30
0.0
  9
$PLIMCHECK
 70
     0
  9
$PEXTMIN
 10
1.000000000000000E+20
 20
1.000000000000000E+20
 30
1.000000000000000E+20
  9
$PEXTMAX
 10
-1.000000000000000E+20
 20
-1.000000000000000E+20
 30
-1.000000000000000E+20
  9
$PLIMMIN
 10
0.0
 20
0.0
  9
$PLIMMAX
 10
420.0
 20
297.0
  9
$UNITMODE
 70
     0
  9
$VISRETAIN
 70
     1
  9
$PLINEGEN
 70
     0
  9
$PSLTSCALE
 70
     1
  9
$TREEDEPTH
 70
  3020
  9
$CMLSTYLE
  2
Standard
  9
$CMLJUST
 70
     0
  9
$CMLSCALE
 40
20.0
  9
$PROXYGRAPHICS
 70
     1
  9
$MEASUREMENT
 70
     1
  9
$CELWEIGHT
370
    -1
  9
$ENDCAPS
280
     0
  9
$JOINSTYLE
280
     0
  9
$LWDISPLAY
290
     0
  9
$INSUNITS
 70
     4
  9
$HYPERLINKBASE
  1

  9
$STYLESHEET
  1
彩色出圖.ctb
  9
$XEDIT
290
     1
  9
$CEPSNTYPE
380
     0
  9
$PSTYLEMODE
290
     1
  9
$FINGERPRINTGUID
  2
{B4560594-CE1C-4F82-B625-A5E34972165A}
  9
$VERSIONGUID
  2
{BAB9A302-B770-463F-9456-049C1FF1323E}
  9
$EXTNAMES
290
     1
  9
$PSVPSCALE
 40
0.0
  9
$OLESTARTUP
290
     0
  0
ENDSEC
  0
SECTION
  2
CLASSES
  0
CLASS
  1
ACDBDICTIONARYWDFLT
  2
AcDbDictionaryWithDefault
  3
ObjectDBX Classes
 90
        0
280
     0
281
     0
  0
CLASS
  1
ACDBPLACEHOLDER
  2
AcDbPlaceHolder
  3
ObjectDBX Classes
 90
        0
280
     0
281
     0
  0
CLASS
  1
LAYOUT
  2
AcDbLayout
  3
ObjectDBX Classes
 90
        0
280
     0
281
     0
  0
CLASS
  1
ACME_DOCUMENT
  2
AcMeDbDoc
  3
AcMeServices
 90
        0
280
     0
281
     0
  0
CLASS
  1
AMGSETTINGSOBJ
  2
AmgSettingsObj
  3
"AcadM|Product Description: AutoCAD Mechanical 2000|Company: Autodesk"
 90
        0
280
     0
281
     0
  0
CLASS
  1
ACMESCOPE
  2
AcMeScope
  3
AcMeServices
 90
        0
280
     0
281
     0
  0
CLASS
  1
ACMECOMMANDHISTORY
  2
AcMeCommandHistory
  3
AcMeServices
 90
        0
280
     0
281
     0
  0
CLASS
  1
ACIMSYSVARMAN
  2
AcImSysVarManager
  3
AcMeServices
 90
        0
280
     0
281
     0
  0
CLASS
  1
ACIMREALSYSVAR
  2
AcImRealSysVar
  3
AcMeServices
 90
        0
280
     0
281
     0
  0
CLASS
  1
ACIMINTSYSVAR
  2
AcImIntSysVar
  3
AcMeServices
 90
        0
280
     0
281
     0
  0
CLASS
  1
ACMEDRAWINGMAN
  2
AcMeDrawingMan
  3
AcMeServices
 90
        0
280
     0
281
     0
  0
CLASS
  1
ACMEVIEW
  2
AcMeView
  3
AcMeServices
 90
        0
280
     0
281
     0
  0
CLASS
  1
ACDBENTITYCACHE
  2
AcMeEntityCache
  3
AcMeServices
 90
        0
280
     0
281
     0
  0
CLASS
  1
GSMANAGER
  2
AcMeGSManager
  3
AcMeServices
 90
        0
280
     0
281
     0
  0
CLASS
  1
AMDTINTERNALREACTOR
  2
AmdtInternalReactor
  3
AcMeServices
 90
        0
280
     0
281
     0
  0
CLASS
  1
ACMESTATEMGR
  2
AcMeStateMgr
  3
AcMeServices
 90
        0
280
     0
281
     0
  0
CLASS
  1
ACGREFMASTER
  2
AcGrefMaster
  3
AcAttribServices
 90
        0
280
     0
281
     0
  0
CLASS
  1
ACME_DATABASE
  2
AcMeDbDatabase
  3
AcMeServices
 90
        0
280
     0
281
     0
  0
CLASS
  1
ACRFINSADJUSTERMGR
  2
AcRfInsAdjusterMgr
  3
AcMeServices
 90
        0
280
     0
281
     0
  0
CLASS
  1
ACGREFACADMASTER
  2
AcGrefacadMaster
  3
AcGrefServices
 90
        0
280
     0
281
     0
  0
CLASS
  1
AMIMASTER
  2
AmiMaster
  3
AmiServices
 90
        0
280
     0
281
     0
  0
CLASS
  1
ACMDATADICTIONARY
  2
AcmDataDictionary
  3
"AcmSymBB|Product Description: AutoCAD Mechanical 2004 DX|Company: Autodesk"
 90
        0
280
     0
281
     0
  0
CLASS
  1
ACMDATAENTRYBLOCK
  2
AcmDataEntryBlock
  3
"AcmSymBB|Product Description: AutoCAD Mechanical 2004 DX|Company: Autodesk"
 90
        0
280
     0
281
     0
  0
CLASS
  1
ACIMSTRSYSVAR
  2
AcImStrSysVar
  3
AcMeServices
 90
        0
280
     0
281
     0
  0
CLASS
  1
ACMSTANDARDISO
  2
AcmStandardISO
  3
"Amdt_StdImp|Product Description: AutoCAD Mechanical 2004 DX|Company: Autodesk"
 90
        0
280
     0
281
     0
  0
CLASS
  1
AMGOBJPROPCFG
  2
AmgObjPropCfg
  3
"AmgLay|Product Description: AutoCAD Mechanical 2000|Company: Autodesk"
 90
        1
280
     0
281
     0
  0
CLASS
  1
AMDTEDGESTANDARDISO
  2
AmdtEdgeStdISO
  3
"Amdt_StdImp|Product Description: AutoCAD Mechanical 2004 DX|Company: Autodesk"
 90
        0
280
     0
281
     0
  0
CLASS
  1
ACMSURFSTANDARDISO
  2
AcmSurfTextStdISO
  3
"Amdt_StdImp|Product Description: AutoCAD Mechanical 2004 DX|Company: Autodesk"
 90
        0
280
     0
281
     0
  0
CLASS
  1
ACMFCFSTANDARDISO
  2
AcmFCFStdISO
  3
"Amdt_StdImp|Product Description: AutoCAD Mechanical 2004 DX|Company: Autodesk"
 90
        0
280
     0
281
     0
  0
CLASS
  1
ACMWELDSTANDARDISO
  2
AcmWeldingStdISO
  3
"Amdt_StdImp|Product Description: AutoCAD Mechanical 2004 DX|Company: Autodesk"
 90
        0
280
     0
281
     0
  0
CLASS
  1
ACMIDSTANDARDISO
  2
AcmIdStdISO
  3
"Amdt_StdImp|Product Description: AutoCAD Mechanical 2004 DX|Company: Autodesk"
 90
        0
280
     0
281
     0
  0
CLASS
  1
ACMDATUMSTANDARDISO
  2
AcmDatumStdISO
  3
"Amdt_StdImp|Product Description: AutoCAD Mechanical 2004 DX|Company: Autodesk"
 90
        0
280
     0
281
     0
  0
CLASS
  1
ACMBOMSTANDARDISO
  2
AcmBOMStdISO
  3
"Amdt_StdImp|Product Description: AutoCAD Mechanical 2004 DX|Company: Autodesk"
 90
        0
280
     0
281
     0
  0
CLASS
  1
ACMDETAILSTANDARDISO
  2
AmdtDetailSymStdISO
  3
"Amdt_StdImp|Product Description: AutoCAD Mechanical 2004 DX|Company: Autodesk"
 90
        0
280
     0
281
     0
  0
CLASS
  1
ACMSECTIONSTANDARDISO
  2
AmdtSectionSymStdISO
  3
"Amdt_StdImp|Product Description: AutoCAD Mechanical 2004 DX|Company: Autodesk"
 90
        0
280
     0
281
     0
  0
CLASS
  1
ACMCENTERLINESTANDARDISO
  2
AmdtCenterLineStdISO
  3
"Amdt_StdImp|Product Description: AutoCAD Mechanical 2004 DX|Company: Autodesk"
 90
        0
280
     0
281
     0
  0
CLASS
  1
ACMNOTESTANDARDISO
  2
AmdtNoteStdISO
  3
"Amdt_StdImp|Product Description: AutoCAD Mechanical 2004 DX|Company: Autodesk"
 90
        0
280
     0
281
     0
  0
CLASS
  1
ACAMGLAYSTD
  2
AcAmgLayStd
  3
"AcAmgLayStd|Product Description: AutoCAD Mechanical 2000|Company: Autodesk"
 90
        0
280
     0
281
     0
  0
CLASS
  1
ACAMGDIMSTD
  2
AcAmgDimStd
  3
"AcAmgDimStd|Product Description: AutoCAD Mechanical 2000|Company: Autodesk"
 90
        0
280
     0
281
     0
  0
CLASS
  1
ACAMGHOLECHARTSTDISO
  2
AcAmgHoleChartStdISO
  3
ACMSYMBB_MODULE_NAME
 90
        0
280
     0
281
     0
  0
CLASS
  1
ACAMGTITLESTD
  2
AcAmgTitleStd
  3
"TITLEAPP"
 90
        0
280
     0
281
     0
  0
CLASS
  1
LAYER_INDEX
  2
AcDbLayerIndex
  3
ObjectDBX Classes
 90
    32768
280
     0
281
     0
  0
CLASS
  1
IDBUFFER
  2
AcDbIdBuffer
  3
ObjectDBX Classes
 90
    32768
280
     0
281
     0
  0
CLASS
  1
DICTIONARYVAR
  2
AcDbDictionaryVar
  3
ObjectDBX Classes
 90
        0
280
     0
281
     0
  0
CLASS
  1
AM_DRAWING_MGR
  2
AcDmDwgMgr
  3
AcMechDwgViewMgmt
 90
        0
280
     0
281
     0
  0
CLASS
  1
AM_DWG_DOCUMENT
  2
AcDmDwgDocument
  3
AcMechDwgViewMgmt
 90
        0
280
     0
281
     0
  0
CLASS
  1
AM_DWG_SHEET
  2
AcDmSheet
  3
AcMechDwgViewMgmt
 90
        0
280
     0
281
     0
  0
CLASS
  1
AM_VIEWDIMPARMAP
  2
AcDmViewDimParMap
  3
AcMechDwgViewMgmt
 90
        0
280
     0
281
     0
  0
CLASS
  1
AM_DWGMGR_NAME
  2
AcDmDwgMgrName
  3
AcMechDwgViewMgmt
 90
        0
280
     0
281
     0
  0
CLASS
  1
AMDTMENUSTATEMGR
  2
AmdtMenuStateMgr
  3
McadcomServices
 90
        0
280
     0
281
     0
  0
CLASS
  1
AMDTMCOMMENUSTATE
  2
AmdtMcomMenuState
  3
McadcomServices
 90
        0
280
     0
281
     0
  0
CLASS
  1
MAPIAMMOUDLE
  2
MApiAmModule
  3
MApiAmServices
 90
        0
280
     0
281
     0
  0
CLASS
  1
AMDTADMENUSTATE
  2
AmdtAdMenuState
  3
DesignerServices
 90
        0
280
     0
281
     0
  0
CLASS
  1
ADAPPL
  2
AcAdAppl
  3
DesignerServices
 90
        0
280
     0
281
     0
  0
CLASS
  1
DEPMGR
  2
AcAdDepMgr
  3
DesignerServices
 90
        0
280
     0
281
     0
  0
CLASS
  1
PARAMMGR
  2
AcAdParamMgr
  3
DesignerServices
 90
        0
280
     0
281
     0
  0
CLASS
  1
PARAMSCOPE
  2
AcAdParamScope
  3
DesignerServices
 90
        0
280
     0
281
     0
  0
CLASS
  1
NAMEDAPPL
  2
AcAdNamedAppl
  3
DesignerServices
 90
        0
280
     0
281
     0
  0
CLASS
  1
AMDTDMMENUSTATE
  2
AmdtDmMenuState
  3
AcMechDwgViewMgmt
 90
        0
280
     0
281
     0
  0
CLASS
  1
AMDTAMMENUSTATE
  2
AmdtAmMenuState
  3
DesignerAssemblies
 90
        0
280
     0
281
     0
  0
CLASS
  1
ACAMPROJECT
  2
AcAmProject
  3
DesignerAssemblies
 90
        0
280
     0
281
     0
  0
CLASS
  1
ACAMGRCOMPDEF
  2
AcAmGrCompDef
  3
DesignerAssemblies
 90
        0
280
     0
281
     0
  0
CLASS
  1
ACCMCONTEXT
  2
AcCmContext
  3
DesignerAssemblies
 90
        0
280
     0
281
     0
  0
CLASS
  1
ACAMCOMPDEF
  2
AcAmCompDef
  3
DesignerAssemblies
 90
        0
280
     0
281
     0
  0
CLASS
  1
ACAMCOMPDEFMGR
  2
AcAmCompDefMgr
  3
DesignerAssemblies
 90
        0
280
     0
281
     0
  0
CLASS
  1
AMCONTEXTMGR
  2
AcAmContextMgr
  3
DesignerAssemblies
 90
        0
280
     0
281
     0
  0
CLASS
  1
ACAMCONTEXTMODELER
  2
AcAmContextModeler
  3
DesignerAssemblies
 90
        0
280
     0
281
     0
  0
CLASS
  1
ACMTHREADLINESTANDARDISO
  2
AmdtThreadLineStdISO
  3
"Amdt_StdImp|Product Description: AutoCAD Mechanical 2004 DX|Company: Autodesk"
 90
        0
280
     0
281
     0
  0
CLASS
  1
CATALOGSTATE
  2
AcAmCatalogState
  3
DesignerAssemblies
 90
        0
280
     0
281
     0
  0
CLASS
  1
ACAMGRCOMPDEFSET
  2
AcAmGrCompDefSet
  3
DesignerAssemblies
 90
        0
280
     0
281
     0
  0
CLASS
  1
AMDTBROWSERDBTAB
  2
AmdtBrowserDbTab
  3
McadcomServices
 90
        0
280
     0
281
     0
  0
CLASS
  1
CBROWSERAPPOBJECT
  2
CBrowserAppObject
  3
McadcomServices
 90
        0
280
     0
281
     0
  0
CLASS
  1
DM_PLACEHOLDER
  2
AcDmSelsetPlaceholder
  3
AcMechDwgViewMgmt
 90
        0
280
     0
281
     0
  0
CLASS
  1
TABLESTYLE
  2
AcDbTableStyle
  3
ObjectDBX Classes
 90
     2047
280
     0
281
     0
  0
CLASS
  1
VAACXREFPANELOBJECT
  2
VaAcXREFPanelObject
  3
VAAC_ADDIN
 90
        0
280
     0
281
     0
  0
CLASS
  1
VAACIMAGEINVENTORY
  2
VaAcImageInventory
  3
VAAC_ADDIN
 90
        0
280
     0
281
     0
  0
CLASS
  1
AMDTNOTETEMPLATEDB
  2
AmdtNoteTemplateDB
  3
AMDT_STDIMP_MODULE_NAME
 90
        0
280
     0
281
     0
  0
CLASS
  1
ACMBOM
  2
AcmBom
  3
"AcmSymBB|Product Description: AutoCAD Mechanical 2004 DX|Company: Autodesk"
 90
    32768
280
     0
281
     0
  0
CLASS
  1
AMDTFORMULAUPDATEDISPATCHER
  2
AmdtFormulaUpdateDispatcher
  3
AcMeServices
 90
    32768
280
     0
281
     0
  0
CLASS
  1
ACMPARTLIST
  2
AcmPartList
  3
"AcmSymBB|Product Description: AutoCAD Mechanical 2004 DX|Company: Autodesk"
 90
    33791
280
     0
281
     1
  0
CLASS
  1
ACAMGFILTERDAT
  2
AcAmgFilterDat
  3
"AcadM|Product Description: AutoCAD Mechanical 2000|Company: Autodesk"
 90
        0
280
     0
281
     0
  0
CLASS
  1
DIMASSOC
  2
AcDbDimAssoc
  3
"AcDbDimAssoc|Product Desc:     AcDim ARX App For Dimension|Company:          Autodesk, Inc.|WEB Address:      www.autodesk.com"
 90
    32768
280
     0
281
     0
  0
CLASS
  1
SORTENTSTABLE
  2
AcDbSortentsTable
  3
ObjectDBX Classes
 90
        0
280
     0
281
     0
  0
CLASS
  1
ACRFATTGENMGR
  2
AcRfAttGeneralMgr
  3
AcAttribServices
 90
        0
280
     0
281
     0
  0
ENDSEC
  0
SECTION
  2
TABLES
  0
TABLE
  2
VPORT
  5
8
330
0
100
AcDbSymbolTable
 70
     4
  0
VPORT
  5
850
330
8
100
AcDbSymbolTableRecord
100
AcDbViewportTableRecord
  2
*Active
 70
     0
 10
0.0
 20
0.0
 11
1.0
 21
1.0
 12
265.8517466483774
 22
300.6166545288891
 13
0.0
 23
0.0
 14
2.5
 24
2.5
 15
10.0
 25
10.0
 16
0.0
 26
0.0
 36
1.0
 17
0.0
 27
0.0
 37
0.0
 40
292.6462583427584
 41
1.218987341772151
 42
50.0
 43
0.0
 44
0.0
 50
0.0
 51
0.0
 71
     0
 72
   100
 73
     1
 74
     3
 75
     0
 76
     0
 77
     0
 78
     0
281
     0
 65
     1
110
0.0
120
0.0
130
0.0
111
1.0
121
0.0
131
0.0
112
0.0
122
1.0
132
0.0
 79
     0
146
0.0
  0
ENDTAB
  0
TABLE
  2
LTYPE
  5
5
330
0
100
AcDbSymbolTable
 70
    14
  0
LTYPE
  5
14
330
5
100
AcDbSymbolTableRecord
100
AcDbLinetypeTableRecord
  2
ByBlock
 70
     0
  3

 72
    65
 73
     0
 40
0.0
  0
LTYPE
  5
15
330
5
100
AcDbSymbolTableRecord
100
AcDbLinetypeTableRecord
  2
ByLayer
 70
     0
  3

 72
    65
 73
     0
 40
0.0
  0
LTYPE
  5
16
330
5
100
AcDbSymbolTableRecord
100
AcDbLinetypeTableRecord
  2
Continuous
 70
     0
  3
Solid line
 72
    65
 73
     0
 40
0.0
  0
LTYPE
  5
64
330
5
100
AcDbSymbolTableRecord
100
AcDbLinetypeTableRecord
  2
AM_ISO02W050
 70
     0
  3
__ __ __ __ __ __ __ __ __ __ __ __ __ __ __
 72
    65
 73
     2
 40
7.5
 49
6.0
 74
     0
 49
-1.5
 74
     0
  0
LTYPE
  5
65
330
5
100
AcDbSymbolTableRecord
100
AcDbLinetypeTableRecord
  2
AM_ISO08W050
 70
     0
  3
____ . ____ . ____ . ____ . ____ . ____ . ____
 72
    65
 73
     4
 40
18.0
 49
12.0
 74
     0
 49
-1.5
 74
     0
 49
3.0
 74
     0
 49
-1.5
 74
     0
  0
LTYPE
  5
66
330
5
100
AcDbSymbolTableRecord
100
AcDbLinetypeTableRecord
  2
AM_ISO09W050
 70
     0
  3
_____ . . _____ . . _____ . . ____ .. ____
 72
    65
 73
     6
 40
22.5
 49
12.0
 74
     0
 49
-1.5
 74
     0
 49
3.0
 74
     0
 49
-1.5
 74
     0
 49
3.0
 74
     0
 49
-1.5
 74
     0
  0
LTYPE
  5
67
330
5
100
AcDbSymbolTableRecord
100
AcDbLinetypeTableRecord
  2
Amconstr
 70
     0
  3
_______________________
 72
    65
 73
     2
 40
9999.0
 49
9999.0
 74
     0
 49
0.0
 74
     0
  0
LTYPE
  5
68
330
5
100
AcDbSymbolTableRecord
100
AcDbLinetypeTableRecord
  2
AM_ISO08W050x2
 70
     0
  3
__ . __ . __ . __ . __ . __
 72
    65
 73
     4
 40
9.0
 49
6.0
 74
     0
 49
-0.75
 74
     0
 49
1.5
 74
     0
 49
-0.75
 74
     0
  0
LTYPE
  5
69
330
5
100
AcDbSymbolTableRecord
100
AcDbLinetypeTableRecord
  2
AM_ISO02W050x2
 70
     0
  3
 _ _ _ _ _ _ _ _ _ _ _ _
 72
    65
 73
     2
 40
3.75
 49
3.0
 74
     0
 49
-0.75
 74
     0
  0
LTYPE
  5
6C
330
5
100
AcDbSymbolTableRecord
100
AcDbLinetypeTableRecord
  2
Amzigzag
 70
     0
  3
/\/-/\/-/\/-/\/-/\/-/\/
 72
    65
 73
     2
 40
11.0001
 49
0.0001
 74
     4
 75
   135
340
6B
 46
0.04
 50
0.0
 44
0.0
 45
0.0
 49
-11.0
 74
     0
  0
LTYPE
  5
7A
330
5
100
AcDbSymbolTableRecord
100
AcDbLinetypeTableRecord
  2
ACISOWELD
 70
     0
  3
_ _ _ _ _
 72
    65
 73
     2
 40
2.0
 49
2.0
 74
     0
 49
-1.0
 74
     0
  0
LTYPE
  5
7B
330
5
100
AcDbSymbolTableRecord
100
AcDbLinetypeTableRecord
  2
ACISOTGB
 70
     0
  3
__ . . __ . .
 72
    65
 73
     6
 40
9.0
 49
4.0
 74
     0
 49
-1.0
 74
     0
 49
1.0
 74
     0
 49
-1.0
 74
     0
 49
1.0
 74
     0
 49
-1.0
 74
     0
  0
LTYPE
  5
7C
330
5
100
AcDbSymbolTableRecord
100
AcDbLinetypeTableRecord
  2
ACISOTGL
 70
     0
  3
_ _ _ _ _
 72
    65
 73
     2
 40
3.0
 49
2.0
 74
     0
 49
-1.0
 74
     0
  0
LTYPE
  5
7E
330
5
100
AcDbSymbolTableRecord
100
AcDbLinetypeTableRecord
  2
CENTER
 70
     0
  3
__ . __
 72
    65
 73
     4
 40
7.0
 49
4.0
 74
     0
 49
-1.0
 74
     0
 49
1.0
 74
     0
 49
-1.0
 74
     0
  0
LTYPE
  5
D8
330
5
100
AcDbSymbolTableRecord
100
AcDbLinetypeTableRecord
  2
HIDDEN
 70
     0
  3
Hidden __ __ __ __ __ __ __ __ __ __ __ __ __ _
 72
    65
 73
     2
 40
9.524999999999998
 49
6.349999999999999
 74
     0
 49
-3.174999999999999
 74
     0
  0
LTYPE
  5
D9
330
5
100
AcDbSymbolTableRecord
100
AcDbLinetypeTableRecord
  2
PHANTOM2
 70
     0
  3
Phantom (.5x) ___ _ _ ___ _ _ ___ _ _ ___ _ _
 72
    65
 73
     6
 40
31.75
 49
15.875
 74
     0
 49
-3.174999999999999
 74
     0
 49
3.174999999999999
 74
     0
 49
-3.174999999999999
 74
     0
 49
3.174999999999999
 74
     0
 49
-3.174999999999999
 74
     0
  0
ENDTAB
  0
TABLE
  2
LAYER
  5
2
102
{ACAD_XDICTIONARY
360
3C3
102
}
330
0
100
AcDbSymbolTable
 70
     6
  0
LAYER
  5
10
330
2
100
AcDbSymbolTableRecord
100
AcDbLayerTableRecord
  2
0
 70
     0
 62
     7
  6
Continuous
370
    -3
390
F
  0
LAYER
  5
3B1
330
2
100
AcDbSymbolTableRecord
100
AcDbLayerTableRecord
  2
Defpoints
 70
     0
 62
     7
  6
Continuous
290
     0
370
    -3
390
F
  0
LAYER
  5
3B2
330
2
100
AcDbSymbolTableRecord
100
AcDbLayerTableRecord
  2
AM_VIS
 70
     2
 62
     7
  6
Continuous
370
    50
390
F
  0
LAYER
  5
3B3
330
2
100
AcDbSymbolTableRecord
100
AcDbLayerTableRecord
  2
AM_7
 70
     0
 62
     1
  6
AM_ISO08W050
370
    25
390
F
  0
LAYER
  5
3B4
330
2
100
AcDbSymbolTableRecord
100
AcDbLayerTableRecord
  2
AM_6
 70
     0
 62
     2
  6
Continuous
370
    35
390
F
  0
LAYER
  5
3B5
330
2
100
AcDbSymbolTableRecord
100
AcDbLayerTableRecord
  2
LOGO
 70
     0
 62
     7
  6
Continuous
370
    -3
390
F
  0
ENDTAB
  0
TABLE
  2
STYLE
  5
3
330
0
100
AcDbSymbolTable
 70
     6
  0
STYLE
  5
11
330
3
100
AcDbSymbolTableRecord
100
AcDbTextStyleTableRecord
  2
STANDARD
 70
     0
 40
0.0
 41
1.0
 50
0.0
 71
     0
 42
3.0
  3
ISOCP.SHX
  4
CHINESET.SHX
  0
STYLE
  5
6B
330
3
100
AcDbSymbolTableRecord
100
AcDbTextStyleTableRecord
  2

 70
     1
 40
0.0
 41
1.0
 50
0.0
 71
     0
 42
2.5
  3
ltypeshp.shx
  4

  0
STYLE
  5
6D
330
3
100
AcDbSymbolTableRecord
100
AcDbTextStyleTableRecord
  2
ACISOTS
 70
     0
 40
1.0
 41
1.0
 50
0.0
 71
     0
 42
1.0
  3
isocp.shx
  4
chineset.shx
  0
STYLE
  5
79
330
3
100
AcDbSymbolTableRecord
100
AcDbTextStyleTableRecord
  2
ACISOGDT
 70
     0
 40
0.0
 41
1.0
 50
0.0
 71
     0
 42
2.5
  3
amgdt.shx
  4
chineset.shx
  0
STYLE
  5
3B6
330
3
100
AcDbSymbolTableRecord
100
AcDbTextStyleTableRecord
  2
CHINESET
 70
     0
 40
0.0
 41
1.0
 50
0.0
 71
     0
 42
2.5
  3
simplex.shx
  4
CHINESET.shx
  0
ENDTAB
  0
TABLE
  2
VIEW
  5
6
330
0
100
AcDbSymbolTable
 70
     0
  0
ENDTAB
  0
TABLE
  2
UCS
  5
7
330
0
100
AcDbSymbolTable
 70
     0
  0
ENDTAB
  0
TABLE
  2
APPID
  5
9
330
0
100
AcDbSymbolTable
 70
    18
  0
APPID
  5
12
330
9
100
AcDbSymbolTableRecord
100
AcDbRegAppTableRecord
  2
ACAD
 70
     0
  0
APPID
  5
46
330
9
100
AcDbSymbolTableRecord
100
AcDbRegAppTableRecord
  2
MCAD_NO_VIS
 70
     0
  0
APPID
  5
47
330
9
100
AcDbSymbolTableRecord
100
AcDbRegAppTableRecord
  2
ACAD_TEMP_GRAPHIC
 70
     0
  0
APPID
  5
58
330
9
100
AcDbSymbolTableRecord
100
AcDbRegAppTableRecord
  2
ACATTRIBSERVICES
 70
     0
  0
APPID
  5
EE
330
9
100
AcDbSymbolTableRecord
100
AcDbRegAppTableRecord
  2
AD_DRAW
 70
     0
  0
APPID
  5
10C
330
9
100
AcDbSymbolTableRecord
100
AcDbRegAppTableRecord
  2
DESIGNERASSEMBLIES
 70
     0
  0
APPID
  5
111
330
9
100
AcDbSymbolTableRecord
100
AcDbRegAppTableRecord
  2
ACADM_DIM_EDIT
 70
     0
  0
APPID
  5
112
330
9
100
AcDbSymbolTableRecord
100
AcDbRegAppTableRecord
  2
AMDT_DM_ADJ
 70
     0
  0
APPID
  5
1FE
330
9
100
AcDbSymbolTableRecord
100
AcDbRegAppTableRecord
  2
ACAD_DSTYLE_DIMTEXT_FILL
 70
     0
  0
APPID
  5
2B5
330
9
100
AcDbSymbolTableRecord
100
AcDbRegAppTableRecord
  2
GENIUS_GENOLIS_13
 70
     0
  0
APPID
  5
2B6
330
9
100
AcDbSymbolTableRecord
100
AcDbRegAppTableRecord
  2
GENIUS_GENOENT_13
 70
     0
  0
APPID
  5
2B7
330
9
100
AcDbSymbolTableRecord
100
AcDbRegAppTableRecord
  2
GENIUS_GENOBJ-N-CRS_13
 70
     0
  0
APPID
  5
2B8
330
9
100
AcDbSymbolTableRecord
100
AcDbRegAppTableRecord
  2
GENIUS_GENODEF_13
 70
     0
  0
APPID
  5
2B9
330
9
100
AcDbSymbolTableRecord
100
AcDbRegAppTableRecord
  2
GENIUS_GENOREF_13
 70
     0
  0
APPID
  5
3BF
330
9
100
AcDbSymbolTableRecord
100
AcDbRegAppTableRecord
  2
ACAD_PSEXT
 70
     0
  0
APPID
  5
3C0
330
9
100
AcDbSymbolTableRecord
100
AcDbRegAppTableRecord
  2
GENIUS_AMGTXT_16
 70
     0
  0
APPID
  5
3C1
330
9
100
AcDbSymbolTableRecord
100
AcDbRegAppTableRecord
  2
GENIUS_GENREC_14
 70
     0
  0
APPID
  5
3C2
330
9
100
AcDbSymbolTableRecord
100
AcDbRegAppTableRecord
  2
GENIUS_GENOBJ-N-REC_13
 70
     0
  0
ENDTAB
  0
TABLE
  2
DIMSTYLE
  5
A
330
0
100
AcDbSymbolTable
 70
    17
100
AcDbDimStyleTable
 71
     1
340
81
  0
DIMSTYLE
105
81
330
A
100
AcDbSymbolTableRecord
100
AcDbDimStyleTableRecord
  2
AM_ISO
 70
     0
  4
"
 41
3.0
 42
1.5
 43
8.0
 44
1.5
 47
0.1
 48
0.1
 73
     0
 74
     0
 77
     1
 78
     8
 79
     2
140
3.5
141
0.0
143
0.0393701
146
0.71
147
1.5
172
     1
176
   256
177
   256
178
   256
271
     2
272
     2
283
     0
284
     8
340
11
371
    -1
372
    -1
  0
DIMSTYLE
105
82
330
A
100
AcDbSymbolTableRecord
100
AcDbDimStyleTableRecord
  2
AM_ISO$3
 70
     0
  4
"
 41
3.0
 42
1.5
 43
8.0
 44
1.5
 47
0.1
 48
0.1
 73
     0
 77
     1
 78
     8
 79
     2
140
3.5
141
0.0
143
0.0393701
146
0.71
147
1.5
176
   256
177
   256
178
   256
271
     2
272
     2
283
     0
284
     8
288
     1
289
     0
340
11
371
    -1
372
    -1
  0
DIMSTYLE
105
83
330
A
100
AcDbSymbolTableRecord
100
AcDbDimStyleTableRecord
  2
AM_ISO$4
 70
     0
  4
"
 41
3.0
 42
1.5
 43
8.0
 44
1.5
 47
0.1
 48
0.1
 73
     0
 77
     1
 78
     8
 79
     2
140
3.5
141
0.0
143
0.0393701
146
0.71
147
1.5
176
   256
177
   256
178
   256
271
     2
272
     2
283
     0
284
     8
288
     1
289
     0
340
11
371
    -1
372
    -1
  0
DIMSTYLE
105
84
330
A
100
AcDbSymbolTableRecord
100
AcDbDimStyleTableRecord
  2
AM_ISO$6
 70
     0
  4
"
 41
3.0
 42
1.5
 43
8.0
 44
1.5
 47
0.1
 48
0.1
 73
     0
 74
     0
 78
     8
 79
     2
140
3.5
141
0.0
143
0.0393701
146
0.71
147
1.5
172
     1
176
   256
177
   256
178
   256
271
     2
272
     2
283
     0
284
     8
340
11
371
    -1
372
    -1
  0
DIMSTYLE
105
85
330
A
100
AcDbSymbolTableRecord
100
AcDbDimStyleTableRecord
  2
AM_ISO$7
 70
     0
  4
"
 41
3.0
 42
1.5
 43
8.0
 44
1.5
 47
0.1
 48
0.1
 73
     0
 74
     0
 77
     1
 78
     8
 79
     2
140
5.0
141
0.0
143
0.0393701
146
0.71
147
1.5
172
     1
176
   256
177
   256
178
   256
271
     2
272
     2
283
     0
284
     8
340
11
371
    -1
372
    -1
  0
DIMSTYLE
105
86
330
A
100
AcDbSymbolTableRecord
100
AcDbDimStyleTableRecord
  2
AM_ISO$SF
 70
     0
  4
"
 41
2.5
 42
1.0
 43
10.0
 44
1.0
 47
0.1
 48
0.1
 73
     0
 74
     0
 75
     1
 76
     1
 77
     1
 78
     8
 79
     2
140
3.5
141
0.0
143
0.0393701
146
0.71
147
1.5
172
     1
176
   256
177
   256
178
     2
271
     2
272
     3
274
     4
283
     0
284
     8
340
11
371
    -1
372
    -1
  0
DIMSTYLE
105
8B
330
A
100
AcDbSymbolTableRecord
100
AcDbDimStyleTableRecord
  2
AM_ISO$SH
 70
     0
  4
"
 41
2.5
 42
1.0
 43
10.0
 44
1.0
 47
0.1
 48
0.1
 73
     0
 74
     0
 75
     1
 76
     1
 77
     1
 78
     8
 79
     2
140
3.5
141
0.0
143
0.0393701
144
2.0
146
0.71
147
1.5
172
     1
173
     1
176
   256
177
   256
178
     2
271
     2
272
     3
274
     4
283
     0
284
     8
340
11
343
87
371
    -1
372
    -1
  0
DIMSTYLE
105
27B
330
A
100
AcDbSymbolTableRecord
100
AcDbDimStyleTableRecord
  2
AM_ISO$0
 70
     0
  4
"
 41
3.0
 42
1.5
 43
8.0
 44
1.5
 47
0.1
 48
0.1
 73
     0
 74
     0
 77
     1
 78
     8
 79
     2
140
3.5
141
0.0
143
0.0393701
146
0.71
147
1.5
172
     1
176
   256
177
   256
178
   256
271
     2
272
     2
283
     0
284
     8
340
11
371
    -1
372
    -1
  0
DIMSTYLE
105
3B7
102
{ACAD_REACTORS
330
4CD
330
4CE
330
4CC
330
4CB
330
4CA
330
5A8
330
5A9
330
5AA
330
6B7
330
6B8
330
6B9
330
6BA
330
795
330
796
330
797
102
}
330
A
100
AcDbSymbolTableRecord
100
AcDbDimStyleTableRecord
  2
STANDARD
 70
     0
 41
3.0
 42
2.0
 43
8.0
 44
2.0
 48
0.000000001
 73
     0
 74
     0
 77
     1
 78
     8
 79
     2
140
3.0
141
1.0
146
0.6
147
1.0
176
   256
177
   256
178
   256
179
     2
271
     2
272
     2
279
     2
284
     8
340
3B6
371
    -1
  0
DIMSTYLE
105
3B8
330
A
100
AcDbSymbolTableRecord
100
AcDbDimStyleTableRecord
  2
AM_JIS
 70
     0
  4
"
 41
2.5
 42
1.0
 43
10.0
 44
1.0
 47
0.1
 48
0.1
 73
     0
 74
     0
 77
     3
 78
     8
 79
     2
140
3.5
141
0.0
143
0.0393701
146
0.71
147
1.5
172
     1
176
   256
177
   256
178
     2
271
     2
272
     3
274
     4
283
     0
340
11
341
357
342
357
343
357
344
357
371
    -1
372
    -1
  0
DIMSTYLE
105
3B9
330
A
100
AcDbSymbolTableRecord
100
AcDbDimStyleTableRecord
  2
AM_JIS$3
 70
     0
  4
"
 41
2.5
 42
1.0
 43
10.0
 44
1.0
 47
0.1
 48
0.1
 73
     0
 77
     3
 78
     8
 79
     2
140
3.5
141
0.0
143
0.0393701
146
0.71
147
1.5
176
   256
177
   256
178
     2
271
     2
272
     3
274
     4
283
     0
288
     1
289
     0
340
11
341
357
342
357
343
357
344
357
371
    -1
372
    -1
  0
DIMSTYLE
105
3BA
330
A
100
AcDbSymbolTableRecord
100
AcDbDimStyleTableRecord
  2
AM_JIS$4
 70
     0
  4
"
 41
2.5
 42
1.0
 43
10.0
 44
1.0
 47
0.1
 48
0.1
 73
     0
 77
     3
 78
     8
 79
     2
140
3.5
141
0.0
143
0.0393701
146
0.71
147
1.5
176
   256
177
   256
178
     2
271
     2
272
     3
274
     4
283
     0
288
     1
289
     0
340
11
341
357
342
357
343
357
344
357
371
    -1
372
    -1
  0
DIMSTYLE
105
3BB
330
A
100
AcDbSymbolTableRecord
100
AcDbDimStyleTableRecord
  2
AM_JIS$6
 70
     0
  4
"
 41
2.5
 42
1.0
 43
10.0
 44
1.0
 47
0.1
 48
0.1
 73
     0
 74
     0
 78
     8
 79
     2
140
3.5
141
0.0
143
0.0393701
146
0.71
147
1.5
172
     1
176
   256
177
   256
178
     2
271
     2
272
     3
274
     4
283
     0
340
11
341
357
342
357
343
357
344
357
371
    -1
372
    -1
  0
DIMSTYLE
105
3BC
330
A
100
AcDbSymbolTableRecord
100
AcDbDimStyleTableRecord
  2
AM_JIS$7
 70
     0
  4
"
 41
2.5
 42
1.0
 43
10.0
 44
1.0
 47
0.1
 48
0.1
 73
     0
 74
     0
 77
     3
 78
     8
 79
     2
140
5.0
141
0.0
143
0.0393701
146
0.71
147
1.5
172
     1
176
   256
177
   256
178
     2
271
     2
272
     3
274
     4
283
     0
340
11
341
357
342
357
343
357
344
357
371
    -1
372
    -1
  0
DIMSTYLE
105
3BD
330
A
100
AcDbSymbolTableRecord
100
AcDbDimStyleTableRecord
  2
AM_JIS$SF
 70
     0
  4
"
 41
2.5
 42
1.0
 43
10.0
 44
1.0
 47
0.1
 48
0.1
 73
     0
 74
     0
 75
     1
 76
     1
 77
     3
 78
     8
 79
     2
140
3.5
141
0.0
143
0.0393701
146
0.71
147
1.5
172
     1
176
   256
177
   256
178
     2
271
     2
272
     3
274
     4
283
     0
340
11
341
357
342
357
343
357
344
357
371
    -1
372
    -1
  0
DIMSTYLE
105
3BE
330
A
100
AcDbSymbolTableRecord
100
AcDbDimStyleTableRecord
  2
AM_JIS$SH
 70
     0
  4
"
 41
2.5
 42
1.0
 43
10.0
 44
1.0
 47
0.1
 48
0.1
 73
     0
 74
     0
 75
     1
 76
     1
 77
     3
 78
     8
 79
     2
140
3.5
141
0.0
143
0.0393701
144
2.0
146
0.71
147
1.5
172
     1
173
     1
176
   256
177
   256
178
     2
271
     2
272
     3
274
     4
283
     0
340
11
341
357
342
357
343
87
344
357
371
    -1
372
    -1
  0
ENDTAB
  0
TABLE
  2
BLOCK_RECORD
  5
1
330
0
100
AcDbSymbolTable
 70
    20
  0
BLOCK_RECORD
  5
1F
102
{ACAD_XDICTIONARY
360
8F
102
}
330
1
100
AcDbSymbolTableRecord
100
AcDbBlockTableRecord
  2
*Model_Space
340
22
  0
BLOCK_RECORD
  5
1B
330
1
100
AcDbSymbolTableRecord
100
AcDbBlockTableRecord
  2
*Paper_Space
340
1E
  0
BLOCK_RECORD
  5
23
330
1
100
AcDbSymbolTableRecord
100
AcDbBlockTableRecord
  2
*Paper_Space0
340
26
  0
BLOCK_RECORD
  5
87
330
1
100
AcDbSymbolTableRecord
100
AcDbBlockTableRecord
  2
GENAXEH
340
0
  0
BLOCK_RECORD
  5
357
330
1
100
AcDbSymbolTableRecord
100
AcDbBlockTableRecord
  2
_Open30
340
0
  0
BLOCK_RECORD
  5
35D
330
1
100
AcDbSymbolTableRecord
100
AcDbBlockTableRecord
  2
*D4
340
0
  0
BLOCK_RECORD
  5
369
330
1
100
AcDbSymbolTableRecord
100
AcDbBlockTableRecord
  2
*D5
340
0
  0
BLOCK_RECORD
  5
375
330
1
100
AcDbSymbolTableRecord
100
AcDbBlockTableRecord
  2
*D6
340
0
  0
BLOCK_RECORD
  5
381
330
1
100
AcDbSymbolTableRecord
100
AcDbBlockTableRecord
  2
*D7
340
0
  0
BLOCK_RECORD
  5
38D
330
1
100
AcDbSymbolTableRecord
100
AcDbBlockTableRecord
  2
*D8
340
0
  0
BLOCK_RECORD
  5
399
330
1
100
AcDbSymbolTableRecord
100
AcDbBlockTableRecord
  2
*D9
340
0
  0
BLOCK_RECORD
  5
3A5
330
1
100
AcDbSymbolTableRecord
100
AcDbBlockTableRecord
  2
*D10
340
0
  0
BLOCK_RECORD
  5
79B
330
1
100
AcDbSymbolTableRecord
100
AcDbBlockTableRecord
  2
*D12
340
0
  0
BLOCK_RECORD
  5
7A7
330
1
100
AcDbSymbolTableRecord
100
AcDbBlockTableRecord
  2
*D13
340
0
  0
BLOCK_RECORD
  5
7B3
330
1
100
AcDbSymbolTableRecord
100
AcDbBlockTableRecord
  2
*D14
340
0
  0
BLOCK_RECORD
  5
7BF
330
1
100
AcDbSymbolTableRecord
100
AcDbBlockTableRecord
  2
*D15
340
0
  0
BLOCK_RECORD
  5
7CB
330
1
100
AcDbSymbolTableRecord
100
AcDbBlockTableRecord
  2
*D16
340
0
  0
BLOCK_RECORD
  5
7D7
330
1
100
AcDbSymbolTableRecord
100
AcDbBlockTableRecord
  2
*D17
340
0
  0
BLOCK_RECORD
  5
7E3
330
1
100
AcDbSymbolTableRecord
100
AcDbBlockTableRecord
  2
*D18
340
0
  0
ENDTAB
  0
ENDSEC
  0
SECTION
  2
BLOCKS
  0
BLOCK
  5
20
330
1F
100
AcDbEntity
  8
0
100
AcDbBlockBegin
  2
*Model_Space
 70
     0
 10
0.0
 20
0.0
 30
0.0
  3
*Model_Space
  1

  0
ENDBLK
  5
21
330
1F
100
AcDbEntity
  8
0
100
AcDbBlockEnd
  0
BLOCK
  5
1C
330
1B
100
AcDbEntity
 67
     1
  8
0
100
AcDbBlockBegin
  2
*Paper_Space
 70
     0
 10
0.0
 20
0.0
 30
0.0
  3
*Paper_Space
  1

  0
ENDBLK
  5
1D
330
1B
100
AcDbEntity
 67
     1
  8
0
100
AcDbBlockEnd
  0
BLOCK
  5
24
330
23
100
AcDbEntity
  8
0
100
AcDbBlockBegin
  2
*Paper_Space0
 70
     0
 10
0.0
 20
0.0
 30
0.0
  3
*Paper_Space0
  1

  0
ENDBLK
  5
25
330
23
100
AcDbEntity
  8
0
100
AcDbBlockEnd
  0
BLOCK
  5
89
330
87
100
AcDbEntity
  8
0
100
AcDbBlockBegin
  2
GENAXEH
 70
     0
 10
0.0
 20
0.0
 30
0.0
  3
GENAXEH
  1

  0
LINE
  5
88
330
87
100
AcDbEntity
  8
0
100
AcDbLine
 10
-1.0
 20
0.0
 30
0.0
 11
1.0
 21
0.0
 31
0.0
  0
ENDBLK
  5
8A
330
87
100
AcDbEntity
  8
0
100
AcDbBlockEnd
  0
BLOCK
  5
358
330
357
100
AcDbEntity
  8
0
100
AcDbBlockBegin
  2
_Open30
 70
     0
 10
0.0
 20
0.0
 30
0.0
  3
_Open30
  1

  0
LINE
  5
359
330
357
100
AcDbEntity
  8
0
 62
     0
370
    -2
100
AcDbLine
 10
-1.0
 20
0.26794919
 30
0.0
 11
0.0
 21
0.0
 31
0.0
  0
LINE
  5
35A
330
357
100
AcDbEntity
  8
0
 62
     0
370
    -2
100
AcDbLine
 10
0.0
 20
0.0
 30
0.0
 11
-1.0
 21
-0.26794919
 31
0.0
  0
LINE
  5
35B
330
357
100
AcDbEntity
  8
0
 62
     0
370
    -2
100
AcDbLine
 10
0.0
 20
0.0
 30
0.0
 11
-1.0
 21
0.0
 31
0.0
  0
ENDBLK
  5
35C
330
357
100
AcDbEntity
  8
0
100
AcDbBlockEnd
  0
BLOCK
  5
35E
330
35D
100
AcDbEntity
  8
0
100
AcDbBlockBegin
  2
*D4
 70
     1
 10
0.0
 20
0.0
 30
0.0
  3
*D4
  1

  0
LINE
  5
35F
330
35D
100
AcDbEntity
  8
0
 62
     5
370
    -2
100
AcDbLine
 10
39.34983979672802
 20
227.5131236003386
 30
0.0
 11
20.94796766453399
 21
227.5131236003386
 31
0.0
  0
LINE
  5
360
330
35D
100
AcDbEntity
  8
0
 62
     5
370
    -2
100
AcDbLine
 10
46.09983979672799
 20
119.5114670252813
 30
0.0
 11
20.94796766453396
 21
119.5114670252813
 31
0.0
  0
LINE
  5
361
330
35D
100
AcDbEntity
  8
0
 62
     5
100
AcDbLine
 10
22.94796766453399
 20
224.5131236003385
 30
0.0
 11
22.94796766453397
 21
122.5114670252813
 31
0.0
  0
SOLID
  5
362
330
35D
100
AcDbEntity
  8
0
 62
     5
100
AcDbTrace
 10
22.44796766453399
 20
224.5131236003385
 30
0.0
 11
23.44796766453399
 21
224.5131236003385
 31
0.0
 12
22.94796766453399
 22
227.5131236003386
 32
0.0
 13
22.94796766453399
 23
227.5131236003386
 33
0.0
  0
SOLID
  5
363
330
35D
100
AcDbEntity
  8
0
 62
     5
100
AcDbTrace
 10
22.44796766453397
 20
122.5114670252813
 30
0.0
 11
23.44796766453397
 21
122.5114670252813
 31
0.0
 12
22.94796766453396
 22
119.5114670252813
 32
0.0
 13
22.94796766453396
 23
119.5114670252813
 33
0.0
  0
MTEXT
  5
364
330
35D
100
AcDbEntity
  8
0
 62
     5
100
AcDbMText
 10
20.44796766453395
 20
173.5122953128099
 30
0.0
 40
3.0
 41
0.0
 71
     5
 72
     1
  1
\A1;108
  7
CHINESET
 11
0.0000000000000001
 21
1.0
 31
0.0
 73
     1
 44
1.0
1001
ACAD
1000
MTEXTBEGIN
1070
    73
1070
     1
1070
    44
1040
1.0
1070
    74
1070
     0
1000
MTEXTEND
  0
POINT
  5
365
330
35D
100
AcDbEntity
  8
Defpoints
 62
     0
100
AcDbPoint
 10
41.34983979672802
 20
227.5131236003386
 30
0.0
  0
POINT
  5
366
330
35D
100
AcDbEntity
  8
Defpoints
 62
     0
100
AcDbPoint
 10
48.09983979672799
 20
119.5114670252813
 30
0.0
  0
POINT
  5
367
330
35D
100
AcDbEntity
  8
Defpoints
 62
     0
100
AcDbPoint
 10
22.94796766453396
 20
119.5114670252813
 30
0.0
  0
ENDBLK
  5
368
330
35D
100
AcDbEntity
  8
0
100
AcDbBlockEnd
  0
BLOCK
  5
36A
330
369
100
AcDbEntity
  8
0
100
AcDbBlockBegin
  2
*D5
 70
     1
 10
0.0
 20
0.0
 30
0.0
  3
*D5
  1

  0
LINE
  5
36B
330
369
100
AcDbEntity
  8
0
 62
     5
370
    -2
100
AcDbLine
 10
181.8988507037384
 20
144.6095355471333
 30
0.0
 11
190.8569530795978
 21
144.6095355471333
 31
0.0
  0
LINE
  5
36C
330
369
100
AcDbEntity
  8
0
 62
     5
370
    -2
100
AcDbLine
 10
181.8988507037383
 20
119.6095355471333
 30
0.0
 11
190.8569530795978
 21
119.6095355471333
 31
0.0
  0
LINE
  5
36D
330
369
100
AcDbEntity
  8
0
 62
     5
100
AcDbLine
 10
188.8569530795978
 20
141.6095355471333
 30
0.0
 11
188.8569530795978
 21
122.6095355471333
 31
0.0
  0
SOLID
  5
36E
330
369
100
AcDbEntity
  8
0
 62
     5
100
AcDbTrace
 10
188.3569530795978
 20
141.6095355471333
 30
0.0
 11
189.3569530795978
 21
141.6095355471333
 31
0.0
 12
188.8569530795978
 22
144.6095355471333
 32
0.0
 13
188.8569530795978
 23
144.6095355471333
 33
0.0
  0
SOLID
  5
36F
330
369
100
AcDbEntity
  8
0
 62
     5
100
AcDbTrace
 10
188.3569530795978
 20
122.6095355471333
 30
0.0
 11
189.3569530795978
 21
122.6095355471333
 31
0.0
 12
188.8569530795978
 22
119.6095355471333
 32
0.0
 13
188.8569530795978
 23
119.6095355471333
 33
0.0
  0
MTEXT
  5
370
330
369
100
AcDbEntity
  8
0
 62
     5
100
AcDbMText
 10
186.3569530795978
 20
132.1095355471334
 30
0.0
 40
3.0
 41
0.0
 71
     5
 72
     1
  1
\A1;25
  7
CHINESET
 11
0.0000000000000001
 21
1.0
 31
0.0
 73
     1
 44
1.0
1001
ACAD
1000
MTEXTBEGIN
1070
    73
1070
     1
1070
    44
1040
1.0
1070
    74
1070
     0
1000
MTEXTEND
  0
POINT
  5
371
330
369
100
AcDbEntity
  8
Defpoints
 62
     0
100
AcDbPoint
 10
179.8988507037384
 20
144.6095355471333
 30
0.0
  0
POINT
  5
372
330
369
100
AcDbEntity
  8
Defpoints
 62
     0
100
AcDbPoint
 10
179.8988507037383
 20
119.6095355471333
 30
0.0
  0
POINT
  5
373
330
369
100
AcDbEntity
  8
Defpoints
 62
     0
100
AcDbPoint
 10
188.8569530795978
 20
119.6095355471333
 30
0.0
  0
ENDBLK
  5
374
330
369
100
AcDbEntity
  8
0
100
AcDbBlockEnd
  0
BLOCK
  5
376
330
375
100
AcDbEntity
  8
0
100
AcDbBlockBegin
  2
*D6
 70
     1
 10
0.0
 20
0.0
 30
0.0
  3
*D6
  1

  0
LINE
  5
377
330
375
100
AcDbEntity
  8
0
 62
     5
370
    -2
100
AcDbLine
 10
124.3988507037383
 20
118.0114670252812
 30
0.0
 11
124.3988507037383
 21
110.2551821513689
 31
0.0
  0
LINE
  5
378
330
375
100
AcDbEntity
  8
0
 62
     5
370
    -2
100
AcDbLine
 10
180.3988507037383
 20
118.1095355471333
 30
0.0
 11
180.3988507037383
 21
110.2551821513689
 31
0.0
  0
LINE
  5
379
330
375
100
AcDbEntity
  8
0
 62
     5
100
AcDbLine
 10
127.3988507037383
 20
112.2551821513689
 30
0.0
 11
177.3988507037383
 21
112.2551821513689
 31
0.0
  0
SOLID
  5
37A
330
375
100
AcDbEntity
  8
0
 62
     5
100
AcDbTrace
 10
127.3988507037383
 20
112.7551821513689
 30
0.0
 11
127.3988507037383
 21
111.7551821513689
 31
0.0
 12
124.3988507037383
 22
112.2551821513689
 32
0.0
 13
124.3988507037383
 23
112.2551821513689
 33
0.0
  0
SOLID
  5
37B
330
375
100
AcDbEntity
  8
0
 62
     5
100
AcDbTrace
 10
177.3988507037383
 20
112.7551821513689
 30
0.0
 11
177.3988507037383
 21
111.7551821513689
 31
0.0
 12
180.3988507037383
 22
112.2551821513689
 32
0.0
 13
180.3988507037383
 23
112.2551821513689
 33
0.0
  0
MTEXT
  5
37C
330
375
100
AcDbEntity
  8
0
 62
     5
100
AcDbMText
 10
152.3988507037383
 20
114.7551821513689
 30
0.0
 40
3.0
 41
0.0
 71
     5
 72
     1
  1
\A1;56
  7
CHINESET
 73
     1
 44
1.0
1001
ACAD
1000
MTEXTBEGIN
1070
    73
1070
     1
1070
    44
1040
1.0
1070
    74
1070
     0
1000
MTEXTEND
  0
POINT
  5
37D
330
375
100
AcDbEntity
  8
Defpoints
 62
     0
100
AcDbPoint
 10
124.3988507037383
 20
120.0114670252812
 30
0.0
  0
POINT
  5
37E
330
375
100
AcDbEntity
  8
Defpoints
 62
     0
100
AcDbPoint
 10
180.3988507037383
 20
120.1095355471333
 30
0.0
  0
POINT
  5
37F
330
375
100
AcDbEntity
  8
Defpoints
 62
     0
100
AcDbPoint
 10
180.3988507037383
 20
112.2551821513689
 30
0.0
  0
ENDBLK
  5
380
330
375
100
AcDbEntity
  8
0
100
AcDbBlockEnd
  0
BLOCK
  5
382
330
381
100
AcDbEntity
  8
0
100
AcDbBlockBegin
  2
*D7
 70
     1
 10
0.0
 20
0.0
 30
0.0
  3
*D7
  1

  0
LINE
  5
383
330
381
100
AcDbEntity
  8
0
 62
     5
370
    -2
100
AcDbLine
 10
157.3924660481726
 20
71.84994532147607
 30
0.0
 11
189.6344930461827
 21
71.84994532147605
 31
0.0
  0
LINE
  5
384
330
381
100
AcDbEntity
  8
0
 62
     5
370
    -2
100
AcDbLine
 10
157.2271220038852
 20
57.84994532147607
 30
0.0
 11
189.6344930461827
 21
57.84994532147607
 31
0.0
  0
LINE
  5
385
330
381
100
AcDbEntity
  8
0
 62
     5
100
AcDbLine
 10
187.6344930461827
 20
68.84994532147605
 30
0.0
 11
187.6344930461827
 21
60.84994532147606
 31
0.0
  0
SOLID
  5
386
330
381
100
AcDbEntity
  8
0
 62
     5
100
AcDbTrace
 10
187.1344930461827
 20
68.84994532147605
 30
0.0
 11
188.1344930461827
 21
68.84994532147605
 31
0.0
 12
187.6344930461827
 22
71.84994532147605
 32
0.0
 13
187.6344930461827
 23
71.84994532147605
 33
0.0
  0
SOLID
  5
387
330
381
100
AcDbEntity
  8
0
 62
     5
100
AcDbTrace
 10
187.1344930461827
 20
60.84994532147606
 30
0.0
 11
188.1344930461827
 21
60.84994532147606
 31
0.0
 12
187.6344930461827
 22
57.84994532147607
 32
0.0
 13
187.6344930461827
 23
57.84994532147607
 33
0.0
  0
MTEXT
  5
388
330
381
100
AcDbEntity
  8
0
 62
     5
100
AcDbMText
 10
185.1344930461826
 20
64.84994532147609
 30
0.0
 40
3.0
 41
0.0
 71
     5
 72
     1
  1
\A1;14
  7
CHINESET
 11
0.0000000000000001
 21
1.0
 31
0.0
 73
     1
 44
1.0
1001
ACAD
1000
MTEXTBEGIN
1070
    73
1070
     1
1070
    44
1040
1.0
1070
    74
1070
     0
1000
MTEXTEND
  0
POINT
  5
389
330
381
100
AcDbEntity
  8
Defpoints
 62
     0
100
AcDbPoint
 10
155.3924660481726
 20
71.84994532147607
 30
0.0
  0
POINT
  5
38A
330
381
100
AcDbEntity
  8
Defpoints
 62
     0
100
AcDbPoint
 10
155.2271220038852
 20
57.84994532147607
 30
0.0
  0
POINT
  5
38B
330
381
100
AcDbEntity
  8
Defpoints
 62
     0
100
AcDbPoint
 10
187.6344930461827
 20
57.84994532147607
 30
0.0
  0
ENDBLK
  5
38C
330
381
100
AcDbEntity
  8
0
100
AcDbBlockEnd
  0
BLOCK
  5
38E
330
38D
100
AcDbEntity
  8
0
100
AcDbBlockBegin
  2
*D8
 70
     1
 10
0.0
 20
0.0
 30
0.0
  3
*D8
  1

  0
LINE
  5
38F
330
38D
100
AcDbEntity
  8
0
 62
     5
370
    -2
100
AcDbLine
 10
99.40276945720132
 20
277.0106380558
 30
0.0
 11
99.40276945720132
 21
287.5490078293747
 31
0.0
  0
LINE
  5
390
330
38D
100
AcDbEntity
  8
0
 62
     5
370
    -2
100
AcDbLine
 10
179.8988507037383
 20
276.7105814673812
 30
0.0
 11
179.8988507037383
 21
287.5490078293747
 31
0.0
  0
LINE
  5
391
330
38D
100
AcDbEntity
  8
0
 62
     5
100
AcDbLine
 10
102.4027694572013
 20
285.5490078293748
 30
0.0
 11
176.8988507037383
 21
285.5490078293748
 31
0.0
  0
SOLID
  5
392
330
38D
100
AcDbEntity
  8
0
 62
     5
100
AcDbTrace
 10
102.4027694572013
 20
286.0490078293748
 30
0.0
 11
102.4027694572013
 21
285.0490078293748
 31
0.0
 12
99.40276945720132
 22
285.5490078293748
 32
0.0
 13
99.40276945720132
 23
285.5490078293748
 33
0.0
  0
SOLID
  5
393
330
38D
100
AcDbEntity
  8
0
 62
     5
100
AcDbTrace
 10
176.8988507037383
 20
286.0490078293748
 30
0.0
 11
176.8988507037383
 21
285.0490078293748
 31
0.0
 12
179.8988507037383
 22
285.5490078293748
 32
0.0
 13
179.8988507037383
 23
285.5490078293748
 33
0.0
  0
MTEXT
  5
394
330
38D
100
AcDbEntity
  8
0
 62
     5
100
AcDbMText
 10
139.6508100804698
 20
288.0490078293748
 30
0.0
 40
3.0
 41
0.0
 71
     5
 72
     1
  1
\A1;80.5
  7
CHINESET
 73
     1
 44
1.0
1001
ACAD
1000
MTEXTBEGIN
1070
    73
1070
     1
1070
    44
1040
1.0
1070
    74
1070
     0
1000
MTEXTEND
  0
POINT
  5
395
330
38D
100
AcDbEntity
  8
Defpoints
 62
     0
100
AcDbPoint
 10
99.40276945720132
 20
275.0106380558
 30
0.0
  0
POINT
  5
396
330
38D
100
AcDbEntity
  8
Defpoints
 62
     0
100
AcDbPoint
 10
179.8988507037383
 20
274.7105814673812
 30
0.0
  0
POINT
  5
397
330
38D
100
AcDbEntity
  8
Defpoints
 62
     0
100
AcDbPoint
 10
179.8988507037383
 20
285.5490078293748
 30
0.0
  0
ENDBLK
  5
398
330
38D
100
AcDbEntity
  8
0
100
AcDbBlockEnd
  0
BLOCK
  5
39A
330
399
100
AcDbEntity
  8
0
100
AcDbBlockBegin
  2
*D9
 70
     1
 10
0.0
 20
0.0
 30
0.0
  3
*D9
  1

  0
LINE
  5
39B
330
399
100
AcDbEntity
  8
0
 62
     5
370
    -2
100
AcDbLine
 10
169.9027694572013
 20
80.85757935510299
 30
0.0
 11
197.5169091888144
 21
80.85757935510299
 31
0.0
  0
LINE
  5
39C
330
399
100
AcDbEntity
  8
0
 62
     5
370
    -2
100
AcDbLine
 10
169.9027694572013
 20
48.85757935510298
 30
0.0
 11
197.5169091888143
 21
48.85757935510298
 31
0.0
  0
LINE
  5
39D
330
399
100
AcDbEntity
  8
0
 62
     5
100
AcDbLine
 10
195.5169091888143
 20
77.85757935510298
 30
0.0
 11
195.5169091888143
 21
51.85757935510298
 31
0.0
  0
SOLID
  5
39E
330
399
100
AcDbEntity
  8
0
 62
     5
100
AcDbTrace
 10
195.0169091888144
 20
77.85757935510298
 30
0.0
 11
196.0169091888143
 21
77.85757935510298
 31
0.0
 12
195.5169091888143
 22
80.85757935510299
 32
0.0
 13
195.5169091888143
 23
80.85757935510299
 33
0.0
  0
SOLID
  5
39F
330
399
100
AcDbEntity
  8
0
 62
     5
100
AcDbTrace
 10
195.0169091888143
 20
51.85757935510298
 30
0.0
 11
196.0169091888143
 21
51.85757935510298
 31
0.0
 12
195.5169091888143
 22
48.85757935510298
 32
0.0
 13
195.5169091888143
 23
48.85757935510298
 33
0.0
  0
MTEXT
  5
3A0
330
399
100
AcDbEntity
  8
0
 62
     5
100
AcDbMText
 10
193.0169091888143
 20
64.85757935510301
 30
0.0
 40
3.0
 41
0.0
 71
     5
 72
     1
  1
\A1;32
  7
CHINESET
 11
0.0000000000000001
 21
1.0
 31
0.0
 73
     1
 44
1.0
1001
ACAD
1000
MTEXTBEGIN
1070
    73
1070
     1
1070
    44
1040
1.0
1070
    74
1070
     0
1000
MTEXTEND
  0
POINT
  5
3A1
330
399
100
AcDbEntity
  8
Defpoints
 62
     0
100
AcDbPoint
 10
167.9027694572013
 20
80.85757935510299
 30
0.0
  0
POINT
  5
3A2
330
399
100
AcDbEntity
  8
Defpoints
 62
     0
100
AcDbPoint
 10
167.9027694572013
 20
48.85757935510298
 30
0.0
  0
POINT
  5
3A3
330
399
100
AcDbEntity
  8
Defpoints
 62
     0
100
AcDbPoint
 10
195.5169091888143
 20
48.85757935510298
 30
0.0
  0
ENDBLK
  5
3A4
330
399
100
AcDbEntity
  8
0
100
AcDbBlockEnd
  0
BLOCK
  5
3A6
330
3A5
100
AcDbEntity
  8
0
100
AcDbBlockBegin
  2
*D10
 70
     1
 10
0.0
 20
0.0
 30
0.0
  3
*D10
  1

  0
LINE
  5
3A7
330
3A5
100
AcDbEntity
  8
0
 62
     5
370
    -2
100
AcDbLine
 10
99.40276945720132
 20
224.6131236003385
 30
0.0
 11
99.40276945720132
 21
234.8716571774354
 31
0.0
  0
LINE
  5
3A8
330
3A5
100
AcDbEntity
  8
0
 62
     5
370
    -2
100
AcDbLine
 10
152.4027694572013
 20
231.3616194029404
 30
0.0
 11
152.4027694572013
 21
234.8716571774354
 31
0.0
  0
LINE
  5
3A9
330
3A5
100
AcDbEntity
  8
0
 62
     5
100
AcDbLine
 10
102.4027694572013
 20
232.8716571774354
 30
0.0
 11
149.4027694572013
 21
232.8716571774354
 31
0.0
  0
SOLID
  5
3AA
330
3A5
100
AcDbEntity
  8
0
 62
     5
100
AcDbTrace
 10
102.4027694572013
 20
233.3716571774354
 30
0.0
 11
102.4027694572013
 21
232.3716571774354
 31
0.0
 12
99.40276945720132
 22
232.8716571774354
 32
0.0
 13
99.40276945720132
 23
232.8716571774354
 33
0.0
  0
SOLID
  5
3AB
330
3A5
100
AcDbEntity
  8
0
 62
     5
100
AcDbTrace
 10
149.4027694572013
 20
233.3716571774354
 30
0.0
 11
149.4027694572013
 21
232.3716571774354
 31
0.0
 12
152.4027694572013
 22
232.8716571774354
 32
0.0
 13
152.4027694572013
 23
232.8716571774354
 33
0.0
  0
MTEXT
  5
3AC
330
3A5
100
AcDbEntity
  8
0
 62
     5
100
AcDbMText
 10
125.9027694572013
 20
235.3716571774354
 30
0.0
 40
3.0
 41
0.0
 71
     5
 72
     1
  1
\A1;53
  7
CHINESET
 73
     1
 44
1.0
1001
ACAD
1000
MTEXTBEGIN
1070
    73
1070
     1
1070
    44
1040
1.0
1070
    74
1070
     0
1000
MTEXTEND
  0
POINT
  5
3AD
330
3A5
100
AcDbEntity
  8
Defpoints
 62
     0
100
AcDbPoint
 10
99.40276945720132
 20
222.6131236003386
 30
0.0
  0
POINT
  5
3AE
330
3A5
100
AcDbEntity
  8
Defpoints
 62
     0
100
AcDbPoint
 10
152.4027694572013
 20
229.3616194029404
 30
0.0
  0
POINT
  5
3AF
330
3A5
100
AcDbEntity
  8
Defpoints
 62
     0
100
AcDbPoint
 10
152.4027694572013
 20
232.8716571774354
 30
0.0
  0
ENDBLK
  5
3B0
330
3A5
100
AcDbEntity
  8
0
100
AcDbBlockEnd
  0
BLOCK
  5
7A5
330
79B
100
AcDbEntity
  8
0
100
AcDbBlockBegin
  2
*D12
 70
     1
 10
0.0
 20
0.0
 30
0.0
  3
*D12
  1

  0
LINE
  5
7EF
330
79B
100
AcDbEntity
  8
0
 62
     5
370
    -2
100
AcDbLine
 10
162.9940615379946
 20
374.7829464300444
 30
0.0
 11
144.5921894058006
 21
374.7829464300444
 31
0.0
  0
LINE
  5
7F0
330
79B
100
AcDbEntity
  8
0
 62
     5
370
    -2
100
AcDbLine
 10
169.7440615379946
 20
266.7812898549871
 30
0.0
 11
144.5921894058006
 21
266.7812898549871
 31
0.0
  0
LINE
  5
7F1
330
79B
100
AcDbEntity
  8
0
 62
     5
100
AcDbLine
 10
146.5921894058006
 20
371.7829464300444
 30
0.0
 11
146.5921894058006
 21
269.7812898549871
 31
0.0
  0
SOLID
  5
7F2
330
79B
100
AcDbEntity
  8
0
 62
     5
100
AcDbTrace
 10
146.0921894058006
 20
371.7829464300444
 30
0.0
 11
147.0921894058006
 21
371.7829464300444
 31
0.0
 12
146.5921894058006
 22
374.7829464300444
 32
0.0
 13
146.5921894058006
 23
374.7829464300444
 33
0.0
  0
SOLID
  5
7F3
330
79B
100
AcDbEntity
  8
0
 62
     5
100
AcDbTrace
 10
146.0921894058006
 20
269.7812898549871
 30
0.0
 11
147.0921894058005
 21
269.7812898549871
 31
0.0
 12
146.5921894058006
 22
266.7812898549871
 32
0.0
 13
146.5921894058006
 23
266.7812898549871
 33
0.0
  0
MTEXT
  5
7F4
330
79B
100
AcDbEntity
  8
0
 62
     5
100
AcDbMText
 10
144.0921894058005
 20
320.7821181425158
 30
0.0
 40
3.0
 41
0.0
 71
     5
 72
     1
  1
\A1;108
  7
CHINESET
 11
0.0000000000000001
 21
1.0
 31
0.0
 73
     1
 44
1.0
1001
ACAD
1000
MTEXTBEGIN
1070
    73
1070
     1
1070
    44
1040
1.0
1070
    74
1070
     0
1000
MTEXTEND
  0
POINT
  5
7F5
330
79B
100
AcDbEntity
  8
Defpoints
 62
     0
100
AcDbPoint
 10
164.9940615379946
 20
374.7829464300444
 30
0.0
  0
POINT
  5
7F6
330
79B
100
AcDbEntity
  8
Defpoints
 62
     0
100
AcDbPoint
 10
171.7440615379946
 20
266.7812898549871
 30
0.0
  0
POINT
  5
7F7
330
79B
100
AcDbEntity
  8
Defpoints
 62
     0
100
AcDbPoint
 10
146.5921894058006
 20
266.7812898549871
 30
0.0
  0
ENDBLK
  5
7A6
330
79B
100
AcDbEntity
  8
0
100
AcDbBlockEnd
  0
BLOCK
  5
7B1
330
7A7
100
AcDbEntity
  8
0
100
AcDbBlockBegin
  2
*D13
 70
     1
 10
0.0
 20
0.0
 30
0.0
  3
*D13
  1

  0
LINE
  5
7F8
330
7A7
100
AcDbEntity
  8
0
 62
     5
370
    -2
100
AcDbLine
 10
305.543072445005
 20
291.8793583768392
 30
0.0
 11
314.5011748208645
 21
291.8793583768392
 31
0.0
  0
LINE
  5
7F9
330
7A7
100
AcDbEntity
  8
0
 62
     5
370
    -2
100
AcDbLine
 10
305.543072445005
 20
266.8793583768392
 30
0.0
 11
314.5011748208645
 21
266.8793583768392
 31
0.0
  0
LINE
  5
7FA
330
7A7
100
AcDbEntity
  8
0
 62
     5
100
AcDbLine
 10
312.5011748208645
 20
288.8793583768392
 30
0.0
 11
312.5011748208645
 21
269.8793583768392
 31
0.0
  0
SOLID
  5
7FB
330
7A7
100
AcDbEntity
  8
0
 62
     5
100
AcDbTrace
 10
312.0011748208644
 20
288.8793583768392
 30
0.0
 11
313.0011748208644
 21
288.8793583768392
 31
0.0
 12
312.5011748208645
 22
291.8793583768392
 32
0.0
 13
312.5011748208645
 23
291.8793583768392
 33
0.0
  0
SOLID
  5
7FC
330
7A7
100
AcDbEntity
  8
0
 62
     5
100
AcDbTrace
 10
312.0011748208644
 20
269.8793583768392
 30
0.0
 11
313.0011748208644
 21
269.8793583768392
 31
0.0
 12
312.5011748208645
 22
266.8793583768392
 32
0.0
 13
312.5011748208645
 23
266.8793583768392
 33
0.0
  0
MTEXT
  5
7FD
330
7A7
100
AcDbEntity
  8
0
 62
     5
100
AcDbMText
 10
310.0011748208644
 20
279.3793583768393
 30
0.0
 40
3.0
 41
0.0
 71
     5
 72
     1
  1
\A1;25
  7
CHINESET
 11
0.0000000000000001
 21
1.0
 31
0.0
 73
     1
 44
1.0
1001
ACAD
1000
MTEXTBEGIN
1070
    73
1070
     1
1070
    44
1040
1.0
1070
    74
1070
     0
1000
MTEXTEND
  0
POINT
  5
7FE
330
7A7
100
AcDbEntity
  8
Defpoints
 62
     0
100
AcDbPoint
 10
303.543072445005
 20
291.8793583768392
 30
0.0
  0
POINT
  5
7FF
330
7A7
100
AcDbEntity
  8
Defpoints
 62
     0
100
AcDbPoint
 10
303.543072445005
 20
266.8793583768392
 30
0.0
  0
POINT
  5
800
330
7A7
100
AcDbEntity
  8
Defpoints
 62
     0
100
AcDbPoint
 10
312.5011748208645
 20
266.8793583768392
 30
0.0
  0
ENDBLK
  5
7B2
330
7A7
100
AcDbEntity
  8
0
100
AcDbBlockEnd
  0
BLOCK
  5
7BD
330
7B3
100
AcDbEntity
  8
0
100
AcDbBlockBegin
  2
*D14
 70
     1
 10
0.0
 20
0.0
 30
0.0
  3
*D14
  1

  0
LINE
  5
801
330
7B3
100
AcDbEntity
  8
0
 62
     5
370
    -2
100
AcDbLine
 10
248.043072445005
 20
265.2812898549871
 30
0.0
 11
248.043072445005
 21
257.5250049810748
 31
0.0
  0
LINE
  5
802
330
7B3
100
AcDbEntity
  8
0
 62
     5
370
    -2
100
AcDbLine
 10
304.0430724450049
 20
265.3793583768392
 30
0.0
 11
304.0430724450049
 21
257.5250049810748
 31
0.0
  0
LINE
  5
803
330
7B3
100
AcDbEntity
  8
0
 62
     5
100
AcDbLine
 10
251.043072445005
 20
259.5250049810748
 30
0.0
 11
301.043072445005
 21
259.5250049810748
 31
0.0
  0
SOLID
  5
804
330
7B3
100
AcDbEntity
  8
0
 62
     5
100
AcDbTrace
 10
251.043072445005
 20
260.0250049810747
 30
0.0
 11
251.043072445005
 21
259.0250049810748
 31
0.0
 12
248.043072445005
 22
259.5250049810748
 32
0.0
 13
248.043072445005
 23
259.5250049810748
 33
0.0
  0
SOLID
  5
805
330
7B3
100
AcDbEntity
  8
0
 62
     5
100
AcDbTrace
 10
301.043072445005
 20
260.0250049810747
 30
0.0
 11
301.043072445005
 21
259.0250049810748
 31
0.0
 12
304.0430724450049
 22
259.5250049810748
 32
0.0
 13
304.0430724450049
 23
259.5250049810748
 33
0.0
  0
MTEXT
  5
806
330
7B3
100
AcDbEntity
  8
0
 62
     5
100
AcDbMText
 10
276.043072445005
 20
262.0250049810747
 30
0.0
 40
3.0
 41
0.0
 71
     5
 72
     1
  1
\A1;56
  7
CHINESET
 73
     1
 44
1.0
1001
ACAD
1000
MTEXTBEGIN
1070
    73
1070
     1
1070
    44
1040
1.0
1070
    74
1070
     0
1000
MTEXTEND
  0
POINT
  5
807
330
7B3
100
AcDbEntity
  8
Defpoints
 62
     0
100
AcDbPoint
 10
248.043072445005
 20
267.2812898549871
 30
0.0
  0
POINT
  5
808
330
7B3
100
AcDbEntity
  8
Defpoints
 62
     0
100
AcDbPoint
 10
304.0430724450049
 20
267.3793583768392
 30
0.0
  0
POINT
  5
809
330
7B3
100
AcDbEntity
  8
Defpoints
 62
     0
100
AcDbPoint
 10
304.0430724450049
 20
259.5250049810748
 30
0.0
  0
ENDBLK
  5
7BE
330
7B3
100
AcDbEntity
  8
0
100
AcDbBlockEnd
  0
BLOCK
  5
7C9
330
7BF
100
AcDbEntity
  8
0
100
AcDbBlockBegin
  2
*D15
 70
     1
 10
0.0
 20
0.0
 30
0.0
  3
*D15
  1

  0
LINE
  5
80A
330
7BF
100
AcDbEntity
  8
0
 62
     5
370
    -2
100
AcDbLine
 10
281.0366877894393
 20
219.1197681511819
 30
0.0
 11
313.2787147874493
 21
219.1197681511819
 31
0.0
  0
LINE
  5
80B
330
7BF
100
AcDbEntity
  8
0
 62
     5
370
    -2
100
AcDbLine
 10
280.8713437451519
 20
205.1197681511819
 30
0.0
 11
313.2787147874493
 21
205.1197681511819
 31
0.0
  0
LINE
  5
80C
330
7BF
100
AcDbEntity
  8
0
 62
     5
100
AcDbLine
 10
311.2787147874493
 20
216.1197681511819
 30
0.0
 11
311.2787147874493
 21
208.1197681511819
 31
0.0
  0
SOLID
  5
80D
330
7BF
100
AcDbEntity
  8
0
 62
     5
100
AcDbTrace
 10
310.7787147874493
 20
216.1197681511819
 30
0.0
 11
311.7787147874493
 21
216.1197681511819
 31
0.0
 12
311.2787147874493
 22
219.1197681511819
 32
0.0
 13
311.2787147874493
 23
219.1197681511819
 33
0.0
  0
SOLID
  5
80E
330
7BF
100
AcDbEntity
  8
0
 62
     5
100
AcDbTrace
 10
310.7787147874493
 20
208.1197681511819
 30
0.0
 11
311.7787147874493
 21
208.1197681511819
 31
0.0
 12
311.2787147874493
 22
205.1197681511819
 32
0.0
 13
311.2787147874493
 23
205.1197681511819
 33
0.0
  0
MTEXT
  5
80F
330
7BF
100
AcDbEntity
  8
0
 62
     5
100
AcDbMText
 10
308.7787147874493
 20
212.1197681511819
 30
0.0
 40
3.0
 41
0.0
 71
     5
 72
     1
  1
\A1;14
  7
CHINESET
 11
0.0000000000000001
 21
1.0
 31
0.0
 73
     1
 44
1.0
1001
ACAD
1000
MTEXTBEGIN
1070
    73
1070
     1
1070
    44
1040
1.0
1070
    74
1070
     0
1000
MTEXTEND
  0
POINT
  5
810
330
7BF
100
AcDbEntity
  8
Defpoints
 62
     0
100
AcDbPoint
 10
279.0366877894393
 20
219.1197681511819
 30
0.0
  0
POINT
  5
811
330
7BF
100
AcDbEntity
  8
Defpoints
 62
     0
100
AcDbPoint
 10
278.8713437451519
 20
205.1197681511819
 30
0.0
  0
POINT
  5
812
330
7BF
100
AcDbEntity
  8
Defpoints
 62
     0
100
AcDbPoint
 10
311.2787147874493
 20
205.1197681511819
 30
0.0
  0
ENDBLK
  5
7CA
330
7BF
100
AcDbEntity
  8
0
100
AcDbBlockEnd
  0
BLOCK
  5
7D5
330
7CB
100
AcDbEntity
  8
0
100
AcDbBlockBegin
  2
*D16
 70
     1
 10
0.0
 20
0.0
 30
0.0
  3
*D16
  1

  0
LINE
  5
813
330
7CB
100
AcDbEntity
  8
0
 62
     5
370
    -2
100
AcDbLine
 10
223.046991198468
 20
424.2804608855058
 30
0.0
 11
223.046991198468
 21
434.8188306590806
 31
0.0
  0
LINE
  5
814
330
7CB
100
AcDbEntity
  8
0
 62
     5
370
    -2
100
AcDbLine
 10
303.543072445005
 20
423.980404297087
 30
0.0
 11
303.543072445005
 21
434.8188306590806
 31
0.0
  0
LINE
  5
815
330
7CB
100
AcDbEntity
  8
0
 62
     5
100
AcDbLine
 10
226.0469911984679
 20
432.8188306590806
 30
0.0
 11
300.543072445005
 21
432.8188306590806
 31
0.0
  0
SOLID
  5
816
330
7CB
100
AcDbEntity
  8
0
 62
     5
100
AcDbTrace
 10
226.0469911984679
 20
433.3188306590805
 30
0.0
 11
226.0469911984679
 21
432.3188306590806
 31
0.0
 12
223.046991198468
 22
432.8188306590806
 32
0.0
 13
223.046991198468
 23
432.8188306590806
 33
0.0
  0
SOLID
  5
817
330
7CB
100
AcDbEntity
  8
0
 62
     5
100
AcDbTrace
 10
300.543072445005
 20
433.3188306590805
 30
0.0
 11
300.543072445005
 21
432.3188306590806
 31
0.0
 12
303.543072445005
 22
432.8188306590806
 32
0.0
 13
303.543072445005
 23
432.8188306590806
 33
0.0
  0
MTEXT
  5
818
330
7CB
100
AcDbEntity
  8
0
 62
     5
100
AcDbMText
 10
263.2950318217364
 20
435.3188306590806
 30
0.0
 40
3.0
 41
0.0
 71
     5
 72
     1
  1
\A1;80.5
  7
CHINESET
 73
     1
 44
1.0
1001
ACAD
1000
MTEXTBEGIN
1070
    73
1070
     1
1070
    44
1040
1.0
1070
    74
1070
     0
1000
MTEXTEND
  0
POINT
  5
819
330
7CB
100
AcDbEntity
  8
Defpoints
 62
     0
100
AcDbPoint
 10
223.046991198468
 20
422.2804608855057
 30
0.0
  0
POINT
  5
81A
330
7CB
100
AcDbEntity
  8
Defpoints
 62
     0
100
AcDbPoint
 10
303.543072445005
 20
421.980404297087
 30
0.0
  0
POINT
  5
81B
330
7CB
100
AcDbEntity
  8
Defpoints
 62
     0
100
AcDbPoint
 10
303.543072445005
 20
432.8188306590806
 30
0.0
  0
ENDBLK
  5
7D6
330
7CB
100
AcDbEntity
  8
0
100
AcDbBlockEnd
  0
BLOCK
  5
7E1
330
7D7
100
AcDbEntity
  8
0
100
AcDbBlockBegin
  2
*D17
 70
     1
 10
0.0
 20
0.0
 30
0.0
  3
*D17
  1

  0
LINE
  5
81C
330
7D7
100
AcDbEntity
  8
0
 62
     5
370
    -2
100
AcDbLine
 10
293.5469911984679
 20
228.1274021848088
 30
0.0
 11
321.161130930081
 21
228.1274021848088
 31
0.0
  0
LINE
  5
81D
330
7D7
100
AcDbEntity
  8
0
 62
     5
370
    -2
100
AcDbLine
 10
293.5469911984679
 20
196.1274021848088
 30
0.0
 11
321.161130930081
 21
196.1274021848088
 31
0.0
  0
LINE
  5
81E
330
7D7
100
AcDbEntity
  8
0
 62
     5
100
AcDbLine
 10
319.161130930081
 20
225.1274021848088
 30
0.0
 11
319.161130930081
 21
199.1274021848088
 31
0.0
  0
SOLID
  5
81F
330
7D7
100
AcDbEntity
  8
0
 62
     5
100
AcDbTrace
 10
318.6611309300809
 20
225.1274021848088
 30
0.0
 11
319.661130930081
 21
225.1274021848088
 31
0.0
 12
319.161130930081
 22
228.1274021848088
 32
0.0
 13
319.161130930081
 23
228.1274021848088
 33
0.0
  0
SOLID
  5
820
330
7D7
100
AcDbEntity
  8
0
 62
     5
100
AcDbTrace
 10
318.6611309300809
 20
199.1274021848088
 30
0.0
 11
319.661130930081
 21
199.1274021848088
 31
0.0
 12
319.161130930081
 22
196.1274021848088
 32
0.0
 13
319.161130930081
 23
196.1274021848088
 33
0.0
  0
MTEXT
  5
821
330
7D7
100
AcDbEntity
  8
0
 62
     5
100
AcDbMText
 10
316.6611309300809
 20
212.1274021848089
 30
0.0
 40
3.0
 41
0.0
 71
     5
 72
     1
  1
\A1;32
  7
CHINESET
 11
0.0000000000000001
 21
1.0
 31
0.0
 73
     1
 44
1.0
1001
ACAD
1000
MTEXTBEGIN
1070
    73
1070
     1
1070
    44
1040
1.0
1070
    74
1070
     0
1000
MTEXTEND
  0
POINT
  5
822
330
7D7
100
AcDbEntity
  8
Defpoints
 62
     0
100
AcDbPoint
 10
291.5469911984679
 20
228.1274021848088
 30
0.0
  0
POINT
  5
823
330
7D7
100
AcDbEntity
  8
Defpoints
 62
     0
100
AcDbPoint
 10
291.5469911984679
 20
196.1274021848088
 30
0.0
  0
POINT
  5
824
330
7D7
100
AcDbEntity
  8
Defpoints
 62
     0
100
AcDbPoint
 10
319.161130930081
 20
196.1274021848088
 30
0.0
  0
ENDBLK
  5
7E2
330
7D7
100
AcDbEntity
  8
0
100
AcDbBlockEnd
  0
BLOCK
  5
7ED
330
7E3
100
AcDbEntity
  8
0
100
AcDbBlockBegin
  2
*D18
 70
     1
 10
0.0
 20
0.0
 30
0.0
  3
*D18
  1

  0
LINE
  5
825
330
7E3
100
AcDbEntity
  8
0
 62
     5
370
    -2
100
AcDbLine
 10
223.046991198468
 20
371.8829464300444
 30
0.0
 11
223.046991198468
 21
382.1414800071412
 31
0.0
  0
LINE
  5
826
330
7E3
100
AcDbEntity
  8
0
 62
     5
370
    -2
100
AcDbLine
 10
276.0469911984679
 20
378.6314422326463
 30
0.0
 11
276.0469911984679
 21
382.1414800071412
 31
0.0
  0
LINE
  5
827
330
7E3
100
AcDbEntity
  8
0
 62
     5
100
AcDbLine
 10
226.0469911984679
 20
380.1414800071412
 30
0.0
 11
273.046991198468
 21
380.1414800071412
 31
0.0
  0
SOLID
  5
828
330
7E3
100
AcDbEntity
  8
0
 62
     5
100
AcDbTrace
 10
226.0469911984679
 20
380.6414800071412
 30
0.0
 11
226.0469911984679
 21
379.6414800071413
 31
0.0
 12
223.046991198468
 22
380.1414800071412
 32
0.0
 13
223.046991198468
 23
380.1414800071412
 33
0.0
  0
SOLID
  5
829
330
7E3
100
AcDbEntity
  8
0
 62
     5
100
AcDbTrace
 10
273.046991198468
 20
380.6414800071412
 30
0.0
 11
273.046991198468
 21
379.6414800071413
 31
0.0
 12
276.0469911984679
 22
380.1414800071412
 32
0.0
 13
276.0469911984679
 23
380.1414800071412
 33
0.0
  0
MTEXT
  5
82A
330
7E3
100
AcDbEntity
  8
0
 62
     5
100
AcDbMText
 10
249.5469911984679
 20
382.6414800071412
 30
0.0
 40
3.0
 41
0.0
 71
     5
 72
     1
  1
\A1;53
  7
CHINESET
 73
     1
 44
1.0
1001
ACAD
1000
MTEXTBEGIN
1070
    73
1070
     1
1070
    44
1040
1.0
1070
    74
1070
     0
1000
MTEXTEND
  0
POINT
  5
82B
330
7E3
100
AcDbEntity
  8
Defpoints
 62
     0
100
AcDbPoint
 10
223.046991198468
 20
369.8829464300444
 30
0.0
  0
POINT
  5
82C
330
7E3
100
AcDbEntity
  8
Defpoints
 62
     0
100
AcDbPoint
 10
276.0469911984679
 20
376.6314422326463
 30
0.0
  0
POINT
  5
82D
330
7E3
100
AcDbEntity
  8
Defpoints
 62
     0
100
AcDbPoint
 10
276.0469911984679
 20
380.1414800071412
 30
0.0
  0
ENDBLK
  5
7EE
330
7E3
100
AcDbEntity
  8
0
100
AcDbBlockEnd
  0
ENDSEC
  0
SECTION
  2
ENTITIES
  0
LINE
  5
5B3
330
1F
100
AcDbEntity
  8
AM_7
 62
     1
100
AcDbLine
 10
263.043072445005
 20
279.2829464300444
 30
0.0
 11
305.5378956031163
 21
279.2829464300444
 31
0.0
  0
LINE
  5
5B4
330
1F
100
AcDbEntity
  8
AM_7
 62
     1
100
AcDbLine
 10
233.7969911984679
 20
346.2829464300444
 30
0.0
 11
233.7969911984679
 21
320.3147592535525
 31
0.0
  0
LINE
  5
5B5
330
1F
100
AcDbEntity
  8
AM_7
 62
     1
100
AcDbLine
 10
267.043072445005
 20
279.2812898549871
 30
0.0
 11
246.043072445005
 21
279.2812898549871
 31
0.0
  0
LINE
  5
5B6
330
1F
100
AcDbEntity
  8
AM_7
 62
     1
100
AcDbLine
 10
171.7440615379946
 20
264.7957147257236
 30
0.0
 11
171.7440615379946
 21
376.7829464300444
 31
0.0
  0
LINE
  5
5B7
330
1F
100
AcDbEntity
  8
AM_7
 62
     1
100
AcDbLine
 10
170.7440615379946
 20
357.0829464300445
 30
0.0
 11
172.7440615379946
 21
357.0829464300445
 31
0.0
  0
LINE
  5
5B8
330
1F
100
AcDbEntity
  8
AM_7
 62
     1
100
AcDbLine
 10
166.2440615379946
 20
357.0829464300445
 30
0.0
 11
169.7440615379946
 21
357.0829464300445
 31
0.0
  0
LINE
  5
5B9
330
1F
100
AcDbEntity
  8
AM_7
 62
     1
100
AcDbLine
 10
173.7440615379946
 20
357.0829464300445
 30
0.0
 11
177.2440615379946
 21
357.0829464300445
 31
0.0
  0
LINE
  5
5BA
330
1F
100
AcDbEntity
  8
AM_7
100
AcDbLine
 10
170.7440615379946
 20
279.2812898549871
 30
0.0
 11
172.7440615379946
 21
279.2812898549871
 31
0.0
  0
LINE
  5
5BB
330
1F
100
AcDbEntity
  8
AM_7
 62
     1
100
AcDbLine
 10
157.2440615379946
 20
279.2812898549871
 30
0.0
 11
169.7440615379946
 21
279.2812898549871
 31
0.0
  0
LINE
  5
5BC
330
1F
100
AcDbEntity
  8
AM_7
 62
     1
100
AcDbLine
 10
173.7440615379946
 20
279.2812898549871
 30
0.0
 11
186.2440615379946
 21
279.2812898549871
 31
0.0
  0
LINE
  5
5BD
330
1F
100
AcDbEntity
  8
AM_7
 62
     1
100
AcDbLine
 10
170.7440615379946
 20
279.2829464300444
 30
0.0
 11
172.7440615379946
 21
279.2829464300444
 31
0.0
  0
LINE
  5
5BE
330
1F
100
AcDbEntity
  8
AM_7
 62
     1
100
AcDbLine
 10
162.4940615379946
 20
279.2829464300444
 30
0.0
 11
169.7440615379946
 21
279.2829464300444
 31
0.0
  0
LINE
  5
5BF
330
1F
100
AcDbEntity
  8
AM_7
 62
     1
100
AcDbLine
 10
173.7440615379946
 20
279.2829464300444
 30
0.0
 11
180.9940615379946
 21
279.2829464300444
 31
0.0
  0
LINE
  5
5C0
330
1F
100
AcDbEntity
  8
AM_VIS
100
AcDbLine
 10
290.0469911984679
 20
371.7829464300444
 30
0.0
 11
290.0469911984679
 21
328.7829464300444
 31
0.0
  0
LINE
  5
5C1
330
1F
100
AcDbEntity
  8
AM_VIS
100
AcDbLine
 10
255.5469911984679
 20
371.7829464300444
 30
0.0
 11
290.0469911984679
 21
371.7829464300444
 31
0.0
  0
LINE
  5
5C2
330
1F
100
AcDbEntity
  8
AM_VIS
100
AcDbLine
 10
290.0469911984679
 20
328.7829464300444
 30
0.0
 11
255.5469911984679
 21
328.7829464300444
 31
0.0
  0
LINE
  5
5C3
330
1F
100
AcDbEntity
  8
AM_VIS
100
AcDbLine
 10
255.5469911984679
 20
371.5829464300445
 30
0.0
 11
255.5469911984679
 21
371.7829464300444
 31
0.0
  0
LINE
  5
5C4
330
1F
100
AcDbEntity
  8
AM_VIS
100
AcDbLine
 10
250.5469911984679
 20
371.5829464300445
 30
0.0
 11
250.5469911984679
 21
342.5829464300444
 31
0.0
  0
LINE
  5
5C5
330
1F
100
AcDbEntity
  8
AM_VIS
100
AcDbLine
 10
255.5469911984679
 20
371.5829464300445
 30
0.0
 11
250.5469911984679
 21
371.5829464300445
 31
0.0
  0
LINE
  5
5C6
330
1F
100
AcDbEntity
  8
AM_VIS
100
AcDbLine
 10
250.5469911984679
 20
371.3829464300444
 30
0.0
 11
246.5469911984679
 21
371.3829464300444
 31
0.0
  0
LINE
  5
5C7
330
1F
100
AcDbEntity
  8
AM_VIS
100
AcDbLine
 10
250.5469911984679
 20
342.7829464300444
 30
0.0
 11
246.5469911984679
 21
342.7829464300444
 31
0.0
  0
LINE
  5
5C8
330
1F
100
AcDbEntity
  8
AM_VIS
100
AcDbLine
 10
246.5469911984679
 20
370.3829464300444
 30
0.0
 11
246.5469911984679
 21
343.7829464300444
 31
0.0
  0
LINE
  5
5C9
330
1F
100
AcDbEntity
  8
AM_VIS
100
AcDbLine
 10
246.5469911984679
 20
369.8829464300444
 30
0.0
 11
223.046991198468
 21
369.8829464300444
 31
0.0
  0
LINE
  5
5CA
330
1F
100
AcDbEntity
  8
AM_VIS
100
AcDbLine
 10
223.046991198468
 20
369.8829464300444
 30
0.0
 11
223.046991198468
 21
344.2829464300444
 31
0.0
  0
LINE
  5
5CB
330
1F
100
AcDbEntity
  8
AM_VIS
100
AcDbLine
 10
223.046991198468
 20
369.8829464300444
 30
0.0
 11
223.046991198468
 21
344.2829464300444
 31
0.0
  0
LINE
  5
5CC
330
1F
100
AcDbEntity
  8
AM_VIS
100
AcDbLine
 10
254.5469911984679
 20
342.5829464300444
 30
0.0
 11
250.5469911984679
 21
342.5829464300444
 31
0.0
  0
LINE
  5
5CD
330
1F
100
AcDbEntity
  8
AM_VIS
100
AcDbLine
 10
255.5469911984679
 20
328.7829464300444
 30
0.0
 11
255.5469911984679
 21
329.7829464300444
 31
0.0
  0
LINE
  5
5CE
330
1F
100
AcDbEntity
  8
AM_VIS
100
AcDbLine
 10
255.5469911984679
 20
329.7829464300444
 30
0.0
 11
254.5469911984679
 21
342.5829464300444
 31
0.0
  0
LINE
  5
5CF
330
1F
100
AcDbEntity
  8
AM_VIS
100
AcDbLine
 10
246.5469911984679
 20
344.2829464300444
 30
0.0
 11
223.046991198468
 21
344.2829464300444
 31
0.0
  0
LINE
  5
5D0
330
1F
100
AcDbEntity
  8
AM_VIS
100
AcDbLine
 10
229.1781890449509
 20
321.8829464300444
 30
0.0
 11
238.4157933519849
 21
321.8829464300444
 31
0.0
  0
LINE
  5
5D1
330
1F
100
AcDbEntity
  8
AM_VIS
100
AcDbLine
 10
229.1781890449509
 20
326.2829464300444
 30
0.0
 11
229.1781890449509
 21
321.8829464300444
 31
0.0
  0
LINE
  5
5D2
330
1F
100
AcDbEntity
  8
AM_VIS
100
AcDbLine
 10
224.5593868914339
 20
321.8829464300444
 30
0.0
 11
229.1781890449509
 21
321.8829464300444
 31
0.0
  0
LINE
  5
5D3
330
1F
100
AcDbEntity
  8
AM_VIS
100
AcDbLine
 10
224.5593868914339
 20
326.2829464300444
 30
0.0
 11
224.5593868914339
 21
321.8829464300444
 31
0.0
  0
LINE
  5
5D4
330
1F
100
AcDbEntity
  8
AM_VIS
100
AcDbLine
 10
238.4157933519849
 20
326.2829464300444
 30
0.0
 11
238.4157933519849
 21
321.8829464300444
 31
0.0
  0
LINE
  5
5D5
330
1F
100
AcDbEntity
  8
AM_VIS
100
AcDbLine
 10
243.0345955055019
 20
326.2829464300444
 30
0.0
 11
243.0345955055019
 21
321.8829464300444
 31
0.0
  0
LINE
  5
5D6
330
1F
100
AcDbEntity
  8
AM_VIS
100
AcDbLine
 10
238.4157933519849
 20
321.8829464300444
 30
0.0
 11
243.0345955055019
 21
321.8829464300444
 31
0.0
  0
LINE
  5
5D7
330
1F
100
AcDbEntity
  8
AM_VIS
100
AcDbLine
 10
224.5593868914339
 20
326.2829464300444
 30
0.0
 11
229.1781890449509
 21
326.2829464300444
 31
0.0
  0
LINE
  5
5D8
330
1F
100
AcDbEntity
  8
AM_VIS
100
AcDbLine
 10
238.4157933519849
 20
326.2829464300444
 30
0.0
 11
243.0345955055019
 21
326.2829464300444
 31
0.0
  0
LINE
  5
5D9
330
1F
100
AcDbEntity
  8
AM_VIS
100
AcDbLine
 10
229.1781890449509
 20
326.2829464300444
 30
0.0
 11
238.4157933519849
 21
326.2829464300444
 31
0.0
  0
LINE
  5
5DA
330
1F
100
AcDbEntity
  8
AM_VIS
100
AcDbLine
 10
286.583072445005
 20
322.7829464300444
 30
0.0
 11
286.583072445005
 21
326.2829464300444
 31
0.0
  0
LINE
  5
5DB
330
1F
100
AcDbEntity
  8
AM_VIS
100
AcDbLine
 10
265.583072445005
 20
326.2829464300444
 30
0.0
 11
265.583072445005
 21
322.7829464300444
 31
0.0
  0
ARC
  5
5DC
330
1F
100
AcDbEntity
  8
AM_VIS
100
AcDbCircle
 10
249.4115930388836
 20
314.3275209000062
 30
0.0
 40
14.91229165473343
100
AcDbArc
 50
3.673437521684235
 51
23.53839609059325
  0
ARC
  5
5DD
330
1F
100
AcDbEntity
  8
AM_VIS
100
AcDbCircle
 10
302.754551851126
 20
314.3275209000063
 30
0.0
 40
14.91229165473304
100
AcDbArc
 50
156.4616039094067
 51
176.3265624783158
  0
LINE
  5
5DE
330
1F
100
AcDbEntity
  8
AM_VIS
100
AcDbLine
 10
292.083072445005
 20
315.2829464300444
 30
0.0
 11
292.083072445005
 21
291.7829464300444
 31
0.0
  0
LINE
  5
5DF
330
1F
100
AcDbEntity
  8
AM_VIS
100
AcDbLine
 10
271.6109364900054
 20
315.2829464300444
 30
0.0
 11
260.083072445005
 21
315.2829464300444
 31
0.0
  0
LINE
  5
5E0
330
1F
100
AcDbEntity
  8
AM_VIS
100
AcDbLine
 10
280.5552084000046
 20
315.2829464300444
 30
0.0
 11
292.083072445005
 21
315.2829464300444
 31
0.0
  0
LINE
  5
5E1
330
1F
100
AcDbEntity
  8
AM_VIS
100
AcDbLine
 10
260.083072445005
 20
315.2829464300444
 30
0.0
 11
260.083072445005
 21
291.7829464300444
 31
0.0
  0
LINE
  5
5E2
330
1F
100
AcDbEntity
  8
AM_VIS
100
AcDbLine
 10
248.0430724450049
 20
291.2812898549871
 30
0.0
 11
248.043072445005
 21
279.2812898549871
 31
0.0
  0
ARC
  5
5E3
330
1F
100
AcDbEntity
  8
AM_VIS
100
AcDbCircle
 10
248.543072445005
 20
291.2812898549871
 30
0.0
 40
0.5
100
AcDbArc
 50
90.0
 51
180.0
  0
LINE
  5
5E4
330
1F
100
AcDbEntity
  8
AM_VIS
100
AcDbLine
 10
265.043072445005
 20
291.7812898549871
 30
0.0
 11
265.043072445005
 21
279.2812898549871
 31
0.0
  0
LINE
  5
5E5
330
1F
100
AcDbEntity
  8
AM_VIS
100
AcDbLine
 10
265.043072445005
 20
291.7812898549871
 30
0.0
 11
248.543072445005
 21
291.7812898549871
 31
0.0
  0
LINE
  5
5E6
330
1F
100
AcDbEntity
  8
AM_VIS
100
AcDbLine
 10
283.0142442456029
 20
280.526122640354
 30
0.0
 11
279.6798091784784
 21
281.4752350831621
 31
0.0
  0
LINE
  5
5E7
330
1F
100
AcDbEntity
  8
AM_VIS
100
AcDbLine
 10
260.043072445005
 20
291.7829464300444
 30
0.0
 11
292.043072445005
 21
291.7829464300444
 31
0.0
  0
LINE
  5
5E8
330
1F
100
AcDbEntity
  8
AM_VIS
100
AcDbLine
 10
304.043072445005
 20
279.3793583768392
 30
0.0
 11
304.043072445005
 21
291.3793583768392
 31
0.0
  0
ARC
  5
5E9
330
1F
100
AcDbEntity
  8
AM_VIS
100
AcDbCircle
 10
303.543072445005
 20
291.3793583768392
 30
0.0
 40
0.5
100
AcDbArc
 50
0.0
 51
90.0
  0
LINE
  5
5EA
330
1F
100
AcDbEntity
  8
AM_VIS
100
AcDbLine
 10
287.043072445005
 20
279.3793583768392
 30
0.0
 11
287.043072445005
 21
291.7829464300444
 31
0.0
  0
LINE
  5
5EB
330
1F
100
AcDbEntity
  8
AM_VIS
100
AcDbLine
 10
292.043072445005
 20
291.8793583768392
 30
0.0
 11
303.543072445005
 21
291.8793583768392
 31
0.0
  0
ARC
  5
5EC
330
1F
100
AcDbEntity
  8
AM_VIS
100
AcDbCircle
 10
284.3094602862599
 20
284.0442896764487
 30
0.0
 40
3.749011054375797
100
AcDbArc
 50
249.7887750765523
 51
316.8156461654058
  0
SPLINE
  5
5ED
330
1F
100
AcDbEntity
  8
AM_VIS
100
AcDbSpline
210
0.0
220
0.0
230
1.0
 70
     8
 71
     3
 72
    22
 73
    18
 74
     0
 42
0.0000000001
 43
0.0000000001
 40
2.978440124450811
 40
2.978440124450811
 40
2.978440124450811
 40
2.978440124450811
 40
3.11974645494588
 40
3.11974645494588
 40
4.15966193992784
 40
4.15966193992784
 40
6.23949290989176
 40
6.23949290989176
 40
8.31932387985568
 40
8.31932387985568
 40
10.15820524408236
 40
10.15820524408236
 40
11.99708660830904
 40
11.99708660830904
 40
13.83596797253573
 40
13.83596797253573
 40
15.67484933676241
 40
15.67484933676241
 40
15.67484933676241
 40
15.67484933676241
 10
280.0269911984679
 20
276.7096977762619
 30
0.0
 10
280.0509605831674
 20
276.672587808287
 30
0.0
 10
280.0751748073797
 20
276.63556727619
 30
0.0
 10
280.2794941366823
 20
276.3267994540706
 30
0.0
 10
280.4715360993621
 20
276.0593713980163
 30
0.0
 10
281.0688577134963
 20
275.2668413361059
 30
0.0
 10
281.4915363719507
 20
274.7553910868105
 30
0.0
 10
282.3186693044145
 20
273.7878473682741
 30
0.0
 10
282.7235594131559
 20
273.3322605670904
 30
0.0
 10
283.4261229771923
 20
272.5535883958579
 30
0.0
 10
283.75233503386
 20
272.1979096210327
 30
0.0
 10
284.3492770184569
 20
271.5526132326429
 30
0.0
 10
284.6199126016593
 20
271.2630348855364
 30
0.0
 10
285.0675434022684
 20
270.786013453612
 30
0.0
 10
285.2449485780583
 20
270.5981200530963
 30
0.0
 10
285.4827659620415
 20
270.3465322428565
 30
0.0
 10
285.543072445005
 20
270.2829464300444
 30
0.0
 10
285.543072445005
 20
270.2829464300444
 30
0.0
  0
SPLINE
  5
5EE
330
1F
100
AcDbEntity
  8
AM_VIS
100
AcDbSpline
210
0.0
220
0.0
230
1.0
 70
     8
 71
     3
 72
    22
 73
    18
 74
     0
 42
0.0000000001
 43
0.0000000001
 40
-15.67484933676241
 40
-15.67484933676241
 40
-15.67484933676241
 40
-15.67484933676241
 40
-13.83596797253573
 40
-13.83596797253573
 40
-11.99708660830904
 40
-11.99708660830904
 40
-10.15820524408236
 40
-10.15820524408236
 40
-8.31932387985568
 40
-8.31932387985568
 40
-6.239492909891758
 40
-6.239492909891758
 40
-4.159661939927836
 40
-4.159661939927836
 40
-3.119746454945875
 40
-3.119746454945875
 40
-3.041359078956926
 40
-3.041359078956926
 40
-3.041359078956926
 40
-3.041359078956926
 10
266.543072445005
 20
270.2829464300444
 30
0.0
 10
266.543072445005
 20
270.2829464300444
 30
0.0
 10
266.6033789279684
 20
270.3465322428565
 30
0.0
 10
266.8411963119516
 20
270.5981200530963
 30
0.0
 10
267.0186014877415
 20
270.786013453612
 30
0.0
 10
267.4662322883507
 20
271.2630348855364
 30
0.0
 10
267.736867871553
 20
271.5526132326429
 30
0.0
 10
268.33380985615
 20
272.1979096210327
 30
0.0
 10
268.6600219128177
 20
272.5535883958579
 30
0.0
 10
269.3625854768541
 20
273.3322605670904
 30
0.0
 10
269.7674755855955
 20
273.7878473682741
 30
0.0
 10
270.5946085180593
 20
274.7553910868105
 30
0.0
 10
271.0172871765136
 20
275.266841336106
 30
0.0
 10
271.6146087906479
 20
276.0593713980163
 30
0.0
 10
271.8066507533277
 20
276.3267994540706
 30
0.0
 10
272.0000868103976
 20
276.6191204511329
 30
0.0
 10
272.013575526309
 20
276.6396364013888
 30
0.0
 10
272.0269911984679
 20
276.6601790787937
 30
0.0
  0
LINE
  5
5EF
330
1F
100
AcDbEntity
  8
AM_VIS
100
AcDbLine
 10
265.041590125674
 20
285.6664770107328
 30
0.0
 11
265.5816025205265
 21
285.4833289018574
 31
0.0
  0
ARC
  5
5F0
330
1F
100
AcDbEntity
  8
AM_VIS
100
AcDbCircle
 10
252.3755972356509
 20
268.6003274300746
 30
0.0
 40
23.73205828909672
100
AcDbArc
 50
34.10078444999662
 51
40.91088665273019
  0
LINE
  5
5F1
330
1F
100
AcDbEntity
  8
AM_VIS
100
AcDbLine
 10
272.6448939221169
 20
283.4776509255769
 30
0.0
 11
265.5830917357195
 21
285.4877198544463
 31
0.0
  0
ARC
  5
5F2
330
1F
100
AcDbEntity
  8
AM_VIS
100
AcDbCircle
 10
272.8750014231599
 20
270.9272787036543
 30
0.0
 40
12.55248152242579
100
AcDbArc
 50
57.17270626307609
 51
91.05038411361357
  0
LINE
  5
5F3
330
1F
100
AcDbEntity
  8
AM_VIS
100
AcDbLine
 10
223.046991198468
 20
344.2829464300444
 30
0.0
 11
223.046991198468
 21
328.2829464300444
 31
0.0
  0
LINE
  5
5F4
330
1F
100
AcDbEntity
  8
AM_VIS
100
AcDbLine
 10
244.5469911984679
 20
344.2829464300444
 30
0.0
 11
244.5469911984679
 21
328.2829464300444
 31
0.0
  0
LINE
  5
5F5
330
1F
100
AcDbEntity
  8
AM_VIS
100
AcDbLine
 10
227.046991198468
 20
328.2829464300444
 30
0.0
 11
227.046991198468
 21
326.2829464300444
 31
0.0
  0
LINE
  5
5F6
330
1F
100
AcDbEntity
  8
AM_VIS
100
AcDbLine
 10
240.5469911984679
 20
328.2829464300444
 30
0.0
 11
240.5469911984679
 21
326.2829464300444
 31
0.0
  0
LINE
  5
5F7
330
1F
100
AcDbEntity
  8
AM_VIS
100
AcDbLine
 10
269.583072445005
 20
328.7829464300444
 30
0.0
 11
269.583072445005
 21
326.2829464300444
 31
0.0
  0
LINE
  5
5F8
330
1F
100
AcDbEntity
  8
AM_VIS
100
AcDbLine
 10
282.583072445005
 20
328.7829464300444
 30
0.0
 11
282.583072445005
 21
326.2829464300444
 31
0.0
  0
LINE
  5
5F9
330
1F
100
AcDbEntity
  8
AM_VIS
100
AcDbLine
 10
283.296991198468
 20
371.7829464300444
 30
0.0
 11
283.296991198468
 21
374.7829464300444
 31
0.0
  0
LINE
  5
5FA
330
1F
100
AcDbEntity
  8
AM_VIS
100
AcDbLine
 10
269.7969911984679
 20
371.7829464300444
 30
0.0
 11
269.7969911984679
 21
374.7829464300444
 31
0.0
  0
LINE
  5
5FB
330
1F
100
AcDbEntity
  8
AM_VIS
100
AcDbLine
 10
263.583072445005
 20
322.7829464300444
 30
0.0
 11
263.583072445005
 21
320.2829464300444
 31
0.0
  0
LINE
  5
5FC
330
1F
100
AcDbEntity
  8
AM_VIS
100
AcDbLine
 10
288.583072445005
 20
322.7829464300444
 30
0.0
 11
288.583072445005
 21
320.2829464300444
 31
0.0
  0
LINE
  5
5FD
330
1F
100
AcDbEntity
  8
AM_VIS
100
AcDbLine
 10
263.083072445005
 20
320.2829464300444
 30
0.0
 11
261.083072445005
 21
320.2829464300444
 31
0.0
  0
LINE
  5
5FE
330
1F
100
AcDbEntity
  8
AM_VIS
100
AcDbLine
 10
291.083072445005
 20
320.2829464300444
 30
0.0
 11
289.083072445005
 21
320.2829464300444
 31
0.0
  0
LINE
  5
5FF
330
1F
100
AcDbEntity
  8
AM_VIS
100
AcDbLine
 10
265.043072445005
 20
266.7812898549871
 30
0.0
 11
248.543072445005
 21
266.7812898549871
 31
0.0
  0
ARC
  5
600
330
1F
100
AcDbEntity
  8
AM_VIS
100
AcDbCircle
 10
248.543072445005
 20
267.2812898549871
 30
0.0
 40
0.5
100
AcDbArc
 50
180.0
 51
270.0
  0
LINE
  5
601
330
1F
100
AcDbEntity
  8
AM_VIS
100
AcDbLine
 10
261.793072445005
 20
291.7829464300444
 30
0.0
 11
261.793072445005
 21
291.7812898549871
 31
0.0
  0
LINE
  5
602
330
1F
100
AcDbEntity
  8
AM_VIS
100
AcDbLine
 10
287.043072445005
 20
266.8793583768392
 30
0.0
 11
303.543072445005
 21
266.8793583768392
 31
0.0
  0
ARC
  5
603
330
1F
100
AcDbEntity
  8
AM_VIS
100
AcDbCircle
 10
303.543072445005
 20
267.3793583768392
 30
0.0
 40
0.5
100
AcDbArc
 50
270.0
 51
0.0
  0
LINE
  5
604
330
1F
100
AcDbEntity
  8
AM_VIS
100
AcDbLine
 10
285.543072445005
 20
270.2829464300444
 30
0.0
 11
287.043072445005
 21
270.2829464300444
 31
0.0
  0
LINE
  5
605
330
1F
100
AcDbEntity
  8
AM_VIS
100
AcDbLine
 10
266.543072445005
 20
270.2829464300444
 30
0.0
 11
266.543072445005
 21
267.7829464300444
 31
0.0
  0
LINE
  5
606
330
1F
100
AcDbEntity
  8
AM_VIS
100
AcDbLine
 10
285.543072445005
 20
270.2829464300444
 30
0.0
 11
285.543072445005
 21
267.7829464300444
 31
0.0
  0
LINE
  5
607
330
1F
100
AcDbEntity
  8
AM_VIS
100
AcDbLine
 10
265.043072445005
 20
270.2829464300444
 30
0.0
 11
266.543072445005
 21
270.2829464300444
 31
0.0
  0
LINE
  5
608
330
1F
100
AcDbEntity
  8
AM_VIS
100
AcDbLine
 10
272.0269911984679
 20
283.6535305428597
 30
0.0
 11
272.0269911984679
 21
267.7829464300444
 31
0.0
  0
LINE
  5
609
330
1F
100
AcDbEntity
  8
AM_VIS
100
AcDbLine
 10
280.0269911984679
 20
281.3764133132197
 30
0.0
 11
280.0269911984679
 21
267.7829464300444
 31
0.0
  0
LINE
  5
60A
330
1F
100
AcDbEntity
  8
AM_VIS
100
AcDbLine
 10
246.5469911984679
 20
370.3829464300444
 30
0.0
 11
246.5469911984679
 21
371.3829464300444
 31
0.0
  0
LINE
  5
60B
330
1F
100
AcDbEntity
  8
AM_VIS
100
AcDbLine
 10
246.5469911984679
 20
342.7829464300444
 30
0.0
 11
246.5469911984679
 21
343.7829464300444
 31
0.0
  0
LINE
  5
60C
330
1F
100
AcDbEntity
  8
AM_VIS
100
AcDbLine
 10
244.5469911984679
 20
328.2829464300444
 30
0.0
 11
223.046991198468
 21
328.2829464300444
 31
0.0
  0
LINE
  5
60D
330
1F
100
AcDbEntity
  8
AM_VIS
100
AcDbLine
 10
269.7969911984679
 20
374.7829464300444
 30
0.0
 11
283.296991198468
 21
374.7829464300444
 31
0.0
  0
LINE
  5
60E
330
1F
100
AcDbEntity
  8
AM_VIS
100
AcDbLine
 10
265.583072445005
 20
326.2829464300444
 30
0.0
 11
286.583072445005
 21
326.2829464300444
 31
0.0
  0
LINE
  5
60F
330
1F
100
AcDbEntity
  8
AM_VIS
100
AcDbLine
 10
286.583072445005
 20
322.7829464300444
 30
0.0
 11
288.583072445005
 21
322.7829464300444
 31
0.0
  0
LINE
  5
610
330
1F
100
AcDbEntity
  8
AM_VIS
100
AcDbLine
 10
263.583072445005
 20
322.7829464300444
 30
0.0
 11
265.583072445005
 21
322.7829464300444
 31
0.0
  0
LINE
  5
611
330
1F
100
AcDbEntity
  8
AM_VIS
100
AcDbLine
 10
263.083072445005
 20
320.2829464300444
 30
0.0
 11
276.083072445005
 21
320.2829464300444
 31
0.0
  0
LINE
  5
612
330
1F
100
AcDbEntity
  8
AM_VIS
100
AcDbLine
 10
276.083072445005
 20
320.2829464300444
 30
0.0
 11
289.083072445005
 21
320.2829464300444
 31
0.0
  0
LINE
  5
613
330
1F
100
AcDbEntity
  8
AM_VIS
100
AcDbLine
 10
292.083072445005
 20
319.2829464300444
 30
0.0
 11
292.083072445005
 21
315.2829464300444
 31
0.0
  0
ARC
  5
614
330
1F
100
AcDbEntity
  8
AM_VIS
100
AcDbCircle
 10
276.083072445005
 20
314.7829464300444
 30
0.0
 40
5.5
100
AcDbArc
 50
5.215908570454283
 51
174.7840914295457
  0
LINE
  5
615
330
1F
100
AcDbEntity
  8
AM_VIS
100
AcDbLine
 10
260.083072445005
 20
315.2829464300444
 30
0.0
 11
260.083072445005
 21
319.2829464300444
 31
0.0
  0
LINE
  5
616
330
1F
100
AcDbEntity
  8
AM_VIS
100
AcDbLine
 10
248.043072445005
 20
267.2812898549871
 30
0.0
 11
248.043072445005
 21
279.2812898549871
 31
0.0
  0
LINE
  5
617
330
1F
100
AcDbEntity
  8
AM_VIS
100
AcDbLine
 10
265.043072445005
 20
266.7812898549871
 30
0.0
 11
265.043072445005
 21
279.2812898549871
 31
0.0
  0
LINE
  5
618
330
1F
100
AcDbEntity
  8
AM_VIS
100
AcDbLine
 10
304.043072445005
 20
279.3793583768392
 30
0.0
 11
304.0430724450049
 21
267.3793583768392
 31
0.0
  0
LINE
  5
619
330
1F
100
AcDbEntity
  8
AM_VIS
100
AcDbLine
 10
287.043072445005
 20
279.3793583768392
 30
0.0
 11
287.043072445005
 21
266.8793583768392
 31
0.0
  0
LINE
  5
61A
330
1F
100
AcDbEntity
  8
AM_VIS
100
AcDbLine
 10
272.0269911984679
 20
267.7829464300444
 30
0.0
 11
266.543072445005
 21
267.7829464300444
 31
0.0
  0
LINE
  5
61B
330
1F
100
AcDbEntity
  8
AM_VIS
100
AcDbLine
 10
285.543072445005
 20
267.7829464300444
 30
0.0
 11
280.0269911984679
 21
267.7829464300444
 31
0.0
  0
LINE
  5
61C
330
1F
100
AcDbEntity
  8
AM_VIS
100
AcDbLine
 10
280.0269911984679
 20
267.7829464300444
 30
0.0
 11
272.0269911984679
 21
267.7829464300444
 31
0.0
  0
ARC
  5
61D
330
1F
100
AcDbEntity
  8
AM_VIS
100
AcDbCircle
 10
291.083072445005
 20
319.2829464300444
 30
0.0
 40
1.0
100
AcDbArc
 50
0.0
 51
90.0
  0
ARC
  5
61E
330
1F
100
AcDbEntity
  8
AM_VIS
100
AcDbCircle
 10
261.083072445005
 20
319.2829464300444
 30
0.0
 40
1.0
100
AcDbArc
 50
90.0
 51
180.0
  0
LINE
  5
61F
330
1F
100
AcDbEntity
  8
AM_VIS
100
AcDbLine
 10
157.2440615379946
 20
371.7829464300444
 30
0.0
 11
157.2440615379946
 21
371.5829464300445
 31
0.0
  0
LINE
  5
620
330
1F
100
AcDbEntity
  8
AM_VIS
100
AcDbLine
 10
157.2440615379946
 20
371.7829464300444
 30
0.0
 11
186.2440615379946
 21
371.7829464300444
 31
0.0
  0
LINE
  5
621
330
1F
100
AcDbEntity
  8
AM_VIS
100
AcDbLine
 10
186.2440615379946
 20
371.5829464300445
 30
0.0
 11
186.2440615379946
 21
371.7829464300444
 31
0.0
  0
LINE
  5
622
330
1F
100
AcDbEntity
  8
AM_VIS
100
AcDbLine
 10
157.2440615379946
 20
342.5829464300444
 30
0.0
 11
157.2440615379946
 21
371.5829464300445
 31
0.0
  0
LINE
  5
623
330
1F
100
AcDbEntity
  8
AM_VIS
100
AcDbLine
 10
186.2440615379946
 20
371.5829464300445
 30
0.0
 11
186.2440615379946
 21
342.5829464300444
 31
0.0
  0
LINE
  5
624
330
1F
100
AcDbEntity
  8
AM_VIS
100
AcDbLine
 10
157.2440615379946
 20
371.5829464300444
 30
0.0
 11
186.2440615379946
 21
371.5829464300444
 31
0.0
  0
LINE
  5
625
330
1F
100
AcDbEntity
  8
AM_VIS
100
AcDbLine
 10
158.4440615379946
 20
371.3829464300444
 30
0.0
 11
185.0440615379946
 21
371.3829464300444
 31
0.0
  0
LINE
  5
626
330
1F
100
AcDbEntity
  8
AM_VIS
100
AcDbLine
 10
157.4440615379946
 20
343.7829464300444
 30
0.0
 11
157.4440615379946
 21
370.3829464300444
 31
0.0
  0
LINE
  5
627
330
1F
100
AcDbEntity
  8
AM_VIS
100
AcDbLine
 10
185.0440615379946
 20
342.7829464300444
 30
0.0
 11
182.4940615379946
 21
342.7829464300444
 31
0.0
  0
LINE
  5
628
330
1F
100
AcDbEntity
  8
AM_VIS
100
AcDbLine
 10
160.9940615379946
 20
342.7829464300444
 30
0.0
 11
158.4440615379946
 21
342.7829464300444
 31
0.0
  0
LINE
  5
629
330
1F
100
AcDbEntity
  8
AM_VIS
100
AcDbLine
 10
186.0440615379946
 20
370.3829464300444
 30
0.0
 11
186.0440615379946
 21
343.7829464300444
 31
0.0
  0
LINE
  5
62A
330
1F
100
AcDbEntity
  8
AM_VIS
100
AcDbLine
 10
158.9440615379946
 20
369.8829464300444
 30
0.0
 11
184.5440615379946
 21
369.8829464300444
 31
0.0
  0
LINE
  5
62B
330
1F
100
AcDbEntity
  8
AM_VIS
100
AcDbLine
 10
158.9440615379946
 20
344.2829464300444
 30
0.0
 11
158.9440615379946
 21
369.8829464300444
 31
0.0
  0
LINE
  5
62C
330
1F
100
AcDbEntity
  8
AM_VIS
100
AcDbLine
 10
184.5440615379946
 20
369.8829464300444
 30
0.0
 11
184.5440615379946
 21
344.2829464300444
 31
0.0
  0
LINE
  5
62D
330
1F
100
AcDbEntity
  8
AM_VIS
100
AcDbLine
 10
186.2440615379946
 20
342.5829464300444
 30
0.0
 11
182.4940615379946
 21
342.5829464300444
 31
0.0
  0
LINE
  5
62E
330
1F
100
AcDbEntity
  8
AM_VIS
100
AcDbLine
 10
160.9940615379946
 20
342.5829464300444
 30
0.0
 11
157.2440615379946
 21
342.5829464300444
 31
0.0
  0
LINE
  5
62F
330
1F
100
AcDbEntity
  8
AM_VIS
100
AcDbLine
 10
186.2440615379946
 20
328.7829464300444
 30
0.0
 11
186.2440615379946
 21
329.7829464300444
 31
0.0
  0
LINE
  5
630
330
1F
100
AcDbEntity
  8
AM_VIS
100
AcDbLine
 10
157.2440615379946
 20
328.7829464300444
 30
0.0
 11
160.9940615379946
 21
328.7829464300444
 31
0.0
  0
LINE
  5
631
330
1F
100
AcDbEntity
  8
AM_VIS
100
AcDbLine
 10
182.4940615379946
 20
328.7829464300444
 30
0.0
 11
186.2440615379946
 21
328.7829464300444
 31
0.0
  0
LINE
  5
632
330
1F
100
AcDbEntity
  8
AM_VIS
100
AcDbLine
 10
157.2440615379946
 20
329.7829464300444
 30
0.0
 11
157.2440615379946
 21
328.7829464300444
 31
0.0
  0
LINE
  5
633
330
1F
100
AcDbEntity
  8
AM_VIS
100
AcDbLine
 10
186.2440615379946
 20
329.7829464300444
 30
0.0
 11
182.4940615379946
 21
329.7829464300444
 31
0.0
  0
LINE
  5
634
330
1F
100
AcDbEntity
  8
AM_VIS
100
AcDbLine
 10
160.9940615379946
 20
329.7829464300444
 30
0.0
 11
157.2440615379946
 21
329.7829464300444
 31
0.0
  0
LINE
  5
635
330
1F
100
AcDbEntity
  8
AM_VIS
100
AcDbLine
 10
157.2440615379946
 20
342.5829464300444
 30
0.0
 11
157.2440615379946
 21
329.7829464300444
 31
0.0
  0
LINE
  5
636
330
1F
100
AcDbEntity
  8
AM_VIS
100
AcDbLine
 10
186.2440615379946
 20
329.7829464300444
 30
0.0
 11
186.2440615379946
 21
342.5829464300444
 31
0.0
  0
LINE
  5
637
330
1F
100
AcDbEntity
  8
AM_VIS
100
AcDbLine
 10
171.7440615379946
 20
344.2829464300444
 30
0.0
 11
158.9440615379946
 21
344.2829464300444
 31
0.0
  0
LINE
  5
638
330
1F
100
AcDbEntity
  8
AM_VIS
100
AcDbLine
 10
184.5440615379946
 20
344.2829464300444
 30
0.0
 11
171.7440615379946
 21
344.2829464300444
 31
0.0
  0
LINE
  5
639
330
1F
100
AcDbEntity
  8
AM_VIS
100
AcDbLine
 10
179.7440615379946
 20
326.2829464300444
 30
0.0
 11
179.7440615379946
 21
321.8829464300444
 31
0.0
  0
LINE
  5
63A
330
1F
100
AcDbEntity
  8
AM_VIS
100
AcDbLine
 10
171.7440615379946
 20
321.8829464300444
 30
0.0
 11
179.7440615379946
 21
321.8829464300444
 31
0.0
  0
LINE
  5
63B
330
1F
100
AcDbEntity
  8
AM_VIS
100
AcDbLine
 10
171.7440615379946
 20
326.2829464300444
 30
0.0
 11
171.7440615379946
 21
321.8829464300444
 31
0.0
  0
LINE
  5
63C
330
1F
100
AcDbEntity
  8
AM_VIS
100
AcDbLine
 10
163.7440615379946
 20
321.8829464300444
 30
0.0
 11
171.7440615379946
 21
321.8829464300444
 31
0.0
  0
LINE
  5
63D
330
1F
100
AcDbEntity
  8
AM_VIS
100
AcDbLine
 10
163.7440615379946
 20
326.2829464300444
 30
0.0
 11
163.7440615379946
 21
321.8829464300444
 31
0.0
  0
LINE
  5
63E
330
1F
100
AcDbEntity
  8
AM_VIS
100
AcDbLine
 10
171.7440615379946
 20
326.2829464300444
 30
0.0
 11
179.7440615379946
 21
326.2829464300444
 31
0.0
  0
LINE
  5
63F
330
1F
100
AcDbEntity
  8
AM_VIS
100
AcDbLine
 10
163.7440615379946
 20
326.2829464300444
 30
0.0
 11
171.7440615379946
 21
326.2829464300444
 31
0.0
  0
ARC
  5
640
330
1F
100
AcDbEntity
  8
AM_VIS
100
AcDbCircle
 10
198.4155409441157
 20
314.3275209000062
 30
0.0
 40
14.91229165473312
100
AcDbArc
 50
156.4616039094067
 51
176.3265624783158
  0
LINE
  5
641
330
1F
100
AcDbEntity
  8
AM_VIS
100
AcDbLine
 10
187.7440615379946
 20
315.2829464300444
 30
0.0
 11
187.7440615379946
 21
291.7829464300444
 31
0.0
  0
LINE
  5
642
330
1F
100
AcDbEntity
  8
AM_VIS
100
AcDbLine
 10
155.7440615379946
 20
315.2829464300444
 30
0.0
 11
155.7440615379946
 21
291.7829464300444
 31
0.0
  0
LINE
  5
643
330
1F
100
AcDbEntity
  8
AM_VIS
100
AcDbLine
 10
167.271925582995
 20
315.2829464300444
 30
0.0
 11
155.7440615379946
 21
315.2829464300444
 31
0.0
  0
LINE
  5
644
330
1F
100
AcDbEntity
  8
AM_VIS
100
AcDbLine
 10
176.2161974929942
 20
315.2829464300444
 30
0.0
 11
187.7440615379946
 21
315.2829464300444
 31
0.0
  0
ARC
  5
645
330
1F
100
AcDbEntity
  8
AM_VIS
100
AcDbCircle
 10
145.0725821318735
 20
314.3275209000062
 30
0.0
 40
14.91229165473315
100
AcDbArc
 50
3.673437521684235
 51
23.53839609059325
  0
LINE
  5
646
330
1F
100
AcDbEntity
  8
AM_VIS
100
AcDbLine
 10
159.2440615379946
 20
279.2812898549871
 30
0.0
 11
159.2440615379946
 21
291.7812898549871
 31
0.0
  0
LINE
  5
647
330
1F
100
AcDbEntity
  8
AM_VIS
100
AcDbLine
 10
184.2440615379946
 20
291.7812898549871
 30
0.0
 11
184.2440615379946
 21
279.2812898549871
 31
0.0
  0
LINE
  5
648
330
1F
100
AcDbEntity
  8
AM_VIS
100
AcDbLine
 10
159.2440615379946
 20
291.7812898549871
 30
0.0
 11
184.2440615379946
 21
291.7812898549871
 31
0.0
  0
LINE
  5
649
330
1F
100
AcDbEntity
  8
AM_VIS
100
AcDbLine
 10
155.7440615379946
 20
291.7829464300444
 30
0.0
 11
187.7440615379946
 21
291.7829464300444
 31
0.0
  0
SPLINE
  5
64A
330
1F
100
AcDbEntity
  8
AM_VIS
100
AcDbSpline
210
0.0
220
0.0
230
1.0
 70
     8
 71
     3
 72
    12
 73
     8
 74
     0
 42
0.0000000001
 43
0.0000000001
 40
-3.613981821150632
 40
-3.613981821150632
 40
-3.613981821150632
 40
-3.613981821150632
 40
-3.396257904092527
 40
-3.396257904092527
 40
-2.887050035591718
 40
-2.887050035591718
 40
-1.603318982192766
 40
-1.603318982192766
 40
-1.603318982192766
 40
-1.603318982192766
 10
158.7610207090786
 20
282.860686696377
 30
0.0
 10
158.7610199335153
 20
282.8789430542455
 30
0.0
 10
158.7628973571766
 20
282.8964826620675
 30
0.0
 10
158.7755300216277
 20
282.9526310859879
 30
0.0
 10
158.7947575889387
 20
282.9878111815919
 30
0.0
 10
158.8998278516365
 20
283.098645289164
 30
0.0
 10
159.0409735558591
 20
283.1518343108518
 30
0.0
 10
159.2440615379946
 20
283.1992725242368
 30
0.0
  0
LINE
  5
64B
330
1F
100
AcDbEntity
  8
AM_VIS
100
AcDbLine
 10
163.1267148457913
 20
270.2263831196103
 30
0.0
 11
163.1267148457913
 21
267.7829464300444
 31
0.0
  0
SPLINE
  5
64C
330
1F
100
AcDbEntity
  8
AM_VIS
100
AcDbSpline
210
0.0
220
0.0
230
1.0
 70
     8
 71
     3
 72
    16
 73
    12
 74
     0
 42
0.0000000001
 43
0.0000000001
 40
-6.4133915269096
 40
-6.4133915269096
 40
-6.4133915269096
 40
-6.4133915269096
 40
-6.130656316247143
 40
-6.130656316247143
 40
-5.267572066953222
 40
-5.267572066953222
 40
-4.822684581974017
 40
-4.822684581974017
 40
-4.436674721530605
 40
-4.436674721530605
 40
-4.242670640710477
 40
-4.242670640710477
 40
-4.242670640710477
 40
-4.242670640710477
 10
184.2440615379946
 20
283.3613678592816
 30
0.0
 10
184.311215102457
 20
283.3570485160947
 30
0.0
 10
184.374637890612
 20
283.3529921123344
 30
0.0
 10
184.615760525428
 20
283.3353882889119
 30
0.0
 10
184.7589113236983
 20
283.3194305450616
 30
0.0
 10
184.9127725979615
 20
283.2686950565082
 30
0.0
 10
184.9536852637775
 20
283.2469218679577
 30
0.0
 10
185.0088800020024
 20
283.1951771647489
 30
0.0
 10
185.0258080348637
 20
283.1668325732428
 30
0.0
 10
185.0385316882491
 20
283.1171381570262
 30
0.0
 10
185.0406364289306
 20
283.0993721378141
 30
0.0
 10
185.040635600674
 20
283.080468568447
 30
0.0
  0
LINE
  5
64D
330
1F
100
AcDbEntity
  8
AM_VIS
100
AcDbLine
 10
180.37891735861
 20
267.7829464300444
 30
0.0
 11
180.37891735861
 21
270.2430784745654
 31
0.0
  0
LINE
  5
64E
330
1F
100
AcDbEntity
  8
AM_VIS
100
AcDbLine
 10
160.9940615379946
 20
344.2829464300444
 30
0.0
 11
160.9940615379946
 21
328.2829464300444
 31
0.0
  0
LINE
  5
64F
330
1F
100
AcDbEntity
  8
AM_VIS
100
AcDbLine
 10
182.4940615379946
 20
344.2829464300444
 30
0.0
 11
182.4940615379946
 21
328.2829464300444
 31
0.0
  0
LINE
  5
650
330
1F
100
AcDbEntity
  8
AM_VIS
100
AcDbLine
 10
164.9940615379946
 20
328.2829464300444
 30
0.0
 11
164.9940615379946
 21
326.2829464300444
 31
0.0
  0
LINE
  5
651
330
1F
100
AcDbEntity
  8
AM_VIS
100
AcDbLine
 10
178.4940615379946
 20
328.2829464300444
 30
0.0
 11
178.4940615379946
 21
326.2829464300444
 31
0.0
  0
LINE
  5
652
330
1F
100
AcDbEntity
  8
AM_VIS
100
AcDbLine
 10
178.4940615379946
 20
371.7829464300444
 30
0.0
 11
178.4940615379946
 21
374.7829464300444
 31
0.0
  0
LINE
  5
653
330
1F
100
AcDbEntity
  8
AM_VIS
100
AcDbLine
 10
164.9940615379946
 20
371.7829464300444
 30
0.0
 11
164.9940615379946
 21
374.7829464300444
 31
0.0
  0
LINE
  5
654
330
1F
100
AcDbEntity
  8
AM_VIS
100
AcDbLine
 10
159.2440615379946
 20
326.2829464300444
 30
0.0
 11
159.2440615379946
 21
320.2829464300444
 31
0.0
  0
LINE
  5
655
330
1F
100
AcDbEntity
  8
AM_VIS
100
AcDbLine
 10
184.2440615379946
 20
326.2829464300444
 30
0.0
 11
184.2440615379946
 21
320.2829464300444
 31
0.0
  0
LINE
  5
656
330
1F
100
AcDbEntity
  8
AM_VIS
100
AcDbLine
 10
184.7440615379946
 20
320.2829464300444
 30
0.0
 11
186.7440615379946
 21
320.2829464300444
 31
0.0
  0
LINE
  5
657
330
1F
100
AcDbEntity
  8
AM_VIS
100
AcDbLine
 10
156.7440615379946
 20
320.2829464300444
 30
0.0
 11
158.7440615379946
 21
320.2829464300444
 31
0.0
  0
SPLINE
  5
658
330
1F
100
AcDbEntity
  8
AM_VIS
100
AcDbSpline
210
0.0
220
0.0
230
1.0
 70
     8
 71
     1
 72
     6
 73
     4
 74
     0
 42
0.0000000001
 43
0.0000000001
 40
6.753866350968911
 40
6.753866350968911
 40
7.569539134627238
 40
9.402930144509037
 40
11.3425655451533
 40
11.3425655451533
 10
158.7610207090786
 20
282.3418780008383
 30
0.0
 10
158.404031250424
 20
282.721452640021
 30
0.0
 10
157.7636646961576
 20
283.7650607134274
 30
0.0
 10
157.4940615379946
 20
285.1096970370816
 30
0.0
  0
SPLINE
  5
659
330
1F
100
AcDbEntity
  8
AM_VIS
100
AcDbSpline
210
0.0
220
0.0
230
1.0
 70
     8
 71
     1
 72
     5
 73
     3
 74
     0
 42
0.0000000001
 43
0.0000000001
 40
0.0
 40
0.0
 40
2.168445274843751
 40
3.873900699754805
 40
3.873900699754805
 10
185.9940615379946
 20
285.1096970370816
 30
0.0
 10
185.6604407189521
 20
283.6190326134385
 30
0.0
 10
185.040635600674
 20
282.6706761333174
 30
0.0
  0
LINE
  5
65A
330
1F
100
AcDbEntity
  8
AM_VIS
100
AcDbLine
 10
157.4940615379946
 20
291.7829464300444
 30
0.0
 11
157.4940615379946
 21
285.1096970370816
 31
0.0
  0
LINE
  5
65B
330
1F
100
AcDbEntity
  8
AM_VIS
100
AcDbLine
 10
185.9940615379946
 20
291.7829464300444
 30
0.0
 11
185.9940615379946
 21
285.1096970370816
 31
0.0
  0
LINE
  5
65C
330
1F
100
AcDbEntity
  8
AM_VIS
100
AcDbLine
 10
158.7610207090786
 20
282.860686696377
 30
0.0
 11
158.7610207090786
 21
267.7829464300444
 31
0.0
  0
LINE
  5
65D
330
1F
100
AcDbEntity
  8
AM_VIS
100
AcDbLine
 10
185.040635600674
 20
283.080468568447
 30
0.0
 11
185.040635600674
 21
267.7829464300444
 31
0.0
  0
ARC
  5
65E
330
1F
100
AcDbEntity
  8
AM_VIS
100
AcDbCircle
 10
185.0440615379946
 20
370.3829464300444
 30
0.0
 40
1.0
100
AcDbArc
 50
0.0
 51
90.0
  0
ARC
  5
65F
330
1F
100
AcDbEntity
  8
AM_VIS
100
AcDbCircle
 10
158.4440615379946
 20
370.3829464300444
 30
0.0
 40
1.0
100
AcDbArc
 50
90.0
 51
180.0
  0
ARC
  5
660
330
1F
100
AcDbEntity
  8
AM_VIS
100
AcDbCircle
 10
158.4440615379946
 20
343.7829464300444
 30
0.0
 40
1.0
100
AcDbArc
 50
180.0
 51
270.0
  0
ARC
  5
661
330
1F
100
AcDbEntity
  8
AM_VIS
100
AcDbCircle
 10
185.0440615379946
 20
343.7829464300444
 30
0.0
 40
1.0
100
AcDbArc
 50
270.0
 51
0.0
  0
LINE
  5
662
330
1F
100
AcDbEntity
  8
AM_VIS
100
AcDbLine
 10
182.4940615379946
 20
328.2829464300444
 30
0.0
 11
160.9940615379946
 21
328.2829464300444
 31
0.0
  0
CIRCLE
  5
663
330
1F
100
AcDbEntity
  8
AM_VIS
100
AcDbCircle
 10
171.7440615379946
 20
357.0829464300444
 30
0.0
 40
3.5
  0
CIRCLE
  5
664
330
1F
100
AcDbEntity
  8
AM_VIS
100
AcDbCircle
 10
171.7440615379946
 20
357.0829464300444
 30
0.0
 40
2.5
  0
LINE
  5
665
330
1F
100
AcDbEntity
  8
AM_VIS
100
AcDbLine
 10
164.9940615379946
 20
374.7829464300444
 30
0.0
 11
178.4940615379946
 21
374.7829464300444
 31
0.0
  0
LINE
  5
666
330
1F
100
AcDbEntity
  8
AM_VIS
100
AcDbLine
 10
179.7440615379946
 20
326.2829464300444
 30
0.0
 11
184.2440615379946
 21
326.2829464300444
 31
0.0
  0
LINE
  5
667
330
1F
100
AcDbEntity
  8
AM_VIS
100
AcDbLine
 10
159.2440615379946
 20
326.2829464300444
 30
0.0
 11
163.7440615379946
 21
326.2829464300444
 31
0.0
  0
LINE
  5
668
330
1F
100
AcDbEntity
  8
AM_VIS
100
AcDbLine
 10
158.7440615379946
 20
320.2829464300444
 30
0.0
 11
171.7440615379946
 21
320.2829464300444
 31
0.0
  0
LINE
  5
669
330
1F
100
AcDbEntity
  8
AM_VIS
100
AcDbLine
 10
171.7440615379946
 20
320.2829464300444
 30
0.0
 11
184.7440615379946
 21
320.2829464300444
 31
0.0
  0
LINE
  5
66A
330
1F
100
AcDbEntity
  8
AM_VIS
100
AcDbLine
 10
187.7440615379946
 20
319.2829464300444
 30
0.0
 11
187.7440615379946
 21
315.2829464300444
 31
0.0
  0
ARC
  5
66B
330
1F
100
AcDbEntity
  8
AM_VIS
100
AcDbCircle
 10
171.7440615379946
 20
314.7829464300444
 30
0.0
 40
5.5
100
AcDbArc
 50
5.215908570454283
 51
174.7840914295457
  0
LINE
  5
66C
330
1F
100
AcDbEntity
  8
AM_VIS
100
AcDbLine
 10
155.7440615379946
 20
315.2829464300444
 30
0.0
 11
155.7440615379946
 21
319.2829464300444
 31
0.0
  0
ARC
  5
66D
330
1F
100
AcDbEntity
  8
AM_VIS
100
AcDbCircle
 10
171.7440615379946
 20
279.2812898549871
 30
0.0
 40
12.5
100
AcDbArc
 50
180.0
 51
0.0
  0
LINE
  5
66E
330
1F
100
AcDbEntity
  8
AM_VIS
100
AcDbLine
 10
166.8411951843116
 20
267.7829464300444
 30
0.0
 11
163.1267148457913
 21
267.7829464300444
 31
0.0
  0
LINE
  5
66F
330
1F
100
AcDbEntity
  8
AM_VIS
100
AcDbLine
 10
180.37891735861
 20
267.7829464300444
 30
0.0
 11
176.6469278916776
 21
267.7829464300444
 31
0.0
  0
LINE
  5
670
330
1F
100
AcDbEntity
  8
AM_VIS
100
AcDbLine
 10
163.1267148457913
 20
267.7829464300444
 30
0.0
 11
158.7610207090786
 21
267.7829464300444
 31
0.0
  0
LINE
  5
671
330
1F
100
AcDbEntity
  8
AM_VIS
100
AcDbLine
 10
185.040635600674
 20
267.7829464300444
 30
0.0
 11
180.37891735861
 21
267.7829464300444
 31
0.0
  0
CIRCLE
  5
672
330
1F
100
AcDbEntity
  8
AM_VIS
100
AcDbCircle
 10
171.7440615379946
 20
279.2829464300444
 30
0.0
 40
7.25
  0
ARC
  5
673
330
1F
100
AcDbEntity
  8
AM_VIS
100
AcDbCircle
 10
186.7440615379946
 20
319.2829464300444
 30
0.0
 40
1.0
100
AcDbArc
 50
0.0
 51
90.0
  0
ARC
  5
674
330
1F
100
AcDbEntity
  8
AM_VIS
100
AcDbCircle
 10
156.7440615379946
 20
319.2829464300444
 30
0.0
 40
1.0
100
AcDbArc
 50
90.0
 51
180.0
  0
LINE
  5
675
330
1F
100
AcDbEntity
  8
AM_7
 62
     1
100
AcDbLine
 10
305.5469911984679
 20
212.1274021848088
 30
0.0
 11
244.0469911984679
 21
212.1274021848088
 31
0.0
  0
LINE
  5
676
330
1F
100
AcDbEntity
  8
AM_7
 62
     1
100
AcDbLine
 10
275.046991198468
 20
205.1197681511819
 30
0.0
 11
277.046991198468
 21
205.1197681511819
 31
0.0
  0
LINE
  5
677
330
1F
100
AcDbEntity
  8
AM_7
 62
     1
100
AcDbLine
 10
275.046991198468
 20
219.1197681511819
 30
0.0
 11
277.046991198468
 21
219.1197681511819
 31
0.0
  0
LINE
  5
678
330
1F
100
AcDbEntity
  8
AM_7
 62
     1
100
AcDbLine
 10
272.8362985556845
 20
205.1197681511819
 30
0.0
 11
274.0469911984679
 21
205.1197681511819
 31
0.0
  0
LINE
  5
679
330
1F
100
AcDbEntity
  8
AM_7
 62
     1
100
AcDbLine
 10
273.00164160581
 20
219.1197681511819
 30
0.0
 11
274.0469911984679
 21
219.1197681511819
 31
0.0
  0
LINE
  5
67A
330
1F
100
AcDbEntity
  8
AM_7
 62
     1
100
AcDbLine
 10
278.0469911984679
 20
205.1197681511819
 30
0.0
 11
278.8713437451519
 21
205.1197681511819
 31
0.0
  0
LINE
  5
67B
330
1F
100
AcDbEntity
  8
AM_7
 62
     1
100
AcDbLine
 10
277.5469911984679
 20
219.1274021848088
 30
0.0
 11
278.5366877894393
 21
219.1274021848088
 31
0.0
  0
LINE
  5
67C
330
1F
100
AcDbEntity
  8
AM_7
 62
     1
100
AcDbLine
 10
276.0469911984679
 20
202.4418689308054
 30
0.0
 11
276.0469911984679
 21
207.6366752135585
 31
0.0
  0
LINE
  5
67D
330
1F
100
AcDbEntity
  8
AM_7
 62
     1
100
AcDbLine
 10
276.0469911984679
 20
216.5391809533147
 30
0.0
 11
276.0469911984679
 21
221.7156234163029
 31
0.0
  0
LINE
  5
67E
330
1F
100
AcDbEntity
  8
AM_7
 62
     1
100
AcDbLine
 10
233.296991198468
 20
212.1274021848088
 30
0.0
 11
235.2969911984679
 21
212.1274021848088
 31
0.0
  0
LINE
  5
67F
330
1F
100
AcDbEntity
  8
AM_7
 62
     1
100
AcDbLine
 10
234.2969911984679
 20
211.1274021848088
 30
0.0
 11
234.2969911984679
 21
213.1274021848088
 31
0.0
  0
LINE
  5
680
330
1F
100
AcDbEntity
  8
AM_7
 62
     1
100
AcDbLine
 10
221.5469911984679
 20
212.1274021848088
 30
0.0
 11
232.2969911984679
 21
212.1274021848088
 31
0.0
  0
LINE
  5
681
330
1F
100
AcDbEntity
  8
AM_7
 62
     1
100
AcDbLine
 10
236.2969911984679
 20
212.1274021848088
 30
0.0
 11
248.5469911984679
 21
212.1274021848088
 31
0.0
  0
LINE
  5
682
330
1F
100
AcDbEntity
  8
AM_7
 62
     1
100
AcDbLine
 10
234.2969911984679
 20
199.3774021848088
 30
0.0
 11
234.2969911984679
 21
210.1274021848088
 31
0.0
  0
LINE
  5
683
330
1F
100
AcDbEntity
  8
AM_7
 62
     1
100
AcDbLine
 10
234.2969911984679
 20
214.1274021848088
 30
0.0
 11
234.2969911984679
 21
224.8774021848088
 31
0.0
  0
LINE
  5
684
330
1F
100
AcDbEntity
  8
AM_VIS
100
AcDbLine
 10
257.0469911984679
 20
197.6274021848088
 30
0.0
 11
259.5469911984679
 21
197.6274021848088
 31
0.0
  0
LINE
  5
685
330
1F
100
AcDbEntity
  8
AM_VIS
100
AcDbLine
 10
259.5469911984679
 20
226.6274021848088
 30
0.0
 11
257.0469911984679
 21
226.6274021848088
 31
0.0
  0
LINE
  5
686
330
1F
100
AcDbEntity
  8
AM_VIS
100
AcDbLine
 10
252.046991198468
 20
197.8274021848088
 30
0.0
 11
248.046991198468
 21
197.8274021848088
 31
0.0
  0
LINE
  5
687
330
1F
100
AcDbEntity
  8
AM_VIS
100
AcDbLine
 10
248.046991198468
 20
225.4274021848088
 30
0.0
 11
248.046991198468
 21
224.6274021848088
 31
0.0
  0
LINE
  5
688
330
1F
100
AcDbEntity
  8
AM_VIS
100
AcDbLine
 10
248.046991198468
 20
199.6274021848088
 30
0.0
 11
248.046991198468
 21
198.8274021848088
 31
0.0
  0
LINE
  5
689
330
1F
100
AcDbEntity
  8
AM_VIS
100
AcDbLine
 10
252.046991198468
 20
226.4274021848089
 30
0.0
 11
248.046991198468
 21
226.4274021848089
 31
0.0
  0
LINE
  5
68A
330
1F
100
AcDbEntity
  8
AM_VIS
100
AcDbLine
 10
256.0469911984679
 20
197.6274021848088
 30
0.0
 11
252.046991198468
 21
197.6274021848088
 31
0.0
  0
LINE
  5
68B
330
1F
100
AcDbEntity
  8
AM_VIS
100
AcDbLine
 10
252.046991198468
 20
226.6274021848088
 30
0.0
 11
252.046991198468
 21
224.6274021848088
 31
0.0
  0
LINE
  5
68C
330
1F
100
AcDbEntity
  8
AM_VIS
100
AcDbLine
 10
252.046991198468
 20
199.6274021848088
 30
0.0
 11
252.046991198468
 21
197.6274021848088
 31
0.0
  0
LINE
  5
68D
330
1F
100
AcDbEntity
  8
AM_VIS
100
AcDbLine
 10
256.0469911984679
 20
226.6274021848088
 30
0.0
 11
252.046991198468
 21
226.6274021848088
 31
0.0
  0
LINE
  5
68E
330
1F
100
AcDbEntity
  8
AM_VIS
100
AcDbLine
 10
257.0469911984679
 20
197.6274021848088
 30
0.0
 11
257.0469911984679
 21
199.6274021848088
 31
0.0
  0
LINE
  5
68F
330
1F
100
AcDbEntity
  8
AM_VIS
100
AcDbLine
 10
257.0469911984679
 20
224.6274021848088
 30
0.0
 11
257.0469911984679
 21
226.6274021848088
 31
0.0
  0
LINE
  5
690
330
1F
100
AcDbEntity
  8
AM_VIS
100
AcDbLine
 10
256.0469911984679
 20
197.6274021848088
 30
0.0
 11
257.0469911984679
 21
197.6274021848088
 31
0.0
  0
LINE
  5
691
330
1F
100
AcDbEntity
  8
AM_VIS
100
AcDbLine
 10
256.0469911984679
 20
197.6274021848088
 30
0.0
 11
256.0469911984679
 21
199.6274021848088
 31
0.0
  0
LINE
  5
692
330
1F
100
AcDbEntity
  8
AM_VIS
100
AcDbLine
 10
256.0469911984679
 20
224.6274021848088
 30
0.0
 11
256.0469911984679
 21
226.6274021848088
 31
0.0
  0
LINE
  5
693
330
1F
100
AcDbEntity
  8
AM_VIS
100
AcDbLine
 10
257.0469911984679
 20
226.6274021848088
 30
0.0
 11
256.0469911984679
 21
226.6274021848088
 31
0.0
  0
LINE
  5
694
330
1F
100
AcDbEntity
  8
AM_VIS
100
AcDbLine
 10
248.046991198468
 20
224.9274021848088
 30
0.0
 11
223.5469911984679
 21
224.9274021848088
 31
0.0
  0
LINE
  5
695
330
1F
100
AcDbEntity
  8
AM_VIS
100
AcDbLine
 10
248.046991198468
 20
199.3274021848088
 30
0.0
 11
223.5469911984679
 21
199.3274021848088
 31
0.0
  0
LINE
  5
696
330
1F
100
AcDbEntity
  8
AM_VIS
100
AcDbLine
 10
223.5469911984679
 20
212.1274021848088
 30
0.0
 11
223.5469911984679
 21
199.3274021848088
 31
0.0
  0
LINE
  5
697
330
1F
100
AcDbEntity
  8
AM_VIS
100
AcDbLine
 10
223.5469911984679
 20
224.9274021848088
 30
0.0
 11
223.5469911984679
 21
212.1274021848088
 31
0.0
  0
LINE
  5
698
330
1F
100
AcDbEntity
  8
AM_VIS
100
AcDbLine
 10
229.6781890449509
 20
220.1274021848088
 30
0.0
 11
238.9157933519849
 21
220.1274021848088
 31
0.0
  0
LINE
  5
699
330
1F
100
AcDbEntity
  8
AM_VIS
100
AcDbLine
 10
225.0593868914339
 20
212.1274021848088
 30
0.0
 11
229.6781890449509
 21
220.1274021848088
 31
0.0
  0
LINE
  5
69A
330
1F
100
AcDbEntity
  8
AM_VIS
100
AcDbLine
 10
229.6781890449509
 20
204.1274021848088
 30
0.0
 11
225.0593868914339
 21
212.1274021848088
 31
0.0
  0
LINE
  5
69B
330
1F
100
AcDbEntity
  8
AM_VIS
100
AcDbLine
 10
238.9157933519849
 20
204.1274021848088
 30
0.0
 11
229.6781890449509
 21
204.1274021848088
 31
0.0
  0
LINE
  5
69C
330
1F
100
AcDbEntity
  8
AM_VIS
100
AcDbLine
 10
243.5345955055019
 20
212.1274021848088
 30
0.0
 11
238.9157933519849
 21
204.1274021848088
 31
0.0
  0
LINE
  5
69D
330
1F
100
AcDbEntity
  8
AM_VIS
100
AcDbLine
 10
238.9157933519849
 20
220.1274021848088
 30
0.0
 11
243.5345955055019
 21
212.1274021848088
 31
0.0
  0
LINE
  5
69E
330
1F
100
AcDbEntity
  8
AM_VIS
100
AcDbLine
 10
265.043072445005
 20
199.6274021848088
 30
0.0
 11
248.043072445005
 21
199.6274021848088
 31
0.0
  0
LINE
  5
69F
330
1F
100
AcDbEntity
  8
AM_VIS
100
AcDbLine
 10
265.043072445005
 20
224.6274021848088
 30
0.0
 11
248.043072445005
 21
224.6274021848088
 31
0.0
  0
ARC
  5
6A0
330
1F
100
AcDbEntity
  8
AM_VIS
100
AcDbCircle
 10
276.0469911984679
 20
212.1197681511819
 30
0.0
 40
14.25
100
AcDbArc
 50
39.47249689644199
 51
140.527503103558
  0
ARC
  5
6A1
330
1F
100
AcDbEntity
  8
AM_VIS
100
AcDbCircle
 10
276.0469911984679
 20
212.1197681511819
 30
0.0
 40
14.25
100
AcDbArc
 50
219.472496896442
 51
320.5275031035581
  0
LINE
  5
6A2
330
1F
100
AcDbEntity
  8
AM_VIS
100
AcDbLine
 10
291.5469911984679
 20
199.6274587732276
 30
0.0
 11
291.5469911984679
 21
196.1274021848088
 31
0.0
  0
LINE
  5
6A3
330
1F
100
AcDbEntity
  8
AM_VIS
100
AcDbLine
 10
291.5469911984679
 20
196.1274021848088
 30
0.0
 11
259.5469911984679
 21
196.1274021848088
 31
0.0
  0
LINE
  5
6A4
330
1F
100
AcDbEntity
  8
AM_VIS
100
AcDbLine
 10
259.5469911984679
 20
196.1274021848088
 30
0.0
 11
259.5469911984679
 21
199.6274021848088
 31
0.0
  0
LINE
  5
6A5
330
1F
100
AcDbEntity
  8
AM_VIS
100
AcDbLine
 10
259.5469911984679
 20
224.6274021848088
 30
0.0
 11
259.5469911984679
 21
228.1274021848088
 31
0.0
  0
LINE
  5
6A6
330
1F
100
AcDbEntity
  8
AM_VIS
100
AcDbLine
 10
259.5469911984679
 20
228.1274021848088
 30
0.0
 11
291.5469911984679
 21
228.1274021848088
 31
0.0
  0
LINE
  5
6A7
330
1F
100
AcDbEntity
  8
AM_VIS
100
AcDbLine
 10
291.5469911984679
 20
228.1274021848088
 30
0.0
 11
291.5469911984679
 21
224.6274587732276
 31
0.0
  0
LINE
  5
6A8
330
1F
100
AcDbEntity
  8
AM_VIS
100
AcDbLine
 10
287.043072445005
 20
199.6274587732276
 30
0.0
 11
304.043072445005
 21
199.6274587732276
 31
0.0
  0
LINE
  5
6A9
330
1F
100
AcDbEntity
  8
AM_VIS
100
AcDbLine
 10
287.043072445005
 20
224.6274587732276
 30
0.0
 11
304.043072445005
 21
224.6274587732276
 31
0.0
  0
LINE
  5
6AA
330
1F
100
AcDbEntity
  8
AM_VIS
100
AcDbLine
 10
280.0312867927502
 20
203.1197681511819
 30
0.0
 11
287.0469911984679
 21
203.1197681511819
 31
0.0
  0
LINE
  5
6AB
330
1F
100
AcDbEntity
  8
AM_VIS
100
AcDbLine
 10
280.0313223871182
 20
221.1197681511819
 30
0.0
 11
287.0469911984679
 21
221.1197681511819
 31
0.0
  0
LINE
  5
6AC
330
1F
100
AcDbEntity
  8
AM_VIS
100
AcDbLine
 10
265.0469911984679
 20
203.1197681511819
 30
0.0
 11
272.0313586964443
 21
203.1197681511819
 31
0.0
  0
LINE
  5
6AD
330
1F
100
AcDbEntity
  8
AM_VIS
100
AcDbLine
 10
265.0469911984679
 20
221.1197681511819
 30
0.0
 11
272.0313231020763
 21
221.1197681511819
 31
0.0
  0
LINE
  5
6AE
330
1F
100
AcDbEntity
  8
AM_VIS
100
AcDbLine
 10
248.046991198468
 20
197.8274021848088
 30
0.0
 11
248.046991198468
 21
198.8274021848088
 31
0.0
  0
LINE
  5
6AF
330
1F
100
AcDbEntity
  8
AM_VIS
100
AcDbLine
 10
248.046991198468
 20
225.4274021848088
 30
0.0
 11
248.046991198468
 21
226.4274021848089
 31
0.0
  0
CIRCLE
  5
6B0
330
1F
100
AcDbEntity
  8
AM_VIS
100
AcDbCircle
 10
234.2969911984679
 20
212.1274021848088
 30
0.0
 40
10.75
  0
CIRCLE
  5
6B1
330
1F
100
AcDbEntity
  8
AM_VIS
100
AcDbCircle
 10
234.2969911984679
 20
212.1274021848088
 30
0.0
 40
5.0
  0
ARC
  5
6B2
330
1F
100
AcDbEntity
  8
AM_VIS
100
AcDbCircle
 10
276.0469911984679
 20
212.1197681511819
 30
0.0
 40
9.5
100
AcDbArc
 50
114.8847486811631
 51
245.1061395726128
  0
ARC
  5
6B3
330
1F
100
AcDbEntity
  8
AM_VIS
100
AcDbCircle
 10
276.0469911984679
 20
212.1197681511819
 30
0.0
 40
9.5
100
AcDbArc
 50
294.6939870470949
 51
65.31478556051098
  0
ARC
  5
6B4
330
1F
100
AcDbEntity
  8
AM_VIS
100
AcDbCircle
 10
276.0313227445972
 20
203.1367273222659
 30
0.0
 40
4.0
100
AcDbArc
 50
174.754492742717
 51
5.04563387698986
  0
LINE
  5
6B5
330
1F
100
AcDbEntity
  8
AM_7
 62
     1
100
AcDbLine
 10
276.0469911984679
 20
376.6314422326463
 30
0.0
 11
276.0469911984679
 21
265.6622411819444
 31
0.0
  0
LINE
  5
6B6
330
1F
100
AcDbEntity
  8
0
100
AcDbLine
 10
304.0430724450049
 20
224.6274587732276
 30
0.0
 11
304.0430724450049
 21
199.6274587732276
 31
0.0
  0
DIMENSION
  5
6B7
330
1F
100
AcDbEntity
  8
0
100
AcDbDimension
  2
*D12
 10
146.5921894058006
 20
266.7812898549871
 30
0.0
 11
144.0921894058005
 21
320.7821181425158
 31
0.0
 70
    32
 71
     5
 42
108.0016565750572
  3
STANDARD
100
AcDbAlignedDimension
 13
164.9940615379946
 23
374.7829464300444
 33
0.0
 14
171.7440615379946
 24
266.7812898549871
 34
0.0
 50
90.0
100
AcDbRotatedDimension
1001
ACAD
1000
DSTYLE
1002
{
1070
   176
1070
     5
1070
   177
1070
     5
1070
   178
1070
     5
1070
   272
1070
     8
1002
}
  0
DIMENSION
  5
6B8
330
1F
100
AcDbEntity
  8
0
100
AcDbDimension
  2
*D13
 10
312.5011748208645
 20
266.8793583768392
 30
0.0
 11
310.0011748208644
 21
279.3793583768393
 31
0.0
 70
    32
 71
     5
 42
25.0
  3
STANDARD
100
AcDbAlignedDimension
 13
303.543072445005
 23
291.8793583768392
 33
0.0
 14
303.543072445005
 24
266.8793583768392
 34
0.0
 50
90.0
100
AcDbRotatedDimension
1001
ACAD
1000
DSTYLE
1002
{
1070
   176
1070
     5
1070
   177
1070
     5
1070
   178
1070
     5
1070
   272
1070
     8
1002
}
  0
DIMENSION
  5
6B9
330
1F
100
AcDbEntity
  8
0
100
AcDbDimension
  2
*D14
 10
304.0430724450049
 20
259.5250049810748
 30
0.0
 11
276.043072445005
 21
262.0250049810747
 31
0.0
 70
    32
 71
     5
 42
55.99999999999997
  3
STANDARD
100
AcDbAlignedDimension
 13
248.043072445005
 23
267.2812898549871
 33
0.0
 14
304.0430724450049
 24
267.3793583768392
 34
0.0
100
AcDbRotatedDimension
1001
ACAD
1000
DSTYLE
1002
{
1070
   176
1070
     5
1070
   177
1070
     5
1070
   178
1070
     5
1070
   272
1070
     8
1002
}
  0
DIMENSION
  5
6BA
330
1F
100
AcDbEntity
  8
0
100
AcDbDimension
  2
*D15
 10
311.2787147874493
 20
205.1197681511819
 30
0.0
 11
308.7787147874493
 21
212.1197681511819
 31
0.0
 70
    32
 71
     5
 42
14.0
  3
STANDARD
100
AcDbAlignedDimension
 13
279.0366877894393
 23
219.1197681511819
 33
0.0
 14
278.8713437451519
 24
205.1197681511819
 34
0.0
 50
90.0
100
AcDbRotatedDimension
1001
ACAD
1000
DSTYLE
1002
{
1070
   178
1070
     5
1070
   177
1070
     5
1070
   176
1070
     5
1070
   272
1070
     8
1002
}
  0
LEADER
  5
6BB
330
1F
100
AcDbEntity
  8
0
100
AcDbLeader
  3
STANDARD
 76
     3
 10
276.6558198769841
 20
220.6042837989357
 30
0.0
 10
284.1112267228192
 20
245.9983996062533
 30
0.0
 10
295.9082516338138
 20
245.9983996062533
 30
0.0
1001
ACAD
1000
DSTYLE
1002
{
1070
   176
1070
     5
1070
   177
1070
     5
1070
   178
1070
     5
1070
   272
1070
     8
1002
}
  0
MTEXT
  5
6BC
330
1F
100
AcDbEntity
  8
AM_6
100
AcDbMText
 10
286.8667364450638
 20
249.9581606218452
 30
0.0
 40
3.5
 41
12.74423159548928
 71
     1
 72
     5
  1
{\C5;M4}
 73
     1
 44
1.0
1001
GENIUS_AMGTXT_16
1040
3.5
1040
0.12
1001
ACAD
1000
MTEXTBEGIN
1070
    73
1070
     1
1070
    44
1040
1.0
1070
    74
1070
     0
1000
MTEXTEND
  0
TEXT
  5
6BD
330
1F
100
AcDbEntity
  8
LOGO
 62
     7
100
AcDbText
 10
193.5273813123582
 20
171.7403302374137
 30
0.0
 40
3.871439348416289
  1
Order example:
 41
0.8
  7
CHINESET
100
AcDbText
  0
TEXT
  5
6BE
330
1F
100
AcDbEntity
  8
LOGO
 62
     7
100
AcDbText
 10
194.2219495469651
 20
177.1905152482389
 30
0.0
 40
5.807159022624434
  1
訂購代號：
  7
CHINESET
100
AcDbText
  0
LINE
  5
6BF
330
1F
100
AcDbEntity
  8
LOGO
 62
     4
100
AcDbLine
 10
403.7500670196802
 20
184.4604179901995
 30
0.0
 11
127.9664785354352
 21
184.4604179901995
 31
0.0
  0
LINE
  5
6C0
330
1F
100
AcDbEntity
  8
LOGO
 62
     4
100
AcDbLine
 10
191.845227784304
 20
155.4246228770768
 30
0.0
 11
191.845227784304
 21
184.4604179901995
 31
0.0
  0
TEXT
  5
6C1
330
1F
100
AcDbEntity
  8
LOGO
  6
Continuous
100
AcDbText
 10
138.396266658493
 20
161.1286610082142
 30
0.0
 40
4.355369266968326
  1
金器工業股份有限公司
  7
CHINESET
100
AcDbText
  0
TEXT
  5
6C2
330
1F
100
AcDbEntity
  8
LOGO
  6
Continuous
100
AcDbText
 10
130.3963149823888
 20
156.7724384303438
 30
0.0
 40
2.903579511312217
  1
MINDMAN INDUSTRIAL CO., LTD.
 41
0.85
  7
CHINESET
100
AcDbText
  0
LINE
  5
6C3
330
1F
100
AcDbEntity
  8
LOGO
 62
     4
100
AcDbLine
 10
191.845227784304
 20
178.6532589675747
 30
0.0
 11
149.2593949517245
 21
178.6532589675747
 31
0.0
  0
LINE
  5
6C4
330
1F
100
AcDbEntity
  8
LOGO
 62
     4
100
AcDbLine
 10
191.845227784304
 20
172.8460999449505
 30
0.0
 11
149.2593949517245
 21
172.8460999449505
 31
0.0
  0
LINE
  5
6C5
330
1F
100
AcDbEntity
  8
LOGO
 62
     4
100
AcDbLine
 10
191.845227784304
 20
167.0389409223264
 30
0.0
 11
127.9664785354352
 21
167.0389409223264
 31
0.0
  0
LINE
  5
6C6
330
1F
100
AcDbEntity
  8
LOGO
 62
     4
100
AcDbLine
 10
149.2593949517245
 20
167.0389409223264
 30
0.0
 11
149.2593949517245
 21
184.4604179901995
 31
0.0
  0
TEXT
  5
6C7
330
1F
100
AcDbEntity
  8
LOGO
100
AcDbText
 10
178.3648016720993
 20
168.490730677982
 30
0.0
 40
2.903579511312217
  1
mm
  7
CHINESET
 72
     1
 11
181.9597096384859
 21
169.9425204336381
 31
0.0
100
AcDbText
 73
     2
  0
TEXT
  5
6C8
330
1F
100
AcDbEntity
  8
LOGO
100
AcDbText
 10
176.8438790709358
 20
180.1050487232309
 30
0.0
 40
2.903579511312217
  1
1 : 1
  7
CHINESET
 72
     1
 11
181.9597096384859
 21
181.5568384788871
 31
0.0
100
AcDbText
 73
     2
  0
LINE
  5
6C9
330
1F
100
AcDbEntity
  8
LOGO
 62
     4
100
AcDbLine
 10
172.4880310422225
 20
167.0389409223264
 30
0.0
 11
172.4880310422225
 21
184.4604179901995
 31
0.0
  0
TEXT
  5
6CA
330
1F
100
AcDbEntity
  8
LOGO
100
AcDbText
 10
151.653551807704
 20
180.1064776501558
 30
190.2958178035923
 40
2.903579511312217
  1
比例 Scale:
 41
0.9
  7
CHINESET
 72
     4
 11
160.8737129969735
 21
181.5568384788871
 31
190.2958178035923
100
AcDbText
  0
TEXT
  5
6CB
330
1F
100
AcDbEntity
  8
LOGO
100
AcDbText
 10
151.4863367376328
 20
174.3387331952084
 30
190.2958178035923
 40
2.903579511312217
  1
投影  View:
 41
0.9
  7
CHINESET
 72
     4
 11
160.8737129969735
 21
175.7496794562623
 31
190.2958178035923
100
AcDbText
  0
TEXT
  5
6CC
330
1F
100
AcDbEntity
  8
LOGO
100
AcDbText
 10
151.7702134844978
 20
168.490730677982
 30
190.2958178035923
 40
2.903579511312217
  1
單位  Unit:
 41
0.9
  7
CHINESET
 72
     4
 11
160.8737129969735
 21
169.9425204336381
 31
190.2958178035923
100
AcDbText
  0
LWPOLYLINE
  5
6CD
330
1F
100
AcDbEntity
  8
LOGO
 62
     4
100
AcDbPolyline
 90
        4
 70
     1
 43
0.0
 10
127.9664785354351
 20
184.4604179901995
 10
403.7500670196802
 20
184.4604179901995
 10
403.7500670196802
 20
445.8246228770765
 10
127.9664785354351
 20
445.8246228770765
1001
GENIUS_GENREC_14
1002
{
1000
PYDIR
1011
127.9664785354351
1021
445.8246228770765
1031
0.0
1002
}
1002
{
1000
PXDIR
1011
403.7500670196802
1021
184.4604179901995
1031
0.0
1002
}
1002
{
1000
PORI
1011
127.9664785354351
1021
184.4604179901995
1031
0.0
1002
}
1002
{
1000
PINS
1011
127.9664785354351
1021
184.4604179901995
1031
0.0
1002
}
1002
{
1000
PINS2
1011
403.7500670196802
1021
445.8246228770765
1031
0.0
1002
}
1002
{
1000
C
1070
     1
1002
}
1001
GENIUS_GENODEF_13
1002
{
1000
HIER
1070
     0
1002
}
1002
{
1000
MANEDIT
1070
     0
1002
}
1002
{
1000
NOSEL
1070
     0
1002
}
1002
{
1000
BEHIND
1070
     0
1002
}
1002
{
1000
OTHER
1070
     0
1002
}
1002
{
1000
REACTOR
1002
}
1001
GENIUS_GENOBJ-N-REC_13
1002
{
1000
OWNER
1000
GEN
1002
}
  0
SOLID
  5
6CE
330
1F
100
AcDbEntity
  8
LOGO
 62
     5
100
AcDbTrace
 10
130.9789888773282
 20
171.8657285678838
 30
0.0
 11
132.2344204680932
 21
171.8657285678838
 31
0.0
 12
137.4726005536988
 22
183.7706833078976
 32
0.0
 13
138.7280321444644
 23
183.770683307897
 33
0.0
  0
SOLID
  5
6CF
330
1F
100
AcDbEntity
  8
LOGO
 62
     5
100
AcDbTrace
 10
132.7539094022043
 20
171.8657285678838
 30
0.0
 11
134.0093409929692
 21
171.8657285678838
 31
0.0
 12
138.7280321444644
 22
182.818286928696
 32
0.0
 13
137.4726005536988
 23
178.2150377625575
 33
0.0
  0
SOLID
  5
6D0
330
1F
100
AcDbEntity
  8
LOGO
 62
     2
100
AcDbTrace
 10
132.2344204680932
 20
171.8657285678838
 30
0.0
 11
132.7539094022043
 21
171.8657285678838
 31
0.0
 12
138.7280321444644
 22
183.770683307897
 32
0.0
 13
139.2475210785748
 23
183.770683307897
 33
0.0
  0
POLYLINE
  5
6D1
330
1F
100
AcDbEntity
  8
LOGO
 62
     5
100
AcDb2dPolyline
 66
     1
 10
0.0
 20
0.0
 30
0.0
 40
0.4336012070226245
 41
0.4336012070226245
  0
VERTEX
  5
6D2
330
6D1
100
AcDbEntity
  8
LOGO
 62
     5
100
AcDbVertex
100
AcDb2dVertex
 10
146.7811512660617
 20
168.8353764522441
 30
0.0
 42
1.0
  0
VERTEX
  5
6D3
330
6D1
100
AcDbEntity
  8
LOGO
 62
     5
100
AcDbVertex
100
AcDb2dVertex
 10
145.4803476449936
 20
168.8353764522441
 30
0.0
 42
1.0
  0
SEQEND
  5
6D4
330
6D1
100
AcDbEntity
  8
LOGO
 62
     5
  0
POLYLINE
  5
6D5
330
1F
100
AcDbEntity
  8
LOGO
 62
     5
100
AcDb2dPolyline
 66
     1
 10
0.0
 20
0.0
 30
0.0
 70
     1
  0
VERTEX
  5
6D6
330
6D5
100
AcDbEntity
  8
LOGO
 62
     5
100
AcDbVertex
100
AcDb2dVertex
 10
143.0282749595347
 20
168.6189227296985
 30
0.0
 42
1.000000057330635
  0
VERTEX
  5
6D7
330
6D5
100
AcDbEntity
  8
LOGO
 62
     5
100
AcDbVertex
100
AcDb2dVertex
 10
144.326997294809
 20
168.6189227296985
 30
0.0
 42
1.000000057330635
  0
SEQEND
  5
6D8
330
6D5
100
AcDbEntity
  8
LOGO
 62
     5
  0
CIRCLE
  5
6D9
330
1F
100
AcDbEntity
  8
LOGO
 62
     5
100
AcDbCircle
 10
143.6776361271729
 20
168.6189227296985
 30
0.0
 40
0.6493611676370826
  0
POLYLINE
  5
6DA
330
1F
100
AcDbEntity
  8
LOGO
 62
     5
100
AcDb2dPolyline
 66
     1
 10
0.0
 20
0.0
 30
0.0
 70
     1
 40
0.4336012070226245
 41
0.4336012070226245
  0
VERTEX
  5
6DB
330
6DA
100
AcDbEntity
  8
LOGO
 62
     5
100
AcDbVertex
100
AcDb2dVertex
 10
142.810433713127
 20
168.6189227296985
 30
0.0
 42
1.0
  0
VERTEX
  5
6DC
330
6DA
100
AcDbEntity
  8
LOGO
 62
     5
100
AcDbVertex
100
AcDb2dVertex
 10
144.5448385412174
 20
168.6189227296985
 30
0.0
 42
1.0
  0
SEQEND
  5
6DD
330
6DA
100
AcDbEntity
  8
LOGO
 62
     5
  0
LINE
  5
6DE
330
1F
100
AcDbEntity
  8
LOGO
100
AcDbLine
 10
146.9965643457097
 20
167.5366541169706
 30
0.0
 11
146.9965643457097
 21
168.8353764522441
 31
0.0
  0
SOLID
  5
6DF
330
1F
100
AcDbEntity
  8
LOGO
 62
     5
100
AcDbTrace
 10
144.3269540040664
 20
169.7011913424272
 30
0.0
 11
144.759861449157
 21
169.7011913424272
 31
0.0
 12
144.3269540040664
 22
167.5366541169706
 32
0.0
 13
144.759861449157
 23
167.5366541169706
 33
0.0
  0
SOLID
  5
6E0
330
1F
100
AcDbEntity
  8
LOGO
 62
     5
100
AcDbTrace
 10
145.2649345653442
 20
167.5366541169706
 30
0.0
 11
145.6978420104361
 21
167.5366541169706
 31
0.0
 12
145.2649345653442
 22
169.7011913424272
 32
0.0
 13
145.6978420104361
 23
169.7011913424272
 33
0.0
  0
SOLID
  5
6E1
330
1F
100
AcDbEntity
  8
LOGO
 62
     5
100
AcDbTrace
 10
146.5636569006191
 20
168.8353764522441
 30
0.0
 11
146.9965643457097
 21
168.8353764522441
 31
0.0
 12
146.5636569006191
 22
167.5366541169706
 32
0.0
 13
146.9965643457097
 23
167.5366541169706
 33
0.0
  0
SOLID
  5
6E2
330
1F
100
AcDbEntity
  8
LOGO
 62
     5
100
AcDbTrace
 10
145.221643820835
 20
182.818286928696
 30
0.0
 11
143.9662122300706
 21
178.2150377625575
 31
0.0
 12
145.221643820835
 22
171.8657285678838
 32
0.0
 13
143.9662122300706
 23
171.8657285678838
 33
0.0
  0
SOLID
  5
6E3
330
1F
100
AcDbEntity
  8
LOGO
 62
     5
100
AcDbTrace
 10
145.7411327549453
 20
171.8657285678838
 30
0.0
 11
146.9965643457097
 21
171.8657285678838
 31
0.0
 12
145.7411327549453
 22
183.770683307897
 32
0.0
 13
146.9965643457097
 23
183.7706833078976
 33
0.0
  0
SOLID
  5
6E4
330
1F
100
AcDbEntity
  8
LOGO
 62
     2
100
AcDbTrace
 10
145.221643820835
 20
183.7706833078976
 30
0.0
 11
145.7411327549453
 21
183.770683307897
 31
0.0
 12
145.221643820835
 22
171.8657285678838
 32
0.0
 13
145.7411327549453
 23
171.8657285678838
 33
0.0
  0
POLYLINE
  5
6E5
330
1F
100
AcDbEntity
  8
LOGO
 62
     5
100
AcDb2dPolyline
 66
     1
 10
0.0
 20
0.0
 30
0.0
 40
0.4336012070226245
 41
0.4336012070226245
  0
VERTEX
  5
6E6
330
6E5
100
AcDbEntity
  8
LOGO
 62
     5
100
AcDbVertex
100
AcDb2dVertex
 10
140.5761156925889
 20
168.8353764522441
 30
0.0
 42
1.0
  0
VERTEX
  5
6E7
330
6E5
100
AcDbEntity
  8
LOGO
 62
     5
100
AcDbVertex
100
AcDb2dVertex
 10
139.2753120715207
 20
168.8353764522441
 30
0.0
 42
1.0
  0
SEQEND
  5
6E8
330
6E5
100
AcDbEntity
  8
LOGO
 62
     5
  0
POLYLINE
  5
6E9
330
1F
100
AcDbEntity
  8
LOGO
 62
     5
100
AcDb2dPolyline
 66
     1
 10
0.0
 20
0.0
 30
0.0
 40
0.4336012070226245
 41
0.4336012070226245
  0
VERTEX
  5
6EA
330
6E9
100
AcDbEntity
  8
LOGO
 62
     5
100
AcDbVertex
100
AcDb2dVertex
 10
141.8748380278618
 20
168.8353764522441
 30
0.0
 42
1.0
  0
VERTEX
  5
6EB
330
6E9
100
AcDbEntity
  8
LOGO
 62
     5
100
AcDbVertex
100
AcDb2dVertex
 10
140.5740344067943
 20
168.8353764522441
 30
0.0
 42
1.0
  0
SEQEND
  5
6EC
330
6E9
100
AcDbEntity
  8
LOGO
 62
     5
  0
POLYLINE
  5
6ED
330
1F
100
AcDbEntity
  8
LOGO
 62
     5
100
AcDb2dPolyline
 66
     1
 10
0.0
 20
0.0
 30
0.0
 70
     1
 40
0.4336012070226245
 41
0.4336012070226245
  0
VERTEX
  5
6EE
330
6ED
100
AcDbEntity
  8
LOGO
 62
     5
100
AcDbVertex
100
AcDb2dVertex
 10
136.6053981396536
 20
168.6189227296985
 30
0.0
 42
1.0
  0
VERTEX
  5
6EF
330
6ED
100
AcDbEntity
  8
LOGO
 62
     5
100
AcDbVertex
100
AcDb2dVertex
 10
138.3398029677447
 20
168.6189227296985
 30
0.0
 42
1.0
  0
SEQEND
  5
6F0
330
6ED
100
AcDbEntity
  8
LOGO
 62
     5
  0
SOLID
  5
6F1
330
1F
100
AcDbEntity
  8
LOGO
 62
     5
100
AcDbTrace
 10
138.1219184305923
 20
170.3505525100646
 30
0.0
 11
138.5548258756835
 21
170.3505525100646
 31
0.0
 12
138.1219184305923
 22
167.5366541169706
 32
0.0
 13
138.5548258756835
 23
167.5366541169706
 33
0.0
  0
SOLID
  5
6F2
330
1F
100
AcDbEntity
  8
LOGO
 62
     5
100
AcDbTrace
 10
139.0598989918728
 20
169.7011913424272
 30
0.0
 11
139.4928064369633
 21
169.7011913424272
 31
0.0
 12
139.0598989918728
 22
167.5366541169706
 32
0.0
 13
139.4928064369633
 23
167.5366541169706
 33
0.0
  0
SOLID
  5
6F3
330
1F
100
AcDbEntity
  8
LOGO
 62
     5
100
AcDbTrace
 10
140.3586213271456
 20
168.8353764522441
 30
0.0
 11
140.7915287722376
 21
168.8353764522441
 31
0.0
 12
140.3586213271456
 22
167.5366541169706
 32
0.0
 13
140.7915287722376
 23
167.5366541169706
 33
0.0
  0
SOLID
  5
6F4
330
1F
100
AcDbEntity
  8
LOGO
 62
     5
100
AcDbTrace
 10
141.6573436624199
 20
168.8353764522441
 30
0.0
 11
142.0902511075111
 21
168.8353764522441
 31
0.0
 12
141.6573436624199
 22
167.5366541169699
 32
0.0
 13
142.0902511075111
 23
167.5366541169699
 33
0.0
  0
SOLID
  5
6F5
330
1F
100
AcDbEntity
  8
LOGO
 62
     5
100
AcDbTrace
 10
137.4726005536988
 20
171.8657285678838
 30
0.0
 11
138.7280321444644
 21
171.8657285678838
 31
0.0
 12
137.4726005536988
 22
178.2150377625575
 32
0.0
 13
138.7280321444644
 23
182.818286928696
 33
0.0
  0
SOLID
  5
6F6
330
1F
100
AcDbEntity
  8
LOGO
 62
     5
100
AcDbTrace
 10
139.2475210785748
 20
183.770683307897
 30
0.0
 11
140.5029526693391
 21
183.7706833078976
 31
0.0
 12
139.2475210785748
 22
172.8181249470847
 32
0.0
 13
140.5029526693391
 23
177.4213741132232
 33
0.0
  0
SOLID
  5
6F7
330
1F
100
AcDbEntity
  8
LOGO
 62
     2
100
AcDbTrace
 10
138.7280321444644
 20
183.770683307897
 30
0.0
 11
139.2475210785748
 21
183.770683307897
 31
0.0
 12
138.7280321444644
 22
171.8657285678838
 32
0.0
 13
139.2475210785748
 23
171.8657285678838
 33
0.0
  0
SOLID
  5
6F8
330
1F
100
AcDbEntity
  8
LOGO
 62
     5
100
AcDbTrace
 10
139.2475210785748
 20
172.8181249470847
 30
0.0
 11
140.5029526693391
 21
177.4213741132232
 31
0.0
 12
145.221643820835
 22
183.7706833078976
 32
0.0
 13
143.9662122300706
 23
183.7706833078976
 33
0.0
  0
SOLID
  5
6F9
330
1F
100
AcDbEntity
  8
LOGO
 62
     5
100
AcDbTrace
 10
139.2475210785748
 20
171.8657285678838
 30
0.0
 11
140.5029526693391
 21
171.8657285678838
 31
0.0
 12
145.221643820835
 22
182.818286928696
 32
0.0
 13
143.9662122300706
 23
178.2150377625575
 33
0.0
  0
SOLID
  5
6FA
330
1F
100
AcDbEntity
  8
LOGO
 62
     2
100
AcDbTrace
 10
138.7280321444644
 20
171.8657285678838
 30
0.0
 11
139.2475210785748
 21
171.8657285678838
 31
0.0
 12
145.221643820835
 22
183.7706833078976
 32
0.0
 13
145.7411327549453
 23
183.770683307897
 33
0.0
  0
LWPOLYLINE
  5
6FB
330
1F
100
AcDbEntity
  8
LOGO
 62
     4
100
AcDbPolyline
 90
        4
 70
     1
 43
0.0
 10
127.9664785354351
 20
184.4604179901995
 10
403.7500670196802
 20
184.4604179901995
 10
403.7500670196802
 20
155.4246228770768
 10
127.9664785354351
 20
155.4246228770768
1001
GENIUS_GENREC_14
1002
{
1000
PYDIR
1011
127.9664785354351
1021
155.4246228770768
1031
0.0
1002
}
1002
{
1000
PXDIR
1011
403.7500670196802
1021
184.4604179901995
1031
0.0
1002
}
1002
{
1000
PORI
1011
127.9664785354351
1021
184.4604179901995
1031
0.0
1002
}
1002
{
1000
PINS
1011
127.9664785354351
1021
184.4604179901995
1031
0.0
1002
}
1002
{
1000
PINS2
1011
403.7500670196802
1021
155.4246228770768
1031
0.0
1002
}
1002
{
1000
C
1070
     1
1002
}
1001
GENIUS_GENOBJ-N-REC_13
1002
{
1000
OWNER
1000
GEN
1002
}
1001
GENIUS_GENODEF_13
1002
{
1000
HIER
1070
     0
1002
}
1002
{
1000
MANEDIT
1070
     0
1002
}
1002
{
1000
NOSEL
1070
     0
1002
}
1002
{
1000
BEHIND
1070
     0
1002
}
1002
{
1000
OTHER
1070
     0
1002
}
1002
{
1000
REACTOR
1002
}
  0
TEXT
  5
6FC
330
1F
100
AcDbEntity
  8
LOGO
100
AcDbText
 10
193.4325574627811
 20
156.9693157168506
 30
0.0
 40
2.904
  1
10603201
 41
0.7
  7
CHINESET
 72
     1
 11
200.2569574627811
 21
156.9693157168506
 31
0.0
100
AcDbText
  0
LINE
  5
6FD
330
1F
100
AcDbEntity
  8
LOGO
 62
     4
100
AcDbLine
 10
209.2692277843027
 20
161.2317818997022
 30
0.0
 11
209.2692277843041
 21
155.4246228770774
 31
0.0
  0
LINE
  5
6FE
330
1F
100
AcDbEntity
  8
LOGO
 62
     4
100
AcDbLine
 10
209.2692277843027
 20
161.2317818997022
 30
0.0
 11
191.845227784304
 21
161.2317818997022
 31
0.0
  0
CIRCLE
  5
6FF
330
1F
100
AcDbEntity
  8
LOGO
  6
Continuous
100
AcDbCircle
 10
177.8643716814011
 20
175.7558902340854
 30
0.0
 40
1.685886606825557
  0
CIRCLE
  5
700
330
1F
100
AcDbEntity
  8
LOGO
  6
Continuous
100
AcDbCircle
 10
177.8643716814011
 20
175.7558902340854
 30
0.0
 40
0.9877803085024472
  0
LINE
  5
701
330
1F
100
AcDbEntity
  8
LOGO
100
AcDbLine
 10
188.4586787407022
 20
174.0700036272595
 30
0.0
 11
188.4586787407022
 21
177.4417768409113
 31
0.0
  0
LINE
  5
702
330
1F
100
AcDbEntity
  8
LOGO
100
AcDbLine
 10
183.1735210028132
 20
174.7681099255828
 30
0.0
 11
183.1735210028132
 21
176.743670542588
 31
0.0
  0
LINE
  5
703
330
1F
100
AcDbEntity
  8
LOGO
  6
Continuous
100
AcDbLine
 10
183.1735210028132
 20
176.743670542588
 30
0.0
 11
188.4586787407022
 21
177.4417768409113
 31
0.0
  0
LINE
  5
704
330
1F
100
AcDbEntity
  8
LOGO
  6
Continuous
100
AcDbLine
 10
183.1735210028132
 20
174.7681099255828
 30
0.0
 11
188.4586787407022
 21
174.0700036272595
 31
0.0
  0
LINE
  5
705
330
1F
100
AcDbEntity
  8
LOGO
  6
AM_ISO08W050x2
 48
0.3
100
AcDbLine
 10
175.5403517497281
 20
175.7558902340854
 30
0.0
 11
180.1883916130743
 21
175.7558902340854
 31
0.0
1001
GENIUS_GENOREF_13
1005
79A
  0
LINE
  5
706
330
1F
100
AcDbEntity
  8
LOGO
  6
AM_ISO08W050x2
 48
0.3
100
AcDbLine
 10
177.8643716814011
 20
173.4318703024123
 30
0.0
 11
177.8643716814011
 21
178.0799101657585
 31
0.0
1001
GENIUS_GENOREF_13
1005
799
  0
LINE
  5
707
330
1F
100
AcDbEntity
  8
LOGO
  6
CENTER
 48
0.5
100
AcDbLine
 10
182.750855284054
 20
175.7558902340854
 30
0.0
 11
188.9908770159699
 21
175.7558902340854
 31
0.0
1001
GENIUS_GENOREF_13
1005
798
  0
LINE
  5
708
330
1F
100
AcDbEntity
  8
LOGO
 62
     4
100
AcDbLine
 10
251.1398720304783
 20
168.4907306779829
 30
0.0
 11
251.1398720304783
 21
157.8442724698375
 31
0.0
  0
LINE
  5
709
330
1F
100
AcDbEntity
  8
LOGO
 62
     4
100
AcDbLine
 10
231.7826752883968
 20
168.4907306779829
 30
0.0
 11
231.7826752883968
 21
157.8442724698375
 31
0.0
  0
LINE
  5
70A
330
1F
100
AcDbEntity
  8
LOGO
 62
     4
100
AcDbLine
 10
251.1398720304783
 20
157.8442724698375
 30
0.0
 11
231.7826752883968
 21
157.8442724698375
 31
0.0
  0
LINE
  5
70B
330
1F
100
AcDbEntity
  8
LOGO
 62
     4
100
AcDbLine
 10
254.8483605377104
 20
181.5568384788871
 30
0.0
 11
231.7826752883968
 21
181.5568384788871
 31
0.0
  0
LINE
  5
70C
330
1F
100
AcDbEntity
  8
LOGO
 62
     4
100
AcDbLine
 10
254.8483605377104
 20
172.8460999449508
 30
0.0
 11
231.7826752883968
 21
172.8460999449508
 31
0.0
  0
LINE
  5
70D
330
1F
100
AcDbEntity
  8
LOGO
 62
     4
100
AcDbLine
 10
231.7826752883968
 20
181.5568384788871
 30
0.0
 11
231.7826752883968
 21
172.8460999449508
 31
0.0
  0
LINE
  5
70E
330
1F
100
AcDbEntity
  8
LOGO
 62
     4
100
AcDbLine
 10
254.8483605377104
 20
181.5568384788871
 30
0.0
 11
254.8483605377104
 21
172.8460999449508
 31
0.0
  0
LINE
  5
70F
330
1F
100
AcDbEntity
  8
LOGO
 62
     4
100
AcDbLine
 10
242.4712331366368
 20
172.8460999449508
 30
0.0
 11
242.4712331366368
 21
168.4907306779829
 31
0.0
  0
LINE
  5
710
330
1F
100
AcDbEntity
  8
LOGO
 62
     4
100
AcDbLine
 10
251.1398720304783
 20
168.4907306779829
 30
0.0
 11
231.7826752883968
 21
168.4907306779829
 31
0.0
  0
TEXT
  5
711
330
1F
100
AcDbEntity
  8
LOGO
  6
Continuous
100
AcDbText
 10
238.8072254061523
 20
159.3469974695781
 30
190.2958178035923
 40
2.177999999999999
  1
Model
 41
0.8
  7
CHINESET
100
AcDbText
  0
TEXT
  5
712
330
1F
100
AcDbEntity
  8
LOGO
100
AcDbText
 10
238.2275126085776
 20
163.3845400770767
 30
190.2958178035923
 40
3.63
  1
型號
  7
CHINESET
100
AcDbText
  0
LINE
  5
713
330
1F
100
AcDbEntity
  8
LOGO
  6
Continuous
 62
     7
100
AcDbLine
 10
255.7743840371306
 20
177.17061439941
 30
0.0
 11
259.6207283329909
 21
177.17061439941
 31
0.0
  0
LINE
  5
714
330
1F
100
AcDbEntity
  8
LOGO
 62
     4
100
AcDbLine
 10
257.6007682511678
 20
168.4907306779829
 30
0.0
 11
257.6007682511678
 21
157.8442724698375
 31
0.0
  0
LINE
  5
715
330
1F
100
AcDbEntity
  8
LOGO
 62
     4
100
AcDbLine
 10
274.0412605747666
 20
157.8442724698375
 30
0.0
 11
257.6007682511678
 21
157.8442724698375
 31
0.0
  0
LINE
  5
716
330
1F
100
AcDbEntity
  8
LOGO
 62
     4
100
AcDbLine
 10
272.0514062435177
 20
181.5568384788871
 30
0.0
 11
260.834047205427
 21
181.5568384788871
 31
0.0
  0
LINE
  5
717
330
1F
100
AcDbEntity
  8
LOGO
 62
     4
100
AcDbLine
 10
272.0514062435177
 20
172.8460999449508
 30
0.0
 11
260.834047205427
 21
172.8460999449508
 31
0.0
  0
LINE
  5
718
330
1F
100
AcDbEntity
  8
LOGO
 62
     4
100
AcDbLine
 10
260.834047205427
 20
181.5568384788871
 30
0.0
 11
260.834047205427
 21
172.8460999449508
 31
0.0
  0
LINE
  5
719
330
1F
100
AcDbEntity
  8
LOGO
 62
     4
100
AcDbLine
 10
272.0514062435177
 20
181.5568384788871
 30
0.0
 11
272.0514062435177
 21
172.8460999449508
 31
0.0
  0
LINE
  5
71A
330
1F
100
AcDbEntity
  8
LOGO
 62
     4
100
AcDbLine
 10
266.442726724472
 20
172.8460999449508
 30
0.0
 11
266.442726724472
 21
168.4907306779829
 31
0.0
  0
LINE
  5
71B
330
1F
100
AcDbEntity
  8
LOGO
 62
     4
100
AcDbLine
 10
274.0412605747666
 20
168.4907306779829
 30
0.0
 11
257.6007682511678
 21
168.4907306779829
 31
0.0
  0
TEXT
  5
71C
330
1F
100
AcDbEntity
  8
LOGO
  6
Continuous
100
AcDbText
 10
262.9121521796692
 20
159.3469974695781
 30
190.2958178035923
 40
2.177999999999999
  1
CODE
 41
0.8
  7
CHINESET
100
AcDbText
  0
TEXT
  5
71D
330
1F
100
AcDbEntity
  8
LOGO
100
AcDbText
 10
262.8916346653225
 20
163.3845400770767
 30
190.2958178035923
 40
3.63
  1
記號
  7
CHINESET
100
AcDbText
  0
TEXT
  5
71E
330
1F
100
AcDbEntity
  8
LOGO
100
AcDbText
 10
237.4146256414037
 20
175.8321904538035
 30
190.2958178035923
 40
3.63
  1
MGA
  7
CHINESET
100
AcDbText
  0
TEXT
  5
71F
330
1F
100
AcDbEntity
  8
LOGO
100
AcDbText
 10
263.8739609372958
 20
175.8321904538035
 30
190.2958178035923
 40
3.63
  1
10
  7
CHINESET
100
AcDbText
  0
LINE
  5
720
330
1F
100
AcDbEntity
  8
LOGO
 62
     4
100
AcDbLine
 10
274.0412605747666
 20
168.4907306779829
 30
0.0
 11
274.0412605747666
 21
157.8442724698375
 31
0.0
  0
LINE
  5
721
330
1F
100
AcDbEntity
  8
AM_7
 62
     1
100
AcDbLine
 10
272.5469911984679
 20
409.4804608855058
 30
0.0
 11
274.5469911984679
 21
409.4804608855058
 31
0.0
  0
LINE
  5
722
330
1F
100
AcDbEntity
  8
AM_7
 62
     1
100
AcDbLine
 10
273.5469911984679
 20
408.4804608855058
 30
0.0
 11
273.5469911984679
 21
410.4804608855058
 31
0.0
  0
LINE
  5
723
330
1F
100
AcDbEntity
  8
AM_7
 62
     1
100
AcDbLine
 10
261.0469911984679
 20
409.4804608855058
 30
0.0
 11
271.5469911984679
 21
409.4804608855058
 31
0.0
  0
LINE
  5
724
330
1F
100
AcDbEntity
  8
AM_7
 62
     1
100
AcDbLine
 10
275.5469911984679
 20
409.4804608855058
 30
0.0
 11
286.0469911984679
 21
409.4804608855058
 31
0.0
  0
LINE
  5
725
330
1F
100
AcDbEntity
  8
AM_7
 62
     1
100
AcDbLine
 10
273.5469911984679
 20
396.9804608855059
 30
0.0
 11
273.5469911984679
 21
407.4804608855059
 31
0.0
  0
LINE
  5
726
330
1F
100
AcDbEntity
  8
AM_7
 62
     1
100
AcDbLine
 10
273.5469911984679
 20
411.4804608855058
 30
0.0
 11
273.5469911984679
 21
421.9804608855058
 31
0.0
  0
LINE
  5
727
330
1F
100
AcDbEntity
  8
AM_7
 62
     1
100
AcDbLine
 10
363.6126544266032
 20
279.3887122594952
 30
0.0
 11
363.6126544266032
 21
264.3793583768392
 31
0.0
  0
LINE
  5
728
330
1F
100
AcDbEntity
  8
AM_7
100
AcDbLine
 10
363.6126544266032
 20
278.8777018017819
 30
0.0
 11
363.6126544266032
 21
278.8777018017819
 31
0.0
  0
LINE
  5
729
330
1F
100
AcDbEntity
  8
AM_7
100
AcDbLine
 10
363.6126544266032
 20
278.8777018017819
 30
0.0
 11
363.6126544266032
 21
278.8777018017819
 31
0.0
  0
LINE
  5
72A
330
1F
100
AcDbEntity
  8
AM_7
100
AcDbLine
 10
363.6125978381845
 20
278.975770323634
 30
0.0
 11
363.6125978381845
 21
278.975770323634
 31
0.0
  0
LINE
  5
72B
330
1F
100
AcDbEntity
  8
AM_7
100
AcDbLine
 10
363.6125978381845
 20
278.975770323634
 30
0.0
 11
363.6125978381845
 21
278.975770323634
 31
0.0
  0
LINE
  5
72C
330
1F
100
AcDbEntity
  8
AM_7
100
AcDbLine
 10
363.6126544266032
 20
278.8793583768392
 30
0.0
 11
363.6126544266032
 21
278.8793583768392
 31
0.0
  0
LINE
  5
72D
330
1F
100
AcDbEntity
  8
AM_7
100
AcDbLine
 10
363.6126544266032
 20
278.8793583768392
 30
0.0
 11
363.6126544266032
 21
278.8793583768392
 31
0.0
  0
LINE
  5
72E
330
1F
100
AcDbEntity
  8
AM_7
 62
     1
100
AcDbLine
 10
363.6126544266032
 20
278.8793583768392
 30
0.0
 11
363.6126544266032
 21
375.1681797118713
 31
0.0
  0
LINE
  5
72F
330
1F
100
AcDbEntity
  8
AM_VIS
100
AcDbLine
 10
289.546991198468
 20
423.9804608855058
 30
0.0
 11
255.0469911984679
 21
423.9804608855058
 31
0.0
  0
LINE
  5
730
330
1F
100
AcDbEntity
  8
AM_VIS
100
AcDbLine
 10
289.546991198468
 20
423.9804608855058
 30
0.0
 11
289.546991198468
 21
394.9804608855059
 31
0.0
  0
LINE
  5
731
330
1F
100
AcDbEntity
  8
AM_VIS
100
AcDbLine
 10
255.0469911984679
 20
394.9804608855059
 30
0.0
 11
289.546991198468
 21
394.9804608855059
 31
0.0
  0
LINE
  5
732
330
1F
100
AcDbEntity
  8
AM_VIS
100
AcDbLine
 10
255.0469911984679
 20
423.9804608855058
 30
0.0
 11
255.0469911984679
 21
394.9804608855059
 31
0.0
  0
LINE
  5
733
330
1F
100
AcDbEntity
  8
AM_VIS
100
AcDbLine
 10
255.0469911984679
 20
423.9804608855058
 30
0.0
 11
250.046991198468
 21
423.9804608855058
 31
0.0
  0
LINE
  5
734
330
1F
100
AcDbEntity
  8
AM_VIS
100
AcDbLine
 10
255.0469911984679
 20
394.9804608855059
 30
0.0
 11
250.046991198468
 21
394.9804608855059
 31
0.0
  0
LINE
  5
735
330
1F
100
AcDbEntity
  8
AM_VIS
100
AcDbLine
 10
250.046991198468
 20
423.9804608855058
 30
0.0
 11
250.046991198468
 21
394.9804608855059
 31
0.0
  0
LINE
  5
736
330
1F
100
AcDbEntity
  8
AM_VIS
100
AcDbLine
 10
246.046991198468
 20
422.7804608855057
 30
0.0
 11
246.046991198468
 21
396.1804608855059
 31
0.0
  0
LINE
  5
737
330
1F
100
AcDbEntity
  8
AM_VIS
100
AcDbLine
 10
250.046991198468
 20
423.7804608855058
 30
0.0
 11
246.046991198468
 21
423.7804608855058
 31
0.0
  0
LINE
  5
738
330
1F
100
AcDbEntity
  8
AM_VIS
100
AcDbLine
 10
250.046991198468
 20
395.1804608855058
 30
0.0
 11
246.046991198468
 21
395.1804608855058
 31
0.0
  0
LINE
  5
739
330
1F
100
AcDbEntity
  8
AM_VIS
100
AcDbLine
 10
223.046991198468
 20
422.2804608855057
 30
0.0
 11
223.046991198468
 21
396.6804608855059
 31
0.0
  0
LINE
  5
73A
330
1F
100
AcDbEntity
  8
AM_VIS
100
AcDbLine
 10
246.046991198468
 20
422.2804608855057
 30
0.0
 11
223.046991198468
 21
422.2804608855057
 31
0.0
  0
LINE
  5
73B
330
1F
100
AcDbEntity
  8
AM_VIS
100
AcDbLine
 10
246.046991198468
 20
396.6804608855058
 30
0.0
 11
223.046991198468
 21
396.6804608855058
 31
0.0
  0
LINE
  5
73C
330
1F
100
AcDbEntity
  8
AM_VIS
100
AcDbLine
 10
269.0748552434684
 20
425.4804608855058
 30
0.0
 11
257.5469911984679
 21
425.4804608855058
 31
0.0
  0
LINE
  5
73D
330
1F
100
AcDbEntity
  8
AM_VIS
100
AcDbLine
 10
268.0697656234163
 20
394.4804608855059
 30
0.0
 11
268.0697656234163
 21
394.9804608855059
 31
0.0
  0
LINE
  5
73E
330
1F
100
AcDbEntity
  8
AM_VIS
100
AcDbLine
 10
278.0191271534675
 20
425.4804608855058
 30
0.0
 11
289.546991198468
 21
425.4804608855058
 31
0.0
  0
LINE
  5
73F
330
1F
100
AcDbEntity
  8
AM_VIS
100
AcDbLine
 10
279.0242167735196
 20
394.9804608855059
 30
0.0
 11
279.0242167735196
 21
394.4804608855059
 31
0.0
  0
LINE
  5
740
330
1F
100
AcDbEntity
  8
AM_VIS
100
AcDbLine
 10
289.546991198468
 20
394.9804608855059
 30
0.0
 11
289.546991198468
 21
393.4804608855058
 31
0.0
  0
LINE
  5
741
330
1F
100
AcDbEntity
  8
AM_VIS
100
AcDbLine
 10
289.546991198468
 20
423.9804608855058
 30
0.0
 11
289.546991198468
 21
425.4804608855058
 31
0.0
  0
LINE
  5
742
330
1F
100
AcDbEntity
  8
AM_VIS
100
AcDbLine
 10
269.0748552434684
 20
393.4804608855058
 30
0.0
 11
257.5469911984679
 21
393.4804608855058
 31
0.0
  0
LINE
  5
743
330
1F
100
AcDbEntity
  8
AM_VIS
100
AcDbLine
 10
278.0191271534675
 20
393.4804608855058
 30
0.0
 11
289.546991198468
 21
393.4804608855058
 31
0.0
  0
ARC
  5
744
330
1F
100
AcDbEntity
  8
AM_VIS
100
AcDbCircle
 10
278.0220075064546
 20
394.4826684447846
 30
0.0
 40
1.002211698349616
100
AcDbArc
 50
269.835331899304
 51
359.8737951949807
  0
ARC
  5
745
330
1F
100
AcDbEntity
  8
AM_VIS
100
AcDbCircle
 10
269.0719748904812
 20
394.4826684447846
 30
0.0
 40
1.00221169834961
100
AcDbArc
 50
180.126204805016
 51
270.1646681006959
  0
LINE
  5
746
330
1F
100
AcDbEntity
  8
AM_VIS
100
AcDbLine
 10
257.5469911984679
 20
423.9804608855058
 30
0.0
 11
257.5469911984679
 21
425.4804608855058
 31
0.0
  0
LINE
  5
747
330
1F
100
AcDbEntity
  8
AM_VIS
100
AcDbLine
 10
257.5469911984679
 20
394.9804608855059
 30
0.0
 11
257.5469911984679
 21
393.4804608855058
 31
0.0
  0
LINE
  5
748
330
1F
100
AcDbEntity
  8
AM_VIS
100
AcDbLine
 10
279.0242167735196
 20
424.4804608855059
 30
0.0
 11
279.0242167735196
 21
423.9804608855058
 31
0.0
  0
LINE
  5
749
330
1F
100
AcDbEntity
  8
AM_VIS
100
AcDbLine
 10
268.0697656234163
 20
423.9804608855058
 30
0.0
 11
268.0697656234163
 21
424.4804608855059
 31
0.0
  0
ARC
  5
74A
330
1F
100
AcDbEntity
  8
AM_VIS
100
AcDbCircle
 10
278.0220075064546
 20
424.4782533262271
 30
0.0
 40
1.002211698349626
100
AcDbArc
 50
0.1262048050160524
 51
90.16466810069271
  0
ARC
  5
74B
330
1F
100
AcDbEntity
  8
AM_VIS
100
AcDbCircle
 10
269.0719748904812
 20
424.4782533262271
 30
0.0
 40
1.002211698349614
100
AcDbArc
 50
89.83533189930403
 51
179.8737951949807
  0
LINE
  5
74C
330
1F
100
AcDbEntity
  8
AM_VIS
100
AcDbLine
 10
289.546991198468
 20
421.980404297087
 30
0.0
 11
303.543072445005
 21
421.980404297087
 31
0.0
  0
LINE
  5
74D
330
1F
100
AcDbEntity
  8
AM_VIS
100
AcDbLine
 10
289.546991198468
 20
396.980404297087
 30
0.0
 11
303.543072445005
 21
396.980404297087
 31
0.0
  0
LINE
  5
74E
330
1F
100
AcDbEntity
  8
AM_VIS
100
AcDbLine
 10
246.046991198468
 20
395.1804608855058
 30
0.0
 11
246.046991198468
 21
396.1804608855059
 31
0.0
  0
LINE
  5
74F
330
1F
100
AcDbEntity
  8
AM_VIS
100
AcDbLine
 10
246.046991198468
 20
422.7804608855057
 30
0.0
 11
246.046991198468
 21
423.7804608855058
 31
0.0
  0
CIRCLE
  5
750
330
1F
100
AcDbEntity
  8
AM_VIS
100
AcDbCircle
 10
273.5469911984679
 20
409.4804608855058
 30
0.0
 40
10.5
  0
CIRCLE
  5
751
330
1F
100
AcDbEntity
  8
AM_VIS
100
AcDbCircle
 10
273.5469911984679
 20
409.4804608855058
 30
0.0
 40
6.75
  0
LINE
  5
752
330
1F
100
AcDbEntity
  8
AM_VIS
100
AcDbLine
 10
278.0191271534675
 20
393.4804608855058
 30
0.0
 11
269.0748552434683
 21
393.4804608855058
 31
0.0
  0
LINE
  5
753
330
1F
100
AcDbEntity
  8
AM_VIS
100
AcDbLine
 10
269.0748552434684
 20
425.4804608855058
 30
0.0
 11
278.0191271534675
 21
425.4804608855058
 31
0.0
  0
LINE
  5
754
330
1F
100
AcDbEntity
  8
AM_VIS
100
AcDbLine
 10
378.1126544266032
 20
328.3793583768392
 30
0.0
 11
378.1126544266032
 21
371.3793583768392
 31
0.0
  0
LINE
  5
755
330
1F
100
AcDbEntity
  8
AM_VIS
100
AcDbLine
 10
349.1126544266032
 20
371.3793583768392
 30
0.0
 11
349.1126544266032
 21
328.3793583768392
 31
0.0
  0
LINE
  5
756
330
1F
100
AcDbEntity
  8
AM_VIS
100
AcDbLine
 10
378.1126544266032
 20
371.3793583768392
 30
0.0
 11
349.1126544266032
 21
371.3793583768392
 31
0.0
  0
LINE
  5
757
330
1F
100
AcDbEntity
  8
AM_VIS
100
AcDbLine
 10
378.1126544266032
 20
328.3793583768392
 30
0.0
 11
349.1126544266032
 21
328.3793583768392
 31
0.0
  0
LINE
  5
758
330
1F
100
AcDbEntity
  8
AM_VIS
100
AcDbLine
 10
356.830324443478
 20
322.3793583768392
 30
0.0
 11
356.830324443478
 21
325.8793583768392
 31
0.0
  0
LINE
  5
759
330
1F
100
AcDbEntity
  8
AM_VIS
100
AcDbLine
 10
356.830324443478
 20
325.8793583768392
 30
0.0
 11
370.3949844097285
 21
325.8793583768392
 31
0.0
  0
LINE
  5
75A
330
1F
100
AcDbEntity
  8
AM_VIS
100
AcDbLine
 10
370.3949844097285
 20
325.8793583768392
 30
0.0
 11
370.3949844097285
 21
322.3793583768392
 31
0.0
  0
LINE
  5
75B
330
1F
100
AcDbEntity
  8
AM_VIS
100
AcDbLine
 10
359.1405184716037
 20
314.8793583768392
 30
0.0
 11
347.6126544266033
 21
314.8793583768392
 31
0.0
  0
LINE
  5
75C
330
1F
100
AcDbEntity
  8
AM_VIS
100
AcDbLine
 10
368.0847903816028
 20
314.8793583768392
 30
0.0
 11
379.6126544266032
 21
314.8793583768392
 31
0.0
  0
LINE
  5
75D
330
1F
100
AcDbEntity
  8
AM_VIS
100
AcDbLine
 10
379.6126544266032
 20
314.8793583768392
 30
0.0
 11
379.6126544266032
 21
291.3793583768392
 31
0.0
  0
ARC
  5
75E
330
1F
100
AcDbEntity
  8
AM_VIS
100
AcDbCircle
 10
336.941175020482
 20
313.923932846801
 30
0.0
 40
14.91229165473329
100
AcDbArc
 50
3.67343752168261
 51
23.53839609059176
  0
LINE
  5
75F
330
1F
100
AcDbEntity
  8
AM_VIS
100
AcDbLine
 10
347.6126544266032
 20
314.8793583768392
 30
0.0
 11
347.6126544266032
 21
291.3793583768392
 31
0.0
  0
ARC
  5
760
330
1F
100
AcDbEntity
  8
AM_VIS
100
AcDbCircle
 10
390.2841338327245
 20
313.923932846801
 30
0.0
 40
14.9122916547333
100
AcDbArc
 50
156.4616039094085
 51
176.3265624783174
  0
LINE
  5
761
330
1F
100
AcDbEntity
  8
AM_VIS
100
AcDbLine
 10
376.1125978381845
 20
291.3793583768392
 30
0.0
 11
379.6126544266032
 21
291.3793583768392
 31
0.0
  0
LINE
  5
762
330
1F
100
AcDbEntity
  8
AM_VIS
100
AcDbLine
 10
347.6126544266032
 20
291.3793583768392
 30
0.0
 11
351.1125978381844
 21
291.3793583768392
 31
0.0
  0
LINE
  5
763
330
1F
100
AcDbEntity
  8
AM_VIS
100
AcDbLine
 10
376.1125978381845
 20
291.475770323634
 30
0.0
 11
376.1125978381845
 21
278.975770323634
 31
0.0
  0
LINE
  5
764
330
1F
100
AcDbEntity
  8
AM_VIS
100
AcDbLine
 10
351.1125978381845
 20
278.975770323634
 30
0.0
 11
351.1125978381845
 21
291.475770323634
 31
0.0
  0
LINE
  5
765
330
1F
100
AcDbEntity
  8
AM_VIS
100
AcDbLine
 10
351.1125978381845
 20
291.475770323634
 30
0.0
 11
376.1125978381845
 21
291.475770323634
 31
0.0
  0
LINE
  5
766
330
1F
100
AcDbEntity
  8
AM_VIS
100
AcDbLine
 10
372.2438986729274
 20
267.3793583768392
 30
0.0
 11
372.2438986729274
 21
269.9341639453312
 31
0.0
  0
LINE
  5
767
330
1F
100
AcDbEntity
  8
AM_VIS
100
AcDbLine
 10
354.9641469299486
 20
269.9505668972378
 30
0.0
 11
354.9641469299486
 21
267.3793583768392
 31
0.0
  0
LINE
  5
768
330
1F
100
AcDbEntity
  8
AM_VIS
100
AcDbLine
 10
352.8626544266032
 20
328.3793583768392
 30
0.0
 11
352.8626544266032
 21
327.8793583768392
 31
0.0
  0
LINE
  5
769
330
1F
100
AcDbEntity
  8
AM_VIS
100
AcDbLine
 10
374.3626544266032
 20
328.3793583768392
 30
0.0
 11
374.3626544266032
 21
327.8793583768392
 31
0.0
  0
LINE
  5
76A
330
1F
100
AcDbEntity
  8
AM_VIS
100
AcDbLine
 10
356.8626544266032
 20
327.8793583768392
 30
0.0
 11
356.8626544266032
 21
325.8793583768392
 31
0.0
  0
LINE
  5
76B
330
1F
100
AcDbEntity
  8
AM_VIS
100
AcDbLine
 10
370.3626544266032
 20
327.8793583768392
 30
0.0
 11
370.3626544266032
 21
325.8793583768392
 31
0.0
  0
LINE
  5
76C
330
1F
100
AcDbEntity
  8
AM_VIS
100
AcDbLine
 10
357.1126544266032
 20
328.3793583768392
 30
0.0
 11
357.1126544266032
 21
325.8793583768392
 31
0.0
  0
LINE
  5
76D
330
1F
100
AcDbEntity
  8
AM_VIS
100
AcDbLine
 10
370.1126544266032
 20
328.3793583768392
 30
0.0
 11
370.1126544266032
 21
325.8793583768392
 31
0.0
  0
LINE
  5
76E
330
1F
100
AcDbEntity
  8
AM_VIS
100
AcDbLine
 10
370.3626544266032
 20
371.3793583768392
 30
0.0
 11
370.3626544266032
 21
374.3793583768392
 31
0.0
  0
LINE
  5
76F
330
1F
100
AcDbEntity
  8
AM_VIS
100
AcDbLine
 10
356.8626544266032
 20
371.3793583768392
 30
0.0
 11
356.8626544266032
 21
374.3793583768392
 31
0.0
  0
LINE
  5
770
330
1F
100
AcDbEntity
  8
AM_VIS
100
AcDbLine
 10
351.1126544266032
 20
325.8793583768392
 30
0.0
 11
351.1126544266032
 21
319.8793583768392
 31
0.0
  0
LINE
  5
771
330
1F
100
AcDbEntity
  8
AM_VIS
100
AcDbLine
 10
376.1126544266032
 20
325.8793583768392
 30
0.0
 11
376.1126544266032
 21
319.8793583768392
 31
0.0
  0
LINE
  5
772
330
1F
100
AcDbEntity
  8
AM_VIS
100
AcDbLine
 10
350.6126544266032
 20
319.8793583768392
 30
0.0
 11
348.6126544266032
 21
319.8793583768392
 31
0.0
  0
LINE
  5
773
330
1F
100
AcDbEntity
  8
AM_VIS
100
AcDbLine
 10
378.6126544266033
 20
319.8793583768392
 30
0.0
 11
376.6126544266032
 21
319.8793583768392
 31
0.0
  0
SPLINE
  5
774
330
1F
100
AcDbEntity
  8
AM_VIS
100
AcDbSpline
210
0.0
220
0.0
230
1.0
 70
     8
 71
     1
 72
     6
 73
     4
 74
     0
 42
0.0000000001
 43
0.0000000001
 40
0.0
 40
0.0
 40
2.168445274843428
 40
4.330506249133669
 40
5.591603126294463
 40
5.591603126294463
 10
377.8626544266032
 20
284.7061089838764
 30
0.0
 10
377.5290336075609
 20
283.2154445602335
 30
0.0
 10
376.7103616001048
 20
282.0518036435783
 30
0.0
 10
376.1125978381845
 20
281.5292084686529
 30
0.0
  0
SPLINE
  5
775
330
1F
100
AcDbEntity
  8
AM_VIS
100
AcDbSpline
210
0.0
220
0.0
230
1.0
 70
     8
 71
     1
 72
     6
 73
     4
 74
     0
 42
0.0000000001
 43
0.0000000001
 40
5.749237680256615
 40
5.749237680256615
 40
7.569539134580972
 40
9.402930144484479
 40
11.34256554515354
 40
11.34256554515354
 10
351.1125978381845
 20
281.529832133154
 30
0.0
 10
350.2726241390521
 20
282.3178645867926
 30
0.0
 10
349.6322575847728
 20
283.3614726602062
 30
0.0
 10
349.3626544266032
 20
284.7061089838764
 30
0.0
  0
LINE
  5
776
330
1F
100
AcDbEntity
  8
AM_VIS
100
AcDbLine
 10
349.3626544266032
 20
291.3793583768392
 30
0.0
 11
349.3626544266032
 21
284.7061089838764
 31
0.0
  0
LINE
  5
777
330
1F
100
AcDbEntity
  8
AM_VIS
100
AcDbLine
 10
377.8626544266032
 20
291.3793583768392
 30
0.0
 11
377.8626544266032
 21
284.7061089838764
 31
0.0
  0
LINE
  5
778
330
1F
100
AcDbEntity
  8
AM_VIS
100
AcDbLine
 10
376.5956952555192
 20
281.9388145073323
 30
0.0
 11
376.5956952555192
 21
267.3793583768392
 31
0.0
  0
LINE
  5
779
330
1F
100
AcDbEntity
  8
AM_VIS
100
AcDbLine
 10
350.3160803639238
 20
282.2669609389057
 30
0.0
 11
350.3160803639238
 21
267.3793583768392
 31
0.0
  0
LINE
  5
77A
330
1F
100
AcDbEntity
  8
AM_VIS
100
AcDbLine
 10
374.3626544266032
 20
327.8793583768392
 30
0.0
 11
370.1126544266032
 21
327.8793583768392
 31
0.0
  0
LINE
  5
77B
330
1F
100
AcDbEntity
  8
AM_VIS
100
AcDbLine
 10
357.1126544266032
 20
327.8793583768392
 30
0.0
 11
352.8626544266032
 21
327.8793583768392
 31
0.0
  0
LINE
  5
77C
330
1F
100
AcDbEntity
  8
AM_VIS
100
AcDbLine
 10
356.8626544266032
 20
374.3793583768392
 30
0.0
 11
370.3626544266032
 21
374.3793583768392
 31
0.0
  0
LINE
  5
77D
330
1F
100
AcDbEntity
  8
AM_VIS
100
AcDbLine
 10
351.1126544266032
 20
325.8793583768392
 30
0.0
 11
356.8303244434779
 21
325.8793583768392
 31
0.0
  0
LINE
  5
77E
330
1F
100
AcDbEntity
  8
AM_VIS
100
AcDbLine
 10
370.3949844097285
 20
325.8793583768392
 30
0.0
 11
376.1126544266032
 21
325.8793583768392
 31
0.0
  0
LINE
  5
77F
330
1F
100
AcDbEntity
  8
AM_VIS
100
AcDbLine
 10
356.830324443478
 20
322.3793583768392
 30
0.0
 11
370.3949844097285
 21
322.3793583768392
 31
0.0
  0
LINE
  5
780
330
1F
100
AcDbEntity
  8
AM_VIS
100
AcDbLine
 10
363.6126544266032
 20
319.8793583768392
 30
0.0
 11
376.6126544266032
 21
319.8793583768392
 31
0.0
  0
LINE
  5
781
330
1F
100
AcDbEntity
  8
AM_VIS
100
AcDbLine
 10
350.6126544266032
 20
319.8793583768392
 30
0.0
 11
363.6126544266032
 21
319.8793583768392
 31
0.0
  0
ARC
  5
782
330
1F
100
AcDbEntity
  8
AM_VIS
100
AcDbCircle
 10
363.6126544266032
 20
314.3793583768392
 30
0.0
 40
5.5
100
AcDbArc
 50
5.215908570455905
 51
174.7840914295441
  0
LINE
  5
783
330
1F
100
AcDbEntity
  8
AM_VIS
100
AcDbLine
 10
347.6126544266032
 20
314.8793583768392
 30
0.0
 11
347.6126544266032
 21
318.8793583768392
 31
0.0
  0
LINE
  5
784
330
1F
100
AcDbEntity
  8
AM_VIS
100
AcDbLine
 10
379.6126544266032
 20
318.8793583768392
 30
0.0
 11
379.6126544266032
 21
314.8793583768392
 31
0.0
  0
ARC
  5
785
330
1F
100
AcDbEntity
  8
AM_VIS
100
AcDbCircle
 10
363.6125978381845
 20
278.975770323634
 30
0.0
 40
12.5
100
AcDbArc
 50
180.0
 51
0.0
  0
LINE
  5
786
330
1F
100
AcDbEntity
  8
AM_VIS
100
AcDbLine
 10
358.9464184631245
 20
267.3793583768392
 30
0.0
 11
354.9641469299486
 21
267.3793583768392
 31
0.0
  0
LINE
  5
787
330
1F
100
AcDbEntity
  8
AM_VIS
100
AcDbLine
 10
372.2438986729274
 20
267.3793583768392
 30
0.0
 11
368.2787772132444
 21
267.3793583768392
 31
0.0
  0
LINE
  5
788
330
1F
100
AcDbEntity
  8
AM_VIS
100
AcDbLine
 10
376.5956952555192
 20
267.3793583768392
 30
0.0
 11
372.2438986729274
 21
267.3793583768392
 31
0.0
  0
LINE
  5
789
330
1F
100
AcDbEntity
  8
AM_VIS
100
AcDbLine
 10
354.9641469299486
 20
267.3793583768392
 30
0.0
 11
350.3160803639238
 21
267.3793583768392
 31
0.0
  0
CIRCLE
  5
78A
330
1F
100
AcDbEntity
  8
AM_VIS
100
AcDbCircle
 10
363.6126544266032
 20
278.8793583768392
 30
0.0
 40
7.25
  0
ARC
  5
78B
330
1F
100
AcDbEntity
  8
AM_VIS
100
AcDbCircle
 10
348.6126544266032
 20
318.8793583768392
 30
0.0
 40
1.0
100
AcDbArc
 50
90.0
 51
180.0
  0
ARC
  5
78C
330
1F
100
AcDbEntity
  8
AM_VIS
100
AcDbCircle
 10
378.6126544266033
 20
318.8793583768392
 30
0.0
 40
1.0
100
AcDbArc
 50
0.0
 51
90.0
  0
LINE
  5
78D
330
1F
100
AcDbEntity
  8
AM_7
 62
     1
100
AcDbLine
 10
349.4190838646048
 20
279.3793583768392
 30
0.0
 11
378.4131381642353
 21
279.3793583768392
 31
0.0
  0
LINE
  5
78E
330
1F
100
AcDbEntity
  8
0
100
AcDbLine
 10
248.043072445005
 20
224.6274021848088
 30
0.0
 11
248.043072445005
 21
199.3274021848088
 31
0.0
  0
LINE
  5
78F
330
1F
100
AcDbEntity
  8
0
100
AcDbLine
 10
265.043072445005
 20
224.6274021848088
 30
0.0
 11
265.043072445005
 21
199.6274021848088
 31
0.0
  0
LINE
  5
790
330
1F
100
AcDbEntity
  8
0
100
AcDbLine
 10
287.043072445005
 20
224.6274587732276
 30
0.0
 11
287.043072445005
 21
199.6274587732276
 31
0.0
  0
ARC
  5
791
330
1F
100
AcDbEntity
  8
AM_VIS
100
AcDbCircle
 10
276.0313227445972
 20
221.1180770473517
 30
0.0
 40
4.0
100
AcDbArc
 50
354.7435183332089
 51
185.4560159084654
  0
CIRCLE
  5
792
330
1F
100
AcDbEntity
  8
0
100
AcDbCircle
 10
276.0469911984679
 20
219.1197681511819
 30
0.0
 40
1.0
  0
CIRCLE
  5
793
330
1F
100
AcDbEntity
  8
0
100
AcDbCircle
 10
276.0469911984679
 20
205.1197681511819
 30
0.0
 40
1.0
  0
LINE
  5
794
330
1F
100
AcDbEntity
  8
0
100
AcDbLine
 10
303.5430724450049
 20
396.980404297087
 30
0.0
 11
303.543072445005
 21
421.980404297087
 31
0.0
  0
DIMENSION
  5
795
330
1F
100
AcDbEntity
  8
0
100
AcDbDimension
  2
*D16
 10
303.543072445005
 20
432.8188306590806
 30
0.0
 11
263.2950318217364
 21
435.3188306590806
 31
0.0
 70
    32
 71
     5
 42
80.49608124653701
  3
STANDARD
100
AcDbAlignedDimension
 13
223.046991198468
 23
422.2804608855057
 33
0.0
 14
303.543072445005
 24
421.980404297087
 34
0.0
100
AcDbRotatedDimension
1001
ACAD
1000
DSTYLE
1002
{
1070
   176
1070
     5
1070
   177
1070
     5
1070
   178
1070
     5
1070
   272
1070
     8
1002
}
  0
DIMENSION
  5
796
330
1F
100
AcDbEntity
  8
0
100
AcDbDimension
  2
*D17
 10
319.161130930081
 20
196.1274021848088
 30
0.0
 11
316.6611309300809
 21
212.1274021848089
 31
0.0
 70
    32
 71
     5
 42
32.0
  3
STANDARD
100
AcDbAlignedDimension
 13
291.5469911984679
 23
228.1274021848088
 33
0.0
 14
291.5469911984679
 24
196.1274021848088
 34
0.0
 50
90.0
100
AcDbRotatedDimension
1001
ACAD
1000
DSTYLE
1002
{
1070
   176
1070
     5
1070
   177
1070
     5
1070
   178
1070
     5
1070
   272
1070
     8
1002
}
  0
DIMENSION
  5
797
330
1F
100
AcDbEntity
  8
0
100
AcDbDimension
  2
*D18
 10
276.0469911984679
 20
380.1414800071412
 30
0.0
 11
249.5469911984679
 21
382.6414800071412
 31
0.0
 70
    32
 71
     5
 42
53.0
  3
STANDARD
100
AcDbAlignedDimension
 13
223.046991198468
 23
369.8829464300444
 33
0.0
 14
276.0469911984679
 24
376.6314422326463
 34
0.0
100
AcDbRotatedDimension
1001
ACAD
1000
DSTYLE
1002
{
1070
   176
1070
     5
1070
   177
1070
     5
1070
   178
1070
     5
1070
   272
1070
     8
1002
}
  0
POINT
  5
798
330
1F
100
AcDbEntity
  8
0
 60
     1
100
AcDbPoint
 10
-1937.240786020116
 20
-725.0290878054106
 30
0.0
1001
GENIUS_GENOBJ-N-CRS_13
1002
{
1000
OWNER
1000
GEN
1002
}
1001
GENIUS_GENOLIS_13
1002
{
1000
ENT
1005
0
1005
0
1005
0
1005
707
1002
}
1001
GENIUS_GENOENT_13
1002
{
1000
MYREF
1005
798
1002
}
1002
{
1000
GRP
1005
0
1002
}
1001
GENIUS_GENODEF_13
1002
{
1000
HIER
1070
    10
1002
}
1002
{
1000
MANEDIT
1070
     1
1002
}
1002
{
1000
NOSEL
1070
     0
1002
}
1002
{
1000
BEHIND
1070
     0
1002
}
1002
{
1000
OTHER
1070
     0
1002
}
1002
{
1000
REACTOR
1002
}
  0
POINT
  5
799
330
1F
100
AcDbEntity
  8
0
 60
     1
100
AcDbPoint
 10
-1948.565371242971
 20
-716.1535013267743
 30
0.0
1001
GENIUS_GENOBJ-N-CRS_13
1002
{
1000
OWNER
1000
GEN
1002
}
1001
GENIUS_GENOLIS_13
1002
{
1000
ENT
1005
0
1005
0
1005
0
1005
706
1002
}
1001
GENIUS_GENOENT_13
1002
{
1000
MYREF
1005
799
1002
}
1002
{
1000
GRP
1005
0
1002
}
1001
GENIUS_GENODEF_13
1002
{
1000
HIER
1070
    10
1002
}
1002
{
1000
MANEDIT
1070
     1
1002
}
1002
{
1000
NOSEL
1070
     0
1002
}
1002
{
1000
BEHIND
1070
     0
1002
}
1002
{
1000
OTHER
1070
     0
1002
}
1002
{
1000
REACTOR
1002
}
  0
POINT
  5
79A
330
1F
100
AcDbEntity
  8
0
 60
     1
100
AcDbPoint
 10
-1942.206697545134
 20
-725.0290878054106
 30
0.0
1001
GENIUS_GENOBJ-N-CRS_13
1002
{
1000
OWNER
1000
GEN
1002
}
1001
GENIUS_GENOLIS_13
1002
{
1000
ENT
1005
0
1005
0
1005
0
1005
705
1002
}
1001
GENIUS_GENOENT_13
1002
{
1000
MYREF
1005
79A
1002
}
1002
{
1000
GRP
1005
0
1002
}
1001
GENIUS_GENODEF_13
1002
{
1000
HIER
1070
    10
1002
}
1002
{
1000
MANEDIT
1070
     1
1002
}
1002
{
1000
NOSEL
1070
     0
1002
}
1002
{
1000
BEHIND
1070
     0
1002
}
1002
{
1000
OTHER
1070
     0
1002
}
1002
{
1000
REACTOR
1002
}
  0
ENDSEC
  0
SECTION
  2
OBJECTS
  0
DICTIONARY
  5
C
330
0
100
AcDbDictionary
281
     1
  3
ACAD_COLOR
350
BE
  3
ACAD_GROUP
350
D
  3
ACAD_LAYOUT
350
1A
  3
ACAD_MATERIAL
350
BD
  3
ACAD_MLINESTYLE
350
17
  3
ACAD_PLOTSETTINGS
350
19
  3
ACAD_PLOTSTYLENAME
350
E
  3
ACAD_TABLESTYLE
350
11A
  3
ACDBHEADERROUNDTRIPXREC
350
852
  3
AcDbVariableDictionary
350
94
  3
AcmDictionary
350
5B
  3
AMG
350
41
  3
AMGSNAPSETTINGS
350
1B8
  3
DWGPROPS
350
851
  0
DICTIONARY
  5
3C3
330
2
100
AcDbDictionary
280
     1
281
     1
  3
ACAD_LAYERSTATES
360
3C4
  0
DICTIONARY
  5
8F
330
1F
100
AcDbDictionary
280
     1
281
     1
  0
DICTIONARY
  5
BE
102
{ACAD_REACTORS
330
C
102
}
330
C
100
AcDbDictionary
281
     1
  0
DICTIONARY
  5
D
102
{ACAD_REACTORS
330
C
102
}
330
C
100
AcDbDictionary
281
     1
  0
DICTIONARY
  5
1A
102
{ACAD_REACTORS
330
C
102
}
330
C
100
AcDbDictionary
281
     1
  3
Model
350
22
  3
配置1
350
1E
  3
配置2
350
26
  0
DICTIONARY
  5
BD
102
{ACAD_REACTORS
330
C
102
}
330
C
100
AcDbDictionary
281
     1
  0
DICTIONARY
  5
17
102
{ACAD_REACTORS
330
C
102
}
330
C
100
AcDbDictionary
281
     1
  3
Standard
350
18
  0
DICTIONARY
  5
19
102
{ACAD_REACTORS
330
C
102
}
330
C
100
AcDbDictionary
281
     1
  0
ACDBDICTIONARYWDFLT
  5
E
102
{ACAD_REACTORS
330
C
102
}
330
C
100
AcDbDictionary
281
     1
  3
Normal
350
F
100
AcDbDictionaryWithDefault
340
F
  0
DICTIONARY
  5
11A
102
{ACAD_REACTORS
330
C
102
}
330
C
100
AcDbDictionary
281
     1
  3
Standard
350
11B
  0
DICTIONARY
  5
852
102
{ACAD_REACTORS
330
C
102
}
330
C
100
AcDbDictionary
281
     1
  0
DICTIONARY
  5
94
102
{ACAD_REACTORS
330
C
102
}
330
C
100
AcDbDictionary
281
     1
  3
CTABLESTYLE
350
138
  3
DIMASSOC
350
96
  3
INDEXCTL
350
95
  3
PROJECTNAME
350
84F
  0
DICTIONARY
  5
5B
102
{ACAD_REACTORS
330
C
102
}
330
C
100
AcDbDictionary
281
     1
  3
AcmBOM
350
1B5
  3
AcmStdDictionary
350
61
  3
AMDTSECTSYM_ARROWCOLOR
350
123
  0
DICTIONARY
  5
41
102
{ACAD_REACTORS
330
C
102
}
330
C
100
AcDbDictionary
281
     1
  0
DICTIONARY
  5
1B8
102
{ACAD_REACTORS
330
C
102
}
330
C
100
AcDbDictionary
281
     1
  0
XRECORD
  5
851
102
{ACAD_REACTORS
330
C
102
}
330
C
100
AcDbXrecord
280
     1
  1
DWGPROPS COOKIE
  2

  3

  4

  6

  7

  8

  9

300
AmdtFileType=84
301
=
302
=
303
=
304
=
305
=
306
=
307
=
308
=
309
=
 40
0.0200509953703704
 41
2453883.442184063
 42
2453883.462234329
  1

 90
        1
  0
DICTIONARY
  5
3C4
102
{ACAD_REACTORS
330
3C3
102
}
330
3C3
100
AcDbDictionary
281
     1
  0
LAYOUT
  5
22
102
{ACAD_XDICTIONARY
360
855
102
}
102
{ACAD_REACTORS
330
1A
102
}
330
1A
100
AcDbPlotSettings
  1

  2
\\RDS1\iR3300影印機
  4
A4
  6

 40
6.805083274841308
 41
5.619736671447753
 42
6.974411010742187
 43
5.027069091796875
 44
209.9733276367187
 45
296.9259948730469
 46
0.0
 47
0.0
 48
0.0
 49
0.0
140
0.0
141
0.0
142
1.0
143
1.491679300115457
 70
 11952
 72
     1
 73
     1
 74
     0
  7
彩色出圖.ctb
 75
     0
147
0.6703853837232971
148
-87.47837724366664
149
-154.287514518794
100
AcDbLayout
  1
Model
 70
     1
 71
     0
 10
0.0
 20
0.0
 11
12.0
 21
9.0
 12
0.0
 22
0.0
 32
0.0
 14
0.0
 24
0.0
 34
0.0
 15
0.0
 25
0.0
 35
0.0
146
0.0
 13
0.0
 23
0.0
 33
0.0
 16
1.0
 26
0.0
 36
0.0
 17
0.0
 27
1.0
 37
0.0
 76
     0
330
1F
1001
ACAD_PSEXT
1000
\\RDS1\iR3300影印機
1000
Canon iR2200-3300 PCL5e
1000
\\RDS1
1000

1070
     0
  0
LAYOUT
  5
1E
102
{ACAD_XDICTIONARY
360
853
102
}
102
{ACAD_REACTORS
330
1A
102
}
330
1A
100
AcDbPlotSettings
  1

  2

  4

  6

 40
0.0
 41
0.0
 42
0.0
 43
0.0
 44
0.0
 45
0.0
 46
0.0
 47
0.0
 48
0.0
 49
0.0
140
0.0
141
0.0
142
1.0
143
1.0
 70
   688
 72
     0
 73
     0
 74
     5
  7
彩色出圖.ctb
 75
    16
147
1.0
148
0.0
149
0.0
100
AcDbLayout
  1
配置1
 70
     1
 71
     1
 10
0.0
 20
0.0
 11
420.0
 21
297.0
 12
0.0
 22
0.0
 32
0.0
 14
1.000000000000000E+20
 24
1.000000000000000E+20
 34
1.000000000000000E+20
 15
-1.000000000000000E+20
 25
-1.000000000000000E+20
 35
-1.000000000000000E+20
146
0.0
 13
0.0
 23
0.0
 33
0.0
 16
1.0
 26
0.0
 36
0.0
 17
0.0
 27
1.0
 37
0.0
 76
     0
330
1B
  0
LAYOUT
  5
26
102
{ACAD_XDICTIONARY
360
857
102
}
102
{ACAD_REACTORS
330
1A
102
}
330
1A
100
AcDbPlotSettings
  1

  2

  4

  6

 40
0.0
 41
0.0
 42
0.0
 43
0.0
 44
0.0
 45
0.0
 46
0.0
 47
0.0
 48
0.0
 49
0.0
140
0.0
141
0.0
142
1.0
143
1.0
 70
   688
 72
     0
 73
     0
 74
     5
  7
彩色出圖.ctb
 75
    16
147
1.0
148
0.0
149
0.0
100
AcDbLayout
  1
配置2
 70
     1
 71
     2
 10
0.0
 20
0.0
 11
12.0
 21
9.0
 12
0.0
 22
0.0
 32
0.0
 14
0.0
 24
0.0
 34
0.0
 15
0.0
 25
0.0
 35
0.0
146
0.0
 13
0.0
 23
0.0
 33
0.0
 16
1.0
 26
0.0
 36
0.0
 17
0.0
 27
1.0
 37
0.0
 76
     0
330
23
  0
MLINESTYLE
  5
18
102
{ACAD_REACTORS
330
17
102
}
330
17
100
AcDbMlineStyle
  2
STANDARD
 70
     0
  3

 62
   256
 51
90.0
 52
90.0
 71
     2
 49
0.5
 62
   256
  6
BYLAYER
 49
-0.5
 62
   256
  6
BYLAYER
  0
ACDBPLACEHOLDER
  5
F
102
{ACAD_REACTORS
330
E
102
}
330
E
  0
TABLESTYLE
  5
11B
102
{ACAD_REACTORS
330
11A
102
}
330
11A
100
AcDbTableStyle
  3
Standard
 70
     0
 71
     0
 40
1.5
 41
1.5
280
     0
281
     0
  7
STANDARD
140
4.5
170
     2
 62
     0
 63
     7
283
     0
274
    -2
284
     1
 64
     0
275
    -2
285
     1
 65
     0
276
    -2
286
     1
 66
     0
277
    -2
287
     1
 67
     0
278
    -2
288
     1
 68
     0
279
    -2
289
     1
 69
     0
  7
STANDARD
140
6.0
170
     5
 62
     0
 63
     7
283
     0
274
    -2
284
     1
 64
     0
275
    -2
285
     1
 65
     0
276
    -2
286
     1
 66
     0
277
    -2
287
     1
 67
     0
278
    -2
288
     1
 68
     0
279
    -2
289
     1
 69
     0
  7
STANDARD
140
4.5
170
     5
 62
     0
 63
     7
283
     0
274
    -2
284
     1
 64
     0
275
    -2
285
     1
 65
     0
276
    -2
286
     1
 66
     0
277
    -2
287
     1
 67
     0
278
    -2
288
     1
 68
     0
279
    -2
289
     1
 69
     0
  0
DICTIONARYVAR
  5
138
102
{ACAD_REACTORS
330
94
102
}
330
94
100
DictionaryVariables
280
     0
  1
STANDARD
  0
DICTIONARYVAR
  5
96
102
{ACAD_REACTORS
330
94
102
}
330
94
100
DictionaryVariables
280
     0
  1
2
  0
DICTIONARYVAR
  5
95
102
{ACAD_REACTORS
330
94
102
}
330
94
100
DictionaryVariables
280
     0
  1
0
  0
DICTIONARYVAR
  5
84F
102
{ACAD_REACTORS
330
94
102
}
330
94
100
DictionaryVariables
280
     0
  1

  0
DICTIONARY
  5
1B5
102
{ACAD_REACTORS
330
5B
102
}
330
5B
100
AcDbDictionary
281
     1
  0
DICTIONARY
  5
61
102
{ACAD_REACTORS
330
5B
102
}
330
5B
100
AcDbDictionary
281
     1
  0
XRECORD
  5
123
102
{ACAD_REACTORS
330
5B
102
}
330
5B
100
AcDbXrecord
280
     1
 90
-1023410169
  0
DICTIONARY
  5
855
330
22
100
AcDbDictionary
280
     1
281
     1
  3
ACAD_XREC_ROUNDTRIP
360
856
  0
DICTIONARY
  5
853
330
1E
100
AcDbDictionary
280
     1
281
     1
  3
ACAD_XREC_ROUNDTRIP
360
854
  0
DICTIONARY
  5
857
330
26
100
AcDbDictionary
280
     1
281
     1
  3
ACAD_XREC_ROUNDTRIP
360
858
  0
XRECORD
  5
856
102
{ACAD_REACTORS
330
855
102
}
330
855
100
AcDbXrecord
280
     1
102
SHADEPLOT
 70
     0
102
SHADEPLOTRESLEVEL
 70
     2
102
SHADEPLOTCUSTOMDPI
 70
   300
  0
XRECORD
  5
854
102
{ACAD_REACTORS
330
853
102
}
330
853
100
AcDbXrecord
280
     1
102
SHADEPLOT
 70
     0
102
SHADEPLOTRESLEVEL
 70
     2
102
SHADEPLOTCUSTOMDPI
 70
   300
  0
XRECORD
  5
858
102
{ACAD_REACTORS
330
857
102
}
330
857
100
AcDbXrecord
280
     1
102
SHADEPLOT
 70
     0
102
SHADEPLOTRESLEVEL
 70
     2
102
SHADEPLOTCUSTOMDPI
 70
   300
  0
ENDSEC
  0
EOF
