  0
SECTION
  2
HEADER
  9
$ACADVER
  1
AC1015
  9
$ACADMAINTVER
 70
    20
  9
$DWGCODEPAGE
  3
ANSI_950
  9
$INSBASE
 10
0.0
 20
0.0
 30
0.0
  9
$EXTMIN
 10
169.9896439927277
 20
135.1136430253909
 30
-0.0000000349181948
  9
$EXTMAX
 10
513.1717004993925
 20
488.4751694820733
 30
0.0000000814935746
  9
$LIMMIN
 10
0.0
 20
0.0
  9
$LIMMAX
 10
420.0
 20
297.0
  9
$ORTHOMODE
 70
     0
  9
$REGENMODE
 70
     1
  9
$FILLMODE
 70
     1
  9
$QTEXTMODE
 70
     0
  9
$MIRRTEXT
 70
     1
  9
$LTSCALE
 40
2.0
  9
$ATTMODE
 70
     1
  9
$TEXTSIZE
 40
3.0
  9
$TRACEWID
 40
1.0
  9
$TEXTSTYLE
  7
STANDARD
  9
$CLAYER
  8
0
  9
$CELTYPE
  6
ByLayer
  9
$CECOLOR
 62
   256
  9
$CELTSCALE
 40
1.0
  9
$DISPSILH
 70
     0
  9
$DIMSCALE
 40
1.0
  9
$DIMASZ
 40
3.0
  9
$DIMEXO
 40
1.0
  9
$DIMDLI
 40
8.0
  9
$DIMRND
 40
0.0
  9
$DIMDLE
 40
0.0
  9
$DIMEXE
 40
1.5
  9
$DIMTP
 40
0.1
  9
$DIMTM
 40
0.1
  9
$DIMTXT
 40
3.5
  9
$DIMCEN
 40
0.0
  9
$DIMTSZ
 40
0.0
  9
$DIMTOL
 70
     0
  9
$DIMLIM
 70
     0
  9
$DIMTIH
 70
     0
  9
$DIMTOH
 70
     0
  9
$DIMSE1
 70
     0
  9
$DIMSE2
 70
     0
  9
$DIMTAD
 70
     1
  9
$DIMZIN
 70
     8
  9
$DIMBLK
  1

  9
$DIMASO
 70
     1
  9
$DIMSHO
 70
     1
  9
$DIMPOST
  1

  9
$DIMAPOST
  1
"
  9
$DIMALT
 70
     0
  9
$DIMALTD
 70
     2
  9
$DIMALTF
 40
0.0393701
  9
$DIMLFAC
 40
1.0
  9
$DIMTOFL
 70
     1
  9
$DIMTVP
 40
0.0
  9
$DIMTIX
 70
     0
  9
$DIMSOXD
 70
     0
  9
$DIMSAH
 70
     0
  9
$DIMBLK1
  1

  9
$DIMBLK2
  1

  9
$DIMSTYLE
  2
AM_ISO
  9
$DIMCLRD
 70
   256
  9
$DIMCLRE
 70
   256
  9
$DIMCLRT
 70
   256
  9
$DIMTFAC
 40
0.6
  9
$DIMGAP
 40
0.7
  9
$DIMJUST
 70
     0
  9
$DIMSD1
 70
     0
  9
$DIMSD2
 70
     0
  9
$DIMTOLJ
 70
     0
  9
$DIMTZIN
 70
     8
  9
$DIMALTZ
 70
     0
  9
$DIMALTTZ
 70
     0
  9
$DIMUPT
 70
     0
  9
$DIMDEC
 70
     0
  9
$DIMTDEC
 70
     8
  9
$DIMALTU
 70
     2
  9
$DIMALTTD
 70
     2
  9
$DIMTXSTY
  7
STANDARD
  9
$DIMAUNIT
 70
     0
  9
$DIMADEC
 70
     0
  9
$DIMALTRND
 40
0.0
  9
$DIMAZIN
 70
     2
  9
$DIMDSEP
 70
    46
  9
$DIMATFIT
 70
     3
  9
$DIMFRAC
 70
     0
  9
$DIMLDRBLK
  1

  9
$DIMLUNIT
 70
     2
  9
$DIMLWD
 70
    -1
  9
$DIMLWE
 70
    -1
  9
$DIMTMOVE
 70
     0
  9
$LUNITS
 70
     2
  9
$LUPREC
 70
     2
  9
$SKETCHINC
 40
1.0
  9
$FILLETRAD
 40
2.5
  9
$AUNITS
 70
     0
  9
$AUPREC
 70
     0
  9
$MENU
  1
.
  9
$ELEVATION
 40
0.0
  9
$PELEVATION
 40
0.0
  9
$THICKNESS
 40
0.0
  9
$LIMCHECK
 70
     0
  9
$CHAMFERA
 40
2.5
  9
$CHAMFERB
 40
2.5
  9
$CHAMFERC
 40
20.0
  9
$CHAMFERD
 40
0.0
  9
$SKPOLY
 70
     0
  9
$TDCREATE
 40
2453980.341738634
  9
$TDUCREATE
 40
2453980.008405301
  9
$TDUPDATE
 40
2453980.388212523
  9
$TDUUPDATE
 40
2453980.054879190
  9
$TDINDWG
 40
0.0464746181
  9
$TDUSRTIMER
 40
0.0464746181
  9
$USRTIMER
 70
     1
  9
$ANGBASE
 50
0.0
  9
$ANGDIR
 70
     0
  9
$PDMODE
 70
     0
  9
$PDSIZE
 40
0.0
  9
$PLINEWID
 40
0.0
  9
$SPLFRAME
 70
     0
  9
$SPLINETYPE
 70
     6
  9
$SPLINESEGS
 70
     8
  9
$HANDSEED
  5
120A
  9
$SURFTAB1
 70
     6
  9
$SURFTAB2
 70
     6
  9
$SURFTYPE
 70
     6
  9
$SURFU
 70
     6
  9
$SURFV
 70
     6
  9
$UCSBASE
  2

  9
$UCSNAME
  2

  9
$UCSORG
 10
0.0
 20
0.0
 30
0.0
  9
$UCSXDIR
 10
1.0
 20
0.0
 30
0.0
  9
$UCSYDIR
 10
0.0
 20
1.0
 30
0.0
  9
$UCSORTHOREF
  2

  9
$UCSORTHOVIEW
 70
     0
  9
$UCSORGTOP
 10
0.0
 20
0.0
 30
0.0
  9
$UCSORGBOTTOM
 10
0.0
 20
0.0
 30
0.0
  9
$UCSORGLEFT
 10
0.0
 20
0.0
 30
0.0
  9
$UCSORGRIGHT
 10
0.0
 20
0.0
 30
0.0
  9
$UCSORGFRONT
 10
0.0
 20
0.0
 30
0.0
  9
$UCSORGBACK
 10
0.0
 20
0.0
 30
0.0
  9
$PUCSBASE
  2

  9
$PUCSNAME
  2

  9
$PUCSORG
 10
0.0
 20
0.0
 30
0.0
  9
$PUCSXDIR
 10
1.0
 20
0.0
 30
0.0
  9
$PUCSYDIR
 10
0.0
 20
1.0
 30
0.0
  9
$PUCSORTHOREF
  2

  9
$PUCSORTHOVIEW
 70
     0
  9
$PUCSORGTOP
 10
0.0
 20
0.0
 30
0.0
  9
$PUCSORGBOTTOM
 10
0.0
 20
0.0
 30
0.0
  9
$PUCSORGLEFT
 10
0.0
 20
0.0
 30
0.0
  9
$PUCSORGRIGHT
 10
0.0
 20
0.0
 30
0.0
  9
$PUCSORGFRONT
 10
0.0
 20
0.0
 30
0.0
  9
$PUCSORGBACK
 10
0.0
 20
0.0
 30
0.0
  9
$USERI1
 70
     0
  9
$USERI2
 70
     0
  9
$USERI3
 70
     0
  9
$USERI4
 70
     0
  9
$USERI5
 70
     0
  9
$USERR1
 40
0.0
  9
$USERR2
 40
0.0
  9
$USERR3
 40
0.0
  9
$USERR4
 40
0.0
  9
$USERR5
 40
0.0
  9
$WORLDVIEW
 70
     1
  9
$SHADEDGE
 70
     3
  9
$SHADEDIF
 70
    70
  9
$TILEMODE
 70
     1
  9
$MAXACTVP
 70
    64
  9
$PINSBASE
 10
0.0
 20
0.0
 30
0.0
  9
$PLIMCHECK
 70
     0
  9
$PEXTMIN
 10
1.000000000000000E+20
 20
1.000000000000000E+20
 30
1.000000000000000E+20
  9
$PEXTMAX
 10
-1.000000000000000E+20
 20
-1.000000000000000E+20
 30
-1.000000000000000E+20
  9
$PLIMMIN
 10
0.0
 20
0.0
  9
$PLIMMAX
 10
420.0
 20
297.0
  9
$UNITMODE
 70
     0
  9
$VISRETAIN
 70
     1
  9
$PLINEGEN
 70
     0
  9
$PSLTSCALE
 70
     1
  9
$TREEDEPTH
 70
  3020
  9
$CMLSTYLE
  2
Standard
  9
$CMLJUST
 70
     0
  9
$CMLSCALE
 40
20.0
  9
$PROXYGRAPHICS
 70
     1
  9
$MEASUREMENT
 70
     1
  9
$CELWEIGHT
370
    -1
  9
$ENDCAPS
280
     0
  9
$JOINSTYLE
280
     0
  9
$LWDISPLAY
290
     0
  9
$INSUNITS
 70
     4
  9
$HYPERLINKBASE
  1

  9
$STYLESHEET
  1
彩色出圖.ctb
  9
$XEDIT
290
     1
  9
$CEPSNTYPE
380
     0
  9
$PSTYLEMODE
290
     1
  9
$FINGERPRINTGUID
  2
{234A3C79-986B-455B-A300-C620595F3100}
  9
$VERSIONGUID
  2
{43A3DB99-7CFD-4808-BB71-4C6166625DBF}
  9
$EXTNAMES
290
     1
  9
$PSVPSCALE
 40
0.0
  9
$OLESTARTUP
290
     0
  0
ENDSEC
  0
SECTION
  2
CLASSES
  0
CLASS
  1
ACDBDICTIONARYWDFLT
  2
AcDbDictionaryWithDefault
  3
ObjectDBX Classes
 90
        0
280
     0
281
     0
  0
CLASS
  1
ACDBPLACEHOLDER
  2
AcDbPlaceHolder
  3
ObjectDBX Classes
 90
        0
280
     0
281
     0
  0
CLASS
  1
LAYOUT
  2
AcDbLayout
  3
ObjectDBX Classes
 90
        0
280
     0
281
     0
  0
CLASS
  1
ACME_DOCUMENT
  2
AcMeDbDoc
  3
AcMeServices
 90
        0
280
     0
281
     0
  0
CLASS
  1
AMGSETTINGSOBJ
  2
AmgSettingsObj
  3
"AcadM|Product Description: AutoCAD Mechanical 2000|Company: Autodesk"
 90
        0
280
     0
281
     0
  0
CLASS
  1
ACMESCOPE
  2
AcMeScope
  3
AcMeServices
 90
        0
280
     0
281
     0
  0
CLASS
  1
ACMECOMMANDHISTORY
  2
AcMeCommandHistory
  3
AcMeServices
 90
        0
280
     0
281
     0
  0
CLASS
  1
ACIMSYSVARMAN
  2
AcImSysVarManager
  3
AcMeServices
 90
        0
280
     0
281
     0
  0
CLASS
  1
ACIMREALSYSVAR
  2
AcImRealSysVar
  3
AcMeServices
 90
        0
280
     0
281
     0
  0
CLASS
  1
ACIMINTSYSVAR
  2
AcImIntSysVar
  3
AcMeServices
 90
        0
280
     0
281
     0
  0
CLASS
  1
ACMEDRAWINGMAN
  2
AcMeDrawingMan
  3
AcMeServices
 90
        0
280
     0
281
     0
  0
CLASS
  1
ACMEVIEW
  2
AcMeView
  3
AcMeServices
 90
        0
280
     0
281
     0
  0
CLASS
  1
ACDBENTITYCACHE
  2
AcMeEntityCache
  3
AcMeServices
 90
        0
280
     0
281
     0
  0
CLASS
  1
GSMANAGER
  2
AcMeGSManager
  3
AcMeServices
 90
        0
280
     0
281
     0
  0
CLASS
  1
AMDTINTERNALREACTOR
  2
AmdtInternalReactor
  3
AcMeServices
 90
        0
280
     0
281
     0
  0
CLASS
  1
ACMESTATEMGR
  2
AcMeStateMgr
  3
AcMeServices
 90
        0
280
     0
281
     0
  0
CLASS
  1
ACGREFMASTER
  2
AcGrefMaster
  3
AcAttribServices
 90
        0
280
     0
281
     0
  0
CLASS
  1
ACME_DATABASE
  2
AcMeDbDatabase
  3
AcMeServices
 90
        0
280
     0
281
     0
  0
CLASS
  1
ACRFINSADJUSTERMGR
  2
AcRfInsAdjusterMgr
  3
AcMeServices
 90
        0
280
     0
281
     0
  0
CLASS
  1
ACGREFACADMASTER
  2
AcGrefacadMaster
  3
AcGrefServices
 90
        0
280
     0
281
     0
  0
CLASS
  1
AMIMASTER
  2
AmiMaster
  3
AmiServices
 90
        0
280
     0
281
     0
  0
CLASS
  1
ACMDATADICTIONARY
  2
AcmDataDictionary
  3
"AcmSymBB|Product Description: AutoCAD Mechanical 2004 DX|Company: Autodesk"
 90
        0
280
     0
281
     0
  0
CLASS
  1
ACMDATAENTRYBLOCK
  2
AcmDataEntryBlock
  3
"AcmSymBB|Product Description: AutoCAD Mechanical 2004 DX|Company: Autodesk"
 90
        0
280
     0
281
     0
  0
CLASS
  1
ACIMSTRSYSVAR
  2
AcImStrSysVar
  3
AcMeServices
 90
        0
280
     0
281
     0
  0
CLASS
  1
ACMSTANDARDISO
  2
AcmStandardISO
  3
"Amdt_StdImp|Product Description: AutoCAD Mechanical 2004 DX|Company: Autodesk"
 90
        0
280
     0
281
     0
  0
CLASS
  1
AMGOBJPROPCFG
  2
AmgObjPropCfg
  3
"AmgLay|Product Description: AutoCAD Mechanical 2000|Company: Autodesk"
 90
        1
280
     0
281
     0
  0
CLASS
  1
AMDTEDGESTANDARDISO
  2
AmdtEdgeStdISO
  3
"Amdt_StdImp|Product Description: AutoCAD Mechanical 2004 DX|Company: Autodesk"
 90
        0
280
     0
281
     0
  0
CLASS
  1
ACMSURFSTANDARDISO
  2
AcmSurfTextStdISO
  3
"Amdt_StdImp|Product Description: AutoCAD Mechanical 2004 DX|Company: Autodesk"
 90
        0
280
     0
281
     0
  0
CLASS
  1
ACMFCFSTANDARDISO
  2
AcmFCFStdISO
  3
"Amdt_StdImp|Product Description: AutoCAD Mechanical 2004 DX|Company: Autodesk"
 90
        0
280
     0
281
     0
  0
CLASS
  1
ACMWELDSTANDARDISO
  2
AcmWeldingStdISO
  3
"Amdt_StdImp|Product Description: AutoCAD Mechanical 2004 DX|Company: Autodesk"
 90
        0
280
     0
281
     0
  0
CLASS
  1
ACMIDSTANDARDISO
  2
AcmIdStdISO
  3
"Amdt_StdImp|Product Description: AutoCAD Mechanical 2004 DX|Company: Autodesk"
 90
        0
280
     0
281
     0
  0
CLASS
  1
ACMDATUMSTANDARDISO
  2
AcmDatumStdISO
  3
"Amdt_StdImp|Product Description: AutoCAD Mechanical 2004 DX|Company: Autodesk"
 90
        0
280
     0
281
     0
  0
CLASS
  1
ACMBOMSTANDARDISO
  2
AcmBOMStdISO
  3
"Amdt_StdImp|Product Description: AutoCAD Mechanical 2004 DX|Company: Autodesk"
 90
        0
280
     0
281
     0
  0
CLASS
  1
ACMDETAILSTANDARDISO
  2
AmdtDetailSymStdISO
  3
"Amdt_StdImp|Product Description: AutoCAD Mechanical 2004 DX|Company: Autodesk"
 90
        0
280
     0
281
     0
  0
CLASS
  1
ACMSECTIONSTANDARDISO
  2
AmdtSectionSymStdISO
  3
"Amdt_StdImp|Product Description: AutoCAD Mechanical 2004 DX|Company: Autodesk"
 90
        0
280
     0
281
     0
  0
CLASS
  1
ACMCENTERLINESTANDARDISO
  2
AmdtCenterLineStdISO
  3
"Amdt_StdImp|Product Description: AutoCAD Mechanical 2004 DX|Company: Autodesk"
 90
        0
280
     0
281
     0
  0
CLASS
  1
ACMNOTESTANDARDISO
  2
AmdtNoteStdISO
  3
"Amdt_StdImp|Product Description: AutoCAD Mechanical 2004 DX|Company: Autodesk"
 90
        0
280
     0
281
     0
  0
CLASS
  1
ACAMGLAYSTD
  2
AcAmgLayStd
  3
"AcAmgLayStd|Product Description: AutoCAD Mechanical 2000|Company: Autodesk"
 90
        0
280
     0
281
     0
  0
CLASS
  1
ACAMGDIMSTD
  2
AcAmgDimStd
  3
"AcAmgDimStd|Product Description: AutoCAD Mechanical 2000|Company: Autodesk"
 90
        0
280
     0
281
     0
  0
CLASS
  1
ACAMGHOLECHARTSTDISO
  2
AcAmgHoleChartStdISO
  3
ACMSYMBB_MODULE_NAME
 90
        0
280
     0
281
     0
  0
CLASS
  1
ACAMGTITLESTD
  2
AcAmgTitleStd
  3
"TITLEAPP"
 90
        0
280
     0
281
     0
  0
CLASS
  1
LAYER_INDEX
  2
AcDbLayerIndex
  3
ObjectDBX Classes
 90
    32768
280
     0
281
     0
  0
CLASS
  1
IDBUFFER
  2
AcDbIdBuffer
  3
ObjectDBX Classes
 90
    32768
280
     0
281
     0
  0
CLASS
  1
DICTIONARYVAR
  2
AcDbDictionaryVar
  3
ObjectDBX Classes
 90
        0
280
     0
281
     0
  0
CLASS
  1
AM_DRAWING_MGR
  2
AcDmDwgMgr
  3
AcMechDwgViewMgmt
 90
        0
280
     0
281
     0
  0
CLASS
  1
AM_DWG_DOCUMENT
  2
AcDmDwgDocument
  3
AcMechDwgViewMgmt
 90
        0
280
     0
281
     0
  0
CLASS
  1
AM_DWG_SHEET
  2
AcDmSheet
  3
AcMechDwgViewMgmt
 90
        0
280
     0
281
     0
  0
CLASS
  1
AM_VIEWDIMPARMAP
  2
AcDmViewDimParMap
  3
AcMechDwgViewMgmt
 90
        0
280
     0
281
     0
  0
CLASS
  1
AM_DWGMGR_NAME
  2
AcDmDwgMgrName
  3
AcMechDwgViewMgmt
 90
        0
280
     0
281
     0
  0
CLASS
  1
AMDTMENUSTATEMGR
  2
AmdtMenuStateMgr
  3
McadcomServices
 90
        0
280
     0
281
     0
  0
CLASS
  1
AMDTMCOMMENUSTATE
  2
AmdtMcomMenuState
  3
McadcomServices
 90
        0
280
     0
281
     0
  0
CLASS
  1
MAPIAMMOUDLE
  2
MApiAmModule
  3
MApiAmServices
 90
        0
280
     0
281
     0
  0
CLASS
  1
AMDTADMENUSTATE
  2
AmdtAdMenuState
  3
DesignerServices
 90
        0
280
     0
281
     0
  0
CLASS
  1
ADAPPL
  2
AcAdAppl
  3
DesignerServices
 90
        0
280
     0
281
     0
  0
CLASS
  1
DEPMGR
  2
AcAdDepMgr
  3
DesignerServices
 90
        0
280
     0
281
     0
  0
CLASS
  1
PARAMMGR
  2
AcAdParamMgr
  3
DesignerServices
 90
        0
280
     0
281
     0
  0
CLASS
  1
PARAMSCOPE
  2
AcAdParamScope
  3
DesignerServices
 90
        0
280
     0
281
     0
  0
CLASS
  1
NAMEDAPPL
  2
AcAdNamedAppl
  3
DesignerServices
 90
        0
280
     0
281
     0
  0
CLASS
  1
AMDTDMMENUSTATE
  2
AmdtDmMenuState
  3
AcMechDwgViewMgmt
 90
        0
280
     0
281
     0
  0
CLASS
  1
AMDTAMMENUSTATE
  2
AmdtAmMenuState
  3
DesignerAssemblies
 90
        0
280
     0
281
     0
  0
CLASS
  1
ACAMPROJECT
  2
AcAmProject
  3
DesignerAssemblies
 90
        0
280
     0
281
     0
  0
CLASS
  1
ACAMGRCOMPDEF
  2
AcAmGrCompDef
  3
DesignerAssemblies
 90
        0
280
     0
281
     0
  0
CLASS
  1
ACCMCONTEXT
  2
AcCmContext
  3
DesignerAssemblies
 90
        0
280
     0
281
     0
  0
CLASS
  1
ACAMCOMPDEF
  2
AcAmCompDef
  3
DesignerAssemblies
 90
        0
280
     0
281
     0
  0
CLASS
  1
ACAMCOMPDEFMGR
  2
AcAmCompDefMgr
  3
DesignerAssemblies
 90
        0
280
     0
281
     0
  0
CLASS
  1
AMCONTEXTMGR
  2
AcAmContextMgr
  3
DesignerAssemblies
 90
        0
280
     0
281
     0
  0
CLASS
  1
ACAMCONTEXTMODELER
  2
AcAmContextModeler
  3
DesignerAssemblies
 90
        0
280
     0
281
     0
  0
CLASS
  1
ACMTHREADLINESTANDARDISO
  2
AmdtThreadLineStdISO
  3
"Amdt_StdImp|Product Description: AutoCAD Mechanical 2004 DX|Company: Autodesk"
 90
        0
280
     0
281
     0
  0
CLASS
  1
CATALOGSTATE
  2
AcAmCatalogState
  3
DesignerAssemblies
 90
        0
280
     0
281
     0
  0
CLASS
  1
ACAMGRCOMPDEFSET
  2
AcAmGrCompDefSet
  3
DesignerAssemblies
 90
        0
280
     0
281
     0
  0
CLASS
  1
AMDTBROWSERDBTAB
  2
AmdtBrowserDbTab
  3
McadcomServices
 90
        0
280
     0
281
     0
  0
CLASS
  1
CBROWSERAPPOBJECT
  2
CBrowserAppObject
  3
McadcomServices
 90
        0
280
     0
281
     0
  0
CLASS
  1
DM_PLACEHOLDER
  2
AcDmSelsetPlaceholder
  3
AcMechDwgViewMgmt
 90
        0
280
     0
281
     0
  0
CLASS
  1
TABLESTYLE
  2
AcDbTableStyle
  3
ObjectDBX Classes
 90
     2047
280
     0
281
     0
  0
CLASS
  1
VAACXREFPANELOBJECT
  2
VaAcXREFPanelObject
  3
VAAC_ADDIN
 90
    32768
280
     0
281
     0
  0
CLASS
  1
VAACIMAGEINVENTORY
  2
VaAcImageInventory
  3
VAAC_ADDIN
 90
    32768
280
     0
281
     0
  0
CLASS
  1
AMDTNOTETEMPLATEDB
  2
AmdtNoteTemplateDB
  3
AMDT_STDIMP_MODULE_NAME
 90
        0
280
     0
281
     0
  0
CLASS
  1
ACMBOM
  2
AcmBom
  3
"AcmSymBB|Product Description: AutoCAD Mechanical 2004 DX|Company: Autodesk"
 90
    32768
280
     0
281
     0
  0
CLASS
  1
AMDTFORMULAUPDATEDISPATCHER
  2
AmdtFormulaUpdateDispatcher
  3
AcMeServices
 90
        0
280
     0
281
     0
  0
CLASS
  1
ACMPARTLIST
  2
AcmPartList
  3
"AcmSymBB|Product Description: AutoCAD Mechanical 2004 DX|Company: Autodesk"
 90
    33791
280
     0
281
     1
  0
CLASS
  1
ACAMGFILTERDAT
  2
AcAmgFilterDat
  3
"AcadM|Product Description: AutoCAD Mechanical 2000|Company: Autodesk"
 90
        0
280
     0
281
     0
  0
CLASS
  1
DIMASSOC
  2
AcDbDimAssoc
  3
"AcDbDimAssoc|Product Desc:     AcDim ARX App For Dimension|Company:          Autodesk, Inc.|WEB Address:      www.autodesk.com"
 90
        0
280
     0
281
     0
  0
CLASS
  1
SORTENTSTABLE
  2
AcDbSortentsTable
  3
ObjectDBX Classes
 90
        0
280
     0
281
     0
  0
CLASS
  1
AMDTNOTE
  2
AmdtNote
  3
"AcmSymBB|Product Description: AutoCAD Mechanical 2004 DX|Company: Autodesk"
 90
     1023
280
     0
281
     1
  0
CLASS
  1
ACRFATTGENMGR
  2
AcRfAttGeneralMgr
  3
AcAttribServices
 90
        0
280
     0
281
     0
  0
ENDSEC
  0
SECTION
  2
TABLES
  0
TABLE
  2
VPORT
  5
8
330
0
100
AcDbSymbolTable
 70
    99
  0
VPORT
  5
1201
330
8
100
AcDbSymbolTableRecord
100
AcDbViewportTableRecord
  2
*Active
 70
     0
 10
0.0
 20
0.0
 11
1.0
 21
1.0
 12
341.5806722460601
 22
311.7944062537322
 13
0.0
 23
0.0
 14
2.5
 24
2.5
 15
10.0
 25
10.0
 16
0.0
 26
0.0
 36
1.0
 17
0.0
 27
0.0
 37
0.0
 40
356.1475568886668
 41
1.609210526315789
 42
50.0
 43
0.0
 44
0.0
 50
0.0
 51
0.0
 71
     0
 72
   100
 73
     1
 74
     3
 75
     0
 76
     0
 77
     0
 78
     0
281
     0
 65
     1
110
0.0
120
0.0
130
0.0
111
1.0
121
0.0
131
0.0
112
0.0
122
1.0
132
0.0
 79
     0
146
0.0
  0
ENDTAB
  0
TABLE
  2
LTYPE
  5
5
330
0
100
AcDbSymbolTable
 70
    14
  0
LTYPE
  5
14
330
5
100
AcDbSymbolTableRecord
100
AcDbLinetypeTableRecord
  2
ByBlock
 70
     0
  3

 72
    65
 73
     0
 40
0.0
  0
LTYPE
  5
15
330
5
100
AcDbSymbolTableRecord
100
AcDbLinetypeTableRecord
  2
ByLayer
 70
     0
  3

 72
    65
 73
     0
 40
0.0
  0
LTYPE
  5
16
330
5
100
AcDbSymbolTableRecord
100
AcDbLinetypeTableRecord
  2
Continuous
 70
     0
  3
Solid line
 72
    65
 73
     0
 40
0.0
  0
LTYPE
  5
64
330
5
100
AcDbSymbolTableRecord
100
AcDbLinetypeTableRecord
  2
AM_ISO02W050
 70
     0
  3
__ __ __ __ __ __ __ __ __ __ __ __ __ __ __
 72
    65
 73
     2
 40
7.5
 49
6.0
 74
     0
 49
-1.5
 74
     0
  0
LTYPE
  5
65
330
5
100
AcDbSymbolTableRecord
100
AcDbLinetypeTableRecord
  2
AM_ISO08W050
 70
     0
  3
____ . ____ . ____ . ____ . ____ . ____ . ____
 72
    65
 73
     4
 40
18.0
 49
12.0
 74
     0
 49
-1.5
 74
     0
 49
3.0
 74
     0
 49
-1.5
 74
     0
  0
LTYPE
  5
66
330
5
100
AcDbSymbolTableRecord
100
AcDbLinetypeTableRecord
  2
AM_ISO09W050
 70
     0
  3
_____ . . _____ . . _____ . . ____ .. ____
 72
    65
 73
     6
 40
22.5
 49
12.0
 74
     0
 49
-1.5
 74
     0
 49
3.0
 74
     0
 49
-1.5
 74
     0
 49
3.0
 74
     0
 49
-1.5
 74
     0
  0
LTYPE
  5
67
330
5
100
AcDbSymbolTableRecord
100
AcDbLinetypeTableRecord
  2
Amconstr
 70
     0
  3
_______________________
 72
    65
 73
     2
 40
9999.0
 49
9999.0
 74
     0
 49
0.0
 74
     0
  0
LTYPE
  5
68
330
5
100
AcDbSymbolTableRecord
100
AcDbLinetypeTableRecord
  2
AM_ISO08W050x2
 70
     0
  3
__ . __ . __ . __ . __ . __
 72
    65
 73
     4
 40
9.0
 49
6.0
 74
     0
 49
-0.75
 74
     0
 49
1.5
 74
     0
 49
-0.75
 74
     0
  0
LTYPE
  5
69
330
5
100
AcDbSymbolTableRecord
100
AcDbLinetypeTableRecord
  2
AM_ISO02W050x2
 70
     0
  3
 _ _ _ _ _ _ _ _ _ _ _ _
 72
    65
 73
     2
 40
3.75
 49
3.0
 74
     0
 49
-0.75
 74
     0
  0
LTYPE
  5
6C
330
5
100
AcDbSymbolTableRecord
100
AcDbLinetypeTableRecord
  2
Amzigzag
 70
     0
  3
/\/-/\/-/\/-/\/-/\/-/\/
 72
    65
 73
     2
 40
11.0001
 49
0.0001
 74
     4
 75
   135
340
6B
 46
0.04
 50
0.0
 44
0.0
 45
0.0
 49
-11.0
 74
     0
  0
LTYPE
  5
7A
330
5
100
AcDbSymbolTableRecord
100
AcDbLinetypeTableRecord
  2
ACISOWELD
 70
     0
  3
_ _ _ _ _
 72
    65
 73
     2
 40
2.0
 49
2.0
 74
     0
 49
-1.0
 74
     0
  0
LTYPE
  5
7B
330
5
100
AcDbSymbolTableRecord
100
AcDbLinetypeTableRecord
  2
ACISOTGB
 70
     0
  3
__ . . __ . .
 72
    65
 73
     6
 40
9.0
 49
4.0
 74
     0
 49
-1.0
 74
     0
 49
1.0
 74
     0
 49
-1.0
 74
     0
 49
1.0
 74
     0
 49
-1.0
 74
     0
  0
LTYPE
  5
7C
330
5
100
AcDbSymbolTableRecord
100
AcDbLinetypeTableRecord
  2
ACISOTGL
 70
     0
  3
_ _ _ _ _
 72
    65
 73
     2
 40
3.0
 49
2.0
 74
     0
 49
-1.0
 74
     0
  0
LTYPE
  5
7E
330
5
100
AcDbSymbolTableRecord
100
AcDbLinetypeTableRecord
  2
CENTER
 70
     0
  3
__ . __
 72
    65
 73
     4
 40
7.0
 49
4.0
 74
     0
 49
-1.0
 74
     0
 49
1.0
 74
     0
 49
-1.0
 74
     0
  0
LTYPE
  5
D8
330
5
100
AcDbSymbolTableRecord
100
AcDbLinetypeTableRecord
  2
HIDDEN
 70
     0
  3
Hidden __ __ __ __ __ __ __ __ __ __ __ __ __ _
 72
    65
 73
     2
 40
9.524999999999998
 49
6.349999999999999
 74
     0
 49
-3.174999999999999
 74
     0
  0
LTYPE
  5
D9
330
5
100
AcDbSymbolTableRecord
100
AcDbLinetypeTableRecord
  2
PHANTOM2
 70
     0
  3
Phantom (.5x) ___ _ _ ___ _ _ ___ _ _ ___ _ _
 72
    65
 73
     6
 40
31.75
 49
15.875
 74
     0
 49
-3.174999999999999
 74
     0
 49
3.174999999999999
 74
     0
 49
-3.174999999999999
 74
     0
 49
3.174999999999999
 74
     0
 49
-3.174999999999999
 74
     0
  0
ENDTAB
  0
TABLE
  2
LAYER
  5
2
102
{ACAD_XDICTIONARY
360
3F9
102
}
330
0
100
AcDbSymbolTable
 70
     6
  0
LAYER
  5
10
330
2
100
AcDbSymbolTableRecord
100
AcDbLayerTableRecord
  2
0
 70
     0
 62
     7
  6
Continuous
370
    -3
390
F
  0
LAYER
  5
A76
330
2
100
AcDbSymbolTableRecord
100
AcDbLayerTableRecord
  2
Defpoints
 70
     0
 62
     7
  6
Continuous
290
     0
370
    -3
390
F
  0
LAYER
  5
A77
330
2
100
AcDbSymbolTableRecord
100
AcDbLayerTableRecord
  2
AM_VIS
 70
     0
 62
     7
  6
Continuous
370
    50
390
F
  0
LAYER
  5
A78
330
2
100
AcDbSymbolTableRecord
100
AcDbLayerTableRecord
  2
AM_7
 70
     0
 62
     1
  6
CENTER
370
    25
390
F
  0
LAYER
  5
A79
330
2
100
AcDbSymbolTableRecord
100
AcDbLayerTableRecord
  2
LOGO
 70
     0
 62
     7
  6
Continuous
370
    -3
390
F
  0
LAYER
  5
1040
330
2
100
AcDbSymbolTableRecord
100
AcDbLayerTableRecord
  2
AM_5
 70
     0
 62
     5
  6
Continuous
370
    50
390
F
  0
ENDTAB
  0
TABLE
  2
STYLE
  5
3
330
0
100
AcDbSymbolTable
 70
     7
  0
STYLE
  5
11
330
3
100
AcDbSymbolTableRecord
100
AcDbTextStyleTableRecord
  2
STANDARD
 70
     0
 40
0.0
 41
1.0
 50
0.0
 71
     0
 42
3.0
  3
ISOCP.SHX
  4
CHINESET.SHX
  0
STYLE
  5
6B
330
3
100
AcDbSymbolTableRecord
100
AcDbTextStyleTableRecord
  2

 70
     1
 40
0.0
 41
1.0
 50
0.0
 71
     0
 42
2.5
  3
ltypeshp.shx
  4

  0
STYLE
  5
6D
330
3
100
AcDbSymbolTableRecord
100
AcDbTextStyleTableRecord
  2
ACISOTS
 70
     0
 40
1.0
 41
1.0
 50
0.0
 71
     0
 42
1.0
  3
isocp.shx
  4
chineset.shx
  0
STYLE
  5
79
330
3
100
AcDbSymbolTableRecord
100
AcDbTextStyleTableRecord
  2
ACISOGDT
 70
     0
 40
0.0
 41
1.0
 50
0.0
 71
     0
 42
2.5
  3
amgdt.shx
  4
chineset.shx
  0
STYLE
  5
A7A
330
3
100
AcDbSymbolTableRecord
100
AcDbTextStyleTableRecord
  2
CHINESET
 70
     0
 40
0.0
 41
1.0
 50
0.0
 71
     0
 42
2.5
  3
simplex.shx
  4
CHINESET.shx
  0
ENDTAB
  0
TABLE
  2
VIEW
  5
6
330
0
100
AcDbSymbolTable
 70
     0
  0
ENDTAB
  0
TABLE
  2
UCS
  5
7
330
0
100
AcDbSymbolTable
 70
     0
  0
ENDTAB
  0
TABLE
  2
APPID
  5
9
330
0
100
AcDbSymbolTable
 70
    18
  0
APPID
  5
12
330
9
100
AcDbSymbolTableRecord
100
AcDbRegAppTableRecord
  2
ACAD
 70
     0
  0
APPID
  5
46
330
9
100
AcDbSymbolTableRecord
100
AcDbRegAppTableRecord
  2
MCAD_NO_VIS
 70
     0
  0
APPID
  5
47
330
9
100
AcDbSymbolTableRecord
100
AcDbRegAppTableRecord
  2
ACAD_TEMP_GRAPHIC
 70
     0
  0
APPID
  5
58
330
9
100
AcDbSymbolTableRecord
100
AcDbRegAppTableRecord
  2
ACATTRIBSERVICES
 70
     0
  0
APPID
  5
EE
330
9
100
AcDbSymbolTableRecord
100
AcDbRegAppTableRecord
  2
AD_DRAW
 70
     0
  0
APPID
  5
10C
330
9
100
AcDbSymbolTableRecord
100
AcDbRegAppTableRecord
  2
DESIGNERASSEMBLIES
 70
     0
  0
APPID
  5
111
330
9
100
AcDbSymbolTableRecord
100
AcDbRegAppTableRecord
  2
ACADM_DIM_EDIT
 70
     0
  0
APPID
  5
112
330
9
100
AcDbSymbolTableRecord
100
AcDbRegAppTableRecord
  2
AMDT_DM_ADJ
 70
     0
  0
APPID
  5
22C
330
9
100
AcDbSymbolTableRecord
100
AcDbRegAppTableRecord
  2
ACAD_DSTYLE_DIMTEXT_FILL
 70
     0
  0
APPID
  5
452
330
9
100
AcDbSymbolTableRecord
100
AcDbRegAppTableRecord
  2
GENIUS_GENOENT_13
 70
     0
  0
APPID
  5
453
330
9
100
AcDbSymbolTableRecord
100
AcDbRegAppTableRecord
  2
GENIUS_GENOBJ-N-CRS_13
 70
     0
  0
APPID
  5
454
330
9
100
AcDbSymbolTableRecord
100
AcDbRegAppTableRecord
  2
GENIUS_GENOLIS_13
 70
     0
  0
APPID
  5
455
330
9
100
AcDbSymbolTableRecord
100
AcDbRegAppTableRecord
  2
GENIUS_GENODEF_13
 70
     0
  0
APPID
  5
456
330
9
100
AcDbSymbolTableRecord
100
AcDbRegAppTableRecord
  2
GENIUS_GENOREF_13
 70
     0
  0
APPID
  5
6F3
330
9
100
AcDbSymbolTableRecord
100
AcDbRegAppTableRecord
  2
ACAD_PSEXT
 70
     0
  0
APPID
  5
808
330
9
100
AcDbSymbolTableRecord
100
AcDbRegAppTableRecord
  2
GENIUS_GENDTOL_13
 70
     0
  0
APPID
  5
A7C
330
9
100
AcDbSymbolTableRecord
100
AcDbRegAppTableRecord
  2
GENIUS_GENREC_14
 70
     0
  0
APPID
  5
A7D
330
9
100
AcDbSymbolTableRecord
100
AcDbRegAppTableRecord
  2
GENIUS_GENOBJ-N-REC_13
 70
     0
  0
ENDTAB
  0
TABLE
  2
DIMSTYLE
  5
A
330
0
100
AcDbSymbolTable
 70
    11
100
AcDbDimStyleTable
 71
     3
340
81
340
8B
340
86
  0
DIMSTYLE
105
81
330
A
100
AcDbSymbolTableRecord
100
AcDbDimStyleTableRecord
  2
AM_ISO
 70
     0
  4
"
 41
3.0
 42
1.0
 43
8.0
 44
1.5
 47
0.1
 48
0.1
 73
     0
 74
     0
 77
     1
 78
     8
 79
     2
140
3.5
141
0.0
143
0.0393701
146
0.6
147
0.7
172
     1
176
   256
177
   256
178
   256
271
     2
272
     2
283
     0
284
     8
340
11
371
    -1
372
    -1
  0
DIMSTYLE
105
82
330
A
100
AcDbSymbolTableRecord
100
AcDbDimStyleTableRecord
  2
AM_ISO$3
 70
     0
  4
"
 41
3.0
 42
1.0
 43
8.0
 44
1.5
 47
0.1
 48
0.1
 73
     0
 77
     1
 78
     8
 79
     2
140
3.5
141
0.0
143
0.0393701
146
0.6
147
0.7
176
   256
177
   256
178
   256
271
     2
272
     2
283
     0
284
     8
288
     1
289
     0
340
11
371
    -1
372
    -1
  0
DIMSTYLE
105
83
330
A
100
AcDbSymbolTableRecord
100
AcDbDimStyleTableRecord
  2
AM_ISO$4
 70
     0
  4
"
 41
3.0
 42
1.0
 43
8.0
 44
1.5
 47
0.1
 48
0.1
 73
     0
 77
     1
 78
     8
 79
     2
140
3.5
141
0.0
143
0.0393701
146
0.6
147
0.7
176
   256
177
   256
178
   256
271
     2
272
     2
283
     0
284
     8
288
     1
289
     0
340
11
371
    -1
372
    -1
  0
DIMSTYLE
105
84
330
A
100
AcDbSymbolTableRecord
100
AcDbDimStyleTableRecord
  2
AM_ISO$6
 70
     0
  4
"
 41
3.0
 42
1.0
 43
8.0
 44
1.5
 47
0.1
 48
0.1
 73
     0
 74
     0
 78
     8
 79
     2
140
3.5
141
0.0
143
0.0393701
146
0.6
147
0.7
172
     1
176
   256
177
   256
178
   256
271
     2
272
     2
283
     0
284
     8
340
11
371
    -1
372
    -1
  0
DIMSTYLE
105
85
330
A
100
AcDbSymbolTableRecord
100
AcDbDimStyleTableRecord
  2
AM_ISO$7
 70
     0
  4
"
 41
3.0
 42
1.0
 43
8.0
 44
1.5
 47
0.1
 48
0.1
 73
     0
 74
     0
 77
     1
 78
     8
 79
     2
140
5.0
141
0.0
143
0.0393701
146
0.6
147
0.7
172
     1
176
   256
177
   256
178
   256
271
     2
272
     2
283
     0
284
     8
340
11
371
    -1
372
    -1
  0
DIMSTYLE
105
86
330
A
100
AcDbSymbolTableRecord
100
AcDbDimStyleTableRecord
  2
AM_ISO$SF
 70
     0
  4
"
 41
2.5
 42
1.0
 43
10.0
 44
1.0
 47
0.1
 48
0.1
 73
     0
 74
     0
 75
     1
 76
     1
 77
     1
 78
     8
 79
     2
140
3.5
141
0.0
143
0.0393701
146
0.71
147
1.5
172
     1
176
   256
177
   256
178
     2
271
     2
272
     3
274
     4
283
     0
284
     8
340
11
371
    -1
372
    -1
  0
DIMSTYLE
105
8B
330
A
100
AcDbSymbolTableRecord
100
AcDbDimStyleTableRecord
  2
AM_ISO$SH
 70
     0
  4
"
 41
2.5
 42
1.0
 43
10.0
 44
1.0
 47
0.1
 48
0.1
 73
     0
 74
     0
 75
     1
 76
     1
 77
     1
 78
     8
 79
     2
140
3.5
141
0.0
143
0.0393701
144
2.0
146
0.71
147
1.5
172
     1
173
     1
176
   256
177
   256
178
     2
271
     2
272
     3
274
     4
283
     0
284
     8
340
11
343
87
371
    -1
372
    -1
  0
DIMSTYLE
105
40B
102
{ACAD_REACTORS
330
E3D
330
E3B
330
E3C
330
10B6
330
1154
102
}
330
A
100
AcDbSymbolTableRecord
100
AcDbDimStyleTableRecord
  2
AM_ISO$0
 70
     0
  4
"
 41
3.0
 42
1.0
 43
8.0
 44
1.5
 47
0.1
 48
0.1
 73
     0
 74
     0
 77
     1
 78
     8
 79
     2
140
3.5
141
0.0
143
0.0393701
146
0.6
147
0.7
172
     1
176
   256
177
   256
178
   256
271
     2
272
     2
283
     0
284
     8
340
11
371
    -1
372
    -1
  0
ENDTAB
  0
TABLE
  2
BLOCK_RECORD
  5
1
330
0
100
AcDbSymbolTable
 70
    20
  0
BLOCK_RECORD
  5
1F
102
{ACAD_XDICTIONARY
360
8F
102
}
330
1
100
AcDbSymbolTableRecord
100
AcDbBlockTableRecord
  2
*Model_Space
340
22
  0
BLOCK_RECORD
  5
1B
330
1
100
AcDbSymbolTableRecord
100
AcDbBlockTableRecord
  2
*Paper_Space
340
1E
  0
BLOCK_RECORD
  5
23
330
1
100
AcDbSymbolTableRecord
100
AcDbBlockTableRecord
  2
*Paper_Space0
340
26
  0
BLOCK_RECORD
  5
87
330
1
100
AcDbSymbolTableRecord
100
AcDbBlockTableRecord
  2
GENAXEH
340
0
  0
BLOCK_RECORD
  5
FF7
330
1
100
AcDbSymbolTableRecord
100
AcDbBlockTableRecord
  2
*D9
340
0
  0
BLOCK_RECORD
  5
1003
330
1
100
AcDbSymbolTableRecord
100
AcDbBlockTableRecord
  2
*D10
340
0
  0
BLOCK_RECORD
  5
100F
330
1
100
AcDbSymbolTableRecord
100
AcDbBlockTableRecord
  2
*D11
340
0
  0
BLOCK_RECORD
  5
10B7
330
1
100
AcDbSymbolTableRecord
100
AcDbBlockTableRecord
  2
*D13
340
0
  0
BLOCK_RECORD
  5
112B
330
1
100
AcDbSymbolTableRecord
100
AcDbBlockTableRecord
  2
*D14
340
0
  0
BLOCK_RECORD
  5
1155
330
1
100
AcDbSymbolTableRecord
100
AcDbBlockTableRecord
  2
*D15
340
0
  0
BLOCK_RECORD
  5
11EF
330
1
100
AcDbSymbolTableRecord
100
AcDbBlockTableRecord
  2
*S18
340
0
  0
BLOCK_RECORD
  5
11F7
330
1
100
AcDbSymbolTableRecord
100
AcDbBlockTableRecord
  2
*S19
340
0
  0
ENDTAB
  0
ENDSEC
  0
SECTION
  2
BLOCKS
  0
BLOCK
  5
20
330
1F
100
AcDbEntity
  8
0
100
AcDbBlockBegin
  2
*Model_Space
 70
     0
 10
0.0
 20
0.0
 30
0.0
  3
*Model_Space
  1

  0
ENDBLK
  5
21
330
1F
100
AcDbEntity
  8
0
100
AcDbBlockEnd
  0
BLOCK
  5
1C
330
1B
100
AcDbEntity
 67
     1
  8
0
100
AcDbBlockBegin
  2
*Paper_Space
 70
     0
 10
0.0
 20
0.0
 30
0.0
  3
*Paper_Space
  1

  0
ENDBLK
  5
1D
330
1B
100
AcDbEntity
 67
     1
  8
0
100
AcDbBlockEnd
  0
BLOCK
  5
24
330
23
100
AcDbEntity
  8
0
100
AcDbBlockBegin
  2
*Paper_Space0
 70
     0
 10
0.0
 20
0.0
 30
0.0
  3
*Paper_Space0
  1

  0
ENDBLK
  5
25
330
23
100
AcDbEntity
  8
0
100
AcDbBlockEnd
  0
BLOCK
  5
89
330
87
100
AcDbEntity
  8
0
100
AcDbBlockBegin
  2
GENAXEH
 70
     0
 10
0.0
 20
0.0
 30
0.0
  3
GENAXEH
  1

  0
LINE
  5
88
330
87
100
AcDbEntity
  8
0
100
AcDbLine
 10
-1.0
 20
0.0
 30
0.0
 11
1.0
 21
0.0
 31
0.0
  0
ENDBLK
  5
8A
330
87
100
AcDbEntity
  8
0
100
AcDbBlockEnd
  0
BLOCK
  5
1001
330
FF7
100
AcDbEntity
  8
0
100
AcDbBlockBegin
  2
*D9
 70
     1
 10
0.0
 20
0.0
 30
0.0
  3
*D9
  1

  0
LINE
  5
11B1
330
FF7
100
AcDbEntity
  8
AM_5
100
AcDbLine
 10
319.3233675915801
 20
250.1474532417463
 30
0.0
 11
319.3233675915801
 21
262.6474532417463
 31
0.0
  0
LINE
  5
11B2
330
FF7
100
AcDbEntity
  8
AM_5
100
AcDbLine
 10
370.3233675915801
 20
250.1474532417463
 30
0.0
 11
370.3233675915801
 21
262.6474532417463
 31
0.0
  0
LINE
  5
11B3
330
FF7
100
AcDbEntity
  8
AM_5
100
AcDbLine
 10
322.3233675915801
 20
261.1474532417463
 30
0.0
 11
367.3233675915801
 21
261.1474532417463
 31
0.0
  0
SOLID
  5
11B4
330
FF7
100
AcDbEntity
  8
AM_5
100
AcDbTrace
 10
322.3233675915801
 20
261.6474532417463
 30
0.0
 11
322.3233675915801
 21
260.6474532417463
 31
0.0
 12
319.3233675915801
 22
261.1474532417463
 32
0.0
 13
319.3233675915801
 23
261.1474532417463
 33
0.0
  0
SOLID
  5
11B5
330
FF7
100
AcDbEntity
  8
AM_5
100
AcDbTrace
 10
367.3233675915801
 20
261.6474532417463
 30
0.0
 11
367.3233675915801
 21
260.6474532417463
 31
0.0
 12
370.3233675915801
 22
261.1474532417463
 32
0.0
 13
370.3233675915801
 23
261.1474532417463
 33
0.0
  0
MTEXT
  5
11B6
330
FF7
100
AcDbEntity
  8
AM_5
100
AcDbMText
 10
344.8233675915801
 20
263.5974532417463
 30
0.0
 40
3.5
 41
0.0
 71
     5
 72
     1
  1
51
 73
     1
 44
1.0
1001
ACAD
1000
MTEXTBEGIN
1070
    73
1070
     1
1070
    44
1040
1.0
1070
    74
1070
     0
1000
MTEXTEND
  0
POINT
  5
11B7
330
FF7
100
AcDbEntity
  8
Defpoints
 62
     0
100
AcDbPoint
 10
319.3233675915801
 20
249.1474532417463
 30
0.0
  0
POINT
  5
11B8
330
FF7
100
AcDbEntity
  8
Defpoints
 62
     0
100
AcDbPoint
 10
370.3233675915801
 20
249.1474532417463
 30
0.0
  0
POINT
  5
11B9
330
FF7
100
AcDbEntity
  8
Defpoints
 62
     0
100
AcDbPoint
 10
370.3233675915801
 20
261.1474532417463
 30
0.0
  0
ENDBLK
  5
1002
330
FF7
100
AcDbEntity
  8
0
100
AcDbBlockEnd
  0
BLOCK
  5
100D
330
1003
100
AcDbEntity
  8
0
100
AcDbBlockBegin
  2
*D10
 70
     1
 10
0.0
 20
0.0
 30
0.0
  3
*D10
  1

  0
LINE
  5
1199
330
1003
100
AcDbEntity
  8
AM_5
100
AcDbLine
 10
318.3233675915801
 20
249.1474532417463
 30
0.0
 11
288.8233675915801
 21
249.1474532417463
 31
0.0
  0
LINE
  5
119A
330
1003
100
AcDbEntity
  8
AM_5
100
AcDbLine
 10
318.3233675915801
 20
198.1474532417463
 30
0.0
 11
288.8233675915801
 21
198.1474532417463
 31
0.0
  0
LINE
  5
119B
330
1003
100
AcDbEntity
  8
AM_5
100
AcDbLine
 10
290.3233675915801
 20
246.1474532417463
 30
0.0
 11
290.3233675915801
 21
201.1474532417463
 31
0.0
  0
SOLID
  5
119C
330
1003
100
AcDbEntity
  8
AM_5
100
AcDbTrace
 10
289.8233675915801
 20
246.1474532417463
 30
0.0
 11
290.8233675915801
 21
246.1474532417463
 31
0.0
 12
290.3233675915801
 22
249.1474532417463
 32
0.0
 13
290.3233675915801
 23
249.1474532417463
 33
0.0
  0
SOLID
  5
119D
330
1003
100
AcDbEntity
  8
AM_5
100
AcDbTrace
 10
289.8233675915801
 20
201.1474532417463
 30
0.0
 11
290.8233675915801
 21
201.1474532417463
 31
0.0
 12
290.3233675915801
 22
198.1474532417463
 32
0.0
 13
290.3233675915801
 23
198.1474532417463
 33
0.0
  0
MTEXT
  5
119E
330
1003
100
AcDbEntity
  8
AM_5
100
AcDbMText
 10
287.8733675915801
 20
223.6474532417463
 30
0.0
 40
3.5
 41
0.0
 71
     5
 72
     1
  1
51
 11
0.0000000000000001
 21
1.0
 31
0.0
 73
     1
 44
1.0
1001
ACAD
1000
MTEXTBEGIN
1070
    73
1070
     1
1070
    44
1040
1.0
1070
    74
1070
     0
1000
MTEXTEND
  0
POINT
  5
119F
330
1003
100
AcDbEntity
  8
Defpoints
 62
     0
100
AcDbPoint
 10
319.3233675915801
 20
249.1474532417463
 30
0.0
  0
POINT
  5
11A0
330
1003
100
AcDbEntity
  8
Defpoints
 62
     0
100
AcDbPoint
 10
319.3233675915801
 20
198.1474532417463
 30
0.0
  0
POINT
  5
11A1
330
1003
100
AcDbEntity
  8
Defpoints
 62
     0
100
AcDbPoint
 10
290.3233675915801
 20
198.1474532417463
 30
0.0
  0
ENDBLK
  5
100E
330
1003
100
AcDbEntity
  8
0
100
AcDbBlockEnd
  0
BLOCK
  5
1019
330
100F
100
AcDbEntity
  8
0
100
AcDbBlockBegin
  2
*D11
 70
     1
 10
0.0
 20
0.0
 30
0.0
  3
*D11
  1

  0
LINE
  5
11A8
330
100F
100
AcDbEntity
  8
AM_5
100
AcDbLine
 10
310.3233675915801
 20
240.6474532417463
 30
0.0
 11
310.3233675915801
 21
270.6474532417463
 31
0.0
  0
LINE
  5
11A9
330
100F
100
AcDbEntity
  8
AM_5
100
AcDbLine
 10
389.8233675915801
 20
240.6474532417463
 30
0.0
 11
389.8233675915801
 21
270.6474532417463
 31
0.0
  0
LINE
  5
11AA
330
100F
100
AcDbEntity
  8
AM_5
100
AcDbLine
 10
313.3233675915801
 20
269.1474532417463
 30
0.0
 11
386.8233675915801
 21
269.1474532417463
 31
0.0
  0
SOLID
  5
11AB
330
100F
100
AcDbEntity
  8
AM_5
100
AcDbTrace
 10
313.3233675915801
 20
269.6474532417463
 30
0.0
 11
313.3233675915801
 21
268.6474532417463
 31
0.0
 12
310.3233675915801
 22
269.1474532417463
 32
0.0
 13
310.3233675915801
 23
269.1474532417463
 33
0.0
  0
SOLID
  5
11AC
330
100F
100
AcDbEntity
  8
AM_5
100
AcDbTrace
 10
386.8233675915801
 20
269.6474532417463
 30
0.0
 11
386.8233675915801
 21
268.6474532417463
 31
0.0
 12
389.8233675915801
 22
269.1474532417463
 32
0.0
 13
389.8233675915801
 23
269.1474532417463
 33
0.0
  0
MTEXT
  5
11AD
330
100F
100
AcDbEntity
  8
AM_5
100
AcDbMText
 10
350.0733675915801
 20
271.5974532417463
 30
0.0
 40
3.5
 41
0.0
 71
     5
 72
     1
  1
79.5
 73
     1
 44
1.0
1001
ACAD
1000
MTEXTBEGIN
1070
    73
1070
     1
1070
    44
1040
1.0
1070
    74
1070
     0
1000
MTEXTEND
  0
POINT
  5
11AE
330
100F
100
AcDbEntity
  8
Defpoints
 62
     0
100
AcDbPoint
 10
310.3233675915801
 20
239.6474532417463
 30
0.0
  0
POINT
  5
11AF
330
100F
100
AcDbEntity
  8
Defpoints
 62
     0
100
AcDbPoint
 10
389.8233675915801
 20
239.6474532417463
 30
0.0
  0
POINT
  5
11B0
330
100F
100
AcDbEntity
  8
Defpoints
 62
     0
100
AcDbPoint
 10
389.8233675915801
 20
269.1474532417463
 30
0.0
  0
ENDBLK
  5
101A
330
100F
100
AcDbEntity
  8
0
100
AcDbBlockEnd
  0
BLOCK
  5
10C1
330
10B7
100
AcDbEntity
  8
0
100
AcDbBlockBegin
  2
*D13
 70
     1
 10
0.0
 20
0.0
 30
0.0
  3
*D13
  1

  0
LINE
  5
1190
330
10B7
100
AcDbEntity
  8
AM_5
100
AcDbLine
 10
341.124452337983
 20
237.6474532417463
 30
0.0
 11
296.8233675915801
 21
237.6474532417463
 31
0.0
  0
LINE
  5
1191
330
10B7
100
AcDbEntity
  8
AM_5
100
AcDbLine
 10
341.2688604470763
 20
209.6474532417463
 30
0.0
 11
296.8233675915801
 21
209.6474532417463
 31
0.0
  0
LINE
  5
1192
330
10B7
100
AcDbEntity
  8
AM_5
100
AcDbLine
 10
298.3233675915801
 20
234.6474532417464
 30
0.0
 11
298.3233675915801
 21
212.6474532417463
 31
0.0
  0
SOLID
  5
1193
330
10B7
100
AcDbEntity
  8
AM_5
100
AcDbTrace
 10
297.8233675915801
 20
234.6474532417464
 30
0.0
 11
298.8233675915801
 21
234.6474532417464
 31
0.0
 12
298.3233675915801
 22
237.6474532417463
 32
0.0
 13
298.3233675915801
 23
237.6474532417463
 33
0.0
  0
SOLID
  5
1194
330
10B7
100
AcDbEntity
  8
AM_5
100
AcDbTrace
 10
297.8233675915801
 20
212.6474532417463
 30
0.0
 11
298.8233675915801
 21
212.6474532417463
 31
0.0
 12
298.3233675915801
 22
209.6474532417463
 32
0.0
 13
298.3233675915801
 23
209.6474532417463
 33
0.0
  0
MTEXT
  5
1195
330
10B7
100
AcDbEntity
  8
AM_5
100
AcDbMText
 10
295.8730231033911
 20
223.6474532417464
 30
0.0
 40
3.5
 41
0.0
 71
     5
 72
     1
  1
28
 11
0.0000000000000001
 21
1.0
 31
0.0
 73
     1
 44
1.0
1001
ACAD
1000
MTEXTBEGIN
1070
    73
1070
     1
1070
    44
1040
1.0
1070
    74
1070
     0
1000
MTEXTEND
  0
POINT
  5
1196
330
10B7
100
AcDbEntity
  8
Defpoints
 62
     0
100
AcDbPoint
 10
342.124452337983
 20
237.6474532417463
 30
0.0
  0
POINT
  5
1197
330
10B7
100
AcDbEntity
  8
Defpoints
 62
     0
100
AcDbPoint
 10
342.2688604470764
 20
209.6474532417463
 30
0.0
  0
POINT
  5
1198
330
10B7
100
AcDbEntity
  8
Defpoints
 62
     0
100
AcDbPoint
 10
298.3233675915801
 20
209.6474532417463
 30
0.0
  0
ENDBLK
  5
10C2
330
10B7
100
AcDbEntity
  8
0
100
AcDbBlockEnd
  0
BLOCK
  5
1135
330
112B
100
AcDbEntity
  8
0
100
AcDbBlockBegin
  2
*D14
 70
     1
 10
0.0
 20
0.0
 30
0.0
  3
*D14
  1

  0
LINE
  5
1139
330
112B
100
AcDbEntity
  8
AM_5
100
AcDbLine
 10
322.5857632845461
 20
394.7910638112571
 30
0.0
 11
289.4742588198747
 21
394.7910638112571
 31
0.0
  0
LINE
  5
113A
330
112B
100
AcDbEntity
  8
AM_5
100
AcDbLine
 10
309.3233675915801
 20
288.7035384397902
 30
0.0
 11
289.4742588198747
 21
288.7035384397902
 31
0.0
  0
LINE
  5
113B
330
112B
100
AcDbEntity
  8
AM_5
100
AcDbLine
 10
290.9742588198747
 20
391.7910638112571
 30
0.0
 11
290.9742588198747
 21
291.7035384397902
 31
0.0
  0
SOLID
  5
113C
330
112B
100
AcDbEntity
  8
AM_5
100
AcDbTrace
 10
290.4742588198747
 20
391.7910638112571
 30
0.0
 11
291.4742588198747
 21
391.7910638112571
 31
0.0
 12
290.9742588198747
 22
394.7910638112571
 32
0.0
 13
290.9742588198747
 23
394.7910638112571
 33
0.0
  0
SOLID
  5
113D
330
112B
100
AcDbEntity
  8
AM_5
100
AcDbTrace
 10
290.4742588198747
 20
291.7035384397902
 30
0.0
 11
291.4742588198746
 21
291.7035384397902
 31
0.0
 12
290.9742588198747
 22
288.7035384397902
 32
0.0
 13
290.9742588198747
 23
288.7035384397902
 33
0.0
  0
MTEXT
  5
113E
330
112B
100
AcDbEntity
  8
AM_5
100
AcDbMText
 10
288.5242588198746
 20
341.7473011255237
 30
0.0
 40
3.5
 41
0.0
 71
     5
 72
     1
  1
106.09
 11
0.0000000000000001
 21
1.0
 31
0.0
 73
     1
 44
1.0
1001
ACAD
1000
MTEXTBEGIN
1070
    73
1070
     1
1070
    44
1040
1.0
1070
    74
1070
     0
1000
MTEXTEND
  0
POINT
  5
113F
330
112B
100
AcDbEntity
  8
Defpoints
 62
     0
100
AcDbPoint
 10
323.5857632845461
 20
394.7910638112571
 30
0.0
  0
POINT
  5
1140
330
112B
100
AcDbEntity
  8
Defpoints
 62
     0
100
AcDbPoint
 10
310.3233675915801
 20
288.7035384397902
 30
0.0
  0
POINT
  5
1141
330
112B
100
AcDbEntity
  8
Defpoints
 62
     0
100
AcDbPoint
 10
290.9742588198747
 20
288.7035384397902
 30
0.0
  0
ENDBLK
  5
1136
330
112B
100
AcDbEntity
  8
0
100
AcDbBlockEnd
  0
BLOCK
  5
115F
330
1155
100
AcDbEntity
  8
0
100
AcDbBlockBegin
  2
*D15
 70
     1
 10
0.0
 20
0.0
 30
0.0
  3
*D15
  1

  0
LINE
  5
1179
330
1155
100
AcDbEntity
  8
AM_5
100
AcDbLine
 10
309.3233675915801
 20
288.7035384397902
 30
0.0
 11
296.8233675915801
 21
288.7035384397902
 31
0.0
  0
LINE
  5
117A
330
1155
100
AcDbEntity
  8
AM_5
100
AcDbLine
 10
322.5857632845461
 20
394.7910638112571
 30
0.0
 11
296.8233675915802
 21
394.7910638112571
 31
0.0
  0
LINE
  5
117B
330
1155
100
AcDbEntity
  8
AM_5
100
AcDbLine
 10
298.3233675915801
 20
291.7035384397902
 30
0.0
 11
298.3233675915802
 21
391.7910638112571
 31
0.0
  0
SOLID
  5
117C
330
1155
100
AcDbEntity
  8
AM_5
100
AcDbTrace
 10
297.8233675915801
 20
291.7035384397902
 30
0.0
 11
298.8233675915801
 21
291.7035384397902
 31
0.0
 12
298.3233675915801
 22
288.7035384397902
 32
0.0
 13
298.3233675915801
 23
288.7035384397902
 33
0.0
  0
SOLID
  5
117D
330
1155
100
AcDbEntity
  8
AM_5
100
AcDbTrace
 10
297.8233675915802
 20
391.7910638112571
 30
0.0
 11
298.8233675915802
 21
391.7910638112571
 31
0.0
 12
298.3233675915802
 22
394.7910638112571
 32
0.0
 13
298.3233675915802
 23
394.7910638112571
 33
0.0
  0
MTEXT
  5
117E
330
1155
100
AcDbEntity
  8
AM_5
100
AcDbMText
 10
295.69836759158
 20
341.7473011255237
 30
0.0
 40
3.5
 41
0.0
 71
     5
 72
     1
  1
(106)
 11
0.0000000000000001
 21
1.0
 31
0.0
 73
     1
 44
1.0
1001
ACAD
1000
MTEXTBEGIN
1070
    73
1070
     1
1070
    44
1040
1.0
1070
    74
1070
     0
1000
MTEXTEND
  0
POINT
  5
117F
330
1155
100
AcDbEntity
  8
Defpoints
 62
     0
100
AcDbPoint
 10
310.3233675915801
 20
288.7035384397902
 30
0.0
  0
POINT
  5
1180
330
1155
100
AcDbEntity
  8
Defpoints
 62
     0
100
AcDbPoint
 10
323.5857632845461
 20
394.7910638112571
 30
0.0
  0
POINT
  5
1181
330
1155
100
AcDbEntity
  8
Defpoints
 62
     0
100
AcDbPoint
 10
298.3233675915802
 20
394.7910638112571
 30
0.0
  0
ENDBLK
  5
1160
330
1155
100
AcDbEntity
  8
0
100
AcDbBlockEnd
  0
BLOCK
  5
11F4
330
11EF
100
AcDbEntity
  8
0
100
AcDbBlockBegin
  2
*S18
 70
     1
 10
0.0
 20
0.0
 30
0.0
  3
*S18
  1

  0
LINE
  5
11F0
330
11EF
100
AcDbEntity
  8
AM_5
 62
     5
100
AcDbLine
 10
375.4982350327361
 20
185.3689335262798
 30
0.0
 11
357.0446404876307
 21
185.3689335262798
 31
0.0
  0
LINE
  5
11F1
330
11EF
100
AcDbEntity
  8
AM_5
 62
     5
100
AcDbLine
 10
357.0446404876307
 20
185.3689335262798
 30
0.0
 11
347.7154032577471
 21
205.0692316437779
 31
0.0
  0
TRACE
  5
11F2
330
11EF
100
AcDbEntity
  8
AM_5
 62
     5
370
    35
100
AcDbTrace
 10
348.131851262572
 20
205.2664440010605
 30
0.0
 11
347.2989552529222
 21
204.8720192864952
 31
0.0
 12
346.2174266771535
 22
208.232468303276
 32
0.0
 13
346.2174266771535
 23
208.232468303276
 33
0.0
  0
MTEXT
  5
11F3
330
11EF
100
AcDbEntity
  8
AM_5
 62
     5
100
AcDbMText
 10
375.4982350327361
 20
191.9581908419757
 30
0.0
 40
3.5
 41
0.0
 71
     7
 72
     5
  1

  7
ACISOTS
 73
     1
 44
1.0
1001
ACAD
1000
MTEXTBEGIN
1070
    73
1070
     1
1070
    44
1040
1.0
1070
    74
1070
     0
1000
MTEXTEND
  0
ENDBLK
  5
11F5
330
11EF
100
AcDbEntity
  8
0
100
AcDbBlockEnd
  0
BLOCK
  5
11FC
330
11F7
100
AcDbEntity
  8
0
100
AcDbBlockBegin
  2
*S19
 70
     1
 10
0.0
 20
0.0
 30
0.0
  3
*S19
  1

  0
LINE
  5
11F8
330
11F7
100
AcDbEntity
  8
AM_5
 62
     5
100
AcDbLine
 10
412.9112970705537
 20
292.5277617329973
 30
0.0
 11
401.6988748736341
 21
292.5277617329973
 31
0.0
  0
LINE
  5
11F9
330
11F7
100
AcDbEntity
  8
AM_5
 62
     5
100
AcDbLine
 10
401.6988748736341
 20
292.5277617329973
 30
0.0
 11
392.1826411892668
 21
302.9557234047073
 31
0.0
  0
TRACE
  5
11FA
330
11F7
100
AcDbEntity
  8
AM_5
 62
     5
370
    35
100
AcDbTrace
 10
392.5230037138011
 20
303.266327664949
 30
0.0
 11
391.8422786647326
 21
302.6451191444657
 31
0.0
 12
389.8233675915801
 22
305.5410334617911
 32
0.0
 13
389.8233675915801
 23
305.5410334617911
 33
0.0
  0
MTEXT
  5
11FB
330
11F7
100
AcDbEntity
  8
AM_5
 62
     5
100
AcDbMText
 10
412.9112970705537
 20
298.9765986013994
 30
0.0
 40
3.5
 41
0.0
 71
     7
 72
     5
  1

  7
ACISOTS
 73
     1
 44
1.0
1001
ACAD
1000
MTEXTBEGIN
1070
    73
1070
     1
1070
    44
1040
1.0
1070
    74
1070
     0
1000
MTEXTEND
  0
ENDBLK
  5
11FD
330
11F7
100
AcDbEntity
  8
0
100
AcDbBlockEnd
  0
ENDSEC
  0
SECTION
  2
ENTITIES
  0
LINE
  5
D38
330
1F
100
AcDbEntity
  8
AM_VIS
100
AcDbLine
 10
239.9711044885015
 20
291.0928805344572
 30
0.0
 11
239.9711044885015
 21
290.5410638112571
 31
0.0
  0
LINE
  5
D39
330
1F
100
AcDbEntity
  8
AM_VIS
100
AcDbLine
 10
226.223377403634
 20
290.5410638112571
 30
0.0
 11
226.223377403634
 21
291.0928805344572
 31
0.0
  0
LINE
  5
D3A
330
1F
100
AcDbEntity
  8
AM_VIS
100
AcDbLine
 10
249.0972409460677
 20
320.5410638112571
 30
0.0
 11
258.5972409460677
 21
320.5410638112571
 31
0.0
  0
LINE
  5
D3B
330
1F
100
AcDbEntity
  8
AM_VIS
100
AcDbLine
 10
207.5972409460677
 20
320.5410638112571
 30
0.0
 11
217.0972409460677
 21
320.5410638112571
 31
0.0
  0
LINE
  5
D3C
330
1F
100
AcDbEntity
  8
AM_VIS
100
AcDbLine
 10
249.0972409460677
 20
321.5011675924389
 30
0.0
 11
249.0972409460677
 21
305.5410638112571
 31
0.0
  0
LINE
  5
D3D
330
1F
100
AcDbEntity
  8
AM_VIS
100
AcDbLine
 10
217.0972409460677
 20
305.5410638112571
 30
0.0
 11
217.0972409460677
 21
321.5011675924389
 31
0.0
  0
LINE
  5
D3E
330
1F
100
AcDbEntity
  8
AM_VIS
100
AcDbLine
 10
217.0972409460677
 20
321.5011675924389
 30
0.0
 11
249.0972409460677
 21
321.5011675924389
 31
0.0
  0
LINE
  5
D3F
330
1F
100
AcDbEntity
  8
AM_VIS
100
AcDbLine
 10
242.0972409460677
 20
375.7910638112571
 30
0.0
 11
242.0972409460677
 21
387.7910638112571
 31
0.0
  0
LINE
  5
D40
330
1F
100
AcDbEntity
  8
AM_VIS
100
AcDbLine
 10
224.0972409460677
 20
375.7910638112571
 30
0.0
 11
224.0972409460677
 21
387.7910638112571
 31
0.0
  0
LINE
  5
D41
330
1F
100
AcDbEntity
  8
AM_VIS
100
AcDbLine
 10
239.8472409460677
 20
387.7910638112571
 30
0.0
 11
239.8472409460677
 21
389.7910638112571
 31
0.0
  0
LINE
  5
D42
330
1F
100
AcDbEntity
  8
AM_VIS
100
AcDbLine
 10
226.3472409460677
 20
387.7910638112571
 30
0.0
 11
226.3472409460677
 21
389.7910638112571
 31
0.0
  0
LINE
  5
D43
330
1F
100
AcDbEntity
  8
AM_VIS
100
AcDbLine
 10
253.5972409460677
 20
333.5410638112571
 30
0.0
 11
253.5972409460677
 21
336.5410638112571
 31
0.0
  0
LINE
  5
D44
330
1F
100
AcDbEntity
  8
AM_VIS
100
AcDbLine
 10
212.5972409460677
 20
333.5410638112571
 30
0.0
 11
212.5972409460677
 21
336.5410638112571
 31
0.0
  0
LINE
  5
D45
330
1F
100
AcDbEntity
  8
AM_VIS
100
AcDbLine
 10
243.5972409460677
 20
336.5410638112571
 30
0.0
 11
243.5972409460677
 21
343.5410638112571
 31
0.0
  0
LINE
  5
D46
330
1F
100
AcDbEntity
  8
AM_VIS
100
AcDbLine
 10
222.5972409460677
 20
336.5410638112571
 30
0.0
 11
222.5972409460677
 21
343.5410638112571
 31
0.0
  0
LINE
  5
D47
330
1F
100
AcDbEntity
  8
AM_VIS
100
AcDbLine
 10
252.0972409460677
 20
306.9574764271774
 30
0.0
 11
252.0972409460677
 21
290.5410638112571
 31
0.0
  0
LINE
  5
D48
330
1F
100
AcDbEntity
  8
AM_VIS
100
AcDbLine
 10
214.0972409460677
 20
306.957273158397
 30
0.0
 11
214.0972409460677
 21
290.5410638112571
 31
0.0
  0
SPLINE
  5
D49
330
1F
100
AcDbEntity
  8
AM_VIS
100
AcDbSpline
210
0.0
220
0.0
230
1.0
 70
     8
 71
     1
 72
     6
 73
     4
 74
     0
 42
0.0000000001
 43
0.0000000001
 40
2.642600845768581
 40
2.642600845768581
 40
7.379533170241566
 40
11.21565463044104
 40
16.69546821920354
 40
16.69546821920354
 10
217.1016122491541
 20
305.1670817388596
 30
0.0
 10
214.4648083698732
 20
306.6682239212517
 30
0.0
 10
212.8822352689827
 20
308.2218300184048
 30
0.0
 10
211.8472409460677
 20
311.1994529704764
 30
0.0
  0
SPLINE
  5
D4A
330
1F
100
AcDbEntity
  8
AM_VIS
100
AcDbSpline
210
0.0
220
0.0
230
1.0
 70
     8
 71
     1
 72
     6
 73
     4
 74
     0
 42
0.0000000001
 43
0.0000000001
 40
0.0
 40
0.0
 40
4.230502333405353
 40
8.622125153955934
 40
14.06939021021545
 40
14.06939021021545
 10
254.3472409460677
 20
311.1994529704764
 30
0.0
 10
253.706891032618
 20
308.829053409521
 30
0.0
 10
252.0588691294425
 20
306.9258478755363
 30
0.0
 10
249.0928917445411
 20
305.1680282455294
 30
0.0
  0
LINE
  5
D4B
330
1F
100
AcDbEntity
  8
AM_VIS
100
AcDbLine
 10
254.3472409460677
 20
318.5410638112571
 30
0.0
 11
254.3472409460677
 21
311.1994529704764
 31
0.0
  0
LINE
  5
D4C
330
1F
100
AcDbEntity
  8
AM_VIS
100
AcDbLine
 10
211.8472409460677
 20
318.5410638112571
 30
0.0
 11
211.8472409460677
 21
311.1994529704764
 31
0.0
  0
LINE
  5
D4D
330
1F
100
AcDbEntity
  8
AM_VIS
100
AcDbLine
 10
209.5972409460677
 20
320.5410638112571
 30
0.0
 11
209.5972409460677
 21
318.5410638112571
 31
0.0
  0
LINE
  5
D4E
330
1F
100
AcDbEntity
  8
AM_VIS
100
AcDbLine
 10
214.5972409460677
 20
320.5410638112571
 30
0.0
 11
214.5972409460677
 21
318.5410638112571
 31
0.0
  0
LINE
  5
D4F
330
1F
100
AcDbEntity
  8
AM_VIS
100
AcDbLine
 10
251.5972409460677
 20
320.5410638112571
 30
0.0
 11
251.5972409460677
 21
318.5410638112571
 31
0.0
  0
LINE
  5
D50
330
1F
100
AcDbEntity
  8
AM_VIS
100
AcDbLine
 10
256.5972409460677
 20
320.5410638112571
 30
0.0
 11
256.5972409460677
 21
318.5410638112571
 31
0.0
  0
LINE
  5
D51
330
1F
100
AcDbEntity
  8
AM_VIS
100
AcDbLine
 10
238.0721781316008
 20
375.7910638112571
 30
0.0
 11
228.1223037605346
 21
375.7910638112571
 31
0.0
  0
LINE
  5
D52
330
1F
100
AcDbEntity
  8
AM_VIS
100
AcDbLine
 10
224.0972409460677
 20
387.7910638112571
 30
0.0
 11
242.0972409460677
 21
387.7910638112571
 31
0.0
  0
CIRCLE
  5
D53
330
1F
100
AcDbEntity
  8
AM_VIS
100
AcDbCircle
 10
233.0972409460677
 20
357.7910638112571
 30
0.0
 40
3.5
  0
CIRCLE
  5
D54
330
1F
100
AcDbEntity
  8
AM_VIS
100
AcDbCircle
 10
233.0972409460677
 20
357.7910638112571
 30
0.0
 40
2.5
  0
LINE
  5
D55
330
1F
100
AcDbEntity
  8
AM_VIS
100
AcDbLine
 10
239.0972409460677
 20
336.5410638112571
 30
0.0
 11
253.5972409460677
 21
336.5410638112571
 31
0.0
  0
LINE
  5
D56
330
1F
100
AcDbEntity
  8
AM_VIS
100
AcDbLine
 10
212.5972409460677
 20
336.5410638112571
 30
0.0
 11
227.0972409460677
 21
336.5410638112571
 31
0.0
  0
LINE
  5
D57
330
1F
100
AcDbEntity
  8
AM_VIS
100
AcDbLine
 10
222.5972409460677
 20
343.5410638112571
 30
0.0
 11
243.5972409460677
 21
343.5410638112571
 31
0.0
  0
LINE
  5
D58
330
1F
100
AcDbEntity
  8
AM_VIS
100
AcDbLine
 10
252.0972409460677
 20
290.5410638112571
 30
0.0
 11
247.0972409460677
 21
290.5410638112571
 31
0.0
  0
LINE
  5
D59
330
1F
100
AcDbEntity
  8
AM_VIS
100
AcDbLine
 10
219.0972409460677
 20
290.5410638112571
 30
0.0
 11
214.0972409460677
 21
290.5410638112571
 31
0.0
  0
LINE
  5
D5A
330
1F
100
AcDbEntity
  8
AM_VIS
100
AcDbLine
 10
227.5294765832377
 20
290.5410638112571
 30
0.0
 11
226.223377403634
 21
290.5410638112571
 31
0.0
  0
LINE
  5
D5B
330
1F
100
AcDbEntity
  8
AM_VIS
100
AcDbLine
 10
239.9711044885015
 20
290.5410638112571
 30
0.0
 11
238.6650053088977
 21
290.5410638112571
 31
0.0
  0
ARC
  5
D5C
330
1F
100
AcDbEntity
  8
AM_VIS
100
AcDbCircle
 10
233.0972409460677
 20
304.7035384397903
 30
0.0
 40
16.0
100
AcDbArc
 50
242.270560348468
 51
297.729439651532
  0
ARC
  5
D5D
330
1F
100
AcDbEntity
  8
AM_VIS
100
AcDbCircle
 10
233.0972409460677
 20
305.5410638112571
 30
0.0
 40
16.0
100
AcDbArc
 50
180.0
 51
0.0
  0
CIRCLE
  5
D5E
330
1F
100
AcDbEntity
  8
AM_VIS
100
AcDbCircle
 10
233.0972409460677
 20
305.5410638112571
 30
0.0
 40
12.0
  0
LINE
  5
D5F
330
1F
100
AcDbEntity
  8
AM_VIS
100
AcDbLine
 10
214.5972409460677
 20
318.5410638112571
 30
0.0
 11
209.5972409460677
 21
318.5410638112571
 31
0.0
  0
LINE
  5
D60
330
1F
100
AcDbEntity
  8
AM_VIS
100
AcDbLine
 10
256.5972409460677
 20
318.5410638112571
 30
0.0
 11
251.5972409460677
 21
318.5410638112571
 31
0.0
  0
LINE
  5
D61
330
1F
100
AcDbEntity
  8
AM_VIS
100
AcDbLine
 10
384.3233675915801
 20
455.0322838496754
 30
0.0
 11
355.8233675915801
 21
455.0322838496754
 31
0.0
  0
LINE
  5
D62
330
1F
100
AcDbEntity
  8
AM_VIS
100
AcDbLine
 10
384.3233675915801
 20
455.0322838496754
 30
0.0
 11
384.3233675915801
 21
433.0322838496754
 31
0.0
  0
LINE
  5
D63
330
1F
100
AcDbEntity
  8
AM_VIS
100
AcDbLine
 10
355.8233675915801
 20
433.0322838496754
 30
0.0
 11
384.3233675915801
 21
433.0322838496754
 31
0.0
  0
LINE
  5
D64
330
1F
100
AcDbEntity
  8
AM_VIS
100
AcDbLine
 10
350.8233675915801
 20
455.5322838496754
 30
0.0
 11
350.8233675915801
 21
432.5322838496754
 31
0.0
  0
LINE
  5
D65
330
1F
100
AcDbEntity
  8
AM_VIS
100
AcDbLine
 10
355.8233675915801
 20
455.5322838496754
 30
0.0
 11
350.8233675915801
 21
455.5322838496754
 31
0.0
  0
LINE
  5
D66
330
1F
100
AcDbEntity
  8
AM_VIS
100
AcDbLine
 10
355.8233675915801
 20
432.5322838496754
 30
0.0
 11
350.8233675915801
 21
432.5322838496754
 31
0.0
  0
LINE
  5
D67
330
1F
100
AcDbEntity
  8
AM_VIS
100
AcDbLine
 10
355.8233675915801
 20
432.5322838496754
 30
0.0
 11
355.8233675915801
 21
455.5322838496754
 31
0.0
  0
LINE
  5
D68
330
1F
100
AcDbEntity
  8
AM_VIS
100
AcDbLine
 10
325.3233675915801
 20
454.2822838496753
 30
0.0
 11
325.3233675915801
 21
449.0072210352085
 31
0.0
  0
LINE
  5
D69
330
1F
100
AcDbEntity
  8
AM_VIS
100
AcDbLine
 10
350.8233675915801
 20
454.2822838496753
 30
0.0
 11
325.3233675915801
 21
454.2822838496753
 31
0.0
  0
LINE
  5
D6A
330
1F
100
AcDbEntity
  8
AM_VIS
100
AcDbLine
 10
350.8233675915801
 20
433.7822838496754
 30
0.0
 11
325.3233675915801
 21
433.7822838496754
 31
0.0
  0
LINE
  5
D6B
330
1F
100
AcDbEntity
  8
AM_VIS
100
AcDbLine
 10
325.3233675915801
 20
439.0573466641423
 30
0.0
 11
325.3233675915801
 21
433.7822838496754
 31
0.0
  0
LINE
  5
D6C
330
1F
100
AcDbEntity
  8
AM_VIS
100
AcDbLine
 10
328.2045654380632
 20
452.0322838496753
 30
0.0
 11
337.4421697450971
 21
452.0322838496753
 31
0.0
  0
LINE
  5
D6D
330
1F
100
AcDbEntity
  8
AM_VIS
100
AcDbLine
 10
323.5857632845461
 20
444.0322838496753
 30
0.0
 11
328.2045654380632
 21
452.0322838496753
 31
0.0
  0
LINE
  5
D6E
330
1F
100
AcDbEntity
  8
AM_VIS
100
AcDbLine
 10
328.2045654380632
 20
436.0322838496754
 30
0.0
 11
323.5857632845461
 21
444.0322838496753
 31
0.0
  0
LINE
  5
D6F
330
1F
100
AcDbEntity
  8
AM_VIS
100
AcDbLine
 10
337.4421697450971
 20
436.0322838496754
 30
0.0
 11
328.2045654380632
 21
436.0322838496754
 31
0.0
  0
LINE
  5
D70
330
1F
100
AcDbEntity
  8
AM_VIS
100
AcDbLine
 10
342.0609718986141
 20
444.0322838496753
 30
0.0
 11
337.4421697450971
 21
436.0322838496754
 31
0.0
  0
LINE
  5
D71
330
1F
100
AcDbEntity
  8
AM_VIS
100
AcDbLine
 10
337.4421697450971
 20
452.0322838496753
 30
0.0
 11
342.0609718986141
 21
444.0322838496753
 31
0.0
  0
LINE
  5
D72
330
1F
100
AcDbEntity
  8
AM_VIS
100
AcDbLine
 10
319.3233675915801
 20
450.0322838496754
 30
0.0
 11
319.3233675915801
 21
469.5322838496754
 31
0.0
  0
LINE
  5
D73
330
1F
100
AcDbEntity
  8
AM_VIS
100
AcDbLine
 10
319.3233675915801
 20
469.5322838496754
 30
0.0
 11
370.3233675915801
 21
469.5322838496754
 31
0.0
  0
LINE
  5
D74
330
1F
100
AcDbEntity
  8
AM_VIS
100
AcDbLine
 10
370.3233675915801
 20
433.0322838496754
 30
0.0
 11
370.3233675915801
 21
418.5322838496754
 31
0.0
  0
LINE
  5
D75
330
1F
100
AcDbEntity
  8
AM_VIS
100
AcDbLine
 10
370.3233675915801
 20
418.5322838496754
 30
0.0
 11
319.3233675915801
 21
418.5322838496754
 31
0.0
  0
LINE
  5
D76
330
1F
100
AcDbEntity
  8
AM_VIS
100
AcDbLine
 10
319.3233675915801
 20
418.5322838496754
 30
0.0
 11
319.3233675915801
 21
438.0322838496754
 31
0.0
  0
LINE
  5
D77
330
1F
100
AcDbEntity
  8
AM_VIS
100
AcDbLine
 10
319.3233675915801
 20
438.0322838496754
 30
0.0
 11
319.3233675915801
 21
450.0322838496754
 31
0.0
  0
LINE
  5
D78
330
1F
100
AcDbEntity
  8
AM_VIS
100
AcDbLine
 10
319.3233675915801
 20
450.0322838496754
 30
0.0
 11
325.2210718076674
 21
450.0322838496754
 31
0.0
  0
LINE
  5
D79
330
1F
100
AcDbEntity
  8
AM_VIS
100
AcDbLine
 10
325.2210718076674
 20
438.0322838496754
 30
0.0
 11
319.3233675915801
 21
438.0322838496754
 31
0.0
  0
LINE
  5
D7A
330
1F
100
AcDbEntity
  8
AM_VIS
100
AcDbLine
 10
370.3233675915801
 20
469.5322838496754
 30
0.0
 11
370.3233675915801
 21
455.0322838496754
 31
0.0
  0
LINE
  5
D7B
330
1F
100
AcDbEntity
  8
AM_VIS
100
AcDbLine
 10
370.3233675915801
 20
460.0322838496754
 30
0.0
 11
389.8233675915801
 21
460.0322838496754
 31
0.0
  0
LINE
  5
D7C
330
1F
100
AcDbEntity
  8
AM_VIS
100
AcDbLine
 10
389.8233675915801
 20
428.0322838496754
 30
0.0
 11
389.8233675915801
 21
460.0322838496754
 31
0.0
  0
LINE
  5
D7D
330
1F
100
AcDbEntity
  8
AM_VIS
100
AcDbLine
 10
370.3233675915801
 20
428.0322838496754
 30
0.0
 11
389.8233675915801
 21
428.0322838496754
 31
0.0
  0
LINE
  5
D7E
330
1F
100
AcDbEntity
  8
AM_VIS
100
AcDbLine
 10
319.3233675915801
 20
428.0322838496754
 30
0.0
 11
310.3233675915801
 21
428.0322838496754
 31
0.0
  0
LINE
  5
D7F
330
1F
100
AcDbEntity
  8
AM_VIS
100
AcDbLine
 10
310.3233675915801
 20
460.0322838496754
 30
0.0
 11
310.3233675915801
 21
428.0322838496754
 31
0.0
  0
LINE
  5
D80
330
1F
100
AcDbEntity
  8
AM_VIS
100
AcDbLine
 10
319.3233675915801
 20
460.0322838496754
 30
0.0
 11
310.3233675915801
 21
460.0322838496754
 31
0.0
  0
ARC
  5
D81
330
1F
100
AcDbEntity
  8
AM_VIS
100
AcDbCircle
 10
332.8233675915801
 20
444.0322838496753
 30
0.0
 40
9.0
100
AcDbArc
 50
302.7339555492669
 51
357.2660444507337
  0
ARC
  5
D82
330
1F
100
AcDbEntity
  8
AM_VIS
100
AcDbCircle
 10
332.8233675915801
 20
444.0322838496753
 30
0.0
 40
9.0
100
AcDbArc
 50
242.7339555492663
 51
297.2660444507337
  0
ARC
  5
D83
330
1F
100
AcDbEntity
  8
AM_VIS
100
AcDbCircle
 10
332.8233675915801
 20
444.0322838496753
 30
0.0
 40
9.0
100
AcDbArc
 50
182.7339555492663
 51
237.2660444507331
  0
ARC
  5
D84
330
1F
100
AcDbEntity
  8
AM_VIS
100
AcDbCircle
 10
332.8233675915801
 20
444.0322838496753
 30
0.0
 40
9.0
100
AcDbArc
 50
122.7339555492669
 51
177.2660444507336
  0
ARC
  5
D85
330
1F
100
AcDbEntity
  8
AM_VIS
100
AcDbCircle
 10
332.8233675915801
 20
444.0322838496753
 30
0.0
 40
9.0
100
AcDbArc
 50
62.73395554926633
 51
117.2660444507336
  0
ARC
  5
D86
330
1F
100
AcDbEntity
  8
AM_VIS
100
AcDbCircle
 10
332.8233675915801
 20
444.0322838496753
 30
0.0
 40
9.0
100
AcDbArc
 50
2.733955549266344
 51
57.26604445073306
  0
CIRCLE
  5
D87
330
1F
100
AcDbEntity
  8
AM_VIS
100
AcDbCircle
 10
332.8233675915801
 20
444.0322838496753
 30
0.0
 40
5.0
  0
ARC
  5
D88
330
1F
100
AcDbEntity
  8
AM_VIS
100
AcDbCircle
 10
344.8233675915801
 20
444.0322838496753
 30
0.0
 40
20.5
100
AcDbArc
 50
209.9999999999997
 51
327.5485089718813
  0
ARC
  5
D89
330
1F
100
AcDbEntity
  8
AM_VIS
100
AcDbCircle
 10
344.8233675915801
 20
444.0322838496753
 30
0.0
 40
20.5
100
AcDbArc
 50
197.0186474035546
 51
197.969753863371
  0
ARC
  5
D8A
330
1F
100
AcDbEntity
  8
AM_VIS
100
AcDbCircle
 10
344.8233675915801
 20
444.0322838496753
 30
0.0
 40
20.5
100
AcDbArc
 50
162.0302461366289
 51
162.9813525964453
  0
ARC
  5
D8B
330
1F
100
AcDbEntity
  8
AM_VIS
100
AcDbCircle
 10
344.8233675915801
 20
444.0322838496753
 30
0.0
 40
20.5
100
AcDbArc
 50
32.45149102811866
 51
150.0000000000002
  0
ARC
  5
D8C
330
1F
100
AcDbEntity
  8
AM_VIS
100
AcDbCircle
 10
344.8233675915801
 20
444.0322838496753
 30
0.0
 40
10.5
100
AcDbArc
 50
257.4720945601456
 51
282.5279054398544
  0
ARC
  5
D8D
330
1F
100
AcDbEntity
  8
AM_VIS
100
AcDbCircle
 10
344.8233675915801
 20
444.0322838496753
 30
0.0
 40
10.5
100
AcDbArc
 50
77.47209456014565
 51
102.5279054398543
  0
CIRCLE
  5
D8E
330
1F
100
AcDbEntity
  8
AM_VIS
100
AcDbCircle
 10
373.3233675915801
 20
444.0322838496753
 30
0.0
 40
8.5
  0
CIRCLE
  5
D8F
330
1F
100
AcDbEntity
  8
AM_VIS
100
AcDbCircle
 10
373.3233675915801
 20
444.0322838496753
 30
0.0
 40
4.25
  0
LINE
  5
D90
330
1F
100
AcDbEntity
  8
AM_VIS
100
AcDbLine
 10
339.8233675915801
 20
230.5213167841801
 30
0.0
 11
339.8233675915801
 21
237.6474532417463
 31
0.0
  0
LINE
  5
D91
330
1F
100
AcDbEntity
  8
AM_VIS
100
AcDbLine
 10
349.8233675915801
 20
216.7735896993125
 30
0.0
 11
349.8233675915801
 21
209.6474532417463
 31
0.0
  0
LINE
  5
D92
330
1F
100
AcDbEntity
  8
AM_VIS
100
AcDbLine
 10
349.8233675915801
 20
237.6474532417463
 30
0.0
 11
349.8233675915801
 21
230.5213167841801
 31
0.0
  0
LINE
  5
D93
330
1F
100
AcDbEntity
  8
AM_VIS
100
AcDbLine
 10
339.8233675915801
 20
209.6474532417463
 30
0.0
 11
339.8233675915801
 21
216.7735896993125
 31
0.0
  0
ELLIPSE
  5
D94
330
1F
100
AcDbEntity
  8
AM_VIS
100
AcDbEllipse
 10
335.7215125228965
 20
223.6421418812225
 30
0.0
 11
-42.8900173491538
 21
0.0
 31
0.0
210
0.0
220
0.0
230
1.0
 40
0.3322451442254113
 41
4.712388980384689
 42
4.766662202902117
  0
ELLIPSE
  5
D95
330
1F
100
AcDbEntity
  8
AM_VIS
100
AcDbEllipse
 10
335.7215125228965
 20
223.6421418812225
 30
0.0
 11
-42.8900173491538
 21
0.0
 31
0.0
210
0.0
220
0.0
230
1.0
 40
0.3322451442254113
 41
1.516818341342365
 42
1.570796326794896
  0
LINE
  5
D96
330
1F
100
AcDbEntity
  8
AM_VIS
100
AcDbLine
 10
329.3823018917306
 20
209.4012631534496
 30
0.0
 11
333.4074087282527
 21
209.4290145615603
 31
0.0
  0
LINE
  5
D97
330
1F
100
AcDbEntity
  8
AM_VIS
100
AcDbLine
 10
329.370566520812
 20
237.8848544507139
 30
0.0
 11
333.3947440304941
 21
237.8539934561189
 31
0.0
  0
LINE
  5
D98
330
1F
100
AcDbEntity
  8
AM_VIS
100
AcDbLine
 10
362.8233675915801
 20
207.6474532417463
 30
0.0
 11
389.8233675915801
 21
207.6474532417463
 31
0.0
  0
LINE
  5
D99
330
1F
100
AcDbEntity
  8
AM_VIS
100
AcDbLine
 10
362.8233675915801
 20
239.6474532417463
 30
0.0
 11
389.8233675915801
 21
239.6474532417463
 31
0.0
  0
ARC
  5
D9A
330
1F
100
AcDbEntity
  8
AM_VIS
100
AcDbCircle
 10
344.8233675915801
 20
223.6474532417463
 30
0.0
 40
21.25
100
AcDbArc
 50
42.09317947270984
 51
137.9068205272901
  0
ARC
  5
D9B
330
1F
100
AcDbEntity
  8
AM_VIS
100
AcDbCircle
 10
344.8233675915801
 20
223.6474532417463
 30
0.0
 40
21.25
100
AcDbArc
 50
222.1317890672863
 51
317.8682109327137
  0
LINE
  5
D9C
330
1F
100
AcDbEntity
  8
AM_VIS
100
AcDbLine
 10
319.3233675915801
 20
239.6474532417463
 30
0.0
 11
319.3233675915801
 21
249.1474532417463
 31
0.0
  0
LINE
  5
D9D
330
1F
100
AcDbEntity
  8
AM_VIS
100
AcDbLine
 10
319.3233675915801
 20
249.1474532417463
 30
0.0
 11
370.3233675915801
 21
249.1474532417463
 31
0.0
  0
LINE
  5
D9E
330
1F
100
AcDbEntity
  8
AM_VIS
100
AcDbLine
 10
370.3233675915801
 20
249.1474532417463
 30
0.0
 11
370.3233675915801
 21
239.6474532417463
 31
0.0
  0
LINE
  5
D9F
330
1F
100
AcDbEntity
  8
AM_VIS
100
AcDbLine
 10
370.3233675915801
 20
207.6474532417463
 30
0.0
 11
370.3233675915801
 21
198.1474532417463
 31
0.0
  0
LINE
  5
DA0
330
1F
100
AcDbEntity
  8
AM_VIS
100
AcDbLine
 10
370.3233675915801
 20
198.1474532417463
 30
0.0
 11
319.3233675915801
 21
198.1474532417463
 31
0.0
  0
LINE
  5
DA1
330
1F
100
AcDbEntity
  8
AM_VIS
100
AcDbLine
 10
319.3233675915801
 20
198.1474532417463
 30
0.0
 11
319.3233675915801
 21
207.6474532417463
 31
0.0
  0
LINE
  5
DA2
330
1F
100
AcDbEntity
  8
AM_VIS
100
AcDbLine
 10
326.8233675915801
 20
239.6474532417463
 30
0.0
 11
310.3233675915801
 21
239.6474532417463
 31
0.0
  0
LINE
  5
DA3
330
1F
100
AcDbEntity
  8
AM_VIS
100
AcDbLine
 10
326.8233675915801
 20
207.6474532417463
 30
0.0
 11
310.3233675915801
 21
207.6474532417463
 31
0.0
  0
LINE
  5
DA4
330
1F
100
AcDbEntity
  8
AM_VIS
100
AcDbLine
 10
335.7215125228965
 20
209.3921418812225
 30
0.0
 11
339.8298902351493
 21
209.3921418812225
 31
0.0
  0
LINE
  5
DA5
330
1F
100
AcDbEntity
  8
AM_VIS
100
AcDbLine
 10
326.8233675915801
 20
209.3921418812225
 30
0.0
 11
329.3823647790423
 21
209.3921418812225
 31
0.0
  0
LINE
  5
DA6
330
1F
100
AcDbEntity
  8
AM_VIS
100
AcDbLine
 10
335.7215125228965
 20
237.8921418812225
 30
0.0
 11
339.8293584336278
 21
237.8921418812225
 31
0.0
  0
LINE
  5
DA7
330
1F
100
AcDbEntity
  8
AM_VIS
100
AcDbLine
 10
326.8233675915801
 20
237.8921418812225
 30
0.0
 11
329.370622407351
 21
237.8921418812225
 31
0.0
  0
LINE
  5
DA8
330
1F
100
AcDbEntity
  8
AM_VIS
100
AcDbLine
 10
349.816844948011
 20
209.3921418812225
 30
0.0
 11
362.8233675915801
 21
209.3921418812225
 31
0.0
  0
LINE
  5
DA9
330
1F
100
AcDbEntity
  8
AM_VIS
100
AcDbLine
 10
349.8173767495324
 20
237.8921418812225
 30
0.0
 11
362.8233675915801
 21
237.8921418812225
 31
0.0
  0
ARC
  5
DAA
330
1F
100
AcDbEntity
  8
AM_VIS
100
AcDbCircle
 10
344.8233675915801
 20
237.6474532417463
 30
0.0
 40
5.0
100
AcDbArc
 50
0.0
 51
180.0
  0
ARC
  5
DAB
330
1F
100
AcDbEntity
  8
AM_VIS
100
AcDbCircle
 10
344.8233675915801
 20
209.6474532417463
 30
0.0
 40
5.0
100
AcDbArc
 50
180.0
 51
0.0
  0
ARC
  5
DAC
330
1F
100
AcDbEntity
  8
AM_VIS
100
AcDbCircle
 10
344.8233675915801
 20
223.6474532417463
 30
0.0
 40
8.5
100
AcDbArc
 50
306.0318790724712
 51
53.96812092752884
  0
ARC
  5
DAD
330
1F
100
AcDbEntity
  8
AM_VIS
100
AcDbCircle
 10
344.8233675915801
 20
223.6474532417463
 30
0.0
 40
8.5
100
AcDbArc
 50
126.0318790724711
 51
233.9681209275289
  0
LINE
  5
DAE
330
1F
100
AcDbEntity
  8
AM_VIS
100
AcDbLine
 10
389.8233675915801
 20
239.6474532417463
 30
0.0
 11
389.8233675915801
 21
207.6474532417463
 31
0.0
  0
LINE
  5
DAF
330
1F
100
AcDbEntity
  8
AM_VIS
100
AcDbLine
 10
362.8233675915801
 20
239.6474532417463
 30
0.0
 11
362.8233675915801
 21
207.6474532417463
 31
0.0
  0
LINE
  5
DB0
330
1F
100
AcDbEntity
  8
AM_VIS
100
AcDbLine
 10
310.3233675915801
 20
207.6474532417463
 30
0.0
 11
310.3233675915801
 21
239.6474532417463
 31
0.0
  0
LINE
  5
DB1
330
1F
100
AcDbEntity
  8
AM_VIS
100
AcDbLine
 10
326.8233675915801
 20
207.6474532417463
 30
0.0
 11
326.8233675915801
 21
239.6474532417463
 31
0.0
  0
CIRCLE
  5
DB2
330
1F
100
AcDbEntity
  8
AM_VIS
100
AcDbCircle
 10
344.8233675915801
 20
209.6474532417463
 30
0.0
 40
2.0
  0
CIRCLE
  5
DB3
330
1F
100
AcDbEntity
  8
AM_VIS
100
AcDbCircle
 10
344.8233675915801
 20
237.6474532417463
 30
0.0
 40
2.0
  0
CIRCLE
  5
DB4
330
1F
100
AcDbEntity
  8
AM_VIS
100
AcDbCircle
 10
323.8233675915801
 20
202.6474532417463
 30
0.0
 40
2.5
  0
CIRCLE
  5
DB5
330
1F
100
AcDbEntity
  8
AM_VIS
100
AcDbCircle
 10
365.8233675915802
 20
244.6474532417463
 30
0.0
 40
2.5
  0
CIRCLE
  5
DB6
330
1F
100
AcDbEntity
  8
AM_VIS
100
AcDbCircle
 10
323.8233675915801
 20
244.6474532417463
 30
0.0
 40
2.5
  0
CIRCLE
  5
DB7
330
1F
100
AcDbEntity
  8
AM_VIS
100
AcDbCircle
 10
365.8233675915801
 20
202.6474532417463
 30
0.0
 40
2.5
  0
LINE
  5
E39
330
1F
100
AcDbEntity
  8
0
100
AcDbLine
 10
326.8233675915801
 20
288.7035384397902
 30
0.0
 11
310.3233675915801
 21
288.7035384397902
 31
0.0
  0
DIMENSION
  5
E3B
330
1F
100
AcDbEntity
  8
AM_5
100
AcDbDimension
  2
*D9
 10
370.3233675915801
 20
261.1474532417463
 30
0.0
 11
344.8233675915801
 21
263.5974532417463
 31
0.0
 70
    32
 71
     5
 42
51.0
  3
AM_ISO$0
100
AcDbAlignedDimension
 13
319.3233675915801
 23
249.1474532417463
 33
0.0
 14
370.3233675915801
 24
249.1474532417463
 34
0.0
100
AcDbRotatedDimension
1001
ACAD
1000
DSTYLE
1002
{
1070
   272
1070
     8
1002
}
  0
DIMENSION
  5
E3C
330
1F
100
AcDbEntity
  8
AM_5
100
AcDbDimension
  2
*D10
 10
290.3233675915801
 20
198.1474532417463
 30
0.0
 11
287.8733675915801
 21
223.6474532417463
 31
0.0
 70
    32
 71
     5
 42
51.0
  3
AM_ISO$0
100
AcDbAlignedDimension
 13
319.3233675915801
 23
249.1474532417463
 33
0.0
 14
319.3233675915801
 24
198.1474532417463
 34
0.0
 50
90.0
100
AcDbRotatedDimension
1001
ACAD
1000
DSTYLE
1002
{
1070
   272
1070
     8
1002
}
  0
DIMENSION
  5
E3D
330
1F
100
AcDbEntity
  8
AM_5
100
AcDbDimension
  2
*D11
 10
389.8233675915801
 20
269.1474532417463
 30
0.0
 11
350.0733675915801
 21
271.5974532417463
 31
0.0
 70
    32
 71
     5
 42
79.5
  3
AM_ISO$0
100
AcDbAlignedDimension
 13
310.3233675915801
 23
239.6474532417463
 33
0.0
 14
389.8233675915801
 24
239.6474532417463
 34
0.0
100
AcDbRotatedDimension
1001
ACAD
1000
DSTYLE
1002
{
1070
   272
1070
     8
1002
}
  0
LINE
  5
E3E
330
1F
100
AcDbEntity
  8
AM_7
 62
     1
100
AcDbLine
 10
373.3233675915801
 20
373.2776286388717
 30
0.0
 11
373.3233675915801
 21
379.1283974093488
 31
0.0
  0
TEXT
  5
E3F
330
1F
100
AcDbEntity
  8
LOGO
 62
     7
100
AcDbText
 10
248.6867580346786
 20
154.7142139623191
 30
0.0
 40
4.645727218099547
  1
Order example:
 41
0.8
  7
CHINESET
100
AcDbText
  0
TEXT
  5
E40
330
1F
100
AcDbEntity
  8
LOGO
 62
     7
100
AcDbText
 10
249.5202399162069
 20
161.2544359753093
 30
0.0
 40
6.968590827149321
  1
訂購代號：
  7
CHINESET
100
AcDbText
  0
LINE
  5
E41
330
1F
100
AcDbEntity
  8
LOGO
 62
     4
100
AcDbLine
 10
513.1635907197785
 20
169.978319265662
 30
0.0
 11
170.013674702371
 21
169.978319265662
 31
0.0
  0
LINE
  5
E42
330
1F
100
AcDbEntity
  8
LOGO
 62
     4
100
AcDbLine
 10
246.6681738010136
 20
135.1353651299147
 30
0.0
 11
246.6681738010136
 21
169.978319265662
 31
0.0
  0
TEXT
  5
E43
330
1F
100
AcDbEntity
  8
LOGO
  6
Continuous
100
AcDbText
 10
182.5294204500404
 20
141.9802108872797
 30
0.0
 40
5.226443120361991
  1
金器工業股份有限公司
  7
CHINESET
100
AcDbText
  0
TEXT
  5
E44
330
1F
100
AcDbEntity
  8
LOGO
  6
Continuous
100
AcDbText
 10
172.9294784387153
 20
136.7527437938351
 30
0.0
 40
3.48429541357466
  1
MINDMAN INDUSTRIAL CO., LTD.
 41
0.85
  7
CHINESET
100
AcDbText
  0
LINE
  5
E45
330
1F
100
AcDbEntity
  8
LOGO
 62
     4
100
AcDbLine
 10
246.6681738010136
 20
163.0097284385122
 30
0.0
 11
195.5651744019182
 21
163.0097284385122
 31
0.0
  0
LINE
  5
E46
330
1F
100
AcDbEntity
  8
LOGO
 62
     4
100
AcDbLine
 10
246.6681738010136
 20
156.0411376113632
 30
0.0
 11
195.5651744019182
 21
156.0411376113632
 31
0.0
  0
LINE
  5
E47
330
1F
100
AcDbEntity
  8
LOGO
 62
     4
100
AcDbLine
 10
246.6681738010136
 20
149.0725467842143
 30
0.0
 11
170.013674702371
 21
149.0725467842143
 31
0.0
  0
LINE
  5
E48
330
1F
100
AcDbEntity
  8
LOGO
 62
     4
100
AcDbLine
 10
195.5651744019182
 20
149.0725467842143
 30
0.0
 11
195.5651744019182
 21
169.978319265662
 31
0.0
  0
TEXT
  5
E49
330
1F
100
AcDbEntity
  8
LOGO
100
AcDbText
 10
230.4916624663679
 20
150.814694491001
 30
0.0
 40
3.48429541357466
  1
mm
  7
CHINESET
 72
     1
 11
234.8055520260318
 21
152.5568421977884
 31
0.0
100
AcDbText
 73
     2
  0
TEXT
  5
E4A
330
1F
100
AcDbEntity
  8
LOGO
100
AcDbText
 10
228.6665553449717
 20
164.7518761452998
 30
0.0
 40
3.48429541357466
  1
1 : 1
  7
CHINESET
 72
     1
 11
234.8055520260318
 21
166.4940238520871
 31
0.0
100
AcDbText
 73
     2
  0
LINE
  5
E4B
330
1F
100
AcDbEntity
  8
LOGO
 62
     4
100
AcDbLine
 10
223.4395377105157
 20
149.0725467842143
 30
0.0
 11
223.4395377105157
 21
169.978319265662
 31
0.0
  0
TEXT
  5
E4C
330
1F
100
AcDbEntity
  8
LOGO
100
AcDbText
 10
198.4381626290936
 20
164.7535908576096
 30
0.0
 40
3.48429541357466
  1
比例 Scale:
 41
0.9
  7
CHINESET
 72
     4
 11
209.502356056217
 21
166.4940238520871
 31
0.0
100
AcDbText
  0
TEXT
  5
E4D
330
1F
100
AcDbEntity
  8
LOGO
100
AcDbText
 10
198.2375045450082
 20
157.8322975116727
 30
0.0
 40
3.48429541357466
  1
投影  View:
 41
0.9
  7
CHINESET
 72
     4
 11
209.502356056217
 21
159.5254330249374
 31
0.0
100
AcDbText
  0
TEXT
  5
E4E
330
1F
100
AcDbEntity
  8
LOGO
100
AcDbText
 10
198.5781566412461
 20
150.814694491001
 30
0.0
 40
3.48429541357466
  1
單位  Unit:
 41
0.9
  7
CHINESET
 72
     4
 11
209.502356056217
 21
152.5568421977884
 31
0.0
100
AcDbText
  0
LWPOLYLINE
  5
E4F
330
1F
100
AcDbEntity
  8
LOGO
 62
     4
100
AcDbPolyline
 90
        4
 70
     1
 43
0.0
 10
170.0136747023709
 20
169.978319265662
 10
513.1635907197785
 20
169.978319265662
 10
513.1635907197785
 20
488.4602617205729
 10
170.0136747023709
 20
488.4602617205729
1001
GENIUS_GENREC_14
1002
{
1000
PYDIR
1011
170.0136747023709
1021
488.4602617205729
1031
0.0
1002
}
1002
{
1000
PXDIR
1011
513.1635907197785
1021
169.978319265662
1031
0.0
1002
}
1002
{
1000
PORI
1011
170.0136747023709
1021
169.978319265662
1031
0.0
1002
}
1002
{
1000
PINS
1011
170.0136747023709
1021
169.978319265662
1031
0.0
1002
}
1002
{
1000
PINS2
1011
513.1635907197785
1021
488.4602617205729
1031
0.0
1002
}
1002
{
1000
C
1070
     1
1002
}
1001
GENIUS_GENODEF_13
1002
{
1000
HIER
1070
     0
1002
}
1002
{
1000
MANEDIT
1070
     0
1002
}
1002
{
1000
NOSEL
1070
     0
1002
}
1002
{
1000
BEHIND
1070
     0
1002
}
1002
{
1000
OTHER
1070
     0
1002
}
1002
{
1000
REACTOR
1002
}
1001
GENIUS_GENOBJ-N-REC_13
1002
{
1000
OWNER
1000
GEN
1002
}
  0
SOLID
  5
E50
330
1F
100
AcDbEntity
  8
LOGO
 62
     5
100
AcDbTrace
 10
173.6286871126426
 20
154.8646919588832
 30
0.0
 11
175.1352050215606
 21
154.8646919588832
 31
0.0
 12
181.4210211242873
 22
169.1506376468997
 32
0.0
 13
182.9275390332061
 23
169.150637646899
 33
0.0
  0
SOLID
  5
E51
330
1F
100
AcDbEntity
  8
LOGO
 62
     5
100
AcDbTrace
 10
175.7585917424939
 20
154.8646919588832
 30
0.0
 11
177.2651096514118
 21
154.8646919588832
 31
0.0
 12
182.9275390332061
 22
168.0077619918579
 32
0.0
 13
181.4210211242873
 23
162.4838629924917
 33
0.0
  0
SOLID
  5
E52
330
1F
100
AcDbEntity
  8
LOGO
 62
     2
100
AcDbTrace
 10
175.1352050215606
 20
154.8646919588832
 30
0.0
 11
175.7585917424939
 21
154.8646919588832
 31
0.0
 12
182.9275390332061
 22
169.150637646899
 32
0.0
 13
183.5509257541385
 23
169.150637646899
 33
0.0
  0
SOLID
  5
E53
330
1F
100
AcDbEntity
  8
LOGO
 62
     5
100
AcDbTrace
 10
171.2133694612015
 20
149.6698026177873
 30
0.0
 11
171.7328583953117
 21
149.6698026177873
 31
0.0
 12
173.1957796675517
 22
152.2672472883352
 32
0.0
 13
173.7152686016603
 23
152.2672472883352
 33
0.0
  0
SOLID
  5
E54
330
1F
100
AcDbEntity
  8
LOGO
 62
     5
100
AcDbTrace
 10
173.1957796675517
 20
152.2672472883352
 30
0.0
 11
173.7152686016603
 21
152.2672472883352
 31
0.0
 12
173.1957796675517
 22
149.6698026177873
 32
0.0
 13
173.7152686016603
 23
149.6698026177873
 33
0.0
  0
SOLID
  5
E55
330
1F
100
AcDbEntity
  8
LOGO
 62
     5
100
AcDbTrace
 10
173.1957796675517
 20
149.6698026177873
 30
0.0
 11
173.7152686016603
 21
149.6698026177873
 31
0.0
 12
175.1781898739027
 22
152.2672472883352
 32
0.0
 13
175.6976788080122
 23
152.2672472883352
 33
0.0
  0
SOLID
  5
E56
330
1F
100
AcDbEntity
  8
LOGO
 62
     5
100
AcDbTrace
 10
175.1781898739027
 20
152.2672472883352
 30
0.0
 11
175.6976788080122
 21
152.2672472883352
 31
0.0
 12
175.1781898739027
 22
149.6698026177873
 32
0.0
 13
175.6976788080122
 23
149.6698026177873
 33
0.0
  0
POLYLINE
  5
E57
330
1F
100
AcDbEntity
  8
LOGO
 62
     5
100
AcDb2dPolyline
 66
     1
 10
0.0
 20
0.0
 30
0.0
 40
0.5203214484271494
 41
0.5203214484271494
  0
VERTEX
  5
E58
330
E57
100
AcDbEntity
  8
LOGO
 62
     5
100
AcDbVertex
100
AcDb2dVertex
 10
192.5912819791228
 20
151.2282694201156
 30
0.0
 42
1.0
  0
VERTEX
  5
E59
330
E57
100
AcDbEntity
  8
LOGO
 62
     5
100
AcDbVertex
100
AcDb2dVertex
 10
191.030317633841
 20
151.2282694201156
 30
0.0
 42
1.0
  0
SEQEND
  5
E5A
330
E57
100
AcDbEntity
  8
LOGO
 62
     5
  0
POLYLINE
  5
E5B
330
1F
100
AcDbEntity
  8
LOGO
 62
     5
100
AcDb2dPolyline
 66
     1
 10
0.0
 20
0.0
 30
0.0
 70
     1
  0
VERTEX
  5
E5C
330
E5B
100
AcDbEntity
  8
LOGO
 62
     5
100
AcDbVertex
100
AcDb2dVertex
 10
188.0878304112905
 20
150.9685249530609
 30
0.0
 42
1.000000057330635
  0
VERTEX
  5
E5D
330
E5B
100
AcDbEntity
  8
LOGO
 62
     5
100
AcDbVertex
100
AcDb2dVertex
 10
189.6462972136195
 20
150.9685249530609
 30
0.0
 42
1.000000057330635
  0
SEQEND
  5
E5E
330
E5B
100
AcDbEntity
  8
LOGO
 62
     5
  0
CIRCLE
  5
E5F
330
1F
100
AcDbEntity
  8
LOGO
 62
     5
100
AcDbCircle
 10
188.8670638124562
 20
150.9685249530609
 30
0.0
 40
0.7792334011644991
  0
POLYLINE
  5
E60
330
1F
100
AcDbEntity
  8
LOGO
 62
     5
100
AcDb2dPolyline
 66
     1
 10
0.0
 20
0.0
 30
0.0
 70
     1
 40
0.5203214484271494
 41
0.5203214484271494
  0
VERTEX
  5
E61
330
E60
100
AcDbEntity
  8
LOGO
 62
     5
100
AcDbVertex
100
AcDb2dVertex
 10
187.8264209156012
 20
150.9685249530609
 30
0.0
 42
1.0
  0
VERTEX
  5
E62
330
E60
100
AcDbEntity
  8
LOGO
 62
     5
100
AcDbVertex
100
AcDb2dVertex
 10
189.9077067093097
 20
150.9685249530609
 30
0.0
 42
1.0
  0
SEQEND
  5
E63
330
E60
100
AcDbEntity
  8
LOGO
 62
     5
  0
LINE
  5
E64
330
1F
100
AcDbEntity
  8
LOGO
100
AcDbLine
 10
192.8497776747004
 20
149.6698026177873
 30
0.0
 11
192.8497776747004
 21
151.2282694201156
 31
0.0
  0
SOLID
  5
E65
330
1F
100
AcDbEntity
  8
LOGO
 62
     5
100
AcDbTrace
 10
189.6462452647285
 20
152.2672472883352
 30
0.0
 11
190.1657341988372
 21
152.2672472883352
 31
0.0
 12
189.6462452647285
 22
149.6698026177873
 32
0.0
 13
190.1657341988372
 23
149.6698026177873
 33
0.0
  0
SOLID
  5
E66
330
1F
100
AcDbEntity
  8
LOGO
 62
     5
100
AcDbTrace
 10
190.7718219382618
 20
149.6698026177873
 30
0.0
 11
191.2913108723721
 21
149.6698026177873
 31
0.0
 12
190.7718219382618
 22
152.2672472883352
 32
0.0
 13
191.2913108723721
 23
152.2672472883352
 33
0.0
  0
SOLID
  5
E67
330
1F
100
AcDbEntity
  8
LOGO
 62
     5
100
AcDbTrace
 10
192.3302887405917
 20
151.2282694201156
 30
0.0
 11
192.8497776747004
 21
151.2282694201156
 31
0.0
 12
192.3302887405917
 22
149.6698026177873
 32
0.0
 13
192.8497776747004
 23
149.6698026177873
 33
0.0
  0
SOLID
  5
E68
330
1F
100
AcDbEntity
  8
LOGO
 62
     5
100
AcDbTrace
 10
190.7198730448508
 20
168.0077619918579
 30
0.0
 11
189.2133551359335
 21
162.4838629924917
 31
0.0
 12
190.7198730448508
 22
154.8646919588832
 32
0.0
 13
189.2133551359335
 23
154.8646919588832
 33
0.0
  0
SOLID
  5
E69
330
1F
100
AcDbEntity
  8
LOGO
 62
     5
100
AcDbTrace
 10
191.3432597657831
 20
154.8646919588832
 30
0.0
 11
192.8497776747004
 21
154.8646919588832
 31
0.0
 12
191.3432597657831
 22
169.150637646899
 32
0.0
 13
192.8497776747004
 23
169.1506376468997
 33
0.0
  0
SOLID
  5
E6A
330
1F
100
AcDbEntity
  8
LOGO
 62
     2
100
AcDbTrace
 10
190.7198730448508
 20
169.1506376468997
 30
0.0
 11
191.3432597657831
 21
169.150637646899
 31
0.0
 12
190.7198730448508
 22
154.8646919588832
 32
0.0
 13
191.3432597657831
 23
154.8646919588832
 33
0.0
  0
POLYLINE
  5
E6B
330
1F
100
AcDbEntity
  8
LOGO
 62
     5
100
AcDb2dPolyline
 66
     1
 10
0.0
 20
0.0
 30
0.0
 40
0.5203214484271494
 41
0.5203214484271494
  0
VERTEX
  5
E6C
330
E6B
100
AcDbEntity
  8
LOGO
 62
     5
100
AcDbVertex
100
AcDb2dVertex
 10
185.1452392909555
 20
151.2282694201156
 30
0.0
 42
1.0
  0
VERTEX
  5
E6D
330
E6B
100
AcDbEntity
  8
LOGO
 62
     5
100
AcDbVertex
100
AcDb2dVertex
 10
183.5842749456737
 20
151.2282694201156
 30
0.0
 42
1.0
  0
SEQEND
  5
E6E
330
E6B
100
AcDbEntity
  8
LOGO
 62
     5
  0
POLYLINE
  5
E6F
330
1F
100
AcDbEntity
  8
LOGO
 62
     5
100
AcDb2dPolyline
 66
     1
 10
0.0
 20
0.0
 30
0.0
 40
0.5203214484271494
 41
0.5203214484271494
  0
VERTEX
  5
E70
330
E6F
100
AcDbEntity
  8
LOGO
 62
     5
100
AcDbVertex
100
AcDb2dVertex
 10
186.7037060932829
 20
151.2282694201156
 30
0.0
 42
1.0
  0
VERTEX
  5
E71
330
E6F
100
AcDbEntity
  8
LOGO
 62
     5
100
AcDbVertex
100
AcDb2dVertex
 10
185.1427417480019
 20
151.2282694201156
 30
0.0
 42
1.0
  0
SEQEND
  5
E72
330
E6F
100
AcDbEntity
  8
LOGO
 62
     5
  0
POLYLINE
  5
E73
330
1F
100
AcDbEntity
  8
LOGO
 62
     5
100
AcDb2dPolyline
 66
     1
 10
0.0
 20
0.0
 30
0.0
 40
0.5203214484271494
 41
0.5203214484271494
  0
VERTEX
  5
E74
330
E73
100
AcDbEntity
  8
LOGO
 62
     5
100
AcDbVertex
100
AcDb2dVertex
 10
179.2576634051155
 20
151.2282694201156
 30
0.0
 42
1.0
  0
VERTEX
  5
E75
330
E73
100
AcDbEntity
  8
LOGO
 62
     5
100
AcDbVertex
100
AcDb2dVertex
 10
177.6966990598346
 20
151.2282694201156
 30
0.0
 42
1.0
  0
SEQEND
  5
E76
330
E73
100
AcDbEntity
  8
LOGO
 62
     5
  0
SOLID
  5
E77
330
1F
100
AcDbEntity
  8
LOGO
 62
     5
100
AcDbTrace
 10
177.4382033642562
 20
152.2672472883352
 30
0.0
 11
177.9576922983648
 21
152.2672472883352
 31
0.0
 12
177.4382033642562
 22
149.6698026177873
 32
0.0
 13
177.9576922983648
 23
149.6698026177873
 33
0.0
  0
SOLID
  5
E78
330
1F
100
AcDbEntity
  8
LOGO
 62
     5
100
AcDbTrace
 10
178.9966701665854
 20
151.2282694201156
 30
0.0
 11
179.5161591006955
 21
151.2282694201156
 31
0.0
 12
178.9966701665854
 22
149.6698026177873
 32
0.0
 13
179.5161591006955
 23
149.6698026177873
 33
0.0
  0
POLYLINE
  5
E79
330
1F
100
AcDbEntity
  8
LOGO
 62
     5
100
AcDb2dPolyline
 66
     1
 10
0.0
 20
0.0
 30
0.0
 70
     1
 40
0.5203214484271494
 41
0.5203214484271494
  0
VERTEX
  5
E7A
330
E79
100
AcDbEntity
  8
LOGO
 62
     5
100
AcDbVertex
100
AcDb2dVertex
 10
180.3803782274331
 20
150.9685249530609
 30
0.0
 42
1.0
  0
VERTEX
  5
E7B
330
E79
100
AcDbEntity
  8
LOGO
 62
     5
100
AcDbVertex
100
AcDb2dVertex
 10
182.4616640211424
 20
150.9685249530609
 30
0.0
 42
1.0
  0
SEQEND
  5
E7C
330
E79
100
AcDbEntity
  8
LOGO
 62
     5
  0
SOLID
  5
E7D
330
1F
100
AcDbEntity
  8
LOGO
 62
     5
100
AcDbTrace
 10
182.2002025765596
 20
153.0464806895002
 30
0.0
 11
182.719691510669
 21
153.0464806895002
 31
0.0
 12
182.2002025765596
 22
149.6698026177873
 32
0.0
 13
182.719691510669
 23
149.6698026177873
 33
0.0
  0
SOLID
  5
E7E
330
1F
100
AcDbEntity
  8
LOGO
 62
     5
100
AcDbTrace
 10
183.3257792500961
 20
152.2672472883352
 30
0.0
 11
183.8452681842047
 21
152.2672472883352
 31
0.0
 12
183.3257792500961
 22
149.6698026177873
 32
0.0
 13
183.8452681842047
 23
149.6698026177873
 33
0.0
  0
SOLID
  5
E7F
330
1F
100
AcDbEntity
  8
LOGO
 62
     5
100
AcDbTrace
 10
184.8842460524235
 20
151.2282694201156
 30
0.0
 11
185.4037349865339
 21
151.2282694201156
 31
0.0
 12
184.8842460524235
 22
149.6698026177873
 32
0.0
 13
185.4037349865339
 23
149.6698026177873
 33
0.0
  0
SOLID
  5
E80
330
1F
100
AcDbEntity
  8
LOGO
 62
     5
100
AcDbTrace
 10
186.4427128547526
 20
151.2282694201156
 30
0.0
 11
186.9622017888621
 21
151.2282694201156
 31
0.0
 12
186.4427128547526
 22
149.6698026177865
 32
0.0
 13
186.9622017888621
 23
149.6698026177865
 33
0.0
  0
SOLID
  5
E81
330
1F
100
AcDbEntity
  8
LOGO
 62
     5
100
AcDbTrace
 10
176.3126266907205
 20
152.6308895422122
 30
0.0
 11
176.8321156248315
 21
152.6308895422122
 31
0.0
 12
176.3126266907205
 22
153.0464806895002
 32
0.0
 13
176.8321156248315
 23
153.0464806895002
 33
0.0
  0
SOLID
  5
E82
330
1F
100
AcDbEntity
  8
LOGO
 62
     5
100
AcDbTrace
 10
176.3126266907205
 20
152.2672472883352
 30
0.0
 11
176.8321156248315
 21
152.2672472883352
 31
0.0
 12
176.3126266907205
 22
149.6698026177865
 32
0.0
 13
176.8321156248315
 23
149.6698026177873
 33
0.0
  0
SOLID
  5
E83
330
1F
100
AcDbEntity
  8
LOGO
 62
     5
100
AcDbTrace
 10
181.4210211242873
 20
154.8646919588832
 30
0.0
 11
182.9275390332061
 21
154.8646919588832
 31
0.0
 12
181.4210211242873
 22
162.4838629924917
 32
0.0
 13
182.9275390332061
 23
168.0077619918579
 33
0.0
  0
SOLID
  5
E84
330
1F
100
AcDbEntity
  8
LOGO
 62
     5
100
AcDbTrace
 10
183.5509257541385
 20
169.150637646899
 30
0.0
 11
185.0574436630557
 21
169.1506376468997
 31
0.0
 12
183.5509257541385
 22
156.0075676139243
 32
0.0
 13
185.0574436630557
 23
161.5314666132905
 33
0.0
  0
SOLID
  5
E85
330
1F
100
AcDbEntity
  8
LOGO
 62
     2
100
AcDbTrace
 10
182.9275390332061
 20
169.150637646899
 30
0.0
 11
183.5509257541385
 21
169.150637646899
 31
0.0
 12
182.9275390332061
 22
154.8646919588832
 32
0.0
 13
183.5509257541385
 23
154.8646919588832
 33
0.0
  0
SOLID
  5
E86
330
1F
100
AcDbEntity
  8
LOGO
 62
     5
100
AcDbTrace
 10
183.5509257541385
 20
156.0075676139243
 30
0.0
 11
185.0574436630557
 21
161.5314666132905
 31
0.0
 12
190.7198730448508
 22
169.1506376468997
 32
0.0
 13
189.2133551359335
 23
169.1506376468997
 33
0.0
  0
SOLID
  5
E87
330
1F
100
AcDbEntity
  8
LOGO
 62
     5
100
AcDbTrace
 10
183.5509257541385
 20
154.8646919588832
 30
0.0
 11
185.0574436630557
 21
154.8646919588832
 31
0.0
 12
190.7198730448508
 22
168.0077619918579
 32
0.0
 13
189.2133551359335
 23
162.4838629924917
 33
0.0
  0
SOLID
  5
E88
330
1F
100
AcDbEntity
  8
LOGO
 62
     2
100
AcDbTrace
 10
182.9275390332061
 20
154.8646919588832
 30
0.0
 11
183.5509257541385
 21
154.8646919588832
 31
0.0
 12
190.7198730448508
 22
169.1506376468997
 32
0.0
 13
191.3432597657831
 23
169.150637646899
 33
0.0
  0
LWPOLYLINE
  5
E89
330
1F
100
AcDbEntity
  8
LOGO
 62
     4
100
AcDbPolyline
 90
        4
 70
     1
 43
0.0
 10
170.0136747023709
 20
169.978319265662
 10
513.1635907197785
 20
169.978319265662
 10
513.1635907197785
 20
135.1353651299147
 10
170.0136747023709
 20
135.1353651299147
1001
GENIUS_GENREC_14
1002
{
1000
PYDIR
1011
170.0136747023709
1021
135.1353651299147
1031
0.0
1002
}
1002
{
1000
PXDIR
1011
513.1635907197785
1021
169.978319265662
1031
0.0
1002
}
1002
{
1000
PORI
1011
170.0136747023709
1021
169.978319265662
1031
0.0
1002
}
1002
{
1000
PINS
1011
170.0136747023709
1021
169.978319265662
1031
0.0
1002
}
1002
{
1000
PINS2
1011
513.1635907197785
1021
135.1353651299147
1031
0.0
1002
}
1002
{
1000
C
1070
     1
1002
}
1001
GENIUS_GENOBJ-N-REC_13
1002
{
1000
OWNER
1000
GEN
1002
}
1001
GENIUS_GENODEF_13
1002
{
1000
HIER
1070
     0
1002
}
1002
{
1000
MANEDIT
1070
     0
1002
}
1002
{
1000
NOSEL
1070
     0
1002
}
1002
{
1000
BEHIND
1070
     0
1002
}
1002
{
1000
OTHER
1070
     0
1002
}
1002
{
1000
REACTOR
1002
}
  0
TEXT
  5
E8A
330
1F
100
AcDbEntity
  8
LOGO
100
AcDbText
 10
248.5729694151861
 20
136.9889965376433
 30
0.0
 40
3.4848
  1
10603201
 41
0.7
  7
CHINESET
 72
     1
 11
256.7622494151862
 21
136.9889965376433
 31
0.0
100
AcDbText
  0
LINE
  5
E8B
330
1F
100
AcDbEntity
  8
LOGO
 62
     4
100
AcDbLine
 10
267.5769738010121
 20
142.1039559570653
 30
0.0
 11
267.5769738010136
 21
135.1353651299155
 31
0.0
  0
LINE
  5
E8C
330
1F
100
AcDbEntity
  8
LOGO
 62
     4
100
AcDbLine
 10
267.5769738010121
 20
142.1039559570653
 30
0.0
 11
246.6681738010136
 21
142.1039559570653
 31
0.0
  0
CIRCLE
  5
E8D
330
1F
100
AcDbEntity
  8
LOGO
  6
Continuous
100
AcDbCircle
 10
229.8911464775302
 20
159.5328859583251
 30
0.0
 40
2.023063928190668
  0
CIRCLE
  5
E8E
330
1F
100
AcDbEntity
  8
LOGO
  6
Continuous
100
AcDbCircle
 10
229.8911464775302
 20
159.5328859583251
 30
0.0
 40
1.185336370202936
  0
LINE
  5
E8F
330
1F
100
AcDbEntity
  8
LOGO
100
AcDbLine
 10
242.6043149486914
 20
157.5098220301341
 30
0.0
 11
242.6043149486914
 21
161.5559498865162
 31
0.0
  0
LINE
  5
E90
330
1F
100
AcDbEntity
  8
LOGO
100
AcDbLine
 10
236.2621256632245
 20
158.347549588122
 30
0.0
 11
236.2621256632245
 21
160.7182223285283
 31
0.0
  0
LINE
  5
E91
330
1F
100
AcDbEntity
  8
LOGO
  6
Continuous
100
AcDbLine
 10
236.2621256632245
 20
160.7182223285283
 30
0.0
 11
242.6043149486914
 21
161.5559498865162
 31
0.0
  0
LINE
  5
E92
330
1F
100
AcDbEntity
  8
LOGO
  6
Continuous
100
AcDbLine
 10
236.2621256632245
 20
158.347549588122
 30
0.0
 11
242.6043149486914
 21
157.5098220301341
 31
0.0
  0
LINE
  5
E93
330
1F
100
AcDbEntity
  8
LOGO
  6
AM_ISO08W050x2
 48
0.3
100
AcDbLine
 10
227.1023225595225
 20
159.5328859583251
 30
0.0
 11
232.6799703955379
 21
159.5328859583251
 31
0.0
1001
GENIUS_GENOREF_13
1005
FEA
  0
LINE
  5
E94
330
1F
100
AcDbEntity
  8
LOGO
  6
AM_ISO08W050x2
 48
0.3
100
AcDbLine
 10
229.8911464775302
 20
156.7440620403174
 30
0.0
 11
229.8911464775302
 21
162.3217098763328
 31
0.0
1001
GENIUS_GENOREF_13
1005
FE9
  0
LINE
  5
E95
330
1F
100
AcDbEntity
  8
LOGO
  6
CENTER
 48
0.5
100
AcDbLine
 10
235.7549268007136
 20
159.5328859583251
 30
0.0
 11
243.2429528790127
 21
159.5328859583251
 31
0.0
1001
GENIUS_GENOREF_13
1005
FE8
  0
LINE
  5
E96
330
1F
100
AcDbEntity
  8
LOGO
 62
     4
100
AcDbLine
 10
317.8217468964227
 20
150.8146944910021
 30
0.0
 11
317.8217468964227
 21
138.0389446412277
 31
0.0
  0
LINE
  5
E97
330
1F
100
AcDbEntity
  8
LOGO
 62
     4
100
AcDbLine
 10
294.5931108059249
 20
150.8146944910021
 30
0.0
 11
294.5931108059249
 21
138.0389446412277
 31
0.0
  0
LINE
  5
E98
330
1F
100
AcDbEntity
  8
LOGO
 62
     4
100
AcDbLine
 10
317.8217468964227
 20
138.0389446412277
 30
0.0
 11
294.5931108059249
 21
138.0389446412277
 31
0.0
  0
LINE
  5
E99
330
1F
100
AcDbEntity
  8
LOGO
 62
     4
100
AcDbLine
 10
322.2719331051012
 20
166.4940238520871
 30
0.0
 11
294.5931108059249
 21
166.4940238520871
 31
0.0
  0
LINE
  5
E9A
330
1F
100
AcDbEntity
  8
LOGO
 62
     4
100
AcDbLine
 10
322.2719331051012
 20
156.0411376113636
 30
0.0
 11
294.5931108059249
 21
156.0411376113636
 31
0.0
  0
LINE
  5
E9B
330
1F
100
AcDbEntity
  8
LOGO
 62
     4
100
AcDbLine
 10
294.5931108059249
 20
166.4940238520871
 30
0.0
 11
294.5931108059249
 21
156.0411376113636
 31
0.0
  0
LINE
  5
E9C
330
1F
100
AcDbEntity
  8
LOGO
 62
     4
100
AcDbLine
 10
322.2719331051012
 20
166.4940238520871
 30
0.0
 11
322.2719331051012
 21
156.0411376113636
 31
0.0
  0
LINE
  5
E9D
330
1F
100
AcDbEntity
  8
LOGO
 62
     4
100
AcDbLine
 10
307.419380223813
 20
156.0411376113636
 30
0.0
 11
307.419380223813
 21
150.8146944910021
 31
0.0
  0
LINE
  5
E9E
330
1F
100
AcDbEntity
  8
LOGO
 62
     4
100
AcDbLine
 10
317.8217468964227
 20
150.8146944910021
 30
0.0
 11
294.5931108059249
 21
150.8146944910021
 31
0.0
  0
TEXT
  5
E9F
330
1F
100
AcDbEntity
  8
LOGO
  6
Continuous
100
AcDbText
 10
302.0471065866229
 20
139.8422146409164
 30
0.0
 40
2.613599999999999
  1
Model
 41
0.8
  7
CHINESET
100
AcDbText
  0
TEXT
  5
EA0
330
1F
100
AcDbEntity
  8
LOGO
100
AcDbText
 10
301.3514512295332
 20
144.6872657699147
 30
0.0
 40
4.355999999999999
  1
型號
  7
CHINESET
100
AcDbText
  0
LINE
  5
EA1
330
1F
100
AcDbEntity
  8
LOGO
  6
Continuous
 62
     7
100
AcDbLine
 10
323.3831613044054
 20
161.2305549567146
 30
0.0
 11
327.9987744594377
 21
161.2305549567146
 31
0.0
  0
LINE
  5
EA2
330
1F
100
AcDbEntity
  8
LOGO
 62
     4
100
AcDbLine
 10
322.9144612928946
 20
150.8146944910021
 30
0.0
 11
322.9144612928946
 21
138.0389446412277
 31
0.0
  0
LINE
  5
EA3
330
1F
100
AcDbEntity
  8
LOGO
 62
     4
100
AcDbLine
 10
342.6430520812133
 20
138.0389446412277
 30
0.0
 11
322.9144612928946
 21
138.0389446412277
 31
0.0
  0
LINE
  5
EA4
330
1F
100
AcDbEntity
  8
LOGO
 62
     4
100
AcDbLine
 10
342.91558795207
 20
166.4940238520871
 30
0.0
 11
329.4547571063613
 21
166.4940238520871
 31
0.0
  0
LINE
  5
EA5
330
1F
100
AcDbEntity
  8
LOGO
 62
     4
100
AcDbLine
 10
342.91558795207
 20
156.0411376113636
 30
0.0
 11
329.4547571063613
 21
156.0411376113636
 31
0.0
  0
LINE
  5
EA6
330
1F
100
AcDbEntity
  8
LOGO
 62
     4
100
AcDbLine
 10
329.4547571063613
 20
166.4940238520871
 30
0.0
 11
329.4547571063613
 21
156.0411376113636
 31
0.0
  0
LINE
  5
EA7
330
1F
100
AcDbEntity
  8
LOGO
 62
     4
100
AcDbLine
 10
342.91558795207
 20
166.4940238520871
 30
0.0
 11
342.91558795207
 21
156.0411376113636
 31
0.0
  0
LINE
  5
EA8
330
1F
100
AcDbEntity
  8
LOGO
 62
     4
100
AcDbLine
 10
336.1851725292152
 20
156.0411376113636
 30
0.0
 11
336.1851725292152
 21
150.8146944910021
 31
0.0
  0
LINE
  5
EA9
330
1F
100
AcDbEntity
  8
LOGO
 62
     4
100
AcDbLine
 10
342.6430520812133
 20
150.8146944910021
 30
0.0
 11
322.9144612928946
 21
150.8146944910021
 31
0.0
  0
LINE
  5
EAA
330
1F
100
AcDbEntity
  8
LOGO
  6
Continuous
 62
     7
100
AcDbLine
 10
362.9181338988847
 20
161.2305549567146
 30
0.0
 11
367.5337470539162
 21
161.2305549567146
 31
0.0
  0
LINE
  5
EAB
330
1F
100
AcDbEntity
  8
LOGO
 62
     4
100
AcDbLine
 10
391.019755253986
 20
150.8146944910021
 30
0.0
 11
391.019755253986
 21
138.0389446412277
 31
0.0
  0
LINE
  5
EAC
330
1F
100
AcDbEntity
  8
LOGO
 62
     4
100
AcDbLine
 10
367.7911191634881
 20
150.8146944910021
 30
0.0
 11
367.7911191634881
 21
138.0389446412277
 31
0.0
  0
LINE
  5
EAD
330
1F
100
AcDbEntity
  8
LOGO
 62
     4
100
AcDbLine
 10
391.019755253986
 20
138.0389446412277
 30
0.0
 11
367.7911191634881
 21
138.0389446412277
 31
0.0
  0
LINE
  5
EAE
330
1F
100
AcDbEntity
  8
LOGO
 62
     4
100
AcDbLine
 10
386.0728465159385
 20
166.4940238520871
 30
0.0
 11
368.2115135540316
 21
166.4940238520871
 31
0.0
  0
LINE
  5
EAF
330
1F
100
AcDbEntity
  8
LOGO
 62
     4
100
AcDbLine
 10
386.0728465159385
 20
156.0411376113636
 30
0.0
 11
368.2115135540316
 21
156.0411376113636
 31
0.0
  0
LINE
  5
EB0
330
1F
100
AcDbEntity
  8
LOGO
 62
     4
100
AcDbLine
 10
368.2115135540316
 20
166.4940238520871
 30
0.0
 11
368.2115135540316
 21
156.0411376113636
 31
0.0
  0
LINE
  5
EB1
330
1F
100
AcDbEntity
  8
LOGO
 62
     4
100
AcDbLine
 10
386.0728465159385
 20
166.4940238520871
 30
0.0
 11
386.0728465159385
 21
156.0411376113636
 31
0.0
  0
LINE
  5
EB2
330
1F
100
AcDbEntity
  8
LOGO
 62
     4
100
AcDbLine
 10
377.142180034985
 20
156.0411376113636
 30
0.0
 11
377.142180034985
 21
150.8146944910021
 31
0.0
  0
LINE
  5
EB3
330
1F
100
AcDbEntity
  8
LOGO
 62
     4
100
AcDbLine
 10
391.019755253986
 20
150.8146944910021
 30
0.0
 11
367.7911191634881
 21
150.8146944910021
 31
0.0
  0
LINE
  5
EB4
330
1F
100
AcDbEntity
  8
LOGO
  6
Continuous
 62
     7
100
AcDbLine
 10
387.5597072412739
 20
161.2305549567146
 30
0.0
 11
392.1753203963078
 21
161.2305549567146
 31
0.0
  0
LINE
  5
EB5
330
1F
100
AcDbEntity
  8
LOGO
 62
     4
100
AcDbLine
 10
412.1343358835033
 20
150.8146944910021
 30
0.0
 11
412.1343358835033
 21
138.0389446412277
 31
0.0
  0
LINE
  5
EB6
330
1F
100
AcDbEntity
  8
LOGO
 62
     4
100
AcDbLine
 10
393.2109086526862
 20
150.8146944910021
 30
0.0
 11
393.2109086526862
 21
138.0389446412277
 31
0.0
  0
LINE
  5
EB7
330
1F
100
AcDbEntity
  8
LOGO
 62
     4
100
AcDbLine
 10
412.1343358835033
 20
138.0389446412277
 30
0.0
 11
393.2109086526862
 21
138.0389446412277
 31
0.0
  0
LINE
  5
EB8
330
1F
100
AcDbEntity
  8
LOGO
 62
     4
100
AcDbLine
 10
404.7528837287805
 20
166.4940238520871
 30
0.0
 11
393.6313030432305
 21
166.4940238520871
 31
0.0
  0
LINE
  5
EB9
330
1F
100
AcDbEntity
  8
LOGO
 62
     4
100
AcDbLine
 10
404.7528837287805
 20
156.0411376113636
 30
0.0
 11
393.6313030432305
 21
156.0411376113636
 31
0.0
  0
LINE
  5
EBA
330
1F
100
AcDbEntity
  8
LOGO
 62
     4
100
AcDbLine
 10
393.6313030432305
 20
166.4940238520871
 30
0.0
 11
393.6313030432305
 21
156.0411376113636
 31
0.0
  0
LINE
  5
EBB
330
1F
100
AcDbEntity
  8
LOGO
 62
     4
100
AcDbLine
 10
404.7528837287805
 20
166.4940238520871
 30
0.0
 11
404.7528837287805
 21
156.0411376113636
 31
0.0
  0
LINE
  5
EBC
330
1F
100
AcDbEntity
  8
LOGO
 62
     4
100
AcDbLine
 10
399.1920933860055
 20
156.0411376113636
 30
0.0
 11
399.1920933860055
 21
150.8146944910021
 31
0.0
  0
LINE
  5
EBD
330
1F
100
AcDbEntity
  8
LOGO
 62
     4
100
AcDbLine
 10
412.1343358835033
 20
150.8146944910021
 30
0.0
 11
393.2109086526862
 21
150.8146944910021
 31
0.0
  0
TEXT
  5
EBE
330
1F
100
AcDbEntity
  8
LOGO
  6
Continuous
100
AcDbText
 10
331.4164091679744
 20
139.8422146409164
 30
0.0
 40
2.613599999999999
  1
CODE
 41
0.8
  7
CHINESET
100
AcDbText
  0
TEXT
  5
EBF
330
1F
100
AcDbEntity
  8
LOGO
100
AcDbText
 10
331.3917881507584
 20
144.6872657699147
 30
0.0
 40
4.355999999999999
  1
記號
  7
CHINESET
100
AcDbText
  0
TEXT
  5
EC0
330
1F
100
AcDbEntity
  8
LOGO
  6
Continuous
100
AcDbText
 10
370.166279681681
 20
139.8422146409164
 30
0.0
 40
2.613599999999999
  1
SEAL MAL`L
 41
0.8
  7
CHINESET
100
AcDbText
  0
TEXT
  5
EC1
330
1F
100
AcDbEntity
  8
LOGO
100
AcDbText
 10
371.6870398953374
 20
144.6872657699147
 30
0.0
 40
4.355999999999999
  1
密封材質
  7
CHINESET
100
AcDbText
  0
TEXT
  5
EC2
330
1F
100
AcDbEntity
  8
LOGO
100
AcDbText
 10
301.3514512295332
 20
159.6244462219868
 30
0.0
 40
4.355999999999999
  1
MGD
  7
CHINESET
100
AcDbText
  0
TEXT
  5
EC3
330
1F
100
AcDbEntity
  8
LOGO
100
AcDbText
 10
333.1026535846037
 20
159.6244462219868
 30
0.0
 40
4.355999999999999
  1
20
  7
CHINESET
100
AcDbText
  0
LINE
  5
EC4
330
1F
100
AcDbEntity
  8
LOGO
 62
     4
100
AcDbLine
 10
342.6430520812133
 20
150.8146944910021
 30
0.0
 11
342.6430520812133
 21
138.0389446412277
 31
0.0
  0
LINE
  5
EC5
330
1F
100
AcDbEntity
  8
LOGO
 62
     4
100
AcDbLine
 10
362.2983800722461
 20
138.0389446412276
 30
0.0
 11
348.9130704203327
 21
138.0389446412277
 31
0.0
  0
LINE
  5
EC6
330
1F
100
AcDbEntity
  8
LOGO
 62
     4
100
AcDbLine
 10
362.6441787403886
 20
166.4940238520871
 30
0.0
 11
349.1833478946799
 21
166.4940238520871
 31
0.0
  0
LINE
  5
EC7
330
1F
100
AcDbEntity
  8
LOGO
 62
     4
100
AcDbLine
 10
362.6441787403886
 20
156.0411376113636
 30
0.0
 11
349.1833478946799
 21
156.0411376113636
 31
0.0
  0
LINE
  5
EC8
330
1F
100
AcDbEntity
  8
LOGO
 62
     4
100
AcDbLine
 10
349.1833478946799
 20
166.4940238520871
 30
0.0
 11
349.1833478946799
 21
156.0411376113636
 31
0.0
  0
LINE
  5
EC9
330
1F
100
AcDbEntity
  8
LOGO
 62
     4
100
AcDbLine
 10
362.6441787403886
 20
166.4940238520871
 30
0.0
 11
362.6441787403886
 21
156.0411376113636
 31
0.0
  0
LINE
  5
ECA
330
1F
100
AcDbEntity
  8
LOGO
 62
     4
100
AcDbLine
 10
355.9137633175339
 20
156.0411376113636
 30
0.0
 11
355.9137633175339
 21
150.8146944910021
 31
0.0
  0
LINE
  5
ECB
330
1F
100
AcDbEntity
  8
LOGO
 62
     4
100
AcDbLine
 10
362.2983800722461
 20
150.8146944910021
 30
0.0
 11
348.9130704203327
 21
150.8146944910021
 31
0.0
  0
LINE
  5
ECC
330
1F
100
AcDbEntity
  8
LOGO
 62
     4
100
AcDbLine
 10
348.9130704203327
 20
150.8146944910021
 30
0.0
 11
348.9130704203327
 21
138.0389446412277
 31
0.0
  0
LINE
  5
ECD
330
1F
100
AcDbEntity
  8
LOGO
 62
     4
100
AcDbLine
 10
362.2983800722461
 20
150.8146944910021
 30
0.0
 11
362.2983800722461
 21
138.0389446412277
 31
0.0
  0
LINE
  5
ECE
330
1F
100
AcDbEntity
  8
LOGO
  6
Continuous
 62
     7
100
AcDbLine
 10
343.1811145268298
 20
161.2305549567146
 30
0.0
 11
347.7967276818612
 21
161.2305549567146
 31
0.0
  0
TEXT
  5
ECF
330
1F
100
AcDbEntity
  8
LOGO
  6
Continuous
100
AcDbText
 10
353.9572963521916
 20
139.8422146409164
 30
0.0
 40
2.613599999999999
  1
FIG
 41
0.8
  7
CHINESET
100
AcDbText
  0
LINE
  5
ED1
330
1F
100
AcDbEntity
  8
AM_7
 62
     1
100
AcDbLine
 10
308.3233675915801
 20
305.5410334617911
 30
0.0
 11
393.6751723305541
 21
305.5410334617911
 31
0.0
  0
LINE
  5
ED3
330
1F
100
AcDbEntity
  8
AM_7
 62
     1
100
AcDbLine
 10
332.8233675915801
 20
373.7910638112571
 30
0.0
 11
332.8233675915801
 21
398.6543071390172
 31
0.0
  0
LINE
  5
ED4
330
1F
100
AcDbEntity
  8
AM_7
 62
     1
100
AcDbLine
 10
452.4249905774395
 20
322.5410638112571
 30
0.0
 11
452.4249905774395
 21
304.5697250111187
 31
0.0
  0
LINE
  5
ED5
330
1F
100
AcDbEntity
  8
AM_7
 62
     1
100
AcDbLine
 10
451.4249905774395
 20
304.7035384397903
 30
0.0
 11
453.4249905774395
 21
304.7035384397903
 31
0.0
  0
LINE
  5
ED6
330
1F
100
AcDbEntity
  8
AM_7
 62
     1
100
AcDbLine
 10
452.4249905774395
 20
303.7035384397902
 30
0.0
 11
452.4249905774395
 21
305.7035384397902
 31
0.0
  0
LINE
  5
ED7
330
1F
100
AcDbEntity
  8
AM_7
 62
     1
100
AcDbLine
 10
434.4249905774395
 20
304.7035384397903
 30
0.0
 11
450.4249905774395
 21
304.7035384397903
 31
0.0
  0
LINE
  5
ED8
330
1F
100
AcDbEntity
  8
AM_7
 62
     1
100
AcDbLine
 10
454.4249905774395
 20
304.7035384397903
 30
0.0
 11
470.4249905774395
 21
304.7035384397903
 31
0.0
  0
LINE
  5
ED9
330
1F
100
AcDbEntity
  8
AM_7
 62
     1
100
AcDbLine
 10
452.4249905774395
 20
286.7035384397902
 30
0.0
 11
452.4249905774395
 21
302.7035384397902
 31
0.0
  0
LINE
  5
EDA
330
1F
100
AcDbEntity
  8
AM_7
 62
     1
100
AcDbLine
 10
452.4249905774395
 20
306.7035384397903
 30
0.0
 11
452.4249905774395
 21
322.7035384397902
 31
0.0
  0
LINE
  5
EDB
330
1F
100
AcDbEntity
  8
AM_7
 62
     1
100
AcDbLine
 10
452.4249905774395
 20
304.5410638112571
 30
0.0
 11
452.4249905774395
 21
306.5410638112571
 31
0.0
  0
LINE
  5
EDC
330
1F
100
AcDbEntity
  8
AM_7
 62
     1
100
AcDbLine
 10
452.4249905774395
 20
291.5410638112571
 30
0.0
 11
452.4249905774395
 21
303.5410638112571
 31
0.0
  0
LINE
  5
EDD
330
1F
100
AcDbEntity
  8
AM_7
 62
     1
100
AcDbLine
 10
452.4249905774395
 20
307.5410638112571
 30
0.0
 11
452.4249905774395
 21
396.3946028726406
 31
0.0
  0
LINE
  5
EDE
330
1F
100
AcDbEntity
  8
AM_7
100
AcDbLine
 10
233.0972409460677
 20
295.0614720650705
 30
0.0
 11
233.0972409460677
 21
288.5410638112571
 31
0.0
  0
LINE
  5
EE1
330
1F
100
AcDbEntity
  8
AM_7
 62
     1
100
AcDbLine
 10
233.0972409460677
 20
322.5410638112571
 30
0.0
 11
233.0972409460677
 21
304.5697250111187
 31
0.0
  0
LINE
  5
EE2
330
1F
100
AcDbEntity
  8
AM_7
 62
     1
100
AcDbLine
 10
232.0972409460677
 20
357.7910638112571
 30
0.0
 11
234.0972409460677
 21
357.7910638112571
 31
0.0
  0
LINE
  5
EE3
330
1F
100
AcDbEntity
  8
AM_7
 62
     1
100
AcDbLine
 10
233.0972409460677
 20
356.7910638112571
 30
0.0
 11
233.0972409460677
 21
358.7910638112571
 31
0.0
  0
LINE
  5
EE4
330
1F
100
AcDbEntity
  8
AM_7
 62
     1
100
AcDbLine
 10
227.5972409460677
 20
357.7910638112571
 30
0.0
 11
231.0972409460677
 21
357.7910638112571
 31
0.0
  0
LINE
  5
EE5
330
1F
100
AcDbEntity
  8
AM_7
 62
     1
100
AcDbLine
 10
235.0972409460677
 20
357.7910638112571
 30
0.0
 11
238.5972409460677
 21
357.7910638112571
 31
0.0
  0
LINE
  5
EE6
330
1F
100
AcDbEntity
  8
AM_7
 62
     1
100
AcDbLine
 10
233.0972409460677
 20
352.2910638112571
 30
0.0
 11
233.0972409460677
 21
355.7910638112571
 31
0.0
  0
LINE
  5
EE7
330
1F
100
AcDbEntity
  8
AM_7
 62
     1
100
AcDbLine
 10
233.0972409460677
 20
359.7910638112571
 30
0.0
 11
233.0972409460677
 21
363.2910638112571
 31
0.0
  0
LINE
  5
EE8
330
1F
100
AcDbEntity
  8
AM_7
 62
     1
100
AcDbLine
 10
232.0972409460677
 20
304.7035384397903
 30
0.0
 11
234.0972409460677
 21
304.7035384397903
 31
0.0
  0
LINE
  5
EE9
330
1F
100
AcDbEntity
  8
AM_7
 62
     1
100
AcDbLine
 10
233.0972409460677
 20
303.7035384397902
 30
0.0
 11
233.0972409460677
 21
305.7035384397902
 31
0.0
  0
LINE
  5
EEA
330
1F
100
AcDbEntity
  8
AM_7
 62
     1
100
AcDbLine
 10
215.0972409460677
 20
304.7035384397903
 30
0.0
 11
231.0972409460677
 21
304.7035384397903
 31
0.0
  0
LINE
  5
EEB
330
1F
100
AcDbEntity
  8
AM_7
 62
     1
100
AcDbLine
 10
235.0972409460677
 20
304.7035384397903
 30
0.0
 11
251.0972409460677
 21
304.7035384397903
 31
0.0
  0
LINE
  5
EEC
330
1F
100
AcDbEntity
  8
AM_7
 62
     1
100
AcDbLine
 10
233.0972409460677
 20
286.7035384397902
 30
0.0
 11
233.0972409460677
 21
302.7035384397902
 31
0.0
  0
LINE
  5
EED
330
1F
100
AcDbEntity
  8
AM_7
 62
     1
100
AcDbLine
 10
233.0972409460677
 20
306.7035384397903
 30
0.0
 11
233.0972409460677
 21
322.7035384397902
 31
0.0
  0
LINE
  5
EEE
330
1F
100
AcDbEntity
  8
AM_7
 62
     1
100
AcDbLine
 10
233.0972409460677
 20
304.5410638112571
 30
0.0
 11
233.0972409460677
 21
306.5410638112571
 31
0.0
  0
LINE
  5
EEF
330
1F
100
AcDbEntity
  8
AM_7
 62
     1
100
AcDbLine
 10
233.0972409460677
 20
287.5410638112571
 30
0.0
 11
233.0972409460677
 21
303.5410638112571
 31
0.0
  0
LINE
  5
EF0
330
1F
100
AcDbEntity
  8
AM_7
 62
     1
100
AcDbLine
 10
233.0972409460677
 20
307.5410638112571
 30
0.0
 11
233.0972409460677
 21
323.5410638112571
 31
0.0
  0
LINE
  5
EF1
330
1F
100
AcDbEntity
  8
AM_7
100
AcDbLine
 10
331.8233675915801
 20
444.0322838496753
 30
0.0
 11
333.8233675915801
 21
444.0322838496753
 31
0.0
  0
LINE
  5
EF2
330
1F
100
AcDbEntity
  8
AM_7
 62
     1
100
AcDbLine
 10
332.8233675915801
 20
443.0322838496754
 30
0.0
 11
332.8233675915801
 21
445.0322838496754
 31
0.0
  0
LINE
  5
EF3
330
1F
100
AcDbEntity
  8
AM_7
 62
     1
100
AcDbLine
 10
321.8233675915801
 20
444.0322838496753
 30
0.0
 11
330.8233675915801
 21
444.0322838496753
 31
0.0
  0
LINE
  5
EF4
330
1F
100
AcDbEntity
  8
AM_7
 62
     1
100
AcDbLine
 10
334.8233675915801
 20
444.0322838496753
 30
0.0
 11
343.8233675915801
 21
444.0322838496753
 31
0.0
  0
LINE
  5
EF5
330
1F
100
AcDbEntity
  8
AM_7
 62
     1
100
AcDbLine
 10
332.8233675915801
 20
433.0322838496754
 30
0.0
 11
332.8233675915801
 21
442.0322838496754
 31
0.0
  0
LINE
  5
EF6
330
1F
100
AcDbEntity
  8
AM_7
 62
     1
100
AcDbLine
 10
332.8233675915801
 20
446.0322838496754
 30
0.0
 11
332.8233675915801
 21
455.0322838496754
 31
0.0
  0
LINE
  5
EF7
330
1F
100
AcDbEntity
  8
AM_7
 62
     1
100
AcDbLine
 10
344.8233675915801
 20
443.0322838496754
 30
0.0
 11
344.8233675915801
 21
445.0322838496754
 31
0.0
  0
LINE
  5
EF8
330
1F
100
AcDbEntity
  8
AM_7
 62
     1
100
AcDbLine
 10
322.3233675915801
 20
444.0322838496753
 30
0.0
 11
342.8233675915801
 21
444.0322838496753
 31
0.0
  0
LINE
  5
EF9
330
1F
100
AcDbEntity
  8
AM_7
 62
     1
100
AcDbLine
 10
346.8233675915801
 20
444.0322838496753
 30
0.0
 11
367.3233675915801
 21
444.0322838496753
 31
0.0
  0
LINE
  5
EFA
330
1F
100
AcDbEntity
  8
AM_7
 62
     1
100
AcDbLine
 10
344.8233675915801
 20
421.5322838496754
 30
0.0
 11
344.8233675915801
 21
442.0322838496754
 31
0.0
  0
LINE
  5
EFB
330
1F
100
AcDbEntity
  8
AM_7
 62
     1
100
AcDbLine
 10
344.8233675915801
 20
446.0322838496754
 30
0.0
 11
344.8233675915801
 21
466.5322838496754
 31
0.0
  0
LINE
  5
EFC
330
1F
100
AcDbEntity
  8
AM_7
 62
     1
100
AcDbLine
 10
372.3233675915801
 20
444.0322838496753
 30
0.0
 11
374.3233675915801
 21
444.0322838496753
 31
0.0
  0
LINE
  5
EFD
330
1F
100
AcDbEntity
  8
AM_7
 62
     1
100
AcDbLine
 10
373.3233675915801
 20
443.0322838496754
 30
0.0
 11
373.3233675915801
 21
445.0322838496754
 31
0.0
  0
LINE
  5
EFE
330
1F
100
AcDbEntity
  8
AM_7
 62
     1
100
AcDbLine
 10
362.8233675915801
 20
444.0322838496753
 30
0.0
 11
371.3233675915801
 21
444.0322838496753
 31
0.0
  0
LINE
  5
EFF
330
1F
100
AcDbEntity
  8
AM_7
 62
     1
100
AcDbLine
 10
375.3233675915801
 20
444.0322838496753
 30
0.0
 11
383.8233675915801
 21
444.0322838496753
 31
0.0
  0
LINE
  5
F00
330
1F
100
AcDbEntity
  8
AM_7
 62
     1
100
AcDbLine
 10
373.3233675915801
 20
433.5322838496754
 30
0.0
 11
373.3233675915801
 21
442.0322838496754
 31
0.0
  0
LINE
  5
F01
330
1F
100
AcDbEntity
  8
AM_7
 62
     1
100
AcDbLine
 10
373.3233675915801
 20
446.0322838496754
 30
0.0
 11
373.3233675915801
 21
454.5322838496754
 31
0.0
  0
LINE
  5
F02
330
1F
100
AcDbEntity
  8
AM_7
 62
     1
100
AcDbLine
 10
324.8233675915801
 20
223.6421418812225
 30
0.0
 11
364.8233675915801
 21
223.6421418812225
 31
0.0
  0
LINE
  5
F03
330
1F
100
AcDbEntity
  8
AM_7
 62
     1
100
AcDbLine
 10
360.8233675915801
 20
223.6474532417463
 30
0.0
 11
391.8233675915801
 21
223.6474532417463
 31
0.0
  0
LINE
  5
F04
330
1F
100
AcDbEntity
  8
AM_7
 62
     1
100
AcDbLine
 10
343.8233675915801
 20
223.6474532417463
 30
0.0
 11
345.8233675915801
 21
223.6474532417463
 31
0.0
  0
LINE
  5
F05
330
1F
100
AcDbEntity
  8
AM_7
 62
     1
100
AcDbLine
 10
344.8233675915801
 20
222.6474532417463
 30
0.0
 11
344.8233675915801
 21
224.6474532417463
 31
0.0
  0
LINE
  5
F06
330
1F
100
AcDbEntity
  8
AM_7
 62
     1
100
AcDbLine
 10
321.5733675915801
 20
223.6474532417463
 30
0.0
 11
342.8233675915801
 21
223.6474532417463
 31
0.0
  0
LINE
  5
F07
330
1F
100
AcDbEntity
  8
AM_7
 62
     1
100
AcDbLine
 10
346.8233675915801
 20
223.6474532417463
 30
0.0
 11
368.0733675915801
 21
223.6474532417463
 31
0.0
  0
LINE
  5
F08
330
1F
100
AcDbEntity
  8
AM_7
 62
     1
100
AcDbLine
 10
344.8233675915801
 20
200.3974532417463
 30
0.0
 11
344.8233675915801
 21
221.6474532417463
 31
0.0
  0
LINE
  5
F09
330
1F
100
AcDbEntity
  8
AM_7
 62
     1
100
AcDbLine
 10
344.8233675915801
 20
225.6474532417463
 30
0.0
 11
344.8233675915801
 21
246.8974532417463
 31
0.0
  0
LINE
  5
F0A
330
1F
100
AcDbEntity
  8
AM_7
 62
     1
100
AcDbLine
 10
328.8233675915801
 20
223.6474532417463
 30
0.0
 11
308.3233675915801
 21
223.6474532417463
 31
0.0
  0
LINE
  5
F0B
330
1F
100
AcDbEntity
  8
AM_7
 62
     1
100
AcDbLine
 10
343.8233675915801
 20
237.6474532417463
 30
0.0
 11
345.8233675915801
 21
237.6474532417463
 31
0.0
  0
LINE
  5
F0C
330
1F
100
AcDbEntity
  8
AM_7
 62
     1
100
AcDbLine
 10
344.8233675915801
 20
236.6474532417463
 30
0.0
 11
344.8233675915801
 21
238.6474532417463
 31
0.0
  0
LINE
  5
F0D
102
{ACAD_REACTORS
330
10C4
102
}
330
1F
100
AcDbEntity
  8
AM_7
 62
     1
100
AcDbLine
 10
342.124452337983
 20
237.6474532417463
 30
0.0
 11
342.8233675915801
 21
237.6474532417463
 31
0.0
  0
LINE
  5
F0E
330
1F
100
AcDbEntity
  8
AM_7
 62
     1
100
AcDbLine
 10
346.8233675915801
 20
237.6474532417463
 30
0.0
 11
348.1566006125161
 21
237.6474532417463
 31
0.0
  0
LINE
  5
F0F
330
1F
100
AcDbEntity
  8
AM_7
 62
     1
100
AcDbLine
 10
344.8233675915801
 20
230.6474532417463
 30
0.0
 11
344.8233675915801
 21
235.6474532417463
 31
0.0
  0
LINE
  5
F10
330
1F
100
AcDbEntity
  8
AM_7
 62
     1
100
AcDbLine
 10
344.8233675915801
 20
239.6474532417463
 30
0.0
 11
344.8233675915801
 21
244.6474532417463
 31
0.0
  0
LINE
  5
F11
330
1F
100
AcDbEntity
  8
AM_7
 62
     1
100
AcDbLine
 10
343.8233675915801
 20
209.6474532417463
 30
0.0
 11
345.8233675915801
 21
209.6474532417463
 31
0.0
  0
LINE
  5
F12
330
1F
100
AcDbEntity
  8
AM_7
 62
     1
100
AcDbLine
 10
344.8233675915801
 20
208.6474532417463
 30
0.0
 11
344.8233675915801
 21
210.6474532417463
 31
0.0
  0
LINE
  5
F13
102
{ACAD_REACTORS
330
10C4
102
}
330
1F
100
AcDbEntity
  8
AM_7
 62
     1
100
AcDbLine
 10
342.2688604470764
 20
209.6474532417463
 30
0.0
 11
342.8233675915801
 21
209.6474532417463
 31
0.0
  0
LINE
  5
F14
330
1F
100
AcDbEntity
  8
AM_7
 62
     1
100
AcDbLine
 10
346.8233675915801
 20
209.6474532417463
 30
0.0
 11
347.5122511218609
 21
209.6474532417463
 31
0.0
  0
LINE
  5
F15
330
1F
100
AcDbEntity
  8
AM_7
 62
     1
100
AcDbLine
 10
344.8233675915801
 20
202.6474532417463
 30
0.0
 11
344.8233675915801
 21
207.6474532417463
 31
0.0
  0
LINE
  5
F16
330
1F
100
AcDbEntity
  8
AM_7
 62
     1
100
AcDbLine
 10
344.8233675915801
 20
211.6474532417463
 30
0.0
 11
344.8233675915801
 21
216.6474532417463
 31
0.0
  0
LINE
  5
F17
330
1F
100
AcDbEntity
  8
AM_7
 62
     1
100
AcDbLine
 10
322.8233675915801
 20
202.6474532417463
 30
0.0
 11
324.8233675915801
 21
202.6474532417463
 31
0.0
  0
LINE
  5
F18
330
1F
100
AcDbEntity
  8
AM_7
 62
     1
100
AcDbLine
 10
323.8233675915801
 20
201.6474532417463
 30
0.0
 11
323.8233675915801
 21
203.6474532417463
 31
0.0
  0
LINE
  5
F19
330
1F
100
AcDbEntity
  8
AM_7
 62
     1
100
AcDbLine
 10
319.3233675915801
 20
202.6474532417463
 30
0.0
 11
321.8233675915801
 21
202.6474532417463
 31
0.0
  0
LINE
  5
F1A
330
1F
100
AcDbEntity
  8
AM_7
 62
     1
100
AcDbLine
 10
325.8233675915801
 20
202.6474532417463
 30
0.0
 11
328.3233675915801
 21
202.6474532417463
 31
0.0
  0
LINE
  5
F1B
330
1F
100
AcDbEntity
  8
AM_7
 62
     1
100
AcDbLine
 10
323.8233675915801
 20
198.1474532417463
 30
0.0
 11
323.8233675915801
 21
200.6474532417463
 31
0.0
  0
LINE
  5
F1C
330
1F
100
AcDbEntity
  8
AM_7
 62
     1
100
AcDbLine
 10
323.8233675915801
 20
204.6474532417463
 30
0.0
 11
323.8233675915801
 21
207.1474532417463
 31
0.0
  0
LINE
  5
F1D
330
1F
100
AcDbEntity
  8
AM_7
 62
     1
100
AcDbLine
 10
364.8233675915802
 20
244.6474532417463
 30
0.0
 11
366.8233675915802
 21
244.6474532417463
 31
0.0
  0
LINE
  5
F1E
330
1F
100
AcDbEntity
  8
AM_7
 62
     1
100
AcDbLine
 10
365.8233675915802
 20
243.6474532417463
 30
0.0
 11
365.8233675915802
 21
245.6474532417463
 31
0.0
  0
LINE
  5
F1F
330
1F
100
AcDbEntity
  8
AM_7
 62
     1
100
AcDbLine
 10
361.3233675915802
 20
244.6474532417463
 30
0.0
 11
363.8233675915802
 21
244.6474532417463
 31
0.0
  0
LINE
  5
F20
330
1F
100
AcDbEntity
  8
AM_7
 62
     1
100
AcDbLine
 10
367.8233675915802
 20
244.6474532417463
 30
0.0
 11
370.3233675915801
 21
244.6474532417463
 31
0.0
  0
LINE
  5
F21
330
1F
100
AcDbEntity
  8
AM_7
 62
     1
100
AcDbLine
 10
365.8233675915802
 20
240.1474532417463
 30
0.0
 11
365.8233675915802
 21
242.6474532417463
 31
0.0
  0
LINE
  5
F22
330
1F
100
AcDbEntity
  8
AM_7
 62
     1
100
AcDbLine
 10
365.8233675915802
 20
246.6474532417463
 30
0.0
 11
365.8233675915802
 21
249.1474532417463
 31
0.0
  0
LINE
  5
F23
330
1F
100
AcDbEntity
  8
AM_7
 62
     1
100
AcDbLine
 10
322.8233675915801
 20
244.6474532417463
 30
0.0
 11
324.8233675915801
 21
244.6474532417463
 31
0.0
  0
LINE
  5
F24
330
1F
100
AcDbEntity
  8
AM_7
 62
     1
100
AcDbLine
 10
323.8233675915801
 20
243.6474532417463
 30
0.0
 11
323.8233675915801
 21
245.6474532417463
 31
0.0
  0
LINE
  5
F25
330
1F
100
AcDbEntity
  8
AM_7
 62
     1
100
AcDbLine
 10
319.3233675915801
 20
244.6474532417463
 30
0.0
 11
321.8233675915801
 21
244.6474532417463
 31
0.0
  0
LINE
  5
F26
330
1F
100
AcDbEntity
  8
AM_7
 62
     1
100
AcDbLine
 10
325.8233675915801
 20
244.6474532417463
 30
0.0
 11
328.3233675915801
 21
244.6474532417463
 31
0.0
  0
LINE
  5
F27
330
1F
100
AcDbEntity
  8
AM_7
 62
     1
100
AcDbLine
 10
323.8233675915801
 20
240.1474532417463
 30
0.0
 11
323.8233675915801
 21
242.6474532417463
 31
0.0
  0
LINE
  5
F28
330
1F
100
AcDbEntity
  8
AM_7
 62
     1
100
AcDbLine
 10
323.8233675915801
 20
246.6474532417463
 30
0.0
 11
323.8233675915801
 21
249.1474532417463
 31
0.0
  0
LINE
  5
F29
330
1F
100
AcDbEntity
  8
AM_7
 62
     1
100
AcDbLine
 10
364.8233675915801
 20
202.6474532417463
 30
0.0
 11
366.8233675915801
 21
202.6474532417463
 31
0.0
  0
LINE
  5
F2A
330
1F
100
AcDbEntity
  8
AM_7
 62
     1
100
AcDbLine
 10
365.8233675915801
 20
201.6474532417463
 30
0.0
 11
365.8233675915801
 21
203.6474532417463
 31
0.0
  0
LINE
  5
F2B
330
1F
100
AcDbEntity
  8
AM_7
 62
     1
100
AcDbLine
 10
361.3233675915801
 20
202.6474532417463
 30
0.0
 11
363.8233675915801
 21
202.6474532417463
 31
0.0
  0
LINE
  5
F2C
330
1F
100
AcDbEntity
  8
AM_7
 62
     1
100
AcDbLine
 10
367.8233675915801
 20
202.6474532417463
 30
0.0
 11
370.3233675915801
 21
202.6474532417463
 31
0.0
  0
LINE
  5
F2D
330
1F
100
AcDbEntity
  8
AM_7
 62
     1
100
AcDbLine
 10
365.8233675915801
 20
198.1474532417463
 30
0.0
 11
365.8233675915801
 21
200.6474532417463
 31
0.0
  0
LINE
  5
F2E
330
1F
100
AcDbEntity
  8
AM_7
 62
     1
100
AcDbLine
 10
365.8233675915801
 20
204.6474532417463
 30
0.0
 11
365.8233675915801
 21
207.1474532417463
 31
0.0
  0
LINE
  5
F2F
330
1F
100
AcDbEntity
  8
AM_VIS
100
AcDbLine
 10
384.3233675915801
 20
376.0410638112571
 30
0.0
 11
384.3233675915801
 21
347.0410638112571
 31
0.0
  0
LINE
  5
F30
330
1F
100
AcDbEntity
  8
AM_VIS
100
AcDbLine
 10
355.8233675915801
 20
376.0410638112571
 30
0.0
 11
384.3233675915801
 21
376.0410638112571
 31
0.0
  0
LINE
  5
F31
330
1F
100
AcDbEntity
  8
AM_VIS
100
AcDbLine
 10
384.3233675915801
 20
347.0410638112571
 30
0.0
 11
355.8233675915801
 21
347.0410638112571
 31
0.0
  0
LINE
  5
F32
330
1F
100
AcDbEntity
  8
AM_VIS
100
AcDbLine
 10
355.8233675915801
 20
377.0410638112571
 30
0.0
 11
350.8233675915801
 21
377.0410638112571
 31
0.0
  0
LINE
  5
F33
330
1F
100
AcDbEntity
  8
AM_VIS
100
AcDbLine
 10
355.8233675915801
 20
346.0410638112571
 30
0.0
 11
350.8233675915801
 21
346.0410638112571
 31
0.0
  0
LINE
  5
F34
330
1F
100
AcDbEntity
  8
AM_VIS
100
AcDbLine
 10
350.8233675915801
 20
377.0410638112571
 30
0.0
 11
350.8233675915801
 21
346.0410638112571
 31
0.0
  0
LINE
  5
F35
330
1F
100
AcDbEntity
  8
AM_VIS
100
AcDbLine
 10
355.8233675915801
 20
346.0410638112571
 30
0.0
 11
355.8233675915801
 21
377.0410638112571
 31
0.0
  0
LINE
  5
F36
330
1F
100
AcDbEntity
  8
AM_VIS
100
AcDbLine
 10
350.8233675915801
 20
347.2910638112571
 30
0.0
 11
325.3233675915801
 21
347.2910638112571
 31
0.0
  0
LINE
  5
F37
330
1F
100
AcDbEntity
  8
AM_VIS
100
AcDbLine
 10
325.3233675915801
 20
375.7910638112571
 30
0.0
 11
325.3233675915801
 21
347.2910638112571
 31
0.0
  0
LINE
  5
F38
330
1F
100
AcDbEntity
  8
AM_VIS
100
AcDbLine
 10
350.8233675915801
 20
375.7910638112571
 30
0.0
 11
325.3233675915801
 21
375.7910638112571
 31
0.0
  0
LINE
  5
F39
330
1F
100
AcDbEntity
  8
AM_VIS
100
AcDbLine
 10
323.5857632845461
 20
389.7910638112571
 30
0.0
 11
323.5857632845461
 21
394.7910638112571
 31
0.0
  0
LINE
  5
F3A
102
{ACAD_REACTORS
330
1162
102
}
330
1F
100
AcDbEntity
  8
AM_VIS
100
AcDbLine
 10
328.2045654380632
 20
394.7910638112571
 30
0.0
 11
323.5857632845461
 21
394.7910638112571
 31
0.0
  0
LINE
  5
F3B
330
1F
100
AcDbEntity
  8
AM_VIS
100
AcDbLine
 10
328.2045654380632
 20
389.7910638112571
 30
0.0
 11
328.2045654380632
 21
394.7910638112571
 31
0.0
  0
LINE
  5
F3C
330
1F
100
AcDbEntity
  8
AM_VIS
100
AcDbLine
 10
337.4421697450971
 20
394.7910638112571
 30
0.0
 11
328.2045654380632
 21
394.7910638112571
 31
0.0
  0
LINE
  5
F3D
330
1F
100
AcDbEntity
  8
AM_VIS
100
AcDbLine
 10
337.4421697450971
 20
389.7910638112571
 30
0.0
 11
337.4421697450971
 21
394.7910638112571
 31
0.0
  0
LINE
  5
F3E
330
1F
100
AcDbEntity
  8
AM_VIS
100
AcDbLine
 10
342.0609718986141
 20
394.7910638112571
 30
0.0
 11
337.4421697450971
 21
394.7910638112571
 31
0.0
  0
LINE
  5
F3F
330
1F
100
AcDbEntity
  8
AM_VIS
100
AcDbLine
 10
342.0609718986141
 20
389.7910638112571
 30
0.0
 11
342.0609718986141
 21
394.7910638112571
 31
0.0
  0
LINE
  5
F40
330
1F
100
AcDbEntity
  8
AM_VIS
100
AcDbLine
 10
328.2045654380632
 20
389.7910638112571
 30
0.0
 11
323.5857632845461
 21
389.7910638112571
 31
0.0
  0
LINE
  5
F41
330
1F
100
AcDbEntity
  8
AM_VIS
100
AcDbLine
 10
337.4421697450971
 20
389.7910638112571
 30
0.0
 11
328.2045654380632
 21
389.7910638112571
 31
0.0
  0
LINE
  5
F42
330
1F
100
AcDbEntity
  8
AM_VIS
100
AcDbLine
 10
342.0609718986141
 20
389.7910638112571
 30
0.0
 11
337.4421697450971
 21
389.7910638112571
 31
0.0
  0
LINE
  5
F43
330
1F
100
AcDbEntity
  8
AM_VIS
100
AcDbLine
 10
383.8233675915801
 20
347.0410638112571
 30
0.0
 11
383.8233675915801
 21
345.5410638112571
 31
0.0
  0
LINE
  5
F44
330
1F
100
AcDbEntity
  8
AM_VIS
100
AcDbLine
 10
369.8233675915801
 20
347.0410638112571
 30
0.0
 11
369.8233675915801
 21
345.5410638112571
 31
0.0
  0
LINE
  5
F45
330
1F
100
AcDbEntity
  8
AM_VIS
100
AcDbLine
 10
362.8233675915801
 20
347.0410638112571
 30
0.0
 11
362.8233675915801
 21
345.5410638112571
 31
0.0
  0
LINE
  5
F46
330
1F
100
AcDbEntity
  8
AM_VIS
100
AcDbLine
 10
384.3233675915801
 20
345.5410638112571
 30
0.0
 11
362.3233675915801
 21
345.5410638112571
 31
0.0
  0
LINE
  5
F47
330
1F
100
AcDbEntity
  8
AM_VIS
100
AcDbLine
 10
384.3233675915801
 20
345.5410638112571
 30
0.0
 11
384.3233675915801
 21
330.5410638112571
 31
0.0
  0
LINE
  5
F48
330
1F
100
AcDbEntity
  8
AM_VIS
100
AcDbLine
 10
319.3233675915801
 20
320.5410638112571
 30
0.0
 11
319.3233675915801
 21
333.5410638112571
 31
0.0
  0
LINE
  5
F49
330
1F
100
AcDbEntity
  8
AM_VIS
100
AcDbLine
 10
370.3233675915801
 20
333.5410638112571
 30
0.0
 11
370.3233675915801
 21
320.5410638112571
 31
0.0
  0
LINE
  5
F4A
330
1F
100
AcDbEntity
  8
AM_VIS
100
AcDbLine
 10
370.3233675915801
 20
333.5410638112571
 30
0.0
 11
319.3233675915801
 21
333.5410638112571
 31
0.0
  0
LINE
  5
F4B
330
1F
100
AcDbEntity
  8
AM_VIS
100
AcDbLine
 10
362.3233675915801
 20
345.5410638112571
 30
0.0
 11
362.3233675915801
 21
333.5410638112571
 31
0.0
  0
LINE
  5
F4C
330
1F
100
AcDbEntity
  8
AM_VIS
100
AcDbLine
 10
319.3233675915801
 20
333.5410638112571
 30
0.0
 11
319.3233675915801
 21
336.5410638112571
 31
0.0
  0
LINE
  5
F4D
330
1F
100
AcDbEntity
  8
AM_VIS
100
AcDbLine
 10
325.2210718076674
 20
336.5410638112571
 30
0.0
 11
319.3233675915801
 21
336.5410638112571
 31
0.0
  0
LINE
  5
F4E
330
1F
100
AcDbEntity
  8
AM_VIS
100
AcDbLine
 10
325.2210718076674
 20
333.5410638112571
 30
0.0
 11
325.2210718076674
 21
336.5410638112571
 31
0.0
  0
LINE
  5
F4F
330
1F
100
AcDbEntity
  8
AM_VIS
100
AcDbLine
 10
370.3233675915801
 20
330.5410638112571
 30
0.0
 11
384.3233675915801
 21
330.5410638112571
 31
0.0
  0
LINE
  5
F50
330
1F
100
AcDbEntity
  8
AM_VIS
100
AcDbLine
 10
379.3233675915801
 20
330.5410638112571
 30
0.0
 11
379.3233675915801
 21
321.5410638112571
 31
0.0
  0
LINE
  5
F51
330
1F
100
AcDbEntity
  8
AM_VIS
100
AcDbLine
 10
339.8233675915801
 20
302.9116316867135
 30
0.0
 11
339.8233675915801
 21
290.5410638112571
 31
0.0
  0
LINE
  5
F52
330
1F
100
AcDbEntity
  8
AM_VIS
100
AcDbLine
 10
349.8233675915801
 20
302.9116316867135
 30
0.0
 11
349.8233675915801
 21
290.5410638112571
 31
0.0
  0
LINE
  5
F53
330
1F
100
AcDbEntity
  8
AM_VIS
100
AcDbLine
 10
349.8233675915801
 20
310.2263063329318
 30
0.0
 11
349.8233675915801
 21
308.1704352368687
 31
0.0
  0
LINE
  5
F54
330
1F
100
AcDbEntity
  8
AM_VIS
100
AcDbLine
 10
339.8241589180347
 20
302.9116307221959
 30
0.0
 11
339.8290261857918
 21
306.9049199978575
 31
0.0
  0
ARC
  5
F55
330
1F
100
AcDbEntity
  8
AM_VIS
100
AcDbCircle
 10
349.8392184232833
 20
268.9162225054588
 30
0.0
 40
26.14020551141205
100
AcDbArc
 50
112.5294862890868
 51
121.1347217180669
  0
ARC
  5
F56
330
1F
100
AcDbEntity
  8
AM_VIS
100
AcDbCircle
 10
339.8075167598789
 20
268.9162225054629
 30
0.0
 40
26.14020551140757
100
AcDbArc
 50
58.86527828193304
 51
67.47051371091463
  0
SPLINE
  5
F57
330
1F
100
AcDbEntity
  8
AM_VIS
100
AcDbSpline
210
0.0
220
0.0
230
1.0
 70
     8
 71
     3
 72
    14
 73
    10
 74
     0
 42
0.0000000001
 43
0.0000000001
 40
40.50485888346449
 40
40.50485888346449
 40
40.50485888346449
 40
40.50485888346449
 40
41.27956071152847
 40
41.27956071152847
 40
43.03462263520108
 40
43.03462263520108
 40
44.78968455887368
 40
44.78968455887368
 40
45.56438638693765
 40
45.56438638693765
 40
45.56438638693765
 40
45.56438638693765
 10
349.8233675915801
 20
302.9116316867135
 30
0.0
 10
349.8233675915801
 20
303.1844450806008
 30
0.0
 10
349.8226011002058
 20
303.4576485655195
 30
0.0
 10
349.8196612117944
 20
304.3458669074214
 30
0.0
 10
349.8173767495324
 20
304.9560128205669
 30
0.0
 10
349.8173767495324
 20
306.1260541030153
 30
0.0
 10
349.8196612117944
 20
306.7362000161608
 30
0.0
 10
349.8226011002058
 20
307.6244183580626
 30
0.0
 10
349.8233675915801
 20
307.8976218429813
 30
0.0
 10
349.8233675915801
 20
308.1704352368687
 30
0.0
  0
ARC
  5
F58
330
1F
100
AcDbEntity
  8
AM_VIS
100
AcDbCircle
 10
357.8641331341635
 20
320.772798576884
 30
0.0
 40
7.47358272161125
100
AcDbArc
 50
288.8730253686755
 51
311.572602023711
  0
LINE
  5
F59
330
1F
100
AcDbEntity
  8
AM_VIS
100
AcDbLine
 10
360.2816276525325
 20
313.7010124552297
 30
0.0
 11
346.4391446744348
 21
309.1019147017338
 31
0.0
  0
LINE
  5
F5A
330
1F
100
AcDbEntity
  8
AM_VIS
100
AcDbLine
 10
342.6835097959497
 20
307.8646622285347
 30
0.0
 11
346.4360755964068
 21
309.1111541656275
 31
0.0
  0
LINE
  5
F5B
330
1F
100
AcDbEntity
  8
AM_VIS
100
AcDbLine
 10
342.6866625861247
 20
307.8551707491
 30
0.0
 11
333.3948756770427
 21
304.7680196673803
 31
0.0
  0
SPLINE
  5
F5C
330
1F
100
AcDbEntity
  8
AM_VIS
100
AcDbSpline
210
0.0
220
0.0
230
1.0
 70
     8
 71
     3
 72
    16
 73
    12
 74
     0
 42
0.0000000001
 43
0.0000000001
 40
-6.556671372967619
 40
-6.556671372967619
 40
-6.556671372967619
 40
-6.556671372967619
 40
-5.663223152757975
 40
-5.663223152757975
 40
-4.753944805110661
 40
-4.753944805110661
 40
-3.542471308574591
 40
-3.542471308574591
 40
-2.064790698423765
 40
-2.064790698423765
 40
0.0
 40
0.0
 40
0.0
 40
0.0
 10
329.0213579070771
 20
306.566975629289
 30
0.0
 10
329.0359884367317
 20
306.3415455743132
 30
0.0
 10
329.0863229614243
 20
306.1204318795532
 30
0.0
 10
329.2598371175217
 20
305.6979130668287
 30
0.0
 10
329.3820540784538
 20
305.5023202793385
 30
0.0
 10
329.7373210190159
 20
305.0984301035429
 30
0.0
 10
329.9856927031898
 20
304.9162418972862
 30
0.0
 10
330.6004351397466
 20
304.6160472582282
 30
0.0
 10
330.9969302066372
 20
304.5127138413576
 30
0.0
 10
332.0722246787006
 20
304.4428690729508
 30
0.0
 10
332.7418144117298
 20
304.5510432330983
 30
0.0
 10
333.3948756770427
 20
304.7680196673803
 30
0.0
  0
LINE
  5
F5D
330
1F
100
AcDbEntity
  8
AM_VIS
100
AcDbLine
 10
389.8233675915801
 20
304.7035384397903
 30
0.0
 11
389.8233675915801
 21
321.5410638112571
 31
0.0
  0
LINE
  5
F5E
330
1F
100
AcDbEntity
  8
AM_VIS
100
AcDbLine
 10
362.8233675915801
 20
304.7035384397903
 30
0.0
 11
362.8233675915801
 21
320.5410638112571
 31
0.0
  0
LINE
  5
F5F
330
1F
100
AcDbEntity
  8
AM_VIS
100
AcDbLine
 10
370.3233675915801
 20
321.5410638112571
 30
0.0
 11
389.8233675915801
 21
321.5410638112571
 31
0.0
  0
ARC
  5
F60
330
1F
100
AcDbEntity
  8
AM_VIS
100
AcDbCircle
 10
308.2477221358872
 20
304.746784056416
 30
0.0
 40
20.85322614167928
100
AcDbArc
 50
5.007483125195044
 51
27.02852201709831
  0
LINE
  5
F61
330
1F
100
AcDbEntity
  8
AM_VIS
100
AcDbLine
 10
319.3233675915801
 20
320.5410638112571
 30
0.0
 11
370.3233675915801
 21
320.5410638112571
 31
0.0
  0
LINE
  5
F62
330
1F
100
AcDbEntity
  8
AM_VIS
100
AcDbLine
 10
310.3233675915801
 20
321.5011675924389
 30
0.0
 11
310.3233675915801
 21
305.5410638112571
 31
0.0
  0
LINE
  5
F63
330
1F
100
AcDbEntity
  8
AM_VIS
100
AcDbLine
 10
326.8233675915801
 20
320.5410638112571
 30
0.0
 11
326.8233675915801
 21
305.5410638112571
 31
0.0
  0
LINE
  5
F64
330
1F
100
AcDbEntity
  8
AM_VIS
100
AcDbLine
 10
319.3233675915801
 20
321.5011675924389
 30
0.0
 11
310.3233675915801
 21
321.5011675924389
 31
0.0
  0
LINE
  5
F65
330
1F
100
AcDbEntity
  8
AM_VIS
100
AcDbLine
 10
341.8233675915801
 20
375.7910638112571
 30
0.0
 11
341.8233675915801
 21
387.7910638112571
 31
0.0
  0
LINE
  5
F66
330
1F
100
AcDbEntity
  8
AM_VIS
100
AcDbLine
 10
323.8233675915801
 20
375.7910638112571
 30
0.0
 11
323.8233675915801
 21
387.7910638112571
 31
0.0
  0
LINE
  5
F67
330
1F
100
AcDbEntity
  8
AM_VIS
100
AcDbLine
 10
339.5733675915801
 20
387.7910638112571
 30
0.0
 11
339.5733675915801
 21
389.7910638112571
 31
0.0
  0
LINE
  5
F68
330
1F
100
AcDbEntity
  8
AM_VIS
100
AcDbLine
 10
326.0733675915801
 20
387.7910638112571
 30
0.0
 11
326.0733675915801
 21
389.7910638112571
 31
0.0
  0
LINE
  5
F69
330
1F
100
AcDbEntity
  8
AM_VIS
100
AcDbLine
 10
355.3233675915801
 20
336.5410638112571
 30
0.0
 11
355.3233675915801
 21
343.5410638112571
 31
0.0
  0
LINE
  5
F6A
330
1F
100
AcDbEntity
  8
AM_VIS
100
AcDbLine
 10
334.3233675915801
 20
336.5410638112571
 30
0.0
 11
334.3233675915801
 21
343.5410638112571
 31
0.0
  0
LINE
  5
F6B
330
1F
100
AcDbEntity
  8
AM_VIS
100
AcDbLine
 10
353.3233675915801
 20
291.291034451635
 30
0.0
 11
353.3233675915801
 21
290.5410638112571
 31
0.0
  0
LINE
  5
F6C
330
1F
100
AcDbEntity
  8
AM_VIS
100
AcDbLine
 10
336.3233675915801
 20
291.291034451635
 30
0.0
 11
336.3233675915801
 21
290.5410638112571
 31
0.0
  0
LINE
  5
F6D
330
1F
100
AcDbEntity
  8
AM_VIS
100
AcDbLine
 10
326.8233675915801
 20
291.2910334617911
 30
0.0
 11
336.3233675915801
 21
291.2910334617911
 31
0.0
  0
LINE
  5
F6E
330
1F
100
AcDbEntity
  8
AM_VIS
100
AcDbLine
 10
353.3233675915801
 20
291.2910334617911
 30
0.0
 11
362.8233675915801
 21
291.2910334617911
 31
0.0
  0
LINE
  5
F6F
330
1F
100
AcDbEntity
  8
AM_VIS
100
AcDbLine
 10
362.8233675915801
 20
288.7035384397902
 30
0.0
 11
389.8233675915801
 21
288.7035384397902
 31
0.0
  0
LINE
  5
F70
330
1F
100
AcDbEntity
  8
AM_VIS
100
AcDbLine
 10
377.5733675915801
 20
376.0410638112571
 30
0.0
 11
377.5733675915801
 21
378.0410638112571
 31
0.0
  0
LINE
  5
F71
330
1F
100
AcDbEntity
  8
AM_VIS
100
AcDbLine
 10
369.0733675915801
 20
376.0410638112571
 30
0.0
 11
369.0733675915801
 21
378.0410638112571
 31
0.0
  0
LINE
  5
F72
330
1F
100
AcDbEntity
  8
AM_VIS
100
AcDbLine
 10
363.3233675915802
 20
320.5410638112571
 30
0.0
 11
363.3233675915802
 21
318.5410638112571
 31
0.0
  0
LINE
  5
F73
330
1F
100
AcDbEntity
  8
AM_VIS
100
AcDbLine
 10
368.3233675915801
 20
320.5410638112571
 30
0.0
 11
368.3233675915801
 21
318.5410638112571
 31
0.0
  0
LINE
  5
F74
330
1F
100
AcDbEntity
  8
AM_VIS
100
AcDbLine
 10
321.3233675915801
 20
320.5410638112571
 30
0.0
 11
321.3233675915801
 21
318.5410638112571
 31
0.0
  0
LINE
  5
F75
330
1F
100
AcDbEntity
  8
AM_VIS
100
AcDbLine
 10
326.3233675915801
 20
320.5410638112571
 30
0.0
 11
326.3233675915801
 21
318.5410638112571
 31
0.0
  0
LINE
  5
F76
330
1F
100
AcDbEntity
  8
AM_VIS
100
AcDbLine
 10
325.3233675915801
 20
375.7910638112571
 30
0.0
 11
323.8233675915801
 21
375.7910638112571
 31
0.0
  0
LINE
  5
F77
330
1F
100
AcDbEntity
  8
AM_VIS
100
AcDbLine
 10
323.8233675915801
 20
387.7910638112571
 30
0.0
 11
341.8233675915801
 21
387.7910638112571
 31
0.0
  0
LINE
  5
F78
330
1F
100
AcDbEntity
  8
AM_VIS
100
AcDbLine
 10
325.2210718076674
 20
336.5410638112571
 30
0.0
 11
362.3233675915801
 21
336.5410638112571
 31
0.0
  0
LINE
  5
F79
330
1F
100
AcDbEntity
  8
AM_VIS
100
AcDbLine
 10
334.3233675915801
 20
343.5410638112571
 30
0.0
 11
355.3233675915801
 21
343.5410638112571
 31
0.0
  0
LINE
  5
F7A
330
1F
100
AcDbEntity
  8
AM_VIS
100
AcDbLine
 10
349.8233675915801
 20
290.5410638112571
 30
0.0
 11
339.8233675915801
 21
290.5410638112571
 31
0.0
  0
LINE
  5
F7B
330
1F
100
AcDbEntity
  8
AM_VIS
100
AcDbLine
 10
353.3233675915801
 20
290.5410638112571
 30
0.0
 11
349.8233675915801
 21
290.5410638112571
 31
0.0
  0
LINE
  5
F7C
330
1F
100
AcDbEntity
  8
AM_VIS
100
AcDbLine
 10
339.8233675915801
 20
290.5410638112571
 30
0.0
 11
336.3233675915801
 21
290.5410638112571
 31
0.0
  0
LINE
  5
F7D
330
1F
100
AcDbEntity
  8
AM_VIS
100
AcDbLine
 10
389.8233675915801
 20
304.7035384397903
 30
0.0
 11
389.8233675915801
 21
288.7035384397902
 31
0.0
  0
LINE
  5
F7E
330
1F
100
AcDbEntity
  8
AM_VIS
100
AcDbLine
 10
362.8233675915801
 20
304.7035384397903
 30
0.0
 11
362.8233675915801
 21
288.7035384397902
 31
0.0
  0
LINE
  5
F7F
102
{ACAD_REACTORS
330
1162
102
}
330
1F
100
AcDbEntity
  8
AM_VIS
100
AcDbLine
 10
310.3233675915801
 20
288.7035384397902
 30
0.0
 11
310.3233675915801
 21
305.5410638112571
 31
0.0
  0
LINE
  5
F80
330
1F
100
AcDbEntity
  8
AM_VIS
100
AcDbLine
 10
326.8233675915801
 20
288.7035384397902
 30
0.0
 11
326.8233675915801
 21
305.5410638112571
 31
0.0
  0
LINE
  5
F81
330
1F
100
AcDbEntity
  8
AM_VIS
100
AcDbLine
 10
369.0733675915801
 20
378.0410638112571
 30
0.0
 11
377.5733675915801
 21
378.0410638112571
 31
0.0
  0
LINE
  5
F82
330
1F
100
AcDbEntity
  8
AM_VIS
100
AcDbLine
 10
368.3233675915801
 20
318.5410638112571
 30
0.0
 11
363.3233675915802
 21
318.5410638112571
 31
0.0
  0
LINE
  5
F83
330
1F
100
AcDbEntity
  8
AM_VIS
100
AcDbLine
 10
326.3233675915801
 20
318.5410638112571
 30
0.0
 11
321.3233675915801
 21
318.5410638112571
 31
0.0
  0
LINE
  5
F84
330
1F
100
AcDbEntity
  8
AM_VIS
100
AcDbLine
 10
463.4249905774395
 20
347.0410638112571
 30
0.0
 11
463.4249905774395
 21
376.0410638112571
 31
0.0
  0
LINE
  5
F85
330
1F
100
AcDbEntity
  8
AM_VIS
100
AcDbLine
 10
441.4249905774395
 20
376.0410638112571
 30
0.0
 11
441.4249905774395
 21
347.0410638112571
 31
0.0
  0
LINE
  5
F86
330
1F
100
AcDbEntity
  8
AM_VIS
100
AcDbLine
 10
463.4249905774395
 20
376.0410638112571
 30
0.0
 11
441.4249905774395
 21
376.0410638112571
 31
0.0
  0
LINE
  5
F87
330
1F
100
AcDbEntity
  8
AM_VIS
100
AcDbLine
 10
463.4249905774395
 20
347.0410638112571
 30
0.0
 11
441.4249905774395
 21
347.0410638112571
 31
0.0
  0
LINE
  5
F88
330
1F
100
AcDbEntity
  8
AM_VIS
100
AcDbLine
 10
463.9249905774395
 20
377.0410638112571
 30
0.0
 11
463.9249905774395
 21
346.0410638112571
 31
0.0
  0
LINE
  5
F89
330
1F
100
AcDbEntity
  8
AM_VIS
100
AcDbLine
 10
463.9249905774395
 20
346.0410638112571
 30
0.0
 11
462.8986129708248
 21
346.0410638112571
 31
0.0
  0
LINE
  5
F8A
330
1F
100
AcDbEntity
  8
AM_VIS
100
AcDbLine
 10
441.8986129708248
 20
346.0410638112571
 30
0.0
 11
440.9249905774395
 21
346.0410638112571
 31
0.0
  0
LINE
  5
F8B
330
1F
100
AcDbEntity
  8
AM_VIS
100
AcDbLine
 10
440.9249905774395
 20
346.0410638112571
 30
0.0
 11
440.9249905774395
 21
377.0410638112571
 31
0.0
  0
LINE
  5
F8C
330
1F
100
AcDbEntity
  8
AM_VIS
100
AcDbLine
 10
440.9249905774395
 20
377.0410638112571
 30
0.0
 11
448.1749905774395
 21
377.0410638112571
 31
0.0
  0
LINE
  5
F8D
330
1F
100
AcDbEntity
  8
AM_VIS
100
AcDbLine
 10
456.6749905774395
 20
377.0410638112571
 30
0.0
 11
463.9249905774395
 21
377.0410638112571
 31
0.0
  0
LINE
  5
F8E
330
1F
100
AcDbEntity
  8
AM_VIS
100
AcDbLine
 10
444.4249905774395
 20
389.7910638112571
 30
0.0
 11
444.4249905774395
 21
394.7910638112571
 31
0.0
  0
LINE
  5
F8F
330
1F
100
AcDbEntity
  8
AM_VIS
100
AcDbLine
 10
452.4249905774395
 20
394.7910638112571
 30
0.0
 11
444.4249905774395
 21
394.7910638112571
 31
0.0
  0
LINE
  5
F90
330
1F
100
AcDbEntity
  8
AM_VIS
100
AcDbLine
 10
460.4249905774395
 20
389.7910638112571
 30
0.0
 11
460.4249905774395
 21
394.7910638112571
 31
0.0
  0
LINE
  5
F91
330
1F
100
AcDbEntity
  8
AM_VIS
100
AcDbLine
 10
460.4249905774395
 20
394.7910638112571
 30
0.0
 11
452.4249905774395
 21
394.7910638112571
 31
0.0
  0
LINE
  5
F92
330
1F
100
AcDbEntity
  8
AM_VIS
100
AcDbLine
 10
452.4249905774395
 20
389.7910638112571
 30
0.0
 11
444.4249905774395
 21
389.7910638112571
 31
0.0
  0
LINE
  5
F93
330
1F
100
AcDbEntity
  8
AM_VIS
100
AcDbLine
 10
460.4249905774395
 20
389.7910638112571
 30
0.0
 11
452.4249905774395
 21
389.7910638112571
 31
0.0
  0
LINE
  5
F94
330
1F
100
AcDbEntity
  8
AM_VIS
100
AcDbLine
 10
462.8986129708248
 20
347.0410638112571
 30
0.0
 11
462.8986129708248
 21
345.5410638112571
 31
0.0
  0
LINE
  5
F95
330
1F
100
AcDbEntity
  8
AM_VIS
100
AcDbLine
 10
455.8986129708248
 20
347.0410638112571
 30
0.0
 11
455.8986129708248
 21
345.5410638112571
 31
0.0
  0
LINE
  5
F96
330
1F
100
AcDbEntity
  8
AM_VIS
100
AcDbLine
 10
441.8986129708248
 20
347.0410638112571
 30
0.0
 11
441.8986129708248
 21
345.5410638112571
 31
0.0
  0
LINE
  5
F97
330
1F
100
AcDbEntity
  8
AM_VIS
100
AcDbLine
 10
463.4249905774395
 20
345.5410638112571
 30
0.0
 11
463.4249905774395
 21
330.5410638112571
 31
0.0
  0
LINE
  5
F98
330
1F
100
AcDbEntity
  8
AM_VIS
100
AcDbLine
 10
463.4249905774395
 20
345.5410638112571
 30
0.0
 11
441.4249905774395
 21
345.5410638112571
 31
0.0
  0
LINE
  5
F99
330
1F
100
AcDbEntity
  8
AM_VIS
100
AcDbLine
 10
441.4249905774395
 20
345.5410638112571
 30
0.0
 11
441.4249905774395
 21
330.5410638112571
 31
0.0
  0
LINE
  5
F9A
330
1F
100
AcDbEntity
  8
AM_VIS
100
AcDbLine
 10
426.9249905774395
 20
333.5410638112571
 30
0.0
 11
426.9249905774395
 21
320.5410638112571
 31
0.0
  0
LINE
  5
F9B
330
1F
100
AcDbEntity
  8
AM_VIS
100
AcDbLine
 10
441.4249905774395
 20
333.5410638112571
 30
0.0
 11
426.9249905774395
 21
333.5410638112571
 31
0.0
  0
LINE
  5
F9C
330
1F
100
AcDbEntity
  8
AM_VIS
100
AcDbLine
 10
441.4249905774395
 20
330.5410638112571
 30
0.0
 11
463.4249905774395
 21
330.5410638112571
 31
0.0
  0
LINE
  5
F9D
330
1F
100
AcDbEntity
  8
AM_VIS
100
AcDbLine
 10
446.4249905774395
 20
330.5410638112571
 30
0.0
 11
446.4249905774395
 21
321.5410638112571
 31
0.0
  0
LINE
  5
F9E
330
1F
100
AcDbEntity
  8
AM_VIS
100
AcDbLine
 10
459.8697412378817
 20
290.5410638112571
 30
0.0
 11
466.4249905774395
 21
290.5410638112571
 31
0.0
  0
ELLIPSE
  5
F9F
330
1F
100
AcDbEntity
  8
AM_VIS
100
AcDbEllipse
 10
438.4249905774395
 20
308.5650806118047
 30
0.0
 11
5.0
 21
-0.0000000000000002
 31
0.0
210
0.0
220
0.0
230
1.0
 40
0.3322451442254112
 41
1.98231317286238
 42
2.812530739903039
  0
LINE
  5
FA0
330
1F
100
AcDbEntity
  8
AM_VIS
100
AcDbLine
 10
438.4249905774395
 20
290.5410638112571
 30
0.0
 11
444.9802399169973
 21
290.5410638112571
 31
0.0
  0
ELLIPSE
  5
FA1
330
1F
100
AcDbEntity
  8
AM_VIS
100
AcDbEllipse
 10
466.4249905774395
 20
308.5650806118047
 30
0.0
 11
5.0
 21
-0.0000000000000002
 31
0.0
210
0.0
220
0.0
230
1.0
 40
0.3322451442254112
 41
0.3290619136867379
 42
1.159279480727408
  0
SPLINE
  5
FA2
330
1F
100
AcDbEntity
  8
AM_VIS
100
AcDbSpline
210
0.0
220
0.0
230
1.0
 70
     8
 71
     3
 72
    12
 73
     8
 74
     0
 42
0.0000000001
 43
0.0000000001
 40
-4.046973611496266
 40
-4.046973611496266
 40
-4.046973611496266
 40
-4.046973611496266
 40
-2.87150208818551
 40
-2.87150208818551
 40
-2.383566029252022
 40
-2.383566029252022
 40
-2.321003310039415
 40
-2.321003310039415
 40
-2.321003310039415
 40
-2.321003310039415
 10
471.1567201152007
 20
309.1019147017338
 30
0.0
 10
471.2775923880943
 20
308.9843102396669
 30
0.0
 10
471.3583111802093
 20
308.8690816911914
 30
0.0
 10
471.4137464727212
 20
308.7001621892968
 30
0.0
 10
471.4227899428045
 20
308.6501423235041
 30
0.0
 10
471.4248723039388
 20
308.5930560448478
 30
0.0
 10
471.4249905800265
 20
308.5865598468383
 30
0.0
 10
471.4249905774395
 20
308.5800552953327
 30
0.0
  0
ARC
  5
FA3
330
1F
100
AcDbEntity
  8
AM_VIS
100
AcDbCircle
 10
434.1570554497
 20
308.5336093735131
 30
0.0
 40
0.7335367753912545
100
AcDbArc
 50
129.2179105083448
 51
176.3697298364386
  0
LINE
  5
FA4
330
1F
100
AcDbEntity
  8
AM_VIS
100
AcDbLine
 10
477.9249905774395
 20
333.5410638112571
 30
0.0
 11
463.4249905774395
 21
333.5410638112571
 31
0.0
  0
LINE
  5
FA5
330
1F
100
AcDbEntity
  8
AM_VIS
100
AcDbLine
 10
477.9249905774395
 20
333.5410638112571
 30
0.0
 11
477.9249905774395
 21
320.5410638112571
 31
0.0
  0
LINE
  5
FA6
330
1F
100
AcDbEntity
  8
AM_VIS
100
AcDbLine
 10
458.4249905774395
 20
330.5410638112571
 30
0.0
 11
458.4249905774395
 21
321.5410638112571
 31
0.0
  0
LINE
  5
FA7
330
1F
100
AcDbEntity
  8
AM_VIS
100
AcDbLine
 10
468.4249905774395
 20
321.5410638112571
 30
0.0
 11
468.4249905774395
 21
304.7035384397903
 31
0.0
  0
LINE
  5
FA8
330
1F
100
AcDbEntity
  8
AM_VIS
100
AcDbLine
 10
436.4249905774395
 20
304.7035384397903
 30
0.0
 11
436.4249905774395
 21
321.5410638112571
 31
0.0
  0
LINE
  5
FA9
330
1F
100
AcDbEntity
  8
AM_VIS
100
AcDbLine
 10
436.4249905774395
 20
321.5410638112571
 30
0.0
 11
468.4249905774395
 21
321.5410638112571
 31
0.0
  0
LINE
  5
FAA
330
1F
100
AcDbEntity
  8
AM_VIS
100
AcDbLine
 10
426.9249905774395
 20
320.5410638112571
 30
0.0
 11
436.4249905774395
 21
320.5410638112571
 31
0.0
  0
LINE
  5
FAB
330
1F
100
AcDbEntity
  8
AM_VIS
100
AcDbLine
 10
468.4249905774395
 20
320.5410638112571
 30
0.0
 11
477.9249905774395
 21
320.5410638112571
 31
0.0
  0
LINE
  5
FAC
330
1F
100
AcDbEntity
  8
AM_VIS
100
AcDbLine
 10
461.4249905774395
 20
377.0410638112571
 30
0.0
 11
461.4249905774395
 21
387.7910638112571
 31
0.0
  0
LINE
  5
FAD
330
1F
100
AcDbEntity
  8
AM_VIS
100
AcDbLine
 10
443.4249905774395
 20
377.0410638112571
 30
0.0
 11
443.4249905774395
 21
387.7910638112571
 31
0.0
  0
LINE
  5
FAE
330
1F
100
AcDbEntity
  8
AM_VIS
100
AcDbLine
 10
459.1749905774395
 20
387.7910638112571
 30
0.0
 11
459.1749905774395
 21
389.7910638112571
 31
0.0
  0
LINE
  5
FAF
330
1F
100
AcDbEntity
  8
AM_VIS
100
AcDbLine
 10
445.6749905774395
 20
387.7910638112571
 30
0.0
 11
445.6749905774395
 21
389.7910638112571
 31
0.0
  0
LINE
  5
FB0
330
1F
100
AcDbEntity
  8
AM_VIS
100
AcDbLine
 10
431.9249905774395
 20
333.5410638112571
 30
0.0
 11
431.9249905774395
 21
336.5410638112571
 31
0.0
  0
LINE
  5
FB1
330
1F
100
AcDbEntity
  8
AM_VIS
100
AcDbLine
 10
472.9249905774395
 20
333.5410638112571
 30
0.0
 11
472.9249905774395
 21
336.5410638112571
 31
0.0
  0
LINE
  5
FB2
330
1F
100
AcDbEntity
  8
AM_VIS
100
AcDbLine
 10
433.4249905774395
 20
308.5800552953327
 30
0.0
 11
433.4249905774395
 21
290.5410638112571
 31
0.0
  0
LINE
  5
FB3
330
1F
100
AcDbEntity
  8
AM_VIS
100
AcDbLine
 10
471.4249905774395
 20
308.5800552953327
 30
0.0
 11
471.4249905774395
 21
290.5410638112571
 31
0.0
  0
SPLINE
  5
FB4
330
1F
100
AcDbEntity
  8
AM_VIS
100
AcDbSpline
210
0.0
220
0.0
230
1.0
 70
     8
 71
     1
 72
     5
 73
     3
 74
     0
 42
0.0000000001
 43
0.0000000001
 40
0.0
 40
0.0
 40
4.230502333413066
 40
8.537492401518125
 40
8.537492401518125
 10
473.6749905774395
 20
311.1994529704764
 30
0.0
 10
473.0346406639876
 20
308.8290534095171
 30
0.0
 10
471.4249905774395
 20
306.9574764271774
 30
0.0
  0
SPLINE
  5
FB5
330
1F
100
AcDbEntity
  8
AM_VIS
100
AcDbSpline
210
0.0
220
0.0
230
1.0
 70
     8
 71
     1
 72
     5
 73
     3
 74
     0
 42
0.0000000001
 43
0.0000000001
 40
8.184428782560745
 40
8.184428782560745
 40
11.21265974172114
 40
16.71049655198798
 40
16.71049655198798
 10
433.4249905774395
 20
306.9572658105602
 30
0.0
 10
432.2162183008199
 20
308.2134327845672
 30
0.0
 10
431.1749905774395
 20
311.1994529704764
 30
0.0
  0
LINE
  5
FB6
330
1F
100
AcDbEntity
  8
AM_VIS
100
AcDbLine
 10
431.1749905774395
 20
318.5410638112571
 30
0.0
 11
431.1749905774395
 21
311.1994529704764
 31
0.0
  0
LINE
  5
FB7
330
1F
100
AcDbEntity
  8
AM_VIS
100
AcDbLine
 10
473.6749905774395
 20
318.5410638112571
 30
0.0
 11
473.6749905774395
 21
311.1994529704764
 31
0.0
  0
LINE
  5
FB8
330
1F
100
AcDbEntity
  8
AM_VIS
100
AcDbLine
 10
456.6749905774395
 20
376.0410638112571
 30
0.0
 11
456.6749905774395
 21
378.0410638112571
 31
0.0
  0
LINE
  5
FB9
330
1F
100
AcDbEntity
  8
AM_VIS
100
AcDbLine
 10
448.1749905774395
 20
376.0410638112571
 30
0.0
 11
448.1749905774395
 21
378.0410638112571
 31
0.0
  0
LINE
  5
FBA
330
1F
100
AcDbEntity
  8
AM_VIS
100
AcDbLine
 10
428.9249905774395
 20
320.5410638112571
 30
0.0
 11
428.9249905774395
 21
318.5410638112571
 31
0.0
  0
LINE
  5
FBB
330
1F
100
AcDbEntity
  8
AM_VIS
100
AcDbLine
 10
433.9249905774395
 20
320.5410638112571
 30
0.0
 11
433.9249905774395
 21
318.5410638112571
 31
0.0
  0
LINE
  5
FBC
330
1F
100
AcDbEntity
  8
AM_VIS
100
AcDbLine
 10
470.9249905774395
 20
320.5410638112571
 30
0.0
 11
470.9249905774395
 21
318.5410638112571
 31
0.0
  0
LINE
  5
FBD
330
1F
100
AcDbEntity
  8
AM_VIS
100
AcDbLine
 10
475.9249905774395
 20
320.5410638112571
 30
0.0
 11
475.9249905774395
 21
318.5410638112571
 31
0.0
  0
LINE
  5
FBE
330
1F
100
AcDbEntity
  8
AM_VIS
100
AcDbLine
 10
443.4249905774395
 20
387.7910638112571
 30
0.0
 11
461.4249905774395
 21
387.7910638112571
 31
0.0
  0
LINE
  5
FBF
330
1F
100
AcDbEntity
  8
AM_VIS
100
AcDbLine
 10
431.9249905774395
 20
336.5410638112571
 30
0.0
 11
441.4249905774395
 21
336.5410638112571
 31
0.0
  0
LINE
  5
FC0
330
1F
100
AcDbEntity
  8
AM_VIS
100
AcDbLine
 10
463.4249905774395
 20
336.5410638112571
 30
0.0
 11
472.9249905774395
 21
336.5410638112571
 31
0.0
  0
LINE
  5
FC1
330
1F
100
AcDbEntity
  8
AM_VIS
100
AcDbLine
 10
438.4249905774395
 20
290.5410638112571
 30
0.0
 11
433.4249905774395
 21
290.5410638112571
 31
0.0
  0
LINE
  5
FC2
330
1F
100
AcDbEntity
  8
AM_VIS
100
AcDbLine
 10
471.4249905774395
 20
290.5410638112571
 30
0.0
 11
466.4249905774395
 21
290.5410638112571
 31
0.0
  0
ARC
  5
FC3
330
1F
100
AcDbEntity
  8
AM_VIS
100
AcDbCircle
 10
452.4249905774395
 20
304.7035384397903
 30
0.0
 40
16.0
100
AcDbArc
 50
180.0
 51
0.0
  0
CIRCLE
  5
FC4
330
1F
100
AcDbEntity
  8
AM_VIS
100
AcDbCircle
 10
452.4249905774395
 20
305.5410638112571
 30
0.0
 40
12.0
  0
LINE
  5
FC5
330
1F
100
AcDbEntity
  8
AM_VIS
100
AcDbLine
 10
448.1749905774395
 20
378.0410638112571
 30
0.0
 11
456.6749905774395
 21
378.0410638112571
 31
0.0
  0
LINE
  5
FC6
330
1F
100
AcDbEntity
  8
AM_VIS
100
AcDbLine
 10
433.9249905774395
 20
318.5410638112571
 30
0.0
 11
428.9249905774395
 21
318.5410638112571
 31
0.0
  0
LINE
  5
FC7
330
1F
100
AcDbEntity
  8
AM_VIS
100
AcDbLine
 10
475.9249905774395
 20
318.5410638112571
 30
0.0
 11
470.9249905774395
 21
318.5410638112571
 31
0.0
  0
LINE
  5
FC8
330
1F
100
AcDbEntity
  8
AM_VIS
100
AcDbLine
 10
221.5972409460677
 20
377.0410638112571
 30
0.0
 11
224.0972409460677
 21
377.0410638112571
 31
0.0
  0
LINE
  5
FC9
330
1F
100
AcDbEntity
  8
AM_VIS
100
AcDbLine
 10
242.0972409460677
 20
377.0410638112571
 30
0.0
 11
244.5972409460677
 21
377.0410638112571
 31
0.0
  0
LINE
  5
FCA
330
1F
100
AcDbEntity
  8
AM_VIS
100
AcDbLine
 10
221.5972409460677
 20
346.0410638112571
 30
0.0
 11
221.5972409460677
 21
377.0410638112571
 31
0.0
  0
LINE
  5
FCB
330
1F
100
AcDbEntity
  8
AM_VIS
100
AcDbLine
 10
244.5972409460677
 20
346.0410638112571
 30
0.0
 11
221.5972409460677
 21
346.0410638112571
 31
0.0
  0
LINE
  5
FCC
330
1F
100
AcDbEntity
  8
AM_VIS
100
AcDbLine
 10
244.5972409460677
 20
377.0410638112571
 30
0.0
 11
244.5972409460677
 21
346.0410638112571
 31
0.0
  0
LINE
  5
FCD
330
1F
100
AcDbEntity
  8
AM_VIS
100
AcDbLine
 10
222.8472409460677
 20
347.2910638112571
 30
0.0
 11
222.8472409460677
 21
375.7910638112571
 31
0.0
  0
LINE
  5
FCE
330
1F
100
AcDbEntity
  8
AM_VIS
100
AcDbLine
 10
243.3472409460677
 20
347.2910638112571
 30
0.0
 11
222.8472409460677
 21
347.2910638112571
 31
0.0
  0
LINE
  5
FCF
330
1F
100
AcDbEntity
  8
AM_VIS
100
AcDbLine
 10
243.3472409460677
 20
375.7910638112571
 30
0.0
 11
243.3472409460677
 21
347.2910638112571
 31
0.0
  0
LINE
  5
FD0
330
1F
100
AcDbEntity
  8
AM_VIS
100
AcDbLine
 10
222.8472409460677
 20
375.7910638112571
 30
0.0
 11
228.1223037605347
 21
375.7910638112571
 31
0.0
  0
LINE
  5
FD1
330
1F
100
AcDbEntity
  8
AM_VIS
100
AcDbLine
 10
238.0721781316008
 20
375.7910638112571
 30
0.0
 11
243.3472409460677
 21
375.7910638112571
 31
0.0
  0
LINE
  5
FD2
330
1F
100
AcDbEntity
  8
AM_VIS
100
AcDbLine
 10
225.0972409460677
 20
389.7910638112571
 30
0.0
 11
225.0972409460677
 21
394.7910638112571
 31
0.0
  0
LINE
  5
FD3
330
1F
100
AcDbEntity
  8
AM_VIS
100
AcDbLine
 10
233.0972409460677
 20
394.7910638112571
 30
0.0
 11
225.0972409460677
 21
394.7910638112571
 31
0.0
  0
LINE
  5
FD4
330
1F
100
AcDbEntity
  8
AM_VIS
100
AcDbLine
 10
233.0972409460677
 20
389.7910638112571
 30
0.0
 11
233.0972409460677
 21
394.7910638112571
 31
0.0
  0
LINE
  5
FD5
330
1F
100
AcDbEntity
  8
AM_VIS
100
AcDbLine
 10
241.0972409460677
 20
394.7910638112571
 30
0.0
 11
233.0972409460677
 21
394.7910638112571
 31
0.0
  0
LINE
  5
FD6
330
1F
100
AcDbEntity
  8
AM_VIS
100
AcDbLine
 10
241.0972409460677
 20
389.7910638112571
 30
0.0
 11
241.0972409460677
 21
394.7910638112571
 31
0.0
  0
LINE
  5
FD7
330
1F
100
AcDbEntity
  8
AM_VIS
100
AcDbLine
 10
233.0972409460677
 20
389.7910638112571
 30
0.0
 11
225.0972409460677
 21
389.7910638112571
 31
0.0
  0
LINE
  5
FD8
330
1F
100
AcDbEntity
  8
AM_VIS
100
AcDbLine
 10
241.0972409460677
 20
389.7910638112571
 30
0.0
 11
233.0972409460677
 21
389.7910638112571
 31
0.0
  0
LINE
  5
FD9
330
1F
100
AcDbEntity
  8
AM_VIS
100
AcDbLine
 10
243.6236185526825
 20
346.0410638112571
 30
0.0
 11
243.6236185526825
 21
345.5410638112571
 31
0.0
  0
LINE
  5
FDA
330
1F
100
AcDbEntity
  8
AM_VIS
100
AcDbLine
 10
222.6236185526825
 20
346.0410638112571
 30
0.0
 11
222.6236185526825
 21
345.5410638112571
 31
0.0
  0
LINE
  5
FDB
330
1F
100
AcDbEntity
  8
AM_VIS
100
AcDbLine
 10
236.6236185526824
 20
346.0410638112571
 30
0.0
 11
236.6236185526824
 21
345.5410638112571
 31
0.0
  0
LINE
  5
FDC
330
1F
100
AcDbEntity
  8
AM_VIS
100
AcDbLine
 10
258.5972409460677
 20
320.5410638112571
 30
0.0
 11
258.5972409460677
 21
333.5410638112571
 31
0.0
  0
LINE
  5
FDD
330
1F
100
AcDbEntity
  8
AM_VIS
100
AcDbLine
 10
207.5972409460677
 20
333.5410638112571
 30
0.0
 11
207.5972409460677
 21
320.5410638112571
 31
0.0
  0
LINE
  5
FDE
330
1F
100
AcDbEntity
  8
AM_VIS
100
AcDbLine
 10
227.0972409460677
 20
333.5410638112571
 30
0.0
 11
207.5972409460677
 21
333.5410638112571
 31
0.0
  0
LINE
  5
FDF
330
1F
100
AcDbEntity
  8
AM_VIS
100
AcDbLine
 10
258.5972409460677
 20
333.5410638112571
 30
0.0
 11
239.0972409460677
 21
333.5410638112571
 31
0.0
  0
LINE
  5
FE0
330
1F
100
AcDbEntity
  8
AM_VIS
100
AcDbLine
 10
222.0972409460677
 20
345.5410638112571
 30
0.0
 11
222.0972409460677
 21
336.5410638112571
 31
0.0
  0
LINE
  5
FE1
330
1F
100
AcDbEntity
  8
AM_VIS
100
AcDbLine
 10
244.0972409460677
 20
345.5410638112571
 30
0.0
 11
222.0972409460677
 21
345.5410638112571
 31
0.0
  0
LINE
  5
FE2
330
1F
100
AcDbEntity
  8
AM_VIS
100
AcDbLine
 10
244.0972409460677
 20
345.5410638112571
 30
0.0
 11
244.0972409460677
 21
336.5410638112571
 31
0.0
  0
LINE
  5
FE3
330
1F
100
AcDbEntity
  8
AM_VIS
100
AcDbLine
 10
239.0972409460677
 20
336.5410638112571
 30
0.0
 11
227.0972409460677
 21
336.5410638112571
 31
0.0
  0
LINE
  5
FE4
330
1F
100
AcDbEntity
  8
AM_VIS
100
AcDbLine
 10
227.0972409460677
 20
333.5410638112571
 30
0.0
 11
227.0972409460677
 21
336.5410638112571
 31
0.0
  0
LINE
  5
FE5
330
1F
100
AcDbEntity
  8
AM_VIS
100
AcDbLine
 10
239.0972409460677
 20
333.5410638112571
 30
0.0
 11
239.0972409460677
 21
336.5410638112571
 31
0.0
  0
LINE
  5
FE6
330
1F
100
AcDbEntity
  8
AM_VIS
100
AcDbLine
 10
239.9711044885015
 20
290.5410638112571
 30
0.0
 11
247.0972409460677
 21
290.5410638112571
 31
0.0
  0
LINE
  5
FE7
330
1F
100
AcDbEntity
  8
AM_VIS
100
AcDbLine
 10
219.0972409460677
 20
290.5410638112571
 30
0.0
 11
226.223377403634
 21
290.5410638112571
 31
0.0
  0
POINT
  5
FE8
330
1F
100
AcDbEntity
  8
0
 60
     1
100
AcDbPoint
 10
-1788.559278192548
 20
-734.8486520280308
 30
0.0
1001
GENIUS_GENOBJ-N-CRS_13
1002
{
1000
OWNER
1000
GEN
1002
}
1001
GENIUS_GENOENT_13
1002
{
1000
MYREF
1005
FE8
1002
}
1002
{
1000
GRP
1005
0
1002
}
1001
GENIUS_GENODEF_13
1002
{
1000
HIER
1070
    10
1002
}
1002
{
1000
MANEDIT
1070
     1
1002
}
1002
{
1000
NOSEL
1070
     0
1002
}
1002
{
1000
BEHIND
1070
     0
1002
}
1002
{
1000
OTHER
1070
     0
1002
}
1002
{
1000
REACTOR
1002
}
1001
GENIUS_GENOLIS_13
1002
{
1000
ENT
1005
E95
1002
}
  0
POINT
  5
FE9
330
1F
100
AcDbEntity
  8
0
 60
     1
100
AcDbPoint
 10
-1799.883863415403
 20
-725.9730655493945
 30
0.0
1001
GENIUS_GENOBJ-N-CRS_13
1002
{
1000
OWNER
1000
GEN
1002
}
1001
GENIUS_GENOENT_13
1002
{
1000
MYREF
1005
FE9
1002
}
1002
{
1000
GRP
1005
0
1002
}
1001
GENIUS_GENODEF_13
1002
{
1000
HIER
1070
    10
1002
}
1002
{
1000
MANEDIT
1070
     1
1002
}
1002
{
1000
NOSEL
1070
     0
1002
}
1002
{
1000
BEHIND
1070
     0
1002
}
1002
{
1000
OTHER
1070
     0
1002
}
1002
{
1000
REACTOR
1002
}
1001
GENIUS_GENOLIS_13
1002
{
1000
ENT
1005
E94
1002
}
  0
POINT
  5
FEA
330
1F
100
AcDbEntity
  8
0
 60
     1
100
AcDbPoint
 10
-1793.525189717566
 20
-734.8486520280308
 30
0.0
1001
GENIUS_GENOBJ-N-CRS_13
1002
{
1000
OWNER
1000
GEN
1002
}
1001
GENIUS_GENOENT_13
1002
{
1000
MYREF
1005
FEA
1002
}
1002
{
1000
GRP
1005
0
1002
}
1001
GENIUS_GENODEF_13
1002
{
1000
HIER
1070
    10
1002
}
1002
{
1000
MANEDIT
1070
     1
1002
}
1002
{
1000
NOSEL
1070
     0
1002
}
1002
{
1000
BEHIND
1070
     0
1002
}
1002
{
1000
OTHER
1070
     0
1002
}
1002
{
1000
REACTOR
1002
}
1001
GENIUS_GENOLIS_13
1002
{
1000
ENT
1005
E93
1002
}
  0
DIMENSION
  5
10B6
102
{ACAD_XDICTIONARY
360
10C3
102
}
102
{ACAD_REACTORS
330
10C4
102
}
330
1F
100
AcDbEntity
  8
AM_5
100
AcDbDimension
  2
*D13
 10
298.3233675915801
 20
209.6474532417463
 30
0.0
 11
295.8730231033911
 21
223.6474532417464
 31
0.0
 70
    32
 71
     5
 42
28.00000000000003
  3
AM_ISO$0
100
AcDbAlignedDimension
 13
342.124452337983
 23
237.6474532417463
 33
0.0
 14
342.2688604470764
 24
209.6474532417463
 34
0.0
 50
90.0
100
AcDbRotatedDimension
1001
ACAD
1000
DSTYLE
1002
{
1070
    40
1040
1.0
1070
   144
1040
1.0
1070
   272
1070
     8
1002
}
  0
LINE
  5
1119
330
1F
100
AcDbEntity
  8
AM_7
 62
     1
100
AcDbLine
 10
233.0972409460677
 20
373.7910638112571
 30
0.0
 11
233.0972409460677
 21
398.6543071390172
 31
0.0
  0
DIMENSION
  5
1154
102
{ACAD_XDICTIONARY
360
1161
102
}
102
{ACAD_REACTORS
330
1162
102
}
330
1F
100
AcDbEntity
  8
AM_5
100
AcDbDimension
  2
*D15
 10
298.3233675915802
 20
394.7910638112571
 30
0.0
 11
295.69836759158
 21
341.7473011255237
 31
0.0
 70
    32
  1
(<>)
 71
     5
 42
106.0875253714669
  3
AM_ISO$0
100
AcDbAlignedDimension
 13
310.3233675915801
 23
288.7035384397902
 33
0.0
 14
323.5857632845461
 24
394.7910638112571
 34
0.0
 50
90.0
100
AcDbRotatedDimension
1001
ACAD
1000
DSTYLE
1002
{
1070
   271
1070
     0
1070
   272
1070
     8
1002
}
  0
INSERT
  5
1183
330
1F
100
AcDbEntity
  8
AM_5
100
AcDbBlockReference
  2
*S18
 10
0.0
 20
0.0
 30
0.0
  0
TEXT
  5
1185
330
1F
100
AcDbEntity
  8
0
 62
     5
100
AcDbText
 10
357.9367133712069
 20
186.8547383447989
 30
0.0
 40
3.0
  1
2-M5x0.8
100
AcDbText
  0
INSERT
  5
1186
330
1F
100
AcDbEntity
  8
AM_5
100
AcDbBlockReference
  2
*S19
 10
0.0
 20
0.0
 30
0.0
  0
TEXT
  5
1187
330
1F
100
AcDbEntity
  8
0
 62
     5
100
AcDbText
 10
402.5909477572104
 20
294.0135665515163
 30
0.0
 40
3.0
  1
G3/4
100
AcDbText
  0
ARC
  5
11C8
330
1F
100
AcDbEntity
  8
0
 62
     3
100
AcDbCircle
 10
452.4532040006014
 20
305.543532165943
 30
0.0
 40
10.85859687918891
100
AcDbArc
 50
280.0
 51
194.423626428187
  0
ARC
  5
11C9
330
1F
100
AcDbEntity
  8
0
 62
     3
100
AcDbCircle
 10
233.0972409460677
 20
305.5410638112571
 30
0.0
 40
10.85859687918891
100
AcDbArc
 50
280.0
 51
194.423626428187
  0
ENDSEC
  0
SECTION
  2
OBJECTS
  0
DICTIONARY
  5
C
330
0
100
AcDbDictionary
281
     1
  3
ACAD_COLOR
350
BE
  3
ACAD_GROUP
350
D
  3
ACAD_LAYOUT
350
1A
  3
ACAD_MATERIAL
350
BD
  3
ACAD_MLINESTYLE
350
17
  3
ACAD_PLOTSETTINGS
350
19
  3
ACAD_PLOTSTYLENAME
350
E
  3
ACAD_TABLESTYLE
350
11A
  3
ACDBHEADERROUNDTRIPXREC
350
1203
  3
AcDbVariableDictionary
350
94
  3
AcmDictionary
350
5B
  3
AMG
350
41
  3
AMGSNAPSETTINGS
350
1B8
  3
DWGPROPS
350
1202
  0
DICTIONARY
  5
3F9
330
2
100
AcDbDictionary
280
     1
281
     1
  3
ACAD_LAYERFILTERS
360
5B7
  3
ACAD_LAYERSTATES
360
A7E
  3
ACLYDICTIONARY
360
5B6
  0
DICTIONARY
  5
8F
330
1F
100
AcDbDictionary
280
     1
281
     1
  0
DICTIONARY
  5
10C3
330
10B6
100
AcDbDictionary
280
     1
281
     1
  3
ACAD_DIMASSOC
360
10C4
  0
DICTIONARY
  5
1161
330
1154
100
AcDbDictionary
280
     1
281
     1
  3
ACAD_DIMASSOC
360
1162
  0
DICTIONARY
  5
BE
102
{ACAD_REACTORS
330
C
102
}
330
C
100
AcDbDictionary
281
     1
  0
DICTIONARY
  5
D
102
{ACAD_REACTORS
330
C
102
}
330
C
100
AcDbDictionary
281
     1
  0
DICTIONARY
  5
1A
102
{ACAD_REACTORS
330
C
102
}
330
C
100
AcDbDictionary
281
     1
  3
Model
350
22
  3
配置1
350
1E
  3
配置2
350
26
  0
DICTIONARY
  5
BD
102
{ACAD_REACTORS
330
C
102
}
330
C
100
AcDbDictionary
281
     1
  0
DICTIONARY
  5
17
102
{ACAD_REACTORS
330
C
102
}
330
C
100
AcDbDictionary
281
     1
  3
Standard
350
18
  0
DICTIONARY
  5
19
102
{ACAD_REACTORS
330
C
102
}
330
C
100
AcDbDictionary
281
     1
  0
ACDBDICTIONARYWDFLT
  5
E
102
{ACAD_REACTORS
330
C
102
}
330
C
100
AcDbDictionary
281
     1
  3
Normal
350
F
100
AcDbDictionaryWithDefault
340
F
  0
DICTIONARY
  5
11A
102
{ACAD_REACTORS
330
C
102
}
330
C
100
AcDbDictionary
281
     1
  3
Standard
350
11B
  0
DICTIONARY
  5
1203
102
{ACAD_REACTORS
330
C
102
}
330
C
100
AcDbDictionary
281
     1
  0
DICTIONARY
  5
94
102
{ACAD_REACTORS
330
C
102
}
330
C
100
AcDbDictionary
281
     1
  3
CTABLESTYLE
350
138
  3
DIMASSOC
350
96
  3
INDEXCTL
350
95
  3
PROJECTNAME
350
1200
  0
DICTIONARY
  5
5B
102
{ACAD_REACTORS
330
C
102
}
330
C
100
AcDbDictionary
281
     1
  3
AcmBOM
350
1B5
  3
AcmStdDictionary
350
61
  3
AMDTSECTSYM_ARROWCOLOR
350
123
  0
DICTIONARY
  5
41
102
{ACAD_REACTORS
330
C
102
}
330
C
100
AcDbDictionary
281
     1
  0
DICTIONARY
  5
1B8
102
{ACAD_REACTORS
330
C
102
}
330
C
100
AcDbDictionary
281
     1
  0
XRECORD
  5
1202
102
{ACAD_REACTORS
330
C
102
}
330
C
100
AcDbXrecord
280
     1
  1
DWGPROPS COOKIE
  2

  3

  4

  6

  7

  8

  9

300
AmdtFileType=84
301
=
302
=
303
=
304
=
305
=
306
=
307
=
308
=
309
=
 40
0.0464740740740741
 41
2453980.341738634
 42
2453980.388212523
  1

 90
        1
  0
DICTIONARY
  5
5B7
102
{ACAD_REACTORS
330
3F9
102
}
330
3F9
100
AcDbDictionary
281
     1
  0
DICTIONARY
  5
A7E
102
{ACAD_REACTORS
330
3F9
102
}
330
3F9
100
AcDbDictionary
281
     1
  0
DICTIONARY
  5
5B6
102
{ACAD_REACTORS
330
3F9
102
}
330
3F9
100
AcDbDictionary
281
     1
1001
ACAD
1000
<All
  0
DIMASSOC
  5
10C4
102
{ACAD_REACTORS
330
10C3
102
}
330
10C3
100
AcDbDimAssoc
330
10B6
 90
        3
 70
     0
 71
     0
  1
AcDbOsnapPointRef
 72
    13
331
F0D
 73
     0
 91
        0
 40
0.0
 10
0.0
 20
0.0
 30
2.000000000000000E+50
 75
     0
  1
AcDbOsnapPointRef
 72
    13
331
F13
 73
     0
 91
        0
 40
0.0
 10
0.0
 20
0.0
 30
2.000000000000000E+50
 75
     0
  0
DIMASSOC
  5
1162
102
{ACAD_REACTORS
330
1161
102
}
330
1161
100
AcDbDimAssoc
330
1154
 90
        3
 70
     0
 71
     0
  1
AcDbOsnapPointRef
 72
    13
331
F7F
 73
     0
 91
        0
 40
0.0
 10
0.0
 20
0.0
 30
2.000000000000000E+50
 75
     0
  1
AcDbOsnapPointRef
 72
     1
331
F3A
 73
     0
 91
        0
 40
0.0
 10
0.0
 20
0.0
 30
2.000000000000000E+50
 75
     0
  0
LAYOUT
  5
22
102
{ACAD_XDICTIONARY
360
1206
102
}
102
{ACAD_REACTORS
330
1A
102
}
330
1A
100
AcDbPlotSettings
  1

  2
\\RD\EPSON Stylus C63 Series單色
  4
A4
  6

 40
3.757083177566528
 41
3.757076978683471
 42
3.757080078125
 43
3.757080078125
 44
209.9733276367187
 45
296.9683227539062
 46
0.0
 47
0.0
 48
0.0
 49
0.0
140
0.0
141
0.0
142
1.0
143
0.3405120737814363
 70
 11952
 72
     1
 73
     0
 74
     0
  7
彩色出圖.ctb
 75
     0
147
2.936753428137963
148
-2047.07469463503
149
-1261.649717473083
100
AcDbLayout
  1
Model
 70
     1
 71
     0
 10
0.0
 20
0.0
 11
12.0
 21
9.0
 12
0.0
 22
0.0
 32
0.0
 14
0.0
 24
0.0
 34
0.0
 15
0.0
 25
0.0
 35
0.0
146
0.0
 13
0.0
 23
0.0
 33
0.0
 16
1.0
 26
0.0
 36
0.0
 17
0.0
 27
1.0
 37
0.0
 76
     0
330
1F
1001
ACAD_PSEXT
1000
\\RD\EPSON Stylus C63 Series單色
1000
EPSON Stylus C63 Series
1000
\\RD
1000

1070
     0
  0
LAYOUT
  5
1E
102
{ACAD_XDICTIONARY
360
1204
102
}
102
{ACAD_REACTORS
330
1A
102
}
330
1A
100
AcDbPlotSettings
  1

  2

  4

  6

 40
0.0
 41
0.0
 42
0.0
 43
0.0
 44
0.0
 45
0.0
 46
0.0
 47
0.0
 48
0.0
 49
0.0
140
0.0
141
0.0
142
1.0
143
1.0
 70
   688
 72
     0
 73
     0
 74
     5
  7
彩色出圖.ctb
 75
    16
147
1.0
148
0.0
149
0.0
100
AcDbLayout
  1
配置1
 70
     1
 71
     1
 10
0.0
 20
0.0
 11
420.0
 21
297.0
 12
0.0
 22
0.0
 32
0.0
 14
1.000000000000000E+20
 24
1.000000000000000E+20
 34
1.000000000000000E+20
 15
-1.000000000000000E+20
 25
-1.000000000000000E+20
 35
-1.000000000000000E+20
146
0.0
 13
0.0
 23
0.0
 33
0.0
 16
1.0
 26
0.0
 36
0.0
 17
0.0
 27
1.0
 37
0.0
 76
     0
330
1B
  0
LAYOUT
  5
26
102
{ACAD_XDICTIONARY
360
1208
102
}
102
{ACAD_REACTORS
330
1A
102
}
330
1A
100
AcDbPlotSettings
  1

  2

  4

  6

 40
0.0
 41
0.0
 42
0.0
 43
0.0
 44
0.0
 45
0.0
 46
0.0
 47
0.0
 48
0.0
 49
0.0
140
0.0
141
0.0
142
1.0
143
1.0
 70
   688
 72
     0
 73
     0
 74
     5
  7
彩色出圖.ctb
 75
    16
147
1.0
148
0.0
149
0.0
100
AcDbLayout
  1
配置2
 70
     1
 71
     2
 10
0.0
 20
0.0
 11
12.0
 21
9.0
 12
0.0
 22
0.0
 32
0.0
 14
0.0
 24
0.0
 34
0.0
 15
0.0
 25
0.0
 35
0.0
146
0.0
 13
0.0
 23
0.0
 33
0.0
 16
1.0
 26
0.0
 36
0.0
 17
0.0
 27
1.0
 37
0.0
 76
     0
330
23
  0
MLINESTYLE
  5
18
102
{ACAD_REACTORS
330
17
102
}
330
17
100
AcDbMlineStyle
  2
STANDARD
 70
     0
  3

 62
   256
 51
90.0
 52
90.0
 71
     2
 49
0.5
 62
   256
  6
BYLAYER
 49
-0.5
 62
   256
  6
BYLAYER
  0
ACDBPLACEHOLDER
  5
F
102
{ACAD_REACTORS
330
E
102
}
330
E
  0
TABLESTYLE
  5
11B
102
{ACAD_REACTORS
330
11A
102
}
330
11A
100
AcDbTableStyle
  3
Standard
 70
     0
 71
     0
 40
1.5
 41
1.5
280
     0
281
     0
  7
STANDARD
140
4.5
170
     2
 62
     0
 63
     7
283
     0
274
    -2
284
     1
 64
     0
275
    -2
285
     1
 65
     0
276
    -2
286
     1
 66
     0
277
    -2
287
     1
 67
     0
278
    -2
288
     1
 68
     0
279
    -2
289
     1
 69
     0
  7
STANDARD
140
6.0
170
     5
 62
     0
 63
     7
283
     0
274
    -2
284
     1
 64
     0
275
    -2
285
     1
 65
     0
276
    -2
286
     1
 66
     0
277
    -2
287
     1
 67
     0
278
    -2
288
     1
 68
     0
279
    -2
289
     1
 69
     0
  7
STANDARD
140
4.5
170
     5
 62
     0
 63
     7
283
     0
274
    -2
284
     1
 64
     0
275
    -2
285
     1
 65
     0
276
    -2
286
     1
 66
     0
277
    -2
287
     1
 67
     0
278
    -2
288
     1
 68
     0
279
    -2
289
     1
 69
     0
  0
DICTIONARYVAR
  5
138
102
{ACAD_REACTORS
330
94
102
}
330
94
100
DictionaryVariables
280
     0
  1
STANDARD
  0
DICTIONARYVAR
  5
96
102
{ACAD_REACTORS
330
94
102
}
330
94
100
DictionaryVariables
280
     0
  1
2
  0
DICTIONARYVAR
  5
95
102
{ACAD_REACTORS
330
94
102
}
330
94
100
DictionaryVariables
280
     0
  1
0
  0
DICTIONARYVAR
  5
1200
102
{ACAD_REACTORS
330
94
102
}
330
94
100
DictionaryVariables
280
     0
  1

  0
DICTIONARY
  5
1B5
102
{ACAD_REACTORS
330
5B
102
}
330
5B
100
AcDbDictionary
281
     1
  0
DICTIONARY
  5
61
102
{ACAD_REACTORS
330
5B
102
}
330
5B
100
AcDbDictionary
281
     1
  0
XRECORD
  5
123
102
{ACAD_REACTORS
330
5B
102
}
330
5B
100
AcDbXrecord
280
     1
 90
-1023410169
  0
DICTIONARY
  5
1206
330
22
100
AcDbDictionary
280
     1
281
     1
  3
ACAD_XREC_ROUNDTRIP
360
1207
  0
DICTIONARY
  5
1204
330
1E
100
AcDbDictionary
280
     1
281
     1
  3
ACAD_XREC_ROUNDTRIP
360
1205
  0
DICTIONARY
  5
1208
330
26
100
AcDbDictionary
280
     1
281
     1
  3
ACAD_XREC_ROUNDTRIP
360
1209
  0
XRECORD
  5
1207
102
{ACAD_REACTORS
330
1206
102
}
330
1206
100
AcDbXrecord
280
     1
102
SHADEPLOT
 70
     0
102
SHADEPLOTRESLEVEL
 70
     2
102
SHADEPLOTCUSTOMDPI
 70
   300
  0
XRECORD
  5
1205
102
{ACAD_REACTORS
330
1204
102
}
330
1204
100
AcDbXrecord
280
     1
102
SHADEPLOT
 70
     0
102
SHADEPLOTRESLEVEL
 70
     2
102
SHADEPLOTCUSTOMDPI
 70
   300
  0
XRECORD
  5
1209
102
{ACAD_REACTORS
330
1208
102
}
330
1208
100
AcDbXrecord
280
     1
102
SHADEPLOT
 70
     0
102
SHADEPLOTRESLEVEL
 70
     2
102
SHADEPLOTCUSTOMDPI
 70
   300
  0
ENDSEC
  0
EOF
