  0
SECTION
  2
HEADER
  9
$ACADVER
  1
AC1015
  9
$ACADMAINTVER
 70
    20
  9
$DWGCODEPAGE
  3
ANSI_950
  9
$INSBASE
 10
0.0
 20
0.0
 30
0.0
  9
$EXTMIN
 10
1852.711798489038
 20
976.2881991476341
 30
-0.0000000000000071
  9
$EXTMAX
 10
2465.308656512059
 20
1365.184190898902
 30
300.7067094474039
  9
$LIMMIN
 10
0.0
 20
0.0
  9
$LIMMAX
 10
420.0
 20
297.0
  9
$ORTHOMODE
 70
     0
  9
$REGENMODE
 70
     1
  9
$FILLMODE
 70
     1
  9
$QTEXTMODE
 70
     0
  9
$MIRRTEXT
 70
     1
  9
$LTSCALE
 40
1.0
  9
$ATTMODE
 70
     1
  9
$TEXTSIZE
 40
3.0
  9
$TRACEWID
 40
1.0
  9
$TEXTSTYLE
  7
CHINESET
  9
$CLAYER
  8
0
  9
$CELTYPE
  6
ByLayer
  9
$CECOLOR
 62
   256
  9
$CELTSCALE
 40
1.0
  9
$DISPSILH
 70
     0
  9
$DIMSCALE
 40
1.0
  9
$DIMASZ
 40
3.0
  9
$DIMEXO
 40
1.0
  9
$DIMDLI
 40
10.0
  9
$DIMRND
 40
0.0
  9
$DIMDLE
 40
0.0
  9
$DIMEXE
 40
1.5
  9
$DIMTP
 40
0.1
  9
$DIMTM
 40
0.1
  9
$DIMTXT
 40
3.0
  9
$DIMCEN
 40
0.0
  9
$DIMTSZ
 40
0.0
  9
$DIMTOL
 70
     0
  9
$DIMLIM
 70
     0
  9
$DIMTIH
 70
     0
  9
$DIMTOH
 70
     0
  9
$DIMSE1
 70
     0
  9
$DIMSE2
 70
     0
  9
$DIMTAD
 70
     1
  9
$DIMZIN
 70
     8
  9
$DIMBLK
  1

  9
$DIMASO
 70
     1
  9
$DIMSHO
 70
     1
  9
$DIMPOST
  1

  9
$DIMAPOST
  1
"
  9
$DIMALT
 70
     0
  9
$DIMALTD
 70
     2
  9
$DIMALTF
 40
0.0393701
  9
$DIMLFAC
 40
1.0
  9
$DIMTOFL
 70
     1
  9
$DIMTVP
 40
0.0
  9
$DIMTIX
 70
     0
  9
$DIMSOXD
 70
     0
  9
$DIMSAH
 70
     0
  9
$DIMBLK1
  1

  9
$DIMBLK2
  1

  9
$DIMSTYLE
  2
AM_ISO
  9
$DIMCLRD
 70
   256
  9
$DIMCLRE
 70
   256
  9
$DIMCLRT
 70
   256
  9
$DIMTFAC
 40
0.71
  9
$DIMGAP
 40
1.0
  9
$DIMJUST
 70
     0
  9
$DIMSD1
 70
     0
  9
$DIMSD2
 70
     0
  9
$DIMTOLJ
 70
     2
  9
$DIMTZIN
 70
     8
  9
$DIMALTZ
 70
     0
  9
$DIMALTTZ
 70
     0
  9
$DIMUPT
 70
     0
  9
$DIMDEC
 70
     2
  9
$DIMTDEC
 70
     8
  9
$DIMALTU
 70
     2
  9
$DIMALTTD
 70
     2
  9
$DIMTXSTY
  7
STANDARD
  9
$DIMAUNIT
 70
     0
  9
$DIMADEC
 70
     0
  9
$DIMALTRND
 40
0.0
  9
$DIMAZIN
 70
     2
  9
$DIMDSEP
 70
    46
  9
$DIMATFIT
 70
     3
  9
$DIMFRAC
 70
     0
  9
$DIMLDRBLK
  1

  9
$DIMLUNIT
 70
     2
  9
$DIMLWD
 70
    -1
  9
$DIMLWE
 70
    -1
  9
$DIMTMOVE
 70
     0
  9
$LUNITS
 70
     2
  9
$LUPREC
 70
     2
  9
$SKETCHINC
 40
1.0
  9
$FILLETRAD
 40
2.5
  9
$AUNITS
 70
     0
  9
$AUPREC
 70
     0
  9
$MENU
  1
.
  9
$ELEVATION
 40
0.0
  9
$PELEVATION
 40
0.0
  9
$THICKNESS
 40
0.0
  9
$LIMCHECK
 70
     0
  9
$CHAMFERA
 40
2.5
  9
$CHAMFERB
 40
2.5
  9
$CHAMFERC
 40
20.0
  9
$CHAMFERD
 40
0.0
  9
$SKPOLY
 70
     0
  9
$TDCREATE
 40
2453571.402341933
  9
$TDUCREATE
 40
2453571.069008600
  9
$TDUPDATE
 40
2456548.636500648
  9
$TDUUPDATE
 40
2456548.303167315
  9
$TDINDWG
 40
0.2406374653
  9
$TDUSRTIMER
 40
0.2406374653
  9
$USRTIMER
 70
     1
  9
$ANGBASE
 50
0.0
  9
$ANGDIR
 70
     0
  9
$PDMODE
 70
     0
  9
$PDSIZE
 40
0.0
  9
$PLINEWID
 40
0.0
  9
$SPLFRAME
 70
     0
  9
$SPLINETYPE
 70
     6
  9
$SPLINESEGS
 70
     8
  9
$HANDSEED
  5
2A6F
  9
$SURFTAB1
 70
     6
  9
$SURFTAB2
 70
     6
  9
$SURFTYPE
 70
     6
  9
$SURFU
 70
     6
  9
$SURFV
 70
     6
  9
$UCSBASE
  2

  9
$UCSNAME
  2

  9
$UCSORG
 10
0.0
 20
0.0
 30
0.0
  9
$UCSXDIR
 10
1.0
 20
0.0
 30
0.0
  9
$UCSYDIR
 10
0.0
 20
1.0
 30
0.0
  9
$UCSORTHOREF
  2

  9
$UCSORTHOVIEW
 70
     0
  9
$UCSORGTOP
 10
0.0
 20
0.0
 30
0.0
  9
$UCSORGBOTTOM
 10
0.0
 20
0.0
 30
0.0
  9
$UCSORGLEFT
 10
0.0
 20
0.0
 30
0.0
  9
$UCSORGRIGHT
 10
0.0
 20
0.0
 30
0.0
  9
$UCSORGFRONT
 10
0.0
 20
0.0
 30
0.0
  9
$UCSORGBACK
 10
0.0
 20
0.0
 30
0.0
  9
$PUCSBASE
  2

  9
$PUCSNAME
  2

  9
$PUCSORG
 10
0.0
 20
0.0
 30
0.0
  9
$PUCSXDIR
 10
1.0
 20
0.0
 30
0.0
  9
$PUCSYDIR
 10
0.0
 20
1.0
 30
0.0
  9
$PUCSORTHOREF
  2

  9
$PUCSORTHOVIEW
 70
     0
  9
$PUCSORGTOP
 10
0.0
 20
0.0
 30
0.0
  9
$PUCSORGBOTTOM
 10
0.0
 20
0.0
 30
0.0
  9
$PUCSORGLEFT
 10
0.0
 20
0.0
 30
0.0
  9
$PUCSORGRIGHT
 10
0.0
 20
0.0
 30
0.0
  9
$PUCSORGFRONT
 10
0.0
 20
0.0
 30
0.0
  9
$PUCSORGBACK
 10
0.0
 20
0.0
 30
0.0
  9
$USERI1
 70
     0
  9
$USERI2
 70
     0
  9
$USERI3
 70
     0
  9
$USERI4
 70
     0
  9
$USERI5
 70
     0
  9
$USERR1
 40
0.0
  9
$USERR2
 40
0.0
  9
$USERR3
 40
0.0
  9
$USERR4
 40
0.0
  9
$USERR5
 40
0.0
  9
$WORLDVIEW
 70
     1
  9
$SHADEDGE
 70
     3
  9
$SHADEDIF
 70
    70
  9
$TILEMODE
 70
     1
  9
$MAXACTVP
 70
    64
  9
$PINSBASE
 10
0.0
 20
0.0
 30
0.0
  9
$PLIMCHECK
 70
     0
  9
$PEXTMIN
 10
1.000000000000000E+20
 20
1.000000000000000E+20
 30
1.000000000000000E+20
  9
$PEXTMAX
 10
-1.000000000000000E+20
 20
-1.000000000000000E+20
 30
-1.000000000000000E+20
  9
$PLIMMIN
 10
0.0
 20
0.0
  9
$PLIMMAX
 10
420.0
 20
297.0
  9
$UNITMODE
 70
     0
  9
$VISRETAIN
 70
     1
  9
$PLINEGEN
 70
     0
  9
$PSLTSCALE
 70
     1
  9
$TREEDEPTH
 70
  3020
  9
$CMLSTYLE
  2
Standard
  9
$CMLJUST
 70
     0
  9
$CMLSCALE
 40
20.0
  9
$PROXYGRAPHICS
 70
     1
  9
$MEASUREMENT
 70
     1
  9
$CELWEIGHT
370
    -1
  9
$ENDCAPS
280
     0
  9
$JOINSTYLE
280
     0
  9
$LWDISPLAY
290
     0
  9
$INSUNITS
 70
     4
  9
$HYPERLINKBASE
  1

  9
$STYLESHEET
  1
彩色出圖.ctb
  9
$XEDIT
290
     1
  9
$CEPSNTYPE
380
     0
  9
$PSTYLEMODE
290
     1
  9
$FINGERPRINTGUID
  2
{63A85DC4-5EEE-4257-B18A-D16ADFC1EE91}
  9
$VERSIONGUID
  2
{F5763046-ECAB-4BF3-B1CA-EAF62825C8C1}
  9
$EXTNAMES
290
     1
  9
$PSVPSCALE
 40
0.0
  9
$OLESTARTUP
290
     0
  0
ENDSEC
  0
SECTION
  2
CLASSES
  0
CLASS
  1
ACDBDICTIONARYWDFLT
  2
AcDbDictionaryWithDefault
  3
ObjectDBX Classes
 90
        0
280
     0
281
     0
  0
CLASS
  1
ACDBPLACEHOLDER
  2
AcDbPlaceHolder
  3
ObjectDBX Classes
 90
        0
280
     0
281
     0
  0
CLASS
  1
LAYOUT
  2
AcDbLayout
  3
ObjectDBX Classes
 90
        0
280
     0
281
     0
  0
CLASS
  1
ACME_DOCUMENT
  2
AcMeDbDoc
  3
AcMeServices
 90
        0
280
     0
281
     0
  0
CLASS
  1
AMGSETTINGSOBJ
  2
AmgSettingsObj
  3
"AcadM|Product Description: AutoCAD Mechanical 2000|Company: Autodesk"
 90
        0
280
     0
281
     0
  0
CLASS
  1
ACMESCOPE
  2
AcMeScope
  3
AcMeServices
 90
        0
280
     0
281
     0
  0
CLASS
  1
ACMECOMMANDHISTORY
  2
AcMeCommandHistory
  3
AcMeServices
 90
        0
280
     0
281
     0
  0
CLASS
  1
ACIMSYSVARMAN
  2
AcImSysVarManager
  3
AcMeServices
 90
        0
280
     0
281
     0
  0
CLASS
  1
ACIMREALSYSVAR
  2
AcImRealSysVar
  3
AcMeServices
 90
        0
280
     0
281
     0
  0
CLASS
  1
ACIMINTSYSVAR
  2
AcImIntSysVar
  3
AcMeServices
 90
        0
280
     0
281
     0
  0
CLASS
  1
ACMEDRAWINGMAN
  2
AcMeDrawingMan
  3
AcMeServices
 90
        0
280
     0
281
     0
  0
CLASS
  1
ACMEVIEW
  2
AcMeView
  3
AcMeServices
 90
        0
280
     0
281
     0
  0
CLASS
  1
ACDBENTITYCACHE
  2
AcMeEntityCache
  3
AcMeServices
 90
        0
280
     0
281
     0
  0
CLASS
  1
GSMANAGER
  2
AcMeGSManager
  3
AcMeServices
 90
        0
280
     0
281
     0
  0
CLASS
  1
AMDTINTERNALREACTOR
  2
AmdtInternalReactor
  3
AcMeServices
 90
        0
280
     0
281
     0
  0
CLASS
  1
ACMESTATEMGR
  2
AcMeStateMgr
  3
AcMeServices
 90
        0
280
     0
281
     0
  0
CLASS
  1
ACGREFMASTER
  2
AcGrefMaster
  3
AcAttribServices
 90
        0
280
     0
281
     0
  0
CLASS
  1
ACME_DATABASE
  2
AcMeDbDatabase
  3
AcMeServices
 90
        0
280
     0
281
     0
  0
CLASS
  1
ACRFINSADJUSTERMGR
  2
AcRfInsAdjusterMgr
  3
AcMeServices
 90
        0
280
     0
281
     0
  0
CLASS
  1
ACGREFACADMASTER
  2
AcGrefacadMaster
  3
AcGrefServices
 90
        0
280
     0
281
     0
  0
CLASS
  1
AMIMASTER
  2
AmiMaster
  3
AmiServices
 90
        0
280
     0
281
     0
  0
CLASS
  1
ACMDATADICTIONARY
  2
AcmDataDictionary
  3
"AcmSymBB|Product Description: AutoCAD Mechanical 2004 DX|Company: Autodesk"
 90
        0
280
     0
281
     0
  0
CLASS
  1
ACMDATAENTRYBLOCK
  2
AcmDataEntryBlock
  3
"AcmSymBB|Product Description: AutoCAD Mechanical 2004 DX|Company: Autodesk"
 90
        0
280
     0
281
     0
  0
CLASS
  1
ACIMSTRSYSVAR
  2
AcImStrSysVar
  3
AcMeServices
 90
        0
280
     0
281
     0
  0
CLASS
  1
ACMSTANDARDISO
  2
AcmStandardISO
  3
"Amdt_StdImp|Product Description: AutoCAD Mechanical 2004 DX|Company: Autodesk"
 90
        0
280
     0
281
     0
  0
CLASS
  1
AMGOBJPROPCFG
  2
AmgObjPropCfg
  3
"AmgLay|Product Description: AutoCAD Mechanical 2000|Company: Autodesk"
 90
        1
280
     0
281
     0
  0
CLASS
  1
AMDTEDGESTANDARDISO
  2
AmdtEdgeStdISO
  3
"Amdt_StdImp|Product Description: AutoCAD Mechanical 2004 DX|Company: Autodesk"
 90
    32768
280
     0
281
     0
  0
CLASS
  1
ACMSURFSTANDARDISO
  2
AcmSurfTextStdISO
  3
"Amdt_StdImp|Product Description: AutoCAD Mechanical 2004 DX|Company: Autodesk"
 90
        0
280
     0
281
     0
  0
CLASS
  1
ACMFCFSTANDARDISO
  2
AcmFCFStdISO
  3
"Amdt_StdImp|Product Description: AutoCAD Mechanical 2004 DX|Company: Autodesk"
 90
        0
280
     0
281
     0
  0
CLASS
  1
ACMWELDSTANDARDISO
  2
AcmWeldingStdISO
  3
"Amdt_StdImp|Product Description: AutoCAD Mechanical 2004 DX|Company: Autodesk"
 90
        0
280
     0
281
     0
  0
CLASS
  1
ACMIDSTANDARDISO
  2
AcmIdStdISO
  3
"Amdt_StdImp|Product Description: AutoCAD Mechanical 2004 DX|Company: Autodesk"
 90
        0
280
     0
281
     0
  0
CLASS
  1
ACMDATUMSTANDARDISO
  2
AcmDatumStdISO
  3
"Amdt_StdImp|Product Description: AutoCAD Mechanical 2004 DX|Company: Autodesk"
 90
        0
280
     0
281
     0
  0
CLASS
  1
ACMBOMSTANDARDISO
  2
AcmBOMStdISO
  3
"Amdt_StdImp|Product Description: AutoCAD Mechanical 2004 DX|Company: Autodesk"
 90
        0
280
     0
281
     0
  0
CLASS
  1
ACMDETAILSTANDARDISO
  2
AmdtDetailSymStdISO
  3
"Amdt_StdImp|Product Description: AutoCAD Mechanical 2004 DX|Company: Autodesk"
 90
        0
280
     0
281
     0
  0
CLASS
  1
ACMSECTIONSTANDARDISO
  2
AmdtSectionSymStdISO
  3
"Amdt_StdImp|Product Description: AutoCAD Mechanical 2004 DX|Company: Autodesk"
 90
        0
280
     0
281
     0
  0
CLASS
  1
ACMCENTERLINESTANDARDISO
  2
AmdtCenterLineStdISO
  3
"Amdt_StdImp|Product Description: AutoCAD Mechanical 2004 DX|Company: Autodesk"
 90
        0
280
     0
281
     0
  0
CLASS
  1
ACMNOTESTANDARDISO
  2
AmdtNoteStdISO
  3
"Amdt_StdImp|Product Description: AutoCAD Mechanical 2004 DX|Company: Autodesk"
 90
        0
280
     0
281
     0
  0
CLASS
  1
ACAMGLAYSTD
  2
AcAmgLayStd
  3
"AcAmgLayStd|Product Description: AutoCAD Mechanical 2000|Company: Autodesk"
 90
        0
280
     0
281
     0
  0
CLASS
  1
ACAMGDIMSTD
  2
AcAmgDimStd
  3
"AcAmgDimStd|Product Description: AutoCAD Mechanical 2000|Company: Autodesk"
 90
        0
280
     0
281
     0
  0
CLASS
  1
ACAMGHOLECHARTSTDISO
  2
AcAmgHoleChartStdISO
  3
ACMSYMBB_MODULE_NAME
 90
        0
280
     0
281
     0
  0
CLASS
  1
ACAMGTITLESTD
  2
AcAmgTitleStd
  3
"TITLEAPP"
 90
        0
280
     0
281
     0
  0
CLASS
  1
LAYER_INDEX
  2
AcDbLayerIndex
  3
ObjectDBX Classes
 90
        0
280
     0
281
     0
  0
CLASS
  1
IDBUFFER
  2
AcDbIdBuffer
  3
ObjectDBX Classes
 90
        0
280
     0
281
     0
  0
CLASS
  1
DICTIONARYVAR
  2
AcDbDictionaryVar
  3
ObjectDBX Classes
 90
        0
280
     0
281
     0
  0
CLASS
  1
AM_DRAWING_MGR
  2
AcDmDwgMgr
  3
AcMechDwgViewMgmt
 90
        0
280
     0
281
     0
  0
CLASS
  1
AM_DWG_DOCUMENT
  2
AcDmDwgDocument
  3
AcMechDwgViewMgmt
 90
        0
280
     0
281
     0
  0
CLASS
  1
AM_DWG_SHEET
  2
AcDmSheet
  3
AcMechDwgViewMgmt
 90
        0
280
     0
281
     0
  0
CLASS
  1
AM_VIEWDIMPARMAP
  2
AcDmViewDimParMap
  3
AcMechDwgViewMgmt
 90
        0
280
     0
281
     0
  0
CLASS
  1
AM_DWGMGR_NAME
  2
AcDmDwgMgrName
  3
AcMechDwgViewMgmt
 90
        0
280
     0
281
     0
  0
CLASS
  1
AMDTMENUSTATEMGR
  2
AmdtMenuStateMgr
  3
McadcomServices
 90
        0
280
     0
281
     0
  0
CLASS
  1
AMDTMCOMMENUSTATE
  2
AmdtMcomMenuState
  3
McadcomServices
 90
        0
280
     0
281
     0
  0
CLASS
  1
MAPIAMMOUDLE
  2
MApiAmModule
  3
MApiAmServices
 90
        0
280
     0
281
     0
  0
CLASS
  1
AMDTADMENUSTATE
  2
AmdtAdMenuState
  3
DesignerServices
 90
        0
280
     0
281
     0
  0
CLASS
  1
ADAPPL
  2
AcAdAppl
  3
DesignerServices
 90
        0
280
     0
281
     0
  0
CLASS
  1
DEPMGR
  2
AcAdDepMgr
  3
DesignerServices
 90
        0
280
     0
281
     0
  0
CLASS
  1
PARAMMGR
  2
AcAdParamMgr
  3
DesignerServices
 90
        0
280
     0
281
     0
  0
CLASS
  1
PARAMSCOPE
  2
AcAdParamScope
  3
DesignerServices
 90
        0
280
     0
281
     0
  0
CLASS
  1
NAMEDAPPL
  2
AcAdNamedAppl
  3
DesignerServices
 90
        0
280
     0
281
     0
  0
CLASS
  1
AMDTDMMENUSTATE
  2
AmdtDmMenuState
  3
AcMechDwgViewMgmt
 90
        0
280
     0
281
     0
  0
CLASS
  1
AMDTAMMENUSTATE
  2
AmdtAmMenuState
  3
DesignerAssemblies
 90
        0
280
     0
281
     0
  0
CLASS
  1
ACAMPROJECT
  2
AcAmProject
  3
DesignerAssemblies
 90
        0
280
     0
281
     0
  0
CLASS
  1
ACAMGRCOMPDEF
  2
AcAmGrCompDef
  3
DesignerAssemblies
 90
        0
280
     0
281
     0
  0
CLASS
  1
ACCMCONTEXT
  2
AcCmContext
  3
DesignerAssemblies
 90
        0
280
     0
281
     0
  0
CLASS
  1
ACAMCOMPDEF
  2
AcAmCompDef
  3
DesignerAssemblies
 90
        0
280
     0
281
     0
  0
CLASS
  1
ACAMCOMPDEFMGR
  2
AcAmCompDefMgr
  3
DesignerAssemblies
 90
        0
280
     0
281
     0
  0
CLASS
  1
AMCONTEXTMGR
  2
AcAmContextMgr
  3
DesignerAssemblies
 90
        0
280
     0
281
     0
  0
CLASS
  1
ACAMCONTEXTMODELER
  2
AcAmContextModeler
  3
DesignerAssemblies
 90
        0
280
     0
281
     0
  0
CLASS
  1
ACMTHREADLINESTANDARDISO
  2
AmdtThreadLineStdISO
  3
"Amdt_StdImp|Product Description: AutoCAD Mechanical 2004 DX|Company: Autodesk"
 90
        0
280
     0
281
     0
  0
CLASS
  1
CATALOGSTATE
  2
AcAmCatalogState
  3
DesignerAssemblies
 90
        0
280
     0
281
     0
  0
CLASS
  1
ACAMGRCOMPDEFSET
  2
AcAmGrCompDefSet
  3
DesignerAssemblies
 90
        0
280
     0
281
     0
  0
CLASS
  1
AMDTBROWSERDBTAB
  2
AmdtBrowserDbTab
  3
McadcomServices
 90
        0
280
     0
281
     0
  0
CLASS
  1
CBROWSERAPPOBJECT
  2
CBrowserAppObject
  3
McadcomServices
 90
        0
280
     0
281
     0
  0
CLASS
  1
DM_PLACEHOLDER
  2
AcDmSelsetPlaceholder
  3
AcMechDwgViewMgmt
 90
        0
280
     0
281
     0
  0
CLASS
  1
TABLESTYLE
  2
AcDbTableStyle
  3
ObjectDBX Classes
 90
     2047
280
     0
281
     0
  0
CLASS
  1
VAACXREFPANELOBJECT
  2
VaAcXREFPanelObject
  3
VAAC_ADDIN
 90
    32768
280
     0
281
     0
  0
CLASS
  1
VAACIMAGEINVENTORY
  2
VaAcImageInventory
  3
VAAC_ADDIN
 90
    32768
280
     0
281
     0
  0
CLASS
  1
AMDTNOTETEMPLATEDB
  2
AmdtNoteTemplateDB
  3
AMDT_STDIMP_MODULE_NAME
 90
        0
280
     0
281
     0
  0
CLASS
  1
ACMBOM
  2
AcmBom
  3
"AcmSymBB|Product Description: AutoCAD Mechanical 2004 DX|Company: Autodesk"
 90
    32768
280
     0
281
     0
  0
CLASS
  1
AMDTFORMULAUPDATEDISPATCHER
  2
AmdtFormulaUpdateDispatcher
  3
AcMeServices
 90
    32768
280
     0
281
     0
  0
CLASS
  1
ACMPARTLIST
  2
AcmPartList
  3
"AcmSymBB|Product Description: AutoCAD Mechanical 2004 DX|Company: Autodesk"
 90
    33791
280
     0
281
     1
  0
CLASS
  1
ACAMGFILTERDAT
  2
AcAmgFilterDat
  3
"AcadM|Product Description: AutoCAD Mechanical 2000|Company: Autodesk"
 90
    32768
280
     0
281
     0
  0
CLASS
  1
DIMASSOC
  2
AcDbDimAssoc
  3
"AcDbDimAssoc|Product Desc:     AcDim ARX App For Dimension|Company:          Autodesk, Inc.|WEB Address:      www.autodesk.com"
 90
        0
280
     0
281
     0
  0
CLASS
  1
STDPART2D
  2
AmgStdPart
  3
"AmgStdPart|Product Description: AutoCAD Mechanical 2000|Company: Autodesk"
 90
    33791
280
     0
281
     1
  0
CLASS
  1
ACAMSTDPCOMPDEF
  2
AcAmStdpCompDef
  3
DesignerAssemblies
 90
    32768
280
     0
281
     0
  0
CLASS
  1
ACRFATTGENMGR
  2
AcRfAttGeneralMgr
  3
AcAttribServices
 90
    32768
280
     0
281
     0
  0
CLASS
  1
ACRFOBJATTMGR
  2
AcRfObjAttGroupMgr
  3
AcAttribServices
 90
    32768
280
     0
281
     0
  0
CLASS
  1
ACRFMCADAPIATTHOLDER
  2
AcRfMCADAPIAttHolder
  3
AcAttribServices
 90
    32768
280
     0
281
     0
  0
CLASS
  1
AMDTSYSATTR
  2
AmdtSystemAttribute
  3
AcAttribServices
 90
    32768
280
     0
281
     0
  0
CLASS
  1
ACAMCOMP
  2
AcAmComp
  3
DesignerAssemblies
 90
    32768
280
     0
281
     0
  0
CLASS
  1
AC_AM_STDP_VIEW_DEF
  2
AcAmStdpViewDef
  3
DesignerAssemblies
 90
    32768
280
     0
281
     0
  0
CLASS
  1
AC_AM_MVD_DEP_MGR
  2
AcAmMVDdepMgr
  3
DesignerAssemblies
 90
    32768
280
     0
281
     0
  0
CLASS
  1
AC_AM_MASTER_VIEW_DEF
  2
AcAmMasterViewDef
  3
DesignerAssemblies
 90
    32768
280
     0
281
     0
  0
CLASS
  1
AC_AM_DIRTY_NODES
  2
AcAmDirtyNodes
  3
DesignerAssemblies
 90
    32768
280
     0
281
     0
  0
CLASS
  1
AC_AM_MAPPER_CACHE
  2
AcAmMapperCache
  3
DesignerAssemblies
 90
    32768
280
     0
281
     0
  0
CLASS
  1
ACAMMVDBACKUPOBJECT
  2
AcAmMVDBackupObject
  3
DesignerAssemblies
 90
    32768
280
     0
281
     0
  0
CLASS
  1
AC_AM_COMP_VIEW_INST
  2
AcAmCompView
  3
DesignerAssemblies
 90
    32768
280
     0
281
     0
  0
CLASS
  1
AC_AM_2D_XREF_MGR
  2
AcAmXrefMgr2d
  3
DesignerAssemblies
 90
    32768
280
     0
281
     0
  0
CLASS
  1
SORTENTSTABLE
  2
AcDbSortentsTable
  3
ObjectDBX Classes
 90
        0
280
     0
281
     0
  0
CLASS
  1
ACMSTANDARDANSI
  2
AcmStandardANSI
  3
"Amdt_StdImp|Product Description: AutoCAD Mechanical 2004 DX|Company: Autodesk"
 90
    32768
280
     0
281
     0
  0
CLASS
  1
ACMSURFSTANDARDANSI
  2
AcmSurfTextStdANSI
  3
"Amdt_StdImp|Product Description: AutoCAD Mechanical 2004 DX|Company: Autodesk"
 90
    32768
280
     0
281
     0
  0
CLASS
  1
ACMFCFSTANDARDANSI
  2
AcmFCFStdANSI
  3
"Amdt_StdImp|Product Description: AutoCAD Mechanical 2004 DX|Company: Autodesk"
 90
    32768
280
     0
281
     0
  0
CLASS
  1
ACMWELDSTANDARDANSI
  2
AcmWeldingStdANSI
  3
"Amdt_StdImp|Product Description: AutoCAD Mechanical 2004 DX|Company: Autodesk"
 90
    32768
280
     0
281
     0
  0
CLASS
  1
ACMIDSTANDARDANSI
  2
AcmIdStdANSI
  3
"Amdt_StdImp|Product Description: AutoCAD Mechanical 2004 DX|Company: Autodesk"
 90
    32768
280
     0
281
     0
  0
CLASS
  1
ACMDATUMSTANDARDANSI
  2
AcmDatumStdANSI
  3
"Amdt_StdImp|Product Description: AutoCAD Mechanical 2004 DX|Company: Autodesk"
 90
    32768
280
     0
281
     0
  0
CLASS
  1
ACMBOMSTANDARDANSI
  2
AcmBOMStdANSI
  3
"Amdt_StdImp|Product Description: AutoCAD Mechanical 2004 DX|Company: Autodesk"
 90
    32768
280
     0
281
     0
  0
CLASS
  1
ACMDETAILSTANDARDANSI
  2
AmdtDetailSymStdANSI
  3
"Amdt_StdImp|Product Description: AutoCAD Mechanical 2004 DX|Company: Autodesk"
 90
    32768
280
     0
281
     0
  0
CLASS
  1
ACMSECTIONSTANDARDANSI
  2
AmdtSectionSymStdANSI
  3
"Amdt_StdImp|Product Description: AutoCAD Mechanical 2004 DX|Company: Autodesk"
 90
    32768
280
     0
281
     0
  0
CLASS
  1
ACMCENTERLINESTANDARDANSI
  2
AmdtCenterLineStdANSI
  3
"Amdt_StdImp|Product Description: AutoCAD Mechanical 2004 DX|Company: Autodesk"
 90
    32768
280
     0
281
     0
  0
CLASS
  1
ACMTHREADLINESTANDARDANSI
  2
AmdtThreadLineStdANSI
  3
"Amdt_StdImp|Product Description: AutoCAD Mechanical 2004 DX|Company: Autodesk"
 90
    32768
280
     0
281
     0
  0
CLASS
  1
ACMNOTESTANDARDANSI
  2
AmdtNoteStdANSI
  3
"Amdt_StdImp|Product Description: AutoCAD Mechanical 2004 DX|Company: Autodesk"
 90
    32768
280
     0
281
     0
  0
CLASS
  1
ACAMGHOLECHARTSTDANSI
  2
AcAmgHoleChartStdANSI
  3
ACMSYMBB_MODULE_NAME
 90
    32768
280
     0
281
     0
  0
CLASS
  1
AMDTNOTE
  2
AmdtNote
  3
"AcmSymBB|Product Description: AutoCAD Mechanical 2004 DX|Company: Autodesk"
 90
    33791
280
     0
281
     1
  0
CLASS
  1
ASAPP
  2
AcAsAppObject
  3
AutoSurfServices
 90
        0
280
     0
281
     0
  0
CLASS
  1
IM_STATIC_MAN
  2
AcImStaticVarManager
  3
AcMeServices
 90
        0
280
     0
281
     0
  0
CLASS
  1
ACIMDBLSTATICVAR
  2
AcImDblStaticVar
  3
AcMeServices
 90
        0
280
     0
281
     0
  0
CLASS
  1
ACIMSTRSTATICVAR
  2
AcImStrStaticVar
  3
AcMeServices
 90
        0
280
     0
281
     0
  0
CLASS
  1
ACIMINTSTATICVAR
  2
AcImIntStaticVar
  3
AcMeServices
 90
        0
280
     0
281
     0
  0
CLASS
  1
ACASGREFMASTER
  2
AcAsGrefMaster
  3
AutoSurfResolverServices
 90
        0
280
     0
281
     0
  0
CLASS
  1
ACADGREFMODULE
  2
AcAdGrefModule
  3
AdGrefServices
 90
        0
280
     0
281
     0
  0
CLASS
  1
AMDTMAPISURFMOUDULE
  2
AmdtMApiSurfModule
  3
MApiSurfServices
 90
        0
280
     0
281
     0
  0
CLASS
  1
MAPIADMODULE
  2
MApiAdModule
  3
MApiAdServices
 90
        0
280
     0
281
     0
  0
CLASS
  1
AMDTEDGESTANDARDISO13715
  2
AmdtEdgeStdISO13715
  3
"Amdt_StdImp|Product Description: AutoCAD Mechanical 2004 DX|Company: Autodesk"
 90
        0
280
     0
281
     0
  0
ENDSEC
  0
SECTION
  2
TABLES
  0
TABLE
  2
VPORT
  5
8
330
0
100
AcDbSymbolTable
 70
     4
  0
VPORT
  5
2A66
330
8
100
AcDbSymbolTableRecord
100
AcDbViewportTableRecord
  2
*Active
 70
     0
 10
0.0
 20
0.0
 11
1.0
 21
1.0
 12
6.748290871991798
 22
-24.80779943810666
 13
0.0
 23
0.0
 14
2.5
 24
2.5
 15
10.0
 25
10.0
 16
0.0
 26
0.0
 36
1.0
 17
2158.997988872698
 27
1227.495847255537
 37
0.0
 40
509.7301355404646
 41
1.263157894736842
 42
50.0
 43
0.0
 44
0.0
 50
0.0
 51
0.0
 71
     0
 72
  2000
 73
     1
 74
     0
 75
     0
 76
     0
 77
     0
 78
     0
281
     0
 65
     0
110
0.0
120
0.0
130
0.0
111
1.0
121
0.0
131
0.0
112
0.0
122
1.0
132
0.0
 79
     0
146
0.0
  0
ENDTAB
  0
TABLE
  2
LTYPE
  5
5
330
0
100
AcDbSymbolTable
 70
    19
  0
LTYPE
  5
14
330
5
100
AcDbSymbolTableRecord
100
AcDbLinetypeTableRecord
  2
ByBlock
 70
     0
  3

 72
    65
 73
     0
 40
0.0
  0
LTYPE
  5
15
330
5
100
AcDbSymbolTableRecord
100
AcDbLinetypeTableRecord
  2
ByLayer
 70
     0
  3

 72
    65
 73
     0
 40
0.0
  0
LTYPE
  5
16
330
5
100
AcDbSymbolTableRecord
100
AcDbLinetypeTableRecord
  2
Continuous
 70
     0
  3
Solid line
 72
    65
 73
     0
 40
0.0
  0
LTYPE
  5
64
330
5
100
AcDbSymbolTableRecord
100
AcDbLinetypeTableRecord
  2
AM_ISO02W050
 70
     0
  3
__ __ __ __ __ __ __ __ __ __ __ __ __ __ __
 72
    65
 73
     2
 40
7.5
 49
6.0
 74
     0
 49
-1.5
 74
     0
  0
LTYPE
  5
65
330
5
100
AcDbSymbolTableRecord
100
AcDbLinetypeTableRecord
  2
AM_ISO08W050
 70
     0
  3
____ . ____ . ____ . ____ . ____ . ____ . ____
 72
    65
 73
     4
 40
18.0
 49
12.0
 74
     0
 49
-1.5
 74
     0
 49
3.0
 74
     0
 49
-1.5
 74
     0
  0
LTYPE
  5
66
330
5
100
AcDbSymbolTableRecord
100
AcDbLinetypeTableRecord
  2
AM_ISO09W050
 70
     0
  3
_____ . . _____ . . _____ . . ____ .. ____
 72
    65
 73
     6
 40
22.5
 49
12.0
 74
     0
 49
-1.5
 74
     0
 49
3.0
 74
     0
 49
-1.5
 74
     0
 49
3.0
 74
     0
 49
-1.5
 74
     0
  0
LTYPE
  5
67
330
5
100
AcDbSymbolTableRecord
100
AcDbLinetypeTableRecord
  2
Amconstr
 70
     0
  3
_______________________
 72
    65
 73
     2
 40
9999.0
 49
9999.0
 74
     0
 49
0.0
 74
     0
  0
LTYPE
  5
68
330
5
100
AcDbSymbolTableRecord
100
AcDbLinetypeTableRecord
  2
AM_ISO08W050x2
 70
     0
  3
__ . __ . __ . __ . __ . __
 72
    65
 73
     4
 40
9.0
 49
6.0
 74
     0
 49
-0.75
 74
     0
 49
1.5
 74
     0
 49
-0.75
 74
     0
  0
LTYPE
  5
69
330
5
100
AcDbSymbolTableRecord
100
AcDbLinetypeTableRecord
  2
AM_ISO02W050x2
 70
     0
  3
 _ _ _ _ _ _ _ _ _ _ _ _
 72
    65
 73
     2
 40
3.75
 49
3.0
 74
     0
 49
-0.75
 74
     0
  0
LTYPE
  5
6C
330
5
100
AcDbSymbolTableRecord
100
AcDbLinetypeTableRecord
  2
Amzigzag
 70
     0
  3
/\/-/\/-/\/-/\/-/\/-/\/
 72
    65
 73
     2
 40
11.0001
 49
0.0001
 74
     4
 75
   135
340
6B
 46
0.04
 50
0.0
 44
0.0
 45
0.0
 49
-11.0
 74
     0
  0
LTYPE
  5
7A
330
5
100
AcDbSymbolTableRecord
100
AcDbLinetypeTableRecord
  2
ACISOWELD
 70
     0
  3
_ _ _ _ _
 72
    65
 73
     2
 40
2.0
 49
2.0
 74
     0
 49
-1.0
 74
     0
  0
LTYPE
  5
7B
330
5
100
AcDbSymbolTableRecord
100
AcDbLinetypeTableRecord
  2
ACISOTGB
 70
     0
  3
__ . . __ . .
 72
    65
 73
     6
 40
9.0
 49
4.0
 74
     0
 49
-1.0
 74
     0
 49
1.0
 74
     0
 49
-1.0
 74
     0
 49
1.0
 74
     0
 49
-1.0
 74
     0
  0
LTYPE
  5
7C
330
5
100
AcDbSymbolTableRecord
100
AcDbLinetypeTableRecord
  2
ACISOTGL
 70
     0
  3
_ _ _ _ _
 72
    65
 73
     2
 40
3.0
 49
2.0
 74
     0
 49
-1.0
 74
     0
  0
LTYPE
  5
7E
330
5
100
AcDbSymbolTableRecord
100
AcDbLinetypeTableRecord
  2
CENTER
 70
     0
  3
__ . __
 72
    65
 73
     4
 40
7.0
 49
4.0
 74
     0
 49
-1.0
 74
     0
 49
1.0
 74
     0
 49
-1.0
 74
     0
  0
LTYPE
  5
D8
330
5
100
AcDbSymbolTableRecord
100
AcDbLinetypeTableRecord
  2
HIDDEN
 70
     0
  3
Hidden __ __ __ __ __ __ __ __ __ __ __ __ __ _
 72
    65
 73
     2
 40
9.524999999999998
 49
6.349999999999999
 74
     0
 49
-3.174999999999999
 74
     0
  0
LTYPE
  5
D9
330
5
100
AcDbSymbolTableRecord
100
AcDbLinetypeTableRecord
  2
PHANTOM2
 70
     0
  3
Phantom (.5x) ___ _ _ ___ _ _ ___ _ _ ___ _ _
 72
    65
 73
     6
 40
31.75
 49
15.875
 74
     0
 49
-3.174999999999999
 74
     0
 49
3.174999999999999
 74
     0
 49
-3.174999999999999
 74
     0
 49
3.174999999999999
 74
     0
 49
-3.174999999999999
 74
     0
  0
LTYPE
  5
71A
330
5
100
AcDbSymbolTableRecord
100
AcDbLinetypeTableRecord
  2
HIDDEN2
 70
     0
  3
Hidden (.5x) _ _ _ _ _ _ _ _ _ _ _ _ _ _ _ _ _
 72
    65
 73
     2
 40
0.1875
 49
0.125
 74
     0
 49
-0.0625
 74
     0
  0
LTYPE
  5
D48
330
5
100
AcDbSymbolTableRecord
100
AcDbLinetypeTableRecord
  2
ACANSTGB
 70
     0
  3
__ . . __ . .
 72
    65
 73
     6
 40
0.35433070866
 49
0.15748031496
 74
     0
 49
-0.03937007874
 74
     0
 49
0.03937007874
 74
     0
 49
-0.03937007874
 74
     0
 49
0.03937007874
 74
     0
 49
-0.03937007874
 74
     0
  0
LTYPE
  5
D49
330
5
100
AcDbSymbolTableRecord
100
AcDbLinetypeTableRecord
  2
ACANSTGL
 70
     0
  3
_ _ _ _ _
 72
    65
 73
     2
 40
0.11811023622
 49
0.07874015748
 74
     0
 49
-0.03937007874
 74
     0
  0
LTYPE
  5
29B5
330
5
100
AcDbSymbolTableRecord
100
AcDbLinetypeTableRecord
  2
ASULTYPE
 70
     0
  3
實線
 72
    65
 73
     2
 40
3.0
 49
2.5
 74
     0
 49
0.5
 74
     0
  0
LTYPE
  5
29B6
330
5
100
AcDbSymbolTableRecord
100
AcDbLinetypeTableRecord
  2
ASVLTYPE
 70
     0
  3
__ __ __ __ __ __ __ __ __ __ __ __ __ __ __ __ __ __ __ __ __
 72
    65
 73
     2
 40
0.75
 49
0.5
 74
     0
 49
-0.25
 74
     0
  0
ENDTAB
  0
TABLE
  2
LAYER
  5
2
102
{ACAD_XDICTIONARY
360
3F9
102
}
330
0
100
AcDbSymbolTable
 70
     8
  0
LAYER
  5
10
330
2
100
AcDbSymbolTableRecord
100
AcDbLayerTableRecord
  2
0
 70
     0
 62
     7
  6
Continuous
370
    -3
390
F
  0
LAYER
  5
5AE
330
2
100
AcDbSymbolTableRecord
100
AcDbLayerTableRecord
  2
AM_7
 70
     0
 62
     1
  6
AM_ISO08W050
370
    25
390
F
  0
LAYER
  5
71B
330
2
100
AcDbSymbolTableRecord
100
AcDbLayerTableRecord
  2
AM_VIS
 70
     0
 62
     7
  6
Continuous
370
    50
390
F
  0
LAYER
  5
71C
330
2
100
AcDbSymbolTableRecord
100
AcDbLayerTableRecord
  2
AM_4
 70
     0
 62
     3
  6
Continuous
370
    25
390
F
  0
LAYER
  5
A8F
330
2
100
AcDbSymbolTableRecord
100
AcDbLayerTableRecord
  2
AM_0
 70
     0
 62
     7
  6
Continuous
370
    50
390
F
  0
LAYER
  5
F80
330
2
100
AcDbSymbolTableRecord
100
AcDbLayerTableRecord
  2
AM_5
 70
     0
 62
     5
  6
Continuous
370
    25
390
F
  0
LAYER
  5
FBA
330
2
100
AcDbSymbolTableRecord
100
AcDbLayerTableRecord
  2
Defpoints
 70
     0
 62
     7
  6
Continuous
290
     0
370
    -3
390
F
  0
LAYER
  5
1818
330
2
100
AcDbSymbolTableRecord
100
AcDbLayerTableRecord
  2
LOGO
 70
     0
 62
     7
  6
Continuous
370
    -3
390
F
  0
ENDTAB
  0
TABLE
  2
STYLE
  5
3
330
0
100
AcDbSymbolTable
 70
    10
  0
STYLE
  5
11
330
3
100
AcDbSymbolTableRecord
100
AcDbTextStyleTableRecord
  2
STANDARD
 70
     0
 40
0.0
 41
1.0
 50
0.0
 71
     0
 42
3.0
  3
ISOCP.SHX
  4
CHINESET.SHX
  0
STYLE
  5
6B
330
3
100
AcDbSymbolTableRecord
100
AcDbTextStyleTableRecord
  2

 70
     1
 40
0.0
 41
1.0
 50
0.0
 71
     0
 42
2.5
  3
ltypeshp.shx
  4

  0
STYLE
  5
6D
330
3
100
AcDbSymbolTableRecord
100
AcDbTextStyleTableRecord
  2
ACISOTS
 70
     0
 40
1.0
 41
1.0
 50
0.0
 71
     0
 42
1.0
  3
isocp.shx
  4
chineset.shx
  0
STYLE
  5
79
330
3
100
AcDbSymbolTableRecord
100
AcDbTextStyleTableRecord
  2
ACISOGDT
 70
     0
 40
0.0
 41
1.0
 50
0.0
 71
     0
 42
2.5
  3
amgdt.shx
  4
chineset.shx
  0
STYLE
  5
60C
330
3
100
AcDbSymbolTableRecord
100
AcDbTextStyleTableRecord
  2
CHINESET
 70
     0
 40
0.0
 41
1.0
 50
0.0
 71
     0
 42
3.0
  3
simplex.shx
  4
CHINESET.SHX
  0
STYLE
  5
71E
330
3
100
AcDbSymbolTableRecord
100
AcDbTextStyleTableRecord
  2
DAYUS
 70
     0
 40
0.0
 41
1.0
 50
0.0
 71
     0
 42
5.0
  3
simplex.shx
  4
dayus.shx
  0
STYLE
  5
D4B
330
3
100
AcDbSymbolTableRecord
100
AcDbTextStyleTableRecord
  2
ACANSTS
 70
     0
 40
1.0
 41
1.0
 50
0.0
 71
     0
 42
3.0
  3
romans.shx
  4
chineset.shx
  0
STYLE
  5
D4C
330
3
100
AcDbSymbolTableRecord
100
AcDbTextStyleTableRecord
  2
ACANSGDT
 70
     0
 40
0.0
 41
1.0
 50
0.0
 71
     0
 42
3.0
  3
amgdtans.shx
  4

  0
STYLE
  5
1934
330
3
100
AcDbSymbolTableRecord
100
AcDbTextStyleTableRecord
  2
ROMANS
 70
     0
 40
0.0
 41
1.0
 50
0.0
 71
     0
 42
3.0
  3
ROMANS.SHX
  4
LMP
  0
STYLE
  5
1935
330
3
100
AcDbSymbolTableRecord
100
AcDbTextStyleTableRecord
  2
ROMANS1
 70
     0
 40
0.0
 41
1.0
 50
0.0
 71
     0
 42
3.0
  3
ROMANS.SHX
  4

  0
ENDTAB
  0
TABLE
  2
VIEW
  5
6
330
0
100
AcDbSymbolTable
 70
     0
  0
ENDTAB
  0
TABLE
  2
UCS
  5
7
330
0
100
AcDbSymbolTable
 70
     0
  0
ENDTAB
  0
TABLE
  2
APPID
  5
9
330
0
100
AcDbSymbolTable
 70
    35
  0
APPID
  5
12
330
9
100
AcDbSymbolTableRecord
100
AcDbRegAppTableRecord
  2
ACAD
 70
     0
  0
APPID
  5
46
330
9
100
AcDbSymbolTableRecord
100
AcDbRegAppTableRecord
  2
MCAD_NO_VIS
 70
     0
  0
APPID
  5
47
330
9
100
AcDbSymbolTableRecord
100
AcDbRegAppTableRecord
  2
ACAD_TEMP_GRAPHIC
 70
     0
  0
APPID
  5
58
330
9
100
AcDbSymbolTableRecord
100
AcDbRegAppTableRecord
  2
ACATTRIBSERVICES
 70
     0
  0
APPID
  5
EE
330
9
100
AcDbSymbolTableRecord
100
AcDbRegAppTableRecord
  2
AD_DRAW
 70
     0
  0
APPID
  5
10C
330
9
100
AcDbSymbolTableRecord
100
AcDbRegAppTableRecord
  2
DESIGNERASSEMBLIES
 70
     0
  0
APPID
  5
111
330
9
100
AcDbSymbolTableRecord
100
AcDbRegAppTableRecord
  2
ACADM_DIM_EDIT
 70
     0
  0
APPID
  5
112
330
9
100
AcDbSymbolTableRecord
100
AcDbRegAppTableRecord
  2
AMDT_DM_ADJ
 70
     0
  0
APPID
  5
22C
330
9
100
AcDbSymbolTableRecord
100
AcDbRegAppTableRecord
  2
ACAD_DSTYLE_DIMTEXT_FILL
 70
     0
  0
APPID
  5
452
330
9
100
AcDbSymbolTableRecord
100
AcDbRegAppTableRecord
  2
GENIUS_GENOENT_13
 70
     0
  0
APPID
  5
453
330
9
100
AcDbSymbolTableRecord
100
AcDbRegAppTableRecord
  2
GENIUS_GENOBJ-N-CRS_13
 70
     0
  0
APPID
  5
454
330
9
100
AcDbSymbolTableRecord
100
AcDbRegAppTableRecord
  2
GENIUS_GENOLIS_13
 70
     0
  0
APPID
  5
455
330
9
100
AcDbSymbolTableRecord
100
AcDbRegAppTableRecord
  2
GENIUS_GENODEF_13
 70
     0
  0
APPID
  5
456
330
9
100
AcDbSymbolTableRecord
100
AcDbRegAppTableRecord
  2
GENIUS_GENOREF_13
 70
     0
  0
APPID
  5
6F3
330
9
100
AcDbSymbolTableRecord
100
AcDbRegAppTableRecord
  2
ACAD_PSEXT
 70
     0
  0
APPID
  5
A96
330
9
100
AcDbSymbolTableRecord
100
AcDbRegAppTableRecord
  2
GEVID1121736584
 70
     0
  0
APPID
  5
A97
330
9
100
AcDbSymbolTableRecord
100
AcDbRegAppTableRecord
  2
GEVDC
 70
     0
  0
APPID
  5
AA0
330
9
100
AcDbSymbolTableRecord
100
AcDbRegAppTableRecord
  2
AMG_2DHIDE
 70
     0
  0
APPID
  5
AA1
330
9
100
AcDbSymbolTableRecord
100
AcDbRegAppTableRecord
  2
AMG_2DSTRUCT_BTR
 70
     0
  0
APPID
  5
AB2
330
9
100
AcDbSymbolTableRecord
100
AcDbRegAppTableRecord
  2
ACADM_2DVIEW_IGN_NOTIFY
 70
     0
  0
APPID
  5
AE5
330
9
100
AcDbSymbolTableRecord
100
AcDbRegAppTableRecord
  2
GENIUS_GENOBJ-N-CEN_13
 70
     0
  0
APPID
  5
AE6
330
9
100
AcDbSymbolTableRecord
100
AcDbRegAppTableRecord
  2
GENIUS_GENCEN_19
 70
     0
  0
APPID
  5
B0C
330
9
100
AcDbSymbolTableRecord
100
AcDbRegAppTableRecord
  2
GEVID1121736585
 70
     0
  0
APPID
  5
B0D
330
9
100
AcDbSymbolTableRecord
100
AcDbRegAppTableRecord
  2
GEVRADREF
 70
     0
  0
APPID
  5
B56
330
9
100
AcDbSymbolTableRecord
100
AcDbRegAppTableRecord
  2
GEVID1121736586
 70
     0
  0
APPID
  5
C77
330
9
100
AcDbSymbolTableRecord
100
AcDbRegAppTableRecord
  2
GEVID1121736587
 70
     0
  0
APPID
  5
CB9
330
9
100
AcDbSymbolTableRecord
100
AcDbRegAppTableRecord
  2
GEVID1121736588
 70
     0
  0
APPID
  5
CC7
330
9
100
AcDbSymbolTableRecord
100
AcDbRegAppTableRecord
  2
GEVID1121736589
 70
     0
  0
APPID
  5
14FB
330
9
100
AcDbSymbolTableRecord
100
AcDbRegAppTableRecord
  2
GENIUS_GENDTOL_13
 70
     0
  0
APPID
  5
181B
330
9
100
AcDbSymbolTableRecord
100
AcDbRegAppTableRecord
  2
GENIUS_GENREC_14
 70
     0
  0
APPID
  5
181C
330
9
100
AcDbSymbolTableRecord
100
AcDbRegAppTableRecord
  2
GENIUS_GENOBJ-N-REC_13
 70
     0
  0
APPID
  5
2936
330
9
100
AcDbSymbolTableRecord
100
AcDbRegAppTableRecord
  2
GENIUS_GENDIM_13
 70
     0
  0
APPID
  5
2937
330
9
100
AcDbSymbolTableRecord
100
AcDbRegAppTableRecord
  2
GENIUS_GE3DTOL_13
 70
     0
  0
APPID
  5
29B7
330
9
100
AcDbSymbolTableRecord
100
AcDbRegAppTableRecord
  2
ASURF_PCURVE_APPNAME
 70
     0
  0
APPID
  5
29BC
330
9
100
AcDbSymbolTableRecord
100
AcDbRegAppTableRecord
  2
AMG_3D2D_5.0
 70
     0
  0
ENDTAB
  0
TABLE
  2
DIMSTYLE
  5
A
330
0
100
AcDbSymbolTable
 70
    14
100
AcDbDimStyleTable
 71
     3
340
81
340
8B
340
86
  0
DIMSTYLE
105
81
330
A
100
AcDbSymbolTableRecord
100
AcDbDimStyleTableRecord
  2
AM_ISO
 70
     0
  4
"
 41
3.0
 42
1.0
 43
10.0
 44
1.5
 47
0.1
 48
0.1
 73
     0
 74
     0
 77
     1
 78
     8
 79
     2
140
3.0
141
0.0
143
0.0393701
146
0.71
147
1.0
172
     1
176
   256
177
   256
178
   256
271
     2
272
     2
283
     2
284
     8
340
11
371
    -1
372
    -1
  0
DIMSTYLE
105
82
330
A
100
AcDbSymbolTableRecord
100
AcDbDimStyleTableRecord
  2
AM_ISO$3
 70
     0
  4
"
 41
3.0
 42
1.0
 43
10.0
 44
1.5
 47
0.1
 48
0.1
 73
     0
 77
     1
 78
     8
 79
     2
140
3.0
141
0.0
143
0.0393701
146
0.71
147
1.0
176
   256
177
   256
178
   256
271
     2
272
     2
283
     2
284
     8
288
     1
289
     0
340
11
371
    -1
372
    -1
  0
DIMSTYLE
105
83
330
A
100
AcDbSymbolTableRecord
100
AcDbDimStyleTableRecord
  2
AM_ISO$4
 70
     0
  4
"
 41
3.0
 42
1.0
 43
10.0
 44
1.5
 47
0.1
 48
0.1
 73
     0
 77
     1
 78
     8
 79
     2
140
3.0
141
0.0
143
0.0393701
146
0.71
147
1.0
176
   256
177
   256
178
   256
271
     2
272
     2
283
     2
284
     8
288
     1
289
     0
340
11
371
    -1
372
    -1
  0
DIMSTYLE
105
84
330
A
100
AcDbSymbolTableRecord
100
AcDbDimStyleTableRecord
  2
AM_ISO$6
 70
     0
  4
"
 41
3.0
 42
1.0
 43
10.0
 44
1.5
 47
0.1
 48
0.1
 73
     0
 74
     0
 78
     8
 79
     2
140
3.0
141
0.0
143
0.0393701
146
0.71
147
1.0
172
     1
176
   256
177
   256
178
   256
271
     2
272
     2
283
     2
284
     8
340
11
371
    -1
372
    -1
  0
DIMSTYLE
105
85
330
A
100
AcDbSymbolTableRecord
100
AcDbDimStyleTableRecord
  2
AM_ISO$7
 70
     0
  4
"
 41
3.0
 42
1.0
 43
10.0
 44
1.5
 47
0.1
 48
0.1
 73
     0
 74
     0
 77
     1
 78
     8
 79
     2
140
5.0
141
0.0
143
0.0393701
146
0.71
147
1.0
172
     1
176
   256
177
   256
178
   256
271
     2
272
     2
283
     2
284
     8
340
11
371
    -1
372
    -1
  0
DIMSTYLE
105
86
330
A
100
AcDbSymbolTableRecord
100
AcDbDimStyleTableRecord
  2
AM_ISO$SF
 70
     0
  4
"
 41
2.5
 42
1.0
 43
10.0
 44
1.0
 47
0.1
 48
0.1
 73
     0
 74
     0
 75
     1
 76
     1
 77
     1
 78
     8
 79
     2
140
3.5
141
0.0
143
0.0393701
146
0.71
147
1.5
172
     1
176
   256
177
   256
178
     2
271
     2
272
     3
274
     4
283
     0
284
     8
340
11
371
    -1
372
    -1
  0
DIMSTYLE
105
8B
330
A
100
AcDbSymbolTableRecord
100
AcDbDimStyleTableRecord
  2
AM_ISO$SH
 70
     0
  4
"
 41
2.5
 42
1.0
 43
10.0
 44
1.0
 47
0.1
 48
0.1
 73
     0
 74
     0
 75
     1
 76
     1
 77
     1
 78
     8
 79
     2
140
3.5
141
0.0
143
0.0393701
144
2.0
146
0.71
147
1.5
172
     1
173
     1
176
   256
177
   256
178
     2
271
     2
272
     3
274
     4
283
     0
284
     8
340
11
343
87
371
    -1
372
    -1
  0
DIMSTYLE
105
40B
102
{ACAD_REACTORS
330
16D5
330
16FB
330
1721
330
1747
330
176D
330
17D0
330
17FA
330
215B
330
215E
330
219C
330
219F
330
21A2
330
21A5
330
21A8
330
218D
330
2190
330
2193
330
2196
330
2199
330
229E
330
22A1
330
22A4
330
22A7
330
22AA
330
2298
330
229B
102
}
330
A
100
AcDbSymbolTableRecord
100
AcDbDimStyleTableRecord
  2
AM_ISO$0
 70
     0
  4
"
 41
3.0
 42
1.0
 43
10.0
 44
1.5
 47
0.1
 48
0.1
 73
     0
 74
     0
 77
     1
 78
     8
 79
     2
140
3.0
141
0.0
143
0.0393701
146
0.71
147
1.0
172
     1
176
   256
177
   256
178
   256
271
     2
272
     2
283
     2
284
     8
340
11
371
    -1
372
    -1
  0
DIMSTYLE
105
721
330
A
100
AcDbSymbolTableRecord
100
AcDbDimStyleTableRecord
  2
AM_ANSI
 70
     0
  4
mm
 41
3.0
 42
1.5
 43
8.0
 44
2.0
 47
0.1
 48
0.1
 73
     0
 74
     0
 77
     3
 78
     9
 79
     2
140
3.0
141
0.0
146
0.6
147
0.8
172
     1
176
   256
177
   256
178
   256
271
     2
272
     2
284
    11
340
71E
371
    -1
372
    -1
  0
DIMSTYLE
105
D4D
330
A
100
AcDbSymbolTableRecord
100
AcDbDimStyleTableRecord
  2
AM_ANSI$3
 70
     0
  4
mm
 41
0.1
 42
0.05
 43
0.5
 44
0.1
 47
0.1
 48
0.1
 78
     7
 79
     2
140
0.12
141
0.0
146
0.71
147
0.06
176
   256
177
   256
178
     2
274
     4
284
     7
288
     1
289
     0
340
11
371
    -1
372
    -1
  0
DIMSTYLE
105
D4E
330
A
100
AcDbSymbolTableRecord
100
AcDbDimStyleTableRecord
  2
AM_ANSI$4
 70
     0
  4
mm
 41
0.1
 42
0.05
 43
0.5
 44
0.1
 47
0.1
 48
0.1
 78
     7
 79
     2
140
0.12
141
0.0
146
0.71
147
0.06
176
   256
177
   256
178
     2
274
     4
284
     7
288
     1
289
     0
340
11
371
    -1
372
    -1
  0
DIMSTYLE
105
D4F
330
A
100
AcDbSymbolTableRecord
100
AcDbDimStyleTableRecord
  2
AM_ANSI$7
 70
     0
  4
mm
 41
0.1
 42
0.05
 43
0.5
 44
0.1
 47
0.1
 48
0.1
 78
     7
 79
     2
140
0.24
141
0.0
146
0.71
147
0.06
176
   256
177
   256
178
     2
274
     4
284
     7
340
11
371
    -1
372
    -1
  0
DIMSTYLE
105
D50
330
A
100
AcDbSymbolTableRecord
100
AcDbDimStyleTableRecord
  2
AM_ANSI$SF
 70
     0
  4
mm
 41
0.1
 42
0.05
 43
0.5
 44
0.1
 47
0.1
 48
0.1
 75
     1
 76
     1
 78
     7
 79
     2
140
0.12
141
0.0
146
0.71
147
0.06
176
   256
177
   256
178
     2
274
     4
284
     7
340
11
371
    -1
372
    -1
  0
DIMSTYLE
105
D51
330
A
100
AcDbSymbolTableRecord
100
AcDbDimStyleTableRecord
  2
AM_ANSI$SH
 70
     0
  4
mm
 41
0.1
 42
0.05
 43
0.5
 44
0.1
 47
0.1
 48
0.1
 75
     1
 76
     1
 78
     7
 79
     2
140
0.12
141
0.0
146
0.71
147
0.06
173
     1
176
   256
177
   256
178
     2
274
     4
284
     7
340
11
343
87
371
    -1
372
    -1
  0
ENDTAB
  0
TABLE
  2
BLOCK_RECORD
  5
1
330
0
100
AcDbSymbolTable
 70
    36
  0
BLOCK_RECORD
  5
1F
102
{ACAD_XDICTIONARY
360
8F
102
}
330
1
100
AcDbSymbolTableRecord
100
AcDbBlockTableRecord
  2
*Model_Space
340
22
  0
BLOCK_RECORD
  5
1B
330
1
100
AcDbSymbolTableRecord
100
AcDbBlockTableRecord
  2
*Paper_Space
340
1E
  0
BLOCK_RECORD
  5
23
330
1
100
AcDbSymbolTableRecord
100
AcDbBlockTableRecord
  2
*Paper_Space0
340
26
  0
BLOCK_RECORD
  5
87
330
1
100
AcDbSymbolTableRecord
100
AcDbBlockTableRecord
  2
GENAXEH
340
0
  0
BLOCK_RECORD
  5
16D6
330
1
100
AcDbSymbolTableRecord
100
AcDbBlockTableRecord
  2
*D3
340
0
  0
BLOCK_RECORD
  5
16FC
330
1
100
AcDbSymbolTableRecord
100
AcDbBlockTableRecord
  2
*D4
340
0
  0
BLOCK_RECORD
  5
1722
330
1
100
AcDbSymbolTableRecord
100
AcDbBlockTableRecord
  2
*D5
340
0
  0
BLOCK_RECORD
  5
1748
330
1
100
AcDbSymbolTableRecord
100
AcDbBlockTableRecord
  2
*D6
340
0
  0
BLOCK_RECORD
  5
176E
330
1
100
AcDbSymbolTableRecord
100
AcDbBlockTableRecord
  2
*D7
340
0
  0
BLOCK_RECORD
  5
17D1
330
1
100
AcDbSymbolTableRecord
100
AcDbBlockTableRecord
  2
*D8
340
0
  0
BLOCK_RECORD
  5
17FB
330
1
100
AcDbSymbolTableRecord
100
AcDbBlockTableRecord
  2
*D9
340
0
  0
BLOCK_RECORD
  5
2163
330
1
100
AcDbSymbolTableRecord
100
AcDbBlockTableRecord
  2
*D10
340
0
  0
BLOCK_RECORD
  5
216F
330
1
100
AcDbSymbolTableRecord
100
AcDbBlockTableRecord
  2
*D11
340
0
  0
BLOCK_RECORD
  5
21B0
330
1
100
AcDbSymbolTableRecord
100
AcDbBlockTableRecord
  2
*D12
340
0
  0
BLOCK_RECORD
  5
21BC
330
1
100
AcDbSymbolTableRecord
100
AcDbBlockTableRecord
  2
*D13
340
0
  0
BLOCK_RECORD
  5
21C8
330
1
100
AcDbSymbolTableRecord
100
AcDbBlockTableRecord
  2
*D14
340
0
  0
BLOCK_RECORD
  5
21D4
330
1
100
AcDbSymbolTableRecord
100
AcDbBlockTableRecord
  2
*D15
340
0
  0
BLOCK_RECORD
  5
21E0
330
1
100
AcDbSymbolTableRecord
100
AcDbBlockTableRecord
  2
*D16
340
0
  0
BLOCK_RECORD
  5
21EC
330
1
100
AcDbSymbolTableRecord
100
AcDbBlockTableRecord
  2
*D17
340
0
  0
BLOCK_RECORD
  5
21F8
330
1
100
AcDbSymbolTableRecord
100
AcDbBlockTableRecord
  2
*D18
340
0
  0
BLOCK_RECORD
  5
2204
330
1
100
AcDbSymbolTableRecord
100
AcDbBlockTableRecord
  2
*D19
340
0
  0
BLOCK_RECORD
  5
2210
330
1
100
AcDbSymbolTableRecord
100
AcDbBlockTableRecord
  2
*D20
340
0
  0
BLOCK_RECORD
  5
221C
330
1
100
AcDbSymbolTableRecord
100
AcDbBlockTableRecord
  2
*D21
340
0
  0
BLOCK_RECORD
  5
22B6
330
1
100
AcDbSymbolTableRecord
100
AcDbBlockTableRecord
  2
*D22
340
0
  0
BLOCK_RECORD
  5
22C2
330
1
100
AcDbSymbolTableRecord
100
AcDbBlockTableRecord
  2
*D23
340
0
  0
BLOCK_RECORD
  5
22CE
330
1
100
AcDbSymbolTableRecord
100
AcDbBlockTableRecord
  2
*D24
340
0
  0
BLOCK_RECORD
  5
22DA
330
1
100
AcDbSymbolTableRecord
100
AcDbBlockTableRecord
  2
*D25
340
0
  0
BLOCK_RECORD
  5
22E6
330
1
100
AcDbSymbolTableRecord
100
AcDbBlockTableRecord
  2
*D26
340
0
  0
BLOCK_RECORD
  5
22F2
330
1
100
AcDbSymbolTableRecord
100
AcDbBlockTableRecord
  2
*D27
340
0
  0
BLOCK_RECORD
  5
22FE
330
1
100
AcDbSymbolTableRecord
100
AcDbBlockTableRecord
  2
*D28
340
0
  0
BLOCK_RECORD
  5
28EE
330
1
100
AcDbSymbolTableRecord
100
AcDbBlockTableRecord
  2
*S29
340
0
102
{BLKREFS
331
2162
102
}
  0
BLOCK_RECORD
  5
28F6
330
1
100
AcDbSymbolTableRecord
100
AcDbBlockTableRecord
  2
*S30
340
0
102
{BLKREFS
331
21AB
102
}
  0
BLOCK_RECORD
  5
28FE
330
1
100
AcDbSymbolTableRecord
100
AcDbBlockTableRecord
  2
*S31
340
0
102
{BLKREFS
331
21AF
102
}
  0
BLOCK_RECORD
  5
2906
330
1
100
AcDbSymbolTableRecord
100
AcDbBlockTableRecord
  2
*S32
340
0
102
{BLKREFS
331
22AD
102
}
  0
BLOCK_RECORD
  5
290E
330
1
100
AcDbSymbolTableRecord
100
AcDbBlockTableRecord
  2
*S33
340
0
102
{BLKREFS
331
22B3
102
}
  0
BLOCK_RECORD
  5
2916
330
1
100
AcDbSymbolTableRecord
100
AcDbBlockTableRecord
  2
*S34
340
0
102
{BLKREFS
331
22B5
102
}
  0
ENDTAB
  0
ENDSEC
  0
SECTION
  2
BLOCKS
  0
BLOCK
  5
20
330
1F
100
AcDbEntity
  8
0
100
AcDbBlockBegin
  2
*Model_Space
 70
     0
 10
0.0
 20
0.0
 30
0.0
  3
*Model_Space
  1

  0
ENDBLK
  5
21
330
1F
100
AcDbEntity
  8
0
100
AcDbBlockEnd
  0
BLOCK
  5
1C
330
1B
100
AcDbEntity
 67
     1
  8
0
100
AcDbBlockBegin
  2
*Paper_Space
 70
     0
 10
0.0
 20
0.0
 30
0.0
  3
*Paper_Space
  1

  0
ENDBLK
  5
1D
330
1B
100
AcDbEntity
 67
     1
  8
0
100
AcDbBlockEnd
  0
BLOCK
  5
24
330
23
100
AcDbEntity
  8
0
100
AcDbBlockBegin
  2
*Paper_Space0
 70
     0
 10
0.0
 20
0.0
 30
0.0
  3
*Paper_Space0
  1

  0
ENDBLK
  5
25
330
23
100
AcDbEntity
  8
0
100
AcDbBlockEnd
  0
BLOCK
  5
89
330
87
100
AcDbEntity
  8
0
100
AcDbBlockBegin
  2
GENAXEH
 70
     0
 10
0.0
 20
0.0
 30
0.0
  3
GENAXEH
  1

  0
LINE
  5
88
330
87
100
AcDbEntity
  8
0
100
AcDbLine
 10
-1.0
 20
0.0
 30
0.0
 11
1.0
 21
0.0
 31
0.0
  0
ENDBLK
  5
8A
330
87
100
AcDbEntity
  8
0
100
AcDbBlockEnd
  0
BLOCK
  5
16E0
330
16D6
100
AcDbEntity
  8
0
100
AcDbBlockBegin
  2
*D3
 70
     1
 10
0.0
 20
0.0
 30
0.0
  3
*D3
  1

  0
LINE
  5
2822
330
16D6
100
AcDbEntity
  8
AM_5
100
AcDbLine
 10
2365.538626140197
 20
1210.815351605319
 30
0.0
 11
2329.538626140196
 21
1210.815351605319
 31
0.0
  0
LINE
  5
2823
330
16D6
100
AcDbEntity
  8
AM_5
100
AcDbLine
 10
2365.538626140197
 20
1152.815351605319
 30
0.0
 11
2329.538626140196
 21
1152.815351605319
 31
0.0
  0
LINE
  5
2824
330
16D6
100
AcDbEntity
  8
AM_5
100
AcDbLine
 10
2331.038626140196
 20
1207.815351605319
 30
0.0
 11
2331.038626140196
 21
1155.815351605319
 31
0.0
  0
SOLID
  5
2825
330
16D6
100
AcDbEntity
  8
AM_5
100
AcDbTrace
 10
2330.538626140196
 20
1207.815351605319
 30
0.0
 11
2331.538626140196
 21
1207.815351605319
 31
0.0
 12
2331.038626140196
 22
1210.815351605319
 32
0.0
 13
2331.038626140196
 23
1210.815351605319
 33
0.0
  0
SOLID
  5
2826
330
16D6
100
AcDbEntity
  8
AM_5
100
AcDbTrace
 10
2330.538626140196
 20
1155.815351605319
 30
0.0
 11
2331.538626140196
 21
1155.815351605319
 31
0.0
 12
2331.038626140196
 22
1152.815351605319
 32
0.0
 13
2331.038626140196
 23
1152.815351605319
 33
0.0
  0
MTEXT
  5
2827
330
16D6
100
AcDbEntity
  8
AM_5
100
AcDbMText
 10
2328.538626140195
 20
1181.81535160532
 30
0.0
 40
3.0
 41
0.0
 71
     5
 72
     1
  1
\A2;58
 11
0.0000000000000001
 21
1.0
 31
0.0
 73
     1
 44
1.0
1001
ACAD
1000
MTEXTBEGIN
1070
    73
1070
     1
1070
    44
1040
1.0
1070
    74
1070
     0
1000
MTEXTEND
  0
POINT
  5
2828
330
16D6
100
AcDbEntity
  8
Defpoints
 62
     0
100
AcDbPoint
 10
2366.538626140197
 20
1210.815351605319
 30
0.0
  0
POINT
  5
2829
330
16D6
100
AcDbEntity
  8
Defpoints
 62
     0
100
AcDbPoint
 10
2366.538626140197
 20
1152.815351605319
 30
0.0
  0
POINT
  5
282A
330
16D6
100
AcDbEntity
  8
Defpoints
 62
     0
100
AcDbPoint
 10
2331.038626140196
 20
1152.815351605319
 30
0.0
  0
ENDBLK
  5
16E1
330
16D6
100
AcDbEntity
  8
0
100
AcDbBlockEnd
  0
BLOCK
  5
1706
330
16FC
100
AcDbEntity
  8
0
100
AcDbBlockBegin
  2
*D4
 70
     1
 10
0.0
 20
0.0
 30
0.0
  3
*D4
  1

  0
LINE
  5
282B
330
16FC
100
AcDbEntity
  8
AM_5
100
AcDbLine
 10
2344.038626140196
 20
1220.815351605319
 30
0.0
 11
2319.538626140196
 21
1220.815351605319
 31
0.0
  0
LINE
  5
282C
330
16FC
100
AcDbEntity
  8
AM_5
100
AcDbLine
 10
2344.038626140196
 20
1142.81535160532
 30
0.0
 11
2319.538626140196
 21
1142.81535160532
 31
0.0
  0
LINE
  5
282D
330
16FC
100
AcDbEntity
  8
AM_5
100
AcDbLine
 10
2321.038626140196
 20
1217.815351605319
 30
0.0
 11
2321.038626140196
 21
1145.81535160532
 31
0.0
  0
SOLID
  5
282E
330
16FC
100
AcDbEntity
  8
AM_5
100
AcDbTrace
 10
2320.538626140196
 20
1217.815351605319
 30
0.0
 11
2321.538626140196
 21
1217.815351605319
 31
0.0
 12
2321.038626140196
 22
1220.815351605319
 32
0.0
 13
2321.038626140196
 23
1220.815351605319
 33
0.0
  0
SOLID
  5
282F
330
16FC
100
AcDbEntity
  8
AM_5
100
AcDbTrace
 10
2320.538626140196
 20
1145.81535160532
 30
0.0
 11
2321.538626140196
 21
1145.81535160532
 31
0.0
 12
2321.038626140196
 22
1142.81535160532
 32
0.0
 13
2321.038626140196
 23
1142.81535160532
 33
0.0
  0
MTEXT
  5
2830
330
16FC
100
AcDbEntity
  8
AM_5
100
AcDbMText
 10
2318.538626140195
 20
1181.81535160532
 30
0.0
 40
3.0
 41
0.0
 71
     5
 72
     1
  1
\A2;78
 11
0.0000000000000001
 21
1.0
 31
0.0
 73
     1
 44
1.0
1001
ACAD
1000
MTEXTBEGIN
1070
    73
1070
     1
1070
    44
1040
1.0
1070
    74
1070
     0
1000
MTEXTEND
  0
POINT
  5
2831
330
16FC
100
AcDbEntity
  8
Defpoints
 62
     0
100
AcDbPoint
 10
2345.038626140196
 20
1220.815351605319
 30
0.0
  0
POINT
  5
2832
330
16FC
100
AcDbEntity
  8
Defpoints
 62
     0
100
AcDbPoint
 10
2345.038626140196
 20
1142.81535160532
 30
0.0
  0
POINT
  5
2833
330
16FC
100
AcDbEntity
  8
Defpoints
 62
     0
100
AcDbPoint
 10
2321.038626140196
 20
1142.81535160532
 30
0.0
  0
ENDBLK
  5
1707
330
16FC
100
AcDbEntity
  8
0
100
AcDbBlockEnd
  0
BLOCK
  5
172C
330
1722
100
AcDbEntity
  8
0
100
AcDbBlockBegin
  2
*D5
 70
     1
 10
0.0
 20
0.0
 30
0.0
  3
*D5
  1

  0
LINE
  5
2834
330
1722
100
AcDbEntity
  8
AM_5
100
AcDbLine
 10
2343.038626140196
 20
1143.815351605319
 30
0.0
 11
2343.038626140196
 21
1119.31535160532
 31
0.0
  0
LINE
  5
2835
330
1722
100
AcDbEntity
  8
AM_5
100
AcDbLine
 10
2374.038626140197
 20
1144.315351605319
 30
0.0
 11
2374.038626140197
 21
1119.31535160532
 31
0.0
  0
LINE
  5
2836
330
1722
100
AcDbEntity
  8
AM_5
100
AcDbLine
 10
2346.038626140196
 20
1120.815351605319
 30
0.0
 11
2371.038626140197
 21
1120.815351605319
 31
0.0
  0
SOLID
  5
2837
330
1722
100
AcDbEntity
  8
AM_5
100
AcDbTrace
 10
2346.038626140196
 20
1121.31535160532
 30
0.0
 11
2346.038626140196
 21
1120.315351605319
 31
0.0
 12
2343.038626140196
 22
1120.815351605319
 32
0.0
 13
2343.038626140196
 23
1120.815351605319
 33
0.0
  0
SOLID
  5
2838
330
1722
100
AcDbEntity
  8
AM_5
100
AcDbTrace
 10
2371.038626140197
 20
1121.31535160532
 30
0.0
 11
2371.038626140197
 21
1120.315351605319
 31
0.0
 12
2374.038626140197
 22
1120.815351605319
 32
0.0
 13
2374.038626140197
 23
1120.815351605319
 33
0.0
  0
MTEXT
  5
2839
330
1722
100
AcDbEntity
  8
AM_5
100
AcDbMText
 10
2358.538626140196
 20
1123.315351605319
 30
0.0
 40
3.0
 41
0.0
 71
     5
 72
     1
  1
\A2;31
 73
     1
 44
1.0
1001
ACAD
1000
MTEXTBEGIN
1070
    73
1070
     1
1070
    44
1040
1.0
1070
    74
1070
     0
1000
MTEXTEND
  0
POINT
  5
283A
330
1722
100
AcDbEntity
  8
Defpoints
 62
     0
100
AcDbPoint
 10
2343.038626140196
 20
1144.81535160532
 30
0.0
  0
POINT
  5
283B
330
1722
100
AcDbEntity
  8
Defpoints
 62
     0
100
AcDbPoint
 10
2374.038626140197
 20
1145.315351605319
 30
0.0
  0
POINT
  5
283C
330
1722
100
AcDbEntity
  8
Defpoints
 62
     0
100
AcDbPoint
 10
2374.038626140197
 20
1120.815351605319
 30
0.0
  0
ENDBLK
  5
172D
330
1722
100
AcDbEntity
  8
0
100
AcDbBlockEnd
  0
BLOCK
  5
1752
330
1748
100
AcDbEntity
  8
0
100
AcDbBlockBegin
  2
*D6
 70
     1
 10
0.0
 20
0.0
 30
0.0
  3
*D6
  1

  0
LINE
  5
283D
330
1748
100
AcDbEntity
  8
AM_5
100
AcDbLine
 10
2343.038626140196
 20
1143.815351605319
 30
0.0
 11
2343.038626140196
 21
1109.315351605319
 31
0.0
  0
LINE
  5
283E
330
1748
100
AcDbEntity
  8
AM_5
100
AcDbLine
 10
2391.038626140196
 20
1141.815351605319
 30
0.0
 11
2391.038626140196
 21
1109.315351605319
 31
0.0
  0
LINE
  5
283F
330
1748
100
AcDbEntity
  8
AM_5
100
AcDbLine
 10
2346.038626140196
 20
1110.815351605319
 30
0.0
 11
2388.038626140196
 21
1110.815351605319
 31
0.0
  0
SOLID
  5
2840
330
1748
100
AcDbEntity
  8
AM_5
100
AcDbTrace
 10
2346.038626140196
 20
1111.31535160532
 30
0.0
 11
2346.038626140196
 21
1110.315351605319
 31
0.0
 12
2343.038626140196
 22
1110.815351605319
 32
0.0
 13
2343.038626140196
 23
1110.815351605319
 33
0.0
  0
SOLID
  5
2841
330
1748
100
AcDbEntity
  8
AM_5
100
AcDbTrace
 10
2388.038626140196
 20
1111.31535160532
 30
0.0
 11
2388.038626140196
 21
1110.315351605319
 31
0.0
 12
2391.038626140196
 22
1110.815351605319
 32
0.0
 13
2391.038626140196
 23
1110.815351605319
 33
0.0
  0
MTEXT
  5
2842
330
1748
100
AcDbEntity
  8
AM_5
100
AcDbMText
 10
2367.038626140196
 20
1113.31535160532
 30
0.0
 40
3.0
 41
0.0
 71
     5
 72
     1
  1
\A2;48
 73
     1
 44
1.0
1001
ACAD
1000
MTEXTBEGIN
1070
    73
1070
     1
1070
    44
1040
1.0
1070
    74
1070
     0
1000
MTEXTEND
  0
POINT
  5
2843
330
1748
100
AcDbEntity
  8
Defpoints
 62
     0
100
AcDbPoint
 10
2343.038626140196
 20
1144.81535160532
 30
0.0
  0
POINT
  5
2844
330
1748
100
AcDbEntity
  8
Defpoints
 62
     0
100
AcDbPoint
 10
2391.038626140196
 20
1142.815351605319
 30
0.0
  0
POINT
  5
2845
330
1748
100
AcDbEntity
  8
Defpoints
 62
     0
100
AcDbPoint
 10
2391.038626140196
 20
1110.815351605319
 30
0.0
  0
ENDBLK
  5
1753
330
1748
100
AcDbEntity
  8
0
100
AcDbBlockEnd
  0
BLOCK
  5
1778
330
176E
100
AcDbEntity
  8
0
100
AcDbBlockBegin
  2
*D7
 70
     1
 10
0.0
 20
0.0
 30
0.0
  3
*D7
  1

  0
LINE
  5
2846
330
176E
100
AcDbEntity
  8
AM_5
100
AcDbLine
 10
2343.038626140196
 20
1143.815351605319
 30
0.0
 11
2343.038626140196
 21
1129.31535160532
 31
0.0
  0
LINE
  5
2847
330
176E
100
AcDbEntity
  8
AM_5
100
AcDbLine
 10
2357.538626140196
 20
1168.315351605319
 30
0.0
 11
2357.538626140196
 21
1129.31535160532
 31
0.0
  0
LINE
  5
2848
330
176E
100
AcDbEntity
  8
AM_5
100
AcDbLine
 10
2346.038626140196
 20
1130.815351605319
 30
0.0
 11
2354.538626140196
 21
1130.815351605319
 31
0.0
  0
SOLID
  5
2849
330
176E
100
AcDbEntity
  8
AM_5
100
AcDbTrace
 10
2346.038626140196
 20
1131.315351605319
 30
0.0
 11
2346.038626140196
 21
1130.315351605319
 31
0.0
 12
2343.038626140196
 22
1130.815351605319
 32
0.0
 13
2343.038626140196
 23
1130.815351605319
 33
0.0
  0
SOLID
  5
284A
330
176E
100
AcDbEntity
  8
AM_5
100
AcDbTrace
 10
2354.538626140196
 20
1131.315351605319
 30
0.0
 11
2354.538626140196
 21
1130.315351605319
 31
0.0
 12
2357.538626140196
 22
1130.815351605319
 32
0.0
 13
2357.538626140196
 23
1130.815351605319
 33
0.0
  0
MTEXT
  5
284B
330
176E
100
AcDbEntity
  8
AM_5
100
AcDbMText
 10
2350.288626140196
 20
1133.315351605319
 30
0.0
 40
3.0
 41
0.0
 71
     5
 72
     1
  1
\A2;14.5
 73
     1
 44
1.0
1001
ACAD
1000
MTEXTBEGIN
1070
    73
1070
     1
1070
    44
1040
1.0
1070
    74
1070
     0
1000
MTEXTEND
  0
POINT
  5
284C
330
176E
100
AcDbEntity
  8
Defpoints
 62
     0
100
AcDbPoint
 10
2343.038626140196
 20
1144.81535160532
 30
0.0
  0
POINT
  5
284D
330
176E
100
AcDbEntity
  8
Defpoints
 62
     0
100
AcDbPoint
 10
2357.538626140196
 20
1169.315351605319
 30
0.0
  0
POINT
  5
284E
330
176E
100
AcDbEntity
  8
Defpoints
 62
     0
100
AcDbPoint
 10
2357.538626140196
 20
1130.815351605319
 30
0.0
  0
ENDBLK
  5
1779
330
176E
100
AcDbEntity
  8
0
100
AcDbBlockEnd
  0
BLOCK
  5
17DB
330
17D1
100
AcDbEntity
  8
0
100
AcDbBlockBegin
  2
*D8
 70
     1
 10
0.0
 20
0.0
 30
0.0
  3
*D8
  1

  0
LINE
  5
284F
330
17D1
100
AcDbEntity
  8
AM_5
100
AcDbLine
 10
2424.926159406428
 20
1141.815351605319
 30
0.0
 11
2424.926159406428
 21
1129.315351605319
 31
0.0
  0
LINE
  5
2850
330
17D1
100
AcDbEntity
  8
AM_5
100
AcDbLine
 10
2436.926159406428
 20
1141.815351605319
 30
0.0
 11
2436.926159406428
 21
1129.315351605319
 31
0.0
  0
LINE
  5
2851
330
17D1
100
AcDbEntity
  8
AM_5
100
AcDbLine
 10
2427.926159406428
 20
1130.815351605319
 30
0.0
 11
2433.926159406428
 21
1130.815351605319
 31
0.0
  0
SOLID
  5
2852
330
17D1
100
AcDbEntity
  8
AM_5
100
AcDbTrace
 10
2427.926159406428
 20
1131.315351605319
 30
0.0
 11
2427.926159406428
 21
1130.315351605319
 31
0.0
 12
2424.926159406428
 22
1130.815351605319
 32
0.0
 13
2424.926159406428
 23
1130.815351605319
 33
0.0
  0
SOLID
  5
2853
330
17D1
100
AcDbEntity
  8
AM_5
100
AcDbTrace
 10
2433.926159406428
 20
1131.315351605319
 30
0.0
 11
2433.926159406428
 21
1130.315351605319
 31
0.0
 12
2436.926159406428
 22
1130.815351605319
 32
0.0
 13
2436.926159406428
 23
1130.815351605319
 33
0.0
  0
MTEXT
  5
2854
330
17D1
100
AcDbEntity
  8
AM_5
100
AcDbMText
 10
2430.926159406428
 20
1133.31564688091
 30
0.0
 40
3.0
 41
0.0
 71
     5
 72
     1
  1
\A2;12
 73
     1
 44
1.0
1001
ACAD
1000
MTEXTBEGIN
1070
    73
1070
     1
1070
    44
1040
1.0
1070
    74
1070
     0
1000
MTEXTEND
  0
POINT
  5
2855
330
17D1
100
AcDbEntity
  8
Defpoints
 62
     0
100
AcDbPoint
 10
2424.926159406428
 20
1142.815351605319
 30
0.0
  0
POINT
  5
2856
330
17D1
100
AcDbEntity
  8
Defpoints
 62
     0
100
AcDbPoint
 10
2436.926159406428
 20
1142.815351605319
 30
0.0
  0
POINT
  5
2857
330
17D1
100
AcDbEntity
  8
Defpoints
 62
     0
100
AcDbPoint
 10
2436.926159406428
 20
1130.815351605319
 30
0.0
  0
ENDBLK
  5
17DC
330
17D1
100
AcDbEntity
  8
0
100
AcDbBlockEnd
  0
BLOCK
  5
1805
330
17FB
100
AcDbEntity
  8
0
100
AcDbBlockBegin
  2
*D9
 70
     1
 10
0.0
 20
0.0
 30
0.0
  3
*D9
  1

  0
LINE
  5
2858
330
17FB
100
AcDbEntity
  8
AM_5
100
AcDbLine
 10
2392.038626140196
 20
1198.315351605319
 30
0.0
 11
2404.538627140196
 21
1198.315351605319
 31
0.0
  0
LINE
  5
2859
330
17FB
100
AcDbEntity
  8
AM_5
100
AcDbLine
 10
2392.038626140196
 20
1165.315351605319
 30
0.0
 11
2404.538627140196
 21
1165.315351605319
 31
0.0
  0
LINE
  5
285A
330
17FB
100
AcDbEntity
  8
AM_5
100
AcDbLine
 10
2403.038627140196
 20
1195.315351605319
 30
0.0
 11
2403.038627140196
 21
1168.315351605319
 31
0.0
  0
SOLID
  5
285B
330
17FB
100
AcDbEntity
  8
AM_5
100
AcDbTrace
 10
2402.538627140196
 20
1195.315351605319
 30
0.0
 11
2403.538627140196
 21
1195.315351605319
 31
0.0
 12
2403.038627140196
 22
1198.315351605319
 32
0.0
 13
2403.038627140196
 23
1198.315351605319
 33
0.0
  0
SOLID
  5
285C
330
17FB
100
AcDbEntity
  8
AM_5
100
AcDbTrace
 10
2402.538627140196
 20
1168.315351605319
 30
0.0
 11
2403.538627140196
 21
1168.315351605319
 31
0.0
 12
2403.038627140196
 22
1165.315351605319
 32
0.0
 13
2403.038627140196
 23
1165.315351605319
 33
0.0
  0
MTEXT
  5
285D
330
17FB
100
AcDbEntity
  8
AM_5
100
AcDbMText
 10
2400.538627140196
 20
1181.81535160532
 30
0.0
 40
3.0
 41
0.0
 71
     5
 72
     1
  1
\A2;33
 11
0.0000000000000001
 21
1.0
 31
0.0
 73
     1
 44
1.0
1001
ACAD
1000
MTEXTBEGIN
1070
    73
1070
     1
1070
    44
1040
1.0
1070
    74
1070
     0
1000
MTEXTEND
  0
POINT
  5
285E
330
17FB
100
AcDbEntity
  8
Defpoints
 62
     0
100
AcDbPoint
 10
2391.038626140196
 20
1198.315351605319
 30
0.0
  0
POINT
  5
285F
330
17FB
100
AcDbEntity
  8
Defpoints
 62
     0
100
AcDbPoint
 10
2391.038626140196
 20
1165.315351605319
 30
0.0
  0
POINT
  5
2860
330
17FB
100
AcDbEntity
  8
Defpoints
 62
     0
100
AcDbPoint
 10
2403.038627140196
 20
1165.315351605319
 30
0.0
  0
ENDBLK
  5
1806
330
17FB
100
AcDbEntity
  8
0
100
AcDbBlockEnd
  0
BLOCK
  5
216D
330
2163
100
AcDbEntity
  8
0
100
AcDbBlockBegin
  2
*D10
 70
     1
 10
0.0
 20
0.0
 30
0.0
  3
*D10
  1

  0
LINE
  5
2777
330
2163
100
AcDbEntity
  8
AM_5
100
AcDbLine
 10
2056.997779863748
 20
1286.878332034311
 30
0.0
 11
2056.997779863748
 21
1273.378332034311
 31
0.0
  0
LINE
  5
2778
330
2163
100
AcDbEntity
  8
AM_5
100
AcDbLine
 10
2089.497779863748
 20
1286.878332034311
 30
0.0
 11
2089.497779863748
 21
1273.378332034311
 31
0.0
  0
LINE
  5
2779
330
2163
100
AcDbEntity
  8
AM_5
100
AcDbLine
 10
2059.997779863748
 20
1274.878332034311
 30
0.0
 11
2086.497779863748
 21
1274.878332034311
 31
0.0
  0
SOLID
  5
277A
330
2163
100
AcDbEntity
  8
AM_5
100
AcDbTrace
 10
2059.997779863748
 20
1275.378332034311
 30
0.0
 11
2059.997779863748
 21
1274.378332034311
 31
0.0
 12
2056.997779863748
 22
1274.878332034311
 32
0.0
 13
2056.997779863748
 23
1274.878332034311
 33
0.0
  0
SOLID
  5
277B
330
2163
100
AcDbEntity
  8
AM_5
100
AcDbTrace
 10
2086.497779863748
 20
1275.378332034311
 30
0.0
 11
2086.497779863748
 21
1274.378332034311
 31
0.0
 12
2089.497779863748
 22
1274.878332034311
 32
0.0
 13
2089.497779863748
 23
1274.878332034311
 33
0.0
  0
MTEXT
  5
277C
330
2163
100
AcDbEntity
  8
AM_5
100
AcDbMText
 10
2073.247779863748
 20
1277.378627309902
 30
0.0
 40
3.0
 41
0.0
 71
     5
 72
     1
  1
\A2;32.5
 73
     1
 44
1.0
1001
ACAD
1000
MTEXTBEGIN
1070
    73
1070
     1
1070
    44
1040
1.0
1070
    74
1070
     0
1000
MTEXTEND
  0
POINT
  5
277D
330
2163
100
AcDbEntity
  8
Defpoints
 62
     0
100
AcDbPoint
 10
2056.997779863748
 20
1287.878332034311
 30
0.0
  0
POINT
  5
277E
330
2163
100
AcDbEntity
  8
Defpoints
 62
     0
100
AcDbPoint
 10
2089.497779863748
 20
1287.878332034311
 30
0.0
  0
POINT
  5
277F
330
2163
100
AcDbEntity
  8
Defpoints
 62
     0
100
AcDbPoint
 10
2089.497779863748
 20
1274.878332034311
 30
0.0
  0
ENDBLK
  5
216E
330
2163
100
AcDbEntity
  8
0
100
AcDbBlockEnd
  0
BLOCK
  5
2179
330
216F
100
AcDbEntity
  8
0
100
AcDbBlockBegin
  2
*D11
 70
     1
 10
0.0
 20
0.0
 30
0.0
  3
*D11
  1

  0
LINE
  5
2780
330
216F
100
AcDbEntity
  8
AM_5
100
AcDbLine
 10
2095.497779863748
 20
1292.878332034311
 30
0.0
 11
2111.232076280052
 21
1292.878332034311
 31
0.0
  0
LINE
  5
2781
330
216F
100
AcDbEntity
  8
AM_5
100
AcDbLine
 10
2095.497779863748
 20
1318.878332034311
 30
0.0
 11
2111.232076280052
 21
1318.878332034311
 31
0.0
  0
LINE
  5
2782
330
216F
100
AcDbEntity
  8
AM_5
100
AcDbLine
 10
2109.732076280052
 20
1295.878332034311
 30
0.0
 11
2109.732076280052
 21
1315.878332034311
 31
0.0
  0
SOLID
  5
2783
330
216F
100
AcDbEntity
  8
AM_5
100
AcDbTrace
 10
2109.232076280052
 20
1295.878332034311
 30
0.0
 11
2110.232076280052
 21
1295.878332034311
 31
0.0
 12
2109.732076280052
 22
1292.878332034311
 32
0.0
 13
2109.732076280052
 23
1292.878332034311
 33
0.0
  0
SOLID
  5
2784
330
216F
100
AcDbEntity
  8
AM_5
100
AcDbTrace
 10
2109.232076280052
 20
1315.878332034311
 30
0.0
 11
2110.232076280052
 21
1315.878332034311
 31
0.0
 12
2109.732076280052
 22
1318.878332034311
 32
0.0
 13
2109.732076280052
 23
1318.878332034311
 33
0.0
  0
MTEXT
  5
2785
330
216F
100
AcDbEntity
  8
AM_5
100
AcDbMText
 10
2107.231781004461
 20
1302.180780989895
 30
0.0
 40
3.0
 41
0.0
 71
     5
 72
     1
  1
\A2;26
 11
0.0000000000000001
 21
1.0
 31
0.0
 73
     1
 44
1.0
1001
ACAD
1000
MTEXTBEGIN
1070
    73
1070
     1
1070
    44
1040
1.0
1070
    74
1070
     0
1000
MTEXTEND
  0
POINT
  5
2786
330
216F
100
AcDbEntity
  8
Defpoints
 62
     0
100
AcDbPoint
 10
2094.497779863748
 20
1292.878332034311
 30
0.0
  0
POINT
  5
2787
330
216F
100
AcDbEntity
  8
Defpoints
 62
     0
100
AcDbPoint
 10
2094.497779863748
 20
1318.878332034311
 30
0.0
  0
POINT
  5
2788
330
216F
100
AcDbEntity
  8
Defpoints
 62
     0
100
AcDbPoint
 10
2109.732076280052
 20
1318.878332034311
 30
0.0
  0
ENDBLK
  5
217A
330
216F
100
AcDbEntity
  8
0
100
AcDbBlockEnd
  0
BLOCK
  5
21BA
330
21B0
100
AcDbEntity
  8
0
100
AcDbBlockBegin
  2
*D12
 70
     1
 10
0.0
 20
0.0
 30
0.0
  3
*D12
  1

  0
LINE
  5
27B6
330
21B0
100
AcDbEntity
  8
AM_5
100
AcDbLine
 10
2127.497779863748
 20
1141.815351605319
 30
0.0
 11
2127.497779863748
 21
1127.565351605319
 31
0.0
  0
LINE
  5
27B7
330
21B0
100
AcDbEntity
  8
AM_5
100
AcDbLine
 10
2139.497779863748
 20
1141.815351605319
 30
0.0
 11
2139.497779863748
 21
1127.565351605319
 31
0.0
  0
LINE
  5
27B8
330
21B0
100
AcDbEntity
  8
AM_5
100
AcDbLine
 10
2130.497779863748
 20
1129.065351605319
 30
0.0
 11
2136.497779863748
 21
1129.065351605319
 31
0.0
  0
SOLID
  5
27B9
330
21B0
100
AcDbEntity
  8
AM_5
100
AcDbTrace
 10
2130.497779863748
 20
1129.565351605319
 30
0.0
 11
2130.497779863748
 21
1128.565351605319
 31
0.0
 12
2127.497779863748
 22
1129.065351605319
 32
0.0
 13
2127.497779863748
 23
1129.065351605319
 33
0.0
  0
SOLID
  5
27BA
330
21B0
100
AcDbEntity
  8
AM_5
100
AcDbTrace
 10
2136.497779863748
 20
1129.565351605319
 30
0.0
 11
2136.497779863748
 21
1128.565351605319
 31
0.0
 12
2139.497779863748
 22
1129.065351605319
 32
0.0
 13
2139.497779863748
 23
1129.065351605319
 33
0.0
  0
MTEXT
  5
27BB
330
21B0
100
AcDbEntity
  8
AM_5
100
AcDbMText
 10
2133.497779863748
 20
1131.56564688091
 30
0.0
 40
3.0
 41
0.0
 71
     5
 72
     1
  1
\A2;12
 73
     1
 44
1.0
1001
ACAD
1000
MTEXTBEGIN
1070
    73
1070
     1
1070
    44
1040
1.0
1070
    74
1070
     0
1000
MTEXTEND
  0
POINT
  5
27BC
330
21B0
100
AcDbEntity
  8
Defpoints
 62
     0
100
AcDbPoint
 10
2127.497779863748
 20
1142.815351605319
 30
0.0
  0
POINT
  5
27BD
330
21B0
100
AcDbEntity
  8
Defpoints
 62
     0
100
AcDbPoint
 10
2139.497779863748
 20
1142.815351605319
 30
0.0
  0
POINT
  5
27BE
330
21B0
100
AcDbEntity
  8
Defpoints
 62
     0
100
AcDbPoint
 10
2139.497779863748
 20
1129.065351605319
 30
0.0
  0
ENDBLK
  5
21BB
330
21B0
100
AcDbEntity
  8
0
100
AcDbBlockEnd
  0
BLOCK
  5
21C6
330
21BC
100
AcDbEntity
  8
0
100
AcDbBlockBegin
  2
*D13
 70
     1
 10
0.0
 20
0.0
 30
0.0
  3
*D13
  1

  0
LINE
  5
2A40
330
21BC
100
AcDbEntity
  8
AM_5
100
AcDbLine
 10
2074.497779863748
 20
1163.815351605319
 30
0.0
 11
2074.497779863748
 21
1127.565351605319
 31
0.0
  0
LINE
  5
2A41
330
21BC
100
AcDbEntity
  8
AM_5
100
AcDbLine
 10
2082.997779863748
 20
1154.565351605319
 30
0.0
 11
2082.997779863748
 21
1127.565351605319
 31
0.0
  0
LINE
  5
2A42
330
21BC
100
AcDbEntity
  8
AM_5
100
AcDbLine
 10
2077.497779863748
 20
1129.065351605319
 30
0.0
 11
2079.997779863748
 21
1129.065351605319
 31
0.0
  0
SOLID
  5
2A43
330
21BC
100
AcDbEntity
  8
AM_5
100
AcDbTrace
 10
2077.497779863748
 20
1129.565351605319
 30
0.0
 11
2077.497779863748
 21
1128.565351605319
 31
0.0
 12
2074.497779863748
 22
1129.065351605319
 32
0.0
 13
2074.497779863748
 23
1129.065351605319
 33
0.0
  0
SOLID
  5
2A44
330
21BC
100
AcDbEntity
  8
AM_5
100
AcDbTrace
 10
2079.997779863748
 20
1129.565351605319
 30
0.0
 11
2079.997779863748
 21
1128.565351605319
 31
0.0
 12
2082.997779863748
 22
1129.065351605319
 32
0.0
 13
2082.997779863748
 23
1129.065351605319
 33
0.0
  0
MTEXT
  5
2A45
330
21BC
100
AcDbEntity
  8
AM_5
100
AcDbMText
 10
2078.747779863748
 20
1131.565351605319
 30
0.0
 40
3.0
 41
0.0
 71
     5
 72
     1
  1
\A2;8.5
 73
     1
 44
1.0
1001
ACAD
1000
MTEXTBEGIN
1070
    73
1070
     1
1070
    44
1040
1.0
1070
    74
1070
     0
1000
MTEXTEND
  0
POINT
  5
2A46
330
21BC
100
AcDbEntity
  8
Defpoints
 62
     0
100
AcDbPoint
 10
2074.497779863748
 20
1164.815351605319
 30
0.0
  0
POINT
  5
2A47
330
21BC
100
AcDbEntity
  8
Defpoints
 62
     0
100
AcDbPoint
 10
2082.997779863748
 20
1155.565351605319
 30
0.0
  0
POINT
  5
2A48
330
21BC
100
AcDbEntity
  8
Defpoints
 62
     0
100
AcDbPoint
 10
2082.997779863748
 20
1129.065351605319
 30
0.0
  0
ENDBLK
  5
21C7
330
21BC
100
AcDbEntity
  8
0
100
AcDbBlockEnd
  0
BLOCK
  5
21D2
330
21C8
100
AcDbEntity
  8
0
100
AcDbBlockBegin
  2
*D14
 70
     1
 10
0.0
 20
0.0
 30
0.0
  3
*D14
  1

  0
LINE
  5
27C8
330
21C8
100
AcDbEntity
  8
AM_5
100
AcDbLine
 10
1978.997779863748
 20
1147.815351605319
 30
0.0
 11
1965.997779863748
 21
1147.815351605319
 31
0.0
  0
LINE
  5
27C9
330
21C8
100
AcDbEntity
  8
AM_5
100
AcDbLine
 10
1978.997779863748
 20
1157.815351605319
 30
0.0
 11
1965.997779863748
 21
1157.815351605319
 31
0.0
  0
LINE
  5
27CA
330
21C8
100
AcDbEntity
  8
AM_5
100
AcDbLine
 10
1967.497779863748
 20
1150.815351605319
 30
0.0
 11
1967.497779863748
 21
1154.815351605319
 31
0.0
  0
SOLID
  5
27CB
330
21C8
100
AcDbEntity
  8
AM_5
100
AcDbTrace
 10
1966.997779863748
 20
1150.815351605319
 30
0.0
 11
1967.997779863748
 21
1150.815351605319
 31
0.0
 12
1967.497779863748
 22
1147.815351605319
 32
0.0
 13
1967.497779863748
 23
1147.815351605319
 33
0.0
  0
SOLID
  5
27CC
330
21C8
100
AcDbEntity
  8
AM_5
100
AcDbTrace
 10
1966.997779863748
 20
1154.815351605319
 30
0.0
 11
1967.997779863748
 21
1154.815351605319
 31
0.0
 12
1967.497779863748
 22
1157.815351605319
 32
0.0
 13
1967.497779863748
 23
1157.815351605319
 33
0.0
  0
MTEXT
  5
27CD
330
21C8
100
AcDbEntity
  8
AM_5
100
AcDbMText
 10
1964.997779863747
 20
1152.815351605319
 30
0.0
 40
3.0
 41
0.0
 71
     5
 72
     1
  1
\A2;10
 11
0.0000000000000001
 21
1.0
 31
0.0
 73
     1
 44
1.0
1001
ACAD
1000
MTEXTBEGIN
1070
    73
1070
     1
1070
    44
1040
1.0
1070
    74
1070
     0
1000
MTEXTEND
  0
POINT
  5
27CE
330
21C8
100
AcDbEntity
  8
Defpoints
 62
     0
100
AcDbPoint
 10
1979.997779863747
 20
1147.815351605319
 30
0.0
  0
POINT
  5
27CF
330
21C8
100
AcDbEntity
  8
Defpoints
 62
     0
100
AcDbPoint
 10
1979.997779863747
 20
1157.815351605319
 30
0.0
  0
POINT
  5
27D0
330
21C8
100
AcDbEntity
  8
Defpoints
 62
     0
100
AcDbPoint
 10
1967.497779863748
 20
1157.815351605319
 30
0.0
  0
ENDBLK
  5
21D3
330
21C8
100
AcDbEntity
  8
0
100
AcDbBlockEnd
  0
BLOCK
  5
21DE
330
21D4
100
AcDbEntity
  8
0
100
AcDbBlockBegin
  2
*D15
 70
     1
 10
0.0
 20
0.0
 30
0.0
  3
*D15
  1

  0
LINE
  5
27D1
330
21D4
100
AcDbEntity
  8
AM_5
100
AcDbLine
 10
1979.497779863748
 20
1216.315351605319
 30
0.0
 11
1979.497779863748
 21
1256.315351605318
 31
0.0
  0
LINE
  5
27D2
330
21D4
100
AcDbEntity
  8
AM_5
100
AcDbLine
 10
2139.497779863748
 20
1221.815351605319
 30
0.0
 11
2139.497779863748
 21
1256.315351605318
 31
0.0
  0
LINE
  5
27D3
330
21D4
100
AcDbEntity
  8
AM_5
100
AcDbLine
 10
1982.497779863748
 20
1254.815351605318
 30
0.0
 11
2136.497779863748
 21
1254.815351605318
 31
0.0
  0
SOLID
  5
27D4
330
21D4
100
AcDbEntity
  8
AM_5
100
AcDbTrace
 10
1982.497779863748
 20
1255.315351605318
 30
0.0
 11
1982.497779863748
 21
1254.315351605318
 31
0.0
 12
1979.497779863748
 22
1254.815351605318
 32
0.0
 13
1979.497779863748
 23
1254.815351605318
 33
0.0
  0
SOLID
  5
27D5
330
21D4
100
AcDbEntity
  8
AM_5
100
AcDbTrace
 10
2136.497779863748
 20
1255.315351605318
 30
0.0
 11
2136.497779863748
 21
1254.315351605318
 31
0.0
 12
2139.497779863748
 22
1254.815351605318
 32
0.0
 13
2139.497779863748
 23
1254.815351605318
 33
0.0
  0
MTEXT
  5
27D6
330
21D4
100
AcDbEntity
  8
AM_5
100
AcDbMText
 10
2059.497779863748
 20
1257.315351605318
 30
0.0
 40
3.0
 41
0.0
 71
     5
 72
     1
  1
\A2;135+stroke
 73
     1
 44
1.0
1001
ACAD
1000
MTEXTBEGIN
1070
    73
1070
     1
1070
    44
1040
1.0
1070
    74
1070
     0
1000
MTEXTEND
  0
POINT
  5
27D7
330
21D4
100
AcDbEntity
  8
Defpoints
 62
     0
100
AcDbPoint
 10
1979.497779863748
 20
1215.315351605319
 30
0.0
  0
POINT
  5
27D8
330
21D4
100
AcDbEntity
  8
Defpoints
 62
     0
100
AcDbPoint
 10
2139.497779863748
 20
1220.815351605319
 30
0.0
  0
POINT
  5
27D9
330
21D4
100
AcDbEntity
  8
Defpoints
 62
     0
100
AcDbPoint
 10
2139.497779863748
 20
1254.815351605318
 30
0.0
  0
ENDBLK
  5
21DF
330
21D4
100
AcDbEntity
  8
0
100
AcDbBlockEnd
  0
BLOCK
  5
21EA
330
21E0
100
AcDbEntity
  8
0
100
AcDbBlockBegin
  2
*D16
 70
     1
 10
0.0
 20
0.0
 30
0.0
  3
*D16
  1

  0
LINE
  5
27DA
330
21E0
100
AcDbEntity
  8
AM_5
100
AcDbLine
 10
2091.247779863748
 20
1162.815351605319
 30
0.0
 11
2152.997779863748
 21
1162.815351605319
 31
0.0
  0
LINE
  5
27DB
330
21E0
100
AcDbEntity
  8
AM_5
100
AcDbLine
 10
2091.247779863748
 20
1200.815351605319
 30
0.0
 11
2152.997779863748
 21
1200.815351605319
 31
0.0
  0
LINE
  5
27DC
330
21E0
100
AcDbEntity
  8
AM_5
100
AcDbLine
 10
2151.497779863748
 20
1165.815351605319
 30
0.0
 11
2151.497779863748
 21
1197.815351605319
 31
0.0
  0
SOLID
  5
27DD
330
21E0
100
AcDbEntity
  8
AM_5
100
AcDbTrace
 10
2150.997779863748
 20
1165.815351605319
 30
0.0
 11
2151.997779863748
 21
1165.815351605319
 31
0.0
 12
2151.497779863748
 22
1162.815351605319
 32
0.0
 13
2151.497779863748
 23
1162.815351605319
 33
0.0
  0
SOLID
  5
27DE
330
21E0
100
AcDbEntity
  8
AM_5
100
AcDbTrace
 10
2150.997779863748
 20
1197.815351605319
 30
0.0
 11
2151.997779863748
 21
1197.815351605319
 31
0.0
 12
2151.497779863748
 22
1200.815351605319
 32
0.0
 13
2151.497779863748
 23
1200.815351605319
 33
0.0
  0
MTEXT
  5
27DF
330
21E0
100
AcDbEntity
  8
AM_5
100
AcDbMText
 10
2148.997779863748
 20
1181.81535160532
 30
0.0
 40
3.0
 41
0.0
 71
     5
 72
     1
  1
\A2;38
 11
0.0000000000000001
 21
1.0
 31
0.0
 73
     1
 44
1.0
1001
ACAD
1000
MTEXTBEGIN
1070
    73
1070
     1
1070
    44
1040
1.0
1070
    74
1070
     0
1000
MTEXTEND
  0
POINT
  5
27E0
330
21E0
100
AcDbEntity
  8
Defpoints
 62
     0
100
AcDbPoint
 10
2090.247779863748
 20
1162.815351605319
 30
0.0
  0
POINT
  5
27E1
330
21E0
100
AcDbEntity
  8
Defpoints
 62
     0
100
AcDbPoint
 10
2090.247779863748
 20
1200.815351605319
 30
0.0
  0
POINT
  5
27E2
330
21E0
100
AcDbEntity
  8
Defpoints
 62
     0
100
AcDbPoint
 10
2151.497779863748
 20
1200.815351605319
 30
0.0
  0
ENDBLK
  5
21EB
330
21E0
100
AcDbEntity
  8
0
100
AcDbBlockEnd
  0
BLOCK
  5
21F6
330
21EC
100
AcDbEntity
  8
0
100
AcDbBlockBegin
  2
*D17
 70
     1
 10
0.0
 20
0.0
 30
0.0
  3
*D17
  1

  0
LINE
  5
2A52
330
21EC
100
AcDbEntity
  8
AM_5
100
AcDbLine
 10
1961.497779863748
 20
1172.815351605319
 30
0.0
 11
1961.497779863748
 21
1117.565351605319
 31
0.0
  0
LINE
  5
2A53
330
21EC
100
AcDbEntity
  8
AM_5
100
AcDbLine
 10
2074.497779863748
 20
1162.815351605319
 30
0.0
 11
2074.497779863748
 21
1117.565351605319
 31
0.0
  0
LINE
  5
2A54
330
21EC
100
AcDbEntity
  8
AM_5
100
AcDbLine
 10
1964.497779863748
 20
1119.065351605319
 30
0.0
 11
2071.497779863748
 21
1119.065351605319
 31
0.0
  0
SOLID
  5
2A55
330
21EC
100
AcDbEntity
  8
AM_5
100
AcDbTrace
 10
1964.497779863748
 20
1119.565351605319
 30
0.0
 11
1964.497779863748
 21
1118.565351605319
 31
0.0
 12
1961.497779863748
 22
1119.065351605319
 32
0.0
 13
1961.497779863748
 23
1119.065351605319
 33
0.0
  0
SOLID
  5
2A56
330
21EC
100
AcDbEntity
  8
AM_5
100
AcDbTrace
 10
2071.497779863748
 20
1119.565351605319
 30
0.0
 11
2071.497779863748
 21
1118.565351605319
 31
0.0
 12
2074.497779863748
 22
1119.065351605319
 32
0.0
 13
2074.497779863748
 23
1119.065351605319
 33
0.0
  0
MTEXT
  5
2A57
330
21EC
100
AcDbEntity
  8
AM_5
100
AcDbMText
 10
2017.997779863748
 20
1121.565351605319
 30
0.0
 40
3.0
 41
0.0
 71
     5
 72
     1
  1
\A2;88+stroke
 73
     1
 44
1.0
1001
ACAD
1000
MTEXTBEGIN
1070
    73
1070
     1
1070
    44
1040
1.0
1070
    74
1070
     0
1000
MTEXTEND
  0
POINT
  5
2A58
330
21EC
100
AcDbEntity
  8
Defpoints
 62
     0
100
AcDbPoint
 10
1961.497779863748
 20
1173.815351605319
 30
0.0
  0
POINT
  5
2A59
330
21EC
100
AcDbEntity
  8
Defpoints
 62
     0
100
AcDbPoint
 10
2074.497779863748
 20
1163.815351605319
 30
0.0
  0
POINT
  5
2A5A
330
21EC
100
AcDbEntity
  8
Defpoints
 62
     0
100
AcDbPoint
 10
2074.497779863748
 20
1119.065351605319
 30
0.0
  0
ENDBLK
  5
21F7
330
21EC
100
AcDbEntity
  8
0
100
AcDbBlockEnd
  0
BLOCK
  5
2202
330
21F8
100
AcDbEntity
  8
0
100
AcDbBlockBegin
  2
*D18
 70
     1
 10
0.0
 20
0.0
 30
0.0
  3
*D18
  1

  0
LINE
  5
2A49
330
21F8
100
AcDbEntity
  8
AM_5
100
AcDbLine
 10
2074.497779863748
 20
1162.815351605319
 30
0.0
 11
2074.497779863748
 21
1117.565351605319
 31
0.0
  0
LINE
  5
2A4A
330
21F8
100
AcDbEntity
  8
AM_5
100
AcDbLine
 10
2139.497779863748
 20
1141.815351605319
 30
0.0
 11
2139.497779863748
 21
1117.565351605319
 31
0.0
  0
LINE
  5
2A4B
330
21F8
100
AcDbEntity
  8
AM_5
100
AcDbLine
 10
2077.497779863748
 20
1119.065351605319
 30
0.0
 11
2136.497779863748
 21
1119.065351605319
 31
0.0
  0
SOLID
  5
2A4C
330
21F8
100
AcDbEntity
  8
AM_5
100
AcDbTrace
 10
2077.497779863748
 20
1119.565351605319
 30
0.0
 11
2077.497779863748
 21
1118.565351605319
 31
0.0
 12
2074.497779863748
 22
1119.065351605319
 32
0.0
 13
2074.497779863748
 23
1119.065351605319
 33
0.0
  0
SOLID
  5
2A4D
330
21F8
100
AcDbEntity
  8
AM_5
100
AcDbTrace
 10
2136.497779863748
 20
1119.565351605319
 30
0.0
 11
2136.497779863748
 21
1118.565351605319
 31
0.0
 12
2139.497779863748
 22
1119.065351605319
 32
0.0
 13
2139.497779863748
 23
1119.065351605319
 33
0.0
  0
MTEXT
  5
2A4E
330
21F8
100
AcDbEntity
  8
AM_5
100
AcDbMText
 10
2106.997779863748
 20
1121.565351605319
 30
0.0
 40
3.0
 41
0.0
 71
     5
 72
     1
  1
\A2;65
 73
     1
 44
1.0
1001
ACAD
1000
MTEXTBEGIN
1070
    73
1070
     1
1070
    44
1040
1.0
1070
    74
1070
     0
1000
MTEXTEND
  0
POINT
  5
2A4F
330
21F8
100
AcDbEntity
  8
Defpoints
 62
     0
100
AcDbPoint
 10
2074.497779863748
 20
1163.815351605319
 30
0.0
  0
POINT
  5
2A50
330
21F8
100
AcDbEntity
  8
Defpoints
 62
     0
100
AcDbPoint
 10
2139.497779863748
 20
1142.815351605319
 30
0.0
  0
POINT
  5
2A51
330
21F8
100
AcDbEntity
  8
Defpoints
 62
     0
100
AcDbPoint
 10
2139.497779863748
 20
1119.065351605319
 30
0.0
  0
ENDBLK
  5
2203
330
21F8
100
AcDbEntity
  8
0
100
AcDbBlockEnd
  0
BLOCK
  5
220E
330
2204
100
AcDbEntity
  8
0
100
AcDbBlockBegin
  2
*D19
 70
     1
 10
0.0
 20
0.0
 30
0.0
  3
*D19
  1

  0
LINE
  5
2A37
330
2204
100
AcDbEntity
  8
AM_5
100
AcDbLine
 10
2024.497779863748
 20
1223.565351605319
 30
0.0
 11
2024.497779863748
 21
1236.315351605319
 31
0.0
  0
LINE
  5
2A38
330
2204
100
AcDbEntity
  8
AM_5
100
AcDbLine
 10
2074.497779863748
 20
1199.815351605319
 30
0.0
 11
2074.497779863748
 21
1236.315351605319
 31
0.0
  0
LINE
  5
2A39
330
2204
100
AcDbEntity
  8
AM_5
100
AcDbLine
 10
2027.497779863748
 20
1234.815351605319
 30
0.0
 11
2071.497779863748
 21
1234.815351605319
 31
0.0
  0
SOLID
  5
2A3A
330
2204
100
AcDbEntity
  8
AM_5
100
AcDbTrace
 10
2027.497779863748
 20
1235.315351605319
 30
0.0
 11
2027.497779863748
 21
1234.315351605319
 31
0.0
 12
2024.497779863748
 22
1234.815351605319
 32
0.0
 13
2024.497779863748
 23
1234.815351605319
 33
0.0
  0
SOLID
  5
2A3B
330
2204
100
AcDbEntity
  8
AM_5
100
AcDbTrace
 10
2071.497779863748
 20
1235.315351605319
 30
0.0
 11
2071.497779863748
 21
1234.315351605319
 31
0.0
 12
2074.497779863748
 22
1234.815351605319
 32
0.0
 13
2074.497779863748
 23
1234.815351605319
 33
0.0
  0
MTEXT
  5
2A3C
330
2204
100
AcDbEntity
  8
AM_5
100
AcDbMText
 10
2049.497779863748
 20
1237.315351605319
 30
0.0
 40
3.0
 41
0.0
 71
     5
 72
     1
  1
\A2;50
 73
     1
 44
1.0
1001
ACAD
1000
MTEXTBEGIN
1070
    73
1070
     1
1070
    44
1040
1.0
1070
    74
1070
     0
1000
MTEXTEND
  0
POINT
  5
2A3D
330
2204
100
AcDbEntity
  8
Defpoints
 62
     0
100
AcDbPoint
 10
2024.497779863748
 20
1222.565351605319
 30
0.0
  0
POINT
  5
2A3E
330
2204
100
AcDbEntity
  8
Defpoints
 62
     0
100
AcDbPoint
 10
2074.497779863748
 20
1198.815351605319
 30
0.0
  0
POINT
  5
2A3F
330
2204
100
AcDbEntity
  8
Defpoints
 62
     0
100
AcDbPoint
 10
2074.497779863748
 20
1234.815351605319
 30
0.0
  0
ENDBLK
  5
220F
330
2204
100
AcDbEntity
  8
0
100
AcDbBlockEnd
  0
BLOCK
  5
221A
330
2210
100
AcDbEntity
  8
0
100
AcDbBlockBegin
  2
*D20
 70
     1
 10
0.0
 20
0.0
 30
0.0
  3
*D20
  1

  0
LINE
  5
2A2E
330
2210
100
AcDbEntity
  8
AM_5
100
AcDbLine
 10
2074.497779863748
 20
1199.815351605319
 30
0.0
 11
2074.497779863748
 21
1236.315351605319
 31
0.0
  0
LINE
  5
2A2F
330
2210
100
AcDbEntity
  8
AM_5
100
AcDbLine
 10
2089.497779863748
 20
1225.815351605319
 30
0.0
 11
2089.497779863748
 21
1236.315351605319
 31
0.0
  0
LINE
  5
2A30
330
2210
100
AcDbEntity
  8
AM_5
100
AcDbLine
 10
2077.497779863748
 20
1234.815351605319
 30
0.0
 11
2086.497779863748
 21
1234.815351605319
 31
0.0
  0
SOLID
  5
2A31
330
2210
100
AcDbEntity
  8
AM_5
100
AcDbTrace
 10
2077.497779863748
 20
1235.315351605319
 30
0.0
 11
2077.497779863748
 21
1234.315351605319
 31
0.0
 12
2074.497779863748
 22
1234.815351605319
 32
0.0
 13
2074.497779863748
 23
1234.815351605319
 33
0.0
  0
SOLID
  5
2A32
330
2210
100
AcDbEntity
  8
AM_5
100
AcDbTrace
 10
2086.497779863748
 20
1235.315351605319
 30
0.0
 11
2086.497779863748
 21
1234.315351605319
 31
0.0
 12
2089.497779863748
 22
1234.815351605319
 32
0.0
 13
2089.497779863748
 23
1234.815351605319
 33
0.0
  0
MTEXT
  5
2A33
330
2210
100
AcDbEntity
  8
AM_5
100
AcDbMText
 10
2081.997779863748
 20
1237.315351605319
 30
0.0
 40
3.0
 41
0.0
 71
     5
 72
     1
  1
\A2;15
 73
     1
 44
1.0
1001
ACAD
1000
MTEXTBEGIN
1070
    73
1070
     1
1070
    44
1040
1.0
1070
    74
1070
     0
1000
MTEXTEND
  0
POINT
  5
2A34
330
2210
100
AcDbEntity
  8
Defpoints
 62
     0
100
AcDbPoint
 10
2074.497779863748
 20
1198.815351605319
 30
0.0
  0
POINT
  5
2A35
330
2210
100
AcDbEntity
  8
Defpoints
 62
     0
100
AcDbPoint
 10
2089.497779863748
 20
1224.815351605319
 30
0.0
  0
POINT
  5
2A36
330
2210
100
AcDbEntity
  8
Defpoints
 62
     0
100
AcDbPoint
 10
2089.497779863748
 20
1234.815351605319
 30
0.0
  0
ENDBLK
  5
221B
330
2210
100
AcDbEntity
  8
0
100
AcDbBlockEnd
  0
BLOCK
  5
2226
330
221C
100
AcDbEntity
  8
0
100
AcDbBlockBegin
  2
*D21
 70
     1
 10
0.0
 20
0.0
 30
0.0
  3
*D21
  1

  0
LINE
  5
27AD
330
221C
100
AcDbEntity
  8
AM_5
100
AcDbLine
 10
2024.497779863748
 20
1223.565351605319
 30
0.0
 11
2024.497779863748
 21
1246.315351605319
 31
0.0
  0
LINE
  5
27AE
330
221C
100
AcDbEntity
  8
AM_5
100
AcDbLine
 10
2124.497779863748
 20
1223.565351605319
 30
0.0
 11
2124.497779863748
 21
1246.315351605319
 31
0.0
  0
LINE
  5
27AF
330
221C
100
AcDbEntity
  8
AM_5
100
AcDbLine
 10
2027.497779863748
 20
1244.815351605319
 30
0.0
 11
2121.497779863748
 21
1244.815351605319
 31
0.0
  0
SOLID
  5
27B0
330
221C
100
AcDbEntity
  8
AM_5
100
AcDbTrace
 10
2027.497779863748
 20
1245.315351605319
 30
0.0
 11
2027.497779863748
 21
1244.315351605319
 31
0.0
 12
2024.497779863748
 22
1244.815351605319
 32
0.0
 13
2024.497779863748
 23
1244.815351605319
 33
0.0
  0
SOLID
  5
27B1
330
221C
100
AcDbEntity
  8
AM_5
100
AcDbTrace
 10
2121.497779863748
 20
1245.315351605319
 30
0.0
 11
2121.497779863748
 21
1244.315351605319
 31
0.0
 12
2124.497779863748
 22
1244.815351605319
 32
0.0
 13
2124.497779863748
 23
1244.815351605319
 33
0.0
  0
MTEXT
  5
27B2
330
221C
100
AcDbEntity
  8
AM_5
100
AcDbMText
 10
2074.497779863748
 20
1247.315351605319
 30
0.0
 40
3.0
 41
0.0
 71
     5
 72
     1
  1
\A2;100
 73
     1
 44
1.0
1001
ACAD
1000
MTEXTBEGIN
1070
    73
1070
     1
1070
    44
1040
1.0
1070
    74
1070
     0
1000
MTEXTEND
  0
POINT
  5
27B3
330
221C
100
AcDbEntity
  8
Defpoints
 62
     0
100
AcDbPoint
 10
2024.497779863748
 20
1222.565351605319
 30
0.0
  0
POINT
  5
27B4
330
221C
100
AcDbEntity
  8
Defpoints
 62
     0
100
AcDbPoint
 10
2124.497779863748
 20
1222.565351605319
 30
0.0
  0
POINT
  5
27B5
330
221C
100
AcDbEntity
  8
Defpoints
 62
     0
100
AcDbPoint
 10
2124.497779863748
 20
1244.815351605319
 30
0.0
  0
ENDBLK
  5
2227
330
221C
100
AcDbEntity
  8
0
100
AcDbBlockEnd
  0
BLOCK
  5
22C0
330
22B6
100
AcDbEntity
  8
0
100
AcDbBlockBegin
  2
*D22
 70
     1
 10
0.0
 20
0.0
 30
0.0
  3
*D22
  1

  0
LINE
  5
27F5
330
22B6
100
AcDbEntity
  8
AM_5
100
AcDbLine
 10
2190.30668196508
 20
1139.815351605319
 30
0.0
 11
2190.30668196508
 21
1107.315351605319
 31
0.0
  0
LINE
  5
27F6
330
22B6
100
AcDbEntity
  8
AM_5
100
AcDbLine
 10
2228.30668196508
 20
1139.815351605319
 30
0.0
 11
2228.30668196508
 21
1107.315351605319
 31
0.0
  0
LINE
  5
27F7
330
22B6
100
AcDbEntity
  8
AM_5
100
AcDbLine
 10
2193.306681965081
 20
1108.815351605319
 30
0.0
 11
2225.306681965081
 21
1108.815351605319
 31
0.0
  0
SOLID
  5
27F8
330
22B6
100
AcDbEntity
  8
AM_5
100
AcDbTrace
 10
2193.306681965081
 20
1109.315351605319
 30
0.0
 11
2193.306681965081
 21
1108.315351605319
 31
0.0
 12
2190.30668196508
 22
1108.815351605319
 32
0.0
 13
2190.30668196508
 23
1108.815351605319
 33
0.0
  0
SOLID
  5
27F9
330
22B6
100
AcDbEntity
  8
AM_5
100
AcDbTrace
 10
2225.306681965081
 20
1109.315351605319
 30
0.0
 11
2225.306681965081
 21
1108.315351605319
 31
0.0
 12
2228.30668196508
 22
1108.815351605319
 32
0.0
 13
2228.30668196508
 23
1108.815351605319
 33
0.0
  0
MTEXT
  5
27FA
330
22B6
100
AcDbEntity
  8
AM_5
100
AcDbMText
 10
2209.306681965081
 20
1111.315351605319
 30
0.0
 40
3.0
 41
0.0
 71
     5
 72
     1
  1
\A2;38
 73
     1
 44
1.0
1001
ACAD
1000
MTEXTBEGIN
1070
    73
1070
     1
1070
    44
1040
1.0
1070
    74
1070
     0
1000
MTEXTEND
  0
POINT
  5
27FB
330
22B6
100
AcDbEntity
  8
Defpoints
 62
     0
100
AcDbPoint
 10
2190.30668196508
 20
1140.815351605319
 30
0.0
  0
POINT
  5
27FC
330
22B6
100
AcDbEntity
  8
Defpoints
 62
     0
100
AcDbPoint
 10
2228.30668196508
 20
1140.815351605319
 30
0.0
  0
POINT
  5
27FD
330
22B6
100
AcDbEntity
  8
Defpoints
 62
     0
100
AcDbPoint
 10
2228.30668196508
 20
1108.815351605319
 30
0.0
  0
ENDBLK
  5
22C1
330
22B6
100
AcDbEntity
  8
0
100
AcDbBlockEnd
  0
BLOCK
  5
22CC
330
22C2
100
AcDbEntity
  8
0
100
AcDbBlockBegin
  2
*D23
 70
     1
 10
0.0
 20
0.0
 30
0.0
  3
*D23
  1

  0
LINE
  5
27FE
330
22C2
100
AcDbEntity
  8
AM_5
100
AcDbLine
 10
2231.431053404039
 20
1172.315351605319
 30
0.0
 11
2241.80668196508
 21
1172.315351605319
 31
0.0
  0
LINE
  5
27FF
330
22C2
100
AcDbEntity
  8
AM_5
100
AcDbLine
 10
2231.431053404039
 20
1191.315351605319
 30
0.0
 11
2241.80668196508
 21
1191.315351605319
 31
0.0
  0
LINE
  5
2800
330
22C2
100
AcDbEntity
  8
AM_5
100
AcDbLine
 10
2240.30668196508
 20
1175.315351605319
 30
0.0
 11
2240.30668196508
 21
1188.315351605319
 31
0.0
  0
SOLID
  5
2801
330
22C2
100
AcDbEntity
  8
AM_5
100
AcDbTrace
 10
2239.806681965081
 20
1175.315351605319
 30
0.0
 11
2240.80668196508
 21
1175.315351605319
 31
0.0
 12
2240.30668196508
 22
1172.315351605319
 32
0.0
 13
2240.30668196508
 23
1172.315351605319
 33
0.0
  0
SOLID
  5
2802
330
22C2
100
AcDbEntity
  8
AM_5
100
AcDbTrace
 10
2239.806681965081
 20
1188.315351605319
 30
0.0
 11
2240.80668196508
 21
1188.315351605319
 31
0.0
 12
2240.30668196508
 22
1191.315351605319
 32
0.0
 13
2240.30668196508
 23
1191.315351605319
 33
0.0
  0
MTEXT
  5
2803
330
22C2
100
AcDbEntity
  8
AM_5
100
AcDbMText
 10
2237.80668196508
 20
1181.81535160532
 30
0.0
 40
3.0
 41
0.0
 71
     5
 72
     1
  1
\A2;19
 11
0.0000000000000001
 21
1.0
 31
0.0
 73
     1
 44
1.0
1001
ACAD
1000
MTEXTBEGIN
1070
    73
1070
     1
1070
    44
1040
1.0
1070
    74
1070
     0
1000
MTEXTEND
  0
POINT
  5
2804
330
22C2
100
AcDbEntity
  8
Defpoints
 62
     0
100
AcDbPoint
 10
2230.431053404039
 20
1172.315351605319
 30
0.0
  0
POINT
  5
2805
330
22C2
100
AcDbEntity
  8
Defpoints
 62
     0
100
AcDbPoint
 10
2230.431053404039
 20
1191.315351605319
 30
0.0
  0
POINT
  5
2806
330
22C2
100
AcDbEntity
  8
Defpoints
 62
     0
100
AcDbPoint
 10
2240.30668196508
 20
1191.315351605319
 30
0.0
  0
ENDBLK
  5
22CD
330
22C2
100
AcDbEntity
  8
0
100
AcDbBlockEnd
  0
BLOCK
  5
22D8
330
22CE
100
AcDbEntity
  8
0
100
AcDbBlockBegin
  2
*D24
 70
     1
 10
0.0
 20
0.0
 30
0.0
  3
*D24
  1

  0
LINE
  5
2807
330
22CE
100
AcDbEntity
  8
AM_5
100
AcDbLine
 10
2227.05668196508
 20
1161.815351605319
 30
0.0
 11
2251.806681965081
 21
1161.815351605319
 31
0.0
  0
LINE
  5
2808
330
22CE
100
AcDbEntity
  8
AM_5
100
AcDbLine
 10
2227.05668196508
 20
1201.815351605319
 30
0.0
 11
2251.806681965081
 21
1201.815351605319
 31
0.0
  0
LINE
  5
2809
330
22CE
100
AcDbEntity
  8
AM_5
100
AcDbLine
 10
2250.30668196508
 20
1164.815351605319
 30
0.0
 11
2250.30668196508
 21
1198.815351605319
 31
0.0
  0
SOLID
  5
280A
330
22CE
100
AcDbEntity
  8
AM_5
100
AcDbTrace
 10
2249.80668196508
 20
1164.815351605319
 30
0.0
 11
2250.80668196508
 21
1164.815351605319
 31
0.0
 12
2250.30668196508
 22
1161.815351605319
 32
0.0
 13
2250.30668196508
 23
1161.815351605319
 33
0.0
  0
SOLID
  5
280B
330
22CE
100
AcDbEntity
  8
AM_5
100
AcDbTrace
 10
2249.80668196508
 20
1198.815351605319
 30
0.0
 11
2250.80668196508
 21
1198.815351605319
 31
0.0
 12
2250.30668196508
 22
1201.815351605319
 32
0.0
 13
2250.30668196508
 23
1201.815351605319
 33
0.0
  0
MTEXT
  5
280C
330
22CE
100
AcDbEntity
  8
AM_5
100
AcDbMText
 10
2247.80668196508
 20
1181.81535160532
 30
0.0
 40
3.0
 41
0.0
 71
     5
 72
     1
  1
\A2;40
 11
0.0000000000000001
 21
1.0
 31
0.0
 73
     1
 44
1.0
1001
ACAD
1000
MTEXTBEGIN
1070
    73
1070
     1
1070
    44
1040
1.0
1070
    74
1070
     0
1000
MTEXTEND
  0
POINT
  5
280D
330
22CE
100
AcDbEntity
  8
Defpoints
 62
     0
100
AcDbPoint
 10
2226.056681965081
 20
1161.815351605319
 30
0.0
  0
POINT
  5
280E
330
22CE
100
AcDbEntity
  8
Defpoints
 62
     0
100
AcDbPoint
 10
2226.056681965081
 20
1201.815351605319
 30
0.0
  0
POINT
  5
280F
330
22CE
100
AcDbEntity
  8
Defpoints
 62
     0
100
AcDbPoint
 10
2250.30668196508
 20
1201.815351605319
 30
0.0
  0
ENDBLK
  5
22D9
330
22CE
100
AcDbEntity
  8
0
100
AcDbBlockEnd
  0
BLOCK
  5
22E4
330
22DA
100
AcDbEntity
  8
0
100
AcDbBlockBegin
  2
*D25
 70
     1
 10
0.0
 20
0.0
 30
0.0
  3
*D25
  1

  0
LINE
  5
2810
330
22DA
100
AcDbEntity
  8
AM_5
100
AcDbLine
 10
2224.80668196508
 20
1147.815351605319
 30
0.0
 11
2261.80668196508
 21
1147.815351605319
 31
0.0
  0
LINE
  5
2811
330
22DA
100
AcDbEntity
  8
AM_5
100
AcDbLine
 10
2224.80668196508
 20
1215.815351605319
 30
0.0
 11
2261.80668196508
 21
1215.815351605319
 31
0.0
  0
LINE
  5
2812
330
22DA
100
AcDbEntity
  8
AM_5
100
AcDbLine
 10
2260.30668196508
 20
1150.815351605319
 30
0.0
 11
2260.30668196508
 21
1212.815351605319
 31
0.0
  0
SOLID
  5
2813
330
22DA
100
AcDbEntity
  8
AM_5
100
AcDbTrace
 10
2259.806681965081
 20
1150.815351605319
 30
0.0
 11
2260.80668196508
 21
1150.815351605319
 31
0.0
 12
2260.30668196508
 22
1147.815351605319
 32
0.0
 13
2260.30668196508
 23
1147.815351605319
 33
0.0
  0
SOLID
  5
2814
330
22DA
100
AcDbEntity
  8
AM_5
100
AcDbTrace
 10
2259.806681965081
 20
1212.815351605319
 30
0.0
 11
2260.80668196508
 21
1212.815351605319
 31
0.0
 12
2260.30668196508
 22
1215.815351605319
 32
0.0
 13
2260.30668196508
 23
1215.815351605319
 33
0.0
  0
MTEXT
  5
2815
330
22DA
100
AcDbEntity
  8
AM_5
100
AcDbMText
 10
2257.80668196508
 20
1181.81535160532
 30
0.0
 40
3.0
 41
0.0
 71
     5
 72
     1
  1
\A2;68
 11
0.0000000000000001
 21
1.0
 31
0.0
 73
     1
 44
1.0
1001
ACAD
1000
MTEXTBEGIN
1070
    73
1070
     1
1070
    44
1040
1.0
1070
    74
1070
     0
1000
MTEXTEND
  0
POINT
  5
2816
330
22DA
100
AcDbEntity
  8
Defpoints
 62
     0
100
AcDbPoint
 10
2223.806681965081
 20
1147.815351605319
 30
0.0
  0
POINT
  5
2817
330
22DA
100
AcDbEntity
  8
Defpoints
 62
     0
100
AcDbPoint
 10
2223.806681965081
 20
1215.815351605319
 30
0.0
  0
POINT
  5
2818
330
22DA
100
AcDbEntity
  8
Defpoints
 62
     0
100
AcDbPoint
 10
2260.30668196508
 20
1215.815351605319
 30
0.0
  0
ENDBLK
  5
22E5
330
22DA
100
AcDbEntity
  8
0
100
AcDbBlockEnd
  0
BLOCK
  5
22F0
330
22E6
100
AcDbEntity
  8
0
100
AcDbBlockBegin
  2
*D26
 70
     1
 10
0.0
 20
0.0
 30
0.0
  3
*D26
  1

  0
LINE
  5
2819
330
22E6
100
AcDbEntity
  8
AM_5
100
AcDbLine
 10
2229.306681965081
 20
1140.815351605319
 30
0.0
 11
2271.806681965081
 21
1140.815351605319
 31
0.0
  0
LINE
  5
281A
330
22E6
100
AcDbEntity
  8
AM_5
100
AcDbLine
 10
2229.306681965081
 20
1222.815351605319
 30
0.0
 11
2271.806681965081
 21
1222.815351605319
 31
0.0
  0
LINE
  5
281B
330
22E6
100
AcDbEntity
  8
AM_5
100
AcDbLine
 10
2270.306681965081
 20
1143.815351605319
 30
0.0
 11
2270.306681965081
 21
1219.815351605319
 31
0.0
  0
SOLID
  5
281C
330
22E6
100
AcDbEntity
  8
AM_5
100
AcDbTrace
 10
2269.80668196508
 20
1143.815351605319
 30
0.0
 11
2270.80668196508
 21
1143.815351605319
 31
0.0
 12
2270.306681965081
 22
1140.815351605319
 32
0.0
 13
2270.306681965081
 23
1140.815351605319
 33
0.0
  0
SOLID
  5
281D
330
22E6
100
AcDbEntity
  8
AM_5
100
AcDbTrace
 10
2269.80668196508
 20
1219.815351605319
 30
0.0
 11
2270.80668196508
 21
1219.815351605319
 31
0.0
 12
2270.306681965081
 22
1222.815351605319
 32
0.0
 13
2270.306681965081
 23
1222.815351605319
 33
0.0
  0
MTEXT
  5
281E
330
22E6
100
AcDbEntity
  8
AM_5
100
AcDbMText
 10
2267.806386689489
 20
1181.81535160532
 30
0.0
 40
3.0
 41
0.0
 71
     5
 72
     1
  1
\A2;82
 11
0.0000000000000001
 21
1.0
 31
0.0
 73
     1
 44
1.0
1001
ACAD
1000
MTEXTBEGIN
1070
    73
1070
     1
1070
    44
1040
1.0
1070
    74
1070
     0
1000
MTEXTEND
  0
POINT
  5
281F
330
22E6
100
AcDbEntity
  8
Defpoints
 62
     0
100
AcDbPoint
 10
2228.30668196508
 20
1140.815351605319
 30
0.0
  0
POINT
  5
2820
330
22E6
100
AcDbEntity
  8
Defpoints
 62
     0
100
AcDbPoint
 10
2228.30668196508
 20
1222.815351605319
 30
0.0
  0
POINT
  5
2821
330
22E6
100
AcDbEntity
  8
Defpoints
 62
     0
100
AcDbPoint
 10
2270.306681965081
 20
1222.815351605319
 30
0.0
  0
ENDBLK
  5
22F1
330
22E6
100
AcDbEntity
  8
0
100
AcDbBlockEnd
  0
BLOCK
  5
22FC
330
22F2
100
AcDbEntity
  8
0
100
AcDbBlockBegin
  2
*D27
 70
     1
 10
0.0
 20
0.0
 30
0.0
  3
*D27
  1

  0
LINE
  5
27E3
330
22F2
100
AcDbEntity
  8
AM_5
100
AcDbLine
 10
2199.30668196508
 20
1142.315351605319
 30
0.0
 11
2199.30668196508
 21
1127.315351605319
 31
0.0
  0
LINE
  5
27E4
330
22F2
100
AcDbEntity
  8
AM_5
100
AcDbLine
 10
2219.30668196508
 20
1142.315351605319
 30
0.0
 11
2219.30668196508
 21
1127.315351605319
 31
0.0
  0
LINE
  5
27E5
330
22F2
100
AcDbEntity
  8
AM_5
100
AcDbLine
 10
2202.30668196508
 20
1128.815351605319
 30
0.0
 11
2216.306681965081
 21
1128.815351605319
 31
0.0
  0
SOLID
  5
27E6
330
22F2
100
AcDbEntity
  8
AM_5
100
AcDbTrace
 10
2202.30668196508
 20
1129.315351605319
 30
0.0
 11
2202.30668196508
 21
1128.315351605319
 31
0.0
 12
2199.30668196508
 22
1128.815351605319
 32
0.0
 13
2199.30668196508
 23
1128.815351605319
 33
0.0
  0
SOLID
  5
27E7
330
22F2
100
AcDbEntity
  8
AM_5
100
AcDbTrace
 10
2216.306681965081
 20
1129.315351605319
 30
0.0
 11
2216.306681965081
 21
1128.315351605319
 31
0.0
 12
2219.30668196508
 22
1128.815351605319
 32
0.0
 13
2219.30668196508
 23
1128.815351605319
 33
0.0
  0
MTEXT
  5
27E8
330
22F2
100
AcDbEntity
  8
AM_5
100
AcDbMText
 10
2209.306681965081
 20
1131.31564688091
 30
0.0
 40
3.0
 41
0.0
 71
     5
 72
     1
  1
\A2;20
 73
     1
 44
1.0
1001
ACAD
1000
MTEXTBEGIN
1070
    73
1070
     1
1070
    44
1040
1.0
1070
    74
1070
     0
1000
MTEXTEND
  0
POINT
  5
27E9
330
22F2
100
AcDbEntity
  8
Defpoints
 62
     0
100
AcDbPoint
 10
2199.30668196508
 20
1143.315351605319
 30
0.0
  0
POINT
  5
27EA
330
22F2
100
AcDbEntity
  8
Defpoints
 62
     0
100
AcDbPoint
 10
2219.30668196508
 20
1143.315351605319
 30
0.0
  0
POINT
  5
27EB
330
22F2
100
AcDbEntity
  8
Defpoints
 62
     0
100
AcDbPoint
 10
2219.30668196508
 20
1128.815351605319
 30
0.0
  0
ENDBLK
  5
22FD
330
22F2
100
AcDbEntity
  8
0
100
AcDbBlockEnd
  0
BLOCK
  5
2308
330
22FE
100
AcDbEntity
  8
0
100
AcDbBlockBegin
  2
*D28
 70
     1
 10
0.0
 20
0.0
 30
0.0
  3
*D28
  1

  0
LINE
  5
27EC
330
22FE
100
AcDbEntity
  8
AM_5
100
AcDbLine
 10
2192.30668196508
 20
1141.815351605319
 30
0.0
 11
2192.30668196508
 21
1117.315351605319
 31
0.0
  0
LINE
  5
27ED
330
22FE
100
AcDbEntity
  8
AM_5
100
AcDbLine
 10
2226.30668196508
 20
1141.815351605319
 30
0.0
 11
2226.30668196508
 21
1117.315351605319
 31
0.0
  0
LINE
  5
27EE
330
22FE
100
AcDbEntity
  8
AM_5
100
AcDbLine
 10
2195.30668196508
 20
1118.815351605319
 30
0.0
 11
2223.30668196508
 21
1118.815351605319
 31
0.0
  0
SOLID
  5
27EF
330
22FE
100
AcDbEntity
  8
AM_5
100
AcDbTrace
 10
2195.30668196508
 20
1119.315351605319
 30
0.0
 11
2195.30668196508
 21
1118.315351605319
 31
0.0
 12
2192.30668196508
 22
1118.815351605319
 32
0.0
 13
2192.30668196508
 23
1118.815351605319
 33
0.0
  0
SOLID
  5
27F0
330
22FE
100
AcDbEntity
  8
AM_5
100
AcDbTrace
 10
2223.30668196508
 20
1119.315351605319
 30
0.0
 11
2223.30668196508
 21
1118.315351605319
 31
0.0
 12
2226.30668196508
 22
1118.815351605319
 32
0.0
 13
2226.30668196508
 23
1118.815351605319
 33
0.0
  0
MTEXT
  5
27F1
330
22FE
100
AcDbEntity
  8
AM_5
100
AcDbMText
 10
2209.306681965081
 20
1121.315351605319
 30
0.0
 40
3.0
 41
0.0
 71
     5
 72
     1
  1
\A2;34
 73
     1
 44
1.0
1001
ACAD
1000
MTEXTBEGIN
1070
    73
1070
     1
1070
    44
1040
1.0
1070
    74
1070
     0
1000
MTEXTEND
  0
POINT
  5
27F2
330
22FE
100
AcDbEntity
  8
Defpoints
 62
     0
100
AcDbPoint
 10
2192.30668196508
 20
1142.815351605319
 30
0.0
  0
POINT
  5
27F3
330
22FE
100
AcDbEntity
  8
Defpoints
 62
     0
100
AcDbPoint
 10
2226.30668196508
 20
1142.815351605319
 30
0.0
  0
POINT
  5
27F4
330
22FE
100
AcDbEntity
  8
Defpoints
 62
     0
100
AcDbPoint
 10
2226.30668196508
 20
1118.815351605319
 30
0.0
  0
ENDBLK
  5
2309
330
22FE
100
AcDbEntity
  8
0
100
AcDbBlockEnd
  0
BLOCK
  5
28F3
330
28EE
100
AcDbEntity
  8
0
100
AcDbBlockBegin
  2
*S29
 70
     1
 10
0.0
 20
0.0
 30
0.0
  3
*S29
  1

  0
LINE
  5
28EF
330
28EE
100
AcDbEntity
  8
AM_5
 62
     5
100
AcDbLine
 10
2121.613555300983
 20
1275.893413731773
 30
0.0
 11
2105.63277125711
 21
1275.893413731773
 31
0.0
  0
LINE
  5
28F0
330
28EE
100
AcDbEntity
  8
AM_5
 62
     5
100
AcDbLine
 10
2105.63277125711
 20
1275.893413731773
 30
0.0
 11
2093.711962590889
 21
1288.141054533576
 31
0.0
  0
TRACE
  5
28F1
330
28EE
100
AcDbEntity
  8
AM_5
 62
     5
370
    35
100
AcDbTrace
 10
2094.042161844853
 20
1288.4624423169
 30
0.0
 11
2093.381763336926
 21
1287.819666750253
 31
0.0
 12
2091.270780003041
 22
1290.649166886081
 32
0.0
 13
2091.270780003041
 23
1290.649166886081
 33
0.0
  0
MTEXT
  5
28F2
330
28EE
100
AcDbEntity
  8
AM_5
 62
     2
100
AcDbMText
 10
2121.613555300983
 20
1280.918729816976
 30
0.0
 40
3.5
 41
0.0
 71
     9
 72
     5
  1

  7
ACISOTS
210
0.0
220
0.0
230
-1.0
 11
-1.0
 21
0.0
 31
0.0
 73
     1
 44
1.0
1001
ACAD
1000
MTEXTBEGIN
1070
    73
1070
     1
1070
    44
1040
1.0
1070
    74
1070
     0
1000
MTEXTEND
  0
ENDBLK
  5
28F4
330
28EE
100
AcDbEntity
  8
0
100
AcDbBlockEnd
  0
BLOCK
  5
28FB
330
28F6
100
AcDbEntity
  8
0
100
AcDbBlockBegin
  2
*S30
 70
     1
 10
0.0
 20
0.0
 30
0.0
  3
*S30
  1

  0
LINE
  5
28F7
330
28F6
100
AcDbEntity
  8
AM_5
 62
     5
100
AcDbLine
 10
1957.356868627243
 20
1198.5732645581
 30
0.0
 11
1974.435278770658
 21
1198.5732645581
 31
0.0
  0
LINE
  5
28F8
330
28F6
100
AcDbEntity
  8
AM_5
 62
     5
100
AcDbLine
 10
1974.435278770658
 20
1198.5732645581
 30
0.0
 11
1984.131705630555
 21
1187.98338011123
 31
0.0
  0
TRACE
  5
28F9
330
28F6
100
AcDbEntity
  8
AM_5
 62
     5
370
    35
100
AcDbTrace
 10
1983.79186173065
 20
1187.672208489316
 30
0.0
 11
1984.471549530461
 21
1188.294551733144
 31
0.0
 12
1986.495288768019
 22
1185.402009399321
 32
0.0
 13
1986.495288768019
 23
1185.402009399321
 33
0.0
  0
MTEXT
  5
28FA
330
28F6
100
AcDbEntity
  8
AM_5
 62
     2
100
AcDbMText
 10
1957.356868627243
 20
1203.598580643303
 30
0.0
 40
3.5
 41
0.0
 71
     9
 72
     5
  1

  7
ACISOTS
 73
     1
 44
1.0
1001
ACAD
1000
MTEXTBEGIN
1070
    73
1070
     1
1070
    44
1040
1.0
1070
    74
1070
     0
1000
MTEXTEND
  0
ENDBLK
  5
28FC
330
28F6
100
AcDbEntity
  8
0
100
AcDbBlockEnd
  0
BLOCK
  5
2903
330
28FE
100
AcDbEntity
  8
0
100
AcDbBlockBegin
  2
*S31
 70
     1
 10
0.0
 20
0.0
 30
0.0
  3
*S31
  1

  0
LINE
  5
28FF
330
28FE
100
AcDbEntity
  8
AM_5
 62
     5
100
AcDbLine
 10
2122.136808514721
 20
1234.241697493526
 30
0.0
 11
2098.210914294075
 21
1234.241697493526
 31
0.0
  0
LINE
  5
2900
330
28FE
100
AcDbEntity
  8
AM_5
 62
     5
100
AcDbLine
 10
2098.210914294075
 20
1234.241697493526
 30
0.0
 11
2088.097027865467
 21
1207.732848788391
 31
0.0
  0
TRACE
  5
2901
330
28FE
100
AcDbEntity
  8
AM_5
 62
     5
370
    35
100
AcDbTrace
 10
2087.666513706847
 20
1207.897102293121
 30
0.0
 11
2088.527542024086
 21
1207.568595283661
 31
0.0
 12
2086.849398625816
 22
1204.462769082884
 32
0.0
 13
2086.849398625816
 23
1204.462769082884
 33
0.0
  0
MTEXT
  5
2902
330
28FE
100
AcDbEntity
  8
AM_5
 62
     2
100
AcDbMText
 10
2122.136808514721
 20
1239.535674584595
 30
0.0
 40
3.5
 41
0.0
 71
     9
 72
     5
  1

  7
ACISOTS
210
0.0
220
0.0
230
-1.0
 11
-1.0
 21
0.0
 31
0.0
 73
     1
 44
1.0
1001
ACAD
1000
MTEXTBEGIN
1070
    73
1070
     1
1070
    44
1040
1.0
1070
    74
1070
     0
1000
MTEXTEND
  0
ENDBLK
  5
2904
330
28FE
100
AcDbEntity
  8
0
100
AcDbBlockEnd
  0
BLOCK
  5
290B
330
2906
100
AcDbEntity
  8
0
100
AcDbBlockBegin
  2
*S32
 70
     1
 10
0.0
 20
0.0
 30
0.0
  3
*S32
  1

  0
LINE
  5
2907
330
2906
100
AcDbEntity
  8
AM_5
 62
     5
100
AcDbLine
 10
2169.041297188552
 20
1192.674293878043
 30
0.0
 11
2183.43538450377
 21
1192.674293878043
 31
0.0
  0
LINE
  5
2908
330
2906
100
AcDbEntity
  8
AM_5
 62
     5
100
AcDbLine
 10
2183.43538450377
 20
1192.674293878043
 30
0.0
 11
2194.337466415882
 21
1185.579464245784
 31
0.0
  0
TRACE
  5
2909
330
2906
100
AcDbEntity
  8
AM_5
 62
     5
370
    35
100
AcDbTrace
 10
2194.08613359407
 20
1185.193260326504
 30
0.0
 11
2194.588799237695
 21
1185.965668165064
 31
0.0
 12
2197.270976437193
 22
1183.670401922321
 32
0.0
 13
2197.270976437193
 23
1183.670401922321
 33
0.0
  0
MTEXT
  5
290A
330
2906
100
AcDbEntity
  8
AM_5
 62
     2
100
AcDbMText
 10
2169.041297188552
 20
1197.699609963246
 30
0.0
 40
3.5
 41
0.0
 71
     9
 72
     5
  1

  7
ACISOTS
 73
     1
 44
1.0
1001
ACAD
1000
MTEXTBEGIN
1070
    73
1070
     1
1070
    44
1040
1.0
1070
    74
1070
     0
1000
MTEXTEND
  0
ENDBLK
  5
290C
330
2906
100
AcDbEntity
  8
0
100
AcDbBlockEnd
  0
BLOCK
  5
2913
330
290E
100
AcDbEntity
  8
0
100
AcDbBlockBegin
  2
*S33
 70
     1
 10
0.0
 20
0.0
 30
0.0
  3
*S33
  1

  0
LINE
  5
290F
330
290E
100
AcDbEntity
  8
AM_5
 62
     5
100
AcDbLine
 10
2168.675978685736
 20
1227.315489497375
 30
0.0
 11
2183.070066000955
 21
1227.315489497375
 31
0.0
  0
LINE
  5
2910
330
290E
100
AcDbEntity
  8
AM_5
 62
     5
100
AcDbLine
 10
2183.070066000955
 20
1227.315489497375
 30
0.0
 11
2194.535060142021
 21
1219.542760108851
 31
0.0
  0
TRACE
  5
2911
330
290E
100
AcDbEntity
  8
AM_5
 62
     5
370
    35
100
AcDbTrace
 10
2194.276490893243
 20
1219.161363205122
 30
0.0
 11
2194.793629390799
 21
1219.92415701258
 31
0.0
 12
2197.432057255024
 22
1217.578731665256
 32
0.0
 13
2197.432057255024
 23
1217.578731665256
 33
0.0
  0
MTEXT
  5
2912
330
290E
100
AcDbEntity
  8
AM_5
 62
     2
100
AcDbMText
 10
2168.675978685736
 20
1232.340805582578
 30
0.0
 40
3.5
 41
0.0
 71
     9
 72
     5
  1

  7
ACISOTS
 73
     1
 44
1.0
1001
ACAD
1000
MTEXTBEGIN
1070
    73
1070
     1
1070
    44
1040
1.0
1070
    74
1070
     0
1000
MTEXTEND
  0
ENDBLK
  5
2914
330
290E
100
AcDbEntity
  8
0
100
AcDbBlockEnd
  0
BLOCK
  5
291B
330
2916
100
AcDbEntity
  8
0
100
AcDbBlockBegin
  2
*S34
 70
     1
 10
0.0
 20
0.0
 30
0.0
  3
*S34
  1

  0
LINE
  5
2917
330
2916
100
AcDbEntity
  8
AM_5
 62
     5
100
AcDbLine
 10
2269.640182709878
 20
1128.994273932509
 30
0.0
 11
2241.247676315161
 21
1128.994273932509
 31
0.0
  0
LINE
  5
2918
330
2916
100
AcDbEntity
  8
AM_5
 62
     5
100
AcDbLine
 10
2241.247676315161
 20
1128.994273932509
 30
0.0
 11
2224.751663649005
 21
1155.626878053782
 31
0.0
  0
TRACE
  5
2919
330
2916
100
AcDbEntity
  8
AM_5
 62
     5
370
    35
100
AcDbTrace
 10
2225.143391676819
 20
1155.869511124101
 30
0.0
 11
2224.359935621191
 21
1155.384244983464
 31
0.0
 12
2222.908682499029
 22
1158.6023478454
 32
0.0
 13
2222.908682499029
 23
1158.6023478454
 33
0.0
  0
MTEXT
  5
291A
330
2916
100
AcDbEntity
  8
AM_5
 62
     2
100
AcDbMText
 10
2269.640182709878
 20
1134.019590017712
 30
0.0
 40
3.5
 41
0.0
 71
     9
 72
     5
  1

  7
ACISOTS
210
0.0
220
0.0
230
-1.0
 11
-1.0
 21
0.0
 31
0.0
 73
     1
 44
1.0
1001
ACAD
1000
MTEXTBEGIN
1070
    73
1070
     1
1070
    44
1040
1.0
1070
    74
1070
     0
1000
MTEXTEND
  0
ENDBLK
  5
291C
330
2916
100
AcDbEntity
  8
0
100
AcDbBlockEnd
  0
ENDSEC
  0
SECTION
  2
ENTITIES
  0
LINE
  5
159A
330
1F
100
AcDbEntity
  8
AM_7
100
AcDbLine
 10
2422.626159406428
 20
1152.81535160532
 30
0.0
 11
2439.226159406428
 21
1152.81535160532
 31
0.0
  0
LINE
  5
159B
330
1F
100
AcDbEntity
  8
AM_7
100
AcDbLine
 10
2422.626159406428
 20
1210.81535160532
 30
0.0
 11
2439.226159406428
 21
1210.81535160532
 31
0.0
  0
LINE
  5
15A0
330
1F
100
AcDbEntity
  8
AM_7
100
AcDbLine
 10
2377.238626140196
 20
1252.069132467854
 30
0.0
 11
2379.138626140196
 21
1252.069132467854
 31
0.0
  0
LINE
  5
15A3
330
1F
100
AcDbEntity
  8
AM_VIS
100
AcDbLine
 10
2391.038626140196
 20
1211.565351605319
 30
0.0
 11
2391.038626140196
 21
1220.815351605319
 31
0.0
  0
LINE
  5
15A4
330
1F
100
AcDbEntity
  8
AM_VIS
100
AcDbLine
 10
2361.538626140196
 20
1198.315351605319
 30
0.0
 11
2391.038626140196
 21
1198.315351605319
 31
0.0
  0
LINE
  5
15A5
330
1F
100
AcDbEntity
  8
AM_VIS
100
AcDbLine
 10
2391.038626140196
 20
1153.565351605319
 30
0.0
 11
2391.038626140196
 21
1165.315351605319
 31
0.0
  0
LINE
  5
15A6
102
{ACAD_REACTORS
330
1808
102
}
330
1F
100
AcDbEntity
  8
AM_VIS
100
AcDbLine
 10
2391.038626140196
 20
1198.315351605319
 30
0.0
 11
2391.038626140196
 21
1210.065351605319
 31
0.0
  0
LINE
  5
15A7
330
1F
100
AcDbEntity
  8
AM_VIS
100
AcDbLine
 10
2391.038626140196
 20
1142.815351605319
 30
0.0
 11
2391.038626140196
 21
1152.065351605319
 31
0.0
  0
LINE
  5
15A8
102
{ACAD_REACTORS
330
1808
102
}
330
1F
100
AcDbEntity
  8
AM_VIS
100
AcDbLine
 10
2391.038626140196
 20
1165.315351605319
 30
0.0
 11
2361.538626140196
 21
1165.315351605319
 31
0.0
  0
LINE
  5
15A9
102
{ACAD_REACTORS
330
177B
102
}
330
1F
100
AcDbEntity
  8
AM_VIS
100
AcDbLine
 10
2357.538626140196
 20
1169.315351605319
 30
0.0
 11
2357.538626140196
 21
1194.315351605319
 31
0.0
  0
LINE
  5
15AA
330
1F
100
AcDbEntity
  8
AM_VIS
100
AcDbLine
 10
2345.038626140196
 20
1142.81535160532
 30
0.0
 11
2343.038626140196
 21
1144.81535160532
 31
0.0
  0
LINE
  5
15AB
102
{ACAD_REACTORS
330
172F
330
1755
330
177B
102
}
330
1F
100
AcDbEntity
  8
AM_VIS
100
AcDbLine
 10
2343.038626140196
 20
1218.815351605319
 30
0.0
 11
2343.038626140196
 21
1144.81535160532
 31
0.0
  0
LINE
  5
15AC
330
1F
100
AcDbEntity
  8
AM_VIS
100
AcDbLine
 10
2343.038626140196
 20
1218.815351605319
 30
0.0
 11
2345.038626140196
 21
1220.815351605319
 31
0.0
  0
LINE
  5
15AD
102
{ACAD_REACTORS
330
1709
102
}
330
1F
100
AcDbEntity
  8
AM_VIS
100
AcDbLine
 10
2391.038626140196
 20
1220.815351605319
 30
0.0
 11
2345.038626140196
 21
1220.815351605319
 31
0.0
  0
LINE
  5
15AE
102
{ACAD_REACTORS
330
1709
330
1755
102
}
330
1F
100
AcDbEntity
  8
AM_VIS
100
AcDbLine
 10
2345.038626140196
 20
1142.81535160532
 30
0.0
 11
2391.038626140196
 21
1142.815351605319
 31
0.0
  0
LINE
  5
15AF
330
1F
100
AcDbEntity
  8
AM_VIS
100
AcDbLine
 10
2391.038626140196
 20
1152.065351605319
 30
0.0
 11
2379.487249819622
 21
1152.065351605319
 31
0.0
  0
LINE
  5
15B0
330
1F
100
AcDbEntity
  8
AM_VIS
100
AcDbLine
 10
2379.487249819622
 20
1152.065351605319
 30
0.0
 11
2378.982056123517
 21
1152.065351605319
 31
0.0
  0
LINE
  5
15B1
330
1F
100
AcDbEntity
  8
AM_VIS
100
AcDbLine
 10
2379.487249819622
 20
1153.565351605319
 30
0.0
 11
2378.982056123517
 21
1153.565351605319
 31
0.0
  0
LINE
  5
15B2
330
1F
100
AcDbEntity
  8
AM_VIS
100
AcDbLine
 10
2379.487249819622
 20
1153.565351605319
 30
0.0
 11
2391.038626140196
 21
1153.565351605319
 31
0.0
  0
LINE
  5
15B3
330
1F
100
AcDbEntity
  8
AM_VIS
100
AcDbLine
 10
2391.038626140196
 20
1210.065351605319
 30
0.0
 11
2379.487249819622
 21
1210.065351605319
 31
0.0
  0
LINE
  5
15B4
330
1F
100
AcDbEntity
  8
AM_VIS
100
AcDbLine
 10
2379.487249819622
 20
1210.065351605319
 30
0.0
 11
2378.982056123517
 21
1210.065351605319
 31
0.0
  0
LINE
  5
15B5
330
1F
100
AcDbEntity
  8
AM_VIS
100
AcDbLine
 10
2379.487249819622
 20
1211.565351605319
 30
0.0
 11
2378.982056123517
 21
1211.565351605319
 31
0.0
  0
LINE
  5
15B6
330
1F
100
AcDbEntity
  8
AM_VIS
100
AcDbLine
 10
2379.487249819622
 20
1211.565351605319
 30
0.0
 11
2391.038626140196
 21
1211.565351605319
 31
0.0
  0
ARC
  5
15B7
102
{ACAD_REACTORS
330
177B
102
}
330
1F
100
AcDbEntity
  8
AM_VIS
100
AcDbCircle
 10
2361.538626140197
 20
1169.315351605319
 30
0.0
 40
3.999999999999999
100
AcDbArc
 50
180.0
 51
270.0
  0
ARC
  5
15B8
330
1F
100
AcDbEntity
  8
AM_VIS
100
AcDbCircle
 10
2361.538626140197
 20
1194.315351605319
 30
0.0
 40
3.999999999999999
100
AcDbArc
 50
89.99999999999998
 51
180.0
  0
ARC
  5
15BB
330
1F
100
AcDbEntity
  8
AM_VIS
100
AcDbCircle
 10
2374.038626140197
 20
1152.815351605319
 30
0.0
 40
5.0
100
AcDbArc
 50
270.0
 51
351.3730734413169
  0
ARC
  5
15BC
330
1F
100
AcDbEntity
  8
AM_VIS
100
AcDbCircle
 10
2374.038626140197
 20
1152.815351605319
 30
0.0
 40
5.0
100
AcDbArc
 50
8.626926558683047
 51
270.0
  0
ARC
  5
15BF
330
1F
100
AcDbEntity
  8
AM_VIS
100
AcDbCircle
 10
2374.038626140197
 20
1210.815351605319
 30
0.0
 40
5.0
100
AcDbArc
 50
270.0
 51
351.3730734413169
  0
ARC
  5
15C0
330
1F
100
AcDbEntity
  8
AM_VIS
100
AcDbCircle
 10
2374.038626140197
 20
1210.815351605319
 30
0.0
 40
5.0
100
AcDbArc
 50
8.626926558683047
 51
270.0
  0
LINE
  5
15C1
330
1F
100
AcDbEntity
  8
AM_VIS
100
AcDbLine
 10
2424.926159406428
 20
1211.565351605319
 30
0.0
 11
2424.926159406428
 21
1220.815351605319
 31
0.0
  0
LINE
  5
15C2
330
1F
100
AcDbEntity
  8
AM_VIS
100
AcDbLine
 10
2424.926159406428
 20
1153.565351605319
 30
0.0
 11
2424.926159406428
 21
1165.315351605319
 31
0.0
  0
LINE
  5
15C3
330
1F
100
AcDbEntity
  8
AM_VIS
100
AcDbLine
 10
2424.926159406428
 20
1198.315351605319
 30
0.0
 11
2436.926159406428
 21
1198.315351605319
 31
0.0
  0
LINE
  5
15C4
330
1F
100
AcDbEntity
  8
AM_VIS
100
AcDbLine
 10
2424.926159406428
 20
1198.315351605319
 30
0.0
 11
2424.926159406428
 21
1210.065351605319
 31
0.0
  0
LINE
  5
15C5
330
1F
100
AcDbEntity
  8
AM_VIS
100
AcDbLine
 10
2424.926159406428
 20
1142.815351605319
 30
0.0
 11
2424.926159406428
 21
1152.065351605319
 31
0.0
  0
LINE
  5
15C6
330
1F
100
AcDbEntity
  8
AM_VIS
100
AcDbLine
 10
2424.926159406428
 20
1165.315351605319
 30
0.0
 11
2436.926159406428
 21
1165.315351605319
 31
0.0
  0
LINE
  5
15C7
330
1F
100
AcDbEntity
  8
AM_VIS
100
AcDbLine
 10
2424.926159406428
 20
1169.315351605319
 30
0.0
 11
2424.926159406428
 21
1194.315351605319
 31
0.0
  0
LINE
  5
15C8
330
1F
100
AcDbEntity
  8
AM_VIS
100
AcDbLine
 10
2436.926159406428
 20
1211.565351605319
 30
0.0
 11
2436.926159406428
 21
1220.815351605319
 31
0.0
  0
LINE
  5
15C9
330
1F
100
AcDbEntity
  8
AM_VIS
100
AcDbLine
 10
2436.926159406428
 20
1142.815351605319
 30
0.0
 11
2436.926159406428
 21
1152.065351605319
 31
0.0
  0
LINE
  5
15CA
330
1F
100
AcDbEntity
  8
AM_VIS
100
AcDbLine
 10
2436.926159406428
 20
1153.565351605319
 30
0.0
 11
2436.926159406428
 21
1165.315351605319
 31
0.0
  0
LINE
  5
15CB
330
1F
100
AcDbEntity
  8
AM_VIS
100
AcDbLine
 10
2436.926159406428
 20
1169.315351605319
 30
0.0
 11
2436.926159406428
 21
1194.315351605319
 31
0.0
  0
LINE
  5
15CC
330
1F
100
AcDbEntity
  8
AM_VIS
100
AcDbLine
 10
2436.926159406428
 20
1198.315351605319
 30
0.0
 11
2436.926159406428
 21
1210.065351605319
 31
0.0
  0
LINE
  5
15CD
330
1F
100
AcDbEntity
  8
AM_VIS
100
AcDbLine
 10
2424.926159406428
 20
1220.815351605319
 30
0.0
 11
2436.926159406428
 21
1220.815351605319
 31
0.0
  0
LINE
  5
15CE
102
{ACAD_REACTORS
330
17DE
102
}
330
1F
100
AcDbEntity
  8
AM_VIS
100
AcDbLine
 10
2424.926159406428
 20
1142.815351605319
 30
0.0
 11
2436.926159406428
 21
1142.815351605319
 31
0.0
  0
LINE
  5
15CF
330
1F
100
AcDbEntity
  8
AM_VIS
100
AcDbLine
 10
2436.926159406428
 20
1152.065351605319
 30
0.0
 11
2424.926159406428
 21
1152.065351605319
 31
0.0
  0
LINE
  5
15D0
330
1F
100
AcDbEntity
  8
AM_VIS
100
AcDbLine
 10
2424.926159406428
 20
1153.565351605319
 30
0.0
 11
2436.926159406428
 21
1153.565351605319
 31
0.0
  0
LINE
  5
15D1
330
1F
100
AcDbEntity
  8
AM_VIS
100
AcDbLine
 10
2436.926159406428
 20
1210.065351605319
 30
0.0
 11
2424.926159406428
 21
1210.065351605319
 31
0.0
  0
LINE
  5
15D2
330
1F
100
AcDbEntity
  8
AM_VIS
100
AcDbLine
 10
2424.926159406428
 20
1211.565351605319
 30
0.0
 11
2436.926159406428
 21
1211.565351605319
 31
0.0
  0
LINE
  5
15D3
330
1F
100
AcDbEntity
  8
AM_VIS
100
AcDbLine
 10
2424.926159406428
 20
1169.315351605319
 30
0.0
 11
2424.926159406428
 21
1165.315351605319
 31
0.0
  0
LINE
  5
15D4
330
1F
100
AcDbEntity
  8
AM_VIS
100
AcDbLine
 10
2424.926159406428
 20
1198.315351605319
 30
0.0
 11
2424.926159406428
 21
1194.315351605319
 31
0.0
  0
LINE
  5
15D5
330
1F
100
AcDbEntity
  8
AM_VIS
100
AcDbLine
 10
2436.926159406428
 20
1165.315351605319
 30
0.0
 11
2436.926159406428
 21
1169.315351605319
 31
0.0
  0
LINE
  5
15D6
330
1F
100
AcDbEntity
  8
AM_VIS
100
AcDbLine
 10
2436.926159406428
 20
1194.315351605319
 30
0.0
 11
2436.926159406428
 21
1198.315351605319
 31
0.0
  0
LINE
  5
15D7
330
1F
100
AcDbEntity
  8
AM_VIS
100
AcDbLine
 10
2424.926159406428
 20
1153.565351605319
 30
0.0
 11
2424.926159406428
 21
1152.065351605319
 31
0.0
  0
LINE
  5
15D8
330
1F
100
AcDbEntity
  8
AM_VIS
100
AcDbLine
 10
2425.426159406428
 20
1152.065351605319
 30
0.0
 11
2425.426159406428
 21
1153.565351605319
 31
0.0
  0
LINE
  5
15D9
330
1F
100
AcDbEntity
  8
AM_VIS
100
AcDbLine
 10
2436.426159406428
 20
1153.565351605319
 30
0.0
 11
2436.426159406428
 21
1152.065351605319
 31
0.0
  0
LINE
  5
15DA
330
1F
100
AcDbEntity
  8
AM_VIS
100
AcDbLine
 10
2436.926159406428
 20
1152.065351605319
 30
0.0
 11
2436.926159406428
 21
1153.565351605319
 31
0.0
  0
LINE
  5
15DB
330
1F
100
AcDbEntity
  8
AM_VIS
100
AcDbLine
 10
2424.926159406428
 20
1211.565351605319
 30
0.0
 11
2424.926159406428
 21
1210.065351605319
 31
0.0
  0
LINE
  5
15DC
330
1F
100
AcDbEntity
  8
AM_VIS
100
AcDbLine
 10
2425.426159406428
 20
1210.065351605319
 30
0.0
 11
2425.426159406428
 21
1211.565351605319
 31
0.0
  0
LINE
  5
15DD
330
1F
100
AcDbEntity
  8
AM_VIS
100
AcDbLine
 10
2436.426159406428
 20
1211.565351605319
 30
0.0
 11
2436.426159406428
 21
1210.065351605319
 31
0.0
  0
LINE
  5
15DE
330
1F
100
AcDbEntity
  8
AM_VIS
100
AcDbLine
 10
2436.926159406428
 20
1210.065351605319
 30
0.0
 11
2436.926159406428
 21
1211.565351605319
 31
0.0
  0
LINE
  5
15DF
330
1F
100
AcDbEntity
  8
AM_VIS
100
AcDbLine
 10
2343.038626140196
 20
1246.069132467854
 30
0.0
 11
2345.038626140196
 21
1246.069132467854
 31
0.0
  0
LINE
  5
15E0
330
1F
100
AcDbEntity
  8
AM_VIS
100
AcDbLine
 10
2343.038626140196
 20
1258.069132467854
 30
0.0
 11
2343.038626140196
 21
1246.069132467854
 31
0.0
  0
LINE
  5
15E1
330
1F
100
AcDbEntity
  8
AM_VIS
100
AcDbLine
 10
2345.038626140196
 20
1258.069132467854
 30
0.0
 11
2343.038626140196
 21
1258.069132467854
 31
0.0
  0
LINE
  5
15E2
330
1F
100
AcDbEntity
  8
AM_VIS
100
AcDbLine
 10
2391.038626140196
 20
1258.069132467854
 30
0.0
 11
2345.038626140196
 21
1258.069132467854
 31
0.0
  0
LINE
  5
15E3
330
1F
100
AcDbEntity
  8
AM_VIS
100
AcDbLine
 10
2391.038626140196
 20
1246.069132467854
 30
0.0
 11
2391.038626140196
 21
1258.069132467854
 31
0.0
  0
LINE
  5
15E4
330
1F
100
AcDbEntity
  8
AM_VIS
100
AcDbLine
 10
2391.038626140196
 20
1246.069132467854
 30
0.0
 11
2345.038626140196
 21
1246.069132467854
 31
0.0
  0
LINE
  5
15E5
330
1F
100
AcDbEntity
  8
AM_VIS
100
AcDbLine
 10
2345.038626140196
 20
1246.069132467854
 30
0.0
 11
2345.038626140196
 21
1258.069132467854
 31
0.0
  0
CIRCLE
  5
15E8
330
1F
100
AcDbEntity
  8
AM_VIS
100
AcDbCircle
 10
2384.538626140197
 20
1252.069132467854
 30
0.0
 40
4.5
  0
LINE
  5
15F8
330
1F
100
AcDbEntity
  8
AM_7
  6
AM_ISO08W050x2
100
AcDbLine
 10
2374.038626140197
 20
1210.815351605319
 30
0.0
 11
2381.538626140197
 21
1210.815351605319
 31
0.0
1001
GENIUS_GENOREF_13
1005
15FC
  0
LINE
  5
15F9
330
1F
100
AcDbEntity
  8
AM_7
  6
AM_ISO08W050x2
100
AcDbLine
 10
2374.038626140197
 20
1210.815351605319
 30
0.0
 11
2374.038626140197
 21
1218.315351605319
 31
0.0
1001
GENIUS_GENOREF_13
1005
15FC
  0
LINE
  5
15FA
102
{ACAD_REACTORS
330
16E3
102
}
330
1F
100
AcDbEntity
  8
AM_7
  6
AM_ISO08W050x2
100
AcDbLine
 10
2374.038626140197
 20
1210.815351605319
 30
0.0
 11
2366.538626140197
 21
1210.815351605319
 31
0.0
1001
GENIUS_GENOREF_13
1005
15FC
  0
LINE
  5
15FB
330
1F
100
AcDbEntity
  8
AM_7
  6
AM_ISO08W050x2
100
AcDbLine
 10
2374.038626140197
 20
1210.815351605319
 30
0.0
 11
2374.038626140197
 21
1203.315351605319
 31
0.0
1001
GENIUS_GENOREF_13
1005
15FC
  0
POINT
  5
15FC
330
1F
100
AcDbEntity
  8
0
 60
     1
100
AcDbPoint
 10
0.0
 20
0.0
 30
0.0
1001
GENIUS_GENOENT_13
1002
{
1000
MYREF
1005
15FC
1002
}
1002
{
1000
GRP
1005
0
1002
}
1001
GENIUS_GENOBJ-N-CRS_13
1002
{
1000
OWNER
1000
GEN
1002
}
1001
GENIUS_GENOLIS_13
1002
{
1000
ENT
1005
15FB
1005
15FA
1005
15F9
1005
15F8
1002
}
1001
GENIUS_GENODEF_13
1002
{
1000
HIER
1070
    10
1002
}
1002
{
1000
MANEDIT
1070
     0
1002
}
1002
{
1000
NOSEL
1070
     0
1002
}
1002
{
1000
BEHIND
1070
     0
1002
}
1002
{
1000
OTHER
1070
     0
1002
}
1002
{
1000
REACTOR
1002
}
  0
LINE
  5
160A
330
1F
100
AcDbEntity
  8
AM_7
  6
AM_ISO08W050x2
100
AcDbLine
 10
2374.038626140197
 20
1152.815351605319
 30
0.0
 11
2381.538626140197
 21
1152.815351605319
 31
0.0
1001
GENIUS_GENOREF_13
1005
160E
  0
LINE
  5
160B
330
1F
100
AcDbEntity
  8
AM_7
  6
AM_ISO08W050x2
100
AcDbLine
 10
2374.038626140197
 20
1152.815351605319
 30
0.0
 11
2374.038626140197
 21
1160.315351605319
 31
0.0
1001
GENIUS_GENOREF_13
1005
160E
  0
LINE
  5
160C
102
{ACAD_REACTORS
330
16E3
102
}
330
1F
100
AcDbEntity
  8
AM_7
  6
AM_ISO08W050x2
100
AcDbLine
 10
2374.038626140197
 20
1152.815351605319
 30
0.0
 11
2366.538626140197
 21
1152.815351605319
 31
0.0
1001
GENIUS_GENOREF_13
1005
160E
  0
LINE
  5
160D
102
{ACAD_REACTORS
330
172F
102
}
330
1F
100
AcDbEntity
  8
AM_7
  6
AM_ISO08W050x2
100
AcDbLine
 10
2374.038626140197
 20
1152.815351605319
 30
0.0
 11
2374.038626140197
 21
1145.315351605319
 31
0.0
1001
GENIUS_GENOREF_13
1005
160E
  0
POINT
  5
160E
330
1F
100
AcDbEntity
  8
0
 60
     1
100
AcDbPoint
 10
0.0
 20
0.0
 30
0.0
1001
GENIUS_GENOBJ-N-CRS_13
1002
{
1000
OWNER
1000
GEN
1002
}
1001
GENIUS_GENOENT_13
1002
{
1000
MYREF
1005
160E
1002
}
1002
{
1000
GRP
1005
0
1002
}
1001
GENIUS_GENODEF_13
1002
{
1000
HIER
1070
    10
1002
}
1002
{
1000
MANEDIT
1070
     0
1002
}
1002
{
1000
NOSEL
1070
     0
1002
}
1002
{
1000
BEHIND
1070
     0
1002
}
1002
{
1000
OTHER
1070
     0
1002
}
1002
{
1000
REACTOR
1002
}
1001
GENIUS_GENOLIS_13
1002
{
1000
ENT
1005
160D
1005
160C
1005
160B
1005
160A
1002
}
  0
LINE
  5
161B
330
1F
100
AcDbEntity
  8
AM_7
100
AcDbLine
 10
2341.038626140196
 20
1181.81535160532
 30
0.0
 11
2359.538626140196
 21
1181.815351605319
 31
0.0
1001
GENIUS_GENODEF_13
1002
{
1000
HIER
1070
     0
1002
}
1002
{
1000
MANEDIT
1070
     0
1002
}
1002
{
1000
NOSEL
1070
     0
1002
}
1002
{
1000
BEHIND
1070
     0
1002
}
1002
{
1000
OTHER
1070
     0
1002
}
1002
{
1000
REACTOR
1002
}
1001
GENIUS_GENOBJ-N-CEN_13
1002
{
1000
OWNER
1000
GEN
1002
}
1001
GENIUS_GENCEN_19
1002
{
1040
2.0
1002
}
  0
LINE
  5
1628
330
1F
100
AcDbEntity
  8
AM_7
  6
AM_ISO08W050x2
100
AcDbLine
 10
2422.926159406428
 20
1181.815351605319
 30
0.0
 11
2438.926159406428
 21
1181.815351605319
 31
0.0
1001
GENIUS_GENOBJ-N-CEN_13
1002
{
1000
OWNER
1000
GEN
1002
}
1001
GENIUS_GENODEF_13
1002
{
1000
HIER
1070
     0
1002
}
1002
{
1000
MANEDIT
1070
     0
1002
}
1002
{
1000
NOSEL
1070
     0
1002
}
1002
{
1000
BEHIND
1070
     0
1002
}
1002
{
1000
OTHER
1070
     0
1002
}
1002
{
1000
REACTOR
1002
}
1001
GENIUS_GENCEN_19
1002
{
1040
2.0
1002
}
  0
LINE
  5
1635
330
1F
100
AcDbEntity
  8
AM_7
100
AcDbLine
 10
2341.038626140196
 20
1252.069132467854
 30
0.0
 11
2393.038626140196
 21
1252.069132467854
 31
0.0
1001
GENIUS_GENOBJ-N-CEN_13
1002
{
1000
OWNER
1000
GEN
1002
}
1001
GENIUS_GENODEF_13
1002
{
1000
HIER
1070
     0
1002
}
1002
{
1000
MANEDIT
1070
     0
1002
}
1002
{
1000
NOSEL
1070
     0
1002
}
1002
{
1000
BEHIND
1070
     0
1002
}
1002
{
1000
OTHER
1070
     0
1002
}
1002
{
1000
REACTOR
1002
}
1001
GENIUS_GENCEN_19
1002
{
1040
2.0
1002
}
  0
LINE
  5
1643
330
1F
100
AcDbEntity
  8
AM_7
  6
AM_ISO08W050x2
100
AcDbLine
 10
2384.538626140197
 20
1252.069132467854
 30
0.0
 11
2391.538626140197
 21
1252.069132467854
 31
0.0
1001
GENIUS_GENOREF_13
1005
1647
  0
LINE
  5
1644
330
1F
100
AcDbEntity
  8
AM_7
  6
AM_ISO08W050x2
100
AcDbLine
 10
2384.538626140197
 20
1252.069132467854
 30
0.0
 11
2384.538626140197
 21
1259.069132467854
 31
0.0
1001
GENIUS_GENOREF_13
1005
1647
  0
LINE
  5
1645
330
1F
100
AcDbEntity
  8
AM_7
  6
AM_ISO08W050x2
100
AcDbLine
 10
2384.538626140197
 20
1252.069132467854
 30
0.0
 11
2377.538626140197
 21
1252.069132467854
 31
0.0
1001
GENIUS_GENOREF_13
1005
1647
  0
LINE
  5
1646
330
1F
100
AcDbEntity
  8
AM_7
  6
AM_ISO08W050x2
100
AcDbLine
 10
2384.538626140197
 20
1252.069132467854
 30
0.0
 11
2384.538626140197
 21
1245.069132467854
 31
0.0
1001
GENIUS_GENOREF_13
1005
1647
  0
POINT
  5
1647
330
1F
100
AcDbEntity
  8
0
 60
     1
100
AcDbPoint
 10
0.0
 20
0.0
 30
0.0
1001
GENIUS_GENODEF_13
1002
{
1000
HIER
1070
    10
1002
}
1002
{
1000
MANEDIT
1070
     0
1002
}
1002
{
1000
NOSEL
1070
     0
1002
}
1002
{
1000
BEHIND
1070
     0
1002
}
1002
{
1000
OTHER
1070
     0
1002
}
1002
{
1000
REACTOR
1002
}
1001
GENIUS_GENOLIS_13
1002
{
1000
ENT
1005
1646
1005
1645
1005
1644
1005
1643
1002
}
1001
GENIUS_GENOENT_13
1002
{
1000
MYREF
1005
1647
1002
}
1002
{
1000
GRP
1005
0
1002
}
1001
GENIUS_GENOBJ-N-CRS_13
1002
{
1000
OWNER
1000
GEN
1002
}
  0
ARC
  5
16C2
330
1F
100
AcDbEntity
  8
AM_4
100
AcDbCircle
 10
2384.538626140197
 20
1252.069132467854
 30
0.0
 40
2.5
100
AcDbArc
 50
260.0
 51
170.0
  0
CIRCLE
  5
16C3
330
1F
100
AcDbEntity
  8
AM_0
100
AcDbCircle
 10
2384.538626140197
 20
1252.069132467854
 30
0.0
 40
2.066987298107819
  0
CIRCLE
  5
16C4
330
1F
100
AcDbEntity
  8
0
100
AcDbCircle
 10
2384.538626140197
 20
1252.069132467854
 30
0.0
 40
2.799999999999999
  0
DIMENSION
  5
16D5
102
{ACAD_XDICTIONARY
360
16E2
102
}
102
{ACAD_REACTORS
330
16E3
102
}
330
1F
100
AcDbEntity
  8
AM_5
100
AcDbDimension
  2
*D3
 10
2331.038626140196
 20
1152.815351605319
 30
0.0
 11
2328.538626140195
 21
1181.81535160532
 31
0.0
 70
    32
 71
     5
 42
58.0
  3
AM_ISO$0
100
AcDbAlignedDimension
 13
2366.538626140197
 23
1210.815351605319
 33
0.0
 14
2366.538626140197
 24
1152.815351605319
 34
0.0
 50
90.0
100
AcDbRotatedDimension
1001
ACAD
1000
DSTYLE
1002
{
1070
    40
1040
1.0
1070
   144
1040
1.0
1070
   272
1070
     8
1002
}
  0
DIMENSION
  5
16FB
102
{ACAD_XDICTIONARY
360
1708
102
}
102
{ACAD_REACTORS
330
1709
102
}
330
1F
100
AcDbEntity
  8
AM_5
100
AcDbDimension
  2
*D4
 10
2321.038626140196
 20
1142.81535160532
 30
0.0
 11
2318.538626140195
 21
1181.81535160532
 31
0.0
 70
    32
 71
     5
 42
77.99999999999954
  3
AM_ISO$0
100
AcDbAlignedDimension
 13
2345.038626140196
 23
1220.815351605319
 33
0.0
 14
2345.038626140196
 24
1142.81535160532
 34
0.0
 50
90.0
100
AcDbRotatedDimension
1001
ACAD
1000
DSTYLE
1002
{
1070
    40
1040
1.0
1070
   144
1040
1.0
1070
   272
1070
     8
1002
}
  0
DIMENSION
  5
1721
102
{ACAD_XDICTIONARY
360
172E
102
}
102
{ACAD_REACTORS
330
172F
102
}
330
1F
100
AcDbEntity
  8
AM_5
100
AcDbDimension
  2
*D5
 10
2374.038626140197
 20
1120.815351605319
 30
0.0
 11
2358.538626140196
 21
1123.315351605319
 31
0.0
 70
    32
 71
     5
 42
31.00000000000091
  3
AM_ISO$0
100
AcDbAlignedDimension
 13
2343.038626140196
 23
1144.81535160532
 33
0.0
 14
2374.038626140197
 24
1145.315351605319
 34
0.0
100
AcDbRotatedDimension
1001
ACAD
1000
DSTYLE
1002
{
1070
    40
1040
1.0
1070
   144
1040
1.0
1070
   272
1070
     8
1002
}
  0
DIMENSION
  5
1747
102
{ACAD_XDICTIONARY
360
1754
102
}
102
{ACAD_REACTORS
330
1755
102
}
330
1F
100
AcDbEntity
  8
AM_5
100
AcDbDimension
  2
*D6
 10
2391.038626140196
 20
1110.815351605319
 30
0.0
 11
2367.038626140196
 21
1113.31535160532
 31
0.0
 70
    32
 71
     5
 42
48.0
  3
AM_ISO$0
100
AcDbAlignedDimension
 13
2343.038626140196
 23
1144.81535160532
 33
0.0
 14
2391.038626140196
 24
1142.815351605319
 34
0.0
100
AcDbRotatedDimension
1001
ACAD
1000
DSTYLE
1002
{
1070
    40
1040
1.0
1070
   144
1040
1.0
1070
   272
1070
     8
1002
}
  0
DIMENSION
  5
176D
102
{ACAD_XDICTIONARY
360
177A
102
}
102
{ACAD_REACTORS
330
177B
102
}
330
1F
100
AcDbEntity
  8
AM_5
100
AcDbDimension
  2
*D7
 10
2357.538626140196
 20
1130.815351605319
 30
0.0
 11
2350.288626140196
 21
1133.315351605319
 31
0.0
 70
    32
 71
     5
 42
14.5
  3
AM_ISO$0
100
AcDbAlignedDimension
 13
2343.038626140196
 23
1144.81535160532
 33
0.0
 14
2357.538626140196
 24
1169.315351605319
 34
0.0
100
AcDbRotatedDimension
1001
ACAD
1000
DSTYLE
1002
{
1070
    40
1040
1.0
1070
   144
1040
1.0
1070
   272
1070
     8
1002
}
  0
DIMENSION
  5
17D0
102
{ACAD_XDICTIONARY
360
17DD
102
}
102
{ACAD_REACTORS
330
17DE
102
}
330
1F
100
AcDbEntity
  8
AM_5
100
AcDbDimension
  2
*D8
 10
2436.926159406428
 20
1130.815351605319
 30
0.0
 11
2430.926159406428
 21
1133.31564688091
 31
0.0
 70
    32
 71
     5
 42
12.0
  3
AM_ISO$0
100
AcDbAlignedDimension
 13
2424.926159406428
 23
1142.815351605319
 33
0.0
 14
2436.926159406428
 24
1142.815351605319
 34
0.0
100
AcDbRotatedDimension
1001
ACAD
1000
DSTYLE
1002
{
1070
    40
1040
1.0
1070
   144
1040
1.0
1070
   272
1070
     8
1002
}
  0
DIMENSION
  5
17FA
102
{ACAD_XDICTIONARY
360
1807
102
}
102
{ACAD_REACTORS
330
1808
102
}
330
1F
100
AcDbEntity
  8
AM_5
100
AcDbDimension
  2
*D9
 10
2403.038627140196
 20
1165.315351605319
 30
0.0
 11
2400.538627140196
 21
1181.81535160532
 31
0.0
 70
    32
 71
     5
 42
33.0
  3
AM_ISO$0
100
AcDbAlignedDimension
 13
2391.038626140196
 23
1198.315351605319
 33
0.0
 14
2391.038626140196
 24
1165.315351605319
 34
0.0
 50
90.0
100
AcDbRotatedDimension
1001
ACAD
1000
DSTYLE
1002
{
1070
    40
1040
1.0
1070
   144
1040
1.0
1070
   272
1070
     8
1002
}
  0
TEXT
  5
18AA
330
1F
100
AcDbEntity
  8
LOGO
 62
     6
100
AcDbText
 10
2144.54603778573
 20
988.5135143505555
 30
0.0
 40
6.11949821946059
  1
行程
 41
0.9
  7
CHINESET
 72
     4
 11
2150.053586183244
 21
991.5732634602859
 31
0.0
100
AcDbText
  0
LINE
  5
18AB
330
1F
100
AcDbEntity
  8
LOGO
 62
     6
100
AcDbLine
 10
2165.855980326396
 20
980.0992042987971
 30
0.0
 11
2134.251192040093
 21
980.0992042987971
 31
0.0
  0
LINE
  5
18AC
330
1F
100
AcDbEntity
  8
LOGO
 62
     6
100
AcDbLine
 10
2165.855980326396
 20
996.9278244023142
 30
0.0
 11
2134.251192040093
 21
996.9278244023142
 31
0.0
  0
TEXT
  5
18AD
330
1F
100
AcDbEntity
  8
LOGO
  6
Continuous
 62
     6
100
AcDbText
 10
2143.132725101712
 20
982.0115474923785
 30
0.0
 40
3.824686387162869
  1
Stroke
 41
0.8
  7
CHINESET
 72
     4
 11
2150.053586183244
 21
983.92389068596
 31
0.0
100
AcDbText
  0
TEXT
  5
18AE
330
1F
100
AcDbEntity
  8
LOGO
  6
Continuous
 62
     7
100
AcDbText
 10
2144.575178450475
 20
1006.785264639668
 30
0.0
 40
7.649372774325739
  1
25
  7
CHINESET
 72
     1
 11
2150.767527839215
 21
1010.609951026831
 31
0.0
100
AcDbText
 73
     2
  0
LINE
  5
18AF
330
1F
100
AcDbEntity
  8
LOGO
 62
     6
100
AcDbLine
 10
2162.796231216665
 20
1017.581130892993
 30
0.0
 11
2137.310941149823
 21
1017.581130892993
 31
0.0
  0
LINE
  5
18B0
330
1F
100
AcDbEntity
  8
LOGO
 62
     6
100
AcDbLine
 10
2162.796231216665
 20
1003.812259899207
 30
0.0
 11
2137.310941149823
 21
1003.812259899207
 31
0.0
  0
TEXT
  5
18B1
330
1F
100
AcDbEntity
  8
LOGO
  6
Continuous
 62
     6
100
AcDbText
 10
2046.028644561888
 20
982.0115474923788
 30
0.0
 40
3.824686387162869
  1
Model
  7
CHINESET
 72
     4
 11
2053.313761489817
 21
983.9238906859602
 31
0.0
100
AcDbText
  0
LINE
  5
18B2
330
1F
100
AcDbEntity
  8
LOGO
 62
     6
100
AcDbLine
 10
2089.815767341374
 20
1017.581130892993
 30
0.0
 11
2016.811755638259
 21
1017.581130892993
 31
0.0
  0
LINE
  5
18B3
330
1F
100
AcDbEntity
  8
LOGO
 62
     6
100
AcDbLine
 10
2089.815767341374
 20
1003.812259899207
 30
0.0
 11
2016.811755638259
 21
1003.812259899207
 31
0.0
  0
LINE
  5
18B4
330
1F
100
AcDbEntity
  8
LOGO
 62
     6
100
AcDbLine
 10
2068.612507038468
 20
996.9278244023142
 30
0.0
 11
2038.015015941165
 21
996.9278244023142
 31
0.0
  0
LINE
  5
18B5
330
1F
100
AcDbEntity
  8
LOGO
 62
     6
100
AcDbLine
 10
2068.612507038468
 20
980.0992042987971
 30
0.0
 11
2038.015015941165
 21
980.0992042987971
 31
0.0
  0
TEXT
  5
18B6
330
1F
100
AcDbEntity
  8
LOGO
 62
     7
100
AcDbText
 10
1957.440350429401
 20
1010.679380708925
 30
0.0
 40
9.179247329190886
  1
訂購代號:
  7
CHINESET
100
AcDbText
  0
LINE
  5
18B7
330
1F
100
AcDbEntity
  8
LOGO
 62
     6
100
AcDbLine
 10
2038.015015941165
 20
996.9278244023142
 30
0.0
 11
2038.015015941165
 21
980.0992042987971
 31
0.0
  0
LINE
  5
18B8
330
1F
100
AcDbEntity
  8
LOGO
 62
     6
100
AcDbLine
 10
2016.811755638259
 20
1017.581130892993
 30
0.0
 11
2016.811755638259
 21
1003.812259899207
 31
0.0
  0
TEXT
  5
18B9
330
1F
100
AcDbEntity
  8
LOGO
  6
Continuous
 62
     7
100
AcDbText
 10
2108.718042220992
 20
1006.785264639668
 30
0.0
 40
7.649372774325739
  1
20
  7
CHINESET
 72
     1
 11
2114.910391609732
 21
1010.609951026831
 31
0.0
100
AcDbText
 73
     2
  0
LINE
  5
18BA
330
1F
100
AcDbEntity
  8
LOGO
 62
     6
100
AcDbLine
 10
2126.477826990705
 20
980.0992042987974
 30
0.0
 11
2101.915072916818
 21
980.0992042987974
 31
0.0
  0
LINE
  5
18BB
330
1F
100
AcDbEntity
  8
LOGO
 62
     6
100
AcDbLine
 10
2126.477826990705
 20
1003.812259899207
 30
0.0
 11
2101.915072916818
 21
1003.812259899207
 31
0.0
  0
LINE
  5
18BC
330
1F
100
AcDbEntity
  8
LOGO
 62
     6
100
AcDbLine
 10
2126.477826990705
 20
996.9278244023142
 30
0.0
 11
2101.915072916818
 21
996.9278244023142
 31
0.0
  0
LINE
  5
18BD
330
1F
100
AcDbEntity
  8
LOGO
 62
     6
100
AcDbLine
 10
2126.477826990705
 20
1017.581130892993
 30
0.0
 11
2101.915072916818
 21
1017.581130892993
 31
0.0
  0
LINE
  5
18BE
330
1F
100
AcDbEntity
  8
LOGO
 62
     6
100
AcDbLine
 10
2101.915072916818
 20
996.9278244023142
 30
0.0
 11
2101.915072916818
 21
980.0992042987974
 31
0.0
  0
LINE
  5
18BF
330
1F
100
AcDbEntity
  8
LOGO
 62
     6
100
AcDbLine
 10
2068.612507038468
 20
996.9278244023142
 30
0.0
 11
2068.612507038468
 21
980.0992042987971
 31
0.0
  0
TEXT
  5
18C0
330
1F
100
AcDbEntity
  8
LOGO
 62
     6
100
AcDbText
 10
2047.194263270356
 20
988.6701156829435
 30
0.0
 40
6.11949821946059
  1
型式
  7
CHINESET
 72
     4
 11
2053.313761489817
 21
991.5732634602859
 31
0.0
100
AcDbText
  0
LINE
  5
18C1
330
1F
100
AcDbEntity
  8
LOGO
 62
     6
100
AcDbLine
 10
2053.313761489817
 20
1003.812259899207
 30
0.0
 11
2053.313761489817
 21
996.9278244023142
 31
0.0
  0
LINE
  5
18C2
330
1F
100
AcDbEntity
  8
LOGO
 62
     6
100
AcDbLine
 10
2101.915072916818
 20
1017.581130892993
 30
0.0
 11
2101.915072916818
 21
1003.812259899207
 31
0.0
  0
LINE
  5
18C3
330
1F
100
AcDbEntity
  8
LOGO
 62
     6
100
AcDbLine
 10
2089.815767341374
 20
1017.581130892993
 30
0.0
 11
2089.815767341374
 21
1003.812259899207
 31
0.0
  0
LINE
  5
18C4
330
1F
100
AcDbEntity
  8
LOGO
  6
Continuous
 62
     7
100
AcDbLine
 10
2092.528252809925
 20
1010.647923879044
 30
0.0
 11
2098.608083837003
 21
1010.647923879044
 31
0.0
  0
LINE
  5
18C5
330
1F
100
AcDbEntity
  8
LOGO
 62
     6
100
AcDbLine
 10
2134.251192040093
 20
996.9278244023142
 30
0.0
 11
2134.251192040093
 21
980.0992042987971
 31
0.0
  0
LINE
  5
18C6
330
1F
100
AcDbEntity
  8
LOGO
 62
     6
100
AcDbLine
 10
2126.477826990705
 20
996.9278244023142
 30
0.0
 11
2126.477826990705
 21
980.0992042987974
 31
0.0
  0
TEXT
  5
18C7
330
1F
100
AcDbEntity
  8
LOGO
  6
Continuous
 62
     6
100
AcDbText
 10
2109.461123950607
 20
982.0115474923788
 30
0.0
 40
3.824686387162869
  1
Bore
 41
0.8
  7
CHINESET
 72
     4
 11
2114.196449953761
 21
983.9238906859602
 31
0.0
100
AcDbText
  0
TEXT
  5
18C8
330
1F
100
AcDbEntity
  8
LOGO
 62
     6
100
AcDbText
 10
2108.344679781402
 20
988.5135143505555
 30
0.0
 40
6.11949821946059
  1
內徑
 41
0.9
  7
CHINESET
 72
     4
 11
2114.196449953761
 21
991.5732634602859
 31
0.0
100
AcDbText
  0
LINE
  5
18C9
330
1F
100
AcDbEntity
  8
LOGO
  6
Continuous
 62
     7
100
AcDbLine
 10
2128.849996537534
 20
1010.647923879044
 30
0.0
 11
2134.929827564612
 21
1010.647923879044
 31
0.0
  0
LINE
  5
18CA
330
1F
100
AcDbEntity
  8
LOGO
 62
     6
100
AcDbLine
 10
2126.477826990705
 20
1017.581130892993
 30
0.0
 11
2126.477826990705
 21
1003.812259899207
 31
0.0
  0
LINE
  5
18CB
330
1F
100
AcDbEntity
  8
LOGO
 62
     6
100
AcDbLine
 10
2114.196449600996
 20
1003.812259899207
 30
0.0
 11
2114.196449600996
 21
996.9278244023142
 31
0.0
  0
LINE
  5
18CC
330
1F
100
AcDbEntity
  8
LOGO
 62
     6
100
AcDbLine
 10
2137.310941149823
 20
1017.581130892993
 30
0.0
 11
2137.310941149823
 21
1003.812259899207
 31
0.0
  0
LINE
  5
18CD
330
1F
100
AcDbEntity
  8
LOGO
 62
     6
100
AcDbLine
 10
2150.377599722926
 20
1003.812259899207
 30
0.0
 11
2150.377599722926
 21
996.9278244023142
 31
0.0
  0
TEXT
  5
18CE
330
1F
100
AcDbEntity
  8
LOGO
 62
     6
100
AcDbText
 10
2179.69523076212
 20
988.5135143505555
 30
0.0
 40
6.11949821946059
  1
配件
 41
0.9
  7
CHINESET
 72
     4
 11
2185.260149455442
 21
991.5732634602859
 31
0.0
100
AcDbText
  0
LINE
  5
18CF
330
1F
100
AcDbEntity
  8
LOGO
 62
     6
100
AcDbLine
 10
2200.219902023382
 20
980.0992042987974
 30
0.0
 11
2170.763812353037
 21
980.0992042987974
 31
0.0
  0
LINE
  5
18D0
330
1F
100
AcDbEntity
  8
LOGO
 62
     6
100
AcDbLine
 10
2200.219902023382
 20
996.9278244023142
 30
0.0
 11
2170.763812353037
 21
996.9278244023142
 31
0.0
  0
TEXT
  5
18D1
330
1F
100
AcDbEntity
  8
LOGO
  6
Continuous
 62
     6
100
AcDbText
 10
2173.968218217151
 20
982.6489952235727
 30
0.0
 40
3.824686387162869
  1
Accessory
 41
0.8
  7
CHINESET
 72
     4
 11
2185.260149455442
 21
983.9238906859602
 31
0.0
100
AcDbText
  0
LINE
  5
18D2
330
1F
100
AcDbEntity
  8
LOGO
 62
     6
100
AcDbLine
 10
2170.763812353037
 20
996.9278244023142
 30
0.0
 11
2170.763812353037
 21
980.0992042987974
 31
0.0
  0
LINE
  5
18D3
330
1F
100
AcDbEntity
  8
LOGO
 62
     6
100
AcDbLine
 10
2165.855980326396
 20
996.9278244023142
 30
0.0
 11
2165.855980326396
 21
980.0357492423188
 31
0.0
  0
LINE
  5
18D4
330
1F
100
AcDbEntity
  8
LOGO
 62
     6
100
AcDbLine
 10
2162.796231216665
 20
1017.581130892993
 30
0.0
 11
2162.796231216665
 21
1003.812259899207
 31
0.0
  0
LINE
  5
18D5
330
1F
100
AcDbEntity
  8
LOGO
  6
Continuous
 62
     7
100
AcDbLine
 10
2165.506607053476
 20
1010.647923879044
 30
0.0
 11
2171.586438080553
 21
1010.647923879044
 31
0.0
  0
TEXT
  5
18D6
330
1F
100
AcDbEntity
  8
LOGO
  6
Continuous
 62
     7
100
AcDbText
 10
2180.72683141939
 20
1006.785264639668
 30
0.0
 40
7.649372774325739
  1
?
  7
CHINESET
 72
     1
 11
2182.73023857457
 21
1010.609951026831
 31
0.0
100
AcDbText
 73
     2
  0
LINE
  5
18D7
330
1F
100
AcDbEntity
  8
LOGO
 62
     6
100
AcDbLine
 10
2190.715332370999
 20
1017.581130892993
 30
0.0
 11
2190.715332370999
 21
1003.812259899207
 31
0.0
  0
LINE
  5
18D8
330
1F
100
AcDbEntity
  8
LOGO
 62
     6
100
AcDbLine
 10
2173.849522925952
 20
1017.581130892993
 30
0.0
 11
2173.849522925952
 21
1003.812259899207
 31
0.0
  0
LINE
  5
18D9
330
1F
100
AcDbEntity
  8
LOGO
 62
     6
100
AcDbLine
 10
2190.715332370999
 20
1003.812259899207
 30
0.0
 11
2173.849522925952
 21
1003.812259899207
 31
0.0
  0
LINE
  5
18DA
330
1F
100
AcDbEntity
  8
LOGO
 62
     6
100
AcDbLine
 10
2182.282427648475
 20
1003.812259899207
 30
0.0
 11
2182.282427648475
 21
996.9278244023142
 31
0.0
  0
LINE
  5
18DB
330
1F
100
AcDbEntity
  8
LOGO
 62
     6
100
AcDbLine
 10
2190.715332370999
 20
1017.581130892993
 30
0.0
 11
2173.849522925952
 21
1017.581130892993
 31
0.0
  0
LINE
  5
18DC
330
1F
100
AcDbEntity
  8
LOGO
 62
     6
100
AcDbLine
 10
2200.219902023382
 20
996.9278244023142
 30
0.0
 11
2200.219902023382
 21
980.0992042987974
 31
0.0
  0
TEXT
  5
18DD
330
1F
100
AcDbEntity
  8
LOGO
 62
     7
100
AcDbText
 10
1956.311570517646
 20
1002.070387790884
 30
0.0
 40
6.117674054660631
  1
Order example:
 41
0.8
  7
CHINESET
100
AcDbText
  0
TEXT
  5
18DE
330
1F
100
AcDbEntity
  8
LOGO
 62
     7
100
AcDbText
 10
1957.409131834158
 20
1010.68280617927
 30
0.0
 40
9.17651108199095
  1
訂購代號:
  7
CHINESET
100
AcDbText
  0
LINE
  5
18DF
330
1F
100
AcDbEntity
  8
LOGO
 62
     1
100
AcDbLine
 10
2465.308656512059
 20
1022.170754557589
 30
0.0
 11
1852.711798489038
 21
1022.170754557589
 31
0.0
  0
LINE
  5
18E0
330
1F
100
AcDbEntity
  8
LOGO
 62
     1
100
AcDbLine
 10
1953.653420390939
 20
976.2881991476341
 30
0.0
 11
1953.653420390939
 21
1022.170754557589
 31
0.0
  0
TEXT
  5
18E1
330
1F
100
AcDbEntity
  8
LOGO
  6
Continuous
 62
     5
100
AcDbText
 10
1869.193018638371
 20
985.3017579151062
 30
0.0
 40
6.88238331149321
  1
金器工業股份有限公司
  7
CHINESET
100
AcDbText
  0
TEXT
  5
18E2
330
1F
100
AcDbEntity
  8
LOGO
  6
Continuous
 62
     5
100
AcDbText
 10
1856.551442107549
 20
978.4180261960838
 30
0.0
 40
4.588255540995475
  1
MINDMAN INDUSTRIAL CO., LTD.
 41
0.85
  7
CHINESET
100
AcDbText
  0
LINE
  5
18E3
330
1F
100
AcDbEntity
  8
LOGO
 62
     1
100
AcDbLine
 10
1953.653420390939
 20
1012.994243475598
 30
0.0
 11
1886.359005789672
 21
1012.994243475598
 31
0.0
  0
LINE
  5
18E4
330
1F
100
AcDbEntity
  8
LOGO
 62
     1
100
AcDbLine
 10
1953.653420390939
 20
1003.817732393607
 30
0.0
 11
1886.359005789672
 21
1003.817732393607
 31
0.0
  0
LINE
  5
18E5
330
1F
100
AcDbEntity
  8
LOGO
 62
     1
100
AcDbLine
 10
1953.653420390939
 20
994.6412213116161
 30
0.0
 11
1852.711798489038
 21
994.6412213116161
 31
0.0
  0
LINE
  5
18E6
330
1F
100
AcDbEntity
  8
LOGO
 62
     1
100
AcDbLine
 10
1886.359005789672
 20
994.6412213116161
 30
0.0
 11
1886.359005789672
 21
1022.170754557589
 31
0.0
  0
TEXT
  5
18E7
330
1F
100
AcDbEntity
  8
LOGO
 62
     6
100
AcDbText
 10
1929.948189971605
 20
996.935349082114
 30
0.0
 40
4.588255540995475
  1
m/m
  7
CHINESET
 72
     1
 11
1938.03225925812
 21
999.2294768526116
 31
0.0
100
AcDbText
 73
     2
  0
TEXT
  5
18E8
330
1F
100
AcDbEntity
  8
LOGO
 62
     6
100
AcDbText
 10
1929.948189971605
 20
1015.288371246096
 30
0.0
 40
4.588255540995475
  1
1 : 1
  7
CHINESET
 72
     1
 11
1938.03225925812
 21
1017.582499016593
 31
0.0
100
AcDbText
 73
     2
  0
LINE
  5
18E9
330
1F
100
AcDbEntity
  8
LOGO
 62
     1
100
AcDbLine
 10
1923.065050117635
 20
994.6412213116161
 30
0.0
 11
1923.065050117635
 21
1022.170754557589
 31
0.0
  0
CIRCLE
  5
18EA
330
1F
100
AcDbEntity
  8
LOGO
  6
Continuous
 62
     6
100
AcDbCircle
 10
1931.560779141719
 20
1008.415802246781
 30
0.0
 40
2.664049162463476
  0
CIRCLE
  5
18EB
330
1F
100
AcDbEntity
  8
LOGO
  6
Continuous
 62
     6
100
AcDbCircle
 10
1931.560779141719
 20
1008.415802246781
 30
0.0
 40
1.560896974274466
  0
LINE
  5
18EC
330
1F
100
AcDbEntity
  8
LOGO
 62
     6
100
AcDbLine
 10
1948.301973201833
 20
1005.751753084317
 30
0.0
 11
1948.301973201833
 21
1011.079851409244
 31
0.0
  0
LINE
  5
18ED
330
1F
100
AcDbEntity
  8
LOGO
 62
     6
100
AcDbLine
 10
1939.950332001228
 20
1006.854905272506
 30
0.0
 11
1939.950332001228
 21
1009.976699221055
 31
0.0
  0
LINE
  5
18EE
330
1F
100
AcDbEntity
  8
LOGO
  6
Continuous
 62
     6
100
AcDbLine
 10
1939.950332001228
 20
1009.976699221055
 30
0.0
 11
1948.301973201833
 21
1011.079851409244
 31
0.0
  0
LINE
  5
18EF
330
1F
100
AcDbEntity
  8
LOGO
  6
Continuous
 62
     6
100
AcDbLine
 10
1939.950332001228
 20
1006.854905272506
 30
0.0
 11
1948.301973201833
 21
1005.751753084317
 31
0.0
  0
TEXT
  5
18F0
330
1F
100
AcDbEntity
  8
LOGO
 62
     6
100
AcDbText
 10
1890.142268282626
 20
1015.29062924587
 30
300.7067094474039
 40
4.588255540995475
  1
比例 Scale:
 41
0.9
  7
CHINESET
 72
     4
 11
1904.712027953653
 21
1017.582499016593
 31
300.7067094474039
100
AcDbText
  0
TEXT
  5
18F1
330
1F
100
AcDbEntity
  8
LOGO
 62
     6
100
AcDbText
 10
1891.746109393608
 20
1006.176401324315
 30
300.7067094474039
 40
4.588255540995475
  1
投影 View:
 41
0.9
  7
CHINESET
 72
     4
 11
1904.712027953653
 21
1008.405987934602
 31
300.7067094474039
100
AcDbText
  0
TEXT
  5
18F2
330
1F
100
AcDbEntity
  8
LOGO
 62
     6
100
AcDbText
 10
1892.194693305875
 20
996.935349082114
 30
300.7067094474039
 40
4.588255540995475
  1
單位 Unit:
 41
0.9
  7
CHINESET
 72
     4
 11
1904.712027953653
 21
999.2294768526116
 31
300.7067094474039
100
AcDbText
  0
LWPOLYLINE
  5
18F3
330
1F
100
AcDbEntity
  8
0
 62
     4
100
AcDbPolyline
 90
        4
 70
     1
 43
0.0
 10
1852.711798489038
 20
1022.170754557589
 10
2465.308656512059
 20
1022.170754557589
 10
2465.308656512059
 20
1365.184190898902
 10
1852.711798489038
 20
1365.184190898902
1001
GENIUS_GENREC_14
1002
{
1000
PYDIR
1011
1852.711798489038
1021
1365.184190898902
1031
0.0
1002
}
1002
{
1000
PXDIR
1011
2465.308656512059
1021
1022.170754557589
1031
0.0
1002
}
1002
{
1000
PORI
1011
1852.711798489038
1021
1022.170754557589
1031
0.0
1002
}
1002
{
1000
PINS
1011
1852.711798489038
1021
1022.170754557589
1031
0.0
1002
}
1002
{
1000
PINS2
1011
2465.308656512059
1021
1365.184190898902
1031
0.0
1002
}
1002
{
1000
C
1070
     1
1002
}
1001
GENIUS_GENODEF_13
1002
{
1000
HIER
1070
     0
1002
}
1002
{
1000
MANEDIT
1070
     0
1002
}
1002
{
1000
NOSEL
1070
     0
1002
}
1002
{
1000
BEHIND
1070
     0
1002
}
1002
{
1000
OTHER
1070
     0
1002
}
1002
{
1000
REACTOR
1002
}
1001
GENIUS_GENOBJ-N-REC_13
1002
{
1000
OWNER
1000
GEN
1002
}
  0
SOLID
  5
18F4
330
1F
100
AcDbEntity
  8
LOGO
 62
     5
100
AcDbTrace
 10
1857.472187248722
 20
1002.268543061772
 30
0.0
 11
1859.456028548822
 21
1002.268543061772
 31
0.0
 12
1867.733435352693
 22
1021.080831252386
 32
0.0
 13
1869.717276652794
 23
1021.080831252385
 33
0.0
  0
SOLID
  5
18F5
330
1F
100
AcDbEntity
  8
LOGO
 62
     5
100
AcDbTrace
 10
1860.276928397141
 20
1002.268543061772
 30
0.0
 11
1862.260769697243
 21
1002.268543061772
 31
0.0
 12
1869.717276652794
 22
1019.575848197136
 32
0.0
 13
1867.733435352693
 23
1012.301763430098
 33
0.0
  0
SOLID
  5
18F6
330
1F
100
AcDbEntity
  8
LOGO
 62
     2
100
AcDbTrace
 10
1859.456028548822
 20
1002.268543061772
 30
0.0
 11
1860.276928397141
 21
1002.268543061772
 31
0.0
 12
1869.717276652794
 22
1021.080831252385
 32
0.0
 13
1870.538176501112
 23
1021.080831252385
 33
0.0
  0
SOLID
  5
18F7
330
1F
100
AcDbEntity
  8
LOGO
 62
     5
100
AcDbTrace
 10
1854.291603147181
 20
995.4277109924591
 30
0.0
 11
1854.975686354113
 21
995.4277109924591
 31
0.0
 12
1856.902117909612
 22
998.8481270271151
 32
0.0
 13
1857.586201116544
 23
998.8481270271151
 33
0.0
  0
SOLID
  5
18F8
330
1F
100
AcDbEntity
  8
LOGO
 62
     5
100
AcDbTrace
 10
1856.902117909612
 20
998.8481270271151
 30
0.0
 11
1857.586201116544
 21
998.8481270271151
 31
0.0
 12
1856.902117909612
 22
995.4277109924591
 32
0.0
 13
1857.586201116544
 23
995.4277109924591
 33
0.0
  0
SOLID
  5
18F9
330
1F
100
AcDbEntity
  8
LOGO
 62
     5
100
AcDbTrace
 10
1856.902117909612
 20
995.4277109924591
 30
0.0
 11
1857.586201116544
 21
995.4277109924591
 31
0.0
 12
1859.512632672046
 22
998.8481270271151
 32
0.0
 13
1860.196715878977
 23
998.8481270271151
 33
0.0
  0
SOLID
  5
18FA
330
1F
100
AcDbEntity
  8
LOGO
 62
     5
100
AcDbTrace
 10
1859.512632672046
 20
998.8481270271151
 30
0.0
 11
1860.196715878977
 21
998.8481270271151
 31
0.0
 12
1859.512632672046
 22
995.4277109924591
 32
0.0
 13
1860.196715878977
 23
995.4277109924591
 33
0.0
  0
POLYLINE
  5
18FB
330
1F
100
AcDbEntity
  8
LOGO
 62
     5
100
AcDb2dPolyline
 66
     1
 10
0.0
 20
0.0
 30
0.0
 40
0.6851794941219908
 41
0.6851794941219908
  0
VERTEX
  5
18FC
330
18FB
100
AcDbEntity
  8
LOGO
 62
     5
100
AcDbVertex
100
AcDb2dVertex
 10
1882.442868732504
 20
997.4799606132524
 30
0.0
 42
1.0
  0
VERTEX
  5
18FD
330
18FB
100
AcDbEntity
  8
LOGO
 62
     5
100
AcDbVertex
100
AcDb2dVertex
 10
1880.387330250139
 20
997.4799606132524
 30
0.0
 42
1.0
  0
SEQEND
  5
18FE
330
18FB
100
AcDbEntity
  8
LOGO
 62
     5
  0
POLYLINE
  5
18FF
330
1F
100
AcDbEntity
  8
LOGO
 62
     5
100
AcDb2dPolyline
 66
     1
 10
0.0
 20
0.0
 30
0.0
 70
     1
  0
VERTEX
  5
1900
330
18FF
100
AcDbEntity
  8
LOGO
 62
     5
100
AcDbVertex
100
AcDb2dVertex
 10
1876.512548780526
 20
997.1379190097868
 30
0.0
 42
1.000000057330635
  0
VERTEX
  5
1901
330
18FF
100
AcDbEntity
  8
LOGO
 62
     5
100
AcDbVertex
100
AcDb2dVertex
 10
1878.56479840132
 20
997.1379190097868
 30
0.0
 42
1.000000057330635
  0
SEQEND
  5
1902
330
18FF
100
AcDbEntity
  8
LOGO
 62
     5
  0
CIRCLE
  5
1903
330
1F
100
AcDbEntity
  8
LOGO
 62
     5
100
AcDbCircle
 10
1877.538673590924
 20
997.1379190097868
 30
0.0
 40
1.026124810397093
  0
POLYLINE
  5
1904
330
1F
100
AcDbEntity
  8
LOGO
 62
     5
100
AcDb2dPolyline
 66
     1
 10
0.0
 20
0.0
 30
0.0
 70
     1
 40
0.6851794941219908
 41
0.6851794941219908
  0
VERTEX
  5
1905
330
1904
100
AcDbEntity
  8
LOGO
 62
     5
100
AcDbVertex
100
AcDb2dVertex
 10
1876.168314602679
 20
997.1379190097868
 30
0.0
 42
1.0
  0
VERTEX
  5
1906
330
1904
100
AcDbEntity
  8
LOGO
 62
     5
100
AcDbVertex
100
AcDb2dVertex
 10
1878.909032579167
 20
997.1379190097868
 30
0.0
 42
1.0
  0
SEQEND
  5
1907
330
1904
100
AcDbEntity
  8
LOGO
 62
     5
  0
LINE
  5
1908
330
1F
100
AcDbEntity
  8
LOGO
 62
     5
100
AcDbLine
 10
1882.783265905184
 20
995.4277109924591
 30
0.0
 11
1882.783265905184
 21
997.4799606132524
 31
0.0
  0
SOLID
  5
1909
330
1F
100
AcDbEntity
  8
LOGO
 62
     5
100
AcDbTrace
 10
1878.564729993001
 20
998.8481270271151
 30
0.0
 11
1879.248813199932
 21
998.8481270271151
 31
0.0
 12
1878.564729993001
 22
995.4277109924591
 32
0.0
 13
1879.248813199932
 23
995.4277109924591
 33
0.0
  0
SOLID
  5
190A
330
1F
100
AcDbEntity
  8
LOGO
 62
     5
100
AcDbTrace
 10
1880.046933077458
 20
995.4277109924591
 30
0.0
 11
1880.73101628439
 21
995.4277109924591
 31
0.0
 12
1880.046933077458
 22
998.8481270271151
 32
0.0
 13
1880.73101628439
 23
998.8481270271151
 33
0.0
  0
SOLID
  5
190B
330
1F
100
AcDbEntity
  8
LOGO
 62
     5
100
AcDbTrace
 10
1882.099182698253
 20
997.4799606132524
 30
0.0
 11
1882.783265905184
 21
997.4799606132524
 31
0.0
 12
1882.099182698253
 22
995.4277109924591
 32
0.0
 13
1882.783265905184
 23
995.4277109924591
 33
0.0
  0
SOLID
  5
190C
330
1F
100
AcDbEntity
  8
LOGO
 62
     5
100
AcDbTrace
 10
1879.978524756765
 20
1019.575848197136
 30
0.0
 11
1877.994683456664
 21
1012.301763430098
 31
0.0
 12
1879.978524756765
 22
1002.268543061772
 32
0.0
 13
1877.994683456664
 23
1002.268543061772
 33
0.0
  0
SOLID
  5
190D
330
1F
100
AcDbEntity
  8
LOGO
 62
     5
100
AcDbTrace
 10
1880.799424605083
 20
1002.268543061772
 30
0.0
 11
1882.783265905184
 21
1002.268543061772
 31
0.0
 12
1880.799424605083
 22
1021.080831252385
 32
0.0
 13
1882.783265905184
 23
1021.080831252386
 33
0.0
  0
SOLID
  5
190E
330
1F
100
AcDbEntity
  8
LOGO
 62
     2
100
AcDbTrace
 10
1879.978524756765
 20
1021.080831252386
 30
0.0
 11
1880.799424605083
 21
1021.080831252385
 31
0.0
 12
1879.978524756765
 22
1002.268543061772
 32
0.0
 13
1880.799424605083
 23
1002.268543061772
 33
0.0
  0
POLYLINE
  5
190F
330
1F
100
AcDbEntity
  8
LOGO
 62
     5
100
AcDb2dPolyline
 66
     1
 10
0.0
 20
0.0
 30
0.0
 40
0.6851794941219908
 41
0.6851794941219908
  0
VERTEX
  5
1910
330
190F
100
AcDbEntity
  8
LOGO
 62
     5
100
AcDbVertex
100
AcDb2dVertex
 10
1872.637630494274
 20
997.4799606132524
 30
0.0
 42
1.0
  0
VERTEX
  5
1911
330
190F
100
AcDbEntity
  8
LOGO
 62
     5
100
AcDbVertex
100
AcDb2dVertex
 10
1870.582092011908
 20
997.4799606132524
 30
0.0
 42
1.0
  0
SEQEND
  5
1912
330
190F
100
AcDbEntity
  8
LOGO
 62
     5
  0
POLYLINE
  5
1913
330
1F
100
AcDbEntity
  8
LOGO
 62
     5
100
AcDb2dPolyline
 66
     1
 10
0.0
 20
0.0
 30
0.0
 40
0.6851794941219908
 41
0.6851794941219908
  0
VERTEX
  5
1914
330
1913
100
AcDbEntity
  8
LOGO
 62
     5
100
AcDbVertex
100
AcDb2dVertex
 10
1874.689880115067
 20
997.4799606132524
 30
0.0
 42
1.0
  0
VERTEX
  5
1915
330
1913
100
AcDbEntity
  8
LOGO
 62
     5
100
AcDbVertex
100
AcDb2dVertex
 10
1872.634341632701
 20
997.4799606132524
 30
0.0
 42
1.0
  0
SEQEND
  5
1916
330
1913
100
AcDbEntity
  8
LOGO
 62
     5
  0
POLYLINE
  5
1917
330
1F
100
AcDbEntity
  8
LOGO
 62
     5
100
AcDb2dPolyline
 66
     1
 10
0.0
 20
0.0
 30
0.0
 40
0.6851794941219908
 41
0.6851794941219908
  0
VERTEX
  5
1918
330
1917
100
AcDbEntity
  8
LOGO
 62
     5
100
AcDbVertex
100
AcDb2dVertex
 10
1864.884641876837
 20
997.4799606132524
 30
0.0
 42
1.0
  0
VERTEX
  5
1919
330
1917
100
AcDbEntity
  8
LOGO
 62
     5
100
AcDbVertex
100
AcDb2dVertex
 10
1862.829103394471
 20
997.4799606132524
 30
0.0
 42
1.0
  0
SEQEND
  5
191A
330
1917
100
AcDbEntity
  8
LOGO
 62
     5
  0
SOLID
  5
191B
330
1F
100
AcDbEntity
  8
LOGO
 62
     5
100
AcDbTrace
 10
1862.488706221792
 20
998.8481270271151
 30
0.0
 11
1863.172789428723
 21
998.8481270271151
 31
0.0
 12
1862.488706221792
 22
995.4277109924591
 32
0.0
 13
1863.172789428723
 23
995.4277109924591
 33
0.0
  0
SOLID
  5
191C
330
1F
100
AcDbEntity
  8
LOGO
 62
     5
100
AcDbTrace
 10
1864.540955842586
 20
997.4799606132524
 30
0.0
 11
1865.225039049518
 21
997.4799606132524
 31
0.0
 12
1864.540955842586
 22
995.4277109924591
 32
0.0
 13
1865.225039049518
 23
995.4277109924591
 33
0.0
  0
POLYLINE
  5
191D
330
1F
100
AcDbEntity
  8
LOGO
 62
     5
100
AcDb2dPolyline
 66
     1
 10
0.0
 20
0.0
 30
0.0
 70
     1
 40
0.6851794941219908
 41
0.6851794941219908
  0
VERTEX
  5
191E
330
191D
100
AcDbEntity
  8
LOGO
 62
     5
100
AcDbVertex
100
AcDb2dVertex
 10
1866.363076364448
 20
997.1379190097868
 30
0.0
 42
1.0
  0
VERTEX
  5
191F
330
191D
100
AcDbEntity
  8
LOGO
 62
     5
100
AcDbVertex
100
AcDb2dVertex
 10
1869.103794340937
 20
997.1379190097868
 30
0.0
 42
1.0
  0
SEQEND
  5
1920
330
191D
100
AcDbEntity
  8
LOGO
 62
     5
  0
SOLID
  5
1921
330
1F
100
AcDbEntity
  8
LOGO
 62
     5
100
AcDbTrace
 10
1868.75949175477
 20
999.8742518375129
 30
0.0
 11
1869.443574961701
 21
999.8742518375129
 31
0.0
 12
1868.75949175477
 22
995.4277109924591
 32
0.0
 13
1869.443574961701
 23
995.4277109924591
 33
0.0
  0
SOLID
  5
1922
330
1F
100
AcDbEntity
  8
LOGO
 62
     5
100
AcDbTrace
 10
1870.241694839229
 20
998.8481270271151
 30
0.0
 11
1870.92577804616
 21
998.8481270271151
 31
0.0
 12
1870.241694839229
 22
995.4277109924591
 32
0.0
 13
1870.92577804616
 23
995.4277109924591
 33
0.0
  0
SOLID
  5
1923
330
1F
100
AcDbEntity
  8
LOGO
 62
     5
100
AcDbTrace
 10
1872.293944460022
 20
997.4799606132524
 30
0.0
 11
1872.978027666954
 21
997.4799606132524
 31
0.0
 12
1872.293944460022
 22
995.4277109924591
 32
0.0
 13
1872.978027666954
 23
995.4277109924591
 33
0.0
  0
SOLID
  5
1924
330
1F
100
AcDbEntity
  8
LOGO
 62
     5
100
AcDbTrace
 10
1874.346194080816
 20
997.4799606132524
 30
0.0
 11
1875.030277287747
 21
997.4799606132524
 31
0.0
 12
1874.346194080816
 22
995.4277109924575
 32
0.0
 13
1875.030277287747
 23
995.4277109924575
 33
0.0
  0
SOLID
  5
1925
330
1F
100
AcDbEntity
  8
LOGO
 62
     5
100
AcDbTrace
 10
1861.006503137333
 20
999.3269852719668
 30
0.0
 11
1861.690586344266
 21
999.3269852719668
 31
0.0
 12
1861.006503137333
 22
999.8742518375129
 32
0.0
 13
1861.690586344266
 23
999.8742518375129
 33
0.0
  0
SOLID
  5
1926
330
1F
100
AcDbEntity
  8
LOGO
 62
     5
100
AcDbTrace
 10
1861.006503137333
 20
998.8481270271151
 30
0.0
 11
1861.690586344266
 21
998.8481270271151
 31
0.0
 12
1861.006503137333
 22
995.4277109924575
 32
0.0
 13
1861.690586344266
 23
995.4277109924591
 33
0.0
  0
SOLID
  5
1927
330
1F
100
AcDbEntity
  8
LOGO
 62
     5
100
AcDbTrace
 10
1867.733435352693
 20
1002.268543061772
 30
0.0
 11
1869.717276652794
 21
1002.268543061772
 31
0.0
 12
1867.733435352693
 22
1012.301763430098
 32
0.0
 13
1869.717276652794
 23
1019.575848197136
 33
0.0
  0
SOLID
  5
1928
330
1F
100
AcDbEntity
  8
LOGO
 62
     5
100
AcDbTrace
 10
1870.538176501112
 20
1021.080831252385
 30
0.0
 11
1872.522017801213
 21
1021.080831252386
 31
0.0
 12
1870.538176501112
 22
1003.773526117021
 32
0.0
 13
1872.522017801213
 23
1011.047610884058
 33
0.0
  0
SOLID
  5
1929
330
1F
100
AcDbEntity
  8
LOGO
 62
     2
100
AcDbTrace
 10
1869.717276652794
 20
1021.080831252385
 30
0.0
 11
1870.538176501112
 21
1021.080831252385
 31
0.0
 12
1869.717276652794
 22
1002.268543061772
 32
0.0
 13
1870.538176501112
 23
1002.268543061772
 33
0.0
  0
SOLID
  5
192A
330
1F
100
AcDbEntity
  8
LOGO
 62
     5
100
AcDbTrace
 10
1870.538176501112
 20
1003.773526117021
 30
0.0
 11
1872.522017801213
 21
1011.047610884058
 31
0.0
 12
1879.978524756765
 22
1021.080831252386
 32
0.0
 13
1877.994683456664
 23
1021.080831252386
 33
0.0
  0
SOLID
  5
192B
330
1F
100
AcDbEntity
  8
LOGO
 62
     5
100
AcDbTrace
 10
1870.538176501112
 20
1002.268543061772
 30
0.0
 11
1872.522017801213
 21
1002.268543061772
 31
0.0
 12
1879.978524756765
 22
1019.575848197136
 32
0.0
 13
1877.994683456664
 23
1012.301763430098
 33
0.0
  0
SOLID
  5
192C
330
1F
100
AcDbEntity
  8
LOGO
 62
     2
100
AcDbTrace
 10
1869.717276652794
 20
1002.268543061772
 30
0.0
 11
1870.538176501112
 21
1002.268543061772
 31
0.0
 12
1879.978524756765
 22
1021.080831252386
 32
0.0
 13
1880.799424605083
 23
1021.080831252385
 33
0.0
  0
TEXT
  5
192D
330
1F
100
AcDbEntity
  8
0
100
AcDbText
 10
1955.905175639768
 20
978.7291329858891
 30
0.0
 40
3.825989105399999
  1
1050713
 41
0.8
  7
CHINESET
 72
     1
 11
1965.087549492728
 21
978.7291329858891
 31
0.0
100
AcDbText
  0
LINE
  5
192E
330
1F
100
AcDbEntity
  8
LOGO
 62
     1
100
AcDbLine
 10
1976.892304970593
 20
985.4647102296253
 30
0.0
 11
1976.892304970593
 21
976.2881991476341
 31
0.0
  0
LINE
  5
192F
330
1F
100
AcDbEntity
  8
LOGO
 62
     1
100
AcDbLine
 10
1976.892304970593
 20
985.4647102296253
 30
0.0
 11
1953.653420390939
 21
985.4647102296253
 31
0.0
  0
LWPOLYLINE
  5
1930
330
1F
100
AcDbEntity
  8
0
 62
     1
100
AcDbPolyline
 90
        4
 70
     1
 43
0.0
 10
1852.711798489038
 20
1022.170754557589
 10
2465.308656512059
 20
1022.170754557589
 10
2465.308656512059
 20
976.2881991476341
 10
1852.711798489038
 20
976.2881991476341
1001
GENIUS_GENREC_14
1002
{
1000
PYDIR
1011
1852.711798489038
1021
976.2881991476341
1031
0.0
1002
}
1002
{
1000
PXDIR
1011
2465.308656512059
1021
1022.170754557589
1031
0.0
1002
}
1002
{
1000
PORI
1011
1852.711798489038
1021
1022.170754557589
1031
0.0
1002
}
1002
{
1000
PINS
1011
1852.711798489038
1021
1022.170754557589
1031
0.0
1002
}
1002
{
1000
PINS2
1011
2465.308656512059
1021
976.2881991476341
1031
0.0
1002
}
1002
{
1000
C
1070
     1
1002
}
1001
GENIUS_GENOBJ-N-REC_13
1002
{
1000
OWNER
1000
GEN
1002
}
1001
GENIUS_GENODEF_13
1002
{
1000
HIER
1070
     0
1002
}
1002
{
1000
MANEDIT
1070
     0
1002
}
1002
{
1000
NOSEL
1070
     0
1002
}
1002
{
1000
BEHIND
1070
     0
1002
}
1002
{
1000
OTHER
1070
     0
1002
}
1002
{
1000
REACTOR
1002
}
  0
LINE
  5
1931
330
1F
100
AcDbEntity
  8
0
 62
     4
100
AcDbLine
 10
2303.752394861847
 20
1365.184190898902
 30
0.0
 11
2303.752394861847
 21
1022.170754557589
 31
0.0
  0
LINE
  5
194B
330
1F
100
AcDbEntity
  8
LOGO
100
AcDbLine
 10
2269.528221671928
 20
1037.34924242625
 30
0.0
 11
2171.851801217382
 21
1037.34924242625
 31
0.0
  0
TEXT
  5
194C
330
1F
100
AcDbEntity
  8
LOGO
100
AcDbText
 10
2178.387253438758
 20
1050.32885316213
 30
0.0
 40
5.0
  1
型式
100
AcDbText
  0
TEXT
  5
194D
330
1F
100
AcDbEntity
  8
LOGO
100
AcDbText
 10
2176.55102534484
 20
1045.540784572407
 30
0.0
 40
4.0
  1
Model
 41
0.8
  7
ROMANS1
 72
     1
 11
2183.255787249602
 21
1047.540784572407
 31
0.0
100
AcDbText
 73
     2
  0
TEXT
  5
194E
330
1F
100
AcDbEntity
  8
LOGO
100
AcDbText
 10
2197.144207093996
 20
1054.141798740313
 30
0.0
 40
4.0
  1
MGTB
  7
ROMANS
100
AcDbText
  0
TEXT
  5
194F
330
1F
100
AcDbEntity
  8
LOGO
100
AcDbText
 10
2197.176423510801
 20
1041.615797454544
 30
0.0
 40
4.0
  1
MGTU
  7
ROMANS
100
AcDbText
  0
TEXT
  5
1950
330
1F
100
AcDbEntity
  8
LOGO
100
AcDbText
 10
2216.871025618485
 20
1044.046158881982
 30
0.0
 40
5.0
  1
線性軸承
100
AcDbText
  0
TEXT
  5
1951
330
1F
100
AcDbEntity
  8
LOGO
100
AcDbText
 10
2217.253730569592
 20
1039.258090292259
 30
0.0
 40
4.0
  1
Linear bearing guide
 41
0.8
  7
ROMANS1
 72
     1
 11
2242.777540093402
 21
1041.258090292259
 31
0.0
100
AcDbText
 73
     2
  0
TEXT
  5
1952
330
1F
100
AcDbEntity
  8
LOGO
100
AcDbText
 10
2216.871025618485
 20
1056.688346679623
 30
0.0
 40
5.0
  1
含油軸襯
100
AcDbText
  0
TEXT
  5
1953
330
1F
100
AcDbEntity
  8
LOGO
100
AcDbText
 10
2217.525451250908
 20
1051.9002780899
 30
0.0
 40
4.0
  1
Brass bush guide
 41
0.8
  7
ROMANS1
 72
     1
 11
2239.392117917574
 21
1053.9002780899
 31
0.0
100
AcDbText
 73
     2
  0
LINE
  5
1954
330
1F
100
AcDbEntity
  8
LOGO
100
AcDbLine
 10
2269.528221671928
 20
1062.34924242625
 30
0.0
 11
2171.851801217382
 21
1062.34924242625
 31
0.0
  0
LINE
  5
1955
330
1F
100
AcDbEntity
  8
LOGO
100
AcDbLine
 10
2171.851801217382
 20
1062.349242426249
 30
0.0
 11
2171.851801217382
 21
1037.34924242625
 31
0.0
  0
LINE
  5
1956
330
1F
100
AcDbEntity
  8
LOGO
100
AcDbLine
 10
2194.851801217382
 20
1062.34924242625
 30
0.0
 11
2194.851801217382
 21
1037.34924242625
 31
0.0
  0
LINE
  5
1957
330
1F
100
AcDbEntity
  8
LOGO
100
AcDbLine
 10
2269.528221671928
 20
1062.34924242625
 30
0.0
 11
2269.528221671928
 21
1037.34924242625
 31
0.0
  0
LINE
  5
1958
330
1F
100
AcDbEntity
  8
LOGO
100
AcDbLine
 10
2213.851801217382
 20
1062.34924242625
 30
0.0
 11
2213.851801217382
 21
1037.34924242625
 31
0.0
  0
LINE
  5
1959
330
1F
100
AcDbEntity
  8
LOGO
100
AcDbLine
 10
2269.528221671928
 20
1049.84924242625
 30
0.0
 11
2194.851801217382
 21
1049.84924242625
 31
0.0
  0
TEXT
  5
195A
330
1F
100
AcDbEntity
  8
LOGO
  6
Continuous
 62
     7
100
AcDbText
 10
2019.566804453482
 20
1006.785264639668
 30
0.0
 40
7.649372774325739
  1
MGTB/MGTU
  7
CHINESET
 72
     1
 11
2052.896214398758
 21
1010.609951026831
 31
0.0
100
AcDbText
 73
     2
  0
TEXT
  5
195E
330
1F
100
AcDbEntity
  8
0
100
AcDbText
 10
2310.272413765919
 20
1339.427006108331
 30
0.0
 40
9.719999999999998
  1
RP 後支撐板
  7
CHINESET
100
AcDbText
  0
CIRCLE
  5
1CA7
330
1F
100
AcDbEntity
  8
AM_4
  6
HIDDEN2
100
AcDbCircle
 10
2209.306681965081
 20
1181.815351605319
 30
0.0
 40
3.146999999999999
  0
LINE
  5
1CB0
330
1F
100
AcDbEntity
  8
AM_VIS
100
AcDbLine
 10
2091.497779863748
 20
1166.226894334229
 30
0.0
 11
2096.292008503748
 21
1166.226894334229
 31
0.0
  0
LINE
  5
1CB1
330
1F
100
AcDbEntity
  8
AM_VIS
100
AcDbLine
 10
2091.497779863748
 20
1174.021122970319
 30
0.0
 11
2096.292008503748
 21
1174.021122970319
 31
0.0
  0
LINE
  5
1CB2
330
1F
100
AcDbEntity
  8
AM_VIS
100
AcDbLine
 10
2091.497779863748
 20
1189.609580236409
 30
0.0
 11
2096.292008503748
 21
1189.609580236409
 31
0.0
  0
LINE
  5
1CB3
330
1F
100
AcDbEntity
  8
AM_VIS
100
AcDbLine
 10
2091.497779863748
 20
1197.403808871409
 30
0.0
 11
2096.292008503748
 21
1197.403808871409
 31
0.0
  0
LINE
  5
1CB4
330
1F
100
AcDbEntity
  8
AM_VIS
100
AcDbLine
 10
2097.497779863748
 20
1181.815351602274
 30
0.0
 11
2097.497779863748
 21
1193.506694556409
 31
0.0
  0
SPLINE
  5
1CB5
330
1F
100
AcDbEntity
  8
AM_VIS
100
AcDbSpline
210
0.0
220
0.0
230
1.0
 70
    12
 71
     2
 72
     6
 73
     3
 74
     0
 42
0.0000000001
 43
0.0000000001
 40
7.907081180379593
 40
7.907081180379593
 40
7.907081180379593
 40
15.81416236075918
 40
15.81416236075918
 40
15.81416236075918
 10
2097.497779863748
 20
1181.815351602274
 30
0.0
 41
1.0
 10
2097.497779863748
 20
1185.432665684559
 30
0.0
 41
1.037954842097719
 10
2096.292008503748
 20
1189.609580214229
 30
0.0
 41
1.0
  0
SPLINE
  5
1CB6
330
1F
100
AcDbEntity
  8
AM_VIS
100
AcDbSpline
210
0.0
220
0.0
230
1.0
 70
    12
 71
     2
 72
     6
 73
     3
 74
     0
 42
0.0000000001
 43
0.0000000001
 40
0.0
 40
0.0
 40
0.0
 40
7.907081186364578
 40
7.907081186364578
 40
7.907081186364578
 10
2096.292008503748
 20
1189.609580247499
 30
0.0
 41
1.0
 10
2097.497779863748
 20
1191.698037510763
 30
0.0
 41
1.037954849157171
 10
2097.497779863748
 20
1193.506694556409
 30
0.0
 41
1.0
  0
LINE
  5
1CB7
330
1F
100
AcDbEntity
  8
AM_VIS
100
AcDbLine
 10
2097.497779863748
 20
1193.506694556409
 30
0.0
 11
2097.497779863748
 21
1195.315351605319
 31
0.0
  0
SPLINE
  5
1CB8
330
1F
100
AcDbEntity
  8
AM_VIS
100
AcDbSpline
210
0.0
220
0.0
230
1.0
 70
    12
 71
     2
 72
     6
 73
     3
 74
     0
 42
0.0000000001
 43
0.0000000001
 40
7.907081186364578
 40
7.907081186364578
 40
7.907081186364578
 40
15.81416237272916
 40
15.81416237272916
 40
15.81416237272916
 10
2097.497779863748
 20
1193.506694556409
 30
0.0
 41
1.0
 10
2097.497779863748
 20
1195.315351602056
 30
0.0
 41
1.037954849157171
 10
2096.292008503748
 20
1197.403808865319
 30
0.0
 41
1.0
  0
LINE
  5
1CB9
330
1F
100
AcDbEntity
  8
AM_VIS
100
AcDbLine
 10
2097.497779863748
 20
1170.124008655752
 30
0.0
 11
2097.497779863748
 21
1181.815351602274
 31
0.0
  0
SPLINE
  5
1CBA
330
1F
100
AcDbEntity
  8
AM_VIS
100
AcDbSpline
210
0.0
220
0.0
230
1.0
 70
    12
 71
     2
 72
     6
 73
     3
 74
     0
 42
0.0000000001
 43
0.0000000001
 40
7.90708118037959
 40
7.90708118037959
 40
7.90708118037959
 40
15.81416236075918
 40
15.81416236075918
 40
15.81416236075918
 10
2097.497779863748
 20
1170.124008652819
 30
0.0
 41
1.0
 10
2097.497779863749
 20
1171.932665694669
 30
-0.0000000000000018
 41
1.037954842097717
 10
2096.292008503748
 20
1174.021122960319
 30
0.0
 41
1.0
  0
SPLINE
  5
1CBB
330
1F
100
AcDbEntity
  8
AM_VIS
100
AcDbSpline
210
0.0
220
0.0
230
1.0
 70
    12
 71
     2
 72
     6
 73
     3
 74
     0
 42
0.0000000001
 43
0.0000000001
 40
0.0
 40
0.0
 40
0.0
 40
7.907081180379593
 40
7.907081180379593
 40
7.907081180379593
 10
2096.292008503748
 20
1174.021122990319
 30
0.0
 41
1.0
 10
2097.497779863747
 20
1178.198037519989
 30
0.0000000000000018
 41
1.037954842097714
 10
2097.497779863748
 20
1181.815351602274
 30
0.0
 41
1.0
  0
LINE
  5
1CBC
330
1F
100
AcDbEntity
  8
AM_VIS
100
AcDbLine
 10
2097.497779863748
 20
1168.315351605319
 30
0.0
 11
2097.497779863748
 21
1170.124008655752
 31
0.0
  0
SPLINE
  5
1CBD
330
1F
100
AcDbEntity
  8
AM_VIS
100
AcDbSpline
210
0.0
220
0.0
230
1.0
 70
    12
 71
     2
 72
     6
 73
     3
 74
     0
 42
0.0000000001
 43
0.0000000001
 40
0.0
 40
0.0
 40
0.0
 40
7.90708118037959
 40
7.90708118037959
 40
7.90708118037959
 10
2096.292008503748
 20
1166.226894345319
 30
0.0
 41
1.0
 10
2097.49777986375
 20
1168.315351610971
 30
-0.0000000000000018
 41
1.037954842097697
 10
2097.497779863748
 20
1170.124008652819
 30
0.0
 41
1.0
  0
LINE
  5
1CBE
330
1F
100
AcDbEntity
  8
AM_VIS
100
AcDbLine
 10
2097.497779863748
 20
1195.315351605319
 30
0.0
 11
2096.292008503748
 21
1197.403808865319
 31
0.0
  0
LINE
  5
1CBF
330
1F
100
AcDbEntity
  8
AM_VIS
100
AcDbLine
 10
2097.497779863748
 20
1168.315351605319
 30
0.0
 11
2096.292008503748
 21
1166.226894345319
 31
0.0
  0
LINE
  5
1CC0
330
1F
100
AcDbEntity
  8
AM_VIS
100
AcDbLine
 10
2116.497779863748
 20
1187.815351605319
 30
0.0
 11
2116.997779863748
 21
1188.315351605319
 31
0.0
  0
LINE
  5
1CC1
330
1F
100
AcDbEntity
  8
AM_VIS
100
AcDbLine
 10
2116.497779863748
 20
1179.315351605319
 30
0.0
 11
2110.497779863748
 21
1179.315351605319
 31
0.0
  0
LINE
  5
1CC2
330
1F
100
AcDbEntity
  8
AM_VIS
100
AcDbLine
 10
2110.497779863748
 20
1184.315351605319
 30
0.0
 11
2116.497779863748
 21
1184.315351605319
 31
0.0
  0
LINE
  5
1CC3
330
1F
100
AcDbEntity
  8
AM_VIS
100
AcDbLine
 10
2110.497779863748
 20
1175.815351605319
 30
0.0
 11
2116.497779863748
 21
1175.815351605319
 31
0.0
  0
LINE
  5
1CC4
330
1F
100
AcDbEntity
  8
AM_VIS
100
AcDbLine
 10
2116.497779863748
 20
1187.815351605319
 30
0.0
 11
2110.497779863748
 21
1187.815351605319
 31
0.0
  0
LINE
  5
1CC5
330
1F
100
AcDbEntity
  8
AM_VIS
100
AcDbLine
 10
2116.497779863748
 20
1179.315351605319
 30
0.0
 11
2116.497779863748
 21
1184.315351605319
 31
0.0
  0
ARC
  5
1CC6
330
1F
100
AcDbEntity
  8
AM_VIS
100
AcDbCircle
 10
2110.497779863748
 20
1181.815351605319
 30
0.0
 40
6.500000000000012
100
AcDbArc
 50
337.3801350519546
 51
22.61986494804544
  0
LINE
  5
1CC7
330
1F
100
AcDbEntity
  8
AM_VIS
100
AcDbLine
 10
2116.997779863748
 20
1175.315351605319
 30
0.0
 11
2116.497779863748
 21
1175.815351605319
 31
0.0
  0
LINE
  5
1CC8
330
1F
100
AcDbEntity
  8
AM_VIS
100
AcDbLine
 10
2110.497779863748
 20
1184.315351605319
 30
0.0
 11
2110.497779863748
 21
1187.815351605319
 31
0.0
  0
LINE
  5
1CC9
330
1F
100
AcDbEntity
  8
AM_VIS
100
AcDbLine
 10
2110.497779863748
 20
1179.315351605319
 30
0.0
 11
2110.497779863748
 21
1180.065351605319
 31
0.0
  0
LINE
  5
1CCA
330
1F
100
AcDbEntity
  8
AM_VIS
100
AcDbLine
 10
2110.497779863748
 20
1183.565351605319
 30
0.0
 11
2110.497779863748
 21
1184.315351605319
 31
0.0
  0
LINE
  5
1CCB
330
1F
100
AcDbEntity
  8
AM_VIS
100
AcDbLine
 10
2110.497779863748
 20
1175.815351605319
 30
0.0
 11
2110.497779863748
 21
1179.315351605319
 31
0.0
  0
LINE
  5
1CCC
330
1F
100
AcDbEntity
  8
AM_VIS
100
AcDbLine
 10
2118.497779863748
 20
1188.315351605319
 30
0.0
 11
2116.997779863748
 21
1188.315351605319
 31
0.0
  0
LINE
  5
1CCD
330
1F
100
AcDbEntity
  8
AM_VIS
100
AcDbLine
 10
2118.497779863748
 20
1175.315351605319
 30
0.0
 11
2116.997779863748
 21
1175.315351605319
 31
0.0
  0
LINE
  5
1CCE
330
1F
100
AcDbEntity
  8
AM_VIS
100
AcDbLine
 10
2118.497779863748
 20
1165.315351605319
 30
0.0
 11
2118.497779863748
 21
1198.315351605319
 31
0.0
  0
LINE
  5
1CCF
330
1F
100
AcDbEntity
  8
AM_VIS
100
AcDbLine
 10
2118.497779863748
 20
1165.315351605319
 30
0.0
 11
2127.497779863748
 21
1165.315351605319
 31
0.0
  0
LINE
  5
1CD0
330
1F
100
AcDbEntity
  8
AM_VIS
100
AcDbLine
 10
2118.497779863748
 20
1198.315351605319
 30
0.0
 11
2127.497779863748
 21
1198.315351605319
 31
0.0
  0
LINE
  5
1CD1
330
1F
100
AcDbEntity
  8
AM_VIS
100
AcDbLine
 10
2139.497779863748
 20
1220.815351605319
 30
0.0
 11
2127.497779863748
 21
1220.815351605319
 31
0.0
  0
LINE
  5
1CD2
330
1F
100
AcDbEntity
  8
AM_VIS
100
AcDbLine
 10
2139.497779863748
 20
1142.815351605319
 30
0.0
 11
2139.497779863748
 21
1220.815351605319
 31
0.0
  0
LINE
  5
1CD3
330
1F
100
AcDbEntity
  8
AM_VIS
100
AcDbLine
 10
2139.497779863748
 20
1142.815351605319
 30
0.0
 11
2127.497779863748
 21
1142.815351605319
 31
0.0
  0
LINE
  5
1CD4
330
1F
100
AcDbEntity
  8
AM_VIS
100
AcDbLine
 10
2127.497779863748
 20
1220.815351605319
 30
0.0
 11
2127.497779863748
 21
1142.815351605319
 31
0.0
  0
LINE
  5
1CD5
330
1F
100
AcDbEntity
  8
AM_VIS
100
AcDbLine
 10
2074.497779863748
 20
1164.815351605319
 30
0.0
 11
2074.497779863748
 21
1198.815351605319
 31
0.0
  0
LINE
  5
1CD6
330
1F
100
AcDbEntity
  8
AM_VIS
100
AcDbLine
 10
2024.497779863748
 20
1141.065351605319
 30
0.0
 11
2024.497779863748
 21
1164.815351605319
 31
0.0
  0
LINE
  5
1CD7
330
1F
100
AcDbEntity
  8
AM_VIS
100
AcDbLine
 10
2124.497779863748
 20
1164.815351605319
 30
0.0
 11
2124.497779863748
 21
1141.065351605319
 31
0.0
  0
LINE
  5
1CD8
330
1F
100
AcDbEntity
  8
AM_VIS
100
AcDbLine
 10
2091.497779863748
 20
1164.815351605319
 30
0.0
 11
2124.497779863748
 21
1164.815351605319
 31
0.0
  0
LINE
  5
1CD9
330
1F
100
AcDbEntity
  8
AM_VIS
100
AcDbLine
 10
2091.497779863748
 20
1198.815351605319
 30
0.0
 11
2091.497779863748
 21
1164.815351605319
 31
0.0
  0
LINE
  5
1CDA
330
1F
100
AcDbEntity
  8
AM_VIS
100
AcDbLine
 10
2124.497779863748
 20
1198.815351605319
 30
0.0
 11
2091.497779863748
 21
1198.815351605319
 31
0.0
  0
LINE
  5
1CDB
330
1F
100
AcDbEntity
  8
AM_VIS
100
AcDbLine
 10
2124.497779863748
 20
1222.565351605319
 30
0.0
 11
2124.497779863748
 21
1198.815351605319
 31
0.0
  0
LINE
  5
1CDC
330
1F
100
AcDbEntity
  8
AM_VIS
100
AcDbLine
 10
2024.497779863748
 20
1198.815351605319
 30
0.0
 11
2024.497779863748
 21
1222.565351605319
 31
0.0
  0
LINE
  5
1CDD
330
1F
100
AcDbEntity
  8
AM_VIS
100
AcDbLine
 10
2074.497779863747
 20
1198.815351605319
 30
0.0
 11
2024.497779863748
 21
1198.815351605319
 31
0.0
  0
LINE
  5
1CDE
330
1F
100
AcDbEntity
  8
AM_VIS
100
AcDbLine
 10
2024.497779863748
 20
1164.815351605319
 30
0.0
 11
2074.497779863747
 21
1164.815351605319
 31
0.0
  0
LINE
  5
1CE3
330
1F
100
AcDbEntity
  8
AM_VIS
100
AcDbLine
 10
2050.497779863748
 20
1141.065351605319
 30
0.0
 11
2024.497779863748
 21
1141.065351605319
 31
0.0
  0
LINE
  5
1CE4
330
1F
100
AcDbEntity
  8
AM_VIS
100
AcDbLine
 10
2124.497779863748
 20
1141.065351605319
 30
0.0
 11
2098.497779863748
 21
1141.065351605319
 31
0.0
  0
LINE
  5
1CE5
330
1F
100
AcDbEntity
  8
AM_VIS
100
AcDbLine
 10
2098.497779863748
 20
1222.565351605319
 30
0.0
 11
2124.497779863748
 21
1222.565351605319
 31
0.0
  0
LINE
  5
1CE6
330
1F
100
AcDbEntity
  8
AM_VIS
100
AcDbLine
 10
2024.497779863748
 20
1222.565351605319
 30
0.0
 11
2050.497779863748
 21
1222.565351605319
 31
0.0
  0
LINE
  5
1CE7
330
1F
100
AcDbEntity
  8
AM_VIS
100
AcDbLine
 10
2050.497779863748
 20
1140.815351605319
 30
0.0
 11
2050.497779863748
 21
1141.065351605319
 31
0.0
  0
LINE
  5
1CE8
330
1F
100
AcDbEntity
  8
AM_VIS
100
AcDbLine
 10
2098.497779863748
 20
1141.065351605319
 30
0.0
 11
2098.497779863748
 21
1140.815351605319
 31
0.0
  0
LINE
  5
1CE9
330
1F
100
AcDbEntity
  8
AM_VIS
100
AcDbLine
 10
2098.497779863748
 20
1222.815351605319
 30
0.0
 11
2098.497779863748
 21
1222.565351605319
 31
0.0
  0
LINE
  5
1CEA
330
1F
100
AcDbEntity
  8
AM_VIS
100
AcDbLine
 10
2050.497779863748
 20
1222.565351605319
 30
0.0
 11
2050.497779863748
 21
1222.815351605319
 31
0.0
  0
LINE
  5
1CF3
330
1F
100
AcDbEntity
  8
AM_VIS
100
AcDbLine
 10
2098.497779863748
 20
1140.815351605319
 30
0.0
 11
2050.497779863748
 21
1140.815351605319
 31
0.0
  0
LINE
  5
1CF4
330
1F
100
AcDbEntity
  8
AM_VIS
100
AcDbLine
 10
2050.497779863748
 20
1222.815351605319
 30
0.0
 11
2098.497779863748
 21
1222.815351605319
 31
0.0
  0
LINE
  5
1CF5
330
1F
100
AcDbEntity
  8
AM_VIS
100
AcDbLine
 10
2117.997779863748
 20
1167.215351605319
 30
0.0
 11
2117.997779863748
 21
1170.415351605319
 31
0.0
  0
LINE
  5
1CF6
330
1F
100
AcDbEntity
  8
AM_VIS
100
AcDbLine
 10
2117.997779863748
 20
1167.215351605319
 30
0.0
 11
2118.497779863748
 21
1166.715351605319
 31
0.0
  0
LINE
  5
1CF7
330
1F
100
AcDbEntity
  8
AM_VIS
100
AcDbLine
 10
2117.997779863748
 20
1170.415351605319
 30
0.0
 11
2118.497779863748
 21
1170.915351605319
 31
0.0
  0
LINE
  5
1CF8
330
1F
100
AcDbEntity
  8
AM_VIS
100
AcDbLine
 10
2117.997779863748
 20
1193.215351605319
 30
0.0
 11
2117.997779863748
 21
1196.415351605319
 31
0.0
  0
LINE
  5
1CF9
330
1F
100
AcDbEntity
  8
AM_VIS
100
AcDbLine
 10
2117.997779863748
 20
1193.215351605319
 30
0.0
 11
2118.497779863748
 21
1192.715351605319
 31
0.0
  0
LINE
  5
1CFA
330
1F
100
AcDbEntity
  8
AM_VIS
100
AcDbLine
 10
2117.997779863748
 20
1196.415351605319
 30
0.0
 11
2118.497779863748
 21
1196.915351605319
 31
0.0
  0
LINE
  5
1CFB
330
1F
100
AcDbEntity
  8
AM_VIS
100
AcDbLine
 10
1979.997779863747
 20
1215.815351605319
 30
0.0
 11
1979.997779863747
 21
1205.815351605319
 31
0.0
  0
LINE
  5
1CFC
330
1F
100
AcDbEntity
  8
AM_VIS
100
AcDbLine
 10
1979.497779863748
 20
1206.315351605319
 30
0.0
 11
1979.497779863748
 21
1215.315351605319
 31
0.0
  0
LINE
  5
1CFD
330
1F
100
AcDbEntity
  8
AM_VIS
100
AcDbLine
 10
1979.997779863747
 20
1205.815351605319
 30
0.0
 11
2024.497779863748
 21
1205.815351605319
 31
0.0
  0
LINE
  5
1CFE
330
1F
100
AcDbEntity
  8
AM_VIS
100
AcDbLine
 10
2124.497779863748
 20
1205.815351605319
 30
0.0
 11
2127.497779863748
 21
1205.815351605319
 31
0.0
  0
LINE
  5
1CFF
330
1F
100
AcDbEntity
  8
AM_VIS
100
AcDbLine
 10
1979.997779863747
 20
1215.815351605319
 30
0.0
 11
2024.497779863748
 21
1215.815351605319
 31
0.0
  0
LINE
  5
1D00
330
1F
100
AcDbEntity
  8
AM_VIS
100
AcDbLine
 10
2124.497779863748
 20
1215.815351605319
 30
0.0
 11
2127.497779863748
 21
1215.815351605319
 31
0.0
  0
LINE
  5
1D01
330
1F
100
AcDbEntity
  8
AM_VIS
100
AcDbLine
 10
1979.497779863748
 20
1206.315351605319
 30
0.0
 11
1979.997779863747
 21
1205.815351605319
 31
0.0
  0
LINE
  5
1D02
330
1F
100
AcDbEntity
  8
AM_VIS
100
AcDbLine
 10
1979.497779863748
 20
1215.315351605319
 30
0.0
 11
1979.997779863747
 21
1215.815351605319
 31
0.0
  0
LINE
  5
1D03
330
1F
100
AcDbEntity
  8
AM_VIS
100
AcDbLine
 10
1979.997779863747
 20
1157.815351605319
 30
0.0
 11
1979.997779863747
 21
1147.815351605319
 31
0.0
  0
LINE
  5
1D04
330
1F
100
AcDbEntity
  8
AM_VIS
100
AcDbLine
 10
1979.497779863748
 20
1148.315351605319
 30
0.0
 11
1979.497779863748
 21
1157.315351605319
 31
0.0
  0
LINE
  5
1D05
330
1F
100
AcDbEntity
  8
AM_VIS
100
AcDbLine
 10
1979.997779863747
 20
1147.815351605319
 30
0.0
 11
2024.497779863748
 21
1147.815351605319
 31
0.0
  0
LINE
  5
1D06
330
1F
100
AcDbEntity
  8
AM_VIS
100
AcDbLine
 10
2124.497779863748
 20
1147.815351605319
 30
0.0
 11
2127.497779863748
 21
1147.815351605319
 31
0.0
  0
LINE
  5
1D07
330
1F
100
AcDbEntity
  8
AM_VIS
100
AcDbLine
 10
1979.997779863747
 20
1157.815351605319
 30
0.0
 11
2024.497779863748
 21
1157.815351605319
 31
0.0
  0
LINE
  5
1D08
330
1F
100
AcDbEntity
  8
AM_VIS
100
AcDbLine
 10
2124.497779863748
 20
1157.815351605319
 30
0.0
 11
2127.497779863748
 21
1157.815351605319
 31
0.0
  0
LINE
  5
1D09
330
1F
100
AcDbEntity
  8
AM_VIS
100
AcDbLine
 10
1979.497779863748
 20
1148.315351605319
 30
0.0
 11
1979.997779863747
 21
1147.815351605319
 31
0.0
  0
LINE
  5
1D0A
330
1F
100
AcDbEntity
  8
AM_VIS
100
AcDbLine
 10
1979.497779863748
 20
1157.315351605319
 30
0.0
 11
1979.997779863747
 21
1157.815351605319
 31
0.0
  0
LINE
  5
1D0B
330
1F
100
AcDbEntity
  8
AM_VIS
100
AcDbLine
 10
2109.77288571285
 20
1174.309798105854
 30
0.0
 11
2106.222674014646
 21
1174.309798105854
 31
0.0
  0
SPLINE
  5
1D0C
330
1F
100
AcDbEntity
  8
AM_VIS
100
AcDbSpline
210
0.0
220
-0.0000000000000005
230
1.0
 70
    12
 71
     2
 72
     6
 73
     3
 74
     0
 42
0.0000000001
 43
0.0000000001
 40
8.169461582025277
 40
8.169461582025277
 40
8.169461582025277
 40
20.37125551712374
 40
20.37125551712374
 40
20.37125551712374
 10
2109.77288571285
 20
1174.309798105855
 30
0.0
 41
1.528697458380454
 10
2110.856219046183
 20
1176.186186480721
 30
0.0
 41
1.765187778210991
 10
2109.772885712849
 20
1178.062574855586
 30
0.0000000000000018
 41
1.528697458380454
  0
SPLINE
  5
1D0D
330
1F
100
AcDbEntity
  8
AM_VIS
100
AcDbSpline
210
0.0
220
0.0000000000000005
230
1.0
 70
    12
 71
     2
 72
     6
 73
     3
 74
     0
 42
0.0000000001
 43
0.0000000001
 40
8.169461582025268
 40
8.169461582025268
 40
8.169461582025268
 40
20.37125551712374
 40
20.37125551712374
 40
20.37125551712374
 10
2109.772885712849
 20
1178.062574855586
 30
0.0000000000000018
 41
1.528697458380454
 10
2110.856219046183
 20
1181.81535160532
 30
0.0
 41
1.765187778210992
 10
2109.77288571285
 20
1185.568128355052
 30
-0.0000000000000018
 41
1.528697458380454
  0
LINE
  5
1D0E
330
1F
100
AcDbEntity
  8
AM_VIS
100
AcDbLine
 10
2109.77288571285
 20
1178.062574855587
 30
0.0
 11
2106.222674014646
 21
1178.062574855587
 31
0.0
  0
SPLINE
  5
1D0F
330
1F
100
AcDbEntity
  8
AM_VIS
100
AcDbSpline
210
0.0
220
0.0000000000000005
230
1.0
 70
    12
 71
     2
 72
     6
 73
     3
 74
     0
 42
0.0000000001
 43
0.0000000001
 40
8.169461582025279
 40
8.169461582025279
 40
8.169461582025279
 40
20.37125551712373
 40
20.37125551712373
 40
20.37125551712373
 10
2109.77288571285
 20
1185.568128355052
 30
0.0
 41
1.528697458380453
 10
2110.856219046183
 20
1187.444516729918
 30
0.0
 41
1.76518777821099
 10
2109.77288571285
 20
1189.320905104785
 30
-0.0000000000000018
 41
1.528697458380454
  0
LINE
  5
1D10
330
1F
100
AcDbEntity
  8
AM_VIS
100
AcDbLine
 10
2109.77288571285
 20
1185.568128355052
 30
0.0
 11
2106.222674014646
 21
1185.568128355052
 31
0.0
  0
LINE
  5
1D11
330
1F
100
AcDbEntity
  8
AM_VIS
100
AcDbLine
 10
2109.77288571285
 20
1189.320905104785
 30
0.0
 11
2106.222674014646
 21
1189.320905104785
 31
0.0
  0
SPLINE
  5
1D12
330
1F
100
AcDbEntity
  8
AM_VIS
100
AcDbSpline
210
0.0
220
0.0
230
1.0
 70
    12
 71
     2
 72
     6
 73
     3
 74
     0
 42
0.0000000001
 43
0.0000000001
 40
8.744721748699149
 40
8.744721748699149
 40
8.744721748699149
 40
21.33195216874963
 40
21.33195216874963
 40
21.33195216874963
 10
2106.222674014646
 20
1189.320905104784
 30
0.0000000000000018
 41
1.573025222750827
 10
2105.139340681312
 20
1187.444516729917
 30
0.0
 41
1.816373071594703
 10
2106.222674014646
 20
1185.568128355052
 30
0.0000000000000018
 41
1.573025222750827
  0
SPLINE
  5
1D13
330
1F
100
AcDbEntity
  8
AM_VIS
100
AcDbSpline
210
0.0
220
0.0
230
1.0
 70
    12
 71
     2
 72
     6
 73
     3
 74
     0
 42
0.0000000001
 43
0.0000000001
 40
8.744721748699145
 40
8.744721748699145
 40
8.744721748699145
 40
21.33195216874966
 40
21.33195216874966
 40
21.33195216874966
 10
2106.222674014646
 20
1185.568128355052
 30
0.0
 41
1.573025222750828
 10
2105.13934068131
 20
1181.815351605318
 30
0.0000000000000018
 41
1.816373071594705
 10
2106.222674014646
 20
1178.062574855587
 30
0.0
 41
1.573025222750827
  0
SPLINE
  5
1D14
330
1F
100
AcDbEntity
  8
AM_VIS
100
AcDbSpline
210
0.0
220
0.0
230
1.0
 70
    12
 71
     2
 72
     6
 73
     3
 74
     0
 42
0.0000000001
 43
0.0000000001
 40
8.744721748699138
 40
8.744721748699138
 40
8.744721748699138
 40
21.33195216874963
 40
21.33195216874963
 40
21.33195216874963
 10
2106.222674014646
 20
1178.062574855587
 30
0.0
 41
1.573025222750827
 10
2105.139340681312
 20
1176.18618648072
 30
0.0
 41
1.816373071594703
 10
2106.222674014646
 20
1174.309798105854
 30
0.0
 41
1.573025222750827
  0
LINE
  5
1D15
330
1F
100
AcDbEntity
  8
AM_VIS
100
AcDbLine
 10
2110.497779863748
 20
1187.815351605319
 30
0.0
 11
2110.497779863748
 21
1188.065351605319
 31
0.0
  0
LINE
  5
1D16
330
1F
100
AcDbEntity
  8
AM_VIS
100
AcDbLine
 10
2110.497779863748
 20
1180.065351605319
 30
0.0
 11
2110.497779863748
 21
1183.565351605319
 31
0.0
  0
LINE
  5
1D17
330
1F
100
AcDbEntity
  8
AM_VIS
100
AcDbLine
 10
2110.497779863748
 20
1175.565351605319
 30
0.0
 11
2110.497779863748
 21
1175.815351605319
 31
0.0
  0
LINE
  5
1D18
330
1F
100
AcDbEntity
  8
AM_VIS
100
AcDbLine
 10
2105.497779863748
 20
1188.065351605319
 30
0.0
 11
2105.497779863748
 21
1175.565351605319
 31
0.0
  0
LINE
  5
1D19
330
1F
100
AcDbEntity
  8
AM_VIS
100
AcDbLine
 10
2110.497779863748
 20
1188.065351605319
 30
0.0
 11
2109.77288571285
 21
1189.320905104784
 31
0.0
  0
LINE
  5
1D1A
330
1F
100
AcDbEntity
  8
AM_VIS
100
AcDbLine
 10
2110.497779863748
 20
1175.565351605319
 30
0.0
 11
2109.77288571285
 21
1174.309798105854
 31
0.0
  0
LINE
  5
1D1B
330
1F
100
AcDbEntity
  8
AM_VIS
100
AcDbLine
 10
2105.497779863748
 20
1175.565351605319
 30
0.0
 11
2106.222674014646
 21
1174.309798105854
 31
0.0
  0
LINE
  5
1D1C
330
1F
100
AcDbEntity
  8
AM_VIS
100
AcDbLine
 10
2105.497779863748
 20
1188.065351605319
 30
0.0
 11
2106.222674014646
 21
1189.320905104785
 31
0.0
  0
LINE
  5
1D1D
330
1F
100
AcDbEntity
  8
AM_VIS
100
AcDbLine
 10
2056.897779863748
 20
1171.215351605319
 30
0.0
 11
2056.897779863748
 21
1192.415351605319
 31
0.0
  0
LINE
  5
1D1E
330
1F
100
AcDbEntity
  8
AM_VIS
100
AcDbLine
 10
1999.097779863747
 20
1192.415351605319
 30
0.0
 11
1999.097779863747
 21
1171.215351605319
 31
0.0
  0
LINE
  5
1D1F
330
1F
100
AcDbEntity
  8
AM_VIS
100
AcDbLine
 10
2056.997779863748
 20
1192.315351605319
 30
0.0
 11
2056.897779863748
 21
1192.415351605319
 31
0.0
  0
LINE
  5
1D20
330
1F
100
AcDbEntity
  8
AM_VIS
100
AcDbLine
 10
2056.997779863748
 20
1171.315351605319
 30
0.0
 11
2056.897779863748
 21
1171.215351605319
 31
0.0
  0
LINE
  5
1D21
330
1F
100
AcDbEntity
  8
AM_VIS
100
AcDbLine
 10
1999.097779863747
 20
1171.215351605319
 30
0.0
 11
2056.897779863748
 21
1171.215351605319
 31
0.0
  0
LINE
  5
1D22
330
1F
100
AcDbEntity
  8
AM_VIS
100
AcDbLine
 10
1999.097779863747
 20
1192.415351605319
 30
0.0
 11
2056.897779863748
 21
1192.415351605319
 31
0.0
  0
LINE
  5
1D23
330
1F
100
AcDbEntity
  8
AM_VIS
100
AcDbLine
 10
1998.997779863748
 20
1171.315351605319
 30
0.0
 11
1999.097779863747
 21
1171.215351605319
 31
0.0
  0
LINE
  5
1D24
330
1F
100
AcDbEntity
  8
AM_VIS
100
AcDbLine
 10
1998.997779863748
 20
1192.315351605319
 30
0.0
 11
1999.097779863747
 21
1192.415351605319
 31
0.0
  0
LINE
  5
1D25
330
1F
100
AcDbEntity
  8
AM_VIS
100
AcDbLine
 10
1996.497779863748
 20
1188.815351605319
 30
0.0
 11
1981.497779863748
 21
1188.815351605319
 31
0.0
  0
LINE
  5
1D26
330
1F
100
AcDbEntity
  8
AM_VIS
100
AcDbLine
 10
1996.497779863748
 20
1188.815351605319
 30
0.0
 11
1996.497779863748
 21
1188.515351605319
 31
0.0
  0
LINE
  5
1D27
330
1F
100
AcDbEntity
  8
AM_VIS
100
AcDbLine
 10
1996.497779863748
 20
1175.115351605319
 30
0.0
 11
1996.497779863748
 21
1174.815351605319
 31
0.0
  0
LINE
  5
1D28
330
1F
100
AcDbEntity
  8
AM_VIS
100
AcDbLine
 10
1996.497779863748
 20
1166.965351605319
 30
0.0
 11
1996.497779863748
 21
1174.559651279587
 31
0.0
  0
LINE
  5
1D29
330
1F
100
AcDbEntity
  8
AM_VIS
100
AcDbLine
 10
1996.497779863748
 20
1189.071051931052
 30
0.0
 11
1996.497779863748
 21
1196.665351605319
 31
0.0
  0
LINE
  5
1D2A
330
1F
100
AcDbEntity
  8
AM_VIS
100
AcDbLine
 10
1996.497779863748
 20
1188.815351605319
 30
0.0
 11
1996.497779863748
 21
1189.071051931052
 31
0.0
  0
LINE
  5
1D2B
330
1F
100
AcDbEntity
  8
AM_VIS
100
AcDbLine
 10
1981.497779863748
 20
1174.815351605319
 30
0.0
 11
1996.497779863748
 21
1174.815351605319
 31
0.0
  0
LINE
  5
1D2C
330
1F
100
AcDbEntity
  8
AM_VIS
100
AcDbLine
 10
1996.497779863748
 20
1174.559651279587
 30
0.0
 11
1996.497779863748
 21
1174.815351605319
 31
0.0
  0
LINE
  5
1D2D
330
1F
100
AcDbEntity
  8
AM_VIS
100
AcDbLine
 10
1998.997779863748
 20
1192.715351605319
 30
0.0
 11
1998.997779863748
 21
1170.915351605319
 31
0.0
  0
LINE
  5
1D2E
330
1F
100
AcDbEntity
  8
AM_VIS
100
AcDbLine
 10
1990.497779863748
 20
1189.815351605319
 30
0.0
 11
1990.497779863748
 21
1196.665351605319
 31
0.0
  0
LINE
  5
1D2F
330
1F
100
AcDbEntity
  8
AM_VIS
100
AcDbLine
 10
1981.497779863748
 20
1189.071051931052
 30
0.0
 11
1981.497779863748
 21
1189.815351605319
 31
0.0
  0
LINE
  5
1D30
330
1F
100
AcDbEntity
  8
AM_VIS
100
AcDbLine
 10
1981.497779863748
 20
1189.071051931052
 30
0.0
 11
1981.497779863748
 21
1188.815351605319
 31
0.0
  0
LINE
  5
1D31
330
1F
100
AcDbEntity
  8
AM_VIS
100
AcDbLine
 10
1981.497779863748
 20
1188.515351605319
 30
0.0
 11
1981.497779863748
 21
1188.815351605319
 31
0.0
  0
LINE
  5
1D32
330
1F
100
AcDbEntity
  8
AM_VIS
100
AcDbLine
 10
1981.497779863748
 20
1174.815351605319
 30
0.0
 11
1981.497779863748
 21
1175.115351605319
 31
0.0
  0
LINE
  5
1D33
330
1F
100
AcDbEntity
  8
AM_VIS
100
AcDbLine
 10
1981.497779863748
 20
1174.815351605319
 30
0.0
 11
1981.497779863748
 21
1174.559651279587
 31
0.0
  0
LINE
  5
1D34
330
1F
100
AcDbEntity
  8
AM_VIS
100
AcDbLine
 10
1981.497779863748
 20
1173.815351605319
 30
0.0
 11
1981.497779863748
 21
1174.559651279587
 31
0.0
  0
LINE
  5
1D35
330
1F
100
AcDbEntity
  8
AM_VIS
100
AcDbLine
 10
1961.497779863748
 20
1173.815351605319
 30
0.0
 11
1961.497779863748
 21
1189.815351605319
 31
0.0
  0
LINE
  5
1D36
330
1F
100
AcDbEntity
  8
AM_VIS
100
AcDbLine
 10
1990.497779863748
 20
1166.965351605319
 30
0.0
 11
1990.497779863748
 21
1173.815351605319
 31
0.0
  0
LINE
  5
1D37
330
1F
100
AcDbEntity
  8
AM_VIS
100
AcDbLine
 10
1981.497779863748
 20
1189.815351605319
 30
0.0
 11
1962.997779863748
 21
1189.815351605319
 31
0.0
  0
LINE
  5
1D38
330
1F
100
AcDbEntity
  8
AM_VIS
100
AcDbLine
 10
1961.497779863748
 20
1189.815351605319
 30
0.0
 11
1962.997779863748
 21
1189.815351605319
 31
0.0
  0
LINE
  5
1D39
330
1F
100
AcDbEntity
  8
AM_VIS
100
AcDbLine
 10
1990.497779863748
 20
1189.815351605319
 30
0.0
 11
1981.497779863748
 21
1189.815351605319
 31
0.0
  0
LINE
  5
1D3A
330
1F
100
AcDbEntity
  8
AM_VIS
100
AcDbLine
 10
1961.497779863748
 20
1173.815351605319
 30
0.0
 11
1962.997779863748
 21
1173.815351605319
 31
0.0
  0
LINE
  5
1D3B
330
1F
100
AcDbEntity
  8
AM_VIS
100
AcDbLine
 10
1962.997779863748
 20
1173.815351605319
 30
0.0
 11
1981.497779863748
 21
1173.815351605319
 31
0.0
  0
LINE
  5
1D3C
330
1F
100
AcDbEntity
  8
AM_VIS
100
AcDbLine
 10
1981.497779863748
 20
1173.815351605319
 30
0.0
 11
1990.497779863748
 21
1173.815351605319
 31
0.0
  0
LINE
  5
1D3D
330
1F
100
AcDbEntity
  8
AM_VIS
100
AcDbLine
 10
1981.497779863748
 20
1188.515351605319
 30
0.0
 11
1981.497779863748
 21
1175.115351605319
 31
0.0
  0
LINE
  5
1D3E
330
1F
100
AcDbEntity
  8
AM_VIS
100
AcDbLine
 10
1996.497779863748
 20
1188.515351605319
 30
0.0
 11
1996.497779863748
 21
1175.115351605319
 31
0.0
  0
LINE
  5
1D4D
330
1F
100
AcDbEntity
  8
AM_VIS
100
AcDbLine
 10
1996.497779863748
 20
1196.665351605319
 30
0.0
 11
1990.497779863748
 21
1196.665351605319
 31
0.0
  0
LINE
  5
1D4E
330
1F
100
AcDbEntity
  8
AM_VIS
100
AcDbLine
 10
1996.497779863748
 20
1166.965351605319
 30
0.0
 11
1990.497779863748
 21
1166.965351605319
 31
0.0
  0
LINE
  5
1D4F
330
1F
100
AcDbEntity
  8
AM_VIS
100
AcDbLine
 10
1996.497779863748
 20
1170.915351605319
 30
0.0
 11
1998.997779863748
 21
1170.915351605319
 31
0.0
  0
LINE
  5
1D50
330
1F
100
AcDbEntity
  8
AM_VIS
100
AcDbLine
 10
1996.497779863748
 20
1192.715351605319
 30
0.0
 11
1998.997779863748
 21
1192.715351605319
 31
0.0
  0
LINE
  5
1D51
330
1F
100
AcDbEntity
  8
AM_VIS
100
AcDbLine
 10
2098.497779863748
 20
1185.715351605319
 30
0.0
 11
2098.497779863748
 21
1183.535816658728
 31
0.0
  0
LINE
  5
1D52
330
1F
100
AcDbEntity
  8
AM_VIS
100
AcDbLine
 10
2098.497779863748
 20
1183.535816658728
 30
0.0
 11
2098.497779863748
 21
1180.094886551911
 31
0.0
  0
LINE
  5
1D53
330
1F
100
AcDbEntity
  8
AM_VIS
100
AcDbLine
 10
2098.398396815218
 20
1183.752129007093
 30
0.0
 11
2098.498436655699
 21
1183.536120838716
 31
0.0
  0
LINE
  5
1D54
330
1F
100
AcDbEntity
  8
AM_VIS
100
AcDbLine
 10
2098.398396815218
 20
1179.878574203546
 30
0.0
 11
2098.498436655699
 21
1180.094582371923
 31
0.0
  0
LINE
  5
1D55
330
1F
100
AcDbEntity
  8
AM_VIS
100
AcDbLine
 10
2098.497779863748
 20
1180.094886551911
 30
0.0
 11
2098.497779863748
 21
1177.915351605319
 31
0.0
  0
LINE
  5
1D56
330
1F
100
AcDbEntity
  8
AM_VIS
100
AcDbLine
 10
2098.397779863748
 20
1183.751843278423
 30
0.0
 11
2098.397779863748
 21
1185.815351605319
 31
0.0
  0
LINE
  5
1D57
330
1F
100
AcDbEntity
  8
AM_VIS
100
AcDbLine
 10
2097.497779863748
 20
1183.751843278423
 30
0.0
 11
2098.397779863748
 21
1183.751843278423
 31
0.0
  0
LINE
  5
1D58
330
1F
100
AcDbEntity
  8
AM_VIS
100
AcDbLine
 10
2098.397779863748
 20
1179.878859932216
 30
0.0
 11
2097.497779863748
 21
1179.878859932216
 31
0.0
  0
LINE
  5
1D59
330
1F
100
AcDbEntity
  8
AM_VIS
100
AcDbLine
 10
2098.397779863748
 20
1177.815351605319
 30
0.0
 11
2098.397779863748
 21
1179.878859932216
 31
0.0
  0
LINE
  5
1D5A
330
1F
100
AcDbEntity
  8
AM_VIS
100
AcDbLine
 10
2098.497779863748
 20
1185.715351605319
 30
0.0
 11
2098.397779863748
 21
1185.815351605319
 31
0.0
  0
LINE
  5
1D5B
330
1F
100
AcDbEntity
  8
AM_VIS
100
AcDbLine
 10
2098.497779863748
 20
1177.915351605319
 30
0.0
 11
2105.497779863748
 21
1177.915351605319
 31
0.0
  0
LINE
  5
1D5C
330
1F
100
AcDbEntity
  8
AM_VIS
100
AcDbLine
 10
2098.497779863748
 20
1185.715351605319
 30
0.0
 11
2105.497779863748
 21
1185.715351605319
 31
0.0
  0
LINE
  5
1D5D
330
1F
100
AcDbEntity
  8
AM_VIS
100
AcDbLine
 10
2098.497779863748
 20
1177.915351605319
 30
0.0
 11
2098.397779863748
 21
1177.815351605319
 31
0.0
  0
LINE
  5
1D5E
330
1F
100
AcDbEntity
  8
AM_VIS
100
AcDbLine
 10
2097.497779863748
 20
1177.815351605319
 30
0.0
 11
2098.397779863748
 21
1177.815351605319
 31
0.0
  0
LINE
  5
1D5F
330
1F
100
AcDbEntity
  8
AM_VIS
100
AcDbLine
 10
2097.497779863748
 20
1185.815351605319
 30
0.0
 11
2098.397779863748
 21
1185.815351605319
 31
0.0
  0
LINE
  5
1D60
330
1F
100
AcDbEntity
  8
AM_VIS
100
AcDbLine
 10
2056.997779863748
 20
1170.915351605319
 30
0.0
 11
2056.997779863748
 21
1192.715351605319
 31
0.0
  0
LINE
  5
1D69
330
1F
100
AcDbEntity
  8
AM_VIS
100
AcDbLine
 10
2059.497779863748
 20
1189.071051931052
 30
0.0
 11
2059.497779863748
 21
1188.815351605319
 31
0.0
  0
LINE
  5
1D6A
330
1F
100
AcDbEntity
  8
AM_VIS
100
AcDbLine
 10
2059.497779863748
 20
1174.815351605319
 30
0.0
 11
2059.497779863748
 21
1174.559651279587
 31
0.0
  0
LINE
  5
1D6B
330
1F
100
AcDbEntity
  8
AM_VIS
100
AcDbLine
 10
2074.497779863748
 20
1188.815351605319
 30
0.0
 11
2059.497779863748
 21
1188.815351605319
 31
0.0
  0
LINE
  5
1D6C
330
1F
100
AcDbEntity
  8
AM_VIS
100
AcDbLine
 10
2059.497779863748
 20
1188.515351605319
 30
0.0
 11
2059.497779863748
 21
1188.815351605319
 31
0.0
  0
LINE
  5
1D6E
330
1F
100
AcDbEntity
  8
AM_VIS
100
AcDbLine
 10
2059.497779863748
 20
1188.515351605319
 30
0.0
 11
2059.497779863748
 21
1175.115351605319
 31
0.0
  0
LINE
  5
1D6F
330
1F
100
AcDbEntity
  8
AM_VIS
100
AcDbLine
 10
2059.497779863748
 20
1174.815351605319
 30
0.0
 11
2074.497779863748
 21
1174.815351605319
 31
0.0
  0
LINE
  5
1D70
330
1F
100
AcDbEntity
  8
AM_VIS
100
AcDbLine
 10
2059.497779863748
 20
1174.815351605319
 30
0.0
 11
2059.497779863748
 21
1175.115351605319
 31
0.0
  0
LINE
  5
1D76
330
1F
100
AcDbEntity
  8
AM_VIS
100
AcDbLine
 10
2059.497779863748
 20
1166.965351605319
 30
0.0
 11
2059.497779863748
 21
1174.559651279587
 31
0.0
  0
LINE
  5
1D77
330
1F
100
AcDbEntity
  8
AM_VIS
100
AcDbLine
 10
2059.497779863748
 20
1189.071051931052
 30
0.0
 11
2059.497779863748
 21
1196.665351605319
 31
0.0
  0
LINE
  5
1D79
330
1F
100
AcDbEntity
  8
AM_VIS
100
AcDbLine
 10
2059.497779863748
 20
1192.715351605319
 30
0.0
 11
2056.997779863748
 21
1192.715351605319
 31
0.0
  0
LINE
  5
1D7A
330
1F
100
AcDbEntity
  8
AM_VIS
100
AcDbLine
 10
2059.497779863748
 20
1170.915351605319
 30
0.0
 11
2056.997779863748
 21
1170.915351605319
 31
0.0
  0
LINE
  5
1D7B
330
1F
100
AcDbEntity
  8
AM_VIS
100
AcDbLine
 10
2059.497779863748
 20
1166.965351605319
 30
0.0
 11
2074.497779863748
 21
1166.965351605319
 31
0.0
  0
LINE
  5
1D7C
330
1F
100
AcDbEntity
  8
AM_VIS
100
AcDbLine
 10
2059.497779863748
 20
1196.665351605319
 30
0.0
 11
2074.497779863748
 21
1196.665351605319
 31
0.0
  0
LINE
  5
1D81
330
1F
100
AcDbEntity
  8
AM_VIS
100
AcDbLine
 10
2192.30668196508
 20
1220.815351605319
 30
0.0
 11
2226.30668196508
 21
1220.815351605319
 31
0.0
  0
LINE
  5
1D82
330
1F
100
AcDbEntity
  8
AM_VIS
100
AcDbLine
 10
2226.30668196508
 20
1220.815351605319
 30
0.0
 11
2226.30668196508
 21
1142.815351605319
 31
0.0
  0
LINE
  5
1D83
330
1F
100
AcDbEntity
  8
AM_VIS
100
AcDbLine
 10
2226.30668196508
 20
1142.815351605319
 30
0.0
 11
2192.30668196508
 21
1142.815351605319
 31
0.0
  0
LINE
  5
1D84
330
1F
100
AcDbEntity
  8
AM_VIS
100
AcDbLine
 10
2192.30668196508
 20
1142.815351605319
 30
0.0
 11
2192.30668196508
 21
1220.815351605319
 31
0.0
  0
CIRCLE
  5
1D89
330
1F
100
AcDbEntity
  8
AM_VIS
100
AcDbCircle
 10
2209.306681965081
 20
1181.815351605319
 30
0.0
 40
2.576499999999999
  0
CIRCLE
  5
1D8C
330
1F
100
AcDbEntity
  8
AM_VIS
100
AcDbCircle
 10
2209.306681965081
 20
1194.815351605319
 30
0.0
 40
4.75
  0
CIRCLE
  5
1D8D
330
1F
100
AcDbEntity
  8
AM_VIS
100
AcDbCircle
 10
2209.306681965081
 20
1168.815351605319
 30
0.0
 40
4.75
  0
CIRCLE
  5
1D92
330
1F
100
AcDbEntity
  8
AM_VIS
100
AcDbCircle
 10
2209.306681965081
 20
1210.815351605319
 30
0.0
 40
4.75
  0
CIRCLE
  5
1D93
330
1F
100
AcDbEntity
  8
AM_VIS
100
AcDbCircle
 10
2209.306681965081
 20
1152.815351605319
 30
0.0
 40
4.75
  0
LINE
  5
1D94
330
1F
100
AcDbEntity
  8
AM_VIS
100
AcDbLine
 10
2228.30668196508
 20
1141.065351605319
 30
0.0
 11
2228.30668196508
 21
1164.815351605319
 31
0.0
  0
LINE
  5
1D95
330
1F
100
AcDbEntity
  8
AM_VIS
100
AcDbLine
 10
2190.30668196508
 20
1164.815351605319
 30
0.0
 11
2190.30668196508
 21
1141.065351605319
 31
0.0
  0
LINE
  5
1D96
330
1F
100
AcDbEntity
  8
AM_VIS
100
AcDbLine
 10
2228.30668196508
 20
1164.815351605319
 30
0.0
 11
2226.30668196508
 21
1164.815351605319
 31
0.0
  0
LINE
  5
1D97
330
1F
100
AcDbEntity
  8
AM_VIS
100
AcDbLine
 10
2192.30668196508
 20
1164.815351605319
 30
0.0
 11
2190.30668196508
 21
1164.815351605319
 31
0.0
  0
LINE
  5
1D98
330
1F
100
AcDbEntity
  8
AM_VIS
100
AcDbLine
 10
2228.30668196508
 20
1164.815351605319
 30
0.0
 11
2228.30668196508
 21
1198.815351605319
 31
0.0
  0
LINE
  5
1D99
330
1F
100
AcDbEntity
  8
AM_VIS
100
AcDbLine
 10
2190.30668196508
 20
1198.815351605319
 30
0.0
 11
2190.30668196508
 21
1164.815351605319
 31
0.0
  0
LINE
  5
1D9A
330
1F
100
AcDbEntity
  8
AM_VIS
100
AcDbLine
 10
2228.30668196508
 20
1198.815351605319
 30
0.0
 11
2228.30668196508
 21
1222.565351605319
 31
0.0
  0
LINE
  5
1D9B
330
1F
100
AcDbEntity
  8
AM_VIS
100
AcDbLine
 10
2228.30668196508
 20
1198.815351605319
 30
0.0
 11
2226.30668196508
 21
1198.815351605319
 31
0.0
  0
LINE
  5
1D9C
330
1F
100
AcDbEntity
  8
AM_VIS
100
AcDbLine
 10
2192.30668196508
 20
1198.815351605319
 30
0.0
 11
2190.30668196508
 21
1198.815351605319
 31
0.0
  0
LINE
  5
1D9D
330
1F
100
AcDbEntity
  8
AM_VIS
100
AcDbLine
 10
2190.30668196508
 20
1222.565351605319
 30
0.0
 11
2190.30668196508
 21
1198.815351605319
 31
0.0
  0
LINE
  5
1D9E
330
1F
100
AcDbEntity
  8
AM_VIS
100
AcDbLine
 10
2228.30668196508
 20
1141.065351605319
 30
0.0
 11
2190.30668196508
 21
1141.065351605319
 31
0.0
  0
LINE
  5
1D9F
330
1F
100
AcDbEntity
  8
AM_VIS
100
AcDbLine
 10
2228.30668196508
 20
1222.565351605319
 30
0.0
 11
2190.30668196508
 21
1222.565351605319
 31
0.0
  0
LINE
  5
1DA0
330
1F
100
AcDbEntity
  8
AM_VIS
100
AcDbLine
 10
2228.30668196508
 20
1140.815351605319
 30
0.0
 11
2228.30668196508
 21
1141.065351605319
 31
0.0
  0
LINE
  5
1DA1
330
1F
100
AcDbEntity
  8
AM_VIS
100
AcDbLine
 10
2190.30668196508
 20
1141.065351605319
 30
0.0
 11
2190.30668196508
 21
1140.815351605319
 31
0.0
  0
LINE
  5
1DA2
330
1F
100
AcDbEntity
  8
AM_VIS
100
AcDbLine
 10
2228.30668196508
 20
1222.565351605319
 30
0.0
 11
2228.30668196508
 21
1222.815351605319
 31
0.0
  0
LINE
  5
1DA3
330
1F
100
AcDbEntity
  8
AM_VIS
100
AcDbLine
 10
2190.30668196508
 20
1222.815351605319
 30
0.0
 11
2190.30668196508
 21
1222.565351605319
 31
0.0
  0
LINE
  5
1DA4
330
1F
100
AcDbEntity
  8
AM_VIS
100
AcDbLine
 10
2228.30668196508
 20
1140.815351605319
 30
0.0
 11
2190.30668196508
 21
1140.815351605319
 31
0.0
  0
LINE
  5
1DA5
330
1F
100
AcDbEntity
  8
AM_VIS
100
AcDbLine
 10
2228.30668196508
 20
1222.815351605319
 30
0.0
 11
2190.30668196508
 21
1222.815351605319
 31
0.0
  0
LINE
  5
1DAE
330
1F
100
AcDbEntity
  8
AM_VIS
100
AcDbLine
 10
2207.271522266187
 20
1167.640351605319
 30
0.0
 11
2207.271522266187
 21
1169.990351605319
 31
0.0
  0
LINE
  5
1DAF
330
1F
100
AcDbEntity
  8
AM_VIS
100
AcDbLine
 10
2209.306681965081
 20
1166.465351605319
 30
0.0
 11
2207.271522266187
 21
1167.640351605319
 31
0.0
  0
LINE
  5
1DB0
330
1F
100
AcDbEntity
  8
AM_VIS
100
AcDbLine
 10
2211.341841663974
 20
1167.640351605319
 30
0.0
 11
2209.306681965081
 21
1166.465351605319
 31
0.0
  0
LINE
  5
1DB1
330
1F
100
AcDbEntity
  8
AM_VIS
100
AcDbLine
 10
2211.341841663974
 20
1169.990351605319
 30
0.0
 11
2211.341841663974
 21
1167.640351605319
 31
0.0
  0
LINE
  5
1DB2
330
1F
100
AcDbEntity
  8
AM_VIS
100
AcDbLine
 10
2209.306681965081
 20
1171.165351605319
 30
0.0
 11
2211.341841663974
 21
1169.990351605319
 31
0.0
  0
LINE
  5
1DB3
330
1F
100
AcDbEntity
  8
AM_VIS
100
AcDbLine
 10
2207.271522266187
 20
1169.990351605319
 30
0.0
 11
2209.306681965081
 21
1171.165351605319
 31
0.0
  0
CIRCLE
  5
1DB4
330
1F
100
AcDbEntity
  8
AM_VIS
100
AcDbCircle
 10
2209.306681965081
 20
1168.815351605319
 30
0.0
 40
4.25
  0
CIRCLE
  5
1DB5
330
1F
100
AcDbEntity
  8
AM_VIS
100
AcDbCircle
 10
2209.306681965081
 20
1168.815351605319
 30
0.0
 40
4.076794919243112
  0
LINE
  5
1DB6
330
1F
100
AcDbEntity
  8
AM_VIS
100
AcDbLine
 10
2207.271522266187
 20
1193.640351605319
 30
0.0
 11
2207.271522266187
 21
1195.990351605319
 31
0.0
  0
LINE
  5
1DB7
330
1F
100
AcDbEntity
  8
AM_VIS
100
AcDbLine
 10
2209.306681965081
 20
1192.465351605319
 30
0.0
 11
2207.271522266187
 21
1193.640351605319
 31
0.0
  0
LINE
  5
1DB8
330
1F
100
AcDbEntity
  8
AM_VIS
100
AcDbLine
 10
2211.341841663974
 20
1193.640351605319
 30
0.0
 11
2209.306681965081
 21
1192.465351605319
 31
0.0
  0
LINE
  5
1DB9
330
1F
100
AcDbEntity
  8
AM_VIS
100
AcDbLine
 10
2211.341841663974
 20
1195.990351605319
 30
0.0
 11
2211.341841663974
 21
1193.640351605319
 31
0.0
  0
LINE
  5
1DBA
330
1F
100
AcDbEntity
  8
AM_VIS
100
AcDbLine
 10
2209.306681965081
 20
1197.165351605319
 30
0.0
 11
2211.341841663974
 21
1195.990351605319
 31
0.0
  0
LINE
  5
1DBB
330
1F
100
AcDbEntity
  8
AM_VIS
100
AcDbLine
 10
2207.271522266187
 20
1195.990351605319
 30
0.0
 11
2209.306681965081
 21
1197.165351605319
 31
0.0
  0
CIRCLE
  5
1DBC
330
1F
100
AcDbEntity
  8
AM_VIS
100
AcDbCircle
 10
2209.306681965081
 20
1194.815351605319
 30
0.0
 40
4.25
  0
CIRCLE
  5
1DBD
330
1F
100
AcDbEntity
  8
AM_VIS
100
AcDbCircle
 10
2209.306681965081
 20
1194.815351605319
 30
0.0
 40
4.076794919243112
  0
CIRCLE
  5
1DBE
330
1F
100
AcDbEntity
  8
AM_VIS
100
AcDbCircle
 10
2209.306681965081
 20
1152.815351605319
 30
0.0
 40
4.25
  0
CIRCLE
  5
1DBF
330
1F
100
AcDbEntity
  8
AM_VIS
100
AcDbCircle
 10
2209.306681965081
 20
1152.815351605319
 30
0.0
 40
4.076794919243112
  0
LINE
  5
1DC0
330
1F
100
AcDbEntity
  8
AM_VIS
100
AcDbLine
 10
2211.656681964122
 20
1152.815351604489
 30
0.0
 11
2210.481681964122
 21
1150.780191904489
 31
0.0
  0
LINE
  5
1DC1
330
1F
100
AcDbEntity
  8
AM_VIS
100
AcDbLine
 10
2210.481681964122
 20
1150.780191904489
 30
0.0
 11
2208.131681964122
 21
1150.780191904489
 31
0.0
  0
LINE
  5
1DC2
330
1F
100
AcDbEntity
  8
AM_VIS
100
AcDbLine
 10
2208.131681964122
 20
1150.780191904489
 30
0.0
 11
2206.956681965081
 21
1152.815351604489
 31
0.0
  0
LINE
  5
1DC3
330
1F
100
AcDbEntity
  8
AM_VIS
100
AcDbLine
 10
2206.956681965081
 20
1152.815351604489
 30
0.0
 11
2208.13168196508
 21
1154.85051130449
 31
0.0
  0
LINE
  5
1DC4
330
1F
100
AcDbEntity
  8
AM_VIS
100
AcDbLine
 10
2208.13168196508
 20
1154.85051130449
 30
0.0
 11
2210.48168196508
 21
1154.85051130449
 31
0.0
  0
LINE
  5
1DC5
330
1F
100
AcDbEntity
  8
AM_VIS
100
AcDbLine
 10
2210.48168196508
 20
1154.85051130449
 30
0.0
 11
2211.656681964122
 21
1152.815351604489
 31
0.0
  0
CIRCLE
  5
1DC6
330
1F
100
AcDbEntity
  8
AM_VIS
100
AcDbCircle
 10
2209.306681965081
 20
1210.815351605319
 30
0.0
 40
4.25
  0
CIRCLE
  5
1DC7
330
1F
100
AcDbEntity
  8
AM_VIS
100
AcDbCircle
 10
2209.306681965081
 20
1210.815351605319
 30
0.0
 40
4.076794919243112
  0
LINE
  5
1DC8
330
1F
100
AcDbEntity
  8
AM_VIS
100
AcDbLine
 10
2211.656681964122
 20
1210.815351604489
 30
0.0
 11
2210.481681964122
 21
1208.780191904489
 31
0.0
  0
LINE
  5
1DC9
330
1F
100
AcDbEntity
  8
AM_VIS
100
AcDbLine
 10
2210.481681964122
 20
1208.780191904489
 30
0.0
 11
2208.131681964122
 21
1208.780191904489
 31
0.0
  0
LINE
  5
1DCA
330
1F
100
AcDbEntity
  8
AM_VIS
100
AcDbLine
 10
2208.131681964122
 20
1208.780191904489
 30
0.0
 11
2206.956681965081
 21
1210.815351604489
 31
0.0
  0
LINE
  5
1DCB
330
1F
100
AcDbEntity
  8
AM_VIS
100
AcDbLine
 10
2206.956681965081
 20
1210.815351604489
 30
0.0
 11
2208.13168196508
 21
1212.850511304489
 31
0.0
  0
LINE
  5
1DCC
330
1F
100
AcDbEntity
  8
AM_VIS
100
AcDbLine
 10
2208.13168196508
 20
1212.85051130449
 30
0.0
 11
2210.48168196508
 21
1212.85051130449
 31
0.0
  0
LINE
  5
1DCD
330
1F
100
AcDbEntity
  8
AM_VIS
100
AcDbLine
 10
2210.48168196508
 20
1212.85051130449
 30
0.0
 11
2211.656681964122
 21
1210.815351604489
 31
0.0
  0
LINE
  5
1DCE
330
1F
100
AcDbEntity
  8
AM_VIS
100
AcDbLine
 10
2124.497779863748
 20
1289.378332034311
 30
0.0
 11
2127.497779863748
 21
1289.378332034311
 31
0.0
  0
LINE
  5
1DCF
330
1F
100
AcDbEntity
  8
AM_VIS
100
AcDbLine
 10
2124.497779863748
 20
1322.378332034311
 30
0.0
 11
2127.497779863748
 21
1322.378332034311
 31
0.0
  0
LINE
  5
1DD0
330
1F
100
AcDbEntity
  8
AM_VIS
100
AcDbLine
 10
2139.497779863748
 20
1288.878332034311
 30
0.0
 11
2139.497779863748
 21
1322.878332034311
 31
0.0
  0
LINE
  5
1DD1
330
1F
100
AcDbEntity
  8
AM_VIS
100
AcDbLine
 10
2127.497779863748
 20
1322.878332034311
 30
0.0
 11
2127.497779863748
 21
1288.878332034311
 31
0.0
  0
LINE
  5
1DD2
330
1F
100
AcDbEntity
  8
AM_VIS
100
AcDbLine
 10
2139.497779863748
 20
1322.878332034311
 30
0.0
 11
2127.497779863748
 21
1322.878332034311
 31
0.0
  0
LINE
  5
1DD3
330
1F
100
AcDbEntity
  8
AM_VIS
100
AcDbLine
 10
2139.497779863748
 20
1288.878332034311
 30
0.0
 11
2127.497779863748
 21
1288.878332034311
 31
0.0
  0
LINE
  5
1DD4
330
1F
100
AcDbEntity
  8
AM_VIS
100
AcDbLine
 10
2124.497779863748
 20
1324.878332034311
 30
0.0
 11
2098.497779863748
 21
1324.878332034311
 31
0.0
  0
LINE
  5
1DD5
330
1F
100
AcDbEntity
  8
AM_VIS
100
AcDbLine
 10
2124.497779863748
 20
1324.878332034311
 30
0.0
 11
2124.497779863748
 21
1286.878332034311
 31
0.0
  0
LINE
  5
1DD6
330
1F
100
AcDbEntity
  8
AM_VIS
100
AcDbLine
 10
2098.497779863748
 20
1286.878332034311
 30
0.0
 11
2124.497779863748
 21
1286.878332034311
 31
0.0
  0
LINE
  5
1DD7
330
1F
100
AcDbEntity
  8
AM_VIS
100
AcDbLine
 10
2024.497779863748
 20
1286.878332034311
 30
0.0
 11
2050.497779863748
 21
1286.878332034311
 31
0.0
  0
LINE
  5
1DD8
330
1F
100
AcDbEntity
  8
AM_VIS
100
AcDbLine
 10
2024.497779863748
 20
1324.878332034311
 30
0.0
 11
2024.497779863748
 21
1286.878332034311
 31
0.0
  0
LINE
  5
1DD9
330
1F
100
AcDbEntity
  8
AM_VIS
100
AcDbLine
 10
2050.497779863748
 20
1324.878332034311
 30
0.0
 11
2024.497779863748
 21
1324.878332034311
 31
0.0
  0
LINE
  5
1DDE
330
1F
100
AcDbEntity
  8
AM_VIS
100
AcDbLine
 10
2050.497779863748
 20
1324.878332034311
 30
0.0
 11
2050.497779863748
 21
1286.878332034311
 31
0.0
  0
LINE
  5
1DDF
330
1F
100
AcDbEntity
  8
AM_VIS
100
AcDbLine
 10
2098.497779863748
 20
1324.878332034311
 30
0.0
 11
2050.497779863748
 21
1324.878332034311
 31
0.0
  0
LINE
  5
1DE0
330
1F
100
AcDbEntity
  8
AM_VIS
100
AcDbLine
 10
2098.497779863748
 20
1324.878332034311
 30
0.0
 11
2098.497779863748
 21
1286.878332034311
 31
0.0
  0
LINE
  5
1DE1
330
1F
100
AcDbEntity
  8
AM_VIS
100
AcDbLine
 10
2050.497779863748
 20
1286.878332034311
 30
0.0
 11
2098.497779863748
 21
1286.878332034311
 31
0.0
  0
LINE
  5
1DE6
330
1F
100
AcDbEntity
  8
AM_VIS
100
AcDbLine
 10
1979.997779863747
 20
1310.878332034311
 30
0.0
 11
1979.997779863747
 21
1300.878332034311
 31
0.0
  0
LINE
  5
1DE7
330
1F
100
AcDbEntity
  8
AM_VIS
100
AcDbLine
 10
1979.497779863748
 20
1301.378332034311
 30
0.0
 11
1979.497779863748
 21
1310.378332034311
 31
0.0
  0
LINE
  5
1DE8
330
1F
100
AcDbEntity
  8
AM_VIS
100
AcDbLine
 10
1979.997779863747
 20
1300.878332034311
 30
0.0
 11
2024.497779863748
 21
1300.878332034311
 31
0.0
  0
LINE
  5
1DE9
330
1F
100
AcDbEntity
  8
AM_VIS
100
AcDbLine
 10
2124.497779863748
 20
1300.878332034311
 30
0.0
 11
2127.497779863748
 21
1300.878332034311
 31
0.0
  0
LINE
  5
1DEA
330
1F
100
AcDbEntity
  8
AM_VIS
100
AcDbLine
 10
1979.997779863747
 20
1310.878332034311
 30
0.0
 11
2024.497779863748
 21
1310.878332034311
 31
0.0
  0
LINE
  5
1DEB
330
1F
100
AcDbEntity
  8
AM_VIS
100
AcDbLine
 10
2124.497779863748
 20
1310.878332034311
 30
0.0
 11
2127.497779863748
 21
1310.878332034311
 31
0.0
  0
LINE
  5
1DEC
330
1F
100
AcDbEntity
  8
AM_VIS
100
AcDbLine
 10
1979.497779863748
 20
1301.378332034311
 30
0.0
 11
1979.997779863747
 21
1300.878332034311
 31
0.0
  0
LINE
  5
1DED
330
1F
100
AcDbEntity
  8
AM_VIS
100
AcDbLine
 10
1979.497779863748
 20
1310.378332034311
 30
0.0
 11
1979.997779863747
 21
1310.878332034311
 31
0.0
  0
LINE
  5
1DEE
330
1F
100
AcDbEntity
  8
AM_VIS
100
AcDbLine
 10
1999.097779863747
 20
1316.478332034311
 30
0.0
 11
1999.097779863747
 21
1310.878332034311
 31
0.0
  0
LINE
  5
1DEF
330
1F
100
AcDbEntity
  8
AM_VIS
100
AcDbLine
 10
1999.097779863747
 20
1300.878332034311
 30
0.0
 11
1999.097779863747
 21
1295.278332034311
 31
0.0
  0
LINE
  5
1DF0
330
1F
100
AcDbEntity
  8
AM_VIS
100
AcDbLine
 10
1999.097779863747
 20
1295.278332034311
 30
0.0
 11
2024.497779863748
 21
1295.278332034311
 31
0.0
  0
LINE
  5
1DF1
330
1F
100
AcDbEntity
  8
AM_VIS
100
AcDbLine
 10
1999.097779863747
 20
1316.478332034311
 30
0.0
 11
2024.497779863748
 21
1316.478332034311
 31
0.0
  0
LINE
  5
1DF2
330
1F
100
AcDbEntity
  8
AM_VIS
100
AcDbLine
 10
1998.997779863748
 20
1295.378332034311
 30
0.0
 11
1999.097779863747
 21
1295.278332034311
 31
0.0
  0
LINE
  5
1DF3
330
1F
100
AcDbEntity
  8
AM_VIS
100
AcDbLine
 10
1998.997779863748
 20
1316.378332034311
 30
0.0
 11
1999.097779863747
 21
1316.478332034311
 31
0.0
  0
LINE
  5
1DF4
330
1F
100
AcDbEntity
  8
AM_VIS
100
AcDbLine
 10
1996.497779863748
 20
1292.485330130331
 30
0.0
 11
1996.497779863748
 21
1291.328332034311
 31
0.0
  0
LINE
  5
1DF5
330
1F
100
AcDbEntity
  8
AM_VIS
100
AcDbLine
 10
1996.497779863748
 20
1291.328332034311
 30
0.0
 11
1996.497779863748
 21
1291.028332034311
 31
0.0
  0
LINE
  5
1DF6
330
1F
100
AcDbEntity
  8
AM_VIS
100
AcDbLine
 10
1996.497779863748
 20
1310.878332034311
 30
0.0
 11
1996.497779863748
 21
1320.728332034311
 31
0.0
  0
LINE
  5
1DF7
330
1F
100
AcDbEntity
  8
AM_VIS
100
AcDbLine
 10
1996.497779863748
 20
1292.921584264012
 30
0.0
 11
1996.497779863748
 21
1300.878332034311
 31
0.0
  0
LINE
  5
1DF8
330
1F
100
AcDbEntity
  8
AM_VIS
100
AcDbLine
 10
1996.497779863748
 20
1292.485330130331
 30
0.0
 11
1996.497779863748
 21
1292.921584264012
 31
0.0
  0
LINE
  5
1DF9
330
1F
100
AcDbEntity
  8
AM_VIS
100
AcDbLine
 10
1998.997779863748
 20
1300.878332034311
 30
0.0
 11
1998.997779863748
 21
1294.978332034311
 31
0.0
  0
LINE
  5
1DFA
330
1F
100
AcDbEntity
  8
AM_VIS
100
AcDbLine
 10
1998.997779863748
 20
1316.778332034311
 30
0.0
 11
1998.997779863748
 21
1310.878332034311
 31
0.0
  0
LINE
  5
1DFB
330
1F
100
AcDbEntity
  8
AM_VIS
100
AcDbLine
 10
1981.497779863748
 20
1318.389227286051
 30
0.0
 11
1981.497779863748
 21
1320.728332034311
 31
0.0
  0
LINE
  5
1DFC
330
1F
100
AcDbEntity
  8
AM_VIS
100
AcDbLine
 10
1990.497779863748
 20
1310.878332034311
 30
0.0
 11
1990.497779863748
 21
1318.389227286051
 31
0.0
  0
LINE
  5
1DFD
330
1F
100
AcDbEntity
  8
AM_VIS
100
AcDbLine
 10
1990.497779863748
 20
1293.367436782572
 30
0.0
 11
1990.497779863748
 21
1300.878332034311
 31
0.0
  0
LINE
  5
1DFE
330
1F
100
AcDbEntity
  8
AM_VIS
100
AcDbLine
 10
1981.497779863748
 20
1292.921584264011
 30
0.0
 11
1981.497779863748
 21
1293.367436782571
 31
0.0
  0
LINE
  5
1DFF
330
1F
100
AcDbEntity
  8
AM_VIS
100
AcDbLine
 10
1981.497779863748
 20
1292.921584264012
 30
0.0
 11
1981.497779863748
 21
1292.485330130331
 31
0.0
  0
LINE
  5
1E00
330
1F
100
AcDbEntity
  8
AM_VIS
100
AcDbLine
 10
1981.497779863748
 20
1292.485330130331
 30
0.0
 11
1981.497779863748
 21
1291.328332034311
 31
0.0
  0
LINE
  5
1E01
330
1F
100
AcDbEntity
  8
AM_VIS
100
AcDbLine
 10
1981.497779863748
 20
1291.028332034311
 30
0.0
 11
1981.497779863748
 21
1291.328332034311
 31
0.0
  0
LINE
  5
1E02
330
1F
100
AcDbEntity
  8
AM_VIS
100
AcDbLine
 10
1961.497779863748
 20
1310.813917106012
 30
0.0
 11
1961.497779863748
 21
1315.278332034311
 31
0.0
  0
LINE
  5
1E03
330
1F
100
AcDbEntity
  8
AM_VIS
100
AcDbLine
 10
1961.497779863748
 20
1296.478332034311
 30
0.0
 11
1961.497779863748
 21
1300.94274696261
 31
0.0
  0
LINE
  5
1E04
330
1F
100
AcDbEntity
  8
AM_VIS
100
AcDbLine
 10
1981.497779863748
 20
1293.367436782572
 30
0.0
 11
1981.497779863748
 21
1298.474954426759
 31
0.0
  0
LINE
  5
1E05
330
1F
100
AcDbEntity
  8
AM_VIS
100
AcDbLine
 10
1981.497779863748
 20
1298.474954426759
 30
0.0
 11
1962.997779863748
 21
1298.474954426759
 31
0.0
  0
SPLINE
  5
1E06
330
1F
100
AcDbEntity
  8
AM_VIS
100
AcDbSpline
210
0.0
220
0.0
230
1.0
 70
     8
 71
     3
 72
    24
 73
    20
 74
     0
 42
0.0000000001
 43
0.0000000001
 40
-7.753123763648773
 40
-7.753123763648773
 40
-7.753123763648773
 40
-7.753123763648773
 40
-7.539132394019045
 40
-7.539132394019045
 40
-7.325141024389321
 40
-7.325141024389321
 40
-7.071320941448188
 40
-7.071320941448188
 40
-6.817500858507052
 40
-6.817500858507052
 40
-6.488852022970096
 40
-6.488852022970096
 40
-6.16020318743314
 40
-6.16020318743314
 40
-5.692988988524039
 40
-5.692988988524039
 40
-5.225774789614938
 40
-5.225774789614938
 40
-4.739228121985865
 40
-4.739228121985865
 40
-4.739228121985865
 40
-4.739228121985865
 10
1962.997779863748
 20
1298.474954426759
 30
0.0
 10
1962.926449407204
 20
1298.474954426759
 30
0.0
 10
1962.848724657624
 20
1298.482981222447
 30
0.0
 10
1962.697159001553
 20
1298.516873602353
 30
0.0
 10
1962.623305086094
 20
1298.542680984633
 30
0.0
 10
1962.481333920799
 20
1298.607183567855
 30
0.0
 10
1962.401594637702
 20
1298.65431249958
 30
0.0
 10
1962.25390513254
 20
1298.764802121323
 30
0.0
 10
1962.185858775123
 20
1298.828034250623
 30
0.0
 10
1962.054018720423
 20
1298.970564497231
 30
0.0
 10
1961.98157951547
 20
1299.066251270137
 30
0.0
 10
1961.855410861926
 20
1299.269659313359
 30
0.0
 10
1961.801495553755
 20
1299.377265241064
 30
0.0
 10
1961.697510434975
 20
1299.621323937385
 30
0.0
 10
1961.644733651004
 20
1299.783706334389
 30
0.0
 10
1961.565705653559
 20
1300.115256950562
 30
0.0
 10
1961.539163870028
 20
1300.28435584252
 30
0.0
 10
1961.506150443705
 20
1300.600557398086
 30
0.0
 10
1961.497779863748
 20
1300.769739683222
 30
0.0
 10
1961.497779863748
 20
1300.94274696261
 30
0.0
  0
LINE
  5
1E07
330
1F
100
AcDbEntity
  8
AM_VIS
100
AcDbLine
 10
1961.497779863748
 20
1300.94274696261
 30
0.0
 11
1961.497779863748
 21
1310.813917106012
 31
0.0
  0
SPLINE
  5
1E08
330
1F
100
AcDbEntity
  8
AM_VIS
100
AcDbSpline
210
0.0
220
0.0
230
1.0
 70
     8
 71
     3
 72
    24
 73
    20
 74
     0
 42
0.0000000001
 43
0.0000000001
 40
4.739228121985865
 40
4.739228121985865
 40
4.739228121985865
 40
4.739228121985865
 40
5.225774789614938
 40
5.225774789614938
 40
5.692988988524039
 40
5.692988988524039
 40
6.16020318743314
 40
6.16020318743314
 40
6.488852022970096
 40
6.488852022970096
 40
6.817500858507052
 40
6.817500858507052
 40
7.071320941448185
 40
7.071320941448185
 40
7.325141024389319
 40
7.325141024389319
 40
7.539132394019045
 40
7.539132394019045
 40
7.753123763648771
 40
7.753123763648771
 40
7.753123763648771
 40
7.753123763648771
 10
1961.497779863748
 20
1310.813917106012
 30
0.0000000000000071
 10
1961.497779863748
 20
1310.9869243854
 30
0.0000000000000071
 10
1961.506150443705
 20
1311.156106670536
 30
0.0000000000000071
 10
1961.539163870028
 20
1311.472308226102
 30
0.0000000000000071
 10
1961.565705653559
 20
1311.64140711806
 30
0.0000000000000071
 10
1961.644733651004
 20
1311.972957734233
 30
0.0000000000000071
 10
1961.697510434975
 20
1312.135340131237
 30
0.0000000000000071
 10
1961.801495553755
 20
1312.379398827558
 30
0.0000000000000071
 10
1961.855410861926
 20
1312.487004755263
 30
0.0000000000000071
 10
1961.98157951547
 20
1312.690412798485
 30
0.0000000000000071
 10
1962.054018720423
 20
1312.786099571391
 30
0.0000000000000071
 10
1962.185858775123
 20
1312.928629817999
 30
0.0000000000000071
 10
1962.25390513254
 20
1312.991861947299
 30
0.0000000000000071
 10
1962.401594637702
 20
1313.102351569042
 30
0.0000000000000071
 10
1962.481333920799
 20
1313.149480500767
 30
0.0000000000000071
 10
1962.623305086094
 20
1313.213983083989
 30
0.0000000000000071
 10
1962.697159001553
 20
1313.239790466269
 30
0.0000000000000071
 10
1962.848724657624
 20
1313.273682846175
 30
0.0000000000000071
 10
1962.926449407204
 20
1313.281709641863
 30
0.0000000000000071
 10
1962.997779863748
 20
1313.281709641863
 30
0.0000000000000071
  0
LINE
  5
1E09
330
1F
100
AcDbEntity
  8
AM_VIS
100
AcDbLine
 10
1962.997779863748
 20
1313.281709641863
 30
0.0
 11
1981.497779863748
 21
1313.281709641863
 31
0.0
  0
LINE
  5
1E0A
330
1F
100
AcDbEntity
  8
AM_VIS
100
AcDbLine
 10
1981.497779863748
 20
1313.281709641863
 30
0.0
 11
1981.497779863748
 21
1318.389227286051
 31
0.0
  0
LINE
  5
1E0B
330
1F
100
AcDbEntity
  8
AM_VIS
100
AcDbLine
 10
1981.497779863748
 20
1318.389227286051
 30
0.0
 11
1990.497779863748
 21
1318.389227286051
 31
0.0
  0
LINE
  5
1E0C
330
1F
100
AcDbEntity
  8
AM_VIS
100
AcDbLine
 10
1990.497779863748
 20
1293.367436782572
 30
0.0
 11
1981.497779863748
 21
1293.367436782572
 31
0.0
  0
ARC
  5
1E0D
330
1F
100
AcDbEntity
  8
AM_VIS
100
AcDbCircle
 10
1978.497779863747
 20
1305.878332034311
 30
0.0
 40
4.5
100
AcDbArc
 50
77.16041159309874
 51
282.8395884069013
  0
ARC
  5
1E0E
330
1F
100
AcDbEntity
  8
AM_VIS
100
AcDbCircle
 10
1978.497779863747
 20
1305.878332034311
 30
0.0
 40
4.0
100
AcDbArc
 50
75.52248781407055
 51
284.4775121859295
  0
LINE
  5
1E0F
330
1F
100
AcDbEntity
  8
AM_VIS
100
AcDbLine
 10
1981.497779863748
 20
1291.028332034311
 30
0.0
 11
1996.497779863748
 21
1291.028332034311
 31
0.0
  0
LINE
  5
1E10
330
1F
100
AcDbEntity
  8
AM_VIS
100
AcDbLine
 10
1996.497779863748
 20
1320.728332034311
 30
0.0
 11
1981.497779863748
 21
1320.728332034311
 31
0.0
  0
LINE
  5
1E11
330
1F
100
AcDbEntity
  8
AM_VIS
100
AcDbLine
 10
1996.497779863748
 20
1294.978332034311
 30
0.0
 11
1998.997779863748
 21
1294.978332034311
 31
0.0
  0
LINE
  5
1E12
330
1F
100
AcDbEntity
  8
AM_VIS
100
AcDbLine
 10
1996.497779863748
 20
1316.778332034311
 30
0.0
 11
1998.997779863748
 21
1316.778332034311
 31
0.0
  0
LINE
  5
1E13
330
1F
100
AcDbEntity
  8
AM_VIS
100
AcDbLine
 10
1981.497779863748
 20
1316.778332034311
 30
0.0
 11
1962.997779863748
 21
1316.778332034311
 31
0.0
  0
LINE
  5
1E14
330
1F
100
AcDbEntity
  8
AM_VIS
100
AcDbLine
 10
1981.497779863748
 20
1294.978332034311
 30
0.0
 11
1962.997779863748
 21
1294.978332034311
 31
0.0
  0
ARC
  5
1E15
330
1F
100
AcDbEntity
  8
AM_VIS
100
AcDbCircle
 10
1962.997779863748
 20
1315.278332034311
 30
0.0
 40
1.5
100
AcDbArc
 50
90.0
 51
180.0
  0
ARC
  5
1E16
330
1F
100
AcDbEntity
  8
AM_VIS
100
AcDbCircle
 10
1962.997779863748
 20
1296.478332034311
 30
0.0
 40
1.5
100
AcDbArc
 50
180.0
 51
270.0
  0
LINE
  5
1E17
330
1F
100
AcDbEntity
  8
AM_VIS
100
AcDbLine
 10
2124.497779863748
 20
1062.609881936754
 30
0.0
 11
2127.497779863748
 21
1062.609881936754
 31
0.0
  0
LINE
  5
1E18
330
1F
100
AcDbEntity
  8
AM_VIS
100
AcDbLine
 10
2124.497779863748
 20
1095.609881936754
 30
0.0
 11
2127.497779863748
 21
1095.609881936754
 31
0.0
  0
LINE
  5
1E19
330
1F
100
AcDbEntity
  8
AM_VIS
100
AcDbLine
 10
2139.497779863748
 20
1062.109881936754
 30
0.0
 11
2139.497779863748
 21
1096.109881936754
 31
0.0
  0
LINE
  5
1E1A
330
1F
100
AcDbEntity
  8
AM_VIS
100
AcDbLine
 10
2139.497779863748
 20
1062.109881936754
 30
0.0
 11
2127.497779863748
 21
1062.109881936754
 31
0.0
  0
LINE
  5
1E1B
330
1F
100
AcDbEntity
  8
AM_VIS
100
AcDbLine
 10
2127.497779863748
 20
1096.109881936754
 30
0.0
 11
2127.497779863748
 21
1062.109881936754
 31
0.0
  0
LINE
  5
1E1C
330
1F
100
AcDbEntity
  8
AM_VIS
100
AcDbLine
 10
2139.497779863748
 20
1096.109881936754
 30
0.0
 11
2127.497779863748
 21
1096.109881936754
 31
0.0
  0
LINE
  5
1E1D
330
1F
100
AcDbEntity
  8
AM_VIS
100
AcDbLine
 10
2024.497779863748
 20
1060.109881936754
 30
0.0
 11
2050.497779863748
 21
1060.109881936754
 31
0.0
  0
LINE
  5
1E1E
330
1F
100
AcDbEntity
  8
AM_VIS
100
AcDbLine
 10
2024.497779863748
 20
1060.109881936754
 30
0.0
 11
2024.497779863748
 21
1098.109881936754
 31
0.0
  0
LINE
  5
1E1F
330
1F
100
AcDbEntity
  8
AM_VIS
100
AcDbLine
 10
2050.497779863748
 20
1098.109881936754
 30
0.0
 11
2024.497779863748
 21
1098.109881936754
 31
0.0
  0
LINE
  5
1E20
330
1F
100
AcDbEntity
  8
AM_VIS
100
AcDbLine
 10
2124.497779863748
 20
1098.109881936754
 30
0.0
 11
2098.497779863748
 21
1098.109881936754
 31
0.0
  0
LINE
  5
1E21
330
1F
100
AcDbEntity
  8
AM_VIS
100
AcDbLine
 10
2124.497779863748
 20
1060.109881936754
 30
0.0
 11
2124.497779863748
 21
1098.109881936754
 31
0.0
  0
LINE
  5
1E22
330
1F
100
AcDbEntity
  8
AM_VIS
100
AcDbLine
 10
2098.497779863748
 20
1060.109881936754
 30
0.0
 11
2124.497779863748
 21
1060.109881936754
 31
0.0
  0
LINE
  5
1E27
330
1F
100
AcDbEntity
  8
AM_VIS
100
AcDbLine
 10
2098.497779863748
 20
1060.109881936754
 30
0.0
 11
2098.497779863748
 21
1098.109881936754
 31
0.0
  0
LINE
  5
1E28
330
1F
100
AcDbEntity
  8
AM_VIS
100
AcDbLine
 10
2050.497779863748
 20
1060.109881936754
 30
0.0
 11
2098.497779863748
 21
1060.109881936754
 31
0.0
  0
LINE
  5
1E29
330
1F
100
AcDbEntity
  8
AM_VIS
100
AcDbLine
 10
2050.497779863748
 20
1060.109881936754
 30
0.0
 11
2050.497779863748
 21
1098.109881936754
 31
0.0
  0
LINE
  5
1E2A
330
1F
100
AcDbEntity
  8
AM_VIS
100
AcDbLine
 10
2098.497779863748
 20
1098.109881936754
 30
0.0
 11
2050.497779863748
 21
1098.109881936754
 31
0.0
  0
LINE
  5
1E2F
330
1F
100
AcDbEntity
  8
AM_VIS
100
AcDbLine
 10
1979.997779863747
 20
1084.109881936754
 30
0.0
 11
1979.997779863747
 21
1074.109881936754
 31
0.0
  0
LINE
  5
1E30
330
1F
100
AcDbEntity
  8
AM_VIS
100
AcDbLine
 10
1979.497779863748
 20
1074.609881936754
 30
0.0
 11
1979.497779863748
 21
1083.609881936754
 31
0.0
  0
LINE
  5
1E31
330
1F
100
AcDbEntity
  8
AM_VIS
100
AcDbLine
 10
1979.997779863747
 20
1074.109881936754
 30
0.0
 11
2024.497779863748
 21
1074.109881936754
 31
0.0
  0
LINE
  5
1E32
330
1F
100
AcDbEntity
  8
AM_VIS
100
AcDbLine
 10
2124.497779863748
 20
1074.109881936754
 30
0.0
 11
2127.497779863748
 21
1074.109881936754
 31
0.0
  0
LINE
  5
1E33
330
1F
100
AcDbEntity
  8
AM_VIS
100
AcDbLine
 10
1979.997779863747
 20
1084.109881936754
 30
0.0
 11
2024.497779863748
 21
1084.109881936754
 31
0.0
  0
LINE
  5
1E34
330
1F
100
AcDbEntity
  8
AM_VIS
100
AcDbLine
 10
2124.497779863748
 20
1084.109881936754
 30
0.0
 11
2127.497779863748
 21
1084.109881936754
 31
0.0
  0
LINE
  5
1E35
330
1F
100
AcDbEntity
  8
AM_VIS
100
AcDbLine
 10
1979.497779863748
 20
1074.609881936754
 30
0.0
 11
1979.997779863747
 21
1074.109881936754
 31
0.0
  0
LINE
  5
1E36
330
1F
100
AcDbEntity
  8
AM_VIS
100
AcDbLine
 10
1979.497779863748
 20
1083.609881936754
 30
0.0
 11
1979.997779863747
 21
1084.109881936754
 31
0.0
  0
LINE
  5
1E37
330
1F
100
AcDbEntity
  8
AM_VIS
100
AcDbLine
 10
1999.097779863747
 20
1074.109881936754
 30
0.0
 11
1999.097779863747
 21
1068.509881936754
 31
0.0
  0
LINE
  5
1E38
330
1F
100
AcDbEntity
  8
AM_VIS
100
AcDbLine
 10
1999.097779863747
 20
1089.709881936754
 30
0.0
 11
1999.097779863747
 21
1084.109881936754
 31
0.0
  0
LINE
  5
1E39
330
1F
100
AcDbEntity
  8
AM_VIS
100
AcDbLine
 10
1999.097779863747
 20
1068.509881936754
 30
0.0
 11
2024.497779863748
 21
1068.509881936754
 31
0.0
  0
LINE
  5
1E3A
330
1F
100
AcDbEntity
  8
AM_VIS
100
AcDbLine
 10
1999.097779863747
 20
1089.709881936754
 30
0.0
 11
2024.497779863748
 21
1089.709881936754
 31
0.0
  0
LINE
  5
1E3B
330
1F
100
AcDbEntity
  8
AM_VIS
100
AcDbLine
 10
1998.997779863748
 20
1068.609881936754
 30
0.0
 11
1999.097779863747
 21
1068.509881936754
 31
0.0
  0
LINE
  5
1E3C
330
1F
100
AcDbEntity
  8
AM_VIS
100
AcDbLine
 10
1998.997779863748
 20
1089.609881936754
 30
0.0
 11
1999.097779863747
 21
1089.709881936754
 31
0.0
  0
LINE
  5
1E3D
330
1F
100
AcDbEntity
  8
AM_VIS
100
AcDbLine
 10
1996.497779863748
 20
1093.959881936754
 30
0.0
 11
1996.497779863748
 21
1093.659881936754
 31
0.0
  0
LINE
  5
1E3E
330
1F
100
AcDbEntity
  8
AM_VIS
100
AcDbLine
 10
1996.497779863748
 20
1084.109881936754
 30
0.0
 11
1996.497779863748
 21
1092.066629707054
 31
0.0
  0
LINE
  5
1E3F
330
1F
100
AcDbEntity
  8
AM_VIS
100
AcDbLine
 10
1996.497779863748
 20
1064.259881936754
 30
0.0
 11
1996.497779863748
 21
1074.109881936754
 31
0.0
  0
LINE
  5
1E40
330
1F
100
AcDbEntity
  8
AM_VIS
100
AcDbLine
 10
1996.497779863748
 20
1093.659881936754
 30
0.0
 11
1996.497779863748
 21
1092.502883840734
 31
0.0
  0
LINE
  5
1E41
330
1F
100
AcDbEntity
  8
AM_VIS
100
AcDbLine
 10
1996.497779863748
 20
1092.066629707054
 30
0.0
 11
1996.497779863748
 21
1092.502883840734
 31
0.0
  0
LINE
  5
1E42
330
1F
100
AcDbEntity
  8
AM_VIS
100
AcDbLine
 10
1998.997779863748
 20
1074.109881936754
 30
0.0
 11
1998.997779863748
 21
1068.209881936754
 31
0.0
  0
LINE
  5
1E43
330
1F
100
AcDbEntity
  8
AM_VIS
100
AcDbLine
 10
1998.997779863748
 20
1090.009881936754
 30
0.0
 11
1998.997779863748
 21
1084.109881936754
 31
0.0
  0
LINE
  5
1E44
330
1F
100
AcDbEntity
  8
AM_VIS
100
AcDbLine
 10
1981.497779863748
 20
1064.259881936754
 30
0.0
 11
1981.497779863748
 21
1066.598986685015
 31
0.0
  0
LINE
  5
1E45
330
1F
100
AcDbEntity
  8
AM_VIS
100
AcDbLine
 10
1981.497779863748
 20
1093.659881936754
 30
0.0
 11
1981.497779863748
 21
1093.959881936754
 31
0.0
  0
LINE
  5
1E46
330
1F
100
AcDbEntity
  8
AM_VIS
100
AcDbLine
 10
1981.497779863748
 20
1093.659881936754
 30
0.0
 11
1981.497779863748
 21
1092.502883840734
 31
0.0
  0
LINE
  5
1E47
330
1F
100
AcDbEntity
  8
AM_VIS
100
AcDbLine
 10
1981.497779863748
 20
1092.502883840734
 30
0.0
 11
1981.497779863748
 21
1092.066629707054
 31
0.0
  0
LINE
  5
1E48
330
1F
100
AcDbEntity
  8
AM_VIS
100
AcDbLine
 10
1981.497779863748
 20
1091.620777188494
 30
0.0
 11
1981.497779863748
 21
1092.066629707054
 31
0.0
  0
LINE
  5
1E49
330
1F
100
AcDbEntity
  8
AM_VIS
100
AcDbLine
 10
1961.497779863748
 20
1069.709881936754
 30
0.0
 11
1961.497779863748
 21
1074.174296865053
 31
0.0
  0
LINE
  5
1E4A
330
1F
100
AcDbEntity
  8
AM_VIS
100
AcDbLine
 10
1961.497779863748
 20
1084.045467008455
 30
0.0
 11
1961.497779863748
 21
1088.509881936754
 31
0.0
  0
LINE
  5
1E4B
330
1F
100
AcDbEntity
  8
AM_VIS
100
AcDbLine
 10
1990.497779863748
 20
1084.109881936754
 30
0.0
 11
1990.497779863748
 21
1091.620777188494
 31
0.0
  0
LINE
  5
1E4C
330
1F
100
AcDbEntity
  8
AM_VIS
100
AcDbLine
 10
1990.497779863748
 20
1066.598986685015
 30
0.0
 11
1990.497779863748
 21
1074.109881936754
 31
0.0
  0
LINE
  5
1E4D
330
1F
100
AcDbEntity
  8
AM_VIS
100
AcDbLine
 10
1961.497779863748
 20
1074.174296865053
 30
0.0
 11
1961.497779863748
 21
1084.045467008455
 31
0.0
  0
SPLINE
  5
1E4E
330
1F
100
AcDbEntity
  8
AM_VIS
100
AcDbSpline
210
0.0
220
0.0
230
1.0
 70
     8
 71
     3
 72
    24
 73
    20
 74
     0
 42
0.0000000001
 43
0.0000000001
 40
4.739228121985876
 40
4.739228121985876
 40
4.739228121985876
 40
4.739228121985876
 40
5.225774789614936
 40
5.225774789614936
 40
5.692988988524041
 40
5.692988988524041
 40
6.160203187433147
 40
6.160203187433147
 40
6.488852022970103
 40
6.488852022970103
 40
6.817500858507059
 40
6.817500858507059
 40
7.071320941448192
 40
7.071320941448192
 40
7.325141024389324
 40
7.325141024389324
 40
7.539132394019052
 40
7.539132394019052
 40
7.753123763648781
 40
7.753123763648781
 40
7.753123763648781
 40
7.753123763648781
 10
1961.497779863748
 20
1084.045467008455
 30
0.0
 10
1961.497779863748
 20
1084.218474287843
 30
0.0
 10
1961.506150443705
 20
1084.387656572979
 30
0.0
 10
1961.539163870028
 20
1084.703858128545
 30
0.0
 10
1961.565705653559
 20
1084.872957020503
 30
0.0
 10
1961.644733651004
 20
1085.204507636676
 30
0.0
 10
1961.697510434975
 20
1085.36689003368
 30
0.0
 10
1961.801495553755
 20
1085.610948730001
 30
0.0
 10
1961.855410861926
 20
1085.718554657706
 30
0.0
 10
1961.98157951547
 20
1085.921962700928
 30
0.0
 10
1962.054018720423
 20
1086.017649473834
 30
0.0
 10
1962.185858775123
 20
1086.160179720442
 30
0.0
 10
1962.25390513254
 20
1086.223411849742
 30
0.0
 10
1962.401594637702
 20
1086.333901471485
 30
0.0
 10
1962.481333920799
 20
1086.38103040321
 30
0.0
 10
1962.623305086094
 20
1086.445532986432
 30
0.0
 10
1962.697159001553
 20
1086.471340368712
 30
0.0
 10
1962.848724657624
 20
1086.505232748618
 30
0.0
 10
1962.926449407204
 20
1086.513259544306
 30
0.0
 10
1962.997779863748
 20
1086.513259544306
 30
0.0
  0
LINE
  5
1E4F
330
1F
100
AcDbEntity
  8
AM_VIS
100
AcDbLine
 10
1962.997779863748
 20
1086.513259544306
 30
0.0
 11
1981.497779863748
 21
1086.513259544306
 31
0.0
  0
LINE
  5
1E50
330
1F
100
AcDbEntity
  8
AM_VIS
100
AcDbLine
 10
1981.497779863748
 20
1086.513259544306
 30
0.0
 11
1981.497779863748
 21
1091.620777188494
 31
0.0
  0
LINE
  5
1E51
330
1F
100
AcDbEntity
  8
AM_VIS
100
AcDbLine
 10
1981.497779863748
 20
1091.620777188494
 30
0.0
 11
1990.497779863748
 21
1091.620777188494
 31
0.0
  0
LINE
  5
1E52
330
1F
100
AcDbEntity
  8
AM_VIS
100
AcDbLine
 10
1990.497779863748
 20
1066.598986685015
 30
0.0
 11
1981.497779863748
 21
1066.598986685015
 31
0.0
  0
LINE
  5
1E53
330
1F
100
AcDbEntity
  8
AM_VIS
100
AcDbLine
 10
1981.497779863748
 20
1066.598986685015
 30
0.0
 11
1981.497779863748
 21
1071.706504329202
 31
0.0
  0
LINE
  5
1E54
330
1F
100
AcDbEntity
  8
AM_VIS
100
AcDbLine
 10
1981.497779863748
 20
1071.706504329202
 30
0.0
 11
1962.997779863748
 21
1071.706504329202
 31
0.0
  0
SPLINE
  5
1E55
330
1F
100
AcDbEntity
  8
AM_VIS
100
AcDbSpline
210
0.0
220
0.0
230
1.0
 70
     8
 71
     3
 72
    24
 73
    20
 74
     0
 42
0.0000000001
 43
0.0000000001
 40
-7.753123763648776
 40
-7.753123763648776
 40
-7.753123763648776
 40
-7.753123763648776
 40
-7.539132394019048
 40
-7.539132394019048
 40
-7.325141024389321
 40
-7.325141024389321
 40
-7.071320941448188
 40
-7.071320941448188
 40
-6.817500858507056
 40
-6.817500858507056
 40
-6.4888520229701
 40
-6.4888520229701
 40
-6.160203187433143
 40
-6.160203187433143
 40
-5.692988988524039
 40
-5.692988988524039
 40
-5.225774789614934
 40
-5.225774789614934
 40
-4.739228121985875
 40
-4.739228121985875
 40
-4.739228121985875
 40
-4.739228121985875
 10
1962.997779863748
 20
1071.706504329202
 30
-0.0000000000000071
 10
1962.926449407204
 20
1071.706504329202
 30
-0.0000000000000071
 10
1962.848724657624
 20
1071.714531124891
 30
-0.0000000000000071
 10
1962.697159001553
 20
1071.748423504796
 30
-0.0000000000000071
 10
1962.623305086094
 20
1071.774230887076
 30
-0.0000000000000071
 10
1962.481333920799
 20
1071.838733470299
 30
-0.0000000000000071
 10
1962.401594637702
 20
1071.885862402023
 30
-0.0000000000000071
 10
1962.25390513254
 20
1071.996352023766
 30
-0.0000000000000071
 10
1962.185858775123
 20
1072.059584153066
 30
-0.0000000000000071
 10
1962.054018720423
 20
1072.202114399674
 30
-0.0000000000000071
 10
1961.98157951547
 20
1072.29780117258
 30
-0.0000000000000071
 10
1961.855410861926
 20
1072.501209215802
 30
-0.0000000000000071
 10
1961.801495553755
 20
1072.608815143508
 30
-0.0000000000000071
 10
1961.697510434975
 20
1072.852873839828
 30
-0.0000000000000071
 10
1961.644733651004
 20
1073.015256236833
 30
-0.0000000000000071
 10
1961.565705653559
 20
1073.346806853005
 30
-0.0000000000000071
 10
1961.539163870028
 20
1073.515905744963
 30
-0.0000000000000071
 10
1961.506150443705
 20
1073.832107300529
 30
-0.0000000000000071
 10
1961.497779863748
 20
1074.001289585665
 30
-0.0000000000000071
 10
1961.497779863748
 20
1074.174296865053
 30
-0.0000000000000071
  0
ARC
  5
1E57
330
1F
100
AcDbEntity
  8
AM_VIS
100
AcDbCircle
 10
1978.497779863747
 20
1079.109881936754
 30
0.0
 40
4.0
100
AcDbArc
 50
75.52248781407055
 51
284.4775121859295
  0
LINE
  5
1E58
330
1F
100
AcDbEntity
  8
AM_VIS
100
AcDbLine
 10
1996.497779863748
 20
1093.959881936754
 30
0.0
 11
1981.497779863748
 21
1093.959881936754
 31
0.0
  0
SPLINE
  5
1E59
330
1F
100
AcDbEntity
  8
AM_VIS
100
AcDbSpline
210
0.0
220
0.0
230
1.0
 70
    11
 71
     3
 72
    66
 73
    62
 74
     0
 42
0.0000000001
 43
0.0000000001
 40
0.0
 40
0.0
 40
0.0
 40
0.0
 40
0.4268332307447942
 40
0.4268332307447942
 40
0.8536664614895883
 40
0.8536664614895883
 40
1.280499692234382
 40
1.280499692234382
 40
1.707332922979176
 40
1.707332922979176
 40
2.778273649972831
 40
2.778273649972831
 40
3.313744013469658
 40
3.313744013469658
 40
3.849214376966486
 40
3.849214376966486
 40
4.337112050782105
 40
4.337112050782105
 40
4.825009724597722
 40
4.825009724597722
 40
5.31290739841334
 40
5.31290739841334
 40
5.800805072228959
 40
5.800805072228959
 40
6.219933053438301
 40
6.219933053438301
 40
6.639061034647644
 40
6.639061034647644
 40
7.058189015856987
 40
7.058189015856987
 40
7.477316997066329
 40
7.477316997066329
 40
7.896444978275674
 40
7.896444978275674
 40
8.31557295948502
 40
8.31557295948502
 40
8.734700940694366
 40
8.734700940694366
 40
9.153828921903713
 40
9.153828921903713
 40
9.641726595719333
 40
9.641726595719333
 40
10.12962426953495
 40
10.12962426953495
 40
10.61752194335057
 40
10.61752194335057
 40
11.10541961716619
 40
11.10541961716619
 40
11.64088998066302
 40
11.64088998066302
 40
12.17636034415985
 40
12.17636034415985
 40
13.2473010711535
 40
13.2473010711535
 40
13.67413430189829
 40
13.67413430189829
 40
14.10096753264308
 40
14.10096753264308
 40
14.52780076338787
 40
14.52780076338787
 40
14.95463399413266
 40
14.95463399413266
 40
14.95463399413266
 40
14.95463399413266
 10
1993.497779863748
 20
1088.324017298125
 30
0.0
 10
1993.355502120166
 20
1088.324017298125
 30
0.0
 10
1993.210826812178
 20
1088.338929151062
 30
0.0
 10
1992.927525493216
 20
1088.398112279131
 30
0.0
 10
1992.788885133058
 20
1088.442330421985
 30
0.0
 10
1992.526631493927
 20
1088.553758004134
 30
0.0
 10
1992.402713388901
 20
1088.621024758384
 30
0.0
 10
1992.175605823901
 20
1088.769207190313
 30
0.0
 10
1992.072399931086
 20
1088.850091340808
 30
0.0
 10
1991.752994038719
 20
1089.137881698237
 30
0.0
 10
1991.563743332207
 20
1089.385709130076
 30
0.0
 10
1991.374110756616
 20
1089.766579455989
 30
0.0
 10
1991.326241914835
 20
1089.895118396842
 30
0.0
 10
1991.263056404437
 20
1090.146571928616
 30
0.0
 10
1991.247779863748
 20
1090.269488522351
 30
0.0
 10
1991.247779863748
 20
1090.491466918952
 30
0.0
 10
1991.260485536013
 20
1090.599391716615
 30
0.0
 10
1991.316554583649
 20
1090.810479770723
 30
0.0
 10
1991.359928197356
 20
1090.913645413484
 30
0.0
 10
1991.477964246864
 20
1091.108089197701
 30
0.0
 10
1991.552731186931
 20
1091.199522070378
 30
0.0
 10
1991.729827363153
 20
1091.365703866771
 30
0.0
 10
1991.832176263882
 20
1091.44046901915
 30
0.0
 10
1992.039943973493
 20
1091.561419778229
 30
0.0
 10
1992.148733954527
 20
1091.613499987809
 30
0.0
 10
1992.386741849699
 20
1091.704674047669
 30
0.0
 10
1992.515956460816
 20
1091.743791637149
 30
0.0
 10
1992.7865638164
 20
1091.806340808724
 30
0.0
 10
1992.928204270075
 20
1091.82984631173
 30
0.0
 10
1993.213956578047
 20
1091.860673290951
 30
0.0
 10
1993.358070536678
 20
1091.867994130665
 30
0.0
 10
1993.637489190818
 20
1091.867994130665
 30
0.0
 10
1993.781603149448
 20
1091.860673290951
 30
0.0
 10
1994.06735545742
 20
1091.82984631173
 30
0.0
 10
1994.208995911095
 20
1091.806340808724
 30
0.0
 10
1994.47960326668
 20
1091.743791637149
 30
0.0
 10
1994.608817877796
 20
1091.704674047669
 30
0.0
 10
1994.846825772968
 20
1091.613499987809
 30
0.0
 10
1994.955615754002
 20
1091.561419778229
 30
0.0
 10
1995.163383463614
 20
1091.44046901915
 30
0.0
 10
1995.265732364343
 20
1091.365703866771
 30
0.0
 10
1995.442828540564
 20
1091.199522070378
 30
0.0
 10
1995.517595480631
 20
1091.108089197701
 30
0.0
 10
1995.635631530139
 20
1090.913645413484
 30
0.0
 10
1995.679005143847
 20
1090.810479770723
 30
0.0
 10
1995.735074191482
 20
1090.599391716615
 30
0.0
 10
1995.747779863748
 20
1090.491466918952
 30
0.0
 10
1995.747779863748
 20
1090.269488522351
 30
0.0
 10
1995.732503323058
 20
1090.146571928616
 30
0.0
 10
1995.66931781266
 20
1089.895118396842
 30
0.0
 10
1995.621448970879
 20
1089.766579455989
 30
0.0
 10
1995.431816395288
 20
1089.385709130076
 30
0.0
 10
1995.242565688775
 20
1089.137881698237
 30
0.0
 10
1994.92315979641
 20
1088.850091340808
 30
0.0
 10
1994.819953903595
 20
1088.769207190313
 30
0.0
 10
1994.592846338593
 20
1088.621024758384
 30
0.0
 10
1994.468928233567
 20
1088.553758004134
 30
0.0
 10
1994.206674594438
 20
1088.442330421985
 30
0.0
 10
1994.068034234279
 20
1088.398112279131
 30
0.0
 10
1993.784732915317
 20
1088.338929151062
 30
0.0
 10
1993.640057607329
 20
1088.324017298125
 30
0.0
 10
1993.497779863748
 20
1088.324017298125
 30
0.0
  0
LINE
  5
1E5C
330
1F
100
AcDbEntity
  8
AM_VIS
100
AcDbLine
 10
1996.497779863748
 20
1064.259881936754
 30
0.0
 11
1981.497779863748
 21
1064.259881936754
 31
0.0
  0
LINE
  5
1E5D
330
1F
100
AcDbEntity
  8
AM_VIS
100
AcDbLine
 10
1996.497779863748
 20
1068.209881936754
 30
0.0
 11
1998.997779863748
 21
1068.209881936754
 31
0.0
  0
LINE
  5
1E5E
330
1F
100
AcDbEntity
  8
AM_VIS
100
AcDbLine
 10
1996.497779863748
 20
1090.009881936754
 30
0.0
 11
1998.997779863748
 21
1090.009881936754
 31
0.0
  0
LINE
  5
1E5F
330
1F
100
AcDbEntity
  8
AM_VIS
100
AcDbLine
 10
1981.497779863748
 20
1068.209881936754
 30
0.0
 11
1962.997779863748
 21
1068.209881936754
 31
0.0
  0
LINE
  5
1E60
330
1F
100
AcDbEntity
  8
AM_VIS
100
AcDbLine
 10
1981.497779863748
 20
1090.009881936754
 30
0.0
 11
1962.997779863748
 21
1090.009881936754
 31
0.0
  0
ARC
  5
1E61
330
1F
100
AcDbEntity
  8
AM_VIS
100
AcDbCircle
 10
1962.997779863748
 20
1069.709881936754
 30
0.0
 40
1.5
100
AcDbArc
 50
180.0
 51
270.0
  0
ARC
  5
1E62
330
1F
100
AcDbEntity
  8
AM_VIS
100
AcDbCircle
 10
1962.997779863748
 20
1088.509881936754
 30
0.0
 40
1.5
100
AcDbArc
 50
90.0
 51
180.0
  0
LINE
  5
1E63
330
1F
100
AcDbEntity
  8
AM_VIS
100
AcDbLine
 10
1927.411160197294
 20
1168.315351605319
 30
0.0
 11
1927.411160197294
 21
1195.315351605319
 31
0.0
  0
LINE
  5
1E64
330
1F
100
AcDbEntity
  8
AM_VIS
100
AcDbLine
 10
1889.411160197294
 20
1195.315351605319
 30
0.0
 11
1889.411160197294
 21
1168.315351605319
 31
0.0
  0
LINE
  5
1E65
330
1F
100
AcDbEntity
  8
AM_VIS
100
AcDbLine
 10
1889.411160197294
 20
1164.815351605319
 30
0.0
 11
1889.411160197294
 21
1141.065351605319
 31
0.0
  0
LINE
  5
1E66
330
1F
100
AcDbEntity
  8
AM_VIS
100
AcDbLine
 10
1927.411160197294
 20
1141.065351605319
 30
0.0
 11
1927.411160197294
 21
1164.815351605319
 31
0.0
  0
LINE
  5
1E67
330
1F
100
AcDbEntity
  8
AM_VIS
100
AcDbLine
 10
1889.411160197294
 20
1222.565351605319
 30
0.0
 11
1889.411160197294
 21
1198.815351605319
 31
0.0
  0
LINE
  5
1E68
330
1F
100
AcDbEntity
  8
AM_VIS
100
AcDbLine
 10
1927.411160197294
 20
1198.815351605319
 30
0.0
 11
1927.411160197294
 21
1222.565351605319
 31
0.0
  0
LINE
  5
1E69
330
1F
100
AcDbEntity
  8
AM_VIS
100
AcDbLine
 10
1889.411160197294
 20
1198.815351605319
 30
0.0
 11
1927.411160197294
 21
1198.815351605319
 31
0.0
  0
LINE
  5
1E6A
330
1F
100
AcDbEntity
  8
AM_VIS
100
AcDbLine
 10
1889.411160197294
 20
1164.815351605319
 30
0.0
 11
1927.411160197294
 21
1164.815351605319
 31
0.0
  0
LINE
  5
1E6B
330
1F
100
AcDbEntity
  8
AM_VIS
100
AcDbLine
 10
1889.411160197294
 20
1164.815351605319
 30
0.0
 11
1889.411160197294
 21
1168.315351605319
 31
0.0
  0
LINE
  5
1E6C
330
1F
100
AcDbEntity
  8
AM_VIS
100
AcDbLine
 10
1889.411160197294
 20
1168.315351605319
 30
0.0
 11
1902.224683009103
 21
1168.315351605319
 31
0.0
  0
LINE
  5
1E6D
330
1F
100
AcDbEntity
  8
AM_VIS
100
AcDbLine
 10
1914.597637385483
 20
1168.315351605319
 30
0.0
 11
1927.411160197294
 21
1168.315351605319
 31
0.0
  0
LINE
  5
1E6E
330
1F
100
AcDbEntity
  8
AM_VIS
100
AcDbLine
 10
1927.411160197294
 20
1164.815351605319
 30
0.0
 11
1927.411160197294
 21
1168.315351605319
 31
0.0
  0
LINE
  5
1E6F
330
1F
100
AcDbEntity
  8
AM_VIS
100
AcDbLine
 10
1889.411160197294
 20
1195.315351605319
 30
0.0
 11
1889.411160197294
 21
1198.815351605319
 31
0.0
  0
LINE
  5
1E70
330
1F
100
AcDbEntity
  8
AM_VIS
100
AcDbLine
 10
1927.411160197294
 20
1195.315351605319
 30
0.0
 11
1927.411160197294
 21
1198.815351605319
 31
0.0
  0
LINE
  5
1E71
330
1F
100
AcDbEntity
  8
AM_VIS
100
AcDbLine
 10
1889.411160197294
 20
1195.315351605319
 30
0.0
 11
1902.224683009103
 21
1195.315351605319
 31
0.0
  0
LINE
  5
1E72
330
1F
100
AcDbEntity
  8
AM_VIS
100
AcDbLine
 10
1914.597637385483
 20
1195.315351605319
 30
0.0
 11
1927.411160197294
 21
1195.315351605319
 31
0.0
  0
LINE
  5
1E73
330
1F
100
AcDbEntity
  8
AM_VIS
100
AcDbLine
 10
1889.411160197294
 20
1141.065351605319
 30
0.0
 11
1927.411160197294
 21
1141.065351605319
 31
0.0
  0
LINE
  5
1E74
330
1F
100
AcDbEntity
  8
AM_VIS
100
AcDbLine
 10
1889.411160197294
 20
1222.565351605319
 30
0.0
 11
1927.411160197294
 21
1222.565351605319
 31
0.0
  0
LINE
  5
1E75
330
1F
100
AcDbEntity
  8
AM_VIS
100
AcDbLine
 10
1889.411160197294
 20
1141.065351605319
 30
0.0
 11
1889.411160197294
 21
1140.815351605319
 31
0.0
  0
LINE
  5
1E76
330
1F
100
AcDbEntity
  8
AM_VIS
100
AcDbLine
 10
1927.411160197294
 20
1140.815351605319
 30
0.0
 11
1927.411160197294
 21
1141.065351605319
 31
0.0
  0
LINE
  5
1E77
330
1F
100
AcDbEntity
  8
AM_VIS
100
AcDbLine
 10
1889.411160197294
 20
1222.815351605319
 30
0.0
 11
1889.411160197294
 21
1222.565351605319
 31
0.0
  0
LINE
  5
1E78
330
1F
100
AcDbEntity
  8
AM_VIS
100
AcDbLine
 10
1927.411160197294
 20
1222.565351605319
 30
0.0
 11
1927.411160197294
 21
1222.815351605319
 31
0.0
  0
LINE
  5
1E79
330
1F
100
AcDbEntity
  8
AM_VIS
100
AcDbLine
 10
1889.411160197294
 20
1140.815351605319
 30
0.0
 11
1927.411160197294
 21
1140.815351605319
 31
0.0
  0
LINE
  5
1E7A
330
1F
100
AcDbEntity
  8
AM_VIS
100
AcDbLine
 10
1889.411160197294
 20
1222.815351605319
 30
0.0
 11
1927.411160197294
 21
1222.815351605319
 31
0.0
  0
CIRCLE
  5
1E7B
330
1F
100
AcDbEntity
  8
AM_VIS
100
AcDbCircle
 10
1908.411160197293
 20
1152.815351605319
 30
0.0
 40
10.0
  0
CIRCLE
  5
1E7C
330
1F
100
AcDbEntity
  8
AM_VIS
100
AcDbCircle
 10
1908.411160197293
 20
1210.815351605319
 30
0.0
 40
10.0
  0
CIRCLE
  5
1E7F
330
1F
100
AcDbEntity
  8
AM_VIS
100
AcDbCircle
 10
1908.411160197293
 20
1210.815351605319
 30
0.0
 40
5.0
  0
CIRCLE
  5
1E81
330
1F
100
AcDbEntity
  8
AM_VIS
100
AcDbCircle
 10
1908.411160197293
 20
1152.815351605319
 30
0.0
 40
5.0
  0
ARC
  5
1E83
330
1F
100
AcDbEntity
  8
AM_VIS
100
AcDbCircle
 10
1908.411160197293
 20
1181.815351605319
 30
0.0
 40
14.85
100
AcDbArc
 50
147.4034172200687
 51
212.5965827799312
  0
ARC
  5
1E84
330
1F
100
AcDbEntity
  8
AM_VIS
100
AcDbCircle
 10
1908.411160197293
 20
1181.815351605319
 30
0.0
 40
14.85
100
AcDbArc
 50
32.59658277993122
 51
147.4034172200687
  0
ARC
  5
1E85
330
1F
100
AcDbEntity
  8
AM_VIS
100
AcDbCircle
 10
1908.411160197293
 20
1181.815351605319
 30
0.0
 40
14.85
100
AcDbArc
 50
29.24856232515869
 51
32.59658277993122
  0
ARC
  5
1E86
330
1F
100
AcDbEntity
  8
AM_VIS
100
AcDbCircle
 10
1921.804162101273
 20
1189.315351605319
 30
0.0
 40
0.5
100
AcDbArc
 50
209.2485623251701
 51
270.0
  0
LINE
  5
1E87
330
1F
100
AcDbEntity
  8
AM_VIS
100
AcDbLine
 10
1921.804162101273
 20
1188.815351605319
 30
0.0
 11
1922.961160197293
 21
1188.815351605319
 31
0.0
  0
ARC
  5
1E88
330
1F
100
AcDbEntity
  8
AM_VIS
100
AcDbCircle
 10
1922.961160197293
 20
1188.515351605319
 30
0.0
 40
0.3
100
AcDbArc
 50
0.0
 51
90.0
  0
ARC
  5
1E89
330
1F
100
AcDbEntity
  8
AM_VIS
100
AcDbCircle
 10
1922.961160197293
 20
1175.115351605319
 30
0.0
 40
0.3
100
AcDbArc
 50
270.0
 51
0.0
  0
LINE
  5
1E8A
330
1F
100
AcDbEntity
  8
AM_VIS
100
AcDbLine
 10
1922.961160197293
 20
1174.815351605319
 30
0.0
 11
1921.804162101273
 21
1174.815351605319
 31
0.0
  0
ARC
  5
1E8B
330
1F
100
AcDbEntity
  8
AM_VIS
100
AcDbCircle
 10
1921.804162101273
 20
1174.315351605319
 30
0.0
 40
0.5
100
AcDbArc
 50
90.0
 51
150.7514376748299
  0
ARC
  5
1E8C
330
1F
100
AcDbEntity
  8
AM_VIS
100
AcDbCircle
 10
1908.411160197293
 20
1181.815351605319
 30
0.0
 40
14.85
100
AcDbArc
 50
327.4034172200688
 51
330.7514376748299
  0
ARC
  5
1E8D
330
1F
100
AcDbEntity
  8
AM_VIS
100
AcDbCircle
 10
1908.411160197293
 20
1181.815351605319
 30
0.0
 40
10.9
100
AcDbArc
 50
132.7818588668003
 51
227.2181411331997
  0
ARC
  5
1E8E
330
1F
100
AcDbEntity
  8
AM_VIS
100
AcDbCircle
 10
1908.411160197293
 20
1181.815351605319
 30
0.0
 40
10.9
100
AcDbArc
 50
312.7818588668004
 51
47.21814113319966
  0
ARC
  5
1E8F
330
1F
100
AcDbEntity
  8
AM_VIS
100
AcDbCircle
 10
1908.411160197293
 20
1181.815351605319
 30
0.0
 40
14.85
100
AcDbArc
 50
212.5965827799312
 51
327.4034172200688
  0
LINE
  5
1E90
330
1F
100
AcDbEntity
  8
AM_VIS
100
AcDbLine
 10
1920.922055449033
 20
1189.815351605319
 30
0.0
 11
1915.814537804845
 21
1189.815351605319
 31
0.0
  0
LINE
  5
1E91
330
1F
100
AcDbEntity
  8
AM_VIS
100
AcDbLine
 10
1913.346745268995
 20
1189.815351605319
 30
0.0
 11
1915.814537804845
 21
1189.815351605319
 31
0.0
  0
LINE
  5
1E92
330
1F
100
AcDbEntity
  8
AM_VIS
100
AcDbLine
 10
1913.346745268995
 20
1189.815351605319
 30
0.0
 11
1903.475575125592
 21
1189.815351605319
 31
0.0
  0
LINE
  5
1E93
330
1F
100
AcDbEntity
  8
AM_VIS
100
AcDbLine
 10
1901.007782589741
 20
1189.815351605319
 30
0.0
 11
1903.475575125592
 21
1189.815351605319
 31
0.0
  0
LINE
  5
1E94
330
1F
100
AcDbEntity
  8
AM_VIS
100
AcDbLine
 10
1901.007782589741
 20
1189.815351605319
 30
0.0
 11
1895.900264945554
 21
1189.815351605319
 31
0.0
  0
LINE
  5
1E95
330
1F
100
AcDbEntity
  8
AM_VIS
100
AcDbLine
 10
1903.475575125592
 20
1173.815351605319
 30
0.0
 11
1913.346745268995
 21
1173.815351605319
 31
0.0
  0
LINE
  5
1E96
330
1F
100
AcDbEntity
  8
AM_VIS
100
AcDbLine
 10
1913.346745268995
 20
1173.815351605319
 30
0.0
 11
1915.814537804845
 21
1173.815351605319
 31
0.0
  0
LINE
  5
1E97
330
1F
100
AcDbEntity
  8
AM_VIS
100
AcDbLine
 10
1915.814537804845
 20
1173.815351605319
 30
0.0
 11
1920.922055449033
 21
1173.815351605319
 31
0.0
  0
LINE
  5
1E98
330
1F
100
AcDbEntity
  8
AM_VIS
100
AcDbLine
 10
1895.900264945554
 20
1173.815351605319
 30
0.0
 11
1901.007782589741
 21
1173.815351605319
 31
0.0
  0
LINE
  5
1E99
330
1F
100
AcDbEntity
  8
AM_VIS
100
AcDbLine
 10
1901.007782589741
 20
1173.815351605319
 30
0.0
 11
1903.475575125592
 21
1173.815351605319
 31
0.0
  0
LINE
  5
1E9A
330
1F
100
AcDbEntity
  8
AM_VIS
100
AcDbLine
 10
1923.261160197293
 20
1188.515351605319
 30
0.0
 11
1923.261160197293
 21
1175.115351605319
 31
0.0
  0
ARC
  5
1EBD
330
1F
100
AcDbEntity
  8
AM_4
100
AcDbCircle
 10
2056.997779863748
 20
1318.878332034311
 30
0.0
 40
3.0
100
AcDbArc
 50
260.0
 51
170.0
  0
CIRCLE
  5
1EBE
330
1F
100
AcDbEntity
  8
AM_0
100
AcDbCircle
 10
2056.997779863748
 20
1318.878332034311
 30
0.0
 40
2.45873412263477
  0
LINE
  5
1EBF
330
1F
100
AcDbEntity
  8
AM_7
  6
AM_ISO08W050x2
100
AcDbLine
 10
2051.997779863748
 20
1318.878332034311
 30
0.0
 11
2061.997779863748
 21
1318.878332034311
 31
0.0
  0
LINE
  5
1EC0
330
1F
100
AcDbEntity
  8
AM_7
  6
AM_ISO08W050x2
100
AcDbLine
 10
2056.997779863748
 20
1313.878332034311
 30
0.0
 11
2056.997779863748
 21
1323.878332034311
 31
0.0
  0
ARC
  5
1EC1
330
1F
100
AcDbEntity
  8
AM_4
100
AcDbCircle
 10
2089.497779863748
 20
1318.878332034311
 30
0.0
 40
3.0
100
AcDbArc
 50
260.0
 51
170.0
  0
CIRCLE
  5
1EC2
330
1F
100
AcDbEntity
  8
AM_0
100
AcDbCircle
 10
2089.497779863748
 20
1318.878332034311
 30
0.0
 40
2.45873412263477
  0
LINE
  5
1EC3
330
1F
100
AcDbEntity
  8
AM_7
  6
AM_ISO08W050x2
100
AcDbLine
 10
2084.497779863748
 20
1318.878332034311
 30
0.0
 11
2094.497779863748
 21
1318.878332034311
 31
0.0
  0
LINE
  5
1EC4
330
1F
100
AcDbEntity
  8
AM_7
  6
AM_ISO08W050x2
100
AcDbLine
 10
2089.497779863748
 20
1313.878332034311
 30
0.0
 11
2089.497779863748
 21
1323.878332034311
 31
0.0
  0
ARC
  5
1EC5
330
1F
100
AcDbEntity
  8
AM_4
100
AcDbCircle
 10
2089.497779863748
 20
1292.878332034311
 30
0.0
 40
3.0
100
AcDbArc
 50
260.0
 51
170.0
  0
CIRCLE
  5
1EC6
330
1F
100
AcDbEntity
  8
AM_0
100
AcDbCircle
 10
2089.497779863748
 20
1292.878332034311
 30
0.0
 40
2.45873412263477
  0
LINE
  5
1EC7
330
1F
100
AcDbEntity
  8
AM_7
  6
AM_ISO08W050x2
100
AcDbLine
 10
2084.497779863748
 20
1292.878332034311
 30
0.0
 11
2094.497779863748
 21
1292.878332034311
 31
0.0
  0
LINE
  5
1EC8
330
1F
100
AcDbEntity
  8
AM_7
  6
AM_ISO08W050x2
100
AcDbLine
 10
2089.497779863748
 20
1287.878332034311
 30
0.0
 11
2089.497779863748
 21
1297.878332034311
 31
0.0
  0
ARC
  5
1EC9
330
1F
100
AcDbEntity
  8
AM_4
100
AcDbCircle
 10
2056.997779863748
 20
1292.878332034311
 30
0.0
 40
3.0
100
AcDbArc
 50
260.0
 51
170.0
  0
CIRCLE
  5
1ECA
330
1F
100
AcDbEntity
  8
AM_0
100
AcDbCircle
 10
2056.997779863748
 20
1292.878332034311
 30
0.0
 40
2.45873412263477
  0
LINE
  5
1ECB
330
1F
100
AcDbEntity
  8
AM_7
  6
AM_ISO08W050x2
100
AcDbLine
 10
2051.997779863748
 20
1292.878332034311
 30
0.0
 11
2061.997779863748
 21
1292.878332034311
 31
0.0
  0
LINE
  5
1ECC
330
1F
100
AcDbEntity
  8
AM_7
  6
AM_ISO08W050x2
100
AcDbLine
 10
2056.997779863748
 20
1287.878332034311
 30
0.0
 11
2056.997779863748
 21
1297.878332034311
 31
0.0
  0
ARC
  5
1EDD
330
1F
100
AcDbEntity
  8
AM_4
100
AcDbCircle
 10
2056.997779863748
 20
1092.109881936754
 30
0.0
 40
3.0
100
AcDbArc
 50
260.0
 51
170.0
  0
CIRCLE
  5
1EDE
330
1F
100
AcDbEntity
  8
AM_0
100
AcDbCircle
 10
2056.997779863748
 20
1092.109881936754
 30
0.0
 40
2.45873412263477
  0
LINE
  5
1EDF
330
1F
100
AcDbEntity
  8
AM_7
  6
AM_ISO08W050x2
100
AcDbLine
 10
2051.997779863748
 20
1092.109881936754
 30
0.0
 11
2061.997779863748
 21
1092.109881936754
 31
0.0
  0
LINE
  5
1EE0
330
1F
100
AcDbEntity
  8
AM_7
  6
AM_ISO08W050x2
100
AcDbLine
 10
2056.997779863748
 20
1087.109881936754
 30
0.0
 11
2056.997779863748
 21
1097.109881936754
 31
0.0
  0
ARC
  5
1EE1
330
1F
100
AcDbEntity
  8
AM_4
100
AcDbCircle
 10
2089.497779863748
 20
1092.109881936754
 30
0.0
 40
3.0
100
AcDbArc
 50
260.0
 51
170.0
  0
CIRCLE
  5
1EE2
330
1F
100
AcDbEntity
  8
AM_0
100
AcDbCircle
 10
2089.497779863748
 20
1092.109881936754
 30
0.0
 40
2.45873412263477
  0
LINE
  5
1EE3
330
1F
100
AcDbEntity
  8
AM_7
  6
AM_ISO08W050x2
100
AcDbLine
 10
2084.497779863748
 20
1092.109881936754
 30
0.0
 11
2094.497779863748
 21
1092.109881936754
 31
0.0
  0
LINE
  5
1EE4
330
1F
100
AcDbEntity
  8
AM_7
  6
AM_ISO08W050x2
100
AcDbLine
 10
2089.497779863748
 20
1087.109881936754
 30
0.0
 11
2089.497779863748
 21
1097.109881936754
 31
0.0
  0
ARC
  5
1EE5
330
1F
100
AcDbEntity
  8
AM_4
100
AcDbCircle
 10
2089.497779863748
 20
1066.109881936754
 30
0.0
 40
3.0
100
AcDbArc
 50
260.0
 51
170.0
  0
CIRCLE
  5
1EE6
330
1F
100
AcDbEntity
  8
AM_0
100
AcDbCircle
 10
2089.497779863748
 20
1066.109881936754
 30
0.0
 40
2.45873412263477
  0
LINE
  5
1EE7
330
1F
100
AcDbEntity
  8
AM_7
  6
AM_ISO08W050x2
100
AcDbLine
 10
2084.497779863748
 20
1066.109881936754
 30
0.0
 11
2094.497779863748
 21
1066.109881936754
 31
0.0
  0
LINE
  5
1EE8
330
1F
100
AcDbEntity
  8
AM_7
  6
AM_ISO08W050x2
100
AcDbLine
 10
2089.497779863748
 20
1061.109881936754
 30
0.0
 11
2089.497779863748
 21
1071.109881936754
 31
0.0
  0
ARC
  5
1EE9
330
1F
100
AcDbEntity
  8
AM_4
100
AcDbCircle
 10
2056.997779863748
 20
1066.109881936754
 30
0.0
 40
3.0
100
AcDbArc
 50
260.0
 51
170.0
  0
CIRCLE
  5
1EEA
330
1F
100
AcDbEntity
  8
AM_0
100
AcDbCircle
 10
2056.997779863748
 20
1066.109881936754
 30
0.0
 40
2.45873412263477
  0
LINE
  5
1EEB
330
1F
100
AcDbEntity
  8
AM_7
  6
AM_ISO08W050x2
100
AcDbLine
 10
2051.997779863748
 20
1066.109881936754
 30
0.0
 11
2061.997779863748
 21
1066.109881936754
 31
0.0
  0
LINE
  5
1EEC
330
1F
100
AcDbEntity
  8
AM_7
  6
AM_ISO08W050x2
100
AcDbLine
 10
2056.997779863748
 20
1061.109881936754
 30
0.0
 11
2056.997779863748
 21
1071.109881936754
 31
0.0
  0
ARC
  5
1F06
330
1F
100
AcDbEntity
  8
AM_4
100
AcDbCircle
 10
2199.30668196508
 20
1147.815351605319
 30
0.0
 40
2.5
100
AcDbArc
 50
260.0
 51
170.0
  0
CIRCLE
  5
1F07
330
1F
100
AcDbEntity
  8
AM_0
100
AcDbCircle
 10
2199.30668196508
 20
1147.815351605319
 30
0.0
 40
2.066987298107819
  0
LINE
  5
1F08
330
1F
100
AcDbEntity
  8
AM_7
  6
AM_ISO08W050x2
100
AcDbLine
 10
2194.806681965081
 20
1147.815351605319
 30
0.0
 11
2203.806681965081
 21
1147.815351605319
 31
0.0
  0
LINE
  5
1F09
330
1F
100
AcDbEntity
  8
AM_7
  6
AM_ISO08W050x2
100
AcDbLine
 10
2199.30668196508
 20
1143.315351605319
 30
0.0
 11
2199.30668196508
 21
1152.315351605319
 31
0.0
  0
ARC
  5
1F0A
330
1F
100
AcDbEntity
  8
AM_4
100
AcDbCircle
 10
2219.30668196508
 20
1147.815351605319
 30
0.0
 40
2.5
100
AcDbArc
 50
260.0
 51
170.0
  0
CIRCLE
  5
1F0B
330
1F
100
AcDbEntity
  8
AM_0
100
AcDbCircle
 10
2219.30668196508
 20
1147.815351605319
 30
0.0
 40
2.066987298107819
  0
LINE
  5
1F0C
330
1F
100
AcDbEntity
  8
AM_7
  6
AM_ISO08W050x2
100
AcDbLine
 10
2214.806681965081
 20
1147.815351605319
 30
0.0
 11
2223.806681965081
 21
1147.815351605319
 31
0.0
  0
LINE
  5
1F0D
330
1F
100
AcDbEntity
  8
AM_7
  6
AM_ISO08W050x2
100
AcDbLine
 10
2219.30668196508
 20
1143.315351605319
 30
0.0
 11
2219.30668196508
 21
1152.315351605319
 31
0.0
  0
ARC
  5
1F0E
330
1F
100
AcDbEntity
  8
AM_4
100
AcDbCircle
 10
2219.30668196508
 20
1215.815351605319
 30
0.0
 40
2.5
100
AcDbArc
 50
260.0
 51
170.0
  0
CIRCLE
  5
1F0F
330
1F
100
AcDbEntity
  8
AM_0
100
AcDbCircle
 10
2219.30668196508
 20
1215.815351605319
 30
0.0
 40
2.066987298107819
  0
LINE
  5
1F10
330
1F
100
AcDbEntity
  8
AM_7
  6
AM_ISO08W050x2
100
AcDbLine
 10
2214.806681965081
 20
1215.815351605319
 30
0.0
 11
2223.806681965081
 21
1215.815351605319
 31
0.0
  0
LINE
  5
1F11
330
1F
100
AcDbEntity
  8
AM_7
  6
AM_ISO08W050x2
100
AcDbLine
 10
2219.30668196508
 20
1211.315351605319
 30
0.0
 11
2219.30668196508
 21
1220.315351605319
 31
0.0
  0
ARC
  5
1F12
330
1F
100
AcDbEntity
  8
AM_4
100
AcDbCircle
 10
2199.30668196508
 20
1215.815351605319
 30
0.0
 40
2.5
100
AcDbArc
 50
260.0
 51
170.0
  0
CIRCLE
  5
1F13
330
1F
100
AcDbEntity
  8
AM_0
100
AcDbCircle
 10
2199.30668196508
 20
1215.815351605319
 30
0.0
 40
2.066987298107819
  0
LINE
  5
1F14
330
1F
100
AcDbEntity
  8
AM_7
  6
AM_ISO08W050x2
100
AcDbLine
 10
2194.806681965081
 20
1215.815351605319
 30
0.0
 11
2203.806681965081
 21
1215.815351605319
 31
0.0
  0
LINE
  5
1F15
330
1F
100
AcDbEntity
  8
AM_7
  6
AM_ISO08W050x2
100
AcDbLine
 10
2199.30668196508
 20
1211.315351605319
 30
0.0
 11
2199.30668196508
 21
1220.315351605319
 31
0.0
  0
CIRCLE
  5
1F34
330
1F
100
AcDbEntity
  8
AM_VIS
100
AcDbCircle
 10
2199.30668196508
 20
1201.815351605319
 30
0.0
 40
2.75
  0
CIRCLE
  5
1F35
330
1F
100
AcDbEntity
  8
AM_4
  6
HIDDEN
 48
0.5
100
AcDbCircle
 10
2199.30668196508
 20
1201.815351605319
 30
0.0
 40
4.75
  0
LINE
  5
1F36
330
1F
100
AcDbEntity
  8
AM_7
  6
AM_ISO08W050x2
100
AcDbLine
 10
2199.30668196508
 20
1201.815351605319
 30
0.0
 11
2206.05668196508
 21
1201.815351605319
 31
0.0
1001
GENIUS_GENOREF_13
1005
1F3A
  0
LINE
  5
1F37
330
1F
100
AcDbEntity
  8
AM_7
  6
AM_ISO08W050x2
100
AcDbLine
 10
2199.30668196508
 20
1201.815351605319
 30
0.0
 11
2199.30668196508
 21
1208.565351605319
 31
0.0
1001
GENIUS_GENOREF_13
1005
1F3A
  0
LINE
  5
1F38
330
1F
100
AcDbEntity
  8
AM_7
  6
AM_ISO08W050x2
100
AcDbLine
 10
2199.30668196508
 20
1201.815351605319
 30
0.0
 11
2192.556681965081
 21
1201.815351605319
 31
0.0
1001
GENIUS_GENOREF_13
1005
1F3A
  0
LINE
  5
1F39
330
1F
100
AcDbEntity
  8
AM_7
  6
AM_ISO08W050x2
100
AcDbLine
 10
2199.30668196508
 20
1201.815351605319
 30
0.0
 11
2199.30668196508
 21
1195.065351605319
 31
0.0
1001
GENIUS_GENOREF_13
1005
1F3A
  0
POINT
  5
1F3A
330
1F
100
AcDbEntity
  8
0
 60
     1
100
AcDbPoint
 10
46.90907049493534
 20
348.177138434218
 30
0.0
1001
GENIUS_GENOENT_13
1002
{
1000
MYREF
1005
1F3A
1002
}
1002
{
1000
GRP
1005
0
1002
}
1001
GENIUS_GENOBJ-N-CRS_13
1002
{
1000
OWNER
1000
GEN
1002
}
1001
GENIUS_GENOLIS_13
1002
{
1000
ENT
1005
1F39
1005
1F38
1005
1F37
1005
1F36
1002
}
1001
GENIUS_GENODEF_13
1002
{
1000
HIER
1070
    10
1002
}
1002
{
1000
MANEDIT
1070
     0
1002
}
1002
{
1000
NOSEL
1070
     0
1002
}
1002
{
1000
BEHIND
1070
     0
1002
}
1002
{
1000
OTHER
1070
     0
1002
}
1002
{
1000
REACTOR
1002
}
  0
CIRCLE
  5
1F3B
330
1F
100
AcDbEntity
  8
AM_VIS
100
AcDbCircle
 10
2219.30668196508
 20
1201.815351605319
 30
0.0
 40
2.75
  0
CIRCLE
  5
1F3C
330
1F
100
AcDbEntity
  8
AM_4
  6
HIDDEN
 48
0.5
100
AcDbCircle
 10
2219.30668196508
 20
1201.815351605319
 30
0.0
 40
4.75
  0
LINE
  5
1F3D
330
1F
100
AcDbEntity
  8
AM_7
  6
AM_ISO08W050x2
100
AcDbLine
 10
2219.30668196508
 20
1201.815351605319
 30
0.0
 11
2226.056681965081
 21
1201.815351605319
 31
0.0
1001
GENIUS_GENOREF_13
1005
1F41
  0
LINE
  5
1F3E
330
1F
100
AcDbEntity
  8
AM_7
  6
AM_ISO08W050x2
100
AcDbLine
 10
2219.30668196508
 20
1201.815351605319
 30
0.0
 11
2219.30668196508
 21
1208.565351605319
 31
0.0
1001
GENIUS_GENOREF_13
1005
1F41
  0
LINE
  5
1F3F
330
1F
100
AcDbEntity
  8
AM_7
  6
AM_ISO08W050x2
100
AcDbLine
 10
2219.30668196508
 20
1201.815351605319
 30
0.0
 11
2212.556681965081
 21
1201.815351605319
 31
0.0
1001
GENIUS_GENOREF_13
1005
1F41
  0
LINE
  5
1F40
330
1F
100
AcDbEntity
  8
AM_7
  6
AM_ISO08W050x2
100
AcDbLine
 10
2219.30668196508
 20
1201.815351605319
 30
0.0
 11
2219.30668196508
 21
1195.065351605319
 31
0.0
1001
GENIUS_GENOREF_13
1005
1F41
  0
POINT
  5
1F41
330
1F
100
AcDbEntity
  8
0
 60
     1
100
AcDbPoint
 10
66.90907049493535
 20
348.177138434218
 30
0.0
1001
GENIUS_GENOENT_13
1002
{
1000
MYREF
1005
1F41
1002
}
1002
{
1000
GRP
1005
0
1002
}
1001
GENIUS_GENOBJ-N-CRS_13
1002
{
1000
OWNER
1000
GEN
1002
}
1001
GENIUS_GENOLIS_13
1002
{
1000
ENT
1005
1F40
1005
1F3F
1005
1F3E
1005
1F3D
1002
}
1001
GENIUS_GENODEF_13
1002
{
1000
HIER
1070
    10
1002
}
1002
{
1000
MANEDIT
1070
     0
1002
}
1002
{
1000
NOSEL
1070
     0
1002
}
1002
{
1000
BEHIND
1070
     0
1002
}
1002
{
1000
OTHER
1070
     0
1002
}
1002
{
1000
REACTOR
1002
}
  0
CIRCLE
  5
1F42
330
1F
100
AcDbEntity
  8
AM_VIS
100
AcDbCircle
 10
2199.30668196508
 20
1161.815351605319
 30
0.0
 40
2.75
  0
CIRCLE
  5
1F43
330
1F
100
AcDbEntity
  8
AM_4
  6
HIDDEN
 48
0.5
100
AcDbCircle
 10
2199.30668196508
 20
1161.815351605319
 30
0.0
 40
4.75
  0
LINE
  5
1F44
330
1F
100
AcDbEntity
  8
AM_7
  6
AM_ISO08W050x2
100
AcDbLine
 10
2199.30668196508
 20
1161.815351605319
 30
0.0
 11
2206.05668196508
 21
1161.815351605319
 31
0.0
1001
GENIUS_GENOREF_13
1005
1F48
  0
LINE
  5
1F45
330
1F
100
AcDbEntity
  8
AM_7
  6
AM_ISO08W050x2
100
AcDbLine
 10
2199.30668196508
 20
1161.815351605319
 30
0.0
 11
2199.30668196508
 21
1168.565351605319
 31
0.0
1001
GENIUS_GENOREF_13
1005
1F48
  0
LINE
  5
1F46
330
1F
100
AcDbEntity
  8
AM_7
  6
AM_ISO08W050x2
100
AcDbLine
 10
2199.30668196508
 20
1161.815351605319
 30
0.0
 11
2192.556681965081
 21
1161.815351605319
 31
0.0
1001
GENIUS_GENOREF_13
1005
1F48
  0
LINE
  5
1F47
330
1F
100
AcDbEntity
  8
AM_7
  6
AM_ISO08W050x2
100
AcDbLine
 10
2199.30668196508
 20
1161.815351605319
 30
0.0
 11
2199.30668196508
 21
1155.065351605319
 31
0.0
1001
GENIUS_GENOREF_13
1005
1F48
  0
POINT
  5
1F48
330
1F
100
AcDbEntity
  8
0
 60
     1
100
AcDbPoint
 10
46.90907049493534
 20
308.177138434218
 30
0.0
1001
GENIUS_GENOENT_13
1002
{
1000
MYREF
1005
1F48
1002
}
1002
{
1000
GRP
1005
0
1002
}
1001
GENIUS_GENOBJ-N-CRS_13
1002
{
1000
OWNER
1000
GEN
1002
}
1001
GENIUS_GENOLIS_13
1002
{
1000
ENT
1005
1F47
1005
1F46
1005
1F45
1005
1F44
1002
}
1001
GENIUS_GENODEF_13
1002
{
1000
HIER
1070
    10
1002
}
1002
{
1000
MANEDIT
1070
     0
1002
}
1002
{
1000
NOSEL
1070
     0
1002
}
1002
{
1000
BEHIND
1070
     0
1002
}
1002
{
1000
OTHER
1070
     0
1002
}
1002
{
1000
REACTOR
1002
}
  0
CIRCLE
  5
1F49
330
1F
100
AcDbEntity
  8
AM_VIS
100
AcDbCircle
 10
2219.30668196508
 20
1161.815351605319
 30
0.0
 40
2.75
  0
CIRCLE
  5
1F4A
330
1F
100
AcDbEntity
  8
AM_4
  6
HIDDEN
 48
0.5
100
AcDbCircle
 10
2219.30668196508
 20
1161.815351605319
 30
0.0
 40
4.75
  0
LINE
  5
1F4B
330
1F
100
AcDbEntity
  8
AM_7
  6
AM_ISO08W050x2
100
AcDbLine
 10
2219.30668196508
 20
1161.815351605319
 30
0.0
 11
2226.056681965081
 21
1161.815351605319
 31
0.0
1001
GENIUS_GENOREF_13
1005
1F4F
  0
LINE
  5
1F4C
330
1F
100
AcDbEntity
  8
AM_7
  6
AM_ISO08W050x2
100
AcDbLine
 10
2219.30668196508
 20
1161.815351605319
 30
0.0
 11
2219.30668196508
 21
1168.565351605319
 31
0.0
1001
GENIUS_GENOREF_13
1005
1F4F
  0
LINE
  5
1F4D
330
1F
100
AcDbEntity
  8
AM_7
  6
AM_ISO08W050x2
100
AcDbLine
 10
2219.30668196508
 20
1161.815351605319
 30
0.0
 11
2212.556681965081
 21
1161.815351605319
 31
0.0
1001
GENIUS_GENOREF_13
1005
1F4F
  0
LINE
  5
1F4E
330
1F
100
AcDbEntity
  8
AM_7
  6
AM_ISO08W050x2
100
AcDbLine
 10
2219.30668196508
 20
1161.815351605319
 30
0.0
 11
2219.30668196508
 21
1155.065351605319
 31
0.0
1001
GENIUS_GENOREF_13
1005
1F4F
  0
POINT
  5
1F4F
330
1F
100
AcDbEntity
  8
0
 60
     1
100
AcDbPoint
 10
66.90907049493535
 20
308.177138434218
 30
0.0
1001
GENIUS_GENOENT_13
1002
{
1000
MYREF
1005
1F4F
1002
}
1002
{
1000
GRP
1005
0
1002
}
1001
GENIUS_GENOBJ-N-CRS_13
1002
{
1000
OWNER
1000
GEN
1002
}
1001
GENIUS_GENOLIS_13
1002
{
1000
ENT
1005
1F4E
1005
1F4D
1005
1F4C
1005
1F4B
1002
}
1001
GENIUS_GENODEF_13
1002
{
1000
HIER
1070
    10
1002
}
1002
{
1000
MANEDIT
1070
     0
1002
}
1002
{
1000
NOSEL
1070
     0
1002
}
1002
{
1000
BEHIND
1070
     0
1002
}
1002
{
1000
OTHER
1070
     0
1002
}
1002
{
1000
REACTOR
1002
}
  0
CIRCLE
  5
1F5A
330
1F
100
AcDbEntity
  8
AM_VIS
100
AcDbCircle
 10
2199.30668196508
 20
1181.815351605319
 30
0.0
 40
3.0
  0
CIRCLE
  5
1F5B
330
1F
100
AcDbEntity
  8
AM_VIS
100
AcDbCircle
 10
2219.30668196508
 20
1181.815351605319
 30
0.0
 40
3.0
  0
LINE
  5
1F5C
330
1F
100
AcDbEntity
  8
AM_4
  6
HIDDEN
 48
0.5
100
AcDbLine
 10
2228.30668196508
 20
1194.315351605319
 30
0.0
 11
2222.30668196508
 21
1194.315351605319
 31
0.0
  0
LINE
  5
1F5D
330
1F
100
AcDbEntity
  8
AM_4
  6
HIDDEN
 48
0.5
100
AcDbLine
 10
2222.30668196508
 20
1194.315351605319
 30
0.0
 11
2222.30668196508
 21
1188.315351605319
 31
0.0
  0
LINE
  5
1F5E
330
1F
100
AcDbEntity
  8
AM_4
  6
HIDDEN
 48
0.5
100
AcDbLine
 10
2222.30668196508
 20
1188.315351605319
 30
0.0
 11
2228.30668196508
 21
1188.315351605319
 31
0.0
  0
LINE
  5
1F5F
330
1F
100
AcDbEntity
  8
AM_7
  6
AM_ISO08W050x2
100
AcDbLine
 10
2220.30668196508
 20
1191.315351605319
 30
0.0
 11
2230.431053404039
 21
1191.315351605319
 31
0.0
1001
GENIUS_GENODEF_13
1002
{
1000
HIER
1070
     0
1002
}
1002
{
1000
MANEDIT
1070
     0
1002
}
1002
{
1000
NOSEL
1070
     0
1002
}
1002
{
1000
BEHIND
1070
     0
1002
}
1002
{
1000
OTHER
1070
     0
1002
}
1002
{
1000
REACTOR
1002
}
1001
GENIUS_GENOBJ-N-CEN_13
1002
{
1000
OWNER
1000
GEN
1002
}
1001
GENIUS_GENCEN_19
1002
{
1040
2.0
1002
}
  0
LINE
  5
1F60
330
1F
100
AcDbEntity
  8
AM_4
  6
HIDDEN
 48
0.5
100
AcDbLine
 10
2228.30668196508
 20
1169.315351605319
 30
0.0
 11
2222.30668196508
 21
1169.315351605319
 31
0.0
  0
LINE
  5
1F61
330
1F
100
AcDbEntity
  8
AM_4
  6
HIDDEN
 48
0.5
100
AcDbLine
 10
2222.30668196508
 20
1169.315351605319
 30
0.0
 11
2222.30668196508
 21
1175.315351605319
 31
0.0
  0
LINE
  5
1F62
330
1F
100
AcDbEntity
  8
AM_4
  6
HIDDEN
 48
0.5
100
AcDbLine
 10
2222.30668196508
 20
1175.315351605319
 30
0.0
 11
2228.30668196508
 21
1175.315351605319
 31
0.0
  0
LINE
  5
1F63
330
1F
100
AcDbEntity
  8
AM_7
  6
AM_ISO08W050x2
100
AcDbLine
 10
2220.30668196508
 20
1172.315351605319
 30
0.0
 11
2230.431053404039
 21
1172.315351605319
 31
0.0
1001
GENIUS_GENODEF_13
1002
{
1000
HIER
1070
     0
1002
}
1002
{
1000
MANEDIT
1070
     0
1002
}
1002
{
1000
NOSEL
1070
     0
1002
}
1002
{
1000
BEHIND
1070
     0
1002
}
1002
{
1000
OTHER
1070
     0
1002
}
1002
{
1000
REACTOR
1002
}
1001
GENIUS_GENOBJ-N-CEN_13
1002
{
1000
OWNER
1000
GEN
1002
}
1001
GENIUS_GENCEN_19
1002
{
1040
2.0
1002
}
  0
LINE
  5
1F64
330
1F
100
AcDbEntity
  8
AM_7
  6
AM_ISO08W050x2
100
AcDbLine
 10
2199.30668196508
 20
1181.815351605319
 30
0.0
 11
2204.30668196508
 21
1181.815351605319
 31
0.0
1001
GENIUS_GENOREF_13
1005
1F6D
  0
LINE
  5
1F65
330
1F
100
AcDbEntity
  8
AM_7
  6
AM_ISO08W050x2
100
AcDbLine
 10
2199.30668196508
 20
1181.815351605319
 30
0.0
 11
2199.30668196508
 21
1186.815351605319
 31
0.0
1001
GENIUS_GENOREF_13
1005
1F6D
  0
LINE
  5
1F66
330
1F
100
AcDbEntity
  8
AM_7
  6
AM_ISO08W050x2
100
AcDbLine
 10
2199.30668196508
 20
1181.815351605319
 30
0.0
 11
2194.30668196508
 21
1181.815351605319
 31
0.0
1001
GENIUS_GENOREF_13
1005
1F6D
  0
LINE
  5
1F67
330
1F
100
AcDbEntity
  8
AM_7
  6
AM_ISO08W050x2
100
AcDbLine
 10
2199.30668196508
 20
1181.815351605319
 30
0.0
 11
2199.30668196508
 21
1176.815351605319
 31
0.0
1001
GENIUS_GENOREF_13
1005
1F6D
  0
LINE
  5
1F68
330
1F
100
AcDbEntity
  8
AM_7
  6
AM_ISO08W050x2
100
AcDbLine
 10
2219.30668196508
 20
1181.815351605319
 30
0.0
 11
2224.30668196508
 21
1181.815351605319
 31
0.0
1001
GENIUS_GENOREF_13
1005
1F6C
  0
LINE
  5
1F69
330
1F
100
AcDbEntity
  8
AM_7
  6
AM_ISO08W050x2
100
AcDbLine
 10
2219.30668196508
 20
1181.815351605319
 30
0.0
 11
2219.30668196508
 21
1186.815351605319
 31
0.0
1001
GENIUS_GENOREF_13
1005
1F6C
  0
LINE
  5
1F6A
330
1F
100
AcDbEntity
  8
AM_7
  6
AM_ISO08W050x2
100
AcDbLine
 10
2219.30668196508
 20
1181.815351605319
 30
0.0
 11
2214.30668196508
 21
1181.815351605319
 31
0.0
1001
GENIUS_GENOREF_13
1005
1F6C
  0
LINE
  5
1F6B
330
1F
100
AcDbEntity
  8
AM_7
  6
AM_ISO08W050x2
100
AcDbLine
 10
2219.30668196508
 20
1181.815351605319
 30
0.0
 11
2219.30668196508
 21
1176.815351605319
 31
0.0
1001
GENIUS_GENOREF_13
1005
1F6C
  0
POINT
  5
1F6C
330
1F
100
AcDbEntity
  8
0
 60
     1
100
AcDbPoint
 10
46.90907049493534
 20
348.177138434218
 30
0.0
1001
GENIUS_GENODEF_13
1002
{
1000
HIER
1070
    10
1002
}
1002
{
1000
MANEDIT
1070
     0
1002
}
1002
{
1000
NOSEL
1070
     0
1002
}
1002
{
1000
BEHIND
1070
     0
1002
}
1002
{
1000
OTHER
1070
     0
1002
}
1002
{
1000
REACTOR
1002
}
1001
GENIUS_GENOENT_13
1002
{
1000
MYREF
1005
1F6C
1002
}
1002
{
1000
GRP
1005
0
1002
}
1001
GENIUS_GENOBJ-N-CRS_13
1002
{
1000
OWNER
1000
GEN
1002
}
1001
GENIUS_GENOLIS_13
1002
{
1000
ENT
1005
1F6B
1005
1F6A
1005
1F69
1005
1F68
1002
}
  0
POINT
  5
1F6D
330
1F
100
AcDbEntity
  8
0
 60
     1
100
AcDbPoint
 10
46.90907049493534
 20
348.177138434218
 30
0.0
1001
GENIUS_GENOLIS_13
1002
{
1000
ENT
1005
1F67
1005
1F66
1005
1F65
1005
1F64
1002
}
1001
GENIUS_GENODEF_13
1002
{
1000
HIER
1070
    10
1002
}
1002
{
1000
MANEDIT
1070
     0
1002
}
1002
{
1000
NOSEL
1070
     0
1002
}
1002
{
1000
BEHIND
1070
     0
1002
}
1002
{
1000
OTHER
1070
     0
1002
}
1002
{
1000
REACTOR
1002
}
1001
GENIUS_GENOENT_13
1002
{
1000
MYREF
1005
1F6D
1002
}
1002
{
1000
GRP
1005
0
1002
}
1001
GENIUS_GENOBJ-N-CRS_13
1002
{
1000
OWNER
1000
GEN
1002
}
  0
LINE
  5
1F6F
330
1F
100
AcDbEntity
  8
AM_4
  6
HIDDEN
 48
0.5
100
AcDbLine
 10
2139.497779863748
 20
1086.609881936754
 30
0.0
 11
2127.497779863748
 21
1086.609881936754
 31
0.0
  0
LINE
  5
1F70
330
1F
100
AcDbEntity
  8
AM_4
  6
HIDDEN
 48
0.5
100
AcDbLine
 10
2139.497779863748
 20
1091.609881936754
 30
0.0
 11
2127.497779863748
 21
1091.609881936754
 31
0.0
  0
LINE
  5
1F71
330
1F
100
AcDbEntity
  8
AM_4
  6
HIDDEN
 48
0.5
100
AcDbLine
 10
2139.497779863748
 20
1091.176869234862
 30
0.0
 11
2127.497779863748
 21
1091.176869234862
 31
0.0
  0
LINE
  5
1F72
330
1F
100
AcDbEntity
  8
AM_4
  6
HIDDEN
 48
0.5
100
AcDbLine
 10
2139.497779863748
 20
1087.042894638647
 30
0.0
 11
2127.497779863748
 21
1087.042894638647
 31
0.0
  0
LINE
  5
1F73
330
1F
100
AcDbEntity
  8
AM_7
  6
AM_ISO08W050x2
100
AcDbLine
 10
2141.497779863748
 20
1089.109881936754
 30
0.0
 11
2126.469530785492
 21
1089.109881936754
 31
0.0
  0
LINE
  5
1F74
330
1F
100
AcDbEntity
  8
AM_4
  6
HIDDEN
 48
0.5
100
AcDbLine
 10
2139.497779863748
 20
1071.609881936754
 30
0.0
 11
2127.497779863748
 21
1071.609881936754
 31
0.0
  0
LINE
  5
1F75
330
1F
100
AcDbEntity
  8
AM_4
  6
HIDDEN
 48
0.5
100
AcDbLine
 10
2139.497779863748
 20
1066.609881936754
 30
0.0
 11
2127.497779863748
 21
1066.609881936754
 31
0.0
  0
LINE
  5
1F76
330
1F
100
AcDbEntity
  8
AM_4
  6
HIDDEN
 48
0.5
100
AcDbLine
 10
2139.497779863748
 20
1067.042894638646
 30
0.0
 11
2127.497779863748
 21
1067.042894638646
 31
0.0
  0
LINE
  5
1F77
330
1F
100
AcDbEntity
  8
AM_4
  6
HIDDEN
 48
0.5
100
AcDbLine
 10
2139.497779863748
 20
1071.176869234862
 30
0.0
 11
2127.497779863748
 21
1071.176869234862
 31
0.0
  0
LINE
  5
1F78
330
1F
100
AcDbEntity
  8
AM_7
  6
AM_ISO08W050x2
100
AcDbLine
 10
2141.497779863748
 20
1069.109881936754
 30
0.0
 11
2126.469530785492
 21
1069.109881936754
 31
0.0
  0
LINE
  5
1F85
330
1F
100
AcDbEntity
  8
AM_7
100
AcDbLine
 10
1959.497779863748
 20
1079.109881936754
 30
0.0
 11
2141.497779863748
 21
1079.109881936754
 31
0.0
1001
GENIUS_GENODEF_13
1002
{
1000
HIER
1070
     0
1002
}
1002
{
1000
MANEDIT
1070
     0
1002
}
1002
{
1000
NOSEL
1070
     0
1002
}
1002
{
1000
BEHIND
1070
     0
1002
}
1002
{
1000
OTHER
1070
     0
1002
}
1002
{
1000
REACTOR
1002
}
1001
GENIUS_GENOBJ-N-CEN_13
1002
{
1000
OWNER
1000
GEN
1002
}
1001
GENIUS_GENCEN_19
1002
{
1040
2.0
1002
}
  0
LINE
  5
1F92
330
1F
100
AcDbEntity
  8
AM_7
100
AcDbLine
 10
1959.497779863748
 20
1305.878332034311
 30
0.0
 11
2141.497779863748
 21
1305.878332034311
 31
0.0
1001
GENIUS_GENOBJ-N-CEN_13
1002
{
1000
OWNER
1000
GEN
1002
}
1001
GENIUS_GENODEF_13
1002
{
1000
HIER
1070
     0
1002
}
1002
{
1000
MANEDIT
1070
     0
1002
}
1002
{
1000
NOSEL
1070
     0
1002
}
1002
{
1000
BEHIND
1070
     0
1002
}
1002
{
1000
OTHER
1070
     0
1002
}
1002
{
1000
REACTOR
1002
}
1001
GENIUS_GENCEN_19
1002
{
1040
2.0
1002
}
  0
LINE
  5
1FA3
330
1F
100
AcDbEntity
  8
AM_7
100
AcDbLine
 10
1959.497779863748
 20
1181.815351605319
 30
0.0
 11
2141.497779863748
 21
1181.815351605319
 31
0.0
1001
GENIUS_GENODEF_13
1002
{
1000
HIER
1070
     0
1002
}
1002
{
1000
MANEDIT
1070
     0
1002
}
1002
{
1000
NOSEL
1070
     0
1002
}
1002
{
1000
BEHIND
1070
     0
1002
}
1002
{
1000
OTHER
1070
     0
1002
}
1002
{
1000
REACTOR
1002
}
1001
GENIUS_GENOBJ-N-CEN_13
1002
{
1000
OWNER
1000
GEN
1002
}
1001
GENIUS_GENCEN_19
1002
{
1040
2.0
1002
}
  0
LINE
  5
1FB0
330
1F
100
AcDbEntity
  8
AM_7
100
AcDbLine
 10
2188.30668196508
 20
1181.815351605319
 30
0.0
 11
2230.30668196508
 21
1181.815351605319
 31
0.0
1001
GENIUS_GENODEF_13
1002
{
1000
HIER
1070
     0
1002
}
1002
{
1000
MANEDIT
1070
     0
1002
}
1002
{
1000
NOSEL
1070
     0
1002
}
1002
{
1000
BEHIND
1070
     0
1002
}
1002
{
1000
OTHER
1070
     0
1002
}
1002
{
1000
REACTOR
1002
}
1001
GENIUS_GENOBJ-N-CEN_13
1002
{
1000
OWNER
1000
GEN
1002
}
1001
GENIUS_GENCEN_19
1002
{
1040
2.0
1002
}
  0
CIRCLE
  5
1FB1
330
1F
100
AcDbEntity
  8
AM_VIS
100
AcDbCircle
 10
2082.997779863748
 20
1162.815351605319
 30
0.0
 40
5.25
  0
CIRCLE
  5
1FB2
330
1F
100
AcDbEntity
  8
AM_VIS
100
AcDbCircle
 10
2082.997779863748
 20
1162.815351605319
 30
0.0
 40
3.25
  0
CIRCLE
  5
1FB3
330
1F
100
AcDbEntity
  8
AM_VIS
100
AcDbCircle
 10
2082.997779863748
 20
1200.815351605319
 30
0.0
 40
5.25
  0
CIRCLE
  5
1FB4
330
1F
100
AcDbEntity
  8
AM_VIS
100
AcDbCircle
 10
2082.997779863748
 20
1200.815351605319
 30
0.0
 40
3.25
  0
CIRCLE
  5
1FB5
330
1F
100
AcDbEntity
  8
AM_VIS
100
AcDbCircle
 10
2074.497779863748
 20
1152.815351605319
 30
0.0
 40
4.0
  0
LINE
  5
1FB6
330
1F
100
AcDbEntity
  8
AM_4
  6
HIDDEN
 48
0.5
100
AcDbLine
 10
2054.539045741113
 20
1141.214454145698
 30
0.0
 11
2053.847779863748
 21
1140.815351605319
 31
0.0
  0
LINE
  5
1FB7
330
1F
100
AcDbEntity
  8
AM_7
  6
AM_ISO08W050x2
100
AcDbLine
 10
2056.997779863748
 20
1159.234902412888
 30
0.0
 11
2056.997779863748
 21
1138.815351605319
 31
0.0
  0
LINE
  5
1FB8
330
1F
100
AcDbEntity
  8
AM_4
  6
HIDDEN
 48
0.5
100
AcDbLine
 10
2053.997779863748
 20
1140.901954145697
 30
0.0
 11
2053.997779863748
 21
1151.815351605319
 31
0.0
  0
LINE
  5
1FB9
330
1F
100
AcDbEntity
  8
AM_4
  6
HIDDEN
 48
0.5
100
AcDbLine
 10
2054.539045741113
 20
1141.214454145698
 30
0.0
 11
2054.539045741113
 21
1155.815351605319
 31
0.0
  0
LINE
  5
1FBA
330
1F
100
AcDbEntity
  8
AM_4
  6
HIDDEN
 48
0.5
100
AcDbLine
 10
2059.997779863748
 20
1140.901954145697
 30
0.0
 11
2059.997779863748
 21
1151.815351605319
 31
0.0
  0
LINE
  5
1FBB
330
1F
100
AcDbEntity
  8
AM_4
  6
HIDDEN
 48
0.5
100
AcDbLine
 10
2059.456513986383
 20
1141.214454145698
 30
0.0
 11
2059.456513986383
 21
1155.815351605319
 31
0.0
  0
LINE
  5
1FBC
330
1F
100
AcDbEntity
  8
AM_4
  6
HIDDEN
 48
0.5
100
AcDbLine
 10
2054.539045741113
 20
1141.214454145698
 30
0.0
 11
2059.456513986383
 21
1141.214454145698
 31
0.0
  0
LINE
  5
1FBD
330
1F
100
AcDbEntity
  8
AM_4
  6
HIDDEN
 48
0.5
100
AcDbLine
 10
2059.456513986383
 20
1141.214454145698
 30
0.0
 11
2060.147779863748
 21
1140.815351605319
 31
0.0
  0
LINE
  5
1FBE
330
1F
100
AcDbEntity
  8
AM_4
  6
HIDDEN
 48
0.5
100
AcDbLine
 10
2059.997779863748
 20
1151.815351605319
 30
0.0
 11
2059.456513986383
 21
1152.815351605319
 31
0.0
  0
LINE
  5
1FBF
330
1F
100
AcDbEntity
  8
AM_4
  6
HIDDEN
 48
0.5
100
AcDbLine
 10
2053.997779863748
 20
1151.815351605319
 30
0.0
 11
2054.539045741113
 21
1152.815351605319
 31
0.0
  0
LINE
  5
1FC0
330
1F
100
AcDbEntity
  8
AM_4
  6
HIDDEN
 48
0.5
100
AcDbLine
 10
2059.997779863748
 20
1151.815351605319
 30
0.0
 11
2053.997779863748
 21
1151.815351605319
 31
0.0
  0
LINE
  5
1FC1
330
1F
100
AcDbEntity
  8
AM_4
  6
HIDDEN
 48
0.5
100
AcDbLine
 10
2056.997779863748
 20
1157.234902412888
 30
0.0
 11
2059.456513986383
 21
1155.815351605319
 31
0.0
  0
LINE
  5
1FC2
330
1F
100
AcDbEntity
  8
AM_4
  6
HIDDEN
 48
0.5
100
AcDbLine
 10
2056.997779863748
 20
1157.234902412888
 30
0.0
 11
2054.539045741113
 21
1155.815351605319
 31
0.0
  0
LINE
  5
1FC3
330
1F
100
AcDbEntity
  8
AM_4
  6
HIDDEN
 48
0.5
100
AcDbLine
 10
2059.456513986383
 20
1155.815351605319
 30
0.0
 11
2054.539045741113
 21
1155.815351605319
 31
0.0
  0
LINE
  5
1FC4
330
1F
100
AcDbEntity
  8
AM_4
  6
HIDDEN
 48
0.5
100
AcDbLine
 10
2087.039045741113
 20
1141.214454145698
 30
0.0
 11
2086.347779863748
 21
1140.815351605319
 31
0.0
  0
LINE
  5
1FC5
330
1F
100
AcDbEntity
  8
AM_7
  6
AM_ISO08W050x2
100
AcDbLine
 10
2089.497779863748
 20
1159.234902412888
 30
0.0
 11
2089.497779863748
 21
1138.815351605319
 31
0.0
  0
LINE
  5
1FC6
330
1F
100
AcDbEntity
  8
AM_4
  6
HIDDEN
 48
0.5
100
AcDbLine
 10
2086.497779863748
 20
1140.901954145697
 30
0.0
 11
2086.497779863748
 21
1151.815351605319
 31
0.0
  0
LINE
  5
1FC7
330
1F
100
AcDbEntity
  8
AM_4
  6
HIDDEN
 48
0.5
100
AcDbLine
 10
2087.039045741113
 20
1141.214454145698
 30
0.0
 11
2087.039045741113
 21
1155.815351605319
 31
0.0
  0
LINE
  5
1FC8
330
1F
100
AcDbEntity
  8
AM_4
  6
HIDDEN
 48
0.5
100
AcDbLine
 10
2092.497779863748
 20
1140.901954145697
 30
0.0
 11
2092.497779863748
 21
1151.815351605319
 31
0.0
  0
LINE
  5
1FC9
330
1F
100
AcDbEntity
  8
AM_4
  6
HIDDEN
 48
0.5
100
AcDbLine
 10
2091.956513986383
 20
1141.214454145698
 30
0.0
 11
2091.956513986383
 21
1155.815351605319
 31
0.0
  0
LINE
  5
1FCA
330
1F
100
AcDbEntity
  8
AM_4
  6
HIDDEN
 48
0.5
100
AcDbLine
 10
2087.039045741113
 20
1141.214454145698
 30
0.0
 11
2091.956513986383
 21
1141.214454145698
 31
0.0
  0
LINE
  5
1FCB
330
1F
100
AcDbEntity
  8
AM_4
  6
HIDDEN
 48
0.5
100
AcDbLine
 10
2091.956513986383
 20
1141.214454145698
 30
0.0
 11
2092.647779863748
 21
1140.815351605319
 31
0.0
  0
LINE
  5
1FCC
330
1F
100
AcDbEntity
  8
AM_4
  6
HIDDEN
 48
0.5
100
AcDbLine
 10
2092.497779863748
 20
1151.815351605319
 30
0.0
 11
2091.956513986383
 21
1152.815351605319
 31
0.0
  0
LINE
  5
1FCD
330
1F
100
AcDbEntity
  8
AM_4
  6
HIDDEN
 48
0.5
100
AcDbLine
 10
2086.497779863748
 20
1151.815351605319
 30
0.0
 11
2087.039045741113
 21
1152.815351605319
 31
0.0
  0
LINE
  5
1FCE
330
1F
100
AcDbEntity
  8
AM_4
  6
HIDDEN
 48
0.5
100
AcDbLine
 10
2092.497779863748
 20
1151.815351605319
 30
0.0
 11
2086.497779863748
 21
1151.815351605319
 31
0.0
  0
LINE
  5
1FCF
330
1F
100
AcDbEntity
  8
AM_4
  6
HIDDEN
 48
0.5
100
AcDbLine
 10
2089.497779863748
 20
1157.234902412888
 30
0.0
 11
2091.956513986383
 21
1155.815351605319
 31
0.0
  0
LINE
  5
1FD0
330
1F
100
AcDbEntity
  8
AM_4
  6
HIDDEN
 48
0.5
100
AcDbLine
 10
2089.497779863748
 20
1157.234902412888
 30
0.0
 11
2087.039045741113
 21
1155.815351605319
 31
0.0
  0
LINE
  5
1FD1
330
1F
100
AcDbEntity
  8
AM_4
  6
HIDDEN
 48
0.5
100
AcDbLine
 10
2091.956513986383
 20
1155.815351605319
 30
0.0
 11
2087.039045741113
 21
1155.815351605319
 31
0.0
  0
LINE
  5
1FD2
330
1F
100
AcDbEntity
  8
AM_4
  6
HIDDEN
 48
0.5
100
AcDbLine
 10
2054.539045741113
 20
1222.416249064941
 30
0.0
 11
2053.847779863748
 21
1222.815351605319
 31
0.0
  0
LINE
  5
1FD3
330
1F
100
AcDbEntity
  8
AM_7
  6
AM_ISO08W050x2
100
AcDbLine
 10
2056.997779863748
 20
1204.39580079775
 30
0.0
 11
2056.997779863748
 21
1224.815351605319
 31
0.0
  0
LINE
  5
1FD4
330
1F
100
AcDbEntity
  8
AM_4
  6
HIDDEN
 48
0.5
100
AcDbLine
 10
2053.997779863748
 20
1222.728749064941
 30
0.0
 11
2053.997779863748
 21
1211.815351605319
 31
0.0
  0
LINE
  5
1FD5
330
1F
100
AcDbEntity
  8
AM_4
  6
HIDDEN
 48
0.5
100
AcDbLine
 10
2054.539045741113
 20
1222.416249064941
 30
0.0
 11
2054.539045741113
 21
1207.815351605319
 31
0.0
  0
LINE
  5
1FD6
330
1F
100
AcDbEntity
  8
AM_4
  6
HIDDEN
 48
0.5
100
AcDbLine
 10
2059.997779863748
 20
1222.728749064941
 30
0.0
 11
2059.997779863748
 21
1211.815351605319
 31
0.0
  0
LINE
  5
1FD7
330
1F
100
AcDbEntity
  8
AM_4
  6
HIDDEN
 48
0.5
100
AcDbLine
 10
2059.456513986383
 20
1222.416249064941
 30
0.0
 11
2059.456513986383
 21
1207.815351605319
 31
0.0
  0
LINE
  5
1FD8
330
1F
100
AcDbEntity
  8
AM_4
  6
HIDDEN
 48
0.5
100
AcDbLine
 10
2054.539045741113
 20
1222.416249064941
 30
0.0
 11
2059.456513986383
 21
1222.416249064941
 31
0.0
  0
LINE
  5
1FD9
330
1F
100
AcDbEntity
  8
AM_4
  6
HIDDEN
 48
0.5
100
AcDbLine
 10
2059.456513986383
 20
1222.416249064941
 30
0.0
 11
2060.147779863748
 21
1222.815351605319
 31
0.0
  0
LINE
  5
1FDA
330
1F
100
AcDbEntity
  8
AM_4
  6
HIDDEN
 48
0.5
100
AcDbLine
 10
2059.997779863748
 20
1211.815351605319
 30
0.0
 11
2059.456513986383
 21
1210.815351605319
 31
0.0
  0
LINE
  5
1FDB
330
1F
100
AcDbEntity
  8
AM_4
  6
HIDDEN
 48
0.5
100
AcDbLine
 10
2053.997779863748
 20
1211.815351605319
 30
0.0
 11
2054.539045741113
 21
1210.815351605319
 31
0.0
  0
LINE
  5
1FDC
330
1F
100
AcDbEntity
  8
AM_4
  6
HIDDEN
 48
0.5
100
AcDbLine
 10
2059.997779863748
 20
1211.815351605319
 30
0.0
 11
2053.997779863748
 21
1211.815351605319
 31
0.0
  0
LINE
  5
1FDD
330
1F
100
AcDbEntity
  8
AM_4
  6
HIDDEN
 48
0.5
100
AcDbLine
 10
2056.997779863748
 20
1206.39580079775
 30
0.0
 11
2059.456513986383
 21
1207.815351605319
 31
0.0
  0
LINE
  5
1FDE
330
1F
100
AcDbEntity
  8
AM_4
  6
HIDDEN
 48
0.5
100
AcDbLine
 10
2056.997779863748
 20
1206.39580079775
 30
0.0
 11
2054.539045741113
 21
1207.815351605319
 31
0.0
  0
LINE
  5
1FDF
330
1F
100
AcDbEntity
  8
AM_4
  6
HIDDEN
 48
0.5
100
AcDbLine
 10
2059.456513986383
 20
1207.815351605319
 30
0.0
 11
2054.539045741113
 21
1207.815351605319
 31
0.0
  0
LINE
  5
1FE0
330
1F
100
AcDbEntity
  8
AM_4
  6
HIDDEN
 48
0.5
100
AcDbLine
 10
2087.039045741113
 20
1222.416249064941
 30
0.0
 11
2086.347779863748
 21
1222.815351605319
 31
0.0
  0
LINE
  5
1FE1
330
1F
100
AcDbEntity
  8
AM_7
  6
AM_ISO08W050x2
100
AcDbLine
 10
2089.497779863748
 20
1204.39580079775
 30
0.0
 11
2089.497779863748
 21
1224.815351605319
 31
0.0
  0
LINE
  5
1FE2
330
1F
100
AcDbEntity
  8
AM_4
  6
HIDDEN
 48
0.5
100
AcDbLine
 10
2086.497779863748
 20
1222.728749064941
 30
0.0
 11
2086.497779863748
 21
1211.815351605319
 31
0.0
  0
LINE
  5
1FE3
330
1F
100
AcDbEntity
  8
AM_4
  6
HIDDEN
 48
0.5
100
AcDbLine
 10
2087.039045741113
 20
1222.416249064941
 30
0.0
 11
2087.039045741113
 21
1207.815351605319
 31
0.0
  0
LINE
  5
1FE4
330
1F
100
AcDbEntity
  8
AM_4
  6
HIDDEN
 48
0.5
100
AcDbLine
 10
2092.497779863748
 20
1222.728749064941
 30
0.0
 11
2092.497779863748
 21
1211.815351605319
 31
0.0
  0
LINE
  5
1FE5
330
1F
100
AcDbEntity
  8
AM_4
  6
HIDDEN
 48
0.5
100
AcDbLine
 10
2091.956513986383
 20
1222.416249064941
 30
0.0
 11
2091.956513986383
 21
1207.815351605319
 31
0.0
  0
LINE
  5
1FE6
330
1F
100
AcDbEntity
  8
AM_4
  6
HIDDEN
 48
0.5
100
AcDbLine
 10
2087.039045741113
 20
1222.416249064941
 30
0.0
 11
2091.956513986383
 21
1222.416249064941
 31
0.0
  0
LINE
  5
1FE7
330
1F
100
AcDbEntity
  8
AM_4
  6
HIDDEN
 48
0.5
100
AcDbLine
 10
2091.956513986383
 20
1222.416249064941
 30
0.0
 11
2092.647779863748
 21
1222.815351605319
 31
0.0
  0
LINE
  5
1FE8
330
1F
100
AcDbEntity
  8
AM_4
  6
HIDDEN
 48
0.5
100
AcDbLine
 10
2092.497779863748
 20
1211.815351605319
 30
0.0
 11
2091.956513986383
 21
1210.815351605319
 31
0.0
  0
LINE
  5
1FE9
330
1F
100
AcDbEntity
  8
AM_4
  6
HIDDEN
 48
0.5
100
AcDbLine
 10
2086.497779863748
 20
1211.815351605319
 30
0.0
 11
2087.039045741113
 21
1210.815351605319
 31
0.0
  0
LINE
  5
1FEA
330
1F
100
AcDbEntity
  8
AM_4
  6
HIDDEN
 48
0.5
100
AcDbLine
 10
2092.497779863748
 20
1211.815351605319
 30
0.0
 11
2086.497779863748
 21
1211.815351605319
 31
0.0
  0
LINE
  5
1FEB
330
1F
100
AcDbEntity
  8
AM_4
  6
HIDDEN
 48
0.5
100
AcDbLine
 10
2089.497779863748
 20
1206.39580079775
 30
0.0
 11
2091.956513986383
 21
1207.815351605319
 31
0.0
  0
LINE
  5
1FEC
330
1F
100
AcDbEntity
  8
AM_4
  6
HIDDEN
 48
0.5
100
AcDbLine
 10
2089.497779863748
 20
1206.39580079775
 30
0.0
 11
2087.039045741113
 21
1207.815351605319
 31
0.0
  0
LINE
  5
1FED
330
1F
100
AcDbEntity
  8
AM_4
  6
HIDDEN
 48
0.5
100
AcDbLine
 10
2091.956513986383
 20
1207.815351605319
 30
0.0
 11
2087.039045741113
 21
1207.815351605319
 31
0.0
  0
CIRCLE
  5
1FEE
330
1F
100
AcDbEntity
  8
AM_VIS
100
AcDbCircle
 10
2074.497779863748
 20
1210.815351605319
 30
0.0
 40
4.0
  0
POLYLINE
  5
1FEF
330
1F
100
AcDbEntity
  8
0
  6
Continuous
100
AcDb2dPolyline
 66
     1
 10
0.0
 20
0.0
 30
0.0
 70
     1
 40
1.0
 41
1.0
  0
VERTEX
  5
1FF0
330
1FEF
100
AcDbEntity
  8
0
  6
Continuous
100
AcDbVertex
100
AcDb2dVertex
 10
2074.997779863748
 20
1210.815351605319
 30
0.0
 42
1.0
  0
VERTEX
  5
1FF1
330
1FEF
100
AcDbEntity
  8
0
  6
Continuous
100
AcDbVertex
100
AcDb2dVertex
 10
2073.997779863748
 20
1210.815351605319
 30
0.0
 42
1.0
  0
SEQEND
  5
1FF2
330
1FEF
100
AcDbEntity
  8
0
  6
Continuous
  0
CIRCLE
  5
1FF3
330
1F
100
AcDbEntity
  8
AM_VIS
100
AcDbCircle
 10
2074.497779863748
 20
1152.815351605319
 30
0.0
 40
4.0
  0
POLYLINE
  5
1FF4
330
1F
100
AcDbEntity
  8
0
  6
Continuous
100
AcDb2dPolyline
 66
     1
 10
0.0
 20
0.0
 30
0.0
 70
     1
 40
1.0
 41
1.0
  0
VERTEX
  5
1FF5
330
1FF4
100
AcDbEntity
  8
0
  6
Continuous
100
AcDbVertex
100
AcDb2dVertex
 10
2074.997779863748
 20
1152.815351605319
 30
0.0
 42
-1.0
  0
VERTEX
  5
1FF6
330
1FF4
100
AcDbEntity
  8
0
  6
Continuous
100
AcDbVertex
100
AcDb2dVertex
 10
2073.997779863748
 20
1152.815351605319
 30
0.0
 42
-1.0
  0
SEQEND
  5
1FF7
330
1FF4
100
AcDbEntity
  8
0
  6
Continuous
  0
CIRCLE
  5
1FF8
330
1F
100
AcDbEntity
  8
AM_4
  6
HIDDEN
 48
0.5
100
AcDbCircle
 10
2082.997779863748
 20
1191.315351605319
 30
0.0
 40
3.0
  0
CIRCLE
  5
1FF9
330
1F
100
AcDbEntity
  8
AM_4
  6
HIDDEN
 48
0.5
100
AcDbCircle
 10
2082.997779863748
 20
1172.315351605319
 30
0.0
 40
3.0
  0
LINE
  5
1FFA
330
1F
100
AcDbEntity
  8
AM_7
  6
AM_ISO08W050x2
100
AcDbLine
 10
2082.997779863748
 20
1200.815351605319
 30
0.0
 11
2090.247779863748
 21
1200.815351605319
 31
0.0
1001
GENIUS_GENOREF_13
1005
2010
  0
LINE
  5
1FFB
330
1F
100
AcDbEntity
  8
AM_7
  6
AM_ISO08W050x2
100
AcDbLine
 10
2082.997779863748
 20
1200.815351605319
 30
0.0
 11
2082.997779863748
 21
1208.065351605319
 31
0.0
1001
GENIUS_GENOREF_13
1005
2010
  0
LINE
  5
1FFC
330
1F
100
AcDbEntity
  8
AM_7
  6
AM_ISO08W050x2
100
AcDbLine
 10
2082.997779863748
 20
1200.815351605319
 30
0.0
 11
2075.747779863748
 21
1200.815351605319
 31
0.0
1001
GENIUS_GENOREF_13
1005
2010
  0
LINE
  5
1FFD
330
1F
100
AcDbEntity
  8
AM_7
  6
AM_ISO08W050x2
100
AcDbLine
 10
2082.997779863748
 20
1200.815351605319
 30
0.0
 11
2082.997779863748
 21
1193.565351605319
 31
0.0
1001
GENIUS_GENOREF_13
1005
2010
  0
LINE
  5
1FFE
330
1F
100
AcDbEntity
  8
AM_7
  6
AM_ISO08W050x2
100
AcDbLine
 10
2082.997779863748
 20
1191.315351605319
 30
0.0
 11
2087.997779863748
 21
1191.315351605319
 31
0.0
1001
GENIUS_GENOREF_13
1005
200F
  0
LINE
  5
1FFF
330
1F
100
AcDbEntity
  8
AM_7
  6
AM_ISO08W050x2
100
AcDbLine
 10
2082.997779863748
 20
1191.315351605319
 30
0.0
 11
2082.997779863748
 21
1196.315351605319
 31
0.0
1001
GENIUS_GENOREF_13
1005
200F
  0
LINE
  5
2000
330
1F
100
AcDbEntity
  8
AM_7
  6
AM_ISO08W050x2
100
AcDbLine
 10
2082.997779863748
 20
1191.315351605319
 30
0.0
 11
2077.997779863748
 21
1191.315351605319
 31
0.0
1001
GENIUS_GENOREF_13
1005
200F
  0
LINE
  5
2001
330
1F
100
AcDbEntity
  8
AM_7
  6
AM_ISO08W050x2
100
AcDbLine
 10
2082.997779863748
 20
1191.315351605319
 30
0.0
 11
2082.997779863748
 21
1186.315351605319
 31
0.0
1001
GENIUS_GENOREF_13
1005
200F
  0
LINE
  5
2002
330
1F
100
AcDbEntity
  8
AM_7
  6
AM_ISO08W050x2
100
AcDbLine
 10
2082.997779863748
 20
1172.315351605319
 30
0.0
 11
2087.997779863748
 21
1172.315351605319
 31
0.0
1001
GENIUS_GENOREF_13
1005
200E
  0
LINE
  5
2003
330
1F
100
AcDbEntity
  8
AM_7
  6
AM_ISO08W050x2
100
AcDbLine
 10
2082.997779863748
 20
1172.315351605319
 30
0.0
 11
2082.997779863748
 21
1177.315351605319
 31
0.0
1001
GENIUS_GENOREF_13
1005
200E
  0
LINE
  5
2004
330
1F
100
AcDbEntity
  8
AM_7
  6
AM_ISO08W050x2
100
AcDbLine
 10
2082.997779863748
 20
1172.315351605319
 30
0.0
 11
2077.997779863748
 21
1172.315351605319
 31
0.0
1001
GENIUS_GENOREF_13
1005
200E
  0
LINE
  5
2005
330
1F
100
AcDbEntity
  8
AM_7
  6
AM_ISO08W050x2
100
AcDbLine
 10
2082.997779863748
 20
1172.315351605319
 30
0.0
 11
2082.997779863748
 21
1167.315351605319
 31
0.0
1001
GENIUS_GENOREF_13
1005
200E
  0
LINE
  5
2006
330
1F
100
AcDbEntity
  8
AM_7
  6
AM_ISO08W050x2
100
AcDbLine
 10
2082.997779863748
 20
1162.815351605319
 30
0.0
 11
2090.247779863748
 21
1162.815351605319
 31
0.0
1001
GENIUS_GENOREF_13
1005
200D
  0
LINE
  5
2007
330
1F
100
AcDbEntity
  8
AM_7
  6
AM_ISO08W050x2
100
AcDbLine
 10
2082.997779863748
 20
1162.815351605319
 30
0.0
 11
2082.997779863748
 21
1170.065351605319
 31
0.0
1001
GENIUS_GENOREF_13
1005
200D
  0
LINE
  5
2008
330
1F
100
AcDbEntity
  8
AM_7
  6
AM_ISO08W050x2
100
AcDbLine
 10
2082.997779863748
 20
1162.815351605319
 30
0.0
 11
2075.747779863748
 21
1162.815351605319
 31
0.0
1001
GENIUS_GENOREF_13
1005
200D
  0
LINE
  5
2009
330
1F
100
AcDbEntity
  8
AM_7
  6
AM_ISO08W050x2
100
AcDbLine
 10
2082.997779863748
 20
1162.815351605319
 30
0.0
 11
2082.997779863748
 21
1155.565351605319
 31
0.0
1001
GENIUS_GENOREF_13
1005
200D
  0
LINE
  5
200A
330
1F
100
AcDbEntity
  8
AM_7
  6
AM_ISO08W050x2
100
AcDbLine
 10
2074.497779863748
 20
1152.815351605319
 30
0.0
 11
2074.497779863748
 21
1158.815351605319
 31
0.0
1001
GENIUS_GENOREF_13
1005
200C
  0
LINE
  5
200B
330
1F
100
AcDbEntity
  8
AM_7
  6
AM_ISO08W050x2
100
AcDbLine
 10
2074.497779863748
 20
1152.815351605319
 30
0.0
 11
2074.497779863748
 21
1146.815351605319
 31
0.0
1001
GENIUS_GENOREF_13
1005
200C
  0
POINT
  5
200C
330
1F
100
AcDbEntity
  8
0
 60
     1
100
AcDbPoint
 10
42.02299636517682
 20
348.177138434218
 30
0.0
1001
GENIUS_GENOLIS_13
1002
{
1000
ENT
1005
200B
1005
0
1005
200A
1005
0
1002
}
1001
GENIUS_GENOBJ-N-CRS_13
1002
{
1000
OWNER
1000
GEN
1002
}
1001
GENIUS_GENOENT_13
1002
{
1000
MYREF
1005
200C
1002
}
1002
{
1000
GRP
1005
0
1002
}
1001
GENIUS_GENODEF_13
1002
{
1000
HIER
1070
    10
1002
}
1002
{
1000
MANEDIT
1070
     1
1002
}
1002
{
1000
NOSEL
1070
     0
1002
}
1002
{
1000
BEHIND
1070
     0
1002
}
1002
{
1000
OTHER
1070
     0
1002
}
1002
{
1000
REACTOR
1002
}
  0
POINT
  5
200D
330
1F
100
AcDbEntity
  8
0
 60
     1
100
AcDbPoint
 10
42.02299636517682
 20
348.177138434218
 30
0.0
1001
GENIUS_GENODEF_13
1002
{
1000
HIER
1070
    10
1002
}
1002
{
1000
MANEDIT
1070
     0
1002
}
1002
{
1000
NOSEL
1070
     0
1002
}
1002
{
1000
BEHIND
1070
     0
1002
}
1002
{
1000
OTHER
1070
     0
1002
}
1002
{
1000
REACTOR
1002
}
1001
GENIUS_GENOBJ-N-CRS_13
1002
{
1000
OWNER
1000
GEN
1002
}
1001
GENIUS_GENOLIS_13
1002
{
1000
ENT
1005
2009
1005
2008
1005
2007
1005
2006
1002
}
1001
GENIUS_GENOENT_13
1002
{
1000
MYREF
1005
200D
1002
}
1002
{
1000
GRP
1005
0
1002
}
  0
POINT
  5
200E
330
1F
100
AcDbEntity
  8
0
 60
     1
100
AcDbPoint
 10
42.02299636517682
 20
348.177138434218
 30
0.0
1001
GENIUS_GENOBJ-N-CRS_13
1002
{
1000
OWNER
1000
GEN
1002
}
1001
GENIUS_GENOENT_13
1002
{
1000
MYREF
1005
200E
1002
}
1002
{
1000
GRP
1005
0
1002
}
1001
GENIUS_GENOLIS_13
1002
{
1000
ENT
1005
2005
1005
2004
1005
2003
1005
2002
1002
}
1001
GENIUS_GENODEF_13
1002
{
1000
HIER
1070
    10
1002
}
1002
{
1000
MANEDIT
1070
     0
1002
}
1002
{
1000
NOSEL
1070
     0
1002
}
1002
{
1000
BEHIND
1070
     0
1002
}
1002
{
1000
OTHER
1070
     0
1002
}
1002
{
1000
REACTOR
1002
}
  0
POINT
  5
200F
330
1F
100
AcDbEntity
  8
0
 60
     1
100
AcDbPoint
 10
42.02299636517682
 20
348.177138434218
 30
0.0
1001
GENIUS_GENOLIS_13
1002
{
1000
ENT
1005
2001
1005
2000
1005
1FFF
1005
1FFE
1002
}
1001
GENIUS_GENODEF_13
1002
{
1000
HIER
1070
    10
1002
}
1002
{
1000
MANEDIT
1070
     0
1002
}
1002
{
1000
NOSEL
1070
     0
1002
}
1002
{
1000
BEHIND
1070
     0
1002
}
1002
{
1000
OTHER
1070
     0
1002
}
1002
{
1000
REACTOR
1002
}
1001
GENIUS_GENOENT_13
1002
{
1000
MYREF
1005
200F
1002
}
1002
{
1000
GRP
1005
0
1002
}
1001
GENIUS_GENOBJ-N-CRS_13
1002
{
1000
OWNER
1000
GEN
1002
}
  0
POINT
  5
2010
330
1F
100
AcDbEntity
  8
0
 60
     1
100
AcDbPoint
 10
42.02299636517682
 20
348.177138434218
 30
0.0
1001
GENIUS_GENODEF_13
1002
{
1000
HIER
1070
    10
1002
}
1002
{
1000
MANEDIT
1070
     0
1002
}
1002
{
1000
NOSEL
1070
     0
1002
}
1002
{
1000
BEHIND
1070
     0
1002
}
1002
{
1000
OTHER
1070
     0
1002
}
1002
{
1000
REACTOR
1002
}
1001
GENIUS_GENOBJ-N-CRS_13
1002
{
1000
OWNER
1000
GEN
1002
}
1001
GENIUS_GENOLIS_13
1002
{
1000
ENT
1005
1FFD
1005
1FFC
1005
1FFB
1005
1FFA
1002
}
1001
GENIUS_GENOENT_13
1002
{
1000
MYREF
1005
2010
1002
}
1002
{
1000
GRP
1005
0
1002
}
  0
LINE
  5
206B
330
1F
100
AcDbEntity
  8
AM_VIS
100
AcDbLine
 10
1996.497779863748
 20
1175.115351605319
 30
0.0
 11
1996.497779863748
 21
1174.815351605319
 31
0.0
  0
LINE
  5
206C
330
1F
100
AcDbEntity
  8
AM_VIS
100
AcDbLine
 10
1996.497779863748
 20
1174.559651279587
 30
0.0
 11
1996.497779863748
 21
1174.815351605319
 31
0.0
  0
SPLINE
  5
206D
330
1F
100
AcDbEntity
  8
AM_VIS
100
AcDbSpline
210
0.0
220
0.0
230
1.0
 70
    11
 71
     3
 72
    66
 73
    62
 74
     0
 42
0.0000000001
 43
0.0000000001
 40
0.0
 40
0.0
 40
0.0
 40
0.0
 40
0.4268332307447942
 40
0.4268332307447942
 40
0.8536664614895883
 40
0.8536664614895883
 40
1.280499692234382
 40
1.280499692234382
 40
1.707332922979176
 40
1.707332922979176
 40
2.778273649972831
 40
2.778273649972831
 40
3.313744013469658
 40
3.313744013469658
 40
3.849214376966486
 40
3.849214376966486
 40
4.337112050782105
 40
4.337112050782105
 40
4.825009724597722
 40
4.825009724597722
 40
5.31290739841334
 40
5.31290739841334
 40
5.800805072228959
 40
5.800805072228959
 40
6.219933053438301
 40
6.219933053438301
 40
6.639061034647644
 40
6.639061034647644
 40
7.058189015856987
 40
7.058189015856987
 40
7.477316997066329
 40
7.477316997066329
 40
7.896444978275674
 40
7.896444978275674
 40
8.31557295948502
 40
8.31557295948502
 40
8.734700940694366
 40
8.734700940694366
 40
9.153828921903713
 40
9.153828921903713
 40
9.641726595719333
 40
9.641726595719333
 40
10.12962426953495
 40
10.12962426953495
 40
10.61752194335057
 40
10.61752194335057
 40
11.10541961716619
 40
11.10541961716619
 40
11.64088998066302
 40
11.64088998066302
 40
12.17636034415985
 40
12.17636034415985
 40
13.2473010711535
 40
13.2473010711535
 40
13.67413430189829
 40
13.67413430189829
 40
14.10096753264308
 40
14.10096753264308
 40
14.52780076338787
 40
14.52780076338787
 40
14.95463399413266
 40
14.95463399413266
 40
14.95463399413266
 40
14.95463399413266
 10
1993.497779863748
 20
1170.169656712256
 30
0.0
 10
1993.355502120166
 20
1170.169656712256
 30
0.0
 10
1993.210826812179
 20
1170.181409022075
 30
0.0
 10
1992.927525493216
 20
1170.228604450989
 30
0.0
 10
1992.788885133058
 20
1170.264028045724
 30
0.0
 10
1992.526631493928
 20
1170.354946931359
 30
0.0
 10
1992.402713388902
 20
1170.410524896781
 30
0.0
 10
1992.175605823901
 20
1170.535752956838
 30
0.0
 10
1992.072399931086
 20
1170.605410553166
 30
0.0
 10
1991.75299403872
 20
1170.859211897904
 30
0.0
 10
1991.563743332207
 20
1171.088770512833
 30
0.0
 10
1991.374110756616
 20
1171.471768347472
 30
0.0
 10
1991.326241914835
 20
1171.605771455534
 30
0.0
 10
1991.263056404438
 20
1171.878132358534
 30
0.0
 10
1991.247779863748
 20
1172.016497612221
 30
0.0
 10
1991.247779863748
 20
1172.275515514384
 30
0.0
 10
1991.260485536013
 20
1172.405664916995
 30
0.0
 10
1991.316554583649
 20
1172.669475546613
 30
0.0
 10
1991.359928197357
 20
1172.803132688082
 30
0.0
 10
1991.477964246864
 20
1173.063669233628
 30
0.0
 10
1991.552731186931
 20
1173.190727211286
 30
0.0
 10
1991.729827363153
 20
1173.428554045035
 30
0.0
 10
1991.832176263882
 20
1173.53929691684
 30
0.0
 10
1992.039943973494
 20
1173.722638423736
 30
0.0
 10
1992.148733954527
 20
1173.803528754895
 30
0.0
 10
1992.386741849699
 20
1173.947633928967
 30
0.0
 10
1992.515956460816
 20
1174.010839206503
 30
0.0
 10
1992.7865638164
 20
1174.11301300246
 30
0.0
 10
1992.928204270075
 20
1174.152068729303
 30
0.0
 10
1993.213956578048
 20
1174.203471549804
 30
0.0
 10
1993.358070536678
 20
1174.215807326378
 30
0.0
 10
1993.637489190818
 20
1174.215807326378
 30
0.0
 10
1993.781603149448
 20
1174.203471549804
 30
0.0
 10
1994.06735545742
 20
1174.152068729303
 30
0.0
 10
1994.208995911096
 20
1174.11301300246
 30
0.0
 10
1994.47960326668
 20
1174.010839206503
 30
0.0
 10
1994.608817877796
 20
1173.947633928967
 30
0.0
 10
1994.846825772969
 20
1173.803528754895
 30
0.0
 10
1994.955615754002
 20
1173.722638423736
 30
0.0
 10
1995.163383463614
 20
1173.53929691684
 30
0.0
 10
1995.265732364343
 20
1173.428554045035
 30
0.0
 10
1995.442828540565
 20
1173.190727211286
 30
0.0
 10
1995.517595480632
 20
1173.063669233628
 30
0.0
 10
1995.635631530139
 20
1172.803132688082
 30
0.0
 10
1995.679005143847
 20
1172.669475546613
 30
0.0
 10
1995.735074191482
 20
1172.405664916995
 30
0.0
 10
1995.747779863748
 20
1172.275515514384
 30
0.0
 10
1995.747779863748
 20
1172.016497612221
 30
0.0
 10
1995.732503323058
 20
1171.878132358534
 30
0.0
 10
1995.669317812661
 20
1171.605771455534
 30
0.0
 10
1995.621448970879
 20
1171.471768347472
 30
0.0
 10
1995.431816395289
 20
1171.088770512833
 30
0.0
 10
1995.242565688776
 20
1170.859211897904
 30
0.0
 10
1994.92315979641
 20
1170.605410553166
 30
0.0
 10
1994.819953903595
 20
1170.535752956838
 30
0.0
 10
1994.592846338594
 20
1170.410524896781
 30
0.0
 10
1994.468928233568
 20
1170.354946931359
 30
0.0
 10
1994.206674594438
 20
1170.264028045724
 30
0.0
 10
1994.068034234279
 20
1170.228604450989
 30
0.0
 10
1993.784732915317
 20
1170.181409022075
 30
0.0
 10
1993.640057607329
 20
1170.169656712256
 30
0.0
 10
1993.497779863748
 20
1170.169656712256
 30
0.0
  0
ELLIPSE
  5
206E
330
1F
100
AcDbEntity
  8
AM_VIS
100
AcDbEllipse
 10
1993.497779863748
 20
1173.336514651546
 30
0.0
 11
-1.749999999825901
 21
0.000000073143342
 31
0.0
210
0.0
220
0.0
230
1.0
 40
0.9902680671772484
 41
2.895772690031997
 42
2.910664900558852
  0
ELLIPSE
  5
206F
330
1F
100
AcDbEntity
  8
AM_VIS
100
AcDbEllipse
 10
1993.497779863748
 20
1173.336514651546
 30
0.0
 11
-1.750000000013821
 21
0.0000000068945425
 31
0.0
210
0.0
220
0.0
230
1.0
 40
0.9902680689150777
 41
0.230927798778481
 42
0.2458200092755594
  0
ELLIPSE
  5
2070
330
1F
100
AcDbEntity
  8
AM_VIS
100
AcDbEllipse
 10
1993.497779863748
 20
1172.543227976074
 30
0.0
 11
1.750000000000316
 21
0.0000000000009241
 31
0.0
210
0.0
220
0.0
230
1.0
 40
0.990268068741329
 41
2.068057993464778
 42
7.356719967303257
  0
ELLIPSE
  5
2071
330
1F
100
AcDbEntity
  8
AM_VIS
100
AcDbEllipse
 10
1993.497779863748
 20
1172.69631838713
 30
0.0
 11
1.699999999999817
 21
0.0000000002092361
 31
0.0
210
0.0
220
0.0
230
1.0
 40
0.9902680687337854
 41
-0.0000000001242895
 42
0.2866213890684075
  0
ELLIPSE
  5
2072
330
1F
100
AcDbEntity
  8
AM_VIS
100
AcDbEllipse
 10
1993.497779863748
 20
1172.69631838713
 30
0.0
 11
-1.699999999999817
 21
0.0000000000524934
 31
0.0
210
0.0
220
0.0
230
1.0
 40
0.9902680687424167
 41
-0.2866213891578198
 42
0.0000000000311817
  0
ELLIPSE
  5
2073
330
1F
100
AcDbEntity
  8
AM_VIS
100
AcDbEllipse
 10
1993.497779863748
 20
1172.501476045786
 30
0.0
 11
-1.499999999999917
 21
0.0000000000022593
 31
0.0
210
0.0
220
0.0
230
1.0
 40
0.9902680687417067
 41
0.0617315806322978
 42
2.800608392641469
  0
ELLIPSE
  5
2074
330
1F
100
AcDbEntity
  8
AM_VIS
100
AcDbEllipse
 10
1993.497779863748
 20
1172.501476045786
 30
0.0
 11
-1.499999999999917
 21
0.0000000000022593
 31
0.0
210
0.0
220
0.0
230
1.0
 40
0.9902680687417067
 41
3.20332423422209
 42
5.942201046231262
  0
LINE
  5
2075
330
1F
100
AcDbEntity
  8
AM_VIS
100
AcDbLine
 10
1991.882496376697
 20
1173.165453158568
 30
0.0
 11
1991.882496376697
 21
1173.054114677801
 31
0.0
  0
LINE
  5
2076
330
1F
100
AcDbEntity
  8
AM_VIS
100
AcDbLine
 10
1991.882493906694
 20
1173.054105767931
 30
0.0
 11
1992.084137926071
 21
1172.998205806981
 31
0.0
  0
LINE
  5
2077
330
1F
100
AcDbEntity
  8
AM_VIS
100
AcDbLine
 10
1992.084140907843
 20
1172.998216562917
 30
0.0
 11
1994.994922680228
 21
1172.593114037436
 31
0.0
  0
LINE
  5
2078
330
1F
100
AcDbEntity
  8
AM_VIS
100
AcDbLine
 10
1994.994922667198
 20
1172.593102456172
 30
0.0
 11
1995.196567200577
 21
1172.592875567022
 31
0.0
  0
LINE
  5
2079
330
1F
100
AcDbEntity
  8
AM_VIS
100
AcDbLine
 10
1995.196567211374
 20
1172.592885162937
 30
0.0
 11
1995.196567211374
 21
1172.704223643705
 31
0.0
  0
ELLIPSE
  5
207A
330
1F
100
AcDbEntity
  8
AM_VIS
100
AcDbEllipse
 10
1993.497779863748
 20
1172.640649146746
 30
0.0
 11
-1.700000000000108
 21
0.0000000000589769
 31
0.0
210
0.0
220
0.0
230
1.0
 40
0.9902680687395214
 41
-0.3170259445655692
 42
0.0377732643159023
  0
ELLIPSE
  5
207B
330
1F
100
AcDbEntity
  8
AM_VIS
100
AcDbEllipse
 10
1993.497779863748
 20
1172.640649146746
 30
0.0
 11
-1.700000000000108
 21
0.0000000000589769
 31
0.0
210
0.0
220
0.0
230
1.0
 40
0.9902680687395214
 41
2.824566709024224
 42
3.179365917905695
  0
LINE
  5
207C
330
1F
100
AcDbEntity
  8
AM_VIS
100
AcDbLine
 10
1994.911418806622
 20
1172.00472394739
 30
0.0
 11
1995.113063340001
 21
1172.004497058241
 31
0.0
  0
LINE
  5
207D
330
1F
100
AcDbEntity
  8
AM_VIS
100
AcDbLine
 10
1994.911418819653
 20
1172.004735528655
 30
0.0
 11
1992.000637047267
 21
1172.409838054136
 31
0.0
  0
LINE
  5
207E
330
1F
100
AcDbEntity
  8
AM_VIS
100
AcDbLine
 10
1991.798990046118
 20
1172.465727259149
 30
0.0
 11
1992.000634065495
 21
1172.4098272982
 31
0.0
  0
LINE
  5
207F
330
1F
100
AcDbEntity
  8
AM_VIS
100
AcDbLine
 10
1991.798992516121
 20
1172.465736169019
 30
0.0
 11
1991.798992516121
 21
1172.577074649787
 31
0.0
  0
LINE
  5
2080
330
1F
100
AcDbEntity
  8
AM_VIS
100
AcDbLine
 10
1995.113063350798
 20
1172.115845134924
 30
0.0
 11
1991.798992516121
 21
1172.577074649787
 31
0.0
  0
LINE
  5
2081
330
1F
100
AcDbEntity
  8
AM_VIS
100
AcDbLine
 10
1995.113063350798
 20
1172.115845134924
 30
0.0
 11
1995.113063350798
 21
1172.004506654156
 31
0.0
  0
ELLIPSE
  5
2082
330
1F
100
AcDbEntity
  8
AM_VIS
100
AcDbEllipse
 10
1993.497779863748
 20
1172.779822247706
 30
0.0
 11
1.700000000000042
 21
0.000000000096019
 31
0.0
210
0.0
220
0.0
230
1.0
 40
0.9902680687510525
 41
2.999027463676497
 42
3.166396520579993
  0
ELLIPSE
  5
2083
330
1F
100
AcDbEntity
  8
AM_VIS
100
AcDbEllipse
 10
1993.497779863748
 20
1172.779822247706
 30
0.0
 11
-1.700000000000086
 21
0.0000000000369399
 31
0.0
210
0.0
220
0.0
230
1.0
 40
0.9902680687368155
 41
3.116788786564142
 42
3.284157843470738
  0
ELLIPSE
  5
2084
330
1F
100
AcDbEntity
  8
AM_VIS
100
AcDbEllipse
 10
1993.497779863748
 20
1172.821574177994
 30
0.0
 11
1.699999999999818
 21
0.0000000006623637
 31
0.0
210
0.0
220
0.0
230
1.0
 40
0.990268068678487
 41
-0.0000000003934548
 42
0.0979858302335994
  0
ELLIPSE
  5
2085
330
1F
100
AcDbEntity
  8
AM_VIS
100
AcDbEllipse
 10
1993.497779863748
 20
1172.821574177994
 30
0.0
 11
-1.699999999999817
 21
0.0000000006624509
 31
0.0
210
0.0
220
0.0
230
1.0
 40
0.990268068672994
 41
-0.0979858302335501
 42
0.0000000003935063
  0
LINE
  5
2086
330
1F
100
AcDbEntity
  8
AM_VIS
100
AcDbLine
 10
1991.797779863748
 20
1172.69631838713
 30
0.0
 11
1991.797779863748
 21
1172.640649146746
 31
0.0
  0
LINE
  5
2087
330
1F
100
AcDbEntity
  8
AM_VIS
100
AcDbLine
 10
1995.197779863748
 20
1172.69631838713
 30
0.0
 11
1995.197779863748
 21
1172.640649146746
 31
0.0
  0
LINE
  5
2088
330
1F
100
AcDbEntity
  8
AM_VIS
100
AcDbLine
 10
1991.797779863748
 20
1172.821574177994
 30
0.0
 11
1991.797779863748
 21
1172.779822247706
 31
0.0
  0
LINE
  5
2089
330
1F
100
AcDbEntity
  8
AM_VIS
100
AcDbLine
 10
1995.197779863748
 20
1172.821574177994
 30
0.0
 11
1995.197779863748
 21
1172.779822247706
 31
0.0
  0
SPLINE
  5
208D
330
1F
100
AcDbEntity
  8
AM_VIS
100
AcDbSpline
210
0.0
220
0.0
230
1.0
 70
    11
 71
     3
 72
    66
 73
    62
 74
     0
 42
0.0000000001
 43
0.0000000001
 40
0.0
 40
0.0
 40
0.0
 40
0.0
 40
0.4268332307447942
 40
0.4268332307447942
 40
0.8536664614895883
 40
0.8536664614895883
 40
1.280499692234382
 40
1.280499692234382
 40
1.707332922979176
 40
1.707332922979176
 40
2.778273649972831
 40
2.778273649972831
 40
3.313744013469658
 40
3.313744013469658
 40
3.849214376966486
 40
3.849214376966486
 40
4.337112050782105
 40
4.337112050782105
 40
4.825009724597722
 40
4.825009724597722
 40
5.31290739841334
 40
5.31290739841334
 40
5.800805072228959
 40
5.800805072228959
 40
6.219933053438301
 40
6.219933053438301
 40
6.639061034647644
 40
6.639061034647644
 40
7.058189015856987
 40
7.058189015856987
 40
7.477316997066329
 40
7.477316997066329
 40
7.896444978275674
 40
7.896444978275674
 40
8.31557295948502
 40
8.31557295948502
 40
8.734700940694366
 40
8.734700940694366
 40
9.153828921903713
 40
9.153828921903713
 40
9.641726595719333
 40
9.641726595719333
 40
10.12962426953495
 40
10.12962426953495
 40
10.61752194335057
 40
10.61752194335057
 40
11.10541961716619
 40
11.10541961716619
 40
11.64088998066302
 40
11.64088998066302
 40
12.17636034415985
 40
12.17636034415985
 40
13.2473010711535
 40
13.2473010711535
 40
13.67413430189829
 40
13.67413430189829
 40
14.10096753264308
 40
14.10096753264308
 40
14.52780076338787
 40
14.52780076338787
 40
14.95463399413266
 40
14.95463399413266
 40
14.95463399413266
 40
14.95463399413266
 10
2062.497779990211
 20
1170.169656712256
 30
0.0
 10
2062.35550224663
 20
1170.169656712256
 30
0.0
 10
2062.210826938642
 20
1170.181409022075
 30
0.0
 10
2061.92752561968
 20
1170.228604450989
 30
0.0
 10
2061.788885259522
 20
1170.264028045724
 30
0.0
 10
2061.526631620392
 20
1170.354946931359
 30
0.0
 10
2061.402713515366
 20
1170.410524896781
 30
0.0
 10
2061.175605950364
 20
1170.535752956838
 30
0.0
 10
2061.072400057549
 20
1170.605410553166
 30
0.0
 10
2060.752994165184
 20
1170.859211897904
 30
0.0
 10
2060.563743458671
 20
1171.088770512833
 30
0.0
 10
2060.374110883079
 20
1171.471768347472
 30
0.0
 10
2060.326242041298
 20
1171.605771455534
 30
0.0
 10
2060.263056530901
 20
1171.878132358534
 30
0.0
 10
2060.247779990211
 20
1172.016497612221
 30
0.0
 10
2060.247779990211
 20
1172.275515514384
 30
0.0
 10
2060.260485662477
 20
1172.405664916995
 30
0.0
 10
2060.316554710112
 20
1172.669475546613
 30
0.0
 10
2060.35992832382
 20
1172.803132688082
 30
0.0
 10
2060.477964373328
 20
1173.063669233628
 30
0.0
 10
2060.552731313395
 20
1173.190727211286
 30
0.0
 10
2060.729827489616
 20
1173.428554045035
 30
0.0
 10
2060.832176390346
 20
1173.53929691684
 30
0.0
 10
2061.039944099957
 20
1173.722638423736
 30
0.0
 10
2061.148734080991
 20
1173.803528754895
 30
0.0
 10
2061.386741976163
 20
1173.947633928967
 30
0.0
 10
2061.51595658728
 20
1174.010839206503
 30
0.0
 10
2061.786563942864
 20
1174.11301300246
 30
0.0
 10
2061.928204396539
 20
1174.152068729303
 30
0.0
 10
2062.213956704511
 20
1174.203471549804
 30
0.0
 10
2062.358070663142
 20
1174.215807326378
 30
0.0
 10
2062.637489317281
 20
1174.215807326378
 30
0.0
 10
2062.781603275912
 20
1174.203471549804
 30
0.0
 10
2063.067355583884
 20
1174.152068729303
 30
0.0
 10
2063.208996037559
 20
1174.11301300246
 30
0.0
 10
2063.479603393143
 20
1174.010839206503
 30
0.0
 10
2063.60881800426
 20
1173.947633928967
 30
0.0
 10
2063.846825899432
 20
1173.803528754895
 30
0.0
 10
2063.955615880466
 20
1173.722638423736
 30
0.0
 10
2064.163383590077
 20
1173.53929691684
 30
0.0
 10
2064.265732490807
 20
1173.428554045035
 30
0.0
 10
2064.442828667029
 20
1173.190727211286
 30
0.0
 10
2064.517595607096
 20
1173.063669233628
 30
0.0
 10
2064.635631656603
 20
1172.803132688082
 30
0.0
 10
2064.67900527031
 20
1172.669475546613
 30
0.0
 10
2064.735074317946
 20
1172.405664916995
 30
0.0
 10
2064.747779990211
 20
1172.275515514384
 30
0.0
 10
2064.747779990211
 20
1172.016497612221
 30
0.0
 10
2064.732503449522
 20
1171.878132358534
 30
0.0
 10
2064.669317939125
 20
1171.605771455534
 30
0.0
 10
2064.621449097343
 20
1171.471768347472
 30
0.0
 10
2064.431816521752
 20
1171.088770512833
 30
0.0
 10
2064.24256581524
 20
1170.859211897904
 30
0.0
 10
2063.923159922874
 20
1170.605410553166
 30
0.0
 10
2063.819954030059
 20
1170.535752956838
 30
0.0
 10
2063.592846465057
 20
1170.410524896781
 30
0.0
 10
2063.468928360032
 20
1170.354946931359
 30
0.0
 10
2063.206674720902
 20
1170.264028045724
 30
0.0
 10
2063.068034360743
 20
1170.228604450989
 30
0.0
 10
2062.784733041781
 20
1170.181409022075
 30
0.0
 10
2062.640057733793
 20
1170.169656712256
 30
0.0
 10
2062.497779990211
 20
1170.169656712256
 30
0.0
  0
ELLIPSE
  5
208E
330
1F
100
AcDbEntity
  8
AM_VIS
100
AcDbEllipse
 10
2062.497779990211
 20
1173.336514651546
 30
0.0
 11
1.75
 21
0.0
 31
0.0
210
0.0
220
0.0
230
1.0
 40
0.9902680687415703
 41
6.037365301836175
 42
6.052257512336471
  0
ELLIPSE
  5
208F
330
1F
100
AcDbEntity
  8
AM_VIS
100
AcDbEllipse
 10
2062.497779990211
 20
1173.336514651546
 30
0.0
 11
1.75
 21
0.0
 31
0.0
210
0.0
220
0.0
230
1.0
 40
0.9902680687415703
 41
3.372520448432906
 42
3.387412658932871
  0
ELLIPSE
  5
2090
330
1F
100
AcDbEntity
  8
AM_VIS
100
AcDbEllipse
 10
2062.497779990211
 20
1172.543227976074
 30
0.0
 11
1.75
 21
0.0
 31
0.0
210
0.0
220
0.0
230
1.0
 40
0.9902680687415703
 41
2.068057993465546
 42
7.356719967303794
  0
ELLIPSE
  5
2091
330
1F
100
AcDbEntity
  8
AM_VIS
100
AcDbEllipse
 10
2062.497779990211
 20
1172.69631838713
 30
0.0
 11
1.699999999999999
 21
0.0
 31
0.0
210
0.0
220
0.0
230
1.0
 40
0.9902680687415703
 41
-0.000000000000002
 42
0.286621389190306
  0
ELLIPSE
  5
2092
330
1F
100
AcDbEntity
  8
AM_VIS
100
AcDbEllipse
 10
2062.497779990211
 20
1172.69631838713
 30
0.0
 11
1.699999999999999
 21
0.0
 31
0.0
210
0.0
220
0.0
230
1.0
 40
0.9902680687415703
 41
2.854971264400582
 42
3.141592653589789
  0
ELLIPSE
  5
2093
330
1F
100
AcDbEntity
  8
AM_VIS
100
AcDbEllipse
 10
2062.497779990211
 20
1172.501476045786
 30
0.0
 11
1.5
 21
0.0
 31
0.0
210
0.0
220
0.0
230
1.0
 40
0.9902680687415704
 41
3.20332423422058
 42
5.942201046229713
  0
ELLIPSE
  5
2094
330
1F
100
AcDbEntity
  8
AM_VIS
100
AcDbEllipse
 10
2062.497779990211
 20
1172.501476045786
 30
0.0
 11
1.5
 21
0.0
 31
0.0
210
0.0
220
0.0
230
1.0
 40
0.9902680687415704
 41
0.0617315806307724
 42
2.80060839263992
  0
LINE
  5
2095
330
1F
100
AcDbEntity
  8
AM_VIS
100
AcDbLine
 10
2060.882496503161
 20
1173.165453158568
 30
0.0
 11
2060.882496503161
 21
1173.054114677801
 31
0.0
  0
LINE
  5
2096
330
1F
100
AcDbEntity
  8
AM_VIS
100
AcDbLine
 10
2060.882494033158
 20
1173.054105767931
 30
0.0
 11
2061.084138052535
 21
1172.998205806981
 31
0.0
  0
LINE
  5
2097
330
1F
100
AcDbEntity
  8
AM_VIS
100
AcDbLine
 10
2061.084141034307
 20
1172.998216562917
 30
0.0
 11
2063.994922806692
 21
1172.593114037436
 31
0.0
  0
LINE
  5
2098
330
1F
100
AcDbEntity
  8
AM_VIS
100
AcDbLine
 10
2063.994922793662
 20
1172.593102456172
 30
0.0
 11
2064.196567327041
 21
1172.592875567022
 31
0.0
  0
LINE
  5
2099
330
1F
100
AcDbEntity
  8
AM_VIS
100
AcDbLine
 10
2064.196567337837
 20
1172.592885162937
 30
0.0
 11
2064.196567337837
 21
1172.704223643705
 31
0.0
  0
ELLIPSE
  5
209A
330
1F
100
AcDbEntity
  8
AM_VIS
100
AcDbEllipse
 10
2062.497779990211
 20
1172.640649146746
 30
0.0
 11
1.699999999999999
 21
0.0
 31
0.0
210
0.0
220
0.0
230
1.0
 40
0.9902680687415703
 41
2.824566708989877
 42
3.179365917870617
  0
ELLIPSE
  5
209B
330
1F
100
AcDbEntity
  8
AM_VIS
100
AcDbEllipse
 10
2062.497779990211
 20
1172.640649146746
 30
0.0
 11
1.699999999999999
 21
0.0
 31
0.0
210
0.0
220
0.0
230
1.0
 40
0.9902680687415703
 41
5.96615936257967
 42
6.320958571460411
  0
LINE
  5
209C
330
1F
100
AcDbEntity
  8
AM_VIS
100
AcDbLine
 10
2063.911418933086
 20
1172.00472394739
 30
0.0
 11
2064.113063466464
 21
1172.004497058241
 31
0.0
  0
LINE
  5
209D
330
1F
100
AcDbEntity
  8
AM_VIS
100
AcDbLine
 10
2063.911418946116
 20
1172.004735528655
 30
0.0
 11
2061.000637173731
 21
1172.409838054136
 31
0.0
  0
LINE
  5
209E
330
1F
100
AcDbEntity
  8
AM_VIS
100
AcDbLine
 10
2060.798990172582
 20
1172.465727259149
 30
0.0
 11
2061.000634191959
 21
1172.4098272982
 31
0.0
  0
LINE
  5
209F
330
1F
100
AcDbEntity
  8
AM_VIS
100
AcDbLine
 10
2060.798992642585
 20
1172.465736169019
 30
0.0
 11
2060.798992642585
 21
1172.577074649787
 31
0.0
  0
LINE
  5
20A0
330
1F
100
AcDbEntity
  8
AM_VIS
100
AcDbLine
 10
2064.113063477262
 20
1172.115845134924
 30
0.0
 11
2060.798992642585
 21
1172.577074649787
 31
0.0
  0
LINE
  5
20A1
330
1F
100
AcDbEntity
  8
AM_VIS
100
AcDbLine
 10
2064.113063477262
 20
1172.115845134924
 30
0.0
 11
2064.113063477262
 21
1172.004506654156
 31
0.0
  0
ELLIPSE
  5
20A2
330
1F
100
AcDbEntity
  8
AM_VIS
100
AcDbEllipse
 10
2062.497779990211
 20
1172.779822247706
 30
0.0
 11
1.699999999999999
 21
0.0
 31
0.0
210
0.0
220
0.0
230
1.0
 40
0.9902680687415703
 41
2.99902746373211
 42
3.166396520637274
  0
ELLIPSE
  5
20A3
330
1F
100
AcDbEntity
  8
AM_VIS
100
AcDbEllipse
 10
2062.497779990211
 20
1172.779822247706
 30
0.0
 11
1.699999999999999
 21
0.0
 31
0.0
210
0.0
220
0.0
230
1.0
 40
0.9902680687415703
 41
6.258381440132099
 42
6.425750497037974
  0
ELLIPSE
  5
20A4
330
1F
100
AcDbEntity
  8
AM_VIS
100
AcDbEllipse
 10
2062.497779990211
 20
1172.821574177994
 30
0.0
 11
1.699999999999999
 21
0.0
 31
0.0
210
0.0
220
0.0
230
1.0
 40
0.9902680687415703
 41
-0.0000000000000022
 42
0.0979858306208108
  0
ELLIPSE
  5
20A5
330
1F
100
AcDbEntity
  8
AM_VIS
100
AcDbEllipse
 10
2062.497779990211
 20
1172.821574177994
 30
0.0
 11
1.699999999999999
 21
0.0
 31
0.0
210
0.0
220
0.0
230
1.0
 40
0.9902680687415703
 41
3.043606822969588
 42
3.141592653589789
  0
LINE
  5
20A6
330
1F
100
AcDbEntity
  8
AM_VIS
100
AcDbLine
 10
2060.797779990211
 20
1172.69631838713
 30
0.0
 11
2060.797779990211
 21
1172.640649146746
 31
0.0
  0
LINE
  5
20A7
330
1F
100
AcDbEntity
  8
AM_VIS
100
AcDbLine
 10
2064.197779990212
 20
1172.69631838713
 30
0.0
 11
2064.197779990212
 21
1172.640649146746
 31
0.0
  0
LINE
  5
20A8
330
1F
100
AcDbEntity
  8
AM_VIS
100
AcDbLine
 10
2060.797779990211
 20
1172.821574177994
 30
0.0
 11
2060.797779990211
 21
1172.779822247706
 31
0.0
  0
LINE
  5
20A9
330
1F
100
AcDbEntity
  8
AM_VIS
100
AcDbLine
 10
2064.197779990212
 20
1172.821574177994
 30
0.0
 11
2064.197779990212
 21
1172.779822247706
 31
0.0
  0
LINE
  5
20B7
330
1F
100
AcDbEntity
  8
AM_7
100
AcDbLine
 10
1977.497779863748
 20
1210.815351605319
 30
0.0
 11
2141.469831042829
 21
1210.815351605319
 31
0.0
1001
GENIUS_GENOBJ-N-CEN_13
1002
{
1000
OWNER
1000
GEN
1002
}
1001
GENIUS_GENODEF_13
1002
{
1000
HIER
1070
     0
1002
}
1002
{
1000
MANEDIT
1070
     0
1002
}
1002
{
1000
NOSEL
1070
     0
1002
}
1002
{
1000
BEHIND
1070
     0
1002
}
1002
{
1000
OTHER
1070
     0
1002
}
1002
{
1000
REACTOR
1002
}
1001
GENIUS_GENCEN_19
1002
{
1040
2.0
1002
}
  0
LINE
  5
20B8
330
1F
100
AcDbEntity
  8
AM_7
100
AcDbLine
 10
1977.497779863748
 20
1152.815351605319
 30
0.0
 11
2141.469831042829
 21
1152.815351605319
 31
0.0
1001
GENIUS_GENOBJ-N-CEN_13
1002
{
1000
OWNER
1000
GEN
1002
}
1001
GENIUS_GENODEF_13
1002
{
1000
HIER
1070
     0
1002
}
1002
{
1000
MANEDIT
1070
     0
1002
}
1002
{
1000
NOSEL
1070
     0
1002
}
1002
{
1000
BEHIND
1070
     0
1002
}
1002
{
1000
OTHER
1070
     0
1002
}
1002
{
1000
REACTOR
1002
}
1001
GENIUS_GENCEN_19
1002
{
1040
2.0
1002
}
  0
LINE
  5
20D0
330
1F
100
AcDbEntity
  8
AM_7
100
AcDbLine
 10
1978.497779863747
 20
1191.815351605319
 30
0.0
 11
1978.497779863747
 21
1171.815351605319
 31
0.0
1001
GENIUS_GENOBJ-N-CEN_13
1002
{
1000
OWNER
1000
GEN
1002
}
1001
GENIUS_GENODEF_13
1002
{
1000
HIER
1070
     0
1002
}
1002
{
1000
MANEDIT
1070
     0
1002
}
1002
{
1000
NOSEL
1070
     0
1002
}
1002
{
1000
BEHIND
1070
     0
1002
}
1002
{
1000
OTHER
1070
     0
1002
}
1002
{
1000
REACTOR
1002
}
1001
GENIUS_GENCEN_19
1002
{
1040
2.0
1002
}
  0
LINE
  5
20DD
330
1F
100
AcDbEntity
  8
AM_7
  6
AM_ISO08W050x2
100
AcDbLine
 10
1978.497779863747
 20
1073.109881936754
 30
0.0
 11
1978.497779863747
 21
1085.109881936754
 31
0.0
1001
GENIUS_GENODEF_13
1002
{
1000
HIER
1070
     0
1002
}
1002
{
1000
MANEDIT
1070
     0
1002
}
1002
{
1000
NOSEL
1070
     0
1002
}
1002
{
1000
BEHIND
1070
     0
1002
}
1002
{
1000
OTHER
1070
     0
1002
}
1002
{
1000
REACTOR
1002
}
1001
GENIUS_GENOBJ-N-CEN_13
1002
{
1000
OWNER
1000
GEN
1002
}
1001
GENIUS_GENCEN_19
1002
{
1040
2.0
1002
}
  0
ARC
  5
20F0
330
1F
100
AcDbEntity
  8
AM_4
100
AcDbCircle
 10
2066.497779863748
 20
1181.815351605319
 30
0.0
 40
4.863999999999999
100
AcDbArc
 50
260.0
 51
170.0
  0
LINE
  5
20F1
330
1F
100
AcDbEntity
  8
AM_7
  6
AM_ISO08W050x2
100
AcDbLine
 10
2066.497779863748
 20
1188.679351605319
 30
0.0
 11
2066.497779863748
 21
1174.951351605319
 31
0.0
  0
CIRCLE
  5
20F2
330
1F
100
AcDbEntity
  8
AM_0
100
AcDbCircle
 10
2066.497779863748
 20
1181.815351605319
 30
0.0
 40
4.283
  0
LINE
  5
20F3
330
1F
100
AcDbEntity
  8
AM_7
  6
AM_ISO08W050x2
100
AcDbLine
 10
2059.633779863748
 20
1181.815351605319
 30
0.0
 11
2073.361779863748
 21
1181.815351605319
 31
0.0
  0
ARC
  5
20F4
330
1F
100
AcDbEntity
  8
AM_4
100
AcDbCircle
 10
1989.497779863748
 20
1181.815351605319
 30
0.0
 40
4.863999999999999
100
AcDbArc
 50
260.0
 51
170.0
  0
LINE
  5
20F5
330
1F
100
AcDbEntity
  8
AM_7
  6
AM_ISO08W050x2
100
AcDbLine
 10
1989.497779863748
 20
1188.679351605319
 30
0.0
 11
1989.497779863748
 21
1174.951351605319
 31
0.0
  0
CIRCLE
  5
20F6
330
1F
100
AcDbEntity
  8
AM_0
100
AcDbCircle
 10
1989.497779863748
 20
1181.815351605319
 30
0.0
 40
4.283
  0
LINE
  5
20F7
330
1F
100
AcDbEntity
  8
AM_7
  6
AM_ISO08W050x2
100
AcDbLine
 10
1982.633779863748
 20
1181.815351605319
 30
0.0
 11
1996.361779863748
 21
1181.815351605319
 31
0.0
  0
LINE
  5
20F8
330
1F
100
AcDbEntity
  8
AM_4
  6
HIDDEN
 48
0.5
100
AcDbLine
 10
2139.497779863748
 20
1313.378332034311
 30
0.0
 11
2127.497779863748
 21
1313.378332034311
 31
0.0
  0
LINE
  5
20F9
330
1F
100
AcDbEntity
  8
AM_4
  6
HIDDEN
 48
0.5
100
AcDbLine
 10
2139.497779863748
 20
1318.378332034311
 30
0.0
 11
2127.497779863748
 21
1318.378332034311
 31
0.0
  0
LINE
  5
20FA
330
1F
100
AcDbEntity
  8
AM_4
  6
HIDDEN
 48
0.5
100
AcDbLine
 10
2139.497779863748
 20
1317.945319332419
 30
0.0
 11
2127.497779863748
 21
1317.945319332419
 31
0.0
  0
LINE
  5
20FB
330
1F
100
AcDbEntity
  8
AM_4
  6
HIDDEN
 48
0.5
100
AcDbLine
 10
2139.497779863748
 20
1313.811344736203
 30
0.0
 11
2127.497779863748
 21
1313.811344736203
 31
0.0
  0
LINE
  5
20FC
330
1F
100
AcDbEntity
  8
AM_7
  6
AM_ISO08W050x2
100
AcDbLine
 10
2141.497779863748
 20
1315.878332034311
 30
0.0
 11
2126.469530785492
 21
1315.878332034311
 31
0.0
  0
LINE
  5
20FD
330
1F
100
AcDbEntity
  8
AM_4
  6
HIDDEN
 48
0.5
100
AcDbLine
 10
2139.497779863748
 20
1298.378332034311
 30
0.0
 11
2127.497779863748
 21
1298.378332034311
 31
0.0
  0
LINE
  5
20FE
330
1F
100
AcDbEntity
  8
AM_4
  6
HIDDEN
 48
0.5
100
AcDbLine
 10
2139.497779863748
 20
1293.378332034311
 30
0.0
 11
2127.497779863748
 21
1293.378332034311
 31
0.0
  0
LINE
  5
20FF
330
1F
100
AcDbEntity
  8
AM_4
  6
HIDDEN
 48
0.5
100
AcDbLine
 10
2139.497779863748
 20
1293.811344736203
 30
0.0
 11
2127.497779863748
 21
1293.811344736203
 31
0.0
  0
LINE
  5
2100
330
1F
100
AcDbEntity
  8
AM_4
  6
HIDDEN
 48
0.5
100
AcDbLine
 10
2139.497779863748
 20
1297.945319332419
 30
0.0
 11
2127.497779863748
 21
1297.945319332419
 31
0.0
  0
DIMENSION
  5
215B
330
1F
100
AcDbEntity
  8
AM_5
100
AcDbDimension
  2
*D10
 10
2089.497779863748
 20
1274.878332034311
 30
0.0
 11
2073.247779863748
 21
1277.378627309902
 31
0.0
 70
    32
 71
     5
 42
32.5
  3
AM_ISO$0
100
AcDbAlignedDimension
 13
2056.997779863748
 23
1287.878332034311
 33
0.0
 14
2089.497779863748
 24
1287.878332034311
 34
0.0
100
AcDbRotatedDimension
1001
ACAD
1000
DSTYLE
1002
{
1070
    40
1040
1.0
1070
   144
1040
1.0
1070
   272
1070
     8
1002
}
  0
DIMENSION
  5
215E
330
1F
100
AcDbEntity
  8
AM_5
100
AcDbDimension
  2
*D11
 10
2109.732076280052
 20
1318.878332034311
 30
0.0
 11
2109.732076280051
 21
1302.180780989895
 31
0.0
 70
   160
 71
     5
 42
26.0
  3
AM_ISO$0
100
AcDbAlignedDimension
 13
2094.497779863748
 23
1292.878332034311
 33
0.0
 14
2094.497779863748
 24
1318.878332034311
 34
0.0
 50
90.0
100
AcDbRotatedDimension
1001
ACAD
1000
DSTYLE
1002
{
1070
    40
1040
1.0
1070
   144
1040
1.0
1070
   272
1070
     8
1002
}
  0
TEXT
  5
2161
330
1F
100
AcDbEntity
  8
AM_5
100
AcDbText
 10
2107.057046548221
 20
1276.992924368404
 30
0.0
 40
3.0
  1
2x4-M6
100
AcDbText
  0
INSERT
  5
2162
330
1F
100
AcDbEntity
  8
AM_5
100
AcDbBlockReference
  2
*S29
 10
0.0
 20
0.0
 30
0.0
  0
DIMENSION
  5
218D
330
1F
100
AcDbEntity
  8
AM_5
100
AcDbDimension
  2
*D17
 10
2074.497779863748
 20
1119.065351605319
 30
0.0
 11
2017.997779863748
 21
1121.565351605319
 31
0.0
 70
    32
  1
88+stroke
 71
     5
 42
113.0
  3
AM_ISO$0
100
AcDbAlignedDimension
 13
1961.497779863748
 23
1173.815351605319
 33
0.0
 14
2074.497779863748
 24
1163.815351605319
 34
0.0
100
AcDbRotatedDimension
1001
ACAD
1000
DSTYLE
1002
{
1070
    40
1040
1.0
1070
   144
1040
1.0
1070
   272
1070
     8
1002
}
  0
DIMENSION
  5
2190
330
1F
100
AcDbEntity
  8
AM_5
100
AcDbDimension
  2
*D18
 10
2139.497779863748
 20
1119.065351605319
 30
0.0
 11
2106.997779863748
 21
1121.565351605319
 31
0.0
 70
    32
 71
     5
 42
65.0
  3
AM_ISO$0
100
AcDbAlignedDimension
 13
2074.497779863748
 23
1163.815351605319
 33
0.0
 14
2139.497779863748
 24
1142.815351605319
 34
0.0
100
AcDbRotatedDimension
1001
ACAD
1000
DSTYLE
1002
{
1070
    40
1040
1.0
1070
   144
1040
1.0
1070
   272
1070
     8
1002
}
  0
DIMENSION
  5
2193
330
1F
100
AcDbEntity
  8
AM_5
100
AcDbDimension
  2
*D19
 10
2074.497779863748
 20
1234.815351605319
 30
0.0
 11
2049.497779863748
 21
1237.315351605319
 31
0.0
 70
    32
 71
     5
 42
50.0
  3
AM_ISO$0
100
AcDbAlignedDimension
 13
2024.497779863748
 23
1222.565351605319
 33
0.0
 14
2074.497779863748
 24
1198.815351605319
 34
0.0
100
AcDbRotatedDimension
1001
ACAD
1000
DSTYLE
1002
{
1070
    40
1040
1.0
1070
   144
1040
1.0
1070
   272
1070
     8
1002
}
  0
DIMENSION
  5
2196
330
1F
100
AcDbEntity
  8
AM_5
100
AcDbDimension
  2
*D20
 10
2089.497779863748
 20
1234.815351605319
 30
0.0
 11
2081.997779863748
 21
1237.315351605319
 31
0.0
 70
    32
 71
     5
 42
15.0
  3
AM_ISO$0
100
AcDbAlignedDimension
 13
2074.497779863748
 23
1198.815351605319
 33
0.0
 14
2089.497779863748
 24
1224.815351605319
 34
0.0
100
AcDbRotatedDimension
1001
ACAD
1000
DSTYLE
1002
{
1070
    40
1040
1.0
1070
   144
1040
1.0
1070
   272
1070
     8
1002
}
  0
DIMENSION
  5
2199
330
1F
100
AcDbEntity
  8
AM_5
100
AcDbDimension
  2
*D21
 10
2124.497779863748
 20
1244.815351605319
 30
0.0
 11
2074.497779863748
 21
1247.315351605319
 31
0.0
 70
    32
 71
     5
 42
100.0
  3
AM_ISO$0
100
AcDbAlignedDimension
 13
2024.497779863748
 23
1222.565351605319
 33
0.0
 14
2124.497779863748
 24
1222.565351605319
 34
0.0
100
AcDbRotatedDimension
1001
ACAD
1000
DSTYLE
1002
{
1070
    40
1040
1.0
1070
   144
1040
1.0
1070
   272
1070
     8
1002
}
  0
DIMENSION
  5
219C
330
1F
100
AcDbEntity
  8
AM_5
100
AcDbDimension
  2
*D12
 10
2139.497779863748
 20
1129.065351605319
 30
0.0
 11
2133.497779863748
 21
1131.56564688091
 31
0.0
 70
    32
 71
     5
 42
12.0
  3
AM_ISO$0
100
AcDbAlignedDimension
 13
2127.497779863748
 23
1142.815351605319
 33
0.0
 14
2139.497779863748
 24
1142.815351605319
 34
0.0
100
AcDbRotatedDimension
1001
ACAD
1000
DSTYLE
1002
{
1070
    40
1040
1.0
1070
   144
1040
1.0
1070
   272
1070
     8
1002
}
  0
DIMENSION
  5
219F
330
1F
100
AcDbEntity
  8
AM_5
100
AcDbDimension
  2
*D13
 10
2082.997779863748
 20
1129.065351605319
 30
0.0
 11
2078.747779863748
 21
1131.565351605319
 31
0.0
 70
    32
 71
     5
 42
8.5
  3
AM_ISO$0
100
AcDbAlignedDimension
 13
2074.497779863748
 23
1164.815351605319
 33
0.0
 14
2082.997779863748
 24
1155.565351605319
 34
0.0
100
AcDbRotatedDimension
1001
ACAD
1000
DSTYLE
1002
{
1070
    40
1040
1.0
1070
   144
1040
1.0
1070
   272
1070
     8
1002
}
  0
DIMENSION
  5
21A2
330
1F
100
AcDbEntity
  8
AM_5
100
AcDbDimension
  2
*D14
 10
1967.497779863748
 20
1157.815351605319
 30
0.0
 11
1964.997779863747
 21
1152.815351605319
 31
0.0
 70
    32
 71
     5
 42
10.0
  3
AM_ISO$0
100
AcDbAlignedDimension
 13
1979.997779863747
 23
1147.815351605319
 33
0.0
 14
1979.997779863747
 24
1157.815351605319
 34
0.0
 50
90.0
100
AcDbRotatedDimension
1001
ACAD
1000
DSTYLE
1002
{
1070
    40
1040
1.0
1070
   144
1040
1.0
1070
   272
1070
     8
1002
}
  0
DIMENSION
  5
21A5
330
1F
100
AcDbEntity
  8
AM_5
100
AcDbDimension
  2
*D15
 10
2139.497779863748
 20
1254.815351605318
 30
0.0
 11
2059.497779863748
 21
1257.315351605318
 31
0.0
 70
    32
  1
135+stroke
 71
     5
 42
160.0
  3
AM_ISO$0
100
AcDbAlignedDimension
 13
1979.497779863748
 23
1215.315351605319
 33
0.0
 14
2139.497779863748
 24
1220.815351605319
 34
0.0
100
AcDbRotatedDimension
1001
ACAD
1000
DSTYLE
1002
{
1070
    40
1040
1.0
1070
   144
1040
1.0
1070
   272
1070
     8
1002
}
  0
DIMENSION
  5
21A8
330
1F
100
AcDbEntity
  8
AM_5
100
AcDbDimension
  2
*D16
 10
2151.497779863748
 20
1200.815351605319
 30
0.0
 11
2148.997779863748
 21
1181.81535160532
 31
0.0
 70
    32
 71
     5
 42
38.0
  3
AM_ISO$0
100
AcDbAlignedDimension
 13
2090.247779863748
 23
1162.815351605319
 33
0.0
 14
2090.247779863748
 24
1200.815351605319
 34
0.0
 50
90.0
100
AcDbRotatedDimension
1001
ACAD
1000
DSTYLE
1002
{
1070
    40
1040
1.0
1070
   144
1040
1.0
1070
   272
1070
     8
1002
}
  0
INSERT
  5
21AB
330
1F
100
AcDbEntity
  8
AM_5
100
AcDbBlockReference
  2
*S30
 10
0.0
 20
0.0
 30
0.0
  0
TEXT
  5
21AC
330
1F
100
AcDbEntity
  8
AM_5
100
AcDbText
 10
1958.234326941062
 20
1199.672775194731
 30
0.0
 40
3.0
  1
2-PF1/8
 41
0.8
  7
CHINESET
100
AcDbText
  0
TEXT
  5
21AD
330
1F
100
AcDbEntity
  8
AM_5
100
AcDbText
 10
2098.103196441872
 20
1235.341208130157
 30
0.0
 40
3.0
  1
4-%%c5.5thru
100
AcDbText
  0
TEXT
  5
21AE
330
1F
100
AcDbEntity
  8
AM_5
100
AcDbText
 10
2098.405353131404
 20
1229.203084520696
 30
0.0
 40
3.0
  1
10.5x6.5depth
100
AcDbText
  0
INSERT
  5
21AF
330
1F
100
AcDbEntity
  8
AM_5
100
AcDbBlockReference
  2
*S31
 10
0.0
 20
0.0
 30
0.0
  0
DIMENSION
  5
2298
330
1F
100
AcDbEntity
  8
AM_5
100
AcDbDimension
  2
*D27
 10
2219.30668196508
 20
1128.815351605319
 30
0.0
 11
2209.306681965081
 21
1131.31564688091
 31
0.0
 70
    32
 71
     5
 42
20.0
  3
AM_ISO$0
100
AcDbAlignedDimension
 13
2199.30668196508
 23
1143.315351605319
 33
0.0
 14
2219.30668196508
 24
1143.315351605319
 34
0.0
100
AcDbRotatedDimension
1001
ACAD
1000
DSTYLE
1002
{
1070
    40
1040
1.0
1070
   144
1040
1.0
1070
   272
1070
     8
1002
}
  0
DIMENSION
  5
229B
330
1F
100
AcDbEntity
  8
AM_5
100
AcDbDimension
  2
*D28
 10
2226.30668196508
 20
1118.815351605319
 30
0.0
 11
2209.306681965081
 21
1121.315351605319
 31
0.0
 70
    32
 71
     5
 42
34.0
  3
AM_ISO$0
100
AcDbAlignedDimension
 13
2192.30668196508
 23
1142.815351605319
 33
0.0
 14
2226.30668196508
 24
1142.815351605319
 34
0.0
100
AcDbRotatedDimension
1001
ACAD
1000
DSTYLE
1002
{
1070
    40
1040
1.0
1070
   144
1040
1.0
1070
   272
1070
     8
1002
}
  0
DIMENSION
  5
229E
330
1F
100
AcDbEntity
  8
AM_5
100
AcDbDimension
  2
*D22
 10
2228.30668196508
 20
1108.815351605319
 30
0.0
 11
2209.306681965081
 21
1111.315351605319
 31
0.0
 70
    32
 71
     5
 42
38.0
  3
AM_ISO$0
100
AcDbAlignedDimension
 13
2190.30668196508
 23
1140.815351605319
 33
0.0
 14
2228.30668196508
 24
1140.815351605319
 34
0.0
100
AcDbRotatedDimension
1001
ACAD
1000
DSTYLE
1002
{
1070
    40
1040
1.0
1070
   144
1040
1.0
1070
   272
1070
     8
1002
}
  0
DIMENSION
  5
22A1
330
1F
100
AcDbEntity
  8
AM_5
100
AcDbDimension
  2
*D23
 10
2240.30668196508
 20
1191.315351605319
 30
0.0
 11
2237.80668196508
 21
1181.81535160532
 31
0.0
 70
    32
 71
     5
 42
19.0
  3
AM_ISO$0
100
AcDbAlignedDimension
 13
2230.431053404039
 23
1172.315351605319
 33
0.0
 14
2230.431053404039
 24
1191.315351605319
 34
0.0
 50
90.0
100
AcDbRotatedDimension
1001
ACAD
1000
DSTYLE
1002
{
1070
    40
1040
1.0
1070
   144
1040
1.0
1070
   272
1070
     8
1002
}
  0
DIMENSION
  5
22A4
330
1F
100
AcDbEntity
  8
AM_5
100
AcDbDimension
  2
*D24
 10
2250.30668196508
 20
1201.815351605319
 30
0.0
 11
2247.80668196508
 21
1181.81535160532
 31
0.0
 70
    32
 71
     5
 42
40.0
  3
AM_ISO$0
100
AcDbAlignedDimension
 13
2226.056681965081
 23
1161.815351605319
 33
0.0
 14
2226.056681965081
 24
1201.815351605319
 34
0.0
 50
90.0
100
AcDbRotatedDimension
1001
ACAD
1000
DSTYLE
1002
{
1070
    40
1040
1.0
1070
   144
1040
1.0
1070
   272
1070
     8
1002
}
  0
DIMENSION
  5
22A7
330
1F
100
AcDbEntity
  8
AM_5
100
AcDbDimension
  2
*D25
 10
2260.30668196508
 20
1215.815351605319
 30
0.0
 11
2257.80668196508
 21
1181.81535160532
 31
0.0
 70
    32
 71
     5
 42
68.0
  3
AM_ISO$0
100
AcDbAlignedDimension
 13
2223.806681965081
 23
1147.815351605319
 33
0.0
 14
2223.806681965081
 24
1215.815351605319
 34
0.0
 50
90.0
100
AcDbRotatedDimension
1001
ACAD
1000
DSTYLE
1002
{
1070
    40
1040
1.0
1070
   144
1040
1.0
1070
   272
1070
     8
1002
}
  0
DIMENSION
  5
22AA
330
1F
100
AcDbEntity
  8
AM_5
100
AcDbDimension
  2
*D26
 10
2270.306681965081
 20
1222.815351605319
 30
0.0
 11
2267.806386689489
 21
1181.81535160532
 31
0.0
 70
    32
 71
     5
 42
82.0
  3
AM_ISO$0
100
AcDbAlignedDimension
 13
2228.30668196508
 23
1140.815351605319
 33
0.0
 14
2228.30668196508
 24
1222.815351605319
 34
0.0
 50
90.0
100
AcDbRotatedDimension
1001
ACAD
1000
DSTYLE
1002
{
1070
    40
1040
1.0
1070
   144
1040
1.0
1070
   272
1070
     8
1002
}
  0
INSERT
  5
22AD
330
1F
100
AcDbEntity
  8
AM_5
100
AcDbBlockReference
  2
*S32
 10
0.0
 20
0.0
 30
0.0
  0
TEXT
  5
22AE
330
1F
100
AcDbEntity
  8
AM_5
100
AcDbText
 10
2170.465572479662
 20
1193.773804514673
 30
0.0
 40
3.0
  1
4-%%c6
100
AcDbText
  0
TEXT
  5
22AF
330
1F
100
AcDbEntity
  8
AM_5
100
AcDbText
 10
2179.686963200863
 20
1197.042450443852
 30
0.0
 40
1.5
  1
H7
 41
0.8
  7
CHINESET
100
AcDbText
  0
TEXT
  5
22B0
330
1F
100
AcDbEntity
  8
AM_5
100
AcDbText
 10
2241.139958462958
 20
1130.093784569139
 30
0.0
 40
3.0
  1
4-%%c5.5thru
100
AcDbText
  0
TEXT
  5
22B1
330
1F
100
AcDbEntity
  8
AM_5
100
AcDbText
 10
2241.442115152489
 20
1123.955660959678
 30
0.0
 40
3.0
  1
4-9.5x5.4depth
100
AcDbText
  0
TEXT
  5
22B2
330
1F
100
AcDbEntity
  8
AM_5
100
AcDbText
 10
2241.442115152489
 20
1118.924047696818
 30
0.0
 40
3.0
  1
(back side)
100
AcDbText
  0
INSERT
  5
22B3
330
1F
100
AcDbEntity
  8
AM_5
100
AcDbBlockReference
  2
*S33
 10
0.0
 20
0.0
 30
0.0
  0
TEXT
  5
22B4
330
1F
100
AcDbEntity
  8
AM_5
100
AcDbText
 10
2170.100253976846
 20
1228.415000134005
 30
0.0
 40
3.0
  1
4-M5
100
AcDbText
  0
INSERT
  5
22B5
330
1F
100
AcDbEntity
  8
AM_5
100
AcDbBlockReference
  2
*S34
 10
0.0
 20
0.0
 30
0.0
  0
LINE
  5
2390
330
1F
100
AcDbEntity
  8
AM_7
100
AcDbLine
 10
1908.411160197293
 20
1210.815351605319
 30
0.0
 11
1920.411160197294
 21
1210.815351605319
 31
0.0
1001
GENIUS_GENOREF_13
1005
2394
  0
LINE
  5
2391
330
1F
100
AcDbEntity
  8
AM_7
100
AcDbLine
 10
1908.411160197293
 20
1210.815351605319
 30
0.0
 11
1908.411160197293
 21
1222.815351605319
 31
0.0
1001
GENIUS_GENOREF_13
1005
2394
  0
LINE
  5
2392
330
1F
100
AcDbEntity
  8
AM_7
100
AcDbLine
 10
1908.411160197293
 20
1210.815351605319
 30
0.0
 11
1896.411160197294
 21
1210.815351605319
 31
0.0
1001
GENIUS_GENOREF_13
1005
2394
  0
LINE
  5
2393
330
1F
100
AcDbEntity
  8
AM_7
100
AcDbLine
 10
1908.411160197293
 20
1210.815351605319
 30
0.0
 11
1908.411160197293
 21
1198.815351605319
 31
0.0
1001
GENIUS_GENOREF_13
1005
2394
  0
POINT
  5
2394
330
1F
100
AcDbEntity
  8
0
 60
     1
100
AcDbPoint
 10
0.0
 20
0.0
 30
0.0
1001
GENIUS_GENOENT_13
1002
{
1000
MYREF
1005
2394
1002
}
1002
{
1000
GRP
1005
0
1002
}
1001
GENIUS_GENOLIS_13
1002
{
1000
ENT
1005
2393
1005
2392
1005
2391
1005
2390
1002
}
1001
GENIUS_GENOBJ-N-CRS_13
1002
{
1000
OWNER
1000
GEN
1002
}
1001
GENIUS_GENODEF_13
1002
{
1000
HIER
1070
    10
1002
}
1002
{
1000
MANEDIT
1070
     0
1002
}
1002
{
1000
NOSEL
1070
     0
1002
}
1002
{
1000
BEHIND
1070
     0
1002
}
1002
{
1000
OTHER
1070
     0
1002
}
1002
{
1000
REACTOR
1002
}
  0
LINE
  5
23A2
330
1F
100
AcDbEntity
  8
AM_7
100
AcDbLine
 10
1908.411160197293
 20
1152.815351605319
 30
0.0
 11
1920.411160197294
 21
1152.815351605319
 31
0.0
1001
GENIUS_GENOREF_13
1005
23A6
  0
LINE
  5
23A3
330
1F
100
AcDbEntity
  8
AM_7
100
AcDbLine
 10
1908.411160197293
 20
1152.815351605319
 30
0.0
 11
1908.411160197293
 21
1164.815351605319
 31
0.0
1001
GENIUS_GENOREF_13
1005
23A6
  0
LINE
  5
23A4
330
1F
100
AcDbEntity
  8
AM_7
100
AcDbLine
 10
1908.411160197293
 20
1152.815351605319
 30
0.0
 11
1896.411160197294
 21
1152.815351605319
 31
0.0
1001
GENIUS_GENOREF_13
1005
23A6
  0
LINE
  5
23A5
330
1F
100
AcDbEntity
  8
AM_7
100
AcDbLine
 10
1908.411160197293
 20
1152.815351605319
 30
0.0
 11
1908.411160197293
 21
1140.815351605319
 31
0.0
1001
GENIUS_GENOREF_13
1005
23A6
  0
POINT
  5
23A6
330
1F
100
AcDbEntity
  8
0
 60
     1
100
AcDbPoint
 10
0.0
 20
0.0
 30
0.0
1001
GENIUS_GENODEF_13
1002
{
1000
HIER
1070
    10
1002
}
1002
{
1000
MANEDIT
1070
     0
1002
}
1002
{
1000
NOSEL
1070
     0
1002
}
1002
{
1000
BEHIND
1070
     0
1002
}
1002
{
1000
OTHER
1070
     0
1002
}
1002
{
1000
REACTOR
1002
}
1001
GENIUS_GENOLIS_13
1002
{
1000
ENT
1005
23A5
1005
23A4
1005
23A3
1005
23A2
1002
}
1001
GENIUS_GENOENT_13
1002
{
1000
MYREF
1005
23A6
1002
}
1002
{
1000
GRP
1005
0
1002
}
1001
GENIUS_GENOBJ-N-CRS_13
1002
{
1000
OWNER
1000
GEN
1002
}
  0
LINE
  5
23B4
330
1F
100
AcDbEntity
  8
AM_7
100
AcDbLine
 10
1908.411160197293
 20
1181.815351605319
 30
0.0
 11
1925.261160197294
 21
1181.815351605319
 31
0.0
1001
GENIUS_GENOREF_13
1005
23B8
  0
LINE
  5
23B5
330
1F
100
AcDbEntity
  8
AM_7
100
AcDbLine
 10
1908.411160197293
 20
1181.815351605319
 30
0.0
 11
1908.411160197293
 21
1198.665351605319
 31
0.0
1001
GENIUS_GENOREF_13
1005
23B8
  0
LINE
  5
23B6
330
1F
100
AcDbEntity
  8
AM_7
100
AcDbLine
 10
1908.411160197293
 20
1181.815351605319
 30
0.0
 11
1891.561160197294
 21
1181.815351605319
 31
0.0
1001
GENIUS_GENOREF_13
1005
23B8
  0
LINE
  5
23B7
330
1F
100
AcDbEntity
  8
AM_7
100
AcDbLine
 10
1908.411160197293
 20
1181.815351605319
 30
0.0
 11
1908.411160197293
 21
1164.965351605319
 31
0.0
1001
GENIUS_GENOREF_13
1005
23B8
  0
POINT
  5
23B8
330
1F
100
AcDbEntity
  8
0
 60
     1
100
AcDbPoint
 10
0.0
 20
0.0
 30
0.0
1001
GENIUS_GENOENT_13
1002
{
1000
MYREF
1005
23B8
1002
}
1002
{
1000
GRP
1005
0
1002
}
1001
GENIUS_GENOBJ-N-CRS_13
1002
{
1000
OWNER
1000
GEN
1002
}
1001
GENIUS_GENODEF_13
1002
{
1000
HIER
1070
    10
1002
}
1002
{
1000
MANEDIT
1070
     0
1002
}
1002
{
1000
NOSEL
1070
     0
1002
}
1002
{
1000
BEHIND
1070
     0
1002
}
1002
{
1000
OTHER
1070
     0
1002
}
1002
{
1000
REACTOR
1002
}
1001
GENIUS_GENOLIS_13
1002
{
1000
ENT
1005
23B7
1005
23B6
1005
23B5
1005
23B4
1002
}
  0
ENDSEC
  0
SECTION
  2
OBJECTS
  0
DICTIONARY
  5
C
330
0
100
AcDbDictionary
281
     1
  3
ACAD_COLOR
350
BE
  3
ACAD_GROUP
350
D
  3
ACAD_LAYOUT
350
1A
  3
ACAD_MATERIAL
350
BD
  3
ACAD_MLINESTYLE
350
17
  3
ACAD_PLOTSETTINGS
350
19
  3
ACAD_PLOTSTYLENAME
350
E
  3
ACAD_TABLESTYLE
350
11A
  3
ACDBHEADERROUNDTRIPXREC
350
2A68
  3
AcDbVariableDictionary
350
94
  3
AcmDictionary
350
5B
  3
AMG
350
41
  3
AMGSNAPSETTINGS
350
1B8
  3
DWGPROPS
350
2A67
  3
MAPISURF_MODULE
350
29BA
  0
DICTIONARY
  5
3F9
330
2
100
AcDbDictionary
280
     1
281
     1
  3
ACAD_LAYERFILTERS
360
2A12
  3
ACAD_LAYERSTATES
360
722
  3
ACLYDICTIONARY
360
2A11
  3
AMLAYER_GROUPCOLORS
360
A90
  0
DICTIONARY
  5
8F
330
1F
100
AcDbDictionary
280
     1
281
     1
  3
ACAD_INDEX
360
2A5B
  3
ACAD_SORTENTS
360
AC1
  0
DICTIONARY
  5
16E2
330
16D5
100
AcDbDictionary
280
     1
281
     1
  3
ACAD_DIMASSOC
360
16E3
  0
DICTIONARY
  5
1708
330
16FB
100
AcDbDictionary
280
     1
281
     1
  3
ACAD_DIMASSOC
360
1709
  0
DICTIONARY
  5
172E
330
1721
100
AcDbDictionary
280
     1
281
     1
  3
ACAD_DIMASSOC
360
172F
  0
DICTIONARY
  5
1754
330
1747
100
AcDbDictionary
280
     1
281
     1
  3
ACAD_DIMASSOC
360
1755
  0
DICTIONARY
  5
177A
330
176D
100
AcDbDictionary
280
     1
281
     1
  3
ACAD_DIMASSOC
360
177B
  0
DICTIONARY
  5
17DD
330
17D0
100
AcDbDictionary
280
     1
281
     1
  3
ACAD_DIMASSOC
360
17DE
  0
DICTIONARY
  5
1807
330
17FA
100
AcDbDictionary
280
     1
281
     1
  3
ACAD_DIMASSOC
360
1808
  0
DICTIONARY
  5
BE
102
{ACAD_REACTORS
330
C
102
}
330
C
100
AcDbDictionary
281
     1
  0
DICTIONARY
  5
D
102
{ACAD_REACTORS
330
C
102
}
330
C
100
AcDbDictionary
281
     1
  0
DICTIONARY
  5
1A
102
{ACAD_REACTORS
330
C
102
}
330
C
100
AcDbDictionary
281
     1
  3
Model
350
22
  3
配置1
350
1E
  3
配置2
350
26
  0
DICTIONARY
  5
BD
102
{ACAD_REACTORS
330
C
102
}
330
C
100
AcDbDictionary
281
     1
  0
DICTIONARY
  5
17
102
{ACAD_REACTORS
330
C
102
}
330
C
100
AcDbDictionary
281
     1
  3
Standard
350
18
  0
DICTIONARY
  5
19
102
{ACAD_REACTORS
330
C
102
}
330
C
100
AcDbDictionary
281
     1
  0
ACDBDICTIONARYWDFLT
  5
E
102
{ACAD_REACTORS
330
C
102
}
330
C
100
AcDbDictionary
281
     1
  3
Normal
350
F
100
AcDbDictionaryWithDefault
340
F
  0
DICTIONARY
  5
11A
102
{ACAD_REACTORS
330
C
102
}
330
C
100
AcDbDictionary
281
     1
  3
Standard
350
11B
  0
DICTIONARY
  5
2A68
102
{ACAD_REACTORS
330
C
102
}
330
C
100
AcDbDictionary
281
     1
  0
DICTIONARY
  5
94
102
{ACAD_REACTORS
330
C
102
}
330
C
100
AcDbDictionary
281
     1
  3
CTABLESTYLE
350
138
  3
DIMASSOC
350
96
  3
INDEXCTL
350
95
  3
PROJECTNAME
350
2927
  0
DICTIONARY
  5
5B
102
{ACAD_REACTORS
330
C
102
}
330
C
100
AcDbDictionary
281
     1
  3
AcmBOM
350
1B5
  3
AcmStdDictionary
350
61
  3
AMDTSECTSYM_ARROWCOLOR
350
123
  0
DICTIONARY
  5
41
102
{ACAD_REACTORS
330
C
102
}
330
C
100
AcDbDictionary
281
     1
  3
AcMgSettings
350
2934
  0
DICTIONARY
  5
1B8
102
{ACAD_REACTORS
330
C
102
}
330
C
100
AcDbDictionary
281
     1
  0
XRECORD
  5
2A67
102
{ACAD_REACTORS
330
C
102
}
330
C
100
AcDbXrecord
280
     1
  1
DWGPROPS COOKIE
  2

  3

  4

  6

  7

  8

  9

300
AmdtFileType=84
301
=
302
=
303
=
304
=
305
=
306
=
307
=
308
=
309
=
 40
0.2406365625
 41
2453571.402341933
 42
2456548.636500648
  1

 90
        1
  0
DICTIONARY
  5
2A12
102
{ACAD_REACTORS
330
3F9
102
}
330
3F9
100
AcDbDictionary
281
     1
  0
DICTIONARY
  5
722
102
{ACAD_REACTORS
330
3F9
102
}
330
3F9
100
AcDbDictionary
281
     1
  0
DICTIONARY
  5
2A11
102
{ACAD_REACTORS
330
3F9
102
}
330
3F9
100
AcDbDictionary
281
     1
1001
ACAD
1000
<All
  0
DICTIONARY
  5
A90
102
{ACAD_REACTORS
330
3F9
102
}
330
3F9
100
AcDbDictionary
280
     1
281
     1
  0
DICTIONARY
  5
2A5B
102
{ACAD_REACTORS
330
8F
102
}
330
8F
100
AcDbDictionary
281
     1
  3
*A1
350
2A5C
  0
SORTENTSTABLE
  5
AC1
102
{ACAD_REACTORS
330
8F
102
}
330
8F
100
AcDbSortentsTable
330
1F
  0
DIMASSOC
  5
16E3
102
{ACAD_REACTORS
330
16E2
102
}
330
16E2
100
AcDbDimAssoc
330
16D5
 90
        3
 70
     0
 71
     0
  1
AcDbOsnapPointRef
 72
     1
331
15FA
 73
     0
 91
        0
 40
0.0
 10
0.0
 20
0.0
 30
2.000000000000000E+50
 75
     0
  1
AcDbOsnapPointRef
 72
     1
331
160C
 73
     0
 91
        0
 40
0.0
 10
0.0
 20
0.0
 30
2.000000000000000E+50
 75
     0
  0
DIMASSOC
  5
1709
102
{ACAD_REACTORS
330
1708
102
}
330
1708
100
AcDbDimAssoc
330
16FB
 90
        3
 70
     0
 71
     0
  1
AcDbOsnapPointRef
 72
     1
331
15AD
 73
     0
 91
        0
 40
0.0
 10
0.0
 20
0.0
 30
2.000000000000000E+50
 75
     0
  1
AcDbOsnapPointRef
 72
    13
331
15AE
 73
     0
 91
        0
 40
0.0
 10
0.0
 20
0.0
 30
2.000000000000000E+50
 75
     0
  0
DIMASSOC
  5
172F
102
{ACAD_REACTORS
330
172E
102
}
330
172E
100
AcDbDimAssoc
330
1721
 90
        3
 70
     0
 71
     0
  1
AcDbOsnapPointRef
 72
     1
331
15AB
 73
     0
 91
        0
 40
0.0
 10
0.0
 20
0.0
 30
2.000000000000000E+50
 75
     0
  1
AcDbOsnapPointRef
 72
     1
331
160D
 73
     0
 91
        0
 40
0.0
 10
0.0
 20
0.0
 30
2.000000000000000E+50
 75
     0
  0
DIMASSOC
  5
1755
102
{ACAD_REACTORS
330
1754
102
}
330
1754
100
AcDbDimAssoc
330
1747
 90
        3
 70
     0
 71
     0
  1
AcDbOsnapPointRef
 72
     1
331
15AB
 73
     0
 91
        0
 40
0.0
 10
0.0
 20
0.0
 30
2.000000000000000E+50
 75
     0
  1
AcDbOsnapPointRef
 72
     1
331
15AE
 73
     0
 91
        0
 40
0.0
 10
0.0
 20
0.0
 30
2.000000000000000E+50
 75
     0
  0
DIMASSOC
  5
177B
102
{ACAD_REACTORS
330
177A
102
}
330
177A
100
AcDbDimAssoc
330
176D
 90
        3
 70
     0
 71
     0
  1
AcDbOsnapPointRef
 72
     1
331
15AB
 73
     0
 91
        0
 40
0.0
 10
0.0
 20
0.0
 30
2.000000000000000E+50
 75
     0
  1
AcDbOsnapPointRef
 72
     6
331
15A9
 73
     0
 91
        0
 40
0.0
 10
0.0
 20
0.0
 30
0.0
332
15B7
 74
     0
 92
        0
 75
     0
  0
DIMASSOC
  5
17DE
102
{ACAD_REACTORS
330
17DD
102
}
330
17DD
100
AcDbDimAssoc
330
17D0
 90
        3
 70
     0
 71
     0
  1
AcDbOsnapPointRef
 72
    13
331
15CE
 73
     0
 91
        0
 40
0.0
 10
0.0
 20
0.0
 30
2.000000000000000E+50
 75
     0
  1
AcDbOsnapPointRef
 72
     1
331
15CE
 73
     0
 91
        0
 40
0.0
 10
0.0
 20
0.0
 30
2.000000000000000E+50
 75
     0
  0
DIMASSOC
  5
1808
102
{ACAD_REACTORS
330
1807
102
}
330
1807
100
AcDbDimAssoc
330
17FA
 90
        3
 70
     0
 71
     0
  1
AcDbOsnapPointRef
 72
    13
331
15A6
 73
     0
 91
        0
 40
0.0
 10
0.0
 20
0.0
 30
2.000000000000000E+50
 75
     0
  1
AcDbOsnapPointRef
 72
    13
331
15A8
 73
     0
 91
        0
 40
0.0
 10
0.0
 20
0.0
 30
2.000000000000000E+50
 75
     0
  0
LAYOUT
  5
22
102
{ACAD_XDICTIONARY
360
2A6B
102
}
102
{ACAD_REACTORS
330
1A
102
}
330
1A
100
AcDbPlotSettings
  1

  2
\\RD\EPSON Stylus C63 Series單色
  4
A4
  6

 40
3.757083177566528
 41
3.757076978683471
 42
3.757080078125
 43
3.757080078125
 44
209.9733276367187
 45
296.9683227539062
 46
0.0
 47
0.0
 48
0.0
 49
0.0
140
0.0
141
0.0
142
1.0
143
0.3405120737814363
 70
 11952
 72
     1
 73
     0
 74
     0
  7
彩色出圖.ctb
 75
     0
147
2.936753428137963
148
-2047.07469463503
149
-1261.649717473083
100
AcDbLayout
  1
Model
 70
     1
 71
     0
 10
0.0
 20
0.0
 11
12.0
 21
9.0
 12
0.0
 22
0.0
 32
0.0
 14
0.0
 24
0.0
 34
0.0
 15
0.0
 25
0.0
 35
0.0
146
0.0
 13
0.0
 23
0.0
 33
0.0
 16
1.0
 26
0.0
 36
0.0
 17
0.0
 27
1.0
 37
0.0
 76
     0
330
1F
1001
ACAD_PSEXT
1000
\\RD\EPSON Stylus C63 Series單色
1000
EPSON Stylus C63 Series
1000
\\RD
1000

1070
     0
  0
LAYOUT
  5
1E
102
{ACAD_XDICTIONARY
360
2A69
102
}
102
{ACAD_REACTORS
330
1A
102
}
330
1A
100
AcDbPlotSettings
  1

  2

  4

  6

 40
0.0
 41
0.0
 42
0.0
 43
0.0
 44
0.0
 45
0.0
 46
0.0
 47
0.0
 48
0.0
 49
0.0
140
0.0
141
0.0
142
1.0
143
1.0
 70
   688
 72
     0
 73
     0
 74
     5
  7
彩色出圖.ctb
 75
    16
147
1.0
148
0.0
149
0.0
100
AcDbLayout
  1
配置1
 70
     1
 71
     1
 10
0.0
 20
0.0
 11
420.0
 21
297.0
 12
0.0
 22
0.0
 32
0.0
 14
1.000000000000000E+20
 24
1.000000000000000E+20
 34
1.000000000000000E+20
 15
-1.000000000000000E+20
 25
-1.000000000000000E+20
 35
-1.000000000000000E+20
146
0.0
 13
0.0
 23
0.0
 33
0.0
 16
1.0
 26
0.0
 36
0.0
 17
0.0
 27
1.0
 37
0.0
 76
     0
330
1B
  0
LAYOUT
  5
26
102
{ACAD_XDICTIONARY
360
2A6D
102
}
102
{ACAD_REACTORS
330
1A
102
}
330
1A
100
AcDbPlotSettings
  1

  2

  4

  6

 40
0.0
 41
0.0
 42
0.0
 43
0.0
 44
0.0
 45
0.0
 46
0.0
 47
0.0
 48
0.0
 49
0.0
140
0.0
141
0.0
142
1.0
143
1.0
 70
   688
 72
     0
 73
     0
 74
     5
  7
彩色出圖.ctb
 75
    16
147
1.0
148
0.0
149
0.0
100
AcDbLayout
  1
配置2
 70
     1
 71
     2
 10
0.0
 20
0.0
 11
12.0
 21
9.0
 12
0.0
 22
0.0
 32
0.0
 14
0.0
 24
0.0
 34
0.0
 15
0.0
 25
0.0
 35
0.0
146
0.0
 13
0.0
 23
0.0
 33
0.0
 16
1.0
 26
0.0
 36
0.0
 17
0.0
 27
1.0
 37
0.0
 76
     0
330
23
  0
MLINESTYLE
  5
18
102
{ACAD_REACTORS
330
17
102
}
330
17
100
AcDbMlineStyle
  2
STANDARD
 70
     0
  3

 62
   256
 51
90.0
 52
90.0
 71
     2
 49
0.5
 62
   256
  6
BYLAYER
 49
-0.5
 62
   256
  6
BYLAYER
  0
ACDBPLACEHOLDER
  5
F
102
{ACAD_REACTORS
330
E
102
}
330
E
  0
TABLESTYLE
  5
11B
102
{ACAD_REACTORS
330
11A
102
}
330
11A
100
AcDbTableStyle
  3
Standard
 70
     0
 71
     0
 40
1.5
 41
1.5
280
     0
281
     0
  7
STANDARD
140
4.5
170
     2
 62
     0
 63
     7
283
     0
274
    -2
284
     1
 64
     0
275
    -2
285
     1
 65
     0
276
    -2
286
     1
 66
     0
277
    -2
287
     1
 67
     0
278
    -2
288
     1
 68
     0
279
    -2
289
     1
 69
     0
  7
STANDARD
140
6.0
170
     5
 62
     0
 63
     7
283
     0
274
    -2
284
     1
 64
     0
275
    -2
285
     1
 65
     0
276
    -2
286
     1
 66
     0
277
    -2
287
     1
 67
     0
278
    -2
288
     1
 68
     0
279
    -2
289
     1
 69
     0
  7
STANDARD
140
4.5
170
     5
 62
     0
 63
     7
283
     0
274
    -2
284
     1
 64
     0
275
    -2
285
     1
 65
     0
276
    -2
286
     1
 66
     0
277
    -2
287
     1
 67
     0
278
    -2
288
     1
 68
     0
279
    -2
289
     1
 69
     0
  0
DICTIONARYVAR
  5
138
102
{ACAD_REACTORS
330
94
102
}
330
94
100
DictionaryVariables
280
     0
  1
STANDARD
  0
DICTIONARYVAR
  5
96
102
{ACAD_REACTORS
330
94
102
}
330
94
100
DictionaryVariables
280
     0
  1
2
  0
DICTIONARYVAR
  5
95
102
{ACAD_REACTORS
330
94
102
}
330
94
100
DictionaryVariables
280
     0
  1
1
  0
DICTIONARYVAR
  5
2927
102
{ACAD_REACTORS
330
94
102
}
330
94
100
DictionaryVariables
280
     0
  1

  0
DICTIONARY
  5
1B5
102
{ACAD_REACTORS
330
5B
102
}
330
5B
100
AcDbDictionary
281
     1
  0
DICTIONARY
  5
61
102
{ACAD_REACTORS
330
5B
102
}
330
5B
100
AcDbDictionary
281
     1
  0
XRECORD
  5
123
102
{ACAD_REACTORS
330
5B
102
}
330
5B
100
AcDbXrecord
280
     1
 90
-1023410169
  0
DICTIONARY
  5
2934
102
{ACAD_REACTORS
330
41
102
}
330
41
100
AcDbDictionary
281
     1
  3
DWGSETTINGS
350
2935
  3
Shaft
350
2A0E
  3
TRANSSETTINGS
350
2938
  0
LAYER_INDEX
  5
2A5C
102
{ACAD_REACTORS
330
2A5B
102
}
330
2A5B
100
AcDbIndex
 40
2456548.636500648
100
AcDbLayerIndex
  8
0
360
2A5D
 90
       25
  8
AM_7
360
2A5E
 90
      117
  8
AM_VIS
360
2A5F
 90
      542
  8
AM_4
360
2A60
 90
       96
  8
AM_0
360
2A61
 90
       15
  8
AM_5
360
2A62
 90
       42
  8
Defpoints
360
2A63
 90
        0
  8
LOGO
360
2A64
 90
      127
  0
DICTIONARY
  5
2A6B
330
22
100
AcDbDictionary
280
     1
281
     1
  3
ACAD_XREC_ROUNDTRIP
360
2A6C
  0
DICTIONARY
  5
2A69
330
1E
100
AcDbDictionary
280
     1
281
     1
  3
ACAD_XREC_ROUNDTRIP
360
2A6A
  0
DICTIONARY
  5
2A6D
330
26
100
AcDbDictionary
280
     1
281
     1
  3
ACAD_XREC_ROUNDTRIP
360
2A6E
  0
IDBUFFER
  5
2A5D
330
0
100
AcDbIdBuffer
330
1FF4
330
200C
330
200D
330
200E
330
200F
330
2010
330
2394
330
23A6
330
23B8
330
15FC
330
160E
330
1647
330
16C4
330
18F3
330
192D
330
1930
330
1931
330
195E
330
1F3A
330
1F41
330
1F48
330
1F4F
330
1F6C
330
1F6D
330
1FEF
  0
IDBUFFER
  5
2A5E
330
0
100
AcDbIdBuffer
330
23A5
330
23B4
330
23B5
330
23B6
330
23B7
330
159A
330
159B
330
15A0
330
15F8
330
15F9
330
15FA
330
15FB
330
160A
330
160B
330
160C
330
160D
330
161B
330
1628
330
1635
330
1643
330
1644
330
1645
330
1646
330
1EBF
330
1EC0
330
1EC3
330
1EC4
330
1EC7
330
1EC8
330
1ECB
330
1ECC
330
1EDF
330
1EE0
330
1EE3
330
1EE4
330
1EE7
330
1EE8
330
1EEB
330
1EEC
330
1F08
330
1F09
330
1F0C
330
1F0D
330
1F10
330
1F11
330
1F14
330
1F15
330
1F36
330
1F37
330
1F38
330
1F39
330
1F3D
330
1F3E
330
1F3F
330
1F40
330
1F44
330
1F45
330
1F46
330
1F47
330
1F4B
330
1F4C
330
1F4D
330
1F4E
330
1F5F
330
1F63
330
1F64
330
1F65
330
1F66
330
1F67
330
1F68
330
1F69
330
1F6A
330
1F6B
330
1F73
330
1F78
330
1F85
330
1F92
330
1FA3
330
1FB0
330
1FB7
330
1FC5
330
1FD3
330
1FE1
330
1FFA
330
1FFB
330
1FFC
330
1FFD
330
1FFE
330
1FFF
330
2000
330
2001
330
2002
330
2003
330
2004
330
2005
330
2006
330
2007
330
2008
330
2009
330
200A
330
200B
330
20B7
330
20B8
330
20D0
330
20DD
330
20F1
330
20F3
330
20F5
330
20F7
330
20FC
330
2390
330
2391
330
2392
330
2393
330
23A2
330
23A3
330
23A4
  0
IDBUFFER
  5
2A5F
330
0
100
AcDbIdBuffer
330
2079
330
207A
330
207B
330
207C
330
207D
330
207E
330
207F
330
2080
330
2081
330
2082
330
2083
330
2084
330
2085
330
2086
330
2087
330
2088
330
2089
330
208D
330
208E
330
208F
330
2090
330
2091
330
2092
330
2093
330
2094
330
2095
330
2096
330
2097
330
2098
330
2099
330
209A
330
209B
330
209C
330
209D
330
209E
330
209F
330
20A0
330
20A1
330
20A2
330
20A3
330
20A4
330
20A5
330
20A6
330
20A7
330
20A8
330
20A9
330
15A3
330
15A4
330
15A5
330
15A6
330
15A7
330
15A8
330
15A9
330
15AA
330
15AB
330
15AC
330
15AD
330
15AE
330
15AF
330
15B0
330
15B1
330
15B2
330
15B3
330
15B4
330
15B5
330
15B6
330
15B7
330
15B8
330
15BB
330
15BC
330
15BF
330
15C0
330
15C1
330
15C2
330
15C3
330
15C4
330
15C5
330
15C6
330
15C7
330
15C8
330
15C9
330
15CA
330
15CB
330
15CC
330
15CD
330
15CE
330
15CF
330
15D0
330
15D1
330
15D2
330
15D3
330
15D4
330
15D5
330
15D6
330
15D7
330
15D8
330
15D9
330
15DA
330
15DB
330
15DC
330
15DD
330
15DE
330
15DF
330
15E0
330
15E1
330
15E2
330
15E3
330
15E4
330
15E5
330
15E8
330
1CB0
330
1CB1
330
1CB2
330
1CB3
330
1CB4
330
1CB5
330
1CB6
330
1CB7
330
1CB8
330
1CB9
330
1CBA
330
1CBB
330
1CBC
330
1CBD
330
1CBE
330
1CBF
330
1CC0
330
1CC1
330
1CC2
330
1CC3
330
1CC4
330
1CC5
330
1CC6
330
1CC7
330
1CC8
330
1CC9
330
1CCA
330
1CCB
330
1CCC
330
1CCD
330
1CCE
330
1CCF
330
1CD0
330
1CD1
330
1CD2
330
1CD3
330
1CD4
330
1CD5
330
1CD6
330
1CD7
330
1CD8
330
1CD9
330
1CDA
330
1CDB
330
1CDC
330
1CDD
330
1CDE
330
1CE3
330
1CE4
330
1CE5
330
1CE6
330
1CE7
330
1CE8
330
1CE9
330
1CEA
330
1CF3
330
1CF4
330
1CF5
330
1CF6
330
1CF7
330
1CF8
330
1CF9
330
1CFA
330
1CFB
330
1CFC
330
1CFD
330
1CFE
330
1CFF
330
1D00
330
1D01
330
1D02
330
1D03
330
1D04
330
1D05
330
1D06
330
1D07
330
1D08
330
1D09
330
1D0A
330
1D0B
330
1D0C
330
1D0D
330
1D0E
330
1D0F
330
1D10
330
1D11
330
1D12
330
1D13
330
1D14
330
1D15
330
1D16
330
1D17
330
1D18
330
1D19
330
1D1A
330
1D1B
330
1D1C
330
1D1D
330
1D1E
330
1D1F
330
1D20
330
1D21
330
1D22
330
1D23
330
1D24
330
1D25
330
1D26
330
1D27
330
1D28
330
1D29
330
1D2A
330
1D2B
330
1D2C
330
1D2D
330
1D2E
330
1D2F
330
1D30
330
1D31
330
1D32
330
1D33
330
1D34
330
1D35
330
1D36
330
1D37
330
1D38
330
1D39
330
1D3A
330
1D3B
330
1D3C
330
1D3D
330
1D3E
330
1D4D
330
1D4E
330
1D4F
330
1D50
330
1D51
330
1D52
330
1D53
330
1D54
330
1D55
330
1D56
330
1D57
330
1D58
330
1D59
330
1D5A
330
1D5B
330
1D5C
330
1D5D
330
1D5E
330
1D5F
330
1D60
330
1D69
330
1D6A
330
1D6B
330
1D6C
330
1D6E
330
1D6F
330
1D70
330
1D76
330
1D77
330
1D79
330
1D7A
330
1D7B
330
1D7C
330
1D81
330
1D82
330
1D83
330
1D84
330
1D89
330
1D8C
330
1D8D
330
1D92
330
1D93
330
1D94
330
1D95
330
1D96
330
1D97
330
1D98
330
1D99
330
1D9A
330
1D9B
330
1D9C
330
1D9D
330
1D9E
330
1D9F
330
1DA0
330
1DA1
330
1DA2
330
1DA3
330
1DA4
330
1DA5
330
1DAE
330
1DAF
330
1DB0
330
1DB1
330
1DB2
330
1DB3
330
1DB4
330
1DB5
330
1DB6
330
1DB7
330
1DB8
330
1DB9
330
1DBA
330
1DBB
330
1DBC
330
1DBD
330
1DBE
330
1DBF
330
1DC0
330
1DC1
330
1DC2
330
1DC3
330
1DC4
330
1DC5
330
1DC6
330
1DC7
330
1DC8
330
1DC9
330
1DCA
330
1DCB
330
1DCC
330
1DCD
330
1DCE
330
1DCF
330
1DD0
330
1DD1
330
1DD2
330
1DD3
330
1DD4
330
1DD5
330
1DD6
330
1DD7
330
1DD8
330
1DD9
330
1DDE
330
1DDF
330
1DE0
330
1DE1
330
1DE6
330
1DE7
330
1DE8
330
1DE9
330
1DEA
330
1DEB
330
1DEC
330
1DED
330
1DEE
330
1DEF
330
1DF0
330
1DF1
330
1DF2
330
1DF3
330
1DF4
330
1DF5
330
1DF6
330
1DF7
330
1DF8
330
1DF9
330
1DFA
330
1DFB
330
1DFC
330
1DFD
330
1DFE
330
1DFF
330
1E00
330
1E01
330
1E02
330
1E03
330
1E04
330
1E05
330
1E06
330
1E07
330
1E08
330
1E09
330
1E0A
330
1E0B
330
1E0C
330
1E0D
330
1E0E
330
1E0F
330
1E10
330
1E11
330
1E12
330
1E13
330
1E14
330
1E15
330
1E16
330
1E17
330
1E18
330
1E19
330
1E1A
330
1E1B
330
1E1C
330
1E1D
330
1E1E
330
1E1F
330
1E20
330
1E21
330
1E22
330
1E27
330
1E28
330
1E29
330
1E2A
330
1E2F
330
1E30
330
1E31
330
1E32
330
1E33
330
1E34
330
1E35
330
1E36
330
1E37
330
1E38
330
1E39
330
1E3A
330
1E3B
330
1E3C
330
1E3D
330
1E3E
330
1E3F
330
1E40
330
1E41
330
1E42
330
1E43
330
1E44
330
1E45
330
1E46
330
1E47
330
1E48
330
1E49
330
1E4A
330
1E4B
330
1E4C
330
1E4D
330
1E4E
330
1E4F
330
1E50
330
1E51
330
1E52
330
1E53
330
1E54
330
1E55
330
1E57
330
1E58
330
1E59
330
1E5C
330
1E5D
330
1E5E
330
1E5F
330
1E60
330
1E61
330
1E62
330
1E63
330
1E64
330
1E65
330
1E66
330
1E67
330
1E68
330
1E69
330
1E6A
330
1E6B
330
1E6C
330
1E6D
330
1E6E
330
1E6F
330
1E70
330
1E71
330
1E72
330
1E73
330
1E74
330
1E75
330
1E76
330
1E77
330
1E78
330
1E79
330
1E7A
330
1E7B
330
1E7C
330
1E7F
330
1E81
330
1E83
330
1E84
330
1E85
330
1E86
330
1E87
330
1E88
330
1E89
330
1E8A
330
1E8B
330
1E8C
330
1E8D
330
1E8E
330
1E8F
330
1E90
330
1E91
330
1E92
330
1E93
330
1E94
330
1E95
330
1E96
330
1E97
330
1E98
330
1E99
330
1E9A
330
1F34
330
1F3B
330
1F42
330
1F49
330
1F5A
330
1F5B
330
1FB1
330
1FB2
330
1FB3
330
1FB4
330
1FB5
330
1FEE
330
1FF3
330
206B
330
206C
330
206D
330
206E
330
206F
330
2070
330
2071
330
2072
330
2073
330
2074
330
2075
330
2076
330
2077
330
2078
  0
IDBUFFER
  5
2A60
330
0
100
AcDbIdBuffer
330
1FC8
330
1FC9
330
1FCA
330
1FCB
330
1FCC
330
1FCD
330
1FCE
330
1FCF
330
1FD0
330
1FD1
330
1FD2
330
1FD4
330
1FD5
330
1FD6
330
1FD7
330
1FD8
330
1FD9
330
1FDA
330
1FDB
330
1FDC
330
1FDD
330
1FDE
330
1FDF
330
1FE0
330
1FE2
330
1FE3
330
1FE4
330
1FE5
330
1FE6
330
1FE7
330
1FE8
330
1FE9
330
1FEA
330
1FEB
330
1FEC
330
1FED
330
1FF8
330
1FF9
330
20F0
330
20F4
330
20F8
330
20F9
330
20FA
330
20FB
330
20FD
330
20FE
330
20FF
330
2100
330
16C2
330
1CA7
330
1EBD
330
1EC1
330
1EC5
330
1EC9
330
1EDD
330
1EE1
330
1EE5
330
1EE9
330
1F06
330
1F0A
330
1F0E
330
1F12
330
1F35
330
1F3C
330
1F43
330
1F4A
330
1F5C
330
1F5D
330
1F5E
330
1F60
330
1F61
330
1F62
330
1F6F
330
1F70
330
1F71
330
1F72
330
1F74
330
1F75
330
1F76
330
1F77
330
1FB6
330
1FB8
330
1FB9
330
1FBA
330
1FBB
330
1FBC
330
1FBD
330
1FBE
330
1FBF
330
1FC0
330
1FC1
330
1FC2
330
1FC3
330
1FC4
330
1FC6
330
1FC7
  0
IDBUFFER
  5
2A61
330
0
100
AcDbIdBuffer
330
16C3
330
1EBE
330
1EC2
330
1EC6
330
1ECA
330
1EDE
330
1EE2
330
1EE6
330
1EEA
330
1F07
330
1F0B
330
1F0F
330
1F13
330
20F2
330
20F6
  0
IDBUFFER
  5
2A62
330
0
100
AcDbIdBuffer
330
219C
330
219F
330
21A2
330
21A5
330
21A8
330
21AB
330
21AC
330
21AD
330
21AE
330
21AF
330
2298
330
229B
330
229E
330
22A1
330
22A4
330
22A7
330
22AA
330
22AD
330
22AE
330
22AF
330
22B0
330
22B1
330
22B2
330
22B3
330
22B4
330
22B5
330
16D5
330
16FB
330
1721
330
1747
330
176D
330
17D0
330
17FA
330
215B
330
215E
330
2161
330
2162
330
218D
330
2190
330
2193
330
2196
330
2199
  0
IDBUFFER
  5
2A63
330
0
100
AcDbIdBuffer
  0
IDBUFFER
  5
2A64
330
0
100
AcDbIdBuffer
330
194C
330
194D
330
194E
330
194F
330
1950
330
1951
330
1952
330
1953
330
1954
330
1955
330
1956
330
1957
330
1958
330
1959
330
195A
330
18AA
330
18AB
330
18AC
330
18AD
330
18AE
330
18AF
330
18B0
330
18B1
330
18B2
330
18B3
330
18B4
330
18B5
330
18B6
330
18B7
330
18B8
330
18B9
330
18BA
330
18BB
330
18BC
330
18BD
330
18BE
330
18BF
330
18C0
330
18C1
330
18C2
330
18C3
330
18C4
330
18C5
330
18C6
330
18C7
330
18C8
330
18C9
330
18CA
330
18CB
330
18CC
330
18CD
330
18CE
330
18CF
330
18D0
330
18D1
330
18D2
330
18D3
330
18D4
330
18D5
330
18D6
330
18D7
330
18D8
330
18D9
330
18DA
330
18DB
330
18DC
330
18DD
330
18DE
330
18DF
330
18E0
330
18E1
330
18E2
330
18E3
330
18E4
330
18E5
330
18E6
330
18E7
330
18E8
330
18E9
330
18EA
330
18EB
330
18EC
330
18ED
330
18EE
330
18EF
330
18F0
330
18F1
330
18F2
330
18F4
330
18F5
330
18F6
330
18F7
330
18F8
330
18F9
330
18FA
330
18FB
330
18FF
330
1903
330
1904
330
1908
330
1909
330
190A
330
190B
330
190C
330
190D
330
190E
330
190F
330
1913
330
1917
330
191B
330
191C
330
191D
330
1921
330
1922
330
1923
330
1924
330
1925
330
1926
330
1927
330
1928
330
1929
330
192A
330
192B
330
192C
330
192E
330
192F
330
194B
  0
XRECORD
  5
2A6C
102
{ACAD_REACTORS
330
2A6B
102
}
330
2A6B
100
AcDbXrecord
280
     1
102
SHADEPLOT
 70
     0
102
SHADEPLOTRESLEVEL
 70
     2
102
SHADEPLOTCUSTOMDPI
 70
   300
  0
XRECORD
  5
2A6A
102
{ACAD_REACTORS
330
2A69
102
}
330
2A69
100
AcDbXrecord
280
     1
102
SHADEPLOT
 70
     0
102
SHADEPLOTRESLEVEL
 70
     2
102
SHADEPLOTCUSTOMDPI
 70
   300
  0
XRECORD
  5
2A6E
102
{ACAD_REACTORS
330
2A6D
102
}
330
2A6D
100
AcDbXrecord
280
     1
102
SHADEPLOT
 70
     0
102
SHADEPLOTRESLEVEL
 70
     2
102
SHADEPLOTCUSTOMDPI
 70
   300
  0
ENDSEC
  0
EOF
