  0
SECTION
  2
HEADER
  9
$ACADVER
  1
AC1015
  9
$ACADMAINTVER
 70
    20
  9
$DWGCODEPAGE
  3
ANSI_950
  9
$INSBASE
 10
0.0
 20
0.0
 30
0.0
  9
$EXTMIN
 10
380.8152238395246
 20
739.1438892919416
 30
0.0
  9
$EXTMAX
 10
1305.496147866495
 20
1303.50206296615
 30
453.9000719825535
  9
$LIMMIN
 10
0.0
 20
0.0
  9
$LIMMAX
 10
420.0
 20
297.0
  9
$ORTHOMODE
 70
     1
  9
$REGENMODE
 70
     1
  9
$FILLMODE
 70
     1
  9
$QTEXTMODE
 70
     0
  9
$MIRRTEXT
 70
     1
  9
$LTSCALE
 40
1.0
  9
$ATTMODE
 70
     1
  9
$TEXTSIZE
 40
3.0
  9
$TRACEWID
 40
1.0
  9
$TEXTSTYLE
  7
CHINESET
  9
$CLAYER
  8
0
  9
$CELTYPE
  6
ByLayer
  9
$CECOLOR
 62
   256
  9
$CELTSCALE
 40
1.0
  9
$DISPSILH
 70
     0
  9
$DIMSCALE
 40
1.0
  9
$DIMASZ
 40
3.0
  9
$DIMEXO
 40
1.0
  9
$DIMDLI
 40
12.0
  9
$DIMRND
 40
0.0
  9
$DIMDLE
 40
0.0
  9
$DIMEXE
 40
1.5
  9
$DIMTP
 40
0.1
  9
$DIMTM
 40
0.1
  9
$DIMTXT
 40
3.0
  9
$DIMCEN
 40
0.0
  9
$DIMTSZ
 40
0.0
  9
$DIMTOL
 70
     0
  9
$DIMLIM
 70
     0
  9
$DIMTIH
 70
     0
  9
$DIMTOH
 70
     0
  9
$DIMSE1
 70
     0
  9
$DIMSE2
 70
     0
  9
$DIMTAD
 70
     1
  9
$DIMZIN
 70
     8
  9
$DIMBLK
  1

  9
$DIMASO
 70
     1
  9
$DIMSHO
 70
     1
  9
$DIMPOST
  1

  9
$DIMAPOST
  1
"
  9
$DIMALT
 70
     0
  9
$DIMALTD
 70
     2
  9
$DIMALTF
 40
0.0393701
  9
$DIMLFAC
 40
1.0
  9
$DIMTOFL
 70
     1
  9
$DIMTVP
 40
0.0
  9
$DIMTIX
 70
     0
  9
$DIMSOXD
 70
     0
  9
$DIMSAH
 70
     0
  9
$DIMBLK1
  1

  9
$DIMBLK2
  1

  9
$DIMSTYLE
  2
AM_ISO
  9
$DIMCLRD
 70
   256
  9
$DIMCLRE
 70
   256
  9
$DIMCLRT
 70
   256
  9
$DIMTFAC
 40
0.71
  9
$DIMGAP
 40
1.0
  9
$DIMJUST
 70
     0
  9
$DIMSD1
 70
     0
  9
$DIMSD2
 70
     0
  9
$DIMTOLJ
 70
     2
  9
$DIMTZIN
 70
     8
  9
$DIMALTZ
 70
     0
  9
$DIMALTTZ
 70
     0
  9
$DIMUPT
 70
     0
  9
$DIMDEC
 70
     2
  9
$DIMTDEC
 70
     8
  9
$DIMALTU
 70
     2
  9
$DIMALTTD
 70
     2
  9
$DIMTXSTY
  7
STANDARD
  9
$DIMAUNIT
 70
     0
  9
$DIMADEC
 70
     0
  9
$DIMALTRND
 40
0.0
  9
$DIMAZIN
 70
     2
  9
$DIMDSEP
 70
    46
  9
$DIMATFIT
 70
     3
  9
$DIMFRAC
 70
     0
  9
$DIMLDRBLK
  1

  9
$DIMLUNIT
 70
     2
  9
$DIMLWD
 70
    -1
  9
$DIMLWE
 70
    -1
  9
$DIMTMOVE
 70
     0
  9
$LUNITS
 70
     2
  9
$LUPREC
 70
     2
  9
$SKETCHINC
 40
1.0
  9
$FILLETRAD
 40
2.5
  9
$AUNITS
 70
     0
  9
$AUPREC
 70
     0
  9
$MENU
  1
.
  9
$ELEVATION
 40
0.0
  9
$PELEVATION
 40
0.0
  9
$THICKNESS
 40
0.0
  9
$LIMCHECK
 70
     0
  9
$CHAMFERA
 40
2.5
  9
$CHAMFERB
 40
2.5
  9
$CHAMFERC
 40
20.0
  9
$CHAMFERD
 40
0.0
  9
$SKPOLY
 70
     0
  9
$TDCREATE
 40
2453571.402341933
  9
$TDUCREATE
 40
2453571.069008600
  9
$TDUPDATE
 40
2456212.573909861
  9
$TDUUPDATE
 40
2456212.240576528
  9
$TDINDWG
 40
1.0614975810
  9
$TDUSRTIMER
 40
1.0614975810
  9
$USRTIMER
 70
     1
  9
$ANGBASE
 50
0.0
  9
$ANGDIR
 70
     0
  9
$PDMODE
 70
     0
  9
$PDSIZE
 40
0.0
  9
$PLINEWID
 40
0.0
  9
$SPLFRAME
 70
     0
  9
$SPLINETYPE
 70
     6
  9
$SPLINESEGS
 70
     8
  9
$HANDSEED
  5
68DE
  9
$SURFTAB1
 70
     6
  9
$SURFTAB2
 70
     6
  9
$SURFTYPE
 70
     6
  9
$SURFU
 70
     6
  9
$SURFV
 70
     6
  9
$UCSBASE
  2

  9
$UCSNAME
  2

  9
$UCSORG
 10
0.0
 20
0.0
 30
0.0
  9
$UCSXDIR
 10
1.0
 20
0.0
 30
0.0
  9
$UCSYDIR
 10
0.0
 20
1.0
 30
0.0
  9
$UCSORTHOREF
  2

  9
$UCSORTHOVIEW
 70
     0
  9
$UCSORGTOP
 10
0.0
 20
0.0
 30
0.0
  9
$UCSORGBOTTOM
 10
0.0
 20
0.0
 30
0.0
  9
$UCSORGLEFT
 10
0.0
 20
0.0
 30
0.0
  9
$UCSORGRIGHT
 10
0.0
 20
0.0
 30
0.0
  9
$UCSORGFRONT
 10
0.0
 20
0.0
 30
0.0
  9
$UCSORGBACK
 10
0.0
 20
0.0
 30
0.0
  9
$PUCSBASE
  2

  9
$PUCSNAME
  2

  9
$PUCSORG
 10
0.0
 20
0.0
 30
0.0
  9
$PUCSXDIR
 10
1.0
 20
0.0
 30
0.0
  9
$PUCSYDIR
 10
0.0
 20
1.0
 30
0.0
  9
$PUCSORTHOREF
  2

  9
$PUCSORTHOVIEW
 70
     0
  9
$PUCSORGTOP
 10
0.0
 20
0.0
 30
0.0
  9
$PUCSORGBOTTOM
 10
0.0
 20
0.0
 30
0.0
  9
$PUCSORGLEFT
 10
0.0
 20
0.0
 30
0.0
  9
$PUCSORGRIGHT
 10
0.0
 20
0.0
 30
0.0
  9
$PUCSORGFRONT
 10
0.0
 20
0.0
 30
0.0
  9
$PUCSORGBACK
 10
0.0
 20
0.0
 30
0.0
  9
$USERI1
 70
     0
  9
$USERI2
 70
     0
  9
$USERI3
 70
     0
  9
$USERI4
 70
     0
  9
$USERI5
 70
     0
  9
$USERR1
 40
0.0
  9
$USERR2
 40
0.0
  9
$USERR3
 40
0.0
  9
$USERR4
 40
0.0
  9
$USERR5
 40
0.0
  9
$WORLDVIEW
 70
     1
  9
$SHADEDGE
 70
     3
  9
$SHADEDIF
 70
    70
  9
$TILEMODE
 70
     1
  9
$MAXACTVP
 70
    64
  9
$PINSBASE
 10
0.0
 20
0.0
 30
0.0
  9
$PLIMCHECK
 70
     0
  9
$PEXTMIN
 10
1.000000000000000E+20
 20
1.000000000000000E+20
 30
1.000000000000000E+20
  9
$PEXTMAX
 10
-1.000000000000000E+20
 20
-1.000000000000000E+20
 30
-1.000000000000000E+20
  9
$PLIMMIN
 10
0.0
 20
0.0
  9
$PLIMMAX
 10
420.0
 20
297.0
  9
$UNITMODE
 70
     0
  9
$VISRETAIN
 70
     1
  9
$PLINEGEN
 70
     0
  9
$PSLTSCALE
 70
     1
  9
$TREEDEPTH
 70
  3020
  9
$CMLSTYLE
  2
Standard
  9
$CMLJUST
 70
     0
  9
$CMLSCALE
 40
20.0
  9
$PROXYGRAPHICS
 70
     1
  9
$MEASUREMENT
 70
     1
  9
$CELWEIGHT
370
    -1
  9
$ENDCAPS
280
     0
  9
$JOINSTYLE
280
     0
  9
$LWDISPLAY
290
     0
  9
$INSUNITS
 70
     4
  9
$HYPERLINKBASE
  1

  9
$STYLESHEET
  1
彩色出圖.ctb
  9
$XEDIT
290
     1
  9
$CEPSNTYPE
380
     0
  9
$PSTYLEMODE
290
     1
  9
$FINGERPRINTGUID
  2
{63A85DC4-5EEE-4257-B18A-D16ADFC1EE91}
  9
$VERSIONGUID
  2
{3566C839-28AC-42BE-AABC-6E5D17595808}
  9
$EXTNAMES
290
     1
  9
$PSVPSCALE
 40
0.0
  9
$OLESTARTUP
290
     0
  0
ENDSEC
  0
SECTION
  2
CLASSES
  0
CLASS
  1
ACDBDICTIONARYWDFLT
  2
AcDbDictionaryWithDefault
  3
ObjectDBX Classes
 90
        0
280
     0
281
     0
  0
CLASS
  1
ACDBPLACEHOLDER
  2
AcDbPlaceHolder
  3
ObjectDBX Classes
 90
        0
280
     0
281
     0
  0
CLASS
  1
LAYOUT
  2
AcDbLayout
  3
ObjectDBX Classes
 90
        0
280
     0
281
     0
  0
CLASS
  1
ACME_DOCUMENT
  2
AcMeDbDoc
  3
AcMeServices
 90
        0
280
     0
281
     0
  0
CLASS
  1
AMGSETTINGSOBJ
  2
AmgSettingsObj
  3
"AcadM|Product Description: AutoCAD Mechanical 2000|Company: Autodesk"
 90
        0
280
     0
281
     0
  0
CLASS
  1
ACMESCOPE
  2
AcMeScope
  3
AcMeServices
 90
        0
280
     0
281
     0
  0
CLASS
  1
ACMECOMMANDHISTORY
  2
AcMeCommandHistory
  3
AcMeServices
 90
        0
280
     0
281
     0
  0
CLASS
  1
ACIMSYSVARMAN
  2
AcImSysVarManager
  3
AcMeServices
 90
        0
280
     0
281
     0
  0
CLASS
  1
ACIMREALSYSVAR
  2
AcImRealSysVar
  3
AcMeServices
 90
        0
280
     0
281
     0
  0
CLASS
  1
ACIMINTSYSVAR
  2
AcImIntSysVar
  3
AcMeServices
 90
        0
280
     0
281
     0
  0
CLASS
  1
ACMEDRAWINGMAN
  2
AcMeDrawingMan
  3
AcMeServices
 90
        0
280
     0
281
     0
  0
CLASS
  1
ACMEVIEW
  2
AcMeView
  3
AcMeServices
 90
        0
280
     0
281
     0
  0
CLASS
  1
ACDBENTITYCACHE
  2
AcMeEntityCache
  3
AcMeServices
 90
        0
280
     0
281
     0
  0
CLASS
  1
GSMANAGER
  2
AcMeGSManager
  3
AcMeServices
 90
        0
280
     0
281
     0
  0
CLASS
  1
AMDTINTERNALREACTOR
  2
AmdtInternalReactor
  3
AcMeServices
 90
        0
280
     0
281
     0
  0
CLASS
  1
ACMESTATEMGR
  2
AcMeStateMgr
  3
AcMeServices
 90
        0
280
     0
281
     0
  0
CLASS
  1
ACGREFMASTER
  2
AcGrefMaster
  3
AcAttribServices
 90
        0
280
     0
281
     0
  0
CLASS
  1
ACME_DATABASE
  2
AcMeDbDatabase
  3
AcMeServices
 90
        0
280
     0
281
     0
  0
CLASS
  1
ACRFINSADJUSTERMGR
  2
AcRfInsAdjusterMgr
  3
AcMeServices
 90
        0
280
     0
281
     0
  0
CLASS
  1
ACGREFACADMASTER
  2
AcGrefacadMaster
  3
AcGrefServices
 90
        0
280
     0
281
     0
  0
CLASS
  1
AMIMASTER
  2
AmiMaster
  3
AmiServices
 90
        0
280
     0
281
     0
  0
CLASS
  1
ACMDATADICTIONARY
  2
AcmDataDictionary
  3
"AcmSymBB|Product Description: AutoCAD Mechanical 2004 DX|Company: Autodesk"
 90
        0
280
     0
281
     0
  0
CLASS
  1
ACMDATAENTRYBLOCK
  2
AcmDataEntryBlock
  3
"AcmSymBB|Product Description: AutoCAD Mechanical 2004 DX|Company: Autodesk"
 90
        0
280
     0
281
     0
  0
CLASS
  1
ACIMSTRSYSVAR
  2
AcImStrSysVar
  3
AcMeServices
 90
        0
280
     0
281
     0
  0
CLASS
  1
ACMSTANDARDISO
  2
AcmStandardISO
  3
"Amdt_StdImp|Product Description: AutoCAD Mechanical 2004 DX|Company: Autodesk"
 90
        0
280
     0
281
     0
  0
CLASS
  1
AMGOBJPROPCFG
  2
AmgObjPropCfg
  3
"AmgLay|Product Description: AutoCAD Mechanical 2000|Company: Autodesk"
 90
        1
280
     0
281
     0
  0
CLASS
  1
AMDTEDGESTANDARDISO
  2
AmdtEdgeStdISO
  3
"Amdt_StdImp|Product Description: AutoCAD Mechanical 2004 DX|Company: Autodesk"
 90
    32768
280
     0
281
     0
  0
CLASS
  1
ACMSURFSTANDARDISO
  2
AcmSurfTextStdISO
  3
"Amdt_StdImp|Product Description: AutoCAD Mechanical 2004 DX|Company: Autodesk"
 90
        0
280
     0
281
     0
  0
CLASS
  1
ACMFCFSTANDARDISO
  2
AcmFCFStdISO
  3
"Amdt_StdImp|Product Description: AutoCAD Mechanical 2004 DX|Company: Autodesk"
 90
        0
280
     0
281
     0
  0
CLASS
  1
ACMWELDSTANDARDISO
  2
AcmWeldingStdISO
  3
"Amdt_StdImp|Product Description: AutoCAD Mechanical 2004 DX|Company: Autodesk"
 90
        0
280
     0
281
     0
  0
CLASS
  1
ACMIDSTANDARDISO
  2
AcmIdStdISO
  3
"Amdt_StdImp|Product Description: AutoCAD Mechanical 2004 DX|Company: Autodesk"
 90
        0
280
     0
281
     0
  0
CLASS
  1
ACMDATUMSTANDARDISO
  2
AcmDatumStdISO
  3
"Amdt_StdImp|Product Description: AutoCAD Mechanical 2004 DX|Company: Autodesk"
 90
        0
280
     0
281
     0
  0
CLASS
  1
ACMBOMSTANDARDISO
  2
AcmBOMStdISO
  3
"Amdt_StdImp|Product Description: AutoCAD Mechanical 2004 DX|Company: Autodesk"
 90
        0
280
     0
281
     0
  0
CLASS
  1
ACMDETAILSTANDARDISO
  2
AmdtDetailSymStdISO
  3
"Amdt_StdImp|Product Description: AutoCAD Mechanical 2004 DX|Company: Autodesk"
 90
        0
280
     0
281
     0
  0
CLASS
  1
ACMSECTIONSTANDARDISO
  2
AmdtSectionSymStdISO
  3
"Amdt_StdImp|Product Description: AutoCAD Mechanical 2004 DX|Company: Autodesk"
 90
        0
280
     0
281
     0
  0
CLASS
  1
ACMCENTERLINESTANDARDISO
  2
AmdtCenterLineStdISO
  3
"Amdt_StdImp|Product Description: AutoCAD Mechanical 2004 DX|Company: Autodesk"
 90
        0
280
     0
281
     0
  0
CLASS
  1
ACMNOTESTANDARDISO
  2
AmdtNoteStdISO
  3
"Amdt_StdImp|Product Description: AutoCAD Mechanical 2004 DX|Company: Autodesk"
 90
        0
280
     0
281
     0
  0
CLASS
  1
ACAMGLAYSTD
  2
AcAmgLayStd
  3
"AcAmgLayStd|Product Description: AutoCAD Mechanical 2000|Company: Autodesk"
 90
        0
280
     0
281
     0
  0
CLASS
  1
ACAMGDIMSTD
  2
AcAmgDimStd
  3
"AcAmgDimStd|Product Description: AutoCAD Mechanical 2000|Company: Autodesk"
 90
        0
280
     0
281
     0
  0
CLASS
  1
ACAMGHOLECHARTSTDISO
  2
AcAmgHoleChartStdISO
  3
ACMSYMBB_MODULE_NAME
 90
        0
280
     0
281
     0
  0
CLASS
  1
ACAMGTITLESTD
  2
AcAmgTitleStd
  3
"TITLEAPP"
 90
        0
280
     0
281
     0
  0
CLASS
  1
LAYER_INDEX
  2
AcDbLayerIndex
  3
ObjectDBX Classes
 90
        0
280
     0
281
     0
  0
CLASS
  1
IDBUFFER
  2
AcDbIdBuffer
  3
ObjectDBX Classes
 90
        0
280
     0
281
     0
  0
CLASS
  1
DICTIONARYVAR
  2
AcDbDictionaryVar
  3
ObjectDBX Classes
 90
        0
280
     0
281
     0
  0
CLASS
  1
AM_DRAWING_MGR
  2
AcDmDwgMgr
  3
AcMechDwgViewMgmt
 90
        0
280
     0
281
     0
  0
CLASS
  1
AM_DWG_DOCUMENT
  2
AcDmDwgDocument
  3
AcMechDwgViewMgmt
 90
        0
280
     0
281
     0
  0
CLASS
  1
AM_DWG_SHEET
  2
AcDmSheet
  3
AcMechDwgViewMgmt
 90
        0
280
     0
281
     0
  0
CLASS
  1
AM_VIEWDIMPARMAP
  2
AcDmViewDimParMap
  3
AcMechDwgViewMgmt
 90
        0
280
     0
281
     0
  0
CLASS
  1
AM_DWGMGR_NAME
  2
AcDmDwgMgrName
  3
AcMechDwgViewMgmt
 90
        0
280
     0
281
     0
  0
CLASS
  1
AMDTMENUSTATEMGR
  2
AmdtMenuStateMgr
  3
McadcomServices
 90
        0
280
     0
281
     0
  0
CLASS
  1
AMDTMCOMMENUSTATE
  2
AmdtMcomMenuState
  3
McadcomServices
 90
        0
280
     0
281
     0
  0
CLASS
  1
MAPIAMMOUDLE
  2
MApiAmModule
  3
MApiAmServices
 90
        0
280
     0
281
     0
  0
CLASS
  1
AMDTADMENUSTATE
  2
AmdtAdMenuState
  3
DesignerServices
 90
        0
280
     0
281
     0
  0
CLASS
  1
ADAPPL
  2
AcAdAppl
  3
DesignerServices
 90
        0
280
     0
281
     0
  0
CLASS
  1
DEPMGR
  2
AcAdDepMgr
  3
DesignerServices
 90
        0
280
     0
281
     0
  0
CLASS
  1
PARAMMGR
  2
AcAdParamMgr
  3
DesignerServices
 90
        0
280
     0
281
     0
  0
CLASS
  1
PARAMSCOPE
  2
AcAdParamScope
  3
DesignerServices
 90
        0
280
     0
281
     0
  0
CLASS
  1
NAMEDAPPL
  2
AcAdNamedAppl
  3
DesignerServices
 90
        0
280
     0
281
     0
  0
CLASS
  1
AMDTDMMENUSTATE
  2
AmdtDmMenuState
  3
AcMechDwgViewMgmt
 90
        0
280
     0
281
     0
  0
CLASS
  1
AMDTAMMENUSTATE
  2
AmdtAmMenuState
  3
DesignerAssemblies
 90
        0
280
     0
281
     0
  0
CLASS
  1
ACAMPROJECT
  2
AcAmProject
  3
DesignerAssemblies
 90
        0
280
     0
281
     0
  0
CLASS
  1
ACAMGRCOMPDEF
  2
AcAmGrCompDef
  3
DesignerAssemblies
 90
        0
280
     0
281
     0
  0
CLASS
  1
ACCMCONTEXT
  2
AcCmContext
  3
DesignerAssemblies
 90
        0
280
     0
281
     0
  0
CLASS
  1
ACAMCOMPDEF
  2
AcAmCompDef
  3
DesignerAssemblies
 90
        0
280
     0
281
     0
  0
CLASS
  1
ACAMCOMPDEFMGR
  2
AcAmCompDefMgr
  3
DesignerAssemblies
 90
        0
280
     0
281
     0
  0
CLASS
  1
AMCONTEXTMGR
  2
AcAmContextMgr
  3
DesignerAssemblies
 90
        0
280
     0
281
     0
  0
CLASS
  1
ACAMCONTEXTMODELER
  2
AcAmContextModeler
  3
DesignerAssemblies
 90
        0
280
     0
281
     0
  0
CLASS
  1
ACMTHREADLINESTANDARDISO
  2
AmdtThreadLineStdISO
  3
"Amdt_StdImp|Product Description: AutoCAD Mechanical 2004 DX|Company: Autodesk"
 90
        0
280
     0
281
     0
  0
CLASS
  1
CATALOGSTATE
  2
AcAmCatalogState
  3
DesignerAssemblies
 90
        0
280
     0
281
     0
  0
CLASS
  1
ACAMGRCOMPDEFSET
  2
AcAmGrCompDefSet
  3
DesignerAssemblies
 90
        0
280
     0
281
     0
  0
CLASS
  1
AMDTBROWSERDBTAB
  2
AmdtBrowserDbTab
  3
McadcomServices
 90
        0
280
     0
281
     0
  0
CLASS
  1
CBROWSERAPPOBJECT
  2
CBrowserAppObject
  3
McadcomServices
 90
        0
280
     0
281
     0
  0
CLASS
  1
DM_PLACEHOLDER
  2
AcDmSelsetPlaceholder
  3
AcMechDwgViewMgmt
 90
        0
280
     0
281
     0
  0
CLASS
  1
TABLESTYLE
  2
AcDbTableStyle
  3
ObjectDBX Classes
 90
     2047
280
     0
281
     0
  0
CLASS
  1
VAACXREFPANELOBJECT
  2
VaAcXREFPanelObject
  3
VAAC_ADDIN
 90
    32768
280
     0
281
     0
  0
CLASS
  1
VAACIMAGEINVENTORY
  2
VaAcImageInventory
  3
VAAC_ADDIN
 90
    32768
280
     0
281
     0
  0
CLASS
  1
AMDTNOTETEMPLATEDB
  2
AmdtNoteTemplateDB
  3
AMDT_STDIMP_MODULE_NAME
 90
        0
280
     0
281
     0
  0
CLASS
  1
ACMBOM
  2
AcmBom
  3
"AcmSymBB|Product Description: AutoCAD Mechanical 2004 DX|Company: Autodesk"
 90
    32768
280
     0
281
     0
  0
CLASS
  1
AMDTFORMULAUPDATEDISPATCHER
  2
AmdtFormulaUpdateDispatcher
  3
AcMeServices
 90
    32768
280
     0
281
     0
  0
CLASS
  1
ACMPARTLIST
  2
AcmPartList
  3
"AcmSymBB|Product Description: AutoCAD Mechanical 2004 DX|Company: Autodesk"
 90
    33791
280
     0
281
     1
  0
CLASS
  1
ACAMGFILTERDAT
  2
AcAmgFilterDat
  3
"AcadM|Product Description: AutoCAD Mechanical 2000|Company: Autodesk"
 90
    32768
280
     0
281
     0
  0
CLASS
  1
DIMASSOC
  2
AcDbDimAssoc
  3
"AcDbDimAssoc|Product Desc:     AcDim ARX App For Dimension|Company:          Autodesk, Inc.|WEB Address:      www.autodesk.com"
 90
        0
280
     0
281
     0
  0
CLASS
  1
STDPART2D
  2
AmgStdPart
  3
"AmgStdPart|Product Description: AutoCAD Mechanical 2000|Company: Autodesk"
 90
    33791
280
     0
281
     1
  0
CLASS
  1
ACAMSTDPCOMPDEF
  2
AcAmStdpCompDef
  3
DesignerAssemblies
 90
    32768
280
     0
281
     0
  0
CLASS
  1
ACRFATTGENMGR
  2
AcRfAttGeneralMgr
  3
AcAttribServices
 90
    32768
280
     0
281
     0
  0
CLASS
  1
ACRFOBJATTMGR
  2
AcRfObjAttGroupMgr
  3
AcAttribServices
 90
    32768
280
     0
281
     0
  0
CLASS
  1
ACRFMCADAPIATTHOLDER
  2
AcRfMCADAPIAttHolder
  3
AcAttribServices
 90
    32768
280
     0
281
     0
  0
CLASS
  1
AMDTSYSATTR
  2
AmdtSystemAttribute
  3
AcAttribServices
 90
    32768
280
     0
281
     0
  0
CLASS
  1
ACAMCOMP
  2
AcAmComp
  3
DesignerAssemblies
 90
    32768
280
     0
281
     0
  0
CLASS
  1
AC_AM_STDP_VIEW_DEF
  2
AcAmStdpViewDef
  3
DesignerAssemblies
 90
    32768
280
     0
281
     0
  0
CLASS
  1
AC_AM_MVD_DEP_MGR
  2
AcAmMVDdepMgr
  3
DesignerAssemblies
 90
    32768
280
     0
281
     0
  0
CLASS
  1
AC_AM_MASTER_VIEW_DEF
  2
AcAmMasterViewDef
  3
DesignerAssemblies
 90
    32768
280
     0
281
     0
  0
CLASS
  1
AC_AM_DIRTY_NODES
  2
AcAmDirtyNodes
  3
DesignerAssemblies
 90
    32768
280
     0
281
     0
  0
CLASS
  1
AC_AM_MAPPER_CACHE
  2
AcAmMapperCache
  3
DesignerAssemblies
 90
    32768
280
     0
281
     0
  0
CLASS
  1
ACAMMVDBACKUPOBJECT
  2
AcAmMVDBackupObject
  3
DesignerAssemblies
 90
    32768
280
     0
281
     0
  0
CLASS
  1
AC_AM_COMP_VIEW_INST
  2
AcAmCompView
  3
DesignerAssemblies
 90
    32768
280
     0
281
     0
  0
CLASS
  1
AC_AM_2D_XREF_MGR
  2
AcAmXrefMgr2d
  3
DesignerAssemblies
 90
    32768
280
     0
281
     0
  0
CLASS
  1
SORTENTSTABLE
  2
AcDbSortentsTable
  3
ObjectDBX Classes
 90
        0
280
     0
281
     0
  0
CLASS
  1
ACMSTANDARDANSI
  2
AcmStandardANSI
  3
"Amdt_StdImp|Product Description: AutoCAD Mechanical 2004 DX|Company: Autodesk"
 90
    32768
280
     0
281
     0
  0
CLASS
  1
ACMSURFSTANDARDANSI
  2
AcmSurfTextStdANSI
  3
"Amdt_StdImp|Product Description: AutoCAD Mechanical 2004 DX|Company: Autodesk"
 90
    32768
280
     0
281
     0
  0
CLASS
  1
ACMFCFSTANDARDANSI
  2
AcmFCFStdANSI
  3
"Amdt_StdImp|Product Description: AutoCAD Mechanical 2004 DX|Company: Autodesk"
 90
    32768
280
     0
281
     0
  0
CLASS
  1
ACMWELDSTANDARDANSI
  2
AcmWeldingStdANSI
  3
"Amdt_StdImp|Product Description: AutoCAD Mechanical 2004 DX|Company: Autodesk"
 90
    32768
280
     0
281
     0
  0
CLASS
  1
ACMIDSTANDARDANSI
  2
AcmIdStdANSI
  3
"Amdt_StdImp|Product Description: AutoCAD Mechanical 2004 DX|Company: Autodesk"
 90
    32768
280
     0
281
     0
  0
CLASS
  1
ACMDATUMSTANDARDANSI
  2
AcmDatumStdANSI
  3
"Amdt_StdImp|Product Description: AutoCAD Mechanical 2004 DX|Company: Autodesk"
 90
    32768
280
     0
281
     0
  0
CLASS
  1
ACMBOMSTANDARDANSI
  2
AcmBOMStdANSI
  3
"Amdt_StdImp|Product Description: AutoCAD Mechanical 2004 DX|Company: Autodesk"
 90
    32768
280
     0
281
     0
  0
CLASS
  1
ACMDETAILSTANDARDANSI
  2
AmdtDetailSymStdANSI
  3
"Amdt_StdImp|Product Description: AutoCAD Mechanical 2004 DX|Company: Autodesk"
 90
    32768
280
     0
281
     0
  0
CLASS
  1
ACMSECTIONSTANDARDANSI
  2
AmdtSectionSymStdANSI
  3
"Amdt_StdImp|Product Description: AutoCAD Mechanical 2004 DX|Company: Autodesk"
 90
    32768
280
     0
281
     0
  0
CLASS
  1
ACMCENTERLINESTANDARDANSI
  2
AmdtCenterLineStdANSI
  3
"Amdt_StdImp|Product Description: AutoCAD Mechanical 2004 DX|Company: Autodesk"
 90
    32768
280
     0
281
     0
  0
CLASS
  1
ACMTHREADLINESTANDARDANSI
  2
AmdtThreadLineStdANSI
  3
"Amdt_StdImp|Product Description: AutoCAD Mechanical 2004 DX|Company: Autodesk"
 90
    32768
280
     0
281
     0
  0
CLASS
  1
ACMNOTESTANDARDANSI
  2
AmdtNoteStdANSI
  3
"Amdt_StdImp|Product Description: AutoCAD Mechanical 2004 DX|Company: Autodesk"
 90
    32768
280
     0
281
     0
  0
CLASS
  1
ACAMGHOLECHARTSTDANSI
  2
AcAmgHoleChartStdANSI
  3
ACMSYMBB_MODULE_NAME
 90
    32768
280
     0
281
     0
  0
CLASS
  1
AMDTNOTE
  2
AmdtNote
  3
"AcmSymBB|Product Description: AutoCAD Mechanical 2004 DX|Company: Autodesk"
 90
    33791
280
     0
281
     1
  0
CLASS
  1
ASAPP
  2
AcAsAppObject
  3
AutoSurfServices
 90
        0
280
     0
281
     0
  0
CLASS
  1
IM_STATIC_MAN
  2
AcImStaticVarManager
  3
AcMeServices
 90
        0
280
     0
281
     0
  0
CLASS
  1
ACIMDBLSTATICVAR
  2
AcImDblStaticVar
  3
AcMeServices
 90
        0
280
     0
281
     0
  0
CLASS
  1
ACIMSTRSTATICVAR
  2
AcImStrStaticVar
  3
AcMeServices
 90
        0
280
     0
281
     0
  0
CLASS
  1
ACIMINTSTATICVAR
  2
AcImIntStaticVar
  3
AcMeServices
 90
        0
280
     0
281
     0
  0
CLASS
  1
ACASGREFMASTER
  2
AcAsGrefMaster
  3
AutoSurfResolverServices
 90
        0
280
     0
281
     0
  0
CLASS
  1
ACADGREFMODULE
  2
AcAdGrefModule
  3
AdGrefServices
 90
        0
280
     0
281
     0
  0
CLASS
  1
AMDTMAPISURFMOUDULE
  2
AmdtMApiSurfModule
  3
MApiSurfServices
 90
        0
280
     0
281
     0
  0
CLASS
  1
MAPIADMODULE
  2
MApiAdModule
  3
MApiAdServices
 90
        0
280
     0
281
     0
  0
CLASS
  1
AMDTEDGESTANDARDISO13715
  2
AmdtEdgeStdISO13715
  3
"Amdt_StdImp|Product Description: AutoCAD Mechanical 2004 DX|Company: Autodesk"
 90
        0
280
     0
281
     0
  0
ENDSEC
  0
SECTION
  2
TABLES
  0
TABLE
  2
VPORT
  5
8
330
0
100
AcDbSymbolTable
 70
     3
  0
VPORT
  5
68D5
330
8
100
AcDbSymbolTableRecord
100
AcDbViewportTableRecord
  2
*Active
 70
     0
 10
0.0
 20
0.0
 11
1.0
 21
1.0
 12
26.5657742683602
 22
-120.5861018201106
 13
0.0
 23
0.0
 14
2.5
 24
2.5
 15
10.0
 25
10.0
 16
0.0
 26
0.0
 36
1.0
 17
843.1695246224181
 27
1132.673712709946
 37
0.0
 40
898.2819803883215
 41
1.263157894736841
 42
50.0
 43
0.0
 44
0.0
 50
0.0
 51
0.0
 71
     0
 72
  2000
 73
     1
 74
     0
 75
     0
 76
     0
 77
     0
 78
     0
281
     0
 65
     0
110
0.0
120
0.0
130
0.0
111
1.0
121
0.0
131
0.0
112
0.0
122
1.0
132
0.0
 79
     0
146
0.0
  0
ENDTAB
  0
TABLE
  2
LTYPE
  5
5
330
0
100
AcDbSymbolTable
 70
    18
  0
LTYPE
  5
14
330
5
100
AcDbSymbolTableRecord
100
AcDbLinetypeTableRecord
  2
ByBlock
 70
     0
  3

 72
    65
 73
     0
 40
0.0
  0
LTYPE
  5
15
330
5
100
AcDbSymbolTableRecord
100
AcDbLinetypeTableRecord
  2
ByLayer
 70
     0
  3

 72
    65
 73
     0
 40
0.0
  0
LTYPE
  5
16
330
5
100
AcDbSymbolTableRecord
100
AcDbLinetypeTableRecord
  2
Continuous
 70
     0
  3
Solid line
 72
    65
 73
     0
 40
0.0
  0
LTYPE
  5
64
330
5
100
AcDbSymbolTableRecord
100
AcDbLinetypeTableRecord
  2
AM_ISO02W050
 70
     0
  3
__ __ __ __ __ __ __ __ __ __ __ __ __ __ __
 72
    65
 73
     2
 40
7.5
 49
6.0
 74
     0
 49
-1.5
 74
     0
  0
LTYPE
  5
65
330
5
100
AcDbSymbolTableRecord
100
AcDbLinetypeTableRecord
  2
AM_ISO08W050
 70
     0
  3
____ . ____ . ____ . ____ . ____ . ____ . ____
 72
    65
 73
     4
 40
18.0
 49
12.0
 74
     0
 49
-1.5
 74
     0
 49
3.0
 74
     0
 49
-1.5
 74
     0
  0
LTYPE
  5
66
330
5
100
AcDbSymbolTableRecord
100
AcDbLinetypeTableRecord
  2
AM_ISO09W050
 70
     0
  3
_____ . . _____ . . _____ . . ____ .. ____
 72
    65
 73
     6
 40
22.5
 49
12.0
 74
     0
 49
-1.5
 74
     0
 49
3.0
 74
     0
 49
-1.5
 74
     0
 49
3.0
 74
     0
 49
-1.5
 74
     0
  0
LTYPE
  5
67
330
5
100
AcDbSymbolTableRecord
100
AcDbLinetypeTableRecord
  2
Amconstr
 70
     0
  3
_______________________
 72
    65
 73
     2
 40
9999.0
 49
9999.0
 74
     0
 49
0.0
 74
     0
  0
LTYPE
  5
68
330
5
100
AcDbSymbolTableRecord
100
AcDbLinetypeTableRecord
  2
AM_ISO08W050x2
 70
     0
  3
__ . __ . __ . __ . __ . __
 72
    65
 73
     4
 40
9.0
 49
6.0
 74
     0
 49
-0.75
 74
     0
 49
1.5
 74
     0
 49
-0.75
 74
     0
  0
LTYPE
  5
69
330
5
100
AcDbSymbolTableRecord
100
AcDbLinetypeTableRecord
  2
AM_ISO02W050x2
 70
     0
  3
 _ _ _ _ _ _ _ _ _ _ _ _
 72
    65
 73
     2
 40
3.75
 49
3.0
 74
     0
 49
-0.75
 74
     0
  0
LTYPE
  5
6C
330
5
100
AcDbSymbolTableRecord
100
AcDbLinetypeTableRecord
  2
Amzigzag
 70
     0
  3
/\/-/\/-/\/-/\/-/\/-/\/
 72
    65
 73
     2
 40
11.0001
 49
0.0001
 74
     4
 75
   135
340
6B
 46
0.04
 50
0.0
 44
0.0
 45
0.0
 49
-11.0
 74
     0
  0
LTYPE
  5
7A
330
5
100
AcDbSymbolTableRecord
100
AcDbLinetypeTableRecord
  2
ACISOWELD
 70
     0
  3
_ _ _ _ _
 72
    65
 73
     2
 40
2.0
 49
2.0
 74
     0
 49
-1.0
 74
     0
  0
LTYPE
  5
7B
330
5
100
AcDbSymbolTableRecord
100
AcDbLinetypeTableRecord
  2
ACISOTGB
 70
     0
  3
__ . . __ . .
 72
    65
 73
     6
 40
9.0
 49
4.0
 74
     0
 49
-1.0
 74
     0
 49
1.0
 74
     0
 49
-1.0
 74
     0
 49
1.0
 74
     0
 49
-1.0
 74
     0
  0
LTYPE
  5
7C
330
5
100
AcDbSymbolTableRecord
100
AcDbLinetypeTableRecord
  2
ACISOTGL
 70
     0
  3
_ _ _ _ _
 72
    65
 73
     2
 40
3.0
 49
2.0
 74
     0
 49
-1.0
 74
     0
  0
LTYPE
  5
7E
330
5
100
AcDbSymbolTableRecord
100
AcDbLinetypeTableRecord
  2
CENTER
 70
     0
  3
__ . __
 72
    65
 73
     4
 40
7.0
 49
4.0
 74
     0
 49
-1.0
 74
     0
 49
1.0
 74
     0
 49
-1.0
 74
     0
  0
LTYPE
  5
D8
330
5
100
AcDbSymbolTableRecord
100
AcDbLinetypeTableRecord
  2
HIDDEN
 70
     0
  3
Hidden __ __ __ __ __ __ __ __ __ __ __ __ __ _
 72
    65
 73
     2
 40
9.524999999999998
 49
6.349999999999999
 74
     0
 49
-3.174999999999999
 74
     0
  0
LTYPE
  5
D9
330
5
100
AcDbSymbolTableRecord
100
AcDbLinetypeTableRecord
  2
PHANTOM2
 70
     0
  3
Phantom (.5x) ___ _ _ ___ _ _ ___ _ _ ___ _ _
 72
    65
 73
     6
 40
31.75
 49
15.875
 74
     0
 49
-3.174999999999999
 74
     0
 49
3.174999999999999
 74
     0
 49
-3.174999999999999
 74
     0
 49
3.174999999999999
 74
     0
 49
-3.174999999999999
 74
     0
  0
LTYPE
  5
D48
330
5
100
AcDbSymbolTableRecord
100
AcDbLinetypeTableRecord
  2
ACANSTGB
 70
     0
  3
__ . . __ . .
 72
    65
 73
     6
 40
0.35433070866
 49
0.15748031496
 74
     0
 49
-0.03937007874
 74
     0
 49
0.03937007874
 74
     0
 49
-0.03937007874
 74
     0
 49
0.03937007874
 74
     0
 49
-0.03937007874
 74
     0
  0
LTYPE
  5
D49
330
5
100
AcDbSymbolTableRecord
100
AcDbLinetypeTableRecord
  2
ACANSTGL
 70
     0
  3
_ _ _ _ _
 72
    65
 73
     2
 40
0.11811023622
 49
0.07874015748
 74
     0
 49
-0.03937007874
 74
     0
  0
LTYPE
  5
682D
330
5
100
AcDbSymbolTableRecord
100
AcDbLinetypeTableRecord
  2
ASULTYPE
 70
     0
  3
實線
 72
    65
 73
     2
 40
3.0
 49
2.5
 74
     0
 49
0.5
 74
     0
  0
LTYPE
  5
682E
330
5
100
AcDbSymbolTableRecord
100
AcDbLinetypeTableRecord
  2
ASVLTYPE
 70
     0
  3
__ __ __ __ __ __ __ __ __ __ __ __ __ __ __ __ __ __ __ __ __
 72
    65
 73
     2
 40
0.75
 49
0.5
 74
     0
 49
-0.25
 74
     0
  0
ENDTAB
  0
TABLE
  2
LAYER
  5
2
102
{ACAD_XDICTIONARY
360
3F9
102
}
330
0
100
AcDbSymbolTable
 70
    10
  0
LAYER
  5
10
330
2
100
AcDbSymbolTableRecord
100
AcDbLayerTableRecord
  2
0
 70
     0
 62
     7
  6
Continuous
370
    -3
390
F
  0
LAYER
  5
5AE
330
2
100
AcDbSymbolTableRecord
100
AcDbLayerTableRecord
  2
AM_7
 70
     0
 62
     1
  6
CENTER
370
    25
390
F
  0
LAYER
  5
71B
330
2
100
AcDbSymbolTableRecord
100
AcDbLayerTableRecord
  2
AM_VIS
 70
     0
 62
     7
  6
Continuous
370
    50
390
F
  0
LAYER
  5
71C
330
2
100
AcDbSymbolTableRecord
100
AcDbLayerTableRecord
  2
AM_4
 70
     0
 62
     3
  6
Continuous
370
    25
390
F
  0
LAYER
  5
A8F
330
2
100
AcDbSymbolTableRecord
100
AcDbLayerTableRecord
  2
AM_0
 70
     0
 62
     7
  6
Continuous
370
    50
390
F
  0
LAYER
  5
F80
330
2
100
AcDbSymbolTableRecord
100
AcDbLayerTableRecord
  2
AM_5
 70
     0
 62
     5
  6
Continuous
370
    50
390
F
  0
LAYER
  5
FBA
330
2
100
AcDbSymbolTableRecord
100
AcDbLayerTableRecord
  2
Defpoints
 70
     0
 62
     7
  6
Continuous
290
     0
370
    -3
390
F
  0
LAYER
  5
1818
330
2
100
AcDbSymbolTableRecord
100
AcDbLayerTableRecord
  2
LOGO
 70
     0
 62
     7
  6
Continuous
370
    -3
390
F
  0
LAYER
  5
2380
330
2
100
AcDbSymbolTableRecord
100
AcDbLayerTableRecord
  2
AM_9
 70
     0
 62
   253
  6
Continuous
370
     0
390
F
  0
LAYER
  5
53F2
330
2
100
AcDbSymbolTableRecord
100
AcDbLayerTableRecord
  2
BORDER
 70
     0
 62
     7
  6
Continuous
370
    -3
390
F
  0
ENDTAB
  0
TABLE
  2
STYLE
  5
3
330
0
100
AcDbSymbolTable
 70
    10
  0
STYLE
  5
11
330
3
100
AcDbSymbolTableRecord
100
AcDbTextStyleTableRecord
  2
STANDARD
 70
     0
 40
0.0
 41
1.0
 50
0.0
 71
     0
 42
3.0
  3
ISOCP.SHX
  4
CHINESET.SHX
  0
STYLE
  5
6B
330
3
100
AcDbSymbolTableRecord
100
AcDbTextStyleTableRecord
  2

 70
     1
 40
0.0
 41
1.0
 50
0.0
 71
     0
 42
2.5
  3
ltypeshp.shx
  4

  0
STYLE
  5
6D
330
3
100
AcDbSymbolTableRecord
100
AcDbTextStyleTableRecord
  2
ACISOTS
 70
     0
 40
1.0
 41
1.0
 50
0.0
 71
     0
 42
1.0
  3
isocp.shx
  4
chineset.shx
  0
STYLE
  5
79
330
3
100
AcDbSymbolTableRecord
100
AcDbTextStyleTableRecord
  2
ACISOGDT
 70
     0
 40
0.0
 41
1.0
 50
0.0
 71
     0
 42
2.5
  3
amgdt.shx
  4
chineset.shx
  0
STYLE
  5
60C
330
3
100
AcDbSymbolTableRecord
100
AcDbTextStyleTableRecord
  2
CHINESET
 70
     0
 40
0.0
 41
1.0
 50
0.0
 71
     0
 42
3.0
  3
simplex.shx
  4
CHINESET.SHX
  0
STYLE
  5
71E
330
3
100
AcDbSymbolTableRecord
100
AcDbTextStyleTableRecord
  2
DAYUS
 70
     0
 40
0.0
 41
1.0
 50
0.0
 71
     0
 42
5.0
  3
simplex.shx
  4
dayus.shx
  0
STYLE
  5
D4B
330
3
100
AcDbSymbolTableRecord
100
AcDbTextStyleTableRecord
  2
ACANSTS
 70
     0
 40
1.0
 41
1.0
 50
0.0
 71
     0
 42
3.0
  3
romans.shx
  4
chineset.shx
  0
STYLE
  5
D4C
330
3
100
AcDbSymbolTableRecord
100
AcDbTextStyleTableRecord
  2
ACANSGDT
 70
     0
 40
0.0
 41
1.0
 50
0.0
 71
     0
 42
3.0
  3
amgdtans.shx
  4

  0
STYLE
  5
1934
330
3
100
AcDbSymbolTableRecord
100
AcDbTextStyleTableRecord
  2
ROMANS
 70
     0
 40
0.0
 41
1.0
 50
0.0
 71
     0
 42
3.0
  3
ROMANS.SHX
  4
LMP
  0
STYLE
  5
1935
330
3
100
AcDbSymbolTableRecord
100
AcDbTextStyleTableRecord
  2
ROMANS1
 70
     0
 40
0.0
 41
1.0
 50
0.0
 71
     0
 42
3.0
  3
ROMANS.SHX
  4

  0
ENDTAB
  0
TABLE
  2
VIEW
  5
6
330
0
100
AcDbSymbolTable
 70
     0
  0
ENDTAB
  0
TABLE
  2
UCS
  5
7
330
0
100
AcDbSymbolTable
 70
     0
  0
ENDTAB
  0
TABLE
  2
APPID
  5
9
330
0
100
AcDbSymbolTable
 70
    43
  0
APPID
  5
12
330
9
100
AcDbSymbolTableRecord
100
AcDbRegAppTableRecord
  2
ACAD
 70
     0
  0
APPID
  5
46
330
9
100
AcDbSymbolTableRecord
100
AcDbRegAppTableRecord
  2
MCAD_NO_VIS
 70
     0
  0
APPID
  5
47
330
9
100
AcDbSymbolTableRecord
100
AcDbRegAppTableRecord
  2
ACAD_TEMP_GRAPHIC
 70
     0
  0
APPID
  5
58
330
9
100
AcDbSymbolTableRecord
100
AcDbRegAppTableRecord
  2
ACATTRIBSERVICES
 70
     0
  0
APPID
  5
EE
330
9
100
AcDbSymbolTableRecord
100
AcDbRegAppTableRecord
  2
AD_DRAW
 70
     0
  0
APPID
  5
10C
330
9
100
AcDbSymbolTableRecord
100
AcDbRegAppTableRecord
  2
DESIGNERASSEMBLIES
 70
     0
  0
APPID
  5
111
330
9
100
AcDbSymbolTableRecord
100
AcDbRegAppTableRecord
  2
ACADM_DIM_EDIT
 70
     0
  0
APPID
  5
112
330
9
100
AcDbSymbolTableRecord
100
AcDbRegAppTableRecord
  2
AMDT_DM_ADJ
 70
     0
  0
APPID
  5
22C
330
9
100
AcDbSymbolTableRecord
100
AcDbRegAppTableRecord
  2
ACAD_DSTYLE_DIMTEXT_FILL
 70
     0
  0
APPID
  5
452
330
9
100
AcDbSymbolTableRecord
100
AcDbRegAppTableRecord
  2
GENIUS_GENOENT_13
 70
     0
  0
APPID
  5
453
330
9
100
AcDbSymbolTableRecord
100
AcDbRegAppTableRecord
  2
GENIUS_GENOBJ-N-CRS_13
 70
     0
  0
APPID
  5
454
330
9
100
AcDbSymbolTableRecord
100
AcDbRegAppTableRecord
  2
GENIUS_GENOLIS_13
 70
     0
  0
APPID
  5
455
330
9
100
AcDbSymbolTableRecord
100
AcDbRegAppTableRecord
  2
GENIUS_GENODEF_13
 70
     0
  0
APPID
  5
456
330
9
100
AcDbSymbolTableRecord
100
AcDbRegAppTableRecord
  2
GENIUS_GENOREF_13
 70
     0
  0
APPID
  5
6F3
330
9
100
AcDbSymbolTableRecord
100
AcDbRegAppTableRecord
  2
ACAD_PSEXT
 70
     0
  0
APPID
  5
A96
330
9
100
AcDbSymbolTableRecord
100
AcDbRegAppTableRecord
  2
GEVID1121736584
 70
     0
  0
APPID
  5
A97
330
9
100
AcDbSymbolTableRecord
100
AcDbRegAppTableRecord
  2
GEVDC
 70
     0
  0
APPID
  5
AA0
330
9
100
AcDbSymbolTableRecord
100
AcDbRegAppTableRecord
  2
AMG_2DHIDE
 70
     0
  0
APPID
  5
AA1
330
9
100
AcDbSymbolTableRecord
100
AcDbRegAppTableRecord
  2
AMG_2DSTRUCT_BTR
 70
     0
  0
APPID
  5
AB2
330
9
100
AcDbSymbolTableRecord
100
AcDbRegAppTableRecord
  2
ACADM_2DVIEW_IGN_NOTIFY
 70
     0
  0
APPID
  5
AE5
330
9
100
AcDbSymbolTableRecord
100
AcDbRegAppTableRecord
  2
GENIUS_GENOBJ-N-CEN_13
 70
     0
  0
APPID
  5
AE6
330
9
100
AcDbSymbolTableRecord
100
AcDbRegAppTableRecord
  2
GENIUS_GENCEN_19
 70
     0
  0
APPID
  5
B0C
330
9
100
AcDbSymbolTableRecord
100
AcDbRegAppTableRecord
  2
GEVID1121736585
 70
     0
  0
APPID
  5
B0D
330
9
100
AcDbSymbolTableRecord
100
AcDbRegAppTableRecord
  2
GEVRADREF
 70
     0
  0
APPID
  5
B56
330
9
100
AcDbSymbolTableRecord
100
AcDbRegAppTableRecord
  2
GEVID1121736586
 70
     0
  0
APPID
  5
C77
330
9
100
AcDbSymbolTableRecord
100
AcDbRegAppTableRecord
  2
GEVID1121736587
 70
     0
  0
APPID
  5
CB9
330
9
100
AcDbSymbolTableRecord
100
AcDbRegAppTableRecord
  2
GEVID1121736588
 70
     0
  0
APPID
  5
CC7
330
9
100
AcDbSymbolTableRecord
100
AcDbRegAppTableRecord
  2
GEVID1121736589
 70
     0
  0
APPID
  5
14FB
330
9
100
AcDbSymbolTableRecord
100
AcDbRegAppTableRecord
  2
GENIUS_GENDTOL_13
 70
     0
  0
APPID
  5
181B
330
9
100
AcDbSymbolTableRecord
100
AcDbRegAppTableRecord
  2
GENIUS_GENREC_14
 70
     0
  0
APPID
  5
181C
330
9
100
AcDbSymbolTableRecord
100
AcDbRegAppTableRecord
  2
GENIUS_GENOBJ-N-REC_13
 70
     0
  0
APPID
  5
236E
330
9
100
AcDbSymbolTableRecord
100
AcDbRegAppTableRecord
  2
GEVID1122261127
 70
     0
  0
APPID
  5
2390
330
9
100
AcDbSymbolTableRecord
100
AcDbRegAppTableRecord
  2
GEVID1122261128
 70
     0
  0
APPID
  5
2501
330
9
100
AcDbSymbolTableRecord
100
AcDbRegAppTableRecord
  2
GEVID1122261129
 70
     0
  0
APPID
  5
267F
330
9
100
AcDbSymbolTableRecord
100
AcDbRegAppTableRecord
  2
GEVID1122348643
 70
     0
  0
APPID
  5
4168
330
9
100
AcDbSymbolTableRecord
100
AcDbRegAppTableRecord
  2
GEVID1122348644
 70
     0
  0
APPID
  5
58F0
330
9
100
AcDbSymbolTableRecord
100
AcDbRegAppTableRecord
  2
GEVID1122447621
 70
     0
  0
APPID
  5
5A68
330
9
100
AcDbSymbolTableRecord
100
AcDbRegAppTableRecord
  2
GEVID1122447622
 70
     0
  0
APPID
  5
5B88
330
9
100
AcDbSymbolTableRecord
100
AcDbRegAppTableRecord
  2
GEVID1122447623
 70
     0
  0
APPID
  5
67AE
330
9
100
AcDbSymbolTableRecord
100
AcDbRegAppTableRecord
  2
GENIUS_GENDIM_13
 70
     0
  0
APPID
  5
67AF
330
9
100
AcDbSymbolTableRecord
100
AcDbRegAppTableRecord
  2
GENIUS_GE3DTOL_13
 70
     0
  0
APPID
  5
682F
330
9
100
AcDbSymbolTableRecord
100
AcDbRegAppTableRecord
  2
ASURF_PCURVE_APPNAME
 70
     0
  0
APPID
  5
6834
330
9
100
AcDbSymbolTableRecord
100
AcDbRegAppTableRecord
  2
AMG_3D2D_5.0
 70
     0
  0
ENDTAB
  0
TABLE
  2
DIMSTYLE
  5
A
330
0
100
AcDbSymbolTable
 70
    14
100
AcDbDimStyleTable
 71
     3
340
81
340
8B
340
86
  0
DIMSTYLE
105
81
330
A
100
AcDbSymbolTableRecord
100
AcDbDimStyleTableRecord
  2
AM_ISO
 70
     0
  4
"
 41
3.0
 42
1.0
 43
12.0
 44
1.5
 47
0.1
 48
0.1
 73
     0
 74
     0
 77
     1
 78
     8
 79
     2
140
3.0
141
0.0
143
0.0393701
146
0.71
147
1.0
172
     1
176
   256
177
   256
178
   256
271
     2
272
     2
283
     2
284
     8
340
11
371
    -1
372
    -1
  0
DIMSTYLE
105
82
330
A
100
AcDbSymbolTableRecord
100
AcDbDimStyleTableRecord
  2
AM_ISO$3
 70
     0
  4
"
 41
3.0
 42
1.0
 43
12.0
 44
1.5
 47
0.1
 48
0.1
 73
     0
 77
     1
 78
     8
 79
     2
140
3.0
141
0.0
143
0.0393701
146
0.71
147
1.0
176
   256
177
   256
178
   256
271
     2
272
     2
283
     2
284
     8
288
     1
289
     0
340
11
371
    -1
372
    -1
  0
DIMSTYLE
105
83
330
A
100
AcDbSymbolTableRecord
100
AcDbDimStyleTableRecord
  2
AM_ISO$4
 70
     0
  4
"
 41
3.0
 42
1.0
 43
12.0
 44
1.5
 47
0.1
 48
0.1
 73
     0
 77
     1
 78
     8
 79
     2
140
3.0
141
0.0
143
0.0393701
146
0.71
147
1.0
176
   256
177
   256
178
   256
271
     2
272
     2
283
     2
284
     8
288
     1
289
     0
340
11
371
    -1
372
    -1
  0
DIMSTYLE
105
84
330
A
100
AcDbSymbolTableRecord
100
AcDbDimStyleTableRecord
  2
AM_ISO$6
 70
     0
  4
"
 41
3.0
 42
1.0
 43
12.0
 44
1.5
 47
0.1
 48
0.1
 73
     0
 74
     0
 78
     8
 79
     2
140
3.0
141
0.0
143
0.0393701
146
0.71
147
1.0
172
     1
176
   256
177
   256
178
   256
271
     2
272
     2
283
     2
284
     8
340
11
371
    -1
372
    -1
  0
DIMSTYLE
105
85
330
A
100
AcDbSymbolTableRecord
100
AcDbDimStyleTableRecord
  2
AM_ISO$7
 70
     0
  4
"
 41
3.0
 42
1.0
 43
12.0
 44
1.5
 47
0.1
 48
0.1
 73
     0
 74
     0
 77
     1
 78
     8
 79
     2
140
5.0
141
0.0
143
0.0393701
146
0.71
147
1.0
172
     1
176
   256
177
   256
178
   256
271
     2
272
     2
283
     2
284
     8
340
11
371
    -1
372
    -1
  0
DIMSTYLE
105
86
330
A
100
AcDbSymbolTableRecord
100
AcDbDimStyleTableRecord
  2
AM_ISO$SF
 70
     0
  4
"
 41
2.5
 42
1.0
 43
10.0
 44
1.0
 47
0.1
 48
0.1
 73
     0
 74
     0
 75
     1
 76
     1
 77
     1
 78
     8
 79
     2
140
3.5
141
0.0
143
0.0393701
146
0.71
147
1.5
172
     1
176
   256
177
   256
178
     2
271
     2
272
     3
274
     4
283
     0
284
     8
340
11
371
    -1
372
    -1
  0
DIMSTYLE
105
8B
330
A
100
AcDbSymbolTableRecord
100
AcDbDimStyleTableRecord
  2
AM_ISO$SH
 70
     0
  4
"
 41
2.5
 42
1.0
 43
10.0
 44
1.0
 47
0.1
 48
0.1
 73
     0
 74
     0
 75
     1
 76
     1
 77
     1
 78
     8
 79
     2
140
3.5
141
0.0
143
0.0393701
144
2.0
146
0.71
147
1.5
172
     1
173
     1
176
   256
177
   256
178
     2
271
     2
272
     3
274
     4
283
     0
284
     8
340
11
343
87
371
    -1
372
    -1
  0
DIMSTYLE
105
40B
102
{ACAD_REACTORS
330
5CA0
330
5CA1
330
5CA3
330
5D3B
330
5D3C
330
5D3E
330
5D3F
330
5D40
330
5D41
330
5D42
330
5D43
330
5F83
330
5F84
330
5F85
330
5F86
330
5F87
330
5F88
330
5F89
330
6211
330
6212
330
6213
330
6214
330
6215
330
62D0
330
62F4
102
}
330
A
100
AcDbSymbolTableRecord
100
AcDbDimStyleTableRecord
  2
AM_ISO$0
 70
     0
  4
"
 41
3.0
 42
1.0
 43
12.0
 44
1.5
 47
0.1
 48
0.1
 73
     0
 74
     0
 77
     1
 78
     8
 79
     2
140
3.0
141
0.0
143
0.0393701
146
0.71
147
1.0
172
     1
176
   256
177
   256
178
   256
271
     2
272
     2
283
     2
284
     8
340
11
371
    -1
372
    -1
  0
DIMSTYLE
105
721
330
A
100
AcDbSymbolTableRecord
100
AcDbDimStyleTableRecord
  2
AM_ANSI
 70
     0
  4
mm
 41
3.0
 42
1.5
 43
8.0
 44
2.0
 47
0.1
 48
0.1
 73
     0
 74
     0
 77
     3
 78
     9
 79
     2
140
3.0
141
0.0
146
0.6
147
0.8
172
     1
176
   256
177
   256
178
   256
271
     2
272
     2
284
    11
340
71E
371
    -1
372
    -1
  0
DIMSTYLE
105
D4D
330
A
100
AcDbSymbolTableRecord
100
AcDbDimStyleTableRecord
  2
AM_ANSI$3
 70
     0
  4
mm
 41
0.1
 42
0.05
 43
0.5
 44
0.1
 47
0.1
 48
0.1
 78
     7
 79
     2
140
0.12
141
0.0
146
0.71
147
0.06
176
   256
177
   256
178
     2
274
     4
284
     7
288
     1
289
     0
340
11
371
    -1
372
    -1
  0
DIMSTYLE
105
D4E
330
A
100
AcDbSymbolTableRecord
100
AcDbDimStyleTableRecord
  2
AM_ANSI$4
 70
     0
  4
mm
 41
0.1
 42
0.05
 43
0.5
 44
0.1
 47
0.1
 48
0.1
 78
     7
 79
     2
140
0.12
141
0.0
146
0.71
147
0.06
176
   256
177
   256
178
     2
274
     4
284
     7
288
     1
289
     0
340
11
371
    -1
372
    -1
  0
DIMSTYLE
105
D4F
330
A
100
AcDbSymbolTableRecord
100
AcDbDimStyleTableRecord
  2
AM_ANSI$7
 70
     0
  4
mm
 41
0.1
 42
0.05
 43
0.5
 44
0.1
 47
0.1
 48
0.1
 78
     7
 79
     2
140
0.24
141
0.0
146
0.71
147
0.06
176
   256
177
   256
178
     2
274
     4
284
     7
340
11
371
    -1
372
    -1
  0
DIMSTYLE
105
D50
330
A
100
AcDbSymbolTableRecord
100
AcDbDimStyleTableRecord
  2
AM_ANSI$SF
 70
     0
  4
mm
 41
0.1
 42
0.05
 43
0.5
 44
0.1
 47
0.1
 48
0.1
 75
     1
 76
     1
 78
     7
 79
     2
140
0.12
141
0.0
146
0.71
147
0.06
176
   256
177
   256
178
     2
274
     4
284
     7
340
11
371
    -1
372
    -1
  0
DIMSTYLE
105
D51
330
A
100
AcDbSymbolTableRecord
100
AcDbDimStyleTableRecord
  2
AM_ANSI$SH
 70
     0
  4
mm
 41
0.1
 42
0.05
 43
0.5
 44
0.1
 47
0.1
 48
0.1
 75
     1
 76
     1
 78
     7
 79
     2
140
0.12
141
0.0
146
0.71
147
0.06
173
     1
176
   256
177
   256
178
     2
274
     4
284
     7
340
11
343
87
371
    -1
372
    -1
  0
ENDTAB
  0
TABLE
  2
BLOCK_RECORD
  5
1
330
0
100
AcDbSymbolTable
 70
    34
  0
BLOCK_RECORD
  5
1F
102
{ACAD_XDICTIONARY
360
8F
102
}
330
1
100
AcDbSymbolTableRecord
100
AcDbBlockTableRecord
  2
*Model_Space
340
22
  0
BLOCK_RECORD
  5
1B
330
1
100
AcDbSymbolTableRecord
100
AcDbBlockTableRecord
  2
*Paper_Space
340
1E
  0
BLOCK_RECORD
  5
23
330
1
100
AcDbSymbolTableRecord
100
AcDbBlockTableRecord
  2
*Paper_Space0
340
26
  0
BLOCK_RECORD
  5
87
330
1
100
AcDbSymbolTableRecord
100
AcDbBlockTableRecord
  2
GENAXEH
340
0
  0
BLOCK_RECORD
  5
5CA8
330
1
100
AcDbSymbolTableRecord
100
AcDbBlockTableRecord
  2
*D2
340
0
  0
BLOCK_RECORD
  5
5CB4
330
1
100
AcDbSymbolTableRecord
100
AcDbBlockTableRecord
  2
*D3
340
0
  0
BLOCK_RECORD
  5
5CC0
330
1
100
AcDbSymbolTableRecord
100
AcDbBlockTableRecord
  2
*D4
340
0
  0
BLOCK_RECORD
  5
5D61
330
1
100
AcDbSymbolTableRecord
100
AcDbBlockTableRecord
  2
*D5
340
0
  0
BLOCK_RECORD
  5
5D6D
330
1
100
AcDbSymbolTableRecord
100
AcDbBlockTableRecord
  2
*D6
340
0
  0
BLOCK_RECORD
  5
5D87
330
1
100
AcDbSymbolTableRecord
100
AcDbBlockTableRecord
  2
*D7
340
0
  0
BLOCK_RECORD
  5
5D93
330
1
100
AcDbSymbolTableRecord
100
AcDbBlockTableRecord
  2
*D8
340
0
  0
BLOCK_RECORD
  5
5D9F
330
1
100
AcDbSymbolTableRecord
100
AcDbBlockTableRecord
  2
*D9
340
0
  0
BLOCK_RECORD
  5
5DAD
330
1
100
AcDbSymbolTableRecord
100
AcDbBlockTableRecord
  2
*D10
340
0
  0
BLOCK_RECORD
  5
5DB9
330
1
100
AcDbSymbolTableRecord
100
AcDbBlockTableRecord
  2
*D11
340
0
  0
BLOCK_RECORD
  5
5DC5
330
1
100
AcDbSymbolTableRecord
100
AcDbBlockTableRecord
  2
*D12
340
0
  0
BLOCK_RECORD
  5
5F8C
330
1
100
AcDbSymbolTableRecord
100
AcDbBlockTableRecord
  2
*D13
340
0
  0
BLOCK_RECORD
  5
5F98
330
1
100
AcDbSymbolTableRecord
100
AcDbBlockTableRecord
  2
*D14
340
0
  0
BLOCK_RECORD
  5
5FA4
330
1
100
AcDbSymbolTableRecord
100
AcDbBlockTableRecord
  2
*D15
340
0
  0
BLOCK_RECORD
  5
5FB0
330
1
100
AcDbSymbolTableRecord
100
AcDbBlockTableRecord
  2
*D16
340
0
  0
BLOCK_RECORD
  5
5FBC
330
1
100
AcDbSymbolTableRecord
100
AcDbBlockTableRecord
  2
*D17
340
0
  0
BLOCK_RECORD
  5
5FC8
330
1
100
AcDbSymbolTableRecord
100
AcDbBlockTableRecord
  2
*D18
340
0
  0
BLOCK_RECORD
  5
600A
330
1
100
AcDbSymbolTableRecord
100
AcDbBlockTableRecord
  2
*D19
340
0
  0
BLOCK_RECORD
  5
6216
330
1
100
AcDbSymbolTableRecord
100
AcDbBlockTableRecord
  2
*D20
340
0
  0
BLOCK_RECORD
  5
6222
330
1
100
AcDbSymbolTableRecord
100
AcDbBlockTableRecord
  2
*D21
340
0
  0
BLOCK_RECORD
  5
622E
330
1
100
AcDbSymbolTableRecord
100
AcDbBlockTableRecord
  2
*D22
340
0
  0
BLOCK_RECORD
  5
623A
330
1
100
AcDbSymbolTableRecord
100
AcDbBlockTableRecord
  2
*D23
340
0
  0
BLOCK_RECORD
  5
6246
330
1
100
AcDbSymbolTableRecord
100
AcDbBlockTableRecord
  2
*D24
340
0
  0
BLOCK_RECORD
  5
62D1
330
1
100
AcDbSymbolTableRecord
100
AcDbBlockTableRecord
  2
*D25
340
0
  0
BLOCK_RECORD
  5
62F7
330
1
100
AcDbSymbolTableRecord
100
AcDbBlockTableRecord
  2
*D26
340
0
  0
BLOCK_RECORD
  5
6767
330
1
100
AcDbSymbolTableRecord
100
AcDbBlockTableRecord
  2
*S27
340
0
102
{BLKREFS
331
5CA2
102
}
  0
BLOCK_RECORD
  5
676F
330
1
100
AcDbSymbolTableRecord
100
AcDbBlockTableRecord
  2
*S28
340
0
102
{BLKREFS
331
5CA4
102
}
  0
BLOCK_RECORD
  5
6777
330
1
100
AcDbSymbolTableRecord
100
AcDbBlockTableRecord
  2
*S29
340
0
102
{BLKREFS
331
5D48
102
}
  0
BLOCK_RECORD
  5
677F
330
1
100
AcDbSymbolTableRecord
100
AcDbBlockTableRecord
  2
*S30
340
0
102
{BLKREFS
331
60ED
102
}
  0
BLOCK_RECORD
  5
6787
330
1
100
AcDbSymbolTableRecord
100
AcDbBlockTableRecord
  2
*S31
340
0
102
{BLKREFS
331
60F0
102
}
  0
BLOCK_RECORD
  5
678F
330
1
100
AcDbSymbolTableRecord
100
AcDbBlockTableRecord
  2
*S32
340
0
102
{BLKREFS
331
60F3
102
}
  0
ENDTAB
  0
ENDSEC
  0
SECTION
  2
BLOCKS
  0
BLOCK
  5
20
330
1F
100
AcDbEntity
  8
0
100
AcDbBlockBegin
  2
*Model_Space
 70
     0
 10
0.0
 20
0.0
 30
0.0
  3
*Model_Space
  1

  0
ENDBLK
  5
21
330
1F
100
AcDbEntity
  8
0
100
AcDbBlockEnd
  0
BLOCK
  5
1C
330
1B
100
AcDbEntity
 67
     1
  8
0
100
AcDbBlockBegin
  2
*Paper_Space
 70
     0
 10
0.0
 20
0.0
 30
0.0
  3
*Paper_Space
  1

  0
ENDBLK
  5
1D
330
1B
100
AcDbEntity
 67
     1
  8
0
100
AcDbBlockEnd
  0
BLOCK
  5
24
330
23
100
AcDbEntity
  8
0
100
AcDbBlockBegin
  2
*Paper_Space0
 70
     0
 10
0.0
 20
0.0
 30
0.0
  3
*Paper_Space0
  1

  0
ENDBLK
  5
25
330
23
100
AcDbEntity
  8
0
100
AcDbBlockEnd
  0
BLOCK
  5
89
330
87
100
AcDbEntity
  8
0
100
AcDbBlockBegin
  2
GENAXEH
 70
     0
 10
0.0
 20
0.0
 30
0.0
  3
GENAXEH
  1

  0
LINE
  5
88
330
87
100
AcDbEntity
  8
0
100
AcDbLine
 10
-1.0
 20
0.0
 30
0.0
 11
1.0
 21
0.0
 31
0.0
  0
ENDBLK
  5
8A
330
87
100
AcDbEntity
  8
0
100
AcDbBlockEnd
  0
BLOCK
  5
5CB2
330
5CA8
100
AcDbEntity
  8
0
100
AcDbBlockBegin
  2
*D2
 70
     1
 10
0.0
 20
0.0
 30
0.0
  3
*D2
  1

  0
LINE
  5
6701
330
5CA8
100
AcDbEntity
  8
AM_5
100
AcDbLine
 10
676.0049850119782
 20
1165.796197934012
 30
0.0
 11
676.0049850119782
 21
1135.296197934012
 31
0.0
  0
LINE
  5
6702
330
5CA8
100
AcDbEntity
  8
AM_5
100
AcDbLine
 10
722.5049850119782
 20
1165.796197934012
 30
0.0
 11
722.5049850119782
 21
1135.296197934012
 31
0.0
  0
LINE
  5
6703
330
5CA8
100
AcDbEntity
  8
AM_5
100
AcDbLine
 10
680.5049850119782
 20
1137.546197934012
 30
0.0
 11
718.0049850119782
 21
1137.546197934012
 31
0.0
  0
SOLID
  5
6704
330
5CA8
100
AcDbEntity
  8
AM_5
100
AcDbTrace
 10
680.5049850119782
 20
1138.296197934012
 30
0.0
 11
680.5049850119782
 21
1136.796197934012
 31
0.0
 12
676.0049850119782
 22
1137.546197934012
 32
0.0
 13
676.0049850119782
 23
1137.546197934012
 33
0.0
  0
SOLID
  5
6705
330
5CA8
100
AcDbEntity
  8
AM_5
100
AcDbTrace
 10
718.0049850119782
 20
1138.296197934012
 30
0.0
 11
718.0049850119782
 21
1136.796197934012
 31
0.0
 12
722.5049850119782
 22
1137.546197934012
 32
0.0
 13
722.5049850119782
 23
1137.546197934012
 33
0.0
  0
MTEXT
  5
6706
330
5CA8
100
AcDbEntity
  8
AM_5
100
AcDbMText
 10
699.2549850119782
 20
1141.296197934012
 30
0.0
 40
4.5
 41
0.0
 71
     5
 72
     1
  1
\A2;46.5
 73
     1
 44
1.0
1001
ACAD
1000
MTEXTBEGIN
1070
    73
1070
     1
1070
    44
1040
1.0
1070
    74
1070
     0
1000
MTEXTEND
  0
POINT
  5
6707
330
5CA8
100
AcDbEntity
  8
Defpoints
 62
     0
100
AcDbPoint
 10
676.0049850119782
 20
1167.296197934012
 30
0.0
  0
POINT
  5
6708
330
5CA8
100
AcDbEntity
  8
Defpoints
 62
     0
100
AcDbPoint
 10
722.5049850119782
 20
1167.296197934012
 30
0.0
  0
POINT
  5
6709
330
5CA8
100
AcDbEntity
  8
Defpoints
 62
     0
100
AcDbPoint
 10
722.5049850119782
 20
1137.546197934012
 30
0.0
  0
ENDBLK
  5
5CB3
330
5CA8
100
AcDbEntity
  8
0
100
AcDbBlockEnd
  0
BLOCK
  5
5CBE
330
5CB4
100
AcDbEntity
  8
0
100
AcDbBlockBegin
  2
*D3
 70
     1
 10
0.0
 20
0.0
 30
0.0
  3
*D3
  1

  0
LINE
  5
66F8
330
5CB4
100
AcDbEntity
  8
AM_5
100
AcDbLine
 10
730.0049850119783
 20
1173.296197934011
 30
0.0
 11
755.9892814282815
 21
1173.296197934011
 31
0.0
  0
LINE
  5
66F9
330
5CB4
100
AcDbEntity
  8
AM_5
100
AcDbLine
 10
730.0049850119783
 20
1219.796197934012
 30
0.0
 11
755.9892814282815
 21
1219.796197934012
 31
0.0
  0
LINE
  5
66FA
330
5CB4
100
AcDbEntity
  8
AM_5
100
AcDbLine
 10
753.7392814282815
 20
1177.796197934012
 30
0.0
 11
753.7392814282815
 21
1215.296197934012
 31
0.0
  0
SOLID
  5
66FB
330
5CB4
100
AcDbEntity
  8
AM_5
100
AcDbTrace
 10
752.9892814282815
 20
1177.796197934012
 30
0.0
 11
754.4892814282815
 21
1177.796197934012
 31
0.0
 12
753.7392814282815
 22
1173.296197934011
 32
0.0
 13
753.7392814282815
 23
1173.296197934011
 33
0.0
  0
SOLID
  5
66FC
330
5CB4
100
AcDbEntity
  8
AM_5
100
AcDbTrace
 10
752.9892814282815
 20
1215.296197934012
 30
0.0
 11
754.4892814282815
 21
1215.296197934012
 31
0.0
 12
753.7392814282815
 22
1219.796197934012
 32
0.0
 13
753.7392814282815
 23
1219.796197934012
 33
0.0
  0
MTEXT
  5
66FD
330
5CB4
100
AcDbEntity
  8
AM_5
100
AcDbMText
 10
749.9892814282814
 20
1189.38282199743
 30
0.0
 40
4.5
 41
0.0
 71
     5
 72
     1
  1
\A2;46.5
 11
0.0000000000000001
 21
1.0
 31
0.0
 73
     1
 44
1.0
1001
ACAD
1000
MTEXTBEGIN
1070
    73
1070
     1
1070
    44
1040
1.0
1070
    74
1070
     0
1000
MTEXTEND
  0
POINT
  5
66FE
330
5CB4
100
AcDbEntity
  8
Defpoints
 62
     0
100
AcDbPoint
 10
728.5049850119783
 20
1173.296197934011
 30
0.0
  0
POINT
  5
66FF
330
5CB4
100
AcDbEntity
  8
Defpoints
 62
     0
100
AcDbPoint
 10
728.5049850119783
 20
1219.796197934012
 30
0.0
  0
POINT
  5
6700
330
5CB4
100
AcDbEntity
  8
Defpoints
 62
     0
100
AcDbPoint
 10
753.7392814282815
 20
1219.796197934012
 30
0.0
  0
ENDBLK
  5
5CBF
330
5CB4
100
AcDbEntity
  8
0
100
AcDbBlockEnd
  0
BLOCK
  5
5CCA
330
5CC0
100
AcDbEntity
  8
0
100
AcDbBlockBegin
  2
*D4
 70
     1
 10
0.0
 20
0.0
 30
0.0
  3
*D4
  1

  0
LINE
  5
66EF
330
5CC0
100
AcDbEntity
  8
AM_5
100
AcDbLine
 10
688.0049850119783
 20
1166.796197934012
 30
0.0
 11
688.0049850119783
 21
1147.296197934012
 31
0.0
  0
LINE
  5
66F0
330
5CC0
100
AcDbEntity
  8
AM_5
100
AcDbLine
 10
711.0049850119783
 20
1166.796197934012
 30
0.0
 11
711.0049850119783
 21
1147.296197934012
 31
0.0
  0
LINE
  5
66F1
330
5CC0
100
AcDbEntity
  8
AM_5
100
AcDbLine
 10
692.5049850119783
 20
1149.546197934012
 30
0.0
 11
706.5049850119783
 21
1149.546197934012
 31
0.0
  0
SOLID
  5
66F2
330
5CC0
100
AcDbEntity
  8
AM_5
100
AcDbTrace
 10
692.5049850119783
 20
1150.296197934012
 30
0.0
 11
692.5049850119783
 21
1148.796197934012
 31
0.0
 12
688.0049850119783
 22
1149.546197934012
 32
0.0
 13
688.0049850119783
 23
1149.546197934012
 33
0.0
  0
SOLID
  5
66F3
330
5CC0
100
AcDbEntity
  8
AM_5
100
AcDbTrace
 10
706.5049850119783
 20
1150.296197934012
 30
0.0
 11
706.5049850119783
 21
1148.796197934012
 31
0.0
 12
711.0049850119783
 22
1149.546197934012
 32
0.0
 13
711.0049850119783
 23
1149.546197934012
 33
0.0
  0
MTEXT
  5
66F4
330
5CC0
100
AcDbEntity
  8
AM_5
100
AcDbMText
 10
699.5049850119783
 20
1153.296640847397
 30
0.0
 40
4.5
 41
0.0
 71
     5
 72
     1
  1
\A2;23
 73
     1
 44
1.0
1001
ACAD
1000
MTEXTBEGIN
1070
    73
1070
     1
1070
    44
1040
1.0
1070
    74
1070
     0
1000
MTEXTEND
  0
POINT
  5
66F5
330
5CC0
100
AcDbEntity
  8
Defpoints
 62
     0
100
AcDbPoint
 10
688.0049850119783
 20
1168.296197934012
 30
0.0
  0
POINT
  5
66F6
330
5CC0
100
AcDbEntity
  8
Defpoints
 62
     0
100
AcDbPoint
 10
711.0049850119783
 20
1168.296197934012
 30
0.0
  0
POINT
  5
66F7
330
5CC0
100
AcDbEntity
  8
Defpoints
 62
     0
100
AcDbPoint
 10
711.0049850119783
 20
1149.546197934012
 30
0.0
  0
ENDBLK
  5
5CCB
330
5CC0
100
AcDbEntity
  8
0
100
AcDbBlockEnd
  0
BLOCK
  5
5D6B
330
5D61
100
AcDbEntity
  8
0
100
AcDbBlockBegin
  2
*D5
 70
     1
 10
0.0
 20
0.0
 30
0.0
  3
*D5
  1

  0
LINE
  5
66E6
330
5D61
100
AcDbEntity
  8
AM_5
100
AcDbLine
 10
531.5049850119783
 20
947.2093703462073
 30
0.0
 11
531.5049850119783
 21
906.1418189566593
 31
0.0
  0
LINE
  5
66E7
330
5D61
100
AcDbEntity
  8
AM_5
100
AcDbLine
 10
797.5049850119782
 20
940.7093703462074
 30
0.0
 11
797.5049850119782
 21
906.1418189566593
 31
0.0
  0
LINE
  5
66E8
330
5D61
100
AcDbEntity
  8
AM_5
100
AcDbLine
 10
536.0049850119783
 20
908.3918189566594
 30
0.0
 11
793.0049850119782
 21
908.3918189566594
 31
0.0
  0
SOLID
  5
66E9
330
5D61
100
AcDbEntity
  8
AM_5
100
AcDbTrace
 10
536.0049850119783
 20
909.1418189566594
 30
0.0
 11
536.0049850119783
 21
907.6418189566593
 31
0.0
 12
531.5049850119783
 22
908.3918189566594
 32
0.0
 13
531.5049850119783
 23
908.3918189566594
 33
0.0
  0
SOLID
  5
66EA
330
5D61
100
AcDbEntity
  8
AM_5
100
AcDbTrace
 10
793.0049850119782
 20
909.1418189566594
 30
0.0
 11
793.0049850119782
 21
907.6418189566593
 31
0.0
 12
797.5049850119782
 22
908.3918189566594
 32
0.0
 13
797.5049850119782
 23
908.3918189566594
 33
0.0
  0
MTEXT
  5
66EB
330
5D61
100
AcDbEntity
  8
AM_5
100
AcDbMText
 10
664.5049850119782
 20
912.1422618700451
 30
0.0
 40
4.5
 41
0.0
 71
     5
 72
     1
  1
\A2;215+stroke
 73
     1
 44
1.0
1001
ACAD
1000
MTEXTBEGIN
1070
    73
1070
     1
1070
    44
1040
1.0
1070
    74
1070
     0
1000
MTEXTEND
  0
POINT
  5
66EC
330
5D61
100
AcDbEntity
  8
Defpoints
 62
     0
100
AcDbPoint
 10
531.5049850119783
 20
948.7093703462074
 30
0.0
  0
POINT
  5
66ED
330
5D61
100
AcDbEntity
  8
Defpoints
 62
     0
100
AcDbPoint
 10
797.5049850119782
 20
942.2093703462074
 30
0.0
  0
POINT
  5
66EE
330
5D61
100
AcDbEntity
  8
Defpoints
 62
     0
100
AcDbPoint
 10
797.5049850119782
 20
908.3918189566594
 30
0.0
  0
ENDBLK
  5
5D6C
330
5D61
100
AcDbEntity
  8
0
100
AcDbBlockEnd
  0
BLOCK
  5
5D77
330
5D6D
100
AcDbEntity
  8
0
100
AcDbBlockBegin
  2
*D6
 70
     1
 10
0.0
 20
0.0
 30
0.0
  3
*D6
  1

  0
LINE
  5
66DD
330
5D6D
100
AcDbEntity
  8
AM_5
100
AcDbLine
 10
777.5049850119783
 20
940.7093703462074
 30
0.0
 11
777.5049850119783
 21
918.1418189566594
 31
0.0
  0
LINE
  5
66DE
330
5D6D
100
AcDbEntity
  8
AM_5
100
AcDbLine
 10
797.5049850119782
 20
940.7093703462074
 30
0.0
 11
797.5049850119782
 21
918.1418189566594
 31
0.0
  0
LINE
  5
66DF
330
5D6D
100
AcDbEntity
  8
AM_5
100
AcDbLine
 10
782.0049850119783
 20
920.3918189566593
 30
0.0
 11
793.0049850119782
 21
920.3918189566593
 31
0.0
  0
SOLID
  5
66E0
330
5D6D
100
AcDbEntity
  8
AM_5
100
AcDbTrace
 10
782.0049850119783
 20
921.1418189566593
 30
0.0
 11
782.0049850119783
 21
919.6418189566593
 31
0.0
 12
777.5049850119783
 22
920.3918189566593
 32
0.0
 13
777.5049850119783
 23
920.3918189566593
 33
0.0
  0
SOLID
  5
66E1
330
5D6D
100
AcDbEntity
  8
AM_5
100
AcDbTrace
 10
793.0049850119782
 20
921.1418189566593
 30
0.0
 11
793.0049850119782
 21
919.6418189566593
 31
0.0
 12
797.5049850119782
 22
920.3918189566593
 32
0.0
 13
797.5049850119782
 23
920.3918189566593
 33
0.0
  0
MTEXT
  5
66E2
330
5D6D
100
AcDbEntity
  8
AM_5
100
AcDbMText
 10
787.5049850119783
 20
924.1422618700452
 30
0.0
 40
4.5
 41
0.0
 71
     5
 72
     1
  1
\A2;20
 73
     1
 44
1.0
1001
ACAD
1000
MTEXTBEGIN
1070
    73
1070
     1
1070
    44
1040
1.0
1070
    74
1070
     0
1000
MTEXTEND
  0
POINT
  5
66E3
330
5D6D
100
AcDbEntity
  8
Defpoints
 62
     0
100
AcDbPoint
 10
777.5049850119783
 20
942.2093703462074
 30
0.0
  0
POINT
  5
66E4
330
5D6D
100
AcDbEntity
  8
Defpoints
 62
     0
100
AcDbPoint
 10
797.5049850119782
 20
942.2093703462074
 30
0.0
  0
POINT
  5
66E5
330
5D6D
100
AcDbEntity
  8
Defpoints
 62
     0
100
AcDbPoint
 10
797.5049850119782
 20
920.3918189566593
 30
0.0
  0
ENDBLK
  5
5D78
330
5D6D
100
AcDbEntity
  8
0
100
AcDbBlockEnd
  0
BLOCK
  5
5D91
330
5D87
100
AcDbEntity
  8
0
100
AcDbBlockBegin
  2
*D7
 70
     1
 10
0.0
 20
0.0
 30
0.0
  3
*D7
  1

  0
LINE
  5
66D4
330
5D87
100
AcDbEntity
  8
AM_5
100
AcDbLine
 10
622.5049850119782
 20
937.9593703462074
 30
0.0
 11
622.5049850119782
 21
918.1418189566594
 31
0.0
  0
LINE
  5
66D5
330
5D87
100
AcDbEntity
  8
AM_5
100
AcDbLine
 10
703.5049850119783
 20
974.7093703462073
 30
0.0
 11
703.5049850119783
 21
918.1418189566594
 31
0.0
  0
LINE
  5
66D6
330
5D87
100
AcDbEntity
  8
AM_5
100
AcDbLine
 10
627.0049850119782
 20
920.3918189566593
 30
0.0
 11
699.0049850119783
 21
920.3918189566593
 31
0.0
  0
SOLID
  5
66D7
330
5D87
100
AcDbEntity
  8
AM_5
100
AcDbTrace
 10
627.0049850119782
 20
921.1418189566593
 30
0.0
 11
627.0049850119782
 21
919.6418189566593
 31
0.0
 12
622.5049850119782
 22
920.3918189566593
 32
0.0
 13
622.5049850119782
 23
920.3918189566593
 33
0.0
  0
SOLID
  5
66D8
330
5D87
100
AcDbEntity
  8
AM_5
100
AcDbTrace
 10
699.0049850119783
 20
921.1418189566593
 30
0.0
 11
699.0049850119783
 21
919.6418189566593
 31
0.0
 12
703.5049850119783
 22
920.3918189566593
 32
0.0
 13
703.5049850119783
 23
920.3918189566593
 33
0.0
  0
MTEXT
  5
66D9
330
5D87
100
AcDbEntity
  8
AM_5
100
AcDbMText
 10
663.0049850119783
 20
924.1418189566592
 30
0.0
 40
4.5
 41
0.0
 71
     5
 72
     1
  1
\A2;81
 73
     1
 44
1.0
1001
ACAD
1000
MTEXTBEGIN
1070
    73
1070
     1
1070
    44
1040
1.0
1070
    74
1070
     0
1000
MTEXTEND
  0
POINT
  5
66DA
330
5D87
100
AcDbEntity
  8
Defpoints
 62
     0
100
AcDbPoint
 10
622.5049850119782
 20
939.4593703462074
 30
0.0
  0
POINT
  5
66DB
330
5D87
100
AcDbEntity
  8
Defpoints
 62
     0
100
AcDbPoint
 10
703.5049850119783
 20
976.2093703462074
 30
0.0
  0
POINT
  5
66DC
330
5D87
100
AcDbEntity
  8
Defpoints
 62
     0
100
AcDbPoint
 10
703.5049850119783
 20
920.3918189566593
 30
0.0
  0
ENDBLK
  5
5D92
330
5D87
100
AcDbEntity
  8
0
100
AcDbBlockEnd
  0
BLOCK
  5
5D9D
330
5D93
100
AcDbEntity
  8
0
100
AcDbBlockBegin
  2
*D8
 70
     1
 10
0.0
 20
0.0
 30
0.0
  3
*D8
  1

  0
LINE
  5
66CB
330
5D93
100
AcDbEntity
  8
AM_5
100
AcDbLine
 10
703.5049850119783
 20
974.7093703462073
 30
0.0
 11
703.5049850119783
 21
918.1418189566594
 31
0.0
  0
LINE
  5
66CC
330
5D93
100
AcDbEntity
  8
AM_5
100
AcDbLine
 10
722.5049850119782
 20
935.7093703462073
 30
0.0
 11
722.5049850119782
 21
918.1418189566594
 31
0.0
  0
LINE
  5
66CD
330
5D93
100
AcDbEntity
  8
AM_5
100
AcDbLine
 10
708.0049850119783
 20
920.3918189566593
 30
0.0
 11
718.0049850119782
 21
920.3918189566593
 31
0.0
  0
SOLID
  5
66CE
330
5D93
100
AcDbEntity
  8
AM_5
100
AcDbTrace
 10
708.0049850119783
 20
921.1418189566593
 30
0.0
 11
708.0049850119783
 21
919.6418189566593
 31
0.0
 12
703.5049850119783
 22
920.3918189566593
 32
0.0
 13
703.5049850119783
 23
920.3918189566593
 33
0.0
  0
SOLID
  5
66CF
330
5D93
100
AcDbEntity
  8
AM_5
100
AcDbTrace
 10
718.0049850119782
 20
921.1418189566593
 30
0.0
 11
718.0049850119782
 21
919.6418189566593
 31
0.0
 12
722.5049850119782
 22
920.3918189566593
 32
0.0
 13
722.5049850119782
 23
920.3918189566593
 33
0.0
  0
MTEXT
  5
66D0
330
5D93
100
AcDbEntity
  8
AM_5
100
AcDbMText
 10
713.0049850119783
 20
924.1418189566592
 30
0.0
 40
4.5
 41
0.0
 71
     5
 72
     1
  1
\A2;19
 73
     1
 44
1.0
1001
ACAD
1000
MTEXTBEGIN
1070
    73
1070
     1
1070
    44
1040
1.0
1070
    74
1070
     0
1000
MTEXTEND
  0
POINT
  5
66D1
330
5D93
100
AcDbEntity
  8
Defpoints
 62
     0
100
AcDbPoint
 10
703.5049850119783
 20
976.2093703462074
 30
0.0
  0
POINT
  5
66D2
330
5D93
100
AcDbEntity
  8
Defpoints
 62
     0
100
AcDbPoint
 10
722.5049850119782
 20
937.2093703462073
 30
0.0
  0
POINT
  5
66D3
330
5D93
100
AcDbEntity
  8
Defpoints
 62
     0
100
AcDbPoint
 10
722.5049850119782
 20
920.3918189566593
 30
0.0
  0
ENDBLK
  5
5D9E
330
5D93
100
AcDbEntity
  8
0
100
AcDbBlockEnd
  0
BLOCK
  5
5DAB
330
5D9F
100
AcDbEntity
  8
0
100
AcDbBlockBegin
  2
*D9
 70
     1
 10
0.0
 20
0.0
 30
0.0
  3
*D9
  1

  0
LINE
  5
66C0
330
5D9F
100
AcDbEntity
  8
AM_5
100
AcDbLine
 10
703.5049850119783
 20
1044.709370346207
 30
0.0
 11
703.5049850119783
 21
1101.746441140701
 31
0.0
  0
LINE
  5
66C1
330
5D9F
100
AcDbEntity
  8
AM_5
100
AcDbLine
 10
711.0049850119783
 20
1083.661945351258
 30
0.0
 11
711.0049850119783
 21
1101.746441140701
 31
0.0
  0
LINE
  5
66C2
330
5D9F
100
AcDbEntity
  8
AM_5
100
AcDbLine
 10
699.0049850119783
 20
1099.496441140701
 30
0.0
 11
694.5049850119783
 21
1099.496441140701
 31
0.0
  0
LINE
  5
66C3
330
5D9F
100
AcDbEntity
  8
AM_5
100
AcDbLine
 10
715.5049850119783
 20
1099.496441140701
 30
0.0
 11
720.0049850119783
 21
1099.496441140701
 31
0.0
  0
LINE
  5
66C4
330
5D9F
100
AcDbEntity
  8
AM_5
100
AcDbLine
 10
703.5049850119783
 20
1099.496441140701
 30
0.0
 11
711.0049850119783
 21
1099.496441140701
 31
0.0
  0
SOLID
  5
66C5
330
5D9F
100
AcDbEntity
  8
AM_5
100
AcDbTrace
 10
699.0049850119783
 20
1100.246441140701
 30
0.0
 11
699.0049850119783
 21
1098.746441140701
 31
0.0
 12
703.5049850119783
 22
1099.496441140701
 32
0.0
 13
703.5049850119783
 23
1099.496441140701
 33
0.0
  0
SOLID
  5
66C6
330
5D9F
100
AcDbEntity
  8
AM_5
100
AcDbTrace
 10
715.5049850119783
 20
1100.246441140701
 30
0.0
 11
715.5049850119783
 21
1098.746441140701
 31
0.0
 12
711.0049850119783
 22
1099.496441140701
 32
0.0
 13
711.0049850119783
 23
1099.496441140701
 33
0.0
  0
MTEXT
  5
66C7
330
5D9F
100
AcDbEntity
  8
AM_5
100
AcDbMText
 10
707.2549850119782
 20
1103.246441140701
 30
0.0
 40
4.5
 41
0.0
 71
     5
 72
     1
  1
\A2;7.5
 73
     1
 44
1.0
1001
ACAD
1000
MTEXTBEGIN
1070
    73
1070
     1
1070
    44
1040
1.0
1070
    74
1070
     0
1000
MTEXTEND
  0
POINT
  5
66C8
330
5D9F
100
AcDbEntity
  8
Defpoints
 62
     0
100
AcDbPoint
 10
703.5049850119783
 20
1043.209370346207
 30
0.0
  0
POINT
  5
66C9
330
5D9F
100
AcDbEntity
  8
Defpoints
 62
     0
100
AcDbPoint
 10
711.0049850119783
 20
1082.161945351258
 30
0.0
  0
POINT
  5
66CA
330
5D9F
100
AcDbEntity
  8
Defpoints
 62
     0
100
AcDbPoint
 10
711.0049850119783
 20
1099.496441140701
 30
0.0
  0
ENDBLK
  5
5DAC
330
5D9F
100
AcDbEntity
  8
0
100
AcDbBlockEnd
  0
BLOCK
  5
5DB7
330
5DAD
100
AcDbEntity
  8
0
100
AcDbBlockBegin
  2
*D10
 70
     1
 10
0.0
 20
0.0
 30
0.0
  3
*D10
  1

  0
LINE
  5
66B7
330
5DAD
100
AcDbEntity
  8
AM_5
100
AcDbLine
 10
703.5049850119783
 20
1044.709370346207
 30
0.0
 11
703.5049850119783
 21
1113.746441140701
 31
0.0
  0
LINE
  5
66B8
330
5DAD
100
AcDbEntity
  8
AM_5
100
AcDbLine
 10
797.5049850119782
 20
1078.709370346207
 30
0.0
 11
797.5049850119782
 21
1113.746441140701
 31
0.0
  0
LINE
  5
66B9
330
5DAD
100
AcDbEntity
  8
AM_5
100
AcDbLine
 10
708.0049850119783
 20
1111.496441140701
 30
0.0
 11
793.0049850119782
 21
1111.496441140701
 31
0.0
  0
SOLID
  5
66BA
330
5DAD
100
AcDbEntity
  8
AM_5
100
AcDbTrace
 10
708.0049850119783
 20
1112.246441140701
 30
0.0
 11
708.0049850119783
 21
1110.746441140701
 31
0.0
 12
703.5049850119783
 22
1111.496441140701
 32
0.0
 13
703.5049850119783
 23
1111.496441140701
 33
0.0
  0
SOLID
  5
66BB
330
5DAD
100
AcDbEntity
  8
AM_5
100
AcDbTrace
 10
793.0049850119782
 20
1112.246441140701
 30
0.0
 11
793.0049850119782
 21
1110.746441140701
 31
0.0
 12
797.5049850119782
 22
1111.496441140701
 32
0.0
 13
797.5049850119782
 23
1111.496441140701
 33
0.0
  0
MTEXT
  5
66BC
330
5DAD
100
AcDbEntity
  8
AM_5
100
AcDbMText
 10
750.5049850119783
 20
1115.246441140701
 30
0.0
 40
4.5
 41
0.0
 71
     5
 72
     1
  1
\A2;94
 73
     1
 44
1.0
1001
ACAD
1000
MTEXTBEGIN
1070
    73
1070
     1
1070
    44
1040
1.0
1070
    74
1070
     0
1000
MTEXTEND
  0
POINT
  5
66BD
330
5DAD
100
AcDbEntity
  8
Defpoints
 62
     0
100
AcDbPoint
 10
703.5049850119783
 20
1043.209370346207
 30
0.0
  0
POINT
  5
66BE
330
5DAD
100
AcDbEntity
  8
Defpoints
 62
     0
100
AcDbPoint
 10
797.5049850119782
 20
1077.209370346207
 30
0.0
  0
POINT
  5
66BF
330
5DAD
100
AcDbEntity
  8
Defpoints
 62
     0
100
AcDbPoint
 10
797.5049850119782
 20
1111.496441140701
 30
0.0
  0
ENDBLK
  5
5DB8
330
5DAD
100
AcDbEntity
  8
0
100
AcDbBlockEnd
  0
BLOCK
  5
5DC3
330
5DB9
100
AcDbEntity
  8
0
100
AcDbBlockBegin
  2
*D11
 70
     1
 10
0.0
 20
0.0
 30
0.0
  3
*D11
  1

  0
LINE
  5
66AE
330
5DB9
100
AcDbEntity
  8
AM_5
100
AcDbLine
 10
543.5049850119782
 20
1030.409370346207
 30
0.0
 11
543.5049850119782
 21
1113.746441140701
 31
0.0
  0
LINE
  5
66AF
330
5DB9
100
AcDbEntity
  8
AM_5
100
AcDbLine
 10
703.5049850119783
 20
1044.709370346207
 30
0.0
 11
703.5049850119783
 21
1113.746441140701
 31
0.0
  0
LINE
  5
66B0
330
5DB9
100
AcDbEntity
  8
AM_5
100
AcDbLine
 10
548.0049850119782
 20
1111.496441140701
 30
0.0
 11
699.0049850119783
 21
1111.496441140701
 31
0.0
  0
SOLID
  5
66B1
330
5DB9
100
AcDbEntity
  8
AM_5
100
AcDbTrace
 10
548.0049850119782
 20
1112.246441140701
 30
0.0
 11
548.0049850119782
 21
1110.746441140701
 31
0.0
 12
543.5049850119782
 22
1111.496441140701
 32
0.0
 13
543.5049850119782
 23
1111.496441140701
 33
0.0
  0
SOLID
  5
66B2
330
5DB9
100
AcDbEntity
  8
AM_5
100
AcDbTrace
 10
699.0049850119783
 20
1112.246441140701
 30
0.0
 11
699.0049850119783
 21
1110.746441140701
 31
0.0
 12
703.5049850119783
 22
1111.496441140701
 32
0.0
 13
703.5049850119783
 23
1111.496441140701
 33
0.0
  0
MTEXT
  5
66B3
330
5DB9
100
AcDbEntity
  8
AM_5
100
AcDbMText
 10
623.5049850119783
 20
1115.246441140701
 30
0.0
 40
4.5
 41
0.0
 71
     5
 72
     1
  1
\A2;110+stroke
 73
     1
 44
1.0
1001
ACAD
1000
MTEXTBEGIN
1070
    73
1070
     1
1070
    44
1040
1.0
1070
    74
1070
     0
1000
MTEXTEND
  0
POINT
  5
66B4
330
5DB9
100
AcDbEntity
  8
Defpoints
 62
     0
100
AcDbPoint
 10
543.5049850119782
 20
1028.909370346207
 30
0.0
  0
POINT
  5
66B5
330
5DB9
100
AcDbEntity
  8
Defpoints
 62
     0
100
AcDbPoint
 10
703.5049850119783
 20
1043.209370346207
 30
0.0
  0
POINT
  5
66B6
330
5DB9
100
AcDbEntity
  8
Defpoints
 62
     0
100
AcDbPoint
 10
703.5049850119783
 20
1111.496441140701
 30
0.0
  0
ENDBLK
  5
5DC4
330
5DB9
100
AcDbEntity
  8
0
100
AcDbBlockEnd
  0
BLOCK
  5
5DCF
330
5DC5
100
AcDbEntity
  8
0
100
AcDbBlockBegin
  2
*D12
 70
     1
 10
0.0
 20
0.0
 30
0.0
  3
*D12
  1

  0
LINE
  5
66A5
330
5DC5
100
AcDbEntity
  8
AM_5
100
AcDbLine
 10
531.0049850119782
 20
967.7093703462073
 30
0.0
 11
520.2330782281855
 21
967.7093703462073
 31
0.0
  0
LINE
  5
66A6
330
5DC5
100
AcDbEntity
  8
AM_5
100
AcDbLine
 10
531.0049850119782
 20
947.7093703462074
 30
0.0
 11
520.2330782281855
 21
947.7093703462074
 31
0.0
  0
LINE
  5
66A7
330
5DC5
100
AcDbEntity
  8
AM_5
100
AcDbLine
 10
522.4830782281855
 20
963.2093703462073
 30
0.0
 11
522.4830782281855
 21
952.2093703462074
 31
0.0
  0
SOLID
  5
66A8
330
5DC5
100
AcDbEntity
  8
AM_5
100
AcDbTrace
 10
521.7330782281854
 20
963.2093703462073
 30
0.0
 11
523.2330782281855
 21
963.2093703462073
 31
0.0
 12
522.4830782281855
 22
967.7093703462073
 32
0.0
 13
522.4830782281855
 23
967.7093703462073
 33
0.0
  0
SOLID
  5
66A9
330
5DC5
100
AcDbEntity
  8
AM_5
100
AcDbTrace
 10
521.7330782281854
 20
952.2093703462074
 30
0.0
 11
523.2330782281855
 21
952.2093703462074
 31
0.0
 12
522.4830782281855
 22
947.7093703462074
 32
0.0
 13
522.4830782281855
 23
947.7093703462074
 33
0.0
  0
MTEXT
  5
66AA
330
5DC5
100
AcDbEntity
  8
AM_5
100
AcDbMText
 10
518.7326353147994
 20
957.7093703462074
 30
0.0
 40
4.5
 41
0.0
 71
     5
 72
     1
  1
\A2;%%c20
 11
0.0000000000000001
 21
1.0
 31
0.0
 73
     1
 44
1.0
1001
ACAD
1000
MTEXTBEGIN
1070
    73
1070
     1
1070
    44
1040
1.0
1070
    74
1070
     0
1000
MTEXTEND
  0
POINT
  5
66AB
330
5DC5
100
AcDbEntity
  8
Defpoints
 62
     0
100
AcDbPoint
 10
532.5049850119783
 20
967.7093703462073
 30
0.0
  0
POINT
  5
66AC
330
5DC5
100
AcDbEntity
  8
Defpoints
 62
     0
100
AcDbPoint
 10
532.5049850119783
 20
947.7093703462074
 30
0.0
  0
POINT
  5
66AD
330
5DC5
100
AcDbEntity
  8
Defpoints
 62
     0
100
AcDbPoint
 10
522.4830782281855
 20
947.7093703462074
 30
0.0
  0
ENDBLK
  5
5DD0
330
5DC5
100
AcDbEntity
  8
0
100
AcDbBlockEnd
  0
BLOCK
  5
5F96
330
5F8C
100
AcDbEntity
  8
0
100
AcDbBlockBegin
  2
*D13
 70
     1
 10
0.0
 20
0.0
 30
0.0
  3
*D13
  1

  0
LINE
  5
669C
330
5F8C
100
AcDbEntity
  8
AM_5
100
AcDbLine
 10
862.1003567103155
 20
949.2093703462073
 30
0.0
 11
862.1003567103155
 21
924.9593703462073
 31
0.0
  0
LINE
  5
669D
330
5F8C
100
AcDbEntity
  8
AM_5
100
AcDbLine
 10
908.6003567103155
 20
949.2093703462073
 30
0.0
 11
908.6003567103155
 21
924.9593703462073
 31
0.0
  0
LINE
  5
669E
330
5F8C
100
AcDbEntity
  8
AM_5
100
AcDbLine
 10
866.6003567103155
 20
927.2093703462074
 30
0.0
 11
904.1003567103155
 21
927.2093703462074
 31
0.0
  0
SOLID
  5
669F
330
5F8C
100
AcDbEntity
  8
AM_5
100
AcDbTrace
 10
866.6003567103155
 20
927.9593703462074
 30
0.0
 11
866.6003567103155
 21
926.4593703462074
 31
0.0
 12
862.1003567103155
 22
927.2093703462074
 32
0.0
 13
862.1003567103155
 23
927.2093703462074
 33
0.0
  0
SOLID
  5
66A0
330
5F8C
100
AcDbEntity
  8
AM_5
100
AcDbTrace
 10
904.1003567103155
 20
927.9593703462074
 30
0.0
 11
904.1003567103155
 21
926.4593703462074
 31
0.0
 12
908.6003567103155
 22
927.2093703462074
 32
0.0
 13
908.6003567103155
 23
927.2093703462074
 33
0.0
  0
MTEXT
  5
66A1
330
5F8C
100
AcDbEntity
  8
AM_5
100
AcDbMText
 10
885.3503567103157
 20
930.9593703462073
 30
0.0
 40
4.5
 41
0.0
 71
     5
 72
     1
  1
\A2;46.5
 73
     1
 44
1.0
1001
ACAD
1000
MTEXTBEGIN
1070
    73
1070
     1
1070
    44
1040
1.0
1070
    74
1070
     0
1000
MTEXTEND
  0
POINT
  5
66A2
330
5F8C
100
AcDbEntity
  8
Defpoints
 62
     0
100
AcDbPoint
 10
862.1003567103155
 20
950.7093703462073
 30
0.0
  0
POINT
  5
66A3
330
5F8C
100
AcDbEntity
  8
Defpoints
 62
     0
100
AcDbPoint
 10
908.6003567103155
 20
950.7093703462073
 30
0.0
  0
POINT
  5
66A4
330
5F8C
100
AcDbEntity
  8
Defpoints
 62
     0
100
AcDbPoint
 10
908.6003567103155
 20
927.2093703462074
 30
0.0
  0
ENDBLK
  5
5F97
330
5F8C
100
AcDbEntity
  8
0
100
AcDbBlockEnd
  0
BLOCK
  5
5FA2
330
5F98
100
AcDbEntity
  8
0
100
AcDbBlockBegin
  2
*D14
 70
     1
 10
0.0
 20
0.0
 30
0.0
  3
*D14
  1

  0
LINE
  5
6693
330
5F98
100
AcDbEntity
  8
AM_5
100
AcDbLine
 10
852.8503567103154
 20
940.7093703462074
 30
0.0
 11
852.8503567103154
 21
912.9593703462074
 31
0.0
  0
LINE
  5
6694
330
5F98
100
AcDbEntity
  8
AM_5
100
AcDbLine
 10
917.8503567103154
 20
940.7093703462074
 30
0.0
 11
917.8503567103154
 21
912.9593703462074
 31
0.0
  0
LINE
  5
6695
330
5F98
100
AcDbEntity
  8
AM_5
100
AcDbLine
 10
857.3503567103156
 20
915.2093703462073
 30
0.0
 11
913.3503567103154
 21
915.2093703462073
 31
0.0
  0
SOLID
  5
6696
330
5F98
100
AcDbEntity
  8
AM_5
100
AcDbTrace
 10
857.3503567103156
 20
915.9593703462073
 30
0.0
 11
857.3503567103156
 21
914.4593703462074
 31
0.0
 12
852.8503567103154
 22
915.2093703462073
 32
0.0
 13
852.8503567103154
 23
915.2093703462073
 33
0.0
  0
SOLID
  5
6697
330
5F98
100
AcDbEntity
  8
AM_5
100
AcDbTrace
 10
913.3503567103154
 20
915.9593703462073
 30
0.0
 11
913.3503567103154
 21
914.4593703462074
 31
0.0
 12
917.8503567103154
 22
915.2093703462073
 32
0.0
 13
917.8503567103154
 23
915.2093703462073
 33
0.0
  0
MTEXT
  5
6698
330
5F98
100
AcDbEntity
  8
AM_5
100
AcDbMText
 10
885.3503567103155
 20
918.9593703462074
 30
0.0
 40
4.5
 41
0.0
 71
     5
 72
     1
  1
\A2;65
 73
     1
 44
1.0
1001
ACAD
1000
MTEXTBEGIN
1070
    73
1070
     1
1070
    44
1040
1.0
1070
    74
1070
     0
1000
MTEXTEND
  0
POINT
  5
6699
330
5F98
100
AcDbEntity
  8
Defpoints
 62
     0
100
AcDbPoint
 10
852.8503567103154
 20
942.2093703462074
 30
0.0
  0
POINT
  5
669A
330
5F98
100
AcDbEntity
  8
Defpoints
 62
     0
100
AcDbPoint
 10
917.8503567103154
 20
942.2093703462074
 30
0.0
  0
POINT
  5
669B
330
5F98
100
AcDbEntity
  8
Defpoints
 62
     0
100
AcDbPoint
 10
917.8503567103154
 20
915.2093703462073
 30
0.0
  0
ENDBLK
  5
5FA3
330
5F98
100
AcDbEntity
  8
0
100
AcDbBlockEnd
  0
BLOCK
  5
5FAE
330
5FA4
100
AcDbEntity
  8
0
100
AcDbBlockBegin
  2
*D15
 70
     1
 10
0.0
 20
0.0
 30
0.0
  3
*D15
  1

  0
LINE
  5
668A
330
5FA4
100
AcDbEntity
  8
AM_5
100
AcDbLine
 10
850.3503567103155
 20
937.7093703462074
 30
0.0
 11
850.3503567103155
 21
900.9593703462073
 31
0.0
  0
LINE
  5
668B
330
5FA4
100
AcDbEntity
  8
AM_5
100
AcDbLine
 10
920.3503567103155
 20
937.7093703462074
 30
0.0
 11
920.3503567103155
 21
900.9593703462073
 31
0.0
  0
LINE
  5
668C
330
5FA4
100
AcDbEntity
  8
AM_5
100
AcDbLine
 10
854.8503567103155
 20
903.2093703462074
 30
0.0
 11
915.8503567103155
 21
903.2093703462074
 31
0.0
  0
SOLID
  5
668D
330
5FA4
100
AcDbEntity
  8
AM_5
100
AcDbTrace
 10
854.8503567103155
 20
903.9593703462074
 30
0.0
 11
854.8503567103155
 21
902.4593703462073
 31
0.0
 12
850.3503567103155
 22
903.2093703462074
 32
0.0
 13
850.3503567103155
 23
903.2093703462074
 33
0.0
  0
SOLID
  5
668E
330
5FA4
100
AcDbEntity
  8
AM_5
100
AcDbTrace
 10
915.8503567103155
 20
903.9593703462074
 30
0.0
 11
915.8503567103155
 21
902.4593703462073
 31
0.0
 12
920.3503567103155
 22
903.2093703462074
 32
0.0
 13
920.3503567103155
 23
903.2093703462074
 33
0.0
  0
MTEXT
  5
668F
330
5FA4
100
AcDbEntity
  8
AM_5
100
AcDbMText
 10
885.3503567103155
 20
906.9593703462073
 30
0.0
 40
4.5
 41
0.0
 71
     5
 72
     1
  1
\A2;70
 73
     1
 44
1.0
1001
ACAD
1000
MTEXTBEGIN
1070
    73
1070
     1
1070
    44
1040
1.0
1070
    74
1070
     0
1000
MTEXTEND
  0
POINT
  5
6690
330
5FA4
100
AcDbEntity
  8
Defpoints
 62
     0
100
AcDbPoint
 10
850.3503567103155
 20
939.2093703462073
 30
0.0
  0
POINT
  5
6691
330
5FA4
100
AcDbEntity
  8
Defpoints
 62
     0
100
AcDbPoint
 10
920.3503567103155
 20
939.2093703462073
 30
0.0
  0
POINT
  5
6692
330
5FA4
100
AcDbEntity
  8
Defpoints
 62
     0
100
AcDbPoint
 10
920.3503567103155
 20
903.2093703462074
 30
0.0
  0
ENDBLK
  5
5FAF
330
5FA4
100
AcDbEntity
  8
0
100
AcDbBlockEnd
  0
BLOCK
  5
5FBA
330
5FB0
100
AcDbEntity
  8
0
100
AcDbBlockBegin
  2
*D16
 70
     1
 10
0.0
 20
0.0
 30
0.0
  3
*D16
  1

  0
LINE
  5
6681
330
5FB0
100
AcDbEntity
  8
AM_5
100
AcDbLine
 10
916.1003567103154
 20
986.4593703462073
 30
0.0
 11
957.5328196731836
 21
986.4593703462073
 31
0.0
  0
LINE
  5
6682
330
5FB0
100
AcDbEntity
  8
AM_5
100
AcDbLine
 10
916.1003567103154
 20
1032.959370346207
 30
0.0
 11
957.5328196731836
 21
1032.959370346207
 31
0.0
  0
LINE
  5
6683
330
5FB0
100
AcDbEntity
  8
AM_5
100
AcDbLine
 10
955.2828196731836
 20
990.9593703462073
 30
0.0
 11
955.2828196731836
 21
1028.459370346207
 31
0.0
  0
SOLID
  5
6684
330
5FB0
100
AcDbEntity
  8
AM_5
100
AcDbTrace
 10
954.5328196731837
 20
990.9593703462073
 30
0.0
 11
956.0328196731836
 21
990.9593703462073
 31
0.0
 12
955.2828196731836
 22
986.4593703462073
 32
0.0
 13
955.2828196731836
 23
986.4593703462073
 33
0.0
  0
SOLID
  5
6685
330
5FB0
100
AcDbEntity
  8
AM_5
100
AcDbTrace
 10
954.5328196731837
 20
1028.459370346207
 30
0.0
 11
956.0328196731836
 21
1028.459370346207
 31
0.0
 12
955.2828196731836
 22
1032.959370346207
 32
0.0
 13
955.2828196731836
 23
1032.959370346207
 33
0.0
  0
MTEXT
  5
6686
330
5FB0
100
AcDbEntity
  8
AM_5
100
AcDbMText
 10
951.5328196731836
 20
1009.709370346207
 30
0.0
 40
4.5
 41
0.0
 71
     5
 72
     1
  1
\A2;46.5
 11
0.0000000000000001
 21
1.0
 31
0.0
 73
     1
 44
1.0
1001
ACAD
1000
MTEXTBEGIN
1070
    73
1070
     1
1070
    44
1040
1.0
1070
    74
1070
     0
1000
MTEXTEND
  0
POINT
  5
6687
330
5FB0
100
AcDbEntity
  8
Defpoints
 62
     0
100
AcDbPoint
 10
914.6003567103155
 20
986.4593703462073
 30
0.0
  0
POINT
  5
6688
330
5FB0
100
AcDbEntity
  8
Defpoints
 62
     0
100
AcDbPoint
 10
914.6003567103155
 20
1032.959370346207
 30
0.0
  0
POINT
  5
6689
330
5FB0
100
AcDbEntity
  8
Defpoints
 62
     0
100
AcDbPoint
 10
955.2828196731836
 20
1032.959370346207
 30
0.0
  0
ENDBLK
  5
5FBB
330
5FB0
100
AcDbEntity
  8
0
100
AcDbBlockEnd
  0
BLOCK
  5
5FC6
330
5FBC
100
AcDbEntity
  8
0
100
AcDbBlockBegin
  2
*D17
 70
     1
 10
0.0
 20
0.0
 30
0.0
  3
*D17
  1

  0
LINE
  5
6678
330
5FBC
100
AcDbEntity
  8
AM_5
100
AcDbLine
 10
919.1003567103155
 20
959.7093703462073
 30
0.0
 11
969.5328196731836
 21
959.7093703462073
 31
0.0
  0
LINE
  5
6679
330
5FBC
100
AcDbEntity
  8
AM_5
100
AcDbLine
 10
919.1003567103155
 20
1059.709370346207
 30
0.0
 11
969.5328196731836
 21
1059.709370346207
 31
0.0
  0
LINE
  5
667A
330
5FBC
100
AcDbEntity
  8
AM_5
100
AcDbLine
 10
967.2828196731837
 20
964.2093703462073
 30
0.0
 11
967.2828196731837
 21
1055.209370346207
 31
0.0
  0
SOLID
  5
667B
330
5FBC
100
AcDbEntity
  8
AM_5
100
AcDbTrace
 10
966.5328196731836
 20
964.2093703462073
 30
0.0
 11
968.0328196731837
 21
964.2093703462073
 31
0.0
 12
967.2828196731837
 22
959.7093703462073
 32
0.0
 13
967.2828196731837
 23
959.7093703462073
 33
0.0
  0
SOLID
  5
667C
330
5FBC
100
AcDbEntity
  8
AM_5
100
AcDbTrace
 10
966.5328196731836
 20
1055.209370346207
 30
0.0
 11
968.0328196731837
 21
1055.209370346207
 31
0.0
 12
967.2828196731837
 22
1059.709370346207
 32
0.0
 13
967.2828196731837
 23
1059.709370346207
 33
0.0
  0
MTEXT
  5
667D
330
5FBC
100
AcDbEntity
  8
AM_5
100
AcDbMText
 10
963.5328196731835
 20
1009.709370346207
 30
0.0
 40
4.5
 41
0.0
 71
     5
 72
     1
  1
\A2;100
 11
0.0000000000000001
 21
1.0
 31
0.0
 73
     1
 44
1.0
1001
ACAD
1000
MTEXTBEGIN
1070
    73
1070
     1
1070
    44
1040
1.0
1070
    74
1070
     0
1000
MTEXTEND
  0
POINT
  5
667E
330
5FBC
100
AcDbEntity
  8
Defpoints
 62
     0
100
AcDbPoint
 10
917.6003567103155
 20
959.7093703462073
 30
0.0
  0
POINT
  5
667F
330
5FBC
100
AcDbEntity
  8
Defpoints
 62
     0
100
AcDbPoint
 10
917.6003567103155
 20
1059.709370346207
 30
0.0
  0
POINT
  5
6680
330
5FBC
100
AcDbEntity
  8
Defpoints
 62
     0
100
AcDbPoint
 10
967.2828196731837
 20
1059.709370346207
 30
0.0
  0
ENDBLK
  5
5FC7
330
5FBC
100
AcDbEntity
  8
0
100
AcDbBlockEnd
  0
BLOCK
  5
5FD2
330
5FC8
100
AcDbEntity
  8
0
100
AcDbBlockBegin
  2
*D18
 70
     1
 10
0.0
 20
0.0
 30
0.0
  3
*D18
  1

  0
LINE
  5
666F
330
5FC8
100
AcDbEntity
  8
AM_5
100
AcDbLine
 10
921.8503567103155
 20
939.2093703462073
 30
0.0
 11
981.5328196731837
 21
939.2093703462073
 31
0.0
  0
LINE
  5
6670
330
5FC8
100
AcDbEntity
  8
AM_5
100
AcDbLine
 10
921.8503567103155
 20
1080.209370346207
 30
0.0
 11
981.5328196731837
 21
1080.209370346207
 31
0.0
  0
LINE
  5
6671
330
5FC8
100
AcDbEntity
  8
AM_5
100
AcDbLine
 10
979.2828196731836
 20
943.7093703462073
 30
0.0
 11
979.2828196731836
 21
1075.709370346207
 31
0.0
  0
SOLID
  5
6672
330
5FC8
100
AcDbEntity
  8
AM_5
100
AcDbTrace
 10
978.5328196731837
 20
943.7093703462073
 30
0.0
 11
980.0328196731836
 21
943.7093703462073
 31
0.0
 12
979.2828196731836
 22
939.2093703462073
 32
0.0
 13
979.2828196731836
 23
939.2093703462073
 33
0.0
  0
SOLID
  5
6673
330
5FC8
100
AcDbEntity
  8
AM_5
100
AcDbTrace
 10
978.5328196731837
 20
1075.709370346207
 30
0.0
 11
980.0328196731836
 21
1075.709370346207
 31
0.0
 12
979.2828196731836
 22
1080.209370346207
 32
0.0
 13
979.2828196731836
 23
1080.209370346207
 33
0.0
  0
MTEXT
  5
6674
330
5FC8
100
AcDbEntity
  8
AM_5
100
AcDbMText
 10
975.5328196731836
 20
1009.709370346207
 30
0.0
 40
4.5
 41
0.0
 71
     5
 72
     1
  1
\A2;141
 11
0.0000000000000001
 21
1.0
 31
0.0
 73
     1
 44
1.0
1001
ACAD
1000
MTEXTBEGIN
1070
    73
1070
     1
1070
    44
1040
1.0
1070
    74
1070
     0
1000
MTEXTEND
  0
POINT
  5
6675
330
5FC8
100
AcDbEntity
  8
Defpoints
 62
     0
100
AcDbPoint
 10
920.3503567103155
 20
939.2093703462073
 30
0.0
  0
POINT
  5
6676
330
5FC8
100
AcDbEntity
  8
Defpoints
 62
     0
100
AcDbPoint
 10
920.3503567103155
 20
1080.209370346207
 30
0.0
  0
POINT
  5
6677
330
5FC8
100
AcDbEntity
  8
Defpoints
 62
     0
100
AcDbPoint
 10
979.2828196731836
 20
1080.209370346207
 30
0.0
  0
ENDBLK
  5
5FD3
330
5FC8
100
AcDbEntity
  8
0
100
AcDbBlockEnd
  0
BLOCK
  5
6014
330
600A
100
AcDbEntity
  8
0
100
AcDbBlockBegin
  2
*D19
 70
     1
 10
0.0
 20
0.0
 30
0.0
  3
*D19
  1

  0
LINE
  5
6666
330
600A
100
AcDbEntity
  8
AM_5
100
AcDbLine
 10
915.1003567103154
 20
1021.209370346207
 30
0.0
 11
945.5328196731837
 21
1021.209370346207
 31
0.0
  0
LINE
  5
6667
330
600A
100
AcDbEntity
  8
AM_5
100
AcDbLine
 10
915.1003567103154
 20
998.2093703462073
 30
0.0
 11
945.5328196731837
 21
998.2093703462073
 31
0.0
  0
LINE
  5
6668
330
600A
100
AcDbEntity
  8
AM_5
100
AcDbLine
 10
943.2828196731836
 20
1016.709370346207
 30
0.0
 11
943.2828196731836
 21
1002.709370346207
 31
0.0
  0
SOLID
  5
6669
330
600A
100
AcDbEntity
  8
AM_5
100
AcDbTrace
 10
942.5328196731836
 20
1016.709370346207
 30
0.0
 11
944.0328196731837
 21
1016.709370346207
 31
0.0
 12
943.2828196731836
 22
1021.209370346207
 32
0.0
 13
943.2828196731836
 23
1021.209370346207
 33
0.0
  0
SOLID
  5
666A
330
600A
100
AcDbEntity
  8
AM_5
100
AcDbTrace
 10
942.5328196731836
 20
1002.709370346207
 30
0.0
 11
944.0328196731837
 21
1002.709370346207
 31
0.0
 12
943.2828196731836
 22
998.2093703462073
 32
0.0
 13
943.2828196731836
 23
998.2093703462073
 33
0.0
  0
MTEXT
  5
666B
330
600A
100
AcDbEntity
  8
AM_5
100
AcDbMText
 10
939.5323767597977
 20
1009.709370346207
 30
0.0
 40
4.5
 41
0.0
 71
     5
 72
     1
  1
\A2;23
 11
0.0000000000000001
 21
1.0
 31
0.0
 73
     1
 44
1.0
1001
ACAD
1000
MTEXTBEGIN
1070
    73
1070
     1
1070
    44
1040
1.0
1070
    74
1070
     0
1000
MTEXTEND
  0
POINT
  5
666C
330
600A
100
AcDbEntity
  8
Defpoints
 62
     0
100
AcDbPoint
 10
913.6003567103156
 20
1021.209370346207
 30
0.0
  0
POINT
  5
666D
330
600A
100
AcDbEntity
  8
Defpoints
 62
     0
100
AcDbPoint
 10
913.6003567103156
 20
998.2093703462073
 30
0.0
  0
POINT
  5
666E
330
600A
100
AcDbEntity
  8
Defpoints
 62
     0
100
AcDbPoint
 10
943.2828196731836
 20
998.2093703462073
 30
0.0
  0
ENDBLK
  5
6015
330
600A
100
AcDbEntity
  8
0
100
AcDbBlockEnd
  0
BLOCK
  5
6220
330
6216
100
AcDbEntity
  8
0
100
AcDbBlockBegin
  2
*D20
 70
     1
 10
0.0
 20
0.0
 30
0.0
  3
*D20
  1

  0
LINE
  5
665D
330
6216
100
AcDbEntity
  8
AM_5
100
AcDbLine
 10
1144.175164136743
 20
1062.748731463922
 30
0.0
 11
1075.925164136743
 21
1062.748731463922
 31
0.0
  0
LINE
  5
665E
330
6216
100
AcDbEntity
  8
AM_5
100
AcDbLine
 10
1144.175164136743
 20
958.7487314639224
 30
0.0
 11
1075.925164136743
 21
958.7487314639224
 31
0.0
  0
LINE
  5
665F
330
6216
100
AcDbEntity
  8
AM_5
100
AcDbLine
 10
1078.175164136743
 20
1058.248731463922
 30
0.0
 11
1078.175164136743
 21
963.2487314639224
 31
0.0
  0
SOLID
  5
6660
330
6216
100
AcDbEntity
  8
AM_5
100
AcDbTrace
 10
1077.425164136743
 20
1058.248731463922
 30
0.0
 11
1078.925164136743
 21
1058.248731463922
 31
0.0
 12
1078.175164136743
 22
1062.748731463922
 32
0.0
 13
1078.175164136743
 23
1062.748731463922
 33
0.0
  0
SOLID
  5
6661
330
6216
100
AcDbEntity
  8
AM_5
100
AcDbTrace
 10
1077.425164136743
 20
963.2487314639224
 30
0.0
 11
1078.925164136743
 21
963.2487314639224
 31
0.0
 12
1078.175164136743
 22
958.7487314639224
 32
0.0
 13
1078.175164136743
 23
958.7487314639224
 33
0.0
  0
MTEXT
  5
6662
330
6216
100
AcDbEntity
  8
AM_5
100
AcDbMText
 10
1074.425164136743
 20
1010.748731463922
 30
0.0
 40
4.5
 41
0.0
 71
     5
 72
     1
  1
\A2;104
 11
0.0000000000000001
 21
1.0
 31
0.0
 73
     1
 44
1.0
1001
ACAD
1000
MTEXTBEGIN
1070
    73
1070
     1
1070
    44
1040
1.0
1070
    74
1070
     0
1000
MTEXTEND
  0
POINT
  5
6663
330
6216
100
AcDbEntity
  8
Defpoints
 62
     0
100
AcDbPoint
 10
1145.675164136743
 20
1062.748731463922
 30
0.0
  0
POINT
  5
6664
330
6216
100
AcDbEntity
  8
Defpoints
 62
     0
100
AcDbPoint
 10
1145.675164136743
 20
958.7487314639224
 30
0.0
  0
POINT
  5
6665
330
6216
100
AcDbEntity
  8
Defpoints
 62
     0
100
AcDbPoint
 10
1078.175164136743
 20
958.7487314639224
 30
0.0
  0
ENDBLK
  5
6221
330
6216
100
AcDbEntity
  8
0
100
AcDbBlockEnd
  0
BLOCK
  5
622C
330
6222
100
AcDbEntity
  8
0
100
AcDbBlockBegin
  2
*D21
 70
     1
 10
0.0
 20
0.0
 30
0.0
  3
*D21
  1

  0
LINE
  5
6654
330
6222
100
AcDbEntity
  8
AM_5
100
AcDbLine
 10
1090.675164136743
 20
1078.248731463922
 30
0.0
 11
1063.925164136743
 21
1078.248731463922
 31
0.0
  0
LINE
  5
6655
330
6222
100
AcDbEntity
  8
AM_5
100
AcDbLine
 10
1090.675164136743
 20
943.2487314639224
 30
0.0
 11
1063.925164136743
 21
943.2487314639224
 31
0.0
  0
LINE
  5
6656
330
6222
100
AcDbEntity
  8
AM_5
100
AcDbLine
 10
1066.175164136743
 20
1073.748731463922
 30
0.0
 11
1066.175164136743
 21
947.7487314639224
 31
0.0
  0
SOLID
  5
6657
330
6222
100
AcDbEntity
  8
AM_5
100
AcDbTrace
 10
1065.425164136743
 20
1073.748731463922
 30
0.0
 11
1066.925164136743
 21
1073.748731463922
 31
0.0
 12
1066.175164136743
 22
1078.248731463922
 32
0.0
 13
1066.175164136743
 23
1078.248731463922
 33
0.0
  0
SOLID
  5
6658
330
6222
100
AcDbEntity
  8
AM_5
100
AcDbTrace
 10
1065.425164136743
 20
947.7487314639224
 30
0.0
 11
1066.925164136743
 21
947.7487314639224
 31
0.0
 12
1066.175164136743
 22
943.2487314639224
 32
0.0
 13
1066.175164136743
 23
943.2487314639224
 33
0.0
  0
MTEXT
  5
6659
330
6222
100
AcDbEntity
  8
AM_5
100
AcDbMText
 10
1062.425164136743
 20
1010.748731463922
 30
0.0
 40
4.5
 41
0.0
 71
     5
 72
     1
  1
\A2;135
 11
0.0000000000000001
 21
1.0
 31
0.0
 73
     1
 44
1.0
1001
ACAD
1000
MTEXTBEGIN
1070
    73
1070
     1
1070
    44
1040
1.0
1070
    74
1070
     0
1000
MTEXTEND
  0
POINT
  5
665A
330
6222
100
AcDbEntity
  8
Defpoints
 62
     0
100
AcDbPoint
 10
1092.175164136743
 20
1078.248731463922
 30
0.0
  0
POINT
  5
665B
330
6222
100
AcDbEntity
  8
Defpoints
 62
     0
100
AcDbPoint
 10
1092.175164136743
 20
943.2487314639224
 30
0.0
  0
POINT
  5
665C
330
6222
100
AcDbEntity
  8
Defpoints
 62
     0
100
AcDbPoint
 10
1066.175164136743
 20
943.2487314639224
 30
0.0
  0
ENDBLK
  5
622D
330
6222
100
AcDbEntity
  8
0
100
AcDbBlockEnd
  0
BLOCK
  5
6238
330
622E
100
AcDbEntity
  8
0
100
AcDbBlockBegin
  2
*D22
 70
     1
 10
0.0
 20
0.0
 30
0.0
  3
*D22
  1

  0
LINE
  5
664B
330
622E
100
AcDbEntity
  8
AM_5
100
AcDbLine
 10
1090.175164136743
 20
943.7487314639225
 30
0.0
 11
1090.175164136743
 21
916.9987314639222
 31
0.0
  0
LINE
  5
664C
330
622E
100
AcDbEntity
  8
AM_5
100
AcDbLine
 10
1157.675164136743
 20
945.2487314639224
 30
0.0
 11
1157.675164136743
 21
916.9987314639222
 31
0.0
  0
LINE
  5
664D
330
622E
100
AcDbEntity
  8
AM_5
100
AcDbLine
 10
1094.675164136743
 20
919.2487314639222
 30
0.0
 11
1153.175164136743
 21
919.2487314639222
 31
0.0
  0
SOLID
  5
664E
330
622E
100
AcDbEntity
  8
AM_5
100
AcDbTrace
 10
1094.675164136743
 20
919.9987314639223
 30
0.0
 11
1094.675164136743
 21
918.4987314639222
 31
0.0
 12
1090.175164136743
 22
919.2487314639222
 32
0.0
 13
1090.175164136743
 23
919.2487314639222
 33
0.0
  0
SOLID
  5
664F
330
622E
100
AcDbEntity
  8
AM_5
100
AcDbTrace
 10
1153.175164136743
 20
919.9987314639223
 30
0.0
 11
1153.175164136743
 21
918.4987314639222
 31
0.0
 12
1157.675164136743
 22
919.2487314639222
 32
0.0
 13
1157.675164136743
 23
919.2487314639222
 33
0.0
  0
MTEXT
  5
6650
330
622E
100
AcDbEntity
  8
AM_5
100
AcDbMText
 10
1123.925164136743
 20
922.9987314639222
 30
0.0
 40
4.5
 41
0.0
 71
     5
 72
     1
  1
\A2;67.5
 73
     1
 44
1.0
1001
ACAD
1000
MTEXTBEGIN
1070
    73
1070
     1
1070
    44
1040
1.0
1070
    74
1070
     0
1000
MTEXTEND
  0
POINT
  5
6651
330
622E
100
AcDbEntity
  8
Defpoints
 62
     0
100
AcDbPoint
 10
1090.175164136743
 20
945.2487314639224
 30
0.0
  0
POINT
  5
6652
330
622E
100
AcDbEntity
  8
Defpoints
 62
     0
100
AcDbPoint
 10
1157.675164136743
 20
946.7487314639225
 30
0.0
  0
POINT
  5
6653
330
622E
100
AcDbEntity
  8
Defpoints
 62
     0
100
AcDbPoint
 10
1157.675164136743
 20
919.2487314639222
 30
0.0
  0
ENDBLK
  5
6239
330
622E
100
AcDbEntity
  8
0
100
AcDbBlockEnd
  0
BLOCK
  5
6244
330
623A
100
AcDbEntity
  8
0
100
AcDbBlockBegin
  2
*D23
 70
     1
 10
0.0
 20
0.0
 30
0.0
  3
*D23
  1

  0
LINE
  5
6642
330
623A
100
AcDbEntity
  8
AM_5
100
AcDbLine
 10
1090.175164136743
 20
943.7487314639225
 30
0.0
 11
1090.175164136743
 21
904.9987314639222
 31
0.0
  0
LINE
  5
6643
330
623A
100
AcDbEntity
  8
AM_5
100
AcDbLine
 10
1190.175164136743
 20
941.7487314639224
 30
0.0
 11
1190.175164136743
 21
904.9987314639222
 31
0.0
  0
LINE
  5
6644
330
623A
100
AcDbEntity
  8
AM_5
100
AcDbLine
 10
1094.675164136743
 20
907.2487314639221
 30
0.0
 11
1185.675164136743
 21
907.2487314639221
 31
0.0
  0
SOLID
  5
6645
330
623A
100
AcDbEntity
  8
AM_5
100
AcDbTrace
 10
1094.675164136743
 20
907.9987314639222
 30
0.0
 11
1094.675164136743
 21
906.4987314639223
 31
0.0
 12
1090.175164136743
 22
907.2487314639221
 32
0.0
 13
1090.175164136743
 23
907.2487314639221
 33
0.0
  0
SOLID
  5
6646
330
623A
100
AcDbEntity
  8
AM_5
100
AcDbTrace
 10
1185.675164136743
 20
907.9987314639222
 30
0.0
 11
1185.675164136743
 21
906.4987314639223
 31
0.0
 12
1190.175164136743
 22
907.2487314639221
 32
0.0
 13
1190.175164136743
 23
907.2487314639221
 33
0.0
  0
MTEXT
  5
6647
330
623A
100
AcDbEntity
  8
AM_5
100
AcDbMText
 10
1140.175164136743
 20
910.9987314639223
 30
0.0
 40
4.5
 41
0.0
 71
     5
 72
     1
  1
\A2;100
 73
     1
 44
1.0
1001
ACAD
1000
MTEXTBEGIN
1070
    73
1070
     1
1070
    44
1040
1.0
1070
    74
1070
     0
1000
MTEXTEND
  0
POINT
  5
6648
330
623A
100
AcDbEntity
  8
Defpoints
 62
     0
100
AcDbPoint
 10
1090.175164136743
 20
945.2487314639224
 30
0.0
  0
POINT
  5
6649
330
623A
100
AcDbEntity
  8
Defpoints
 62
     0
100
AcDbPoint
 10
1190.175164136743
 20
943.2487314639224
 30
0.0
  0
POINT
  5
664A
330
623A
100
AcDbEntity
  8
Defpoints
 62
     0
100
AcDbPoint
 10
1190.175164136743
 20
907.2487314639221
 30
0.0
  0
ENDBLK
  5
6245
330
623A
100
AcDbEntity
  8
0
100
AcDbBlockEnd
  0
BLOCK
  5
6250
330
6246
100
AcDbEntity
  8
0
100
AcDbBlockBegin
  2
*D24
 70
     1
 10
0.0
 20
0.0
 30
0.0
  3
*D24
  1

  0
LINE
  5
6639
330
6246
100
AcDbEntity
  8
AM_5
100
AcDbLine
 10
1090.175164136743
 20
943.7487314639225
 30
0.0
 11
1090.175164136743
 21
928.9987314639223
 31
0.0
  0
LINE
  5
663A
330
6246
100
AcDbEntity
  8
AM_5
100
AcDbLine
 10
1122.675164136743
 20
983.7487314639224
 30
0.0
 11
1122.675164136743
 21
928.9987314639223
 31
0.0
  0
LINE
  5
663B
330
6246
100
AcDbEntity
  8
AM_5
100
AcDbLine
 10
1094.675164136743
 20
931.2487314639222
 30
0.0
 11
1118.175164136743
 21
931.2487314639222
 31
0.0
  0
SOLID
  5
663C
330
6246
100
AcDbEntity
  8
AM_5
100
AcDbTrace
 10
1094.675164136743
 20
931.9987314639222
 30
0.0
 11
1094.675164136743
 21
930.4987314639221
 31
0.0
 12
1090.175164136743
 22
931.2487314639222
 32
0.0
 13
1090.175164136743
 23
931.2487314639222
 33
0.0
  0
SOLID
  5
663D
330
6246
100
AcDbEntity
  8
AM_5
100
AcDbTrace
 10
1118.175164136743
 20
931.9987314639222
 30
0.0
 11
1118.175164136743
 21
930.4987314639221
 31
0.0
 12
1122.675164136743
 22
931.2487314639222
 32
0.0
 13
1122.675164136743
 23
931.2487314639222
 33
0.0
  0
MTEXT
  5
663E
330
6246
100
AcDbEntity
  8
AM_5
100
AcDbMText
 10
1106.425164136743
 20
934.9991743773081
 30
0.0
 40
4.5
 41
0.0
 71
     5
 72
     1
  1
\A2;32.5
 73
     1
 44
1.0
1001
ACAD
1000
MTEXTBEGIN
1070
    73
1070
     1
1070
    44
1040
1.0
1070
    74
1070
     0
1000
MTEXTEND
  0
POINT
  5
663F
330
6246
100
AcDbEntity
  8
Defpoints
 62
     0
100
AcDbPoint
 10
1090.175164136743
 20
945.2487314639224
 30
0.0
  0
POINT
  5
6640
330
6246
100
AcDbEntity
  8
Defpoints
 62
     0
100
AcDbPoint
 10
1122.675164136743
 20
985.2487314639224
 30
0.0
  0
POINT
  5
6641
330
6246
100
AcDbEntity
  8
Defpoints
 62
     0
100
AcDbPoint
 10
1122.675164136743
 20
931.2487314639222
 30
0.0
  0
ENDBLK
  5
6251
330
6246
100
AcDbEntity
  8
0
100
AcDbBlockEnd
  0
BLOCK
  5
62DB
330
62D1
100
AcDbEntity
  8
0
100
AcDbBlockBegin
  2
*D25
 70
     1
 10
0.0
 20
0.0
 30
0.0
  3
*D25
  1

  0
LINE
  5
6630
330
62D1
100
AcDbEntity
  8
AM_5
100
AcDbLine
 10
1239.914489787403
 20
941.7487314639224
 30
0.0
 11
1239.914489787403
 21
928.9987314639224
 31
0.0
  0
LINE
  5
6631
330
62D1
100
AcDbEntity
  8
AM_5
100
AcDbLine
 10
1259.914489787403
 20
941.7487314639224
 30
0.0
 11
1259.914489787403
 21
928.9987314639224
 31
0.0
  0
LINE
  5
6632
330
62D1
100
AcDbEntity
  8
AM_5
100
AcDbLine
 10
1244.414489787403
 20
931.2487314639225
 30
0.0
 11
1255.414489787403
 21
931.2487314639225
 31
0.0
  0
SOLID
  5
6633
330
62D1
100
AcDbEntity
  8
AM_5
100
AcDbTrace
 10
1244.414489787403
 20
931.9987314639224
 30
0.0
 11
1244.414489787403
 21
930.4987314639225
 31
0.0
 12
1239.914489787403
 22
931.2487314639225
 32
0.0
 13
1239.914489787403
 23
931.2487314639225
 33
0.0
  0
SOLID
  5
6634
330
62D1
100
AcDbEntity
  8
AM_5
100
AcDbTrace
 10
1255.414489787403
 20
931.9987314639224
 30
0.0
 11
1255.414489787403
 21
930.4987314639225
 31
0.0
 12
1259.914489787403
 22
931.2487314639225
 32
0.0
 13
1259.914489787403
 23
931.2487314639225
 33
0.0
  0
MTEXT
  5
6635
330
62D1
100
AcDbEntity
  8
AM_5
100
AcDbMText
 10
1249.914489787403
 20
934.9991743773083
 30
0.0
 40
4.5
 41
0.0
 71
     5
 72
     1
  1
\A2;20
 73
     1
 44
1.0
1001
ACAD
1000
MTEXTBEGIN
1070
    73
1070
     1
1070
    44
1040
1.0
1070
    74
1070
     0
1000
MTEXTEND
  0
POINT
  5
6636
330
62D1
100
AcDbEntity
  8
Defpoints
 62
     0
100
AcDbPoint
 10
1239.914489787403
 20
943.2487314639224
 30
0.0
  0
POINT
  5
6637
330
62D1
100
AcDbEntity
  8
Defpoints
 62
     0
100
AcDbPoint
 10
1259.914489787403
 20
943.2487314639224
 30
0.0
  0
POINT
  5
6638
330
62D1
100
AcDbEntity
  8
Defpoints
 62
     0
100
AcDbPoint
 10
1259.914489787403
 20
931.2487314639225
 30
0.0
  0
ENDBLK
  5
62DC
330
62D1
100
AcDbEntity
  8
0
100
AcDbBlockEnd
  0
BLOCK
  5
6301
330
62F7
100
AcDbEntity
  8
0
100
AcDbBlockBegin
  2
*D26
 70
     1
 10
0.0
 20
0.0
 30
0.0
  3
*D26
  1

  0
LINE
  5
6627
330
62F7
100
AcDbEntity
  8
AM_5
100
AcDbLine
 10
1191.675164136743
 20
1046.248731463922
 30
0.0
 11
1206.675164136743
 21
1046.248731463922
 31
0.0
  0
LINE
  5
6628
330
62F7
100
AcDbEntity
  8
AM_5
100
AcDbLine
 10
1191.675164136743
 20
975.2487314639225
 30
0.0
 11
1206.675164136743
 21
975.2487314639225
 31
0.0
  0
LINE
  5
6629
330
62F7
100
AcDbEntity
  8
AM_5
100
AcDbLine
 10
1204.425164136743
 20
1041.748731463922
 30
0.0
 11
1204.425164136743
 21
979.7487314639225
 31
0.0
  0
SOLID
  5
662A
330
62F7
100
AcDbEntity
  8
AM_5
100
AcDbTrace
 10
1203.675164136743
 20
1041.748731463922
 30
0.0
 11
1205.175164136743
 21
1041.748731463922
 31
0.0
 12
1204.425164136743
 22
1046.248731463922
 32
0.0
 13
1204.425164136743
 23
1046.248731463922
 33
0.0
  0
SOLID
  5
662B
330
62F7
100
AcDbEntity
  8
AM_5
100
AcDbTrace
 10
1203.675164136743
 20
979.7487314639225
 30
0.0
 11
1205.175164136743
 21
979.7487314639225
 31
0.0
 12
1204.425164136743
 22
975.2487314639225
 32
0.0
 13
1204.425164136743
 23
975.2487314639225
 33
0.0
  0
MTEXT
  5
662C
330
62F7
100
AcDbEntity
  8
AM_5
100
AcDbMText
 10
1200.675164136743
 20
1010.748731463922
 30
0.0
 40
4.5
 41
0.0
 71
     5
 72
     1
  1
\A2;71
 11
0.0000000000000001
 21
1.0
 31
0.0
 73
     1
 44
1.0
1001
ACAD
1000
MTEXTBEGIN
1070
    73
1070
     1
1070
    44
1040
1.0
1070
    74
1070
     0
1000
MTEXTEND
  0
POINT
  5
662D
330
62F7
100
AcDbEntity
  8
Defpoints
 62
     0
100
AcDbPoint
 10
1190.175164136743
 20
1046.248731463922
 30
0.0
  0
POINT
  5
662E
330
62F7
100
AcDbEntity
  8
Defpoints
 62
     0
100
AcDbPoint
 10
1190.175164136743
 20
975.2487314639225
 30
0.0
  0
POINT
  5
662F
330
62F7
100
AcDbEntity
  8
Defpoints
 62
     0
100
AcDbPoint
 10
1204.425164136743
 20
975.2487314639225
 30
0.0
  0
ENDBLK
  5
6302
330
62F7
100
AcDbEntity
  8
0
100
AcDbBlockEnd
  0
BLOCK
  5
676C
330
6767
100
AcDbEntity
  8
0
100
AcDbBlockBegin
  2
*S27
 70
     1
 10
0.0
 20
0.0
 30
0.0
  3
*S27
  1

  0
LINE
  5
6768
330
6767
100
AcDbEntity
  8
AM_5
 62
     5
100
AcDbLine
 10
791.6975141332202
 20
1148.727654686123
 30
0.0
 11
745.2655671408779
 21
1148.727654686123
 31
0.0
  0
LINE
  5
6769
330
6767
100
AcDbEntity
  8
AM_5
 62
     5
100
AcDbLine
 10
745.2655671408779
 20
1148.727654686123
 30
0.0
 11
729.1999163553231
 21
1166.584697259762
 31
0.0
  0
TRACE
  5
676A
330
6767
100
AcDbEntity
  8
AM_5
 62
     5
370
    35
100
AcDbTrace
 10
729.713744507697
 20
1167.046978940829
 30
0.0
 11
728.6860882029491
 21
1166.122415578695
 31
0.0
 12
725.6885383594545
 22
1170.487609578804
 32
0.0
 13
725.6885383594545
 23
1170.487609578804
 33
0.0
  0
MTEXT
  5
676B
330
6767
100
AcDbEntity
  8
AM_5
 62
     2
100
AcDbMText
 10
791.6975141332202
 20
1153.472526073619
 30
0.0
 40
5.25
 41
0.0
 71
     9
 72
     5
  1

  7
ACISOTS
210
0.0
220
0.0
230
-1.0
 11
-1.0
 21
0.0
 31
0.0
 73
     1
 44
1.0
1001
ACAD
1000
MTEXTBEGIN
1070
    73
1070
     1
1070
    44
1040
1.0
1070
    74
1070
     0
1000
MTEXTEND
  0
ENDBLK
  5
676D
330
6767
100
AcDbEntity
  8
0
100
AcDbBlockEnd
  0
BLOCK
  5
6774
330
676F
100
AcDbEntity
  8
0
100
AcDbBlockBegin
  2
*S28
 70
     1
 10
0.0
 20
0.0
 30
0.0
  3
*S28
  1

  0
LINE
  5
6770
330
676F
100
AcDbEntity
  8
AM_5
 62
     5
100
AcDbLine
 10
641.187466769486
 20
1148.097599361427
 30
0.0
 11
664.4418767024622
 21
1148.097599361427
 31
0.0
  0
LINE
  5
6771
330
676F
100
AcDbEntity
  8
AM_5
 62
     5
100
AcDbLine
 10
664.4418767024622
 20
1148.097599361427
 30
0.0
 11
681.9662079241091
 21
1167.49252453333
 31
0.0
  0
TRACE
  5
6772
330
676F
100
AcDbEntity
  8
AM_5
 62
     5
370
    35
100
AcDbTrace
 10
682.4790478484054
 20
1167.029146787998
 30
0.0
 11
681.4533679998126
 21
1167.955902278663
 31
0.0
 12
685.4859113546699
 22
1171.387930514855
 32
0.0
 13
685.4859113546699
 23
1171.387930514855
 33
0.0
  0
MTEXT
  5
6773
330
676F
100
AcDbEntity
  8
AM_5
 62
     2
100
AcDbMText
 10
641.187466769486
 20
1154.771420940236
 30
0.0
 40
5.25
 41
0.0
 71
     9
 72
     5
  1

  7
ACISOTS
 73
     1
 44
1.0
1001
ACAD
1000
MTEXTBEGIN
1070
    73
1070
     1
1070
    44
1040
1.0
1070
    74
1070
     0
1000
MTEXTEND
  0
ENDBLK
  5
6775
330
676F
100
AcDbEntity
  8
0
100
AcDbBlockEnd
  0
BLOCK
  5
677C
330
6777
100
AcDbEntity
  8
0
100
AcDbBlockBegin
  2
*S29
 70
     1
 10
0.0
 20
0.0
 30
0.0
  3
*S29
  1

  0
LINE
  5
6778
330
6777
100
AcDbEntity
  8
AM_5
 62
     5
100
AcDbLine
 10
513.4327219990686
 20
1024.446288282414
 30
0.0
 11
533.865237458529
 21
1024.446288282414
 31
0.0
  0
LINE
  5
6779
330
6777
100
AcDbEntity
  8
AM_5
 62
     5
100
AcDbLine
 10
533.865237458529
 20
1024.446288282414
 30
0.0
 11
552.4740570479694
 21
1012.56917895341
 31
0.0
  0
TRACE
  5
677A
330
6777
100
AcDbEntity
  8
AM_5
 62
     5
370
    35
100
AcDbTrace
 10
552.1021992111151
 20
1011.98655946181
 30
0.0
 11
552.8459148848237
 21
1013.15179844501
 31
0.0
 12
556.8994914671884
 22
1009.744638247173
 32
0.0
 13
556.8994914671884
 23
1009.744638247173
 33
0.0
  0
MTEXT
  5
677B
330
6777
100
AcDbEntity
  8
AM_5
 62
     2
100
AcDbMText
 10
513.4327219990686
 20
1032.118524096037
 30
0.0
 40
5.25
 41
0.0
 71
     9
 72
     5
  1

  7
ACISOTS
 73
     1
 44
1.0
1001
ACAD
1000
MTEXTBEGIN
1070
    73
1070
     1
1070
    44
1040
1.0
1070
    74
1070
     0
1000
MTEXTEND
  0
ENDBLK
  5
677D
330
6777
100
AcDbEntity
  8
0
100
AcDbBlockEnd
  0
BLOCK
  5
6784
330
677F
100
AcDbEntity
  8
0
100
AcDbBlockBegin
  2
*S30
 70
     1
 10
0.0
 20
0.0
 30
0.0
  3
*S30
  1

  0
LINE
  5
6780
330
677F
100
AcDbEntity
  8
AM_5
 62
     5
100
AcDbLine
 10
984.1142505267439
 20
922.3592233444556
 30
0.0
 11
941.5254909346682
 21
922.3592233444556
 31
0.0
  0
LINE
  5
6781
330
677F
100
AcDbEntity
  8
AM_5
 62
     5
100
AcDbLine
 10
941.5254909346682
 20
922.3592233444556
 30
0.0
 11
917.0666337392971
 21
951.1774667570117
 31
0.0
  0
TRACE
  5
6782
330
677F
100
AcDbEntity
  8
AM_5
 62
     5
370
    35
100
AcDbTrace
 10
917.593598175196
 20
951.6247163585985
 30
0.0
 11
916.5396693033978
 21
950.7302171554249
 31
0.0
 12
913.6694357234718
 22
955.1801590561117
 32
0.0
 13
913.6694357234718
 23
955.1801590561117
 33
0.0
  0
MTEXT
  5
6783
330
677F
100
AcDbEntity
  8
AM_5
 62
     2
100
AcDbMText
 10
984.1142505267439
 20
929.8971974722608
 30
0.0
 40
5.25
 41
0.0
 71
     9
 72
     5
  1

  7
ACISOTS
210
0.0
220
0.0
230
-1.0
 11
-1.0
 21
0.0
 31
0.0
 73
     1
 44
1.0
1001
ACAD
1000
MTEXTBEGIN
1070
    73
1070
     1
1070
    44
1040
1.0
1070
    74
1070
     0
1000
MTEXTEND
  0
ENDBLK
  5
6785
330
677F
100
AcDbEntity
  8
0
100
AcDbBlockEnd
  0
BLOCK
  5
678C
330
6787
100
AcDbEntity
  8
0
100
AcDbBlockBegin
  2
*S31
 70
     1
 10
0.0
 20
0.0
 30
0.0
  3
*S31
  1

  0
LINE
  5
6788
330
6787
100
AcDbEntity
  8
AM_5
 62
     5
100
AcDbLine
 10
821.7741507128215
 20
1016.272681321959
 30
0.0
 11
843.3652816856495
 21
1016.272681321959
 31
0.0
  0
LINE
  5
6789
330
6787
100
AcDbEntity
  8
AM_5
 62
     5
100
AcDbLine
 10
843.3652816856495
 20
1016.272681321959
 30
0.0
 11
855.9230668223799
 21
1004.281385297606
 31
0.0
  0
TRACE
  5
678A
330
6787
100
AcDbEntity
  8
AM_5
 62
     5
370
    35
100
AcDbTrace
 10
855.4457368709931
 20
1003.781505471717
 30
0.0
 11
856.4003967737667
 21
1004.781265123496
 31
0.0
 12
859.7200310826883
 22
1000.655704340057
 32
0.0
 13
859.7200310826883
 23
1000.655704340057
 33
0.0
  0
MTEXT
  5
678B
330
6787
100
AcDbEntity
  8
AM_5
 62
     2
100
AcDbMText
 10
821.7741507128215
 20
1023.810655449764
 30
0.0
 40
5.25
 41
0.0
 71
     9
 72
     5
  1

  7
ACISOTS
 73
     1
 44
1.0
1001
ACAD
1000
MTEXTBEGIN
1070
    73
1070
     1
1070
    44
1040
1.0
1070
    74
1070
     0
1000
MTEXTEND
  0
ENDBLK
  5
678D
330
6787
100
AcDbEntity
  8
0
100
AcDbBlockEnd
  0
BLOCK
  5
6794
330
678F
100
AcDbEntity
  8
0
100
AcDbBlockBegin
  2
*S32
 70
     1
 10
0.0
 20
0.0
 30
0.0
  3
*S32
  1

  0
LINE
  5
6790
330
678F
100
AcDbEntity
  8
AM_5
 62
     5
100
AcDbLine
 10
817.8900753246642
 20
1049.974097007126
 30
0.0
 11
839.4812062974922
 21
1049.974097007126
 31
0.0
  0
LINE
  5
6791
330
678F
100
AcDbEntity
  8
AM_5
 62
     5
100
AcDbLine
 10
839.4812062974922
 20
1049.974097007126
 30
0.0
 11
855.1101671524921
 21
1039.112522091762
 31
0.0
  0
TRACE
  5
6792
330
678F
100
AcDbEntity
  8
AM_5
 62
     5
370
    35
100
AcDbTrace
 10
854.7157243223336
 20
1038.544949561984
 30
0.0
 11
855.5046099826508
 21
1039.68009462154
 31
0.0
 12
859.4213085490578
 22
1036.116431328982
 32
0.0
 13
859.4213085490578
 23
1036.116431328982
 33
0.0
  0
MTEXT
  5
6793
330
678F
100
AcDbEntity
  8
AM_5
 62
     2
100
AcDbMText
 10
817.8900753246642
 20
1057.512071134931
 30
0.0
 40
5.25
 41
0.0
 71
     9
 72
     5
  1

  7
ACISOTS
 73
     1
 44
1.0
1001
ACAD
1000
MTEXTBEGIN
1070
    73
1070
     1
1070
    44
1040
1.0
1070
    74
1070
     0
1000
MTEXTEND
  0
ENDBLK
  5
6795
330
678F
100
AcDbEntity
  8
0
100
AcDbBlockEnd
  0
ENDSEC
  0
SECTION
  2
ENTITIES
  0
TEXT
  5
18AA
330
1F
100
AcDbEntity
  8
LOGO
 62
     6
100
AcDbText
 10
821.3227950445856
 20
757.5973234065736
 30
0.0
 40
9.237042590152457
  1
行程
 41
0.9
  7
CHINESET
 72
     4
 11
829.6361333757229
 21
762.2158447016499
 31
0.0
100
AcDbText
  0
LINE
  5
18AB
330
1F
100
AcDbEntity
  8
LOGO
 62
     6
100
AcDbLine
 10
853.4889694240249
 20
744.8963898451142
 30
0.0
 11
805.7832973274217
 21
744.8963898451142
 31
0.0
  0
LINE
  5
18AC
330
1F
100
AcDbEntity
  8
LOGO
 62
     6
100
AcDbLine
 10
853.4889694240249
 20
770.2982569680337
 30
0.0
 11
805.7832973274217
 21
770.2982569680337
 31
0.0
  0
TEXT
  5
18AD
330
1F
100
AcDbEntity
  8
LOGO
  6
Continuous
 62
     6
100
AcDbText
 10
819.1894780654314
 20
747.7829656545365
 30
0.0
 40
5.773151618845286
  1
Stroke
 41
0.8
  7
CHINESET
 72
     4
 11
829.6361333757229
 21
750.6695414639591
 31
0.0
100
AcDbText
  0
TEXT
  5
18AE
330
1F
100
AcDbEntity
  8
LOGO
  6
Continuous
 62
     7
100
AcDbText
 10
821.3667812590932
 20
785.1775153707513
 30
0.0
 40
11.54630323769057
  1
50
  7
CHINESET
 72
     1
 11
830.7137886419855
 21
790.9506669895965
 31
0.0
100
AcDbText
 73
     2
  0
LINE
  5
18AF
330
1F
100
AcDbEntity
  8
LOGO
 62
     6
100
AcDbLine
 10
848.8704481289492
 20
801.4732757097981
 30
0.0
 11
810.4018186224978
 21
801.4732757097981
 31
0.0
  0
LINE
  5
18B0
330
1F
100
AcDbEntity
  8
LOGO
 62
     6
100
AcDbLine
 10
848.8704481289492
 20
780.689929881955
 30
0.0
 11
810.4018186224978
 21
780.6899298819552
 31
0.0
  0
TEXT
  5
18B1
330
1F
100
AcDbEntity
  8
LOGO
  6
Continuous
 62
     6
100
AcDbText
 10
672.6162631617077
 20
747.7829656545368
 30
0.0
 40
5.773151618845286
  1
Model
  7
CHINESET
 72
     4
 11
683.6127424356987
 21
750.6695414639595
 31
0.0
100
AcDbText
  0
LINE
  5
18B2
330
1F
100
AcDbEntity
  8
LOGO
 62
     6
100
AcDbLine
 10
738.7104923794113
 20
801.4732757097981
 30
0.0
 11
628.5149924919863
 21
801.4732757097981
 31
0.0
  0
LINE
  5
18B3
330
1F
100
AcDbEntity
  8
LOGO
 62
     6
100
AcDbLine
 10
738.7104923794113
 20
780.6899298819552
 30
0.0
 11
628.5149924919863
 21
780.6899298819552
 31
0.0
  0
LINE
  5
18B4
330
1F
100
AcDbEntity
  8
LOGO
 62
     6
100
AcDbLine
 10
706.7053489110796
 20
770.2982569680337
 30
0.0
 11
660.5201359603179
 21
770.2982569680337
 31
0.0
  0
LINE
  5
18B5
330
1F
100
AcDbEntity
  8
LOGO
 62
     6
100
AcDbLine
 10
706.7053489110796
 20
744.8963898451142
 30
0.0
 11
660.5201359603179
 21
744.8963898451142
 31
0.0
  0
TEXT
  5
18B6
330
1F
100
AcDbEntity
  8
LOGO
 62
     7
100
AcDbText
 10
538.8971547406164
 20
791.0554672375126
 30
0.0
 40
13.85556388522869
  1
訂購代號:
  7
CHINESET
100
AcDbText
  0
LINE
  5
18B7
330
1F
100
AcDbEntity
  8
LOGO
 62
     6
100
AcDbLine
 10
660.5201359603179
 20
770.2982569680337
 30
0.0
 11
660.5201359603179
 21
744.8963898451142
 31
0.0
  0
LINE
  5
18B8
330
1F
100
AcDbEntity
  8
LOGO
 62
     6
100
AcDbLine
 10
628.5149924919863
 20
801.4732757097981
 30
0.0
 11
628.5149924919863
 21
780.6899298819552
 31
0.0
  0
TEXT
  5
18B9
330
1F
100
AcDbEntity
  8
LOGO
  6
Continuous
 62
     7
100
AcDbText
 10
767.2424261838125
 20
785.1775153707515
 30
0.0
 40
11.54630323769057
  1
50
  7
CHINESET
 72
     1
 11
776.5894335667049
 21
790.9506669895968
 31
0.0
100
AcDbText
 73
     2
  0
LINE
  5
18BA
330
1F
100
AcDbEntity
  8
LOGO
 62
     6
100
AcDbLine
 10
794.0498346389844
 20
744.8963898451145
 30
0.0
 11
756.9737219619006
 21
744.8963898451145
 31
0.0
  0
LINE
  5
18BB
330
1F
100
AcDbEntity
  8
LOGO
 62
     6
100
AcDbLine
 10
794.0498346389844
 20
780.6899298819552
 30
0.0
 11
756.9737219619006
 21
780.6899298819552
 31
0.0
  0
LINE
  5
18BC
330
1F
100
AcDbEntity
  8
LOGO
 62
     6
100
AcDbLine
 10
794.0498346389844
 20
770.2982569680337
 30
0.0
 11
756.9737219619006
 21
770.2982569680337
 31
0.0
  0
LINE
  5
18BD
330
1F
100
AcDbEntity
  8
LOGO
 62
     6
100
AcDbLine
 10
794.0498346389844
 20
801.4732757097981
 30
0.0
 11
756.9737219619006
 21
801.4732757097981
 31
0.0
  0
LINE
  5
18BE
330
1F
100
AcDbEntity
  8
LOGO
 62
     6
100
AcDbLine
 10
756.9737219619006
 20
770.2982569680337
 30
0.0
 11
756.9737219619006
 21
744.8963898451145
 31
0.0
  0
LINE
  5
18BF
330
1F
100
AcDbEntity
  8
LOGO
 62
     6
100
AcDbLine
 10
706.7053489110796
 20
770.2982569680337
 30
0.0
 11
706.7053489110796
 21
744.8963898451142
 31
0.0
  0
TEXT
  5
18C0
330
1F
100
AcDbEntity
  8
LOGO
 62
     6
100
AcDbText
 10
674.3756998455462
 20
757.833704417739
 30
0.0
 40
9.237042590152457
  1
型式
  7
CHINESET
 72
     4
 11
683.6127424356987
 21
762.2158447016499
 31
0.0
100
AcDbText
  0
LINE
  5
18C1
330
1F
100
AcDbEntity
  8
LOGO
 62
     6
100
AcDbLine
 10
683.6127424356987
 20
780.6899298819552
 30
0.0
 11
683.6127424356987
 21
770.2982569680337
 31
0.0
  0
LINE
  5
18C2
330
1F
100
AcDbEntity
  8
LOGO
 62
     6
100
AcDbLine
 10
756.9737219619006
 20
801.4732757097981
 30
0.0
 11
756.9737219619006
 21
780.6899298819552
 31
0.0
  0
LINE
  5
18C3
330
1F
100
AcDbEntity
  8
LOGO
 62
     6
100
AcDbLine
 10
738.7104923794113
 20
801.4732757097981
 30
0.0
 11
738.7104923794113
 21
780.6899298819552
 31
0.0
  0
LINE
  5
18C4
330
1F
100
AcDbEntity
  8
LOGO
  6
Continuous
 62
     7
100
AcDbLine
 10
742.8048385005516
 20
791.0079849004094
 30
0.0
 11
751.982005667535
 21
791.0079849004094
 31
0.0
  0
LINE
  5
18C5
330
1F
100
AcDbEntity
  8
LOGO
 62
     6
100
AcDbLine
 10
805.7832973274217
 20
770.2982569680337
 30
0.0
 11
805.7832973274217
 21
744.8963898451142
 31
0.0
  0
LINE
  5
18C6
330
1F
100
AcDbEntity
  8
LOGO
 62
     6
100
AcDbLine
 10
794.0498346389844
 20
770.2982569680337
 30
0.0
 11
794.0498346389844
 21
744.8963898451145
 31
0.0
  0
TEXT
  5
18C7
330
1F
100
AcDbEntity
  8
LOGO
  6
Continuous
 62
     6
100
AcDbText
 10
768.3640667723482
 20
747.7829656545368
 30
0.0
 40
5.773151618845286
  1
Bore
 41
0.8
  7
CHINESET
 72
     4
 11
775.5117783004424
 21
750.6695414639595
 31
0.0
100
AcDbText
  0
TEXT
  5
18C8
330
1F
100
AcDbEntity
  8
LOGO
 62
     6
100
AcDbText
 10
766.6788563236091
 20
757.5973234065736
 30
0.0
 40
9.237042590152457
  1
內徑
 41
0.9
  7
CHINESET
 72
     4
 11
775.5117783004424
 21
762.2158447016499
 31
0.0
100
AcDbText
  0
LINE
  5
18C9
330
1F
100
AcDbEntity
  8
LOGO
  6
Continuous
 62
     7
100
AcDbLine
 10
797.6304927827271
 20
791.0079849004094
 30
0.0
 11
806.8076599497103
 21
791.0079849004094
 31
0.0
  0
LINE
  5
18CA
330
1F
100
AcDbEntity
  8
LOGO
 62
     6
100
AcDbLine
 10
794.0498346389844
 20
801.4732757097981
 30
0.0
 11
794.0498346389844
 21
780.6899298819552
 31
0.0
  0
LINE
  5
18CB
330
1F
100
AcDbEntity
  8
LOGO
 62
     6
100
AcDbLine
 10
775.5117777679635
 20
780.6899298819552
 30
0.0
 11
775.5117777679635
 21
770.2982569680337
 31
0.0
  0
LINE
  5
18CC
330
1F
100
AcDbEntity
  8
LOGO
 62
     6
100
AcDbLine
 10
810.4018186224978
 20
801.4732757097981
 30
0.0
 11
810.4018186224978
 21
780.6899298819552
 31
0.0
  0
LINE
  5
18CD
330
1F
100
AcDbEntity
  8
LOGO
 62
     6
100
AcDbLine
 10
830.1252138131205
 20
780.6899298819552
 30
0.0
 11
830.1252138131205
 21
770.2982569680337
 31
0.0
  0
TEXT
  5
18CE
330
1F
100
AcDbEntity
  8
LOGO
 62
     6
100
AcDbText
 10
874.3785491095037
 20
757.5973234065736
 30
0.0
 40
9.237042590152457
  1
配件
 41
0.9
  7
CHINESET
 72
     4
 11
882.7784847149235
 21
762.2158447016499
 31
0.0
100
AcDbText
  0
LINE
  5
18CF
330
1F
100
AcDbEntity
  8
LOGO
 62
     6
100
AcDbLine
 10
905.3594001188647
 20
744.8963898451145
 30
0.0
 11
860.8970692109036
 21
744.8963898451145
 31
0.0
  0
LINE
  5
18D0
330
1F
100
AcDbEntity
  8
LOGO
 62
     6
100
AcDbLine
 10
905.3594001188647
 20
770.2982569680337
 30
0.0
 11
860.8970692109036
 21
770.2982569680337
 31
0.0
  0
TEXT
  5
18D1
330
1F
100
AcDbEntity
  8
LOGO
  6
Continuous
 62
     6
100
AcDbText
 10
865.7339418402376
 20
748.745157591011
 30
0.0
 40
5.773151618845286
  1
Accessory
 41
0.8
  7
CHINESET
 72
     4
 11
882.7784847149235
 21
750.6695414639595
 31
0.0
100
AcDbText
  0
LINE
  5
18D2
330
1F
100
AcDbEntity
  8
LOGO
 62
     6
100
AcDbLine
 10
860.8970692109036
 20
770.2982569680337
 30
0.0
 11
860.8970692109036
 21
744.8963898451145
 31
0.0
  0
LINE
  5
18D3
330
1F
100
AcDbEntity
  8
LOGO
 62
     6
100
AcDbLine
 10
853.4889694240249
 20
770.2982569680337
 30
0.0
 11
853.4889694240249
 21
744.8006079626408
 31
0.0
  0
LINE
  5
18D4
330
1F
100
AcDbEntity
  8
LOGO
 62
     6
100
AcDbLine
 10
848.8704481289492
 20
801.4732757097981
 30
0.0
 11
848.8704481289492
 21
780.689929881955
 31
0.0
  0
LINE
  5
18D5
330
1F
100
AcDbEntity
  8
LOGO
  6
Continuous
 62
     7
100
AcDbLine
 10
852.9616098781778
 20
791.0079849004094
 30
0.0
 11
862.1387770451608
 21
791.0079849004094
 31
0.0
  0
TEXT
  5
18D6
330
1F
100
AcDbEntity
  8
LOGO
  6
Continuous
 62
     7
100
AcDbText
 10
875.9356929905038
 20
785.1775153707513
 30
0.0
 40
11.54630323769057
  1
?
  7
CHINESET
 72
     1
 11
878.9597247908513
 21
790.9506669895965
 31
0.0
100
AcDbText
 73
     2
  0
LINE
  5
18D7
330
1F
100
AcDbEntity
  8
LOGO
 62
     6
100
AcDbLine
 10
891.0127802602387
 20
801.4732757097981
 30
0.0
 11
891.0127802602387
 21
780.6899298819552
 31
0.0
  0
LINE
  5
18D8
330
1F
100
AcDbEntity
  8
LOGO
 62
     6
100
AcDbLine
 10
865.5547778923541
 20
801.4732757097981
 30
0.0
 11
865.5547778923541
 21
780.6899298819552
 31
0.0
  0
LINE
  5
18D9
330
1F
100
AcDbEntity
  8
LOGO
 62
     6
100
AcDbLine
 10
891.0127802602387
 20
780.6899298819552
 30
0.0
 11
865.5547778923541
 21
780.6899298819552
 31
0.0
  0
LINE
  5
18DA
330
1F
100
AcDbEntity
  8
LOGO
 62
     6
100
AcDbLine
 10
878.2837790762968
 20
780.6899298819552
 30
0.0
 11
878.2837790762968
 21
770.2982569680337
 31
0.0
  0
LINE
  5
18DB
330
1F
100
AcDbEntity
  8
LOGO
 62
     6
100
AcDbLine
 10
891.0127802602387
 20
801.4732757097981
 30
0.0
 11
865.5547778923541
 21
801.4732757097981
 31
0.0
  0
LINE
  5
18DC
330
1F
100
AcDbEntity
  8
LOGO
 62
     6
100
AcDbLine
 10
905.3594001188647
 20
770.2982569680337
 30
0.0
 11
905.3594001188647
 21
744.8963898451145
 31
0.0
  0
TEXT
  5
18DD
330
1F
100
AcDbEntity
  8
LOGO
 62
     7
100
AcDbText
 10
537.1933241738182
 20
778.0606707051135
 30
0.0
 40
9.23428911472941
  1
Order example:
 41
0.8
  7
CHINESET
100
AcDbText
  0
TEXT
  5
18DE
330
1F
100
AcDbEntity
  8
LOGO
 62
     7
100
AcDbText
 10
538.8500320054641
 20
791.0606377946948
 30
0.0
 40
13.85143367209412
  1
訂購代號:
  7
CHINESET
100
AcDbText
  0
LINE
  5
18DF
330
1F
100
AcDbEntity
  8
LOGO
 62
     1
100
AcDbLine
 10
1305.496147866495
 20
808.4010576524123
 30
0.0
 11
380.8152238395246
 21
808.4010576524123
 31
0.0
  0
LINE
  5
18E0
330
1F
100
AcDbEntity
  8
LOGO
 62
     1
100
AcDbLine
 10
533.1809942325604
 20
739.1438892919418
 30
0.0
 11
533.1809942325604
 21
808.4010576524123
 31
0.0
  0
TEXT
  5
18E1
330
1F
100
AcDbEntity
  8
LOGO
  6
Continuous
 62
     5
100
AcDbText
 10
405.6927100316014
 20
752.7493554981756
 30
0.0
 40
10.38857525407058
  1
金器工業股份有限公司
  7
CHINESET
100
AcDbText
  0
TEXT
  5
18E2
330
1F
100
AcDbEntity
  8
LOGO
  6
Continuous
 62
     5
100
AcDbText
 10
386.6109525681314
 20
742.3587448978517
 30
0.0
 40
6.925716836047059
  1
MINDMAN INDUSTRIAL CO., LTD.
 41
0.85
  7
CHINESET
100
AcDbText
  0
LINE
  5
18E3
330
1F
100
AcDbEntity
  8
LOGO
 62
     1
100
AcDbLine
 10
533.1809942325604
 20
794.5496239803182
 30
0.0
 11
431.6038139705361
 21
794.5496239803182
 31
0.0
  0
LINE
  5
18E4
330
1F
100
AcDbEntity
  8
LOGO
 62
     1
100
AcDbLine
 10
533.1809942325604
 20
780.6981903082242
 30
0.0
 11
431.6038139705361
 21
780.6981903082242
 31
0.0
  0
LINE
  5
18E5
330
1F
100
AcDbEntity
  8
LOGO
 62
     1
100
AcDbLine
 10
533.1809942325604
 20
766.8467566361303
 30
0.0
 11
380.8152238395246
 21
766.8467566361303
 31
0.0
  0
LINE
  5
18E6
330
1F
100
AcDbEntity
  8
LOGO
 62
     1
100
AcDbLine
 10
431.6038139705361
 20
766.8467566361303
 30
0.0
 11
431.6038139705361
 21
808.4010576524123
 31
0.0
  0
TEXT
  5
18E7
330
1F
100
AcDbEntity
  8
LOGO
 62
     6
100
AcDbText
 10
497.3992658718209
 20
770.3096150541536
 30
0.0
 40
6.925716836047059
  1
m/m
  7
CHINESET
 72
     1
 11
509.6017193448562
 21
773.7724734721771
 31
0.0
100
AcDbText
 73
     2
  0
TEXT
  5
18E8
330
1F
100
AcDbEntity
  8
LOGO
 62
     6
100
AcDbText
 10
497.3992658718209
 20
798.0124823983421
 30
0.0
 40
6.925716836047059
  1
1 : 1
  7
CHINESET
 72
     1
 11
509.6017193448562
 21
801.4753408163656
 31
0.0
100
AcDbText
 73
     2
  0
LINE
  5
18E9
330
1F
100
AcDbEntity
  8
LOGO
 62
     1
100
AcDbLine
 10
487.0095486589123
 20
766.8467566361303
 30
0.0
 11
487.0095486589123
 21
808.4010576524123
 31
0.0
  0
CIRCLE
  5
18EA
330
1F
100
AcDbEntity
  8
LOGO
  6
Continuous
 62
     6
100
AcDbCircle
 10
499.8333796358217
 20
787.6387213032646
 30
0.0
 40
4.02123420800737
  0
CIRCLE
  5
18EB
330
1F
100
AcDbEntity
  8
LOGO
  6
Continuous
 62
     6
100
AcDbCircle
 10
499.8333796358217
 20
787.6387213032646
 30
0.0
 40
2.356087266168735
  0
LINE
  5
18EC
330
1F
100
AcDbEntity
  8
LOGO
 62
     6
100
AcDbLine
 10
525.1032820032263
 20
783.6174870952569
 30
0.0
 11
525.1032820032263
 21
791.6599555112723
 31
0.0
  0
LINE
  5
18ED
330
1F
100
AcDbEntity
  8
LOGO
 62
     6
100
AcDbLine
 10
512.4969435909803
 20
785.2826340370957
 30
0.0
 11
512.4969435909803
 21
789.9948085694336
 31
0.0
  0
LINE
  5
18EE
330
1F
100
AcDbEntity
  8
LOGO
  6
Continuous
 62
     6
100
AcDbLine
 10
512.4969435909803
 20
789.9948085694336
 30
0.0
 11
525.1032820032263
 21
791.6599555112723
 31
0.0
  0
LINE
  5
18EF
330
1F
100
AcDbEntity
  8
LOGO
  6
Continuous
 62
     6
100
AcDbLine
 10
512.4969435909803
 20
785.2826340370957
 30
0.0
 11
525.1032820032263
 21
783.6174870952569
 31
0.0
  0
TEXT
  5
18F0
330
1F
100
AcDbEntity
  8
LOGO
 62
     6
100
AcDbText
 10
437.3144385224019
 20
798.0158907235566
 30
453.9000719825535
 40
6.925716836047059
  1
比例 Scale:
 41
0.9
  7
CHINESET
 72
     4
 11
459.3066813147245
 21
801.4753408163656
 31
453.9000719825535
100
AcDbText
  0
TEXT
  5
18F1
330
1F
100
AcDbEntity
  8
LOGO
 62
     6
100
AcDbText
 10
439.7353475771451
 20
784.2584700219645
 30
453.9000719825535
 40
6.925716836047059
  1
投影 View:
 41
0.9
  7
CHINESET
 72
     4
 11
459.3066813147245
 21
787.623907144271
 31
453.9000719825535
100
AcDbText
  0
TEXT
  5
18F2
330
1F
100
AcDbEntity
  8
LOGO
 62
     6
100
AcDbText
 10
440.4124600713837
 20
770.3096150541536
 30
453.9000719825535
 40
6.925716836047059
  1
單位 Unit:
 41
0.9
  7
CHINESET
 72
     4
 11
459.3066813147245
 21
773.7724734721771
 31
453.9000719825535
100
AcDbText
  0
LWPOLYLINE
  5
18F3
330
1F
100
AcDbEntity
  8
0
 62
     4
100
AcDbPolyline
 90
        4
 70
     1
 43
0.0
 10
380.8152238395246
 20
808.4010576524127
 10
1305.496147866495
 20
808.4010576524127
 10
1305.496147866495
 20
1303.50206296615
 10
380.8152238395246
 20
1303.50206296615
1001
GENIUS_GENREC_14
1002
{
1000
PYDIR
1011
380.8152238395246
1021
1303.50206296615
1031
0.0
1002
}
1002
{
1000
PXDIR
1011
1305.496147866495
1021
808.4010576524127
1031
0.0
1002
}
1002
{
1000
PORI
1011
380.8152238395246
1021
808.4010576524127
1031
0.0
1002
}
1002
{
1000
PINS
1011
380.8152238395246
1021
808.4010576524127
1031
0.0
1002
}
1002
{
1000
PINS2
1011
1305.496147866495
1021
1303.50206296615
1031
0.0
1002
}
1002
{
1000
C
1070
     1
1002
}
1001
GENIUS_GENODEF_13
1002
{
1000
HIER
1070
     0
1002
}
1002
{
1000
MANEDIT
1070
     0
1002
}
1002
{
1000
NOSEL
1070
     0
1002
}
1002
{
1000
BEHIND
1070
     0
1002
}
1002
{
1000
OTHER
1070
     0
1002
}
1002
{
1000
REACTOR
1002
}
1001
GENIUS_GENOBJ-N-REC_13
1002
{
1000
OWNER
1000
GEN
1002
}
  0
SOLID
  5
18F4
330
1F
100
AcDbEntity
  8
LOGO
 62
     5
100
AcDbTrace
 10
388.0007662062244
 20
778.359775077894
 30
0.0
 11
390.9952644353215
 21
778.359775077893
 31
0.0
 12
403.4895501498304
 22
806.7558789745037
 32
0.0
 13
406.4840483789276
 23
806.7558789745017
 33
0.0
  0
SOLID
  5
18F5
330
1F
100
AcDbEntity
  8
LOGO
 62
     5
100
AcDbTrace
 10
392.2343671508114
 20
778.359775077894
 30
0.0
 11
395.2288653799084
 21
778.359775077894
 31
0.0
 12
406.4840483789276
 22
804.4841906627739
 32
0.0
 13
403.4895501498304
 23
793.5043638227507
 33
0.0
  0
SOLID
  5
18F6
330
1F
100
AcDbEntity
  8
LOGO
 62
     2
100
AcDbTrace
 10
390.9952644353215
 20
778.359775077893
 30
0.0
 11
392.2343671508114
 21
778.359775077894
 31
0.0
 12
406.4840483789276
 22
806.7558789745017
 32
0.0
 13
407.7231510944163
 23
806.7558789745017
 33
0.0
  0
SOLID
  5
18F7
330
1F
100
AcDbEntity
  8
LOGO
 62
     5
100
AcDbTrace
 10
383.1998512040651
 20
768.0339191154919
 30
0.0
 11
384.2324368003069
 21
768.0339191154919
 31
0.0
 12
387.1402782093584
 22
773.1968470966917
 32
0.0
 13
388.1728638055983
 23
773.1968470966917
 33
0.0
  0
SOLID
  5
18F8
330
1F
100
AcDbEntity
  8
LOGO
 62
     5
100
AcDbTrace
 10
387.1402782093584
 20
773.1968470966917
 30
0.0
 11
388.1728638055983
 21
773.1968470966917
 31
0.0
 12
387.1402782093584
 22
768.0339191154919
 32
0.0
 13
388.1728638055983
 23
768.0339191154919
 33
0.0
  0
SOLID
  5
18F9
330
1F
100
AcDbEntity
  8
LOGO
 62
     5
100
AcDbTrace
 10
387.1402782093584
 20
768.0339191154919
 30
0.0
 11
388.1728638055983
 21
768.0339191154919
 31
0.0
 12
391.0807052146538
 22
773.1968470966917
 32
0.0
 13
392.1132908108928
 23
773.1968470966917
 33
0.0
  0
SOLID
  5
18FA
330
1F
100
AcDbEntity
  8
LOGO
 62
     5
100
AcDbTrace
 10
391.0807052146538
 20
773.1968470966917
 30
0.0
 11
392.1132908108928
 21
773.1968470966917
 31
0.0
 12
391.0807052146538
 22
768.0339191154919
 32
0.0
 13
392.1132908108928
 23
768.0339191154919
 33
0.0
  0
POLYLINE
  5
18FB
330
1F
100
AcDbEntity
  8
LOGO
 62
     5
100
AcDb2dPolyline
 66
     1
 10
0.0
 20
0.0
 30
0.0
 40
1.034240380849693
 41
1.034240380849693
  0
VERTEX
  5
18FC
330
18FB
100
AcDbEntity
  8
LOGO
 62
     5
100
AcDbVertex
100
AcDb2dVertex
 10
425.6926226459124
 20
771.131675904211
 30
0.0
 42
1.0
  0
VERTEX
  5
18FD
330
18FB
100
AcDbEntity
  8
LOGO
 62
     5
100
AcDbVertex
100
AcDb2dVertex
 10
422.5899015033632
 20
771.131675904211
 30
0.0
 42
1.0
  0
SEQEND
  5
18FE
330
18FB
100
AcDbEntity
  8
LOGO
 62
     5
  0
POLYLINE
  5
18FF
330
1F
100
AcDbEntity
  8
LOGO
 62
     5
100
AcDb2dPolyline
 66
     1
 10
0.0
 20
0.0
 30
0.0
 70
     1
  0
VERTEX
  5
1900
330
18FF
100
AcDbEntity
  8
LOGO
 62
     5
100
AcDbVertex
100
AcDb2dVertex
 10
416.7411341406205
 20
770.6153831060914
 30
0.0
 42
1.000000057330635
  0
VERTEX
  5
1901
330
18FF
100
AcDbEntity
  8
LOGO
 62
     5
100
AcDbVertex
100
AcDb2dVertex
 10
419.8388909293418
 20
770.6153831060914
 30
0.0
 42
1.000000057330635
  0
SEQEND
  5
1902
330
18FF
100
AcDbEntity
  8
LOGO
 62
     5
  0
CIRCLE
  5
1903
330
1F
100
AcDbEntity
  8
LOGO
 62
     5
100
AcDbCircle
 10
418.290012534982
 20
770.6153831060914
 30
0.0
 40
1.548878394360501
  0
POLYLINE
  5
1904
330
1F
100
AcDbEntity
  8
LOGO
 62
     5
100
AcDb2dPolyline
 66
     1
 10
0.0
 20
0.0
 30
0.0
 70
     1
 40
1.034240380849693
 41
1.034240380849693
  0
VERTEX
  5
1905
330
1904
100
AcDbEntity
  8
LOGO
 62
     5
100
AcDbVertex
100
AcDb2dVertex
 10
416.2215317732819
 20
770.6153831060914
 30
0.0
 42
1.0
  0
VERTEX
  5
1906
330
1904
100
AcDbEntity
  8
LOGO
 62
     5
100
AcDbVertex
100
AcDb2dVertex
 10
420.3584932966808
 20
770.6153831060914
 30
0.0
 42
1.0
  0
SEQEND
  5
1907
330
1904
100
AcDbEntity
  8
LOGO
 62
     5
  0
LINE
  5
1908
330
1F
100
AcDbEntity
  8
LOGO
 62
     5
100
AcDbLine
 10
426.2064332671183
 20
768.0339191154919
 30
0.0
 11
426.2064332671183
 21
771.131675904211
 31
0.0
  0
SOLID
  5
1909
330
1F
100
AcDbEntity
  8
LOGO
 62
     5
100
AcDbTrace
 10
419.8387876707846
 20
773.1968470966917
 30
0.0
 11
420.8713732670234
 21
773.1968470966917
 31
0.0
 12
419.8387876707846
 22
768.0339191154919
 32
0.0
 13
420.8713732670234
 23
768.0339191154919
 33
0.0
  0
SOLID
  5
190A
330
1F
100
AcDbEntity
  8
LOGO
 62
     5
100
AcDbTrace
 10
422.076090882156
 20
768.0339191154919
 30
0.0
 11
423.1086764783972
 21
768.0339191154919
 31
0.0
 12
422.076090882156
 22
773.1968470966917
 32
0.0
 13
423.1086764783972
 23
773.1968470966917
 33
0.0
  0
SOLID
  5
190B
330
1F
100
AcDbEntity
  8
LOGO
 62
     5
100
AcDbTrace
 10
425.173847670878
 20
771.131675904211
 30
0.0
 11
426.2064332671183
 21
771.131675904211
 31
0.0
 12
425.173847670878
 22
768.0339191154919
 32
0.0
 13
426.2064332671183
 23
768.0339191154919
 33
0.0
  0
SOLID
  5
190C
330
1F
100
AcDbEntity
  8
LOGO
 62
     5
100
AcDbTrace
 10
421.9728323225321
 20
804.4841906627739
 30
0.0
 11
418.978334093435
 21
793.5043638227507
 31
0.0
 12
421.9728323225321
 22
778.359775077893
 32
0.0
 13
418.978334093435
 23
778.359775077893
 33
0.0
  0
SOLID
  5
190D
330
1F
100
AcDbEntity
  8
LOGO
 62
     5
100
AcDbTrace
 10
423.2119350380211
 20
778.359775077893
 30
0.0
 11
426.2064332671183
 21
778.359775077893
 31
0.0
 12
423.2119350380211
 22
806.7558789745017
 32
0.0
 13
426.2064332671183
 23
806.7558789745037
 33
0.0
  0
SOLID
  5
190E
330
1F
100
AcDbEntity
  8
LOGO
 62
     2
100
AcDbTrace
 10
421.9728323225321
 20
806.7558789745037
 30
0.0
 11
423.2119350380211
 21
806.7558789745017
 31
0.0
 12
421.9728323225321
 22
778.359775077893
 32
0.0
 13
423.2119350380211
 23
778.359775077893
 33
0.0
  0
POLYLINE
  5
190F
330
1F
100
AcDbEntity
  8
LOGO
 62
     5
100
AcDb2dPolyline
 66
     1
 10
0.0
 20
0.0
 30
0.0
 40
1.034240380849693
 41
1.034240380849693
  0
VERTEX
  5
1910
330
190F
100
AcDbEntity
  8
LOGO
 62
     5
100
AcDbVertex
100
AcDb2dVertex
 10
410.8921602607613
 20
771.131675904211
 30
0.0
 42
1.0
  0
VERTEX
  5
1911
330
190F
100
AcDbEntity
  8
LOGO
 62
     5
100
AcDbVertex
100
AcDb2dVertex
 10
407.7894391182115
 20
771.131675904211
 30
0.0
 42
1.0
  0
SEQEND
  5
1912
330
190F
100
AcDbEntity
  8
LOGO
 62
     5
  0
POLYLINE
  5
1913
330
1F
100
AcDbEntity
  8
LOGO
 62
     5
100
AcDb2dPolyline
 66
     1
 10
0.0
 20
0.0
 30
0.0
 40
1.034240380849693
 41
1.034240380849693
  0
VERTEX
  5
1914
330
1913
100
AcDbEntity
  8
LOGO
 62
     5
100
AcDbVertex
100
AcDb2dVertex
 10
413.989917049481
 20
771.131675904211
 30
0.0
 42
1.0
  0
VERTEX
  5
1915
330
1913
100
AcDbEntity
  8
LOGO
 62
     5
100
AcDbVertex
100
AcDb2dVertex
 10
410.8871959069316
 20
771.131675904211
 30
0.0
 42
1.0
  0
SEQEND
  5
1916
330
1913
100
AcDbEntity
  8
LOGO
 62
     5
  0
POLYLINE
  5
1917
330
1F
100
AcDbEntity
  8
LOGO
 62
     5
100
AcDb2dPolyline
 66
     1
 10
0.0
 20
0.0
 30
0.0
 40
1.034240380849693
 41
1.034240380849693
  0
VERTEX
  5
1918
330
1917
100
AcDbEntity
  8
LOGO
 62
     5
100
AcDbVertex
100
AcDb2dVertex
 10
399.1894546643302
 20
771.131675904211
 30
0.0
 42
1.0
  0
VERTEX
  5
1919
330
1917
100
AcDbEntity
  8
LOGO
 62
     5
100
AcDbVertex
100
AcDb2dVertex
 10
396.0867335217807
 20
771.131675904211
 30
0.0
 42
1.0
  0
SEQEND
  5
191A
330
1917
100
AcDbEntity
  8
LOGO
 62
     5
  0
SOLID
  5
191B
330
1F
100
AcDbEntity
  8
LOGO
 62
     5
100
AcDbTrace
 10
395.5729229005761
 20
773.1968470966917
 30
0.0
 11
396.605508496815
 21
773.1968470966917
 31
0.0
 12
395.5729229005761
 22
768.0339191154919
 32
0.0
 13
396.605508496815
 23
768.0339191154919
 33
0.0
  0
SOLID
  5
191C
330
1F
100
AcDbEntity
  8
LOGO
 62
     5
100
AcDbTrace
 10
398.6706796892958
 20
771.131675904211
 30
0.0
 11
399.7032652855373
 21
771.131675904211
 31
0.0
 12
398.6706796892958
 22
768.0339191154919
 32
0.0
 13
399.7032652855373
 23
768.0339191154919
 33
0.0
  0
POLYLINE
  5
191D
330
1F
100
AcDbEntity
  8
LOGO
 62
     5
100
AcDb2dPolyline
 66
     1
 10
0.0
 20
0.0
 30
0.0
 70
     1
 40
1.034240380849693
 41
1.034240380849693
  0
VERTEX
  5
191E
330
191D
100
AcDbEntity
  8
LOGO
 62
     5
100
AcDbVertex
100
AcDb2dVertex
 10
401.4210693881297
 20
770.6153831060914
 30
0.0
 42
1.0
  0
VERTEX
  5
191F
330
191D
100
AcDbEntity
  8
LOGO
 62
     5
100
AcDbVertex
100
AcDb2dVertex
 10
405.558030911529
 20
770.6153831060914
 30
0.0
 42
1.0
  0
SEQEND
  5
1920
330
191D
100
AcDbEntity
  8
LOGO
 62
     5
  0
SOLID
  5
1921
330
1F
100
AcDbEntity
  8
LOGO
 62
     5
100
AcDbTrace
 10
405.0383252856327
 20
774.7457254910532
 30
0.0
 11
406.0709108818712
 21
774.7457254910532
 31
0.0
 12
405.0383252856327
 22
768.0339191154919
 32
0.0
 13
406.0709108818712
 23
768.0339191154919
 33
0.0
  0
SOLID
  5
1922
330
1F
100
AcDbEntity
  8
LOGO
 62
     5
100
AcDbTrace
 10
407.2756284970067
 20
773.1968470966917
 30
0.0
 11
408.3082140932464
 21
773.1968470966917
 31
0.0
 12
407.2756284970067
 22
768.0339191154919
 32
0.0
 13
408.3082140932464
 23
768.0339191154919
 33
0.0
  0
SOLID
  5
1923
330
1F
100
AcDbEntity
  8
LOGO
 62
     5
100
AcDbTrace
 10
410.3733852857264
 20
771.131675904211
 30
0.0
 11
411.4059708819664
 21
771.131675904211
 31
0.0
 12
410.3733852857264
 22
768.0339191154919
 32
0.0
 13
411.4059708819664
 23
768.0339191154919
 33
0.0
  0
SOLID
  5
1924
330
1F
100
AcDbEntity
  8
LOGO
 62
     5
100
AcDbTrace
 10
413.4711420744471
 20
771.131675904211
 30
0.0
 11
414.5037276706864
 21
771.131675904211
 31
0.0
 12
413.4711420744471
 22
768.0339191154891
 32
0.0
 13
414.5037276706864
 23
768.0339191154891
 33
0.0
  0
SOLID
  5
1925
330
1F
100
AcDbEntity
  8
LOGO
 62
     5
100
AcDbTrace
 10
393.3356196892004
 20
773.9196570140596
 30
0.0
 11
394.3682052854434
 21
773.9196570140596
 31
0.0
 12
393.3356196892004
 22
774.7457254910532
 32
0.0
 13
394.3682052854434
 23
774.7457254910532
 33
0.0
  0
SOLID
  5
1926
330
1F
100
AcDbEntity
  8
LOGO
 62
     5
100
AcDbTrace
 10
393.3356196892004
 20
773.1968470966917
 30
0.0
 11
394.3682052854434
 21
773.1968470966917
 31
0.0
 12
393.3356196892004
 22
768.0339191154891
 32
0.0
 13
394.3682052854434
 23
768.0339191154919
 33
0.0
  0
SOLID
  5
1927
330
1F
100
AcDbEntity
  8
LOGO
 62
     5
100
AcDbTrace
 10
403.4895501498304
 20
778.359775077894
 30
0.0
 11
406.4840483789276
 21
778.359775077894
 31
0.0
 12
403.4895501498304
 22
793.5043638227507
 32
0.0
 13
406.4840483789276
 23
804.4841906627739
 33
0.0
  0
SOLID
  5
1928
330
1F
100
AcDbEntity
  8
LOGO
 62
     5
100
AcDbTrace
 10
407.7231510944163
 20
806.7558789745017
 30
0.0
 11
410.7176493235135
 21
806.7558789745037
 31
0.0
 12
407.7231510944163
 22
780.631463389622
 32
0.0
 13
410.7176493235135
 23
791.6112902296447
 33
0.0
  0
SOLID
  5
1929
330
1F
100
AcDbEntity
  8
LOGO
 62
     2
100
AcDbTrace
 10
406.4840483789276
 20
806.7558789745017
 30
0.0
 11
407.7231510944163
 21
806.7558789745017
 31
0.0
 12
406.4840483789276
 22
778.359775077894
 32
0.0
 13
407.7231510944163
 23
778.359775077894
 33
0.0
  0
SOLID
  5
192A
330
1F
100
AcDbEntity
  8
LOGO
 62
     5
100
AcDbTrace
 10
407.7231510944163
 20
780.631463389622
 30
0.0
 11
410.7176493235135
 21
791.6112902296447
 31
0.0
 12
421.9728323225321
 22
806.7558789745037
 32
0.0
 13
418.978334093435
 23
806.7558789745037
 33
0.0
  0
SOLID
  5
192B
330
1F
100
AcDbEntity
  8
LOGO
 62
     5
100
AcDbTrace
 10
407.7231510944163
 20
778.359775077894
 30
0.0
 11
410.7176493235135
 21
778.359775077894
 31
0.0
 12
421.9728323225321
 22
804.4841906627739
 32
0.0
 13
418.978334093435
 23
793.5043638227507
 33
0.0
  0
SOLID
  5
192C
330
1F
100
AcDbEntity
  8
LOGO
 62
     2
100
AcDbTrace
 10
406.4840483789276
 20
778.359775077894
 30
0.0
 11
407.7231510944163
 21
778.359775077894
 31
0.0
 12
421.9728323225321
 22
806.7558789745037
 32
0.0
 13
423.2119350380211
 23
806.7558789745017
 33
0.0
  0
TEXT
  5
192D
330
1F
100
AcDbEntity
  8
0
100
AcDbText
 10
536.5798936831536
 20
742.8283433133524
 30
0.0
 40
5.775117999651
  1
1050713
 41
0.8
  7
CHINESET
 72
     1
 11
550.440176882316
 21
742.8283433133524
 31
0.0
100
AcDbText
  0
LINE
  5
192E
330
1F
100
AcDbEntity
  8
LOGO
 62
     1
100
AcDbLine
 10
568.2587994564047
 20
752.9953229640359
 30
0.0
 11
568.2587994564057
 21
739.1438892919418
 31
0.0
  0
LINE
  5
192F
330
1F
100
AcDbEntity
  8
LOGO
 62
     1
100
AcDbLine
 10
568.2587994564047
 20
752.9953229640359
 30
0.0
 11
533.1809942325604
 21
752.9953229640359
 31
0.0
  0
LWPOLYLINE
  5
1930
330
1F
100
AcDbEntity
  8
0
 62
     1
100
AcDbPolyline
 90
        4
 70
     1
 43
0.0
 10
380.8152238395246
 20
808.4010576524127
 10
1305.496147866495
 20
808.4010576524127
 10
1305.496147866495
 20
739.1438892919416
 10
380.8152238395246
 20
739.1438892919416
1001
GENIUS_GENREC_14
1002
{
1000
PYDIR
1011
380.8152238395246
1021
739.1438892919416
1031
0.0
1002
}
1002
{
1000
PXDIR
1011
1305.496147866495
1021
808.4010576524127
1031
0.0
1002
}
1002
{
1000
PORI
1011
380.8152238395246
1021
808.4010576524127
1031
0.0
1002
}
1002
{
1000
PINS
1011
380.8152238395246
1021
808.4010576524127
1031
0.0
1002
}
1002
{
1000
PINS2
1011
1305.496147866495
1021
739.1438892919416
1031
0.0
1002
}
1002
{
1000
C
1070
     1
1002
}
1001
GENIUS_GENOBJ-N-REC_13
1002
{
1000
OWNER
1000
GEN
1002
}
1001
GENIUS_GENODEF_13
1002
{
1000
HIER
1070
     0
1002
}
1002
{
1000
MANEDIT
1070
     0
1002
}
1002
{
1000
NOSEL
1070
     0
1002
}
1002
{
1000
BEHIND
1070
     0
1002
}
1002
{
1000
OTHER
1070
     0
1002
}
1002
{
1000
REACTOR
1002
}
  0
LINE
  5
194B
330
1F
100
AcDbEntity
  8
LOGO
100
AcDbLine
 10
774.9879649797621
 20
825.0790132187649
 30
0.0
 11
607.3752274797617
 21
825.0790132187649
 31
0.0
  0
TEXT
  5
194C
330
1F
100
AcDbEntity
  8
LOGO
100
AcDbText
 10
618.5900634916422
 20
847.3520252415358
 30
0.0
 40
8.58
  1
型式
100
AcDbText
  0
TEXT
  5
194D
330
1F
100
AcDbEntity
  8
LOGO
100
AcDbText
 10
615.4390960824789
 20
839.1356995415709
 30
0.0
 40
6.864
  1
Model
 41
0.8
  7
ROMANS1
 72
     1
 11
626.9444675110503
 21
842.5676995415708
 31
0.0
100
AcDbText
 73
     2
  0
TEXT
  5
194E
330
1F
100
AcDbEntity
  8
LOGO
100
AcDbText
 10
650.7769959640312
 20
853.8950398536981
 30
0.0
 40
6.864
  1
MGTB
  7
ROMANS
100
AcDbText
  0
TEXT
  5
194F
330
1F
100
AcDbEntity
  8
LOGO
100
AcDbText
 10
650.8322793352678
 20
832.4004216473177
 30
0.0
 40
6.864
  1
MGTU
  7
ROMANS
100
AcDbText
  0
TEXT
  5
1950
330
1F
100
AcDbEntity
  8
LOGO
100
AcDbText
 10
684.6282165520545
 20
836.5709218568026
 30
0.0
 40
8.58
  1
線性軸承
100
AcDbText
  0
TEXT
  5
1951
330
1F
100
AcDbEntity
  8
LOGO
100
AcDbText
 10
685.2849382481545
 20
828.3545961568373
 30
0.0
 40
6.864
  1
Linear bearing guide
 41
0.8
  7
ROMANS1
 72
     1
 11
729.0837953910116
 21
831.7865961568374
 31
0.0
100
AcDbText
 73
     2
  0
TEXT
  5
1952
330
1F
100
AcDbEntity
  8
LOGO
100
AcDbText
 10
684.6282165520545
 20
858.264916117554
 30
0.0
 40
8.58
  1
含油軸襯
100
AcDbText
  0
TEXT
  5
1953
330
1F
100
AcDbEntity
  8
LOGO
100
AcDbText
 10
685.7512109372919
 20
850.0485904175885
 30
0.0
 40
6.864
  1
Brass bush guide
 41
0.8
  7
ROMANS1
 72
     1
 11
723.2744109372919
 21
853.4805904175886
 31
0.0
100
AcDbText
 73
     2
  0
LINE
  5
1954
330
1F
100
AcDbEntity
  8
LOGO
100
AcDbLine
 10
774.9879649797621
 20
867.9790132187649
 30
0.0
 11
607.3752274797617
 21
867.9790132187649
 31
0.0
  0
LINE
  5
1955
330
1F
100
AcDbEntity
  8
LOGO
100
AcDbLine
 10
607.3752274797617
 20
867.9790132187648
 30
0.0
 11
607.3752274797617
 21
825.0790132187649
 31
0.0
  0
LINE
  5
1956
330
1F
100
AcDbEntity
  8
LOGO
100
AcDbLine
 10
646.8432274797619
 20
867.9790132187649
 30
0.0
 11
646.8432274797619
 21
825.0790132187649
 31
0.0
  0
LINE
  5
1957
330
1F
100
AcDbEntity
  8
LOGO
100
AcDbLine
 10
774.9879649797621
 20
867.9790132187649
 30
0.0
 11
774.9879649797621
 21
825.0790132187649
 31
0.0
  0
LINE
  5
1958
330
1F
100
AcDbEntity
  8
LOGO
100
AcDbLine
 10
679.4472274797617
 20
867.9790132187649
 30
0.0
 11
679.4472274797617
 21
825.0790132187649
 31
0.0
  0
LINE
  5
1959
330
1F
100
AcDbEntity
  8
LOGO
100
AcDbLine
 10
774.9879649797621
 20
846.5290132187648
 30
0.0
 11
646.8432274797619
 21
846.5290132187648
 31
0.0
  0
TEXT
  5
195A
330
1F
100
AcDbEntity
  8
LOGO
  6
Continuous
 62
     7
100
AcDbText
 10
632.6735856202986
 20
785.1775153707515
 30
0.0
 40
11.54630323769057
  1
MGTB/MGTU
  7
CHINESET
 72
     1
 11
682.9824782988075
 21
790.9506669895968
 31
0.0
100
AcDbText
 73
     2
  0
TEXT
  5
195E
330
1F
100
AcDbEntity
  8
0
100
AcDbText
 10
1057.191172002164
 20
1268.453141716739
 30
0.0
 40
14.6718
  1
RP 後支撐板
  7
CHINESET
100
AcDbText
  0
LINE
  5
1D08
330
1F
100
AcDbEntity
  8
0
 62
     4
100
AcDbLine
 10
1040.672354029437
 20
1303.502062966149
 30
0.0
 11
1040.672354029437
 21
808.4010576524123
 31
0.0
  0
LINE
  5
560F
330
1F
100
AcDbEntity
  8
AM_VIS
100
AcDbLine
 10
577.5049850119783
 20
1039.709370346207
 30
0.0
 11
673.5049850119783
 21
1039.709370346207
 31
0.0
  0
LINE
  5
5610
330
1F
100
AcDbEntity
  8
AM_VIS
100
AcDbLine
 10
673.5049850119783
 20
995.2593703462072
 30
0.0
 11
577.5049850119783
 21
995.2593703462072
 31
0.0
  0
LINE
  5
5611
330
1F
100
AcDbEntity
  8
AM_VIS
100
AcDbLine
 10
577.5049850119783
 20
1000.559370346207
 30
0.0
 11
673.5049850119783
 21
1000.559370346207
 31
0.0
  0
LINE
  5
5612
330
1F
100
AcDbEntity
  8
AM_VIS
100
AcDbLine
 10
673.5049850119783
 20
1006.540361507955
 30
0.0
 11
673.5049850119783
 21
1003.529904283325
 31
0.0
  0
LINE
  5
5613
330
1F
100
AcDbEntity
  8
AM_VIS
100
AcDbLine
 10
577.5049850119783
 20
979.7093703462074
 30
0.0
 11
673.5049850119783
 21
979.7093703462074
 31
0.0
  0
LINE
  5
5614
330
1F
100
AcDbEntity
  8
AM_VIS
100
AcDbLine
 10
777.5049850119783
 20
1071.709370346207
 30
0.0
 11
772.5049850119782
 21
1071.709370346207
 31
0.0
  0
LINE
  5
5615
330
1F
100
AcDbEntity
  8
AM_VIS
100
AcDbLine
 10
622.5049850119782
 20
1071.709370346207
 30
0.0
 11
532.5049850119783
 21
1071.709370346207
 31
0.0
  0
LINE
  5
5616
330
1F
100
AcDbEntity
  8
AM_VIS
100
AcDbLine
 10
777.5049850119783
 20
1051.709370346207
 30
0.0
 11
772.5049850119782
 21
1051.709370346207
 31
0.0
  0
LINE
  5
5617
330
1F
100
AcDbEntity
  8
AM_VIS
100
AcDbLine
 10
622.5049850119782
 20
1051.709370346207
 30
0.0
 11
532.5049850119783
 21
1051.709370346207
 31
0.0
  0
LINE
  5
5618
330
1F
100
AcDbEntity
  8
AM_VIS
100
AcDbLine
 10
531.5049850119783
 20
1052.709370346207
 30
0.0
 11
532.5049850119783
 21
1051.709370346207
 31
0.0
  0
LINE
  5
5619
330
1F
100
AcDbEntity
  8
AM_VIS
100
AcDbLine
 10
531.5049850119783
 20
1070.709370346207
 30
0.0
 11
532.5049850119783
 21
1071.709370346207
 31
0.0
  0
LINE
  5
561A
330
1F
100
AcDbEntity
  8
AM_VIS
100
AcDbLine
 10
532.5049850119783
 20
1071.709370346207
 30
0.0
 11
532.5049850119783
 21
1051.709370346207
 31
0.0
  0
LINE
  5
561B
330
1F
100
AcDbEntity
  8
AM_VIS
100
AcDbLine
 10
531.5049850119783
 20
1052.709370346207
 30
0.0
 11
531.5049850119783
 21
1070.709370346207
 31
0.0
  0
LINE
  5
561C
330
1F
100
AcDbEntity
  8
AM_VIS
100
AcDbLine
 10
777.5049850119783
 20
967.7093703462073
 30
0.0
 11
772.5049850119782
 21
967.7093703462073
 31
0.0
  0
LINE
  5
561D
330
1F
100
AcDbEntity
  8
AM_VIS
100
AcDbLine
 10
622.5049850119782
 20
967.7093703462073
 30
0.0
 11
532.5049850119783
 21
967.7093703462073
 31
0.0
  0
LINE
  5
561E
330
1F
100
AcDbEntity
  8
AM_VIS
100
AcDbLine
 10
777.5049850119783
 20
947.7093703462074
 30
0.0
 11
772.5049850119782
 21
947.7093703462074
 31
0.0
  0
LINE
  5
561F
330
1F
100
AcDbEntity
  8
AM_VIS
100
AcDbLine
 10
622.5049850119782
 20
947.7093703462074
 30
0.0
 11
532.5049850119783
 21
947.7093703462074
 31
0.0
  0
LINE
  5
5620
330
1F
100
AcDbEntity
  8
AM_VIS
100
AcDbLine
 10
531.5049850119783
 20
948.7093703462074
 30
0.0
 11
532.5049850119783
 21
947.7093703462074
 31
0.0
  0
LINE
  5
5621
330
1F
100
AcDbEntity
  8
AM_VIS
100
AcDbLine
 10
531.5049850119783
 20
966.7093703462073
 30
0.0
 11
532.5049850119783
 21
967.7093703462073
 31
0.0
  0
LINE
  5
5622
330
1F
100
AcDbEntity
  8
AM_VIS
100
AcDbLine
 10
532.5049850119783
 20
967.7093703462073
 30
0.0
 11
532.5049850119783
 21
947.7093703462074
 31
0.0
  0
LINE
  5
5623
330
1F
100
AcDbEntity
  8
AM_VIS
100
AcDbLine
 10
531.5049850119783
 20
948.7093703462074
 30
0.0
 11
531.5049850119783
 21
966.7093703462073
 31
0.0
  0
LINE
  5
5624
330
1F
100
AcDbEntity
  8
AM_VIS
100
AcDbLine
 10
762.5049850119783
 20
982.7093703462074
 30
0.0
 11
777.5049850119783
 21
982.7093703462074
 31
0.0
  0
LINE
  5
5625
330
1F
100
AcDbEntity
  8
AM_VIS
100
AcDbLine
 10
762.5049850119783
 20
1036.709370346207
 30
0.0
 11
777.5049850119783
 21
1036.709370346207
 31
0.0
  0
LINE
  5
5626
330
1F
100
AcDbEntity
  8
AM_VIS
100
AcDbLine
 10
762.5049850119783
 20
982.7093703462074
 30
0.0
 11
762.5049850119783
 21
1036.709370346207
 31
0.0
  0
LINE
  5
5627
330
1F
100
AcDbEntity
  8
AM_VIS
100
AcDbLine
 10
797.5049850119782
 20
942.2093703462074
 30
0.0
 11
777.5049850119783
 21
942.2093703462074
 31
0.0
  0
LINE
  5
5628
330
1F
100
AcDbEntity
  8
AM_VIS
100
AcDbLine
 10
797.5049850119782
 20
1077.209370346207
 30
0.0
 11
777.5049850119783
 21
1077.209370346207
 31
0.0
  0
LINE
  5
5629
330
1F
100
AcDbEntity
  8
AM_VIS
100
AcDbLine
 10
777.5049850119783
 20
1077.209370346207
 30
0.0
 11
777.5049850119783
 21
942.2093703462074
 31
0.0
  0
LINE
  5
562A
330
1F
100
AcDbEntity
  8
AM_VIS
100
AcDbLine
 10
797.5049850119782
 20
942.2093703462074
 30
0.0
 11
797.5049850119782
 21
1077.209370346207
 31
0.0
  0
LINE
  5
562B
330
1F
100
AcDbEntity
  8
AM_VIS
100
AcDbLine
 10
703.5049850119783
 20
976.2093703462074
 30
0.0
 11
703.5049850119783
 21
1043.209370346207
 31
0.0
  0
LINE
  5
562C
330
1F
100
AcDbEntity
  8
AM_VIS
100
AcDbLine
 10
622.5049850119782
 20
976.2093703462074
 30
0.0
 11
703.5049850119783
 21
976.2093703462074
 31
0.0
  0
LINE
  5
562D
330
1F
100
AcDbEntity
  8
AM_VIS
100
AcDbLine
 10
622.5049850119782
 20
939.4593703462074
 30
0.0
 11
622.5049850119782
 21
976.2093703462074
 31
0.0
  0
LINE
  5
562E
330
1F
100
AcDbEntity
  8
AM_VIS
100
AcDbLine
 10
772.5049850119782
 20
976.2093703462074
 30
0.0
 11
772.5049850119782
 21
939.4593703462074
 31
0.0
  0
LINE
  5
562F
330
1F
100
AcDbEntity
  8
AM_VIS
100
AcDbLine
 10
729.5049850119783
 20
976.2093703462074
 30
0.0
 11
772.5049850119782
 21
976.2093703462074
 31
0.0
  0
LINE
  5
5630
330
1F
100
AcDbEntity
  8
AM_VIS
100
AcDbLine
 10
729.5049850119783
 20
1043.209370346207
 30
0.0
 11
729.5049850119783
 21
976.2093703462074
 31
0.0
  0
LINE
  5
5631
330
1F
100
AcDbEntity
  8
AM_VIS
100
AcDbLine
 10
772.5049850119782
 20
1043.209370346207
 30
0.0
 11
729.5049850119783
 21
1043.209370346207
 31
0.0
  0
LINE
  5
5632
330
1F
100
AcDbEntity
  8
AM_VIS
100
AcDbLine
 10
772.5049850119782
 20
1079.959370346207
 30
0.0
 11
772.5049850119782
 21
1043.209370346207
 31
0.0
  0
LINE
  5
5633
330
1F
100
AcDbEntity
  8
AM_VIS
100
AcDbLine
 10
622.5049850119782
 20
1043.209370346207
 30
0.0
 11
622.5049850119782
 21
1079.959370346207
 31
0.0
  0
LINE
  5
5634
330
1F
100
AcDbEntity
  8
AM_VIS
100
AcDbLine
 10
703.5049850119783
 20
1043.209370346207
 30
0.0
 11
622.5049850119782
 21
1043.209370346207
 31
0.0
  0
LINE
  5
5635
330
1F
100
AcDbEntity
  8
AM_VIS
100
AcDbLine
 10
657.0049850119783
 20
939.4593703462074
 30
0.0
 11
622.5049850119782
 21
939.4593703462074
 31
0.0
  0
LINE
  5
5636
330
1F
100
AcDbEntity
  8
AM_VIS
100
AcDbLine
 10
772.5049850119782
 20
939.4593703462074
 30
0.0
 11
737.5049850119783
 21
939.4593703462074
 31
0.0
  0
LINE
  5
5637
330
1F
100
AcDbEntity
  8
AM_VIS
100
AcDbLine
 10
737.5049850119783
 20
1079.959370346207
 30
0.0
 11
772.5049850119782
 21
1079.959370346207
 31
0.0
  0
LINE
  5
5638
330
1F
100
AcDbEntity
  8
AM_VIS
100
AcDbLine
 10
622.5049850119782
 20
1079.959370346207
 30
0.0
 11
657.0049850119783
 21
1079.959370346207
 31
0.0
  0
LINE
  5
5639
330
1F
100
AcDbEntity
  8
AM_VIS
100
AcDbLine
 10
657.0049850119783
 20
939.2093703462073
 30
0.0
 11
657.0049850119783
 21
939.4593703462074
 31
0.0
  0
LINE
  5
563A
330
1F
100
AcDbEntity
  8
AM_VIS
100
AcDbLine
 10
737.5049850119783
 20
939.4593703462074
 30
0.0
 11
737.5049850119783
 21
939.2093703462073
 31
0.0
  0
LINE
  5
563B
330
1F
100
AcDbEntity
  8
AM_VIS
100
AcDbLine
 10
737.5049850119783
 20
1080.209370346207
 30
0.0
 11
737.5049850119783
 21
1079.959370346207
 31
0.0
  0
LINE
  5
563C
330
1F
100
AcDbEntity
  8
AM_VIS
100
AcDbLine
 10
657.0049850119783
 20
1079.959370346207
 30
0.0
 11
657.0049850119783
 21
1080.209370346207
 31
0.0
  0
LINE
  5
563D
330
1F
100
AcDbEntity
  8
AM_VIS
100
AcDbLine
 10
737.5049850119783
 20
939.2093703462073
 30
0.0
 11
657.0049850119783
 21
939.2093703462073
 31
0.0
  0
LINE
  5
563E
330
1F
100
AcDbEntity
  8
AM_VIS
100
AcDbLine
 10
657.0049850119783
 20
1080.209370346207
 30
0.0
 11
737.5049850119783
 21
1080.209370346207
 31
0.0
  0
LINE
  5
5644
330
1F
100
AcDbEntity
  8
AM_VIS
100
AcDbLine
 10
547.5056656580075
 20
1041.673498866289
 30
0.0
 11
577.504352384452
 21
1042.242711149844
 31
0.0
  0
LINE
  5
5645
330
1F
100
AcDbEntity
  8
AM_VIS
100
AcDbLine
 10
547.5056656580075
 20
977.7452418261255
 30
0.0
 11
577.5043523844522
 21
977.1760295425703
 31
0.0
  0
LINE
  5
5646
330
1F
100
AcDbEntity
  8
AM_VIS
100
AcDbLine
 10
547.5049850119782
 20
1041.709370346207
 30
0.0
 11
547.5049850119782
 21
1036.709370346207
 31
0.0
  0
LINE
  5
5647
330
1F
100
AcDbEntity
  8
AM_VIS
100
AcDbLine
 10
547.5049850119782
 20
1010.709370346207
 30
0.0
 11
547.5049850119782
 21
1036.709370346207
 31
0.0
  0
LINE
  5
5648
330
1F
100
AcDbEntity
  8
AM_VIS
100
AcDbLine
 10
547.5049850119782
 20
1008.709370346207
 30
0.0
 11
547.5049850119782
 21
1010.709370346207
 31
0.0
  0
LINE
  5
5649
330
1F
100
AcDbEntity
  8
AM_VIS
100
AcDbLine
 10
547.5049850119782
 20
982.7093703462074
 30
0.0
 11
547.5049850119782
 21
1008.709370346207
 31
0.0
  0
LINE
  5
564A
330
1F
100
AcDbEntity
  8
AM_VIS
100
AcDbLine
 10
547.5049850119782
 20
982.7093703462074
 30
0.0
 11
547.5049850119782
 21
977.7093703462073
 31
0.0
  0
LINE
  5
564B
330
1F
100
AcDbEntity
  8
AM_VIS
100
AcDbLine
 10
577.5049850119783
 20
982.2093703462073
 30
0.0
 11
577.5049850119783
 21
984.7093703462073
 31
0.0
  0
LINE
  5
564C
330
1F
100
AcDbEntity
  8
AM_VIS
100
AcDbLine
 10
577.5049850119783
 20
1034.709370346207
 30
0.0
 11
577.5049850119783
 21
1037.209370346207
 31
0.0
  0
LINE
  5
564D
330
1F
100
AcDbEntity
  8
AM_VIS
100
AcDbLine
 10
577.5049850119783
 20
1042.209370346207
 30
0.0
 11
577.5049850119783
 21
1037.209370346207
 31
0.0
  0
LINE
  5
564E
330
1F
100
AcDbEntity
  8
AM_VIS
100
AcDbLine
 10
577.5049850119783
 20
982.2093703462073
 30
0.0
 11
577.5049850119783
 21
977.2093703462074
 31
0.0
  0
LINE
  5
564F
330
1F
100
AcDbEntity
  8
AM_VIS
100
AcDbLine
 10
549.0049850119783
 20
987.4039828527726
 30
0.0
 11
549.0049850119783
 21
1032.014757839642
 31
0.0
  0
LINE
  5
5650
330
1F
100
AcDbEntity
  8
AM_VIS
100
AcDbLine
 10
550.9526311153625
 20
1034.014072489593
 30
0.0
 11
577.5049850119783
 21
1034.709370346207
 31
0.0
  0
LINE
  5
5651
330
1F
100
AcDbEntity
  8
AM_VIS
100
AcDbLine
 10
577.5049850119783
 20
984.7093703462073
 30
0.0
 11
577.5049850119783
 21
1034.709370346207
 31
0.0
  0
LINE
  5
5652
330
1F
100
AcDbEntity
  8
AM_VIS
100
AcDbLine
 10
577.5049850119783
 20
984.7093703462073
 30
0.0
 11
550.9526311153625
 21
985.4046682028213
 31
0.0
  0
LINE
  5
5653
330
1F
100
AcDbEntity
  8
AM_VIS
100
AcDbLine
 10
544.5021843218667
 20
989.4345803979657
 30
0.0
 11
547.5049850119782
 21
989.2093703462073
 31
0.0
  0
LINE
  5
5654
330
1F
100
AcDbEntity
  8
AM_VIS
100
AcDbLine
 10
544.5021843218667
 20
1029.984160294449
 30
0.0
 11
547.5049850119782
 21
1030.209370346207
 31
0.0
  0
LINE
  5
5655
330
1F
100
AcDbEntity
  8
AM_VIS
100
AcDbLine
 10
543.5049850119782
 20
990.5093703462073
 30
0.0
 11
544.5021843218667
 21
989.4345803979657
 31
0.0
  0
LINE
  5
5656
330
1F
100
AcDbEntity
  8
AM_VIS
100
AcDbLine
 10
543.5049850119784
 20
1028.909370346207
 30
0.0
 11
544.5021843218669
 21
1029.984160294449
 31
0.0
  0
LINE
  5
565D
330
1F
100
AcDbEntity
  8
AM_VIS
100
AcDbLine
 10
544.5021843218667
 20
1029.984160294449
 30
0.0
 11
544.5021843218667
 21
989.4345803979657
 31
0.0
  0
LINE
  5
565E
330
1F
100
AcDbEntity
  8
AM_VIS
100
AcDbLine
 10
543.5049850119782
 20
990.5093703462073
 30
0.0
 11
543.5049850119782
 21
1028.909370346207
 31
0.0
  0
CIRCLE
  5
565F
330
1F
100
AcDbEntity
  8
AM_VIS
100
AcDbCircle
 10
562.0049850119783
 20
1005.709370346207
 30
0.0
 40
9.5
  0
ARC
  5
5660
330
1F
100
AcDbEntity
  8
AM_VIS
100
AcDbCircle
 10
551.0049850119782
 20
1032.014757839642
 30
0.0
 40
2.0
100
AcDbArc
 50
91.50000000000281
 51
180.0
  0
ARC
  5
5661
330
1F
100
AcDbEntity
  8
AM_VIS
100
AcDbCircle
 10
551.0049850119782
 20
987.4039828527726
 30
0.0
 40
2.0
100
AcDbArc
 50
180.0
 51
268.4999999999972
  0
LINE
  5
5665
330
1F
100
AcDbEntity
  8
AM_VIS
100
AcDbLine
 10
673.5056176395046
 20
977.1760295425703
 30
0.0
 11
703.5043043659491
 21
977.7452418261255
 31
0.0
  0
LINE
  5
5666
330
1F
100
AcDbEntity
  8
AM_VIS
100
AcDbLine
 10
673.5056176395045
 20
1042.242711149844
 30
0.0
 11
703.5043043659493
 21
1041.673498866289
 31
0.0
  0
LINE
  5
5667
330
1F
100
AcDbEntity
  8
AM_VIS
100
AcDbLine
 10
673.5049850119783
 20
984.7093703462073
 30
0.0
 11
673.5049850119783
 21
982.2093703462073
 31
0.0
  0
LINE
  5
5668
330
1F
100
AcDbEntity
  8
AM_VIS
100
AcDbLine
 10
673.5049850119783
 20
982.2093703462073
 30
0.0
 11
673.5049850119783
 21
977.2093703462074
 31
0.0
  0
LINE
  5
5669
330
1F
100
AcDbEntity
  8
AM_VIS
100
AcDbLine
 10
673.5049850119783
 20
1042.209370346207
 30
0.0
 11
673.5049850119783
 21
1037.209370346207
 31
0.0
  0
LINE
  5
566A
330
1F
100
AcDbEntity
  8
AM_VIS
100
AcDbLine
 10
673.5049850119783
 20
1037.209370346207
 30
0.0
 11
673.5049850119783
 21
1034.709370346207
 31
0.0
  0
LINE
  5
566B
330
1F
100
AcDbEntity
  8
AM_VIS
100
AcDbLine
 10
673.5049850119783
 20
1034.709370346207
 30
0.0
 11
700.0573389085941
 21
1034.014072489593
 31
0.0
  0
LINE
  5
566C
330
1F
100
AcDbEntity
  8
AM_VIS
100
AcDbLine
 10
702.0049850119784
 20
1032.014757839642
 30
0.0
 11
702.0049850119784
 21
987.4039828527726
 31
0.0
  0
LINE
  5
566D
330
1F
100
AcDbEntity
  8
AM_VIS
100
AcDbLine
 10
700.0573389085941
 20
985.4046682028215
 30
0.0
 11
673.5049850119783
 21
984.7093703462073
 31
0.0
  0
LINE
  5
566E
330
1F
100
AcDbEntity
  8
AM_VIS
100
AcDbLine
 10
673.5049850119783
 20
1034.709370346207
 30
0.0
 11
673.5049850119783
 21
984.7093703462073
 31
0.0
  0
CIRCLE
  5
5675
330
1F
100
AcDbEntity
  8
AM_VIS
100
AcDbCircle
 10
689.0049850119784
 20
1005.709370346207
 30
0.0
 40
9.5
  0
ARC
  5
5676
330
1F
100
AcDbEntity
  8
AM_VIS
100
AcDbCircle
 10
700.0049850119783
 20
1032.014757839642
 30
0.0
 40
2.0
100
AcDbArc
 50
0.0
 51
88.49999999999718
  0
ARC
  5
5677
330
1F
100
AcDbEntity
  8
AM_VIS
100
AcDbCircle
 10
700.0049850119784
 20
987.4039828527726
 30
0.0
 40
2.0
100
AcDbArc
 50
271.5000000000028
 51
0.0
  0
LINE
  5
567B
330
1F
100
AcDbEntity
  8
AM_VIS
100
AcDbLine
 10
886.795229109526
 20
1034.709370346207
 30
0.0
 11
888.2378567103156
 21
1032.209370346207
 31
0.0
  0
LINE
  5
567C
330
1F
100
AcDbEntity
  8
AM_VIS
100
AcDbLine
 10
886.795229109526
 20
1029.709370346207
 30
0.0
 11
883.905484311105
 21
1029.709370346207
 31
0.0
  0
LINE
  5
567D
330
1F
100
AcDbEntity
  8
AM_VIS
100
AcDbLine
 10
888.2378567103156
 20
1032.209370346207
 30
0.0
 11
886.795229109526
 21
1029.709370346207
 31
0.0
  0
LINE
  5
567E
330
1F
100
AcDbEntity
  8
AM_VIS
100
AcDbLine
 10
883.905484311105
 20
1034.709370346207
 30
0.0
 11
886.795229109526
 21
1034.709370346207
 31
0.0
  0
LINE
  5
567F
330
1F
100
AcDbEntity
  8
AM_VIS
100
AcDbLine
 10
882.4628567103154
 20
1032.209370346207
 30
0.0
 11
883.905484311105
 21
1034.709370346207
 31
0.0
  0
LINE
  5
5680
330
1F
100
AcDbEntity
  8
AM_VIS
100
AcDbLine
 10
883.905484311105
 20
1029.709370346207
 30
0.0
 11
882.4628567103154
 21
1032.209370346207
 31
0.0
  0
CIRCLE
  5
5681
330
1F
100
AcDbEntity
  8
AM_VIS
100
AcDbCircle
 10
885.3503567103155
 20
1032.209370346207
 30
0.0
 40
5.000000000000028
  0
LINE
  5
5682
330
1F
100
AcDbEntity
  8
AM_VIS
100
AcDbLine
 10
887.662152549052
 20
1065.709370346207
 30
0.0
 11
889.9703567103154
 21
1061.709370346207
 31
0.0
  0
LINE
  5
5683
330
1F
100
AcDbEntity
  8
AM_VIS
100
AcDbLine
 10
887.662152549052
 20
1057.709370346207
 30
0.0
 11
883.038560871579
 21
1057.709370346207
 31
0.0
  0
LINE
  5
5684
330
1F
100
AcDbEntity
  8
AM_VIS
100
AcDbLine
 10
889.9703567103154
 20
1061.709370346207
 30
0.0
 11
887.662152549052
 21
1057.709370346207
 31
0.0
  0
LINE
  5
5685
330
1F
100
AcDbEntity
  8
AM_VIS
100
AcDbLine
 10
883.038560871579
 20
1065.709370346207
 30
0.0
 11
887.662152549052
 21
1065.709370346207
 31
0.0
  0
LINE
  5
5686
330
1F
100
AcDbEntity
  8
AM_VIS
100
AcDbLine
 10
880.7303567103156
 20
1061.709370346207
 30
0.0
 11
883.038560871579
 21
1065.709370346207
 31
0.0
  0
LINE
  5
5687
330
1F
100
AcDbEntity
  8
AM_VIS
100
AcDbLine
 10
883.038560871579
 20
1057.709370346207
 30
0.0
 11
880.7303567103156
 21
1061.709370346207
 31
0.0
  0
CIRCLE
  5
5688
330
1F
100
AcDbEntity
  8
AM_VIS
100
AcDbCircle
 10
885.3503567103155
 20
1061.709370346207
 30
0.0
 40
7.999999999999971
  0
LINE
  5
569B
330
1F
100
AcDbEntity
  8
AM_VIS
100
AcDbLine
 10
887.662152549052
 20
961.7093703462073
 30
0.0
 11
889.9703567103154
 21
957.7093703462074
 31
0.0
  0
LINE
  5
569C
330
1F
100
AcDbEntity
  8
AM_VIS
100
AcDbLine
 10
887.662152549052
 20
953.7093703462074
 30
0.0
 11
883.038560871579
 21
953.7093703462074
 31
0.0
  0
LINE
  5
569D
330
1F
100
AcDbEntity
  8
AM_VIS
100
AcDbLine
 10
889.9703567103154
 20
957.7093703462074
 30
0.0
 11
887.662152549052
 21
953.7093703462074
 31
0.0
  0
LINE
  5
569E
330
1F
100
AcDbEntity
  8
AM_VIS
100
AcDbLine
 10
883.038560871579
 20
961.7093703462073
 30
0.0
 11
887.662152549052
 21
961.7093703462073
 31
0.0
  0
LINE
  5
569F
330
1F
100
AcDbEntity
  8
AM_VIS
100
AcDbLine
 10
880.7303567103156
 20
957.7093703462074
 30
0.0
 11
883.038560871579
 21
961.7093703462073
 31
0.0
  0
LINE
  5
56A0
330
1F
100
AcDbEntity
  8
AM_VIS
100
AcDbLine
 10
883.038560871579
 20
953.7093703462074
 30
0.0
 11
880.7303567103156
 21
957.7093703462074
 31
0.0
  0
CIRCLE
  5
56A1
330
1F
100
AcDbEntity
  8
AM_VIS
100
AcDbCircle
 10
885.3503567103155
 20
957.7093703462074
 30
0.0
 40
7.999999999999971
  0
LINE
  5
56A2
330
1F
100
AcDbEntity
  8
AM_VIS
100
AcDbLine
 10
886.795229109526
 20
989.7093703462074
 30
0.0
 11
888.2378567103156
 21
987.2093703462073
 31
0.0
  0
LINE
  5
56A3
330
1F
100
AcDbEntity
  8
AM_VIS
100
AcDbLine
 10
886.795229109526
 20
984.7093703462073
 30
0.0
 11
883.905484311105
 21
984.7093703462073
 31
0.0
  0
LINE
  5
56A4
330
1F
100
AcDbEntity
  8
AM_VIS
100
AcDbLine
 10
888.2378567103156
 20
987.2093703462073
 30
0.0
 11
886.795229109526
 21
984.7093703462073
 31
0.0
  0
LINE
  5
56A5
330
1F
100
AcDbEntity
  8
AM_VIS
100
AcDbLine
 10
883.905484311105
 20
989.7093703462074
 30
0.0
 11
886.795229109526
 21
989.7093703462074
 31
0.0
  0
LINE
  5
56A6
330
1F
100
AcDbEntity
  8
AM_VIS
100
AcDbLine
 10
882.4628567103154
 20
987.2093703462073
 30
0.0
 11
883.905484311105
 21
989.7093703462074
 31
0.0
  0
LINE
  5
56A7
330
1F
100
AcDbEntity
  8
AM_VIS
100
AcDbLine
 10
883.905484311105
 20
984.7093703462073
 30
0.0
 11
882.4628567103154
 21
987.2093703462073
 31
0.0
  0
CIRCLE
  5
56A8
330
1F
100
AcDbEntity
  8
AM_VIS
100
AcDbCircle
 10
885.3503567103155
 20
987.2093703462073
 30
0.0
 40
5.000000000000028
  0
LINE
  5
56B3
330
1F
100
AcDbEntity
  8
AM_VIS
100
AcDbLine
 10
852.8503567103154
 20
942.2093703462074
 30
0.0
 11
852.8503567103154
 21
1077.209370346207
 31
0.0
  0
LINE
  5
56B4
330
1F
100
AcDbEntity
  8
AM_VIS
100
AcDbLine
 10
852.8503567103154
 20
1077.209370346207
 30
0.0
 11
917.8503567103154
 21
1077.209370346207
 31
0.0
  0
LINE
  5
56B5
330
1F
100
AcDbEntity
  8
AM_VIS
100
AcDbLine
 10
917.8503567103152
 20
1077.209370346207
 30
0.0
 11
917.8503567103154
 21
942.2093703462074
 31
0.0
  0
LINE
  5
56B6
330
1F
100
AcDbEntity
  8
AM_VIS
100
AcDbLine
 10
917.8503567103154
 20
942.2093703462074
 30
0.0
 11
852.8503567103154
 21
942.2093703462074
 31
0.0
  0
CIRCLE
  5
56B9
330
1F
100
AcDbEntity
  8
AM_VIS
100
AcDbCircle
 10
885.3503567103155
 20
1009.709370346207
 30
0.0
 40
4.456
  0
CIRCLE
  5
56BB
330
1F
100
AcDbEntity
  8
AM_VIS
100
AcDbCircle
 10
885.3503567103155
 20
1009.709370346207
 30
0.0
 40
5.455999999999999
  0
CIRCLE
  5
56BD
330
1F
100
AcDbEntity
  8
AM_VIS
100
AcDbCircle
 10
885.3503567103155
 20
1032.209370346207
 30
0.0
 40
5.5
  0
CIRCLE
  5
56BE
330
1F
100
AcDbEntity
  8
AM_VIS
100
AcDbCircle
 10
885.3503567103155
 20
987.2093703462073
 30
0.0
 40
5.5
  0
CIRCLE
  5
56BF
330
1F
100
AcDbEntity
  8
AM_VIS
100
AcDbCircle
 10
862.1003567103155
 20
1059.709370346207
 30
0.0
 40
4.5
  0
CIRCLE
  5
56C0
330
1F
100
AcDbEntity
  8
AM_VIS
100
AcDbCircle
 10
862.1003567103155
 20
959.7093703462073
 30
0.0
 40
4.5
  0
CIRCLE
  5
56C1
330
1F
100
AcDbEntity
  8
AM_VIS
100
AcDbCircle
 10
908.6003567103155
 20
1059.709370346207
 30
0.0
 40
4.5
  0
CIRCLE
  5
56C2
330
1F
100
AcDbEntity
  8
AM_VIS
100
AcDbCircle
 10
908.6003567103155
 20
959.7093703462073
 30
0.0
 40
4.5
  0
CIRCLE
  5
56C3
330
1F
100
AcDbEntity
  8
AM_VIS
100
AcDbCircle
 10
885.3503567103155
 20
1061.709370346207
 30
0.0
 40
8.5
  0
CIRCLE
  5
56C4
330
1F
100
AcDbEntity
  8
AM_VIS
100
AcDbCircle
 10
885.3503567103155
 20
957.7093703462074
 30
0.0
 40
8.5
  0
CIRCLE
  5
56C9
330
1F
100
AcDbEntity
  8
AM_VIS
100
AcDbCircle
 10
908.6003567103155
 20
998.2093703462073
 30
0.0
 40
3.0
  0
CIRCLE
  5
56CA
330
1F
100
AcDbEntity
  8
AM_VIS
100
AcDbCircle
 10
908.6003567103155
 20
1021.209370346207
 30
0.0
 40
3.0
  0
CIRCLE
  5
56CB
330
1F
100
AcDbEntity
  8
AM_VIS
100
AcDbCircle
 10
862.1003567103155
 20
998.2093703462073
 30
0.0
 40
3.0
  0
CIRCLE
  5
56CC
330
1F
100
AcDbEntity
  8
AM_VIS
100
AcDbCircle
 10
862.1003567103155
 20
1021.209370346207
 30
0.0
 40
3.0
  0
LINE
  5
56CD
330
1F
100
AcDbEntity
  8
AM_VIS
100
AcDbLine
 10
850.3503567103155
 20
976.2093703462074
 30
0.0
 11
850.3503567103155
 21
939.4593703462074
 31
0.0
  0
LINE
  5
56CE
330
1F
100
AcDbEntity
  8
AM_VIS
100
AcDbLine
 10
920.3503567103155
 20
976.2093703462074
 30
0.0
 11
917.8503567103154
 21
976.2093703462074
 31
0.0
  0
LINE
  5
56CF
330
1F
100
AcDbEntity
  8
AM_VIS
100
AcDbLine
 10
852.8503567103154
 20
976.2093703462074
 30
0.0
 11
850.3503567103155
 21
976.2093703462074
 31
0.0
  0
LINE
  5
56D0
330
1F
100
AcDbEntity
  8
AM_VIS
100
AcDbLine
 10
850.3503567103155
 20
1043.209370346207
 30
0.0
 11
850.3503567103155
 21
976.2093703462074
 31
0.0
  0
LINE
  5
56D1
330
1F
100
AcDbEntity
  8
AM_VIS
100
AcDbLine
 10
920.3503567103155
 20
1043.209370346207
 30
0.0
 11
917.8503567103154
 21
1043.209370346207
 31
0.0
  0
LINE
  5
56D2
330
1F
100
AcDbEntity
  8
AM_VIS
100
AcDbLine
 10
852.8503567103154
 20
1043.209370346207
 30
0.0
 11
850.3503567103155
 21
1043.209370346207
 31
0.0
  0
LINE
  5
56D3
330
1F
100
AcDbEntity
  8
AM_VIS
100
AcDbLine
 10
850.3503567103155
 20
1079.959370346207
 30
0.0
 11
850.3503567103155
 21
1043.209370346207
 31
0.0
  0
LINE
  5
56D4
330
1F
100
AcDbEntity
  8
AM_VIS
100
AcDbLine
 10
920.3503567103155
 20
939.4593703462074
 30
0.0
 11
850.3503567103155
 21
939.4593703462074
 31
0.0
  0
LINE
  5
56D5
330
1F
100
AcDbEntity
  8
AM_VIS
100
AcDbLine
 10
920.3503567103155
 20
1079.959370346207
 30
0.0
 11
850.3503567103155
 21
1079.959370346207
 31
0.0
  0
LINE
  5
56D6
330
1F
100
AcDbEntity
  8
AM_VIS
100
AcDbLine
 10
850.3503567103155
 20
939.4593703462074
 30
0.0
 11
850.3503567103155
 21
939.2093703462073
 31
0.0
  0
LINE
  5
56D7
330
1F
100
AcDbEntity
  8
AM_VIS
100
AcDbLine
 10
850.3503567103155
 20
1080.209370346207
 30
0.0
 11
850.3503567103155
 21
1079.959370346207
 31
0.0
  0
LINE
  5
56D8
330
1F
100
AcDbEntity
  8
AM_VIS
100
AcDbLine
 10
920.3503567103155
 20
939.2093703462073
 30
0.0
 11
850.3503567103155
 21
939.2093703462073
 31
0.0
  0
LINE
  5
56D9
330
1F
100
AcDbEntity
  8
AM_VIS
100
AcDbLine
 10
920.3503567103155
 20
1080.209370346207
 30
0.0
 11
850.3503567103155
 21
1080.209370346207
 31
0.0
  0
LINE
  5
56DA
330
1F
100
AcDbEntity
  8
AM_VIS
100
AcDbLine
 10
920.3503567103155
 20
939.2093703462073
 30
0.0
 11
920.3503567103155
 21
939.4593703462074
 31
0.0
  0
LINE
  5
56DB
330
1F
100
AcDbEntity
  8
AM_VIS
100
AcDbLine
 10
920.3503567103155
 20
939.4593703462074
 30
0.0
 11
920.3503567103155
 21
976.2093703462074
 31
0.0
  0
LINE
  5
56DC
330
1F
100
AcDbEntity
  8
AM_VIS
100
AcDbLine
 10
920.3503567103155
 20
976.2093703462074
 30
0.0
 11
920.3503567103155
 21
1043.209370346207
 31
0.0
  0
LINE
  5
56DD
330
1F
100
AcDbEntity
  8
AM_VIS
100
AcDbLine
 10
920.3503567103155
 20
1043.209370346207
 30
0.0
 11
920.3503567103155
 21
1079.959370346207
 31
0.0
  0
LINE
  5
56DE
330
1F
100
AcDbEntity
  8
AM_VIS
100
AcDbLine
 10
920.3503567103155
 20
1079.959370346207
 30
0.0
 11
920.3503567103155
 21
1080.209370346207
 31
0.0
  0
LINE
  5
56E1
330
1F
100
AcDbEntity
  8
AM_VIS
100
AcDbLine
 10
423.9408356372003
 20
1035.268771422966
 30
0.0
 11
427.9408356372003
 21
1037.578172499724
 31
0.0
  0
LINE
  5
56E2
330
1F
100
AcDbEntity
  8
AM_VIS
100
AcDbLine
 10
423.9408356372003
 20
1035.268771422966
 30
0.0
 11
423.9408356372003
 21
1030.649969269449
 31
0.0
  0
LINE
  5
56E3
330
1F
100
AcDbEntity
  8
AM_VIS
100
AcDbLine
 10
423.9408356372003
 20
1030.649969269449
 30
0.0
 11
427.9408356372003
 21
1028.34056819269
 31
0.0
  0
LINE
  5
56E4
330
1F
100
AcDbEntity
  8
AM_VIS
100
AcDbLine
 10
427.9408356372003
 20
1028.34056819269
 30
0.0
 11
431.9408356372003
 21
1030.649969269449
 31
0.0
  0
LINE
  5
56E5
330
1F
100
AcDbEntity
  8
AM_VIS
100
AcDbLine
 10
431.9408356372003
 20
1035.268771422966
 30
0.0
 11
431.9408356372003
 21
1030.649969269449
 31
0.0
  0
LINE
  5
56E6
330
1F
100
AcDbEntity
  8
AM_VIS
100
AcDbLine
 10
427.9408356372003
 20
1037.578172499724
 30
0.0
 11
431.9408356372003
 21
1035.268771422966
 31
0.0
  0
CIRCLE
  5
56E7
330
1F
100
AcDbEntity
  8
AM_VIS
100
AcDbCircle
 10
427.9408356372003
 20
1032.959370346207
 30
0.0
 40
6.5
  0
ARC
  5
56E8
330
1F
100
AcDbEntity
  8
AM_VIS
100
AcDbCircle
 10
427.9408356372003
 20
1032.959370346207
 30
0.0
 40
4.0
100
AcDbArc
 50
0.0
 51
60.00000000000272
  0
ARC
  5
56E9
330
1F
100
AcDbEntity
  8
AM_VIS
100
AcDbCircle
 10
427.9408356372003
 20
1032.959370346207
 30
0.0
 40
4.0
100
AcDbArc
 50
299.9999999999973
 51
0.0
  0
ARC
  5
56EA
330
1F
100
AcDbEntity
  8
AM_VIS
100
AcDbCircle
 10
427.9408356372003
 20
1032.959370346207
 30
0.0
 40
4.0
100
AcDbArc
 50
240.0000000000027
 51
299.9999999999973
  0
ARC
  5
56EB
330
1F
100
AcDbEntity
  8
AM_VIS
100
AcDbCircle
 10
427.9408356372003
 20
1032.959370346207
 30
0.0
 40
4.0
100
AcDbArc
 50
180.0
 51
240.0000000000027
  0
ARC
  5
56EC
330
1F
100
AcDbEntity
  8
AM_VIS
100
AcDbCircle
 10
427.9408356372003
 20
1032.959370346207
 30
0.0
 40
4.0
100
AcDbArc
 50
119.9999999999973
 51
180.0
  0
ARC
  5
56ED
330
1F
100
AcDbEntity
  8
AM_VIS
100
AcDbCircle
 10
427.9408356372003
 20
1032.959370346207
 30
0.0
 40
4.0
100
AcDbArc
 50
90.0
 51
119.9999999999973
  0
ARC
  5
56EE
330
1F
100
AcDbEntity
  8
AM_VIS
100
AcDbCircle
 10
427.9408356372003
 20
1032.959370346207
 30
0.0
 40
4.0
100
AcDbArc
 50
60.00000000000272
 51
90.0
  0
CIRCLE
  5
56EF
330
1F
100
AcDbEntity
  8
AM_VIS
100
AcDbCircle
 10
427.9408356372003
 20
1032.959370346207
 30
0.0
 40
3.399999999999999
  0
CIRCLE
  5
56F0
330
1F
100
AcDbEntity
  8
AM_VIS
100
AcDbCircle
 10
451.1908356372003
 20
1061.709370346207
 30
0.0
 40
10.0
  0
LINE
  5
56F1
330
1F
100
AcDbEntity
  8
AM_VIS
100
AcDbLine
 10
486.1908356372002
 20
976.2093703462074
 30
0.0
 11
486.1908356372002
 21
1043.209370346207
 31
0.0
  0
LINE
  5
56F2
330
1F
100
AcDbEntity
  8
AM_VIS
100
AcDbLine
 10
416.1908356372002
 20
976.2093703462074
 30
0.0
 11
486.1908356372002
 21
976.2093703462074
 31
0.0
  0
LINE
  5
56F3
330
1F
100
AcDbEntity
  8
AM_VIS
100
AcDbLine
 10
486.1908356372002
 20
939.4593703462074
 30
0.0
 11
486.1908356372002
 21
976.2093703462074
 31
0.0
  0
LINE
  5
56F4
330
1F
100
AcDbEntity
  8
AM_VIS
100
AcDbLine
 10
486.1908356372002
 20
1043.209370346207
 30
0.0
 11
486.1908356372002
 21
1079.959370346207
 31
0.0
  0
LINE
  5
56F5
330
1F
100
AcDbEntity
  8
AM_VIS
100
AcDbLine
 10
416.1908356372002
 20
1043.209370346207
 30
0.0
 11
486.1908356372002
 21
1043.209370346207
 31
0.0
  0
LINE
  5
56F6
330
1F
100
AcDbEntity
  8
AM_VIS
100
AcDbLine
 10
416.1908356372002
 20
939.4593703462074
 30
0.0
 11
486.1908356372002
 21
939.4593703462074
 31
0.0
  0
LINE
  5
56F7
330
1F
100
AcDbEntity
  8
AM_VIS
100
AcDbLine
 10
416.1908356372002
 20
1079.959370346207
 30
0.0
 11
486.1908356372002
 21
1079.959370346207
 31
0.0
  0
LINE
  5
56F8
330
1F
100
AcDbEntity
  8
AM_VIS
100
AcDbLine
 10
486.1908356372002
 20
939.2093703462073
 30
0.0
 11
486.1908356372002
 21
939.4593703462074
 31
0.0
  0
LINE
  5
56F9
330
1F
100
AcDbEntity
  8
AM_VIS
100
AcDbLine
 10
486.1908356372002
 20
1079.959370346207
 30
0.0
 11
486.1908356372002
 21
1080.209370346207
 31
0.0
  0
LINE
  5
56FA
330
1F
100
AcDbEntity
  8
AM_VIS
100
AcDbLine
 10
416.1908356372002
 20
939.2093703462073
 30
0.0
 11
486.1908356372002
 21
939.2093703462073
 31
0.0
  0
LINE
  5
56FB
330
1F
100
AcDbEntity
  8
AM_VIS
100
AcDbLine
 10
416.1908356372002
 20
1080.209370346207
 30
0.0
 11
486.1908356372002
 21
1080.209370346207
 31
0.0
  0
LINE
  5
56FC
330
1F
100
AcDbEntity
  8
AM_VIS
100
AcDbLine
 10
416.1908356372002
 20
976.2093703462074
 30
0.0
 11
416.1908356372002
 21
939.4593703462074
 31
0.0
  0
LINE
  5
56FD
330
1F
100
AcDbEntity
  8
AM_VIS
100
AcDbLine
 10
416.1908356372002
 20
939.4593703462074
 30
0.0
 11
416.1908356372002
 21
939.2093703462073
 31
0.0
  0
LINE
  5
56FE
330
1F
100
AcDbEntity
  8
AM_VIS
100
AcDbLine
 10
416.1908356372002
 20
1080.209370346207
 30
0.0
 11
416.1908356372002
 21
1079.959370346207
 31
0.0
  0
LINE
  5
56FF
330
1F
100
AcDbEntity
  8
AM_VIS
100
AcDbLine
 10
416.1908356372002
 20
1079.959370346207
 30
0.0
 11
416.1908356372002
 21
1043.209370346207
 31
0.0
  0
LINE
  5
5700
330
1F
100
AcDbEntity
  8
AM_VIS
100
AcDbLine
 10
416.1908356372002
 20
1043.209370346207
 30
0.0
 11
416.1908356372002
 21
976.2093703462074
 31
0.0
  0
CIRCLE
  5
5701
330
1F
100
AcDbEntity
  8
AM_VIS
100
AcDbCircle
 10
451.1908356372003
 20
1061.709370346207
 30
0.0
 40
16.0
  0
SPLINE
  5
5702
330
1F
100
AcDbEntity
  8
AM_VIS
100
AcDbSpline
210
0.0
220
0.0
230
1.0
 70
     8
 71
     3
 72
     8
 73
     4
 74
     0
 42
0.0000000001
 43
0.0000000001
 40
-22.29898939943174
 40
-22.29898939943174
 40
-22.29898939943174
 40
-22.29898939943174
 40
0.0
 40
0.0
 40
0.0
 40
0.0
 10
483.2130957392997
 20
1034.014072489593
 30
0.0
 10
483.3100784777957
 20
1034.231133114184
 30
0.0
 10
483.6908356372003
 20
1034.514797181931
 30
0.0
 10
483.6908356372003
 20
1034.709370346207
 30
0.0
  0
LINE
  5
5703
330
1F
100
AcDbEntity
  8
AM_VIS
100
AcDbLine
 10
483.1934795849933
 20
1032.014771673924
 30
0.0
 11
483.2068406787946
 21
1034.014114290558
 31
0.0
  0
LINE
  5
5704
330
1F
100
AcDbEntity
  8
AM_VIS
100
AcDbLine
 10
483.1955497350719
 20
1032.014757839642
 30
0.0
 11
483.1955497350719
 21
987.4039828527726
 31
0.0
  0
LINE
  5
5705
330
1F
100
AcDbEntity
  8
AM_VIS
100
AcDbLine
 10
483.1936783450813
 20
987.403970661783
 30
0.0
 11
483.20670287979
 21
985.4046265571534
 31
0.0
  0
SPLINE
  5
5706
330
1F
100
AcDbEntity
  8
AM_VIS
100
AcDbSpline
210
0.0
220
0.0
230
1.0
 70
     8
 71
     3
 72
     8
 73
     4
 74
     0
 42
0.0000000001
 43
0.0000000001
 40
-25.43425800388492
 40
-25.43425800388492
 40
-25.43425800388492
 40
-25.43425800388492
 40
-1.939629892379866
 40
-1.939629892379866
 40
-1.939629892379866
 40
-1.939629892379866
 10
483.6908356372003
 20
984.7093703462073
 30
0.0
 10
483.6908356372003
 20
984.9039435104828
 30
0.0
 10
483.3100784777957
 20
985.1876075782302
 30
0.0
 10
483.2130957392997
 20
985.4046682028213
 30
0.0
  0
LINE
  5
5707
330
1F
100
AcDbEntity
  8
AM_VIS
100
AcDbLine
 10
452.1908356372002
 20
1041.709370346207
 30
0.0
 11
450.1908356372003
 21
1041.709370346207
 31
0.0
  0
LINE
  5
5708
330
1F
100
AcDbEntity
  8
AM_VIS
100
AcDbLine
 10
478.1908356372002
 20
1041.709370346207
 30
0.0
 11
452.1908356372002
 21
1041.709370346207
 31
0.0
  0
ARC
  5
5709
330
1F
100
AcDbEntity
  8
AM_VIS
100
AcDbCircle
 10
478.1908356359897
 20
1036.709370344996
 30
0.0
 40
5.000000001210633
100
AcDbArc
 50
0.0000000277486857
 51
90.0
  0
LINE
  5
570A
330
1F
100
AcDbEntity
  8
AM_VIS
100
AcDbLine
 10
483.1908356372003
 20
1010.709370346207
 30
0.0
 11
483.1908356372003
 21
1036.709370346207
 31
0.0
  0
LINE
  5
570B
330
1F
100
AcDbEntity
  8
AM_VIS
100
AcDbLine
 10
483.1908356372003
 20
1008.709370346207
 30
0.0
 11
483.1908356372003
 21
1010.709370346207
 31
0.0
  0
LINE
  5
570C
330
1F
100
AcDbEntity
  8
AM_VIS
100
AcDbLine
 10
483.1908356372003
 20
982.7093703462074
 30
0.0
 11
483.1908356372003
 21
1008.709370346207
 31
0.0
  0
ARC
  5
570D
330
1F
100
AcDbEntity
  8
AM_VIS
100
AcDbCircle
 10
478.1908356359897
 20
982.7093703474179
 30
0.0
 40
5.000000001210615
100
AcDbArc
 50
270.0000000277421
 51
0.0
  0
LINE
  5
570E
330
1F
100
AcDbEntity
  8
AM_VIS
100
AcDbLine
 10
452.1908356372002
 20
977.7093703462073
 30
0.0
 11
478.1908356372002
 21
977.7093703462073
 31
0.0
  0
LINE
  5
570F
330
1F
100
AcDbEntity
  8
AM_VIS
100
AcDbLine
 10
450.1908356372003
 20
977.7093703462073
 30
0.0
 11
452.1908356372002
 21
977.7093703462073
 31
0.0
  0
ARC
  5
5714
330
1F
100
AcDbEntity
  8
AM_4
100
AcDbCircle
 10
885.3503567103155
 20
1009.709370346207
 30
0.0
 40
5.169999999999999
100
AcDbArc
 50
260.0000000000026
 51
190.000000000005
  0
ARC
  5
5715
330
1F
100
AcDbEntity
  8
AM_4
100
AcDbCircle
 10
427.9408356372003
 20
1032.959370346207
 30
0.0
 40
4.0
100
AcDbArc
 50
260.0000000000026
 51
190.000000000005
  0
LINE
  5
5716
330
1F
100
AcDbEntity
  8
AM_VIS
100
AcDbLine
 10
424.1908356372002
 20
977.7093703462073
 30
0.0
 11
450.1908356372003
 21
977.7093703462073
 31
0.0
  0
ARC
  5
5717
330
1F
100
AcDbEntity
  8
AM_VIS
100
AcDbCircle
 10
424.1908356384109
 20
982.7093703474179
 30
0.0
 40
5.000000001210626
100
AcDbArc
 50
180.0000000277487
 51
270.0
  0
LINE
  5
5718
330
1F
100
AcDbEntity
  8
AM_VIS
100
AcDbLine
 10
419.1908356372002
 20
1008.709370346207
 30
0.0
 11
419.1908356372002
 21
982.7093703462074
 31
0.0
  0
LINE
  5
5719
330
1F
100
AcDbEntity
  8
AM_VIS
100
AcDbLine
 10
419.1908356372002
 20
1010.709370346207
 30
0.0
 11
419.1908356372002
 21
1008.709370346207
 31
0.0
  0
LINE
  5
571A
330
1F
100
AcDbEntity
  8
AM_VIS
100
AcDbLine
 10
419.1908356372002
 20
1036.709370346207
 30
0.0
 11
419.1908356372002
 21
1010.709370346207
 31
0.0
  0
ARC
  5
571B
330
1F
100
AcDbEntity
  8
AM_VIS
100
AcDbCircle
 10
424.1908356384109
 20
1036.709370344997
 30
0.0
 40
5.000000001210608
100
AcDbArc
 50
90.00000001387434
 51
179.9999999861256
  0
LINE
  5
571C
330
1F
100
AcDbEntity
  8
AM_VIS
100
AcDbLine
 10
450.1908356372003
 20
1041.709370346207
 30
0.0
 11
424.1908356372002
 21
1041.709370346207
 31
0.0
  0
LINE
  5
571D
330
1F
100
AcDbEntity
  8
AM_VIS
100
AcDbLine
 10
483.6908356372003
 20
982.2093703462073
 30
0.0
 11
483.6908356372003
 21
984.7093703462073
 31
0.0
  0
LINE
  5
571E
330
1F
100
AcDbEntity
  8
AM_VIS
100
AcDbLine
 10
483.6908356372003
 20
1034.709370346207
 30
0.0
 11
483.6908356372003
 21
1037.209370346207
 31
0.0
  0
ARC
  5
571F
330
1F
100
AcDbEntity
  8
AM_VIS
100
AcDbCircle
 10
478.6908356359897
 20
1037.209370344996
 30
0.0
 40
5.000000001210633
100
AcDbArc
 50
0.0000000138743429
 51
89.99999998612565
  0
LINE
  5
5720
330
1F
100
AcDbEntity
  8
AM_VIS
100
AcDbLine
 10
478.6908356372002
 20
1042.209370346207
 30
0.0
 11
423.6908356372002
 21
1042.209370346207
 31
0.0
  0
ARC
  5
5721
330
1F
100
AcDbEntity
  8
AM_VIS
100
AcDbCircle
 10
423.690835638411
 20
1037.209370344996
 30
0.0
 40
5.000000001210678
100
AcDbArc
 50
90.0
 51
179.9999999722513
  0
LINE
  5
5722
330
1F
100
AcDbEntity
  8
AM_VIS
100
AcDbLine
 10
418.6908356372002
 20
1037.209370346207
 30
0.0
 11
418.6908356372002
 21
982.2093703462073
 31
0.0
  0
ARC
  5
5723
330
1F
100
AcDbEntity
  8
AM_VIS
100
AcDbCircle
 10
423.6908356384109
 20
982.2093703474179
 30
0.0
 40
5.000000001210619
100
AcDbArc
 50
180.0000000138743
 51
269.9999999861256
  0
LINE
  5
5724
330
1F
100
AcDbEntity
  8
AM_VIS
100
AcDbLine
 10
423.6908356372002
 20
977.2093703462074
 30
0.0
 11
478.6908356372002
 21
977.2093703462074
 31
0.0
  0
ARC
  5
5725
330
1F
100
AcDbEntity
  8
AM_VIS
100
AcDbCircle
 10
478.6908356359896
 20
982.2093703474179
 30
0.0
 40
5.000000001210665
100
AcDbArc
 50
270.0000000138743
 51
359.9999999861257
  0
LINE
  5
5726
330
1F
100
AcDbEntity
  8
AM_VIS
100
AcDbLine
 10
483.6908356372003
 20
987.4039828527726
 30
0.0
 11
483.6908356372003
 21
1032.014757839642
 31
0.0
  0
LINE
  5
5727
330
1F
100
AcDbEntity
  8
AM_VIS
100
AcDbLine
 10
483.6908356372003
 20
1034.014072489593
 30
0.0
 11
483.6908356372003
 21
1034.709370346207
 31
0.0
  0
LINE
  5
5728
330
1F
100
AcDbEntity
  8
AM_VIS
100
AcDbLine
 10
483.6908356372003
 20
984.7093703462073
 30
0.0
 11
483.6908356372003
 21
985.4046682028213
 31
0.0
  0
ARC
  5
5729
330
1F
100
AcDbEntity
  8
AM_VIS
100
AcDbCircle
 10
451.1908356372003
 20
1009.709370346207
 30
0.0
 40
20.5
100
AcDbArc
 50
49.09604375814733
 51
83.47502115585518
  0
ARC
  5
572A
330
1F
100
AcDbEntity
  8
AM_VIS
100
AcDbCircle
 10
451.1908356372003
 20
1009.709370346207
 30
0.0
 40
20.5
100
AcDbArc
 50
40.90395624184346
 51
49.09604375814733
  0
ARC
  5
572B
330
1F
100
AcDbEntity
  8
AM_VIS
100
AcDbCircle
 10
451.1908356372003
 20
1009.709370346207
 30
0.0
 40
20.5
100
AcDbArc
 50
6.524978844150548
 51
40.90395624184346
  0
ARC
  5
572C
330
1F
100
AcDbEntity
  8
AM_VIS
100
AcDbCircle
 10
451.1908356372003
 20
1009.709370346207
 30
0.0
 40
20.5
100
AcDbArc
 50
353.4750211558495
 51
6.524978844150548
  0
ARC
  5
572D
330
1F
100
AcDbEntity
  8
AM_VIS
100
AcDbCircle
 10
451.1908356372003
 20
1009.709370346207
 30
0.0
 40
20.5
100
AcDbArc
 50
319.0960437581566
 51
353.4750211558495
  0
ARC
  5
572E
330
1F
100
AcDbEntity
  8
AM_VIS
100
AcDbCircle
 10
451.1908356372003
 20
1009.709370346207
 30
0.0
 40
20.5
100
AcDbArc
 50
310.9039562418526
 51
319.0960437581566
  0
ARC
  5
572F
330
1F
100
AcDbEntity
  8
AM_VIS
100
AcDbCircle
 10
451.1908356372003
 20
1009.709370346207
 30
0.0
 40
20.5
100
AcDbArc
 50
276.5249788441448
 51
310.9039562418526
  0
ARC
  5
5730
330
1F
100
AcDbEntity
  8
AM_VIS
100
AcDbCircle
 10
451.1908356372003
 20
1009.709370346207
 30
0.0
 40
20.5
100
AcDbArc
 50
263.4750211558552
 51
276.5249788441448
  0
ARC
  5
5731
330
1F
100
AcDbEntity
  8
AM_VIS
100
AcDbCircle
 10
451.1908356372003
 20
1009.709370346207
 30
0.0
 40
20.5
100
AcDbArc
 50
229.0960437581474
 51
263.4750211558552
  0
ARC
  5
5732
330
1F
100
AcDbEntity
  8
AM_VIS
100
AcDbCircle
 10
451.1908356372003
 20
1009.709370346207
 30
0.0
 40
20.5
100
AcDbArc
 50
220.9039562418435
 51
229.0960437581474
  0
ARC
  5
5733
330
1F
100
AcDbEntity
  8
AM_VIS
100
AcDbCircle
 10
451.1908356372003
 20
1009.709370346207
 30
0.0
 40
20.5
100
AcDbArc
 50
186.5249788441505
 51
220.9039562418435
  0
ARC
  5
5734
330
1F
100
AcDbEntity
  8
AM_VIS
100
AcDbCircle
 10
451.1908356372003
 20
1009.709370346207
 30
0.0
 40
20.5
100
AcDbArc
 50
173.4750211558494
 51
186.5249788441505
  0
ARC
  5
5735
330
1F
100
AcDbEntity
  8
AM_VIS
100
AcDbCircle
 10
451.1908356372003
 20
1009.709370346207
 30
0.0
 40
20.5
100
AcDbArc
 50
139.0960437581565
 51
173.4750211558494
  0
ARC
  5
5736
330
1F
100
AcDbEntity
  8
AM_VIS
100
AcDbCircle
 10
451.1908356372003
 20
1009.709370346207
 30
0.0
 40
20.5
100
AcDbArc
 50
130.9039562418526
 51
139.0960437581565
  0
ARC
  5
5737
330
1F
100
AcDbEntity
  8
AM_VIS
100
AcDbCircle
 10
451.1908356372003
 20
1009.709370346207
 30
0.0
 40
20.5
100
AcDbArc
 50
96.52497884414481
 51
130.9039562418526
  0
ARC
  5
5738
330
1F
100
AcDbEntity
  8
AM_VIS
100
AcDbCircle
 10
451.1908356372003
 20
1009.709370346207
 30
0.0
 40
20.5
100
AcDbArc
 50
83.47502115585518
 51
96.52497884414481
  0
CIRCLE
  5
5739
330
1F
100
AcDbEntity
  8
AM_VIS
100
AcDbCircle
 10
451.1908356372003
 20
1009.709370346207
 30
0.0
 40
19.19999999999999
  0
LINE
  5
573A
330
1F
100
AcDbEntity
  8
AM_VIS
100
AcDbLine
 10
483.6908356372003
 20
1034.014072489593
 30
0.0
 11
483.6908356372003
 21
1032.014757839642
 31
0.0
  0
LINE
  5
573B
330
1F
100
AcDbEntity
  8
AM_VIS
100
AcDbLine
 10
483.6908356372003
 20
987.4039828527726
 30
0.0
 11
483.6908356372003
 21
985.4046682028213
 31
0.0
  0
LINE
  5
573C
330
1F
100
AcDbEntity
  8
AM_VIS
100
AcDbLine
 10
622.5049850119782
 20
1182.096197934012
 30
0.0
 11
577.5049850119783
 21
1182.096197934012
 31
0.0
  0
LINE
  5
573D
330
1F
100
AcDbEntity
  8
AM_VIS
100
AcDbLine
 10
577.5049850119783
 20
1226.546197934012
 30
0.0
 11
622.5049850119782
 21
1226.546197934012
 31
0.0
  0
LINE
  5
573E
330
1F
100
AcDbEntity
  8
AM_VIS
100
AcDbLine
 10
577.5049850119783
 20
1166.546197934012
 30
0.0
 11
622.5049850119782
 21
1166.546197934012
 31
0.0
  0
LINE
  5
573F
330
1F
100
AcDbEntity
  8
AM_VIS
100
AcDbLine
 10
777.5049850119783
 20
1206.546197934012
 30
0.0
 11
772.5049850119782
 21
1206.546197934012
 31
0.0
  0
LINE
  5
5740
330
1F
100
AcDbEntity
  8
AM_VIS
100
AcDbLine
 10
622.5049850119782
 20
1206.546197934012
 30
0.0
 11
532.5049850119783
 21
1206.546197934012
 31
0.0
  0
LINE
  5
5741
330
1F
100
AcDbEntity
  8
AM_VIS
100
AcDbLine
 10
777.5049850119783
 20
1186.546197934012
 30
0.0
 11
772.5049850119782
 21
1186.546197934012
 31
0.0
  0
LINE
  5
5742
330
1F
100
AcDbEntity
  8
AM_VIS
100
AcDbLine
 10
622.5049850119782
 20
1186.546197934012
 30
0.0
 11
532.5049850119783
 21
1186.546197934012
 31
0.0
  0
LINE
  5
5743
330
1F
100
AcDbEntity
  8
AM_VIS
100
AcDbLine
 10
531.5049850119783
 20
1187.546197934012
 30
0.0
 11
532.5049850119783
 21
1186.546197934012
 31
0.0
  0
LINE
  5
5744
330
1F
100
AcDbEntity
  8
AM_VIS
100
AcDbLine
 10
531.5049850119783
 20
1205.546197934012
 30
0.0
 11
532.5049850119783
 21
1206.546197934012
 31
0.0
  0
LINE
  5
5745
330
1F
100
AcDbEntity
  8
AM_VIS
100
AcDbLine
 10
532.5049850119783
 20
1206.546197934012
 30
0.0
 11
532.5049850119783
 21
1186.546197934012
 31
0.0
  0
LINE
  5
5746
330
1F
100
AcDbEntity
  8
AM_VIS
100
AcDbLine
 10
531.5049850119783
 20
1187.546197934012
 30
0.0
 11
531.5049850119783
 21
1205.546197934012
 31
0.0
  0
LINE
  5
5747
330
1F
100
AcDbEntity
  8
AM_VIS
100
AcDbLine
 10
772.5049850119782
 20
1169.546197934012
 30
0.0
 11
777.5049850119783
 21
1169.546197934012
 31
0.0
  0
LINE
  5
5748
330
1F
100
AcDbEntity
  8
AM_VIS
100
AcDbLine
 10
772.5049850119782
 20
1223.546197934012
 30
0.0
 11
777.5049850119783
 21
1223.546197934012
 31
0.0
  0
LINE
  5
5749
330
1F
100
AcDbEntity
  8
AM_VIS
100
AcDbLine
 10
797.5049850119782
 20
1164.046197934011
 30
0.0
 11
777.5049850119783
 21
1164.046197934011
 31
0.0
  0
LINE
  5
574A
330
1F
100
AcDbEntity
  8
AM_VIS
100
AcDbLine
 10
797.5049850119782
 20
1229.046197934011
 30
0.0
 11
777.5049850119783
 21
1229.046197934011
 31
0.0
  0
LINE
  5
574B
330
1F
100
AcDbEntity
  8
AM_VIS
100
AcDbLine
 10
777.5049850119783
 20
1229.046197934011
 30
0.0
 11
777.5049850119783
 21
1164.046197934011
 31
0.0
  0
LINE
  5
574C
330
1F
100
AcDbEntity
  8
AM_VIS
100
AcDbLine
 10
797.5049850119782
 20
1164.046197934011
 30
0.0
 11
797.5049850119782
 21
1229.046197934011
 31
0.0
  0
LINE
  5
574D
330
1F
100
AcDbEntity
  8
AM_VIS
100
AcDbLine
 10
772.5049850119782
 20
1231.546197934012
 30
0.0
 11
772.5049850119782
 21
1161.546197934012
 31
0.0
  0
LINE
  5
574E
330
1F
100
AcDbEntity
  8
AM_VIS
100
AcDbLine
 10
737.5049850119783
 20
1161.546197934012
 30
0.0
 11
772.5049850119782
 21
1161.546197934012
 31
0.0
  0
LINE
  5
574F
330
1F
100
AcDbEntity
  8
AM_VIS
100
AcDbLine
 10
622.5049850119782
 20
1161.546197934012
 30
0.0
 11
657.0049850119783
 21
1161.546197934012
 31
0.0
  0
LINE
  5
5750
330
1F
100
AcDbEntity
  8
AM_VIS
100
AcDbLine
 10
622.5049850119782
 20
1231.546197934012
 30
0.0
 11
622.5049850119782
 21
1161.546197934012
 31
0.0
  0
LINE
  5
5751
330
1F
100
AcDbEntity
  8
AM_VIS
100
AcDbLine
 10
657.0049850119783
 20
1231.546197934012
 30
0.0
 11
657.0049850119783
 21
1161.546197934012
 31
0.0
  0
LINE
  5
5752
330
1F
100
AcDbEntity
  8
AM_VIS
100
AcDbLine
 10
737.5049850119783
 20
1231.546197934012
 30
0.0
 11
737.5049850119783
 21
1161.546197934012
 31
0.0
  0
LINE
  5
5753
330
1F
100
AcDbEntity
  8
AM_VIS
100
AcDbLine
 10
657.0049850119783
 20
1161.546197934012
 30
0.0
 11
737.5049850119783
 21
1161.546197934012
 31
0.0
  0
LINE
  5
5754
330
1F
100
AcDbEntity
  8
AM_VIS
100
AcDbLine
 10
772.5049850119782
 20
1231.546197934012
 30
0.0
 11
737.5049850119783
 21
1231.546197934012
 31
0.0
  0
LINE
  5
5755
330
1F
100
AcDbEntity
  8
AM_VIS
100
AcDbLine
 10
737.5049850119783
 20
1231.546197934012
 30
0.0
 11
657.0049850119783
 21
1231.546197934012
 31
0.0
  0
LINE
  5
5756
330
1F
100
AcDbEntity
  8
AM_VIS
100
AcDbLine
 10
657.0049850119783
 20
1231.546197934012
 30
0.0
 11
622.5049850119782
 21
1231.546197934012
 31
0.0
  0
CIRCLE
  5
575F
330
1F
100
AcDbEntity
  8
AM_VIS
100
AcDbCircle
 10
711.0049850119783
 20
1219.796197934012
 30
0.0
 40
3.0
  0
CIRCLE
  5
5760
330
1F
100
AcDbEntity
  8
AM_VIS
100
AcDbCircle
 10
711.0049850119783
 20
1173.296197934011
 30
0.0
 40
3.0
  0
CIRCLE
  5
5761
330
1F
100
AcDbEntity
  8
AM_VIS
100
AcDbCircle
 10
688.0049850119783
 20
1219.796197934012
 30
0.0
 40
3.0
  0
CIRCLE
  5
5762
330
1F
100
AcDbEntity
  8
AM_VIS
100
AcDbCircle
 10
688.0049850119783
 20
1173.296197934011
 30
0.0
 40
3.0
  0
LINE
  5
5763
330
1F
100
AcDbEntity
  8
AM_VIS
100
AcDbLine
 10
549.0049850119783
 20
1164.54148383614
 30
0.0
 11
549.0049850119783
 21
1164.046197934012
 31
0.0
  0
LINE
  5
5764
330
1F
100
AcDbEntity
  8
AM_VIS
100
AcDbLine
 10
547.5056656580075
 20
1164.58206941393
 30
0.0
 11
577.5043523844522
 21
1164.012857130375
 31
0.0
  0
LINE
  5
5765
330
1F
100
AcDbEntity
  8
AM_VIS
100
AcDbLine
 10
547.5056656580075
 20
1228.510326454093
 30
0.0
 11
577.504352384452
 21
1229.079538737649
 31
0.0
  0
LINE
  5
5766
330
1F
100
AcDbEntity
  8
AM_VIS
100
AcDbLine
 10
547.5049850119782
 20
1169.546197934012
 30
0.0
 11
547.5049850119782
 21
1186.546197934011
 31
0.0
  0
LINE
  5
5767
330
1F
100
AcDbEntity
  8
AM_VIS
100
AcDbLine
 10
547.5049850119782
 20
1169.546197934012
 30
0.0
 11
547.5049850119782
 21
1164.546197934012
 31
0.0
  0
LINE
  5
5768
330
1F
100
AcDbEntity
  8
AM_VIS
100
AcDbLine
 10
547.5049850119782
 20
1228.546197934012
 30
0.0
 11
547.5049850119782
 21
1223.546197934012
 31
0.0
  0
LINE
  5
5769
330
1F
100
AcDbEntity
  8
AM_VIS
100
AcDbLine
 10
547.5049850119782
 20
1206.546197934012
 30
0.0
 11
547.5049850119782
 21
1223.546197934012
 31
0.0
  0
LINE
  5
576A
330
1F
100
AcDbEntity
  8
AM_VIS
100
AcDbLine
 10
577.5049850119783
 20
1169.046197934012
 30
0.0
 11
577.5049850119783
 21
1164.046197934012
 31
0.0
  0
LINE
  5
576B
330
1F
100
AcDbEntity
  8
AM_VIS
100
AcDbLine
 10
577.5049850119783
 20
1169.046197934012
 30
0.0
 11
577.5049850119783
 21
1186.546197934011
 31
0.0
  0
LINE
  5
576C
330
1F
100
AcDbEntity
  8
AM_VIS
100
AcDbLine
 10
577.5049850119783
 20
1206.546197934012
 30
0.0
 11
577.5049850119783
 21
1224.046197934012
 31
0.0
  0
LINE
  5
576D
330
1F
100
AcDbEntity
  8
AM_VIS
100
AcDbLine
 10
577.5049850119783
 20
1229.046197934012
 30
0.0
 11
577.5049850119783
 21
1224.046197934012
 31
0.0
  0
LINE
  5
576E
330
1F
100
AcDbEntity
  8
AM_VIS
100
AcDbLine
 10
550.9526311153625
 20
1164.046197934012
 30
0.0
 11
577.5049850119783
 21
1164.046197934012
 31
0.0
  0
LINE
  5
576F
330
1F
100
AcDbEntity
  8
AM_VIS
100
AcDbLine
 10
544.5021843218667
 20
1176.27140798577
 30
0.0
 11
547.5049850119782
 21
1176.046197934012
 31
0.0
  0
LINE
  5
5770
330
1F
100
AcDbEntity
  8
AM_VIS
100
AcDbLine
 10
544.5021843218667
 20
1216.820987882253
 30
0.0
 11
547.5049850119782
 21
1217.046197934012
 31
0.0
  0
LINE
  5
5771
330
1F
100
AcDbEntity
  8
AM_VIS
100
AcDbLine
 10
543.5049850119782
 20
1177.346197934012
 30
0.0
 11
544.5021843218667
 21
1176.27140798577
 31
0.0
  0
LINE
  5
5772
330
1F
100
AcDbEntity
  8
AM_VIS
100
AcDbLine
 10
543.5049850119782
 20
1215.746197934012
 30
0.0
 11
544.5021843218667
 21
1216.820987882253
 31
0.0
  0
LINE
  5
5773
330
1F
100
AcDbEntity
  8
AM_VIS
100
AcDbLine
 10
544.5021843218667
 20
1216.820987882253
 30
0.0
 11
544.5021843218667
 21
1206.546197934012
 31
0.0
  0
LINE
  5
5774
330
1F
100
AcDbEntity
  8
AM_VIS
100
AcDbLine
 10
544.5021843218667
 20
1186.546197934011
 30
0.0
 11
544.5021843218667
 21
1176.27140798577
 31
0.0
  0
LINE
  5
5775
330
1F
100
AcDbEntity
  8
AM_VIS
100
AcDbLine
 10
543.5049850119782
 20
1177.346197934012
 30
0.0
 11
543.5049850119782
 21
1186.546197934011
 31
0.0
  0
LINE
  5
5776
330
1F
100
AcDbEntity
  8
AM_VIS
100
AcDbLine
 10
543.5049850119782
 20
1206.546197934012
 30
0.0
 11
543.5049850119782
 21
1215.746197934012
 31
0.0
  0
LINE
  5
5777
330
1F
100
AcDbEntity
  8
AM_VIS
100
AcDbLine
 10
550.9526311153625
 20
1164.046197934012
 30
0.0
 11
549.0049850119783
 21
1164.046197934012
 31
0.0
  0
CIRCLE
  5
57B4
330
1F
100
AcDbEntity
  8
AM_VIS
100
AcDbCircle
 10
451.1908356372003
 20
957.7093703462074
 30
0.0
 40
10.0
  0
CIRCLE
  5
57B5
330
1F
100
AcDbEntity
  8
AM_VIS
100
AcDbCircle
 10
451.1908356372003
 20
957.7093703462074
 30
0.0
 40
16.0
  0
LINE
  5
57B6
330
1F
100
AcDbEntity
  8
AM_VIS
100
AcDbLine
 10
743.5788565126714
 20
1023.569370346207
 30
0.0
 11
751.4311135112858
 21
1023.569370346207
 31
0.0
  0
SPLINE
  5
57B7
330
1F
100
AcDbEntity
  8
AM_VIS
100
AcDbSpline
210
0.0
220
0.0
230
1.0
 70
    12
 71
     2
 72
     6
 73
     3
 74
     0
 42
0.0000000001
 43
0.0000000001
 40
0.0
 40
0.0
 40
0.0
 40
14.02486994289484
 40
14.02486994289484
 40
14.02486994289484
 10
751.4311135112858
 20
1023.569370346207
 30
0.0
 41
1.0
 10
753.4316321940276
 20
1020.104370346206
 30
0.0000000000000142
 41
1.154700538379201
 10
751.4311135112858
 20
1016.639370346207
 30
0.0
 41
1.0
  0
SPLINE
  5
57B8
330
1F
100
AcDbEntity
  8
AM_VIS
100
AcDbSpline
210
0.0
220
0.0
230
1.0
 70
    12
 71
     2
 72
     6
 73
     3
 74
     0
 42
0.0000000001
 43
0.0000000001
 40
0.0
 40
0.0
 40
0.0
 40
14.02486994289479
 40
14.02486994289479
 40
14.02486994289479
 10
743.5788565126714
 20
1016.639370346207
 30
0.0
 41
1.0
 10
741.5783378299294
 20
1020.104370346207
 30
0.0
 41
1.154700538379267
 10
743.5788565126714
 20
1023.569370346207
 30
0.0
 41
1.0
  0
LINE
  5
57B9
330
1F
100
AcDbEntity
  8
AM_VIS
100
AcDbLine
 10
743.5788565126714
 20
1016.639370346207
 30
0.0
 11
751.4311135112858
 21
1016.639370346207
 31
0.0
  0
SPLINE
  5
57BA
330
1F
100
AcDbEntity
  8
AM_VIS
100
AcDbSpline
210
0.0
220
0.0
230
1.0
 70
    12
 71
     2
 72
     6
 73
     3
 74
     0
 42
0.0000000001
 43
0.0000000001
 40
0.0
 40
0.0
 40
0.0
 40
14.02486994289525
 40
14.02486994289525
 40
14.02486994289525
 10
751.4311135112858
 20
1016.639370346207
 30
0.0
 41
1.0
 10
753.4316321940276
 20
1009.709370346207
 30
0.0
 41
1.154700538379258
 10
751.4311135112859
 20
1002.779370346207
 30
0.0
 41
1.0
  0
SPLINE
  5
57BB
330
1F
100
AcDbEntity
  8
AM_VIS
100
AcDbSpline
210
0.0
220
0.0
230
1.0
 70
    12
 71
     2
 72
     6
 73
     3
 74
     0
 42
0.0000000001
 43
0.0000000001
 40
0.0
 40
0.0
 40
0.0
 40
14.02486994289525
 40
14.02486994289525
 40
14.02486994289525
 10
743.5788565126715
 20
1002.779370346207
 30
0.0
 41
1.0
 10
741.578337829929
 20
1009.709370346207
 30
0.0
 41
1.154700538379223
 10
743.5788565126714
 20
1016.639370346207
 30
0.0
 41
1.0
  0
LINE
  5
57BC
330
1F
100
AcDbEntity
  8
AM_VIS
100
AcDbLine
 10
751.4311135112859
 20
1002.779370346207
 30
0.0
 11
743.5788565126713
 21
1002.779370346207
 31
0.0
  0
SPLINE
  5
57BD
330
1F
100
AcDbEntity
  8
AM_VIS
100
AcDbSpline
210
0.0
220
0.0
230
1.0
 70
    12
 71
     2
 72
     6
 73
     3
 74
     0
 42
0.0000000001
 43
0.0000000001
 40
0.0
 40
0.0
 40
0.0
 40
14.02486994289492
 40
14.02486994289492
 40
14.02486994289492
 10
751.4311135112859
 20
1002.779370346207
 30
0.0
 41
1.0
 10
753.431632194028
 20
999.3143703462079
 30
0.0
 41
1.154700538379267
 10
751.4311135112857
 20
995.8493703462073
 30
0.0
 41
1.0
  0
SPLINE
  5
57BE
330
1F
100
AcDbEntity
  8
AM_VIS
100
AcDbSpline
210
0.0
220
0.0
230
1.0
 70
    12
 71
     2
 72
     6
 73
     3
 74
     0
 42
0.0000000001
 43
0.0000000001
 40
0.0
 40
0.0
 40
0.0
 40
14.02486994289476
 40
14.02486994289476
 40
14.02486994289476
 10
743.5788565126713
 20
995.8493703462073
 30
0.0
 41
1.0
 10
741.5783378299293
 20
999.3143703462072
 30
0.0
 41
1.154700538379267
 10
743.5788565126713
 20
1002.779370346207
 30
0.0
 41
1.0
  0
LINE
  5
57BF
330
1F
100
AcDbEntity
  8
AM_VIS
100
AcDbLine
 10
743.5788565126713
 20
995.8493703462073
 30
0.0
 11
751.4311135112857
 21
995.8493703462073
 31
0.0
  0
LINE
  5
57C0
330
1F
100
AcDbEntity
  8
AM_VIS
100
AcDbLine
 10
742.5049850119787
 20
997.7093703462074
 30
0.0
 11
743.5788565126714
 21
995.8493703462075
 31
0.0
  0
LINE
  5
57C1
330
1F
100
AcDbEntity
  8
AM_VIS
100
AcDbLine
 10
742.5049850119789
 20
1021.709370346207
 30
0.0
 11
743.5788565126714
 21
1023.569370346207
 31
0.0
  0
LINE
  5
57C2
330
1F
100
AcDbEntity
  8
AM_VIS
100
AcDbLine
 10
752.5049850119787
 20
1021.709370346207
 30
0.0
 11
751.4311135112862
 21
1023.569370346207
 31
0.0
  0
LINE
  5
57C3
330
1F
100
AcDbEntity
  8
AM_VIS
100
AcDbLine
 10
752.5049850119785
 20
997.7093703462072
 30
0.0
 11
751.4311135112858
 21
995.8493703462073
 31
0.0
  0
LINE
  5
57C4
330
1F
100
AcDbEntity
  8
AM_VIS
100
AcDbLine
 10
742.5049850119789
 20
1021.709370346207
 30
0.0
 11
742.5049850119787
 21
997.7093703462074
 31
0.0
  0
LINE
  5
57C5
330
1F
100
AcDbEntity
  8
AM_VIS
100
AcDbLine
 10
752.5049850119784
 20
1021.709370346207
 30
0.0
 11
752.5049850119784
 21
1020.209370346207
 31
0.0
  0
LINE
  5
57C6
330
1F
100
AcDbEntity
  8
AM_VIS
100
AcDbLine
 10
752.5049850119783
 20
999.2093703462073
 30
0.0
 11
752.5049850119783
 21
997.7093703462074
 31
0.0
  0
LINE
  5
57C7
330
1F
100
AcDbEntity
  8
AM_VIS
100
AcDbLine
 10
752.5049850119783
 20
1015.518845365518
 30
0.0
 11
752.5049850119783
 21
1003.899895326896
 31
0.0
  0
LINE
  5
57C8
330
1F
100
AcDbEntity
  8
AM_VIS
100
AcDbLine
 10
759.5049850119782
 20
1002.927040363082
 30
0.0
 11
759.5049850119782
 21
1016.491700329332
 31
0.0
  0
LINE
  5
57C9
330
1F
100
AcDbEntity
  8
AM_VIS
100
AcDbLine
 10
759.5049850119782
 20
1002.927040363082
 30
0.0
 11
752.5049850119783
 21
1002.927040363082
 31
0.0
  0
ARC
  5
57CA
330
1F
100
AcDbEntity
  8
AM_VIS
100
AcDbCircle
 10
749.0049850119783
 20
1009.709370346207
 30
0.0
 40
12.5
100
AcDbArc
 50
327.1401196211142
 51
32.85988037888582
  0
LINE
  5
57CB
330
1F
100
AcDbEntity
  8
AM_VIS
100
AcDbLine
 10
752.5049850119783
 20
1016.491700329332
 30
0.0
 11
759.5049850119782
 21
1016.491700329332
 31
0.0
  0
LINE
  5
57CC
330
1F
100
AcDbEntity
  8
AM_VIS
100
AcDbLine
 10
761.5049850119783
 20
997.2093703462073
 30
0.0
 11
759.5049850119782
 21
999.2093703462073
 31
0.0
  0
LINE
  5
57CD
330
1F
100
AcDbEntity
  8
AM_VIS
100
AcDbLine
 10
759.5049850119782
 20
1020.209370346207
 30
0.0
 11
752.5049850119783
 21
1020.209370346207
 31
0.0
  0
LINE
  5
57CE
330
1F
100
AcDbEntity
  8
AM_VIS
100
AcDbLine
 10
752.5049850119783
 20
999.2093703462073
 30
0.0
 11
759.5049850119782
 21
999.2093703462073
 31
0.0
  0
LINE
  5
57CF
330
1F
100
AcDbEntity
  8
AM_VIS
100
AcDbLine
 10
759.5049850119782
 20
1020.209370346207
 30
0.0
 11
761.5049850119783
 21
1022.209370346207
 31
0.0
  0
LINE
  5
57D0
330
1F
100
AcDbEntity
  8
AM_VIS
100
AcDbLine
 10
752.5049850119783
 20
1002.927040363082
 30
0.0
 11
752.5049850119783
 21
1003.899895326896
 31
0.0
  0
LINE
  5
57D1
330
1F
100
AcDbEntity
  8
AM_VIS
100
AcDbLine
 10
752.5049850119783
 20
1015.518845365518
 30
0.0
 11
752.5049850119783
 21
1016.491700329332
 31
0.0
  0
LINE
  5
57D2
330
1F
100
AcDbEntity
  8
AM_VIS
100
AcDbLine
 10
762.5049850119783
 20
1022.209370346207
 30
0.0
 11
761.5049850119783
 21
1022.209370346207
 31
0.0
  0
LINE
  5
57D3
330
1F
100
AcDbEntity
  8
AM_VIS
100
AcDbLine
 10
762.5049850119783
 20
997.2093703462073
 30
0.0
 11
761.5049850119783
 21
997.2093703462073
 31
0.0
  0
LINE
  5
57D4
330
1F
100
AcDbEntity
  8
AM_VIS
100
AcDbLine
 10
752.5049850119783
 20
1016.491700329332
 30
0.0
 11
752.5049850119783
 21
1020.209370346207
 31
0.0
  0
LINE
  5
57D5
330
1F
100
AcDbEntity
  8
AM_VIS
100
AcDbLine
 10
752.5049850119783
 20
999.2093703462073
 30
0.0
 11
752.5049850119783
 21
1002.927040363082
 31
0.0
  0
LINE
  5
57D6
330
1F
100
AcDbEntity
  8
AM_VIS
100
AcDbLine
 10
732.5049850119783
 20
1015.709370346207
 30
0.0
 11
738.5049850119782
 21
1015.709370346207
 31
0.0
  0
SPLINE
  5
57D7
330
1F
100
AcDbEntity
  8
AM_VIS
100
AcDbSpline
210
0.0
220
0.0
230
1.0
 70
     8
 71
     3
 72
    26
 73
    22
 74
     0
 42
0.0000000001
 43
0.0000000001
 40
-6.513366638895856
 40
-6.513366638895856
 40
-6.513366638895856
 40
-6.513366638895856
 40
-6.242542002692612
 40
-6.242542002692612
 40
-5.971717366489368
 40
-5.971717366489368
 40
-5.631178887119908
 40
-5.631178887119908
 40
-5.290640407750451
 40
-5.290640407750451
 40
-4.773594767638275
 40
-4.773594767638275
 40
-4.256549127526099
 40
-4.256549127526099
 40
-3.192411845644574
 40
-3.192411845644574
 40
-2.128274563763049
 40
-2.128274563763049
 40
-1.064137281881524
 40
-1.064137281881524
 40
0.0
 40
0.0
 40
0.0
 40
0.0
 10
738.5049850119782
 20
1015.709370346207
 30
0.0
 10
738.5952598907127
 20
1015.709370346207
 30
0.0
 10
738.6934760559344
 20
1015.698443712818
 30
0.0
 10
738.8843542791495
 20
1015.652652489498
 30
0.0
 10
738.9770398174277
 20
1015.617885831228
 30
0.0
 10
739.1602830523581
 20
1015.528715513076
 30
0.0
 10
739.2646964270038
 20
1015.461585394886
 30
0.0
 10
739.4560393123925
 20
1015.305091449036
 30
0.0
 10
739.5431456266571
 20
1015.215943921165
 30
0.0
 10
739.7269320865151
 20
1014.996993557296
 30
0.0
 10
739.8307160971032
 20
1014.839630142595
 30
0.0
 10
740.0062916539528
 20
1014.506948409926
 30
0.0
 10
740.0785030548124
 20
1014.331851843141
 30
0.0
 10
740.2509518230231
 20
1013.833800949502
 30
0.0
 10
740.3285097570484
 20
1013.475950690168
 30
0.0
 10
740.4350596816552
 20
1012.735511133373
 30
0.0
 10
740.4638312340444
 20
1012.352890131402
 30
0.0
 10
740.4969476105023
 20
1011.582875377587
 30
0.0
 10
740.5015517614778
 20
1011.195595430701
 30
0.0
 10
740.5055168431479
 20
1010.4361988468
 30
0.0
 10
740.5049850119783
 20
1010.064082773501
 30
0.0
 10
740.5049850119783
 20
1009.709370346207
 30
0.0
  0
SPLINE
  5
57D8
330
1F
100
AcDbEntity
  8
AM_VIS
100
AcDbSpline
210
0.0
220
0.0
230
1.0
 70
     8
 71
     3
 72
    26
 73
    22
 74
     0
 42
0.0000000001
 43
0.0000000001
 40
0.0
 40
0.0
 40
0.0
 40
0.0
 40
1.064137281881525
 40
1.064137281881525
 40
2.12827456376305
 40
2.12827456376305
 40
3.192411845644576
 40
3.192411845644576
 40
4.256549127526101
 40
4.256549127526101
 40
4.773594767638277
 40
4.773594767638277
 40
5.290640407750454
 40
5.290640407750454
 40
5.631178887119913
 40
5.631178887119913
 40
5.971717366489372
 40
5.971717366489372
 40
6.242542002692616
 40
6.242542002692616
 40
6.513366638895859
 40
6.513366638895859
 40
6.513366638895859
 40
6.513366638895859
 10
740.5049850119783
 20
1009.709370346207
 30
0.0
 10
740.5049850119783
 20
1009.354657918913
 30
0.0
 10
740.5055168431479
 20
1008.982541845614
 30
0.0
 10
740.5015517614778
 20
1008.223145261714
 30
0.0
 10
740.4969476105023
 20
1007.835865314827
 30
0.0
 10
740.4638312340444
 20
1007.065850561012
 30
0.0
 10
740.4350596816552
 20
1006.683229559041
 30
0.0
 10
740.3285097570484
 20
1005.942790002246
 30
0.0
 10
740.2509518230231
 20
1005.584939742912
 30
0.0
 10
740.0785030548124
 20
1005.086888849274
 30
0.0
 10
740.0062916539528
 20
1004.911792282488
 30
0.0
 10
739.8307160971032
 20
1004.579110549819
 30
0.0
 10
739.7269320865151
 20
1004.421747135118
 30
0.0
 10
739.5431456266571
 20
1004.20279677125
 30
0.0
 10
739.4560393123925
 20
1004.113649243378
 30
0.0
 10
739.2646964270038
 20
1003.957155297528
 30
0.0
 10
739.1602830523581
 20
1003.890025179338
 30
0.0
 10
738.9770398174277
 20
1003.800854861186
 30
0.0
 10
738.8843542791495
 20
1003.766088202916
 30
0.0
 10
738.6934760559344
 20
1003.720296979597
 30
0.0
 10
738.5952598907127
 20
1003.709370346207
 30
0.0
 10
738.5049850119782
 20
1003.709370346207
 30
0.0
  0
LINE
  5
57D9
330
1F
100
AcDbEntity
  8
AM_VIS
100
AcDbLine
 10
738.5049850119782
 20
1003.709370346207
 30
0.0
 11
732.5049850119783
 21
1003.709370346207
 31
0.0
  0
LINE
  5
57DA
330
1F
100
AcDbEntity
  8
AM_VIS
100
AcDbLine
 10
732.5049850119783
 20
1015.709370346207
 30
0.0
 11
732.5049850119783
 21
1003.709370346207
 31
0.0
  0
ARC
  5
57DB
330
1F
100
AcDbEntity
  8
AM_VIS
100
AcDbCircle
 10
740.5049850119783
 20
1009.709370346207
 30
0.0
 40
10.0
100
AcDbArc
 50
143.1301023541585
 51
216.8698976458414
  0
LINE
  5
57DC
330
1F
100
AcDbEntity
  8
AM_VIS
100
AcDbLine
 10
740.5049850119783
 20
1001.709370346207
 30
0.0
 11
742.5049850119783
 21
1001.709370346207
 31
0.0
  0
LINE
  5
57DD
330
1F
100
AcDbEntity
  8
AM_VIS
100
AcDbLine
 10
740.5049850119783
 20
1017.709370346207
 30
0.0
 11
742.5049850119783
 21
1017.709370346207
 31
0.0
  0
LINE
  5
57DE
330
1F
100
AcDbEntity
  8
AM_VIS
100
AcDbLine
 10
729.5049850119783
 20
999.7093703462073
 30
0.0
 11
738.5049850119782
 21
999.7093703462073
 31
0.0
  0
LINE
  5
57DF
330
1F
100
AcDbEntity
  8
AM_VIS
100
AcDbLine
 10
729.5049850119783
 20
1019.709370346207
 30
0.0
 11
738.5049850119782
 21
1019.709370346207
 31
0.0
  0
LINE
  5
57E0
330
1F
100
AcDbEntity
  8
AM_VIS
100
AcDbLine
 10
740.5049850119783
 20
1009.709370346207
 30
0.0
 11
740.5049850119783
 21
1001.709370346207
 31
0.0
  0
LINE
  5
57E1
330
1F
100
AcDbEntity
  8
AM_VIS
100
AcDbLine
 10
740.5049850119783
 20
1017.709370346207
 30
0.0
 11
740.5049850119783
 21
1009.709370346207
 31
0.0
  0
ARC
  5
57E2
330
1F
100
AcDbEntity
  8
AM_VIS
100
AcDbCircle
 10
738.5049850119782
 20
1001.709370346207
 30
0.0
 40
2.0
100
AcDbArc
 50
270.0
 51
0.0
  0
ARC
  5
57E3
330
1F
100
AcDbEntity
  8
AM_VIS
100
AcDbCircle
 10
738.5049850119782
 20
1017.709370346207
 30
0.0
 40
2.0
100
AcDbArc
 50
0.0
 51
90.0
  0
LINE
  5
57E4
330
1F
100
AcDbEntity
  8
BORDER
100
AcDbLine
 10
732.5049850119783
 20
1003.709370346207
 30
0.0
 11
738.5049850119756
 21
1015.709370346207
 31
0.0
  0
LINE
  5
57E5
330
1F
100
AcDbEntity
  8
BORDER
100
AcDbLine
 10
732.5049850119783
 20
1015.709370346207
 30
0.0
 11
738.5049850119782
 21
1003.709370346207
 31
0.0
  0
LINE
  5
57E6
330
1F
100
AcDbEntity
  8
AM_VIS
100
AcDbLine
 10
470.4408356372002
 20
1035.268771422966
 30
0.0
 11
474.4408356372002
 21
1037.578172499724
 31
0.0
  0
LINE
  5
57E7
330
1F
100
AcDbEntity
  8
AM_VIS
100
AcDbLine
 10
470.4408356372002
 20
1035.268771422966
 30
0.0
 11
470.4408356372002
 21
1030.649969269449
 31
0.0
  0
LINE
  5
57E8
330
1F
100
AcDbEntity
  8
AM_VIS
100
AcDbLine
 10
470.4408356372002
 20
1030.649969269449
 30
0.0
 11
474.4408356372002
 21
1028.34056819269
 31
0.0
  0
LINE
  5
57E9
330
1F
100
AcDbEntity
  8
AM_VIS
100
AcDbLine
 10
474.4408356372002
 20
1028.34056819269
 30
0.0
 11
478.4408356372003
 21
1030.649969269449
 31
0.0
  0
LINE
  5
57EA
330
1F
100
AcDbEntity
  8
AM_VIS
100
AcDbLine
 10
478.4408356372003
 20
1035.268771422966
 30
0.0
 11
478.4408356372003
 21
1030.649969269449
 31
0.0
  0
LINE
  5
57EB
330
1F
100
AcDbEntity
  8
AM_VIS
100
AcDbLine
 10
474.4408356372002
 20
1037.578172499724
 30
0.0
 11
478.4408356372003
 21
1035.268771422966
 31
0.0
  0
CIRCLE
  5
57EC
330
1F
100
AcDbEntity
  8
AM_VIS
100
AcDbCircle
 10
474.4408356372002
 20
1032.959370346207
 30
0.0
 40
6.5
  0
ARC
  5
57ED
330
1F
100
AcDbEntity
  8
AM_VIS
100
AcDbCircle
 10
474.4408356372002
 20
1032.959370346207
 30
0.0
 40
4.0
100
AcDbArc
 50
0.0
 51
60.00000000000272
  0
ARC
  5
57EE
330
1F
100
AcDbEntity
  8
AM_VIS
100
AcDbCircle
 10
474.4408356372002
 20
1032.959370346207
 30
0.0
 40
4.0
100
AcDbArc
 50
299.9999999999973
 51
0.0
  0
ARC
  5
57EF
330
1F
100
AcDbEntity
  8
AM_VIS
100
AcDbCircle
 10
474.4408356372002
 20
1032.959370346207
 30
0.0
 40
4.0
100
AcDbArc
 50
240.0000000000027
 51
299.9999999999973
  0
ARC
  5
57F0
330
1F
100
AcDbEntity
  8
AM_VIS
100
AcDbCircle
 10
474.4408356372002
 20
1032.959370346207
 30
0.0
 40
4.0
100
AcDbArc
 50
180.0
 51
240.0000000000027
  0
ARC
  5
57F1
330
1F
100
AcDbEntity
  8
AM_VIS
100
AcDbCircle
 10
474.4408356372002
 20
1032.959370346207
 30
0.0
 40
4.0
100
AcDbArc
 50
119.9999999999973
 51
180.0
  0
ARC
  5
57F2
330
1F
100
AcDbEntity
  8
AM_VIS
100
AcDbCircle
 10
474.4408356372002
 20
1032.959370346207
 30
0.0
 40
4.0
100
AcDbArc
 50
90.0
 51
119.9999999999973
  0
ARC
  5
57F3
330
1F
100
AcDbEntity
  8
AM_VIS
100
AcDbCircle
 10
474.4408356372002
 20
1032.959370346207
 30
0.0
 40
4.0
100
AcDbArc
 50
60.00000000000272
 51
90.0
  0
CIRCLE
  5
57F4
330
1F
100
AcDbEntity
  8
AM_VIS
100
AcDbCircle
 10
474.4408356372002
 20
1032.959370346207
 30
0.0
 40
3.399999999999999
  0
ARC
  5
57F5
330
1F
100
AcDbEntity
  8
AM_4
100
AcDbCircle
 10
474.4408356372002
 20
1032.959370346207
 30
0.0
 40
4.0
100
AcDbArc
 50
260.0000000000026
 51
190.000000000005
  0
LINE
  5
57F6
330
1F
100
AcDbEntity
  8
AM_VIS
100
AcDbLine
 10
423.9408356372003
 20
988.7687714229659
 30
0.0
 11
427.9408356372003
 21
991.0781724997244
 31
0.0
  0
LINE
  5
57F7
330
1F
100
AcDbEntity
  8
AM_VIS
100
AcDbLine
 10
423.9408356372003
 20
988.7687714229659
 30
0.0
 11
423.9408356372003
 21
984.1499692694487
 31
0.0
  0
LINE
  5
57F8
330
1F
100
AcDbEntity
  8
AM_VIS
100
AcDbLine
 10
423.9408356372003
 20
984.1499692694487
 30
0.0
 11
427.9408356372003
 21
981.8405681926904
 31
0.0
  0
LINE
  5
57F9
330
1F
100
AcDbEntity
  8
AM_VIS
100
AcDbLine
 10
427.9408356372003
 20
981.8405681926904
 30
0.0
 11
431.9408356372003
 21
984.1499692694487
 31
0.0
  0
LINE
  5
57FA
330
1F
100
AcDbEntity
  8
AM_VIS
100
AcDbLine
 10
431.9408356372003
 20
988.7687714229659
 30
0.0
 11
431.9408356372003
 21
984.1499692694487
 31
0.0
  0
LINE
  5
57FB
330
1F
100
AcDbEntity
  8
AM_VIS
100
AcDbLine
 10
427.9408356372003
 20
991.0781724997244
 30
0.0
 11
431.9408356372003
 21
988.7687714229659
 31
0.0
  0
CIRCLE
  5
57FC
330
1F
100
AcDbEntity
  8
AM_VIS
100
AcDbCircle
 10
427.9408356372003
 20
986.4593703462073
 30
0.0
 40
6.5
  0
ARC
  5
57FD
330
1F
100
AcDbEntity
  8
AM_VIS
100
AcDbCircle
 10
427.9408356372003
 20
986.4593703462073
 30
0.0
 40
4.0
100
AcDbArc
 50
0.0
 51
60.00000000000272
  0
ARC
  5
57FE
330
1F
100
AcDbEntity
  8
AM_VIS
100
AcDbCircle
 10
427.9408356372003
 20
986.4593703462073
 30
0.0
 40
4.0
100
AcDbArc
 50
299.9999999999973
 51
0.0
  0
ARC
  5
57FF
330
1F
100
AcDbEntity
  8
AM_VIS
100
AcDbCircle
 10
427.9408356372003
 20
986.4593703462073
 30
0.0
 40
4.0
100
AcDbArc
 50
240.0000000000027
 51
299.9999999999973
  0
ARC
  5
5800
330
1F
100
AcDbEntity
  8
AM_VIS
100
AcDbCircle
 10
427.9408356372003
 20
986.4593703462073
 30
0.0
 40
4.0
100
AcDbArc
 50
180.0
 51
240.0000000000027
  0
ARC
  5
5801
330
1F
100
AcDbEntity
  8
AM_VIS
100
AcDbCircle
 10
427.9408356372003
 20
986.4593703462073
 30
0.0
 40
4.0
100
AcDbArc
 50
119.9999999999973
 51
180.0
  0
ARC
  5
5802
330
1F
100
AcDbEntity
  8
AM_VIS
100
AcDbCircle
 10
427.9408356372003
 20
986.4593703462073
 30
0.0
 40
4.0
100
AcDbArc
 50
90.0
 51
119.9999999999973
  0
ARC
  5
5803
330
1F
100
AcDbEntity
  8
AM_VIS
100
AcDbCircle
 10
427.9408356372003
 20
986.4593703462073
 30
0.0
 40
4.0
100
AcDbArc
 50
60.00000000000272
 51
90.0
  0
CIRCLE
  5
5804
330
1F
100
AcDbEntity
  8
AM_VIS
100
AcDbCircle
 10
427.9408356372003
 20
986.4593703462073
 30
0.0
 40
3.399999999999999
  0
ARC
  5
5805
330
1F
100
AcDbEntity
  8
AM_4
100
AcDbCircle
 10
427.9408356372003
 20
986.4593703462073
 30
0.0
 40
4.0
100
AcDbArc
 50
260.0000000000026
 51
190.000000000005
  0
LINE
  5
5806
330
1F
100
AcDbEntity
  8
AM_VIS
100
AcDbLine
 10
470.4408356372002
 20
988.7687714229659
 30
0.0
 11
474.4408356372002
 21
991.0781724997244
 31
0.0
  0
LINE
  5
5807
330
1F
100
AcDbEntity
  8
AM_VIS
100
AcDbLine
 10
470.4408356372002
 20
988.7687714229659
 30
0.0
 11
470.4408356372002
 21
984.1499692694487
 31
0.0
  0
LINE
  5
5808
330
1F
100
AcDbEntity
  8
AM_VIS
100
AcDbLine
 10
470.4408356372002
 20
984.1499692694487
 30
0.0
 11
474.4408356372002
 21
981.8405681926904
 31
0.0
  0
LINE
  5
5809
330
1F
100
AcDbEntity
  8
AM_VIS
100
AcDbLine
 10
474.4408356372002
 20
981.8405681926904
 30
0.0
 11
478.4408356372003
 21
984.1499692694487
 31
0.0
  0
LINE
  5
580A
330
1F
100
AcDbEntity
  8
AM_VIS
100
AcDbLine
 10
478.4408356372003
 20
988.7687714229659
 30
0.0
 11
478.4408356372003
 21
984.1499692694487
 31
0.0
  0
LINE
  5
580B
330
1F
100
AcDbEntity
  8
AM_VIS
100
AcDbLine
 10
474.4408356372002
 20
991.0781724997244
 30
0.0
 11
478.4408356372003
 21
988.7687714229659
 31
0.0
  0
CIRCLE
  5
580C
330
1F
100
AcDbEntity
  8
AM_VIS
100
AcDbCircle
 10
474.4408356372002
 20
986.4593703462073
 30
0.0
 40
6.5
  0
ARC
  5
580D
330
1F
100
AcDbEntity
  8
AM_VIS
100
AcDbCircle
 10
474.4408356372002
 20
986.4593703462073
 30
0.0
 40
4.0
100
AcDbArc
 50
0.0
 51
60.00000000000272
  0
ARC
  5
580E
330
1F
100
AcDbEntity
  8
AM_VIS
100
AcDbCircle
 10
474.4408356372002
 20
986.4593703462073
 30
0.0
 40
4.0
100
AcDbArc
 50
299.9999999999973
 51
0.0
  0
ARC
  5
580F
330
1F
100
AcDbEntity
  8
AM_VIS
100
AcDbCircle
 10
474.4408356372002
 20
986.4593703462073
 30
0.0
 40
4.0
100
AcDbArc
 50
240.0000000000027
 51
299.9999999999973
  0
ARC
  5
5810
330
1F
100
AcDbEntity
  8
AM_VIS
100
AcDbCircle
 10
474.4408356372002
 20
986.4593703462073
 30
0.0
 40
4.0
100
AcDbArc
 50
180.0
 51
240.0000000000027
  0
ARC
  5
5811
330
1F
100
AcDbEntity
  8
AM_VIS
100
AcDbCircle
 10
474.4408356372002
 20
986.4593703462073
 30
0.0
 40
4.0
100
AcDbArc
 50
119.9999999999973
 51
180.0
  0
ARC
  5
5812
330
1F
100
AcDbEntity
  8
AM_VIS
100
AcDbCircle
 10
474.4408356372002
 20
986.4593703462073
 30
0.0
 40
4.0
100
AcDbArc
 50
90.0
 51
119.9999999999973
  0
ARC
  5
5813
330
1F
100
AcDbEntity
  8
AM_VIS
100
AcDbCircle
 10
474.4408356372002
 20
986.4593703462073
 30
0.0
 40
4.0
100
AcDbArc
 50
60.00000000000272
 51
90.0
  0
CIRCLE
  5
5814
330
1F
100
AcDbEntity
  8
AM_VIS
100
AcDbCircle
 10
474.4408356372002
 20
986.4593703462073
 30
0.0
 40
3.399999999999999
  0
ARC
  5
5815
330
1F
100
AcDbEntity
  8
AM_4
100
AcDbCircle
 10
474.4408356372002
 20
986.4593703462073
 30
0.0
 40
4.0
100
AcDbArc
 50
260.0000000000026
 51
190.000000000005
  0
LINE
  5
5822
330
1F
100
AcDbEntity
  8
AM_7
 48
4.0
100
AcDbLine
 10
541.5049850119783
 20
1009.709370346207
 30
0.0
 11
799.5049850119783
 21
1009.709370346207
 31
0.0
1001
GENIUS_GENODEF_13
1002
{
1000
HIER
1070
     0
1002
}
1002
{
1000
MANEDIT
1070
     0
1002
}
1002
{
1000
NOSEL
1070
     0
1002
}
1002
{
1000
BEHIND
1070
     0
1002
}
1002
{
1000
OTHER
1070
     0
1002
}
1002
{
1000
REACTOR
1002
}
1001
GENIUS_GENOBJ-N-CEN_13
1002
{
1000
OWNER
1000
GEN
1002
}
1001
GENIUS_GENCEN_19
1002
{
1040
2.0
1002
}
  0
LINE
  5
582F
330
1F
100
AcDbEntity
  8
AM_7
 48
4.0
100
AcDbLine
 10
529.5049850119783
 20
957.7093703462074
 30
0.0
 11
799.9323269636915
 21
957.7093703462074
 31
0.0
1001
GENIUS_GENODEF_13
1002
{
1000
HIER
1070
     0
1002
}
1002
{
1000
MANEDIT
1070
     0
1002
}
1002
{
1000
NOSEL
1070
     0
1002
}
1002
{
1000
BEHIND
1070
     0
1002
}
1002
{
1000
OTHER
1070
     0
1002
}
1002
{
1000
REACTOR
1002
}
1001
GENIUS_GENOBJ-N-CEN_13
1002
{
1000
OWNER
1000
GEN
1002
}
1001
GENIUS_GENCEN_19
1002
{
1040
2.0
1002
}
  0
LINE
  5
583C
330
1F
100
AcDbEntity
  8
AM_7
 48
4.0
100
AcDbLine
 10
529.5049850119783
 20
1061.709370346207
 30
0.0
 11
799.2707182313274
 21
1061.709370346207
 31
0.0
1001
GENIUS_GENOBJ-N-CEN_13
1002
{
1000
OWNER
1000
GEN
1002
}
1001
GENIUS_GENODEF_13
1002
{
1000
HIER
1070
     0
1002
}
1002
{
1000
MANEDIT
1070
     0
1002
}
1002
{
1000
NOSEL
1070
     0
1002
}
1002
{
1000
BEHIND
1070
     0
1002
}
1002
{
1000
OTHER
1070
     0
1002
}
1002
{
1000
REACTOR
1002
}
1001
GENIUS_GENCEN_19
1002
{
1040
2.0
1002
}
  0
LINE
  5
584A
330
1F
100
AcDbEntity
  8
AM_7
 48
4.0
100
AcDbLine
 10
451.1908356372003
 20
1009.709370346207
 30
0.0
 11
488.1908356372003
 21
1009.709370346207
 31
0.0
1001
GENIUS_GENOREF_13
1005
584E
  0
LINE
  5
584B
330
1F
100
AcDbEntity
  8
AM_7
 48
4.0
100
AcDbLine
 10
451.1908356372003
 20
1009.709370346207
 30
0.0
 11
451.1908356372003
 21
1046.709370346207
 31
0.0
1001
GENIUS_GENOREF_13
1005
584E
  0
LINE
  5
584C
330
1F
100
AcDbEntity
  8
AM_7
 48
4.0
100
AcDbLine
 10
451.1908356372003
 20
1009.709370346207
 30
0.0
 11
414.1908356372002
 21
1009.709370346207
 31
0.0
1001
GENIUS_GENOREF_13
1005
584E
  0
LINE
  5
584D
330
1F
100
AcDbEntity
  8
AM_7
 48
4.0
100
AcDbLine
 10
451.1908356372003
 20
1009.709370346207
 30
0.0
 11
451.1908356372003
 21
972.7093703462074
 31
0.0
1001
GENIUS_GENOREF_13
1005
584E
  0
POINT
  5
584E
330
1F
100
AcDbEntity
  8
0
 60
     1
100
AcDbPoint
 10
0.0
 20
0.0
 30
0.0
1001
GENIUS_GENOLIS_13
1002
{
1000
ENT
1005
584D
1005
584C
1005
584B
1005
584A
1002
}
1001
GENIUS_GENODEF_13
1002
{
1000
HIER
1070
    10
1002
}
1002
{
1000
MANEDIT
1070
     0
1002
}
1002
{
1000
NOSEL
1070
     0
1002
}
1002
{
1000
BEHIND
1070
     0
1002
}
1002
{
1000
OTHER
1070
     0
1002
}
1002
{
1000
REACTOR
1002
}
1001
GENIUS_GENOENT_13
1002
{
1000
MYREF
1005
584E
1002
}
1002
{
1000
GRP
1005
0
1002
}
1001
GENIUS_GENOBJ-N-CRS_13
1002
{
1000
OWNER
1000
GEN
1002
}
  0
LINE
  5
585C
330
1F
100
AcDbEntity
  8
AM_7
100
AcDbLine
 10
427.9408356372003
 20
1032.959370346207
 30
0.0
 11
436.4408356372003
 21
1032.959370346207
 31
0.0
1001
GENIUS_GENOREF_13
1005
5860
  0
LINE
  5
585D
330
1F
100
AcDbEntity
  8
AM_7
100
AcDbLine
 10
427.9408356372003
 20
1032.959370346207
 30
0.0
 11
427.9408356372003
 21
1041.459370346207
 31
0.0
1001
GENIUS_GENOREF_13
1005
5860
  0
LINE
  5
585E
330
1F
100
AcDbEntity
  8
AM_7
100
AcDbLine
 10
427.9408356372003
 20
1032.959370346207
 30
0.0
 11
419.4408356372003
 21
1032.959370346207
 31
0.0
1001
GENIUS_GENOREF_13
1005
5860
  0
LINE
  5
585F
330
1F
100
AcDbEntity
  8
AM_7
100
AcDbLine
 10
427.9408356372003
 20
1032.959370346207
 30
0.0
 11
427.9408356372003
 21
1024.459370346207
 31
0.0
1001
GENIUS_GENOREF_13
1005
5860
  0
POINT
  5
5860
330
1F
100
AcDbEntity
  8
0
 60
     1
100
AcDbPoint
 10
0.0
 20
0.0
 30
0.0
1001
GENIUS_GENOENT_13
1002
{
1000
MYREF
1005
5860
1002
}
1002
{
1000
GRP
1005
0
1002
}
1001
GENIUS_GENOLIS_13
1002
{
1000
ENT
1005
585F
1005
585E
1005
585D
1005
585C
1002
}
1001
GENIUS_GENODEF_13
1002
{
1000
HIER
1070
    10
1002
}
1002
{
1000
MANEDIT
1070
     0
1002
}
1002
{
1000
NOSEL
1070
     0
1002
}
1002
{
1000
BEHIND
1070
     0
1002
}
1002
{
1000
OTHER
1070
     0
1002
}
1002
{
1000
REACTOR
1002
}
1001
GENIUS_GENOBJ-N-CRS_13
1002
{
1000
OWNER
1000
GEN
1002
}
  0
LINE
  5
586E
330
1F
100
AcDbEntity
  8
AM_7
100
AcDbLine
 10
474.4408356372002
 20
1032.959370346207
 30
0.0
 11
482.9408356372002
 21
1032.959370346207
 31
0.0
1001
GENIUS_GENOREF_13
1005
5872
  0
LINE
  5
586F
330
1F
100
AcDbEntity
  8
AM_7
100
AcDbLine
 10
474.4408356372002
 20
1032.959370346207
 30
0.0
 11
474.4408356372002
 21
1041.459370346207
 31
0.0
1001
GENIUS_GENOREF_13
1005
5872
  0
LINE
  5
5870
330
1F
100
AcDbEntity
  8
AM_7
100
AcDbLine
 10
474.4408356372002
 20
1032.959370346207
 30
0.0
 11
465.9408356372003
 21
1032.959370346207
 31
0.0
1001
GENIUS_GENOREF_13
1005
5872
  0
LINE
  5
5871
330
1F
100
AcDbEntity
  8
AM_7
100
AcDbLine
 10
474.4408356372002
 20
1032.959370346207
 30
0.0
 11
474.4408356372002
 21
1024.459370346207
 31
0.0
1001
GENIUS_GENOREF_13
1005
5872
  0
POINT
  5
5872
330
1F
100
AcDbEntity
  8
0
 60
     1
100
AcDbPoint
 10
0.0
 20
0.0
 30
0.0
1001
GENIUS_GENODEF_13
1002
{
1000
HIER
1070
    10
1002
}
1002
{
1000
MANEDIT
1070
     0
1002
}
1002
{
1000
NOSEL
1070
     0
1002
}
1002
{
1000
BEHIND
1070
     0
1002
}
1002
{
1000
OTHER
1070
     0
1002
}
1002
{
1000
REACTOR
1002
}
1001
GENIUS_GENOLIS_13
1002
{
1000
ENT
1005
5871
1005
5870
1005
586F
1005
586E
1002
}
1001
GENIUS_GENOENT_13
1002
{
1000
MYREF
1005
5872
1002
}
1002
{
1000
GRP
1005
0
1002
}
1001
GENIUS_GENOBJ-N-CRS_13
1002
{
1000
OWNER
1000
GEN
1002
}
  0
LINE
  5
5880
330
1F
100
AcDbEntity
  8
AM_7
100
AcDbLine
 10
474.4408356372002
 20
986.4593703462073
 30
0.0
 11
482.9408356372002
 21
986.4593703462073
 31
0.0
1001
GENIUS_GENOREF_13
1005
5884
  0
LINE
  5
5881
330
1F
100
AcDbEntity
  8
AM_7
100
AcDbLine
 10
474.4408356372002
 20
986.4593703462073
 30
0.0
 11
474.4408356372002
 21
994.9593703462074
 31
0.0
1001
GENIUS_GENOREF_13
1005
5884
  0
LINE
  5
5882
330
1F
100
AcDbEntity
  8
AM_7
100
AcDbLine
 10
474.4408356372002
 20
986.4593703462073
 30
0.0
 11
465.9408356372003
 21
986.4593703462073
 31
0.0
1001
GENIUS_GENOREF_13
1005
5884
  0
LINE
  5
5883
330
1F
100
AcDbEntity
  8
AM_7
100
AcDbLine
 10
474.4408356372002
 20
986.4593703462073
 30
0.0
 11
474.4408356372002
 21
977.9593703462074
 31
0.0
1001
GENIUS_GENOREF_13
1005
5884
  0
POINT
  5
5884
330
1F
100
AcDbEntity
  8
0
 60
     1
100
AcDbPoint
 10
0.0
 20
0.0
 30
0.0
1001
GENIUS_GENOENT_13
1002
{
1000
MYREF
1005
5884
1002
}
1002
{
1000
GRP
1005
0
1002
}
1001
GENIUS_GENOBJ-N-CRS_13
1002
{
1000
OWNER
1000
GEN
1002
}
1001
GENIUS_GENODEF_13
1002
{
1000
HIER
1070
    10
1002
}
1002
{
1000
MANEDIT
1070
     0
1002
}
1002
{
1000
NOSEL
1070
     0
1002
}
1002
{
1000
BEHIND
1070
     0
1002
}
1002
{
1000
OTHER
1070
     0
1002
}
1002
{
1000
REACTOR
1002
}
1001
GENIUS_GENOLIS_13
1002
{
1000
ENT
1005
5883
1005
5882
1005
5881
1005
5880
1002
}
  0
LINE
  5
5892
330
1F
100
AcDbEntity
  8
AM_7
100
AcDbLine
 10
427.9408356372003
 20
986.4593703462073
 30
0.0
 11
436.4408356372003
 21
986.4593703462073
 31
0.0
1001
GENIUS_GENOREF_13
1005
5896
  0
LINE
  5
5893
330
1F
100
AcDbEntity
  8
AM_7
100
AcDbLine
 10
427.9408356372003
 20
986.4593703462073
 30
0.0
 11
427.9408356372003
 21
994.9593703462074
 31
0.0
1001
GENIUS_GENOREF_13
1005
5896
  0
LINE
  5
5894
330
1F
100
AcDbEntity
  8
AM_7
100
AcDbLine
 10
427.9408356372003
 20
986.4593703462073
 30
0.0
 11
419.4408356372003
 21
986.4593703462073
 31
0.0
1001
GENIUS_GENOREF_13
1005
5896
  0
LINE
  5
5895
330
1F
100
AcDbEntity
  8
AM_7
100
AcDbLine
 10
427.9408356372003
 20
986.4593703462073
 30
0.0
 11
427.9408356372003
 21
977.9593703462074
 31
0.0
1001
GENIUS_GENOREF_13
1005
5896
  0
POINT
  5
5896
330
1F
100
AcDbEntity
  8
0
 60
     1
100
AcDbPoint
 10
0.0
 20
0.0
 30
0.0
1001
GENIUS_GENODEF_13
1002
{
1000
HIER
1070
    10
1002
}
1002
{
1000
MANEDIT
1070
     0
1002
}
1002
{
1000
NOSEL
1070
     0
1002
}
1002
{
1000
BEHIND
1070
     0
1002
}
1002
{
1000
OTHER
1070
     0
1002
}
1002
{
1000
REACTOR
1002
}
1001
GENIUS_GENOENT_13
1002
{
1000
MYREF
1005
5896
1002
}
1002
{
1000
GRP
1005
0
1002
}
1001
GENIUS_GENOBJ-N-CRS_13
1002
{
1000
OWNER
1000
GEN
1002
}
1001
GENIUS_GENOLIS_13
1002
{
1000
ENT
1005
5895
1005
5894
1005
5893
1005
5892
1002
}
  0
LINE
  5
58A4
330
1F
100
AcDbEntity
  8
AM_7
100
AcDbLine
 10
451.1908356372003
 20
957.7093703462074
 30
0.0
 11
469.1908356372002
 21
957.7093703462074
 31
0.0
1001
GENIUS_GENOREF_13
1005
58A8
  0
LINE
  5
58A5
330
1F
100
AcDbEntity
  8
AM_7
100
AcDbLine
 10
451.1908356372003
 20
957.7093703462074
 30
0.0
 11
451.1908356372003
 21
975.7093703462073
 31
0.0
1001
GENIUS_GENOREF_13
1005
58A8
  0
LINE
  5
58A6
330
1F
100
AcDbEntity
  8
AM_7
100
AcDbLine
 10
451.1908356372003
 20
957.7093703462074
 30
0.0
 11
433.1908356372003
 21
957.7093703462074
 31
0.0
1001
GENIUS_GENOREF_13
1005
58A8
  0
LINE
  5
58A7
330
1F
100
AcDbEntity
  8
AM_7
100
AcDbLine
 10
451.1908356372003
 20
957.7093703462074
 30
0.0
 11
451.1908356372003
 21
939.7093703462074
 31
0.0
1001
GENIUS_GENOREF_13
1005
58A8
  0
POINT
  5
58A8
330
1F
100
AcDbEntity
  8
0
 60
     1
100
AcDbPoint
 10
0.0
 20
0.0
 30
0.0
1001
GENIUS_GENODEF_13
1002
{
1000
HIER
1070
    10
1002
}
1002
{
1000
MANEDIT
1070
     0
1002
}
1002
{
1000
NOSEL
1070
     0
1002
}
1002
{
1000
BEHIND
1070
     0
1002
}
1002
{
1000
OTHER
1070
     0
1002
}
1002
{
1000
REACTOR
1002
}
1001
GENIUS_GENOENT_13
1002
{
1000
MYREF
1005
58A8
1002
}
1002
{
1000
GRP
1005
0
1002
}
1001
GENIUS_GENOBJ-N-CRS_13
1002
{
1000
OWNER
1000
GEN
1002
}
1001
GENIUS_GENOLIS_13
1002
{
1000
ENT
1005
58A7
1005
58A6
1005
58A5
1005
58A4
1002
}
  0
LINE
  5
58B6
330
1F
100
AcDbEntity
  8
AM_7
100
AcDbLine
 10
451.1908356372003
 20
1061.709370346207
 30
0.0
 11
469.1908356372002
 21
1061.709370346207
 31
0.0
1001
GENIUS_GENOREF_13
1005
58BA
  0
LINE
  5
58B7
330
1F
100
AcDbEntity
  8
AM_7
100
AcDbLine
 10
451.1908356372003
 20
1061.709370346207
 30
0.0
 11
451.1908356372003
 21
1079.709370346207
 31
0.0
1001
GENIUS_GENOREF_13
1005
58BA
  0
LINE
  5
58B8
330
1F
100
AcDbEntity
  8
AM_7
100
AcDbLine
 10
451.1908356372003
 20
1061.709370346207
 30
0.0
 11
433.1908356372003
 21
1061.709370346207
 31
0.0
1001
GENIUS_GENOREF_13
1005
58BA
  0
LINE
  5
58B9
330
1F
100
AcDbEntity
  8
AM_7
100
AcDbLine
 10
451.1908356372003
 20
1061.709370346207
 30
0.0
 11
451.1908356372003
 21
1043.709370346207
 31
0.0
1001
GENIUS_GENOREF_13
1005
58BA
  0
POINT
  5
58BA
330
1F
100
AcDbEntity
  8
0
 60
     1
100
AcDbPoint
 10
0.0
 20
0.0
 30
0.0
1001
GENIUS_GENOENT_13
1002
{
1000
MYREF
1005
58BA
1002
}
1002
{
1000
GRP
1005
0
1002
}
1001
GENIUS_GENOLIS_13
1002
{
1000
ENT
1005
58B9
1005
58B8
1005
58B7
1005
58B6
1002
}
1001
GENIUS_GENOBJ-N-CRS_13
1002
{
1000
OWNER
1000
GEN
1002
}
1001
GENIUS_GENODEF_13
1002
{
1000
HIER
1070
    10
1002
}
1002
{
1000
MANEDIT
1070
     0
1002
}
1002
{
1000
NOSEL
1070
     0
1002
}
1002
{
1000
BEHIND
1070
     0
1002
}
1002
{
1000
OTHER
1070
     0
1002
}
1002
{
1000
REACTOR
1002
}
  0
LINE
  5
58C7
330
1F
100
AcDbEntity
  8
AM_7
 48
4.0
100
AcDbLine
 10
529.5049850119783
 20
1196.546197934012
 30
0.0
 11
799.5049850119783
 21
1196.546197934011
 31
0.0
1001
GENIUS_GENOBJ-N-CEN_13
1002
{
1000
OWNER
1000
GEN
1002
}
1001
GENIUS_GENODEF_13
1002
{
1000
HIER
1070
     0
1002
}
1002
{
1000
MANEDIT
1070
     0
1002
}
1002
{
1000
NOSEL
1070
     0
1002
}
1002
{
1000
BEHIND
1070
     0
1002
}
1002
{
1000
OTHER
1070
     0
1002
}
1002
{
1000
REACTOR
1002
}
1001
GENIUS_GENCEN_19
1002
{
1040
2.0
1002
}
  0
LINE
  5
58E1
330
1F
100
AcDbEntity
  8
AM_7
 48
4.0
100
AcDbLine
 10
848.3503567103154
 20
1009.709370346207
 30
0.0
 11
922.3503567103154
 21
1009.709370346207
 31
0.0
1001
GENIUS_GENOBJ-N-CEN_13
1002
{
1000
OWNER
1000
GEN
1002
}
1001
GENIUS_GENODEF_13
1002
{
1000
HIER
1070
     0
1002
}
1002
{
1000
MANEDIT
1070
     0
1002
}
1002
{
1000
NOSEL
1070
     0
1002
}
1002
{
1000
BEHIND
1070
     0
1002
}
1002
{
1000
OTHER
1070
     0
1002
}
1002
{
1000
REACTOR
1002
}
1001
GENIUS_GENCEN_19
1002
{
1040
2.0
1002
}
  0
ARC
  5
590D
330
1F
100
AcDbEntity
  8
AM_4
100
AcDbCircle
 10
862.1003567103155
 20
1032.959370346207
 30
0.0
 40
4.0
100
AcDbArc
 50
260.0
 51
170.0
  0
CIRCLE
  5
590E
330
1F
100
AcDbEntity
  8
AM_0
100
AcDbCircle
 10
862.1003567103155
 20
1032.959370346207
 30
0.0
 40
3.323417653293459
  0
LINE
  5
590F
330
1F
100
AcDbEntity
  8
AM_7
  6
AM_ISO08W050x2
100
AcDbLine
 10
856.1003567103155
 20
1032.959370346207
 30
0.0
 11
868.1003567103156
 21
1032.959370346207
 31
0.0
  0
LINE
  5
5910
330
1F
100
AcDbEntity
  8
AM_7
  6
AM_ISO08W050x2
100
AcDbLine
 10
862.1003567103155
 20
1026.959370346207
 30
0.0
 11
862.1003567103155
 21
1038.959370346207
 31
0.0
  0
ARC
  5
5911
330
1F
100
AcDbEntity
  8
AM_4
100
AcDbCircle
 10
908.6003567103155
 20
1032.959370346207
 30
0.0
 40
4.0
100
AcDbArc
 50
260.0
 51
170.0
  0
CIRCLE
  5
5912
330
1F
100
AcDbEntity
  8
AM_0
100
AcDbCircle
 10
908.6003567103155
 20
1032.959370346207
 30
0.0
 40
3.323417653293459
  0
LINE
  5
5913
330
1F
100
AcDbEntity
  8
AM_7
  6
AM_ISO08W050x2
100
AcDbLine
 10
902.6003567103154
 20
1032.959370346207
 30
0.0
 11
914.6003567103155
 21
1032.959370346207
 31
0.0
  0
LINE
  5
5914
330
1F
100
AcDbEntity
  8
AM_7
  6
AM_ISO08W050x2
100
AcDbLine
 10
908.6003567103155
 20
1026.959370346207
 30
0.0
 11
908.6003567103155
 21
1038.959370346207
 31
0.0
  0
ARC
  5
5915
330
1F
100
AcDbEntity
  8
AM_4
100
AcDbCircle
 10
908.6003567103155
 20
986.4593703462073
 30
0.0
 40
4.0
100
AcDbArc
 50
260.0
 51
170.0
  0
CIRCLE
  5
5916
330
1F
100
AcDbEntity
  8
AM_0
100
AcDbCircle
 10
908.6003567103155
 20
986.4593703462073
 30
0.0
 40
3.323417653293459
  0
LINE
  5
5917
330
1F
100
AcDbEntity
  8
AM_7
  6
AM_ISO08W050x2
100
AcDbLine
 10
902.6003567103154
 20
986.4593703462073
 30
0.0
 11
914.6003567103155
 21
986.4593703462073
 31
0.0
  0
LINE
  5
5918
330
1F
100
AcDbEntity
  8
AM_7
  6
AM_ISO08W050x2
100
AcDbLine
 10
908.6003567103155
 20
980.4593703462073
 30
0.0
 11
908.6003567103155
 21
992.4593703462074
 31
0.0
  0
ARC
  5
5919
330
1F
100
AcDbEntity
  8
AM_4
100
AcDbCircle
 10
862.1003567103155
 20
986.4593703462073
 30
0.0
 40
4.0
100
AcDbArc
 50
260.0
 51
170.0
  0
CIRCLE
  5
591A
330
1F
100
AcDbEntity
  8
AM_0
100
AcDbCircle
 10
862.1003567103155
 20
986.4593703462073
 30
0.0
 40
3.323417653293459
  0
LINE
  5
591B
330
1F
100
AcDbEntity
  8
AM_7
  6
AM_ISO08W050x2
100
AcDbLine
 10
856.1003567103155
 20
986.4593703462073
 30
0.0
 11
868.1003567103156
 21
986.4593703462073
 31
0.0
  0
LINE
  5
591C
330
1F
100
AcDbEntity
  8
AM_7
  6
AM_ISO08W050x2
100
AcDbLine
 10
862.1003567103155
 20
980.4593703462073
 30
0.0
 11
862.1003567103155
 21
992.4593703462074
 31
0.0
  0
CIRCLE
  5
591D
330
1F
100
AcDbEntity
  8
AM_4
  6
HIDDEN
 48
0.5
100
AcDbCircle
 10
862.1003567103155
 20
1059.709370346207
 30
0.0
 40
7.0
  0
LINE
  5
592B
330
1F
100
AcDbEntity
  8
AM_7
100
AcDbLine
 10
862.1003567103155
 20
1059.709370346207
 30
0.0
 11
871.1003567103155
 21
1059.709370346207
 31
0.0
1001
GENIUS_GENOREF_13
1005
592F
  0
LINE
  5
592C
330
1F
100
AcDbEntity
  8
AM_7
100
AcDbLine
 10
862.1003567103155
 20
1059.709370346207
 30
0.0
 11
862.1003567103155
 21
1068.709370346207
 31
0.0
1001
GENIUS_GENOREF_13
1005
592F
  0
LINE
  5
592D
330
1F
100
AcDbEntity
  8
AM_7
100
AcDbLine
 10
862.1003567103155
 20
1059.709370346207
 30
0.0
 11
853.1003567103155
 21
1059.709370346207
 31
0.0
1001
GENIUS_GENOREF_13
1005
592F
  0
LINE
  5
592E
330
1F
100
AcDbEntity
  8
AM_7
100
AcDbLine
 10
862.1003567103155
 20
1059.709370346207
 30
0.0
 11
862.1003567103155
 21
1050.709370346207
 31
0.0
1001
GENIUS_GENOREF_13
1005
592F
  0
POINT
  5
592F
330
1F
100
AcDbEntity
  8
0
 60
     1
100
AcDbPoint
 10
0.0
 20
0.0
 30
0.0
1001
GENIUS_GENOENT_13
1002
{
1000
MYREF
1005
592F
1002
}
1002
{
1000
GRP
1005
0
1002
}
1001
GENIUS_GENOLIS_13
1002
{
1000
ENT
1005
592E
1005
592D
1005
592C
1005
592B
1002
}
1001
GENIUS_GENOBJ-N-CRS_13
1002
{
1000
OWNER
1000
GEN
1002
}
1001
GENIUS_GENODEF_13
1002
{
1000
HIER
1070
    10
1002
}
1002
{
1000
MANEDIT
1070
     0
1002
}
1002
{
1000
NOSEL
1070
     0
1002
}
1002
{
1000
BEHIND
1070
     0
1002
}
1002
{
1000
OTHER
1070
     0
1002
}
1002
{
1000
REACTOR
1002
}
  0
CIRCLE
  5
5930
330
1F
100
AcDbEntity
  8
AM_4
  6
HIDDEN
 48
0.5
100
AcDbCircle
 10
908.6003567103155
 20
1059.709370346207
 30
0.0
 40
7.0
  0
LINE
  5
5931
330
1F
100
AcDbEntity
  8
AM_7
100
AcDbLine
 10
908.6003567103155
 20
1059.709370346207
 30
0.0
 11
917.6003567103155
 21
1059.709370346207
 31
0.0
1001
GENIUS_GENOREF_13
1005
5935
  0
LINE
  5
5932
330
1F
100
AcDbEntity
  8
AM_7
100
AcDbLine
 10
908.6003567103155
 20
1059.709370346207
 30
0.0
 11
908.6003567103155
 21
1068.709370346207
 31
0.0
1001
GENIUS_GENOREF_13
1005
5935
  0
LINE
  5
5933
330
1F
100
AcDbEntity
  8
AM_7
100
AcDbLine
 10
908.6003567103155
 20
1059.709370346207
 30
0.0
 11
899.6003567103155
 21
1059.709370346207
 31
0.0
1001
GENIUS_GENOREF_13
1005
5935
  0
LINE
  5
5934
330
1F
100
AcDbEntity
  8
AM_7
100
AcDbLine
 10
908.6003567103155
 20
1059.709370346207
 30
0.0
 11
908.6003567103155
 21
1050.709370346207
 31
0.0
1001
GENIUS_GENOREF_13
1005
5935
  0
POINT
  5
5935
330
1F
100
AcDbEntity
  8
0
 60
     1
100
AcDbPoint
 10
46.5
 20
0.0
 30
0.0
1001
GENIUS_GENOENT_13
1002
{
1000
MYREF
1005
5935
1002
}
1002
{
1000
GRP
1005
0
1002
}
1001
GENIUS_GENOLIS_13
1002
{
1000
ENT
1005
5934
1005
5933
1005
5932
1005
5931
1002
}
1001
GENIUS_GENOBJ-N-CRS_13
1002
{
1000
OWNER
1000
GEN
1002
}
1001
GENIUS_GENODEF_13
1002
{
1000
HIER
1070
    10
1002
}
1002
{
1000
MANEDIT
1070
     0
1002
}
1002
{
1000
NOSEL
1070
     0
1002
}
1002
{
1000
BEHIND
1070
     0
1002
}
1002
{
1000
OTHER
1070
     0
1002
}
1002
{
1000
REACTOR
1002
}
  0
CIRCLE
  5
5936
330
1F
100
AcDbEntity
  8
AM_4
  6
HIDDEN
 48
0.5
100
AcDbCircle
 10
862.1003567103155
 20
959.7093703462073
 30
0.0
 40
7.0
  0
LINE
  5
5937
330
1F
100
AcDbEntity
  8
AM_7
100
AcDbLine
 10
862.1003567103155
 20
959.7093703462073
 30
0.0
 11
871.1003567103155
 21
959.7093703462073
 31
0.0
1001
GENIUS_GENOREF_13
1005
593B
  0
LINE
  5
5938
330
1F
100
AcDbEntity
  8
AM_7
100
AcDbLine
 10
862.1003567103155
 20
959.7093703462073
 30
0.0
 11
862.1003567103155
 21
968.7093703462073
 31
0.0
1001
GENIUS_GENOREF_13
1005
593B
  0
LINE
  5
5939
330
1F
100
AcDbEntity
  8
AM_7
100
AcDbLine
 10
862.1003567103155
 20
959.7093703462073
 30
0.0
 11
853.1003567103155
 21
959.7093703462073
 31
0.0
1001
GENIUS_GENOREF_13
1005
593B
  0
LINE
  5
593A
330
1F
100
AcDbEntity
  8
AM_7
100
AcDbLine
 10
862.1003567103155
 20
959.7093703462073
 30
0.0
 11
862.1003567103155
 21
950.7093703462073
 31
0.0
1001
GENIUS_GENOREF_13
1005
593B
  0
POINT
  5
593B
330
1F
100
AcDbEntity
  8
0
 60
     1
100
AcDbPoint
 10
0.0
 20
-100.0
 30
0.0
1001
GENIUS_GENOENT_13
1002
{
1000
MYREF
1005
593B
1002
}
1002
{
1000
GRP
1005
0
1002
}
1001
GENIUS_GENOLIS_13
1002
{
1000
ENT
1005
593A
1005
5939
1005
5938
1005
5937
1002
}
1001
GENIUS_GENOBJ-N-CRS_13
1002
{
1000
OWNER
1000
GEN
1002
}
1001
GENIUS_GENODEF_13
1002
{
1000
HIER
1070
    10
1002
}
1002
{
1000
MANEDIT
1070
     0
1002
}
1002
{
1000
NOSEL
1070
     0
1002
}
1002
{
1000
BEHIND
1070
     0
1002
}
1002
{
1000
OTHER
1070
     0
1002
}
1002
{
1000
REACTOR
1002
}
  0
CIRCLE
  5
593C
330
1F
100
AcDbEntity
  8
AM_4
  6
HIDDEN
 48
0.5
100
AcDbCircle
 10
908.6003567103155
 20
959.7093703462073
 30
0.0
 40
7.0
  0
LINE
  5
593D
330
1F
100
AcDbEntity
  8
AM_7
100
AcDbLine
 10
908.6003567103155
 20
959.7093703462073
 30
0.0
 11
917.6003567103155
 21
959.7093703462073
 31
0.0
1001
GENIUS_GENOREF_13
1005
5941
  0
LINE
  5
593E
330
1F
100
AcDbEntity
  8
AM_7
100
AcDbLine
 10
908.6003567103155
 20
959.7093703462073
 30
0.0
 11
908.6003567103155
 21
968.7093703462073
 31
0.0
1001
GENIUS_GENOREF_13
1005
5941
  0
LINE
  5
593F
330
1F
100
AcDbEntity
  8
AM_7
100
AcDbLine
 10
908.6003567103155
 20
959.7093703462073
 30
0.0
 11
899.6003567103155
 21
959.7093703462073
 31
0.0
1001
GENIUS_GENOREF_13
1005
5941
  0
LINE
  5
5940
330
1F
100
AcDbEntity
  8
AM_7
100
AcDbLine
 10
908.6003567103155
 20
959.7093703462073
 30
0.0
 11
908.6003567103155
 21
950.7093703462073
 31
0.0
1001
GENIUS_GENOREF_13
1005
5941
  0
POINT
  5
5941
330
1F
100
AcDbEntity
  8
0
 60
     1
100
AcDbPoint
 10
46.5
 20
-100.0
 30
0.0
1001
GENIUS_GENOENT_13
1002
{
1000
MYREF
1005
5941
1002
}
1002
{
1000
GRP
1005
0
1002
}
1001
GENIUS_GENOLIS_13
1002
{
1000
ENT
1005
5940
1005
593F
1005
593E
1005
593D
1002
}
1001
GENIUS_GENOBJ-N-CRS_13
1002
{
1000
OWNER
1000
GEN
1002
}
1001
GENIUS_GENODEF_13
1002
{
1000
HIER
1070
    10
1002
}
1002
{
1000
MANEDIT
1070
     0
1002
}
1002
{
1000
NOSEL
1070
     0
1002
}
1002
{
1000
BEHIND
1070
     0
1002
}
1002
{
1000
OTHER
1070
     0
1002
}
1002
{
1000
REACTOR
1002
}
  0
LINE
  5
5955
330
1F
100
AcDbEntity
  8
AM_7
  6
AM_ISO08W050x2
100
AcDbLine
 10
862.1003567103155
 20
1021.209370346207
 30
0.0
 11
867.1003567103154
 21
1021.209370346207
 31
0.0
1001
GENIUS_GENOREF_13
1005
5959
  0
LINE
  5
5956
330
1F
100
AcDbEntity
  8
AM_7
  6
AM_ISO08W050x2
100
AcDbLine
 10
862.1003567103155
 20
1021.209370346207
 30
0.0
 11
862.1003567103155
 21
1026.209370346207
 31
0.0
1001
GENIUS_GENOREF_13
1005
5959
  0
LINE
  5
5957
330
1F
100
AcDbEntity
  8
AM_7
  6
AM_ISO08W050x2
100
AcDbLine
 10
862.1003567103155
 20
1021.209370346207
 30
0.0
 11
857.1003567103154
 21
1021.209370346207
 31
0.0
1001
GENIUS_GENOREF_13
1005
5959
  0
LINE
  5
5958
330
1F
100
AcDbEntity
  8
AM_7
  6
AM_ISO08W050x2
100
AcDbLine
 10
862.1003567103155
 20
1021.209370346207
 30
0.0
 11
862.1003567103155
 21
1016.209370346207
 31
0.0
1001
GENIUS_GENOREF_13
1005
5959
  0
POINT
  5
5959
330
1F
100
AcDbEntity
  8
0
 60
     1
100
AcDbPoint
 10
0.0
 20
0.0
 30
0.0
1001
GENIUS_GENODEF_13
1002
{
1000
HIER
1070
    10
1002
}
1002
{
1000
MANEDIT
1070
     0
1002
}
1002
{
1000
NOSEL
1070
     0
1002
}
1002
{
1000
BEHIND
1070
     0
1002
}
1002
{
1000
OTHER
1070
     0
1002
}
1002
{
1000
REACTOR
1002
}
1001
GENIUS_GENOENT_13
1002
{
1000
MYREF
1005
5959
1002
}
1002
{
1000
GRP
1005
0
1002
}
1001
GENIUS_GENOBJ-N-CRS_13
1002
{
1000
OWNER
1000
GEN
1002
}
1001
GENIUS_GENOLIS_13
1002
{
1000
ENT
1005
5958
1005
5957
1005
5956
1005
5955
1002
}
  0
LINE
  5
5967
330
1F
100
AcDbEntity
  8
AM_7
  6
AM_ISO08W050x2
100
AcDbLine
 10
862.1003567103155
 20
998.2093703462073
 30
0.0
 11
867.1003567103154
 21
998.2093703462073
 31
0.0
1001
GENIUS_GENOREF_13
1005
596B
  0
LINE
  5
5968
330
1F
100
AcDbEntity
  8
AM_7
  6
AM_ISO08W050x2
100
AcDbLine
 10
862.1003567103155
 20
998.2093703462073
 30
0.0
 11
862.1003567103155
 21
1003.209370346207
 31
0.0
1001
GENIUS_GENOREF_13
1005
596B
  0
LINE
  5
5969
330
1F
100
AcDbEntity
  8
AM_7
  6
AM_ISO08W050x2
100
AcDbLine
 10
862.1003567103155
 20
998.2093703462073
 30
0.0
 11
857.1003567103154
 21
998.2093703462073
 31
0.0
1001
GENIUS_GENOREF_13
1005
596B
  0
LINE
  5
596A
330
1F
100
AcDbEntity
  8
AM_7
  6
AM_ISO08W050x2
100
AcDbLine
 10
862.1003567103155
 20
998.2093703462073
 30
0.0
 11
862.1003567103155
 21
993.2093703462074
 31
0.0
1001
GENIUS_GENOREF_13
1005
596B
  0
POINT
  5
596B
330
1F
100
AcDbEntity
  8
0
 60
     1
100
AcDbPoint
 10
0.0
 20
0.0
 30
0.0
1001
GENIUS_GENODEF_13
1002
{
1000
HIER
1070
    10
1002
}
1002
{
1000
MANEDIT
1070
     0
1002
}
1002
{
1000
NOSEL
1070
     0
1002
}
1002
{
1000
BEHIND
1070
     0
1002
}
1002
{
1000
OTHER
1070
     0
1002
}
1002
{
1000
REACTOR
1002
}
1001
GENIUS_GENOLIS_13
1002
{
1000
ENT
1005
596A
1005
5969
1005
5968
1005
5967
1002
}
1001
GENIUS_GENOENT_13
1002
{
1000
MYREF
1005
596B
1002
}
1002
{
1000
GRP
1005
0
1002
}
1001
GENIUS_GENOBJ-N-CRS_13
1002
{
1000
OWNER
1000
GEN
1002
}
  0
LINE
  5
5979
330
1F
100
AcDbEntity
  8
AM_7
  6
AM_ISO08W050x2
100
AcDbLine
 10
908.6003567103155
 20
998.2093703462073
 30
0.0
 11
913.6003567103156
 21
998.2093703462073
 31
0.0
1001
GENIUS_GENOREF_13
1005
597D
  0
LINE
  5
597A
330
1F
100
AcDbEntity
  8
AM_7
  6
AM_ISO08W050x2
100
AcDbLine
 10
908.6003567103155
 20
998.2093703462073
 30
0.0
 11
908.6003567103155
 21
1003.209370346207
 31
0.0
1001
GENIUS_GENOREF_13
1005
597D
  0
LINE
  5
597B
330
1F
100
AcDbEntity
  8
AM_7
  6
AM_ISO08W050x2
100
AcDbLine
 10
908.6003567103155
 20
998.2093703462073
 30
0.0
 11
903.6003567103154
 21
998.2093703462073
 31
0.0
1001
GENIUS_GENOREF_13
1005
597D
  0
LINE
  5
597C
330
1F
100
AcDbEntity
  8
AM_7
  6
AM_ISO08W050x2
100
AcDbLine
 10
908.6003567103155
 20
998.2093703462073
 30
0.0
 11
908.6003567103155
 21
993.2093703462074
 31
0.0
1001
GENIUS_GENOREF_13
1005
597D
  0
POINT
  5
597D
330
1F
100
AcDbEntity
  8
0
 60
     1
100
AcDbPoint
 10
0.0
 20
0.0
 30
0.0
1001
GENIUS_GENOLIS_13
1002
{
1000
ENT
1005
597C
1005
597B
1005
597A
1005
5979
1002
}
1001
GENIUS_GENOENT_13
1002
{
1000
MYREF
1005
597D
1002
}
1002
{
1000
GRP
1005
0
1002
}
1001
GENIUS_GENOBJ-N-CRS_13
1002
{
1000
OWNER
1000
GEN
1002
}
1001
GENIUS_GENODEF_13
1002
{
1000
HIER
1070
    10
1002
}
1002
{
1000
MANEDIT
1070
     0
1002
}
1002
{
1000
NOSEL
1070
     0
1002
}
1002
{
1000
BEHIND
1070
     0
1002
}
1002
{
1000
OTHER
1070
     0
1002
}
1002
{
1000
REACTOR
1002
}
  0
LINE
  5
598B
330
1F
100
AcDbEntity
  8
AM_7
  6
AM_ISO08W050x2
100
AcDbLine
 10
908.6003567103155
 20
1021.209370346207
 30
0.0
 11
913.6003567103156
 21
1021.209370346207
 31
0.0
1001
GENIUS_GENOREF_13
1005
598F
  0
LINE
  5
598C
330
1F
100
AcDbEntity
  8
AM_7
  6
AM_ISO08W050x2
100
AcDbLine
 10
908.6003567103155
 20
1021.209370346207
 30
0.0
 11
908.6003567103155
 21
1026.209370346207
 31
0.0
1001
GENIUS_GENOREF_13
1005
598F
  0
LINE
  5
598D
330
1F
100
AcDbEntity
  8
AM_7
  6
AM_ISO08W050x2
100
AcDbLine
 10
908.6003567103155
 20
1021.209370346207
 30
0.0
 11
903.6003567103154
 21
1021.209370346207
 31
0.0
1001
GENIUS_GENOREF_13
1005
598F
  0
LINE
  5
598E
330
1F
100
AcDbEntity
  8
AM_7
  6
AM_ISO08W050x2
100
AcDbLine
 10
908.6003567103155
 20
1021.209370346207
 30
0.0
 11
908.6003567103155
 21
1016.209370346207
 31
0.0
1001
GENIUS_GENOREF_13
1005
598F
  0
POINT
  5
598F
330
1F
100
AcDbEntity
  8
0
 60
     1
100
AcDbPoint
 10
0.0
 20
0.0
 30
0.0
1001
GENIUS_GENODEF_13
1002
{
1000
HIER
1070
    10
1002
}
1002
{
1000
MANEDIT
1070
     0
1002
}
1002
{
1000
NOSEL
1070
     0
1002
}
1002
{
1000
BEHIND
1070
     0
1002
}
1002
{
1000
OTHER
1070
     0
1002
}
1002
{
1000
REACTOR
1002
}
1001
GENIUS_GENOBJ-N-CRS_13
1002
{
1000
OWNER
1000
GEN
1002
}
1001
GENIUS_GENOENT_13
1002
{
1000
MYREF
1005
598F
1002
}
1002
{
1000
GRP
1005
0
1002
}
1001
GENIUS_GENOLIS_13
1002
{
1000
ENT
1005
598E
1005
598D
1005
598C
1005
598B
1002
}
  0
LINE
  5
5990
330
1F
100
AcDbEntity
  8
AM_7
100
AcDbLine
 10
689.0049850119784
 20
1005.709370346207
 30
0.0
 11
689.0049850119784
 21
1005.709370346207
 31
0.0
  0
LINE
  5
5991
330
1F
100
AcDbEntity
  8
AM_7
100
AcDbLine
 10
689.0049850119784
 20
1005.709370346207
 30
0.0
 11
689.0049850119784
 21
1005.709370346207
 31
0.0
  0
LINE
  5
5992
330
1F
100
AcDbEntity
  8
AM_7
100
AcDbLine
 10
677.0049850119784
 20
1005.709370346207
 30
0.0
 11
689.0049850119784
 21
1005.709370346207
 31
0.0
  0
LINE
  5
5993
330
1F
100
AcDbEntity
  8
AM_7
100
AcDbLine
 10
689.0049850119784
 20
1005.709370346207
 30
0.0
 11
701.0049850119784
 21
1005.709370346207
 31
0.0
  0
LINE
  5
5994
330
1F
100
AcDbEntity
  8
AM_7
100
AcDbLine
 10
689.0049850119784
 20
993.7093703462073
 30
0.0
 11
689.0049850119784
 21
1005.709370346207
 31
0.0
  0
LINE
  5
5995
330
1F
100
AcDbEntity
  8
AM_7
100
AcDbLine
 10
689.0049850119784
 20
1005.709370346207
 30
0.0
 11
689.0049850119784
 21
1017.709370346207
 31
0.0
  0
ARC
  5
5996
330
1F
100
AcDbEntity
  8
AM_4
100
AcDbCircle
 10
689.0049850119784
 20
1005.709370346207
 30
0.0
 40
6.5785
100
AcDbArc
 50
260.0
 51
170.0
  0
CIRCLE
  5
5997
330
1F
100
AcDbEntity
  8
AM_0
100
AcDbCircle
 10
689.0049850119784
 20
1005.709370346207
 30
0.0
 40
5.7225
  0
LINE
  5
5998
330
1F
100
AcDbEntity
  8
AM_7
100
AcDbLine
 10
562.0049850119783
 20
1005.709370346207
 30
0.0
 11
562.0049850119783
 21
1005.709370346207
 31
0.0
  0
LINE
  5
5999
330
1F
100
AcDbEntity
  8
AM_7
100
AcDbLine
 10
562.0049850119783
 20
1005.709370346207
 30
0.0
 11
562.0049850119783
 21
1005.709370346207
 31
0.0
  0
LINE
  5
599A
330
1F
100
AcDbEntity
  8
AM_7
100
AcDbLine
 10
550.0049850119783
 20
1005.709370346207
 30
0.0
 11
562.0049850119783
 21
1005.709370346207
 31
0.0
  0
LINE
  5
599B
330
1F
100
AcDbEntity
  8
AM_7
100
AcDbLine
 10
562.0049850119783
 20
1005.709370346207
 30
0.0
 11
574.0049850119783
 21
1005.709370346207
 31
0.0
  0
LINE
  5
599C
330
1F
100
AcDbEntity
  8
AM_7
100
AcDbLine
 10
562.0049850119783
 20
993.7093703462073
 30
0.0
 11
562.0049850119783
 21
1005.709370346207
 31
0.0
  0
LINE
  5
599D
330
1F
100
AcDbEntity
  8
AM_7
100
AcDbLine
 10
562.0049850119783
 20
1005.709370346207
 30
0.0
 11
562.0049850119783
 21
1017.709370346207
 31
0.0
  0
ARC
  5
599E
330
1F
100
AcDbEntity
  8
AM_4
100
AcDbCircle
 10
562.0049850119783
 20
1005.709370346207
 30
0.0
 40
6.5785
100
AcDbArc
 50
260.0
 51
170.0
  0
CIRCLE
  5
599F
330
1F
100
AcDbEntity
  8
AM_0
100
AcDbCircle
 10
562.0049850119783
 20
1005.709370346207
 30
0.0
 40
5.7225
  0
CIRCLE
  5
59A2
330
1F
100
AcDbEntity
  8
AM_VIS
100
AcDbCircle
 10
680.5049850119784
 20
1018.709370346207
 30
0.0
 40
4.799999999999999
  0
LWPOLYLINE
  5
59A3
330
1F
100
AcDbEntity
  8
0
100
AcDbPolyline
 90
        6
 70
     1
 43
0.0
 10
679.3502844735991
 20
1020.709370346207
 10
678.1955839352198
 20
1018.709370346207
 10
679.3502844735991
 20
1016.709370346207
 10
681.6596855503576
 20
1016.709370346207
 10
682.814386088737
 20
1018.709370346207
 10
681.6596855503576
 20
1020.709370346207
  0
CIRCLE
  5
59A4
330
1F
100
AcDbEntity
  8
AM_VIS
100
AcDbCircle
 10
570.5049850119783
 20
1018.709370346207
 30
0.0
 40
4.799999999999999
  0
LWPOLYLINE
  5
59A5
330
1F
100
AcDbEntity
  8
0
100
AcDbPolyline
 90
        6
 70
     1
 43
0.0
 10
569.350284473599
 20
1020.709370346207
 10
568.1955839352196
 20
1018.709370346207
 10
569.350284473599
 20
1016.709370346207
 10
571.6596855503576
 20
1016.709370346207
 10
572.8143860887369
 20
1018.709370346207
 10
571.6596855503576
 20
1020.709370346207
  0
ARC
  5
59AE
330
1F
100
AcDbEntity
  8
AM_4
100
AcDbCircle
 10
676.0049850119782
 20
1219.796197934012
 30
0.0
 40
4.0
100
AcDbArc
 50
260.0
 51
170.0
  0
CIRCLE
  5
59AF
330
1F
100
AcDbEntity
  8
AM_0
100
AcDbCircle
 10
676.0049850119782
 20
1219.796197934012
 30
0.0
 40
3.323417653293459
  0
LINE
  5
59B0
330
1F
100
AcDbEntity
  8
AM_7
  6
AM_ISO08W050x2
100
AcDbLine
 10
670.0049850119783
 20
1219.796197934012
 30
0.0
 11
682.0049850119783
 21
1219.796197934012
 31
0.0
  0
LINE
  5
59B1
330
1F
100
AcDbEntity
  8
AM_7
  6
AM_ISO08W050x2
100
AcDbLine
 10
676.0049850119782
 20
1213.796197934012
 30
0.0
 11
676.0049850119782
 21
1225.796197934012
 31
0.0
  0
ARC
  5
59B2
330
1F
100
AcDbEntity
  8
AM_4
100
AcDbCircle
 10
722.5049850119782
 20
1219.796197934012
 30
0.0
 40
4.0
100
AcDbArc
 50
260.0
 51
170.0
  0
CIRCLE
  5
59B3
330
1F
100
AcDbEntity
  8
AM_0
100
AcDbCircle
 10
722.5049850119782
 20
1219.796197934012
 30
0.0
 40
3.323417653293459
  0
LINE
  5
59B4
330
1F
100
AcDbEntity
  8
AM_7
  6
AM_ISO08W050x2
100
AcDbLine
 10
716.5049850119783
 20
1219.796197934012
 30
0.0
 11
728.5049850119783
 21
1219.796197934012
 31
0.0
  0
LINE
  5
59B5
330
1F
100
AcDbEntity
  8
AM_7
  6
AM_ISO08W050x2
100
AcDbLine
 10
722.5049850119782
 20
1213.796197934012
 30
0.0
 11
722.5049850119782
 21
1225.796197934012
 31
0.0
  0
ARC
  5
59B6
330
1F
100
AcDbEntity
  8
AM_4
100
AcDbCircle
 10
722.5049850119782
 20
1173.296197934011
 30
0.0
 40
4.0
100
AcDbArc
 50
260.0
 51
170.0
  0
CIRCLE
  5
59B7
330
1F
100
AcDbEntity
  8
AM_0
100
AcDbCircle
 10
722.5049850119782
 20
1173.296197934011
 30
0.0
 40
3.323417653293459
  0
LINE
  5
59B8
330
1F
100
AcDbEntity
  8
AM_7
  6
AM_ISO08W050x2
100
AcDbLine
 10
716.5049850119783
 20
1173.296197934011
 30
0.0
 11
728.5049850119783
 21
1173.296197934011
 31
0.0
  0
LINE
  5
59B9
330
1F
100
AcDbEntity
  8
AM_7
  6
AM_ISO08W050x2
100
AcDbLine
 10
722.5049850119782
 20
1167.296197934012
 30
0.0
 11
722.5049850119782
 21
1179.296197934012
 31
0.0
  0
ARC
  5
59BA
330
1F
100
AcDbEntity
  8
AM_4
100
AcDbCircle
 10
676.0049850119782
 20
1173.296197934011
 30
0.0
 40
4.0
100
AcDbArc
 50
260.0
 51
170.0
  0
CIRCLE
  5
59BB
330
1F
100
AcDbEntity
  8
AM_0
100
AcDbCircle
 10
676.0049850119782
 20
1173.296197934011
 30
0.0
 40
3.323417653293459
  0
LINE
  5
59BC
330
1F
100
AcDbEntity
  8
AM_7
  6
AM_ISO08W050x2
100
AcDbLine
 10
670.0049850119783
 20
1173.296197934011
 30
0.0
 11
682.0049850119783
 21
1173.296197934011
 31
0.0
  0
LINE
  5
59BD
330
1F
100
AcDbEntity
  8
AM_7
  6
AM_ISO08W050x2
100
AcDbLine
 10
676.0049850119782
 20
1167.296197934012
 30
0.0
 11
676.0049850119782
 21
1179.296197934012
 31
0.0
  0
LINE
  5
59CB
330
1F
100
AcDbEntity
  8
AM_7
  6
AM_ISO08W050x2
100
AcDbLine
 10
688.0049850119783
 20
1219.796197934012
 30
0.0
 11
693.0049850119782
 21
1219.796197934012
 31
0.0
1001
GENIUS_GENOREF_13
1005
59CF
  0
LINE
  5
59CC
330
1F
100
AcDbEntity
  8
AM_7
  6
AM_ISO08W050x2
100
AcDbLine
 10
688.0049850119783
 20
1219.796197934012
 30
0.0
 11
688.0049850119783
 21
1224.796197934012
 31
0.0
1001
GENIUS_GENOREF_13
1005
59CF
  0
LINE
  5
59CD
330
1F
100
AcDbEntity
  8
AM_7
  6
AM_ISO08W050x2
100
AcDbLine
 10
688.0049850119783
 20
1219.796197934012
 30
0.0
 11
683.0049850119783
 21
1219.796197934012
 31
0.0
1001
GENIUS_GENOREF_13
1005
59CF
  0
LINE
  5
59CE
330
1F
100
AcDbEntity
  8
AM_7
  6
AM_ISO08W050x2
100
AcDbLine
 10
688.0049850119783
 20
1219.796197934012
 30
0.0
 11
688.0049850119783
 21
1214.796197934012
 31
0.0
1001
GENIUS_GENOREF_13
1005
59CF
  0
POINT
  5
59CF
330
1F
100
AcDbEntity
  8
0
 60
     1
100
AcDbPoint
 10
0.0
 20
0.0
 30
0.0
1001
GENIUS_GENOENT_13
1002
{
1000
MYREF
1005
59CF
1002
}
1002
{
1000
GRP
1005
0
1002
}
1001
GENIUS_GENOLIS_13
1002
{
1000
ENT
1005
59CE
1005
59CD
1005
59CC
1005
59CB
1002
}
1001
GENIUS_GENODEF_13
1002
{
1000
HIER
1070
    10
1002
}
1002
{
1000
MANEDIT
1070
     0
1002
}
1002
{
1000
NOSEL
1070
     0
1002
}
1002
{
1000
BEHIND
1070
     0
1002
}
1002
{
1000
OTHER
1070
     0
1002
}
1002
{
1000
REACTOR
1002
}
1001
GENIUS_GENOBJ-N-CRS_13
1002
{
1000
OWNER
1000
GEN
1002
}
  0
LINE
  5
59DD
330
1F
100
AcDbEntity
  8
AM_7
  6
AM_ISO08W050x2
100
AcDbLine
 10
711.0049850119783
 20
1219.796197934012
 30
0.0
 11
716.0049850119783
 21
1219.796197934012
 31
0.0
1001
GENIUS_GENOREF_13
1005
59E1
  0
LINE
  5
59DE
330
1F
100
AcDbEntity
  8
AM_7
  6
AM_ISO08W050x2
100
AcDbLine
 10
711.0049850119783
 20
1219.796197934012
 30
0.0
 11
711.0049850119783
 21
1224.796197934012
 31
0.0
1001
GENIUS_GENOREF_13
1005
59E1
  0
LINE
  5
59DF
330
1F
100
AcDbEntity
  8
AM_7
  6
AM_ISO08W050x2
100
AcDbLine
 10
711.0049850119783
 20
1219.796197934012
 30
0.0
 11
706.0049850119782
 21
1219.796197934012
 31
0.0
1001
GENIUS_GENOREF_13
1005
59E1
  0
LINE
  5
59E0
330
1F
100
AcDbEntity
  8
AM_7
  6
AM_ISO08W050x2
100
AcDbLine
 10
711.0049850119783
 20
1219.796197934012
 30
0.0
 11
711.0049850119783
 21
1214.796197934012
 31
0.0
1001
GENIUS_GENOREF_13
1005
59E1
  0
POINT
  5
59E1
330
1F
100
AcDbEntity
  8
0
 60
     1
100
AcDbPoint
 10
0.0
 20
0.0
 30
0.0
1001
GENIUS_GENOLIS_13
1002
{
1000
ENT
1005
59E0
1005
59DF
1005
59DE
1005
59DD
1002
}
1001
GENIUS_GENODEF_13
1002
{
1000
HIER
1070
    10
1002
}
1002
{
1000
MANEDIT
1070
     0
1002
}
1002
{
1000
NOSEL
1070
     0
1002
}
1002
{
1000
BEHIND
1070
     0
1002
}
1002
{
1000
OTHER
1070
     0
1002
}
1002
{
1000
REACTOR
1002
}
1001
GENIUS_GENOENT_13
1002
{
1000
MYREF
1005
59E1
1002
}
1002
{
1000
GRP
1005
0
1002
}
1001
GENIUS_GENOBJ-N-CRS_13
1002
{
1000
OWNER
1000
GEN
1002
}
  0
LINE
  5
59EF
330
1F
100
AcDbEntity
  8
AM_7
  6
AM_ISO08W050x2
100
AcDbLine
 10
688.0049850119783
 20
1173.296197934011
 30
0.0
 11
693.0049850119782
 21
1173.296197934011
 31
0.0
1001
GENIUS_GENOREF_13
1005
59F3
  0
LINE
  5
59F0
330
1F
100
AcDbEntity
  8
AM_7
  6
AM_ISO08W050x2
100
AcDbLine
 10
688.0049850119783
 20
1173.296197934011
 30
0.0
 11
688.0049850119783
 21
1178.296197934012
 31
0.0
1001
GENIUS_GENOREF_13
1005
59F3
  0
LINE
  5
59F1
330
1F
100
AcDbEntity
  8
AM_7
  6
AM_ISO08W050x2
100
AcDbLine
 10
688.0049850119783
 20
1173.296197934011
 30
0.0
 11
683.0049850119783
 21
1173.296197934011
 31
0.0
1001
GENIUS_GENOREF_13
1005
59F3
  0
LINE
  5
59F2
330
1F
100
AcDbEntity
  8
AM_7
  6
AM_ISO08W050x2
100
AcDbLine
 10
688.0049850119783
 20
1173.296197934011
 30
0.0
 11
688.0049850119783
 21
1168.296197934012
 31
0.0
1001
GENIUS_GENOREF_13
1005
59F3
  0
POINT
  5
59F3
330
1F
100
AcDbEntity
  8
0
 60
     1
100
AcDbPoint
 10
0.0
 20
0.0
 30
0.0
1001
GENIUS_GENOENT_13
1002
{
1000
MYREF
1005
59F3
1002
}
1002
{
1000
GRP
1005
0
1002
}
1001
GENIUS_GENOBJ-N-CRS_13
1002
{
1000
OWNER
1000
GEN
1002
}
1001
GENIUS_GENODEF_13
1002
{
1000
HIER
1070
    10
1002
}
1002
{
1000
MANEDIT
1070
     0
1002
}
1002
{
1000
NOSEL
1070
     0
1002
}
1002
{
1000
BEHIND
1070
     0
1002
}
1002
{
1000
OTHER
1070
     0
1002
}
1002
{
1000
REACTOR
1002
}
1001
GENIUS_GENOLIS_13
1002
{
1000
ENT
1005
59F2
1005
59F1
1005
59F0
1005
59EF
1002
}
  0
LINE
  5
5A01
330
1F
100
AcDbEntity
  8
AM_7
  6
AM_ISO08W050x2
100
AcDbLine
 10
711.0049850119783
 20
1173.296197934011
 30
0.0
 11
716.0049850119783
 21
1173.296197934011
 31
0.0
1001
GENIUS_GENOREF_13
1005
5A05
  0
LINE
  5
5A02
330
1F
100
AcDbEntity
  8
AM_7
  6
AM_ISO08W050x2
100
AcDbLine
 10
711.0049850119783
 20
1173.296197934011
 30
0.0
 11
711.0049850119783
 21
1178.296197934012
 31
0.0
1001
GENIUS_GENOREF_13
1005
5A05
  0
LINE
  5
5A03
330
1F
100
AcDbEntity
  8
AM_7
  6
AM_ISO08W050x2
100
AcDbLine
 10
711.0049850119783
 20
1173.296197934011
 30
0.0
 11
706.0049850119782
 21
1173.296197934011
 31
0.0
1001
GENIUS_GENOREF_13
1005
5A05
  0
LINE
  5
5A04
330
1F
100
AcDbEntity
  8
AM_7
  6
AM_ISO08W050x2
100
AcDbLine
 10
711.0049850119783
 20
1173.296197934011
 30
0.0
 11
711.0049850119783
 21
1168.296197934012
 31
0.0
1001
GENIUS_GENOREF_13
1005
5A05
  0
POINT
  5
5A05
330
1F
100
AcDbEntity
  8
0
 60
     1
100
AcDbPoint
 10
0.0
 20
0.0
 30
0.0
1001
GENIUS_GENODEF_13
1002
{
1000
HIER
1070
    10
1002
}
1002
{
1000
MANEDIT
1070
     0
1002
}
1002
{
1000
NOSEL
1070
     0
1002
}
1002
{
1000
BEHIND
1070
     0
1002
}
1002
{
1000
OTHER
1070
     0
1002
}
1002
{
1000
REACTOR
1002
}
1001
GENIUS_GENOBJ-N-CRS_13
1002
{
1000
OWNER
1000
GEN
1002
}
1001
GENIUS_GENOLIS_13
1002
{
1000
ENT
1005
5A04
1005
5A03
1005
5A02
1005
5A01
1002
}
1001
GENIUS_GENOENT_13
1002
{
1000
MYREF
1005
5A05
1002
}
1002
{
1000
GRP
1005
0
1002
}
  0
CIRCLE
  5
5A40
330
1F
100
AcDbEntity
  8
0
100
AcDbCircle
 10
698.0049850119783
 20
1061.709370346207
 30
0.0
 40
4.0
  0
POLYLINE
  5
5A41
330
1F
100
AcDbEntity
  8
0
  6
Continuous
100
AcDb2dPolyline
 66
     1
 10
0.0
 20
0.0
 30
0.0
 70
     1
 40
1.0
 41
1.0
  0
VERTEX
  5
5A42
330
5A41
100
AcDbEntity
  8
0
  6
Continuous
100
AcDbVertex
100
AcDb2dVertex
 10
698.5049850119783
 20
1061.709370346207
 30
0.0
 42
1.0
  0
VERTEX
  5
5A43
330
5A41
100
AcDbEntity
  8
0
  6
Continuous
100
AcDbVertex
100
AcDb2dVertex
 10
697.5049850119782
 20
1061.709370346207
 30
0.0
 42
1.0
  0
SEQEND
  5
5A44
330
5A41
100
AcDbEntity
  8
0
  6
Continuous
  0
CIRCLE
  5
5A46
330
1F
100
AcDbEntity
  8
0
100
AcDbCircle
 10
698.0049850119783
 20
957.7093703462074
 30
0.0
 40
4.0
  0
POLYLINE
  5
5A47
330
1F
100
AcDbEntity
  8
0
  6
Continuous
100
AcDb2dPolyline
 66
     1
 10
0.0
 20
0.0
 30
0.0
 70
     1
 40
1.0
 41
1.0
  0
VERTEX
  5
5A48
330
5A47
100
AcDbEntity
  8
0
  6
Continuous
100
AcDbVertex
100
AcDb2dVertex
 10
698.5049850119783
 20
957.7093703462074
 30
0.0
 42
-1.0
  0
VERTEX
  5
5A49
330
5A47
100
AcDbEntity
  8
0
  6
Continuous
100
AcDbVertex
100
AcDb2dVertex
 10
697.5049850119782
 20
957.7093703462074
 30
0.0
 42
-1.0
  0
SEQEND
  5
5A4A
330
5A47
100
AcDbEntity
  8
0
  6
Continuous
  0
LINE
  5
5A9B
330
1F
100
AcDbEntity
  8
AM_4
  6
HIDDEN
 48
0.5
100
AcDbLine
 10
672.6815673586848
 20
1079.703275292369
 30
0.0
 11
671.8049850119783
 21
1080.209370346207
 31
0.0
  0
LINE
  5
5A9C
330
1F
100
AcDbEntity
  8
AM_7
  6
AM_ISO08W050x2
100
AcDbLine
 10
676.0049850119782
 20
1057.290594269449
 30
0.0
 11
676.0049850119782
 21
1082.209370346207
 31
0.0
  0
LINE
  5
5A9D
330
1F
100
AcDbEntity
  8
AM_4
  6
HIDDEN
 48
0.5
100
AcDbLine
 10
672.0049850119782
 20
1080.093900292369
 30
0.0
 11
672.0049850119782
 21
1066.209370346207
 31
0.0
  0
LINE
  5
5A9E
330
1F
100
AcDbEntity
  8
AM_4
  6
HIDDEN
 48
0.5
100
AcDbLine
 10
672.6815673586848
 20
1079.703275292369
 30
0.0
 11
672.6815673586847
 21
1061.209370346207
 31
0.0
  0
LINE
  5
5A9F
330
1F
100
AcDbEntity
  8
AM_4
  6
HIDDEN
 48
0.5
100
AcDbLine
 10
680.0049850119783
 20
1080.093900292369
 30
0.0
 11
680.0049850119783
 21
1066.209370346207
 31
0.0
  0
LINE
  5
5AA0
330
1F
100
AcDbEntity
  8
AM_4
  6
HIDDEN
 48
0.5
100
AcDbLine
 10
679.3284026652718
 20
1079.703275292369
 30
0.0
 11
679.3284026652718
 21
1061.209370346207
 31
0.0
  0
LINE
  5
5AA1
330
1F
100
AcDbEntity
  8
AM_4
  6
HIDDEN
 48
0.5
100
AcDbLine
 10
672.6815673586848
 20
1079.703275292369
 30
0.0
 11
679.3284026652718
 21
1079.703275292369
 31
0.0
  0
LINE
  5
5AA2
330
1F
100
AcDbEntity
  8
AM_4
  6
HIDDEN
 48
0.5
100
AcDbLine
 10
679.3284026652718
 20
1079.703275292369
 30
0.0
 11
680.2049850119783
 21
1080.209370346207
 31
0.0
  0
LINE
  5
5AA3
330
1F
100
AcDbEntity
  8
AM_4
  6
HIDDEN
 48
0.5
100
AcDbLine
 10
680.0049850119783
 20
1066.209370346207
 30
0.0
 11
679.3284026652718
 21
1064.959370346207
 31
0.0
  0
LINE
  5
5AA4
330
1F
100
AcDbEntity
  8
AM_4
  6
HIDDEN
 48
0.5
100
AcDbLine
 10
672.0049850119782
 20
1066.209370346207
 30
0.0
 11
672.6815673586847
 21
1064.959370346207
 31
0.0
  0
LINE
  5
5AA5
330
1F
100
AcDbEntity
  8
AM_4
  6
HIDDEN
 48
0.5
100
AcDbLine
 10
680.0049850119783
 20
1066.209370346207
 30
0.0
 11
672.0049850119782
 21
1066.209370346207
 31
0.0
  0
LINE
  5
5AA6
330
1F
100
AcDbEntity
  8
AM_4
  6
HIDDEN
 48
0.5
100
AcDbLine
 10
676.0049850119782
 20
1059.290594269449
 30
0.0
 11
679.3284026652718
 21
1061.209370346207
 31
0.0
  0
LINE
  5
5AA7
330
1F
100
AcDbEntity
  8
AM_4
  6
HIDDEN
 48
0.5
100
AcDbLine
 10
676.0049850119782
 20
1059.290594269449
 30
0.0
 11
672.6815673586847
 21
1061.209370346207
 31
0.0
  0
LINE
  5
5AA8
330
1F
100
AcDbEntity
  8
AM_4
  6
HIDDEN
 48
0.5
100
AcDbLine
 10
679.3284026652718
 20
1061.209370346207
 30
0.0
 11
672.6815673586847
 21
1061.209370346207
 31
0.0
  0
LINE
  5
5AA9
330
1F
100
AcDbEntity
  8
AM_4
  6
HIDDEN
 48
0.5
100
AcDbLine
 10
719.1815673586849
 20
1079.703275292369
 30
0.0
 11
718.3049850119783
 21
1080.209370346207
 31
0.0
  0
LINE
  5
5AAA
330
1F
100
AcDbEntity
  8
AM_7
  6
AM_ISO08W050x2
100
AcDbLine
 10
722.5049850119782
 20
1057.290594269449
 30
0.0
 11
722.5049850119782
 21
1082.209370346207
 31
0.0
  0
LINE
  5
5AAB
330
1F
100
AcDbEntity
  8
AM_4
  6
HIDDEN
 48
0.5
100
AcDbLine
 10
718.5049850119782
 20
1080.093900292369
 30
0.0
 11
718.5049850119782
 21
1066.209370346207
 31
0.0
  0
LINE
  5
5AAC
330
1F
100
AcDbEntity
  8
AM_4
  6
HIDDEN
 48
0.5
100
AcDbLine
 10
719.1815673586849
 20
1079.703275292369
 30
0.0
 11
719.1815673586847
 21
1061.209370346207
 31
0.0
  0
LINE
  5
5AAD
330
1F
100
AcDbEntity
  8
AM_4
  6
HIDDEN
 48
0.5
100
AcDbLine
 10
726.5049850119782
 20
1080.093900292369
 30
0.0
 11
726.5049850119782
 21
1066.209370346207
 31
0.0
  0
LINE
  5
5AAE
330
1F
100
AcDbEntity
  8
AM_4
  6
HIDDEN
 48
0.5
100
AcDbLine
 10
725.8284026652717
 20
1079.703275292369
 30
0.0
 11
725.8284026652717
 21
1061.209370346207
 31
0.0
  0
LINE
  5
5AAF
330
1F
100
AcDbEntity
  8
AM_4
  6
HIDDEN
 48
0.5
100
AcDbLine
 10
719.1815673586849
 20
1079.703275292369
 30
0.0
 11
725.8284026652717
 21
1079.703275292369
 31
0.0
  0
LINE
  5
5AB0
330
1F
100
AcDbEntity
  8
AM_4
  6
HIDDEN
 48
0.5
100
AcDbLine
 10
725.8284026652717
 20
1079.703275292369
 30
0.0
 11
726.7049850119783
 21
1080.209370346207
 31
0.0
  0
LINE
  5
5AB1
330
1F
100
AcDbEntity
  8
AM_4
  6
HIDDEN
 48
0.5
100
AcDbLine
 10
726.5049850119782
 20
1066.209370346207
 30
0.0
 11
725.8284026652717
 21
1064.959370346207
 31
0.0
  0
LINE
  5
5AB2
330
1F
100
AcDbEntity
  8
AM_4
  6
HIDDEN
 48
0.5
100
AcDbLine
 10
718.5049850119782
 20
1066.209370346207
 30
0.0
 11
719.1815673586847
 21
1064.959370346207
 31
0.0
  0
LINE
  5
5AB3
330
1F
100
AcDbEntity
  8
AM_4
  6
HIDDEN
 48
0.5
100
AcDbLine
 10
726.5049850119782
 20
1066.209370346207
 30
0.0
 11
718.5049850119782
 21
1066.209370346207
 31
0.0
  0
LINE
  5
5AB4
330
1F
100
AcDbEntity
  8
AM_4
  6
HIDDEN
 48
0.5
100
AcDbLine
 10
722.5049850119782
 20
1059.290594269449
 30
0.0
 11
725.8284026652717
 21
1061.209370346207
 31
0.0
  0
LINE
  5
5AB5
330
1F
100
AcDbEntity
  8
AM_4
  6
HIDDEN
 48
0.5
100
AcDbLine
 10
722.5049850119782
 20
1059.290594269449
 30
0.0
 11
719.1815673586847
 21
1061.209370346207
 31
0.0
  0
LINE
  5
5AB6
330
1F
100
AcDbEntity
  8
AM_4
  6
HIDDEN
 48
0.5
100
AcDbLine
 10
725.8284026652717
 20
1061.209370346207
 30
0.0
 11
719.1815673586847
 21
1061.209370346207
 31
0.0
  0
LINE
  5
5AC7
330
1F
100
AcDbEntity
  8
AM_4
  6
HIDDEN
 48
0.5
100
AcDbLine
 10
685.0049850119782
 20
1080.209370346207
 30
0.0
 11
685.0049850119782
 21
1074.209370346207
 31
0.0
  0
LINE
  5
5AC8
330
1F
100
AcDbEntity
  8
AM_4
  6
HIDDEN
 48
0.5
100
AcDbLine
 10
685.0049850119782
 20
1074.209370346207
 30
0.0
 11
691.0049850119783
 21
1074.209370346207
 31
0.0
  0
LINE
  5
5AC9
330
1F
100
AcDbEntity
  8
AM_4
  6
HIDDEN
 48
0.5
100
AcDbLine
 10
691.0049850119783
 20
1074.209370346207
 30
0.0
 11
691.0049850119783
 21
1080.209370346207
 31
0.0
  0
LINE
  5
5ACA
330
1F
100
AcDbEntity
  8
AM_7
  6
AM_ISO08W050x2
100
AcDbLine
 10
688.0049850119783
 20
1072.209370346207
 30
0.0
 11
688.0049850119783
 21
1082.161945351258
 31
0.0
1001
GENIUS_GENODEF_13
1002
{
1000
HIER
1070
     0
1002
}
1002
{
1000
MANEDIT
1070
     0
1002
}
1002
{
1000
NOSEL
1070
     0
1002
}
1002
{
1000
BEHIND
1070
     0
1002
}
1002
{
1000
OTHER
1070
     0
1002
}
1002
{
1000
REACTOR
1002
}
1001
GENIUS_GENOBJ-N-CEN_13
1002
{
1000
OWNER
1000
GEN
1002
}
1001
GENIUS_GENCEN_19
1002
{
1040
2.0
1002
}
  0
LINE
  5
5ACB
330
1F
100
AcDbEntity
  8
AM_4
  6
HIDDEN
 48
0.5
100
AcDbLine
 10
708.0049850119783
 20
1080.209370346207
 30
0.0
 11
708.0049850119783
 21
1074.209370346207
 31
0.0
  0
LINE
  5
5ACC
330
1F
100
AcDbEntity
  8
AM_4
  6
HIDDEN
 48
0.5
100
AcDbLine
 10
708.0049850119783
 20
1074.209370346207
 30
0.0
 11
714.0049850119782
 21
1074.209370346207
 31
0.0
  0
LINE
  5
5ACD
330
1F
100
AcDbEntity
  8
AM_4
  6
HIDDEN
 48
0.5
100
AcDbLine
 10
714.0049850119782
 20
1074.209370346207
 30
0.0
 11
714.0049850119782
 21
1080.209370346207
 31
0.0
  0
LINE
  5
5ACE
330
1F
100
AcDbEntity
  8
AM_7
  6
AM_ISO08W050x2
100
AcDbLine
 10
711.0049850119783
 20
1072.209370346207
 30
0.0
 11
711.0049850119783
 21
1082.161945351258
 31
0.0
1001
GENIUS_GENODEF_13
1002
{
1000
HIER
1070
     0
1002
}
1002
{
1000
MANEDIT
1070
     0
1002
}
1002
{
1000
NOSEL
1070
     0
1002
}
1002
{
1000
BEHIND
1070
     0
1002
}
1002
{
1000
OTHER
1070
     0
1002
}
1002
{
1000
REACTOR
1002
}
1001
GENIUS_GENOBJ-N-CEN_13
1002
{
1000
OWNER
1000
GEN
1002
}
1001
GENIUS_GENCEN_19
1002
{
1040
2.0
1002
}
  0
LINE
  5
5ACF
330
1F
100
AcDbEntity
  8
AM_4
  6
HIDDEN
 48
0.5
100
AcDbLine
 10
672.6815673586848
 20
939.7154654000454
 30
0.0
 11
671.8049850119783
 21
939.2093703462073
 31
0.0
  0
LINE
  5
5AD0
330
1F
100
AcDbEntity
  8
AM_7
  6
AM_ISO08W050x2
100
AcDbLine
 10
676.0049850119782
 20
962.128146422966
 30
0.0
 11
676.0049850119782
 21
937.2093703462073
 31
0.0
  0
LINE
  5
5AD1
330
1F
100
AcDbEntity
  8
AM_4
  6
HIDDEN
 48
0.5
100
AcDbLine
 10
672.0049850119782
 20
939.3248404000454
 30
0.0
 11
672.0049850119782
 21
953.2093703462074
 31
0.0
  0
LINE
  5
5AD2
330
1F
100
AcDbEntity
  8
AM_4
  6
HIDDEN
 48
0.5
100
AcDbLine
 10
672.6815673586848
 20
939.7154654000454
 30
0.0
 11
672.6815673586847
 21
958.2093703462074
 31
0.0
  0
LINE
  5
5AD3
330
1F
100
AcDbEntity
  8
AM_4
  6
HIDDEN
 48
0.5
100
AcDbLine
 10
680.0049850119783
 20
939.3248404000454
 30
0.0
 11
680.0049850119783
 21
953.2093703462074
 31
0.0
  0
LINE
  5
5AD4
330
1F
100
AcDbEntity
  8
AM_4
  6
HIDDEN
 48
0.5
100
AcDbLine
 10
679.3284026652718
 20
939.7154654000454
 30
0.0
 11
679.3284026652718
 21
958.2093703462074
 31
0.0
  0
LINE
  5
5AD5
330
1F
100
AcDbEntity
  8
AM_4
  6
HIDDEN
 48
0.5
100
AcDbLine
 10
672.6815673586848
 20
939.7154654000454
 30
0.0
 11
679.3284026652718
 21
939.7154654000454
 31
0.0
  0
LINE
  5
5AD6
330
1F
100
AcDbEntity
  8
AM_4
  6
HIDDEN
 48
0.5
100
AcDbLine
 10
679.3284026652718
 20
939.7154654000454
 30
0.0
 11
680.2049850119783
 21
939.2093703462073
 31
0.0
  0
LINE
  5
5AD7
330
1F
100
AcDbEntity
  8
AM_4
  6
HIDDEN
 48
0.5
100
AcDbLine
 10
680.0049850119783
 20
953.2093703462074
 30
0.0
 11
679.3284026652718
 21
954.4593703462073
 31
0.0
  0
LINE
  5
5AD8
330
1F
100
AcDbEntity
  8
AM_4
  6
HIDDEN
 48
0.5
100
AcDbLine
 10
672.0049850119782
 20
953.2093703462074
 30
0.0
 11
672.6815673586847
 21
954.4593703462073
 31
0.0
  0
LINE
  5
5AD9
330
1F
100
AcDbEntity
  8
AM_4
  6
HIDDEN
 48
0.5
100
AcDbLine
 10
680.0049850119783
 20
953.2093703462074
 30
0.0
 11
672.0049850119782
 21
953.2093703462074
 31
0.0
  0
LINE
  5
5ADA
330
1F
100
AcDbEntity
  8
AM_4
  6
HIDDEN
 48
0.5
100
AcDbLine
 10
676.0049850119782
 20
960.1281464229659
 30
0.0
 11
679.3284026652718
 21
958.2093703462074
 31
0.0
  0
LINE
  5
5ADB
330
1F
100
AcDbEntity
  8
AM_4
  6
HIDDEN
 48
0.5
100
AcDbLine
 10
676.0049850119782
 20
960.1281464229659
 30
0.0
 11
672.6815673586847
 21
958.2093703462074
 31
0.0
  0
LINE
  5
5ADC
330
1F
100
AcDbEntity
  8
AM_4
  6
HIDDEN
 48
0.5
100
AcDbLine
 10
679.3284026652718
 20
958.2093703462074
 30
0.0
 11
672.6815673586847
 21
958.2093703462074
 31
0.0
  0
LINE
  5
5ADD
330
1F
100
AcDbEntity
  8
AM_4
  6
HIDDEN
 48
0.5
100
AcDbLine
 10
719.1815673586849
 20
939.7154654000454
 30
0.0
 11
718.3049850119783
 21
939.2093703462073
 31
0.0
  0
LINE
  5
5ADE
330
1F
100
AcDbEntity
  8
AM_7
  6
AM_ISO08W050x2
100
AcDbLine
 10
722.5049850119782
 20
962.128146422966
 30
0.0
 11
722.5049850119782
 21
937.2093703462073
 31
0.0
  0
LINE
  5
5ADF
330
1F
100
AcDbEntity
  8
AM_4
  6
HIDDEN
 48
0.5
100
AcDbLine
 10
718.5049850119782
 20
939.3248404000454
 30
0.0
 11
718.5049850119782
 21
953.2093703462074
 31
0.0
  0
LINE
  5
5AE0
330
1F
100
AcDbEntity
  8
AM_4
  6
HIDDEN
 48
0.5
100
AcDbLine
 10
719.1815673586849
 20
939.7154654000454
 30
0.0
 11
719.1815673586847
 21
958.2093703462074
 31
0.0
  0
LINE
  5
5AE1
330
1F
100
AcDbEntity
  8
AM_4
  6
HIDDEN
 48
0.5
100
AcDbLine
 10
726.5049850119782
 20
939.3248404000454
 30
0.0
 11
726.5049850119782
 21
953.2093703462074
 31
0.0
  0
LINE
  5
5AE2
330
1F
100
AcDbEntity
  8
AM_4
  6
HIDDEN
 48
0.5
100
AcDbLine
 10
725.8284026652717
 20
939.7154654000454
 30
0.0
 11
725.8284026652717
 21
958.2093703462074
 31
0.0
  0
LINE
  5
5AE3
330
1F
100
AcDbEntity
  8
AM_4
  6
HIDDEN
 48
0.5
100
AcDbLine
 10
719.1815673586849
 20
939.7154654000454
 30
0.0
 11
725.8284026652717
 21
939.7154654000454
 31
0.0
  0
LINE
  5
5AE4
330
1F
100
AcDbEntity
  8
AM_4
  6
HIDDEN
 48
0.5
100
AcDbLine
 10
725.8284026652717
 20
939.7154654000454
 30
0.0
 11
726.7049850119783
 21
939.2093703462073
 31
0.0
  0
LINE
  5
5AE5
330
1F
100
AcDbEntity
  8
AM_4
  6
HIDDEN
 48
0.5
100
AcDbLine
 10
726.5049850119782
 20
953.2093703462074
 30
0.0
 11
725.8284026652717
 21
954.4593703462073
 31
0.0
  0
LINE
  5
5AE6
330
1F
100
AcDbEntity
  8
AM_4
  6
HIDDEN
 48
0.5
100
AcDbLine
 10
718.5049850119782
 20
953.2093703462074
 30
0.0
 11
719.1815673586847
 21
954.4593703462073
 31
0.0
  0
LINE
  5
5AE7
330
1F
100
AcDbEntity
  8
AM_4
  6
HIDDEN
 48
0.5
100
AcDbLine
 10
726.5049850119782
 20
953.2093703462074
 30
0.0
 11
718.5049850119782
 21
953.2093703462074
 31
0.0
  0
LINE
  5
5AE8
330
1F
100
AcDbEntity
  8
AM_4
  6
HIDDEN
 48
0.5
100
AcDbLine
 10
722.5049850119782
 20
960.1281464229659
 30
0.0
 11
725.8284026652717
 21
958.2093703462074
 31
0.0
  0
LINE
  5
5AE9
330
1F
100
AcDbEntity
  8
AM_4
  6
HIDDEN
 48
0.5
100
AcDbLine
 10
722.5049850119782
 20
960.1281464229659
 30
0.0
 11
719.1815673586847
 21
958.2093703462074
 31
0.0
  0
LINE
  5
5AEA
330
1F
100
AcDbEntity
  8
AM_4
  6
HIDDEN
 48
0.5
100
AcDbLine
 10
725.8284026652717
 20
958.2093703462074
 30
0.0
 11
719.1815673586847
 21
958.2093703462074
 31
0.0
  0
LINE
  5
5AEB
330
1F
100
AcDbEntity
  8
AM_4
  6
HIDDEN
 48
0.5
100
AcDbLine
 10
685.0049850119782
 20
939.2093703462073
 30
0.0
 11
685.0049850119782
 21
945.2093703462074
 31
0.0
  0
LINE
  5
5AEC
330
1F
100
AcDbEntity
  8
AM_4
  6
HIDDEN
 48
0.5
100
AcDbLine
 10
685.0049850119782
 20
945.2093703462074
 30
0.0
 11
691.0049850119783
 21
945.2093703462074
 31
0.0
  0
LINE
  5
5AED
330
1F
100
AcDbEntity
  8
AM_4
  6
HIDDEN
 48
0.5
100
AcDbLine
 10
691.0049850119783
 20
945.2093703462074
 30
0.0
 11
691.0049850119783
 21
939.2093703462073
 31
0.0
  0
LINE
  5
5AEE
330
1F
100
AcDbEntity
  8
AM_7
  6
AM_ISO08W050x2
100
AcDbLine
 10
688.0049850119783
 20
947.2093703462073
 30
0.0
 11
688.0049850119783
 21
937.2567953411566
 31
0.0
1001
GENIUS_GENODEF_13
1002
{
1000
HIER
1070
     0
1002
}
1002
{
1000
MANEDIT
1070
     0
1002
}
1002
{
1000
NOSEL
1070
     0
1002
}
1002
{
1000
BEHIND
1070
     0
1002
}
1002
{
1000
OTHER
1070
     0
1002
}
1002
{
1000
REACTOR
1002
}
1001
GENIUS_GENOBJ-N-CEN_13
1002
{
1000
OWNER
1000
GEN
1002
}
1001
GENIUS_GENCEN_19
1002
{
1040
2.0
1002
}
  0
LINE
  5
5AEF
330
1F
100
AcDbEntity
  8
AM_4
  6
HIDDEN
 48
0.5
100
AcDbLine
 10
708.0049850119783
 20
939.2093703462073
 30
0.0
 11
708.0049850119783
 21
945.2093703462074
 31
0.0
  0
LINE
  5
5AF0
330
1F
100
AcDbEntity
  8
AM_4
  6
HIDDEN
 48
0.5
100
AcDbLine
 10
708.0049850119783
 20
945.2093703462074
 30
0.0
 11
714.0049850119782
 21
945.2093703462074
 31
0.0
  0
LINE
  5
5AF1
330
1F
100
AcDbEntity
  8
AM_4
  6
HIDDEN
 48
0.5
100
AcDbLine
 10
714.0049850119782
 20
945.2093703462074
 30
0.0
 11
714.0049850119782
 21
939.2093703462073
 31
0.0
  0
LINE
  5
5AF2
330
1F
100
AcDbEntity
  8
AM_7
  6
AM_ISO08W050x2
100
AcDbLine
 10
711.0049850119783
 20
947.2093703462073
 30
0.0
 11
711.0049850119783
 21
937.2567953411566
 31
0.0
1001
GENIUS_GENODEF_13
1002
{
1000
HIER
1070
     0
1002
}
1002
{
1000
MANEDIT
1070
     0
1002
}
1002
{
1000
NOSEL
1070
     0
1002
}
1002
{
1000
BEHIND
1070
     0
1002
}
1002
{
1000
OTHER
1070
     0
1002
}
1002
{
1000
REACTOR
1002
}
1001
GENIUS_GENOBJ-N-CEN_13
1002
{
1000
OWNER
1000
GEN
1002
}
1001
GENIUS_GENCEN_19
1002
{
1040
2.0
1002
}
  0
ARC
  5
5B09
330
1F
100
AcDbEntity
  8
AM_4
  6
HIDDEN
 48
0.5
100
AcDbCircle
 10
722.5049850119782
 20
1052.209370346207
 30
0.0
 40
4.0
100
AcDbArc
 50
260.0
 51
170.0
  0
CIRCLE
  5
5B0A
330
1F
100
AcDbEntity
  8
AM_4
  6
HIDDEN
 48
0.5
100
AcDbCircle
 10
722.5049850119782
 20
1052.209370346207
 30
0.0
 40
3.323417653293459
  0
LINE
  5
5B0B
330
1F
100
AcDbEntity
  8
AM_7
  6
AM_ISO08W050x2
100
AcDbLine
 10
716.5049850119783
 20
1052.209370346207
 30
0.0
 11
728.5049850119783
 21
1052.209370346207
 31
0.0
  0
LINE
  5
5B0C
330
1F
100
AcDbEntity
  8
AM_7
  6
AM_ISO08W050x2
100
AcDbLine
 10
722.5049850119782
 20
1046.209370346207
 30
0.0
 11
722.5049850119782
 21
1058.209370346207
 31
0.0
  0
ARC
  5
5B0D
330
1F
100
AcDbEntity
  8
AM_4
  6
HIDDEN
 48
0.5
100
AcDbCircle
 10
676.0049850119782
 20
1052.209370346207
 30
0.0
 40
4.0
100
AcDbArc
 50
260.0
 51
170.0
  0
CIRCLE
  5
5B0E
330
1F
100
AcDbEntity
  8
AM_4
  6
HIDDEN
 48
0.5
100
AcDbCircle
 10
676.0049850119782
 20
1052.209370346207
 30
0.0
 40
3.323417653293459
  0
LINE
  5
5B0F
330
1F
100
AcDbEntity
  8
AM_7
  6
AM_ISO08W050x2
100
AcDbLine
 10
670.0049850119783
 20
1052.209370346207
 30
0.0
 11
682.0049850119783
 21
1052.209370346207
 31
0.0
  0
LINE
  5
5B10
330
1F
100
AcDbEntity
  8
AM_7
  6
AM_ISO08W050x2
100
AcDbLine
 10
676.0049850119782
 20
1046.209370346207
 30
0.0
 11
676.0049850119782
 21
1058.209370346207
 31
0.0
  0
ARC
  5
5B11
330
1F
100
AcDbEntity
  8
AM_4
  6
HIDDEN
 48
0.5
100
AcDbCircle
 10
722.5049850119782
 20
967.2093703462074
 30
0.0
 40
4.0
100
AcDbArc
 50
190.0
 51
100.0
  0
CIRCLE
  5
5B12
330
1F
100
AcDbEntity
  8
AM_4
  6
HIDDEN
 48
0.5
100
AcDbCircle
 10
722.5049850119782
 20
967.2093703462074
 30
0.0
 40
3.323417653293459
  0
LINE
  5
5B13
330
1F
100
AcDbEntity
  8
AM_7
  6
AM_ISO08W050x2
100
AcDbLine
 10
716.5049850119783
 20
967.2093703462074
 30
0.0
 11
728.5049850119783
 21
967.2093703462074
 31
0.0
  0
LINE
  5
5B14
330
1F
100
AcDbEntity
  8
AM_7
  6
AM_ISO08W050x2
100
AcDbLine
 10
722.5049850119782
 20
973.2093703462073
 30
0.0
 11
722.5049850119782
 21
961.2093703462074
 31
0.0
  0
ARC
  5
5B15
330
1F
100
AcDbEntity
  8
AM_4
  6
HIDDEN
 48
0.5
100
AcDbCircle
 10
676.0049850119782
 20
967.2093703462074
 30
0.0
 40
4.0
100
AcDbArc
 50
190.0
 51
100.0
  0
CIRCLE
  5
5B16
330
1F
100
AcDbEntity
  8
AM_4
  6
HIDDEN
 48
0.5
100
AcDbCircle
 10
676.0049850119782
 20
967.2093703462074
 30
0.0
 40
3.323417653293459
  0
LINE
  5
5B17
330
1F
100
AcDbEntity
  8
AM_7
  6
AM_ISO08W050x2
100
AcDbLine
 10
670.0049850119783
 20
967.2093703462074
 30
0.0
 11
682.0049850119783
 21
967.2093703462074
 31
0.0
  0
LINE
  5
5B18
330
1F
100
AcDbEntity
  8
AM_7
  6
AM_ISO08W050x2
100
AcDbLine
 10
676.0049850119782
 20
973.2093703462073
 30
0.0
 11
676.0049850119782
 21
961.2093703462074
 31
0.0
  0
LINE
  5
5B59
330
1F
100
AcDbEntity
  8
AM_4
  6
HIDDEN
 48
0.5
100
AcDbLine
 10
777.5049850119783
 20
1052.709370346207
 30
0.0
 11
786.0049850119783
 21
1052.709370346207
 31
0.0
  0
LINE
  5
5B5B
330
1F
100
AcDbEntity
  8
AM_4
  6
HIDDEN
 48
0.5
100
AcDbLine
 10
786.0049850119783
 20
1055.209370346207
 30
0.0
 11
797.5049850119781
 21
1055.209370346207
 31
0.0
  0
LINE
  5
5B5C
330
1F
100
AcDbEntity
  8
AM_4
  6
HIDDEN
 48
0.5
100
AcDbLine
 10
777.5049850119783
 20
1066.709370346207
 30
0.0
 11
786.0049850119783
 21
1066.709370346207
 31
0.0
  0
LINE
  5
5B5D
330
1F
100
AcDbEntity
  8
AM_4
  6
HIDDEN
 48
0.5
100
AcDbLine
 10
786.0049850119783
 20
1066.709370346207
 30
0.0
 11
786.0049850119783
 21
1052.709370346207
 31
0.0
  0
LINE
  5
5B5E
330
1F
100
AcDbEntity
  8
AM_4
  6
HIDDEN
 48
0.5
100
AcDbLine
 10
786.0049850119783
 20
1064.209370346207
 30
0.0
 11
797.5049850119781
 21
1064.209370346207
 31
0.0
  0
LINE
  5
5B6B
330
1F
100
AcDbEntity
  8
AM_7
100
AcDbLine
 10
775.5049850119783
 20
1059.709370346207
 30
0.0
 11
799.5049850119783
 21
1059.709370346207
 31
0.0
1001
GENIUS_GENOBJ-N-CEN_13
1002
{
1000
OWNER
1000
GEN
1002
}
1001
GENIUS_GENODEF_13
1002
{
1000
HIER
1070
     0
1002
}
1002
{
1000
MANEDIT
1070
     0
1002
}
1002
{
1000
NOSEL
1070
     0
1002
}
1002
{
1000
BEHIND
1070
     0
1002
}
1002
{
1000
OTHER
1070
     0
1002
}
1002
{
1000
REACTOR
1002
}
1001
GENIUS_GENCEN_19
1002
{
1040
2.0
1002
}
  0
LINE
  5
5B6C
330
1F
100
AcDbEntity
  8
AM_4
  6
HIDDEN
 48
0.5
100
AcDbLine
 10
777.5049850119783
 20
966.7093703462073
 30
0.0
 11
786.0049850119783
 21
966.7093703462073
 31
0.0
  0
LINE
  5
5B6D
330
1F
100
AcDbEntity
  8
AM_4
  6
HIDDEN
 48
0.5
100
AcDbLine
 10
786.0049850119783
 20
964.2093703462073
 30
0.0
 11
797.5049850119781
 21
964.2093703462077
 31
0.0
  0
LINE
  5
5B6E
330
1F
100
AcDbEntity
  8
AM_4
  6
HIDDEN
 48
0.5
100
AcDbLine
 10
777.5049850119783
 20
952.7093703462073
 30
0.0
 11
786.0049850119783
 21
952.7093703462073
 31
0.0
  0
LINE
  5
5B6F
330
1F
100
AcDbEntity
  8
AM_4
  6
HIDDEN
 48
0.5
100
AcDbLine
 10
786.0049850119783
 20
952.7093703462073
 30
0.0
 11
786.0049850119783
 21
966.7093703462073
 31
0.0
  0
LINE
  5
5B70
330
1F
100
AcDbEntity
  8
AM_4
  6
HIDDEN
 48
0.5
100
AcDbLine
 10
786.0049850119783
 20
955.2093703462073
 30
0.0
 11
797.5049850119781
 21
955.2093703462071
 31
0.0
  0
LINE
  5
5B71
330
1F
100
AcDbEntity
  8
AM_7
100
AcDbLine
 10
775.5049850119783
 20
959.7093703462073
 30
0.0
 11
799.5049850119783
 21
959.7093703462073
 31
0.0
1001
GENIUS_GENOBJ-N-CEN_13
1002
{
1000
OWNER
1000
GEN
1002
}
1001
GENIUS_GENODEF_13
1002
{
1000
HIER
1070
     0
1002
}
1002
{
1000
MANEDIT
1070
     0
1002
}
1002
{
1000
NOSEL
1070
     0
1002
}
1002
{
1000
BEHIND
1070
     0
1002
}
1002
{
1000
OTHER
1070
     0
1002
}
1002
{
1000
REACTOR
1002
}
1001
GENIUS_GENCEN_19
1002
{
1040
2.0
1002
}
  0
LINE
  5
5BA2
330
1F
100
AcDbEntity
  8
AM_4
  6
HIDDEN
 48
0.5
100
AcDbLine
 10
797.5049850119782
 20
990.4593703462074
 30
0.0
 11
777.5049850119783
 21
990.4593703462074
 31
0.0
  0
LINE
  5
5BA3
330
1F
100
AcDbEntity
  8
AM_4
  6
HIDDEN
 48
0.5
100
AcDbLine
 10
797.5049850119782
 20
982.4593703462074
 30
0.0
 11
777.5049850119783
 21
982.4593703462074
 31
0.0
  0
LINE
  5
5BA4
330
1F
100
AcDbEntity
  8
AM_4
  6
HIDDEN
 48
0.5
100
AcDbLine
 10
797.5049850119782
 20
983.1359526929139
 30
0.0
 11
777.5049850119783
 21
983.1359526929139
 31
0.0
  0
LINE
  5
5BA5
330
1F
100
AcDbEntity
  8
AM_4
  6
HIDDEN
 48
0.5
100
AcDbLine
 10
797.5049850119782
 20
989.7827879995009
 30
0.0
 11
777.5049850119783
 21
989.7827879995009
 31
0.0
  0
LINE
  5
5BA6
330
1F
100
AcDbEntity
  8
AM_7
  6
AM_ISO08W050x2
100
AcDbLine
 10
799.5049850119783
 20
986.4593703462073
 30
0.0
 11
775.8413977134441
 21
986.4593703462073
 31
0.0
  0
LINE
  5
5BA9
330
1F
100
AcDbEntity
  8
AM_7
100
AcDbLine
 10
775.5049850119783
 20
986.4593703462073
 30
0.0
 11
799.5049850119783
 21
986.4593703462073
 31
0.0
1001
GENIUS_GENOBJ-N-CEN_13
1002
{
1000
OWNER
1000
GEN
1002
}
1001
GENIUS_GENODEF_13
1002
{
1000
HIER
1070
     0
1002
}
1002
{
1000
MANEDIT
1070
     0
1002
}
1002
{
1000
NOSEL
1070
     0
1002
}
1002
{
1000
BEHIND
1070
     0
1002
}
1002
{
1000
OTHER
1070
     0
1002
}
1002
{
1000
REACTOR
1002
}
1001
GENIUS_GENCEN_19
1002
{
1040
2.0
1002
}
  0
LINE
  5
5BB6
330
1F
100
AcDbEntity
  8
AM_7
  6
AM_ISO08W050x2
100
AcDbLine
 10
780.5049850119787
 20
1009.709370346207
 30
0.0
 11
799.5049850119787
 21
1009.709370346207
 31
0.0
  0
LINE
  5
5BB7
330
1F
100
AcDbEntity
  8
AM_4
  6
HIDDEN
 48
0.5
100
AcDbLine
 10
777.5049850119783
 20
995.2093703462074
 30
0.0
 11
797.5049850119785
 21
995.2093703462074
 31
0.0
  0
LINE
  5
5BB8
330
1F
100
AcDbEntity
  8
AM_4
  6
HIDDEN
 48
0.5
100
AcDbLine
 10
777.5049850119783
 20
1001.209370346207
 30
0.0
 11
797.5049850119785
 21
1001.209370346207
 31
0.0
  0
LINE
  5
5BB9
330
1F
100
AcDbEntity
  8
AM_7
  6
AM_ISO08W050x2
100
AcDbLine
 10
775.2418341058628
 20
998.2093703462073
 30
0.0
 11
799.5049850119787
 21
998.2093703462073
 31
0.0
  0
LINE
  5
5BBA
330
1F
100
AcDbEntity
  8
AM_4
  6
HIDDEN
 48
0.5
100
AcDbLine
 10
797.5049850119782
 20
1028.959370346207
 30
0.0
 11
777.5049850119783
 21
1028.959370346207
 31
0.0
  0
LINE
  5
5BBB
330
1F
100
AcDbEntity
  8
AM_4
  6
HIDDEN
 48
0.5
100
AcDbLine
 10
797.5049850119782
 20
1036.959370346207
 30
0.0
 11
777.5049850119783
 21
1036.959370346207
 31
0.0
  0
LINE
  5
5BBC
330
1F
100
AcDbEntity
  8
AM_4
  6
HIDDEN
 48
0.5
100
AcDbLine
 10
797.5049850119782
 20
1036.282787999501
 30
0.0
 11
777.5049850119783
 21
1036.282787999501
 31
0.0
  0
LINE
  5
5BBD
330
1F
100
AcDbEntity
  8
AM_4
  6
HIDDEN
 48
0.5
100
AcDbLine
 10
797.5049850119782
 20
1029.635952692914
 30
0.0
 11
777.5049850119783
 21
1029.635952692914
 31
0.0
  0
LINE
  5
5BBE
330
1F
100
AcDbEntity
  8
AM_7
  6
AM_ISO08W050x2
100
AcDbLine
 10
799.5049850119783
 20
1032.959370346207
 30
0.0
 11
775.8413977134441
 21
1032.959370346207
 31
0.0
  0
LINE
  5
5BBF
330
1F
100
AcDbEntity
  8
AM_7
100
AcDbLine
 10
775.5049850119783
 20
1032.959370346207
 30
0.0
 11
799.5049850119783
 21
1032.959370346207
 31
0.0
1001
GENIUS_GENOBJ-N-CEN_13
1002
{
1000
OWNER
1000
GEN
1002
}
1001
GENIUS_GENODEF_13
1002
{
1000
HIER
1070
     0
1002
}
1002
{
1000
MANEDIT
1070
     0
1002
}
1002
{
1000
NOSEL
1070
     0
1002
}
1002
{
1000
BEHIND
1070
     0
1002
}
1002
{
1000
OTHER
1070
     0
1002
}
1002
{
1000
REACTOR
1002
}
1001
GENIUS_GENCEN_19
1002
{
1040
2.0
1002
}
  0
LINE
  5
5BC0
330
1F
100
AcDbEntity
  8
AM_4
  6
HIDDEN
 48
0.5
100
AcDbLine
 10
777.5049850119783
 20
1024.209370346207
 30
0.0
 11
797.5049850119785
 21
1024.209370346207
 31
0.0
  0
LINE
  5
5BC1
330
1F
100
AcDbEntity
  8
AM_4
  6
HIDDEN
 48
0.5
100
AcDbLine
 10
777.5049850119783
 20
1018.209370346207
 30
0.0
 11
797.5049850119785
 21
1018.209370346207
 31
0.0
  0
LINE
  5
5BC2
330
1F
100
AcDbEntity
  8
AM_7
  6
AM_ISO08W050x2
100
AcDbLine
 10
775.2418341058628
 20
1021.209370346207
 30
0.0
 11
799.5049850119787
 21
1021.209370346207
 31
0.0
  0
LINE
  5
5C4C
330
1F
100
AcDbEntity
  8
AM_4
  6
HIDDEN
 48
0.5
100
AcDbLine
 10
777.5049850119783
 20
1166.296197934011
 30
0.0
 11
786.0049850119783
 21
1166.296197934011
 31
0.0
  0
LINE
  5
5C4D
330
1F
100
AcDbEntity
  8
AM_4
  6
HIDDEN
 48
0.5
100
AcDbLine
 10
786.0049850119783
 20
1168.796197934011
 30
0.0
 11
797.5049850119781
 21
1168.796197934011
 31
0.0
  0
LINE
  5
5C4E
330
1F
100
AcDbEntity
  8
AM_4
  6
HIDDEN
 48
0.5
100
AcDbLine
 10
777.5049850119783
 20
1180.296197934011
 30
0.0
 11
786.0049850119783
 21
1180.296197934011
 31
0.0
  0
LINE
  5
5C4F
330
1F
100
AcDbEntity
  8
AM_4
  6
HIDDEN
 48
0.5
100
AcDbLine
 10
786.0049850119783
 20
1180.296197934011
 30
0.0
 11
786.0049850119783
 21
1166.296197934011
 31
0.0
  0
LINE
  5
5C50
330
1F
100
AcDbEntity
  8
AM_4
  6
HIDDEN
 48
0.5
100
AcDbLine
 10
786.0049850119783
 20
1177.796197934011
 30
0.0
 11
797.5049850119781
 21
1177.796197934012
 31
0.0
  0
LINE
  5
5C51
330
1F
100
AcDbEntity
  8
AM_7
100
AcDbLine
 10
775.5049850119783
 20
1173.296197934011
 30
0.0
 11
799.5049850119783
 21
1173.296197934011
 31
0.0
1001
GENIUS_GENOBJ-N-CEN_13
1002
{
1000
OWNER
1000
GEN
1002
}
1001
GENIUS_GENODEF_13
1002
{
1000
HIER
1070
     0
1002
}
1002
{
1000
MANEDIT
1070
     0
1002
}
1002
{
1000
NOSEL
1070
     0
1002
}
1002
{
1000
BEHIND
1070
     0
1002
}
1002
{
1000
OTHER
1070
     0
1002
}
1002
{
1000
REACTOR
1002
}
1001
GENIUS_GENCEN_19
1002
{
1040
2.0
1002
}
  0
LINE
  5
5C52
330
1F
100
AcDbEntity
  8
AM_4
  6
HIDDEN
 48
0.5
100
AcDbLine
 10
777.5049850119783
 20
1226.796197934011
 30
0.0
 11
786.0049850119783
 21
1226.796197934011
 31
0.0
  0
LINE
  5
5C53
330
1F
100
AcDbEntity
  8
AM_4
  6
HIDDEN
 48
0.5
100
AcDbLine
 10
786.0049850119783
 20
1224.296197934011
 30
0.0
 11
797.5049850119781
 21
1224.296197934012
 31
0.0
  0
LINE
  5
5C54
330
1F
100
AcDbEntity
  8
AM_4
  6
HIDDEN
 48
0.5
100
AcDbLine
 10
777.5049850119783
 20
1212.796197934011
 30
0.0
 11
786.0049850119783
 21
1212.796197934011
 31
0.0
  0
LINE
  5
5C55
330
1F
100
AcDbEntity
  8
AM_4
  6
HIDDEN
 48
0.5
100
AcDbLine
 10
786.0049850119783
 20
1212.796197934011
 30
0.0
 11
786.0049850119783
 21
1226.796197934011
 31
0.0
  0
LINE
  5
5C56
330
1F
100
AcDbEntity
  8
AM_4
  6
HIDDEN
 48
0.5
100
AcDbLine
 10
786.0049850119783
 20
1215.296197934012
 30
0.0
 11
797.5049850119781
 21
1215.296197934011
 31
0.0
  0
LINE
  5
5C57
330
1F
100
AcDbEntity
  8
AM_7
100
AcDbLine
 10
775.5049850119783
 20
1219.796197934011
 30
0.0
 11
799.5049850119783
 21
1219.796197934011
 31
0.0
1001
GENIUS_GENOBJ-N-CEN_13
1002
{
1000
OWNER
1000
GEN
1002
}
1001
GENIUS_GENODEF_13
1002
{
1000
HIER
1070
     0
1002
}
1002
{
1000
MANEDIT
1070
     0
1002
}
1002
{
1000
NOSEL
1070
     0
1002
}
1002
{
1000
BEHIND
1070
     0
1002
}
1002
{
1000
OTHER
1070
     0
1002
}
1002
{
1000
REACTOR
1002
}
1001
GENIUS_GENCEN_19
1002
{
1040
2.0
1002
}
  0
LINE
  5
5C65
330
1F
100
AcDbEntity
  8
AM_7
100
AcDbLine
 10
885.3503567103155
 20
1061.709370346207
 30
0.0
 11
895.8503567103155
 21
1061.709370346207
 31
0.0
1001
GENIUS_GENOREF_13
1005
5C69
  0
LINE
  5
5C66
330
1F
100
AcDbEntity
  8
AM_7
100
AcDbLine
 10
885.3503567103155
 20
1061.709370346207
 30
0.0
 11
885.3503567103155
 21
1072.209370346207
 31
0.0
1001
GENIUS_GENOREF_13
1005
5C69
  0
LINE
  5
5C67
330
1F
100
AcDbEntity
  8
AM_7
100
AcDbLine
 10
885.3503567103155
 20
1061.709370346207
 30
0.0
 11
874.8503567103155
 21
1061.709370346207
 31
0.0
1001
GENIUS_GENOREF_13
1005
5C69
  0
LINE
  5
5C68
330
1F
100
AcDbEntity
  8
AM_7
100
AcDbLine
 10
885.3503567103155
 20
1061.709370346207
 30
0.0
 11
885.3503567103155
 21
1051.209370346207
 31
0.0
1001
GENIUS_GENOREF_13
1005
5C69
  0
POINT
  5
5C69
330
1F
100
AcDbEntity
  8
0
 60
     1
100
AcDbPoint
 10
0.0
 20
0.0
 30
0.0
1001
GENIUS_GENOLIS_13
1002
{
1000
ENT
1005
5C68
1005
5C67
1005
5C66
1005
5C65
1002
}
1001
GENIUS_GENODEF_13
1002
{
1000
HIER
1070
    10
1002
}
1002
{
1000
MANEDIT
1070
     0
1002
}
1002
{
1000
NOSEL
1070
     0
1002
}
1002
{
1000
BEHIND
1070
     0
1002
}
1002
{
1000
OTHER
1070
     0
1002
}
1002
{
1000
REACTOR
1002
}
1001
GENIUS_GENOENT_13
1002
{
1000
MYREF
1005
5C69
1002
}
1002
{
1000
GRP
1005
0
1002
}
1001
GENIUS_GENOBJ-N-CRS_13
1002
{
1000
OWNER
1000
GEN
1002
}
  0
LINE
  5
5C77
330
1F
100
AcDbEntity
  8
AM_7
  6
AM_ISO08W050x2
100
AcDbLine
 10
885.3503567103155
 20
1032.209370346207
 30
0.0
 11
892.8503567103154
 21
1032.209370346207
 31
0.0
1001
GENIUS_GENOREF_13
1005
5C7B
  0
LINE
  5
5C78
330
1F
100
AcDbEntity
  8
AM_7
  6
AM_ISO08W050x2
100
AcDbLine
 10
885.3503567103155
 20
1032.209370346207
 30
0.0
 11
885.3503567103155
 21
1039.709370346207
 31
0.0
1001
GENIUS_GENOREF_13
1005
5C7B
  0
LINE
  5
5C79
330
1F
100
AcDbEntity
  8
AM_7
  6
AM_ISO08W050x2
100
AcDbLine
 10
885.3503567103155
 20
1032.209370346207
 30
0.0
 11
877.8503567103156
 21
1032.209370346207
 31
0.0
1001
GENIUS_GENOREF_13
1005
5C7B
  0
LINE
  5
5C7A
330
1F
100
AcDbEntity
  8
AM_7
  6
AM_ISO08W050x2
100
AcDbLine
 10
885.3503567103155
 20
1032.209370346207
 30
0.0
 11
885.3503567103155
 21
1024.709370346207
 31
0.0
1001
GENIUS_GENOREF_13
1005
5C7B
  0
POINT
  5
5C7B
330
1F
100
AcDbEntity
  8
0
 60
     1
100
AcDbPoint
 10
0.0
 20
0.0
 30
0.0
1001
GENIUS_GENODEF_13
1002
{
1000
HIER
1070
    10
1002
}
1002
{
1000
MANEDIT
1070
     0
1002
}
1002
{
1000
NOSEL
1070
     0
1002
}
1002
{
1000
BEHIND
1070
     0
1002
}
1002
{
1000
OTHER
1070
     0
1002
}
1002
{
1000
REACTOR
1002
}
1001
GENIUS_GENOBJ-N-CRS_13
1002
{
1000
OWNER
1000
GEN
1002
}
1001
GENIUS_GENOENT_13
1002
{
1000
MYREF
1005
5C7B
1002
}
1002
{
1000
GRP
1005
0
1002
}
1001
GENIUS_GENOLIS_13
1002
{
1000
ENT
1005
5C7A
1005
5C79
1005
5C78
1005
5C77
1002
}
  0
LINE
  5
5C89
330
1F
100
AcDbEntity
  8
AM_7
  6
AM_ISO08W050x2
100
AcDbLine
 10
885.3503567103155
 20
987.2093703462073
 30
0.0
 11
892.8503567103154
 21
987.2093703462073
 31
0.0
1001
GENIUS_GENOREF_13
1005
5C8D
  0
LINE
  5
5C8A
330
1F
100
AcDbEntity
  8
AM_7
  6
AM_ISO08W050x2
100
AcDbLine
 10
885.3503567103155
 20
987.2093703462073
 30
0.0
 11
885.3503567103155
 21
994.7093703462073
 31
0.0
1001
GENIUS_GENOREF_13
1005
5C8D
  0
LINE
  5
5C8B
330
1F
100
AcDbEntity
  8
AM_7
  6
AM_ISO08W050x2
100
AcDbLine
 10
885.3503567103155
 20
987.2093703462073
 30
0.0
 11
877.8503567103156
 21
987.2093703462073
 31
0.0
1001
GENIUS_GENOREF_13
1005
5C8D
  0
LINE
  5
5C8C
330
1F
100
AcDbEntity
  8
AM_7
  6
AM_ISO08W050x2
100
AcDbLine
 10
885.3503567103155
 20
987.2093703462073
 30
0.0
 11
885.3503567103155
 21
979.7093703462074
 31
0.0
1001
GENIUS_GENOREF_13
1005
5C8D
  0
POINT
  5
5C8D
330
1F
100
AcDbEntity
  8
0
 60
     1
100
AcDbPoint
 10
0.0
 20
0.0
 30
0.0
1001
GENIUS_GENOLIS_13
1002
{
1000
ENT
1005
5C8C
1005
5C8B
1005
5C8A
1005
5C89
1002
}
1001
GENIUS_GENODEF_13
1002
{
1000
HIER
1070
    10
1002
}
1002
{
1000
MANEDIT
1070
     0
1002
}
1002
{
1000
NOSEL
1070
     0
1002
}
1002
{
1000
BEHIND
1070
     0
1002
}
1002
{
1000
OTHER
1070
     0
1002
}
1002
{
1000
REACTOR
1002
}
1001
GENIUS_GENOENT_13
1002
{
1000
MYREF
1005
5C8D
1002
}
1002
{
1000
GRP
1005
0
1002
}
1001
GENIUS_GENOBJ-N-CRS_13
1002
{
1000
OWNER
1000
GEN
1002
}
  0
LINE
  5
5C9B
330
1F
100
AcDbEntity
  8
AM_7
100
AcDbLine
 10
885.3503567103155
 20
957.7093703462074
 30
0.0
 11
895.8503567103155
 21
957.7093703462074
 31
0.0
1001
GENIUS_GENOREF_13
1005
5C9F
  0
LINE
  5
5C9C
330
1F
100
AcDbEntity
  8
AM_7
100
AcDbLine
 10
885.3503567103155
 20
957.7093703462074
 30
0.0
 11
885.3503567103155
 21
968.2093703462074
 31
0.0
1001
GENIUS_GENOREF_13
1005
5C9F
  0
LINE
  5
5C9D
330
1F
100
AcDbEntity
  8
AM_7
100
AcDbLine
 10
885.3503567103155
 20
957.7093703462074
 30
0.0
 11
874.8503567103155
 21
957.7093703462074
 31
0.0
1001
GENIUS_GENOREF_13
1005
5C9F
  0
LINE
  5
5C9E
330
1F
100
AcDbEntity
  8
AM_7
100
AcDbLine
 10
885.3503567103155
 20
957.7093703462074
 30
0.0
 11
885.3503567103155
 21
947.2093703462073
 31
0.0
1001
GENIUS_GENOREF_13
1005
5C9F
  0
POINT
  5
5C9F
330
1F
100
AcDbEntity
  8
0
 60
     1
100
AcDbPoint
 10
0.0
 20
0.0
 30
0.0
1001
GENIUS_GENOLIS_13
1002
{
1000
ENT
1005
5C9E
1005
5C9D
1005
5C9C
1005
5C9B
1002
}
1001
GENIUS_GENODEF_13
1002
{
1000
HIER
1070
    10
1002
}
1002
{
1000
MANEDIT
1070
     0
1002
}
1002
{
1000
NOSEL
1070
     0
1002
}
1002
{
1000
BEHIND
1070
     0
1002
}
1002
{
1000
OTHER
1070
     0
1002
}
1002
{
1000
REACTOR
1002
}
1001
GENIUS_GENOENT_13
1002
{
1000
MYREF
1005
5C9F
1002
}
1002
{
1000
GRP
1005
0
1002
}
1001
GENIUS_GENOBJ-N-CRS_13
1002
{
1000
OWNER
1000
GEN
1002
}
  0
DIMENSION
  5
5CA0
330
1F
100
AcDbEntity
  8
AM_5
100
AcDbDimension
  2
*D2
 10
722.5049850119782
 20
1137.546197934012
 30
0.0
 11
699.2549850119782
 21
1141.296197934012
 31
0.0
 70
    32
 71
     5
 42
46.5
  3
AM_ISO$0
100
AcDbAlignedDimension
 13
676.0049850119782
 23
1167.296197934012
 33
0.0
 14
722.5049850119782
 24
1167.296197934012
 34
0.0
100
AcDbRotatedDimension
1001
ACAD
1000
DSTYLE
1002
{
1070
    40
1040
1.5
1070
   272
1070
     8
1002
}
  0
DIMENSION
  5
5CA1
330
1F
100
AcDbEntity
  8
AM_5
100
AcDbDimension
  2
*D3
 10
753.7392814282815
 20
1219.796197934012
 30
0.0
 11
753.7392814282814
 21
1189.38282199743
 31
0.0
 70
   160
 71
     5
 42
46.5
  3
AM_ISO$0
100
AcDbAlignedDimension
 13
728.5049850119783
 23
1173.296197934011
 33
0.0
 14
728.5049850119783
 24
1219.796197934012
 34
0.0
 50
90.0
100
AcDbRotatedDimension
1001
ACAD
1000
DSTYLE
1002
{
1070
    40
1040
1.5
1070
   272
1070
     8
1002
}
  0
INSERT
  5
5CA2
330
1F
100
AcDbEntity
  8
AM_5
100
AcDbBlockReference
  2
*S27
 10
0.0
 20
0.0
 30
0.0
  0
DIMENSION
  5
5CA3
330
1F
100
AcDbEntity
  8
AM_5
100
AcDbDimension
  2
*D4
 10
711.0049850119783
 20
1149.546197934012
 30
0.0
 11
699.5049850119783
 21
1153.296640847397
 31
0.0
 70
    32
 71
     5
 42
23.0
  3
AM_ISO$0
100
AcDbAlignedDimension
 13
688.0049850119783
 23
1168.296197934012
 33
0.0
 14
711.0049850119783
 24
1168.296197934012
 34
0.0
100
AcDbRotatedDimension
1001
ACAD
1000
DSTYLE
1002
{
1070
    40
1040
1.5
1070
   272
1070
     8
1002
}
  0
INSERT
  5
5CA4
330
1F
100
AcDbEntity
  8
AM_5
100
AcDbBlockReference
  2
*S28
 10
0.0
 20
0.0
 30
0.0
  0
TEXT
  5
5CA5
330
1F
100
AcDbEntity
  8
AM_5
100
AcDbText
 10
642.0802848891278
 20
1149.663570728887
 30
0.0
 40
4.5
  1
2x4-%%c6
100
AcDbText
  0
TEXT
  5
5CA6
330
1F
100
AcDbEntity
  8
AM_5
100
AcDbText
 10
662.3922590106542
 20
1154.566539622654
 30
0.0
 40
2.25
  1
H7
 41
0.8
  7
CHINESET
100
AcDbText
  0
DIMENSION
  5
5D3B
330
1F
100
AcDbEntity
  8
AM_5
100
AcDbDimension
  2
*D5
 10
797.5049850119782
 20
908.3918189566594
 30
0.0
 11
664.5049850119782
 21
912.1422618700451
 31
0.0
 70
    32
  1
215+stroke
 71
     5
 42
266.0
  3
AM_ISO$0
100
AcDbAlignedDimension
 13
531.5049850119783
 23
948.7093703462074
 33
0.0
 14
797.5049850119782
 24
942.2093703462074
 34
0.0
100
AcDbRotatedDimension
1001
ACAD
1000
DSTYLE
1002
{
1070
    40
1040
1.5
1070
   272
1070
     8
1002
}
  0
DIMENSION
  5
5D3C
330
1F
100
AcDbEntity
  8
AM_5
100
AcDbDimension
  2
*D6
 10
797.5049850119782
 20
920.3918189566593
 30
0.0
 11
787.5049850119783
 21
924.1422618700452
 31
0.0
 70
    32
 71
     5
 42
20.0
  3
AM_ISO$0
100
AcDbAlignedDimension
 13
777.5049850119783
 23
942.2093703462074
 33
0.0
 14
797.5049850119782
 24
942.2093703462074
 34
0.0
100
AcDbRotatedDimension
1001
ACAD
1000
DSTYLE
1002
{
1070
    40
1040
1.5
1070
   272
1070
     8
1002
}
  0
DIMENSION
  5
5D3E
330
1F
100
AcDbEntity
  8
AM_5
100
AcDbDimension
  2
*D7
 10
703.5049850119783
 20
920.3918189566593
 30
0.0
 11
663.0049850119783
 21
924.1418189566592
 31
0.0
 70
    32
 71
     5
 42
81.0
  3
AM_ISO$0
100
AcDbAlignedDimension
 13
622.5049850119782
 23
939.4593703462074
 33
0.0
 14
703.5049850119783
 24
976.2093703462074
 34
0.0
100
AcDbRotatedDimension
1001
ACAD
1000
DSTYLE
1002
{
1070
    40
1040
1.5
1070
   272
1070
     8
1002
}
  0
DIMENSION
  5
5D3F
330
1F
100
AcDbEntity
  8
AM_5
100
AcDbDimension
  2
*D8
 10
722.5049850119782
 20
920.3918189566593
 30
0.0
 11
713.0049850119783
 21
924.1418189566592
 31
0.0
 70
    32
 71
     5
 42
19.0
  3
AM_ISO$0
100
AcDbAlignedDimension
 13
703.5049850119783
 23
976.2093703462074
 33
0.0
 14
722.5049850119782
 24
937.2093703462073
 34
0.0
100
AcDbRotatedDimension
1001
ACAD
1000
DSTYLE
1002
{
1070
    40
1040
1.5
1070
   272
1070
     8
1002
}
  0
DIMENSION
  5
5D40
330
1F
100
AcDbEntity
  8
AM_5
100
AcDbDimension
  2
*D9
 10
711.0049850119783
 20
1099.496441140701
 30
0.0
 11
707.2549850119782
 21
1099.496441140701
 31
0.0
 70
   160
 71
     5
 42
7.5
  3
AM_ISO$0
100
AcDbAlignedDimension
 13
703.5049850119783
 23
1043.209370346207
 33
0.0
 14
711.0049850119783
 24
1082.161945351258
 34
0.0
100
AcDbRotatedDimension
1001
ACAD
1000
DSTYLE
1002
{
1070
    40
1040
1.5
1070
   272
1070
     8
1002
}
  0
DIMENSION
  5
5D41
330
1F
100
AcDbEntity
  8
AM_5
100
AcDbDimension
  2
*D10
 10
797.5049850119782
 20
1111.496441140701
 30
0.0
 11
750.5049850119783
 21
1115.246441140701
 31
0.0
 70
    32
 71
     5
 42
94.0
  3
AM_ISO$0
100
AcDbAlignedDimension
 13
703.5049850119783
 23
1043.209370346207
 33
0.0
 14
797.5049850119782
 24
1077.209370346207
 34
0.0
100
AcDbRotatedDimension
1001
ACAD
1000
DSTYLE
1002
{
1070
    40
1040
1.5
1070
   272
1070
     8
1002
}
  0
DIMENSION
  5
5D42
330
1F
100
AcDbEntity
  8
AM_5
100
AcDbDimension
  2
*D11
 10
703.5049850119783
 20
1111.496441140701
 30
0.0
 11
623.5049850119783
 21
1115.246441140701
 31
0.0
 70
    32
  1
110+stroke
 71
     5
 42
160.0
  3
AM_ISO$0
100
AcDbAlignedDimension
 13
543.5049850119782
 23
1028.909370346207
 33
0.0
 14
703.5049850119783
 24
1043.209370346207
 34
0.0
100
AcDbRotatedDimension
1001
ACAD
1000
DSTYLE
1002
{
1070
    40
1040
1.5
1070
   272
1070
     8
1002
}
  0
DIMENSION
  5
5D43
330
1F
100
AcDbEntity
  8
AM_5
100
AcDbDimension
  2
*D12
 10
522.4830782281855
 20
947.7093703462074
 30
0.0
 11
522.4830782281854
 21
957.7093703462074
 31
0.0
 70
   160
  1
%%c<>
 71
     5
 42
20.0
  3
AM_ISO$0
100
AcDbAlignedDimension
 13
532.5049850119783
 23
967.7093703462073
 33
0.0
 14
532.5049850119783
 24
947.7093703462074
 34
0.0
 50
90.0
100
AcDbRotatedDimension
1001
ACAD
1000
DSTYLE
1002
{
1070
    40
1040
1.5
1070
   272
1070
     8
1002
}
  0
TEXT
  5
5D47
330
1F
100
AcDbEntity
  8
AM_5
100
AcDbText
 10
514.2304518904061
 20
1025.92355848198
 30
0.0
 40
4.5
  1
2-G1/4
100
AcDbText
  0
INSERT
  5
5D48
330
1F
100
AcDbEntity
  8
AM_5
100
AcDbBlockReference
  2
*S29
 10
0.0
 20
0.0
 30
0.0
  0
DIMENSION
  5
5F83
330
1F
100
AcDbEntity
  8
AM_5
100
AcDbDimension
  2
*D13
 10
908.6003567103155
 20
927.2093703462074
 30
0.0
 11
885.3503567103157
 21
927.2093703462074
 31
0.0
 70
   160
 71
     5
 42
46.5
  3
AM_ISO$0
100
AcDbAlignedDimension
 13
862.1003567103155
 23
950.7093703462073
 33
0.0
 14
908.6003567103155
 24
950.7093703462073
 34
0.0
100
AcDbRotatedDimension
1001
ACAD
1000
DSTYLE
1002
{
1070
    40
1040
1.5
1070
   272
1070
     8
1002
}
  0
DIMENSION
  5
5F84
330
1F
100
AcDbEntity
  8
AM_5
100
AcDbDimension
  2
*D14
 10
917.8503567103154
 20
915.2093703462073
 30
0.0
 11
885.3503567103155
 21
918.9593703462074
 31
0.0
 70
    32
 71
     5
 42
65.0
  3
AM_ISO$0
100
AcDbAlignedDimension
 13
852.8503567103154
 23
942.2093703462074
 33
0.0
 14
917.8503567103154
 24
942.2093703462074
 34
0.0
100
AcDbRotatedDimension
1001
ACAD
1000
DSTYLE
1002
{
1070
    40
1040
1.5
1070
   272
1070
     8
1002
}
  0
DIMENSION
  5
5F85
330
1F
100
AcDbEntity
  8
AM_5
100
AcDbDimension
  2
*D15
 10
920.3503567103155
 20
903.2093703462074
 30
0.0
 11
885.3503567103155
 21
906.9593703462073
 31
0.0
 70
    32
 71
     5
 42
70.0
  3
AM_ISO$0
100
AcDbAlignedDimension
 13
850.3503567103155
 23
939.2093703462073
 33
0.0
 14
920.3503567103155
 24
939.2093703462073
 34
0.0
100
AcDbRotatedDimension
1001
ACAD
1000
DSTYLE
1002
{
1070
    40
1040
1.5
1070
   272
1070
     8
1002
}
  0
DIMENSION
  5
5F86
330
1F
100
AcDbEntity
  8
AM_5
100
AcDbDimension
  2
*D16
 10
955.2828196731836
 20
1032.959370346207
 30
0.0
 11
951.5328196731836
 21
1009.709370346207
 31
0.0
 70
    32
 71
     5
 42
46.5
  3
AM_ISO$0
100
AcDbAlignedDimension
 13
914.6003567103155
 23
986.4593703462073
 33
0.0
 14
914.6003567103155
 24
1032.959370346207
 34
0.0
 50
90.0
100
AcDbRotatedDimension
1001
ACAD
1000
DSTYLE
1002
{
1070
    40
1040
1.5
1070
   272
1070
     8
1002
}
  0
DIMENSION
  5
5F87
330
1F
100
AcDbEntity
  8
AM_5
100
AcDbDimension
  2
*D17
 10
967.2828196731837
 20
1059.709370346207
 30
0.0
 11
963.5328196731835
 21
1009.709370346207
 31
0.0
 70
    32
 71
     5
 42
100.0
  3
AM_ISO$0
100
AcDbAlignedDimension
 13
917.6003567103155
 23
959.7093703462073
 33
0.0
 14
917.6003567103155
 24
1059.709370346207
 34
0.0
 50
90.0
100
AcDbRotatedDimension
1001
ACAD
1000
DSTYLE
1002
{
1070
    40
1040
1.5
1070
   272
1070
     8
1002
}
  0
DIMENSION
  5
5F88
330
1F
100
AcDbEntity
  8
AM_5
100
AcDbDimension
  2
*D18
 10
979.2828196731836
 20
1080.209370346207
 30
0.0
 11
975.5328196731836
 21
1009.709370346207
 31
0.0
 70
    32
 71
     5
 42
141.0
  3
AM_ISO$0
100
AcDbAlignedDimension
 13
920.3503567103155
 23
939.2093703462073
 33
0.0
 14
920.3503567103155
 24
1080.209370346207
 34
0.0
 50
90.0
100
AcDbRotatedDimension
1001
ACAD
1000
DSTYLE
1002
{
1070
    40
1040
1.5
1070
   272
1070
     8
1002
}
  0
DIMENSION
  5
5F89
330
1F
100
AcDbEntity
  8
AM_5
100
AcDbDimension
  2
*D19
 10
943.2828196731836
 20
998.2093703462073
 30
0.0
 11
939.5323767597977
 21
1009.709370346207
 31
0.0
 70
    32
 71
     5
 42
23.0
  3
AM_ISO$0
100
AcDbAlignedDimension
 13
913.6003567103156
 23
1021.209370346207
 33
0.0
 14
913.6003567103156
 24
998.2093703462073
 34
0.0
 50
90.0
100
AcDbRotatedDimension
1001
ACAD
1000
DSTYLE
1002
{
1070
    40
1040
1.5
1070
   272
1070
     8
1002
}
  0
TEXT
  5
60EC
330
1F
100
AcDbEntity
  8
AM_5
100
AcDbText
 10
941.363914156364
 20
924.0084892994017
 30
0.0
 40
4.5
  1
4-%%c9thru
100
AcDbText
  0
INSERT
  5
60ED
330
1F
100
AcDbEntity
  8
AM_5
100
AcDbBlockReference
  2
*S30
 10
0.0
 20
0.0
 30
0.0
  0
TEXT
  5
60EE
330
1F
100
AcDbEntity
  8
AM_5
100
AcDbText
 10
941.817149190661
 20
914.80130388521
 30
0.0
 40
4.5
  1
4-%%c14x8.5depth
100
AcDbText
  0
TEXT
  5
60EF
330
1F
100
AcDbEntity
  8
AM_5
100
AcDbText
 10
941.817149190661
 20
907.2538839909194
 30
0.0
 40
4.5
  1
(back side)
100
AcDbText
  0
INSERT
  5
60F0
330
1F
100
AcDbEntity
  8
AM_5
100
AcDbBlockReference
  2
*S31
 10
0.0
 20
0.0
 30
0.0
  0
TEXT
  5
60F1
330
1F
100
AcDbEntity
  8
AM_5
100
AcDbText
 10
823.9105636494873
 20
1017.921947276905
 30
0.0
 40
4.5
  1
4-%%c6
100
AcDbText
  0
TEXT
  5
60F2
330
1F
100
AcDbEntity
  8
AM_5
100
AcDbText
 10
837.7426497312885
 20
1022.824916170673
 30
0.0
 40
2.25
  1
H7
 41
0.8
  7
CHINESET
100
AcDbText
  0
INSERT
  5
60F3
330
1F
100
AcDbEntity
  8
AM_5
100
AcDbBlockReference
  2
*S32
 10
0.0
 20
0.0
 30
0.0
  0
TEXT
  5
60F4
330
1F
100
AcDbEntity
  8
AM_5
100
AcDbText
 10
820.0264882613298
 20
1051.623362962072
 30
0.0
 40
4.5
  1
4-M8
100
AcDbText
  0
ARC
  5
61A2
330
1F
100
AcDbEntity
  8
AM_4
100
AcDbCircle
 10
1177.925164136743
 20
1152.270479809428
 30
0.0
 40
5.198
100
AcDbArc
 50
259.9999999999961
 51
190.0000000000039
  0
LINE
  5
61A3
330
1F
100
AcDbEntity
  8
AM_7
100
AcDbLine
 10
1262.214489787403
 20
1062.748731463922
 30
0.0
 11
1237.614489787403
 21
1062.748731463922
 31
0.0
  0
LINE
  5
61A4
330
1F
100
AcDbEntity
  8
AM_7
100
AcDbLine
 10
1262.214489787403
 20
958.7487314639224
 30
0.0
 11
1237.614489787403
 21
958.7487314639224
 31
0.0
  0
LINE
  5
61A5
330
1F
100
AcDbEntity
  8
AM_VIS
100
AcDbLine
 10
1190.175164136743
 20
957.9987314639224
 30
0.0
 11
1190.175164136743
 21
943.2487314639224
 31
0.0
  0
LINE
  5
61A6
330
1F
100
AcDbEntity
  8
AM_VIS
100
AcDbLine
 10
1090.175164136743
 20
1076.248731463922
 30
0.0
 11
1092.175164136743
 21
1078.248731463922
 31
0.0
  0
LINE
  5
61A7
330
1F
100
AcDbEntity
  8
AM_VIS
100
AcDbLine
 10
1190.175164136743
 20
1078.248731463922
 30
0.0
 11
1190.175164136743
 21
1063.498731463922
 31
0.0
  0
LINE
  5
61A8
330
1F
100
AcDbEntity
  8
AM_VIS
100
AcDbLine
 10
1190.175164136743
 20
1061.998731463922
 30
0.0
 11
1190.175164136743
 21
1046.248731463922
 31
0.0
  0
LINE
  5
61A9
330
1F
100
AcDbEntity
  8
AM_VIS
100
AcDbLine
 10
1190.175164136743
 20
1046.248731463922
 30
0.0
 11
1132.675164136743
 21
1046.248731463922
 31
0.0
  0
LINE
  5
61AA
330
1F
100
AcDbEntity
  8
AM_VIS
100
AcDbLine
 10
1122.675164136743
 20
1036.248731463922
 30
0.0
 11
1122.675164136743
 21
985.2487314639224
 31
0.0
  0
LINE
  5
61AB
330
1F
100
AcDbEntity
  8
AM_VIS
100
AcDbLine
 10
1132.675164136743
 20
975.2487314639225
 30
0.0
 11
1190.175164136743
 21
975.2487314639225
 31
0.0
  0
LINE
  5
61AC
330
1F
100
AcDbEntity
  8
AM_VIS
100
AcDbLine
 10
1190.175164136743
 20
975.2487314639225
 30
0.0
 11
1190.175164136743
 21
959.4987314639224
 31
0.0
  0
LINE
  5
61AD
330
1F
100
AcDbEntity
  8
AM_VIS
100
AcDbLine
 10
1090.175164136743
 20
945.2487314639224
 30
0.0
 11
1090.175164136743
 21
1076.248731463922
 31
0.0
  0
LINE
  5
61AE
330
1F
100
AcDbEntity
  8
AM_VIS
100
AcDbLine
 10
1092.175164136743
 20
943.2487314639224
 30
0.0
 11
1090.175164136743
 21
945.2487314639224
 31
0.0
  0
LINE
  5
61AF
330
1F
100
AcDbEntity
  8
AM_VIS
100
AcDbLine
 10
1190.175164136743
 20
943.2487314639224
 30
0.0
 11
1092.175164136743
 21
943.2487314639224
 31
0.0
  0
LINE
  5
61B0
330
1F
100
AcDbEntity
  8
AM_VIS
100
AcDbLine
 10
1092.175164136743
 20
1078.248731463922
 30
0.0
 11
1190.175164136743
 21
1078.248731463922
 31
0.0
  0
LINE
  5
61B1
330
1F
100
AcDbEntity
  8
AM_VIS
100
AcDbLine
 10
1168.14834416957
 20
1063.498731463922
 30
0.0
 11
1190.175164136743
 21
1063.498731463922
 31
0.0
  0
LINE
  5
61B2
330
1F
100
AcDbEntity
  8
AM_VIS
100
AcDbLine
 10
1190.175164136743
 20
1061.998731463922
 30
0.0
 11
1168.14834416957
 21
1061.998731463922
 31
0.0
  0
LINE
  5
61B3
330
1F
100
AcDbEntity
  8
AM_VIS
100
AcDbLine
 10
1167.646999474333
 20
1061.998731463922
 30
0.0
 11
1168.14834416957
 21
1061.998731463922
 31
0.0
  0
LINE
  5
61B4
330
1F
100
AcDbEntity
  8
AM_VIS
100
AcDbLine
 10
1167.646999474333
 20
1063.498731463922
 30
0.0
 11
1168.14834416957
 21
1063.498731463922
 31
0.0
  0
LINE
  5
61B5
330
1F
100
AcDbEntity
  8
AM_VIS
100
AcDbLine
 10
1168.14834416957
 20
959.4987314639224
 30
0.0
 11
1190.175164136743
 21
959.4987314639224
 31
0.0
  0
LINE
  5
61B6
330
1F
100
AcDbEntity
  8
AM_VIS
100
AcDbLine
 10
1190.175164136743
 20
957.9987314639224
 30
0.0
 11
1168.14834416957
 21
957.9987314639224
 31
0.0
  0
LINE
  5
61B7
330
1F
100
AcDbEntity
  8
AM_VIS
100
AcDbLine
 10
1167.646999474333
 20
957.9987314639224
 30
0.0
 11
1168.14834416957
 21
957.9987314639224
 31
0.0
  0
LINE
  5
61B8
330
1F
100
AcDbEntity
  8
AM_VIS
100
AcDbLine
 10
1167.646999474333
 20
959.4987314639224
 30
0.0
 11
1168.14834416957
 21
959.4987314639224
 31
0.0
  0
ARC
  5
61B9
330
1F
100
AcDbEntity
  8
AM_VIS
100
AcDbCircle
 10
1132.675164136743
 20
1036.248731463922
 30
0.0
 40
10.0
100
AcDbArc
 50
90.0
 51
180.0
  0
ARC
  5
61BA
330
1F
100
AcDbEntity
  8
AM_VIS
100
AcDbCircle
 10
1132.675164136743
 20
985.2487314639224
 30
0.0
 40
10.0
100
AcDbArc
 50
180.0
 51
270.0
  0
ARC
  5
61BB
330
1F
100
AcDbEntity
  8
AM_VIS
100
AcDbCircle
 10
1157.675164136743
 20
1062.748731463922
 30
0.0
 40
10.0
100
AcDbArc
 50
4.301222304672901
 51
90.0
  0
ARC
  5
61BC
330
1F
100
AcDbEntity
  8
AM_VIS
100
AcDbCircle
 10
1157.675164136743
 20
1062.748731463922
 30
0.0
 40
10.0
100
AcDbArc
 50
90.0
 51
355.6987776953271
  0
ARC
  5
61BD
330
1F
100
AcDbEntity
  8
AM_VIS
100
AcDbCircle
 10
1157.675164136743
 20
958.7487314639224
 30
0.0
 40
10.0
100
AcDbArc
 50
4.301222304672901
 51
90.0
  0
ARC
  5
61BE
330
1F
100
AcDbEntity
  8
AM_VIS
100
AcDbCircle
 10
1157.675164136743
 20
958.7487314639224
 30
0.0
 40
10.0
100
AcDbArc
 50
90.0
 51
355.6987776953271
  0
LINE
  5
61BF
330
1F
100
AcDbEntity
  8
AM_VIS
100
AcDbLine
 10
1092.175164136743
 20
1162.270479809428
 30
0.0
 11
1090.175164136743
 21
1162.270479809428
 31
0.0
  0
LINE
  5
61C0
330
1F
100
AcDbEntity
  8
AM_VIS
100
AcDbLine
 10
1090.175164136743
 20
1142.270479809428
 30
0.0
 11
1092.175164136743
 21
1142.270479809428
 31
0.0
  0
LINE
  5
61C1
330
1F
100
AcDbEntity
  8
AM_VIS
100
AcDbLine
 10
1090.175164136743
 20
1162.270479809428
 30
0.0
 11
1090.175164136743
 21
1142.270479809428
 31
0.0
  0
LINE
  5
61C2
330
1F
100
AcDbEntity
  8
AM_VIS
100
AcDbLine
 10
1092.175164136743
 20
1162.270479809428
 30
0.0
 11
1190.175164136743
 21
1162.270479809428
 31
0.0
  0
LINE
  5
61C3
330
1F
100
AcDbEntity
  8
AM_VIS
100
AcDbLine
 10
1190.175164136743
 20
1162.270479809428
 30
0.0
 11
1190.175164136743
 21
1142.270479809428
 31
0.0
  0
LINE
  5
61C4
330
1F
100
AcDbEntity
  8
AM_VIS
100
AcDbLine
 10
1092.175164136743
 20
1142.270479809428
 30
0.0
 11
1190.175164136743
 21
1142.270479809428
 31
0.0
  0
LINE
  5
61C5
330
1F
100
AcDbEntity
  8
AM_VIS
100
AcDbLine
 10
1092.175164136743
 20
1142.270479809428
 30
0.0
 11
1092.175164136743
 21
1162.270479809428
 31
0.0
  0
CIRCLE
  5
61C6
330
1F
100
AcDbEntity
  8
AM_VIS
100
AcDbCircle
 10
1177.925164136743
 20
1152.270479809428
 30
0.0
 40
5.5
  0
CIRCLE
  5
61C7
330
1F
100
AcDbEntity
  8
AM_VIS
100
AcDbCircle
 10
1177.925164136743
 20
1152.270479809428
 30
0.0
 40
9.0
  0
CIRCLE
  5
61C8
330
1F
100
AcDbEntity
  8
AM_VIS
100
AcDbCircle
 10
1177.925164136743
 20
1152.270479809428
 30
0.0
 40
8.5
  0
CIRCLE
  5
61C9
330
1F
100
AcDbEntity
  8
AM_VIS
100
AcDbCircle
 10
1177.925164136743
 20
1152.270479809428
 30
0.0
 40
4.338
  0
LINE
  5
61CA
330
1F
100
AcDbEntity
  8
AM_VIS
100
AcDbLine
 10
1259.914489787403
 20
957.9987314639224
 30
0.0
 11
1259.914489787403
 21
943.2487314639224
 31
0.0
  0
LINE
  5
61CB
330
1F
100
AcDbEntity
  8
AM_VIS
100
AcDbLine
 10
1259.914489787403
 20
1061.998731463922
 30
0.0
 11
1259.914489787403
 21
1046.248731463922
 31
0.0
  0
LINE
  5
61CC
330
1F
100
AcDbEntity
  8
AM_VIS
100
AcDbLine
 10
1259.914489787403
 20
975.2487314639225
 30
0.0
 11
1239.914489787403
 21
975.2487314639225
 31
0.0
  0
LINE
  5
61CD
330
1F
100
AcDbEntity
  8
AM_VIS
100
AcDbLine
 10
1259.914489787403
 20
975.2487314639225
 30
0.0
 11
1259.914489787403
 21
959.4987314639224
 31
0.0
  0
LINE
  5
61CE
330
1F
100
AcDbEntity
  8
AM_VIS
100
AcDbLine
 10
1259.914489787403
 20
1078.248731463922
 30
0.0
 11
1259.914489787403
 21
1063.498731463922
 31
0.0
  0
LINE
  5
61CF
330
1F
100
AcDbEntity
  8
AM_VIS
100
AcDbLine
 10
1259.914489787403
 20
1046.248731463922
 30
0.0
 11
1239.914489787403
 21
1046.248731463922
 31
0.0
  0
LINE
  5
61D0
330
1F
100
AcDbEntity
  8
AM_VIS
100
AcDbLine
 10
1259.914489787403
 20
1036.248731463922
 30
0.0
 11
1259.914489787403
 21
985.2487314639224
 31
0.0
  0
LINE
  5
61D1
330
1F
100
AcDbEntity
  8
AM_VIS
100
AcDbLine
 10
1239.914489787403
 20
957.9987314639224
 30
0.0
 11
1239.914489787403
 21
943.2487314639224
 31
0.0
  0
LINE
  5
61D2
330
1F
100
AcDbEntity
  8
AM_VIS
100
AcDbLine
 10
1239.914489787403
 20
1078.248731463922
 30
0.0
 11
1239.914489787403
 21
1063.498731463922
 31
0.0
  0
LINE
  5
61D3
330
1F
100
AcDbEntity
  8
AM_VIS
100
AcDbLine
 10
1239.914489787403
 20
1061.998731463922
 30
0.0
 11
1239.914489787403
 21
1046.248731463922
 31
0.0
  0
LINE
  5
61D4
330
1F
100
AcDbEntity
  8
AM_VIS
100
AcDbLine
 10
1239.914489787403
 20
1036.248731463922
 30
0.0
 11
1239.914489787403
 21
985.2487314639224
 31
0.0
  0
LINE
  5
61D5
330
1F
100
AcDbEntity
  8
AM_VIS
100
AcDbLine
 10
1239.914489787403
 20
975.2487314639225
 30
0.0
 11
1239.914489787403
 21
959.4987314639224
 31
0.0
  0
LINE
  5
61D6
102
{ACAD_REACTORS
330
62DE
102
}
330
1F
100
AcDbEntity
  8
AM_VIS
100
AcDbLine
 10
1259.914489787403
 20
943.2487314639224
 30
0.0
 11
1239.914489787403
 21
943.2487314639224
 31
0.0
  0
LINE
  5
61D7
330
1F
100
AcDbEntity
  8
AM_VIS
100
AcDbLine
 10
1259.914489787403
 20
1078.248731463922
 30
0.0
 11
1239.914489787403
 21
1078.248731463922
 31
0.0
  0
LINE
  5
61D8
330
1F
100
AcDbEntity
  8
AM_VIS
100
AcDbLine
 10
1239.914489787403
 20
1063.498731463922
 30
0.0
 11
1259.914489787403
 21
1063.498731463922
 31
0.0
  0
LINE
  5
61D9
330
1F
100
AcDbEntity
  8
AM_VIS
100
AcDbLine
 10
1259.914489787403
 20
1061.998731463922
 30
0.0
 11
1239.914489787403
 21
1061.998731463922
 31
0.0
  0
LINE
  5
61DA
330
1F
100
AcDbEntity
  8
AM_VIS
100
AcDbLine
 10
1239.914489787403
 20
959.4987314639224
 30
0.0
 11
1259.914489787403
 21
959.4987314639224
 31
0.0
  0
LINE
  5
61DB
330
1F
100
AcDbEntity
  8
AM_VIS
100
AcDbLine
 10
1259.914489787403
 20
957.9987314639224
 30
0.0
 11
1239.914489787403
 21
957.9987314639224
 31
0.0
  0
LINE
  5
61DC
330
1F
100
AcDbEntity
  8
AM_VIS
100
AcDbLine
 10
1259.914489787403
 20
1036.248731463922
 30
0.0
 11
1259.914489787403
 21
1046.248731463922
 31
0.0
  0
LINE
  5
61DD
330
1F
100
AcDbEntity
  8
AM_VIS
100
AcDbLine
 10
1259.914489787403
 20
975.2487314639225
 30
0.0
 11
1259.914489787403
 21
985.2487314639224
 31
0.0
  0
LINE
  5
61DE
330
1F
100
AcDbEntity
  8
AM_VIS
100
AcDbLine
 10
1239.914489787403
 20
1046.248731463922
 30
0.0
 11
1239.914489787403
 21
1036.248731463922
 31
0.0
  0
LINE
  5
61DF
330
1F
100
AcDbEntity
  8
AM_VIS
100
AcDbLine
 10
1239.914489787403
 20
985.2487314639224
 30
0.0
 11
1239.914489787403
 21
975.2487314639225
 31
0.0
  0
LINE
  5
61E0
330
1F
100
AcDbEntity
  8
AM_VIS
100
AcDbLine
 10
1259.914489787403
 20
1061.998731463922
 30
0.0
 11
1259.914489787403
 21
1063.498731463922
 31
0.0
  0
LINE
  5
61E1
330
1F
100
AcDbEntity
  8
AM_VIS
100
AcDbLine
 10
1259.414489787403
 20
1063.498731463922
 30
0.0
 11
1259.414489787403
 21
1061.998731463922
 31
0.0
  0
LINE
  5
61E2
330
1F
100
AcDbEntity
  8
AM_VIS
100
AcDbLine
 10
1240.414489787403
 20
1061.998731463922
 30
0.0
 11
1240.414489787403
 21
1063.498731463922
 31
0.0
  0
LINE
  5
61E3
330
1F
100
AcDbEntity
  8
AM_VIS
100
AcDbLine
 10
1239.914489787403
 20
1063.498731463922
 30
0.0
 11
1239.914489787403
 21
1061.998731463922
 31
0.0
  0
LINE
  5
61E4
330
1F
100
AcDbEntity
  8
AM_VIS
100
AcDbLine
 10
1259.914489787403
 20
957.9987314639224
 30
0.0
 11
1259.914489787403
 21
959.4987314639224
 31
0.0
  0
LINE
  5
61E5
330
1F
100
AcDbEntity
  8
AM_VIS
100
AcDbLine
 10
1259.414489787403
 20
959.4987314639224
 30
0.0
 11
1259.414489787403
 21
957.9987314639224
 31
0.0
  0
LINE
  5
61E6
330
1F
100
AcDbEntity
  8
AM_VIS
100
AcDbLine
 10
1240.414489787403
 20
957.9987314639224
 30
0.0
 11
1240.414489787403
 21
959.4987314639224
 31
0.0
  0
LINE
  5
61E7
330
1F
100
AcDbEntity
  8
AM_VIS
100
AcDbLine
 10
1239.914489787403
 20
959.4987314639224
 30
0.0
 11
1239.914489787403
 21
957.9987314639224
 31
0.0
  0
LINE
  5
61E8
330
1F
100
AcDbEntity
  8
AM_7
  6
AM_ISO08W050x2
100
AcDbLine
 10
1177.925164136743
 20
1152.270479809428
 30
0.0
 11
1189.925164136743
 21
1152.270479809428
 31
0.0
1001
GENIUS_GENOREF_13
1005
61EC
  0
LINE
  5
61E9
330
1F
100
AcDbEntity
  8
AM_7
  6
AM_ISO08W050x2
100
AcDbLine
 10
1177.925164136743
 20
1152.270479809428
 30
0.0
 11
1177.925164136743
 21
1164.270479809428
 31
0.0
1001
GENIUS_GENOREF_13
1005
61EC
  0
LINE
  5
61EA
330
1F
100
AcDbEntity
  8
AM_7
  6
AM_ISO08W050x2
100
AcDbLine
 10
1177.925164136743
 20
1152.270479809428
 30
0.0
 11
1165.925164136743
 21
1152.270479809428
 31
0.0
1001
GENIUS_GENOREF_13
1005
61EC
  0
LINE
  5
61EB
330
1F
100
AcDbEntity
  8
AM_7
  6
AM_ISO08W050x2
100
AcDbLine
 10
1177.925164136743
 20
1152.270479809428
 30
0.0
 11
1177.925164136743
 21
1140.270479809428
 31
0.0
1001
GENIUS_GENOREF_13
1005
61EC
  0
POINT
  5
61EC
330
1F
100
AcDbEntity
  8
0
 60
     1
100
AcDbPoint
 10
1218.236551403603
 20
1488.31913983791
 30
0.0
1001
GENIUS_GENODEF_13
1002
{
1000
HIER
1070
    10
1002
}
1002
{
1000
MANEDIT
1070
     0
1002
}
1002
{
1000
NOSEL
1070
     0
1002
}
1002
{
1000
BEHIND
1070
     0
1002
}
1002
{
1000
OTHER
1070
     0
1002
}
1002
{
1000
REACTOR
1002
}
1001
GENIUS_GENOLIS_13
1002
{
1000
ENT
1005
61EB
1005
61EA
1005
61E9
1005
61E8
1002
}
1001
GENIUS_GENOENT_13
1002
{
1000
MYREF
1005
61EC
1002
}
1002
{
1000
GRP
1005
0
1002
}
1001
GENIUS_GENOBJ-N-CRS_13
1002
{
1000
OWNER
1000
GEN
1002
}
  0
LINE
  5
61FA
330
1F
100
AcDbEntity
  8
AM_7
100
AcDbLine
 10
1157.675164136743
 20
1062.748731463922
 30
0.0
 11
1169.675164136743
 21
1062.748731463922
 31
0.0
1001
GENIUS_GENOREF_13
1005
61FE
  0
LINE
  5
61FB
330
1F
100
AcDbEntity
  8
AM_7
100
AcDbLine
 10
1157.675164136743
 20
1062.748731463922
 30
0.0
 11
1157.675164136743
 21
1074.748731463922
 31
0.0
1001
GENIUS_GENOREF_13
1005
61FE
  0
LINE
  5
61FC
330
1F
100
AcDbEntity
  8
AM_7
100
AcDbLine
 10
1157.675164136743
 20
1062.748731463922
 30
0.0
 11
1145.675164136743
 21
1062.748731463922
 31
0.0
1001
GENIUS_GENOREF_13
1005
61FE
  0
LINE
  5
61FD
330
1F
100
AcDbEntity
  8
AM_7
100
AcDbLine
 10
1157.675164136743
 20
1062.748731463922
 30
0.0
 11
1157.675164136743
 21
1050.748731463922
 31
0.0
1001
GENIUS_GENOREF_13
1005
61FE
  0
POINT
  5
61FE
330
1F
100
AcDbEntity
  8
0
 60
     1
100
AcDbPoint
 10
0.0
 20
0.0
 30
0.0
1001
GENIUS_GENOENT_13
1002
{
1000
MYREF
1005
61FE
1002
}
1002
{
1000
GRP
1005
0
1002
}
1001
GENIUS_GENODEF_13
1002
{
1000
HIER
1070
    10
1002
}
1002
{
1000
MANEDIT
1070
     0
1002
}
1002
{
1000
NOSEL
1070
     0
1002
}
1002
{
1000
BEHIND
1070
     0
1002
}
1002
{
1000
OTHER
1070
     0
1002
}
1002
{
1000
REACTOR
1002
}
1001
GENIUS_GENOBJ-N-CRS_13
1002
{
1000
OWNER
1000
GEN
1002
}
1001
GENIUS_GENOLIS_13
1002
{
1000
ENT
1005
61FD
1005
61FC
1005
61FB
1005
61FA
1002
}
  0
LINE
  5
620C
330
1F
100
AcDbEntity
  8
AM_7
100
AcDbLine
 10
1157.675164136743
 20
958.7487314639224
 30
0.0
 11
1169.675164136743
 21
958.7487314639224
 31
0.0
1001
GENIUS_GENOREF_13
1005
6210
  0
LINE
  5
620D
330
1F
100
AcDbEntity
  8
AM_7
100
AcDbLine
 10
1157.675164136743
 20
958.7487314639224
 30
0.0
 11
1157.675164136743
 21
970.7487314639225
 31
0.0
1001
GENIUS_GENOREF_13
1005
6210
  0
LINE
  5
620E
330
1F
100
AcDbEntity
  8
AM_7
100
AcDbLine
 10
1157.675164136743
 20
958.7487314639224
 30
0.0
 11
1145.675164136743
 21
958.7487314639224
 31
0.0
1001
GENIUS_GENOREF_13
1005
6210
  0
LINE
  5
620F
330
1F
100
AcDbEntity
  8
AM_7
100
AcDbLine
 10
1157.675164136743
 20
958.7487314639224
 30
0.0
 11
1157.675164136743
 21
946.7487314639225
 31
0.0
1001
GENIUS_GENOREF_13
1005
6210
  0
POINT
  5
6210
330
1F
100
AcDbEntity
  8
0
 60
     1
100
AcDbPoint
 10
0.0
 20
0.0
 30
0.0
1001
GENIUS_GENOENT_13
1002
{
1000
MYREF
1005
6210
1002
}
1002
{
1000
GRP
1005
0
1002
}
1001
GENIUS_GENOBJ-N-CRS_13
1002
{
1000
OWNER
1000
GEN
1002
}
1001
GENIUS_GENOLIS_13
1002
{
1000
ENT
1005
620F
1005
620E
1005
620D
1005
620C
1002
}
1001
GENIUS_GENODEF_13
1002
{
1000
HIER
1070
    10
1002
}
1002
{
1000
MANEDIT
1070
     0
1002
}
1002
{
1000
NOSEL
1070
     0
1002
}
1002
{
1000
BEHIND
1070
     0
1002
}
1002
{
1000
OTHER
1070
     0
1002
}
1002
{
1000
REACTOR
1002
}
  0
DIMENSION
  5
6211
330
1F
100
AcDbEntity
  8
AM_5
100
AcDbDimension
  2
*D20
 10
1078.175164136743
 20
958.7487314639224
 30
0.0
 11
1074.425164136743
 21
1010.748731463922
 31
0.0
 70
    32
 71
     5
 42
104.0
  3
AM_ISO$0
100
AcDbAlignedDimension
 13
1145.675164136743
 23
1062.748731463922
 33
0.0
 14
1145.675164136743
 24
958.7487314639224
 34
0.0
 50
90.0
100
AcDbRotatedDimension
1001
ACAD
1000
DSTYLE
1002
{
1070
    40
1040
1.5
1070
   272
1070
     8
1002
}
  0
DIMENSION
  5
6212
330
1F
100
AcDbEntity
  8
AM_5
100
AcDbDimension
  2
*D21
 10
1066.175164136743
 20
943.2487314639224
 30
0.0
 11
1062.425164136743
 21
1010.748731463922
 31
0.0
 70
    32
 71
     5
 42
135.0
  3
AM_ISO$0
100
AcDbAlignedDimension
 13
1092.175164136743
 23
1078.248731463922
 33
0.0
 14
1092.175164136743
 24
943.2487314639224
 34
0.0
 50
90.0
100
AcDbRotatedDimension
1001
ACAD
1000
DSTYLE
1002
{
1070
    40
1040
1.5
1070
   272
1070
     8
1002
}
  0
DIMENSION
  5
6213
330
1F
100
AcDbEntity
  8
AM_5
100
AcDbDimension
  2
*D22
 10
1157.675164136743
 20
919.2487314639222
 30
0.0
 11
1123.925164136743
 21
922.9987314639222
 31
0.0
 70
    32
 71
     5
 42
67.5
  3
AM_ISO$0
100
AcDbAlignedDimension
 13
1090.175164136743
 23
945.2487314639224
 33
0.0
 14
1157.675164136743
 24
946.7487314639225
 34
0.0
100
AcDbRotatedDimension
1001
ACAD
1000
DSTYLE
1002
{
1070
    40
1040
1.5
1070
   272
1070
     8
1002
}
  0
DIMENSION
  5
6214
330
1F
100
AcDbEntity
  8
AM_5
100
AcDbDimension
  2
*D23
 10
1190.175164136743
 20
907.2487314639221
 30
0.0
 11
1140.175164136743
 21
910.9987314639223
 31
0.0
 70
    32
 71
     5
 42
100.0
  3
AM_ISO$0
100
AcDbAlignedDimension
 13
1090.175164136743
 23
945.2487314639224
 33
0.0
 14
1190.175164136743
 24
943.2487314639224
 34
0.0
100
AcDbRotatedDimension
1001
ACAD
1000
DSTYLE
1002
{
1070
    40
1040
1.5
1070
   272
1070
     8
1002
}
  0
DIMENSION
  5
6215
330
1F
100
AcDbEntity
  8
AM_5
100
AcDbDimension
  2
*D24
 10
1122.675164136743
 20
931.2487314639222
 30
0.0
 11
1106.425164136743
 21
934.9991743773081
 31
0.0
 70
    32
 71
     5
 42
32.5
  3
AM_ISO$0
100
AcDbAlignedDimension
 13
1090.175164136743
 23
945.2487314639224
 33
0.0
 14
1122.675164136743
 24
985.2487314639224
 34
0.0
100
AcDbRotatedDimension
1001
ACAD
1000
DSTYLE
1002
{
1070
    40
1040
1.5
1070
   272
1070
     8
1002
}
  0
DIMENSION
  5
62D0
102
{ACAD_XDICTIONARY
360
62DD
102
}
102
{ACAD_REACTORS
330
62DE
102
}
330
1F
100
AcDbEntity
  8
AM_5
100
AcDbDimension
  2
*D25
 10
1259.914489787403
 20
931.2487314639225
 30
0.0
 11
1249.914489787403
 21
934.9991743773083
 31
0.0
 70
    32
 71
     5
 42
20.0
  3
AM_ISO$0
100
AcDbAlignedDimension
 13
1239.914489787403
 23
943.2487314639224
 33
0.0
 14
1259.914489787403
 24
943.2487314639224
 34
0.0
100
AcDbRotatedDimension
1001
ACAD
1000
DSTYLE
1002
{
1070
    40
1040
1.5
1070
   272
1070
     8
1002
}
  0
DIMENSION
  5
62F4
330
1F
100
AcDbEntity
  8
AM_5
100
AcDbDimension
  2
*D26
 10
1204.425164136743
 20
975.2487314639225
 30
0.0
 11
1200.675164136743
 21
1010.748731463922
 31
0.0
 70
    32
 71
     5
 42
71.0
  3
AM_ISO$0
100
AcDbAlignedDimension
 13
1190.175164136743
 23
1046.248731463922
 33
0.0
 14
1190.175164136743
 24
975.2487314639225
 34
0.0
 50
90.0
100
AcDbRotatedDimension
1001
ACAD
1000
DSTYLE
1002
{
1070
    40
1040
1.5
1070
   272
1070
     8
1002
}
  0
LINE
  5
631F
330
1F
100
AcDbEntity
  8
0
100
AcDbLine
 10
752.5049850119783
 20
1002.927040363082
 30
0.0
 11
759.5049850119782
 21
1016.491700329332
 31
0.0
  0
LINE
  5
6320
330
1F
100
AcDbEntity
  8
0
100
AcDbLine
 10
752.5049850119783
 20
1016.491700329332
 30
0.0
 11
759.5049850119786
 21
1002.927040363082
 31
0.0
  0
TEXT
  5
673A
330
1F
100
AcDbEntity
  8
AM_5
100
AcDbText
 10
746.6117678526786
 20
1150.109062289218
 30
0.0
 40
4.5
  1
2x4-M8x14depth
100
AcDbText
  0
ENDSEC
  0
SECTION
  2
OBJECTS
  0
DICTIONARY
  5
C
330
0
100
AcDbDictionary
281
     1
  3
ACAD_COLOR
350
BE
  3
ACAD_GROUP
350
D
  3
ACAD_LAYOUT
350
1A
  3
ACAD_MATERIAL
350
BD
  3
ACAD_MLINESTYLE
350
17
  3
ACAD_PLOTSETTINGS
350
19
  3
ACAD_PLOTSTYLENAME
350
E
  3
ACAD_TABLESTYLE
350
11A
  3
ACDBHEADERROUNDTRIPXREC
350
68D7
  3
AcDbVariableDictionary
350
94
  3
AcmDictionary
350
5B
  3
AMG
350
41
  3
AMGSNAPSETTINGS
350
1B8
  3
DWGPROPS
350
68D6
  3
MAPISURF_MODULE
350
6832
  0
DICTIONARY
  5
3F9
330
2
100
AcDbDictionary
280
     1
281
     1
  3
ACAD_LAYERFILTERS
360
5B7
  3
ACAD_LAYERSTATES
360
722
  3
ACLYDICTIONARY
360
5B6
  3
AMLAYER_GROUPCOLORS
360
A90
  0
DICTIONARY
  5
8F
330
1F
100
AcDbDictionary
280
     1
281
     1
  3
ACAD_INDEX
360
6886
  3
ACAD_SORTENTS
360
AC1
  0
DICTIONARY
  5
62DD
330
62D0
100
AcDbDictionary
280
     1
281
     1
  3
ACAD_DIMASSOC
360
62DE
  0
DICTIONARY
  5
BE
102
{ACAD_REACTORS
330
C
102
}
330
C
100
AcDbDictionary
281
     1
  0
DICTIONARY
  5
D
102
{ACAD_REACTORS
330
C
102
}
330
C
100
AcDbDictionary
281
     1
  0
DICTIONARY
  5
1A
102
{ACAD_REACTORS
330
C
102
}
330
C
100
AcDbDictionary
281
     1
  3
Model
350
22
  3
配置1
350
1E
  3
配置2
350
26
  0
DICTIONARY
  5
BD
102
{ACAD_REACTORS
330
C
102
}
330
C
100
AcDbDictionary
281
     1
  0
DICTIONARY
  5
17
102
{ACAD_REACTORS
330
C
102
}
330
C
100
AcDbDictionary
281
     1
  3
Standard
350
18
  0
DICTIONARY
  5
19
102
{ACAD_REACTORS
330
C
102
}
330
C
100
AcDbDictionary
281
     1
  0
ACDBDICTIONARYWDFLT
  5
E
102
{ACAD_REACTORS
330
C
102
}
330
C
100
AcDbDictionary
281
     1
  3
Normal
350
F
100
AcDbDictionaryWithDefault
340
F
  0
DICTIONARY
  5
11A
102
{ACAD_REACTORS
330
C
102
}
330
C
100
AcDbDictionary
281
     1
  3
Standard
350
11B
  0
DICTIONARY
  5
68D7
102
{ACAD_REACTORS
330
C
102
}
330
C
100
AcDbDictionary
281
     1
  0
DICTIONARY
  5
94
102
{ACAD_REACTORS
330
C
102
}
330
C
100
AcDbDictionary
281
     1
  3
CTABLESTYLE
350
138
  3
DIMASSOC
350
96
  3
INDEXCTL
350
95
  3
PROJECTNAME
350
67A0
  0
DICTIONARY
  5
5B
102
{ACAD_REACTORS
330
C
102
}
330
C
100
AcDbDictionary
281
     1
  3
AcmBOM
350
1B5
  3
AcmStdDictionary
350
61
  3
AMDTSECTSYM_ARROWCOLOR
350
123
  0
DICTIONARY
  5
41
102
{ACAD_REACTORS
330
C
102
}
330
C
100
AcDbDictionary
281
     1
  3
AcMgSettings
350
67AC
  0
DICTIONARY
  5
1B8
102
{ACAD_REACTORS
330
C
102
}
330
C
100
AcDbDictionary
281
     1
  0
XRECORD
  5
68D6
102
{ACAD_REACTORS
330
C
102
}
330
C
100
AcDbXrecord
280
     1
  1
DWGPROPS COOKIE
  2

  3

  4

  6

  7

  8

  9

300
AmdtFileType=84
301
=
302
=
303
=
304
=
305
=
306
=
307
=
308
=
309
=
 40
1.061497581018518
 41
2453571.402341933
 42
2456212.573909861
  1

 90
        1
  0
DICTIONARY
  5
5B7
102
{ACAD_REACTORS
330
3F9
102
}
330
3F9
100
AcDbDictionary
281
     1
  0
DICTIONARY
  5
722
102
{ACAD_REACTORS
330
3F9
102
}
330
3F9
100
AcDbDictionary
281
     1
  0
DICTIONARY
  5
5B6
102
{ACAD_REACTORS
330
3F9
102
}
330
3F9
100
AcDbDictionary
281
     1
1001
ACAD
1000
<All
  0
DICTIONARY
  5
A90
102
{ACAD_REACTORS
330
3F9
102
}
330
3F9
100
AcDbDictionary
280
     1
281
     1
  0
DICTIONARY
  5
6886
102
{ACAD_REACTORS
330
8F
102
}
330
8F
100
AcDbDictionary
281
     1
  3
*A1
350
6887
  0
SORTENTSTABLE
  5
AC1
102
{ACAD_REACTORS
330
8F
102
}
330
8F
100
AcDbSortentsTable
330
1F
331
583C
  5
583C
331
56C9
  5
56C9
331
584C
  5
584C
331
5912
  5
5912
331
5AAE
  5
5AAE
331
564B
  5
564B
331
5682
  5
5682
331
5700
  5
5700
331
57F5
  5
57F5
331
5653
  5
5653
331
5B0D
  5
5B0D
331
59B0
  5
59B0
331
591A
  5
591A
331
585C
  5
585C
331
5969
  5
5969
331
5AB6
  5
5AB6
331
5614
  5
5614
331
56D1
  5
56D1
331
5708
  5
5708
331
5747
  5
5747
331
57B6
  5
57B6
331
57FD
  5
57FD
331
56D9
  5
56D9
331
59B8
  5
59B8
331
5A47
  5
5A47
331
5B15
  5
5B15
331
561C
  5
561C
331
574F
  5
574F
331
57BE
  5
57BE
331
18E7
  5
18E7
331
5805
  5
5805
331
5ACE
  5
5ACE
331
5624
  5
5624
331
56A2
  5
56A2
331
5718
  5
5718
331
57C6
  5
57C6
331
18EF
  5
18EF
331
18B0
  5
18B0
331
57CE
  5
57CE
331
1926
  5
1926
331
192E
  5
192E
331
18B8
  5
18B8
331
18F7
  5
18F7
331
5B5D
  5
5B5D
331
5B6D
  5
5B6D
331
580D
  5
580D
331
5932
  5
5932
331
5979
  5
5979
331
5815
  5
5815
331
593A
  5
593A
331
5AD6
  5
5AD6
331
562C
  5
562C
331
56E1
  5
56E1
331
5720
  5
5720
331
5991
  5
5991
331
59E0
  5
59E0
331
5ADE
  5
5ADE
331
5634
  5
5634
331
566B
  5
566B
331
56E9
  5
56E9
331
5728
  5
5728
331
575F
  5
575F
331
57D6
  5
57D6
331
5730
  5
5730
331
5AE6
  5
5AE6
331
5A9F
  5
5A9F
331
5894
  5
5894
331
5999
  5
5999
331
563C
  5
563C
331
56F1
  5
56F1
331
5767
  5
5767
331
57DE
  5
57DE
331
18C0
  5
18C0
331
18FF
  5
18FF
331
57E6
  5
57E6
331
576F
  5
576F
331
56C2
  5
56C2
331
5AEE
  5
5AEE
331
5AA7
  5
5AA7
331
5644
  5
5644
331
567B
  5
567B
331
56F9
  5
56F9
331
5738
  5
5738
331
18C8
  5
18C8
331
194E
  5
194E
331
1956
  5
1956
331
18D0
  5
18D0
331
57EE
  5
57EE
331
5777
  5
5777
331
190F
  5
190F
331
18D8
  5
18D8
331
195E
  5
195E
331
1917
  5
1917
331
5BA5
  5
5BA5
331
58A4
  5
58A4
331
59F0
  5
59F0
331
56CA
  5
56CA
331
584D
  5
584D
331
5913
  5
5913
331
5AAF
  5
5AAF
331
564C
  5
564C
331
5683
  5
5683
331
5701
  5
5701
331
5740
  5
5740
331
57F6
  5
57F6
331
5654
  5
5654
331
5B0E
  5
5B0E
331
59B1
  5
59B1
331
591B
  5
591B
331
585D
  5
585D
331
596A
  5
596A
331
5A40
  5
5A40
331
5615
  5
5615
331
56D2
  5
56D2
331
5709
  5
5709
331
5748
  5
5748
331
57B7
  5
57B7
331
57FE
  5
57FE
331
57BF
  5
57BF
331
5AC7
  5
5AC7
331
592B
  5
592B
331
59B9
  5
59B9
331
5B16
  5
5B16
331
561D
  5
561D
331
569B
  5
569B
331
56DA
  5
56DA
331
5750
  5
5750
331
18E0
  5
18E0
331
18E8
  5
18E8
331
57C7
  5
57C7
331
5ACF
  5
5ACF
331
5625
  5
5625
331
56A3
  5
56A3
331
5719
  5
5719
331
5806
  5
5806
331
1927
  5
1927
331
18B1
  5
18B1
331
57CF
  5
57CF
331
18F0
  5
18F0
331
192F
  5
192F
331
18B9
  5
18B9
331
5B5E
  5
5B5E
331
5B6E
  5
5B6E
331
580E
  5
580E
331
5933
  5
5933
331
597A
  5
597A
331
5AD7
  5
5AD7
331
562D
  5
562D
331
56E2
  5
56E2
331
5721
  5
5721
331
5992
  5
5992
331
5ADF
  5
5ADF
331
5635
  5
5635
331
566C
  5
566C
331
56B3
  5
56B3
331
56EA
  5
56EA
331
5729
  5
5729
331
5760
  5
5760
331
57D7
  5
57D7
331
18F8
  5
18F8
331
5768
  5
5768
331
56F2
  5
56F2
331
5AE7
  5
5AE7
331
5AA0
  5
5AA0
331
5895
  5
5895
331
599A
  5
599A
331
563D
  5
563D
331
56BB
  5
56BB
331
5731
  5
5731
331
57DF
  5
57DF
331
18C1
  5
18C1
331
194F
  5
194F
331
57E7
  5
57E7
331
56C3
  5
56C3
331
5AEF
  5
5AEF
331
5645
  5
5645
331
567C
  5
567C
331
56FA
  5
56FA
331
5739
  5
5739
331
5770
  5
5770
331
18C9
  5
18C9
331
1908
  5
1908
331
18D1
  5
18D1
331
57EF
  5
57EF
331
1957
  5
1957
331
18D9
  5
18D9
331
5BA6
  5
5BA6
331
59F1
  5
59F1
331
58A5
  5
58A5
331
59A2
  5
59A2
331
5AA8
  5
5AA8
331
56CB
  5
56CB
331
5A01
  5
5A01
331
5914
  5
5914
331
5AB0
  5
5AB0
331
564D
  5
564D
331
5684
  5
5684
331
5702
  5
5702
331
5741
  5
5741
331
57F7
  5
57F7
331
5655
  5
5655
331
5B0F
  5
5B0F
331
585E
  5
585E
331
591C
  5
591C
331
59B2
  5
59B2
331
5A41
  5
5A41
331
5616
  5
5616
331
56D3
  5
56D3
331
570A
  5
570A
331
5749
  5
5749
331
57B8
  5
57B8
331
57FF
  5
57FF
331
57C0
  5
57C0
331
569C
  5
569C
331
5AC8
  5
5AC8
331
592C
  5
592C
331
59BA
  5
59BA
331
5B17
  5
5B17
331
561E
  5
561E
331
565D
  5
565D
331
56DB
  5
56DB
331
5751
  5
5751
331
18E1
  5
18E1
331
18AA
  5
18AA
331
5626
  5
5626
331
56A4
  5
56A4
331
571A
  5
571A
331
57C8
  5
57C8
331
5807
  5
5807
331
18E9
  5
18E9
331
1928
  5
1928
331
18B2
  5
18B2
331
18F1
  5
18F1
331
18BA
  5
18BA
331
1930
  5
1930
331
5B6F
  5
5B6F
331
5AD0
  5
5AD0
331
580F
  5
580F
331
586E
  5
586E
331
5934
  5
5934
331
597B
  5
597B
331
5AD8
  5
5AD8
331
593C
  5
593C
331
598B
  5
598B
331
562E
  5
562E
331
5665
  5
5665
331
56E3
  5
56E3
331
5722
  5
5722
331
57D0
  5
57D0
331
5AE0
  5
5AE0
331
5993
  5
5993
331
5636
  5
5636
331
566D
  5
566D
331
56B4
  5
56B4
331
56EB
  5
56EB
331
572A
  5
572A
331
5761
  5
5761
331
57D8
  5
57D8
331
57E0
  5
57E0
331
5732
  5
5732
331
5AE8
  5
5AE8
331
5AA1
  5
5AA1
331
582F
  5
582F
331
599B
  5
599B
331
563E
  5
563E
331
5675
  5
5675
331
56F3
  5
56F3
331
5769
  5
5769
331
18C2
  5
18C2
331
18F9
  5
18F9
331
18CA
  5
18CA
331
57E8
  5
57E8
331
56C4
  5
56C4
331
5646
  5
5646
331
567D
  5
567D
331
56FB
  5
56FB
331
573A
  5
573A
331
5771
  5
5771
331
1950
  5
1950
331
18D2
  5
18D2
331
1909
  5
1909
331
1958
  5
1958
331
18DA
  5
18DA
331
1D08
  5
1D08
331
5AF0
  5
5AF0
331
59F2
  5
59F2
331
58A6
  5
58A6
331
590D
  5
590D
331
59A3
  5
59A3
331
5AA9
  5
5AA9
331
56CC
  5
56CC
331
564E
  5
564E
331
5A02
  5
5A02
331
5915
  5
5915
331
5AB1
  5
5AB1
331
560F
  5
560F
331
5685
  5
5685
331
5703
  5
5703
331
5742
  5
5742
331
57F0
  5
57F0
331
57F8
  5
57F8
331
5656
  5
5656
331
591D
  5
591D
331
585F
  5
585F
331
58B6
  5
58B6
331
59B3
  5
59B3
331
5B10
  5
5B10
331
5617
  5
5617
331
56D4
  5
56D4
331
570B
  5
570B
331
574A
  5
574A
331
57B9
  5
57B9
331
18E2
  5
18E2
331
57C1
  5
57C1
331
569D
  5
569D
331
5AC9
  5
5AC9
331
592D
  5
592D
331
59BB
  5
59BB
331
561F
  5
561F
331
565E
  5
565E
331
56DC
  5
56DC
331
5752
  5
5752
331
5800
  5
5800
331
18AB
  5
18AB
331
5627
  5
5627
331
56A5
  5
56A5
331
571B
  5
571B
331
57C9
  5
57C9
331
18EA
  5
18EA
331
1921
  5
1921
331
1929
  5
1929
331
18B3
  5
18B3
331
18F2
  5
18F2
331
18BB
  5
18BB
331
5B18
  5
5B18
331
5B70
  5
5B70
331
5808
  5
5808
331
5AD1
  5
5AD1
331
5810
  5
5810
331
586F
  5
586F
331
597C
  5
597C
331
59CB
  5
59CB
331
5AD9
  5
5AD9
331
593D
  5
593D
331
598C
  5
598C
331
562F
  5
562F
331
5666
  5
5666
331
56E4
  5
56E4
331
5723
  5
5723
331
57D1
  5
57D1
331
5994
  5
5994
331
5AE1
  5
5AE1
331
5637
  5
5637
331
566E
  5
566E
331
56B5
  5
56B5
331
56EC
  5
56EC
331
572B
  5
572B
331
5762
  5
5762
331
57D9
  5
57D9
331
57E1
  5
57E1
331
5733
  5
5733
331
56BD
  5
56BD
331
5AE9
  5
5AE9
331
5955
  5
5955
331
599C
  5
599C
331
5AA2
  5
5AA2
331
5676
  5
5676
331
56F4
  5
56F4
331
576A
  5
576A
331
18C3
  5
18C3
331
18FA
  5
18FA
331
18CB
  5
18CB
331
57E9
  5
57E9
331
5647
  5
5647
331
567E
  5
567E
331
56FC
  5
56FC
331
573B
  5
573B
331
5772
  5
5772
331
1951
  5
1951
331
18D3
  5
18D3
331
190A
  5
190A
331
1959
  5
1959
331
18DB
  5
18DB
331
5AF1
  5
5AF1
331
58A7
  5
58A7
331
590E
  5
590E
331
59A4
  5
59A4
331
5AAA
  5
5AAA
331
56CD
  5
56CD
331
564F
  5
564F
331
5B09
  5
5B09
331
5916
  5
5916
331
5A03
  5
5A03
331
5AB2
  5
5AB2
331
5610
  5
5610
331
5686
  5
5686
331
5704
  5
5704
331
5743
  5
5743
331
57F1
  5
57F1
331
57F9
  5
57F9
331
56D5
  5
56D5
331
5B11
  5
5B11
331
58B7
  5
58B7
331
59B4
  5
59B4
331
5618
  5
5618
331
570C
  5
570C
331
574B
  5
574B
331
57BA
  5
57BA
331
5801
  5
5801
331
57C2
  5
57C2
331
5714
  5
5714
331
569E
  5
569E
331
592E
  5
592E
331
59BC
  5
59BC
331
5ACA
  5
5ACA
331
5620
  5
5620
331
565F
  5
565F
331
56DD
  5
56DD
331
5753
  5
5753
331
18E3
  5
18E3
331
18EB
  5
18EB
331
18AC
  5
18AC
331
56A6
  5
56A6
331
571C
  5
571C
331
57CA
  5
57CA
331
1922
  5
1922
331
192A
  5
192A
331
18B4
  5
18B4
331
18F3
  5
18F3
331
18BC
  5
18BC
331
5B59
  5
5B59
331
5B71
  5
5B71
331
5809
  5
5809
331
5811
  5
5811
331
5870
  5
5870
331
5936
  5
5936
331
59CC
  5
59CC
331
5AD2
  5
5AD2
331
5628
  5
5628
331
5880
  5
5880
331
58C7
  5
58C7
331
593E
  5
593E
331
598D
  5
598D
331
5ADA
  5
5ADA
331
5630
  5
5630
331
5667
  5
5667
331
56E5
  5
56E5
331
5724
  5
5724
331
57D2
  5
57D2
331
5AE2
  5
5AE2
331
5995
  5
5995
331
5A9B
  5
5A9B
331
5638
  5
5638
331
56B6
  5
56B6
331
56ED
  5
56ED
331
572C
  5
572C
331
5763
  5
5763
331
57DA
  5
57DA
331
18FB
  5
18FB
331
57E2
  5
57E2
331
5734
  5
5734
331
56BE
  5
56BE
331
5AEA
  5
5AEA
331
5956
  5
5956
331
599D
  5
599D
331
5AA3
  5
5AA3
331
5677
  5
5677
331
56F5
  5
56F5
331
576B
  5
576B
331
18C4
  5
18C4
331
1903
  5
1903
331
18CC
  5
18CC
331
57EA
  5
57EA
331
567F
  5
567F
331
56FD
  5
56FD
331
573C
  5
573C
331
5773
  5
5773
331
1952
  5
1952
331
190B
  5
190B
331
18D4
  5
18D4
331
195A
  5
195A
331
1913
  5
1913
331
18DC
  5
18DC
331
5AF2
  5
5AF2
331
590F
  5
590F
331
59A5
  5
59A5
331
5AAB
  5
5AAB
331
5648
  5
5648
331
56CE
  5
56CE
331
5650
  5
5650
331
5B0A
  5
5B0A
331
5917
  5
5917
331
5A04
  5
5A04
331
5AB3
  5
5AB3
331
5611
  5
5611
331
5687
  5
5687
331
5705
  5
5705
331
5744
  5
5744
331
57F2
  5
57F2
331
57FA
  5
57FA
331
56D6
  5
56D6
331
59B5
  5
59B5
331
5B12
  5
5B12
331
5619
  5
5619
331
570D
  5
570D
331
574C
  5
574C
331
57BB
  5
57BB
331
5802
  5
5802
331
57C3
  5
57C3
331
5715
  5
5715
331
569F
  5
569F
331
59BD
  5
59BD
331
5ACB
  5
5ACB
331
5621
  5
5621
331
56DE
  5
56DE
331
5754
  5
5754
331
18E4
  5
18E4
331
191B
  5
191B
331
18EC
  5
18EC
331
18AD
  5
18AD
331
56A7
  5
56A7
331
571D
  5
571D
331
57CB
  5
57CB
331
1923
  5
1923
331
192B
  5
192B
331
18B5
  5
18B5
331
18F4
  5
18F4
331
18BD
  5
18BD
331
580A
  5
580A
331
58B8
  5
58B8
331
5812
  5
5812
331
5871
  5
5871
331
5937
  5
5937
331
59CD
  5
59CD
331
5AD3
  5
5AD3
331
5629
  5
5629
331
5660
  5
5660
331
59DD
  5
59DD
331
5881
  5
5881
331
5822
  5
5822
331
593F
  5
593F
331
598E
  5
598E
331
5ADB
  5
5ADB
331
5631
  5
5631
331
5668
  5
5668
331
56E6
  5
56E6
331
5725
  5
5725
331
57D3
  5
57D3
331
5AE3
  5
5AE3
331
5996
  5
5996
331
5A9C
  5
5A9C
331
5639
  5
5639
331
56EE
  5
56EE
331
572D
  5
572D
331
5764
  5
5764
331
57DB
  5
57DB
331
194B
  5
194B
331
57E3
  5
57E3
331
5735
  5
5735
331
5AEB
  5
5AEB
331
5957
  5
5957
331
599E
  5
599E
331
5AA4
  5
5AA4
331
56BF
  5
56BF
331
56F6
  5
56F6
331
576C
  5
576C
331
18C5
  5
18C5
331
1904
  5
1904
331
18CD
  5
18CD
331
57EB
  5
57EB
331
56FE
  5
56FE
331
573D
  5
573D
331
5774
  5
5774
331
1953
  5
1953
331
190C
  5
190C
331
18D5
  5
18D5
331
18DD
  5
18DD
331
5BA2
  5
5BA2
331
584A
  5
584A
331
5910
  5
5910
331
5AAC
  5
5AAC
331
5649
  5
5649
331
5680
  5
5680
331
57F3
  5
57F3
331
56CF
  5
56CF
331
5651
  5
5651
331
5B0B
  5
5B0B
331
5967
  5
5967
331
5918
  5
5918
331
59AE
  5
59AE
331
5AB4
  5
5AB4
331
5612
  5
5612
331
5688
  5
5688
331
5706
  5
5706
331
5745
  5
5745
331
57B4
  5
57B4
331
57FB
  5
57FB
331
56D7
  5
56D7
331
59B6
  5
59B6
331
5B13
  5
5B13
331
561A
  5
561A
331
570E
  5
570E
331
574D
  5
574D
331
57BC
  5
57BC
331
5803
  5
5803
331
57C4
  5
57C4
331
5716
  5
5716
331
5ACC
  5
5ACC
331
5622
  5
5622
331
56A0
  5
56A0
331
5755
  5
5755
331
18E5
  5
18E5
331
191C
  5
191C
331
18ED
  5
18ED
331
18AE
  5
18AE
331
571E
  5
571E
331
57CC
  5
57CC
331
1924
  5
1924
331
192C
  5
192C
331
18B6
  5
18B6
331
18F5
  5
18F5
331
18BE
  5
18BE
331
5B5B
  5
5B5B
331
5B6B
  5
5B6B
331
580B
  5
580B
331
58B9
  5
58B9
331
5930
  5
5930
331
5813
  5
5813
331
5938
  5
5938
331
59CE
  5
59CE
331
5AD4
  5
5AD4
331
562A
  5
562A
331
5661
  5
5661
331
56A8
  5
56A8
331
5940
  5
5940
331
5882
  5
5882
331
58E1
  5
58E1
331
59DE
  5
59DE
331
5ADC
  5
5ADC
331
5632
  5
5632
331
5669
  5
5669
331
56E7
  5
56E7
331
5726
  5
5726
331
57D4
  5
57D4
331
5AE4
  5
5AE4
331
5997
  5
5997
331
5892
  5
5892
331
5A9D
  5
5A9D
331
563A
  5
563A
331
56EF
  5
56EF
331
572E
  5
572E
331
5765
  5
5765
331
57DC
  5
57DC
331
194C
  5
194C
331
57E4
  5
57E4
331
5736
  5
5736
331
56F7
  5
56F7
331
5AEC
  5
5AEC
331
599F
  5
599F
331
5AA5
  5
5AA5
331
56C0
  5
56C0
331
576D
  5
576D
331
18C6
  5
18C6
331
1954
  5
1954
331
18CE
  5
18CE
331
57EC
  5
57EC
331
56FF
  5
56FF
331
573E
  5
573E
331
5775
  5
5775
331
190D
  5
190D
331
18D6
  5
18D6
331
18DE
  5
18DE
331
5BA3
  5
5BA3
331
5958
  5
5958
331
584B
  5
584B
331
5911
  5
5911
331
5AAD
  5
5AAD
331
564A
  5
564A
331
5681
  5
5681
331
57F4
  5
57F4
331
5652
  5
5652
331
5B0C
  5
5B0C
331
59AF
  5
59AF
331
5919
  5
5919
331
5968
  5
5968
331
5AB5
  5
5AB5
331
5613
  5
5613
331
56D0
  5
56D0
331
5707
  5
5707
331
5746
  5
5746
331
57B5
  5
57B5
331
57FC
  5
57FC
331
570F
  5
570F
331
59B7
  5
59B7
331
5A46
  5
5A46
331
5B14
  5
5B14
331
561B
  5
561B
331
56D8
  5
56D8
331
574E
  5
574E
331
57BD
  5
57BD
331
5804
  5
5804
331
57C5
  5
57C5
331
5717
  5
5717
331
5ACD
  5
5ACD
331
5623
  5
5623
331
56A1
  5
56A1
331
5756
  5
5756
331
18E6
  5
18E6
331
191D
  5
191D
331
18EE
  5
18EE
331
18AF
  5
18AF
331
571F
  5
571F
331
57CD
  5
57CD
331
1925
  5
1925
331
192D
  5
192D
331
18B7
  5
18B7
331
18F6
  5
18F6
331
18BF
  5
18BF
331
5B5C
  5
5B5C
331
5B6C
  5
5B6C
331
580C
  5
580C
331
5931
  5
5931
331
5814
  5
5814
331
5939
  5
5939
331
5AD5
  5
5AD5
331
562B
  5
562B
331
5883
  5
5883
331
5990
  5
5990
331
59DF
  5
59DF
331
5ADD
  5
5ADD
331
5633
  5
5633
331
566A
  5
566A
331
56E8
  5
56E8
331
5727
  5
5727
331
57D5
  5
57D5
331
5AE5
  5
5AE5
331
5A9E
  5
5A9E
331
5893
  5
5893
331
5998
  5
5998
331
563B
  5
563B
331
56B9
  5
56B9
331
56F0
  5
56F0
331
572F
  5
572F
331
5766
  5
5766
331
57DD
  5
57DD
331
194D
  5
194D
331
57E5
  5
57E5
331
5737
  5
5737
331
5AED
  5
5AED
331
59EF
  5
59EF
331
5AA6
  5
5AA6
331
56C1
  5
56C1
331
56F8
  5
56F8
331
576E
  5
576E
331
18C7
  5
18C7
331
1955
  5
1955
331
18CF
  5
18CF
331
57ED
  5
57ED
331
573F
  5
573F
331
5776
  5
5776
331
190E
  5
190E
331
18D7
  5
18D7
331
18DF
  5
18DF
331
5BA4
  5
5BA4
  0
DIMASSOC
  5
62DE
102
{ACAD_REACTORS
330
62DD
102
}
330
62DD
100
AcDbDimAssoc
330
62D0
 90
        3
 70
     0
 71
     0
  1
AcDbOsnapPointRef
 72
     1
331
61D6
 73
     0
 91
        0
 40
0.0
 10
0.0
 20
0.0
 30
2.000000000000000E+50
 75
     0
  1
AcDbOsnapPointRef
 72
    13
331
61D6
 73
     0
 91
        0
 40
0.0
 10
0.0
 20
0.0
 30
2.000000000000000E+50
 75
     0
  0
LAYOUT
  5
22
102
{ACAD_XDICTIONARY
360
68DA
102
}
102
{ACAD_REACTORS
330
1A
102
}
330
1A
100
AcDbPlotSettings
  1

  2
\\RD\EPSON Stylus C63 Series單色
  4
A4
  6

 40
3.757083177566528
 41
3.757076978683471
 42
3.757080078125
 43
3.757080078125
 44
209.9733276367187
 45
296.9683227539062
 46
0.0
 47
0.0
 48
0.0
 49
0.0
140
0.0
141
0.0
142
1.0
143
0.3405120737814363
 70
 11952
 72
     1
 73
     0
 74
     0
  7
單色出圖.ctb
 75
     0
147
2.936753428137963
148
-2047.07469463503
149
-1261.649717473083
100
AcDbLayout
  1
Model
 70
     1
 71
     0
 10
0.0
 20
0.0
 11
12.0
 21
9.0
 12
0.0
 22
0.0
 32
0.0
 14
0.0
 24
0.0
 34
0.0
 15
0.0
 25
0.0
 35
0.0
146
0.0
 13
0.0
 23
0.0
 33
0.0
 16
1.0
 26
0.0
 36
0.0
 17
0.0
 27
1.0
 37
0.0
 76
     0
330
1F
1001
ACAD_PSEXT
1000
\\RD\EPSON Stylus C63 Series單色
1000
EPSON Stylus C63 Series
1000
\\RD
1000

1070
     0
  0
LAYOUT
  5
1E
102
{ACAD_XDICTIONARY
360
68D8
102
}
102
{ACAD_REACTORS
330
1A
102
}
330
1A
100
AcDbPlotSettings
  1

  2

  4

  6

 40
0.0
 41
0.0
 42
0.0
 43
0.0
 44
0.0
 45
0.0
 46
0.0
 47
0.0
 48
0.0
 49
0.0
140
0.0
141
0.0
142
1.0
143
1.0
 70
   688
 72
     0
 73
     0
 74
     5
  7
單色出圖.ctb
 75
    16
147
1.0
148
0.0
149
0.0
100
AcDbLayout
  1
配置1
 70
     1
 71
     1
 10
0.0
 20
0.0
 11
420.0
 21
297.0
 12
0.0
 22
0.0
 32
0.0
 14
1.000000000000000E+20
 24
1.000000000000000E+20
 34
1.000000000000000E+20
 15
-1.000000000000000E+20
 25
-1.000000000000000E+20
 35
-1.000000000000000E+20
146
0.0
 13
0.0
 23
0.0
 33
0.0
 16
1.0
 26
0.0
 36
0.0
 17
0.0
 27
1.0
 37
0.0
 76
     0
330
1B
  0
LAYOUT
  5
26
102
{ACAD_XDICTIONARY
360
68DC
102
}
102
{ACAD_REACTORS
330
1A
102
}
330
1A
100
AcDbPlotSettings
  1

  2

  4

  6

 40
0.0
 41
0.0
 42
0.0
 43
0.0
 44
0.0
 45
0.0
 46
0.0
 47
0.0
 48
0.0
 49
0.0
140
0.0
141
0.0
142
1.0
143
1.0
 70
   688
 72
     0
 73
     0
 74
     5
  7
單色出圖.ctb
 75
    16
147
1.0
148
0.0
149
0.0
100
AcDbLayout
  1
配置2
 70
     1
 71
     2
 10
0.0
 20
0.0
 11
12.0
 21
9.0
 12
0.0
 22
0.0
 32
0.0
 14
0.0
 24
0.0
 34
0.0
 15
0.0
 25
0.0
 35
0.0
146
0.0
 13
0.0
 23
0.0
 33
0.0
 16
1.0
 26
0.0
 36
0.0
 17
0.0
 27
1.0
 37
0.0
 76
     0
330
23
  0
MLINESTYLE
  5
18
102
{ACAD_REACTORS
330
17
102
}
330
17
100
AcDbMlineStyle
  2
STANDARD
 70
     0
  3

 62
   256
 51
90.0
 52
90.0
 71
     2
 49
0.5
 62
   256
  6
BYLAYER
 49
-0.5
 62
   256
  6
BYLAYER
  0
ACDBPLACEHOLDER
  5
F
102
{ACAD_REACTORS
330
E
102
}
330
E
  0
TABLESTYLE
  5
11B
102
{ACAD_REACTORS
330
11A
102
}
330
11A
100
AcDbTableStyle
  3
Standard
 70
     0
 71
     0
 40
1.5
 41
1.5
280
     0
281
     0
  7
STANDARD
140
4.5
170
     2
 62
     0
 63
     7
283
     0
274
    -2
284
     1
 64
     0
275
    -2
285
     1
 65
     0
276
    -2
286
     1
 66
     0
277
    -2
287
     1
 67
     0
278
    -2
288
     1
 68
     0
279
    -2
289
     1
 69
     0
  7
STANDARD
140
6.0
170
     5
 62
     0
 63
     7
283
     0
274
    -2
284
     1
 64
     0
275
    -2
285
     1
 65
     0
276
    -2
286
     1
 66
     0
277
    -2
287
     1
 67
     0
278
    -2
288
     1
 68
     0
279
    -2
289
     1
 69
     0
  7
STANDARD
140
4.5
170
     5
 62
     0
 63
     7
283
     0
274
    -2
284
     1
 64
     0
275
    -2
285
     1
 65
     0
276
    -2
286
     1
 66
     0
277
    -2
287
     1
 67
     0
278
    -2
288
     1
 68
     0
279
    -2
289
     1
 69
     0
  0
DICTIONARYVAR
  5
138
102
{ACAD_REACTORS
330
94
102
}
330
94
100
DictionaryVariables
280
     0
  1
STANDARD
  0
DICTIONARYVAR
  5
96
102
{ACAD_REACTORS
330
94
102
}
330
94
100
DictionaryVariables
280
     0
  1
2
  0
DICTIONARYVAR
  5
95
102
{ACAD_REACTORS
330
94
102
}
330
94
100
DictionaryVariables
280
     0
  1
1
  0
DICTIONARYVAR
  5
67A0
102
{ACAD_REACTORS
330
94
102
}
330
94
100
DictionaryVariables
280
     0
  1

  0
DICTIONARY
  5
1B5
102
{ACAD_REACTORS
330
5B
102
}
330
5B
100
AcDbDictionary
281
     1
  0
DICTIONARY
  5
61
102
{ACAD_REACTORS
330
5B
102
}
330
5B
100
AcDbDictionary
281
     1
  0
XRECORD
  5
123
102
{ACAD_REACTORS
330
5B
102
}
330
5B
100
AcDbXrecord
280
     1
 90
-1023410169
  0
DICTIONARY
  5
67AC
102
{ACAD_REACTORS
330
41
102
}
330
41
100
AcDbDictionary
281
     1
  3
DWGSETTINGS
350
67AD
  3
Shaft
350
68B3
  3
TRANSSETTINGS
350
67B0
  0
LAYER_INDEX
  5
6887
102
{ACAD_REACTORS
330
6886
102
}
330
6886
100
AcDbIndex
 40
2456212.573909861
100
AcDbLayerIndex
  8
0
360
6888
 90
       39
  8
AM_7
360
6889
 90
      166
  8
AM_VIS
360
688A
 90
      448
  8
AM_4
360
688B
 90
      124
  8
AM_0
360
688C
 90
       10
  8
AM_5
360
688D
 90
       41
  8
Defpoints
360
688E
 90
        0
  8
LOGO
360
688F
 90
      127
  8
AM_9
360
6890
 90
        0
  8
BORDER
360
6891
 90
        2
  0
DICTIONARY
  5
68DA
330
22
100
AcDbDictionary
280
     1
281
     1
  3
ACAD_XREC_ROUNDTRIP
360
68DB
  0
DICTIONARY
  5
68D8
330
1E
100
AcDbDictionary
280
     1
281
     1
  3
ACAD_XREC_ROUNDTRIP
360
68D9
  0
DICTIONARY
  5
68DC
330
26
100
AcDbDictionary
280
     1
281
     1
  3
ACAD_XREC_ROUNDTRIP
360
68DD
  0
IDBUFFER
  5
6888
330
0
100
AcDbIdBuffer
330
5959
330
596B
330
597D
330
598F
330
59A3
330
59A5
330
59CF
330
59E1
330
59F3
330
5A05
330
5A40
330
5A41
330
5A46
330
5A47
330
5941
330
593B
330
5935
330
592F
330
5C69
330
5C7B
330
5C8D
330
5C9F
330
61EC
330
61FE
330
6210
330
631F
330
6320
330
18F3
330
192D
330
1930
330
195E
330
1D08
330
584E
330
5860
330
5872
330
5884
330
5896
330
58A8
330
58BA
  0
IDBUFFER
  5
6889
330
0
100
AcDbIdBuffer
330
5ACE
330
5AD0
330
5ADE
330
5AEE
330
5AF2
330
5B0B
330
5B0C
330
5B0F
330
5B10
330
5B13
330
5B14
330
5B17
330
5B18
330
5ACA
330
5AAA
330
5A9C
330
5A04
330
5A03
330
5A02
330
5A01
330
59F2
330
59F1
330
59F0
330
59EF
330
59E0
330
59DF
330
59DE
330
59DD
330
59CE
330
5B6B
330
5B71
330
5BA6
330
5BA9
330
5BB6
330
5BB9
330
5BBE
330
5BBF
330
5BC2
330
5C51
330
5C57
330
5C65
330
5C66
330
5C67
330
5C68
330
5C77
330
5C78
330
5C79
330
5C7A
330
5C89
330
5C8A
330
5C8B
330
5C8C
330
5C9B
330
5C9C
330
5C9D
330
5C9E
330
61A3
330
61A4
330
61E8
330
61E9
330
61EA
330
61EB
330
61FA
330
61FB
330
61FC
330
61FD
330
620C
330
620D
330
620E
330
620F
330
5822
330
582F
330
583C
330
584A
330
584B
330
584C
330
584D
330
585C
330
585D
330
585E
330
585F
330
586E
330
586F
330
5870
330
5871
330
5880
330
5881
330
5882
330
5883
330
5892
330
5893
330
5894
330
5895
330
58A4
330
58A5
330
58A6
330
58A7
330
58B6
330
58B7
330
58B8
330
58B9
330
58C7
330
58E1
330
590F
330
5910
330
5913
330
5914
330
5917
330
5918
330
591B
330
591C
330
592B
330
592C
330
592D
330
592E
330
5931
330
5932
330
5933
330
5934
330
5937
330
5938
330
5939
330
593A
330
593D
330
593E
330
593F
330
5940
330
5955
330
5956
330
5957
330
5958
330
5967
330
5968
330
5969
330
596A
330
5979
330
597A
330
597B
330
597C
330
598B
330
598C
330
598D
330
598E
330
5990
330
5991
330
5992
330
5993
330
5994
330
5995
330
5998
330
5999
330
599A
330
599B
330
599C
330
599D
330
59B0
330
59B1
330
59B4
330
59B5
330
59B8
330
59B9
330
59BC
330
59BD
330
59CB
330
59CC
330
59CD
  0
IDBUFFER
  5
688A
330
0
100
AcDbIdBuffer
330
5742
330
5743
330
5744
330
5745
330
5746
330
5747
330
5748
330
5749
330
574A
330
574B
330
574C
330
574D
330
574E
330
574F
330
5750
330
5751
330
5752
330
5753
330
5754
330
5755
330
5756
330
575F
330
5760
330
5761
330
5762
330
5763
330
5764
330
5765
330
5766
330
5767
330
5768
330
5769
330
576A
330
576B
330
576C
330
576D
330
576E
330
576F
330
5770
330
5771
330
5772
330
5773
330
5774
330
5775
330
5776
330
5777
330
57B4
330
57B5
330
57B6
330
57B7
330
57B8
330
57B9
330
57BA
330
57BB
330
57BC
330
57BD
330
57BE
330
57BF
330
57C0
330
57C1
330
57C2
330
57C3
330
57C4
330
57C5
330
57C6
330
57C7
330
57C8
330
57C9
330
57CA
330
57CB
330
57CC
330
57CD
330
57CE
330
57CF
330
57D0
330
57D1
330
57D2
330
57D3
330
57D4
330
57D5
330
57D6
330
57D7
330
57D8
330
57D9
330
57DA
330
57DB
330
57DC
330
57DD
330
57DE
330
57DF
330
57E0
330
57E1
330
57E2
330
57E3
330
57E6
330
57E7
330
57E8
330
57E9
330
57EA
330
57EB
330
57EC
330
57ED
330
57EE
330
57EF
330
57F0
330
57F1
330
57F2
330
57F3
330
57F4
330
57F6
330
57F7
330
57F8
330
57F9
330
57FA
330
57FB
330
57FC
330
57FD
330
57FE
330
57FF
330
5800
330
5801
330
5802
330
5803
330
5804
330
5806
330
5807
330
5808
330
5809
330
580A
330
580B
330
580C
330
580D
330
580E
330
580F
330
5810
330
5811
330
5812
330
5813
330
5814
330
59A2
330
59A4
330
61A5
330
61A6
330
61A7
330
61A8
330
61A9
330
61AA
330
61AB
330
61AC
330
61AD
330
61AE
330
61AF
330
61B0
330
61B1
330
61B2
330
61B3
330
61B4
330
61B5
330
61B6
330
61B7
330
61B8
330
61B9
330
61BA
330
61BB
330
61BC
330
61BD
330
61BE
330
61BF
330
61C0
330
61C1
330
61C2
330
61C3
330
61C4
330
61C5
330
61C6
330
61C7
330
61C8
330
61C9
330
61CA
330
61CB
330
61CC
330
61CD
330
61CE
330
61CF
330
61D0
330
61D1
330
61D2
330
61D3
330
61D4
330
61D5
330
61D6
330
61D7
330
61D8
330
61D9
330
61DA
330
61DB
330
61DC
330
61DD
330
61DE
330
61DF
330
61E0
330
61E1
330
61E2
330
61E3
330
61E4
330
61E5
330
61E6
330
61E7
330
560F
330
5610
330
5611
330
5612
330
5613
330
5614
330
5615
330
5616
330
5617
330
5618
330
5619
330
561A
330
561B
330
561C
330
561D
330
561E
330
561F
330
5620
330
5621
330
5622
330
5623
330
5624
330
5625
330
5626
330
5627
330
5628
330
5629
330
562A
330
562B
330
562C
330
562D
330
562E
330
562F
330
5630
330
5631
330
5632
330
5633
330
5634
330
5635
330
5636
330
5637
330
5638
330
5639
330
563A
330
563B
330
563C
330
563D
330
563E
330
5644
330
5645
330
5646
330
5647
330
5648
330
5649
330
564A
330
564B
330
564C
330
564D
330
564E
330
564F
330
5650
330
5651
330
5652
330
5653
330
5654
330
5655
330
5656
330
565D
330
565E
330
565F
330
5660
330
5661
330
5665
330
5666
330
5667
330
5668
330
5669
330
566A
330
566B
330
566C
330
566D
330
566E
330
5675
330
5676
330
5677
330
567B
330
567C
330
567D
330
567E
330
567F
330
5680
330
5681
330
5682
330
5683
330
5684
330
5685
330
5686
330
5687
330
5688
330
569B
330
569C
330
569D
330
569E
330
569F
330
56A0
330
56A1
330
56A2
330
56A3
330
56A4
330
56A5
330
56A6
330
56A7
330
56A8
330
56B3
330
56B4
330
56B5
330
56B6
330
56B9
330
56BB
330
56BD
330
56BE
330
56BF
330
56C0
330
56C1
330
56C2
330
56C3
330
56C4
330
56C9
330
56CA
330
56CB
330
56CC
330
56CD
330
56CE
330
56CF
330
56D0
330
56D1
330
56D2
330
56D3
330
56D4
330
56D5
330
56D6
330
56D7
330
56D8
330
56D9
330
56DA
330
56DB
330
56DC
330
56DD
330
56DE
330
56E1
330
56E2
330
56E3
330
56E4
330
56E5
330
56E6
330
56E7
330
56E8
330
56E9
330
56EA
330
56EB
330
56EC
330
56ED
330
56EE
330
56EF
330
56F0
330
56F1
330
56F2
330
56F3
330
56F4
330
56F5
330
56F6
330
56F7
330
56F8
330
56F9
330
56FA
330
56FB
330
56FC
330
56FD
330
56FE
330
56FF
330
5700
330
5701
330
5702
330
5703
330
5704
330
5705
330
5706
330
5707
330
5708
330
5709
330
570A
330
570B
330
570C
330
570D
330
570E
330
570F
330
5716
330
5717
330
5718
330
5719
330
571A
330
571B
330
571C
330
571D
330
571E
330
571F
330
5720
330
5721
330
5722
330
5723
330
5724
330
5725
330
5726
330
5727
330
5728
330
5729
330
572A
330
572B
330
572C
330
572D
330
572E
330
572F
330
5730
330
5731
330
5732
330
5733
330
5734
330
5735
330
5736
330
5737
330
5738
330
5739
330
573A
330
573B
330
573C
330
573D
330
573E
330
573F
330
5740
330
5741
  0
IDBUFFER
  5
688B
330
0
100
AcDbIdBuffer
330
5BBB
330
5BBC
330
5BBD
330
5BC0
330
5BC1
330
5C4C
330
5C4D
330
5C4E
330
5C4F
330
5C50
330
5C52
330
5C53
330
5C54
330
5C55
330
5C56
330
61A2
330
5714
330
5715
330
57F5
330
5805
330
5815
330
590D
330
5911
330
5915
330
5919
330
591D
330
5930
330
5936
330
593C
330
5996
330
599E
330
59AE
330
59B2
330
59B6
330
59BA
330
5A9B
330
5A9D
330
5A9E
330
5A9F
330
5AA0
330
5AA1
330
5AA2
330
5AA3
330
5AA4
330
5AA5
330
5AA6
330
5AA7
330
5AA8
330
5AA9
330
5AAB
330
5AAC
330
5AAD
330
5AAE
330
5AAF
330
5AB0
330
5AB1
330
5AB2
330
5AB3
330
5AB4
330
5AB5
330
5AB6
330
5AC7
330
5AC8
330
5AC9
330
5ACB
330
5ACC
330
5ACD
330
5ACF
330
5AD1
330
5AD2
330
5AD3
330
5AD4
330
5AD5
330
5AD6
330
5AD7
330
5AD8
330
5AD9
330
5ADA
330
5ADB
330
5ADC
330
5ADD
330
5ADF
330
5AE0
330
5AE1
330
5AE2
330
5AE3
330
5AE4
330
5AE5
330
5AE6
330
5AE7
330
5AE8
330
5AE9
330
5AEA
330
5AEB
330
5AEC
330
5AED
330
5AEF
330
5AF0
330
5AF1
330
5B09
330
5B0A
330
5B0D
330
5B0E
330
5B11
330
5B12
330
5B15
330
5B16
330
5BBA
330
5BB8
330
5BB7
330
5BA5
330
5B59
330
5B5B
330
5B5C
330
5B5D
330
5B5E
330
5B6C
330
5B6D
330
5B6E
330
5B6F
330
5B70
330
5BA2
330
5BA3
330
5BA4
  0
IDBUFFER
  5
688C
330
0
100
AcDbIdBuffer
330
590E
330
5912
330
5916
330
591A
330
5997
330
599F
330
59AF
330
59B3
330
59B7
330
59BB
  0
IDBUFFER
  5
688D
330
0
100
AcDbIdBuffer
330
5D48
330
5F83
330
5F84
330
5F85
330
5F86
330
5F87
330
5F88
330
5F89
330
60EC
330
60ED
330
60EE
330
60EF
330
60F0
330
60F1
330
60F2
330
60F3
330
60F4
330
6211
330
6212
330
6213
330
6214
330
6215
330
62D0
330
62F4
330
673A
330
5CA0
330
5CA1
330
5CA2
330
5CA3
330
5CA4
330
5CA5
330
5CA6
330
5D3B
330
5D3C
330
5D3E
330
5D3F
330
5D40
330
5D41
330
5D42
330
5D43
330
5D47
  0
IDBUFFER
  5
688E
330
0
100
AcDbIdBuffer
  0
IDBUFFER
  5
688F
330
0
100
AcDbIdBuffer
330
194C
330
194D
330
194E
330
194F
330
1950
330
1951
330
1952
330
1953
330
1954
330
1955
330
1956
330
1957
330
1958
330
1959
330
195A
330
18AA
330
18AB
330
18AC
330
18AD
330
18AE
330
18AF
330
18B0
330
18B1
330
18B2
330
18B3
330
18B4
330
18B5
330
18B6
330
18B7
330
18B8
330
18B9
330
18BA
330
18BB
330
18BC
330
18BD
330
18BE
330
18BF
330
18C0
330
18C1
330
18C2
330
18C3
330
18C4
330
18C5
330
18C6
330
18C7
330
18C8
330
18C9
330
18CA
330
18CB
330
18CC
330
18CD
330
18CE
330
18CF
330
18D0
330
18D1
330
18D2
330
18D3
330
18D4
330
18D5
330
18D6
330
18D7
330
18D8
330
18D9
330
18DA
330
18DB
330
18DC
330
18DD
330
18DE
330
18DF
330
18E0
330
18E1
330
18E2
330
18E3
330
18E4
330
18E5
330
18E6
330
18E7
330
18E8
330
18E9
330
18EA
330
18EB
330
18EC
330
18ED
330
18EE
330
18EF
330
18F0
330
18F1
330
18F2
330
18F4
330
18F5
330
18F6
330
18F7
330
18F8
330
18F9
330
18FA
330
18FB
330
18FF
330
1903
330
1904
330
1908
330
1909
330
190A
330
190B
330
190C
330
190D
330
190E
330
190F
330
1913
330
1917
330
191B
330
191C
330
191D
330
1921
330
1922
330
1923
330
1924
330
1925
330
1926
330
1927
330
1928
330
1929
330
192A
330
192B
330
192C
330
192E
330
192F
330
194B
  0
IDBUFFER
  5
6890
330
0
100
AcDbIdBuffer
  0
IDBUFFER
  5
6891
330
0
100
AcDbIdBuffer
330
57E4
330
57E5
  0
XRECORD
  5
68DB
102
{ACAD_REACTORS
330
68DA
102
}
330
68DA
100
AcDbXrecord
280
     1
102
SHADEPLOT
 70
     0
102
SHADEPLOTRESLEVEL
 70
     2
102
SHADEPLOTCUSTOMDPI
 70
   300
  0
XRECORD
  5
68D9
102
{ACAD_REACTORS
330
68D8
102
}
330
68D8
100
AcDbXrecord
280
     1
102
SHADEPLOT
 70
     0
102
SHADEPLOTRESLEVEL
 70
     2
102
SHADEPLOTCUSTOMDPI
 70
   300
  0
XRECORD
  5
68DD
102
{ACAD_REACTORS
330
68DC
102
}
330
68DC
100
AcDbXrecord
280
     1
102
SHADEPLOT
 70
     0
102
SHADEPLOTRESLEVEL
 70
     2
102
SHADEPLOTCUSTOMDPI
 70
   300
  0
ENDSEC
  0
EOF
