  0
SECTION
  2
HEADER
  9
$ACADVER
  1
AC1015
  9
$ACADMAINTVER
 70
    20
  9
$DWGCODEPAGE
  3
ANSI_950
  9
$INSBASE
 10
0.0
 20
0.0
 30
0.0
  9
$EXTMIN
 10
380.8152238395245
 20
732.2181724558945
 30
0.0
  9
$EXTMAX
 10
1372.307163914517
 20
1331.649310411772
 30
499.2900791808089
  9
$LIMMIN
 10
0.0
 20
0.0
  9
$LIMMAX
 10
420.0
 20
297.0
  9
$ORTHOMODE
 70
     1
  9
$REGENMODE
 70
     1
  9
$FILLMODE
 70
     1
  9
$QTEXTMODE
 70
     0
  9
$MIRRTEXT
 70
     1
  9
$LTSCALE
 40
1.0
  9
$ATTMODE
 70
     1
  9
$TEXTSIZE
 40
3.0
  9
$TRACEWID
 40
1.0
  9
$TEXTSTYLE
  7
CHINESET
  9
$CLAYER
  8
0
  9
$CELTYPE
  6
ByLayer
  9
$CECOLOR
 62
   256
  9
$CELTSCALE
 40
1.0
  9
$DISPSILH
 70
     0
  9
$DIMSCALE
 40
1.0
  9
$DIMASZ
 40
3.0
  9
$DIMEXO
 40
1.0
  9
$DIMDLI
 40
12.0
  9
$DIMRND
 40
0.0
  9
$DIMDLE
 40
0.0
  9
$DIMEXE
 40
1.5
  9
$DIMTP
 40
0.1
  9
$DIMTM
 40
0.1
  9
$DIMTXT
 40
3.0
  9
$DIMCEN
 40
0.0
  9
$DIMTSZ
 40
0.0
  9
$DIMTOL
 70
     0
  9
$DIMLIM
 70
     0
  9
$DIMTIH
 70
     0
  9
$DIMTOH
 70
     0
  9
$DIMSE1
 70
     0
  9
$DIMSE2
 70
     0
  9
$DIMTAD
 70
     1
  9
$DIMZIN
 70
     8
  9
$DIMBLK
  1

  9
$DIMASO
 70
     1
  9
$DIMSHO
 70
     1
  9
$DIMPOST
  1

  9
$DIMAPOST
  1
"
  9
$DIMALT
 70
     0
  9
$DIMALTD
 70
     2
  9
$DIMALTF
 40
0.0393701
  9
$DIMLFAC
 40
1.0
  9
$DIMTOFL
 70
     1
  9
$DIMTVP
 40
0.0
  9
$DIMTIX
 70
     0
  9
$DIMSOXD
 70
     0
  9
$DIMSAH
 70
     0
  9
$DIMBLK1
  1

  9
$DIMBLK2
  1

  9
$DIMSTYLE
  2
AM_ISO
  9
$DIMCLRD
 70
   256
  9
$DIMCLRE
 70
   256
  9
$DIMCLRT
 70
   256
  9
$DIMTFAC
 40
0.71
  9
$DIMGAP
 40
1.0
  9
$DIMJUST
 70
     0
  9
$DIMSD1
 70
     0
  9
$DIMSD2
 70
     0
  9
$DIMTOLJ
 70
     2
  9
$DIMTZIN
 70
     8
  9
$DIMALTZ
 70
     0
  9
$DIMALTTZ
 70
     0
  9
$DIMUPT
 70
     0
  9
$DIMDEC
 70
     2
  9
$DIMTDEC
 70
     8
  9
$DIMALTU
 70
     2
  9
$DIMALTTD
 70
     2
  9
$DIMTXSTY
  7
STANDARD
  9
$DIMAUNIT
 70
     0
  9
$DIMADEC
 70
     0
  9
$DIMALTRND
 40
0.0
  9
$DIMAZIN
 70
     2
  9
$DIMDSEP
 70
    46
  9
$DIMATFIT
 70
     3
  9
$DIMFRAC
 70
     0
  9
$DIMLDRBLK
  1

  9
$DIMLUNIT
 70
     2
  9
$DIMLWD
 70
    -1
  9
$DIMLWE
 70
    -1
  9
$DIMTMOVE
 70
     0
  9
$LUNITS
 70
     2
  9
$LUPREC
 70
     2
  9
$SKETCHINC
 40
1.0
  9
$FILLETRAD
 40
2.5
  9
$AUNITS
 70
     0
  9
$AUPREC
 70
     0
  9
$MENU
  1
.
  9
$ELEVATION
 40
0.0
  9
$PELEVATION
 40
0.0
  9
$THICKNESS
 40
0.0
  9
$LIMCHECK
 70
     0
  9
$CHAMFERA
 40
2.5
  9
$CHAMFERB
 40
2.5
  9
$CHAMFERC
 40
20.0
  9
$CHAMFERD
 40
0.0
  9
$SKPOLY
 70
     0
  9
$TDCREATE
 40
2453571.402341933
  9
$TDUCREATE
 40
2453571.069008600
  9
$TDUPDATE
 40
2456212.572887003
  9
$TDUUPDATE
 40
2456212.239553669
  9
$TDINDWG
 40
1.1794033912
  9
$TDUSRTIMER
 40
1.1794033912
  9
$USRTIMER
 70
     1
  9
$ANGBASE
 50
0.0
  9
$ANGDIR
 70
     0
  9
$PDMODE
 70
     0
  9
$PDSIZE
 40
0.0
  9
$PLINEWID
 40
0.0
  9
$SPLFRAME
 70
     0
  9
$SPLINETYPE
 70
     6
  9
$SPLINESEGS
 70
     8
  9
$HANDSEED
  5
80E1
  9
$SURFTAB1
 70
     6
  9
$SURFTAB2
 70
     6
  9
$SURFTYPE
 70
     6
  9
$SURFU
 70
     6
  9
$SURFV
 70
     6
  9
$UCSBASE
  2

  9
$UCSNAME
  2

  9
$UCSORG
 10
0.0
 20
0.0
 30
0.0
  9
$UCSXDIR
 10
1.0
 20
0.0
 30
0.0
  9
$UCSYDIR
 10
0.0
 20
1.0
 30
0.0
  9
$UCSORTHOREF
  2

  9
$UCSORTHOVIEW
 70
     0
  9
$UCSORGTOP
 10
0.0
 20
0.0
 30
0.0
  9
$UCSORGBOTTOM
 10
0.0
 20
0.0
 30
0.0
  9
$UCSORGLEFT
 10
0.0
 20
0.0
 30
0.0
  9
$UCSORGRIGHT
 10
0.0
 20
0.0
 30
0.0
  9
$UCSORGFRONT
 10
0.0
 20
0.0
 30
0.0
  9
$UCSORGBACK
 10
0.0
 20
0.0
 30
0.0
  9
$PUCSBASE
  2

  9
$PUCSNAME
  2

  9
$PUCSORG
 10
0.0
 20
0.0
 30
0.0
  9
$PUCSXDIR
 10
1.0
 20
0.0
 30
0.0
  9
$PUCSYDIR
 10
0.0
 20
1.0
 30
0.0
  9
$PUCSORTHOREF
  2

  9
$PUCSORTHOVIEW
 70
     0
  9
$PUCSORGTOP
 10
0.0
 20
0.0
 30
0.0
  9
$PUCSORGBOTTOM
 10
0.0
 20
0.0
 30
0.0
  9
$PUCSORGLEFT
 10
0.0
 20
0.0
 30
0.0
  9
$PUCSORGRIGHT
 10
0.0
 20
0.0
 30
0.0
  9
$PUCSORGFRONT
 10
0.0
 20
0.0
 30
0.0
  9
$PUCSORGBACK
 10
0.0
 20
0.0
 30
0.0
  9
$USERI1
 70
     0
  9
$USERI2
 70
     0
  9
$USERI3
 70
     0
  9
$USERI4
 70
     0
  9
$USERI5
 70
     0
  9
$USERR1
 40
0.0
  9
$USERR2
 40
0.0
  9
$USERR3
 40
0.0
  9
$USERR4
 40
0.0
  9
$USERR5
 40
0.0
  9
$WORLDVIEW
 70
     1
  9
$SHADEDGE
 70
     3
  9
$SHADEDIF
 70
    70
  9
$TILEMODE
 70
     1
  9
$MAXACTVP
 70
    64
  9
$PINSBASE
 10
0.0
 20
0.0
 30
0.0
  9
$PLIMCHECK
 70
     0
  9
$PEXTMIN
 10
1.000000000000000E+20
 20
1.000000000000000E+20
 30
1.000000000000000E+20
  9
$PEXTMAX
 10
-1.000000000000000E+20
 20
-1.000000000000000E+20
 30
-1.000000000000000E+20
  9
$PLIMMIN
 10
0.0
 20
0.0
  9
$PLIMMAX
 10
420.0
 20
297.0
  9
$UNITMODE
 70
     0
  9
$VISRETAIN
 70
     1
  9
$PLINEGEN
 70
     0
  9
$PSLTSCALE
 70
     1
  9
$TREEDEPTH
 70
  3020
  9
$CMLSTYLE
  2
Standard
  9
$CMLJUST
 70
     0
  9
$CMLSCALE
 40
20.0
  9
$PROXYGRAPHICS
 70
     1
  9
$MEASUREMENT
 70
     1
  9
$CELWEIGHT
370
    -1
  9
$ENDCAPS
280
     0
  9
$JOINSTYLE
280
     0
  9
$LWDISPLAY
290
     0
  9
$INSUNITS
 70
     4
  9
$HYPERLINKBASE
  1

  9
$STYLESHEET
  1
彩色出圖.ctb
  9
$XEDIT
290
     1
  9
$CEPSNTYPE
380
     0
  9
$PSTYLEMODE
290
     1
  9
$FINGERPRINTGUID
  2
{63A85DC4-5EEE-4257-B18A-D16ADFC1EE91}
  9
$VERSIONGUID
  2
{B40191CB-D76C-4D33-9E03-355B01E6634A}
  9
$EXTNAMES
290
     1
  9
$PSVPSCALE
 40
0.0
  9
$OLESTARTUP
290
     0
  0
ENDSEC
  0
SECTION
  2
CLASSES
  0
CLASS
  1
ACDBDICTIONARYWDFLT
  2
AcDbDictionaryWithDefault
  3
ObjectDBX Classes
 90
        0
280
     0
281
     0
  0
CLASS
  1
ACDBPLACEHOLDER
  2
AcDbPlaceHolder
  3
ObjectDBX Classes
 90
        0
280
     0
281
     0
  0
CLASS
  1
LAYOUT
  2
AcDbLayout
  3
ObjectDBX Classes
 90
        0
280
     0
281
     0
  0
CLASS
  1
ACME_DOCUMENT
  2
AcMeDbDoc
  3
AcMeServices
 90
        0
280
     0
281
     0
  0
CLASS
  1
AMGSETTINGSOBJ
  2
AmgSettingsObj
  3
"AcadM|Product Description: AutoCAD Mechanical 2000|Company: Autodesk"
 90
        0
280
     0
281
     0
  0
CLASS
  1
ACMESCOPE
  2
AcMeScope
  3
AcMeServices
 90
        0
280
     0
281
     0
  0
CLASS
  1
ACMECOMMANDHISTORY
  2
AcMeCommandHistory
  3
AcMeServices
 90
        0
280
     0
281
     0
  0
CLASS
  1
ACIMSYSVARMAN
  2
AcImSysVarManager
  3
AcMeServices
 90
        0
280
     0
281
     0
  0
CLASS
  1
ACIMREALSYSVAR
  2
AcImRealSysVar
  3
AcMeServices
 90
        0
280
     0
281
     0
  0
CLASS
  1
ACIMINTSYSVAR
  2
AcImIntSysVar
  3
AcMeServices
 90
        0
280
     0
281
     0
  0
CLASS
  1
ACMEDRAWINGMAN
  2
AcMeDrawingMan
  3
AcMeServices
 90
        0
280
     0
281
     0
  0
CLASS
  1
ACMEVIEW
  2
AcMeView
  3
AcMeServices
 90
        0
280
     0
281
     0
  0
CLASS
  1
ACDBENTITYCACHE
  2
AcMeEntityCache
  3
AcMeServices
 90
        0
280
     0
281
     0
  0
CLASS
  1
GSMANAGER
  2
AcMeGSManager
  3
AcMeServices
 90
        0
280
     0
281
     0
  0
CLASS
  1
AMDTINTERNALREACTOR
  2
AmdtInternalReactor
  3
AcMeServices
 90
        0
280
     0
281
     0
  0
CLASS
  1
ACMESTATEMGR
  2
AcMeStateMgr
  3
AcMeServices
 90
        0
280
     0
281
     0
  0
CLASS
  1
ACGREFMASTER
  2
AcGrefMaster
  3
AcAttribServices
 90
        0
280
     0
281
     0
  0
CLASS
  1
ACME_DATABASE
  2
AcMeDbDatabase
  3
AcMeServices
 90
        0
280
     0
281
     0
  0
CLASS
  1
ACRFINSADJUSTERMGR
  2
AcRfInsAdjusterMgr
  3
AcMeServices
 90
        0
280
     0
281
     0
  0
CLASS
  1
ACGREFACADMASTER
  2
AcGrefacadMaster
  3
AcGrefServices
 90
        0
280
     0
281
     0
  0
CLASS
  1
AMIMASTER
  2
AmiMaster
  3
AmiServices
 90
        0
280
     0
281
     0
  0
CLASS
  1
ACMDATADICTIONARY
  2
AcmDataDictionary
  3
"AcmSymBB|Product Description: AutoCAD Mechanical 2004 DX|Company: Autodesk"
 90
        0
280
     0
281
     0
  0
CLASS
  1
ACMDATAENTRYBLOCK
  2
AcmDataEntryBlock
  3
"AcmSymBB|Product Description: AutoCAD Mechanical 2004 DX|Company: Autodesk"
 90
        0
280
     0
281
     0
  0
CLASS
  1
ACIMSTRSYSVAR
  2
AcImStrSysVar
  3
AcMeServices
 90
        0
280
     0
281
     0
  0
CLASS
  1
ACMSTANDARDISO
  2
AcmStandardISO
  3
"Amdt_StdImp|Product Description: AutoCAD Mechanical 2004 DX|Company: Autodesk"
 90
        0
280
     0
281
     0
  0
CLASS
  1
AMGOBJPROPCFG
  2
AmgObjPropCfg
  3
"AmgLay|Product Description: AutoCAD Mechanical 2000|Company: Autodesk"
 90
        1
280
     0
281
     0
  0
CLASS
  1
AMDTEDGESTANDARDISO
  2
AmdtEdgeStdISO
  3
"Amdt_StdImp|Product Description: AutoCAD Mechanical 2004 DX|Company: Autodesk"
 90
    32768
280
     0
281
     0
  0
CLASS
  1
ACMSURFSTANDARDISO
  2
AcmSurfTextStdISO
  3
"Amdt_StdImp|Product Description: AutoCAD Mechanical 2004 DX|Company: Autodesk"
 90
        0
280
     0
281
     0
  0
CLASS
  1
ACMFCFSTANDARDISO
  2
AcmFCFStdISO
  3
"Amdt_StdImp|Product Description: AutoCAD Mechanical 2004 DX|Company: Autodesk"
 90
        0
280
     0
281
     0
  0
CLASS
  1
ACMWELDSTANDARDISO
  2
AcmWeldingStdISO
  3
"Amdt_StdImp|Product Description: AutoCAD Mechanical 2004 DX|Company: Autodesk"
 90
        0
280
     0
281
     0
  0
CLASS
  1
ACMIDSTANDARDISO
  2
AcmIdStdISO
  3
"Amdt_StdImp|Product Description: AutoCAD Mechanical 2004 DX|Company: Autodesk"
 90
        0
280
     0
281
     0
  0
CLASS
  1
ACMDATUMSTANDARDISO
  2
AcmDatumStdISO
  3
"Amdt_StdImp|Product Description: AutoCAD Mechanical 2004 DX|Company: Autodesk"
 90
        0
280
     0
281
     0
  0
CLASS
  1
ACMBOMSTANDARDISO
  2
AcmBOMStdISO
  3
"Amdt_StdImp|Product Description: AutoCAD Mechanical 2004 DX|Company: Autodesk"
 90
        0
280
     0
281
     0
  0
CLASS
  1
ACMDETAILSTANDARDISO
  2
AmdtDetailSymStdISO
  3
"Amdt_StdImp|Product Description: AutoCAD Mechanical 2004 DX|Company: Autodesk"
 90
        0
280
     0
281
     0
  0
CLASS
  1
ACMSECTIONSTANDARDISO
  2
AmdtSectionSymStdISO
  3
"Amdt_StdImp|Product Description: AutoCAD Mechanical 2004 DX|Company: Autodesk"
 90
        0
280
     0
281
     0
  0
CLASS
  1
ACMCENTERLINESTANDARDISO
  2
AmdtCenterLineStdISO
  3
"Amdt_StdImp|Product Description: AutoCAD Mechanical 2004 DX|Company: Autodesk"
 90
        0
280
     0
281
     0
  0
CLASS
  1
ACMNOTESTANDARDISO
  2
AmdtNoteStdISO
  3
"Amdt_StdImp|Product Description: AutoCAD Mechanical 2004 DX|Company: Autodesk"
 90
        0
280
     0
281
     0
  0
CLASS
  1
ACAMGLAYSTD
  2
AcAmgLayStd
  3
"AcAmgLayStd|Product Description: AutoCAD Mechanical 2000|Company: Autodesk"
 90
        0
280
     0
281
     0
  0
CLASS
  1
ACAMGDIMSTD
  2
AcAmgDimStd
  3
"AcAmgDimStd|Product Description: AutoCAD Mechanical 2000|Company: Autodesk"
 90
        0
280
     0
281
     0
  0
CLASS
  1
ACAMGHOLECHARTSTDISO
  2
AcAmgHoleChartStdISO
  3
ACMSYMBB_MODULE_NAME
 90
        0
280
     0
281
     0
  0
CLASS
  1
ACAMGTITLESTD
  2
AcAmgTitleStd
  3
"TITLEAPP"
 90
        0
280
     0
281
     0
  0
CLASS
  1
LAYER_INDEX
  2
AcDbLayerIndex
  3
ObjectDBX Classes
 90
        0
280
     0
281
     0
  0
CLASS
  1
IDBUFFER
  2
AcDbIdBuffer
  3
ObjectDBX Classes
 90
        0
280
     0
281
     0
  0
CLASS
  1
DICTIONARYVAR
  2
AcDbDictionaryVar
  3
ObjectDBX Classes
 90
        0
280
     0
281
     0
  0
CLASS
  1
AM_DRAWING_MGR
  2
AcDmDwgMgr
  3
AcMechDwgViewMgmt
 90
        0
280
     0
281
     0
  0
CLASS
  1
AM_DWG_DOCUMENT
  2
AcDmDwgDocument
  3
AcMechDwgViewMgmt
 90
        0
280
     0
281
     0
  0
CLASS
  1
AM_DWG_SHEET
  2
AcDmSheet
  3
AcMechDwgViewMgmt
 90
        0
280
     0
281
     0
  0
CLASS
  1
AM_VIEWDIMPARMAP
  2
AcDmViewDimParMap
  3
AcMechDwgViewMgmt
 90
        0
280
     0
281
     0
  0
CLASS
  1
AM_DWGMGR_NAME
  2
AcDmDwgMgrName
  3
AcMechDwgViewMgmt
 90
        0
280
     0
281
     0
  0
CLASS
  1
AMDTMENUSTATEMGR
  2
AmdtMenuStateMgr
  3
McadcomServices
 90
        0
280
     0
281
     0
  0
CLASS
  1
AMDTMCOMMENUSTATE
  2
AmdtMcomMenuState
  3
McadcomServices
 90
        0
280
     0
281
     0
  0
CLASS
  1
MAPIAMMOUDLE
  2
MApiAmModule
  3
MApiAmServices
 90
        0
280
     0
281
     0
  0
CLASS
  1
AMDTADMENUSTATE
  2
AmdtAdMenuState
  3
DesignerServices
 90
        0
280
     0
281
     0
  0
CLASS
  1
ADAPPL
  2
AcAdAppl
  3
DesignerServices
 90
        0
280
     0
281
     0
  0
CLASS
  1
DEPMGR
  2
AcAdDepMgr
  3
DesignerServices
 90
        0
280
     0
281
     0
  0
CLASS
  1
PARAMMGR
  2
AcAdParamMgr
  3
DesignerServices
 90
        0
280
     0
281
     0
  0
CLASS
  1
PARAMSCOPE
  2
AcAdParamScope
  3
DesignerServices
 90
        0
280
     0
281
     0
  0
CLASS
  1
NAMEDAPPL
  2
AcAdNamedAppl
  3
DesignerServices
 90
        0
280
     0
281
     0
  0
CLASS
  1
AMDTDMMENUSTATE
  2
AmdtDmMenuState
  3
AcMechDwgViewMgmt
 90
        0
280
     0
281
     0
  0
CLASS
  1
AMDTAMMENUSTATE
  2
AmdtAmMenuState
  3
DesignerAssemblies
 90
        0
280
     0
281
     0
  0
CLASS
  1
ACAMPROJECT
  2
AcAmProject
  3
DesignerAssemblies
 90
        0
280
     0
281
     0
  0
CLASS
  1
ACAMGRCOMPDEF
  2
AcAmGrCompDef
  3
DesignerAssemblies
 90
        0
280
     0
281
     0
  0
CLASS
  1
ACCMCONTEXT
  2
AcCmContext
  3
DesignerAssemblies
 90
        0
280
     0
281
     0
  0
CLASS
  1
ACAMCOMPDEF
  2
AcAmCompDef
  3
DesignerAssemblies
 90
        0
280
     0
281
     0
  0
CLASS
  1
ACAMCOMPDEFMGR
  2
AcAmCompDefMgr
  3
DesignerAssemblies
 90
        0
280
     0
281
     0
  0
CLASS
  1
AMCONTEXTMGR
  2
AcAmContextMgr
  3
DesignerAssemblies
 90
        0
280
     0
281
     0
  0
CLASS
  1
ACAMCONTEXTMODELER
  2
AcAmContextModeler
  3
DesignerAssemblies
 90
        0
280
     0
281
     0
  0
CLASS
  1
ACMTHREADLINESTANDARDISO
  2
AmdtThreadLineStdISO
  3
"Amdt_StdImp|Product Description: AutoCAD Mechanical 2004 DX|Company: Autodesk"
 90
        0
280
     0
281
     0
  0
CLASS
  1
CATALOGSTATE
  2
AcAmCatalogState
  3
DesignerAssemblies
 90
        0
280
     0
281
     0
  0
CLASS
  1
ACAMGRCOMPDEFSET
  2
AcAmGrCompDefSet
  3
DesignerAssemblies
 90
        0
280
     0
281
     0
  0
CLASS
  1
AMDTBROWSERDBTAB
  2
AmdtBrowserDbTab
  3
McadcomServices
 90
        0
280
     0
281
     0
  0
CLASS
  1
CBROWSERAPPOBJECT
  2
CBrowserAppObject
  3
McadcomServices
 90
        0
280
     0
281
     0
  0
CLASS
  1
DM_PLACEHOLDER
  2
AcDmSelsetPlaceholder
  3
AcMechDwgViewMgmt
 90
        0
280
     0
281
     0
  0
CLASS
  1
TABLESTYLE
  2
AcDbTableStyle
  3
ObjectDBX Classes
 90
     2047
280
     0
281
     0
  0
CLASS
  1
VAACXREFPANELOBJECT
  2
VaAcXREFPanelObject
  3
VAAC_ADDIN
 90
    32768
280
     0
281
     0
  0
CLASS
  1
VAACIMAGEINVENTORY
  2
VaAcImageInventory
  3
VAAC_ADDIN
 90
    32768
280
     0
281
     0
  0
CLASS
  1
AMDTNOTETEMPLATEDB
  2
AmdtNoteTemplateDB
  3
AMDT_STDIMP_MODULE_NAME
 90
        0
280
     0
281
     0
  0
CLASS
  1
ACMBOM
  2
AcmBom
  3
"AcmSymBB|Product Description: AutoCAD Mechanical 2004 DX|Company: Autodesk"
 90
    32768
280
     0
281
     0
  0
CLASS
  1
AMDTFORMULAUPDATEDISPATCHER
  2
AmdtFormulaUpdateDispatcher
  3
AcMeServices
 90
    32768
280
     0
281
     0
  0
CLASS
  1
ACMPARTLIST
  2
AcmPartList
  3
"AcmSymBB|Product Description: AutoCAD Mechanical 2004 DX|Company: Autodesk"
 90
    33791
280
     0
281
     1
  0
CLASS
  1
ACAMGFILTERDAT
  2
AcAmgFilterDat
  3
"AcadM|Product Description: AutoCAD Mechanical 2000|Company: Autodesk"
 90
    32768
280
     0
281
     0
  0
CLASS
  1
DIMASSOC
  2
AcDbDimAssoc
  3
"AcDbDimAssoc|Product Desc:     AcDim ARX App For Dimension|Company:          Autodesk, Inc.|WEB Address:      www.autodesk.com"
 90
        0
280
     0
281
     0
  0
CLASS
  1
STDPART2D
  2
AmgStdPart
  3
"AmgStdPart|Product Description: AutoCAD Mechanical 2000|Company: Autodesk"
 90
    33791
280
     0
281
     1
  0
CLASS
  1
ACAMSTDPCOMPDEF
  2
AcAmStdpCompDef
  3
DesignerAssemblies
 90
    32768
280
     0
281
     0
  0
CLASS
  1
ACRFATTGENMGR
  2
AcRfAttGeneralMgr
  3
AcAttribServices
 90
    32768
280
     0
281
     0
  0
CLASS
  1
ACRFOBJATTMGR
  2
AcRfObjAttGroupMgr
  3
AcAttribServices
 90
    32768
280
     0
281
     0
  0
CLASS
  1
ACRFMCADAPIATTHOLDER
  2
AcRfMCADAPIAttHolder
  3
AcAttribServices
 90
    32768
280
     0
281
     0
  0
CLASS
  1
AMDTSYSATTR
  2
AmdtSystemAttribute
  3
AcAttribServices
 90
    32768
280
     0
281
     0
  0
CLASS
  1
ACAMCOMP
  2
AcAmComp
  3
DesignerAssemblies
 90
    32768
280
     0
281
     0
  0
CLASS
  1
AC_AM_STDP_VIEW_DEF
  2
AcAmStdpViewDef
  3
DesignerAssemblies
 90
    32768
280
     0
281
     0
  0
CLASS
  1
AC_AM_MVD_DEP_MGR
  2
AcAmMVDdepMgr
  3
DesignerAssemblies
 90
    32768
280
     0
281
     0
  0
CLASS
  1
AC_AM_MASTER_VIEW_DEF
  2
AcAmMasterViewDef
  3
DesignerAssemblies
 90
    32768
280
     0
281
     0
  0
CLASS
  1
AC_AM_DIRTY_NODES
  2
AcAmDirtyNodes
  3
DesignerAssemblies
 90
    32768
280
     0
281
     0
  0
CLASS
  1
AC_AM_MAPPER_CACHE
  2
AcAmMapperCache
  3
DesignerAssemblies
 90
    32768
280
     0
281
     0
  0
CLASS
  1
ACAMMVDBACKUPOBJECT
  2
AcAmMVDBackupObject
  3
DesignerAssemblies
 90
    32768
280
     0
281
     0
  0
CLASS
  1
AC_AM_COMP_VIEW_INST
  2
AcAmCompView
  3
DesignerAssemblies
 90
    32768
280
     0
281
     0
  0
CLASS
  1
AC_AM_2D_XREF_MGR
  2
AcAmXrefMgr2d
  3
DesignerAssemblies
 90
    32768
280
     0
281
     0
  0
CLASS
  1
SORTENTSTABLE
  2
AcDbSortentsTable
  3
ObjectDBX Classes
 90
        0
280
     0
281
     0
  0
CLASS
  1
ACMSTANDARDANSI
  2
AcmStandardANSI
  3
"Amdt_StdImp|Product Description: AutoCAD Mechanical 2004 DX|Company: Autodesk"
 90
    32768
280
     0
281
     0
  0
CLASS
  1
ACMSURFSTANDARDANSI
  2
AcmSurfTextStdANSI
  3
"Amdt_StdImp|Product Description: AutoCAD Mechanical 2004 DX|Company: Autodesk"
 90
    32768
280
     0
281
     0
  0
CLASS
  1
ACMFCFSTANDARDANSI
  2
AcmFCFStdANSI
  3
"Amdt_StdImp|Product Description: AutoCAD Mechanical 2004 DX|Company: Autodesk"
 90
    32768
280
     0
281
     0
  0
CLASS
  1
ACMWELDSTANDARDANSI
  2
AcmWeldingStdANSI
  3
"Amdt_StdImp|Product Description: AutoCAD Mechanical 2004 DX|Company: Autodesk"
 90
    32768
280
     0
281
     0
  0
CLASS
  1
ACMIDSTANDARDANSI
  2
AcmIdStdANSI
  3
"Amdt_StdImp|Product Description: AutoCAD Mechanical 2004 DX|Company: Autodesk"
 90
    32768
280
     0
281
     0
  0
CLASS
  1
ACMDATUMSTANDARDANSI
  2
AcmDatumStdANSI
  3
"Amdt_StdImp|Product Description: AutoCAD Mechanical 2004 DX|Company: Autodesk"
 90
    32768
280
     0
281
     0
  0
CLASS
  1
ACMBOMSTANDARDANSI
  2
AcmBOMStdANSI
  3
"Amdt_StdImp|Product Description: AutoCAD Mechanical 2004 DX|Company: Autodesk"
 90
    32768
280
     0
281
     0
  0
CLASS
  1
ACMDETAILSTANDARDANSI
  2
AmdtDetailSymStdANSI
  3
"Amdt_StdImp|Product Description: AutoCAD Mechanical 2004 DX|Company: Autodesk"
 90
    32768
280
     0
281
     0
  0
CLASS
  1
ACMSECTIONSTANDARDANSI
  2
AmdtSectionSymStdANSI
  3
"Amdt_StdImp|Product Description: AutoCAD Mechanical 2004 DX|Company: Autodesk"
 90
    32768
280
     0
281
     0
  0
CLASS
  1
ACMCENTERLINESTANDARDANSI
  2
AmdtCenterLineStdANSI
  3
"Amdt_StdImp|Product Description: AutoCAD Mechanical 2004 DX|Company: Autodesk"
 90
    32768
280
     0
281
     0
  0
CLASS
  1
ACMTHREADLINESTANDARDANSI
  2
AmdtThreadLineStdANSI
  3
"Amdt_StdImp|Product Description: AutoCAD Mechanical 2004 DX|Company: Autodesk"
 90
    32768
280
     0
281
     0
  0
CLASS
  1
ACMNOTESTANDARDANSI
  2
AmdtNoteStdANSI
  3
"Amdt_StdImp|Product Description: AutoCAD Mechanical 2004 DX|Company: Autodesk"
 90
    32768
280
     0
281
     0
  0
CLASS
  1
ACAMGHOLECHARTSTDANSI
  2
AcAmgHoleChartStdANSI
  3
ACMSYMBB_MODULE_NAME
 90
    32768
280
     0
281
     0
  0
CLASS
  1
AMDTNOTE
  2
AmdtNote
  3
"AcmSymBB|Product Description: AutoCAD Mechanical 2004 DX|Company: Autodesk"
 90
    33791
280
     0
281
     1
  0
CLASS
  1
ASAPP
  2
AcAsAppObject
  3
AutoSurfServices
 90
        0
280
     0
281
     0
  0
CLASS
  1
IM_STATIC_MAN
  2
AcImStaticVarManager
  3
AcMeServices
 90
        0
280
     0
281
     0
  0
CLASS
  1
ACIMDBLSTATICVAR
  2
AcImDblStaticVar
  3
AcMeServices
 90
        0
280
     0
281
     0
  0
CLASS
  1
ACIMSTRSTATICVAR
  2
AcImStrStaticVar
  3
AcMeServices
 90
        0
280
     0
281
     0
  0
CLASS
  1
ACIMINTSTATICVAR
  2
AcImIntStaticVar
  3
AcMeServices
 90
        0
280
     0
281
     0
  0
CLASS
  1
ACASGREFMASTER
  2
AcAsGrefMaster
  3
AutoSurfResolverServices
 90
        0
280
     0
281
     0
  0
CLASS
  1
ACADGREFMODULE
  2
AcAdGrefModule
  3
AdGrefServices
 90
        0
280
     0
281
     0
  0
CLASS
  1
AMDTMAPISURFMOUDULE
  2
AmdtMApiSurfModule
  3
MApiSurfServices
 90
        0
280
     0
281
     0
  0
CLASS
  1
MAPIADMODULE
  2
MApiAdModule
  3
MApiAdServices
 90
        0
280
     0
281
     0
  0
CLASS
  1
AMDTEDGESTANDARDISO13715
  2
AmdtEdgeStdISO13715
  3
"Amdt_StdImp|Product Description: AutoCAD Mechanical 2004 DX|Company: Autodesk"
 90
        0
280
     0
281
     0
  0
ENDSEC
  0
SECTION
  2
TABLES
  0
TABLE
  2
VPORT
  5
8
330
0
100
AcDbSymbolTable
 70
     3
  0
VPORT
  5
80D8
330
8
100
AcDbSymbolTableRecord
100
AcDbViewportTableRecord
  2
*Active
 70
     0
 10
0.0
 20
0.0
 11
1.0
 21
1.0
 12
-94.13166842762029
 22
-211.0065501988911
 13
0.0
 23
0.0
 14
2.5
 24
2.5
 15
10.0
 25
10.0
 16
0.0
 26
0.0
 36
1.0
 17
876.5463440078674
 27
1165.061156630017
 37
0.0
 40
1203.520146051433
 41
1.263157894736842
 42
50.0
 43
0.0
 44
0.0
 50
0.0
 51
0.0
 71
     0
 72
  2000
 73
     1
 74
     0
 75
     0
 76
     0
 77
     0
 78
     0
281
     0
 65
     0
110
0.0
120
0.0
130
0.0
111
1.0
121
0.0
131
0.0
112
0.0
122
1.0
132
0.0
 79
     0
146
0.0
  0
ENDTAB
  0
TABLE
  2
LTYPE
  5
5
330
0
100
AcDbSymbolTable
 70
    18
  0
LTYPE
  5
14
330
5
100
AcDbSymbolTableRecord
100
AcDbLinetypeTableRecord
  2
ByBlock
 70
     0
  3

 72
    65
 73
     0
 40
0.0
  0
LTYPE
  5
15
330
5
100
AcDbSymbolTableRecord
100
AcDbLinetypeTableRecord
  2
ByLayer
 70
     0
  3

 72
    65
 73
     0
 40
0.0
  0
LTYPE
  5
16
330
5
100
AcDbSymbolTableRecord
100
AcDbLinetypeTableRecord
  2
Continuous
 70
     0
  3
Solid line
 72
    65
 73
     0
 40
0.0
  0
LTYPE
  5
64
330
5
100
AcDbSymbolTableRecord
100
AcDbLinetypeTableRecord
  2
AM_ISO02W050
 70
     0
  3
__ __ __ __ __ __ __ __ __ __ __ __ __ __ __
 72
    65
 73
     2
 40
7.5
 49
6.0
 74
     0
 49
-1.5
 74
     0
  0
LTYPE
  5
65
330
5
100
AcDbSymbolTableRecord
100
AcDbLinetypeTableRecord
  2
AM_ISO08W050
 70
     0
  3
____ . ____ . ____ . ____ . ____ . ____ . ____
 72
    65
 73
     4
 40
18.0
 49
12.0
 74
     0
 49
-1.5
 74
     0
 49
3.0
 74
     0
 49
-1.5
 74
     0
  0
LTYPE
  5
66
330
5
100
AcDbSymbolTableRecord
100
AcDbLinetypeTableRecord
  2
AM_ISO09W050
 70
     0
  3
_____ . . _____ . . _____ . . ____ .. ____
 72
    65
 73
     6
 40
22.5
 49
12.0
 74
     0
 49
-1.5
 74
     0
 49
3.0
 74
     0
 49
-1.5
 74
     0
 49
3.0
 74
     0
 49
-1.5
 74
     0
  0
LTYPE
  5
67
330
5
100
AcDbSymbolTableRecord
100
AcDbLinetypeTableRecord
  2
Amconstr
 70
     0
  3
_______________________
 72
    65
 73
     2
 40
9999.0
 49
9999.0
 74
     0
 49
0.0
 74
     0
  0
LTYPE
  5
68
330
5
100
AcDbSymbolTableRecord
100
AcDbLinetypeTableRecord
  2
AM_ISO08W050x2
 70
     0
  3
__ . __ . __ . __ . __ . __
 72
    65
 73
     4
 40
9.0
 49
6.0
 74
     0
 49
-0.75
 74
     0
 49
1.5
 74
     0
 49
-0.75
 74
     0
  0
LTYPE
  5
69
330
5
100
AcDbSymbolTableRecord
100
AcDbLinetypeTableRecord
  2
AM_ISO02W050x2
 70
     0
  3
 _ _ _ _ _ _ _ _ _ _ _ _
 72
    65
 73
     2
 40
3.75
 49
3.0
 74
     0
 49
-0.75
 74
     0
  0
LTYPE
  5
6C
330
5
100
AcDbSymbolTableRecord
100
AcDbLinetypeTableRecord
  2
Amzigzag
 70
     0
  3
/\/-/\/-/\/-/\/-/\/-/\/
 72
    65
 73
     2
 40
11.0001
 49
0.0001
 74
     4
 75
   135
340
6B
 46
0.04
 50
0.0
 44
0.0
 45
0.0
 49
-11.0
 74
     0
  0
LTYPE
  5
7A
330
5
100
AcDbSymbolTableRecord
100
AcDbLinetypeTableRecord
  2
ACISOWELD
 70
     0
  3
_ _ _ _ _
 72
    65
 73
     2
 40
2.0
 49
2.0
 74
     0
 49
-1.0
 74
     0
  0
LTYPE
  5
7B
330
5
100
AcDbSymbolTableRecord
100
AcDbLinetypeTableRecord
  2
ACISOTGB
 70
     0
  3
__ . . __ . .
 72
    65
 73
     6
 40
9.0
 49
4.0
 74
     0
 49
-1.0
 74
     0
 49
1.0
 74
     0
 49
-1.0
 74
     0
 49
1.0
 74
     0
 49
-1.0
 74
     0
  0
LTYPE
  5
7C
330
5
100
AcDbSymbolTableRecord
100
AcDbLinetypeTableRecord
  2
ACISOTGL
 70
     0
  3
_ _ _ _ _
 72
    65
 73
     2
 40
3.0
 49
2.0
 74
     0
 49
-1.0
 74
     0
  0
LTYPE
  5
7E
330
5
100
AcDbSymbolTableRecord
100
AcDbLinetypeTableRecord
  2
CENTER
 70
     0
  3
__ . __
 72
    65
 73
     4
 40
7.0
 49
4.0
 74
     0
 49
-1.0
 74
     0
 49
1.0
 74
     0
 49
-1.0
 74
     0
  0
LTYPE
  5
D8
330
5
100
AcDbSymbolTableRecord
100
AcDbLinetypeTableRecord
  2
HIDDEN
 70
     0
  3
Hidden __ __ __ __ __ __ __ __ __ __ __ __ __ _
 72
    65
 73
     2
 40
9.524999999999998
 49
6.349999999999999
 74
     0
 49
-3.174999999999999
 74
     0
  0
LTYPE
  5
D9
330
5
100
AcDbSymbolTableRecord
100
AcDbLinetypeTableRecord
  2
PHANTOM2
 70
     0
  3
Phantom (.5x) ___ _ _ ___ _ _ ___ _ _ ___ _ _
 72
    65
 73
     6
 40
31.75
 49
15.875
 74
     0
 49
-3.174999999999999
 74
     0
 49
3.174999999999999
 74
     0
 49
-3.174999999999999
 74
     0
 49
3.174999999999999
 74
     0
 49
-3.174999999999999
 74
     0
  0
LTYPE
  5
D48
330
5
100
AcDbSymbolTableRecord
100
AcDbLinetypeTableRecord
  2
ACANSTGB
 70
     0
  3
__ . . __ . .
 72
    65
 73
     6
 40
0.35433070866
 49
0.15748031496
 74
     0
 49
-0.03937007874
 74
     0
 49
0.03937007874
 74
     0
 49
-0.03937007874
 74
     0
 49
0.03937007874
 74
     0
 49
-0.03937007874
 74
     0
  0
LTYPE
  5
D49
330
5
100
AcDbSymbolTableRecord
100
AcDbLinetypeTableRecord
  2
ACANSTGL
 70
     0
  3
_ _ _ _ _
 72
    65
 73
     2
 40
0.11811023622
 49
0.07874015748
 74
     0
 49
-0.03937007874
 74
     0
  0
LTYPE
  5
8052
330
5
100
AcDbSymbolTableRecord
100
AcDbLinetypeTableRecord
  2
ASULTYPE
 70
     0
  3
實線
 72
    65
 73
     2
 40
3.0
 49
2.5
 74
     0
 49
0.5
 74
     0
  0
LTYPE
  5
8053
330
5
100
AcDbSymbolTableRecord
100
AcDbLinetypeTableRecord
  2
ASVLTYPE
 70
     0
  3
__ __ __ __ __ __ __ __ __ __ __ __ __ __ __ __ __ __ __ __ __
 72
    65
 73
     2
 40
0.75
 49
0.5
 74
     0
 49
-0.25
 74
     0
  0
ENDTAB
  0
TABLE
  2
LAYER
  5
2
102
{ACAD_XDICTIONARY
360
3F9
102
}
330
0
100
AcDbSymbolTable
 70
     9
  0
LAYER
  5
10
330
2
100
AcDbSymbolTableRecord
100
AcDbLayerTableRecord
  2
0
 70
     0
 62
     7
  6
Continuous
370
    -3
390
F
  0
LAYER
  5
5AE
330
2
100
AcDbSymbolTableRecord
100
AcDbLayerTableRecord
  2
AM_7
 70
     0
 62
     1
  6
CENTER
370
    25
390
F
  0
LAYER
  5
71B
330
2
100
AcDbSymbolTableRecord
100
AcDbLayerTableRecord
  2
AM_VIS
 70
     0
 62
     7
  6
Continuous
370
    50
390
F
  0
LAYER
  5
71C
330
2
100
AcDbSymbolTableRecord
100
AcDbLayerTableRecord
  2
AM_4
 70
     0
 62
     3
  6
Continuous
370
    25
390
F
  0
LAYER
  5
A8F
330
2
100
AcDbSymbolTableRecord
100
AcDbLayerTableRecord
  2
AM_0
 70
     0
 62
     7
  6
Continuous
370
    50
390
F
  0
LAYER
  5
F80
330
2
100
AcDbSymbolTableRecord
100
AcDbLayerTableRecord
  2
AM_5
 70
     0
 62
     5
  6
Continuous
370
    50
390
F
  0
LAYER
  5
FBA
330
2
100
AcDbSymbolTableRecord
100
AcDbLayerTableRecord
  2
Defpoints
 70
     0
 62
     7
  6
Continuous
290
     0
370
    -3
390
F
  0
LAYER
  5
1818
330
2
100
AcDbSymbolTableRecord
100
AcDbLayerTableRecord
  2
LOGO
 70
     0
 62
     7
  6
Continuous
370
    -3
390
F
  0
LAYER
  5
2380
330
2
100
AcDbSymbolTableRecord
100
AcDbLayerTableRecord
  2
AM_9
 70
     0
 62
   253
  6
Continuous
370
     0
390
F
  0
ENDTAB
  0
TABLE
  2
STYLE
  5
3
330
0
100
AcDbSymbolTable
 70
    10
  0
STYLE
  5
11
330
3
100
AcDbSymbolTableRecord
100
AcDbTextStyleTableRecord
  2
STANDARD
 70
     0
 40
0.0
 41
1.0
 50
0.0
 71
     0
 42
3.0
  3
ISOCP.SHX
  4
CHINESET.SHX
  0
STYLE
  5
6B
330
3
100
AcDbSymbolTableRecord
100
AcDbTextStyleTableRecord
  2

 70
     1
 40
0.0
 41
1.0
 50
0.0
 71
     0
 42
2.5
  3
ltypeshp.shx
  4

  0
STYLE
  5
6D
330
3
100
AcDbSymbolTableRecord
100
AcDbTextStyleTableRecord
  2
ACISOTS
 70
     0
 40
1.0
 41
1.0
 50
0.0
 71
     0
 42
1.0
  3
isocp.shx
  4
chineset.shx
  0
STYLE
  5
79
330
3
100
AcDbSymbolTableRecord
100
AcDbTextStyleTableRecord
  2
ACISOGDT
 70
     0
 40
0.0
 41
1.0
 50
0.0
 71
     0
 42
2.5
  3
amgdt.shx
  4
chineset.shx
  0
STYLE
  5
60C
330
3
100
AcDbSymbolTableRecord
100
AcDbTextStyleTableRecord
  2
CHINESET
 70
     0
 40
0.0
 41
1.0
 50
0.0
 71
     0
 42
3.0
  3
simplex.shx
  4
CHINESET.SHX
  0
STYLE
  5
71E
330
3
100
AcDbSymbolTableRecord
100
AcDbTextStyleTableRecord
  2
DAYUS
 70
     0
 40
0.0
 41
1.0
 50
0.0
 71
     0
 42
5.0
  3
simplex.shx
  4
dayus.shx
  0
STYLE
  5
D4B
330
3
100
AcDbSymbolTableRecord
100
AcDbTextStyleTableRecord
  2
ACANSTS
 70
     0
 40
1.0
 41
1.0
 50
0.0
 71
     0
 42
3.0
  3
romans.shx
  4
chineset.shx
  0
STYLE
  5
D4C
330
3
100
AcDbSymbolTableRecord
100
AcDbTextStyleTableRecord
  2
ACANSGDT
 70
     0
 40
0.0
 41
1.0
 50
0.0
 71
     0
 42
3.0
  3
amgdtans.shx
  4

  0
STYLE
  5
1934
330
3
100
AcDbSymbolTableRecord
100
AcDbTextStyleTableRecord
  2
ROMANS
 70
     0
 40
0.0
 41
1.0
 50
0.0
 71
     0
 42
3.0
  3
ROMANS.SHX
  4
LMP
  0
STYLE
  5
1935
330
3
100
AcDbSymbolTableRecord
100
AcDbTextStyleTableRecord
  2
ROMANS1
 70
     0
 40
0.0
 41
1.0
 50
0.0
 71
     0
 42
3.0
  3
ROMANS.SHX
  4

  0
ENDTAB
  0
TABLE
  2
VIEW
  5
6
330
0
100
AcDbSymbolTable
 70
     0
  0
ENDTAB
  0
TABLE
  2
UCS
  5
7
330
0
100
AcDbSymbolTable
 70
     0
  0
ENDTAB
  0
TABLE
  2
APPID
  5
9
330
0
100
AcDbSymbolTable
 70
    44
  0
APPID
  5
12
330
9
100
AcDbSymbolTableRecord
100
AcDbRegAppTableRecord
  2
ACAD
 70
     0
  0
APPID
  5
46
330
9
100
AcDbSymbolTableRecord
100
AcDbRegAppTableRecord
  2
MCAD_NO_VIS
 70
     0
  0
APPID
  5
47
330
9
100
AcDbSymbolTableRecord
100
AcDbRegAppTableRecord
  2
ACAD_TEMP_GRAPHIC
 70
     0
  0
APPID
  5
58
330
9
100
AcDbSymbolTableRecord
100
AcDbRegAppTableRecord
  2
ACATTRIBSERVICES
 70
     0
  0
APPID
  5
EE
330
9
100
AcDbSymbolTableRecord
100
AcDbRegAppTableRecord
  2
AD_DRAW
 70
     0
  0
APPID
  5
10C
330
9
100
AcDbSymbolTableRecord
100
AcDbRegAppTableRecord
  2
DESIGNERASSEMBLIES
 70
     0
  0
APPID
  5
111
330
9
100
AcDbSymbolTableRecord
100
AcDbRegAppTableRecord
  2
ACADM_DIM_EDIT
 70
     0
  0
APPID
  5
112
330
9
100
AcDbSymbolTableRecord
100
AcDbRegAppTableRecord
  2
AMDT_DM_ADJ
 70
     0
  0
APPID
  5
22C
330
9
100
AcDbSymbolTableRecord
100
AcDbRegAppTableRecord
  2
ACAD_DSTYLE_DIMTEXT_FILL
 70
     0
  0
APPID
  5
452
330
9
100
AcDbSymbolTableRecord
100
AcDbRegAppTableRecord
  2
GENIUS_GENOENT_13
 70
     0
  0
APPID
  5
453
330
9
100
AcDbSymbolTableRecord
100
AcDbRegAppTableRecord
  2
GENIUS_GENOBJ-N-CRS_13
 70
     0
  0
APPID
  5
454
330
9
100
AcDbSymbolTableRecord
100
AcDbRegAppTableRecord
  2
GENIUS_GENOLIS_13
 70
     0
  0
APPID
  5
455
330
9
100
AcDbSymbolTableRecord
100
AcDbRegAppTableRecord
  2
GENIUS_GENODEF_13
 70
     0
  0
APPID
  5
456
330
9
100
AcDbSymbolTableRecord
100
AcDbRegAppTableRecord
  2
GENIUS_GENOREF_13
 70
     0
  0
APPID
  5
6F3
330
9
100
AcDbSymbolTableRecord
100
AcDbRegAppTableRecord
  2
ACAD_PSEXT
 70
     0
  0
APPID
  5
A96
330
9
100
AcDbSymbolTableRecord
100
AcDbRegAppTableRecord
  2
GEVID1121736584
 70
     0
  0
APPID
  5
A97
330
9
100
AcDbSymbolTableRecord
100
AcDbRegAppTableRecord
  2
GEVDC
 70
     0
  0
APPID
  5
AA0
330
9
100
AcDbSymbolTableRecord
100
AcDbRegAppTableRecord
  2
AMG_2DHIDE
 70
     0
  0
APPID
  5
AA1
330
9
100
AcDbSymbolTableRecord
100
AcDbRegAppTableRecord
  2
AMG_2DSTRUCT_BTR
 70
     0
  0
APPID
  5
AB2
330
9
100
AcDbSymbolTableRecord
100
AcDbRegAppTableRecord
  2
ACADM_2DVIEW_IGN_NOTIFY
 70
     0
  0
APPID
  5
AE5
330
9
100
AcDbSymbolTableRecord
100
AcDbRegAppTableRecord
  2
GENIUS_GENOBJ-N-CEN_13
 70
     0
  0
APPID
  5
AE6
330
9
100
AcDbSymbolTableRecord
100
AcDbRegAppTableRecord
  2
GENIUS_GENCEN_19
 70
     0
  0
APPID
  5
B0C
330
9
100
AcDbSymbolTableRecord
100
AcDbRegAppTableRecord
  2
GEVID1121736585
 70
     0
  0
APPID
  5
B0D
330
9
100
AcDbSymbolTableRecord
100
AcDbRegAppTableRecord
  2
GEVRADREF
 70
     0
  0
APPID
  5
B56
330
9
100
AcDbSymbolTableRecord
100
AcDbRegAppTableRecord
  2
GEVID1121736586
 70
     0
  0
APPID
  5
C77
330
9
100
AcDbSymbolTableRecord
100
AcDbRegAppTableRecord
  2
GEVID1121736587
 70
     0
  0
APPID
  5
CB9
330
9
100
AcDbSymbolTableRecord
100
AcDbRegAppTableRecord
  2
GEVID1121736588
 70
     0
  0
APPID
  5
CC7
330
9
100
AcDbSymbolTableRecord
100
AcDbRegAppTableRecord
  2
GEVID1121736589
 70
     0
  0
APPID
  5
14FB
330
9
100
AcDbSymbolTableRecord
100
AcDbRegAppTableRecord
  2
GENIUS_GENDTOL_13
 70
     0
  0
APPID
  5
181B
330
9
100
AcDbSymbolTableRecord
100
AcDbRegAppTableRecord
  2
GENIUS_GENREC_14
 70
     0
  0
APPID
  5
181C
330
9
100
AcDbSymbolTableRecord
100
AcDbRegAppTableRecord
  2
GENIUS_GENOBJ-N-REC_13
 70
     0
  0
APPID
  5
236E
330
9
100
AcDbSymbolTableRecord
100
AcDbRegAppTableRecord
  2
GEVID1122261127
 70
     0
  0
APPID
  5
2390
330
9
100
AcDbSymbolTableRecord
100
AcDbRegAppTableRecord
  2
GEVID1122261128
 70
     0
  0
APPID
  5
2501
330
9
100
AcDbSymbolTableRecord
100
AcDbRegAppTableRecord
  2
GEVID1122261129
 70
     0
  0
APPID
  5
267F
330
9
100
AcDbSymbolTableRecord
100
AcDbRegAppTableRecord
  2
GEVID1122348643
 70
     0
  0
APPID
  5
4168
330
9
100
AcDbSymbolTableRecord
100
AcDbRegAppTableRecord
  2
GEVID1122348644
 70
     0
  0
APPID
  5
58F0
330
9
100
AcDbSymbolTableRecord
100
AcDbRegAppTableRecord
  2
GEVID1122447621
 70
     0
  0
APPID
  5
5A68
330
9
100
AcDbSymbolTableRecord
100
AcDbRegAppTableRecord
  2
GEVID1122447622
 70
     0
  0
APPID
  5
5B88
330
9
100
AcDbSymbolTableRecord
100
AcDbRegAppTableRecord
  2
GEVID1122447623
 70
     0
  0
APPID
  5
6C31
330
9
100
AcDbSymbolTableRecord
100
AcDbRegAppTableRecord
  2
GEVID1122447624
 70
     0
  0
APPID
  5
7FD3
330
9
100
AcDbSymbolTableRecord
100
AcDbRegAppTableRecord
  2
GENIUS_GENDIM_13
 70
     0
  0
APPID
  5
7FD4
330
9
100
AcDbSymbolTableRecord
100
AcDbRegAppTableRecord
  2
GENIUS_GE3DTOL_13
 70
     0
  0
APPID
  5
8054
330
9
100
AcDbSymbolTableRecord
100
AcDbRegAppTableRecord
  2
ASURF_PCURVE_APPNAME
 70
     0
  0
APPID
  5
8059
330
9
100
AcDbSymbolTableRecord
100
AcDbRegAppTableRecord
  2
AMG_3D2D_5.0
 70
     0
  0
ENDTAB
  0
TABLE
  2
DIMSTYLE
  5
A
330
0
100
AcDbSymbolTable
 70
    14
100
AcDbDimStyleTable
 71
     3
340
81
340
8B
340
86
  0
DIMSTYLE
105
81
330
A
100
AcDbSymbolTableRecord
100
AcDbDimStyleTableRecord
  2
AM_ISO
 70
     0
  4
"
 41
3.0
 42
1.0
 43
12.0
 44
1.5
 47
0.1
 48
0.1
 73
     0
 74
     0
 77
     1
 78
     8
 79
     2
140
3.0
141
0.0
143
0.0393701
146
0.71
147
1.0
172
     1
176
   256
177
   256
178
   256
271
     2
272
     2
283
     2
284
     8
340
11
371
    -1
372
    -1
  0
DIMSTYLE
105
82
330
A
100
AcDbSymbolTableRecord
100
AcDbDimStyleTableRecord
  2
AM_ISO$3
 70
     0
  4
"
 41
3.0
 42
1.0
 43
12.0
 44
1.5
 47
0.1
 48
0.1
 73
     0
 77
     1
 78
     8
 79
     2
140
3.0
141
0.0
143
0.0393701
146
0.71
147
1.0
176
   256
177
   256
178
   256
271
     2
272
     2
283
     2
284
     8
288
     1
289
     0
340
11
371
    -1
372
    -1
  0
DIMSTYLE
105
83
330
A
100
AcDbSymbolTableRecord
100
AcDbDimStyleTableRecord
  2
AM_ISO$4
 70
     0
  4
"
 41
3.0
 42
1.0
 43
12.0
 44
1.5
 47
0.1
 48
0.1
 73
     0
 77
     1
 78
     8
 79
     2
140
3.0
141
0.0
143
0.0393701
146
0.71
147
1.0
176
   256
177
   256
178
   256
271
     2
272
     2
283
     2
284
     8
288
     1
289
     0
340
11
371
    -1
372
    -1
  0
DIMSTYLE
105
84
330
A
100
AcDbSymbolTableRecord
100
AcDbDimStyleTableRecord
  2
AM_ISO$6
 70
     0
  4
"
 41
3.0
 42
1.0
 43
12.0
 44
1.5
 47
0.1
 48
0.1
 73
     0
 74
     0
 78
     8
 79
     2
140
3.0
141
0.0
143
0.0393701
146
0.71
147
1.0
172
     1
176
   256
177
   256
178
   256
271
     2
272
     2
283
     2
284
     8
340
11
371
    -1
372
    -1
  0
DIMSTYLE
105
85
330
A
100
AcDbSymbolTableRecord
100
AcDbDimStyleTableRecord
  2
AM_ISO$7
 70
     0
  4
"
 41
3.0
 42
1.0
 43
12.0
 44
1.5
 47
0.1
 48
0.1
 73
     0
 74
     0
 77
     1
 78
     8
 79
     2
140
5.0
141
0.0
143
0.0393701
146
0.71
147
1.0
172
     1
176
   256
177
   256
178
   256
271
     2
272
     2
283
     2
284
     8
340
11
371
    -1
372
    -1
  0
DIMSTYLE
105
86
330
A
100
AcDbSymbolTableRecord
100
AcDbDimStyleTableRecord
  2
AM_ISO$SF
 70
     0
  4
"
 41
2.5
 42
1.0
 43
10.0
 44
1.0
 47
0.1
 48
0.1
 73
     0
 74
     0
 75
     1
 76
     1
 77
     1
 78
     8
 79
     2
140
3.5
141
0.0
143
0.0393701
146
0.71
147
1.5
172
     1
176
   256
177
   256
178
     2
271
     2
272
     3
274
     4
283
     0
284
     8
340
11
371
    -1
372
    -1
  0
DIMSTYLE
105
8B
330
A
100
AcDbSymbolTableRecord
100
AcDbDimStyleTableRecord
  2
AM_ISO$SH
 70
     0
  4
"
 41
2.5
 42
1.0
 43
10.0
 44
1.0
 47
0.1
 48
0.1
 73
     0
 74
     0
 75
     1
 76
     1
 77
     1
 78
     8
 79
     2
140
3.5
141
0.0
143
0.0393701
144
2.0
146
0.71
147
1.5
172
     1
173
     1
176
   256
177
   256
178
     2
271
     2
272
     3
274
     4
283
     0
284
     8
340
11
343
87
371
    -1
372
    -1
  0
DIMSTYLE
105
40B
102
{ACAD_REACTORS
330
6DC1
330
6DC2
330
6DC4
330
6E2E
330
6E2F
330
6E30
330
6E9B
330
6E9C
330
6E9D
330
6E9E
330
6E9F
330
6F42
330
6F43
330
6F44
330
6F45
330
6F46
330
6F47
330
6F48
330
7A4F
330
7A50
330
7A51
330
7A52
330
7A53
330
7B02
330
7B28
102
}
330
A
100
AcDbSymbolTableRecord
100
AcDbDimStyleTableRecord
  2
AM_ISO$0
 70
     0
  4
"
 41
3.0
 42
1.0
 43
12.0
 44
1.5
 47
0.1
 48
0.1
 73
     0
 74
     0
 77
     1
 78
     8
 79
     2
140
3.0
141
0.0
143
0.0393701
146
0.71
147
1.0
172
     1
176
   256
177
   256
178
   256
271
     2
272
     2
283
     2
284
     8
340
11
371
    -1
372
    -1
  0
DIMSTYLE
105
721
330
A
100
AcDbSymbolTableRecord
100
AcDbDimStyleTableRecord
  2
AM_ANSI
 70
     0
  4
mm
 41
3.0
 42
1.5
 43
8.0
 44
2.0
 47
0.1
 48
0.1
 73
     0
 74
     0
 77
     3
 78
     9
 79
     2
140
3.0
141
0.0
146
0.6
147
0.8
172
     1
176
   256
177
   256
178
   256
271
     2
272
     2
284
    11
340
71E
371
    -1
372
    -1
  0
DIMSTYLE
105
D4D
330
A
100
AcDbSymbolTableRecord
100
AcDbDimStyleTableRecord
  2
AM_ANSI$3
 70
     0
  4
mm
 41
0.1
 42
0.05
 43
0.5
 44
0.1
 47
0.1
 48
0.1
 78
     7
 79
     2
140
0.12
141
0.0
146
0.71
147
0.06
176
   256
177
   256
178
     2
274
     4
284
     7
288
     1
289
     0
340
11
371
    -1
372
    -1
  0
DIMSTYLE
105
D4E
330
A
100
AcDbSymbolTableRecord
100
AcDbDimStyleTableRecord
  2
AM_ANSI$4
 70
     0
  4
mm
 41
0.1
 42
0.05
 43
0.5
 44
0.1
 47
0.1
 48
0.1
 78
     7
 79
     2
140
0.12
141
0.0
146
0.71
147
0.06
176
   256
177
   256
178
     2
274
     4
284
     7
288
     1
289
     0
340
11
371
    -1
372
    -1
  0
DIMSTYLE
105
D4F
330
A
100
AcDbSymbolTableRecord
100
AcDbDimStyleTableRecord
  2
AM_ANSI$7
 70
     0
  4
mm
 41
0.1
 42
0.05
 43
0.5
 44
0.1
 47
0.1
 48
0.1
 78
     7
 79
     2
140
0.24
141
0.0
146
0.71
147
0.06
176
   256
177
   256
178
     2
274
     4
284
     7
340
11
371
    -1
372
    -1
  0
DIMSTYLE
105
D50
330
A
100
AcDbSymbolTableRecord
100
AcDbDimStyleTableRecord
  2
AM_ANSI$SF
 70
     0
  4
mm
 41
0.1
 42
0.05
 43
0.5
 44
0.1
 47
0.1
 48
0.1
 75
     1
 76
     1
 78
     7
 79
     2
140
0.12
141
0.0
146
0.71
147
0.06
176
   256
177
   256
178
     2
274
     4
284
     7
340
11
371
    -1
372
    -1
  0
DIMSTYLE
105
D51
330
A
100
AcDbSymbolTableRecord
100
AcDbDimStyleTableRecord
  2
AM_ANSI$SH
 70
     0
  4
mm
 41
0.1
 42
0.05
 43
0.5
 44
0.1
 47
0.1
 48
0.1
 75
     1
 76
     1
 78
     7
 79
     2
140
0.12
141
0.0
146
0.71
147
0.06
173
     1
176
   256
177
   256
178
     2
274
     4
284
     7
340
11
343
87
371
    -1
372
    -1
  0
ENDTAB
  0
TABLE
  2
BLOCK_RECORD
  5
1
330
0
100
AcDbSymbolTable
 70
    34
  0
BLOCK_RECORD
  5
1F
102
{ACAD_XDICTIONARY
360
8F
102
}
330
1
100
AcDbSymbolTableRecord
100
AcDbBlockTableRecord
  2
*Model_Space
340
22
  0
BLOCK_RECORD
  5
1B
330
1
100
AcDbSymbolTableRecord
100
AcDbBlockTableRecord
  2
*Paper_Space
340
1E
  0
BLOCK_RECORD
  5
23
330
1
100
AcDbSymbolTableRecord
100
AcDbBlockTableRecord
  2
*Paper_Space0
340
26
  0
BLOCK_RECORD
  5
87
330
1
100
AcDbSymbolTableRecord
100
AcDbBlockTableRecord
  2
GENAXEH
340
0
  0
BLOCK_RECORD
  5
6DC8
330
1
100
AcDbSymbolTableRecord
100
AcDbBlockTableRecord
  2
*D2
340
0
  0
BLOCK_RECORD
  5
6DD4
330
1
100
AcDbSymbolTableRecord
100
AcDbBlockTableRecord
  2
*D3
340
0
  0
BLOCK_RECORD
  5
6DE0
330
1
100
AcDbSymbolTableRecord
100
AcDbBlockTableRecord
  2
*D4
340
0
  0
BLOCK_RECORD
  5
6E31
330
1
100
AcDbSymbolTableRecord
100
AcDbBlockTableRecord
  2
*D5
340
0
  0
BLOCK_RECORD
  5
6E3F
330
1
100
AcDbSymbolTableRecord
100
AcDbBlockTableRecord
  2
*D6
340
0
  0
BLOCK_RECORD
  5
6E4B
330
1
100
AcDbSymbolTableRecord
100
AcDbBlockTableRecord
  2
*D7
340
0
  0
BLOCK_RECORD
  5
6EA0
330
1
100
AcDbSymbolTableRecord
100
AcDbBlockTableRecord
  2
*D8
340
0
  0
BLOCK_RECORD
  5
6EAC
330
1
100
AcDbSymbolTableRecord
100
AcDbBlockTableRecord
  2
*D9
340
0
  0
BLOCK_RECORD
  5
6EB8
330
1
100
AcDbSymbolTableRecord
100
AcDbBlockTableRecord
  2
*D10
340
0
  0
BLOCK_RECORD
  5
6EC4
330
1
100
AcDbSymbolTableRecord
100
AcDbBlockTableRecord
  2
*D11
340
0
  0
BLOCK_RECORD
  5
6ED0
330
1
100
AcDbSymbolTableRecord
100
AcDbBlockTableRecord
  2
*D12
340
0
  0
BLOCK_RECORD
  5
6F49
330
1
100
AcDbSymbolTableRecord
100
AcDbBlockTableRecord
  2
*D13
340
0
  0
BLOCK_RECORD
  5
6F55
330
1
100
AcDbSymbolTableRecord
100
AcDbBlockTableRecord
  2
*D14
340
0
  0
BLOCK_RECORD
  5
6F61
330
1
100
AcDbSymbolTableRecord
100
AcDbBlockTableRecord
  2
*D15
340
0
  0
BLOCK_RECORD
  5
6F6D
330
1
100
AcDbSymbolTableRecord
100
AcDbBlockTableRecord
  2
*D16
340
0
  0
BLOCK_RECORD
  5
6F79
330
1
100
AcDbSymbolTableRecord
100
AcDbBlockTableRecord
  2
*D17
340
0
  0
BLOCK_RECORD
  5
6F85
330
1
100
AcDbSymbolTableRecord
100
AcDbBlockTableRecord
  2
*D18
340
0
  0
BLOCK_RECORD
  5
6F91
330
1
100
AcDbSymbolTableRecord
100
AcDbBlockTableRecord
  2
*D19
340
0
  0
BLOCK_RECORD
  5
7A54
330
1
100
AcDbSymbolTableRecord
100
AcDbBlockTableRecord
  2
*D20
340
0
  0
BLOCK_RECORD
  5
7A60
330
1
100
AcDbSymbolTableRecord
100
AcDbBlockTableRecord
  2
*D21
340
0
  0
BLOCK_RECORD
  5
7A6C
330
1
100
AcDbSymbolTableRecord
100
AcDbBlockTableRecord
  2
*D22
340
0
  0
BLOCK_RECORD
  5
7A78
330
1
100
AcDbSymbolTableRecord
100
AcDbBlockTableRecord
  2
*D23
340
0
  0
BLOCK_RECORD
  5
7A84
330
1
100
AcDbSymbolTableRecord
100
AcDbBlockTableRecord
  2
*D24
340
0
  0
BLOCK_RECORD
  5
7B03
330
1
100
AcDbSymbolTableRecord
100
AcDbBlockTableRecord
  2
*D25
340
0
  0
BLOCK_RECORD
  5
7B29
330
1
100
AcDbSymbolTableRecord
100
AcDbBlockTableRecord
  2
*D26
340
0
  0
BLOCK_RECORD
  5
7F8B
330
1
100
AcDbSymbolTableRecord
100
AcDbBlockTableRecord
  2
*S27
340
0
102
{BLKREFS
331
6DC3
102
}
  0
BLOCK_RECORD
  5
7F93
330
1
100
AcDbSymbolTableRecord
100
AcDbBlockTableRecord
  2
*S28
340
0
102
{BLKREFS
331
6DC5
102
}
  0
BLOCK_RECORD
  5
7F9B
330
1
100
AcDbSymbolTableRecord
100
AcDbBlockTableRecord
  2
*S29
340
0
102
{BLKREFS
331
6F40
102
}
  0
BLOCK_RECORD
  5
7FA3
330
1
100
AcDbSymbolTableRecord
100
AcDbBlockTableRecord
  2
*S30
340
0
102
{BLKREFS
331
7938
102
}
  0
BLOCK_RECORD
  5
7FAB
330
1
100
AcDbSymbolTableRecord
100
AcDbBlockTableRecord
  2
*S31
340
0
102
{BLKREFS
331
793B
102
}
  0
BLOCK_RECORD
  5
7FB3
330
1
100
AcDbSymbolTableRecord
100
AcDbBlockTableRecord
  2
*S32
340
0
102
{BLKREFS
331
793E
102
}
  0
ENDTAB
  0
ENDSEC
  0
SECTION
  2
BLOCKS
  0
BLOCK
  5
20
330
1F
100
AcDbEntity
  8
0
100
AcDbBlockBegin
  2
*Model_Space
 70
     0
 10
0.0
 20
0.0
 30
0.0
  3
*Model_Space
  1

  0
ENDBLK
  5
21
330
1F
100
AcDbEntity
  8
0
100
AcDbBlockEnd
  0
BLOCK
  5
1C
330
1B
100
AcDbEntity
 67
     1
  8
0
100
AcDbBlockBegin
  2
*Paper_Space
 70
     0
 10
0.0
 20
0.0
 30
0.0
  3
*Paper_Space
  1

  0
ENDBLK
  5
1D
330
1B
100
AcDbEntity
 67
     1
  8
0
100
AcDbBlockEnd
  0
BLOCK
  5
24
330
23
100
AcDbEntity
  8
0
100
AcDbBlockBegin
  2
*Paper_Space0
 70
     0
 10
0.0
 20
0.0
 30
0.0
  3
*Paper_Space0
  1

  0
ENDBLK
  5
25
330
23
100
AcDbEntity
  8
0
100
AcDbBlockEnd
  0
BLOCK
  5
89
330
87
100
AcDbEntity
  8
0
100
AcDbBlockBegin
  2
GENAXEH
 70
     0
 10
0.0
 20
0.0
 30
0.0
  3
GENAXEH
  1

  0
LINE
  5
88
330
87
100
AcDbEntity
  8
0
100
AcDbLine
 10
-1.0
 20
0.0
 30
0.0
 11
1.0
 21
0.0
 31
0.0
  0
ENDBLK
  5
8A
330
87
100
AcDbEntity
  8
0
100
AcDbBlockEnd
  0
BLOCK
  5
6DD2
330
6DC8
100
AcDbEntity
  8
0
100
AcDbBlockBegin
  2
*D2
 70
     1
 10
0.0
 20
0.0
 30
0.0
  3
*D2
  1

  0
LINE
  5
7EFC
330
6DC8
100
AcDbEntity
  8
AM_5
100
AcDbLine
 10
709.9644615768242
 20
1187.627023902659
 30
0.0
 11
709.9644615768242
 21
1157.127023902659
 31
0.0
  0
LINE
  5
7EFD
330
6DC8
100
AcDbEntity
  8
AM_5
100
AcDbLine
 10
766.4644615768241
 20
1187.627023902659
 30
0.0
 11
766.4644615768241
 21
1157.127023902659
 31
0.0
  0
LINE
  5
7EFE
330
6DC8
100
AcDbEntity
  8
AM_5
100
AcDbLine
 10
714.4644615768242
 20
1159.377023902659
 30
0.0
 11
761.9644615768241
 21
1159.377023902659
 31
0.0
  0
SOLID
  5
7EFF
330
6DC8
100
AcDbEntity
  8
AM_5
100
AcDbTrace
 10
714.4644615768242
 20
1160.127023902659
 30
0.0
 11
714.4644615768242
 21
1158.627023902659
 31
0.0
 12
709.9644615768242
 22
1159.377023902659
 32
0.0
 13
709.9644615768242
 23
1159.377023902659
 33
0.0
  0
SOLID
  5
7F00
330
6DC8
100
AcDbEntity
  8
AM_5
100
AcDbTrace
 10
761.9644615768241
 20
1160.127023902659
 30
0.0
 11
761.9644615768241
 21
1158.627023902659
 31
0.0
 12
766.4644615768241
 22
1159.377023902659
 32
0.0
 13
766.4644615768241
 23
1159.377023902659
 33
0.0
  0
MTEXT
  5
7F01
330
6DC8
100
AcDbEntity
  8
AM_5
100
AcDbMText
 10
738.2144615768241
 20
1163.127023902659
 30
0.0
 40
4.5
 41
0.0
 71
     5
 72
     1
  1
\A2;56.5
 73
     1
 44
1.0
1001
ACAD
1000
MTEXTBEGIN
1070
    73
1070
     1
1070
    44
1040
1.0
1070
    74
1070
     0
1000
MTEXTEND
  0
POINT
  5
7F02
330
6DC8
100
AcDbEntity
  8
Defpoints
 62
     0
100
AcDbPoint
 10
709.9644615768242
 20
1189.127023902659
 30
0.0
  0
POINT
  5
7F03
330
6DC8
100
AcDbEntity
  8
Defpoints
 62
     0
100
AcDbPoint
 10
766.4644615768241
 20
1189.127023902659
 30
0.0
  0
POINT
  5
7F04
330
6DC8
100
AcDbEntity
  8
Defpoints
 62
     0
100
AcDbPoint
 10
766.4644615768241
 20
1159.377023902659
 30
0.0
  0
ENDBLK
  5
6DD3
330
6DC8
100
AcDbEntity
  8
0
100
AcDbBlockEnd
  0
BLOCK
  5
6DDE
330
6DD4
100
AcDbEntity
  8
0
100
AcDbBlockBegin
  2
*D3
 70
     1
 10
0.0
 20
0.0
 30
0.0
  3
*D3
  1

  0
LINE
  5
7EF3
330
6DD4
100
AcDbEntity
  8
AM_5
100
AcDbLine
 10
773.9644615768241
 20
1195.127023902659
 30
0.0
 11
799.9487579931273
 21
1195.127023902659
 31
0.0
  0
LINE
  5
7EF4
330
6DD4
100
AcDbEntity
  8
AM_5
100
AcDbLine
 10
773.9644615768241
 20
1251.627023902659
 30
0.0
 11
799.9487579931273
 21
1251.627023902659
 31
0.0
  0
LINE
  5
7EF5
330
6DD4
100
AcDbEntity
  8
AM_5
100
AcDbLine
 10
797.6987579931273
 20
1199.627023902659
 30
0.0
 11
797.6987579931273
 21
1247.127023902659
 31
0.0
  0
SOLID
  5
7EF6
330
6DD4
100
AcDbEntity
  8
AM_5
100
AcDbTrace
 10
796.9487579931274
 20
1199.627023902659
 30
0.0
 11
798.4487579931274
 21
1199.627023902659
 31
0.0
 12
797.6987579931273
 22
1195.127023902659
 32
0.0
 13
797.6987579931273
 23
1195.127023902659
 33
0.0
  0
SOLID
  5
7EF7
330
6DD4
100
AcDbEntity
  8
AM_5
100
AcDbTrace
 10
796.9487579931274
 20
1247.127023902659
 30
0.0
 11
798.4487579931274
 21
1247.127023902659
 31
0.0
 12
797.6987579931273
 22
1251.627023902659
 32
0.0
 13
797.6987579931273
 23
1251.627023902659
 33
0.0
  0
MTEXT
  5
7EF8
330
6DD4
100
AcDbEntity
  8
AM_5
100
AcDbMText
 10
793.9487579931273
 20
1211.213647966078
 30
0.0
 40
4.5
 41
0.0
 71
     5
 72
     1
  1
\A2;56.5
 11
0.0000000000000001
 21
1.0
 31
0.0
 73
     1
 44
1.0
1001
ACAD
1000
MTEXTBEGIN
1070
    73
1070
     1
1070
    44
1040
1.0
1070
    74
1070
     0
1000
MTEXTEND
  0
POINT
  5
7EF9
330
6DD4
100
AcDbEntity
  8
Defpoints
 62
     0
100
AcDbPoint
 10
772.4644615768242
 20
1195.127023902659
 30
0.0
  0
POINT
  5
7EFA
330
6DD4
100
AcDbEntity
  8
Defpoints
 62
     0
100
AcDbPoint
 10
772.4644615768242
 20
1251.627023902659
 30
0.0
  0
POINT
  5
7EFB
330
6DD4
100
AcDbEntity
  8
Defpoints
 62
     0
100
AcDbPoint
 10
797.6987579931273
 20
1251.627023902659
 30
0.0
  0
ENDBLK
  5
6DDF
330
6DD4
100
AcDbEntity
  8
0
100
AcDbBlockEnd
  0
BLOCK
  5
6DEA
330
6DE0
100
AcDbEntity
  8
0
100
AcDbBlockBegin
  2
*D4
 70
     1
 10
0.0
 20
0.0
 30
0.0
  3
*D4
  1

  0
LINE
  5
7EEA
330
6DE0
100
AcDbEntity
  8
AM_5
100
AcDbLine
 10
724.4644615768241
 20
1188.627023902659
 30
0.0
 11
724.4644615768241
 21
1169.127023902659
 31
0.0
  0
LINE
  5
7EEB
330
6DE0
100
AcDbEntity
  8
AM_5
100
AcDbLine
 10
752.4644615768242
 20
1188.627023902659
 30
0.0
 11
752.4644615768242
 21
1169.127023902659
 31
0.0
  0
LINE
  5
7EEC
330
6DE0
100
AcDbEntity
  8
AM_5
100
AcDbLine
 10
728.9644615768241
 20
1171.377023902659
 30
0.0
 11
747.9644615768242
 21
1171.377023902659
 31
0.0
  0
SOLID
  5
7EED
330
6DE0
100
AcDbEntity
  8
AM_5
100
AcDbTrace
 10
728.9644615768241
 20
1172.127023902659
 30
0.0
 11
728.9644615768241
 21
1170.627023902659
 31
0.0
 12
724.4644615768241
 22
1171.377023902659
 32
0.0
 13
724.4644615768241
 23
1171.377023902659
 33
0.0
  0
SOLID
  5
7EEE
330
6DE0
100
AcDbEntity
  8
AM_5
100
AcDbTrace
 10
747.9644615768242
 20
1172.127023902659
 30
0.0
 11
747.9644615768242
 21
1170.627023902659
 31
0.0
 12
752.4644615768242
 22
1171.377023902659
 32
0.0
 13
752.4644615768242
 23
1171.377023902659
 33
0.0
  0
MTEXT
  5
7EEF
330
6DE0
100
AcDbEntity
  8
AM_5
100
AcDbMText
 10
738.4644615768242
 20
1175.127466816045
 30
0.0
 40
4.5
 41
0.0
 71
     5
 72
     1
  1
\A2;28
 73
     1
 44
1.0
1001
ACAD
1000
MTEXTBEGIN
1070
    73
1070
     1
1070
    44
1040
1.0
1070
    74
1070
     0
1000
MTEXTEND
  0
POINT
  5
7EF0
330
6DE0
100
AcDbEntity
  8
Defpoints
 62
     0
100
AcDbPoint
 10
724.4644615768241
 20
1190.127023902659
 30
0.0
  0
POINT
  5
7EF1
330
6DE0
100
AcDbEntity
  8
Defpoints
 62
     0
100
AcDbPoint
 10
752.4644615768242
 20
1190.127023902659
 30
0.0
  0
POINT
  5
7EF2
330
6DE0
100
AcDbEntity
  8
Defpoints
 62
     0
100
AcDbPoint
 10
752.4644615768242
 20
1171.377023902659
 30
0.0
  0
ENDBLK
  5
6DEB
330
6DE0
100
AcDbEntity
  8
0
100
AcDbBlockEnd
  0
BLOCK
  5
6E3D
330
6E31
100
AcDbEntity
  8
0
100
AcDbBlockBegin
  2
*D5
 70
     1
 10
0.0
 20
0.0
 30
0.0
  3
*D5
  1

  0
LINE
  5
7EDF
330
6E31
100
AcDbEntity
  8
AM_5
100
AcDbLine
 10
747.4644615768242
 20
1064.818100050518
 30
0.0
 11
747.4644615768242
 21
1121.855170845012
 31
0.0
  0
LINE
  5
7EE0
330
6E31
100
AcDbEntity
  8
AM_5
100
AcDbLine
 10
752.4644615768242
 20
1103.770675055569
 30
0.0
 11
752.4644615768242
 21
1121.855170845012
 31
0.0
  0
LINE
  5
7EE1
330
6E31
100
AcDbEntity
  8
AM_5
100
AcDbLine
 10
742.9644615768242
 20
1119.605170845012
 30
0.0
 11
738.4644615768242
 21
1119.605170845012
 31
0.0
  0
LINE
  5
7EE2
330
6E31
100
AcDbEntity
  8
AM_5
100
AcDbLine
 10
756.9644615768241
 20
1119.605170845012
 30
0.0
 11
761.4644615768241
 21
1119.605170845012
 31
0.0
  0
LINE
  5
7EE3
330
6E31
100
AcDbEntity
  8
AM_5
100
AcDbLine
 10
747.4644615768242
 20
1119.605170845012
 30
0.0
 11
752.4644615768242
 21
1119.605170845012
 31
0.0
  0
SOLID
  5
7EE4
330
6E31
100
AcDbEntity
  8
AM_5
100
AcDbTrace
 10
742.9644615768242
 20
1120.355170845012
 30
0.0
 11
742.9644615768242
 21
1118.855170845012
 31
0.0
 12
747.4644615768242
 22
1119.605170845012
 32
0.0
 13
747.4644615768242
 23
1119.605170845012
 33
0.0
  0
SOLID
  5
7EE5
330
6E31
100
AcDbEntity
  8
AM_5
100
AcDbTrace
 10
756.9644615768241
 20
1120.355170845012
 30
0.0
 11
756.9644615768241
 21
1118.855170845012
 31
0.0
 12
752.4644615768242
 22
1119.605170845012
 32
0.0
 13
752.4644615768242
 23
1119.605170845012
 33
0.0
  0
MTEXT
  5
7EE6
330
6E31
100
AcDbEntity
  8
AM_5
100
AcDbMText
 10
749.9644615768241
 20
1123.355170845012
 30
0.0
 40
4.5
 41
0.0
 71
     5
 72
     1
  1
\A2;5
 73
     1
 44
1.0
1001
ACAD
1000
MTEXTBEGIN
1070
    73
1070
     1
1070
    44
1040
1.0
1070
    74
1070
     0
1000
MTEXTEND
  0
POINT
  5
7EE7
330
6E31
100
AcDbEntity
  8
Defpoints
 62
     0
100
AcDbPoint
 10
747.4644615768242
 20
1063.318100050518
 30
0.0
  0
POINT
  5
7EE8
330
6E31
100
AcDbEntity
  8
Defpoints
 62
     0
100
AcDbPoint
 10
752.4644615768242
 20
1102.270675055569
 30
0.0
  0
POINT
  5
7EE9
330
6E31
100
AcDbEntity
  8
Defpoints
 62
     0
100
AcDbPoint
 10
752.4644615768242
 20
1119.605170845012
 30
0.0
  0
ENDBLK
  5
6E3E
330
6E31
100
AcDbEntity
  8
0
100
AcDbBlockEnd
  0
BLOCK
  5
6E49
330
6E3F
100
AcDbEntity
  8
0
100
AcDbBlockBegin
  2
*D6
 70
     1
 10
0.0
 20
0.0
 30
0.0
  3
*D6
  1

  0
LINE
  5
7ED6
330
6E3F
100
AcDbEntity
  8
AM_5
100
AcDbLine
 10
747.4644615768242
 20
1064.818100050518
 30
0.0
 11
747.4644615768242
 21
1133.855170845012
 31
0.0
  0
LINE
  5
7ED7
330
6E3F
100
AcDbEntity
  8
AM_5
100
AcDbLine
 10
841.4644615768242
 20
1098.818100050518
 30
0.0
 11
841.4644615768242
 21
1133.855170845012
 31
0.0
  0
LINE
  5
7ED8
330
6E3F
100
AcDbEntity
  8
AM_5
100
AcDbLine
 10
751.9644615768242
 20
1131.605170845012
 30
0.0
 11
836.9644615768242
 21
1131.605170845012
 31
0.0
  0
SOLID
  5
7ED9
330
6E3F
100
AcDbEntity
  8
AM_5
100
AcDbTrace
 10
751.9644615768242
 20
1132.355170845012
 30
0.0
 11
751.9644615768242
 21
1130.855170845012
 31
0.0
 12
747.4644615768242
 22
1131.605170845012
 32
0.0
 13
747.4644615768242
 23
1131.605170845012
 33
0.0
  0
SOLID
  5
7EDA
330
6E3F
100
AcDbEntity
  8
AM_5
100
AcDbTrace
 10
836.9644615768242
 20
1132.355170845012
 30
0.0
 11
836.9644615768242
 21
1130.855170845012
 31
0.0
 12
841.4644615768242
 22
1131.605170845012
 32
0.0
 13
841.4644615768242
 23
1131.605170845012
 33
0.0
  0
MTEXT
  5
7EDB
330
6E3F
100
AcDbEntity
  8
AM_5
100
AcDbMText
 10
794.4644615768241
 20
1135.355170845012
 30
0.0
 40
4.5
 41
0.0
 71
     5
 72
     1
  1
\A2;94
 73
     1
 44
1.0
1001
ACAD
1000
MTEXTBEGIN
1070
    73
1070
     1
1070
    44
1040
1.0
1070
    74
1070
     0
1000
MTEXTEND
  0
POINT
  5
7EDC
330
6E3F
100
AcDbEntity
  8
Defpoints
 62
     0
100
AcDbPoint
 10
747.4644615768242
 20
1063.318100050518
 30
0.0
  0
POINT
  5
7EDD
330
6E3F
100
AcDbEntity
  8
Defpoints
 62
     0
100
AcDbPoint
 10
841.4644615768242
 20
1097.318100050518
 30
0.0
  0
POINT
  5
7EDE
330
6E3F
100
AcDbEntity
  8
Defpoints
 62
     0
100
AcDbPoint
 10
841.4644615768242
 20
1131.605170845012
 30
0.0
  0
ENDBLK
  5
6E4A
330
6E3F
100
AcDbEntity
  8
0
100
AcDbBlockEnd
  0
BLOCK
  5
6E55
330
6E4B
100
AcDbEntity
  8
0
100
AcDbBlockBegin
  2
*D7
 70
     1
 10
0.0
 20
0.0
 30
0.0
  3
*D7
  1

  0
LINE
  5
7ECD
330
6E4B
100
AcDbEntity
  8
AM_5
100
AcDbLine
 10
572.4644615768242
 20
1045.468100050517
 30
0.0
 11
572.4644615768242
 21
1133.855170845012
 31
0.0
  0
LINE
  5
7ECE
330
6E4B
100
AcDbEntity
  8
AM_5
100
AcDbLine
 10
747.4644615768242
 20
1064.818100050518
 30
0.0
 11
747.4644615768242
 21
1133.855170845012
 31
0.0
  0
LINE
  5
7ECF
330
6E4B
100
AcDbEntity
  8
AM_5
100
AcDbLine
 10
576.9644615768242
 20
1131.605170845012
 30
0.0
 11
742.9644615768242
 21
1131.605170845012
 31
0.0
  0
SOLID
  5
7ED0
330
6E4B
100
AcDbEntity
  8
AM_5
100
AcDbTrace
 10
576.9644615768242
 20
1132.355170845012
 30
0.0
 11
576.9644615768242
 21
1130.855170845012
 31
0.0
 12
572.4644615768242
 22
1131.605170845012
 32
0.0
 13
572.4644615768242
 23
1131.605170845012
 33
0.0
  0
SOLID
  5
7ED1
330
6E4B
100
AcDbEntity
  8
AM_5
100
AcDbTrace
 10
742.9644615768242
 20
1132.355170845012
 30
0.0
 11
742.9644615768242
 21
1130.855170845012
 31
0.0
 12
747.4644615768242
 22
1131.605170845012
 32
0.0
 13
747.4644615768242
 23
1131.605170845012
 33
0.0
  0
MTEXT
  5
7ED2
330
6E4B
100
AcDbEntity
  8
AM_5
100
AcDbMText
 10
659.9644615768242
 20
1135.355613758398
 30
0.0
 40
4.5
 41
0.0
 71
     5
 72
     1
  1
\A2;125+stroke
 73
     1
 44
1.0
1001
ACAD
1000
MTEXTBEGIN
1070
    73
1070
     1
1070
    44
1040
1.0
1070
    74
1070
     0
1000
MTEXTEND
  0
POINT
  5
7ED3
330
6E4B
100
AcDbEntity
  8
Defpoints
 62
     0
100
AcDbPoint
 10
572.4644615768242
 20
1043.968100050517
 30
0.0
  0
POINT
  5
7ED4
330
6E4B
100
AcDbEntity
  8
Defpoints
 62
     0
100
AcDbPoint
 10
747.4644615768242
 20
1063.318100050518
 30
0.0
  0
POINT
  5
7ED5
330
6E4B
100
AcDbEntity
  8
Defpoints
 62
     0
100
AcDbPoint
 10
747.4644615768242
 20
1131.605170845012
 30
0.0
  0
ENDBLK
  5
6E56
330
6E4B
100
AcDbEntity
  8
0
100
AcDbBlockEnd
  0
BLOCK
  5
6EAA
330
6EA0
100
AcDbEntity
  8
0
100
AcDbBlockBegin
  2
*D8
 70
     1
 10
0.0
 20
0.0
 30
0.0
  3
*D8
  1

  0
LINE
  5
7EC4
330
6EA0
100
AcDbEntity
  8
AM_5
100
AcDbLine
 10
561.4644615768241
 20
952.318100050518
 30
0.0
 11
561.4644615768241
 21
911.25054866097
 31
0.0
  0
LINE
  5
7EC5
330
6EA0
100
AcDbEntity
  8
AM_5
100
AcDbLine
 10
841.4644615768242
 20
945.8181000505181
 30
0.0
 11
841.4644615768242
 21
911.25054866097
 31
0.0
  0
LINE
  5
7EC6
330
6EA0
100
AcDbEntity
  8
AM_5
100
AcDbLine
 10
565.9644615768241
 20
913.5005486609699
 30
0.0
 11
836.9644615768242
 21
913.5005486609699
 31
0.0
  0
SOLID
  5
7EC7
330
6EA0
100
AcDbEntity
  8
AM_5
100
AcDbTrace
 10
565.9644615768241
 20
914.2505486609699
 30
0.0
 11
565.9644615768241
 21
912.7505486609701
 31
0.0
 12
561.4644615768241
 22
913.5005486609699
 32
0.0
 13
561.4644615768241
 23
913.5005486609699
 33
0.0
  0
SOLID
  5
7EC8
330
6EA0
100
AcDbEntity
  8
AM_5
100
AcDbTrace
 10
836.9644615768242
 20
914.2505486609699
 30
0.0
 11
836.9644615768242
 21
912.7505486609701
 31
0.0
 12
841.4644615768242
 22
913.5005486609699
 32
0.0
 13
841.4644615768242
 23
913.5005486609699
 33
0.0
  0
MTEXT
  5
7EC9
330
6EA0
100
AcDbEntity
  8
AM_5
100
AcDbMText
 10
701.4644615768242
 20
917.2509915743559
 30
0.0
 40
4.5
 41
0.0
 71
     5
 72
     1
  1
\A2;230+stroke
 73
     1
 44
1.0
1001
ACAD
1000
MTEXTBEGIN
1070
    73
1070
     1
1070
    44
1040
1.0
1070
    74
1070
     0
1000
MTEXTEND
  0
POINT
  5
7ECA
330
6EA0
100
AcDbEntity
  8
Defpoints
 62
     0
100
AcDbPoint
 10
561.4644615768241
 20
953.8181000505181
 30
0.0
  0
POINT
  5
7ECB
330
6EA0
100
AcDbEntity
  8
Defpoints
 62
     0
100
AcDbPoint
 10
841.4644615768242
 20
947.318100050518
 30
0.0
  0
POINT
  5
7ECC
330
6EA0
100
AcDbEntity
  8
Defpoints
 62
     0
100
AcDbPoint
 10
841.4644615768242
 20
913.5005486609699
 30
0.0
  0
ENDBLK
  5
6EAB
330
6EA0
100
AcDbEntity
  8
0
100
AcDbBlockEnd
  0
BLOCK
  5
6EB6
330
6EAC
100
AcDbEntity
  8
0
100
AcDbBlockBegin
  2
*D9
 70
     1
 10
0.0
 20
0.0
 30
0.0
  3
*D9
  1

  0
LINE
  5
7EBB
330
6EAC
100
AcDbEntity
  8
AM_5
100
AcDbLine
 10
821.4644615768241
 20
945.8181000505181
 30
0.0
 11
821.4644615768241
 21
923.2505486609699
 31
0.0
  0
LINE
  5
7EBC
330
6EAC
100
AcDbEntity
  8
AM_5
100
AcDbLine
 10
841.4644615768242
 20
945.8181000505181
 30
0.0
 11
841.4644615768242
 21
923.2505486609699
 31
0.0
  0
LINE
  5
7EBD
330
6EAC
100
AcDbEntity
  8
AM_5
100
AcDbLine
 10
825.9644615768241
 20
925.50054866097
 30
0.0
 11
836.9644615768242
 21
925.50054866097
 31
0.0
  0
SOLID
  5
7EBE
330
6EAC
100
AcDbEntity
  8
AM_5
100
AcDbTrace
 10
825.9644615768241
 20
926.25054866097
 30
0.0
 11
825.9644615768241
 21
924.75054866097
 31
0.0
 12
821.4644615768241
 22
925.50054866097
 32
0.0
 13
821.4644615768241
 23
925.50054866097
 33
0.0
  0
SOLID
  5
7EBF
330
6EAC
100
AcDbEntity
  8
AM_5
100
AcDbTrace
 10
836.9644615768242
 20
926.25054866097
 30
0.0
 11
836.9644615768242
 21
924.75054866097
 31
0.0
 12
841.4644615768242
 22
925.50054866097
 32
0.0
 13
841.4644615768242
 23
925.50054866097
 33
0.0
  0
MTEXT
  5
7EC0
330
6EAC
100
AcDbEntity
  8
AM_5
100
AcDbMText
 10
831.4644615768241
 20
929.250991574356
 30
0.0
 40
4.5
 41
0.0
 71
     5
 72
     1
  1
\A2;20
 73
     1
 44
1.0
1001
ACAD
1000
MTEXTBEGIN
1070
    73
1070
     1
1070
    44
1040
1.0
1070
    74
1070
     0
1000
MTEXTEND
  0
POINT
  5
7EC1
330
6EAC
100
AcDbEntity
  8
Defpoints
 62
     0
100
AcDbPoint
 10
821.4644615768241
 20
947.318100050518
 30
0.0
  0
POINT
  5
7EC2
330
6EAC
100
AcDbEntity
  8
Defpoints
 62
     0
100
AcDbPoint
 10
841.4644615768242
 20
947.318100050518
 30
0.0
  0
POINT
  5
7EC3
330
6EAC
100
AcDbEntity
  8
Defpoints
 62
     0
100
AcDbPoint
 10
841.4644615768242
 20
925.50054866097
 30
0.0
  0
ENDBLK
  5
6EB7
330
6EAC
100
AcDbEntity
  8
0
100
AcDbBlockEnd
  0
BLOCK
  5
6EC2
330
6EB8
100
AcDbEntity
  8
0
100
AcDbBlockBegin
  2
*D10
 70
     1
 10
0.0
 20
0.0
 30
0.0
  3
*D10
  1

  0
LINE
  5
7EB2
330
6EB8
100
AcDbEntity
  8
AM_5
100
AcDbLine
 10
651.4644615768242
 20
943.0681000505181
 30
0.0
 11
651.4644615768242
 21
923.2505486609699
 31
0.0
  0
LINE
  5
7EB3
330
6EB8
100
AcDbEntity
  8
AM_5
100
AcDbLine
 10
747.4644615768242
 20
979.8181000505183
 30
0.0
 11
747.4644615768242
 21
923.2505486609699
 31
0.0
  0
LINE
  5
7EB4
330
6EB8
100
AcDbEntity
  8
AM_5
100
AcDbLine
 10
655.9644615768242
 20
925.50054866097
 30
0.0
 11
742.9644615768242
 21
925.50054866097
 31
0.0
  0
SOLID
  5
7EB5
330
6EB8
100
AcDbEntity
  8
AM_5
100
AcDbTrace
 10
655.9644615768242
 20
926.25054866097
 30
0.0
 11
655.9644615768242
 21
924.75054866097
 31
0.0
 12
651.4644615768242
 22
925.50054866097
 32
0.0
 13
651.4644615768242
 23
925.50054866097
 33
0.0
  0
SOLID
  5
7EB6
330
6EB8
100
AcDbEntity
  8
AM_5
100
AcDbTrace
 10
742.9644615768242
 20
926.25054866097
 30
0.0
 11
742.9644615768242
 21
924.75054866097
 31
0.0
 12
747.4644615768242
 22
925.50054866097
 32
0.0
 13
747.4644615768242
 23
925.50054866097
 33
0.0
  0
MTEXT
  5
7EB7
330
6EB8
100
AcDbEntity
  8
AM_5
100
AcDbMText
 10
699.4644615768241
 20
929.25054866097
 30
0.0
 40
4.5
 41
0.0
 71
     5
 72
     1
  1
\A2;96
 73
     1
 44
1.0
1001
ACAD
1000
MTEXTBEGIN
1070
    73
1070
     1
1070
    44
1040
1.0
1070
    74
1070
     0
1000
MTEXTEND
  0
POINT
  5
7EB8
330
6EB8
100
AcDbEntity
  8
Defpoints
 62
     0
100
AcDbPoint
 10
651.4644615768242
 20
944.568100050518
 30
0.0
  0
POINT
  5
7EB9
330
6EB8
100
AcDbEntity
  8
Defpoints
 62
     0
100
AcDbPoint
 10
747.4644615768242
 20
981.3181000505183
 30
0.0
  0
POINT
  5
7EBA
330
6EB8
100
AcDbEntity
  8
Defpoints
 62
     0
100
AcDbPoint
 10
747.4644615768242
 20
925.50054866097
 30
0.0
  0
ENDBLK
  5
6EC3
330
6EB8
100
AcDbEntity
  8
0
100
AcDbBlockEnd
  0
BLOCK
  5
6ECE
330
6EC4
100
AcDbEntity
  8
0
100
AcDbBlockBegin
  2
*D11
 70
     1
 10
0.0
 20
0.0
 30
0.0
  3
*D11
  1

  0
LINE
  5
7EA9
330
6EC4
100
AcDbEntity
  8
AM_5
100
AcDbLine
 10
747.4644615768242
 20
979.8181000505183
 30
0.0
 11
747.4644615768242
 21
923.2505486609699
 31
0.0
  0
LINE
  5
7EAA
330
6EC4
100
AcDbEntity
  8
AM_5
100
AcDbLine
 10
766.4644615768241
 20
940.8181000505178
 30
0.0
 11
766.4644615768241
 21
923.2505486609699
 31
0.0
  0
LINE
  5
7EAB
330
6EC4
100
AcDbEntity
  8
AM_5
100
AcDbLine
 10
751.9644615768242
 20
925.50054866097
 30
0.0
 11
761.9644615768241
 21
925.50054866097
 31
0.0
  0
SOLID
  5
7EAC
330
6EC4
100
AcDbEntity
  8
AM_5
100
AcDbTrace
 10
751.9644615768242
 20
926.25054866097
 30
0.0
 11
751.9644615768242
 21
924.75054866097
 31
0.0
 12
747.4644615768242
 22
925.50054866097
 32
0.0
 13
747.4644615768242
 23
925.50054866097
 33
0.0
  0
SOLID
  5
7EAD
330
6EC4
100
AcDbEntity
  8
AM_5
100
AcDbTrace
 10
761.9644615768241
 20
926.25054866097
 30
0.0
 11
761.9644615768241
 21
924.75054866097
 31
0.0
 12
766.4644615768241
 22
925.50054866097
 32
0.0
 13
766.4644615768241
 23
925.50054866097
 33
0.0
  0
MTEXT
  5
7EAE
330
6EC4
100
AcDbEntity
  8
AM_5
100
AcDbMText
 10
756.9644615768241
 20
929.25054866097
 30
0.0
 40
4.5
 41
0.0
 71
     5
 72
     1
  1
\A2;19
 73
     1
 44
1.0
1001
ACAD
1000
MTEXTBEGIN
1070
    73
1070
     1
1070
    44
1040
1.0
1070
    74
1070
     0
1000
MTEXTEND
  0
POINT
  5
7EAF
330
6EC4
100
AcDbEntity
  8
Defpoints
 62
     0
100
AcDbPoint
 10
747.4644615768242
 20
981.3181000505183
 30
0.0
  0
POINT
  5
7EB0
330
6EC4
100
AcDbEntity
  8
Defpoints
 62
     0
100
AcDbPoint
 10
766.4644615768241
 20
942.3181000505179
 30
0.0
  0
POINT
  5
7EB1
330
6EC4
100
AcDbEntity
  8
Defpoints
 62
     0
100
AcDbPoint
 10
766.4644615768241
 20
925.50054866097
 30
0.0
  0
ENDBLK
  5
6ECF
330
6EC4
100
AcDbEntity
  8
0
100
AcDbBlockEnd
  0
BLOCK
  5
6EDA
330
6ED0
100
AcDbEntity
  8
0
100
AcDbBlockBegin
  2
*D12
 70
     1
 10
0.0
 20
0.0
 30
0.0
  3
*D12
  1

  0
LINE
  5
7EA0
330
6ED0
100
AcDbEntity
  8
AM_5
100
AcDbLine
 10
559.9644615768242
 20
972.818100050518
 30
0.0
 11
549.1925547930313
 21
972.818100050518
 31
0.0
  0
LINE
  5
7EA1
330
6ED0
100
AcDbEntity
  8
AM_5
100
AcDbLine
 10
559.9644615768242
 20
952.8181000505181
 30
0.0
 11
549.1925547930313
 21
952.8181000505181
 31
0.0
  0
LINE
  5
7EA2
330
6ED0
100
AcDbEntity
  8
AM_5
100
AcDbLine
 10
551.4425547930313
 20
968.3181000505181
 30
0.0
 11
551.4425547930313
 21
957.3181000505181
 31
0.0
  0
SOLID
  5
7EA3
330
6ED0
100
AcDbEntity
  8
AM_5
100
AcDbTrace
 10
550.6925547930314
 20
968.3181000505181
 30
0.0
 11
552.1925547930313
 21
968.3181000505181
 31
0.0
 12
551.4425547930313
 22
972.818100050518
 32
0.0
 13
551.4425547930313
 23
972.818100050518
 33
0.0
  0
SOLID
  5
7EA4
330
6ED0
100
AcDbEntity
  8
AM_5
100
AcDbTrace
 10
550.6925547930314
 20
957.3181000505181
 30
0.0
 11
552.1925547930313
 21
957.3181000505181
 31
0.0
 12
551.4425547930313
 22
952.8181000505181
 32
0.0
 13
551.4425547930313
 23
952.8181000505181
 33
0.0
  0
MTEXT
  5
7EA5
330
6ED0
100
AcDbEntity
  8
AM_5
100
AcDbMText
 10
547.6921118796453
 20
962.8181000505181
 30
0.0
 40
4.5
 41
0.0
 71
     5
 72
     1
  1
\A2;%%c20
 11
0.0000000000000001
 21
1.0
 31
0.0
 73
     1
 44
1.0
1001
ACAD
1000
MTEXTBEGIN
1070
    73
1070
     1
1070
    44
1040
1.0
1070
    74
1070
     0
1000
MTEXTEND
  0
POINT
  5
7EA6
330
6ED0
100
AcDbEntity
  8
Defpoints
 62
     0
100
AcDbPoint
 10
561.4644615768241
 20
972.818100050518
 30
0.0
  0
POINT
  5
7EA7
330
6ED0
100
AcDbEntity
  8
Defpoints
 62
     0
100
AcDbPoint
 10
561.4644615768241
 20
952.8181000505181
 30
0.0
  0
POINT
  5
7EA8
330
6ED0
100
AcDbEntity
  8
Defpoints
 62
     0
100
AcDbPoint
 10
551.4425547930313
 20
952.8181000505181
 30
0.0
  0
ENDBLK
  5
6EDB
330
6ED0
100
AcDbEntity
  8
0
100
AcDbBlockEnd
  0
BLOCK
  5
6F53
330
6F49
100
AcDbEntity
  8
0
100
AcDbBlockBegin
  2
*D13
 70
     1
 10
0.0
 20
0.0
 30
0.0
  3
*D13
  1

  0
LINE
  5
7F14
330
6F49
100
AcDbEntity
  8
AM_5
100
AcDbLine
 10
915.4773831449388
 20
954.8181000505181
 30
0.0
 11
915.4773831449388
 21
930.0681000505182
 31
0.0
  0
LINE
  5
7F15
330
6F49
100
AcDbEntity
  8
AM_5
100
AcDbLine
 10
971.9773831449387
 20
954.8181000505183
 30
0.0
 11
971.9773831449387
 21
930.0681000505182
 31
0.0
  0
LINE
  5
7F16
330
6F49
100
AcDbEntity
  8
AM_5
100
AcDbLine
 10
919.9773831449387
 20
932.3181000505183
 30
0.0
 11
967.4773831449387
 21
932.3181000505183
 31
0.0
  0
SOLID
  5
7F17
330
6F49
100
AcDbEntity
  8
AM_5
100
AcDbTrace
 10
919.9773831449387
 20
933.0681000505183
 30
0.0
 11
919.9773831449387
 21
931.5681000505183
 31
0.0
 12
915.4773831449388
 22
932.3181000505183
 32
0.0
 13
915.4773831449388
 23
932.3181000505183
 33
0.0
  0
SOLID
  5
7F18
330
6F49
100
AcDbEntity
  8
AM_5
100
AcDbTrace
 10
967.4773831449387
 20
933.0681000505183
 30
0.0
 11
967.4773831449387
 21
931.5681000505183
 31
0.0
 12
971.9773831449387
 22
932.3181000505183
 32
0.0
 13
971.9773831449387
 23
932.3181000505183
 33
0.0
  0
MTEXT
  5
7F19
330
6F49
100
AcDbEntity
  8
AM_5
100
AcDbMText
 10
943.7273831449388
 20
936.0681000505183
 30
0.0
 40
4.5
 41
0.0
 71
     5
 72
     1
  1
\A2;56.5
 73
     1
 44
1.0
1001
ACAD
1000
MTEXTBEGIN
1070
    73
1070
     1
1070
    44
1040
1.0
1070
    74
1070
     0
1000
MTEXTEND
  0
POINT
  5
7F1A
330
6F49
100
AcDbEntity
  8
Defpoints
 62
     0
100
AcDbPoint
 10
915.4773831449388
 20
956.318100050518
 30
0.0
  0
POINT
  5
7F1B
330
6F49
100
AcDbEntity
  8
Defpoints
 62
     0
100
AcDbPoint
 10
971.9773831449387
 20
956.3181000505183
 30
0.0
  0
POINT
  5
7F1C
330
6F49
100
AcDbEntity
  8
Defpoints
 62
     0
100
AcDbPoint
 10
971.9773831449387
 20
932.3181000505183
 30
0.0
  0
ENDBLK
  5
6F54
330
6F49
100
AcDbEntity
  8
0
100
AcDbBlockEnd
  0
BLOCK
  5
6F5F
330
6F55
100
AcDbEntity
  8
0
100
AcDbBlockBegin
  2
*D14
 70
     1
 10
0.0
 20
0.0
 30
0.0
  3
*D14
  1

  0
LINE
  5
7F1D
330
6F55
100
AcDbEntity
  8
AM_5
100
AcDbLine
 10
906.2273831449388
 20
945.8181000505181
 30
0.0
 11
906.2273831449388
 21
918.0681000505183
 31
0.0
  0
LINE
  5
7F1E
330
6F55
100
AcDbEntity
  8
AM_5
100
AcDbLine
 10
981.2273831449388
 20
945.8181000505183
 30
0.0
 11
981.2273831449388
 21
918.0681000505183
 31
0.0
  0
LINE
  5
7F1F
330
6F55
100
AcDbEntity
  8
AM_5
100
AcDbLine
 10
910.7273831449388
 20
920.3181000505182
 30
0.0
 11
976.7273831449388
 21
920.3181000505182
 31
0.0
  0
SOLID
  5
7F20
330
6F55
100
AcDbEntity
  8
AM_5
100
AcDbTrace
 10
910.7273831449388
 20
921.0681000505182
 30
0.0
 11
910.7273831449388
 21
919.5681000505183
 31
0.0
 12
906.2273831449388
 22
920.3181000505182
 32
0.0
 13
906.2273831449388
 23
920.3181000505182
 33
0.0
  0
SOLID
  5
7F21
330
6F55
100
AcDbEntity
  8
AM_5
100
AcDbTrace
 10
976.7273831449388
 20
921.0681000505182
 30
0.0
 11
976.7273831449388
 21
919.5681000505183
 31
0.0
 12
981.2273831449388
 22
920.3181000505182
 32
0.0
 13
981.2273831449388
 23
920.3181000505182
 33
0.0
  0
MTEXT
  5
7F22
330
6F55
100
AcDbEntity
  8
AM_5
100
AcDbMText
 10
943.7273831449388
 20
924.0681000505183
 30
0.0
 40
4.5
 41
0.0
 71
     5
 72
     1
  1
\A2;75
 73
     1
 44
1.0
1001
ACAD
1000
MTEXTBEGIN
1070
    73
1070
     1
1070
    44
1040
1.0
1070
    74
1070
     0
1000
MTEXTEND
  0
POINT
  5
7F23
330
6F55
100
AcDbEntity
  8
Defpoints
 62
     0
100
AcDbPoint
 10
906.2273831449388
 20
947.318100050518
 30
0.0
  0
POINT
  5
7F24
330
6F55
100
AcDbEntity
  8
Defpoints
 62
     0
100
AcDbPoint
 10
981.2273831449388
 20
947.3181000505183
 30
0.0
  0
POINT
  5
7F25
330
6F55
100
AcDbEntity
  8
Defpoints
 62
     0
100
AcDbPoint
 10
981.2273831449388
 20
920.3181000505182
 30
0.0
  0
ENDBLK
  5
6F60
330
6F55
100
AcDbEntity
  8
0
100
AcDbBlockEnd
  0
BLOCK
  5
6F6B
330
6F61
100
AcDbEntity
  8
0
100
AcDbBlockBegin
  2
*D15
 70
     1
 10
0.0
 20
0.0
 30
0.0
  3
*D15
  1

  0
LINE
  5
7F26
330
6F61
100
AcDbEntity
  8
AM_5
100
AcDbLine
 10
903.7273831449386
 20
942.8181000505183
 30
0.0
 11
903.7273831449386
 21
906.0681000505182
 31
0.0
  0
LINE
  5
7F27
330
6F61
100
AcDbEntity
  8
AM_5
100
AcDbLine
 10
983.7273831449389
 20
942.8181000505183
 30
0.0
 11
983.7273831449389
 21
906.0681000505182
 31
0.0
  0
LINE
  5
7F28
330
6F61
100
AcDbEntity
  8
AM_5
100
AcDbLine
 10
908.2273831449386
 20
908.3181000505183
 30
0.0
 11
979.2273831449389
 21
908.3181000505183
 31
0.0
  0
SOLID
  5
7F29
330
6F61
100
AcDbEntity
  8
AM_5
100
AcDbTrace
 10
908.2273831449386
 20
909.0681000505183
 30
0.0
 11
908.2273831449386
 21
907.5681000505182
 31
0.0
 12
903.7273831449386
 22
908.3181000505183
 32
0.0
 13
903.7273831449386
 23
908.3181000505183
 33
0.0
  0
SOLID
  5
7F2A
330
6F61
100
AcDbEntity
  8
AM_5
100
AcDbTrace
 10
979.2273831449389
 20
909.0681000505183
 30
0.0
 11
979.2273831449389
 21
907.5681000505182
 31
0.0
 12
983.7273831449389
 22
908.3181000505183
 32
0.0
 13
983.7273831449389
 23
908.3181000505183
 33
0.0
  0
MTEXT
  5
7F2B
330
6F61
100
AcDbEntity
  8
AM_5
100
AcDbMText
 10
943.7273831449388
 20
912.0681000505182
 30
0.0
 40
4.5
 41
0.0
 71
     5
 72
     1
  1
\A2;80
 73
     1
 44
1.0
1001
ACAD
1000
MTEXTBEGIN
1070
    73
1070
     1
1070
    44
1040
1.0
1070
    74
1070
     0
1000
MTEXTEND
  0
POINT
  5
7F2C
330
6F61
100
AcDbEntity
  8
Defpoints
 62
     0
100
AcDbPoint
 10
903.7273831449386
 20
944.3181000505182
 30
0.0
  0
POINT
  5
7F2D
330
6F61
100
AcDbEntity
  8
Defpoints
 62
     0
100
AcDbPoint
 10
983.7273831449389
 20
944.3181000505182
 30
0.0
  0
POINT
  5
7F2E
330
6F61
100
AcDbEntity
  8
Defpoints
 62
     0
100
AcDbPoint
 10
983.7273831449389
 20
908.3181000505183
 30
0.0
  0
ENDBLK
  5
6F6C
330
6F61
100
AcDbEntity
  8
0
100
AcDbBlockEnd
  0
BLOCK
  5
6F77
330
6F6D
100
AcDbEntity
  8
0
100
AcDbBlockBegin
  2
*D16
 70
     1
 10
0.0
 20
0.0
 30
0.0
  3
*D16
  1

  0
LINE
  5
7F2F
330
6F6D
100
AcDbEntity
  8
AM_5
100
AcDbLine
 10
979.4773831449388
 20
994.3181000505182
 30
0.0
 11
1020.909846107807
 21
994.3181000505182
 31
0.0
  0
LINE
  5
7F30
330
6F6D
100
AcDbEntity
  8
AM_5
100
AcDbLine
 10
979.4773831449388
 20
1050.818100050518
 30
0.0
 11
1020.909846107807
 21
1050.818100050518
 31
0.0
  0
LINE
  5
7F31
330
6F6D
100
AcDbEntity
  8
AM_5
100
AcDbLine
 10
1018.659846107807
 20
998.8181000505182
 30
0.0
 11
1018.659846107807
 21
1046.318100050518
 31
0.0
  0
SOLID
  5
7F32
330
6F6D
100
AcDbEntity
  8
AM_5
100
AcDbTrace
 10
1017.909846107807
 20
998.8181000505182
 30
0.0
 11
1019.409846107807
 21
998.8181000505182
 31
0.0
 12
1018.659846107807
 22
994.3181000505182
 32
0.0
 13
1018.659846107807
 23
994.3181000505182
 33
0.0
  0
SOLID
  5
7F33
330
6F6D
100
AcDbEntity
  8
AM_5
100
AcDbTrace
 10
1017.909846107807
 20
1046.318100050518
 30
0.0
 11
1019.409846107807
 21
1046.318100050518
 31
0.0
 12
1018.659846107807
 22
1050.818100050518
 32
0.0
 13
1018.659846107807
 23
1050.818100050518
 33
0.0
  0
MTEXT
  5
7F34
330
6F6D
100
AcDbEntity
  8
AM_5
100
AcDbMText
 10
1014.909846107807
 20
1022.568100050518
 30
0.0
 40
4.5
 41
0.0
 71
     5
 72
     1
  1
\A2;56.5
 11
0.0000000000000001
 21
1.0
 31
0.0
 73
     1
 44
1.0
1001
ACAD
1000
MTEXTBEGIN
1070
    73
1070
     1
1070
    44
1040
1.0
1070
    74
1070
     0
1000
MTEXTEND
  0
POINT
  5
7F35
330
6F6D
100
AcDbEntity
  8
Defpoints
 62
     0
100
AcDbPoint
 10
977.9773831449388
 20
994.3181000505182
 30
0.0
  0
POINT
  5
7F36
330
6F6D
100
AcDbEntity
  8
Defpoints
 62
     0
100
AcDbPoint
 10
977.9773831449388
 20
1050.818100050518
 30
0.0
  0
POINT
  5
7F37
330
6F6D
100
AcDbEntity
  8
Defpoints
 62
     0
100
AcDbPoint
 10
1018.659846107807
 20
1050.818100050518
 30
0.0
  0
ENDBLK
  5
6F78
330
6F6D
100
AcDbEntity
  8
0
100
AcDbBlockEnd
  0
BLOCK
  5
6F83
330
6F79
100
AcDbEntity
  8
0
100
AcDbBlockBegin
  2
*D17
 70
     1
 10
0.0
 20
0.0
 30
0.0
  3
*D17
  1

  0
LINE
  5
7F38
330
6F79
100
AcDbEntity
  8
AM_5
100
AcDbLine
 10
982.4773831449387
 20
969.8181000505183
 30
0.0
 11
1032.909846107807
 21
969.8181000505183
 31
0.0
  0
LINE
  5
7F39
330
6F79
100
AcDbEntity
  8
AM_5
100
AcDbLine
 10
982.4773831449387
 20
1074.818100050518
 30
0.0
 11
1032.909846107807
 21
1074.818100050518
 31
0.0
  0
LINE
  5
7F3A
330
6F79
100
AcDbEntity
  8
AM_5
100
AcDbLine
 10
1030.659846107807
 20
974.3181000505183
 30
0.0
 11
1030.659846107807
 21
1070.318100050518
 31
0.0
  0
SOLID
  5
7F3B
330
6F79
100
AcDbEntity
  8
AM_5
100
AcDbTrace
 10
1029.909846107807
 20
974.3181000505183
 30
0.0
 11
1031.409846107807
 21
974.3181000505183
 31
0.0
 12
1030.659846107807
 22
969.8181000505183
 32
0.0
 13
1030.659846107807
 23
969.8181000505183
 33
0.0
  0
SOLID
  5
7F3C
330
6F79
100
AcDbEntity
  8
AM_5
100
AcDbTrace
 10
1029.909846107807
 20
1070.318100050518
 30
0.0
 11
1031.409846107807
 21
1070.318100050518
 31
0.0
 12
1030.659846107807
 22
1074.818100050518
 32
0.0
 13
1030.659846107807
 23
1074.818100050518
 33
0.0
  0
MTEXT
  5
7F3D
330
6F79
100
AcDbEntity
  8
AM_5
100
AcDbMText
 10
1026.909846107807
 20
1022.318100050518
 30
0.0
 40
4.5
 41
0.0
 71
     5
 72
     1
  1
\A2;105
 11
0.0000000000000001
 21
1.0
 31
0.0
 73
     1
 44
1.0
1001
ACAD
1000
MTEXTBEGIN
1070
    73
1070
     1
1070
    44
1040
1.0
1070
    74
1070
     0
1000
MTEXTEND
  0
POINT
  5
7F3E
330
6F79
100
AcDbEntity
  8
Defpoints
 62
     0
100
AcDbPoint
 10
980.9773831449389
 20
969.8181000505183
 30
0.0
  0
POINT
  5
7F3F
330
6F79
100
AcDbEntity
  8
Defpoints
 62
     0
100
AcDbPoint
 10
980.9773831449389
 20
1074.818100050518
 30
0.0
  0
POINT
  5
7F40
330
6F79
100
AcDbEntity
  8
Defpoints
 62
     0
100
AcDbPoint
 10
1030.659846107807
 20
1074.818100050518
 30
0.0
  0
ENDBLK
  5
6F84
330
6F79
100
AcDbEntity
  8
0
100
AcDbBlockEnd
  0
BLOCK
  5
6F8F
330
6F85
100
AcDbEntity
  8
0
100
AcDbBlockBegin
  2
*D18
 70
     1
 10
0.0
 20
0.0
 30
0.0
  3
*D18
  1

  0
LINE
  5
7F41
330
6F85
100
AcDbEntity
  8
AM_5
100
AcDbLine
 10
985.2273831449387
 20
944.3181000505182
 30
0.0
 11
1044.909846107807
 21
944.3181000505182
 31
0.0
  0
LINE
  5
7F42
330
6F85
100
AcDbEntity
  8
AM_5
100
AcDbLine
 10
985.2273831449387
 20
1100.318100050518
 30
0.0
 11
1044.909846107807
 21
1100.318100050518
 31
0.0
  0
LINE
  5
7F43
330
6F85
100
AcDbEntity
  8
AM_5
100
AcDbLine
 10
1042.659846107807
 20
948.8181000505182
 30
0.0
 11
1042.659846107807
 21
1095.818100050518
 31
0.0
  0
SOLID
  5
7F44
330
6F85
100
AcDbEntity
  8
AM_5
100
AcDbTrace
 10
1041.909846107807
 20
948.8181000505182
 30
0.0
 11
1043.409846107807
 21
948.8181000505182
 31
0.0
 12
1042.659846107807
 22
944.3181000505182
 32
0.0
 13
1042.659846107807
 23
944.3181000505182
 33
0.0
  0
SOLID
  5
7F45
330
6F85
100
AcDbEntity
  8
AM_5
100
AcDbTrace
 10
1041.909846107807
 20
1095.818100050518
 30
0.0
 11
1043.409846107807
 21
1095.818100050518
 31
0.0
 12
1042.659846107807
 22
1100.318100050518
 32
0.0
 13
1042.659846107807
 23
1100.318100050518
 33
0.0
  0
MTEXT
  5
7F46
330
6F85
100
AcDbEntity
  8
AM_5
100
AcDbMText
 10
1038.909846107807
 20
1022.318100050518
 30
0.0
 40
4.5
 41
0.0
 71
     5
 72
     1
  1
\A2;156
 11
0.0000000000000001
 21
1.0
 31
0.0
 73
     1
 44
1.0
1001
ACAD
1000
MTEXTBEGIN
1070
    73
1070
     1
1070
    44
1040
1.0
1070
    74
1070
     0
1000
MTEXTEND
  0
POINT
  5
7F47
330
6F85
100
AcDbEntity
  8
Defpoints
 62
     0
100
AcDbPoint
 10
983.7273831449389
 20
944.3181000505182
 30
0.0
  0
POINT
  5
7F48
330
6F85
100
AcDbEntity
  8
Defpoints
 62
     0
100
AcDbPoint
 10
983.7273831449389
 20
1100.318100050518
 30
0.0
  0
POINT
  5
7F49
330
6F85
100
AcDbEntity
  8
Defpoints
 62
     0
100
AcDbPoint
 10
1042.659846107807
 20
1100.318100050518
 30
0.0
  0
ENDBLK
  5
6F90
330
6F85
100
AcDbEntity
  8
0
100
AcDbBlockEnd
  0
BLOCK
  5
6F9B
330
6F91
100
AcDbEntity
  8
0
100
AcDbBlockBegin
  2
*D19
 70
     1
 10
0.0
 20
0.0
 30
0.0
  3
*D19
  1

  0
LINE
  5
7F4A
330
6F91
100
AcDbEntity
  8
AM_5
100
AcDbLine
 10
978.4773831449388
 20
1036.318100050518
 30
0.0
 11
1008.909846107807
 21
1036.318100050518
 31
0.0
  0
LINE
  5
7F4B
330
6F91
100
AcDbEntity
  8
AM_5
100
AcDbLine
 10
978.4773831449388
 20
1008.318100050518
 30
0.0
 11
1008.909846107807
 21
1008.318100050518
 31
0.0
  0
LINE
  5
7F4C
330
6F91
100
AcDbEntity
  8
AM_5
100
AcDbLine
 10
1006.659846107807
 20
1031.818100050518
 30
0.0
 11
1006.659846107807
 21
1012.818100050518
 31
0.0
  0
SOLID
  5
7F4D
330
6F91
100
AcDbEntity
  8
AM_5
100
AcDbTrace
 10
1005.909846107807
 20
1031.818100050518
 30
0.0
 11
1007.409846107807
 21
1031.818100050518
 31
0.0
 12
1006.659846107807
 22
1036.318100050518
 32
0.0
 13
1006.659846107807
 23
1036.318100050518
 33
0.0
  0
SOLID
  5
7F4E
330
6F91
100
AcDbEntity
  8
AM_5
100
AcDbTrace
 10
1005.909846107807
 20
1012.818100050518
 30
0.0
 11
1007.409846107807
 21
1012.818100050518
 31
0.0
 12
1006.659846107807
 22
1008.318100050518
 32
0.0
 13
1006.659846107807
 23
1008.318100050518
 33
0.0
  0
MTEXT
  5
7F4F
330
6F91
100
AcDbEntity
  8
AM_5
100
AcDbMText
 10
1002.909403194421
 20
1022.318100050518
 30
0.0
 40
4.5
 41
0.0
 71
     5
 72
     1
  1
\A2;28
 11
0.0000000000000001
 21
1.0
 31
0.0
 73
     1
 44
1.0
1001
ACAD
1000
MTEXTBEGIN
1070
    73
1070
     1
1070
    44
1040
1.0
1070
    74
1070
     0
1000
MTEXTEND
  0
POINT
  5
7F50
330
6F91
100
AcDbEntity
  8
Defpoints
 62
     0
100
AcDbPoint
 10
976.9773831449388
 20
1036.318100050518
 30
0.0
  0
POINT
  5
7F51
330
6F91
100
AcDbEntity
  8
Defpoints
 62
     0
100
AcDbPoint
 10
976.9773831449388
 20
1008.318100050518
 30
0.0
  0
POINT
  5
7F52
330
6F91
100
AcDbEntity
  8
Defpoints
 62
     0
100
AcDbPoint
 10
1006.659846107807
 20
1008.318100050518
 30
0.0
  0
ENDBLK
  5
6F9C
330
6F91
100
AcDbEntity
  8
0
100
AcDbBlockEnd
  0
BLOCK
  5
7A5E
330
7A54
100
AcDbEntity
  8
0
100
AcDbBlockBegin
  2
*D20
 70
     1
 10
0.0
 20
0.0
 30
0.0
  3
*D20
  1

  0
LINE
  5
7E58
330
7A54
100
AcDbEntity
  8
AM_5
100
AcDbLine
 10
1208.699955172218
 20
1082.509981158947
 30
0.0
 11
1129.949955172218
 21
1082.509981158947
 31
0.0
  0
LINE
  5
7E59
330
7A54
100
AcDbEntity
  8
AM_5
100
AcDbLine
 10
1208.699955172218
 20
963.5099811589475
 30
0.0
 11
1129.949955172218
 21
963.5099811589475
 31
0.0
  0
LINE
  5
7E5A
330
7A54
100
AcDbEntity
  8
AM_5
100
AcDbLine
 10
1132.199955172218
 20
1078.009981158947
 30
0.0
 11
1132.199955172218
 21
968.0099811589474
 31
0.0
  0
SOLID
  5
7E5B
330
7A54
100
AcDbEntity
  8
AM_5
100
AcDbTrace
 10
1131.449955172218
 20
1078.009981158947
 30
0.0
 11
1132.949955172218
 21
1078.009981158947
 31
0.0
 12
1132.199955172218
 22
1082.509981158947
 32
0.0
 13
1132.199955172218
 23
1082.509981158947
 33
0.0
  0
SOLID
  5
7E5C
330
7A54
100
AcDbEntity
  8
AM_5
100
AcDbTrace
 10
1131.449955172218
 20
968.0099811589474
 30
0.0
 11
1132.949955172218
 21
968.0099811589474
 31
0.0
 12
1132.199955172218
 22
963.5099811589475
 32
0.0
 13
1132.199955172218
 23
963.5099811589475
 33
0.0
  0
MTEXT
  5
7E5D
330
7A54
100
AcDbEntity
  8
AM_5
100
AcDbMText
 10
1128.449955172218
 20
1023.009981158947
 30
0.0
 40
4.5
 41
0.0
 71
     5
 72
     1
  1
\A2;119
 11
0.0000000000000001
 21
1.0
 31
0.0
 73
     1
 44
1.0
1001
ACAD
1000
MTEXTBEGIN
1070
    73
1070
     1
1070
    44
1040
1.0
1070
    74
1070
     0
1000
MTEXTEND
  0
POINT
  5
7E5E
330
7A54
100
AcDbEntity
  8
Defpoints
 62
     0
100
AcDbPoint
 10
1210.199955172218
 20
1082.509981158947
 30
0.0
  0
POINT
  5
7E5F
330
7A54
100
AcDbEntity
  8
Defpoints
 62
     0
100
AcDbPoint
 10
1210.199955172218
 20
963.5099811589475
 30
0.0
  0
POINT
  5
7E60
330
7A54
100
AcDbEntity
  8
Defpoints
 62
     0
100
AcDbPoint
 10
1132.199955172218
 20
963.5099811589475
 30
0.0
  0
ENDBLK
  5
7A5F
330
7A54
100
AcDbEntity
  8
0
100
AcDbBlockEnd
  0
BLOCK
  5
7A6A
330
7A60
100
AcDbEntity
  8
0
100
AcDbBlockBegin
  2
*D21
 70
     1
 10
0.0
 20
0.0
 30
0.0
  3
*D21
  1

  0
LINE
  5
7E4F
330
7A60
100
AcDbEntity
  8
AM_5
100
AcDbLine
 10
1144.699955172218
 20
1098.009981158947
 30
0.0
 11
1117.949955172218
 21
1098.009981158947
 31
0.0
  0
LINE
  5
7E50
330
7A60
100
AcDbEntity
  8
AM_5
100
AcDbLine
 10
1144.699955172218
 20
948.0099811589475
 30
0.0
 11
1117.949955172218
 21
948.0099811589475
 31
0.0
  0
LINE
  5
7E51
330
7A60
100
AcDbEntity
  8
AM_5
100
AcDbLine
 10
1120.199955172218
 20
1093.509981158947
 30
0.0
 11
1120.199955172218
 21
952.5099811589475
 31
0.0
  0
SOLID
  5
7E52
330
7A60
100
AcDbEntity
  8
AM_5
100
AcDbTrace
 10
1119.449955172218
 20
1093.509981158947
 30
0.0
 11
1120.949955172218
 21
1093.509981158947
 31
0.0
 12
1120.199955172218
 22
1098.009981158947
 32
0.0
 13
1120.199955172218
 23
1098.009981158947
 33
0.0
  0
SOLID
  5
7E53
330
7A60
100
AcDbEntity
  8
AM_5
100
AcDbTrace
 10
1119.449955172218
 20
952.5099811589475
 30
0.0
 11
1120.949955172218
 21
952.5099811589475
 31
0.0
 12
1120.199955172218
 22
948.0099811589475
 32
0.0
 13
1120.199955172218
 23
948.0099811589475
 33
0.0
  0
MTEXT
  5
7E54
330
7A60
100
AcDbEntity
  8
AM_5
100
AcDbMText
 10
1116.449955172218
 20
1023.009981158947
 30
0.0
 40
4.5
 41
0.0
 71
     5
 72
     1
  1
\A2;150
 11
0.0000000000000001
 21
1.0
 31
0.0
 73
     1
 44
1.0
1001
ACAD
1000
MTEXTBEGIN
1070
    73
1070
     1
1070
    44
1040
1.0
1070
    74
1070
     0
1000
MTEXTEND
  0
POINT
  5
7E55
330
7A60
100
AcDbEntity
  8
Defpoints
 62
     0
100
AcDbPoint
 10
1146.199955172218
 20
1098.009981158947
 30
0.0
  0
POINT
  5
7E56
330
7A60
100
AcDbEntity
  8
Defpoints
 62
     0
100
AcDbPoint
 10
1146.199955172218
 20
948.0099811589475
 30
0.0
  0
POINT
  5
7E57
330
7A60
100
AcDbEntity
  8
Defpoints
 62
     0
100
AcDbPoint
 10
1120.199955172218
 20
948.0099811589475
 30
0.0
  0
ENDBLK
  5
7A6B
330
7A60
100
AcDbEntity
  8
0
100
AcDbBlockEnd
  0
BLOCK
  5
7A76
330
7A6C
100
AcDbEntity
  8
0
100
AcDbBlockBegin
  2
*D22
 70
     1
 10
0.0
 20
0.0
 30
0.0
  3
*D22
  1

  0
LINE
  5
7E46
330
7A6C
100
AcDbEntity
  8
AM_5
100
AcDbLine
 10
1144.199955172218
 20
948.5099811589476
 30
0.0
 11
1144.199955172218
 21
921.7599811589472
 31
0.0
  0
LINE
  5
7E47
330
7A6C
100
AcDbEntity
  8
AM_5
100
AcDbLine
 10
1222.199955172218
 20
950.0099811589475
 30
0.0
 11
1222.199955172218
 21
921.7599811589472
 31
0.0
  0
LINE
  5
7E48
330
7A6C
100
AcDbEntity
  8
AM_5
100
AcDbLine
 10
1148.699955172218
 20
924.0099811589473
 30
0.0
 11
1217.699955172218
 21
924.0099811589473
 31
0.0
  0
SOLID
  5
7E49
330
7A6C
100
AcDbEntity
  8
AM_5
100
AcDbTrace
 10
1148.699955172218
 20
924.7599811589473
 30
0.0
 11
1148.699955172218
 21
923.2599811589473
 31
0.0
 12
1144.199955172218
 22
924.0099811589473
 32
0.0
 13
1144.199955172218
 23
924.0099811589473
 33
0.0
  0
SOLID
  5
7E4A
330
7A6C
100
AcDbEntity
  8
AM_5
100
AcDbTrace
 10
1217.699955172218
 20
924.7599811589473
 30
0.0
 11
1217.699955172218
 21
923.2599811589473
 31
0.0
 12
1222.199955172218
 22
924.0099811589473
 32
0.0
 13
1222.199955172218
 23
924.0099811589473
 33
0.0
  0
MTEXT
  5
7E4B
330
7A6C
100
AcDbEntity
  8
AM_5
100
AcDbMText
 10
1183.199955172218
 20
927.7599811589473
 30
0.0
 40
4.5
 41
0.0
 71
     5
 72
     1
  1
\A2;78
 73
     1
 44
1.0
1001
ACAD
1000
MTEXTBEGIN
1070
    73
1070
     1
1070
    44
1040
1.0
1070
    74
1070
     0
1000
MTEXTEND
  0
POINT
  5
7E4C
330
7A6C
100
AcDbEntity
  8
Defpoints
 62
     0
100
AcDbPoint
 10
1144.199955172218
 20
950.0099811589475
 30
0.0
  0
POINT
  5
7E4D
330
7A6C
100
AcDbEntity
  8
Defpoints
 62
     0
100
AcDbPoint
 10
1222.199955172218
 20
951.5099811589475
 30
0.0
  0
POINT
  5
7E4E
330
7A6C
100
AcDbEntity
  8
Defpoints
 62
     0
100
AcDbPoint
 10
1222.199955172218
 20
924.0099811589473
 30
0.0
  0
ENDBLK
  5
7A77
330
7A6C
100
AcDbEntity
  8
0
100
AcDbBlockEnd
  0
BLOCK
  5
7A82
330
7A78
100
AcDbEntity
  8
0
100
AcDbBlockBegin
  2
*D23
 70
     1
 10
0.0
 20
0.0
 30
0.0
  3
*D23
  1

  0
LINE
  5
7E3D
330
7A78
100
AcDbEntity
  8
AM_5
100
AcDbLine
 10
1144.199955172218
 20
948.5099811589476
 30
0.0
 11
1144.199955172218
 21
909.7599811589473
 31
0.0
  0
LINE
  5
7E3E
330
7A78
100
AcDbEntity
  8
AM_5
100
AcDbLine
 10
1259.699955172218
 20
946.5099811589475
 30
0.0
 11
1259.699955172218
 21
909.7599811589473
 31
0.0
  0
LINE
  5
7E3F
330
7A78
100
AcDbEntity
  8
AM_5
100
AcDbLine
 10
1148.699955172218
 20
912.0099811589472
 30
0.0
 11
1255.199955172218
 21
912.0099811589472
 31
0.0
  0
SOLID
  5
7E40
330
7A78
100
AcDbEntity
  8
AM_5
100
AcDbTrace
 10
1148.699955172218
 20
912.7599811589472
 30
0.0
 11
1148.699955172218
 21
911.2599811589474
 31
0.0
 12
1144.199955172218
 22
912.0099811589472
 32
0.0
 13
1144.199955172218
 23
912.0099811589472
 33
0.0
  0
SOLID
  5
7E41
330
7A78
100
AcDbEntity
  8
AM_5
100
AcDbTrace
 10
1255.199955172218
 20
912.7599811589472
 30
0.0
 11
1255.199955172218
 21
911.2599811589474
 31
0.0
 12
1259.699955172218
 22
912.0099811589472
 32
0.0
 13
1259.699955172218
 23
912.0099811589472
 33
0.0
  0
MTEXT
  5
7E42
330
7A78
100
AcDbEntity
  8
AM_5
100
AcDbMText
 10
1201.949955172218
 20
915.7599811589474
 30
0.0
 40
4.5
 41
0.0
 71
     5
 72
     1
  1
\A2;115.5
 73
     1
 44
1.0
1001
ACAD
1000
MTEXTBEGIN
1070
    73
1070
     1
1070
    44
1040
1.0
1070
    74
1070
     0
1000
MTEXTEND
  0
POINT
  5
7E43
330
7A78
100
AcDbEntity
  8
Defpoints
 62
     0
100
AcDbPoint
 10
1144.199955172218
 20
950.0099811589475
 30
0.0
  0
POINT
  5
7E44
330
7A78
100
AcDbEntity
  8
Defpoints
 62
     0
100
AcDbPoint
 10
1259.699955172218
 20
948.0099811589475
 30
0.0
  0
POINT
  5
7E45
330
7A78
100
AcDbEntity
  8
Defpoints
 62
     0
100
AcDbPoint
 10
1259.699955172218
 20
912.0099811589472
 30
0.0
  0
ENDBLK
  5
7A83
330
7A78
100
AcDbEntity
  8
0
100
AcDbBlockEnd
  0
BLOCK
  5
7A8E
330
7A84
100
AcDbEntity
  8
0
100
AcDbBlockBegin
  2
*D24
 70
     1
 10
0.0
 20
0.0
 30
0.0
  3
*D24
  1

  0
LINE
  5
7E34
330
7A84
100
AcDbEntity
  8
AM_5
100
AcDbLine
 10
1144.199955172218
 20
948.5099811589476
 30
0.0
 11
1144.199955172218
 21
933.7599811589473
 31
0.0
  0
LINE
  5
7E35
330
7A84
100
AcDbEntity
  8
AM_5
100
AcDbLine
 10
1182.199955172218
 20
991.5099811589476
 30
0.0
 11
1182.199955172218
 21
933.7599811589473
 31
0.0
  0
LINE
  5
7E36
330
7A84
100
AcDbEntity
  8
AM_5
100
AcDbLine
 10
1148.699955172218
 20
936.0099811589472
 30
0.0
 11
1177.699955172218
 21
936.0099811589472
 31
0.0
  0
SOLID
  5
7E37
330
7A84
100
AcDbEntity
  8
AM_5
100
AcDbTrace
 10
1148.699955172218
 20
936.7599811589473
 30
0.0
 11
1148.699955172218
 21
935.2599811589472
 31
0.0
 12
1144.199955172218
 22
936.0099811589472
 32
0.0
 13
1144.199955172218
 23
936.0099811589472
 33
0.0
  0
SOLID
  5
7E38
330
7A84
100
AcDbEntity
  8
AM_5
100
AcDbTrace
 10
1177.699955172218
 20
936.7599811589473
 30
0.0
 11
1177.699955172218
 21
935.2599811589472
 31
0.0
 12
1182.199955172218
 22
936.0099811589472
 32
0.0
 13
1182.199955172218
 23
936.0099811589472
 33
0.0
  0
MTEXT
  5
7E39
330
7A84
100
AcDbEntity
  8
AM_5
100
AcDbMText
 10
1163.199955172218
 20
939.7599811589472
 30
0.0
 40
4.5
 41
0.0
 71
     5
 72
     1
  1
\A2;38
 73
     1
 44
1.0
1001
ACAD
1000
MTEXTBEGIN
1070
    73
1070
     1
1070
    44
1040
1.0
1070
    74
1070
     0
1000
MTEXTEND
  0
POINT
  5
7E3A
330
7A84
100
AcDbEntity
  8
Defpoints
 62
     0
100
AcDbPoint
 10
1144.199955172218
 20
950.0099811589475
 30
0.0
  0
POINT
  5
7E3B
330
7A84
100
AcDbEntity
  8
Defpoints
 62
     0
100
AcDbPoint
 10
1182.199955172218
 20
993.0099811589474
 30
0.0
  0
POINT
  5
7E3C
330
7A84
100
AcDbEntity
  8
Defpoints
 62
     0
100
AcDbPoint
 10
1182.199955172218
 20
936.0099811589472
 30
0.0
  0
ENDBLK
  5
7A8F
330
7A84
100
AcDbEntity
  8
0
100
AcDbBlockEnd
  0
BLOCK
  5
7B0D
330
7B03
100
AcDbEntity
  8
0
100
AcDbBlockBegin
  2
*D25
 70
     1
 10
0.0
 20
0.0
 30
0.0
  3
*D25
  1

  0
LINE
  5
7E2B
330
7B03
100
AcDbEntity
  8
AM_5
100
AcDbLine
 10
1260.699955172218
 20
983.0099811589475
 30
0.0
 11
1273.199955172218
 21
983.0099811589475
 31
0.0
  0
LINE
  5
7E2C
330
7B03
100
AcDbEntity
  8
AM_5
100
AcDbLine
 10
1260.699955172218
 20
1063.009981158947
 30
0.0
 11
1273.199955172218
 21
1063.009981158947
 31
0.0
  0
LINE
  5
7E2D
330
7B03
100
AcDbEntity
  8
AM_5
100
AcDbLine
 10
1271.699955172218
 20
986.0099811589476
 30
0.0
 11
1271.699955172218
 21
1060.009981158947
 31
0.0
  0
SOLID
  5
7E2E
330
7B03
100
AcDbEntity
  8
AM_5
100
AcDbTrace
 10
1271.199955172218
 20
986.0099811589476
 30
0.0
 11
1272.199955172218
 21
986.0099811589476
 31
0.0
 12
1271.699955172218
 22
983.0099811589475
 32
0.0
 13
1271.699955172218
 23
983.0099811589475
 33
0.0
  0
SOLID
  5
7E2F
330
7B03
100
AcDbEntity
  8
AM_5
100
AcDbTrace
 10
1271.199955172218
 20
1060.009981158947
 30
0.0
 11
1272.199955172218
 21
1060.009981158947
 31
0.0
 12
1271.699955172218
 22
1063.009981158947
 32
0.0
 13
1271.699955172218
 23
1063.009981158947
 33
0.0
  0
MTEXT
  5
7E30
330
7B03
100
AcDbEntity
  8
AM_5
100
AcDbMText
 10
1269.199955172218
 20
1023.009981158947
 30
0.0
 40
3.0
 41
0.0
 71
     5
 72
     1
  1
\A2;80
 11
0.0000000000000001
 21
1.0
 31
0.0
 73
     1
 44
1.0
1001
ACAD
1000
MTEXTBEGIN
1070
    73
1070
     1
1070
    44
1040
1.0
1070
    74
1070
     0
1000
MTEXTEND
  0
POINT
  5
7E31
330
7B03
100
AcDbEntity
  8
Defpoints
 62
     0
100
AcDbPoint
 10
1259.699955172218
 20
983.0099811589475
 30
0.0
  0
POINT
  5
7E32
330
7B03
100
AcDbEntity
  8
Defpoints
 62
     0
100
AcDbPoint
 10
1259.699955172218
 20
1063.009981158947
 30
0.0
  0
POINT
  5
7E33
330
7B03
100
AcDbEntity
  8
Defpoints
 62
     0
100
AcDbPoint
 10
1271.699955172218
 20
1063.009981158947
 30
0.0
  0
ENDBLK
  5
7B0E
330
7B03
100
AcDbEntity
  8
0
100
AcDbBlockEnd
  0
BLOCK
  5
7B33
330
7B29
100
AcDbEntity
  8
0
100
AcDbBlockBegin
  2
*D26
 70
     1
 10
0.0
 20
0.0
 30
0.0
  3
*D26
  1

  0
LINE
  5
7E22
330
7B29
100
AcDbEntity
  8
AM_5
100
AcDbLine
 10
1312.285804822274
 20
947.0099811589475
 30
0.0
 11
1312.285804822274
 21
934.5099811589475
 31
0.0
  0
LINE
  5
7E23
330
7B29
100
AcDbEntity
  8
AM_5
100
AcDbLine
 10
1332.285804822274
 20
947.0099811589475
 30
0.0
 11
1332.285804822274
 21
934.5099811589475
 31
0.0
  0
LINE
  5
7E24
330
7B29
100
AcDbEntity
  8
AM_5
100
AcDbLine
 10
1315.285804822275
 20
936.0099811589476
 30
0.0
 11
1329.285804822275
 21
936.0099811589476
 31
0.0
  0
SOLID
  5
7E25
330
7B29
100
AcDbEntity
  8
AM_5
100
AcDbTrace
 10
1315.285804822275
 20
936.5099811589475
 30
0.0
 11
1315.285804822275
 21
935.5099811589475
 31
0.0
 12
1312.285804822274
 22
936.0099811589476
 32
0.0
 13
1312.285804822274
 23
936.0099811589476
 33
0.0
  0
SOLID
  5
7E26
330
7B29
100
AcDbEntity
  8
AM_5
100
AcDbTrace
 10
1329.285804822275
 20
936.5099811589475
 30
0.0
 11
1329.285804822275
 21
935.5099811589475
 31
0.0
 12
1332.285804822274
 22
936.0099811589476
 32
0.0
 13
1332.285804822274
 23
936.0099811589476
 33
0.0
  0
MTEXT
  5
7E27
330
7B29
100
AcDbEntity
  8
AM_5
100
AcDbMText
 10
1322.285804822274
 20
938.5102764345381
 30
0.0
 40
3.0
 41
0.0
 71
     5
 72
     1
  1
\A2;20
 73
     1
 44
1.0
1001
ACAD
1000
MTEXTBEGIN
1070
    73
1070
     1
1070
    44
1040
1.0
1070
    74
1070
     0
1000
MTEXTEND
  0
POINT
  5
7E28
330
7B29
100
AcDbEntity
  8
Defpoints
 62
     0
100
AcDbPoint
 10
1312.285804822274
 20
948.0099811589475
 30
0.0
  0
POINT
  5
7E29
330
7B29
100
AcDbEntity
  8
Defpoints
 62
     0
100
AcDbPoint
 10
1332.285804822274
 20
948.0099811589475
 30
0.0
  0
POINT
  5
7E2A
330
7B29
100
AcDbEntity
  8
Defpoints
 62
     0
100
AcDbPoint
 10
1332.285804822274
 20
936.0099811589476
 30
0.0
  0
ENDBLK
  5
7B34
330
7B29
100
AcDbEntity
  8
0
100
AcDbBlockEnd
  0
BLOCK
  5
7F90
330
7F8B
100
AcDbEntity
  8
0
100
AcDbBlockBegin
  2
*S27
 70
     1
 10
0.0
 20
0.0
 30
0.0
  3
*S27
  1

  0
LINE
  5
7F8C
330
7F8B
100
AcDbEntity
  8
AM_5
 62
     5
100
AcDbLine
 10
836.2334059016324
 20
1170.55848065477
 30
0.0
 11
789.2250437057238
 21
1170.55848065477
 31
0.0
  0
LINE
  5
7F8D
330
7F8B
100
AcDbEntity
  8
AM_5
 62
     5
100
AcDbLine
 10
789.2250437057238
 20
1170.55848065477
 30
0.0
 11
773.1593929201689
 21
1188.41552322841
 31
0.0
  0
TRACE
  5
7F8E
330
7F8B
100
AcDbEntity
  8
AM_5
 62
     5
370
    35
100
AcDbTrace
 10
773.6732210725429
 20
1188.877804909477
 30
0.0
 11
772.645564767795
 21
1187.953241547343
 31
0.0
 12
769.6480149243003
 22
1192.318435547452
 32
0.0
 13
769.6480149243003
 23
1192.318435547452
 33
0.0
  0
MTEXT
  5
7F8F
330
7F8B
100
AcDbEntity
  8
AM_5
 62
     2
100
AcDbMText
 10
836.2334059016324
 20
1175.303352042267
 30
0.0
 40
5.25
 41
0.0
 71
     9
 72
     5
  1

  7
ACISOTS
210
0.0
220
0.0
230
-1.0
 11
-1.0
 21
0.0
 31
0.0
 73
     1
 44
1.0
1001
ACAD
1000
MTEXTBEGIN
1070
    73
1070
     1
1070
    44
1040
1.0
1070
    74
1070
     0
1000
MTEXTEND
  0
ENDBLK
  5
7F91
330
7F8B
100
AcDbEntity
  8
0
100
AcDbBlockEnd
  0
BLOCK
  5
7F98
330
7F93
100
AcDbEntity
  8
0
100
AcDbBlockBegin
  2
*S28
 70
     1
 10
0.0
 20
0.0
 30
0.0
  3
*S28
  1

  0
LINE
  5
7F94
330
7F93
100
AcDbEntity
  8
AM_5
 62
     5
100
AcDbLine
 10
658.6461351532634
 20
1166.331422244955
 30
0.0
 11
702.7920769108268
 21
1166.331422244955
 31
0.0
  0
LINE
  5
7F95
330
7F93
100
AcDbEntity
  8
AM_5
 62
     5
100
AcDbLine
 10
702.7920769108268
 20
1166.331422244955
 30
0.0
 11
719.8677989231863
 21
1189.023771732287
 31
0.0
  0
TRACE
  5
7F96
330
7F93
100
AcDbEntity
  8
AM_5
 62
     5
370
    35
100
AcDbTrace
 10
720.4200791405607
 20
1188.608187463674
 30
0.0
 11
719.3155187058119
 21
1189.4393560009
 31
0.0
 12
723.0244748547744
 22
1193.218756483503
 32
0.0
 13
723.0244748547744
 23
1193.218756483503
 33
0.0
  0
MTEXT
  5
7F97
330
7F93
100
AcDbEntity
  8
AM_5
 62
     2
100
AcDbMText
 10
658.6461351532634
 20
1176.776709259807
 30
0.0
 40
5.25
 41
0.0
 71
     9
 72
     5
  1

  7
ACISOTS
 73
     1
 44
1.0
1001
ACAD
1000
MTEXTBEGIN
1070
    73
1070
     1
1070
    44
1040
1.0
1070
    74
1070
     0
1000
MTEXTEND
  0
ENDBLK
  5
7F99
330
7F93
100
AcDbEntity
  8
0
100
AcDbBlockEnd
  0
BLOCK
  5
7FA0
330
7F9B
100
AcDbEntity
  8
0
100
AcDbBlockBegin
  2
*S29
 70
     1
 10
0.0
 20
0.0
 30
0.0
  3
*S29
  1

  0
LINE
  5
7F9C
330
7F9B
100
AcDbEntity
  8
AM_5
 62
     5
100
AcDbLine
 10
543.3921985639146
 20
1034.055017986724
 30
0.0
 11
563.8247140233748
 21
1034.055017986724
 31
0.0
  0
LINE
  5
7F9D
330
7F9B
100
AcDbEntity
  8
AM_5
 62
     5
100
AcDbLine
 10
563.8247140233748
 20
1034.055017986724
 30
0.0
 11
580.6329644402804
 21
1022.353056821664
 31
0.0
  0
TRACE
  5
7F9E
330
7F9B
100
AcDbEntity
  8
AM_5
 62
     5
370
    35
100
AcDbTrace
 10
580.238047910298
 20
1021.785813789826
 30
0.0
 11
581.0278809702629
 21
1022.920299853502
 31
0.0
 12
584.9416030515026
 22
1019.353367951483
 32
0.0
 13
584.9416030515026
 23
1019.353367951483
 33
0.0
  0
MTEXT
  5
7F9F
330
7F9B
100
AcDbEntity
  8
AM_5
 62
     2
100
AcDbMText
 10
543.3921985639146
 20
1041.727253800347
 30
0.0
 40
5.25
 41
0.0
 71
     9
 72
     5
  1

  7
ACISOTS
 73
     1
 44
1.0
1001
ACAD
1000
MTEXTBEGIN
1070
    73
1070
     1
1070
    44
1040
1.0
1070
    74
1070
     0
1000
MTEXTEND
  0
ENDBLK
  5
7FA1
330
7F9B
100
AcDbEntity
  8
0
100
AcDbBlockEnd
  0
BLOCK
  5
7FA8
330
7FA3
100
AcDbEntity
  8
0
100
AcDbBlockBegin
  2
*S30
 70
     1
 10
0.0
 20
0.0
 30
0.0
  3
*S30
  1

  0
LINE
  5
7FA4
330
7FA3
100
AcDbEntity
  8
AM_5
 62
     5
100
AcDbLine
 10
1047.491276961367
 20
932.4679530487665
 30
0.0
 11
1004.902517369291
 21
932.4679530487665
 31
0.0
  0
LINE
  5
7FA5
330
7FA3
100
AcDbEntity
  8
AM_5
 62
     5
100
AcDbLine
 10
1004.902517369291
 20
932.4679530487665
 30
0.0
 11
980.4436601739203
 21
961.2861964613227
 31
0.0
  0
TRACE
  5
7FA6
330
7FA3
100
AcDbEntity
  8
AM_5
 62
     5
370
    35
100
AcDbTrace
 10
980.9706246098194
 20
961.7334460629095
 30
0.0
 11
979.916695738021
 21
960.8389468597358
 31
0.0
 12
977.0464621580952
 22
965.2888887604227
 32
0.0
 13
977.0464621580952
 23
965.2888887604227
 33
0.0
  0
MTEXT
  5
7FA7
330
7FA3
100
AcDbEntity
  8
AM_5
 62
     2
100
AcDbMText
 10
1047.491276961367
 20
940.0059271765718
 30
0.0
 40
5.25
 41
0.0
 71
     9
 72
     5
  1

  7
ACISOTS
210
0.0
220
0.0
230
-1.0
 11
-1.0
 21
0.0
 31
0.0
 73
     1
 44
1.0
1001
ACAD
1000
MTEXTBEGIN
1070
    73
1070
     1
1070
    44
1040
1.0
1070
    74
1070
     0
1000
MTEXTEND
  0
ENDBLK
  5
7FA9
330
7FA3
100
AcDbEntity
  8
0
100
AcDbBlockEnd
  0
BLOCK
  5
7FB0
330
7FAB
100
AcDbEntity
  8
0
100
AcDbBlockBegin
  2
*S31
 70
     1
 10
0.0
 20
0.0
 30
0.0
  3
*S31
  1

  0
LINE
  5
7FAC
330
7FAB
100
AcDbEntity
  8
AM_5
 62
     5
100
AcDbLine
 10
875.6448095360777
 20
1025.852178380627
 30
0.0
 11
897.2359405089058
 21
1025.852178380627
 31
0.0
  0
LINE
  5
7FAD
330
7FAB
100
AcDbEntity
  8
AM_5
 62
     5
100
AcDbLine
 10
897.2359405089058
 20
1025.852178380627
 30
0.0
 11
909.793725645636
 21
1013.860882356274
 31
0.0
  0
TRACE
  5
7FAE
330
7FAB
100
AcDbEntity
  8
AM_5
 62
     5
370
    35
100
AcDbTrace
 10
909.3163956942493
 20
1013.361002530385
 30
0.0
 11
910.2710555970229
 21
1014.360762182163
 31
0.0
 12
913.5906899059445
 22
1010.235201398724
 32
0.0
 13
913.5906899059445
 23
1010.235201398724
 33
0.0
  0
MTEXT
  5
7FAF
330
7FAB
100
AcDbEntity
  8
AM_5
 62
     2
100
AcDbMText
 10
875.6448095360777
 20
1033.390152508432
 30
0.0
 40
5.25
 41
0.0
 71
     9
 72
     5
  1

  7
ACISOTS
 73
     1
 44
1.0
1001
ACAD
1000
MTEXTBEGIN
1070
    73
1070
     1
1070
    44
1040
1.0
1070
    74
1070
     0
1000
MTEXTEND
  0
ENDBLK
  5
7FB1
330
7FAB
100
AcDbEntity
  8
0
100
AcDbBlockEnd
  0
BLOCK
  5
7FB8
330
7FB3
100
AcDbEntity
  8
0
100
AcDbBlockBegin
  2
*S32
 70
     1
 10
0.0
 20
0.0
 30
0.0
  3
*S32
  1

  0
LINE
  5
7FB4
330
7FB3
100
AcDbEntity
  8
AM_5
 62
     5
100
AcDbLine
 10
871.8810495001928
 20
1067.392194708702
 30
0.0
 11
893.4721804730209
 21
1067.392194708702
 31
0.0
  0
LINE
  5
7FB5
330
7FB3
100
AcDbEntity
  8
AM_5
 62
     5
100
AcDbLine
 10
893.4721804730209
 20
1067.392194708702
 30
0.0
 11
909.1011413280208
 21
1056.530619793338
 31
0.0
  0
TRACE
  5
7FB6
330
7FB3
100
AcDbEntity
  8
AM_5
 62
     5
370
    35
100
AcDbTrace
 10
908.7066984978623
 20
1055.96304726356
 30
0.0
 11
909.4955841581795
 21
1057.098192323116
 31
0.0
 12
913.4122827245864
 22
1053.534529030557
 32
0.0
 13
913.4122827245864
 23
1053.534529030557
 33
0.0
  0
MTEXT
  5
7FB7
330
7FB3
100
AcDbEntity
  8
AM_5
 62
     2
100
AcDbMText
 10
871.8810495001928
 20
1074.930168836507
 30
0.0
 40
5.25
 41
0.0
 71
     9
 72
     5
  1

  7
ACISOTS
 73
     1
 44
1.0
1001
ACAD
1000
MTEXTBEGIN
1070
    73
1070
     1
1070
    44
1040
1.0
1070
    74
1070
     0
1000
MTEXTEND
  0
ENDBLK
  5
7FB9
330
7FB3
100
AcDbEntity
  8
0
100
AcDbBlockEnd
  0
ENDSEC
  0
SECTION
  2
ENTITIES
  0
TEXT
  5
18AA
330
1F
100
AcDbEntity
  8
LOGO
 62
     6
100
AcDbText
 10
865.3735521650919
 20
752.5169499819898
 30
0.0
 40
10.1607468491677
  1
行程
 41
0.9
  7
CHINESET
 72
     4
 11
874.5182243293427
 21
757.5973234065736
 31
0.0
100
AcDbText
  0
LINE
  5
18AB
330
1F
100
AcDbEntity
  8
LOGO
 62
     6
100
AcDbLine
 10
900.7563439824748
 20
738.5459230643845
 30
0.0
 11
848.2801046762116
 21
738.5459230643845
 31
0.0
  0
LINE
  5
18AC
330
1F
100
AcDbEntity
  8
LOGO
 62
     6
100
AcDbLine
 10
900.7563439824748
 20
766.4879768995957
 30
0.0
 11
848.2801046762116
 21
766.4879768995957
 31
0.0
  0
TEXT
  5
18AD
330
1F
100
AcDbEntity
  8
LOGO
  6
Continuous
 62
     6
100
AcDbText
 10
863.0269034880221
 20
741.7211564547488
 30
0.0
 40
6.350466780729815
  1
Stroke
 41
0.8
  7
CHINESET
 72
     4
 11
874.5182243293427
 21
744.8963898451138
 31
0.0
100
AcDbText
  0
TEXT
  5
18AE
330
1F
100
AcDbEntity
  8
LOGO
  6
Continuous
 62
     7
100
AcDbText
 10
865.4219370010501
 20
782.8551611425852
 30
0.0
 40
12.70093356145963
  1
50
  7
CHINESET
 72
     1
 11
875.7036451222317
 21
789.2056279233149
 31
0.0
100
AcDbText
 73
     2
  0
LINE
  5
18AF
330
1F
100
AcDbEntity
  8
LOGO
 62
     6
100
AcDbLine
 10
895.6759705578917
 20
800.7804975155366
 30
0.0
 11
853.3604781007952
 21
800.7804975155366
 31
0.0
  0
LINE
  5
18B0
330
1F
100
AcDbEntity
  8
LOGO
 62
     6
100
AcDbLine
 10
895.6759705578917
 20
777.9188171049091
 30
0.0
 11
853.3604781007952
 21
777.9188171049095
 31
0.0
  0
TEXT
  5
18B1
330
1F
100
AcDbEntity
  8
LOGO
  6
Continuous
 62
     6
100
AcDbText
 10
701.7963670939259
 20
741.7211564547492
 30
0.0
 40
6.350466780729815
  1
Model
  7
CHINESET
 72
     4
 11
713.892494295316
 21
744.8963898451141
 31
0.0
100
AcDbText
  0
LINE
  5
18B2
330
1F
100
AcDbEntity
  8
LOGO
 62
     6
100
AcDbLine
 10
774.5000192334
 20
800.7804975155366
 30
0.0
 11
653.2849693572325
 21
800.7804975155366
 31
0.0
  0
LINE
  5
18B3
330
1F
100
AcDbEntity
  8
LOGO
 62
     6
100
AcDbLine
 10
774.5000192334
 20
777.9188171049095
 30
0.0
 11
653.2849693572325
 21
777.9188171049095
 31
0.0
  0
LINE
  5
18B4
330
1F
100
AcDbEntity
  8
LOGO
 62
     6
100
AcDbLine
 10
739.2943614182351
 20
766.4879768995957
 30
0.0
 11
688.4906271723973
 21
766.4879768995957
 31
0.0
  0
LINE
  5
18B5
330
1F
100
AcDbEntity
  8
LOGO
 62
     6
100
AcDbLine
 10
739.2943614182351
 20
738.5459230643845
 30
0.0
 11
688.4906271723973
 21
738.5459230643845
 31
0.0
  0
TEXT
  5
18B6
330
1F
100
AcDbEntity
  8
LOGO
 62
     7
100
AcDbText
 10
554.7053478307256
 20
789.3209081960226
 30
0.0
 40
15.24112027375156
  1
訂購代號:
  7
CHINESET
100
AcDbText
  0
LINE
  5
18B7
330
1F
100
AcDbEntity
  8
LOGO
 62
     6
100
AcDbLine
 10
688.4906271723973
 20
766.4879768995957
 30
0.0
 11
688.4906271723973
 21
738.5459230643845
 31
0.0
  0
LINE
  5
18B8
330
1F
100
AcDbEntity
  8
LOGO
 62
     6
100
AcDbLine
 10
653.2849693572325
 20
800.7804975155366
 30
0.0
 11
653.2849693572325
 21
777.9188171049095
 31
0.0
  0
TEXT
  5
18B9
330
1F
100
AcDbEntity
  8
LOGO
  6
Continuous
 62
     7
100
AcDbText
 10
805.8851464182414
 20
782.8551611425853
 30
0.0
 40
12.70093356145963
  1
63
  7
CHINESET
 72
     1
 11
816.1668545394229
 21
789.2056279233152
 31
0.0
100
AcDbText
 73
     2
  0
LINE
  5
18BA
330
1F
100
AcDbEntity
  8
LOGO
 62
     6
100
AcDbLine
 10
835.3732957189304
 20
738.5459230643847
 30
0.0
 11
794.5895717741382
 21
738.5459230643847
 31
0.0
  0
LINE
  5
18BB
330
1F
100
AcDbEntity
  8
LOGO
 62
     6
100
AcDbLine
 10
835.3732957189304
 20
777.9188171049095
 30
0.0
 11
794.5895717741382
 21
777.9188171049095
 31
0.0
  0
LINE
  5
18BC
330
1F
100
AcDbEntity
  8
LOGO
 62
     6
100
AcDbLine
 10
835.3732957189304
 20
766.4879768995957
 30
0.0
 11
794.5895717741382
 21
766.4879768995957
 31
0.0
  0
LINE
  5
18BD
330
1F
100
AcDbEntity
  8
LOGO
 62
     6
100
AcDbLine
 10
835.3732957189304
 20
800.7804975155366
 30
0.0
 11
794.5895717741382
 21
800.7804975155366
 31
0.0
  0
LINE
  5
18BE
330
1F
100
AcDbEntity
  8
LOGO
 62
     6
100
AcDbLine
 10
794.5895717741382
 20
766.4879768995957
 30
0.0
 11
794.5895717741382
 21
738.5459230643847
 31
0.0
  0
LINE
  5
18BF
330
1F
100
AcDbEntity
  8
LOGO
 62
     6
100
AcDbLine
 10
739.2943614182351
 20
766.4879768995957
 30
0.0
 11
739.2943614182351
 21
738.5459230643845
 31
0.0
  0
TEXT
  5
18C0
330
1F
100
AcDbEntity
  8
LOGO
 62
     6
100
AcDbText
 10
703.7317474461483
 20
752.7769690942716
 30
0.0
 40
10.1607468491677
  1
型式
  7
CHINESET
 72
     4
 11
713.892494295316
 21
757.5973234065736
 31
0.0
100
AcDbText
  0
LINE
  5
18C1
330
1F
100
AcDbEntity
  8
LOGO
 62
     6
100
AcDbLine
 10
713.892494295316
 20
777.9188171049095
 30
0.0
 11
713.892494295316
 21
766.4879768995957
 31
0.0
  0
LINE
  5
18C2
330
1F
100
AcDbEntity
  8
LOGO
 62
     6
100
AcDbLine
 10
794.5895717741382
 20
800.7804975155366
 30
0.0
 11
794.5895717741382
 21
777.9188171049095
 31
0.0
  0
LINE
  5
18C3
330
1F
100
AcDbEntity
  8
LOGO
 62
     6
100
AcDbLine
 10
774.5000192334
 20
800.7804975155366
 30
0.0
 11
774.5000192334
 21
777.9188171049095
 31
0.0
  0
LINE
  5
18C4
330
1F
100
AcDbEntity
  8
LOGO
  6
Continuous
 62
     7
100
AcDbLine
 10
779.0037999666544
 20
789.2686776252091
 30
0.0
 11
789.098683850336
 21
789.2686776252091
 31
0.0
  0
LINE
  5
18C5
330
1F
100
AcDbEntity
  8
LOGO
 62
     6
100
AcDbLine
 10
848.2801046762116
 20
766.4879768995957
 30
0.0
 11
848.2801046762116
 21
738.5459230643845
 31
0.0
  0
LINE
  5
18C6
330
1F
100
AcDbEntity
  8
LOGO
 62
     6
100
AcDbLine
 10
835.3732957189304
 20
766.4879768995957
 30
0.0
 11
835.3732957189304
 21
738.5459230643847
 31
0.0
  0
TEXT
  5
18C7
330
1F
100
AcDbEntity
  8
LOGO
  6
Continuous
 62
     6
100
AcDbText
 10
807.1189510656306
 20
741.7211564547492
 30
0.0
 40
6.350466780729815
  1
Bore
 41
0.8
  7
CHINESET
 72
     4
 11
814.9814337465343
 21
744.8963898451141
 31
0.0
100
AcDbText
  0
TEXT
  5
18C8
330
1F
100
AcDbEntity
  8
LOGO
 62
     6
100
AcDbText
 10
805.2652195720177
 20
752.5169499819898
 30
0.0
 40
10.1607468491677
  1
內徑
 41
0.9
  7
CHINESET
 72
     4
 11
814.9814337465343
 21
757.5973234065736
 31
0.0
100
AcDbText
  0
LINE
  5
18C9
330
1F
100
AcDbEntity
  8
LOGO
  6
Continuous
 62
     7
100
AcDbLine
 10
839.3120196770475
 20
789.2686776252091
 30
0.0
 11
849.406903560729
 21
789.2686776252091
 31
0.0
  0
LINE
  5
18CA
330
1F
100
AcDbEntity
  8
LOGO
 62
     6
100
AcDbLine
 10
835.3732957189304
 20
800.7804975155366
 30
0.0
 11
835.3732957189304
 21
777.9188171049095
 31
0.0
  0
LINE
  5
18CB
330
1F
100
AcDbEntity
  8
LOGO
 62
     6
100
AcDbLine
 10
814.9814331608075
 20
777.9188171049095
 30
0.0
 11
814.9814331608075
 21
766.4879768995957
 31
0.0
  0
LINE
  5
18CC
330
1F
100
AcDbEntity
  8
LOGO
 62
     6
100
AcDbLine
 10
853.3604781007952
 20
800.7804975155366
 30
0.0
 11
853.3604781007952
 21
777.9188171049095
 31
0.0
  0
LINE
  5
18CD
330
1F
100
AcDbEntity
  8
LOGO
 62
     6
100
AcDbLine
 10
875.0562128104801
 20
777.9188171049095
 30
0.0
 11
875.0562128104801
 21
766.4879768995957
 31
0.0
  0
TEXT
  5
18CE
330
1F
100
AcDbEntity
  8
LOGO
 62
     6
100
AcDbText
 10
923.7348816365017
 20
752.5169499819898
 30
0.0
 40
10.1607468491677
  1
配件
 41
0.9
  7
CHINESET
 72
     4
 11
932.9748108024634
 21
757.5973234065736
 31
0.0
100
AcDbText
  0
LINE
  5
18CF
330
1F
100
AcDbEntity
  8
LOGO
 62
     6
100
AcDbLine
 10
957.8138177467987
 20
738.5459230643847
 30
0.0
 11
908.9052537480416
 21
738.5459230643847
 31
0.0
  0
LINE
  5
18D0
330
1F
100
AcDbEntity
  8
LOGO
 62
     6
100
AcDbLine
 10
957.8138177467987
 20
766.4879768995957
 30
0.0
 11
908.9052537480416
 21
766.4879768995957
 31
0.0
  0
TEXT
  5
18D1
330
1F
100
AcDbEntity
  8
LOGO
  6
Continuous
 62
     6
100
AcDbText
 10
914.2258136403087
 20
742.779567584871
 30
0.0
 40
6.350466780729815
  1
Accessory
 41
0.8
  7
CHINESET
 72
     4
 11
932.9748108024634
 21
744.8963898451141
 31
0.0
100
AcDbText
  0
LINE
  5
18D2
330
1F
100
AcDbEntity
  8
LOGO
 62
     6
100
AcDbLine
 10
908.9052537480416
 20
766.4879768995957
 30
0.0
 11
908.9052537480416
 21
738.5459230643847
 31
0.0
  0
LINE
  5
18D3
330
1F
100
AcDbEntity
  8
LOGO
 62
     6
100
AcDbLine
 10
900.7563439824748
 20
766.4879768995957
 30
0.0
 11
900.7563439824748
 21
738.4405629936637
 31
0.0
  0
LINE
  5
18D4
330
1F
100
AcDbEntity
  8
LOGO
 62
     6
100
AcDbLine
 10
895.6759705578917
 20
800.7804975155366
 30
0.0
 11
895.6759705578917
 21
777.9188171049091
 31
0.0
  0
LINE
  5
18D5
330
1F
100
AcDbEntity
  8
LOGO
  6
Continuous
 62
     7
100
AcDbLine
 10
900.176248482043
 20
789.2686776252091
 30
0.0
 11
910.2711323657244
 21
789.2686776252091
 31
0.0
  0
TEXT
  5
18D6
330
1F
100
AcDbEntity
  8
LOGO
  6
Continuous
 62
     7
100
AcDbText
 10
925.4477399056019
 20
782.8551611425852
 30
0.0
 40
12.70093356145963
  1
?
  7
CHINESET
 72
     1
 11
928.7741748859842
 21
789.2056279233149
 31
0.0
100
AcDbText
 73
     2
  0
LINE
  5
18D7
330
1F
100
AcDbEntity
  8
LOGO
 62
     6
100
AcDbLine
 10
942.0325359023102
 20
800.7804975155366
 30
0.0
 11
942.0325359023102
 21
777.9188171049095
 31
0.0
  0
LINE
  5
18D8
330
1F
100
AcDbEntity
  8
LOGO
 62
     6
100
AcDbLine
 10
914.028733297637
 20
800.7804975155366
 30
0.0
 11
914.028733297637
 21
777.9188171049095
 31
0.0
  0
LINE
  5
18D9
330
1F
100
AcDbEntity
  8
LOGO
 62
     6
100
AcDbLine
 10
942.0325359023102
 20
777.9188171049095
 30
0.0
 11
914.028733297637
 21
777.9188171049095
 31
0.0
  0
LINE
  5
18DA
330
1F
100
AcDbEntity
  8
LOGO
 62
     6
100
AcDbLine
 10
928.0306345999743
 20
777.9188171049095
 30
0.0
 11
928.0306345999743
 21
766.4879768995957
 31
0.0
  0
LINE
  5
18DB
330
1F
100
AcDbEntity
  8
LOGO
 62
     6
100
AcDbLine
 10
942.0325359023102
 20
800.7804975155366
 30
0.0
 11
914.028733297637
 21
800.7804975155366
 31
0.0
  0
LINE
  5
18DC
330
1F
100
AcDbEntity
  8
LOGO
 62
     6
100
AcDbLine
 10
957.8138177467987
 20
766.4879768995957
 30
0.0
 11
957.8138177467987
 21
738.5459230643847
 31
0.0
  0
TEXT
  5
18DD
330
1F
100
AcDbEntity
  8
LOGO
 62
     7
100
AcDbText
 10
552.8311342072477
 20
775.0266320103836
 30
0.0
 40
10.15771802620235
  1
Order example:
 41
0.8
  7
CHINESET
100
AcDbText
  0
TEXT
  5
18DE
330
1F
100
AcDbEntity
  8
LOGO
 62
     7
100
AcDbText
 10
554.653512822058
 20
789.3265958089231
 30
0.0
 40
15.23657703930353
  1
訂購代號:
  7
CHINESET
100
AcDbText
  0
LINE
  5
18DF
330
1F
100
AcDbEntity
  8
LOGO
 62
     1
100
AcDbLine
 10
1372.307163914516
 20
808.4010576524123
 30
0.0
 11
380.8152238395246
 21
808.4010576524123
 31
0.0
  0
LINE
  5
18E0
330
1F
100
AcDbEntity
  8
LOGO
 62
     1
100
AcDbLine
 10
548.4175712718639
 20
732.2181724558947
 30
0.0
 11
548.4175712718639
 21
808.4010576524123
 31
0.0
  0
TEXT
  5
18E1
330
1F
100
AcDbEntity
  8
LOGO
  6
Continuous
 62
     5
100
AcDbText
 10
408.180458650809
 20
747.184185282752
 30
0.0
 40
11.42743277947764
  1
金器工業股份有限公司
  7
CHINESET
100
AcDbText
  0
TEXT
  5
18E2
330
1F
100
AcDbEntity
  8
LOGO
  6
Continuous
 62
     5
100
AcDbText
 10
387.1905254409921
 20
735.7545136223957
 30
0.0
 40
7.618288519651765
  1
MINDMAN INDUSTRIAL CO., LTD.
 41
0.85
  7
CHINESET
100
AcDbText
  0
LINE
  5
18E3
330
1F
100
AcDbEntity
  8
LOGO
 62
     1
100
AcDbLine
 10
548.4175712718639
 20
793.1644806131089
 30
0.0
 11
436.6826729836373
 21
793.1644806131089
 31
0.0
  0
LINE
  5
18E4
330
1F
100
AcDbEntity
  8
LOGO
 62
     1
100
AcDbLine
 10
548.4175712718639
 20
777.9279035738053
 30
0.0
 11
436.6826729836373
 21
777.9279035738053
 31
0.0
  0
LINE
  5
18E5
330
1F
100
AcDbEntity
  8
LOGO
 62
     1
100
AcDbLine
 10
548.4175712718639
 20
762.691326534502
 30
0.0
 11
380.8152238395246
 21
762.691326534502
 31
0.0
  0
LINE
  5
18E6
330
1F
100
AcDbEntity
  8
LOGO
 62
     1
100
AcDbLine
 10
436.6826729836373
 20
762.691326534502
 30
0.0
 11
436.6826729836373
 21
808.4010576524123
 31
0.0
  0
TEXT
  5
18E7
330
1F
100
AcDbEntity
  8
LOGO
 62
     6
100
AcDbText
 10
509.0576700750506
 20
766.5004707943277
 30
0.0
 40
7.618288519651765
  1
m/m
  7
CHINESET
 72
     1
 11
522.4803688953894
 21
770.3096150541536
 31
0.0
100
AcDbText
 73
     2
  0
TEXT
  5
18E8
330
1F
100
AcDbEntity
  8
LOGO
 62
     6
100
AcDbText
 10
509.0576700750506
 20
796.973624872935
 30
0.0
 40
7.618288519651765
  1
1 : 1
  7
CHINESET
 72
     1
 11
522.4803688953894
 21
800.7827691327609
 31
0.0
100
AcDbText
 73
     2
  0
LINE
  5
18E9
330
1F
100
AcDbEntity
  8
LOGO
 62
     1
100
AcDbLine
 10
497.6289811408511
 20
762.691326534502
 30
0.0
 11
497.6289811408511
 21
808.4010576524123
 31
0.0
  0
CIRCLE
  5
18EA
330
1F
100
AcDbEntity
  8
LOGO
  6
Continuous
 62
     6
100
AcDbCircle
 10
511.7351952154514
 20
785.5624876683499
 30
0.0
 40
4.423357628808108
  0
CIRCLE
  5
18EB
330
1F
100
AcDbEntity
  8
LOGO
  6
Continuous
 62
     6
100
AcDbCircle
 10
511.7351952154514
 20
785.5624876683499
 30
0.0
 40
2.591695992785609
  0
LINE
  5
18EC
330
1F
100
AcDbEntity
  8
LOGO
 62
     6
100
AcDbLine
 10
539.5320878195965
 20
781.1391300395413
 30
0.0
 11
539.5320878195965
 21
789.9858452971583
 31
0.0
  0
LINE
  5
18ED
330
1F
100
AcDbEntity
  8
LOGO
 62
     6
100
AcDbLine
 10
525.6651155661258
 20
782.970791675564
 30
0.0
 11
525.6651155661258
 21
788.1541836611358
 31
0.0
  0
LINE
  5
18EE
330
1F
100
AcDbEntity
  8
LOGO
  6
Continuous
 62
     6
100
AcDbLine
 10
525.6651155661258
 20
788.1541836611358
 30
0.0
 11
539.5320878195965
 21
789.9858452971583
 31
0.0
  0
LINE
  5
18EF
330
1F
100
AcDbEntity
  8
LOGO
  6
Continuous
 62
     6
100
AcDbLine
 10
525.6651155661258
 20
782.970791675564
 30
0.0
 11
539.5320878195965
 21
781.1391300395413
 31
0.0
  0
TEXT
  5
18F0
330
1F
100
AcDbEntity
  8
LOGO
 62
     6
100
AcDbText
 10
442.9643599906897
 20
796.9773740306711
 30
499.2900791808089
 40
7.618288519651765
  1
比例 Scale:
 41
0.9
  7
CHINESET
 72
     4
 11
467.1558270622446
 21
800.7827691327609
 31
499.2900791808089
100
AcDbText
  0
TEXT
  5
18F1
330
1F
100
AcDbEntity
  8
LOGO
 62
     6
100
AcDbText
 10
445.6273599509072
 20
781.8442112589196
 30
499.2900791808089
 40
7.618288519651765
  1
投影 View:
 41
0.9
  7
CHINESET
 72
     4
 11
467.1558270622446
 21
785.5461920934568
 31
499.2900791808089
100
AcDbText
  0
TEXT
  5
18F2
330
1F
100
AcDbEntity
  8
LOGO
 62
     6
100
AcDbText
 10
446.3721836945696
 20
766.5004707943277
 30
499.2900791808089
 40
7.618288519651765
  1
單位 Unit:
 41
0.9
  7
CHINESET
 72
     4
 11
467.1558270622446
 21
770.3096150541536
 31
499.2900791808089
100
AcDbText
  0
LWPOLYLINE
  5
18F3
330
1F
100
AcDbEntity
  8
0
 62
     4
100
AcDbPolyline
 90
        4
 70
     1
 43
0.0
 10
380.8152238395245
 20
808.4010576524127
 10
1372.307163914517
 20
808.4010576524127
 10
1372.307163914517
 20
1331.649310411772
 10
380.8152238395245
 20
1331.649310411772
1001
GENIUS_GENREC_14
1002
{
1000
PYDIR
1011
380.8152238395245
1021
1331.649310411772
1031
0.0
1002
}
1002
{
1000
PXDIR
1011
1372.307163914517
1021
808.4010576524127
1031
0.0
1002
}
1002
{
1000
PORI
1011
380.8152238395245
1021
808.4010576524127
1031
0.0
1002
}
1002
{
1000
PINS
1011
380.8152238395245
1021
808.4010576524127
1031
0.0
1002
}
1002
{
1000
PINS2
1011
1372.307163914517
1021
1331.649310411772
1031
0.0
1002
}
1002
{
1000
C
1070
     1
1002
}
1001
GENIUS_GENODEF_13
1002
{
1000
HIER
1070
     0
1002
}
1002
{
1000
MANEDIT
1070
     0
1002
}
1002
{
1000
NOSEL
1070
     0
1002
}
1002
{
1000
BEHIND
1070
     0
1002
}
1002
{
1000
OTHER
1070
     0
1002
}
1002
{
1000
REACTOR
1002
}
1001
GENIUS_GENOBJ-N-REC_13
1002
{
1000
OWNER
1000
GEN
1002
}
  0
SOLID
  5
18F4
330
1F
100
AcDbEntity
  8
LOGO
 62
     5
100
AcDbTrace
 10
388.7193204428943
 20
775.3556468204422
 30
0.0
 11
392.0132684949012
 21
775.355646820441
 31
0.0
 12
405.756982780861
 22
806.5913611067127
 32
0.0
 13
409.0509308328679
 23
806.5913611067106
 33
0.0
  0
SOLID
  5
18F5
330
1F
100
AcDbEntity
  8
LOGO
 62
     5
100
AcDbTrace
 10
393.3762814819402
 20
775.3556468204422
 30
0.0
 11
396.6702295339469
 21
775.3556468204422
 31
0.0
 12
409.0509308328679
 22
804.09250396381
 32
0.0
 13
405.756982780861
 23
792.0146944397845
 33
0.0
  0
SOLID
  5
18F6
330
1F
100
AcDbEntity
  8
LOGO
 62
     2
100
AcDbTrace
 10
392.0132684949012
 20
775.355646820441
 30
0.0
 11
393.3762814819402
 21
775.3556468204422
 31
0.0
 12
409.0509308328679
 22
806.5913611067106
 32
0.0
 13
410.4139438199054
 23
806.5913611067106
 33
0.0
  0
SOLID
  5
18F7
330
1F
100
AcDbEntity
  8
LOGO
 62
     5
100
AcDbTrace
 10
383.4383139405192
 20
763.9972052617999
 30
0.0
 11
384.5741580963851
 21
763.9972052617999
 31
0.0
 12
387.7727836463417
 22
769.6764260411196
 32
0.0
 13
388.9086278022057
 23
769.6764260411196
 33
0.0
  0
SOLID
  5
18F8
330
1F
100
AcDbEntity
  8
LOGO
 62
     5
100
AcDbTrace
 10
387.7727836463417
 20
769.6764260411196
 30
0.0
 11
388.9086278022057
 21
769.6764260411196
 31
0.0
 12
387.7727836463417
 22
763.9972052617999
 32
0.0
 13
388.9086278022057
 23
763.9972052617999
 33
0.0
  0
SOLID
  5
18F9
330
1F
100
AcDbEntity
  8
LOGO
 62
     5
100
AcDbTrace
 10
387.7727836463417
 20
763.9972052617999
 30
0.0
 11
388.9086278022057
 21
763.9972052617999
 31
0.0
 12
392.1072533521668
 22
769.6764260411196
 32
0.0
 13
393.2430975080297
 23
769.6764260411196
 33
0.0
  0
SOLID
  5
18FA
330
1F
100
AcDbEntity
  8
LOGO
 62
     5
100
AcDbTrace
 10
392.1072533521668
 20
769.6764260411196
 30
0.0
 11
393.2430975080297
 21
769.6764260411196
 31
0.0
 12
392.1072533521668
 22
763.9972052617999
 32
0.0
 13
393.2430975080297
 23
763.9972052617999
 33
0.0
  0
POLYLINE
  5
18FB
330
1F
100
AcDbEntity
  8
LOGO
 62
     5
100
AcDb2dPolyline
 66
     1
 10
0.0
 20
0.0
 30
0.0
 40
1.137664418934663
 41
1.137664418934663
  0
VERTEX
  5
18FC
330
18FB
100
AcDbEntity
  8
LOGO
 62
     5
100
AcDbVertex
100
AcDb2dVertex
 10
430.1803625265512
 20
767.4047377293908
 30
0.0
 42
1.0
  0
VERTEX
  5
18FD
330
18FB
100
AcDbEntity
  8
LOGO
 62
     5
100
AcDbVertex
100
AcDb2dVertex
 10
426.767369269747
 20
767.4047377293908
 30
0.0
 42
1.0
  0
SEQEND
  5
18FE
330
18FB
100
AcDbEntity
  8
LOGO
 62
     5
  0
POLYLINE
  5
18FF
330
1F
100
AcDbEntity
  8
LOGO
 62
     5
100
AcDb2dPolyline
 66
     1
 10
0.0
 20
0.0
 30
0.0
 70
     1
  0
VERTEX
  5
1900
330
18FF
100
AcDbEntity
  8
LOGO
 62
     5
100
AcDbVertex
100
AcDb2dVertex
 10
420.3337251707301
 20
766.8368156514593
 30
0.0
 42
1.000000057330635
  0
VERTEX
  5
1901
330
18FF
100
AcDbEntity
  8
LOGO
 62
     5
100
AcDbVertex
100
AcDb2dVertex
 10
423.7412576383236
 20
766.8368156514593
 30
0.0
 42
1.000000057330635
  0
SEQEND
  5
1902
330
18FF
100
AcDbEntity
  8
LOGO
 62
     5
  0
CIRCLE
  5
1903
330
1F
100
AcDbEntity
  8
LOGO
 62
     5
100
AcDbCircle
 10
422.0374914045278
 20
766.8368156514593
 30
0.0
 40
1.703766233796552
  0
POLYLINE
  5
1904
330
1F
100
AcDbEntity
  8
LOGO
 62
     5
100
AcDb2dPolyline
 66
     1
 10
0.0
 20
0.0
 30
0.0
 70
     1
 40
1.137664418934663
 41
1.137664418934663
  0
VERTEX
  5
1905
330
1904
100
AcDbEntity
  8
LOGO
 62
     5
100
AcDbVertex
100
AcDb2dVertex
 10
419.7621625666576
 20
766.8368156514593
 30
0.0
 42
1.0
  0
VERTEX
  5
1906
330
1904
100
AcDbEntity
  8
LOGO
 62
     5
100
AcDbVertex
100
AcDb2dVertex
 10
424.3128202423963
 20
766.8368156514593
 30
0.0
 42
1.0
  0
SEQEND
  5
1907
330
1904
100
AcDbEntity
  8
LOGO
 62
     5
  0
LINE
  5
1908
330
1F
100
AcDbEntity
  8
LOGO
 62
     5
100
AcDbLine
 10
430.7455542098777
 20
763.9972052617999
 30
0.0
 11
430.7455542098777
 21
767.4047377293908
 31
0.0
  0
SOLID
  5
1909
330
1F
100
AcDbEntity
  8
LOGO
 62
     5
100
AcDbTrace
 10
423.7411440539106
 20
769.6764260411196
 30
0.0
 11
424.8769882097732
 21
769.6764260411196
 31
0.0
 12
423.7411440539106
 22
763.9972052617999
 32
0.0
 13
424.8769882097732
 23
763.9972052617999
 33
0.0
  0
SOLID
  5
190A
330
1F
100
AcDbEntity
  8
LOGO
 62
     5
100
AcDbTrace
 10
426.2021775864192
 20
763.9972052617999
 30
0.0
 11
427.3380217422846
 21
763.9972052617999
 31
0.0
 12
426.2021775864192
 22
769.6764260411196
 32
0.0
 13
427.3380217422846
 23
769.6764260411196
 33
0.0
  0
SOLID
  5
190B
330
1F
100
AcDbEntity
  8
LOGO
 62
     5
100
AcDbTrace
 10
429.6097100540134
 20
767.4047377293908
 30
0.0
 11
430.7455542098777
 21
767.4047377293908
 31
0.0
 12
429.6097100540134
 22
763.9972052617999
 32
0.0
 13
430.7455542098777
 23
763.9972052617999
 33
0.0
  0
SOLID
  5
190C
330
1F
100
AcDbEntity
  8
LOGO
 62
     5
100
AcDbTrace
 10
426.088593170833
 20
804.09250396381
 30
0.0
 11
422.794645118826
 21
792.0146944397845
 31
0.0
 12
426.088593170833
 22
775.355646820441
 32
0.0
 13
422.794645118826
 23
775.355646820441
 33
0.0
  0
SOLID
  5
190D
330
1F
100
AcDbEntity
  8
LOGO
 62
     5
100
AcDbTrace
 10
427.4516061578708
 20
775.355646820441
 30
0.0
 11
430.7455542098777
 21
775.355646820441
 31
0.0
 12
427.4516061578708
 22
806.5913611067106
 32
0.0
 13
430.7455542098777
 23
806.5913611067127
 33
0.0
  0
SOLID
  5
190E
330
1F
100
AcDbEntity
  8
LOGO
 62
     2
100
AcDbTrace
 10
426.088593170833
 20
806.5913611067127
 30
0.0
 11
427.4516061578708
 21
806.5913611067106
 31
0.0
 12
426.088593170833
 22
775.355646820441
 32
0.0
 13
427.4516061578708
 23
775.355646820441
 33
0.0
  0
POLYLINE
  5
190F
330
1F
100
AcDbEntity
  8
LOGO
 62
     5
100
AcDb2dPolyline
 66
     1
 10
0.0
 20
0.0
 30
0.0
 40
1.137664418934663
 41
1.137664418934663
  0
VERTEX
  5
1910
330
190F
100
AcDbEntity
  8
LOGO
 62
     5
100
AcDbVertex
100
AcDb2dVertex
 10
413.8998539028849
 20
767.4047377293908
 30
0.0
 42
1.0
  0
VERTEX
  5
1911
330
190F
100
AcDbEntity
  8
LOGO
 62
     5
100
AcDbVertex
100
AcDb2dVertex
 10
410.4868606460802
 20
767.4047377293908
 30
0.0
 42
1.0
  0
SEQEND
  5
1912
330
190F
100
AcDbEntity
  8
LOGO
 62
     5
  0
POLYLINE
  5
1913
330
1F
100
AcDbEntity
  8
LOGO
 62
     5
100
AcDb2dPolyline
 66
     1
 10
0.0
 20
0.0
 30
0.0
 40
1.137664418934663
 41
1.137664418934663
  0
VERTEX
  5
1914
330
1913
100
AcDbEntity
  8
LOGO
 62
     5
100
AcDbVertex
100
AcDb2dVertex
 10
417.3073863704767
 20
767.4047377293908
 30
0.0
 42
1.0
  0
VERTEX
  5
1915
330
1913
100
AcDbEntity
  8
LOGO
 62
     5
100
AcDbVertex
100
AcDb2dVertex
 10
413.8943931136723
 20
767.4047377293908
 30
0.0
 42
1.0
  0
SEQEND
  5
1916
330
1913
100
AcDbEntity
  8
LOGO
 62
     5
  0
POLYLINE
  5
1917
330
1F
100
AcDbEntity
  8
LOGO
 62
     5
100
AcDb2dPolyline
 66
     1
 10
0.0
 20
0.0
 30
0.0
 40
1.137664418934663
 41
1.137664418934663
  0
VERTEX
  5
1918
330
1917
100
AcDbEntity
  8
LOGO
 62
     5
100
AcDbVertex
100
AcDb2dVertex
 10
401.0268777468107
 20
767.4047377293908
 30
0.0
 42
1.0
  0
VERTEX
  5
1919
330
1917
100
AcDbEntity
  8
LOGO
 62
     5
100
AcDbVertex
100
AcDb2dVertex
 10
397.6138844900063
 20
767.4047377293908
 30
0.0
 42
1.0
  0
SEQEND
  5
191A
330
1917
100
AcDbEntity
  8
LOGO
 62
     5
  0
SOLID
  5
191B
330
1F
100
AcDbEntity
  8
LOGO
 62
     5
100
AcDbTrace
 10
397.0486928066812
 20
769.6764260411196
 30
0.0
 11
398.1845369625441
 21
769.6764260411196
 31
0.0
 12
397.0486928066812
 22
763.9972052617999
 32
0.0
 13
398.1845369625441
 23
763.9972052617999
 33
0.0
  0
SOLID
  5
191C
330
1F
100
AcDbEntity
  8
LOGO
 62
     5
100
AcDbTrace
 10
400.4562252742728
 20
767.4047377293908
 30
0.0
 11
401.5920694301386
 21
767.4047377293908
 31
0.0
 12
400.4562252742728
 22
763.9972052617999
 32
0.0
 13
401.5920694301386
 23
763.9972052617999
 33
0.0
  0
POLYLINE
  5
191D
330
1F
100
AcDbEntity
  8
LOGO
 62
     5
100
AcDb2dPolyline
 66
     1
 10
0.0
 20
0.0
 30
0.0
 70
     1
 40
1.137664418934663
 41
1.137664418934663
  0
VERTEX
  5
191E
330
191D
100
AcDbEntity
  8
LOGO
 62
     5
100
AcDbVertex
100
AcDb2dVertex
 10
403.4816539429902
 20
766.8368156514593
 30
0.0
 42
1.0
  0
VERTEX
  5
191F
330
191D
100
AcDbEntity
  8
LOGO
 62
     5
100
AcDbVertex
100
AcDb2dVertex
 10
408.0323116187296
 20
766.8368156514593
 30
0.0
 42
1.0
  0
SEQEND
  5
1920
330
191D
100
AcDbEntity
  8
LOGO
 62
     5
  0
SOLID
  5
1921
330
1F
100
AcDbEntity
  8
LOGO
 62
     5
100
AcDbTrace
 10
407.4606354302436
 20
771.3801922749174
 30
0.0
 11
408.5964795861059
 21
771.3801922749174
 31
0.0
 12
407.4606354302436
 22
763.9972052617999
 32
0.0
 13
408.5964795861059
 23
763.9972052617999
 33
0.0
  0
SOLID
  5
1922
330
1F
100
AcDbEntity
  8
LOGO
 62
     5
100
AcDbTrace
 10
409.9216689627549
 20
769.6764260411196
 30
0.0
 11
411.0575131186186
 21
769.6764260411196
 31
0.0
 12
409.9216689627549
 22
763.9972052617999
 32
0.0
 13
411.0575131186186
 23
763.9972052617999
 33
0.0
  0
SOLID
  5
1923
330
1F
100
AcDbEntity
  8
LOGO
 62
     5
100
AcDbTrace
 10
413.3292014303466
 20
767.4047377293908
 30
0.0
 11
414.4650455862106
 21
767.4047377293908
 31
0.0
 12
413.3292014303466
 22
763.9972052617999
 32
0.0
 13
414.4650455862106
 23
763.9972052617999
 33
0.0
  0
SOLID
  5
1924
330
1F
100
AcDbEntity
  8
LOGO
 62
     5
100
AcDbTrace
 10
416.7367338979394
 20
767.4047377293908
 30
0.0
 11
417.8725780538027
 21
767.4047377293908
 31
0.0
 12
416.7367338979394
 22
763.9972052617969
 32
0.0
 13
417.8725780538027
 23
763.9972052617969
 33
0.0
  0
SOLID
  5
1925
330
1F
100
AcDbEntity
  8
LOGO
 62
     5
100
AcDbTrace
 10
394.587659274168
 20
770.4715169502244
 30
0.0
 11
395.7235034300353
 21
770.4715169502244
 31
0.0
 12
394.587659274168
 22
771.3801922749174
 32
0.0
 13
395.7235034300353
 23
771.3801922749174
 33
0.0
  0
SOLID
  5
1926
330
1F
100
AcDbEntity
  8
LOGO
 62
     5
100
AcDbTrace
 10
394.587659274168
 20
769.6764260411196
 30
0.0
 11
395.7235034300353
 21
769.6764260411196
 31
0.0
 12
394.587659274168
 22
763.9972052617969
 32
0.0
 13
395.7235034300353
 23
763.9972052617999
 33
0.0
  0
SOLID
  5
1927
330
1F
100
AcDbEntity
  8
LOGO
 62
     5
100
AcDbTrace
 10
405.756982780861
 20
775.3556468204422
 30
0.0
 11
409.0509308328679
 21
775.3556468204422
 31
0.0
 12
405.756982780861
 22
792.0146944397845
 32
0.0
 13
409.0509308328679
 23
804.09250396381
 33
0.0
  0
SOLID
  5
1928
330
1F
100
AcDbEntity
  8
LOGO
 62
     5
100
AcDbTrace
 10
410.4139438199054
 20
806.5913611067106
 30
0.0
 11
413.7078918719124
 21
806.5913611067127
 31
0.0
 12
410.4139438199054
 22
777.8545039633429
 32
0.0
 13
413.7078918719124
 23
789.932313487368
 33
0.0
  0
SOLID
  5
1929
330
1F
100
AcDbEntity
  8
LOGO
 62
     2
100
AcDbTrace
 10
409.0509308328679
 20
806.5913611067106
 30
0.0
 11
410.4139438199054
 21
806.5913611067106
 31
0.0
 12
409.0509308328679
 22
775.3556468204422
 32
0.0
 13
410.4139438199054
 23
775.3556468204422
 33
0.0
  0
SOLID
  5
192A
330
1F
100
AcDbEntity
  8
LOGO
 62
     5
100
AcDbTrace
 10
410.4139438199054
 20
777.8545039633429
 30
0.0
 11
413.7078918719124
 21
789.932313487368
 31
0.0
 12
426.088593170833
 22
806.5913611067127
 32
0.0
 13
422.794645118826
 23
806.5913611067127
 33
0.0
  0
SOLID
  5
192B
330
1F
100
AcDbEntity
  8
LOGO
 62
     5
100
AcDbTrace
 10
410.4139438199054
 20
775.3556468204422
 30
0.0
 11
413.7078918719124
 21
775.3556468204422
 31
0.0
 12
426.088593170833
 22
804.09250396381
 32
0.0
 13
422.794645118826
 23
792.0146944397845
 33
0.0
  0
SOLID
  5
192C
330
1F
100
AcDbEntity
  8
LOGO
 62
     2
100
AcDbTrace
 10
409.0509308328679
 20
775.3556468204422
 30
0.0
 11
410.4139438199054
 21
775.3556468204422
 31
0.0
 12
426.088593170833
 22
806.5913611067127
 32
0.0
 13
427.4516061578708
 23
806.5913611067106
 33
0.0
  0
TEXT
  5
192D
330
1F
100
AcDbEntity
  8
0
100
AcDbText
 10
552.1563606675165
 20
736.2710718794464
 30
0.0
 40
6.3526297996161
  1
1050713
 41
0.8
  7
CHINESET
 72
     1
 11
567.4026721865951
 21
736.2710718794464
 31
0.0
100
AcDbText
  0
LINE
  5
192E
330
1F
100
AcDbEntity
  8
LOGO
 62
     1
100
AcDbLine
 10
587.0031570180928
 20
747.4547494951982
 30
0.0
 11
587.0031570180939
 21
732.2181724558947
 31
0.0
  0
LINE
  5
192F
330
1F
100
AcDbEntity
  8
LOGO
 62
     1
100
AcDbLine
 10
587.0031570180928
 20
747.4547494951982
 30
0.0
 11
548.4175712718639
 21
747.4547494951982
 31
0.0
  0
LWPOLYLINE
  5
1930
330
1F
100
AcDbEntity
  8
0
 62
     1
100
AcDbPolyline
 90
        4
 70
     1
 43
0.0
 10
380.8152238395245
 20
808.4010576524127
 10
1372.307163914517
 20
808.4010576524127
 10
1372.307163914517
 20
732.2181724558945
 10
380.8152238395245
 20
732.2181724558945
1001
GENIUS_GENREC_14
1002
{
1000
PYDIR
1011
380.8152238395245
1021
732.2181724558945
1031
0.0
1002
}
1002
{
1000
PXDIR
1011
1372.307163914517
1021
808.4010576524127
1031
0.0
1002
}
1002
{
1000
PORI
1011
380.8152238395245
1021
808.4010576524127
1031
0.0
1002
}
1002
{
1000
PINS
1011
380.8152238395245
1021
808.4010576524127
1031
0.0
1002
}
1002
{
1000
PINS2
1011
1372.307163914517
1021
732.2181724558945
1031
0.0
1002
}
1002
{
1000
C
1070
     1
1002
}
1001
GENIUS_GENOBJ-N-REC_13
1002
{
1000
OWNER
1000
GEN
1002
}
1001
GENIUS_GENODEF_13
1002
{
1000
HIER
1070
     0
1002
}
1002
{
1000
MANEDIT
1070
     0
1002
}
1002
{
1000
NOSEL
1070
     0
1002
}
1002
{
1000
BEHIND
1070
     0
1002
}
1002
{
1000
OTHER
1070
     0
1002
}
1002
{
1000
REACTOR
1002
}
  0
LINE
  5
194B
330
1F
100
AcDbEntity
  8
LOGO
100
AcDbLine
 10
814.4052390937858
 20
826.7468087754002
 30
0.0
 11
630.0312278437854
 21
826.7468087754002
 31
0.0
  0
TEXT
  5
194C
330
1F
100
AcDbEntity
  8
LOGO
100
AcDbText
 10
642.367547456854
 20
851.2471220004481
 30
0.0
 40
9.438
  1
型式
100
AcDbText
  0
TEXT
  5
194D
330
1F
100
AcDbEntity
  8
LOGO
100
AcDbText
 10
638.9014833067744
 20
842.2091637304866
 30
0.0
 40
7.550400000000001
  1
Model
 41
0.8
  7
ROMANS1
 72
     1
 11
651.5573918782028
 21
845.9843637304867
 31
0.0
100
AcDbText
 73
     2
  0
TEXT
  5
194E
330
1F
100
AcDbEntity
  8
LOGO
100
AcDbText
 10
677.7731731764819
 20
858.4444380738265
 30
0.0
 40
7.550400000000001
  1
MGTB
  7
ROMANS
100
AcDbText
  0
TEXT
  5
194F
330
1F
100
AcDbEntity
  8
LOGO
100
AcDbText
 10
677.8339848848421
 20
834.8003580468084
 30
0.0
 40
7.550400000000001
  1
MGTU
  7
ROMANS
100
AcDbText
  0
TEXT
  5
1950
330
1F
100
AcDbEntity
  8
LOGO
100
AcDbText
 10
715.0095158233075
 20
839.3879082772416
 30
0.0
 40
9.438
  1
線性軸承
100
AcDbText
  0
TEXT
  5
1951
330
1F
100
AcDbEntity
  8
LOGO
100
AcDbText
 10
715.7319096890176
 20
830.3499500072799
 30
0.0
 40
7.550400000000001
  1
Linear bearing guide
 41
0.8
  7
ROMANS1
 72
     1
 11
763.9106525461604
 21
834.1251500072798
 31
0.0
100
AcDbText
 73
     2
  0
TEXT
  5
1952
330
1F
100
AcDbEntity
  8
LOGO
100
AcDbText
 10
715.0095158233075
 20
863.2513019640683
 30
0.0
 40
9.438
  1
含油軸襯
100
AcDbText
  0
TEXT
  5
1953
330
1F
100
AcDbEntity
  8
LOGO
100
AcDbText
 10
716.2448096470686
 20
854.213343694106
 30
0.0
 40
7.550400000000001
  1
Brass bush guide
 41
0.8
  7
ROMANS1
 72
     1
 11
757.5203296470687
 21
857.9885436941061
 31
0.0
100
AcDbText
 73
     2
  0
LINE
  5
1954
330
1F
100
AcDbEntity
  8
LOGO
100
AcDbLine
 10
814.4052390937858
 20
873.9368087754002
 30
0.0
 11
630.0312278437854
 21
873.9368087754002
 31
0.0
  0
LINE
  5
1955
330
1F
100
AcDbEntity
  8
LOGO
100
AcDbLine
 10
630.0312278437854
 20
873.9368087754
 30
0.0
 11
630.0312278437854
 21
826.7468087754002
 31
0.0
  0
LINE
  5
1956
330
1F
100
AcDbEntity
  8
LOGO
100
AcDbLine
 10
673.4460278437857
 20
873.9368087754002
 30
0.0
 11
673.4460278437857
 21
826.7468087754002
 31
0.0
  0
LINE
  5
1957
330
1F
100
AcDbEntity
  8
LOGO
100
AcDbLine
 10
814.4052390937858
 20
873.9368087754002
 30
0.0
 11
814.4052390937858
 21
826.7468087754002
 31
0.0
  0
LINE
  5
1958
330
1F
100
AcDbEntity
  8
LOGO
100
AcDbLine
 10
709.3104278437854
 20
873.9368087754002
 30
0.0
 11
709.3104278437854
 21
826.7468087754002
 31
0.0
  0
LINE
  5
1959
330
1F
100
AcDbEntity
  8
LOGO
100
AcDbLine
 10
814.4052390937858
 20
850.3418087754001
 30
0.0
 11
673.4460278437857
 21
850.3418087754001
 31
0.0
  0
TEXT
  5
195A
330
1F
100
AcDbEntity
  8
LOGO
  6
Continuous
 62
     7
100
AcDbText
 10
657.859421798376
 20
782.8551611425853
 30
0.0
 40
12.70093356145963
  1
MGTB/MGTU
  7
CHINESET
 72
     1
 11
713.1992037447359
 21
789.2056279233152
 31
0.0
100
AcDbText
 73
     2
  0
TEXT
  5
195E
330
1F
100
AcDbEntity
  8
0
100
AcDbText
 10
1099.171690463752
 20
1293.09549703742
 30
0.0
 40
16.13898
  1
RP 後支撐板
  7
CHINESET
100
AcDbText
  0
LINE
  5
1D08
330
1F
100
AcDbEntity
  8
0
 62
     4
100
AcDbLine
 10
1081.000990693753
 20
1331.649310411771
 30
0.0
 11
1081.000990693753
 21
808.4010576524123
 31
0.0
  0
ARC
  5
6906
330
1F
100
AcDbEntity
  8
AM_4
100
AcDbCircle
 10
943.7273831449388
 20
1022.318100050518
 30
0.0
 40
5.169999999999999
100
AcDbArc
 50
259.9999999999993
 51
190.000000000005
  0
ARC
  5
6907
330
1F
100
AcDbEntity
  8
AM_VIS
100
AcDbCircle
 10
512.0049767504053
 20
990.8181000519707
 30
0.0
 40
6.000000001452903
100
AcDbArc
 50
270.0000000277487
 51
0.0
  0
LINE
  5
6908
330
1F
100
AcDbEntity
  8
AM_VIS
100
AcDbLine
 10
481.5049767518583
 20
984.8181000505178
 30
0.0
 11
512.0049767518582
 21
984.8181000505176
 31
0.0
  0
LINE
  5
6909
330
1F
100
AcDbEntity
  8
AM_VIS
100
AcDbLine
 10
479.5049767518583
 20
984.8181000505178
 30
0.0
 11
481.5049767518583
 21
984.8181000505178
 31
0.0
  0
LINE
  5
690A
330
1F
100
AcDbEntity
  8
AM_VIS
100
AcDbLine
 10
449.0049767518582
 20
984.8181000505178
 30
0.0
 11
479.5049767518583
 21
984.8181000505178
 31
0.0
  0
ARC
  5
690B
330
1F
100
AcDbEntity
  8
AM_VIS
100
AcDbCircle
 10
449.0049767533109
 20
990.8181000519702
 30
0.0
 40
6.000000001452516
100
AcDbArc
 50
180.0000000277356
 51
270.0
  0
LINE
  5
690C
330
1F
100
AcDbEntity
  8
AM_VIS
100
AcDbLine
 10
443.0049767518583
 20
1021.318100050518
 30
0.0
 11
443.0049767518583
 21
990.8181000505178
 31
0.0
  0
LINE
  5
690D
330
1F
100
AcDbEntity
  8
AM_VIS
100
AcDbLine
 10
443.0049767518583
 20
1023.318100050518
 30
0.0
 11
443.0049767518583
 21
1021.318100050518
 31
0.0
  0
LINE
  5
690E
330
1F
100
AcDbEntity
  8
AM_VIS
100
AcDbLine
 10
443.0049767518583
 20
1053.818100050518
 30
0.0
 11
443.0049767518583
 21
1023.318100050518
 31
0.0
  0
ARC
  5
690F
330
1F
100
AcDbEntity
  8
AM_VIS
100
AcDbCircle
 10
449.0049767533109
 20
1053.818100049065
 30
0.0
 40
6.000000001452711
100
AcDbArc
 50
90.00000002774543
 51
180.0
  0
LINE
  5
6910
330
1F
100
AcDbEntity
  8
AM_VIS
100
AcDbLine
 10
479.5049767518583
 20
1059.818100050518
 30
0.0
 11
449.0049767518582
 21
1059.818100050518
 31
0.0
  0
LINE
  5
6911
330
1F
100
AcDbEntity
  8
AM_VIS
100
AcDbLine
 10
518.5049767518583
 20
1049.08352331155
 30
0.0
 11
518.5049767518583
 21
1047.084208661599
 31
0.0
  0
LINE
  5
6912
330
1F
100
AcDbEntity
  8
AM_VIS
100
AcDbLine
 10
518.5049767518583
 20
997.5519914394366
 30
0.0
 11
518.5049767518583
 21
995.5526767894856
 31
0.0
  0
CIRCLE
  5
6913
330
1F
100
AcDbEntity
  8
AM_VIS
100
AcDbCircle
 10
508.7549767518583
 20
1050.568100050518
 30
0.0
 40
6.750000000000002
  0
ARC
  5
6914
330
1F
100
AcDbEntity
  8
AM_VIS
100
AcDbCircle
 10
480.5049767518583
 20
1022.318100050518
 30
0.0
 40
23.0
100
AcDbArc
 50
50.22013922700494
 51
86.09439730874617
  0
ARC
  5
6915
330
1F
100
AcDbEntity
  8
AM_VIS
100
AcDbCircle
 10
480.5049767518583
 20
1022.318100050518
 30
0.0
 40
23.0
100
AcDbArc
 50
39.77986077299255
 51
50.22013922700494
  0
ARC
  5
6916
330
1F
100
AcDbEntity
  8
AM_VIS
100
AcDbCircle
 10
480.5049767518583
 20
1022.318100050518
 30
0.0
 40
23.0
100
AcDbArc
 50
3.905602691247319
 51
39.77986077299255
  0
ARC
  5
6917
330
1F
100
AcDbEntity
  8
AM_VIS
100
AcDbCircle
 10
480.5049767518583
 20
1022.318100050518
 30
0.0
 40
23.0
100
AcDbArc
 50
356.0943973087526
 51
3.905602691247319
  0
ARC
  5
6918
330
1F
100
AcDbEntity
  8
AM_VIS
100
AcDbCircle
 10
480.5049767518583
 20
1022.318100050518
 30
0.0
 40
23.0
100
AcDbArc
 50
320.2201392270075
 51
356.0943973087526
  0
ARC
  5
6919
330
1F
100
AcDbEntity
  8
AM_VIS
100
AcDbCircle
 10
480.5049767518583
 20
1022.318100050518
 30
0.0
 40
23.0
100
AcDbArc
 50
309.779860772995
 51
320.2201392270075
  0
ARC
  5
691A
330
1F
100
AcDbEntity
  8
AM_VIS
100
AcDbCircle
 10
480.5049767518583
 20
1022.318100050518
 30
0.0
 40
23.0
100
AcDbArc
 50
273.9056026912538
 51
309.779860772995
  0
ARC
  5
691B
330
1F
100
AcDbEntity
  8
AM_VIS
100
AcDbCircle
 10
480.5049767518583
 20
1022.318100050518
 30
0.0
 40
23.0
100
AcDbArc
 50
266.0943973087462
 51
273.9056026912538
  0
ARC
  5
691C
330
1F
100
AcDbEntity
  8
AM_VIS
100
AcDbCircle
 10
480.5049767518583
 20
1022.318100050518
 30
0.0
 40
23.0
100
AcDbArc
 50
230.220139227005
 51
266.0943973087462
  0
ARC
  5
691D
330
1F
100
AcDbEntity
  8
AM_VIS
100
AcDbCircle
 10
480.5049767518583
 20
1022.318100050518
 30
0.0
 40
23.0
100
AcDbArc
 50
219.7798607729926
 51
230.220139227005
  0
ARC
  5
691E
330
1F
100
AcDbEntity
  8
AM_VIS
100
AcDbCircle
 10
480.5049767518583
 20
1022.318100050518
 30
0.0
 40
23.0
100
AcDbArc
 50
183.9056026912603
 51
219.7798607729926
  0
ARC
  5
691F
330
1F
100
AcDbEntity
  8
AM_VIS
100
AcDbCircle
 10
480.5049767518583
 20
1022.318100050518
 30
0.0
 40
23.0
100
AcDbArc
 50
176.0943973087397
 51
183.9056026912603
  0
ARC
  5
6920
330
1F
100
AcDbEntity
  8
AM_VIS
100
AcDbCircle
 10
480.5049767518583
 20
1022.318100050518
 30
0.0
 40
23.0
100
AcDbArc
 50
140.2201392270074
 51
176.0943973087397
  0
ARC
  5
6921
330
1F
100
AcDbEntity
  8
AM_VIS
100
AcDbCircle
 10
480.5049767518583
 20
1022.318100050518
 30
0.0
 40
23.0
100
AcDbArc
 50
129.779860772995
 51
140.2201392270074
  0
ARC
  5
6922
330
1F
100
AcDbEntity
  8
AM_VIS
100
AcDbCircle
 10
480.5049767518583
 20
1022.318100050518
 30
0.0
 40
23.0
100
AcDbArc
 50
93.9056026912538
 51
129.779860772995
  0
ARC
  5
6923
330
1F
100
AcDbEntity
  8
AM_VIS
100
AcDbCircle
 10
480.5049767518583
 20
1022.318100050518
 30
0.0
 40
23.0
100
AcDbArc
 50
86.09439730874617
 51
93.9056026912538
  0
CIRCLE
  5
6924
330
1F
100
AcDbEntity
  8
AM_VIS
100
AcDbCircle
 10
480.5049767518583
 20
1022.318100050518
 30
0.0
 40
21.64999999999999
  0
ARC
  5
6925
330
1F
100
AcDbEntity
  8
AM_4
100
AcDbCircle
 10
508.754976751858
 20
1050.568100050518
 30
0.0
 40
4.0
100
AcDbArc
 50
259.9999999999993
 51
190.000000000005
  0
LINE
  5
6926
330
1F
100
AcDbEntity
  8
AM_VIS
100
AcDbLine
 10
715.4644615768241
 20
999.7705357710588
 30
0.0
 11
608.4644615768241
 21
999.7705357710588
 31
0.0
  0
LINE
  5
6927
330
1F
100
AcDbEntity
  8
AM_VIS
100
AcDbLine
 10
608.4644615768241
 20
986.6181000505177
 30
0.0
 11
715.4644615768241
 21
986.6181000505177
 31
0.0
  0
LINE
  5
6928
330
1F
100
AcDbEntity
  8
AM_VIS
100
AcDbLine
 10
608.4644615768241
 20
1058.018100050518
 30
0.0
 11
715.4644615768241
 21
1058.018100050518
 31
0.0
  0
LINE
  5
6929
330
1F
100
AcDbEntity
  8
AM_VIS
100
AcDbLine
 10
608.4644615768241
 20
1000.579346156524
 30
0.0
 11
715.4644615768241
 21
1000.579346156524
 31
0.0
  0
LINE
  5
692A
330
1F
100
AcDbEntity
  8
AM_VIS
100
AcDbLine
 10
608.4644615768241
 20
1005.125169923013
 30
0.0
 11
715.4644615768241
 21
1005.125169923013
 31
0.0
  0
LINE
  5
692B
330
1F
100
AcDbEntity
  8
AM_VIS
100
AcDbLine
 10
805.4644615768241
 20
1009.818100050518
 30
0.0
 11
803.4644615768241
 21
1011.818100050518
 31
0.0
  0
LINE
  5
692C
330
1F
100
AcDbEntity
  8
AM_VIS
100
AcDbLine
 10
796.4644615768242
 20
1011.818100050518
 30
0.0
 11
803.4644615768241
 21
1011.818100050518
 31
0.0
  0
LINE
  5
692D
330
1F
100
AcDbEntity
  8
AM_VIS
100
AcDbLine
 10
803.4644615768241
 20
1032.818100050518
 30
0.0
 11
796.4644615768242
 21
1032.818100050518
 31
0.0
  0
LINE
  5
692E
330
1F
100
AcDbEntity
  8
AM_VIS
100
AcDbLine
 10
803.4644615768241
 20
1015.535770067393
 30
0.0
 11
796.4644615768242
 21
1015.535770067393
 31
0.0
  0
LINE
  5
692F
330
1F
100
AcDbEntity
  8
AM_VIS
100
AcDbLine
 10
796.4644615768242
 20
1029.100430033643
 30
0.0
 11
803.4644615768241
 21
1029.100430033643
 31
0.0
  0
LINE
  5
6930
330
1F
100
AcDbEntity
  8
AM_VIS
100
AcDbLine
 10
803.4644615768241
 20
1032.818100050518
 30
0.0
 11
805.4644615768241
 21
1034.818100050518
 31
0.0
  0
LINE
  5
6931
330
1F
100
AcDbEntity
  8
AM_VIS
100
AcDbLine
 10
803.4644615768241
 20
1015.535770067393
 30
0.0
 11
803.4644615768241
 21
1029.100430033643
 31
0.0
  0
ARC
  5
6932
330
1F
100
AcDbEntity
  8
AM_VIS
100
AcDbCircle
 10
792.9644615768242
 20
1022.318100050518
 30
0.0
 40
12.5
100
AcDbArc
 50
327.1401196211124
 51
32.85988037888758
  0
LINE
  5
6933
330
1F
100
AcDbEntity
  8
AM_VIS
100
AcDbLine
 10
796.4644615768242
 20
1015.535770067393
 30
0.0
 11
796.4644615768242
 21
1016.508625031207
 31
0.0
  0
LINE
  5
6934
330
1F
100
AcDbEntity
  8
AM_VIS
100
AcDbLine
 10
796.4644615768242
 20
1028.127575069828
 30
0.0
 11
796.4644615768242
 21
1029.100430033643
 31
0.0
  0
LINE
  5
6935
330
1F
100
AcDbEntity
  8
AM_VIS
100
AcDbLine
 10
806.4644615768241
 20
1034.818100050518
 30
0.0
 11
805.4644615768241
 21
1034.818100050518
 31
0.0
  0
LINE
  5
6936
330
1F
100
AcDbEntity
  8
AM_VIS
100
AcDbLine
 10
806.4644615768241
 20
1009.818100050518
 30
0.0
 11
805.4644615768241
 21
1009.818100050518
 31
0.0
  0
LINE
  5
6937
330
1F
100
AcDbEntity
  8
AM_VIS
100
AcDbLine
 10
796.4644615768242
 20
1011.818100050518
 30
0.0
 11
796.4644615768242
 21
1015.535770067393
 31
0.0
  0
LINE
  5
6938
330
1F
100
AcDbEntity
  8
AM_VIS
100
AcDbLine
 10
796.4644615768242
 20
1029.100430033643
 30
0.0
 11
796.4644615768242
 21
1032.818100050518
 31
0.0
  0
LINE
  5
6939
330
1F
100
AcDbEntity
  8
AM_VIS
100
AcDbLine
 10
806.4644615768241
 20
995.318100050518
 30
0.0
 11
821.4644615768241
 21
995.318100050518
 31
0.0
  0
LINE
  5
693A
330
1F
100
AcDbEntity
  8
AM_VIS
100
AcDbLine
 10
806.4644615768241
 20
1049.318100050518
 30
0.0
 11
821.4644615768241
 21
1049.318100050518
 31
0.0
  0
LINE
  5
693B
330
1F
100
AcDbEntity
  8
AM_VIS
100
AcDbLine
 10
806.4644615768241
 20
995.318100050518
 30
0.0
 11
806.4644615768241
 21
1049.318100050518
 31
0.0
  0
LINE
  5
693C
330
1F
100
AcDbEntity
  8
AM_VIS
100
AcDbLine
 10
841.4644615768242
 20
947.318100050518
 30
0.0
 11
821.4644615768241
 21
947.318100050518
 31
0.0
  0
LINE
  5
693D
330
1F
100
AcDbEntity
  8
AM_VIS
100
AcDbLine
 10
841.4644615768242
 20
1097.318100050518
 30
0.0
 11
821.4644615768241
 21
1097.318100050518
 31
0.0
  0
LINE
  5
693E
330
1F
100
AcDbEntity
  8
AM_VIS
100
AcDbLine
 10
821.4644615768241
 20
1097.318100050518
 30
0.0
 11
821.4644615768241
 21
947.318100050518
 31
0.0
  0
LINE
  5
693F
330
1F
100
AcDbEntity
  8
AM_VIS
100
AcDbLine
 10
841.4644615768242
 20
947.318100050518
 30
0.0
 11
841.4644615768242
 21
1097.318100050518
 31
0.0
  0
SPLINE
  5
6940
330
1F
100
AcDbEntity
  8
AM_VIS
100
AcDbSpline
210
0.0
220
0.0
230
1.0
 70
    12
 71
     2
 72
     6
 73
     3
 74
     0
 42
0.0000000001
 43
0.0000000001
 40
0.0
 40
0.0
 40
0.0
 40
14.02486994289525
 40
14.02486994289525
 40
14.02486994289525
 10
787.5383330775173
 20
1015.388100050517
 30
0.0
 41
1.0
 10
785.5378143947749
 20
1022.318100050517
 30
0.0
 41
1.154700538379258
 10
787.5383330775169
 20
1029.248100050517
 30
0.0
 41
1.0
  0
SPLINE
  5
6941
330
1F
100
AcDbEntity
  8
AM_VIS
100
AcDbSpline
210
0.0
220
0.0
230
1.0
 70
    12
 71
     2
 72
     6
 73
     3
 74
     0
 42
0.0000000001
 43
0.0000000001
 40
0.0
 40
0.0
 40
0.0
 40
14.02486994289525
 40
14.02486994289525
 40
14.02486994289525
 10
795.3905900761315
 20
1029.248100050518
 30
0.0
 41
1.0
 10
797.3911087588738
 20
1022.318100050517
 30
0.0
 41
1.154700538379223
 10
795.3905900761319
 20
1015.388100050517
 30
0.0
 41
1.0
  0
LINE
  5
6942
330
1F
100
AcDbEntity
  8
AM_VIS
100
AcDbLine
 10
795.3905900761315
 20
1029.248100050518
 30
0.0
 11
787.5383330775169
 21
1029.248100050517
 31
0.0
  0
SPLINE
  5
6943
330
1F
100
AcDbEntity
  8
AM_VIS
100
AcDbSpline
210
0.0
220
0.0
230
1.0
 70
    12
 71
     2
 72
     6
 73
     3
 74
     0
 42
0.0000000001
 43
0.0000000001
 40
0.0
 40
0.0
 40
0.0
 40
14.02486994289486
 40
14.02486994289486
 40
14.02486994289486
 10
787.5383330775169
 20
1029.248100050517
 30
0.0
 41
1.0
 10
785.5378143947747
 20
1032.713100050517
 30
0.0
 41
1.154700538379267
 10
787.5383330775164
 20
1036.178100050517
 30
0.0
 41
1.0
  0
SPLINE
  5
6944
330
1F
100
AcDbEntity
  8
AM_VIS
100
AcDbSpline
210
0.0
220
0.0
230
1.0
 70
    12
 71
     2
 72
     6
 73
     3
 74
     0
 42
0.0000000001
 43
0.0000000001
 40
0.0
 40
0.0
 40
0.0
 40
14.02486994289476
 40
14.02486994289476
 40
14.02486994289476
 10
795.3905900761309
 20
1036.178100050517
 30
0.0
 41
1.0
 10
797.3911087588732
 20
1032.713100050518
 30
0.0
 41
1.154700538379267
 10
795.3905900761315
 20
1029.248100050518
 30
0.0
 41
1.0
  0
LINE
  5
6945
330
1F
100
AcDbEntity
  8
AM_VIS
100
AcDbLine
 10
795.390590076131
 20
1036.178100050517
 30
0.0
 11
787.5383330775164
 21
1036.178100050517
 31
0.0
  0
LINE
  5
6946
330
1F
100
AcDbEntity
  8
AM_VIS
100
AcDbLine
 10
795.3905900761318
 20
1008.458100050517
 30
0.0
 11
787.5383330775173
 21
1008.458100050517
 31
0.0
  0
SPLINE
  5
6947
330
1F
100
AcDbEntity
  8
AM_VIS
100
AcDbSpline
210
0.0
220
0.0
230
1.0
 70
    12
 71
     2
 72
     6
 73
     3
 74
     0
 42
0.0000000001
 43
0.0000000001
 40
0.0
 40
0.0
 40
0.0
 40
14.02486994289492
 40
14.02486994289492
 40
14.02486994289492
 10
787.5383330775173
 20
1008.458100050517
 30
0.0
 41
1.0
 10
785.5378143947753
 20
1011.923100050517
 30
0.0
 41
1.154700538379267
 10
787.5383330775173
 20
1015.388100050517
 30
0.0
 41
1.0
  0
LINE
  5
6948
330
1F
100
AcDbEntity
  8
AM_VIS
100
AcDbLine
 10
795.3905900761319
 20
1015.388100050517
 30
0.0
 11
787.5383330775173
 21
1015.388100050517
 31
0.0
  0
SPLINE
  5
6949
330
1F
100
AcDbEntity
  8
AM_VIS
100
AcDbSpline
210
0.0
220
0.0
230
1.0
 70
    12
 71
     2
 72
     6
 73
     3
 74
     0
 42
0.0000000001
 43
0.0000000001
 40
0.0
 40
0.0
 40
0.0
 40
14.02486994289476
 40
14.02486994289476
 40
14.02486994289476
 10
795.3905900761319
 20
1015.388100050517
 30
0.0
 41
1.0
 10
797.391108758874
 20
1011.923100050517
 30
0.0
 41
1.154700538379267
 10
795.3905900761319
 20
1008.458100050518
 30
0.0
 41
1.0
  0
LINE
  5
694A
330
1F
100
AcDbEntity
  8
AM_VIS
100
AcDbLine
 10
796.4644615768239
 20
1034.318100050518
 30
0.0
 11
795.3905900761311
 21
1036.178100050517
 31
0.0
  0
LINE
  5
694B
330
1F
100
AcDbEntity
  8
AM_VIS
100
AcDbLine
 10
796.4644615768244
 20
1010.318100050518
 30
0.0
 11
795.3905900761317
 21
1008.458100050518
 31
0.0
  0
LINE
  5
694C
330
1F
100
AcDbEntity
  8
AM_VIS
100
AcDbLine
 10
786.4644615768244
 20
1010.318100050517
 30
0.0
 11
787.5383330775172
 21
1008.458100050517
 31
0.0
  0
LINE
  5
694D
330
1F
100
AcDbEntity
  8
AM_VIS
100
AcDbLine
 10
786.464461576824
 20
1034.318100050517
 30
0.0
 11
787.5383330775165
 21
1036.178100050517
 31
0.0
  0
LINE
  5
694E
330
1F
100
AcDbEntity
  8
AM_VIS
100
AcDbLine
 10
796.4644615768239
 20
1032.818100050518
 30
0.0
 11
796.4644615768238
 21
1034.318100050517
 31
0.0
  0
LINE
  5
694F
330
1F
100
AcDbEntity
  8
AM_VIS
100
AcDbLine
 10
796.4644615768246
 20
1016.508625031207
 30
0.0
 11
796.4644615768242
 21
1028.127575069828
 31
0.0
  0
LINE
  5
6950
330
1F
100
AcDbEntity
  8
AM_VIS
100
AcDbLine
 10
796.4644615768245
 20
1010.318100050517
 30
0.0
 11
796.4644615768246
 21
1011.818100050518
 31
0.0
  0
LINE
  5
6951
330
1F
100
AcDbEntity
  8
AM_VIS
100
AcDbLine
 10
786.4644615768245
 20
1010.318100050517
 30
0.0
 11
786.4644615768238
 21
1034.318100050517
 31
0.0
  0
LINE
  5
6952
330
1F
100
AcDbEntity
  8
AM_VIS
100
AcDbLine
 10
562.4644615768241
 20
1071.818100050518
 30
0.0
 11
651.464461576824
 21
1071.818100050518
 31
0.0
  0
LINE
  5
6953
330
1F
100
AcDbEntity
  8
AM_VIS
100
AcDbLine
 10
816.4644615768242
 20
1071.818100050518
 30
0.0
 11
821.4644615768241
 21
1071.818100050518
 31
0.0
  0
LINE
  5
6954
330
1F
100
AcDbEntity
  8
AM_VIS
100
AcDbLine
 10
562.4644615768241
 20
1091.818100050518
 30
0.0
 11
651.4644615768243
 21
1091.818100050518
 31
0.0
  0
LINE
  5
6955
330
1F
100
AcDbEntity
  8
AM_VIS
100
AcDbLine
 10
816.4644615768242
 20
1091.818100050518
 30
0.0
 11
821.4644615768241
 21
1091.818100050518
 31
0.0
  0
LINE
  5
6956
330
1F
100
AcDbEntity
  8
AM_VIS
100
AcDbLine
 10
561.4644615768241
 20
1072.818100050518
 30
0.0
 11
562.4644615768241
 21
1071.818100050518
 31
0.0
  0
LINE
  5
6957
330
1F
100
AcDbEntity
  8
AM_VIS
100
AcDbLine
 10
561.4644615768241
 20
1090.818100050518
 30
0.0
 11
562.4644615768241
 21
1091.818100050518
 31
0.0
  0
LINE
  5
6958
330
1F
100
AcDbEntity
  8
AM_VIS
100
AcDbLine
 10
562.4644615768241
 20
1091.818100050518
 30
0.0
 11
562.4644615768241
 21
1071.818100050518
 31
0.0
  0
LINE
  5
6959
330
1F
100
AcDbEntity
  8
AM_VIS
100
AcDbLine
 10
561.4644615768241
 20
1072.818100050518
 30
0.0
 11
561.4644615768241
 21
1090.818100050518
 31
0.0
  0
LINE
  5
695A
330
1F
100
AcDbEntity
  8
AM_VIS
100
AcDbLine
 10
562.4644615768241
 20
952.8181000505181
 30
0.0
 11
651.4644615768242
 21
952.8181000505181
 31
0.0
  0
LINE
  5
695B
330
1F
100
AcDbEntity
  8
AM_VIS
100
AcDbLine
 10
816.4644615768242
 20
952.8181000505181
 30
0.0
 11
821.4644615768241
 21
952.8181000505181
 31
0.0
  0
LINE
  5
695C
330
1F
100
AcDbEntity
  8
AM_VIS
100
AcDbLine
 10
562.4644615768241
 20
972.818100050518
 30
0.0
 11
651.4644615768243
 21
972.818100050518
 31
0.0
  0
LINE
  5
695D
330
1F
100
AcDbEntity
  8
AM_VIS
100
AcDbLine
 10
816.4644615768242
 20
972.818100050518
 30
0.0
 11
821.4644615768241
 21
972.818100050518
 31
0.0
  0
LINE
  5
695E
330
1F
100
AcDbEntity
  8
AM_VIS
100
AcDbLine
 10
561.4644615768241
 20
953.8181000505181
 30
0.0
 11
562.4644615768241
 21
952.8181000505181
 31
0.0
  0
LINE
  5
695F
330
1F
100
AcDbEntity
  8
AM_VIS
100
AcDbLine
 10
561.4644615768241
 20
971.8181000505181
 30
0.0
 11
562.4644615768241
 21
972.818100050518
 31
0.0
  0
LINE
  5
6960
330
1F
100
AcDbEntity
  8
AM_VIS
100
AcDbLine
 10
562.4644615768241
 20
972.818100050518
 30
0.0
 11
562.4644615768241
 21
952.8181000505181
 31
0.0
  0
LINE
  5
6961
330
1F
100
AcDbEntity
  8
AM_VIS
100
AcDbLine
 10
561.4644615768241
 20
953.8181000505181
 30
0.0
 11
561.4644615768241
 21
971.8181000505181
 31
0.0
  0
LINE
  5
6962
330
1F
100
AcDbEntity
  8
AM_VIS
100
AcDbLine
 10
747.4644615768242
 20
981.3181000505183
 30
0.0
 11
747.4644615768242
 21
1063.318100050518
 31
0.0
  0
LINE
  5
6963
330
1F
100
AcDbEntity
  8
AM_VIS
100
AcDbLine
 10
651.4644615768242
 20
981.3181000505183
 30
0.0
 11
747.4644615768242
 21
981.3181000505183
 31
0.0
  0
LINE
  5
6964
330
1F
100
AcDbEntity
  8
AM_VIS
100
AcDbLine
 10
651.4644615768242
 20
944.5681000505183
 30
0.0
 11
651.4644615768242
 21
981.3181000505183
 31
0.0
  0
LINE
  5
6965
330
1F
100
AcDbEntity
  8
AM_VIS
100
AcDbLine
 10
816.4644615768242
 20
981.3181000505183
 30
0.0
 11
816.4644615768242
 21
944.5681000505183
 31
0.0
  0
LINE
  5
6966
330
1F
100
AcDbEntity
  8
AM_VIS
100
AcDbLine
 10
773.4644615768242
 20
981.3181000505183
 30
0.0
 11
816.4644615768242
 21
981.3181000505183
 31
0.0
  0
LINE
  5
6967
330
1F
100
AcDbEntity
  8
AM_VIS
100
AcDbLine
 10
773.4644615768242
 20
1063.318100050518
 30
0.0
 11
773.4644615768242
 21
981.3181000505183
 31
0.0
  0
LINE
  5
6968
330
1F
100
AcDbEntity
  8
AM_VIS
100
AcDbLine
 10
816.4644615768242
 20
1063.318100050518
 30
0.0
 11
773.4644615768242
 21
1063.318100050518
 31
0.0
  0
LINE
  5
6969
330
1F
100
AcDbEntity
  8
AM_VIS
100
AcDbLine
 10
816.4644615768242
 20
1100.068100050518
 30
0.0
 11
816.4644615768242
 21
1063.318100050518
 31
0.0
  0
LINE
  5
696A
330
1F
100
AcDbEntity
  8
AM_VIS
100
AcDbLine
 10
651.4644615768242
 20
1063.318100050518
 30
0.0
 11
651.4644615768242
 21
1100.068100050518
 31
0.0
  0
LINE
  5
696B
330
1F
100
AcDbEntity
  8
AM_VIS
100
AcDbLine
 10
747.4644615768242
 20
1063.318100050518
 30
0.0
 11
651.4644615768242
 21
1063.318100050518
 31
0.0
  0
LINE
  5
696C
330
1F
100
AcDbEntity
  8
AM_VIS
100
AcDbLine
 10
697.9644615768242
 20
944.5681000505183
 30
0.0
 11
651.4644615768242
 21
944.5681000505183
 31
0.0
  0
LINE
  5
696D
330
1F
100
AcDbEntity
  8
AM_VIS
100
AcDbLine
 10
816.4644615768242
 20
944.5681000505183
 30
0.0
 11
778.4644615768241
 21
944.5681000505183
 31
0.0
  0
LINE
  5
696E
330
1F
100
AcDbEntity
  8
AM_VIS
100
AcDbLine
 10
778.4644615768241
 20
1100.068100050518
 30
0.0
 11
816.4644615768242
 21
1100.068100050518
 31
0.0
  0
LINE
  5
696F
330
1F
100
AcDbEntity
  8
AM_VIS
100
AcDbLine
 10
651.4644615768242
 20
1100.068100050518
 30
0.0
 11
697.9644615768242
 21
1100.068100050518
 31
0.0
  0
LINE
  5
6970
330
1F
100
AcDbEntity
  8
AM_VIS
100
AcDbLine
 10
697.9644615768242
 20
944.3181000505182
 30
0.0
 11
697.9644615768242
 21
944.5681000505183
 31
0.0
  0
LINE
  5
6971
330
1F
100
AcDbEntity
  8
AM_VIS
100
AcDbLine
 10
778.4644615768241
 20
944.5681000505183
 30
0.0
 11
778.4644615768241
 21
944.3181000505182
 31
0.0
  0
LINE
  5
6972
330
1F
100
AcDbEntity
  8
AM_VIS
100
AcDbLine
 10
778.4644615768241
 20
1100.318100050518
 30
0.0
 11
778.4644615768241
 21
1100.068100050518
 31
0.0
  0
LINE
  5
6973
330
1F
100
AcDbEntity
  8
AM_VIS
100
AcDbLine
 10
697.9644615768242
 20
1100.068100050518
 30
0.0
 11
697.9644615768242
 21
1100.318100050518
 31
0.0
  0
LINE
  5
6974
330
1F
100
AcDbEntity
  8
AM_VIS
100
AcDbLine
 10
778.4644615768243
 20
944.3181000505182
 30
0.0
 11
697.9644615768243
 21
944.3181000505182
 31
0.0
  0
LINE
  5
6975
330
1F
100
AcDbEntity
  8
AM_VIS
100
AcDbLine
 10
697.9644615768241
 20
1100.318100050518
 30
0.0
 11
778.4644615768241
 21
1100.318100050518
 31
0.0
  0
LINE
  5
697A
330
1F
100
AcDbEntity
  8
AM_VIS
100
AcDbLine
 10
782.4644615768244
 20
1030.318100050515
 30
0.0
 11
784.4649934079939
 21
1030.318100050515
 31
0.0
  0
LINE
  5
697B
330
1F
100
AcDbEntity
  8
AM_VIS
100
AcDbLine
 10
782.4644615768244
 20
1030.318100050515
 30
0.0
 11
776.4644615768244
 21
1030.318100050516
 31
0.0
  0
LINE
  5
697C
330
1F
100
AcDbEntity
  8
AM_VIS
100
AcDbLine
 10
774.4644615768243
 20
1032.318100050515
 30
0.0
 11
776.4644615768244
 21
1030.318100050515
 31
0.0
  0
LINE
  5
697D
330
1F
100
AcDbEntity
  8
AM_VIS
100
AcDbLine
 10
776.4644615768242
 20
1014.318100050516
 30
0.0
 11
782.4644615768241
 21
1014.318100050515
 31
0.0
  0
LINE
  5
697E
330
1F
100
AcDbEntity
  8
AM_VIS
100
AcDbLine
 10
782.4644615768241
 20
1014.318100050515
 30
0.0
 11
784.4653231579926
 21
1014.318100050515
 31
0.0
  0
LINE
  5
697F
330
1F
100
AcDbEntity
  8
AM_VIS
100
AcDbLine
 10
776.4644615768243
 20
1014.318100050516
 30
0.0
 11
774.464461576824
 21
1012.318100050515
 31
0.0
  0
LINE
  5
6980
330
1F
100
AcDbEntity
  8
AM_VIS
100
AcDbLine
 10
784.464461576824
 20
1014.318100050515
 30
0.0
 11
786.4644615768241
 21
1014.318100050515
 31
0.0
  0
LINE
  5
6981
330
1F
100
AcDbEntity
  8
AM_VIS
100
AcDbLine
 10
784.4644615768243
 20
1030.318100050515
 30
0.0
 11
786.4644615768242
 21
1030.318100050515
 31
0.0
  0
LINE
  5
6983
330
1F
100
AcDbEntity
  8
AM_VIS
100
AcDbLine
 10
773.4644615768242
 20
1012.318100050515
 30
0.0
 11
774.4644615768241
 21
1012.318100050515
 31
0.0
  0
LINE
  5
6984
330
1F
100
AcDbEntity
  8
AM_VIS
100
AcDbLine
 10
773.4644615768242
 20
1032.318100050516
 30
0.0
 11
774.4644615768243
 21
1032.318100050516
 31
0.0
  0
LINE
  5
6985
330
1F
100
AcDbEntity
  8
AM_VIS
100
AcDbLine
 10
784.4644615768243
 20
1030.318100050515
 30
0.0
 11
784.464461576824
 21
1014.318100050515
 31
0.0
  0
LINE
  5
6987
330
1F
100
AcDbEntity
  8
AM_VIS
100
AcDbLine
 10
580.4121076802083
 20
1049.08352331155
 30
0.0
 11
608.464461576824
 21
1049.818100050518
 31
0.0
  0
LINE
  5
6988
330
1F
100
AcDbEntity
  8
AM_VIS
100
AcDbLine
 10
608.464461576824
 20
994.8181000505176
 30
0.0
 11
580.4121076802083
 21
995.5526767894856
 31
0.0
  0
LINE
  5
6989
330
1F
100
AcDbEntity
  8
AM_VIS
100
AcDbLine
 10
578.464461576824
 20
997.5519914394366
 30
0.0
 11
578.464461576824
 21
1047.084208661599
 31
0.0
  0
LINE
  5
698A
330
1F
100
AcDbEntity
  8
AM_VIS
100
AcDbLine
 10
576.465099778939
 20
1059.782223399315
 30
0.0
 11
608.4638684517575
 21
1060.351442687023
 31
0.0
  0
LINE
  5
698B
330
1F
100
AcDbEntity
  8
AM_VIS
100
AcDbLine
 10
576.465099778939
 20
984.8539767017197
 30
0.0
 11
608.4638684517575
 21
984.2847574140117
 31
0.0
  0
LINE
  5
698C
330
1F
100
AcDbEntity
  8
AM_VIS
100
AcDbLine
 10
608.4644615768241
 20
990.3181000505178
 30
0.0
 11
608.4644615768241
 21
994.8181000505178
 31
0.0
  0
LINE
  5
698D
330
1F
100
AcDbEntity
  8
AM_VIS
100
AcDbLine
 10
608.4644615768241
 20
994.8181000505178
 30
0.0
 11
608.4644615768241
 21
1049.818100050518
 31
0.0
  0
LINE
  5
698E
330
1F
100
AcDbEntity
  8
AM_VIS
100
AcDbLine
 10
608.4644615768241
 20
1049.818100050518
 30
0.0
 11
608.4644615768241
 21
1054.318100050518
 31
0.0
  0
LINE
  5
698F
330
1F
100
AcDbEntity
  8
AM_VIS
100
AcDbLine
 10
608.4644615768241
 20
1060.318100050518
 30
0.0
 11
608.4644615768241
 21
1054.318100050518
 31
0.0
  0
LINE
  5
6990
330
1F
100
AcDbEntity
  8
AM_VIS
100
AcDbLine
 10
608.4644615768241
 20
990.3181000505178
 30
0.0
 11
608.4644615768241
 21
984.3181000505179
 31
0.0
  0
LINE
  5
6991
330
1F
100
AcDbEntity
  8
AM_VIS
100
AcDbLine
 10
576.4644615768242
 20
1059.818100050518
 30
0.0
 11
576.4644615768242
 21
1053.818100050518
 31
0.0
  0
LINE
  5
6992
330
1F
100
AcDbEntity
  8
AM_VIS
100
AcDbLine
 10
576.464461576824
 20
1023.318100050518
 30
0.0
 11
576.464461576824
 21
1053.818100050518
 31
0.0
  0
LINE
  5
6993
330
1F
100
AcDbEntity
  8
AM_VIS
100
AcDbLine
 10
576.464461576824
 20
1021.318100050518
 30
0.0
 11
576.464461576824
 21
1023.318100050518
 31
0.0
  0
LINE
  5
6994
330
1F
100
AcDbEntity
  8
AM_VIS
100
AcDbLine
 10
576.464461576824
 20
990.8181000505178
 30
0.0
 11
576.464461576824
 21
1021.318100050518
 31
0.0
  0
LINE
  5
6995
330
1F
100
AcDbEntity
  8
AM_VIS
100
AcDbLine
 10
576.464461576824
 20
990.8181000505178
 30
0.0
 11
576.464461576824
 21
984.8181000505178
 31
0.0
  0
LINE
  5
6996
330
1F
100
AcDbEntity
  8
AM_VIS
100
AcDbLine
 10
573.4606552943203
 20
999.5809331002368
 30
0.0
 11
576.4644615768242
 21
999.3181000505177
 31
0.0
  0
LINE
  5
6997
330
1F
100
AcDbEntity
  8
AM_VIS
100
AcDbLine
 10
573.4606552943203
 20
1045.055267000798
 30
0.0
 11
576.4644615768242
 21
1045.318100050518
 31
0.0
  0
LINE
  5
6998
330
1F
100
AcDbEntity
  8
AM_VIS
100
AcDbLine
 10
572.4644615768242
 20
1000.668100050518
 30
0.0
 11
573.4606552943201
 21
999.5809331002368
 31
0.0
  0
LINE
  5
6999
330
1F
100
AcDbEntity
  8
AM_VIS
100
AcDbLine
 10
572.4644615768242
 20
1043.968100050517
 30
0.0
 11
573.4606552943201
 21
1045.055267000798
 31
0.0
  0
ARC
  5
699A
330
1F
100
AcDbEntity
  8
AM_VIS
100
AcDbCircle
 10
580.464461576824
 20
1047.084208661599
 30
0.0
 40
2.0
100
AcDbArc
 50
91.50000000000281
 51
180.0
  0
ARC
  5
699B
330
1F
100
AcDbEntity
  8
AM_VIS
100
AcDbCircle
 10
580.464461576824
 20
997.5519914394366
 30
0.0
 40
2.0
100
AcDbArc
 50
180.0
 51
268.4999999999972
  0
CIRCLE
  5
699C
330
1F
100
AcDbEntity
  8
AM_VIS
100
AcDbCircle
 10
591.9644615768241
 20
1015.318100050518
 30
0.0
 40
11.1
  0
CIRCLE
  5
699D
330
1F
100
AcDbEntity
  8
AM_VIS
100
AcDbCircle
 10
601.464461576824
 20
1031.318100050518
 30
0.0
 40
6.049999999999998
  0
LINE
  5
69A6
330
1F
100
AcDbEntity
  8
AM_VIS
100
AcDbLine
 10
573.4606552943203
 20
1045.055267000798
 30
0.0
 11
573.4606552943203
 21
999.5809331002369
 31
0.0
  0
LINE
  5
69A7
330
1F
100
AcDbEntity
  8
AM_VIS
100
AcDbLine
 10
572.4644615768242
 20
1000.668100050518
 30
0.0
 11
572.4644615768242
 21
1043.968100050517
 31
0.0
  0
LINE
  5
69A9
330
1F
100
AcDbEntity
  8
AM_VIS
100
AcDbLine
 10
743.5168154734398
 20
995.5526767894857
 30
0.0
 11
715.4644615768241
 21
994.8181000505178
 31
0.0
  0
LINE
  5
69AA
330
1F
100
AcDbEntity
  8
AM_VIS
100
AcDbLine
 10
715.4644615768241
 20
1049.818100050518
 30
0.0
 11
743.5168154734398
 21
1049.08352331155
 31
0.0
  0
LINE
  5
69AB
330
1F
100
AcDbEntity
  8
AM_VIS
100
AcDbLine
 10
745.464461576824
 20
1047.084208661599
 30
0.0
 11
745.464461576824
 21
997.551991439437
 31
0.0
  0
LINE
  5
69AC
330
1F
100
AcDbEntity
  8
AM_VIS
100
AcDbLine
 10
715.4650547018905
 20
984.2847574140119
 30
0.0
 11
747.4638233747091
 21
984.85397670172
 31
0.0
  0
LINE
  5
69AD
330
1F
100
AcDbEntity
  8
AM_VIS
100
AcDbLine
 10
715.4650547018907
 20
1060.351442687024
 30
0.0
 11
747.4638233747091
 21
1059.782223399316
 31
0.0
  0
LINE
  5
69AE
330
1F
100
AcDbEntity
  8
AM_VIS
100
AcDbLine
 10
715.4644615768241
 20
1054.318100050518
 30
0.0
 11
715.4644615768241
 21
1049.818100050518
 31
0.0
  0
LINE
  5
69AF
330
1F
100
AcDbEntity
  8
AM_VIS
100
AcDbLine
 10
715.4644615768241
 20
1049.818100050518
 30
0.0
 11
715.4644615768241
 21
994.8181000505178
 31
0.0
  0
LINE
  5
69B0
330
1F
100
AcDbEntity
  8
AM_VIS
100
AcDbLine
 10
715.4644615768241
 20
994.8181000505178
 30
0.0
 11
715.4644615768241
 21
990.3181000505178
 31
0.0
  0
LINE
  5
69B1
330
1F
100
AcDbEntity
  8
AM_VIS
100
AcDbLine
 10
715.464461576824
 20
990.3181000505178
 30
0.0
 11
715.464461576824
 21
984.3181000505179
 31
0.0
  0
LINE
  5
69B2
330
1F
100
AcDbEntity
  8
AM_VIS
100
AcDbLine
 10
715.4644615768241
 20
1060.318100050518
 30
0.0
 11
715.4644615768241
 21
1054.318100050518
 31
0.0
  0
ARC
  5
69B3
330
1F
100
AcDbEntity
  8
AM_VIS
100
AcDbCircle
 10
743.4644615768241
 20
997.551991439437
 30
0.0
 40
2.0
100
AcDbArc
 50
271.5000000000028
 51
0.0
  0
ARC
  5
69B4
330
1F
100
AcDbEntity
  8
AM_VIS
100
AcDbCircle
 10
743.4644615768241
 20
1047.084208661599
 30
0.0
 40
2.0
100
AcDbArc
 50
0.0
 51
88.49999999999718
  0
CIRCLE
  5
69B5
330
1F
100
AcDbEntity
  8
AM_VIS
100
AcDbCircle
 10
731.9644615768241
 20
1015.318100050518
 30
0.0
 40
11.1
  0
CIRCLE
  5
69BD
330
1F
100
AcDbEntity
  8
AM_VIS
100
AcDbCircle
 10
722.4644615768241
 20
1031.318100050518
 30
0.0
 40
5.999999999999987
  0
LINE
  5
69C0
330
1F
100
AcDbEntity
  8
AM_VIS
100
AcDbLine
 10
651.4644615768242
 20
1200.8294596232
 30
0.0
 11
608.4644615768241
 21
1200.8294596232
 31
0.0
  0
LINE
  5
69C1
330
1F
100
AcDbEntity
  8
AM_VIS
100
AcDbLine
 10
608.4644615768241
 20
1187.677023902659
 30
0.0
 11
651.4644615768242
 21
1187.677023902659
 31
0.0
  0
LINE
  5
69C2
330
1F
100
AcDbEntity
  8
AM_VIS
100
AcDbLine
 10
608.4644615768241
 20
1259.077023902659
 30
0.0
 11
651.4644615768242
 21
1259.077023902659
 31
0.0
  0
LINE
  5
69C3
330
1F
100
AcDbEntity
  8
AM_VIS
100
AcDbLine
 10
608.4644615768241
 20
1201.638270008665
 30
0.0
 11
651.464461576824
 21
1201.638270008665
 31
0.0
  0
LINE
  5
69C4
330
1F
100
AcDbEntity
  8
AM_VIS
100
AcDbLine
 10
608.4644615768241
 20
1206.184093775154
 30
0.0
 11
651.464461576824
 21
1206.184093775154
 31
0.0
  0
LINE
  5
69C5
330
1F
100
AcDbEntity
  8
AM_VIS
100
AcDbLine
 10
816.4644615768242
 20
1196.377023902659
 30
0.0
 11
821.4644615768241
 21
1196.377023902659
 31
0.0
  0
LINE
  5
69C6
330
1F
100
AcDbEntity
  8
AM_VIS
100
AcDbLine
 10
816.4644615768242
 20
1250.377023902659
 30
0.0
 11
821.4644615768245
 21
1250.377023902659
 31
0.0
  0
LINE
  5
69C7
330
1F
100
AcDbEntity
  8
AM_VIS
100
AcDbLine
 10
841.4644615768242
 20
1185.877023902659
 30
0.0
 11
821.4644615768241
 21
1185.877023902659
 31
0.0
  0
LINE
  5
69C8
330
1F
100
AcDbEntity
  8
AM_VIS
100
AcDbLine
 10
841.4644615768242
 20
1260.877023902659
 30
0.0
 11
821.4644615768241
 21
1260.877023902659
 31
0.0
  0
LINE
  5
69C9
330
1F
100
AcDbEntity
  8
AM_VIS
100
AcDbLine
 10
821.4644615768241
 20
1260.877023902659
 30
0.0
 11
821.4644615768241
 21
1185.877023902659
 31
0.0
  0
LINE
  5
69CA
330
1F
100
AcDbEntity
  8
AM_VIS
100
AcDbLine
 10
841.4644615768242
 20
1185.877023902659
 30
0.0
 11
841.4644615768242
 21
1260.877023902659
 31
0.0
  0
LINE
  5
69CB
330
1F
100
AcDbEntity
  8
AM_VIS
100
AcDbLine
 10
562.4644615768241
 20
1213.377023902659
 30
0.0
 11
651.4644615768243
 21
1213.377023902659
 31
0.0
  0
LINE
  5
69CC
330
1F
100
AcDbEntity
  8
AM_VIS
100
AcDbLine
 10
816.4644615768242
 20
1213.377023902659
 30
0.0
 11
821.4644615768241
 21
1213.377023902659
 31
0.0
  0
LINE
  5
69CD
330
1F
100
AcDbEntity
  8
AM_VIS
100
AcDbLine
 10
562.4644615768241
 20
1233.377023902659
 30
0.0
 11
651.464461576824
 21
1233.377023902659
 31
0.0
  0
LINE
  5
69CE
330
1F
100
AcDbEntity
  8
AM_VIS
100
AcDbLine
 10
816.464461576824
 20
1233.377023902659
 30
0.0
 11
821.4644615768241
 21
1233.377023902659
 31
0.0
  0
LINE
  5
69CF
330
1F
100
AcDbEntity
  8
AM_VIS
100
AcDbLine
 10
561.4644615768241
 20
1214.377023902659
 30
0.0
 11
562.4644615768241
 21
1213.377023902659
 31
0.0
  0
LINE
  5
69D0
330
1F
100
AcDbEntity
  8
AM_VIS
100
AcDbLine
 10
561.4644615768241
 20
1232.377023902659
 30
0.0
 11
562.4644615768241
 21
1233.377023902659
 31
0.0
  0
LINE
  5
69D1
330
1F
100
AcDbEntity
  8
AM_VIS
100
AcDbLine
 10
562.4644615768241
 20
1233.377023902659
 30
0.0
 11
562.4644615768241
 21
1213.377023902659
 31
0.0
  0
LINE
  5
69D2
330
1F
100
AcDbEntity
  8
AM_VIS
100
AcDbLine
 10
561.4644615768241
 20
1214.377023902659
 30
0.0
 11
561.4644615768241
 21
1232.377023902659
 31
0.0
  0
LINE
  5
69D3
330
1F
100
AcDbEntity
  8
AM_VIS
100
AcDbLine
 10
816.4644615768242
 20
1263.377023902659
 30
0.0
 11
816.4644615768242
 21
1183.377023902659
 31
0.0
  0
LINE
  5
69D4
330
1F
100
AcDbEntity
  8
AM_VIS
100
AcDbLine
 10
778.4644615768241
 20
1183.377023902659
 30
0.0
 11
816.4644615768242
 21
1183.377023902659
 31
0.0
  0
LINE
  5
69D5
330
1F
100
AcDbEntity
  8
AM_VIS
100
AcDbLine
 10
651.4644615768242
 20
1183.377023902659
 30
0.0
 11
697.9644615768242
 21
1183.377023902659
 31
0.0
  0
LINE
  5
69D6
330
1F
100
AcDbEntity
  8
AM_VIS
100
AcDbLine
 10
651.4644615768242
 20
1263.377023902659
 30
0.0
 11
651.4644615768242
 21
1183.377023902659
 31
0.0
  0
LINE
  5
69D7
330
1F
100
AcDbEntity
  8
AM_VIS
100
AcDbLine
 10
697.9644615768242
 20
1263.377023902659
 30
0.0
 11
697.9644615768242
 21
1183.377023902659
 31
0.0
  0
LINE
  5
69D8
330
1F
100
AcDbEntity
  8
AM_VIS
100
AcDbLine
 10
778.4644615768241
 20
1263.377023902659
 30
0.0
 11
778.4644615768241
 21
1183.377023902659
 31
0.0
  0
LINE
  5
69D9
330
1F
100
AcDbEntity
  8
AM_VIS
100
AcDbLine
 10
697.9644615768241
 20
1183.377023902659
 30
0.0
 11
778.4644615768241
 21
1183.377023902659
 31
0.0
  0
LINE
  5
69DA
330
1F
100
AcDbEntity
  8
AM_VIS
100
AcDbLine
 10
816.4644615768242
 20
1263.377023902659
 30
0.0
 11
778.4644615768241
 21
1263.377023902659
 31
0.0
  0
LINE
  5
69DB
330
1F
100
AcDbEntity
  8
AM_VIS
100
AcDbLine
 10
778.4644615768241
 20
1263.377023902659
 30
0.0
 11
697.9644615768241
 21
1263.377023902659
 31
0.0
  0
LINE
  5
69DC
330
1F
100
AcDbEntity
  8
AM_VIS
100
AcDbLine
 10
697.9644615768242
 20
1263.377023902659
 30
0.0
 11
651.4644615768242
 21
1263.377023902659
 31
0.0
  0
CIRCLE
  5
69E5
330
1F
100
AcDbEntity
  8
AM_VIS
100
AcDbCircle
 10
752.4644615768242
 20
1251.627023902659
 30
0.0
 40
3.0
  0
CIRCLE
  5
69E6
330
1F
100
AcDbEntity
  8
AM_VIS
100
AcDbCircle
 10
752.4644615768242
 20
1195.127023902659
 30
0.0
 40
3.0
  0
CIRCLE
  5
69E7
330
1F
100
AcDbEntity
  8
AM_VIS
100
AcDbCircle
 10
724.4644615768241
 20
1251.627023902659
 30
0.0
 40
3.0
  0
CIRCLE
  5
69E8
330
1F
100
AcDbEntity
  8
AM_VIS
100
AcDbCircle
 10
724.4644615768241
 20
1195.127023902659
 30
0.0
 40
3.0
  0
LINE
  5
69E9
330
1F
100
AcDbEntity
  8
AM_VIS
100
AcDbLine
 10
580.4121076802083
 20
1185.377023902659
 30
0.0
 11
608.464461576824
 21
1185.377023902659
 31
0.0
  0
LINE
  5
69EA
330
1F
100
AcDbEntity
  8
AM_VIS
100
AcDbLine
 10
578.464461576824
 20
1185.869822723766
 30
0.0
 11
578.464461576824
 21
1185.377023902659
 31
0.0
  0
LINE
  5
69EB
330
1F
100
AcDbEntity
  8
AM_VIS
100
AcDbLine
 10
576.465099778939
 20
1185.912900553861
 30
0.0
 11
608.4638684517575
 21
1185.343681266153
 31
0.0
  0
LINE
  5
69EC
330
1F
100
AcDbEntity
  8
AM_VIS
100
AcDbLine
 10
576.4650997789391
 20
1260.841147251457
 30
0.0
 11
608.4638684517574
 21
1261.410366539165
 31
0.0
  0
LINE
  5
69ED
330
1F
100
AcDbEntity
  8
AM_VIS
100
AcDbLine
 10
608.4644615768241
 20
1191.377023902659
 30
0.0
 11
608.4644615768241
 21
1185.377023902659
 31
0.0
  0
LINE
  5
69EE
330
1F
100
AcDbEntity
  8
AM_VIS
100
AcDbLine
 10
608.4644615768241
 20
1191.377023902659
 30
0.0
 11
608.4644615768241
 21
1213.377023902659
 31
0.0
  0
LINE
  5
69EF
330
1F
100
AcDbEntity
  8
AM_VIS
100
AcDbLine
 10
608.4644615768241
 20
1233.377023902659
 30
0.0
 11
608.4644615768241
 21
1255.377023902659
 31
0.0
  0
LINE
  5
69F0
330
1F
100
AcDbEntity
  8
AM_VIS
100
AcDbLine
 10
608.4644615768241
 20
1261.377023902659
 30
0.0
 11
608.4644615768241
 21
1255.377023902659
 31
0.0
  0
LINE
  5
69F1
330
1F
100
AcDbEntity
  8
AM_VIS
100
AcDbLine
 10
576.464461576824
 20
1191.877023902659
 30
0.0
 11
576.464461576824
 21
1213.377023902659
 31
0.0
  0
LINE
  5
69F2
330
1F
100
AcDbEntity
  8
AM_VIS
100
AcDbLine
 10
576.4644615768242
 20
1191.877023902659
 30
0.0
 11
576.4644615768242
 21
1185.877023902659
 31
0.0
  0
LINE
  5
69F3
330
1F
100
AcDbEntity
  8
AM_VIS
100
AcDbLine
 10
576.4644615768242
 20
1260.877023902659
 30
0.0
 11
576.4644615768242
 21
1254.877023902659
 31
0.0
  0
LINE
  5
69F4
330
1F
100
AcDbEntity
  8
AM_VIS
100
AcDbLine
 10
576.464461576824
 20
1233.377023902659
 30
0.0
 11
576.464461576824
 21
1254.877023902659
 31
0.0
  0
LINE
  5
69F5
330
1F
100
AcDbEntity
  8
AM_VIS
100
AcDbLine
 10
573.4606552943203
 20
1200.639856952378
 30
0.0
 11
576.4644615768242
 21
1200.377023902659
 31
0.0
  0
LINE
  5
69F6
330
1F
100
AcDbEntity
  8
AM_VIS
100
AcDbLine
 10
573.4606552943203
 20
1246.11419085294
 30
0.0
 11
576.4644615768242
 21
1246.377023902659
 31
0.0
  0
LINE
  5
69F7
330
1F
100
AcDbEntity
  8
AM_VIS
100
AcDbLine
 10
572.4644615768242
 20
1201.727023902659
 30
0.0
 11
573.4606552943201
 21
1200.639856952378
 31
0.0
  0
LINE
  5
69F8
330
1F
100
AcDbEntity
  8
AM_VIS
100
AcDbLine
 10
572.4644615768242
 20
1245.027023902659
 30
0.0
 11
573.4606552943201
 21
1246.11419085294
 31
0.0
  0
LINE
  5
69F9
330
1F
100
AcDbEntity
  8
AM_VIS
100
AcDbLine
 10
580.4121076802082
 20
1185.377023902659
 30
0.0
 11
578.464461576824
 21
1185.377023902659
 31
0.0
  0
LINE
  5
69FA
330
1F
100
AcDbEntity
  8
AM_VIS
100
AcDbLine
 10
573.4606552943203
 20
1246.11419085294
 30
0.0
 11
573.4606552943203
 21
1233.377023902659
 31
0.0
  0
LINE
  5
69FB
330
1F
100
AcDbEntity
  8
AM_VIS
100
AcDbLine
 10
573.4606552943203
 20
1213.377023902659
 30
0.0
 11
573.4606552943203
 21
1200.639856952378
 31
0.0
  0
LINE
  5
69FC
330
1F
100
AcDbEntity
  8
AM_VIS
100
AcDbLine
 10
572.4644615768242
 20
1201.727023902659
 30
0.0
 11
572.4644615768242
 21
1213.377023902659
 31
0.0
  0
LINE
  5
69FD
330
1F
100
AcDbEntity
  8
AM_VIS
100
AcDbLine
 10
572.4644615768242
 20
1233.377023902659
 30
0.0
 11
572.4644615768242
 21
1245.027023902659
 31
0.0
  0
LINE
  5
6A0C
330
1F
100
AcDbEntity
  8
AM_VIS
100
AcDbLine
 10
945.1722555441492
 20
1047.318100050518
 30
0.0
 11
946.6148831449386
 21
1044.818100050518
 31
0.0
  0
LINE
  5
6A0D
330
1F
100
AcDbEntity
  8
AM_VIS
100
AcDbLine
 10
945.1722555441492
 20
1042.318100050518
 30
0.0
 11
942.2825107457283
 21
1042.318100050518
 31
0.0
  0
LINE
  5
6A0E
330
1F
100
AcDbEntity
  8
AM_VIS
100
AcDbLine
 10
946.6148831449386
 20
1044.818100050518
 30
0.0
 11
945.1722555441492
 21
1042.318100050518
 31
0.0
  0
LINE
  5
6A0F
330
1F
100
AcDbEntity
  8
AM_VIS
100
AcDbLine
 10
942.2825107457283
 20
1047.318100050518
 30
0.0
 11
945.1722555441492
 21
1047.318100050518
 31
0.0
  0
LINE
  5
6A10
330
1F
100
AcDbEntity
  8
AM_VIS
100
AcDbLine
 10
940.8398831449387
 20
1044.818100050518
 30
0.0
 11
942.2825107457283
 21
1047.318100050518
 31
0.0
  0
LINE
  5
6A11
330
1F
100
AcDbEntity
  8
AM_VIS
100
AcDbLine
 10
942.2825107457283
 20
1042.318100050518
 30
0.0
 11
940.8398831449387
 21
1044.818100050518
 31
0.0
  0
CIRCLE
  5
6A12
330
1F
100
AcDbEntity
  8
AM_VIS
100
AcDbCircle
 10
943.7273831449388
 20
1044.818100050518
 30
0.0
 40
5.000000000000028
  0
LINE
  5
6A13
330
1F
100
AcDbEntity
  8
AM_VIS
100
AcDbLine
 10
945.1722555441492
 20
1002.318100050518
 30
0.0
 11
946.6148831449386
 21
999.8181000505182
 31
0.0
  0
LINE
  5
6A14
330
1F
100
AcDbEntity
  8
AM_VIS
100
AcDbLine
 10
945.1722555441492
 20
997.3181000505183
 30
0.0
 11
942.2825107457283
 21
997.3181000505183
 31
0.0
  0
LINE
  5
6A15
330
1F
100
AcDbEntity
  8
AM_VIS
100
AcDbLine
 10
946.6148831449386
 20
999.8181000505182
 30
0.0
 11
945.1722555441492
 21
997.3181000505183
 31
0.0
  0
LINE
  5
6A16
330
1F
100
AcDbEntity
  8
AM_VIS
100
AcDbLine
 10
942.2825107457283
 20
1002.318100050518
 30
0.0
 11
945.1722555441492
 21
1002.318100050518
 31
0.0
  0
LINE
  5
6A17
330
1F
100
AcDbEntity
  8
AM_VIS
100
AcDbLine
 10
940.8398831449387
 20
999.818100050518
 30
0.0
 11
942.2825107457283
 21
1002.318100050518
 31
0.0
  0
LINE
  5
6A18
330
1F
100
AcDbEntity
  8
AM_VIS
100
AcDbLine
 10
942.2825107457283
 20
997.318100050518
 30
0.0
 11
940.8398831449387
 21
999.818100050518
 31
0.0
  0
CIRCLE
  5
6A19
330
1F
100
AcDbEntity
  8
AM_VIS
100
AcDbCircle
 10
943.7273831449388
 20
999.818100050518
 30
0.0
 40
5.000000000000028
  0
LINE
  5
6A1A
330
1F
100
AcDbEntity
  8
AM_VIS
100
AcDbLine
 10
946.0391789836753
 20
1085.818100050518
 30
0.0
 11
948.3473831449387
 21
1081.818100050518
 31
0.0
  0
LINE
  5
6A1B
330
1F
100
AcDbEntity
  8
AM_VIS
100
AcDbLine
 10
946.0391789836753
 20
1077.818100050518
 30
0.0
 11
941.4155873062021
 21
1077.818100050518
 31
0.0
  0
LINE
  5
6A1C
330
1F
100
AcDbEntity
  8
AM_VIS
100
AcDbLine
 10
948.3473831449387
 20
1081.818100050518
 30
0.0
 11
946.0391789836753
 21
1077.818100050518
 31
0.0
  0
LINE
  5
6A1D
330
1F
100
AcDbEntity
  8
AM_VIS
100
AcDbLine
 10
941.4155873062021
 20
1085.818100050518
 30
0.0
 11
946.0391789836753
 21
1085.818100050518
 31
0.0
  0
LINE
  5
6A1E
330
1F
100
AcDbEntity
  8
AM_VIS
100
AcDbLine
 10
939.1073831449388
 20
1081.818100050518
 30
0.0
 11
941.4155873062021
 21
1085.818100050518
 31
0.0
  0
LINE
  5
6A1F
330
1F
100
AcDbEntity
  8
AM_VIS
100
AcDbLine
 10
941.4155873062021
 20
1077.818100050518
 30
0.0
 11
939.1073831449388
 21
1081.818100050518
 31
0.0
  0
CIRCLE
  5
6A20
330
1F
100
AcDbEntity
  8
AM_VIS
100
AcDbCircle
 10
943.7273831449388
 20
1081.818100050518
 30
0.0
 40
7.999999999999971
  0
LINE
  5
6A21
330
1F
100
AcDbEntity
  8
AM_VIS
100
AcDbLine
 10
946.0391789836753
 20
966.818100050518
 30
0.0
 11
948.3473831449387
 21
962.8181000505181
 31
0.0
  0
LINE
  5
6A22
330
1F
100
AcDbEntity
  8
AM_VIS
100
AcDbLine
 10
946.0391789836753
 20
958.818100050518
 30
0.0
 11
941.4155873062021
 21
958.818100050518
 31
0.0
  0
LINE
  5
6A23
330
1F
100
AcDbEntity
  8
AM_VIS
100
AcDbLine
 10
948.3473831449387
 20
962.8181000505181
 30
0.0
 11
946.0391789836753
 21
958.818100050518
 31
0.0
  0
LINE
  5
6A24
330
1F
100
AcDbEntity
  8
AM_VIS
100
AcDbLine
 10
941.4155873062021
 20
966.8181000505178
 30
0.0
 11
946.0391789836753
 21
966.8181000505178
 31
0.0
  0
LINE
  5
6A25
330
1F
100
AcDbEntity
  8
AM_VIS
100
AcDbLine
 10
939.1073831449388
 20
962.8181000505177
 30
0.0
 11
941.4155873062021
 21
966.8181000505178
 31
0.0
  0
LINE
  5
6A26
330
1F
100
AcDbEntity
  8
AM_VIS
100
AcDbLine
 10
941.4155873062021
 20
958.8181000505178
 30
0.0
 11
939.1073831449388
 21
962.8181000505177
 31
0.0
  0
CIRCLE
  5
6A27
330
1F
100
AcDbEntity
  8
AM_VIS
100
AcDbCircle
 10
943.7273831449388
 20
962.8181000505177
 30
0.0
 40
7.999999999999971
  0
LINE
  5
6A28
330
1F
100
AcDbEntity
  8
AM_VIS
100
AcDbLine
 10
906.2273831449386
 20
947.318100050518
 30
0.0
 11
906.2273831449386
 21
1097.318100050518
 31
0.0
  0
LINE
  5
6A29
330
1F
100
AcDbEntity
  8
AM_VIS
100
AcDbLine
 10
906.2273831449388
 20
1097.318100050518
 30
0.0
 11
981.2273831449388
 21
1097.318100050518
 31
0.0
  0
LINE
  5
6A2A
330
1F
100
AcDbEntity
  8
AM_VIS
100
AcDbLine
 10
981.2273831449388
 20
1097.318100050518
 30
0.0
 11
981.2273831449388
 21
947.3181000505183
 31
0.0
  0
LINE
  5
6A2B
330
1F
100
AcDbEntity
  8
AM_VIS
100
AcDbLine
 10
981.2273831449388
 20
947.3181000505183
 30
0.0
 11
906.2273831449388
 21
947.318100050518
 31
0.0
  0
CIRCLE
  5
6A2E
330
1F
100
AcDbEntity
  8
AM_VIS
100
AcDbCircle
 10
943.7273831449388
 20
1022.318100050518
 30
0.0
 40
4.456
  0
CIRCLE
  5
6A30
330
1F
100
AcDbEntity
  8
AM_VIS
100
AcDbCircle
 10
943.7273831449388
 20
1022.318100050518
 30
0.0
 40
5.455999999999999
  0
CIRCLE
  5
6A32
330
1F
100
AcDbEntity
  8
AM_VIS
100
AcDbCircle
 10
943.7273831449388
 20
1044.818100050518
 30
0.0
 40
5.5
  0
CIRCLE
  5
6A33
330
1F
100
AcDbEntity
  8
AM_VIS
100
AcDbCircle
 10
943.7273831449388
 20
999.818100050518
 30
0.0
 40
5.5
  0
CIRCLE
  5
6A34
330
1F
100
AcDbEntity
  8
AM_VIS
100
AcDbCircle
 10
915.4773831449388
 20
1074.818100050518
 30
0.0
 40
4.5
  0
CIRCLE
  5
6A35
330
1F
100
AcDbEntity
  8
AM_VIS
100
AcDbCircle
 10
915.4773831449388
 20
969.8181000505181
 30
0.0
 40
4.5
  0
CIRCLE
  5
6A36
330
1F
100
AcDbEntity
  8
AM_VIS
100
AcDbCircle
 10
971.9773831449387
 20
1074.818100050518
 30
0.0
 40
4.5
  0
CIRCLE
  5
6A37
330
1F
100
AcDbEntity
  8
AM_VIS
100
AcDbCircle
 10
971.9773831449387
 20
969.8181000505183
 30
0.0
 40
4.5
  0
CIRCLE
  5
6A38
330
1F
100
AcDbEntity
  8
AM_VIS
100
AcDbCircle
 10
943.7273831449388
 20
1081.818100050518
 30
0.0
 40
8.5
  0
CIRCLE
  5
6A39
330
1F
100
AcDbEntity
  8
AM_VIS
100
AcDbCircle
 10
943.7273831449388
 20
962.8181000505181
 30
0.0
 40
8.5
  0
CIRCLE
  5
6A3E
330
1F
100
AcDbEntity
  8
AM_VIS
100
AcDbCircle
 10
971.9773831449387
 20
1008.318100050518
 30
0.0
 40
3.0
  0
CIRCLE
  5
6A3F
330
1F
100
AcDbEntity
  8
AM_VIS
100
AcDbCircle
 10
971.9773831449387
 20
1036.318100050518
 30
0.0
 40
3.0
  0
CIRCLE
  5
6A40
330
1F
100
AcDbEntity
  8
AM_VIS
100
AcDbCircle
 10
915.4773831449388
 20
1008.318100050518
 30
0.0
 40
3.0
  0
CIRCLE
  5
6A41
330
1F
100
AcDbEntity
  8
AM_VIS
100
AcDbCircle
 10
915.4773831449388
 20
1036.318100050518
 30
0.0
 40
3.0
  0
LINE
  5
6A42
330
1F
100
AcDbEntity
  8
AM_VIS
100
AcDbLine
 10
903.7273831449386
 20
981.3181000505183
 30
0.0
 11
903.7273831449386
 21
944.5681000505183
 31
0.0
  0
LINE
  5
6A43
330
1F
100
AcDbEntity
  8
AM_VIS
100
AcDbLine
 10
983.7273831449389
 20
981.3181000505183
 30
0.0
 11
981.2273831449388
 21
981.3181000505183
 31
0.0
  0
LINE
  5
6A44
330
1F
100
AcDbEntity
  8
AM_VIS
100
AcDbLine
 10
906.2273831449386
 20
981.3181000505183
 30
0.0
 11
903.7273831449386
 21
981.3181000505183
 31
0.0
  0
LINE
  5
6A45
330
1F
100
AcDbEntity
  8
AM_VIS
100
AcDbLine
 10
903.7273831449386
 20
1063.318100050518
 30
0.0
 11
903.7273831449386
 21
981.3181000505183
 31
0.0
  0
LINE
  5
6A46
330
1F
100
AcDbEntity
  8
AM_VIS
100
AcDbLine
 10
983.7273831449389
 20
1063.318100050518
 30
0.0
 11
981.2273831449388
 21
1063.318100050518
 31
0.0
  0
LINE
  5
6A47
330
1F
100
AcDbEntity
  8
AM_VIS
100
AcDbLine
 10
906.2273831449386
 20
1063.318100050518
 30
0.0
 11
903.7273831449386
 21
1063.318100050518
 31
0.0
  0
LINE
  5
6A48
330
1F
100
AcDbEntity
  8
AM_VIS
100
AcDbLine
 10
903.7273831449386
 20
1100.068100050518
 30
0.0
 11
903.7273831449386
 21
1063.318100050518
 31
0.0
  0
LINE
  5
6A49
330
1F
100
AcDbEntity
  8
AM_VIS
100
AcDbLine
 10
983.7273831449389
 20
944.5681000505183
 30
0.0
 11
903.7273831449386
 21
944.5681000505183
 31
0.0
  0
LINE
  5
6A4A
330
1F
100
AcDbEntity
  8
AM_VIS
100
AcDbLine
 10
983.7273831449389
 20
1100.068100050518
 30
0.0
 11
903.7273831449386
 21
1100.068100050518
 31
0.0
  0
LINE
  5
6A4B
330
1F
100
AcDbEntity
  8
AM_VIS
100
AcDbLine
 10
903.7273831449386
 20
944.5681000505183
 30
0.0
 11
903.7273831449386
 21
944.3181000505182
 31
0.0
  0
LINE
  5
6A4C
330
1F
100
AcDbEntity
  8
AM_VIS
100
AcDbLine
 10
903.7273831449386
 20
1100.318100050518
 30
0.0
 11
903.7273831449386
 21
1100.068100050518
 31
0.0
  0
LINE
  5
6A4D
330
1F
100
AcDbEntity
  8
AM_VIS
100
AcDbLine
 10
983.7273831449389
 20
944.3181000505182
 30
0.0
 11
903.7273831449386
 21
944.3181000505182
 31
0.0
  0
LINE
  5
6A4E
330
1F
100
AcDbEntity
  8
AM_VIS
100
AcDbLine
 10
983.7273831449389
 20
1100.318100050518
 30
0.0
 11
903.7273831449386
 21
1100.318100050518
 31
0.0
  0
LINE
  5
6A4F
330
1F
100
AcDbEntity
  8
AM_VIS
100
AcDbLine
 10
983.7273831449389
 20
944.3181000505182
 30
0.0
 11
983.7273831449389
 21
944.5681000505183
 31
0.0
  0
LINE
  5
6A50
330
1F
100
AcDbEntity
  8
AM_VIS
100
AcDbLine
 10
983.7273831449389
 20
944.5681000505183
 30
0.0
 11
983.7273831449389
 21
981.3181000505183
 31
0.0
  0
LINE
  5
6A51
330
1F
100
AcDbEntity
  8
AM_VIS
100
AcDbLine
 10
983.7273831449389
 20
981.3181000505183
 30
0.0
 11
983.7273831449389
 21
1063.318100050518
 31
0.0
  0
LINE
  5
6A52
330
1F
100
AcDbEntity
  8
AM_VIS
100
AcDbLine
 10
983.7273831449389
 20
1063.318100050518
 30
0.0
 11
983.7273831449389
 21
1100.068100050518
 31
0.0
  0
LINE
  5
6A53
330
1F
100
AcDbEntity
  8
AM_VIS
100
AcDbLine
 10
983.7273831449389
 20
1100.068100050518
 30
0.0
 11
983.7273831449389
 21
1100.318100050518
 31
0.0
  0
LINE
  5
6A56
330
1F
100
AcDbEntity
  8
AM_VIS
100
AcDbLine
 10
508.7549767518583
 20
1045.949297897001
 30
0.0
 11
512.754976751858
 21
1048.258698973759
 31
0.0
  0
LINE
  5
6A57
330
1F
100
AcDbEntity
  8
AM_VIS
100
AcDbLine
 10
512.7549767518582
 20
1052.877501127277
 30
0.0
 11
512.7549767518582
 21
1048.258698973759
 31
0.0
  0
LINE
  5
6A58
330
1F
100
AcDbEntity
  8
AM_VIS
100
AcDbLine
 10
508.754976751858
 20
1055.186902204035
 30
0.0
 11
512.754976751858
 21
1052.877501127277
 31
0.0
  0
LINE
  5
6A59
330
1F
100
AcDbEntity
  8
AM_VIS
100
AcDbLine
 10
504.7549767518581
 20
1052.877501127277
 30
0.0
 11
508.754976751858
 21
1055.186902204035
 31
0.0
  0
LINE
  5
6A5A
330
1F
100
AcDbEntity
  8
AM_VIS
100
AcDbLine
 10
504.7549767518579
 20
1052.877501127277
 30
0.0
 11
504.7549767518579
 21
1048.258698973759
 31
0.0
  0
LINE
  5
6A5B
330
1F
100
AcDbEntity
  8
AM_VIS
100
AcDbLine
 10
504.7549767518581
 20
1048.258698973759
 30
0.0
 11
508.7549767518577
 21
1045.949297897001
 31
0.0
  0
ARC
  5
6A5C
330
1F
100
AcDbEntity
  8
AM_VIS
100
AcDbCircle
 10
508.754976751858
 20
1050.568100050518
 30
0.0
 40
4.0
100
AcDbArc
 50
180.0
 51
240.0000000000027
  0
ARC
  5
6A5D
330
1F
100
AcDbEntity
  8
AM_VIS
100
AcDbCircle
 10
508.754976751858
 20
1050.568100050518
 30
0.0
 40
4.0
100
AcDbArc
 50
119.9999999999973
 51
180.0
  0
ARC
  5
6A5E
330
1F
100
AcDbEntity
  8
AM_VIS
100
AcDbCircle
 10
508.754976751858
 20
1050.568100050518
 30
0.0
 40
4.0
100
AcDbArc
 50
60.00000000000272
 51
119.9999999999973
  0
ARC
  5
6A5F
330
1F
100
AcDbEntity
  8
AM_VIS
100
AcDbCircle
 10
508.754976751858
 20
1050.568100050518
 30
0.0
 40
4.0
100
AcDbArc
 50
0.0
 51
60.00000000000272
  0
ARC
  5
6A60
330
1F
100
AcDbEntity
  8
AM_VIS
100
AcDbCircle
 10
508.754976751858
 20
1050.568100050518
 30
0.0
 40
4.0
100
AcDbArc
 50
299.9999999999973
 51
0.0
  0
ARC
  5
6A61
330
1F
100
AcDbEntity
  8
AM_VIS
100
AcDbCircle
 10
508.754976751858
 20
1050.568100050518
 30
0.0
 40
4.0
100
AcDbArc
 50
270.0
 51
299.9999999999973
  0
ARC
  5
6A62
330
1F
100
AcDbEntity
  8
AM_VIS
100
AcDbCircle
 10
508.754976751858
 20
1050.568100050518
 30
0.0
 40
4.0
100
AcDbArc
 50
240.0000000000027
 51
270.0
  0
CIRCLE
  5
6A63
330
1F
100
AcDbEntity
  8
AM_VIS
100
AcDbCircle
 10
508.754976751858
 20
1050.568100050518
 30
0.0
 40
3.399999999999999
  0
CIRCLE
  5
6A64
330
1F
100
AcDbEntity
  8
AM_VIS
100
AcDbCircle
 10
480.5049767518581
 20
1081.818100050518
 30
0.0
 40
10.0
  0
CIRCLE
  5
6A65
330
1F
100
AcDbEntity
  8
AM_VIS
100
AcDbCircle
 10
480.5049767518581
 20
962.8181000505181
 30
0.0
 40
10.0
  0
CIRCLE
  5
6A66
330
1F
100
AcDbEntity
  8
AM_VIS
100
AcDbCircle
 10
480.5049767518581
 20
962.8181000505181
 30
0.0
 40
15.0
  0
CIRCLE
  5
6A67
330
1F
100
AcDbEntity
  8
AM_VIS
100
AcDbCircle
 10
480.5049767518581
 20
1081.818100050518
 30
0.0
 40
15.0
  0
LINE
  5
6A68
330
1F
100
AcDbEntity
  8
AM_VIS
100
AcDbLine
 10
520.5049767518581
 20
981.3181000505183
 30
0.0
 11
520.5049767518581
 21
1063.318100050518
 31
0.0
  0
LINE
  5
6A69
330
1F
100
AcDbEntity
  8
AM_VIS
100
AcDbLine
 10
440.5049767518582
 20
981.3181000505183
 30
0.0
 11
520.5049767518581
 21
981.3181000505183
 31
0.0
  0
LINE
  5
6A6A
330
1F
100
AcDbEntity
  8
AM_VIS
100
AcDbLine
 10
520.5049767518581
 20
944.5681000505183
 30
0.0
 11
520.5049767518581
 21
981.3181000505183
 31
0.0
  0
LINE
  5
6A6B
330
1F
100
AcDbEntity
  8
AM_VIS
100
AcDbLine
 10
520.5049767518581
 20
1063.318100050518
 30
0.0
 11
520.5049767518581
 21
1100.068100050518
 31
0.0
  0
LINE
  5
6A6C
330
1F
100
AcDbEntity
  8
AM_VIS
100
AcDbLine
 10
440.5049767518582
 20
1063.318100050518
 30
0.0
 11
520.5049767518581
 21
1063.318100050518
 31
0.0
  0
LINE
  5
6A6D
330
1F
100
AcDbEntity
  8
AM_VIS
100
AcDbLine
 10
440.5049767518582
 20
944.5681000505183
 30
0.0
 11
520.5049767518581
 21
944.5681000505183
 31
0.0
  0
LINE
  5
6A6E
330
1F
100
AcDbEntity
  8
AM_VIS
100
AcDbLine
 10
440.5049767518582
 20
1100.068100050518
 30
0.0
 11
520.5049767518581
 21
1100.068100050518
 31
0.0
  0
LINE
  5
6A6F
330
1F
100
AcDbEntity
  8
AM_VIS
100
AcDbLine
 10
520.5049767518581
 20
944.3181000505182
 30
0.0
 11
520.5049767518581
 21
944.5681000505183
 31
0.0
  0
LINE
  5
6A70
330
1F
100
AcDbEntity
  8
AM_VIS
100
AcDbLine
 10
520.5049767518581
 20
1100.068100050518
 30
0.0
 11
520.5049767518581
 21
1100.318100050518
 31
0.0
  0
LINE
  5
6A71
330
1F
100
AcDbEntity
  8
AM_VIS
100
AcDbLine
 10
440.5049767518582
 20
944.3181000505182
 30
0.0
 11
520.5049767518581
 21
944.3181000505182
 31
0.0
  0
LINE
  5
6A72
330
1F
100
AcDbEntity
  8
AM_VIS
100
AcDbLine
 10
440.5049767518582
 20
1100.318100050518
 30
0.0
 11
520.5049767518581
 21
1100.318100050518
 31
0.0
  0
LINE
  5
6A73
330
1F
100
AcDbEntity
  8
AM_VIS
100
AcDbLine
 10
440.5049767518582
 20
981.3181000505183
 30
0.0
 11
440.5049767518582
 21
944.5681000505183
 31
0.0
  0
LINE
  5
6A74
330
1F
100
AcDbEntity
  8
AM_VIS
100
AcDbLine
 10
440.5049767518582
 20
944.5681000505183
 30
0.0
 11
440.5049767518582
 21
944.3181000505182
 31
0.0
  0
LINE
  5
6A75
330
1F
100
AcDbEntity
  8
AM_VIS
100
AcDbLine
 10
440.5049767518582
 20
1100.318100050518
 30
0.0
 11
440.5049767518582
 21
1100.068100050518
 31
0.0
  0
LINE
  5
6A76
330
1F
100
AcDbEntity
  8
AM_VIS
100
AcDbLine
 10
440.5049767518582
 20
1100.068100050518
 30
0.0
 11
440.5049767518582
 21
1063.318100050518
 31
0.0
  0
LINE
  5
6A77
330
1F
100
AcDbEntity
  8
AM_VIS
100
AcDbLine
 10
440.5049767518582
 20
1063.318100050518
 30
0.0
 11
440.5049767518582
 21
981.3181000505183
 31
0.0
  0
LINE
  5
6A78
330
1F
100
AcDbEntity
  8
AM_VIS
100
AcDbLine
 10
518.5049767518583
 20
1049.08352331155
 30
0.0
 11
518.5049767518583
 21
1049.818100050518
 31
0.0
  0
LINE
  5
6A79
330
1F
100
AcDbEntity
  8
AM_VIS
100
AcDbLine
 10
518.5049767518583
 20
994.8181000505176
 30
0.0
 11
518.5049767518583
 21
995.5526767894856
 31
0.0
  0
LINE
  5
6A7A
330
1F
100
AcDbEntity
  8
AM_VIS
100
AcDbLine
 10
518.5049767518583
 20
997.5519914394366
 30
0.0
 11
518.5049767518583
 21
1047.084208661599
 31
0.0
  0
SPLINE
  5
6A7B
330
1F
100
AcDbEntity
  8
AM_VIS
100
AcDbSpline
210
0.0
220
0.0
230
1.0
 70
     8
 71
     3
 72
     8
 73
     4
 74
     0
 42
0.0000000001
 43
0.0000000001
 40
-23.5679718891677
 40
-23.5679718891677
 40
-23.5679718891677
 40
-23.5679718891677
 40
0.0
 40
0.0
 40
0.0
 40
0.0
 10
518.0302773978096
 20
1049.08352331155
 30
0.0
 10
518.1319157256224
 20
1049.314115552153
 30
0.0
 10
518.5049767518583
 20
1049.612454189896
 30
0.0
 10
518.5049767518583
 20
1049.818100050518
 30
0.0
  0
LINE
  5
6A7C
330
1F
100
AcDbEntity
  8
AM_VIS
100
AcDbLine
 10
518.0096492176248
 20
1047.084227842262
 30
0.0
 11
518.0248144842913
 21
1049.083564748558
 31
0.0
  0
LINE
  5
6A7D
330
1F
100
AcDbEntity
  8
AM_VIS
100
AcDbLine
 10
518.0121779307516
 20
1047.084208661598
 30
0.0
 11
518.0121779307516
 21
997.5519914394366
 31
0.0
  0
LINE
  5
6A7E
330
1F
100
AcDbEntity
  8
AM_VIS
100
AcDbLine
 10
518.0108611799812
 20
997.5519827488975
 30
0.0
 11
518.0240568462343
 21
995.5526357339198
 31
0.0
  0
SPLINE
  5
6A7F
330
1F
100
AcDbEntity
  8
AM_VIS
100
AcDbSpline
210
0.0
220
0.0
230
1.0
 70
     8
 71
     3
 72
     8
 73
     4
 74
     0
 42
0.0000000001
 43
0.0000000001
 40
-27.05987919775288
 40
-27.05987919775288
 40
-27.05987919775288
 40
-27.05987919775288
 40
-1.946034395170933
 40
-1.946034395170933
 40
-1.946034395170933
 40
-1.946034395170933
 10
518.5049767518583
 20
994.8181000505176
 30
0.0
 10
518.5049767518583
 20
995.023745911139
 30
0.0
 10
518.1319157256224
 20
995.322084548882
 30
0.0
 10
518.0302773978096
 20
995.5526767894856
 30
0.0
  0
LINE
  5
6A80
330
1F
100
AcDbEntity
  8
AM_VIS
100
AcDbLine
 10
518.5049767518583
 20
990.3181000505178
 30
0.0
 11
518.5049767518583
 21
994.8181000505178
 31
0.0
  0
LINE
  5
6A81
330
1F
100
AcDbEntity
  8
AM_VIS
100
AcDbLine
 10
518.5049767518583
 20
1049.818100050518
 30
0.0
 11
518.5049767518583
 21
1054.318100050518
 31
0.0
  0
ARC
  5
6A82
330
1F
100
AcDbEntity
  8
AM_VIS
100
AcDbCircle
 10
512.5049767504053
 20
1054.318100049064
 30
0.0
 40
6.000000001452903
100
AcDbArc
 50
0.0
 51
89.99999997225131
  0
LINE
  5
6A83
330
1F
100
AcDbEntity
  8
AM_VIS
100
AcDbLine
 10
512.5049767518582
 20
1060.318100050518
 30
0.0
 11
448.5049767518582
 21
1060.318100050518
 31
0.0
  0
ARC
  5
6A84
330
1F
100
AcDbEntity
  8
AM_VIS
100
AcDbCircle
 10
448.5049767533113
 20
1054.318100049065
 30
0.0
 40
6.000000001452903
100
AcDbArc
 50
90.0
 51
179.9999999722513
  0
LINE
  5
6A85
330
1F
100
AcDbEntity
  8
AM_VIS
100
AcDbLine
 10
442.5049767518583
 20
1054.318100050518
 30
0.0
 11
442.5049767518583
 21
990.3181000505178
 31
0.0
  0
ARC
  5
6A86
330
1F
100
AcDbEntity
  8
AM_VIS
100
AcDbCircle
 10
448.5049767533114
 20
990.3181000519712
 30
0.0
 40
6.000000001453098
100
AcDbArc
 50
180.0
 51
269.9999999722481
  0
LINE
  5
6A87
330
1F
100
AcDbEntity
  8
AM_VIS
100
AcDbLine
 10
448.5049767518582
 20
984.3181000505179
 30
0.0
 11
512.5049767518582
 21
984.3181000505179
 31
0.0
  0
ARC
  5
6A88
330
1F
100
AcDbEntity
  8
AM_VIS
100
AcDbCircle
 10
512.5049767504054
 20
990.3181000519703
 30
0.0
 40
6.000000001452711
100
AcDbArc
 50
270.0000000138711
 51
359.9999999861257
  0
LINE
  5
6A89
330
1F
100
AcDbEntity
  8
AM_VIS
100
AcDbLine
 10
481.5049767518583
 20
1059.818100050518
 30
0.0
 11
479.5049767518583
 21
1059.818100050518
 31
0.0
  0
LINE
  5
6A8A
330
1F
100
AcDbEntity
  8
AM_VIS
100
AcDbLine
 10
512.0049767518582
 20
1059.818100050518
 30
0.0
 11
481.5049767518583
 21
1059.818100050518
 31
0.0
  0
ARC
  5
6A8B
330
1F
100
AcDbEntity
  8
AM_VIS
100
AcDbCircle
 10
512.0049767504053
 20
1053.818100049065
 30
0.0
 40
6.000000001452903
100
AcDbArc
 50
0.0000000138743429
 51
89.9999999861224
  0
LINE
  5
6A8C
330
1F
100
AcDbEntity
  8
AM_VIS
100
AcDbLine
 10
518.0049767518583
 20
1023.318100050518
 30
0.0
 11
518.0049767518583
 21
1053.818100050518
 31
0.0
  0
LINE
  5
6A8D
330
1F
100
AcDbEntity
  8
AM_VIS
100
AcDbLine
 10
518.0049767518583
 20
1021.318100050518
 30
0.0
 11
518.0049767518583
 21
1023.318100050518
 31
0.0
  0
LINE
  5
6A8E
330
1F
100
AcDbEntity
  8
AM_VIS
100
AcDbLine
 10
518.0049767518583
 20
990.8181000505178
 30
0.0
 11
518.0049767518583
 21
1021.318100050518
 31
0.0
  0
CIRCLE
  5
6A8F
330
1F
100
AcDbEntity
  8
AM_VIS
100
AcDbCircle
 10
452.254976751858
 20
1050.568100050518
 30
0.0
 40
6.750000000000002
  0
ARC
  5
6A90
330
1F
100
AcDbEntity
  8
AM_4
100
AcDbCircle
 10
452.2549767518578
 20
1050.568100050519
 30
0.0
 40
4.0
100
AcDbArc
 50
259.9999999999993
 51
190.000000000005
  0
LINE
  5
6A91
330
1F
100
AcDbEntity
  8
AM_VIS
100
AcDbLine
 10
452.2549767518581
 20
1045.949297897001
 30
0.0
 11
456.2549767518578
 21
1048.25869897376
 31
0.0
  0
LINE
  5
6A92
330
1F
100
AcDbEntity
  8
AM_VIS
100
AcDbLine
 10
456.2549767518579
 20
1052.877501127277
 30
0.0
 11
456.2549767518579
 21
1048.25869897376
 31
0.0
  0
LINE
  5
6A93
330
1F
100
AcDbEntity
  8
AM_VIS
100
AcDbLine
 10
452.2549767518578
 20
1055.186902204035
 30
0.0
 11
456.2549767518578
 21
1052.877501127277
 31
0.0
  0
LINE
  5
6A94
330
1F
100
AcDbEntity
  8
AM_VIS
100
AcDbLine
 10
448.2549767518578
 20
1052.877501127277
 30
0.0
 11
452.2549767518578
 21
1055.186902204035
 31
0.0
  0
LINE
  5
6A95
330
1F
100
AcDbEntity
  8
AM_VIS
100
AcDbLine
 10
448.2549767518577
 20
1052.877501127277
 30
0.0
 11
448.2549767518577
 21
1048.25869897376
 31
0.0
  0
LINE
  5
6A96
330
1F
100
AcDbEntity
  8
AM_VIS
100
AcDbLine
 10
448.2549767518578
 20
1048.25869897376
 30
0.0
 11
452.2549767518575
 21
1045.949297897001
 31
0.0
  0
ARC
  5
6A97
330
1F
100
AcDbEntity
  8
AM_VIS
100
AcDbCircle
 10
452.2549767518578
 20
1050.568100050519
 30
0.0
 40
4.0
100
AcDbArc
 50
180.0
 51
240.0000000000027
  0
ARC
  5
6A98
330
1F
100
AcDbEntity
  8
AM_VIS
100
AcDbCircle
 10
452.2549767518578
 20
1050.568100050519
 30
0.0
 40
4.0
100
AcDbArc
 50
119.9999999999973
 51
180.0
  0
ARC
  5
6A99
330
1F
100
AcDbEntity
  8
AM_VIS
100
AcDbCircle
 10
452.2549767518578
 20
1050.568100050519
 30
0.0
 40
4.0
100
AcDbArc
 50
60.00000000000272
 51
119.9999999999973
  0
ARC
  5
6A9A
330
1F
100
AcDbEntity
  8
AM_VIS
100
AcDbCircle
 10
452.2549767518578
 20
1050.568100050519
 30
0.0
 40
4.0
100
AcDbArc
 50
0.0
 51
60.00000000000272
  0
ARC
  5
6A9B
330
1F
100
AcDbEntity
  8
AM_VIS
100
AcDbCircle
 10
452.2549767518578
 20
1050.568100050519
 30
0.0
 40
4.0
100
AcDbArc
 50
299.9999999999973
 51
0.0
  0
ARC
  5
6A9C
330
1F
100
AcDbEntity
  8
AM_VIS
100
AcDbCircle
 10
452.2549767518578
 20
1050.568100050519
 30
0.0
 40
4.0
100
AcDbArc
 50
270.0
 51
299.9999999999973
  0
ARC
  5
6A9D
330
1F
100
AcDbEntity
  8
AM_VIS
100
AcDbCircle
 10
452.2549767518578
 20
1050.568100050519
 30
0.0
 40
4.0
100
AcDbArc
 50
240.0000000000027
 51
270.0
  0
CIRCLE
  5
6A9E
330
1F
100
AcDbEntity
  8
AM_VIS
100
AcDbCircle
 10
452.2549767518578
 20
1050.568100050519
 30
0.0
 40
3.399999999999999
  0
CIRCLE
  5
6A9F
330
1F
100
AcDbEntity
  8
AM_VIS
100
AcDbCircle
 10
452.2549767518581
 20
994.0681000505181
 30
0.0
 40
6.750000000000002
  0
ARC
  5
6AA0
330
1F
100
AcDbEntity
  8
AM_4
100
AcDbCircle
 10
452.2549767518579
 20
994.0681000505184
 30
0.0
 40
4.0
100
AcDbArc
 50
259.9999999999993
 51
190.000000000005
  0
LINE
  5
6AA1
330
1F
100
AcDbEntity
  8
AM_VIS
100
AcDbLine
 10
452.2549767518582
 20
989.4492978970015
 30
0.0
 11
456.2549767518579
 21
991.7586989737602
 31
0.0
  0
LINE
  5
6AA2
330
1F
100
AcDbEntity
  8
AM_VIS
100
AcDbLine
 10
456.254976751858
 20
996.3775011272769
 30
0.0
 11
456.254976751858
 21
991.7586989737602
 31
0.0
  0
LINE
  5
6AA3
330
1F
100
AcDbEntity
  8
AM_VIS
100
AcDbLine
 10
452.2549767518579
 20
998.6869022040355
 30
0.0
 11
456.2549767518579
 21
996.3775011272769
 31
0.0
  0
LINE
  5
6AA4
330
1F
100
AcDbEntity
  8
AM_VIS
100
AcDbLine
 10
448.2549767518579
 20
996.3775011272769
 30
0.0
 11
452.2549767518579
 21
998.6869022040355
 31
0.0
  0
LINE
  5
6AA5
330
1F
100
AcDbEntity
  8
AM_VIS
100
AcDbLine
 10
448.2549767518578
 20
996.3775011272769
 30
0.0
 11
448.2549767518578
 21
991.7586989737602
 31
0.0
  0
LINE
  5
6AA6
330
1F
100
AcDbEntity
  8
AM_VIS
100
AcDbLine
 10
448.2549767518579
 20
991.7586989737602
 30
0.0
 11
452.2549767518576
 21
989.4492978970015
 31
0.0
  0
ARC
  5
6AA7
330
1F
100
AcDbEntity
  8
AM_VIS
100
AcDbCircle
 10
452.2549767518579
 20
994.0681000505184
 30
0.0
 40
4.0
100
AcDbArc
 50
180.0
 51
240.0000000000027
  0
ARC
  5
6AA8
330
1F
100
AcDbEntity
  8
AM_VIS
100
AcDbCircle
 10
452.2549767518579
 20
994.0681000505184
 30
0.0
 40
4.0
100
AcDbArc
 50
119.9999999999973
 51
180.0
  0
ARC
  5
6AA9
330
1F
100
AcDbEntity
  8
AM_VIS
100
AcDbCircle
 10
452.2549767518579
 20
994.0681000505184
 30
0.0
 40
4.0
100
AcDbArc
 50
60.00000000000272
 51
119.9999999999973
  0
ARC
  5
6AAA
330
1F
100
AcDbEntity
  8
AM_VIS
100
AcDbCircle
 10
452.2549767518579
 20
994.0681000505184
 30
0.0
 40
4.0
100
AcDbArc
 50
0.0
 51
60.00000000000272
  0
ARC
  5
6AAB
330
1F
100
AcDbEntity
  8
AM_VIS
100
AcDbCircle
 10
452.2549767518579
 20
994.0681000505184
 30
0.0
 40
4.0
100
AcDbArc
 50
299.9999999999973
 51
0.0
  0
ARC
  5
6AAC
330
1F
100
AcDbEntity
  8
AM_VIS
100
AcDbCircle
 10
452.2549767518579
 20
994.0681000505184
 30
0.0
 40
4.0
100
AcDbArc
 50
270.0
 51
299.9999999999973
  0
ARC
  5
6AAD
330
1F
100
AcDbEntity
  8
AM_VIS
100
AcDbCircle
 10
452.2549767518579
 20
994.0681000505184
 30
0.0
 40
4.0
100
AcDbArc
 50
240.0000000000027
 51
270.0
  0
CIRCLE
  5
6AAE
330
1F
100
AcDbEntity
  8
AM_VIS
100
AcDbCircle
 10
452.2549767518579
 20
994.0681000505184
 30
0.0
 40
3.399999999999999
  0
CIRCLE
  5
6AAF
330
1F
100
AcDbEntity
  8
AM_VIS
100
AcDbCircle
 10
508.754976751858
 20
994.0681000505181
 30
0.0
 40
6.750000000000002
  0
ARC
  5
6AB0
330
1F
100
AcDbEntity
  8
AM_4
100
AcDbCircle
 10
508.7549767518578
 20
994.0681000505184
 30
0.0
 40
4.0
100
AcDbArc
 50
259.9999999999993
 51
190.000000000005
  0
LINE
  5
6AB1
330
1F
100
AcDbEntity
  8
AM_VIS
100
AcDbLine
 10
508.7549767518582
 20
989.4492978970015
 30
0.0
 11
512.7549767518578
 21
991.7586989737602
 31
0.0
  0
LINE
  5
6AB2
330
1F
100
AcDbEntity
  8
AM_VIS
100
AcDbLine
 10
512.7549767518579
 20
996.3775011272769
 30
0.0
 11
512.7549767518579
 21
991.7586989737602
 31
0.0
  0
LINE
  5
6AB3
330
1F
100
AcDbEntity
  8
AM_VIS
100
AcDbLine
 10
508.7549767518578
 20
998.6869022040355
 30
0.0
 11
512.7549767518578
 21
996.3775011272769
 31
0.0
  0
LINE
  5
6AB4
330
1F
100
AcDbEntity
  8
AM_VIS
100
AcDbLine
 10
504.7549767518578
 20
996.3775011272769
 30
0.0
 11
508.7549767518578
 21
998.6869022040355
 31
0.0
  0
LINE
  5
6AB5
330
1F
100
AcDbEntity
  8
AM_VIS
100
AcDbLine
 10
504.7549767518577
 20
996.3775011272769
 30
0.0
 11
504.7549767518577
 21
991.7586989737602
 31
0.0
  0
LINE
  5
6AB6
330
1F
100
AcDbEntity
  8
AM_VIS
100
AcDbLine
 10
504.7549767518578
 20
991.7586989737602
 30
0.0
 11
508.7549767518575
 21
989.4492978970015
 31
0.0
  0
ARC
  5
6AB7
330
1F
100
AcDbEntity
  8
AM_VIS
100
AcDbCircle
 10
508.7549767518578
 20
994.0681000505184
 30
0.0
 40
4.0
100
AcDbArc
 50
180.0
 51
240.0000000000027
  0
ARC
  5
6AB8
330
1F
100
AcDbEntity
  8
AM_VIS
100
AcDbCircle
 10
508.7549767518578
 20
994.0681000505184
 30
0.0
 40
4.0
100
AcDbArc
 50
119.9999999999973
 51
180.0
  0
ARC
  5
6AB9
330
1F
100
AcDbEntity
  8
AM_VIS
100
AcDbCircle
 10
508.7549767518578
 20
994.0681000505184
 30
0.0
 40
4.0
100
AcDbArc
 50
60.00000000000272
 51
119.9999999999973
  0
ARC
  5
6ABA
330
1F
100
AcDbEntity
  8
AM_VIS
100
AcDbCircle
 10
508.7549767518578
 20
994.0681000505184
 30
0.0
 40
4.0
100
AcDbArc
 50
0.0
 51
60.00000000000272
  0
ARC
  5
6ABB
330
1F
100
AcDbEntity
  8
AM_VIS
100
AcDbCircle
 10
508.7549767518578
 20
994.0681000505184
 30
0.0
 40
4.0
100
AcDbArc
 50
299.9999999999973
 51
0.0
  0
ARC
  5
6ABC
330
1F
100
AcDbEntity
  8
AM_VIS
100
AcDbCircle
 10
508.7549767518578
 20
994.0681000505184
 30
0.0
 40
4.0
100
AcDbArc
 50
270.0
 51
299.9999999999973
  0
ARC
  5
6ABD
330
1F
100
AcDbEntity
  8
AM_VIS
100
AcDbCircle
 10
508.7549767518578
 20
994.0681000505184
 30
0.0
 40
4.0
100
AcDbArc
 50
240.0000000000027
 51
270.0
  0
CIRCLE
  5
6ABE
330
1F
100
AcDbEntity
  8
AM_VIS
100
AcDbCircle
 10
508.7549767518578
 20
994.0681000505184
 30
0.0
 40
3.399999999999999
  0
LINE
  5
6ACC
330
1F
100
AcDbEntity
  8
AM_7
 48
4.0
100
AcDbLine
 10
570.4644615768241
 20
1022.318100050518
 30
0.0
 11
843.4644615768242
 21
1022.318100050518
 31
0.0
1001
GENIUS_GENODEF_13
1002
{
1000
HIER
1070
     0
1002
}
1002
{
1000
MANEDIT
1070
     0
1002
}
1002
{
1000
NOSEL
1070
     0
1002
}
1002
{
1000
BEHIND
1070
     0
1002
}
1002
{
1000
OTHER
1070
     0
1002
}
1002
{
1000
REACTOR
1002
}
1001
GENIUS_GENOBJ-N-CEN_13
1002
{
1000
OWNER
1000
GEN
1002
}
1001
GENIUS_GENCEN_19
1002
{
1040
2.0
1002
}
  0
LINE
  5
6AD9
330
1F
100
AcDbEntity
  8
AM_7
 48
4.0
100
AcDbLine
 10
559.4644615768242
 20
962.8181000505181
 30
0.0
 11
842.7037721927179
 21
962.8181000505181
 31
0.0
1001
GENIUS_GENODEF_13
1002
{
1000
HIER
1070
     0
1002
}
1002
{
1000
MANEDIT
1070
     0
1002
}
1002
{
1000
NOSEL
1070
     0
1002
}
1002
{
1000
BEHIND
1070
     0
1002
}
1002
{
1000
OTHER
1070
     0
1002
}
1002
{
1000
REACTOR
1002
}
1001
GENIUS_GENOBJ-N-CEN_13
1002
{
1000
OWNER
1000
GEN
1002
}
1001
GENIUS_GENCEN_19
1002
{
1040
2.0
1002
}
  0
LINE
  5
6AE6
330
1F
100
AcDbEntity
  8
AM_7
 48
4.0
100
AcDbLine
 10
559.4644615768242
 20
1081.818100050518
 30
0.0
 11
843.376230790948
 21
1081.818100050518
 31
0.0
1001
GENIUS_GENODEF_13
1002
{
1000
HIER
1070
     0
1002
}
1002
{
1000
MANEDIT
1070
     0
1002
}
1002
{
1000
NOSEL
1070
     0
1002
}
1002
{
1000
BEHIND
1070
     0
1002
}
1002
{
1000
OTHER
1070
     0
1002
}
1002
{
1000
REACTOR
1002
}
1001
GENIUS_GENOBJ-N-CEN_13
1002
{
1000
OWNER
1000
GEN
1002
}
1001
GENIUS_GENCEN_19
1002
{
1040
2.0
1002
}
  0
LINE
  5
6AF3
330
1F
100
AcDbEntity
  8
AM_7
 48
4.0
100
AcDbLine
 10
559.4644615768242
 20
1223.377023902659
 30
0.0
 11
844.0613282804008
 21
1223.377023902659
 31
0.0
1001
GENIUS_GENODEF_13
1002
{
1000
HIER
1070
     0
1002
}
1002
{
1000
MANEDIT
1070
     0
1002
}
1002
{
1000
NOSEL
1070
     0
1002
}
1002
{
1000
BEHIND
1070
     0
1002
}
1002
{
1000
OTHER
1070
     0
1002
}
1002
{
1000
REACTOR
1002
}
1001
GENIUS_GENOBJ-N-CEN_13
1002
{
1000
OWNER
1000
GEN
1002
}
1001
GENIUS_GENCEN_19
1002
{
1040
2.0
1002
}
  0
CIRCLE
  5
6B08
330
1F
100
AcDbEntity
  8
AM_4
  6
HIDDEN
 48
0.5
100
AcDbCircle
 10
915.4773831449388
 20
1074.818100050518
 30
0.0
 40
7.0
  0
LINE
  5
6B09
330
1F
100
AcDbEntity
  8
AM_7
100
AcDbLine
 10
915.4773831449388
 20
1074.818100050518
 30
0.0
 11
924.4773831449387
 21
1074.818100050518
 31
0.0
1001
GENIUS_GENOREF_13
1005
6B0D
  0
LINE
  5
6B0A
330
1F
100
AcDbEntity
  8
AM_7
100
AcDbLine
 10
915.4773831449388
 20
1074.818100050518
 30
0.0
 11
915.4773831449388
 21
1083.818100050518
 31
0.0
1001
GENIUS_GENOREF_13
1005
6B0D
  0
LINE
  5
6B0B
330
1F
100
AcDbEntity
  8
AM_7
100
AcDbLine
 10
915.4773831449388
 20
1074.818100050518
 30
0.0
 11
906.4773831449386
 21
1074.818100050518
 31
0.0
1001
GENIUS_GENOREF_13
1005
6B0D
  0
LINE
  5
6B0C
330
1F
100
AcDbEntity
  8
AM_7
100
AcDbLine
 10
915.4773831449388
 20
1074.818100050518
 30
0.0
 11
915.4773831449388
 21
1065.818100050518
 31
0.0
1001
GENIUS_GENOREF_13
1005
6B0D
  0
POINT
  5
6B0D
330
1F
100
AcDbEntity
  8
0
 60
     1
100
AcDbPoint
 10
133.8999842333752
 20
528.8598731211375
 30
0.0
1001
GENIUS_GENOENT_13
1002
{
1000
MYREF
1005
6B0D
1002
}
1002
{
1000
GRP
1005
0
1002
}
1001
GENIUS_GENOLIS_13
1002
{
1000
ENT
1005
6B0C
1005
6B0B
1005
6B0A
1005
6B09
1002
}
1001
GENIUS_GENOBJ-N-CRS_13
1002
{
1000
OWNER
1000
GEN
1002
}
1001
GENIUS_GENODEF_13
1002
{
1000
HIER
1070
    10
1002
}
1002
{
1000
MANEDIT
1070
     0
1002
}
1002
{
1000
NOSEL
1070
     0
1002
}
1002
{
1000
BEHIND
1070
     0
1002
}
1002
{
1000
OTHER
1070
     0
1002
}
1002
{
1000
REACTOR
1002
}
  0
CIRCLE
  5
6B0E
330
1F
100
AcDbEntity
  8
AM_4
  6
HIDDEN
 48
0.5
100
AcDbCircle
 10
971.9773831449387
 20
1074.818100050518
 30
0.0
 40
7.0
  0
LINE
  5
6B0F
330
1F
100
AcDbEntity
  8
AM_7
100
AcDbLine
 10
971.9773831449387
 20
1074.818100050518
 30
0.0
 11
980.9773831449389
 21
1074.818100050518
 31
0.0
1001
GENIUS_GENOREF_13
1005
6B13
  0
LINE
  5
6B10
330
1F
100
AcDbEntity
  8
AM_7
100
AcDbLine
 10
971.9773831449387
 20
1074.818100050518
 30
0.0
 11
971.9773831449387
 21
1083.818100050518
 31
0.0
1001
GENIUS_GENOREF_13
1005
6B13
  0
LINE
  5
6B11
330
1F
100
AcDbEntity
  8
AM_7
100
AcDbLine
 10
971.9773831449387
 20
1074.818100050518
 30
0.0
 11
962.9773831449387
 21
1074.818100050518
 31
0.0
1001
GENIUS_GENOREF_13
1005
6B13
  0
LINE
  5
6B12
330
1F
100
AcDbEntity
  8
AM_7
100
AcDbLine
 10
971.9773831449387
 20
1074.818100050518
 30
0.0
 11
971.9773831449387
 21
1065.818100050518
 31
0.0
1001
GENIUS_GENOREF_13
1005
6B13
  0
POINT
  5
6B13
330
1F
100
AcDbEntity
  8
0
 60
     1
100
AcDbPoint
 10
190.3999842333753
 20
528.8598731211378
 30
0.0
1001
GENIUS_GENOENT_13
1002
{
1000
MYREF
1005
6B13
1002
}
1002
{
1000
GRP
1005
0
1002
}
1001
GENIUS_GENOLIS_13
1002
{
1000
ENT
1005
6B12
1005
6B11
1005
6B10
1005
6B0F
1002
}
1001
GENIUS_GENOBJ-N-CRS_13
1002
{
1000
OWNER
1000
GEN
1002
}
1001
GENIUS_GENODEF_13
1002
{
1000
HIER
1070
    10
1002
}
1002
{
1000
MANEDIT
1070
     0
1002
}
1002
{
1000
NOSEL
1070
     0
1002
}
1002
{
1000
BEHIND
1070
     0
1002
}
1002
{
1000
OTHER
1070
     0
1002
}
1002
{
1000
REACTOR
1002
}
  0
CIRCLE
  5
6B14
330
1F
100
AcDbEntity
  8
AM_4
  6
HIDDEN
 48
0.5
100
AcDbCircle
 10
915.4773831449388
 20
969.8181000505181
 30
0.0
 40
7.0
  0
LINE
  5
6B15
330
1F
100
AcDbEntity
  8
AM_7
100
AcDbLine
 10
915.4773831449388
 20
969.8181000505181
 30
0.0
 11
924.4773831449387
 21
969.8181000505181
 31
0.0
1001
GENIUS_GENOREF_13
1005
6B19
  0
LINE
  5
6B16
330
1F
100
AcDbEntity
  8
AM_7
100
AcDbLine
 10
915.4773831449388
 20
969.8181000505181
 30
0.0
 11
915.4773831449388
 21
978.8181000505181
 31
0.0
1001
GENIUS_GENOREF_13
1005
6B19
  0
LINE
  5
6B17
330
1F
100
AcDbEntity
  8
AM_7
100
AcDbLine
 10
915.4773831449388
 20
969.8181000505181
 30
0.0
 11
906.4773831449386
 21
969.8181000505181
 31
0.0
1001
GENIUS_GENOREF_13
1005
6B19
  0
LINE
  5
6B18
330
1F
100
AcDbEntity
  8
AM_7
100
AcDbLine
 10
915.4773831449388
 20
969.8181000505181
 30
0.0
 11
915.4773831449388
 21
960.8181000505181
 31
0.0
1001
GENIUS_GENOREF_13
1005
6B19
  0
POINT
  5
6B19
330
1F
100
AcDbEntity
  8
0
 60
     1
100
AcDbPoint
 10
133.8999842333752
 20
423.8598731211375
 30
0.0
1001
GENIUS_GENOENT_13
1002
{
1000
MYREF
1005
6B19
1002
}
1002
{
1000
GRP
1005
0
1002
}
1001
GENIUS_GENOLIS_13
1002
{
1000
ENT
1005
6B18
1005
6B17
1005
6B16
1005
6B15
1002
}
1001
GENIUS_GENOBJ-N-CRS_13
1002
{
1000
OWNER
1000
GEN
1002
}
1001
GENIUS_GENODEF_13
1002
{
1000
HIER
1070
    10
1002
}
1002
{
1000
MANEDIT
1070
     0
1002
}
1002
{
1000
NOSEL
1070
     0
1002
}
1002
{
1000
BEHIND
1070
     0
1002
}
1002
{
1000
OTHER
1070
     0
1002
}
1002
{
1000
REACTOR
1002
}
  0
CIRCLE
  5
6B1A
330
1F
100
AcDbEntity
  8
AM_4
  6
HIDDEN
 48
0.5
100
AcDbCircle
 10
971.9773831449387
 20
969.8181000505183
 30
0.0
 40
7.0
  0
LINE
  5
6B1B
330
1F
100
AcDbEntity
  8
AM_7
100
AcDbLine
 10
971.9773831449387
 20
969.8181000505183
 30
0.0
 11
980.9773831449389
 21
969.8181000505183
 31
0.0
1001
GENIUS_GENOREF_13
1005
6B1F
  0
LINE
  5
6B1C
330
1F
100
AcDbEntity
  8
AM_7
100
AcDbLine
 10
971.9773831449387
 20
969.8181000505183
 30
0.0
 11
971.9773831449387
 21
978.8181000505183
 31
0.0
1001
GENIUS_GENOREF_13
1005
6B1F
  0
LINE
  5
6B1D
330
1F
100
AcDbEntity
  8
AM_7
100
AcDbLine
 10
971.9773831449387
 20
969.8181000505183
 30
0.0
 11
962.9773831449387
 21
969.8181000505183
 31
0.0
1001
GENIUS_GENOREF_13
1005
6B1F
  0
LINE
  5
6B1E
330
1F
100
AcDbEntity
  8
AM_7
100
AcDbLine
 10
971.9773831449387
 20
969.8181000505183
 30
0.0
 11
971.9773831449387
 21
960.8181000505183
 31
0.0
1001
GENIUS_GENOREF_13
1005
6B1F
  0
POINT
  5
6B1F
330
1F
100
AcDbEntity
  8
0
 60
     1
100
AcDbPoint
 10
190.3999842333753
 20
423.8598731211377
 30
0.0
1001
GENIUS_GENOENT_13
1002
{
1000
MYREF
1005
6B1F
1002
}
1002
{
1000
GRP
1005
0
1002
}
1001
GENIUS_GENOLIS_13
1002
{
1000
ENT
1005
6B1E
1005
6B1D
1005
6B1C
1005
6B1B
1002
}
1001
GENIUS_GENOBJ-N-CRS_13
1002
{
1000
OWNER
1000
GEN
1002
}
1001
GENIUS_GENODEF_13
1002
{
1000
HIER
1070
    10
1002
}
1002
{
1000
MANEDIT
1070
     0
1002
}
1002
{
1000
NOSEL
1070
     0
1002
}
1002
{
1000
BEHIND
1070
     0
1002
}
1002
{
1000
OTHER
1070
     0
1002
}
1002
{
1000
REACTOR
1002
}
  0
LINE
  5
6B2D
330
1F
100
AcDbEntity
  8
AM_7
  6
AM_ISO08W050x2
100
AcDbLine
 10
915.4773831449388
 20
1036.318100050518
 30
0.0
 11
920.4773831449386
 21
1036.318100050518
 31
0.0
1001
GENIUS_GENOREF_13
1005
6B31
  0
LINE
  5
6B2E
330
1F
100
AcDbEntity
  8
AM_7
  6
AM_ISO08W050x2
100
AcDbLine
 10
915.4773831449388
 20
1036.318100050518
 30
0.0
 11
915.4773831449388
 21
1041.318100050518
 31
0.0
1001
GENIUS_GENOREF_13
1005
6B31
  0
LINE
  5
6B2F
330
1F
100
AcDbEntity
  8
AM_7
  6
AM_ISO08W050x2
100
AcDbLine
 10
915.4773831449388
 20
1036.318100050518
 30
0.0
 11
910.4773831449387
 21
1036.318100050518
 31
0.0
1001
GENIUS_GENOREF_13
1005
6B31
  0
LINE
  5
6B30
330
1F
100
AcDbEntity
  8
AM_7
  6
AM_ISO08W050x2
100
AcDbLine
 10
915.4773831449388
 20
1036.318100050518
 30
0.0
 11
915.4773831449388
 21
1031.318100050518
 31
0.0
1001
GENIUS_GENOREF_13
1005
6B31
  0
POINT
  5
6B31
330
1F
100
AcDbEntity
  8
0
 60
     1
100
AcDbPoint
 10
0.0
 20
0.0
 30
0.0
1001
GENIUS_GENOENT_13
1002
{
1000
MYREF
1005
6B31
1002
}
1002
{
1000
GRP
1005
0
1002
}
1001
GENIUS_GENODEF_13
1002
{
1000
HIER
1070
    10
1002
}
1002
{
1000
MANEDIT
1070
     0
1002
}
1002
{
1000
NOSEL
1070
     0
1002
}
1002
{
1000
BEHIND
1070
     0
1002
}
1002
{
1000
OTHER
1070
     0
1002
}
1002
{
1000
REACTOR
1002
}
1001
GENIUS_GENOLIS_13
1002
{
1000
ENT
1005
6B30
1005
6B2F
1005
6B2E
1005
6B2D
1002
}
1001
GENIUS_GENOBJ-N-CRS_13
1002
{
1000
OWNER
1000
GEN
1002
}
  0
LINE
  5
6B3F
330
1F
100
AcDbEntity
  8
AM_7
  6
AM_ISO08W050x2
100
AcDbLine
 10
915.4773831449388
 20
1008.318100050518
 30
0.0
 11
920.4773831449386
 21
1008.318100050518
 31
0.0
1001
GENIUS_GENOREF_13
1005
6B43
  0
LINE
  5
6B40
330
1F
100
AcDbEntity
  8
AM_7
  6
AM_ISO08W050x2
100
AcDbLine
 10
915.4773831449388
 20
1008.318100050518
 30
0.0
 11
915.4773831449388
 21
1013.318100050518
 31
0.0
1001
GENIUS_GENOREF_13
1005
6B43
  0
LINE
  5
6B41
330
1F
100
AcDbEntity
  8
AM_7
  6
AM_ISO08W050x2
100
AcDbLine
 10
915.4773831449388
 20
1008.318100050518
 30
0.0
 11
910.4773831449387
 21
1008.318100050518
 31
0.0
1001
GENIUS_GENOREF_13
1005
6B43
  0
LINE
  5
6B42
330
1F
100
AcDbEntity
  8
AM_7
  6
AM_ISO08W050x2
100
AcDbLine
 10
915.4773831449388
 20
1008.318100050518
 30
0.0
 11
915.4773831449388
 21
1003.318100050518
 31
0.0
1001
GENIUS_GENOREF_13
1005
6B43
  0
POINT
  5
6B43
330
1F
100
AcDbEntity
  8
0
 60
     1
100
AcDbPoint
 10
0.0
 20
0.0
 30
0.0
1001
GENIUS_GENOENT_13
1002
{
1000
MYREF
1005
6B43
1002
}
1002
{
1000
GRP
1005
0
1002
}
1001
GENIUS_GENOLIS_13
1002
{
1000
ENT
1005
6B42
1005
6B41
1005
6B40
1005
6B3F
1002
}
1001
GENIUS_GENOBJ-N-CRS_13
1002
{
1000
OWNER
1000
GEN
1002
}
1001
GENIUS_GENODEF_13
1002
{
1000
HIER
1070
    10
1002
}
1002
{
1000
MANEDIT
1070
     0
1002
}
1002
{
1000
NOSEL
1070
     0
1002
}
1002
{
1000
BEHIND
1070
     0
1002
}
1002
{
1000
OTHER
1070
     0
1002
}
1002
{
1000
REACTOR
1002
}
  0
LINE
  5
6B51
330
1F
100
AcDbEntity
  8
AM_7
  6
AM_ISO08W050x2
100
AcDbLine
 10
971.9773831449387
 20
1008.318100050518
 30
0.0
 11
976.9773831449388
 21
1008.318100050518
 31
0.0
1001
GENIUS_GENOREF_13
1005
6B55
  0
LINE
  5
6B52
330
1F
100
AcDbEntity
  8
AM_7
  6
AM_ISO08W050x2
100
AcDbLine
 10
971.9773831449387
 20
1008.318100050518
 30
0.0
 11
971.9773831449387
 21
1013.318100050518
 31
0.0
1001
GENIUS_GENOREF_13
1005
6B55
  0
LINE
  5
6B53
330
1F
100
AcDbEntity
  8
AM_7
  6
AM_ISO08W050x2
100
AcDbLine
 10
971.9773831449387
 20
1008.318100050518
 30
0.0
 11
966.9773831449388
 21
1008.318100050518
 31
0.0
1001
GENIUS_GENOREF_13
1005
6B55
  0
LINE
  5
6B54
330
1F
100
AcDbEntity
  8
AM_7
  6
AM_ISO08W050x2
100
AcDbLine
 10
971.9773831449387
 20
1008.318100050518
 30
0.0
 11
971.9773831449387
 21
1003.318100050518
 31
0.0
1001
GENIUS_GENOREF_13
1005
6B55
  0
POINT
  5
6B55
330
1F
100
AcDbEntity
  8
0
 60
     1
100
AcDbPoint
 10
0.0
 20
0.0
 30
0.0
1001
GENIUS_GENOENT_13
1002
{
1000
MYREF
1005
6B55
1002
}
1002
{
1000
GRP
1005
0
1002
}
1001
GENIUS_GENODEF_13
1002
{
1000
HIER
1070
    10
1002
}
1002
{
1000
MANEDIT
1070
     0
1002
}
1002
{
1000
NOSEL
1070
     0
1002
}
1002
{
1000
BEHIND
1070
     0
1002
}
1002
{
1000
OTHER
1070
     0
1002
}
1002
{
1000
REACTOR
1002
}
1001
GENIUS_GENOBJ-N-CRS_13
1002
{
1000
OWNER
1000
GEN
1002
}
1001
GENIUS_GENOLIS_13
1002
{
1000
ENT
1005
6B54
1005
6B53
1005
6B52
1005
6B51
1002
}
  0
LINE
  5
6B63
330
1F
100
AcDbEntity
  8
AM_7
  6
AM_ISO08W050x2
100
AcDbLine
 10
971.9773831449387
 20
1036.318100050518
 30
0.0
 11
976.9773831449388
 21
1036.318100050518
 31
0.0
1001
GENIUS_GENOREF_13
1005
6B67
  0
LINE
  5
6B64
330
1F
100
AcDbEntity
  8
AM_7
  6
AM_ISO08W050x2
100
AcDbLine
 10
971.9773831449387
 20
1036.318100050518
 30
0.0
 11
971.9773831449387
 21
1041.318100050518
 31
0.0
1001
GENIUS_GENOREF_13
1005
6B67
  0
LINE
  5
6B65
330
1F
100
AcDbEntity
  8
AM_7
  6
AM_ISO08W050x2
100
AcDbLine
 10
971.9773831449387
 20
1036.318100050518
 30
0.0
 11
966.9773831449388
 21
1036.318100050518
 31
0.0
1001
GENIUS_GENOREF_13
1005
6B67
  0
LINE
  5
6B66
330
1F
100
AcDbEntity
  8
AM_7
  6
AM_ISO08W050x2
100
AcDbLine
 10
971.9773831449387
 20
1036.318100050518
 30
0.0
 11
971.9773831449387
 21
1031.318100050518
 31
0.0
1001
GENIUS_GENOREF_13
1005
6B67
  0
POINT
  5
6B67
330
1F
100
AcDbEntity
  8
0
 60
     1
100
AcDbPoint
 10
0.0
 20
0.0
 30
0.0
1001
GENIUS_GENOBJ-N-CRS_13
1002
{
1000
OWNER
1000
GEN
1002
}
1001
GENIUS_GENOLIS_13
1002
{
1000
ENT
1005
6B66
1005
6B65
1005
6B64
1005
6B63
1002
}
1001
GENIUS_GENOENT_13
1002
{
1000
MYREF
1005
6B67
1002
}
1002
{
1000
GRP
1005
0
1002
}
1001
GENIUS_GENODEF_13
1002
{
1000
HIER
1070
    10
1002
}
1002
{
1000
MANEDIT
1070
     0
1002
}
1002
{
1000
NOSEL
1070
     0
1002
}
1002
{
1000
BEHIND
1070
     0
1002
}
1002
{
1000
OTHER
1070
     0
1002
}
1002
{
1000
REACTOR
1002
}
  0
LINE
  5
6B75
330
1F
100
AcDbEntity
  8
AM_7
100
AcDbLine
 10
943.7273831449388
 20
1081.818100050518
 30
0.0
 11
954.2273831449389
 21
1081.818100050518
 31
0.0
1001
GENIUS_GENOREF_13
1005
6B79
  0
LINE
  5
6B76
330
1F
100
AcDbEntity
  8
AM_7
100
AcDbLine
 10
943.7273831449388
 20
1081.818100050518
 30
0.0
 11
943.7273831449388
 21
1092.318100050518
 31
0.0
1001
GENIUS_GENOREF_13
1005
6B79
  0
LINE
  5
6B77
330
1F
100
AcDbEntity
  8
AM_7
100
AcDbLine
 10
943.7273831449388
 20
1081.818100050518
 30
0.0
 11
933.2273831449388
 21
1081.818100050518
 31
0.0
1001
GENIUS_GENOREF_13
1005
6B79
  0
LINE
  5
6B78
330
1F
100
AcDbEntity
  8
AM_7
100
AcDbLine
 10
943.7273831449388
 20
1081.818100050518
 30
0.0
 11
943.7273831449388
 21
1071.318100050518
 31
0.0
1001
GENIUS_GENOREF_13
1005
6B79
  0
POINT
  5
6B79
330
1F
100
AcDbEntity
  8
0
 60
     1
100
AcDbPoint
 10
0.0
 20
0.0
 30
0.0
1001
GENIUS_GENODEF_13
1002
{
1000
HIER
1070
    10
1002
}
1002
{
1000
MANEDIT
1070
     0
1002
}
1002
{
1000
NOSEL
1070
     0
1002
}
1002
{
1000
BEHIND
1070
     0
1002
}
1002
{
1000
OTHER
1070
     0
1002
}
1002
{
1000
REACTOR
1002
}
1001
GENIUS_GENOENT_13
1002
{
1000
MYREF
1005
6B79
1002
}
1002
{
1000
GRP
1005
0
1002
}
1001
GENIUS_GENOLIS_13
1002
{
1000
ENT
1005
6B78
1005
6B77
1005
6B76
1005
6B75
1002
}
1001
GENIUS_GENOBJ-N-CRS_13
1002
{
1000
OWNER
1000
GEN
1002
}
  0
LINE
  5
6B87
330
1F
100
AcDbEntity
  8
AM_7
  6
AM_ISO08W050x2
100
AcDbLine
 10
943.7273831449388
 20
1044.818100050518
 30
0.0
 11
951.2273831449387
 21
1044.818100050518
 31
0.0
1001
GENIUS_GENOREF_13
1005
6B8B
  0
LINE
  5
6B88
330
1F
100
AcDbEntity
  8
AM_7
  6
AM_ISO08W050x2
100
AcDbLine
 10
943.7273831449388
 20
1044.818100050518
 30
0.0
 11
943.7273831449388
 21
1052.318100050518
 31
0.0
1001
GENIUS_GENOREF_13
1005
6B8B
  0
LINE
  5
6B89
330
1F
100
AcDbEntity
  8
AM_7
  6
AM_ISO08W050x2
100
AcDbLine
 10
943.7273831449388
 20
1044.818100050518
 30
0.0
 11
936.2273831449387
 21
1044.818100050518
 31
0.0
1001
GENIUS_GENOREF_13
1005
6B8B
  0
LINE
  5
6B8A
330
1F
100
AcDbEntity
  8
AM_7
  6
AM_ISO08W050x2
100
AcDbLine
 10
943.7273831449388
 20
1044.818100050518
 30
0.0
 11
943.7273831449388
 21
1037.318100050518
 31
0.0
1001
GENIUS_GENOREF_13
1005
6B8B
  0
POINT
  5
6B8B
330
1F
100
AcDbEntity
  8
0
 60
     1
100
AcDbPoint
 10
0.0
 20
0.0
 30
0.0
1001
GENIUS_GENOENT_13
1002
{
1000
MYREF
1005
6B8B
1002
}
1002
{
1000
GRP
1005
0
1002
}
1001
GENIUS_GENOBJ-N-CRS_13
1002
{
1000
OWNER
1000
GEN
1002
}
1001
GENIUS_GENOLIS_13
1002
{
1000
ENT
1005
6B8A
1005
6B89
1005
6B88
1005
6B87
1002
}
1001
GENIUS_GENODEF_13
1002
{
1000
HIER
1070
    10
1002
}
1002
{
1000
MANEDIT
1070
     0
1002
}
1002
{
1000
NOSEL
1070
     0
1002
}
1002
{
1000
BEHIND
1070
     0
1002
}
1002
{
1000
OTHER
1070
     0
1002
}
1002
{
1000
REACTOR
1002
}
  0
LINE
  5
6B8C
330
1F
100
AcDbEntity
  8
AM_7
100
AcDbLine
 10
943.7273831449388
 20
962.8181000505184
 30
0.0
 11
954.2273831449389
 21
962.8181000505184
 31
0.0
1001
GENIUS_GENOREF_13
1005
6B95
  0
LINE
  5
6B8D
330
1F
100
AcDbEntity
  8
AM_7
100
AcDbLine
 10
943.7273831449388
 20
962.8181000505184
 30
0.0
 11
943.7273831449388
 21
952.3181000505186
 31
0.0
1001
GENIUS_GENOREF_13
1005
6B95
  0
LINE
  5
6B8E
330
1F
100
AcDbEntity
  8
AM_7
100
AcDbLine
 10
943.7273831449388
 20
962.8181000505184
 30
0.0
 11
933.2273831449388
 21
962.8181000505184
 31
0.0
1001
GENIUS_GENOREF_13
1005
6B95
  0
LINE
  5
6B8F
330
1F
100
AcDbEntity
  8
AM_7
100
AcDbLine
 10
943.7273831449388
 20
962.8181000505184
 30
0.0
 11
943.7273831449388
 21
973.3181000505185
 31
0.0
1001
GENIUS_GENOREF_13
1005
6B95
  0
LINE
  5
6B90
330
1F
100
AcDbEntity
  8
AM_7
  6
AM_ISO08W050x2
100
AcDbLine
 10
943.7273831449388
 20
999.8181000505185
 30
0.0
 11
951.2273831449387
 21
999.8181000505185
 31
0.0
1001
GENIUS_GENOREF_13
1005
6B94
  0
LINE
  5
6B91
330
1F
100
AcDbEntity
  8
AM_7
  6
AM_ISO08W050x2
100
AcDbLine
 10
943.7273831449388
 20
999.8181000505185
 30
0.0
 11
943.7273831449388
 21
992.3181000505184
 31
0.0
1001
GENIUS_GENOREF_13
1005
6B94
  0
LINE
  5
6B92
330
1F
100
AcDbEntity
  8
AM_7
  6
AM_ISO08W050x2
100
AcDbLine
 10
943.7273831449388
 20
999.8181000505185
 30
0.0
 11
936.2273831449387
 21
999.8181000505185
 31
0.0
1001
GENIUS_GENOREF_13
1005
6B94
  0
LINE
  5
6B93
330
1F
100
AcDbEntity
  8
AM_7
  6
AM_ISO08W050x2
100
AcDbLine
 10
943.7273831449388
 20
999.8181000505185
 30
0.0
 11
943.7273831449388
 21
1007.318100050518
 31
0.0
1001
GENIUS_GENOREF_13
1005
6B94
  0
POINT
  5
6B94
330
1F
100
AcDbEntity
  8
0
 60
     1
100
AcDbPoint
 10
0.0
 20
3081.13848693469
 30
0.0
1001
GENIUS_GENOENT_13
1002
{
1000
MYREF
1005
6B94
1002
}
1002
{
1000
GRP
1005
0
1002
}
1001
GENIUS_GENOBJ-N-CRS_13
1002
{
1000
OWNER
1000
GEN
1002
}
1001
GENIUS_GENOLIS_13
1002
{
1000
ENT
1005
6B93
1005
6B92
1005
6B91
1005
6B90
1002
}
1001
GENIUS_GENODEF_13
1002
{
1000
HIER
1070
    10
1002
}
1002
{
1000
MANEDIT
1070
     0
1002
}
1002
{
1000
NOSEL
1070
     0
1002
}
1002
{
1000
BEHIND
1070
     0
1002
}
1002
{
1000
OTHER
1070
     0
1002
}
1002
{
1000
REACTOR
1002
}
  0
POINT
  5
6B95
330
1F
100
AcDbEntity
  8
0
 60
     1
100
AcDbPoint
 10
0.0
 20
3081.13848693469
 30
0.0
1001
GENIUS_GENODEF_13
1002
{
1000
HIER
1070
    10
1002
}
1002
{
1000
MANEDIT
1070
     0
1002
}
1002
{
1000
NOSEL
1070
     0
1002
}
1002
{
1000
BEHIND
1070
     0
1002
}
1002
{
1000
OTHER
1070
     0
1002
}
1002
{
1000
REACTOR
1002
}
1001
GENIUS_GENOENT_13
1002
{
1000
MYREF
1005
6B95
1002
}
1002
{
1000
GRP
1005
0
1002
}
1001
GENIUS_GENOLIS_13
1002
{
1000
ENT
1005
6B8F
1005
6B8E
1005
6B8D
1005
6B8C
1002
}
1001
GENIUS_GENOBJ-N-CRS_13
1002
{
1000
OWNER
1000
GEN
1002
}
  0
LINE
  5
6BA2
330
1F
100
AcDbEntity
  8
AM_7
 48
4.0
100
AcDbLine
 10
901.7273831449386
 20
1022.318100050518
 30
0.0
 11
985.7273831449388
 21
1022.318100050518
 31
0.0
1001
GENIUS_GENOBJ-N-CEN_13
1002
{
1000
OWNER
1000
GEN
1002
}
1001
GENIUS_GENODEF_13
1002
{
1000
HIER
1070
     0
1002
}
1002
{
1000
MANEDIT
1070
     0
1002
}
1002
{
1000
NOSEL
1070
     0
1002
}
1002
{
1000
BEHIND
1070
     0
1002
}
1002
{
1000
OTHER
1070
     0
1002
}
1002
{
1000
REACTOR
1002
}
1001
GENIUS_GENCEN_19
1002
{
1040
2.0
1002
}
  0
LINE
  5
6BB5
330
1F
100
AcDbEntity
  8
AM_7
100
AcDbLine
 10
508.7549767518583
 20
1050.568100050518
 30
0.0
 11
517.5049767518583
 21
1050.568100050518
 31
0.0
1001
GENIUS_GENOREF_13
1005
6BB9
  0
LINE
  5
6BB6
330
1F
100
AcDbEntity
  8
AM_7
100
AcDbLine
 10
508.7549767518583
 20
1050.568100050518
 30
0.0
 11
508.7549767518583
 21
1059.318100050518
 31
0.0
1001
GENIUS_GENOREF_13
1005
6BB9
  0
LINE
  5
6BB7
330
1F
100
AcDbEntity
  8
AM_7
100
AcDbLine
 10
508.7549767518583
 20
1050.568100050518
 30
0.0
 11
500.0049767518582
 21
1050.568100050518
 31
0.0
1001
GENIUS_GENOREF_13
1005
6BB9
  0
LINE
  5
6BB8
330
1F
100
AcDbEntity
  8
AM_7
100
AcDbLine
 10
508.7549767518583
 20
1050.568100050518
 30
0.0
 11
508.7549767518583
 21
1041.818100050518
 31
0.0
1001
GENIUS_GENOREF_13
1005
6BB9
  0
POINT
  5
6BB9
330
1F
100
AcDbEntity
  8
0
 60
     1
100
AcDbPoint
 10
0.0
 20
0.0
 30
0.0
1001
GENIUS_GENOLIS_13
1002
{
1000
ENT
1005
6BB8
1005
6BB7
1005
6BB6
1005
6BB5
1002
}
1001
GENIUS_GENOENT_13
1002
{
1000
MYREF
1005
6BB9
1002
}
1002
{
1000
GRP
1005
0
1002
}
1001
GENIUS_GENOBJ-N-CRS_13
1002
{
1000
OWNER
1000
GEN
1002
}
1001
GENIUS_GENODEF_13
1002
{
1000
HIER
1070
    10
1002
}
1002
{
1000
MANEDIT
1070
     0
1002
}
1002
{
1000
NOSEL
1070
     0
1002
}
1002
{
1000
BEHIND
1070
     0
1002
}
1002
{
1000
OTHER
1070
     0
1002
}
1002
{
1000
REACTOR
1002
}
  0
LINE
  5
6BC7
330
1F
100
AcDbEntity
  8
AM_7
100
AcDbLine
 10
452.2549767518578
 20
1050.568100050519
 30
0.0
 11
461.0049767518581
 21
1050.568100050519
 31
0.0
1001
GENIUS_GENOREF_13
1005
6BCB
  0
LINE
  5
6BC8
330
1F
100
AcDbEntity
  8
AM_7
100
AcDbLine
 10
452.2549767518578
 20
1050.568100050519
 30
0.0
 11
452.2549767518578
 21
1059.318100050519
 31
0.0
1001
GENIUS_GENOREF_13
1005
6BCB
  0
LINE
  5
6BC9
330
1F
100
AcDbEntity
  8
AM_7
100
AcDbLine
 10
452.2549767518578
 20
1050.568100050519
 30
0.0
 11
443.5049767518576
 21
1050.568100050519
 31
0.0
1001
GENIUS_GENOREF_13
1005
6BCB
  0
LINE
  5
6BCA
330
1F
100
AcDbEntity
  8
AM_7
100
AcDbLine
 10
452.2549767518578
 20
1050.568100050519
 30
0.0
 11
452.2549767518578
 21
1041.818100050518
 31
0.0
1001
GENIUS_GENOREF_13
1005
6BCB
  0
POINT
  5
6BCB
330
1F
100
AcDbEntity
  8
0
 60
     1
100
AcDbPoint
 10
0.0
 20
0.0
 30
0.0
1001
GENIUS_GENODEF_13
1002
{
1000
HIER
1070
    10
1002
}
1002
{
1000
MANEDIT
1070
     0
1002
}
1002
{
1000
NOSEL
1070
     0
1002
}
1002
{
1000
BEHIND
1070
     0
1002
}
1002
{
1000
OTHER
1070
     0
1002
}
1002
{
1000
REACTOR
1002
}
1001
GENIUS_GENOLIS_13
1002
{
1000
ENT
1005
6BCA
1005
6BC9
1005
6BC8
1005
6BC7
1002
}
1001
GENIUS_GENOENT_13
1002
{
1000
MYREF
1005
6BCB
1002
}
1002
{
1000
GRP
1005
0
1002
}
1001
GENIUS_GENOBJ-N-CRS_13
1002
{
1000
OWNER
1000
GEN
1002
}
  0
LINE
  5
6BD9
330
1F
100
AcDbEntity
  8
AM_7
100
AcDbLine
 10
452.2549767518581
 20
994.0681000505181
 30
0.0
 11
461.0049767518582
 21
994.0681000505181
 31
0.0
1001
GENIUS_GENOREF_13
1005
6BDD
  0
LINE
  5
6BDA
330
1F
100
AcDbEntity
  8
AM_7
100
AcDbLine
 10
452.2549767518581
 20
994.0681000505181
 30
0.0
 11
452.2549767518581
 21
1002.818100050518
 31
0.0
1001
GENIUS_GENOREF_13
1005
6BDD
  0
LINE
  5
6BDB
330
1F
100
AcDbEntity
  8
AM_7
100
AcDbLine
 10
452.2549767518581
 20
994.0681000505181
 30
0.0
 11
443.5049767518582
 21
994.0681000505181
 31
0.0
1001
GENIUS_GENOREF_13
1005
6BDD
  0
LINE
  5
6BDC
330
1F
100
AcDbEntity
  8
AM_7
100
AcDbLine
 10
452.2549767518581
 20
994.0681000505181
 30
0.0
 11
452.2549767518581
 21
985.318100050518
 31
0.0
1001
GENIUS_GENOREF_13
1005
6BDD
  0
POINT
  5
6BDD
330
1F
100
AcDbEntity
  8
0
 60
     1
100
AcDbPoint
 10
0.0
 20
0.0
 30
0.0
1001
GENIUS_GENODEF_13
1002
{
1000
HIER
1070
    10
1002
}
1002
{
1000
MANEDIT
1070
     0
1002
}
1002
{
1000
NOSEL
1070
     0
1002
}
1002
{
1000
BEHIND
1070
     0
1002
}
1002
{
1000
OTHER
1070
     0
1002
}
1002
{
1000
REACTOR
1002
}
1001
GENIUS_GENOLIS_13
1002
{
1000
ENT
1005
6BDC
1005
6BDB
1005
6BDA
1005
6BD9
1002
}
1001
GENIUS_GENOENT_13
1002
{
1000
MYREF
1005
6BDD
1002
}
1002
{
1000
GRP
1005
0
1002
}
1001
GENIUS_GENOBJ-N-CRS_13
1002
{
1000
OWNER
1000
GEN
1002
}
  0
LINE
  5
6BEB
330
1F
100
AcDbEntity
  8
AM_7
100
AcDbLine
 10
508.7549767518578
 20
994.0681000505184
 30
0.0
 11
517.5049767518576
 21
994.0681000505184
 31
0.0
1001
GENIUS_GENOREF_13
1005
6BEF
  0
LINE
  5
6BEC
330
1F
100
AcDbEntity
  8
AM_7
100
AcDbLine
 10
508.7549767518578
 20
994.0681000505184
 30
0.0
 11
508.7549767518578
 21
1002.818100050518
 31
0.0
1001
GENIUS_GENOREF_13
1005
6BEF
  0
LINE
  5
6BED
330
1F
100
AcDbEntity
  8
AM_7
100
AcDbLine
 10
508.7549767518578
 20
994.0681000505184
 30
0.0
 11
500.004976751858
 21
994.0681000505184
 31
0.0
1001
GENIUS_GENOREF_13
1005
6BEF
  0
LINE
  5
6BEE
330
1F
100
AcDbEntity
  8
AM_7
100
AcDbLine
 10
508.7549767518578
 20
994.0681000505184
 30
0.0
 11
508.7549767518578
 21
985.3181000505188
 31
0.0
1001
GENIUS_GENOREF_13
1005
6BEF
  0
POINT
  5
6BEF
330
1F
100
AcDbEntity
  8
0
 60
     1
100
AcDbPoint
 10
0.0
 20
0.0
 30
0.0
1001
GENIUS_GENOLIS_13
1002
{
1000
ENT
1005
6BEE
1005
6BED
1005
6BEC
1005
6BEB
1002
}
1001
GENIUS_GENOENT_13
1002
{
1000
MYREF
1005
6BEF
1002
}
1002
{
1000
GRP
1005
0
1002
}
1001
GENIUS_GENOBJ-N-CRS_13
1002
{
1000
OWNER
1000
GEN
1002
}
1001
GENIUS_GENODEF_13
1002
{
1000
HIER
1070
    10
1002
}
1002
{
1000
MANEDIT
1070
     0
1002
}
1002
{
1000
NOSEL
1070
     0
1002
}
1002
{
1000
BEHIND
1070
     0
1002
}
1002
{
1000
OTHER
1070
     0
1002
}
1002
{
1000
REACTOR
1002
}
  0
LINE
  5
6BFD
330
1F
100
AcDbEntity
  8
AM_7
100
AcDbLine
 10
480.5049767518583
 20
1022.318100050518
 30
0.0
 11
522.5049767518582
 21
1022.318100050518
 31
0.0
1001
GENIUS_GENOREF_13
1005
6C01
  0
LINE
  5
6BFE
330
1F
100
AcDbEntity
  8
AM_7
100
AcDbLine
 10
480.5049767518583
 20
1022.318100050518
 30
0.0
 11
480.5049767518583
 21
1064.318100050518
 31
0.0
1001
GENIUS_GENOREF_13
1005
6C01
  0
LINE
  5
6BFF
330
1F
100
AcDbEntity
  8
AM_7
100
AcDbLine
 10
480.5049767518583
 20
1022.318100050518
 30
0.0
 11
438.5049767518584
 21
1022.318100050518
 31
0.0
1001
GENIUS_GENOREF_13
1005
6C01
  0
LINE
  5
6C00
330
1F
100
AcDbEntity
  8
AM_7
100
AcDbLine
 10
480.5049767518583
 20
1022.318100050518
 30
0.0
 11
480.5049767518583
 21
980.3181000505178
 31
0.0
1001
GENIUS_GENOREF_13
1005
6C01
  0
POINT
  5
6C01
330
1F
100
AcDbEntity
  8
0
 60
     1
100
AcDbPoint
 10
0.0
 20
0.0
 30
0.0
1001
GENIUS_GENODEF_13
1002
{
1000
HIER
1070
    10
1002
}
1002
{
1000
MANEDIT
1070
     0
1002
}
1002
{
1000
NOSEL
1070
     0
1002
}
1002
{
1000
BEHIND
1070
     0
1002
}
1002
{
1000
OTHER
1070
     0
1002
}
1002
{
1000
REACTOR
1002
}
1001
GENIUS_GENOLIS_13
1002
{
1000
ENT
1005
6C00
1005
6BFF
1005
6BFE
1005
6BFD
1002
}
1001
GENIUS_GENOENT_13
1002
{
1000
MYREF
1005
6C01
1002
}
1002
{
1000
GRP
1005
0
1002
}
1001
GENIUS_GENOBJ-N-CRS_13
1002
{
1000
OWNER
1000
GEN
1002
}
  0
LINE
  5
6C0F
330
1F
100
AcDbEntity
  8
AM_7
100
AcDbLine
 10
480.5049767518581
 20
962.8181000505181
 30
0.0
 11
497.5049767518582
 21
962.8181000505181
 31
0.0
1001
GENIUS_GENOREF_13
1005
6C13
  0
LINE
  5
6C10
330
1F
100
AcDbEntity
  8
AM_7
100
AcDbLine
 10
480.5049767518581
 20
962.8181000505181
 30
0.0
 11
480.5049767518581
 21
979.8181000505181
 31
0.0
1001
GENIUS_GENOREF_13
1005
6C13
  0
LINE
  5
6C11
330
1F
100
AcDbEntity
  8
AM_7
100
AcDbLine
 10
480.5049767518581
 20
962.8181000505181
 30
0.0
 11
463.5049767518581
 21
962.8181000505181
 31
0.0
1001
GENIUS_GENOREF_13
1005
6C13
  0
LINE
  5
6C12
330
1F
100
AcDbEntity
  8
AM_7
100
AcDbLine
 10
480.5049767518581
 20
962.8181000505181
 30
0.0
 11
480.5049767518581
 21
945.8181000505181
 31
0.0
1001
GENIUS_GENOREF_13
1005
6C13
  0
POINT
  5
6C13
330
1F
100
AcDbEntity
  8
0
 60
     1
100
AcDbPoint
 10
0.0
 20
0.0
 30
0.0
1001
GENIUS_GENOBJ-N-CRS_13
1002
{
1000
OWNER
1000
GEN
1002
}
1001
GENIUS_GENOLIS_13
1002
{
1000
ENT
1005
6C12
1005
6C11
1005
6C10
1005
6C0F
1002
}
1001
GENIUS_GENOENT_13
1002
{
1000
MYREF
1005
6C13
1002
}
1002
{
1000
GRP
1005
0
1002
}
1001
GENIUS_GENODEF_13
1002
{
1000
HIER
1070
    10
1002
}
1002
{
1000
MANEDIT
1070
     0
1002
}
1002
{
1000
NOSEL
1070
     0
1002
}
1002
{
1000
BEHIND
1070
     0
1002
}
1002
{
1000
OTHER
1070
     0
1002
}
1002
{
1000
REACTOR
1002
}
  0
LINE
  5
6C21
330
1F
100
AcDbEntity
  8
AM_7
100
AcDbLine
 10
480.5049767518581
 20
1081.818100050518
 30
0.0
 11
497.5049767518582
 21
1081.818100050518
 31
0.0
1001
GENIUS_GENOREF_13
1005
6C25
  0
LINE
  5
6C22
330
1F
100
AcDbEntity
  8
AM_7
100
AcDbLine
 10
480.5049767518581
 20
1081.818100050518
 30
0.0
 11
480.5049767518581
 21
1098.818100050518
 31
0.0
1001
GENIUS_GENOREF_13
1005
6C25
  0
LINE
  5
6C23
330
1F
100
AcDbEntity
  8
AM_7
100
AcDbLine
 10
480.5049767518581
 20
1081.818100050518
 30
0.0
 11
463.5049767518581
 21
1081.818100050518
 31
0.0
1001
GENIUS_GENOREF_13
1005
6C25
  0
LINE
  5
6C24
330
1F
100
AcDbEntity
  8
AM_7
100
AcDbLine
 10
480.5049767518581
 20
1081.818100050518
 30
0.0
 11
480.5049767518581
 21
1064.818100050518
 31
0.0
1001
GENIUS_GENOREF_13
1005
6C25
  0
POINT
  5
6C25
330
1F
100
AcDbEntity
  8
0
 60
     1
100
AcDbPoint
 10
0.0
 20
0.0
 30
0.0
1001
GENIUS_GENOLIS_13
1002
{
1000
ENT
1005
6C24
1005
6C23
1005
6C22
1005
6C21
1002
}
1001
GENIUS_GENOENT_13
1002
{
1000
MYREF
1005
6C25
1002
}
1002
{
1000
GRP
1005
0
1002
}
1001
GENIUS_GENOBJ-N-CRS_13
1002
{
1000
OWNER
1000
GEN
1002
}
1001
GENIUS_GENODEF_13
1002
{
1000
HIER
1070
    10
1002
}
1002
{
1000
MANEDIT
1070
     0
1002
}
1002
{
1000
NOSEL
1070
     0
1002
}
1002
{
1000
BEHIND
1070
     0
1002
}
1002
{
1000
OTHER
1070
     0
1002
}
1002
{
1000
REACTOR
1002
}
  0
ARC
  5
6C4E
330
1F
100
AcDbEntity
  8
AM_4
100
AcDbCircle
 10
591.9644615768241
 20
1015.318100050518
 30
0.0
 40
8.330999999999999
100
AcDbArc
 50
260.0
 51
170.0
  0
LINE
  5
6C4F
330
1F
100
AcDbEntity
  8
AM_7
  6
AM_ISO08W050x2
100
AcDbLine
 10
591.9644615768241
 20
1025.649100050517
 30
0.0
 11
591.9644615768241
 21
1004.987100050518
 31
0.0
  0
CIRCLE
  5
6C50
330
1F
100
AcDbEntity
  8
AM_0
100
AcDbCircle
 10
591.9644615768241
 20
1015.318100050518
 30
0.0
 40
7.474999999999998
  0
LINE
  5
6C51
330
1F
100
AcDbEntity
  8
AM_7
  6
AM_ISO08W050x2
100
AcDbLine
 10
581.6334615768242
 20
1015.318100050518
 30
0.0
 11
602.2954615768242
 21
1015.318100050518
 31
0.0
  0
ARC
  5
6C52
330
1F
100
AcDbEntity
  8
AM_4
100
AcDbCircle
 10
731.9644615768241
 20
1015.318100050518
 30
0.0
 40
8.330999999999999
100
AcDbArc
 50
260.0
 51
170.0
  0
LINE
  5
6C53
330
1F
100
AcDbEntity
  8
AM_7
  6
AM_ISO08W050x2
100
AcDbLine
 10
731.9644615768241
 20
1025.649100050517
 30
0.0
 11
731.9644615768241
 21
1004.987100050518
 31
0.0
  0
CIRCLE
  5
6C54
330
1F
100
AcDbEntity
  8
AM_0
100
AcDbCircle
 10
731.9644615768241
 20
1015.318100050518
 30
0.0
 40
7.474999999999998
  0
LINE
  5
6C55
330
1F
100
AcDbEntity
  8
AM_7
  6
AM_ISO08W050x2
100
AcDbLine
 10
721.633461576824
 20
1015.318100050518
 30
0.0
 11
742.295461576824
 21
1015.318100050518
 31
0.0
  0
ARC
  5
6C70
330
1F
100
AcDbEntity
  8
AM_4
100
AcDbCircle
 10
766.4644615768241
 20
1195.127023902659
 30
0.0
 40
4.0
100
AcDbArc
 50
260.0
 51
170.0
  0
CIRCLE
  5
6C71
330
1F
100
AcDbEntity
  8
AM_0
100
AcDbCircle
 10
766.4644615768241
 20
1195.127023902659
 30
0.0
 40
3.323417653293459
  0
LINE
  5
6C72
330
1F
100
AcDbEntity
  8
AM_7
  6
AM_ISO08W050x2
100
AcDbLine
 10
760.4644615768242
 20
1195.127023902659
 30
0.0
 11
772.4644615768242
 21
1195.127023902659
 31
0.0
  0
LINE
  5
6C73
330
1F
100
AcDbEntity
  8
AM_7
  6
AM_ISO08W050x2
100
AcDbLine
 10
766.4644615768241
 20
1189.127023902659
 30
0.0
 11
766.4644615768241
 21
1201.127023902659
 31
0.0
  0
ARC
  5
6C74
330
1F
100
AcDbEntity
  8
AM_4
100
AcDbCircle
 10
709.9644615768242
 20
1195.127023902659
 30
0.0
 40
4.0
100
AcDbArc
 50
260.0
 51
170.0
  0
CIRCLE
  5
6C75
330
1F
100
AcDbEntity
  8
AM_0
100
AcDbCircle
 10
709.9644615768242
 20
1195.127023902659
 30
0.0
 40
3.323417653293459
  0
LINE
  5
6C76
330
1F
100
AcDbEntity
  8
AM_7
  6
AM_ISO08W050x2
100
AcDbLine
 10
703.9644615768241
 20
1195.127023902659
 30
0.0
 11
715.9644615768241
 21
1195.127023902659
 31
0.0
  0
LINE
  5
6C77
330
1F
100
AcDbEntity
  8
AM_7
  6
AM_ISO08W050x2
100
AcDbLine
 10
709.9644615768242
 20
1189.127023902659
 30
0.0
 11
709.9644615768242
 21
1201.127023902659
 31
0.0
  0
ARC
  5
6C78
330
1F
100
AcDbEntity
  8
AM_4
100
AcDbCircle
 10
709.9644615768242
 20
1251.627023902659
 30
0.0
 40
4.0
100
AcDbArc
 50
260.0
 51
170.0
  0
CIRCLE
  5
6C79
330
1F
100
AcDbEntity
  8
AM_0
100
AcDbCircle
 10
709.9644615768242
 20
1251.627023902659
 30
0.0
 40
3.323417653293459
  0
LINE
  5
6C7A
330
1F
100
AcDbEntity
  8
AM_7
  6
AM_ISO08W050x2
100
AcDbLine
 10
703.9644615768241
 20
1251.627023902659
 30
0.0
 11
715.9644615768241
 21
1251.627023902659
 31
0.0
  0
LINE
  5
6C7B
330
1F
100
AcDbEntity
  8
AM_7
  6
AM_ISO08W050x2
100
AcDbLine
 10
709.9644615768242
 20
1245.627023902659
 30
0.0
 11
709.9644615768242
 21
1257.627023902659
 31
0.0
  0
ARC
  5
6C7C
330
1F
100
AcDbEntity
  8
AM_4
100
AcDbCircle
 10
766.4644615768241
 20
1251.627023902659
 30
0.0
 40
4.0
100
AcDbArc
 50
260.0
 51
170.0
  0
CIRCLE
  5
6C7D
330
1F
100
AcDbEntity
  8
AM_0
100
AcDbCircle
 10
766.4644615768241
 20
1251.627023902659
 30
0.0
 40
3.323417653293459
  0
LINE
  5
6C7E
330
1F
100
AcDbEntity
  8
AM_7
  6
AM_ISO08W050x2
100
AcDbLine
 10
760.4644615768242
 20
1251.627023902659
 30
0.0
 11
772.4644615768242
 21
1251.627023902659
 31
0.0
  0
LINE
  5
6C7F
330
1F
100
AcDbEntity
  8
AM_7
  6
AM_ISO08W050x2
100
AcDbLine
 10
766.4644615768241
 20
1245.627023902659
 30
0.0
 11
766.4644615768241
 21
1257.627023902659
 31
0.0
  0
LINE
  5
6C8D
330
1F
100
AcDbEntity
  8
AM_7
  6
AM_ISO08W050x2
100
AcDbLine
 10
724.4644615768241
 20
1251.627023902659
 30
0.0
 11
729.4644615768241
 21
1251.627023902659
 31
0.0
1001
GENIUS_GENOREF_13
1005
6C91
  0
LINE
  5
6C8E
330
1F
100
AcDbEntity
  8
AM_7
  6
AM_ISO08W050x2
100
AcDbLine
 10
724.4644615768241
 20
1251.627023902659
 30
0.0
 11
724.4644615768241
 21
1256.627023902659
 31
0.0
1001
GENIUS_GENOREF_13
1005
6C91
  0
LINE
  5
6C8F
330
1F
100
AcDbEntity
  8
AM_7
  6
AM_ISO08W050x2
100
AcDbLine
 10
724.4644615768241
 20
1251.627023902659
 30
0.0
 11
719.4644615768241
 21
1251.627023902659
 31
0.0
1001
GENIUS_GENOREF_13
1005
6C91
  0
LINE
  5
6C90
330
1F
100
AcDbEntity
  8
AM_7
  6
AM_ISO08W050x2
100
AcDbLine
 10
724.4644615768241
 20
1251.627023902659
 30
0.0
 11
724.4644615768241
 21
1246.627023902659
 31
0.0
1001
GENIUS_GENOREF_13
1005
6C91
  0
POINT
  5
6C91
330
1F
100
AcDbEntity
  8
0
 60
     1
100
AcDbPoint
 10
0.0
 20
0.0
 30
0.0
1001
GENIUS_GENOENT_13
1002
{
1000
MYREF
1005
6C91
1002
}
1002
{
1000
GRP
1005
0
1002
}
1001
GENIUS_GENOBJ-N-CRS_13
1002
{
1000
OWNER
1000
GEN
1002
}
1001
GENIUS_GENOLIS_13
1002
{
1000
ENT
1005
6C90
1005
6C8F
1005
6C8E
1005
6C8D
1002
}
1001
GENIUS_GENODEF_13
1002
{
1000
HIER
1070
    10
1002
}
1002
{
1000
MANEDIT
1070
     0
1002
}
1002
{
1000
NOSEL
1070
     0
1002
}
1002
{
1000
BEHIND
1070
     0
1002
}
1002
{
1000
OTHER
1070
     0
1002
}
1002
{
1000
REACTOR
1002
}
  0
LINE
  5
6C9F
330
1F
100
AcDbEntity
  8
AM_7
  6
AM_ISO08W050x2
100
AcDbLine
 10
752.4644615768242
 20
1251.627023902659
 30
0.0
 11
757.4644615768241
 21
1251.627023902659
 31
0.0
1001
GENIUS_GENOREF_13
1005
6CA3
  0
LINE
  5
6CA0
330
1F
100
AcDbEntity
  8
AM_7
  6
AM_ISO08W050x2
100
AcDbLine
 10
752.4644615768242
 20
1251.627023902659
 30
0.0
 11
752.4644615768242
 21
1256.627023902659
 31
0.0
1001
GENIUS_GENOREF_13
1005
6CA3
  0
LINE
  5
6CA1
330
1F
100
AcDbEntity
  8
AM_7
  6
AM_ISO08W050x2
100
AcDbLine
 10
752.4644615768242
 20
1251.627023902659
 30
0.0
 11
747.4644615768242
 21
1251.627023902659
 31
0.0
1001
GENIUS_GENOREF_13
1005
6CA3
  0
LINE
  5
6CA2
330
1F
100
AcDbEntity
  8
AM_7
  6
AM_ISO08W050x2
100
AcDbLine
 10
752.4644615768242
 20
1251.627023902659
 30
0.0
 11
752.4644615768242
 21
1246.627023902659
 31
0.0
1001
GENIUS_GENOREF_13
1005
6CA3
  0
POINT
  5
6CA3
330
1F
100
AcDbEntity
  8
0
 60
     1
100
AcDbPoint
 10
0.0
 20
0.0
 30
0.0
1001
GENIUS_GENOBJ-N-CRS_13
1002
{
1000
OWNER
1000
GEN
1002
}
1001
GENIUS_GENODEF_13
1002
{
1000
HIER
1070
    10
1002
}
1002
{
1000
MANEDIT
1070
     0
1002
}
1002
{
1000
NOSEL
1070
     0
1002
}
1002
{
1000
BEHIND
1070
     0
1002
}
1002
{
1000
OTHER
1070
     0
1002
}
1002
{
1000
REACTOR
1002
}
1001
GENIUS_GENOLIS_13
1002
{
1000
ENT
1005
6CA2
1005
6CA1
1005
6CA0
1005
6C9F
1002
}
1001
GENIUS_GENOENT_13
1002
{
1000
MYREF
1005
6CA3
1002
}
1002
{
1000
GRP
1005
0
1002
}
  0
LINE
  5
6CB1
330
1F
100
AcDbEntity
  8
AM_7
  6
AM_ISO08W050x2
100
AcDbLine
 10
752.4644615768242
 20
1195.127023902659
 30
0.0
 11
757.4644615768241
 21
1195.127023902659
 31
0.0
1001
GENIUS_GENOREF_13
1005
6CB5
  0
LINE
  5
6CB2
330
1F
100
AcDbEntity
  8
AM_7
  6
AM_ISO08W050x2
100
AcDbLine
 10
752.4644615768242
 20
1195.127023902659
 30
0.0
 11
752.4644615768242
 21
1200.127023902659
 31
0.0
1001
GENIUS_GENOREF_13
1005
6CB5
  0
LINE
  5
6CB3
330
1F
100
AcDbEntity
  8
AM_7
  6
AM_ISO08W050x2
100
AcDbLine
 10
752.4644615768242
 20
1195.127023902659
 30
0.0
 11
747.4644615768242
 21
1195.127023902659
 31
0.0
1001
GENIUS_GENOREF_13
1005
6CB5
  0
LINE
  5
6CB4
330
1F
100
AcDbEntity
  8
AM_7
  6
AM_ISO08W050x2
100
AcDbLine
 10
752.4644615768242
 20
1195.127023902659
 30
0.0
 11
752.4644615768242
 21
1190.127023902659
 31
0.0
1001
GENIUS_GENOREF_13
1005
6CB5
  0
POINT
  5
6CB5
330
1F
100
AcDbEntity
  8
0
 60
     1
100
AcDbPoint
 10
0.0
 20
0.0
 30
0.0
1001
GENIUS_GENOBJ-N-CRS_13
1002
{
1000
OWNER
1000
GEN
1002
}
1001
GENIUS_GENODEF_13
1002
{
1000
HIER
1070
    10
1002
}
1002
{
1000
MANEDIT
1070
     0
1002
}
1002
{
1000
NOSEL
1070
     0
1002
}
1002
{
1000
BEHIND
1070
     0
1002
}
1002
{
1000
OTHER
1070
     0
1002
}
1002
{
1000
REACTOR
1002
}
1001
GENIUS_GENOLIS_13
1002
{
1000
ENT
1005
6CB4
1005
6CB3
1005
6CB2
1005
6CB1
1002
}
1001
GENIUS_GENOENT_13
1002
{
1000
MYREF
1005
6CB5
1002
}
1002
{
1000
GRP
1005
0
1002
}
  0
LINE
  5
6CC3
330
1F
100
AcDbEntity
  8
AM_7
  6
AM_ISO08W050x2
100
AcDbLine
 10
724.4644615768241
 20
1195.127023902659
 30
0.0
 11
729.4644615768241
 21
1195.127023902659
 31
0.0
1001
GENIUS_GENOREF_13
1005
6CC7
  0
LINE
  5
6CC4
330
1F
100
AcDbEntity
  8
AM_7
  6
AM_ISO08W050x2
100
AcDbLine
 10
724.4644615768241
 20
1195.127023902659
 30
0.0
 11
724.4644615768241
 21
1200.127023902659
 31
0.0
1001
GENIUS_GENOREF_13
1005
6CC7
  0
LINE
  5
6CC5
330
1F
100
AcDbEntity
  8
AM_7
  6
AM_ISO08W050x2
100
AcDbLine
 10
724.4644615768241
 20
1195.127023902659
 30
0.0
 11
719.4644615768241
 21
1195.127023902659
 31
0.0
1001
GENIUS_GENOREF_13
1005
6CC7
  0
LINE
  5
6CC6
330
1F
100
AcDbEntity
  8
AM_7
  6
AM_ISO08W050x2
100
AcDbLine
 10
724.4644615768241
 20
1195.127023902659
 30
0.0
 11
724.4644615768241
 21
1190.127023902659
 31
0.0
1001
GENIUS_GENOREF_13
1005
6CC7
  0
POINT
  5
6CC7
330
1F
100
AcDbEntity
  8
0
 60
     1
100
AcDbPoint
 10
0.0
 20
0.0
 30
0.0
1001
GENIUS_GENOBJ-N-CRS_13
1002
{
1000
OWNER
1000
GEN
1002
}
1001
GENIUS_GENOLIS_13
1002
{
1000
ENT
1005
6CC6
1005
6CC5
1005
6CC4
1005
6CC3
1002
}
1001
GENIUS_GENOENT_13
1002
{
1000
MYREF
1005
6CC7
1002
}
1002
{
1000
GRP
1005
0
1002
}
1001
GENIUS_GENODEF_13
1002
{
1000
HIER
1070
    10
1002
}
1002
{
1000
MANEDIT
1070
     0
1002
}
1002
{
1000
NOSEL
1070
     0
1002
}
1002
{
1000
BEHIND
1070
     0
1002
}
1002
{
1000
OTHER
1070
     0
1002
}
1002
{
1000
REACTOR
1002
}
  0
CIRCLE
  5
6CDA
330
1F
100
AcDbEntity
  8
0
100
AcDbCircle
 10
737.9644615768239
 20
1081.818100050518
 30
0.0
 40
4.0
  0
POLYLINE
  5
6CDB
330
1F
100
AcDbEntity
  8
0
  6
Continuous
100
AcDb2dPolyline
 66
     1
 10
0.0
 20
0.0
 30
0.0
 70
     1
 40
1.0
 41
1.0
  0
VERTEX
  5
6CDC
330
6CDB
100
AcDbEntity
  8
0
  6
Continuous
100
AcDbVertex
100
AcDb2dVertex
 10
738.4644615768239
 20
1081.818100050518
 30
0.0
 42
1.0
  0
VERTEX
  5
6CDD
330
6CDB
100
AcDbEntity
  8
0
  6
Continuous
100
AcDbVertex
100
AcDb2dVertex
 10
737.4644615768239
 20
1081.818100050518
 30
0.0
 42
1.0
  0
SEQEND
  5
6CDE
330
6CDB
100
AcDbEntity
  8
0
  6
Continuous
  0
CIRCLE
  5
6CDF
330
1F
100
AcDbEntity
  8
0
100
AcDbCircle
 10
737.9644615768239
 20
962.8181000505181
 30
0.0
 40
4.0
  0
POLYLINE
  5
6CE0
330
1F
100
AcDbEntity
  8
0
  6
Continuous
100
AcDb2dPolyline
 66
     1
 10
0.0
 20
0.0
 30
0.0
 70
     1
 40
1.0
 41
1.0
  0
VERTEX
  5
6CE1
330
6CE0
100
AcDbEntity
  8
0
  6
Continuous
100
AcDbVertex
100
AcDb2dVertex
 10
738.4644615768239
 20
962.8181000505181
 30
0.0
 42
-1.0
  0
VERTEX
  5
6CE2
330
6CE0
100
AcDbEntity
  8
0
  6
Continuous
100
AcDbVertex
100
AcDb2dVertex
 10
737.4644615768239
 20
962.8181000505181
 30
0.0
 42
-1.0
  0
SEQEND
  5
6CE3
330
6CE0
100
AcDbEntity
  8
0
  6
Continuous
  0
LINE
  5
6CF4
330
1F
100
AcDbEntity
  8
AM_4
  6
HIDDEN
 48
0.5
100
AcDbLine
 10
763.1410439235308
 20
1099.81200499668
 30
0.0
 11
762.2644615768241
 21
1100.318100050518
 31
0.0
  0
LINE
  5
6CF5
330
1F
100
AcDbEntity
  8
AM_7
  6
AM_ISO08W050x2
100
AcDbLine
 10
766.4644615768241
 20
1077.39932397376
 30
0.0
 11
766.4644615768241
 21
1102.318100050518
 31
0.0
  0
LINE
  5
6CF6
330
1F
100
AcDbEntity
  8
AM_4
  6
HIDDEN
 48
0.5
100
AcDbLine
 10
762.4644615768241
 20
1100.20262999668
 30
0.0
 11
762.4644615768241
 21
1086.318100050518
 31
0.0
  0
LINE
  5
6CF7
330
1F
100
AcDbEntity
  8
AM_4
  6
HIDDEN
 48
0.5
100
AcDbLine
 10
763.1410439235308
 20
1099.81200499668
 30
0.0
 11
763.1410439235306
 21
1081.318100050518
 31
0.0
  0
LINE
  5
6CF8
330
1F
100
AcDbEntity
  8
AM_4
  6
HIDDEN
 48
0.5
100
AcDbLine
 10
770.4644615768241
 20
1100.20262999668
 30
0.0
 11
770.4644615768241
 21
1086.318100050518
 31
0.0
  0
LINE
  5
6CF9
330
1F
100
AcDbEntity
  8
AM_4
  6
HIDDEN
 48
0.5
100
AcDbLine
 10
769.7878792301176
 20
1099.81200499668
 30
0.0
 11
769.7878792301176
 21
1081.318100050518
 31
0.0
  0
LINE
  5
6CFA
330
1F
100
AcDbEntity
  8
AM_4
  6
HIDDEN
 48
0.5
100
AcDbLine
 10
763.1410439235308
 20
1099.81200499668
 30
0.0
 11
769.7878792301176
 21
1099.81200499668
 31
0.0
  0
LINE
  5
6CFB
330
1F
100
AcDbEntity
  8
AM_4
  6
HIDDEN
 48
0.5
100
AcDbLine
 10
769.7878792301176
 20
1099.81200499668
 30
0.0
 11
770.6644615768242
 21
1100.318100050518
 31
0.0
  0
LINE
  5
6CFC
330
1F
100
AcDbEntity
  8
AM_4
  6
HIDDEN
 48
0.5
100
AcDbLine
 10
770.4644615768241
 20
1086.318100050518
 30
0.0
 11
769.7878792301176
 21
1085.068100050518
 31
0.0
  0
LINE
  5
6CFD
330
1F
100
AcDbEntity
  8
AM_4
  6
HIDDEN
 48
0.5
100
AcDbLine
 10
762.4644615768241
 20
1086.318100050518
 30
0.0
 11
763.1410439235306
 21
1085.068100050518
 31
0.0
  0
LINE
  5
6CFE
330
1F
100
AcDbEntity
  8
AM_4
  6
HIDDEN
 48
0.5
100
AcDbLine
 10
770.4644615768241
 20
1086.318100050518
 30
0.0
 11
762.4644615768241
 21
1086.318100050518
 31
0.0
  0
LINE
  5
6CFF
330
1F
100
AcDbEntity
  8
AM_4
  6
HIDDEN
 48
0.5
100
AcDbLine
 10
766.4644615768241
 20
1079.39932397376
 30
0.0
 11
769.7878792301176
 21
1081.318100050518
 31
0.0
  0
LINE
  5
6D00
330
1F
100
AcDbEntity
  8
AM_4
  6
HIDDEN
 48
0.5
100
AcDbLine
 10
766.4644615768241
 20
1079.39932397376
 30
0.0
 11
763.1410439235306
 21
1081.318100050518
 31
0.0
  0
LINE
  5
6D01
330
1F
100
AcDbEntity
  8
AM_4
  6
HIDDEN
 48
0.5
100
AcDbLine
 10
769.7878792301176
 20
1081.318100050518
 30
0.0
 11
763.1410439235306
 21
1081.318100050518
 31
0.0
  0
LINE
  5
6D02
330
1F
100
AcDbEntity
  8
AM_4
  6
HIDDEN
 48
0.5
100
AcDbLine
 10
706.6410439235307
 20
1099.81200499668
 30
0.0
 11
705.7644615768241
 21
1100.318100050518
 31
0.0
  0
LINE
  5
6D03
330
1F
100
AcDbEntity
  8
AM_7
  6
AM_ISO08W050x2
100
AcDbLine
 10
709.9644615768242
 20
1077.39932397376
 30
0.0
 11
709.9644615768242
 21
1102.318100050518
 31
0.0
  0
LINE
  5
6D04
330
1F
100
AcDbEntity
  8
AM_4
  6
HIDDEN
 48
0.5
100
AcDbLine
 10
705.9644615768242
 20
1100.20262999668
 30
0.0
 11
705.9644615768242
 21
1086.318100050518
 31
0.0
  0
LINE
  5
6D05
330
1F
100
AcDbEntity
  8
AM_4
  6
HIDDEN
 48
0.5
100
AcDbLine
 10
706.6410439235307
 20
1099.81200499668
 30
0.0
 11
706.6410439235307
 21
1081.318100050518
 31
0.0
  0
LINE
  5
6D06
330
1F
100
AcDbEntity
  8
AM_4
  6
HIDDEN
 48
0.5
100
AcDbLine
 10
713.9644615768242
 20
1100.20262999668
 30
0.0
 11
713.9644615768242
 21
1086.318100050518
 31
0.0
  0
LINE
  5
6D07
330
1F
100
AcDbEntity
  8
AM_4
  6
HIDDEN
 48
0.5
100
AcDbLine
 10
713.2878792301177
 20
1099.81200499668
 30
0.0
 11
713.2878792301177
 21
1081.318100050518
 31
0.0
  0
LINE
  5
6D08
330
1F
100
AcDbEntity
  8
AM_4
  6
HIDDEN
 48
0.5
100
AcDbLine
 10
706.6410439235307
 20
1099.81200499668
 30
0.0
 11
713.2878792301177
 21
1099.81200499668
 31
0.0
  0
LINE
  5
6D09
330
1F
100
AcDbEntity
  8
AM_4
  6
HIDDEN
 48
0.5
100
AcDbLine
 10
713.2878792301177
 20
1099.81200499668
 30
0.0
 11
714.1644615768242
 21
1100.318100050518
 31
0.0
  0
LINE
  5
6D0A
330
1F
100
AcDbEntity
  8
AM_4
  6
HIDDEN
 48
0.5
100
AcDbLine
 10
713.9644615768242
 20
1086.318100050518
 30
0.0
 11
713.2878792301177
 21
1085.068100050518
 31
0.0
  0
LINE
  5
6D0B
330
1F
100
AcDbEntity
  8
AM_4
  6
HIDDEN
 48
0.5
100
AcDbLine
 10
705.9644615768242
 20
1086.318100050518
 30
0.0
 11
706.6410439235307
 21
1085.068100050518
 31
0.0
  0
LINE
  5
6D0C
330
1F
100
AcDbEntity
  8
AM_4
  6
HIDDEN
 48
0.5
100
AcDbLine
 10
713.9644615768242
 20
1086.318100050518
 30
0.0
 11
705.9644615768242
 21
1086.318100050518
 31
0.0
  0
LINE
  5
6D0D
330
1F
100
AcDbEntity
  8
AM_4
  6
HIDDEN
 48
0.5
100
AcDbLine
 10
709.9644615768242
 20
1079.39932397376
 30
0.0
 11
713.2878792301177
 21
1081.318100050518
 31
0.0
  0
LINE
  5
6D0E
330
1F
100
AcDbEntity
  8
AM_4
  6
HIDDEN
 48
0.5
100
AcDbLine
 10
709.9644615768242
 20
1079.39932397376
 30
0.0
 11
706.6410439235307
 21
1081.318100050518
 31
0.0
  0
LINE
  5
6D0F
330
1F
100
AcDbEntity
  8
AM_4
  6
HIDDEN
 48
0.5
100
AcDbLine
 10
713.2878792301177
 20
1081.318100050518
 30
0.0
 11
706.6410439235307
 21
1081.318100050518
 31
0.0
  0
LINE
  5
6D11
330
1F
100
AcDbEntity
  8
AM_4
  6
HIDDEN
 48
0.5
100
AcDbLine
 10
749.4644615768241
 20
1100.318100050518
 30
0.0
 11
749.4644615768241
 21
1094.318100050518
 31
0.0
  0
LINE
  5
6D12
330
1F
100
AcDbEntity
  8
AM_4
  6
HIDDEN
 48
0.5
100
AcDbLine
 10
749.4644615768241
 20
1094.318100050518
 30
0.0
 11
755.4644615768242
 21
1094.318100050518
 31
0.0
  0
LINE
  5
6D13
330
1F
100
AcDbEntity
  8
AM_4
  6
HIDDEN
 48
0.5
100
AcDbLine
 10
755.4644615768242
 20
1094.318100050518
 30
0.0
 11
755.4644615768242
 21
1100.318100050518
 31
0.0
  0
LINE
  5
6D14
330
1F
100
AcDbEntity
  8
AM_7
  6
AM_ISO08W050x2
100
AcDbLine
 10
752.4644615768242
 20
1092.318100050518
 30
0.0
 11
752.4644615768242
 21
1102.270675055569
 31
0.0
1001
GENIUS_GENODEF_13
1002
{
1000
HIER
1070
     0
1002
}
1002
{
1000
MANEDIT
1070
     0
1002
}
1002
{
1000
NOSEL
1070
     0
1002
}
1002
{
1000
BEHIND
1070
     0
1002
}
1002
{
1000
OTHER
1070
     0
1002
}
1002
{
1000
REACTOR
1002
}
1001
GENIUS_GENOBJ-N-CEN_13
1002
{
1000
OWNER
1000
GEN
1002
}
1001
GENIUS_GENCEN_19
1002
{
1040
2.0
1002
}
  0
LINE
  5
6D15
330
1F
100
AcDbEntity
  8
AM_4
  6
HIDDEN
 48
0.5
100
AcDbLine
 10
721.4644615768242
 20
1100.318100050518
 30
0.0
 11
721.4644615768242
 21
1094.318100050518
 31
0.0
  0
LINE
  5
6D16
330
1F
100
AcDbEntity
  8
AM_4
  6
HIDDEN
 48
0.5
100
AcDbLine
 10
721.4644615768242
 20
1094.318100050518
 30
0.0
 11
727.4644615768242
 21
1094.318100050518
 31
0.0
  0
LINE
  5
6D17
330
1F
100
AcDbEntity
  8
AM_4
  6
HIDDEN
 48
0.5
100
AcDbLine
 10
727.4644615768242
 20
1094.318100050518
 30
0.0
 11
727.4644615768242
 21
1100.318100050518
 31
0.0
  0
LINE
  5
6D18
330
1F
100
AcDbEntity
  8
AM_7
  6
AM_ISO08W050x2
100
AcDbLine
 10
724.4644615768241
 20
1092.318100050518
 30
0.0
 11
724.4644615768241
 21
1102.270675055569
 31
0.0
1001
GENIUS_GENODEF_13
1002
{
1000
HIER
1070
     0
1002
}
1002
{
1000
MANEDIT
1070
     0
1002
}
1002
{
1000
NOSEL
1070
     0
1002
}
1002
{
1000
BEHIND
1070
     0
1002
}
1002
{
1000
OTHER
1070
     0
1002
}
1002
{
1000
REACTOR
1002
}
1001
GENIUS_GENOBJ-N-CEN_13
1002
{
1000
OWNER
1000
GEN
1002
}
1001
GENIUS_GENCEN_19
1002
{
1040
2.0
1002
}
  0
LINE
  5
6D19
330
1F
100
AcDbEntity
  8
AM_4
  6
HIDDEN
 48
0.5
100
AcDbLine
 10
763.1410439235308
 20
944.8241951043558
 30
0.0
 11
762.2644615768241
 21
944.3181000505179
 31
0.0
  0
LINE
  5
6D1A
330
1F
100
AcDbEntity
  8
AM_7
  6
AM_ISO08W050x2
100
AcDbLine
 10
766.4644615768241
 20
967.2368761272764
 30
0.0
 11
766.4644615768241
 21
942.3181000505179
 31
0.0
  0
LINE
  5
6D1B
330
1F
100
AcDbEntity
  8
AM_4
  6
HIDDEN
 48
0.5
100
AcDbLine
 10
762.4644615768241
 20
944.4335701043558
 30
0.0
 11
762.4644615768241
 21
958.3181000505177
 31
0.0
  0
LINE
  5
6D1C
330
1F
100
AcDbEntity
  8
AM_4
  6
HIDDEN
 48
0.5
100
AcDbLine
 10
763.1410439235308
 20
944.8241951043558
 30
0.0
 11
763.1410439235306
 21
963.3181000505178
 31
0.0
  0
LINE
  5
6D1D
330
1F
100
AcDbEntity
  8
AM_4
  6
HIDDEN
 48
0.5
100
AcDbLine
 10
770.4644615768241
 20
944.4335701043558
 30
0.0
 11
770.4644615768241
 21
958.3181000505177
 31
0.0
  0
LINE
  5
6D1E
330
1F
100
AcDbEntity
  8
AM_4
  6
HIDDEN
 48
0.5
100
AcDbLine
 10
769.7878792301176
 20
944.8241951043558
 30
0.0
 11
769.7878792301176
 21
963.3181000505178
 31
0.0
  0
LINE
  5
6D1F
330
1F
100
AcDbEntity
  8
AM_4
  6
HIDDEN
 48
0.5
100
AcDbLine
 10
763.1410439235308
 20
944.8241951043558
 30
0.0
 11
769.7878792301176
 21
944.8241951043558
 31
0.0
  0
LINE
  5
6D20
330
1F
100
AcDbEntity
  8
AM_4
  6
HIDDEN
 48
0.5
100
AcDbLine
 10
769.7878792301176
 20
944.8241951043558
 30
0.0
 11
770.6644615768242
 21
944.3181000505179
 31
0.0
  0
LINE
  5
6D21
330
1F
100
AcDbEntity
  8
AM_4
  6
HIDDEN
 48
0.5
100
AcDbLine
 10
770.4644615768241
 20
958.3181000505177
 30
0.0
 11
769.7878792301176
 21
959.5681000505178
 31
0.0
  0
LINE
  5
6D22
330
1F
100
AcDbEntity
  8
AM_4
  6
HIDDEN
 48
0.5
100
AcDbLine
 10
762.4644615768241
 20
958.3181000505177
 30
0.0
 11
763.1410439235306
 21
959.5681000505178
 31
0.0
  0
LINE
  5
6D23
330
1F
100
AcDbEntity
  8
AM_4
  6
HIDDEN
 48
0.5
100
AcDbLine
 10
770.4644615768241
 20
958.3181000505177
 30
0.0
 11
762.4644615768241
 21
958.3181000505177
 31
0.0
  0
LINE
  5
6D24
330
1F
100
AcDbEntity
  8
AM_4
  6
HIDDEN
 48
0.5
100
AcDbLine
 10
766.4644615768241
 20
965.2368761272764
 30
0.0
 11
769.7878792301176
 21
963.3181000505178
 31
0.0
  0
LINE
  5
6D25
330
1F
100
AcDbEntity
  8
AM_4
  6
HIDDEN
 48
0.5
100
AcDbLine
 10
766.4644615768241
 20
965.2368761272764
 30
0.0
 11
763.1410439235306
 21
963.3181000505178
 31
0.0
  0
LINE
  5
6D26
330
1F
100
AcDbEntity
  8
AM_4
  6
HIDDEN
 48
0.5
100
AcDbLine
 10
769.7878792301176
 20
963.3181000505178
 30
0.0
 11
763.1410439235306
 21
963.3181000505178
 31
0.0
  0
LINE
  5
6D27
330
1F
100
AcDbEntity
  8
AM_4
  6
HIDDEN
 48
0.5
100
AcDbLine
 10
706.6410439235307
 20
944.8241951043558
 30
0.0
 11
705.7644615768241
 21
944.3181000505179
 31
0.0
  0
LINE
  5
6D28
330
1F
100
AcDbEntity
  8
AM_7
  6
AM_ISO08W050x2
100
AcDbLine
 10
709.9644615768242
 20
967.2368761272764
 30
0.0
 11
709.9644615768242
 21
942.3181000505179
 31
0.0
  0
LINE
  5
6D29
330
1F
100
AcDbEntity
  8
AM_4
  6
HIDDEN
 48
0.5
100
AcDbLine
 10
705.9644615768242
 20
944.4335701043558
 30
0.0
 11
705.9644615768242
 21
958.3181000505177
 31
0.0
  0
LINE
  5
6D2A
330
1F
100
AcDbEntity
  8
AM_4
  6
HIDDEN
 48
0.5
100
AcDbLine
 10
706.6410439235307
 20
944.8241951043558
 30
0.0
 11
706.6410439235307
 21
963.3181000505178
 31
0.0
  0
LINE
  5
6D2B
330
1F
100
AcDbEntity
  8
AM_4
  6
HIDDEN
 48
0.5
100
AcDbLine
 10
713.9644615768242
 20
944.4335701043558
 30
0.0
 11
713.9644615768242
 21
958.3181000505177
 31
0.0
  0
LINE
  5
6D2C
330
1F
100
AcDbEntity
  8
AM_4
  6
HIDDEN
 48
0.5
100
AcDbLine
 10
713.2878792301177
 20
944.8241951043558
 30
0.0
 11
713.2878792301177
 21
963.3181000505178
 31
0.0
  0
LINE
  5
6D2D
330
1F
100
AcDbEntity
  8
AM_4
  6
HIDDEN
 48
0.5
100
AcDbLine
 10
706.6410439235307
 20
944.8241951043558
 30
0.0
 11
713.2878792301177
 21
944.8241951043558
 31
0.0
  0
LINE
  5
6D2E
330
1F
100
AcDbEntity
  8
AM_4
  6
HIDDEN
 48
0.5
100
AcDbLine
 10
713.2878792301177
 20
944.8241951043558
 30
0.0
 11
714.1644615768242
 21
944.3181000505179
 31
0.0
  0
LINE
  5
6D2F
330
1F
100
AcDbEntity
  8
AM_4
  6
HIDDEN
 48
0.5
100
AcDbLine
 10
713.9644615768242
 20
958.3181000505177
 30
0.0
 11
713.2878792301177
 21
959.5681000505178
 31
0.0
  0
LINE
  5
6D30
330
1F
100
AcDbEntity
  8
AM_4
  6
HIDDEN
 48
0.5
100
AcDbLine
 10
705.9644615768242
 20
958.3181000505177
 30
0.0
 11
706.6410439235307
 21
959.5681000505178
 31
0.0
  0
LINE
  5
6D31
330
1F
100
AcDbEntity
  8
AM_4
  6
HIDDEN
 48
0.5
100
AcDbLine
 10
713.9644615768242
 20
958.3181000505177
 30
0.0
 11
705.9644615768242
 21
958.3181000505177
 31
0.0
  0
LINE
  5
6D32
330
1F
100
AcDbEntity
  8
AM_4
  6
HIDDEN
 48
0.5
100
AcDbLine
 10
709.9644615768242
 20
965.2368761272764
 30
0.0
 11
713.2878792301177
 21
963.3181000505178
 31
0.0
  0
LINE
  5
6D33
330
1F
100
AcDbEntity
  8
AM_4
  6
HIDDEN
 48
0.5
100
AcDbLine
 10
709.9644615768242
 20
965.2368761272764
 30
0.0
 11
706.6410439235307
 21
963.3181000505178
 31
0.0
  0
LINE
  5
6D34
330
1F
100
AcDbEntity
  8
AM_4
  6
HIDDEN
 48
0.5
100
AcDbLine
 10
713.2878792301177
 20
963.3181000505178
 30
0.0
 11
706.6410439235307
 21
963.3181000505178
 31
0.0
  0
LINE
  5
6D35
330
1F
100
AcDbEntity
  8
AM_4
  6
HIDDEN
 48
0.5
100
AcDbLine
 10
749.4644615768241
 20
944.3181000505179
 30
0.0
 11
749.4644615768241
 21
950.3181000505177
 31
0.0
  0
LINE
  5
6D36
330
1F
100
AcDbEntity
  8
AM_4
  6
HIDDEN
 48
0.5
100
AcDbLine
 10
749.4644615768241
 20
950.3181000505177
 30
0.0
 11
755.4644615768242
 21
950.3181000505177
 31
0.0
  0
LINE
  5
6D37
330
1F
100
AcDbEntity
  8
AM_4
  6
HIDDEN
 48
0.5
100
AcDbLine
 10
755.4644615768242
 20
950.3181000505177
 30
0.0
 11
755.4644615768242
 21
944.3181000505179
 31
0.0
  0
LINE
  5
6D38
330
1F
100
AcDbEntity
  8
AM_7
  6
AM_ISO08W050x2
100
AcDbLine
 10
752.4644615768242
 20
952.3181000505179
 30
0.0
 11
752.4644615768242
 21
942.3655250454672
 31
0.0
1001
GENIUS_GENODEF_13
1002
{
1000
HIER
1070
     0
1002
}
1002
{
1000
MANEDIT
1070
     0
1002
}
1002
{
1000
NOSEL
1070
     0
1002
}
1002
{
1000
BEHIND
1070
     0
1002
}
1002
{
1000
OTHER
1070
     0
1002
}
1002
{
1000
REACTOR
1002
}
1001
GENIUS_GENOBJ-N-CEN_13
1002
{
1000
OWNER
1000
GEN
1002
}
1001
GENIUS_GENCEN_19
1002
{
1040
2.0
1002
}
  0
LINE
  5
6D39
330
1F
100
AcDbEntity
  8
AM_4
  6
HIDDEN
 48
0.5
100
AcDbLine
 10
721.4644615768242
 20
944.3181000505179
 30
0.0
 11
721.4644615768242
 21
950.3181000505177
 31
0.0
  0
LINE
  5
6D3A
330
1F
100
AcDbEntity
  8
AM_4
  6
HIDDEN
 48
0.5
100
AcDbLine
 10
721.4644615768242
 20
950.3181000505177
 30
0.0
 11
727.4644615768242
 21
950.3181000505177
 31
0.0
  0
LINE
  5
6D3B
330
1F
100
AcDbEntity
  8
AM_4
  6
HIDDEN
 48
0.5
100
AcDbLine
 10
727.4644615768242
 20
950.3181000505177
 30
0.0
 11
727.4644615768242
 21
944.3181000505179
 31
0.0
  0
LINE
  5
6D3C
330
1F
100
AcDbEntity
  8
AM_7
  6
AM_ISO08W050x2
100
AcDbLine
 10
724.4644615768241
 20
952.3181000505179
 30
0.0
 11
724.4644615768241
 21
942.3655250454672
 31
0.0
1001
GENIUS_GENODEF_13
1002
{
1000
HIER
1070
     0
1002
}
1002
{
1000
MANEDIT
1070
     0
1002
}
1002
{
1000
NOSEL
1070
     0
1002
}
1002
{
1000
BEHIND
1070
     0
1002
}
1002
{
1000
OTHER
1070
     0
1002
}
1002
{
1000
REACTOR
1002
}
1001
GENIUS_GENOBJ-N-CEN_13
1002
{
1000
OWNER
1000
GEN
1002
}
1001
GENIUS_GENCEN_19
1002
{
1040
2.0
1002
}
  0
LINE
  5
6D47
330
1F
100
AcDbEntity
  8
AM_4
  6
HIDDEN
 48
0.5
100
AcDbLine
 10
821.4644615768241
 20
972.318100050518
 30
0.0
 11
829.9644615768242
 21
972.318100050518
 31
0.0
  0
LINE
  5
6D48
330
1F
100
AcDbEntity
  8
AM_4
  6
HIDDEN
 48
0.5
100
AcDbLine
 10
829.9644615768242
 20
969.8181000505181
 30
0.0
 11
841.4644615768239
 21
969.8181000505183
 31
0.0
  0
LINE
  5
6D49
330
1F
100
AcDbEntity
  8
AM_4
  6
HIDDEN
 48
0.5
100
AcDbLine
 10
821.4644615768241
 20
958.3181000505181
 30
0.0
 11
829.9644615768242
 21
958.3181000505181
 31
0.0
  0
LINE
  5
6D4A
330
1F
100
AcDbEntity
  8
AM_4
  6
HIDDEN
 48
0.5
100
AcDbLine
 10
829.9644615768242
 20
958.3181000505181
 30
0.0
 11
829.9644615768242
 21
972.318100050518
 31
0.0
  0
LINE
  5
6D4B
330
1F
100
AcDbEntity
  8
AM_4
  6
HIDDEN
 48
0.5
100
AcDbLine
 10
829.9644615768242
 20
960.8181000505181
 30
0.0
 11
841.4644615768239
 21
960.8181000505178
 31
0.0
  0
LINE
  5
6D4C
330
1F
100
AcDbEntity
  8
AM_7
100
AcDbLine
 10
819.4644615768241
 20
965.3181000505181
 30
0.0
 11
843.4644615768242
 21
965.3181000505181
 31
0.0
1001
GENIUS_GENOBJ-N-CEN_13
1002
{
1000
OWNER
1000
GEN
1002
}
1001
GENIUS_GENODEF_13
1002
{
1000
HIER
1070
     0
1002
}
1002
{
1000
MANEDIT
1070
     0
1002
}
1002
{
1000
NOSEL
1070
     0
1002
}
1002
{
1000
BEHIND
1070
     0
1002
}
1002
{
1000
OTHER
1070
     0
1002
}
1002
{
1000
REACTOR
1002
}
1001
GENIUS_GENCEN_19
1002
{
1040
2.0
1002
}
  0
LINE
  5
6D4D
330
1F
100
AcDbEntity
  8
AM_4
  6
HIDDEN
 48
0.5
100
AcDbLine
 10
821.4644615768239
 20
1067.818100050518
 30
0.0
 11
829.964461576824
 21
1067.818100050518
 31
0.0
  0
LINE
  5
6D4E
330
1F
100
AcDbEntity
  8
AM_4
  6
HIDDEN
 48
0.5
100
AcDbLine
 10
829.964461576824
 20
1070.318100050518
 30
0.0
 11
841.4644615768237
 21
1070.318100050517
 31
0.0
  0
LINE
  5
6D4F
330
1F
100
AcDbEntity
  8
AM_4
  6
HIDDEN
 48
0.5
100
AcDbLine
 10
821.4644615768239
 20
1081.818100050518
 30
0.0
 11
829.964461576824
 21
1081.818100050518
 31
0.0
  0
LINE
  5
6D50
330
1F
100
AcDbEntity
  8
AM_4
  6
HIDDEN
 48
0.5
100
AcDbLine
 10
829.964461576824
 20
1081.818100050518
 30
0.0
 11
829.964461576824
 21
1067.818100050518
 31
0.0
  0
LINE
  5
6D51
330
1F
100
AcDbEntity
  8
AM_4
  6
HIDDEN
 48
0.5
100
AcDbLine
 10
829.964461576824
 20
1079.318100050518
 30
0.0
 11
841.4644615768237
 21
1079.318100050518
 31
0.0
  0
LINE
  5
6D52
330
1F
100
AcDbEntity
  8
AM_7
100
AcDbLine
 10
819.464461576824
 20
1074.818100050518
 30
0.0
 11
843.464461576824
 21
1074.818100050518
 31
0.0
1001
GENIUS_GENOBJ-N-CEN_13
1002
{
1000
OWNER
1000
GEN
1002
}
1001
GENIUS_GENODEF_13
1002
{
1000
HIER
1070
     0
1002
}
1002
{
1000
MANEDIT
1070
     0
1002
}
1002
{
1000
NOSEL
1070
     0
1002
}
1002
{
1000
BEHIND
1070
     0
1002
}
1002
{
1000
OTHER
1070
     0
1002
}
1002
{
1000
REACTOR
1002
}
1001
GENIUS_GENCEN_19
1002
{
1040
2.0
1002
}
  0
LINE
  5
6D63
330
1F
100
AcDbEntity
  8
AM_4
  6
HIDDEN
 48
0.5
100
AcDbLine
 10
841.4644615768242
 20
1046.568100050518
 30
0.0
 11
821.4644615768241
 21
1046.568100050518
 31
0.0
  0
LINE
  5
6D64
330
1F
100
AcDbEntity
  8
AM_4
  6
HIDDEN
 48
0.5
100
AcDbLine
 10
841.4644615768242
 20
1054.568100050518
 30
0.0
 11
821.4644615768241
 21
1054.568100050518
 31
0.0
  0
LINE
  5
6D65
330
1F
100
AcDbEntity
  8
AM_4
  6
HIDDEN
 48
0.5
100
AcDbLine
 10
841.4644615768242
 20
1053.891517703811
 30
0.0
 11
821.4644615768241
 21
1053.891517703811
 31
0.0
  0
LINE
  5
6D66
330
1F
100
AcDbEntity
  8
AM_4
  6
HIDDEN
 48
0.5
100
AcDbLine
 10
841.4644615768242
 20
1047.244682397225
 30
0.0
 11
821.4644615768241
 21
1047.244682397225
 31
0.0
  0
LINE
  5
6D67
330
1F
100
AcDbEntity
  8
AM_7
  6
AM_ISO08W050x2
100
AcDbLine
 10
843.4644615768242
 20
1050.568100050518
 30
0.0
 11
819.8008742782899
 21
1050.568100050518
 31
0.0
  0
LINE
  5
6D68
330
1F
100
AcDbEntity
  8
AM_7
100
AcDbLine
 10
819.4644615768241
 20
1050.568100050518
 30
0.0
 11
843.4644615768242
 21
1050.568100050518
 31
0.0
1001
GENIUS_GENOBJ-N-CEN_13
1002
{
1000
OWNER
1000
GEN
1002
}
1001
GENIUS_GENODEF_13
1002
{
1000
HIER
1070
     0
1002
}
1002
{
1000
MANEDIT
1070
     0
1002
}
1002
{
1000
NOSEL
1070
     0
1002
}
1002
{
1000
BEHIND
1070
     0
1002
}
1002
{
1000
OTHER
1070
     0
1002
}
1002
{
1000
REACTOR
1002
}
1001
GENIUS_GENCEN_19
1002
{
1040
2.0
1002
}
  0
LINE
  5
6D69
330
1F
100
AcDbEntity
  8
AM_4
  6
HIDDEN
 48
0.5
100
AcDbLine
 10
821.4644615768241
 20
1039.318100050518
 30
0.0
 11
841.4644615768244
 21
1039.318100050518
 31
0.0
  0
LINE
  5
6D6A
330
1F
100
AcDbEntity
  8
AM_4
  6
HIDDEN
 48
0.5
100
AcDbLine
 10
821.4644615768241
 20
1033.318100050518
 30
0.0
 11
841.4644615768244
 21
1033.318100050518
 31
0.0
  0
LINE
  5
6D6B
330
1F
100
AcDbEntity
  8
AM_7
  6
AM_ISO08W050x2
100
AcDbLine
 10
819.2013106707086
 20
1036.318100050518
 30
0.0
 11
843.4644615768245
 21
1036.318100050518
 31
0.0
  0
LINE
  5
6D6C
330
1F
100
AcDbEntity
  8
AM_4
  6
HIDDEN
 48
0.5
100
AcDbLine
 10
841.4644615768242
 20
998.068100050518
 30
0.0
 11
821.4644615768241
 21
998.068100050518
 31
0.0
  0
LINE
  5
6D6D
330
1F
100
AcDbEntity
  8
AM_4
  6
HIDDEN
 48
0.5
100
AcDbLine
 10
841.4644615768242
 20
990.068100050518
 30
0.0
 11
821.4644615768241
 21
990.068100050518
 31
0.0
  0
LINE
  5
6D6E
330
1F
100
AcDbEntity
  8
AM_4
  6
HIDDEN
 48
0.5
100
AcDbLine
 10
841.4644615768242
 20
990.7446823972245
 30
0.0
 11
821.4644615768241
 21
990.7446823972245
 31
0.0
  0
LINE
  5
6D6F
330
1F
100
AcDbEntity
  8
AM_4
  6
HIDDEN
 48
0.5
100
AcDbLine
 10
841.4644615768242
 20
997.3915177038115
 30
0.0
 11
821.4644615768241
 21
997.3915177038115
 31
0.0
  0
LINE
  5
6D70
330
1F
100
AcDbEntity
  8
AM_7
  6
AM_ISO08W050x2
100
AcDbLine
 10
843.4644615768242
 20
994.0681000505181
 30
0.0
 11
819.8008742782899
 21
994.0681000505181
 31
0.0
  0
LINE
  5
6D71
330
1F
100
AcDbEntity
  8
AM_7
100
AcDbLine
 10
819.4644615768241
 20
994.0681000505181
 30
0.0
 11
843.4644615768242
 21
994.0681000505181
 31
0.0
1001
GENIUS_GENOBJ-N-CEN_13
1002
{
1000
OWNER
1000
GEN
1002
}
1001
GENIUS_GENODEF_13
1002
{
1000
HIER
1070
     0
1002
}
1002
{
1000
MANEDIT
1070
     0
1002
}
1002
{
1000
NOSEL
1070
     0
1002
}
1002
{
1000
BEHIND
1070
     0
1002
}
1002
{
1000
OTHER
1070
     0
1002
}
1002
{
1000
REACTOR
1002
}
1001
GENIUS_GENCEN_19
1002
{
1040
2.0
1002
}
  0
LINE
  5
6D72
330
1F
100
AcDbEntity
  8
AM_4
  6
HIDDEN
 48
0.5
100
AcDbLine
 10
821.4644615768241
 20
1005.318100050518
 30
0.0
 11
841.4644615768244
 21
1005.318100050518
 31
0.0
  0
LINE
  5
6D73
330
1F
100
AcDbEntity
  8
AM_4
  6
HIDDEN
 48
0.5
100
AcDbLine
 10
821.4644615768241
 20
1011.318100050518
 30
0.0
 11
841.4644615768244
 21
1011.318100050518
 31
0.0
  0
LINE
  5
6D74
330
1F
100
AcDbEntity
  8
AM_7
  6
AM_ISO08W050x2
100
AcDbLine
 10
819.2013106707086
 20
1008.318100050518
 30
0.0
 11
843.4644615768245
 21
1008.318100050518
 31
0.0
  0
ARC
  5
6D96
330
1F
100
AcDbEntity
  8
AM_4
  6
HIDDEN
 48
0.5
100
AcDbCircle
 10
709.9644615768242
 20
1072.318100050518
 30
0.0
 40
4.0
100
AcDbArc
 50
260.0
 51
170.0
  0
CIRCLE
  5
6D97
330
1F
100
AcDbEntity
  8
AM_4
  6
HIDDEN
 48
0.5
100
AcDbCircle
 10
709.9644615768242
 20
1072.318100050518
 30
0.0
 40
3.323417653293459
  0
LINE
  5
6D98
330
1F
100
AcDbEntity
  8
AM_7
  6
AM_ISO08W050x2
100
AcDbLine
 10
703.9644615768241
 20
1072.318100050518
 30
0.0
 11
715.9644615768241
 21
1072.318100050518
 31
0.0
  0
LINE
  5
6D99
330
1F
100
AcDbEntity
  8
AM_7
  6
AM_ISO08W050x2
100
AcDbLine
 10
709.9644615768242
 20
1066.318100050518
 30
0.0
 11
709.9644615768242
 21
1078.318100050518
 31
0.0
  0
ARC
  5
6D9A
330
1F
100
AcDbEntity
  8
AM_4
  6
HIDDEN
 48
0.5
100
AcDbCircle
 10
766.4644615768241
 20
1072.318100050518
 30
0.0
 40
4.0
100
AcDbArc
 50
260.0
 51
170.0
  0
CIRCLE
  5
6D9B
330
1F
100
AcDbEntity
  8
AM_4
  6
HIDDEN
 48
0.5
100
AcDbCircle
 10
766.4644615768241
 20
1072.318100050518
 30
0.0
 40
3.323417653293459
  0
LINE
  5
6D9C
330
1F
100
AcDbEntity
  8
AM_7
  6
AM_ISO08W050x2
100
AcDbLine
 10
760.4644615768242
 20
1072.318100050518
 30
0.0
 11
772.4644615768242
 21
1072.318100050518
 31
0.0
  0
LINE
  5
6D9D
330
1F
100
AcDbEntity
  8
AM_7
  6
AM_ISO08W050x2
100
AcDbLine
 10
766.4644615768241
 20
1066.318100050518
 30
0.0
 11
766.4644615768241
 21
1078.318100050518
 31
0.0
  0
ARC
  5
6DAA
330
1F
100
AcDbEntity
  8
AM_4
  6
HIDDEN
 48
0.5
100
AcDbCircle
 10
709.9644615768242
 20
972.3181000505185
 30
0.0
 40
4.0
100
AcDbArc
 50
190.0
 51
100.0
  0
CIRCLE
  5
6DAB
330
1F
100
AcDbEntity
  8
AM_4
  6
HIDDEN
 48
0.5
100
AcDbCircle
 10
709.9644615768242
 20
972.3181000505185
 30
0.0
 40
3.323417653293459
  0
LINE
  5
6DAC
330
1F
100
AcDbEntity
  8
AM_7
  6
AM_ISO08W050x2
100
AcDbLine
 10
703.9644615768241
 20
972.3181000505185
 30
0.0
 11
715.9644615768241
 21
972.3181000505185
 31
0.0
  0
LINE
  5
6DAD
330
1F
100
AcDbEntity
  8
AM_7
  6
AM_ISO08W050x2
100
AcDbLine
 10
709.9644615768242
 20
978.3181000505186
 30
0.0
 11
709.9644615768242
 21
966.3181000505185
 31
0.0
  0
ARC
  5
6DAE
330
1F
100
AcDbEntity
  8
AM_4
  6
HIDDEN
 48
0.5
100
AcDbCircle
 10
766.4644615768241
 20
972.3181000505185
 30
0.0
 40
4.0
100
AcDbArc
 50
190.0
 51
100.0
  0
CIRCLE
  5
6DAF
330
1F
100
AcDbEntity
  8
AM_4
  6
HIDDEN
 48
0.5
100
AcDbCircle
 10
766.4644615768241
 20
972.3181000505185
 30
0.0
 40
3.323417653293459
  0
LINE
  5
6DB0
330
1F
100
AcDbEntity
  8
AM_7
  6
AM_ISO08W050x2
100
AcDbLine
 10
760.4644615768242
 20
972.3181000505185
 30
0.0
 11
772.4644615768242
 21
972.3181000505185
 31
0.0
  0
LINE
  5
6DB1
330
1F
100
AcDbEntity
  8
AM_7
  6
AM_ISO08W050x2
100
AcDbLine
 10
766.4644615768241
 20
978.3181000505186
 30
0.0
 11
766.4644615768241
 21
966.3181000505185
 31
0.0
  0
LINE
  5
6DBE
330
1F
100
AcDbEntity
  8
0
100
AcDbLine
 10
796.4644615768242
 20
1015.535770067393
 30
0.0
 11
803.4644615768241
 21
1029.100430033643
 31
0.0
  0
LINE
  5
6DBF
330
1F
100
AcDbEntity
  8
0
100
AcDbLine
 10
796.4644615768242
 20
1029.100430033643
 30
0.0
 11
803.4644615768243
 21
1015.535770067393
 31
0.0
  0
DIMENSION
  5
6DC1
330
1F
100
AcDbEntity
  8
AM_5
100
AcDbDimension
  2
*D2
 10
766.4644615768241
 20
1159.377023902659
 30
0.0
 11
738.2144615768241
 21
1163.127023902659
 31
0.0
 70
    32
 71
     5
 42
56.5
  3
AM_ISO$0
100
AcDbAlignedDimension
 13
709.9644615768242
 23
1189.127023902659
 33
0.0
 14
766.4644615768241
 24
1189.127023902659
 34
0.0
100
AcDbRotatedDimension
1001
ACAD
1000
DSTYLE
1002
{
1070
    40
1040
1.5
1070
   272
1070
     8
1002
}
  0
DIMENSION
  5
6DC2
330
1F
100
AcDbEntity
  8
AM_5
100
AcDbDimension
  2
*D3
 10
797.6987579931273
 20
1251.627023902659
 30
0.0
 11
797.6987579931273
 21
1211.213647966078
 31
0.0
 70
   160
 71
     5
 42
56.5
  3
AM_ISO$0
100
AcDbAlignedDimension
 13
772.4644615768242
 23
1195.127023902659
 33
0.0
 14
772.4644615768242
 24
1251.627023902659
 34
0.0
 50
90.0
100
AcDbRotatedDimension
1001
ACAD
1000
DSTYLE
1002
{
1070
    40
1040
1.5
1070
   272
1070
     8
1002
}
  0
INSERT
  5
6DC3
330
1F
100
AcDbEntity
  8
AM_5
100
AcDbBlockReference
  2
*S27
 10
0.0
 20
0.0
 30
0.0
  0
DIMENSION
  5
6DC4
330
1F
100
AcDbEntity
  8
AM_5
100
AcDbDimension
  2
*D4
 10
752.4644615768242
 20
1171.377023902659
 30
0.0
 11
738.4644615768242
 21
1175.127466816045
 31
0.0
 70
    32
 71
     5
 42
28.0
  3
AM_ISO$0
100
AcDbAlignedDimension
 13
724.4644615768241
 23
1190.127023902659
 33
0.0
 14
752.4644615768242
 24
1190.127023902659
 34
0.0
100
AcDbRotatedDimension
1001
ACAD
1000
DSTYLE
1002
{
1070
    40
1040
1.5
1070
   272
1070
     8
1002
}
  0
INSERT
  5
6DC5
330
1F
100
AcDbEntity
  8
AM_5
100
AcDbBlockReference
  2
*S28
 10
0.0
 20
0.0
 30
0.0
  0
TEXT
  5
6DC6
330
1F
100
AcDbEntity
  8
AM_5
100
AcDbText
 10
660.0149112680914
 20
1167.677366903301
 30
0.0
 40
4.5
  1
2x4-%%c6x6depth
100
AcDbText
  0
TEXT
  5
6DC7
330
1F
100
AcDbEntity
  8
AM_5
100
AcDbText
 10
680.3268853896177
 20
1172.580335797068
 30
0.0
 40
2.25
  1
H7
 41
0.8
  7
CHINESET
100
AcDbText
  0
TEXT
  5
6E22
330
1F
100
AcDbEntity
  8
AM_5
100
AcDbText
 10
790.5712444175245
 20
1171.939888257865
 30
0.0
 40
4.5
  1
2x4-M8x14depth
100
AcDbText
  0
DIMENSION
  5
6E2E
330
1F
100
AcDbEntity
  8
AM_5
100
AcDbDimension
  2
*D5
 10
752.4644615768242
 20
1119.605170845012
 30
0.0
 11
749.9644615768241
 21
1119.605170845012
 31
0.0
 70
   160
 71
     5
 42
5.0
  3
AM_ISO$0
100
AcDbAlignedDimension
 13
747.4644615768242
 23
1063.318100050518
 33
0.0
 14
752.4644615768242
 24
1102.270675055569
 34
0.0
100
AcDbRotatedDimension
1001
ACAD
1000
DSTYLE
1002
{
1070
    40
1040
1.5
1070
   272
1070
     8
1002
}
  0
DIMENSION
  5
6E2F
330
1F
100
AcDbEntity
  8
AM_5
100
AcDbDimension
  2
*D6
 10
841.4644615768242
 20
1131.605170845012
 30
0.0
 11
794.4644615768241
 21
1135.355170845012
 31
0.0
 70
    32
 71
     5
 42
94.0
  3
AM_ISO$0
100
AcDbAlignedDimension
 13
747.4644615768242
 23
1063.318100050518
 33
0.0
 14
841.4644615768242
 24
1097.318100050518
 34
0.0
100
AcDbRotatedDimension
1001
ACAD
1000
DSTYLE
1002
{
1070
    40
1040
1.5
1070
   272
1070
     8
1002
}
  0
DIMENSION
  5
6E30
330
1F
100
AcDbEntity
  8
AM_5
100
AcDbDimension
  2
*D7
 10
747.4644615768242
 20
1131.605170845012
 30
0.0
 11
659.9644615768242
 21
1135.355613758398
 31
0.0
 70
    32
  1
125+stroke
 71
     5
 42
175.0
  3
AM_ISO$0
100
AcDbAlignedDimension
 13
572.4644615768242
 23
1043.968100050517
 33
0.0
 14
747.4644615768242
 24
1063.318100050518
 34
0.0
100
AcDbRotatedDimension
1001
ACAD
1000
DSTYLE
1002
{
1070
    40
1040
1.5
1070
   272
1070
     8
1002
}
  0
DIMENSION
  5
6E9B
330
1F
100
AcDbEntity
  8
AM_5
100
AcDbDimension
  2
*D8
 10
841.4644615768242
 20
913.5005486609699
 30
0.0
 11
701.4644615768242
 21
917.2509915743559
 31
0.0
 70
    32
  1
230+stroke
 71
     5
 42
280.0
  3
AM_ISO$0
100
AcDbAlignedDimension
 13
561.4644615768241
 23
953.8181000505181
 33
0.0
 14
841.4644615768242
 24
947.318100050518
 34
0.0
100
AcDbRotatedDimension
1001
ACAD
1000
DSTYLE
1002
{
1070
    40
1040
1.5
1070
   272
1070
     8
1002
}
  0
DIMENSION
  5
6E9C
330
1F
100
AcDbEntity
  8
AM_5
100
AcDbDimension
  2
*D9
 10
841.4644615768242
 20
925.50054866097
 30
0.0
 11
831.4644615768241
 21
929.250991574356
 31
0.0
 70
    32
 71
     5
 42
20.0
  3
AM_ISO$0
100
AcDbAlignedDimension
 13
821.4644615768241
 23
947.318100050518
 33
0.0
 14
841.4644615768242
 24
947.318100050518
 34
0.0
100
AcDbRotatedDimension
1001
ACAD
1000
DSTYLE
1002
{
1070
    40
1040
1.5
1070
   272
1070
     8
1002
}
  0
DIMENSION
  5
6E9D
330
1F
100
AcDbEntity
  8
AM_5
100
AcDbDimension
  2
*D10
 10
747.4644615768242
 20
925.50054866097
 30
0.0
 11
699.4644615768241
 21
929.25054866097
 31
0.0
 70
    32
 71
     5
 42
96.0
  3
AM_ISO$0
100
AcDbAlignedDimension
 13
651.4644615768242
 23
944.568100050518
 33
0.0
 14
747.4644615768242
 24
981.3181000505183
 34
0.0
100
AcDbRotatedDimension
1001
ACAD
1000
DSTYLE
1002
{
1070
    40
1040
1.5
1070
   272
1070
     8
1002
}
  0
DIMENSION
  5
6E9E
330
1F
100
AcDbEntity
  8
AM_5
100
AcDbDimension
  2
*D11
 10
766.4644615768241
 20
925.50054866097
 30
0.0
 11
756.9644615768241
 21
929.25054866097
 31
0.0
 70
    32
 71
     5
 42
19.0
  3
AM_ISO$0
100
AcDbAlignedDimension
 13
747.4644615768242
 23
981.3181000505183
 33
0.0
 14
766.4644615768241
 24
942.3181000505179
 34
0.0
100
AcDbRotatedDimension
1001
ACAD
1000
DSTYLE
1002
{
1070
    40
1040
1.5
1070
   272
1070
     8
1002
}
  0
DIMENSION
  5
6E9F
330
1F
100
AcDbEntity
  8
AM_5
100
AcDbDimension
  2
*D12
 10
551.4425547930313
 20
952.8181000505181
 30
0.0
 11
551.4425547930312
 21
962.8181000505181
 31
0.0
 70
   160
  1
%%c<>
 71
     5
 42
20.0
  3
AM_ISO$0
100
AcDbAlignedDimension
 13
561.4644615768241
 23
972.818100050518
 33
0.0
 14
561.4644615768241
 24
952.8181000505181
 34
0.0
 50
90.0
100
AcDbRotatedDimension
1001
ACAD
1000
DSTYLE
1002
{
1070
    40
1040
1.5
1070
   272
1070
     8
1002
}
  0
TEXT
  5
6F3F
330
1F
100
AcDbEntity
  8
AM_5
100
AcDbText
 10
544.189928455252
 20
1035.53228818629
 30
0.0
 40
4.5
  1
2-G3/8
100
AcDbText
  0
INSERT
  5
6F40
330
1F
100
AcDbEntity
  8
AM_5
100
AcDbBlockReference
  2
*S29
 10
0.0
 20
0.0
 30
0.0
  0
DIMENSION
  5
6F42
330
1F
100
AcDbEntity
  8
AM_5
100
AcDbDimension
  2
*D13
 10
971.9773831449387
 20
932.3181000505183
 30
0.0
 11
943.7273831449388
 21
932.3181000505183
 31
0.0
 70
   160
 71
     5
 42
56.50000000000011
  3
AM_ISO$0
100
AcDbAlignedDimension
 13
915.4773831449388
 23
956.318100050518
 33
0.0
 14
971.9773831449387
 24
956.3181000505183
 34
0.0
100
AcDbRotatedDimension
1001
ACAD
1000
DSTYLE
1002
{
1070
    40
1040
1.5
1070
   272
1070
     8
1002
}
  0
DIMENSION
  5
6F43
330
1F
100
AcDbEntity
  8
AM_5
100
AcDbDimension
  2
*D14
 10
981.2273831449388
 20
920.3181000505182
 30
0.0
 11
943.7273831449388
 21
924.0681000505183
 31
0.0
 70
    32
 71
     5
 42
75.0
  3
AM_ISO$0
100
AcDbAlignedDimension
 13
906.2273831449388
 23
947.318100050518
 33
0.0
 14
981.2273831449388
 24
947.3181000505183
 34
0.0
100
AcDbRotatedDimension
1001
ACAD
1000
DSTYLE
1002
{
1070
    40
1040
1.5
1070
   272
1070
     8
1002
}
  0
DIMENSION
  5
6F44
330
1F
100
AcDbEntity
  8
AM_5
100
AcDbDimension
  2
*D15
 10
983.7273831449389
 20
908.3181000505183
 30
0.0
 11
943.7273831449388
 21
912.0681000505182
 31
0.0
 70
    32
 71
     5
 42
80.00000000000012
  3
AM_ISO$0
100
AcDbAlignedDimension
 13
903.7273831449386
 23
944.3181000505182
 33
0.0
 14
983.7273831449389
 24
944.3181000505182
 34
0.0
100
AcDbRotatedDimension
1001
ACAD
1000
DSTYLE
1002
{
1070
    40
1040
1.5
1070
   272
1070
     8
1002
}
  0
DIMENSION
  5
6F45
330
1F
100
AcDbEntity
  8
AM_5
100
AcDbDimension
  2
*D16
 10
1018.659846107807
 20
1050.818100050518
 30
0.0
 11
1014.909846107807
 21
1022.568100050518
 31
0.0
 70
    32
 71
     5
 42
56.5
  3
AM_ISO$0
100
AcDbAlignedDimension
 13
977.9773831449388
 23
994.3181000505182
 33
0.0
 14
977.9773831449388
 24
1050.818100050518
 34
0.0
 50
90.0
100
AcDbRotatedDimension
1001
ACAD
1000
DSTYLE
1002
{
1070
    40
1040
1.5
1070
   272
1070
     8
1002
}
  0
DIMENSION
  5
6F46
330
1F
100
AcDbEntity
  8
AM_5
100
AcDbDimension
  2
*D17
 10
1030.659846107807
 20
1074.818100050518
 30
0.0
 11
1026.909846107807
 21
1022.318100050518
 31
0.0
 70
    32
 71
     5
 42
105.0
  3
AM_ISO$0
100
AcDbAlignedDimension
 13
980.9773831449389
 23
969.8181000505183
 33
0.0
 14
980.9773831449389
 24
1074.818100050518
 34
0.0
 50
90.0
100
AcDbRotatedDimension
1001
ACAD
1000
DSTYLE
1002
{
1070
    40
1040
1.5
1070
   272
1070
     8
1002
}
  0
DIMENSION
  5
6F47
330
1F
100
AcDbEntity
  8
AM_5
100
AcDbDimension
  2
*D18
 10
1042.659846107807
 20
1100.318100050518
 30
0.0
 11
1038.909846107807
 21
1022.318100050518
 31
0.0
 70
    32
 71
     5
 42
156.0
  3
AM_ISO$0
100
AcDbAlignedDimension
 13
983.7273831449389
 23
944.3181000505182
 33
0.0
 14
983.7273831449389
 24
1100.318100050518
 34
0.0
 50
90.0
100
AcDbRotatedDimension
1001
ACAD
1000
DSTYLE
1002
{
1070
    40
1040
1.5
1070
   272
1070
     8
1002
}
  0
DIMENSION
  5
6F48
330
1F
100
AcDbEntity
  8
AM_5
100
AcDbDimension
  2
*D19
 10
1006.659846107807
 20
1008.318100050518
 30
0.0
 11
1002.909403194421
 21
1022.318100050518
 31
0.0
 70
    32
 71
     5
 42
28.0
  3
AM_ISO$0
100
AcDbAlignedDimension
 13
976.9773831449388
 23
1036.318100050518
 33
0.0
 14
976.9773831449388
 24
1008.318100050518
 34
0.0
 50
90.0
100
AcDbRotatedDimension
1001
ACAD
1000
DSTYLE
1002
{
1070
    40
1040
1.5
1070
   272
1070
     8
1002
}
  0
ARC
  5
77ED
330
1F
100
AcDbEntity
  8
AM_4
100
AcDbCircle
 10
971.9773831449387
 20
1050.818100050518
 30
0.0
 40
4.0
100
AcDbArc
 50
260.0
 51
170.0
  0
CIRCLE
  5
77EE
330
1F
100
AcDbEntity
  8
AM_0
100
AcDbCircle
 10
971.9773831449387
 20
1050.818100050518
 30
0.0
 40
3.323417653293459
  0
LINE
  5
77EF
330
1F
100
AcDbEntity
  8
AM_7
  6
AM_ISO08W050x2
100
AcDbLine
 10
965.9773831449388
 20
1050.818100050518
 30
0.0
 11
977.9773831449388
 21
1050.818100050518
 31
0.0
  0
LINE
  5
77F0
330
1F
100
AcDbEntity
  8
AM_7
  6
AM_ISO08W050x2
100
AcDbLine
 10
971.9773831449387
 20
1044.818100050518
 30
0.0
 11
971.9773831449387
 21
1056.818100050518
 31
0.0
  0
ARC
  5
77FA
330
1F
100
AcDbEntity
  8
AM_4
100
AcDbCircle
 10
971.9773831449387
 20
994.3181000505182
 30
0.0
 40
4.0
100
AcDbArc
 50
260.0
 51
170.0
  0
CIRCLE
  5
77FB
330
1F
100
AcDbEntity
  8
AM_0
100
AcDbCircle
 10
971.9773831449387
 20
994.3181000505182
 30
0.0
 40
3.323417653293459
  0
LINE
  5
77FC
330
1F
100
AcDbEntity
  8
AM_7
  6
AM_ISO08W050x2
100
AcDbLine
 10
965.9773831449388
 20
994.3181000505182
 30
0.0
 11
977.9773831449388
 21
994.3181000505182
 31
0.0
  0
LINE
  5
77FD
330
1F
100
AcDbEntity
  8
AM_7
  6
AM_ISO08W050x2
100
AcDbLine
 10
971.9773831449387
 20
988.3181000505183
 30
0.0
 11
971.9773831449387
 21
1000.318100050518
 31
0.0
  0
ARC
  5
7807
330
1F
100
AcDbEntity
  8
AM_4
100
AcDbCircle
 10
915.4773831449388
 20
1050.818100050518
 30
0.0
 40
4.0
100
AcDbArc
 50
260.0
 51
170.0
  0
CIRCLE
  5
7808
330
1F
100
AcDbEntity
  8
AM_0
100
AcDbCircle
 10
915.4773831449388
 20
1050.818100050518
 30
0.0
 40
3.323417653293459
  0
LINE
  5
7809
330
1F
100
AcDbEntity
  8
AM_7
  6
AM_ISO08W050x2
100
AcDbLine
 10
909.4773831449387
 20
1050.818100050518
 30
0.0
 11
921.4773831449388
 21
1050.818100050518
 31
0.0
  0
LINE
  5
780A
330
1F
100
AcDbEntity
  8
AM_7
  6
AM_ISO08W050x2
100
AcDbLine
 10
915.4773831449388
 20
1044.818100050518
 30
0.0
 11
915.4773831449388
 21
1056.818100050518
 31
0.0
  0
ARC
  5
780B
330
1F
100
AcDbEntity
  8
AM_4
100
AcDbCircle
 10
915.4773831449388
 20
994.3181000505182
 30
0.0
 40
4.0
100
AcDbArc
 50
260.0
 51
170.0
  0
CIRCLE
  5
780C
330
1F
100
AcDbEntity
  8
AM_0
100
AcDbCircle
 10
915.4773831449388
 20
994.3181000505182
 30
0.0
 40
3.323417653293459
  0
LINE
  5
780D
330
1F
100
AcDbEntity
  8
AM_7
  6
AM_ISO08W050x2
100
AcDbLine
 10
909.4773831449387
 20
994.3181000505182
 30
0.0
 11
921.4773831449388
 21
994.3181000505182
 31
0.0
  0
LINE
  5
780E
330
1F
100
AcDbEntity
  8
AM_7
  6
AM_ISO08W050x2
100
AcDbLine
 10
915.4773831449388
 20
988.3181000505183
 30
0.0
 11
915.4773831449388
 21
1000.318100050518
 31
0.0
  0
LWPOLYLINE
  5
7935
330
1F
100
AcDbEntity
  8
0
100
AcDbPolyline
 90
        6
 70
     1
 43
0.0
 10
600.3097610384448
 20
1033.318100050518
 10
599.1550605000655
 20
1031.318100050518
 10
600.3097610384448
 20
1029.318100050518
 10
602.6191621152033
 20
1029.318100050518
 10
603.7738626535826
 20
1031.318100050518
 10
602.6191621152033
 20
1033.318100050518
  0
LWPOLYLINE
  5
7936
330
1F
100
AcDbEntity
  8
0
100
AcDbPolyline
 90
        6
 70
     1
 43
0.0
 10
721.3097610384448
 20
1033.318100050518
 10
720.1550605000655
 20
1031.318100050518
 10
721.3097610384448
 20
1029.318100050518
 10
723.6191621152033
 20
1029.318100050518
 10
724.7738626535826
 20
1031.318100050518
 10
723.6191621152033
 20
1033.318100050518
  0
TEXT
  5
7937
330
1F
100
AcDbEntity
  8
AM_5
100
AcDbText
 10
1004.740940590987
 20
934.1172190037127
 30
0.0
 40
4.5
  1
4-%%c9thru
100
AcDbText
  0
INSERT
  5
7938
330
1F
100
AcDbEntity
  8
AM_5
100
AcDbBlockReference
  2
*S30
 10
0.0
 20
0.0
 30
0.0
  0
TEXT
  5
7939
330
1F
100
AcDbEntity
  8
AM_5
100
AcDbText
 10
1005.194175625284
 20
924.9100335895208
 30
0.0
 40
4.5
  1
4-%%c14x8.5depth
100
AcDbText
  0
TEXT
  5
793A
330
1F
100
AcDbEntity
  8
AM_5
100
AcDbText
 10
1005.194175625284
 20
917.3626136952302
 30
0.0
 40
4.5
  1
(back side)
100
AcDbText
  0
INSERT
  5
793B
330
1F
100
AcDbEntity
  8
AM_5
100
AcDbBlockReference
  2
*S31
 10
0.0
 20
0.0
 30
0.0
  0
TEXT
  5
793C
330
1F
100
AcDbEntity
  8
AM_5
100
AcDbText
 10
877.7812224727435
 20
1027.501444335572
 30
0.0
 40
4.5
  1
4-%%c6
100
AcDbText
  0
TEXT
  5
793D
330
1F
100
AcDbEntity
  8
AM_5
100
AcDbText
 10
891.6133085545448
 20
1032.404413229341
 30
0.0
 40
2.25
  1
H7
 41
0.8
  7
CHINESET
100
AcDbText
  0
INSERT
  5
793E
330
1F
100
AcDbEntity
  8
AM_5
100
AcDbBlockReference
  2
*S32
 10
0.0
 20
0.0
 30
0.0
  0
TEXT
  5
793F
330
1F
100
AcDbEntity
  8
AM_5
100
AcDbText
 10
874.0174624368584
 20
1069.041460663648
 30
0.0
 40
4.5
  1
4-M8
100
AcDbText
  0
LINE
  5
79C8
330
1F
100
AcDbEntity
  8
AM_7
100
AcDbLine
 10
1334.585804822274
 20
1082.509981158947
 30
0.0
 11
1309.985804822275
 21
1082.509981158947
 31
0.0
  0
LINE
  5
79C9
330
1F
100
AcDbEntity
  8
AM_7
100
AcDbLine
 10
1334.585804822274
 20
963.5099811589475
 30
0.0
 11
1309.985804822275
 21
963.5099811589475
 31
0.0
  0
ARC
  5
79D0
330
1F
100
AcDbEntity
  8
AM_4
100
AcDbCircle
 10
1245.949955172218
 20
1163.030610290156
 30
0.0
 40
5.198
100
AcDbArc
 50
259.9999999999961
 51
190.0000000000039
  0
LINE
  5
79D1
330
1F
100
AcDbEntity
  8
AM_VIS
100
AcDbLine
 10
1259.699955172218
 20
962.7599811589474
 30
0.0
 11
1259.699955172218
 21
948.0099811589475
 31
0.0
  0
LINE
  5
79D2
330
1F
100
AcDbEntity
  8
AM_VIS
100
AcDbLine
 10
1144.199955172218
 20
1096.009981158947
 30
0.0
 11
1146.199955172218
 21
1098.009981158947
 31
0.0
  0
LINE
  5
79D3
330
1F
100
AcDbEntity
  8
AM_VIS
100
AcDbLine
 10
1259.699955172218
 20
1098.009981158947
 30
0.0
 11
1259.699955172218
 21
1083.259981158947
 31
0.0
  0
LINE
  5
79D4
330
1F
100
AcDbEntity
  8
AM_VIS
100
AcDbLine
 10
1259.699955172218
 20
1081.759981158947
 30
0.0
 11
1259.699955172218
 21
1063.009981158947
 31
0.0
  0
LINE
  5
79D5
102
{ACAD_REACTORS
330
7B10
102
}
330
1F
100
AcDbEntity
  8
AM_VIS
100
AcDbLine
 10
1259.699955172218
 20
1063.009981158947
 30
0.0
 11
1192.199955172218
 21
1063.009981158947
 31
0.0
  0
LINE
  5
79D6
330
1F
100
AcDbEntity
  8
AM_VIS
100
AcDbLine
 10
1182.199955172218
 20
1053.009981158947
 30
0.0
 11
1182.199955172218
 21
993.0099811589474
 31
0.0
  0
LINE
  5
79D7
330
1F
100
AcDbEntity
  8
AM_VIS
100
AcDbLine
 10
1192.199955172218
 20
983.0099811589475
 30
0.0
 11
1259.699955172218
 21
983.0099811589475
 31
0.0
  0
LINE
  5
79D8
102
{ACAD_REACTORS
330
7B10
102
}
330
1F
100
AcDbEntity
  8
AM_VIS
100
AcDbLine
 10
1259.699955172218
 20
983.0099811589475
 30
0.0
 11
1259.699955172218
 21
964.2599811589475
 31
0.0
  0
LINE
  5
79D9
330
1F
100
AcDbEntity
  8
AM_VIS
100
AcDbLine
 10
1144.199955172218
 20
950.0099811589475
 30
0.0
 11
1144.199955172218
 21
1096.009981158947
 31
0.0
  0
LINE
  5
79DA
330
1F
100
AcDbEntity
  8
AM_VIS
100
AcDbLine
 10
1146.199955172218
 20
948.0099811589475
 30
0.0
 11
1144.199955172218
 21
950.0099811589475
 31
0.0
  0
LINE
  5
79DB
330
1F
100
AcDbEntity
  8
AM_VIS
100
AcDbLine
 10
1259.699955172218
 20
948.0099811589475
 30
0.0
 11
1146.199955172218
 21
948.0099811589475
 31
0.0
  0
LINE
  5
79DC
330
1F
100
AcDbEntity
  8
AM_VIS
100
AcDbLine
 10
1146.199955172218
 20
1098.009981158947
 30
0.0
 11
1259.699955172218
 21
1098.009981158947
 31
0.0
  0
LINE
  5
79DD
330
1F
100
AcDbEntity
  8
AM_VIS
100
AcDbLine
 10
1232.673135205045
 20
1083.259981158947
 30
0.0
 11
1259.699955172218
 21
1083.259981158947
 31
0.0
  0
LINE
  5
79DE
330
1F
100
AcDbEntity
  8
AM_VIS
100
AcDbLine
 10
1259.699955172218
 20
1081.759981158947
 30
0.0
 11
1232.673135205045
 21
1081.759981158947
 31
0.0
  0
LINE
  5
79DF
330
1F
100
AcDbEntity
  8
AM_VIS
100
AcDbLine
 10
1232.171790509808
 20
1081.759981158947
 30
0.0
 11
1232.673135205045
 21
1081.759981158947
 31
0.0
  0
LINE
  5
79E0
330
1F
100
AcDbEntity
  8
AM_VIS
100
AcDbLine
 10
1232.171790509808
 20
1083.259981158947
 30
0.0
 11
1232.673135205045
 21
1083.259981158947
 31
0.0
  0
LINE
  5
79E1
330
1F
100
AcDbEntity
  8
AM_VIS
100
AcDbLine
 10
1232.673135205045
 20
964.2599811589475
 30
0.0
 11
1259.699955172218
 21
964.2599811589475
 31
0.0
  0
LINE
  5
79E2
330
1F
100
AcDbEntity
  8
AM_VIS
100
AcDbLine
 10
1259.699955172218
 20
962.7599811589474
 30
0.0
 11
1232.673135205045
 21
962.7599811589474
 31
0.0
  0
LINE
  5
79E3
330
1F
100
AcDbEntity
  8
AM_VIS
100
AcDbLine
 10
1232.171790509808
 20
962.7599811589474
 30
0.0
 11
1232.673135205045
 21
962.7599811589474
 31
0.0
  0
LINE
  5
79E4
330
1F
100
AcDbEntity
  8
AM_VIS
100
AcDbLine
 10
1232.171790509808
 20
964.2599811589475
 30
0.0
 11
1232.673135205045
 21
964.2599811589475
 31
0.0
  0
ARC
  5
79E5
330
1F
100
AcDbEntity
  8
AM_VIS
100
AcDbCircle
 10
1192.199955172218
 20
1053.009981158947
 30
0.0
 40
10.0
100
AcDbArc
 50
90.0
 51
180.0
  0
ARC
  5
79E6
330
1F
100
AcDbEntity
  8
AM_VIS
100
AcDbCircle
 10
1192.199955172218
 20
993.0099811589474
 30
0.0
 40
10.0
100
AcDbArc
 50
180.0
 51
270.0
  0
ARC
  5
79E7
330
1F
100
AcDbEntity
  8
AM_VIS
100
AcDbCircle
 10
1222.199955172218
 20
1082.509981158947
 30
0.0
 40
10.0
100
AcDbArc
 50
4.301222304672901
 51
90.0
  0
ARC
  5
79E8
330
1F
100
AcDbEntity
  8
AM_VIS
100
AcDbCircle
 10
1222.199955172218
 20
1082.509981158947
 30
0.0
 40
10.0
100
AcDbArc
 50
90.0
 51
355.6987776953271
  0
ARC
  5
79EB
330
1F
100
AcDbEntity
  8
AM_VIS
100
AcDbCircle
 10
1222.199955172218
 20
963.5099811589475
 30
0.0
 40
10.0
100
AcDbArc
 50
4.301222304672901
 51
90.0
  0
ARC
  5
79EC
330
1F
100
AcDbEntity
  8
AM_VIS
100
AcDbCircle
 10
1222.199955172218
 20
963.5099811589475
 30
0.0
 40
10.0
100
AcDbArc
 50
90.0
 51
355.6987776953271
  0
LINE
  5
79EF
330
1F
100
AcDbEntity
  8
AM_VIS
100
AcDbLine
 10
1332.285804822274
 20
962.7599811589474
 30
0.0
 11
1332.285804822274
 21
948.0099811589475
 31
0.0
  0
LINE
  5
79F0
330
1F
100
AcDbEntity
  8
AM_VIS
100
AcDbLine
 10
1332.285804822274
 20
1081.759981158947
 30
0.0
 11
1332.285804822274
 21
1063.009981158947
 31
0.0
  0
LINE
  5
79F1
330
1F
100
AcDbEntity
  8
AM_VIS
100
AcDbLine
 10
1332.285804822274
 20
983.0099811589475
 30
0.0
 11
1312.285804822274
 21
983.0099811589475
 31
0.0
  0
LINE
  5
79F2
330
1F
100
AcDbEntity
  8
AM_VIS
100
AcDbLine
 10
1332.285804822274
 20
983.0099811589475
 30
0.0
 11
1332.285804822274
 21
964.2599811589475
 31
0.0
  0
LINE
  5
79F3
330
1F
100
AcDbEntity
  8
AM_VIS
100
AcDbLine
 10
1332.285804822274
 20
1098.009981158947
 30
0.0
 11
1332.285804822274
 21
1083.259981158947
 31
0.0
  0
LINE
  5
79F4
330
1F
100
AcDbEntity
  8
AM_VIS
100
AcDbLine
 10
1332.285804822274
 20
1063.009981158947
 30
0.0
 11
1312.285804822274
 21
1063.009981158947
 31
0.0
  0
LINE
  5
79F5
330
1F
100
AcDbEntity
  8
AM_VIS
100
AcDbLine
 10
1332.285804822274
 20
1053.009981158947
 30
0.0
 11
1332.285804822274
 21
993.0099811589474
 31
0.0
  0
LINE
  5
79F6
330
1F
100
AcDbEntity
  8
AM_VIS
100
AcDbLine
 10
1312.285804822274
 20
962.7599811589474
 30
0.0
 11
1312.285804822274
 21
948.0099811589475
 31
0.0
  0
LINE
  5
79F7
330
1F
100
AcDbEntity
  8
AM_VIS
100
AcDbLine
 10
1312.285804822274
 20
1098.009981158947
 30
0.0
 11
1312.285804822274
 21
1083.259981158947
 31
0.0
  0
LINE
  5
79F8
330
1F
100
AcDbEntity
  8
AM_VIS
100
AcDbLine
 10
1312.285804822274
 20
1081.759981158947
 30
0.0
 11
1312.285804822274
 21
1063.009981158947
 31
0.0
  0
LINE
  5
79F9
330
1F
100
AcDbEntity
  8
AM_VIS
100
AcDbLine
 10
1312.285804822274
 20
1053.009981158947
 30
0.0
 11
1312.285804822274
 21
993.0099811589474
 31
0.0
  0
LINE
  5
79FA
330
1F
100
AcDbEntity
  8
AM_VIS
100
AcDbLine
 10
1312.285804822274
 20
983.0099811589475
 30
0.0
 11
1312.285804822274
 21
964.2599811589475
 31
0.0
  0
LINE
  5
79FB
102
{ACAD_REACTORS
330
7B36
102
}
330
1F
100
AcDbEntity
  8
AM_VIS
100
AcDbLine
 10
1332.285804822274
 20
948.0099811589475
 30
0.0
 11
1312.285804822274
 21
948.0099811589475
 31
0.0
  0
LINE
  5
79FC
330
1F
100
AcDbEntity
  8
AM_VIS
100
AcDbLine
 10
1332.285804822274
 20
1098.009981158947
 30
0.0
 11
1312.285804822274
 21
1098.009981158947
 31
0.0
  0
LINE
  5
79FD
330
1F
100
AcDbEntity
  8
AM_VIS
100
AcDbLine
 10
1312.285804822274
 20
1083.259981158947
 30
0.0
 11
1332.285804822274
 21
1083.259981158947
 31
0.0
  0
LINE
  5
79FE
330
1F
100
AcDbEntity
  8
AM_VIS
100
AcDbLine
 10
1332.285804822274
 20
1081.759981158947
 30
0.0
 11
1312.285804822274
 21
1081.759981158947
 31
0.0
  0
LINE
  5
79FF
330
1F
100
AcDbEntity
  8
AM_VIS
100
AcDbLine
 10
1312.285804822274
 20
964.2599811589475
 30
0.0
 11
1332.285804822274
 21
964.2599811589475
 31
0.0
  0
LINE
  5
7A00
330
1F
100
AcDbEntity
  8
AM_VIS
100
AcDbLine
 10
1332.285804822274
 20
962.7599811589474
 30
0.0
 11
1312.285804822274
 21
962.7599811589474
 31
0.0
  0
LINE
  5
7A01
330
1F
100
AcDbEntity
  8
AM_VIS
100
AcDbLine
 10
1332.285804822274
 20
1053.009981158947
 30
0.0
 11
1332.285804822274
 21
1063.009981158947
 31
0.0
  0
LINE
  5
7A02
330
1F
100
AcDbEntity
  8
AM_VIS
100
AcDbLine
 10
1332.285804822274
 20
983.0099811589475
 30
0.0
 11
1332.285804822274
 21
993.0099811589474
 31
0.0
  0
LINE
  5
7A03
330
1F
100
AcDbEntity
  8
AM_VIS
100
AcDbLine
 10
1312.285804822274
 20
1063.009981158947
 30
0.0
 11
1312.285804822274
 21
1053.009981158947
 31
0.0
  0
LINE
  5
7A04
330
1F
100
AcDbEntity
  8
AM_VIS
100
AcDbLine
 10
1312.285804822274
 20
993.0099811589474
 30
0.0
 11
1312.285804822274
 21
983.0099811589475
 31
0.0
  0
LINE
  5
7A05
330
1F
100
AcDbEntity
  8
AM_VIS
100
AcDbLine
 10
1332.285804822274
 20
1081.759981158947
 30
0.0
 11
1332.285804822274
 21
1083.259981158947
 31
0.0
  0
LINE
  5
7A06
330
1F
100
AcDbEntity
  8
AM_VIS
100
AcDbLine
 10
1331.785804822275
 20
1083.259981158947
 30
0.0
 11
1331.785804822275
 21
1081.759981158947
 31
0.0
  0
LINE
  5
7A07
330
1F
100
AcDbEntity
  8
AM_VIS
100
AcDbLine
 10
1312.785804822275
 20
1081.759981158947
 30
0.0
 11
1312.785804822275
 21
1083.259981158947
 31
0.0
  0
LINE
  5
7A08
330
1F
100
AcDbEntity
  8
AM_VIS
100
AcDbLine
 10
1312.285804822274
 20
1083.259981158947
 30
0.0
 11
1312.285804822274
 21
1081.759981158947
 31
0.0
  0
LINE
  5
7A09
330
1F
100
AcDbEntity
  8
AM_VIS
100
AcDbLine
 10
1332.285804822274
 20
962.7599811589474
 30
0.0
 11
1332.285804822274
 21
964.2599811589475
 31
0.0
  0
LINE
  5
7A0A
330
1F
100
AcDbEntity
  8
AM_VIS
100
AcDbLine
 10
1331.785804822275
 20
964.2599811589475
 30
0.0
 11
1331.785804822275
 21
962.7599811589474
 31
0.0
  0
LINE
  5
7A0B
330
1F
100
AcDbEntity
  8
AM_VIS
100
AcDbLine
 10
1312.785804822275
 20
962.7599811589474
 30
0.0
 11
1312.785804822275
 21
964.2599811589475
 31
0.0
  0
LINE
  5
7A0C
330
1F
100
AcDbEntity
  8
AM_VIS
100
AcDbLine
 10
1312.285804822274
 20
964.2599811589475
 30
0.0
 11
1312.285804822274
 21
962.7599811589474
 31
0.0
  0
LINE
  5
7A0D
330
1F
100
AcDbEntity
  8
AM_VIS
100
AcDbLine
 10
1146.199955172218
 20
1173.030610290156
 30
0.0
 11
1144.199955172218
 21
1173.030610290156
 31
0.0
  0
LINE
  5
7A0E
330
1F
100
AcDbEntity
  8
AM_VIS
100
AcDbLine
 10
1144.199955172218
 20
1153.030610290156
 30
0.0
 11
1146.199955172218
 21
1153.030610290156
 31
0.0
  0
LINE
  5
7A0F
330
1F
100
AcDbEntity
  8
AM_VIS
100
AcDbLine
 10
1144.199955172218
 20
1173.030610290156
 30
0.0
 11
1144.199955172218
 21
1153.030610290156
 31
0.0
  0
LINE
  5
7A10
330
1F
100
AcDbEntity
  8
AM_VIS
100
AcDbLine
 10
1146.199955172218
 20
1173.030610290156
 30
0.0
 11
1259.699955172218
 21
1173.030610290156
 31
0.0
  0
LINE
  5
7A11
330
1F
100
AcDbEntity
  8
AM_VIS
100
AcDbLine
 10
1259.699955172218
 20
1173.030610290156
 30
0.0
 11
1259.699955172218
 21
1153.030610290156
 31
0.0
  0
LINE
  5
7A12
330
1F
100
AcDbEntity
  8
AM_VIS
100
AcDbLine
 10
1146.199955172218
 20
1153.030610290156
 30
0.0
 11
1259.699955172218
 21
1153.030610290156
 31
0.0
  0
LINE
  5
7A13
330
1F
100
AcDbEntity
  8
AM_VIS
100
AcDbLine
 10
1146.199955172218
 20
1153.030610290156
 30
0.0
 11
1146.199955172218
 21
1173.030610290156
 31
0.0
  0
CIRCLE
  5
7A14
330
1F
100
AcDbEntity
  8
AM_VIS
100
AcDbCircle
 10
1245.949955172218
 20
1163.030610290156
 30
0.0
 40
5.5
  0
CIRCLE
  5
7A16
330
1F
100
AcDbEntity
  8
AM_VIS
100
AcDbCircle
 10
1245.949955172218
 20
1163.030610290156
 30
0.0
 40
8.5
  0
CIRCLE
  5
7A17
330
1F
100
AcDbEntity
  8
AM_VIS
100
AcDbCircle
 10
1245.949955172218
 20
1163.030610290156
 30
0.0
 40
4.338
  0
LINE
  5
7A26
330
1F
100
AcDbEntity
  8
AM_7
100
AcDbLine
 10
1245.949955172218
 20
1163.030610290156
 30
0.0
 11
1256.449955172218
 21
1163.030610290156
 31
0.0
1001
GENIUS_GENOREF_13
1005
7A2A
  0
LINE
  5
7A27
330
1F
100
AcDbEntity
  8
AM_7
100
AcDbLine
 10
1245.949955172218
 20
1163.030610290156
 30
0.0
 11
1245.949955172218
 21
1173.530610290156
 31
0.0
1001
GENIUS_GENOREF_13
1005
7A2A
  0
LINE
  5
7A28
330
1F
100
AcDbEntity
  8
AM_7
100
AcDbLine
 10
1245.949955172218
 20
1163.030610290156
 30
0.0
 11
1235.449955172218
 21
1163.030610290156
 31
0.0
1001
GENIUS_GENOREF_13
1005
7A2A
  0
LINE
  5
7A29
330
1F
100
AcDbEntity
  8
AM_7
100
AcDbLine
 10
1245.949955172218
 20
1163.030610290156
 30
0.0
 11
1245.949955172218
 21
1152.530610290156
 31
0.0
1001
GENIUS_GENOREF_13
1005
7A2A
  0
POINT
  5
7A2A
330
1F
100
AcDbEntity
  8
0
 60
     1
100
AcDbPoint
 10
0.0
 20
0.0
 30
0.0
1001
GENIUS_GENOLIS_13
1002
{
1000
ENT
1005
7A29
1005
7A28
1005
7A27
1005
7A26
1002
}
1001
GENIUS_GENOENT_13
1002
{
1000
MYREF
1005
7A2A
1002
}
1002
{
1000
GRP
1005
0
1002
}
1001
GENIUS_GENOBJ-N-CRS_13
1002
{
1000
OWNER
1000
GEN
1002
}
1001
GENIUS_GENODEF_13
1002
{
1000
HIER
1070
    10
1002
}
1002
{
1000
MANEDIT
1070
     0
1002
}
1002
{
1000
NOSEL
1070
     0
1002
}
1002
{
1000
BEHIND
1070
     0
1002
}
1002
{
1000
OTHER
1070
     0
1002
}
1002
{
1000
REACTOR
1002
}
  0
LINE
  5
7A38
330
1F
100
AcDbEntity
  8
AM_7
100
AcDbLine
 10
1222.199955172218
 20
1082.509981158947
 30
0.0
 11
1234.199955172218
 21
1082.509981158947
 31
0.0
1001
GENIUS_GENOREF_13
1005
7A3C
  0
LINE
  5
7A39
330
1F
100
AcDbEntity
  8
AM_7
100
AcDbLine
 10
1222.199955172218
 20
1082.509981158947
 30
0.0
 11
1222.199955172218
 21
1094.509981158947
 31
0.0
1001
GENIUS_GENOREF_13
1005
7A3C
  0
LINE
  5
7A3A
330
1F
100
AcDbEntity
  8
AM_7
100
AcDbLine
 10
1222.199955172218
 20
1082.509981158947
 30
0.0
 11
1210.199955172218
 21
1082.509981158947
 31
0.0
1001
GENIUS_GENOREF_13
1005
7A3C
  0
LINE
  5
7A3B
330
1F
100
AcDbEntity
  8
AM_7
100
AcDbLine
 10
1222.199955172218
 20
1082.509981158947
 30
0.0
 11
1222.199955172218
 21
1070.509981158947
 31
0.0
1001
GENIUS_GENOREF_13
1005
7A3C
  0
POINT
  5
7A3C
330
1F
100
AcDbEntity
  8
0
 60
     1
100
AcDbPoint
 10
0.0
 20
0.0
 30
0.0
1001
GENIUS_GENOLIS_13
1002
{
1000
ENT
1005
7A3B
1005
7A3A
1005
7A39
1005
7A38
1002
}
1001
GENIUS_GENODEF_13
1002
{
1000
HIER
1070
    10
1002
}
1002
{
1000
MANEDIT
1070
     0
1002
}
1002
{
1000
NOSEL
1070
     0
1002
}
1002
{
1000
BEHIND
1070
     0
1002
}
1002
{
1000
OTHER
1070
     0
1002
}
1002
{
1000
REACTOR
1002
}
1001
GENIUS_GENOENT_13
1002
{
1000
MYREF
1005
7A3C
1002
}
1002
{
1000
GRP
1005
0
1002
}
1001
GENIUS_GENOBJ-N-CRS_13
1002
{
1000
OWNER
1000
GEN
1002
}
  0
LINE
  5
7A4A
330
1F
100
AcDbEntity
  8
AM_7
100
AcDbLine
 10
1222.199955172218
 20
963.5099811589475
 30
0.0
 11
1234.199955172218
 21
963.5099811589475
 31
0.0
1001
GENIUS_GENOREF_13
1005
7A4E
  0
LINE
  5
7A4B
330
1F
100
AcDbEntity
  8
AM_7
100
AcDbLine
 10
1222.199955172218
 20
963.5099811589475
 30
0.0
 11
1222.199955172218
 21
975.5099811589476
 31
0.0
1001
GENIUS_GENOREF_13
1005
7A4E
  0
LINE
  5
7A4C
330
1F
100
AcDbEntity
  8
AM_7
100
AcDbLine
 10
1222.199955172218
 20
963.5099811589475
 30
0.0
 11
1210.199955172218
 21
963.5099811589475
 31
0.0
1001
GENIUS_GENOREF_13
1005
7A4E
  0
LINE
  5
7A4D
330
1F
100
AcDbEntity
  8
AM_7
100
AcDbLine
 10
1222.199955172218
 20
963.5099811589475
 30
0.0
 11
1222.199955172218
 21
951.5099811589475
 31
0.0
1001
GENIUS_GENOREF_13
1005
7A4E
  0
POINT
  5
7A4E
330
1F
100
AcDbEntity
  8
0
 60
     1
100
AcDbPoint
 10
0.0
 20
0.0
 30
0.0
1001
GENIUS_GENOENT_13
1002
{
1000
MYREF
1005
7A4E
1002
}
1002
{
1000
GRP
1005
0
1002
}
1001
GENIUS_GENOBJ-N-CRS_13
1002
{
1000
OWNER
1000
GEN
1002
}
1001
GENIUS_GENODEF_13
1002
{
1000
HIER
1070
    10
1002
}
1002
{
1000
MANEDIT
1070
     0
1002
}
1002
{
1000
NOSEL
1070
     0
1002
}
1002
{
1000
BEHIND
1070
     0
1002
}
1002
{
1000
OTHER
1070
     0
1002
}
1002
{
1000
REACTOR
1002
}
1001
GENIUS_GENOLIS_13
1002
{
1000
ENT
1005
7A4D
1005
7A4C
1005
7A4B
1005
7A4A
1002
}
  0
DIMENSION
  5
7A4F
330
1F
100
AcDbEntity
  8
AM_5
100
AcDbDimension
  2
*D20
 10
1132.199955172218
 20
963.5099811589475
 30
0.0
 11
1128.449955172218
 21
1023.009981158947
 31
0.0
 70
    32
 71
     5
 42
119.0
  3
AM_ISO$0
100
AcDbAlignedDimension
 13
1210.199955172218
 23
1082.509981158947
 33
0.0
 14
1210.199955172218
 24
963.5099811589475
 34
0.0
 50
90.0
100
AcDbRotatedDimension
1001
ACAD
1000
DSTYLE
1002
{
1070
    40
1040
1.5
1070
   272
1070
     8
1002
}
  0
DIMENSION
  5
7A50
330
1F
100
AcDbEntity
  8
AM_5
100
AcDbDimension
  2
*D21
 10
1120.199955172218
 20
948.0099811589475
 30
0.0
 11
1116.449955172218
 21
1023.009981158947
 31
0.0
 70
    32
 71
     5
 42
150.0
  3
AM_ISO$0
100
AcDbAlignedDimension
 13
1146.199955172218
 23
1098.009981158947
 33
0.0
 14
1146.199955172218
 24
948.0099811589475
 34
0.0
 50
90.0
100
AcDbRotatedDimension
1001
ACAD
1000
DSTYLE
1002
{
1070
    40
1040
1.5
1070
   272
1070
     8
1002
}
  0
DIMENSION
  5
7A51
330
1F
100
AcDbEntity
  8
AM_5
100
AcDbDimension
  2
*D22
 10
1222.199955172218
 20
924.0099811589473
 30
0.0
 11
1183.199955172218
 21
927.7599811589473
 31
0.0
 70
    32
 71
     5
 42
78.0
  3
AM_ISO$0
100
AcDbAlignedDimension
 13
1144.199955172218
 23
950.0099811589475
 33
0.0
 14
1222.199955172218
 24
951.5099811589475
 34
0.0
100
AcDbRotatedDimension
1001
ACAD
1000
DSTYLE
1002
{
1070
    40
1040
1.5
1070
   272
1070
     8
1002
}
  0
DIMENSION
  5
7A52
330
1F
100
AcDbEntity
  8
AM_5
100
AcDbDimension
  2
*D23
 10
1259.699955172218
 20
912.0099811589472
 30
0.0
 11
1201.949955172218
 21
915.7599811589474
 31
0.0
 70
    32
 71
     5
 42
115.5
  3
AM_ISO$0
100
AcDbAlignedDimension
 13
1144.199955172218
 23
950.0099811589475
 33
0.0
 14
1259.699955172218
 24
948.0099811589475
 34
0.0
100
AcDbRotatedDimension
1001
ACAD
1000
DSTYLE
1002
{
1070
    40
1040
1.5
1070
   272
1070
     8
1002
}
  0
DIMENSION
  5
7A53
330
1F
100
AcDbEntity
  8
AM_5
100
AcDbDimension
  2
*D24
 10
1182.199955172218
 20
936.0099811589472
 30
0.0
 11
1163.199955172218
 21
939.7599811589472
 31
0.0
 70
    32
 71
     5
 42
38.0
  3
AM_ISO$0
100
AcDbAlignedDimension
 13
1144.199955172218
 23
950.0099811589475
 33
0.0
 14
1182.199955172218
 24
993.0099811589474
 34
0.0
100
AcDbRotatedDimension
1001
ACAD
1000
DSTYLE
1002
{
1070
    40
1040
1.5
1070
   272
1070
     8
1002
}
  0
DIMENSION
  5
7B02
102
{ACAD_XDICTIONARY
360
7B0F
102
}
102
{ACAD_REACTORS
330
7B10
102
}
330
1F
100
AcDbEntity
  8
AM_5
100
AcDbDimension
  2
*D25
 10
1271.699955172218
 20
1063.009981158947
 30
0.0
 11
1269.199955172218
 21
1023.009981158947
 31
0.0
 70
    32
 71
     5
 42
80.0
  3
AM_ISO$0
100
AcDbAlignedDimension
 13
1259.699955172218
 23
983.0099811589475
 33
0.0
 14
1259.699955172218
 24
1063.009981158947
 34
0.0
 50
90.0
100
AcDbRotatedDimension
1001
ACAD
1000
DSTYLE
1002
{
1070
    40
1040
1.0
1070
   144
1040
1.0
1070
   272
1070
     8
1002
}
  0
DIMENSION
  5
7B28
102
{ACAD_XDICTIONARY
360
7B35
102
}
102
{ACAD_REACTORS
330
7B36
102
}
330
1F
100
AcDbEntity
  8
AM_5
100
AcDbDimension
  2
*D26
 10
1332.285804822274
 20
936.0099811589476
 30
0.0
 11
1322.285804822274
 21
938.5102764345381
 31
0.0
 70
    32
 71
     5
 42
20.0
  3
AM_ISO$0
100
AcDbAlignedDimension
 13
1312.285804822274
 23
948.0099811589475
 33
0.0
 14
1332.285804822274
 24
948.0099811589475
 34
0.0
100
AcDbRotatedDimension
1001
ACAD
1000
DSTYLE
1002
{
1070
    40
1040
1.0
1070
   144
1040
1.0
1070
   272
1070
     8
1002
}
  0
ENDSEC
  0
SECTION
  2
OBJECTS
  0
DICTIONARY
  5
C
330
0
100
AcDbDictionary
281
     1
  3
ACAD_COLOR
350
BE
  3
ACAD_GROUP
350
D
  3
ACAD_LAYOUT
350
1A
  3
ACAD_MATERIAL
350
BD
  3
ACAD_MLINESTYLE
350
17
  3
ACAD_PLOTSETTINGS
350
19
  3
ACAD_PLOTSTYLENAME
350
E
  3
ACAD_TABLESTYLE
350
11A
  3
ACDBHEADERROUNDTRIPXREC
350
80DA
  3
AcDbVariableDictionary
350
94
  3
AcmDictionary
350
5B
  3
AMG
350
41
  3
AMGSNAPSETTINGS
350
1B8
  3
DWGPROPS
350
80D9
  3
MAPISURF_MODULE
350
8057
  0
DICTIONARY
  5
3F9
330
2
100
AcDbDictionary
280
     1
281
     1
  3
ACAD_LAYERFILTERS
360
5B7
  3
ACAD_LAYERSTATES
360
722
  3
ACLYDICTIONARY
360
5B6
  3
AMLAYER_GROUPCOLORS
360
A90
  0
DICTIONARY
  5
8F
330
1F
100
AcDbDictionary
280
     1
281
     1
  3
ACAD_INDEX
360
80AC
  3
ACAD_SORTENTS
360
AC1
  0
DICTIONARY
  5
7B0F
330
7B02
100
AcDbDictionary
280
     1
281
     1
  3
ACAD_DIMASSOC
360
7B10
  0
DICTIONARY
  5
7B35
330
7B28
100
AcDbDictionary
280
     1
281
     1
  3
ACAD_DIMASSOC
360
7B36
  0
DICTIONARY
  5
BE
102
{ACAD_REACTORS
330
C
102
}
330
C
100
AcDbDictionary
281
     1
  0
DICTIONARY
  5
D
102
{ACAD_REACTORS
330
C
102
}
330
C
100
AcDbDictionary
281
     1
  0
DICTIONARY
  5
1A
102
{ACAD_REACTORS
330
C
102
}
330
C
100
AcDbDictionary
281
     1
  3
Model
350
22
  3
配置1
350
1E
  3
配置2
350
26
  0
DICTIONARY
  5
BD
102
{ACAD_REACTORS
330
C
102
}
330
C
100
AcDbDictionary
281
     1
  0
DICTIONARY
  5
17
102
{ACAD_REACTORS
330
C
102
}
330
C
100
AcDbDictionary
281
     1
  3
Standard
350
18
  0
DICTIONARY
  5
19
102
{ACAD_REACTORS
330
C
102
}
330
C
100
AcDbDictionary
281
     1
  0
ACDBDICTIONARYWDFLT
  5
E
102
{ACAD_REACTORS
330
C
102
}
330
C
100
AcDbDictionary
281
     1
  3
Normal
350
F
100
AcDbDictionaryWithDefault
340
F
  0
DICTIONARY
  5
11A
102
{ACAD_REACTORS
330
C
102
}
330
C
100
AcDbDictionary
281
     1
  3
Standard
350
11B
  0
DICTIONARY
  5
80DA
102
{ACAD_REACTORS
330
C
102
}
330
C
100
AcDbDictionary
281
     1
  0
DICTIONARY
  5
94
102
{ACAD_REACTORS
330
C
102
}
330
C
100
AcDbDictionary
281
     1
  3
CTABLESTYLE
350
138
  3
DIMASSOC
350
96
  3
INDEXCTL
350
95
  3
PROJECTNAME
350
7FC4
  0
DICTIONARY
  5
5B
102
{ACAD_REACTORS
330
C
102
}
330
C
100
AcDbDictionary
281
     1
  3
AcmBOM
350
1B5
  3
AcmStdDictionary
350
61
  3
AMDTSECTSYM_ARROWCOLOR
350
123
  0
DICTIONARY
  5
41
102
{ACAD_REACTORS
330
C
102
}
330
C
100
AcDbDictionary
281
     1
  3
AcMgSettings
350
7FD1
  0
DICTIONARY
  5
1B8
102
{ACAD_REACTORS
330
C
102
}
330
C
100
AcDbDictionary
281
     1
  0
XRECORD
  5
80D9
102
{ACAD_REACTORS
330
C
102
}
330
C
100
AcDbXrecord
280
     1
  1
DWGPROPS COOKIE
  2

  3

  4

  6

  7

  8

  9

300
AmdtFileType=84
301
=
302
=
303
=
304
=
305
=
306
=
307
=
308
=
309
=
 40
1.179403206018518
 41
2453571.402341933
 42
2456212.572887003
  1

 90
        1
  0
DICTIONARY
  5
5B7
102
{ACAD_REACTORS
330
3F9
102
}
330
3F9
100
AcDbDictionary
281
     1
  0
DICTIONARY
  5
722
102
{ACAD_REACTORS
330
3F9
102
}
330
3F9
100
AcDbDictionary
281
     1
  0
DICTIONARY
  5
5B6
102
{ACAD_REACTORS
330
3F9
102
}
330
3F9
100
AcDbDictionary
281
     1
1001
ACAD
1000
<All
  0
DICTIONARY
  5
A90
102
{ACAD_REACTORS
330
3F9
102
}
330
3F9
100
AcDbDictionary
280
     1
281
     1
  0
DICTIONARY
  5
80AC
102
{ACAD_REACTORS
330
8F
102
}
330
8F
100
AcDbDictionary
281
     1
  3
*A1
350
80AD
  0
SORTENTSTABLE
  5
AC1
102
{ACAD_REACTORS
330
8F
102
}
330
8F
100
AcDbSortentsTable
330
1F
331
6B75
  5
6B75
331
6B16
  5
6B16
331
6B1E
  5
6B1E
331
18C6
  5
18C6
331
194C
  5
194C
331
6A41
  5
6A41
331
18CE
  5
18CE
331
1954
  5
1954
331
6916
  5
6916
331
694D
  5
694D
331
698C
  5
698C
331
69C3
  5
69C3
331
6A80
  5
6A80
331
6A49
  5
6A49
331
18D6
  5
18D6
331
190D
  5
190D
331
691E
  5
691E
331
6955
  5
6955
331
6994
  5
6994
331
69CB
  5
69CB
331
6A12
  5
6A12
331
6A88
  5
6A88
331
6A90
  5
6A90
331
6A51
  5
6A51
331
69D3
  5
69D3
331
695D
  5
695D
331
18DE
  5
18DE
331
6926
  5
6926
331
699C
  5
699C
331
6A1A
  5
6A1A
331
6A98
  5
6A98
331
6A22
  5
6A22
331
6965
  5
6965
331
692E
  5
692E
331
69DB
  5
69DB
331
6A59
  5
6A59
331
6B2E
  5
6B2E
331
6C23
  5
6C23
331
6BDC
  5
6BDC
331
6BEC
  5
6BEC
331
6B8D
  5
6B8D
331
18E6
  5
18E6
331
191D
  5
191D
331
6A61
  5
6A61
331
6A2A
  5
6A2A
331
696D
  5
696D
331
1925
  5
1925
331
18AF
  5
18AF
331
18EE
  5
18EE
331
6936
  5
6936
331
69AC
  5
69AC
331
6AA0
  5
6AA0
331
6A69
  5
6A69
331
6A32
  5
6A32
331
69B4
  5
69B4
331
18F6
  5
18F6
331
18B7
  5
18B7
331
192D
  5
192D
331
693E
  5
693E
331
6975
  5
6975
331
69EB
  5
69EB
331
6AA8
  5
6AA8
331
6AB0
  5
6AB0
331
6946
  5
6946
331
18BF
  5
18BF
331
6907
  5
6907
331
697D
  5
697D
331
69F3
  5
69F3
331
6A71
  5
6A71
331
6A79
  5
6A79
331
690F
  5
690F
331
6985
  5
6985
331
69FB
  5
69FB
331
6BB5
  5
6BB5
331
6B0F
  5
6B0F
331
6B66
  5
6B66
331
6B76
  5
6B76
331
6B17
  5
6B17
331
18C7
  5
18C7
331
194D
  5
194D
331
6A42
  5
6A42
331
18CF
  5
18CF
331
1955
  5
1955
331
6917
  5
6917
331
694E
  5
694E
331
698D
  5
698D
331
69C4
  5
69C4
331
6A81
  5
6A81
331
6A4A
  5
6A4A
331
18D7
  5
18D7
331
190E
  5
190E
331
691F
  5
691F
331
6956
  5
6956
331
6995
  5
6995
331
69CC
  5
69CC
331
6A13
  5
6A13
331
6A89
  5
6A89
331
6A91
  5
6A91
331
6A52
  5
6A52
331
69D4
  5
69D4
331
695E
  5
695E
331
6927
  5
6927
331
699D
  5
699D
331
6A1B
  5
6A1B
331
18DF
  5
18DF
331
6A5A
  5
6A5A
331
6A23
  5
6A23
331
6966
  5
6966
331
692F
  5
692F
331
69DC
  5
69DC
331
6A99
  5
6A99
331
6AB8
  5
6AB8
331
6B2F
  5
6B2F
331
6C24
  5
6C24
331
6BED
  5
6BED
331
6B3F
  5
6B3F
331
6B8E
  5
6B8E
331
6BFD
  5
6BFD
331
18E7
  5
18E7
331
6A62
  5
6A62
331
6A2B
  5
6A2B
331
696E
  5
696E
331
6937
  5
6937
331
69AD
  5
69AD
331
6AA1
  5
6AA1
331
1926
  5
1926
331
18B0
  5
18B0
331
18EF
  5
18EF
331
6A6A
  5
6A6A
331
6A33
  5
6A33
331
693F
  5
693F
331
69B5
  5
69B5
331
69EC
  5
69EC
331
6AA9
  5
6AA9
331
18F7
  5
18F7
331
18B8
  5
18B8
331
192E
  5
192E
331
6AB1
  5
6AB1
331
69BD
  5
69BD
331
6947
  5
6947
331
6908
  5
6908
331
697E
  5
697E
331
69F4
  5
69F4
331
6A72
  5
6A72
331
6A7A
  5
6A7A
331
69FC
  5
69FC
331
6B08
  5
6B08
331
6B10
  5
6B10
331
6BB6
  5
6BB6
331
6B77
  5
6B77
331
6B18
  5
6B18
331
18C0
  5
18C0
331
6910
  5
6910
331
18C8
  5
18C8
331
18FF
  5
18FF
331
194E
  5
194E
331
6A43
  5
6A43
331
6918
  5
6918
331
694F
  5
694F
331
698E
  5
698E
331
69C5
  5
69C5
331
6A0C
  5
6A0C
331
6A82
  5
6A82
331
18D0
  5
18D0
331
1956
  5
1956
331
6A4B
  5
6A4B
331
6920
  5
6920
331
6957
  5
6957
331
6996
  5
6996
331
69CD
  5
69CD
331
6A14
  5
6A14
331
6A8A
  5
6A8A
331
18D8
  5
18D8
331
190F
  5
190F
331
195E
  5
195E
331
6A92
  5
6A92
331
6A1C
  5
6A1C
331
6928
  5
6928
331
695F
  5
695F
331
69D5
  5
69D5
331
6A53
  5
6A53
331
1917
  5
1917
331
6A5B
  5
6A5B
331
6A24
  5
6A24
331
6967
  5
6967
331
69A6
  5
69A6
331
6A9A
  5
6A9A
331
6AB9
  5
6AB9
331
6B30
  5
6B30
331
6AD9
  5
6AD9
331
6B87
  5
6B87
331
6BEE
  5
6BEE
331
6B40
  5
6B40
331
6B8F
  5
6B8F
331
6BFE
  5
6BFE
331
18E0
  5
18E0
331
6930
  5
6930
331
18E8
  5
18E8
331
6A63
  5
6A63
331
69E5
  5
69E5
331
696F
  5
696F
331
6938
  5
6938
331
69AE
  5
69AE
331
6AA2
  5
6AA2
331
18F0
  5
18F0
331
18B1
  5
18B1
331
1927
  5
1927
331
6A6B
  5
6A6B
331
6A34
  5
6A34
331
6940
  5
6940
331
69ED
  5
69ED
331
6AAA
  5
6AAA
331
18B9
  5
18B9
331
192F
  5
192F
331
6AB2
  5
6AB2
331
6909
  5
6909
331
697F
  5
697F
331
69F5
  5
69F5
331
6A73
  5
6A73
331
6A7B
  5
6A7B
331
6987
  5
6987
331
69FD
  5
69FD
331
6B09
  5
6B09
331
6B11
  5
6B11
331
6BB7
  5
6BB7
331
6BC7
  5
6BC7
331
18C1
  5
18C1
331
18F8
  5
18F8
331
6911
  5
6911
331
6948
  5
6948
331
18C9
  5
18C9
331
194F
  5
194F
331
6A44
  5
6A44
331
6919
  5
6919
331
6950
  5
6950
331
698F
  5
698F
331
69C6
  5
69C6
331
6A0D
  5
6A0D
331
6A83
  5
6A83
331
18D1
  5
18D1
331
1908
  5
1908
331
1957
  5
1957
331
6A15
  5
6A15
331
6921
  5
6921
331
6958
  5
6958
331
6997
  5
6997
331
69CE
  5
69CE
331
6A4C
  5
6A4C
331
6A8B
  5
6A8B
331
18D9
  5
18D9
331
6A1D
  5
6A1D
331
6960
  5
6960
331
6929
  5
6929
331
69D6
  5
69D6
331
6A93
  5
6A93
331
6A5C
  5
6A5C
331
6A25
  5
6A25
331
69A7
  5
69A7
331
6A9B
  5
6A9B
331
6ABA
  5
6ABA
331
6B78
  5
6B78
331
6B88
  5
6B88
331
6B90
  5
6B90
331
6B41
  5
6B41
331
6BFF
  5
6BFF
331
18E1
  5
18E1
331
6968
  5
6968
331
6931
  5
6931
331
18AA
  5
18AA
331
18E9
  5
18E9
331
6A64
  5
6A64
331
69E6
  5
69E6
331
6970
  5
6970
331
6939
  5
6939
331
69AF
  5
69AF
331
6AA3
  5
6AA3
331
18F1
  5
18F1
331
18B2
  5
18B2
331
1928
  5
1928
331
6A6C
  5
6A6C
331
6941
  5
6941
331
69EE
  5
69EE
331
6A35
  5
6A35
331
6AAB
  5
6AAB
331
18BA
  5
18BA
331
1930
  5
1930
331
6AB3
  5
6AB3
331
690A
  5
690A
331
6980
  5
6980
331
69F6
  5
69F6
331
6A74
  5
6A74
331
6A7C
  5
6A7C
331
6B51
  5
6B51
331
6B0A
  5
6B0A
331
6B12
  5
6B12
331
6BB8
  5
6BB8
331
6C0F
  5
6C0F
331
6B1A
  5
6B1A
331
18C2
  5
18C2
331
18F9
  5
18F9
331
6912
  5
6912
331
6949
  5
6949
331
6988
  5
6988
331
18CA
  5
18CA
331
1950
  5
1950
331
6A45
  5
6A45
331
691A
  5
691A
331
6951
  5
6951
331
6990
  5
6990
331
69C7
  5
69C7
331
6A0E
  5
6A0E
331
6A84
  5
6A84
331
18D2
  5
18D2
331
1909
  5
1909
331
1958
  5
1958
331
69CF
  5
69CF
331
6998
  5
6998
331
6922
  5
6922
331
6959
  5
6959
331
6A16
  5
6A16
331
6A4D
  5
6A4D
331
6A8C
  5
6A8C
331
18DA
  5
18DA
331
1D08
  5
1D08
331
6A1E
  5
6A1E
331
6961
  5
6961
331
692A
  5
692A
331
69D7
  5
69D7
331
6A94
  5
6A94
331
6A5D
  5
6A5D
331
6A26
  5
6A26
331
6A9C
  5
6A9C
331
6ABB
  5
6ABB
331
6BC8
  5
6BC8
331
6B89
  5
6B89
331
6B91
  5
6B91
331
6B42
  5
6B42
331
18E2
  5
18E2
331
6969
  5
6969
331
6932
  5
6932
331
1921
  5
1921
331
18AB
  5
18AB
331
18EA
  5
18EA
331
6A65
  5
6A65
331
6A2E
  5
6A2E
331
69B0
  5
69B0
331
6971
  5
6971
331
693A
  5
693A
331
69E7
  5
69E7
331
6AA4
  5
6AA4
331
18F2
  5
18F2
331
18B3
  5
18B3
331
1929
  5
1929
331
6A6D
  5
6A6D
331
6942
  5
6942
331
69EF
  5
69EF
331
6A36
  5
6A36
331
6AAC
  5
6AAC
331
18BB
  5
18BB
331
6AB4
  5
6AB4
331
6A3E
  5
6A3E
331
690B
  5
690B
331
6981
  5
6981
331
69F7
  5
69F7
331
6A75
  5
6A75
331
6A7D
  5
6A7D
331
6AF3
  5
6AF3
331
6B52
  5
6B52
331
6C00
  5
6C00
331
6B0B
  5
6B0B
331
6C10
  5
6C10
331
6B1B
  5
6B1B
331
18C3
  5
18C3
331
18FA
  5
18FA
331
6913
  5
6913
331
694A
  5
694A
331
6989
  5
6989
331
69C0
  5
69C0
331
18CB
  5
18CB
331
1951
  5
1951
331
6A46
  5
6A46
331
691B
  5
691B
331
6952
  5
6952
331
6991
  5
6991
331
69C8
  5
69C8
331
6A0F
  5
6A0F
331
6A85
  5
6A85
331
18D3
  5
18D3
331
190A
  5
190A
331
1959
  5
1959
331
69D0
  5
69D0
331
6999
  5
6999
331
6923
  5
6923
331
695A
  5
695A
331
6A17
  5
6A17
331
6A4E
  5
6A4E
331
6A8D
  5
6A8D
331
18DB
  5
18DB
331
6A95
  5
6A95
331
6A1F
  5
6A1F
331
6A56
  5
6A56
331
6962
  5
6962
331
692B
  5
692B
331
69D8
  5
69D8
331
6A5E
  5
6A5E
331
6A27
  5
6A27
331
6A9D
  5
6A9D
331
6ABC
  5
6ABC
331
6BC9
  5
6BC9
331
6ACC
  5
6ACC
331
6BD9
  5
6BD9
331
6B8A
  5
6B8A
331
6B92
  5
6B92
331
18E3
  5
18E3
331
696A
  5
696A
331
1922
  5
1922
331
18AC
  5
18AC
331
18EB
  5
18EB
331
6933
  5
6933
331
69A9
  5
69A9
331
6A66
  5
6A66
331
69B1
  5
69B1
331
6972
  5
6972
331
18F3
  5
18F3
331
18B4
  5
18B4
331
192A
  5
192A
331
693B
  5
693B
331
69E8
  5
69E8
331
6AA5
  5
6AA5
331
6A6E
  5
6A6E
331
18BC
  5
18BC
331
6943
  5
6943
331
697A
  5
697A
331
69F0
  5
69F0
331
6A37
  5
6A37
331
6AAD
  5
6AAD
331
6AB5
  5
6AB5
331
6A3F
  5
6A3F
331
690C
  5
690C
331
69F8
  5
69F8
331
6A76
  5
6A76
331
6A7E
  5
6A7E
331
6BA2
  5
6BA2
331
6B53
  5
6B53
331
6B0C
  5
6B0C
331
6B63
  5
6B63
331
6B14
  5
6B14
331
6C11
  5
6C11
331
6B1C
  5
6B1C
331
18C4
  5
18C4
331
18FB
  5
18FB
331
18CC
  5
18CC
331
1903
  5
1903
331
1952
  5
1952
331
6914
  5
6914
331
694B
  5
694B
331
698A
  5
698A
331
69C1
  5
69C1
331
6A47
  5
6A47
331
18D4
  5
18D4
331
190B
  5
190B
331
195A
  5
195A
331
691C
  5
691C
331
6953
  5
6953
331
6992
  5
6992
331
69C9
  5
69C9
331
6A10
  5
6A10
331
6A86
  5
6A86
331
6A4F
  5
6A4F
331
69D1
  5
69D1
331
695B
  5
695B
331
18DC
  5
18DC
331
1913
  5
1913
331
6924
  5
6924
331
699A
  5
699A
331
6A18
  5
6A18
331
6A8E
  5
6A8E
331
6A96
  5
6A96
331
6A20
  5
6A20
331
6963
  5
6963
331
692C
  5
692C
331
69D9
  5
69D9
331
6A57
  5
6A57
331
6A5F
  5
6A5F
331
6A9E
  5
6A9E
331
6ABD
  5
6ABD
331
6BCA
  5
6BCA
331
6C21
  5
6C21
331
6BDA
  5
6BDA
331
6B93
  5
6B93
331
18E4
  5
18E4
331
191B
  5
191B
331
6A28
  5
6A28
331
696B
  5
696B
331
1923
  5
1923
331
18AD
  5
18AD
331
18EC
  5
18EC
331
6934
  5
6934
331
69AA
  5
69AA
331
6A67
  5
6A67
331
6A30
  5
6A30
331
69B2
  5
69B2
331
18F4
  5
18F4
331
18B5
  5
18B5
331
192B
  5
192B
331
693C
  5
693C
331
6973
  5
6973
331
69E9
  5
69E9
331
6AA6
  5
6AA6
331
6A38
  5
6A38
331
18BD
  5
18BD
331
6944
  5
6944
331
697B
  5
697B
331
69F1
  5
69F1
331
6A6F
  5
6A6F
331
6AAE
  5
6AAE
331
6AB6
  5
6AB6
331
690D
  5
690D
331
6983
  5
6983
331
69F9
  5
69F9
331
6A77
  5
6A77
331
6A7F
  5
6A7F
331
6B54
  5
6B54
331
6B64
  5
6B64
331
6C12
  5
6C12
331
6B15
  5
6B15
331
6B1D
  5
6B1D
331
18C5
  5
18C5
331
194B
  5
194B
331
6A40
  5
6A40
331
18CD
  5
18CD
331
1904
  5
1904
331
1953
  5
1953
331
6915
  5
6915
331
694C
  5
694C
331
698B
  5
698B
331
69C2
  5
69C2
331
6A48
  5
6A48
331
18D5
  5
18D5
331
190C
  5
190C
331
691D
  5
691D
331
6954
  5
6954
331
6993
  5
6993
331
69CA
  5
69CA
331
6A11
  5
6A11
331
6A87
  5
6A87
331
6A50
  5
6A50
331
69D2
  5
69D2
331
695C
  5
695C
331
18DD
  5
18DD
331
6925
  5
6925
331
699B
  5
699B
331
6A19
  5
6A19
331
6A8F
  5
6A8F
331
6A21
  5
6A21
331
6964
  5
6964
331
692D
  5
692D
331
69DA
  5
69DA
331
6A58
  5
6A58
331
6A97
  5
6A97
331
6A9F
  5
6A9F
331
6ABE
  5
6ABE
331
6B2D
  5
6B2D
331
6C22
  5
6C22
331
6BDB
  5
6BDB
331
6BEB
  5
6BEB
331
6B8C
  5
6B8C
331
6AE6
  5
6AE6
331
18E5
  5
18E5
331
191C
  5
191C
331
6A60
  5
6A60
331
6A29
  5
6A29
331
696C
  5
696C
331
1924
  5
1924
331
18AE
  5
18AE
331
18ED
  5
18ED
331
6935
  5
6935
331
69AB
  5
69AB
331
6A68
  5
6A68
331
69B3
  5
69B3
331
18F5
  5
18F5
331
18B6
  5
18B6
331
192C
  5
192C
331
693D
  5
693D
331
6974
  5
6974
331
69EA
  5
69EA
331
6AA7
  5
6AA7
331
6A39
  5
6A39
331
6945
  5
6945
331
18BE
  5
18BE
331
6906
  5
6906
331
697C
  5
697C
331
69F2
  5
69F2
331
6A70
  5
6A70
331
6AAF
  5
6AAF
331
690E
  5
690E
331
6984
  5
6984
331
69FA
  5
69FA
331
6A78
  5
6A78
331
6AB7
  5
6AB7
331
6B0E
  5
6B0E
331
6B65
  5
6B65
  0
DIMASSOC
  5
7B10
102
{ACAD_REACTORS
330
7B0F
102
}
330
7B0F
100
AcDbDimAssoc
330
7B02
 90
        3
 70
     0
 71
     0
  1
AcDbOsnapPointRef
 72
    13
331
79D8
 73
     0
 91
        0
 40
0.0
 10
0.0
 20
0.0
 30
2.000000000000000E+50
 75
     0
  1
AcDbOsnapPointRef
 72
    13
331
79D5
 73
     0
 91
        0
 40
0.0
 10
0.0
 20
0.0
 30
2.000000000000000E+50
 75
     0
  0
DIMASSOC
  5
7B36
102
{ACAD_REACTORS
330
7B35
102
}
330
7B35
100
AcDbDimAssoc
330
7B28
 90
        3
 70
     0
 71
     0
  1
AcDbOsnapPointRef
 72
     1
331
79FB
 73
     0
 91
        0
 40
0.0
 10
0.0
 20
0.0
 30
2.000000000000000E+50
 75
     0
  1
AcDbOsnapPointRef
 72
    13
331
79FB
 73
     0
 91
        0
 40
0.0
 10
0.0
 20
0.0
 30
2.000000000000000E+50
 75
     0
  0
LAYOUT
  5
22
102
{ACAD_XDICTIONARY
360
80DD
102
}
102
{ACAD_REACTORS
330
1A
102
}
330
1A
100
AcDbPlotSettings
  1

  2
\\RD\EPSON Stylus C63 Series單色
  4
A4
  6

 40
3.757083177566528
 41
3.757076978683471
 42
3.757080078125
 43
3.757080078125
 44
209.9733276367187
 45
296.9683227539062
 46
0.0
 47
0.0
 48
0.0
 49
0.0
140
0.0
141
0.0
142
1.0
143
0.3405120737814363
 70
 11952
 72
     1
 73
     0
 74
     0
  7
單色出圖.ctb
 75
     0
147
2.936753428137963
148
-2047.07469463503
149
-1261.649717473083
100
AcDbLayout
  1
Model
 70
     1
 71
     0
 10
0.0
 20
0.0
 11
12.0
 21
9.0
 12
0.0
 22
0.0
 32
0.0
 14
0.0
 24
0.0
 34
0.0
 15
0.0
 25
0.0
 35
0.0
146
0.0
 13
0.0
 23
0.0
 33
0.0
 16
1.0
 26
0.0
 36
0.0
 17
0.0
 27
1.0
 37
0.0
 76
     0
330
1F
1001
ACAD_PSEXT
1000
\\RD\EPSON Stylus C63 Series單色
1000
EPSON Stylus C63 Series
1000
\\RD
1000

1070
     0
  0
LAYOUT
  5
1E
102
{ACAD_XDICTIONARY
360
80DB
102
}
102
{ACAD_REACTORS
330
1A
102
}
330
1A
100
AcDbPlotSettings
  1

  2

  4

  6

 40
0.0
 41
0.0
 42
0.0
 43
0.0
 44
0.0
 45
0.0
 46
0.0
 47
0.0
 48
0.0
 49
0.0
140
0.0
141
0.0
142
1.0
143
1.0
 70
   688
 72
     0
 73
     0
 74
     5
  7
單色出圖.ctb
 75
    16
147
1.0
148
0.0
149
0.0
100
AcDbLayout
  1
配置1
 70
     1
 71
     1
 10
0.0
 20
0.0
 11
420.0
 21
297.0
 12
0.0
 22
0.0
 32
0.0
 14
1.000000000000000E+20
 24
1.000000000000000E+20
 34
1.000000000000000E+20
 15
-1.000000000000000E+20
 25
-1.000000000000000E+20
 35
-1.000000000000000E+20
146
0.0
 13
0.0
 23
0.0
 33
0.0
 16
1.0
 26
0.0
 36
0.0
 17
0.0
 27
1.0
 37
0.0
 76
     0
330
1B
  0
LAYOUT
  5
26
102
{ACAD_XDICTIONARY
360
80DF
102
}
102
{ACAD_REACTORS
330
1A
102
}
330
1A
100
AcDbPlotSettings
  1

  2

  4

  6

 40
0.0
 41
0.0
 42
0.0
 43
0.0
 44
0.0
 45
0.0
 46
0.0
 47
0.0
 48
0.0
 49
0.0
140
0.0
141
0.0
142
1.0
143
1.0
 70
   688
 72
     0
 73
     0
 74
     5
  7
單色出圖.ctb
 75
    16
147
1.0
148
0.0
149
0.0
100
AcDbLayout
  1
配置2
 70
     1
 71
     2
 10
0.0
 20
0.0
 11
12.0
 21
9.0
 12
0.0
 22
0.0
 32
0.0
 14
0.0
 24
0.0
 34
0.0
 15
0.0
 25
0.0
 35
0.0
146
0.0
 13
0.0
 23
0.0
 33
0.0
 16
1.0
 26
0.0
 36
0.0
 17
0.0
 27
1.0
 37
0.0
 76
     0
330
23
  0
MLINESTYLE
  5
18
102
{ACAD_REACTORS
330
17
102
}
330
17
100
AcDbMlineStyle
  2
STANDARD
 70
     0
  3

 62
   256
 51
90.0
 52
90.0
 71
     2
 49
0.5
 62
   256
  6
BYLAYER
 49
-0.5
 62
   256
  6
BYLAYER
  0
ACDBPLACEHOLDER
  5
F
102
{ACAD_REACTORS
330
E
102
}
330
E
  0
TABLESTYLE
  5
11B
102
{ACAD_REACTORS
330
11A
102
}
330
11A
100
AcDbTableStyle
  3
Standard
 70
     0
 71
     0
 40
1.5
 41
1.5
280
     0
281
     0
  7
STANDARD
140
4.5
170
     2
 62
     0
 63
     7
283
     0
274
    -2
284
     1
 64
     0
275
    -2
285
     1
 65
     0
276
    -2
286
     1
 66
     0
277
    -2
287
     1
 67
     0
278
    -2
288
     1
 68
     0
279
    -2
289
     1
 69
     0
  7
STANDARD
140
6.0
170
     5
 62
     0
 63
     7
283
     0
274
    -2
284
     1
 64
     0
275
    -2
285
     1
 65
     0
276
    -2
286
     1
 66
     0
277
    -2
287
     1
 67
     0
278
    -2
288
     1
 68
     0
279
    -2
289
     1
 69
     0
  7
STANDARD
140
4.5
170
     5
 62
     0
 63
     7
283
     0
274
    -2
284
     1
 64
     0
275
    -2
285
     1
 65
     0
276
    -2
286
     1
 66
     0
277
    -2
287
     1
 67
     0
278
    -2
288
     1
 68
     0
279
    -2
289
     1
 69
     0
  0
DICTIONARYVAR
  5
138
102
{ACAD_REACTORS
330
94
102
}
330
94
100
DictionaryVariables
280
     0
  1
STANDARD
  0
DICTIONARYVAR
  5
96
102
{ACAD_REACTORS
330
94
102
}
330
94
100
DictionaryVariables
280
     0
  1
2
  0
DICTIONARYVAR
  5
95
102
{ACAD_REACTORS
330
94
102
}
330
94
100
DictionaryVariables
280
     0
  1
1
  0
DICTIONARYVAR
  5
7FC4
102
{ACAD_REACTORS
330
94
102
}
330
94
100
DictionaryVariables
280
     0
  1

  0
DICTIONARY
  5
1B5
102
{ACAD_REACTORS
330
5B
102
}
330
5B
100
AcDbDictionary
281
     1
  0
DICTIONARY
  5
61
102
{ACAD_REACTORS
330
5B
102
}
330
5B
100
AcDbDictionary
281
     1
  0
XRECORD
  5
123
102
{ACAD_REACTORS
330
5B
102
}
330
5B
100
AcDbXrecord
280
     1
 90
-1023410169
  0
DICTIONARY
  5
7FD1
102
{ACAD_REACTORS
330
41
102
}
330
41
100
AcDbDictionary
281
     1
  3
DWGSETTINGS
350
7FD2
  3
TRANSSETTINGS
350
7FD5
  0
LAYER_INDEX
  5
80AD
102
{ACAD_REACTORS
330
80AC
102
}
330
80AC
100
AcDbIndex
 40
2456212.572887003
100
AcDbLayerIndex
  8
0
360
80AE
 90
       39
  8
AM_7
360
80AF
 90
      155
  8
AM_VIS
360
80B0
 90
      446
  8
AM_4
360
80B1
 90
      114
  8
AM_0
360
80B2
 90
       10
  8
AM_5
360
80B3
 90
       41
  8
Defpoints
360
80B4
 90
        0
  8
LOGO
360
80B5
 90
      127
  8
AM_9
360
80B6
 90
        0
  0
DICTIONARY
  5
80DD
330
22
100
AcDbDictionary
280
     1
281
     1
  3
ACAD_XREC_ROUNDTRIP
360
80DE
  0
DICTIONARY
  5
80DB
330
1E
100
AcDbDictionary
280
     1
281
     1
  3
ACAD_XREC_ROUNDTRIP
360
80DC
  0
DICTIONARY
  5
80DF
330
26
100
AcDbDictionary
280
     1
281
     1
  3
ACAD_XREC_ROUNDTRIP
360
80E0
  0
IDBUFFER
  5
80AE
330
0
100
AcDbIdBuffer
330
6B95
330
6BB9
330
6BCB
330
6BDD
330
6BEF
330
6C01
330
6C13
330
6C25
330
6C91
330
6CA3
330
6CB5
330
6CC7
330
6CDA
330
6CDB
330
6CDF
330
6CE0
330
6DBE
330
6DBF
330
7935
330
7936
330
7A2A
330
7A3C
330
7A4E
330
18F3
330
192D
330
1930
330
195E
330
1D08
330
6B0D
330
6B13
330
6B19
330
6B1F
330
6B31
330
6B43
330
6B55
330
6B67
330
6B79
330
6B8B
330
6B94
  0
IDBUFFER
  5
80AF
330
0
100
AcDbIdBuffer
330
6D18
330
6D1A
330
6D28
330
6D38
330
6D3C
330
6D4C
330
6D52
330
6D67
330
6D68
330
6D6B
330
6D70
330
6D71
330
6D74
330
6D98
330
6D99
330
6D9C
330
6D9D
330
6DAC
330
6DAD
330
6DB0
330
6DB1
330
77EF
330
77F0
330
77FC
330
77FD
330
7809
330
780A
330
780D
330
780E
330
79C8
330
79C9
330
7A26
330
7A27
330
7A28
330
7A29
330
7A38
330
7A39
330
7A3A
330
7A3B
330
7A4A
330
7A4B
330
7A4C
330
7A4D
330
6ACC
330
6AD9
330
6AE6
330
6AF3
330
6B09
330
6B0A
330
6B0B
330
6B0C
330
6B0F
330
6B10
330
6B11
330
6B12
330
6B15
330
6B16
330
6B17
330
6B18
330
6B1B
330
6B1C
330
6B1D
330
6B1E
330
6B2D
330
6B2E
330
6B2F
330
6B30
330
6B3F
330
6B40
330
6B41
330
6B42
330
6B51
330
6B52
330
6B53
330
6B54
330
6B63
330
6B64
330
6B65
330
6B66
330
6B75
330
6B76
330
6B77
330
6B78
330
6B87
330
6B88
330
6B89
330
6B8A
330
6B8C
330
6B8D
330
6B8E
330
6B8F
330
6B90
330
6B91
330
6B92
330
6B93
330
6BA2
330
6BB5
330
6BB6
330
6BB7
330
6BB8
330
6BC7
330
6BC8
330
6BC9
330
6BCA
330
6BD9
330
6BDA
330
6BDB
330
6BDC
330
6BEB
330
6BEC
330
6BED
330
6BEE
330
6BFD
330
6BFE
330
6BFF
330
6C00
330
6C0F
330
6C10
330
6C11
330
6C12
330
6C21
330
6C22
330
6C23
330
6C24
330
6C4F
330
6C51
330
6C53
330
6C55
330
6C72
330
6C73
330
6C76
330
6C77
330
6C7A
330
6C7B
330
6C7E
330
6C7F
330
6C8D
330
6C8E
330
6C8F
330
6C90
330
6C9F
330
6CA0
330
6CA1
330
6CA2
330
6CB1
330
6CB2
330
6CB3
330
6CB4
330
6CC3
330
6CC4
330
6CC5
330
6CC6
330
6CF5
330
6D03
330
6D14
  0
IDBUFFER
  5
80B0
330
0
100
AcDbIdBuffer
330
6A26
330
6A27
330
6A28
330
6A29
330
6A2A
330
6A2B
330
6A2E
330
6A30
330
6A32
330
6A33
330
6A34
330
6A35
330
6A36
330
6A37
330
6A38
330
6A39
330
6A3E
330
6A3F
330
6A40
330
6A41
330
6A42
330
6A43
330
6A44
330
6A45
330
6A46
330
6A47
330
6A48
330
6A49
330
6A4A
330
6A4B
330
6A4C
330
6A4D
330
6A4E
330
6A4F
330
6A50
330
6A51
330
6A52
330
6A53
330
6A56
330
6A57
330
6A58
330
6A59
330
6A5A
330
6A5B
330
6A5C
330
6A5D
330
6A5E
330
6A5F
330
6A60
330
6A61
330
6A62
330
6A63
330
6A64
330
6A65
330
6A66
330
6A67
330
6A68
330
6A69
330
6A6A
330
6A6B
330
6A6C
330
6A6D
330
6A6E
330
6A6F
330
6A70
330
6A71
330
6A72
330
6A73
330
6A74
330
6A75
330
6A76
330
6A77
330
6A78
330
6A79
330
6A7A
330
6A7B
330
6A7C
330
6A7D
330
6A7E
330
6A7F
330
6A80
330
6A81
330
6A82
330
6A83
330
6A84
330
6A85
330
6A86
330
6A87
330
6A88
330
6A89
330
6A8A
330
6A8B
330
6A8C
330
6A8D
330
6A8E
330
6A8F
330
6A91
330
6A92
330
6A93
330
6A94
330
6A95
330
6A96
330
6A97
330
6A98
330
6A99
330
6A9A
330
6A9B
330
6A9C
330
6A9D
330
6A9E
330
6A9F
330
6AA1
330
6AA2
330
6AA3
330
6AA4
330
6AA5
330
6AA6
330
6AA7
330
6AA8
330
6AA9
330
6AAA
330
6AAB
330
6AAC
330
6AAD
330
6AAE
330
6AAF
330
6AB1
330
6AB2
330
6AB3
330
6AB4
330
6AB5
330
6AB6
330
6AB7
330
6AB8
330
6AB9
330
6ABA
330
6ABB
330
6ABC
330
6ABD
330
6ABE
330
79D1
330
79D2
330
79D3
330
79D4
330
79D5
330
79D6
330
79D7
330
79D8
330
79D9
330
79DA
330
79DB
330
79DC
330
79DD
330
79DE
330
79DF
330
79E0
330
79E1
330
79E2
330
79E3
330
79E4
330
79E5
330
79E6
330
79E7
330
79E8
330
79EB
330
79EC
330
79EF
330
79F0
330
79F1
330
79F2
330
79F3
330
79F4
330
79F5
330
79F6
330
79F7
330
79F8
330
79F9
330
79FA
330
79FB
330
79FC
330
79FD
330
79FE
330
79FF
330
7A00
330
7A01
330
7A02
330
7A03
330
7A04
330
7A05
330
7A06
330
7A07
330
7A08
330
7A09
330
7A0A
330
7A0B
330
7A0C
330
7A0D
330
7A0E
330
7A0F
330
7A10
330
7A11
330
7A12
330
7A13
330
7A14
330
7A16
330
7A17
330
6907
330
6908
330
6909
330
690A
330
690B
330
690C
330
690D
330
690E
330
690F
330
6910
330
6911
330
6912
330
6913
330
6914
330
6915
330
6916
330
6917
330
6918
330
6919
330
691A
330
691B
330
691C
330
691D
330
691E
330
691F
330
6920
330
6921
330
6922
330
6923
330
6924
330
6926
330
6927
330
6928
330
6929
330
692A
330
692B
330
692C
330
692D
330
692E
330
692F
330
6930
330
6931
330
6932
330
6933
330
6934
330
6935
330
6936
330
6937
330
6938
330
6939
330
693A
330
693B
330
693C
330
693D
330
693E
330
693F
330
6940
330
6941
330
6942
330
6943
330
6944
330
6945
330
6946
330
6947
330
6948
330
6949
330
694A
330
694B
330
694C
330
694D
330
694E
330
694F
330
6950
330
6951
330
6952
330
6953
330
6954
330
6955
330
6956
330
6957
330
6958
330
6959
330
695A
330
695B
330
695C
330
695D
330
695E
330
695F
330
6960
330
6961
330
6962
330
6963
330
6964
330
6965
330
6966
330
6967
330
6968
330
6969
330
696A
330
696B
330
696C
330
696D
330
696E
330
696F
330
6970
330
6971
330
6972
330
6973
330
6974
330
6975
330
697A
330
697B
330
697C
330
697D
330
697E
330
697F
330
6980
330
6981
330
6983
330
6984
330
6985
330
6987
330
6988
330
6989
330
698A
330
698B
330
698C
330
698D
330
698E
330
698F
330
6990
330
6991
330
6992
330
6993
330
6994
330
6995
330
6996
330
6997
330
6998
330
6999
330
699A
330
699B
330
699C
330
699D
330
69A6
330
69A7
330
69A9
330
69AA
330
69AB
330
69AC
330
69AD
330
69AE
330
69AF
330
69B0
330
69B1
330
69B2
330
69B3
330
69B4
330
69B5
330
69BD
330
69C0
330
69C1
330
69C2
330
69C3
330
69C4
330
69C5
330
69C6
330
69C7
330
69C8
330
69C9
330
69CA
330
69CB
330
69CC
330
69CD
330
69CE
330
69CF
330
69D0
330
69D1
330
69D2
330
69D3
330
69D4
330
69D5
330
69D6
330
69D7
330
69D8
330
69D9
330
69DA
330
69DB
330
69DC
330
69E5
330
69E6
330
69E7
330
69E8
330
69E9
330
69EA
330
69EB
330
69EC
330
69ED
330
69EE
330
69EF
330
69F0
330
69F1
330
69F2
330
69F3
330
69F4
330
69F5
330
69F6
330
69F7
330
69F8
330
69F9
330
69FA
330
69FB
330
69FC
330
69FD
330
6A0C
330
6A0D
330
6A0E
330
6A0F
330
6A10
330
6A11
330
6A12
330
6A13
330
6A14
330
6A15
330
6A16
330
6A17
330
6A18
330
6A19
330
6A1A
330
6A1B
330
6A1C
330
6A1D
330
6A1E
330
6A1F
330
6A20
330
6A21
330
6A22
330
6A23
330
6A24
330
6A25
  0
IDBUFFER
  5
80B1
330
0
100
AcDbIdBuffer
330
780B
330
79D0
330
6906
330
6925
330
6A90
330
6AA0
330
6AB0
330
6B08
330
6B0E
330
6B14
330
6B1A
330
6C4E
330
6C52
330
6C70
330
6C74
330
6C78
330
6C7C
330
6CF4
330
6CF6
330
6CF7
330
6CF8
330
6CF9
330
6CFA
330
6CFB
330
6CFC
330
6CFD
330
6CFE
330
6CFF
330
6D00
330
6D01
330
6D02
330
6D04
330
6D05
330
6D06
330
6D07
330
6D08
330
6D09
330
6D0A
330
6D0B
330
6D0C
330
6D0D
330
6D0E
330
6D0F
330
6D11
330
6D12
330
6D13
330
6D15
330
6D16
330
6D17
330
6D19
330
6D1B
330
6D1C
330
6D1D
330
6D1E
330
6D1F
330
6D20
330
6D21
330
6D22
330
6D23
330
6D24
330
6D25
330
6D26
330
6D27
330
6D29
330
6D2A
330
6D2B
330
6D2C
330
6D2D
330
6D2E
330
6D2F
330
6D30
330
6D31
330
6D32
330
6D33
330
6D34
330
6D35
330
6D36
330
6D37
330
6D39
330
6D3A
330
6D3B
330
6D47
330
6D48
330
6D49
330
6D4A
330
6D4B
330
6D4D
330
6D4E
330
6D4F
330
6D50
330
6D51
330
6D63
330
6D64
330
6D65
330
6D66
330
6D69
330
6D6A
330
6D6C
330
6D6D
330
6D6E
330
6D6F
330
6D72
330
6D73
330
6D96
330
6D97
330
6D9A
330
6D9B
330
6DAA
330
6DAB
330
6DAE
330
6DAF
330
77ED
330
77FA
330
7807
  0
IDBUFFER
  5
80B2
330
0
100
AcDbIdBuffer
330
6C50
330
6C54
330
6C71
330
6C75
330
6C79
330
6C7D
330
77EE
330
77FB
330
7808
330
780C
  0
IDBUFFER
  5
80B3
330
0
100
AcDbIdBuffer
330
6F3F
330
6F40
330
6F42
330
6F43
330
6F44
330
6F45
330
6F46
330
6F47
330
6F48
330
7937
330
7938
330
7939
330
793A
330
793B
330
793C
330
793D
330
793E
330
793F
330
7A4F
330
7A50
330
7A51
330
7A52
330
7A53
330
7B02
330
7B28
330
6DC1
330
6DC2
330
6DC3
330
6DC4
330
6DC5
330
6DC6
330
6DC7
330
6E22
330
6E2E
330
6E2F
330
6E30
330
6E9B
330
6E9C
330
6E9D
330
6E9E
330
6E9F
  0
IDBUFFER
  5
80B4
330
0
100
AcDbIdBuffer
  0
IDBUFFER
  5
80B5
330
0
100
AcDbIdBuffer
330
194C
330
194D
330
194E
330
194F
330
1950
330
1951
330
1952
330
1953
330
1954
330
1955
330
1956
330
1957
330
1958
330
1959
330
195A
330
18AA
330
18AB
330
18AC
330
18AD
330
18AE
330
18AF
330
18B0
330
18B1
330
18B2
330
18B3
330
18B4
330
18B5
330
18B6
330
18B7
330
18B8
330
18B9
330
18BA
330
18BB
330
18BC
330
18BD
330
18BE
330
18BF
330
18C0
330
18C1
330
18C2
330
18C3
330
18C4
330
18C5
330
18C6
330
18C7
330
18C8
330
18C9
330
18CA
330
18CB
330
18CC
330
18CD
330
18CE
330
18CF
330
18D0
330
18D1
330
18D2
330
18D3
330
18D4
330
18D5
330
18D6
330
18D7
330
18D8
330
18D9
330
18DA
330
18DB
330
18DC
330
18DD
330
18DE
330
18DF
330
18E0
330
18E1
330
18E2
330
18E3
330
18E4
330
18E5
330
18E6
330
18E7
330
18E8
330
18E9
330
18EA
330
18EB
330
18EC
330
18ED
330
18EE
330
18EF
330
18F0
330
18F1
330
18F2
330
18F4
330
18F5
330
18F6
330
18F7
330
18F8
330
18F9
330
18FA
330
18FB
330
18FF
330
1903
330
1904
330
1908
330
1909
330
190A
330
190B
330
190C
330
190D
330
190E
330
190F
330
1913
330
1917
330
191B
330
191C
330
191D
330
1921
330
1922
330
1923
330
1924
330
1925
330
1926
330
1927
330
1928
330
1929
330
192A
330
192B
330
192C
330
192E
330
192F
330
194B
  0
IDBUFFER
  5
80B6
330
0
100
AcDbIdBuffer
  0
XRECORD
  5
80DE
102
{ACAD_REACTORS
330
80DD
102
}
330
80DD
100
AcDbXrecord
280
     1
102
SHADEPLOT
 70
     0
102
SHADEPLOTRESLEVEL
 70
     2
102
SHADEPLOTCUSTOMDPI
 70
   300
  0
XRECORD
  5
80DC
102
{ACAD_REACTORS
330
80DB
102
}
330
80DB
100
AcDbXrecord
280
     1
102
SHADEPLOT
 70
     0
102
SHADEPLOTRESLEVEL
 70
     2
102
SHADEPLOTCUSTOMDPI
 70
   300
  0
XRECORD
  5
80E0
102
{ACAD_REACTORS
330
80DF
102
}
330
80DF
100
AcDbXrecord
280
     1
102
SHADEPLOT
 70
     0
102
SHADEPLOTRESLEVEL
 70
     2
102
SHADEPLOTCUSTOMDPI
 70
   300
  0
ENDSEC
  0
EOF
