  0
SECTION
  2
HEADER
  9
$ACADVER
  1
AC1015
  9
$ACADMAINTVER
 70
    20
  9
$DWGCODEPAGE
  3
ANSI_950
  9
$INSBASE
 10
0.0
 20
0.0
 30
0.0
  9
$EXTMIN
 10
-1487.863396988127
 20
1028.09025166756
 30
-0.0207229440387664
  9
$EXTMAX
 10
-827.7257177694
 20
1508.155671453472
 30
314.5577418769301
  9
$LIMMIN
 10
0.0
 20
0.0
  9
$LIMMAX
 10
420.0
 20
297.0
  9
$ORTHOMODE
 70
     0
  9
$REGENMODE
 70
     1
  9
$FILLMODE
 70
     1
  9
$QTEXTMODE
 70
     0
  9
$MIRRTEXT
 70
     1
  9
$LTSCALE
 40
1.0
  9
$ATTMODE
 70
     1
  9
$TEXTSIZE
 40
3.0
  9
$TRACEWID
 40
1.0
  9
$TEXTSTYLE
  7
STANDARD
  9
$CLAYER
  8
0
  9
$CELTYPE
  6
ByLayer
  9
$CECOLOR
 62
   256
  9
$CELTSCALE
 40
1.0
  9
$DISPSILH
 70
     0
  9
$DIMSCALE
 40
1.0
  9
$DIMASZ
 40
3.0
  9
$DIMEXO
 40
1.5
  9
$DIMDLI
 40
8.0
  9
$DIMRND
 40
0.0
  9
$DIMDLE
 40
0.0
  9
$DIMEXE
 40
1.5
  9
$DIMTP
 40
0.1
  9
$DIMTM
 40
0.1
  9
$DIMTXT
 40
3.5
  9
$DIMCEN
 40
0.0
  9
$DIMTSZ
 40
0.0
  9
$DIMTOL
 70
     0
  9
$DIMLIM
 70
     0
  9
$DIMTIH
 70
     0
  9
$DIMTOH
 70
     0
  9
$DIMSE1
 70
     0
  9
$DIMSE2
 70
     0
  9
$DIMTAD
 70
     1
  9
$DIMZIN
 70
     8
  9
$DIMBLK
  1

  9
$DIMASO
 70
     1
  9
$DIMSHO
 70
     1
  9
$DIMPOST
  1

  9
$DIMAPOST
  1
"
  9
$DIMALT
 70
     0
  9
$DIMALTD
 70
     2
  9
$DIMALTF
 40
0.0393701
  9
$DIMLFAC
 40
1.0
  9
$DIMTOFL
 70
     1
  9
$DIMTVP
 40
0.0
  9
$DIMTIX
 70
     0
  9
$DIMSOXD
 70
     0
  9
$DIMSAH
 70
     0
  9
$DIMBLK1
  1

  9
$DIMBLK2
  1

  9
$DIMSTYLE
  2
AM_ISO
  9
$DIMCLRD
 70
   256
  9
$DIMCLRE
 70
   256
  9
$DIMCLRT
 70
   256
  9
$DIMTFAC
 40
0.6
  9
$DIMGAP
 40
1.0
  9
$DIMJUST
 70
     0
  9
$DIMSD1
 70
     0
  9
$DIMSD2
 70
     0
  9
$DIMTOLJ
 70
     0
  9
$DIMTZIN
 70
     8
  9
$DIMALTZ
 70
     0
  9
$DIMALTTZ
 70
     0
  9
$DIMUPT
 70
     0
  9
$DIMDEC
 70
     2
  9
$DIMTDEC
 70
     8
  9
$DIMALTU
 70
     2
  9
$DIMALTTD
 70
     2
  9
$DIMTXSTY
  7
STANDARD
  9
$DIMAUNIT
 70
     0
  9
$DIMADEC
 70
     0
  9
$DIMALTRND
 40
0.0
  9
$DIMAZIN
 70
     2
  9
$DIMDSEP
 70
    46
  9
$DIMATFIT
 70
     3
  9
$DIMFRAC
 70
     0
  9
$DIMLDRBLK
  1

  9
$DIMLUNIT
 70
     2
  9
$DIMLWD
 70
    -1
  9
$DIMLWE
 70
    -1
  9
$DIMTMOVE
 70
     0
  9
$LUNITS
 70
     2
  9
$LUPREC
 70
     2
  9
$SKETCHINC
 40
1.0
  9
$FILLETRAD
 40
2.5
  9
$AUNITS
 70
     0
  9
$AUPREC
 70
     0
  9
$MENU
  1
.
  9
$ELEVATION
 40
0.0
  9
$PELEVATION
 40
0.0
  9
$THICKNESS
 40
0.0
  9
$LIMCHECK
 70
     0
  9
$CHAMFERA
 40
2.5
  9
$CHAMFERB
 40
2.5
  9
$CHAMFERC
 40
20.0
  9
$CHAMFERD
 40
0.0
  9
$SKPOLY
 70
     0
  9
$TDCREATE
 40
2454433.375601852
  9
$TDUCREATE
 40
2454433.042268518
  9
$TDUPDATE
 40
2454433.555459340
  9
$TDUUPDATE
 40
2454433.222126007
  9
$TDINDWG
 40
0.1728269676
  9
$TDUSRTIMER
 40
0.1728269676
  9
$USRTIMER
 70
     1
  9
$ANGBASE
 50
0.0
  9
$ANGDIR
 70
     0
  9
$PDMODE
 70
     0
  9
$PDSIZE
 40
0.0
  9
$PLINEWID
 40
0.0
  9
$SPLFRAME
 70
     0
  9
$SPLINETYPE
 70
     6
  9
$SPLINESEGS
 70
     8
  9
$HANDSEED
  5
1CDA
  9
$SURFTAB1
 70
     6
  9
$SURFTAB2
 70
     6
  9
$SURFTYPE
 70
     6
  9
$SURFU
 70
     6
  9
$SURFV
 70
     6
  9
$UCSBASE
  2

  9
$UCSNAME
  2

  9
$UCSORG
 10
0.0
 20
0.0
 30
0.0
  9
$UCSXDIR
 10
1.0
 20
0.0
 30
0.0
  9
$UCSYDIR
 10
0.0
 20
1.0
 30
0.0
  9
$UCSORTHOREF
  2

  9
$UCSORTHOVIEW
 70
     0
  9
$UCSORGTOP
 10
0.0
 20
0.0
 30
0.0
  9
$UCSORGBOTTOM
 10
0.0
 20
0.0
 30
0.0
  9
$UCSORGLEFT
 10
0.0
 20
0.0
 30
0.0
  9
$UCSORGRIGHT
 10
0.0
 20
0.0
 30
0.0
  9
$UCSORGFRONT
 10
0.0
 20
0.0
 30
0.0
  9
$UCSORGBACK
 10
0.0
 20
0.0
 30
0.0
  9
$PUCSBASE
  2

  9
$PUCSNAME
  2

  9
$PUCSORG
 10
0.0
 20
0.0
 30
0.0
  9
$PUCSXDIR
 10
1.0
 20
0.0
 30
0.0
  9
$PUCSYDIR
 10
0.0
 20
1.0
 30
0.0
  9
$PUCSORTHOREF
  2

  9
$PUCSORTHOVIEW
 70
     0
  9
$PUCSORGTOP
 10
0.0
 20
0.0
 30
0.0
  9
$PUCSORGBOTTOM
 10
0.0
 20
0.0
 30
0.0
  9
$PUCSORGLEFT
 10
0.0
 20
0.0
 30
0.0
  9
$PUCSORGRIGHT
 10
0.0
 20
0.0
 30
0.0
  9
$PUCSORGFRONT
 10
0.0
 20
0.0
 30
0.0
  9
$PUCSORGBACK
 10
0.0
 20
0.0
 30
0.0
  9
$USERI1
 70
     0
  9
$USERI2
 70
     0
  9
$USERI3
 70
     0
  9
$USERI4
 70
     0
  9
$USERI5
 70
     0
  9
$USERR1
 40
0.0
  9
$USERR2
 40
0.0
  9
$USERR3
 40
0.0
  9
$USERR4
 40
0.0
  9
$USERR5
 40
0.0
  9
$WORLDVIEW
 70
     1
  9
$SHADEDGE
 70
     3
  9
$SHADEDIF
 70
    70
  9
$TILEMODE
 70
     1
  9
$MAXACTVP
 70
    64
  9
$PINSBASE
 10
0.0
 20
0.0
 30
0.0
  9
$PLIMCHECK
 70
     0
  9
$PEXTMIN
 10
1.000000000000000E+20
 20
1.000000000000000E+20
 30
1.000000000000000E+20
  9
$PEXTMAX
 10
-1.000000000000000E+20
 20
-1.000000000000000E+20
 30
-1.000000000000000E+20
  9
$PLIMMIN
 10
0.0
 20
0.0
  9
$PLIMMAX
 10
420.0
 20
297.0
  9
$UNITMODE
 70
     0
  9
$VISRETAIN
 70
     1
  9
$PLINEGEN
 70
     0
  9
$PSLTSCALE
 70
     1
  9
$TREEDEPTH
 70
  3020
  9
$CMLSTYLE
  2
Standard
  9
$CMLJUST
 70
     0
  9
$CMLSCALE
 40
20.0
  9
$PROXYGRAPHICS
 70
     1
  9
$MEASUREMENT
 70
     1
  9
$CELWEIGHT
370
    -1
  9
$ENDCAPS
280
     0
  9
$JOINSTYLE
280
     0
  9
$LWDISPLAY
290
     0
  9
$INSUNITS
 70
     4
  9
$HYPERLINKBASE
  1

  9
$STYLESHEET
  1
彩色出圖.ctb
  9
$XEDIT
290
     1
  9
$CEPSNTYPE
380
     0
  9
$PSTYLEMODE
290
     1
  9
$FINGERPRINTGUID
  2
{BE70FC54-8689-4F4D-85B5-A680401471D3}
  9
$VERSIONGUID
  2
{269ABFFC-6405-4C6F-89F4-E99DD0C7A12E}
  9
$EXTNAMES
290
     1
  9
$PSVPSCALE
 40
0.0
  9
$OLESTARTUP
290
     0
  0
ENDSEC
  0
SECTION
  2
CLASSES
  0
CLASS
  1
ACDBDICTIONARYWDFLT
  2
AcDbDictionaryWithDefault
  3
ObjectDBX Classes
 90
        0
280
     0
281
     0
  0
CLASS
  1
ACDBPLACEHOLDER
  2
AcDbPlaceHolder
  3
ObjectDBX Classes
 90
        0
280
     0
281
     0
  0
CLASS
  1
LAYOUT
  2
AcDbLayout
  3
ObjectDBX Classes
 90
        0
280
     0
281
     0
  0
CLASS
  1
ACME_DOCUMENT
  2
AcMeDbDoc
  3
AcMeServices
 90
        0
280
     0
281
     0
  0
CLASS
  1
AMGSETTINGSOBJ
  2
AmgSettingsObj
  3
"AcadM|Product Description: AutoCAD Mechanical 2000|Company: Autodesk"
 90
        0
280
     0
281
     0
  0
CLASS
  1
ACMESCOPE
  2
AcMeScope
  3
AcMeServices
 90
        0
280
     0
281
     0
  0
CLASS
  1
ACMECOMMANDHISTORY
  2
AcMeCommandHistory
  3
AcMeServices
 90
        0
280
     0
281
     0
  0
CLASS
  1
ACIMSYSVARMAN
  2
AcImSysVarManager
  3
AcMeServices
 90
        0
280
     0
281
     0
  0
CLASS
  1
ACIMREALSYSVAR
  2
AcImRealSysVar
  3
AcMeServices
 90
        0
280
     0
281
     0
  0
CLASS
  1
ACIMINTSYSVAR
  2
AcImIntSysVar
  3
AcMeServices
 90
        0
280
     0
281
     0
  0
CLASS
  1
ACMEDRAWINGMAN
  2
AcMeDrawingMan
  3
AcMeServices
 90
        0
280
     0
281
     0
  0
CLASS
  1
ACMEVIEW
  2
AcMeView
  3
AcMeServices
 90
        0
280
     0
281
     0
  0
CLASS
  1
ACDBENTITYCACHE
  2
AcMeEntityCache
  3
AcMeServices
 90
        0
280
     0
281
     0
  0
CLASS
  1
GSMANAGER
  2
AcMeGSManager
  3
AcMeServices
 90
        0
280
     0
281
     0
  0
CLASS
  1
AMDTINTERNALREACTOR
  2
AmdtInternalReactor
  3
AcMeServices
 90
        0
280
     0
281
     0
  0
CLASS
  1
ACMESTATEMGR
  2
AcMeStateMgr
  3
AcMeServices
 90
        0
280
     0
281
     0
  0
CLASS
  1
ACGREFMASTER
  2
AcGrefMaster
  3
AcAttribServices
 90
        0
280
     0
281
     0
  0
CLASS
  1
ACME_DATABASE
  2
AcMeDbDatabase
  3
AcMeServices
 90
        0
280
     0
281
     0
  0
CLASS
  1
ACRFINSADJUSTERMGR
  2
AcRfInsAdjusterMgr
  3
AcMeServices
 90
        0
280
     0
281
     0
  0
CLASS
  1
ACGREFACADMASTER
  2
AcGrefacadMaster
  3
AcGrefServices
 90
        0
280
     0
281
     0
  0
CLASS
  1
AMIMASTER
  2
AmiMaster
  3
AmiServices
 90
        0
280
     0
281
     0
  0
CLASS
  1
ACMDATADICTIONARY
  2
AcmDataDictionary
  3
"AcmSymBB|Product Description: AutoCAD Mechanical 2004 DX|Company: Autodesk"
 90
        0
280
     0
281
     0
  0
CLASS
  1
ACMDATAENTRYBLOCK
  2
AcmDataEntryBlock
  3
"AcmSymBB|Product Description: AutoCAD Mechanical 2004 DX|Company: Autodesk"
 90
        0
280
     0
281
     0
  0
CLASS
  1
ACIMSTRSYSVAR
  2
AcImStrSysVar
  3
AcMeServices
 90
        0
280
     0
281
     0
  0
CLASS
  1
ACMSTANDARDISO
  2
AcmStandardISO
  3
"Amdt_StdImp|Product Description: AutoCAD Mechanical 2004 DX|Company: Autodesk"
 90
        0
280
     0
281
     0
  0
CLASS
  1
AMGOBJPROPCFG
  2
AmgObjPropCfg
  3
"AmgLay|Product Description: AutoCAD Mechanical 2000|Company: Autodesk"
 90
        1
280
     0
281
     0
  0
CLASS
  1
AMDTEDGESTANDARDISO
  2
AmdtEdgeStdISO
  3
"Amdt_StdImp|Product Description: AutoCAD Mechanical 2004 DX|Company: Autodesk"
 90
        0
280
     0
281
     0
  0
CLASS
  1
ACMSURFSTANDARDISO
  2
AcmSurfTextStdISO
  3
"Amdt_StdImp|Product Description: AutoCAD Mechanical 2004 DX|Company: Autodesk"
 90
        0
280
     0
281
     0
  0
CLASS
  1
ACMFCFSTANDARDISO
  2
AcmFCFStdISO
  3
"Amdt_StdImp|Product Description: AutoCAD Mechanical 2004 DX|Company: Autodesk"
 90
        0
280
     0
281
     0
  0
CLASS
  1
ACMWELDSTANDARDISO
  2
AcmWeldingStdISO
  3
"Amdt_StdImp|Product Description: AutoCAD Mechanical 2004 DX|Company: Autodesk"
 90
        0
280
     0
281
     0
  0
CLASS
  1
ACMIDSTANDARDISO
  2
AcmIdStdISO
  3
"Amdt_StdImp|Product Description: AutoCAD Mechanical 2004 DX|Company: Autodesk"
 90
        0
280
     0
281
     0
  0
CLASS
  1
ACMDATUMSTANDARDISO
  2
AcmDatumStdISO
  3
"Amdt_StdImp|Product Description: AutoCAD Mechanical 2004 DX|Company: Autodesk"
 90
        0
280
     0
281
     0
  0
CLASS
  1
ACMBOMSTANDARDISO
  2
AcmBOMStdISO
  3
"Amdt_StdImp|Product Description: AutoCAD Mechanical 2004 DX|Company: Autodesk"
 90
        0
280
     0
281
     0
  0
CLASS
  1
ACMDETAILSTANDARDISO
  2
AmdtDetailSymStdISO
  3
"Amdt_StdImp|Product Description: AutoCAD Mechanical 2004 DX|Company: Autodesk"
 90
        0
280
     0
281
     0
  0
CLASS
  1
ACMSECTIONSTANDARDISO
  2
AmdtSectionSymStdISO
  3
"Amdt_StdImp|Product Description: AutoCAD Mechanical 2004 DX|Company: Autodesk"
 90
        0
280
     0
281
     0
  0
CLASS
  1
ACMCENTERLINESTANDARDISO
  2
AmdtCenterLineStdISO
  3
"Amdt_StdImp|Product Description: AutoCAD Mechanical 2004 DX|Company: Autodesk"
 90
        0
280
     0
281
     0
  0
CLASS
  1
ACMNOTESTANDARDISO
  2
AmdtNoteStdISO
  3
"Amdt_StdImp|Product Description: AutoCAD Mechanical 2004 DX|Company: Autodesk"
 90
        0
280
     0
281
     0
  0
CLASS
  1
ACAMGLAYSTD
  2
AcAmgLayStd
  3
"AcAmgLayStd|Product Description: AutoCAD Mechanical 2000|Company: Autodesk"
 90
        0
280
     0
281
     0
  0
CLASS
  1
ACAMGDIMSTD
  2
AcAmgDimStd
  3
"AcAmgDimStd|Product Description: AutoCAD Mechanical 2000|Company: Autodesk"
 90
        0
280
     0
281
     0
  0
CLASS
  1
ACAMGHOLECHARTSTDISO
  2
AcAmgHoleChartStdISO
  3
ACMSYMBB_MODULE_NAME
 90
        0
280
     0
281
     0
  0
CLASS
  1
ACAMGTITLESTD
  2
AcAmgTitleStd
  3
"TITLEAPP"
 90
        0
280
     0
281
     0
  0
CLASS
  1
LAYER_INDEX
  2
AcDbLayerIndex
  3
ObjectDBX Classes
 90
    32768
280
     0
281
     0
  0
CLASS
  1
IDBUFFER
  2
AcDbIdBuffer
  3
ObjectDBX Classes
 90
    32768
280
     0
281
     0
  0
CLASS
  1
DICTIONARYVAR
  2
AcDbDictionaryVar
  3
ObjectDBX Classes
 90
        0
280
     0
281
     0
  0
CLASS
  1
AM_DRAWING_MGR
  2
AcDmDwgMgr
  3
AcMechDwgViewMgmt
 90
        0
280
     0
281
     0
  0
CLASS
  1
AM_DWG_DOCUMENT
  2
AcDmDwgDocument
  3
AcMechDwgViewMgmt
 90
        0
280
     0
281
     0
  0
CLASS
  1
AM_DWG_SHEET
  2
AcDmSheet
  3
AcMechDwgViewMgmt
 90
        0
280
     0
281
     0
  0
CLASS
  1
AM_VIEWDIMPARMAP
  2
AcDmViewDimParMap
  3
AcMechDwgViewMgmt
 90
        0
280
     0
281
     0
  0
CLASS
  1
AM_DWGMGR_NAME
  2
AcDmDwgMgrName
  3
AcMechDwgViewMgmt
 90
        0
280
     0
281
     0
  0
CLASS
  1
AMDTMENUSTATEMGR
  2
AmdtMenuStateMgr
  3
McadcomServices
 90
        0
280
     0
281
     0
  0
CLASS
  1
AMDTMCOMMENUSTATE
  2
AmdtMcomMenuState
  3
McadcomServices
 90
        0
280
     0
281
     0
  0
CLASS
  1
MAPIAMMOUDLE
  2
MApiAmModule
  3
MApiAmServices
 90
        0
280
     0
281
     0
  0
CLASS
  1
AMDTADMENUSTATE
  2
AmdtAdMenuState
  3
DesignerServices
 90
        0
280
     0
281
     0
  0
CLASS
  1
ADAPPL
  2
AcAdAppl
  3
DesignerServices
 90
        0
280
     0
281
     0
  0
CLASS
  1
DEPMGR
  2
AcAdDepMgr
  3
DesignerServices
 90
        0
280
     0
281
     0
  0
CLASS
  1
PARAMMGR
  2
AcAdParamMgr
  3
DesignerServices
 90
        0
280
     0
281
     0
  0
CLASS
  1
PARAMSCOPE
  2
AcAdParamScope
  3
DesignerServices
 90
        0
280
     0
281
     0
  0
CLASS
  1
NAMEDAPPL
  2
AcAdNamedAppl
  3
DesignerServices
 90
        0
280
     0
281
     0
  0
CLASS
  1
AMDTDMMENUSTATE
  2
AmdtDmMenuState
  3
AcMechDwgViewMgmt
 90
        0
280
     0
281
     0
  0
CLASS
  1
AMDTAMMENUSTATE
  2
AmdtAmMenuState
  3
DesignerAssemblies
 90
        0
280
     0
281
     0
  0
CLASS
  1
ACAMPROJECT
  2
AcAmProject
  3
DesignerAssemblies
 90
        0
280
     0
281
     0
  0
CLASS
  1
ACAMGRCOMPDEF
  2
AcAmGrCompDef
  3
DesignerAssemblies
 90
        0
280
     0
281
     0
  0
CLASS
  1
ACCMCONTEXT
  2
AcCmContext
  3
DesignerAssemblies
 90
        0
280
     0
281
     0
  0
CLASS
  1
ACAMCOMPDEF
  2
AcAmCompDef
  3
DesignerAssemblies
 90
        0
280
     0
281
     0
  0
CLASS
  1
ACAMCOMPDEFMGR
  2
AcAmCompDefMgr
  3
DesignerAssemblies
 90
        0
280
     0
281
     0
  0
CLASS
  1
AMCONTEXTMGR
  2
AcAmContextMgr
  3
DesignerAssemblies
 90
        0
280
     0
281
     0
  0
CLASS
  1
ACAMCONTEXTMODELER
  2
AcAmContextModeler
  3
DesignerAssemblies
 90
        0
280
     0
281
     0
  0
CLASS
  1
ACMTHREADLINESTANDARDISO
  2
AmdtThreadLineStdISO
  3
"Amdt_StdImp|Product Description: AutoCAD Mechanical 2004 DX|Company: Autodesk"
 90
        0
280
     0
281
     0
  0
CLASS
  1
CATALOGSTATE
  2
AcAmCatalogState
  3
DesignerAssemblies
 90
        0
280
     0
281
     0
  0
CLASS
  1
ACAMGRCOMPDEFSET
  2
AcAmGrCompDefSet
  3
DesignerAssemblies
 90
        0
280
     0
281
     0
  0
CLASS
  1
AMDTBROWSERDBTAB
  2
AmdtBrowserDbTab
  3
McadcomServices
 90
        0
280
     0
281
     0
  0
CLASS
  1
CBROWSERAPPOBJECT
  2
CBrowserAppObject
  3
McadcomServices
 90
        0
280
     0
281
     0
  0
CLASS
  1
DM_PLACEHOLDER
  2
AcDmSelsetPlaceholder
  3
AcMechDwgViewMgmt
 90
        0
280
     0
281
     0
  0
CLASS
  1
TABLESTYLE
  2
AcDbTableStyle
  3
ObjectDBX Classes
 90
     2047
280
     0
281
     0
  0
CLASS
  1
VAACXREFPANELOBJECT
  2
VaAcXREFPanelObject
  3
VAAC_ADDIN
 90
    32768
280
     0
281
     0
  0
CLASS
  1
VAACIMAGEINVENTORY
  2
VaAcImageInventory
  3
VAAC_ADDIN
 90
    32768
280
     0
281
     0
  0
CLASS
  1
AMDTNOTETEMPLATEDB
  2
AmdtNoteTemplateDB
  3
AMDT_STDIMP_MODULE_NAME
 90
        0
280
     0
281
     0
  0
CLASS
  1
ACMBOM
  2
AcmBom
  3
"AcmSymBB|Product Description: AutoCAD Mechanical 2004 DX|Company: Autodesk"
 90
    32768
280
     0
281
     0
  0
CLASS
  1
AMDTFORMULAUPDATEDISPATCHER
  2
AmdtFormulaUpdateDispatcher
  3
AcMeServices
 90
        0
280
     0
281
     0
  0
CLASS
  1
ACMPARTLIST
  2
AcmPartList
  3
"AcmSymBB|Product Description: AutoCAD Mechanical 2004 DX|Company: Autodesk"
 90
    33791
280
     0
281
     1
  0
CLASS
  1
ACAMGFILTERDAT
  2
AcAmgFilterDat
  3
"AcadM|Product Description: AutoCAD Mechanical 2000|Company: Autodesk"
 90
        0
280
     0
281
     0
  0
CLASS
  1
DIMASSOC
  2
AcDbDimAssoc
  3
"AcDbDimAssoc|Product Desc:     AcDim ARX App For Dimension|Company:          Autodesk, Inc.|WEB Address:      www.autodesk.com"
 90
    32768
280
     0
281
     0
  0
CLASS
  1
SORTENTSTABLE
  2
AcDbSortentsTable
  3
ObjectDBX Classes
 90
    32768
280
     0
281
     0
  0
CLASS
  1
AMDTNOTE
  2
AmdtNote
  3
"AcmSymBB|Product Description: AutoCAD Mechanical 2004 DX|Company: Autodesk"
 90
     1023
280
     0
281
     1
  0
CLASS
  1
ACRFATTGENMGR
  2
AcRfAttGeneralMgr
  3
AcAttribServices
 90
        0
280
     0
281
     0
  0
ENDSEC
  0
SECTION
  2
TABLES
  0
TABLE
  2
VPORT
  5
8
330
0
100
AcDbSymbolTable
 70
     8
  0
VPORT
  5
1CD1
330
8
100
AcDbSymbolTableRecord
100
AcDbViewportTableRecord
  2
*Active
 70
     0
 10
0.0
 20
0.0
 11
1.0
 21
1.0
 12
-1157.794557378764
 22
1268.122961560516
 13
0.0
 23
0.0
 14
2.5
 24
2.5
 15
10.0
 25
10.0
 16
0.0
 26
0.0
 36
1.0
 17
0.0
 27
0.0
 37
0.0
 40
484.0165755043149
 41
1.399725274725274
 42
50.0
 43
0.0
 44
0.0
 50
0.0
 51
0.0
 71
     0
 72
   100
 73
     1
 74
     3
 75
     0
 76
     0
 77
     0
 78
     0
281
     0
 65
     1
110
0.0
120
0.0
130
0.0
111
1.0
121
0.0
131
0.0
112
0.0
122
1.0
132
0.0
 79
     0
146
0.0
  0
ENDTAB
  0
TABLE
  2
LTYPE
  5
5
330
0
100
AcDbSymbolTable
 70
    15
  0
LTYPE
  5
14
330
5
100
AcDbSymbolTableRecord
100
AcDbLinetypeTableRecord
  2
ByBlock
 70
     0
  3

 72
    65
 73
     0
 40
0.0
  0
LTYPE
  5
15
330
5
100
AcDbSymbolTableRecord
100
AcDbLinetypeTableRecord
  2
ByLayer
 70
     0
  3

 72
    65
 73
     0
 40
0.0
  0
LTYPE
  5
16
330
5
100
AcDbSymbolTableRecord
100
AcDbLinetypeTableRecord
  2
Continuous
 70
     0
  3
Solid line
 72
    65
 73
     0
 40
0.0
  0
LTYPE
  5
64
330
5
100
AcDbSymbolTableRecord
100
AcDbLinetypeTableRecord
  2
AM_ISO02W050
 70
     0
  3
__ __ __ __ __ __ __ __ __ __ __ __ __ __ __
 72
    65
 73
     2
 40
7.5
 49
6.0
 74
     0
 49
-1.5
 74
     0
  0
LTYPE
  5
65
330
5
100
AcDbSymbolTableRecord
100
AcDbLinetypeTableRecord
  2
AM_ISO08W050
 70
     0
  3
____ . ____ . ____ . ____ . ____ . ____ . ____
 72
    65
 73
     4
 40
18.0
 49
12.0
 74
     0
 49
-1.5
 74
     0
 49
3.0
 74
     0
 49
-1.5
 74
     0
  0
LTYPE
  5
66
330
5
100
AcDbSymbolTableRecord
100
AcDbLinetypeTableRecord
  2
AM_ISO09W050
 70
     0
  3
_____ . . _____ . . _____ . . ____ .. ____
 72
    65
 73
     6
 40
22.5
 49
12.0
 74
     0
 49
-1.5
 74
     0
 49
3.0
 74
     0
 49
-1.5
 74
     0
 49
3.0
 74
     0
 49
-1.5
 74
     0
  0
LTYPE
  5
67
330
5
100
AcDbSymbolTableRecord
100
AcDbLinetypeTableRecord
  2
Amconstr
 70
     0
  3
_______________________
 72
    65
 73
     2
 40
9999.0
 49
9999.0
 74
     0
 49
0.0
 74
     0
  0
LTYPE
  5
68
330
5
100
AcDbSymbolTableRecord
100
AcDbLinetypeTableRecord
  2
AM_ISO08W050x2
 70
     0
  3
__ . __ . __ . __ . __ . __
 72
    65
 73
     4
 40
9.0
 49
6.0
 74
     0
 49
-0.75
 74
     0
 49
1.5
 74
     0
 49
-0.75
 74
     0
  0
LTYPE
  5
69
330
5
100
AcDbSymbolTableRecord
100
AcDbLinetypeTableRecord
  2
AM_ISO02W050x2
 70
     0
  3
 _ _ _ _ _ _ _ _ _ _ _ _
 72
    65
 73
     2
 40
3.75
 49
3.0
 74
     0
 49
-0.75
 74
     0
  0
LTYPE
  5
6C
330
5
100
AcDbSymbolTableRecord
100
AcDbLinetypeTableRecord
  2
Amzigzag
 70
     0
  3
/\/-/\/-/\/-/\/-/\/-/\/
 72
    65
 73
     2
 40
11.0001
 49
0.0001
 74
     4
 75
   135
340
6B
 46
0.04
 50
0.0
 44
0.0
 45
0.0
 49
-11.0
 74
     0
  0
LTYPE
  5
7A
330
5
100
AcDbSymbolTableRecord
100
AcDbLinetypeTableRecord
  2
ACISOWELD
 70
     0
  3
_ _ _ _ _
 72
    65
 73
     2
 40
2.0
 49
2.0
 74
     0
 49
-1.0
 74
     0
  0
LTYPE
  5
7B
330
5
100
AcDbSymbolTableRecord
100
AcDbLinetypeTableRecord
  2
ACISOTGB
 70
     0
  3
__ . . __ . .
 72
    65
 73
     6
 40
9.0
 49
4.0
 74
     0
 49
-1.0
 74
     0
 49
1.0
 74
     0
 49
-1.0
 74
     0
 49
1.0
 74
     0
 49
-1.0
 74
     0
  0
LTYPE
  5
7C
330
5
100
AcDbSymbolTableRecord
100
AcDbLinetypeTableRecord
  2
ACISOTGL
 70
     0
  3
_ _ _ _ _
 72
    65
 73
     2
 40
3.0
 49
2.0
 74
     0
 49
-1.0
 74
     0
  0
LTYPE
  5
7E
330
5
100
AcDbSymbolTableRecord
100
AcDbLinetypeTableRecord
  2
CENTER
 70
     0
  3
__ . __
 72
    65
 73
     4
 40
7.0
 49
4.0
 74
     0
 49
-1.0
 74
     0
 49
1.0
 74
     0
 49
-1.0
 74
     0
  0
LTYPE
  5
D8
330
5
100
AcDbSymbolTableRecord
100
AcDbLinetypeTableRecord
  2
HIDDEN
 70
     0
  3
Hidden __ __ __ __ __ __ __ __ __ __ __ __ __ _
 72
    65
 73
     2
 40
9.524999999999998
 49
6.349999999999999
 74
     0
 49
-3.174999999999999
 74
     0
  0
LTYPE
  5
D9
330
5
100
AcDbSymbolTableRecord
100
AcDbLinetypeTableRecord
  2
PHANTOM2
 70
     0
  3
Phantom (.5x) ___ _ _ ___ _ _ ___ _ _ ___ _ _
 72
    65
 73
     6
 40
31.75
 49
15.875
 74
     0
 49
-3.174999999999999
 74
     0
 49
3.174999999999999
 74
     0
 49
-3.174999999999999
 74
     0
 49
3.174999999999999
 74
     0
 49
-3.174999999999999
 74
     0
  0
LTYPE
  5
CE9
330
5
100
AcDbSymbolTableRecord
100
AcDbLinetypeTableRecord
  2
DASHED
 70
     0
  3
Dashed __ __ __ __ __ __ __ __ __ __ __ __ __ _
 72
    65
 73
     2
 40
19.05
 49
12.7
 74
     0
 49
-6.349999999999999
 74
     0
  0
ENDTAB
  0
TABLE
  2
LAYER
  5
2
102
{ACAD_XDICTIONARY
360
3F9
102
}
330
0
100
AcDbSymbolTable
 70
     7
  0
LAYER
  5
10
330
2
100
AcDbSymbolTableRecord
100
AcDbLayerTableRecord
  2
0
 70
     0
 62
     7
  6
Continuous
370
    -3
390
F
  0
LAYER
  5
CEA
330
2
100
AcDbSymbolTableRecord
100
AcDbLayerTableRecord
  2
DEFPOINTS
 70
     0
 62
     7
  6
Continuous
290
     0
370
    -3
390
F
  0
LAYER
  5
CEB
330
2
100
AcDbSymbolTableRecord
100
AcDbLayerTableRecord
  2
CEN
 70
     0
 62
     1
  6
CENTER
370
    -3
390
F
  0
LAYER
  5
CEC
330
2
100
AcDbSymbolTableRecord
100
AcDbLayerTableRecord
  2
DIM
 70
     0
 62
     5
  6
Continuous
370
    -3
390
F
  0
LAYER
  5
CED
330
2
100
AcDbSymbolTableRecord
100
AcDbLayerTableRecord
  2
1
 70
     0
 62
     3
  6
DASHED
370
    -3
390
F
1001
AcAecLayerStandard
1000

1000

  0
LAYER
  5
13C2
330
2
100
AcDbSymbolTableRecord
100
AcDbLayerTableRecord
  2
AM_5
 70
     0
 62
     5
  6
Continuous
370
    50
390
F
  0
LAYER
  5
19C7
330
2
100
AcDbSymbolTableRecord
100
AcDbLayerTableRecord
  2
LOGO
 70
     0
 62
     7
  6
Continuous
370
    -3
390
F
  0
ENDTAB
  0
TABLE
  2
STYLE
  5
3
330
0
100
AcDbSymbolTable
 70
     7
  0
STYLE
  5
11
330
3
100
AcDbSymbolTableRecord
100
AcDbTextStyleTableRecord
  2
STANDARD
 70
     0
 40
0.0
 41
1.0
 50
0.0
 71
     0
 42
3.0
  3
ISOCP.SHX
  4
CHINESET.SHX
  0
STYLE
  5
6B
330
3
100
AcDbSymbolTableRecord
100
AcDbTextStyleTableRecord
  2

 70
     1
 40
0.0
 41
1.0
 50
0.0
 71
     0
 42
2.5
  3
ltypeshp.shx
  4

  0
STYLE
  5
6D
330
3
100
AcDbSymbolTableRecord
100
AcDbTextStyleTableRecord
  2
ACISOTS
 70
     0
 40
1.0
 41
1.0
 50
0.0
 71
     0
 42
1.0
  3
isocp.shx
  4
chineset.shx
  0
STYLE
  5
79
330
3
100
AcDbSymbolTableRecord
100
AcDbTextStyleTableRecord
  2
ACISOGDT
 70
     0
 40
0.0
 41
1.0
 50
0.0
 71
     0
 42
2.5
  3
amgdt.shx
  4
chineset.shx
  0
STYLE
  5
19C8
330
3
100
AcDbSymbolTableRecord
100
AcDbTextStyleTableRecord
  2
CHINESET
 70
     0
 40
0.0
 41
1.0
 50
0.0
 71
     0
 42
3.0
  3
simplex.shx
  4
CHINESET.SHX
  0
ENDTAB
  0
TABLE
  2
VIEW
  5
6
330
0
100
AcDbSymbolTable
 70
     0
  0
ENDTAB
  0
TABLE
  2
UCS
  5
7
330
0
100
AcDbSymbolTable
 70
     0
  0
ENDTAB
  0
TABLE
  2
APPID
  5
9
330
0
100
AcDbSymbolTable
 70
    24
  0
APPID
  5
12
330
9
100
AcDbSymbolTableRecord
100
AcDbRegAppTableRecord
  2
ACAD
 70
     0
  0
APPID
  5
46
330
9
100
AcDbSymbolTableRecord
100
AcDbRegAppTableRecord
  2
MCAD_NO_VIS
 70
     0
  0
APPID
  5
47
330
9
100
AcDbSymbolTableRecord
100
AcDbRegAppTableRecord
  2
ACAD_TEMP_GRAPHIC
 70
     0
  0
APPID
  5
58
330
9
100
AcDbSymbolTableRecord
100
AcDbRegAppTableRecord
  2
ACATTRIBSERVICES
 70
     0
  0
APPID
  5
EE
330
9
100
AcDbSymbolTableRecord
100
AcDbRegAppTableRecord
  2
AD_DRAW
 70
     0
  0
APPID
  5
10C
330
9
100
AcDbSymbolTableRecord
100
AcDbRegAppTableRecord
  2
DESIGNERASSEMBLIES
 70
     0
  0
APPID
  5
111
330
9
100
AcDbSymbolTableRecord
100
AcDbRegAppTableRecord
  2
ACADM_DIM_EDIT
 70
     0
  0
APPID
  5
112
330
9
100
AcDbSymbolTableRecord
100
AcDbRegAppTableRecord
  2
AMDT_DM_ADJ
 70
     0
  0
APPID
  5
22C
330
9
100
AcDbSymbolTableRecord
100
AcDbRegAppTableRecord
  2
ACAD_DSTYLE_DIMTEXT_FILL
 70
     0
  0
APPID
  5
452
330
9
100
AcDbSymbolTableRecord
100
AcDbRegAppTableRecord
  2
GENIUS_GENOENT_13
 70
     0
  0
APPID
  5
453
330
9
100
AcDbSymbolTableRecord
100
AcDbRegAppTableRecord
  2
GENIUS_GENOBJ-N-CRS_13
 70
     0
  0
APPID
  5
454
330
9
100
AcDbSymbolTableRecord
100
AcDbRegAppTableRecord
  2
GENIUS_GENOLIS_13
 70
     0
  0
APPID
  5
455
330
9
100
AcDbSymbolTableRecord
100
AcDbRegAppTableRecord
  2
GENIUS_GENODEF_13
 70
     0
  0
APPID
  5
456
330
9
100
AcDbSymbolTableRecord
100
AcDbRegAppTableRecord
  2
GENIUS_GENOREF_13
 70
     0
  0
APPID
  5
6F3
330
9
100
AcDbSymbolTableRecord
100
AcDbRegAppTableRecord
  2
ACAD_PSEXT
 70
     0
  0
APPID
  5
808
330
9
100
AcDbSymbolTableRecord
100
AcDbRegAppTableRecord
  2
GENIUS_GENDTOL_13
 70
     0
  0
APPID
  5
CF2
330
9
100
AcDbSymbolTableRecord
100
AcDbRegAppTableRecord
  2
ACAD_DSTYLE_DIMEXT_LENGTH
 70
     0
  0
APPID
  5
CF3
330
9
100
AcDbSymbolTableRecord
100
AcDbRegAppTableRecord
  2
ACAD_DSTYLE_DIMEXT_ENABLED
 70
     0
  0
APPID
  5
CF4
330
9
100
AcDbSymbolTableRecord
100
AcDbRegAppTableRecord
  2
ACAD_DSTYLE_DIM_EXT1_LINETYPE
 70
     0
  0
APPID
  5
CF5
330
9
100
AcDbSymbolTableRecord
100
AcDbRegAppTableRecord
  2
ACAD_DSTYLE_DIMJOGGED_JOGANGLE_SYMBOL
 70
     0
  0
APPID
  5
CF6
330
9
100
AcDbSymbolTableRecord
100
AcDbRegAppTableRecord
  2
ACAD_DSTYLE_DIMARC_LENGTH_SYMBOL
 70
     0
  0
APPID
  5
CF7
330
9
100
AcDbSymbolTableRecord
100
AcDbRegAppTableRecord
  2
AcAecLayerStandard
 70
     0
  0
APPID
  5
19C9
330
9
100
AcDbSymbolTableRecord
100
AcDbRegAppTableRecord
  2
GENIUS_GENREC_14
 70
     0
  0
APPID
  5
19CA
330
9
100
AcDbSymbolTableRecord
100
AcDbRegAppTableRecord
  2
GENIUS_GENOBJ-N-REC_13
 70
     0
  0
ENDTAB
  0
TABLE
  2
DIMSTYLE
  5
A
330
0
100
AcDbSymbolTable
 70
    11
100
AcDbDimStyleTable
 71
     3
340
81
340
8B
340
86
  0
DIMSTYLE
105
81
330
A
100
AcDbSymbolTableRecord
100
AcDbDimStyleTableRecord
  2
AM_ISO
 70
     0
  4
"
 41
3.0
 42
1.5
 43
8.0
 44
1.5
 47
0.1
 48
0.1
 73
     0
 74
     0
 77
     1
 78
     8
 79
     2
140
3.5
141
0.0
143
0.0393701
146
0.6
147
1.0
172
     1
176
   256
177
   256
178
   256
271
     2
272
     2
283
     0
284
     8
340
11
371
    -1
372
    -1
  0
DIMSTYLE
105
82
330
A
100
AcDbSymbolTableRecord
100
AcDbDimStyleTableRecord
  2
AM_ISO$3
 70
     0
  4
"
 41
3.0
 42
1.5
 43
8.0
 44
1.5
 47
0.1
 48
0.1
 73
     0
 77
     1
 78
     8
 79
     2
140
3.5
141
0.0
143
0.0393701
146
0.6
147
1.0
176
   256
177
   256
178
   256
271
     2
272
     2
283
     0
284
     8
288
     1
289
     0
340
11
371
    -1
372
    -1
  0
DIMSTYLE
105
83
330
A
100
AcDbSymbolTableRecord
100
AcDbDimStyleTableRecord
  2
AM_ISO$4
 70
     0
  4
"
 41
3.0
 42
1.5
 43
8.0
 44
1.5
 47
0.1
 48
0.1
 73
     0
 77
     1
 78
     8
 79
     2
140
3.5
141
0.0
143
0.0393701
146
0.6
147
1.0
176
   256
177
   256
178
   256
271
     2
272
     2
283
     0
284
     8
288
     1
289
     0
340
11
371
    -1
372
    -1
  0
DIMSTYLE
105
84
330
A
100
AcDbSymbolTableRecord
100
AcDbDimStyleTableRecord
  2
AM_ISO$6
 70
     0
  4
"
 41
3.0
 42
1.5
 43
8.0
 44
1.5
 47
0.1
 48
0.1
 73
     0
 74
     0
 78
     8
 79
     2
140
3.5
141
0.0
143
0.0393701
146
0.6
147
1.0
172
     1
176
   256
177
   256
178
   256
271
     2
272
     2
283
     0
284
     8
340
11
371
    -1
372
    -1
  0
DIMSTYLE
105
85
330
A
100
AcDbSymbolTableRecord
100
AcDbDimStyleTableRecord
  2
AM_ISO$7
 70
     0
  4
"
 41
3.0
 42
1.5
 43
8.0
 44
1.5
 47
0.1
 48
0.1
 73
     0
 74
     0
 77
     1
 78
     8
 79
     2
140
5.0
141
0.0
143
0.0393701
146
0.6
147
1.0
172
     1
176
   256
177
   256
178
   256
271
     2
272
     2
283
     0
284
     8
340
11
371
    -1
372
    -1
  0
DIMSTYLE
105
86
330
A
100
AcDbSymbolTableRecord
100
AcDbDimStyleTableRecord
  2
AM_ISO$SF
 70
     0
  4
"
 41
2.5
 42
1.0
 43
10.0
 44
1.0
 47
0.1
 48
0.1
 73
     0
 74
     0
 75
     1
 76
     1
 77
     1
 78
     8
 79
     2
140
3.5
141
0.0
143
0.0393701
146
0.71
147
1.5
172
     1
176
   256
177
   256
178
     2
271
     2
272
     3
274
     4
283
     0
284
     8
340
11
371
    -1
372
    -1
  0
DIMSTYLE
105
8B
330
A
100
AcDbSymbolTableRecord
100
AcDbDimStyleTableRecord
  2
AM_ISO$SH
 70
     0
  4
"
 41
2.5
 42
1.0
 43
10.0
 44
1.0
 47
0.1
 48
0.1
 73
     0
 74
     0
 75
     1
 76
     1
 77
     1
 78
     8
 79
     2
140
3.5
141
0.0
143
0.0393701
144
2.0
146
0.71
147
1.5
172
     1
173
     1
176
   256
177
   256
178
     2
271
     2
272
     3
274
     4
283
     0
284
     8
340
11
343
87
371
    -1
372
    -1
  0
DIMSTYLE
105
40B
102
{ACAD_REACTORS
330
ECE
330
ED0
330
ECF
330
ED4
330
ED3
330
ED2
330
FC3
330
FC5
330
FC4
330
FCB
330
FCA
330
ED5
330
ED1
330
FC8
330
FC6
330
F54
330
F52
330
F51
330
F55
330
F53
330
F57
330
F56
330
F58
330
F92
330
F91
330
F90
330
F8F
330
F8E
330
F8D
330
F8C
330
F8B
330
F19
330
F17
330
F18
330
F1C
102
}
330
A
100
AcDbSymbolTableRecord
100
AcDbDimStyleTableRecord
  2
AM_ISO$0
 70
     0
  4
"
 41
3.0
 42
1.5
 43
8.0
 44
1.5
 47
0.1
 48
0.1
 73
     0
 74
     0
 77
     1
 78
     8
 79
     2
140
3.5
141
0.0
143
0.0393701
146
0.6
147
1.0
172
     1
176
   256
177
   256
178
   256
271
     2
272
     2
283
     0
284
     8
340
11
371
    -1
372
    -1
  0
DIMSTYLE
105
CF0
102
{ACAD_REACTORS
330
FC7
102
}
330
A
100
AcDbSymbolTableRecord
100
AcDbDimStyleTableRecord
  2
ISO-25
 70
     0
 41
3.5
 42
3.0
 43
1.199999999999999
 44
0.7
 73
     0
 74
     0
 77
     1
 78
     8
140
3.5
141
0.0
143
0.03937007874016
147
1.5
171
     3
172
     1
271
     1
272
     1
274
     3
283
     0
284
     8
340
11
371
     5
372
     9
1001
ACAD_DSTYLE_DIMEXT_LENGTH
1070
   378
1040
1.25
1001
ACAD_DSTYLE_DIMEXT_ENABLED
1070
   383
1070
     0
1001
ACAD_DSTYLE_DIMARC_LENGTH_SYMBOL
1070
   379
1070
     0
1001
ACAD_DSTYLE_DIMJOGGED_JOGANGLE_SYMBOL
1070
   384
1040
1.570796326794896
1001
ACAD_DSTYLE_DIM_EXT1_LINETYPE
1070
   381
1005
14
  0
ENDTAB
  0
TABLE
  2
BLOCK_RECORD
  5
1
330
0
100
AcDbSymbolTable
 70
    42
  0
BLOCK_RECORD
  5
1F
102
{ACAD_XDICTIONARY
360
8F
102
}
330
1
100
AcDbSymbolTableRecord
100
AcDbBlockTableRecord
  2
*Model_Space
340
22
  0
BLOCK_RECORD
  5
1B
330
1
100
AcDbSymbolTableRecord
100
AcDbBlockTableRecord
  2
*Paper_Space
340
1E
  0
BLOCK_RECORD
  5
23
330
1
100
AcDbSymbolTableRecord
100
AcDbBlockTableRecord
  2
*Paper_Space0
340
26
  0
BLOCK_RECORD
  5
87
330
1
100
AcDbSymbolTableRecord
100
AcDbBlockTableRecord
  2
GENAXEH
340
0
  0
BLOCK_RECORD
  5
FCC
330
1
100
AcDbSymbolTableRecord
100
AcDbBlockTableRecord
  2
*D3
340
0
  0
BLOCK_RECORD
  5
FD8
330
1
100
AcDbSymbolTableRecord
100
AcDbBlockTableRecord
  2
*D4
340
0
  0
BLOCK_RECORD
  5
FE4
330
1
100
AcDbSymbolTableRecord
100
AcDbBlockTableRecord
  2
*D5
340
0
  0
BLOCK_RECORD
  5
FF0
330
1
100
AcDbSymbolTableRecord
100
AcDbBlockTableRecord
  2
*D6
340
0
  0
BLOCK_RECORD
  5
FFC
330
1
100
AcDbSymbolTableRecord
100
AcDbBlockTableRecord
  2
*D7
340
0
  0
BLOCK_RECORD
  5
1008
330
1
100
AcDbSymbolTableRecord
100
AcDbBlockTableRecord
  2
*D8
340
0
  0
BLOCK_RECORD
  5
1014
330
1
100
AcDbSymbolTableRecord
100
AcDbBlockTableRecord
  2
*D9
340
0
  0
BLOCK_RECORD
  5
1020
330
1
100
AcDbSymbolTableRecord
100
AcDbBlockTableRecord
  2
*D10
340
0
  0
BLOCK_RECORD
  5
102C
330
1
100
AcDbSymbolTableRecord
100
AcDbBlockTableRecord
  2
*D11
340
0
  0
BLOCK_RECORD
  5
1038
330
1
100
AcDbSymbolTableRecord
100
AcDbBlockTableRecord
  2
*D12
340
0
  0
BLOCK_RECORD
  5
1046
330
1
100
AcDbSymbolTableRecord
100
AcDbBlockTableRecord
  2
*D13
340
0
  0
BLOCK_RECORD
  5
1052
330
1
100
AcDbSymbolTableRecord
100
AcDbBlockTableRecord
  2
*D14
340
0
  0
BLOCK_RECORD
  5
105E
330
1
100
AcDbSymbolTableRecord
100
AcDbBlockTableRecord
  2
*D15
340
0
  0
BLOCK_RECORD
  5
106A
330
1
100
AcDbSymbolTableRecord
100
AcDbBlockTableRecord
  2
*D16
340
0
  0
BLOCK_RECORD
  5
1076
330
1
100
AcDbSymbolTableRecord
100
AcDbBlockTableRecord
  2
*D17
340
0
  0
BLOCK_RECORD
  5
1082
330
1
100
AcDbSymbolTableRecord
100
AcDbBlockTableRecord
  2
*D18
340
0
  0
BLOCK_RECORD
  5
108E
330
1
100
AcDbSymbolTableRecord
100
AcDbBlockTableRecord
  2
*D19
340
0
  0
BLOCK_RECORD
  5
109A
330
1
100
AcDbSymbolTableRecord
100
AcDbBlockTableRecord
  2
*D20
340
0
  0
BLOCK_RECORD
  5
10A6
330
1
100
AcDbSymbolTableRecord
100
AcDbBlockTableRecord
  2
*D21
340
0
  0
BLOCK_RECORD
  5
10B4
330
1
100
AcDbSymbolTableRecord
100
AcDbBlockTableRecord
  2
*D22
340
0
  0
BLOCK_RECORD
  5
10C0
330
1
100
AcDbSymbolTableRecord
100
AcDbBlockTableRecord
  2
*D23
340
0
  0
BLOCK_RECORD
  5
10CC
330
1
100
AcDbSymbolTableRecord
100
AcDbBlockTableRecord
  2
*D24
340
0
  0
BLOCK_RECORD
  5
10D8
330
1
100
AcDbSymbolTableRecord
100
AcDbBlockTableRecord
  2
*D25
340
0
  0
BLOCK_RECORD
  5
10E4
330
1
100
AcDbSymbolTableRecord
100
AcDbBlockTableRecord
  2
*D26
340
0
  0
BLOCK_RECORD
  5
10F0
330
1
100
AcDbSymbolTableRecord
100
AcDbBlockTableRecord
  2
*D27
340
0
  0
BLOCK_RECORD
  5
10FC
330
1
100
AcDbSymbolTableRecord
100
AcDbBlockTableRecord
  2
*D28
340
0
  0
BLOCK_RECORD
  5
1108
330
1
100
AcDbSymbolTableRecord
100
AcDbBlockTableRecord
  2
*D29
340
0
  0
BLOCK_RECORD
  5
1116
330
1
100
AcDbSymbolTableRecord
100
AcDbBlockTableRecord
  2
*D30
340
0
  0
BLOCK_RECORD
  5
1178
330
1
100
AcDbSymbolTableRecord
100
AcDbBlockTableRecord
  2
*D31
340
0
  0
BLOCK_RECORD
  5
1184
330
1
100
AcDbSymbolTableRecord
100
AcDbBlockTableRecord
  2
*D32
340
0
  0
BLOCK_RECORD
  5
1190
330
1
100
AcDbSymbolTableRecord
100
AcDbBlockTableRecord
  2
*D33
340
0
  0
BLOCK_RECORD
  5
119C
330
1
100
AcDbSymbolTableRecord
100
AcDbBlockTableRecord
  2
*D34
340
0
  0
BLOCK_RECORD
  5
11A8
330
1
100
AcDbSymbolTableRecord
100
AcDbBlockTableRecord
  2
*D35
340
0
  0
BLOCK_RECORD
  5
11B6
330
1
100
AcDbSymbolTableRecord
100
AcDbBlockTableRecord
  2
*D36
340
0
  0
BLOCK_RECORD
  5
11C2
330
1
100
AcDbSymbolTableRecord
100
AcDbBlockTableRecord
  2
*D37
340
0
  0
BLOCK_RECORD
  5
11CE
330
1
100
AcDbSymbolTableRecord
100
AcDbBlockTableRecord
  2
*D38
340
0
  0
BLOCK_RECORD
  5
1CC7
330
1
100
AcDbSymbolTableRecord
100
AcDbBlockTableRecord
  2
*S41
340
0
  0
ENDTAB
  0
ENDSEC
  0
SECTION
  2
BLOCKS
  0
BLOCK
  5
20
330
1F
100
AcDbEntity
  8
0
100
AcDbBlockBegin
  2
*Model_Space
 70
     0
 10
0.0
 20
0.0
 30
0.0
  3
*Model_Space
  1

  0
ENDBLK
  5
21
330
1F
100
AcDbEntity
  8
0
100
AcDbBlockEnd
  0
BLOCK
  5
1C
330
1B
100
AcDbEntity
 67
     1
  8
0
100
AcDbBlockBegin
  2
*Paper_Space
 70
     0
 10
0.0
 20
0.0
 30
0.0
  3
*Paper_Space
  1

  0
ENDBLK
  5
1D
330
1B
100
AcDbEntity
 67
     1
  8
0
100
AcDbBlockEnd
  0
BLOCK
  5
24
330
23
100
AcDbEntity
  8
0
100
AcDbBlockBegin
  2
*Paper_Space0
 70
     0
 10
0.0
 20
0.0
 30
0.0
  3
*Paper_Space0
  1

  0
ENDBLK
  5
25
330
23
100
AcDbEntity
  8
0
100
AcDbBlockEnd
  0
BLOCK
  5
89
330
87
100
AcDbEntity
  8
0
100
AcDbBlockBegin
  2
GENAXEH
 70
     0
 10
0.0
 20
0.0
 30
0.0
  3
GENAXEH
  1

  0
LINE
  5
88
330
87
100
AcDbEntity
  8
0
100
AcDbLine
 10
-1.0
 20
0.0
 30
0.0
 11
1.0
 21
0.0
 31
0.0
  0
ENDBLK
  5
8A
330
87
100
AcDbEntity
  8
0
100
AcDbBlockEnd
  0
BLOCK
  5
FD6
330
FCC
100
AcDbEntity
  8
0
100
AcDbBlockBegin
  2
*D3
 70
     1
 10
0.0
 20
0.0
 30
0.0
  3
*D3
  1

  0
LINE
  5
1C4E
330
FCC
100
AcDbEntity
  8
AM_5
100
AcDbLine
 10
-962.4812307724406
 20
1453.44415962946
 30
0.0
 11
-993.381230772441
 21
1453.44415962946
 31
0.0
  0
LINE
  5
1C4F
330
FCC
100
AcDbEntity
  8
AM_5
100
AcDbLine
 10
-979.381230772441
 20
1419.64415962946
 30
0.0
 11
-993.381230772441
 21
1419.64415962946
 31
0.0
  0
LINE
  5
1C50
330
FCC
100
AcDbEntity
  8
AM_5
100
AcDbLine
 10
-991.881230772441
 20
1450.44415962946
 30
0.0
 11
-991.881230772441
 21
1422.64415962946
 31
0.0
  0
SOLID
  5
1C51
330
FCC
100
AcDbEntity
  8
AM_5
100
AcDbTrace
 10
-992.3812307724411
 20
1450.44415962946
 30
0.0
 11
-991.3812307724411
 21
1450.44415962946
 31
0.0
 12
-991.881230772441
 22
1453.44415962946
 32
0.0
 13
-991.881230772441
 23
1453.44415962946
 33
0.0
  0
SOLID
  5
1C52
330
FCC
100
AcDbEntity
  8
AM_5
100
AcDbTrace
 10
-992.3812307724411
 20
1422.64415962946
 30
0.0
 11
-991.3812307724411
 21
1422.64415962946
 31
0.0
 12
-991.881230772441
 22
1419.64415962946
 32
0.0
 13
-991.881230772441
 23
1419.64415962946
 33
0.0
  0
MTEXT
  5
1C53
330
FCC
100
AcDbEntity
  8
AM_5
100
AcDbMText
 10
-994.6312307724413
 20
1436.54415962946
 30
0.0
 40
3.5
 41
0.0
 71
     5
 72
     1
  1
33.8
 11
0.0000000000000001
 21
1.0
 31
0.0
 73
     1
 44
1.0
1001
ACAD
1000
MTEXTBEGIN
1070
    73
1070
     1
1070
    44
1040
1.0
1070
    74
1070
     0
1000
MTEXTEND
  0
POINT
  5
1C54
330
FCC
100
AcDbEntity
  8
DEFPOINTS
 62
     0
100
AcDbPoint
 10
-960.9812307724405
 20
1453.44415962946
 30
0.0
  0
POINT
  5
1C55
330
FCC
100
AcDbEntity
  8
DEFPOINTS
 62
     0
100
AcDbPoint
 10
-977.8812307724411
 20
1419.64415962946
 30
0.0
  0
POINT
  5
1C56
330
FCC
100
AcDbEntity
  8
DEFPOINTS
 62
     0
100
AcDbPoint
 10
-991.881230772441
 20
1419.64415962946
 30
0.0
  0
ENDBLK
  5
FD7
330
FCC
100
AcDbEntity
  8
0
100
AcDbBlockEnd
  0
BLOCK
  5
FE2
330
FD8
100
AcDbEntity
  8
0
100
AcDbBlockBegin
  2
*D4
 70
     1
 10
0.0
 20
0.0
 30
0.0
  3
*D4
  1

  0
LINE
  5
1C57
330
FD8
100
AcDbEntity
  8
AM_5
100
AcDbLine
 10
-972.4812307724405
 20
1450.74415962946
 30
0.0
 11
-972.4812307724405
 21
1466.94415962946
 31
0.0
  0
LINE
  5
1C58
330
FD8
100
AcDbEntity
  8
AM_5
100
AcDbLine
 10
-935.4812307724404
 20
1450.74415962946
 30
0.0
 11
-935.4812307724404
 21
1466.94415962946
 31
0.0
  0
LINE
  5
1C59
330
FD8
100
AcDbEntity
  8
AM_5
100
AcDbLine
 10
-969.4812307724404
 20
1465.44415962946
 30
0.0
 11
-938.4812307724406
 21
1465.44415962946
 31
0.0
  0
SOLID
  5
1C5A
330
FD8
100
AcDbEntity
  8
AM_5
100
AcDbTrace
 10
-969.4812307724404
 20
1465.94415962946
 30
0.0
 11
-969.4812307724404
 21
1464.94415962946
 31
0.0
 12
-972.4812307724405
 22
1465.44415962946
 32
0.0
 13
-972.4812307724405
 23
1465.44415962946
 33
0.0
  0
SOLID
  5
1C5B
330
FD8
100
AcDbEntity
  8
AM_5
100
AcDbTrace
 10
-938.4812307724406
 20
1465.94415962946
 30
0.0
 11
-938.4812307724406
 21
1464.94415962946
 31
0.0
 12
-935.4812307724404
 22
1465.44415962946
 32
0.0
 13
-935.4812307724404
 23
1465.44415962946
 33
0.0
  0
MTEXT
  5
1C5C
330
FD8
100
AcDbEntity
  8
AM_5
100
AcDbMText
 10
-953.9812307724405
 20
1468.19415962946
 30
0.0
 40
3.5
 41
0.0
 71
     5
 72
     1
  1
37
 73
     1
 44
1.0
1001
ACAD
1000
MTEXTBEGIN
1070
    73
1070
     1
1070
    44
1040
1.0
1070
    74
1070
     0
1000
MTEXTEND
  0
POINT
  5
1C5D
330
FD8
100
AcDbEntity
  8
DEFPOINTS
 62
     0
100
AcDbPoint
 10
-972.4812307724405
 20
1449.24415962946
 30
0.0
  0
POINT
  5
1C5E
330
FD8
100
AcDbEntity
  8
DEFPOINTS
 62
     0
100
AcDbPoint
 10
-935.4812307724404
 20
1449.24415962946
 30
0.0
  0
POINT
  5
1C5F
330
FD8
100
AcDbEntity
  8
DEFPOINTS
 62
     0
100
AcDbPoint
 10
-935.4812307724404
 20
1465.44415962946
 30
0.0
  0
ENDBLK
  5
FE3
330
FD8
100
AcDbEntity
  8
0
100
AcDbBlockEnd
  0
BLOCK
  5
FEE
330
FE4
100
AcDbEntity
  8
0
100
AcDbBlockBegin
  2
*D5
 70
     1
 10
0.0
 20
0.0
 30
0.0
  3
*D5
  1

  0
LINE
  5
1C60
330
FE4
100
AcDbEntity
  8
AM_5
100
AcDbLine
 10
-979.8812307724411
 20
1420.14415962946
 30
0.0
 11
-979.8812307724411
 21
1406.14415962946
 31
0.0
  0
LINE
  5
1C61
330
FE4
100
AcDbEntity
  8
AM_5
100
AcDbLine
 10
-928.0812307724408
 20
1420.14415962946
 30
0.0
 11
-928.0812307724408
 21
1406.14415962946
 31
0.0
  0
LINE
  5
1C62
330
FE4
100
AcDbEntity
  8
AM_5
100
AcDbLine
 10
-976.8812307724411
 20
1407.64415962946
 30
0.0
 11
-931.0812307724409
 21
1407.64415962946
 31
0.0
  0
SOLID
  5
1C63
330
FE4
100
AcDbEntity
  8
AM_5
100
AcDbTrace
 10
-976.8812307724411
 20
1408.14415962946
 30
0.0
 11
-976.8812307724411
 21
1407.14415962946
 31
0.0
 12
-979.8812307724411
 22
1407.64415962946
 32
0.0
 13
-979.8812307724411
 23
1407.64415962946
 33
0.0
  0
SOLID
  5
1C64
330
FE4
100
AcDbEntity
  8
AM_5
100
AcDbTrace
 10
-931.0812307724409
 20
1408.14415962946
 30
0.0
 11
-931.0812307724409
 21
1407.14415962946
 31
0.0
 12
-928.0812307724408
 22
1407.64415962946
 32
0.0
 13
-928.0812307724408
 23
1407.64415962946
 33
0.0
  0
MTEXT
  5
1C65
330
FE4
100
AcDbEntity
  8
AM_5
100
AcDbMText
 10
-953.981230772441
 20
1410.39415962946
 30
0.0
 40
3.5
 41
0.0
 71
     5
 72
     1
  1
51.8
 73
     1
 44
1.0
1001
ACAD
1000
MTEXTBEGIN
1070
    73
1070
     1
1070
    44
1040
1.0
1070
    74
1070
     0
1000
MTEXTEND
  0
POINT
  5
1C66
330
FE4
100
AcDbEntity
  8
DEFPOINTS
 62
     0
100
AcDbPoint
 10
-979.8812307724411
 20
1421.64415962946
 30
0.0
  0
POINT
  5
1C67
330
FE4
100
AcDbEntity
  8
DEFPOINTS
 62
     0
100
AcDbPoint
 10
-928.0812307724408
 20
1421.64415962946
 30
0.0
  0
POINT
  5
1C68
330
FE4
100
AcDbEntity
  8
DEFPOINTS
 62
     0
100
AcDbPoint
 10
-928.0812307724408
 20
1407.64415962946
 30
0.0
  0
ENDBLK
  5
FEF
330
FE4
100
AcDbEntity
  8
0
100
AcDbBlockEnd
  0
BLOCK
  5
FFA
330
FF0
100
AcDbEntity
  8
0
100
AcDbBlockBegin
  2
*D6
 70
     1
 10
0.0
 20
0.0
 30
0.0
  3
*D6
  1

  0
LINE
  5
1C69
330
FF0
100
AcDbEntity
  8
AM_5
100
AcDbLine
 10
-895.7093458254703
 20
1418.14415962946
 30
0.0
 11
-895.7093458254703
 21
1406.14415962946
 31
0.0
  0
LINE
  5
1C6A
330
FF0
100
AcDbEntity
  8
AM_5
100
AcDbLine
 10
-867.7093458254702
 20
1418.14415962946
 30
0.0
 11
-867.7093458254702
 21
1406.14415962946
 31
0.0
  0
LINE
  5
1C6B
330
FF0
100
AcDbEntity
  8
AM_5
100
AcDbLine
 10
-892.7093458254702
 20
1407.64415962946
 30
0.0
 11
-870.7093458254703
 21
1407.64415962946
 31
0.0
  0
SOLID
  5
1C6C
330
FF0
100
AcDbEntity
  8
AM_5
100
AcDbTrace
 10
-892.7093458254702
 20
1408.14415962946
 30
0.0
 11
-892.7093458254702
 21
1407.14415962946
 31
0.0
 12
-895.7093458254703
 22
1407.64415962946
 32
0.0
 13
-895.7093458254703
 23
1407.64415962946
 33
0.0
  0
SOLID
  5
1C6D
330
FF0
100
AcDbEntity
  8
AM_5
100
AcDbTrace
 10
-870.7093458254703
 20
1408.14415962946
 30
0.0
 11
-870.7093458254703
 21
1407.14415962946
 31
0.0
 12
-867.7093458254702
 22
1407.64415962946
 32
0.0
 13
-867.7093458254702
 23
1407.64415962946
 33
0.0
  0
MTEXT
  5
1C6E
330
FF0
100
AcDbEntity
  8
AM_5
100
AcDbMText
 10
-881.7093458254703
 20
1410.394504117649
 30
0.0
 40
3.5
 41
0.0
 71
     5
 72
     1
  1
28
 73
     1
 44
1.0
1001
ACAD
1000
MTEXTBEGIN
1070
    73
1070
     1
1070
    44
1040
1.0
1070
    74
1070
     0
1000
MTEXTEND
  0
POINT
  5
1C6F
330
FF0
100
AcDbEntity
  8
DEFPOINTS
 62
     0
100
AcDbPoint
 10
-895.7093458254703
 20
1419.64415962946
 30
0.0
  0
POINT
  5
1C70
330
FF0
100
AcDbEntity
  8
DEFPOINTS
 62
     0
100
AcDbPoint
 10
-867.7093458254702
 20
1419.64415962946
 30
0.0
  0
POINT
  5
1C71
330
FF0
100
AcDbEntity
  8
DEFPOINTS
 62
     0
100
AcDbPoint
 10
-867.7093458254702
 20
1407.64415962946
 30
0.0
  0
ENDBLK
  5
FFB
330
FF0
100
AcDbEntity
  8
0
100
AcDbBlockEnd
  0
BLOCK
  5
1006
330
FFC
100
AcDbEntity
  8
0
100
AcDbBlockBegin
  2
*D7
 70
     1
 10
0.0
 20
0.0
 30
0.0
  3
*D7
  1

  0
LINE
  5
1933
330
FFC
100
AcDbEntity
  8
AM_5
100
AcDbLine
 10
-1136.411433393429
 20
1249.226165283832
 30
0.0
 11
-1136.411433393429
 21
1237.226165231678
 31
0.0
  0
LINE
  5
1934
330
FFC
100
AcDbEntity
  8
AM_5
100
AcDbLine
 10
-1115.411433393429
 20
1249.226165283832
 30
0.0
 11
-1115.411433393429
 21
1237.226165231678
 31
0.0
  0
LINE
  5
1935
330
FFC
100
AcDbEntity
  8
AM_5
100
AcDbLine
 10
-1133.411433393429
 20
1238.726165231678
 30
0.0
 11
-1118.411433393429
 21
1238.726165231678
 31
0.0
  0
SOLID
  5
1936
330
FFC
100
AcDbEntity
  8
AM_5
100
AcDbTrace
 10
-1133.411433393429
 20
1239.226165231678
 30
0.0
 11
-1133.411433393429
 21
1238.226165231678
 31
0.0
 12
-1136.411433393429
 22
1238.726165231678
 32
0.0
 13
-1136.411433393429
 23
1238.726165231678
 33
0.0
  0
SOLID
  5
1937
330
FFC
100
AcDbEntity
  8
AM_5
100
AcDbTrace
 10
-1118.411433393429
 20
1239.226165231678
 30
0.0
 11
-1118.411433393429
 21
1238.226165231678
 31
0.0
 12
-1115.411433393429
 22
1238.726165231678
 32
0.0
 13
-1115.411433393429
 23
1238.726165231678
 33
0.0
  0
MTEXT
  5
1938
330
FFC
100
AcDbEntity
  8
AM_5
100
AcDbMText
 10
-1125.911433393429
 20
1241.476509719867
 30
0.0
 40
3.5
 41
0.0
 71
     5
 72
     1
  1
21
 73
     1
 44
1.0
1001
ACAD
1000
MTEXTBEGIN
1070
    73
1070
     1
1070
    44
1040
1.0
1070
    74
1070
     0
1000
MTEXTEND
  0
POINT
  5
1939
330
FFC
100
AcDbEntity
  8
DEFPOINTS
 62
     0
100
AcDbPoint
 10
-1136.411433393429
 20
1250.726165283832
 30
0.0
  0
POINT
  5
193A
330
FFC
100
AcDbEntity
  8
DEFPOINTS
 62
     0
100
AcDbPoint
 10
-1115.411433393429
 20
1250.726165283832
 30
0.0
  0
POINT
  5
193B
330
FFC
100
AcDbEntity
  8
DEFPOINTS
 62
     0
100
AcDbPoint
 10
-1115.411433393429
 20
1238.726165231678
 30
0.0
  0
ENDBLK
  5
1007
330
FFC
100
AcDbEntity
  8
0
100
AcDbBlockEnd
  0
BLOCK
  5
1012
330
1008
100
AcDbEntity
  8
0
100
AcDbBlockBegin
  2
*D8
 70
     1
 10
0.0
 20
0.0
 30
0.0
  3
*D8
  1

  0
LINE
  5
193C
330
1008
100
AcDbEntity
  8
AM_5
100
AcDbLine
 10
-1160.411433393429
 20
1249.226165283832
 30
0.0
 11
-1160.411433393429
 21
1237.226165231678
 31
0.0
  0
LINE
  5
193D
330
1008
100
AcDbEntity
  8
AM_5
100
AcDbLine
 10
-1136.411433393429
 20
1249.226165283832
 30
0.0
 11
-1136.411433393429
 21
1237.226165231678
 31
0.0
  0
LINE
  5
193E
330
1008
100
AcDbEntity
  8
AM_5
100
AcDbLine
 10
-1157.411433393429
 20
1238.726165231678
 30
0.0
 11
-1139.411433393429
 21
1238.726165231678
 31
0.0
  0
SOLID
  5
193F
330
1008
100
AcDbEntity
  8
AM_5
100
AcDbTrace
 10
-1157.411433393429
 20
1239.226165231678
 30
0.0
 11
-1157.411433393429
 21
1238.226165231678
 31
0.0
 12
-1160.411433393429
 22
1238.726165231678
 32
0.0
 13
-1160.411433393429
 23
1238.726165231678
 33
0.0
  0
SOLID
  5
1940
330
1008
100
AcDbEntity
  8
AM_5
100
AcDbTrace
 10
-1139.411433393429
 20
1239.226165231678
 30
0.0
 11
-1139.411433393429
 21
1238.226165231678
 31
0.0
 12
-1136.411433393429
 22
1238.726165231678
 32
0.0
 13
-1136.411433393429
 23
1238.726165231678
 33
0.0
  0
MTEXT
  5
1941
330
1008
100
AcDbEntity
  8
AM_5
100
AcDbMText
 10
-1148.411433393429
 20
1241.476509719867
 30
0.0
 40
3.5
 41
0.0
 71
     5
 72
     1
  1
24
 73
     1
 44
1.0
1001
ACAD
1000
MTEXTBEGIN
1070
    73
1070
     1
1070
    44
1040
1.0
1070
    74
1070
     0
1000
MTEXTEND
  0
POINT
  5
1942
330
1008
100
AcDbEntity
  8
DEFPOINTS
 62
     0
100
AcDbPoint
 10
-1160.411433393429
 20
1250.726165283832
 30
0.0
  0
POINT
  5
1943
330
1008
100
AcDbEntity
  8
DEFPOINTS
 62
     0
100
AcDbPoint
 10
-1136.411433393429
 20
1250.726165283832
 30
0.0
  0
POINT
  5
1944
330
1008
100
AcDbEntity
  8
DEFPOINTS
 62
     0
100
AcDbPoint
 10
-1136.411433393429
 20
1238.726165231678
 30
0.0
  0
ENDBLK
  5
1013
330
1008
100
AcDbEntity
  8
0
100
AcDbBlockEnd
  0
BLOCK
  5
101E
330
1014
100
AcDbEntity
  8
0
100
AcDbBlockBegin
  2
*D9
 70
     1
 10
0.0
 20
0.0
 30
0.0
  3
*D9
  1

  0
LINE
  5
1945
330
1014
100
AcDbEntity
  8
AM_5
100
AcDbLine
 10
-1385.411433393429
 20
1247.976165283832
 30
0.0
 11
-1385.411433393429
 21
1221.226165231678
 31
0.0
  0
LINE
  5
1946
330
1014
100
AcDbEntity
  8
AM_5
100
AcDbLine
 10
-1035.411433393429
 20
1261.226165283832
 30
0.0
 11
-1035.411433393429
 21
1221.226165231678
 31
0.0
  0
LINE
  5
1947
330
1014
100
AcDbEntity
  8
AM_5
100
AcDbLine
 10
-1382.411433393429
 20
1222.726165231678
 30
0.0
 11
-1038.411433393429
 21
1222.726165231678
 31
0.0
  0
SOLID
  5
1948
330
1014
100
AcDbEntity
  8
AM_5
100
AcDbTrace
 10
-1382.411433393429
 20
1223.226165231678
 30
0.0
 11
-1382.411433393429
 21
1222.226165231678
 31
0.0
 12
-1385.411433393429
 22
1222.726165231678
 32
0.0
 13
-1385.411433393429
 23
1222.726165231678
 33
0.0
  0
SOLID
  5
1949
330
1014
100
AcDbEntity
  8
AM_5
100
AcDbTrace
 10
-1038.411433393429
 20
1223.226165231678
 30
0.0
 11
-1038.411433393429
 21
1222.226165231678
 31
0.0
 12
-1035.411433393429
 22
1222.726165231678
 32
0.0
 13
-1035.411433393429
 23
1222.726165231678
 33
0.0
  0
MTEXT
  5
194A
330
1014
100
AcDbEntity
  8
AM_5
100
AcDbMText
 10
-1210.411433393429
 20
1225.476165231678
 30
0.0
 40
3.5
 41
0.0
 71
     5
 72
     1
  1
350
 73
     1
 44
1.0
1001
ACAD
1000
MTEXTBEGIN
1070
    73
1070
     1
1070
    44
1040
1.0
1070
    74
1070
     0
1000
MTEXTEND
  0
POINT
  5
194B
330
1014
100
AcDbEntity
  8
DEFPOINTS
 62
     0
100
AcDbPoint
 10
-1385.411433393429
 20
1249.476165283832
 30
0.0
  0
POINT
  5
194C
330
1014
100
AcDbEntity
  8
DEFPOINTS
 62
     0
100
AcDbPoint
 10
-1035.411433393429
 20
1262.726165283832
 30
0.0
  0
POINT
  5
194D
330
1014
100
AcDbEntity
  8
DEFPOINTS
 62
     0
100
AcDbPoint
 10
-1035.411433393429
 20
1222.726165231678
 30
0.0
  0
ENDBLK
  5
101F
330
1014
100
AcDbEntity
  8
0
100
AcDbBlockEnd
  0
BLOCK
  5
102A
330
1020
100
AcDbEntity
  8
0
100
AcDbBlockBegin
  2
*D10
 70
     1
 10
0.0
 20
0.0
 30
0.0
  3
*D10
  1

  0
LINE
  5
194E
330
1020
100
AcDbEntity
  8
AM_5
100
AcDbLine
 10
-1385.411433393429
 20
1247.976165283832
 30
0.0
 11
-1385.411433393429
 21
1229.226165231678
 31
0.0
  0
LINE
  5
194F
330
1020
100
AcDbEntity
  8
AM_5
100
AcDbLine
 10
-1115.411433393429
 20
1249.226165283832
 30
0.0
 11
-1115.411433393429
 21
1229.226165231678
 31
0.0
  0
LINE
  5
1950
330
1020
100
AcDbEntity
  8
AM_5
100
AcDbLine
 10
-1382.411433393429
 20
1230.726165231678
 30
0.0
 11
-1118.411433393429
 21
1230.726165231678
 31
0.0
  0
SOLID
  5
1951
330
1020
100
AcDbEntity
  8
AM_5
100
AcDbTrace
 10
-1382.411433393429
 20
1231.226165231678
 30
0.0
 11
-1382.411433393429
 21
1230.226165231678
 31
0.0
 12
-1385.411433393429
 22
1230.726165231678
 32
0.0
 13
-1385.411433393429
 23
1230.726165231678
 33
0.0
  0
SOLID
  5
1952
330
1020
100
AcDbEntity
  8
AM_5
100
AcDbTrace
 10
-1118.411433393429
 20
1231.226165231678
 30
0.0
 11
-1118.411433393429
 21
1230.226165231678
 31
0.0
 12
-1115.411433393429
 22
1230.726165231678
 32
0.0
 13
-1115.411433393429
 23
1230.726165231678
 33
0.0
  0
MTEXT
  5
1953
330
1020
100
AcDbEntity
  8
AM_5
100
AcDbMText
 10
-1250.411433393429
 20
1233.476509719867
 30
0.0
 40
3.5
 41
0.0
 71
     5
 72
     1
  1
270
 73
     1
 44
1.0
1001
ACAD
1000
MTEXTBEGIN
1070
    73
1070
     1
1070
    44
1040
1.0
1070
    74
1070
     0
1000
MTEXTEND
  0
POINT
  5
1954
330
1020
100
AcDbEntity
  8
DEFPOINTS
 62
     0
100
AcDbPoint
 10
-1385.411433393429
 20
1249.476165283832
 30
0.0
  0
POINT
  5
1955
330
1020
100
AcDbEntity
  8
DEFPOINTS
 62
     0
100
AcDbPoint
 10
-1115.411433393429
 20
1250.726165283832
 30
0.0
  0
POINT
  5
1956
330
1020
100
AcDbEntity
  8
DEFPOINTS
 62
     0
100
AcDbPoint
 10
-1115.411433393429
 20
1230.726165231678
 30
0.0
  0
ENDBLK
  5
102B
330
1020
100
AcDbEntity
  8
0
100
AcDbBlockEnd
  0
BLOCK
  5
1036
330
102C
100
AcDbEntity
  8
0
100
AcDbBlockBegin
  2
*D11
 70
     1
 10
0.0
 20
0.0
 30
0.0
  3
*D11
  1

  0
LINE
  5
1957
330
102C
100
AcDbEntity
  8
AM_5
100
AcDbLine
 10
-1115.411433393429
 20
1249.226165283832
 30
0.0
 11
-1115.411433393429
 21
1237.226165231678
 31
0.0
  0
LINE
  5
1958
330
102C
100
AcDbEntity
  8
AM_5
100
AcDbLine
 10
-1035.411433393429
 20
1261.226165283832
 30
0.0
 11
-1035.411433393429
 21
1237.226165231678
 31
0.0
  0
LINE
  5
1959
330
102C
100
AcDbEntity
  8
AM_5
100
AcDbLine
 10
-1112.411433393429
 20
1238.726165231678
 30
0.0
 11
-1038.411433393429
 21
1238.726165231678
 31
0.0
  0
SOLID
  5
195A
330
102C
100
AcDbEntity
  8
AM_5
100
AcDbTrace
 10
-1112.411433393429
 20
1239.226165231678
 30
0.0
 11
-1112.411433393429
 21
1238.226165231678
 31
0.0
 12
-1115.411433393429
 22
1238.726165231678
 32
0.0
 13
-1115.411433393429
 23
1238.726165231678
 33
0.0
  0
SOLID
  5
195B
330
102C
100
AcDbEntity
  8
AM_5
100
AcDbTrace
 10
-1038.411433393429
 20
1239.226165231678
 30
0.0
 11
-1038.411433393429
 21
1238.226165231678
 31
0.0
 12
-1035.411433393429
 22
1238.726165231678
 32
0.0
 13
-1035.411433393429
 23
1238.726165231678
 33
0.0
  0
MTEXT
  5
195C
330
102C
100
AcDbEntity
  8
AM_5
100
AcDbMText
 10
-1075.411433393429
 20
1241.476165231678
 30
0.0
 40
3.5
 41
0.0
 71
     5
 72
     1
  1
80
 73
     1
 44
1.0
1001
ACAD
1000
MTEXTBEGIN
1070
    73
1070
     1
1070
    44
1040
1.0
1070
    74
1070
     0
1000
MTEXTEND
  0
POINT
  5
195D
330
102C
100
AcDbEntity
  8
DEFPOINTS
 62
     0
100
AcDbPoint
 10
-1115.411433393429
 20
1250.726165283832
 30
0.0
  0
POINT
  5
195E
330
102C
100
AcDbEntity
  8
DEFPOINTS
 62
     0
100
AcDbPoint
 10
-1035.411433393429
 20
1262.726165283832
 30
0.0
  0
POINT
  5
195F
330
102C
100
AcDbEntity
  8
DEFPOINTS
 62
     0
100
AcDbPoint
 10
-1035.411433393429
 20
1238.726165231678
 30
0.0
  0
ENDBLK
  5
1037
330
102C
100
AcDbEntity
  8
0
100
AcDbBlockEnd
  0
BLOCK
  5
1044
330
1038
100
AcDbEntity
  8
0
100
AcDbBlockBegin
  2
*D12
 70
     1
 10
0.0
 20
0.0
 30
0.0
  3
*D12
  1

  0
LINE
  5
1960
330
1038
100
AcDbEntity
  8
AM_5
100
AcDbLine
 10
-1034.911433393429
 20
1266.726165283832
 30
0.0
 11
-1021.911433393429
 21
1266.726165283832
 31
0.0
  0
LINE
  5
1961
330
1038
100
AcDbEntity
  8
AM_5
100
AcDbLine
 10
-1034.911433393429
 20
1258.726165283832
 30
0.0
 11
-1021.911433393429
 21
1258.726165283832
 31
0.0
  0
LINE
  5
1962
330
1038
100
AcDbEntity
  8
AM_5
100
AcDbLine
 10
-1023.411433393428
 20
1263.726165283832
 30
0.0
 11
-1023.411433393428
 21
1261.726165283832
 31
0.0
  0
SOLID
  5
1963
330
1038
100
AcDbEntity
  8
AM_5
100
AcDbTrace
 10
-1023.911433393429
 20
1263.726165283832
 30
0.0
 11
-1022.911433393429
 21
1263.726165283832
 31
0.0
 12
-1023.411433393428
 22
1266.726165283832
 32
0.0
 13
-1023.411433393428
 23
1266.726165283832
 33
0.0
  0
SOLID
  5
1964
330
1038
100
AcDbEntity
  8
AM_5
100
AcDbTrace
 10
-1023.911433393429
 20
1261.726165283832
 30
0.0
 11
-1022.911433393429
 21
1261.726165283832
 31
0.0
 12
-1023.411433393428
 22
1258.726165283832
 32
0.0
 13
-1023.411433393428
 23
1258.726165283832
 33
0.0
  0
MTEXT
  5
1965
330
1038
100
AcDbEntity
  8
AM_5
100
AcDbMText
 10
-1026.161433393429
 20
1262.726165283832
 30
0.0
 40
3.5
 41
0.0
 71
     5
 72
     1
  1
%%c8
 11
0.0000000000000001
 21
1.0
 31
0.0
 73
     1
 44
1.0
1001
ACAD
1000
MTEXTBEGIN
1070
    73
1070
     1
1070
    44
1040
1.0
1070
    74
1070
     0
1000
MTEXTEND
  0
POINT
  5
1966
330
1038
100
AcDbEntity
  8
DEFPOINTS
 62
     0
100
AcDbPoint
 10
-1036.411433393429
 20
1266.726165283832
 30
0.0
  0
POINT
  5
1967
330
1038
100
AcDbEntity
  8
DEFPOINTS
 62
     0
100
AcDbPoint
 10
-1036.411433393429
 20
1258.726165283832
 30
0.0
  0
POINT
  5
1968
330
1038
100
AcDbEntity
  8
DEFPOINTS
 62
     0
100
AcDbPoint
 10
-1023.411433393428
 20
1258.726165283832
 30
0.0
  0
ENDBLK
  5
1045
330
1038
100
AcDbEntity
  8
0
100
AcDbBlockEnd
  0
BLOCK
  5
1050
330
1046
100
AcDbEntity
  8
0
100
AcDbBlockBegin
  2
*D13
 70
     1
 10
0.0
 20
0.0
 30
0.0
  3
*D13
  1

  0
LINE
  5
1969
330
1046
100
AcDbEntity
  8
AM_5
100
AcDbLine
 10
-1113.911433393429
 20
1274.726165283832
 30
0.0
 11
-1013.911433393429
 21
1274.726165283832
 31
0.0
  0
LINE
  5
196A
330
1046
100
AcDbEntity
  8
AM_5
100
AcDbLine
 10
-1113.911433393429
 20
1250.726165283832
 30
0.0
 11
-1013.911433393429
 21
1250.726165283832
 31
0.0
  0
LINE
  5
196B
330
1046
100
AcDbEntity
  8
AM_5
100
AcDbLine
 10
-1015.411433393428
 20
1271.726165283832
 30
0.0
 11
-1015.411433393428
 21
1253.726165283832
 31
0.0
  0
SOLID
  5
196C
330
1046
100
AcDbEntity
  8
AM_5
100
AcDbTrace
 10
-1015.911433393429
 20
1271.726165283832
 30
0.0
 11
-1014.911433393429
 21
1271.726165283832
 31
0.0
 12
-1015.411433393428
 22
1274.726165283832
 32
0.0
 13
-1015.411433393428
 23
1274.726165283832
 33
0.0
  0
SOLID
  5
196D
330
1046
100
AcDbEntity
  8
AM_5
100
AcDbTrace
 10
-1015.911433393429
 20
1253.726165283832
 30
0.0
 11
-1014.911433393429
 21
1253.726165283832
 31
0.0
 12
-1015.411433393428
 22
1250.726165283832
 32
0.0
 13
-1015.411433393428
 23
1250.726165283832
 33
0.0
  0
MTEXT
  5
196E
330
1046
100
AcDbEntity
  8
AM_5
100
AcDbMText
 10
-1018.161777881618
 20
1262.726165283833
 30
0.0
 40
3.5
 41
0.0
 71
     5
 72
     1
  1
%%c24
 11
0.0000000000000001
 21
1.0
 31
0.0
 73
     1
 44
1.0
1001
ACAD
1000
MTEXTBEGIN
1070
    73
1070
     1
1070
    44
1040
1.0
1070
    74
1070
     0
1000
MTEXTEND
  0
POINT
  5
196F
330
1046
100
AcDbEntity
  8
DEFPOINTS
 62
     0
100
AcDbPoint
 10
-1115.411433393429
 20
1274.726165283832
 30
0.0
  0
POINT
  5
1970
330
1046
100
AcDbEntity
  8
DEFPOINTS
 62
     0
100
AcDbPoint
 10
-1115.411433393429
 20
1250.726165283832
 30
0.0
  0
POINT
  5
1971
330
1046
100
AcDbEntity
  8
DEFPOINTS
 62
     0
100
AcDbPoint
 10
-1015.411433393428
 20
1250.726165283832
 30
0.0
  0
ENDBLK
  5
1051
330
1046
100
AcDbEntity
  8
0
100
AcDbBlockEnd
  0
BLOCK
  5
105C
330
1052
100
AcDbEntity
  8
0
100
AcDbBlockBegin
  2
*D14
 70
     1
 10
0.0
 20
0.0
 30
0.0
  3
*D14
  1

  0
LINE
  5
1972
330
1052
100
AcDbEntity
  8
AM_5
100
AcDbLine
 10
-1386.511433393428
 20
1276.376165283832
 30
0.0
 11
-1398.911433393429
 21
1276.376165283832
 31
0.0
  0
LINE
  5
1973
330
1052
100
AcDbEntity
  8
AM_5
100
AcDbLine
 10
-1386.511433393428
 20
1249.076165283832
 30
0.0
 11
-1398.911433393429
 21
1249.076165283832
 31
0.0
  0
LINE
  5
1974
330
1052
100
AcDbEntity
  8
AM_5
100
AcDbLine
 10
-1397.411433393429
 20
1273.376165283832
 30
0.0
 11
-1397.411433393429
 21
1252.076165283832
 31
0.0
  0
SOLID
  5
1975
330
1052
100
AcDbEntity
  8
AM_5
100
AcDbTrace
 10
-1397.911433393429
 20
1273.376165283832
 30
0.0
 11
-1396.911433393429
 21
1273.376165283832
 31
0.0
 12
-1397.411433393429
 22
1276.376165283832
 32
0.0
 13
-1397.411433393429
 23
1276.376165283832
 33
0.0
  0
SOLID
  5
1976
330
1052
100
AcDbEntity
  8
AM_5
100
AcDbTrace
 10
-1397.911433393429
 20
1252.076165283832
 30
0.0
 11
-1396.911433393429
 21
1252.076165283832
 31
0.0
 12
-1397.411433393429
 22
1249.076165283832
 32
0.0
 13
-1397.411433393429
 23
1249.076165283832
 33
0.0
  0
MTEXT
  5
1977
330
1052
100
AcDbEntity
  8
AM_5
100
AcDbMText
 10
-1400.161777881618
 20
1262.726165283831
 30
0.0
 40
3.5
 41
0.0
 71
     5
 72
     1
  1
%%c27.3
 11
0.0000000000000001
 21
1.0
 31
0.0
 73
     1
 44
1.0
1001
ACAD
1000
MTEXTBEGIN
1070
    73
1070
     1
1070
    44
1040
1.0
1070
    74
1070
     0
1000
MTEXTEND
  0
POINT
  5
1978
330
1052
100
AcDbEntity
  8
DEFPOINTS
 62
     0
100
AcDbPoint
 10
-1385.011433393428
 20
1276.376165283832
 30
0.0
  0
POINT
  5
1979
330
1052
100
AcDbEntity
  8
DEFPOINTS
 62
     0
100
AcDbPoint
 10
-1385.011433393428
 20
1249.076165283832
 30
0.0
  0
POINT
  5
197A
330
1052
100
AcDbEntity
  8
DEFPOINTS
 62
     0
100
AcDbPoint
 10
-1397.411433393429
 20
1249.076165283832
 30
0.0
  0
ENDBLK
  5
105D
330
1052
100
AcDbEntity
  8
0
100
AcDbBlockEnd
  0
BLOCK
  5
1068
330
105E
100
AcDbEntity
  8
0
100
AcDbBlockBegin
  2
*D15
 70
     1
 10
0.0
 20
0.0
 30
0.0
  3
*D15
  1

  0
LINE
  5
1B6E
330
105E
100
AcDbEntity
  8
AM_5
100
AcDbLine
 10
-1388.543607821293
 20
1173.872692116392
 30
0.0
 11
-1400.943607821292
 21
1173.872692116392
 31
0.0
  0
LINE
  5
1B6F
330
105E
100
AcDbEntity
  8
AM_5
100
AcDbLine
 10
-1388.543607821293
 20
1146.572692116392
 30
0.0
 11
-1400.943607821292
 21
1146.572692116392
 31
0.0
  0
LINE
  5
1B70
330
105E
100
AcDbEntity
  8
AM_5
100
AcDbLine
 10
-1399.443607821292
 20
1170.872692116391
 30
0.0
 11
-1399.443607821292
 21
1149.572692116392
 31
0.0
  0
SOLID
  5
1B71
330
105E
100
AcDbEntity
  8
AM_5
100
AcDbTrace
 10
-1399.943607821292
 20
1170.872692116391
 30
0.0
 11
-1398.943607821292
 21
1170.872692116391
 31
0.0
 12
-1399.443607821292
 22
1173.872692116392
 32
0.0
 13
-1399.443607821292
 23
1173.872692116392
 33
0.0
  0
SOLID
  5
1B72
330
105E
100
AcDbEntity
  8
AM_5
100
AcDbTrace
 10
-1399.943607821292
 20
1149.572692116392
 30
0.0
 11
-1398.943607821292
 21
1149.572692116392
 31
0.0
 12
-1399.443607821292
 22
1146.572692116392
 32
0.0
 13
-1399.443607821292
 23
1146.572692116392
 33
0.0
  0
MTEXT
  5
1B73
330
105E
100
AcDbEntity
  8
AM_5
100
AcDbMText
 10
-1402.193952309482
 20
1160.222692116391
 30
0.0
 40
3.5
 41
0.0
 71
     5
 72
     1
  1
%%c27.3
 11
0.0000000000000001
 21
1.0
 31
0.0
 73
     1
 44
1.0
1001
ACAD
1000
MTEXTBEGIN
1070
    73
1070
     1
1070
    44
1040
1.0
1070
    74
1070
     0
1000
MTEXTEND
  0
POINT
  5
1B74
330
105E
100
AcDbEntity
  8
DEFPOINTS
 62
     0
100
AcDbPoint
 10
-1387.043607821293
 20
1173.872692116392
 30
0.0
  0
POINT
  5
1B75
330
105E
100
AcDbEntity
  8
DEFPOINTS
 62
     0
100
AcDbPoint
 10
-1387.043607821293
 20
1146.572692116392
 30
0.0
  0
POINT
  5
1B76
330
105E
100
AcDbEntity
  8
DEFPOINTS
 62
     0
100
AcDbPoint
 10
-1399.443607821292
 20
1146.572692116392
 30
0.0
  0
ENDBLK
  5
1069
330
105E
100
AcDbEntity
  8
0
100
AcDbBlockEnd
  0
BLOCK
  5
1074
330
106A
100
AcDbEntity
  8
0
100
AcDbBlockBegin
  2
*D16
 70
     1
 10
0.0
 20
0.0
 30
0.0
  3
*D16
  1

  0
LINE
  5
1B77
330
106A
100
AcDbEntity
  8
AM_5
100
AcDbLine
 10
-1112.443607821292
 20
1146.722692116392
 30
0.0
 11
-1112.443607821292
 21
1134.722692116392
 31
0.0
  0
LINE
  5
1B78
330
106A
100
AcDbEntity
  8
AM_5
100
AcDbLine
 10
-1091.443607821292
 20
1146.722692116392
 30
0.0
 11
-1091.443607821292
 21
1134.722692116392
 31
0.0
  0
LINE
  5
1B79
330
106A
100
AcDbEntity
  8
AM_5
100
AcDbLine
 10
-1109.443607821292
 20
1136.222692116392
 30
0.0
 11
-1094.443607821292
 21
1136.222692116392
 31
0.0
  0
SOLID
  5
1B7A
330
106A
100
AcDbEntity
  8
AM_5
100
AcDbTrace
 10
-1109.443607821292
 20
1136.722692116392
 30
0.0
 11
-1109.443607821292
 21
1135.722692116392
 31
0.0
 12
-1112.443607821292
 22
1136.222692116392
 32
0.0
 13
-1112.443607821292
 23
1136.222692116392
 33
0.0
  0
SOLID
  5
1B7B
330
106A
100
AcDbEntity
  8
AM_5
100
AcDbTrace
 10
-1094.443607821292
 20
1136.722692116392
 30
0.0
 11
-1094.443607821292
 21
1135.722692116392
 31
0.0
 12
-1091.443607821292
 22
1136.222692116392
 32
0.0
 13
-1091.443607821292
 23
1136.222692116392
 33
0.0
  0
MTEXT
  5
1B7C
330
106A
100
AcDbEntity
  8
AM_5
100
AcDbMText
 10
-1101.943607821292
 20
1138.973036604581
 30
0.0
 40
3.5
 41
0.0
 71
     5
 72
     1
  1
21
 73
     1
 44
1.0
1001
ACAD
1000
MTEXTBEGIN
1070
    73
1070
     1
1070
    44
1040
1.0
1070
    74
1070
     0
1000
MTEXTEND
  0
POINT
  5
1B7D
330
106A
100
AcDbEntity
  8
DEFPOINTS
 62
     0
100
AcDbPoint
 10
-1112.443607821292
 20
1148.222692116392
 30
0.0
  0
POINT
  5
1B7E
330
106A
100
AcDbEntity
  8
DEFPOINTS
 62
     0
100
AcDbPoint
 10
-1091.443607821292
 20
1148.222692116392
 30
0.0
  0
POINT
  5
1B7F
330
106A
100
AcDbEntity
  8
DEFPOINTS
 62
     0
100
AcDbPoint
 10
-1091.443607821292
 20
1136.222692116392
 30
0.0
  0
ENDBLK
  5
1075
330
106A
100
AcDbEntity
  8
0
100
AcDbBlockEnd
  0
BLOCK
  5
1080
330
1076
100
AcDbEntity
  8
0
100
AcDbBlockBegin
  2
*D17
 70
     1
 10
0.0
 20
0.0
 30
0.0
  3
*D17
  1

  0
LINE
  5
1B80
330
1076
100
AcDbEntity
  8
AM_5
100
AcDbLine
 10
-1136.443607821292
 20
1146.722692116392
 30
0.0
 11
-1136.443607821292
 21
1134.722692116392
 31
0.0
  0
LINE
  5
1B81
330
1076
100
AcDbEntity
  8
AM_5
100
AcDbLine
 10
-1112.443607821292
 20
1146.722692116392
 30
0.0
 11
-1112.443607821292
 21
1134.722692116392
 31
0.0
  0
LINE
  5
1B82
330
1076
100
AcDbEntity
  8
AM_5
100
AcDbLine
 10
-1133.443607821292
 20
1136.222692116392
 30
0.0
 11
-1115.443607821292
 21
1136.222692116392
 31
0.0
  0
SOLID
  5
1B83
330
1076
100
AcDbEntity
  8
AM_5
100
AcDbTrace
 10
-1133.443607821292
 20
1136.722692116392
 30
0.0
 11
-1133.443607821292
 21
1135.722692116392
 31
0.0
 12
-1136.443607821292
 22
1136.222692116392
 32
0.0
 13
-1136.443607821292
 23
1136.222692116392
 33
0.0
  0
SOLID
  5
1B84
330
1076
100
AcDbEntity
  8
AM_5
100
AcDbTrace
 10
-1115.443607821292
 20
1136.722692116392
 30
0.0
 11
-1115.443607821292
 21
1135.722692116392
 31
0.0
 12
-1112.443607821292
 22
1136.222692116392
 32
0.0
 13
-1112.443607821292
 23
1136.222692116392
 33
0.0
  0
MTEXT
  5
1B85
330
1076
100
AcDbEntity
  8
AM_5
100
AcDbMText
 10
-1124.443607821292
 20
1138.973036604581
 30
0.0
 40
3.5
 41
0.0
 71
     5
 72
     1
  1
24
 73
     1
 44
1.0
1001
ACAD
1000
MTEXTBEGIN
1070
    73
1070
     1
1070
    44
1040
1.0
1070
    74
1070
     0
1000
MTEXTEND
  0
POINT
  5
1B86
330
1076
100
AcDbEntity
  8
DEFPOINTS
 62
     0
100
AcDbPoint
 10
-1136.443607821292
 20
1148.222692116392
 30
0.0
  0
POINT
  5
1B87
330
1076
100
AcDbEntity
  8
DEFPOINTS
 62
     0
100
AcDbPoint
 10
-1112.443607821292
 20
1148.222692116392
 30
0.0
  0
POINT
  5
1B88
330
1076
100
AcDbEntity
  8
DEFPOINTS
 62
     0
100
AcDbPoint
 10
-1112.443607821292
 20
1136.222692116392
 30
0.0
  0
ENDBLK
  5
1081
330
1076
100
AcDbEntity
  8
0
100
AcDbBlockEnd
  0
BLOCK
  5
108C
330
1082
100
AcDbEntity
  8
0
100
AcDbBlockBegin
  2
*D18
 70
     1
 10
0.0
 20
0.0
 30
0.0
  3
*D18
  1

  0
LINE
  5
1B89
330
1082
100
AcDbEntity
  8
AM_5
100
AcDbLine
 10
-1091.443607821292
 20
1146.722692116392
 30
0.0
 11
-1091.443607821292
 21
1134.722692116392
 31
0.0
  0
LINE
  5
1B8A
330
1082
100
AcDbEntity
  8
AM_5
100
AcDbLine
 10
-991.4436078212926
 20
1158.722692116392
 30
0.0
 11
-991.4436078212926
 21
1134.722692116392
 31
0.0
  0
LINE
  5
1B8B
330
1082
100
AcDbEntity
  8
AM_5
100
AcDbLine
 10
-1088.443607821292
 20
1136.222692116392
 30
0.0
 11
-994.4436078212925
 21
1136.222692116392
 31
0.0
  0
SOLID
  5
1B8C
330
1082
100
AcDbEntity
  8
AM_5
100
AcDbTrace
 10
-1088.443607821292
 20
1136.722692116392
 30
0.0
 11
-1088.443607821292
 21
1135.722692116392
 31
0.0
 12
-1091.443607821292
 22
1136.222692116392
 32
0.0
 13
-1091.443607821292
 23
1136.222692116392
 33
0.0
  0
SOLID
  5
1B8D
330
1082
100
AcDbEntity
  8
AM_5
100
AcDbTrace
 10
-994.4436078212925
 20
1136.722692116392
 30
0.0
 11
-994.4436078212925
 21
1135.722692116392
 31
0.0
 12
-991.4436078212926
 22
1136.222692116392
 32
0.0
 13
-991.4436078212926
 23
1136.222692116392
 33
0.0
  0
MTEXT
  5
1B8E
330
1082
100
AcDbEntity
  8
AM_5
100
AcDbMText
 10
-1041.443607821292
 20
1138.972692116392
 30
0.0
 40
3.5
 41
0.0
 71
     5
 72
     1
  1
100
 73
     1
 44
1.0
1001
ACAD
1000
MTEXTBEGIN
1070
    73
1070
     1
1070
    44
1040
1.0
1070
    74
1070
     0
1000
MTEXTEND
  0
POINT
  5
1B8F
330
1082
100
AcDbEntity
  8
DEFPOINTS
 62
     0
100
AcDbPoint
 10
-1091.443607821292
 20
1148.222692116392
 30
0.0
  0
POINT
  5
1B90
330
1082
100
AcDbEntity
  8
DEFPOINTS
 62
     0
100
AcDbPoint
 10
-991.4436078212926
 20
1160.222692116392
 30
0.0
  0
POINT
  5
1B91
330
1082
100
AcDbEntity
  8
DEFPOINTS
 62
     0
100
AcDbPoint
 10
-991.4436078212926
 20
1136.222692116392
 30
0.0
  0
ENDBLK
  5
108D
330
1082
100
AcDbEntity
  8
0
100
AcDbBlockEnd
  0
BLOCK
  5
1098
330
108E
100
AcDbEntity
  8
0
100
AcDbBlockBegin
  2
*D19
 70
     1
 10
0.0
 20
0.0
 30
0.0
  3
*D19
  1

  0
LINE
  5
1B92
330
108E
100
AcDbEntity
  8
AM_5
100
AcDbLine
 10
-1387.443607821292
 20
1145.472692116392
 30
0.0
 11
-1387.443607821292
 21
1126.722692116392
 31
0.0
  0
LINE
  5
1B93
330
108E
100
AcDbEntity
  8
AM_5
100
AcDbLine
 10
-1091.443607821292
 20
1146.722692116392
 30
0.0
 11
-1091.443607821292
 21
1126.722692116392
 31
0.0
  0
LINE
  5
1B94
330
108E
100
AcDbEntity
  8
AM_5
100
AcDbLine
 10
-1384.443607821292
 20
1128.222692116392
 30
0.0
 11
-1094.443607821292
 21
1128.222692116392
 31
0.0
  0
SOLID
  5
1B95
330
108E
100
AcDbEntity
  8
AM_5
100
AcDbTrace
 10
-1384.443607821292
 20
1128.722692116392
 30
0.0
 11
-1384.443607821292
 21
1127.722692116392
 31
0.0
 12
-1387.443607821292
 22
1128.222692116392
 32
0.0
 13
-1387.443607821292
 23
1128.222692116392
 33
0.0
  0
SOLID
  5
1B96
330
108E
100
AcDbEntity
  8
AM_5
100
AcDbTrace
 10
-1094.443607821292
 20
1128.722692116392
 30
0.0
 11
-1094.443607821292
 21
1127.722692116392
 31
0.0
 12
-1091.443607821292
 22
1128.222692116392
 32
0.0
 13
-1091.443607821292
 23
1128.222692116392
 33
0.0
  0
MTEXT
  5
1B97
330
108E
100
AcDbEntity
  8
AM_5
100
AcDbMText
 10
-1239.443607821292
 20
1130.973036604581
 30
0.0
 40
3.5
 41
0.0
 71
     5
 72
     1
  1
296
 73
     1
 44
1.0
1001
ACAD
1000
MTEXTBEGIN
1070
    73
1070
     1
1070
    44
1040
1.0
1070
    74
1070
     0
1000
MTEXTEND
  0
POINT
  5
1B98
330
108E
100
AcDbEntity
  8
DEFPOINTS
 62
     0
100
AcDbPoint
 10
-1387.443607821292
 20
1146.972692116392
 30
0.0
  0
POINT
  5
1B99
330
108E
100
AcDbEntity
  8
DEFPOINTS
 62
     0
100
AcDbPoint
 10
-1091.443607821292
 20
1148.222692116392
 30
0.0
  0
POINT
  5
1B9A
330
108E
100
AcDbEntity
  8
DEFPOINTS
 62
     0
100
AcDbPoint
 10
-1091.443607821292
 20
1128.222692116392
 30
0.0
  0
ENDBLK
  5
1099
330
108E
100
AcDbEntity
  8
0
100
AcDbBlockEnd
  0
BLOCK
  5
10A4
330
109A
100
AcDbEntity
  8
0
100
AcDbBlockBegin
  2
*D20
 70
     1
 10
0.0
 20
0.0
 30
0.0
  3
*D20
  1

  0
LINE
  5
1B9B
330
109A
100
AcDbEntity
  8
AM_5
100
AcDbLine
 10
-1387.443607821292
 20
1145.472692116392
 30
0.0
 11
-1387.443607821292
 21
1118.722692116392
 31
0.0
  0
LINE
  5
1B9C
330
109A
100
AcDbEntity
  8
AM_5
100
AcDbLine
 10
-991.4436078212926
 20
1158.722692116392
 30
0.0
 11
-991.4436078212926
 21
1118.722692116392
 31
0.0
  0
LINE
  5
1B9D
330
109A
100
AcDbEntity
  8
AM_5
100
AcDbLine
 10
-1384.443607821292
 20
1120.222692116392
 30
0.0
 11
-994.4436078212925
 21
1120.222692116392
 31
0.0
  0
SOLID
  5
1B9E
330
109A
100
AcDbEntity
  8
AM_5
100
AcDbTrace
 10
-1384.443607821292
 20
1120.722692116392
 30
0.0
 11
-1384.443607821292
 21
1119.722692116392
 31
0.0
 12
-1387.443607821292
 22
1120.222692116392
 32
0.0
 13
-1387.443607821292
 23
1120.222692116392
 33
0.0
  0
SOLID
  5
1B9F
330
109A
100
AcDbEntity
  8
AM_5
100
AcDbTrace
 10
-994.4436078212925
 20
1120.722692116392
 30
0.0
 11
-994.4436078212925
 21
1119.722692116392
 31
0.0
 12
-991.4436078212926
 22
1120.222692116392
 32
0.0
 13
-991.4436078212926
 23
1120.222692116392
 33
0.0
  0
MTEXT
  5
1BA0
330
109A
100
AcDbEntity
  8
AM_5
100
AcDbMText
 10
-1189.443607821292
 20
1122.972692116392
 30
0.0
 40
3.5
 41
0.0
 71
     5
 72
     1
  1
396
 73
     1
 44
1.0
1001
ACAD
1000
MTEXTBEGIN
1070
    73
1070
     1
1070
    44
1040
1.0
1070
    74
1070
     0
1000
MTEXTEND
  0
POINT
  5
1BA1
330
109A
100
AcDbEntity
  8
DEFPOINTS
 62
     0
100
AcDbPoint
 10
-1387.443607821292
 20
1146.972692116392
 30
0.0
  0
POINT
  5
1BA2
330
109A
100
AcDbEntity
  8
DEFPOINTS
 62
     0
100
AcDbPoint
 10
-991.4436078212926
 20
1160.222692116392
 30
0.0
  0
POINT
  5
1BA3
330
109A
100
AcDbEntity
  8
DEFPOINTS
 62
     0
100
AcDbPoint
 10
-991.4436078212926
 20
1120.222692116392
 30
0.0
  0
ENDBLK
  5
10A5
330
109A
100
AcDbEntity
  8
0
100
AcDbBlockEnd
  0
BLOCK
  5
10B2
330
10A6
100
AcDbEntity
  8
0
100
AcDbBlockBegin
  2
*D21
 70
     1
 10
0.0
 20
0.0
 30
0.0
  3
*D21
  1

  0
LINE
  5
1BA4
330
10A6
100
AcDbEntity
  8
AM_5
100
AcDbLine
 10
-990.9436078212925
 20
1164.222692116391
 30
0.0
 11
-977.9436078212924
 21
1164.222692116391
 31
0.0
  0
LINE
  5
1BA5
330
10A6
100
AcDbEntity
  8
AM_5
100
AcDbLine
 10
-990.9436078212925
 20
1156.222692116392
 30
0.0
 11
-977.9436078212924
 21
1156.222692116392
 31
0.0
  0
LINE
  5
1BA6
330
10A6
100
AcDbEntity
  8
AM_5
100
AcDbLine
 10
-979.4436078212925
 20
1167.222692116391
 30
0.0
 11
-979.4436078212925
 21
1170.222692116391
 31
0.0
  0
LINE
  5
1BA7
330
10A6
100
AcDbEntity
  8
AM_5
100
AcDbLine
 10
-979.4436078212925
 20
1153.222692116392
 30
0.0
 11
-979.4436078212925
 21
1150.222692116392
 31
0.0
  0
LINE
  5
1BA8
330
10A6
100
AcDbEntity
  8
AM_5
100
AcDbLine
 10
-979.4436078212925
 20
1164.222692116391
 30
0.0
 11
-979.4436078212925
 21
1156.222692116392
 31
0.0
  0
SOLID
  5
1BA9
330
10A6
100
AcDbEntity
  8
AM_5
100
AcDbTrace
 10
-979.9436078212925
 20
1167.222692116391
 30
0.0
 11
-978.9436078212926
 21
1167.222692116391
 31
0.0
 12
-979.4436078212925
 22
1164.222692116391
 32
0.0
 13
-979.4436078212925
 23
1164.222692116391
 33
0.0
  0
SOLID
  5
1BAA
330
10A6
100
AcDbEntity
  8
AM_5
100
AcDbTrace
 10
-979.9436078212925
 20
1153.222692116392
 30
0.0
 11
-978.9436078212926
 21
1153.222692116392
 31
0.0
 12
-979.4436078212925
 22
1156.222692116392
 32
0.0
 13
-979.4436078212925
 23
1156.222692116392
 33
0.0
  0
MTEXT
  5
1BAB
330
10A6
100
AcDbEntity
  8
AM_5
100
AcDbMText
 10
-982.1936078212926
 20
1160.222692116391
 30
0.0
 40
3.5
 41
0.0
 71
     5
 72
     1
  1
%%c8
 11
0.0000000000000001
 21
1.0
 31
0.0
 73
     1
 44
1.0
1001
ACAD
1000
MTEXTBEGIN
1070
    73
1070
     1
1070
    44
1040
1.0
1070
    74
1070
     0
1000
MTEXTEND
  0
POINT
  5
1BAC
330
10A6
100
AcDbEntity
  8
DEFPOINTS
 62
     0
100
AcDbPoint
 10
-992.4436078212925
 20
1164.222692116391
 30
0.0
  0
POINT
  5
1BAD
330
10A6
100
AcDbEntity
  8
DEFPOINTS
 62
     0
100
AcDbPoint
 10
-992.4436078212925
 20
1156.222692116392
 30
0.0
  0
POINT
  5
1BAE
330
10A6
100
AcDbEntity
  8
DEFPOINTS
 62
     0
100
AcDbPoint
 10
-979.4436078212925
 20
1156.222692116392
 30
0.0
  0
ENDBLK
  5
10B3
330
10A6
100
AcDbEntity
  8
0
100
AcDbBlockEnd
  0
BLOCK
  5
10BE
330
10B4
100
AcDbEntity
  8
0
100
AcDbBlockBegin
  2
*D22
 70
     1
 10
0.0
 20
0.0
 30
0.0
  3
*D22
  1

  0
LINE
  5
1BAF
330
10B4
100
AcDbEntity
  8
AM_5
100
AcDbLine
 10
-1089.943607821292
 20
1172.222692116392
 30
0.0
 11
-969.9436078212924
 21
1172.222692116392
 31
0.0
  0
LINE
  5
1BB0
330
10B4
100
AcDbEntity
  8
AM_5
100
AcDbLine
 10
-1089.943607821292
 20
1148.222692116392
 30
0.0
 11
-969.9436078212924
 21
1148.222692116392
 31
0.0
  0
LINE
  5
1BB1
330
10B4
100
AcDbEntity
  8
AM_5
100
AcDbLine
 10
-971.4436078212925
 20
1169.222692116392
 30
0.0
 11
-971.4436078212925
 21
1151.222692116392
 31
0.0
  0
SOLID
  5
1BB2
330
10B4
100
AcDbEntity
  8
AM_5
100
AcDbTrace
 10
-971.9436078212925
 20
1169.222692116392
 30
0.0
 11
-970.9436078212926
 21
1169.222692116392
 31
0.0
 12
-971.4436078212925
 22
1172.222692116392
 32
0.0
 13
-971.4436078212925
 23
1172.222692116392
 33
0.0
  0
SOLID
  5
1BB3
330
10B4
100
AcDbEntity
  8
AM_5
100
AcDbTrace
 10
-971.9436078212925
 20
1151.222692116392
 30
0.0
 11
-970.9436078212926
 21
1151.222692116392
 31
0.0
 12
-971.4436078212925
 22
1148.222692116392
 32
0.0
 13
-971.4436078212925
 23
1148.222692116392
 33
0.0
  0
MTEXT
  5
1BB4
330
10B4
100
AcDbEntity
  8
AM_5
100
AcDbMText
 10
-974.1939523094815
 20
1160.222692116391
 30
0.0
 40
3.5
 41
0.0
 71
     5
 72
     1
  1
%%c24
 11
0.0000000000000001
 21
1.0
 31
0.0
 73
     1
 44
1.0
1001
ACAD
1000
MTEXTBEGIN
1070
    73
1070
     1
1070
    44
1040
1.0
1070
    74
1070
     0
1000
MTEXTEND
  0
POINT
  5
1BB5
330
10B4
100
AcDbEntity
  8
DEFPOINTS
 62
     0
100
AcDbPoint
 10
-1091.443607821292
 20
1172.222692116392
 30
0.0
  0
POINT
  5
1BB6
330
10B4
100
AcDbEntity
  8
DEFPOINTS
 62
     0
100
AcDbPoint
 10
-1091.443607821292
 20
1148.222692116392
 30
0.0
  0
POINT
  5
1BB7
330
10B4
100
AcDbEntity
  8
DEFPOINTS
 62
     0
100
AcDbPoint
 10
-971.4436078212925
 20
1148.222692116392
 30
0.0
  0
ENDBLK
  5
10BF
330
10B4
100
AcDbEntity
  8
0
100
AcDbBlockEnd
  0
BLOCK
  5
10CA
330
10C0
100
AcDbEntity
  8
0
100
AcDbBlockBegin
  2
*D23
 70
     1
 10
0.0
 20
0.0
 30
0.0
  3
*D23
  1

  0
LINE
  5
1BB8
330
10C0
100
AcDbEntity
  8
AM_5
100
AcDbLine
 10
-1388.063013080323
 20
1371.611479983261
 30
0.0
 11
-1400.463013080324
 21
1371.611479983261
 31
0.0
  0
LINE
  5
1BB9
330
10C0
100
AcDbEntity
  8
AM_5
100
AcDbLine
 10
-1388.063013080323
 20
1344.311479983261
 30
0.0
 11
-1400.463013080324
 21
1344.311479983261
 31
0.0
  0
LINE
  5
1BBA
330
10C0
100
AcDbEntity
  8
AM_5
100
AcDbLine
 10
-1398.963013080324
 20
1368.611479983261
 30
0.0
 11
-1398.963013080324
 21
1347.311479983261
 31
0.0
  0
SOLID
  5
1BBB
330
10C0
100
AcDbEntity
  8
AM_5
100
AcDbTrace
 10
-1399.463013080324
 20
1368.611479983261
 30
0.0
 11
-1398.463013080324
 21
1368.611479983261
 31
0.0
 12
-1398.963013080324
 22
1371.611479983261
 32
0.0
 13
-1398.963013080324
 23
1371.611479983261
 33
0.0
  0
SOLID
  5
1BBC
330
10C0
100
AcDbEntity
  8
AM_5
100
AcDbTrace
 10
-1399.463013080324
 20
1347.311479983261
 30
0.0
 11
-1398.463013080324
 21
1347.311479983261
 31
0.0
 12
-1398.963013080324
 22
1344.311479983261
 32
0.0
 13
-1398.963013080324
 23
1344.311479983261
 33
0.0
  0
MTEXT
  5
1BBD
330
10C0
100
AcDbEntity
  8
AM_5
100
AcDbMText
 10
-1401.713357568513
 20
1357.961479983261
 30
0.0
 40
3.5
 41
0.0
 71
     5
 72
     1
  1
%%c27.3
 11
0.0000000000000001
 21
1.0
 31
0.0
 73
     1
 44
1.0
1001
ACAD
1000
MTEXTBEGIN
1070
    73
1070
     1
1070
    44
1040
1.0
1070
    74
1070
     0
1000
MTEXTEND
  0
POINT
  5
1BBE
330
10C0
100
AcDbEntity
  8
DEFPOINTS
 62
     0
100
AcDbPoint
 10
-1386.563013080323
 20
1371.611479983261
 30
0.0
  0
POINT
  5
1BBF
330
10C0
100
AcDbEntity
  8
DEFPOINTS
 62
     0
100
AcDbPoint
 10
-1386.563013080323
 20
1344.311479983261
 30
0.0
  0
POINT
  5
1BC0
330
10C0
100
AcDbEntity
  8
DEFPOINTS
 62
     0
100
AcDbPoint
 10
-1398.963013080324
 20
1344.311479983261
 30
0.0
  0
ENDBLK
  5
10CB
330
10C0
100
AcDbEntity
  8
0
100
AcDbBlockEnd
  0
BLOCK
  5
10D6
330
10CC
100
AcDbEntity
  8
0
100
AcDbBlockBegin
  2
*D24
 70
     1
 10
0.0
 20
0.0
 30
0.0
  3
*D24
  1

  0
LINE
  5
1BC1
330
10CC
100
AcDbEntity
  8
AM_5
100
AcDbLine
 10
-1185.463013080324
 20
1344.461479983261
 30
0.0
 11
-1185.463013080324
 21
1332.461480214132
 31
0.0
  0
LINE
  5
1BC2
330
10CC
100
AcDbEntity
  8
AM_5
100
AcDbLine
 10
-1164.463013080324
 20
1344.461479983261
 30
0.0
 11
-1164.463013080324
 21
1332.461480214132
 31
0.0
  0
LINE
  5
1BC3
330
10CC
100
AcDbEntity
  8
AM_5
100
AcDbLine
 10
-1182.463013080324
 20
1333.961480214132
 30
0.0
 11
-1167.463013080324
 21
1333.961480214132
 31
0.0
  0
SOLID
  5
1BC4
330
10CC
100
AcDbEntity
  8
AM_5
100
AcDbTrace
 10
-1182.463013080324
 20
1334.461480214132
 30
0.0
 11
-1182.463013080324
 21
1333.461480214132
 31
0.0
 12
-1185.463013080324
 22
1333.961480214132
 32
0.0
 13
-1185.463013080324
 23
1333.961480214132
 33
0.0
  0
SOLID
  5
1BC5
330
10CC
100
AcDbEntity
  8
AM_5
100
AcDbTrace
 10
-1167.463013080324
 20
1334.461480214132
 30
0.0
 11
-1167.463013080324
 21
1333.461480214132
 31
0.0
 12
-1164.463013080324
 22
1333.961480214132
 32
0.0
 13
-1164.463013080324
 23
1333.961480214132
 33
0.0
  0
MTEXT
  5
1BC6
330
10CC
100
AcDbEntity
  8
AM_5
100
AcDbMText
 10
-1174.963013080324
 20
1336.711824702321
 30
0.0
 40
3.5
 41
0.0
 71
     5
 72
     1
  1
21
 73
     1
 44
1.0
1001
ACAD
1000
MTEXTBEGIN
1070
    73
1070
     1
1070
    44
1040
1.0
1070
    74
1070
     0
1000
MTEXTEND
  0
POINT
  5
1BC7
330
10CC
100
AcDbEntity
  8
DEFPOINTS
 62
     0
100
AcDbPoint
 10
-1185.463013080324
 20
1345.961479983261
 30
0.0
  0
POINT
  5
1BC8
330
10CC
100
AcDbEntity
  8
DEFPOINTS
 62
     0
100
AcDbPoint
 10
-1164.463013080324
 20
1345.961479983261
 30
0.0
  0
POINT
  5
1BC9
330
10CC
100
AcDbEntity
  8
DEFPOINTS
 62
     0
100
AcDbPoint
 10
-1164.463013080324
 20
1333.961480214132
 30
0.0
  0
ENDBLK
  5
10D7
330
10CC
100
AcDbEntity
  8
0
100
AcDbBlockEnd
  0
BLOCK
  5
10E2
330
10D8
100
AcDbEntity
  8
0
100
AcDbBlockBegin
  2
*D25
 70
     1
 10
0.0
 20
0.0
 30
0.0
  3
*D25
  1

  0
LINE
  5
1BCA
330
10D8
100
AcDbEntity
  8
AM_5
100
AcDbLine
 10
-1209.463013080324
 20
1344.461479983261
 30
0.0
 11
-1209.463013080324
 21
1332.461480214132
 31
0.0
  0
LINE
  5
1BCB
330
10D8
100
AcDbEntity
  8
AM_5
100
AcDbLine
 10
-1185.463013080324
 20
1344.461479983261
 30
0.0
 11
-1185.463013080324
 21
1332.461480214132
 31
0.0
  0
LINE
  5
1BCC
330
10D8
100
AcDbEntity
  8
AM_5
100
AcDbLine
 10
-1206.463013080324
 20
1333.961480214132
 30
0.0
 11
-1188.463013080324
 21
1333.961480214132
 31
0.0
  0
SOLID
  5
1BCD
330
10D8
100
AcDbEntity
  8
AM_5
100
AcDbTrace
 10
-1206.463013080324
 20
1334.461480214132
 30
0.0
 11
-1206.463013080324
 21
1333.461480214132
 31
0.0
 12
-1209.463013080324
 22
1333.961480214132
 32
0.0
 13
-1209.463013080324
 23
1333.961480214132
 33
0.0
  0
SOLID
  5
1BCE
330
10D8
100
AcDbEntity
  8
AM_5
100
AcDbTrace
 10
-1188.463013080324
 20
1334.461480214132
 30
0.0
 11
-1188.463013080324
 21
1333.461480214132
 31
0.0
 12
-1185.463013080324
 22
1333.961480214132
 32
0.0
 13
-1185.463013080324
 23
1333.961480214132
 33
0.0
  0
MTEXT
  5
1BCF
330
10D8
100
AcDbEntity
  8
AM_5
100
AcDbMText
 10
-1197.463013080324
 20
1336.711824702321
 30
0.0
 40
3.5
 41
0.0
 71
     5
 72
     1
  1
24
 73
     1
 44
1.0
1001
ACAD
1000
MTEXTBEGIN
1070
    73
1070
     1
1070
    44
1040
1.0
1070
    74
1070
     0
1000
MTEXTEND
  0
POINT
  5
1BD0
330
10D8
100
AcDbEntity
  8
DEFPOINTS
 62
     0
100
AcDbPoint
 10
-1209.463013080324
 20
1345.961479983261
 30
0.0
  0
POINT
  5
1BD1
330
10D8
100
AcDbEntity
  8
DEFPOINTS
 62
     0
100
AcDbPoint
 10
-1185.463013080324
 20
1345.961479983261
 30
0.0
  0
POINT
  5
1BD2
330
10D8
100
AcDbEntity
  8
DEFPOINTS
 62
     0
100
AcDbPoint
 10
-1185.463013080324
 20
1333.961480214132
 30
0.0
  0
ENDBLK
  5
10E3
330
10D8
100
AcDbEntity
  8
0
100
AcDbBlockEnd
  0
BLOCK
  5
10EE
330
10E4
100
AcDbEntity
  8
0
100
AcDbBlockBegin
  2
*D26
 70
     1
 10
0.0
 20
0.0
 30
0.0
  3
*D26
  1

  0
LINE
  5
1BD3
330
10E4
100
AcDbEntity
  8
AM_5
100
AcDbLine
 10
-1164.463013080324
 20
1344.461479983261
 30
0.0
 11
-1164.463013080324
 21
1324.461480214132
 31
0.0
  0
LINE
  5
1BD4
330
10E4
100
AcDbEntity
  8
AM_5
100
AcDbLine
 10
-1386.963013080324
 20
1343.211479983261
 30
0.0
 11
-1386.963013080324
 21
1324.461480214132
 31
0.0
  0
LINE
  5
1BD5
330
10E4
100
AcDbEntity
  8
AM_5
100
AcDbLine
 10
-1167.463013080324
 20
1325.961480214132
 30
0.0
 11
-1383.963013080324
 21
1325.961480214132
 31
0.0
  0
SOLID
  5
1BD6
330
10E4
100
AcDbEntity
  8
AM_5
100
AcDbTrace
 10
-1167.463013080324
 20
1326.461480214132
 30
0.0
 11
-1167.463013080324
 21
1325.461480214132
 31
0.0
 12
-1164.463013080324
 22
1325.961480214132
 32
0.0
 13
-1164.463013080324
 23
1325.961480214132
 33
0.0
  0
SOLID
  5
1BD7
330
10E4
100
AcDbEntity
  8
AM_5
100
AcDbTrace
 10
-1383.963013080324
 20
1326.461480214132
 30
0.0
 11
-1383.963013080324
 21
1325.461480214132
 31
0.0
 12
-1386.963013080324
 22
1325.961480214132
 32
0.0
 13
-1386.963013080324
 23
1325.961480214132
 33
0.0
  0
MTEXT
  5
1BD8
330
10E4
100
AcDbEntity
  8
AM_5
100
AcDbMText
 10
-1275.713013080324
 20
1328.711824702321
 30
0.0
 40
3.5
 41
0.0
 71
     5
 72
     1
  1
222.5
 73
     1
 44
1.0
1001
ACAD
1000
MTEXTBEGIN
1070
    73
1070
     1
1070
    44
1040
1.0
1070
    74
1070
     0
1000
MTEXTEND
  0
POINT
  5
1BD9
330
10E4
100
AcDbEntity
  8
DEFPOINTS
 62
     0
100
AcDbPoint
 10
-1164.463013080324
 20
1345.961479983261
 30
0.0
  0
POINT
  5
1BDA
330
10E4
100
AcDbEntity
  8
DEFPOINTS
 62
     0
100
AcDbPoint
 10
-1386.963013080324
 20
1344.711479983261
 30
0.0
  0
POINT
  5
1BDB
330
10E4
100
AcDbEntity
  8
DEFPOINTS
 62
     0
100
AcDbPoint
 10
-1386.963013080324
 20
1325.961480214132
 30
0.0
  0
ENDBLK
  5
10EF
330
10E4
100
AcDbEntity
  8
0
100
AcDbBlockEnd
  0
BLOCK
  5
10FA
330
10F0
100
AcDbEntity
  8
0
100
AcDbBlockBegin
  2
*D27
 70
     1
 10
0.0
 20
0.0
 30
0.0
  3
*D27
  1

  0
LINE
  5
1BDC
330
10F0
100
AcDbEntity
  8
DIM
 62
     0
370
     9
100
AcDbLine
 10
-1164.463013080324
 20
1342.961479983261
 30
0.0
 11
-1164.463013080324
 21
1333.261480214132
 31
0.0
  0
LINE
  5
1BDD
330
10F0
100
AcDbEntity
  8
DIM
 62
     0
370
     9
100
AcDbLine
 10
-1104.463013080324
 20
1354.961479983261
 30
0.0
 11
-1104.463013080324
 21
1333.261480214132
 31
0.0
  0
LINE
  5
1BDE
330
10F0
100
AcDbEntity
  8
DIM
 62
     0
370
     5
100
AcDbLine
 10
-1160.963013080324
 20
1333.961480214132
 30
0.0
 11
-1107.963013080324
 21
1333.961480214132
 31
0.0
  0
SOLID
  5
1BDF
330
10F0
100
AcDbEntity
  8
DIM
 62
     0
100
AcDbTrace
 10
-1160.963013080324
 20
1334.544813547465
 30
0.0
 11
-1160.963013080324
 21
1333.378146880799
 31
0.0
 12
-1164.463013080324
 22
1333.961480214132
 32
0.0
 13
-1164.463013080324
 23
1333.961480214132
 33
0.0
  0
SOLID
  5
1BE0
330
10F0
100
AcDbEntity
  8
DIM
 62
     0
100
AcDbTrace
 10
-1107.963013080324
 20
1334.544813547465
 30
0.0
 11
-1107.963013080324
 21
1333.378146880799
 31
0.0
 12
-1104.463013080324
 22
1333.961480214132
 32
0.0
 13
-1104.463013080324
 23
1333.961480214132
 33
0.0
  0
MTEXT
  5
1BE1
330
10F0
100
AcDbEntity
  8
DIM
 62
     0
100
AcDbMText
 10
-1134.463013080324
 20
1337.211480214132
 30
0.0
 40
3.5
 41
0.0
 71
     5
 72
     1
  1
60
 73
     1
 44
1.0
1001
ACAD
1000
MTEXTBEGIN
1070
    73
1070
     1
1070
    44
1040
1.0
1070
    74
1070
     0
1000
MTEXTEND
  0
POINT
  5
1BE2
330
10F0
100
AcDbEntity
  8
DEFPOINTS
 62
     0
100
AcDbPoint
 10
-1164.463013080324
 20
1345.961479983261
 30
0.0
  0
POINT
  5
1BE3
330
10F0
100
AcDbEntity
  8
DEFPOINTS
 62
     0
100
AcDbPoint
 10
-1104.463013080324
 20
1357.961479983261
 30
0.0
  0
POINT
  5
1BE4
330
10F0
100
AcDbEntity
  8
DEFPOINTS
 62
     0
100
AcDbPoint
 10
-1104.463013080324
 20
1333.961480214132
 30
0.0
  0
ENDBLK
  5
10FB
330
10F0
100
AcDbEntity
  8
0
100
AcDbBlockEnd
  0
BLOCK
  5
1106
330
10FC
100
AcDbEntity
  8
0
100
AcDbBlockBegin
  2
*D28
 70
     1
 10
0.0
 20
0.0
 30
0.0
  3
*D28
  1

  0
LINE
  5
1BE5
330
10FC
100
AcDbEntity
  8
AM_5
100
AcDbLine
 10
-1104.463013080324
 20
1356.461479983261
 30
0.0
 11
-1104.463013080324
 21
1316.461480214132
 31
0.0
  0
LINE
  5
1BE6
330
10FC
100
AcDbEntity
  8
AM_5
100
AcDbLine
 10
-1386.963013080324
 20
1343.211479983261
 30
0.0
 11
-1386.963013080324
 21
1316.461480214132
 31
0.0
  0
LINE
  5
1BE7
330
10FC
100
AcDbEntity
  8
AM_5
100
AcDbLine
 10
-1107.463013080324
 20
1317.961480214132
 30
0.0
 11
-1383.963013080324
 21
1317.961480214132
 31
0.0
  0
SOLID
  5
1BE8
330
10FC
100
AcDbEntity
  8
AM_5
100
AcDbTrace
 10
-1107.463013080324
 20
1318.461480214132
 30
0.0
 11
-1107.463013080324
 21
1317.461480214132
 31
0.0
 12
-1104.463013080324
 22
1317.961480214132
 32
0.0
 13
-1104.463013080324
 23
1317.961480214132
 33
0.0
  0
SOLID
  5
1BE9
330
10FC
100
AcDbEntity
  8
AM_5
100
AcDbTrace
 10
-1383.963013080324
 20
1318.461480214132
 30
0.0
 11
-1383.963013080324
 21
1317.461480214132
 31
0.0
 12
-1386.963013080324
 22
1317.961480214132
 32
0.0
 13
-1386.963013080324
 23
1317.961480214132
 33
0.0
  0
MTEXT
  5
1BEA
330
10FC
100
AcDbEntity
  8
AM_5
100
AcDbMText
 10
-1245.713013080324
 20
1320.711824702321
 30
0.0
 40
3.5
 41
0.0
 71
     5
 72
     1
  1
282.5
 73
     1
 44
1.0
1001
ACAD
1000
MTEXTBEGIN
1070
    73
1070
     1
1070
    44
1040
1.0
1070
    74
1070
     0
1000
MTEXTEND
  0
POINT
  5
1BEB
330
10FC
100
AcDbEntity
  8
DEFPOINTS
 62
     0
100
AcDbPoint
 10
-1104.463013080324
 20
1357.961479983261
 30
0.0
  0
POINT
  5
1BEC
330
10FC
100
AcDbEntity
  8
DEFPOINTS
 62
     0
100
AcDbPoint
 10
-1386.963013080324
 20
1344.711479983261
 30
0.0
  0
POINT
  5
1BED
330
10FC
100
AcDbEntity
  8
DEFPOINTS
 62
     0
100
AcDbPoint
 10
-1386.963013080324
 20
1317.961480214132
 30
0.0
  0
ENDBLK
  5
1107
330
10FC
100
AcDbEntity
  8
0
100
AcDbBlockEnd
  0
BLOCK
  5
1114
330
1108
100
AcDbEntity
  8
0
100
AcDbBlockBegin
  2
*D29
 70
     1
 10
0.0
 20
0.0
 30
0.0
  3
*D29
  1

  0
LINE
  5
1BEE
330
1108
100
AcDbEntity
  8
AM_5
100
AcDbLine
 10
-1103.963013080324
 20
1361.961479983261
 30
0.0
 11
-1090.963013080324
 21
1361.961479983261
 31
0.0
  0
LINE
  5
1BEF
330
1108
100
AcDbEntity
  8
AM_5
100
AcDbLine
 10
-1103.963013080324
 20
1353.961479983261
 30
0.0
 11
-1090.963013080324
 21
1353.961479983261
 31
0.0
  0
LINE
  5
1BF0
330
1108
100
AcDbEntity
  8
AM_5
100
AcDbLine
 10
-1092.463013080324
 20
1358.961479983261
 30
0.0
 11
-1092.463013080324
 21
1356.961479983261
 31
0.0
  0
SOLID
  5
1BF1
330
1108
100
AcDbEntity
  8
AM_5
100
AcDbTrace
 10
-1092.963013080324
 20
1358.961479983261
 30
0.0
 11
-1091.963013080324
 21
1358.961479983261
 31
0.0
 12
-1092.463013080324
 22
1361.961479983261
 32
0.0
 13
-1092.463013080324
 23
1361.961479983261
 33
0.0
  0
SOLID
  5
1BF2
330
1108
100
AcDbEntity
  8
AM_5
100
AcDbTrace
 10
-1092.963013080324
 20
1356.961479983261
 30
0.0
 11
-1091.963013080324
 21
1356.961479983261
 31
0.0
 12
-1092.463013080324
 22
1353.961479983261
 32
0.0
 13
-1092.463013080324
 23
1353.961479983261
 33
0.0
  0
MTEXT
  5
1BF3
330
1108
100
AcDbEntity
  8
AM_5
100
AcDbMText
 10
-1095.213013080324
 20
1357.961479983261
 30
0.0
 40
3.5
 41
0.0
 71
     5
 72
     1
  1
%%c8
 11
0.0000000000000001
 21
1.0
 31
0.0
 73
     1
 44
1.0
1001
ACAD
1000
MTEXTBEGIN
1070
    73
1070
     1
1070
    44
1040
1.0
1070
    74
1070
     0
1000
MTEXTEND
  0
POINT
  5
1BF4
330
1108
100
AcDbEntity
  8
DEFPOINTS
 62
     0
100
AcDbPoint
 10
-1105.463013080324
 20
1361.961479983261
 30
0.0
  0
POINT
  5
1BF5
330
1108
100
AcDbEntity
  8
DEFPOINTS
 62
     0
100
AcDbPoint
 10
-1105.463013080324
 20
1353.961479983261
 30
0.0
  0
POINT
  5
1BF6
330
1108
100
AcDbEntity
  8
DEFPOINTS
 62
     0
100
AcDbPoint
 10
-1092.463013080324
 20
1353.961479983261
 30
0.0
  0
ENDBLK
  5
1115
330
1108
100
AcDbEntity
  8
0
100
AcDbBlockEnd
  0
BLOCK
  5
1120
330
1116
100
AcDbEntity
  8
0
100
AcDbBlockBegin
  2
*D30
 70
     1
 10
0.0
 20
0.0
 30
0.0
  3
*D30
  1

  0
LINE
  5
1BF7
330
1116
100
AcDbEntity
  8
AM_5
100
AcDbLine
 10
-1162.963013080324
 20
1369.961479983261
 30
0.0
 11
-1082.963013080324
 21
1369.961479983261
 31
0.0
  0
LINE
  5
1BF8
330
1116
100
AcDbEntity
  8
AM_5
100
AcDbLine
 10
-1162.963013080324
 20
1345.961479983261
 30
0.0
 11
-1082.963013080324
 21
1345.961479983261
 31
0.0
  0
LINE
  5
1BF9
330
1116
100
AcDbEntity
  8
AM_5
100
AcDbLine
 10
-1084.463013080324
 20
1366.961479983261
 30
0.0
 11
-1084.463013080324
 21
1348.961479983261
 31
0.0
  0
SOLID
  5
1BFA
330
1116
100
AcDbEntity
  8
AM_5
100
AcDbTrace
 10
-1084.963013080324
 20
1366.961479983261
 30
0.0
 11
-1083.963013080324
 21
1366.961479983261
 31
0.0
 12
-1084.463013080324
 22
1369.961479983261
 32
0.0
 13
-1084.463013080324
 23
1369.961479983261
 33
0.0
  0
SOLID
  5
1BFB
330
1116
100
AcDbEntity
  8
AM_5
100
AcDbTrace
 10
-1084.963013080324
 20
1348.961479983261
 30
0.0
 11
-1083.963013080324
 21
1348.961479983261
 31
0.0
 12
-1084.463013080324
 22
1345.961479983261
 32
0.0
 13
-1084.463013080324
 23
1345.961479983261
 33
0.0
  0
MTEXT
  5
1BFC
330
1116
100
AcDbEntity
  8
AM_5
100
AcDbMText
 10
-1087.213357568513
 20
1357.961479983262
 30
0.0
 40
3.5
 41
0.0
 71
     5
 72
     1
  1
%%c24
 11
0.0000000000000001
 21
1.0
 31
0.0
 73
     1
 44
1.0
1001
ACAD
1000
MTEXTBEGIN
1070
    73
1070
     1
1070
    44
1040
1.0
1070
    74
1070
     0
1000
MTEXTEND
  0
POINT
  5
1BFD
330
1116
100
AcDbEntity
  8
DEFPOINTS
 62
     0
100
AcDbPoint
 10
-1164.463013080324
 20
1369.961479983261
 30
0.0
  0
POINT
  5
1BFE
330
1116
100
AcDbEntity
  8
DEFPOINTS
 62
     0
100
AcDbPoint
 10
-1164.463013080324
 20
1345.961479983261
 30
0.0
  0
POINT
  5
1BFF
330
1116
100
AcDbEntity
  8
DEFPOINTS
 62
     0
100
AcDbPoint
 10
-1084.463013080324
 20
1345.961479983261
 30
0.0
  0
ENDBLK
  5
1121
330
1116
100
AcDbEntity
  8
0
100
AcDbBlockEnd
  0
BLOCK
  5
1182
330
1178
100
AcDbEntity
  8
0
100
AcDbBlockBegin
  2
*D31
 70
     1
 10
0.0
 20
0.0
 30
0.0
  3
*D31
  1

  0
LINE
  5
1B26
330
1178
100
AcDbEntity
  8
AM_5
100
AcDbLine
 10
-1382.927107332313
 20
1458.416033583275
 30
0.0
 11
-1395.327107332313
 21
1458.416033583275
 31
0.0
  0
LINE
  5
1B27
330
1178
100
AcDbEntity
  8
AM_5
100
AcDbLine
 10
-1382.927107332313
 20
1431.116033583275
 30
0.0
 11
-1395.327107332313
 21
1431.116033583275
 31
0.0
  0
LINE
  5
1B28
330
1178
100
AcDbEntity
  8
AM_5
100
AcDbLine
 10
-1393.827107332312
 20
1455.416033583275
 30
0.0
 11
-1393.827107332312
 21
1434.116033583275
 31
0.0
  0
SOLID
  5
1B29
330
1178
100
AcDbEntity
  8
AM_5
100
AcDbTrace
 10
-1394.327107332312
 20
1455.416033583275
 30
0.0
 11
-1393.327107332313
 21
1455.416033583275
 31
0.0
 12
-1393.827107332312
 22
1458.416033583275
 32
0.0
 13
-1393.827107332312
 23
1458.416033583275
 33
0.0
  0
SOLID
  5
1B2A
330
1178
100
AcDbEntity
  8
AM_5
100
AcDbTrace
 10
-1394.327107332312
 20
1434.116033583275
 30
0.0
 11
-1393.327107332313
 21
1434.116033583275
 31
0.0
 12
-1393.827107332312
 22
1431.116033583275
 32
0.0
 13
-1393.827107332312
 23
1431.116033583275
 33
0.0
  0
MTEXT
  5
1B2B
330
1178
100
AcDbEntity
  8
AM_5
100
AcDbMText
 10
-1396.577451820502
 20
1444.766033583275
 30
0.0
 40
3.5
 41
0.0
 71
     5
 72
     1
  1
%%c27.3
 11
0.0000000000000001
 21
1.0
 31
0.0
 73
     1
 44
1.0
1001
ACAD
1000
MTEXTBEGIN
1070
    73
1070
     1
1070
    44
1040
1.0
1070
    74
1070
     0
1000
MTEXTEND
  0
POINT
  5
1B2C
330
1178
100
AcDbEntity
  8
DEFPOINTS
 62
     0
100
AcDbPoint
 10
-1381.427107332313
 20
1458.416033583275
 30
0.0
  0
POINT
  5
1B2D
330
1178
100
AcDbEntity
  8
DEFPOINTS
 62
     0
100
AcDbPoint
 10
-1381.427107332313
 20
1431.116033583275
 30
0.0
  0
POINT
  5
1B2E
330
1178
100
AcDbEntity
  8
DEFPOINTS
 62
     0
100
AcDbPoint
 10
-1393.827107332312
 20
1431.116033583275
 30
0.0
  0
ENDBLK
  5
1183
330
1178
100
AcDbEntity
  8
0
100
AcDbBlockEnd
  0
BLOCK
  5
118E
330
1184
100
AcDbEntity
  8
0
100
AcDbBlockBegin
  2
*D32
 70
     1
 10
0.0
 20
0.0
 30
0.0
  3
*D32
  1

  0
LINE
  5
1B2F
330
1184
100
AcDbEntity
  8
AM_5
100
AcDbLine
 10
-1209.827107332312
 20
1431.266033583275
 30
0.0
 11
-1209.827107332312
 21
1419.266033531121
 31
0.0
  0
LINE
  5
1B30
330
1184
100
AcDbEntity
  8
AM_5
100
AcDbLine
 10
-1230.827107332312
 20
1431.266033583275
 30
0.0
 11
-1230.827107332312
 21
1419.266033531121
 31
0.0
  0
LINE
  5
1B31
330
1184
100
AcDbEntity
  8
AM_5
100
AcDbLine
 10
-1212.827107332312
 20
1420.766033531121
 30
0.0
 11
-1227.827107332312
 21
1420.766033531121
 31
0.0
  0
SOLID
  5
1B32
330
1184
100
AcDbEntity
  8
AM_5
100
AcDbTrace
 10
-1212.827107332312
 20
1421.266033531121
 30
0.0
 11
-1212.827107332312
 21
1420.266033531121
 31
0.0
 12
-1209.827107332312
 22
1420.766033531121
 32
0.0
 13
-1209.827107332312
 23
1420.766033531121
 33
0.0
  0
SOLID
  5
1B33
330
1184
100
AcDbEntity
  8
AM_5
100
AcDbTrace
 10
-1227.827107332312
 20
1421.266033531121
 30
0.0
 11
-1227.827107332312
 21
1420.266033531121
 31
0.0
 12
-1230.827107332312
 22
1420.766033531121
 32
0.0
 13
-1230.827107332312
 23
1420.766033531121
 33
0.0
  0
MTEXT
  5
1B34
330
1184
100
AcDbEntity
  8
AM_5
100
AcDbMText
 10
-1220.327107332312
 20
1423.51637801931
 30
0.0
 40
3.5
 41
0.0
 71
     5
 72
     1
  1
21
 73
     1
 44
1.0
1001
ACAD
1000
MTEXTBEGIN
1070
    73
1070
     1
1070
    44
1040
1.0
1070
    74
1070
     0
1000
MTEXTEND
  0
POINT
  5
1B35
330
1184
100
AcDbEntity
  8
DEFPOINTS
 62
     0
100
AcDbPoint
 10
-1209.827107332312
 20
1432.766033583275
 30
0.0
  0
POINT
  5
1B36
330
1184
100
AcDbEntity
  8
DEFPOINTS
 62
     0
100
AcDbPoint
 10
-1230.827107332312
 20
1432.766033583275
 30
0.0
  0
POINT
  5
1B37
330
1184
100
AcDbEntity
  8
DEFPOINTS
 62
     0
100
AcDbPoint
 10
-1230.827107332312
 20
1420.766033531121
 30
0.0
  0
ENDBLK
  5
118F
330
1184
100
AcDbEntity
  8
0
100
AcDbBlockEnd
  0
BLOCK
  5
119A
330
1190
100
AcDbEntity
  8
0
100
AcDbBlockBegin
  2
*D33
 70
     1
 10
0.0
 20
0.0
 30
0.0
  3
*D33
  1

  0
LINE
  5
1B38
330
1190
100
AcDbEntity
  8
AM_5
100
AcDbLine
 10
-1254.827107332312
 20
1431.266033583275
 30
0.0
 11
-1254.827107332312
 21
1419.266033531121
 31
0.0
  0
LINE
  5
1B39
330
1190
100
AcDbEntity
  8
AM_5
100
AcDbLine
 10
-1230.827107332312
 20
1431.266033583275
 30
0.0
 11
-1230.827107332312
 21
1419.266033531121
 31
0.0
  0
LINE
  5
1B3A
330
1190
100
AcDbEntity
  8
AM_5
100
AcDbLine
 10
-1251.827107332312
 20
1420.766033531121
 30
0.0
 11
-1233.827107332312
 21
1420.766033531121
 31
0.0
  0
SOLID
  5
1B3B
330
1190
100
AcDbEntity
  8
AM_5
100
AcDbTrace
 10
-1251.827107332312
 20
1421.266033531121
 30
0.0
 11
-1251.827107332312
 21
1420.266033531121
 31
0.0
 12
-1254.827107332312
 22
1420.766033531121
 32
0.0
 13
-1254.827107332312
 23
1420.766033531121
 33
0.0
  0
SOLID
  5
1B3C
330
1190
100
AcDbEntity
  8
AM_5
100
AcDbTrace
 10
-1233.827107332312
 20
1421.266033531121
 30
0.0
 11
-1233.827107332312
 21
1420.266033531121
 31
0.0
 12
-1230.827107332312
 22
1420.766033531121
 32
0.0
 13
-1230.827107332312
 23
1420.766033531121
 33
0.0
  0
MTEXT
  5
1B3D
330
1190
100
AcDbEntity
  8
AM_5
100
AcDbMText
 10
-1242.827107332312
 20
1423.51637801931
 30
0.0
 40
3.5
 41
0.0
 71
     5
 72
     1
  1
24
 73
     1
 44
1.0
1001
ACAD
1000
MTEXTBEGIN
1070
    73
1070
     1
1070
    44
1040
1.0
1070
    74
1070
     0
1000
MTEXTEND
  0
POINT
  5
1B3E
330
1190
100
AcDbEntity
  8
DEFPOINTS
 62
     0
100
AcDbPoint
 10
-1254.827107332312
 20
1432.766033583275
 30
0.0
  0
POINT
  5
1B3F
330
1190
100
AcDbEntity
  8
DEFPOINTS
 62
     0
100
AcDbPoint
 10
-1230.827107332312
 20
1432.766033583275
 30
0.0
  0
POINT
  5
1B40
330
1190
100
AcDbEntity
  8
DEFPOINTS
 62
     0
100
AcDbPoint
 10
-1230.827107332312
 20
1420.766033531121
 30
0.0
  0
ENDBLK
  5
119B
330
1190
100
AcDbEntity
  8
0
100
AcDbBlockEnd
  0
BLOCK
  5
11A6
330
119C
100
AcDbEntity
  8
0
100
AcDbBlockBegin
  2
*D34
 70
     1
 10
0.0
 20
0.0
 30
0.0
  3
*D34
  1

  0
LINE
  5
1B41
330
119C
100
AcDbEntity
  8
AM_5
100
AcDbLine
 10
-1209.827107332312
 20
1431.266033583275
 30
0.0
 11
-1209.827107332312
 21
1411.266033531121
 31
0.0
  0
LINE
  5
1B42
330
119C
100
AcDbEntity
  8
AM_5
100
AcDbLine
 10
-1381.827107332312
 20
1430.016033583275
 30
0.0
 11
-1381.827107332312
 21
1411.266033531121
 31
0.0
  0
LINE
  5
1B43
330
119C
100
AcDbEntity
  8
AM_5
100
AcDbLine
 10
-1212.827107332312
 20
1412.766033531121
 30
0.0
 11
-1378.827107332313
 21
1412.766033531121
 31
0.0
  0
SOLID
  5
1B44
330
119C
100
AcDbEntity
  8
AM_5
100
AcDbTrace
 10
-1212.827107332312
 20
1413.266033531121
 30
0.0
 11
-1212.827107332312
 21
1412.266033531121
 31
0.0
 12
-1209.827107332312
 22
1412.766033531121
 32
0.0
 13
-1209.827107332312
 23
1412.766033531121
 33
0.0
  0
SOLID
  5
1B45
330
119C
100
AcDbEntity
  8
AM_5
100
AcDbTrace
 10
-1378.827107332313
 20
1413.266033531121
 30
0.0
 11
-1378.827107332313
 21
1412.266033531121
 31
0.0
 12
-1381.827107332312
 22
1412.766033531121
 32
0.0
 13
-1381.827107332312
 23
1412.766033531121
 33
0.0
  0
MTEXT
  5
1B46
330
119C
100
AcDbEntity
  8
AM_5
100
AcDbMText
 10
-1295.827107332313
 20
1415.51637801931
 30
0.0
 40
3.5
 41
0.0
 71
     5
 72
     1
  1
172
 73
     1
 44
1.0
1001
ACAD
1000
MTEXTBEGIN
1070
    73
1070
     1
1070
    44
1040
1.0
1070
    74
1070
     0
1000
MTEXTEND
  0
POINT
  5
1B47
330
119C
100
AcDbEntity
  8
DEFPOINTS
 62
     0
100
AcDbPoint
 10
-1209.827107332312
 20
1432.766033583275
 30
0.0
  0
POINT
  5
1B48
330
119C
100
AcDbEntity
  8
DEFPOINTS
 62
     0
100
AcDbPoint
 10
-1381.827107332312
 20
1431.516033583275
 30
0.0
  0
POINT
  5
1B49
330
119C
100
AcDbEntity
  8
DEFPOINTS
 62
     0
100
AcDbPoint
 10
-1381.827107332312
 20
1412.766033531121
 30
0.0
  0
ENDBLK
  5
11A7
330
119C
100
AcDbEntity
  8
0
100
AcDbBlockEnd
  0
BLOCK
  5
11B4
330
11A8
100
AcDbEntity
  8
0
100
AcDbBlockBegin
  2
*D35
 70
     1
 10
0.0
 20
0.0
 30
0.0
  3
*D35
  1

  0
LINE
  5
1B4A
330
11A8
100
AcDbEntity
  8
AM_5
100
AcDbLine
 10
-1179.327107332312
 20
1448.766033583275
 30
0.0
 11
-1166.327107332312
 21
1448.766033583275
 31
0.0
  0
LINE
  5
1B4B
330
11A8
100
AcDbEntity
  8
AM_5
100
AcDbLine
 10
-1179.327107332312
 20
1440.766033583275
 30
0.0
 11
-1166.327107332312
 21
1440.766033583275
 31
0.0
  0
LINE
  5
1B4C
330
11A8
100
AcDbEntity
  8
AM_5
100
AcDbLine
 10
-1167.827107332312
 20
1445.766033583275
 30
0.0
 11
-1167.827107332312
 21
1443.766033583275
 31
0.0
  0
SOLID
  5
1B4D
330
11A8
100
AcDbEntity
  8
AM_5
100
AcDbTrace
 10
-1168.327107332312
 20
1445.766033583275
 30
0.0
 11
-1167.327107332313
 21
1445.766033583275
 31
0.0
 12
-1167.827107332312
 22
1448.766033583275
 32
0.0
 13
-1167.827107332312
 23
1448.766033583275
 33
0.0
  0
SOLID
  5
1B4E
330
11A8
100
AcDbEntity
  8
AM_5
100
AcDbTrace
 10
-1168.327107332312
 20
1443.766033583275
 30
0.0
 11
-1167.327107332313
 21
1443.766033583275
 31
0.0
 12
-1167.827107332312
 22
1440.766033583275
 32
0.0
 13
-1167.827107332312
 23
1440.766033583275
 33
0.0
  0
MTEXT
  5
1B4F
330
11A8
100
AcDbEntity
  8
AM_5
100
AcDbMText
 10
-1170.577107332313
 20
1444.766033583275
 30
0.0
 40
3.5
 41
0.0
 71
     5
 72
     1
  1
%%c8
 11
0.0000000000000001
 21
1.0
 31
0.0
 73
     1
 44
1.0
1001
ACAD
1000
MTEXTBEGIN
1070
    73
1070
     1
1070
    44
1040
1.0
1070
    74
1070
     0
1000
MTEXTEND
  0
POINT
  5
1B50
330
11A8
100
AcDbEntity
  8
DEFPOINTS
 62
     0
100
AcDbPoint
 10
-1180.827107332312
 20
1448.766033583275
 30
0.0
  0
POINT
  5
1B51
330
11A8
100
AcDbEntity
  8
DEFPOINTS
 62
     0
100
AcDbPoint
 10
-1180.827107332312
 20
1440.766033583275
 30
0.0
  0
POINT
  5
1B52
330
11A8
100
AcDbEntity
  8
DEFPOINTS
 62
     0
100
AcDbPoint
 10
-1167.827107332312
 20
1440.766033583275
 30
0.0
  0
ENDBLK
  5
11B5
330
11A8
100
AcDbEntity
  8
0
100
AcDbBlockEnd
  0
BLOCK
  5
11C0
330
11B6
100
AcDbEntity
  8
0
100
AcDbBlockBegin
  2
*D36
 70
     1
 10
0.0
 20
0.0
 30
0.0
  3
*D36
  1

  0
LINE
  5
1B53
330
11B6
100
AcDbEntity
  8
AM_5
100
AcDbLine
 10
-1208.327107332312
 20
1456.766033583275
 30
0.0
 11
-1158.327107332312
 21
1456.766033583275
 31
0.0
  0
LINE
  5
1B54
330
11B6
100
AcDbEntity
  8
AM_5
100
AcDbLine
 10
-1208.327107332312
 20
1432.766033583275
 30
0.0
 11
-1158.327107332312
 21
1432.766033583275
 31
0.0
  0
LINE
  5
1B55
330
11B6
100
AcDbEntity
  8
AM_5
100
AcDbLine
 10
-1159.827107332312
 20
1453.766033583275
 30
0.0
 11
-1159.827107332312
 21
1435.766033583275
 31
0.0
  0
SOLID
  5
1B56
330
11B6
100
AcDbEntity
  8
AM_5
100
AcDbTrace
 10
-1160.327107332312
 20
1453.766033583275
 30
0.0
 11
-1159.327107332313
 21
1453.766033583275
 31
0.0
 12
-1159.827107332312
 22
1456.766033583275
 32
0.0
 13
-1159.827107332312
 23
1456.766033583275
 33
0.0
  0
SOLID
  5
1B57
330
11B6
100
AcDbEntity
  8
AM_5
100
AcDbTrace
 10
-1160.327107332312
 20
1435.766033583275
 30
0.0
 11
-1159.327107332313
 21
1435.766033583275
 31
0.0
 12
-1159.827107332312
 22
1432.766033583275
 32
0.0
 13
-1159.827107332312
 23
1432.766033583275
 33
0.0
  0
MTEXT
  5
1B58
330
11B6
100
AcDbEntity
  8
AM_5
100
AcDbMText
 10
-1162.577451820502
 20
1444.766033583275
 30
0.0
 40
3.5
 41
0.0
 71
     5
 72
     1
  1
%%c24
 11
0.0000000000000001
 21
1.0
 31
0.0
 73
     1
 44
1.0
1001
ACAD
1000
MTEXTBEGIN
1070
    73
1070
     1
1070
    44
1040
1.0
1070
    74
1070
     0
1000
MTEXTEND
  0
POINT
  5
1B59
330
11B6
100
AcDbEntity
  8
DEFPOINTS
 62
     0
100
AcDbPoint
 10
-1209.827107332312
 20
1456.766033583275
 30
0.0
  0
POINT
  5
1B5A
330
11B6
100
AcDbEntity
  8
DEFPOINTS
 62
     0
100
AcDbPoint
 10
-1209.827107332312
 20
1432.766033583275
 30
0.0
  0
POINT
  5
1B5B
330
11B6
100
AcDbEntity
  8
DEFPOINTS
 62
     0
100
AcDbPoint
 10
-1159.827107332312
 20
1432.766033583275
 30
0.0
  0
ENDBLK
  5
11C1
330
11B6
100
AcDbEntity
  8
0
100
AcDbBlockEnd
  0
BLOCK
  5
11CC
330
11C2
100
AcDbEntity
  8
0
100
AcDbBlockBegin
  2
*D37
 70
     1
 10
0.0
 20
0.0
 30
0.0
  3
*D37
  1

  0
LINE
  5
1B5C
330
11C2
100
AcDbEntity
  8
AM_5
100
AcDbLine
 10
-1209.827107332312
 20
1431.266033583275
 30
0.0
 11
-1209.827107332312
 21
1419.266033531121
 31
0.0
  0
LINE
  5
1B5D
330
11C2
100
AcDbEntity
  8
AM_5
100
AcDbLine
 10
-1179.827107332312
 20
1443.266033583275
 30
0.0
 11
-1179.827107332312
 21
1419.266033531121
 31
0.0
  0
LINE
  5
1B5E
330
11C2
100
AcDbEntity
  8
AM_5
100
AcDbLine
 10
-1206.827107332312
 20
1420.766033531121
 30
0.0
 11
-1182.827107332312
 21
1420.766033531121
 31
0.0
  0
SOLID
  5
1B5F
330
11C2
100
AcDbEntity
  8
AM_5
100
AcDbTrace
 10
-1206.827107332312
 20
1421.266033531121
 30
0.0
 11
-1206.827107332312
 21
1420.266033531121
 31
0.0
 12
-1209.827107332312
 22
1420.766033531121
 32
0.0
 13
-1209.827107332312
 23
1420.766033531121
 33
0.0
  0
SOLID
  5
1B60
330
11C2
100
AcDbEntity
  8
AM_5
100
AcDbTrace
 10
-1182.827107332312
 20
1421.266033531121
 30
0.0
 11
-1182.827107332312
 21
1420.266033531121
 31
0.0
 12
-1179.827107332312
 22
1420.766033531121
 32
0.0
 13
-1179.827107332312
 23
1420.766033531121
 33
0.0
  0
MTEXT
  5
1B61
330
11C2
100
AcDbEntity
  8
AM_5
100
AcDbMText
 10
-1194.827107332312
 20
1423.516033531121
 30
0.0
 40
3.5
 41
0.0
 71
     5
 72
     1
  1
30
 73
     1
 44
1.0
1001
ACAD
1000
MTEXTBEGIN
1070
    73
1070
     1
1070
    44
1040
1.0
1070
    74
1070
     0
1000
MTEXTEND
  0
POINT
  5
1B62
330
11C2
100
AcDbEntity
  8
DEFPOINTS
 62
     0
100
AcDbPoint
 10
-1209.827107332312
 20
1432.766033583275
 30
0.0
  0
POINT
  5
1B63
330
11C2
100
AcDbEntity
  8
DEFPOINTS
 62
     0
100
AcDbPoint
 10
-1179.827107332312
 20
1444.766033583275
 30
0.0
  0
POINT
  5
1B64
330
11C2
100
AcDbEntity
  8
DEFPOINTS
 62
     0
100
AcDbPoint
 10
-1179.827107332312
 20
1420.766033531121
 30
0.0
  0
ENDBLK
  5
11CD
330
11C2
100
AcDbEntity
  8
0
100
AcDbBlockEnd
  0
BLOCK
  5
11D8
330
11CE
100
AcDbEntity
  8
0
100
AcDbBlockBegin
  2
*D38
 70
     1
 10
0.0
 20
0.0
 30
0.0
  3
*D38
  1

  0
LINE
  5
1B65
330
11CE
100
AcDbEntity
  8
AM_5
100
AcDbLine
 10
-1179.827107332312
 20
1443.266033583275
 30
0.0
 11
-1179.827107332312
 21
1403.266033531121
 31
0.0
  0
LINE
  5
1B66
330
11CE
100
AcDbEntity
  8
AM_5
100
AcDbLine
 10
-1381.827107332312
 20
1430.016033583275
 30
0.0
 11
-1381.827107332312
 21
1403.266033531121
 31
0.0
  0
LINE
  5
1B67
330
11CE
100
AcDbEntity
  8
AM_5
100
AcDbLine
 10
-1182.827107332312
 20
1404.766033531121
 30
0.0
 11
-1378.827107332313
 21
1404.766033531121
 31
0.0
  0
SOLID
  5
1B68
330
11CE
100
AcDbEntity
  8
AM_5
100
AcDbTrace
 10
-1182.827107332312
 20
1405.266033531121
 30
0.0
 11
-1182.827107332312
 21
1404.266033531121
 31
0.0
 12
-1179.827107332312
 22
1404.766033531121
 32
0.0
 13
-1179.827107332312
 23
1404.766033531121
 33
0.0
  0
SOLID
  5
1B69
330
11CE
100
AcDbEntity
  8
AM_5
100
AcDbTrace
 10
-1378.827107332313
 20
1405.266033531121
 30
0.0
 11
-1378.827107332313
 21
1404.266033531121
 31
0.0
 12
-1381.827107332312
 22
1404.766033531121
 32
0.0
 13
-1381.827107332312
 23
1404.766033531121
 33
0.0
  0
MTEXT
  5
1B6A
330
11CE
100
AcDbEntity
  8
AM_5
100
AcDbMText
 10
-1280.827107332312
 20
1407.51637801931
 30
0.0
 40
3.5
 41
0.0
 71
     5
 72
     1
  1
202
 73
     1
 44
1.0
1001
ACAD
1000
MTEXTBEGIN
1070
    73
1070
     1
1070
    44
1040
1.0
1070
    74
1070
     0
1000
MTEXTEND
  0
POINT
  5
1B6B
330
11CE
100
AcDbEntity
  8
DEFPOINTS
 62
     0
100
AcDbPoint
 10
-1179.827107332312
 20
1444.766033583275
 30
0.0
  0
POINT
  5
1B6C
330
11CE
100
AcDbEntity
  8
DEFPOINTS
 62
     0
100
AcDbPoint
 10
-1381.827107332312
 20
1431.516033583275
 30
0.0
  0
POINT
  5
1B6D
330
11CE
100
AcDbEntity
  8
DEFPOINTS
 62
     0
100
AcDbPoint
 10
-1381.827107332312
 20
1404.766033531121
 30
0.0
  0
ENDBLK
  5
11D9
330
11CE
100
AcDbEntity
  8
0
100
AcDbBlockEnd
  0
BLOCK
  5
1CCC
330
1CC7
100
AcDbEntity
  8
0
100
AcDbBlockBegin
  2
*S41
 70
     1
 10
0.0
 20
0.0
 30
0.0
  3
*S41
  1

  0
LINE
  5
1CC8
330
1CC7
100
AcDbEntity
  8
AM_5
 62
     5
100
AcDbLine
 10
-915.8833728013542
 20
1457.411885556432
 30
0.0
 11
-929.8650279272306
 21
1457.411885556432
 31
0.0
  0
LINE
  5
1CC9
330
1CC7
100
AcDbEntity
  8
AM_5
 62
     5
100
AcDbLine
 10
-929.8650279272306
 20
1457.411885556432
 30
0.0
 11
-933.7889765512908
 21
1450.307862560718
 31
0.0
  0
TRACE
  5
1CCA
330
1CC7
100
AcDbEntity
  8
AM_5
 62
     5
370
    35
100
AcDbTrace
 10
-934.1923206922572
 20
1450.530652054492
 30
0.0
 11
-933.3856324103244
 21
1450.085073066945
 31
0.0
 12
-935.4812307724404
 22
1447.24415962946
 32
0.0
 13
-935.4812307724404
 23
1447.24415962946
 33
0.0
  0
MTEXT
  5
1CCB
330
1CC7
100
AcDbEntity
  8
AM_5
 62
     5
100
AcDbMText
 10
-915.8833728013542
 20
1453.999119200338
 30
0.0
 40
3.5
 41
0.0
 71
     7
 72
     5
  1

  7
ACISOTS
 73
     1
 44
1.0
1001
ACAD
1000
MTEXTBEGIN
1070
    73
1070
     1
1070
    44
1040
1.0
1070
    74
1070
     0
1000
MTEXTEND
  0
ENDBLK
  5
1CCD
330
1CC7
100
AcDbEntity
  8
0
100
AcDbBlockEnd
  0
ENDSEC
  0
SECTION
  2
ENTITIES
  0
LINE
  5
E9E
330
1F
100
AcDbEntity
  8
0
370
    25
100
AcDbLine
 10
-1209.827104828917
 20
1440.766033393285
 30
0.0
 11
-1180.827107332312
 21
1440.766033583275
 31
0.0
  0
LINE
  5
E9F
330
1F
100
AcDbEntity
  8
0
370
    25
100
AcDbLine
 10
-1180.827107332312
 20
1448.766033583275
 30
0.0
 11
-1209.827104828917
 21
1448.766033773265
 31
0.0
  0
ARC
  5
EA0
330
1F
100
AcDbEntity
  8
0
370
    25
100
AcDbCircle
 10
-1188.327107332312
 20
1444.766033583275
 30
0.0
 40
8.5
100
AcDbArc
 50
331.9275130641492
 51
0.0
  0
ARC
  5
EA1
330
1F
100
AcDbEntity
  8
0
370
    25
100
AcDbCircle
 10
-1188.327107332312
 20
1444.766033583275
 30
0.0
 40
8.5
100
AcDbArc
 50
0.0
 51
28.07248693585086
  0
LINE
  5
EA2
330
1F
100
AcDbEntity
  8
0
370
    25
100
AcDbLine
 10
-1212.827107332312
 20
1432.766033583275
 30
0.0
 11
-1209.827107332312
 21
1432.766033583275
 31
0.0
  0
LINE
  5
EA3
330
1F
100
AcDbEntity
  8
0
370
    25
100
AcDbLine
 10
-1209.827107332312
 20
1456.766033583275
 30
0.0
 11
-1212.827107332312
 21
1456.766033583275
 31
0.0
  0
LINE
  5
EA4
330
1F
100
AcDbEntity
  8
0
370
    25
100
AcDbLine
 10
-1375.229806884789
 20
1431.116033487908
 30
0.0
 11
-1371.327107332313
 21
1431.116033583275
 31
0.0
  0
LINE
  5
EA5
330
1F
100
AcDbEntity
  8
0
370
    25
100
AcDbLine
 10
-1381.427107332313
 20
1431.116033583275
 30
0.0
 11
-1379.400930612945
 21
1431.116033487908
 31
0.0
  0
LINE
  5
EA6
330
1F
100
AcDbEntity
  8
0
370
    25
100
AcDbLine
 10
-1371.327107332313
 20
1458.416033583275
 30
0.0
 11
-1381.427107332313
 21
1458.416033583275
 31
0.0
  0
LINE
  5
EA7
330
1F
100
AcDbEntity
  8
0
370
    25
100
AcDbLine
 10
-1381.427107332313
 20
1458.416033583275
 30
0.0
 11
-1381.827107332312
 21
1458.016033583275
 31
0.0
  0
LINE
  5
EA8
330
1F
100
AcDbEntity
  8
0
370
    25
100
AcDbLine
 10
-1381.827107332312
 20
1431.516033583275
 30
0.0
 11
-1381.427107332313
 21
1431.116033583275
 31
0.0
  0
LINE
  5
EA9
330
1F
100
AcDbEntity
  8
0
370
    25
100
AcDbLine
 10
-1371.327107319274
 20
1431.466033824674
 30
0.0
 11
-1368.327107332312
 21
1431.766033583275
 31
0.0
  0
LINE
  5
EAA
330
1F
100
AcDbEntity
  8
0
370
    25
100
AcDbLine
 10
-1368.327107332312
 20
1457.766033583275
 30
0.0
 11
-1371.327107319274
 21
1458.066033341876
 31
0.0
  0
LINE
  5
EAB
330
1F
100
AcDbEntity
  8
0
370
    25
100
AcDbLine
 10
-1229.477107332312
 20
1432.766033583275
 30
0.0
 11
-1212.827107332312
 21
1432.766033583275
 31
0.0
  0
LINE
  5
EAC
330
1F
100
AcDbEntity
  8
0
370
    25
100
AcDbLine
 10
-1212.827107332312
 20
1456.766033583275
 30
0.0
 11
-1229.477107332312
 21
1456.766033583275
 31
0.0
  0
LINE
  5
EAD
330
1F
100
AcDbEntity
  8
0
370
    25
100
AcDbLine
 10
-1253.477107332312
 20
1432.766033583275
 30
0.0
 11
-1230.827107332312
 21
1432.766033583275
 31
0.0
  0
LINE
  5
EAE
330
1F
100
AcDbEntity
  8
0
370
    25
100
AcDbLine
 10
-1230.827107332312
 20
1456.766033583275
 30
0.0
 11
-1253.477107332312
 21
1456.766033583275
 31
0.0
  0
LINE
  5
EAF
330
1F
100
AcDbEntity
  8
0
370
    25
100
AcDbLine
 10
-1368.327107526028
 20
1432.766033478967
 30
0.0
 11
-1254.827107332312
 21
1432.766033583275
 31
0.0
  0
LINE
  5
EB0
330
1F
100
AcDbEntity
  8
0
370
    25
100
AcDbLine
 10
-1254.827107332312
 20
1456.766033583275
 30
0.0
 11
-1368.327107526028
 21
1456.766033687583
 31
0.0
  0
LINE
  5
EB1
330
1F
100
AcDbEntity
  8
0
370
    25
100
AcDbLine
 10
-1230.82710268315
 20
1433.316033475987
 30
0.0
 11
-1229.477102182471
 21
1433.316033475987
 31
0.0
  0
LINE
  5
EB2
330
1F
100
AcDbEntity
  8
0
370
    25
100
AcDbLine
 10
-1229.477102182471
 20
1456.216033690563
 30
0.0
 11
-1230.82710268315
 21
1456.216033690563
 31
0.0
  0
LINE
  5
EB3
330
1F
100
AcDbEntity
  8
0
370
    25
100
AcDbLine
 10
-1254.827106617057
 20
1433.316033475987
 30
0.0
 11
-1253.477106116378
 21
1433.316033475987
 31
0.0
  0
LINE
  5
EB4
330
1F
100
AcDbEntity
  8
0
370
    25
100
AcDbLine
 10
-1253.477106116378
 20
1456.216033690563
 30
0.0
 11
-1254.827106617057
 21
1456.216033690563
 31
0.0
  0
LINE
  5
EB5
330
1F
100
AcDbEntity
  8
0
370
    25
100
AcDbLine
 10
-1180.827107332312
 20
1444.766033583275
 30
0.0
 11
-1180.827107332312
 21
1448.766033583275
 31
0.0
  0
LINE
  5
EB6
330
1F
100
AcDbEntity
  8
0
370
    25
100
AcDbLine
 10
-1180.827107332312
 20
1440.766033583275
 30
0.0
 11
-1180.827107332312
 21
1444.766033583275
 31
0.0
  0
LINE
  5
EB7
330
1F
100
AcDbEntity
  8
0
370
    25
100
AcDbLine
 10
-1209.827107332312
 20
1444.766033583275
 30
0.0
 11
-1209.827107332312
 21
1456.766033583275
 31
0.0
  0
LINE
  5
EB8
330
1F
100
AcDbEntity
  8
0
370
    25
100
AcDbLine
 10
-1209.827107332312
 20
1432.766033583275
 30
0.0
 11
-1209.827107332312
 21
1444.766033583275
 31
0.0
  0
LINE
  5
EB9
330
1F
100
AcDbEntity
  8
0
370
    25
100
AcDbLine
 10
-1212.827107332312
 20
1444.766033583275
 30
0.0
 11
-1212.827107332312
 21
1456.766033583275
 31
0.0
  0
LINE
  5
EBA
330
1F
100
AcDbEntity
  8
0
370
    25
100
AcDbLine
 10
-1212.827107332312
 20
1432.766033583275
 30
0.0
 11
-1212.827107332312
 21
1444.766033583275
 31
0.0
  0
LINE
  5
EBB
330
1F
100
AcDbEntity
  8
0
370
    25
100
AcDbLine
 10
-1371.327107332313
 20
1444.766033583275
 30
0.0
 11
-1371.327107332313
 21
1458.416033583275
 31
0.0
  0
LINE
  5
EBC
330
1F
100
AcDbEntity
  8
0
370
    25
100
AcDbLine
 10
-1371.327107332313
 20
1431.116033583275
 30
0.0
 11
-1371.327107332313
 21
1444.766033583275
 31
0.0
  0
LWPOLYLINE
  5
EBE
330
1F
100
AcDbEntity
  8
0
370
    25
100
AcDbPolyline
 90
       12
 70
   128
 43
0.0
 10
-1379.400930612945
 20
1431.120023273817
 10
-1379.4143346731
 20
1431.117992990605
 10
-1379.223712965512
 20
1431.145842329553
 10
-1378.823074757719
 20
1431.195830137423
 10
-1378.250409628862
 20
1431.246973716608
 10
-1377.571712493562
 20
1431.276321553579
 10
-1376.871829166674
 20
1431.270857484034
 10
-1376.226620761343
 20
1431.233718202404
 10
-1375.699446549305
 20
1431.180682175747
 10
-1375.351214328446
 20
1431.134575189046
 10
-1375.227171474733
 20
1431.116043732456
 10
-1375.229806884789
 20
1431.116438613227
  0
LINE
  5
EBF
330
1F
100
AcDbEntity
  8
0
370
    25
100
AcDbLine
 10
-1381.827107332312
 20
1431.516033583275
 30
0.0
 11
-1381.827107332312
 21
1458.016033583275
 31
0.0
  0
LINE
  5
EC0
330
1F
100
AcDbEntity
  8
0
370
    25
100
AcDbLine
 10
-1368.327107332312
 20
1444.766033583275
 30
0.0
 11
-1368.327107332312
 21
1457.766033583275
 31
0.0
  0
LINE
  5
EC1
330
1F
100
AcDbEntity
  8
0
370
    25
100
AcDbLine
 10
-1368.327107332312
 20
1431.766033583275
 30
0.0
 11
-1368.327107332312
 21
1444.766033583275
 31
0.0
  0
LINE
  5
EC2
330
1F
100
AcDbEntity
  8
0
370
    25
100
AcDbLine
 10
-1212.827107332312
 20
1444.766033583275
 30
0.0
 11
-1212.827107332312
 21
1456.766033583275
 31
0.0
  0
LINE
  5
EC3
330
1F
100
AcDbEntity
  8
0
370
    25
100
AcDbLine
 10
-1212.827107332312
 20
1432.766033583275
 30
0.0
 11
-1212.827107332312
 21
1444.766033583275
 31
0.0
  0
LINE
  5
EC4
330
1F
100
AcDbEntity
  8
0
370
    25
100
AcDbLine
 10
-1229.477107332312
 20
1444.766033583275
 30
0.0
 11
-1229.477107332312
 21
1456.766033583275
 31
0.0
  0
LINE
  5
EC5
330
1F
100
AcDbEntity
  8
0
370
    25
100
AcDbLine
 10
-1229.477107332312
 20
1432.766033583275
 30
0.0
 11
-1229.477107332312
 21
1444.766033583275
 31
0.0
  0
LINE
  5
EC6
330
1F
100
AcDbEntity
  8
0
370
    25
100
AcDbLine
 10
-1230.827107332312
 20
1444.766033583275
 30
0.0
 11
-1230.827107332312
 21
1456.766033583275
 31
0.0
  0
LINE
  5
EC7
330
1F
100
AcDbEntity
  8
0
370
    25
100
AcDbLine
 10
-1230.827107332312
 20
1432.766033583275
 30
0.0
 11
-1230.827107332312
 21
1444.766033583275
 31
0.0
  0
LINE
  5
EC8
330
1F
100
AcDbEntity
  8
0
370
    25
100
AcDbLine
 10
-1253.477107332312
 20
1444.766033583275
 30
0.0
 11
-1253.477107332312
 21
1456.766033583275
 31
0.0
  0
LINE
  5
EC9
330
1F
100
AcDbEntity
  8
0
370
    25
100
AcDbLine
 10
-1253.477107332312
 20
1432.766033583275
 30
0.0
 11
-1253.477107332312
 21
1444.766033583275
 31
0.0
  0
LINE
  5
ECA
330
1F
100
AcDbEntity
  8
0
370
    25
100
AcDbLine
 10
-1254.827107332312
 20
1444.766033583275
 30
0.0
 11
-1254.827107332312
 21
1456.766033583275
 31
0.0
  0
LINE
  5
ECB
330
1F
100
AcDbEntity
  8
0
370
    25
100
AcDbLine
 10
-1254.827107332312
 20
1432.766033583275
 30
0.0
 11
-1254.827107332312
 21
1444.766033583275
 31
0.0
  0
LINE
  5
ECC
330
1F
100
AcDbEntity
  8
CEN
370
    15
100
AcDbLine
 10
-1377.327107332313
 20
1435.212037337753
 30
0.0
 11
-1377.327107332313
 21
1429.278539351258
 31
0.0
  0
LINE
  5
ECD
330
1F
100
AcDbEntity
  8
CEN
370
    15
100
AcDbLine
 10
-1383.827107332312
 20
1444.766033583275
 30
0.0
 11
-1177.827107332312
 21
1444.766033583275
 31
0.0
  0
DIMENSION
  5
ECE
330
1F
100
AcDbEntity
  8
AM_5
100
AcDbDimension
  2
*D31
 10
-1393.827107332312
 20
1431.116033583275
 30
0.0
 11
-1396.577451820502
 21
1444.766033583275
 31
0.0
 70
    32
  1
%%c<>
 71
     5
 42
27.30000000000018
  3
AM_ISO$0
100
AcDbAlignedDimension
 13
-1381.427107332313
 23
1458.416033583275
 33
0.0
 14
-1381.427107332313
 24
1431.116033583275
 34
0.0
 50
90.0
100
AcDbRotatedDimension
1001
ACAD
1000
DSTYLE
1002
{
1070
   272
1070
     8
1002
}
  0
DIMENSION
  5
ECF
330
1F
100
AcDbEntity
  8
AM_5
100
AcDbDimension
  2
*D32
 10
-1230.827107332312
 20
1420.766033531121
 30
0.0
 11
-1220.327107332312
 21
1423.51637801931
 31
0.0
 70
    32
 71
     5
 42
21.0
  3
AM_ISO$0
100
AcDbAlignedDimension
 13
-1209.827107332312
 23
1432.766033583275
 33
0.0
 14
-1230.827107332312
 24
1432.766033583275
 34
0.0
100
AcDbRotatedDimension
1001
ACAD
1000
DSTYLE
1002
{
1070
   272
1070
     8
1002
}
  0
DIMENSION
  5
ED0
330
1F
100
AcDbEntity
  8
AM_5
100
AcDbDimension
  2
*D33
 10
-1230.827107332312
 20
1420.766033531121
 30
0.0
 11
-1242.827107332312
 21
1423.51637801931
 31
0.0
 70
    32
 71
     5
 42
24.0
  3
AM_ISO$0
100
AcDbAlignedDimension
 13
-1254.827107332312
 23
1432.766033583275
 33
0.0
 14
-1230.827107332312
 24
1432.766033583275
 34
0.0
100
AcDbRotatedDimension
1001
ACAD
1000
DSTYLE
1002
{
1070
   272
1070
     8
1002
}
  0
DIMENSION
  5
ED1
330
1F
100
AcDbEntity
  8
AM_5
100
AcDbDimension
  2
*D34
 10
-1381.827107332312
 20
1412.766033531121
 30
0.0
 11
-1295.827107332313
 21
1412.766033531121
 31
0.0
 70
   160
 71
     5
 42
172.0
  3
AM_ISO$0
100
AcDbAlignedDimension
 13
-1209.827107332312
 23
1432.766033583275
 33
0.0
 14
-1381.827107332312
 24
1431.516033583275
 34
0.0
100
AcDbRotatedDimension
1001
ACAD
1000
DSTYLE
1002
{
1070
   272
1070
     8
1002
}
  0
DIMENSION
  5
ED2
330
1F
100
AcDbEntity
  8
AM_5
100
AcDbDimension
  2
*D35
 10
-1167.827107332312
 20
1440.766033583275
 30
0.0
 11
-1167.827107332313
 21
1444.766033583275
 31
0.0
 70
   160
  1
%%c<>
 71
     5
 42
8.0
  3
AM_ISO$0
100
AcDbAlignedDimension
 13
-1180.827107332312
 23
1448.766033583275
 33
0.0
 14
-1180.827107332312
 24
1440.766033583275
 34
0.0
 50
90.0
100
AcDbRotatedDimension
1001
ACAD
1000
DSTYLE
1002
{
1070
   272
1070
     8
1002
}
  0
DIMENSION
  5
ED3
330
1F
100
AcDbEntity
  8
AM_5
100
AcDbDimension
  2
*D36
 10
-1159.827107332312
 20
1432.766033583275
 30
0.0
 11
-1162.577451820502
 21
1444.766033583275
 31
0.0
 70
    32
  1
%%c<>
 71
     5
 42
24.0
  3
AM_ISO$0
100
AcDbAlignedDimension
 13
-1209.827107332312
 23
1456.766033583275
 33
0.0
 14
-1209.827107332312
 24
1432.766033583275
 34
0.0
 50
90.0
100
AcDbRotatedDimension
1001
ACAD
1000
DSTYLE
1002
{
1070
   272
1070
     8
1002
}
  0
DIMENSION
  5
ED4
330
1F
100
AcDbEntity
  8
AM_5
100
AcDbDimension
  2
*D37
 10
-1179.827107332312
 20
1420.766033531121
 30
0.0
 11
-1194.827107332312
 21
1423.516033531121
 31
0.0
 70
    32
 71
     5
 42
30.0
  3
AM_ISO$0
100
AcDbAlignedDimension
 13
-1209.827107332312
 23
1432.766033583275
 33
0.0
 14
-1179.827107332312
 24
1444.766033583275
 34
0.0
100
AcDbRotatedDimension
1001
ACAD
1000
DSTYLE
1002
{
1070
   272
1070
     8
1002
}
  0
DIMENSION
  5
ED5
330
1F
100
AcDbEntity
  8
AM_5
100
AcDbDimension
  2
*D38
 10
-1381.827107332312
 20
1404.766033531121
 30
0.0
 11
-1280.827107332312
 21
1407.51637801931
 31
0.0
 70
    32
 71
     5
 42
202.0
  3
AM_ISO$0
100
AcDbAlignedDimension
 13
-1179.827107332312
 23
1444.766033583275
 33
0.0
 14
-1381.827107332312
 24
1431.516033583275
 34
0.0
100
AcDbRotatedDimension
1001
ACAD
1000
DSTYLE
1002
{
1070
   272
1070
     8
1002
}
  0
ARC
  5
ED8
330
1F
100
AcDbEntity
  8
0
 62
     0
370
    25
100
AcDbCircle
 10
-977.8812307724411
 20
1445.24415962946
 30
0.0
 40
2.0
100
AcDbArc
 50
90.0
 51
180.0
  0
ARC
  5
ED9
330
1F
100
AcDbEntity
  8
0
 62
     0
370
    25
100
AcDbCircle
 10
-930.081230772441
 20
1445.24415962946
 30
0.0
 40
2.000000000000014
100
AcDbArc
 50
0.0
 51
90.0
  0
ARC
  5
EDA
330
1F
100
AcDbEntity
  8
0
 62
     0
370
    25
100
AcDbCircle
 10
-930.081230772441
 20
1421.64415962946
 30
0.0
 40
2.0
100
AcDbArc
 50
270.0
 51
0.0
  0
LINE
  5
EDB
330
1F
100
AcDbEntity
  8
0
 62
     0
370
    25
100
AcDbLine
 10
-930.081230772441
 20
1419.64415962946
 30
0.0
 11
-934.5812307724409
 21
1419.64415962946
 31
0.0
  0
ARC
  5
EDC
330
1F
100
AcDbEntity
  8
0
 62
     0
370
    25
100
AcDbCircle
 10
-977.8812307724411
 20
1421.64415962946
 30
0.0
 40
2.0
100
AcDbArc
 50
180.0
 51
270.0
  0
LINE
  5
EDD
330
1F
100
AcDbEntity
  8
0
 62
     0
370
    25
100
AcDbLine
 10
-938.5812307724409
 20
1419.64415962946
 30
0.0
 11
-977.8812307724411
 21
1419.64415962946
 31
0.0
  0
LINE
  5
EDE
330
1F
100
AcDbEntity
  8
0
 62
     0
370
    25
100
AcDbLine
 10
-979.8812307724411
 20
1421.64415962946
 30
0.0
 11
-979.8812307724411
 21
1445.24415962946
 31
0.0
  0
LINE
  5
EDF
330
1F
100
AcDbEntity
  8
0
 62
     0
370
    25
100
AcDbLine
 10
-977.8812307724411
 20
1447.24415962946
 30
0.0
 11
-964.5608024414169
 21
1447.24415962946
 31
0.0
  0
LINE
  5
EE0
330
1F
100
AcDbEntity
  8
0
 62
     0
370
    25
100
AcDbLine
 10
-964.5608024414169
 20
1447.24415962946
 30
0.0
 11
-960.9812307724405
 21
1453.44415962946
 31
0.0
  0
LINE
  5
EE1
330
1F
100
AcDbEntity
  8
0
 62
     0
370
    25
100
AcDbLine
 10
-960.9812307724405
 20
1453.44415962946
 30
0.0
 11
-946.9812307724405
 21
1453.44415962946
 31
0.0
  0
LINE
  5
EE2
330
1F
100
AcDbEntity
  8
0
 62
     0
370
    25
100
AcDbLine
 10
-946.9812307724405
 20
1453.44415962946
 30
0.0
 11
-943.4016591034652
 21
1447.24415962946
 31
0.0
  0
LINE
  5
EE3
330
1F
100
AcDbEntity
  8
0
 62
     0
370
    25
100
AcDbLine
 10
-943.4016591034652
 20
1447.24415962946
 30
0.0
 11
-930.081230772441
 21
1447.24415962946
 31
0.0
  0
LINE
  5
EE4
330
1F
100
AcDbEntity
  8
0
 62
     0
370
    25
100
AcDbLine
 10
-928.0812307724408
 20
1445.24415962946
 30
0.0
 11
-928.0812307724408
 21
1437.54415962946
 31
0.0
  0
LINE
  5
EE5
330
1F
100
AcDbEntity
  8
0
 62
     0
370
    25
100
AcDbLine
 10
-928.0812307724408
 20
1437.54415962946
 30
0.0
 11
-942.0229700293393
 21
1437.54415962946
 31
0.0
  0
ARC
  5
EE6
330
1F
100
AcDbEntity
  8
0
 62
     0
370
    25
100
AcDbCircle
 10
-953.9812307724405
 20
1436.54415962946
 30
0.0
 40
11.99999999999999
100
AcDbArc
 50
4.780191847195555
 51
355.2198081528044
  0
LINE
  5
EE7
330
1F
100
AcDbEntity
  8
0
 62
     0
370
    25
100
AcDbLine
 10
-942.0229700293393
 20
1435.54415962946
 30
0.0
 11
-928.0812307724408
 21
1435.54415962946
 31
0.0
  0
LINE
  5
EE8
330
1F
100
AcDbEntity
  8
0
 62
     0
370
    25
100
AcDbLine
 10
-928.0812307724408
 20
1435.54415962946
 30
0.0
 11
-928.0812307724408
 21
1421.64415962946
 31
0.0
  0
ARC
  5
EE9
330
1F
100
AcDbEntity
  8
0
 62
     0
370
    25
100
AcDbCircle
 10
-936.5812307724409
 20
1419.64415962946
 30
0.0
 40
2.0
100
AcDbArc
 50
0.0
 51
180.0
  0
LINE
  5
EEA
330
1F
100
AcDbEntity
  8
1
 62
     3
 48
0.4
370
    18
100
AcDbLine
 10
-969.1812307724402
 20
1419.64415962946
 30
0.0
 11
-969.1812307724402
 21
1447.24415962946
 31
0.0
  0
LINE
  5
EEB
330
1F
100
AcDbEntity
  8
1
 62
     3
 48
0.4
370
    18
100
AcDbLine
 10
-975.7812307724407
 20
1447.24415962946
 30
0.0
 11
-975.7812307724407
 21
1419.64415962946
 31
0.0
  0
LINE
  5
EEC
330
1F
100
AcDbEntity
  8
1
 62
     3
 48
0.4
370
    18
100
AcDbLine
 10
-932.1812307724403
 20
1437.54415962946
 30
0.0
 11
-932.1812307724403
 21
1447.24415962946
 31
0.0
  0
LINE
  5
EED
330
1F
100
AcDbEntity
  8
1
 62
     3
 48
0.4
370
    18
100
AcDbLine
 10
-938.7812307724408
 20
1447.24415962946
 30
0.0
 11
-938.7812307724408
 21
1437.54415962946
 31
0.0
  0
LINE
  5
EEE
330
1F
100
AcDbEntity
  8
1
 62
     3
 48
0.4
370
    18
100
AcDbLine
 10
-932.1812307724403
 20
1419.64415962946
 30
0.0
 11
-932.1812307724403
 21
1435.54415962946
 31
0.0
  0
LINE
  5
EEF
330
1F
100
AcDbEntity
  8
1
 62
     3
 48
0.4
370
    18
100
AcDbLine
 10
-938.7812307724408
 20
1435.54415962946
 30
0.0
 11
-938.7812307724408
 21
1419.64415962946
 31
0.0
  0
LINE
  5
EF0
330
1F
100
AcDbEntity
  8
CEN
 62
     1
 48
3.0
370
    15
100
AcDbLine
 10
-972.4812307724405
 20
1417.64415962946
 30
0.0
 11
-972.4812307724405
 21
1449.24415962946
 31
0.0
  0
LINE
  5
EF1
330
1F
100
AcDbEntity
  8
CEN
 62
     1
 48
3.0
370
    15
100
AcDbLine
 10
-935.4812307724404
 20
1415.863824810224
 30
0.0
 11
-935.4812307724404
 21
1449.24415962946
 31
0.0
  0
LINE
  5
EF3
330
1F
100
AcDbEntity
  8
0
 62
     0
370
    25
100
AcDbLine
 10
-867.7093458254702
 20
1447.24415962946
 30
0.0
 11
-867.7093458254702
 21
1445.24415962946
 31
0.0
  0
LINE
  5
EF4
330
1F
100
AcDbEntity
  8
0
 62
     0
370
    25
100
AcDbLine
 10
-895.7093458254703
 20
1445.24415962946
 30
0.0
 11
-895.7093458254703
 21
1447.24415962946
 31
0.0
  0
LINE
  5
EF5
330
1F
100
AcDbEntity
  8
0
 62
     0
370
    25
100
AcDbLine
 10
-895.7093458254703
 20
1437.54415962946
 30
0.0
 11
-867.7093458254702
 21
1437.54415962946
 31
0.0
  0
LINE
  5
EF6
330
1F
100
AcDbEntity
  8
0
 62
     0
370
    25
100
AcDbLine
 10
-867.7093458254702
 20
1445.24415962946
 30
0.0
 11
-867.7093458254702
 21
1437.54415962946
 31
0.0
  0
LINE
  5
EF7
330
1F
100
AcDbEntity
  8
0
 62
     0
370
    25
100
AcDbLine
 10
-895.7093458254703
 20
1445.24415962946
 30
0.0
 11
-895.7093458254703
 21
1437.54415962946
 31
0.0
  0
LINE
  5
EF8
330
1F
100
AcDbEntity
  8
0
 62
     0
370
    25
100
AcDbLine
 10
-895.7093458254703
 20
1435.54415962946
 30
0.0
 11
-867.7093458254702
 21
1435.54415962946
 31
0.0
  0
LINE
  5
EF9
330
1F
100
AcDbEntity
  8
0
 62
     0
370
    25
100
AcDbLine
 10
-867.7093458254702
 20
1435.54415962946
 30
0.0
 11
-867.7093458254702
 21
1421.64415962946
 31
0.0
  0
LINE
  5
EFA
330
1F
100
AcDbEntity
  8
0
 62
     0
370
    25
100
AcDbLine
 10
-895.7093458254703
 20
1435.54415962946
 30
0.0
 11
-895.7093458254703
 21
1421.64415962946
 31
0.0
  0
LINE
  5
EFB
330
1F
100
AcDbEntity
  8
0
 62
     0
370
    25
100
AcDbLine
 10
-867.7093458254702
 20
1419.64415962946
 30
0.0
 11
-895.7093458254703
 21
1419.64415962946
 31
0.0
  0
LINE
  5
EFC
330
1F
100
AcDbEntity
  8
0
 62
     0
370
    25
100
AcDbLine
 10
-867.7093458254702
 20
1421.64415962946
 30
0.0
 11
-867.7093458254702
 21
1419.64415962946
 31
0.0
  0
LINE
  5
EFD
330
1F
100
AcDbEntity
  8
0
 62
     0
370
    25
100
AcDbLine
 10
-895.7093458254703
 20
1419.64415962946
 30
0.0
 11
-895.7093458254703
 21
1421.64415962946
 31
0.0
  0
LINE
  5
EFE
330
1F
100
AcDbEntity
  8
0
 62
     0
370
    25
100
AcDbLine
 10
-867.7093458254702
 20
1437.54415962946
 30
0.0
 11
-867.7093458254702
 21
1435.54415962946
 31
0.0
  0
LINE
  5
EFF
330
1F
100
AcDbEntity
  8
0
 62
     0
370
    25
100
AcDbLine
 10
-895.7093458254703
 20
1437.54415962946
 30
0.0
 11
-895.7093458254703
 21
1435.54415962946
 31
0.0
  0
LINE
  5
F00
330
1F
100
AcDbEntity
  8
0
 62
     0
370
    25
100
AcDbLine
 10
-895.7093458254703
 20
1453.44415962946
 30
0.0
 11
-867.7093458254702
 21
1453.44415962946
 31
0.0
  0
LINE
  5
F01
330
1F
100
AcDbEntity
  8
0
 62
     0
370
    25
100
AcDbLine
 10
-867.7093458254702
 20
1453.44415962946
 30
0.0
 11
-867.7093458254702
 21
1447.24415962946
 31
0.0
  0
LINE
  5
F02
330
1F
100
AcDbEntity
  8
0
 62
     0
370
    25
100
AcDbLine
 10
-895.7093458254703
 20
1453.44415962946
 30
0.0
 11
-895.7093458254703
 21
1447.24415962946
 31
0.0
  0
LINE
  5
F13
330
1F
100
AcDbEntity
  8
CEN
 62
     1
 48
3.0
370
    15
100
AcDbLine
 10
-897.7093458254703
 20
1436.54415962946
 30
0.0
 11
-865.7093458254703
 21
1436.54415962946
 31
0.0
  0
LINE
  5
F14
330
1F
100
AcDbEntity
  8
CEN
 62
     1
 48
3.0
370
    15
100
AcDbLine
 10
-881.7093458254703
 20
1455.856370021234
 30
0.0
 11
-881.7093458254703
 21
1417.64415962946
 31
0.0
  0
LINE
  5
F15
330
1F
100
AcDbEntity
  8
CEN
 48
3.0
370
    15
100
AcDbLine
 10
-953.9812307724405
 20
1414.064497786946
 30
0.0
 11
-953.9812307724405
 21
1456.185710802497
 31
0.0
  0
LINE
  5
F16
330
1F
100
AcDbEntity
  8
CEN
 48
3.0
370
    15
100
AcDbLine
 10
-925.5721956179058
 20
1436.54415962946
 30
0.0
 11
-984.2432012703538
 21
1436.54415962946
 31
0.0
  0
DIMENSION
  5
F17
330
1F
100
AcDbEntity
  8
AM_5
100
AcDbDimension
  2
*D3
 10
-991.881230772441
 20
1419.64415962946
 30
0.0
 11
-994.6312307724413
 21
1436.54415962946
 31
0.0
 70
    32
 71
     5
 42
33.80000000000018
  3
AM_ISO$0
100
AcDbAlignedDimension
 13
-960.9812307724405
 23
1453.44415962946
 33
0.0
 14
-977.8812307724411
 24
1419.64415962946
 34
0.0
 50
90.0
100
AcDbRotatedDimension
1001
ACAD
1000
DSTYLE
1002
{
1070
   272
1070
     8
1002
}
  0
DIMENSION
  5
F18
330
1F
100
AcDbEntity
  8
AM_5
100
AcDbDimension
  2
*D4
 10
-935.4812307724404
 20
1465.44415962946
 30
0.0
 11
-953.9812307724405
 21
1465.44415962946
 31
0.0
 70
   160
 71
     5
 42
37.0
  3
AM_ISO$0
100
AcDbAlignedDimension
 13
-972.4812307724405
 23
1449.24415962946
 33
0.0
 14
-935.4812307724404
 24
1449.24415962946
 34
0.0
100
AcDbRotatedDimension
1001
ACAD
1000
DSTYLE
1002
{
1070
   272
1070
     8
1002
}
  0
DIMENSION
  5
F19
330
1F
100
AcDbEntity
  8
AM_5
100
AcDbDimension
  2
*D5
 10
-928.0812307724408
 20
1407.64415962946
 30
0.0
 11
-953.981230772441
 21
1410.39415962946
 31
0.0
 70
    32
 71
     5
 42
51.80000000000018
  3
AM_ISO$0
100
AcDbAlignedDimension
 13
-979.8812307724411
 23
1421.64415962946
 33
0.0
 14
-928.0812307724408
 24
1421.64415962946
 34
0.0
100
AcDbRotatedDimension
1001
ACAD
1000
DSTYLE
1002
{
1070
   272
1070
     8
1002
}
  0
DIMENSION
  5
F1C
330
1F
100
AcDbEntity
  8
AM_5
100
AcDbDimension
  2
*D6
 10
-867.7093458254702
 20
1407.64415962946
 30
0.0
 11
-881.7093458254703
 21
1410.394504117649
 31
0.0
 70
    32
 71
     5
 42
28.0
  3
AM_ISO$0
100
AcDbAlignedDimension
 13
-895.7093458254703
 23
1419.64415962946
 33
0.0
 14
-867.7093458254702
 24
1419.64415962946
 34
0.0
100
AcDbRotatedDimension
1001
ACAD
1000
DSTYLE
1002
{
1070
   272
1070
     8
1002
}
  0
LINE
  5
F1F
330
1F
100
AcDbEntity
  8
0
370
    25
100
AcDbLine
 10
-1115.411426002453
 20
1258.726165093843
 30
0.0
 11
-1036.411433393429
 21
1258.726165283832
 31
0.0
  0
LINE
  5
F20
330
1F
100
AcDbEntity
  8
0
370
    25
100
AcDbLine
 10
-1036.411433393429
 20
1266.726165283832
 30
0.0
 11
-1115.411426002453
 21
1266.726165473822
 31
0.0
  0
ARC
  5
F21
330
1F
100
AcDbEntity
  8
0
370
    25
100
AcDbCircle
 10
-1043.911433393429
 20
1262.726165283832
 30
0.0
 40
8.49999999999995
100
AcDbArc
 50
331.9275130641492
 51
0.0
  0
ARC
  5
F22
330
1F
100
AcDbEntity
  8
0
370
    25
100
AcDbCircle
 10
-1043.911433393429
 20
1262.726165283832
 30
0.0
 40
8.49999999999995
100
AcDbArc
 50
0.0
 51
28.07248693585086
  0
LINE
  5
F23
330
1F
100
AcDbEntity
  8
0
370
    25
100
AcDbLine
 10
-1118.411433393429
 20
1250.726165283832
 30
0.0
 11
-1115.411433393429
 21
1250.726165283832
 31
0.0
  0
LINE
  5
F24
330
1F
100
AcDbEntity
  8
0
370
    25
100
AcDbLine
 10
-1115.411433393429
 20
1274.726165283832
 30
0.0
 11
-1118.411433393429
 21
1274.726165283832
 31
0.0
  0
LINE
  5
F25
330
1F
100
AcDbEntity
  8
0
370
    25
100
AcDbLine
 10
-1378.814132945905
 20
1249.076165188465
 30
0.0
 11
-1374.911433393429
 21
1249.076165283832
 31
0.0
  0
LINE
  5
F26
330
1F
100
AcDbEntity
  8
0
370
    25
100
AcDbLine
 10
-1385.011433393428
 20
1249.076165283832
 30
0.0
 11
-1382.985256674061
 21
1249.076165188465
 31
0.0
  0
LINE
  5
F27
330
1F
100
AcDbEntity
  8
0
370
    25
100
AcDbLine
 10
-1374.911433393429
 20
1276.376165283832
 30
0.0
 11
-1385.011433393428
 21
1276.376165283832
 31
0.0
  0
LINE
  5
F28
330
1F
100
AcDbEntity
  8
0
370
    25
100
AcDbLine
 10
-1385.011433393428
 20
1276.376165283832
 30
0.0
 11
-1385.411433393429
 21
1275.976165283832
 31
0.0
  0
LINE
  5
F29
330
1F
100
AcDbEntity
  8
0
370
    25
100
AcDbLine
 10
-1385.411433393429
 20
1249.476165283832
 30
0.0
 11
-1385.011433393428
 21
1249.076165283832
 31
0.0
  0
LINE
  5
F2A
330
1F
100
AcDbEntity
  8
0
370
    25
100
AcDbLine
 10
-1374.91143338039
 20
1249.426165525231
 30
0.0
 11
-1371.911433393429
 21
1249.726165283832
 31
0.0
  0
LINE
  5
F2B
330
1F
100
AcDbEntity
  8
0
370
    25
100
AcDbLine
 10
-1371.911433393429
 20
1275.726165283832
 30
0.0
 11
-1374.91143338039
 21
1276.026165042434
 31
0.0
  0
LINE
  5
F2C
330
1F
100
AcDbEntity
  8
0
370
    25
100
AcDbLine
 10
-1118.611433393429
 20
1250.726165283832
 30
0.0
 11
-1118.411446983288
 21
1250.926164839778
 31
0.0
  0
LINE
  5
F2D
330
1F
100
AcDbEntity
  8
0
370
    25
100
AcDbLine
 10
-1118.411446983288
 20
1274.526165727887
 30
0.0
 11
-1118.611433393429
 21
1274.726165283832
 31
0.0
  0
LINE
  5
F2E
330
1F
100
AcDbEntity
  8
0
370
    25
100
AcDbLine
 10
-1135.061433393429
 20
1250.726165283832
 30
0.0
 11
-1118.611433393429
 21
1250.726165283832
 31
0.0
  0
LINE
  5
F2F
330
1F
100
AcDbEntity
  8
0
370
    25
100
AcDbLine
 10
-1118.611433393429
 20
1274.726165283832
 30
0.0
 11
-1135.061433393429
 21
1274.726165283832
 31
0.0
  0
LINE
  5
F30
330
1F
100
AcDbEntity
  8
0
370
    25
100
AcDbLine
 10
-1159.061433393429
 20
1250.726165283832
 30
0.0
 11
-1136.411433393429
 21
1250.726165283832
 31
0.0
  0
LINE
  5
F31
330
1F
100
AcDbEntity
  8
0
370
    25
100
AcDbLine
 10
-1136.411433393429
 20
1274.726165283832
 30
0.0
 11
-1159.061433393429
 21
1274.726165283832
 31
0.0
  0
LINE
  5
F32
330
1F
100
AcDbEntity
  8
0
370
    25
100
AcDbLine
 10
-1371.911433587144
 20
1250.726165179524
 30
0.0
 11
-1160.411433393429
 21
1250.726165283832
 31
0.0
  0
LINE
  5
F33
330
1F
100
AcDbEntity
  8
0
370
    25
100
AcDbLine
 10
-1160.411433393429
 20
1274.726165283832
 30
0.0
 11
-1371.911433587144
 21
1274.72616538814
 31
0.0
  0
LINE
  5
F34
330
1F
100
AcDbEntity
  8
0
370
    25
100
AcDbLine
 10
-1136.411438757847
 20
1251.276165176544
 30
0.0
 11
-1135.061438257168
 21
1251.276165176544
 31
0.0
  0
LINE
  5
F35
330
1F
100
AcDbEntity
  8
0
370
    25
100
AcDbLine
 10
-1135.061438257168
 20
1274.176165391121
 30
0.0
 11
-1136.411438757847
 21
1274.176165391121
 31
0.0
  0
LINE
  5
F36
330
1F
100
AcDbEntity
  8
0
370
    25
100
AcDbLine
 10
-1160.411427790592
 20
1251.276165176544
 30
0.0
 11
-1159.061427289913
 21
1251.276165176544
 31
0.0
  0
LINE
  5
F37
330
1F
100
AcDbEntity
  8
0
370
    25
100
AcDbLine
 10
-1159.061427289913
 20
1274.176165391121
 30
0.0
 11
-1160.411427790592
 21
1274.176165391121
 31
0.0
  0
LINE
  5
F38
330
1F
100
AcDbEntity
  8
0
370
    25
100
AcDbLine
 10
-1036.411433393429
 20
1262.726165283832
 30
0.0
 11
-1036.411433393429
 21
1266.726165283832
 31
0.0
  0
LINE
  5
F39
330
1F
100
AcDbEntity
  8
0
370
    25
100
AcDbLine
 10
-1036.411433393429
 20
1258.726165283832
 30
0.0
 11
-1036.411433393429
 21
1262.726165283832
 31
0.0
  0
LINE
  5
F3A
330
1F
100
AcDbEntity
  8
0
370
    25
100
AcDbLine
 10
-1118.411433393429
 20
1262.726165283832
 30
0.0
 11
-1118.411433393429
 21
1274.726165283832
 31
0.0
  0
LINE
  5
F3B
330
1F
100
AcDbEntity
  8
0
370
    25
100
AcDbLine
 10
-1118.411433393429
 20
1250.726165283832
 30
0.0
 11
-1118.411433393429
 21
1262.726165283832
 31
0.0
  0
LINE
  5
F3C
330
1F
100
AcDbEntity
  8
0
370
    25
100
AcDbLine
 10
-1115.411433393429
 20
1262.726165283832
 30
0.0
 11
-1115.411433393429
 21
1274.726165283832
 31
0.0
  0
LINE
  5
F3D
330
1F
100
AcDbEntity
  8
0
370
    25
100
AcDbLine
 10
-1115.411433393429
 20
1250.726165283832
 30
0.0
 11
-1115.411433393429
 21
1262.726165283832
 31
0.0
  0
LINE
  5
F3E
330
1F
100
AcDbEntity
  8
0
370
    25
100
AcDbLine
 10
-1374.911433393429
 20
1262.726165283832
 30
0.0
 11
-1374.911433393429
 21
1276.376165283832
 31
0.0
  0
LINE
  5
F3F
330
1F
100
AcDbEntity
  8
0
370
    25
100
AcDbLine
 10
-1374.911433393429
 20
1249.076165283832
 30
0.0
 11
-1374.911433393429
 21
1262.726165283832
 31
0.0
  0
LWPOLYLINE
  5
F41
330
1F
100
AcDbEntity
  8
0
370
    25
100
AcDbPolyline
 90
       12
 70
   128
 43
0.0
 10
-1382.985256674061
 20
1249.080154974375
 10
-1382.998660734216
 20
1249.078124691162
 10
-1382.808039026628
 20
1249.105974030111
 10
-1382.407400818835
 20
1249.155961837981
 10
-1381.834735689978
 20
1249.207105417166
 10
-1381.156038554678
 20
1249.236453254137
 10
-1380.45615522779
 20
1249.230989184592
 10
-1379.810946822459
 20
1249.193849902961
 10
-1379.283772610421
 20
1249.140813876304
 10
-1378.935540389563
 20
1249.094706889603
 10
-1378.81149753585
 20
1249.076175433013
 10
-1378.814132945905
 20
1249.076570313785
  0
LINE
  5
F42
330
1F
100
AcDbEntity
  8
0
370
    25
100
AcDbLine
 10
-1385.411433393429
 20
1249.476165283832
 30
0.0
 11
-1385.411433393429
 21
1275.976165283832
 31
0.0
  0
LINE
  5
F43
330
1F
100
AcDbEntity
  8
0
370
    25
100
AcDbLine
 10
-1371.911433393429
 20
1262.726165283832
 30
0.0
 11
-1371.911433393429
 21
1275.726165283832
 31
0.0
  0
LINE
  5
F44
330
1F
100
AcDbEntity
  8
0
370
    25
100
AcDbLine
 10
-1371.911433393429
 20
1249.726165283832
 30
0.0
 11
-1371.911433393429
 21
1262.726165283832
 31
0.0
  0
LINE
  5
F45
330
1F
100
AcDbEntity
  8
0
370
    25
100
AcDbLine
 10
-1118.611433393429
 20
1262.726165283832
 30
0.0
 11
-1118.611433393429
 21
1274.726165283832
 31
0.0
  0
LINE
  5
F46
330
1F
100
AcDbEntity
  8
0
370
    25
100
AcDbLine
 10
-1118.611433393429
 20
1250.726165283832
 30
0.0
 11
-1118.611433393429
 21
1262.726165283832
 31
0.0
  0
LINE
  5
F47
330
1F
100
AcDbEntity
  8
0
370
    25
100
AcDbLine
 10
-1135.061433393429
 20
1262.726165283832
 30
0.0
 11
-1135.061433393429
 21
1274.726165283832
 31
0.0
  0
LINE
  5
F48
330
1F
100
AcDbEntity
  8
0
370
    25
100
AcDbLine
 10
-1135.061433393429
 20
1250.726165283832
 30
0.0
 11
-1135.061433393429
 21
1262.726165283832
 31
0.0
  0
LINE
  5
F49
330
1F
100
AcDbEntity
  8
0
370
    25
100
AcDbLine
 10
-1159.061433393429
 20
1262.726165283832
 30
0.0
 11
-1159.061433393429
 21
1274.726165283832
 31
0.0
  0
LINE
  5
F4A
330
1F
100
AcDbEntity
  8
0
370
    25
100
AcDbLine
 10
-1159.061433393429
 20
1250.726165283832
 30
0.0
 11
-1159.061433393429
 21
1262.726165283832
 31
0.0
  0
LINE
  5
F4B
330
1F
100
AcDbEntity
  8
0
370
    25
100
AcDbLine
 10
-1136.411433393429
 20
1262.726165283832
 30
0.0
 11
-1136.411433393429
 21
1274.726165283832
 31
0.0
  0
LINE
  5
F4C
330
1F
100
AcDbEntity
  8
0
370
    25
100
AcDbLine
 10
-1136.411433393429
 20
1250.726165283832
 30
0.0
 11
-1136.411433393429
 21
1262.726165283832
 31
0.0
  0
LINE
  5
F4D
330
1F
100
AcDbEntity
  8
0
370
    25
100
AcDbLine
 10
-1160.411433393429
 20
1262.726165283832
 30
0.0
 11
-1160.411433393429
 21
1274.726165283832
 31
0.0
  0
LINE
  5
F4E
330
1F
100
AcDbEntity
  8
0
370
    25
100
AcDbLine
 10
-1160.411433393429
 20
1250.726165283832
 30
0.0
 11
-1160.411433393429
 21
1262.726165283832
 31
0.0
  0
LINE
  5
F4F
330
1F
100
AcDbEntity
  8
CEN
 48
5.0
370
    15
100
AcDbLine
 10
-1387.411433393429
 20
1262.726165283832
 30
0.0
 11
-1033.411433393429
 21
1262.726165283832
 31
0.0
  0
LINE
  5
F50
330
1F
100
AcDbEntity
  8
CEN
370
    15
100
AcDbLine
 10
-1380.911433393429
 20
1253.17216903831
 30
0.0
 11
-1380.911433393429
 21
1247.238671051815
 31
0.0
  0
DIMENSION
  5
F51
330
1F
100
AcDbEntity
  8
AM_5
100
AcDbDimension
  2
*D7
 10
-1115.411433393429
 20
1238.726165231678
 30
0.0
 11
-1125.911433393429
 21
1241.476509719867
 31
0.0
 70
    32
 71
     5
 42
21.0
  3
AM_ISO$0
100
AcDbAlignedDimension
 13
-1136.411433393429
 23
1250.726165283832
 33
0.0
 14
-1115.411433393429
 24
1250.726165283832
 34
0.0
100
AcDbRotatedDimension
1001
ACAD
1000
DSTYLE
1002
{
1070
   272
1070
     8
1002
}
  0
DIMENSION
  5
F52
330
1F
100
AcDbEntity
  8
AM_5
100
AcDbDimension
  2
*D8
 10
-1136.411433393429
 20
1238.726165231678
 30
0.0
 11
-1148.411433393429
 21
1241.476509719867
 31
0.0
 70
    32
 71
     5
 42
24.0
  3
AM_ISO$0
100
AcDbAlignedDimension
 13
-1160.411433393429
 23
1250.726165283832
 33
0.0
 14
-1136.411433393429
 24
1250.726165283832
 34
0.0
100
AcDbRotatedDimension
1001
ACAD
1000
DSTYLE
1002
{
1070
   272
1070
     8
1002
}
  0
DIMENSION
  5
F53
330
1F
100
AcDbEntity
  8
AM_5
100
AcDbDimension
  2
*D9
 10
-1035.411433393429
 20
1222.726165231678
 30
0.0
 11
-1210.411433393429
 21
1222.726165231678
 31
0.0
 70
   160
 71
     5
 42
350.0
  3
AM_ISO$0
100
AcDbAlignedDimension
 13
-1385.411433393429
 23
1249.476165283832
 33
0.0
 14
-1035.411433393429
 24
1262.726165283832
 34
0.0
100
AcDbRotatedDimension
1001
ACAD
1000
DSTYLE
1002
{
1070
   272
1070
     8
1002
}
  0
DIMENSION
  5
F54
330
1F
100
AcDbEntity
  8
AM_5
100
AcDbDimension
  2
*D10
 10
-1115.411433393429
 20
1230.726165231678
 30
0.0
 11
-1250.411433393429
 21
1233.476509719867
 31
0.0
 70
    32
 71
     5
 42
270.0
  3
AM_ISO$0
100
AcDbAlignedDimension
 13
-1385.411433393429
 23
1249.476165283832
 33
0.0
 14
-1115.411433393429
 24
1250.726165283832
 34
0.0
100
AcDbRotatedDimension
1001
ACAD
1000
DSTYLE
1002
{
1070
   272
1070
     8
1002
}
  0
DIMENSION
  5
F55
330
1F
100
AcDbEntity
  8
AM_5
100
AcDbDimension
  2
*D11
 10
-1035.411433393429
 20
1238.726165231678
 30
0.0
 11
-1075.411433393429
 21
1241.476165231678
 31
0.0
 70
    32
 71
     5
 42
80.0
  3
AM_ISO$0
100
AcDbAlignedDimension
 13
-1115.411433393429
 23
1250.726165283832
 33
0.0
 14
-1035.411433393429
 24
1262.726165283832
 34
0.0
100
AcDbRotatedDimension
1001
ACAD
1000
DSTYLE
1002
{
1070
   272
1070
     8
1002
}
  0
DIMENSION
  5
F56
330
1F
100
AcDbEntity
  8
AM_5
100
AcDbDimension
  2
*D12
 10
-1023.411433393428
 20
1258.726165283832
 30
0.0
 11
-1023.411433393429
 21
1262.726165283832
 31
0.0
 70
   160
  1
%%c<>
 71
     5
 42
8.0
  3
AM_ISO$0
100
AcDbAlignedDimension
 13
-1036.411433393429
 23
1266.726165283832
 33
0.0
 14
-1036.411433393429
 24
1258.726165283832
 34
0.0
 50
90.0
100
AcDbRotatedDimension
1001
ACAD
1000
DSTYLE
1002
{
1070
   272
1070
     8
1002
}
  0
DIMENSION
  5
F57
330
1F
100
AcDbEntity
  8
AM_5
100
AcDbDimension
  2
*D13
 10
-1015.411433393428
 20
1250.726165283832
 30
0.0
 11
-1015.411433393429
 21
1262.726165283833
 31
0.0
 70
   160
  1
%%c<>
 71
     5
 42
24.0
  3
AM_ISO$0
100
AcDbAlignedDimension
 13
-1115.411433393429
 23
1274.726165283832
 33
0.0
 14
-1115.411433393429
 24
1250.726165283832
 34
0.0
 50
90.0
100
AcDbRotatedDimension
1001
ACAD
1000
DSTYLE
1002
{
1070
   272
1070
     8
1002
}
  0
DIMENSION
  5
F58
330
1F
100
AcDbEntity
  8
AM_5
100
AcDbDimension
  2
*D14
 10
-1397.411433393429
 20
1249.076165283832
 30
0.0
 11
-1400.161777881618
 21
1262.726165283831
 31
0.0
 70
    32
  1
%%c<>
 71
     5
 42
27.30000000000018
  3
AM_ISO$0
100
AcDbAlignedDimension
 13
-1385.011433393428
 23
1276.376165283832
 33
0.0
 14
-1385.011433393428
 24
1249.076165283832
 34
0.0
 50
90.0
100
AcDbRotatedDimension
1001
ACAD
1000
DSTYLE
1002
{
1070
   272
1070
     8
1002
}
  0
ARC
  5
F59
330
1F
100
AcDbEntity
  8
0
370
    25
100
AcDbCircle
 10
-999.9436078212925
 20
1160.222692116392
 30
0.0
 40
8.500000000000056
100
AcDbArc
 50
331.9275130641492
 51
0.0
  0
ARC
  5
F5A
330
1F
100
AcDbEntity
  8
0
370
    25
100
AcDbCircle
 10
-999.9436078212925
 20
1160.222692116392
 30
0.0
 40
8.500000000000056
100
AcDbArc
 50
0.0
 51
28.07248693585086
  0
LINE
  5
F5B
330
1F
100
AcDbEntity
  8
0
370
    25
100
AcDbLine
 10
-1091.443607344455
 20
1156.222691926402
 30
0.0
 11
-992.4436078212925
 21
1156.222692116392
 31
0.0
  0
LINE
  5
F5C
330
1F
100
AcDbEntity
  8
0
370
    25
100
AcDbLine
 10
-992.4436078212925
 20
1164.222692116392
 30
0.0
 11
-1091.443607344455
 21
1164.222692306382
 31
0.0
  0
LINE
  5
F5D
330
1F
100
AcDbEntity
  8
0
370
    25
100
AcDbLine
 10
-1094.443607821292
 20
1148.222692116392
 30
0.0
 11
-1091.443607821292
 21
1148.222692116392
 31
0.0
  0
LINE
  5
F5E
330
1F
100
AcDbEntity
  8
0
370
    25
100
AcDbLine
 10
-1091.443607821292
 20
1172.222692116392
 30
0.0
 11
-1094.443607821292
 21
1172.222692116392
 31
0.0
  0
LINE
  5
F5F
330
1F
100
AcDbEntity
  8
0
370
    25
100
AcDbLine
 10
-1380.846307373769
 20
1146.572692021024
 30
0.0
 11
-1376.943607821292
 21
1146.572692116392
 31
0.0
  0
LINE
  5
F60
330
1F
100
AcDbEntity
  8
0
370
    25
100
AcDbLine
 10
-1387.043607821293
 20
1146.572692116392
 30
0.0
 11
-1385.017431101925
 21
1146.572692021024
 31
0.0
  0
LINE
  5
F61
330
1F
100
AcDbEntity
  8
0
370
    25
100
AcDbLine
 10
-1376.943607821292
 20
1173.872692116392
 30
0.0
 11
-1387.043607821293
 21
1173.872692116392
 31
0.0
  0
LINE
  5
F62
330
1F
100
AcDbEntity
  8
0
370
    25
100
AcDbLine
 10
-1387.043607821293
 20
1173.872692116392
 30
0.0
 11
-1387.443607821292
 21
1173.472692116392
 31
0.0
  0
LINE
  5
F63
330
1F
100
AcDbEntity
  8
0
370
    25
100
AcDbLine
 10
-1387.443607821292
 20
1146.972692116392
 30
0.0
 11
-1387.043607821293
 21
1146.572692116392
 31
0.0
  0
LINE
  5
F64
330
1F
100
AcDbEntity
  8
0
370
    25
100
AcDbLine
 10
-1376.943607808254
 20
1146.922692357791
 30
0.0
 11
-1373.943607821292
 21
1147.222692116392
 31
0.0
  0
LINE
  5
F65
330
1F
100
AcDbEntity
  8
0
370
    25
100
AcDbLine
 10
-1373.943607821292
 20
1173.222692116392
 30
0.0
 11
-1376.943607808254
 21
1173.522691874993
 31
0.0
  0
LINE
  5
F66
330
1F
100
AcDbEntity
  8
0
370
    25
100
AcDbLine
 10
-1111.093607821292
 20
1148.222692116392
 30
0.0
 11
-1094.643607821292
 21
1148.222692116392
 31
0.0
  0
LINE
  5
F67
330
1F
100
AcDbEntity
  8
0
370
    25
100
AcDbLine
 10
-1094.643607821292
 20
1172.222692116392
 30
0.0
 11
-1111.093607821292
 21
1172.222692116392
 31
0.0
  0
LINE
  5
F68
330
1F
100
AcDbEntity
  8
0
370
    25
100
AcDbLine
 10
-1094.643607821292
 20
1148.222692116392
 30
0.0
 11
-1094.443598522968
 21
1148.422691672337
 31
0.0
  0
LINE
  5
F69
330
1F
100
AcDbEntity
  8
0
370
    25
100
AcDbLine
 10
-1094.443598522968
 20
1172.022692560446
 30
0.0
 11
-1094.643607821292
 21
1172.222692116392
 31
0.0
  0
LINE
  5
F6A
330
1F
100
AcDbEntity
  8
0
370
    25
100
AcDbLine
 10
-1135.093607821292
 20
1148.222692116392
 30
0.0
 11
-1112.443607821292
 21
1148.222692116392
 31
0.0
  0
LINE
  5
F6B
330
1F
100
AcDbEntity
  8
0
370
    25
100
AcDbLine
 10
-1112.443607821292
 20
1172.222692116392
 30
0.0
 11
-1135.093607821292
 21
1172.222692116392
 31
0.0
  0
LINE
  5
F6C
330
1F
100
AcDbEntity
  8
0
370
    25
100
AcDbLine
 10
-1373.943608015008
 20
1148.222692012084
 30
0.0
 11
-1136.443607821292
 21
1148.222692116392
 31
0.0
  0
LINE
  5
F6D
330
1F
100
AcDbEntity
  8
0
370
    25
100
AcDbLine
 10
-1136.443607821292
 20
1172.222692116392
 30
0.0
 11
-1373.943608015008
 21
1172.2226922207
 31
0.0
  0
LINE
  5
F6E
330
1F
100
AcDbEntity
  8
0
370
    25
100
AcDbLine
 10
-1112.443605198688
 20
1148.772692009103
 30
0.0
 11
-1111.09361959917
 21
1148.772692009103
 31
0.0
  0
LINE
  5
F6F
330
1F
100
AcDbEntity
  8
0
370
    25
100
AcDbLine
 10
-1111.09361959917
 20
1171.67269222368
 30
0.0
 11
-1112.443605198688
 21
1171.67269222368
 31
0.0
  0
LINE
  5
F70
330
1F
100
AcDbEntity
  8
0
370
    25
100
AcDbLine
 10
-1136.443609132594
 20
1148.772692009103
 30
0.0
 11
-1135.093608631915
 21
1148.772692009103
 31
0.0
  0
LINE
  5
F71
330
1F
100
AcDbEntity
  8
0
370
    25
100
AcDbLine
 10
-1135.093608631915
 20
1171.67269222368
 30
0.0
 11
-1136.443609132594
 21
1171.67269222368
 31
0.0
  0
LINE
  5
F72
330
1F
100
AcDbEntity
  8
0
370
    25
100
AcDbLine
 10
-992.4436078212925
 20
1160.222692116392
 30
0.0
 11
-992.4436078212925
 21
1164.222692116392
 31
0.0
  0
LINE
  5
F73
330
1F
100
AcDbEntity
  8
0
370
    25
100
AcDbLine
 10
-992.4436078212925
 20
1156.222692116392
 30
0.0
 11
-992.4436078212925
 21
1160.222692116392
 31
0.0
  0
LINE
  5
F74
330
1F
100
AcDbEntity
  8
0
370
    25
100
AcDbLine
 10
-1094.443607821292
 20
1160.222692116392
 30
0.0
 11
-1094.443607821292
 21
1172.222692116392
 31
0.0
  0
LINE
  5
F75
330
1F
100
AcDbEntity
  8
0
370
    25
100
AcDbLine
 10
-1094.443607821292
 20
1148.222692116392
 30
0.0
 11
-1094.443607821292
 21
1160.222692116392
 31
0.0
  0
LINE
  5
F76
330
1F
100
AcDbEntity
  8
0
370
    25
100
AcDbLine
 10
-1091.443607821292
 20
1160.222692116392
 30
0.0
 11
-1091.443607821292
 21
1172.222692116392
 31
0.0
  0
LINE
  5
F77
330
1F
100
AcDbEntity
  8
0
370
    25
100
AcDbLine
 10
-1091.443607821292
 20
1148.222692116392
 30
0.0
 11
-1091.443607821292
 21
1160.222692116392
 31
0.0
  0
LINE
  5
F78
330
1F
100
AcDbEntity
  8
0
370
    25
100
AcDbLine
 10
-1376.943607821292
 20
1160.222692116392
 30
0.0
 11
-1376.943607821292
 21
1173.872692116392
 31
0.0
  0
LINE
  5
F79
330
1F
100
AcDbEntity
  8
0
370
    25
100
AcDbLine
 10
-1376.943607821292
 20
1146.572692116392
 30
0.0
 11
-1376.943607821292
 21
1160.222692116392
 31
0.0
  0
LWPOLYLINE
  5
F7B
330
1F
100
AcDbEntity
  8
0
370
    25
100
AcDbPolyline
 90
       12
 70
   128
 43
0.0
 10
-1385.017431101925
 20
1146.576681806934
 10
-1385.03083516208
 20
1146.574651523721
 10
-1384.840213454492
 20
1146.60250086267
 10
-1384.439575246698
 20
1146.65248867054
 10
-1383.866910117842
 20
1146.703632249725
 10
-1383.188212982542
 20
1146.732980086696
 10
-1382.488329655654
 20
1146.727516017151
 10
-1381.843121250323
 20
1146.69037673552
 10
-1381.315947038285
 20
1146.637340708864
 10
-1380.967714817426
 20
1146.591233722162
 10
-1380.843671963713
 20
1146.572702265573
 10
-1380.846307373769
 20
1146.573097146344
  0
LINE
  5
F7C
330
1F
100
AcDbEntity
  8
0
370
    25
100
AcDbLine
 10
-1387.443607821292
 20
1146.972692116392
 30
0.0
 11
-1387.443607821292
 21
1173.472692116392
 31
0.0
  0
LINE
  5
F7D
330
1F
100
AcDbEntity
  8
0
370
    25
100
AcDbLine
 10
-1373.943607821292
 20
1160.222692116392
 30
0.0
 11
-1373.943607821292
 21
1173.222692116392
 31
0.0
  0
LINE
  5
F7E
330
1F
100
AcDbEntity
  8
0
370
    25
100
AcDbLine
 10
-1373.943607821292
 20
1147.222692116392
 30
0.0
 11
-1373.943607821292
 21
1160.222692116392
 31
0.0
  0
LINE
  5
F7F
330
1F
100
AcDbEntity
  8
0
370
    25
100
AcDbLine
 10
-1111.093607821292
 20
1160.222692116392
 30
0.0
 11
-1111.093607821292
 21
1172.222692116392
 31
0.0
  0
LINE
  5
F80
330
1F
100
AcDbEntity
  8
0
370
    25
100
AcDbLine
 10
-1111.093607821292
 20
1148.222692116392
 30
0.0
 11
-1111.093607821292
 21
1160.222692116392
 31
0.0
  0
LINE
  5
F81
330
1F
100
AcDbEntity
  8
0
370
    25
100
AcDbLine
 10
-1094.643607821292
 20
1160.222692116392
 30
0.0
 11
-1094.643607821292
 21
1172.222692116392
 31
0.0
  0
LINE
  5
F82
330
1F
100
AcDbEntity
  8
0
370
    25
100
AcDbLine
 10
-1094.643607821292
 20
1148.222692116392
 30
0.0
 11
-1094.643607821292
 21
1160.222692116392
 31
0.0
  0
LINE
  5
F83
330
1F
100
AcDbEntity
  8
0
370
    25
100
AcDbLine
 10
-1135.093607821292
 20
1160.222692116392
 30
0.0
 11
-1135.093607821292
 21
1172.222692116392
 31
0.0
  0
LINE
  5
F84
330
1F
100
AcDbEntity
  8
0
370
    25
100
AcDbLine
 10
-1135.093607821292
 20
1148.222692116392
 30
0.0
 11
-1135.093607821292
 21
1160.222692116392
 31
0.0
  0
LINE
  5
F85
330
1F
100
AcDbEntity
  8
0
370
    25
100
AcDbLine
 10
-1112.443607821292
 20
1160.222692116392
 30
0.0
 11
-1112.443607821292
 21
1172.222692116392
 31
0.0
  0
LINE
  5
F86
330
1F
100
AcDbEntity
  8
0
370
    25
100
AcDbLine
 10
-1112.443607821292
 20
1148.222692116392
 30
0.0
 11
-1112.443607821292
 21
1160.222692116392
 31
0.0
  0
LINE
  5
F87
330
1F
100
AcDbEntity
  8
0
370
    25
100
AcDbLine
 10
-1136.443607821292
 20
1160.222692116392
 30
0.0
 11
-1136.443607821292
 21
1172.222692116392
 31
0.0
  0
LINE
  5
F88
330
1F
100
AcDbEntity
  8
0
370
    25
100
AcDbLine
 10
-1136.443607821292
 20
1148.222692116392
 30
0.0
 11
-1136.443607821292
 21
1160.222692116392
 31
0.0
  0
LINE
  5
F89
330
1F
100
AcDbEntity
  8
CEN
370
    15
100
AcDbLine
 10
-1382.943607821292
 20
1150.66869587087
 30
0.0
 11
-1382.943607821292
 21
1144.735197884374
 31
0.0
  0
LINE
  5
F8A
330
1F
100
AcDbEntity
  8
CEN
 48
5.0
370
    15
100
AcDbLine
 10
-1389.443607821292
 20
1160.222692116392
 30
0.0
 11
-989.4436078212924
 21
1160.222692116392
 31
0.0
  0
DIMENSION
  5
F8B
330
1F
100
AcDbEntity
  8
AM_5
100
AcDbDimension
  2
*D15
 10
-1399.443607821292
 20
1146.572692116392
 30
0.0
 11
-1402.193952309482
 21
1160.222692116391
 31
0.0
 70
    32
  1
%%c<>
 71
     5
 42
27.29999999999973
  3
AM_ISO$0
100
AcDbAlignedDimension
 13
-1387.043607821293
 23
1173.872692116392
 33
0.0
 14
-1387.043607821293
 24
1146.572692116392
 34
0.0
 50
90.0
100
AcDbRotatedDimension
1001
ACAD
1000
DSTYLE
1002
{
1070
   272
1070
     8
1002
}
  0
DIMENSION
  5
F8C
330
1F
100
AcDbEntity
  8
AM_5
100
AcDbDimension
  2
*D16
 10
-1091.443607821292
 20
1136.222692116392
 30
0.0
 11
-1101.943607821292
 21
1138.973036604581
 31
0.0
 70
    32
 71
     5
 42
21.0
  3
AM_ISO$0
100
AcDbAlignedDimension
 13
-1112.443607821292
 23
1148.222692116392
 33
0.0
 14
-1091.443607821292
 24
1148.222692116392
 34
0.0
100
AcDbRotatedDimension
1001
ACAD
1000
DSTYLE
1002
{
1070
   272
1070
     8
1002
}
  0
DIMENSION
  5
F8D
330
1F
100
AcDbEntity
  8
AM_5
100
AcDbDimension
  2
*D17
 10
-1112.443607821292
 20
1136.222692116392
 30
0.0
 11
-1124.443607821292
 21
1138.973036604581
 31
0.0
 70
    32
 71
     5
 42
24.0
  3
AM_ISO$0
100
AcDbAlignedDimension
 13
-1136.443607821292
 23
1148.222692116392
 33
0.0
 14
-1112.443607821292
 24
1148.222692116392
 34
0.0
100
AcDbRotatedDimension
1001
ACAD
1000
DSTYLE
1002
{
1070
   272
1070
     8
1002
}
  0
DIMENSION
  5
F8E
330
1F
100
AcDbEntity
  8
AM_5
100
AcDbDimension
  2
*D18
 10
-991.4436078212926
 20
1136.222692116392
 30
0.0
 11
-1041.443607821292
 21
1138.972692116392
 31
0.0
 70
    32
 71
     5
 42
100.0
  3
AM_ISO$0
100
AcDbAlignedDimension
 13
-1091.443607821292
 23
1148.222692116392
 33
0.0
 14
-991.4436078212926
 24
1160.222692116392
 34
0.0
100
AcDbRotatedDimension
1001
ACAD
1000
DSTYLE
1002
{
1070
   272
1070
     8
1002
}
  0
DIMENSION
  5
F8F
330
1F
100
AcDbEntity
  8
AM_5
100
AcDbDimension
  2
*D19
 10
-1091.443607821292
 20
1128.222692116392
 30
0.0
 11
-1239.443607821292
 21
1128.222692116392
 31
0.0
 70
   160
 71
     5
 42
296.0
  3
AM_ISO$0
100
AcDbAlignedDimension
 13
-1387.443607821292
 23
1146.972692116392
 33
0.0
 14
-1091.443607821292
 24
1148.222692116392
 34
0.0
100
AcDbRotatedDimension
1001
ACAD
1000
DSTYLE
1002
{
1070
   272
1070
     8
1002
}
  0
DIMENSION
  5
F90
330
1F
100
AcDbEntity
  8
AM_5
100
AcDbDimension
  2
*D20
 10
-991.4436078212926
 20
1120.222692116392
 30
0.0
 11
-1189.443607821292
 21
1122.972692116392
 31
0.0
 70
    32
 71
     5
 42
396.0
  3
AM_ISO$0
100
AcDbAlignedDimension
 13
-1387.443607821292
 23
1146.972692116392
 33
0.0
 14
-991.4436078212926
 24
1160.222692116392
 34
0.0
100
AcDbRotatedDimension
1001
ACAD
1000
DSTYLE
1002
{
1070
   272
1070
     8
1002
}
  0
DIMENSION
  5
F91
330
1F
100
AcDbEntity
  8
AM_5
100
AcDbDimension
  2
*D21
 10
-979.4436078212925
 20
1156.222692116392
 30
0.0
 11
-979.4436078212926
 21
1160.222692116391
 31
0.0
 70
   160
  1
%%c<>
 71
     5
 42
7.999999999999545
  3
AM_ISO$0
100
AcDbAlignedDimension
 13
-992.4436078212925
 23
1164.222692116391
 33
0.0
 14
-992.4436078212925
 24
1156.222692116392
 34
0.0
 50
90.0
100
AcDbRotatedDimension
1001
ACAD
1000
DSTYLE
1002
{
1070
   272
1070
     8
1002
}
  0
DIMENSION
  5
F92
330
1F
100
AcDbEntity
  8
AM_5
100
AcDbDimension
  2
*D22
 10
-971.4436078212925
 20
1148.222692116392
 30
0.0
 11
-974.1939523094815
 21
1160.222692116391
 31
0.0
 70
    32
  1
%%c<>
 71
     5
 42
24.0
  3
AM_ISO$0
100
AcDbAlignedDimension
 13
-1091.443607821292
 23
1172.222692116392
 33
0.0
 14
-1091.443607821292
 24
1148.222692116392
 34
0.0
 50
90.0
100
AcDbRotatedDimension
1001
ACAD
1000
DSTYLE
1002
{
1070
   272
1070
     8
1002
}
  0
LINE
  5
F93
330
1F
100
AcDbEntity
  8
0
370
    25
100
AcDbLine
 10
-1164.463014532621
 20
1353.961479893659
 30
0.0
 11
-1105.463013080324
 21
1353.961479983261
 31
0.0
  0
LINE
  5
F94
330
1F
100
AcDbEntity
  8
0
370
    25
100
AcDbLine
 10
-1105.463013080324
 20
1361.961479983261
 30
0.0
 11
-1164.463014532621
 21
1361.961479807978
 31
0.0
  0
ARC
  5
F95
330
1F
100
AcDbEntity
  8
0
370
    25
100
AcDbCircle
 10
-1112.963013080324
 20
1357.961479983261
 30
0.0
 40
8.5
100
AcDbArc
 50
331.9275130641492
 51
0.0
  0
ARC
  5
F96
330
1F
100
AcDbEntity
  8
0
370
    25
100
AcDbCircle
 10
-1112.963013080324
 20
1357.961479983261
 30
0.0
 40
8.5
100
AcDbArc
 50
0.0
 51
28.07248693585086
  0
LINE
  5
F97
330
1F
100
AcDbEntity
  8
0
370
    25
100
AcDbLine
 10
-1167.463013080324
 20
1345.961479983261
 30
0.0
 11
-1164.463013080324
 21
1345.961479983261
 31
0.0
  0
LINE
  5
F98
330
1F
100
AcDbEntity
  8
0
370
    25
100
AcDbLine
 10
-1164.463013080324
 20
1369.961479983261
 30
0.0
 11
-1167.463013080324
 21
1369.961479983261
 31
0.0
  0
LINE
  5
F99
330
1F
100
AcDbEntity
  8
0
370
    25
100
AcDbLine
 10
-1386.563013080323
 20
1371.611479983261
 30
0.0
 11
-1386.963013080324
 21
1371.211479983261
 31
0.0
  0
LINE
  5
F9A
330
1F
100
AcDbEntity
  8
0
370
    25
100
AcDbLine
 10
-1386.963013080324
 20
1344.711479983261
 30
0.0
 11
-1386.563013080323
 21
1344.311479983261
 31
0.0
  0
LINE
  5
F9B
330
1F
100
AcDbEntity
  8
0
370
    25
100
AcDbLine
 10
-1380.365711827572
 20
1344.31147952262
 30
0.0
 11
-1376.463013080324
 21
1344.311479983261
 31
0.0
  0
LINE
  5
F9C
330
1F
100
AcDbEntity
  8
0
370
    25
100
AcDbLine
 10
-1386.563013080323
 20
1344.311479983261
 30
0.0
 11
-1384.536837418373
 21
1344.31147952262
 31
0.0
  0
LINE
  5
F9D
330
1F
100
AcDbEntity
  8
0
370
    25
100
AcDbLine
 10
-1376.463013080324
 20
1371.611479983261
 30
0.0
 11
-1386.563013080323
 21
1371.611479983261
 31
0.0
  0
LINE
  5
F9E
330
1F
100
AcDbEntity
  8
0
370
    25
100
AcDbLine
 10
-1376.463012029226
 20
1344.661479859387
 30
0.0
 11
-1373.463013080324
 21
1344.961479983261
 31
0.0
  0
LINE
  5
F9F
330
1F
100
AcDbEntity
  8
0
370
    25
100
AcDbLine
 10
-1373.463013080324
 20
1370.961479983261
 30
0.0
 11
-1376.463012029226
 21
1371.261480307911
 31
0.0
  0
LINE
  5
FA0
330
1F
100
AcDbEntity
  8
0
370
    25
100
AcDbLine
 10
-1208.113013080323
 20
1345.961479983261
 30
0.0
 11
-1185.463013080324
 21
1345.961479983261
 31
0.0
  0
LINE
  5
FA1
330
1F
100
AcDbEntity
  8
0
370
    25
100
AcDbLine
 10
-1185.463013080324
 20
1369.961479983261
 30
0.0
 11
-1208.113013080323
 21
1369.961479983261
 31
0.0
  0
LINE
  5
FA2
330
1F
100
AcDbEntity
  8
0
370
    25
100
AcDbLine
 10
-1184.113013080323
 20
1345.961479983261
 30
0.0
 11
-1167.463013080324
 21
1345.961479983261
 31
0.0
  0
LINE
  5
FA3
330
1F
100
AcDbEntity
  8
0
370
    25
100
AcDbLine
 10
-1167.463013080324
 20
1369.961479983261
 30
0.0
 11
-1184.113013080323
 21
1369.961479983261
 31
0.0
  0
LINE
  5
FA4
330
1F
100
AcDbEntity
  8
0
370
    25
100
AcDbLine
 10
-1373.463013400133
 20
1345.961480445002
 30
0.0
 11
-1209.463013080324
 21
1345.961479983261
 31
0.0
  0
LINE
  5
FA5
330
1F
100
AcDbEntity
  8
0
370
    25
100
AcDbLine
 10
-1209.463013080324
 20
1369.961479983261
 30
0.0
 11
-1373.463013400133
 21
1369.961479722296
 31
0.0
  0
LINE
  5
FA6
330
1F
100
AcDbEntity
  8
0
370
    25
100
AcDbLine
 10
-1185.463012386854
 20
1346.511480442022
 30
0.0
 11
-1184.113011886175
 21
1346.511480442022
 31
0.0
  0
LINE
  5
FA7
330
1F
100
AcDbEntity
  8
0
370
    25
100
AcDbLine
 10
-1184.113011886175
 20
1369.411479725276
 30
0.0
 11
-1185.463012386854
 21
1369.411479725276
 31
0.0
  0
LINE
  5
FA8
330
1F
100
AcDbEntity
  8
0
370
    25
100
AcDbLine
 10
-1209.463016320761
 20
1346.511480442022
 30
0.0
 11
-1208.113015820082
 21
1346.511480442022
 31
0.0
  0
LINE
  5
FA9
330
1F
100
AcDbEntity
  8
0
370
    25
100
AcDbLine
 10
-1208.113015820082
 20
1369.411479725276
 30
0.0
 11
-1209.463016320761
 21
1369.411479725276
 31
0.0
  0
LINE
  5
FAA
330
1F
100
AcDbEntity
  8
0
370
    25
100
AcDbLine
 10
-1105.463013080324
 20
1357.961479983261
 30
0.0
 11
-1105.463013080324
 21
1361.961479983261
 31
0.0
  0
LINE
  5
FAB
330
1F
100
AcDbEntity
  8
0
370
    25
100
AcDbLine
 10
-1105.463013080324
 20
1353.961479983261
 30
0.0
 11
-1105.463013080324
 21
1357.961479983261
 31
0.0
  0
LINE
  5
FAC
330
1F
100
AcDbEntity
  8
0
370
    25
100
AcDbLine
 10
-1167.463013080324
 20
1357.950611681604
 30
0.0
 11
-1167.463013080324
 21
1369.961479983261
 31
0.0
  0
LINE
  5
FAD
330
1F
100
AcDbEntity
  8
0
370
    25
100
AcDbLine
 10
-1167.463013080324
 20
1345.961479983261
 30
0.0
 11
-1167.463013080324
 21
1357.950611681604
 31
0.0
  0
LINE
  5
FAE
330
1F
100
AcDbEntity
  8
0
370
    25
100
AcDbLine
 10
-1164.463013080324
 20
1357.950611681604
 30
0.0
 11
-1164.463013080324
 21
1369.961479983261
 31
0.0
  0
LINE
  5
FAF
330
1F
100
AcDbEntity
  8
0
370
    25
100
AcDbLine
 10
-1164.463013080324
 20
1345.961479983261
 30
0.0
 11
-1164.463013080324
 21
1357.950611681604
 31
0.0
  0
LINE
  5
FB0
330
1F
100
AcDbEntity
  8
0
370
    25
100
AcDbLine
 10
-1386.963013080324
 20
1344.711479983261
 30
0.0
 11
-1386.963013080324
 21
1371.211479983261
 31
0.0
  0
LWPOLYLINE
  5
FB2
330
1F
100
AcDbEntity
  8
0
370
    25
100
AcDbPolyline
 90
       12
 70
   128
 43
0.0
 10
-1384.536837418373
 20
1344.31546930853
 10
-1384.550241012867
 20
1344.313439025317
 10
-1384.359617908295
 20
1344.341288364266
 10
-1383.958981563147
 20
1344.391277103459
 10
-1383.386315037306
 20
1344.442419751321
 10
-1382.70761929899
 20
1344.471767588292
 10
-1382.007734109457
 20
1344.466303518747
 10
-1381.362525005634
 20
1344.429164237117
 10
-1380.835351724918
 20
1344.37612821046
 10
-1380.487119038399
 20
1344.330022155081
 10
-1380.363078047331
 20
1344.311489767169
 10
-1380.365711827572
 20
1344.31188464794
  0
LINE
  5
FB3
330
1F
100
AcDbEntity
  8
0
370
    25
100
AcDbLine
 10
-1376.463013080324
 20
1357.961479983261
 30
0.0
 11
-1376.463013080324
 21
1371.611479983261
 31
0.0
  0
LINE
  5
FB4
330
1F
100
AcDbEntity
  8
0
370
    25
100
AcDbLine
 10
-1376.463013080324
 20
1344.311479983261
 30
0.0
 11
-1376.463013080324
 21
1357.961479983261
 31
0.0
  0
LINE
  5
FB5
330
1F
100
AcDbEntity
  8
0
370
    25
100
AcDbLine
 10
-1373.463013080324
 20
1357.961479983261
 30
0.0
 11
-1373.463013080324
 21
1370.961479983261
 31
0.0
  0
LINE
  5
FB6
330
1F
100
AcDbEntity
  8
0
370
    25
100
AcDbLine
 10
-1373.463013080324
 20
1344.961479983261
 30
0.0
 11
-1373.463013080324
 21
1357.961479983261
 31
0.0
  0
LINE
  5
FB7
330
1F
100
AcDbEntity
  8
0
370
    25
100
AcDbLine
 10
-1185.463013080324
 20
1360.727609835846
 30
0.0
 11
-1185.463013080324
 21
1369.961479983261
 31
0.0
  0
LINE
  5
FB8
330
1F
100
AcDbEntity
  8
0
370
    25
100
AcDbLine
 10
-1185.463013080324
 20
1345.961479983261
 30
0.0
 11
-1185.463013080324
 21
1360.727609835846
 31
0.0
  0
LINE
  5
FB9
330
1F
100
AcDbEntity
  8
0
370
    25
100
AcDbLine
 10
-1208.113013080323
 20
1360.727609835846
 30
0.0
 11
-1208.113013080323
 21
1369.961479983261
 31
0.0
  0
LINE
  5
FBA
330
1F
100
AcDbEntity
  8
0
370
    25
100
AcDbLine
 10
-1208.113013080323
 20
1345.961479983261
 30
0.0
 11
-1208.113013080323
 21
1360.727609835846
 31
0.0
  0
LINE
  5
FBB
330
1F
100
AcDbEntity
  8
0
370
    25
100
AcDbLine
 10
-1167.463013080324
 20
1360.727609835846
 30
0.0
 11
-1167.463013080324
 21
1369.961479983261
 31
0.0
  0
LINE
  5
FBC
330
1F
100
AcDbEntity
  8
0
370
    25
100
AcDbLine
 10
-1167.463013080324
 20
1345.961479983261
 30
0.0
 11
-1167.463013080324
 21
1360.727609835846
 31
0.0
  0
LINE
  5
FBD
330
1F
100
AcDbEntity
  8
0
370
    25
100
AcDbLine
 10
-1184.113013080323
 20
1360.727609835846
 30
0.0
 11
-1184.113013080323
 21
1369.961479983261
 31
0.0
  0
LINE
  5
FBE
330
1F
100
AcDbEntity
  8
0
370
    25
100
AcDbLine
 10
-1184.113013080323
 20
1345.961479983261
 30
0.0
 11
-1184.113013080323
 21
1360.727609835846
 31
0.0
  0
LINE
  5
FBF
330
1F
100
AcDbEntity
  8
0
370
    25
100
AcDbLine
 10
-1209.463013080324
 20
1360.727609835846
 30
0.0
 11
-1209.463013080324
 21
1369.961479983261
 31
0.0
  0
LINE
  5
FC0
330
1F
100
AcDbEntity
  8
0
370
    25
100
AcDbLine
 10
-1209.463013080324
 20
1345.961479983261
 30
0.0
 11
-1209.463013080324
 21
1360.727609835846
 31
0.0
  0
LINE
  5
FC1
330
1F
100
AcDbEntity
  8
CEN
370
    15
100
AcDbLine
 10
-1388.963013080324
 20
1357.961479983261
 30
0.0
 11
-1102.463013080324
 21
1357.961479983261
 31
0.0
  0
LINE
  5
FC2
330
1F
100
AcDbEntity
  8
CEN
370
    15
100
AcDbLine
 10
-1382.463013080324
 20
1348.407483737739
 30
0.0
 11
-1382.463013080324
 21
1342.473985751243
 31
0.0
  0
DIMENSION
  5
FC3
330
1F
100
AcDbEntity
  8
AM_5
100
AcDbDimension
  2
*D23
 10
-1398.963013080324
 20
1344.311479983261
 30
0.0
 11
-1401.713357568513
 21
1357.961479983261
 31
0.0
 70
    32
  1
%%c<>
 71
     5
 42
27.30000000000018
  3
AM_ISO$0
100
AcDbAlignedDimension
 13
-1386.563013080323
 23
1371.611479983261
 33
0.0
 14
-1386.563013080323
 24
1344.311479983261
 34
0.0
 50
90.0
100
AcDbRotatedDimension
1001
ACAD
1000
DSTYLE
1002
{
1070
   272
1070
     8
1002
}
  0
DIMENSION
  5
FC4
330
1F
100
AcDbEntity
  8
AM_5
100
AcDbDimension
  2
*D24
 10
-1164.463013080324
 20
1333.961480214132
 30
0.0
 11
-1174.963013080324
 21
1336.711824702321
 31
0.0
 70
    32
 71
     5
 42
21.0
  3
AM_ISO$0
100
AcDbAlignedDimension
 13
-1185.463013080324
 23
1345.961479983261
 33
0.0
 14
-1164.463013080324
 24
1345.961479983261
 34
0.0
100
AcDbRotatedDimension
1001
ACAD
1000
DSTYLE
1002
{
1070
   272
1070
     8
1002
}
  0
DIMENSION
  5
FC5
330
1F
100
AcDbEntity
  8
AM_5
100
AcDbDimension
  2
*D25
 10
-1185.463013080324
 20
1333.961480214132
 30
0.0
 11
-1197.463013080324
 21
1336.711824702321
 31
0.0
 70
    32
 71
     5
 42
24.0
  3
AM_ISO$0
100
AcDbAlignedDimension
 13
-1209.463013080324
 23
1345.961479983261
 33
0.0
 14
-1185.463013080324
 24
1345.961479983261
 34
0.0
100
AcDbRotatedDimension
1001
ACAD
1000
DSTYLE
1002
{
1070
   272
1070
     8
1002
}
  0
DIMENSION
  5
FC6
330
1F
100
AcDbEntity
  8
AM_5
100
AcDbDimension
  2
*D26
 10
-1386.963013080324
 20
1325.961480214132
 30
0.0
 11
-1275.713013080324
 21
1328.711824702321
 31
0.0
 70
    32
 71
     5
 42
222.5
  3
AM_ISO$0
100
AcDbAlignedDimension
 13
-1164.463013080324
 23
1345.961479983261
 33
0.0
 14
-1386.963013080324
 24
1344.711479983261
 34
0.0
100
AcDbRotatedDimension
1001
ACAD
1000
DSTYLE
1002
{
1070
   272
1070
     8
1002
}
  0
DIMENSION
  5
FC7
330
1F
100
AcDbEntity
  8
DIM
100
AcDbDimension
  2
*D27
 10
-1104.463013080324
 20
1333.961480214132
 30
0.0
 11
-1134.463013080324
 21
1337.211480214132
 31
0.0
 70
    32
 71
     5
 42
60.0
  3
ISO-25
100
AcDbAlignedDimension
 13
-1164.463013080324
 23
1345.961479983261
 33
0.0
 14
-1104.463013080324
 24
1357.961479983261
 34
0.0
100
AcDbRotatedDimension
  0
DIMENSION
  5
FC8
330
1F
100
AcDbEntity
  8
AM_5
100
AcDbDimension
  2
*D28
 10
-1386.963013080324
 20
1317.961480214132
 30
0.0
 11
-1245.713013080324
 21
1320.711824702321
 31
0.0
 70
    32
 71
     5
 42
282.5
  3
AM_ISO$0
100
AcDbAlignedDimension
 13
-1104.463013080324
 23
1357.961479983261
 33
0.0
 14
-1386.963013080324
 24
1344.711479983261
 34
0.0
100
AcDbRotatedDimension
1001
ACAD
1000
DSTYLE
1002
{
1070
   272
1070
     8
1002
}
  0
DIMENSION
  5
FCA
330
1F
100
AcDbEntity
  8
AM_5
100
AcDbDimension
  2
*D29
 10
-1092.463013080324
 20
1353.961479983261
 30
0.0
 11
-1092.463013080324
 21
1357.961479983261
 31
0.0
 70
   160
  1
%%c<>
 71
     5
 42
8.0
  3
AM_ISO$0
100
AcDbAlignedDimension
 13
-1105.463013080324
 23
1361.961479983261
 33
0.0
 14
-1105.463013080324
 24
1353.961479983261
 34
0.0
 50
90.0
100
AcDbRotatedDimension
1001
ACAD
1000
DSTYLE
1002
{
1070
   272
1070
     8
1002
}
  0
DIMENSION
  5
FCB
330
1F
100
AcDbEntity
  8
AM_5
100
AcDbDimension
  2
*D30
 10
-1084.463013080324
 20
1345.961479983261
 30
0.0
 11
-1084.463013080324
 21
1357.961479983262
 31
0.0
 70
   160
  1
%%c<>
 71
     5
 42
24.0
  3
AM_ISO$0
100
AcDbAlignedDimension
 13
-1164.463013080324
 23
1369.961479983261
 33
0.0
 14
-1164.463013080324
 24
1345.961479983261
 34
0.0
 50
90.0
100
AcDbRotatedDimension
1001
ACAD
1000
DSTYLE
1002
{
1070
   272
1070
     8
1002
}
  0
TEXT
  5
1854
330
1F
100
AcDbEntity
  8
AM_5
100
AcDbText
 10
-929.5925740466646
 20
1458.65467844927
 30
0.0
 40
3.5
  1
2-%%c6.6
100
AcDbText
  0
INSERT
  5
1855
330
1F
100
AcDbEntity
  8
AM_5
100
AcDbBlockReference
  2
*S41
 10
0.0
 20
0.0
 30
0.0
  0
TEXT
  5
1A69
330
1F
100
AcDbEntity
  8
LOGO
 62
     7
100
AcDbText
 10
-1379.459748173146
 20
1055.078472074969
 30
0.0
 40
6.39907330316742
  1
Order example:
 41
0.8
  7
CHINESET
100
AcDbText
  0
TEXT
  5
1A6A
330
1F
100
AcDbEntity
  8
LOGO
 62
     7
100
AcDbText
 10
-1378.311701504374
 20
1064.087042340795
 30
0.0
 40
9.598609954751129
  1
訂購代號：
  7
CHINESET
100
AcDbText
  0
LINE
  5
1A6B
330
1F
100
AcDbEntity
  8
LOGO
 62
     4
100
AcDbLine
 10
-1382.240167227781
 20
1028.110360735569
 30
0.0
 11
-1382.240167227781
 21
1076.103410509325
 31
0.0
  0
TEXT
  5
1A6C
330
1F
100
AcDbEntity
  8
LOGO
  6
Continuous
100
AcDbText
 10
-1470.585557518378
 20
1037.538522935796
 30
0.0
 40
7.198957466063348
  1
金器工業股份有限公司
  7
CHINESET
100
AcDbText
  0
TEXT
  5
1A6D
330
1F
100
AcDbEntity
  8
LOGO
  6
Continuous
100
AcDbText
 10
-1483.808618140038
 20
1030.33815503849
 30
0.0
 40
4.799304977375564
  1
MINDMAN INDUSTRIAL CO., LTD.
 41
0.85
  7
CHINESET
100
AcDbText
  0
LINE
  5
1A6E
330
1F
100
AcDbEntity
  8
LOGO
 62
     4
100
AcDbLine
 10
-1382.240167227781
 20
1066.504800554574
 30
0.0
 11
-1452.629973562623
 21
1066.504800554574
 31
0.0
  0
LINE
  5
1A6F
330
1F
100
AcDbEntity
  8
LOGO
 62
     4
100
AcDbLine
 10
-1382.240167227781
 20
1056.906190599823
 30
0.0
 11
-1452.629973562623
 21
1056.906190599823
 31
0.0
  0
LINE
  5
1A70
330
1F
100
AcDbEntity
  8
LOGO
 62
     4
100
AcDbLine
 10
-1382.240167227781
 20
1047.307580645072
 30
0.0
 11
-1487.824876730044
 21
1047.307580645072
 31
0.0
  0
LINE
  5
1A71
330
1F
100
AcDbEntity
  8
LOGO
 62
     4
100
AcDbLine
 10
-1452.629973562623
 20
1047.307580645072
 30
0.0
 11
-1452.629973562623
 21
1076.103410509325
 31
0.0
  0
TEXT
  5
1A72
330
1F
100
AcDbEntity
  8
LOGO
100
AcDbText
 10
-1404.521863281012
 20
1049.707233133759
 30
0.0
 40
4.799304977375564
  1
mm
  7
CHINESET
 72
     1
 11
-1398.579866642356
 21
1052.106885622447
 31
0.0
100
AcDbText
 73
     2
  0
TEXT
  5
1A73
330
1F
100
AcDbEntity
  8
LOGO
100
AcDbText
 10
-1407.035784935828
 20
1068.904453043262
 30
0.0
 40
4.799304977375564
  1
1 : 1
  7
CHINESET
 72
     1
 11
-1398.579866642356
 21
1071.304105531949
 31
0.0
100
AcDbText
 73
     2
  0
LINE
  5
1A74
330
1F
100
AcDbEntity
  8
LOGO
 62
     4
100
AcDbLine
 10
-1414.235533743618
 20
1047.307580645072
 30
0.0
 11
-1414.235533743618
 21
1076.103410509325
 31
0.0
  0
TEXT
  5
1A75
330
1F
100
AcDbEntity
  8
LOGO
100
AcDbText
 10
-1448.672689503153
 20
1068.906814905947
 30
314.5385418241195
 40
4.799304977375564
  1
比例 Scale:
 41
0.9
  7
CHINESET
 72
     4
 11
-1433.432753653121
 21
1071.304105531949
 31
314.5385418241195
100
AcDbText
  0
TEXT
  5
1A76
330
1F
100
AcDbEntity
  8
LOGO
100
AcDbText
 10
-1448.949078048725
 20
1059.373352996944
 30
314.5385418241195
 40
4.799304977375564
  1
投影  View:
 41
0.9
  7
CHINESET
 72
     4
 11
-1433.432753653121
 21
1061.705495577198
 31
314.5385418241195
100
AcDbText
  0
TEXT
  5
1A77
330
1F
100
AcDbEntity
  8
LOGO
100
AcDbText
 10
-1448.479860285312
 20
1049.707233133759
 30
314.5385418241195
 40
4.799304977375564
  1
單位  Unit:
 41
0.9
  7
CHINESET
 72
     4
 11
-1433.432753653121
 21
1052.106885622447
 31
314.5385418241195
100
AcDbText
  0
LWPOLYLINE
  5
1A78
330
1F
100
AcDbEntity
  8
LOGO
 62
     4
100
AcDbPolyline
 90
        4
 70
     1
 43
0.0
 10
-1487.824876730044
 20
1076.103410509325
 10
-827.8248767300437
 20
1076.103410509325
 10
-827.8248767300437
 20
1508.110360735569
 10
-1487.824876730044
 20
1508.110360735569
1001
GENIUS_GENREC_14
1002
{
1000
PYDIR
1011
-1487.824876730044
1021
1508.110360735569
1031
0.0
1002
}
1002
{
1000
PXDIR
1011
-827.8248767300437
1021
1076.103410509325
1031
0.0
1002
}
1002
{
1000
PORI
1011
-1487.824876730044
1021
1076.103410509325
1031
0.0
1002
}
1002
{
1000
PINS
1011
-1487.824876730044
1021
1076.103410509325
1031
0.0
1002
}
1002
{
1000
PINS2
1011
-827.8248767300437
1021
1508.110360735569
1031
0.0
1002
}
1002
{
1000
C
1070
     1
1002
}
1001
GENIUS_GENODEF_13
1002
{
1000
HIER
1070
     0
1002
}
1002
{
1000
MANEDIT
1070
     0
1002
}
1002
{
1000
NOSEL
1070
     0
1002
}
1002
{
1000
BEHIND
1070
     0
1002
}
1002
{
1000
OTHER
1070
     0
1002
}
1002
{
1000
REACTOR
1002
}
1001
GENIUS_GENOBJ-N-REC_13
1002
{
1000
OWNER
1000
GEN
1002
}
  0
SOLID
  5
1A79
330
1F
100
AcDbEntity
  8
LOGO
 62
     5
100
AcDbTrace
 10
-1482.84552079303
 20
1055.285742042688
 30
0.0
 11
-1480.770427254576
 21
1055.285742042688
 31
0.0
 12
-1472.112278352748
 22
1074.963353183207
 32
0.0
 13
-1470.037184814293
 23
1074.963353183205
 33
0.0
  0
SOLID
  5
1A7A
330
1F
100
AcDbEntity
  8
LOGO
 62
     5
100
AcDbTrace
 10
-1479.911767859351
 20
1055.285742042688
 30
0.0
 11
-1477.836674320897
 21
1055.285742042688
 31
0.0
 12
-1470.037184814293
 22
1073.389144291964
 32
0.0
 13
-1472.112278352748
 23
1065.780467984297
 33
0.0
  0
SOLID
  5
1A7B
330
1F
100
AcDbEntity
  8
LOGO
 62
     2
100
AcDbTrace
 10
-1480.770427254576
 20
1055.285742042688
 30
0.0
 11
-1479.911767859351
 21
1055.285742042688
 31
0.0
 12
-1470.037184814293
 22
1074.963353183205
 32
0.0
 13
-1469.178525419069
 23
1074.963353183205
 33
0.0
  0
SOLID
  5
1A7C
330
1F
100
AcDbEntity
  8
LOGO
 62
     5
100
AcDbTrace
 10
-1486.172404610442
 20
1048.130247082501
 30
0.0
 11
-1485.456855114423
 21
1048.130247082501
 31
0.0
 12
-1483.441812039712
 22
1051.707994562594
 32
0.0
 13
-1482.726262543694
 23
1051.707994562594
 33
0.0
  0
SOLID
  5
1A7D
330
1F
100
AcDbEntity
  8
LOGO
 62
     5
100
AcDbTrace
 10
-1483.441812039712
 20
1051.707994562594
 30
0.0
 11
-1482.726262543694
 21
1051.707994562594
 31
0.0
 12
-1483.441812039712
 22
1048.130247082501
 32
0.0
 13
-1482.726262543694
 23
1048.130247082501
 33
0.0
  0
SOLID
  5
1A7E
330
1F
100
AcDbEntity
  8
LOGO
 62
     5
100
AcDbTrace
 10
-1483.441812039712
 20
1048.130247082501
 30
0.0
 11
-1482.726262543694
 21
1048.130247082501
 31
0.0
 12
-1480.711219468981
 22
1051.707994562594
 32
0.0
 13
-1479.995669972962
 23
1051.707994562594
 33
0.0
  0
SOLID
  5
1A7F
330
1F
100
AcDbEntity
  8
LOGO
 62
     5
100
AcDbTrace
 10
-1480.711219468981
 20
1051.707994562594
 30
0.0
 11
-1479.995669972962
 21
1051.707994562594
 31
0.0
 12
-1480.711219468981
 22
1048.130247082501
 32
0.0
 13
-1479.995669972962
 23
1048.130247082501
 33
0.0
  0
POLYLINE
  5
1A80
330
1F
100
AcDbEntity
  8
LOGO
 62
     5
100
AcDb2dPolyline
 66
     1
 10
0.0
 20
0.0
 30
0.0
 40
0.716696209954751
 41
0.716696209954751
  0
VERTEX
  5
1A81
330
1A80
100
AcDbEntity
  8
LOGO
 62
     5
100
AcDbVertex
100
AcDb2dVertex
 10
-1456.726244117438
 20
1050.276895570557
 30
0.0
 42
1.0
  0
VERTEX
  5
1A82
330
1A80
100
AcDbEntity
  8
LOGO
 62
     5
100
AcDbVertex
100
AcDb2dVertex
 10
-1458.876332747303
 20
1050.276895570557
 30
0.0
 42
1.0
  0
SEQEND
  5
1A83
330
1A80
100
AcDbEntity
  8
LOGO
 62
     5
  0
POLYLINE
  5
1A84
330
1F
100
AcDbEntity
  8
LOGO
 62
     5
100
AcDb2dPolyline
 66
     1
 10
0.0
 20
0.0
 30
0.0
 70
     1
  0
VERTEX
  5
1A85
330
1A84
100
AcDbEntity
  8
LOGO
 62
     5
100
AcDbVertex
100
AcDb2dVertex
 10
-1462.92934545054
 20
1049.919120822547
 30
0.0
 42
1.000000057330635
  0
VERTEX
  5
1A86
330
1A84
100
AcDbEntity
  8
LOGO
 62
     5
100
AcDbVertex
100
AcDb2dVertex
 10
-1460.782696962484
 20
1049.919120822547
 30
0.0
 42
1.000000057330635
  0
SEQEND
  5
1A87
330
1A84
100
AcDbEntity
  8
LOGO
 62
     5
  0
CIRCLE
  5
1A88
330
1F
100
AcDbEntity
  8
LOGO
 62
     5
100
AcDbCircle
 10
-1461.85602120651
 20
1049.919120822547
 30
0.0
 40
1.073324244028235
  0
POLYLINE
  5
1A89
330
1F
100
AcDbEntity
  8
LOGO
 62
     5
100
AcDb2dPolyline
 66
     1
 10
0.0
 20
0.0
 30
0.0
 70
     1
 40
0.716696209954751
 41
0.716696209954751
  0
VERTEX
  5
1A8A
330
1A89
100
AcDbEntity
  8
LOGO
 62
     5
100
AcDbVertex
100
AcDb2dVertex
 10
-1463.289413626421
 20
1049.919120822547
 30
0.0
 42
1.0
  0
VERTEX
  5
1A8B
330
1A89
100
AcDbEntity
  8
LOGO
 62
     5
100
AcDbVertex
100
AcDb2dVertex
 10
-1460.422628786602
 20
1049.919120822547
 30
0.0
 42
1.0
  0
SEQEND
  5
1A8C
330
1A89
100
AcDbEntity
  8
LOGO
 62
     5
  0
LINE
  5
1A8D
330
1F
100
AcDbEntity
  8
LOGO
100
AcDbLine
 10
-1456.370189440334
 20
1048.130247082501
 30
0.0
 11
-1456.370189440334
 21
1050.276895570557
 31
0.0
  0
SOLID
  5
1A8E
330
1F
100
AcDbEntity
  8
LOGO
 62
     5
100
AcDbTrace
 10
-1460.78276851743
 20
1051.707994562594
 30
0.0
 11
-1460.067219021413
 21
1051.707994562594
 31
0.0
 12
-1460.78276851743
 22
1048.130247082501
 32
0.0
 13
-1460.067219021413
 23
1048.130247082501
 33
0.0
  0
SOLID
  5
1A8F
330
1F
100
AcDbEntity
  8
LOGO
 62
     5
100
AcDbTrace
 10
-1459.232387424409
 20
1048.130247082501
 30
0.0
 11
-1458.516837928389
 21
1048.130247082501
 31
0.0
 12
-1459.232387424409
 22
1051.707994562594
 32
0.0
 13
-1458.516837928389
 23
1051.707994562594
 33
0.0
  0
SOLID
  5
1A90
330
1F
100
AcDbEntity
  8
LOGO
 62
     5
100
AcDbTrace
 10
-1457.085738936351
 20
1050.276895570557
 30
0.0
 11
-1456.370189440334
 21
1050.276895570557
 31
0.0
 12
-1457.085738936351
 22
1048.130247082501
 32
0.0
 13
-1456.370189440334
 23
1048.130247082501
 33
0.0
  0
SOLID
  5
1A91
330
1F
100
AcDbEntity
  8
LOGO
 62
     5
100
AcDbTrace
 10
-1459.303942374011
 20
1073.389144291964
 30
0.0
 11
-1461.379035912464
 21
1065.780467984297
 31
0.0
 12
-1459.303942374011
 22
1055.285742042688
 32
0.0
 13
-1461.379035912464
 23
1055.285742042688
 33
0.0
  0
SOLID
  5
1A92
330
1F
100
AcDbEntity
  8
LOGO
 62
     5
100
AcDbTrace
 10
-1458.445282978787
 20
1055.285742042688
 30
0.0
 11
-1456.370189440334
 21
1055.285742042688
 31
0.0
 12
-1458.445282978787
 22
1074.963353183205
 32
0.0
 13
-1456.370189440334
 23
1074.963353183207
 33
0.0
  0
SOLID
  5
1A93
330
1F
100
AcDbEntity
  8
LOGO
 62
     2
100
AcDbTrace
 10
-1459.303942374011
 20
1074.963353183207
 30
0.0
 11
-1458.445282978787
 21
1074.963353183205
 31
0.0
 12
-1459.303942374011
 22
1055.285742042688
 32
0.0
 13
-1458.445282978787
 23
1055.285742042688
 33
0.0
  0
POLYLINE
  5
1A94
330
1F
100
AcDbEntity
  8
LOGO
 62
     5
100
AcDb2dPolyline
 66
     1
 10
0.0
 20
0.0
 30
0.0
 40
0.716696209954751
 41
0.716696209954751
  0
VERTEX
  5
1A95
330
1A94
100
AcDbEntity
  8
LOGO
 62
     5
100
AcDbVertex
100
AcDb2dVertex
 10
-1466.982501263674
 20
1050.276895570557
 30
0.0
 42
1.0
  0
VERTEX
  5
1A96
330
1A94
100
AcDbEntity
  8
LOGO
 62
     5
100
AcDbVertex
100
AcDb2dVertex
 10
-1469.132589893539
 20
1050.276895570557
 30
0.0
 42
1.0
  0
SEQEND
  5
1A97
330
1A94
100
AcDbEntity
  8
LOGO
 62
     5
  0
POLYLINE
  5
1A98
330
1F
100
AcDbEntity
  8
LOGO
 62
     5
100
AcDb2dPolyline
 66
     1
 10
0.0
 20
0.0
 30
0.0
 40
0.716696209954751
 41
0.716696209954751
  0
VERTEX
  5
1A99
330
1A98
100
AcDbEntity
  8
LOGO
 62
     5
100
AcDbVertex
100
AcDb2dVertex
 10
-1464.835852775619
 20
1050.276895570557
 30
0.0
 42
1.0
  0
VERTEX
  5
1A9A
330
1A98
100
AcDbEntity
  8
LOGO
 62
     5
100
AcDbVertex
100
AcDb2dVertex
 10
-1466.985941405483
 20
1050.276895570557
 30
0.0
 42
1.0
  0
SEQEND
  5
1A9B
330
1A98
100
AcDbEntity
  8
LOGO
 62
     5
  0
POLYLINE
  5
1A9C
330
1F
100
AcDbEntity
  8
LOGO
 62
     5
100
AcDb2dPolyline
 66
     1
 10
0.0
 20
0.0
 30
0.0
 40
0.716696209954751
 41
0.716696209954751
  0
VERTEX
  5
1A9D
330
1A9C
100
AcDbEntity
  8
LOGO
 62
     5
100
AcDbVertex
100
AcDb2dVertex
 10
-1475.092109921855
 20
1050.276895570557
 30
0.0
 42
1.0
  0
VERTEX
  5
1A9E
330
1A9C
100
AcDbEntity
  8
LOGO
 62
     5
100
AcDbVertex
100
AcDb2dVertex
 10
-1477.242198551719
 20
1050.276895570557
 30
0.0
 42
1.0
  0
SEQEND
  5
1A9F
330
1A9C
100
AcDbEntity
  8
LOGO
 62
     5
  0
SOLID
  5
1AA0
330
1F
100
AcDbEntity
  8
LOGO
 62
     5
100
AcDbTrace
 10
-1477.598253228824
 20
1051.707994562594
 30
0.0
 11
-1476.882703732807
 21
1051.707994562594
 31
0.0
 12
-1477.598253228824
 22
1048.130247082501
 32
0.0
 13
-1476.882703732807
 23
1048.130247082501
 33
0.0
  0
SOLID
  5
1AA1
330
1F
100
AcDbEntity
  8
LOGO
 62
     5
100
AcDbTrace
 10
-1475.451604740768
 20
1050.276895570557
 30
0.0
 11
-1474.736055244748
 21
1050.276895570557
 31
0.0
 12
-1475.451604740768
 22
1048.130247082501
 32
0.0
 13
-1474.736055244748
 23
1048.130247082501
 33
0.0
  0
POLYLINE
  5
1AA2
330
1F
100
AcDbEntity
  8
LOGO
 62
     5
100
AcDb2dPolyline
 66
     1
 10
0.0
 20
0.0
 30
0.0
 70
     1
 40
0.716696209954751
 41
0.716696209954751
  0
VERTEX
  5
1AA3
330
1AA2
100
AcDbEntity
  8
LOGO
 62
     5
100
AcDbVertex
100
AcDb2dVertex
 10
-1473.545670772658
 20
1049.919120822547
 30
0.0
 42
1.0
  0
VERTEX
  5
1AA4
330
1AA2
100
AcDbEntity
  8
LOGO
 62
     5
100
AcDbVertex
100
AcDb2dVertex
 10
-1470.678885932838
 20
1049.919120822547
 30
0.0
 42
1.0
  0
SEQEND
  5
1AA5
330
1AA2
100
AcDbEntity
  8
LOGO
 62
     5
  0
SOLID
  5
1AA6
330
1F
100
AcDbEntity
  8
LOGO
 62
     5
100
AcDbTrace
 10
-1471.039025663668
 20
1052.781318806623
 30
0.0
 11
-1470.32347616765
 21
1052.781318806623
 31
0.0
 12
-1471.039025663668
 22
1048.130247082501
 32
0.0
 13
-1470.32347616765
 23
1048.130247082501
 33
0.0
  0
SOLID
  5
1AA7
330
1F
100
AcDbEntity
  8
LOGO
 62
     5
100
AcDbTrace
 10
-1469.488644570643
 20
1051.707994562594
 30
0.0
 11
-1468.773095074625
 21
1051.707994562594
 31
0.0
 12
-1469.488644570643
 22
1048.130247082501
 32
0.0
 13
-1468.773095074625
 23
1048.130247082501
 33
0.0
  0
SOLID
  5
1AA8
330
1F
100
AcDbEntity
  8
LOGO
 62
     5
100
AcDbTrace
 10
-1467.341996082588
 20
1050.276895570557
 30
0.0
 11
-1466.626446586569
 21
1050.276895570557
 31
0.0
 12
-1467.341996082588
 22
1048.130247082501
 32
0.0
 13
-1466.626446586569
 23
1048.130247082501
 33
0.0
  0
SOLID
  5
1AA9
330
1F
100
AcDbEntity
  8
LOGO
 62
     5
100
AcDbTrace
 10
-1465.195347594532
 20
1050.276895570557
 30
0.0
 11
-1464.479798098513
 21
1050.276895570557
 31
0.0
 12
-1465.195347594532
 22
1048.130247082499
 32
0.0
 13
-1464.479798098513
 23
1048.130247082499
 33
0.0
  0
SOLID
  5
1AAA
330
1F
100
AcDbEntity
  8
LOGO
 62
     5
100
AcDbTrace
 10
-1479.148634321849
 20
1052.208879209808
 30
0.0
 11
-1478.433084825828
 21
1052.208879209808
 31
0.0
 12
-1479.148634321849
 22
1052.781318806623
 32
0.0
 13
-1478.433084825828
 23
1052.781318806623
 33
0.0
  0
SOLID
  5
1AAB
330
1F
100
AcDbEntity
  8
LOGO
 62
     5
100
AcDbTrace
 10
-1479.148634321849
 20
1051.707994562594
 30
0.0
 11
-1478.433084825828
 21
1051.707994562594
 31
0.0
 12
-1479.148634321849
 22
1048.130247082499
 32
0.0
 13
-1478.433084825828
 23
1048.130247082501
 33
0.0
  0
SOLID
  5
1AAC
330
1F
100
AcDbEntity
  8
LOGO
 62
     5
100
AcDbTrace
 10
-1472.112278352748
 20
1055.285742042688
 30
0.0
 11
-1470.037184814293
 21
1055.285742042688
 31
0.0
 12
-1472.112278352748
 22
1065.780467984297
 32
0.0
 13
-1470.037184814293
 23
1073.389144291964
 33
0.0
  0
SOLID
  5
1AAD
330
1F
100
AcDbEntity
  8
LOGO
 62
     5
100
AcDbTrace
 10
-1469.178525419069
 20
1074.963353183205
 30
0.0
 11
-1467.103431880615
 21
1074.963353183207
 31
0.0
 12
-1469.178525419069
 22
1056.85995093393
 32
0.0
 13
-1467.103431880615
 23
1064.468627241596
 33
0.0
  0
SOLID
  5
1AAE
330
1F
100
AcDbEntity
  8
LOGO
 62
     2
100
AcDbTrace
 10
-1470.037184814293
 20
1074.963353183205
 30
0.0
 11
-1469.178525419069
 21
1074.963353183205
 31
0.0
 12
-1470.037184814293
 22
1055.285742042688
 32
0.0
 13
-1469.178525419069
 23
1055.285742042688
 33
0.0
  0
SOLID
  5
1AAF
330
1F
100
AcDbEntity
  8
LOGO
 62
     5
100
AcDbTrace
 10
-1469.178525419069
 20
1056.85995093393
 30
0.0
 11
-1467.103431880615
 21
1064.468627241596
 31
0.0
 12
-1459.303942374011
 22
1074.963353183207
 32
0.0
 13
-1461.379035912464
 23
1074.963353183207
 33
0.0
  0
SOLID
  5
1AB0
330
1F
100
AcDbEntity
  8
LOGO
 62
     5
100
AcDbTrace
 10
-1469.178525419069
 20
1055.285742042688
 30
0.0
 11
-1467.103431880615
 21
1055.285742042688
 31
0.0
 12
-1459.303942374011
 22
1073.389144291964
 32
0.0
 13
-1461.379035912464
 23
1065.780467984297
 33
0.0
  0
SOLID
  5
1AB1
330
1F
100
AcDbEntity
  8
LOGO
 62
     2
100
AcDbTrace
 10
-1470.037184814293
 20
1055.285742042688
 30
0.0
 11
-1469.178525419069
 21
1055.285742042688
 31
0.0
 12
-1459.303942374011
 22
1074.963353183207
 32
0.0
 13
-1458.445282978787
 23
1074.963353183205
 33
0.0
  0
LWPOLYLINE
  5
1AB2
330
1F
100
AcDbEntity
  8
LOGO
 62
     4
100
AcDbPolyline
 90
        4
 70
     1
 43
0.0
 10
-1487.824876730044
 20
1076.103410509325
 10
-827.8248767300437
 20
1076.103410509325
 10
-827.8248767300437
 20
1028.110360735569
 10
-1487.824876730044
 20
1028.110360735569
1001
GENIUS_GENREC_14
1002
{
1000
PYDIR
1011
-1487.824876730044
1021
1028.110360735569
1031
0.0
1002
}
1002
{
1000
PXDIR
1011
-827.8248767300437
1021
1076.103410509325
1031
0.0
1002
}
1002
{
1000
PORI
1011
-1487.824876730044
1021
1076.103410509325
1031
0.0
1002
}
1002
{
1000
PINS
1011
-1487.824876730044
1021
1076.103410509325
1031
0.0
1002
}
1002
{
1000
PINS2
1011
-827.8248767300437
1021
1028.110360735569
1031
0.0
1002
}
1002
{
1000
C
1070
     1
1002
}
1001
GENIUS_GENOBJ-N-REC_13
1002
{
1000
OWNER
1000
GEN
1002
}
1001
GENIUS_GENODEF_13
1002
{
1000
HIER
1070
     0
1002
}
1002
{
1000
MANEDIT
1070
     0
1002
}
1002
{
1000
NOSEL
1070
     0
1002
}
1002
{
1000
BEHIND
1070
     0
1002
}
1002
{
1000
OTHER
1070
     0
1002
}
1002
{
1000
REACTOR
1002
}
  0
LINE
  5
1AB3
330
1F
100
AcDbEntity
  8
LOGO
 62
     4
100
AcDbLine
 10
-1284.232490787824
 20
1049.70723313376
 30
0.0
 11
-1284.232490787824
 21
1032.109781550049
 31
0.0
  0
LINE
  5
1AB4
330
1F
100
AcDbEntity
  8
LOGO
 62
     4
100
AcDbLine
 10
-1316.227857303661
 20
1049.70723313376
 30
0.0
 11
-1316.227857303661
 21
1032.109781550049
 31
0.0
  0
LINE
  5
1AB5
330
1F
100
AcDbEntity
  8
LOGO
 62
     4
100
AcDbLine
 10
-1284.232490787824
 20
1032.109781550049
 30
0.0
 11
-1316.227857303661
 21
1032.109781550049
 31
0.0
  0
LINE
  5
1AB6
330
1F
100
AcDbEntity
  8
LOGO
 62
     4
100
AcDbLine
 10
-1285.985740858069
 20
1071.304105531949
 30
0.0
 11
-1316.227857303661
 21
1071.304105531949
 31
0.0
  0
LINE
  5
1AB7
330
1F
100
AcDbEntity
  8
LOGO
 62
     4
100
AcDbLine
 10
-1285.985740858069
 20
1056.906190599823
 30
0.0
 11
-1316.227857303661
 21
1056.906190599823
 31
0.0
  0
LINE
  5
1AB8
330
1F
100
AcDbEntity
  8
LOGO
 62
     4
100
AcDbLine
 10
-1316.227857303661
 20
1071.304105531949
 30
0.0
 11
-1316.227857303661
 21
1056.906190599823
 31
0.0
  0
LINE
  5
1AB9
330
1F
100
AcDbEntity
  8
LOGO
 62
     4
100
AcDbLine
 10
-1285.985740858069
 20
1071.304105531949
 30
0.0
 11
-1285.985740858069
 21
1056.906190599823
 31
0.0
  0
LINE
  5
1ABA
330
1F
100
AcDbEntity
  8
LOGO
 62
     4
100
AcDbLine
 10
-1298.560819537975
 20
1056.906190599823
 30
0.0
 11
-1298.560819537975
 21
1049.70723313376
 31
0.0
  0
TEXT
  5
1ABB
330
1F
100
AcDbEntity
  8
LOGO
  6
Continuous
100
AcDbText
 10
-1313.669573311789
 20
1059.911734292155
 30
0.0
 40
8.4
  1
MHR
  7
CHINESET
100
AcDbText
  0
LINE
  5
1ABC
330
1F
100
AcDbEntity
  8
LOGO
 62
     4
100
AcDbLine
 10
-1284.232490787824
 20
1049.70723313376
 30
0.0
 11
-1316.227857303661
 21
1049.70723313376
 31
0.0
  0
TEXT
  5
1ABD
330
1F
100
AcDbEntity
  8
LOGO
  6
Continuous
100
AcDbText
 10
-1305.960645484518
 20
1034.593624524827
 30
314.5385418241195
 40
3.599999999999999
  1
Model
 41
0.8
  7
CHINESET
100
AcDbText
  0
TEXT
  5
1ABE
330
1F
100
AcDbEntity
  8
LOGO
100
AcDbText
 10
-1306.918848455716
 20
1041.267248669452
 30
314.5385418241195
 40
6.0
  1
型號
  7
CHINESET
100
AcDbText
  0
LINE
  5
1AD5
330
1F
100
AcDbEntity
  8
LOGO
  6
Continuous
100
AcDbLine
 10
-1283.662298015595
 20
1064.054148375788
 30
0.0
 11
-1277.304704138139
 21
1064.054148375788
 31
0.0
  0
LINE
  5
1AD6
330
1F
100
AcDbEntity
  8
LOGO
 62
     4
100
AcDbLine
 10
-1254.84146853678
 20
1049.70723313376
 30
0.0
 11
-1254.84146853678
 21
1032.109781550049
 31
0.0
  0
LINE
  5
1AD7
330
1F
100
AcDbEntity
  8
LOGO
 62
     4
100
AcDbLine
 10
-1280.906795300991
 20
1049.70723313376
 30
0.0
 11
-1280.906795300991
 21
1032.109781550049
 31
0.0
  0
LINE
  5
1AD8
330
1F
100
AcDbEntity
  8
LOGO
 62
     4
100
AcDbLine
 10
-1254.84146853678
 20
1032.109781550049
 30
0.0
 11
-1280.906795300991
 21
1032.109781550049
 31
0.0
  0
LINE
  5
1AD9
330
1F
100
AcDbEntity
  8
LOGO
 62
     4
100
AcDbLine
 10
-1256.167280583713
 20
1071.304105531949
 30
0.0
 11
-1275.299218398576
 21
1071.304105531949
 31
0.0
  0
LINE
  5
1ADA
330
1F
100
AcDbEntity
  8
LOGO
 62
     4
100
AcDbLine
 10
-1256.167280583713
 20
1056.906190599823
 30
0.0
 11
-1275.299218398576
 21
1056.906190599823
 31
0.0
  0
LINE
  5
1ADB
330
1F
100
AcDbEntity
  8
LOGO
 62
     4
100
AcDbLine
 10
-1275.299218398576
 20
1071.304105531949
 30
0.0
 11
-1275.299218398576
 21
1056.906190599823
 31
0.0
  0
LINE
  5
1ADC
330
1F
100
AcDbEntity
  8
LOGO
 62
     4
100
AcDbLine
 10
-1256.167280583713
 20
1071.304105531949
 30
0.0
 11
-1256.167280583713
 21
1056.906190599823
 31
0.0
  0
LINE
  5
1ADD
330
1F
100
AcDbEntity
  8
LOGO
 62
     4
100
AcDbLine
 10
-1265.733249491145
 20
1056.906190599823
 30
0.0
 11
-1265.733249491145
 21
1049.70723313376
 31
0.0
  0
TEXT
  5
1ADE
330
1F
100
AcDbEntity
  8
LOGO
  6
Continuous
100
AcDbText
 10
-1272.466134196525
 20
1059.911734292155
 30
0.0
 40
8.4
  1
30
  7
CHINESET
100
AcDbText
  0
LINE
  5
1ADF
330
1F
100
AcDbEntity
  8
LOGO
 62
     4
100
AcDbLine
 10
-1254.84146853678
 20
1049.70723313376
 30
0.0
 11
-1280.906795300991
 21
1049.70723313376
 31
0.0
  0
TEXT
  5
1AE4
330
1F
100
AcDbEntity
  8
LOGO
  6
Continuous
100
AcDbText
 10
-1274.037258017111
 20
1034.593624524827
 30
314.5385418241195
 40
3.599999999999999
  1
Stroke
 41
0.8
  7
CHINESET
100
AcDbText
  0
TEXT
  5
1AE5
330
1F
100
AcDbEntity
  8
LOGO
100
AcDbText
 10
-1274.286870182919
 20
1041.267248669452
 30
314.5385418241195
 40
6.0
  1
行程
  7
CHINESET
100
AcDbText
  0
TEXT
  5
1AF2
330
1F
100
AcDbEntity
  8
LOGO
100
AcDbText
 10
-1379.616481808811
 20
1030.66357204098
 30
0.0
 40
4.799999999999999
  1
10711289
 41
0.7
  7
CHINESET
 72
     1
 11
-1368.336481808811
 21
1030.66357204098
 31
0.0
100
AcDbText
  0
LINE
  5
1AF3
330
1F
100
AcDbEntity
  8
LOGO
 62
     4
100
AcDbLine
 10
-1353.440167227783
 20
1037.708970690321
 30
0.0
 11
-1353.440167227781
 21
1028.11036073557
 31
0.0
  0
LINE
  5
1AF4
330
1F
100
AcDbEntity
  8
LOGO
 62
     4
100
AcDbLine
 10
-1353.440167227783
 20
1037.708970690321
 30
0.0
 11
-1382.240167227781
 21
1037.708970690321
 31
0.0
  0
CIRCLE
  5
1AF5
330
1F
100
AcDbEntity
  8
LOGO
  6
Continuous
100
AcDbCircle
 10
-1405.349020290431
 20
1061.715761325666
 30
0.0
 40
2.786589432769515
  0
CIRCLE
  5
1AF6
330
1F
100
AcDbEntity
  8
LOGO
  6
Continuous
100
AcDbCircle
 10
-1405.349020290431
 20
1061.715761325666
 30
0.0
 40
1.632694724797433
  0
LINE
  5
1AF7
330
1F
100
AcDbEntity
  8
LOGO
100
AcDbLine
 10
-1387.837768952743
 20
1058.929171892896
 30
0.0
 11
-1387.837768952743
 21
1064.502350758436
 31
0.0
  0
LINE
  5
1AF8
330
1F
100
AcDbEntity
  8
LOGO
100
AcDbLine
 10
-1396.573566866609
 20
1060.083066600869
 30
0.0
 11
-1396.573566866609
 21
1063.348456050463
 31
0.0
  0
LINE
  5
1AF9
330
1F
100
AcDbEntity
  8
LOGO
  6
Continuous
100
AcDbLine
 10
-1396.573566866609
 20
1063.348456050463
 30
0.0
 11
-1387.837768952743
 21
1064.502350758436
 31
0.0
  0
LINE
  5
1AFA
330
1F
100
AcDbEntity
  8
LOGO
  6
Continuous
100
AcDbLine
 10
-1396.573566866609
 20
1060.083066600869
 30
0.0
 11
-1387.837768952743
 21
1058.929171892896
 31
0.0
  0
LINE
  5
1AFB
330
1F
100
AcDbEntity
  8
LOGO
  6
AM_ISO08W050x2
 48
0.3
100
AcDbLine
 10
-1409.190375549394
 20
1061.715761325666
 30
0.0
 11
-1401.507665031467
 21
1061.715761325666
 31
0.0
1001
GENIUS_GENOREF_13
1005
1B00
  0
LINE
  5
1AFC
330
1F
100
AcDbEntity
  8
LOGO
  6
AM_ISO08W050x2
 48
0.3
100
AcDbLine
 10
-1405.349020290431
 20
1057.874406066702
 30
0.0
 11
-1405.349020290431
 21
1065.557116584629
 31
0.0
1001
GENIUS_GENOREF_13
1005
1AFF
  0
LINE
  5
1AFD
330
1F
100
AcDbEntity
  8
LOGO
  6
CENTER
 48
0.5
100
AcDbLine
 10
-1397.272187889351
 20
1061.715761325666
 30
0.0
 11
-1386.958102382052
 21
1061.715761325666
 31
0.0
1001
GENIUS_GENOREF_13
1005
1AFE
  0
POINT
  5
1AFE
330
1F
100
AcDbEntity
  8
0
 60
     1
100
AcDbPoint
 10
-2961.755104077526
 20
179.5967034505901
 30
0.0
1001
GENIUS_GENOBJ-N-CRS_13
1002
{
1000
OWNER
1000
GEN
1002
}
1001
GENIUS_GENOLIS_13
1002
{
1000
ENT
1005
0
1005
0
1005
0
1005
1AFD
1002
}
1001
GENIUS_GENOENT_13
1002
{
1000
MYREF
1005
1AFE
1002
}
1002
{
1000
GRP
1005
0
1002
}
1001
GENIUS_GENODEF_13
1002
{
1000
HIER
1070
    10
1002
}
1002
{
1000
MANEDIT
1070
     1
1002
}
1002
{
1000
NOSEL
1070
     0
1002
}
1002
{
1000
BEHIND
1070
     0
1002
}
1002
{
1000
OTHER
1070
     0
1002
}
1002
{
1000
REACTOR
1002
}
  0
POINT
  5
1AFF
330
1F
100
AcDbEntity
  8
0
 60
     1
100
AcDbPoint
 10
-2973.079689300381
 20
188.4722899292263
 30
0.0
1001
GENIUS_GENOBJ-N-CRS_13
1002
{
1000
OWNER
1000
GEN
1002
}
1001
GENIUS_GENOLIS_13
1002
{
1000
ENT
1005
0
1005
0
1005
0
1005
1AFC
1002
}
1001
GENIUS_GENOENT_13
1002
{
1000
MYREF
1005
1AFF
1002
}
1002
{
1000
GRP
1005
0
1002
}
1001
GENIUS_GENODEF_13
1002
{
1000
HIER
1070
    10
1002
}
1002
{
1000
MANEDIT
1070
     1
1002
}
1002
{
1000
NOSEL
1070
     0
1002
}
1002
{
1000
BEHIND
1070
     0
1002
}
1002
{
1000
OTHER
1070
     0
1002
}
1002
{
1000
REACTOR
1002
}
  0
POINT
  5
1B00
330
1F
100
AcDbEntity
  8
0
 60
     1
100
AcDbPoint
 10
-2966.721015602544
 20
179.5967034505901
 30
0.0
1001
GENIUS_GENOBJ-N-CRS_13
1002
{
1000
OWNER
1000
GEN
1002
}
1001
GENIUS_GENOLIS_13
1002
{
1000
ENT
1005
0
1005
0
1005
0
1005
1AFB
1002
}
1001
GENIUS_GENOENT_13
1002
{
1000
MYREF
1005
1B00
1002
}
1002
{
1000
GRP
1005
0
1002
}
1001
GENIUS_GENODEF_13
1002
{
1000
HIER
1070
    10
1002
}
1002
{
1000
MANEDIT
1070
     1
1002
}
1002
{
1000
NOSEL
1070
     0
1002
}
1002
{
1000
BEHIND
1070
     0
1002
}
1002
{
1000
OTHER
1070
     0
1002
}
1002
{
1000
REACTOR
1002
}
  0
LINE
  5
1C00
330
1F
100
AcDbEntity
  8
LOGO
 62
     4
100
AcDbLine
 10
-1033.734069722807
 20
1508.110360735569
 30
0.0
 11
-1033.734069722807
 21
1371.276688165351
 31
0.0
  0
LINE
  5
1C01
330
1F
100
AcDbEntity
  8
LOGO
 62
     4
100
AcDbLine
 10
-1033.734069722807
 20
1371.276688165351
 30
0.0
 11
-827.8248767300437
 21
1371.276688165351
 31
0.0
  0
TEXT
  5
1CA5
330
1F
100
AcDbEntity
  8
0
100
AcDbText
 10
-1458.301102704254
 20
1460.854507834623
 30
0.0
 40
7.0
  1
MHR-30
100
AcDbText
  0
TEXT
  5
1CA7
330
1F
100
AcDbEntity
  8
0
100
AcDbText
 10
-1463.437008452266
 20
1374.049954234609
 30
0.0
 40
7.0
  1
MHR-60
100
AcDbText
  0
TEXT
  5
1CA8
330
1F
100
AcDbEntity
  8
0
100
AcDbText
 10
-1461.885428765371
 20
1278.81463953518
 30
0.0
 40
7.0
  1
MHR-80
100
AcDbText
  0
TEXT
  5
1CA9
330
1F
100
AcDbEntity
  8
0
100
AcDbText
 10
-1463.917603193234
 20
1176.31116636774
 30
0.0
 40
7.0
  1
MHR-100
100
AcDbText
  0
ENDSEC
  0
SECTION
  2
OBJECTS
  0
DICTIONARY
  5
C
330
0
100
AcDbDictionary
281
     1
  3
ACAD_COLOR
350
BE
  3
ACAD_GROUP
350
D
  3
ACAD_LAYOUT
350
1A
  3
ACAD_MATERIAL
350
BD
  3
ACAD_MLINESTYLE
350
17
  3
ACAD_PLOTSETTINGS
350
19
  3
ACAD_PLOTSTYLENAME
350
E
  3
ACAD_TABLESTYLE
350
11A
  3
ACDBHEADERROUNDTRIPXREC
350
1CD3
  3
AcDbVariableDictionary
350
94
  3
AcmDictionary
350
5B
  3
AMG
350
41
  3
AMGSNAPSETTINGS
350
1B8
  3
DWGPROPS
350
1CD2
  0
DICTIONARY
  5
3F9
330
2
100
AcDbDictionary
280
     1
281
     1
  3
ACAD_LAYERFILTERS
360
5B7
  3
ACAD_LAYERSTATES
360
19CB
  3
ACLYDICTIONARY
360
5B6
  0
DICTIONARY
  5
8F
330
1F
100
AcDbDictionary
280
     1
281
     1
  0
DICTIONARY
  5
BE
102
{ACAD_REACTORS
330
C
102
}
330
C
100
AcDbDictionary
281
     1
  0
DICTIONARY
  5
D
102
{ACAD_REACTORS
330
C
102
}
330
C
100
AcDbDictionary
281
     1
  0
DICTIONARY
  5
1A
102
{ACAD_REACTORS
330
C
102
}
330
C
100
AcDbDictionary
281
     1
  3
Model
350
22
  3
配置1
350
1E
  3
配置2
350
26
  0
DICTIONARY
  5
BD
102
{ACAD_REACTORS
330
C
102
}
330
C
100
AcDbDictionary
281
     1
  0
DICTIONARY
  5
17
102
{ACAD_REACTORS
330
C
102
}
330
C
100
AcDbDictionary
281
     1
  3
Standard
350
18
  0
DICTIONARY
  5
19
102
{ACAD_REACTORS
330
C
102
}
330
C
100
AcDbDictionary
281
     1
  0
ACDBDICTIONARYWDFLT
  5
E
102
{ACAD_REACTORS
330
C
102
}
330
C
100
AcDbDictionary
281
     1
  3
Normal
350
F
100
AcDbDictionaryWithDefault
340
F
  0
DICTIONARY
  5
11A
102
{ACAD_REACTORS
330
C
102
}
330
C
100
AcDbDictionary
281
     1
  3
Standard
350
11B
  0
DICTIONARY
  5
1CD3
102
{ACAD_REACTORS
330
C
102
}
330
C
100
AcDbDictionary
281
     1
  0
DICTIONARY
  5
94
102
{ACAD_REACTORS
330
C
102
}
330
C
100
AcDbDictionary
281
     1
  3
CTABLESTYLE
350
138
  3
DIMASSOC
350
96
  3
INDEXCTL
350
95
  3
PROJECTNAME
350
1CD0
  0
DICTIONARY
  5
5B
102
{ACAD_REACTORS
330
C
102
}
330
C
100
AcDbDictionary
281
     1
  3
AcmBOM
350
1B5
  3
AcmStdDictionary
350
61
  3
AMDTSECTSYM_ARROWCOLOR
350
123
  0
DICTIONARY
  5
41
102
{ACAD_REACTORS
330
C
102
}
330
C
100
AcDbDictionary
281
     1
  0
DICTIONARY
  5
1B8
102
{ACAD_REACTORS
330
C
102
}
330
C
100
AcDbDictionary
281
     1
  0
XRECORD
  5
1CD2
102
{ACAD_REACTORS
330
C
102
}
330
C
100
AcDbXrecord
280
     1
  1
DWGPROPS COOKIE
  2

  3

  4

  6

  7

  8

  9

300
AmdtFileType=84
301
=
302
=
303
=
304
=
305
=
306
=
307
=
308
=
309
=
 40
0.1728266087962963
 41
2454433.375601852
 42
2454433.55545934
  1

 90
        1
  0
DICTIONARY
  5
5B7
102
{ACAD_REACTORS
330
3F9
102
}
330
3F9
100
AcDbDictionary
281
     1
  0
DICTIONARY
  5
19CB
102
{ACAD_REACTORS
330
3F9
102
}
330
3F9
100
AcDbDictionary
281
     1
  0
DICTIONARY
  5
5B6
102
{ACAD_REACTORS
330
3F9
102
}
330
3F9
100
AcDbDictionary
281
     1
1001
ACAD
1000
<All
  0
LAYOUT
  5
22
102
{ACAD_XDICTIONARY
360
1CD6
102
}
102
{ACAD_REACTORS
330
1A
102
}
330
1A
100
AcDbPlotSettings
  1

  2
\\RD\EPSON Stylus C63 Series單色
  4
A4
  6

 40
3.757083177566528
 41
3.757076978683471
 42
3.757080078125
 43
3.757080078125
 44
209.9733276367187
 45
296.9683227539062
 46
0.0
 47
0.0
 48
0.0
 49
0.0
140
0.0
141
0.0
142
1.0
143
0.3405120737814363
 70
 11952
 72
     1
 73
     0
 74
     0
  7
彩色出圖.ctb
 75
     0
147
2.936753428137963
148
-2047.07469463503
149
-1261.649717473083
100
AcDbLayout
  1
Model
 70
     1
 71
     0
 10
0.0
 20
0.0
 11
12.0
 21
9.0
 12
0.0
 22
0.0
 32
0.0
 14
0.0
 24
0.0
 34
0.0
 15
0.0
 25
0.0
 35
0.0
146
0.0
 13
0.0
 23
0.0
 33
0.0
 16
1.0
 26
0.0
 36
0.0
 17
0.0
 27
1.0
 37
0.0
 76
     0
330
1F
1001
ACAD_PSEXT
1000
\\RD\EPSON Stylus C63 Series單色
1000
EPSON Stylus C63 Series
1000
\\RD
1000

1070
     0
  0
LAYOUT
  5
1E
102
{ACAD_XDICTIONARY
360
1CD4
102
}
102
{ACAD_REACTORS
330
1A
102
}
330
1A
100
AcDbPlotSettings
  1

  2

  4

  6

 40
0.0
 41
0.0
 42
0.0
 43
0.0
 44
0.0
 45
0.0
 46
0.0
 47
0.0
 48
0.0
 49
0.0
140
0.0
141
0.0
142
1.0
143
1.0
 70
   688
 72
     0
 73
     0
 74
     5
  7
彩色出圖.ctb
 75
    16
147
1.0
148
0.0
149
0.0
100
AcDbLayout
  1
配置1
 70
     1
 71
     1
 10
0.0
 20
0.0
 11
420.0
 21
297.0
 12
0.0
 22
0.0
 32
0.0
 14
1.000000000000000E+20
 24
1.000000000000000E+20
 34
1.000000000000000E+20
 15
-1.000000000000000E+20
 25
-1.000000000000000E+20
 35
-1.000000000000000E+20
146
0.0
 13
0.0
 23
0.0
 33
0.0
 16
1.0
 26
0.0
 36
0.0
 17
0.0
 27
1.0
 37
0.0
 76
     0
330
1B
  0
LAYOUT
  5
26
102
{ACAD_XDICTIONARY
360
1CD8
102
}
102
{ACAD_REACTORS
330
1A
102
}
330
1A
100
AcDbPlotSettings
  1

  2

  4

  6

 40
0.0
 41
0.0
 42
0.0
 43
0.0
 44
0.0
 45
0.0
 46
0.0
 47
0.0
 48
0.0
 49
0.0
140
0.0
141
0.0
142
1.0
143
1.0
 70
   688
 72
     0
 73
     0
 74
     5
  7
彩色出圖.ctb
 75
    16
147
1.0
148
0.0
149
0.0
100
AcDbLayout
  1
配置2
 70
     1
 71
     2
 10
0.0
 20
0.0
 11
12.0
 21
9.0
 12
0.0
 22
0.0
 32
0.0
 14
0.0
 24
0.0
 34
0.0
 15
0.0
 25
0.0
 35
0.0
146
0.0
 13
0.0
 23
0.0
 33
0.0
 16
1.0
 26
0.0
 36
0.0
 17
0.0
 27
1.0
 37
0.0
 76
     0
330
23
  0
MLINESTYLE
  5
18
102
{ACAD_REACTORS
330
17
102
}
330
17
100
AcDbMlineStyle
  2
STANDARD
 70
     0
  3

 62
   256
 51
90.0
 52
90.0
 71
     2
 49
0.5
 62
   256
  6
BYLAYER
 49
-0.5
 62
   256
  6
BYLAYER
  0
ACDBPLACEHOLDER
  5
F
102
{ACAD_REACTORS
330
E
102
}
330
E
  0
TABLESTYLE
  5
11B
102
{ACAD_REACTORS
330
11A
102
}
330
11A
100
AcDbTableStyle
  3
Standard
 70
     0
 71
     0
 40
1.5
 41
1.5
280
     0
281
     0
  7
STANDARD
140
4.5
170
     2
 62
     0
 63
     7
283
     0
274
    -2
284
     1
 64
     0
275
    -2
285
     1
 65
     0
276
    -2
286
     1
 66
     0
277
    -2
287
     1
 67
     0
278
    -2
288
     1
 68
     0
279
    -2
289
     1
 69
     0
  7
STANDARD
140
6.0
170
     5
 62
     0
 63
     7
283
     0
274
    -2
284
     1
 64
     0
275
    -2
285
     1
 65
     0
276
    -2
286
     1
 66
     0
277
    -2
287
     1
 67
     0
278
    -2
288
     1
 68
     0
279
    -2
289
     1
 69
     0
  7
STANDARD
140
4.5
170
     5
 62
     0
 63
     7
283
     0
274
    -2
284
     1
 64
     0
275
    -2
285
     1
 65
     0
276
    -2
286
     1
 66
     0
277
    -2
287
     1
 67
     0
278
    -2
288
     1
 68
     0
279
    -2
289
     1
 69
     0
  0
DICTIONARYVAR
  5
138
102
{ACAD_REACTORS
330
94
102
}
330
94
100
DictionaryVariables
280
     0
  1
STANDARD
  0
DICTIONARYVAR
  5
96
102
{ACAD_REACTORS
330
94
102
}
330
94
100
DictionaryVariables
280
     0
  1
2
  0
DICTIONARYVAR
  5
95
102
{ACAD_REACTORS
330
94
102
}
330
94
100
DictionaryVariables
280
     0
  1
0
  0
DICTIONARYVAR
  5
1CD0
102
{ACAD_REACTORS
330
94
102
}
330
94
100
DictionaryVariables
280
     0
  1

  0
DICTIONARY
  5
1B5
102
{ACAD_REACTORS
330
5B
102
}
330
5B
100
AcDbDictionary
281
     1
  0
DICTIONARY
  5
61
102
{ACAD_REACTORS
330
5B
102
}
330
5B
100
AcDbDictionary
281
     1
  0
XRECORD
  5
123
102
{ACAD_REACTORS
330
5B
102
}
330
5B
100
AcDbXrecord
280
     1
 90
-1023410169
  0
DICTIONARY
  5
1CD6
330
22
100
AcDbDictionary
280
     1
281
     1
  3
ACAD_XREC_ROUNDTRIP
360
1CD7
  0
DICTIONARY
  5
1CD4
330
1E
100
AcDbDictionary
280
     1
281
     1
  3
ACAD_XREC_ROUNDTRIP
360
1CD5
  0
DICTIONARY
  5
1CD8
330
26
100
AcDbDictionary
280
     1
281
     1
  3
ACAD_XREC_ROUNDTRIP
360
1CD9
  0
XRECORD
  5
1CD7
102
{ACAD_REACTORS
330
1CD6
102
}
330
1CD6
100
AcDbXrecord
280
     1
102
SHADEPLOT
 70
     0
102
SHADEPLOTRESLEVEL
 70
     2
102
SHADEPLOTCUSTOMDPI
 70
   300
  0
XRECORD
  5
1CD5
102
{ACAD_REACTORS
330
1CD4
102
}
330
1CD4
100
AcDbXrecord
280
     1
102
SHADEPLOT
 70
     0
102
SHADEPLOTRESLEVEL
 70
     2
102
SHADEPLOTCUSTOMDPI
 70
   300
  0
XRECORD
  5
1CD9
102
{ACAD_REACTORS
330
1CD8
102
}
330
1CD8
100
AcDbXrecord
280
     1
102
SHADEPLOT
 70
     0
102
SHADEPLOTRESLEVEL
 70
     2
102
SHADEPLOTCUSTOMDPI
 70
   300
  0
ENDSEC
  0
EOF
