  0
SECTION
  2
HEADER
  9
$ACADVER
  1
AC1015
  9
$ACADMAINTVER
 70
    20
  9
$DWGCODEPAGE
  3
ANSI_950
  9
$INSBASE
 10
0.0
 20
0.0
 30
0.0
  9
$EXTMIN
 10
1932.64587618083
 20
25.09353777492834
 30
-0.031995050356727
  9
$EXTMAX
 10
3032.869887647181
 20
825.1152468721889
 30
524.2629029729857
  9
$LIMMIN
 10
0.0
 20
0.0
  9
$LIMMAX
 10
420.0
 20
297.0
  9
$ORTHOMODE
 70
     0
  9
$REGENMODE
 70
     1
  9
$FILLMODE
 70
     1
  9
$QTEXTMODE
 70
     0
  9
$MIRRTEXT
 70
     1
  9
$LTSCALE
 40
1.0
  9
$ATTMODE
 70
     1
  9
$TEXTSIZE
 40
3.0
  9
$TRACEWID
 40
1.0
  9
$TEXTSTYLE
  7
CHINESET
  9
$CLAYER
  8
0
  9
$CELTYPE
  6
ByLayer
  9
$CECOLOR
 62
   256
  9
$CELTSCALE
 40
1.0
  9
$DISPSILH
 70
     0
  9
$DIMSCALE
 40
1.0
  9
$DIMASZ
 40
3.0
  9
$DIMEXO
 40
1.0
  9
$DIMDLI
 40
10.0
  9
$DIMRND
 40
0.0
  9
$DIMDLE
 40
0.0
  9
$DIMEXE
 40
1.5
  9
$DIMTP
 40
0.1
  9
$DIMTM
 40
0.1
  9
$DIMTXT
 40
3.0
  9
$DIMCEN
 40
0.0
  9
$DIMTSZ
 40
0.0
  9
$DIMTOL
 70
     0
  9
$DIMLIM
 70
     0
  9
$DIMTIH
 70
     0
  9
$DIMTOH
 70
     0
  9
$DIMSE1
 70
     0
  9
$DIMSE2
 70
     0
  9
$DIMTAD
 70
     1
  9
$DIMZIN
 70
     8
  9
$DIMBLK
  1

  9
$DIMASO
 70
     1
  9
$DIMSHO
 70
     1
  9
$DIMPOST
  1

  9
$DIMAPOST
  1
"
  9
$DIMALT
 70
     0
  9
$DIMALTD
 70
     2
  9
$DIMALTF
 40
0.0393701
  9
$DIMLFAC
 40
1.0
  9
$DIMTOFL
 70
     1
  9
$DIMTVP
 40
0.0
  9
$DIMTIX
 70
     0
  9
$DIMSOXD
 70
     0
  9
$DIMSAH
 70
     0
  9
$DIMBLK1
  1

  9
$DIMBLK2
  1

  9
$DIMSTYLE
  2
AM_ISO
  9
$DIMCLRD
 70
   256
  9
$DIMCLRE
 70
   256
  9
$DIMCLRT
 70
   256
  9
$DIMTFAC
 40
0.71
  9
$DIMGAP
 40
1.0
  9
$DIMJUST
 70
     0
  9
$DIMSD1
 70
     0
  9
$DIMSD2
 70
     0
  9
$DIMTOLJ
 70
     0
  9
$DIMTZIN
 70
     8
  9
$DIMALTZ
 70
     0
  9
$DIMALTTZ
 70
     0
  9
$DIMUPT
 70
     0
  9
$DIMDEC
 70
     2
  9
$DIMTDEC
 70
     8
  9
$DIMALTU
 70
     2
  9
$DIMALTTD
 70
     2
  9
$DIMTXSTY
  7
CHINESET
  9
$DIMAUNIT
 70
     0
  9
$DIMADEC
 70
     0
  9
$DIMALTRND
 40
0.0
  9
$DIMAZIN
 70
     2
  9
$DIMDSEP
 70
    46
  9
$DIMATFIT
 70
     3
  9
$DIMFRAC
 70
     0
  9
$DIMLDRBLK
  1

  9
$DIMLUNIT
 70
     2
  9
$DIMLWD
 70
    -1
  9
$DIMLWE
 70
    -1
  9
$DIMTMOVE
 70
     0
  9
$LUNITS
 70
     2
  9
$LUPREC
 70
     2
  9
$SKETCHINC
 40
1.0
  9
$FILLETRAD
 40
2.5
  9
$AUNITS
 70
     0
  9
$AUPREC
 70
     0
  9
$MENU
  1
.
  9
$ELEVATION
 40
0.0
  9
$PELEVATION
 40
0.0
  9
$THICKNESS
 40
0.0
  9
$LIMCHECK
 70
     0
  9
$CHAMFERA
 40
0.0
  9
$CHAMFERB
 40
0.0
  9
$CHAMFERC
 40
20.0
  9
$CHAMFERD
 40
0.0
  9
$SKPOLY
 70
     0
  9
$TDCREATE
 40
2453731.618400787
  9
$TDUCREATE
 40
2453731.285067453
  9
$TDUPDATE
 40
2453732.445016088
  9
$TDUUPDATE
 40
2453732.111682755
  9
$TDINDWG
 40
0.1109521412
  9
$TDUSRTIMER
 40
0.1109521412
  9
$USRTIMER
 70
     1
  9
$ANGBASE
 50
0.0
  9
$ANGDIR
 70
     0
  9
$PDMODE
 70
     0
  9
$PDSIZE
 40
0.0
  9
$PLINEWID
 40
0.0
  9
$SPLFRAME
 70
     0
  9
$SPLINETYPE
 70
     6
  9
$SPLINESEGS
 70
     8
  9
$HANDSEED
  5
2AEE
  9
$SURFTAB1
 70
     6
  9
$SURFTAB2
 70
     6
  9
$SURFTYPE
 70
     6
  9
$SURFU
 70
     6
  9
$SURFV
 70
     6
  9
$UCSBASE
  2

  9
$UCSNAME
  2

  9
$UCSORG
 10
0.0
 20
0.0
 30
0.0
  9
$UCSXDIR
 10
1.0
 20
0.0
 30
0.0
  9
$UCSYDIR
 10
0.0
 20
1.0
 30
0.0
  9
$UCSORTHOREF
  2

  9
$UCSORTHOVIEW
 70
     0
  9
$UCSORGTOP
 10
0.0
 20
0.0
 30
0.0
  9
$UCSORGBOTTOM
 10
0.0
 20
0.0
 30
0.0
  9
$UCSORGLEFT
 10
0.0
 20
0.0
 30
0.0
  9
$UCSORGRIGHT
 10
0.0
 20
0.0
 30
0.0
  9
$UCSORGFRONT
 10
0.0
 20
0.0
 30
0.0
  9
$UCSORGBACK
 10
0.0
 20
0.0
 30
0.0
  9
$PUCSBASE
  2

  9
$PUCSNAME
  2

  9
$PUCSORG
 10
0.0
 20
0.0
 30
0.0
  9
$PUCSXDIR
 10
1.0
 20
0.0
 30
0.0
  9
$PUCSYDIR
 10
0.0
 20
1.0
 30
0.0
  9
$PUCSORTHOREF
  2

  9
$PUCSORTHOVIEW
 70
     0
  9
$PUCSORGTOP
 10
0.0
 20
0.0
 30
0.0
  9
$PUCSORGBOTTOM
 10
0.0
 20
0.0
 30
0.0
  9
$PUCSORGLEFT
 10
0.0
 20
0.0
 30
0.0
  9
$PUCSORGRIGHT
 10
0.0
 20
0.0
 30
0.0
  9
$PUCSORGFRONT
 10
0.0
 20
0.0
 30
0.0
  9
$PUCSORGBACK
 10
0.0
 20
0.0
 30
0.0
  9
$USERI1
 70
     0
  9
$USERI2
 70
     0
  9
$USERI3
 70
     0
  9
$USERI4
 70
     0
  9
$USERI5
 70
     0
  9
$USERR1
 40
0.0
  9
$USERR2
 40
0.0
  9
$USERR3
 40
0.0
  9
$USERR4
 40
0.0
  9
$USERR5
 40
0.0
  9
$WORLDVIEW
 70
     1
  9
$SHADEDGE
 70
     3
  9
$SHADEDIF
 70
    70
  9
$TILEMODE
 70
     1
  9
$MAXACTVP
 70
    64
  9
$PINSBASE
 10
0.0
 20
0.0
 30
0.0
  9
$PLIMCHECK
 70
     0
  9
$PEXTMIN
 10
1.000000000000000E+20
 20
1.000000000000000E+20
 30
1.000000000000000E+20
  9
$PEXTMAX
 10
-1.000000000000000E+20
 20
-1.000000000000000E+20
 30
-1.000000000000000E+20
  9
$PLIMMIN
 10
0.0
 20
0.0
  9
$PLIMMAX
 10
420.0
 20
297.0
  9
$UNITMODE
 70
     0
  9
$VISRETAIN
 70
     1
  9
$PLINEGEN
 70
     0
  9
$PSLTSCALE
 70
     1
  9
$TREEDEPTH
 70
  3020
  9
$CMLSTYLE
  2
Standard
  9
$CMLJUST
 70
     0
  9
$CMLSCALE
 40
20.0
  9
$PROXYGRAPHICS
 70
     1
  9
$MEASUREMENT
 70
     1
  9
$CELWEIGHT
370
    -1
  9
$ENDCAPS
280
     0
  9
$JOINSTYLE
280
     0
  9
$LWDISPLAY
290
     0
  9
$INSUNITS
 70
     4
  9
$HYPERLINKBASE
  1

  9
$STYLESHEET
  1
彩色出圖.ctb
  9
$XEDIT
290
     1
  9
$CEPSNTYPE
380
     0
  9
$PSTYLEMODE
290
     1
  9
$FINGERPRINTGUID
  2
{0D855794-04CD-42EC-BA89-F7EABE2626E6}
  9
$VERSIONGUID
  2
{B6CC5106-6B44-4B99-9111-6EF89B5653FB}
  9
$EXTNAMES
290
     1
  9
$PSVPSCALE
 40
0.0
  9
$OLESTARTUP
290
     0
  0
ENDSEC
  0
SECTION
  2
CLASSES
  0
CLASS
  1
ACDBDICTIONARYWDFLT
  2
AcDbDictionaryWithDefault
  3
ObjectDBX Classes
 90
        0
280
     0
281
     0
  0
CLASS
  1
ACDBPLACEHOLDER
  2
AcDbPlaceHolder
  3
ObjectDBX Classes
 90
        0
280
     0
281
     0
  0
CLASS
  1
LAYOUT
  2
AcDbLayout
  3
ObjectDBX Classes
 90
        0
280
     0
281
     0
  0
CLASS
  1
ACME_DOCUMENT
  2
AcMeDbDoc
  3
AcMeServices
 90
        0
280
     0
281
     0
  0
CLASS
  1
AMGSETTINGSOBJ
  2
AmgSettingsObj
  3
"AcadM|Product Description: AutoCAD Mechanical 2000|Company: Autodesk"
 90
        0
280
     0
281
     0
  0
CLASS
  1
ACMESCOPE
  2
AcMeScope
  3
AcMeServices
 90
        0
280
     0
281
     0
  0
CLASS
  1
ACMECOMMANDHISTORY
  2
AcMeCommandHistory
  3
AcMeServices
 90
        0
280
     0
281
     0
  0
CLASS
  1
ACIMSYSVARMAN
  2
AcImSysVarManager
  3
AcMeServices
 90
        0
280
     0
281
     0
  0
CLASS
  1
ACIMREALSYSVAR
  2
AcImRealSysVar
  3
AcMeServices
 90
        0
280
     0
281
     0
  0
CLASS
  1
ACIMINTSYSVAR
  2
AcImIntSysVar
  3
AcMeServices
 90
        0
280
     0
281
     0
  0
CLASS
  1
ACMEDRAWINGMAN
  2
AcMeDrawingMan
  3
AcMeServices
 90
        0
280
     0
281
     0
  0
CLASS
  1
ACMEVIEW
  2
AcMeView
  3
AcMeServices
 90
        0
280
     0
281
     0
  0
CLASS
  1
ACDBENTITYCACHE
  2
AcMeEntityCache
  3
AcMeServices
 90
        0
280
     0
281
     0
  0
CLASS
  1
GSMANAGER
  2
AcMeGSManager
  3
AcMeServices
 90
        0
280
     0
281
     0
  0
CLASS
  1
AMDTINTERNALREACTOR
  2
AmdtInternalReactor
  3
AcMeServices
 90
        0
280
     0
281
     0
  0
CLASS
  1
ACMESTATEMGR
  2
AcMeStateMgr
  3
AcMeServices
 90
        0
280
     0
281
     0
  0
CLASS
  1
ACGREFMASTER
  2
AcGrefMaster
  3
AcAttribServices
 90
        0
280
     0
281
     0
  0
CLASS
  1
ACME_DATABASE
  2
AcMeDbDatabase
  3
AcMeServices
 90
        0
280
     0
281
     0
  0
CLASS
  1
ACRFINSADJUSTERMGR
  2
AcRfInsAdjusterMgr
  3
AcMeServices
 90
        0
280
     0
281
     0
  0
CLASS
  1
ACGREFACADMASTER
  2
AcGrefacadMaster
  3
AcGrefServices
 90
        0
280
     0
281
     0
  0
CLASS
  1
AMIMASTER
  2
AmiMaster
  3
AmiServices
 90
        0
280
     0
281
     0
  0
CLASS
  1
ACMDATADICTIONARY
  2
AcmDataDictionary
  3
"AcmSymBB|Product Description: AutoCAD Mechanical 2004 DX|Company: Autodesk"
 90
        0
280
     0
281
     0
  0
CLASS
  1
ACMDATAENTRYBLOCK
  2
AcmDataEntryBlock
  3
"AcmSymBB|Product Description: AutoCAD Mechanical 2004 DX|Company: Autodesk"
 90
        0
280
     0
281
     0
  0
CLASS
  1
ACIMSTRSYSVAR
  2
AcImStrSysVar
  3
AcMeServices
 90
        0
280
     0
281
     0
  0
CLASS
  1
ACMSTANDARDISO
  2
AcmStandardISO
  3
"Amdt_StdImp|Product Description: AutoCAD Mechanical 2004 DX|Company: Autodesk"
 90
        0
280
     0
281
     0
  0
CLASS
  1
AMGOBJPROPCFG
  2
AmgObjPropCfg
  3
"AmgLay|Product Description: AutoCAD Mechanical 2000|Company: Autodesk"
 90
        1
280
     0
281
     0
  0
CLASS
  1
AMDTEDGESTANDARDISO
  2
AmdtEdgeStdISO
  3
"Amdt_StdImp|Product Description: AutoCAD Mechanical 2004 DX|Company: Autodesk"
 90
        0
280
     0
281
     0
  0
CLASS
  1
ACMSURFSTANDARDISO
  2
AcmSurfTextStdISO
  3
"Amdt_StdImp|Product Description: AutoCAD Mechanical 2004 DX|Company: Autodesk"
 90
        0
280
     0
281
     0
  0
CLASS
  1
ACMFCFSTANDARDISO
  2
AcmFCFStdISO
  3
"Amdt_StdImp|Product Description: AutoCAD Mechanical 2004 DX|Company: Autodesk"
 90
        0
280
     0
281
     0
  0
CLASS
  1
ACMWELDSTANDARDISO
  2
AcmWeldingStdISO
  3
"Amdt_StdImp|Product Description: AutoCAD Mechanical 2004 DX|Company: Autodesk"
 90
        0
280
     0
281
     0
  0
CLASS
  1
ACMIDSTANDARDISO
  2
AcmIdStdISO
  3
"Amdt_StdImp|Product Description: AutoCAD Mechanical 2004 DX|Company: Autodesk"
 90
        0
280
     0
281
     0
  0
CLASS
  1
ACMDATUMSTANDARDISO
  2
AcmDatumStdISO
  3
"Amdt_StdImp|Product Description: AutoCAD Mechanical 2004 DX|Company: Autodesk"
 90
        0
280
     0
281
     0
  0
CLASS
  1
ACMBOMSTANDARDISO
  2
AcmBOMStdISO
  3
"Amdt_StdImp|Product Description: AutoCAD Mechanical 2004 DX|Company: Autodesk"
 90
        0
280
     0
281
     0
  0
CLASS
  1
ACMDETAILSTANDARDISO
  2
AmdtDetailSymStdISO
  3
"Amdt_StdImp|Product Description: AutoCAD Mechanical 2004 DX|Company: Autodesk"
 90
        0
280
     0
281
     0
  0
CLASS
  1
ACMSECTIONSTANDARDISO
  2
AmdtSectionSymStdISO
  3
"Amdt_StdImp|Product Description: AutoCAD Mechanical 2004 DX|Company: Autodesk"
 90
        0
280
     0
281
     0
  0
CLASS
  1
ACMCENTERLINESTANDARDISO
  2
AmdtCenterLineStdISO
  3
"Amdt_StdImp|Product Description: AutoCAD Mechanical 2004 DX|Company: Autodesk"
 90
        0
280
     0
281
     0
  0
CLASS
  1
ACMNOTESTANDARDISO
  2
AmdtNoteStdISO
  3
"Amdt_StdImp|Product Description: AutoCAD Mechanical 2004 DX|Company: Autodesk"
 90
        0
280
     0
281
     0
  0
CLASS
  1
ACAMGLAYSTD
  2
AcAmgLayStd
  3
"AcAmgLayStd|Product Description: AutoCAD Mechanical 2000|Company: Autodesk"
 90
        0
280
     0
281
     0
  0
CLASS
  1
ACAMGDIMSTD
  2
AcAmgDimStd
  3
"AcAmgDimStd|Product Description: AutoCAD Mechanical 2000|Company: Autodesk"
 90
        0
280
     0
281
     0
  0
CLASS
  1
ACAMGHOLECHARTSTDISO
  2
AcAmgHoleChartStdISO
  3
ACMSYMBB_MODULE_NAME
 90
        0
280
     0
281
     0
  0
CLASS
  1
ACAMGTITLESTD
  2
AcAmgTitleStd
  3
"TITLEAPP"
 90
        0
280
     0
281
     0
  0
CLASS
  1
LAYER_INDEX
  2
AcDbLayerIndex
  3
ObjectDBX Classes
 90
    32768
280
     0
281
     0
  0
CLASS
  1
IDBUFFER
  2
AcDbIdBuffer
  3
ObjectDBX Classes
 90
    32768
280
     0
281
     0
  0
CLASS
  1
DICTIONARYVAR
  2
AcDbDictionaryVar
  3
ObjectDBX Classes
 90
        0
280
     0
281
     0
  0
CLASS
  1
AM_DRAWING_MGR
  2
AcDmDwgMgr
  3
AcMechDwgViewMgmt
 90
        0
280
     0
281
     0
  0
CLASS
  1
AM_DWG_DOCUMENT
  2
AcDmDwgDocument
  3
AcMechDwgViewMgmt
 90
        0
280
     0
281
     0
  0
CLASS
  1
AM_DWG_SHEET
  2
AcDmSheet
  3
AcMechDwgViewMgmt
 90
        0
280
     0
281
     0
  0
CLASS
  1
AM_VIEWDIMPARMAP
  2
AcDmViewDimParMap
  3
AcMechDwgViewMgmt
 90
        0
280
     0
281
     0
  0
CLASS
  1
AM_DWGMGR_NAME
  2
AcDmDwgMgrName
  3
AcMechDwgViewMgmt
 90
        0
280
     0
281
     0
  0
CLASS
  1
AMDTMENUSTATEMGR
  2
AmdtMenuStateMgr
  3
McadcomServices
 90
        0
280
     0
281
     0
  0
CLASS
  1
AMDTMCOMMENUSTATE
  2
AmdtMcomMenuState
  3
McadcomServices
 90
        0
280
     0
281
     0
  0
CLASS
  1
MAPIAMMOUDLE
  2
MApiAmModule
  3
MApiAmServices
 90
        0
280
     0
281
     0
  0
CLASS
  1
AMDTADMENUSTATE
  2
AmdtAdMenuState
  3
DesignerServices
 90
        0
280
     0
281
     0
  0
CLASS
  1
ADAPPL
  2
AcAdAppl
  3
DesignerServices
 90
        0
280
     0
281
     0
  0
CLASS
  1
DEPMGR
  2
AcAdDepMgr
  3
DesignerServices
 90
        0
280
     0
281
     0
  0
CLASS
  1
PARAMMGR
  2
AcAdParamMgr
  3
DesignerServices
 90
        0
280
     0
281
     0
  0
CLASS
  1
PARAMSCOPE
  2
AcAdParamScope
  3
DesignerServices
 90
        0
280
     0
281
     0
  0
CLASS
  1
NAMEDAPPL
  2
AcAdNamedAppl
  3
DesignerServices
 90
        0
280
     0
281
     0
  0
CLASS
  1
AMDTDMMENUSTATE
  2
AmdtDmMenuState
  3
AcMechDwgViewMgmt
 90
        0
280
     0
281
     0
  0
CLASS
  1
AMDTAMMENUSTATE
  2
AmdtAmMenuState
  3
DesignerAssemblies
 90
        0
280
     0
281
     0
  0
CLASS
  1
ACAMPROJECT
  2
AcAmProject
  3
DesignerAssemblies
 90
        0
280
     0
281
     0
  0
CLASS
  1
ACAMGRCOMPDEF
  2
AcAmGrCompDef
  3
DesignerAssemblies
 90
        0
280
     0
281
     0
  0
CLASS
  1
ACCMCONTEXT
  2
AcCmContext
  3
DesignerAssemblies
 90
        0
280
     0
281
     0
  0
CLASS
  1
ACAMCOMPDEF
  2
AcAmCompDef
  3
DesignerAssemblies
 90
        0
280
     0
281
     0
  0
CLASS
  1
ACAMCOMPDEFMGR
  2
AcAmCompDefMgr
  3
DesignerAssemblies
 90
        0
280
     0
281
     0
  0
CLASS
  1
AMCONTEXTMGR
  2
AcAmContextMgr
  3
DesignerAssemblies
 90
        0
280
     0
281
     0
  0
CLASS
  1
ACAMCONTEXTMODELER
  2
AcAmContextModeler
  3
DesignerAssemblies
 90
        0
280
     0
281
     0
  0
CLASS
  1
ACMTHREADLINESTANDARDISO
  2
AmdtThreadLineStdISO
  3
"Amdt_StdImp|Product Description: AutoCAD Mechanical 2004 DX|Company: Autodesk"
 90
        0
280
     0
281
     0
  0
CLASS
  1
CATALOGSTATE
  2
AcAmCatalogState
  3
DesignerAssemblies
 90
        0
280
     0
281
     0
  0
CLASS
  1
ACAMGRCOMPDEFSET
  2
AcAmGrCompDefSet
  3
DesignerAssemblies
 90
        0
280
     0
281
     0
  0
CLASS
  1
AMDTBROWSERDBTAB
  2
AmdtBrowserDbTab
  3
McadcomServices
 90
        0
280
     0
281
     0
  0
CLASS
  1
CBROWSERAPPOBJECT
  2
CBrowserAppObject
  3
McadcomServices
 90
        0
280
     0
281
     0
  0
CLASS
  1
DM_PLACEHOLDER
  2
AcDmSelsetPlaceholder
  3
AcMechDwgViewMgmt
 90
        0
280
     0
281
     0
  0
CLASS
  1
TABLESTYLE
  2
AcDbTableStyle
  3
ObjectDBX Classes
 90
     2047
280
     0
281
     0
  0
CLASS
  1
VAACXREFPANELOBJECT
  2
VaAcXREFPanelObject
  3
VAAC_ADDIN
 90
    32768
280
     0
281
     0
  0
CLASS
  1
VAACIMAGEINVENTORY
  2
VaAcImageInventory
  3
VAAC_ADDIN
 90
    32768
280
     0
281
     0
  0
CLASS
  1
AMDTNOTETEMPLATEDB
  2
AmdtNoteTemplateDB
  3
AMDT_STDIMP_MODULE_NAME
 90
        0
280
     0
281
     0
  0
CLASS
  1
ACMBOM
  2
AcmBom
  3
"AcmSymBB|Product Description: AutoCAD Mechanical 2004 DX|Company: Autodesk"
 90
    32768
280
     0
281
     0
  0
CLASS
  1
AMDTFORMULAUPDATEDISPATCHER
  2
AmdtFormulaUpdateDispatcher
  3
AcMeServices
 90
    32768
280
     0
281
     0
  0
CLASS
  1
ACMPARTLIST
  2
AcmPartList
  3
"AcmSymBB|Product Description: AutoCAD Mechanical 2004 DX|Company: Autodesk"
 90
    33791
280
     0
281
     1
  0
CLASS
  1
ACAMGFILTERDAT
  2
AcAmgFilterDat
  3
"AcadM|Product Description: AutoCAD Mechanical 2000|Company: Autodesk"
 90
        0
280
     0
281
     0
  0
CLASS
  1
DIMASSOC
  2
AcDbDimAssoc
  3
"AcDbDimAssoc|Product Desc:     AcDim ARX App For Dimension|Company:          Autodesk, Inc.|WEB Address:      www.autodesk.com"
 90
        0
280
     0
281
     0
  0
CLASS
  1
ACMSTANDARDANSI
  2
AcmStandardANSI
  3
"Amdt_StdImp|Product Description: AutoCAD Mechanical 2004 DX|Company: Autodesk"
 90
        0
280
     0
281
     0
  0
CLASS
  1
ACMSURFSTANDARDANSI
  2
AcmSurfTextStdANSI
  3
"Amdt_StdImp|Product Description: AutoCAD Mechanical 2004 DX|Company: Autodesk"
 90
        0
280
     0
281
     0
  0
CLASS
  1
ACMFCFSTANDARDANSI
  2
AcmFCFStdANSI
  3
"Amdt_StdImp|Product Description: AutoCAD Mechanical 2004 DX|Company: Autodesk"
 90
        0
280
     0
281
     0
  0
CLASS
  1
ACMWELDSTANDARDANSI
  2
AcmWeldingStdANSI
  3
"Amdt_StdImp|Product Description: AutoCAD Mechanical 2004 DX|Company: Autodesk"
 90
        0
280
     0
281
     0
  0
CLASS
  1
ACMIDSTANDARDANSI
  2
AcmIdStdANSI
  3
"Amdt_StdImp|Product Description: AutoCAD Mechanical 2004 DX|Company: Autodesk"
 90
        0
280
     0
281
     0
  0
CLASS
  1
ACMDATUMSTANDARDANSI
  2
AcmDatumStdANSI
  3
"Amdt_StdImp|Product Description: AutoCAD Mechanical 2004 DX|Company: Autodesk"
 90
        0
280
     0
281
     0
  0
CLASS
  1
ACMBOMSTANDARDANSI
  2
AcmBOMStdANSI
  3
"Amdt_StdImp|Product Description: AutoCAD Mechanical 2004 DX|Company: Autodesk"
 90
        0
280
     0
281
     0
  0
CLASS
  1
ACMDETAILSTANDARDANSI
  2
AmdtDetailSymStdANSI
  3
"Amdt_StdImp|Product Description: AutoCAD Mechanical 2004 DX|Company: Autodesk"
 90
        0
280
     0
281
     0
  0
CLASS
  1
ACMSECTIONSTANDARDANSI
  2
AmdtSectionSymStdANSI
  3
"Amdt_StdImp|Product Description: AutoCAD Mechanical 2004 DX|Company: Autodesk"
 90
        0
280
     0
281
     0
  0
CLASS
  1
ACMCENTERLINESTANDARDANSI
  2
AmdtCenterLineStdANSI
  3
"Amdt_StdImp|Product Description: AutoCAD Mechanical 2004 DX|Company: Autodesk"
 90
        0
280
     0
281
     0
  0
CLASS
  1
ACMTHREADLINESTANDARDANSI
  2
AmdtThreadLineStdANSI
  3
"Amdt_StdImp|Product Description: AutoCAD Mechanical 2004 DX|Company: Autodesk"
 90
        0
280
     0
281
     0
  0
CLASS
  1
ACMNOTESTANDARDANSI
  2
AmdtNoteStdANSI
  3
"Amdt_StdImp|Product Description: AutoCAD Mechanical 2004 DX|Company: Autodesk"
 90
        0
280
     0
281
     0
  0
CLASS
  1
ACAMGHOLECHARTSTDANSI
  2
AcAmgHoleChartStdANSI
  3
ACMSYMBB_MODULE_NAME
 90
        0
280
     0
281
     0
  0
CLASS
  1
SORTENTSTABLE
  2
AcDbSortentsTable
  3
ObjectDBX Classes
 90
        0
280
     0
281
     0
  0
CLASS
  1
ACRFATTGENMGR
  2
AcRfAttGeneralMgr
  3
AcAttribServices
 90
        0
280
     0
281
     0
  0
ENDSEC
  0
SECTION
  2
TABLES
  0
TABLE
  2
VPORT
  5
8
330
0
100
AcDbSymbolTable
 70
    57
  0
VPORT
  5
2AE5
330
8
100
AcDbSymbolTableRecord
100
AcDbViewportTableRecord
  2
*Active
 70
     0
 10
0.0
 20
0.0
 11
1.0
 21
1.0
 12
2482.757881914006
 22
425.1043923235585
 13
0.0
 23
0.0
 14
2.5
 24
2.5
 15
10.0
 25
10.0
 16
0.0
 26
0.0
 36
1.0
 17
0.0
 27
0.0
 37
0.0
 40
809.027581995166
 41
1.81766917293233
 42
50.0
 43
0.0
 44
0.0
 50
0.0
 51
0.0
 71
     0
 72
   100
 73
     1
 74
     3
 75
     0
 76
     0
 77
     0
 78
     0
281
     0
 65
     1
110
0.0
120
0.0
130
0.0
111
1.0
121
0.0
131
0.0
112
0.0
122
1.0
132
0.0
 79
     0
146
0.0
  0
ENDTAB
  0
TABLE
  2
LTYPE
  5
5
330
0
100
AcDbSymbolTable
 70
    16
  0
LTYPE
  5
14
330
5
100
AcDbSymbolTableRecord
100
AcDbLinetypeTableRecord
  2
ByBlock
 70
     0
  3

 72
    65
 73
     0
 40
0.0
  0
LTYPE
  5
15
330
5
100
AcDbSymbolTableRecord
100
AcDbLinetypeTableRecord
  2
ByLayer
 70
     0
  3

 72
    65
 73
     0
 40
0.0
  0
LTYPE
  5
16
330
5
100
AcDbSymbolTableRecord
100
AcDbLinetypeTableRecord
  2
Continuous
 70
     0
  3
Solid line
 72
    65
 73
     0
 40
0.0
  0
LTYPE
  5
64
330
5
100
AcDbSymbolTableRecord
100
AcDbLinetypeTableRecord
  2
AM_ISO02W050
 70
     0
  3
__ __ __ __ __ __ __ __ __ __ __ __ __ __ __
 72
    65
 73
     2
 40
7.5
 49
6.0
 74
     0
 49
-1.5
 74
     0
  0
LTYPE
  5
65
330
5
100
AcDbSymbolTableRecord
100
AcDbLinetypeTableRecord
  2
AM_ISO08W050
 70
     0
  3
____ . ____ . ____ . ____ . ____ . ____ . ____
 72
    65
 73
     4
 40
18.0
 49
12.0
 74
     0
 49
-1.5
 74
     0
 49
3.0
 74
     0
 49
-1.5
 74
     0
  0
LTYPE
  5
66
330
5
100
AcDbSymbolTableRecord
100
AcDbLinetypeTableRecord
  2
AM_ISO09W050
 70
     0
  3
_____ . . _____ . . _____ . . ____ .. ____
 72
    65
 73
     6
 40
22.5
 49
12.0
 74
     0
 49
-1.5
 74
     0
 49
3.0
 74
     0
 49
-1.5
 74
     0
 49
3.0
 74
     0
 49
-1.5
 74
     0
  0
LTYPE
  5
67
330
5
100
AcDbSymbolTableRecord
100
AcDbLinetypeTableRecord
  2
Amconstr
 70
     0
  3
_______________________
 72
    65
 73
     2
 40
9999.0
 49
9999.0
 74
     0
 49
0.0
 74
     0
  0
LTYPE
  5
68
330
5
100
AcDbSymbolTableRecord
100
AcDbLinetypeTableRecord
  2
AM_ISO08W050x2
 70
     0
  3
__ . __ . __ . __ . __ . __
 72
    65
 73
     4
 40
9.0
 49
6.0
 74
     0
 49
-0.75
 74
     0
 49
1.5
 74
     0
 49
-0.75
 74
     0
  0
LTYPE
  5
69
330
5
100
AcDbSymbolTableRecord
100
AcDbLinetypeTableRecord
  2
AM_ISO02W050x2
 70
     0
  3
 _ _ _ _ _ _ _ _ _ _ _ _
 72
    65
 73
     2
 40
3.75
 49
3.0
 74
     0
 49
-0.75
 74
     0
  0
LTYPE
  5
6C
330
5
100
AcDbSymbolTableRecord
100
AcDbLinetypeTableRecord
  2
Amzigzag
 70
     0
  3
/\/-/\/-/\/-/\/-/\/-/\/
 72
    65
 73
     2
 40
11.0001
 49
0.0001
 74
     4
 75
   135
340
6B
 46
0.04
 50
0.0
 44
0.0
 45
0.0
 49
-11.0
 74
     0
  0
LTYPE
  5
7A
330
5
100
AcDbSymbolTableRecord
100
AcDbLinetypeTableRecord
  2
ACISOWELD
 70
     0
  3
_ _ _ _ _
 72
    65
 73
     2
 40
2.0
 49
2.0
 74
     0
 49
-1.0
 74
     0
  0
LTYPE
  5
7B
330
5
100
AcDbSymbolTableRecord
100
AcDbLinetypeTableRecord
  2
ACISOTGB
 70
     0
  3
__ . . __ . .
 72
    65
 73
     6
 40
9.0
 49
4.0
 74
     0
 49
-1.0
 74
     0
 49
1.0
 74
     0
 49
-1.0
 74
     0
 49
1.0
 74
     0
 49
-1.0
 74
     0
  0
LTYPE
  5
7C
330
5
100
AcDbSymbolTableRecord
100
AcDbLinetypeTableRecord
  2
ACISOTGL
 70
     0
  3
_ _ _ _ _
 72
    65
 73
     2
 40
3.0
 49
2.0
 74
     0
 49
-1.0
 74
     0
  0
LTYPE
  5
7E
330
5
100
AcDbSymbolTableRecord
100
AcDbLinetypeTableRecord
  2
CENTER
 70
     0
  3
__ . __
 72
    65
 73
     4
 40
7.0
 49
4.0
 74
     0
 49
-1.0
 74
     0
 49
1.0
 74
     0
 49
-1.0
 74
     0
  0
LTYPE
  5
D8
330
5
100
AcDbSymbolTableRecord
100
AcDbLinetypeTableRecord
  2
HIDDEN
 70
     0
  3
Hidden __ __ __ __ __ __ __ __ __ __ __ __ __ _
 72
    65
 73
     2
 40
9.524999999999998
 49
6.349999999999999
 74
     0
 49
-3.174999999999999
 74
     0
  0
LTYPE
  5
D9
330
5
100
AcDbSymbolTableRecord
100
AcDbLinetypeTableRecord
  2
PHANTOM2
 70
     0
  3
Phantom (.5x) ___ _ _ ___ _ _ ___ _ _ ___ _ _
 72
    65
 73
     6
 40
31.75
 49
15.875
 74
     0
 49
-3.174999999999999
 74
     0
 49
3.174999999999999
 74
     0
 49
-3.174999999999999
 74
     0
 49
3.174999999999999
 74
     0
 49
-3.174999999999999
 74
     0
  0
LTYPE
  5
7F5
330
5
100
AcDbSymbolTableRecord
100
AcDbLinetypeTableRecord
  2
ACANSTGB
 70
     0
  3
__ . . __ . .
 72
    65
 73
     6
 40
0.35433070866
 49
0.15748031496
 74
     0
 49
-0.03937007874
 74
     0
 49
0.03937007874
 74
     0
 49
-0.03937007874
 74
     0
 49
0.03937007874
 74
     0
 49
-0.03937007874
 74
     0
  0
LTYPE
  5
7F6
330
5
100
AcDbSymbolTableRecord
100
AcDbLinetypeTableRecord
  2
ACANSTGL
 70
     0
  3
_ _ _ _ _
 72
    65
 73
     2
 40
0.11811023622
 49
0.07874015748
 74
     0
 49
-0.03937007874
 74
     0
  0
ENDTAB
  0
TABLE
  2
LAYER
  5
2
102
{ACAD_XDICTIONARY
360
3F9
102
}
330
0
100
AcDbSymbolTable
 70
     6
  0
LAYER
  5
10
330
2
100
AcDbSymbolTableRecord
100
AcDbLayerTableRecord
  2
0
 70
     0
 62
     7
  6
Continuous
370
    -3
390
F
  0
LAYER
  5
8B2
330
2
100
AcDbSymbolTableRecord
100
AcDbLayerTableRecord
  2
AM_7
 70
     0
 62
     1
  6
CENTER
370
    25
390
F
  0
LAYER
  5
1083
330
2
100
AcDbSymbolTableRecord
100
AcDbLayerTableRecord
  2
AM_5
 70
     0
 62
     5
  6
Continuous
370
    50
390
F
  0
LAYER
  5
1093
330
2
100
AcDbSymbolTableRecord
100
AcDbLayerTableRecord
  2
Defpoints
 70
     0
 62
     7
  6
Continuous
290
     0
370
    -3
390
F
  0
LAYER
  5
1560
330
2
100
AcDbSymbolTableRecord
100
AcDbLayerTableRecord
  2
LOGO
 70
     0
 62
     7
  6
Continuous
370
    -3
390
F
  0
ENDTAB
  0
TABLE
  2
STYLE
  5
3
330
0
100
AcDbSymbolTable
 70
     8
  0
STYLE
  5
11
330
3
100
AcDbSymbolTableRecord
100
AcDbTextStyleTableRecord
  2
STANDARD
 70
     0
 40
0.0
 41
1.0
 50
0.0
 71
     0
 42
3.0
  3
ISOCP.SHX
  4
CHINESET.SHX
  0
STYLE
  5
6B
330
3
100
AcDbSymbolTableRecord
100
AcDbTextStyleTableRecord
  2

 70
     1
 40
0.0
 41
1.0
 50
0.0
 71
     0
 42
2.5
  3
ltypeshp.shx
  4

  0
STYLE
  5
6D
330
3
100
AcDbSymbolTableRecord
100
AcDbTextStyleTableRecord
  2
ACISOTS
 70
     0
 40
1.0
 41
1.0
 50
0.0
 71
     0
 42
1.0
  3
isocp.shx
  4
chineset.shx
  0
STYLE
  5
79
330
3
100
AcDbSymbolTableRecord
100
AcDbTextStyleTableRecord
  2
ACISOGDT
 70
     0
 40
0.0
 41
1.0
 50
0.0
 71
     0
 42
2.5
  3
amgdt.shx
  4
chineset.shx
  0
STYLE
  5
60C
330
3
100
AcDbSymbolTableRecord
100
AcDbTextStyleTableRecord
  2
CHINESET
 70
     0
 40
0.0
 41
0.75
 50
0.0
 71
     0
 42
3.0
  3
simplex.shx
  4
CHINESET.SHX
  0
STYLE
  5
7F9
330
3
100
AcDbSymbolTableRecord
100
AcDbTextStyleTableRecord
  2
ACANSTS
 70
     0
 40
1.0
 41
1.0
 50
0.0
 71
     0
 42
5.84703234913793
  3
romans.shx
  4
chineset.shx
  0
STYLE
  5
7FA
330
3
100
AcDbSymbolTableRecord
100
AcDbTextStyleTableRecord
  2
ACANSGDT
 70
     0
 40
0.0
 41
1.0
 50
0.0
 71
     0
 42
5.84703234913793
  3
amgdtans.shx
  4

  0
ENDTAB
  0
TABLE
  2
VIEW
  5
6
330
0
100
AcDbSymbolTable
 70
     0
  0
ENDTAB
  0
TABLE
  2
UCS
  5
7
330
0
100
AcDbSymbolTable
 70
     0
  0
ENDTAB
  0
TABLE
  2
APPID
  5
9
330
0
100
AcDbSymbolTable
 70
    19
  0
APPID
  5
12
330
9
100
AcDbSymbolTableRecord
100
AcDbRegAppTableRecord
  2
ACAD
 70
     0
  0
APPID
  5
46
330
9
100
AcDbSymbolTableRecord
100
AcDbRegAppTableRecord
  2
MCAD_NO_VIS
 70
     0
  0
APPID
  5
47
330
9
100
AcDbSymbolTableRecord
100
AcDbRegAppTableRecord
  2
ACAD_TEMP_GRAPHIC
 70
     0
  0
APPID
  5
58
330
9
100
AcDbSymbolTableRecord
100
AcDbRegAppTableRecord
  2
ACATTRIBSERVICES
 70
     0
  0
APPID
  5
EE
330
9
100
AcDbSymbolTableRecord
100
AcDbRegAppTableRecord
  2
AD_DRAW
 70
     0
  0
APPID
  5
10C
330
9
100
AcDbSymbolTableRecord
100
AcDbRegAppTableRecord
  2
DESIGNERASSEMBLIES
 70
     0
  0
APPID
  5
111
330
9
100
AcDbSymbolTableRecord
100
AcDbRegAppTableRecord
  2
ACADM_DIM_EDIT
 70
     0
  0
APPID
  5
112
330
9
100
AcDbSymbolTableRecord
100
AcDbRegAppTableRecord
  2
AMDT_DM_ADJ
 70
     0
  0
APPID
  5
22C
330
9
100
AcDbSymbolTableRecord
100
AcDbRegAppTableRecord
  2
ACAD_DSTYLE_DIMTEXT_FILL
 70
     0
  0
APPID
  5
452
330
9
100
AcDbSymbolTableRecord
100
AcDbRegAppTableRecord
  2
GENIUS_GENOENT_13
 70
     0
  0
APPID
  5
453
330
9
100
AcDbSymbolTableRecord
100
AcDbRegAppTableRecord
  2
GENIUS_GENOBJ-N-CRS_13
 70
     0
  0
APPID
  5
454
330
9
100
AcDbSymbolTableRecord
100
AcDbRegAppTableRecord
  2
GENIUS_GENOLIS_13
 70
     0
  0
APPID
  5
455
330
9
100
AcDbSymbolTableRecord
100
AcDbRegAppTableRecord
  2
GENIUS_GENODEF_13
 70
     0
  0
APPID
  5
456
330
9
100
AcDbSymbolTableRecord
100
AcDbRegAppTableRecord
  2
GENIUS_GENOREF_13
 70
     0
  0
APPID
  5
6F3
330
9
100
AcDbSymbolTableRecord
100
AcDbRegAppTableRecord
  2
ACAD_PSEXT
 70
     0
  0
APPID
  5
8B4
330
9
100
AcDbSymbolTableRecord
100
AcDbRegAppTableRecord
  2
GENIUS_GENOBJ-N-CEN_13
 70
     0
  0
APPID
  5
8B5
330
9
100
AcDbSymbolTableRecord
100
AcDbRegAppTableRecord
  2
GENIUS_GENCEN_19
 70
     0
  0
APPID
  5
1561
330
9
100
AcDbSymbolTableRecord
100
AcDbRegAppTableRecord
  2
GENIUS_GENREC_14
 70
     0
  0
APPID
  5
1562
330
9
100
AcDbSymbolTableRecord
100
AcDbRegAppTableRecord
  2
GENIUS_GENOBJ-N-REC_13
 70
     0
  0
ENDTAB
  0
TABLE
  2
DIMSTYLE
  5
A
330
0
100
AcDbSymbolTable
 70
    15
100
AcDbDimStyleTable
 71
     3
340
81
340
8B
340
86
  0
DIMSTYLE
105
81
330
A
100
AcDbSymbolTableRecord
100
AcDbDimStyleTableRecord
  2
AM_ISO
 70
     0
  4
"
 41
3.0
 42
1.0
 43
10.0
 44
1.5
 47
0.1
 48
0.1
 73
     0
 74
     0
 77
     1
 78
     8
 79
     2
140
3.0
141
0.0
143
0.0393701
146
0.71
147
1.0
172
     1
176
   256
177
   256
178
   256
271
     2
272
     2
283
     0
284
     8
340
60C
371
    -1
372
    -1
  0
DIMSTYLE
105
82
102
{ACAD_REACTORS
330
29AD
330
29D3
330
29F3
330
2A10
330
2A30
102
}
330
A
100
AcDbSymbolTableRecord
100
AcDbDimStyleTableRecord
  2
AM_ISO$3
 70
     0
  4
"
 41
3.0
 42
1.0
 43
10.0
 44
1.5
 47
0.1
 48
0.1
 73
     0
 77
     1
 78
     8
 79
     2
140
3.0
141
0.0
143
0.0393701
146
0.71
147
1.0
176
   256
177
   256
178
   256
271
     2
272
     2
283
     0
284
     8
288
     1
289
     0
340
60C
371
    -1
372
    -1
  0
DIMSTYLE
105
83
330
A
100
AcDbSymbolTableRecord
100
AcDbDimStyleTableRecord
  2
AM_ISO$4
 70
     0
  4
"
 41
3.0
 42
1.0
 43
10.0
 44
1.5
 47
0.1
 48
0.1
 73
     0
 77
     1
 78
     8
 79
     2
140
3.0
141
0.0
143
0.0393701
146
0.71
147
1.0
176
   256
177
   256
178
   256
271
     2
272
     2
283
     0
284
     8
288
     1
289
     0
340
60C
371
    -1
372
    -1
  0
DIMSTYLE
105
84
330
A
100
AcDbSymbolTableRecord
100
AcDbDimStyleTableRecord
  2
AM_ISO$6
 70
     0
  4
"
 41
3.0
 42
1.0
 43
10.0
 44
1.5
 47
0.1
 48
0.1
 73
     0
 74
     0
 78
     8
 79
     2
140
3.0
141
0.0
143
0.0393701
146
0.71
147
1.0
172
     1
176
   256
177
   256
178
   256
271
     2
272
     2
283
     0
284
     8
340
60C
371
    -1
372
    -1
  0
DIMSTYLE
105
85
330
A
100
AcDbSymbolTableRecord
100
AcDbDimStyleTableRecord
  2
AM_ISO$7
 70
     0
  4
"
 41
3.0
 42
1.0
 43
10.0
 44
1.5
 47
0.1
 48
0.1
 73
     0
 74
     0
 77
     1
 78
     8
 79
     2
140
5.0
141
0.0
143
0.0393701
146
0.71
147
1.0
172
     1
176
   256
177
   256
178
   256
271
     2
272
     2
283
     0
284
     8
340
60C
371
    -1
372
    -1
  0
DIMSTYLE
105
86
330
A
100
AcDbSymbolTableRecord
100
AcDbDimStyleTableRecord
  2
AM_ISO$SF
 70
     0
  4
"
 41
2.5
 42
1.0
 43
10.0
 44
1.0
 47
0.1
 48
0.1
 73
     0
 74
     0
 75
     1
 76
     1
 77
     1
 78
     8
 79
     2
140
3.5
141
0.0
143
0.0393701
146
0.71
147
1.5
172
     1
176
   256
177
   256
178
     2
271
     2
272
     3
274
     4
283
     0
284
     8
340
11
371
    -1
372
    -1
  0
DIMSTYLE
105
8B
330
A
100
AcDbSymbolTableRecord
100
AcDbDimStyleTableRecord
  2
AM_ISO$SH
 70
     0
  4
"
 41
2.5
 42
1.0
 43
10.0
 44
1.0
 47
0.1
 48
0.1
 73
     0
 74
     0
 75
     1
 76
     1
 77
     1
 78
     8
 79
     2
140
3.5
141
0.0
143
0.0393701
144
2.0
146
0.71
147
1.5
172
     1
173
     1
176
   256
177
   256
178
     2
271
     2
272
     3
274
     4
283
     0
284
     8
340
11
343
87
371
    -1
372
    -1
  0
DIMSTYLE
105
40B
102
{ACAD_REACTORS
330
1DBB
330
1DBE
330
1E0F
330
1E12
330
1E15
330
1E18
330
1FDE
330
1FDF
330
1FE0
330
1FE1
330
207F
330
2080
330
22A7
330
22A8
330
22A9
330
22AA
330
2348
330
2349
330
24DE
330
24DF
330
24E0
330
24E1
330
2587
330
2588
330
2776
330
2777
330
2778
330
2779
330
2816
330
2817
102
}
330
A
100
AcDbSymbolTableRecord
100
AcDbDimStyleTableRecord
  2
AM_ISO$0
 70
     0
  4
"
 41
3.0
 42
1.0
 43
10.0
 44
1.5
 47
0.1
 48
0.1
 73
     0
 74
     0
 77
     1
 78
     8
 79
     2
140
3.0
141
0.0
143
0.0393701
146
0.71
147
1.0
172
     1
176
   256
177
   256
178
   256
271
     2
272
     2
283
     0
284
     8
340
60C
371
    -1
372
    -1
  0
DIMSTYLE
105
7FC
330
A
100
AcDbSymbolTableRecord
100
AcDbDimStyleTableRecord
  2
AM_ANSI
 70
     0
  4
mm
 41
0.1
 42
0.05
 43
0.5
 44
0.1
 47
0.1
 48
0.1
 78
     7
 79
     2
140
0.12
141
0.0
146
0.71
147
0.06
176
   256
177
   256
178
     2
274
     4
284
     7
340
11
371
    -1
372
    -1
  0
DIMSTYLE
105
7FD
330
A
100
AcDbSymbolTableRecord
100
AcDbDimStyleTableRecord
  2
AM_ANSI$3
 70
     0
  4
mm
 41
0.1
 42
0.05
 43
0.5
 44
0.1
 47
0.1
 48
0.1
 78
     7
 79
     2
140
0.12
141
0.0
146
0.71
147
0.06
176
   256
177
   256
178
     2
274
     4
284
     7
288
     1
289
     0
340
11
371
    -1
372
    -1
  0
DIMSTYLE
105
7FE
330
A
100
AcDbSymbolTableRecord
100
AcDbDimStyleTableRecord
  2
AM_ANSI$4
 70
     0
  4
mm
 41
0.1
 42
0.05
 43
0.5
 44
0.1
 47
0.1
 48
0.1
 78
     7
 79
     2
140
0.12
141
0.0
146
0.71
147
0.06
176
   256
177
   256
178
     2
274
     4
284
     7
288
     1
289
     0
340
11
371
    -1
372
    -1
  0
DIMSTYLE
105
7FF
330
A
100
AcDbSymbolTableRecord
100
AcDbDimStyleTableRecord
  2
AM_ANSI$7
 70
     0
  4
mm
 41
0.1
 42
0.05
 43
0.5
 44
0.1
 47
0.1
 48
0.1
 78
     7
 79
     2
140
0.24
141
0.0
146
0.71
147
0.06
176
   256
177
   256
178
     2
274
     4
284
     7
340
11
371
    -1
372
    -1
  0
DIMSTYLE
105
800
330
A
100
AcDbSymbolTableRecord
100
AcDbDimStyleTableRecord
  2
AM_ANSI$SF
 70
     0
  4
mm
 41
0.1
 42
0.05
 43
0.5
 44
0.1
 47
0.1
 48
0.1
 75
     1
 76
     1
 78
     7
 79
     2
140
0.12
141
0.0
146
0.71
147
0.06
176
   256
177
   256
178
     2
274
     4
284
     7
340
11
371
    -1
372
    -1
  0
DIMSTYLE
105
801
330
A
100
AcDbSymbolTableRecord
100
AcDbDimStyleTableRecord
  2
AM_ANSI$SH
 70
     0
  4
mm
 41
0.1
 42
0.05
 43
0.5
 44
0.1
 47
0.1
 48
0.1
 75
     1
 76
     1
 78
     7
 79
     2
140
0.12
141
0.0
146
0.71
147
0.06
173
     1
176
   256
177
   256
178
     2
274
     4
284
     7
340
11
343
87
371
    -1
372
    -1
  0
ENDTAB
  0
TABLE
  2
BLOCK_RECORD
  5
1
330
0
100
AcDbSymbolTable
 70
    39
  0
BLOCK_RECORD
  5
1F
102
{ACAD_XDICTIONARY
360
8F
102
}
330
1
100
AcDbSymbolTableRecord
100
AcDbBlockTableRecord
  2
*Model_Space
340
22
  0
BLOCK_RECORD
  5
1B
330
1
100
AcDbSymbolTableRecord
100
AcDbBlockTableRecord
  2
*Paper_Space
340
1E
  0
BLOCK_RECORD
  5
23
330
1
100
AcDbSymbolTableRecord
100
AcDbBlockTableRecord
  2
*Paper_Space0
340
26
  0
BLOCK_RECORD
  5
87
330
1
100
AcDbSymbolTableRecord
100
AcDbBlockTableRecord
  2
GENAXEH
340
0
  0
BLOCK_RECORD
  5
1DC1
330
1
100
AcDbSymbolTableRecord
100
AcDbBlockTableRecord
  2
*D3
340
0
  0
BLOCK_RECORD
  5
1DCD
330
1
100
AcDbSymbolTableRecord
100
AcDbBlockTableRecord
  2
*D4
340
0
  0
BLOCK_RECORD
  5
1E1B
330
1
100
AcDbSymbolTableRecord
100
AcDbBlockTableRecord
  2
*D5
340
0
  0
BLOCK_RECORD
  5
1E27
330
1
100
AcDbSymbolTableRecord
100
AcDbBlockTableRecord
  2
*D6
340
0
  0
BLOCK_RECORD
  5
1E33
330
1
100
AcDbSymbolTableRecord
100
AcDbBlockTableRecord
  2
*D7
340
0
  0
BLOCK_RECORD
  5
1E3F
330
1
100
AcDbSymbolTableRecord
100
AcDbBlockTableRecord
  2
*D8
340
0
  0
BLOCK_RECORD
  5
1FE2
330
1
100
AcDbSymbolTableRecord
100
AcDbBlockTableRecord
  2
*D9
340
0
  0
BLOCK_RECORD
  5
1FEE
330
1
100
AcDbSymbolTableRecord
100
AcDbBlockTableRecord
  2
*D10
340
0
  0
BLOCK_RECORD
  5
1FFA
330
1
100
AcDbSymbolTableRecord
100
AcDbBlockTableRecord
  2
*D11
340
0
  0
BLOCK_RECORD
  5
2006
330
1
100
AcDbSymbolTableRecord
100
AcDbBlockTableRecord
  2
*D12
340
0
  0
BLOCK_RECORD
  5
2081
330
1
100
AcDbSymbolTableRecord
100
AcDbBlockTableRecord
  2
*D13
340
0
  0
BLOCK_RECORD
  5
208D
330
1
100
AcDbSymbolTableRecord
100
AcDbBlockTableRecord
  2
*D14
340
0
  0
BLOCK_RECORD
  5
22AB
330
1
100
AcDbSymbolTableRecord
100
AcDbBlockTableRecord
  2
*D15
340
0
  0
BLOCK_RECORD
  5
22B7
330
1
100
AcDbSymbolTableRecord
100
AcDbBlockTableRecord
  2
*D16
340
0
  0
BLOCK_RECORD
  5
22C3
330
1
100
AcDbSymbolTableRecord
100
AcDbBlockTableRecord
  2
*D17
340
0
  0
BLOCK_RECORD
  5
22CF
330
1
100
AcDbSymbolTableRecord
100
AcDbBlockTableRecord
  2
*D18
340
0
  0
BLOCK_RECORD
  5
234A
330
1
100
AcDbSymbolTableRecord
100
AcDbBlockTableRecord
  2
*D19
340
0
  0
BLOCK_RECORD
  5
2356
330
1
100
AcDbSymbolTableRecord
100
AcDbBlockTableRecord
  2
*D20
340
0
  0
BLOCK_RECORD
  5
24E2
330
1
100
AcDbSymbolTableRecord
100
AcDbBlockTableRecord
  2
*D21
340
0
  0
BLOCK_RECORD
  5
24EE
330
1
100
AcDbSymbolTableRecord
100
AcDbBlockTableRecord
  2
*D22
340
0
  0
BLOCK_RECORD
  5
24FA
330
1
100
AcDbSymbolTableRecord
100
AcDbBlockTableRecord
  2
*D23
340
0
  0
BLOCK_RECORD
  5
2506
330
1
100
AcDbSymbolTableRecord
100
AcDbBlockTableRecord
  2
*D24
340
0
  0
BLOCK_RECORD
  5
2589
330
1
100
AcDbSymbolTableRecord
100
AcDbBlockTableRecord
  2
*D25
340
0
  0
BLOCK_RECORD
  5
2595
330
1
100
AcDbSymbolTableRecord
100
AcDbBlockTableRecord
  2
*D26
340
0
  0
BLOCK_RECORD
  5
277A
330
1
100
AcDbSymbolTableRecord
100
AcDbBlockTableRecord
  2
*D27
340
0
  0
BLOCK_RECORD
  5
2786
330
1
100
AcDbSymbolTableRecord
100
AcDbBlockTableRecord
  2
*D28
340
0
  0
BLOCK_RECORD
  5
2792
330
1
100
AcDbSymbolTableRecord
100
AcDbBlockTableRecord
  2
*D29
340
0
  0
BLOCK_RECORD
  5
279E
330
1
100
AcDbSymbolTableRecord
100
AcDbBlockTableRecord
  2
*D30
340
0
  0
BLOCK_RECORD
  5
2818
330
1
100
AcDbSymbolTableRecord
100
AcDbBlockTableRecord
  2
*D31
340
0
  0
BLOCK_RECORD
  5
2824
330
1
100
AcDbSymbolTableRecord
100
AcDbBlockTableRecord
  2
*D32
340
0
  0
BLOCK_RECORD
  5
29AE
330
1
100
AcDbSymbolTableRecord
100
AcDbBlockTableRecord
  2
*D33
340
0
  0
BLOCK_RECORD
  5
29D4
330
1
100
AcDbSymbolTableRecord
100
AcDbBlockTableRecord
  2
*D34
340
0
  0
BLOCK_RECORD
  5
29F4
330
1
100
AcDbSymbolTableRecord
100
AcDbBlockTableRecord
  2
*D35
340
0
  0
BLOCK_RECORD
  5
2A11
330
1
100
AcDbSymbolTableRecord
100
AcDbBlockTableRecord
  2
*D36
340
0
  0
BLOCK_RECORD
  5
2A31
330
1
100
AcDbSymbolTableRecord
100
AcDbBlockTableRecord
  2
*D37
340
0
  0
ENDTAB
  0
ENDSEC
  0
SECTION
  2
BLOCKS
  0
BLOCK
  5
20
330
1F
100
AcDbEntity
  8
0
100
AcDbBlockBegin
  2
*Model_Space
 70
     0
 10
0.0
 20
0.0
 30
0.0
  3
*Model_Space
  1

  0
ENDBLK
  5
21
330
1F
100
AcDbEntity
  8
0
100
AcDbBlockEnd
  0
BLOCK
  5
1C
330
1B
100
AcDbEntity
 67
     1
  8
0
100
AcDbBlockBegin
  2
*Paper_Space
 70
     0
 10
0.0
 20
0.0
 30
0.0
  3
*Paper_Space
  1

  0
ENDBLK
  5
1D
330
1B
100
AcDbEntity
 67
     1
  8
0
100
AcDbBlockEnd
  0
BLOCK
  5
24
330
23
100
AcDbEntity
  8
0
100
AcDbBlockBegin
  2
*Paper_Space0
 70
     0
 10
0.0
 20
0.0
 30
0.0
  3
*Paper_Space0
  1

  0
ENDBLK
  5
25
330
23
100
AcDbEntity
  8
0
100
AcDbBlockEnd
  0
BLOCK
  5
89
330
87
100
AcDbEntity
  8
0
100
AcDbBlockBegin
  2
GENAXEH
 70
     0
 10
0.0
 20
0.0
 30
0.0
  3
GENAXEH
  1

  0
LINE
  5
88
330
87
100
AcDbEntity
  8
0
100
AcDbLine
 10
-1.0
 20
0.0
 30
0.0
 11
1.0
 21
0.0
 31
0.0
  0
ENDBLK
  5
8A
330
87
100
AcDbEntity
  8
0
100
AcDbBlockEnd
  0
BLOCK
  5
1DCB
330
1DC1
100
AcDbEntity
  8
0
100
AcDbBlockBegin
  2
*D3
 70
     1
 10
0.0
 20
0.0
 30
0.0
  3
*D3
  1

  0
LINE
  5
291D
330
1DC1
100
AcDbEntity
  8
AM_5
100
AcDbLine
 10
2135.657803487452
 20
687.9561227128467
 30
0.0
 11
2160.157803487452
 21
687.9561227128467
 31
0.0
  0
LINE
  5
291E
330
1DC1
100
AcDbEntity
  8
AM_5
100
AcDbLine
 10
2135.657803487452
 20
737.9561227128467
 30
0.0
 11
2160.157803487452
 21
737.9561227128467
 31
0.0
  0
LINE
  5
291F
330
1DC1
100
AcDbEntity
  8
AM_5
100
AcDbLine
 10
2158.657803487452
 20
690.9561227128468
 30
0.0
 11
2158.657803487452
 21
734.9561227128467
 31
0.0
  0
SOLID
  5
2920
330
1DC1
100
AcDbEntity
  8
AM_5
100
AcDbTrace
 10
2158.157803487452
 20
690.9561227128468
 30
0.0
 11
2159.157803487452
 21
690.9561227128468
 31
0.0
 12
2158.657803487452
 22
687.9561227128467
 32
0.0
 13
2158.657803487452
 23
687.9561227128467
 33
0.0
  0
SOLID
  5
2921
330
1DC1
100
AcDbEntity
  8
AM_5
100
AcDbTrace
 10
2158.157803487452
 20
734.9561227128467
 30
0.0
 11
2159.157803487452
 21
734.9561227128467
 31
0.0
 12
2158.657803487452
 22
737.9561227128467
 32
0.0
 13
2158.657803487452
 23
737.9561227128467
 33
0.0
  0
MTEXT
  5
2922
330
1DC1
100
AcDbEntity
  8
AM_5
100
AcDbMText
 10
2156.157803487452
 20
712.9561227128471
 30
0.0
 40
3.0
 41
0.0
 71
     5
 72
     1
  1
50
  7
CHINESET
 11
0.0000000000000001
 21
1.0
 31
0.0
 73
     1
 44
1.0
1001
ACAD
1000
MTEXTBEGIN
1070
    73
1070
     1
1070
    44
1040
1.0
1070
    74
1070
     0
1000
MTEXTEND
  0
POINT
  5
2923
330
1DC1
100
AcDbEntity
  8
Defpoints
 62
     0
100
AcDbPoint
 10
2134.657803487452
 20
687.9561227128467
 30
0.0
  0
POINT
  5
2924
330
1DC1
100
AcDbEntity
  8
Defpoints
 62
     0
100
AcDbPoint
 10
2134.657803487452
 20
737.9561227128467
 30
0.0
  0
POINT
  5
2925
330
1DC1
100
AcDbEntity
  8
Defpoints
 62
     0
100
AcDbPoint
 10
2158.657803487452
 20
737.9561227128467
 30
0.0
  0
ENDBLK
  5
1DCC
330
1DC1
100
AcDbEntity
  8
0
100
AcDbBlockEnd
  0
BLOCK
  5
1DD7
330
1DCD
100
AcDbEntity
  8
0
100
AcDbBlockBegin
  2
*D4
 70
     1
 10
0.0
 20
0.0
 30
0.0
  3
*D4
  1

  0
LINE
  5
2926
330
1DCD
100
AcDbEntity
  8
AM_5
100
AcDbLine
 10
2137.657803487452
 20
692.9561227128467
 30
0.0
 11
2150.157803487452
 21
692.9561227128467
 31
0.0
  0
LINE
  5
2927
330
1DCD
100
AcDbEntity
  8
AM_5
100
AcDbLine
 10
2137.907803487452
 20
732.9561227128468
 30
0.0
 11
2150.157803487452
 21
732.9561227128468
 31
0.0
  0
LINE
  5
2928
330
1DCD
100
AcDbEntity
  8
AM_5
100
AcDbLine
 10
2148.657803487452
 20
695.9561227128467
 30
0.0
 11
2148.657803487452
 21
729.9561227128467
 31
0.0
  0
SOLID
  5
2929
330
1DCD
100
AcDbEntity
  8
AM_5
100
AcDbTrace
 10
2148.157803487452
 20
695.9561227128467
 30
0.0
 11
2149.157803487452
 21
695.9561227128467
 31
0.0
 12
2148.657803487452
 22
692.9561227128467
 32
0.0
 13
2148.657803487452
 23
692.9561227128467
 33
0.0
  0
SOLID
  5
292A
330
1DCD
100
AcDbEntity
  8
AM_5
100
AcDbTrace
 10
2148.157803487452
 20
729.9561227128467
 30
0.0
 11
2149.157803487452
 21
729.9561227128467
 31
0.0
 12
2148.657803487452
 22
732.9561227128468
 32
0.0
 13
2148.657803487452
 23
732.9561227128468
 33
0.0
  0
MTEXT
  5
292B
330
1DCD
100
AcDbEntity
  8
AM_5
100
AcDbMText
 10
2146.157803487452
 20
712.9561227128471
 30
0.0
 40
3.0
 41
0.0
 71
     5
 72
     1
  1
40
  7
CHINESET
 11
0.0000000000000001
 21
1.0
 31
0.0
 73
     1
 44
1.0
1001
ACAD
1000
MTEXTBEGIN
1070
    73
1070
     1
1070
    44
1040
1.0
1070
    74
1070
     0
1000
MTEXTEND
  0
POINT
  5
292C
330
1DCD
100
AcDbEntity
  8
Defpoints
 62
     0
100
AcDbPoint
 10
2136.657803487452
 20
692.9561227128467
 30
0.0
  0
POINT
  5
292D
330
1DCD
100
AcDbEntity
  8
Defpoints
 62
     0
100
AcDbPoint
 10
2136.907803487452
 20
732.9561227128468
 30
0.0
  0
POINT
  5
292E
330
1DCD
100
AcDbEntity
  8
Defpoints
 62
     0
100
AcDbPoint
 10
2148.657803487452
 20
732.9561227128468
 30
0.0
  0
ENDBLK
  5
1DD8
330
1DCD
100
AcDbEntity
  8
0
100
AcDbBlockEnd
  0
BLOCK
  5
1E25
330
1E1B
100
AcDbEntity
  8
0
100
AcDbBlockBegin
  2
*D5
 70
     1
 10
0.0
 20
0.0
 30
0.0
  3
*D5
  1

  0
LINE
  5
292F
330
1E1B
100
AcDbEntity
  8
AM_5
100
AcDbLine
 10
2144.657803487452
 20
508.9561227128467
 30
0.0
 11
2157.157803487452
 21
508.9561227128467
 31
0.0
  0
LINE
  5
2930
330
1E1B
100
AcDbEntity
  8
AM_5
100
AcDbLine
 10
2132.157803487452
 20
578.9561227128467
 30
0.0
 11
2157.157803487452
 21
578.9561227128467
 31
0.0
  0
LINE
  5
2931
330
1E1B
100
AcDbEntity
  8
AM_5
100
AcDbLine
 10
2155.657803487452
 20
511.9561227128468
 30
0.0
 11
2155.657803487452
 21
575.9561227128467
 31
0.0
  0
SOLID
  5
2932
330
1E1B
100
AcDbEntity
  8
AM_5
100
AcDbTrace
 10
2155.157803487452
 20
511.9561227128468
 30
0.0
 11
2156.157803487452
 21
511.9561227128468
 31
0.0
 12
2155.657803487452
 22
508.9561227128467
 32
0.0
 13
2155.657803487452
 23
508.9561227128467
 33
0.0
  0
SOLID
  5
2933
330
1E1B
100
AcDbEntity
  8
AM_5
100
AcDbTrace
 10
2155.157803487452
 20
575.9561227128467
 30
0.0
 11
2156.157803487452
 21
575.9561227128467
 31
0.0
 12
2155.657803487452
 22
578.9561227128467
 32
0.0
 13
2155.657803487452
 23
578.9561227128467
 33
0.0
  0
MTEXT
  5
2934
330
1E1B
100
AcDbEntity
  8
AM_5
100
AcDbMText
 10
2153.157803487452
 20
543.9561227128471
 30
0.0
 40
3.0
 41
0.0
 71
     5
 72
     1
  1
70
  7
CHINESET
 11
0.0000000000000001
 21
1.0
 31
0.0
 73
     1
 44
1.0
1001
ACAD
1000
MTEXTBEGIN
1070
    73
1070
     1
1070
    44
1040
1.0
1070
    74
1070
     0
1000
MTEXTEND
  0
POINT
  5
2935
330
1E1B
100
AcDbEntity
  8
Defpoints
 62
     0
100
AcDbPoint
 10
2143.657803487452
 20
508.9561227128467
 30
0.0
  0
POINT
  5
2936
330
1E1B
100
AcDbEntity
  8
Defpoints
 62
     0
100
AcDbPoint
 10
2131.157803487452
 20
578.9561227128467
 30
0.0
  0
POINT
  5
2937
330
1E1B
100
AcDbEntity
  8
Defpoints
 62
     0
100
AcDbPoint
 10
2155.657803487452
 20
578.9561227128467
 30
0.0
  0
ENDBLK
  5
1E26
330
1E1B
100
AcDbEntity
  8
0
100
AcDbBlockEnd
  0
BLOCK
  5
1E31
330
1E27
100
AcDbEntity
  8
0
100
AcDbBlockBegin
  2
*D6
 70
     1
 10
0.0
 20
0.0
 30
0.0
  3
*D6
  1

  0
LINE
  5
2938
330
1E27
100
AcDbEntity
  8
AM_5
100
AcDbLine
 10
2144.657803487452
 20
508.9561227128467
 30
0.0
 11
2167.157803487452
 21
508.9561227128467
 31
0.0
  0
LINE
  5
2939
330
1E27
100
AcDbEntity
  8
AM_5
100
AcDbLine
 10
2125.657803487452
 20
608.9561227128467
 30
0.0
 11
2167.157803487452
 21
608.9561227128467
 31
0.0
  0
LINE
  5
293A
330
1E27
100
AcDbEntity
  8
AM_5
100
AcDbLine
 10
2165.657803487452
 20
511.9561227128468
 30
0.0
 11
2165.657803487452
 21
605.9561227128467
 31
0.0
  0
SOLID
  5
293B
330
1E27
100
AcDbEntity
  8
AM_5
100
AcDbTrace
 10
2165.157803487452
 20
511.9561227128468
 30
0.0
 11
2166.157803487452
 21
511.9561227128468
 31
0.0
 12
2165.657803487452
 22
508.9561227128467
 32
0.0
 13
2165.657803487452
 23
508.9561227128467
 33
0.0
  0
SOLID
  5
293C
330
1E27
100
AcDbEntity
  8
AM_5
100
AcDbTrace
 10
2165.157803487452
 20
605.9561227128467
 30
0.0
 11
2166.157803487452
 21
605.9561227128467
 31
0.0
 12
2165.657803487452
 22
608.9561227128467
 32
0.0
 13
2165.657803487452
 23
608.9561227128467
 33
0.0
  0
MTEXT
  5
293D
330
1E27
100
AcDbEntity
  8
AM_5
100
AcDbMText
 10
2163.157803487452
 20
558.9561227128471
 30
0.0
 40
3.0
 41
0.0
 71
     5
 72
     1
  1
100
  7
CHINESET
 11
0.0000000000000001
 21
1.0
 31
0.0
 73
     1
 44
1.0
1001
ACAD
1000
MTEXTBEGIN
1070
    73
1070
     1
1070
    44
1040
1.0
1070
    74
1070
     0
1000
MTEXTEND
  0
POINT
  5
293E
330
1E27
100
AcDbEntity
  8
Defpoints
 62
     0
100
AcDbPoint
 10
2143.657803487452
 20
508.9561227128467
 30
0.0
  0
POINT
  5
293F
330
1E27
100
AcDbEntity
  8
Defpoints
 62
     0
100
AcDbPoint
 10
2124.657803487452
 20
608.9561227128467
 30
0.0
  0
POINT
  5
2940
330
1E27
100
AcDbEntity
  8
Defpoints
 62
     0
100
AcDbPoint
 10
2165.657803487452
 20
608.9561227128467
 30
0.0
  0
ENDBLK
  5
1E32
330
1E27
100
AcDbEntity
  8
0
100
AcDbBlockEnd
  0
BLOCK
  5
1E3D
330
1E33
100
AcDbEntity
  8
0
100
AcDbBlockBegin
  2
*D7
 70
     1
 10
0.0
 20
0.0
 30
0.0
  3
*D7
  1

  0
LINE
  5
2941
330
1E33
100
AcDbEntity
  8
AM_5
100
AcDbLine
 10
2086.157803487452
 20
531.9561227128467
 30
0.0
 11
2066.157802487452
 21
531.9561227128467
 31
0.0
  0
LINE
  5
2942
330
1E33
100
AcDbEntity
  8
AM_5
100
AcDbLine
 10
2086.157803487452
 20
508.9561227128467
 30
0.0
 11
2066.157802487452
 21
508.9561227128467
 31
0.0
  0
LINE
  5
2943
330
1E33
100
AcDbEntity
  8
AM_5
100
AcDbLine
 10
2067.657802487452
 20
528.9561227128467
 30
0.0
 11
2067.657802487452
 21
511.9561227128468
 31
0.0
  0
SOLID
  5
2944
330
1E33
100
AcDbEntity
  8
AM_5
100
AcDbTrace
 10
2067.157802487452
 20
528.9561227128467
 30
0.0
 11
2068.157802487452
 21
528.9561227128467
 31
0.0
 12
2067.657802487452
 22
531.9561227128467
 32
0.0
 13
2067.657802487452
 23
531.9561227128467
 33
0.0
  0
SOLID
  5
2945
330
1E33
100
AcDbEntity
  8
AM_5
100
AcDbTrace
 10
2067.157802487452
 20
511.9561227128468
 30
0.0
 11
2068.157802487452
 21
511.9561227128468
 31
0.0
 12
2067.657802487452
 22
508.9561227128467
 32
0.0
 13
2067.657802487452
 23
508.9561227128467
 33
0.0
  0
MTEXT
  5
2946
330
1E33
100
AcDbEntity
  8
AM_5
100
AcDbMText
 10
2065.157802487452
 20
520.4561227128471
 30
0.0
 40
3.0
 41
0.0
 71
     5
 72
     1
  1
23
  7
CHINESET
 11
0.0000000000000001
 21
1.0
 31
0.0
 73
     1
 44
1.0
1001
ACAD
1000
MTEXTBEGIN
1070
    73
1070
     1
1070
    44
1040
1.0
1070
    74
1070
     0
1000
MTEXTEND
  0
POINT
  5
2947
330
1E33
100
AcDbEntity
  8
Defpoints
 62
     0
100
AcDbPoint
 10
2087.157803487452
 20
531.9561227128467
 30
0.0
  0
POINT
  5
2948
330
1E33
100
AcDbEntity
  8
Defpoints
 62
     0
100
AcDbPoint
 10
2087.157803487452
 20
508.9561227128467
 30
0.0
  0
POINT
  5
2949
330
1E33
100
AcDbEntity
  8
Defpoints
 62
     0
100
AcDbPoint
 10
2067.657802487452
 20
508.9561227128467
 30
0.0
  0
ENDBLK
  5
1E3E
330
1E33
100
AcDbEntity
  8
0
100
AcDbBlockEnd
  0
BLOCK
  5
1E49
330
1E3F
100
AcDbEntity
  8
0
100
AcDbBlockBegin
  2
*D8
 70
     1
 10
0.0
 20
0.0
 30
0.0
  3
*D8
  1

  0
LINE
  5
294A
330
1E3F
100
AcDbEntity
  8
AM_5
100
AcDbLine
 10
2125.657803487452
 20
633.9561227128467
 30
0.0
 11
2167.157803487452
 21
633.9561227128467
 31
0.0
  0
LINE
  5
294B
330
1E3F
100
AcDbEntity
  8
AM_5
100
AcDbLine
 10
2125.657803487452
 20
608.9561227128467
 30
0.0
 11
2167.157803487452
 21
608.9561227128467
 31
0.0
  0
LINE
  5
294C
330
1E3F
100
AcDbEntity
  8
AM_5
100
AcDbLine
 10
2165.657803487452
 20
630.9561227128467
 30
0.0
 11
2165.657803487452
 21
611.9561227128468
 31
0.0
  0
SOLID
  5
294D
330
1E3F
100
AcDbEntity
  8
AM_5
100
AcDbTrace
 10
2165.157803487452
 20
630.9561227128467
 30
0.0
 11
2166.157803487452
 21
630.9561227128467
 31
0.0
 12
2165.657803487452
 22
633.9561227128467
 32
0.0
 13
2165.657803487452
 23
633.9561227128467
 33
0.0
  0
SOLID
  5
294E
330
1E3F
100
AcDbEntity
  8
AM_5
100
AcDbTrace
 10
2165.157803487452
 20
611.9561227128468
 30
0.0
 11
2166.157803487452
 21
611.9561227128468
 31
0.0
 12
2165.657803487452
 22
608.9561227128467
 32
0.0
 13
2165.657803487452
 23
608.9561227128467
 33
0.0
  0
MTEXT
  5
294F
330
1E3F
100
AcDbEntity
  8
AM_5
100
AcDbMText
 10
2163.157803487452
 20
621.4561227128471
 30
0.0
 40
3.0
 41
0.0
 71
     5
 72
     1
  1
25
  7
CHINESET
 11
0.0000000000000001
 21
1.0
 31
0.0
 73
     1
 44
1.0
1001
ACAD
1000
MTEXTBEGIN
1070
    73
1070
     1
1070
    44
1040
1.0
1070
    74
1070
     0
1000
MTEXTEND
  0
POINT
  5
2950
330
1E3F
100
AcDbEntity
  8
Defpoints
 62
     0
100
AcDbPoint
 10
2124.657803487452
 20
633.9561227128467
 30
0.0
  0
POINT
  5
2951
330
1E3F
100
AcDbEntity
  8
Defpoints
 62
     0
100
AcDbPoint
 10
2124.657803487452
 20
608.9561227128467
 30
0.0
  0
POINT
  5
2952
330
1E3F
100
AcDbEntity
  8
Defpoints
 62
     0
100
AcDbPoint
 10
2165.657803487452
 20
608.9561227128467
 30
0.0
  0
ENDBLK
  5
1E4A
330
1E3F
100
AcDbEntity
  8
0
100
AcDbBlockEnd
  0
BLOCK
  5
1FEC
330
1FE2
100
AcDbEntity
  8
0
100
AcDbBlockBegin
  2
*D9
 70
     1
 10
0.0
 20
0.0
 30
0.0
  3
*D9
  1

  0
LINE
  5
205B
330
1FE2
100
AcDbEntity
  8
AM_5
100
AcDbLine
 10
2511.976583508879
 20
508.9561227128467
 30
0.0
 11
2529.976583508878
 21
508.9561227128467
 31
0.0
  0
LINE
  5
205C
330
1FE2
100
AcDbEntity
  8
AM_5
100
AcDbLine
 10
2508.476583508878
 20
584.9561227128467
 30
0.0
 11
2529.976583508878
 21
584.9561227128467
 31
0.0
  0
LINE
  5
205D
330
1FE2
100
AcDbEntity
  8
AM_5
100
AcDbLine
 10
2528.476583508878
 20
511.9561227128468
 30
0.0
 11
2528.476583508878
 21
581.9561227128467
 31
0.0
  0
SOLID
  5
205E
330
1FE2
100
AcDbEntity
  8
AM_5
100
AcDbTrace
 10
2527.976583508879
 20
511.9561227128468
 30
0.0
 11
2528.976583508879
 21
511.9561227128468
 31
0.0
 12
2528.476583508878
 22
508.9561227128467
 32
0.0
 13
2528.476583508878
 23
508.9561227128467
 33
0.0
  0
SOLID
  5
205F
330
1FE2
100
AcDbEntity
  8
AM_5
100
AcDbTrace
 10
2527.976583508879
 20
581.9561227128467
 30
0.0
 11
2528.976583508879
 21
581.9561227128467
 31
0.0
 12
2528.476583508878
 22
584.9561227128467
 32
0.0
 13
2528.476583508878
 23
584.9561227128467
 33
0.0
  0
MTEXT
  5
2060
330
1FE2
100
AcDbEntity
  8
AM_5
100
AcDbMText
 10
2525.976583508878
 20
546.9561227128472
 30
0.0
 40
3.0
 41
0.0
 71
     5
 72
     1
  1
76
  7
CHINESET
 11
0.0000000000000001
 21
1.0
 31
0.0
 73
     1
 44
1.0
1001
ACAD
1000
MTEXTBEGIN
1070
    73
1070
     1
1070
    44
1040
1.0
1070
    74
1070
     0
1000
MTEXTEND
  0
POINT
  5
2061
330
1FE2
100
AcDbEntity
  8
Defpoints
 62
     0
100
AcDbPoint
 10
2510.976583508878
 20
508.9561227128467
 30
0.0
  0
POINT
  5
2062
330
1FE2
100
AcDbEntity
  8
Defpoints
 62
     0
100
AcDbPoint
 10
2507.476583508879
 20
584.9561227128467
 30
0.0
  0
POINT
  5
2063
330
1FE2
100
AcDbEntity
  8
Defpoints
 62
     0
100
AcDbPoint
 10
2528.476583508878
 20
584.9561227128467
 30
0.0
  0
ENDBLK
  5
1FED
330
1FE2
100
AcDbEntity
  8
0
100
AcDbBlockEnd
  0
BLOCK
  5
1FF8
330
1FEE
100
AcDbEntity
  8
0
100
AcDbBlockBegin
  2
*D10
 70
     1
 10
0.0
 20
0.0
 30
0.0
  3
*D10
  1

  0
LINE
  5
2076
330
1FEE
100
AcDbEntity
  8
AM_5
100
AcDbLine
 10
2511.976583508879
 20
508.9561227128467
 30
0.0
 11
2539.976583508878
 21
508.9561227128467
 31
0.0
  0
LINE
  5
2077
330
1FEE
100
AcDbEntity
  8
AM_5
100
AcDbLine
 10
2499.476583508879
 20
619.9561227128468
 30
0.0
 11
2539.976583508878
 21
619.9561227128468
 31
0.0
  0
LINE
  5
2078
330
1FEE
100
AcDbEntity
  8
AM_5
100
AcDbLine
 10
2538.476583508879
 20
511.9561227128468
 30
0.0
 11
2538.476583508879
 21
616.9561227128467
 31
0.0
  0
SOLID
  5
2079
330
1FEE
100
AcDbEntity
  8
AM_5
100
AcDbTrace
 10
2537.976583508879
 20
511.9561227128468
 30
0.0
 11
2538.976583508878
 21
511.9561227128468
 31
0.0
 12
2538.476583508879
 22
508.9561227128467
 32
0.0
 13
2538.476583508879
 23
508.9561227128467
 33
0.0
  0
SOLID
  5
207A
330
1FEE
100
AcDbEntity
  8
AM_5
100
AcDbTrace
 10
2537.976583508879
 20
616.9561227128467
 30
0.0
 11
2538.976583508878
 21
616.9561227128467
 31
0.0
 12
2538.476583508879
 22
619.9561227128468
 32
0.0
 13
2538.476583508879
 23
619.9561227128468
 33
0.0
  0
MTEXT
  5
207B
330
1FEE
100
AcDbEntity
  8
AM_5
100
AcDbMText
 10
2535.976583508878
 20
564.4561227128471
 30
0.0
 40
3.0
 41
0.0
 71
     5
 72
     1
  1
111
  7
CHINESET
 11
0.0000000000000001
 21
1.0
 31
0.0
 73
     1
 44
1.0
1001
ACAD
1000
MTEXTBEGIN
1070
    73
1070
     1
1070
    44
1040
1.0
1070
    74
1070
     0
1000
MTEXTEND
  0
POINT
  5
207C
330
1FEE
100
AcDbEntity
  8
Defpoints
 62
     0
100
AcDbPoint
 10
2510.976583508878
 20
508.9561227128467
 30
0.0
  0
POINT
  5
207D
330
1FEE
100
AcDbEntity
  8
Defpoints
 62
     0
100
AcDbPoint
 10
2498.476583508879
 20
619.9561227128468
 30
0.0
  0
POINT
  5
207E
330
1FEE
100
AcDbEntity
  8
Defpoints
 62
     0
100
AcDbPoint
 10
2538.476583508879
 20
619.9561227128468
 30
0.0
  0
ENDBLK
  5
1FF9
330
1FEE
100
AcDbEntity
  8
0
100
AcDbBlockEnd
  0
BLOCK
  5
2004
330
1FFA
100
AcDbEntity
  8
0
100
AcDbBlockBegin
  2
*D11
 70
     1
 10
0.0
 20
0.0
 30
0.0
  3
*D11
  1

  0
LINE
  5
203F
330
1FFA
100
AcDbEntity
  8
AM_5
100
AcDbLine
 10
2456.976583508879
 20
533.9561227128467
 30
0.0
 11
2438.976582508879
 21
533.9561227128467
 31
0.0
  0
LINE
  5
2040
330
1FFA
100
AcDbEntity
  8
AM_5
100
AcDbLine
 10
2456.976583508879
 20
508.9561227128467
 30
0.0
 11
2438.976582508879
 21
508.9561227128467
 31
0.0
  0
LINE
  5
2041
330
1FFA
100
AcDbEntity
  8
AM_5
100
AcDbLine
 10
2440.476582508879
 20
530.9561227128467
 30
0.0
 11
2440.476582508879
 21
511.9561227128468
 31
0.0
  0
SOLID
  5
2042
330
1FFA
100
AcDbEntity
  8
AM_5
100
AcDbTrace
 10
2439.976582508879
 20
530.9561227128467
 30
0.0
 11
2440.976582508878
 21
530.9561227128467
 31
0.0
 12
2440.476582508879
 22
533.9561227128467
 32
0.0
 13
2440.476582508879
 23
533.9561227128467
 33
0.0
  0
SOLID
  5
2043
330
1FFA
100
AcDbEntity
  8
AM_5
100
AcDbTrace
 10
2439.976582508879
 20
511.9561227128468
 30
0.0
 11
2440.976582508878
 21
511.9561227128468
 31
0.0
 12
2440.476582508879
 22
508.9561227128467
 32
0.0
 13
2440.476582508879
 23
508.9561227128467
 33
0.0
  0
MTEXT
  5
2044
330
1FFA
100
AcDbEntity
  8
AM_5
100
AcDbMText
 10
2437.976582508879
 20
521.4561227128472
 30
0.0
 40
3.0
 41
0.0
 71
     5
 72
     1
  1
25
  7
CHINESET
 11
0.0000000000000001
 21
1.0
 31
0.0
 73
     1
 44
1.0
1001
ACAD
1000
MTEXTBEGIN
1070
    73
1070
     1
1070
    44
1040
1.0
1070
    74
1070
     0
1000
MTEXTEND
  0
POINT
  5
2045
330
1FFA
100
AcDbEntity
  8
Defpoints
 62
     0
100
AcDbPoint
 10
2457.976583508878
 20
533.9561227128467
 30
0.0
  0
POINT
  5
2046
330
1FFA
100
AcDbEntity
  8
Defpoints
 62
     0
100
AcDbPoint
 10
2457.976583508878
 20
508.9561227128467
 30
0.0
  0
POINT
  5
2047
330
1FFA
100
AcDbEntity
  8
Defpoints
 62
     0
100
AcDbPoint
 10
2440.476582508879
 20
508.9561227128467
 30
0.0
  0
ENDBLK
  5
2005
330
1FFA
100
AcDbEntity
  8
0
100
AcDbBlockEnd
  0
BLOCK
  5
2010
330
2006
100
AcDbEntity
  8
0
100
AcDbBlockBegin
  2
*D12
 70
     1
 10
0.0
 20
0.0
 30
0.0
  3
*D12
  1

  0
LINE
  5
206D
330
2006
100
AcDbEntity
  8
AM_5
100
AcDbLine
 10
2499.476583508879
 20
644.9561227128468
 30
0.0
 11
2539.976583508878
 21
644.9561227128468
 31
0.0
  0
LINE
  5
206E
330
2006
100
AcDbEntity
  8
AM_5
100
AcDbLine
 10
2499.476583508879
 20
619.9561227128468
 30
0.0
 11
2539.976583508878
 21
619.9561227128468
 31
0.0
  0
LINE
  5
206F
330
2006
100
AcDbEntity
  8
AM_5
100
AcDbLine
 10
2538.476583508879
 20
641.9561227128467
 30
0.0
 11
2538.476583508879
 21
622.9561227128467
 31
0.0
  0
SOLID
  5
2070
330
2006
100
AcDbEntity
  8
AM_5
100
AcDbTrace
 10
2537.976583508879
 20
641.9561227128467
 30
0.0
 11
2538.976583508878
 21
641.9561227128467
 31
0.0
 12
2538.476583508879
 22
644.9561227128468
 32
0.0
 13
2538.476583508879
 23
644.9561227128468
 33
0.0
  0
SOLID
  5
2071
330
2006
100
AcDbEntity
  8
AM_5
100
AcDbTrace
 10
2537.976583508879
 20
622.9561227128467
 30
0.0
 11
2538.976583508878
 21
622.9561227128467
 31
0.0
 12
2538.476583508879
 22
619.9561227128468
 32
0.0
 13
2538.476583508879
 23
619.9561227128468
 33
0.0
  0
MTEXT
  5
2072
330
2006
100
AcDbEntity
  8
AM_5
100
AcDbMText
 10
2535.976583508878
 20
632.4561227128472
 30
0.0
 40
3.0
 41
0.0
 71
     5
 72
     1
  1
25
  7
CHINESET
 11
0.0000000000000001
 21
1.0
 31
0.0
 73
     1
 44
1.0
1001
ACAD
1000
MTEXTBEGIN
1070
    73
1070
     1
1070
    44
1040
1.0
1070
    74
1070
     0
1000
MTEXTEND
  0
POINT
  5
2073
330
2006
100
AcDbEntity
  8
Defpoints
 62
     0
100
AcDbPoint
 10
2498.476583508879
 20
644.9561227128468
 30
0.0
  0
POINT
  5
2074
330
2006
100
AcDbEntity
  8
Defpoints
 62
     0
100
AcDbPoint
 10
2498.476583508879
 20
619.9561227128468
 30
0.0
  0
POINT
  5
2075
330
2006
100
AcDbEntity
  8
Defpoints
 62
     0
100
AcDbPoint
 10
2538.476583508879
 20
619.9561227128468
 30
0.0
  0
ENDBLK
  5
2011
330
2006
100
AcDbEntity
  8
0
100
AcDbBlockEnd
  0
BLOCK
  5
208B
330
2081
100
AcDbEntity
  8
0
100
AcDbBlockBegin
  2
*D13
 70
     1
 10
0.0
 20
0.0
 30
0.0
  3
*D13
  1

  0
LINE
  5
20D9
330
2081
100
AcDbEntity
  8
AM_5
100
AcDbLine
 10
2510.683690290065
 20
682.4561227128468
 30
0.0
 11
2535.476583508879
 21
682.4561227128468
 31
0.0
  0
LINE
  5
20DA
330
2081
100
AcDbEntity
  8
AM_5
100
AcDbLine
 10
2510.476583508879
 20
737.4561227128467
 30
0.0
 11
2535.476583508879
 21
737.4561227128467
 31
0.0
  0
LINE
  5
20DB
330
2081
100
AcDbEntity
  8
AM_5
100
AcDbLine
 10
2533.976583508878
 20
685.4561227128467
 30
0.0
 11
2533.976583508878
 21
734.4561227128467
 31
0.0
  0
SOLID
  5
20DC
330
2081
100
AcDbEntity
  8
AM_5
100
AcDbTrace
 10
2533.476583508879
 20
685.4561227128467
 30
0.0
 11
2534.476583508878
 21
685.4561227128467
 31
0.0
 12
2533.976583508878
 22
682.4561227128468
 32
0.0
 13
2533.976583508878
 23
682.4561227128468
 33
0.0
  0
SOLID
  5
20DD
330
2081
100
AcDbEntity
  8
AM_5
100
AcDbTrace
 10
2533.476583508879
 20
734.4561227128467
 30
0.0
 11
2534.476583508878
 21
734.4561227128467
 31
0.0
 12
2533.976583508878
 22
737.4561227128467
 32
0.0
 13
2533.976583508878
 23
737.4561227128467
 33
0.0
  0
MTEXT
  5
20DE
330
2081
100
AcDbEntity
  8
AM_5
100
AcDbMText
 10
2531.476583508879
 20
709.9561227128472
 30
0.0
 40
3.0
 41
0.0
 71
     5
 72
     1
  1
55
  7
CHINESET
 11
0.0000000000000001
 21
1.0
 31
0.0
 73
     1
 44
1.0
1001
ACAD
1000
MTEXTBEGIN
1070
    73
1070
     1
1070
    44
1040
1.0
1070
    74
1070
     0
1000
MTEXTEND
  0
POINT
  5
20DF
330
2081
100
AcDbEntity
  8
Defpoints
 62
     0
100
AcDbPoint
 10
2509.683690290065
 20
682.4561227128468
 30
0.0
  0
POINT
  5
20E0
330
2081
100
AcDbEntity
  8
Defpoints
 62
     0
100
AcDbPoint
 10
2509.476583508878
 20
737.4561227128467
 30
0.0
  0
POINT
  5
20E1
330
2081
100
AcDbEntity
  8
Defpoints
 62
     0
100
AcDbPoint
 10
2533.976583508878
 20
737.4561227128467
 30
0.0
  0
ENDBLK
  5
208C
330
2081
100
AcDbEntity
  8
0
100
AcDbBlockEnd
  0
BLOCK
  5
2097
330
208D
100
AcDbEntity
  8
0
100
AcDbBlockBegin
  2
*D14
 70
     1
 10
0.0
 20
0.0
 30
0.0
  3
*D14
  1

  0
LINE
  5
20C6
330
208D
100
AcDbEntity
  8
AM_5
100
AcDbLine
 10
2512.726583508879
 20
687.9561227128467
 30
0.0
 11
2525.476583508878
 21
687.9561227128467
 31
0.0
  0
LINE
  5
20C7
330
208D
100
AcDbEntity
  8
AM_5
100
AcDbLine
 10
2512.726583508879
 20
731.9561227128467
 30
0.0
 11
2525.476583508878
 21
731.9561227128467
 31
0.0
  0
LINE
  5
20C8
330
208D
100
AcDbEntity
  8
AM_5
100
AcDbLine
 10
2523.976583508878
 20
690.9561227128468
 30
0.0
 11
2523.976583508878
 21
728.9561227128467
 31
0.0
  0
SOLID
  5
20C9
330
208D
100
AcDbEntity
  8
AM_5
100
AcDbTrace
 10
2523.476583508879
 20
690.9561227128468
 30
0.0
 11
2524.476583508878
 21
690.9561227128468
 31
0.0
 12
2523.976583508878
 22
687.9561227128467
 32
0.0
 13
2523.976583508878
 23
687.9561227128467
 33
0.0
  0
SOLID
  5
20CA
330
208D
100
AcDbEntity
  8
AM_5
100
AcDbTrace
 10
2523.476583508879
 20
728.9561227128467
 30
0.0
 11
2524.476583508878
 21
728.9561227128467
 31
0.0
 12
2523.976583508878
 22
731.9561227128467
 32
0.0
 13
2523.976583508878
 23
731.9561227128467
 33
0.0
  0
MTEXT
  5
20CB
330
208D
100
AcDbEntity
  8
AM_5
100
AcDbMText
 10
2521.476583508878
 20
709.9561227128472
 30
0.0
 40
3.0
 41
0.0
 71
     5
 72
     1
  1
44
  7
CHINESET
 11
0.0000000000000001
 21
1.0
 31
0.0
 73
     1
 44
1.0
1001
ACAD
1000
MTEXTBEGIN
1070
    73
1070
     1
1070
    44
1040
1.0
1070
    74
1070
     0
1000
MTEXTEND
  0
POINT
  5
20CC
330
208D
100
AcDbEntity
  8
Defpoints
 62
     0
100
AcDbPoint
 10
2511.726583508878
 20
687.9561227128467
 30
0.0
  0
POINT
  5
20CD
330
208D
100
AcDbEntity
  8
Defpoints
 62
     0
100
AcDbPoint
 10
2511.726583508878
 20
731.9561227128467
 30
0.0
  0
POINT
  5
20CE
330
208D
100
AcDbEntity
  8
Defpoints
 62
     0
100
AcDbPoint
 10
2523.976583508878
 20
731.9561227128467
 30
0.0
  0
ENDBLK
  5
2098
330
208D
100
AcDbEntity
  8
0
100
AcDbBlockEnd
  0
BLOCK
  5
22B5
330
22AB
100
AcDbEntity
  8
0
100
AcDbBlockBegin
  2
*D15
 70
     1
 10
0.0
 20
0.0
 30
0.0
  3
*D15
  1

  0
LINE
  5
2335
330
22AB
100
AcDbEntity
  8
AM_5
100
AcDbLine
 10
2868.706173790791
 20
508.9561227128467
 30
0.0
 11
2882.70617379079
 21
508.9561227128467
 31
0.0
  0
LINE
  5
2336
330
22AB
100
AcDbEntity
  8
AM_5
100
AcDbLine
 10
2862.70617379079
 20
588.9561227128467
 30
0.0
 11
2882.70617379079
 21
588.9561227128467
 31
0.0
  0
LINE
  5
2337
330
22AB
100
AcDbEntity
  8
AM_5
100
AcDbLine
 10
2881.20617379079
 20
511.9561227128468
 30
0.0
 11
2881.20617379079
 21
585.9561227128467
 31
0.0
  0
SOLID
  5
2338
330
22AB
100
AcDbEntity
  8
AM_5
100
AcDbTrace
 10
2880.70617379079
 20
511.9561227128468
 30
0.0
 11
2881.70617379079
 21
511.9561227128468
 31
0.0
 12
2881.20617379079
 22
508.9561227128467
 32
0.0
 13
2881.20617379079
 23
508.9561227128467
 33
0.0
  0
SOLID
  5
2339
330
22AB
100
AcDbEntity
  8
AM_5
100
AcDbTrace
 10
2880.70617379079
 20
585.9561227128467
 30
0.0
 11
2881.70617379079
 21
585.9561227128467
 31
0.0
 12
2881.20617379079
 22
588.9561227128467
 32
0.0
 13
2881.20617379079
 23
588.9561227128467
 33
0.0
  0
MTEXT
  5
233A
330
22AB
100
AcDbEntity
  8
AM_5
100
AcDbMText
 10
2878.70617379079
 20
548.9561227128472
 30
0.0
 40
3.0
 41
0.0
 71
     5
 72
     1
  1
80
  7
CHINESET
 11
0.0000000000000001
 21
1.0
 31
0.0
 73
     1
 44
1.0
1001
ACAD
1000
MTEXTBEGIN
1070
    73
1070
     1
1070
    44
1040
1.0
1070
    74
1070
     0
1000
MTEXTEND
  0
POINT
  5
233B
330
22AB
100
AcDbEntity
  8
Defpoints
 62
     0
100
AcDbPoint
 10
2867.70617379079
 20
508.9561227128467
 30
0.0
  0
POINT
  5
233C
330
22AB
100
AcDbEntity
  8
Defpoints
 62
     0
100
AcDbPoint
 10
2861.706173790791
 20
588.9561227128467
 30
0.0
  0
POINT
  5
233D
330
22AB
100
AcDbEntity
  8
Defpoints
 62
     0
100
AcDbPoint
 10
2881.20617379079
 20
588.9561227128467
 30
0.0
  0
ENDBLK
  5
22B6
330
22AB
100
AcDbEntity
  8
0
100
AcDbBlockEnd
  0
BLOCK
  5
22C1
330
22B7
100
AcDbEntity
  8
0
100
AcDbBlockBegin
  2
*D16
 70
     1
 10
0.0
 20
0.0
 30
0.0
  3
*D16
  1

  0
LINE
  5
233E
330
22B7
100
AcDbEntity
  8
AM_5
100
AcDbLine
 10
2868.706173790791
 20
508.9561227128467
 30
0.0
 11
2892.70617379079
 21
508.9561227128467
 31
0.0
  0
LINE
  5
233F
330
22B7
100
AcDbEntity
  8
AM_5
100
AcDbLine
 10
2852.20617379079
 20
622.5561227128467
 30
0.0
 11
2892.70617379079
 21
622.5561227128467
 31
0.0
  0
LINE
  5
2340
330
22B7
100
AcDbEntity
  8
AM_5
100
AcDbLine
 10
2891.20617379079
 20
511.9561227128468
 30
0.0
 11
2891.20617379079
 21
619.5561227128467
 31
0.0
  0
SOLID
  5
2341
330
22B7
100
AcDbEntity
  8
AM_5
100
AcDbTrace
 10
2890.70617379079
 20
511.9561227128468
 30
0.0
 11
2891.706173790791
 21
511.9561227128468
 31
0.0
 12
2891.20617379079
 22
508.9561227128467
 32
0.0
 13
2891.20617379079
 23
508.9561227128467
 33
0.0
  0
SOLID
  5
2342
330
22B7
100
AcDbEntity
  8
AM_5
100
AcDbTrace
 10
2890.70617379079
 20
619.5561227128467
 30
0.0
 11
2891.706173790791
 21
619.5561227128467
 31
0.0
 12
2891.20617379079
 22
622.5561227128467
 32
0.0
 13
2891.20617379079
 23
622.5561227128467
 33
0.0
  0
MTEXT
  5
2343
330
22B7
100
AcDbEntity
  8
AM_5
100
AcDbMText
 10
2888.70617379079
 20
565.7561227128471
 30
0.0
 40
3.0
 41
0.0
 71
     5
 72
     1
  1
113.6
  7
CHINESET
 11
0.0000000000000001
 21
1.0
 31
0.0
 73
     1
 44
1.0
1001
ACAD
1000
MTEXTBEGIN
1070
    73
1070
     1
1070
    44
1040
1.0
1070
    74
1070
     0
1000
MTEXTEND
  0
POINT
  5
2344
330
22B7
100
AcDbEntity
  8
Defpoints
 62
     0
100
AcDbPoint
 10
2867.70617379079
 20
508.9561227128467
 30
0.0
  0
POINT
  5
2345
330
22B7
100
AcDbEntity
  8
Defpoints
 62
     0
100
AcDbPoint
 10
2851.20617379079
 20
622.5561227128467
 30
0.0
  0
POINT
  5
2346
330
22B7
100
AcDbEntity
  8
Defpoints
 62
     0
100
AcDbPoint
 10
2891.20617379079
 20
622.5561227128467
 30
0.0
  0
ENDBLK
  5
22C2
330
22B7
100
AcDbEntity
  8
0
100
AcDbBlockEnd
  0
BLOCK
  5
22CD
330
22C3
100
AcDbEntity
  8
0
100
AcDbBlockBegin
  2
*D17
 70
     1
 10
0.0
 20
0.0
 30
0.0
  3
*D17
  1

  0
LINE
  5
2308
330
22C3
100
AcDbEntity
  8
AM_5
100
AcDbLine
 10
2805.70617379079
 20
535.9561227128467
 30
0.0
 11
2791.706172790791
 21
535.9561227128467
 31
0.0
  0
LINE
  5
2309
330
22C3
100
AcDbEntity
  8
AM_5
100
AcDbLine
 10
2805.70617379079
 20
508.9561227128467
 30
0.0
 11
2791.706172790791
 21
508.9561227128467
 31
0.0
  0
LINE
  5
230A
330
22C3
100
AcDbEntity
  8
AM_5
100
AcDbLine
 10
2793.206172790791
 20
532.9561227128468
 30
0.0
 11
2793.206172790791
 21
511.9561227128468
 31
0.0
  0
SOLID
  5
230B
330
22C3
100
AcDbEntity
  8
AM_5
100
AcDbTrace
 10
2792.70617279079
 20
532.9561227128468
 30
0.0
 11
2793.70617279079
 21
532.9561227128468
 31
0.0
 12
2793.206172790791
 22
535.9561227128467
 32
0.0
 13
2793.206172790791
 23
535.9561227128467
 33
0.0
  0
SOLID
  5
230C
330
22C3
100
AcDbEntity
  8
AM_5
100
AcDbTrace
 10
2792.70617279079
 20
511.9561227128468
 30
0.0
 11
2793.70617279079
 21
511.9561227128468
 31
0.0
 12
2793.206172790791
 22
508.9561227128467
 32
0.0
 13
2793.206172790791
 23
508.9561227128467
 33
0.0
  0
MTEXT
  5
230D
330
22C3
100
AcDbEntity
  8
AM_5
100
AcDbMText
 10
2790.706172790791
 20
522.4561227128471
 30
0.0
 40
3.0
 41
0.0
 71
     5
 72
     1
  1
27
  7
CHINESET
 11
0.0000000000000001
 21
1.0
 31
0.0
 73
     1
 44
1.0
1001
ACAD
1000
MTEXTBEGIN
1070
    73
1070
     1
1070
    44
1040
1.0
1070
    74
1070
     0
1000
MTEXTEND
  0
POINT
  5
230E
330
22C3
100
AcDbEntity
  8
Defpoints
 62
     0
100
AcDbPoint
 10
2806.70617379079
 20
535.9561227128467
 30
0.0
  0
POINT
  5
230F
330
22C3
100
AcDbEntity
  8
Defpoints
 62
     0
100
AcDbPoint
 10
2806.70617379079
 20
508.9561227128467
 30
0.0
  0
POINT
  5
2310
330
22C3
100
AcDbEntity
  8
Defpoints
 62
     0
100
AcDbPoint
 10
2793.206172790791
 20
508.9561227128467
 30
0.0
  0
ENDBLK
  5
22CE
330
22C3
100
AcDbEntity
  8
0
100
AcDbBlockEnd
  0
BLOCK
  5
22D9
330
22CF
100
AcDbEntity
  8
0
100
AcDbBlockBegin
  2
*D18
 70
     1
 10
0.0
 20
0.0
 30
0.0
  3
*D18
  1

  0
LINE
  5
231A
330
22CF
100
AcDbEntity
  8
AM_5
100
AcDbLine
 10
2852.20617379079
 20
647.5561227128467
 30
0.0
 11
2892.70617379079
 21
647.5561227128467
 31
0.0
  0
LINE
  5
231B
330
22CF
100
AcDbEntity
  8
AM_5
100
AcDbLine
 10
2852.20617379079
 20
622.5561227128467
 30
0.0
 11
2892.70617379079
 21
622.5561227128467
 31
0.0
  0
LINE
  5
231C
330
22CF
100
AcDbEntity
  8
AM_5
100
AcDbLine
 10
2891.20617379079
 20
644.5561227128467
 30
0.0
 11
2891.20617379079
 21
625.5561227128468
 31
0.0
  0
SOLID
  5
231D
330
22CF
100
AcDbEntity
  8
AM_5
100
AcDbTrace
 10
2890.70617379079
 20
644.5561227128467
 30
0.0
 11
2891.706173790791
 21
644.5561227128467
 31
0.0
 12
2891.20617379079
 22
647.5561227128467
 32
0.0
 13
2891.20617379079
 23
647.5561227128467
 33
0.0
  0
SOLID
  5
231E
330
22CF
100
AcDbEntity
  8
AM_5
100
AcDbTrace
 10
2890.70617379079
 20
625.5561227128468
 30
0.0
 11
2891.706173790791
 21
625.5561227128468
 31
0.0
 12
2891.20617379079
 22
622.5561227128467
 32
0.0
 13
2891.20617379079
 23
622.5561227128467
 33
0.0
  0
MTEXT
  5
231F
330
22CF
100
AcDbEntity
  8
AM_5
100
AcDbMText
 10
2888.70617379079
 20
635.0561227128472
 30
0.0
 40
3.0
 41
0.0
 71
     5
 72
     1
  1
25
  7
CHINESET
 11
0.0000000000000001
 21
1.0
 31
0.0
 73
     1
 44
1.0
1001
ACAD
1000
MTEXTBEGIN
1070
    73
1070
     1
1070
    44
1040
1.0
1070
    74
1070
     0
1000
MTEXTEND
  0
POINT
  5
2320
330
22CF
100
AcDbEntity
  8
Defpoints
 62
     0
100
AcDbPoint
 10
2851.20617379079
 20
647.5561227128467
 30
0.0
  0
POINT
  5
2321
330
22CF
100
AcDbEntity
  8
Defpoints
 62
     0
100
AcDbPoint
 10
2851.20617379079
 20
622.5561227128467
 30
0.0
  0
POINT
  5
2322
330
22CF
100
AcDbEntity
  8
Defpoints
 62
     0
100
AcDbPoint
 10
2891.20617379079
 20
622.5561227128467
 30
0.0
  0
ENDBLK
  5
22DA
330
22CF
100
AcDbEntity
  8
0
100
AcDbBlockEnd
  0
BLOCK
  5
2354
330
234A
100
AcDbEntity
  8
0
100
AcDbBlockBegin
  2
*D19
 70
     1
 10
0.0
 20
0.0
 30
0.0
  3
*D19
  1

  0
LINE
  5
2386
330
234A
100
AcDbEntity
  8
AM_5
100
AcDbLine
 10
2867.206173790791
 20
677.9561227128468
 30
0.0
 11
2893.706173790791
 21
677.9561227128468
 31
0.0
  0
LINE
  5
2387
330
234A
100
AcDbEntity
  8
AM_5
100
AcDbLine
 10
2867.206173790791
 20
739.9561227128467
 30
0.0
 11
2893.706173790791
 21
739.9561227128467
 31
0.0
  0
LINE
  5
2388
330
234A
100
AcDbEntity
  8
AM_5
100
AcDbLine
 10
2892.206173790791
 20
680.9561227128467
 30
0.0
 11
2892.206173790791
 21
736.9561227128468
 31
0.0
  0
SOLID
  5
2389
330
234A
100
AcDbEntity
  8
AM_5
100
AcDbTrace
 10
2891.706173790791
 20
680.9561227128467
 30
0.0
 11
2892.706173790791
 21
680.9561227128467
 31
0.0
 12
2892.206173790791
 22
677.9561227128468
 32
0.0
 13
2892.206173790791
 23
677.9561227128468
 33
0.0
  0
SOLID
  5
238A
330
234A
100
AcDbEntity
  8
AM_5
100
AcDbTrace
 10
2891.706173790791
 20
736.9561227128468
 30
0.0
 11
2892.706173790791
 21
736.9561227128468
 31
0.0
 12
2892.206173790791
 22
739.9561227128467
 32
0.0
 13
2892.206173790791
 23
739.9561227128467
 33
0.0
  0
MTEXT
  5
238B
330
234A
100
AcDbEntity
  8
AM_5
100
AcDbMText
 10
2889.706173790791
 20
708.9561227128472
 30
0.0
 40
3.0
 41
0.0
 71
     5
 72
     1
  1
62
  7
CHINESET
 11
0.0000000000000001
 21
1.0
 31
0.0
 73
     1
 44
1.0
1001
ACAD
1000
MTEXTBEGIN
1070
    73
1070
     1
1070
    44
1040
1.0
1070
    74
1070
     0
1000
MTEXTEND
  0
POINT
  5
238C
330
234A
100
AcDbEntity
  8
Defpoints
 62
     0
100
AcDbPoint
 10
2866.20617379079
 20
677.9561227128468
 30
0.0
  0
POINT
  5
238D
330
234A
100
AcDbEntity
  8
Defpoints
 62
     0
100
AcDbPoint
 10
2866.20617379079
 20
739.9561227128467
 30
0.0
  0
POINT
  5
238E
330
234A
100
AcDbEntity
  8
Defpoints
 62
     0
100
AcDbPoint
 10
2892.206173790791
 20
739.9561227128467
 30
0.0
  0
ENDBLK
  5
2355
330
234A
100
AcDbEntity
  8
0
100
AcDbBlockEnd
  0
BLOCK
  5
2360
330
2356
100
AcDbEntity
  8
0
100
AcDbBlockBegin
  2
*D20
 70
     1
 10
0.0
 20
0.0
 30
0.0
  3
*D20
  1

  0
LINE
  5
238F
330
2356
100
AcDbEntity
  8
AM_5
100
AcDbLine
 10
2868.45617379079
 20
684.9561227128467
 30
0.0
 11
2883.706173790791
 21
684.9561227128467
 31
0.0
  0
LINE
  5
2390
330
2356
100
AcDbEntity
  8
AM_5
100
AcDbLine
 10
2868.45617379079
 20
732.9561227128468
 30
0.0
 11
2883.706173790791
 21
732.9561227128468
 31
0.0
  0
LINE
  5
2391
330
2356
100
AcDbEntity
  8
AM_5
100
AcDbLine
 10
2882.206173790791
 20
687.9561227128467
 30
0.0
 11
2882.206173790791
 21
729.9561227128467
 31
0.0
  0
SOLID
  5
2392
330
2356
100
AcDbEntity
  8
AM_5
100
AcDbTrace
 10
2881.706173790791
 20
687.9561227128467
 30
0.0
 11
2882.706173790791
 21
687.9561227128467
 31
0.0
 12
2882.206173790791
 22
684.9561227128467
 32
0.0
 13
2882.206173790791
 23
684.9561227128467
 33
0.0
  0
SOLID
  5
2393
330
2356
100
AcDbEntity
  8
AM_5
100
AcDbTrace
 10
2881.706173790791
 20
729.9561227128467
 30
0.0
 11
2882.706173790791
 21
729.9561227128467
 31
0.0
 12
2882.206173790791
 22
732.9561227128468
 32
0.0
 13
2882.206173790791
 23
732.9561227128468
 33
0.0
  0
MTEXT
  5
2394
330
2356
100
AcDbEntity
  8
AM_5
100
AcDbMText
 10
2879.706173790791
 20
708.9561227128472
 30
0.0
 40
3.0
 41
0.0
 71
     5
 72
     1
  1
48
  7
CHINESET
 11
0.0000000000000001
 21
1.0
 31
0.0
 73
     1
 44
1.0
1001
ACAD
1000
MTEXTBEGIN
1070
    73
1070
     1
1070
    44
1040
1.0
1070
    74
1070
     0
1000
MTEXTEND
  0
POINT
  5
2395
330
2356
100
AcDbEntity
  8
Defpoints
 62
     0
100
AcDbPoint
 10
2867.45617379079
 20
684.9561227128467
 30
0.0
  0
POINT
  5
2396
330
2356
100
AcDbEntity
  8
Defpoints
 62
     0
100
AcDbPoint
 10
2867.45617379079
 20
732.9561227128468
 30
0.0
  0
POINT
  5
2397
330
2356
100
AcDbEntity
  8
Defpoints
 62
     0
100
AcDbPoint
 10
2882.206173790791
 20
732.9561227128468
 30
0.0
  0
ENDBLK
  5
2361
330
2356
100
AcDbEntity
  8
0
100
AcDbBlockEnd
  0
BLOCK
  5
24EC
330
24E2
100
AcDbEntity
  8
0
100
AcDbBlockBegin
  2
*D21
 70
     1
 10
0.0
 20
0.0
 30
0.0
  3
*D21
  1

  0
LINE
  5
2953
330
24E2
100
AcDbEntity
  8
AM_5
100
AcDbLine
 10
2148.657803487452
 20
138.0125204969318
 30
0.0
 11
2162.157803487452
 21
138.0125204969318
 31
0.0
  0
LINE
  5
2954
330
24E2
100
AcDbEntity
  8
AM_5
100
AcDbLine
 10
2144.157803487452
 20
218.0125204969318
 30
0.0
 11
2162.157803487452
 21
218.0125204969318
 31
0.0
  0
LINE
  5
2955
330
24E2
100
AcDbEntity
  8
AM_5
100
AcDbLine
 10
2160.657803487452
 20
141.0125204969318
 30
0.0
 11
2160.657803487452
 21
215.0125204969318
 31
0.0
  0
SOLID
  5
2956
330
24E2
100
AcDbEntity
  8
AM_5
100
AcDbTrace
 10
2160.157803487452
 20
141.0125204969318
 30
0.0
 11
2161.157803487452
 21
141.0125204969318
 31
0.0
 12
2160.657803487452
 22
138.0125204969318
 32
0.0
 13
2160.657803487452
 23
138.0125204969318
 33
0.0
  0
SOLID
  5
2957
330
24E2
100
AcDbEntity
  8
AM_5
100
AcDbTrace
 10
2160.157803487452
 20
215.0125204969318
 30
0.0
 11
2161.157803487452
 21
215.0125204969318
 31
0.0
 12
2160.657803487452
 22
218.0125204969318
 32
0.0
 13
2160.657803487452
 23
218.0125204969318
 33
0.0
  0
MTEXT
  5
2958
330
24E2
100
AcDbEntity
  8
AM_5
100
AcDbMText
 10
2158.157803487452
 20
178.0125204969321
 30
0.0
 40
3.0
 41
0.0
 71
     5
 72
     1
  1
80
  7
CHINESET
 11
0.0000000000000001
 21
1.0
 31
0.0
 73
     1
 44
1.0
1001
ACAD
1000
MTEXTBEGIN
1070
    73
1070
     1
1070
    44
1040
1.0
1070
    74
1070
     0
1000
MTEXTEND
  0
POINT
  5
2959
330
24E2
100
AcDbEntity
  8
Defpoints
 62
     0
100
AcDbPoint
 10
2147.657803487452
 20
138.0125204969318
 30
0.0
  0
POINT
  5
295A
330
24E2
100
AcDbEntity
  8
Defpoints
 62
     0
100
AcDbPoint
 10
2143.157803487452
 20
218.0125204969318
 30
0.0
  0
POINT
  5
295B
330
24E2
100
AcDbEntity
  8
Defpoints
 62
     0
100
AcDbPoint
 10
2160.657803487452
 20
218.0125204969318
 30
0.0
  0
ENDBLK
  5
24ED
330
24E2
100
AcDbEntity
  8
0
100
AcDbBlockEnd
  0
BLOCK
  5
24F8
330
24EE
100
AcDbEntity
  8
0
100
AcDbBlockBegin
  2
*D22
 70
     1
 10
0.0
 20
0.0
 30
0.0
  3
*D22
  1

  0
LINE
  5
295C
330
24EE
100
AcDbEntity
  8
AM_5
100
AcDbLine
 10
2148.657803487452
 20
138.0125204969318
 30
0.0
 11
2172.157803487452
 21
138.0125204969318
 31
0.0
  0
LINE
  5
295D
330
24EE
100
AcDbEntity
  8
AM_5
100
AcDbLine
 10
2126.657803487452
 20
252.5125204969318
 30
0.0
 11
2172.157803487452
 21
252.5125204969318
 31
0.0
  0
LINE
  5
295E
330
24EE
100
AcDbEntity
  8
AM_5
100
AcDbLine
 10
2170.657803487452
 20
141.0125204969318
 30
0.0
 11
2170.657803487452
 21
249.5125204969318
 31
0.0
  0
SOLID
  5
295F
330
24EE
100
AcDbEntity
  8
AM_5
100
AcDbTrace
 10
2170.157803487452
 20
141.0125204969318
 30
0.0
 11
2171.157803487452
 21
141.0125204969318
 31
0.0
 12
2170.657803487452
 22
138.0125204969318
 32
0.0
 13
2170.657803487452
 23
138.0125204969318
 33
0.0
  0
SOLID
  5
2960
330
24EE
100
AcDbEntity
  8
AM_5
100
AcDbTrace
 10
2170.157803487452
 20
249.5125204969318
 30
0.0
 11
2171.157803487452
 21
249.5125204969318
 31
0.0
 12
2170.657803487452
 22
252.5125204969318
 32
0.0
 13
2170.657803487452
 23
252.5125204969318
 33
0.0
  0
MTEXT
  5
2961
330
24EE
100
AcDbEntity
  8
AM_5
100
AcDbMText
 10
2168.157803487452
 20
195.2625204969321
 30
0.0
 40
3.0
 41
0.0
 71
     5
 72
     1
  1
114.5
  7
CHINESET
 11
0.0000000000000001
 21
1.0
 31
0.0
 73
     1
 44
1.0
1001
ACAD
1000
MTEXTBEGIN
1070
    73
1070
     1
1070
    44
1040
1.0
1070
    74
1070
     0
1000
MTEXTEND
  0
POINT
  5
2962
330
24EE
100
AcDbEntity
  8
Defpoints
 62
     0
100
AcDbPoint
 10
2147.657803487452
 20
138.0125204969318
 30
0.0
  0
POINT
  5
2963
330
24EE
100
AcDbEntity
  8
Defpoints
 62
     0
100
AcDbPoint
 10
2125.657803487452
 20
252.5125204969318
 30
0.0
  0
POINT
  5
2964
330
24EE
100
AcDbEntity
  8
Defpoints
 62
     0
100
AcDbPoint
 10
2170.657803487452
 20
252.5125204969318
 30
0.0
  0
ENDBLK
  5
24F9
330
24EE
100
AcDbEntity
  8
0
100
AcDbBlockEnd
  0
BLOCK
  5
2504
330
24FA
100
AcDbEntity
  8
0
100
AcDbBlockBegin
  2
*D23
 70
     1
 10
0.0
 20
0.0
 30
0.0
  3
*D23
  1

  0
LINE
  5
2965
330
24FA
100
AcDbEntity
  8
AM_5
100
AcDbLine
 10
2074.657803487452
 20
165.0125204969317
 30
0.0
 11
2061.157803487452
 21
165.0125204969317
 31
0.0
  0
LINE
  5
2966
330
24FA
100
AcDbEntity
  8
AM_5
100
AcDbLine
 10
2075.157802987452
 20
138.0125204969318
 30
0.0
 11
2061.157803487452
 21
138.0125204969318
 31
0.0
  0
LINE
  5
2967
330
24FA
100
AcDbEntity
  8
AM_5
100
AcDbLine
 10
2062.657803487452
 20
162.0125204969317
 30
0.0
 11
2062.657803487452
 21
141.0125204969318
 31
0.0
  0
SOLID
  5
2968
330
24FA
100
AcDbEntity
  8
AM_5
100
AcDbTrace
 10
2062.157803487452
 20
162.0125204969317
 30
0.0
 11
2063.157803487452
 21
162.0125204969317
 31
0.0
 12
2062.657803487452
 22
165.0125204969317
 32
0.0
 13
2062.657803487452
 23
165.0125204969317
 33
0.0
  0
SOLID
  5
2969
330
24FA
100
AcDbEntity
  8
AM_5
100
AcDbTrace
 10
2062.157803487452
 20
141.0125204969318
 30
0.0
 11
2063.157803487452
 21
141.0125204969318
 31
0.0
 12
2062.657803487452
 22
138.0125204969318
 32
0.0
 13
2062.657803487452
 23
138.0125204969318
 33
0.0
  0
MTEXT
  5
296A
330
24FA
100
AcDbEntity
  8
AM_5
100
AcDbMText
 10
2060.157803487452
 20
151.5125204969321
 30
0.0
 40
3.0
 41
0.0
 71
     5
 72
     1
  1
27
  7
CHINESET
 11
0.0000000000000001
 21
1.0
 31
0.0
 73
     1
 44
1.0
1001
ACAD
1000
MTEXTBEGIN
1070
    73
1070
     1
1070
    44
1040
1.0
1070
    74
1070
     0
1000
MTEXTEND
  0
POINT
  5
296B
330
24FA
100
AcDbEntity
  8
Defpoints
 62
     0
100
AcDbPoint
 10
2075.657803487452
 20
165.0125204969317
 30
0.0
  0
POINT
  5
296C
330
24FA
100
AcDbEntity
  8
Defpoints
 62
     0
100
AcDbPoint
 10
2076.157802987452
 20
138.0125204969318
 30
0.0
  0
POINT
  5
296D
330
24FA
100
AcDbEntity
  8
Defpoints
 62
     0
100
AcDbPoint
 10
2062.657803487452
 20
138.0125204969318
 30
0.0
  0
ENDBLK
  5
2505
330
24FA
100
AcDbEntity
  8
0
100
AcDbBlockEnd
  0
BLOCK
  5
2510
330
2506
100
AcDbEntity
  8
0
100
AcDbBlockBegin
  2
*D24
 70
     1
 10
0.0
 20
0.0
 30
0.0
  3
*D24
  1

  0
LINE
  5
296E
330
2506
100
AcDbEntity
  8
AM_5
100
AcDbLine
 10
2126.657803487452
 20
277.5125204969318
 30
0.0
 11
2172.157803487452
 21
277.5125204969318
 31
0.0
  0
LINE
  5
296F
330
2506
100
AcDbEntity
  8
AM_5
100
AcDbLine
 10
2126.657803487452
 20
252.5125204969318
 30
0.0
 11
2172.157803487452
 21
252.5125204969318
 31
0.0
  0
LINE
  5
2970
330
2506
100
AcDbEntity
  8
AM_5
100
AcDbLine
 10
2170.657803487452
 20
274.5125204969318
 30
0.0
 11
2170.657803487452
 21
255.5125204969318
 31
0.0
  0
SOLID
  5
2971
330
2506
100
AcDbEntity
  8
AM_5
100
AcDbTrace
 10
2170.157803487452
 20
274.5125204969318
 30
0.0
 11
2171.157803487452
 21
274.5125204969318
 31
0.0
 12
2170.657803487452
 22
277.5125204969318
 32
0.0
 13
2170.657803487452
 23
277.5125204969318
 33
0.0
  0
SOLID
  5
2972
330
2506
100
AcDbEntity
  8
AM_5
100
AcDbTrace
 10
2170.157803487452
 20
255.5125204969318
 30
0.0
 11
2171.157803487452
 21
255.5125204969318
 31
0.0
 12
2170.657803487452
 22
252.5125204969318
 32
0.0
 13
2170.657803487452
 23
252.5125204969318
 33
0.0
  0
MTEXT
  5
2973
330
2506
100
AcDbEntity
  8
AM_5
100
AcDbMText
 10
2168.157803487452
 20
265.0125204969321
 30
0.0
 40
3.0
 41
0.0
 71
     5
 72
     1
  1
25
  7
CHINESET
 11
0.0000000000000001
 21
1.0
 31
0.0
 73
     1
 44
1.0
1001
ACAD
1000
MTEXTBEGIN
1070
    73
1070
     1
1070
    44
1040
1.0
1070
    74
1070
     0
1000
MTEXTEND
  0
POINT
  5
2974
330
2506
100
AcDbEntity
  8
Defpoints
 62
     0
100
AcDbPoint
 10
2125.657803487452
 20
277.5125204969318
 30
0.0
  0
POINT
  5
2975
330
2506
100
AcDbEntity
  8
Defpoints
 62
     0
100
AcDbPoint
 10
2125.657803487452
 20
252.5125204969318
 30
0.0
  0
POINT
  5
2976
330
2506
100
AcDbEntity
  8
Defpoints
 62
     0
100
AcDbPoint
 10
2170.657803487452
 20
252.5125204969318
 30
0.0
  0
ENDBLK
  5
2511
330
2506
100
AcDbEntity
  8
0
100
AcDbBlockEnd
  0
BLOCK
  5
2593
330
2589
100
AcDbEntity
  8
0
100
AcDbBlockBegin
  2
*D25
 70
     1
 10
0.0
 20
0.0
 30
0.0
  3
*D25
  1

  0
LINE
  5
2977
330
2589
100
AcDbEntity
  8
AM_5
100
AcDbLine
 10
2146.364910268639
 20
307.001742710901
 30
0.0
 11
2172.157803487452
 21
307.001742710901
 31
0.0
  0
LINE
  5
2978
330
2589
100
AcDbEntity
  8
AM_5
100
AcDbLine
 10
2146.364910268639
 20
381.001742710901
 30
0.0
 11
2172.157803487452
 21
381.001742710901
 31
0.0
  0
LINE
  5
2979
330
2589
100
AcDbEntity
  8
AM_5
100
AcDbLine
 10
2170.657803487452
 20
310.001742710901
 30
0.0
 11
2170.657803487452
 21
378.001742710901
 31
0.0
  0
SOLID
  5
297A
330
2589
100
AcDbEntity
  8
AM_5
100
AcDbTrace
 10
2170.157803487452
 20
310.001742710901
 30
0.0
 11
2171.157803487452
 21
310.001742710901
 31
0.0
 12
2170.657803487452
 22
307.001742710901
 32
0.0
 13
2170.657803487452
 23
307.001742710901
 33
0.0
  0
SOLID
  5
297B
330
2589
100
AcDbEntity
  8
AM_5
100
AcDbTrace
 10
2170.157803487452
 20
378.001742710901
 30
0.0
 11
2171.157803487452
 21
378.001742710901
 31
0.0
 12
2170.657803487452
 22
381.001742710901
 32
0.0
 13
2170.657803487452
 23
381.001742710901
 33
0.0
  0
MTEXT
  5
297C
330
2589
100
AcDbEntity
  8
AM_5
100
AcDbMText
 10
2168.157803487452
 20
344.0017427109014
 30
0.0
 40
3.0
 41
0.0
 71
     5
 72
     1
  1
74
  7
CHINESET
 11
0.0000000000000001
 21
1.0
 31
0.0
 73
     1
 44
1.0
1001
ACAD
1000
MTEXTBEGIN
1070
    73
1070
     1
1070
    44
1040
1.0
1070
    74
1070
     0
1000
MTEXTEND
  0
POINT
  5
297D
330
2589
100
AcDbEntity
  8
Defpoints
 62
     0
100
AcDbPoint
 10
2145.364910268639
 20
307.001742710901
 30
0.0
  0
POINT
  5
297E
330
2589
100
AcDbEntity
  8
Defpoints
 62
     0
100
AcDbPoint
 10
2145.364910268639
 20
381.001742710901
 30
0.0
  0
POINT
  5
297F
330
2589
100
AcDbEntity
  8
Defpoints
 62
     0
100
AcDbPoint
 10
2170.657803487452
 20
381.001742710901
 30
0.0
  0
ENDBLK
  5
2594
330
2589
100
AcDbEntity
  8
0
100
AcDbBlockEnd
  0
BLOCK
  5
259F
330
2595
100
AcDbEntity
  8
0
100
AcDbBlockBegin
  2
*D26
 70
     1
 10
0.0
 20
0.0
 30
0.0
  3
*D26
  1

  0
LINE
  5
2980
330
2595
100
AcDbEntity
  8
AM_5
100
AcDbLine
 10
2147.407803487452
 20
315.501742710901
 30
0.0
 11
2162.157803487452
 21
315.501742710901
 31
0.0
  0
LINE
  5
2981
330
2595
100
AcDbEntity
  8
AM_5
100
AcDbLine
 10
2147.407803487452
 20
372.501742710901
 30
0.0
 11
2162.157803487452
 21
372.501742710901
 31
0.0
  0
LINE
  5
2982
330
2595
100
AcDbEntity
  8
AM_5
100
AcDbLine
 10
2160.657803487452
 20
318.501742710901
 30
0.0
 11
2160.657803487452
 21
369.501742710901
 31
0.0
  0
SOLID
  5
2983
330
2595
100
AcDbEntity
  8
AM_5
100
AcDbTrace
 10
2160.157803487452
 20
318.501742710901
 30
0.0
 11
2161.157803487452
 21
318.501742710901
 31
0.0
 12
2160.657803487452
 22
315.501742710901
 32
0.0
 13
2160.657803487452
 23
315.501742710901
 33
0.0
  0
SOLID
  5
2984
330
2595
100
AcDbEntity
  8
AM_5
100
AcDbTrace
 10
2160.157803487452
 20
369.501742710901
 30
0.0
 11
2161.157803487452
 21
369.501742710901
 31
0.0
 12
2160.657803487452
 22
372.501742710901
 32
0.0
 13
2160.657803487452
 23
372.501742710901
 33
0.0
  0
MTEXT
  5
2985
330
2595
100
AcDbEntity
  8
AM_5
100
AcDbMText
 10
2158.157803487452
 20
344.0017427109014
 30
0.0
 40
3.0
 41
0.0
 71
     5
 72
     1
  1
57
  7
CHINESET
 11
0.0000000000000001
 21
1.0
 31
0.0
 73
     1
 44
1.0
1001
ACAD
1000
MTEXTBEGIN
1070
    73
1070
     1
1070
    44
1040
1.0
1070
    74
1070
     0
1000
MTEXTEND
  0
POINT
  5
2986
330
2595
100
AcDbEntity
  8
Defpoints
 62
     0
100
AcDbPoint
 10
2146.407803487452
 20
315.501742710901
 30
0.0
  0
POINT
  5
2987
330
2595
100
AcDbEntity
  8
Defpoints
 62
     0
100
AcDbPoint
 10
2146.407803487452
 20
372.501742710901
 30
0.0
  0
POINT
  5
2988
330
2595
100
AcDbEntity
  8
Defpoints
 62
     0
100
AcDbPoint
 10
2160.657803487452
 20
372.501742710901
 30
0.0
  0
ENDBLK
  5
25A0
330
2595
100
AcDbEntity
  8
0
100
AcDbBlockEnd
  0
BLOCK
  5
2784
330
277A
100
AcDbEntity
  8
0
100
AcDbBlockBegin
  2
*D27
 70
     1
 10
0.0
 20
0.0
 30
0.0
  3
*D27
  1

  0
LINE
  5
28F3
330
277A
100
AcDbEntity
  8
AM_5
100
AcDbLine
 10
2528.476583508878
 20
138.0125204969318
 30
0.0
 11
2541.976583508879
 21
138.0125204969318
 31
0.0
  0
LINE
  5
28F4
330
277A
100
AcDbEntity
  8
AM_5
100
AcDbLine
 10
2519.476583508879
 20
223.0125204969318
 30
0.0
 11
2541.976583508879
 21
223.0125204969318
 31
0.0
  0
LINE
  5
28F5
330
277A
100
AcDbEntity
  8
AM_5
100
AcDbLine
 10
2540.476583508878
 20
141.0125204969318
 30
0.0
 11
2540.476583508878
 21
220.0125204969318
 31
0.0
  0
SOLID
  5
28F6
330
277A
100
AcDbEntity
  8
AM_5
100
AcDbTrace
 10
2539.976583508878
 20
141.0125204969318
 30
0.0
 11
2540.976583508879
 21
141.0125204969318
 31
0.0
 12
2540.476583508878
 22
138.0125204969318
 32
0.0
 13
2540.476583508878
 23
138.0125204969318
 33
0.0
  0
SOLID
  5
28F7
330
277A
100
AcDbEntity
  8
AM_5
100
AcDbTrace
 10
2539.976583508878
 20
220.0125204969318
 30
0.0
 11
2540.976583508879
 21
220.0125204969318
 31
0.0
 12
2540.476583508878
 22
223.0125204969318
 32
0.0
 13
2540.476583508878
 23
223.0125204969318
 33
0.0
  0
MTEXT
  5
28F8
330
277A
100
AcDbEntity
  8
AM_5
100
AcDbMText
 10
2537.976583508879
 20
180.5125204969322
 30
0.0
 40
3.0
 41
0.0
 71
     5
 72
     1
  1
85
  7
CHINESET
 11
0.0000000000000001
 21
1.0
 31
0.0
 73
     1
 44
1.0
1001
ACAD
1000
MTEXTBEGIN
1070
    73
1070
     1
1070
    44
1040
1.0
1070
    74
1070
     0
1000
MTEXTEND
  0
POINT
  5
28F9
330
277A
100
AcDbEntity
  8
Defpoints
 62
     0
100
AcDbPoint
 10
2527.476583508879
 20
138.0125204969318
 30
0.0
  0
POINT
  5
28FA
330
277A
100
AcDbEntity
  8
Defpoints
 62
     0
100
AcDbPoint
 10
2518.476583508878
 20
223.0125204969318
 30
0.0
  0
POINT
  5
28FB
330
277A
100
AcDbEntity
  8
Defpoints
 62
     0
100
AcDbPoint
 10
2540.476583508878
 20
223.0125204969318
 30
0.0
  0
ENDBLK
  5
2785
330
277A
100
AcDbEntity
  8
0
100
AcDbBlockEnd
  0
BLOCK
  5
2790
330
2786
100
AcDbEntity
  8
0
100
AcDbBlockBegin
  2
*D28
 70
     1
 10
0.0
 20
0.0
 30
0.0
  3
*D28
  1

  0
LINE
  5
28EA
330
2786
100
AcDbEntity
  8
AM_5
100
AcDbLine
 10
2528.476583508878
 20
138.0125204969318
 30
0.0
 11
2551.976583508878
 21
138.0125204969318
 31
0.0
  0
LINE
  5
28EB
330
2786
100
AcDbEntity
  8
AM_5
100
AcDbLine
 10
2501.476583508879
 20
256.0125204969318
 30
0.0
 11
2551.976583508878
 21
256.0125204969318
 31
0.0
  0
LINE
  5
28EC
330
2786
100
AcDbEntity
  8
AM_5
100
AcDbLine
 10
2550.476583508878
 20
141.0125204969318
 30
0.0
 11
2550.476583508878
 21
253.0125204969318
 31
0.0
  0
SOLID
  5
28ED
330
2786
100
AcDbEntity
  8
AM_5
100
AcDbTrace
 10
2549.976583508879
 20
141.0125204969318
 30
0.0
 11
2550.976583508879
 21
141.0125204969318
 31
0.0
 12
2550.476583508878
 22
138.0125204969318
 32
0.0
 13
2550.476583508878
 23
138.0125204969318
 33
0.0
  0
SOLID
  5
28EE
330
2786
100
AcDbEntity
  8
AM_5
100
AcDbTrace
 10
2549.976583508879
 20
253.0125204969318
 30
0.0
 11
2550.976583508879
 21
253.0125204969318
 31
0.0
 12
2550.476583508878
 22
256.0125204969318
 32
0.0
 13
2550.476583508878
 23
256.0125204969318
 33
0.0
  0
MTEXT
  5
28EF
330
2786
100
AcDbEntity
  8
AM_5
100
AcDbMText
 10
2547.976583508879
 20
197.0125204969322
 30
0.0
 40
3.0
 41
0.0
 71
     5
 72
     1
  1
118
  7
CHINESET
 11
0.0000000000000001
 21
1.0
 31
0.0
 73
     1
 44
1.0
1001
ACAD
1000
MTEXTBEGIN
1070
    73
1070
     1
1070
    44
1040
1.0
1070
    74
1070
     0
1000
MTEXTEND
  0
POINT
  5
28F0
330
2786
100
AcDbEntity
  8
Defpoints
 62
     0
100
AcDbPoint
 10
2527.476583508879
 20
138.0125204969318
 30
0.0
  0
POINT
  5
28F1
330
2786
100
AcDbEntity
  8
Defpoints
 62
     0
100
AcDbPoint
 10
2500.476583508878
 20
256.0125204969318
 30
0.0
  0
POINT
  5
28F2
330
2786
100
AcDbEntity
  8
Defpoints
 62
     0
100
AcDbPoint
 10
2550.476583508878
 20
256.0125204969318
 30
0.0
  0
ENDBLK
  5
2791
330
2786
100
AcDbEntity
  8
0
100
AcDbBlockEnd
  0
BLOCK
  5
279C
330
2792
100
AcDbEntity
  8
0
100
AcDbBlockBegin
  2
*D29
 70
     1
 10
0.0
 20
0.0
 30
0.0
  3
*D29
  1

  0
LINE
  5
2902
330
2792
100
AcDbEntity
  8
AM_5
100
AcDbLine
 10
2439.976583508878
 20
170.0125204969318
 30
0.0
 11
2426.976583508878
 21
170.0125204969318
 31
0.0
  0
LINE
  5
2903
330
2792
100
AcDbEntity
  8
AM_5
100
AcDbLine
 10
2439.976583258879
 20
138.0125204969318
 30
0.0
 11
2426.976583508878
 21
138.0125204969318
 31
0.0
  0
LINE
  5
2904
330
2792
100
AcDbEntity
  8
AM_5
100
AcDbLine
 10
2428.476583508878
 20
167.0125204969318
 30
0.0
 11
2428.476583508878
 21
141.0125204969318
 31
0.0
  0
SOLID
  5
2905
330
2792
100
AcDbEntity
  8
AM_5
100
AcDbTrace
 10
2427.976583508879
 20
167.0125204969318
 30
0.0
 11
2428.976583508879
 21
167.0125204969318
 31
0.0
 12
2428.476583508878
 22
170.0125204969318
 32
0.0
 13
2428.476583508878
 23
170.0125204969318
 33
0.0
  0
SOLID
  5
2906
330
2792
100
AcDbEntity
  8
AM_5
100
AcDbTrace
 10
2427.976583508879
 20
141.0125204969318
 30
0.0
 11
2428.976583508879
 21
141.0125204969318
 31
0.0
 12
2428.476583508878
 22
138.0125204969318
 32
0.0
 13
2428.476583508878
 23
138.0125204969318
 33
0.0
  0
MTEXT
  5
2907
330
2792
100
AcDbEntity
  8
AM_5
100
AcDbMText
 10
2425.976583508879
 20
154.0125204969322
 30
0.0
 40
3.0
 41
0.0
 71
     5
 72
     1
  1
32
  7
CHINESET
 11
0.0000000000000001
 21
1.0
 31
0.0
 73
     1
 44
1.0
1001
ACAD
1000
MTEXTBEGIN
1070
    73
1070
     1
1070
    44
1040
1.0
1070
    74
1070
     0
1000
MTEXTEND
  0
POINT
  5
2908
330
2792
100
AcDbEntity
  8
Defpoints
 62
     0
100
AcDbPoint
 10
2440.976583508879
 20
170.0125204969318
 30
0.0
  0
POINT
  5
2909
330
2792
100
AcDbEntity
  8
Defpoints
 62
     0
100
AcDbPoint
 10
2440.976583258879
 20
138.0125204969318
 30
0.0
  0
POINT
  5
290A
330
2792
100
AcDbEntity
  8
Defpoints
 62
     0
100
AcDbPoint
 10
2428.476583508878
 20
138.0125204969318
 30
0.0
  0
ENDBLK
  5
279D
330
2792
100
AcDbEntity
  8
0
100
AcDbBlockEnd
  0
BLOCK
  5
27A8
330
279E
100
AcDbEntity
  8
0
100
AcDbBlockBegin
  2
*D30
 70
     1
 10
0.0
 20
0.0
 30
0.0
  3
*D30
  1

  0
LINE
  5
290C
330
279E
100
AcDbEntity
  8
AM_5
100
AcDbLine
 10
2501.476583508879
 20
288.0125204969318
 30
0.0
 11
2551.976583508878
 21
288.0125204969318
 31
0.0
  0
LINE
  5
290D
330
279E
100
AcDbEntity
  8
AM_5
100
AcDbLine
 10
2501.476583508879
 20
256.0125204969318
 30
0.0
 11
2551.976583508878
 21
256.0125204969318
 31
0.0
  0
LINE
  5
290E
330
279E
100
AcDbEntity
  8
AM_5
100
AcDbLine
 10
2550.476583508878
 20
285.0125204969318
 30
0.0
 11
2550.476583508878
 21
259.0125204969318
 31
0.0
  0
SOLID
  5
290F
330
279E
100
AcDbEntity
  8
AM_5
100
AcDbTrace
 10
2549.976583508879
 20
285.0125204969318
 30
0.0
 11
2550.976583508879
 21
285.0125204969318
 31
0.0
 12
2550.476583508878
 22
288.0125204969318
 32
0.0
 13
2550.476583508878
 23
288.0125204969318
 33
0.0
  0
SOLID
  5
2910
330
279E
100
AcDbEntity
  8
AM_5
100
AcDbTrace
 10
2549.976583508879
 20
259.0125204969318
 30
0.0
 11
2550.976583508879
 21
259.0125204969318
 31
0.0
 12
2550.476583508878
 22
256.0125204969318
 32
0.0
 13
2550.476583508878
 23
256.0125204969318
 33
0.0
  0
MTEXT
  5
2911
330
279E
100
AcDbEntity
  8
AM_5
100
AcDbMText
 10
2547.976583508879
 20
272.0125204969322
 30
0.0
 40
3.0
 41
0.0
 71
     5
 72
     1
  1
32
  7
CHINESET
 11
0.0000000000000001
 21
1.0
 31
0.0
 73
     1
 44
1.0
1001
ACAD
1000
MTEXTBEGIN
1070
    73
1070
     1
1070
    44
1040
1.0
1070
    74
1070
     0
1000
MTEXTEND
  0
POINT
  5
2912
330
279E
100
AcDbEntity
  8
Defpoints
 62
     0
100
AcDbPoint
 10
2500.476583508878
 20
288.0125204969318
 30
0.0
  0
POINT
  5
2913
330
279E
100
AcDbEntity
  8
Defpoints
 62
     0
100
AcDbPoint
 10
2500.476583508878
 20
256.0125204969318
 30
0.0
  0
POINT
  5
2914
330
279E
100
AcDbEntity
  8
Defpoints
 62
     0
100
AcDbPoint
 10
2550.476583508878
 20
256.0125204969318
 30
0.0
  0
ENDBLK
  5
27A9
330
279E
100
AcDbEntity
  8
0
100
AcDbBlockEnd
  0
BLOCK
  5
2822
330
2818
100
AcDbEntity
  8
0
100
AcDbBlockBegin
  2
*D31
 70
     1
 10
0.0
 20
0.0
 30
0.0
  3
*D31
  1

  0
LINE
  5
28D2
330
2818
100
AcDbEntity
  8
AM_5
100
AcDbLine
 10
2526.476583508879
 20
314.3475948163555
 30
0.0
 11
2551.976583508878
 21
314.3475948163555
 31
0.0
  0
LINE
  5
28D3
330
2818
100
AcDbEntity
  8
AM_5
100
AcDbLine
 10
2526.476583508879
 20
402.3475948163555
 30
0.0
 11
2551.976583508878
 21
402.3475948163555
 31
0.0
  0
LINE
  5
28D4
330
2818
100
AcDbEntity
  8
AM_5
100
AcDbLine
 10
2550.476583508878
 20
317.3475948163555
 30
0.0
 11
2550.476583508878
 21
399.3475948163555
 31
0.0
  0
SOLID
  5
28D5
330
2818
100
AcDbEntity
  8
AM_5
100
AcDbTrace
 10
2549.976583508879
 20
317.3475948163555
 30
0.0
 11
2550.976583508879
 21
317.3475948163555
 31
0.0
 12
2550.476583508878
 22
314.3475948163555
 32
0.0
 13
2550.476583508878
 23
314.3475948163555
 33
0.0
  0
SOLID
  5
28D6
330
2818
100
AcDbEntity
  8
AM_5
100
AcDbTrace
 10
2549.976583508879
 20
399.3475948163555
 30
0.0
 11
2550.976583508879
 21
399.3475948163555
 31
0.0
 12
2550.476583508878
 22
402.3475948163555
 32
0.0
 13
2550.476583508878
 23
402.3475948163555
 33
0.0
  0
MTEXT
  5
28D7
330
2818
100
AcDbEntity
  8
AM_5
100
AcDbMText
 10
2547.976583508879
 20
358.3475948163559
 30
0.0
 40
3.0
 41
0.0
 71
     5
 72
     1
  1
88
  7
CHINESET
 11
0.0000000000000001
 21
1.0
 31
0.0
 73
     1
 44
1.0
1001
ACAD
1000
MTEXTBEGIN
1070
    73
1070
     1
1070
    44
1040
1.0
1070
    74
1070
     0
1000
MTEXTEND
  0
POINT
  5
28D8
330
2818
100
AcDbEntity
  8
Defpoints
 62
     0
100
AcDbPoint
 10
2525.476583508878
 20
314.3475948163555
 30
0.0
  0
POINT
  5
28D9
330
2818
100
AcDbEntity
  8
Defpoints
 62
     0
100
AcDbPoint
 10
2525.476583508878
 20
402.3475948163555
 30
0.0
  0
POINT
  5
28DA
330
2818
100
AcDbEntity
  8
Defpoints
 62
     0
100
AcDbPoint
 10
2550.476583508878
 20
402.3475948163555
 30
0.0
  0
ENDBLK
  5
2823
330
2818
100
AcDbEntity
  8
0
100
AcDbBlockEnd
  0
BLOCK
  5
282E
330
2824
100
AcDbEntity
  8
0
100
AcDbBlockBegin
  2
*D32
 70
     1
 10
0.0
 20
0.0
 30
0.0
  3
*D32
  1

  0
LINE
  5
28DB
330
2824
100
AcDbEntity
  8
AM_5
100
AcDbLine
 10
2527.726583508878
 20
323.3475948163555
 30
0.0
 11
2541.976583508879
 21
323.3475948163555
 31
0.0
  0
LINE
  5
28DC
330
2824
100
AcDbEntity
  8
AM_5
100
AcDbLine
 10
2527.726583508878
 20
393.3475948163555
 30
0.0
 11
2541.976583508879
 21
393.3475948163555
 31
0.0
  0
LINE
  5
28DD
330
2824
100
AcDbEntity
  8
AM_5
100
AcDbLine
 10
2540.476583508878
 20
326.3475948163555
 30
0.0
 11
2540.476583508878
 21
390.3475948163555
 31
0.0
  0
SOLID
  5
28DE
330
2824
100
AcDbEntity
  8
AM_5
100
AcDbTrace
 10
2539.976583508878
 20
326.3475948163555
 30
0.0
 11
2540.976583508879
 21
326.3475948163555
 31
0.0
 12
2540.476583508878
 22
323.3475948163555
 32
0.0
 13
2540.476583508878
 23
323.3475948163555
 33
0.0
  0
SOLID
  5
28DF
330
2824
100
AcDbEntity
  8
AM_5
100
AcDbTrace
 10
2539.976583508878
 20
390.3475948163555
 30
0.0
 11
2540.976583508879
 21
390.3475948163555
 31
0.0
 12
2540.476583508878
 22
393.3475948163555
 32
0.0
 13
2540.476583508878
 23
393.3475948163555
 33
0.0
  0
MTEXT
  5
28E0
330
2824
100
AcDbEntity
  8
AM_5
100
AcDbMText
 10
2537.976583508879
 20
358.3475948163559
 30
0.0
 40
3.0
 41
0.0
 71
     5
 72
     1
  1
70
  7
CHINESET
 11
0.0000000000000001
 21
1.0
 31
0.0
 73
     1
 44
1.0
1001
ACAD
1000
MTEXTBEGIN
1070
    73
1070
     1
1070
    44
1040
1.0
1070
    74
1070
     0
1000
MTEXTEND
  0
POINT
  5
28E1
330
2824
100
AcDbEntity
  8
Defpoints
 62
     0
100
AcDbPoint
 10
2526.726583508879
 20
323.3475948163555
 30
0.0
  0
POINT
  5
28E2
330
2824
100
AcDbEntity
  8
Defpoints
 62
     0
100
AcDbPoint
 10
2526.726583508879
 20
393.3475948163555
 30
0.0
  0
POINT
  5
28E3
330
2824
100
AcDbEntity
  8
Defpoints
 62
     0
100
AcDbPoint
 10
2540.476583508878
 20
393.3475948163555
 30
0.0
  0
ENDBLK
  5
282F
330
2824
100
AcDbEntity
  8
0
100
AcDbBlockEnd
  0
BLOCK
  5
29B7
330
29AE
100
AcDbEntity
  8
0
100
AcDbBlockBegin
  2
*D33
 70
     1
 10
0.0
 20
0.0
 30
0.0
  3
*D33
  1

  0
LINE
  5
2A50
330
29AE
100
AcDbEntity
  8
AM_5
100
AcDbLine
 10
2128.892916671616
 20
738.561290051617
 30
0.0
 11
2126.246602473164
 21
743.9260788843216
 31
0.0
  0
LINE
  5
2A51
330
29AE
100
AcDbEntity
  8
AM_5
100
AcDbLine
 10
2126.246602473164
 20
743.9260788843216
 30
0.0
 11
2113.568031044593
 21
743.9260788843218
 31
0.0
  0
SOLID
  5
2A52
330
29AE
100
AcDbEntity
  8
AM_5
100
AcDbTrace
 10
2129.341330058717
 20
738.7824809968839
 30
0.0
 11
2128.444503284514
 21
738.3400991063502
 31
0.0
 12
2130.220062343217
 22
735.8708097290072
 32
0.0
 13
2130.220062343217
 23
735.8708097290072
 33
0.0
  0
MTEXT
  5
2A53
330
29AE
100
AcDbEntity
  8
AM_5
100
AcDbMText
 10
2119.407316758879
 20
746.4260788843219
 30
0.0
 40
3.0
 41
0.0
 71
     5
 72
     1
  1
4-\U+22056.5
  7
CHINESET
 73
     1
 44
1.0
1001
ACAD
1000
MTEXTBEGIN
1070
    73
1070
     1
1070
    44
1040
1.0
1070
    74
1070
     0
1000
MTEXTEND
  0
POINT
  5
2A54
330
29AE
100
AcDbEntity
  8
Defpoints
 62
     0
100
AcDbPoint
 10
2130.220062343217
 20
735.8708097290072
 30
0.0
  0
POINT
  5
2A55
330
29AE
100
AcDbEntity
  8
Defpoints
 62
     0
100
AcDbPoint
 10
2133.095544631686
 20
730.0414356966853
 30
0.0
  0
ENDBLK
  5
29B8
330
29AE
100
AcDbEntity
  8
0
100
AcDbBlockEnd
  0
BLOCK
  5
29DD
330
29D4
100
AcDbEntity
  8
0
100
AcDbBlockBegin
  2
*D34
 70
     1
 10
0.0
 20
0.0
 30
0.0
  3
*D34
  1

  0
LINE
  5
2A9B
330
29D4
100
AcDbEntity
  8
AM_5
100
AcDbLine
 10
2503.119094265917
 20
737.2277226581582
 30
0.0
 11
2498.645324422998
 21
744.2519967965509
 31
0.0
  0
LINE
  5
2A9C
330
29D4
100
AcDbEntity
  8
AM_5
100
AcDbLine
 10
2498.645324422998
 20
744.2519967965509
 30
0.0
 11
2485.966752994427
 21
744.2519967965507
 31
0.0
  0
SOLID
  5
2A9D
330
29D4
100
AcDbEntity
  8
AM_5
100
AcDbTrace
 10
2503.540822261542
 20
737.4963217975946
 30
0.0
 11
2502.697366270292
 21
736.959123518721
 31
0.0
 12
2504.730689102538
 22
734.6973546844086
 32
0.0
 13
2504.730689102538
 23
734.6973546844086
 33
0.0
  0
MTEXT
  5
2A9E
330
29D4
100
AcDbEntity
  8
AM_5
100
AcDbMText
 10
2491.806038708712
 20
746.7519967965508
 30
0.0
 40
3.0
 41
0.0
 71
     5
 72
     1
  1
4-\U+22056.5
  7
CHINESET
 73
     1
 44
1.0
1001
ACAD
1000
MTEXTBEGIN
1070
    73
1070
     1
1070
    44
1040
1.0
1070
    74
1070
     0
1000
MTEXTEND
  0
POINT
  5
2A9F
330
29D4
100
AcDbEntity
  8
Defpoints
 62
     0
100
AcDbPoint
 10
2504.730689102538
 20
734.6973546844086
 30
0.0
  0
POINT
  5
2AA0
330
29D4
100
AcDbEntity
  8
Defpoints
 62
     0
100
AcDbPoint
 10
2508.222477915217
 20
729.2148907412853
 30
0.0
  0
ENDBLK
  5
29DE
330
29D4
100
AcDbEntity
  8
0
100
AcDbBlockEnd
  0
BLOCK
  5
29FA
330
29F4
100
AcDbEntity
  8
0
100
AcDbBlockBegin
  2
*D35
 70
     1
 10
0.0
 20
0.0
 30
0.0
  3
*D35
  1

  0
LINE
  5
2AA8
330
29F4
100
AcDbEntity
  8
AM_5
100
AcDbLine
 10
2857.416355956813
 20
739.1367198349116
 30
0.0
 11
2852.657896625856
 21
746.8970189666273
 31
0.0
  0
LINE
  5
2AA9
330
29F4
100
AcDbEntity
  8
AM_5
100
AcDbLine
 10
2852.657896625856
 20
746.8970189666273
 30
0.0
 11
2839.979325197284
 21
746.8970189666273
 31
0.0
  0
SOLID
  5
2AAA
330
29F4
100
AcDbEntity
  8
AM_5
100
AcDbTrace
 10
2857.842604034197
 20
739.3980865820824
 30
0.0
 11
2856.990107879429
 21
738.8753530877407
 31
0.0
 12
2858.984556439838
 22
736.5792313706091
 32
0.0
 13
2858.984556439838
 23
736.5792313706091
 33
0.0
  0
MTEXT
  5
2AAB
330
29F4
100
AcDbEntity
  8
AM_5
100
AcDbMText
 10
2845.818610911569
 20
749.3970189666272
 30
0.0
 40
3.0
 41
0.0
 71
     5
 72
     1
  1
4-\U+22058.5
  7
CHINESET
 73
     1
 44
1.0
1001
ACAD
1000
MTEXTBEGIN
1070
    73
1070
     1
1070
    44
1040
1.0
1070
    74
1070
     0
1000
MTEXTEND
  0
POINT
  5
2AAC
330
29F4
100
AcDbEntity
  8
Defpoints
 62
     0
100
AcDbPoint
 10
2858.984556439838
 20
736.5792313706091
 30
0.0
  0
POINT
  5
2AAD
330
29F4
100
AcDbEntity
  8
Defpoints
 62
     0
100
AcDbPoint
 10
2863.427791141742
 20
729.3330140550852
 30
0.0
  0
ENDBLK
  5
29FB
330
29F4
100
AcDbEntity
  8
0
100
AcDbBlockEnd
  0
BLOCK
  5
2A1A
330
2A11
100
AcDbEntity
  8
0
100
AcDbBlockBegin
  2
*D36
 70
     1
 10
0.0
 20
0.0
 30
0.0
  3
*D36
  1

  0
LINE
  5
2AC8
330
2A11
100
AcDbEntity
  8
AM_5
100
AcDbLine
 10
2136.984968667658
 20
379.0206091159055
 30
0.0
 11
2132.168469144124
 21
388.9165282913337
 31
0.0
  0
LINE
  5
2AC9
330
2A11
100
AcDbEntity
  8
AM_5
100
AcDbLine
 10
2132.168469144124
 20
388.9165282913337
 30
0.0
 11
2119.489897715553
 21
388.9165282913337
 31
0.0
  0
SOLID
  5
2ACA
330
2A11
100
AcDbEntity
  8
AM_5
100
AcDbTrace
 10
2137.434545661106
 20
379.2394253103741
 30
0.0
 11
2136.535391674209
 21
378.8017929214368
 31
0.0
 12
2138.29786583447
 22
376.3231471552141
 32
0.0
 13
2138.29786583447
 23
376.3231471552141
 33
0.0
  0
MTEXT
  5
2ACB
330
2A11
100
AcDbEntity
  8
AM_5
100
AcDbMText
 10
2125.329183429839
 20
391.4165282913342
 30
0.0
 40
3.0
 41
0.0
 71
     5
 72
     1
  1
4-\U+22058.5
  7
CHINESET
 73
     1
 44
1.0
1001
ACAD
1000
MTEXTBEGIN
1070
    73
1070
     1
1070
    44
1040
1.0
1070
    74
1070
     0
1000
MTEXTEND
  0
POINT
  5
2ACC
330
2A11
100
AcDbEntity
  8
Defpoints
 62
     0
100
AcDbPoint
 10
2138.29786583447
 20
376.3231471552141
 30
0.0
  0
POINT
  5
2ACD
330
2A11
100
AcDbEntity
  8
Defpoints
 62
     0
100
AcDbPoint
 10
2142.017741140437
 20
368.6803382665877
 30
0.0
  0
ENDBLK
  5
2A1B
330
2A11
100
AcDbEntity
  8
0
100
AcDbBlockEnd
  0
BLOCK
  5
2A3A
330
2A31
100
AcDbEntity
  8
0
100
AcDbBlockBegin
  2
*D37
 70
     1
 10
0.0
 20
0.0
 30
0.0
  3
*D37
  1

  0
LINE
  5
2A75
330
2A31
100
AcDbEntity
  8
AM_5
100
AcDbLine
 10
2515.604686129193
 20
400.6325732433094
 30
0.0
 11
2509.348103273428
 21
412.4043395535015
 31
0.0
  0
LINE
  5
2A76
330
2A31
100
AcDbEntity
  8
AM_5
100
AcDbLine
 10
2509.348103273428
 20
412.4043395535015
 30
0.0
 11
2494.955246130571
 21
412.4043395535015
 31
0.0
  0
SOLID
  5
2A77
330
2A31
100
AcDbEntity
  8
AM_5
100
AcDbTrace
 10
2516.046199973251
 20
400.8672336905631
 30
0.0
 11
2515.163172285135
 21
400.3979127960558
 31
0.0
 12
2517.012648812715
 22
397.9834901789625
 32
0.0
 13
2517.012648812715
 23
397.9834901789625
 33
0.0
  0
MTEXT
  5
2A78
330
2A31
100
AcDbEntity
  8
AM_5
100
AcDbMText
 10
2501.651674702
 20
414.9043395535019
 30
0.0
 40
3.0
 41
0.0
 71
     5
 72
     1
  1
4-\U+220510.5
  7
CHINESET
 73
     1
 44
1.0
1001
ACAD
1000
MTEXTBEGIN
1070
    73
1070
     1
1070
    44
1040
1.0
1070
    74
1070
     0
1000
MTEXTEND
  0
POINT
  5
2A79
330
2A31
100
AcDbEntity
  8
Defpoints
 62
     0
100
AcDbPoint
 10
2517.012648812715
 20
397.9834901789625
 30
0.0
  0
POINT
  5
2A7A
330
2A31
100
AcDbEntity
  8
Defpoints
 62
     0
100
AcDbPoint
 10
2521.940518205041
 20
388.7116994537489
 30
0.0
  0
ENDBLK
  5
2A3B
330
2A31
100
AcDbEntity
  8
0
100
AcDbBlockEnd
  0
ENDSEC
  0
SECTION
  2
ENTITIES
  0
TEXT
  5
1728
330
1F
100
AcDbEntity
  8
LOGO
 62
     7
100
AcDbText
 10
2113.293317906104
 20
70.05363340389862
 30
0.0
 40
10.6651221719457
  1
Order example:
 41
0.8
  7
CHINESET
100
AcDbText
  0
TEXT
  5
1729
330
1F
100
AcDbEntity
  8
LOGO
 62
     7
100
AcDbText
 10
2115.206729020723
 20
85.06791718027557
 30
0.0
 40
15.99768325791855
  1
訂購代號:
  7
CHINESET
100
AcDbText
  0
LINE
  5
172A
330
1F
100
AcDbEntity
  8
LOGO
 62
     1
100
AcDbLine
 10
3032.684770311274
 20
105.0951974611587
 30
0.0
 11
1932.684770311274
 21
105.0951974611587
 31
0.0
  0
LINE
  5
172B
330
1F
100
AcDbEntity
  8
LOGO
 62
     1
100
AcDbLine
 10
2108.659286148379
 20
25.10678117156544
 30
0.0
 11
2108.659286148379
 21
105.0951974611587
 31
0.0
  0
TEXT
  5
172C
330
1F
100
AcDbEntity
  8
LOGO
  6
Continuous
 62
     5
100
AcDbText
 10
1961.416968997384
 20
40.82038483861083
 30
0.0
 40
11.99826244343891
  1
金器工業股份有限公司
  7
CHINESET
100
AcDbText
  0
TEXT
  5
172D
330
1F
100
AcDbEntity
  8
LOGO
  6
Continuous
 62
     5
100
AcDbText
 10
1939.378534627951
 20
28.81977167643322
 30
0.0
 40
7.998841628959275
  1
MINDMAN INDUSTRIAL CO., LTD.
 41
0.85
  7
CHINESET
100
AcDbText
  0
LINE
  5
172E
330
1F
100
AcDbEntity
  8
LOGO
 62
     1
100
AcDbLine
 10
2108.659286148379
 20
89.09751420324004
 30
0.0
 11
1991.342942256975
 21
89.09751420324004
 31
0.0
  0
LINE
  5
172F
330
1F
100
AcDbEntity
  8
LOGO
 62
     1
100
AcDbLine
 10
2108.659286148379
 20
73.0998309453214
 30
0.0
 11
1991.342942256975
 21
73.0998309453214
 31
0.0
  0
LINE
  5
1730
330
1F
100
AcDbEntity
  8
LOGO
 62
     1
100
AcDbLine
 10
2108.659286148379
 20
57.10214768740366
 30
0.0
 11
1932.684770311274
 21
57.10214768740366
 31
0.0
  0
LINE
  5
1731
330
1F
100
AcDbEntity
  8
LOGO
 62
     1
100
AcDbLine
 10
1991.342942256975
 20
57.10214768740366
 30
0.0
 11
1991.342942256975
 21
105.0951974611587
 31
0.0
  0
TEXT
  5
1732
330
1F
100
AcDbEntity
  8
LOGO
 62
     6
100
AcDbText
 10
2067.333256634968
 20
61.10156850188198
 30
0.0
 40
7.998841628959275
  1
m/m
  7
CHINESET
 72
     1
 11
2081.426453790753
 21
65.10098931636162
 31
0.0
100
AcDbText
 73
     2
  0
TEXT
  5
1733
330
1F
100
AcDbEntity
  8
LOGO
 62
     6
100
AcDbText
 10
2067.333256634968
 20
93.0969350177193
 30
0.0
 40
7.998841628959275
  1
1 : 1
  7
CHINESET
 72
     1
 11
2081.426453790753
 21
97.09635583219892
 31
0.0
100
AcDbText
 73
     2
  0
LINE
  5
1734
330
1F
100
AcDbEntity
  8
LOGO
 62
     1
100
AcDbLine
 10
2055.33367528865
 20
57.10214768740366
 30
0.0
 11
2055.33367528865
 21
105.0951974611587
 31
0.0
  0
CIRCLE
  5
1735
330
1F
100
AcDbEntity
  8
LOGO
  6
Continuous
 62
     6
100
AcDbCircle
 10
2070.144531043963
 20
81.11578215505938
 30
0.0
 40
4.644315721282525
  0
CIRCLE
  5
1736
330
1F
100
AcDbEntity
  8
LOGO
  6
Continuous
 62
     6
100
AcDbCircle
 10
2070.144531043963
 20
81.11578215505938
 30
0.0
 40
2.721157874662388
  0
LINE
  5
1737
330
1F
100
AcDbEntity
  8
LOGO
 62
     6
100
AcDbLine
 10
2099.329949940109
 20
76.47146643377595
 30
0.0
 11
2099.329949940109
 21
85.7600978763428
 31
0.0
  0
LINE
  5
1738
330
1F
100
AcDbEntity
  8
LOGO
 62
     6
100
AcDbLine
 10
2084.770286750332
 20
78.39462428039746
 30
0.0
 11
2084.770286750332
 21
83.8369400297222
 31
0.0
  0
LINE
  5
1739
330
1F
100
AcDbEntity
  8
LOGO
  6
Continuous
 62
     6
100
AcDbLine
 10
2084.770286750332
 20
83.8369400297222
 30
0.0
 11
2099.329949940109
 21
85.7600978763428
 31
0.0
  0
LINE
  5
173A
330
1F
100
AcDbEntity
  8
LOGO
  6
Continuous
 62
     6
100
AcDbLine
 10
2084.770286750332
 20
78.39462428039746
 30
0.0
 11
2099.329949940109
 21
76.47146643377595
 31
0.0
  0
TEXT
  5
173B
330
1F
100
AcDbEntity
  8
LOGO
 62
     6
100
AcDbText
 10
1997.938415689425
 20
93.10087145552882
 30
524.2309030401992
 40
7.998841628959275
  1
比例 Scale:
 41
0.9
  7
CHINESET
 72
     4
 11
2023.338308772812
 21
97.09635583219892
 31
524.2309030401992
100
AcDbText
  0
TEXT
  5
173C
330
1F
100
AcDbEntity
  8
LOGO
 62
     6
100
AcDbText
 10
1997.477768113472
 20
77.2117682738563
 30
524.2309030401992
 40
7.998841628959275
  1
投影  View:
 41
0.9
  7
CHINESET
 72
     4
 11
2023.338308772812
 21
81.09867257428026
 31
524.2309030401992
100
AcDbText
  0
TEXT
  5
173D
330
1F
100
AcDbEntity
  8
LOGO
 62
     6
100
AcDbText
 10
1998.25979771916
 20
61.10156850188198
 30
524.2309030401992
 40
7.998841628959275
  1
單位  Unit:
 41
0.9
  7
CHINESET
 72
     4
 11
2023.338308772812
 21
65.10098931636162
 31
524.2309030401992
100
AcDbText
  0
LWPOLYLINE
  5
173E
330
1F
100
AcDbEntity
  8
0
 62
     4
100
AcDbPolyline
 90
        4
 70
     1
 43
0.0
 10
1932.684770311274
 20
105.0951974611587
 10
3032.684770311274
 20
105.0951974611587
 10
3032.684770311274
 20
825.1067811715641
 10
1932.684770311274
 20
825.1067811715641
1001
GENIUS_GENREC_14
1002
{
1000
PYDIR
1011
1932.684770311274
1021
825.1067811715641
1031
0.0
1002
}
1002
{
1000
PXDIR
1011
3032.684770311274
1021
105.0951974611587
1031
0.0
1002
}
1002
{
1000
PORI
1011
1932.684770311274
1021
105.0951974611587
1031
0.0
1002
}
1002
{
1000
PINS
1011
1932.684770311274
1021
105.0951974611587
1031
0.0
1002
}
1002
{
1000
PINS2
1011
3032.684770311274
1021
825.1067811715641
1031
0.0
1002
}
1002
{
1000
C
1070
     1
1002
}
1001
GENIUS_GENODEF_13
1002
{
1000
HIER
1070
     0
1002
}
1002
{
1000
MANEDIT
1070
     0
1002
}
1002
{
1000
NOSEL
1070
     0
1002
}
1002
{
1000
BEHIND
1070
     0
1002
}
1002
{
1000
OTHER
1070
     0
1002
}
1002
{
1000
REACTOR
1002
}
1001
GENIUS_GENOBJ-N-REC_13
1002
{
1000
OWNER
1000
GEN
1002
}
  0
SOLID
  5
173F
330
1F
100
AcDbEntity
  8
LOGO
 62
     5
100
AcDbTrace
 10
1940.983696872963
 20
70.39908335009727
 30
0.0
 11
1944.442186103721
 21
70.39908335009636
 31
0.0
 12
1958.872434273433
 22
103.1951019176274
 32
0.0
 13
1962.330923504192
 23
103.1951019176256
 33
0.0
  0
SOLID
  5
1740
330
1F
100
AcDbEntity
  8
LOGO
 62
     5
100
AcDbTrace
 10
1945.873285095762
 20
70.39908335009727
 30
0.0
 11
1949.33177432652
 21
70.39908335009727
 31
0.0
 12
1962.330923504192
 22
100.5714204322237
 32
0.0
 13
1958.872434273433
 23
87.89029325277875
 33
0.0
  0
SOLID
  5
1741
330
1F
100
AcDbEntity
  8
LOGO
 62
     2
100
AcDbTrace
 10
1944.442186103721
 20
70.39908335009636
 30
0.0
 11
1945.873285095762
 21
70.39908335009727
 31
0.0
 12
1962.330923504192
 22
103.1951019176256
 32
0.0
 13
1963.762022496232
 23
103.1951019176256
 33
0.0
  0
SOLID
  5
1742
330
1F
100
AcDbEntity
  8
LOGO
 62
     5
100
AcDbTrace
 10
1935.43889051061
 20
58.47325841645101
 30
0.0
 11
1936.631473003975
 21
58.47325841645101
 31
0.0
 12
1939.989878128494
 22
64.43617088327369
 32
0.0
 13
1941.182460621856
 23
64.43617088327369
 33
0.0
  0
SOLID
  5
1743
330
1F
100
AcDbEntity
  8
LOGO
 62
     5
100
AcDbTrace
 10
1939.989878128494
 20
64.43617088327369
 30
0.0
 11
1941.182460621856
 21
64.43617088327369
 31
0.0
 12
1939.989878128494
 22
58.47325841645101
 32
0.0
 13
1941.182460621856
 23
58.47325841645101
 33
0.0
  0
SOLID
  5
1744
330
1F
100
AcDbEntity
  8
LOGO
 62
     5
100
AcDbTrace
 10
1939.989878128494
 20
58.47325841645101
 30
0.0
 11
1941.182460621856
 21
58.47325841645101
 31
0.0
 12
1944.540865746379
 22
64.43617088327369
 32
0.0
 13
1945.733448239744
 23
64.43617088327369
 33
0.0
  0
SOLID
  5
1745
330
1F
100
AcDbEntity
  8
LOGO
 62
     5
100
AcDbTrace
 10
1944.540865746379
 20
64.43617088327369
 30
0.0
 11
1945.733448239744
 21
64.43617088327369
 31
0.0
 12
1944.540865746379
 22
58.47325841645101
 32
0.0
 13
1945.733448239744
 23
58.47325841645101
 33
0.0
  0
POLYLINE
  5
1746
330
1F
100
AcDbEntity
  8
LOGO
 62
     5
100
AcDb2dPolyline
 66
     1
 10
0.0
 20
0.0
 30
0.0
 40
1.194493683257918
 41
1.194493683257918
  0
VERTEX
  5
1747
330
1746
100
AcDbEntity
  8
LOGO
 62
     5
100
AcDbVertex
100
AcDb2dVertex
 10
1984.515824665617
 20
62.05100589654444
 30
0.0
 42
1.0
  0
VERTEX
  5
1748
330
1746
100
AcDbEntity
  8
LOGO
 62
     5
100
AcDbVertex
100
AcDb2dVertex
 10
1980.932343615843
 20
62.05100589654444
 30
0.0
 42
1.0
  0
SEQEND
  5
1749
330
1746
100
AcDbEntity
  8
LOGO
 62
     5
  0
POLYLINE
  5
174A
330
1F
100
AcDbEntity
  8
LOGO
 62
     5
100
AcDb2dPolyline
 66
     1
 10
0.0
 20
0.0
 30
0.0
 70
     1
  0
VERTEX
  5
174B
330
174A
100
AcDbEntity
  8
LOGO
 62
     5
100
AcDbVertex
100
AcDb2dVertex
 10
1974.17732244378
 20
61.45471464986144
 30
0.0
 42
1.000000057330635
  0
VERTEX
  5
174C
330
174A
100
AcDbEntity
  8
LOGO
 62
     5
100
AcDbVertex
100
AcDb2dVertex
 10
1977.755069923874
 20
61.45471464986144
 30
0.0
 42
1.000000057330635
  0
SEQEND
  5
174D
330
174A
100
AcDbEntity
  8
LOGO
 62
     5
  0
CIRCLE
  5
174E
330
1F
100
AcDbEntity
  8
LOGO
 62
     5
100
AcDbCircle
 10
1975.96619618383
 20
61.45471464986144
 30
0.0
 40
1.788873740047058
  0
POLYLINE
  5
174F
330
1F
100
AcDbEntity
  8
LOGO
 62
     5
100
AcDb2dPolyline
 66
     1
 10
0.0
 20
0.0
 30
0.0
 70
     1
 40
1.194493683257918
 41
1.194493683257918
  0
VERTEX
  5
1750
330
174F
100
AcDbEntity
  8
LOGO
 62
     5
100
AcDbVertex
100
AcDb2dVertex
 10
1973.577208817312
 20
61.45471464986144
 30
0.0
 42
1.0
  0
VERTEX
  5
1751
330
174F
100
AcDbEntity
  8
LOGO
 62
     5
100
AcDbVertex
100
AcDb2dVertex
 10
1978.355183550344
 20
61.45471464986144
 30
0.0
 42
1.0
  0
SEQEND
  5
1752
330
174F
100
AcDbEntity
  8
LOGO
 62
     5
  0
LINE
  5
1753
330
1F
100
AcDbEntity
  8
LOGO
 62
     5
100
AcDbLine
 10
1985.109249127457
 20
58.47325841645101
 30
0.0
 11
1985.109249127457
 21
62.05100589654444
 31
0.0
  0
SOLID
  5
1754
330
1F
100
AcDbEntity
  8
LOGO
 62
     5
100
AcDbTrace
 10
1977.75495066563
 20
64.43617088327369
 30
0.0
 11
1978.947533158993
 21
64.43617088327369
 31
0.0
 12
1977.75495066563
 22
58.47325841645101
 32
0.0
 13
1978.947533158993
 23
58.47325841645101
 33
0.0
  0
SOLID
  5
1755
330
1F
100
AcDbEntity
  8
LOGO
 62
     5
100
AcDbTrace
 10
1980.338919153999
 20
58.47325841645101
 30
0.0
 11
1981.531501647365
 21
58.47325841645101
 31
0.0
 12
1980.338919153999
 22
64.43617088327369
 32
0.0
 13
1981.531501647365
 23
64.43617088327369
 33
0.0
  0
SOLID
  5
1756
330
1F
100
AcDbEntity
  8
LOGO
 62
     5
100
AcDbTrace
 10
1983.916666634095
 20
62.05100589654444
 30
0.0
 11
1985.109249127457
 21
62.05100589654444
 31
0.0
 12
1983.916666634095
 22
58.47325841645101
 32
0.0
 13
1985.109249127457
 23
58.47325841645101
 33
0.0
  0
SOLID
  5
1757
330
1F
100
AcDbEntity
  8
LOGO
 62
     5
100
AcDbTrace
 10
1980.219660904662
 20
100.5714204322237
 30
0.0
 11
1976.761171673906
 21
87.89029325277875
 31
0.0
 12
1980.219660904662
 22
70.39908335009636
 32
0.0
 13
1976.761171673906
 23
70.39908335009636
 33
0.0
  0
SOLID
  5
1758
330
1F
100
AcDbEntity
  8
LOGO
 62
     5
100
AcDbTrace
 10
1981.650759896702
 20
70.39908335009636
 30
0.0
 11
1985.109249127457
 21
70.39908335009636
 31
0.0
 12
1981.650759896702
 22
103.1951019176256
 32
0.0
 13
1985.109249127457
 23
103.1951019176274
 33
0.0
  0
SOLID
  5
1759
330
1F
100
AcDbEntity
  8
LOGO
 62
     2
100
AcDbTrace
 10
1980.219660904662
 20
103.1951019176274
 30
0.0
 11
1981.650759896702
 21
103.1951019176256
 31
0.0
 12
1980.219660904662
 22
70.39908335009636
 32
0.0
 13
1981.650759896702
 23
70.39908335009636
 33
0.0
  0
POLYLINE
  5
175A
330
1F
100
AcDbEntity
  8
LOGO
 62
     5
100
AcDb2dPolyline
 66
     1
 10
0.0
 20
0.0
 30
0.0
 40
1.194493683257918
 41
1.194493683257918
  0
VERTEX
  5
175B
330
175A
100
AcDbEntity
  8
LOGO
 62
     5
100
AcDbVertex
100
AcDb2dVertex
 10
1967.422062755224
 20
62.05100589654444
 30
0.0
 42
1.0
  0
VERTEX
  5
175C
330
175A
100
AcDbEntity
  8
LOGO
 62
     5
100
AcDbVertex
100
AcDb2dVertex
 10
1963.838581705449
 20
62.05100589654444
 30
0.0
 42
1.0
  0
SEQEND
  5
175D
330
175A
100
AcDbEntity
  8
LOGO
 62
     5
  0
POLYLINE
  5
175E
330
1F
100
AcDbEntity
  8
LOGO
 62
     5
100
AcDb2dPolyline
 66
     1
 10
0.0
 20
0.0
 30
0.0
 40
1.194493683257918
 41
1.194493683257918
  0
VERTEX
  5
175F
330
175E
100
AcDbEntity
  8
LOGO
 62
     5
100
AcDbVertex
100
AcDb2dVertex
 10
1970.999810235315
 20
62.05100589654444
 30
0.0
 42
1.0
  0
VERTEX
  5
1760
330
175E
100
AcDbEntity
  8
LOGO
 62
     5
100
AcDbVertex
100
AcDb2dVertex
 10
1967.416329185542
 20
62.05100589654444
 30
0.0
 42
1.0
  0
SEQEND
  5
1761
330
175E
100
AcDbEntity
  8
LOGO
 62
     5
  0
POLYLINE
  5
1762
330
1F
100
AcDbEntity
  8
LOGO
 62
     5
100
AcDb2dPolyline
 66
     1
 10
0.0
 20
0.0
 30
0.0
 40
1.194493683257918
 41
1.194493683257918
  0
VERTEX
  5
1763
330
1762
100
AcDbEntity
  8
LOGO
 62
     5
100
AcDbVertex
100
AcDb2dVertex
 10
1953.906048324921
 20
62.05100589654444
 30
0.0
 42
1.0
  0
VERTEX
  5
1764
330
1762
100
AcDbEntity
  8
LOGO
 62
     5
100
AcDbVertex
100
AcDb2dVertex
 10
1950.322567275149
 20
62.05100589654444
 30
0.0
 42
1.0
  0
SEQEND
  5
1765
330
1762
100
AcDbEntity
  8
LOGO
 62
     5
  0
SOLID
  5
1766
330
1F
100
AcDbEntity
  8
LOGO
 62
     5
100
AcDbTrace
 10
1949.729142813307
 20
64.43617088327369
 30
0.0
 11
1950.921725306669
 21
64.43617088327369
 31
0.0
 12
1949.729142813307
 22
58.47325841645101
 32
0.0
 13
1950.921725306669
 23
58.47325841645101
 33
0.0
  0
SOLID
  5
1767
330
1F
100
AcDbEntity
  8
LOGO
 62
     5
100
AcDbTrace
 10
1953.306890293401
 20
62.05100589654444
 30
0.0
 11
1954.499472786767
 21
62.05100589654444
 31
0.0
 12
1953.306890293401
 22
58.47325841645101
 32
0.0
 13
1954.499472786767
 23
58.47325841645101
 33
0.0
  0
POLYLINE
  5
1768
330
1F
100
AcDbEntity
  8
LOGO
 62
     5
100
AcDb2dPolyline
 66
     1
 10
0.0
 20
0.0
 30
0.0
 70
     1
 40
1.194493683257918
 41
1.194493683257918
  0
VERTEX
  5
1769
330
1768
100
AcDbEntity
  8
LOGO
 62
     5
100
AcDbVertex
100
AcDb2dVertex
 10
1956.483446906917
 20
61.45471464986144
 30
0.0
 42
1.0
  0
VERTEX
  5
176A
330
1768
100
AcDbEntity
  8
LOGO
 62
     5
100
AcDbVertex
100
AcDb2dVertex
 10
1961.261421639951
 20
61.45471464986144
 30
0.0
 42
1.0
  0
SEQEND
  5
176B
330
1768
100
AcDbEntity
  8
LOGO
 62
     5
  0
SOLID
  5
176C
330
1F
100
AcDbEntity
  8
LOGO
 62
     5
100
AcDbTrace
 10
1960.661188755233
 20
66.22504462332177
 30
0.0
 11
1961.853771248598
 21
66.22504462332177
 31
0.0
 12
1960.661188755233
 22
58.47325841645101
 32
0.0
 13
1961.853771248598
 23
58.47325841645101
 33
0.0
  0
SOLID
  5
176D
330
1F
100
AcDbEntity
  8
LOGO
 62
     5
100
AcDbTrace
 10
1963.245157243609
 20
64.43617088327369
 30
0.0
 11
1964.437739736971
 21
64.43617088327369
 31
0.0
 12
1963.245157243609
 22
58.47325841645101
 32
0.0
 13
1964.437739736971
 23
58.47325841645101
 33
0.0
  0
SOLID
  5
176E
330
1F
100
AcDbEntity
  8
LOGO
 62
     5
100
AcDbTrace
 10
1966.8229047237
 20
62.05100589654444
 30
0.0
 11
1968.015487217066
 21
62.05100589654444
 31
0.0
 12
1966.8229047237
 22
58.47325841645101
 32
0.0
 13
1968.015487217066
 23
58.47325841645101
 33
0.0
  0
SOLID
  5
176F
330
1F
100
AcDbEntity
  8
LOGO
 62
     5
100
AcDbTrace
 10
1970.400652203794
 20
62.05100589654444
 30
0.0
 11
1971.593234697158
 21
62.05100589654444
 31
0.0
 12
1970.400652203794
 22
58.4732584164492
 32
0.0
 13
1971.593234697158
 23
58.4732584164492
 33
0.0
  0
SOLID
  5
1770
330
1F
100
AcDbEntity
  8
LOGO
 62
     5
100
AcDbTrace
 10
1947.145174324933
 20
65.27097862862934
 30
0.0
 11
1948.3377568183
 21
65.27097862862934
 31
0.0
 12
1947.145174324933
 22
66.22504462332177
 32
0.0
 13
1948.3377568183
 23
66.22504462332177
 33
0.0
  0
SOLID
  5
1771
330
1F
100
AcDbEntity
  8
LOGO
 62
     5
100
AcDbTrace
 10
1947.145174324933
 20
64.43617088327369
 30
0.0
 11
1948.3377568183
 21
64.43617088327369
 31
0.0
 12
1947.145174324933
 22
58.4732584164492
 32
0.0
 13
1948.3377568183
 23
58.47325841645101
 33
0.0
  0
SOLID
  5
1772
330
1F
100
AcDbEntity
  8
LOGO
 62
     5
100
AcDbTrace
 10
1958.872434273433
 20
70.39908335009727
 30
0.0
 11
1962.330923504192
 21
70.39908335009727
 31
0.0
 12
1958.872434273433
 22
87.89029325277875
 32
0.0
 13
1962.330923504192
 23
100.5714204322237
 33
0.0
  0
SOLID
  5
1773
330
1F
100
AcDbEntity
  8
LOGO
 62
     5
100
AcDbTrace
 10
1963.762022496232
 20
103.1951019176256
 30
0.0
 11
1967.220511726988
 21
103.1951019176274
 31
0.0
 12
1963.762022496232
 22
73.02276483549917
 32
0.0
 13
1967.220511726988
 23
85.70389201494412
 33
0.0
  0
SOLID
  5
1774
330
1F
100
AcDbEntity
  8
LOGO
 62
     2
100
AcDbTrace
 10
1962.330923504192
 20
103.1951019176256
 30
0.0
 11
1963.762022496232
 21
103.1951019176256
 31
0.0
 12
1962.330923504192
 22
70.39908335009727
 32
0.0
 13
1963.762022496232
 23
70.39908335009727
 33
0.0
  0
SOLID
  5
1775
330
1F
100
AcDbEntity
  8
LOGO
 62
     5
100
AcDbTrace
 10
1963.762022496232
 20
73.02276483549917
 30
0.0
 11
1967.220511726988
 21
85.70389201494412
 31
0.0
 12
1980.219660904662
 22
103.1951019176274
 32
0.0
 13
1976.761171673906
 23
103.1951019176274
 33
0.0
  0
SOLID
  5
1776
330
1F
100
AcDbEntity
  8
LOGO
 62
     5
100
AcDbTrace
 10
1963.762022496232
 20
70.39908335009727
 30
0.0
 11
1967.220511726988
 21
70.39908335009727
 31
0.0
 12
1980.219660904662
 22
100.5714204322237
 32
0.0
 13
1976.761171673906
 23
87.89029325277875
 33
0.0
  0
SOLID
  5
1777
330
1F
100
AcDbEntity
  8
LOGO
 62
     2
100
AcDbTrace
 10
1962.330923504192
 20
70.39908335009727
 30
0.0
 11
1963.762022496232
 21
70.39908335009727
 31
0.0
 12
1980.219660904662
 22
103.1951019176274
 32
0.0
 13
1981.650759896702
 23
103.1951019176256
 33
0.0
  0
LWPOLYLINE
  5
1778
330
1F
100
AcDbEntity
  8
0
 62
     1
100
AcDbPolyline
 90
        4
 70
     1
 43
0.0
 10
1932.684770311274
 20
105.0951974611587
 10
3032.684770311274
 20
105.0951974611587
 10
3032.684770311274
 20
25.10678117156454
 10
1932.684770311274
 20
25.10678117156454
1001
GENIUS_GENREC_14
1002
{
1000
PYDIR
1011
1932.684770311274
1021
25.10678117156454
1031
0.0
1002
}
1002
{
1000
PXDIR
1011
3032.684770311274
1021
105.0951974611587
1031
0.0
1002
}
1002
{
1000
PORI
1011
1932.684770311274
1021
105.0951974611587
1031
0.0
1002
}
1002
{
1000
PINS
1011
1932.684770311274
1021
105.0951974611587
1031
0.0
1002
}
1002
{
1000
PINS2
1011
3032.684770311274
1021
25.10678117156454
1031
0.0
1002
}
1002
{
1000
C
1070
     1
1002
}
1001
GENIUS_GENOBJ-N-REC_13
1002
{
1000
OWNER
1000
GEN
1002
}
1001
GENIUS_GENODEF_13
1002
{
1000
HIER
1070
     0
1002
}
1002
{
1000
MANEDIT
1070
     0
1002
}
1002
{
1000
NOSEL
1070
     0
1002
}
1002
{
1000
BEHIND
1070
     0
1002
}
1002
{
1000
OTHER
1070
     0
1002
}
1002
{
1000
REACTOR
1002
}
  0
LINE
  5
1779
330
1F
100
AcDbEntity
  8
LOGO
 62
     6
100
AcDbLine
 10
2253.438076531225
 20
61.10156850188355
 30
0.0
 11
2253.438076531225
 21
31.77248252903132
 31
0.0
  0
LINE
  5
177A
330
1F
100
AcDbEntity
  8
LOGO
 62
     6
100
AcDbLine
 10
2218.679802688579
 20
61.10156850188355
 30
0.0
 11
2218.679802688579
 21
31.77248252903132
 31
0.0
  0
LINE
  5
177B
330
1F
100
AcDbEntity
  8
LOGO
 62
     6
100
AcDbLine
 10
2253.438076531225
 20
31.77248252903132
 30
0.0
 11
2218.679802688579
 21
31.77248252903132
 31
0.0
  0
LINE
  5
177C
330
1F
100
AcDbEntity
  8
LOGO
 62
     6
100
AcDbLine
 10
2265.830911889745
 20
97.09635583219892
 30
0.0
 11
2218.679802688579
 21
97.09635583219892
 31
0.0
  0
LINE
  5
177D
330
1F
100
AcDbEntity
  8
LOGO
 62
     6
100
AcDbLine
 10
2265.830911889745
 20
73.0998309453214
 30
0.0
 11
2218.679802688579
 21
73.0998309453214
 31
0.0
  0
LINE
  5
177E
330
1F
100
AcDbEntity
  8
LOGO
 62
     6
100
AcDbLine
 10
2218.679802688579
 20
97.09635583219892
 30
0.0
 11
2218.679802688579
 21
73.0998309453214
 31
0.0
  0
LINE
  5
177F
330
1F
100
AcDbEntity
  8
LOGO
 62
     6
100
AcDbLine
 10
2265.830911889745
 20
97.09635583219892
 30
0.0
 11
2265.830911889745
 21
73.0998309453214
 31
0.0
  0
LINE
  5
1780
330
1F
100
AcDbEntity
  8
LOGO
 62
     6
100
AcDbLine
 10
2239.567918878742
 20
73.0998309453214
 30
0.0
 11
2239.567918878742
 21
61.10156850188355
 31
0.0
  0
TEXT
  5
1781
330
1F
100
AcDbEntity
  8
LOGO
  6
Continuous
 62
     7
100
AcDbText
 10
2222.943609341699
 20
78.10907043254132
 30
0.0
 40
14.0
  1
MHS
  7
CHINESET
100
AcDbText
  0
LINE
  5
1782
330
1F
100
AcDbEntity
  8
LOGO
 62
     6
100
AcDbLine
 10
2253.438076531225
 20
61.10156850188355
 30
0.0
 11
2218.679802688579
 21
61.10156850188355
 31
0.0
  0
TEXT
  5
1783
330
1F
100
AcDbEntity
  8
LOGO
  6
Continuous
 62
     6
100
AcDbText
 10
2225.889250528475
 20
35.91222082032778
 30
524.2309030401992
 40
6.0
  1
Model
 41
0.8
  7
CHINESET
100
AcDbText
  0
TEXT
  5
1784
330
1F
100
AcDbEntity
  8
LOGO
 62
     6
100
AcDbText
 10
2224.292245576478
 20
47.03492772803724
 30
524.2309030401992
 40
10.0
  1
型號
  7
CHINESET
100
AcDbText
  0
LINE
  5
1791
330
1F
100
AcDbEntity
  8
LOGO
 62
     6
100
AcDbLine
 10
2384.499242307764
 20
61.10156850188355
 30
0.0
 11
2384.499242307764
 21
31.77248252903132
 31
0.0
  0
LINE
  5
1792
330
1F
100
AcDbEntity
  8
LOGO
 62
     6
100
AcDbLine
 10
2331.173631448035
 20
61.10156850188355
 30
0.0
 11
2331.173631448035
 21
31.77248252903132
 31
0.0
  0
LINE
  5
1793
330
1F
100
AcDbEntity
  8
LOGO
 62
     6
100
AcDbLine
 10
2384.499242307764
 20
31.77248252903132
 30
0.0
 11
2331.173631448035
 21
31.77248252903132
 31
0.0
  0
LINE
  5
1794
330
1F
100
AcDbEntity
  8
LOGO
 62
     6
100
AcDbLine
 10
2340.102731210327
 20
97.09635583219892
 30
0.0
 11
2306.541744148793
 21
97.09635583219892
 31
0.0
  0
LINE
  5
1795
330
1F
100
AcDbEntity
  8
LOGO
 62
     6
100
AcDbLine
 10
2340.102731210327
 20
73.0998309453214
 30
0.0
 11
2306.541744148793
 21
73.0998309453214
 31
0.0
  0
LINE
  5
1796
330
1F
100
AcDbEntity
  8
LOGO
 62
     6
100
AcDbLine
 10
2306.541744148793
 20
97.09635583219892
 30
0.0
 11
2306.541744148793
 21
73.0998309453214
 31
0.0
  0
LINE
  5
1797
330
1F
100
AcDbEntity
  8
LOGO
 62
     6
100
AcDbLine
 10
2340.102731210327
 20
97.09635583219892
 30
0.0
 11
2340.102731210327
 21
73.0998309453214
 31
0.0
  0
TEXT
  5
1799
330
1F
100
AcDbEntity
  8
LOGO
  6
Continuous
 62
     7
100
AcDbText
 10
2311.798796680275
 20
78.10907043254132
 30
0.0
 40
14.0
  1
40
  7
CHINESET
100
AcDbText
  0
LINE
  5
179A
330
1F
100
AcDbEntity
  8
LOGO
 62
     6
100
AcDbLine
 10
2384.499242307764
 20
61.10156850188355
 30
0.0
 11
2331.173631448035
 21
61.10156850188355
 31
0.0
  0
TEXT
  5
17A8
330
1F
100
AcDbEntity
  8
LOGO
  6
Continuous
 62
     6
100
AcDbText
 10
2343.908860042409
 20
35.91222082032778
 30
524.2309030401992
 40
6.0
  1
Tube I.D.
 41
0.8
  7
CHINESET
100
AcDbText
  0
TEXT
  5
17A9
330
1F
100
AcDbEntity
  8
LOGO
 62
     6
100
AcDbText
 10
2346.328124686312
 20
47.03492772803724
 30
524.2309030401992
 40
10.0
  1
內徑
  7
CHINESET
100
AcDbText
  0
TEXT
  5
17B8
330
1F
100
AcDbEntity
  8
0
100
AcDbText
 10
2112.232095179996
 20
29.36213334725085
 30
0.0
 40
8.0
  1
10512264
 41
0.7
  7
CHINESET
 72
     1
 11
2131.832095179996
 21
29.36213334725085
 31
0.0
100
AcDbText
  0
LINE
  5
17B9
330
1F
100
AcDbEntity
  8
LOGO
 62
     1
100
AcDbLine
 10
2156.659286148375
 20
41.10446442948592
 30
0.0
 11
2156.659286148379
 21
25.10678117156635
 31
0.0
  0
LINE
  5
17BA
330
1F
100
AcDbEntity
  8
LOGO
 62
     1
100
AcDbLine
 10
2156.659286148375
 20
41.10446442948592
 30
0.0
 11
2108.659286148379
 21
41.10446442948592
 31
0.0
  0
LINE
  5
17BB
330
1F
100
AcDbEntity
  8
0
 62
     4
100
AcDbLine
 10
1932.684770311274
 20
465.1009893163614
 30
0.0
 11
3032.684770311274
 21
465.1009893163614
 31
0.0
  0
LINE
  5
198A
330
1F
100
AcDbEntity
  8
0
 62
     4
100
AcDbLine
 10
2298.684770311274
 20
825.1067811715641
 30
0.0
 11
2298.684770311274
 21
105.0951974611587
 31
0.0
  0
LINE
  5
198B
330
1F
100
AcDbEntity
  8
0
 62
     4
100
AcDbLine
 10
2664.684770311275
 20
825.1067811715641
 30
0.0
 11
2664.684770311275
 21
105.0951974611587
 31
0.0
  0
TEXT
  5
1A89
330
1F
100
AcDbEntity
  8
0
100
AcDbText
 10
1950.690524132943
 20
795.8336520981234
 30
0.0
 40
12.0
  1
%%c25
 41
0.75
  7
CHINESET
100
AcDbText
  0
TEXT
  5
1A8B
330
1F
100
AcDbEntity
  8
0
100
AcDbText
 10
2316.690524132943
 20
795.8336520981234
 30
0.0
 40
12.0
  1
%%c32
 41
0.75
  7
CHINESET
100
AcDbText
  0
TEXT
  5
1A8C
330
1F
100
AcDbEntity
  8
0
100
AcDbText
 10
2682.690524132943
 20
795.8336520981234
 30
0.0
 40
12.0
  1
%%c40
 41
0.75
  7
CHINESET
100
AcDbText
  0
TEXT
  5
1A8D
330
1F
100
AcDbEntity
  8
0
100
AcDbText
 10
1950.690524132943
 20
435.8278602429207
 30
0.0
 40
12.0
  1
%%c50
 41
0.75
  7
CHINESET
100
AcDbText
  0
TEXT
  5
1A8E
330
1F
100
AcDbEntity
  8
0
100
AcDbText
 10
2316.690524132943
 20
435.8278602429207
 30
0.0
 40
12.0
  1
%%c63
 41
0.75
  7
CHINESET
100
AcDbText
  0
LINE
  5
1A96
330
1F
100
AcDbEntity
  8
LOGO
 62
     6
100
AcDbLine
 10
2325.701762585913
 20
61.10156850188355
 30
0.0
 11
2325.701762585913
 21
31.77248252903132
 31
0.0
  0
LINE
  5
1A97
330
1F
100
AcDbEntity
  8
LOGO
 62
     6
100
AcDbLine
 10
2259.791624617458
 20
61.10156850188355
 30
0.0
 11
2259.791624617458
 21
31.77248252903132
 31
0.0
  0
LINE
  5
1A98
330
1F
100
AcDbEntity
  8
LOGO
 62
     6
100
AcDbLine
 10
2325.701762585913
 20
31.77248252903132
 30
0.0
 11
2259.791624617458
 21
31.77248252903132
 31
0.0
  0
LINE
  5
1A99
330
1F
100
AcDbEntity
  8
LOGO
 62
     6
100
AcDbLine
 10
2287.865466829118
 20
97.09635583219892
 30
0.0
 11
2271.043187950929
 21
97.09635583219892
 31
0.0
  0
LINE
  5
1A9A
330
1F
100
AcDbEntity
  8
LOGO
 62
     6
100
AcDbLine
 10
2287.865466829118
 20
73.0998309453214
 30
0.0
 11
2271.043187950929
 21
73.0998309453214
 31
0.0
  0
LINE
  5
1A9B
330
1F
100
AcDbEntity
  8
LOGO
 62
     6
100
AcDbLine
 10
2271.043187950929
 20
97.09635583219892
 30
0.0
 11
2271.043187950929
 21
73.0998309453214
 31
0.0
  0
LINE
  5
1A9C
330
1F
100
AcDbEntity
  8
LOGO
 62
     6
100
AcDbLine
 10
2287.865466829118
 20
97.09635583219892
 30
0.0
 11
2287.865466829118
 21
73.0998309453214
 31
0.0
  0
LINE
  5
1A9D
330
1F
100
AcDbEntity
  8
LOGO
 62
     6
100
AcDbLine
 10
2280.269028050499
 20
73.0998309453214
 30
0.0
 11
2280.269028050499
 21
61.10156850188355
 31
0.0
  0
TEXT
  5
1A9E
330
1F
100
AcDbEntity
  8
LOGO
  6
Continuous
 62
     7
100
AcDbText
 10
2276.032214502213
 20
78.10907043254132
 30
0.0
 40
14.0
  1
*
  7
CHINESET
100
AcDbText
  0
LINE
  5
1A9F
330
1F
100
AcDbEntity
  8
LOGO
 62
     6
100
AcDbLine
 10
2325.701762585913
 20
61.10156850188355
 30
0.0
 11
2259.791624617458
 21
61.10156850188355
 31
0.0
  0
TEXT
  5
1AA0
330
1F
100
AcDbEntity
  8
LOGO
  6
Continuous
 62
     6
100
AcDbText
 10
2265.144334813762
 20
35.91222082032778
 30
524.2309030401992
 40
6.0
  1
Swivel direction
 41
0.8
  7
CHINESET
100
AcDbText
  0
TEXT
  5
1AA1
330
1F
100
AcDbEntity
  8
LOGO
 62
     6
100
AcDbText
 10
2271.898273766908
 20
47.03492772803724
 30
524.2309030401992
 40
10.0
  1
旋轉方向
  7
CHINESET
100
AcDbText
  0
LINE
  5
1AA3
330
1F
100
AcDbEntity
  8
LOGO
  6
Continuous
 62
     7
100
AcDbLine
 10
2292.271191500926
 20
85.01309390526399
 30
0.0
 11
2302.867181296684
 21
85.01309390526399
 31
0.0
  0
TEXT
  5
1AA6
330
1F
100
AcDbEntity
  8
LOGO
  6
Continuous
 62
     7
100
AcDbText
 10
2346.424677376834
 20
78.10907043254132
 30
0.0
 40
14.0
  1
x
  7
CHINESET
100
AcDbText
  0
LINE
  5
1AA7
330
1F
100
AcDbEntity
  8
LOGO
 62
     6
100
AcDbLine
 10
2396.764912453841
 20
97.09635583219892
 30
0.0
 11
2358.827663593046
 21
97.09635583219892
 31
0.0
  0
LINE
  5
1AA8
330
1F
100
AcDbEntity
  8
LOGO
 62
     6
100
AcDbLine
 10
2396.764912453841
 20
73.0998309453214
 30
0.0
 11
2358.827663593046
 21
73.0998309453214
 31
0.0
  0
LINE
  5
1AA9
330
1F
100
AcDbEntity
  8
LOGO
 62
     6
100
AcDbLine
 10
2358.827663593046
 20
97.09635583219892
 30
0.0
 11
2358.827663593046
 21
73.0998309453214
 31
0.0
  0
LINE
  5
1AAA
330
1F
100
AcDbEntity
  8
LOGO
 62
     6
100
AcDbLine
 10
2396.764912453841
 20
97.09635583219892
 30
0.0
 11
2396.764912453841
 21
73.0998309453214
 31
0.0
  0
TEXT
  5
1AAB
330
1F
100
AcDbEntity
  8
LOGO
  6
Continuous
 62
     7
100
AcDbText
 10
2374.310030838648
 20
78.10907043254132
 30
0.0
 40
14.0
  1
*
  7
CHINESET
100
AcDbText
  0
LINE
  5
1AAC
330
1F
100
AcDbEntity
  8
LOGO
 62
     6
100
AcDbLine
 10
2438.903397885215
 20
61.10156850188355
 30
0.0
 11
2438.903397885215
 21
31.77248252903132
 31
0.0
  0
LINE
  5
1AAD
330
1F
100
AcDbEntity
  8
LOGO
 62
     6
100
AcDbLine
 10
2389.911313801174
 20
61.10156850188355
 30
0.0
 11
2389.911313801174
 21
31.77248252903132
 31
0.0
  0
LINE
  5
1AAE
330
1F
100
AcDbEntity
  8
LOGO
 62
     6
100
AcDbLine
 10
2438.903397885215
 20
31.77248252903132
 30
0.0
 11
2389.911313801174
 21
31.77248252903132
 31
0.0
  0
LINE
  5
1AAF
330
1F
100
AcDbEntity
  8
LOGO
 62
     6
100
AcDbLine
 10
2438.903397885215
 20
61.10156850188355
 30
0.0
 11
2389.911313801174
 21
61.10156850188355
 31
0.0
  0
TEXT
  5
1AB0
330
1F
100
AcDbEntity
  8
LOGO
  6
Continuous
 62
     6
100
AcDbText
 10
2402.292702325878
 20
35.91222082032778
 30
524.2309030401992
 40
6.0
  1
Angle
 41
0.8
  7
CHINESET
100
AcDbText
  0
TEXT
  5
1AB1
330
1F
100
AcDbEntity
  8
LOGO
 62
     6
100
AcDbText
 10
2394.685739553612
 20
47.03492772803724
 30
524.2309030401992
 40
10.0
  1
旋轉角度
  7
CHINESET
100
AcDbText
  0
LINE
  5
1AB7
330
1F
100
AcDbEntity
  8
LOGO
 62
     6
100
AcDbLine
 10
2377.796288023444
 20
73.09983094532142
 30
0.0
 11
2377.796288023443
 21
67.10069972360248
 31
0.0
  0
LINE
  5
1AB8
330
1F
100
AcDbEntity
  8
LOGO
 62
     6
100
AcDbLine
 10
2377.796288023444
 20
67.10069972360248
 30
0.0
 11
2414.407355843194
 21
67.10069972360248
 31
0.0
  0
LINE
  5
1AB9
330
1F
100
AcDbEntity
  8
LOGO
 62
     6
100
AcDbLine
 10
2414.407355843195
 20
61.10156850188355
 30
0.0
 11
2414.407355843194
 21
67.10069972360248
 31
0.0
  0
LINE
  5
1ABA
330
1F
100
AcDbEntity
  8
LOGO
 62
     6
100
AcDbLine
 10
2328.978918388493
 20
73.09983094532142
 30
0.0
 11
2328.978918388493
 21
67.10069972360248
 31
0.0
  0
LINE
  5
1ABB
330
1F
100
AcDbEntity
  8
LOGO
 62
     6
100
AcDbLine
 10
2328.978918388493
 20
67.10069972360248
 30
0.0
 11
2357.836436877899
 21
67.10069972360248
 31
0.0
  0
LINE
  5
1ABC
330
1F
100
AcDbEntity
  8
LOGO
 62
     6
100
AcDbLine
 10
2357.836436877899
 20
61.10156850188355
 30
0.0
 11
2357.836436877899
 21
67.10069972360248
 31
0.0
  0
CIRCLE
  5
1B52
330
1F
100
AcDbEntity
  8
0
100
AcDbCircle
 10
2091.657803487452
 20
692.9561227128467
 30
0.0
 40
3.25
  0
CIRCLE
  5
1B53
330
1F
100
AcDbEntity
  8
0
100
AcDbCircle
 10
2091.657803487452
 20
732.9561227128468
 30
0.0
 40
3.25
  0
CIRCLE
  5
1B54
330
1F
100
AcDbEntity
  8
0
100
AcDbCircle
 10
2131.657803487452
 20
692.9561227128467
 30
0.0
 40
3.25
  0
CIRCLE
  5
1B55
102
{ACAD_REACTORS
330
29BA
102
}
330
1F
100
AcDbEntity
  8
0
100
AcDbCircle
 10
2131.657803487452
 20
732.9561227128468
 30
0.0
 40
3.25
  0
LINE
  5
1B56
330
1F
100
AcDbEntity
  8
0
100
AcDbLine
 10
2052.657803487452
 20
725.4561227128467
 30
0.0
 11
2124.657803487452
 21
725.4561227128467
 31
0.0
  0
LINE
  5
1B57
330
1F
100
AcDbEntity
  8
0
100
AcDbLine
 10
2052.657803487452
 20
700.4561227128467
 30
0.0
 11
2124.657803487452
 21
700.4561227128467
 31
0.0
  0
LINE
  5
1B59
330
1F
100
AcDbEntity
  8
0
100
AcDbLine
 10
2051.657803487452
 20
701.4561227128467
 30
0.0
 11
2051.657803487452
 21
724.4561227128468
 31
0.0
  0
LINE
  5
1B5A
330
1F
100
AcDbEntity
  8
0
100
AcDbLine
 10
2052.657803487452
 20
700.4561227128467
 30
0.0
 11
2051.657803487452
 21
701.4561227128467
 31
0.0
  0
LINE
  5
1B5B
330
1F
100
AcDbEntity
  8
0
100
AcDbLine
 10
2051.657803487452
 20
724.4561227128468
 30
0.0
 11
2052.657803487452
 21
725.4561227128467
 31
0.0
  0
LINE
  5
1B5C
330
1F
100
AcDbEntity
  8
0
100
AcDbLine
 10
2086.657803487452
 20
725.4561227128467
 30
0.0
 11
2086.657803487452
 21
735.9561227128467
 31
0.0
  0
LINE
  5
1B5D
330
1F
100
AcDbEntity
  8
0
100
AcDbLine
 10
2086.657803487452
 20
735.9561227128467
 30
0.0
 11
2088.657803487452
 21
737.9561227128467
 31
0.0
  0
LINE
  5
1B5E
330
1F
100
AcDbEntity
  8
0
100
AcDbLine
 10
2088.657803487452
 20
737.9561227128467
 30
0.0
 11
2134.657803487452
 21
737.9561227128467
 31
0.0
  0
LINE
  5
1B5F
330
1F
100
AcDbEntity
  8
0
100
AcDbLine
 10
2134.657803487452
 20
737.9561227128467
 30
0.0
 11
2136.657803487452
 21
735.9561227128467
 31
0.0
  0
LINE
  5
1B60
330
1F
100
AcDbEntity
  8
0
100
AcDbLine
 10
2136.657803487452
 20
735.9561227128467
 30
0.0
 11
2136.657803487452
 21
689.9561227128467
 31
0.0
  0
LINE
  5
1B61
330
1F
100
AcDbEntity
  8
0
100
AcDbLine
 10
2136.657803487452
 20
689.9561227128467
 30
0.0
 11
2134.657803487452
 21
687.9561227128467
 31
0.0
  0
LINE
  5
1B62
330
1F
100
AcDbEntity
  8
0
100
AcDbLine
 10
2134.657803487452
 20
687.9561227128467
 30
0.0
 11
2088.657803487452
 21
687.9561227128467
 31
0.0
  0
LINE
  5
1B63
330
1F
100
AcDbEntity
  8
0
100
AcDbLine
 10
2086.657803487452
 20
689.9561227128467
 30
0.0
 11
2086.657803487452
 21
700.4561227128467
 31
0.0
  0
LINE
  5
1B64
330
1F
100
AcDbEntity
  8
0
100
AcDbLine
 10
2086.657803487452
 20
689.9561227128467
 30
0.0
 11
2088.657803487452
 21
687.9561227128467
 31
0.0
  0
LINE
  5
1B65
330
1F
100
AcDbEntity
  8
0
100
AcDbLine
 10
2087.157803487452
 20
508.9561227128467
 30
0.0
 11
2136.157803487452
 21
508.9561227128467
 31
0.0
  0
LINE
  5
1B66
330
1F
100
AcDbEntity
  8
0
100
AcDbLine
 10
2052.657803487452
 20
633.9561227128467
 30
0.0
 11
2124.657803487452
 21
633.9561227128467
 31
0.0
  0
LINE
  5
1B67
330
1F
100
AcDbEntity
  8
0
100
AcDbLine
 10
2087.157803487452
 20
531.9561227128467
 30
0.0
 11
2136.157803487452
 21
531.9561227128467
 31
0.0
  0
LINE
  5
1B68
330
1F
100
AcDbEntity
  8
0
100
AcDbLine
 10
2092.157803487452
 20
578.9561227128467
 30
0.0
 11
2131.157803487452
 21
578.9561227128467
 31
0.0
  0
LINE
  5
1B69
330
1F
100
AcDbEntity
  8
0
100
AcDbLine
 10
2136.157803487452
 20
508.9561227128467
 30
0.0
 11
2136.657803487452
 21
509.4561227128467
 31
0.0
  0
LINE
  5
1B6A
330
1F
100
AcDbEntity
  8
0
100
AcDbLine
 10
2136.657803487452
 20
531.4561227128467
 30
0.0
 11
2136.157803487452
 21
531.9561227128467
 31
0.0
  0
LINE
  5
1B6B
330
1F
100
AcDbEntity
  8
0
100
AcDbLine
 10
2087.157803487452
 20
531.9561227128467
 30
0.0
 11
2086.657803487452
 21
531.4561227128467
 31
0.0
  0
LINE
  5
1B6C
330
1F
100
AcDbEntity
  8
0
100
AcDbLine
 10
2086.657803487452
 20
509.4561227128467
 30
0.0
 11
2087.157803487452
 21
508.9561227128467
 31
0.0
  0
LINE
  5
1B6D
330
1F
100
AcDbEntity
  8
0
100
AcDbLine
 10
2052.657803487452
 20
608.9561227128467
 30
0.0
 11
2124.657803487452
 21
608.9561227128467
 31
0.0
  0
LINE
  5
1B6E
330
1F
100
AcDbEntity
  8
0
100
AcDbLine
 10
2121.657803487452
 20
608.9561227128467
 30
0.0
 11
2121.657803487452
 21
578.9561227128467
 31
0.0
  0
LINE
  5
1B6F
330
1F
100
AcDbEntity
  8
0
100
AcDbLine
 10
2101.657803487452
 20
608.9561227128467
 30
0.0
 11
2101.657803487452
 21
578.9561227128467
 31
0.0
  0
LINE
  5
1B70
330
1F
100
AcDbEntity
  8
0
100
AcDbLine
 10
2051.657803487452
 20
632.9561227128468
 30
0.0
 11
2051.657803487452
 21
609.9561227128467
 31
0.0
  0
LINE
  5
1B71
330
1F
100
AcDbEntity
  8
0
100
AcDbLine
 10
2134.157803487452
 20
575.9561227128467
 30
0.0
 11
2131.157803487452
 21
578.9561227128467
 31
0.0
  0
LINE
  5
1B72
330
1F
100
AcDbEntity
  8
0
100
AcDbLine
 10
2092.157803487452
 20
578.9561227128467
 30
0.0
 11
2089.157803487452
 21
575.9561227128467
 31
0.0
  0
LINE
  5
1B73
330
1F
100
AcDbEntity
  8
0
100
AcDbLine
 10
2052.657803487452
 20
608.9561227128467
 30
0.0
 11
2051.657803487452
 21
609.9561227128467
 31
0.0
  0
LINE
  5
1B74
330
1F
100
AcDbEntity
  8
AM_7
100
AcDbLine
 10
2061.657803487452
 20
605.3760558148066
 30
0.0
 11
2061.657803487452
 21
636.9113734103141
 31
0.0
  0
CIRCLE
  5
1B78
330
1F
100
AcDbEntity
  8
0
100
AcDbCircle
 10
2102.657803487452
 20
523.9561227128468
 30
0.0
 40
4.5
  0
CIRCLE
  5
1B79
330
1F
100
AcDbEntity
  8
0
100
AcDbCircle
 10
2102.657803487452
 20
523.9561227128468
 30
0.0
 40
4.0
  0
CIRCLE
  5
1B7A
330
1F
100
AcDbEntity
  8
0
100
AcDbCircle
 10
2111.657803487452
 20
568.9561227128467
 30
0.0
 40
4.0
  0
CIRCLE
  5
1B7B
330
1F
100
AcDbEntity
  8
0
100
AcDbCircle
 10
2111.657803487452
 20
568.9561227128467
 30
0.0
 40
4.5
  0
CIRCLE
  5
1B7C
330
1F
100
AcDbEntity
  8
0
100
AcDbCircle
 10
2061.657803487452
 20
712.9561227128467
 30
0.0
 40
5.0
  0
CIRCLE
  5
1B7D
330
1F
100
AcDbEntity
  8
0
100
AcDbCircle
 10
2061.657803487452
 20
712.9561227128467
 30
0.0
 40
4.5
  0
CIRCLE
  5
1B7E
330
1F
100
AcDbEntity
  8
0
100
AcDbCircle
 10
2111.657803487452
 20
712.9561227128467
 30
0.0
 40
8.5
  0
LINE
  5
1B81
330
1F
100
AcDbEntity
  8
0
100
AcDbLine
 10
2051.657803487452
 20
632.9561227128468
 30
0.0
 11
2052.657803487452
 21
633.9561227128467
 31
0.0
  0
LINE
  5
1B82
330
1F
100
AcDbEntity
  8
0
  6
HIDDEN
 62
     3
 48
0.5
100
AcDbLine
 10
2056.657803487452
 20
608.9561227128467
 30
0.0
 11
2056.657803487452
 21
633.9561227128467
 31
0.0
  0
LINE
  5
1B83
330
1F
100
AcDbEntity
  8
0
  6
HIDDEN
 62
     3
 48
0.5
100
AcDbLine
 10
2057.157803487452
 20
608.9561227128467
 30
0.0
 11
2057.157803487452
 21
633.9561227128467
 31
0.0
  0
LINE
  5
1B84
330
1F
100
AcDbEntity
  8
0
  6
HIDDEN
 62
     3
 48
0.5
100
AcDbLine
 10
2066.157803487452
 20
608.9561227128467
 30
0.0
 11
2066.157803487452
 21
633.9561227128467
 31
0.0
  0
LINE
  5
1B85
330
1F
100
AcDbEntity
  8
0
  6
HIDDEN
 62
     3
 48
0.5
100
AcDbLine
 10
2066.657803487452
 20
608.9561227128467
 30
0.0
 11
2066.657803487452
 21
633.9561227128467
 31
0.0
  0
LINE
  5
1B86
330
1F
100
AcDbEntity
  8
0
100
AcDbLine
 10
2086.657803487452
 20
531.4561227128467
 30
0.0
 11
2086.657803487452
 21
509.4561227128467
 31
0.0
  0
LINE
  5
1B87
330
1F
100
AcDbEntity
  8
0
100
AcDbLine
 10
2136.657803487452
 20
531.4561227128467
 30
0.0
 11
2136.657803487452
 21
509.4561227128467
 31
0.0
  0
ARC
  5
1B88
330
1F
100
AcDbEntity
  8
0
100
AcDbCircle
 10
2111.657803487452
 20
712.9561227128467
 30
0.0
 40
22.5
100
AcDbArc
 50
215.5487440028703
 51
144.4512559971297
  0
LINE
  5
1B89
330
1F
100
AcDbEntity
  8
0
100
AcDbLine
 10
2089.157803487452
 20
575.9561227128467
 30
0.0
 11
2089.157803487452
 21
531.9561227128467
 31
0.0
  0
LINE
  5
1B8A
330
1F
100
AcDbEntity
  8
0
100
AcDbLine
 10
2134.157803487452
 20
575.9561227128467
 30
0.0
 11
2134.157803487452
 21
531.9561227128467
 31
0.0
  0
LINE
  5
1B8B
330
1F
100
AcDbEntity
  8
0
100
AcDbLine
 10
2125.657803487452
 20
701.4561227128467
 30
0.0
 11
2125.657803487452
 21
724.4561227128468
 31
0.0
  0
LINE
  5
1B8C
330
1F
100
AcDbEntity
  8
0
100
AcDbLine
 10
2124.657803487452
 20
725.4561227128467
 30
0.0
 11
2125.657803487452
 21
724.4561227128468
 31
0.0
  0
LINE
  5
1B8D
330
1F
100
AcDbEntity
  8
0
100
AcDbLine
 10
2124.657803487452
 20
700.4561227128467
 30
0.0
 11
2125.657803487452
 21
701.4561227128467
 31
0.0
  0
LINE
  5
1B8E
330
1F
100
AcDbEntity
  8
0
100
AcDbLine
 10
2125.657803487452
 20
632.9561227128468
 30
0.0
 11
2125.657803487452
 21
609.9561227128467
 31
0.0
  0
LINE
  5
1B8F
330
1F
100
AcDbEntity
  8
0
100
AcDbLine
 10
2124.657803487452
 20
633.9561227128467
 30
0.0
 11
2125.657803487452
 21
632.9561227128468
 31
0.0
  0
LINE
  5
1B90
330
1F
100
AcDbEntity
  8
0
100
AcDbLine
 10
2125.657803487452
 20
609.9561227128467
 30
0.0
 11
2124.657803487452
 21
608.9561227128467
 31
0.0
  0
LINE
  5
1D10
330
1F
100
AcDbEntity
  8
AM_7
100
AcDbLine
 10
2111.657803487452
 20
712.9561227128467
 30
0.0
 11
2138.657803487452
 21
712.9561227128467
 31
0.0
1001
GENIUS_GENOREF_13
1005
1D14
  0
LINE
  5
1D11
330
1F
100
AcDbEntity
  8
AM_7
100
AcDbLine
 10
2111.657803487452
 20
712.9561227128467
 30
0.0
 11
2111.657803487452
 21
739.9561227128467
 31
0.0
1001
GENIUS_GENOREF_13
1005
1D14
  0
LINE
  5
1D12
330
1F
100
AcDbEntity
  8
AM_7
100
AcDbLine
 10
2111.657803487452
 20
712.9561227128467
 30
0.0
 11
2047.405923624034
 21
712.9561227128467
 31
0.0
1001
GENIUS_GENOREF_13
1005
1D14
  0
LINE
  5
1D13
330
1F
100
AcDbEntity
  8
AM_7
100
AcDbLine
 10
2111.657803487452
 20
712.9561227128467
 30
0.0
 11
2111.657803487452
 21
685.9561227128467
 31
0.0
1001
GENIUS_GENOREF_13
1005
1D14
  0
POINT
  5
1D14
330
1F
100
AcDbEntity
  8
0
 60
     1
100
AcDbPoint
 10
0.0
 20
0.0
 30
0.0
1001
GENIUS_GENODEF_13
1002
{
1000
HIER
1070
    10
1002
}
1002
{
1000
MANEDIT
1070
     0
1002
}
1002
{
1000
NOSEL
1070
     0
1002
}
1002
{
1000
BEHIND
1070
     0
1002
}
1002
{
1000
OTHER
1070
     0
1002
}
1002
{
1000
REACTOR
1002
}
1001
GENIUS_GENOLIS_13
1002
{
1000
ENT
1005
1D13
1005
1D12
1005
1D11
1005
1D10
1002
}
1001
GENIUS_GENOENT_13
1002
{
1000
MYREF
1005
1D14
1002
}
1002
{
1000
GRP
1005
0
1002
}
1001
GENIUS_GENOBJ-N-CRS_13
1002
{
1000
OWNER
1000
GEN
1002
}
  0
LINE
  5
1D22
330
1F
100
AcDbEntity
  8
AM_7
  6
AM_ISO08W050x2
100
AcDbLine
 10
2061.657803487452
 20
712.9561227128467
 30
0.0
 11
2068.657803487452
 21
712.9561227128467
 31
0.0
1001
GENIUS_GENOREF_13
1005
1D26
  0
LINE
  5
1D23
330
1F
100
AcDbEntity
  8
AM_7
  6
AM_ISO08W050x2
100
AcDbLine
 10
2061.657803487452
 20
712.9561227128467
 30
0.0
 11
2061.657803487452
 21
719.9561227128468
 31
0.0
1001
GENIUS_GENOREF_13
1005
1D26
  0
LINE
  5
1D24
330
1F
100
AcDbEntity
  8
AM_7
  6
AM_ISO08W050x2
100
AcDbLine
 10
2061.657803487452
 20
712.9561227128467
 30
0.0
 11
2054.657803487452
 21
712.9561227128467
 31
0.0
1001
GENIUS_GENOREF_13
1005
1D26
  0
LINE
  5
1D25
330
1F
100
AcDbEntity
  8
AM_7
  6
AM_ISO08W050x2
100
AcDbLine
 10
2061.657803487452
 20
712.9561227128467
 30
0.0
 11
2061.657803487452
 21
705.9561227128467
 31
0.0
1001
GENIUS_GENOREF_13
1005
1D26
  0
POINT
  5
1D26
330
1F
100
AcDbEntity
  8
0
 60
     1
100
AcDbPoint
 10
0.0
 20
0.0
 30
0.0
1001
GENIUS_GENOENT_13
1002
{
1000
MYREF
1005
1D26
1002
}
1002
{
1000
GRP
1005
0
1002
}
1001
GENIUS_GENOBJ-N-CRS_13
1002
{
1000
OWNER
1000
GEN
1002
}
1001
GENIUS_GENOLIS_13
1002
{
1000
ENT
1005
1D25
1005
1D24
1005
1D23
1005
1D22
1002
}
1001
GENIUS_GENODEF_13
1002
{
1000
HIER
1070
    10
1002
}
1002
{
1000
MANEDIT
1070
     0
1002
}
1002
{
1000
NOSEL
1070
     0
1002
}
1002
{
1000
BEHIND
1070
     0
1002
}
1002
{
1000
OTHER
1070
     0
1002
}
1002
{
1000
REACTOR
1002
}
  0
LINE
  5
1D33
330
1F
100
AcDbEntity
  8
AM_7
100
AcDbLine
 10
2111.657803487452
 20
504.4592275937986
 30
0.0
 11
2111.657803487452
 21
641.2103768460122
 31
0.0
1001
GENIUS_GENOBJ-N-CEN_13
1002
{
1000
OWNER
1000
GEN
1002
}
1001
GENIUS_GENODEF_13
1002
{
1000
HIER
1070
     0
1002
}
1002
{
1000
MANEDIT
1070
     0
1002
}
1002
{
1000
NOSEL
1070
     0
1002
}
1002
{
1000
BEHIND
1070
     0
1002
}
1002
{
1000
OTHER
1070
     0
1002
}
1002
{
1000
REACTOR
1002
}
1001
GENIUS_GENCEN_19
1002
{
1040
2.0
1002
}
  0
LINE
  5
1D5B
330
1F
100
AcDbEntity
  8
AM_7
  6
AM_ISO08W050x2
100
AcDbLine
 10
2111.657803487452
 20
568.9561227128467
 30
0.0
 11
2118.157803487452
 21
568.9561227128467
 31
0.0
1001
GENIUS_GENOREF_13
1005
1D5F
  0
LINE
  5
1D5C
330
1F
100
AcDbEntity
  8
AM_7
  6
AM_ISO08W050x2
100
AcDbLine
 10
2111.657803487452
 20
568.9561227128467
 30
0.0
 11
2111.657803487452
 21
575.4561227128467
 31
0.0
1001
GENIUS_GENOREF_13
1005
1D5F
  0
LINE
  5
1D5D
330
1F
100
AcDbEntity
  8
AM_7
  6
AM_ISO08W050x2
100
AcDbLine
 10
2111.657803487452
 20
568.9561227128467
 30
0.0
 11
2105.157803487452
 21
568.9561227128467
 31
0.0
1001
GENIUS_GENOREF_13
1005
1D5F
  0
LINE
  5
1D5E
330
1F
100
AcDbEntity
  8
AM_7
  6
AM_ISO08W050x2
100
AcDbLine
 10
2111.657803487452
 20
568.9561227128467
 30
0.0
 11
2111.657803487452
 21
562.4561227128467
 31
0.0
1001
GENIUS_GENOREF_13
1005
1D5F
  0
POINT
  5
1D5F
330
1F
100
AcDbEntity
  8
0
 60
     1
100
AcDbPoint
 10
0.0
 20
0.0
 30
0.0
1001
GENIUS_GENOLIS_13
1002
{
1000
ENT
1005
1D5E
1005
1D5D
1005
1D5C
1005
1D5B
1002
}
1001
GENIUS_GENOENT_13
1002
{
1000
MYREF
1005
1D5F
1002
}
1002
{
1000
GRP
1005
0
1002
}
1001
GENIUS_GENODEF_13
1002
{
1000
HIER
1070
    10
1002
}
1002
{
1000
MANEDIT
1070
     0
1002
}
1002
{
1000
NOSEL
1070
     0
1002
}
1002
{
1000
BEHIND
1070
     0
1002
}
1002
{
1000
OTHER
1070
     0
1002
}
1002
{
1000
REACTOR
1002
}
1001
GENIUS_GENOBJ-N-CRS_13
1002
{
1000
OWNER
1000
GEN
1002
}
  0
LINE
  5
1D6D
330
1F
100
AcDbEntity
  8
AM_7
  6
AM_ISO08W050x2
100
AcDbLine
 10
2102.657803487452
 20
523.9561227128468
 30
0.0
 11
2109.157803487452
 21
523.9561227128468
 31
0.0
1001
GENIUS_GENOREF_13
1005
1D71
  0
LINE
  5
1D6E
330
1F
100
AcDbEntity
  8
AM_7
  6
AM_ISO08W050x2
100
AcDbLine
 10
2102.657803487452
 20
523.9561227128468
 30
0.0
 11
2102.657803487452
 21
530.4561227128467
 31
0.0
1001
GENIUS_GENOREF_13
1005
1D71
  0
LINE
  5
1D6F
330
1F
100
AcDbEntity
  8
AM_7
  6
AM_ISO08W050x2
100
AcDbLine
 10
2102.657803487452
 20
523.9561227128468
 30
0.0
 11
2096.157803487452
 21
523.9561227128468
 31
0.0
1001
GENIUS_GENOREF_13
1005
1D71
  0
LINE
  5
1D70
330
1F
100
AcDbEntity
  8
AM_7
  6
AM_ISO08W050x2
100
AcDbLine
 10
2102.657803487452
 20
523.9561227128468
 30
0.0
 11
2102.657803487452
 21
517.4561227128467
 31
0.0
1001
GENIUS_GENOREF_13
1005
1D71
  0
POINT
  5
1D71
330
1F
100
AcDbEntity
  8
0
 60
     1
100
AcDbPoint
 10
0.0
 20
0.0
 30
0.0
1001
GENIUS_GENOLIS_13
1002
{
1000
ENT
1005
1D70
1005
1D6F
1005
1D6E
1005
1D6D
1002
}
1001
GENIUS_GENOENT_13
1002
{
1000
MYREF
1005
1D71
1002
}
1002
{
1000
GRP
1005
0
1002
}
1001
GENIUS_GENOBJ-N-CRS_13
1002
{
1000
OWNER
1000
GEN
1002
}
1001
GENIUS_GENODEF_13
1002
{
1000
HIER
1070
    10
1002
}
1002
{
1000
MANEDIT
1070
     0
1002
}
1002
{
1000
NOSEL
1070
     0
1002
}
1002
{
1000
BEHIND
1070
     0
1002
}
1002
{
1000
OTHER
1070
     0
1002
}
1002
{
1000
REACTOR
1002
}
  0
LINE
  5
1D80
330
1F
100
AcDbEntity
  8
AM_7
  6
AM_ISO08W050x2
100
AcDbLine
 10
2091.657803487452
 20
732.9561227128468
 30
0.0
 11
2096.907803487452
 21
732.9561227128468
 31
0.0
1001
GENIUS_GENOREF_13
1005
1D84
  0
LINE
  5
1D81
330
1F
100
AcDbEntity
  8
AM_7
  6
AM_ISO08W050x2
100
AcDbLine
 10
2091.657803487452
 20
732.9561227128468
 30
0.0
 11
2091.657803487452
 21
738.2061227128467
 31
0.0
1001
GENIUS_GENOREF_13
1005
1D84
  0
LINE
  5
1D82
330
1F
100
AcDbEntity
  8
AM_7
  6
AM_ISO08W050x2
100
AcDbLine
 10
2091.657803487452
 20
732.9561227128468
 30
0.0
 11
2086.407803487452
 21
732.9561227128468
 31
0.0
1001
GENIUS_GENOREF_13
1005
1D84
  0
LINE
  5
1D83
330
1F
100
AcDbEntity
  8
AM_7
  6
AM_ISO08W050x2
100
AcDbLine
 10
2091.657803487452
 20
732.9561227128468
 30
0.0
 11
2091.657803487452
 21
727.7061227128467
 31
0.0
1001
GENIUS_GENOREF_13
1005
1D84
  0
POINT
  5
1D84
330
1F
100
AcDbEntity
  8
0
 60
     1
100
AcDbPoint
 10
0.0
 20
0.0
 30
0.0
1001
GENIUS_GENOLIS_13
1002
{
1000
ENT
1005
1D83
1005
1D82
1005
1D81
1005
1D80
1002
}
1001
GENIUS_GENOENT_13
1002
{
1000
MYREF
1005
1D84
1002
}
1002
{
1000
GRP
1005
0
1002
}
1001
GENIUS_GENOBJ-N-CRS_13
1002
{
1000
OWNER
1000
GEN
1002
}
1001
GENIUS_GENODEF_13
1002
{
1000
HIER
1070
    10
1002
}
1002
{
1000
MANEDIT
1070
     0
1002
}
1002
{
1000
NOSEL
1070
     0
1002
}
1002
{
1000
BEHIND
1070
     0
1002
}
1002
{
1000
OTHER
1070
     0
1002
}
1002
{
1000
REACTOR
1002
}
  0
LINE
  5
1D92
330
1F
100
AcDbEntity
  8
AM_7
  6
AM_ISO08W050x2
100
AcDbLine
 10
2131.657803487452
 20
732.9561227128468
 30
0.0
 11
2136.907803487452
 21
732.9561227128468
 31
0.0
1001
GENIUS_GENOREF_13
1005
1D96
  0
LINE
  5
1D93
330
1F
100
AcDbEntity
  8
AM_7
  6
AM_ISO08W050x2
100
AcDbLine
 10
2131.657803487452
 20
732.9561227128468
 30
0.0
 11
2131.657803487452
 21
738.2061227128467
 31
0.0
1001
GENIUS_GENOREF_13
1005
1D96
  0
LINE
  5
1D94
330
1F
100
AcDbEntity
  8
AM_7
  6
AM_ISO08W050x2
100
AcDbLine
 10
2131.657803487452
 20
732.9561227128468
 30
0.0
 11
2126.407803487452
 21
732.9561227128468
 31
0.0
1001
GENIUS_GENOREF_13
1005
1D96
  0
LINE
  5
1D95
330
1F
100
AcDbEntity
  8
AM_7
  6
AM_ISO08W050x2
100
AcDbLine
 10
2131.657803487452
 20
732.9561227128468
 30
0.0
 11
2131.657803487452
 21
727.7061227128467
 31
0.0
1001
GENIUS_GENOREF_13
1005
1D96
  0
POINT
  5
1D96
330
1F
100
AcDbEntity
  8
0
 60
     1
100
AcDbPoint
 10
0.0
 20
0.0
 30
0.0
1001
GENIUS_GENODEF_13
1002
{
1000
HIER
1070
    10
1002
}
1002
{
1000
MANEDIT
1070
     0
1002
}
1002
{
1000
NOSEL
1070
     0
1002
}
1002
{
1000
BEHIND
1070
     0
1002
}
1002
{
1000
OTHER
1070
     0
1002
}
1002
{
1000
REACTOR
1002
}
1001
GENIUS_GENOENT_13
1002
{
1000
MYREF
1005
1D96
1002
}
1002
{
1000
GRP
1005
0
1002
}
1001
GENIUS_GENOBJ-N-CRS_13
1002
{
1000
OWNER
1000
GEN
1002
}
1001
GENIUS_GENOLIS_13
1002
{
1000
ENT
1005
1D95
1005
1D94
1005
1D93
1005
1D92
1002
}
  0
LINE
  5
1DA4
330
1F
100
AcDbEntity
  8
AM_7
  6
AM_ISO08W050x2
100
AcDbLine
 10
2131.657803487452
 20
692.9561227128467
 30
0.0
 11
2136.907803487452
 21
692.9561227128467
 31
0.0
1001
GENIUS_GENOREF_13
1005
1DA8
  0
LINE
  5
1DA5
330
1F
100
AcDbEntity
  8
AM_7
  6
AM_ISO08W050x2
100
AcDbLine
 10
2131.657803487452
 20
692.9561227128467
 30
0.0
 11
2131.657803487452
 21
698.2061227128467
 31
0.0
1001
GENIUS_GENOREF_13
1005
1DA8
  0
LINE
  5
1DA6
330
1F
100
AcDbEntity
  8
AM_7
  6
AM_ISO08W050x2
100
AcDbLine
 10
2131.657803487452
 20
692.9561227128467
 30
0.0
 11
2126.407803487452
 21
692.9561227128467
 31
0.0
1001
GENIUS_GENOREF_13
1005
1DA8
  0
LINE
  5
1DA7
330
1F
100
AcDbEntity
  8
AM_7
  6
AM_ISO08W050x2
100
AcDbLine
 10
2131.657803487452
 20
692.9561227128467
 30
0.0
 11
2131.657803487452
 21
687.7061227128467
 31
0.0
1001
GENIUS_GENOREF_13
1005
1DA8
  0
POINT
  5
1DA8
330
1F
100
AcDbEntity
  8
0
 60
     1
100
AcDbPoint
 10
0.0
 20
0.0
 30
0.0
1001
GENIUS_GENODEF_13
1002
{
1000
HIER
1070
    10
1002
}
1002
{
1000
MANEDIT
1070
     0
1002
}
1002
{
1000
NOSEL
1070
     0
1002
}
1002
{
1000
BEHIND
1070
     0
1002
}
1002
{
1000
OTHER
1070
     0
1002
}
1002
{
1000
REACTOR
1002
}
1001
GENIUS_GENOLIS_13
1002
{
1000
ENT
1005
1DA7
1005
1DA6
1005
1DA5
1005
1DA4
1002
}
1001
GENIUS_GENOENT_13
1002
{
1000
MYREF
1005
1DA8
1002
}
1002
{
1000
GRP
1005
0
1002
}
1001
GENIUS_GENOBJ-N-CRS_13
1002
{
1000
OWNER
1000
GEN
1002
}
  0
LINE
  5
1DB6
330
1F
100
AcDbEntity
  8
AM_7
  6
AM_ISO08W050x2
100
AcDbLine
 10
2091.657803487452
 20
692.9561227128467
 30
0.0
 11
2096.907803487452
 21
692.9561227128467
 31
0.0
1001
GENIUS_GENOREF_13
1005
1DBA
  0
LINE
  5
1DB7
330
1F
100
AcDbEntity
  8
AM_7
  6
AM_ISO08W050x2
100
AcDbLine
 10
2091.657803487452
 20
692.9561227128467
 30
0.0
 11
2091.657803487452
 21
698.2061227128467
 31
0.0
1001
GENIUS_GENOREF_13
1005
1DBA
  0
LINE
  5
1DB8
330
1F
100
AcDbEntity
  8
AM_7
  6
AM_ISO08W050x2
100
AcDbLine
 10
2091.657803487452
 20
692.9561227128467
 30
0.0
 11
2086.407803487452
 21
692.9561227128467
 31
0.0
1001
GENIUS_GENOREF_13
1005
1DBA
  0
LINE
  5
1DB9
330
1F
100
AcDbEntity
  8
AM_7
  6
AM_ISO08W050x2
100
AcDbLine
 10
2091.657803487452
 20
692.9561227128467
 30
0.0
 11
2091.657803487452
 21
687.7061227128467
 31
0.0
1001
GENIUS_GENOREF_13
1005
1DBA
  0
POINT
  5
1DBA
330
1F
100
AcDbEntity
  8
0
 60
     1
100
AcDbPoint
 10
0.0
 20
0.0
 30
0.0
1001
GENIUS_GENOLIS_13
1002
{
1000
ENT
1005
1DB9
1005
1DB8
1005
1DB7
1005
1DB6
1002
}
1001
GENIUS_GENOENT_13
1002
{
1000
MYREF
1005
1DBA
1002
}
1002
{
1000
GRP
1005
0
1002
}
1001
GENIUS_GENODEF_13
1002
{
1000
HIER
1070
    10
1002
}
1002
{
1000
MANEDIT
1070
     0
1002
}
1002
{
1000
NOSEL
1070
     0
1002
}
1002
{
1000
BEHIND
1070
     0
1002
}
1002
{
1000
OTHER
1070
     0
1002
}
1002
{
1000
REACTOR
1002
}
1001
GENIUS_GENOBJ-N-CRS_13
1002
{
1000
OWNER
1000
GEN
1002
}
  0
DIMENSION
  5
1DBB
330
1F
100
AcDbEntity
  8
AM_5
100
AcDbDimension
  2
*D3
 10
2158.657803487452
 20
737.9561227128467
 30
0.0
 11
2156.157803487452
 21
712.9561227128471
 31
0.0
 70
    32
 71
     5
 42
50.0
  3
AM_ISO$0
100
AcDbAlignedDimension
 13
2134.657803487452
 23
687.9561227128467
 33
0.0
 14
2134.657803487452
 24
737.9561227128467
 34
0.0
 50
90.0
100
AcDbRotatedDimension
1001
ACAD
1000
DSTYLE
1002
{
1070
    40
1040
1.0
1070
   144
1040
1.0
1070
   272
1070
     8
1002
}
  0
DIMENSION
  5
1DBE
330
1F
100
AcDbEntity
  8
AM_5
100
AcDbDimension
  2
*D4
 10
2148.657803487452
 20
732.9561227128468
 30
0.0
 11
2146.157803487452
 21
712.9561227128471
 31
0.0
 70
    32
 71
     5
 42
40.0
  3
AM_ISO$0
100
AcDbAlignedDimension
 13
2136.657803487452
 23
692.9561227128467
 33
0.0
 14
2136.907803487452
 24
732.9561227128468
 34
0.0
 50
90.0
100
AcDbRotatedDimension
1001
ACAD
1000
DSTYLE
1002
{
1070
    40
1040
1.0
1070
   144
1040
1.0
1070
   272
1070
     8
1002
}
  0
DIMENSION
  5
1E0F
330
1F
100
AcDbEntity
  8
AM_5
100
AcDbDimension
  2
*D5
 10
2155.657803487452
 20
578.9561227128467
 30
0.0
 11
2153.157803487452
 21
543.9561227128471
 31
0.0
 70
    32
 71
     5
 42
70.0
  3
AM_ISO$0
100
AcDbAlignedDimension
 13
2143.657803487452
 23
508.9561227128467
 33
0.0
 14
2131.157803487452
 24
578.9561227128467
 34
0.0
 50
90.0
100
AcDbRotatedDimension
1001
ACAD
1000
DSTYLE
1002
{
1070
    40
1040
1.0
1070
   144
1040
1.0
1070
   272
1070
     8
1002
}
  0
DIMENSION
  5
1E12
330
1F
100
AcDbEntity
  8
AM_5
100
AcDbDimension
  2
*D6
 10
2165.657803487452
 20
608.9561227128467
 30
0.0
 11
2163.157803487452
 21
558.9561227128471
 31
0.0
 70
    32
 71
     5
 42
100.0
  3
AM_ISO$0
100
AcDbAlignedDimension
 13
2143.657803487452
 23
508.9561227128467
 33
0.0
 14
2124.657803487452
 24
608.9561227128467
 34
0.0
 50
90.0
100
AcDbRotatedDimension
1001
ACAD
1000
DSTYLE
1002
{
1070
    40
1040
1.0
1070
   144
1040
1.0
1070
   272
1070
     8
1002
}
  0
DIMENSION
  5
1E15
330
1F
100
AcDbEntity
  8
AM_5
100
AcDbDimension
  2
*D7
 10
2067.657802487452
 20
508.9561227128467
 30
0.0
 11
2065.157802487452
 21
520.4561227128471
 31
0.0
 70
    32
 71
     5
 42
23.0
  3
AM_ISO$0
100
AcDbAlignedDimension
 13
2087.157803487452
 23
531.9561227128467
 33
0.0
 14
2087.157803487452
 24
508.9561227128467
 34
0.0
 50
90.0
100
AcDbRotatedDimension
1001
ACAD
1000
DSTYLE
1002
{
1070
    40
1040
1.0
1070
   144
1040
1.0
1070
   272
1070
     8
1002
}
  0
DIMENSION
  5
1E18
330
1F
100
AcDbEntity
  8
AM_5
100
AcDbDimension
  2
*D8
 10
2165.657803487452
 20
608.9561227128467
 30
0.0
 11
2163.157803487452
 21
621.4561227128471
 31
0.0
 70
    32
 71
     5
 42
25.0
  3
AM_ISO$0
100
AcDbAlignedDimension
 13
2124.657803487452
 23
633.9561227128467
 33
0.0
 14
2124.657803487452
 24
608.9561227128467
 34
0.0
 50
90.0
100
AcDbRotatedDimension
1001
ACAD
1000
DSTYLE
1002
{
1070
    40
1040
1.0
1070
   144
1040
1.0
1070
   272
1070
     8
1002
}
  0
CIRCLE
  5
1EF2
330
1F
100
AcDbEntity
  8
0
100
AcDbCircle
 10
2462.476583508879
 20
687.9561227128467
 30
0.0
 40
3.25
  0
CIRCLE
  5
1EF3
330
1F
100
AcDbEntity
  8
0
100
AcDbCircle
 10
2462.476583508879
 20
731.9561227128467
 30
0.0
 40
3.25
  0
CIRCLE
  5
1EF4
330
1F
100
AcDbEntity
  8
0
100
AcDbCircle
 10
2506.476583508879
 20
687.9561227128467
 30
0.0
 40
3.25
  0
CIRCLE
  5
1EF5
102
{ACAD_REACTORS
330
29E0
102
}
330
1F
100
AcDbEntity
  8
0
100
AcDbCircle
 10
2506.476583508879
 20
731.9561227128467
 30
0.0
 40
3.25
  0
LINE
  5
1EF6
330
1F
100
AcDbEntity
  8
0
100
AcDbLine
 10
2420.476583508878
 20
722.4561227128467
 30
0.0
 11
2498.476583508879
 21
722.4561227128467
 31
0.0
  0
LINE
  5
1EF7
330
1F
100
AcDbEntity
  8
0
100
AcDbLine
 10
2420.476583508878
 20
697.4561227128467
 30
0.0
 11
2498.476583508879
 21
697.4561227128467
 31
0.0
  0
LINE
  5
1EF8
330
1F
100
AcDbEntity
  8
0
100
AcDbLine
 10
2499.476583508879
 20
698.4561227128467
 30
0.0
 11
2499.476583508879
 21
721.4561227128467
 31
0.0
  0
LINE
  5
1EFA
330
1F
100
AcDbEntity
  8
0
100
AcDbLine
 10
2419.476583508878
 20
698.4561227128467
 30
0.0
 11
2419.476583508878
 21
721.4561227128467
 31
0.0
  0
LINE
  5
1EFB
330
1F
100
AcDbEntity
  8
0
100
AcDbLine
 10
2498.476583508879
 20
722.4561227128467
 30
0.0
 11
2499.476583508879
 21
721.4561227128467
 31
0.0
  0
LINE
  5
1EFC
330
1F
100
AcDbEntity
  8
0
100
AcDbLine
 10
2499.476583508879
 20
698.4561227128467
 30
0.0
 11
2498.476583508879
 21
697.4561227128467
 31
0.0
  0
LINE
  5
1EFD
330
1F
100
AcDbEntity
  8
0
100
AcDbLine
 10
2420.476583508878
 20
697.4561227128467
 30
0.0
 11
2419.476583508878
 21
698.4561227128467
 31
0.0
  0
LINE
  5
1EFE
330
1F
100
AcDbEntity
  8
0
100
AcDbLine
 10
2419.476583508878
 20
721.4561227128467
 30
0.0
 11
2420.476583508878
 21
722.4561227128467
 31
0.0
  0
LINE
  5
1EFF
330
1F
100
AcDbEntity
  8
0
100
AcDbLine
 10
2457.976583508878
 20
508.9561227128467
 30
0.0
 11
2510.976583508878
 21
508.9561227128467
 31
0.0
  0
LINE
  5
1F00
330
1F
100
AcDbEntity
  8
0
100
AcDbLine
 10
2457.976583508878
 20
533.9561227128467
 30
0.0
 11
2510.976583508878
 21
533.9561227128467
 31
0.0
  0
LINE
  5
1F01
330
1F
100
AcDbEntity
  8
0
100
AcDbLine
 10
2461.476583508878
 20
584.9561227128467
 30
0.0
 11
2507.476583508879
 21
584.9561227128467
 31
0.0
  0
LINE
  5
1F02
330
1F
100
AcDbEntity
  8
0
100
AcDbLine
 10
2509.476583508878
 20
582.9561227128468
 30
0.0
 11
2509.476583508878
 21
533.9561227128467
 31
0.0
  0
LINE
  5
1F03
330
1F
100
AcDbEntity
  8
0
100
AcDbLine
 10
2459.476583508878
 20
582.9561227128468
 30
0.0
 11
2459.476583508878
 21
533.9561227128467
 31
0.0
  0
LINE
  5
1F04
330
1F
100
AcDbEntity
  8
0
100
AcDbLine
 10
2457.976583508878
 20
533.9561227128467
 30
0.0
 11
2456.976583508879
 21
532.9561227128468
 31
0.0
  0
LINE
  5
1F05
330
1F
100
AcDbEntity
  8
0
100
AcDbLine
 10
2456.976583508879
 20
509.9561227128467
 30
0.0
 11
2457.976583508878
 21
508.9561227128467
 31
0.0
  0
LINE
  5
1F06
330
1F
100
AcDbEntity
  8
0
100
AcDbLine
 10
2494.476583508879
 20
619.9561227128468
 30
0.0
 11
2494.476583508879
 21
584.9561227128467
 31
0.0
  0
LINE
  5
1F07
330
1F
100
AcDbEntity
  8
0
100
AcDbLine
 10
2474.476583508879
 20
619.9561227128468
 30
0.0
 11
2474.476583508879
 21
584.9561227128467
 31
0.0
  0
LINE
  5
1F08
330
1F
100
AcDbEntity
  8
0
100
AcDbLine
 10
2499.476583508879
 20
643.9561227128467
 30
0.0
 11
2499.476583508879
 21
620.9561227128467
 31
0.0
  0
LINE
  5
1F09
330
1F
100
AcDbEntity
  8
0
100
AcDbLine
 10
2419.476583508878
 20
644.9561227128468
 30
0.0
 11
2419.476583508878
 21
620.9561227128467
 31
0.0
  0
LINE
  5
1F0A
330
1F
100
AcDbEntity
  8
0
100
AcDbLine
 10
2509.476583508878
 20
582.9561227128468
 30
0.0
 11
2507.476583508879
 21
584.9561227128467
 31
0.0
  0
LINE
  5
1F0B
330
1F
100
AcDbEntity
  8
0
100
AcDbLine
 10
2461.476583508878
 20
584.9561227128467
 30
0.0
 11
2459.476583508878
 21
582.9561227128468
 31
0.0
  0
LINE
  5
1F0C
330
1F
100
AcDbEntity
  8
0
100
AcDbLine
 10
2498.476583508879
 20
619.9561227128468
 30
0.0
 11
2499.476583508879
 21
620.9561227128467
 31
0.0
  0
LINE
  5
1F0D
330
1F
100
AcDbEntity
  8
0
100
AcDbLine
 10
2499.476583508879
 20
643.9561227128467
 30
0.0
 11
2498.476583508879
 21
644.9561227128468
 31
0.0
  0
LINE
  5
1F0E
330
1F
100
AcDbEntity
  8
0
100
AcDbLine
 10
2420.476583508878
 20
619.9561227128468
 30
0.0
 11
2419.476583508878
 21
620.9561227128467
 31
0.0
  0
LINE
  5
1F10
330
1F
100
AcDbEntity
  8
0
  6
HIDDEN
 62
     3
 48
0.5
100
AcDbLine
 10
2434.476583508879
 20
619.9561227128468
 30
0.0
 11
2434.476583508879
 21
644.9561227128468
 31
0.0
  0
LINE
  5
1F11
330
1F
100
AcDbEntity
  8
0
  6
HIDDEN
 62
     3
 48
0.5
100
AcDbLine
 10
2424.476583508879
 20
619.9561227128468
 30
0.0
 11
2424.476583508879
 21
644.9561227128468
 31
0.0
  0
LINE
  5
1F12
330
1F
100
AcDbEntity
  8
0
  6
HIDDEN
 62
     3
 48
0.5
100
AcDbLine
 10
2433.976583508878
 20
619.9561227128468
 30
0.0
 11
2433.976583508878
 21
644.9561227128468
 31
0.0
  0
LINE
  5
1F13
330
1F
100
AcDbEntity
  8
0
  6
HIDDEN
 62
     3
 48
0.5
100
AcDbLine
 10
2424.976583508879
 20
619.9561227128468
 30
0.0
 11
2424.976583508879
 21
644.9561227128468
 31
0.0
  0
CIRCLE
  5
1F17
330
1F
100
AcDbEntity
  8
0
100
AcDbCircle
 10
2473.476583508878
 20
526.6561227128468
 30
0.0
 40
4.5
  0
CIRCLE
  5
1F18
330
1F
100
AcDbEntity
  8
0
100
AcDbCircle
 10
2473.476583508878
 20
526.6561227128468
 30
0.0
 40
4.0
  0
CIRCLE
  5
1F19
330
1F
100
AcDbEntity
  8
0
100
AcDbCircle
 10
2484.476583508878
 20
576.9561227128467
 30
0.0
 40
4.0
  0
CIRCLE
  5
1F1A
330
1F
100
AcDbEntity
  8
0
100
AcDbCircle
 10
2484.476583508878
 20
576.9561227128467
 30
0.0
 40
4.5
  0
CIRCLE
  5
1F1B
330
1F
100
AcDbEntity
  8
0
100
AcDbCircle
 10
2429.476583508878
 20
709.9561227128467
 30
0.0
 40
5.0
  0
CIRCLE
  5
1F1C
330
1F
100
AcDbEntity
  8
0
100
AcDbCircle
 10
2429.476583508878
 20
709.9561227128467
 30
0.0
 40
4.5
  0
CIRCLE
  5
1F1D
330
1F
100
AcDbEntity
  8
0
100
AcDbCircle
 10
2484.476583508878
 20
709.9561227128467
 30
0.0
 40
8.5
  0
ARC
  5
1F20
330
1F
100
AcDbEntity
  8
0
100
AcDbCircle
 10
2484.476583508878
 20
709.9561227128467
 30
0.0
 40
25.0
100
AcDbArc
 50
209.9999999999973
 51
150.0000000000027
  0
LINE
  5
1F21
330
1F
100
AcDbEntity
  8
0
100
AcDbLine
 10
2509.683690290065
 20
737.4561227128467
 30
0.0
 11
2511.976583508878
 21
735.1632294940334
 31
0.0
  0
LINE
  5
1F22
330
1F
100
AcDbEntity
  8
0
100
AcDbLine
 10
2511.976583508878
 20
735.1632294940334
 30
0.0
 11
2511.976583508878
 21
684.7490159316598
 31
0.0
  0
LINE
  5
1F23
330
1F
100
AcDbEntity
  8
0
100
AcDbLine
 10
2511.976583508878
 20
684.7490159316598
 30
0.0
 11
2509.683690290065
 21
682.4561227128468
 31
0.0
  0
LINE
  5
1F24
330
1F
100
AcDbEntity
  8
0
100
AcDbLine
 10
2509.476583508878
 20
682.4561227128468
 30
0.0
 11
2459.476583508878
 21
682.4561227128468
 31
0.0
  0
LINE
  5
1F25
330
1F
100
AcDbEntity
  8
0
100
AcDbLine
 10
2509.683690290065
 20
682.4561227128468
 30
0.0
 11
2459.269476727692
 21
682.4561227128468
 31
0.0
  0
LINE
  5
1F26
330
1F
100
AcDbEntity
  8
0
100
AcDbLine
 10
2456.976583508879
 20
684.7490159316598
 30
0.0
 11
2456.976583508879
 21
697.4561227128467
 31
0.0
  0
LINE
  5
1F27
330
1F
100
AcDbEntity
  8
0
100
AcDbLine
 10
2456.976583508879
 20
684.7490159316598
 30
0.0
 11
2459.269476727692
 21
682.4561227128468
 31
0.0
  0
LINE
  5
1F28
330
1F
100
AcDbEntity
  8
0
100
AcDbLine
 10
2456.976583508879
 20
722.4561227128467
 30
0.0
 11
2456.976583508879
 21
734.9561227128467
 31
0.0
  0
LINE
  5
1F29
330
1F
100
AcDbEntity
  8
0
100
AcDbLine
 10
2459.269476727691
 20
737.4561227128467
 30
0.0
 11
2509.683690290065
 21
737.4561227128467
 31
0.0
  0
LINE
  5
1F2A
330
1F
100
AcDbEntity
  8
0
100
AcDbLine
 10
2456.976583508879
 20
722.4561227128467
 30
0.0
 11
2456.976583508879
 21
734.9561227128467
 31
0.0
  0
LINE
  5
1F2B
330
1F
100
AcDbEntity
  8
0
100
AcDbLine
 10
2456.976583508879
 20
722.4561227128467
 30
0.0
 11
2456.976583508879
 21
735.1632294940334
 31
0.0
  0
LINE
  5
1F2C
330
1F
100
AcDbEntity
  8
0
100
AcDbLine
 10
2456.976583508879
 20
735.1632294940334
 30
0.0
 11
2459.269476727691
 21
737.4561227128467
 31
0.0
  0
LINE
  5
1F2D
330
1F
100
AcDbEntity
  8
0
100
AcDbLine
 10
2419.476583508878
 20
644.9561227128468
 30
0.0
 11
2498.476583508879
 21
644.9561227128468
 31
0.0
  0
LINE
  5
1F2E
330
1F
100
AcDbEntity
  8
0
100
AcDbLine
 10
2420.476583508878
 20
619.9561227128468
 30
0.0
 11
2498.476583508879
 21
619.9561227128468
 31
0.0
  0
LINE
  5
1F2F
330
1F
100
AcDbEntity
  8
0
100
AcDbLine
 10
2511.976583508879
 20
532.9561227128468
 30
0.0
 11
2511.976583508879
 21
509.9561227128467
 31
0.0
  0
LINE
  5
1F30
330
1F
100
AcDbEntity
  8
0
100
AcDbLine
 10
2456.976583508879
 20
532.9561227128468
 30
0.0
 11
2456.976583508879
 21
509.9561227128467
 31
0.0
  0
LINE
  5
1F31
330
1F
100
AcDbEntity
  8
0
100
AcDbLine
 10
2510.976583508878
 20
533.9561227128467
 30
0.0
 11
2511.976583508879
 21
532.9561227128468
 31
0.0
  0
LINE
  5
1F32
330
1F
100
AcDbEntity
  8
0
100
AcDbLine
 10
2510.976583508878
 20
508.9561227128467
 30
0.0
 11
2511.976583508879
 21
509.9561227128467
 31
0.0
  0
LINE
  5
1F3F
330
1F
100
AcDbEntity
  8
AM_7
100
AcDbLine
 10
2484.476583508878
 20
646.9561227128467
 30
0.0
 11
2484.476583508878
 21
506.9561227128467
 31
0.0
1001
GENIUS_GENOBJ-N-CEN_13
1002
{
1000
OWNER
1000
GEN
1002
}
1001
GENIUS_GENODEF_13
1002
{
1000
HIER
1070
     0
1002
}
1002
{
1000
MANEDIT
1070
     0
1002
}
1002
{
1000
NOSEL
1070
     0
1002
}
1002
{
1000
BEHIND
1070
     0
1002
}
1002
{
1000
OTHER
1070
     0
1002
}
1002
{
1000
REACTOR
1002
}
1001
GENIUS_GENCEN_19
1002
{
1040
2.0
1002
}
  0
LINE
  5
1F4C
330
1F
100
AcDbEntity
  8
AM_7
100
AcDbLine
 10
2429.476583508878
 20
646.9561227128467
 30
0.0
 11
2429.476583508878
 21
617.9561227128467
 31
0.0
1001
GENIUS_GENOBJ-N-CEN_13
1002
{
1000
OWNER
1000
GEN
1002
}
1001
GENIUS_GENODEF_13
1002
{
1000
HIER
1070
     0
1002
}
1002
{
1000
MANEDIT
1070
     0
1002
}
1002
{
1000
NOSEL
1070
     0
1002
}
1002
{
1000
BEHIND
1070
     0
1002
}
1002
{
1000
OTHER
1070
     0
1002
}
1002
{
1000
REACTOR
1002
}
1001
GENIUS_GENCEN_19
1002
{
1040
2.0
1002
}
  0
LINE
  5
1F5A
330
1F
100
AcDbEntity
  8
AM_7
  6
AM_ISO08W050x2
100
AcDbLine
 10
2429.476583508878
 20
709.9561227128467
 30
0.0
 11
2436.476583508878
 21
709.9561227128467
 31
0.0
1001
GENIUS_GENOREF_13
1005
1F5E
  0
LINE
  5
1F5B
330
1F
100
AcDbEntity
  8
AM_7
  6
AM_ISO08W050x2
100
AcDbLine
 10
2429.476583508878
 20
709.9561227128467
 30
0.0
 11
2429.476583508878
 21
716.9561227128467
 31
0.0
1001
GENIUS_GENOREF_13
1005
1F5E
  0
LINE
  5
1F5C
330
1F
100
AcDbEntity
  8
AM_7
  6
AM_ISO08W050x2
100
AcDbLine
 10
2429.476583508878
 20
709.9561227128467
 30
0.0
 11
2422.476583508879
 21
709.9561227128467
 31
0.0
1001
GENIUS_GENOREF_13
1005
1F5E
  0
LINE
  5
1F5D
330
1F
100
AcDbEntity
  8
AM_7
  6
AM_ISO08W050x2
100
AcDbLine
 10
2429.476583508878
 20
709.9561227128467
 30
0.0
 11
2429.476583508878
 21
702.9561227128468
 31
0.0
1001
GENIUS_GENOREF_13
1005
1F5E
  0
POINT
  5
1F5E
330
1F
100
AcDbEntity
  8
0
 60
     1
100
AcDbPoint
 10
0.0
 20
0.0
 30
0.0
1001
GENIUS_GENOBJ-N-CRS_13
1002
{
1000
OWNER
1000
GEN
1002
}
1001
GENIUS_GENOENT_13
1002
{
1000
MYREF
1005
1F5E
1002
}
1002
{
1000
GRP
1005
0
1002
}
1001
GENIUS_GENOLIS_13
1002
{
1000
ENT
1005
1F5D
1005
1F5C
1005
1F5B
1005
1F5A
1002
}
1001
GENIUS_GENODEF_13
1002
{
1000
HIER
1070
    10
1002
}
1002
{
1000
MANEDIT
1070
     0
1002
}
1002
{
1000
NOSEL
1070
     0
1002
}
1002
{
1000
BEHIND
1070
     0
1002
}
1002
{
1000
OTHER
1070
     0
1002
}
1002
{
1000
REACTOR
1002
}
  0
LINE
  5
1F6C
330
1F
100
AcDbEntity
  8
AM_7
100
AcDbLine
 10
2484.476583508878
 20
709.9561227128467
 30
0.0
 11
2515.411138265085
 21
709.9561227128467
 31
0.0
1001
GENIUS_GENOREF_13
1005
1F70
  0
LINE
  5
1F6D
330
1F
100
AcDbEntity
  8
AM_7
100
AcDbLine
 10
2484.476583508878
 20
709.9561227128467
 30
0.0
 11
2484.476583508878
 21
740.8906774690539
 31
0.0
1001
GENIUS_GENOREF_13
1005
1F70
  0
LINE
  5
1F6E
330
1F
100
AcDbEntity
  8
AM_7
100
AcDbLine
 10
2484.476583508878
 20
709.9561227128467
 30
0.0
 11
2416.340900145308
 21
709.9561227128467
 31
0.0
1001
GENIUS_GENOREF_13
1005
1F70
  0
LINE
  5
1F6F
330
1F
100
AcDbEntity
  8
AM_7
100
AcDbLine
 10
2484.476583508878
 20
709.9561227128467
 30
0.0
 11
2484.476583508878
 21
679.0215679566395
 31
0.0
1001
GENIUS_GENOREF_13
1005
1F70
  0
POINT
  5
1F70
330
1F
100
AcDbEntity
  8
0
 60
     1
100
AcDbPoint
 10
0.0
 20
0.0
 30
0.0
1001
GENIUS_GENODEF_13
1002
{
1000
HIER
1070
    10
1002
}
1002
{
1000
MANEDIT
1070
     0
1002
}
1002
{
1000
NOSEL
1070
     0
1002
}
1002
{
1000
BEHIND
1070
     0
1002
}
1002
{
1000
OTHER
1070
     0
1002
}
1002
{
1000
REACTOR
1002
}
1001
GENIUS_GENOBJ-N-CRS_13
1002
{
1000
OWNER
1000
GEN
1002
}
1001
GENIUS_GENOENT_13
1002
{
1000
MYREF
1005
1F70
1002
}
1002
{
1000
GRP
1005
0
1002
}
1001
GENIUS_GENOLIS_13
1002
{
1000
ENT
1005
1F6F
1005
1F6E
1005
1F6D
1005
1F6C
1002
}
  0
LINE
  5
1F7E
330
1F
100
AcDbEntity
  8
AM_7
  6
AM_ISO08W050x2
100
AcDbLine
 10
2506.476583508879
 20
687.9561227128467
 30
0.0
 11
2511.726583508878
 21
687.9561227128467
 31
0.0
1001
GENIUS_GENOREF_13
1005
1F82
  0
LINE
  5
1F7F
330
1F
100
AcDbEntity
  8
AM_7
  6
AM_ISO08W050x2
100
AcDbLine
 10
2506.476583508879
 20
687.9561227128467
 30
0.0
 11
2506.476583508879
 21
693.2061227128468
 31
0.0
1001
GENIUS_GENOREF_13
1005
1F82
  0
LINE
  5
1F80
330
1F
100
AcDbEntity
  8
AM_7
  6
AM_ISO08W050x2
100
AcDbLine
 10
2506.476583508879
 20
687.9561227128467
 30
0.0
 11
2501.226583508878
 21
687.9561227128467
 31
0.0
1001
GENIUS_GENOREF_13
1005
1F82
  0
LINE
  5
1F81
330
1F
100
AcDbEntity
  8
AM_7
  6
AM_ISO08W050x2
100
AcDbLine
 10
2506.476583508879
 20
687.9561227128467
 30
0.0
 11
2506.476583508879
 21
682.7061227128467
 31
0.0
1001
GENIUS_GENOREF_13
1005
1F82
  0
POINT
  5
1F82
330
1F
100
AcDbEntity
  8
0
 60
     1
100
AcDbPoint
 10
0.0
 20
0.0
 30
0.0
1001
GENIUS_GENOLIS_13
1002
{
1000
ENT
1005
1F81
1005
1F80
1005
1F7F
1005
1F7E
1002
}
1001
GENIUS_GENODEF_13
1002
{
1000
HIER
1070
    10
1002
}
1002
{
1000
MANEDIT
1070
     0
1002
}
1002
{
1000
NOSEL
1070
     0
1002
}
1002
{
1000
BEHIND
1070
     0
1002
}
1002
{
1000
OTHER
1070
     0
1002
}
1002
{
1000
REACTOR
1002
}
1001
GENIUS_GENOENT_13
1002
{
1000
MYREF
1005
1F82
1002
}
1002
{
1000
GRP
1005
0
1002
}
1001
GENIUS_GENOBJ-N-CRS_13
1002
{
1000
OWNER
1000
GEN
1002
}
  0
LINE
  5
1F90
330
1F
100
AcDbEntity
  8
AM_7
  6
AM_ISO08W050x2
100
AcDbLine
 10
2462.476583508879
 20
687.9561227128467
 30
0.0
 11
2467.726583508878
 21
687.9561227128467
 31
0.0
1001
GENIUS_GENOREF_13
1005
1F94
  0
LINE
  5
1F91
330
1F
100
AcDbEntity
  8
AM_7
  6
AM_ISO08W050x2
100
AcDbLine
 10
2462.476583508879
 20
687.9561227128467
 30
0.0
 11
2462.476583508879
 21
693.2061227128468
 31
0.0
1001
GENIUS_GENOREF_13
1005
1F94
  0
LINE
  5
1F92
330
1F
100
AcDbEntity
  8
AM_7
  6
AM_ISO08W050x2
100
AcDbLine
 10
2462.476583508879
 20
687.9561227128467
 30
0.0
 11
2457.226583508879
 21
687.9561227128467
 31
0.0
1001
GENIUS_GENOREF_13
1005
1F94
  0
LINE
  5
1F93
330
1F
100
AcDbEntity
  8
AM_7
  6
AM_ISO08W050x2
100
AcDbLine
 10
2462.476583508879
 20
687.9561227128467
 30
0.0
 11
2462.476583508879
 21
682.7061227128467
 31
0.0
1001
GENIUS_GENOREF_13
1005
1F94
  0
POINT
  5
1F94
330
1F
100
AcDbEntity
  8
0
 60
     1
100
AcDbPoint
 10
0.0
 20
0.0
 30
0.0
1001
GENIUS_GENOLIS_13
1002
{
1000
ENT
1005
1F93
1005
1F92
1005
1F91
1005
1F90
1002
}
1001
GENIUS_GENOBJ-N-CRS_13
1002
{
1000
OWNER
1000
GEN
1002
}
1001
GENIUS_GENOENT_13
1002
{
1000
MYREF
1005
1F94
1002
}
1002
{
1000
GRP
1005
0
1002
}
1001
GENIUS_GENODEF_13
1002
{
1000
HIER
1070
    10
1002
}
1002
{
1000
MANEDIT
1070
     0
1002
}
1002
{
1000
NOSEL
1070
     0
1002
}
1002
{
1000
BEHIND
1070
     0
1002
}
1002
{
1000
OTHER
1070
     0
1002
}
1002
{
1000
REACTOR
1002
}
  0
LINE
  5
1FA2
330
1F
100
AcDbEntity
  8
AM_7
  6
AM_ISO08W050x2
100
AcDbLine
 10
2462.476583508879
 20
731.9561227128467
 30
0.0
 11
2467.726583508878
 21
731.9561227128467
 31
0.0
1001
GENIUS_GENOREF_13
1005
1FA6
  0
LINE
  5
1FA3
330
1F
100
AcDbEntity
  8
AM_7
  6
AM_ISO08W050x2
100
AcDbLine
 10
2462.476583508879
 20
731.9561227128467
 30
0.0
 11
2462.476583508879
 21
737.2061227128467
 31
0.0
1001
GENIUS_GENOREF_13
1005
1FA6
  0
LINE
  5
1FA4
330
1F
100
AcDbEntity
  8
AM_7
  6
AM_ISO08W050x2
100
AcDbLine
 10
2462.476583508879
 20
731.9561227128467
 30
0.0
 11
2457.226583508879
 21
731.9561227128467
 31
0.0
1001
GENIUS_GENOREF_13
1005
1FA6
  0
LINE
  5
1FA5
330
1F
100
AcDbEntity
  8
AM_7
  6
AM_ISO08W050x2
100
AcDbLine
 10
2462.476583508879
 20
731.9561227128467
 30
0.0
 11
2462.476583508879
 21
726.7061227128468
 31
0.0
1001
GENIUS_GENOREF_13
1005
1FA6
  0
POINT
  5
1FA6
330
1F
100
AcDbEntity
  8
0
 60
     1
100
AcDbPoint
 10
0.0
 20
0.0
 30
0.0
1001
GENIUS_GENODEF_13
1002
{
1000
HIER
1070
    10
1002
}
1002
{
1000
MANEDIT
1070
     0
1002
}
1002
{
1000
NOSEL
1070
     0
1002
}
1002
{
1000
BEHIND
1070
     0
1002
}
1002
{
1000
OTHER
1070
     0
1002
}
1002
{
1000
REACTOR
1002
}
1001
GENIUS_GENOENT_13
1002
{
1000
MYREF
1005
1FA6
1002
}
1002
{
1000
GRP
1005
0
1002
}
1001
GENIUS_GENOBJ-N-CRS_13
1002
{
1000
OWNER
1000
GEN
1002
}
1001
GENIUS_GENOLIS_13
1002
{
1000
ENT
1005
1FA5
1005
1FA4
1005
1FA3
1005
1FA2
1002
}
  0
LINE
  5
1FB4
330
1F
100
AcDbEntity
  8
AM_7
  6
AM_ISO08W050x2
100
AcDbLine
 10
2506.476583508879
 20
731.9561227128467
 30
0.0
 11
2511.726583508878
 21
731.9561227128467
 31
0.0
1001
GENIUS_GENOREF_13
1005
1FB8
  0
LINE
  5
1FB5
330
1F
100
AcDbEntity
  8
AM_7
  6
AM_ISO08W050x2
100
AcDbLine
 10
2506.476583508879
 20
731.9561227128467
 30
0.0
 11
2506.476583508879
 21
737.2061227128467
 31
0.0
1001
GENIUS_GENOREF_13
1005
1FB8
  0
LINE
  5
1FB6
330
1F
100
AcDbEntity
  8
AM_7
  6
AM_ISO08W050x2
100
AcDbLine
 10
2506.476583508879
 20
731.9561227128467
 30
0.0
 11
2501.226583508878
 21
731.9561227128467
 31
0.0
1001
GENIUS_GENOREF_13
1005
1FB8
  0
LINE
  5
1FB7
330
1F
100
AcDbEntity
  8
AM_7
  6
AM_ISO08W050x2
100
AcDbLine
 10
2506.476583508879
 20
731.9561227128467
 30
0.0
 11
2506.476583508879
 21
726.7061227128468
 31
0.0
1001
GENIUS_GENOREF_13
1005
1FB8
  0
POINT
  5
1FB8
330
1F
100
AcDbEntity
  8
0
 60
     1
100
AcDbPoint
 10
0.0
 20
0.0
 30
0.0
1001
GENIUS_GENODEF_13
1002
{
1000
HIER
1070
    10
1002
}
1002
{
1000
MANEDIT
1070
     0
1002
}
1002
{
1000
NOSEL
1070
     0
1002
}
1002
{
1000
BEHIND
1070
     0
1002
}
1002
{
1000
OTHER
1070
     0
1002
}
1002
{
1000
REACTOR
1002
}
1001
GENIUS_GENOLIS_13
1002
{
1000
ENT
1005
1FB7
1005
1FB6
1005
1FB5
1005
1FB4
1002
}
1001
GENIUS_GENOENT_13
1002
{
1000
MYREF
1005
1FB8
1002
}
1002
{
1000
GRP
1005
0
1002
}
1001
GENIUS_GENOBJ-N-CRS_13
1002
{
1000
OWNER
1000
GEN
1002
}
  0
LINE
  5
1FC6
330
1F
100
AcDbEntity
  8
AM_7
  6
AM_ISO08W050x2
100
AcDbLine
 10
2473.476583508878
 20
526.6561227128468
 30
0.0
 11
2479.976583508879
 21
526.6561227128468
 31
0.0
1001
GENIUS_GENOREF_13
1005
1FCA
  0
LINE
  5
1FC7
330
1F
100
AcDbEntity
  8
AM_7
  6
AM_ISO08W050x2
100
AcDbLine
 10
2473.476583508878
 20
526.6561227128468
 30
0.0
 11
2473.476583508878
 21
533.1561227128467
 31
0.0
1001
GENIUS_GENOREF_13
1005
1FCA
  0
LINE
  5
1FC8
330
1F
100
AcDbEntity
  8
AM_7
  6
AM_ISO08W050x2
100
AcDbLine
 10
2473.476583508878
 20
526.6561227128468
 30
0.0
 11
2466.976583508878
 21
526.6561227128468
 31
0.0
1001
GENIUS_GENOREF_13
1005
1FCA
  0
LINE
  5
1FC9
330
1F
100
AcDbEntity
  8
AM_7
  6
AM_ISO08W050x2
100
AcDbLine
 10
2473.476583508878
 20
526.6561227128468
 30
0.0
 11
2473.476583508878
 21
520.1561227128467
 31
0.0
1001
GENIUS_GENOREF_13
1005
1FCA
  0
POINT
  5
1FCA
330
1F
100
AcDbEntity
  8
0
 60
     1
100
AcDbPoint
 10
0.0
 20
0.0
 30
0.0
1001
GENIUS_GENOBJ-N-CRS_13
1002
{
1000
OWNER
1000
GEN
1002
}
1001
GENIUS_GENOENT_13
1002
{
1000
MYREF
1005
1FCA
1002
}
1002
{
1000
GRP
1005
0
1002
}
1001
GENIUS_GENOLIS_13
1002
{
1000
ENT
1005
1FC9
1005
1FC8
1005
1FC7
1005
1FC6
1002
}
1001
GENIUS_GENODEF_13
1002
{
1000
HIER
1070
    10
1002
}
1002
{
1000
MANEDIT
1070
     0
1002
}
1002
{
1000
NOSEL
1070
     0
1002
}
1002
{
1000
BEHIND
1070
     0
1002
}
1002
{
1000
OTHER
1070
     0
1002
}
1002
{
1000
REACTOR
1002
}
  0
LINE
  5
1FD8
330
1F
100
AcDbEntity
  8
AM_7
  6
AM_ISO08W050x2
100
AcDbLine
 10
2484.476583508878
 20
576.9561227128467
 30
0.0
 11
2490.976583508878
 21
576.9561227128467
 31
0.0
1001
GENIUS_GENOREF_13
1005
1FDC
  0
LINE
  5
1FD9
330
1F
100
AcDbEntity
  8
AM_7
  6
AM_ISO08W050x2
100
AcDbLine
 10
2484.476583508878
 20
576.9561227128467
 30
0.0
 11
2484.476583508878
 21
583.4561227128467
 31
0.0
1001
GENIUS_GENOREF_13
1005
1FDC
  0
LINE
  5
1FDA
330
1F
100
AcDbEntity
  8
AM_7
  6
AM_ISO08W050x2
100
AcDbLine
 10
2484.476583508878
 20
576.9561227128467
 30
0.0
 11
2477.976583508878
 21
576.9561227128467
 31
0.0
1001
GENIUS_GENOREF_13
1005
1FDC
  0
LINE
  5
1FDB
330
1F
100
AcDbEntity
  8
AM_7
  6
AM_ISO08W050x2
100
AcDbLine
 10
2484.476583508878
 20
576.9561227128467
 30
0.0
 11
2484.476583508878
 21
570.4561227128468
 31
0.0
1001
GENIUS_GENOREF_13
1005
1FDC
  0
POINT
  5
1FDC
330
1F
100
AcDbEntity
  8
0
 60
     1
100
AcDbPoint
 10
0.0
 20
0.0
 30
0.0
1001
GENIUS_GENODEF_13
1002
{
1000
HIER
1070
    10
1002
}
1002
{
1000
MANEDIT
1070
     0
1002
}
1002
{
1000
NOSEL
1070
     0
1002
}
1002
{
1000
BEHIND
1070
     0
1002
}
1002
{
1000
OTHER
1070
     0
1002
}
1002
{
1000
REACTOR
1002
}
1001
GENIUS_GENOBJ-N-CRS_13
1002
{
1000
OWNER
1000
GEN
1002
}
1001
GENIUS_GENOLIS_13
1002
{
1000
ENT
1005
1FDB
1005
1FDA
1005
1FD9
1005
1FD8
1002
}
1001
GENIUS_GENOENT_13
1002
{
1000
MYREF
1005
1FDC
1002
}
1002
{
1000
GRP
1005
0
1002
}
  0
DIMENSION
  5
1FDE
330
1F
100
AcDbEntity
  8
AM_5
100
AcDbDimension
  2
*D9
 10
2528.476583508878
 20
584.9561227128467
 30
0.0
 11
2525.976583508878
 21
546.9561227128472
 31
0.0
 70
    32
 71
     5
 42
76.0
  3
AM_ISO$0
100
AcDbAlignedDimension
 13
2510.976583508878
 23
508.9561227128467
 33
0.0
 14
2507.476583508879
 24
584.9561227128467
 34
0.0
 50
90.0
100
AcDbRotatedDimension
1001
ACAD
1000
DSTYLE
1002
{
1070
    40
1040
1.0
1070
   144
1040
1.0
1070
   272
1070
     8
1002
}
  0
DIMENSION
  5
1FDF
330
1F
100
AcDbEntity
  8
AM_5
100
AcDbDimension
  2
*D10
 10
2538.476583508879
 20
619.9561227128468
 30
0.0
 11
2535.976583508878
 21
564.4561227128471
 31
0.0
 70
    32
 71
     5
 42
111.0
  3
AM_ISO$0
100
AcDbAlignedDimension
 13
2510.976583508878
 23
508.9561227128467
 33
0.0
 14
2498.476583508879
 24
619.9561227128468
 34
0.0
 50
90.0
100
AcDbRotatedDimension
1001
ACAD
1000
DSTYLE
1002
{
1070
    40
1040
1.0
1070
   144
1040
1.0
1070
   272
1070
     8
1002
}
  0
DIMENSION
  5
1FE0
330
1F
100
AcDbEntity
  8
AM_5
100
AcDbDimension
  2
*D11
 10
2440.476582508879
 20
508.9561227128467
 30
0.0
 11
2437.976582508879
 21
521.4561227128472
 31
0.0
 70
    32
 71
     5
 42
25.0
  3
AM_ISO$0
100
AcDbAlignedDimension
 13
2457.976583508878
 23
533.9561227128467
 33
0.0
 14
2457.976583508878
 24
508.9561227128467
 34
0.0
 50
90.0
100
AcDbRotatedDimension
1001
ACAD
1000
DSTYLE
1002
{
1070
    40
1040
1.0
1070
   144
1040
1.0
1070
   272
1070
     8
1002
}
  0
DIMENSION
  5
1FE1
330
1F
100
AcDbEntity
  8
AM_5
100
AcDbDimension
  2
*D12
 10
2538.476583508879
 20
619.9561227128468
 30
0.0
 11
2535.976583508878
 21
632.4561227128472
 31
0.0
 70
    32
 71
     5
 42
25.0
  3
AM_ISO$0
100
AcDbAlignedDimension
 13
2498.476583508879
 23
644.9561227128468
 33
0.0
 14
2498.476583508879
 24
619.9561227128468
 34
0.0
 50
90.0
100
AcDbRotatedDimension
1001
ACAD
1000
DSTYLE
1002
{
1070
    40
1040
1.0
1070
   144
1040
1.0
1070
   272
1070
     8
1002
}
  0
DIMENSION
  5
207F
330
1F
100
AcDbEntity
  8
AM_5
100
AcDbDimension
  2
*D13
 10
2533.976583508878
 20
737.4561227128467
 30
0.0
 11
2531.476583508879
 21
709.9561227128472
 31
0.0
 70
    32
 71
     5
 42
55.0
  3
AM_ISO$0
100
AcDbAlignedDimension
 13
2509.683690290065
 23
682.4561227128468
 33
0.0
 14
2509.476583508878
 24
737.4561227128467
 34
0.0
 50
90.0
100
AcDbRotatedDimension
1001
ACAD
1000
DSTYLE
1002
{
1070
    40
1040
1.0
1070
   144
1040
1.0
1070
   272
1070
     8
1002
}
  0
DIMENSION
  5
2080
330
1F
100
AcDbEntity
  8
AM_5
100
AcDbDimension
  2
*D14
 10
2523.976583508878
 20
731.9561227128467
 30
0.0
 11
2521.476583508878
 21
709.9561227128472
 31
0.0
 70
    32
 71
     5
 42
44.0
  3
AM_ISO$0
100
AcDbAlignedDimension
 13
2511.726583508878
 23
687.9561227128467
 33
0.0
 14
2511.726583508878
 24
731.9561227128467
 34
0.0
 50
90.0
100
AcDbRotatedDimension
1001
ACAD
1000
DSTYLE
1002
{
1070
    40
1040
1.0
1070
   144
1040
1.0
1070
   272
1070
     8
1002
}
  0
LINE
  5
21C8
330
1F
100
AcDbEntity
  8
0
100
AcDbLine
 10
2773.20617379079
 20
721.4561227128467
 30
0.0
 11
2851.20617379079
 21
721.4561227128467
 31
0.0
  0
LINE
  5
21C9
330
1F
100
AcDbEntity
  8
0
100
AcDbLine
 10
2773.20617379079
 20
696.4561227128467
 30
0.0
 11
2851.20617379079
 21
696.4561227128467
 31
0.0
  0
LINE
  5
21CA
330
1F
100
AcDbEntity
  8
0
100
AcDbLine
 10
2852.20617379079
 20
697.4561227128467
 30
0.0
 11
2852.20617379079
 21
720.4561227128468
 31
0.0
  0
LINE
  5
21CC
330
1F
100
AcDbEntity
  8
0
100
AcDbLine
 10
2772.20617379079
 20
697.4561227128467
 30
0.0
 11
2772.20617379079
 21
720.4561227128468
 31
0.0
  0
LINE
  5
21CD
330
1F
100
AcDbEntity
  8
0
100
AcDbLine
 10
2851.20617379079
 20
721.4561227128467
 30
0.0
 11
2852.20617379079
 21
720.4561227128468
 31
0.0
  0
LINE
  5
21CE
330
1F
100
AcDbEntity
  8
0
100
AcDbLine
 10
2852.20617379079
 20
697.4561227128467
 30
0.0
 11
2851.20617379079
 21
696.4561227128467
 31
0.0
  0
LINE
  5
21CF
330
1F
100
AcDbEntity
  8
0
100
AcDbLine
 10
2773.20617379079
 20
696.4561227128467
 30
0.0
 11
2772.20617379079
 21
697.4561227128467
 31
0.0
  0
LINE
  5
21D0
330
1F
100
AcDbEntity
  8
0
100
AcDbLine
 10
2772.20617379079
 20
720.4561227128468
 30
0.0
 11
2773.20617379079
 21
721.4561227128467
 31
0.0
  0
LINE
  5
21D1
330
1F
100
AcDbEntity
  8
0
100
AcDbLine
 10
2806.70617379079
 20
508.9561227128467
 30
0.0
 11
2867.70617379079
 21
508.9561227128467
 31
0.0
  0
LINE
  5
21D2
330
1F
100
AcDbEntity
  8
0
100
AcDbLine
 10
2773.20617379079
 20
647.5561227128467
 30
0.0
 11
2851.20617379079
 21
647.5561227128467
 31
0.0
  0
LINE
  5
21D3
330
1F
100
AcDbEntity
  8
0
100
AcDbLine
 10
2806.70617379079
 20
535.9561227128467
 30
0.0
 11
2867.70617379079
 21
535.9561227128467
 31
0.0
  0
LINE
  5
21D4
330
1F
100
AcDbEntity
  8
0
100
AcDbLine
 10
2812.70617379079
 20
588.9561227128467
 30
0.0
 11
2861.706173790791
 21
588.9561227128467
 31
0.0
  0
LINE
  5
21D5
330
1F
100
AcDbEntity
  8
0
100
AcDbLine
 10
2868.20617379079
 20
535.4561227128467
 30
0.0
 11
2868.20617379079
 21
509.4561227128467
 31
0.0
  0
LINE
  5
21D6
330
1F
100
AcDbEntity
  8
0
100
AcDbLine
 10
2806.206173790791
 20
535.4561227128467
 30
0.0
 11
2806.206173790791
 21
509.4561227128467
 31
0.0
  0
LINE
  5
21D7
330
1F
100
AcDbEntity
  8
0
100
AcDbLine
 10
2863.70617379079
 20
586.9561227128468
 30
0.0
 11
2863.70617379079
 21
535.9561227128467
 31
0.0
  0
LINE
  5
21D8
330
1F
100
AcDbEntity
  8
0
100
AcDbLine
 10
2810.70617379079
 20
586.9561227128468
 30
0.0
 11
2810.70617379079
 21
535.9561227128467
 31
0.0
  0
LINE
  5
21D9
330
1F
100
AcDbEntity
  8
0
100
AcDbLine
 10
2867.70617379079
 20
508.9561227128467
 30
0.0
 11
2868.20617379079
 21
509.4561227128467
 31
0.0
  0
LINE
  5
21DA
330
1F
100
AcDbEntity
  8
0
100
AcDbLine
 10
2868.20617379079
 20
535.4561227128467
 30
0.0
 11
2867.70617379079
 21
535.9561227128467
 31
0.0
  0
LINE
  5
21DB
330
1F
100
AcDbEntity
  8
0
100
AcDbLine
 10
2806.70617379079
 20
535.9561227128467
 30
0.0
 11
2806.206173790791
 21
535.4561227128467
 31
0.0
  0
LINE
  5
21DC
330
1F
100
AcDbEntity
  8
0
100
AcDbLine
 10
2806.206173790791
 20
509.4561227128467
 30
0.0
 11
2806.70617379079
 21
508.9561227128467
 31
0.0
  0
LINE
  5
21DD
330
1F
100
AcDbEntity
  8
0
100
AcDbLine
 10
2773.20617379079
 20
622.5561227128467
 30
0.0
 11
2851.20617379079
 21
622.5561227128467
 31
0.0
  0
LINE
  5
21DE
330
1F
100
AcDbEntity
  8
0
100
AcDbLine
 10
2847.206173790791
 20
622.5561227128467
 30
0.0
 11
2847.206173790791
 21
588.9561227128467
 31
0.0
  0
LINE
  5
21DF
330
1F
100
AcDbEntity
  8
0
100
AcDbLine
 10
2827.20617379079
 20
622.5561227128467
 30
0.0
 11
2827.20617379079
 21
588.9561227128467
 31
0.0
  0
LINE
  5
21E0
330
1F
100
AcDbEntity
  8
0
100
AcDbLine
 10
2852.20617379079
 20
646.5561227128468
 30
0.0
 11
2852.20617379079
 21
623.5561227128467
 31
0.0
  0
LINE
  5
21E1
330
1F
100
AcDbEntity
  8
0
100
AcDbLine
 10
2772.20617379079
 20
646.5561227128468
 30
0.0
 11
2772.20617379079
 21
623.5561227128467
 31
0.0
  0
LINE
  5
21E2
330
1F
100
AcDbEntity
  8
0
100
AcDbLine
 10
2863.70617379079
 20
586.9561227128468
 30
0.0
 11
2861.706173790791
 21
588.9561227128467
 31
0.0
  0
LINE
  5
21E3
330
1F
100
AcDbEntity
  8
0
100
AcDbLine
 10
2812.70617379079
 20
588.9561227128467
 30
0.0
 11
2810.70617379079
 21
586.9561227128468
 31
0.0
  0
LINE
  5
21E4
330
1F
100
AcDbEntity
  8
0
100
AcDbLine
 10
2851.20617379079
 20
622.5561227128467
 30
0.0
 11
2852.20617379079
 21
623.5561227128467
 31
0.0
  0
LINE
  5
21E5
330
1F
100
AcDbEntity
  8
0
100
AcDbLine
 10
2852.20617379079
 20
646.5561227128468
 30
0.0
 11
2851.20617379079
 21
647.5561227128467
 31
0.0
  0
LINE
  5
21E6
330
1F
100
AcDbEntity
  8
0
100
AcDbLine
 10
2773.20617379079
 20
622.5561227128467
 30
0.0
 11
2772.20617379079
 21
623.5561227128467
 31
0.0
  0
LINE
  5
21E8
330
1F
100
AcDbEntity
  8
0
  6
HIDDEN
 62
     3
 48
0.5
100
AcDbLine
 10
2787.20617379079
 20
622.5561227128467
 30
0.0
 11
2787.20617379079
 21
647.5561227128467
 31
0.0
  0
LINE
  5
21E9
330
1F
100
AcDbEntity
  8
0
  6
HIDDEN
 62
     3
 48
0.5
100
AcDbLine
 10
2777.206173790791
 20
622.5561227128467
 30
0.0
 11
2777.206173790791
 21
647.5561227128467
 31
0.0
  0
LINE
  5
21EA
330
1F
100
AcDbEntity
  8
0
  6
HIDDEN
 62
     3
 48
0.5
100
AcDbLine
 10
2786.70617379079
 20
622.5561227128467
 30
0.0
 11
2786.70617379079
 21
647.5561227128467
 31
0.0
  0
LINE
  5
21EB
330
1F
100
AcDbEntity
  8
0
  6
HIDDEN
 62
     3
 48
0.5
100
AcDbLine
 10
2777.70617379079
 20
622.5561227128467
 30
0.0
 11
2777.70617379079
 21
647.5561227128467
 31
0.0
  0
CIRCLE
  5
21EF
330
1F
100
AcDbEntity
  8
0
100
AcDbCircle
 10
2824.20617379079
 20
527.9561227128467
 30
0.0
 40
4.5
  0
CIRCLE
  5
21F0
330
1F
100
AcDbEntity
  8
0
100
AcDbCircle
 10
2824.20617379079
 20
527.9561227128467
 30
0.0
 40
4.0
  0
CIRCLE
  5
21F1
330
1F
100
AcDbEntity
  8
0
100
AcDbCircle
 10
2837.20617379079
 20
579.5561227128468
 30
0.0
 40
4.0
  0
CIRCLE
  5
21F2
330
1F
100
AcDbEntity
  8
0
100
AcDbCircle
 10
2837.20617379079
 20
579.5561227128468
 30
0.0
 40
4.5
  0
CIRCLE
  5
21F3
330
1F
100
AcDbEntity
  8
0
100
AcDbCircle
 10
2782.20617379079
 20
708.9561227128467
 30
0.0
 40
5.0
  0
CIRCLE
  5
21F4
330
1F
100
AcDbEntity
  8
0
100
AcDbCircle
 10
2782.20617379079
 20
708.9561227128467
 30
0.0
 40
4.5
  0
CIRCLE
  5
21F5
330
1F
100
AcDbEntity
  8
0
100
AcDbCircle
 10
2837.20617379079
 20
708.9561227128467
 30
0.0
 40
8.5
  0
CIRCLE
  5
21F6
330
1F
100
AcDbEntity
  8
0
100
AcDbCircle
 10
2813.206173790791
 20
684.9561227128467
 30
0.0
 40
4.25
  0
CIRCLE
  5
21F7
330
1F
100
AcDbEntity
  8
0
100
AcDbCircle
 10
2813.206173790791
 20
732.9561227128468
 30
0.0
 40
4.25
  0
CIRCLE
  5
21F8
330
1F
100
AcDbEntity
  8
0
100
AcDbCircle
 10
2861.206173790791
 20
684.9561227128467
 30
0.0
 40
4.25
  0
CIRCLE
  5
21F9
102
{ACAD_REACTORS
330
29FD
102
}
330
1F
100
AcDbEntity
  8
0
100
AcDbCircle
 10
2861.206173790791
 20
732.9561227128468
 30
0.0
 40
4.25
  0
POLYLINE
  5
21FA
330
1F
100
AcDbEntity
  8
0
100
AcDb2dPolyline
 66
     1
 10
0.0
 20
0.0
 30
0.0
  0
VERTEX
  5
21FB
330
21FA
100
AcDbEntity
  8
0
100
AcDbVertex
100
AcDb2dVertex
 10
2806.206173790791
 20
679.9561227128467
 30
0.0
  0
VERTEX
  5
21FC
330
21FA
100
AcDbEntity
  8
0
100
AcDbVertex
100
AcDb2dVertex
 10
2806.206173790791
 20
696.4561227128467
 30
0.0
  0
SEQEND
  5
21FD
330
21FA
100
AcDbEntity
  8
0
  0
POLYLINE
  5
21FE
330
1F
100
AcDbEntity
  8
0
100
AcDb2dPolyline
 66
     1
 10
0.0
 20
0.0
 30
0.0
  0
VERTEX
  5
21FF
330
21FE
100
AcDbEntity
  8
0
100
AcDbVertex
100
AcDb2dVertex
 10
2806.206173790791
 20
721.4561227128467
 30
0.0
  0
VERTEX
  5
2200
330
21FE
100
AcDbEntity
  8
0
100
AcDbVertex
100
AcDb2dVertex
 10
2806.206173790791
 20
737.9561227128467
 30
0.0
  0
VERTEX
  5
2201
330
21FE
100
AcDbEntity
  8
0
100
AcDbVertex
100
AcDb2dVertex
 10
2808.20617379079
 20
739.9561227128467
 30
0.0
  0
VERTEX
  5
2202
330
21FE
100
AcDbEntity
  8
0
100
AcDbVertex
100
AcDb2dVertex
 10
2866.20617379079
 20
739.9561227128467
 30
0.0
  0
VERTEX
  5
2203
330
21FE
100
AcDbEntity
  8
0
100
AcDbVertex
100
AcDb2dVertex
 10
2868.20617379079
 20
737.9561227128467
 30
0.0
  0
VERTEX
  5
2204
330
21FE
100
AcDbEntity
  8
0
100
AcDbVertex
100
AcDb2dVertex
 10
2868.20617379079
 20
679.9561227128467
 30
0.0
  0
VERTEX
  5
2205
330
21FE
100
AcDbEntity
  8
0
100
AcDbVertex
100
AcDb2dVertex
 10
2866.20617379079
 20
677.9561227128468
 30
0.0
  0
VERTEX
  5
2206
330
21FE
100
AcDbEntity
  8
0
100
AcDbVertex
100
AcDb2dVertex
 10
2808.20617379079
 20
677.9561227128468
 30
0.0
  0
VERTEX
  5
2207
330
21FE
100
AcDbEntity
  8
0
100
AcDbVertex
100
AcDb2dVertex
 10
2806.206173790791
 20
679.9561227128467
 30
0.0
  0
SEQEND
  5
2208
330
21FE
100
AcDbEntity
  8
0
  0
ARC
  5
220B
330
1F
100
AcDbEntity
  8
0
100
AcDbCircle
 10
2837.20617379079
 20
708.9561227128467
 30
0.0
 40
27.0
100
AcDbArc
 50
208.1445813085078
 51
151.8554186914921
  0
LINE
  5
220C
330
1F
100
AcDbEntity
  8
0
100
AcDbLine
 10
2773.20617379079
 20
647.5561227128467
 30
0.0
 11
2772.20617379079
 21
646.5561227128468
 31
0.0
  0
LINE
  5
2219
330
1F
100
AcDbEntity
  8
AM_7
100
AcDbLine
 10
2837.20617379079
 20
649.5561227128468
 30
0.0
 11
2837.20617379079
 21
506.9561227128467
 31
0.0
1001
GENIUS_GENODEF_13
1002
{
1000
HIER
1070
     0
1002
}
1002
{
1000
MANEDIT
1070
     0
1002
}
1002
{
1000
NOSEL
1070
     0
1002
}
1002
{
1000
BEHIND
1070
     0
1002
}
1002
{
1000
OTHER
1070
     0
1002
}
1002
{
1000
REACTOR
1002
}
1001
GENIUS_GENOBJ-N-CEN_13
1002
{
1000
OWNER
1000
GEN
1002
}
1001
GENIUS_GENCEN_19
1002
{
1040
2.0
1002
}
  0
LINE
  5
2227
330
1F
100
AcDbEntity
  8
AM_7
  6
AM_ISO08W050x2
100
AcDbLine
 10
2813.206173790791
 20
732.9561227128468
 30
0.0
 11
2819.45617379079
 21
732.9561227128468
 31
0.0
1001
GENIUS_GENOREF_13
1005
222B
  0
LINE
  5
2228
330
1F
100
AcDbEntity
  8
AM_7
  6
AM_ISO08W050x2
100
AcDbLine
 10
2813.206173790791
 20
732.9561227128468
 30
0.0
 11
2813.206173790791
 21
739.2061227128468
 31
0.0
1001
GENIUS_GENOREF_13
1005
222B
  0
LINE
  5
2229
330
1F
100
AcDbEntity
  8
AM_7
  6
AM_ISO08W050x2
100
AcDbLine
 10
2813.206173790791
 20
732.9561227128468
 30
0.0
 11
2806.956173790791
 21
732.9561227128468
 31
0.0
1001
GENIUS_GENOREF_13
1005
222B
  0
LINE
  5
222A
330
1F
100
AcDbEntity
  8
AM_7
  6
AM_ISO08W050x2
100
AcDbLine
 10
2813.206173790791
 20
732.9561227128468
 30
0.0
 11
2813.206173790791
 21
726.7061227128468
 31
0.0
1001
GENIUS_GENOREF_13
1005
222B
  0
POINT
  5
222B
330
1F
100
AcDbEntity
  8
0
 60
     1
100
AcDbPoint
 10
0.0
 20
0.0
 30
0.0
1001
GENIUS_GENOBJ-N-CRS_13
1002
{
1000
OWNER
1000
GEN
1002
}
1001
GENIUS_GENOENT_13
1002
{
1000
MYREF
1005
222B
1002
}
1002
{
1000
GRP
1005
0
1002
}
1001
GENIUS_GENOLIS_13
1002
{
1000
ENT
1005
222A
1005
2229
1005
2228
1005
2227
1002
}
1001
GENIUS_GENODEF_13
1002
{
1000
HIER
1070
    10
1002
}
1002
{
1000
MANEDIT
1070
     0
1002
}
1002
{
1000
NOSEL
1070
     0
1002
}
1002
{
1000
BEHIND
1070
     0
1002
}
1002
{
1000
OTHER
1070
     0
1002
}
1002
{
1000
REACTOR
1002
}
  0
LINE
  5
2239
330
1F
100
AcDbEntity
  8
AM_7
  6
AM_ISO08W050x2
100
AcDbLine
 10
2861.206173790791
 20
732.9561227128468
 30
0.0
 11
2867.45617379079
 21
732.9561227128468
 31
0.0
1001
GENIUS_GENOREF_13
1005
223D
  0
LINE
  5
223A
330
1F
100
AcDbEntity
  8
AM_7
  6
AM_ISO08W050x2
100
AcDbLine
 10
2861.206173790791
 20
732.9561227128468
 30
0.0
 11
2861.206173790791
 21
739.2061227128468
 31
0.0
1001
GENIUS_GENOREF_13
1005
223D
  0
LINE
  5
223B
330
1F
100
AcDbEntity
  8
AM_7
  6
AM_ISO08W050x2
100
AcDbLine
 10
2861.206173790791
 20
732.9561227128468
 30
0.0
 11
2854.956173790791
 21
732.9561227128468
 31
0.0
1001
GENIUS_GENOREF_13
1005
223D
  0
LINE
  5
223C
330
1F
100
AcDbEntity
  8
AM_7
  6
AM_ISO08W050x2
100
AcDbLine
 10
2861.206173790791
 20
732.9561227128468
 30
0.0
 11
2861.206173790791
 21
726.7061227128468
 31
0.0
1001
GENIUS_GENOREF_13
1005
223D
  0
POINT
  5
223D
330
1F
100
AcDbEntity
  8
0
 60
     1
100
AcDbPoint
 10
0.0
 20
0.0
 30
0.0
1001
GENIUS_GENOENT_13
1002
{
1000
MYREF
1005
223D
1002
}
1002
{
1000
GRP
1005
0
1002
}
1001
GENIUS_GENOBJ-N-CRS_13
1002
{
1000
OWNER
1000
GEN
1002
}
1001
GENIUS_GENOLIS_13
1002
{
1000
ENT
1005
223C
1005
223B
1005
223A
1005
2239
1002
}
1001
GENIUS_GENODEF_13
1002
{
1000
HIER
1070
    10
1002
}
1002
{
1000
MANEDIT
1070
     0
1002
}
1002
{
1000
NOSEL
1070
     0
1002
}
1002
{
1000
BEHIND
1070
     0
1002
}
1002
{
1000
OTHER
1070
     0
1002
}
1002
{
1000
REACTOR
1002
}
  0
LINE
  5
224B
330
1F
100
AcDbEntity
  8
AM_7
  6
AM_ISO08W050x2
100
AcDbLine
 10
2861.206173790791
 20
684.9561227128467
 30
0.0
 11
2867.45617379079
 21
684.9561227128467
 31
0.0
1001
GENIUS_GENOREF_13
1005
224F
  0
LINE
  5
224C
330
1F
100
AcDbEntity
  8
AM_7
  6
AM_ISO08W050x2
100
AcDbLine
 10
2861.206173790791
 20
684.9561227128467
 30
0.0
 11
2861.206173790791
 21
691.2061227128467
 31
0.0
1001
GENIUS_GENOREF_13
1005
224F
  0
LINE
  5
224D
330
1F
100
AcDbEntity
  8
AM_7
  6
AM_ISO08W050x2
100
AcDbLine
 10
2861.206173790791
 20
684.9561227128467
 30
0.0
 11
2854.956173790791
 21
684.9561227128467
 31
0.0
1001
GENIUS_GENOREF_13
1005
224F
  0
LINE
  5
224E
330
1F
100
AcDbEntity
  8
AM_7
  6
AM_ISO08W050x2
100
AcDbLine
 10
2861.206173790791
 20
684.9561227128467
 30
0.0
 11
2861.206173790791
 21
678.7061227128467
 31
0.0
1001
GENIUS_GENOREF_13
1005
224F
  0
POINT
  5
224F
330
1F
100
AcDbEntity
  8
0
 60
     1
100
AcDbPoint
 10
0.0
 20
0.0
 30
0.0
1001
GENIUS_GENOENT_13
1002
{
1000
MYREF
1005
224F
1002
}
1002
{
1000
GRP
1005
0
1002
}
1001
GENIUS_GENOLIS_13
1002
{
1000
ENT
1005
224E
1005
224D
1005
224C
1005
224B
1002
}
1001
GENIUS_GENOBJ-N-CRS_13
1002
{
1000
OWNER
1000
GEN
1002
}
1001
GENIUS_GENODEF_13
1002
{
1000
HIER
1070
    10
1002
}
1002
{
1000
MANEDIT
1070
     0
1002
}
1002
{
1000
NOSEL
1070
     0
1002
}
1002
{
1000
BEHIND
1070
     0
1002
}
1002
{
1000
OTHER
1070
     0
1002
}
1002
{
1000
REACTOR
1002
}
  0
LINE
  5
225D
330
1F
100
AcDbEntity
  8
AM_7
  6
AM_ISO08W050x2
100
AcDbLine
 10
2813.206173790791
 20
684.9561227128467
 30
0.0
 11
2819.45617379079
 21
684.9561227128467
 31
0.0
1001
GENIUS_GENOREF_13
1005
2261
  0
LINE
  5
225E
330
1F
100
AcDbEntity
  8
AM_7
  6
AM_ISO08W050x2
100
AcDbLine
 10
2813.206173790791
 20
684.9561227128467
 30
0.0
 11
2813.206173790791
 21
691.2061227128467
 31
0.0
1001
GENIUS_GENOREF_13
1005
2261
  0
LINE
  5
225F
330
1F
100
AcDbEntity
  8
AM_7
  6
AM_ISO08W050x2
100
AcDbLine
 10
2813.206173790791
 20
684.9561227128467
 30
0.0
 11
2806.956173790791
 21
684.9561227128467
 31
0.0
1001
GENIUS_GENOREF_13
1005
2261
  0
LINE
  5
2260
330
1F
100
AcDbEntity
  8
AM_7
  6
AM_ISO08W050x2
100
AcDbLine
 10
2813.206173790791
 20
684.9561227128467
 30
0.0
 11
2813.206173790791
 21
678.7061227128467
 31
0.0
1001
GENIUS_GENOREF_13
1005
2261
  0
POINT
  5
2261
330
1F
100
AcDbEntity
  8
0
 60
     1
100
AcDbPoint
 10
0.0
 20
0.0
 30
0.0
1001
GENIUS_GENODEF_13
1002
{
1000
HIER
1070
    10
1002
}
1002
{
1000
MANEDIT
1070
     0
1002
}
1002
{
1000
NOSEL
1070
     0
1002
}
1002
{
1000
BEHIND
1070
     0
1002
}
1002
{
1000
OTHER
1070
     0
1002
}
1002
{
1000
REACTOR
1002
}
1001
GENIUS_GENOBJ-N-CRS_13
1002
{
1000
OWNER
1000
GEN
1002
}
1001
GENIUS_GENOENT_13
1002
{
1000
MYREF
1005
2261
1002
}
1002
{
1000
GRP
1005
0
1002
}
1001
GENIUS_GENOLIS_13
1002
{
1000
ENT
1005
2260
1005
225F
1005
225E
1005
225D
1002
}
  0
LINE
  5
226F
330
1F
100
AcDbEntity
  8
AM_7
  6
AM_ISO08W050x2
100
AcDbLine
 10
2782.20617379079
 20
708.9561227128467
 30
0.0
 11
2789.20617379079
 21
708.9561227128467
 31
0.0
1001
GENIUS_GENOREF_13
1005
2273
  0
LINE
  5
2270
330
1F
100
AcDbEntity
  8
AM_7
  6
AM_ISO08W050x2
100
AcDbLine
 10
2782.20617379079
 20
708.9561227128467
 30
0.0
 11
2782.20617379079
 21
715.9561227128468
 31
0.0
1001
GENIUS_GENOREF_13
1005
2273
  0
LINE
  5
2271
330
1F
100
AcDbEntity
  8
AM_7
  6
AM_ISO08W050x2
100
AcDbLine
 10
2782.20617379079
 20
708.9561227128467
 30
0.0
 11
2775.20617379079
 21
708.9561227128467
 31
0.0
1001
GENIUS_GENOREF_13
1005
2273
  0
LINE
  5
2272
330
1F
100
AcDbEntity
  8
AM_7
  6
AM_ISO08W050x2
100
AcDbLine
 10
2782.20617379079
 20
708.9561227128467
 30
0.0
 11
2782.20617379079
 21
701.9561227128467
 31
0.0
1001
GENIUS_GENOREF_13
1005
2273
  0
POINT
  5
2273
330
1F
100
AcDbEntity
  8
0
 60
     1
100
AcDbPoint
 10
0.0
 20
0.0
 30
0.0
1001
GENIUS_GENOENT_13
1002
{
1000
MYREF
1005
2273
1002
}
1002
{
1000
GRP
1005
0
1002
}
1001
GENIUS_GENODEF_13
1002
{
1000
HIER
1070
    10
1002
}
1002
{
1000
MANEDIT
1070
     0
1002
}
1002
{
1000
NOSEL
1070
     0
1002
}
1002
{
1000
BEHIND
1070
     0
1002
}
1002
{
1000
OTHER
1070
     0
1002
}
1002
{
1000
REACTOR
1002
}
1001
GENIUS_GENOBJ-N-CRS_13
1002
{
1000
OWNER
1000
GEN
1002
}
1001
GENIUS_GENOLIS_13
1002
{
1000
ENT
1005
2272
1005
2271
1005
2270
1005
226F
1002
}
  0
LINE
  5
2281
330
1F
100
AcDbEntity
  8
AM_7
100
AcDbLine
 10
2837.20617379079
 20
708.9561227128467
 30
0.0
 11
2870.206173790791
 21
708.9561227128467
 31
0.0
1001
GENIUS_GENOREF_13
1005
2285
  0
LINE
  5
2282
330
1F
100
AcDbEntity
  8
AM_7
100
AcDbLine
 10
2837.20617379079
 20
708.9561227128467
 30
0.0
 11
2837.20617379079
 21
741.9561227128467
 31
0.0
1001
GENIUS_GENOREF_13
1005
2285
  0
LINE
  5
2283
330
1F
100
AcDbEntity
  8
AM_7
100
AcDbLine
 10
2837.20617379079
 20
708.9561227128467
 30
0.0
 11
2769.09725723465
 21
708.9561227128467
 31
0.0
1001
GENIUS_GENOREF_13
1005
2285
  0
LINE
  5
2284
330
1F
100
AcDbEntity
  8
AM_7
100
AcDbLine
 10
2837.20617379079
 20
708.9561227128467
 30
0.0
 11
2837.20617379079
 21
675.9561227128467
 31
0.0
1001
GENIUS_GENOREF_13
1005
2285
  0
POINT
  5
2285
330
1F
100
AcDbEntity
  8
0
 60
     1
100
AcDbPoint
 10
0.0
 20
0.0
 30
0.0
1001
GENIUS_GENOENT_13
1002
{
1000
MYREF
1005
2285
1002
}
1002
{
1000
GRP
1005
0
1002
}
1001
GENIUS_GENOBJ-N-CRS_13
1002
{
1000
OWNER
1000
GEN
1002
}
1001
GENIUS_GENODEF_13
1002
{
1000
HIER
1070
    10
1002
}
1002
{
1000
MANEDIT
1070
     0
1002
}
1002
{
1000
NOSEL
1070
     0
1002
}
1002
{
1000
BEHIND
1070
     0
1002
}
1002
{
1000
OTHER
1070
     0
1002
}
1002
{
1000
REACTOR
1002
}
1001
GENIUS_GENOLIS_13
1002
{
1000
ENT
1005
2284
1005
2283
1005
2282
1005
2281
1002
}
  0
LINE
  5
2294
330
1F
100
AcDbEntity
  8
AM_7
  6
AM_ISO08W050x2
100
AcDbLine
 10
2824.20617379079
 20
527.9561227128467
 30
0.0
 11
2830.70617379079
 21
527.9561227128467
 31
0.0
1001
GENIUS_GENOREF_13
1005
2298
  0
LINE
  5
2295
330
1F
100
AcDbEntity
  8
AM_7
  6
AM_ISO08W050x2
100
AcDbLine
 10
2824.20617379079
 20
527.9561227128467
 30
0.0
 11
2824.20617379079
 21
534.4561227128467
 31
0.0
1001
GENIUS_GENOREF_13
1005
2298
  0
LINE
  5
2296
330
1F
100
AcDbEntity
  8
AM_7
  6
AM_ISO08W050x2
100
AcDbLine
 10
2824.20617379079
 20
527.9561227128467
 30
0.0
 11
2817.70617379079
 21
527.9561227128467
 31
0.0
1001
GENIUS_GENOREF_13
1005
2298
  0
LINE
  5
2297
330
1F
100
AcDbEntity
  8
AM_7
  6
AM_ISO08W050x2
100
AcDbLine
 10
2824.20617379079
 20
527.9561227128467
 30
0.0
 11
2824.20617379079
 21
521.4561227128467
 31
0.0
1001
GENIUS_GENOREF_13
1005
2298
  0
POINT
  5
2298
330
1F
100
AcDbEntity
  8
0
 60
     1
100
AcDbPoint
 10
0.0
 20
0.0
 30
0.0
1001
GENIUS_GENOBJ-N-CRS_13
1002
{
1000
OWNER
1000
GEN
1002
}
1001
GENIUS_GENOLIS_13
1002
{
1000
ENT
1005
2297
1005
2296
1005
2295
1005
2294
1002
}
1001
GENIUS_GENODEF_13
1002
{
1000
HIER
1070
    10
1002
}
1002
{
1000
MANEDIT
1070
     0
1002
}
1002
{
1000
NOSEL
1070
     0
1002
}
1002
{
1000
BEHIND
1070
     0
1002
}
1002
{
1000
OTHER
1070
     0
1002
}
1002
{
1000
REACTOR
1002
}
1001
GENIUS_GENOENT_13
1002
{
1000
MYREF
1005
2298
1002
}
1002
{
1000
GRP
1005
0
1002
}
  0
LINE
  5
22A5
330
1F
100
AcDbEntity
  8
AM_7
100
AcDbLine
 10
2782.20617379079
 20
649.5561227128468
 30
0.0
 11
2782.20617379079
 21
620.5561227128468
 31
0.0
1001
GENIUS_GENODEF_13
1002
{
1000
HIER
1070
     0
1002
}
1002
{
1000
MANEDIT
1070
     0
1002
}
1002
{
1000
NOSEL
1070
     0
1002
}
1002
{
1000
BEHIND
1070
     0
1002
}
1002
{
1000
OTHER
1070
     0
1002
}
1002
{
1000
REACTOR
1002
}
1001
GENIUS_GENOBJ-N-CEN_13
1002
{
1000
OWNER
1000
GEN
1002
}
1001
GENIUS_GENCEN_19
1002
{
1040
2.0
1002
}
  0
DIMENSION
  5
22A7
330
1F
100
AcDbEntity
  8
AM_5
100
AcDbDimension
  2
*D15
 10
2881.20617379079
 20
588.9561227128467
 30
0.0
 11
2878.70617379079
 21
548.9561227128472
 31
0.0
 70
    32
 71
     5
 42
80.00000000000005
  3
AM_ISO$0
100
AcDbAlignedDimension
 13
2867.70617379079
 23
508.9561227128467
 33
0.0
 14
2861.706173790791
 24
588.9561227128467
 34
0.0
 50
90.0
100
AcDbRotatedDimension
1001
ACAD
1000
DSTYLE
1002
{
1070
    40
1040
1.0
1070
   144
1040
1.0
1070
   272
1070
     8
1002
}
  0
DIMENSION
  5
22A8
330
1F
100
AcDbEntity
  8
AM_5
100
AcDbDimension
  2
*D16
 10
2891.20617379079
 20
622.5561227128467
 30
0.0
 11
2888.70617379079
 21
565.7561227128471
 31
0.0
 70
    32
 71
     5
 42
113.6000000000001
  3
AM_ISO$0
100
AcDbAlignedDimension
 13
2867.70617379079
 23
508.9561227128467
 33
0.0
 14
2851.20617379079
 24
622.5561227128467
 34
0.0
 50
90.0
100
AcDbRotatedDimension
1001
ACAD
1000
DSTYLE
1002
{
1070
    40
1040
1.0
1070
   144
1040
1.0
1070
   272
1070
     8
1002
}
  0
DIMENSION
  5
22A9
330
1F
100
AcDbEntity
  8
AM_5
100
AcDbDimension
  2
*D17
 10
2793.206172790791
 20
508.9561227128467
 30
0.0
 11
2790.706172790791
 21
522.4561227128471
 31
0.0
 70
    32
 71
     5
 42
26.99999999999994
  3
AM_ISO$0
100
AcDbAlignedDimension
 13
2806.70617379079
 23
535.9561227128467
 33
0.0
 14
2806.70617379079
 24
508.9561227128467
 34
0.0
 50
90.0
100
AcDbRotatedDimension
1001
ACAD
1000
DSTYLE
1002
{
1070
    40
1040
1.0
1070
   144
1040
1.0
1070
   272
1070
     8
1002
}
  0
DIMENSION
  5
22AA
330
1F
100
AcDbEntity
  8
AM_5
100
AcDbDimension
  2
*D18
 10
2891.20617379079
 20
622.5561227128467
 30
0.0
 11
2888.70617379079
 21
635.0561227128472
 31
0.0
 70
    32
 71
     5
 42
25.0
  3
AM_ISO$0
100
AcDbAlignedDimension
 13
2851.20617379079
 23
647.5561227128467
 33
0.0
 14
2851.20617379079
 24
622.5561227128467
 34
0.0
 50
90.0
100
AcDbRotatedDimension
1001
ACAD
1000
DSTYLE
1002
{
1070
    40
1040
1.0
1070
   144
1040
1.0
1070
   272
1070
     8
1002
}
  0
DIMENSION
  5
2348
330
1F
100
AcDbEntity
  8
AM_5
100
AcDbDimension
  2
*D19
 10
2892.206173790791
 20
739.9561227128467
 30
0.0
 11
2889.706173790791
 21
708.9561227128472
 31
0.0
 70
    32
 71
     5
 42
62.0
  3
AM_ISO$0
100
AcDbAlignedDimension
 13
2866.20617379079
 23
677.9561227128468
 33
0.0
 14
2866.20617379079
 24
739.9561227128467
 34
0.0
 50
90.0
100
AcDbRotatedDimension
1001
ACAD
1000
DSTYLE
1002
{
1070
    40
1040
1.0
1070
   144
1040
1.0
1070
   272
1070
     8
1002
}
  0
DIMENSION
  5
2349
330
1F
100
AcDbEntity
  8
AM_5
100
AcDbDimension
  2
*D20
 10
2882.206173790791
 20
732.9561227128468
 30
0.0
 11
2879.706173790791
 21
708.9561227128472
 31
0.0
 70
    32
 71
     5
 42
48.0
  3
AM_ISO$0
100
AcDbAlignedDimension
 13
2867.45617379079
 23
684.9561227128467
 33
0.0
 14
2867.45617379079
 24
732.9561227128468
 34
0.0
 50
90.0
100
AcDbRotatedDimension
1001
ACAD
1000
DSTYLE
1002
{
1070
    40
1040
1.0
1070
   144
1040
1.0
1070
   272
1070
     8
1002
}
  0
LINE
  5
23EE
330
1F
100
AcDbEntity
  8
0
100
AcDbLine
 10
2047.657803487452
 20
356.501742710901
 30
0.0
 11
2125.657803487452
 21
356.501742710901
 31
0.0
  0
LINE
  5
23EF
330
1F
100
AcDbEntity
  8
0
100
AcDbLine
 10
2126.657803487452
 20
332.501742710901
 30
0.0
 11
2126.657803487452
 21
355.501742710901
 31
0.0
  0
LINE
  5
23F1
330
1F
100
AcDbEntity
  8
0
100
AcDbLine
 10
2046.657803487452
 20
332.501742710901
 30
0.0
 11
2046.657803487452
 21
355.501742710901
 31
0.0
  0
LINE
  5
23F2
330
1F
100
AcDbEntity
  8
0
100
AcDbLine
 10
2125.657803487452
 20
356.501742710901
 30
0.0
 11
2126.657803487452
 21
355.501742710901
 31
0.0
  0
LINE
  5
23F3
330
1F
100
AcDbEntity
  8
0
100
AcDbLine
 10
2126.657803487452
 20
332.501742710901
 30
0.0
 11
2125.657803487452
 21
331.501742710901
 31
0.0
  0
LINE
  5
23F4
330
1F
100
AcDbEntity
  8
0
100
AcDbLine
 10
2047.657803487452
 20
331.501742710901
 30
0.0
 11
2046.657803487452
 21
332.501742710901
 31
0.0
  0
LINE
  5
23F5
330
1F
100
AcDbEntity
  8
0
100
AcDbLine
 10
2046.657803487452
 20
355.501742710901
 30
0.0
 11
2047.657803487452
 21
356.501742710901
 31
0.0
  0
LINE
  5
23F6
330
1F
100
AcDbEntity
  8
0
100
AcDbLine
 10
2075.657803487452
 20
138.0125204969318
 30
0.0
 11
2147.657803487452
 21
138.0125204969318
 31
0.0
  0
LINE
  5
23F7
330
1F
100
AcDbEntity
  8
0
100
AcDbLine
 10
2075.657803487452
 20
165.0125204969317
 30
0.0
 11
2147.657803487452
 21
165.0125204969317
 31
0.0
  0
LINE
  5
23F8
330
1F
100
AcDbEntity
  8
0
100
AcDbLine
 10
2080.157803487452
 20
218.0125204969318
 30
0.0
 11
2143.157803487452
 21
218.0125204969318
 31
0.0
  0
LINE
  5
23F9
330
1F
100
AcDbEntity
  8
0
100
AcDbLine
 10
2121.657803487452
 20
252.5125204969318
 30
0.0
 11
2121.657803487452
 21
218.0125204969318
 31
0.0
  0
LINE
  5
23FA
330
1F
100
AcDbEntity
  8
0
100
AcDbLine
 10
2101.657803487452
 20
252.5125204969318
 30
0.0
 11
2101.657803487452
 21
218.0125204969318
 31
0.0
  0
LINE
  5
23FB
330
1F
100
AcDbEntity
  8
0
100
AcDbLine
 10
2126.657803487452
 20
276.5125204969318
 30
0.0
 11
2126.657803487452
 21
253.5125204969318
 31
0.0
  0
LINE
  5
23FC
330
1F
100
AcDbEntity
  8
0
100
AcDbLine
 10
2046.657803487452
 20
276.5125204969318
 30
0.0
 11
2046.657803487452
 21
253.5125204969318
 31
0.0
  0
LINE
  5
23FD
330
1F
100
AcDbEntity
  8
0
100
AcDbLine
 10
2125.657803487452
 20
252.5125204969318
 30
0.0
 11
2126.657803487452
 21
253.5125204969318
 31
0.0
  0
LINE
  5
23FE
330
1F
100
AcDbEntity
  8
0
100
AcDbLine
 10
2126.657803487452
 20
276.5125204969318
 30
0.0
 11
2125.657803487452
 21
277.5125204969318
 31
0.0
  0
LINE
  5
23FF
330
1F
100
AcDbEntity
  8
0
100
AcDbLine
 10
2047.657803487452
 20
252.5125204969318
 30
0.0
 11
2046.657803487452
 21
253.5125204969318
 31
0.0
  0
LINE
  5
2401
330
1F
100
AcDbEntity
  8
0
  6
HIDDEN
 62
     3
 48
0.5
100
AcDbLine
 10
2061.657803487452
 20
252.5125204969318
 30
0.0
 11
2061.657803487452
 21
277.5125204969318
 31
0.0
  0
LINE
  5
2402
330
1F
100
AcDbEntity
  8
0
  6
HIDDEN
 62
     3
 48
0.5
100
AcDbLine
 10
2051.657803487452
 20
252.5125204969318
 30
0.0
 11
2051.657803487452
 21
277.5125204969318
 31
0.0
  0
LINE
  5
2403
330
1F
100
AcDbEntity
  8
0
  6
HIDDEN
 62
     3
 48
0.5
100
AcDbLine
 10
2061.157803487452
 20
252.5125204969318
 30
0.0
 11
2061.157803487452
 21
277.5125204969318
 31
0.0
  0
LINE
  5
2404
330
1F
100
AcDbEntity
  8
0
  6
HIDDEN
 62
     3
 48
0.5
100
AcDbLine
 10
2052.157803487452
 20
252.5125204969318
 30
0.0
 11
2052.157803487452
 21
277.5125204969318
 31
0.0
  0
CIRCLE
  5
2408
330
1F
100
AcDbEntity
  8
0
100
AcDbCircle
 10
2096.157803487452
 20
155.7125204969318
 30
0.0
 40
4.5
  0
CIRCLE
  5
2409
330
1F
100
AcDbEntity
  8
0
100
AcDbCircle
 10
2096.157803487452
 20
155.7125204969318
 30
0.0
 40
4.0
  0
CIRCLE
  5
240A
330
1F
100
AcDbEntity
  8
0
100
AcDbCircle
 10
2111.657803487452
 20
207.0125204969317
 30
0.0
 40
4.0
  0
CIRCLE
  5
240B
330
1F
100
AcDbEntity
  8
0
100
AcDbCircle
 10
2111.657803487452
 20
207.0125204969317
 30
0.0
 40
4.5
  0
CIRCLE
  5
240C
330
1F
100
AcDbEntity
  8
0
100
AcDbCircle
 10
2056.657803487452
 20
344.001742710901
 30
0.0
 40
5.0
  0
CIRCLE
  5
240D
330
1F
100
AcDbEntity
  8
0
100
AcDbCircle
 10
2056.657803487452
 20
344.001742710901
 30
0.0
 40
4.5
  0
CIRCLE
  5
240E
330
1F
100
AcDbEntity
  8
0
100
AcDbCircle
 10
2111.657803487452
 20
344.001742710901
 30
0.0
 40
8.5
  0
ARC
  5
2411
330
1F
100
AcDbEntity
  8
0
100
AcDbCircle
 10
2111.657803487452
 20
344.001742710901
 30
0.0
 40
32.5
100
AcDbArc
 50
203.7799947314112
 51
156.2200052685888
  0
POLYLINE
  5
2412
330
1F
100
AcDbEntity
  8
0
100
AcDb2dPolyline
 66
     1
 10
0.0
 20
0.0
 30
0.0
  0
VERTEX
  5
2413
330
2412
100
AcDbEntity
  8
0
100
AcDbVertex
100
AcDb2dVertex
 10
2074.657803487452
 20
356.501742710901
 30
0.0
  0
VERTEX
  5
2414
330
2412
100
AcDbEntity
  8
0
100
AcDbVertex
100
AcDb2dVertex
 10
2074.657803487452
 20
377.7088494920875
 30
0.0
  0
VERTEX
  5
2415
330
2412
100
AcDbEntity
  8
0
100
AcDbVertex
100
AcDb2dVertex
 10
2077.950696706265
 20
381.001742710901
 30
0.0
  0
VERTEX
  5
2416
330
2412
100
AcDbEntity
  8
0
100
AcDbVertex
100
AcDb2dVertex
 10
2145.364910268639
 20
381.001742710901
 30
0.0
  0
VERTEX
  5
2417
330
2412
100
AcDbEntity
  8
0
100
AcDbVertex
100
AcDb2dVertex
 10
2148.657803487452
 20
377.7088494920875
 30
0.0
  0
VERTEX
  5
2418
330
2412
100
AcDbEntity
  8
0
100
AcDbVertex
100
AcDb2dVertex
 10
2148.657803487452
 20
310.2946359297145
 30
0.0
  0
VERTEX
  5
2419
330
2412
100
AcDbEntity
  8
0
100
AcDbVertex
100
AcDb2dVertex
 10
2145.364910268639
 20
307.001742710901
 30
0.0
  0
VERTEX
  5
241A
330
2412
100
AcDbEntity
  8
0
100
AcDbVertex
100
AcDb2dVertex
 10
2077.950696706265
 20
307.001742710901
 30
0.0
  0
VERTEX
  5
241B
330
2412
100
AcDbEntity
  8
0
100
AcDbVertex
100
AcDb2dVertex
 10
2074.657803487452
 20
310.2946359297145
 30
0.0
  0
SEQEND
  5
241C
330
2412
100
AcDbEntity
  8
0
  0
POLYLINE
  5
241D
330
1F
100
AcDbEntity
  8
0
100
AcDb2dPolyline
 66
     1
 10
0.0
 20
0.0
 30
0.0
  0
VERTEX
  5
241E
330
241D
100
AcDbEntity
  8
0
100
AcDbVertex
100
AcDb2dVertex
 10
2074.657803487452
 20
310.2946359297145
 30
0.0
  0
VERTEX
  5
241F
330
241D
100
AcDbEntity
  8
0
100
AcDbVertex
100
AcDb2dVertex
 10
2074.657803487452
 20
331.501742710901
 30
0.0
  0
SEQEND
  5
2420
330
241D
100
AcDbEntity
  8
0
  0
CIRCLE
  5
2421
330
1F
100
AcDbEntity
  8
0
100
AcDbCircle
 10
2083.157803487452
 20
372.501742710901
 30
0.0
 40
4.25
  0
CIRCLE
  5
2422
330
1F
100
AcDbEntity
  8
0
100
AcDbCircle
 10
2083.157803487452
 20
315.501742710901
 30
0.0
 40
4.25
  0
CIRCLE
  5
2423
330
1F
100
AcDbEntity
  8
0
100
AcDbCircle
 10
2140.157803487452
 20
315.501742710901
 30
0.0
 40
4.25
  0
CIRCLE
  5
2424
102
{ACAD_REACTORS
330
2A1D
102
}
330
1F
100
AcDbEntity
  8
0
100
AcDbCircle
 10
2140.157803487452
 20
372.501742710901
 30
0.0
 40
4.25
  0
LINE
  5
2425
330
1F
100
AcDbEntity
  8
0
100
AcDbLine
 10
2047.657803487452
 20
331.501742710901
 30
0.0
 11
2125.657803487452
 21
331.501742710901
 31
0.0
  0
LINE
  5
2426
330
1F
100
AcDbEntity
  8
0
100
AcDbLine
 10
2046.657803487452
 20
276.5125204969318
 30
0.0
 11
2047.657803487452
 21
277.5125204969318
 31
0.0
  0
LINE
  5
2427
330
1F
100
AcDbEntity
  8
0
100
AcDbLine
 10
2047.657803487452
 20
252.5125204969318
 30
0.0
 11
2125.657803487452
 21
252.5125204969318
 31
0.0
  0
LINE
  5
2428
330
1F
100
AcDbEntity
  8
0
100
AcDbLine
 10
2047.657803487452
 20
277.5125204969318
 30
0.0
 11
2125.657803487452
 21
277.5125204969318
 31
0.0
  0
LINE
  5
2429
330
1F
100
AcDbEntity
  8
0
100
AcDbLine
 10
2144.157803487452
 20
217.0125204969318
 30
0.0
 11
2144.157803487452
 21
165.0125204969317
 31
0.0
  0
LINE
  5
242A
330
1F
100
AcDbEntity
  8
0
100
AcDbLine
 10
2079.157803487452
 20
217.0125204969318
 30
0.0
 11
2079.157803487452
 21
165.0125204969317
 31
0.0
  0
LINE
  5
242B
330
1F
100
AcDbEntity
  8
0
100
AcDbLine
 10
2080.157803487452
 20
218.0125204969318
 30
0.0
 11
2079.157803487452
 21
217.0125204969318
 31
0.0
  0
LINE
  5
242C
330
1F
100
AcDbEntity
  8
0
100
AcDbLine
 10
2143.157803487452
 20
218.0125204969318
 30
0.0
 11
2144.157803487452
 21
217.0125204969318
 31
0.0
  0
LINE
  5
242D
330
1F
100
AcDbEntity
  8
0
100
AcDbLine
 10
2074.657803487452
 20
164.0125204969317
 30
0.0
 11
2074.657803487452
 21
139.0125204969318
 31
0.0
  0
LINE
  5
242E
330
1F
100
AcDbEntity
  8
0
100
AcDbLine
 10
2148.657803487452
 20
164.0125204969317
 30
0.0
 11
2148.657803487452
 21
139.0125204969318
 31
0.0
  0
LINE
  5
242F
330
1F
100
AcDbEntity
  8
0
100
AcDbLine
 10
2074.657803487452
 20
164.0125204969317
 30
0.0
 11
2075.657803487452
 21
165.0125204969317
 31
0.0
  0
LINE
  5
2430
330
1F
100
AcDbEntity
  8
0
100
AcDbLine
 10
2074.657803487452
 20
139.0125204969318
 30
0.0
 11
2075.657803487452
 21
138.0125204969318
 31
0.0
  0
LINE
  5
2431
330
1F
100
AcDbEntity
  8
0
100
AcDbLine
 10
2147.657803487452
 20
165.0125204969317
 30
0.0
 11
2148.657803487452
 21
164.0125204969317
 31
0.0
  0
LINE
  5
2432
330
1F
100
AcDbEntity
  8
0
100
AcDbLine
 10
2148.657803487452
 20
139.0125204969318
 30
0.0
 11
2147.657803487452
 21
138.0125204969318
 31
0.0
  0
LINE
  5
2440
330
1F
100
AcDbEntity
  8
AM_7
100
AcDbLine
 10
2056.657803487452
 20
279.5125204969318
 30
0.0
 11
2056.657803487452
 21
250.5125204969318
 31
0.0
1001
GENIUS_GENODEF_13
1002
{
1000
HIER
1070
     0
1002
}
1002
{
1000
MANEDIT
1070
     0
1002
}
1002
{
1000
NOSEL
1070
     0
1002
}
1002
{
1000
BEHIND
1070
     0
1002
}
1002
{
1000
OTHER
1070
     0
1002
}
1002
{
1000
REACTOR
1002
}
1001
GENIUS_GENOBJ-N-CEN_13
1002
{
1000
OWNER
1000
GEN
1002
}
1001
GENIUS_GENCEN_19
1002
{
1040
2.0
1002
}
  0
LINE
  5
244D
330
1F
100
AcDbEntity
  8
AM_7
100
AcDbLine
 10
2111.657803487452
 20
279.5125204969318
 30
0.0
 11
2111.657803487452
 21
134.6412929222456
 31
0.0
1001
GENIUS_GENODEF_13
1002
{
1000
HIER
1070
     0
1002
}
1002
{
1000
MANEDIT
1070
     0
1002
}
1002
{
1000
NOSEL
1070
     0
1002
}
1002
{
1000
BEHIND
1070
     0
1002
}
1002
{
1000
OTHER
1070
     0
1002
}
1002
{
1000
REACTOR
1002
}
1001
GENIUS_GENOBJ-N-CEN_13
1002
{
1000
OWNER
1000
GEN
1002
}
1001
GENIUS_GENCEN_19
1002
{
1040
2.0
1002
}
  0
LINE
  5
245B
330
1F
100
AcDbEntity
  8
AM_7
  6
AM_ISO08W050x2
100
AcDbLine
 10
2111.657803487452
 20
207.0125204969317
 30
0.0
 11
2118.157803487452
 21
207.0125204969317
 31
0.0
1001
GENIUS_GENOREF_13
1005
245F
  0
LINE
  5
245C
330
1F
100
AcDbEntity
  8
AM_7
  6
AM_ISO08W050x2
100
AcDbLine
 10
2111.657803487452
 20
207.0125204969317
 30
0.0
 11
2111.657803487452
 21
213.5125204969317
 31
0.0
1001
GENIUS_GENOREF_13
1005
245F
  0
LINE
  5
245D
330
1F
100
AcDbEntity
  8
AM_7
  6
AM_ISO08W050x2
100
AcDbLine
 10
2111.657803487452
 20
207.0125204969317
 30
0.0
 11
2105.157803487452
 21
207.0125204969317
 31
0.0
1001
GENIUS_GENOREF_13
1005
245F
  0
LINE
  5
245E
330
1F
100
AcDbEntity
  8
AM_7
  6
AM_ISO08W050x2
100
AcDbLine
 10
2111.657803487452
 20
207.0125204969317
 30
0.0
 11
2111.657803487452
 21
200.5125204969318
 31
0.0
1001
GENIUS_GENOREF_13
1005
245F
  0
POINT
  5
245F
330
1F
100
AcDbEntity
  8
0
 60
     1
100
AcDbPoint
 10
0.0
 20
0.0
 30
0.0
1001
GENIUS_GENOBJ-N-CRS_13
1002
{
1000
OWNER
1000
GEN
1002
}
1001
GENIUS_GENOENT_13
1002
{
1000
MYREF
1005
245F
1002
}
1002
{
1000
GRP
1005
0
1002
}
1001
GENIUS_GENODEF_13
1002
{
1000
HIER
1070
    10
1002
}
1002
{
1000
MANEDIT
1070
     0
1002
}
1002
{
1000
NOSEL
1070
     0
1002
}
1002
{
1000
BEHIND
1070
     0
1002
}
1002
{
1000
OTHER
1070
     0
1002
}
1002
{
1000
REACTOR
1002
}
1001
GENIUS_GENOLIS_13
1002
{
1000
ENT
1005
245E
1005
245D
1005
245C
1005
245B
1002
}
  0
LINE
  5
246D
330
1F
100
AcDbEntity
  8
AM_7
  6
AM_ISO08W050x2
100
AcDbLine
 10
2096.157803487452
 20
155.7125204969318
 30
0.0
 11
2102.657803487452
 21
155.7125204969318
 31
0.0
1001
GENIUS_GENOREF_13
1005
2471
  0
LINE
  5
246E
330
1F
100
AcDbEntity
  8
AM_7
  6
AM_ISO08W050x2
100
AcDbLine
 10
2096.157803487452
 20
155.7125204969318
 30
0.0
 11
2096.157803487452
 21
162.2125204969318
 31
0.0
1001
GENIUS_GENOREF_13
1005
2471
  0
LINE
  5
246F
330
1F
100
AcDbEntity
  8
AM_7
  6
AM_ISO08W050x2
100
AcDbLine
 10
2096.157803487452
 20
155.7125204969318
 30
0.0
 11
2089.657803487452
 21
155.7125204969318
 31
0.0
1001
GENIUS_GENOREF_13
1005
2471
  0
LINE
  5
2470
330
1F
100
AcDbEntity
  8
AM_7
  6
AM_ISO08W050x2
100
AcDbLine
 10
2096.157803487452
 20
155.7125204969318
 30
0.0
 11
2096.157803487452
 21
149.2125204969317
 31
0.0
1001
GENIUS_GENOREF_13
1005
2471
  0
POINT
  5
2471
330
1F
100
AcDbEntity
  8
0
 60
     1
100
AcDbPoint
 10
0.0
 20
0.0
 30
0.0
1001
GENIUS_GENOENT_13
1002
{
1000
MYREF
1005
2471
1002
}
1002
{
1000
GRP
1005
0
1002
}
1001
GENIUS_GENOBJ-N-CRS_13
1002
{
1000
OWNER
1000
GEN
1002
}
1001
GENIUS_GENOLIS_13
1002
{
1000
ENT
1005
2470
1005
246F
1005
246E
1005
246D
1002
}
1001
GENIUS_GENODEF_13
1002
{
1000
HIER
1070
    10
1002
}
1002
{
1000
MANEDIT
1070
     0
1002
}
1002
{
1000
NOSEL
1070
     0
1002
}
1002
{
1000
BEHIND
1070
     0
1002
}
1002
{
1000
OTHER
1070
     0
1002
}
1002
{
1000
REACTOR
1002
}
  0
LINE
  5
247F
330
1F
100
AcDbEntity
  8
AM_7
  6
AM_ISO08W050x2
100
AcDbLine
 10
2056.657803487452
 20
344.001742710901
 30
0.0
 11
2063.157803487452
 21
344.001742710901
 31
0.0
1001
GENIUS_GENOREF_13
1005
2483
  0
LINE
  5
2480
330
1F
100
AcDbEntity
  8
AM_7
  6
AM_ISO08W050x2
100
AcDbLine
 10
2056.657803487452
 20
344.001742710901
 30
0.0
 11
2056.657803487452
 21
350.501742710901
 31
0.0
1001
GENIUS_GENOREF_13
1005
2483
  0
LINE
  5
2481
330
1F
100
AcDbEntity
  8
AM_7
  6
AM_ISO08W050x2
100
AcDbLine
 10
2056.657803487452
 20
344.001742710901
 30
0.0
 11
2050.157803487452
 21
344.001742710901
 31
0.0
1001
GENIUS_GENOREF_13
1005
2483
  0
LINE
  5
2482
330
1F
100
AcDbEntity
  8
AM_7
  6
AM_ISO08W050x2
100
AcDbLine
 10
2056.657803487452
 20
344.001742710901
 30
0.0
 11
2056.657803487452
 21
337.501742710901
 31
0.0
1001
GENIUS_GENOREF_13
1005
2483
  0
POINT
  5
2483
330
1F
100
AcDbEntity
  8
0
 60
     1
100
AcDbPoint
 10
0.0
 20
0.0
 30
0.0
1001
GENIUS_GENODEF_13
1002
{
1000
HIER
1070
    10
1002
}
1002
{
1000
MANEDIT
1070
     0
1002
}
1002
{
1000
NOSEL
1070
     0
1002
}
1002
{
1000
BEHIND
1070
     0
1002
}
1002
{
1000
OTHER
1070
     0
1002
}
1002
{
1000
REACTOR
1002
}
1001
GENIUS_GENOLIS_13
1002
{
1000
ENT
1005
2482
1005
2481
1005
2480
1005
247F
1002
}
1001
GENIUS_GENOBJ-N-CRS_13
1002
{
1000
OWNER
1000
GEN
1002
}
1001
GENIUS_GENOENT_13
1002
{
1000
MYREF
1005
2483
1002
}
1002
{
1000
GRP
1005
0
1002
}
  0
LINE
  5
2491
330
1F
100
AcDbEntity
  8
AM_7
100
AcDbLine
 10
2111.657803487452
 20
344.001742710901
 30
0.0
 11
2150.657803487452
 21
344.001742710901
 31
0.0
1001
GENIUS_GENOREF_13
1005
2495
  0
LINE
  5
2492
330
1F
100
AcDbEntity
  8
AM_7
100
AcDbLine
 10
2111.657803487452
 20
344.001742710901
 30
0.0
 11
2111.657803487452
 21
383.001742710901
 31
0.0
1001
GENIUS_GENOREF_13
1005
2495
  0
LINE
  5
2493
330
1F
100
AcDbEntity
  8
AM_7
100
AcDbLine
 10
2111.657803487452
 20
344.001742710901
 30
0.0
 11
2042.902459926082
 21
344.001742710901
 31
0.0
1001
GENIUS_GENOREF_13
1005
2495
  0
LINE
  5
2494
330
1F
100
AcDbEntity
  8
AM_7
100
AcDbLine
 10
2111.657803487452
 20
344.001742710901
 30
0.0
 11
2111.657803487452
 21
305.001742710901
 31
0.0
1001
GENIUS_GENOREF_13
1005
2495
  0
POINT
  5
2495
330
1F
100
AcDbEntity
  8
0
 60
     1
100
AcDbPoint
 10
0.0
 20
0.0
 30
0.0
1001
GENIUS_GENODEF_13
1002
{
1000
HIER
1070
    10
1002
}
1002
{
1000
MANEDIT
1070
     0
1002
}
1002
{
1000
NOSEL
1070
     0
1002
}
1002
{
1000
BEHIND
1070
     0
1002
}
1002
{
1000
OTHER
1070
     0
1002
}
1002
{
1000
REACTOR
1002
}
1001
GENIUS_GENOLIS_13
1002
{
1000
ENT
1005
2494
1005
2493
1005
2492
1005
2491
1002
}
1001
GENIUS_GENOENT_13
1002
{
1000
MYREF
1005
2495
1002
}
1002
{
1000
GRP
1005
0
1002
}
1001
GENIUS_GENOBJ-N-CRS_13
1002
{
1000
OWNER
1000
GEN
1002
}
  0
LINE
  5
24A3
330
1F
100
AcDbEntity
  8
AM_7
  6
AM_ISO08W050x2
100
AcDbLine
 10
2083.157803487452
 20
372.501742710901
 30
0.0
 11
2089.407803487452
 21
372.501742710901
 31
0.0
1001
GENIUS_GENOREF_13
1005
24A7
  0
LINE
  5
24A4
330
1F
100
AcDbEntity
  8
AM_7
  6
AM_ISO08W050x2
100
AcDbLine
 10
2083.157803487452
 20
372.501742710901
 30
0.0
 11
2083.157803487452
 21
378.751742710901
 31
0.0
1001
GENIUS_GENOREF_13
1005
24A7
  0
LINE
  5
24A5
330
1F
100
AcDbEntity
  8
AM_7
  6
AM_ISO08W050x2
100
AcDbLine
 10
2083.157803487452
 20
372.501742710901
 30
0.0
 11
2076.907803487452
 21
372.501742710901
 31
0.0
1001
GENIUS_GENOREF_13
1005
24A7
  0
LINE
  5
24A6
330
1F
100
AcDbEntity
  8
AM_7
  6
AM_ISO08W050x2
100
AcDbLine
 10
2083.157803487452
 20
372.501742710901
 30
0.0
 11
2083.157803487452
 21
366.251742710901
 31
0.0
1001
GENIUS_GENOREF_13
1005
24A7
  0
POINT
  5
24A7
330
1F
100
AcDbEntity
  8
0
 60
     1
100
AcDbPoint
 10
0.0
 20
0.0
 30
0.0
1001
GENIUS_GENOENT_13
1002
{
1000
MYREF
1005
24A7
1002
}
1002
{
1000
GRP
1005
0
1002
}
1001
GENIUS_GENOBJ-N-CRS_13
1002
{
1000
OWNER
1000
GEN
1002
}
1001
GENIUS_GENOLIS_13
1002
{
1000
ENT
1005
24A6
1005
24A5
1005
24A4
1005
24A3
1002
}
1001
GENIUS_GENODEF_13
1002
{
1000
HIER
1070
    10
1002
}
1002
{
1000
MANEDIT
1070
     0
1002
}
1002
{
1000
NOSEL
1070
     0
1002
}
1002
{
1000
BEHIND
1070
     0
1002
}
1002
{
1000
OTHER
1070
     0
1002
}
1002
{
1000
REACTOR
1002
}
  0
LINE
  5
24B5
330
1F
100
AcDbEntity
  8
AM_7
  6
AM_ISO08W050x2
100
AcDbLine
 10
2140.157803487452
 20
372.501742710901
 30
0.0
 11
2146.407803487452
 21
372.501742710901
 31
0.0
1001
GENIUS_GENOREF_13
1005
24B9
  0
LINE
  5
24B6
330
1F
100
AcDbEntity
  8
AM_7
  6
AM_ISO08W050x2
100
AcDbLine
 10
2140.157803487452
 20
372.501742710901
 30
0.0
 11
2140.157803487452
 21
378.751742710901
 31
0.0
1001
GENIUS_GENOREF_13
1005
24B9
  0
LINE
  5
24B7
330
1F
100
AcDbEntity
  8
AM_7
  6
AM_ISO08W050x2
100
AcDbLine
 10
2140.157803487452
 20
372.501742710901
 30
0.0
 11
2133.907803487452
 21
372.501742710901
 31
0.0
1001
GENIUS_GENOREF_13
1005
24B9
  0
LINE
  5
24B8
330
1F
100
AcDbEntity
  8
AM_7
  6
AM_ISO08W050x2
100
AcDbLine
 10
2140.157803487452
 20
372.501742710901
 30
0.0
 11
2140.157803487452
 21
366.251742710901
 31
0.0
1001
GENIUS_GENOREF_13
1005
24B9
  0
POINT
  5
24B9
330
1F
100
AcDbEntity
  8
0
 60
     1
100
AcDbPoint
 10
0.0
 20
0.0
 30
0.0
1001
GENIUS_GENOBJ-N-CRS_13
1002
{
1000
OWNER
1000
GEN
1002
}
1001
GENIUS_GENOENT_13
1002
{
1000
MYREF
1005
24B9
1002
}
1002
{
1000
GRP
1005
0
1002
}
1001
GENIUS_GENOLIS_13
1002
{
1000
ENT
1005
24B8
1005
24B7
1005
24B6
1005
24B5
1002
}
1001
GENIUS_GENODEF_13
1002
{
1000
HIER
1070
    10
1002
}
1002
{
1000
MANEDIT
1070
     0
1002
}
1002
{
1000
NOSEL
1070
     0
1002
}
1002
{
1000
BEHIND
1070
     0
1002
}
1002
{
1000
OTHER
1070
     0
1002
}
1002
{
1000
REACTOR
1002
}
  0
LINE
  5
24C7
330
1F
100
AcDbEntity
  8
AM_7
  6
AM_ISO08W050x2
100
AcDbLine
 10
2140.157803487452
 20
315.501742710901
 30
0.0
 11
2146.407803487452
 21
315.501742710901
 31
0.0
1001
GENIUS_GENOREF_13
1005
24CB
  0
LINE
  5
24C8
330
1F
100
AcDbEntity
  8
AM_7
  6
AM_ISO08W050x2
100
AcDbLine
 10
2140.157803487452
 20
315.501742710901
 30
0.0
 11
2140.157803487452
 21
321.751742710901
 31
0.0
1001
GENIUS_GENOREF_13
1005
24CB
  0
LINE
  5
24C9
330
1F
100
AcDbEntity
  8
AM_7
  6
AM_ISO08W050x2
100
AcDbLine
 10
2140.157803487452
 20
315.501742710901
 30
0.0
 11
2133.907803487452
 21
315.501742710901
 31
0.0
1001
GENIUS_GENOREF_13
1005
24CB
  0
LINE
  5
24CA
330
1F
100
AcDbEntity
  8
AM_7
  6
AM_ISO08W050x2
100
AcDbLine
 10
2140.157803487452
 20
315.501742710901
 30
0.0
 11
2140.157803487452
 21
309.251742710901
 31
0.0
1001
GENIUS_GENOREF_13
1005
24CB
  0
POINT
  5
24CB
330
1F
100
AcDbEntity
  8
0
 60
     1
100
AcDbPoint
 10
0.0
 20
0.0
 30
0.0
1001
GENIUS_GENODEF_13
1002
{
1000
HIER
1070
    10
1002
}
1002
{
1000
MANEDIT
1070
     0
1002
}
1002
{
1000
NOSEL
1070
     0
1002
}
1002
{
1000
BEHIND
1070
     0
1002
}
1002
{
1000
OTHER
1070
     0
1002
}
1002
{
1000
REACTOR
1002
}
1001
GENIUS_GENOENT_13
1002
{
1000
MYREF
1005
24CB
1002
}
1002
{
1000
GRP
1005
0
1002
}
1001
GENIUS_GENOBJ-N-CRS_13
1002
{
1000
OWNER
1000
GEN
1002
}
1001
GENIUS_GENOLIS_13
1002
{
1000
ENT
1005
24CA
1005
24C9
1005
24C8
1005
24C7
1002
}
  0
LINE
  5
24D9
330
1F
100
AcDbEntity
  8
AM_7
  6
AM_ISO08W050x2
100
AcDbLine
 10
2083.157803487452
 20
315.501742710901
 30
0.0
 11
2089.407803487452
 21
315.501742710901
 31
0.0
1001
GENIUS_GENOREF_13
1005
24DD
  0
LINE
  5
24DA
330
1F
100
AcDbEntity
  8
AM_7
  6
AM_ISO08W050x2
100
AcDbLine
 10
2083.157803487452
 20
315.501742710901
 30
0.0
 11
2083.157803487452
 21
321.751742710901
 31
0.0
1001
GENIUS_GENOREF_13
1005
24DD
  0
LINE
  5
24DB
330
1F
100
AcDbEntity
  8
AM_7
  6
AM_ISO08W050x2
100
AcDbLine
 10
2083.157803487452
 20
315.501742710901
 30
0.0
 11
2076.907803487452
 21
315.501742710901
 31
0.0
1001
GENIUS_GENOREF_13
1005
24DD
  0
LINE
  5
24DC
330
1F
100
AcDbEntity
  8
AM_7
  6
AM_ISO08W050x2
100
AcDbLine
 10
2083.157803487452
 20
315.501742710901
 30
0.0
 11
2083.157803487452
 21
309.251742710901
 31
0.0
1001
GENIUS_GENOREF_13
1005
24DD
  0
POINT
  5
24DD
330
1F
100
AcDbEntity
  8
0
 60
     1
100
AcDbPoint
 10
0.0
 20
0.0
 30
0.0
1001
GENIUS_GENODEF_13
1002
{
1000
HIER
1070
    10
1002
}
1002
{
1000
MANEDIT
1070
     0
1002
}
1002
{
1000
NOSEL
1070
     0
1002
}
1002
{
1000
BEHIND
1070
     0
1002
}
1002
{
1000
OTHER
1070
     0
1002
}
1002
{
1000
REACTOR
1002
}
1001
GENIUS_GENOLIS_13
1002
{
1000
ENT
1005
24DC
1005
24DB
1005
24DA
1005
24D9
1002
}
1001
GENIUS_GENOBJ-N-CRS_13
1002
{
1000
OWNER
1000
GEN
1002
}
1001
GENIUS_GENOENT_13
1002
{
1000
MYREF
1005
24DD
1002
}
1002
{
1000
GRP
1005
0
1002
}
  0
DIMENSION
  5
24DE
330
1F
100
AcDbEntity
  8
AM_5
100
AcDbDimension
  2
*D21
 10
2160.657803487452
 20
218.0125204969318
 30
0.0
 11
2158.157803487452
 21
178.0125204969321
 31
0.0
 70
    32
 71
     5
 42
79.99999999999994
  3
AM_ISO$0
100
AcDbAlignedDimension
 13
2147.657803487452
 23
138.0125204969318
 33
0.0
 14
2143.157803487452
 24
218.0125204969318
 34
0.0
 50
90.0
100
AcDbRotatedDimension
1001
ACAD
1000
DSTYLE
1002
{
1070
    40
1040
1.0
1070
   144
1040
1.0
1070
   272
1070
     8
1002
}
  0
DIMENSION
  5
24DF
330
1F
100
AcDbEntity
  8
AM_5
100
AcDbDimension
  2
*D22
 10
2170.657803487452
 20
252.5125204969318
 30
0.0
 11
2168.157803487452
 21
195.2625204969321
 31
0.0
 70
    32
 71
     5
 42
114.4999999999999
  3
AM_ISO$0
100
AcDbAlignedDimension
 13
2147.657803487452
 23
138.0125204969318
 33
0.0
 14
2125.657803487452
 24
252.5125204969318
 34
0.0
 50
90.0
100
AcDbRotatedDimension
1001
ACAD
1000
DSTYLE
1002
{
1070
    40
1040
1.0
1070
   144
1040
1.0
1070
   272
1070
     8
1002
}
  0
DIMENSION
  5
24E0
330
1F
100
AcDbEntity
  8
AM_5
100
AcDbDimension
  2
*D23
 10
2062.657803487452
 20
138.0125204969318
 30
0.0
 11
2060.157803487452
 21
151.5125204969321
 31
0.0
 70
    32
 71
     5
 42
26.99999999999994
  3
AM_ISO$0
100
AcDbAlignedDimension
 13
2075.657803487452
 23
165.0125204969317
 33
0.0
 14
2076.157802987452
 24
138.0125204969318
 34
0.0
 50
90.0
100
AcDbRotatedDimension
1001
ACAD
1000
DSTYLE
1002
{
1070
    40
1040
1.0
1070
   144
1040
1.0
1070
   272
1070
     8
1002
}
  0
DIMENSION
  5
24E1
330
1F
100
AcDbEntity
  8
AM_5
100
AcDbDimension
  2
*D24
 10
2170.657803487452
 20
252.5125204969318
 30
0.0
 11
2168.157803487452
 21
265.0125204969321
 31
0.0
 70
    32
 71
     5
 42
24.99999999999997
  3
AM_ISO$0
100
AcDbAlignedDimension
 13
2125.657803487452
 23
277.5125204969318
 33
0.0
 14
2125.657803487452
 24
252.5125204969318
 34
0.0
 50
90.0
100
AcDbRotatedDimension
1001
ACAD
1000
DSTYLE
1002
{
1070
    40
1040
1.0
1070
   144
1040
1.0
1070
   272
1070
     8
1002
}
  0
DIMENSION
  5
2587
330
1F
100
AcDbEntity
  8
AM_5
100
AcDbDimension
  2
*D25
 10
2170.657803487452
 20
381.001742710901
 30
0.0
 11
2168.157803487452
 21
344.0017427109014
 31
0.0
 70
    32
 71
     5
 42
74.0
  3
AM_ISO$0
100
AcDbAlignedDimension
 13
2145.364910268639
 23
307.001742710901
 33
0.0
 14
2145.364910268639
 24
381.001742710901
 34
0.0
 50
90.0
100
AcDbRotatedDimension
1001
ACAD
1000
DSTYLE
1002
{
1070
    40
1040
1.0
1070
   144
1040
1.0
1070
   272
1070
     8
1002
}
  0
DIMENSION
  5
2588
330
1F
100
AcDbEntity
  8
AM_5
100
AcDbDimension
  2
*D26
 10
2160.657803487452
 20
372.501742710901
 30
0.0
 11
2158.157803487452
 21
344.0017427109014
 31
0.0
 70
    32
 71
     5
 42
57.0
  3
AM_ISO$0
100
AcDbAlignedDimension
 13
2146.407803487452
 23
315.501742710901
 33
0.0
 14
2146.407803487452
 24
372.501742710901
 34
0.0
 50
90.0
100
AcDbRotatedDimension
1001
ACAD
1000
DSTYLE
1002
{
1070
    40
1040
1.0
1070
   144
1040
1.0
1070
   272
1070
     8
1002
}
  0
LINE
  5
2680
330
1F
100
AcDbEntity
  8
0
100
AcDbLine
 10
2413.476583508879
 20
343.3475948163555
 30
0.0
 11
2413.476583508879
 21
373.3475948163555
 31
0.0
  0
LINE
  5
2681
330
1F
100
AcDbEntity
  8
0
100
AcDbLine
 10
2414.476583508879
 20
288.0125204969318
 30
0.0
 11
2500.476583508878
 21
288.0125204969318
 31
0.0
  0
LINE
  5
2682
330
1F
100
AcDbEntity
  8
0
100
AcDbLine
 10
2440.976583508879
 20
170.0125204969318
 30
0.0
 11
2527.976583508879
 21
170.0125204969318
 31
0.0
  0
LINE
  5
2683
330
1F
100
AcDbEntity
  8
0
100
AcDbLine
 10
2450.476583508879
 20
223.0125204969318
 30
0.0
 11
2518.476583508878
 21
223.0125204969318
 31
0.0
  0
LINE
  5
2684
330
1F
100
AcDbEntity
  8
0
100
AcDbLine
 10
2528.476583508878
 20
169.5125204969318
 30
0.0
 11
2528.476583508878
 21
139.0125204969318
 31
0.0
  0
LINE
  5
2685
330
1F
100
AcDbEntity
  8
0
100
AcDbLine
 10
2440.476583508879
 20
169.5125204969318
 30
0.0
 11
2440.476583508879
 21
139.0125204969318
 31
0.0
  0
LINE
  5
2686
330
1F
100
AcDbEntity
  8
0
100
AcDbLine
 10
2528.476583508878
 20
169.5125204969318
 30
0.0
 11
2527.976583508879
 21
170.0125204969318
 31
0.0
  0
LINE
  5
2687
330
1F
100
AcDbEntity
  8
0
100
AcDbLine
 10
2440.976583508879
 20
170.0125204969318
 30
0.0
 11
2440.476583508879
 21
169.5125204969318
 31
0.0
  0
LINE
  5
2688
330
1F
100
AcDbEntity
  8
0
100
AcDbLine
 10
2414.476583508879
 20
256.0125204969318
 30
0.0
 11
2500.476583508878
 21
256.0125204969318
 31
0.0
  0
LINE
  5
2689
330
1F
100
AcDbEntity
  8
0
100
AcDbLine
 10
2496.976583508879
 20
256.0125204969318
 30
0.0
 11
2496.976583508879
 21
223.0125204969318
 31
0.0
  0
LINE
  5
268A
330
1F
100
AcDbEntity
  8
0
100
AcDbLine
 10
2471.976583508878
 20
256.0125204969318
 30
0.0
 11
2471.976583508878
 21
223.0125204969318
 31
0.0
  0
LINE
  5
268B
330
1F
100
AcDbEntity
  8
0
100
AcDbLine
 10
2501.476583508879
 20
287.0125204969318
 30
0.0
 11
2501.476583508879
 21
257.0125204969318
 31
0.0
  0
LINE
  5
268C
330
1F
100
AcDbEntity
  8
0
100
AcDbLine
 10
2413.476583508879
 20
287.0125204969318
 30
0.0
 11
2413.476583508879
 21
257.0125204969318
 31
0.0
  0
LINE
  5
268D
330
1F
100
AcDbEntity
  8
0
100
AcDbLine
 10
2520.476583508878
 20
221.0125204969318
 30
0.0
 11
2518.476583508878
 21
223.0125204969318
 31
0.0
  0
LINE
  5
268E
330
1F
100
AcDbEntity
  8
0
100
AcDbLine
 10
2450.476583508879
 20
223.0125204969318
 30
0.0
 11
2448.476583508878
 21
221.0125204969318
 31
0.0
  0
LINE
  5
268F
330
1F
100
AcDbEntity
  8
0
100
AcDbLine
 10
2500.476583508878
 20
256.0125204969318
 30
0.0
 11
2501.476583508879
 21
257.0125204969318
 31
0.0
  0
LINE
  5
2690
330
1F
100
AcDbEntity
  8
0
100
AcDbLine
 10
2501.476583508879
 20
287.0125204969318
 30
0.0
 11
2500.476583508878
 21
288.0125204969318
 31
0.0
  0
LINE
  5
2691
330
1F
100
AcDbEntity
  8
0
100
AcDbLine
 10
2414.476583508879
 20
256.0125204969318
 30
0.0
 11
2413.476583508879
 21
257.0125204969318
 31
0.0
  0
LINE
  5
2693
330
1F
100
AcDbEntity
  8
0
100
AcDbLine
 10
2429.476583508878
 20
256.0125204969318
 30
0.0
 11
2429.476583508878
 21
288.0125204969318
 31
0.0
  0
LINE
  5
2694
330
1F
100
AcDbEntity
  8
0
100
AcDbLine
 10
2419.476583508878
 20
256.0125204969318
 30
0.0
 11
2419.476583508878
 21
288.0125204969318
 31
0.0
  0
CIRCLE
  5
2698
330
1F
100
AcDbEntity
  8
0
100
AcDbCircle
 10
2424.476583508879
 20
358.3475948163555
 30
0.0
 40
5.0
  0
CIRCLE
  5
2699
330
1F
100
AcDbEntity
  8
0
100
AcDbCircle
 10
2484.476583508878
 20
358.3475948163555
 30
0.0
 40
9.5
  0
LINE
  5
269A
330
1F
100
AcDbEntity
  8
0
100
AcDbLine
 10
2501.476583508879
 20
343.3475948163555
 30
0.0
 11
2501.476583508879
 21
373.3475948163555
 31
0.0
  0
CIRCLE
  5
269B
330
1F
100
AcDbEntity
  8
0
100
AcDbCircle
 10
2424.476583508879
 20
358.3475948163555
 30
0.0
 40
6.0
  0
POLYLINE
  5
26A0
330
1F
100
AcDbEntity
  8
0
100
AcDb2dPolyline
 66
     1
 10
0.0
 20
0.0
 30
0.0
  0
VERTEX
  5
26A1
330
26A0
100
AcDbEntity
  8
0
100
AcDbVertex
100
AcDb2dVertex
 10
2440.476583508879
 20
374.3475948163555
 30
0.0
  0
VERTEX
  5
26A2
330
26A0
100
AcDbEntity
  8
0
100
AcDbVertex
100
AcDb2dVertex
 10
2440.476583508879
 20
399.3475948163555
 30
0.0
  0
VERTEX
  5
26A3
330
26A0
100
AcDbEntity
  8
0
100
AcDbVertex
100
AcDb2dVertex
 10
2443.476583508878
 20
402.3475948163555
 30
0.0
  0
VERTEX
  5
26A4
330
26A0
100
AcDbEntity
  8
0
100
AcDbVertex
100
AcDb2dVertex
 10
2525.476583508878
 20
402.3475948163555
 30
0.0
  0
VERTEX
  5
26A5
330
26A0
100
AcDbEntity
  8
0
100
AcDbVertex
100
AcDb2dVertex
 10
2528.476583508878
 20
399.3475948163555
 30
0.0
  0
VERTEX
  5
26A6
330
26A0
100
AcDbEntity
  8
0
100
AcDbVertex
100
AcDb2dVertex
 10
2528.476583508878
 20
317.3475948163555
 30
0.0
  0
VERTEX
  5
26A7
330
26A0
100
AcDbEntity
  8
0
100
AcDbVertex
100
AcDb2dVertex
 10
2525.476583508878
 20
314.3475948163555
 30
0.0
  0
VERTEX
  5
26A8
330
26A0
100
AcDbEntity
  8
0
100
AcDbVertex
100
AcDb2dVertex
 10
2443.476583508878
 20
314.3475948163555
 30
0.0
  0
VERTEX
  5
26A9
330
26A0
100
AcDbEntity
  8
0
100
AcDbVertex
100
AcDb2dVertex
 10
2440.476583508879
 20
317.3475948163555
 30
0.0
  0
SEQEND
  5
26AA
330
26A0
100
AcDbEntity
  8
0
  0
LINE
  5
26AB
330
1F
100
AcDbEntity
  8
0
100
AcDbLine
 10
2430.476583508879
 20
256.0125204969318
 30
0.0
 11
2430.476583508879
 21
288.0125204969318
 31
0.0
  0
LINE
  5
26AC
330
1F
100
AcDbEntity
  8
0
100
AcDbLine
 10
2418.476583508879
 20
256.0125204969318
 30
0.0
 11
2418.476583508879
 21
288.0125204969318
 31
0.0
  0
CIRCLE
  5
26AD
330
1F
100
AcDbEntity
  8
0
100
AcDbCircle
 10
2484.476583508878
 20
210.0125204969318
 30
0.0
 40
6.0
  0
CIRCLE
  5
26AE
330
1F
100
AcDbEntity
  8
0
100
AcDbCircle
 10
2484.476583508878
 20
210.0125204969318
 30
0.0
 40
5.0
  0
CIRCLE
  5
26AF
330
1F
100
AcDbEntity
  8
0
100
AcDbCircle
 10
2464.476583508878
 20
160.5125204969318
 30
0.0
 40
6.0
  0
CIRCLE
  5
26B0
330
1F
100
AcDbEntity
  8
0
100
AcDbCircle
 10
2464.476583508878
 20
160.5125204969318
 30
0.0
 40
5.0
  0
CIRCLE
  5
26B3
102
{ACAD_REACTORS
330
2A3D
102
}
330
1F
100
AcDbEntity
  8
0
100
AcDbCircle
 10
2519.476583508879
 20
393.3475948163555
 30
0.0
 40
5.25
  0
CIRCLE
  5
26B4
330
1F
100
AcDbEntity
  8
0
100
AcDbCircle
 10
2519.476583508879
 20
323.3475948163555
 30
0.0
 40
5.25
  0
CIRCLE
  5
26B5
330
1F
100
AcDbEntity
  8
0
100
AcDbCircle
 10
2449.476583508879
 20
323.3475948163555
 30
0.0
 40
5.25
  0
CIRCLE
  5
26B6
330
1F
100
AcDbEntity
  8
0
100
AcDbCircle
 10
2449.476583508879
 20
393.3475948163555
 30
0.0
 40
5.25
  0
LINE
  5
26B7
330
1F
100
AcDbEntity
  8
0
100
AcDbLine
 10
2414.476583508879
 20
288.0125204969318
 30
0.0
 11
2413.476583508879
 21
287.0125204969318
 31
0.0
  0
LINE
  5
26B8
330
1F
100
AcDbEntity
  8
0
100
AcDbLine
 10
2441.476583508878
 20
138.0125204969318
 30
0.0
 11
2527.476583508879
 21
138.0125204969318
 31
0.0
  0
LINE
  5
26B9
330
1F
100
AcDbEntity
  8
0
100
AcDbLine
 10
2440.476583508879
 20
139.0125204969318
 30
0.0
 11
2441.476583508878
 21
138.0125204969318
 31
0.0
  0
LINE
  5
26BA
330
1F
100
AcDbEntity
  8
0
100
AcDbLine
 10
2527.476583508879
 20
138.0125204969318
 30
0.0
 11
2528.476583508878
 21
139.0125204969318
 31
0.0
  0
LINE
  5
26BB
330
1F
100
AcDbEntity
  8
0
100
AcDbLine
 10
2448.476583508878
 20
221.0125204969318
 30
0.0
 11
2448.476583508878
 21
170.0125204969318
 31
0.0
  0
LINE
  5
26BC
330
1F
100
AcDbEntity
  8
0
100
AcDbLine
 10
2520.476583508878
 20
221.0125204969318
 30
0.0
 11
2520.476583508878
 21
170.0125204969318
 31
0.0
  0
LINE
  5
26BD
330
1F
100
AcDbEntity
  8
0
100
AcDbLine
 10
2414.476583508879
 20
374.3475948163555
 30
0.0
 11
2500.476583508878
 21
374.3475948163555
 31
0.0
  0
LINE
  5
26BE
330
1F
100
AcDbEntity
  8
0
100
AcDbLine
 10
2414.476583508879
 20
342.3475948163555
 30
0.0
 11
2500.476583508878
 21
342.3475948163555
 31
0.0
  0
LINE
  5
26BF
330
1F
100
AcDbEntity
  8
0
100
AcDbLine
 10
2414.476583508879
 20
374.3475948163555
 30
0.0
 11
2413.476583508879
 21
373.3475948163555
 31
0.0
  0
LINE
  5
26C0
330
1F
100
AcDbEntity
  8
0
100
AcDbLine
 10
2413.476583508879
 20
343.3475948163555
 30
0.0
 11
2414.476583508879
 21
342.3475948163555
 31
0.0
  0
LINE
  5
26C1
330
1F
100
AcDbEntity
  8
0
100
AcDbLine
 10
2500.476583508878
 20
342.3475948163555
 30
0.0
 11
2501.476583508879
 21
343.3475948163555
 31
0.0
  0
LINE
  5
26C2
330
1F
100
AcDbEntity
  8
0
100
AcDbLine
 10
2500.476583508878
 20
374.3475948163555
 30
0.0
 11
2501.476583508879
 21
373.3475948163555
 31
0.0
  0
ARC
  5
26C3
330
1F
100
AcDbEntity
  8
0
100
AcDbCircle
 10
2484.476583508878
 20
358.3475948163555
 30
0.0
 40
40.0
100
AcDbArc
 50
203.5781784782011
 51
156.4218215217988
  0
LINE
  5
26C4
330
1F
100
AcDbEntity
  8
0
100
AcDbLine
 10
2414.476583508879
 20
288.0125204969318
 30
0.0
 11
2413.476583508879
 21
287.0125204969318
 31
0.0
  0
LINE
  5
26C5
330
1F
100
AcDbEntity
  8
0
100
AcDbLine
 10
2413.476583508879
 20
257.0125204969318
 30
0.0
 11
2414.476583508879
 21
256.0125204969318
 31
0.0
  0
LINE
  5
26C6
330
1F
100
AcDbEntity
  8
0
100
AcDbLine
 10
2500.476583508878
 20
256.0125204969318
 30
0.0
 11
2501.476583508879
 21
257.0125204969318
 31
0.0
  0
LINE
  5
26C7
330
1F
100
AcDbEntity
  8
0
100
AcDbLine
 10
2500.476583508878
 20
288.0125204969318
 30
0.0
 11
2501.476583508879
 21
287.0125204969318
 31
0.0
  0
POLYLINE
  5
26C8
330
1F
100
AcDbEntity
  8
0
100
AcDb2dPolyline
 66
     1
 10
0.0
 20
0.0
 30
0.0
  0
VERTEX
  5
26C9
330
26C8
100
AcDbEntity
  8
0
100
AcDbVertex
100
AcDb2dVertex
 10
2440.476583508879
 20
317.3475948163555
 30
0.0
  0
VERTEX
  5
26CA
330
26C8
100
AcDbEntity
  8
0
100
AcDbVertex
100
AcDb2dVertex
 10
2440.476583508879
 20
342.3475948163555
 30
0.0
  0
SEQEND
  5
26CB
330
26C8
100
AcDbEntity
  8
0
  0
LINE
  5
26D8
330
1F
100
AcDbEntity
  8
AM_7
100
AcDbLine
 10
2424.476583508879
 20
290.0125204969318
 30
0.0
 11
2424.476583508879
 21
254.0125204969318
 31
0.0
1001
GENIUS_GENOBJ-N-CEN_13
1002
{
1000
OWNER
1000
GEN
1002
}
1001
GENIUS_GENODEF_13
1002
{
1000
HIER
1070
     0
1002
}
1002
{
1000
MANEDIT
1070
     0
1002
}
1002
{
1000
NOSEL
1070
     0
1002
}
1002
{
1000
BEHIND
1070
     0
1002
}
1002
{
1000
OTHER
1070
     0
1002
}
1002
{
1000
REACTOR
1002
}
1001
GENIUS_GENCEN_19
1002
{
1040
2.0
1002
}
  0
LINE
  5
26E5
330
1F
100
AcDbEntity
  8
AM_7
100
AcDbLine
 10
2484.476583508878
 20
290.0125204969318
 30
0.0
 11
2484.476583508878
 21
136.0125204969318
 31
0.0
1001
GENIUS_GENODEF_13
1002
{
1000
HIER
1070
     0
1002
}
1002
{
1000
MANEDIT
1070
     0
1002
}
1002
{
1000
NOSEL
1070
     0
1002
}
1002
{
1000
BEHIND
1070
     0
1002
}
1002
{
1000
OTHER
1070
     0
1002
}
1002
{
1000
REACTOR
1002
}
1001
GENIUS_GENOBJ-N-CEN_13
1002
{
1000
OWNER
1000
GEN
1002
}
1001
GENIUS_GENCEN_19
1002
{
1040
2.0
1002
}
  0
LINE
  5
26F3
330
1F
100
AcDbEntity
  8
AM_7
  6
AM_ISO08W050x2
100
AcDbLine
 10
2484.476583508878
 20
210.0125204969318
 30
0.0
 11
2492.476583508878
 21
210.0125204969318
 31
0.0
1001
GENIUS_GENOREF_13
1005
26F7
  0
LINE
  5
26F4
330
1F
100
AcDbEntity
  8
AM_7
  6
AM_ISO08W050x2
100
AcDbLine
 10
2484.476583508878
 20
210.0125204969318
 30
0.0
 11
2484.476583508878
 21
218.0125204969318
 31
0.0
1001
GENIUS_GENOREF_13
1005
26F7
  0
LINE
  5
26F5
330
1F
100
AcDbEntity
  8
AM_7
  6
AM_ISO08W050x2
100
AcDbLine
 10
2484.476583508878
 20
210.0125204969318
 30
0.0
 11
2476.476583508878
 21
210.0125204969318
 31
0.0
1001
GENIUS_GENOREF_13
1005
26F7
  0
LINE
  5
26F6
330
1F
100
AcDbEntity
  8
AM_7
  6
AM_ISO08W050x2
100
AcDbLine
 10
2484.476583508878
 20
210.0125204969318
 30
0.0
 11
2484.476583508878
 21
202.0125204969318
 31
0.0
1001
GENIUS_GENOREF_13
1005
26F7
  0
POINT
  5
26F7
330
1F
100
AcDbEntity
  8
0
 60
     1
100
AcDbPoint
 10
0.0
 20
0.0
 30
0.0
1001
GENIUS_GENOBJ-N-CRS_13
1002
{
1000
OWNER
1000
GEN
1002
}
1001
GENIUS_GENOENT_13
1002
{
1000
MYREF
1005
26F7
1002
}
1002
{
1000
GRP
1005
0
1002
}
1001
GENIUS_GENOLIS_13
1002
{
1000
ENT
1005
26F6
1005
26F5
1005
26F4
1005
26F3
1002
}
1001
GENIUS_GENODEF_13
1002
{
1000
HIER
1070
    10
1002
}
1002
{
1000
MANEDIT
1070
     0
1002
}
1002
{
1000
NOSEL
1070
     0
1002
}
1002
{
1000
BEHIND
1070
     0
1002
}
1002
{
1000
OTHER
1070
     0
1002
}
1002
{
1000
REACTOR
1002
}
  0
LINE
  5
2705
330
1F
100
AcDbEntity
  8
AM_7
  6
AM_ISO08W050x2
100
AcDbLine
 10
2464.476583508878
 20
160.5125204969318
 30
0.0
 11
2472.476583508879
 21
160.5125204969318
 31
0.0
1001
GENIUS_GENOREF_13
1005
2709
  0
LINE
  5
2706
330
1F
100
AcDbEntity
  8
AM_7
  6
AM_ISO08W050x2
100
AcDbLine
 10
2464.476583508878
 20
160.5125204969318
 30
0.0
 11
2464.476583508878
 21
168.5125204969318
 31
0.0
1001
GENIUS_GENOREF_13
1005
2709
  0
LINE
  5
2707
330
1F
100
AcDbEntity
  8
AM_7
  6
AM_ISO08W050x2
100
AcDbLine
 10
2464.476583508878
 20
160.5125204969318
 30
0.0
 11
2456.476583508879
 21
160.5125204969318
 31
0.0
1001
GENIUS_GENOREF_13
1005
2709
  0
LINE
  5
2708
330
1F
100
AcDbEntity
  8
AM_7
  6
AM_ISO08W050x2
100
AcDbLine
 10
2464.476583508878
 20
160.5125204969318
 30
0.0
 11
2464.476583508878
 21
152.5125204969318
 31
0.0
1001
GENIUS_GENOREF_13
1005
2709
  0
POINT
  5
2709
330
1F
100
AcDbEntity
  8
0
 60
     1
100
AcDbPoint
 10
0.0
 20
0.0
 30
0.0
1001
GENIUS_GENODEF_13
1002
{
1000
HIER
1070
    10
1002
}
1002
{
1000
MANEDIT
1070
     0
1002
}
1002
{
1000
NOSEL
1070
     0
1002
}
1002
{
1000
BEHIND
1070
     0
1002
}
1002
{
1000
OTHER
1070
     0
1002
}
1002
{
1000
REACTOR
1002
}
1001
GENIUS_GENOBJ-N-CRS_13
1002
{
1000
OWNER
1000
GEN
1002
}
1001
GENIUS_GENOENT_13
1002
{
1000
MYREF
1005
2709
1002
}
1002
{
1000
GRP
1005
0
1002
}
1001
GENIUS_GENOLIS_13
1002
{
1000
ENT
1005
2708
1005
2707
1005
2706
1005
2705
1002
}
  0
LINE
  5
2717
330
1F
100
AcDbEntity
  8
AM_7
100
AcDbLine
 10
2484.476583508878
 20
358.3475948163555
 30
0.0
 11
2530.476583508879
 21
358.3475948163555
 31
0.0
1001
GENIUS_GENOREF_13
1005
271B
  0
LINE
  5
2718
330
1F
100
AcDbEntity
  8
AM_7
100
AcDbLine
 10
2484.476583508878
 20
358.3475948163555
 30
0.0
 11
2484.476583508878
 21
404.3475948163555
 31
0.0
1001
GENIUS_GENOREF_13
1005
271B
  0
LINE
  5
2719
330
1F
100
AcDbEntity
  8
AM_7
100
AcDbLine
 10
2484.476583508878
 20
358.3475948163555
 30
0.0
 11
2409.951353426221
 21
358.3475948163555
 31
0.0
1001
GENIUS_GENOREF_13
1005
271B
  0
LINE
  5
271A
330
1F
100
AcDbEntity
  8
AM_7
100
AcDbLine
 10
2484.476583508878
 20
358.3475948163555
 30
0.0
 11
2484.476583508878
 21
312.3475948163555
 31
0.0
1001
GENIUS_GENOREF_13
1005
271B
  0
POINT
  5
271B
330
1F
100
AcDbEntity
  8
0
 60
     1
100
AcDbPoint
 10
0.0
 20
0.0
 30
0.0
1001
GENIUS_GENOENT_13
1002
{
1000
MYREF
1005
271B
1002
}
1002
{
1000
GRP
1005
0
1002
}
1001
GENIUS_GENOBJ-N-CRS_13
1002
{
1000
OWNER
1000
GEN
1002
}
1001
GENIUS_GENOLIS_13
1002
{
1000
ENT
1005
271A
1005
2719
1005
2718
1005
2717
1002
}
1001
GENIUS_GENODEF_13
1002
{
1000
HIER
1070
    10
1002
}
1002
{
1000
MANEDIT
1070
     0
1002
}
1002
{
1000
NOSEL
1070
     0
1002
}
1002
{
1000
BEHIND
1070
     0
1002
}
1002
{
1000
OTHER
1070
     0
1002
}
1002
{
1000
REACTOR
1002
}
  0
LINE
  5
2729
330
1F
100
AcDbEntity
  8
AM_7
  6
AM_ISO08W050x2
100
AcDbLine
 10
2424.476583508879
 20
358.3475948163555
 30
0.0
 11
2432.476583508878
 21
358.3475948163555
 31
0.0
1001
GENIUS_GENOREF_13
1005
272D
  0
LINE
  5
272A
330
1F
100
AcDbEntity
  8
AM_7
  6
AM_ISO08W050x2
100
AcDbLine
 10
2424.476583508879
 20
358.3475948163555
 30
0.0
 11
2424.476583508879
 21
366.3475948163555
 31
0.0
1001
GENIUS_GENOREF_13
1005
272D
  0
LINE
  5
272B
330
1F
100
AcDbEntity
  8
AM_7
  6
AM_ISO08W050x2
100
AcDbLine
 10
2424.476583508879
 20
358.3475948163555
 30
0.0
 11
2416.476583508878
 21
358.3475948163555
 31
0.0
1001
GENIUS_GENOREF_13
1005
272D
  0
LINE
  5
272C
330
1F
100
AcDbEntity
  8
AM_7
  6
AM_ISO08W050x2
100
AcDbLine
 10
2424.476583508879
 20
358.3475948163555
 30
0.0
 11
2424.476583508879
 21
350.3475948163555
 31
0.0
1001
GENIUS_GENOREF_13
1005
272D
  0
POINT
  5
272D
330
1F
100
AcDbEntity
  8
0
 60
     1
100
AcDbPoint
 10
0.0
 20
0.0
 30
0.0
1001
GENIUS_GENOLIS_13
1002
{
1000
ENT
1005
272C
1005
272B
1005
272A
1005
2729
1002
}
1001
GENIUS_GENOENT_13
1002
{
1000
MYREF
1005
272D
1002
}
1002
{
1000
GRP
1005
0
1002
}
1001
GENIUS_GENOBJ-N-CRS_13
1002
{
1000
OWNER
1000
GEN
1002
}
1001
GENIUS_GENODEF_13
1002
{
1000
HIER
1070
    10
1002
}
1002
{
1000
MANEDIT
1070
     0
1002
}
1002
{
1000
NOSEL
1070
     0
1002
}
1002
{
1000
BEHIND
1070
     0
1002
}
1002
{
1000
OTHER
1070
     0
1002
}
1002
{
1000
REACTOR
1002
}
  0
LINE
  5
273B
330
1F
100
AcDbEntity
  8
AM_7
  6
AM_ISO08W050x2
100
AcDbLine
 10
2449.476583508879
 20
393.3475948163555
 30
0.0
 11
2456.726583508878
 21
393.3475948163555
 31
0.0
1001
GENIUS_GENOREF_13
1005
273F
  0
LINE
  5
273C
330
1F
100
AcDbEntity
  8
AM_7
  6
AM_ISO08W050x2
100
AcDbLine
 10
2449.476583508879
 20
393.3475948163555
 30
0.0
 11
2449.476583508879
 21
400.5975948163555
 31
0.0
1001
GENIUS_GENOREF_13
1005
273F
  0
LINE
  5
273D
330
1F
100
AcDbEntity
  8
AM_7
  6
AM_ISO08W050x2
100
AcDbLine
 10
2449.476583508879
 20
393.3475948163555
 30
0.0
 11
2442.226583508878
 21
393.3475948163555
 31
0.0
1001
GENIUS_GENOREF_13
1005
273F
  0
LINE
  5
273E
330
1F
100
AcDbEntity
  8
AM_7
  6
AM_ISO08W050x2
100
AcDbLine
 10
2449.476583508879
 20
393.3475948163555
 30
0.0
 11
2449.476583508879
 21
386.0975948163556
 31
0.0
1001
GENIUS_GENOREF_13
1005
273F
  0
POINT
  5
273F
330
1F
100
AcDbEntity
  8
0
 60
     1
100
AcDbPoint
 10
0.0
 20
0.0
 30
0.0
1001
GENIUS_GENOENT_13
1002
{
1000
MYREF
1005
273F
1002
}
1002
{
1000
GRP
1005
0
1002
}
1001
GENIUS_GENODEF_13
1002
{
1000
HIER
1070
    10
1002
}
1002
{
1000
MANEDIT
1070
     0
1002
}
1002
{
1000
NOSEL
1070
     0
1002
}
1002
{
1000
BEHIND
1070
     0
1002
}
1002
{
1000
OTHER
1070
     0
1002
}
1002
{
1000
REACTOR
1002
}
1001
GENIUS_GENOLIS_13
1002
{
1000
ENT
1005
273E
1005
273D
1005
273C
1005
273B
1002
}
1001
GENIUS_GENOBJ-N-CRS_13
1002
{
1000
OWNER
1000
GEN
1002
}
  0
LINE
  5
274D
330
1F
100
AcDbEntity
  8
AM_7
  6
AM_ISO08W050x2
100
AcDbLine
 10
2519.476583508879
 20
393.3475948163555
 30
0.0
 11
2526.726583508879
 21
393.3475948163555
 31
0.0
1001
GENIUS_GENOREF_13
1005
2751
  0
LINE
  5
274E
330
1F
100
AcDbEntity
  8
AM_7
  6
AM_ISO08W050x2
100
AcDbLine
 10
2519.476583508879
 20
393.3475948163555
 30
0.0
 11
2519.476583508879
 21
400.5975948163555
 31
0.0
1001
GENIUS_GENOREF_13
1005
2751
  0
LINE
  5
274F
330
1F
100
AcDbEntity
  8
AM_7
  6
AM_ISO08W050x2
100
AcDbLine
 10
2519.476583508879
 20
393.3475948163555
 30
0.0
 11
2512.226583508879
 21
393.3475948163555
 31
0.0
1001
GENIUS_GENOREF_13
1005
2751
  0
LINE
  5
2750
330
1F
100
AcDbEntity
  8
AM_7
  6
AM_ISO08W050x2
100
AcDbLine
 10
2519.476583508879
 20
393.3475948163555
 30
0.0
 11
2519.476583508879
 21
386.0975948163556
 31
0.0
1001
GENIUS_GENOREF_13
1005
2751
  0
POINT
  5
2751
330
1F
100
AcDbEntity
  8
0
 60
     1
100
AcDbPoint
 10
0.0
 20
0.0
 30
0.0
1001
GENIUS_GENOBJ-N-CRS_13
1002
{
1000
OWNER
1000
GEN
1002
}
1001
GENIUS_GENOLIS_13
1002
{
1000
ENT
1005
2750
1005
274F
1005
274E
1005
274D
1002
}
1001
GENIUS_GENOENT_13
1002
{
1000
MYREF
1005
2751
1002
}
1002
{
1000
GRP
1005
0
1002
}
1001
GENIUS_GENODEF_13
1002
{
1000
HIER
1070
    10
1002
}
1002
{
1000
MANEDIT
1070
     0
1002
}
1002
{
1000
NOSEL
1070
     0
1002
}
1002
{
1000
BEHIND
1070
     0
1002
}
1002
{
1000
OTHER
1070
     0
1002
}
1002
{
1000
REACTOR
1002
}
  0
LINE
  5
275F
330
1F
100
AcDbEntity
  8
AM_7
  6
AM_ISO08W050x2
100
AcDbLine
 10
2519.476583508879
 20
323.3475948163555
 30
0.0
 11
2526.726583508879
 21
323.3475948163555
 31
0.0
1001
GENIUS_GENOREF_13
1005
2763
  0
LINE
  5
2760
330
1F
100
AcDbEntity
  8
AM_7
  6
AM_ISO08W050x2
100
AcDbLine
 10
2519.476583508879
 20
323.3475948163555
 30
0.0
 11
2519.476583508879
 21
330.5975948163555
 31
0.0
1001
GENIUS_GENOREF_13
1005
2763
  0
LINE
  5
2761
330
1F
100
AcDbEntity
  8
AM_7
  6
AM_ISO08W050x2
100
AcDbLine
 10
2519.476583508879
 20
323.3475948163555
 30
0.0
 11
2512.226583508879
 21
323.3475948163555
 31
0.0
1001
GENIUS_GENOREF_13
1005
2763
  0
LINE
  5
2762
330
1F
100
AcDbEntity
  8
AM_7
  6
AM_ISO08W050x2
100
AcDbLine
 10
2519.476583508879
 20
323.3475948163555
 30
0.0
 11
2519.476583508879
 21
316.0975948163555
 31
0.0
1001
GENIUS_GENOREF_13
1005
2763
  0
POINT
  5
2763
330
1F
100
AcDbEntity
  8
0
 60
     1
100
AcDbPoint
 10
0.0
 20
0.0
 30
0.0
1001
GENIUS_GENOENT_13
1002
{
1000
MYREF
1005
2763
1002
}
1002
{
1000
GRP
1005
0
1002
}
1001
GENIUS_GENOBJ-N-CRS_13
1002
{
1000
OWNER
1000
GEN
1002
}
1001
GENIUS_GENOLIS_13
1002
{
1000
ENT
1005
2762
1005
2761
1005
2760
1005
275F
1002
}
1001
GENIUS_GENODEF_13
1002
{
1000
HIER
1070
    10
1002
}
1002
{
1000
MANEDIT
1070
     0
1002
}
1002
{
1000
NOSEL
1070
     0
1002
}
1002
{
1000
BEHIND
1070
     0
1002
}
1002
{
1000
OTHER
1070
     0
1002
}
1002
{
1000
REACTOR
1002
}
  0
LINE
  5
2771
330
1F
100
AcDbEntity
  8
AM_7
  6
AM_ISO08W050x2
100
AcDbLine
 10
2449.476583508879
 20
323.3475948163555
 30
0.0
 11
2456.726583508878
 21
323.3475948163555
 31
0.0
1001
GENIUS_GENOREF_13
1005
2775
  0
LINE
  5
2772
330
1F
100
AcDbEntity
  8
AM_7
  6
AM_ISO08W050x2
100
AcDbLine
 10
2449.476583508879
 20
323.3475948163555
 30
0.0
 11
2449.476583508879
 21
330.5975948163555
 31
0.0
1001
GENIUS_GENOREF_13
1005
2775
  0
LINE
  5
2773
330
1F
100
AcDbEntity
  8
AM_7
  6
AM_ISO08W050x2
100
AcDbLine
 10
2449.476583508879
 20
323.3475948163555
 30
0.0
 11
2442.226583508878
 21
323.3475948163555
 31
0.0
1001
GENIUS_GENOREF_13
1005
2775
  0
LINE
  5
2774
330
1F
100
AcDbEntity
  8
AM_7
  6
AM_ISO08W050x2
100
AcDbLine
 10
2449.476583508879
 20
323.3475948163555
 30
0.0
 11
2449.476583508879
 21
316.0975948163555
 31
0.0
1001
GENIUS_GENOREF_13
1005
2775
  0
POINT
  5
2775
330
1F
100
AcDbEntity
  8
0
 60
     1
100
AcDbPoint
 10
0.0
 20
0.0
 30
0.0
1001
GENIUS_GENOBJ-N-CRS_13
1002
{
1000
OWNER
1000
GEN
1002
}
1001
GENIUS_GENOENT_13
1002
{
1000
MYREF
1005
2775
1002
}
1002
{
1000
GRP
1005
0
1002
}
1001
GENIUS_GENOLIS_13
1002
{
1000
ENT
1005
2774
1005
2773
1005
2772
1005
2771
1002
}
1001
GENIUS_GENODEF_13
1002
{
1000
HIER
1070
    10
1002
}
1002
{
1000
MANEDIT
1070
     0
1002
}
1002
{
1000
NOSEL
1070
     0
1002
}
1002
{
1000
BEHIND
1070
     0
1002
}
1002
{
1000
OTHER
1070
     0
1002
}
1002
{
1000
REACTOR
1002
}
  0
DIMENSION
  5
2776
330
1F
100
AcDbEntity
  8
AM_5
100
AcDbDimension
  2
*D27
 10
2540.476583508878
 20
223.0125204969318
 30
0.0
 11
2537.976583508879
 21
180.5125204969322
 31
0.0
 70
    32
 71
     5
 42
85.0
  3
AM_ISO$0
100
AcDbAlignedDimension
 13
2527.476583508879
 23
138.0125204969318
 33
0.0
 14
2518.476583508878
 24
223.0125204969318
 34
0.0
 50
90.0
100
AcDbRotatedDimension
1001
ACAD
1000
DSTYLE
1002
{
1070
    40
1040
1.0
1070
   144
1040
1.0
1070
   272
1070
     8
1002
}
  0
DIMENSION
  5
2777
330
1F
100
AcDbEntity
  8
AM_5
100
AcDbDimension
  2
*D28
 10
2550.476583508878
 20
256.0125204969318
 30
0.0
 11
2547.976583508879
 21
197.0125204969322
 31
0.0
 70
    32
 71
     5
 42
118.0
  3
AM_ISO$0
100
AcDbAlignedDimension
 13
2527.476583508879
 23
138.0125204969318
 33
0.0
 14
2500.476583508878
 24
256.0125204969318
 34
0.0
 50
90.0
100
AcDbRotatedDimension
1001
ACAD
1000
DSTYLE
1002
{
1070
    40
1040
1.0
1070
   144
1040
1.0
1070
   272
1070
     8
1002
}
  0
DIMENSION
  5
2778
330
1F
100
AcDbEntity
  8
AM_5
100
AcDbDimension
  2
*D29
 10
2428.476583508878
 20
138.0125204969318
 30
0.0
 11
2425.976583508879
 21
154.0125204969322
 31
0.0
 70
    32
 71
     5
 42
32.0
  3
AM_ISO$0
100
AcDbAlignedDimension
 13
2440.976583508879
 23
170.0125204969318
 33
0.0
 14
2440.976583258879
 24
138.0125204969318
 34
0.0
 50
90.0
100
AcDbRotatedDimension
1001
ACAD
1000
DSTYLE
1002
{
1070
    40
1040
1.0
1070
   144
1040
1.0
1070
   272
1070
     8
1002
}
  0
DIMENSION
  5
2779
330
1F
100
AcDbEntity
  8
AM_5
100
AcDbDimension
  2
*D30
 10
2550.476583508878
 20
256.0125204969318
 30
0.0
 11
2547.976583508879
 21
272.0125204969322
 31
0.0
 70
    32
 71
     5
 42
32.0
  3
AM_ISO$0
100
AcDbAlignedDimension
 13
2500.476583508878
 23
288.0125204969318
 33
0.0
 14
2500.476583508878
 24
256.0125204969318
 34
0.0
 50
90.0
100
AcDbRotatedDimension
1001
ACAD
1000
DSTYLE
1002
{
1070
    40
1040
1.0
1070
   144
1040
1.0
1070
   272
1070
     8
1002
}
  0
DIMENSION
  5
2816
330
1F
100
AcDbEntity
  8
AM_5
100
AcDbDimension
  2
*D31
 10
2550.476583508878
 20
402.3475948163555
 30
0.0
 11
2547.976583508879
 21
358.3475948163559
 31
0.0
 70
    32
 71
     5
 42
88.0
  3
AM_ISO$0
100
AcDbAlignedDimension
 13
2525.476583508878
 23
314.3475948163555
 33
0.0
 14
2525.476583508878
 24
402.3475948163555
 34
0.0
 50
90.0
100
AcDbRotatedDimension
1001
ACAD
1000
DSTYLE
1002
{
1070
    40
1040
1.0
1070
   144
1040
1.0
1070
   272
1070
     8
1002
}
  0
DIMENSION
  5
2817
330
1F
100
AcDbEntity
  8
AM_5
100
AcDbDimension
  2
*D32
 10
2540.476583508878
 20
393.3475948163555
 30
0.0
 11
2537.976583508879
 21
358.3475948163559
 31
0.0
 70
    32
 71
     5
 42
70.0
  3
AM_ISO$0
100
AcDbAlignedDimension
 13
2526.726583508879
 23
323.3475948163555
 33
0.0
 14
2526.726583508879
 24
393.3475948163555
 34
0.0
 50
90.0
100
AcDbRotatedDimension
1001
ACAD
1000
DSTYLE
1002
{
1070
    40
1040
1.0
1070
   144
1040
1.0
1070
   272
1070
     8
1002
}
  0
DIMENSION
  5
29AD
102
{ACAD_XDICTIONARY
360
29B9
102
}
102
{ACAD_REACTORS
330
29BA
102
}
330
1F
100
AcDbEntity
  8
AM_5
100
AcDbDimension
  2
*D33
 10
2133.095544631686
 20
730.0414356966853
 30
0.0
 11
2119.407316758879
 21
743.9260788843219
 31
0.0
 70
   163
  1
4-<>
 71
     5
 42
6.500000000000454
  3
AM_ISO$3
100
AcDbDiametricDimension
 15
2130.220062343217
 25
735.8708097290072
 35
0.0
 40
0.0
1001
ACAD
1000
DSTYLE
1002
{
1070
    40
1040
1.0
1070
   144
1040
1.0
1070
   272
1070
     8
1002
}
  0
DIMENSION
  5
29D3
102
{ACAD_XDICTIONARY
360
29DF
102
}
102
{ACAD_REACTORS
330
29E0
102
}
330
1F
100
AcDbEntity
  8
AM_5
100
AcDbDimension
  2
*D34
 10
2508.222477915217
 20
729.2148907412853
 30
0.0
 11
2491.806038708712
 21
744.2519967965509
 31
0.0
 70
   163
  1
4-<>
 71
     5
 42
6.500000000000113
  3
AM_ISO$3
100
AcDbDiametricDimension
 15
2504.730689102538
 25
734.6973546844086
 35
0.0
 40
0.0
1001
ACAD
1000
DSTYLE
1002
{
1070
    40
1040
1.0
1070
   144
1040
1.0
1070
   272
1070
     8
1002
}
  0
DIMENSION
  5
29F3
102
{ACAD_XDICTIONARY
360
29FC
102
}
102
{ACAD_REACTORS
330
29FD
102
}
330
1F
100
AcDbEntity
  8
AM_5
100
AcDbDimension
  2
*D35
 10
2863.427791141742
 20
729.3330140550852
 30
0.0
 11
2845.818610911569
 21
746.8970189666272
 31
0.0
 70
   163
  1
4-<>
 71
     5
 42
8.500000000000682
  3
AM_ISO$3
100
AcDbDiametricDimension
 15
2858.984556439838
 25
736.5792313706091
 35
0.0
 40
0.0
1001
ACAD
1000
DSTYLE
1002
{
1070
    40
1040
1.0
1070
   144
1040
1.0
1070
   272
1070
     8
1002
}
  0
DIMENSION
  5
2A10
102
{ACAD_XDICTIONARY
360
2A1C
102
}
102
{ACAD_REACTORS
330
2A1D
102
}
330
1F
100
AcDbEntity
  8
AM_5
100
AcDbDimension
  2
*D36
 10
2142.017741140437
 20
368.6803382665877
 30
0.0
 11
2125.329183429839
 21
388.9165282913342
 31
0.0
 70
   163
  1
4-<>
 71
     5
 42
8.500000000000682
  3
AM_ISO$3
100
AcDbDiametricDimension
 15
2138.29786583447
 25
376.3231471552141
 35
0.0
 40
0.0
1001
ACAD
1000
DSTYLE
1002
{
1070
    40
1040
1.0
1070
   144
1040
1.0
1070
   272
1070
     8
1002
}
  0
DIMENSION
  5
2A30
102
{ACAD_XDICTIONARY
360
2A3C
102
}
102
{ACAD_REACTORS
330
2A3D
102
}
330
1F
100
AcDbEntity
  8
AM_5
100
AcDbDimension
  2
*D37
 10
2521.940518205041
 20
388.7116994537489
 30
0.0
 11
2501.651674702
 21
412.4043395535019
 31
0.0
 70
   163
  1
4-<>
 71
     5
 42
10.49999999999875
  3
AM_ISO$3
100
AcDbDiametricDimension
 15
2517.012648812715
 25
397.9834901789625
 35
0.0
 40
0.0
1001
ACAD
1000
DSTYLE
1002
{
1070
    40
1040
1.0
1070
   144
1040
1.0
1070
   272
1070
     8
1002
}
  0
LINE
  5
2ABB
330
1F
100
AcDbEntity
  8
AM_7
  6
AM_ISO08W050x2
100
AcDbLine
 10
2837.20617379079
 20
579.5561227128468
 30
0.0
 11
2843.706173790791
 21
579.5561227128468
 31
0.0
1001
GENIUS_GENOREF_13
1005
2ABF
  0
LINE
  5
2ABC
330
1F
100
AcDbEntity
  8
AM_7
  6
AM_ISO08W050x2
100
AcDbLine
 10
2837.20617379079
 20
579.5561227128468
 30
0.0
 11
2837.20617379079
 21
586.0561227128467
 31
0.0
1001
GENIUS_GENOREF_13
1005
2ABF
  0
LINE
  5
2ABD
330
1F
100
AcDbEntity
  8
AM_7
  6
AM_ISO08W050x2
100
AcDbLine
 10
2837.20617379079
 20
579.5561227128468
 30
0.0
 11
2830.70617379079
 21
579.5561227128468
 31
0.0
1001
GENIUS_GENOREF_13
1005
2ABF
  0
LINE
  5
2ABE
330
1F
100
AcDbEntity
  8
AM_7
  6
AM_ISO08W050x2
100
AcDbLine
 10
2837.20617379079
 20
579.5561227128468
 30
0.0
 11
2837.20617379079
 21
573.0561227128467
 31
0.0
1001
GENIUS_GENOREF_13
1005
2ABF
  0
POINT
  5
2ABF
330
1F
100
AcDbEntity
  8
0
 60
     1
100
AcDbPoint
 10
0.0
 20
0.0
 30
0.0
1001
GENIUS_GENOLIS_13
1002
{
1000
ENT
1005
2ABE
1005
2ABD
1005
2ABC
1005
2ABB
1002
}
1001
GENIUS_GENOENT_13
1002
{
1000
MYREF
1005
2ABF
1002
}
1002
{
1000
GRP
1005
0
1002
}
1001
GENIUS_GENOBJ-N-CRS_13
1002
{
1000
OWNER
1000
GEN
1002
}
1001
GENIUS_GENODEF_13
1002
{
1000
HIER
1070
    10
1002
}
1002
{
1000
MANEDIT
1070
     0
1002
}
1002
{
1000
NOSEL
1070
     0
1002
}
1002
{
1000
BEHIND
1070
     0
1002
}
1002
{
1000
OTHER
1070
     0
1002
}
1002
{
1000
REACTOR
1002
}
  0
ENDSEC
  0
SECTION
  2
OBJECTS
  0
DICTIONARY
  5
C
330
0
100
AcDbDictionary
281
     1
  3
ACAD_COLOR
350
BE
  3
ACAD_GROUP
350
D
  3
ACAD_LAYOUT
350
1A
  3
ACAD_MATERIAL
350
BD
  3
ACAD_MLINESTYLE
350
17
  3
ACAD_PLOTSETTINGS
350
19
  3
ACAD_PLOTSTYLENAME
350
E
  3
ACAD_TABLESTYLE
350
11A
  3
ACDBHEADERROUNDTRIPXREC
350
2AE7
  3
AcDbVariableDictionary
350
94
  3
AcmDictionary
350
5B
  3
AMG
350
41
  3
AMGSNAPSETTINGS
350
1B8
  3
DWGPROPS
350
2AE6
  0
DICTIONARY
  5
3F9
330
2
100
AcDbDictionary
280
     1
281
     1
  3
ACAD_LAYERFILTERS
360
5B7
  3
ACAD_LAYERSTATES
360
1563
  3
ACLYDICTIONARY
360
5B6
  0
DICTIONARY
  5
8F
330
1F
100
AcDbDictionary
280
     1
281
     1
  3
ACAD_SORTENTS
360
9E6
  0
DICTIONARY
  5
29B9
330
29AD
100
AcDbDictionary
280
     1
281
     1
  3
ACAD_DIMASSOC
360
29BA
  0
DICTIONARY
  5
29DF
330
29D3
100
AcDbDictionary
280
     1
281
     1
  3
ACAD_DIMASSOC
360
29E0
  0
DICTIONARY
  5
29FC
330
29F3
100
AcDbDictionary
280
     1
281
     1
  3
ACAD_DIMASSOC
360
29FD
  0
DICTIONARY
  5
2A1C
330
2A10
100
AcDbDictionary
280
     1
281
     1
  3
ACAD_DIMASSOC
360
2A1D
  0
DICTIONARY
  5
2A3C
330
2A30
100
AcDbDictionary
280
     1
281
     1
  3
ACAD_DIMASSOC
360
2A3D
  0
DICTIONARY
  5
BE
102
{ACAD_REACTORS
330
C
102
}
330
C
100
AcDbDictionary
281
     1
  0
DICTIONARY
  5
D
102
{ACAD_REACTORS
330
C
102
}
330
C
100
AcDbDictionary
281
     1
  0
DICTIONARY
  5
1A
102
{ACAD_REACTORS
330
C
102
}
330
C
100
AcDbDictionary
281
     1
  3
Model
350
22
  3
配置1
350
1E
  3
配置2
350
26
  0
DICTIONARY
  5
BD
102
{ACAD_REACTORS
330
C
102
}
330
C
100
AcDbDictionary
281
     1
  0
DICTIONARY
  5
17
102
{ACAD_REACTORS
330
C
102
}
330
C
100
AcDbDictionary
281
     1
  3
Standard
350
18
  0
DICTIONARY
  5
19
102
{ACAD_REACTORS
330
C
102
}
330
C
100
AcDbDictionary
281
     1
  0
ACDBDICTIONARYWDFLT
  5
E
102
{ACAD_REACTORS
330
C
102
}
330
C
100
AcDbDictionary
281
     1
  3
Normal
350
F
100
AcDbDictionaryWithDefault
340
F
  0
DICTIONARY
  5
11A
102
{ACAD_REACTORS
330
C
102
}
330
C
100
AcDbDictionary
281
     1
  3
Standard
350
11B
  0
DICTIONARY
  5
2AE7
102
{ACAD_REACTORS
330
C
102
}
330
C
100
AcDbDictionary
281
     1
  0
DICTIONARY
  5
94
102
{ACAD_REACTORS
330
C
102
}
330
C
100
AcDbDictionary
281
     1
  3
CTABLESTYLE
350
138
  3
DIMASSOC
350
96
  3
INDEXCTL
350
95
  3
PROJECTNAME
350
2AE4
  0
DICTIONARY
  5
5B
102
{ACAD_REACTORS
330
C
102
}
330
C
100
AcDbDictionary
281
     1
  3
AcmBOM
350
1B5
  3
AcmStdDictionary
350
61
  3
AMDTSECTSYM_ARROWCOLOR
350
123
  0
DICTIONARY
  5
41
102
{ACAD_REACTORS
330
C
102
}
330
C
100
AcDbDictionary
281
     1
  0
DICTIONARY
  5
1B8
102
{ACAD_REACTORS
330
C
102
}
330
C
100
AcDbDictionary
281
     1
  0
XRECORD
  5
2AE6
102
{ACAD_REACTORS
330
C
102
}
330
C
100
AcDbXrecord
280
     1
  1
DWGPROPS COOKIE
  2

  3

  4

  6

  7

  8

  9

300
AmdtFileType=84
301
=
302
=
303
=
304
=
305
=
306
=
307
=
308
=
309
=
 40
0.1109517708333333
 41
2453731.618400787
 42
2453732.445016088
  1

 90
        1
  0
DICTIONARY
  5
5B7
102
{ACAD_REACTORS
330
3F9
102
}
330
3F9
100
AcDbDictionary
281
     1
  0
DICTIONARY
  5
1563
102
{ACAD_REACTORS
330
3F9
102
}
330
3F9
100
AcDbDictionary
281
     1
  0
DICTIONARY
  5
5B6
102
{ACAD_REACTORS
330
3F9
102
}
330
3F9
100
AcDbDictionary
281
     1
1001
ACAD
1000
<All
  0
SORTENTSTABLE
  5
9E6
102
{ACAD_REACTORS
330
8F
102
}
330
8F
100
AcDbSortentsTable
330
1F
331
23FC
  5
23FC
331
268B
  5
268B
331
223C
  5
223C
331
1B53
  5
1B53
331
1B72
  5
1B72
331
21D7
  5
21D7
331
21F6
  5
21F6
331
172A
  5
172A
331
177F
  5
177F
331
2491
  5
2491
331
268C
  5
268C
331
26AB
  5
26AC
331
23FD
  5
23FD
331
1B54
  5
1B54
331
1B73
  5
1B73
331
21D8
  5
21D8
331
21F7
  5
21F7
331
1D80
  5
1D80
331
1A96
  5
1A96
331
172B
  5
172B
331
174A
  5
174A
331
1780
  5
1780
331
268D
  5
268D
331
26AC
  5
26AD
331
23FE
  5
23FE
331
241D
  5
241D
331
2492
  5
2492
331
1B55
  5
1B55
331
1B74
  5
1B74
331
1AA6
  5
1AA6
331
1D81
  5
1D81
331
21D9
  5
21D9
331
21F8
  5
21F8
331
1A97
  5
1A97
331
172C
  5
172C
331
1762
  5
1762
331
1781
  5
1781
331
17B8
  5
17B8
331
23FF
  5
23FF
331
2493
  5
2493
331
268E
  5
268E
331
26AD
  5
26AE
331
1D82
  5
1D82
331
1B56
  5
1B56
331
1AA7
  5
1AA7
331
1D33
  5
1D33
331
21DA
  5
21DA
331
21F9
  5
21F9
331
1A98
  5
1A98
331
172D
  5
172D
331
1782
  5
1782
331
17B9
  5
17B9
331
2494
  5
2494
331
268F
  5
268F
331
26AE
  5
26AF
331
1B57
  5
1B57
331
1AA8
  5
1AA8
331
1D83
  5
1D83
331
21DB
  5
21DB
331
21FA
  5
21FA
331
226F
  5
226F
331
1A99
  5
1A99
331
172E
  5
172E
331
1783
  5
1783
331
17BA
  5
17BA
331
2401
  5
2401
331
2690
  5
2690
331
26AF
  5
26B0
331
1AA9
  5
1AA9
331
21DC
  5
21DC
331
207F
  5
207F
331
2270
  5
2270
331
1784
  5
1784
331
17BB
  5
17BB
331
172F
  5
172F
331
174E
  5
174E
331
1A9A
  5
1A9A
331
2402
  5
2402
331
2421
  5
2421
331
2691
  5
2691
331
26B0
  5
26B1
331
1E12
  5
1E12
331
1F00
  5
1F00
331
1B59
  5
1B59
331
1B78
  5
1B78
331
21DD
  5
21DD
331
2080
  5
2080
331
2271
  5
2271
331
1AAA
  5
1AAA
331
1A9B
  5
1A9B
331
1730
  5
1730
331
174F
  5
174F
331
1766
  5
1766
331
2403
  5
2403
331
2422
  5
2422
331
1F01
  5
1F01
331
1F20
  5
1F20
331
1B5A
  5
1B5A
331
1B79
  5
1B79
331
224B
  5
224B
331
2272
  5
2272
331
1AAB
  5
1AAB
331
21DE
  5
21DE
331
1D10
  5
1D10
331
1A9C
  5
1A9C
331
1731
  5
1731
331
1767
  5
1767
331
2404
  5
2404
331
2423
  5
2423
331
24C7
  5
24C7
331
2693
  5
2693
331
1F02
  5
1F02
331
1F21
  5
1F21
331
1B5B
  5
1B5B
331
1B7A
  5
1B7A
331
21FE
  5
21FE
331
224C
  5
224C
331
1AAC
  5
1AAC
331
21DF
  5
21DF
331
1D11
  5
1D11
331
1DB6
  5
1DB6
331
1732
  5
1732
331
1768
  5
1768
331
1A9D
  5
1A9D
331
24C8
  5
24C8
331
2694
  5
2694
331
26B3
  5
26B4
331
2424
  5
2424
331
1F03
  5
1F03
331
1F22
  5
1F22
331
1B5C
  5
1B5C
331
1B7B
  5
1B7B
331
224D
  5
224D
331
1AAD
  5
1AAD
331
21E0
  5
21E0
331
1D12
  5
1D12
331
1DB7
  5
1DB7
331
1E15
  5
1E15
331
1733
  5
1733
331
1A9E
  5
1A9E
331
26B4
  5
26B5
331
2587
  5
2587
331
2425
  5
2425
331
24C9
  5
24C9
331
1F23
  5
1F23
331
1B5D
  5
1B5D
331
1B7C
  5
1B7C
331
1AAE
  5
1AAE
331
1D13
  5
1D13
331
1DB8
  5
1DB8
331
21E1
  5
21E1
331
2227
  5
2227
331
224E
  5
224E
331
1F04
  5
1F04
331
1A9F
  5
1A9F
331
1734
  5
1734
331
1791
  5
1791
331
2588
  5
2588
331
2426
  5
2426
331
244D
  5
244D
331
24A3
  5
24A3
331
24CA
  5
24CA
331
26B5
  5
26B6
331
1FC8
  5
1FC8
331
1B5E
  5
1B5E
331
1B7D
  5
1B7D
331
1AAF
  5
1AAF
331
1D5B
  5
1D5B
331
1D92
  5
1D92
331
1DB9
  5
1DB9
331
1F05
  5
1F05
331
21E2
  5
21E2
331
22A5
  5
22A5
331
1F24
  5
1F24
331
1735
  5
1735
331
1792
  5
1792
331
2408
  5
2408
331
2427
  5
2427
331
24A4
  5
24A4
331
26B6
  5
26B7
331
1B5F
  5
1B5F
331
1B7E
  5
1B7E
331
1AB0
  5
1AB0
331
21E3
  5
21E3
331
1D5C
  5
1D5C
331
1D93
  5
1D93
331
1E18
  5
1E18
331
1F06
  5
1F06
331
1F25
  5
1F25
331
1FA2
  5
1FA2
331
1FC9
  5
1FC9
331
176C
  5
176C
331
1793
  5
1793
331
1736
  5
1736
331
198A
  5
198A
331
2409
  5
2409
331
2428
  5
2428
331
24A5
  5
24A5
331
2698
  5
2698
331
26B7
  5
26B8
331
1D5D
  5
1D5D
331
1D94
  5
1D94
331
1DBB
  5
1DBB
331
1F07
  5
1F07
331
1F26
  5
1F26
331
1FA3
  5
1FA3
331
1AB1
  5
1AB1
331
21E4
  5
21E4
331
22A7
  5
22A7
331
1B60
  5
1B60
331
1794
  5
1794
331
198B
  5
198B
331
1737
  5
1737
331
176D
  5
176D
331
240A
  5
240A
331
2429
  5
2429
331
247F
  5
247F
331
24A6
  5
24A6
331
2699
  5
2699
331
26B8
  5
26B9
331
1D5E
  5
1D5E
331
1D95
  5
1D95
331
1F08
  5
1F08
331
1F27
  5
1F27
331
1FA4
  5
1FA4
331
21E5
  5
21E5
331
2281
  5
2281
331
22A8
  5
22A8
331
1B61
  5
1B61
331
176E
  5
176E
331
1795
  5
1795
331
240B
  5
240B
331
242A
  5
242A
331
269A
  5
269A
331
26B9
  5
26BA
331
1F09
  5
1F09
331
1F28
  5
1F28
331
1F3F
  5
1F3F
331
1FA5
  5
1FA5
331
2282
  5
2282
331
22A9
  5
22A9
331
1B62
  5
1B62
331
1B81
  5
1B81
331
21E6
  5
21E6
331
176F
  5
176F
331
1796
  5
1796
331
242B
  5
242B
331
269B
  5
269B
331
26BA
  5
26BB
331
240C
  5
240C
331
1F0A
  5
1F0A
331
1F29
  5
1F29
331
2283
  5
2283
331
22AA
  5
22AA
331
1B63
  5
1B63
331
1B82
  5
1B82
331
1DBE
  5
1DBE
331
1797
  5
1797
331
26BB
  5
26BC
331
240D
  5
240D
331
242C
  5
242C
331
245B
  5
245B
331
1F0B
  5
1F0B
331
1F2A
  5
1F2A
331
1B64
  5
1B64
331
1B83
  5
1B83
331
1D22
  5
1D22
331
225D
  5
225D
331
2284
  5
2284
331
23EE
  5
23EE
331
26BC
  5
26BD
331
240E
  5
240E
331
242D
  5
242D
331
245C
  5
245C
331
24D9
  5
24D9
331
1B65
  5
1B65
331
1B84
  5
1B84
331
1D23
  5
1D23
331
23EF
  5
23EF
331
225E
  5
225E
331
1F0C
  5
1F0C
331
1F2B
  5
1F2B
331
242E
  5
242E
331
245D
  5
245D
331
24DA
  5
24DA
331
26BD
  5
26BE
331
1FD8
  5
1FD8
331
1B66
  5
1B66
331
1B85
  5
1B85
331
1AB7
  5
1AB7
331
1D24
  5
1D24
331
225F
  5
225F
331
1F0D
  5
1F0D
331
1F2C
  5
1F2C
331
242F
  5
242F
331
245E
  5
245E
331
24DB
  5
24DB
331
2680
  5
2680
331
26BE
  5
26BF
331
1B67
  5
1B67
331
1B86
  5
1B86
331
1AB8
  5
1AB8
331
1D25
  5
1D25
331
1F0E
  5
1F0E
331
1F2D
  5
1F2D
331
1F4C
  5
1F4C
331
1FD9
  5
1FD9
331
24B5
  5
24B5
331
24DC
  5
24DC
331
2681
  5
2681
331
26A0
  5
26AB
331
26BF
  5
26C0
331
1D6D
  5
1D6D
331
1DA4
  5
1DA4
331
1F2E
  5
1F2E
331
1FDA
  5
1FDA
331
1AB9
  5
1AB9
331
1B68
  5
1B68
331
1B87
  5
1B87
331
24B6
  5
24B6
331
2682
  5
2682
331
26C0
  5
26C1
331
1D6E
  5
1D6E
331
1DA5
  5
1DA5
331
1F10
  5
1F10
331
1F2F
  5
1F2F
331
1FB4
  5
1FB4
331
1FDB
  5
1FDB
331
1B69
  5
1B69
331
1B88
  5
1B88
331
1ABA
  5
1ABA
331
24B7
  5
24B7
331
24DE
  5
24DE
331
2683
  5
2683
331
26C1
  5
26C2
331
1EF2
  5
1EF2
331
1F11
  5
1F11
331
1F30
  5
1F30
331
1F7E
  5
1F7E
331
1FB5
  5
1FB5
331
1B6A
  5
1B6A
331
1B89
  5
1B89
331
1ABB
  5
1ABB
331
1D6F
  5
1D6F
331
1DA6
  5
1DA6
331
24DF
  5
24DF
331
2684
  5
2684
331
26C2
  5
26C3
331
1EF3
  5
1EF3
331
1F12
  5
1F12
331
1F31
  5
1F31
331
1F7F
  5
1F7F
331
1FB6
  5
1FB6
331
1B6B
  5
1B6B
331
1B8A
  5
1B8A
331
1ABC
  5
1ABC
331
1D70
  5
1D70
331
1DA7
  5
1DA7
331
2685
  5
2685
331
26C3
  5
26C4
331
1F13
  5
1F13
331
1F32
  5
1F32
331
1F80
  5
1F80
331
1FB7
  5
1FB7
331
1FDE
  5
1FDE
331
1B6C
  5
1B6C
331
1B8B
  5
1B8B
331
1EF4
  5
1EF4
331
26C4
  5
26C5
331
2686
  5
2686
331
1F5A
  5
1F5A
331
1F81
  5
1F81
331
1FDF
  5
1FDF
331
1B6D
  5
1B6D
331
1B8C
  5
1B8C
331
1E0F
  5
1E0F
331
1EF5
  5
1EF5
331
2687
  5
2687
331
26C5
  5
26C6
331
1B6E
  5
1B6E
331
1B8D
  5
1B8D
331
1EF6
  5
1EF6
331
1F5B
  5
1F5B
331
1FE0
  5
1FE0
331
26C6
  5
26C7
331
1B8E
  5
1B8E
331
1EF7
  5
1EF7
331
1F5C
  5
1F5C
331
1FE1
  5
1FE1
331
1B6F
  5
1B6F
331
26C7
  5
26C8
331
1EF8
  5
1EF8
331
1F17
  5
1F17
331
1F5D
  5
1F5D
331
1B8F
  5
1B8F
331
1F18
  5
1F18
331
1EFA
  5
1EFA
331
1F19
  5
1F19
331
1EFB
  5
1EFB
331
1F1A
  5
1F1A
331
1F1B
  5
1F1B
331
1F90
  5
1F90
331
1EFC
  5
1EFC
331
1F91
  5
1F91
331
1EFD
  5
1EFD
331
1F1C
  5
1F1C
331
1EFE
  5
1EFE
331
1F1D
  5
1F1D
331
1F92
  5
1F92
331
1EFF
  5
1EFF
331
1F6C
  5
1F6C
331
1F93
  5
1F93
331
1F6D
  5
1F6D
331
1F6E
  5
1F6E
331
1F6F
  5
1F6F
331
1FC6
  5
1FC6
331
1FC7
  5
1FC7
331
1738
  5
1738
331
1739
  5
1739
331
21C8
  5
21C8
331
173A
  5
173A
331
1770
  5
1770
331
21C9
  5
21C9
331
21E8
  5
21E8
331
173B
  5
173B
331
1771
  5
1771
331
21CA
  5
21CA
331
21E9
  5
21E9
331
173C
  5
173C
331
1753
  5
1753
331
1772
  5
1772
331
1799
  5
1799
331
21EA
  5
21EA
331
2228
  5
2228
331
1A89
  5
1A89
331
173D
  5
173D
331
1754
  5
1754
331
1773
  5
1773
331
179A
  5
179A
331
23F1
  5
23F1
331
21CC
  5
21CC
331
21EB
  5
21EB
331
2229
  5
2229
331
2260
  5
2260
331
1755
  5
1755
331
1774
  5
1774
331
173E
  5
173E
331
23F2
  5
23F2
331
2411
  5
2411
331
2430
  5
2430
331
21CD
  5
21CD
331
220B
  5
220B
331
222A
  5
222A
331
1A8B
  5
1A8B
331
173F
  5
173F
331
1756
  5
1756
331
1775
  5
1775
331
23F3
  5
23F3
331
2412
  5
2412
331
2431
  5
2431
331
220C
  5
220C
331
21CE
  5
21CE
331
1A8C
  5
1A8C
331
1740
  5
1740
331
1757
  5
1757
331
1776
  5
1776
331
23F4
  5
23F4
331
2432
  5
2432
331
2480
  5
2480
331
21CF
  5
21CF
331
1A8D
  5
1A8D
331
1741
  5
1741
331
1758
  5
1758
331
1777
  5
1777
331
2481
  5
2481
331
24B8
  5
24B8
331
23F5
  5
23F5
331
21D0
  5
21D0
331
21EF
  5
21EF
331
1A8E
  5
1A8E
331
1742
  5
1742
331
1759
  5
1759
331
1778
  5
1778
331
24E0
  5
24E0
331
23F6
  5
23F6
331
2482
  5
2482
331
2294
  5
2294
331
2348
  5
2348
331
21D1
  5
21D1
331
21F0
  5
21F0
331
1743
  5
1743
331
175A
  5
175A
331
1779
  5
1779
331
17A8
  5
17A8
331
23F7
  5
23F7
331
24E1
  5
24E1
331
2349
  5
2349
331
21D2
  5
21D2
331
21F1
  5
21F1
331
2295
  5
2295
331
1744
  5
1744
331
177A
  5
177A
331
17A9
  5
17A9
331
23F8
  5
23F8
331
246D
  5
246D
331
1AA0
  5
1AA0
331
21D3
  5
21D3
331
21F2
  5
21F2
331
2219
  5
2219
331
2296
  5
2296
331
1745
  5
1745
331
177B
  5
177B
331
23F9
  5
23F9
331
246E
  5
246E
331
2688
  5
2688
331
1AA1
  5
1AA1
331
21D4
  5
21D4
331
21F3
  5
21F3
331
2239
  5
2239
331
2297
  5
2297
331
177C
  5
177C
331
1746
  5
1746
331
23FA
  5
23FA
331
2440
  5
2440
331
246F
  5
246F
331
2689
  5
2689
331
21D5
  5
21D5
331
21F4
  5
21F4
331
223A
  5
223A
331
1B70
  5
1B70
331
1728
  5
1728
331
175E
  5
175E
331
177D
  5
177D
331
23FB
  5
23FB
331
2470
  5
2470
331
268A
  5
268A
331
26C8
  5
26A0
331
1B52
  5
1B52
331
1B71
  5
1B71
331
1B90
  5
1B90
331
21F5
  5
21F5
331
223B
  5
223B
331
1AA3
  5
1AA3
331
21D6
  5
21D6
331
1729
  5
1729
331
177E
  5
177E
  0
DIMASSOC
  5
29BA
102
{ACAD_REACTORS
330
29B9
102
}
330
29B9
100
AcDbDimAssoc
330
29AD
 90
        2
 70
     0
 71
     0
  1
AcDbOsnapPointRef
 72
     3
331
1B55
 73
     2
 91
        0
 40
0.0
 10
0.0
 20
0.0
 30
0.0
 75
     0
  0
DIMASSOC
  5
29E0
102
{ACAD_REACTORS
330
29DF
102
}
330
29DF
100
AcDbDimAssoc
330
29D3
 90
        2
 70
     0
 71
     0
  1
AcDbOsnapPointRef
 72
     3
331
1EF5
 73
     2
 91
        0
 40
0.0
 10
0.0
 20
0.0
 30
0.0
 75
     0
  0
DIMASSOC
  5
29FD
102
{ACAD_REACTORS
330
29FC
102
}
330
29FC
100
AcDbDimAssoc
330
29F3
 90
        2
 70
     0
 71
     0
  1
AcDbOsnapPointRef
 72
     3
331
21F9
 73
     2
 91
        0
 40
0.0
 10
0.0
 20
0.0
 30
0.0
 75
     0
  0
DIMASSOC
  5
2A1D
102
{ACAD_REACTORS
330
2A1C
102
}
330
2A1C
100
AcDbDimAssoc
330
2A10
 90
        2
 70
     0
 71
     0
  1
AcDbOsnapPointRef
 72
     3
331
2424
 73
     2
 91
        0
 40
0.0
 10
0.0
 20
0.0
 30
0.0
 75
     0
  0
DIMASSOC
  5
2A3D
102
{ACAD_REACTORS
330
2A3C
102
}
330
2A3C
100
AcDbDimAssoc
330
2A30
 90
        2
 70
     0
 71
     0
  1
AcDbOsnapPointRef
 72
     3
331
26B3
 73
     2
 91
        0
 40
0.0
 10
0.0
 20
0.0
 30
0.0
 75
     0
  0
LAYOUT
  5
22
102
{ACAD_XDICTIONARY
360
2AEA
102
}
102
{ACAD_REACTORS
330
1A
102
}
330
1A
100
AcDbPlotSettings
  1

  2
\\RD\EPSON Stylus C63 Series單色
  4
A4
  6

 40
3.757083177566528
 41
3.757076978683471
 42
3.757080078125
 43
3.757080078125
 44
209.9733276367187
 45
296.9683227539062
 46
0.0
 47
0.0
 48
0.0
 49
0.0
140
0.0
141
0.0
142
1.0
143
0.3405120737814363
 70
 11952
 72
     1
 73
     0
 74
     0
  7
單色出圖.ctb
 75
     0
147
2.936753428137963
148
-2047.07469463503
149
-1261.649717473083
100
AcDbLayout
  1
Model
 70
     1
 71
     0
 10
0.0
 20
0.0
 11
12.0
 21
9.0
 12
0.0
 22
0.0
 32
0.0
 14
0.0
 24
0.0
 34
0.0
 15
0.0
 25
0.0
 35
0.0
146
0.0
 13
0.0
 23
0.0
 33
0.0
 16
1.0
 26
0.0
 36
0.0
 17
0.0
 27
1.0
 37
0.0
 76
     0
330
1F
1001
ACAD_PSEXT
1000
\\RD\EPSON Stylus C63 Series單色
1000
EPSON Stylus C63 Series
1000
\\RD
1000

1070
     0
  0
LAYOUT
  5
1E
102
{ACAD_XDICTIONARY
360
2AE8
102
}
102
{ACAD_REACTORS
330
1A
102
}
330
1A
100
AcDbPlotSettings
  1

  2

  4

  6

 40
0.0
 41
0.0
 42
0.0
 43
0.0
 44
0.0
 45
0.0
 46
0.0
 47
0.0
 48
0.0
 49
0.0
140
0.0
141
0.0
142
1.0
143
1.0
 70
   688
 72
     0
 73
     0
 74
     5
  7
單色出圖.ctb
 75
    16
147
1.0
148
0.0
149
0.0
100
AcDbLayout
  1
配置1
 70
     1
 71
     1
 10
0.0
 20
0.0
 11
420.0
 21
297.0
 12
0.0
 22
0.0
 32
0.0
 14
1.000000000000000E+20
 24
1.000000000000000E+20
 34
1.000000000000000E+20
 15
-1.000000000000000E+20
 25
-1.000000000000000E+20
 35
-1.000000000000000E+20
146
0.0
 13
0.0
 23
0.0
 33
0.0
 16
1.0
 26
0.0
 36
0.0
 17
0.0
 27
1.0
 37
0.0
 76
     0
330
1B
  0
LAYOUT
  5
26
102
{ACAD_XDICTIONARY
360
2AEC
102
}
102
{ACAD_REACTORS
330
1A
102
}
330
1A
100
AcDbPlotSettings
  1

  2

  4

  6

 40
0.0
 41
0.0
 42
0.0
 43
0.0
 44
0.0
 45
0.0
 46
0.0
 47
0.0
 48
0.0
 49
0.0
140
0.0
141
0.0
142
1.0
143
1.0
 70
   688
 72
     0
 73
     0
 74
     5
  7
單色出圖.ctb
 75
    16
147
1.0
148
0.0
149
0.0
100
AcDbLayout
  1
配置2
 70
     1
 71
     2
 10
0.0
 20
0.0
 11
12.0
 21
9.0
 12
0.0
 22
0.0
 32
0.0
 14
0.0
 24
0.0
 34
0.0
 15
0.0
 25
0.0
 35
0.0
146
0.0
 13
0.0
 23
0.0
 33
0.0
 16
1.0
 26
0.0
 36
0.0
 17
0.0
 27
1.0
 37
0.0
 76
     0
330
23
  0
MLINESTYLE
  5
18
102
{ACAD_REACTORS
330
17
102
}
330
17
100
AcDbMlineStyle
  2
STANDARD
 70
     0
  3

 62
   256
 51
90.0
 52
90.0
 71
     2
 49
0.5
 62
   256
  6
BYLAYER
 49
-0.5
 62
   256
  6
BYLAYER
  0
ACDBPLACEHOLDER
  5
F
102
{ACAD_REACTORS
330
E
102
}
330
E
  0
TABLESTYLE
  5
11B
102
{ACAD_REACTORS
330
11A
102
}
330
11A
100
AcDbTableStyle
  3
Standard
 70
     0
 71
     0
 40
1.5
 41
1.5
280
     0
281
     0
  7
STANDARD
140
4.5
170
     2
 62
     0
 63
     7
283
     0
274
    -2
284
     1
 64
     0
275
    -2
285
     1
 65
     0
276
    -2
286
     1
 66
     0
277
    -2
287
     1
 67
     0
278
    -2
288
     1
 68
     0
279
    -2
289
     1
 69
     0
  7
STANDARD
140
6.0
170
     5
 62
     0
 63
     7
283
     0
274
    -2
284
     1
 64
     0
275
    -2
285
     1
 65
     0
276
    -2
286
     1
 66
     0
277
    -2
287
     1
 67
     0
278
    -2
288
     1
 68
     0
279
    -2
289
     1
 69
     0
  7
STANDARD
140
4.5
170
     5
 62
     0
 63
     7
283
     0
274
    -2
284
     1
 64
     0
275
    -2
285
     1
 65
     0
276
    -2
286
     1
 66
     0
277
    -2
287
     1
 67
     0
278
    -2
288
     1
 68
     0
279
    -2
289
     1
 69
     0
  0
DICTIONARYVAR
  5
138
102
{ACAD_REACTORS
330
94
102
}
330
94
100
DictionaryVariables
280
     0
  1
STANDARD
  0
DICTIONARYVAR
  5
96
102
{ACAD_REACTORS
330
94
102
}
330
94
100
DictionaryVariables
280
     0
  1
2
  0
DICTIONARYVAR
  5
95
102
{ACAD_REACTORS
330
94
102
}
330
94
100
DictionaryVariables
280
     0
  1
0
  0
DICTIONARYVAR
  5
2AE4
102
{ACAD_REACTORS
330
94
102
}
330
94
100
DictionaryVariables
280
     0
  1

  0
DICTIONARY
  5
1B5
102
{ACAD_REACTORS
330
5B
102
}
330
5B
100
AcDbDictionary
281
     1
  0
DICTIONARY
  5
61
102
{ACAD_REACTORS
330
5B
102
}
330
5B
100
AcDbDictionary
281
     1
  0
XRECORD
  5
123
102
{ACAD_REACTORS
330
5B
102
}
330
5B
100
AcDbXrecord
280
     1
 90
-1023410169
  0
DICTIONARY
  5
2AEA
330
22
100
AcDbDictionary
280
     1
281
     1
  3
ACAD_XREC_ROUNDTRIP
360
2AEB
  0
DICTIONARY
  5
2AE8
330
1E
100
AcDbDictionary
280
     1
281
     1
  3
ACAD_XREC_ROUNDTRIP
360
2AE9
  0
DICTIONARY
  5
2AEC
330
26
100
AcDbDictionary
280
     1
281
     1
  3
ACAD_XREC_ROUNDTRIP
360
2AED
  0
XRECORD
  5
2AEB
102
{ACAD_REACTORS
330
2AEA
102
}
330
2AEA
100
AcDbXrecord
280
     1
102
SHADEPLOT
 70
     0
102
SHADEPLOTRESLEVEL
 70
     2
102
SHADEPLOTCUSTOMDPI
 70
   300
  0
XRECORD
  5
2AE9
102
{ACAD_REACTORS
330
2AE8
102
}
330
2AE8
100
AcDbXrecord
280
     1
102
SHADEPLOT
 70
     0
102
SHADEPLOTRESLEVEL
 70
     2
102
SHADEPLOTCUSTOMDPI
 70
   300
  0
XRECORD
  5
2AED
102
{ACAD_REACTORS
330
2AEC
102
}
330
2AEC
100
AcDbXrecord
280
     1
102
SHADEPLOT
 70
     0
102
SHADEPLOTRESLEVEL
 70
     2
102
SHADEPLOTCUSTOMDPI
 70
   300
  0
ENDSEC
  0
EOF
