  0
SECTION
  2
HEADER
  9
$ACADVER
  1
AC1015
  9
$ACADMAINTVER
 70
    20
  9
$DWGCODEPAGE
  3
ANSI_950
  9
$INSBASE
 10
0.0
 20
0.0
 30
0.0
  9
$EXTMIN
 10
1932.473470742587
 20
25.0931076865495
 30
-0.0079935138433029
  9
$EXTMAX
 10
3032.731060942861
 20
825.1640579856953
 30
524.2389038779103
  9
$LIMMIN
 10
0.0
 20
0.0
  9
$LIMMAX
 10
420.0
 20
297.0
  9
$ORTHOMODE
 70
     1
  9
$REGENMODE
 70
     1
  9
$FILLMODE
 70
     1
  9
$QTEXTMODE
 70
     0
  9
$MIRRTEXT
 70
     1
  9
$LTSCALE
 40
1.0
  9
$ATTMODE
 70
     1
  9
$TEXTSIZE
 40
3.0
  9
$TRACEWID
 40
1.0
  9
$TEXTSTYLE
  7
CHINESET
  9
$CLAYER
  8
0
  9
$CELTYPE
  6
ByLayer
  9
$CECOLOR
 62
   256
  9
$CELTSCALE
 40
1.0
  9
$DISPSILH
 70
     0
  9
$DIMSCALE
 40
1.0
  9
$DIMASZ
 40
3.0
  9
$DIMEXO
 40
1.0
  9
$DIMDLI
 40
10.0
  9
$DIMRND
 40
0.0
  9
$DIMDLE
 40
0.0
  9
$DIMEXE
 40
1.5
  9
$DIMTP
 40
0.1
  9
$DIMTM
 40
0.1
  9
$DIMTXT
 40
3.0
  9
$DIMCEN
 40
0.0
  9
$DIMTSZ
 40
0.0
  9
$DIMTOL
 70
     0
  9
$DIMLIM
 70
     0
  9
$DIMTIH
 70
     0
  9
$DIMTOH
 70
     0
  9
$DIMSE1
 70
     0
  9
$DIMSE2
 70
     0
  9
$DIMTAD
 70
     1
  9
$DIMZIN
 70
     8
  9
$DIMBLK
  1

  9
$DIMASO
 70
     1
  9
$DIMSHO
 70
     1
  9
$DIMPOST
  1

  9
$DIMAPOST
  1
"
  9
$DIMALT
 70
     0
  9
$DIMALTD
 70
     2
  9
$DIMALTF
 40
0.0393701
  9
$DIMLFAC
 40
1.0
  9
$DIMTOFL
 70
     1
  9
$DIMTVP
 40
0.0
  9
$DIMTIX
 70
     0
  9
$DIMSOXD
 70
     0
  9
$DIMSAH
 70
     0
  9
$DIMBLK1
  1

  9
$DIMBLK2
  1

  9
$DIMSTYLE
  2
AM_ISO
  9
$DIMCLRD
 70
   256
  9
$DIMCLRE
 70
   256
  9
$DIMCLRT
 70
   256
  9
$DIMTFAC
 40
0.71
  9
$DIMGAP
 40
1.0
  9
$DIMJUST
 70
     0
  9
$DIMSD1
 70
     0
  9
$DIMSD2
 70
     0
  9
$DIMTOLJ
 70
     0
  9
$DIMTZIN
 70
     8
  9
$DIMALTZ
 70
     0
  9
$DIMALTTZ
 70
     0
  9
$DIMUPT
 70
     0
  9
$DIMDEC
 70
     2
  9
$DIMTDEC
 70
     8
  9
$DIMALTU
 70
     2
  9
$DIMALTTD
 70
     2
  9
$DIMTXSTY
  7
CHINESET
  9
$DIMAUNIT
 70
     0
  9
$DIMADEC
 70
     0
  9
$DIMALTRND
 40
0.0
  9
$DIMAZIN
 70
     2
  9
$DIMDSEP
 70
    46
  9
$DIMATFIT
 70
     3
  9
$DIMFRAC
 70
     0
  9
$DIMLDRBLK
  1

  9
$DIMLUNIT
 70
     2
  9
$DIMLWD
 70
    -1
  9
$DIMLWE
 70
    -1
  9
$DIMTMOVE
 70
     0
  9
$LUNITS
 70
     2
  9
$LUPREC
 70
     2
  9
$SKETCHINC
 40
1.0
  9
$FILLETRAD
 40
2.5
  9
$AUNITS
 70
     0
  9
$AUPREC
 70
     0
  9
$MENU
  1
.
  9
$ELEVATION
 40
0.0
  9
$PELEVATION
 40
0.0
  9
$THICKNESS
 40
0.0
  9
$LIMCHECK
 70
     0
  9
$CHAMFERA
 40
0.0
  9
$CHAMFERB
 40
0.0
  9
$CHAMFERC
 40
20.0
  9
$CHAMFERD
 40
0.0
  9
$SKPOLY
 70
     0
  9
$TDCREATE
 40
2453731.618400787
  9
$TDUCREATE
 40
2453731.285067453
  9
$TDUPDATE
 40
2453732.445477245
  9
$TDUUPDATE
 40
2453732.112143912
  9
$TDINDWG
 40
0.1609195833
  9
$TDUSRTIMER
 40
0.1609195833
  9
$USRTIMER
 70
     1
  9
$ANGBASE
 50
0.0
  9
$ANGDIR
 70
     0
  9
$PDMODE
 70
     0
  9
$PDSIZE
 40
0.0
  9
$PLINEWID
 40
0.0
  9
$SPLFRAME
 70
     0
  9
$SPLINETYPE
 70
     6
  9
$SPLINESEGS
 70
     8
  9
$HANDSEED
  5
38B5
  9
$SURFTAB1
 70
     6
  9
$SURFTAB2
 70
     6
  9
$SURFTYPE
 70
     6
  9
$SURFU
 70
     6
  9
$SURFV
 70
     6
  9
$UCSBASE
  2

  9
$UCSNAME
  2

  9
$UCSORG
 10
0.0
 20
0.0
 30
0.0
  9
$UCSXDIR
 10
1.0
 20
0.0
 30
0.0
  9
$UCSYDIR
 10
0.0
 20
1.0
 30
0.0
  9
$UCSORTHOREF
  2

  9
$UCSORTHOVIEW
 70
     0
  9
$UCSORGTOP
 10
0.0
 20
0.0
 30
0.0
  9
$UCSORGBOTTOM
 10
0.0
 20
0.0
 30
0.0
  9
$UCSORGLEFT
 10
0.0
 20
0.0
 30
0.0
  9
$UCSORGRIGHT
 10
0.0
 20
0.0
 30
0.0
  9
$UCSORGFRONT
 10
0.0
 20
0.0
 30
0.0
  9
$UCSORGBACK
 10
0.0
 20
0.0
 30
0.0
  9
$PUCSBASE
  2

  9
$PUCSNAME
  2

  9
$PUCSORG
 10
0.0
 20
0.0
 30
0.0
  9
$PUCSXDIR
 10
1.0
 20
0.0
 30
0.0
  9
$PUCSYDIR
 10
0.0
 20
1.0
 30
0.0
  9
$PUCSORTHOREF
  2

  9
$PUCSORTHOVIEW
 70
     0
  9
$PUCSORGTOP
 10
0.0
 20
0.0
 30
0.0
  9
$PUCSORGBOTTOM
 10
0.0
 20
0.0
 30
0.0
  9
$PUCSORGLEFT
 10
0.0
 20
0.0
 30
0.0
  9
$PUCSORGRIGHT
 10
0.0
 20
0.0
 30
0.0
  9
$PUCSORGFRONT
 10
0.0
 20
0.0
 30
0.0
  9
$PUCSORGBACK
 10
0.0
 20
0.0
 30
0.0
  9
$USERI1
 70
     0
  9
$USERI2
 70
     0
  9
$USERI3
 70
     0
  9
$USERI4
 70
     0
  9
$USERI5
 70
     0
  9
$USERR1
 40
0.0
  9
$USERR2
 40
0.0
  9
$USERR3
 40
0.0
  9
$USERR4
 40
0.0
  9
$USERR5
 40
0.0
  9
$WORLDVIEW
 70
     1
  9
$SHADEDGE
 70
     3
  9
$SHADEDIF
 70
    70
  9
$TILEMODE
 70
     1
  9
$MAXACTVP
 70
    64
  9
$PINSBASE
 10
0.0
 20
0.0
 30
0.0
  9
$PLIMCHECK
 70
     0
  9
$PEXTMIN
 10
1.000000000000000E+20
 20
1.000000000000000E+20
 30
1.000000000000000E+20
  9
$PEXTMAX
 10
-1.000000000000000E+20
 20
-1.000000000000000E+20
 30
-1.000000000000000E+20
  9
$PLIMMIN
 10
0.0
 20
0.0
  9
$PLIMMAX
 10
420.0
 20
297.0
  9
$UNITMODE
 70
     0
  9
$VISRETAIN
 70
     1
  9
$PLINEGEN
 70
     0
  9
$PSLTSCALE
 70
     1
  9
$TREEDEPTH
 70
  3020
  9
$CMLSTYLE
  2
Standard
  9
$CMLJUST
 70
     0
  9
$CMLSCALE
 40
20.0
  9
$PROXYGRAPHICS
 70
     1
  9
$MEASUREMENT
 70
     1
  9
$CELWEIGHT
370
    -1
  9
$ENDCAPS
280
     0
  9
$JOINSTYLE
280
     0
  9
$LWDISPLAY
290
     0
  9
$INSUNITS
 70
     4
  9
$HYPERLINKBASE
  1

  9
$STYLESHEET
  1
彩色出圖.ctb
  9
$XEDIT
290
     1
  9
$CEPSNTYPE
380
     0
  9
$PSTYLEMODE
290
     1
  9
$FINGERPRINTGUID
  2
{0D855794-04CD-42EC-BA89-F7EABE2626E6}
  9
$VERSIONGUID
  2
{2262D26F-9E86-4907-922C-7B440EDBEFD8}
  9
$EXTNAMES
290
     1
  9
$PSVPSCALE
 40
0.0
  9
$OLESTARTUP
290
     0
  0
ENDSEC
  0
SECTION
  2
CLASSES
  0
CLASS
  1
ACDBDICTIONARYWDFLT
  2
AcDbDictionaryWithDefault
  3
ObjectDBX Classes
 90
        0
280
     0
281
     0
  0
CLASS
  1
ACDBPLACEHOLDER
  2
AcDbPlaceHolder
  3
ObjectDBX Classes
 90
        0
280
     0
281
     0
  0
CLASS
  1
LAYOUT
  2
AcDbLayout
  3
ObjectDBX Classes
 90
        0
280
     0
281
     0
  0
CLASS
  1
ACME_DOCUMENT
  2
AcMeDbDoc
  3
AcMeServices
 90
        0
280
     0
281
     0
  0
CLASS
  1
AMGSETTINGSOBJ
  2
AmgSettingsObj
  3
"AcadM|Product Description: AutoCAD Mechanical 2000|Company: Autodesk"
 90
        0
280
     0
281
     0
  0
CLASS
  1
ACMESCOPE
  2
AcMeScope
  3
AcMeServices
 90
        0
280
     0
281
     0
  0
CLASS
  1
ACMECOMMANDHISTORY
  2
AcMeCommandHistory
  3
AcMeServices
 90
        0
280
     0
281
     0
  0
CLASS
  1
ACIMSYSVARMAN
  2
AcImSysVarManager
  3
AcMeServices
 90
        0
280
     0
281
     0
  0
CLASS
  1
ACIMREALSYSVAR
  2
AcImRealSysVar
  3
AcMeServices
 90
        0
280
     0
281
     0
  0
CLASS
  1
ACIMINTSYSVAR
  2
AcImIntSysVar
  3
AcMeServices
 90
        0
280
     0
281
     0
  0
CLASS
  1
ACMEDRAWINGMAN
  2
AcMeDrawingMan
  3
AcMeServices
 90
        0
280
     0
281
     0
  0
CLASS
  1
ACMEVIEW
  2
AcMeView
  3
AcMeServices
 90
        0
280
     0
281
     0
  0
CLASS
  1
ACDBENTITYCACHE
  2
AcMeEntityCache
  3
AcMeServices
 90
        0
280
     0
281
     0
  0
CLASS
  1
GSMANAGER
  2
AcMeGSManager
  3
AcMeServices
 90
        0
280
     0
281
     0
  0
CLASS
  1
AMDTINTERNALREACTOR
  2
AmdtInternalReactor
  3
AcMeServices
 90
        0
280
     0
281
     0
  0
CLASS
  1
ACMESTATEMGR
  2
AcMeStateMgr
  3
AcMeServices
 90
        0
280
     0
281
     0
  0
CLASS
  1
ACGREFMASTER
  2
AcGrefMaster
  3
AcAttribServices
 90
        0
280
     0
281
     0
  0
CLASS
  1
ACME_DATABASE
  2
AcMeDbDatabase
  3
AcMeServices
 90
        0
280
     0
281
     0
  0
CLASS
  1
ACRFINSADJUSTERMGR
  2
AcRfInsAdjusterMgr
  3
AcMeServices
 90
        0
280
     0
281
     0
  0
CLASS
  1
ACGREFACADMASTER
  2
AcGrefacadMaster
  3
AcGrefServices
 90
        0
280
     0
281
     0
  0
CLASS
  1
AMIMASTER
  2
AmiMaster
  3
AmiServices
 90
        0
280
     0
281
     0
  0
CLASS
  1
ACMDATADICTIONARY
  2
AcmDataDictionary
  3
"AcmSymBB|Product Description: AutoCAD Mechanical 2004 DX|Company: Autodesk"
 90
        0
280
     0
281
     0
  0
CLASS
  1
ACMDATAENTRYBLOCK
  2
AcmDataEntryBlock
  3
"AcmSymBB|Product Description: AutoCAD Mechanical 2004 DX|Company: Autodesk"
 90
        0
280
     0
281
     0
  0
CLASS
  1
ACIMSTRSYSVAR
  2
AcImStrSysVar
  3
AcMeServices
 90
        0
280
     0
281
     0
  0
CLASS
  1
ACMSTANDARDISO
  2
AcmStandardISO
  3
"Amdt_StdImp|Product Description: AutoCAD Mechanical 2004 DX|Company: Autodesk"
 90
        0
280
     0
281
     0
  0
CLASS
  1
AMGOBJPROPCFG
  2
AmgObjPropCfg
  3
"AmgLay|Product Description: AutoCAD Mechanical 2000|Company: Autodesk"
 90
        1
280
     0
281
     0
  0
CLASS
  1
AMDTEDGESTANDARDISO
  2
AmdtEdgeStdISO
  3
"Amdt_StdImp|Product Description: AutoCAD Mechanical 2004 DX|Company: Autodesk"
 90
        0
280
     0
281
     0
  0
CLASS
  1
ACMSURFSTANDARDISO
  2
AcmSurfTextStdISO
  3
"Amdt_StdImp|Product Description: AutoCAD Mechanical 2004 DX|Company: Autodesk"
 90
        0
280
     0
281
     0
  0
CLASS
  1
ACMFCFSTANDARDISO
  2
AcmFCFStdISO
  3
"Amdt_StdImp|Product Description: AutoCAD Mechanical 2004 DX|Company: Autodesk"
 90
        0
280
     0
281
     0
  0
CLASS
  1
ACMWELDSTANDARDISO
  2
AcmWeldingStdISO
  3
"Amdt_StdImp|Product Description: AutoCAD Mechanical 2004 DX|Company: Autodesk"
 90
        0
280
     0
281
     0
  0
CLASS
  1
ACMIDSTANDARDISO
  2
AcmIdStdISO
  3
"Amdt_StdImp|Product Description: AutoCAD Mechanical 2004 DX|Company: Autodesk"
 90
        0
280
     0
281
     0
  0
CLASS
  1
ACMDATUMSTANDARDISO
  2
AcmDatumStdISO
  3
"Amdt_StdImp|Product Description: AutoCAD Mechanical 2004 DX|Company: Autodesk"
 90
        0
280
     0
281
     0
  0
CLASS
  1
ACMBOMSTANDARDISO
  2
AcmBOMStdISO
  3
"Amdt_StdImp|Product Description: AutoCAD Mechanical 2004 DX|Company: Autodesk"
 90
        0
280
     0
281
     0
  0
CLASS
  1
ACMDETAILSTANDARDISO
  2
AmdtDetailSymStdISO
  3
"Amdt_StdImp|Product Description: AutoCAD Mechanical 2004 DX|Company: Autodesk"
 90
        0
280
     0
281
     0
  0
CLASS
  1
ACMSECTIONSTANDARDISO
  2
AmdtSectionSymStdISO
  3
"Amdt_StdImp|Product Description: AutoCAD Mechanical 2004 DX|Company: Autodesk"
 90
        0
280
     0
281
     0
  0
CLASS
  1
ACMCENTERLINESTANDARDISO
  2
AmdtCenterLineStdISO
  3
"Amdt_StdImp|Product Description: AutoCAD Mechanical 2004 DX|Company: Autodesk"
 90
        0
280
     0
281
     0
  0
CLASS
  1
ACMNOTESTANDARDISO
  2
AmdtNoteStdISO
  3
"Amdt_StdImp|Product Description: AutoCAD Mechanical 2004 DX|Company: Autodesk"
 90
        0
280
     0
281
     0
  0
CLASS
  1
ACAMGLAYSTD
  2
AcAmgLayStd
  3
"AcAmgLayStd|Product Description: AutoCAD Mechanical 2000|Company: Autodesk"
 90
        0
280
     0
281
     0
  0
CLASS
  1
ACAMGDIMSTD
  2
AcAmgDimStd
  3
"AcAmgDimStd|Product Description: AutoCAD Mechanical 2000|Company: Autodesk"
 90
        0
280
     0
281
     0
  0
CLASS
  1
ACAMGHOLECHARTSTDISO
  2
AcAmgHoleChartStdISO
  3
ACMSYMBB_MODULE_NAME
 90
        0
280
     0
281
     0
  0
CLASS
  1
ACAMGTITLESTD
  2
AcAmgTitleStd
  3
"TITLEAPP"
 90
        0
280
     0
281
     0
  0
CLASS
  1
LAYER_INDEX
  2
AcDbLayerIndex
  3
ObjectDBX Classes
 90
    32768
280
     0
281
     0
  0
CLASS
  1
IDBUFFER
  2
AcDbIdBuffer
  3
ObjectDBX Classes
 90
    32768
280
     0
281
     0
  0
CLASS
  1
DICTIONARYVAR
  2
AcDbDictionaryVar
  3
ObjectDBX Classes
 90
        0
280
     0
281
     0
  0
CLASS
  1
AM_DRAWING_MGR
  2
AcDmDwgMgr
  3
AcMechDwgViewMgmt
 90
        0
280
     0
281
     0
  0
CLASS
  1
AM_DWG_DOCUMENT
  2
AcDmDwgDocument
  3
AcMechDwgViewMgmt
 90
        0
280
     0
281
     0
  0
CLASS
  1
AM_DWG_SHEET
  2
AcDmSheet
  3
AcMechDwgViewMgmt
 90
        0
280
     0
281
     0
  0
CLASS
  1
AM_VIEWDIMPARMAP
  2
AcDmViewDimParMap
  3
AcMechDwgViewMgmt
 90
        0
280
     0
281
     0
  0
CLASS
  1
AM_DWGMGR_NAME
  2
AcDmDwgMgrName
  3
AcMechDwgViewMgmt
 90
        0
280
     0
281
     0
  0
CLASS
  1
AMDTMENUSTATEMGR
  2
AmdtMenuStateMgr
  3
McadcomServices
 90
        0
280
     0
281
     0
  0
CLASS
  1
AMDTMCOMMENUSTATE
  2
AmdtMcomMenuState
  3
McadcomServices
 90
        0
280
     0
281
     0
  0
CLASS
  1
MAPIAMMOUDLE
  2
MApiAmModule
  3
MApiAmServices
 90
        0
280
     0
281
     0
  0
CLASS
  1
AMDTADMENUSTATE
  2
AmdtAdMenuState
  3
DesignerServices
 90
        0
280
     0
281
     0
  0
CLASS
  1
ADAPPL
  2
AcAdAppl
  3
DesignerServices
 90
        0
280
     0
281
     0
  0
CLASS
  1
DEPMGR
  2
AcAdDepMgr
  3
DesignerServices
 90
        0
280
     0
281
     0
  0
CLASS
  1
PARAMMGR
  2
AcAdParamMgr
  3
DesignerServices
 90
        0
280
     0
281
     0
  0
CLASS
  1
PARAMSCOPE
  2
AcAdParamScope
  3
DesignerServices
 90
        0
280
     0
281
     0
  0
CLASS
  1
NAMEDAPPL
  2
AcAdNamedAppl
  3
DesignerServices
 90
        0
280
     0
281
     0
  0
CLASS
  1
AMDTDMMENUSTATE
  2
AmdtDmMenuState
  3
AcMechDwgViewMgmt
 90
        0
280
     0
281
     0
  0
CLASS
  1
AMDTAMMENUSTATE
  2
AmdtAmMenuState
  3
DesignerAssemblies
 90
        0
280
     0
281
     0
  0
CLASS
  1
ACAMPROJECT
  2
AcAmProject
  3
DesignerAssemblies
 90
        0
280
     0
281
     0
  0
CLASS
  1
ACAMGRCOMPDEF
  2
AcAmGrCompDef
  3
DesignerAssemblies
 90
        0
280
     0
281
     0
  0
CLASS
  1
ACCMCONTEXT
  2
AcCmContext
  3
DesignerAssemblies
 90
        0
280
     0
281
     0
  0
CLASS
  1
ACAMCOMPDEF
  2
AcAmCompDef
  3
DesignerAssemblies
 90
        0
280
     0
281
     0
  0
CLASS
  1
ACAMCOMPDEFMGR
  2
AcAmCompDefMgr
  3
DesignerAssemblies
 90
        0
280
     0
281
     0
  0
CLASS
  1
AMCONTEXTMGR
  2
AcAmContextMgr
  3
DesignerAssemblies
 90
        0
280
     0
281
     0
  0
CLASS
  1
ACAMCONTEXTMODELER
  2
AcAmContextModeler
  3
DesignerAssemblies
 90
        0
280
     0
281
     0
  0
CLASS
  1
ACMTHREADLINESTANDARDISO
  2
AmdtThreadLineStdISO
  3
"Amdt_StdImp|Product Description: AutoCAD Mechanical 2004 DX|Company: Autodesk"
 90
        0
280
     0
281
     0
  0
CLASS
  1
CATALOGSTATE
  2
AcAmCatalogState
  3
DesignerAssemblies
 90
        0
280
     0
281
     0
  0
CLASS
  1
ACAMGRCOMPDEFSET
  2
AcAmGrCompDefSet
  3
DesignerAssemblies
 90
        0
280
     0
281
     0
  0
CLASS
  1
AMDTBROWSERDBTAB
  2
AmdtBrowserDbTab
  3
McadcomServices
 90
        0
280
     0
281
     0
  0
CLASS
  1
CBROWSERAPPOBJECT
  2
CBrowserAppObject
  3
McadcomServices
 90
        0
280
     0
281
     0
  0
CLASS
  1
DM_PLACEHOLDER
  2
AcDmSelsetPlaceholder
  3
AcMechDwgViewMgmt
 90
        0
280
     0
281
     0
  0
CLASS
  1
TABLESTYLE
  2
AcDbTableStyle
  3
ObjectDBX Classes
 90
     2047
280
     0
281
     0
  0
CLASS
  1
VAACXREFPANELOBJECT
  2
VaAcXREFPanelObject
  3
VAAC_ADDIN
 90
    32768
280
     0
281
     0
  0
CLASS
  1
VAACIMAGEINVENTORY
  2
VaAcImageInventory
  3
VAAC_ADDIN
 90
    32768
280
     0
281
     0
  0
CLASS
  1
AMDTNOTETEMPLATEDB
  2
AmdtNoteTemplateDB
  3
AMDT_STDIMP_MODULE_NAME
 90
        0
280
     0
281
     0
  0
CLASS
  1
ACMBOM
  2
AcmBom
  3
"AcmSymBB|Product Description: AutoCAD Mechanical 2004 DX|Company: Autodesk"
 90
    32768
280
     0
281
     0
  0
CLASS
  1
AMDTFORMULAUPDATEDISPATCHER
  2
AmdtFormulaUpdateDispatcher
  3
AcMeServices
 90
    32768
280
     0
281
     0
  0
CLASS
  1
ACMPARTLIST
  2
AcmPartList
  3
"AcmSymBB|Product Description: AutoCAD Mechanical 2004 DX|Company: Autodesk"
 90
    33791
280
     0
281
     1
  0
CLASS
  1
ACAMGFILTERDAT
  2
AcAmgFilterDat
  3
"AcadM|Product Description: AutoCAD Mechanical 2000|Company: Autodesk"
 90
        0
280
     0
281
     0
  0
CLASS
  1
DIMASSOC
  2
AcDbDimAssoc
  3
"AcDbDimAssoc|Product Desc:     AcDim ARX App For Dimension|Company:          Autodesk, Inc.|WEB Address:      www.autodesk.com"
 90
        0
280
     0
281
     0
  0
CLASS
  1
ACMSTANDARDANSI
  2
AcmStandardANSI
  3
"Amdt_StdImp|Product Description: AutoCAD Mechanical 2004 DX|Company: Autodesk"
 90
        0
280
     0
281
     0
  0
CLASS
  1
ACMSURFSTANDARDANSI
  2
AcmSurfTextStdANSI
  3
"Amdt_StdImp|Product Description: AutoCAD Mechanical 2004 DX|Company: Autodesk"
 90
        0
280
     0
281
     0
  0
CLASS
  1
ACMFCFSTANDARDANSI
  2
AcmFCFStdANSI
  3
"Amdt_StdImp|Product Description: AutoCAD Mechanical 2004 DX|Company: Autodesk"
 90
        0
280
     0
281
     0
  0
CLASS
  1
ACMWELDSTANDARDANSI
  2
AcmWeldingStdANSI
  3
"Amdt_StdImp|Product Description: AutoCAD Mechanical 2004 DX|Company: Autodesk"
 90
        0
280
     0
281
     0
  0
CLASS
  1
ACMIDSTANDARDANSI
  2
AcmIdStdANSI
  3
"Amdt_StdImp|Product Description: AutoCAD Mechanical 2004 DX|Company: Autodesk"
 90
        0
280
     0
281
     0
  0
CLASS
  1
ACMDATUMSTANDARDANSI
  2
AcmDatumStdANSI
  3
"Amdt_StdImp|Product Description: AutoCAD Mechanical 2004 DX|Company: Autodesk"
 90
        0
280
     0
281
     0
  0
CLASS
  1
ACMBOMSTANDARDANSI
  2
AcmBOMStdANSI
  3
"Amdt_StdImp|Product Description: AutoCAD Mechanical 2004 DX|Company: Autodesk"
 90
        0
280
     0
281
     0
  0
CLASS
  1
ACMDETAILSTANDARDANSI
  2
AmdtDetailSymStdANSI
  3
"Amdt_StdImp|Product Description: AutoCAD Mechanical 2004 DX|Company: Autodesk"
 90
        0
280
     0
281
     0
  0
CLASS
  1
ACMSECTIONSTANDARDANSI
  2
AmdtSectionSymStdANSI
  3
"Amdt_StdImp|Product Description: AutoCAD Mechanical 2004 DX|Company: Autodesk"
 90
        0
280
     0
281
     0
  0
CLASS
  1
ACMCENTERLINESTANDARDANSI
  2
AmdtCenterLineStdANSI
  3
"Amdt_StdImp|Product Description: AutoCAD Mechanical 2004 DX|Company: Autodesk"
 90
        0
280
     0
281
     0
  0
CLASS
  1
ACMTHREADLINESTANDARDANSI
  2
AmdtThreadLineStdANSI
  3
"Amdt_StdImp|Product Description: AutoCAD Mechanical 2004 DX|Company: Autodesk"
 90
        0
280
     0
281
     0
  0
CLASS
  1
ACMNOTESTANDARDANSI
  2
AmdtNoteStdANSI
  3
"Amdt_StdImp|Product Description: AutoCAD Mechanical 2004 DX|Company: Autodesk"
 90
        0
280
     0
281
     0
  0
CLASS
  1
ACAMGHOLECHARTSTDANSI
  2
AcAmgHoleChartStdANSI
  3
ACMSYMBB_MODULE_NAME
 90
        0
280
     0
281
     0
  0
CLASS
  1
SORTENTSTABLE
  2
AcDbSortentsTable
  3
ObjectDBX Classes
 90
        0
280
     0
281
     0
  0
CLASS
  1
ACRFATTGENMGR
  2
AcRfAttGeneralMgr
  3
AcAttribServices
 90
        0
280
     0
281
     0
  0
ENDSEC
  0
SECTION
  2
TABLES
  0
TABLE
  2
VPORT
  5
8
330
0
100
AcDbSymbolTable
 70
     3
  0
VPORT
  5
38AC
330
8
100
AcDbSymbolTableRecord
100
AcDbViewportTableRecord
  2
*Active
 70
     0
 10
0.0
 20
0.0
 11
1.0
 21
1.0
 12
2482.757881914006
 22
425.0973979691419
 13
0.0
 23
0.0
 14
2.5
 24
2.5
 15
10.0
 25
10.0
 16
0.0
 26
0.0
 36
1.0
 17
0.0
 27
0.0
 37
0.0
 40
809.9622588540462
 41
1.81766917293233
 42
50.0
 43
0.0
 44
0.0
 50
0.0
 51
0.0
 71
     0
 72
   100
 73
     1
 74
     3
 75
     0
 76
     0
 77
     0
 78
     0
281
     0
 65
     1
110
0.0
120
0.0
130
0.0
111
1.0
121
0.0
131
0.0
112
0.0
122
1.0
132
0.0
 79
     0
146
0.0
  0
ENDTAB
  0
TABLE
  2
LTYPE
  5
5
330
0
100
AcDbSymbolTable
 70
    16
  0
LTYPE
  5
14
330
5
100
AcDbSymbolTableRecord
100
AcDbLinetypeTableRecord
  2
ByBlock
 70
     0
  3

 72
    65
 73
     0
 40
0.0
  0
LTYPE
  5
15
330
5
100
AcDbSymbolTableRecord
100
AcDbLinetypeTableRecord
  2
ByLayer
 70
     0
  3

 72
    65
 73
     0
 40
0.0
  0
LTYPE
  5
16
330
5
100
AcDbSymbolTableRecord
100
AcDbLinetypeTableRecord
  2
Continuous
 70
     0
  3
Solid line
 72
    65
 73
     0
 40
0.0
  0
LTYPE
  5
64
330
5
100
AcDbSymbolTableRecord
100
AcDbLinetypeTableRecord
  2
AM_ISO02W050
 70
     0
  3
__ __ __ __ __ __ __ __ __ __ __ __ __ __ __
 72
    65
 73
     2
 40
7.5
 49
6.0
 74
     0
 49
-1.5
 74
     0
  0
LTYPE
  5
65
330
5
100
AcDbSymbolTableRecord
100
AcDbLinetypeTableRecord
  2
AM_ISO08W050
 70
     0
  3
____ . ____ . ____ . ____ . ____ . ____ . ____
 72
    65
 73
     4
 40
18.0
 49
12.0
 74
     0
 49
-1.5
 74
     0
 49
3.0
 74
     0
 49
-1.5
 74
     0
  0
LTYPE
  5
66
330
5
100
AcDbSymbolTableRecord
100
AcDbLinetypeTableRecord
  2
AM_ISO09W050
 70
     0
  3
_____ . . _____ . . _____ . . ____ .. ____
 72
    65
 73
     6
 40
22.5
 49
12.0
 74
     0
 49
-1.5
 74
     0
 49
3.0
 74
     0
 49
-1.5
 74
     0
 49
3.0
 74
     0
 49
-1.5
 74
     0
  0
LTYPE
  5
67
330
5
100
AcDbSymbolTableRecord
100
AcDbLinetypeTableRecord
  2
Amconstr
 70
     0
  3
_______________________
 72
    65
 73
     2
 40
9999.0
 49
9999.0
 74
     0
 49
0.0
 74
     0
  0
LTYPE
  5
68
330
5
100
AcDbSymbolTableRecord
100
AcDbLinetypeTableRecord
  2
AM_ISO08W050x2
 70
     0
  3
__ . __ . __ . __ . __ . __
 72
    65
 73
     4
 40
9.0
 49
6.0
 74
     0
 49
-0.75
 74
     0
 49
1.5
 74
     0
 49
-0.75
 74
     0
  0
LTYPE
  5
69
330
5
100
AcDbSymbolTableRecord
100
AcDbLinetypeTableRecord
  2
AM_ISO02W050x2
 70
     0
  3
 _ _ _ _ _ _ _ _ _ _ _ _
 72
    65
 73
     2
 40
3.75
 49
3.0
 74
     0
 49
-0.75
 74
     0
  0
LTYPE
  5
6C
330
5
100
AcDbSymbolTableRecord
100
AcDbLinetypeTableRecord
  2
Amzigzag
 70
     0
  3
/\/-/\/-/\/-/\/-/\/-/\/
 72
    65
 73
     2
 40
11.0001
 49
0.0001
 74
     4
 75
   135
340
6B
 46
0.04
 50
0.0
 44
0.0
 45
0.0
 49
-11.0
 74
     0
  0
LTYPE
  5
7A
330
5
100
AcDbSymbolTableRecord
100
AcDbLinetypeTableRecord
  2
ACISOWELD
 70
     0
  3
_ _ _ _ _
 72
    65
 73
     2
 40
2.0
 49
2.0
 74
     0
 49
-1.0
 74
     0
  0
LTYPE
  5
7B
330
5
100
AcDbSymbolTableRecord
100
AcDbLinetypeTableRecord
  2
ACISOTGB
 70
     0
  3
__ . . __ . .
 72
    65
 73
     6
 40
9.0
 49
4.0
 74
     0
 49
-1.0
 74
     0
 49
1.0
 74
     0
 49
-1.0
 74
     0
 49
1.0
 74
     0
 49
-1.0
 74
     0
  0
LTYPE
  5
7C
330
5
100
AcDbSymbolTableRecord
100
AcDbLinetypeTableRecord
  2
ACISOTGL
 70
     0
  3
_ _ _ _ _
 72
    65
 73
     2
 40
3.0
 49
2.0
 74
     0
 49
-1.0
 74
     0
  0
LTYPE
  5
7E
330
5
100
AcDbSymbolTableRecord
100
AcDbLinetypeTableRecord
  2
CENTER
 70
     0
  3
__ . __
 72
    65
 73
     4
 40
7.0
 49
4.0
 74
     0
 49
-1.0
 74
     0
 49
1.0
 74
     0
 49
-1.0
 74
     0
  0
LTYPE
  5
D8
330
5
100
AcDbSymbolTableRecord
100
AcDbLinetypeTableRecord
  2
HIDDEN
 70
     0
  3
Hidden __ __ __ __ __ __ __ __ __ __ __ __ __ _
 72
    65
 73
     2
 40
9.524999999999998
 49
6.349999999999999
 74
     0
 49
-3.174999999999999
 74
     0
  0
LTYPE
  5
D9
330
5
100
AcDbSymbolTableRecord
100
AcDbLinetypeTableRecord
  2
PHANTOM2
 70
     0
  3
Phantom (.5x) ___ _ _ ___ _ _ ___ _ _ ___ _ _
 72
    65
 73
     6
 40
31.75
 49
15.875
 74
     0
 49
-3.174999999999999
 74
     0
 49
3.174999999999999
 74
     0
 49
-3.174999999999999
 74
     0
 49
3.174999999999999
 74
     0
 49
-3.174999999999999
 74
     0
  0
LTYPE
  5
7F5
330
5
100
AcDbSymbolTableRecord
100
AcDbLinetypeTableRecord
  2
ACANSTGB
 70
     0
  3
__ . . __ . .
 72
    65
 73
     6
 40
0.35433070866
 49
0.15748031496
 74
     0
 49
-0.03937007874
 74
     0
 49
0.03937007874
 74
     0
 49
-0.03937007874
 74
     0
 49
0.03937007874
 74
     0
 49
-0.03937007874
 74
     0
  0
LTYPE
  5
7F6
330
5
100
AcDbSymbolTableRecord
100
AcDbLinetypeTableRecord
  2
ACANSTGL
 70
     0
  3
_ _ _ _ _
 72
    65
 73
     2
 40
0.11811023622
 49
0.07874015748
 74
     0
 49
-0.03937007874
 74
     0
  0
ENDTAB
  0
TABLE
  2
LAYER
  5
2
102
{ACAD_XDICTIONARY
360
3F9
102
}
330
0
100
AcDbSymbolTable
 70
     5
  0
LAYER
  5
10
330
2
100
AcDbSymbolTableRecord
100
AcDbLayerTableRecord
  2
0
 70
     0
 62
     7
  6
Continuous
370
    -3
390
F
  0
LAYER
  5
8B2
330
2
100
AcDbSymbolTableRecord
100
AcDbLayerTableRecord
  2
AM_7
 70
     0
 62
     1
  6
CENTER
370
    25
390
F
  0
LAYER
  5
1083
330
2
100
AcDbSymbolTableRecord
100
AcDbLayerTableRecord
  2
AM_5
 70
     0
 62
     5
  6
Continuous
370
    50
390
F
  0
LAYER
  5
1093
330
2
100
AcDbSymbolTableRecord
100
AcDbLayerTableRecord
  2
Defpoints
 70
     0
 62
     7
  6
Continuous
290
     0
370
    -3
390
F
  0
LAYER
  5
1560
330
2
100
AcDbSymbolTableRecord
100
AcDbLayerTableRecord
  2
LOGO
 70
     0
 62
     7
  6
Continuous
370
    -3
390
F
  0
ENDTAB
  0
TABLE
  2
STYLE
  5
3
330
0
100
AcDbSymbolTable
 70
     8
  0
STYLE
  5
11
330
3
100
AcDbSymbolTableRecord
100
AcDbTextStyleTableRecord
  2
STANDARD
 70
     0
 40
0.0
 41
1.0
 50
0.0
 71
     0
 42
3.0
  3
ISOCP.SHX
  4
CHINESET.SHX
  0
STYLE
  5
6B
330
3
100
AcDbSymbolTableRecord
100
AcDbTextStyleTableRecord
  2

 70
     1
 40
0.0
 41
1.0
 50
0.0
 71
     0
 42
2.5
  3
ltypeshp.shx
  4

  0
STYLE
  5
6D
330
3
100
AcDbSymbolTableRecord
100
AcDbTextStyleTableRecord
  2
ACISOTS
 70
     0
 40
1.0
 41
1.0
 50
0.0
 71
     0
 42
1.0
  3
isocp.shx
  4
chineset.shx
  0
STYLE
  5
79
330
3
100
AcDbSymbolTableRecord
100
AcDbTextStyleTableRecord
  2
ACISOGDT
 70
     0
 40
0.0
 41
1.0
 50
0.0
 71
     0
 42
2.5
  3
amgdt.shx
  4
chineset.shx
  0
STYLE
  5
60C
330
3
100
AcDbSymbolTableRecord
100
AcDbTextStyleTableRecord
  2
CHINESET
 70
     0
 40
0.0
 41
0.75
 50
0.0
 71
     0
 42
3.0
  3
simplex.shx
  4
CHINESET.SHX
  0
STYLE
  5
7F9
330
3
100
AcDbSymbolTableRecord
100
AcDbTextStyleTableRecord
  2
ACANSTS
 70
     0
 40
1.0
 41
1.0
 50
0.0
 71
     0
 42
5.84703234913793
  3
romans.shx
  4
chineset.shx
  0
STYLE
  5
7FA
330
3
100
AcDbSymbolTableRecord
100
AcDbTextStyleTableRecord
  2
ACANSGDT
 70
     0
 40
0.0
 41
1.0
 50
0.0
 71
     0
 42
5.84703234913793
  3
amgdtans.shx
  4

  0
ENDTAB
  0
TABLE
  2
VIEW
  5
6
330
0
100
AcDbSymbolTable
 70
     0
  0
ENDTAB
  0
TABLE
  2
UCS
  5
7
330
0
100
AcDbSymbolTable
 70
     0
  0
ENDTAB
  0
TABLE
  2
APPID
  5
9
330
0
100
AcDbSymbolTable
 70
    19
  0
APPID
  5
12
330
9
100
AcDbSymbolTableRecord
100
AcDbRegAppTableRecord
  2
ACAD
 70
     0
  0
APPID
  5
46
330
9
100
AcDbSymbolTableRecord
100
AcDbRegAppTableRecord
  2
MCAD_NO_VIS
 70
     0
  0
APPID
  5
47
330
9
100
AcDbSymbolTableRecord
100
AcDbRegAppTableRecord
  2
ACAD_TEMP_GRAPHIC
 70
     0
  0
APPID
  5
58
330
9
100
AcDbSymbolTableRecord
100
AcDbRegAppTableRecord
  2
ACATTRIBSERVICES
 70
     0
  0
APPID
  5
EE
330
9
100
AcDbSymbolTableRecord
100
AcDbRegAppTableRecord
  2
AD_DRAW
 70
     0
  0
APPID
  5
10C
330
9
100
AcDbSymbolTableRecord
100
AcDbRegAppTableRecord
  2
DESIGNERASSEMBLIES
 70
     0
  0
APPID
  5
111
330
9
100
AcDbSymbolTableRecord
100
AcDbRegAppTableRecord
  2
ACADM_DIM_EDIT
 70
     0
  0
APPID
  5
112
330
9
100
AcDbSymbolTableRecord
100
AcDbRegAppTableRecord
  2
AMDT_DM_ADJ
 70
     0
  0
APPID
  5
22C
330
9
100
AcDbSymbolTableRecord
100
AcDbRegAppTableRecord
  2
ACAD_DSTYLE_DIMTEXT_FILL
 70
     0
  0
APPID
  5
452
330
9
100
AcDbSymbolTableRecord
100
AcDbRegAppTableRecord
  2
GENIUS_GENOENT_13
 70
     0
  0
APPID
  5
453
330
9
100
AcDbSymbolTableRecord
100
AcDbRegAppTableRecord
  2
GENIUS_GENOBJ-N-CRS_13
 70
     0
  0
APPID
  5
454
330
9
100
AcDbSymbolTableRecord
100
AcDbRegAppTableRecord
  2
GENIUS_GENOLIS_13
 70
     0
  0
APPID
  5
455
330
9
100
AcDbSymbolTableRecord
100
AcDbRegAppTableRecord
  2
GENIUS_GENODEF_13
 70
     0
  0
APPID
  5
456
330
9
100
AcDbSymbolTableRecord
100
AcDbRegAppTableRecord
  2
GENIUS_GENOREF_13
 70
     0
  0
APPID
  5
6F3
330
9
100
AcDbSymbolTableRecord
100
AcDbRegAppTableRecord
  2
ACAD_PSEXT
 70
     0
  0
APPID
  5
8B4
330
9
100
AcDbSymbolTableRecord
100
AcDbRegAppTableRecord
  2
GENIUS_GENOBJ-N-CEN_13
 70
     0
  0
APPID
  5
8B5
330
9
100
AcDbSymbolTableRecord
100
AcDbRegAppTableRecord
  2
GENIUS_GENCEN_19
 70
     0
  0
APPID
  5
1561
330
9
100
AcDbSymbolTableRecord
100
AcDbRegAppTableRecord
  2
GENIUS_GENREC_14
 70
     0
  0
APPID
  5
1562
330
9
100
AcDbSymbolTableRecord
100
AcDbRegAppTableRecord
  2
GENIUS_GENOBJ-N-REC_13
 70
     0
  0
ENDTAB
  0
TABLE
  2
DIMSTYLE
  5
A
330
0
100
AcDbSymbolTable
 70
    15
100
AcDbDimStyleTable
 71
     3
340
81
340
8B
340
86
  0
DIMSTYLE
105
81
330
A
100
AcDbSymbolTableRecord
100
AcDbDimStyleTableRecord
  2
AM_ISO
 70
     0
  4
"
 41
3.0
 42
1.0
 43
10.0
 44
1.5
 47
0.1
 48
0.1
 73
     0
 74
     0
 77
     1
 78
     8
 79
     2
140
3.0
141
0.0
143
0.0393701
146
0.71
147
1.0
172
     1
176
   256
177
   256
178
   256
271
     2
272
     2
283
     0
284
     8
340
60C
371
    -1
372
    -1
  0
DIMSTYLE
105
82
102
{ACAD_REACTORS
330
3790
330
37B6
330
37F0
330
3813
330
3830
102
}
330
A
100
AcDbSymbolTableRecord
100
AcDbDimStyleTableRecord
  2
AM_ISO$3
 70
     0
  4
"
 41
3.0
 42
1.0
 43
10.0
 44
1.5
 47
0.1
 48
0.1
 73
     0
 77
     1
 78
     8
 79
     2
140
3.0
141
0.0
143
0.0393701
146
0.71
147
1.0
176
   256
177
   256
178
   256
271
     2
272
     2
283
     0
284
     8
288
     1
289
     0
340
60C
371
    -1
372
    -1
  0
DIMSTYLE
105
83
330
A
100
AcDbSymbolTableRecord
100
AcDbDimStyleTableRecord
  2
AM_ISO$4
 70
     0
  4
"
 41
3.0
 42
1.0
 43
10.0
 44
1.5
 47
0.1
 48
0.1
 73
     0
 77
     1
 78
     8
 79
     2
140
3.0
141
0.0
143
0.0393701
146
0.71
147
1.0
176
   256
177
   256
178
   256
271
     2
272
     2
283
     0
284
     8
288
     1
289
     0
340
60C
371
    -1
372
    -1
  0
DIMSTYLE
105
84
330
A
100
AcDbSymbolTableRecord
100
AcDbDimStyleTableRecord
  2
AM_ISO$6
 70
     0
  4
"
 41
3.0
 42
1.0
 43
10.0
 44
1.5
 47
0.1
 48
0.1
 73
     0
 74
     0
 78
     8
 79
     2
140
3.0
141
0.0
143
0.0393701
146
0.71
147
1.0
172
     1
176
   256
177
   256
178
   256
271
     2
272
     2
283
     0
284
     8
340
60C
371
    -1
372
    -1
  0
DIMSTYLE
105
85
330
A
100
AcDbSymbolTableRecord
100
AcDbDimStyleTableRecord
  2
AM_ISO$7
 70
     0
  4
"
 41
3.0
 42
1.0
 43
10.0
 44
1.5
 47
0.1
 48
0.1
 73
     0
 74
     0
 77
     1
 78
     8
 79
     2
140
5.0
141
0.0
143
0.0393701
146
0.71
147
1.0
172
     1
176
   256
177
   256
178
   256
271
     2
272
     2
283
     0
284
     8
340
60C
371
    -1
372
    -1
  0
DIMSTYLE
105
86
330
A
100
AcDbSymbolTableRecord
100
AcDbDimStyleTableRecord
  2
AM_ISO$SF
 70
     0
  4
"
 41
2.5
 42
1.0
 43
10.0
 44
1.0
 47
0.1
 48
0.1
 73
     0
 74
     0
 75
     1
 76
     1
 77
     1
 78
     8
 79
     2
140
3.5
141
0.0
143
0.0393701
146
0.71
147
1.5
172
     1
176
   256
177
   256
178
     2
271
     2
272
     3
274
     4
283
     0
284
     8
340
11
371
    -1
372
    -1
  0
DIMSTYLE
105
8B
330
A
100
AcDbSymbolTableRecord
100
AcDbDimStyleTableRecord
  2
AM_ISO$SH
 70
     0
  4
"
 41
2.5
 42
1.0
 43
10.0
 44
1.0
 47
0.1
 48
0.1
 73
     0
 74
     0
 75
     1
 76
     1
 77
     1
 78
     8
 79
     2
140
3.5
141
0.0
143
0.0393701
144
2.0
146
0.71
147
1.5
172
     1
173
     1
176
   256
177
   256
178
     2
271
     2
272
     3
274
     4
283
     0
284
     8
340
11
343
87
371
    -1
372
    -1
  0
DIMSTYLE
105
40B
102
{ACAD_REACTORS
330
2BBA
330
2BBB
330
2BBC
330
2BBD
330
2C9D
330
2CF7
330
2D1D
330
2E98
330
2E99
330
2E9A
330
2E9B
330
2F50
330
2F53
330
2F56
330
310B
330
310C
330
310D
330
310E
330
319F
330
31A0
330
31A1
330
330F
330
3310
330
3311
330
3312
330
3370
330
3371
330
3372
330
3412
330
35AB
330
35AC
330
35AD
330
3623
330
3624
330
3625
330
3626
330
36FF
330
3725
330
374B
330
3771
102
}
330
A
100
AcDbSymbolTableRecord
100
AcDbDimStyleTableRecord
  2
AM_ISO$0
 70
     0
  4
"
 41
3.0
 42
1.0
 43
10.0
 44
1.5
 47
0.1
 48
0.1
 73
     0
 74
     0
 77
     1
 78
     8
 79
     2
140
3.0
141
0.0
143
0.0393701
146
0.71
147
1.0
172
     1
176
   256
177
   256
178
   256
271
     2
272
     2
283
     0
284
     8
340
60C
371
    -1
372
    -1
  0
DIMSTYLE
105
7FC
330
A
100
AcDbSymbolTableRecord
100
AcDbDimStyleTableRecord
  2
AM_ANSI
 70
     0
  4
mm
 41
0.1
 42
0.05
 43
0.5
 44
0.1
 47
0.1
 48
0.1
 78
     7
 79
     2
140
0.12
141
0.0
146
0.71
147
0.06
176
   256
177
   256
178
     2
274
     4
284
     7
340
11
371
    -1
372
    -1
  0
DIMSTYLE
105
7FD
330
A
100
AcDbSymbolTableRecord
100
AcDbDimStyleTableRecord
  2
AM_ANSI$3
 70
     0
  4
mm
 41
0.1
 42
0.05
 43
0.5
 44
0.1
 47
0.1
 48
0.1
 78
     7
 79
     2
140
0.12
141
0.0
146
0.71
147
0.06
176
   256
177
   256
178
     2
274
     4
284
     7
288
     1
289
     0
340
11
371
    -1
372
    -1
  0
DIMSTYLE
105
7FE
330
A
100
AcDbSymbolTableRecord
100
AcDbDimStyleTableRecord
  2
AM_ANSI$4
 70
     0
  4
mm
 41
0.1
 42
0.05
 43
0.5
 44
0.1
 47
0.1
 48
0.1
 78
     7
 79
     2
140
0.12
141
0.0
146
0.71
147
0.06
176
   256
177
   256
178
     2
274
     4
284
     7
288
     1
289
     0
340
11
371
    -1
372
    -1
  0
DIMSTYLE
105
7FF
330
A
100
AcDbSymbolTableRecord
100
AcDbDimStyleTableRecord
  2
AM_ANSI$7
 70
     0
  4
mm
 41
0.1
 42
0.05
 43
0.5
 44
0.1
 47
0.1
 48
0.1
 78
     7
 79
     2
140
0.24
141
0.0
146
0.71
147
0.06
176
   256
177
   256
178
     2
274
     4
284
     7
340
11
371
    -1
372
    -1
  0
DIMSTYLE
105
800
330
A
100
AcDbSymbolTableRecord
100
AcDbDimStyleTableRecord
  2
AM_ANSI$SF
 70
     0
  4
mm
 41
0.1
 42
0.05
 43
0.5
 44
0.1
 47
0.1
 48
0.1
 75
     1
 76
     1
 78
     7
 79
     2
140
0.12
141
0.0
146
0.71
147
0.06
176
   256
177
   256
178
     2
274
     4
284
     7
340
11
371
    -1
372
    -1
  0
DIMSTYLE
105
801
330
A
100
AcDbSymbolTableRecord
100
AcDbDimStyleTableRecord
  2
AM_ANSI$SH
 70
     0
  4
mm
 41
0.1
 42
0.05
 43
0.5
 44
0.1
 47
0.1
 48
0.1
 75
     1
 76
     1
 78
     7
 79
     2
140
0.12
141
0.0
146
0.71
147
0.06
173
     1
176
   256
177
   256
178
     2
274
     4
284
     7
340
11
343
87
371
    -1
372
    -1
  0
ENDTAB
  0
TABLE
  2
BLOCK_RECORD
  5
1
330
0
100
AcDbSymbolTable
 70
    49
  0
BLOCK_RECORD
  5
1F
102
{ACAD_XDICTIONARY
360
8F
102
}
330
1
100
AcDbSymbolTableRecord
100
AcDbBlockTableRecord
  2
*Model_Space
340
22
  0
BLOCK_RECORD
  5
1B
330
1
100
AcDbSymbolTableRecord
100
AcDbBlockTableRecord
  2
*Paper_Space
340
1E
  0
BLOCK_RECORD
  5
23
330
1
100
AcDbSymbolTableRecord
100
AcDbBlockTableRecord
  2
*Paper_Space0
340
26
  0
BLOCK_RECORD
  5
87
330
1
100
AcDbSymbolTableRecord
100
AcDbBlockTableRecord
  2
GENAXEH
340
0
  0
BLOCK_RECORD
  5
2BBE
330
1
100
AcDbSymbolTableRecord
100
AcDbBlockTableRecord
  2
*D3
340
0
  0
BLOCK_RECORD
  5
2BCA
330
1
100
AcDbSymbolTableRecord
100
AcDbBlockTableRecord
  2
*D4
340
0
  0
BLOCK_RECORD
  5
2BD6
330
1
100
AcDbSymbolTableRecord
100
AcDbBlockTableRecord
  2
*D5
340
0
  0
BLOCK_RECORD
  5
2BE2
330
1
100
AcDbSymbolTableRecord
100
AcDbBlockTableRecord
  2
*D6
340
0
  0
BLOCK_RECORD
  5
2C9E
330
1
100
AcDbSymbolTableRecord
100
AcDbBlockTableRecord
  2
*D7
340
0
  0
BLOCK_RECORD
  5
2CF8
330
1
100
AcDbSymbolTableRecord
100
AcDbBlockTableRecord
  2
*D8
340
0
  0
BLOCK_RECORD
  5
2D1E
330
1
100
AcDbSymbolTableRecord
100
AcDbBlockTableRecord
  2
*D9
340
0
  0
BLOCK_RECORD
  5
2E9C
330
1
100
AcDbSymbolTableRecord
100
AcDbBlockTableRecord
  2
*D10
340
0
  0
BLOCK_RECORD
  5
2EA8
330
1
100
AcDbSymbolTableRecord
100
AcDbBlockTableRecord
  2
*D11
340
0
  0
BLOCK_RECORD
  5
2EB4
330
1
100
AcDbSymbolTableRecord
100
AcDbBlockTableRecord
  2
*D12
340
0
  0
BLOCK_RECORD
  5
2EC0
330
1
100
AcDbSymbolTableRecord
100
AcDbBlockTableRecord
  2
*D13
340
0
  0
BLOCK_RECORD
  5
2F59
330
1
100
AcDbSymbolTableRecord
100
AcDbBlockTableRecord
  2
*D14
340
0
  0
BLOCK_RECORD
  5
2F65
330
1
100
AcDbSymbolTableRecord
100
AcDbBlockTableRecord
  2
*D15
340
0
  0
BLOCK_RECORD
  5
2F71
330
1
100
AcDbSymbolTableRecord
100
AcDbBlockTableRecord
  2
*D16
340
0
  0
BLOCK_RECORD
  5
310F
330
1
100
AcDbSymbolTableRecord
100
AcDbBlockTableRecord
  2
*D17
340
0
  0
BLOCK_RECORD
  5
311B
330
1
100
AcDbSymbolTableRecord
100
AcDbBlockTableRecord
  2
*D18
340
0
  0
BLOCK_RECORD
  5
3127
330
1
100
AcDbSymbolTableRecord
100
AcDbBlockTableRecord
  2
*D19
340
0
  0
BLOCK_RECORD
  5
3133
330
1
100
AcDbSymbolTableRecord
100
AcDbBlockTableRecord
  2
*D20
340
0
  0
BLOCK_RECORD
  5
31A2
330
1
100
AcDbSymbolTableRecord
100
AcDbBlockTableRecord
  2
*D21
340
0
  0
BLOCK_RECORD
  5
31AE
330
1
100
AcDbSymbolTableRecord
100
AcDbBlockTableRecord
  2
*D22
340
0
  0
BLOCK_RECORD
  5
31BA
330
1
100
AcDbSymbolTableRecord
100
AcDbBlockTableRecord
  2
*D23
340
0
  0
BLOCK_RECORD
  5
3313
330
1
100
AcDbSymbolTableRecord
100
AcDbBlockTableRecord
  2
*D24
340
0
  0
BLOCK_RECORD
  5
331F
330
1
100
AcDbSymbolTableRecord
100
AcDbBlockTableRecord
  2
*D25
340
0
  0
BLOCK_RECORD
  5
332B
330
1
100
AcDbSymbolTableRecord
100
AcDbBlockTableRecord
  2
*D26
340
0
  0
BLOCK_RECORD
  5
3337
330
1
100
AcDbSymbolTableRecord
100
AcDbBlockTableRecord
  2
*D27
340
0
  0
BLOCK_RECORD
  5
3373
330
1
100
AcDbSymbolTableRecord
100
AcDbBlockTableRecord
  2
*D28
340
0
  0
BLOCK_RECORD
  5
337F
330
1
100
AcDbSymbolTableRecord
100
AcDbBlockTableRecord
  2
*D29
340
0
  0
BLOCK_RECORD
  5
338B
330
1
100
AcDbSymbolTableRecord
100
AcDbBlockTableRecord
  2
*D30
340
0
  0
BLOCK_RECORD
  5
3413
330
1
100
AcDbSymbolTableRecord
100
AcDbBlockTableRecord
  2
*D31
340
0
  0
BLOCK_RECORD
  5
35AE
330
1
100
AcDbSymbolTableRecord
100
AcDbBlockTableRecord
  2
*D32
340
0
  0
BLOCK_RECORD
  5
35BA
330
1
100
AcDbSymbolTableRecord
100
AcDbBlockTableRecord
  2
*D33
340
0
  0
BLOCK_RECORD
  5
35C6
330
1
100
AcDbSymbolTableRecord
100
AcDbBlockTableRecord
  2
*D34
340
0
  0
BLOCK_RECORD
  5
3627
330
1
100
AcDbSymbolTableRecord
100
AcDbBlockTableRecord
  2
*D35
340
0
  0
BLOCK_RECORD
  5
3633
330
1
100
AcDbSymbolTableRecord
100
AcDbBlockTableRecord
  2
*D36
340
0
  0
BLOCK_RECORD
  5
363F
330
1
100
AcDbSymbolTableRecord
100
AcDbBlockTableRecord
  2
*D37
340
0
  0
BLOCK_RECORD
  5
364B
330
1
100
AcDbSymbolTableRecord
100
AcDbBlockTableRecord
  2
*D38
340
0
  0
BLOCK_RECORD
  5
3700
330
1
100
AcDbSymbolTableRecord
100
AcDbBlockTableRecord
  2
*D39
340
0
  0
BLOCK_RECORD
  5
3726
330
1
100
AcDbSymbolTableRecord
100
AcDbBlockTableRecord
  2
*D40
340
0
  0
BLOCK_RECORD
  5
374C
330
1
100
AcDbSymbolTableRecord
100
AcDbBlockTableRecord
  2
*D41
340
0
  0
BLOCK_RECORD
  5
3772
330
1
100
AcDbSymbolTableRecord
100
AcDbBlockTableRecord
  2
*D42
340
0
  0
BLOCK_RECORD
  5
3791
330
1
100
AcDbSymbolTableRecord
100
AcDbBlockTableRecord
  2
*D43
340
0
  0
BLOCK_RECORD
  5
37B7
330
1
100
AcDbSymbolTableRecord
100
AcDbBlockTableRecord
  2
*D44
340
0
  0
BLOCK_RECORD
  5
37F1
330
1
100
AcDbSymbolTableRecord
100
AcDbBlockTableRecord
  2
*D45
340
0
  0
BLOCK_RECORD
  5
3814
330
1
100
AcDbSymbolTableRecord
100
AcDbBlockTableRecord
  2
*D46
340
0
  0
BLOCK_RECORD
  5
3831
330
1
100
AcDbSymbolTableRecord
100
AcDbBlockTableRecord
  2
*D47
340
0
  0
ENDTAB
  0
ENDSEC
  0
SECTION
  2
BLOCKS
  0
BLOCK
  5
20
330
1F
100
AcDbEntity
  8
0
100
AcDbBlockBegin
  2
*Model_Space
 70
     0
 10
0.0
 20
0.0
 30
0.0
  3
*Model_Space
  1

  0
ENDBLK
  5
21
330
1F
100
AcDbEntity
  8
0
100
AcDbBlockEnd
  0
BLOCK
  5
1C
330
1B
100
AcDbEntity
 67
     1
  8
0
100
AcDbBlockBegin
  2
*Paper_Space
 70
     0
 10
0.0
 20
0.0
 30
0.0
  3
*Paper_Space
  1

  0
ENDBLK
  5
1D
330
1B
100
AcDbEntity
 67
     1
  8
0
100
AcDbBlockEnd
  0
BLOCK
  5
24
330
23
100
AcDbEntity
  8
0
100
AcDbBlockBegin
  2
*Paper_Space0
 70
     0
 10
0.0
 20
0.0
 30
0.0
  3
*Paper_Space0
  1

  0
ENDBLK
  5
25
330
23
100
AcDbEntity
  8
0
100
AcDbBlockEnd
  0
BLOCK
  5
89
330
87
100
AcDbEntity
  8
0
100
AcDbBlockBegin
  2
GENAXEH
 70
     0
 10
0.0
 20
0.0
 30
0.0
  3
GENAXEH
  1

  0
LINE
  5
88
330
87
100
AcDbEntity
  8
0
100
AcDbLine
 10
-1.0
 20
0.0
 30
0.0
 11
1.0
 21
0.0
 31
0.0
  0
ENDBLK
  5
8A
330
87
100
AcDbEntity
  8
0
100
AcDbBlockEnd
  0
BLOCK
  5
2BC8
330
2BBE
100
AcDbEntity
  8
0
100
AcDbBlockBegin
  2
*D3
 70
     1
 10
0.0
 20
0.0
 30
0.0
  3
*D3
  1

  0
LINE
  5
2D5D
330
2BBE
100
AcDbEntity
  8
AM_5
100
AcDbLine
 10
2137.157803487452
 20
508.9561227128467
 30
0.0
 11
2162.457937373085
 21
508.9561227128467
 31
0.0
  0
LINE
  5
2D5E
330
2BBE
100
AcDbEntity
  8
AM_5
100
AcDbLine
 10
2132.157803487452
 20
578.9561227128467
 30
0.0
 11
2162.457937373085
 21
578.9561227128467
 31
0.0
  0
LINE
  5
2D5F
330
2BBE
100
AcDbEntity
  8
AM_5
100
AcDbLine
 10
2160.957937373085
 20
511.9561227128468
 30
0.0
 11
2160.957937373085
 21
575.9561227128467
 31
0.0
  0
SOLID
  5
2D60
330
2BBE
100
AcDbEntity
  8
AM_5
100
AcDbTrace
 10
2160.457937373085
 20
511.9561227128468
 30
0.0
 11
2161.457937373084
 21
511.9561227128468
 31
0.0
 12
2160.957937373085
 22
508.9561227128467
 32
0.0
 13
2160.957937373085
 23
508.9561227128467
 33
0.0
  0
SOLID
  5
2D61
330
2BBE
100
AcDbEntity
  8
AM_5
100
AcDbTrace
 10
2160.457937373085
 20
575.9561227128467
 30
0.0
 11
2161.457937373084
 21
575.9561227128467
 31
0.0
 12
2160.957937373085
 22
578.9561227128467
 32
0.0
 13
2160.957937373085
 23
578.9561227128467
 33
0.0
  0
MTEXT
  5
2D62
330
2BBE
100
AcDbEntity
  8
AM_5
100
AcDbMText
 10
2158.457937373084
 20
543.9561227128471
 30
0.0
 40
3.0
 41
0.0
 71
     5
 72
     1
  1
70
  7
CHINESET
 11
0.0000000000000001
 21
1.0
 31
0.0
 73
     1
 44
1.0
1001
ACAD
1000
MTEXTBEGIN
1070
    73
1070
     1
1070
    44
1040
1.0
1070
    74
1070
     0
1000
MTEXTEND
  0
POINT
  5
2D63
330
2BBE
100
AcDbEntity
  8
Defpoints
 62
     0
100
AcDbPoint
 10
2136.157803487452
 20
508.9561227128467
 30
0.0
  0
POINT
  5
2D64
330
2BBE
100
AcDbEntity
  8
Defpoints
 62
     0
100
AcDbPoint
 10
2131.157803487452
 20
578.9561227128467
 30
0.0
  0
POINT
  5
2D65
330
2BBE
100
AcDbEntity
  8
Defpoints
 62
     0
100
AcDbPoint
 10
2160.957937373085
 20
578.9561227128467
 30
0.0
  0
ENDBLK
  5
2BC9
330
2BBE
100
AcDbEntity
  8
0
100
AcDbBlockEnd
  0
BLOCK
  5
2BD4
330
2BCA
100
AcDbEntity
  8
0
100
AcDbBlockBegin
  2
*D4
 70
     1
 10
0.0
 20
0.0
 30
0.0
  3
*D4
  1

  0
LINE
  5
2D66
330
2BCA
100
AcDbEntity
  8
AM_5
100
AcDbLine
 10
2137.157803487452
 20
508.9561227128467
 30
0.0
 11
2175.157803487452
 21
508.9561227128467
 31
0.0
  0
LINE
  5
2D67
330
2BCA
100
AcDbEntity
  8
AM_5
100
AcDbLine
 10
2161.657803487452
 20
608.9561227128466
 30
0.0
 11
2175.157803487452
 21
608.9561227128466
 31
0.0
  0
LINE
  5
2D68
330
2BCA
100
AcDbEntity
  8
AM_5
100
AcDbLine
 10
2173.657803487452
 20
511.9561227128468
 30
0.0
 11
2173.657803487452
 21
605.9561227128466
 31
0.0
  0
SOLID
  5
2D69
330
2BCA
100
AcDbEntity
  8
AM_5
100
AcDbTrace
 10
2173.157803487452
 20
511.9561227128468
 30
0.0
 11
2174.157803487452
 21
511.9561227128468
 31
0.0
 12
2173.657803487452
 22
508.9561227128467
 32
0.0
 13
2173.657803487452
 23
508.9561227128467
 33
0.0
  0
SOLID
  5
2D6A
330
2BCA
100
AcDbEntity
  8
AM_5
100
AcDbTrace
 10
2173.157803487452
 20
605.9561227128466
 30
0.0
 11
2174.157803487452
 21
605.9561227128466
 31
0.0
 12
2173.657803487452
 22
608.9561227128466
 32
0.0
 13
2173.657803487452
 23
608.9561227128466
 33
0.0
  0
MTEXT
  5
2D6B
330
2BCA
100
AcDbEntity
  8
AM_5
100
AcDbMText
 10
2171.157803487452
 20
558.9561227128471
 30
0.0
 40
3.0
 41
0.0
 71
     5
 72
     1
  1
100
  7
CHINESET
 11
0.0000000000000001
 21
1.0
 31
0.0
 73
     1
 44
1.0
1001
ACAD
1000
MTEXTBEGIN
1070
    73
1070
     1
1070
    44
1040
1.0
1070
    74
1070
     0
1000
MTEXTEND
  0
POINT
  5
2D6C
330
2BCA
100
AcDbEntity
  8
Defpoints
 62
     0
100
AcDbPoint
 10
2136.157803487452
 20
508.9561227128467
 30
0.0
  0
POINT
  5
2D6D
330
2BCA
100
AcDbEntity
  8
Defpoints
 62
     0
100
AcDbPoint
 10
2160.657803487452
 20
608.9561227128466
 30
0.0
  0
POINT
  5
2D6E
330
2BCA
100
AcDbEntity
  8
Defpoints
 62
     0
100
AcDbPoint
 10
2173.657803487452
 20
608.9561227128466
 30
0.0
  0
ENDBLK
  5
2BD5
330
2BCA
100
AcDbEntity
  8
0
100
AcDbBlockEnd
  0
BLOCK
  5
2BE0
330
2BD6
100
AcDbEntity
  8
0
100
AcDbBlockBegin
  2
*D5
 70
     1
 10
0.0
 20
0.0
 30
0.0
  3
*D5
  1

  0
LINE
  5
2C85
330
2BD6
100
AcDbEntity
  8
AM_5
100
AcDbLine
 10
2086.157803487452
 20
531.9561227128467
 30
0.0
 11
2073.157803487452
 21
531.9561227128467
 31
0.0
  0
LINE
  5
2C86
330
2BD6
100
AcDbEntity
  8
AM_5
100
AcDbLine
 10
2086.157803487452
 20
508.9561227128467
 30
0.0
 11
2073.157803487452
 21
508.9561227128467
 31
0.0
  0
LINE
  5
2C87
330
2BD6
100
AcDbEntity
  8
AM_5
100
AcDbLine
 10
2074.657803487452
 20
528.9561227128467
 30
0.0
 11
2074.657803487452
 21
511.9561227128468
 31
0.0
  0
SOLID
  5
2C88
330
2BD6
100
AcDbEntity
  8
AM_5
100
AcDbTrace
 10
2074.157803487452
 20
528.9561227128467
 30
0.0
 11
2075.157803487452
 21
528.9561227128467
 31
0.0
 12
2074.657803487452
 22
531.9561227128467
 32
0.0
 13
2074.657803487452
 23
531.9561227128467
 33
0.0
  0
SOLID
  5
2C89
330
2BD6
100
AcDbEntity
  8
AM_5
100
AcDbTrace
 10
2074.157803487452
 20
511.9561227128468
 30
0.0
 11
2075.157803487452
 21
511.9561227128468
 31
0.0
 12
2074.657803487452
 22
508.9561227128467
 32
0.0
 13
2074.657803487452
 23
508.9561227128467
 33
0.0
  0
MTEXT
  5
2C8A
330
2BD6
100
AcDbEntity
  8
AM_5
100
AcDbMText
 10
2072.157803487452
 20
520.4561227128471
 30
0.0
 40
3.0
 41
0.0
 71
     5
 72
     1
  1
23
  7
CHINESET
 11
0.0000000000000001
 21
1.0
 31
0.0
 73
     1
 44
1.0
1001
ACAD
1000
MTEXTBEGIN
1070
    73
1070
     1
1070
    44
1040
1.0
1070
    74
1070
     0
1000
MTEXTEND
  0
POINT
  5
2C8B
330
2BD6
100
AcDbEntity
  8
Defpoints
 62
     0
100
AcDbPoint
 10
2087.157803487452
 20
531.9561227128467
 30
0.0
  0
POINT
  5
2C8C
330
2BD6
100
AcDbEntity
  8
Defpoints
 62
     0
100
AcDbPoint
 10
2087.157803487452
 20
508.9561227128467
 30
0.0
  0
POINT
  5
2C8D
330
2BD6
100
AcDbEntity
  8
Defpoints
 62
     0
100
AcDbPoint
 10
2074.657803487452
 20
508.9561227128467
 30
0.0
  0
ENDBLK
  5
2BE1
330
2BD6
100
AcDbEntity
  8
0
100
AcDbBlockEnd
  0
BLOCK
  5
2BEC
330
2BE2
100
AcDbEntity
  8
0
100
AcDbBlockBegin
  2
*D6
 70
     1
 10
0.0
 20
0.0
 30
0.0
  3
*D6
  1

  0
LINE
  5
2C6D
330
2BE2
100
AcDbEntity
  8
AM_5
100
AcDbLine
 10
2161.657803487452
 20
627.9561227128466
 30
0.0
 11
2175.157803487452
 21
627.9561227128466
 31
0.0
  0
LINE
  5
2C6E
330
2BE2
100
AcDbEntity
  8
AM_5
100
AcDbLine
 10
2161.657803487452
 20
608.9561227128466
 30
0.0
 11
2175.157803487452
 21
608.9561227128466
 31
0.0
  0
LINE
  5
2C6F
330
2BE2
100
AcDbEntity
  8
AM_5
100
AcDbLine
 10
2173.657803487452
 20
624.9561227128467
 30
0.0
 11
2173.657803487452
 21
611.9561227128466
 31
0.0
  0
SOLID
  5
2C70
330
2BE2
100
AcDbEntity
  8
AM_5
100
AcDbTrace
 10
2173.157803487452
 20
624.9561227128467
 30
0.0
 11
2174.157803487452
 21
624.9561227128467
 31
0.0
 12
2173.657803487452
 22
627.9561227128466
 32
0.0
 13
2173.657803487452
 23
627.9561227128466
 33
0.0
  0
SOLID
  5
2C71
330
2BE2
100
AcDbEntity
  8
AM_5
100
AcDbTrace
 10
2173.157803487452
 20
611.9561227128466
 30
0.0
 11
2174.157803487452
 21
611.9561227128466
 31
0.0
 12
2173.657803487452
 22
608.9561227128466
 32
0.0
 13
2173.657803487452
 23
608.9561227128466
 33
0.0
  0
MTEXT
  5
2C72
330
2BE2
100
AcDbEntity
  8
AM_5
100
AcDbMText
 10
2171.157803487452
 20
618.456122712847
 30
0.0
 40
3.0
 41
0.0
 71
     5
 72
     1
  1
19
  7
CHINESET
 11
0.0000000000000001
 21
1.0
 31
0.0
 73
     1
 44
1.0
1001
ACAD
1000
MTEXTBEGIN
1070
    73
1070
     1
1070
    44
1040
1.0
1070
    74
1070
     0
1000
MTEXTEND
  0
POINT
  5
2C73
330
2BE2
100
AcDbEntity
  8
Defpoints
 62
     0
100
AcDbPoint
 10
2160.657803487452
 20
627.9561227128466
 30
0.0
  0
POINT
  5
2C74
330
2BE2
100
AcDbEntity
  8
Defpoints
 62
     0
100
AcDbPoint
 10
2160.657803487452
 20
608.9561227128466
 30
0.0
  0
POINT
  5
2C75
330
2BE2
100
AcDbEntity
  8
Defpoints
 62
     0
100
AcDbPoint
 10
2173.657803487452
 20
608.9561227128466
 30
0.0
  0
ENDBLK
  5
2BED
330
2BE2
100
AcDbEntity
  8
0
100
AcDbBlockEnd
  0
BLOCK
  5
2CA8
330
2C9E
100
AcDbEntity
  8
0
100
AcDbBlockBegin
  2
*D7
 70
     1
 10
0.0
 20
0.0
 30
0.0
  3
*D7
  1

  0
LINE
  5
2D38
330
2C9E
100
AcDbEntity
  8
AM_5
100
AcDbLine
 10
2091.657803487452
 20
678.6864898057913
 30
0.0
 11
2091.657803487452
 21
666.1864898057913
 31
0.0
  0
LINE
  5
2D39
330
2C9E
100
AcDbEntity
  8
AM_5
100
AcDbLine
 10
2131.657803487452
 20
678.6864898057913
 30
0.0
 11
2131.657803487452
 21
666.1864898057913
 31
0.0
  0
LINE
  5
2D3A
330
2C9E
100
AcDbEntity
  8
AM_5
100
AcDbLine
 10
2094.657803487452
 20
667.6864898057913
 30
0.0
 11
2128.657803487452
 21
667.6864898057913
 31
0.0
  0
SOLID
  5
2D3B
330
2C9E
100
AcDbEntity
  8
AM_5
100
AcDbTrace
 10
2094.657803487452
 20
668.1864898057913
 30
0.0
 11
2094.657803487452
 21
667.1864898057913
 31
0.0
 12
2091.657803487452
 22
667.6864898057913
 32
0.0
 13
2091.657803487452
 23
667.6864898057913
 33
0.0
  0
SOLID
  5
2D3C
330
2C9E
100
AcDbEntity
  8
AM_5
100
AcDbTrace
 10
2128.657803487452
 20
668.1864898057913
 30
0.0
 11
2128.657803487452
 21
667.1864898057913
 31
0.0
 12
2131.657803487452
 22
667.6864898057913
 32
0.0
 13
2131.657803487452
 23
667.6864898057913
 33
0.0
  0
MTEXT
  5
2D3D
330
2C9E
100
AcDbEntity
  8
AM_5
100
AcDbMText
 10
2111.657803487452
 20
670.1864898057912
 30
0.0
 40
3.0
 41
0.0
 71
     5
 72
     1
  1
40
  7
CHINESET
 73
     1
 44
1.0
1001
ACAD
1000
MTEXTBEGIN
1070
    73
1070
     1
1070
    44
1040
1.0
1070
    74
1070
     0
1000
MTEXTEND
  0
POINT
  5
2D3E
330
2C9E
100
AcDbEntity
  8
Defpoints
 62
     0
100
AcDbPoint
 10
2091.657803487452
 20
679.6864898057913
 30
0.0
  0
POINT
  5
2D3F
330
2C9E
100
AcDbEntity
  8
Defpoints
 62
     0
100
AcDbPoint
 10
2131.657803487452
 20
679.6864898057913
 30
0.0
  0
POINT
  5
2D40
330
2C9E
100
AcDbEntity
  8
Defpoints
 62
     0
100
AcDbPoint
 10
2131.657803487452
 20
667.6864898057913
 30
0.0
  0
ENDBLK
  5
2CA9
330
2C9E
100
AcDbEntity
  8
0
100
AcDbBlockEnd
  0
BLOCK
  5
2D02
330
2CF8
100
AcDbEntity
  8
0
100
AcDbBlockBegin
  2
*D8
 70
     1
 10
0.0
 20
0.0
 30
0.0
  3
*D8
  1

  0
LINE
  5
2D41
330
2CF8
100
AcDbEntity
  8
AM_5
100
AcDbLine
 10
2086.657803487452
 20
680.9364898057913
 30
0.0
 11
2086.657803487452
 21
656.1864898057897
 31
0.0
  0
LINE
  5
2D42
330
2CF8
100
AcDbEntity
  8
AM_5
100
AcDbLine
 10
2136.657803487452
 20
680.9364898057913
 30
0.0
 11
2136.657803487452
 21
656.1864898057897
 31
0.0
  0
LINE
  5
2D43
330
2CF8
100
AcDbEntity
  8
AM_5
100
AcDbLine
 10
2089.657803487452
 20
657.6864898057897
 30
0.0
 11
2133.657803487452
 21
657.6864898057897
 31
0.0
  0
SOLID
  5
2D44
330
2CF8
100
AcDbEntity
  8
AM_5
100
AcDbTrace
 10
2089.657803487452
 20
658.1864898057897
 30
0.0
 11
2089.657803487452
 21
657.1864898057897
 31
0.0
 12
2086.657803487452
 22
657.6864898057897
 32
0.0
 13
2086.657803487452
 23
657.6864898057897
 33
0.0
  0
SOLID
  5
2D45
330
2CF8
100
AcDbEntity
  8
AM_5
100
AcDbTrace
 10
2133.657803487452
 20
658.1864898057897
 30
0.0
 11
2133.657803487452
 21
657.1864898057897
 31
0.0
 12
2136.657803487452
 22
657.6864898057897
 32
0.0
 13
2136.657803487452
 23
657.6864898057897
 33
0.0
  0
MTEXT
  5
2D46
330
2CF8
100
AcDbEntity
  8
AM_5
100
AcDbMText
 10
2111.657803487452
 20
660.1864898057897
 30
0.0
 40
3.0
 41
0.0
 71
     5
 72
     1
  1
50
  7
CHINESET
 73
     1
 44
1.0
1001
ACAD
1000
MTEXTBEGIN
1070
    73
1070
     1
1070
    44
1040
1.0
1070
    74
1070
     0
1000
MTEXTEND
  0
POINT
  5
2D47
330
2CF8
100
AcDbEntity
  8
Defpoints
 62
     0
100
AcDbPoint
 10
2086.657803487452
 20
681.9364898057913
 30
0.0
  0
POINT
  5
2D48
330
2CF8
100
AcDbEntity
  8
Defpoints
 62
     0
100
AcDbPoint
 10
2136.657803487452
 20
681.9364898057913
 30
0.0
  0
POINT
  5
2D49
330
2CF8
100
AcDbEntity
  8
Defpoints
 62
     0
100
AcDbPoint
 10
2136.657803487452
 20
657.6864898057897
 30
0.0
  0
ENDBLK
  5
2D03
330
2CF8
100
AcDbEntity
  8
0
100
AcDbBlockEnd
  0
BLOCK
  5
2D28
330
2D1E
100
AcDbEntity
  8
0
100
AcDbBlockBegin
  2
*D9
 70
     1
 10
0.0
 20
0.0
 30
0.0
  3
*D9
  1

  0
LINE
  5
2D4A
330
2D1E
100
AcDbEntity
  8
AM_5
100
AcDbLine
 10
2061.657803487452
 20
695.4364898057913
 30
0.0
 11
2061.657803487452
 21
646.1864898057881
 31
0.0
  0
LINE
  5
2D4B
330
2D1E
100
AcDbEntity
  8
AM_5
100
AcDbLine
 10
2161.657803487452
 20
695.4364898057913
 30
0.0
 11
2161.657803487452
 21
646.1864898057881
 31
0.0
  0
LINE
  5
2D4C
330
2D1E
100
AcDbEntity
  8
AM_5
100
AcDbLine
 10
2064.657803487452
 20
647.6864898057881
 30
0.0
 11
2158.657803487452
 21
647.6864898057881
 31
0.0
  0
SOLID
  5
2D4D
330
2D1E
100
AcDbEntity
  8
AM_5
100
AcDbTrace
 10
2064.657803487452
 20
648.1864898057881
 30
0.0
 11
2064.657803487452
 21
647.1864898057881
 31
0.0
 12
2061.657803487452
 22
647.6864898057881
 32
0.0
 13
2061.657803487452
 23
647.6864898057881
 33
0.0
  0
SOLID
  5
2D4E
330
2D1E
100
AcDbEntity
  8
AM_5
100
AcDbTrace
 10
2158.657803487452
 20
648.1864898057881
 30
0.0
 11
2158.657803487452
 21
647.1864898057881
 31
0.0
 12
2161.657803487452
 22
647.6864898057881
 32
0.0
 13
2161.657803487452
 23
647.6864898057881
 33
0.0
  0
MTEXT
  5
2D4F
330
2D1E
100
AcDbEntity
  8
AM_5
100
AcDbMText
 10
2111.657803487452
 20
650.1864898057881
 30
0.0
 40
3.0
 41
0.0
 71
     5
 72
     1
  1
100
  7
CHINESET
 73
     1
 44
1.0
1001
ACAD
1000
MTEXTBEGIN
1070
    73
1070
     1
1070
    44
1040
1.0
1070
    74
1070
     0
1000
MTEXTEND
  0
POINT
  5
2D50
330
2D1E
100
AcDbEntity
  8
Defpoints
 62
     0
100
AcDbPoint
 10
2061.657803487452
 20
696.4364898057913
 30
0.0
  0
POINT
  5
2D51
330
2D1E
100
AcDbEntity
  8
Defpoints
 62
     0
100
AcDbPoint
 10
2161.657803487452
 20
696.4364898057913
 30
0.0
  0
POINT
  5
2D52
330
2D1E
100
AcDbEntity
  8
Defpoints
 62
     0
100
AcDbPoint
 10
2161.657803487452
 20
647.6864898057881
 30
0.0
  0
ENDBLK
  5
2D29
330
2D1E
100
AcDbEntity
  8
0
100
AcDbBlockEnd
  0
BLOCK
  5
2EA6
330
2E9C
100
AcDbEntity
  8
0
100
AcDbBlockBegin
  2
*D10
 70
     1
 10
0.0
 20
0.0
 30
0.0
  3
*D10
  1

  0
LINE
  5
2F14
330
2E9C
100
AcDbEntity
  8
AM_5
100
AcDbLine
 10
2511.976583508879
 20
508.9561227128467
 30
0.0
 11
2535.276717394511
 21
508.9561227128467
 31
0.0
  0
LINE
  5
2F15
330
2E9C
100
AcDbEntity
  8
AM_5
100
AcDbLine
 10
2508.476583508878
 20
584.9561227128467
 30
0.0
 11
2535.276717394511
 21
584.9561227128467
 31
0.0
  0
LINE
  5
2F16
330
2E9C
100
AcDbEntity
  8
AM_5
100
AcDbLine
 10
2533.776717394511
 20
511.9561227128468
 30
0.0
 11
2533.776717394511
 21
581.9561227128467
 31
0.0
  0
SOLID
  5
2F17
330
2E9C
100
AcDbEntity
  8
AM_5
100
AcDbTrace
 10
2533.276717394511
 20
511.9561227128468
 30
0.0
 11
2534.276717394511
 21
511.9561227128468
 31
0.0
 12
2533.776717394511
 22
508.9561227128467
 32
0.0
 13
2533.776717394511
 23
508.9561227128467
 33
0.0
  0
SOLID
  5
2F18
330
2E9C
100
AcDbEntity
  8
AM_5
100
AcDbTrace
 10
2533.276717394511
 20
581.9561227128467
 30
0.0
 11
2534.276717394511
 21
581.9561227128467
 31
0.0
 12
2533.776717394511
 22
584.9561227128467
 32
0.0
 13
2533.776717394511
 23
584.9561227128467
 33
0.0
  0
MTEXT
  5
2F19
330
2E9C
100
AcDbEntity
  8
AM_5
100
AcDbMText
 10
2531.276717394511
 20
546.9561227128472
 30
0.0
 40
3.0
 41
0.0
 71
     5
 72
     1
  1
76
  7
CHINESET
 11
0.0000000000000001
 21
1.0
 31
0.0
 73
     1
 44
1.0
1001
ACAD
1000
MTEXTBEGIN
1070
    73
1070
     1
1070
    44
1040
1.0
1070
    74
1070
     0
1000
MTEXTEND
  0
POINT
  5
2F1A
330
2E9C
100
AcDbEntity
  8
Defpoints
 62
     0
100
AcDbPoint
 10
2510.976583508878
 20
508.9561227128467
 30
0.0
  0
POINT
  5
2F1B
330
2E9C
100
AcDbEntity
  8
Defpoints
 62
     0
100
AcDbPoint
 10
2507.476583508879
 20
584.9561227128467
 30
0.0
  0
POINT
  5
2F1C
330
2E9C
100
AcDbEntity
  8
Defpoints
 62
     0
100
AcDbPoint
 10
2533.776717394511
 20
584.9561227128467
 30
0.0
  0
ENDBLK
  5
2EA7
330
2E9C
100
AcDbEntity
  8
0
100
AcDbBlockEnd
  0
BLOCK
  5
2EB2
330
2EA8
100
AcDbEntity
  8
0
100
AcDbBlockBegin
  2
*D11
 70
     1
 10
0.0
 20
0.0
 30
0.0
  3
*D11
  1

  0
LINE
  5
2F47
330
2EA8
100
AcDbEntity
  8
AM_5
100
AcDbLine
 10
2511.976583508879
 20
508.9561227128467
 30
0.0
 11
2557.976583508879
 21
508.9561227128467
 31
0.0
  0
LINE
  5
2F48
330
2EA8
100
AcDbEntity
  8
AM_5
100
AcDbLine
 10
2544.476583508878
 20
619.9561227128468
 30
0.0
 11
2557.976583508879
 21
619.9561227128468
 31
0.0
  0
LINE
  5
2F49
330
2EA8
100
AcDbEntity
  8
AM_5
100
AcDbLine
 10
2556.476583508878
 20
511.9561227128468
 30
0.0
 11
2556.476583508878
 21
616.9561227128467
 31
0.0
  0
SOLID
  5
2F4A
330
2EA8
100
AcDbEntity
  8
AM_5
100
AcDbTrace
 10
2555.976583508878
 20
511.9561227128468
 30
0.0
 11
2556.976583508879
 21
511.9561227128468
 31
0.0
 12
2556.476583508878
 22
508.9561227128467
 32
0.0
 13
2556.476583508878
 23
508.9561227128467
 33
0.0
  0
SOLID
  5
2F4B
330
2EA8
100
AcDbEntity
  8
AM_5
100
AcDbTrace
 10
2555.976583508878
 20
616.9561227128467
 30
0.0
 11
2556.976583508879
 21
616.9561227128467
 31
0.0
 12
2556.476583508878
 22
619.9561227128468
 32
0.0
 13
2556.476583508878
 23
619.9561227128468
 33
0.0
  0
MTEXT
  5
2F4C
330
2EA8
100
AcDbEntity
  8
AM_5
100
AcDbMText
 10
2553.976583508879
 20
564.4561227128471
 30
0.0
 40
3.0
 41
0.0
 71
     5
 72
     1
  1
111
  7
CHINESET
 11
0.0000000000000001
 21
1.0
 31
0.0
 73
     1
 44
1.0
1001
ACAD
1000
MTEXTBEGIN
1070
    73
1070
     1
1070
    44
1040
1.0
1070
    74
1070
     0
1000
MTEXTEND
  0
POINT
  5
2F4D
330
2EA8
100
AcDbEntity
  8
Defpoints
 62
     0
100
AcDbPoint
 10
2510.976583508878
 20
508.9561227128467
 30
0.0
  0
POINT
  5
2F4E
330
2EA8
100
AcDbEntity
  8
Defpoints
 62
     0
100
AcDbPoint
 10
2543.476583508879
 20
619.9561227128468
 30
0.0
  0
POINT
  5
2F4F
330
2EA8
100
AcDbEntity
  8
Defpoints
 62
     0
100
AcDbPoint
 10
2556.476583508878
 20
619.9561227128468
 30
0.0
  0
ENDBLK
  5
2EB3
330
2EA8
100
AcDbEntity
  8
0
100
AcDbBlockEnd
  0
BLOCK
  5
2EBE
330
2EB4
100
AcDbEntity
  8
0
100
AcDbBlockBegin
  2
*D12
 70
     1
 10
0.0
 20
0.0
 30
0.0
  3
*D12
  1

  0
LINE
  5
2EF9
330
2EB4
100
AcDbEntity
  8
AM_5
100
AcDbLine
 10
2456.976583508879
 20
533.9561227128467
 30
0.0
 11
2445.976583508878
 21
533.9561227128467
 31
0.0
  0
LINE
  5
2EFA
330
2EB4
100
AcDbEntity
  8
AM_5
100
AcDbLine
 10
2456.976583508879
 20
508.9561227128467
 30
0.0
 11
2445.976583508878
 21
508.9561227128467
 31
0.0
  0
LINE
  5
2EFB
330
2EB4
100
AcDbEntity
  8
AM_5
100
AcDbLine
 10
2447.476583508878
 20
530.9561227128467
 30
0.0
 11
2447.476583508878
 21
511.9561227128468
 31
0.0
  0
SOLID
  5
2EFC
330
2EB4
100
AcDbEntity
  8
AM_5
100
AcDbTrace
 10
2446.976583508878
 20
530.9561227128467
 30
0.0
 11
2447.976583508879
 21
530.9561227128467
 31
0.0
 12
2447.476583508878
 22
533.9561227128467
 32
0.0
 13
2447.476583508878
 23
533.9561227128467
 33
0.0
  0
SOLID
  5
2EFD
330
2EB4
100
AcDbEntity
  8
AM_5
100
AcDbTrace
 10
2446.976583508878
 20
511.9561227128468
 30
0.0
 11
2447.976583508879
 21
511.9561227128468
 31
0.0
 12
2447.476583508878
 22
508.9561227128467
 32
0.0
 13
2447.476583508878
 23
508.9561227128467
 33
0.0
  0
MTEXT
  5
2EFE
330
2EB4
100
AcDbEntity
  8
AM_5
100
AcDbMText
 10
2444.976583508879
 20
521.4561227128472
 30
0.0
 40
3.0
 41
0.0
 71
     5
 72
     1
  1
25
  7
CHINESET
 11
0.0000000000000001
 21
1.0
 31
0.0
 73
     1
 44
1.0
1001
ACAD
1000
MTEXTBEGIN
1070
    73
1070
     1
1070
    44
1040
1.0
1070
    74
1070
     0
1000
MTEXTEND
  0
POINT
  5
2EFF
330
2EB4
100
AcDbEntity
  8
Defpoints
 62
     0
100
AcDbPoint
 10
2457.976583508878
 20
533.9561227128467
 30
0.0
  0
POINT
  5
2F00
330
2EB4
100
AcDbEntity
  8
Defpoints
 62
     0
100
AcDbPoint
 10
2457.976583508878
 20
508.9561227128467
 30
0.0
  0
POINT
  5
2F01
330
2EB4
100
AcDbEntity
  8
Defpoints
 62
     0
100
AcDbPoint
 10
2447.476583508878
 20
508.9561227128467
 30
0.0
  0
ENDBLK
  5
2EBF
330
2EB4
100
AcDbEntity
  8
0
100
AcDbBlockEnd
  0
BLOCK
  5
2ECA
330
2EC0
100
AcDbEntity
  8
0
100
AcDbBlockBegin
  2
*D13
 70
     1
 10
0.0
 20
0.0
 30
0.0
  3
*D13
  1

  0
LINE
  5
2F3E
330
2EC0
100
AcDbEntity
  8
AM_5
100
AcDbLine
 10
2544.476583508878
 20
641.9561227128467
 30
0.0
 11
2557.976583508879
 21
641.9561227128467
 31
0.0
  0
LINE
  5
2F3F
330
2EC0
100
AcDbEntity
  8
AM_5
100
AcDbLine
 10
2544.476583508878
 20
619.9561227128468
 30
0.0
 11
2557.976583508879
 21
619.9561227128468
 31
0.0
  0
LINE
  5
2F40
330
2EC0
100
AcDbEntity
  8
AM_5
100
AcDbLine
 10
2556.476583508878
 20
638.9561227128467
 30
0.0
 11
2556.476583508878
 21
622.9561227128467
 31
0.0
  0
SOLID
  5
2F41
330
2EC0
100
AcDbEntity
  8
AM_5
100
AcDbTrace
 10
2555.976583508878
 20
638.9561227128467
 30
0.0
 11
2556.976583508879
 21
638.9561227128467
 31
0.0
 12
2556.476583508878
 22
641.9561227128467
 32
0.0
 13
2556.476583508878
 23
641.9561227128467
 33
0.0
  0
SOLID
  5
2F42
330
2EC0
100
AcDbEntity
  8
AM_5
100
AcDbTrace
 10
2555.976583508878
 20
622.9561227128467
 30
0.0
 11
2556.976583508879
 21
622.9561227128467
 31
0.0
 12
2556.476583508878
 22
619.9561227128468
 32
0.0
 13
2556.476583508878
 23
619.9561227128468
 33
0.0
  0
MTEXT
  5
2F43
330
2EC0
100
AcDbEntity
  8
AM_5
100
AcDbMText
 10
2553.976583508879
 20
630.9561227128472
 30
0.0
 40
3.0
 41
0.0
 71
     5
 72
     1
  1
22
  7
CHINESET
 11
0.0000000000000001
 21
1.0
 31
0.0
 73
     1
 44
1.0
1001
ACAD
1000
MTEXTBEGIN
1070
    73
1070
     1
1070
    44
1040
1.0
1070
    74
1070
     0
1000
MTEXTEND
  0
POINT
  5
2F44
330
2EC0
100
AcDbEntity
  8
Defpoints
 62
     0
100
AcDbPoint
 10
2543.476583508879
 20
641.9561227128467
 30
0.0
  0
POINT
  5
2F45
330
2EC0
100
AcDbEntity
  8
Defpoints
 62
     0
100
AcDbPoint
 10
2543.476583508879
 20
619.9561227128468
 30
0.0
  0
POINT
  5
2F46
330
2EC0
100
AcDbEntity
  8
Defpoints
 62
     0
100
AcDbPoint
 10
2556.476583508878
 20
619.9561227128468
 30
0.0
  0
ENDBLK
  5
2ECB
330
2EC0
100
AcDbEntity
  8
0
100
AcDbBlockEnd
  0
BLOCK
  5
2F63
330
2F59
100
AcDbEntity
  8
0
100
AcDbBlockBegin
  2
*D14
 70
     1
 10
0.0
 20
0.0
 30
0.0
  3
*D14
  1

  0
LINE
  5
2FEF
330
2F59
100
AcDbEntity
  8
AM_5
100
AcDbLine
 10
2462.479733431103
 20
696.1080373858969
 30
0.0
 11
2462.479733431103
 21
683.3580373858969
 31
0.0
  0
LINE
  5
2FF0
330
2F59
100
AcDbEntity
  8
AM_5
100
AcDbLine
 10
2506.479733431103
 20
696.1080373858969
 30
0.0
 11
2506.479733431103
 21
683.3580373858969
 31
0.0
  0
LINE
  5
2FF1
330
2F59
100
AcDbEntity
  8
AM_5
100
AcDbLine
 10
2465.479733431104
 20
684.8580373858969
 30
0.0
 11
2503.479733431103
 21
684.8580373858969
 31
0.0
  0
SOLID
  5
2FF2
330
2F59
100
AcDbEntity
  8
AM_5
100
AcDbTrace
 10
2465.479733431104
 20
685.3580373858969
 30
0.0
 11
2465.479733431104
 21
684.3580373858969
 31
0.0
 12
2462.479733431103
 22
684.8580373858969
 32
0.0
 13
2462.479733431103
 23
684.8580373858969
 33
0.0
  0
SOLID
  5
2FF3
330
2F59
100
AcDbEntity
  8
AM_5
100
AcDbTrace
 10
2503.479733431103
 20
685.3580373858969
 30
0.0
 11
2503.479733431103
 21
684.3580373858969
 31
0.0
 12
2506.479733431103
 22
684.8580373858969
 32
0.0
 13
2506.479733431103
 23
684.8580373858969
 33
0.0
  0
MTEXT
  5
2FF4
330
2F59
100
AcDbEntity
  8
AM_5
100
AcDbMText
 10
2484.479733431104
 20
687.358037385897
 30
0.0
 40
3.0
 41
0.0
 71
     5
 72
     1
  1
44
  7
CHINESET
 73
     1
 44
1.0
1001
ACAD
1000
MTEXTBEGIN
1070
    73
1070
     1
1070
    44
1040
1.0
1070
    74
1070
     0
1000
MTEXTEND
  0
POINT
  5
2FF5
330
2F59
100
AcDbEntity
  8
Defpoints
 62
     0
100
AcDbPoint
 10
2462.479733431103
 20
697.108037385897
 30
0.0
  0
POINT
  5
2FF6
330
2F59
100
AcDbEntity
  8
Defpoints
 62
     0
100
AcDbPoint
 10
2506.479733431103
 20
697.108037385897
 30
0.0
  0
POINT
  5
2FF7
330
2F59
100
AcDbEntity
  8
Defpoints
 62
     0
100
AcDbPoint
 10
2506.479733431103
 20
684.8580373858969
 30
0.0
  0
ENDBLK
  5
2F64
330
2F59
100
AcDbEntity
  8
0
100
AcDbBlockEnd
  0
BLOCK
  5
2F6F
330
2F65
100
AcDbEntity
  8
0
100
AcDbBlockBegin
  2
*D15
 70
     1
 10
0.0
 20
0.0
 30
0.0
  3
*D15
  1

  0
LINE
  5
2FF8
330
2F65
100
AcDbEntity
  8
AM_5
100
AcDbLine
 10
2456.979733431103
 20
698.1509306047105
 30
0.0
 11
2456.979733431103
 21
673.358037385897
 31
0.0
  0
LINE
  5
2FF9
330
2F65
100
AcDbEntity
  8
AM_5
100
AcDbLine
 10
2511.979733431104
 20
698.1509306047105
 30
0.0
 11
2511.979733431104
 21
673.358037385897
 31
0.0
  0
LINE
  5
2FFA
330
2F65
100
AcDbEntity
  8
AM_5
100
AcDbLine
 10
2459.979733431103
 20
674.858037385897
 30
0.0
 11
2508.979733431103
 21
674.858037385897
 31
0.0
  0
SOLID
  5
2FFB
330
2F65
100
AcDbEntity
  8
AM_5
100
AcDbTrace
 10
2459.979733431103
 20
675.3580373858969
 30
0.0
 11
2459.979733431103
 21
674.358037385897
 31
0.0
 12
2456.979733431103
 22
674.858037385897
 32
0.0
 13
2456.979733431103
 23
674.858037385897
 33
0.0
  0
SOLID
  5
2FFC
330
2F65
100
AcDbEntity
  8
AM_5
100
AcDbTrace
 10
2508.979733431103
 20
675.3580373858969
 30
0.0
 11
2508.979733431103
 21
674.358037385897
 31
0.0
 12
2511.979733431104
 22
674.858037385897
 32
0.0
 13
2511.979733431104
 23
674.858037385897
 33
0.0
  0
MTEXT
  5
2FFD
330
2F65
100
AcDbEntity
  8
AM_5
100
AcDbMText
 10
2484.479733431104
 20
677.3580373858969
 30
0.0
 40
3.0
 41
0.0
 71
     5
 72
     1
  1
55
  7
CHINESET
 73
     1
 44
1.0
1001
ACAD
1000
MTEXTBEGIN
1070
    73
1070
     1
1070
    44
1040
1.0
1070
    74
1070
     0
1000
MTEXTEND
  0
POINT
  5
2FFE
330
2F65
100
AcDbEntity
  8
Defpoints
 62
     0
100
AcDbPoint
 10
2456.979733431103
 20
699.1509306047105
 30
0.0
  0
POINT
  5
2FFF
330
2F65
100
AcDbEntity
  8
Defpoints
 62
     0
100
AcDbPoint
 10
2511.979733431104
 20
699.1509306047105
 30
0.0
  0
POINT
  5
3000
330
2F65
100
AcDbEntity
  8
Defpoints
 62
     0
100
AcDbPoint
 10
2511.979733431104
 20
674.858037385897
 30
0.0
  0
ENDBLK
  5
2F70
330
2F65
100
AcDbEntity
  8
0
100
AcDbBlockEnd
  0
BLOCK
  5
2F7B
330
2F71
100
AcDbEntity
  8
0
100
AcDbBlockBegin
  2
*D16
 70
     1
 10
0.0
 20
0.0
 30
0.0
  3
*D16
  1

  0
LINE
  5
3001
330
2F71
100
AcDbEntity
  8
AM_5
100
AcDbLine
 10
2424.479733431104
 20
713.3580373858969
 30
0.0
 11
2424.479733431104
 21
663.358037385897
 31
0.0
  0
LINE
  5
3002
330
2F71
100
AcDbEntity
  8
AM_5
100
AcDbLine
 10
2544.479733431103
 20
713.3580373858969
 30
0.0
 11
2544.479733431103
 21
663.358037385897
 31
0.0
  0
LINE
  5
3003
330
2F71
100
AcDbEntity
  8
AM_5
100
AcDbLine
 10
2427.479733431104
 20
664.8580373858971
 30
0.0
 11
2541.479733431103
 21
664.8580373858971
 31
0.0
  0
SOLID
  5
3004
330
2F71
100
AcDbEntity
  8
AM_5
100
AcDbTrace
 10
2427.479733431104
 20
665.3580373858971
 30
0.0
 11
2427.479733431104
 21
664.3580373858971
 31
0.0
 12
2424.479733431104
 22
664.8580373858971
 32
0.0
 13
2424.479733431104
 23
664.8580373858971
 33
0.0
  0
SOLID
  5
3005
330
2F71
100
AcDbEntity
  8
AM_5
100
AcDbTrace
 10
2541.479733431103
 20
665.3580373858971
 30
0.0
 11
2541.479733431103
 21
664.3580373858971
 31
0.0
 12
2544.479733431103
 22
664.8580373858971
 32
0.0
 13
2544.479733431103
 23
664.8580373858971
 33
0.0
  0
MTEXT
  5
3006
330
2F71
100
AcDbEntity
  8
AM_5
100
AcDbMText
 10
2484.479733431104
 20
667.358037385897
 30
0.0
 40
3.0
 41
0.0
 71
     5
 72
     1
  1
120
  7
CHINESET
 73
     1
 44
1.0
1001
ACAD
1000
MTEXTBEGIN
1070
    73
1070
     1
1070
    44
1040
1.0
1070
    74
1070
     0
1000
MTEXTEND
  0
POINT
  5
3007
330
2F71
100
AcDbEntity
  8
Defpoints
 62
     0
100
AcDbPoint
 10
2424.479733431104
 20
714.3580373858969
 30
0.0
  0
POINT
  5
3008
330
2F71
100
AcDbEntity
  8
Defpoints
 62
     0
100
AcDbPoint
 10
2544.479733431103
 20
714.3580373858969
 30
0.0
  0
POINT
  5
3009
330
2F71
100
AcDbEntity
  8
Defpoints
 62
     0
100
AcDbPoint
 10
2544.479733431103
 20
664.8580373858971
 30
0.0
  0
ENDBLK
  5
2F7C
330
2F71
100
AcDbEntity
  8
0
100
AcDbBlockEnd
  0
BLOCK
  5
3119
330
310F
100
AcDbEntity
  8
0
100
AcDbBlockBegin
  2
*D17
 70
     1
 10
0.0
 20
0.0
 30
0.0
  3
*D17
  1

  0
LINE
  5
317B
330
310F
100
AcDbEntity
  8
AM_5
100
AcDbLine
 10
2864.706173790791
 20
508.9561227128467
 30
0.0
 11
2888.006307676423
 21
508.9561227128467
 31
0.0
  0
LINE
  5
317C
330
310F
100
AcDbEntity
  8
AM_5
100
AcDbLine
 10
2862.70617379079
 20
588.9561227128467
 30
0.0
 11
2888.006307676423
 21
588.9561227128467
 31
0.0
  0
LINE
  5
317D
330
310F
100
AcDbEntity
  8
AM_5
100
AcDbLine
 10
2886.506307676423
 20
511.9561227128468
 30
0.0
 11
2886.506307676423
 21
585.9561227128467
 31
0.0
  0
SOLID
  5
317E
330
310F
100
AcDbEntity
  8
AM_5
100
AcDbTrace
 10
2886.006307676423
 20
511.9561227128468
 30
0.0
 11
2887.006307676423
 21
511.9561227128468
 31
0.0
 12
2886.506307676423
 22
508.9561227128467
 32
0.0
 13
2886.506307676423
 23
508.9561227128467
 33
0.0
  0
SOLID
  5
317F
330
310F
100
AcDbEntity
  8
AM_5
100
AcDbTrace
 10
2886.006307676423
 20
585.9561227128467
 30
0.0
 11
2887.006307676423
 21
585.9561227128467
 31
0.0
 12
2886.506307676423
 22
588.9561227128467
 32
0.0
 13
2886.506307676423
 23
588.9561227128467
 33
0.0
  0
MTEXT
  5
3180
330
310F
100
AcDbEntity
  8
AM_5
100
AcDbMText
 10
2884.006307676423
 20
548.9561227128472
 30
0.0
 40
3.0
 41
0.0
 71
     5
 72
     1
  1
80
  7
CHINESET
 11
0.0000000000000001
 21
1.0
 31
0.0
 73
     1
 44
1.0
1001
ACAD
1000
MTEXTBEGIN
1070
    73
1070
     1
1070
    44
1040
1.0
1070
    74
1070
     0
1000
MTEXTEND
  0
POINT
  5
3181
330
310F
100
AcDbEntity
  8
Defpoints
 62
     0
100
AcDbPoint
 10
2863.70617379079
 20
508.9561227128467
 30
0.0
  0
POINT
  5
3182
330
310F
100
AcDbEntity
  8
Defpoints
 62
     0
100
AcDbPoint
 10
2861.706173790791
 20
588.9561227128467
 30
0.0
  0
POINT
  5
3183
330
310F
100
AcDbEntity
  8
Defpoints
 62
     0
100
AcDbPoint
 10
2886.506307676423
 20
588.9561227128467
 30
0.0
  0
ENDBLK
  5
311A
330
310F
100
AcDbEntity
  8
0
100
AcDbBlockEnd
  0
BLOCK
  5
3125
330
311B
100
AcDbEntity
  8
0
100
AcDbBlockBegin
  2
*D18
 70
     1
 10
0.0
 20
0.0
 30
0.0
  3
*D18
  1

  0
LINE
  5
3196
330
311B
100
AcDbEntity
  8
AM_5
100
AcDbLine
 10
2864.706173790791
 20
508.9561227128467
 30
0.0
 11
2910.70617379079
 21
508.9561227128467
 31
0.0
  0
LINE
  5
3197
330
311B
100
AcDbEntity
  8
AM_5
100
AcDbLine
 10
2897.20617379079
 20
622.5561227128467
 30
0.0
 11
2910.70617379079
 21
622.5561227128467
 31
0.0
  0
LINE
  5
3198
330
311B
100
AcDbEntity
  8
AM_5
100
AcDbLine
 10
2909.20617379079
 20
511.9561227128468
 30
0.0
 11
2909.20617379079
 21
619.5561227128467
 31
0.0
  0
SOLID
  5
3199
330
311B
100
AcDbEntity
  8
AM_5
100
AcDbTrace
 10
2908.70617379079
 20
511.9561227128468
 30
0.0
 11
2909.706173790791
 21
511.9561227128468
 31
0.0
 12
2909.20617379079
 22
508.9561227128467
 32
0.0
 13
2909.20617379079
 23
508.9561227128467
 33
0.0
  0
SOLID
  5
319A
330
311B
100
AcDbEntity
  8
AM_5
100
AcDbTrace
 10
2908.70617379079
 20
619.5561227128467
 30
0.0
 11
2909.706173790791
 21
619.5561227128467
 31
0.0
 12
2909.20617379079
 22
622.5561227128467
 32
0.0
 13
2909.20617379079
 23
622.5561227128467
 33
0.0
  0
MTEXT
  5
319B
330
311B
100
AcDbEntity
  8
AM_5
100
AcDbMText
 10
2906.70617379079
 20
565.7561227128471
 30
0.0
 40
3.0
 41
0.0
 71
     5
 72
     1
  1
113.6
  7
CHINESET
 11
0.0000000000000001
 21
1.0
 31
0.0
 73
     1
 44
1.0
1001
ACAD
1000
MTEXTBEGIN
1070
    73
1070
     1
1070
    44
1040
1.0
1070
    74
1070
     0
1000
MTEXTEND
  0
POINT
  5
319C
330
311B
100
AcDbEntity
  8
Defpoints
 62
     0
100
AcDbPoint
 10
2863.70617379079
 20
508.9561227128467
 30
0.0
  0
POINT
  5
319D
330
311B
100
AcDbEntity
  8
Defpoints
 62
     0
100
AcDbPoint
 10
2896.20617379079
 20
622.5561227128467
 30
0.0
  0
POINT
  5
319E
330
311B
100
AcDbEntity
  8
Defpoints
 62
     0
100
AcDbPoint
 10
2909.20617379079
 20
622.5561227128467
 30
0.0
  0
ENDBLK
  5
3126
330
311B
100
AcDbEntity
  8
0
100
AcDbBlockEnd
  0
BLOCK
  5
3131
330
3127
100
AcDbEntity
  8
0
100
AcDbBlockBegin
  2
*D19
 70
     1
 10
0.0
 20
0.0
 30
0.0
  3
*D19
  1

  0
LINE
  5
3367
330
3127
100
AcDbEntity
  8
AM_5
100
AcDbLine
 10
2805.70617379079
 20
535.9561227128467
 30
0.0
 11
2792.706173790791
 21
535.9561227128467
 31
0.0
  0
LINE
  5
3368
330
3127
100
AcDbEntity
  8
AM_5
100
AcDbLine
 10
2805.70617379079
 20
508.9561227128467
 30
0.0
 11
2792.706173790791
 21
508.9561227128467
 31
0.0
  0
LINE
  5
3369
330
3127
100
AcDbEntity
  8
AM_5
100
AcDbLine
 10
2794.206173790791
 20
532.9561227128468
 30
0.0
 11
2794.206173790791
 21
511.9561227128468
 31
0.0
  0
SOLID
  5
336A
330
3127
100
AcDbEntity
  8
AM_5
100
AcDbTrace
 10
2793.70617379079
 20
532.9561227128468
 30
0.0
 11
2794.70617379079
 21
532.9561227128468
 31
0.0
 12
2794.206173790791
 22
535.9561227128467
 32
0.0
 13
2794.206173790791
 23
535.9561227128467
 33
0.0
  0
SOLID
  5
336B
330
3127
100
AcDbEntity
  8
AM_5
100
AcDbTrace
 10
2793.70617379079
 20
511.9561227128468
 30
0.0
 11
2794.70617379079
 21
511.9561227128468
 31
0.0
 12
2794.206173790791
 22
508.9561227128467
 32
0.0
 13
2794.206173790791
 23
508.9561227128467
 33
0.0
  0
MTEXT
  5
336C
330
3127
100
AcDbEntity
  8
AM_5
100
AcDbMText
 10
2791.706173790791
 20
522.4561227128471
 30
0.0
 40
3.0
 41
0.0
 71
     5
 72
     1
  1
27
  7
CHINESET
 11
0.0000000000000001
 21
1.0
 31
0.0
 73
     1
 44
1.0
1001
ACAD
1000
MTEXTBEGIN
1070
    73
1070
     1
1070
    44
1040
1.0
1070
    74
1070
     0
1000
MTEXTEND
  0
POINT
  5
336D
330
3127
100
AcDbEntity
  8
Defpoints
 62
     0
100
AcDbPoint
 10
2806.70617379079
 20
535.9561227128467
 30
0.0
  0
POINT
  5
336E
330
3127
100
AcDbEntity
  8
Defpoints
 62
     0
100
AcDbPoint
 10
2806.70617379079
 20
508.9561227128467
 30
0.0
  0
POINT
  5
336F
330
3127
100
AcDbEntity
  8
Defpoints
 62
     0
100
AcDbPoint
 10
2794.206173790791
 20
508.9561227128467
 30
0.0
  0
ENDBLK
  5
3132
330
3127
100
AcDbEntity
  8
0
100
AcDbBlockEnd
  0
BLOCK
  5
313D
330
3133
100
AcDbEntity
  8
0
100
AcDbBlockBegin
  2
*D20
 70
     1
 10
0.0
 20
0.0
 30
0.0
  3
*D20
  1

  0
LINE
  5
318D
330
3133
100
AcDbEntity
  8
AM_5
100
AcDbLine
 10
2897.20617379079
 20
644.5561227128467
 30
0.0
 11
2910.70617379079
 21
644.5561227128467
 31
0.0
  0
LINE
  5
318E
330
3133
100
AcDbEntity
  8
AM_5
100
AcDbLine
 10
2897.20617379079
 20
622.5561227128467
 30
0.0
 11
2910.70617379079
 21
622.5561227128467
 31
0.0
  0
LINE
  5
318F
330
3133
100
AcDbEntity
  8
AM_5
100
AcDbLine
 10
2909.20617379079
 20
641.5561227128468
 30
0.0
 11
2909.20617379079
 21
625.5561227128468
 31
0.0
  0
SOLID
  5
3190
330
3133
100
AcDbEntity
  8
AM_5
100
AcDbTrace
 10
2908.70617379079
 20
641.5561227128468
 30
0.0
 11
2909.706173790791
 21
641.5561227128468
 31
0.0
 12
2909.20617379079
 22
644.5561227128467
 32
0.0
 13
2909.20617379079
 23
644.5561227128467
 33
0.0
  0
SOLID
  5
3191
330
3133
100
AcDbEntity
  8
AM_5
100
AcDbTrace
 10
2908.70617379079
 20
625.5561227128468
 30
0.0
 11
2909.706173790791
 21
625.5561227128468
 31
0.0
 12
2909.20617379079
 22
622.5561227128467
 32
0.0
 13
2909.20617379079
 23
622.5561227128467
 33
0.0
  0
MTEXT
  5
3192
330
3133
100
AcDbEntity
  8
AM_5
100
AcDbMText
 10
2906.70617379079
 20
633.5561227128472
 30
0.0
 40
3.0
 41
0.0
 71
     5
 72
     1
  1
22
  7
CHINESET
 11
0.0000000000000001
 21
1.0
 31
0.0
 73
     1
 44
1.0
1001
ACAD
1000
MTEXTBEGIN
1070
    73
1070
     1
1070
    44
1040
1.0
1070
    74
1070
     0
1000
MTEXTEND
  0
POINT
  5
3193
330
3133
100
AcDbEntity
  8
Defpoints
 62
     0
100
AcDbPoint
 10
2896.20617379079
 20
644.5561227128467
 30
0.0
  0
POINT
  5
3194
330
3133
100
AcDbEntity
  8
Defpoints
 62
     0
100
AcDbPoint
 10
2896.20617379079
 20
622.5561227128467
 30
0.0
  0
POINT
  5
3195
330
3133
100
AcDbEntity
  8
Defpoints
 62
     0
100
AcDbPoint
 10
2909.20617379079
 20
622.5561227128467
 30
0.0
  0
ENDBLK
  5
313E
330
3133
100
AcDbEntity
  8
0
100
AcDbBlockEnd
  0
BLOCK
  5
31AC
330
31A2
100
AcDbEntity
  8
0
100
AcDbBlockBegin
  2
*D21
 70
     1
 10
0.0
 20
0.0
 30
0.0
  3
*D21
  1

  0
LINE
  5
31FD
330
31A2
100
AcDbEntity
  8
AM_5
100
AcDbLine
 10
2813.206173790791
 20
707.5621711983655
 30
0.0
 11
2813.206173790791
 21
694.3121711983656
 31
0.0
  0
LINE
  5
31FE
330
31A2
100
AcDbEntity
  8
AM_5
100
AcDbLine
 10
2861.206173790791
 20
707.5621711983655
 30
0.0
 11
2861.206173790791
 21
694.3121711983656
 31
0.0
  0
LINE
  5
31FF
330
31A2
100
AcDbEntity
  8
AM_5
100
AcDbLine
 10
2816.20617379079
 20
695.8121711983656
 30
0.0
 11
2858.206173790791
 21
695.8121711983656
 31
0.0
  0
SOLID
  5
3200
330
31A2
100
AcDbEntity
  8
AM_5
100
AcDbTrace
 10
2816.20617379079
 20
696.3121711983656
 30
0.0
 11
2816.20617379079
 21
695.3121711983656
 31
0.0
 12
2813.206173790791
 22
695.8121711983656
 32
0.0
 13
2813.206173790791
 23
695.8121711983656
 33
0.0
  0
SOLID
  5
3201
330
31A2
100
AcDbEntity
  8
AM_5
100
AcDbTrace
 10
2858.206173790791
 20
696.3121711983656
 30
0.0
 11
2858.206173790791
 21
695.3121711983656
 31
0.0
 12
2861.206173790791
 22
695.8121711983656
 32
0.0
 13
2861.206173790791
 23
695.8121711983656
 33
0.0
  0
MTEXT
  5
3202
330
31A2
100
AcDbEntity
  8
AM_5
100
AcDbMText
 10
2837.20617379079
 20
698.3121711983656
 30
0.0
 40
3.0
 41
0.0
 71
     5
 72
     1
  1
48
  7
CHINESET
 73
     1
 44
1.0
1001
ACAD
1000
MTEXTBEGIN
1070
    73
1070
     1
1070
    44
1040
1.0
1070
    74
1070
     0
1000
MTEXTEND
  0
POINT
  5
3203
330
31A2
100
AcDbEntity
  8
Defpoints
 62
     0
100
AcDbPoint
 10
2813.206173790791
 20
708.5621711983655
 30
0.0
  0
POINT
  5
3204
330
31A2
100
AcDbEntity
  8
Defpoints
 62
     0
100
AcDbPoint
 10
2861.206173790791
 20
708.5621711983655
 30
0.0
  0
POINT
  5
3205
330
31A2
100
AcDbEntity
  8
Defpoints
 62
     0
100
AcDbPoint
 10
2861.206173790791
 20
695.8121711983656
 30
0.0
  0
ENDBLK
  5
31AD
330
31A2
100
AcDbEntity
  8
0
100
AcDbBlockEnd
  0
BLOCK
  5
31B8
330
31AE
100
AcDbEntity
  8
0
100
AcDbBlockBegin
  2
*D22
 70
     1
 10
0.0
 20
0.0
 30
0.0
  3
*D22
  1

  0
LINE
  5
31EB
330
31AE
100
AcDbEntity
  8
AM_5
100
AcDbLine
 10
2806.206173790791
 20
708.8121711983656
 30
0.0
 11
2806.206173790791
 21
684.3121711983656
 31
0.0
  0
LINE
  5
31EC
330
31AE
100
AcDbEntity
  8
AM_5
100
AcDbLine
 10
2868.20617379079
 20
708.8121711983656
 30
0.0
 11
2868.20617379079
 21
684.3121711983656
 31
0.0
  0
LINE
  5
31ED
330
31AE
100
AcDbEntity
  8
AM_5
100
AcDbLine
 10
2809.20617379079
 20
685.8121711983656
 30
0.0
 11
2865.20617379079
 21
685.8121711983656
 31
0.0
  0
SOLID
  5
31EE
330
31AE
100
AcDbEntity
  8
AM_5
100
AcDbTrace
 10
2809.20617379079
 20
686.3121711983656
 30
0.0
 11
2809.20617379079
 21
685.3121711983655
 31
0.0
 12
2806.206173790791
 22
685.8121711983656
 32
0.0
 13
2806.206173790791
 23
685.8121711983656
 33
0.0
  0
SOLID
  5
31EF
330
31AE
100
AcDbEntity
  8
AM_5
100
AcDbTrace
 10
2865.20617379079
 20
686.3121711983656
 30
0.0
 11
2865.20617379079
 21
685.3121711983655
 31
0.0
 12
2868.20617379079
 22
685.8121711983656
 32
0.0
 13
2868.20617379079
 23
685.8121711983656
 33
0.0
  0
MTEXT
  5
31F0
330
31AE
100
AcDbEntity
  8
AM_5
100
AcDbMText
 10
2837.20617379079
 20
688.3121711983656
 30
0.0
 40
3.0
 41
0.0
 71
     5
 72
     1
  1
62
  7
CHINESET
 73
     1
 44
1.0
1001
ACAD
1000
MTEXTBEGIN
1070
    73
1070
     1
1070
    44
1040
1.0
1070
    74
1070
     0
1000
MTEXTEND
  0
POINT
  5
31F1
330
31AE
100
AcDbEntity
  8
Defpoints
 62
     0
100
AcDbPoint
 10
2806.206173790791
 20
709.8121711983655
 30
0.0
  0
POINT
  5
31F2
330
31AE
100
AcDbEntity
  8
Defpoints
 62
     0
100
AcDbPoint
 10
2868.20617379079
 20
709.8121711983655
 30
0.0
  0
POINT
  5
31F3
330
31AE
100
AcDbEntity
  8
Defpoints
 62
     0
100
AcDbPoint
 10
2868.20617379079
 20
685.8121711983656
 30
0.0
  0
ENDBLK
  5
31B9
330
31AE
100
AcDbEntity
  8
0
100
AcDbBlockEnd
  0
BLOCK
  5
31C4
330
31BA
100
AcDbEntity
  8
0
100
AcDbBlockBegin
  2
*D23
 70
     1
 10
0.0
 20
0.0
 30
0.0
  3
*D23
  1

  0
LINE
  5
31D8
330
31BA
100
AcDbEntity
  8
AM_5
100
AcDbLine
 10
2777.209323713015
 20
724.3121711983656
 30
0.0
 11
2777.209323713015
 21
674.3121711983657
 31
0.0
  0
LINE
  5
31D9
330
31BA
100
AcDbEntity
  8
AM_5
100
AcDbLine
 10
2897.209323713016
 20
724.3121711983656
 30
0.0
 11
2897.209323713016
 21
674.3121711983657
 31
0.0
  0
LINE
  5
31DA
330
31BA
100
AcDbEntity
  8
AM_5
100
AcDbLine
 10
2780.209323713015
 20
675.8121711983656
 30
0.0
 11
2894.209323713015
 21
675.8121711983656
 31
0.0
  0
SOLID
  5
31DB
330
31BA
100
AcDbEntity
  8
AM_5
100
AcDbTrace
 10
2780.209323713015
 20
676.3121711983657
 30
0.0
 11
2780.209323713015
 21
675.3121711983657
 31
0.0
 12
2777.209323713015
 22
675.8121711983656
 32
0.0
 13
2777.209323713015
 23
675.8121711983656
 33
0.0
  0
SOLID
  5
31DC
330
31BA
100
AcDbEntity
  8
AM_5
100
AcDbTrace
 10
2894.209323713015
 20
676.3121711983657
 30
0.0
 11
2894.209323713015
 21
675.3121711983657
 31
0.0
 12
2897.209323713016
 22
675.8121711983656
 32
0.0
 13
2897.209323713016
 23
675.8121711983656
 33
0.0
  0
MTEXT
  5
31DD
330
31BA
100
AcDbEntity
  8
AM_5
100
AcDbMText
 10
2837.209323713015
 20
678.3121711983657
 30
0.0
 40
3.0
 41
0.0
 71
     5
 72
     1
  1
120
  7
CHINESET
 73
     1
 44
1.0
1001
ACAD
1000
MTEXTBEGIN
1070
    73
1070
     1
1070
    44
1040
1.0
1070
    74
1070
     0
1000
MTEXTEND
  0
POINT
  5
31DE
330
31BA
100
AcDbEntity
  8
Defpoints
 62
     0
100
AcDbPoint
 10
2777.209323713015
 20
725.3121711983656
 30
0.0
  0
POINT
  5
31DF
330
31BA
100
AcDbEntity
  8
Defpoints
 62
     0
100
AcDbPoint
 10
2897.209323713016
 20
725.3121711983656
 30
0.0
  0
POINT
  5
31E0
330
31BA
100
AcDbEntity
  8
Defpoints
 62
     0
100
AcDbPoint
 10
2897.209323713016
 20
675.8121711983656
 30
0.0
  0
ENDBLK
  5
31C5
330
31BA
100
AcDbEntity
  8
0
100
AcDbBlockEnd
  0
BLOCK
  5
331D
330
3313
100
AcDbEntity
  8
0
100
AcDbBlockBegin
  2
*D24
 70
     1
 10
0.0
 20
0.0
 30
0.0
  3
*D24
  1

  0
LINE
  5
3461
330
3313
100
AcDbEntity
  8
AM_5
100
AcDbLine
 10
2148.657803487452
 20
138.0125204969318
 30
0.0
 11
2162.457937373085
 21
138.0125204969318
 31
0.0
  0
LINE
  5
3462
330
3313
100
AcDbEntity
  8
AM_5
100
AcDbLine
 10
2144.157803487452
 20
218.0125204969317
 30
0.0
 11
2162.457937373085
 21
218.0125204969317
 31
0.0
  0
LINE
  5
3463
330
3313
100
AcDbEntity
  8
AM_5
100
AcDbLine
 10
2160.957937373085
 20
141.0125204969318
 30
0.0
 11
2160.957937373085
 21
215.0125204969317
 31
0.0
  0
SOLID
  5
3464
330
3313
100
AcDbEntity
  8
AM_5
100
AcDbTrace
 10
2160.457937373085
 20
141.0125204969318
 30
0.0
 11
2161.457937373084
 21
141.0125204969318
 31
0.0
 12
2160.957937373085
 22
138.0125204969318
 32
0.0
 13
2160.957937373085
 23
138.0125204969318
 33
0.0
  0
SOLID
  5
3465
330
3313
100
AcDbEntity
  8
AM_5
100
AcDbTrace
 10
2160.457937373085
 20
215.0125204969317
 30
0.0
 11
2161.457937373084
 21
215.0125204969317
 31
0.0
 12
2160.957937373085
 22
218.0125204969317
 32
0.0
 13
2160.957937373085
 23
218.0125204969317
 33
0.0
  0
MTEXT
  5
3466
330
3313
100
AcDbEntity
  8
AM_5
100
AcDbMText
 10
2158.457937373084
 20
178.0125204969321
 30
0.0
 40
3.0
 41
0.0
 71
     5
 72
     1
  1
80
  7
CHINESET
 11
0.0000000000000001
 21
1.0
 31
0.0
 73
     1
 44
1.0
1001
ACAD
1000
MTEXTBEGIN
1070
    73
1070
     1
1070
    44
1040
1.0
1070
    74
1070
     0
1000
MTEXTEND
  0
POINT
  5
3467
330
3313
100
AcDbEntity
  8
Defpoints
 62
     0
100
AcDbPoint
 10
2147.657803487452
 20
138.0125204969318
 30
0.0
  0
POINT
  5
3468
330
3313
100
AcDbEntity
  8
Defpoints
 62
     0
100
AcDbPoint
 10
2143.157803487452
 20
218.0125204969317
 30
0.0
  0
POINT
  5
3469
330
3313
100
AcDbEntity
  8
Defpoints
 62
     0
100
AcDbPoint
 10
2160.957937373085
 20
218.0125204969317
 30
0.0
  0
ENDBLK
  5
331E
330
3313
100
AcDbEntity
  8
0
100
AcDbBlockEnd
  0
BLOCK
  5
3329
330
331F
100
AcDbEntity
  8
0
100
AcDbBlockBegin
  2
*D25
 70
     1
 10
0.0
 20
0.0
 30
0.0
  3
*D25
  1

  0
LINE
  5
347C
330
331F
100
AcDbEntity
  8
AM_5
100
AcDbLine
 10
2148.657803487452
 20
138.0125204969318
 30
0.0
 11
2185.157803487452
 21
138.0125204969318
 31
0.0
  0
LINE
  5
347D
330
331F
100
AcDbEntity
  8
AM_5
100
AcDbLine
 10
2171.657803487452
 20
252.5125204969317
 30
0.0
 11
2185.157803487452
 21
252.5125204969317
 31
0.0
  0
LINE
  5
347E
330
331F
100
AcDbEntity
  8
AM_5
100
AcDbLine
 10
2183.657803487452
 20
141.0125204969318
 30
0.0
 11
2183.657803487452
 21
249.5125204969317
 31
0.0
  0
SOLID
  5
347F
330
331F
100
AcDbEntity
  8
AM_5
100
AcDbTrace
 10
2183.157803487452
 20
141.0125204969318
 30
0.0
 11
2184.157803487452
 21
141.0125204969318
 31
0.0
 12
2183.657803487452
 22
138.0125204969318
 32
0.0
 13
2183.657803487452
 23
138.0125204969318
 33
0.0
  0
SOLID
  5
3480
330
331F
100
AcDbEntity
  8
AM_5
100
AcDbTrace
 10
2183.157803487452
 20
249.5125204969317
 30
0.0
 11
2184.157803487452
 21
249.5125204969317
 31
0.0
 12
2183.657803487452
 22
252.5125204969317
 32
0.0
 13
2183.657803487452
 23
252.5125204969317
 33
0.0
  0
MTEXT
  5
3481
330
331F
100
AcDbEntity
  8
AM_5
100
AcDbMText
 10
2181.157803487452
 20
195.2625204969321
 30
0.0
 40
3.0
 41
0.0
 71
     5
 72
     1
  1
114.5
  7
CHINESET
 11
0.0000000000000001
 21
1.0
 31
0.0
 73
     1
 44
1.0
1001
ACAD
1000
MTEXTBEGIN
1070
    73
1070
     1
1070
    44
1040
1.0
1070
    74
1070
     0
1000
MTEXTEND
  0
POINT
  5
3482
330
331F
100
AcDbEntity
  8
Defpoints
 62
     0
100
AcDbPoint
 10
2147.657803487452
 20
138.0125204969318
 30
0.0
  0
POINT
  5
3483
330
331F
100
AcDbEntity
  8
Defpoints
 62
     0
100
AcDbPoint
 10
2170.657803487452
 20
252.5125204969317
 30
0.0
  0
POINT
  5
3484
330
331F
100
AcDbEntity
  8
Defpoints
 62
     0
100
AcDbPoint
 10
2183.657803487452
 20
252.5125204969317
 30
0.0
  0
ENDBLK
  5
332A
330
331F
100
AcDbEntity
  8
0
100
AcDbBlockEnd
  0
BLOCK
  5
3335
330
332B
100
AcDbEntity
  8
0
100
AcDbBlockBegin
  2
*D26
 70
     1
 10
0.0
 20
0.0
 30
0.0
  3
*D26
  1

  0
LINE
  5
3446
330
332B
100
AcDbEntity
  8
AM_5
100
AcDbLine
 10
2074.657803487452
 20
165.0125204969318
 30
0.0
 11
2061.157803487452
 21
165.0125204969318
 31
0.0
  0
LINE
  5
3447
330
332B
100
AcDbEntity
  8
AM_5
100
AcDbLine
 10
2074.657803487452
 20
138.0125204969318
 30
0.0
 11
2061.157803487452
 21
138.0125204969318
 31
0.0
  0
LINE
  5
3448
330
332B
100
AcDbEntity
  8
AM_5
100
AcDbLine
 10
2062.657803487452
 20
162.0125204969318
 30
0.0
 11
2062.657803487452
 21
141.0125204969318
 31
0.0
  0
SOLID
  5
3449
330
332B
100
AcDbEntity
  8
AM_5
100
AcDbTrace
 10
2062.157803487452
 20
162.0125204969318
 30
0.0
 11
2063.157803487452
 21
162.0125204969318
 31
0.0
 12
2062.657803487452
 22
165.0125204969318
 32
0.0
 13
2062.657803487452
 23
165.0125204969318
 33
0.0
  0
SOLID
  5
344A
330
332B
100
AcDbEntity
  8
AM_5
100
AcDbTrace
 10
2062.157803487452
 20
141.0125204969318
 30
0.0
 11
2063.157803487452
 21
141.0125204969318
 31
0.0
 12
2062.657803487452
 22
138.0125204969318
 32
0.0
 13
2062.657803487452
 23
138.0125204969318
 33
0.0
  0
MTEXT
  5
344B
330
332B
100
AcDbEntity
  8
AM_5
100
AcDbMText
 10
2060.157803487452
 20
151.5125204969321
 30
0.0
 40
3.0
 41
0.0
 71
     5
 72
     1
  1
27
  7
CHINESET
 11
0.0000000000000001
 21
1.0
 31
0.0
 73
     1
 44
1.0
1001
ACAD
1000
MTEXTBEGIN
1070
    73
1070
     1
1070
    44
1040
1.0
1070
    74
1070
     0
1000
MTEXTEND
  0
POINT
  5
344C
330
332B
100
AcDbEntity
  8
Defpoints
 62
     0
100
AcDbPoint
 10
2075.657803487452
 20
165.0125204969318
 30
0.0
  0
POINT
  5
344D
330
332B
100
AcDbEntity
  8
Defpoints
 62
     0
100
AcDbPoint
 10
2075.657803487452
 20
138.0125204969318
 30
0.0
  0
POINT
  5
344E
330
332B
100
AcDbEntity
  8
Defpoints
 62
     0
100
AcDbPoint
 10
2062.657803487452
 20
138.0125204969318
 30
0.0
  0
ENDBLK
  5
3336
330
332B
100
AcDbEntity
  8
0
100
AcDbBlockEnd
  0
BLOCK
  5
3341
330
3337
100
AcDbEntity
  8
0
100
AcDbBlockBegin
  2
*D27
 70
     1
 10
0.0
 20
0.0
 30
0.0
  3
*D27
  1

  0
LINE
  5
3473
330
3337
100
AcDbEntity
  8
AM_5
100
AcDbLine
 10
2171.657803487452
 20
274.5125204969318
 30
0.0
 11
2185.157803487452
 21
274.5125204969317
 31
0.0
  0
LINE
  5
3474
330
3337
100
AcDbEntity
  8
AM_5
100
AcDbLine
 10
2171.657803487452
 20
252.5125204969317
 30
0.0
 11
2185.157803487452
 21
252.5125204969317
 31
0.0
  0
LINE
  5
3475
330
3337
100
AcDbEntity
  8
AM_5
100
AcDbLine
 10
2183.657803487452
 20
271.5125204969317
 30
0.0
 11
2183.657803487452
 21
255.5125204969317
 31
0.0
  0
SOLID
  5
3476
330
3337
100
AcDbEntity
  8
AM_5
100
AcDbTrace
 10
2183.157803487452
 20
271.5125204969317
 30
0.0
 11
2184.157803487452
 21
271.5125204969317
 31
0.0
 12
2183.657803487452
 22
274.5125204969317
 32
0.0
 13
2183.657803487452
 23
274.5125204969317
 33
0.0
  0
SOLID
  5
3477
330
3337
100
AcDbEntity
  8
AM_5
100
AcDbTrace
 10
2183.157803487452
 20
255.5125204969317
 30
0.0
 11
2184.157803487452
 21
255.5125204969317
 31
0.0
 12
2183.657803487452
 22
252.5125204969317
 32
0.0
 13
2183.657803487452
 23
252.5125204969317
 33
0.0
  0
MTEXT
  5
3478
330
3337
100
AcDbEntity
  8
AM_5
100
AcDbMText
 10
2181.157803487452
 20
263.5125204969321
 30
0.0
 40
3.0
 41
0.0
 71
     5
 72
     1
  1
22
  7
CHINESET
 11
0.0000000000000001
 21
1.0
 31
0.0
 73
     1
 44
1.0
1001
ACAD
1000
MTEXTBEGIN
1070
    73
1070
     1
1070
    44
1040
1.0
1070
    74
1070
     0
1000
MTEXTEND
  0
POINT
  5
3479
330
3337
100
AcDbEntity
  8
Defpoints
 62
     0
100
AcDbPoint
 10
2170.657803487452
 20
274.5125204969318
 30
0.0
  0
POINT
  5
347A
330
3337
100
AcDbEntity
  8
Defpoints
 62
     0
100
AcDbPoint
 10
2170.657803487452
 20
252.5125204969317
 30
0.0
  0
POINT
  5
347B
330
3337
100
AcDbEntity
  8
Defpoints
 62
     0
100
AcDbPoint
 10
2183.657803487452
 20
252.5125204969317
 30
0.0
  0
ENDBLK
  5
3342
330
3337
100
AcDbEntity
  8
0
100
AcDbBlockEnd
  0
BLOCK
  5
337D
330
3373
100
AcDbEntity
  8
0
100
AcDbBlockBegin
  2
*D28
 70
     1
 10
0.0
 20
0.0
 30
0.0
  3
*D28
  1

  0
LINE
  5
3485
330
3373
100
AcDbEntity
  8
AM_5
100
AcDbLine
 10
2083.157803487452
 20
332.346633589314
 30
0.0
 11
2083.157803487452
 21
317.596633589314
 31
0.0
  0
LINE
  5
3486
330
3373
100
AcDbEntity
  8
AM_5
100
AcDbLine
 10
2140.157803487452
 20
332.346633589314
 30
0.0
 11
2140.157803487452
 21
317.596633589314
 31
0.0
  0
LINE
  5
3487
330
3373
100
AcDbEntity
  8
AM_5
100
AcDbLine
 10
2086.157803487452
 20
319.096633589314
 30
0.0
 11
2137.157803487452
 21
319.096633589314
 31
0.0
  0
SOLID
  5
3488
330
3373
100
AcDbEntity
  8
AM_5
100
AcDbTrace
 10
2086.157803487452
 20
319.596633589314
 30
0.0
 11
2086.157803487452
 21
318.596633589314
 31
0.0
 12
2083.157803487452
 22
319.096633589314
 32
0.0
 13
2083.157803487452
 23
319.096633589314
 33
0.0
  0
SOLID
  5
3489
330
3373
100
AcDbEntity
  8
AM_5
100
AcDbTrace
 10
2137.157803487452
 20
319.596633589314
 30
0.0
 11
2137.157803487452
 21
318.596633589314
 31
0.0
 12
2140.157803487452
 22
319.096633589314
 32
0.0
 13
2140.157803487452
 23
319.096633589314
 33
0.0
  0
MTEXT
  5
348A
330
3373
100
AcDbEntity
  8
AM_5
100
AcDbMText
 10
2111.657803487452
 20
321.596633589314
 30
0.0
 40
3.0
 41
0.0
 71
     5
 72
     1
  1
57
  7
CHINESET
 73
     1
 44
1.0
1001
ACAD
1000
MTEXTBEGIN
1070
    73
1070
     1
1070
    44
1040
1.0
1070
    74
1070
     0
1000
MTEXTEND
  0
POINT
  5
348B
330
3373
100
AcDbEntity
  8
Defpoints
 62
     0
100
AcDbPoint
 10
2083.157803487452
 20
333.346633589314
 30
0.0
  0
POINT
  5
348C
330
3373
100
AcDbEntity
  8
Defpoints
 62
     0
100
AcDbPoint
 10
2140.157803487452
 20
333.346633589314
 30
0.0
  0
POINT
  5
348D
330
3373
100
AcDbEntity
  8
Defpoints
 62
     0
100
AcDbPoint
 10
2140.157803487452
 20
319.096633589314
 30
0.0
  0
ENDBLK
  5
337E
330
3373
100
AcDbEntity
  8
0
100
AcDbBlockEnd
  0
BLOCK
  5
3389
330
337F
100
AcDbEntity
  8
0
100
AcDbBlockBegin
  2
*D29
 70
     1
 10
0.0
 20
0.0
 30
0.0
  3
*D29
  1

  0
LINE
  5
348E
330
337F
100
AcDbEntity
  8
AM_5
100
AcDbLine
 10
2074.657803487452
 20
333.3895268081275
 30
0.0
 11
2074.657803487452
 21
307.596633589314
 31
0.0
  0
LINE
  5
348F
330
337F
100
AcDbEntity
  8
AM_5
100
AcDbLine
 10
2148.657803487452
 20
333.3895268081275
 30
0.0
 11
2148.657803487452
 21
307.596633589314
 31
0.0
  0
LINE
  5
3490
330
337F
100
AcDbEntity
  8
AM_5
100
AcDbLine
 10
2077.657803487452
 20
309.096633589314
 30
0.0
 11
2145.657803487452
 21
309.096633589314
 31
0.0
  0
SOLID
  5
3491
330
337F
100
AcDbEntity
  8
AM_5
100
AcDbTrace
 10
2077.657803487452
 20
309.596633589314
 30
0.0
 11
2077.657803487452
 21
308.596633589314
 31
0.0
 12
2074.657803487452
 22
309.096633589314
 32
0.0
 13
2074.657803487452
 23
309.096633589314
 33
0.0
  0
SOLID
  5
3492
330
337F
100
AcDbEntity
  8
AM_5
100
AcDbTrace
 10
2145.657803487452
 20
309.596633589314
 30
0.0
 11
2145.657803487452
 21
308.596633589314
 31
0.0
 12
2148.657803487452
 22
309.096633589314
 32
0.0
 13
2148.657803487452
 23
309.096633589314
 33
0.0
  0
MTEXT
  5
3493
330
337F
100
AcDbEntity
  8
AM_5
100
AcDbMText
 10
2111.657803487452
 20
311.596633589314
 30
0.0
 40
3.0
 41
0.0
 71
     5
 72
     1
  1
74
  7
CHINESET
 73
     1
 44
1.0
1001
ACAD
1000
MTEXTBEGIN
1070
    73
1070
     1
1070
    44
1040
1.0
1070
    74
1070
     0
1000
MTEXTEND
  0
POINT
  5
3494
330
337F
100
AcDbEntity
  8
Defpoints
 62
     0
100
AcDbPoint
 10
2074.657803487452
 20
334.3895268081275
 30
0.0
  0
POINT
  5
3495
330
337F
100
AcDbEntity
  8
Defpoints
 62
     0
100
AcDbPoint
 10
2148.657803487452
 20
334.3895268081275
 30
0.0
  0
POINT
  5
3496
330
337F
100
AcDbEntity
  8
Defpoints
 62
     0
100
AcDbPoint
 10
2148.657803487452
 20
309.096633589314
 30
0.0
  0
ENDBLK
  5
338A
330
337F
100
AcDbEntity
  8
0
100
AcDbBlockEnd
  0
BLOCK
  5
3395
330
338B
100
AcDbEntity
  8
0
100
AcDbBlockBegin
  2
*D30
 70
     1
 10
0.0
 20
0.0
 30
0.0
  3
*D30
  1

  0
LINE
  5
3497
330
338B
100
AcDbEntity
  8
AM_5
100
AcDbLine
 10
2051.657803487452
 20
357.096633589314
 30
0.0
 11
2051.657803487452
 21
297.5966335893141
 31
0.0
  0
LINE
  5
3498
330
338B
100
AcDbEntity
  8
AM_5
100
AcDbLine
 10
2171.657803487452
 20
357.096633589314
 30
0.0
 11
2171.657803487452
 21
297.5966335893141
 31
0.0
  0
LINE
  5
3499
330
338B
100
AcDbEntity
  8
AM_5
100
AcDbLine
 10
2054.657803487452
 20
299.0966335893141
 30
0.0
 11
2168.657803487452
 21
299.0966335893141
 31
0.0
  0
SOLID
  5
349A
330
338B
100
AcDbEntity
  8
AM_5
100
AcDbTrace
 10
2054.657803487452
 20
299.5966335893141
 30
0.0
 11
2054.657803487452
 21
298.5966335893142
 31
0.0
 12
2051.657803487452
 22
299.0966335893141
 32
0.0
 13
2051.657803487452
 23
299.0966335893141
 33
0.0
  0
SOLID
  5
349B
330
338B
100
AcDbEntity
  8
AM_5
100
AcDbTrace
 10
2168.657803487452
 20
299.5966335893141
 30
0.0
 11
2168.657803487452
 21
298.5966335893142
 31
0.0
 12
2171.657803487452
 22
299.0966335893141
 32
0.0
 13
2171.657803487452
 23
299.0966335893141
 33
0.0
  0
MTEXT
  5
349C
330
338B
100
AcDbEntity
  8
AM_5
100
AcDbMText
 10
2111.657803487452
 20
301.5966335893141
 30
0.0
 40
3.0
 41
0.0
 71
     5
 72
     1
  1
120
  7
CHINESET
 73
     1
 44
1.0
1001
ACAD
1000
MTEXTBEGIN
1070
    73
1070
     1
1070
    44
1040
1.0
1070
    74
1070
     0
1000
MTEXTEND
  0
POINT
  5
349D
330
338B
100
AcDbEntity
  8
Defpoints
 62
     0
100
AcDbPoint
 10
2051.657803487452
 20
358.096633589314
 30
0.0
  0
POINT
  5
349E
330
338B
100
AcDbEntity
  8
Defpoints
 62
     0
100
AcDbPoint
 10
2171.657803487452
 20
358.096633589314
 30
0.0
  0
POINT
  5
349F
330
338B
100
AcDbEntity
  8
Defpoints
 62
     0
100
AcDbPoint
 10
2171.657803487452
 20
299.0966335893141
 30
0.0
  0
ENDBLK
  5
3396
330
338B
100
AcDbEntity
  8
0
100
AcDbBlockEnd
  0
BLOCK
  5
341D
330
3413
100
AcDbEntity
  8
0
100
AcDbBlockBegin
  2
*D31
 70
     1
 10
0.0
 20
0.0
 30
0.0
  3
*D31
  1

  0
LINE
  5
34A0
330
3413
100
AcDbEntity
  8
AM_5
100
AcDbLine
 10
2171.657803487452
 20
379.096633589314
 30
0.0
 11
2184.157803487452
 21
379.096633589314
 31
0.0
  0
LINE
  5
34A1
330
3413
100
AcDbEntity
  8
AM_5
100
AcDbLine
 10
2171.657803487452
 20
357.096633589314
 30
0.0
 11
2184.157803487452
 21
357.096633589314
 31
0.0
  0
LINE
  5
34A2
330
3413
100
AcDbEntity
  8
AM_5
100
AcDbLine
 10
2182.657803487452
 20
376.096633589314
 30
0.0
 11
2182.657803487452
 21
360.096633589314
 31
0.0
  0
SOLID
  5
34A3
330
3413
100
AcDbEntity
  8
AM_5
100
AcDbTrace
 10
2182.157803487452
 20
376.096633589314
 30
0.0
 11
2183.157803487452
 21
376.096633589314
 31
0.0
 12
2182.657803487452
 22
379.096633589314
 32
0.0
 13
2182.657803487452
 23
379.096633589314
 33
0.0
  0
SOLID
  5
34A4
330
3413
100
AcDbEntity
  8
AM_5
100
AcDbTrace
 10
2182.157803487452
 20
360.096633589314
 30
0.0
 11
2183.157803487452
 21
360.096633589314
 31
0.0
 12
2182.657803487452
 22
357.096633589314
 32
0.0
 13
2182.657803487452
 23
357.096633589314
 33
0.0
  0
MTEXT
  5
34A5
330
3413
100
AcDbEntity
  8
AM_5
100
AcDbMText
 10
2180.157803487452
 20
368.0966335893144
 30
0.0
 40
3.0
 41
0.0
 71
     5
 72
     1
  1
22
  7
CHINESET
 11
0.0000000000000001
 21
1.0
 31
0.0
 73
     1
 44
1.0
1001
ACAD
1000
MTEXTBEGIN
1070
    73
1070
     1
1070
    44
1040
1.0
1070
    74
1070
     0
1000
MTEXTEND
  0
POINT
  5
34A6
330
3413
100
AcDbEntity
  8
Defpoints
 62
     0
100
AcDbPoint
 10
2170.657803487452
 20
379.096633589314
 30
0.0
  0
POINT
  5
34A7
330
3413
100
AcDbEntity
  8
Defpoints
 62
     0
100
AcDbPoint
 10
2170.657803487452
 20
357.096633589314
 30
0.0
  0
POINT
  5
34A8
330
3413
100
AcDbEntity
  8
Defpoints
 62
     0
100
AcDbPoint
 10
2182.657803487452
 20
357.096633589314
 30
0.0
  0
ENDBLK
  5
341E
330
3413
100
AcDbEntity
  8
0
100
AcDbBlockEnd
  0
BLOCK
  5
35B8
330
35AE
100
AcDbEntity
  8
0
100
AcDbBlockBegin
  2
*D32
 70
     1
 10
0.0
 20
0.0
 30
0.0
  3
*D32
  1

  0
LINE
  5
361A
330
35AE
100
AcDbEntity
  8
AM_5
100
AcDbLine
 10
2449.476583508879
 20
341.2625204969318
 30
0.0
 11
2449.476583508879
 21
327.0125204969318
 31
0.0
  0
LINE
  5
361B
330
35AE
100
AcDbEntity
  8
AM_5
100
AcDbLine
 10
2519.476583508879
 20
341.2625204969318
 30
0.0
 11
2519.476583508879
 21
327.0125204969318
 31
0.0
  0
LINE
  5
361C
330
35AE
100
AcDbEntity
  8
AM_5
100
AcDbLine
 10
2452.476583508878
 20
328.5125204969318
 30
0.0
 11
2516.476583508878
 21
328.5125204969318
 31
0.0
  0
SOLID
  5
361D
330
35AE
100
AcDbEntity
  8
AM_5
100
AcDbTrace
 10
2452.476583508878
 20
329.0125204969318
 30
0.0
 11
2452.476583508878
 21
328.0125204969317
 31
0.0
 12
2449.476583508879
 22
328.5125204969318
 32
0.0
 13
2449.476583508879
 23
328.5125204969318
 33
0.0
  0
SOLID
  5
361E
330
35AE
100
AcDbEntity
  8
AM_5
100
AcDbTrace
 10
2516.476583508878
 20
329.0125204969318
 30
0.0
 11
2516.476583508878
 21
328.0125204969317
 31
0.0
 12
2519.476583508879
 22
328.5125204969318
 32
0.0
 13
2519.476583508879
 23
328.5125204969318
 33
0.0
  0
MTEXT
  5
361F
330
35AE
100
AcDbEntity
  8
AM_5
100
AcDbMText
 10
2484.476583508878
 20
331.0125204969318
 30
0.0
 40
3.0
 41
0.0
 71
     5
 72
     1
  1
70
  7
CHINESET
 73
     1
 44
1.0
1001
ACAD
1000
MTEXTBEGIN
1070
    73
1070
     1
1070
    44
1040
1.0
1070
    74
1070
     0
1000
MTEXTEND
  0
POINT
  5
3620
330
35AE
100
AcDbEntity
  8
Defpoints
 62
     0
100
AcDbPoint
 10
2449.476583508879
 20
342.2625204969317
 30
0.0
  0
POINT
  5
3621
330
35AE
100
AcDbEntity
  8
Defpoints
 62
     0
100
AcDbPoint
 10
2519.476583508879
 20
342.2625204969317
 30
0.0
  0
POINT
  5
3622
330
35AE
100
AcDbEntity
  8
Defpoints
 62
     0
100
AcDbPoint
 10
2519.476583508879
 20
328.5125204969318
 30
0.0
  0
ENDBLK
  5
35B9
330
35AE
100
AcDbEntity
  8
0
100
AcDbBlockEnd
  0
BLOCK
  5
35C4
330
35BA
100
AcDbEntity
  8
0
100
AcDbBlockBegin
  2
*D33
 70
     1
 10
0.0
 20
0.0
 30
0.0
  3
*D33
  1

  0
LINE
  5
3611
330
35BA
100
AcDbEntity
  8
AM_5
100
AcDbLine
 10
2440.476583508879
 20
342.5125204969317
 30
0.0
 11
2440.476583508879
 21
317.0125204969318
 31
0.0
  0
LINE
  5
3612
330
35BA
100
AcDbEntity
  8
AM_5
100
AcDbLine
 10
2528.476583508878
 20
342.5125204969317
 30
0.0
 11
2528.476583508878
 21
317.0125204969318
 31
0.0
  0
LINE
  5
3613
330
35BA
100
AcDbEntity
  8
AM_5
100
AcDbLine
 10
2443.476583508878
 20
318.5125204969318
 30
0.0
 11
2525.476583508878
 21
318.5125204969318
 31
0.0
  0
SOLID
  5
3614
330
35BA
100
AcDbEntity
  8
AM_5
100
AcDbTrace
 10
2443.476583508878
 20
319.0125204969318
 30
0.0
 11
2443.476583508878
 21
318.0125204969318
 31
0.0
 12
2440.476583508879
 22
318.5125204969318
 32
0.0
 13
2440.476583508879
 23
318.5125204969318
 33
0.0
  0
SOLID
  5
3615
330
35BA
100
AcDbEntity
  8
AM_5
100
AcDbTrace
 10
2525.476583508878
 20
319.0125204969318
 30
0.0
 11
2525.476583508878
 21
318.0125204969318
 31
0.0
 12
2528.476583508878
 22
318.5125204969318
 32
0.0
 13
2528.476583508878
 23
318.5125204969318
 33
0.0
  0
MTEXT
  5
3616
330
35BA
100
AcDbEntity
  8
AM_5
100
AcDbMText
 10
2484.476583508878
 20
321.0125204969318
 30
0.0
 40
3.0
 41
0.0
 71
     5
 72
     1
  1
88
  7
CHINESET
 73
     1
 44
1.0
1001
ACAD
1000
MTEXTBEGIN
1070
    73
1070
     1
1070
    44
1040
1.0
1070
    74
1070
     0
1000
MTEXTEND
  0
POINT
  5
3617
330
35BA
100
AcDbEntity
  8
Defpoints
 62
     0
100
AcDbPoint
 10
2440.476583508879
 20
343.5125204969318
 30
0.0
  0
POINT
  5
3618
330
35BA
100
AcDbEntity
  8
Defpoints
 62
     0
100
AcDbPoint
 10
2528.476583508878
 20
343.5125204969318
 30
0.0
  0
POINT
  5
3619
330
35BA
100
AcDbEntity
  8
Defpoints
 62
     0
100
AcDbPoint
 10
2528.476583508878
 20
318.5125204969318
 30
0.0
  0
ENDBLK
  5
35C5
330
35BA
100
AcDbEntity
  8
0
100
AcDbBlockEnd
  0
BLOCK
  5
35D0
330
35C6
100
AcDbEntity
  8
0
100
AcDbBlockBegin
  2
*D34
 70
     1
 10
0.0
 20
0.0
 30
0.0
  3
*D34
  1

  0
LINE
  5
3608
330
35C6
100
AcDbEntity
  8
AM_5
100
AcDbLine
 10
2414.476583508879
 20
372.0125204969317
 30
0.0
 11
2414.476583508879
 21
307.0125204969319
 31
0.0
  0
LINE
  5
3609
330
35C6
100
AcDbEntity
  8
AM_5
100
AcDbLine
 10
2554.476583508878
 20
372.0125204969317
 30
0.0
 11
2554.476583508878
 21
307.0125204969319
 31
0.0
  0
LINE
  5
360A
330
35C6
100
AcDbEntity
  8
AM_5
100
AcDbLine
 10
2417.476583508879
 20
308.5125204969319
 30
0.0
 11
2551.476583508879
 21
308.5125204969319
 31
0.0
  0
SOLID
  5
360B
330
35C6
100
AcDbEntity
  8
AM_5
100
AcDbTrace
 10
2417.476583508879
 20
309.0125204969319
 30
0.0
 11
2417.476583508879
 21
308.0125204969319
 31
0.0
 12
2414.476583508879
 22
308.5125204969319
 32
0.0
 13
2414.476583508879
 23
308.5125204969319
 33
0.0
  0
SOLID
  5
360C
330
35C6
100
AcDbEntity
  8
AM_5
100
AcDbTrace
 10
2551.476583508879
 20
309.0125204969319
 30
0.0
 11
2551.476583508879
 21
308.0125204969319
 31
0.0
 12
2554.476583508878
 22
308.5125204969319
 32
0.0
 13
2554.476583508878
 23
308.5125204969319
 33
0.0
  0
MTEXT
  5
360D
330
35C6
100
AcDbEntity
  8
AM_5
100
AcDbMText
 10
2484.476583508878
 20
311.0125204969319
 30
0.0
 40
3.0
 41
0.0
 71
     5
 72
     1
  1
140
  7
CHINESET
 73
     1
 44
1.0
1001
ACAD
1000
MTEXTBEGIN
1070
    73
1070
     1
1070
    44
1040
1.0
1070
    74
1070
     0
1000
MTEXTEND
  0
POINT
  5
360E
330
35C6
100
AcDbEntity
  8
Defpoints
 62
     0
100
AcDbPoint
 10
2414.476583508879
 20
373.0125204969318
 30
0.0
  0
POINT
  5
360F
330
35C6
100
AcDbEntity
  8
Defpoints
 62
     0
100
AcDbPoint
 10
2554.476583508878
 20
373.0125204969318
 30
0.0
  0
POINT
  5
3610
330
35C6
100
AcDbEntity
  8
Defpoints
 62
     0
100
AcDbPoint
 10
2554.476583508878
 20
308.5125204969319
 30
0.0
  0
ENDBLK
  5
35D1
330
35C6
100
AcDbEntity
  8
0
100
AcDbBlockEnd
  0
BLOCK
  5
3631
330
3627
100
AcDbEntity
  8
0
100
AcDbBlockBegin
  2
*D35
 70
     1
 10
0.0
 20
0.0
 30
0.0
  3
*D35
  1

  0
LINE
  5
36DE
330
3627
100
AcDbEntity
  8
AM_5
100
AcDbLine
 10
2528.476583508878
 20
138.0125204969318
 30
0.0
 11
2541.976583508879
 21
138.0125204969318
 31
0.0
  0
LINE
  5
36DF
330
3627
100
AcDbEntity
  8
AM_5
100
AcDbLine
 10
2516.976583508878
 20
218.0125204969317
 30
0.0
 11
2541.976583508879
 21
218.0125204969317
 31
0.0
  0
LINE
  5
36E0
330
3627
100
AcDbEntity
  8
AM_5
100
AcDbLine
 10
2540.476583508878
 20
141.0125204969318
 30
0.0
 11
2540.476583508878
 21
215.0125204969317
 31
0.0
  0
SOLID
  5
36E1
330
3627
100
AcDbEntity
  8
AM_5
100
AcDbTrace
 10
2539.976583508878
 20
141.0125204969318
 30
0.0
 11
2540.976583508879
 21
141.0125204969318
 31
0.0
 12
2540.476583508878
 22
138.0125204969318
 32
0.0
 13
2540.476583508878
 23
138.0125204969318
 33
0.0
  0
SOLID
  5
36E2
330
3627
100
AcDbEntity
  8
AM_5
100
AcDbTrace
 10
2539.976583508878
 20
215.0125204969317
 30
0.0
 11
2540.976583508879
 21
215.0125204969317
 31
0.0
 12
2540.476583508878
 22
218.0125204969317
 32
0.0
 13
2540.476583508878
 23
218.0125204969317
 33
0.0
  0
MTEXT
  5
36E3
330
3627
100
AcDbEntity
  8
AM_5
100
AcDbMText
 10
2537.976583508879
 20
178.0125204969322
 30
0.0
 40
3.0
 41
0.0
 71
     5
 72
     1
  1
80
  7
CHINESET
 11
0.0000000000000001
 21
1.0
 31
0.0
 73
     1
 44
1.0
1001
ACAD
1000
MTEXTBEGIN
1070
    73
1070
     1
1070
    44
1040
1.0
1070
    74
1070
     0
1000
MTEXTEND
  0
POINT
  5
36E4
330
3627
100
AcDbEntity
  8
Defpoints
 62
     0
100
AcDbPoint
 10
2527.476583508879
 20
138.0125204969318
 30
0.0
  0
POINT
  5
36E5
330
3627
100
AcDbEntity
  8
Defpoints
 62
     0
100
AcDbPoint
 10
2515.976583508879
 20
218.0125204969317
 30
0.0
  0
POINT
  5
36E6
330
3627
100
AcDbEntity
  8
Defpoints
 62
     0
100
AcDbPoint
 10
2540.476583508878
 20
218.0125204969317
 30
0.0
  0
ENDBLK
  5
3632
330
3627
100
AcDbEntity
  8
0
100
AcDbBlockEnd
  0
BLOCK
  5
363D
330
3633
100
AcDbEntity
  8
0
100
AcDbBlockBegin
  2
*D36
 70
     1
 10
0.0
 20
0.0
 30
0.0
  3
*D36
  1

  0
LINE
  5
36E7
330
3633
100
AcDbEntity
  8
AM_5
100
AcDbLine
 10
2528.476583508878
 20
138.0125204969318
 30
0.0
 11
2567.976583508878
 21
138.0125204969318
 31
0.0
  0
LINE
  5
36E8
330
3633
100
AcDbEntity
  8
AM_5
100
AcDbLine
 10
2554.476583508878
 20
256.0125204969318
 30
0.0
 11
2567.976583508878
 21
256.0125204969318
 31
0.0
  0
LINE
  5
36E9
330
3633
100
AcDbEntity
  8
AM_5
100
AcDbLine
 10
2566.476583508878
 20
141.0125204969318
 30
0.0
 11
2566.476583508878
 21
253.0125204969317
 31
0.0
  0
SOLID
  5
36EA
330
3633
100
AcDbEntity
  8
AM_5
100
AcDbTrace
 10
2565.976583508879
 20
141.0125204969318
 30
0.0
 11
2566.976583508878
 21
141.0125204969318
 31
0.0
 12
2566.476583508878
 22
138.0125204969318
 32
0.0
 13
2566.476583508878
 23
138.0125204969318
 33
0.0
  0
SOLID
  5
36EB
330
3633
100
AcDbEntity
  8
AM_5
100
AcDbTrace
 10
2565.976583508879
 20
253.0125204969317
 30
0.0
 11
2566.976583508878
 21
253.0125204969317
 31
0.0
 12
2566.476583508878
 22
256.0125204969318
 32
0.0
 13
2566.476583508878
 23
256.0125204969318
 33
0.0
  0
MTEXT
  5
36EC
330
3633
100
AcDbEntity
  8
AM_5
100
AcDbMText
 10
2563.976583508879
 20
197.0125204969322
 30
0.0
 40
3.0
 41
0.0
 71
     5
 72
     1
  1
118
  7
CHINESET
 11
0.0000000000000001
 21
1.0
 31
0.0
 73
     1
 44
1.0
1001
ACAD
1000
MTEXTBEGIN
1070
    73
1070
     1
1070
    44
1040
1.0
1070
    74
1070
     0
1000
MTEXTEND
  0
POINT
  5
36ED
330
3633
100
AcDbEntity
  8
Defpoints
 62
     0
100
AcDbPoint
 10
2527.476583508879
 20
138.0125204969318
 30
0.0
  0
POINT
  5
36EE
330
3633
100
AcDbEntity
  8
Defpoints
 62
     0
100
AcDbPoint
 10
2553.476583508878
 20
256.0125204969318
 30
0.0
  0
POINT
  5
36EF
330
3633
100
AcDbEntity
  8
Defpoints
 62
     0
100
AcDbPoint
 10
2566.476583508878
 20
256.0125204969318
 30
0.0
  0
ENDBLK
  5
363E
330
3633
100
AcDbEntity
  8
0
100
AcDbBlockEnd
  0
BLOCK
  5
3649
330
363F
100
AcDbEntity
  8
0
100
AcDbBlockBegin
  2
*D37
 70
     1
 10
0.0
 20
0.0
 30
0.0
  3
*D37
  1

  0
LINE
  5
3693
330
363F
100
AcDbEntity
  8
AM_5
100
AcDbLine
 10
2439.976583508878
 20
170.0125204969317
 30
0.0
 11
2426.976583508878
 21
170.0125204969317
 31
0.0
  0
LINE
  5
3694
330
363F
100
AcDbEntity
  8
AM_5
100
AcDbLine
 10
2440.476583508879
 20
138.0125204969318
 30
0.0
 11
2426.976583508878
 21
138.0125204969318
 31
0.0
  0
LINE
  5
3695
330
363F
100
AcDbEntity
  8
AM_5
100
AcDbLine
 10
2428.476583508878
 20
167.0125204969317
 30
0.0
 11
2428.476583508878
 21
141.0125204969318
 31
0.0
  0
SOLID
  5
3696
330
363F
100
AcDbEntity
  8
AM_5
100
AcDbTrace
 10
2427.976583508879
 20
167.0125204969317
 30
0.0
 11
2428.976583508879
 21
167.0125204969317
 31
0.0
 12
2428.476583508878
 22
170.0125204969317
 32
0.0
 13
2428.476583508878
 23
170.0125204969317
 33
0.0
  0
SOLID
  5
3697
330
363F
100
AcDbEntity
  8
AM_5
100
AcDbTrace
 10
2427.976583508879
 20
141.0125204969318
 30
0.0
 11
2428.976583508879
 21
141.0125204969318
 31
0.0
 12
2428.476583508878
 22
138.0125204969318
 32
0.0
 13
2428.476583508878
 23
138.0125204969318
 33
0.0
  0
MTEXT
  5
3698
330
363F
100
AcDbEntity
  8
AM_5
100
AcDbMText
 10
2425.976583508879
 20
154.0125204969322
 30
0.0
 40
3.0
 41
0.0
 71
     5
 72
     1
  1
32
  7
CHINESET
 11
0.0000000000000001
 21
1.0
 31
0.0
 73
     1
 44
1.0
1001
ACAD
1000
MTEXTBEGIN
1070
    73
1070
     1
1070
    44
1040
1.0
1070
    74
1070
     0
1000
MTEXTEND
  0
POINT
  5
3699
330
363F
100
AcDbEntity
  8
Defpoints
 62
     0
100
AcDbPoint
 10
2440.976583508879
 20
170.0125204969317
 30
0.0
  0
POINT
  5
369A
330
363F
100
AcDbEntity
  8
Defpoints
 62
     0
100
AcDbPoint
 10
2441.476583508878
 20
138.0125204969318
 30
0.0
  0
POINT
  5
369B
330
363F
100
AcDbEntity
  8
Defpoints
 62
     0
100
AcDbPoint
 10
2428.476583508878
 20
138.0125204969318
 30
0.0
  0
ENDBLK
  5
364A
330
363F
100
AcDbEntity
  8
0
100
AcDbBlockEnd
  0
BLOCK
  5
3655
330
364B
100
AcDbEntity
  8
0
100
AcDbBlockBegin
  2
*D38
 70
     1
 10
0.0
 20
0.0
 30
0.0
  3
*D38
  1

  0
LINE
  5
36CC
330
364B
100
AcDbEntity
  8
AM_5
100
AcDbLine
 10
2554.476583508878
 20
281.0125204969318
 30
0.0
 11
2567.976583508878
 21
281.0125204969318
 31
0.0
  0
LINE
  5
36CD
330
364B
100
AcDbEntity
  8
AM_5
100
AcDbLine
 10
2554.476583508878
 20
256.0125204969318
 30
0.0
 11
2567.976583508878
 21
256.0125204969318
 31
0.0
  0
LINE
  5
36CE
330
364B
100
AcDbEntity
  8
AM_5
100
AcDbLine
 10
2566.476583508878
 20
278.0125204969317
 30
0.0
 11
2566.476583508878
 21
259.0125204969317
 31
0.0
  0
SOLID
  5
36CF
330
364B
100
AcDbEntity
  8
AM_5
100
AcDbTrace
 10
2565.976583508879
 20
278.0125204969317
 30
0.0
 11
2566.976583508878
 21
278.0125204969317
 31
0.0
 12
2566.476583508878
 22
281.0125204969318
 32
0.0
 13
2566.476583508878
 23
281.0125204969318
 33
0.0
  0
SOLID
  5
36D0
330
364B
100
AcDbEntity
  8
AM_5
100
AcDbTrace
 10
2565.976583508879
 20
259.0125204969317
 30
0.0
 11
2566.976583508878
 21
259.0125204969317
 31
0.0
 12
2566.476583508878
 22
256.0125204969318
 32
0.0
 13
2566.476583508878
 23
256.0125204969318
 33
0.0
  0
MTEXT
  5
36D1
330
364B
100
AcDbEntity
  8
AM_5
100
AcDbMText
 10
2563.976583508879
 20
268.5125204969322
 30
0.0
 40
3.0
 41
0.0
 71
     5
 72
     1
  1
25
  7
CHINESET
 11
0.0000000000000001
 21
1.0
 31
0.0
 73
     1
 44
1.0
1001
ACAD
1000
MTEXTBEGIN
1070
    73
1070
     1
1070
    44
1040
1.0
1070
    74
1070
     0
1000
MTEXTEND
  0
POINT
  5
36D2
330
364B
100
AcDbEntity
  8
Defpoints
 62
     0
100
AcDbPoint
 10
2553.476583508878
 20
281.0125204969318
 30
0.0
  0
POINT
  5
36D3
330
364B
100
AcDbEntity
  8
Defpoints
 62
     0
100
AcDbPoint
 10
2553.476583508878
 20
256.0125204969318
 30
0.0
  0
POINT
  5
36D4
330
364B
100
AcDbEntity
  8
Defpoints
 62
     0
100
AcDbPoint
 10
2566.476583508878
 20
256.0125204969318
 30
0.0
  0
ENDBLK
  5
3656
330
364B
100
AcDbEntity
  8
0
100
AcDbBlockEnd
  0
BLOCK
  5
370A
330
3700
100
AcDbEntity
  8
0
100
AcDbBlockBegin
  2
*D39
 70
     1
 10
0.0
 20
0.0
 30
0.0
  3
*D39
  1

  0
LINE
  5
370E
330
3700
100
AcDbEntity
  8
AM_5
100
AcDbLine
 10
2554.476583508878
 20
397.0125204969318
 30
0.0
 11
2566.976583508878
 21
397.0125204969318
 31
0.0
  0
LINE
  5
370F
330
3700
100
AcDbEntity
  8
AM_5
100
AcDbLine
 10
2554.476583508878
 20
372.0125204969317
 30
0.0
 11
2566.976583508878
 21
372.0125204969317
 31
0.0
  0
LINE
  5
3710
330
3700
100
AcDbEntity
  8
AM_5
100
AcDbLine
 10
2565.476583508879
 20
394.0125204969318
 30
0.0
 11
2565.476583508879
 21
375.0125204969318
 31
0.0
  0
SOLID
  5
3711
330
3700
100
AcDbEntity
  8
AM_5
100
AcDbTrace
 10
2564.976583508878
 20
394.0125204969318
 30
0.0
 11
2565.976583508879
 21
394.0125204969318
 31
0.0
 12
2565.476583508879
 22
397.0125204969318
 32
0.0
 13
2565.476583508879
 23
397.0125204969318
 33
0.0
  0
SOLID
  5
3712
330
3700
100
AcDbEntity
  8
AM_5
100
AcDbTrace
 10
2564.976583508878
 20
375.0125204969318
 30
0.0
 11
2565.976583508879
 21
375.0125204969318
 31
0.0
 12
2565.476583508879
 22
372.0125204969317
 32
0.0
 13
2565.476583508879
 23
372.0125204969317
 33
0.0
  0
MTEXT
  5
3713
330
3700
100
AcDbEntity
  8
AM_5
100
AcDbMText
 10
2562.976583508878
 20
384.5125204969321
 30
0.0
 40
3.0
 41
0.0
 71
     5
 72
     1
  1
25
  7
CHINESET
 11
0.0000000000000001
 21
1.0
 31
0.0
 73
     1
 44
1.0
1001
ACAD
1000
MTEXTBEGIN
1070
    73
1070
     1
1070
    44
1040
1.0
1070
    74
1070
     0
1000
MTEXTEND
  0
POINT
  5
3714
330
3700
100
AcDbEntity
  8
Defpoints
 62
     0
100
AcDbPoint
 10
2553.476583508878
 20
397.0125204969318
 30
0.0
  0
POINT
  5
3715
330
3700
100
AcDbEntity
  8
Defpoints
 62
     0
100
AcDbPoint
 10
2553.476583508878
 20
372.0125204969317
 30
0.0
  0
POINT
  5
3716
330
3700
100
AcDbEntity
  8
Defpoints
 62
     0
100
AcDbPoint
 10
2565.476583508879
 20
372.0125204969317
 30
0.0
  0
ENDBLK
  5
370B
330
3700
100
AcDbEntity
  8
0
100
AcDbBlockEnd
  0
BLOCK
  5
3730
330
3726
100
AcDbEntity
  8
0
100
AcDbBlockBegin
  2
*D40
 70
     1
 10
0.0
 20
0.0
 30
0.0
  3
*D40
  1

  0
LINE
  5
3734
330
3726
100
AcDbEntity
  8
AM_5
100
AcDbLine
 10
2161.657803487452
 20
695.4364898057913
 30
0.0
 11
2174.157803487452
 21
695.4364898057913
 31
0.0
  0
LINE
  5
3735
330
3726
100
AcDbEntity
  8
AM_5
100
AcDbLine
 10
2161.657803487452
 20
714.4364898057913
 30
0.0
 11
2174.157803487452
 21
714.4364898057913
 31
0.0
  0
LINE
  5
3736
330
3726
100
AcDbEntity
  8
AM_5
100
AcDbLine
 10
2172.657803487452
 20
698.4364898057913
 30
0.0
 11
2172.657803487452
 21
711.4364898057913
 31
0.0
  0
SOLID
  5
3737
330
3726
100
AcDbEntity
  8
AM_5
100
AcDbTrace
 10
2172.157803487452
 20
698.4364898057913
 30
0.0
 11
2173.157803487452
 21
698.4364898057913
 31
0.0
 12
2172.657803487452
 22
695.4364898057913
 32
0.0
 13
2172.657803487452
 23
695.4364898057913
 33
0.0
  0
SOLID
  5
3738
330
3726
100
AcDbEntity
  8
AM_5
100
AcDbTrace
 10
2172.157803487452
 20
711.4364898057913
 30
0.0
 11
2173.157803487452
 21
711.4364898057913
 31
0.0
 12
2172.657803487452
 22
714.4364898057913
 32
0.0
 13
2172.657803487452
 23
714.4364898057913
 33
0.0
  0
MTEXT
  5
3739
330
3726
100
AcDbEntity
  8
AM_5
100
AcDbMText
 10
2170.157803487452
 20
704.9364898057916
 30
0.0
 40
3.0
 41
0.0
 71
     5
 72
     1
  1
19
  7
CHINESET
 11
0.0000000000000001
 21
1.0
 31
0.0
 73
     1
 44
1.0
1001
ACAD
1000
MTEXTBEGIN
1070
    73
1070
     1
1070
    44
1040
1.0
1070
    74
1070
     0
1000
MTEXTEND
  0
POINT
  5
373A
330
3726
100
AcDbEntity
  8
Defpoints
 62
     0
100
AcDbPoint
 10
2160.657803487452
 20
695.4364898057913
 30
0.0
  0
POINT
  5
373B
330
3726
100
AcDbEntity
  8
Defpoints
 62
     0
100
AcDbPoint
 10
2160.657803487452
 20
714.4364898057913
 30
0.0
  0
POINT
  5
373C
330
3726
100
AcDbEntity
  8
Defpoints
 62
     0
100
AcDbPoint
 10
2172.657803487452
 20
714.4364898057913
 30
0.0
  0
ENDBLK
  5
3731
330
3726
100
AcDbEntity
  8
0
100
AcDbBlockEnd
  0
BLOCK
  5
3756
330
374C
100
AcDbEntity
  8
0
100
AcDbBlockBegin
  2
*D41
 70
     1
 10
0.0
 20
0.0
 30
0.0
  3
*D41
  1

  0
LINE
  5
375A
330
374C
100
AcDbEntity
  8
AM_5
100
AcDbLine
 10
2544.479733431103
 20
713.3580373858969
 30
0.0
 11
2556.979733431103
 21
713.3580373858969
 31
0.0
  0
LINE
  5
375B
330
374C
100
AcDbEntity
  8
AM_5
100
AcDbLine
 10
2544.479733431103
 20
735.3580373858969
 30
0.0
 11
2556.979733431103
 21
735.3580373858969
 31
0.0
  0
LINE
  5
375C
330
374C
100
AcDbEntity
  8
AM_5
100
AcDbLine
 10
2555.479733431103
 20
716.358037385897
 30
0.0
 11
2555.479733431103
 21
732.358037385897
 31
0.0
  0
SOLID
  5
375D
330
374C
100
AcDbEntity
  8
AM_5
100
AcDbTrace
 10
2554.979733431104
 20
716.358037385897
 30
0.0
 11
2555.979733431104
 21
716.358037385897
 31
0.0
 12
2555.479733431103
 22
713.3580373858969
 32
0.0
 13
2555.479733431103
 23
713.3580373858969
 33
0.0
  0
SOLID
  5
375E
330
374C
100
AcDbEntity
  8
AM_5
100
AcDbTrace
 10
2554.979733431104
 20
732.358037385897
 30
0.0
 11
2555.979733431104
 21
732.358037385897
 31
0.0
 12
2555.479733431103
 22
735.3580373858969
 32
0.0
 13
2555.479733431103
 23
735.3580373858969
 33
0.0
  0
MTEXT
  5
375F
330
374C
100
AcDbEntity
  8
AM_5
100
AcDbMText
 10
2552.979733431103
 20
724.3580373858974
 30
0.0
 40
3.0
 41
0.0
 71
     5
 72
     1
  1
22
  7
CHINESET
 11
0.0000000000000001
 21
1.0
 31
0.0
 73
     1
 44
1.0
1001
ACAD
1000
MTEXTBEGIN
1070
    73
1070
     1
1070
    44
1040
1.0
1070
    74
1070
     0
1000
MTEXTEND
  0
POINT
  5
3760
330
374C
100
AcDbEntity
  8
Defpoints
 62
     0
100
AcDbPoint
 10
2543.479733431104
 20
713.3580373858969
 30
0.0
  0
POINT
  5
3761
330
374C
100
AcDbEntity
  8
Defpoints
 62
     0
100
AcDbPoint
 10
2543.479733431104
 20
735.3580373858969
 30
0.0
  0
POINT
  5
3762
330
374C
100
AcDbEntity
  8
Defpoints
 62
     0
100
AcDbPoint
 10
2555.479733431103
 20
735.3580373858969
 30
0.0
  0
ENDBLK
  5
3757
330
374C
100
AcDbEntity
  8
0
100
AcDbBlockEnd
  0
BLOCK
  5
377C
330
3772
100
AcDbEntity
  8
0
100
AcDbBlockBegin
  2
*D42
 70
     1
 10
0.0
 20
0.0
 30
0.0
  3
*D42
  1

  0
LINE
  5
3780
330
3772
100
AcDbEntity
  8
AM_5
100
AcDbLine
 10
2897.20617379079
 20
727.8121711983656
 30
0.0
 11
2909.706173790791
 21
727.8121711983656
 31
0.0
  0
LINE
  5
3781
330
3772
100
AcDbEntity
  8
AM_5
100
AcDbLine
 10
2897.20617379079
 20
749.8121711983656
 30
0.0
 11
2909.706173790791
 21
749.8121711983656
 31
0.0
  0
LINE
  5
3782
330
3772
100
AcDbEntity
  8
AM_5
100
AcDbLine
 10
2908.206173790791
 20
730.8121711983655
 30
0.0
 11
2908.206173790791
 21
746.8121711983656
 31
0.0
  0
SOLID
  5
3783
330
3772
100
AcDbEntity
  8
AM_5
100
AcDbTrace
 10
2907.706173790791
 20
730.8121711983655
 30
0.0
 11
2908.70617379079
 21
730.8121711983655
 31
0.0
 12
2908.206173790791
 22
727.8121711983656
 32
0.0
 13
2908.206173790791
 23
727.8121711983656
 33
0.0
  0
SOLID
  5
3784
330
3772
100
AcDbEntity
  8
AM_5
100
AcDbTrace
 10
2907.706173790791
 20
746.8121711983656
 30
0.0
 11
2908.70617379079
 21
746.8121711983656
 31
0.0
 12
2908.206173790791
 22
749.8121711983656
 32
0.0
 13
2908.206173790791
 23
749.8121711983656
 33
0.0
  0
MTEXT
  5
3785
330
3772
100
AcDbEntity
  8
AM_5
100
AcDbMText
 10
2905.70617379079
 20
738.812171198366
 30
0.0
 40
3.0
 41
0.0
 71
     5
 72
     1
  1
22
  7
CHINESET
 11
0.0000000000000001
 21
1.0
 31
0.0
 73
     1
 44
1.0
1001
ACAD
1000
MTEXTBEGIN
1070
    73
1070
     1
1070
    44
1040
1.0
1070
    74
1070
     0
1000
MTEXTEND
  0
POINT
  5
3786
330
3772
100
AcDbEntity
  8
Defpoints
 62
     0
100
AcDbPoint
 10
2896.20617379079
 20
727.8121711983656
 30
0.0
  0
POINT
  5
3787
330
3772
100
AcDbEntity
  8
Defpoints
 62
     0
100
AcDbPoint
 10
2896.20617379079
 20
749.8121711983656
 30
0.0
  0
POINT
  5
3788
330
3772
100
AcDbEntity
  8
Defpoints
 62
     0
100
AcDbPoint
 10
2908.206173790791
 20
749.8121711983656
 30
0.0
  0
ENDBLK
  5
377D
330
3772
100
AcDbEntity
  8
0
100
AcDbBlockEnd
  0
BLOCK
  5
379A
330
3791
100
AcDbEntity
  8
0
100
AcDbBlockBegin
  2
*D43
 70
     1
 10
0.0
 20
0.0
 30
0.0
  3
*D43
  1

  0
LINE
  5
37D3
330
3791
100
AcDbEntity
  8
AM_5
100
AcDbLine
 10
2135.417618608911
 20
729.929113389886
 30
0.0
 11
2138.127219455239
 21
733.5271671908945
 31
0.0
  0
LINE
  5
37D4
330
3791
100
AcDbEntity
  8
AM_5
100
AcDbLine
 10
2138.127219455239
 20
733.5271671908945
 30
0.0
 11
2150.80579088381
 21
733.5271671908942
 31
0.0
  0
SOLID
  5
37D5
330
3791
100
AcDbEntity
  8
AM_5
100
AcDbTrace
 10
2135.018208722184
 20
730.2298985996026
 30
0.0
 11
2135.817028495639
 21
729.6283281801692
 31
0.0
 12
2133.612907350611
 22
727.532654069521
 32
0.0
 13
2133.612907350611
 23
727.532654069521
 33
0.0
  0
MTEXT
  5
37D6
330
3791
100
AcDbEntity
  8
AM_5
100
AcDbMText
 10
2144.966505169525
 20
736.027167190894
 30
0.0
 40
3.0
 41
0.0
 71
     5
 72
     1
  1
4-\U+22056.5
  7
CHINESET
 73
     1
 44
1.0
1001
ACAD
1000
MTEXTBEGIN
1070
    73
1070
     1
1070
    44
1040
1.0
1070
    74
1070
     0
1000
MTEXTEND
  0
POINT
  5
37D7
330
3791
100
AcDbEntity
  8
Defpoints
 62
     0
100
AcDbPoint
 10
2133.612907350611
 20
727.532654069521
 30
0.0
  0
POINT
  5
37D8
330
3791
100
AcDbEntity
  8
Defpoints
 62
     0
100
AcDbPoint
 10
2129.702699624293
 20
722.340325542063
 30
0.0
  0
ENDBLK
  5
379B
330
3791
100
AcDbEntity
  8
0
100
AcDbBlockEnd
  0
BLOCK
  5
37BD
330
37B7
100
AcDbEntity
  8
0
100
AcDbBlockBegin
  2
*D44
 70
     1
 10
0.0
 20
0.0
 30
0.0
  3
*D44
  1

  0
LINE
  5
37E6
330
37B7
100
AcDbEntity
  8
AM_5
100
AcDbLine
 10
2510.29055000721
 20
751.3118416839372
 30
0.0
 11
2513.098349633349
 21
754.9617916561333
 31
0.0
  0
LINE
  5
37E7
330
37B7
100
AcDbEntity
  8
AM_5
100
AcDbLine
 10
2513.098349633349
 20
754.9617916561333
 30
0.0
 11
2525.776921061921
 21
754.9617916561335
 31
0.0
  0
SOLID
  5
37E8
330
37B7
100
AcDbEntity
  8
AM_5
100
AcDbTrace
 10
2509.894245663367
 20
751.6167070100257
 30
0.0
 11
2510.686854351054
 21
751.0069763578488
 31
0.0
 12
2508.461358050679
 22
748.9340156208782
 32
0.0
 13
2508.461358050679
 23
748.9340156208782
 33
0.0
  0
MTEXT
  5
37E9
330
37B7
100
AcDbEntity
  8
AM_5
100
AcDbMText
 10
2519.937635347635
 20
757.4617916561334
 30
0.0
 40
3.0
 41
0.0
 71
     5
 72
     1
  1
4-\U+22056.5
  7
CHINESET
 73
     1
 44
1.0
1001
ACAD
1000
MTEXTBEGIN
1070
    73
1070
     1
1070
    44
1040
1.0
1070
    74
1070
     0
1000
MTEXTEND
  0
POINT
  5
37EA
330
37B7
100
AcDbEntity
  8
Defpoints
 62
     0
100
AcDbPoint
 10
2508.461358050679
 20
748.9340156208782
 30
0.0
  0
POINT
  5
37EB
330
37B7
100
AcDbEntity
  8
Defpoints
 62
     0
100
AcDbPoint
 10
2504.498108811529
 20
743.7820591509161
 30
0.0
  0
ENDBLK
  5
37BE
330
37B7
100
AcDbEntity
  8
0
100
AcDbBlockEnd
  0
BLOCK
  5
37F7
330
37F1
100
AcDbEntity
  8
0
100
AcDbBlockBegin
  2
*D45
 70
     1
 10
0.0
 20
0.0
 30
0.0
  3
*D45
  1

  0
LINE
  5
384D
330
37F1
100
AcDbEntity
  8
AM_5
100
AcDbLine
 10
2865.748590070164
 20
768.4627423504598
 30
0.0
 11
2868.965972752692
 21
772.4650285023697
 31
0.0
  0
LINE
  5
384E
330
37F1
100
AcDbEntity
  8
AM_5
100
AcDbLine
 10
2868.965972752692
 20
772.4650285023697
 30
0.0
 11
2881.644544181264
 21
772.4650285023699
 31
0.0
  0
SOLID
  5
384F
330
37F1
100
AcDbEntity
  8
AM_5
100
AcDbTrace
 10
2865.35889550795
 20
768.7760124386925
 30
0.0
 11
2866.138284632377
 21
768.1494722622272
 31
0.0
 12
2863.868969540768
 22
766.1245749771792
 32
0.0
 13
2863.868969540768
 23
766.1245749771792
 33
0.0
  0
MTEXT
  5
3850
330
37F1
100
AcDbEntity
  8
AM_5
100
AcDbMText
 10
2875.805258466978
 20
774.9650285023701
 30
0.0
 40
3.0
 41
0.0
 71
     5
 72
     1
  1
4-\U+22058.5
  7
CHINESET
 73
     1
 44
1.0
1001
ACAD
1000
MTEXTBEGIN
1070
    73
1070
     1
1070
    44
1040
1.0
1070
    74
1070
     0
1000
MTEXTEND
  0
POINT
  5
3851
330
37F1
100
AcDbEntity
  8
Defpoints
 62
     0
100
AcDbPoint
 10
2863.868969540768
 20
766.1245749771792
 30
0.0
  0
POINT
  5
3852
330
37F1
100
AcDbEntity
  8
Defpoints
 62
     0
100
AcDbPoint
 10
2858.543378040814
 20
759.4997674195512
 30
0.0
  0
ENDBLK
  5
37F8
330
37F1
100
AcDbEntity
  8
0
100
AcDbBlockEnd
  0
BLOCK
  5
381A
330
3814
100
AcDbEntity
  8
0
100
AcDbBlockBegin
  2
*D46
 70
     1
 10
0.0
 20
0.0
 30
0.0
  3
*D46
  1

  0
LINE
  5
3873
330
3814
100
AcDbEntity
  8
AM_5
100
AcDbLine
 10
2144.980737101285
 20
402.0097483448442
 30
0.0
 11
2150.103733508737
 21
407.7596445006102
 31
0.0
  0
LINE
  5
3874
330
3814
100
AcDbEntity
  8
AM_5
100
AcDbLine
 10
2150.103733508737
 20
407.7596445006102
 30
0.0
 11
2162.782304937308
 21
407.7596445006102
 31
0.0
  0
SOLID
  5
3875
330
3814
100
AcDbEntity
  8
AM_5
100
AcDbTrace
 10
2144.607418842283
 20
402.3423644561431
 30
0.0
 11
2145.354055360287
 21
401.6771322335452
 31
0.0
 12
2142.985040433491
 22
399.7698387908316
 32
0.0
 13
2142.985040433491
 23
399.7698387908316
 33
0.0
  0
MTEXT
  5
3876
330
3814
100
AcDbEntity
  8
AM_5
100
AcDbMText
 10
2156.943019223022
 20
410.2596445006103
 30
0.0
 40
3.0
 41
0.0
 71
     5
 72
     1
  1
4-\U+22058.5
  7
CHINESET
 73
     1
 44
1.0
1001
ACAD
1000
MTEXTBEGIN
1070
    73
1070
     1
1070
    44
1040
1.0
1070
    74
1070
     0
1000
MTEXTEND
  0
POINT
  5
3877
330
3814
100
AcDbEntity
  8
Defpoints
 62
     0
100
AcDbPoint
 10
2142.985040433491
 20
399.7698387908316
 30
0.0
  0
POINT
  5
3878
330
3814
100
AcDbEntity
  8
Defpoints
 62
     0
100
AcDbPoint
 10
2137.330566541409
 20
393.4234283877962
 30
0.0
  0
ENDBLK
  5
381B
330
3814
100
AcDbEntity
  8
0
100
AcDbBlockEnd
  0
BLOCK
  5
3837
330
3831
100
AcDbEntity
  8
0
100
AcDbBlockBegin
  2
*D47
 70
     1
 10
0.0
 20
0.0
 30
0.0
  3
*D47
  1

  0
LINE
  5
3866
330
3831
100
AcDbEntity
  8
AM_5
100
AcDbLine
 10
2525.518216007636
 20
425.130453991552
 30
0.0
 11
2530.67181815493
 21
429.9226346028681
 31
0.0
  0
LINE
  5
3867
330
3831
100
AcDbEntity
  8
AM_5
100
AcDbLine
 10
2530.67181815493
 20
429.9226346028681
 30
0.0
 11
2545.064675297787
 21
429.9226346028681
 31
0.0
  0
SOLID
  5
3868
330
3831
100
AcDbEntity
  8
AM_5
100
AcDbTrace
 10
2525.17773518978
 20
425.4966135369311
 30
0.0
 11
2525.858696825491
 21
424.7642944461729
 31
0.0
 12
2523.321258735361
 22
423.0875690844173
 32
0.0
 13
2523.321258735361
 23
423.0875690844173
 33
0.0
  0
MTEXT
  5
3869
330
3831
100
AcDbEntity
  8
AM_5
100
AcDbMText
 10
2538.368246726359
 20
432.4226346028678
 30
0.0
 40
3.0
 41
0.0
 71
     5
 72
     1
  1
4-\U+220510.5
  7
CHINESET
 73
     1
 44
1.0
1001
ACAD
1000
MTEXTBEGIN
1070
    73
1070
     1
1070
    44
1040
1.0
1070
    74
1070
     0
1000
MTEXTEND
  0
POINT
  5
386A
330
3831
100
AcDbEntity
  8
Defpoints
 62
     0
100
AcDbPoint
 10
2523.321258735361
 20
423.0875690844173
 30
0.0
  0
POINT
  5
386B
330
3831
100
AcDbEntity
  8
Defpoints
 62
     0
100
AcDbPoint
 10
2515.631908282399
 20
415.9374719094457
 30
0.0
  0
ENDBLK
  5
3838
330
3831
100
AcDbEntity
  8
0
100
AcDbBlockEnd
  0
ENDSEC
  0
SECTION
  2
ENTITIES
  0
TEXT
  5
1728
330
1F
100
AcDbEntity
  8
LOGO
 62
     7
100
AcDbText
 10
2113.293317906104
 20
70.05363340389862
 30
0.0
 40
10.6651221719457
  1
Order example:
 41
0.8
  7
CHINESET
100
AcDbText
  0
TEXT
  5
1729
330
1F
100
AcDbEntity
  8
LOGO
 62
     7
100
AcDbText
 10
2115.206729020723
 20
85.06791718027557
 30
0.0
 40
15.99768325791855
  1
訂購代號:
  7
CHINESET
100
AcDbText
  0
LINE
  5
172A
330
1F
100
AcDbEntity
  8
LOGO
 62
     1
100
AcDbLine
 10
3032.684770311274
 20
105.0951974611587
 30
0.0
 11
1932.684770311274
 21
105.0951974611587
 31
0.0
  0
LINE
  5
172B
330
1F
100
AcDbEntity
  8
LOGO
 62
     1
100
AcDbLine
 10
2108.659286148379
 20
25.10678117156544
 30
0.0
 11
2108.659286148379
 21
105.0951974611587
 31
0.0
  0
TEXT
  5
172C
330
1F
100
AcDbEntity
  8
LOGO
  6
Continuous
 62
     5
100
AcDbText
 10
1961.416968997384
 20
40.82038483861083
 30
0.0
 40
11.99826244343891
  1
金器工業股份有限公司
  7
CHINESET
100
AcDbText
  0
TEXT
  5
172D
330
1F
100
AcDbEntity
  8
LOGO
  6
Continuous
 62
     5
100
AcDbText
 10
1939.378534627951
 20
28.81977167643322
 30
0.0
 40
7.998841628959275
  1
MINDMAN INDUSTRIAL CO., LTD.
 41
0.85
  7
CHINESET
100
AcDbText
  0
LINE
  5
172E
330
1F
100
AcDbEntity
  8
LOGO
 62
     1
100
AcDbLine
 10
2108.659286148379
 20
89.09751420324004
 30
0.0
 11
1991.342942256975
 21
89.09751420324004
 31
0.0
  0
LINE
  5
172F
330
1F
100
AcDbEntity
  8
LOGO
 62
     1
100
AcDbLine
 10
2108.659286148379
 20
73.0998309453214
 30
0.0
 11
1991.342942256975
 21
73.0998309453214
 31
0.0
  0
LINE
  5
1730
330
1F
100
AcDbEntity
  8
LOGO
 62
     1
100
AcDbLine
 10
2108.659286148379
 20
57.10214768740366
 30
0.0
 11
1932.684770311274
 21
57.10214768740366
 31
0.0
  0
LINE
  5
1731
330
1F
100
AcDbEntity
  8
LOGO
 62
     1
100
AcDbLine
 10
1991.342942256975
 20
57.10214768740366
 30
0.0
 11
1991.342942256975
 21
105.0951974611587
 31
0.0
  0
TEXT
  5
1732
330
1F
100
AcDbEntity
  8
LOGO
 62
     6
100
AcDbText
 10
2067.333256634968
 20
61.10156850188198
 30
0.0
 40
7.998841628959275
  1
m/m
  7
CHINESET
 72
     1
 11
2081.426453790753
 21
65.10098931636162
 31
0.0
100
AcDbText
 73
     2
  0
TEXT
  5
1733
330
1F
100
AcDbEntity
  8
LOGO
 62
     6
100
AcDbText
 10
2067.333256634968
 20
93.0969350177193
 30
0.0
 40
7.998841628959275
  1
1 : 1
  7
CHINESET
 72
     1
 11
2081.426453790753
 21
97.09635583219892
 31
0.0
100
AcDbText
 73
     2
  0
LINE
  5
1734
330
1F
100
AcDbEntity
  8
LOGO
 62
     1
100
AcDbLine
 10
2055.33367528865
 20
57.10214768740366
 30
0.0
 11
2055.33367528865
 21
105.0951974611587
 31
0.0
  0
CIRCLE
  5
1735
330
1F
100
AcDbEntity
  8
LOGO
  6
Continuous
 62
     6
100
AcDbCircle
 10
2070.144531043963
 20
81.11578215505938
 30
0.0
 40
4.644315721282525
  0
CIRCLE
  5
1736
330
1F
100
AcDbEntity
  8
LOGO
  6
Continuous
 62
     6
100
AcDbCircle
 10
2070.144531043963
 20
81.11578215505938
 30
0.0
 40
2.721157874662388
  0
LINE
  5
1737
330
1F
100
AcDbEntity
  8
LOGO
 62
     6
100
AcDbLine
 10
2099.329949940109
 20
76.47146643377595
 30
0.0
 11
2099.329949940109
 21
85.7600978763428
 31
0.0
  0
LINE
  5
1738
330
1F
100
AcDbEntity
  8
LOGO
 62
     6
100
AcDbLine
 10
2084.770286750332
 20
78.39462428039746
 30
0.0
 11
2084.770286750332
 21
83.8369400297222
 31
0.0
  0
LINE
  5
1739
330
1F
100
AcDbEntity
  8
LOGO
  6
Continuous
 62
     6
100
AcDbLine
 10
2084.770286750332
 20
83.8369400297222
 30
0.0
 11
2099.329949940109
 21
85.7600978763428
 31
0.0
  0
LINE
  5
173A
330
1F
100
AcDbEntity
  8
LOGO
  6
Continuous
 62
     6
100
AcDbLine
 10
2084.770286750332
 20
78.39462428039746
 30
0.0
 11
2099.329949940109
 21
76.47146643377595
 31
0.0
  0
TEXT
  5
173B
330
1F
100
AcDbEntity
  8
LOGO
 62
     6
100
AcDbText
 10
1997.938415689425
 20
93.10087145552882
 30
524.2309030401992
 40
7.998841628959275
  1
比例 Scale:
 41
0.9
  7
CHINESET
 72
     4
 11
2023.338308772812
 21
97.09635583219892
 31
524.2309030401992
100
AcDbText
  0
TEXT
  5
173C
330
1F
100
AcDbEntity
  8
LOGO
 62
     6
100
AcDbText
 10
1997.477768113472
 20
77.2117682738563
 30
524.2309030401992
 40
7.998841628959275
  1
投影  View:
 41
0.9
  7
CHINESET
 72
     4
 11
2023.338308772812
 21
81.09867257428026
 31
524.2309030401992
100
AcDbText
  0
TEXT
  5
173D
330
1F
100
AcDbEntity
  8
LOGO
 62
     6
100
AcDbText
 10
1998.25979771916
 20
61.10156850188198
 30
524.2309030401992
 40
7.998841628959275
  1
單位  Unit:
 41
0.9
  7
CHINESET
 72
     4
 11
2023.338308772812
 21
65.10098931636162
 31
524.2309030401992
100
AcDbText
  0
LWPOLYLINE
  5
173E
330
1F
100
AcDbEntity
  8
0
 62
     4
100
AcDbPolyline
 90
        4
 70
     1
 43
0.0
 10
1932.684770311274
 20
105.0951974611587
 10
3032.684770311274
 20
105.0951974611587
 10
3032.684770311274
 20
825.1067811715641
 10
1932.684770311274
 20
825.1067811715641
1001
GENIUS_GENREC_14
1002
{
1000
PYDIR
1011
1932.684770311274
1021
825.1067811715641
1031
0.0
1002
}
1002
{
1000
PXDIR
1011
3032.684770311274
1021
105.0951974611587
1031
0.0
1002
}
1002
{
1000
PORI
1011
1932.684770311274
1021
105.0951974611587
1031
0.0
1002
}
1002
{
1000
PINS
1011
1932.684770311274
1021
105.0951974611587
1031
0.0
1002
}
1002
{
1000
PINS2
1011
3032.684770311274
1021
825.1067811715641
1031
0.0
1002
}
1002
{
1000
C
1070
     1
1002
}
1001
GENIUS_GENODEF_13
1002
{
1000
HIER
1070
     0
1002
}
1002
{
1000
MANEDIT
1070
     0
1002
}
1002
{
1000
NOSEL
1070
     0
1002
}
1002
{
1000
BEHIND
1070
     0
1002
}
1002
{
1000
OTHER
1070
     0
1002
}
1002
{
1000
REACTOR
1002
}
1001
GENIUS_GENOBJ-N-REC_13
1002
{
1000
OWNER
1000
GEN
1002
}
  0
SOLID
  5
173F
330
1F
100
AcDbEntity
  8
LOGO
 62
     5
100
AcDbTrace
 10
1940.983696872963
 20
70.39908335009727
 30
0.0
 11
1944.442186103721
 21
70.39908335009636
 31
0.0
 12
1958.872434273433
 22
103.1951019176274
 32
0.0
 13
1962.330923504192
 23
103.1951019176256
 33
0.0
  0
SOLID
  5
1740
330
1F
100
AcDbEntity
  8
LOGO
 62
     5
100
AcDbTrace
 10
1945.873285095762
 20
70.39908335009727
 30
0.0
 11
1949.33177432652
 21
70.39908335009727
 31
0.0
 12
1962.330923504192
 22
100.5714204322237
 32
0.0
 13
1958.872434273433
 23
87.89029325277875
 33
0.0
  0
SOLID
  5
1741
330
1F
100
AcDbEntity
  8
LOGO
 62
     2
100
AcDbTrace
 10
1944.442186103721
 20
70.39908335009636
 30
0.0
 11
1945.873285095762
 21
70.39908335009727
 31
0.0
 12
1962.330923504192
 22
103.1951019176256
 32
0.0
 13
1963.762022496232
 23
103.1951019176256
 33
0.0
  0
SOLID
  5
1742
330
1F
100
AcDbEntity
  8
LOGO
 62
     5
100
AcDbTrace
 10
1935.43889051061
 20
58.47325841645101
 30
0.0
 11
1936.631473003975
 21
58.47325841645101
 31
0.0
 12
1939.989878128494
 22
64.43617088327369
 32
0.0
 13
1941.182460621856
 23
64.43617088327369
 33
0.0
  0
SOLID
  5
1743
330
1F
100
AcDbEntity
  8
LOGO
 62
     5
100
AcDbTrace
 10
1939.989878128494
 20
64.43617088327369
 30
0.0
 11
1941.182460621856
 21
64.43617088327369
 31
0.0
 12
1939.989878128494
 22
58.47325841645101
 32
0.0
 13
1941.182460621856
 23
58.47325841645101
 33
0.0
  0
SOLID
  5
1744
330
1F
100
AcDbEntity
  8
LOGO
 62
     5
100
AcDbTrace
 10
1939.989878128494
 20
58.47325841645101
 30
0.0
 11
1941.182460621856
 21
58.47325841645101
 31
0.0
 12
1944.540865746379
 22
64.43617088327369
 32
0.0
 13
1945.733448239744
 23
64.43617088327369
 33
0.0
  0
SOLID
  5
1745
330
1F
100
AcDbEntity
  8
LOGO
 62
     5
100
AcDbTrace
 10
1944.540865746379
 20
64.43617088327369
 30
0.0
 11
1945.733448239744
 21
64.43617088327369
 31
0.0
 12
1944.540865746379
 22
58.47325841645101
 32
0.0
 13
1945.733448239744
 23
58.47325841645101
 33
0.0
  0
POLYLINE
  5
1746
330
1F
100
AcDbEntity
  8
LOGO
 62
     5
100
AcDb2dPolyline
 66
     1
 10
0.0
 20
0.0
 30
0.0
 40
1.194493683257918
 41
1.194493683257918
  0
VERTEX
  5
1747
330
1746
100
AcDbEntity
  8
LOGO
 62
     5
100
AcDbVertex
100
AcDb2dVertex
 10
1984.515824665617
 20
62.05100589654444
 30
0.0
 42
1.0
  0
VERTEX
  5
1748
330
1746
100
AcDbEntity
  8
LOGO
 62
     5
100
AcDbVertex
100
AcDb2dVertex
 10
1980.932343615843
 20
62.05100589654444
 30
0.0
 42
1.0
  0
SEQEND
  5
1749
330
1746
100
AcDbEntity
  8
LOGO
 62
     5
  0
POLYLINE
  5
174A
330
1F
100
AcDbEntity
  8
LOGO
 62
     5
100
AcDb2dPolyline
 66
     1
 10
0.0
 20
0.0
 30
0.0
 70
     1
  0
VERTEX
  5
174B
330
174A
100
AcDbEntity
  8
LOGO
 62
     5
100
AcDbVertex
100
AcDb2dVertex
 10
1974.17732244378
 20
61.45471464986144
 30
0.0
 42
1.000000057330635
  0
VERTEX
  5
174C
330
174A
100
AcDbEntity
  8
LOGO
 62
     5
100
AcDbVertex
100
AcDb2dVertex
 10
1977.755069923874
 20
61.45471464986144
 30
0.0
 42
1.000000057330635
  0
SEQEND
  5
174D
330
174A
100
AcDbEntity
  8
LOGO
 62
     5
  0
CIRCLE
  5
174E
330
1F
100
AcDbEntity
  8
LOGO
 62
     5
100
AcDbCircle
 10
1975.96619618383
 20
61.45471464986144
 30
0.0
 40
1.788873740047058
  0
POLYLINE
  5
174F
330
1F
100
AcDbEntity
  8
LOGO
 62
     5
100
AcDb2dPolyline
 66
     1
 10
0.0
 20
0.0
 30
0.0
 70
     1
 40
1.194493683257918
 41
1.194493683257918
  0
VERTEX
  5
1750
330
174F
100
AcDbEntity
  8
LOGO
 62
     5
100
AcDbVertex
100
AcDb2dVertex
 10
1973.577208817312
 20
61.45471464986144
 30
0.0
 42
1.0
  0
VERTEX
  5
1751
330
174F
100
AcDbEntity
  8
LOGO
 62
     5
100
AcDbVertex
100
AcDb2dVertex
 10
1978.355183550344
 20
61.45471464986144
 30
0.0
 42
1.0
  0
SEQEND
  5
1752
330
174F
100
AcDbEntity
  8
LOGO
 62
     5
  0
LINE
  5
1753
330
1F
100
AcDbEntity
  8
LOGO
 62
     5
100
AcDbLine
 10
1985.109249127457
 20
58.47325841645101
 30
0.0
 11
1985.109249127457
 21
62.05100589654444
 31
0.0
  0
SOLID
  5
1754
330
1F
100
AcDbEntity
  8
LOGO
 62
     5
100
AcDbTrace
 10
1977.75495066563
 20
64.43617088327369
 30
0.0
 11
1978.947533158993
 21
64.43617088327369
 31
0.0
 12
1977.75495066563
 22
58.47325841645101
 32
0.0
 13
1978.947533158993
 23
58.47325841645101
 33
0.0
  0
SOLID
  5
1755
330
1F
100
AcDbEntity
  8
LOGO
 62
     5
100
AcDbTrace
 10
1980.338919153999
 20
58.47325841645101
 30
0.0
 11
1981.531501647365
 21
58.47325841645101
 31
0.0
 12
1980.338919153999
 22
64.43617088327369
 32
0.0
 13
1981.531501647365
 23
64.43617088327369
 33
0.0
  0
SOLID
  5
1756
330
1F
100
AcDbEntity
  8
LOGO
 62
     5
100
AcDbTrace
 10
1983.916666634095
 20
62.05100589654444
 30
0.0
 11
1985.109249127457
 21
62.05100589654444
 31
0.0
 12
1983.916666634095
 22
58.47325841645101
 32
0.0
 13
1985.109249127457
 23
58.47325841645101
 33
0.0
  0
SOLID
  5
1757
330
1F
100
AcDbEntity
  8
LOGO
 62
     5
100
AcDbTrace
 10
1980.219660904662
 20
100.5714204322237
 30
0.0
 11
1976.761171673906
 21
87.89029325277875
 31
0.0
 12
1980.219660904662
 22
70.39908335009636
 32
0.0
 13
1976.761171673906
 23
70.39908335009636
 33
0.0
  0
SOLID
  5
1758
330
1F
100
AcDbEntity
  8
LOGO
 62
     5
100
AcDbTrace
 10
1981.650759896702
 20
70.39908335009636
 30
0.0
 11
1985.109249127457
 21
70.39908335009636
 31
0.0
 12
1981.650759896702
 22
103.1951019176256
 32
0.0
 13
1985.109249127457
 23
103.1951019176274
 33
0.0
  0
SOLID
  5
1759
330
1F
100
AcDbEntity
  8
LOGO
 62
     2
100
AcDbTrace
 10
1980.219660904662
 20
103.1951019176274
 30
0.0
 11
1981.650759896702
 21
103.1951019176256
 31
0.0
 12
1980.219660904662
 22
70.39908335009636
 32
0.0
 13
1981.650759896702
 23
70.39908335009636
 33
0.0
  0
POLYLINE
  5
175A
330
1F
100
AcDbEntity
  8
LOGO
 62
     5
100
AcDb2dPolyline
 66
     1
 10
0.0
 20
0.0
 30
0.0
 40
1.194493683257918
 41
1.194493683257918
  0
VERTEX
  5
175B
330
175A
100
AcDbEntity
  8
LOGO
 62
     5
100
AcDbVertex
100
AcDb2dVertex
 10
1967.422062755224
 20
62.05100589654444
 30
0.0
 42
1.0
  0
VERTEX
  5
175C
330
175A
100
AcDbEntity
  8
LOGO
 62
     5
100
AcDbVertex
100
AcDb2dVertex
 10
1963.838581705449
 20
62.05100589654444
 30
0.0
 42
1.0
  0
SEQEND
  5
175D
330
175A
100
AcDbEntity
  8
LOGO
 62
     5
  0
POLYLINE
  5
175E
330
1F
100
AcDbEntity
  8
LOGO
 62
     5
100
AcDb2dPolyline
 66
     1
 10
0.0
 20
0.0
 30
0.0
 40
1.194493683257918
 41
1.194493683257918
  0
VERTEX
  5
175F
330
175E
100
AcDbEntity
  8
LOGO
 62
     5
100
AcDbVertex
100
AcDb2dVertex
 10
1970.999810235315
 20
62.05100589654444
 30
0.0
 42
1.0
  0
VERTEX
  5
1760
330
175E
100
AcDbEntity
  8
LOGO
 62
     5
100
AcDbVertex
100
AcDb2dVertex
 10
1967.416329185542
 20
62.05100589654444
 30
0.0
 42
1.0
  0
SEQEND
  5
1761
330
175E
100
AcDbEntity
  8
LOGO
 62
     5
  0
POLYLINE
  5
1762
330
1F
100
AcDbEntity
  8
LOGO
 62
     5
100
AcDb2dPolyline
 66
     1
 10
0.0
 20
0.0
 30
0.0
 40
1.194493683257918
 41
1.194493683257918
  0
VERTEX
  5
1763
330
1762
100
AcDbEntity
  8
LOGO
 62
     5
100
AcDbVertex
100
AcDb2dVertex
 10
1953.906048324921
 20
62.05100589654444
 30
0.0
 42
1.0
  0
VERTEX
  5
1764
330
1762
100
AcDbEntity
  8
LOGO
 62
     5
100
AcDbVertex
100
AcDb2dVertex
 10
1950.322567275149
 20
62.05100589654444
 30
0.0
 42
1.0
  0
SEQEND
  5
1765
330
1762
100
AcDbEntity
  8
LOGO
 62
     5
  0
SOLID
  5
1766
330
1F
100
AcDbEntity
  8
LOGO
 62
     5
100
AcDbTrace
 10
1949.729142813307
 20
64.43617088327369
 30
0.0
 11
1950.921725306669
 21
64.43617088327369
 31
0.0
 12
1949.729142813307
 22
58.47325841645101
 32
0.0
 13
1950.921725306669
 23
58.47325841645101
 33
0.0
  0
SOLID
  5
1767
330
1F
100
AcDbEntity
  8
LOGO
 62
     5
100
AcDbTrace
 10
1953.306890293401
 20
62.05100589654444
 30
0.0
 11
1954.499472786767
 21
62.05100589654444
 31
0.0
 12
1953.306890293401
 22
58.47325841645101
 32
0.0
 13
1954.499472786767
 23
58.47325841645101
 33
0.0
  0
POLYLINE
  5
1768
330
1F
100
AcDbEntity
  8
LOGO
 62
     5
100
AcDb2dPolyline
 66
     1
 10
0.0
 20
0.0
 30
0.0
 70
     1
 40
1.194493683257918
 41
1.194493683257918
  0
VERTEX
  5
1769
330
1768
100
AcDbEntity
  8
LOGO
 62
     5
100
AcDbVertex
100
AcDb2dVertex
 10
1956.483446906917
 20
61.45471464986144
 30
0.0
 42
1.0
  0
VERTEX
  5
176A
330
1768
100
AcDbEntity
  8
LOGO
 62
     5
100
AcDbVertex
100
AcDb2dVertex
 10
1961.261421639951
 20
61.45471464986144
 30
0.0
 42
1.0
  0
SEQEND
  5
176B
330
1768
100
AcDbEntity
  8
LOGO
 62
     5
  0
SOLID
  5
176C
330
1F
100
AcDbEntity
  8
LOGO
 62
     5
100
AcDbTrace
 10
1960.661188755233
 20
66.22504462332177
 30
0.0
 11
1961.853771248598
 21
66.22504462332177
 31
0.0
 12
1960.661188755233
 22
58.47325841645101
 32
0.0
 13
1961.853771248598
 23
58.47325841645101
 33
0.0
  0
SOLID
  5
176D
330
1F
100
AcDbEntity
  8
LOGO
 62
     5
100
AcDbTrace
 10
1963.245157243609
 20
64.43617088327369
 30
0.0
 11
1964.437739736971
 21
64.43617088327369
 31
0.0
 12
1963.245157243609
 22
58.47325841645101
 32
0.0
 13
1964.437739736971
 23
58.47325841645101
 33
0.0
  0
SOLID
  5
176E
330
1F
100
AcDbEntity
  8
LOGO
 62
     5
100
AcDbTrace
 10
1966.8229047237
 20
62.05100589654444
 30
0.0
 11
1968.015487217066
 21
62.05100589654444
 31
0.0
 12
1966.8229047237
 22
58.47325841645101
 32
0.0
 13
1968.015487217066
 23
58.47325841645101
 33
0.0
  0
SOLID
  5
176F
330
1F
100
AcDbEntity
  8
LOGO
 62
     5
100
AcDbTrace
 10
1970.400652203794
 20
62.05100589654444
 30
0.0
 11
1971.593234697158
 21
62.05100589654444
 31
0.0
 12
1970.400652203794
 22
58.4732584164492
 32
0.0
 13
1971.593234697158
 23
58.4732584164492
 33
0.0
  0
SOLID
  5
1770
330
1F
100
AcDbEntity
  8
LOGO
 62
     5
100
AcDbTrace
 10
1947.145174324933
 20
65.27097862862934
 30
0.0
 11
1948.3377568183
 21
65.27097862862934
 31
0.0
 12
1947.145174324933
 22
66.22504462332177
 32
0.0
 13
1948.3377568183
 23
66.22504462332177
 33
0.0
  0
SOLID
  5
1771
330
1F
100
AcDbEntity
  8
LOGO
 62
     5
100
AcDbTrace
 10
1947.145174324933
 20
64.43617088327369
 30
0.0
 11
1948.3377568183
 21
64.43617088327369
 31
0.0
 12
1947.145174324933
 22
58.4732584164492
 32
0.0
 13
1948.3377568183
 23
58.47325841645101
 33
0.0
  0
SOLID
  5
1772
330
1F
100
AcDbEntity
  8
LOGO
 62
     5
100
AcDbTrace
 10
1958.872434273433
 20
70.39908335009727
 30
0.0
 11
1962.330923504192
 21
70.39908335009727
 31
0.0
 12
1958.872434273433
 22
87.89029325277875
 32
0.0
 13
1962.330923504192
 23
100.5714204322237
 33
0.0
  0
SOLID
  5
1773
330
1F
100
AcDbEntity
  8
LOGO
 62
     5
100
AcDbTrace
 10
1963.762022496232
 20
103.1951019176256
 30
0.0
 11
1967.220511726988
 21
103.1951019176274
 31
0.0
 12
1963.762022496232
 22
73.02276483549917
 32
0.0
 13
1967.220511726988
 23
85.70389201494412
 33
0.0
  0
SOLID
  5
1774
330
1F
100
AcDbEntity
  8
LOGO
 62
     2
100
AcDbTrace
 10
1962.330923504192
 20
103.1951019176256
 30
0.0
 11
1963.762022496232
 21
103.1951019176256
 31
0.0
 12
1962.330923504192
 22
70.39908335009727
 32
0.0
 13
1963.762022496232
 23
70.39908335009727
 33
0.0
  0
SOLID
  5
1775
330
1F
100
AcDbEntity
  8
LOGO
 62
     5
100
AcDbTrace
 10
1963.762022496232
 20
73.02276483549917
 30
0.0
 11
1967.220511726988
 21
85.70389201494412
 31
0.0
 12
1980.219660904662
 22
103.1951019176274
 32
0.0
 13
1976.761171673906
 23
103.1951019176274
 33
0.0
  0
SOLID
  5
1776
330
1F
100
AcDbEntity
  8
LOGO
 62
     5
100
AcDbTrace
 10
1963.762022496232
 20
70.39908335009727
 30
0.0
 11
1967.220511726988
 21
70.39908335009727
 31
0.0
 12
1980.219660904662
 22
100.5714204322237
 32
0.0
 13
1976.761171673906
 23
87.89029325277875
 33
0.0
  0
SOLID
  5
1777
330
1F
100
AcDbEntity
  8
LOGO
 62
     2
100
AcDbTrace
 10
1962.330923504192
 20
70.39908335009727
 30
0.0
 11
1963.762022496232
 21
70.39908335009727
 31
0.0
 12
1980.219660904662
 22
103.1951019176274
 32
0.0
 13
1981.650759896702
 23
103.1951019176256
 33
0.0
  0
LWPOLYLINE
  5
1778
330
1F
100
AcDbEntity
  8
0
 62
     1
100
AcDbPolyline
 90
        4
 70
     1
 43
0.0
 10
1932.684770311274
 20
105.0951974611587
 10
3032.684770311274
 20
105.0951974611587
 10
3032.684770311274
 20
25.10678117156454
 10
1932.684770311274
 20
25.10678117156454
1001
GENIUS_GENREC_14
1002
{
1000
PYDIR
1011
1932.684770311274
1021
25.10678117156454
1031
0.0
1002
}
1002
{
1000
PXDIR
1011
3032.684770311274
1021
105.0951974611587
1031
0.0
1002
}
1002
{
1000
PORI
1011
1932.684770311274
1021
105.0951974611587
1031
0.0
1002
}
1002
{
1000
PINS
1011
1932.684770311274
1021
105.0951974611587
1031
0.0
1002
}
1002
{
1000
PINS2
1011
3032.684770311274
1021
25.10678117156454
1031
0.0
1002
}
1002
{
1000
C
1070
     1
1002
}
1001
GENIUS_GENOBJ-N-REC_13
1002
{
1000
OWNER
1000
GEN
1002
}
1001
GENIUS_GENODEF_13
1002
{
1000
HIER
1070
     0
1002
}
1002
{
1000
MANEDIT
1070
     0
1002
}
1002
{
1000
NOSEL
1070
     0
1002
}
1002
{
1000
BEHIND
1070
     0
1002
}
1002
{
1000
OTHER
1070
     0
1002
}
1002
{
1000
REACTOR
1002
}
  0
LINE
  5
1779
330
1F
100
AcDbEntity
  8
LOGO
 62
     6
100
AcDbLine
 10
2253.438076531225
 20
61.10156850188355
 30
0.0
 11
2253.438076531225
 21
31.77248252903132
 31
0.0
  0
LINE
  5
177A
330
1F
100
AcDbEntity
  8
LOGO
 62
     6
100
AcDbLine
 10
2218.679802688579
 20
61.10156850188355
 30
0.0
 11
2218.679802688579
 21
31.77248252903132
 31
0.0
  0
LINE
  5
177B
330
1F
100
AcDbEntity
  8
LOGO
 62
     6
100
AcDbLine
 10
2253.438076531225
 20
31.77248252903132
 30
0.0
 11
2218.679802688579
 21
31.77248252903132
 31
0.0
  0
LINE
  5
177C
330
1F
100
AcDbEntity
  8
LOGO
 62
     6
100
AcDbLine
 10
2281.362919972545
 20
97.09635583219892
 30
0.0
 11
2218.679802688579
 21
97.09635583219892
 31
0.0
  0
LINE
  5
177D
330
1F
100
AcDbEntity
  8
LOGO
 62
     6
100
AcDbLine
 10
2281.362919972545
 20
73.0998309453214
 30
0.0
 11
2218.679802688579
 21
73.0998309453214
 31
0.0
  0
LINE
  5
177E
330
1F
100
AcDbEntity
  8
LOGO
 62
     6
100
AcDbLine
 10
2218.679802688579
 20
97.09635583219892
 30
0.0
 11
2218.679802688579
 21
73.0998309453214
 31
0.0
  0
LINE
  5
177F
330
1F
100
AcDbEntity
  8
LOGO
 62
     6
100
AcDbLine
 10
2281.362919972545
 20
97.09635583219892
 30
0.0
 11
2281.362919972545
 21
73.0998309453214
 31
0.0
  0
LINE
  5
1780
330
1F
100
AcDbEntity
  8
LOGO
 62
     6
100
AcDbLine
 10
2239.567918878742
 20
73.0998309453214
 30
0.0
 11
2239.567918878742
 21
61.10156850188355
 31
0.0
  0
TEXT
  5
1781
330
1F
100
AcDbEntity
  8
LOGO
  6
Continuous
 62
     7
100
AcDbText
 10
2222.943609341699
 20
78.10907043254132
 30
0.0
 40
14.0
  1
MHSD
  7
CHINESET
100
AcDbText
  0
LINE
  5
1782
330
1F
100
AcDbEntity
  8
LOGO
 62
     6
100
AcDbLine
 10
2253.438076531225
 20
61.10156850188355
 30
0.0
 11
2218.679802688579
 21
61.10156850188355
 31
0.0
  0
TEXT
  5
1783
330
1F
100
AcDbEntity
  8
LOGO
  6
Continuous
 62
     6
100
AcDbText
 10
2225.889250528475
 20
35.91222082032778
 30
524.2309030401992
 40
6.0
  1
Model
 41
0.8
  7
CHINESET
100
AcDbText
  0
TEXT
  5
1784
330
1F
100
AcDbEntity
  8
LOGO
 62
     6
100
AcDbText
 10
2224.292245576478
 20
47.03492772803724
 30
524.2309030401992
 40
10.0
  1
型號
  7
CHINESET
100
AcDbText
  0
LINE
  5
1791
330
1F
100
AcDbEntity
  8
LOGO
 62
     6
100
AcDbLine
 10
2382.406217946008
 20
61.10156850188355
 30
0.0
 11
2382.406217946008
 21
31.77248252903132
 31
0.0
  0
LINE
  5
1792
330
1F
100
AcDbEntity
  8
LOGO
 62
     6
100
AcDbLine
 10
2329.080607086279
 20
61.10156850188355
 30
0.0
 11
2329.080607086279
 21
31.77248252903132
 31
0.0
  0
LINE
  5
1793
330
1F
100
AcDbEntity
  8
LOGO
 62
     6
100
AcDbLine
 10
2382.406217946008
 20
31.77248252903132
 30
0.0
 11
2329.080607086279
 21
31.77248252903132
 31
0.0
  0
LINE
  5
1794
330
1F
100
AcDbEntity
  8
LOGO
 62
     6
100
AcDbLine
 10
2354.340624664947
 20
97.09635583219892
 30
0.0
 11
2320.779637603414
 21
97.09635583219892
 31
0.0
  0
LINE
  5
1795
330
1F
100
AcDbEntity
  8
LOGO
 62
     6
100
AcDbLine
 10
2354.340624664947
 20
73.0998309453214
 30
0.0
 11
2320.779637603414
 21
73.0998309453214
 31
0.0
  0
LINE
  5
1796
330
1F
100
AcDbEntity
  8
LOGO
 62
     6
100
AcDbLine
 10
2320.779637603414
 20
97.09635583219892
 30
0.0
 11
2320.779637603414
 21
73.0998309453214
 31
0.0
  0
LINE
  5
1797
330
1F
100
AcDbEntity
  8
LOGO
 62
     6
100
AcDbLine
 10
2354.340624664947
 20
97.09635583219892
 30
0.0
 11
2354.340624664947
 21
73.0998309453214
 31
0.0
  0
TEXT
  5
1799
330
1F
100
AcDbEntity
  8
LOGO
  6
Continuous
 62
     7
100
AcDbText
 10
2326.036690134895
 20
78.10907043254132
 30
0.0
 40
14.0
  1
40
  7
CHINESET
100
AcDbText
  0
LINE
  5
179A
330
1F
100
AcDbEntity
  8
LOGO
 62
     6
100
AcDbLine
 10
2382.406217946008
 20
61.10156850188355
 30
0.0
 11
2329.080607086279
 21
61.10156850188355
 31
0.0
  0
TEXT
  5
17A8
330
1F
100
AcDbEntity
  8
LOGO
  6
Continuous
 62
     6
100
AcDbText
 10
2341.815835680653
 20
35.91222082032778
 30
524.2309030401992
 40
6.0
  1
Tube I.D.
 41
0.8
  7
CHINESET
100
AcDbText
  0
TEXT
  5
17A9
330
1F
100
AcDbEntity
  8
LOGO
 62
     6
100
AcDbText
 10
2344.235100324556
 20
47.03492772803724
 30
524.2309030401992
 40
10.0
  1
內徑
  7
CHINESET
100
AcDbText
  0
TEXT
  5
17B8
330
1F
100
AcDbEntity
  8
0
100
AcDbText
 10
2112.232095179996
 20
29.36213334725085
 30
0.0
 40
8.0
  1
10512264
 41
0.7
  7
CHINESET
 72
     1
 11
2131.832095179996
 21
29.36213334725085
 31
0.0
100
AcDbText
  0
LINE
  5
17B9
330
1F
100
AcDbEntity
  8
LOGO
 62
     1
100
AcDbLine
 10
2156.659286148375
 20
41.10446442948592
 30
0.0
 11
2156.659286148379
 21
25.10678117156635
 31
0.0
  0
LINE
  5
17BA
330
1F
100
AcDbEntity
  8
LOGO
 62
     1
100
AcDbLine
 10
2156.659286148375
 20
41.10446442948592
 30
0.0
 11
2108.659286148379
 21
41.10446442948592
 31
0.0
  0
LINE
  5
17BB
330
1F
100
AcDbEntity
  8
0
 62
     4
100
AcDbLine
 10
1932.684770311274
 20
465.1009893163614
 30
0.0
 11
3032.684770311274
 21
465.1009893163614
 31
0.0
  0
LINE
  5
198A
330
1F
100
AcDbEntity
  8
0
 62
     4
100
AcDbLine
 10
2298.684770311274
 20
825.1067811715641
 30
0.0
 11
2298.684770311274
 21
105.0951974611587
 31
0.0
  0
LINE
  5
198B
330
1F
100
AcDbEntity
  8
0
 62
     4
100
AcDbLine
 10
2664.684770311275
 20
825.1067811715641
 30
0.0
 11
2664.684770311275
 21
105.0951974611587
 31
0.0
  0
TEXT
  5
1A89
330
1F
100
AcDbEntity
  8
0
100
AcDbText
 10
1950.690524132943
 20
795.8336520981234
 30
0.0
 40
12.0
  1
%%c25
 41
0.75
  7
CHINESET
100
AcDbText
  0
TEXT
  5
1A8B
330
1F
100
AcDbEntity
  8
0
100
AcDbText
 10
2316.690524132943
 20
795.8336520981234
 30
0.0
 40
12.0
  1
%%c32
 41
0.75
  7
CHINESET
100
AcDbText
  0
TEXT
  5
1A8C
330
1F
100
AcDbEntity
  8
0
100
AcDbText
 10
2682.690524132943
 20
795.8336520981234
 30
0.0
 40
12.0
  1
%%c40
 41
0.75
  7
CHINESET
100
AcDbText
  0
TEXT
  5
1A8D
330
1F
100
AcDbEntity
  8
0
100
AcDbText
 10
1950.690524132943
 20
435.8278602429207
 30
0.0
 40
12.0
  1
%%c50
 41
0.75
  7
CHINESET
100
AcDbText
  0
TEXT
  5
1A8E
330
1F
100
AcDbEntity
  8
0
100
AcDbText
 10
2316.690524132943
 20
435.8278602429207
 30
0.0
 40
12.0
  1
%%c63
 41
0.75
  7
CHINESET
100
AcDbText
  0
LINE
  5
1A96
330
1F
100
AcDbEntity
  8
LOGO
 62
     6
100
AcDbLine
 10
2325.091450081514
 20
61.10156850188355
 30
0.0
 11
2325.091450081514
 21
31.77248252903132
 31
0.0
  0
LINE
  5
1A97
330
1F
100
AcDbEntity
  8
LOGO
 62
     6
100
AcDbLine
 10
2259.181312113058
 20
61.10156850188355
 30
0.0
 11
2259.181312113058
 21
31.77248252903132
 31
0.0
  0
LINE
  5
1A98
330
1F
100
AcDbEntity
  8
LOGO
 62
     6
100
AcDbLine
 10
2325.091450081514
 20
31.77248252903132
 30
0.0
 11
2259.181312113058
 21
31.77248252903132
 31
0.0
  0
LINE
  5
1A99
330
1F
100
AcDbEntity
  8
LOGO
 62
     6
100
AcDbLine
 10
2302.103360283739
 20
97.09635583219892
 30
0.0
 11
2285.281081405549
 21
97.09635583219892
 31
0.0
  0
LINE
  5
1A9A
330
1F
100
AcDbEntity
  8
LOGO
 62
     6
100
AcDbLine
 10
2302.103360283739
 20
73.0998309453214
 30
0.0
 11
2285.281081405549
 21
73.0998309453214
 31
0.0
  0
LINE
  5
1A9B
330
1F
100
AcDbEntity
  8
LOGO
 62
     6
100
AcDbLine
 10
2285.281081405549
 20
97.09635583219892
 30
0.0
 11
2285.281081405549
 21
73.0998309453214
 31
0.0
  0
LINE
  5
1A9C
330
1F
100
AcDbEntity
  8
LOGO
 62
     6
100
AcDbLine
 10
2302.103360283739
 20
97.09635583219892
 30
0.0
 11
2302.103360283739
 21
73.0998309453214
 31
0.0
  0
LINE
  5
1A9D
330
1F
100
AcDbEntity
  8
LOGO
 62
     6
100
AcDbLine
 10
2294.50692150512
 20
73.0998309453214
 30
0.0
 11
2294.50692150512
 21
61.10156850188355
 31
0.0
  0
TEXT
  5
1A9E
330
1F
100
AcDbEntity
  8
LOGO
  6
Continuous
 62
     7
100
AcDbText
 10
2290.270107956834
 20
78.10907043254132
 30
0.0
 40
14.0
  1
*
  7
CHINESET
100
AcDbText
  0
LINE
  5
1A9F
330
1F
100
AcDbEntity
  8
LOGO
 62
     6
100
AcDbLine
 10
2325.091450081514
 20
61.10156850188355
 30
0.0
 11
2259.181312113058
 21
61.10156850188355
 31
0.0
  0
TEXT
  5
1AA0
330
1F
100
AcDbEntity
  8
LOGO
  6
Continuous
 62
     6
100
AcDbText
 10
2264.534022309363
 20
35.91222082032778
 30
524.2309030401992
 40
6.0
  1
Swivel direction
 41
0.8
  7
CHINESET
100
AcDbText
  0
TEXT
  5
1AA1
330
1F
100
AcDbEntity
  8
LOGO
 62
     6
100
AcDbText
 10
2271.28796126251
 20
47.03492772803724
 30
524.2309030401992
 40
10.0
  1
旋轉方向
  7
CHINESET
100
AcDbText
  0
LINE
  5
1AA3
330
1F
100
AcDbEntity
  8
LOGO
  6
Continuous
 62
     7
100
AcDbLine
 10
2306.509084955546
 20
85.01309390526399
 30
0.0
 11
2317.105074751305
 21
85.01309390526399
 31
0.0
  0
TEXT
  5
1AA6
330
1F
100
AcDbEntity
  8
LOGO
  6
Continuous
 62
     7
100
AcDbText
 10
2360.662570831455
 20
78.10907043254132
 30
0.0
 40
14.0
  1
x
  7
CHINESET
100
AcDbText
  0
LINE
  5
1AA7
330
1F
100
AcDbEntity
  8
LOGO
 62
     6
100
AcDbLine
 10
2411.002805908462
 20
97.09635583219892
 30
0.0
 11
2373.065557047667
 21
97.09635583219892
 31
0.0
  0
LINE
  5
1AA8
330
1F
100
AcDbEntity
  8
LOGO
 62
     6
100
AcDbLine
 10
2411.002805908462
 20
73.0998309453214
 30
0.0
 11
2373.065557047667
 21
73.0998309453214
 31
0.0
  0
LINE
  5
1AA9
330
1F
100
AcDbEntity
  8
LOGO
 62
     6
100
AcDbLine
 10
2373.065557047667
 20
97.09635583219892
 30
0.0
 11
2373.065557047667
 21
73.0998309453214
 31
0.0
  0
LINE
  5
1AAA
330
1F
100
AcDbEntity
  8
LOGO
 62
     6
100
AcDbLine
 10
2411.002805908462
 20
97.09635583219892
 30
0.0
 11
2411.002805908462
 21
73.0998309453214
 31
0.0
  0
TEXT
  5
1AAB
330
1F
100
AcDbEntity
  8
LOGO
  6
Continuous
 62
     7
100
AcDbText
 10
2388.547924293269
 20
78.10907043254132
 30
0.0
 40
14.0
  1
*
  7
CHINESET
100
AcDbText
  0
LINE
  5
1AAC
330
1F
100
AcDbEntity
  8
LOGO
 62
     6
100
AcDbLine
 10
2436.810373523459
 20
61.10156850188355
 30
0.0
 11
2436.810373523459
 21
31.77248252903132
 31
0.0
  0
LINE
  5
1AAD
330
1F
100
AcDbEntity
  8
LOGO
 62
     6
100
AcDbLine
 10
2387.818289439419
 20
61.10156850188355
 30
0.0
 11
2387.818289439419
 21
31.77248252903132
 31
0.0
  0
LINE
  5
1AAE
330
1F
100
AcDbEntity
  8
LOGO
 62
     6
100
AcDbLine
 10
2436.810373523459
 20
31.77248252903132
 30
0.0
 11
2387.818289439419
 21
31.77248252903132
 31
0.0
  0
LINE
  5
1AAF
330
1F
100
AcDbEntity
  8
LOGO
 62
     6
100
AcDbLine
 10
2436.810373523459
 20
61.10156850188355
 30
0.0
 11
2387.818289439419
 21
61.10156850188355
 31
0.0
  0
TEXT
  5
1AB0
330
1F
100
AcDbEntity
  8
LOGO
  6
Continuous
 62
     6
100
AcDbText
 10
2400.199677964122
 20
35.91222082032778
 30
524.2309030401992
 40
6.0
  1
Angle
 41
0.8
  7
CHINESET
100
AcDbText
  0
TEXT
  5
1AB1
330
1F
100
AcDbEntity
  8
LOGO
 62
     6
100
AcDbText
 10
2392.592715191856
 20
47.03492772803724
 30
524.2309030401992
 40
10.0
  1
旋轉角度
  7
CHINESET
100
AcDbText
  0
LINE
  5
1AB7
330
1F
100
AcDbEntity
  8
LOGO
 62
     6
100
AcDbLine
 10
2398.224110222521
 20
73.09983094532142
 30
0.0
 11
2398.224110222521
 21
61.10156850188355
 31
0.0
  0
LINE
  5
1ABA
330
1F
100
AcDbEntity
  8
LOGO
 62
     6
100
AcDbLine
 10
2343.216811843114
 20
73.09983094532142
 30
0.0
 11
2343.216811843113
 21
61.10156850188354
 31
0.0
  0
LINE
  5
29DF
330
1F
100
AcDbEntity
  8
0
100
AcDbLine
 10
2087.157803487452
 20
508.9561227128467
 30
0.0
 11
2136.157803487452
 21
508.9561227128467
 31
0.0
  0
LINE
  5
29E0
330
1F
100
AcDbEntity
  8
0
100
AcDbLine
 10
2087.157803487452
 20
531.9561227128466
 30
0.0
 11
2136.157803487452
 21
531.9561227128466
 31
0.0
  0
LINE
  5
29E1
330
1F
100
AcDbEntity
  8
0
100
AcDbLine
 10
2092.157803487452
 20
578.9561227128466
 30
0.0
 11
2131.157803487452
 21
578.9561227128466
 31
0.0
  0
LINE
  5
29E2
330
1F
100
AcDbEntity
  8
0
100
AcDbLine
 10
2136.157803487452
 20
508.9561227128467
 30
0.0
 11
2136.657803487452
 21
509.4561227128467
 31
0.0
  0
LINE
  5
29E3
330
1F
100
AcDbEntity
  8
0
100
AcDbLine
 10
2136.657803487452
 20
531.4561227128466
 30
0.0
 11
2136.157803487452
 21
531.9561227128466
 31
0.0
  0
LINE
  5
29E4
330
1F
100
AcDbEntity
  8
0
100
AcDbLine
 10
2087.157803487452
 20
531.9561227128466
 30
0.0
 11
2086.657803487452
 21
531.4561227128466
 31
0.0
  0
LINE
  5
29E5
330
1F
100
AcDbEntity
  8
0
100
AcDbLine
 10
2086.657803487452
 20
509.4561227128467
 30
0.0
 11
2087.157803487452
 21
508.9561227128467
 31
0.0
  0
LINE
  5
29E6
330
1F
100
AcDbEntity
  8
0
100
AcDbLine
 10
2134.157803487452
 20
575.9561227128466
 30
0.0
 11
2131.157803487452
 21
578.9561227128466
 31
0.0
  0
LINE
  5
29E7
330
1F
100
AcDbEntity
  8
0
100
AcDbLine
 10
2092.157803487452
 20
578.9561227128466
 30
0.0
 11
2089.157803487452
 21
575.9561227128466
 31
0.0
  0
LINE
  5
29E9
330
1F
100
AcDbEntity
  8
0
100
AcDbLine
 10
2086.657803487452
 20
531.4561227128466
 30
0.0
 11
2086.657803487452
 21
509.4561227128467
 31
0.0
  0
LINE
  5
29EA
330
1F
100
AcDbEntity
  8
0
100
AcDbLine
 10
2136.657803487452
 20
531.4561227128466
 30
0.0
 11
2136.657803487452
 21
509.4561227128467
 31
0.0
  0
LINE
  5
29EB
330
1F
100
AcDbEntity
  8
0
100
AcDbLine
 10
2134.657803487452
 20
679.9364898057913
 30
0.0
 11
2088.657803487452
 21
679.9364898057913
 31
0.0
  0
LINE
  5
29EC
330
1F
100
AcDbEntity
  8
0
100
AcDbLine
 10
2088.657803487452
 20
729.9364898057913
 30
0.0
 11
2134.657803487452
 21
729.9364898057913
 31
0.0
  0
LINE
  5
29EE
330
1F
100
AcDbEntity
  8
0
100
AcDbLine
 10
2086.657803487452
 20
681.9364898057913
 30
0.0
 11
2086.657803487452
 21
695.4364898057913
 31
0.0
  0
CIRCLE
  5
29EF
330
1F
100
AcDbEntity
  8
0
100
AcDbCircle
 10
2091.657803487452
 20
684.9364898057913
 30
0.0
 40
3.25
  0
LINE
  5
29F0
102
{ACAD_REACTORS
330
2D05
102
}
330
1F
100
AcDbEntity
  8
0
100
AcDbLine
 10
2086.657803487452
 20
681.9364898057913
 30
0.0
 11
2088.657803487452
 21
679.9364898057913
 31
0.0
  0
LINE
  5
29F1
330
1F
100
AcDbEntity
  8
0
100
AcDbLine
 10
2086.657803487452
 20
727.9364898057913
 30
0.0
 11
2088.657803487452
 21
729.9364898057913
 31
0.0
  0
CIRCLE
  5
29F2
330
1F
100
AcDbEntity
  8
0
100
AcDbCircle
 10
2091.657803487452
 20
724.9364898057913
 30
0.0
 40
3.25
  0
LINE
  5
29F3
330
1F
100
AcDbEntity
  8
0
100
AcDbLine
 10
2086.657803487452
 20
714.4364898057913
 30
0.0
 11
2086.657803487452
 21
727.9364898057913
 31
0.0
  0
LINE
  5
29F5
330
1F
100
AcDbEntity
  8
0
100
AcDbLine
 10
2101.657803487452
 20
608.9561227128467
 30
0.0
 11
2101.657803487452
 21
578.9561227128466
 31
0.0
  0
LINE
  5
29F6
330
1F
100
AcDbEntity
  8
0
100
AcDbLine
 10
2121.657803487452
 20
608.9561227128467
 30
0.0
 11
2121.657803487452
 21
578.9561227128466
 31
0.0
  0
LINE
  5
29F8
330
1F
100
AcDbEntity
  8
0
100
AcDbLine
 10
2136.657803487452
 20
727.9364898057913
 30
0.0
 11
2136.657803487452
 21
714.4364898057913
 31
0.0
  0
CIRCLE
  5
29F9
330
1F
100
AcDbEntity
  8
0
100
AcDbCircle
 10
2131.657803487452
 20
684.9364898057913
 30
0.0
 40
3.25
  0
LINE
  5
29FA
330
1F
100
AcDbEntity
  8
0
100
AcDbLine
 10
2136.657803487452
 20
681.9364898057913
 30
0.0
 11
2134.657803487452
 21
679.9364898057913
 31
0.0
  0
LINE
  5
29FB
330
1F
100
AcDbEntity
  8
0
100
AcDbLine
 10
2134.657803487452
 20
729.9364898057913
 30
0.0
 11
2136.657803487452
 21
727.9364898057913
 31
0.0
  0
CIRCLE
  5
29FC
102
{ACAD_REACTORS
330
379D
102
}
330
1F
100
AcDbEntity
  8
0
100
AcDbCircle
 10
2131.657803487452
 20
724.9364898057913
 30
0.0
 40
3.25
  0
LINE
  5
29FD
330
1F
100
AcDbEntity
  8
0
100
AcDbLine
 10
2062.657803487452
 20
714.4364898057913
 30
0.0
 11
2160.657803487452
 21
714.4364898057913
 31
0.0
  0
LINE
  5
29FE
330
1F
100
AcDbEntity
  8
0
100
AcDbLine
 10
2062.657803487452
 20
695.4364898057913
 30
0.0
 11
2160.657803487452
 21
695.4364898057913
 31
0.0
  0
LINE
  5
29FF
330
1F
100
AcDbEntity
  8
0
100
AcDbLine
 10
2161.657803487452
 20
696.4364898057913
 30
0.0
 11
2161.657803487452
 21
713.4364898057913
 31
0.0
  0
LINE
  5
2A00
330
1F
100
AcDbEntity
  8
0
100
AcDbLine
 10
2061.657803487452
 20
696.4364898057913
 30
0.0
 11
2061.657803487452
 21
713.4364898057913
 31
0.0
  0
LINE
  5
2A01
330
1F
100
AcDbEntity
  8
0
100
AcDbLine
 10
2101.157803487452
 20
700.4364898057913
 30
0.0
 11
2122.157803487452
 21
700.4364898057913
 31
0.0
  0
LINE
  5
2A02
330
1F
100
AcDbEntity
  8
0
100
AcDbLine
 10
2101.157803487452
 20
709.4364898057913
 30
0.0
 11
2122.157803487452
 21
709.4364898057913
 31
0.0
  0
ARC
  5
2A03
330
1F
100
AcDbEntity
  8
0
100
AcDbCircle
 10
2101.157803487452
 20
704.9364898057913
 30
0.0
 40
4.5
100
AcDbArc
 50
90.0
 51
270.0
  0
ARC
  5
2A04
330
1F
100
AcDbEntity
  8
0
100
AcDbCircle
 10
2122.157803487452
 20
704.9364898057913
 30
0.0
 40
4.5
100
AcDbArc
 50
270.0
 51
90.0
  0
ARC
  5
2A05
330
1F
100
AcDbEntity
  8
0
100
AcDbCircle
 10
2111.657803487452
 20
704.9364898057913
 30
0.0
 40
9.0
100
AcDbArc
 50
330.0000000000027
 51
29.99999999999729
  0
ARC
  5
2A06
330
1F
100
AcDbEntity
  8
0
100
AcDbCircle
 10
2111.657803487452
 20
704.9364898057913
 30
0.0
 40
9.0
100
AcDbArc
 50
150.0000000000027
 51
209.9999999999973
  0
LINE
  5
2A07
102
{ACAD_REACTORS
330
3733
102
}
330
1F
100
AcDbEntity
  8
0
100
AcDbLine
 10
2160.657803487452
 20
714.4364898057913
 30
0.0
 11
2161.657803487452
 21
713.4364898057913
 31
0.0
  0
LINE
  5
2A08
102
{ACAD_REACTORS
330
2D2B
330
3733
102
}
330
1F
100
AcDbEntity
  8
0
100
AcDbLine
 10
2161.657803487452
 20
696.4364898057913
 30
0.0
 11
2160.657803487452
 21
695.4364898057913
 31
0.0
  0
LINE
  5
2A09
102
{ACAD_REACTORS
330
2D2B
102
}
330
1F
100
AcDbEntity
  8
0
100
AcDbLine
 10
2062.657803487452
 20
695.4364898057913
 30
0.0
 11
2061.657803487452
 21
696.4364898057913
 31
0.0
  0
LINE
  5
2A0A
330
1F
100
AcDbEntity
  8
0
100
AcDbLine
 10
2061.657803487452
 20
713.4364898057913
 30
0.0
 11
2062.657803487452
 21
714.4364898057913
 31
0.0
  0
LINE
  5
2A0B
102
{ACAD_REACTORS
330
2D05
102
}
330
1F
100
AcDbEntity
  8
0
100
AcDbLine
 10
2136.657803487452
 20
695.4364898057913
 30
0.0
 11
2136.657803487452
 21
681.9364898057913
 31
0.0
  0
LINE
  5
2A0C
330
1F
100
AcDbEntity
  8
0
100
AcDbLine
 10
2062.657803487452
 20
608.9561227128466
 30
0.0
 11
2160.657803487452
 21
608.9561227128466
 31
0.0
  0
LINE
  5
2A0D
330
1F
100
AcDbEntity
  8
0
100
AcDbLine
 10
2062.657803487452
 20
627.9561227128466
 30
0.0
 11
2160.657803487452
 21
627.9561227128466
 31
0.0
  0
LINE
  5
2A0E
330
1F
100
AcDbEntity
  8
0
100
AcDbLine
 10
2061.657803487452
 20
609.9561227128466
 30
0.0
 11
2061.657803487452
 21
626.9561227128466
 31
0.0
  0
LINE
  5
2A0F
330
1F
100
AcDbEntity
  8
0
100
AcDbLine
 10
2062.657803487452
 20
608.9561227128466
 30
0.0
 11
2061.657803487452
 21
609.9561227128466
 31
0.0
  0
LINE
  5
2A10
330
1F
100
AcDbEntity
  8
0
100
AcDbLine
 10
2061.657803487452
 20
626.9561227128466
 30
0.0
 11
2062.657803487452
 21
627.9561227128466
 31
0.0
  0
LINE
  5
2A11
330
1F
100
AcDbEntity
  8
0
100
AcDbLine
 10
2161.657803487452
 20
609.9561227128466
 30
0.0
 11
2161.657803487452
 21
626.9561227128466
 31
0.0
  0
LINE
  5
2A12
330
1F
100
AcDbEntity
  8
0
100
AcDbLine
 10
2161.657803487452
 20
609.9561227128466
 30
0.0
 11
2160.657803487452
 21
608.9561227128466
 31
0.0
  0
LINE
  5
2A13
330
1F
100
AcDbEntity
  8
0
100
AcDbLine
 10
2160.657803487452
 20
627.9561227128466
 30
0.0
 11
2161.657803487452
 21
626.9561227128466
 31
0.0
  0
CIRCLE
  5
2A14
330
1F
100
AcDbEntity
  8
0
100
AcDbCircle
 10
2111.657803487452
 20
618.4561227128466
 30
0.0
 40
4.0
  0
ARC
  5
2A16
330
1F
100
AcDbEntity
  8
0
100
AcDbCircle
 10
2111.657803487452
 20
704.9364898057913
 30
0.0
 40
22.5
100
AcDbArc
 50
26.2226465049125
 51
153.7773534950875
  0
ARC
  5
2A17
330
1F
100
AcDbEntity
  8
0
100
AcDbCircle
 10
2111.657803487452
 20
704.9364898057913
 30
0.0
 40
22.5
100
AcDbArc
 50
206.2226465049125
 51
333.7773534950875
  0
LINE
  5
2A18
330
1F
100
AcDbEntity
  8
0
100
AcDbLine
 10
2089.157803487452
 20
575.9561227128466
 30
0.0
 11
2089.157803487452
 21
531.9561227128466
 31
0.0
  0
LINE
  5
2A19
330
1F
100
AcDbEntity
  8
0
100
AcDbLine
 10
2134.157803487452
 20
575.9561227128467
 30
0.0
 11
2134.157803487452
 21
531.9561227128466
 31
0.0
  0
LINE
  5
2B58
330
1F
100
AcDbEntity
  8
AM_7
  6
AM_ISO08W050x2
100
AcDbLine
 10
2091.657803487452
 20
724.9364898057913
 30
0.0
 11
2096.907803487452
 21
724.9364898057913
 31
0.0
1001
GENIUS_GENOREF_13
1005
2B5C
  0
LINE
  5
2B59
330
1F
100
AcDbEntity
  8
AM_7
  6
AM_ISO08W050x2
100
AcDbLine
 10
2091.657803487452
 20
724.9364898057913
 30
0.0
 11
2091.657803487452
 21
730.1864898057913
 31
0.0
1001
GENIUS_GENOREF_13
1005
2B5C
  0
LINE
  5
2B5A
330
1F
100
AcDbEntity
  8
AM_7
  6
AM_ISO08W050x2
100
AcDbLine
 10
2091.657803487452
 20
724.9364898057913
 30
0.0
 11
2086.407803487452
 21
724.9364898057913
 31
0.0
1001
GENIUS_GENOREF_13
1005
2B5C
  0
LINE
  5
2B5B
330
1F
100
AcDbEntity
  8
AM_7
  6
AM_ISO08W050x2
100
AcDbLine
 10
2091.657803487452
 20
724.9364898057913
 30
0.0
 11
2091.657803487452
 21
719.6864898057913
 31
0.0
1001
GENIUS_GENOREF_13
1005
2B5C
  0
POINT
  5
2B5C
330
1F
100
AcDbEntity
  8
0
 60
     1
100
AcDbPoint
 10
0.0
 20
0.0
 30
0.0
1001
GENIUS_GENODEF_13
1002
{
1000
HIER
1070
    10
1002
}
1002
{
1000
MANEDIT
1070
     0
1002
}
1002
{
1000
NOSEL
1070
     0
1002
}
1002
{
1000
BEHIND
1070
     0
1002
}
1002
{
1000
OTHER
1070
     0
1002
}
1002
{
1000
REACTOR
1002
}
1001
GENIUS_GENOLIS_13
1002
{
1000
ENT
1005
2B5B
1005
2B5A
1005
2B59
1005
2B58
1002
}
1001
GENIUS_GENOENT_13
1002
{
1000
MYREF
1005
2B5C
1002
}
1002
{
1000
GRP
1005
0
1002
}
1001
GENIUS_GENOBJ-N-CRS_13
1002
{
1000
OWNER
1000
GEN
1002
}
  0
LINE
  5
2B6A
330
1F
100
AcDbEntity
  8
AM_7
  6
AM_ISO08W050x2
100
AcDbLine
 10
2131.657803487452
 20
724.9364898057913
 30
0.0
 11
2136.907803487452
 21
724.9364898057913
 31
0.0
1001
GENIUS_GENOREF_13
1005
2B6E
  0
LINE
  5
2B6B
330
1F
100
AcDbEntity
  8
AM_7
  6
AM_ISO08W050x2
100
AcDbLine
 10
2131.657803487452
 20
724.9364898057913
 30
0.0
 11
2131.657803487452
 21
730.1864898057913
 31
0.0
1001
GENIUS_GENOREF_13
1005
2B6E
  0
LINE
  5
2B6C
330
1F
100
AcDbEntity
  8
AM_7
  6
AM_ISO08W050x2
100
AcDbLine
 10
2131.657803487452
 20
724.9364898057913
 30
0.0
 11
2126.407803487452
 21
724.9364898057913
 31
0.0
1001
GENIUS_GENOREF_13
1005
2B6E
  0
LINE
  5
2B6D
330
1F
100
AcDbEntity
  8
AM_7
  6
AM_ISO08W050x2
100
AcDbLine
 10
2131.657803487452
 20
724.9364898057913
 30
0.0
 11
2131.657803487452
 21
719.6864898057913
 31
0.0
1001
GENIUS_GENOREF_13
1005
2B6E
  0
POINT
  5
2B6E
330
1F
100
AcDbEntity
  8
0
 60
     1
100
AcDbPoint
 10
0.0
 20
0.0
 30
0.0
1001
GENIUS_GENOENT_13
1002
{
1000
MYREF
1005
2B6E
1002
}
1002
{
1000
GRP
1005
0
1002
}
1001
GENIUS_GENODEF_13
1002
{
1000
HIER
1070
    10
1002
}
1002
{
1000
MANEDIT
1070
     0
1002
}
1002
{
1000
NOSEL
1070
     0
1002
}
1002
{
1000
BEHIND
1070
     0
1002
}
1002
{
1000
OTHER
1070
     0
1002
}
1002
{
1000
REACTOR
1002
}
1001
GENIUS_GENOBJ-N-CRS_13
1002
{
1000
OWNER
1000
GEN
1002
}
1001
GENIUS_GENOLIS_13
1002
{
1000
ENT
1005
2B6D
1005
2B6C
1005
2B6B
1005
2B6A
1002
}
  0
LINE
  5
2B7C
330
1F
100
AcDbEntity
  8
AM_7
  6
AM_ISO08W050x2
100
AcDbLine
 10
2131.657803487452
 20
684.9364898057913
 30
0.0
 11
2136.907803487452
 21
684.9364898057913
 31
0.0
1001
GENIUS_GENOREF_13
1005
2B80
  0
LINE
  5
2B7D
330
1F
100
AcDbEntity
  8
AM_7
  6
AM_ISO08W050x2
100
AcDbLine
 10
2131.657803487452
 20
684.9364898057913
 30
0.0
 11
2131.657803487452
 21
690.1864898057913
 31
0.0
1001
GENIUS_GENOREF_13
1005
2B80
  0
LINE
  5
2B7E
330
1F
100
AcDbEntity
  8
AM_7
  6
AM_ISO08W050x2
100
AcDbLine
 10
2131.657803487452
 20
684.9364898057913
 30
0.0
 11
2126.407803487452
 21
684.9364898057913
 31
0.0
1001
GENIUS_GENOREF_13
1005
2B80
  0
LINE
  5
2B7F
102
{ACAD_REACTORS
330
2CAB
102
}
330
1F
100
AcDbEntity
  8
AM_7
  6
AM_ISO08W050x2
100
AcDbLine
 10
2131.657803487452
 20
684.9364898057913
 30
0.0
 11
2131.657803487452
 21
679.6864898057913
 31
0.0
1001
GENIUS_GENOREF_13
1005
2B80
  0
POINT
  5
2B80
330
1F
100
AcDbEntity
  8
0
 60
     1
100
AcDbPoint
 10
0.0
 20
0.0
 30
0.0
1001
GENIUS_GENODEF_13
1002
{
1000
HIER
1070
    10
1002
}
1002
{
1000
MANEDIT
1070
     0
1002
}
1002
{
1000
NOSEL
1070
     0
1002
}
1002
{
1000
BEHIND
1070
     0
1002
}
1002
{
1000
OTHER
1070
     0
1002
}
1002
{
1000
REACTOR
1002
}
1001
GENIUS_GENOLIS_13
1002
{
1000
ENT
1005
2B7F
1005
2B7E
1005
2B7D
1005
2B7C
1002
}
1001
GENIUS_GENOENT_13
1002
{
1000
MYREF
1005
2B80
1002
}
1002
{
1000
GRP
1005
0
1002
}
1001
GENIUS_GENOBJ-N-CRS_13
1002
{
1000
OWNER
1000
GEN
1002
}
  0
LINE
  5
2B8E
330
1F
100
AcDbEntity
  8
AM_7
  6
AM_ISO08W050x2
100
AcDbLine
 10
2091.657803487452
 20
684.9364898057913
 30
0.0
 11
2096.907803487452
 21
684.9364898057913
 31
0.0
1001
GENIUS_GENOREF_13
1005
2B92
  0
LINE
  5
2B8F
330
1F
100
AcDbEntity
  8
AM_7
  6
AM_ISO08W050x2
100
AcDbLine
 10
2091.657803487452
 20
684.9364898057913
 30
0.0
 11
2091.657803487452
 21
690.1864898057913
 31
0.0
1001
GENIUS_GENOREF_13
1005
2B92
  0
LINE
  5
2B90
330
1F
100
AcDbEntity
  8
AM_7
  6
AM_ISO08W050x2
100
AcDbLine
 10
2091.657803487452
 20
684.9364898057913
 30
0.0
 11
2086.407803487452
 21
684.9364898057913
 31
0.0
1001
GENIUS_GENOREF_13
1005
2B92
  0
LINE
  5
2B91
102
{ACAD_REACTORS
330
2CAB
102
}
330
1F
100
AcDbEntity
  8
AM_7
  6
AM_ISO08W050x2
100
AcDbLine
 10
2091.657803487452
 20
684.9364898057913
 30
0.0
 11
2091.657803487452
 21
679.6864898057913
 31
0.0
1001
GENIUS_GENOREF_13
1005
2B92
  0
POINT
  5
2B92
330
1F
100
AcDbEntity
  8
0
 60
     1
100
AcDbPoint
 10
0.0
 20
0.0
 30
0.0
1001
GENIUS_GENODEF_13
1002
{
1000
HIER
1070
    10
1002
}
1002
{
1000
MANEDIT
1070
     0
1002
}
1002
{
1000
NOSEL
1070
     0
1002
}
1002
{
1000
BEHIND
1070
     0
1002
}
1002
{
1000
OTHER
1070
     0
1002
}
1002
{
1000
REACTOR
1002
}
1001
GENIUS_GENOENT_13
1002
{
1000
MYREF
1005
2B92
1002
}
1002
{
1000
GRP
1005
0
1002
}
1001
GENIUS_GENOBJ-N-CRS_13
1002
{
1000
OWNER
1000
GEN
1002
}
1001
GENIUS_GENOLIS_13
1002
{
1000
ENT
1005
2B91
1005
2B90
1005
2B8F
1005
2B8E
1002
}
  0
LINE
  5
2BA0
330
1F
100
AcDbEntity
  8
AM_7
100
AcDbLine
 10
2111.657803487452
 20
704.9364898057913
 30
0.0
 11
2166.270819700178
 21
704.9364898057913
 31
0.0
1001
GENIUS_GENOREF_13
1005
2BA4
  0
LINE
  5
2BA1
330
1F
100
AcDbEntity
  8
AM_7
100
AcDbLine
 10
2111.657803487452
 20
704.9364898057913
 30
0.0
 11
2111.657803487452
 21
731.9364898057913
 31
0.0
1001
GENIUS_GENOREF_13
1005
2BA4
  0
LINE
  5
2BA2
330
1F
100
AcDbEntity
  8
AM_7
100
AcDbLine
 10
2111.657803487452
 20
704.9364898057913
 30
0.0
 11
2058.510620426488
 21
704.9364898057913
 31
0.0
1001
GENIUS_GENOREF_13
1005
2BA4
  0
LINE
  5
2BA3
330
1F
100
AcDbEntity
  8
AM_7
100
AcDbLine
 10
2111.657803487452
 20
704.9364898057913
 30
0.0
 11
2111.657803487452
 21
677.9364898057913
 31
0.0
1001
GENIUS_GENOREF_13
1005
2BA4
  0
POINT
  5
2BA4
330
1F
100
AcDbEntity
  8
0
 60
     1
100
AcDbPoint
 10
0.0
 20
0.0
 30
0.0
1001
GENIUS_GENODEF_13
1002
{
1000
HIER
1070
    10
1002
}
1002
{
1000
MANEDIT
1070
     0
1002
}
1002
{
1000
NOSEL
1070
     0
1002
}
1002
{
1000
BEHIND
1070
     0
1002
}
1002
{
1000
OTHER
1070
     0
1002
}
1002
{
1000
REACTOR
1002
}
1001
GENIUS_GENOENT_13
1002
{
1000
MYREF
1005
2BA4
1002
}
1002
{
1000
GRP
1005
0
1002
}
1001
GENIUS_GENOBJ-N-CRS_13
1002
{
1000
OWNER
1000
GEN
1002
}
1001
GENIUS_GENOLIS_13
1002
{
1000
ENT
1005
2BA3
1005
2BA2
1005
2BA1
1005
2BA0
1002
}
  0
LINE
  5
2BB1
330
1F
100
AcDbEntity
  8
AM_7
100
AcDbLine
 10
2111.657803487452
 20
629.9561227128466
 30
0.0
 11
2111.657803487452
 21
506.9561227128467
 31
0.0
1001
GENIUS_GENOBJ-N-CEN_13
1002
{
1000
OWNER
1000
GEN
1002
}
1001
GENIUS_GENODEF_13
1002
{
1000
HIER
1070
     0
1002
}
1002
{
1000
MANEDIT
1070
     0
1002
}
1002
{
1000
NOSEL
1070
     0
1002
}
1002
{
1000
BEHIND
1070
     0
1002
}
1002
{
1000
OTHER
1070
     0
1002
}
1002
{
1000
REACTOR
1002
}
1001
GENIUS_GENCEN_19
1002
{
1040
2.0
1002
}
  0
LINE
  5
2BB2
330
1F
100
AcDbEntity
  8
0
  6
HIDDEN
 62
     3
 48
0.5
100
AcDbLine
 10
2123.356207619054
 20
571.8829419415789
 30
0.0
 11
2134.157803487452
 21
571.8829419415789
 31
0.0
  0
LINE
  5
2BB3
330
1F
100
AcDbEntity
  8
0
  6
HIDDEN
 62
     3
 48
0.5
100
AcDbLine
 10
2123.833458165879
 20
562.3829419415788
 30
0.0
 11
2134.157803487452
 21
562.3829419415787
 31
0.0
  0
LINE
  5
2BB4
330
1F
100
AcDbEntity
  8
0
  6
HIDDEN
 62
     3
 48
0.5
100
AcDbLine
 10
2123.833458165879
 20
563.3829419415788
 30
0.0
 11
2134.157803487452
 21
563.3829419415787
 31
0.0
  0
LINE
  5
2BB5
330
1F
100
AcDbEntity
  8
0
  6
HIDDEN
 62
     3
 48
0.5
100
AcDbLine
 10
2123.356207619054
 20
570.8829419415788
 30
0.0
 11
2134.157803487452
 21
570.8829419415788
 31
0.0
  0
LINE
  5
2BB6
330
1F
100
AcDbEntity
  8
0
  6
HIDDEN
 62
     3
 48
0.5
100
AcDbLine
 10
2124.548257539928
 20
527.5935472658122
 30
0.0
 11
2136.657803487452
 21
527.5935472658122
 31
0.0
  0
LINE
  5
2BB7
330
1F
100
AcDbEntity
  8
0
  6
HIDDEN
 62
     3
 48
0.5
100
AcDbLine
 10
2125.025508086753
 20
518.0935472658123
 30
0.0
 11
2136.657803487452
 21
518.0935472658121
 31
0.0
  0
LINE
  5
2BB8
330
1F
100
AcDbEntity
  8
0
  6
HIDDEN
 62
     3
 48
0.5
100
AcDbLine
 10
2125.025508086753
 20
519.0935472658122
 30
0.0
 11
2136.657803487452
 21
519.0935472658122
 31
0.0
  0
LINE
  5
2BB9
330
1F
100
AcDbEntity
  8
0
  6
HIDDEN
 62
     3
 48
0.5
100
AcDbLine
 10
2124.548257539928
 20
526.5935472658123
 30
0.0
 11
2136.657803487452
 21
526.5935472658123
 31
0.0
  0
DIMENSION
  5
2BBA
330
1F
100
AcDbEntity
  8
AM_5
100
AcDbDimension
  2
*D3
 10
2160.957937373085
 20
578.9561227128467
 30
0.0
 11
2158.457937373084
 21
543.9561227128471
 31
0.0
 70
    32
 71
     5
 42
70.0
  3
AM_ISO$0
100
AcDbAlignedDimension
 13
2136.157803487452
 23
508.9561227128467
 33
0.0
 14
2131.157803487452
 24
578.9561227128467
 34
0.0
 50
90.0
100
AcDbRotatedDimension
1001
ACAD
1000
DSTYLE
1002
{
1070
    40
1040
1.0
1070
   144
1040
1.0
1070
   272
1070
     8
1002
}
  0
DIMENSION
  5
2BBB
330
1F
100
AcDbEntity
  8
AM_5
100
AcDbDimension
  2
*D4
 10
2173.657803487452
 20
608.9561227128466
 30
0.0
 11
2171.157803487452
 21
558.9561227128471
 31
0.0
 70
    32
 71
     5
 42
99.99999999999989
  3
AM_ISO$0
100
AcDbAlignedDimension
 13
2136.157803487452
 23
508.9561227128467
 33
0.0
 14
2160.657803487452
 24
608.9561227128466
 34
0.0
 50
90.0
100
AcDbRotatedDimension
1001
ACAD
1000
DSTYLE
1002
{
1070
    40
1040
1.0
1070
   144
1040
1.0
1070
   272
1070
     8
1002
}
  0
DIMENSION
  5
2BBC
330
1F
100
AcDbEntity
  8
AM_5
100
AcDbDimension
  2
*D5
 10
2074.657803487452
 20
508.9561227128467
 30
0.0
 11
2072.157803487452
 21
520.4561227128471
 31
0.0
 70
    32
 71
     5
 42
23.0
  3
AM_ISO$0
100
AcDbAlignedDimension
 13
2087.157803487452
 23
531.9561227128467
 33
0.0
 14
2087.157803487452
 24
508.9561227128467
 34
0.0
 50
90.0
100
AcDbRotatedDimension
1001
ACAD
1000
DSTYLE
1002
{
1070
    40
1040
1.0
1070
   144
1040
1.0
1070
   272
1070
     8
1002
}
  0
DIMENSION
  5
2BBD
330
1F
100
AcDbEntity
  8
AM_5
100
AcDbDimension
  2
*D6
 10
2173.657803487452
 20
608.9561227128466
 30
0.0
 11
2171.157803487452
 21
618.456122712847
 31
0.0
 70
    32
 71
     5
 42
19.0
  3
AM_ISO$0
100
AcDbAlignedDimension
 13
2160.657803487452
 23
627.9561227128466
 33
0.0
 14
2160.657803487452
 24
608.9561227128466
 34
0.0
 50
90.0
100
AcDbRotatedDimension
1001
ACAD
1000
DSTYLE
1002
{
1070
    40
1040
1.0
1070
   144
1040
1.0
1070
   272
1070
     8
1002
}
  0
DIMENSION
  5
2C9D
102
{ACAD_XDICTIONARY
360
2CAA
102
}
102
{ACAD_REACTORS
330
2CAB
102
}
330
1F
100
AcDbEntity
  8
AM_5
100
AcDbDimension
  2
*D7
 10
2131.657803487452
 20
667.6864898057913
 30
0.0
 11
2111.657803487452
 21
670.1864898057912
 31
0.0
 70
    32
 71
     5
 42
40.0
  3
AM_ISO$0
100
AcDbAlignedDimension
 13
2091.657803487452
 23
679.6864898057913
 33
0.0
 14
2131.657803487452
 24
679.6864898057913
 34
0.0
 50
0.0000000000001018
100
AcDbRotatedDimension
1001
ACAD
1000
DSTYLE
1002
{
1070
    40
1040
1.0
1070
   144
1040
1.0
1070
   272
1070
     8
1002
}
  0
DIMENSION
  5
2CF7
102
{ACAD_XDICTIONARY
360
2D04
102
}
102
{ACAD_REACTORS
330
2D05
102
}
330
1F
100
AcDbEntity
  8
AM_5
100
AcDbDimension
  2
*D8
 10
2136.657803487452
 20
657.6864898057897
 30
0.0
 11
2111.657803487452
 21
660.1864898057897
 31
0.0
 70
    32
 71
     5
 42
50.0
  3
AM_ISO$0
100
AcDbAlignedDimension
 13
2086.657803487452
 23
681.9364898057913
 33
0.0
 14
2136.657803487452
 24
681.9364898057913
 34
0.0
 50
0.0000000000001018
100
AcDbRotatedDimension
1001
ACAD
1000
DSTYLE
1002
{
1070
    40
1040
1.0
1070
   144
1040
1.0
1070
   272
1070
     8
1002
}
  0
DIMENSION
  5
2D1D
102
{ACAD_XDICTIONARY
360
2D2A
102
}
102
{ACAD_REACTORS
330
2D2B
102
}
330
1F
100
AcDbEntity
  8
AM_5
100
AcDbDimension
  2
*D9
 10
2161.657803487452
 20
647.6864898057881
 30
0.0
 11
2111.657803487452
 21
650.1864898057881
 31
0.0
 70
    32
 71
     5
 42
100.0
  3
AM_ISO$0
100
AcDbAlignedDimension
 13
2061.657803487452
 23
696.4364898057913
 33
0.0
 14
2161.657803487452
 24
696.4364898057913
 34
0.0
 50
0.0000000000001018
100
AcDbRotatedDimension
1001
ACAD
1000
DSTYLE
1002
{
1070
    40
1040
1.0
1070
   144
1040
1.0
1070
   272
1070
     8
1002
}
  0
LINE
  5
2DC7
330
1F
100
AcDbEntity
  8
0
100
AcDbLine
 10
2457.976583508878
 20
508.9561227128467
 30
0.0
 11
2510.976583508878
 21
508.9561227128467
 31
0.0
  0
LINE
  5
2DC8
330
1F
100
AcDbEntity
  8
0
100
AcDbLine
 10
2457.976583508878
 20
533.9561227128467
 30
0.0
 11
2510.976583508878
 21
533.9561227128467
 31
0.0
  0
LINE
  5
2DC9
330
1F
100
AcDbEntity
  8
0
100
AcDbLine
 10
2461.476583508878
 20
584.9561227128467
 30
0.0
 11
2507.476583508879
 21
584.9561227128467
 31
0.0
  0
LINE
  5
2DCA
330
1F
100
AcDbEntity
  8
0
100
AcDbLine
 10
2509.476583508878
 20
582.9561227128468
 30
0.0
 11
2509.476583508878
 21
533.9561227128467
 31
0.0
  0
LINE
  5
2DCB
330
1F
100
AcDbEntity
  8
0
100
AcDbLine
 10
2459.476583508878
 20
582.9561227128468
 30
0.0
 11
2459.476583508878
 21
533.9561227128467
 31
0.0
  0
LINE
  5
2DCC
330
1F
100
AcDbEntity
  8
0
100
AcDbLine
 10
2494.476583508879
 20
619.9561227128468
 30
0.0
 11
2494.476583508879
 21
584.9561227128467
 31
0.0
  0
LINE
  5
2DCD
330
1F
100
AcDbEntity
  8
0
100
AcDbLine
 10
2474.476583508879
 20
619.9561227128468
 30
0.0
 11
2474.476583508879
 21
584.9561227128467
 31
0.0
  0
LINE
  5
2DCE
330
1F
100
AcDbEntity
  8
0
100
AcDbLine
 10
2509.476583508878
 20
582.9561227128468
 30
0.0
 11
2507.476583508879
 21
584.9561227128467
 31
0.0
  0
LINE
  5
2DCF
330
1F
100
AcDbEntity
  8
0
100
AcDbLine
 10
2461.476583508878
 20
584.9561227128467
 30
0.0
 11
2459.476583508878
 21
582.9561227128468
 31
0.0
  0
ARC
  5
2DD1
330
1F
100
AcDbEntity
  8
0
100
AcDbCircle
 10
2484.479733431104
 20
724.358037385897
 30
0.0
 40
25.0
100
AcDbArc
 50
206.1038811373278
 51
333.8961188626664
  0
CIRCLE
  5
2DD3
330
1F
100
AcDbEntity
  8
0
100
AcDbCircle
 10
2462.479733431103
 20
702.3580373858969
 30
0.0
 40
3.25
  0
CIRCLE
  5
2DD4
330
1F
100
AcDbEntity
  8
0
100
AcDbCircle
 10
2462.479733431103
 20
746.3580373858969
 30
0.0
 40
3.25
  0
CIRCLE
  5
2DD7
330
1F
100
AcDbEntity
  8
0
100
AcDbCircle
 10
2506.479733431103
 20
702.3580373858969
 30
0.0
 40
3.25
  0
CIRCLE
  5
2DD8
102
{ACAD_REACTORS
330
37C0
102
}
330
1F
100
AcDbEntity
  8
0
100
AcDbCircle
 10
2506.479733431103
 20
746.3580373858969
 30
0.0
 40
3.25
  0
LINE
  5
2DD9
330
1F
100
AcDbEntity
  8
0
100
AcDbLine
 10
2425.479733431104
 20
735.3580373858969
 30
0.0
 11
2543.479733431104
 21
735.3580373858969
 31
0.0
  0
LINE
  5
2DDA
330
1F
100
AcDbEntity
  8
0
100
AcDbLine
 10
2425.479733431104
 20
713.3580373858969
 30
0.0
 11
2543.479733431104
 21
713.3580373858969
 31
0.0
  0
LINE
  5
2DDB
330
1F
100
AcDbEntity
  8
0
100
AcDbLine
 10
2544.479733431103
 20
714.3580373858969
 30
0.0
 11
2544.479733431103
 21
734.3580373858969
 31
0.0
  0
LINE
  5
2DDC
330
1F
100
AcDbEntity
  8
0
100
AcDbLine
 10
2424.479733431104
 20
714.3580373858969
 30
0.0
 11
2424.479733431104
 21
734.3580373858969
 31
0.0
  0
LINE
  5
2DDD
330
1F
100
AcDbEntity
  8
0
100
AcDbLine
 10
2471.979733431103
 20
729.3580373858969
 30
0.0
 11
2496.979733431104
 21
729.3580373858969
 31
0.0
  0
LINE
  5
2DDE
330
1F
100
AcDbEntity
  8
0
100
AcDbLine
 10
2471.979733431103
 20
719.358037385897
 30
0.0
 11
2496.979733431104
 21
719.358037385897
 31
0.0
  0
LINE
  5
2DDF
102
{ACAD_REACTORS
330
3759
102
}
330
1F
100
AcDbEntity
  8
0
100
AcDbLine
 10
2543.479733431104
 20
735.3580373858969
 30
0.0
 11
2544.479733431103
 21
734.3580373858969
 31
0.0
  0
LINE
  5
2DE0
102
{ACAD_REACTORS
330
3759
102
}
330
1F
100
AcDbEntity
  8
0
100
AcDbLine
 10
2544.479733431103
 20
714.3580373858969
 30
0.0
 11
2543.479733431104
 21
713.3580373858969
 31
0.0
  0
LINE
  5
2DE1
330
1F
100
AcDbEntity
  8
0
100
AcDbLine
 10
2425.479733431104
 20
713.3580373858969
 30
0.0
 11
2424.479733431104
 21
714.3580373858969
 31
0.0
  0
LINE
  5
2DE2
330
1F
100
AcDbEntity
  8
0
100
AcDbLine
 10
2424.479733431104
 20
734.3580373858969
 30
0.0
 11
2425.479733431104
 21
735.3580373858969
 31
0.0
  0
ARC
  5
2DE3
330
1F
100
AcDbEntity
  8
0
100
AcDbCircle
 10
2471.979733431103
 20
724.358037385897
 30
0.0
 40
5.0
100
AcDbArc
 50
90.0
 51
270.0
  0
ARC
  5
2DE4
330
1F
100
AcDbEntity
  8
0
100
AcDbCircle
 10
2496.979733431104
 20
724.358037385897
 30
0.0
 40
5.0
100
AcDbArc
 50
270.0
 51
90.0
  0
ARC
  5
2DE5
330
1F
100
AcDbEntity
  8
0
100
AcDbCircle
 10
2484.479733431104
 20
724.358037385897
 30
0.0
 40
10.0
100
AcDbArc
 50
330.0000000000027
 51
29.99999999999729
  0
ARC
  5
2DE6
330
1F
100
AcDbEntity
  8
0
100
AcDbCircle
 10
2484.479733431104
 20
724.358037385897
 30
0.0
 40
10.0
100
AcDbArc
 50
150.0000000000027
 51
209.9999999999973
  0
ARC
  5
2DE7
330
1F
100
AcDbEntity
  8
0
100
AcDbCircle
 10
2484.479733431104
 20
724.358037385897
 30
0.0
 40
25.0
100
AcDbArc
 50
26.10388113732777
 51
153.8961188626722
  0
LINE
  5
2DE8
330
1F
100
AcDbEntity
  8
0
100
AcDbLine
 10
2425.476583508878
 20
619.9561227128468
 30
0.0
 11
2543.476583508879
 21
619.9561227128468
 31
0.0
  0
LINE
  5
2DE9
330
1F
100
AcDbEntity
  8
0
100
AcDbLine
 10
2425.476583508878
 20
641.9561227128467
 30
0.0
 11
2543.476583508879
 21
641.9561227128467
 31
0.0
  0
LINE
  5
2DEA
330
1F
100
AcDbEntity
  8
0
100
AcDbLine
 10
2424.476583508879
 20
620.9561227128467
 30
0.0
 11
2424.476583508879
 21
640.9561227128468
 31
0.0
  0
LINE
  5
2DEB
330
1F
100
AcDbEntity
  8
0
100
AcDbLine
 10
2424.476583508879
 20
640.9561227128468
 30
0.0
 11
2425.476583508878
 21
641.9561227128467
 31
0.0
  0
LINE
  5
2DEC
330
1F
100
AcDbEntity
  8
0
100
AcDbLine
 10
2544.476583508878
 20
620.9561227128467
 30
0.0
 11
2544.476583508878
 21
640.9561227128468
 31
0.0
  0
LINE
  5
2DED
330
1F
100
AcDbEntity
  8
0
100
AcDbLine
 10
2544.476583508878
 20
620.9561227128467
 30
0.0
 11
2543.476583508879
 21
619.9561227128468
 31
0.0
  0
LINE
  5
2DEE
330
1F
100
AcDbEntity
  8
0
100
AcDbLine
 10
2543.476583508879
 20
641.9561227128467
 30
0.0
 11
2544.476583508878
 21
640.9561227128468
 31
0.0
  0
CIRCLE
  5
2DEF
330
1F
100
AcDbEntity
  8
0
100
AcDbCircle
 10
2484.476583508878
 20
630.9561227128467
 30
0.0
 40
4.0
  0
POLYLINE
  5
2DF1
330
1F
100
AcDbEntity
  8
0
100
AcDb2dPolyline
 66
     1
 10
0.0
 20
0.0
 30
0.0
  0
VERTEX
  5
2DF2
330
2DF1
100
AcDbEntity
  8
0
100
AcDbVertex
100
AcDb2dVertex
 10
2456.979733431103
 20
735.3580373858969
 30
0.0
  0
VERTEX
  5
2DF3
330
2DF1
100
AcDbEntity
  8
0
100
AcDbVertex
100
AcDb2dVertex
 10
2456.979733431103
 20
749.5651441670834
 30
0.0
  0
VERTEX
  5
2DF4
330
2DF1
100
AcDbEntity
  8
0
100
AcDbVertex
100
AcDb2dVertex
 10
2459.272626649917
 20
751.8580373858969
 30
0.0
  0
VERTEX
  5
2DF5
330
2DF1
100
AcDbEntity
  8
0
100
AcDbVertex
100
AcDb2dVertex
 10
2509.68684021229
 20
751.8580373858969
 30
0.0
  0
VERTEX
  5
2DF6
330
2DF1
100
AcDbEntity
  8
0
100
AcDbVertex
100
AcDb2dVertex
 10
2511.979733431104
 20
749.5651441670834
 30
0.0
  0
VERTEX
  5
2DF7
330
2DF1
100
AcDbEntity
  8
0
100
AcDbVertex
100
AcDb2dVertex
 10
2511.979733431104
 20
735.3580373858969
 30
0.0
  0
SEQEND
  5
2DF8
330
2DF1
100
AcDbEntity
  8
0
  0
POLYLINE
  5
2DF9
330
1F
100
AcDbEntity
  8
0
100
AcDb2dPolyline
 66
     1
 10
0.0
 20
0.0
 30
0.0
  0
VERTEX
  5
2DFA
330
2DF9
100
AcDbEntity
  8
0
100
AcDbVertex
100
AcDb2dVertex
 10
2511.979733431104
 20
713.3580373858969
 30
0.0
  0
VERTEX
  5
2DFB
330
2DF9
100
AcDbEntity
  8
0
100
AcDbVertex
100
AcDb2dVertex
 10
2511.979733431104
 20
699.1509306047105
 30
0.0
  0
VERTEX
  5
2DFC
330
2DF9
100
AcDbEntity
  8
0
100
AcDbVertex
100
AcDb2dVertex
 10
2509.68684021229
 20
696.8580373858969
 30
0.0
  0
VERTEX
  5
2DFD
330
2DF9
100
AcDbEntity
  8
0
100
AcDbVertex
100
AcDb2dVertex
 10
2459.272626649917
 20
696.8580373858969
 30
0.0
  0
VERTEX
  5
2DFE
330
2DF9
100
AcDbEntity
  8
0
100
AcDbVertex
100
AcDb2dVertex
 10
2456.979733431103
 20
699.1509306047105
 30
0.0
  0
VERTEX
  5
2DFF
330
2DF9
100
AcDbEntity
  8
0
100
AcDbVertex
100
AcDb2dVertex
 10
2456.979733431103
 20
713.3580373858969
 30
0.0
  0
SEQEND
  5
2E00
330
2DF9
100
AcDbEntity
  8
0
  0
LINE
  5
2E01
330
1F
100
AcDbEntity
  8
0
100
AcDbLine
 10
2456.976583508879
 20
532.9561227128468
 30
0.0
 11
2456.976583508879
 21
509.9561227128467
 31
0.0
  0
LINE
  5
2E02
330
1F
100
AcDbEntity
  8
0
100
AcDbLine
 10
2511.976583508879
 20
532.9561227128468
 30
0.0
 11
2511.976583508879
 21
509.9561227128467
 31
0.0
  0
LINE
  5
2E03
330
1F
100
AcDbEntity
  8
0
100
AcDbLine
 10
2456.976583508879
 20
532.9561227128468
 30
0.0
 11
2457.976583508878
 21
533.9561227128467
 31
0.0
  0
LINE
  5
2E04
330
1F
100
AcDbEntity
  8
0
100
AcDbLine
 10
2456.976583508879
 20
509.9561227128467
 30
0.0
 11
2457.976583508878
 21
508.9561227128467
 31
0.0
  0
LINE
  5
2E05
330
1F
100
AcDbEntity
  8
0
100
AcDbLine
 10
2510.976583508878
 20
533.9561227128467
 30
0.0
 11
2511.976583508879
 21
532.9561227128468
 31
0.0
  0
LINE
  5
2E06
330
1F
100
AcDbEntity
  8
0
100
AcDbLine
 10
2511.976583508879
 20
509.9561227128467
 30
0.0
 11
2510.976583508878
 21
508.9561227128467
 31
0.0
  0
LINE
  5
2E09
330
1F
100
AcDbEntity
  8
0
100
AcDbLine
 10
2424.476583508879
 20
620.9561227128467
 30
0.0
 11
2425.476583508878
 21
619.9561227128468
 31
0.0
  0
LINE
  5
2E0A
330
1F
100
AcDbEntity
  8
0
  6
HIDDEN
 62
     3
 48
0.5
100
AcDbLine
 10
2497.508099305548
 20
580.6313424971494
 30
0.0
 11
2509.476583508878
 21
580.6313424971494
 31
0.0
  0
LINE
  5
2E0B
330
1F
100
AcDbEntity
  8
0
  6
HIDDEN
 62
     3
 48
0.5
100
AcDbLine
 10
2497.985349852374
 20
571.1313424971494
 30
0.0
 11
2509.476583508878
 21
571.1313424971494
 31
0.0
  0
LINE
  5
2E0C
330
1F
100
AcDbEntity
  8
0
  6
HIDDEN
 62
     3
 48
0.5
100
AcDbLine
 10
2497.985349852374
 20
572.1313424971494
 30
0.0
 11
2509.476583508878
 21
572.1313424971496
 31
0.0
  0
LINE
  5
2E0D
330
1F
100
AcDbEntity
  8
0
  6
HIDDEN
 62
     3
 48
0.5
100
AcDbLine
 10
2497.508099305548
 20
579.6313424971494
 30
0.0
 11
2509.476583508878
 21
579.6313424971494
 31
0.0
  0
LINE
  5
2E0E
330
1F
100
AcDbEntity
  8
0
  6
HIDDEN
 62
     3
 48
0.5
100
AcDbLine
 10
2499.903122895283
 20
529.0754776433686
 30
0.0
 11
2511.976583508879
 21
529.0754776433686
 31
0.0
  0
LINE
  5
2E0F
330
1F
100
AcDbEntity
  8
0
  6
HIDDEN
 62
     3
 48
0.5
100
AcDbLine
 10
2500.380373442108
 20
519.5754776433687
 30
0.0
 11
2511.976583508879
 21
519.5754776433687
 31
0.0
  0
LINE
  5
2E10
330
1F
100
AcDbEntity
  8
0
  6
HIDDEN
 62
     3
 48
0.5
100
AcDbLine
 10
2500.380373442108
 20
520.5754776433686
 30
0.0
 11
2511.976583508879
 21
520.5754776433686
 31
0.0
  0
LINE
  5
2E11
330
1F
100
AcDbEntity
  8
0
  6
HIDDEN
 62
     3
 48
0.5
100
AcDbLine
 10
2499.903122895283
 20
528.0754776433687
 30
0.0
 11
2511.976583508879
 21
528.0754776433687
 31
0.0
  0
LINE
  5
2E1F
330
1F
100
AcDbEntity
  8
AM_7
100
AcDbLine
 10
2484.479733431104
 20
724.358037385897
 30
0.0
 11
2547.394717317427
 21
724.358037385897
 31
0.0
1001
GENIUS_GENOREF_13
1005
2E23
  0
LINE
  5
2E20
330
1F
100
AcDbEntity
  8
AM_7
100
AcDbLine
 10
2484.479733431104
 20
724.358037385897
 30
0.0
 11
2484.479733431104
 21
753.858037385897
 31
0.0
1001
GENIUS_GENOREF_13
1005
2E23
  0
LINE
  5
2E21
330
1F
100
AcDbEntity
  8
AM_7
100
AcDbLine
 10
2484.479733431104
 20
724.358037385897
 30
0.0
 11
2421.06513182742
 21
724.358037385897
 31
0.0
1001
GENIUS_GENOREF_13
1005
2E23
  0
LINE
  5
2E22
330
1F
100
AcDbEntity
  8
AM_7
100
AcDbLine
 10
2484.479733431104
 20
724.358037385897
 30
0.0
 11
2484.479733431104
 21
694.858037385897
 31
0.0
1001
GENIUS_GENOREF_13
1005
2E23
  0
POINT
  5
2E23
330
1F
100
AcDbEntity
  8
0
 60
     1
100
AcDbPoint
 10
0.0
 20
0.0
 30
0.0
1001
GENIUS_GENOLIS_13
1002
{
1000
ENT
1005
2E22
1005
2E21
1005
2E20
1005
2E1F
1002
}
1001
GENIUS_GENOBJ-N-CRS_13
1002
{
1000
OWNER
1000
GEN
1002
}
1001
GENIUS_GENOENT_13
1002
{
1000
MYREF
1005
2E23
1002
}
1002
{
1000
GRP
1005
0
1002
}
1001
GENIUS_GENODEF_13
1002
{
1000
HIER
1070
    10
1002
}
1002
{
1000
MANEDIT
1070
     0
1002
}
1002
{
1000
NOSEL
1070
     0
1002
}
1002
{
1000
BEHIND
1070
     0
1002
}
1002
{
1000
OTHER
1070
     0
1002
}
1002
{
1000
REACTOR
1002
}
  0
LINE
  5
2E31
330
1F
100
AcDbEntity
  8
AM_7
  6
AM_ISO08W050x2
100
AcDbLine
 10
2462.479733431103
 20
746.3580373858969
 30
0.0
 11
2467.729733431104
 21
746.3580373858969
 31
0.0
1001
GENIUS_GENOREF_13
1005
2E35
  0
LINE
  5
2E32
330
1F
100
AcDbEntity
  8
AM_7
  6
AM_ISO08W050x2
100
AcDbLine
 10
2462.479733431103
 20
746.3580373858969
 30
0.0
 11
2462.479733431103
 21
751.608037385897
 31
0.0
1001
GENIUS_GENOREF_13
1005
2E35
  0
LINE
  5
2E33
330
1F
100
AcDbEntity
  8
AM_7
  6
AM_ISO08W050x2
100
AcDbLine
 10
2462.479733431103
 20
746.3580373858969
 30
0.0
 11
2457.229733431104
 21
746.3580373858969
 31
0.0
1001
GENIUS_GENOREF_13
1005
2E35
  0
LINE
  5
2E34
330
1F
100
AcDbEntity
  8
AM_7
  6
AM_ISO08W050x2
100
AcDbLine
 10
2462.479733431103
 20
746.3580373858969
 30
0.0
 11
2462.479733431103
 21
741.1080373858969
 31
0.0
1001
GENIUS_GENOREF_13
1005
2E35
  0
POINT
  5
2E35
330
1F
100
AcDbEntity
  8
0
 60
     1
100
AcDbPoint
 10
0.0
 20
0.0
 30
0.0
1001
GENIUS_GENODEF_13
1002
{
1000
HIER
1070
    10
1002
}
1002
{
1000
MANEDIT
1070
     0
1002
}
1002
{
1000
NOSEL
1070
     0
1002
}
1002
{
1000
BEHIND
1070
     0
1002
}
1002
{
1000
OTHER
1070
     0
1002
}
1002
{
1000
REACTOR
1002
}
1001
GENIUS_GENOLIS_13
1002
{
1000
ENT
1005
2E34
1005
2E33
1005
2E32
1005
2E31
1002
}
1001
GENIUS_GENOENT_13
1002
{
1000
MYREF
1005
2E35
1002
}
1002
{
1000
GRP
1005
0
1002
}
1001
GENIUS_GENOBJ-N-CRS_13
1002
{
1000
OWNER
1000
GEN
1002
}
  0
LINE
  5
2E43
330
1F
100
AcDbEntity
  8
AM_7
  6
AM_ISO08W050x2
100
AcDbLine
 10
2506.479733431103
 20
746.3580373858969
 30
0.0
 11
2511.729733431103
 21
746.3580373858969
 31
0.0
1001
GENIUS_GENOREF_13
1005
2E47
  0
LINE
  5
2E44
330
1F
100
AcDbEntity
  8
AM_7
  6
AM_ISO08W050x2
100
AcDbLine
 10
2506.479733431103
 20
746.3580373858969
 30
0.0
 11
2506.479733431103
 21
751.608037385897
 31
0.0
1001
GENIUS_GENOREF_13
1005
2E47
  0
LINE
  5
2E45
330
1F
100
AcDbEntity
  8
AM_7
  6
AM_ISO08W050x2
100
AcDbLine
 10
2506.479733431103
 20
746.3580373858969
 30
0.0
 11
2501.229733431103
 21
746.3580373858969
 31
0.0
1001
GENIUS_GENOREF_13
1005
2E47
  0
LINE
  5
2E46
330
1F
100
AcDbEntity
  8
AM_7
  6
AM_ISO08W050x2
100
AcDbLine
 10
2506.479733431103
 20
746.3580373858969
 30
0.0
 11
2506.479733431103
 21
741.1080373858969
 31
0.0
1001
GENIUS_GENOREF_13
1005
2E47
  0
POINT
  5
2E47
330
1F
100
AcDbEntity
  8
0
 60
     1
100
AcDbPoint
 10
0.0
 20
0.0
 30
0.0
1001
GENIUS_GENOENT_13
1002
{
1000
MYREF
1005
2E47
1002
}
1002
{
1000
GRP
1005
0
1002
}
1001
GENIUS_GENOBJ-N-CRS_13
1002
{
1000
OWNER
1000
GEN
1002
}
1001
GENIUS_GENOLIS_13
1002
{
1000
ENT
1005
2E46
1005
2E45
1005
2E44
1005
2E43
1002
}
1001
GENIUS_GENODEF_13
1002
{
1000
HIER
1070
    10
1002
}
1002
{
1000
MANEDIT
1070
     0
1002
}
1002
{
1000
NOSEL
1070
     0
1002
}
1002
{
1000
BEHIND
1070
     0
1002
}
1002
{
1000
OTHER
1070
     0
1002
}
1002
{
1000
REACTOR
1002
}
  0
LINE
  5
2E55
330
1F
100
AcDbEntity
  8
AM_7
  6
AM_ISO08W050x2
100
AcDbLine
 10
2506.479733431103
 20
702.3580373858969
 30
0.0
 11
2511.729733431103
 21
702.3580373858969
 31
0.0
1001
GENIUS_GENOREF_13
1005
2E59
  0
LINE
  5
2E56
330
1F
100
AcDbEntity
  8
AM_7
  6
AM_ISO08W050x2
100
AcDbLine
 10
2506.479733431103
 20
702.3580373858969
 30
0.0
 11
2506.479733431103
 21
707.6080373858969
 31
0.0
1001
GENIUS_GENOREF_13
1005
2E59
  0
LINE
  5
2E57
330
1F
100
AcDbEntity
  8
AM_7
  6
AM_ISO08W050x2
100
AcDbLine
 10
2506.479733431103
 20
702.3580373858969
 30
0.0
 11
2501.229733431103
 21
702.3580373858969
 31
0.0
1001
GENIUS_GENOREF_13
1005
2E59
  0
LINE
  5
2E58
330
1F
100
AcDbEntity
  8
AM_7
  6
AM_ISO08W050x2
100
AcDbLine
 10
2506.479733431103
 20
702.3580373858969
 30
0.0
 11
2506.479733431103
 21
697.108037385897
 31
0.0
1001
GENIUS_GENOREF_13
1005
2E59
  0
POINT
  5
2E59
330
1F
100
AcDbEntity
  8
0
 60
     1
100
AcDbPoint
 10
0.0
 20
0.0
 30
0.0
1001
GENIUS_GENOLIS_13
1002
{
1000
ENT
1005
2E58
1005
2E57
1005
2E56
1005
2E55
1002
}
1001
GENIUS_GENODEF_13
1002
{
1000
HIER
1070
    10
1002
}
1002
{
1000
MANEDIT
1070
     0
1002
}
1002
{
1000
NOSEL
1070
     0
1002
}
1002
{
1000
BEHIND
1070
     0
1002
}
1002
{
1000
OTHER
1070
     0
1002
}
1002
{
1000
REACTOR
1002
}
1001
GENIUS_GENOBJ-N-CRS_13
1002
{
1000
OWNER
1000
GEN
1002
}
1001
GENIUS_GENOENT_13
1002
{
1000
MYREF
1005
2E59
1002
}
1002
{
1000
GRP
1005
0
1002
}
  0
LINE
  5
2E67
330
1F
100
AcDbEntity
  8
AM_7
  6
AM_ISO08W050x2
100
AcDbLine
 10
2462.479733431103
 20
702.3580373858969
 30
0.0
 11
2467.729733431104
 21
702.3580373858969
 31
0.0
1001
GENIUS_GENOREF_13
1005
2E6B
  0
LINE
  5
2E68
330
1F
100
AcDbEntity
  8
AM_7
  6
AM_ISO08W050x2
100
AcDbLine
 10
2462.479733431103
 20
702.3580373858969
 30
0.0
 11
2462.479733431103
 21
707.6080373858969
 31
0.0
1001
GENIUS_GENOREF_13
1005
2E6B
  0
LINE
  5
2E69
330
1F
100
AcDbEntity
  8
AM_7
  6
AM_ISO08W050x2
100
AcDbLine
 10
2462.479733431103
 20
702.3580373858969
 30
0.0
 11
2457.229733431104
 21
702.3580373858969
 31
0.0
1001
GENIUS_GENOREF_13
1005
2E6B
  0
LINE
  5
2E6A
330
1F
100
AcDbEntity
  8
AM_7
  6
AM_ISO08W050x2
100
AcDbLine
 10
2462.479733431103
 20
702.3580373858969
 30
0.0
 11
2462.479733431103
 21
697.108037385897
 31
0.0
1001
GENIUS_GENOREF_13
1005
2E6B
  0
POINT
  5
2E6B
330
1F
100
AcDbEntity
  8
0
 60
     1
100
AcDbPoint
 10
0.0
 20
0.0
 30
0.0
1001
GENIUS_GENOBJ-N-CRS_13
1002
{
1000
OWNER
1000
GEN
1002
}
1001
GENIUS_GENOLIS_13
1002
{
1000
ENT
1005
2E6A
1005
2E69
1005
2E68
1005
2E67
1002
}
1001
GENIUS_GENOENT_13
1002
{
1000
MYREF
1005
2E6B
1002
}
1002
{
1000
GRP
1005
0
1002
}
1001
GENIUS_GENODEF_13
1002
{
1000
HIER
1070
    10
1002
}
1002
{
1000
MANEDIT
1070
     0
1002
}
1002
{
1000
NOSEL
1070
     0
1002
}
1002
{
1000
BEHIND
1070
     0
1002
}
1002
{
1000
OTHER
1070
     0
1002
}
1002
{
1000
REACTOR
1002
}
  0
LINE
  5
2E78
330
1F
100
AcDbEntity
  8
AM_7
100
AcDbLine
 10
2484.476583508878
 20
643.9561227128467
 30
0.0
 11
2484.476583508878
 21
506.9561227128467
 31
0.0
1001
GENIUS_GENOBJ-N-CEN_13
1002
{
1000
OWNER
1000
GEN
1002
}
1001
GENIUS_GENODEF_13
1002
{
1000
HIER
1070
     0
1002
}
1002
{
1000
MANEDIT
1070
     0
1002
}
1002
{
1000
NOSEL
1070
     0
1002
}
1002
{
1000
BEHIND
1070
     0
1002
}
1002
{
1000
OTHER
1070
     0
1002
}
1002
{
1000
REACTOR
1002
}
1001
GENIUS_GENCEN_19
1002
{
1040
2.0
1002
}
  0
DIMENSION
  5
2E98
330
1F
100
AcDbEntity
  8
AM_5
100
AcDbDimension
  2
*D10
 10
2533.776717394511
 20
584.9561227128467
 30
0.0
 11
2531.276717394511
 21
546.9561227128472
 31
0.0
 70
    32
 71
     5
 42
76.0
  3
AM_ISO$0
100
AcDbAlignedDimension
 13
2510.976583508878
 23
508.9561227128467
 33
0.0
 14
2507.476583508879
 24
584.9561227128467
 34
0.0
 50
90.0
100
AcDbRotatedDimension
1001
ACAD
1000
DSTYLE
1002
{
1070
    40
1040
1.0
1070
   144
1040
1.0
1070
   272
1070
     8
1002
}
  0
DIMENSION
  5
2E99
330
1F
100
AcDbEntity
  8
AM_5
100
AcDbDimension
  2
*D11
 10
2556.476583508878
 20
619.9561227128468
 30
0.0
 11
2553.976583508879
 21
564.4561227128471
 31
0.0
 70
    32
 71
     5
 42
111.0
  3
AM_ISO$0
100
AcDbAlignedDimension
 13
2510.976583508878
 23
508.9561227128467
 33
0.0
 14
2543.476583508879
 24
619.9561227128468
 34
0.0
 50
90.0
100
AcDbRotatedDimension
1001
ACAD
1000
DSTYLE
1002
{
1070
    40
1040
1.0
1070
   144
1040
1.0
1070
   272
1070
     8
1002
}
  0
DIMENSION
  5
2E9A
330
1F
100
AcDbEntity
  8
AM_5
100
AcDbDimension
  2
*D12
 10
2447.476583508878
 20
508.9561227128467
 30
0.0
 11
2444.976583508879
 21
521.4561227128472
 31
0.0
 70
    32
 71
     5
 42
25.0
  3
AM_ISO$0
100
AcDbAlignedDimension
 13
2457.976583508878
 23
533.9561227128467
 33
0.0
 14
2457.976583508878
 24
508.9561227128467
 34
0.0
 50
90.0
100
AcDbRotatedDimension
1001
ACAD
1000
DSTYLE
1002
{
1070
    40
1040
1.0
1070
   144
1040
1.0
1070
   272
1070
     8
1002
}
  0
DIMENSION
  5
2E9B
330
1F
100
AcDbEntity
  8
AM_5
100
AcDbDimension
  2
*D13
 10
2556.476583508878
 20
619.9561227128468
 30
0.0
 11
2553.976583508879
 21
630.9561227128472
 31
0.0
 70
    32
 71
     5
 42
22.0
  3
AM_ISO$0
100
AcDbAlignedDimension
 13
2543.476583508879
 23
641.9561227128467
 33
0.0
 14
2543.476583508879
 24
619.9561227128468
 34
0.0
 50
90.0
100
AcDbRotatedDimension
1001
ACAD
1000
DSTYLE
1002
{
1070
    40
1040
1.0
1070
   144
1040
1.0
1070
   272
1070
     8
1002
}
  0
DIMENSION
  5
2F50
330
1F
100
AcDbEntity
  8
AM_5
100
AcDbDimension
  2
*D14
 10
2506.479733431103
 20
684.8580373858969
 30
0.0
 11
2484.479733431104
 21
687.358037385897
 31
0.0
 70
    32
 71
     5
 42
44.0
  3
AM_ISO$0
100
AcDbAlignedDimension
 13
2462.479733431103
 23
697.108037385897
 33
0.0
 14
2506.479733431103
 24
697.108037385897
 34
0.0
100
AcDbRotatedDimension
1001
ACAD
1000
DSTYLE
1002
{
1070
    40
1040
1.0
1070
   144
1040
1.0
1070
   272
1070
     8
1002
}
  0
DIMENSION
  5
2F53
330
1F
100
AcDbEntity
  8
AM_5
100
AcDbDimension
  2
*D15
 10
2511.979733431104
 20
674.858037385897
 30
0.0
 11
2484.479733431104
 21
677.3580373858969
 31
0.0
 70
    32
 71
     5
 42
55.0
  3
AM_ISO$0
100
AcDbAlignedDimension
 13
2456.979733431103
 23
699.1509306047105
 33
0.0
 14
2511.979733431104
 24
699.1509306047105
 34
0.0
100
AcDbRotatedDimension
1001
ACAD
1000
DSTYLE
1002
{
1070
    40
1040
1.0
1070
   144
1040
1.0
1070
   272
1070
     8
1002
}
  0
DIMENSION
  5
2F56
330
1F
100
AcDbEntity
  8
AM_5
100
AcDbDimension
  2
*D16
 10
2544.479733431103
 20
664.8580373858971
 30
0.0
 11
2484.479733431104
 21
667.358037385897
 31
0.0
 70
    32
 71
     5
 42
120.0
  3
AM_ISO$0
100
AcDbAlignedDimension
 13
2424.479733431104
 23
714.3580373858969
 33
0.0
 14
2544.479733431103
 24
714.3580373858969
 34
0.0
100
AcDbRotatedDimension
1001
ACAD
1000
DSTYLE
1002
{
1070
    40
1040
1.0
1070
   144
1040
1.0
1070
   272
1070
     8
1002
}
  0
LINE
  5
3055
330
1F
100
AcDbEntity
  8
0
100
AcDbLine
 10
2806.70617379079
 20
508.9561227128467
 30
0.0
 11
2867.70617379079
 21
508.9561227128467
 31
0.0
  0
LINE
  5
3056
330
1F
100
AcDbEntity
  8
0
100
AcDbLine
 10
2806.70617379079
 20
535.9561227128467
 30
0.0
 11
2867.70617379079
 21
535.9561227128467
 31
0.0
  0
LINE
  5
3057
330
1F
100
AcDbEntity
  8
0
100
AcDbLine
 10
2812.70617379079
 20
588.9561227128467
 30
0.0
 11
2861.706173790791
 21
588.9561227128467
 31
0.0
  0
LINE
  5
3058
330
1F
100
AcDbEntity
  8
0
100
AcDbLine
 10
2868.20617379079
 20
535.4561227128467
 30
0.0
 11
2868.20617379079
 21
509.4561227128467
 31
0.0
  0
LINE
  5
3059
330
1F
100
AcDbEntity
  8
0
100
AcDbLine
 10
2806.206173790791
 20
535.4561227128467
 30
0.0
 11
2806.206173790791
 21
509.4561227128467
 31
0.0
  0
LINE
  5
305A
330
1F
100
AcDbEntity
  8
0
100
AcDbLine
 10
2863.70617379079
 20
586.9561227128468
 30
0.0
 11
2863.70617379079
 21
535.9561227128467
 31
0.0
  0
LINE
  5
305B
330
1F
100
AcDbEntity
  8
0
100
AcDbLine
 10
2810.70617379079
 20
586.9561227128468
 30
0.0
 11
2810.70617379079
 21
535.9561227128467
 31
0.0
  0
LINE
  5
305C
330
1F
100
AcDbEntity
  8
0
100
AcDbLine
 10
2867.70617379079
 20
508.9561227128467
 30
0.0
 11
2868.20617379079
 21
509.4561227128467
 31
0.0
  0
LINE
  5
305D
330
1F
100
AcDbEntity
  8
0
100
AcDbLine
 10
2868.20617379079
 20
535.4561227128467
 30
0.0
 11
2867.70617379079
 21
535.9561227128467
 31
0.0
  0
LINE
  5
305E
330
1F
100
AcDbEntity
  8
0
100
AcDbLine
 10
2806.70617379079
 20
535.9561227128467
 30
0.0
 11
2806.206173790791
 21
535.4561227128467
 31
0.0
  0
LINE
  5
305F
330
1F
100
AcDbEntity
  8
0
100
AcDbLine
 10
2806.206173790791
 20
509.4561227128467
 30
0.0
 11
2806.70617379079
 21
508.9561227128467
 31
0.0
  0
LINE
  5
3060
330
1F
100
AcDbEntity
  8
0
100
AcDbLine
 10
2847.206173790791
 20
622.5561227128467
 30
0.0
 11
2847.206173790791
 21
588.9561227128467
 31
0.0
  0
LINE
  5
3061
330
1F
100
AcDbEntity
  8
0
100
AcDbLine
 10
2827.20617379079
 20
622.5561227128467
 30
0.0
 11
2827.20617379079
 21
588.9561227128467
 31
0.0
  0
LINE
  5
3062
330
1F
100
AcDbEntity
  8
0
100
AcDbLine
 10
2863.70617379079
 20
586.9561227128468
 30
0.0
 11
2861.706173790791
 21
588.9561227128467
 31
0.0
  0
LINE
  5
3063
330
1F
100
AcDbEntity
  8
0
100
AcDbLine
 10
2812.70617379079
 20
588.9561227128467
 30
0.0
 11
2810.70617379079
 21
586.9561227128468
 31
0.0
  0
CIRCLE
  5
3066
330
1F
100
AcDbEntity
  8
0
100
AcDbCircle
 10
2813.206173790791
 20
762.8121711983656
 30
0.0
 40
4.25
  0
CIRCLE
  5
3067
330
1F
100
AcDbEntity
  8
0
100
AcDbCircle
 10
2813.206173790791
 20
714.8121711983655
 30
0.0
 40
4.25
  0
POLYLINE
  5
3069
330
1F
100
AcDbEntity
  8
0
100
AcDb2dPolyline
 66
     1
 10
0.0
 20
0.0
 30
0.0
  0
VERTEX
  5
306A
330
3069
100
AcDbEntity
  8
0
100
AcDbVertex
100
AcDb2dVertex
 10
2806.206173790791
 20
709.8121711983655
 30
0.0
  0
VERTEX
  5
306B
330
3069
100
AcDbEntity
  8
0
100
AcDbVertex
100
AcDb2dVertex
 10
2806.206173790791
 20
727.8121711983656
 30
0.0
  0
SEQEND
  5
306C
330
3069
100
AcDbEntity
  8
0
  0
CIRCLE
  5
306E
330
1F
100
AcDbEntity
  8
0
100
AcDbCircle
 10
2861.206173790791
 20
714.8121711983655
 30
0.0
 40
4.25
  0
CIRCLE
  5
306F
102
{ACAD_REACTORS
330
37FA
102
}
330
1F
100
AcDbEntity
  8
0
100
AcDbCircle
 10
2861.206173790791
 20
762.8121711983656
 30
0.0
 40
4.25
  0
LINE
  5
3070
330
1F
100
AcDbEntity
  8
0
100
AcDbLine
 10
2778.206173790791
 20
749.8121711983656
 30
0.0
 11
2896.20617379079
 21
749.8121711983656
 31
0.0
  0
LINE
  5
3071
330
1F
100
AcDbEntity
  8
0
100
AcDbLine
 10
2778.206173790791
 20
727.8121711983656
 30
0.0
 11
2896.20617379079
 21
727.8121711983656
 31
0.0
  0
LINE
  5
3072
330
1F
100
AcDbEntity
  8
0
100
AcDbLine
 10
2777.206173790791
 20
728.8121711983656
 30
0.0
 11
2777.206173790791
 21
748.8121711983656
 31
0.0
  0
LINE
  5
3073
330
1F
100
AcDbEntity
  8
0
100
AcDbLine
 10
2897.20617379079
 20
728.8121711983656
 30
0.0
 11
2897.20617379079
 21
748.8121711983656
 31
0.0
  0
LINE
  5
3074
330
1F
100
AcDbEntity
  8
0
100
AcDbLine
 10
2824.70617379079
 20
743.8121711983655
 30
0.0
 11
2849.70617379079
 21
743.8121711983655
 31
0.0
  0
LINE
  5
3075
330
1F
100
AcDbEntity
  8
0
100
AcDbLine
 10
2824.70617379079
 20
733.8121711983656
 30
0.0
 11
2849.70617379079
 21
733.8121711983656
 31
0.0
  0
ARC
  5
3076
330
1F
100
AcDbEntity
  8
0
100
AcDbCircle
 10
2837.20617379079
 20
738.8121711983655
 30
0.0
 40
10.0
100
AcDbArc
 50
330.0000000000027
 51
29.99999999999729
  0
LINE
  5
3077
102
{ACAD_REACTORS
330
377F
102
}
330
1F
100
AcDbEntity
  8
0
100
AcDbLine
 10
2896.20617379079
 20
749.8121711983656
 30
0.0
 11
2897.20617379079
 21
748.8121711983656
 31
0.0
  0
LINE
  5
3078
102
{ACAD_REACTORS
330
377F
102
}
330
1F
100
AcDbEntity
  8
0
100
AcDbLine
 10
2897.20617379079
 20
728.8121711983656
 30
0.0
 11
2896.20617379079
 21
727.8121711983656
 31
0.0
  0
LINE
  5
3079
330
1F
100
AcDbEntity
  8
0
100
AcDbLine
 10
2778.206173790791
 20
727.8121711983656
 30
0.0
 11
2777.206173790791
 21
728.8121711983656
 31
0.0
  0
LINE
  5
307A
330
1F
100
AcDbEntity
  8
0
100
AcDbLine
 10
2777.206173790791
 20
748.8121711983656
 30
0.0
 11
2778.206173790791
 21
749.8121711983656
 31
0.0
  0
ARC
  5
307B
330
1F
100
AcDbEntity
  8
0
100
AcDbCircle
 10
2824.70617379079
 20
738.8121711983655
 30
0.0
 40
5.0
100
AcDbArc
 50
90.0
 51
270.0
  0
ARC
  5
307C
330
1F
100
AcDbEntity
  8
0
100
AcDbCircle
 10
2849.70617379079
 20
738.8121711983655
 30
0.0
 40
5.0
100
AcDbArc
 50
270.0
 51
90.0
  0
ARC
  5
307D
330
1F
100
AcDbEntity
  8
0
100
AcDbCircle
 10
2837.20617379079
 20
738.8121711983655
 30
0.0
 40
10.0
100
AcDbArc
 50
150.0000000000027
 51
209.9999999999973
  0
POLYLINE
  5
307E
330
1F
100
AcDbEntity
  8
0
100
AcDb2dPolyline
 66
     1
 10
0.0
 20
0.0
 30
0.0
  0
VERTEX
  5
307F
330
307E
100
AcDbEntity
  8
0
100
AcDbVertex
100
AcDb2dVertex
 10
2806.206173790791
 20
749.8121711983656
 30
0.0
  0
VERTEX
  5
3080
330
307E
100
AcDbEntity
  8
0
100
AcDbVertex
100
AcDb2dVertex
 10
2806.206173790791
 20
767.8121711983656
 30
0.0
  0
VERTEX
  5
3081
330
307E
100
AcDbEntity
  8
0
100
AcDbVertex
100
AcDb2dVertex
 10
2808.20617379079
 20
769.8121711983656
 30
0.0
  0
VERTEX
  5
3082
330
307E
100
AcDbEntity
  8
0
100
AcDbVertex
100
AcDb2dVertex
 10
2866.20617379079
 20
769.8121711983656
 30
0.0
  0
VERTEX
  5
3083
330
307E
100
AcDbEntity
  8
0
100
AcDbVertex
100
AcDb2dVertex
 10
2868.20617379079
 20
767.8121711983656
 30
0.0
  0
VERTEX
  5
3084
330
307E
100
AcDbEntity
  8
0
100
AcDbVertex
100
AcDb2dVertex
 10
2868.20617379079
 20
749.8121711983656
 30
0.0
  0
SEQEND
  5
3085
330
307E
100
AcDbEntity
  8
0
  0
POLYLINE
  5
3086
330
1F
100
AcDbEntity
  8
0
100
AcDb2dPolyline
 66
     1
 10
0.0
 20
0.0
 30
0.0
  0
VERTEX
  5
3087
330
3086
100
AcDbEntity
  8
0
100
AcDbVertex
100
AcDb2dVertex
 10
2868.20617379079
 20
727.8121711983656
 30
0.0
  0
VERTEX
  5
3088
330
3086
100
AcDbEntity
  8
0
100
AcDbVertex
100
AcDb2dVertex
 10
2868.20617379079
 20
709.8121711983655
 30
0.0
  0
VERTEX
  5
3089
330
3086
100
AcDbEntity
  8
0
100
AcDbVertex
100
AcDb2dVertex
 10
2866.20617379079
 20
707.8121711983656
 30
0.0
  0
VERTEX
  5
308A
330
3086
100
AcDbEntity
  8
0
100
AcDbVertex
100
AcDb2dVertex
 10
2808.20617379079
 20
707.8121711983656
 30
0.0
  0
VERTEX
  5
308B
330
3086
100
AcDbEntity
  8
0
100
AcDbVertex
100
AcDb2dVertex
 10
2806.206173790791
 20
709.8121711983655
 30
0.0
  0
SEQEND
  5
308C
330
3086
100
AcDbEntity
  8
0
  0
LINE
  5
308D
330
1F
100
AcDbEntity
  8
0
100
AcDbLine
 10
2897.20617379079
 20
623.5561227128467
 30
0.0
 11
2897.20617379079
 21
643.5561227128467
 31
0.0
  0
LINE
  5
308E
330
1F
100
AcDbEntity
  8
0
100
AcDbLine
 10
2777.206173790791
 20
623.5561227128467
 30
0.0
 11
2777.206173790791
 21
643.5561227128467
 31
0.0
  0
LINE
  5
308F
330
1F
100
AcDbEntity
  8
0
100
AcDbLine
 10
2778.206173790791
 20
622.5561227128467
 30
0.0
 11
2896.20617379079
 21
622.5561227128467
 31
0.0
  0
LINE
  5
3090
330
1F
100
AcDbEntity
  8
0
100
AcDbLine
 10
2778.206173790791
 20
622.5561227128467
 30
0.0
 11
2777.206173790791
 21
623.5561227128467
 31
0.0
  0
LINE
  5
3091
330
1F
100
AcDbEntity
  8
0
100
AcDbLine
 10
2897.20617379079
 20
623.5561227128467
 30
0.0
 11
2896.20617379079
 21
622.5561227128467
 31
0.0
  0
LINE
  5
3092
330
1F
100
AcDbEntity
  8
0
100
AcDbLine
 10
2778.206173790791
 20
644.5561227128467
 30
0.0
 11
2896.20617379079
 21
644.5561227128467
 31
0.0
  0
LINE
  5
3093
330
1F
100
AcDbEntity
  8
0
100
AcDbLine
 10
2777.206173790791
 20
643.5561227128467
 30
0.0
 11
2778.206173790791
 21
644.5561227128467
 31
0.0
  0
LINE
  5
3094
330
1F
100
AcDbEntity
  8
0
100
AcDbLine
 10
2896.20617379079
 20
644.5561227128467
 30
0.0
 11
2897.20617379079
 21
643.5561227128467
 31
0.0
  0
CIRCLE
  5
3095
330
1F
100
AcDbEntity
  8
0
100
AcDbCircle
 10
2837.20617379079
 20
633.5561227128468
 30
0.0
 40
4.0
  0
ARC
  5
3097
330
1F
100
AcDbEntity
  8
0
100
AcDbCircle
 10
2837.20617379079
 20
738.8121711983655
 30
0.0
 40
27.0
100
AcDbArc
 50
24.52525763841884
 51
155.4747423615871
  0
ARC
  5
3098
330
1F
100
AcDbEntity
  8
0
100
AcDbCircle
 10
2837.20617379079
 20
738.8121711983655
 30
0.0
 40
27.0
100
AcDbArc
 50
204.5252576384129
 51
335.4747423615811
  0
LINE
  5
30A8
330
1F
100
AcDbEntity
  8
AM_7
100
AcDbLine
 10
2837.20617379079
 20
646.5561227128468
 30
0.0
 11
2837.20617379079
 21
503.4458623131619
 31
0.0
1001
GENIUS_GENODEF_13
1002
{
1000
HIER
1070
     0
1002
}
1002
{
1000
MANEDIT
1070
     0
1002
}
1002
{
1000
NOSEL
1070
     0
1002
}
1002
{
1000
BEHIND
1070
     0
1002
}
1002
{
1000
OTHER
1070
     0
1002
}
1002
{
1000
REACTOR
1002
}
1001
GENIUS_GENOBJ-N-CEN_13
1002
{
1000
OWNER
1000
GEN
1002
}
1001
GENIUS_GENCEN_19
1002
{
1040
2.0
1002
}
  0
LINE
  5
30A9
330
1F
100
AcDbEntity
  8
0
  6
HIDDEN
 62
     3
 48
0.5
100
AcDbLine
 10
2850.938262722508
 20
582.9993832483837
 30
0.0
 11
2863.70617379079
 21
582.9993832483837
 31
0.0
  0
LINE
  5
30AA
330
1F
100
AcDbEntity
  8
0
  6
HIDDEN
 62
     3
 48
0.5
100
AcDbLine
 10
2851.415513269333
 20
573.4993832483837
 30
0.0
 11
2863.70617379079
 21
573.4993832483837
 31
0.0
  0
LINE
  5
30AB
330
1F
100
AcDbEntity
  8
0
  6
HIDDEN
 62
     3
 48
0.5
100
AcDbLine
 10
2851.415513269333
 20
574.4993832483837
 30
0.0
 11
2863.70617379079
 21
574.4993832483837
 31
0.0
  0
LINE
  5
30AC
330
1F
100
AcDbEntity
  8
0
  6
HIDDEN
 62
     3
 48
0.5
100
AcDbLine
 10
2850.938262722508
 20
581.9993832483837
 30
0.0
 11
2863.70617379079
 21
581.9993832483837
 31
0.0
  0
LINE
  5
30AD
330
1F
100
AcDbEntity
  8
0
  6
HIDDEN
 62
     3
 48
0.5
100
AcDbLine
 10
2856.965968230828
 20
532.1691810100163
 30
0.0
 11
2868.20617379079
 21
532.1691810100163
 31
0.0
  0
LINE
  5
30AE
330
1F
100
AcDbEntity
  8
0
  6
HIDDEN
 62
     3
 48
0.5
100
AcDbLine
 10
2857.443218777654
 20
522.6691810100163
 30
0.0
 11
2868.20617379079
 21
522.6691810100162
 31
0.0
  0
LINE
  5
30AF
330
1F
100
AcDbEntity
  8
0
  6
HIDDEN
 62
     3
 48
0.5
100
AcDbLine
 10
2857.443218777654
 20
523.6691810100163
 30
0.0
 11
2868.20617379079
 21
523.6691810100162
 31
0.0
  0
LINE
  5
30B0
330
1F
100
AcDbEntity
  8
0
  6
HIDDEN
 62
     3
 48
0.5
100
AcDbLine
 10
2856.965968230828
 20
531.1691810100163
 30
0.0
 11
2868.20617379079
 21
531.1691810100163
 31
0.0
  0
LINE
  5
30BE
330
1F
100
AcDbEntity
  8
AM_7
100
AcDbLine
 10
2837.20617379079
 20
738.8121711983655
 30
0.0
 11
2899.694759419424
 21
738.8121711983655
 31
0.0
1001
GENIUS_GENOREF_13
1005
30C2
  0
LINE
  5
30BF
330
1F
100
AcDbEntity
  8
AM_7
100
AcDbLine
 10
2837.20617379079
 20
738.8121711983655
 30
0.0
 11
2837.20617379079
 21
771.8121711983656
 31
0.0
1001
GENIUS_GENOREF_13
1005
30C2
  0
LINE
  5
30C0
330
1F
100
AcDbEntity
  8
AM_7
100
AcDbLine
 10
2837.20617379079
 20
738.8121711983655
 30
0.0
 11
2774.93374998764
 21
738.8121711983655
 31
0.0
1001
GENIUS_GENOREF_13
1005
30C2
  0
LINE
  5
30C1
330
1F
100
AcDbEntity
  8
AM_7
100
AcDbLine
 10
2837.20617379079
 20
738.8121711983655
 30
0.0
 11
2837.20617379079
 21
705.8121711983655
 31
0.0
1001
GENIUS_GENOREF_13
1005
30C2
  0
POINT
  5
30C2
330
1F
100
AcDbEntity
  8
0
 60
     1
100
AcDbPoint
 10
0.0
 20
0.0
 30
0.0
1001
GENIUS_GENOBJ-N-CRS_13
1002
{
1000
OWNER
1000
GEN
1002
}
1001
GENIUS_GENODEF_13
1002
{
1000
HIER
1070
    10
1002
}
1002
{
1000
MANEDIT
1070
     0
1002
}
1002
{
1000
NOSEL
1070
     0
1002
}
1002
{
1000
BEHIND
1070
     0
1002
}
1002
{
1000
OTHER
1070
     0
1002
}
1002
{
1000
REACTOR
1002
}
1001
GENIUS_GENOLIS_13
1002
{
1000
ENT
1005
30C1
1005
30C0
1005
30BF
1005
30BE
1002
}
1001
GENIUS_GENOENT_13
1002
{
1000
MYREF
1005
30C2
1002
}
1002
{
1000
GRP
1005
0
1002
}
  0
LINE
  5
30D0
330
1F
100
AcDbEntity
  8
AM_7
  6
AM_ISO08W050x2
100
AcDbLine
 10
2813.206173790791
 20
762.8121711983656
 30
0.0
 11
2819.45617379079
 21
762.8121711983656
 31
0.0
1001
GENIUS_GENOREF_13
1005
30D4
  0
LINE
  5
30D1
330
1F
100
AcDbEntity
  8
AM_7
  6
AM_ISO08W050x2
100
AcDbLine
 10
2813.206173790791
 20
762.8121711983656
 30
0.0
 11
2813.206173790791
 21
769.0621711983656
 31
0.0
1001
GENIUS_GENOREF_13
1005
30D4
  0
LINE
  5
30D2
330
1F
100
AcDbEntity
  8
AM_7
  6
AM_ISO08W050x2
100
AcDbLine
 10
2813.206173790791
 20
762.8121711983656
 30
0.0
 11
2806.956173790791
 21
762.8121711983656
 31
0.0
1001
GENIUS_GENOREF_13
1005
30D4
  0
LINE
  5
30D3
330
1F
100
AcDbEntity
  8
AM_7
  6
AM_ISO08W050x2
100
AcDbLine
 10
2813.206173790791
 20
762.8121711983656
 30
0.0
 11
2813.206173790791
 21
756.5621711983656
 31
0.0
1001
GENIUS_GENOREF_13
1005
30D4
  0
POINT
  5
30D4
330
1F
100
AcDbEntity
  8
0
 60
     1
100
AcDbPoint
 10
0.0
 20
0.0
 30
0.0
1001
GENIUS_GENOLIS_13
1002
{
1000
ENT
1005
30D3
1005
30D2
1005
30D1
1005
30D0
1002
}
1001
GENIUS_GENOENT_13
1002
{
1000
MYREF
1005
30D4
1002
}
1002
{
1000
GRP
1005
0
1002
}
1001
GENIUS_GENOBJ-N-CRS_13
1002
{
1000
OWNER
1000
GEN
1002
}
1001
GENIUS_GENODEF_13
1002
{
1000
HIER
1070
    10
1002
}
1002
{
1000
MANEDIT
1070
     0
1002
}
1002
{
1000
NOSEL
1070
     0
1002
}
1002
{
1000
BEHIND
1070
     0
1002
}
1002
{
1000
OTHER
1070
     0
1002
}
1002
{
1000
REACTOR
1002
}
  0
LINE
  5
30E2
330
1F
100
AcDbEntity
  8
AM_7
  6
AM_ISO08W050x2
100
AcDbLine
 10
2861.206173790791
 20
762.8121711983656
 30
0.0
 11
2867.45617379079
 21
762.8121711983656
 31
0.0
1001
GENIUS_GENOREF_13
1005
30E6
  0
LINE
  5
30E3
330
1F
100
AcDbEntity
  8
AM_7
  6
AM_ISO08W050x2
100
AcDbLine
 10
2861.206173790791
 20
762.8121711983656
 30
0.0
 11
2861.206173790791
 21
769.0621711983656
 31
0.0
1001
GENIUS_GENOREF_13
1005
30E6
  0
LINE
  5
30E4
330
1F
100
AcDbEntity
  8
AM_7
  6
AM_ISO08W050x2
100
AcDbLine
 10
2861.206173790791
 20
762.8121711983656
 30
0.0
 11
2854.956173790791
 21
762.8121711983656
 31
0.0
1001
GENIUS_GENOREF_13
1005
30E6
  0
LINE
  5
30E5
330
1F
100
AcDbEntity
  8
AM_7
  6
AM_ISO08W050x2
100
AcDbLine
 10
2861.206173790791
 20
762.8121711983656
 30
0.0
 11
2861.206173790791
 21
756.5621711983656
 31
0.0
1001
GENIUS_GENOREF_13
1005
30E6
  0
POINT
  5
30E6
330
1F
100
AcDbEntity
  8
0
 60
     1
100
AcDbPoint
 10
0.0
 20
0.0
 30
0.0
1001
GENIUS_GENOLIS_13
1002
{
1000
ENT
1005
30E5
1005
30E4
1005
30E3
1005
30E2
1002
}
1001
GENIUS_GENOENT_13
1002
{
1000
MYREF
1005
30E6
1002
}
1002
{
1000
GRP
1005
0
1002
}
1001
GENIUS_GENOBJ-N-CRS_13
1002
{
1000
OWNER
1000
GEN
1002
}
1001
GENIUS_GENODEF_13
1002
{
1000
HIER
1070
    10
1002
}
1002
{
1000
MANEDIT
1070
     0
1002
}
1002
{
1000
NOSEL
1070
     0
1002
}
1002
{
1000
BEHIND
1070
     0
1002
}
1002
{
1000
OTHER
1070
     0
1002
}
1002
{
1000
REACTOR
1002
}
  0
LINE
  5
30F4
330
1F
100
AcDbEntity
  8
AM_7
  6
AM_ISO08W050x2
100
AcDbLine
 10
2861.206173790791
 20
714.8121711983655
 30
0.0
 11
2867.45617379079
 21
714.8121711983655
 31
0.0
1001
GENIUS_GENOREF_13
1005
30F8
  0
LINE
  5
30F5
330
1F
100
AcDbEntity
  8
AM_7
  6
AM_ISO08W050x2
100
AcDbLine
 10
2861.206173790791
 20
714.8121711983655
 30
0.0
 11
2861.206173790791
 21
721.0621711983655
 31
0.0
1001
GENIUS_GENOREF_13
1005
30F8
  0
LINE
  5
30F6
330
1F
100
AcDbEntity
  8
AM_7
  6
AM_ISO08W050x2
100
AcDbLine
 10
2861.206173790791
 20
714.8121711983655
 30
0.0
 11
2854.956173790791
 21
714.8121711983655
 31
0.0
1001
GENIUS_GENOREF_13
1005
30F8
  0
LINE
  5
30F7
330
1F
100
AcDbEntity
  8
AM_7
  6
AM_ISO08W050x2
100
AcDbLine
 10
2861.206173790791
 20
714.8121711983655
 30
0.0
 11
2861.206173790791
 21
708.5621711983655
 31
0.0
1001
GENIUS_GENOREF_13
1005
30F8
  0
POINT
  5
30F8
330
1F
100
AcDbEntity
  8
0
 60
     1
100
AcDbPoint
 10
0.0
 20
0.0
 30
0.0
1001
GENIUS_GENOLIS_13
1002
{
1000
ENT
1005
30F7
1005
30F6
1005
30F5
1005
30F4
1002
}
1001
GENIUS_GENOENT_13
1002
{
1000
MYREF
1005
30F8
1002
}
1002
{
1000
GRP
1005
0
1002
}
1001
GENIUS_GENOBJ-N-CRS_13
1002
{
1000
OWNER
1000
GEN
1002
}
1001
GENIUS_GENODEF_13
1002
{
1000
HIER
1070
    10
1002
}
1002
{
1000
MANEDIT
1070
     0
1002
}
1002
{
1000
NOSEL
1070
     0
1002
}
1002
{
1000
BEHIND
1070
     0
1002
}
1002
{
1000
OTHER
1070
     0
1002
}
1002
{
1000
REACTOR
1002
}
  0
LINE
  5
3106
330
1F
100
AcDbEntity
  8
AM_7
  6
AM_ISO08W050x2
100
AcDbLine
 10
2813.206173790791
 20
714.8121711983655
 30
0.0
 11
2819.45617379079
 21
714.8121711983655
 31
0.0
1001
GENIUS_GENOREF_13
1005
310A
  0
LINE
  5
3107
330
1F
100
AcDbEntity
  8
AM_7
  6
AM_ISO08W050x2
100
AcDbLine
 10
2813.206173790791
 20
714.8121711983655
 30
0.0
 11
2813.206173790791
 21
721.0621711983655
 31
0.0
1001
GENIUS_GENOREF_13
1005
310A
  0
LINE
  5
3108
330
1F
100
AcDbEntity
  8
AM_7
  6
AM_ISO08W050x2
100
AcDbLine
 10
2813.206173790791
 20
714.8121711983655
 30
0.0
 11
2806.956173790791
 21
714.8121711983655
 31
0.0
1001
GENIUS_GENOREF_13
1005
310A
  0
LINE
  5
3109
330
1F
100
AcDbEntity
  8
AM_7
  6
AM_ISO08W050x2
100
AcDbLine
 10
2813.206173790791
 20
714.8121711983655
 30
0.0
 11
2813.206173790791
 21
708.5621711983655
 31
0.0
1001
GENIUS_GENOREF_13
1005
310A
  0
POINT
  5
310A
330
1F
100
AcDbEntity
  8
0
 60
     1
100
AcDbPoint
 10
0.0
 20
0.0
 30
0.0
1001
GENIUS_GENOLIS_13
1002
{
1000
ENT
1005
3109
1005
3108
1005
3107
1005
3106
1002
}
1001
GENIUS_GENOENT_13
1002
{
1000
MYREF
1005
310A
1002
}
1002
{
1000
GRP
1005
0
1002
}
1001
GENIUS_GENOBJ-N-CRS_13
1002
{
1000
OWNER
1000
GEN
1002
}
1001
GENIUS_GENODEF_13
1002
{
1000
HIER
1070
    10
1002
}
1002
{
1000
MANEDIT
1070
     0
1002
}
1002
{
1000
NOSEL
1070
     0
1002
}
1002
{
1000
BEHIND
1070
     0
1002
}
1002
{
1000
OTHER
1070
     0
1002
}
1002
{
1000
REACTOR
1002
}
  0
DIMENSION
  5
310B
330
1F
100
AcDbEntity
  8
AM_5
100
AcDbDimension
  2
*D17
 10
2886.506307676423
 20
588.9561227128467
 30
0.0
 11
2884.006307676423
 21
548.9561227128472
 31
0.0
 70
    32
 71
     5
 42
80.00000000000005
  3
AM_ISO$0
100
AcDbAlignedDimension
 13
2863.70617379079
 23
508.9561227128467
 33
0.0
 14
2861.706173790791
 24
588.9561227128467
 34
0.0
 50
90.0
100
AcDbRotatedDimension
1001
ACAD
1000
DSTYLE
1002
{
1070
    40
1040
1.0
1070
   144
1040
1.0
1070
   272
1070
     8
1002
}
  0
DIMENSION
  5
310C
330
1F
100
AcDbEntity
  8
AM_5
100
AcDbDimension
  2
*D18
 10
2909.20617379079
 20
622.5561227128467
 30
0.0
 11
2906.70617379079
 21
565.7561227128471
 31
0.0
 70
    32
 71
     5
 42
113.6000000000001
  3
AM_ISO$0
100
AcDbAlignedDimension
 13
2863.70617379079
 23
508.9561227128467
 33
0.0
 14
2896.20617379079
 24
622.5561227128467
 34
0.0
 50
90.0
100
AcDbRotatedDimension
1001
ACAD
1000
DSTYLE
1002
{
1070
    40
1040
1.0
1070
   144
1040
1.0
1070
   272
1070
     8
1002
}
  0
DIMENSION
  5
310D
330
1F
100
AcDbEntity
  8
AM_5
100
AcDbDimension
  2
*D19
 10
2794.206173790791
 20
508.9561227128467
 30
0.0
 11
2791.706173790791
 21
522.4561227128471
 31
0.0
 70
    32
 71
     5
 42
26.99999999999994
  3
AM_ISO$0
100
AcDbAlignedDimension
 13
2806.70617379079
 23
535.9561227128467
 33
0.0
 14
2806.70617379079
 24
508.9561227128467
 34
0.0
 50
90.0
100
AcDbRotatedDimension
1001
ACAD
1000
DSTYLE
1002
{
1070
    40
1040
1.0
1070
   144
1040
1.0
1070
   272
1070
     8
1002
}
  0
DIMENSION
  5
310E
330
1F
100
AcDbEntity
  8
AM_5
100
AcDbDimension
  2
*D20
 10
2909.20617379079
 20
622.5561227128467
 30
0.0
 11
2906.70617379079
 21
633.5561227128472
 31
0.0
 70
    32
 71
     5
 42
22.0
  3
AM_ISO$0
100
AcDbAlignedDimension
 13
2896.20617379079
 23
644.5561227128467
 33
0.0
 14
2896.20617379079
 24
622.5561227128467
 34
0.0
 50
90.0
100
AcDbRotatedDimension
1001
ACAD
1000
DSTYLE
1002
{
1070
    40
1040
1.0
1070
   144
1040
1.0
1070
   272
1070
     8
1002
}
  0
DIMENSION
  5
319F
330
1F
100
AcDbEntity
  8
AM_5
100
AcDbDimension
  2
*D21
 10
2861.206173790791
 20
695.8121711983656
 30
0.0
 11
2837.20617379079
 21
698.3121711983656
 31
0.0
 70
    32
 71
     5
 42
48.0
  3
AM_ISO$0
100
AcDbAlignedDimension
 13
2813.206173790791
 23
708.5621711983655
 33
0.0
 14
2861.206173790791
 24
708.5621711983655
 34
0.0
100
AcDbRotatedDimension
1001
ACAD
1000
DSTYLE
1002
{
1070
    40
1040
1.0
1070
   144
1040
1.0
1070
   272
1070
     8
1002
}
  0
DIMENSION
  5
31A0
330
1F
100
AcDbEntity
  8
AM_5
100
AcDbDimension
  2
*D22
 10
2868.20617379079
 20
685.8121711983656
 30
0.0
 11
2837.20617379079
 21
688.3121711983656
 31
0.0
 70
    32
 71
     5
 42
62.0
  3
AM_ISO$0
100
AcDbAlignedDimension
 13
2806.206173790791
 23
709.8121711983655
 33
0.0
 14
2868.20617379079
 24
709.8121711983655
 34
0.0
100
AcDbRotatedDimension
1001
ACAD
1000
DSTYLE
1002
{
1070
    40
1040
1.0
1070
   144
1040
1.0
1070
   272
1070
     8
1002
}
  0
DIMENSION
  5
31A1
330
1F
100
AcDbEntity
  8
AM_5
100
AcDbDimension
  2
*D23
 10
2897.209323713016
 20
675.8121711983656
 30
0.0
 11
2837.209323713015
 21
678.3121711983657
 31
0.0
 70
    32
 71
     5
 42
120.0
  3
AM_ISO$0
100
AcDbAlignedDimension
 13
2777.209323713015
 23
725.3121711983656
 33
0.0
 14
2897.209323713016
 24
725.3121711983656
 34
0.0
100
AcDbRotatedDimension
1001
ACAD
1000
DSTYLE
1002
{
1070
    40
1040
1.0
1070
   144
1040
1.0
1070
   272
1070
     8
1002
}
  0
LINE
  5
324D
330
1F
100
AcDbEntity
  8
0
100
AcDbLine
 10
2075.657803487452
 20
138.0125204969318
 30
0.0
 11
2147.657803487452
 21
138.0125204969318
 31
0.0
  0
LINE
  5
324E
330
1F
100
AcDbEntity
  8
0
100
AcDbLine
 10
2075.657803487452
 20
165.0125204969317
 30
0.0
 11
2147.657803487452
 21
165.0125204969317
 31
0.0
  0
LINE
  5
324F
330
1F
100
AcDbEntity
  8
0
100
AcDbLine
 10
2080.157803487452
 20
218.0125204969317
 30
0.0
 11
2143.157803487452
 21
218.0125204969317
 31
0.0
  0
LINE
  5
3250
330
1F
100
AcDbEntity
  8
0
100
AcDbLine
 10
2121.657803487452
 20
252.5125204969317
 30
0.0
 11
2121.657803487452
 21
218.0125204969317
 31
0.0
  0
LINE
  5
3251
330
1F
100
AcDbEntity
  8
0
100
AcDbLine
 10
2101.657803487452
 20
252.5125204969317
 30
0.0
 11
2101.657803487452
 21
218.0125204969317
 31
0.0
  0
POLYLINE
  5
3253
330
1F
100
AcDbEntity
  8
0
100
AcDb2dPolyline
 66
     1
 10
0.0
 20
0.0
 30
0.0
  0
VERTEX
  5
3254
330
3253
100
AcDbEntity
  8
0
100
AcDbVertex
100
AcDb2dVertex
 10
2074.657803487452
 20
380.596633589314
 30
0.0
  0
VERTEX
  5
3255
330
3253
100
AcDbEntity
  8
0
100
AcDbVertex
100
AcDb2dVertex
 10
2074.657803487452
 20
401.8037403705005
 30
0.0
  0
VERTEX
  5
3256
330
3253
100
AcDbEntity
  8
0
100
AcDbVertex
100
AcDb2dVertex
 10
2077.950696706265
 20
405.096633589314
 30
0.0
  0
VERTEX
  5
3257
330
3253
100
AcDbEntity
  8
0
100
AcDbVertex
100
AcDb2dVertex
 10
2145.364910268639
 20
405.096633589314
 30
0.0
  0
VERTEX
  5
3258
330
3253
100
AcDbEntity
  8
0
100
AcDbVertex
100
AcDb2dVertex
 10
2148.657803487452
 20
401.8037403705005
 30
0.0
  0
VERTEX
  5
3259
330
3253
100
AcDbEntity
  8
0
100
AcDbVertex
100
AcDb2dVertex
 10
2148.657803487452
 20
334.3895268081275
 30
0.0
  0
VERTEX
  5
325A
330
3253
100
AcDbEntity
  8
0
100
AcDbVertex
100
AcDb2dVertex
 10
2145.364910268639
 20
331.096633589314
 30
0.0
  0
VERTEX
  5
325B
330
3253
100
AcDbEntity
  8
0
100
AcDbVertex
100
AcDb2dVertex
 10
2077.950696706265
 20
331.096633589314
 30
0.0
  0
VERTEX
  5
325C
330
3253
100
AcDbEntity
  8
0
100
AcDbVertex
100
AcDb2dVertex
 10
2074.657803487452
 20
334.3895268081275
 30
0.0
  0
SEQEND
  5
325D
330
3253
100
AcDbEntity
  8
0
  0
POLYLINE
  5
325E
330
1F
100
AcDbEntity
  8
0
100
AcDb2dPolyline
 66
     1
 10
0.0
 20
0.0
 30
0.0
  0
VERTEX
  5
325F
330
325E
100
AcDbEntity
  8
0
100
AcDbVertex
100
AcDb2dVertex
 10
2074.657803487452
 20
334.3895268081275
 30
0.0
  0
VERTEX
  5
3260
330
325E
100
AcDbEntity
  8
0
100
AcDbVertex
100
AcDb2dVertex
 10
2074.657803487452
 20
355.596633589314
 30
0.0
  0
SEQEND
  5
3261
330
325E
100
AcDbEntity
  8
0
  0
CIRCLE
  5
3262
330
1F
100
AcDbEntity
  8
0
100
AcDbCircle
 10
2083.157803487452
 20
396.596633589314
 30
0.0
 40
4.25
  0
CIRCLE
  5
3263
330
1F
100
AcDbEntity
  8
0
100
AcDbCircle
 10
2083.157803487452
 20
339.596633589314
 30
0.0
 40
4.25
  0
CIRCLE
  5
3264
330
1F
100
AcDbEntity
  8
0
100
AcDbCircle
 10
2140.157803487452
 20
339.596633589314
 30
0.0
 40
4.25
  0
CIRCLE
  5
3265
102
{ACAD_REACTORS
330
381D
102
}
330
1F
100
AcDbEntity
  8
0
100
AcDbCircle
 10
2140.157803487452
 20
396.596633589314
 30
0.0
 40
4.25
  0
LINE
  5
3266
330
1F
100
AcDbEntity
  8
0
100
AcDbLine
 10
2144.157803487452
 20
217.0125204969317
 30
0.0
 11
2144.157803487452
 21
165.0125204969317
 31
0.0
  0
LINE
  5
3267
330
1F
100
AcDbEntity
  8
0
100
AcDbLine
 10
2079.157803487452
 20
217.0125204969317
 30
0.0
 11
2079.157803487452
 21
165.0125204969317
 31
0.0
  0
LINE
  5
3268
330
1F
100
AcDbEntity
  8
0
100
AcDbLine
 10
2080.157803487452
 20
218.0125204969317
 30
0.0
 11
2079.157803487452
 21
217.0125204969317
 31
0.0
  0
LINE
  5
3269
330
1F
100
AcDbEntity
  8
0
100
AcDbLine
 10
2143.157803487452
 20
218.0125204969317
 30
0.0
 11
2144.157803487452
 21
217.0125204969317
 31
0.0
  0
LINE
  5
326A
330
1F
100
AcDbEntity
  8
0
100
AcDbLine
 10
2074.657803487452
 20
164.0125204969317
 30
0.0
 11
2074.657803487452
 21
139.0125204969318
 31
0.0
  0
LINE
  5
326B
330
1F
100
AcDbEntity
  8
0
100
AcDbLine
 10
2148.657803487452
 20
164.0125204969317
 30
0.0
 11
2148.657803487452
 21
139.0125204969318
 31
0.0
  0
LINE
  5
326C
330
1F
100
AcDbEntity
  8
0
100
AcDbLine
 10
2074.657803487452
 20
164.0125204969317
 30
0.0
 11
2075.657803487452
 21
165.0125204969317
 31
0.0
  0
LINE
  5
326D
330
1F
100
AcDbEntity
  8
0
100
AcDbLine
 10
2074.657803487452
 20
139.0125204969318
 30
0.0
 11
2075.657803487452
 21
138.0125204969318
 31
0.0
  0
LINE
  5
326E
330
1F
100
AcDbEntity
  8
0
100
AcDbLine
 10
2147.657803487452
 20
165.0125204969317
 30
0.0
 11
2148.657803487452
 21
164.0125204969317
 31
0.0
  0
LINE
  5
326F
330
1F
100
AcDbEntity
  8
0
100
AcDbLine
 10
2148.657803487452
 20
139.0125204969318
 30
0.0
 11
2147.657803487452
 21
138.0125204969318
 31
0.0
  0
LINE
  5
3273
330
1F
100
AcDbEntity
  8
0
100
AcDbLine
 10
2051.657803487452
 20
358.096633589314
 30
0.0
 11
2051.657803487452
 21
378.096633589314
 31
0.0
  0
LINE
  5
3274
330
1F
100
AcDbEntity
  8
0
100
AcDbLine
 10
2171.657803487452
 20
358.096633589314
 30
0.0
 11
2171.657803487452
 21
378.096633589314
 31
0.0
  0
LINE
  5
3275
330
1F
100
AcDbEntity
  8
0
100
AcDbLine
 10
2052.657803487452
 20
379.096633589314
 30
0.0
 11
2170.657803487452
 21
379.096633589314
 31
0.0
  0
LINE
  5
3276
330
1F
100
AcDbEntity
  8
0
100
AcDbLine
 10
2052.657803487452
 20
357.096633589314
 30
0.0
 11
2170.657803487452
 21
357.096633589314
 31
0.0
  0
LINE
  5
3277
330
1F
100
AcDbEntity
  8
0
100
AcDbLine
 10
2099.157803487452
 20
373.096633589314
 30
0.0
 11
2124.157803487452
 21
373.096633589314
 31
0.0
  0
LINE
  5
3278
330
1F
100
AcDbEntity
  8
0
100
AcDbLine
 10
2099.157803487452
 20
363.096633589314
 30
0.0
 11
2124.157803487452
 21
363.096633589314
 31
0.0
  0
ARC
  5
3279
330
1F
100
AcDbEntity
  8
0
100
AcDbCircle
 10
2099.157803487452
 20
368.096633589314
 30
0.0
 40
5.0
100
AcDbArc
 50
90.0
 51
270.0
  0
ARC
  5
327A
330
1F
100
AcDbEntity
  8
0
100
AcDbCircle
 10
2124.157803487452
 20
368.096633589314
 30
0.0
 40
5.0
100
AcDbArc
 50
270.0
 51
90.0
  0
LINE
  5
327B
330
1F
100
AcDbEntity
  8
0
100
AcDbLine
 10
2052.657803487452
 20
357.096633589314
 30
0.0
 11
2051.657803487452
 21
358.096633589314
 31
0.0
  0
LINE
  5
327C
330
1F
100
AcDbEntity
  8
0
100
AcDbLine
 10
2051.657803487452
 20
378.096633589314
 30
0.0
 11
2052.657803487452
 21
379.096633589314
 31
0.0
  0
LINE
  5
327D
102
{ACAD_REACTORS
330
3420
102
}
330
1F
100
AcDbEntity
  8
0
100
AcDbLine
 10
2170.657803487452
 20
379.096633589314
 30
0.0
 11
2171.657803487452
 21
378.096633589314
 31
0.0
  0
LINE
  5
327E
102
{ACAD_REACTORS
330
3420
102
}
330
1F
100
AcDbEntity
  8
0
100
AcDbLine
 10
2171.657803487452
 20
358.096633589314
 30
0.0
 11
2170.657803487452
 21
357.096633589314
 31
0.0
  0
ARC
  5
327F
330
1F
100
AcDbEntity
  8
0
100
AcDbCircle
 10
2111.657803487452
 20
368.096633589314
 30
0.0
 40
10.0
100
AcDbArc
 50
330.0000000000027
 51
29.99999999999729
  0
ARC
  5
3280
330
1F
100
AcDbEntity
  8
0
100
AcDbCircle
 10
2111.657803487452
 20
368.096633589314
 30
0.0
 40
10.0
100
AcDbArc
 50
150.0000000000027
 51
209.9999999999973
  0
LINE
  5
3281
330
1F
100
AcDbEntity
  8
0
100
AcDbLine
 10
2051.657803487452
 20
253.5125204969317
 30
0.0
 11
2051.657803487452
 21
273.5125204969317
 31
0.0
  0
LINE
  5
3282
330
1F
100
AcDbEntity
  8
0
100
AcDbLine
 10
2171.657803487452
 20
253.5125204969317
 30
0.0
 11
2171.657803487452
 21
273.5125204969317
 31
0.0
  0
LINE
  5
3283
330
1F
100
AcDbEntity
  8
0
100
AcDbLine
 10
2052.657803487452
 20
252.5125204969317
 30
0.0
 11
2170.657803487452
 21
252.5125204969317
 31
0.0
  0
LINE
  5
3284
330
1F
100
AcDbEntity
  8
0
100
AcDbLine
 10
2052.657803487452
 20
252.5125204969317
 30
0.0
 11
2051.657803487452
 21
253.5125204969317
 31
0.0
  0
LINE
  5
3285
330
1F
100
AcDbEntity
  8
0
100
AcDbLine
 10
2171.657803487452
 20
253.5125204969317
 30
0.0
 11
2170.657803487452
 21
252.5125204969317
 31
0.0
  0
LINE
  5
3286
330
1F
100
AcDbEntity
  8
0
100
AcDbLine
 10
2052.657803487452
 20
274.5125204969318
 30
0.0
 11
2170.657803487452
 21
274.5125204969318
 31
0.0
  0
LINE
  5
3287
330
1F
100
AcDbEntity
  8
0
100
AcDbLine
 10
2051.657803487452
 20
273.5125204969317
 30
0.0
 11
2052.657803487452
 21
274.5125204969318
 31
0.0
  0
LINE
  5
3288
330
1F
100
AcDbEntity
  8
0
100
AcDbLine
 10
2170.657803487452
 20
274.5125204969318
 30
0.0
 11
2171.657803487452
 21
273.5125204969317
 31
0.0
  0
CIRCLE
  5
3289
330
1F
100
AcDbEntity
  8
0
100
AcDbCircle
 10
2111.657803487452
 20
263.5125204969317
 30
0.0
 40
4.0
  0
ARC
  5
328B
330
1F
100
AcDbEntity
  8
0
100
AcDbCircle
 10
2111.657803487452
 20
368.096633589314
 30
0.0
 40
32.5
100
AcDbArc
 50
19.78317037266085
 51
160.2168296273391
  0
ARC
  5
328C
330
1F
100
AcDbEntity
  8
0
100
AcDbCircle
 10
2111.657803487452
 20
368.096633589314
 30
0.0
 40
32.5
100
AcDbArc
 50
199.7831703726609
 51
340.2168296273391
  0
LINE
  5
329B
330
1F
100
AcDbEntity
  8
AM_7
100
AcDbLine
 10
2111.657803487452
 20
276.5125204969318
 30
0.0
 11
2111.657803487452
 21
136.0125204969318
 31
0.0
1001
GENIUS_GENOBJ-N-CEN_13
1002
{
1000
OWNER
1000
GEN
1002
}
1001
GENIUS_GENODEF_13
1002
{
1000
HIER
1070
     0
1002
}
1002
{
1000
MANEDIT
1070
     0
1002
}
1002
{
1000
NOSEL
1070
     0
1002
}
1002
{
1000
BEHIND
1070
     0
1002
}
1002
{
1000
OTHER
1070
     0
1002
}
1002
{
1000
REACTOR
1002
}
1001
GENIUS_GENCEN_19
1002
{
1040
2.0
1002
}
  0
LINE
  5
329C
330
1F
100
AcDbEntity
  8
0
  6
HIDDEN
 62
     3
 48
0.5
100
AcDbLine
 10
2132.25956566656
 20
211.2075835450248
 30
0.0
 11
2144.157803487452
 21
211.2075835450248
 31
0.0
  0
LINE
  5
329D
330
1F
100
AcDbEntity
  8
0
  6
HIDDEN
 62
     3
 48
0.5
100
AcDbLine
 10
2132.736816213385
 20
201.7075835450248
 30
0.0
 11
2144.157803487452
 21
201.7075835450249
 31
0.0
  0
LINE
  5
329E
330
1F
100
AcDbEntity
  8
0
  6
HIDDEN
 62
     3
 48
0.5
100
AcDbLine
 10
2132.736816213385
 20
202.7075835450248
 30
0.0
 11
2144.157803487452
 21
202.7075835450248
 31
0.0
  0
LINE
  5
329F
330
1F
100
AcDbEntity
  8
0
  6
HIDDEN
 62
     3
 48
0.5
100
AcDbLine
 10
2132.25956566656
 20
210.2075835450248
 30
0.0
 11
2144.157803487452
 21
210.2075835450248
 31
0.0
  0
LINE
  5
32A0
330
1F
100
AcDbEntity
  8
0
  6
HIDDEN
 62
     3
 48
0.5
100
AcDbLine
 10
2137.166521363909
 20
159.3083245766586
 30
0.0
 11
2148.657803487452
 21
159.3083245766587
 31
0.0
  0
LINE
  5
32A1
330
1F
100
AcDbEntity
  8
0
  6
HIDDEN
 62
     3
 48
0.5
100
AcDbLine
 10
2137.643771910735
 20
149.8083245766586
 30
0.0
 11
2148.657803487452
 21
149.8083245766586
 31
0.0
  0
LINE
  5
32A2
330
1F
100
AcDbEntity
  8
0
  6
HIDDEN
 62
     3
 48
0.5
100
AcDbLine
 10
2137.643771910735
 20
150.8083245766586
 30
0.0
 11
2148.657803487452
 21
150.8083245766586
 31
0.0
  0
LINE
  5
32A3
330
1F
100
AcDbEntity
  8
0
  6
HIDDEN
 62
     3
 48
0.5
100
AcDbLine
 10
2137.166521363909
 20
158.3083245766586
 30
0.0
 11
2148.657803487452
 21
158.3083245766586
 31
0.0
  0
LINE
  5
32B0
330
1F
100
AcDbEntity
  8
AM_7
100
AcDbLine
 10
2049.657803487452
 20
368.096633589314
 30
0.0
 11
2173.657803487452
 21
368.096633589314
 31
0.0
1001
GENIUS_GENODEF_13
1002
{
1000
HIER
1070
     0
1002
}
1002
{
1000
MANEDIT
1070
     0
1002
}
1002
{
1000
NOSEL
1070
     0
1002
}
1002
{
1000
BEHIND
1070
     0
1002
}
1002
{
1000
OTHER
1070
     0
1002
}
1002
{
1000
REACTOR
1002
}
1001
GENIUS_GENOBJ-N-CEN_13
1002
{
1000
OWNER
1000
GEN
1002
}
1001
GENIUS_GENCEN_19
1002
{
1040
2.0
1002
}
  0
LINE
  5
32C6
330
1F
100
AcDbEntity
  8
AM_7
100
AcDbLine
 10
2111.657803487452
 20
407.096633589314
 30
0.0
 11
2111.657803487452
 21
329.096633589314
 31
0.0
1001
GENIUS_GENOBJ-N-CEN_13
1002
{
1000
OWNER
1000
GEN
1002
}
1001
GENIUS_GENODEF_13
1002
{
1000
HIER
1070
     0
1002
}
1002
{
1000
MANEDIT
1070
     0
1002
}
1002
{
1000
NOSEL
1070
     0
1002
}
1002
{
1000
BEHIND
1070
     0
1002
}
1002
{
1000
OTHER
1070
     0
1002
}
1002
{
1000
REACTOR
1002
}
1001
GENIUS_GENCEN_19
1002
{
1040
2.0
1002
}
  0
LINE
  5
32D4
330
1F
100
AcDbEntity
  8
AM_7
  6
AM_ISO08W050x2
100
AcDbLine
 10
2083.157803487452
 20
339.596633589314
 30
0.0
 11
2089.407803487452
 21
339.596633589314
 31
0.0
1001
GENIUS_GENOREF_13
1005
32D8
  0
LINE
  5
32D5
330
1F
100
AcDbEntity
  8
AM_7
  6
AM_ISO08W050x2
100
AcDbLine
 10
2083.157803487452
 20
339.596633589314
 30
0.0
 11
2083.157803487452
 21
345.846633589314
 31
0.0
1001
GENIUS_GENOREF_13
1005
32D8
  0
LINE
  5
32D6
330
1F
100
AcDbEntity
  8
AM_7
  6
AM_ISO08W050x2
100
AcDbLine
 10
2083.157803487452
 20
339.596633589314
 30
0.0
 11
2076.907803487452
 21
339.596633589314
 31
0.0
1001
GENIUS_GENOREF_13
1005
32D8
  0
LINE
  5
32D7
330
1F
100
AcDbEntity
  8
AM_7
  6
AM_ISO08W050x2
100
AcDbLine
 10
2083.157803487452
 20
339.596633589314
 30
0.0
 11
2083.157803487452
 21
333.346633589314
 31
0.0
1001
GENIUS_GENOREF_13
1005
32D8
  0
POINT
  5
32D8
330
1F
100
AcDbEntity
  8
0
 60
     1
100
AcDbPoint
 10
0.0
 20
0.0
 30
0.0
1001
GENIUS_GENOENT_13
1002
{
1000
MYREF
1005
32D8
1002
}
1002
{
1000
GRP
1005
0
1002
}
1001
GENIUS_GENODEF_13
1002
{
1000
HIER
1070
    10
1002
}
1002
{
1000
MANEDIT
1070
     0
1002
}
1002
{
1000
NOSEL
1070
     0
1002
}
1002
{
1000
BEHIND
1070
     0
1002
}
1002
{
1000
OTHER
1070
     0
1002
}
1002
{
1000
REACTOR
1002
}
1001
GENIUS_GENOLIS_13
1002
{
1000
ENT
1005
32D7
1005
32D6
1005
32D5
1005
32D4
1002
}
1001
GENIUS_GENOBJ-N-CRS_13
1002
{
1000
OWNER
1000
GEN
1002
}
  0
LINE
  5
32E6
330
1F
100
AcDbEntity
  8
AM_7
  6
AM_ISO08W050x2
100
AcDbLine
 10
2140.157803487452
 20
339.596633589314
 30
0.0
 11
2146.407803487452
 21
339.596633589314
 31
0.0
1001
GENIUS_GENOREF_13
1005
32EA
  0
LINE
  5
32E7
330
1F
100
AcDbEntity
  8
AM_7
  6
AM_ISO08W050x2
100
AcDbLine
 10
2140.157803487452
 20
339.596633589314
 30
0.0
 11
2140.157803487452
 21
345.846633589314
 31
0.0
1001
GENIUS_GENOREF_13
1005
32EA
  0
LINE
  5
32E8
330
1F
100
AcDbEntity
  8
AM_7
  6
AM_ISO08W050x2
100
AcDbLine
 10
2140.157803487452
 20
339.596633589314
 30
0.0
 11
2133.907803487452
 21
339.596633589314
 31
0.0
1001
GENIUS_GENOREF_13
1005
32EA
  0
LINE
  5
32E9
330
1F
100
AcDbEntity
  8
AM_7
  6
AM_ISO08W050x2
100
AcDbLine
 10
2140.157803487452
 20
339.596633589314
 30
0.0
 11
2140.157803487452
 21
333.346633589314
 31
0.0
1001
GENIUS_GENOREF_13
1005
32EA
  0
POINT
  5
32EA
330
1F
100
AcDbEntity
  8
0
 60
     1
100
AcDbPoint
 10
0.0
 20
0.0
 30
0.0
1001
GENIUS_GENOLIS_13
1002
{
1000
ENT
1005
32E9
1005
32E8
1005
32E7
1005
32E6
1002
}
1001
GENIUS_GENOENT_13
1002
{
1000
MYREF
1005
32EA
1002
}
1002
{
1000
GRP
1005
0
1002
}
1001
GENIUS_GENODEF_13
1002
{
1000
HIER
1070
    10
1002
}
1002
{
1000
MANEDIT
1070
     0
1002
}
1002
{
1000
NOSEL
1070
     0
1002
}
1002
{
1000
BEHIND
1070
     0
1002
}
1002
{
1000
OTHER
1070
     0
1002
}
1002
{
1000
REACTOR
1002
}
1001
GENIUS_GENOBJ-N-CRS_13
1002
{
1000
OWNER
1000
GEN
1002
}
  0
LINE
  5
32F8
330
1F
100
AcDbEntity
  8
AM_7
  6
AM_ISO08W050x2
100
AcDbLine
 10
2140.157803487452
 20
396.596633589314
 30
0.0
 11
2146.407803487452
 21
396.596633589314
 31
0.0
1001
GENIUS_GENOREF_13
1005
32FC
  0
LINE
  5
32F9
330
1F
100
AcDbEntity
  8
AM_7
  6
AM_ISO08W050x2
100
AcDbLine
 10
2140.157803487452
 20
396.596633589314
 30
0.0
 11
2140.157803487452
 21
402.846633589314
 31
0.0
1001
GENIUS_GENOREF_13
1005
32FC
  0
LINE
  5
32FA
330
1F
100
AcDbEntity
  8
AM_7
  6
AM_ISO08W050x2
100
AcDbLine
 10
2140.157803487452
 20
396.596633589314
 30
0.0
 11
2133.907803487452
 21
396.596633589314
 31
0.0
1001
GENIUS_GENOREF_13
1005
32FC
  0
LINE
  5
32FB
330
1F
100
AcDbEntity
  8
AM_7
  6
AM_ISO08W050x2
100
AcDbLine
 10
2140.157803487452
 20
396.596633589314
 30
0.0
 11
2140.157803487452
 21
390.346633589314
 31
0.0
1001
GENIUS_GENOREF_13
1005
32FC
  0
POINT
  5
32FC
330
1F
100
AcDbEntity
  8
0
 60
     1
100
AcDbPoint
 10
0.0
 20
0.0
 30
0.0
1001
GENIUS_GENOLIS_13
1002
{
1000
ENT
1005
32FB
1005
32FA
1005
32F9
1005
32F8
1002
}
1001
GENIUS_GENOENT_13
1002
{
1000
MYREF
1005
32FC
1002
}
1002
{
1000
GRP
1005
0
1002
}
1001
GENIUS_GENOBJ-N-CRS_13
1002
{
1000
OWNER
1000
GEN
1002
}
1001
GENIUS_GENODEF_13
1002
{
1000
HIER
1070
    10
1002
}
1002
{
1000
MANEDIT
1070
     0
1002
}
1002
{
1000
NOSEL
1070
     0
1002
}
1002
{
1000
BEHIND
1070
     0
1002
}
1002
{
1000
OTHER
1070
     0
1002
}
1002
{
1000
REACTOR
1002
}
  0
LINE
  5
330A
330
1F
100
AcDbEntity
  8
AM_7
  6
AM_ISO08W050x2
100
AcDbLine
 10
2083.157803487452
 20
396.596633589314
 30
0.0
 11
2089.407803487452
 21
396.596633589314
 31
0.0
1001
GENIUS_GENOREF_13
1005
330E
  0
LINE
  5
330B
330
1F
100
AcDbEntity
  8
AM_7
  6
AM_ISO08W050x2
100
AcDbLine
 10
2083.157803487452
 20
396.596633589314
 30
0.0
 11
2083.157803487452
 21
402.846633589314
 31
0.0
1001
GENIUS_GENOREF_13
1005
330E
  0
LINE
  5
330C
330
1F
100
AcDbEntity
  8
AM_7
  6
AM_ISO08W050x2
100
AcDbLine
 10
2083.157803487452
 20
396.596633589314
 30
0.0
 11
2076.907803487452
 21
396.596633589314
 31
0.0
1001
GENIUS_GENOREF_13
1005
330E
  0
LINE
  5
330D
330
1F
100
AcDbEntity
  8
AM_7
  6
AM_ISO08W050x2
100
AcDbLine
 10
2083.157803487452
 20
396.596633589314
 30
0.0
 11
2083.157803487452
 21
390.346633589314
 31
0.0
1001
GENIUS_GENOREF_13
1005
330E
  0
POINT
  5
330E
330
1F
100
AcDbEntity
  8
0
 60
     1
100
AcDbPoint
 10
0.0
 20
0.0
 30
0.0
1001
GENIUS_GENODEF_13
1002
{
1000
HIER
1070
    10
1002
}
1002
{
1000
MANEDIT
1070
     0
1002
}
1002
{
1000
NOSEL
1070
     0
1002
}
1002
{
1000
BEHIND
1070
     0
1002
}
1002
{
1000
OTHER
1070
     0
1002
}
1002
{
1000
REACTOR
1002
}
1001
GENIUS_GENOBJ-N-CRS_13
1002
{
1000
OWNER
1000
GEN
1002
}
1001
GENIUS_GENOLIS_13
1002
{
1000
ENT
1005
330D
1005
330C
1005
330B
1005
330A
1002
}
1001
GENIUS_GENOENT_13
1002
{
1000
MYREF
1005
330E
1002
}
1002
{
1000
GRP
1005
0
1002
}
  0
DIMENSION
  5
330F
330
1F
100
AcDbEntity
  8
AM_5
100
AcDbDimension
  2
*D24
 10
2160.957937373085
 20
218.0125204969317
 30
0.0
 11
2158.457937373084
 21
178.0125204969321
 31
0.0
 70
    32
 71
     5
 42
79.99999999999992
  3
AM_ISO$0
100
AcDbAlignedDimension
 13
2147.657803487452
 23
138.0125204969318
 33
0.0
 14
2143.157803487452
 24
218.0125204969317
 34
0.0
 50
90.0
100
AcDbRotatedDimension
1001
ACAD
1000
DSTYLE
1002
{
1070
    40
1040
1.0
1070
   144
1040
1.0
1070
   272
1070
     8
1002
}
  0
DIMENSION
  5
3310
330
1F
100
AcDbEntity
  8
AM_5
100
AcDbDimension
  2
*D25
 10
2183.657803487452
 20
252.5125204969317
 30
0.0
 11
2181.157803487452
 21
195.2625204969321
 31
0.0
 70
    32
 71
     5
 42
114.4999999999999
  3
AM_ISO$0
100
AcDbAlignedDimension
 13
2147.657803487452
 23
138.0125204969318
 33
0.0
 14
2170.657803487452
 24
252.5125204969317
 34
0.0
 50
90.0
100
AcDbRotatedDimension
1001
ACAD
1000
DSTYLE
1002
{
1070
    40
1040
1.0
1070
   144
1040
1.0
1070
   272
1070
     8
1002
}
  0
DIMENSION
  5
3311
330
1F
100
AcDbEntity
  8
AM_5
100
AcDbDimension
  2
*D26
 10
2062.657803487452
 20
138.0125204969318
 30
0.0
 11
2060.157803487452
 21
151.5125204969321
 31
0.0
 70
    32
 71
     5
 42
27.0
  3
AM_ISO$0
100
AcDbAlignedDimension
 13
2075.657803487452
 23
165.0125204969318
 33
0.0
 14
2075.657803487452
 24
138.0125204969318
 34
0.0
 50
90.0
100
AcDbRotatedDimension
1001
ACAD
1000
DSTYLE
1002
{
1070
    40
1040
1.0
1070
   144
1040
1.0
1070
   272
1070
     8
1002
}
  0
DIMENSION
  5
3312
330
1F
100
AcDbEntity
  8
AM_5
100
AcDbDimension
  2
*D27
 10
2183.657803487452
 20
252.5125204969317
 30
0.0
 11
2181.157803487452
 21
263.5125204969321
 31
0.0
 70
    32
 71
     5
 42
22.0
  3
AM_ISO$0
100
AcDbAlignedDimension
 13
2170.657803487452
 23
274.5125204969318
 33
0.0
 14
2170.657803487452
 24
252.5125204969317
 34
0.0
 50
90.0
100
AcDbRotatedDimension
1001
ACAD
1000
DSTYLE
1002
{
1070
    40
1040
1.0
1070
   144
1040
1.0
1070
   272
1070
     8
1002
}
  0
DIMENSION
  5
3370
330
1F
100
AcDbEntity
  8
AM_5
100
AcDbDimension
  2
*D28
 10
2140.157803487452
 20
319.096633589314
 30
0.0
 11
2111.657803487452
 21
321.596633589314
 31
0.0
 70
    32
 71
     5
 42
57.0
  3
AM_ISO$0
100
AcDbAlignedDimension
 13
2083.157803487452
 23
333.346633589314
 33
0.0
 14
2140.157803487452
 24
333.346633589314
 34
0.0
100
AcDbRotatedDimension
1001
ACAD
1000
DSTYLE
1002
{
1070
    40
1040
1.0
1070
   144
1040
1.0
1070
   272
1070
     8
1002
}
  0
DIMENSION
  5
3371
330
1F
100
AcDbEntity
  8
AM_5
100
AcDbDimension
  2
*D29
 10
2148.657803487452
 20
309.096633589314
 30
0.0
 11
2111.657803487452
 21
311.596633589314
 31
0.0
 70
    32
 71
     5
 42
74.0
  3
AM_ISO$0
100
AcDbAlignedDimension
 13
2074.657803487452
 23
334.3895268081275
 33
0.0
 14
2148.657803487452
 24
334.3895268081275
 34
0.0
100
AcDbRotatedDimension
1001
ACAD
1000
DSTYLE
1002
{
1070
    40
1040
1.0
1070
   144
1040
1.0
1070
   272
1070
     8
1002
}
  0
DIMENSION
  5
3372
330
1F
100
AcDbEntity
  8
AM_5
100
AcDbDimension
  2
*D30
 10
2171.657803487452
 20
299.0966335893141
 30
0.0
 11
2111.657803487452
 21
301.5966335893141
 31
0.0
 70
    32
 71
     5
 42
120.0
  3
AM_ISO$0
100
AcDbAlignedDimension
 13
2051.657803487452
 23
358.096633589314
 33
0.0
 14
2171.657803487452
 24
358.096633589314
 34
0.0
100
AcDbRotatedDimension
1001
ACAD
1000
DSTYLE
1002
{
1070
    40
1040
1.0
1070
   144
1040
1.0
1070
   272
1070
     8
1002
}
  0
DIMENSION
  5
3412
102
{ACAD_XDICTIONARY
360
341F
102
}
102
{ACAD_REACTORS
330
3420
102
}
330
1F
100
AcDbEntity
  8
AM_5
100
AcDbDimension
  2
*D31
 10
2182.657803487452
 20
357.096633589314
 30
0.0
 11
2180.157803487452
 21
368.0966335893144
 31
0.0
 70
    32
 71
     5
 42
22.0
  3
AM_ISO$0
100
AcDbAlignedDimension
 13
2170.657803487452
 23
379.096633589314
 33
0.0
 14
2170.657803487452
 24
357.096633589314
 34
0.0
 50
90.00000000000003
100
AcDbRotatedDimension
1001
ACAD
1000
DSTYLE
1002
{
1070
    40
1040
1.0
1070
   144
1040
1.0
1070
   272
1070
     8
1002
}
  0
LINE
  5
34F1
330
1F
100
AcDbEntity
  8
0
100
AcDbLine
 10
2440.976583508879
 20
170.0125204969317
 30
0.0
 11
2527.976583508879
 21
170.0125204969317
 31
0.0
  0
LINE
  5
34F2
330
1F
100
AcDbEntity
  8
0
100
AcDbLine
 10
2450.476583508879
 20
223.0125204969318
 30
0.0
 11
2518.476583508878
 21
223.0125204969318
 31
0.0
  0
LINE
  5
34F3
330
1F
100
AcDbEntity
  8
0
100
AcDbLine
 10
2528.476583508878
 20
169.5125204969317
 30
0.0
 11
2528.476583508878
 21
139.0125204969318
 31
0.0
  0
LINE
  5
34F4
330
1F
100
AcDbEntity
  8
0
100
AcDbLine
 10
2440.476583508879
 20
169.5125204969317
 30
0.0
 11
2440.476583508879
 21
139.0125204969318
 31
0.0
  0
LINE
  5
34F5
330
1F
100
AcDbEntity
  8
0
100
AcDbLine
 10
2528.476583508878
 20
169.5125204969317
 30
0.0
 11
2527.976583508879
 21
170.0125204969317
 31
0.0
  0
LINE
  5
34F6
330
1F
100
AcDbEntity
  8
0
100
AcDbLine
 10
2440.976583508879
 20
170.0125204969317
 30
0.0
 11
2440.476583508879
 21
169.5125204969317
 31
0.0
  0
LINE
  5
34F7
330
1F
100
AcDbEntity
  8
0
100
AcDbLine
 10
2496.976583508879
 20
256.0125204969318
 30
0.0
 11
2496.976583508879
 21
223.0125204969318
 31
0.0
  0
LINE
  5
34F8
330
1F
100
AcDbEntity
  8
0
100
AcDbLine
 10
2471.976583508878
 20
256.0125204969318
 30
0.0
 11
2471.976583508878
 21
223.0125204969318
 31
0.0
  0
LINE
  5
34F9
330
1F
100
AcDbEntity
  8
0
100
AcDbLine
 10
2520.476583508878
 20
221.0125204969318
 30
0.0
 11
2518.476583508878
 21
223.0125204969318
 31
0.0
  0
LINE
  5
34FA
330
1F
100
AcDbEntity
  8
0
100
AcDbLine
 10
2450.476583508879
 20
223.0125204969318
 30
0.0
 11
2448.476583508878
 21
221.0125204969318
 31
0.0
  0
LINE
  5
34FB
330
1F
100
AcDbEntity
  8
0
100
AcDbLine
 10
2415.476583508878
 20
256.0125204969318
 30
0.0
 11
2414.476583508879
 21
257.0125204969317
 31
0.0
  0
POLYLINE
  5
34FC
330
1F
100
AcDbEntity
  8
0
100
AcDb2dPolyline
 66
     1
 10
0.0
 20
0.0
 30
0.0
  0
VERTEX
  5
34FD
330
34FC
100
AcDbEntity
  8
0
100
AcDbVertex
100
AcDb2dVertex
 10
2440.476583508879
 20
343.5125204969318
 30
0.0
  0
VERTEX
  5
34FE
330
34FC
100
AcDbEntity
  8
0
100
AcDbVertex
100
AcDb2dVertex
 10
2440.476583508879
 20
372.0125204969317
 30
0.0
  0
SEQEND
  5
34FF
330
34FC
100
AcDbEntity
  8
0
  0
POLYLINE
  5
3500
330
1F
100
AcDbEntity
  8
0
100
AcDb2dPolyline
 66
     1
 10
0.0
 20
0.0
 30
0.0
  0
VERTEX
  5
3501
330
3500
100
AcDbEntity
  8
0
100
AcDbVertex
100
AcDb2dVertex
 10
2440.476583508879
 20
397.0125204969318
 30
0.0
  0
VERTEX
  5
3502
330
3500
100
AcDbEntity
  8
0
100
AcDbVertex
100
AcDb2dVertex
 10
2440.476583508879
 20
425.5125204969317
 30
0.0
  0
VERTEX
  5
3503
330
3500
100
AcDbEntity
  8
0
100
AcDbVertex
100
AcDb2dVertex
 10
2443.476583508878
 20
428.5125204969317
 30
0.0
  0
VERTEX
  5
3504
330
3500
100
AcDbEntity
  8
0
100
AcDbVertex
100
AcDb2dVertex
 10
2525.476583508878
 20
428.5125204969317
 30
0.0
  0
VERTEX
  5
3505
330
3500
100
AcDbEntity
  8
0
100
AcDbVertex
100
AcDb2dVertex
 10
2528.476583508878
 20
425.5125204969317
 30
0.0
  0
VERTEX
  5
3506
330
3500
100
AcDbEntity
  8
0
100
AcDbVertex
100
AcDb2dVertex
 10
2528.476583508878
 20
343.5125204969318
 30
0.0
  0
VERTEX
  5
3507
330
3500
100
AcDbEntity
  8
0
100
AcDbVertex
100
AcDb2dVertex
 10
2525.476583508878
 20
340.5125204969317
 30
0.0
  0
VERTEX
  5
3508
330
3500
100
AcDbEntity
  8
0
100
AcDbVertex
100
AcDb2dVertex
 10
2443.476583508878
 20
340.5125204969317
 30
0.0
  0
VERTEX
  5
3509
330
3500
100
AcDbEntity
  8
0
100
AcDbVertex
100
AcDb2dVertex
 10
2440.476583508879
 20
343.5125204969318
 30
0.0
  0
SEQEND
  5
350A
330
3500
100
AcDbEntity
  8
0
  0
CIRCLE
  5
350C
102
{ACAD_REACTORS
330
383A
102
}
330
1F
100
AcDbEntity
  8
0
100
AcDbCircle
 10
2519.476583508879
 20
419.5125204969317
 30
0.0
 40
5.25
  0
CIRCLE
  5
350D
330
1F
100
AcDbEntity
  8
0
100
AcDbCircle
 10
2519.476583508879
 20
349.5125204969318
 30
0.0
 40
5.25
  0
CIRCLE
  5
350E
330
1F
100
AcDbEntity
  8
0
100
AcDbCircle
 10
2449.476583508879
 20
349.5125204969318
 30
0.0
 40
5.25
  0
CIRCLE
  5
350F
330
1F
100
AcDbEntity
  8
0
100
AcDbCircle
 10
2449.476583508879
 20
419.5125204969317
 30
0.0
 40
5.25
  0
LINE
  5
3510
330
1F
100
AcDbEntity
  8
0
100
AcDbLine
 10
2441.476583508878
 20
138.0125204969318
 30
0.0
 11
2527.476583508879
 21
138.0125204969318
 31
0.0
  0
LINE
  5
3511
330
1F
100
AcDbEntity
  8
0
100
AcDbLine
 10
2440.476583508879
 20
139.0125204969318
 30
0.0
 11
2441.476583508878
 21
138.0125204969318
 31
0.0
  0
LINE
  5
3512
330
1F
100
AcDbEntity
  8
0
100
AcDbLine
 10
2527.476583508879
 20
138.0125204969318
 30
0.0
 11
2528.476583508878
 21
139.0125204969318
 31
0.0
  0
LINE
  5
3513
330
1F
100
AcDbEntity
  8
0
100
AcDbLine
 10
2448.476583508878
 20
221.0125204969318
 30
0.0
 11
2448.476583508878
 21
170.0125204969317
 31
0.0
  0
LINE
  5
3514
330
1F
100
AcDbEntity
  8
0
100
AcDbLine
 10
2520.476583508878
 20
221.0125204969318
 30
0.0
 11
2520.476583508878
 21
170.0125204969317
 31
0.0
  0
LINE
  5
3518
330
1F
100
AcDbEntity
  8
0
100
AcDbLine
 10
2554.476583508878
 20
373.0125204969318
 30
0.0
 11
2554.476583508878
 21
396.0125204969317
 31
0.0
  0
LINE
  5
3519
330
1F
100
AcDbEntity
  8
0
100
AcDbLine
 10
2414.476583508879
 20
373.0125204969318
 30
0.0
 11
2414.476583508879
 21
396.0125204969317
 31
0.0
  0
LINE
  5
351A
330
1F
100
AcDbEntity
  8
0
100
AcDbLine
 10
2415.476583508878
 20
397.0125204969318
 30
0.0
 11
2553.476583508878
 21
397.0125204969318
 31
0.0
  0
LINE
  5
351B
330
1F
100
AcDbEntity
  8
0
100
AcDbLine
 10
2415.476583508878
 20
372.0125204969317
 30
0.0
 11
2553.476583508878
 21
372.0125204969317
 31
0.0
  0
LINE
  5
351C
330
1F
100
AcDbEntity
  8
0
100
AcDbLine
 10
2470.476583508878
 20
390.5125204969317
 30
0.0
 11
2498.476583508879
 21
390.5125204969317
 31
0.0
  0
LINE
  5
351D
330
1F
100
AcDbEntity
  8
0
100
AcDbLine
 10
2470.476583508878
 20
378.5125204969318
 30
0.0
 11
2498.476583508879
 21
378.5125204969318
 31
0.0
  0
ARC
  5
351E
330
1F
100
AcDbEntity
  8
0
100
AcDbCircle
 10
2470.476583508878
 20
384.5125204969318
 30
0.0
 40
6.0
100
AcDbArc
 50
90.0
 51
270.0
  0
ARC
  5
351F
330
1F
100
AcDbEntity
  8
0
100
AcDbCircle
 10
2498.476583508879
 20
384.5125204969318
 30
0.0
 40
6.0
100
AcDbArc
 50
270.0
 51
90.0
  0
LINE
  5
3520
330
1F
100
AcDbEntity
  8
0
100
AcDbLine
 10
2414.476583508879
 20
396.0125204969317
 30
0.0
 11
2415.476583508878
 21
397.0125204969318
 31
0.0
  0
LINE
  5
3521
330
1F
100
AcDbEntity
  8
0
100
AcDbLine
 10
2414.476583508879
 20
373.0125204969318
 30
0.0
 11
2415.476583508878
 21
372.0125204969317
 31
0.0
  0
LINE
  5
3522
102
{ACAD_REACTORS
330
370D
102
}
330
1F
100
AcDbEntity
  8
0
100
AcDbLine
 10
2553.476583508878
 20
372.0125204969317
 30
0.0
 11
2554.476583508878
 21
373.0125204969318
 31
0.0
  0
LINE
  5
3523
102
{ACAD_REACTORS
330
370D
102
}
330
1F
100
AcDbEntity
  8
0
100
AcDbLine
 10
2554.476583508878
 20
396.0125204969317
 30
0.0
 11
2553.476583508878
 21
397.0125204969318
 31
0.0
  0
ARC
  5
3524
330
1F
100
AcDbEntity
  8
0
100
AcDbCircle
 10
2484.476583508878
 20
384.5125204969318
 30
0.0
 40
12.5
100
AcDbArc
 50
331.3145979858809
 51
28.68540201411912
  0
ARC
  5
3525
330
1F
100
AcDbEntity
  8
0
100
AcDbCircle
 10
2484.476583508878
 20
384.5125204969318
 30
0.0
 40
12.5
100
AcDbArc
 50
151.3145979858809
 51
208.6854020141192
  0
LINE
  5
3526
330
1F
100
AcDbEntity
  8
0
100
AcDbLine
 10
2415.476583508878
 20
256.0125204969318
 30
0.0
 11
2553.476583508878
 21
256.0125204969318
 31
0.0
  0
LINE
  5
3527
330
1F
100
AcDbEntity
  8
0
100
AcDbLine
 10
2415.476583508878
 20
281.0125204969318
 30
0.0
 11
2553.476583508878
 21
281.0125204969318
 31
0.0
  0
LINE
  5
3528
330
1F
100
AcDbEntity
  8
0
100
AcDbLine
 10
2414.476583508879
 20
257.0125204969317
 30
0.0
 11
2414.476583508879
 21
280.0125204969317
 31
0.0
  0
LINE
  5
3529
330
1F
100
AcDbEntity
  8
0
100
AcDbLine
 10
2414.476583508879
 20
257.0125204969317
 30
0.0
 11
2415.476583508878
 21
256.0125204969318
 31
0.0
  0
LINE
  5
352A
330
1F
100
AcDbEntity
  8
0
100
AcDbLine
 10
2414.476583508879
 20
280.0125204969317
 30
0.0
 11
2415.476583508878
 21
281.0125204969318
 31
0.0
  0
LINE
  5
352B
330
1F
100
AcDbEntity
  8
0
100
AcDbLine
 10
2554.476583508878
 20
257.0125204969317
 30
0.0
 11
2554.476583508878
 21
280.0125204969317
 31
0.0
  0
LINE
  5
352C
330
1F
100
AcDbEntity
  8
0
100
AcDbLine
 10
2553.476583508878
 20
256.0125204969318
 30
0.0
 11
2554.476583508878
 21
257.0125204969317
 31
0.0
  0
LINE
  5
352D
330
1F
100
AcDbEntity
  8
0
100
AcDbLine
 10
2554.476583508878
 20
280.0125204969317
 30
0.0
 11
2553.476583508878
 21
281.0125204969318
 31
0.0
  0
CIRCLE
  5
352E
330
1F
100
AcDbEntity
  8
0
100
AcDbCircle
 10
2484.476583508878
 20
268.5125204969318
 30
0.0
 40
6.0
  0
ARC
  5
3530
330
1F
100
AcDbEntity
  8
0
100
AcDbCircle
 10
2484.476583508878
 20
384.5125204969318
 30
0.0
 40
40.0
100
AcDbArc
 50
18.20995686428443
 51
161.7900431357155
  0
ARC
  5
3531
330
1F
100
AcDbEntity
  8
0
100
AcDbCircle
 10
2484.476583508878
 20
384.5125204969318
 30
0.0
 40
40.0
100
AcDbArc
 50
198.2099568642844
 51
341.7900431357156
  0
LINE
  5
3540
330
1F
100
AcDbEntity
  8
AM_7
100
AcDbLine
 10
2484.476583508878
 20
283.0125204969318
 30
0.0
 11
2484.476583508878
 21
136.0125204969318
 31
0.0
1001
GENIUS_GENOBJ-N-CEN_13
1002
{
1000
OWNER
1000
GEN
1002
}
1001
GENIUS_GENODEF_13
1002
{
1000
HIER
1070
     0
1002
}
1002
{
1000
MANEDIT
1070
     0
1002
}
1002
{
1000
NOSEL
1070
     0
1002
}
1002
{
1000
BEHIND
1070
     0
1002
}
1002
{
1000
OTHER
1070
     0
1002
}
1002
{
1000
REACTOR
1002
}
1001
GENIUS_GENCEN_19
1002
{
1040
2.0
1002
}
  0
LINE
  5
3541
330
1F
100
AcDbEntity
  8
0
  6
HIDDEN
 62
     3
 48
0.5
100
AcDbLine
 10
2508.83852622561
 20
213.9512615285666
 30
0.0
 11
2520.476583508878
 21
213.9512615285666
 31
0.0
  0
LINE
  5
3542
330
1F
100
AcDbEntity
  8
0
  6
HIDDEN
 62
     3
 48
0.5
100
AcDbLine
 10
2509.315776772436
 20
204.4512615285666
 30
0.0
 11
2520.476583508878
 21
204.4512615285666
 31
0.0
  0
LINE
  5
3543
330
1F
100
AcDbEntity
  8
0
  6
HIDDEN
 62
     3
 48
0.5
100
AcDbLine
 10
2509.315776772436
 20
205.4512615285666
 30
0.0
 11
2520.476583508878
 21
205.4512615285666
 31
0.0
  0
LINE
  5
3544
330
1F
100
AcDbEntity
  8
0
  6
HIDDEN
 62
     3
 48
0.5
100
AcDbLine
 10
2508.83852622561
 20
212.9512615285666
 30
0.0
 11
2520.476583508878
 21
212.9512615285666
 31
0.0
  0
LINE
  5
3545
330
1F
100
AcDbEntity
  8
0
  6
HIDDEN
 62
     3
 48
0.5
100
AcDbLine
 10
2515.127105989443
 20
164.5127774316234
 30
0.0
 11
2528.476583508878
 21
164.5127774316234
 31
0.0
  0
LINE
  5
3546
330
1F
100
AcDbEntity
  8
0
  6
HIDDEN
 62
     3
 48
0.5
100
AcDbLine
 10
2515.604356536268
 20
155.0127774316234
 30
0.0
 11
2528.476583508878
 21
155.0127774316234
 31
0.0
  0
LINE
  5
3547
330
1F
100
AcDbEntity
  8
0
  6
HIDDEN
 62
     3
 48
0.5
100
AcDbLine
 10
2515.604356536268
 20
156.0127774316234
 30
0.0
 11
2528.476583508878
 21
156.0127774316233
 31
0.0
  0
LINE
  5
3548
330
1F
100
AcDbEntity
  8
0
  6
HIDDEN
 62
     3
 48
0.5
100
AcDbLine
 10
2515.127105989443
 20
163.5127774316234
 30
0.0
 11
2528.476583508878
 21
163.5127774316233
 31
0.0
  0
LINE
  5
3555
330
1F
100
AcDbEntity
  8
AM_7
100
AcDbLine
 10
2412.476583508878
 20
384.5125204969318
 30
0.0
 11
2556.476583508878
 21
384.5125204969318
 31
0.0
1001
GENIUS_GENOBJ-N-CEN_13
1002
{
1000
OWNER
1000
GEN
1002
}
1001
GENIUS_GENODEF_13
1002
{
1000
HIER
1070
     0
1002
}
1002
{
1000
MANEDIT
1070
     0
1002
}
1002
{
1000
NOSEL
1070
     0
1002
}
1002
{
1000
BEHIND
1070
     0
1002
}
1002
{
1000
OTHER
1070
     0
1002
}
1002
{
1000
REACTOR
1002
}
1001
GENIUS_GENCEN_19
1002
{
1040
2.0
1002
}
  0
LINE
  5
3562
330
1F
100
AcDbEntity
  8
AM_7
100
AcDbLine
 10
2484.476583508878
 20
430.5125204969317
 30
0.0
 11
2484.476583508878
 21
338.5125204969317
 31
0.0
1001
GENIUS_GENOBJ-N-CEN_13
1002
{
1000
OWNER
1000
GEN
1002
}
1001
GENIUS_GENODEF_13
1002
{
1000
HIER
1070
     0
1002
}
1002
{
1000
MANEDIT
1070
     0
1002
}
1002
{
1000
NOSEL
1070
     0
1002
}
1002
{
1000
BEHIND
1070
     0
1002
}
1002
{
1000
OTHER
1070
     0
1002
}
1002
{
1000
REACTOR
1002
}
1001
GENIUS_GENCEN_19
1002
{
1040
2.0
1002
}
  0
LINE
  5
3570
330
1F
100
AcDbEntity
  8
AM_7
  6
AM_ISO08W050x2
100
AcDbLine
 10
2449.476583508879
 20
349.5125204969318
 30
0.0
 11
2456.726583508878
 21
349.5125204969318
 31
0.0
1001
GENIUS_GENOREF_13
1005
3574
  0
LINE
  5
3571
330
1F
100
AcDbEntity
  8
AM_7
  6
AM_ISO08W050x2
100
AcDbLine
 10
2449.476583508879
 20
349.5125204969318
 30
0.0
 11
2449.476583508879
 21
356.7625204969318
 31
0.0
1001
GENIUS_GENOREF_13
1005
3574
  0
LINE
  5
3572
330
1F
100
AcDbEntity
  8
AM_7
  6
AM_ISO08W050x2
100
AcDbLine
 10
2449.476583508879
 20
349.5125204969318
 30
0.0
 11
2442.226583508878
 21
349.5125204969318
 31
0.0
1001
GENIUS_GENOREF_13
1005
3574
  0
LINE
  5
3573
330
1F
100
AcDbEntity
  8
AM_7
  6
AM_ISO08W050x2
100
AcDbLine
 10
2449.476583508879
 20
349.5125204969318
 30
0.0
 11
2449.476583508879
 21
342.2625204969317
 31
0.0
1001
GENIUS_GENOREF_13
1005
3574
  0
POINT
  5
3574
330
1F
100
AcDbEntity
  8
0
 60
     1
100
AcDbPoint
 10
0.0
 20
0.0
 30
0.0
1001
GENIUS_GENODEF_13
1002
{
1000
HIER
1070
    10
1002
}
1002
{
1000
MANEDIT
1070
     0
1002
}
1002
{
1000
NOSEL
1070
     0
1002
}
1002
{
1000
BEHIND
1070
     0
1002
}
1002
{
1000
OTHER
1070
     0
1002
}
1002
{
1000
REACTOR
1002
}
1001
GENIUS_GENOLIS_13
1002
{
1000
ENT
1005
3573
1005
3572
1005
3571
1005
3570
1002
}
1001
GENIUS_GENOENT_13
1002
{
1000
MYREF
1005
3574
1002
}
1002
{
1000
GRP
1005
0
1002
}
1001
GENIUS_GENOBJ-N-CRS_13
1002
{
1000
OWNER
1000
GEN
1002
}
  0
LINE
  5
3582
330
1F
100
AcDbEntity
  8
AM_7
  6
AM_ISO08W050x2
100
AcDbLine
 10
2519.476583508879
 20
349.5125204969318
 30
0.0
 11
2526.726583508879
 21
349.5125204969318
 31
0.0
1001
GENIUS_GENOREF_13
1005
3586
  0
LINE
  5
3583
330
1F
100
AcDbEntity
  8
AM_7
  6
AM_ISO08W050x2
100
AcDbLine
 10
2519.476583508879
 20
349.5125204969318
 30
0.0
 11
2519.476583508879
 21
356.7625204969318
 31
0.0
1001
GENIUS_GENOREF_13
1005
3586
  0
LINE
  5
3584
330
1F
100
AcDbEntity
  8
AM_7
  6
AM_ISO08W050x2
100
AcDbLine
 10
2519.476583508879
 20
349.5125204969318
 30
0.0
 11
2512.226583508879
 21
349.5125204969318
 31
0.0
1001
GENIUS_GENOREF_13
1005
3586
  0
LINE
  5
3585
330
1F
100
AcDbEntity
  8
AM_7
  6
AM_ISO08W050x2
100
AcDbLine
 10
2519.476583508879
 20
349.5125204969318
 30
0.0
 11
2519.476583508879
 21
342.2625204969317
 31
0.0
1001
GENIUS_GENOREF_13
1005
3586
  0
POINT
  5
3586
330
1F
100
AcDbEntity
  8
0
 60
     1
100
AcDbPoint
 10
0.0
 20
0.0
 30
0.0
1001
GENIUS_GENODEF_13
1002
{
1000
HIER
1070
    10
1002
}
1002
{
1000
MANEDIT
1070
     0
1002
}
1002
{
1000
NOSEL
1070
     0
1002
}
1002
{
1000
BEHIND
1070
     0
1002
}
1002
{
1000
OTHER
1070
     0
1002
}
1002
{
1000
REACTOR
1002
}
1001
GENIUS_GENOENT_13
1002
{
1000
MYREF
1005
3586
1002
}
1002
{
1000
GRP
1005
0
1002
}
1001
GENIUS_GENOLIS_13
1002
{
1000
ENT
1005
3585
1005
3584
1005
3583
1005
3582
1002
}
1001
GENIUS_GENOBJ-N-CRS_13
1002
{
1000
OWNER
1000
GEN
1002
}
  0
LINE
  5
3594
330
1F
100
AcDbEntity
  8
AM_7
  6
AM_ISO08W050x2
100
AcDbLine
 10
2519.476583508879
 20
419.5125204969317
 30
0.0
 11
2526.726583508879
 21
419.5125204969317
 31
0.0
1001
GENIUS_GENOREF_13
1005
3598
  0
LINE
  5
3595
330
1F
100
AcDbEntity
  8
AM_7
  6
AM_ISO08W050x2
100
AcDbLine
 10
2519.476583508879
 20
419.5125204969317
 30
0.0
 11
2519.476583508879
 21
426.7625204969317
 31
0.0
1001
GENIUS_GENOREF_13
1005
3598
  0
LINE
  5
3596
330
1F
100
AcDbEntity
  8
AM_7
  6
AM_ISO08W050x2
100
AcDbLine
 10
2519.476583508879
 20
419.5125204969317
 30
0.0
 11
2512.226583508879
 21
419.5125204969317
 31
0.0
1001
GENIUS_GENOREF_13
1005
3598
  0
LINE
  5
3597
330
1F
100
AcDbEntity
  8
AM_7
  6
AM_ISO08W050x2
100
AcDbLine
 10
2519.476583508879
 20
419.5125204969317
 30
0.0
 11
2519.476583508879
 21
412.2625204969317
 31
0.0
1001
GENIUS_GENOREF_13
1005
3598
  0
POINT
  5
3598
330
1F
100
AcDbEntity
  8
0
 60
     1
100
AcDbPoint
 10
0.0
 20
0.0
 30
0.0
1001
GENIUS_GENODEF_13
1002
{
1000
HIER
1070
    10
1002
}
1002
{
1000
MANEDIT
1070
     0
1002
}
1002
{
1000
NOSEL
1070
     0
1002
}
1002
{
1000
BEHIND
1070
     0
1002
}
1002
{
1000
OTHER
1070
     0
1002
}
1002
{
1000
REACTOR
1002
}
1001
GENIUS_GENOLIS_13
1002
{
1000
ENT
1005
3597
1005
3596
1005
3595
1005
3594
1002
}
1001
GENIUS_GENOENT_13
1002
{
1000
MYREF
1005
3598
1002
}
1002
{
1000
GRP
1005
0
1002
}
1001
GENIUS_GENOBJ-N-CRS_13
1002
{
1000
OWNER
1000
GEN
1002
}
  0
LINE
  5
35A6
330
1F
100
AcDbEntity
  8
AM_7
  6
AM_ISO08W050x2
100
AcDbLine
 10
2449.476583508879
 20
419.5125204969317
 30
0.0
 11
2456.726583508878
 21
419.5125204969317
 31
0.0
1001
GENIUS_GENOREF_13
1005
35AA
  0
LINE
  5
35A7
330
1F
100
AcDbEntity
  8
AM_7
  6
AM_ISO08W050x2
100
AcDbLine
 10
2449.476583508879
 20
419.5125204969317
 30
0.0
 11
2449.476583508879
 21
426.7625204969317
 31
0.0
1001
GENIUS_GENOREF_13
1005
35AA
  0
LINE
  5
35A8
330
1F
100
AcDbEntity
  8
AM_7
  6
AM_ISO08W050x2
100
AcDbLine
 10
2449.476583508879
 20
419.5125204969317
 30
0.0
 11
2442.226583508878
 21
419.5125204969317
 31
0.0
1001
GENIUS_GENOREF_13
1005
35AA
  0
LINE
  5
35A9
330
1F
100
AcDbEntity
  8
AM_7
  6
AM_ISO08W050x2
100
AcDbLine
 10
2449.476583508879
 20
419.5125204969317
 30
0.0
 11
2449.476583508879
 21
412.2625204969317
 31
0.0
1001
GENIUS_GENOREF_13
1005
35AA
  0
POINT
  5
35AA
330
1F
100
AcDbEntity
  8
0
 60
     1
100
AcDbPoint
 10
0.0
 20
0.0
 30
0.0
1001
GENIUS_GENODEF_13
1002
{
1000
HIER
1070
    10
1002
}
1002
{
1000
MANEDIT
1070
     0
1002
}
1002
{
1000
NOSEL
1070
     0
1002
}
1002
{
1000
BEHIND
1070
     0
1002
}
1002
{
1000
OTHER
1070
     0
1002
}
1002
{
1000
REACTOR
1002
}
1001
GENIUS_GENOLIS_13
1002
{
1000
ENT
1005
35A9
1005
35A8
1005
35A7
1005
35A6
1002
}
1001
GENIUS_GENOENT_13
1002
{
1000
MYREF
1005
35AA
1002
}
1002
{
1000
GRP
1005
0
1002
}
1001
GENIUS_GENOBJ-N-CRS_13
1002
{
1000
OWNER
1000
GEN
1002
}
  0
DIMENSION
  5
35AB
330
1F
100
AcDbEntity
  8
AM_5
100
AcDbDimension
  2
*D32
 10
2519.476583508879
 20
328.5125204969318
 30
0.0
 11
2484.476583508878
 21
331.0125204969318
 31
0.0
 70
    32
 71
     5
 42
70.0
  3
AM_ISO$0
100
AcDbAlignedDimension
 13
2449.476583508879
 23
342.2625204969317
 33
0.0
 14
2519.476583508879
 24
342.2625204969317
 34
0.0
100
AcDbRotatedDimension
1001
ACAD
1000
DSTYLE
1002
{
1070
    40
1040
1.0
1070
   144
1040
1.0
1070
   272
1070
     8
1002
}
  0
DIMENSION
  5
35AC
330
1F
100
AcDbEntity
  8
AM_5
100
AcDbDimension
  2
*D33
 10
2528.476583508878
 20
318.5125204969318
 30
0.0
 11
2484.476583508878
 21
321.0125204969318
 31
0.0
 70
    32
 71
     5
 42
88.0
  3
AM_ISO$0
100
AcDbAlignedDimension
 13
2440.476583508879
 23
343.5125204969318
 33
0.0
 14
2528.476583508878
 24
343.5125204969318
 34
0.0
100
AcDbRotatedDimension
1001
ACAD
1000
DSTYLE
1002
{
1070
    40
1040
1.0
1070
   144
1040
1.0
1070
   272
1070
     8
1002
}
  0
DIMENSION
  5
35AD
330
1F
100
AcDbEntity
  8
AM_5
100
AcDbDimension
  2
*D34
 10
2554.476583508878
 20
308.5125204969319
 30
0.0
 11
2484.476583508878
 21
311.0125204969319
 31
0.0
 70
    32
 71
     5
 42
140.0
  3
AM_ISO$0
100
AcDbAlignedDimension
 13
2414.476583508879
 23
373.0125204969318
 33
0.0
 14
2554.476583508878
 24
373.0125204969318
 34
0.0
100
AcDbRotatedDimension
1001
ACAD
1000
DSTYLE
1002
{
1070
    40
1040
1.0
1070
   144
1040
1.0
1070
   272
1070
     8
1002
}
  0
DIMENSION
  5
3623
330
1F
100
AcDbEntity
  8
AM_5
100
AcDbDimension
  2
*D35
 10
2540.476583508878
 20
218.0125204969317
 30
0.0
 11
2537.976583508879
 21
178.0125204969322
 31
0.0
 70
    32
 71
     5
 42
79.99999999999992
  3
AM_ISO$0
100
AcDbAlignedDimension
 13
2527.476583508879
 23
138.0125204969318
 33
0.0
 14
2515.976583508879
 24
218.0125204969317
 34
0.0
 50
90.0
100
AcDbRotatedDimension
1001
ACAD
1000
DSTYLE
1002
{
1070
    40
1040
1.0
1070
   144
1040
1.0
1070
   272
1070
     8
1002
}
  0
DIMENSION
  5
3624
330
1F
100
AcDbEntity
  8
AM_5
100
AcDbDimension
  2
*D36
 10
2566.476583508878
 20
256.0125204969318
 30
0.0
 11
2563.976583508879
 21
197.0125204969322
 31
0.0
 70
    32
 71
     5
 42
117.9999999999999
  3
AM_ISO$0
100
AcDbAlignedDimension
 13
2527.476583508879
 23
138.0125204969318
 33
0.0
 14
2553.476583508878
 24
256.0125204969318
 34
0.0
 50
90.0
100
AcDbRotatedDimension
1001
ACAD
1000
DSTYLE
1002
{
1070
    40
1040
1.0
1070
   144
1040
1.0
1070
   272
1070
     8
1002
}
  0
DIMENSION
  5
3625
330
1F
100
AcDbEntity
  8
AM_5
100
AcDbDimension
  2
*D37
 10
2428.476583508878
 20
138.0125204969318
 30
0.0
 11
2425.976583508879
 21
154.0125204969322
 31
0.0
 70
    32
 71
     5
 42
31.99999999999994
  3
AM_ISO$0
100
AcDbAlignedDimension
 13
2440.976583508879
 23
170.0125204969317
 33
0.0
 14
2441.476583508878
 24
138.0125204969318
 34
0.0
 50
90.0
100
AcDbRotatedDimension
1001
ACAD
1000
DSTYLE
1002
{
1070
    40
1040
1.0
1070
   144
1040
1.0
1070
   272
1070
     8
1002
}
  0
DIMENSION
  5
3626
330
1F
100
AcDbEntity
  8
AM_5
100
AcDbDimension
  2
*D38
 10
2566.476583508878
 20
256.0125204969318
 30
0.0
 11
2563.976583508879
 21
268.5125204969322
 31
0.0
 70
    32
 71
     5
 42
25.0
  3
AM_ISO$0
100
AcDbAlignedDimension
 13
2553.476583508878
 23
281.0125204969318
 33
0.0
 14
2553.476583508878
 24
256.0125204969318
 34
0.0
 50
90.0
100
AcDbRotatedDimension
1001
ACAD
1000
DSTYLE
1002
{
1070
    40
1040
1.0
1070
   144
1040
1.0
1070
   272
1070
     8
1002
}
  0
DIMENSION
  5
36FF
102
{ACAD_XDICTIONARY
360
370C
102
}
102
{ACAD_REACTORS
330
370D
102
}
330
1F
100
AcDbEntity
  8
AM_5
100
AcDbDimension
  2
*D39
 10
2565.476583508879
 20
372.0125204969317
 30
0.0
 11
2562.976583508878
 21
384.5125204969321
 31
0.0
 70
    32
 71
     5
 42
25.0
  3
AM_ISO$0
100
AcDbAlignedDimension
 13
2553.476583508878
 23
397.0125204969318
 33
0.0
 14
2553.476583508878
 24
372.0125204969317
 34
0.0
 50
90.00000000000003
100
AcDbRotatedDimension
1001
ACAD
1000
DSTYLE
1002
{
1070
    40
1040
1.0
1070
   144
1040
1.0
1070
   272
1070
     8
1002
}
  0
DIMENSION
  5
3725
102
{ACAD_XDICTIONARY
360
3732
102
}
102
{ACAD_REACTORS
330
3733
102
}
330
1F
100
AcDbEntity
  8
AM_5
100
AcDbDimension
  2
*D40
 10
2172.657803487452
 20
714.4364898057913
 30
0.0
 11
2170.157803487452
 21
704.9364898057916
 31
0.0
 70
    32
 71
     5
 42
19.0
  3
AM_ISO$0
100
AcDbAlignedDimension
 13
2160.657803487452
 23
695.4364898057913
 33
0.0
 14
2160.657803487452
 24
714.4364898057913
 34
0.0
 50
90.00000000000003
100
AcDbRotatedDimension
1001
ACAD
1000
DSTYLE
1002
{
1070
    40
1040
1.0
1070
   144
1040
1.0
1070
   272
1070
     8
1002
}
  0
DIMENSION
  5
374B
102
{ACAD_XDICTIONARY
360
3758
102
}
102
{ACAD_REACTORS
330
3759
102
}
330
1F
100
AcDbEntity
  8
AM_5
100
AcDbDimension
  2
*D41
 10
2555.479733431103
 20
735.3580373858969
 30
0.0
 11
2552.979733431103
 21
724.3580373858974
 31
0.0
 70
    32
 71
     5
 42
22.0
  3
AM_ISO$0
100
AcDbAlignedDimension
 13
2543.479733431104
 23
713.3580373858969
 33
0.0
 14
2543.479733431104
 24
735.3580373858969
 34
0.0
 50
90.00000000000003
100
AcDbRotatedDimension
1001
ACAD
1000
DSTYLE
1002
{
1070
    40
1040
1.0
1070
   144
1040
1.0
1070
   272
1070
     8
1002
}
  0
DIMENSION
  5
3771
102
{ACAD_XDICTIONARY
360
377E
102
}
102
{ACAD_REACTORS
330
377F
102
}
330
1F
100
AcDbEntity
  8
AM_5
100
AcDbDimension
  2
*D42
 10
2908.206173790791
 20
749.8121711983656
 30
0.0
 11
2905.70617379079
 21
738.812171198366
 31
0.0
 70
    32
 71
     5
 42
22.0
  3
AM_ISO$0
100
AcDbAlignedDimension
 13
2896.20617379079
 23
727.8121711983656
 33
0.0
 14
2896.20617379079
 24
749.8121711983656
 34
0.0
 50
90.00000000000003
100
AcDbRotatedDimension
1001
ACAD
1000
DSTYLE
1002
{
1070
    40
1040
1.0
1070
   144
1040
1.0
1070
   272
1070
     8
1002
}
  0
DIMENSION
  5
3790
102
{ACAD_XDICTIONARY
360
379C
102
}
102
{ACAD_REACTORS
330
379D
102
}
330
1F
100
AcDbEntity
  8
AM_5
100
AcDbDimension
  2
*D43
 10
2129.702699624293
 20
722.340325542063
 30
0.0
 11
2144.966505169525
 21
733.527167190894
 31
0.0
 70
   163
  1
4-<>
 71
     5
 42
6.500000000000909
  3
AM_ISO$3
100
AcDbDiametricDimension
 15
2133.612907350611
 25
727.532654069521
 35
0.0
 40
0.0
1001
ACAD
1000
DSTYLE
1002
{
1070
    40
1040
1.0
1070
   144
1040
1.0
1070
   272
1070
     8
1002
}
  0
DIMENSION
  5
37B6
102
{ACAD_XDICTIONARY
360
37BF
102
}
102
{ACAD_REACTORS
330
37C0
102
}
330
1F
100
AcDbEntity
  8
AM_5
100
AcDbDimension
  2
*D44
 10
2504.498108811529
 20
743.7820591509161
 30
0.0
 11
2519.937635347635
 21
754.9617916561333
 31
0.0
 70
   163
  1
4-<>
 71
     5
 42
6.500000000000454
  3
AM_ISO$3
100
AcDbDiametricDimension
 15
2508.461358050679
 25
748.9340156208782
 35
0.0
 40
0.0
1001
ACAD
1000
DSTYLE
1002
{
1070
    40
1040
1.0
1070
   144
1040
1.0
1070
   272
1070
     8
1002
}
  0
DIMENSION
  5
37F0
102
{ACAD_XDICTIONARY
360
37F9
102
}
102
{ACAD_REACTORS
330
37FA
102
}
330
1F
100
AcDbEntity
  8
AM_5
100
AcDbDimension
  2
*D45
 10
2858.543378040814
 20
759.4997674195512
 30
0.0
 11
2875.805258466978
 21
772.4650285023701
 31
0.0
 70
   163
  1
4-<>
 71
     5
 42
8.5
  3
AM_ISO$3
100
AcDbDiametricDimension
 15
2863.868969540768
 25
766.1245749771792
 35
0.0
 40
0.0
1001
ACAD
1000
DSTYLE
1002
{
1070
    40
1040
1.0
1070
   144
1040
1.0
1070
   272
1070
     8
1002
}
  0
DIMENSION
  5
3813
102
{ACAD_XDICTIONARY
360
381C
102
}
102
{ACAD_REACTORS
330
381D
102
}
330
1F
100
AcDbEntity
  8
AM_5
100
AcDbDimension
  2
*D46
 10
2137.330566541409
 20
393.4234283877962
 30
0.0
 11
2156.943019223022
 21
407.7596445006102
 31
0.0
 70
   163
  1
4-<>
 71
     5
 42
8.499999999999317
  3
AM_ISO$3
100
AcDbDiametricDimension
 15
2142.985040433491
 25
399.7698387908316
 35
0.0
 40
0.0
1001
ACAD
1000
DSTYLE
1002
{
1070
    40
1040
1.0
1070
   144
1040
1.0
1070
   272
1070
     8
1002
}
  0
DIMENSION
  5
3830
102
{ACAD_XDICTIONARY
360
3839
102
}
102
{ACAD_REACTORS
330
383A
102
}
330
1F
100
AcDbEntity
  8
AM_5
100
AcDbDimension
  2
*D47
 10
2515.631908282399
 20
415.9374719094457
 30
0.0
 11
2538.368246726359
 21
429.9226346028679
 31
0.0
 70
   163
  1
4-<>
 71
     5
 42
10.50000000000091
  3
AM_ISO$3
100
AcDbDiametricDimension
 15
2523.321258735361
 25
423.0875690844173
 35
0.0
 40
0.0
1001
ACAD
1000
DSTYLE
1002
{
1070
    40
1040
1.0
1070
   144
1040
1.0
1070
   272
1070
     8
1002
}
  0
ENDSEC
  0
SECTION
  2
OBJECTS
  0
DICTIONARY
  5
C
330
0
100
AcDbDictionary
281
     1
  3
ACAD_COLOR
350
BE
  3
ACAD_GROUP
350
D
  3
ACAD_LAYOUT
350
1A
  3
ACAD_MATERIAL
350
BD
  3
ACAD_MLINESTYLE
350
17
  3
ACAD_PLOTSETTINGS
350
19
  3
ACAD_PLOTSTYLENAME
350
E
  3
ACAD_TABLESTYLE
350
11A
  3
ACDBHEADERROUNDTRIPXREC
350
38AE
  3
AcDbVariableDictionary
350
94
  3
AcmDictionary
350
5B
  3
AMG
350
41
  3
AMGSNAPSETTINGS
350
1B8
  3
DWGPROPS
350
38AD
  0
DICTIONARY
  5
3F9
330
2
100
AcDbDictionary
280
     1
281
     1
  3
ACAD_LAYERFILTERS
360
5B7
  3
ACAD_LAYERSTATES
360
1563
  3
ACLYDICTIONARY
360
5B6
  0
DICTIONARY
  5
8F
330
1F
100
AcDbDictionary
280
     1
281
     1
  3
ACAD_SORTENTS
360
9E6
  0
DICTIONARY
  5
2CAA
330
2C9D
100
AcDbDictionary
280
     1
281
     1
  3
ACAD_DIMASSOC
360
2CAB
  0
DICTIONARY
  5
2D04
330
2CF7
100
AcDbDictionary
280
     1
281
     1
  3
ACAD_DIMASSOC
360
2D05
  0
DICTIONARY
  5
2D2A
330
2D1D
100
AcDbDictionary
280
     1
281
     1
  3
ACAD_DIMASSOC
360
2D2B
  0
DICTIONARY
  5
341F
330
3412
100
AcDbDictionary
280
     1
281
     1
  3
ACAD_DIMASSOC
360
3420
  0
DICTIONARY
  5
370C
330
36FF
100
AcDbDictionary
280
     1
281
     1
  3
ACAD_DIMASSOC
360
370D
  0
DICTIONARY
  5
3732
330
3725
100
AcDbDictionary
280
     1
281
     1
  3
ACAD_DIMASSOC
360
3733
  0
DICTIONARY
  5
3758
330
374B
100
AcDbDictionary
280
     1
281
     1
  3
ACAD_DIMASSOC
360
3759
  0
DICTIONARY
  5
377E
330
3771
100
AcDbDictionary
280
     1
281
     1
  3
ACAD_DIMASSOC
360
377F
  0
DICTIONARY
  5
379C
330
3790
100
AcDbDictionary
280
     1
281
     1
  3
ACAD_DIMASSOC
360
379D
  0
DICTIONARY
  5
37BF
330
37B6
100
AcDbDictionary
280
     1
281
     1
  3
ACAD_DIMASSOC
360
37C0
  0
DICTIONARY
  5
37F9
330
37F0
100
AcDbDictionary
280
     1
281
     1
  3
ACAD_DIMASSOC
360
37FA
  0
DICTIONARY
  5
381C
330
3813
100
AcDbDictionary
280
     1
281
     1
  3
ACAD_DIMASSOC
360
381D
  0
DICTIONARY
  5
3839
330
3830
100
AcDbDictionary
280
     1
281
     1
  3
ACAD_DIMASSOC
360
383A
  0
DICTIONARY
  5
BE
102
{ACAD_REACTORS
330
C
102
}
330
C
100
AcDbDictionary
281
     1
  0
DICTIONARY
  5
D
102
{ACAD_REACTORS
330
C
102
}
330
C
100
AcDbDictionary
281
     1
  0
DICTIONARY
  5
1A
102
{ACAD_REACTORS
330
C
102
}
330
C
100
AcDbDictionary
281
     1
  3
Model
350
22
  3
配置1
350
1E
  3
配置2
350
26
  0
DICTIONARY
  5
BD
102
{ACAD_REACTORS
330
C
102
}
330
C
100
AcDbDictionary
281
     1
  0
DICTIONARY
  5
17
102
{ACAD_REACTORS
330
C
102
}
330
C
100
AcDbDictionary
281
     1
  3
Standard
350
18
  0
DICTIONARY
  5
19
102
{ACAD_REACTORS
330
C
102
}
330
C
100
AcDbDictionary
281
     1
  0
ACDBDICTIONARYWDFLT
  5
E
102
{ACAD_REACTORS
330
C
102
}
330
C
100
AcDbDictionary
281
     1
  3
Normal
350
F
100
AcDbDictionaryWithDefault
340
F
  0
DICTIONARY
  5
11A
102
{ACAD_REACTORS
330
C
102
}
330
C
100
AcDbDictionary
281
     1
  3
Standard
350
11B
  0
DICTIONARY
  5
38AE
102
{ACAD_REACTORS
330
C
102
}
330
C
100
AcDbDictionary
281
     1
  0
DICTIONARY
  5
94
102
{ACAD_REACTORS
330
C
102
}
330
C
100
AcDbDictionary
281
     1
  3
CTABLESTYLE
350
138
  3
DIMASSOC
350
96
  3
INDEXCTL
350
95
  3
PROJECTNAME
350
38AB
  0
DICTIONARY
  5
5B
102
{ACAD_REACTORS
330
C
102
}
330
C
100
AcDbDictionary
281
     1
  3
AcmBOM
350
1B5
  3
AcmStdDictionary
350
61
  3
AMDTSECTSYM_ARROWCOLOR
350
123
  0
DICTIONARY
  5
41
102
{ACAD_REACTORS
330
C
102
}
330
C
100
AcDbDictionary
281
     1
  0
DICTIONARY
  5
1B8
102
{ACAD_REACTORS
330
C
102
}
330
C
100
AcDbDictionary
281
     1
  0
XRECORD
  5
38AD
102
{ACAD_REACTORS
330
C
102
}
330
C
100
AcDbXrecord
280
     1
  1
DWGPROPS COOKIE
  2

  3

  4

  6

  7

  8

  9

300
AmdtFileType=84
301
=
302
=
303
=
304
=
305
=
306
=
307
=
308
=
309
=
 40
0.1609194097222222
 41
2453731.618400787
 42
2453732.445477245
  1

 90
        1
  0
DICTIONARY
  5
5B7
102
{ACAD_REACTORS
330
3F9
102
}
330
3F9
100
AcDbDictionary
281
     1
  0
DICTIONARY
  5
1563
102
{ACAD_REACTORS
330
3F9
102
}
330
3F9
100
AcDbDictionary
281
     1
  0
DICTIONARY
  5
5B6
102
{ACAD_REACTORS
330
3F9
102
}
330
3F9
100
AcDbDictionary
281
     1
1001
ACAD
1000
<All
  0
SORTENTSTABLE
  5
9E6
102
{ACAD_REACTORS
330
8F
102
}
330
8F
100
AcDbSortentsTable
330
1F
331
2A04
  5
2A04
331
1728
  5
1728
331
1AAD
  5
1AAD
331
30A8
  5
30A8
331
2A0C
  5
2A0C
331
2DD7
  5
2DD7
331
3061
  5
3061
331
1767
  5
1767
331
1730
  5
1730
331
328B
  5
328B
331
30B0
  5
30B0
331
3069
  5
3069
331
2A14
  5
2A14
331
2DDF
  5
2DDF
331
1738
  5
1738
331
176F
  5
176F
331
32FA
  5
32FA
331
329B
  5
329B
331
3107
  5
3107
331
2F53
  5
2F53
331
3071
  5
3071
331
2BA3
  5
2BA3
331
2DE7
  5
2DE7
331
1777
  5
1777
331
1A8E
  5
1A8E
331
330A
  5
330A
331
3264
  5
3264
331
32A3
  5
32A3
331
30C0
  5
30C0
331
3079
  5
3079
331
2DEF
  5
2DEF
331
3312
  5
3312
331
326C
  5
326C
331
3371
  5
3371
331
350E
  5
350E
331
3545
  5
3545
331
1740
  5
1740
331
29E5
  5
29E5
331
2BB3
  5
2BB3
331
177F
  5
177F
331
1A96
  5
1A96
331
30D0
  5
30D0
331
2B6C
  5
2B6C
331
2BBB
  5
2BBB
331
2E46
  5
2E46
331
1A9E
  5
1A9E
331
3274
  5
3274
331
29F5
  5
29F5
331
2B7C
  5
2B7C
331
2DC8
  5
2DC8
331
2E56
  5
2E56
331
1797
  5
1797
331
1AA6
  5
1AA6
331
327C
  5
327C
331
29FD
  5
29FD
331
305A
  5
305A
331
3091
  5
3091
331
351E
  5
351E
331
3284
  5
3284
331
2E0F
  5
2E0F
331
3526
  5
3526
331
324D
  5
324D
331
352E
  5
352E
331
34F7
  5
34F7
331
1758
  5
1758
331
2A05
  5
2A05
331
1729
  5
1729
331
1AAE
  5
1AAE
331
30A9
  5
30A9
331
2A0D
  5
2A0D
331
2DD8
  5
2DD8
331
3062
  5
3062
331
1768
  5
1768
331
1731
  5
1731
331
328C
  5
328C
331
2E1F
  5
2E1F
331
2DE0
  5
2DE0
331
1770
  5
1770
331
1739
  5
1739
331
32FB
  5
32FB
331
329C
  5
329C
331
3108
  5
3108
331
3072
  5
3072
331
2DE8
  5
2DE8
331
330B
  5
330B
331
3265
  5
3265
331
30C1
  5
30C1
331
307A
  5
307A
331
326D
  5
326D
331
3372
  5
3372
331
319F
  5
319F
331
350F
  5
350F
331
3546
  5
3546
331
1778
  5
1778
331
1741
  5
1741
331
29E6
  5
29E6
331
2BB4
  5
2BB4
331
1780
  5
1780
331
1A97
  5
1A97
331
29EE
  5
29EE
331
2B6D
  5
2B6D
331
2BBC
  5
2BBC
331
30D1
  5
30D1
331
1A9F
  5
1A9F
331
3275
  5
3275
331
29F6
  5
29F6
331
2B7D
  5
2B7D
331
2DC9
  5
2DC9
331
2E57
  5
2E57
331
1AA7
  5
1AA7
331
32D4
  5
32D4
331
327D
  5
327D
331
29FE
  5
29FE
331
305B
  5
305B
331
3092
  5
3092
331
351F
  5
351F
331
3285
  5
3285
331
3527
  5
3527
331
324E
  5
324E
331
3412
  5
3412
331
1759
  5
1759
331
17A8
  5
17A8
331
2E10
  5
2E10
331
2DD1
  5
2DD1
331
17B8
  5
17B8
331
172A
  5
172A
331
1AAF
  5
1AAF
331
2A06
  5
2A06
331
30AA
  5
30AA
331
2DD9
  5
2DD9
331
2E67
  5
2E67
331
3063
  5
3063
331
1732
  5
1732
331
1AB7
  5
1AB7
331
2A0E
  5
2A0E
331
2E20
  5
2E20
331
2DE1
  5
2DE1
331
34F8
  5
34F8
331
1771
  5
1771
331
173A
  5
173A
331
2A16
  5
2A16
331
329D
  5
329D
331
325E
  5
325E
331
3109
  5
3109
331
3073
  5
3073
331
2DE9
  5
2DE9
331
3500
  5
3500
331
29DF
  5
29DF
331
330C
  5
330C
331
3266
  5
3266
331
307B
  5
307B
331
326E
  5
326E
331
3510
  5
3510
331
3547
  5
3547
331
1779
  5
1779
331
1742
  5
1742
331
2BB5
  5
2BB5
331
2DF1
  5
2DF1
331
1781
  5
1781
331
174A
  5
174A
331
1A98
  5
1A98
331
29E7
  5
29E7
331
30D2
  5
30D2
331
2BBD
  5
2BBD
331
2DF9
  5
2DF9
331
31A0
  5
31A0
331
1791
  5
1791
331
1AA0
  5
1AA0
331
29EF
  5
29EF
331
3276
  5
3276
331
30E2
  5
30E2
331
2E58
  5
2E58
331
2DCA
  5
2DCA
331
2E01
  5
2E01
331
3518
  5
3518
331
1799
  5
1799
331
2B7E
  5
2B7E
331
32D5
  5
32D5
331
327E
  5
327E
331
2E09
  5
2E09
331
305C
  5
305C
331
3093
  5
3093
331
3520
  5
3520
331
29FF
  5
29FF
331
3286
  5
3286
331
3528
  5
3528
331
324F
  5
324F
331
34F1
  5
34F1
331
175A
  5
175A
331
17A9
  5
17A9
331
1AA8
  5
1AA8
331
2E11
  5
2E11
331
1762
  5
1762
331
172B
  5
172B
331
17B9
  5
17B9
331
1AB0
  5
1AB0
331
2A07
  5
2A07
331
30AB
  5
30AB
331
2DDA
  5
2DDA
331
2E68
  5
2E68
331
1733
  5
1733
331
2A0F
  5
2A0F
331
2B8E
  5
2B8E
331
2E21
  5
2E21
331
2DE2
  5
2DE2
331
2E78
  5
2E78
331
34F9
  5
34F9
331
1772
  5
1772
331
173B
  5
173B
331
1A89
  5
1A89
331
2A17
  5
2A17
331
329E
  5
329E
331
3074
  5
3074
331
3530
  5
3530
331
2E98
  5
2E98
331
2E31
  5
2E31
331
2DEA
  5
2DEA
331
2F56
  5
2F56
331
3540
  5
3540
331
330D
  5
330D
331
307C
  5
307C
331
3267
  5
3267
331
3511
  5
3511
331
3548
  5
3548
331
326F
  5
326F
331
177A
  5
177A
331
1743
  5
1743
331
29E0
  5
29E0
331
1782
  5
1782
331
1A99
  5
1A99
331
2BB6
  5
2BB6
331
30D3
  5
30D3
331
31A1
  5
31A1
331
1753
  5
1753
331
1792
  5
1792
331
1AA1
  5
1AA1
331
29F0
  5
29F0
331
3519
  5
3519
331
32C6
  5
32C6
331
30E3
  5
30E3
331
3055
  5
3055
331
2DCB
  5
2DCB
331
2E02
  5
2E02
331
2C9D
  5
2C9D
331
179A
  5
179A
331
29F8
  5
29F8
331
2B7F
  5
2B7F
331
3277
  5
3277
331
3521
  5
3521
331
32D6
  5
32D6
331
2E0A
  5
2E0A
331
305D
  5
305D
331
3094
  5
3094
331
327F
  5
327F
331
3529
  5
3529
331
3287
  5
3287
331
34F2
  5
34F2
331
32E6
  5
32E6
331
1AA9
  5
1AA9
331
2A00
  5
2A00
331
2DD3
  5
2DD3
331
17BA
  5
17BA
331
172C
  5
172C
331
1AB1
  5
1AB1
331
2A08
  5
2A08
331
30AC
  5
30AC
331
2DDB
  5
2DDB
331
2E69
  5
2E69
331
198A
  5
198A
331
1734
  5
1734
331
2A10
  5
2A10
331
2B8F
  5
2B8F
331
3250
  5
3250
331
2E22
  5
2E22
331
2DE3
  5
2DE3
331
34FA
  5
34FA
331
1773
  5
1773
331
173C
  5
173C
331
2A18
  5
2A18
331
3531
  5
3531
331
329F
  5
329F
331
3075
  5
3075
331
310B
  5
310B
331
2E99
  5
2E99
331
2DEB
  5
2DEB
331
2E32
  5
2E32
331
3541
  5
3541
331
307D
  5
307D
331
3268
  5
3268
331
3512
  5
3512
331
177B
  5
177B
331
1744
  5
1744
331
29E1
  5
29E1
331
2B58
  5
2B58
331
2D1D
  5
2D1D
331
1A9A
  5
1A9A
331
1783
  5
1783
331
29E9
  5
29E9
331
2BB7
  5
2BB7
331
1754
  5
1754
331
1793
  5
1793
331
29F1
  5
29F1
331
351A
  5
351A
331
3278
  5
3278
331
30E4
  5
30E4
331
3056
  5
3056
331
308D
  5
308D
331
29F9
  5
29F9
331
2DCC
  5
2DCC
331
2E03
  5
2E03
331
3522
  5
3522
331
32D7
  5
32D7
331
3280
  5
3280
331
30F4
  5
30F4
331
2E0B
  5
2E0B
331
305E
  5
305E
331
3095
  5
3095
331
352A
  5
352A
331
34F3
  5
34F3
331
32E7
  5
32E7
331
1AAA
  5
1AAA
331
2A01
  5
2A01
331
17BB
  5
17BB
331
172D
  5
172D
331
2A09
  5
2A09
331
2DD4
  5
2DD4
331
3251
  5
3251
331
3288
  5
3288
331
30AD
  5
30AD
331
198B
  5
198B
331
176C
  5
176C
331
1735
  5
1735
331
1ABA
  5
1ABA
331
2A11
  5
2A11
331
2B90
  5
2B90
331
2DDC
  5
2DDC
331
2E6A
  5
2E6A
331
3066
  5
3066
331
34FB
  5
34FB
331
2F50
  5
2F50
331
306E
  5
306E
331
1A8B
  5
1A8B
331
1774
  5
1774
331
173D
  5
173D
331
2A19
  5
2A19
331
2BA0
  5
2BA0
331
2DE4
  5
2DE4
331
32A0
  5
32A0
331
310C
  5
310C
331
2E9A
  5
2E9A
331
2E33
  5
2E33
331
3076
  5
3076
331
2DEC
  5
2DEC
331
3542
  5
3542
331
330F
  5
330F
331
32B0
  5
32B0
331
3269
  5
3269
331
307E
  5
307E
331
3513
  5
3513
331
177C
  5
177C
331
1745
  5
1745
331
29E2
  5
29E2
331
2B59
  5
2B59
331
1A9B
  5
1A9B
331
1784
  5
1784
331
29EA
  5
29EA
331
2BB8
  5
2BB8
331
2E43
  5
2E43
331
1794
  5
1794
331
1AA3
  5
1AA3
331
29F2
  5
29F2
331
3086
  5
3086
331
1755
  5
1755
331
351B
  5
351B
331
3279
  5
3279
331
30E5
  5
30E5
331
3057
  5
3057
331
308E
  5
308E
331
29FA
  5
29FA
331
2DCD
  5
2DCD
331
2E04
  5
2E04
331
3523
  5
3523
331
3281
  5
3281
331
30F5
  5
30F5
331
2E0C
  5
2E0C
331
305F
  5
305F
331
352B
  5
352B
331
34F4
  5
34F4
331
1AAB
  5
1AAB
331
2A02
  5
2A02
331
2A0A
  5
2A0A
331
172E
  5
172E
331
32E8
  5
32E8
331
3289
  5
3289
331
30AE
  5
30AE
331
2A12
  5
2A12
331
2B91
  5
2B91
331
2CF7
  5
2CF7
331
2DDD
  5
2DDD
331
3067
  5
3067
331
176D
  5
176D
331
1736
  5
1736
331
34FC
  5
34FC
331
32F8
  5
32F8
331
306F
  5
306F
331
2BA1
  5
2BA1
331
2DE5
  5
2DE5
331
1775
  5
1775
331
173E
  5
173E
331
1A8C
  5
1A8C
331
3262
  5
3262
331
32A1
  5
32A1
331
310D
  5
310D
331
30BE
  5
30BE
331
2E9B
  5
2E9B
331
2E34
  5
2E34
331
3077
  5
3077
331
2DED
  5
2DED
331
350C
  5
350C
331
3543
  5
3543
331
3310
  5
3310
331
326A
  5
326A
331
3514
  5
3514
331
29E3
  5
29E3
331
2B5A
  5
2B5A
331
2BB1
  5
2BB1
331
177D
  5
177D
331
1746
  5
1746
331
29EB
  5
29EB
331
2B6A
  5
2B6A
331
2BB9
  5
2BB9
331
2E44
  5
2E44
331
174E
  5
174E
331
1A9C
  5
1A9C
331
29F3
  5
29F3
331
1756
  5
1756
331
1795
  5
1795
331
351C
  5
351C
331
327A
  5
327A
331
3058
  5
3058
331
308F
  5
308F
331
29FB
  5
29FB
331
2DCE
  5
2DCE
331
2E05
  5
2E05
331
3524
  5
3524
331
3282
  5
3282
331
30F6
  5
30F6
331
2E0D
  5
2E0D
331
3097
  5
3097
331
352C
  5
352C
331
34F5
  5
34F5
331
1AAC
  5
1AAC
331
2A03
  5
2A03
331
175E
  5
175E
331
2A0B
  5
2A0B
331
3060
  5
3060
331
1766
  5
1766
331
172F
  5
172F
331
32E9
  5
32E9
331
3253
  5
3253
331
30AF
  5
30AF
331
2A13
  5
2A13
331
2DDE
  5
2DDE
331
176E
  5
176E
331
1737
  5
1737
331
32F9
  5
32F9
331
3106
  5
3106
331
3070
  5
3070
331
2BA2
  5
2BA2
331
2DE6
  5
2DE6
331
1776
  5
1776
331
173F
  5
173F
331
1A8D
  5
1A8D
331
3263
  5
3263
331
32A2
  5
32A2
331
310E
  5
310E
331
30BF
  5
30BF
331
3078
  5
3078
331
2DEE
  5
2DEE
331
350D
  5
350D
331
3544
  5
3544
331
3311
  5
3311
331
326B
  5
326B
331
3370
  5
3370
331
29E4
  5
29E4
331
2B5B
  5
2B5B
331
2BB2
  5
2BB2
331
177E
  5
177E
331
29EC
  5
29EC
331
2B6B
  5
2B6B
331
2BBA
  5
2BBA
331
2E45
  5
2E45
331
174F
  5
174F
331
1A9D
  5
1A9D
331
3273
  5
3273
331
2DC7
  5
2DC7
331
2E55
  5
2E55
331
1757
  5
1757
331
1796
  5
1796
331
351D
  5
351D
331
327B
  5
327B
331
3059
  5
3059
331
3090
  5
3090
331
29FC
  5
29FC
331
2DCF
  5
2DCF
331
2E06
  5
2E06
331
3525
  5
3525
331
3283
  5
3283
331
30F7
  5
30F7
331
2E0E
  5
2E0E
331
3098
  5
3098
331
352D
  5
352D
331
34F6
  5
34F6
  0
DIMASSOC
  5
2CAB
102
{ACAD_REACTORS
330
2CAA
102
}
330
2CAA
100
AcDbDimAssoc
330
2C9D
 90
        3
 70
     0
 71
     0
  1
AcDbOsnapPointRef
 72
     1
331
2B91
 73
     0
 91
        0
 40
0.0
 10
0.0
 20
0.0
 30
2.000000000000000E+50
 75
     0
  1
AcDbOsnapPointRef
 72
     1
331
2B7F
 73
     0
 91
        0
 40
0.0
 10
0.0
 20
0.0
 30
2.000000000000000E+50
 75
     0
  0
DIMASSOC
  5
2D05
102
{ACAD_REACTORS
330
2D04
102
}
330
2D04
100
AcDbDimAssoc
330
2CF7
 90
        3
 70
     0
 71
     0
  1
AcDbOsnapPointRef
 72
    13
331
29F0
 73
     0
 91
        0
 40
0.0
 10
0.0
 20
0.0
 30
2.000000000000000E+50
 75
     0
  1
AcDbOsnapPointRef
 72
     1
331
2A0B
 73
     0
 91
        0
 40
0.0
 10
0.0
 20
0.0
 30
2.000000000000000E+50
 75
     0
  0
DIMASSOC
  5
2D2B
102
{ACAD_REACTORS
330
2D2A
102
}
330
2D2A
100
AcDbDimAssoc
330
2D1D
 90
        3
 70
     0
 71
     0
  1
AcDbOsnapPointRef
 72
     1
331
2A09
 73
     0
 91
        0
 40
0.0
 10
0.0
 20
0.0
 30
2.000000000000000E+50
 75
     0
  1
AcDbOsnapPointRef
 72
    13
331
2A08
 73
     0
 91
        0
 40
0.0
 10
0.0
 20
0.0
 30
2.000000000000000E+50
 75
     0
  0
DIMASSOC
  5
3420
102
{ACAD_REACTORS
330
341F
102
}
330
341F
100
AcDbDimAssoc
330
3412
 90
        3
 70
     0
 71
     0
  1
AcDbOsnapPointRef
 72
    13
331
327D
 73
     0
 91
        0
 40
0.0
 10
0.0
 20
0.0
 30
2.000000000000000E+50
 75
     0
  1
AcDbOsnapPointRef
 72
     1
331
327E
 73
     0
 91
        0
 40
0.0
 10
0.0
 20
0.0
 30
2.000000000000000E+50
 75
     0
  0
DIMASSOC
  5
370D
102
{ACAD_REACTORS
330
370C
102
}
330
370C
100
AcDbDimAssoc
330
36FF
 90
        3
 70
     0
 71
     0
  1
AcDbOsnapPointRef
 72
     1
331
3523
 73
     0
 91
        0
 40
0.0
 10
0.0
 20
0.0
 30
2.000000000000000E+50
 75
     0
  1
AcDbOsnapPointRef
 72
    13
331
3522
 73
     0
 91
        0
 40
0.0
 10
0.0
 20
0.0
 30
2.000000000000000E+50
 75
     0
  0
DIMASSOC
  5
3733
102
{ACAD_REACTORS
330
3732
102
}
330
3732
100
AcDbDimAssoc
330
3725
 90
        3
 70
     0
 71
     0
  1
AcDbOsnapPointRef
 72
     1
331
2A08
 73
     0
 91
        0
 40
0.0
 10
0.0
 20
0.0
 30
2.000000000000000E+50
 75
     0
  1
AcDbOsnapPointRef
 72
    13
331
2A07
 73
     0
 91
        0
 40
0.0
 10
0.0
 20
0.0
 30
2.000000000000000E+50
 75
     0
  0
DIMASSOC
  5
3759
102
{ACAD_REACTORS
330
3758
102
}
330
3758
100
AcDbDimAssoc
330
374B
 90
        3
 70
     0
 71
     0
  1
AcDbOsnapPointRef
 72
     1
331
2DE0
 73
     0
 91
        0
 40
0.0
 10
0.0
 20
0.0
 30
2.000000000000000E+50
 75
     0
  1
AcDbOsnapPointRef
 72
    13
331
2DDF
 73
     0
 91
        0
 40
0.0
 10
0.0
 20
0.0
 30
2.000000000000000E+50
 75
     0
  0
DIMASSOC
  5
377F
102
{ACAD_REACTORS
330
377E
102
}
330
377E
100
AcDbDimAssoc
330
3771
 90
        3
 70
     0
 71
     0
  1
AcDbOsnapPointRef
 72
     1
331
3078
 73
     0
 91
        0
 40
0.0
 10
0.0
 20
0.0
 30
2.000000000000000E+50
 75
     0
  1
AcDbOsnapPointRef
 72
    13
331
3077
 73
     0
 91
        0
 40
0.0
 10
0.0
 20
0.0
 30
2.000000000000000E+50
 75
     0
  0
DIMASSOC
  5
379D
102
{ACAD_REACTORS
330
379C
102
}
330
379C
100
AcDbDimAssoc
330
3790
 90
        2
 70
     0
 71
     0
  1
AcDbOsnapPointRef
 72
     3
331
29FC
 73
     2
 91
        0
 40
0.0
 10
0.0
 20
0.0
 30
0.0
 75
     0
  0
DIMASSOC
  5
37C0
102
{ACAD_REACTORS
330
37BF
102
}
330
37BF
100
AcDbDimAssoc
330
37B6
 90
        2
 70
     0
 71
     0
  1
AcDbOsnapPointRef
 72
     3
331
2DD8
 73
     2
 91
        0
 40
0.0
 10
0.0
 20
0.0
 30
0.0
 75
     0
  0
DIMASSOC
  5
37FA
102
{ACAD_REACTORS
330
37F9
102
}
330
37F9
100
AcDbDimAssoc
330
37F0
 90
        2
 70
     0
 71
     0
  1
AcDbOsnapPointRef
 72
     3
331
306F
 73
     2
 91
        0
 40
0.0
 10
0.0
 20
0.0
 30
0.0
 75
     0
  0
DIMASSOC
  5
381D
102
{ACAD_REACTORS
330
381C
102
}
330
381C
100
AcDbDimAssoc
330
3813
 90
        2
 70
     0
 71
     0
  1
AcDbOsnapPointRef
 72
     3
331
3265
 73
     2
 91
        0
 40
0.0
 10
0.0
 20
0.0
 30
0.0
 75
     0
  0
DIMASSOC
  5
383A
102
{ACAD_REACTORS
330
3839
102
}
330
3839
100
AcDbDimAssoc
330
3830
 90
        2
 70
     0
 71
     0
  1
AcDbOsnapPointRef
 72
     3
331
350C
 73
     2
 91
        0
 40
0.0
 10
0.0
 20
0.0
 30
0.0
 75
     0
  0
LAYOUT
  5
22
102
{ACAD_XDICTIONARY
360
38B1
102
}
102
{ACAD_REACTORS
330
1A
102
}
330
1A
100
AcDbPlotSettings
  1

  2
\\RD\EPSON Stylus C63 Series單色
  4
A4
  6

 40
3.757083177566528
 41
3.757076978683471
 42
3.757080078125
 43
3.757080078125
 44
209.9733276367187
 45
296.9683227539062
 46
0.0
 47
0.0
 48
0.0
 49
0.0
140
0.0
141
0.0
142
1.0
143
0.3405120737814363
 70
 11952
 72
     1
 73
     0
 74
     0
  7
單色出圖.ctb
 75
     0
147
2.936753428137963
148
-2047.07469463503
149
-1261.649717473083
100
AcDbLayout
  1
Model
 70
     1
 71
     0
 10
0.0
 20
0.0
 11
12.0
 21
9.0
 12
0.0
 22
0.0
 32
0.0
 14
0.0
 24
0.0
 34
0.0
 15
0.0
 25
0.0
 35
0.0
146
0.0
 13
0.0
 23
0.0
 33
0.0
 16
1.0
 26
0.0
 36
0.0
 17
0.0
 27
1.0
 37
0.0
 76
     0
330
1F
1001
ACAD_PSEXT
1000
\\RD\EPSON Stylus C63 Series單色
1000
EPSON Stylus C63 Series
1000
\\RD
1000

1070
     0
  0
LAYOUT
  5
1E
102
{ACAD_XDICTIONARY
360
38AF
102
}
102
{ACAD_REACTORS
330
1A
102
}
330
1A
100
AcDbPlotSettings
  1

  2

  4

  6

 40
0.0
 41
0.0
 42
0.0
 43
0.0
 44
0.0
 45
0.0
 46
0.0
 47
0.0
 48
0.0
 49
0.0
140
0.0
141
0.0
142
1.0
143
1.0
 70
   688
 72
     0
 73
     0
 74
     5
  7
單色出圖.ctb
 75
    16
147
1.0
148
0.0
149
0.0
100
AcDbLayout
  1
配置1
 70
     1
 71
     1
 10
0.0
 20
0.0
 11
420.0
 21
297.0
 12
0.0
 22
0.0
 32
0.0
 14
1.000000000000000E+20
 24
1.000000000000000E+20
 34
1.000000000000000E+20
 15
-1.000000000000000E+20
 25
-1.000000000000000E+20
 35
-1.000000000000000E+20
146
0.0
 13
0.0
 23
0.0
 33
0.0
 16
1.0
 26
0.0
 36
0.0
 17
0.0
 27
1.0
 37
0.0
 76
     0
330
1B
  0
LAYOUT
  5
26
102
{ACAD_XDICTIONARY
360
38B3
102
}
102
{ACAD_REACTORS
330
1A
102
}
330
1A
100
AcDbPlotSettings
  1

  2

  4

  6

 40
0.0
 41
0.0
 42
0.0
 43
0.0
 44
0.0
 45
0.0
 46
0.0
 47
0.0
 48
0.0
 49
0.0
140
0.0
141
0.0
142
1.0
143
1.0
 70
   688
 72
     0
 73
     0
 74
     5
  7
單色出圖.ctb
 75
    16
147
1.0
148
0.0
149
0.0
100
AcDbLayout
  1
配置2
 70
     1
 71
     2
 10
0.0
 20
0.0
 11
12.0
 21
9.0
 12
0.0
 22
0.0
 32
0.0
 14
0.0
 24
0.0
 34
0.0
 15
0.0
 25
0.0
 35
0.0
146
0.0
 13
0.0
 23
0.0
 33
0.0
 16
1.0
 26
0.0
 36
0.0
 17
0.0
 27
1.0
 37
0.0
 76
     0
330
23
  0
MLINESTYLE
  5
18
102
{ACAD_REACTORS
330
17
102
}
330
17
100
AcDbMlineStyle
  2
STANDARD
 70
     0
  3

 62
   256
 51
90.0
 52
90.0
 71
     2
 49
0.5
 62
   256
  6
BYLAYER
 49
-0.5
 62
   256
  6
BYLAYER
  0
ACDBPLACEHOLDER
  5
F
102
{ACAD_REACTORS
330
E
102
}
330
E
  0
TABLESTYLE
  5
11B
102
{ACAD_REACTORS
330
11A
102
}
330
11A
100
AcDbTableStyle
  3
Standard
 70
     0
 71
     0
 40
1.5
 41
1.5
280
     0
281
     0
  7
STANDARD
140
4.5
170
     2
 62
     0
 63
     7
283
     0
274
    -2
284
     1
 64
     0
275
    -2
285
     1
 65
     0
276
    -2
286
     1
 66
     0
277
    -2
287
     1
 67
     0
278
    -2
288
     1
 68
     0
279
    -2
289
     1
 69
     0
  7
STANDARD
140
6.0
170
     5
 62
     0
 63
     7
283
     0
274
    -2
284
     1
 64
     0
275
    -2
285
     1
 65
     0
276
    -2
286
     1
 66
     0
277
    -2
287
     1
 67
     0
278
    -2
288
     1
 68
     0
279
    -2
289
     1
 69
     0
  7
STANDARD
140
4.5
170
     5
 62
     0
 63
     7
283
     0
274
    -2
284
     1
 64
     0
275
    -2
285
     1
 65
     0
276
    -2
286
     1
 66
     0
277
    -2
287
     1
 67
     0
278
    -2
288
     1
 68
     0
279
    -2
289
     1
 69
     0
  0
DICTIONARYVAR
  5
138
102
{ACAD_REACTORS
330
94
102
}
330
94
100
DictionaryVariables
280
     0
  1
STANDARD
  0
DICTIONARYVAR
  5
96
102
{ACAD_REACTORS
330
94
102
}
330
94
100
DictionaryVariables
280
     0
  1
2
  0
DICTIONARYVAR
  5
95
102
{ACAD_REACTORS
330
94
102
}
330
94
100
DictionaryVariables
280
     0
  1
0
  0
DICTIONARYVAR
  5
38AB
102
{ACAD_REACTORS
330
94
102
}
330
94
100
DictionaryVariables
280
     0
  1

  0
DICTIONARY
  5
1B5
102
{ACAD_REACTORS
330
5B
102
}
330
5B
100
AcDbDictionary
281
     1
  0
DICTIONARY
  5
61
102
{ACAD_REACTORS
330
5B
102
}
330
5B
100
AcDbDictionary
281
     1
  0
XRECORD
  5
123
102
{ACAD_REACTORS
330
5B
102
}
330
5B
100
AcDbXrecord
280
     1
 90
-1023410169
  0
DICTIONARY
  5
38B1
330
22
100
AcDbDictionary
280
     1
281
     1
  3
ACAD_XREC_ROUNDTRIP
360
38B2
  0
DICTIONARY
  5
38AF
330
1E
100
AcDbDictionary
280
     1
281
     1
  3
ACAD_XREC_ROUNDTRIP
360
38B0
  0
DICTIONARY
  5
38B3
330
26
100
AcDbDictionary
280
     1
281
     1
  3
ACAD_XREC_ROUNDTRIP
360
38B4
  0
XRECORD
  5
38B2
102
{ACAD_REACTORS
330
38B1
102
}
330
38B1
100
AcDbXrecord
280
     1
102
SHADEPLOT
 70
     0
102
SHADEPLOTRESLEVEL
 70
     2
102
SHADEPLOTCUSTOMDPI
 70
   300
  0
XRECORD
  5
38B0
102
{ACAD_REACTORS
330
38AF
102
}
330
38AF
100
AcDbXrecord
280
     1
102
SHADEPLOT
 70
     0
102
SHADEPLOTRESLEVEL
 70
     2
102
SHADEPLOTCUSTOMDPI
 70
   300
  0
XRECORD
  5
38B4
102
{ACAD_REACTORS
330
38B3
102
}
330
38B3
100
AcDbXrecord
280
     1
102
SHADEPLOT
 70
     0
102
SHADEPLOTRESLEVEL
 70
     2
102
SHADEPLOTCUSTOMDPI
 70
   300
  0
ENDSEC
  0
EOF
