  0
SECTION
  2
HEADER
  9
$ACADVER
  1
AC1015
  9
$ACADMAINTVER
 70
    20
  9
$DWGCODEPAGE
  3
ANSI_950
  9
$INSBASE
 10
0.0
 20
0.0
 30
0.0
  9
$EXTMIN
 10
603.4359908715278
 20
25.09238914235311
 30
-0.0079935138433029
  9
$EXTMAX
 10
1335.617759795435
 20
825.1404293123478
 30
524.2389038779103
  9
$LIMMIN
 10
0.0
 20
0.0
  9
$LIMMAX
 10
420.0
 20
297.0
  9
$ORTHOMODE
 70
     1
  9
$REGENMODE
 70
     1
  9
$FILLMODE
 70
     1
  9
$QTEXTMODE
 70
     0
  9
$MIRRTEXT
 70
     1
  9
$LTSCALE
 40
1.0
  9
$ATTMODE
 70
     1
  9
$TEXTSIZE
 40
3.0
  9
$TRACEWID
 40
1.0
  9
$TEXTSTYLE
  7
CHINESET
  9
$CLAYER
  8
0
  9
$CELTYPE
  6
ByLayer
  9
$CECOLOR
 62
   256
  9
$CELTSCALE
 40
1.0
  9
$DISPSILH
 70
     0
  9
$DIMSCALE
 40
1.0
  9
$DIMASZ
 40
3.0
  9
$DIMEXO
 40
1.0
  9
$DIMDLI
 40
10.0
  9
$DIMRND
 40
0.0
  9
$DIMDLE
 40
0.0
  9
$DIMEXE
 40
1.5
  9
$DIMTP
 40
0.1
  9
$DIMTM
 40
0.1
  9
$DIMTXT
 40
3.0
  9
$DIMCEN
 40
0.0
  9
$DIMTSZ
 40
0.0
  9
$DIMTOL
 70
     0
  9
$DIMLIM
 70
     0
  9
$DIMTIH
 70
     0
  9
$DIMTOH
 70
     0
  9
$DIMSE1
 70
     0
  9
$DIMSE2
 70
     0
  9
$DIMTAD
 70
     1
  9
$DIMZIN
 70
     8
  9
$DIMBLK
  1

  9
$DIMASO
 70
     1
  9
$DIMSHO
 70
     1
  9
$DIMPOST
  1

  9
$DIMAPOST
  1
"
  9
$DIMALT
 70
     0
  9
$DIMALTD
 70
     2
  9
$DIMALTF
 40
0.0393701
  9
$DIMLFAC
 40
1.0
  9
$DIMTOFL
 70
     1
  9
$DIMTVP
 40
0.0
  9
$DIMTIX
 70
     0
  9
$DIMSOXD
 70
     0
  9
$DIMSAH
 70
     0
  9
$DIMBLK1
  1

  9
$DIMBLK2
  1

  9
$DIMSTYLE
  2
AM_ISO
  9
$DIMCLRD
 70
   256
  9
$DIMCLRE
 70
   256
  9
$DIMCLRT
 70
   256
  9
$DIMTFAC
 40
0.71
  9
$DIMGAP
 40
1.0
  9
$DIMJUST
 70
     0
  9
$DIMSD1
 70
     0
  9
$DIMSD2
 70
     0
  9
$DIMTOLJ
 70
     0
  9
$DIMTZIN
 70
     8
  9
$DIMALTZ
 70
     0
  9
$DIMALTTZ
 70
     0
  9
$DIMUPT
 70
     0
  9
$DIMDEC
 70
     2
  9
$DIMTDEC
 70
     8
  9
$DIMALTU
 70
     2
  9
$DIMALTTD
 70
     2
  9
$DIMTXSTY
  7
CHINESET
  9
$DIMAUNIT
 70
     0
  9
$DIMADEC
 70
     0
  9
$DIMALTRND
 40
0.0
  9
$DIMAZIN
 70
     2
  9
$DIMDSEP
 70
    46
  9
$DIMATFIT
 70
     3
  9
$DIMFRAC
 70
     0
  9
$DIMLDRBLK
  1

  9
$DIMLUNIT
 70
     2
  9
$DIMLWD
 70
    -1
  9
$DIMLWE
 70
    -1
  9
$DIMTMOVE
 70
     0
  9
$LUNITS
 70
     2
  9
$LUPREC
 70
     2
  9
$SKETCHINC
 40
1.0
  9
$FILLETRAD
 40
2.5
  9
$AUNITS
 70
     0
  9
$AUPREC
 70
     0
  9
$MENU
  1
.
  9
$ELEVATION
 40
0.0
  9
$PELEVATION
 40
0.0
  9
$THICKNESS
 40
0.0
  9
$LIMCHECK
 70
     0
  9
$CHAMFERA
 40
0.0
  9
$CHAMFERB
 40
0.0
  9
$CHAMFERC
 40
20.0
  9
$CHAMFERD
 40
0.0
  9
$SKPOLY
 70
     0
  9
$TDCREATE
 40
2453731.618400787
  9
$TDUCREATE
 40
2453731.285067453
  9
$TDUPDATE
 40
2453732.445984873
  9
$TDUUPDATE
 40
2453732.112651540
  9
$TDINDWG
 40
0.1206173958
  9
$TDUSRTIMER
 40
0.1206173958
  9
$USRTIMER
 70
     1
  9
$ANGBASE
 50
0.0
  9
$ANGDIR
 70
     0
  9
$PDMODE
 70
     0
  9
$PDSIZE
 40
0.0
  9
$PLINEWID
 40
0.0
  9
$SPLFRAME
 70
     0
  9
$SPLINETYPE
 70
     6
  9
$SPLINESEGS
 70
     8
  9
$HANDSEED
  5
3197
  9
$SURFTAB1
 70
     6
  9
$SURFTAB2
 70
     6
  9
$SURFTYPE
 70
     6
  9
$SURFU
 70
     6
  9
$SURFV
 70
     6
  9
$UCSBASE
  2

  9
$UCSNAME
  2

  9
$UCSORG
 10
0.0
 20
0.0
 30
0.0
  9
$UCSXDIR
 10
1.0
 20
0.0
 30
0.0
  9
$UCSYDIR
 10
0.0
 20
1.0
 30
0.0
  9
$UCSORTHOREF
  2

  9
$UCSORTHOVIEW
 70
     0
  9
$UCSORGTOP
 10
0.0
 20
0.0
 30
0.0
  9
$UCSORGBOTTOM
 10
0.0
 20
0.0
 30
0.0
  9
$UCSORGLEFT
 10
0.0
 20
0.0
 30
0.0
  9
$UCSORGRIGHT
 10
0.0
 20
0.0
 30
0.0
  9
$UCSORGFRONT
 10
0.0
 20
0.0
 30
0.0
  9
$UCSORGBACK
 10
0.0
 20
0.0
 30
0.0
  9
$PUCSBASE
  2

  9
$PUCSNAME
  2

  9
$PUCSORG
 10
0.0
 20
0.0
 30
0.0
  9
$PUCSXDIR
 10
1.0
 20
0.0
 30
0.0
  9
$PUCSYDIR
 10
0.0
 20
1.0
 30
0.0
  9
$PUCSORTHOREF
  2

  9
$PUCSORTHOVIEW
 70
     0
  9
$PUCSORGTOP
 10
0.0
 20
0.0
 30
0.0
  9
$PUCSORGBOTTOM
 10
0.0
 20
0.0
 30
0.0
  9
$PUCSORGLEFT
 10
0.0
 20
0.0
 30
0.0
  9
$PUCSORGRIGHT
 10
0.0
 20
0.0
 30
0.0
  9
$PUCSORGFRONT
 10
0.0
 20
0.0
 30
0.0
  9
$PUCSORGBACK
 10
0.0
 20
0.0
 30
0.0
  9
$USERI1
 70
     0
  9
$USERI2
 70
     0
  9
$USERI3
 70
     0
  9
$USERI4
 70
     0
  9
$USERI5
 70
     0
  9
$USERR1
 40
0.0
  9
$USERR2
 40
0.0
  9
$USERR3
 40
0.0
  9
$USERR4
 40
0.0
  9
$USERR5
 40
0.0
  9
$WORLDVIEW
 70
     1
  9
$SHADEDGE
 70
     3
  9
$SHADEDIF
 70
    70
  9
$TILEMODE
 70
     1
  9
$MAXACTVP
 70
    64
  9
$PINSBASE
 10
0.0
 20
0.0
 30
0.0
  9
$PLIMCHECK
 70
     0
  9
$PEXTMIN
 10
1.000000000000000E+20
 20
1.000000000000000E+20
 30
1.000000000000000E+20
  9
$PEXTMAX
 10
-1.000000000000000E+20
 20
-1.000000000000000E+20
 30
-1.000000000000000E+20
  9
$PLIMMIN
 10
0.0
 20
0.0
  9
$PLIMMAX
 10
420.0
 20
297.0
  9
$UNITMODE
 70
     0
  9
$VISRETAIN
 70
     1
  9
$PLINEGEN
 70
     0
  9
$PSLTSCALE
 70
     1
  9
$TREEDEPTH
 70
  3020
  9
$CMLSTYLE
  2
Standard
  9
$CMLJUST
 70
     0
  9
$CMLSCALE
 40
20.0
  9
$PROXYGRAPHICS
 70
     1
  9
$MEASUREMENT
 70
     1
  9
$CELWEIGHT
370
    -1
  9
$ENDCAPS
280
     0
  9
$JOINSTYLE
280
     0
  9
$LWDISPLAY
290
     0
  9
$INSUNITS
 70
     4
  9
$HYPERLINKBASE
  1

  9
$STYLESHEET
  1
彩色出圖.ctb
  9
$XEDIT
290
     1
  9
$CEPSNTYPE
380
     0
  9
$PSTYLEMODE
290
     1
  9
$FINGERPRINTGUID
  2
{0D855794-04CD-42EC-BA89-F7EABE2626E6}
  9
$VERSIONGUID
  2
{21C71860-CAC4-425D-B234-0734B2DBE9BB}
  9
$EXTNAMES
290
     1
  9
$PSVPSCALE
 40
0.0
  9
$OLESTARTUP
290
     0
  0
ENDSEC
  0
SECTION
  2
CLASSES
  0
CLASS
  1
ACDBDICTIONARYWDFLT
  2
AcDbDictionaryWithDefault
  3
ObjectDBX Classes
 90
        0
280
     0
281
     0
  0
CLASS
  1
ACDBPLACEHOLDER
  2
AcDbPlaceHolder
  3
ObjectDBX Classes
 90
        0
280
     0
281
     0
  0
CLASS
  1
LAYOUT
  2
AcDbLayout
  3
ObjectDBX Classes
 90
        0
280
     0
281
     0
  0
CLASS
  1
ACME_DOCUMENT
  2
AcMeDbDoc
  3
AcMeServices
 90
        0
280
     0
281
     0
  0
CLASS
  1
AMGSETTINGSOBJ
  2
AmgSettingsObj
  3
"AcadM|Product Description: AutoCAD Mechanical 2000|Company: Autodesk"
 90
        0
280
     0
281
     0
  0
CLASS
  1
ACMESCOPE
  2
AcMeScope
  3
AcMeServices
 90
        0
280
     0
281
     0
  0
CLASS
  1
ACMECOMMANDHISTORY
  2
AcMeCommandHistory
  3
AcMeServices
 90
        0
280
     0
281
     0
  0
CLASS
  1
ACIMSYSVARMAN
  2
AcImSysVarManager
  3
AcMeServices
 90
        0
280
     0
281
     0
  0
CLASS
  1
ACIMREALSYSVAR
  2
AcImRealSysVar
  3
AcMeServices
 90
        0
280
     0
281
     0
  0
CLASS
  1
ACIMINTSYSVAR
  2
AcImIntSysVar
  3
AcMeServices
 90
        0
280
     0
281
     0
  0
CLASS
  1
ACMEDRAWINGMAN
  2
AcMeDrawingMan
  3
AcMeServices
 90
        0
280
     0
281
     0
  0
CLASS
  1
ACMEVIEW
  2
AcMeView
  3
AcMeServices
 90
        0
280
     0
281
     0
  0
CLASS
  1
ACDBENTITYCACHE
  2
AcMeEntityCache
  3
AcMeServices
 90
        0
280
     0
281
     0
  0
CLASS
  1
GSMANAGER
  2
AcMeGSManager
  3
AcMeServices
 90
        0
280
     0
281
     0
  0
CLASS
  1
AMDTINTERNALREACTOR
  2
AmdtInternalReactor
  3
AcMeServices
 90
        0
280
     0
281
     0
  0
CLASS
  1
ACMESTATEMGR
  2
AcMeStateMgr
  3
AcMeServices
 90
        0
280
     0
281
     0
  0
CLASS
  1
ACGREFMASTER
  2
AcGrefMaster
  3
AcAttribServices
 90
        0
280
     0
281
     0
  0
CLASS
  1
ACME_DATABASE
  2
AcMeDbDatabase
  3
AcMeServices
 90
        0
280
     0
281
     0
  0
CLASS
  1
ACRFINSADJUSTERMGR
  2
AcRfInsAdjusterMgr
  3
AcMeServices
 90
        0
280
     0
281
     0
  0
CLASS
  1
ACGREFACADMASTER
  2
AcGrefacadMaster
  3
AcGrefServices
 90
        0
280
     0
281
     0
  0
CLASS
  1
AMIMASTER
  2
AmiMaster
  3
AmiServices
 90
        0
280
     0
281
     0
  0
CLASS
  1
ACMDATADICTIONARY
  2
AcmDataDictionary
  3
"AcmSymBB|Product Description: AutoCAD Mechanical 2004 DX|Company: Autodesk"
 90
        0
280
     0
281
     0
  0
CLASS
  1
ACMDATAENTRYBLOCK
  2
AcmDataEntryBlock
  3
"AcmSymBB|Product Description: AutoCAD Mechanical 2004 DX|Company: Autodesk"
 90
        0
280
     0
281
     0
  0
CLASS
  1
ACIMSTRSYSVAR
  2
AcImStrSysVar
  3
AcMeServices
 90
        0
280
     0
281
     0
  0
CLASS
  1
ACMSTANDARDISO
  2
AcmStandardISO
  3
"Amdt_StdImp|Product Description: AutoCAD Mechanical 2004 DX|Company: Autodesk"
 90
        0
280
     0
281
     0
  0
CLASS
  1
AMGOBJPROPCFG
  2
AmgObjPropCfg
  3
"AmgLay|Product Description: AutoCAD Mechanical 2000|Company: Autodesk"
 90
        1
280
     0
281
     0
  0
CLASS
  1
AMDTEDGESTANDARDISO
  2
AmdtEdgeStdISO
  3
"Amdt_StdImp|Product Description: AutoCAD Mechanical 2004 DX|Company: Autodesk"
 90
        0
280
     0
281
     0
  0
CLASS
  1
ACMSURFSTANDARDISO
  2
AcmSurfTextStdISO
  3
"Amdt_StdImp|Product Description: AutoCAD Mechanical 2004 DX|Company: Autodesk"
 90
        0
280
     0
281
     0
  0
CLASS
  1
ACMFCFSTANDARDISO
  2
AcmFCFStdISO
  3
"Amdt_StdImp|Product Description: AutoCAD Mechanical 2004 DX|Company: Autodesk"
 90
        0
280
     0
281
     0
  0
CLASS
  1
ACMWELDSTANDARDISO
  2
AcmWeldingStdISO
  3
"Amdt_StdImp|Product Description: AutoCAD Mechanical 2004 DX|Company: Autodesk"
 90
        0
280
     0
281
     0
  0
CLASS
  1
ACMIDSTANDARDISO
  2
AcmIdStdISO
  3
"Amdt_StdImp|Product Description: AutoCAD Mechanical 2004 DX|Company: Autodesk"
 90
        0
280
     0
281
     0
  0
CLASS
  1
ACMDATUMSTANDARDISO
  2
AcmDatumStdISO
  3
"Amdt_StdImp|Product Description: AutoCAD Mechanical 2004 DX|Company: Autodesk"
 90
        0
280
     0
281
     0
  0
CLASS
  1
ACMBOMSTANDARDISO
  2
AcmBOMStdISO
  3
"Amdt_StdImp|Product Description: AutoCAD Mechanical 2004 DX|Company: Autodesk"
 90
        0
280
     0
281
     0
  0
CLASS
  1
ACMDETAILSTANDARDISO
  2
AmdtDetailSymStdISO
  3
"Amdt_StdImp|Product Description: AutoCAD Mechanical 2004 DX|Company: Autodesk"
 90
        0
280
     0
281
     0
  0
CLASS
  1
ACMSECTIONSTANDARDISO
  2
AmdtSectionSymStdISO
  3
"Amdt_StdImp|Product Description: AutoCAD Mechanical 2004 DX|Company: Autodesk"
 90
        0
280
     0
281
     0
  0
CLASS
  1
ACMCENTERLINESTANDARDISO
  2
AmdtCenterLineStdISO
  3
"Amdt_StdImp|Product Description: AutoCAD Mechanical 2004 DX|Company: Autodesk"
 90
        0
280
     0
281
     0
  0
CLASS
  1
ACMNOTESTANDARDISO
  2
AmdtNoteStdISO
  3
"Amdt_StdImp|Product Description: AutoCAD Mechanical 2004 DX|Company: Autodesk"
 90
        0
280
     0
281
     0
  0
CLASS
  1
ACAMGLAYSTD
  2
AcAmgLayStd
  3
"AcAmgLayStd|Product Description: AutoCAD Mechanical 2000|Company: Autodesk"
 90
        0
280
     0
281
     0
  0
CLASS
  1
ACAMGDIMSTD
  2
AcAmgDimStd
  3
"AcAmgDimStd|Product Description: AutoCAD Mechanical 2000|Company: Autodesk"
 90
        0
280
     0
281
     0
  0
CLASS
  1
ACAMGHOLECHARTSTDISO
  2
AcAmgHoleChartStdISO
  3
ACMSYMBB_MODULE_NAME
 90
        0
280
     0
281
     0
  0
CLASS
  1
ACAMGTITLESTD
  2
AcAmgTitleStd
  3
"TITLEAPP"
 90
        0
280
     0
281
     0
  0
CLASS
  1
LAYER_INDEX
  2
AcDbLayerIndex
  3
ObjectDBX Classes
 90
    32768
280
     0
281
     0
  0
CLASS
  1
IDBUFFER
  2
AcDbIdBuffer
  3
ObjectDBX Classes
 90
    32768
280
     0
281
     0
  0
CLASS
  1
DICTIONARYVAR
  2
AcDbDictionaryVar
  3
ObjectDBX Classes
 90
        0
280
     0
281
     0
  0
CLASS
  1
AM_DRAWING_MGR
  2
AcDmDwgMgr
  3
AcMechDwgViewMgmt
 90
        0
280
     0
281
     0
  0
CLASS
  1
AM_DWG_DOCUMENT
  2
AcDmDwgDocument
  3
AcMechDwgViewMgmt
 90
        0
280
     0
281
     0
  0
CLASS
  1
AM_DWG_SHEET
  2
AcDmSheet
  3
AcMechDwgViewMgmt
 90
        0
280
     0
281
     0
  0
CLASS
  1
AM_VIEWDIMPARMAP
  2
AcDmViewDimParMap
  3
AcMechDwgViewMgmt
 90
        0
280
     0
281
     0
  0
CLASS
  1
AM_DWGMGR_NAME
  2
AcDmDwgMgrName
  3
AcMechDwgViewMgmt
 90
        0
280
     0
281
     0
  0
CLASS
  1
AMDTMENUSTATEMGR
  2
AmdtMenuStateMgr
  3
McadcomServices
 90
        0
280
     0
281
     0
  0
CLASS
  1
AMDTMCOMMENUSTATE
  2
AmdtMcomMenuState
  3
McadcomServices
 90
        0
280
     0
281
     0
  0
CLASS
  1
MAPIAMMOUDLE
  2
MApiAmModule
  3
MApiAmServices
 90
        0
280
     0
281
     0
  0
CLASS
  1
AMDTADMENUSTATE
  2
AmdtAdMenuState
  3
DesignerServices
 90
        0
280
     0
281
     0
  0
CLASS
  1
ADAPPL
  2
AcAdAppl
  3
DesignerServices
 90
        0
280
     0
281
     0
  0
CLASS
  1
DEPMGR
  2
AcAdDepMgr
  3
DesignerServices
 90
        0
280
     0
281
     0
  0
CLASS
  1
PARAMMGR
  2
AcAdParamMgr
  3
DesignerServices
 90
        0
280
     0
281
     0
  0
CLASS
  1
PARAMSCOPE
  2
AcAdParamScope
  3
DesignerServices
 90
        0
280
     0
281
     0
  0
CLASS
  1
NAMEDAPPL
  2
AcAdNamedAppl
  3
DesignerServices
 90
        0
280
     0
281
     0
  0
CLASS
  1
AMDTDMMENUSTATE
  2
AmdtDmMenuState
  3
AcMechDwgViewMgmt
 90
        0
280
     0
281
     0
  0
CLASS
  1
AMDTAMMENUSTATE
  2
AmdtAmMenuState
  3
DesignerAssemblies
 90
        0
280
     0
281
     0
  0
CLASS
  1
ACAMPROJECT
  2
AcAmProject
  3
DesignerAssemblies
 90
        0
280
     0
281
     0
  0
CLASS
  1
ACAMGRCOMPDEF
  2
AcAmGrCompDef
  3
DesignerAssemblies
 90
        0
280
     0
281
     0
  0
CLASS
  1
ACCMCONTEXT
  2
AcCmContext
  3
DesignerAssemblies
 90
        0
280
     0
281
     0
  0
CLASS
  1
ACAMCOMPDEF
  2
AcAmCompDef
  3
DesignerAssemblies
 90
        0
280
     0
281
     0
  0
CLASS
  1
ACAMCOMPDEFMGR
  2
AcAmCompDefMgr
  3
DesignerAssemblies
 90
        0
280
     0
281
     0
  0
CLASS
  1
AMCONTEXTMGR
  2
AcAmContextMgr
  3
DesignerAssemblies
 90
        0
280
     0
281
     0
  0
CLASS
  1
ACAMCONTEXTMODELER
  2
AcAmContextModeler
  3
DesignerAssemblies
 90
        0
280
     0
281
     0
  0
CLASS
  1
ACMTHREADLINESTANDARDISO
  2
AmdtThreadLineStdISO
  3
"Amdt_StdImp|Product Description: AutoCAD Mechanical 2004 DX|Company: Autodesk"
 90
        0
280
     0
281
     0
  0
CLASS
  1
CATALOGSTATE
  2
AcAmCatalogState
  3
DesignerAssemblies
 90
        0
280
     0
281
     0
  0
CLASS
  1
ACAMGRCOMPDEFSET
  2
AcAmGrCompDefSet
  3
DesignerAssemblies
 90
        0
280
     0
281
     0
  0
CLASS
  1
AMDTBROWSERDBTAB
  2
AmdtBrowserDbTab
  3
McadcomServices
 90
        0
280
     0
281
     0
  0
CLASS
  1
CBROWSERAPPOBJECT
  2
CBrowserAppObject
  3
McadcomServices
 90
        0
280
     0
281
     0
  0
CLASS
  1
DM_PLACEHOLDER
  2
AcDmSelsetPlaceholder
  3
AcMechDwgViewMgmt
 90
        0
280
     0
281
     0
  0
CLASS
  1
TABLESTYLE
  2
AcDbTableStyle
  3
ObjectDBX Classes
 90
     2047
280
     0
281
     0
  0
CLASS
  1
VAACXREFPANELOBJECT
  2
VaAcXREFPanelObject
  3
VAAC_ADDIN
 90
    32768
280
     0
281
     0
  0
CLASS
  1
VAACIMAGEINVENTORY
  2
VaAcImageInventory
  3
VAAC_ADDIN
 90
    32768
280
     0
281
     0
  0
CLASS
  1
AMDTNOTETEMPLATEDB
  2
AmdtNoteTemplateDB
  3
AMDT_STDIMP_MODULE_NAME
 90
        0
280
     0
281
     0
  0
CLASS
  1
ACMBOM
  2
AcmBom
  3
"AcmSymBB|Product Description: AutoCAD Mechanical 2004 DX|Company: Autodesk"
 90
    32768
280
     0
281
     0
  0
CLASS
  1
AMDTFORMULAUPDATEDISPATCHER
  2
AmdtFormulaUpdateDispatcher
  3
AcMeServices
 90
    32768
280
     0
281
     0
  0
CLASS
  1
ACMPARTLIST
  2
AcmPartList
  3
"AcmSymBB|Product Description: AutoCAD Mechanical 2004 DX|Company: Autodesk"
 90
    33791
280
     0
281
     1
  0
CLASS
  1
ACAMGFILTERDAT
  2
AcAmgFilterDat
  3
"AcadM|Product Description: AutoCAD Mechanical 2000|Company: Autodesk"
 90
        0
280
     0
281
     0
  0
CLASS
  1
DIMASSOC
  2
AcDbDimAssoc
  3
"AcDbDimAssoc|Product Desc:     AcDim ARX App For Dimension|Company:          Autodesk, Inc.|WEB Address:      www.autodesk.com"
 90
    32768
280
     0
281
     0
  0
CLASS
  1
ACMSTANDARDANSI
  2
AcmStandardANSI
  3
"Amdt_StdImp|Product Description: AutoCAD Mechanical 2004 DX|Company: Autodesk"
 90
        0
280
     0
281
     0
  0
CLASS
  1
ACMSURFSTANDARDANSI
  2
AcmSurfTextStdANSI
  3
"Amdt_StdImp|Product Description: AutoCAD Mechanical 2004 DX|Company: Autodesk"
 90
        0
280
     0
281
     0
  0
CLASS
  1
ACMFCFSTANDARDANSI
  2
AcmFCFStdANSI
  3
"Amdt_StdImp|Product Description: AutoCAD Mechanical 2004 DX|Company: Autodesk"
 90
        0
280
     0
281
     0
  0
CLASS
  1
ACMWELDSTANDARDANSI
  2
AcmWeldingStdANSI
  3
"Amdt_StdImp|Product Description: AutoCAD Mechanical 2004 DX|Company: Autodesk"
 90
        0
280
     0
281
     0
  0
CLASS
  1
ACMIDSTANDARDANSI
  2
AcmIdStdANSI
  3
"Amdt_StdImp|Product Description: AutoCAD Mechanical 2004 DX|Company: Autodesk"
 90
        0
280
     0
281
     0
  0
CLASS
  1
ACMDATUMSTANDARDANSI
  2
AcmDatumStdANSI
  3
"Amdt_StdImp|Product Description: AutoCAD Mechanical 2004 DX|Company: Autodesk"
 90
        0
280
     0
281
     0
  0
CLASS
  1
ACMBOMSTANDARDANSI
  2
AcmBOMStdANSI
  3
"Amdt_StdImp|Product Description: AutoCAD Mechanical 2004 DX|Company: Autodesk"
 90
        0
280
     0
281
     0
  0
CLASS
  1
ACMDETAILSTANDARDANSI
  2
AmdtDetailSymStdANSI
  3
"Amdt_StdImp|Product Description: AutoCAD Mechanical 2004 DX|Company: Autodesk"
 90
        0
280
     0
281
     0
  0
CLASS
  1
ACMSECTIONSTANDARDANSI
  2
AmdtSectionSymStdANSI
  3
"Amdt_StdImp|Product Description: AutoCAD Mechanical 2004 DX|Company: Autodesk"
 90
        0
280
     0
281
     0
  0
CLASS
  1
ACMCENTERLINESTANDARDANSI
  2
AmdtCenterLineStdANSI
  3
"Amdt_StdImp|Product Description: AutoCAD Mechanical 2004 DX|Company: Autodesk"
 90
        0
280
     0
281
     0
  0
CLASS
  1
ACMTHREADLINESTANDARDANSI
  2
AmdtThreadLineStdANSI
  3
"Amdt_StdImp|Product Description: AutoCAD Mechanical 2004 DX|Company: Autodesk"
 90
        0
280
     0
281
     0
  0
CLASS
  1
ACMNOTESTANDARDANSI
  2
AmdtNoteStdANSI
  3
"Amdt_StdImp|Product Description: AutoCAD Mechanical 2004 DX|Company: Autodesk"
 90
        0
280
     0
281
     0
  0
CLASS
  1
ACAMGHOLECHARTSTDANSI
  2
AcAmgHoleChartStdANSI
  3
ACMSYMBB_MODULE_NAME
 90
        0
280
     0
281
     0
  0
CLASS
  1
SORTENTSTABLE
  2
AcDbSortentsTable
  3
ObjectDBX Classes
 90
        0
280
     0
281
     0
  0
CLASS
  1
ACRFATTGENMGR
  2
AcRfAttGeneralMgr
  3
AcAttribServices
 90
        0
280
     0
281
     0
  0
ENDSEC
  0
SECTION
  2
TABLES
  0
TABLE
  2
VPORT
  5
8
330
0
100
AcDbSymbolTable
 70
     3
  0
VPORT
  5
318E
330
8
100
AcDbSymbolTableRecord
100
AcDbViewportTableRecord
  2
*Active
 70
     0
 10
0.0
 20
0.0
 11
1.0
 21
1.0
 12
969.516019015967
 22
425.1043923235585
 13
0.0
 23
0.0
 14
2.5
 24
2.5
 15
10.0
 25
10.0
 16
0.0
 26
0.0
 36
1.0
 17
0.0
 27
0.0
 37
0.0
 40
809.027581995166
 41
1.81766917293233
 42
50.0
 43
0.0
 44
0.0
 50
0.0
 51
0.0
 71
     0
 72
   100
 73
     1
 74
     3
 75
     0
 76
     0
 77
     0
 78
     0
281
     0
 65
     1
110
0.0
120
0.0
130
0.0
111
1.0
121
0.0
131
0.0
112
0.0
122
1.0
132
0.0
 79
     0
146
0.0
  0
ENDTAB
  0
TABLE
  2
LTYPE
  5
5
330
0
100
AcDbSymbolTable
 70
    16
  0
LTYPE
  5
14
330
5
100
AcDbSymbolTableRecord
100
AcDbLinetypeTableRecord
  2
ByBlock
 70
     0
  3

 72
    65
 73
     0
 40
0.0
  0
LTYPE
  5
15
330
5
100
AcDbSymbolTableRecord
100
AcDbLinetypeTableRecord
  2
ByLayer
 70
     0
  3

 72
    65
 73
     0
 40
0.0
  0
LTYPE
  5
16
330
5
100
AcDbSymbolTableRecord
100
AcDbLinetypeTableRecord
  2
Continuous
 70
     0
  3
Solid line
 72
    65
 73
     0
 40
0.0
  0
LTYPE
  5
64
330
5
100
AcDbSymbolTableRecord
100
AcDbLinetypeTableRecord
  2
AM_ISO02W050
 70
     0
  3
__ __ __ __ __ __ __ __ __ __ __ __ __ __ __
 72
    65
 73
     2
 40
7.5
 49
6.0
 74
     0
 49
-1.5
 74
     0
  0
LTYPE
  5
65
330
5
100
AcDbSymbolTableRecord
100
AcDbLinetypeTableRecord
  2
AM_ISO08W050
 70
     0
  3
____ . ____ . ____ . ____ . ____ . ____ . ____
 72
    65
 73
     4
 40
18.0
 49
12.0
 74
     0
 49
-1.5
 74
     0
 49
3.0
 74
     0
 49
-1.5
 74
     0
  0
LTYPE
  5
66
330
5
100
AcDbSymbolTableRecord
100
AcDbLinetypeTableRecord
  2
AM_ISO09W050
 70
     0
  3
_____ . . _____ . . _____ . . ____ .. ____
 72
    65
 73
     6
 40
22.5
 49
12.0
 74
     0
 49
-1.5
 74
     0
 49
3.0
 74
     0
 49
-1.5
 74
     0
 49
3.0
 74
     0
 49
-1.5
 74
     0
  0
LTYPE
  5
67
330
5
100
AcDbSymbolTableRecord
100
AcDbLinetypeTableRecord
  2
Amconstr
 70
     0
  3
_______________________
 72
    65
 73
     2
 40
9999.0
 49
9999.0
 74
     0
 49
0.0
 74
     0
  0
LTYPE
  5
68
330
5
100
AcDbSymbolTableRecord
100
AcDbLinetypeTableRecord
  2
AM_ISO08W050x2
 70
     0
  3
__ . __ . __ . __ . __ . __
 72
    65
 73
     4
 40
9.0
 49
6.0
 74
     0
 49
-0.75
 74
     0
 49
1.5
 74
     0
 49
-0.75
 74
     0
  0
LTYPE
  5
69
330
5
100
AcDbSymbolTableRecord
100
AcDbLinetypeTableRecord
  2
AM_ISO02W050x2
 70
     0
  3
 _ _ _ _ _ _ _ _ _ _ _ _
 72
    65
 73
     2
 40
3.75
 49
3.0
 74
     0
 49
-0.75
 74
     0
  0
LTYPE
  5
6C
330
5
100
AcDbSymbolTableRecord
100
AcDbLinetypeTableRecord
  2
Amzigzag
 70
     0
  3
/\/-/\/-/\/-/\/-/\/-/\/
 72
    65
 73
     2
 40
11.0001
 49
0.0001
 74
     4
 75
   135
340
6B
 46
0.04
 50
0.0
 44
0.0
 45
0.0
 49
-11.0
 74
     0
  0
LTYPE
  5
7A
330
5
100
AcDbSymbolTableRecord
100
AcDbLinetypeTableRecord
  2
ACISOWELD
 70
     0
  3
_ _ _ _ _
 72
    65
 73
     2
 40
2.0
 49
2.0
 74
     0
 49
-1.0
 74
     0
  0
LTYPE
  5
7B
330
5
100
AcDbSymbolTableRecord
100
AcDbLinetypeTableRecord
  2
ACISOTGB
 70
     0
  3
__ . . __ . .
 72
    65
 73
     6
 40
9.0
 49
4.0
 74
     0
 49
-1.0
 74
     0
 49
1.0
 74
     0
 49
-1.0
 74
     0
 49
1.0
 74
     0
 49
-1.0
 74
     0
  0
LTYPE
  5
7C
330
5
100
AcDbSymbolTableRecord
100
AcDbLinetypeTableRecord
  2
ACISOTGL
 70
     0
  3
_ _ _ _ _
 72
    65
 73
     2
 40
3.0
 49
2.0
 74
     0
 49
-1.0
 74
     0
  0
LTYPE
  5
7E
330
5
100
AcDbSymbolTableRecord
100
AcDbLinetypeTableRecord
  2
CENTER
 70
     0
  3
__ . __
 72
    65
 73
     4
 40
7.0
 49
4.0
 74
     0
 49
-1.0
 74
     0
 49
1.0
 74
     0
 49
-1.0
 74
     0
  0
LTYPE
  5
D8
330
5
100
AcDbSymbolTableRecord
100
AcDbLinetypeTableRecord
  2
HIDDEN
 70
     0
  3
Hidden __ __ __ __ __ __ __ __ __ __ __ __ __ _
 72
    65
 73
     2
 40
9.524999999999998
 49
6.349999999999999
 74
     0
 49
-3.174999999999999
 74
     0
  0
LTYPE
  5
D9
330
5
100
AcDbSymbolTableRecord
100
AcDbLinetypeTableRecord
  2
PHANTOM2
 70
     0
  3
Phantom (.5x) ___ _ _ ___ _ _ ___ _ _ ___ _ _
 72
    65
 73
     6
 40
31.75
 49
15.875
 74
     0
 49
-3.174999999999999
 74
     0
 49
3.174999999999999
 74
     0
 49
-3.174999999999999
 74
     0
 49
3.174999999999999
 74
     0
 49
-3.174999999999999
 74
     0
  0
LTYPE
  5
7F5
330
5
100
AcDbSymbolTableRecord
100
AcDbLinetypeTableRecord
  2
ACANSTGB
 70
     0
  3
__ . . __ . .
 72
    65
 73
     6
 40
0.35433070866
 49
0.15748031496
 74
     0
 49
-0.03937007874
 74
     0
 49
0.03937007874
 74
     0
 49
-0.03937007874
 74
     0
 49
0.03937007874
 74
     0
 49
-0.03937007874
 74
     0
  0
LTYPE
  5
7F6
330
5
100
AcDbSymbolTableRecord
100
AcDbLinetypeTableRecord
  2
ACANSTGL
 70
     0
  3
_ _ _ _ _
 72
    65
 73
     2
 40
0.11811023622
 49
0.07874015748
 74
     0
 49
-0.03937007874
 74
     0
  0
ENDTAB
  0
TABLE
  2
LAYER
  5
2
102
{ACAD_XDICTIONARY
360
3F9
102
}
330
0
100
AcDbSymbolTable
 70
     5
  0
LAYER
  5
10
330
2
100
AcDbSymbolTableRecord
100
AcDbLayerTableRecord
  2
0
 70
     0
 62
     7
  6
Continuous
370
    -3
390
F
  0
LAYER
  5
8B2
330
2
100
AcDbSymbolTableRecord
100
AcDbLayerTableRecord
  2
AM_7
 70
     0
 62
     1
  6
CENTER
370
    25
390
F
  0
LAYER
  5
1083
330
2
100
AcDbSymbolTableRecord
100
AcDbLayerTableRecord
  2
AM_5
 70
     0
 62
     5
  6
Continuous
370
    50
390
F
  0
LAYER
  5
1093
330
2
100
AcDbSymbolTableRecord
100
AcDbLayerTableRecord
  2
Defpoints
 70
     0
 62
     7
  6
Continuous
290
     0
370
    -3
390
F
  0
LAYER
  5
1560
330
2
100
AcDbSymbolTableRecord
100
AcDbLayerTableRecord
  2
LOGO
 70
     0
 62
     7
  6
Continuous
370
    -3
390
F
  0
ENDTAB
  0
TABLE
  2
STYLE
  5
3
330
0
100
AcDbSymbolTable
 70
     8
  0
STYLE
  5
11
330
3
100
AcDbSymbolTableRecord
100
AcDbTextStyleTableRecord
  2
STANDARD
 70
     0
 40
0.0
 41
1.0
 50
0.0
 71
     0
 42
3.0
  3
ISOCP.SHX
  4
CHINESET.SHX
  0
STYLE
  5
6B
330
3
100
AcDbSymbolTableRecord
100
AcDbTextStyleTableRecord
  2

 70
     1
 40
0.0
 41
1.0
 50
0.0
 71
     0
 42
2.5
  3
ltypeshp.shx
  4

  0
STYLE
  5
6D
330
3
100
AcDbSymbolTableRecord
100
AcDbTextStyleTableRecord
  2
ACISOTS
 70
     0
 40
1.0
 41
1.0
 50
0.0
 71
     0
 42
1.0
  3
isocp.shx
  4
chineset.shx
  0
STYLE
  5
79
330
3
100
AcDbSymbolTableRecord
100
AcDbTextStyleTableRecord
  2
ACISOGDT
 70
     0
 40
0.0
 41
1.0
 50
0.0
 71
     0
 42
2.5
  3
amgdt.shx
  4
chineset.shx
  0
STYLE
  5
60C
330
3
100
AcDbSymbolTableRecord
100
AcDbTextStyleTableRecord
  2
CHINESET
 70
     0
 40
0.0
 41
0.75
 50
0.0
 71
     0
 42
3.0
  3
simplex.shx
  4
CHINESET.SHX
  0
STYLE
  5
7F9
330
3
100
AcDbSymbolTableRecord
100
AcDbTextStyleTableRecord
  2
ACANSTS
 70
     0
 40
1.0
 41
1.0
 50
0.0
 71
     0
 42
5.84703234913793
  3
romans.shx
  4
chineset.shx
  0
STYLE
  5
7FA
330
3
100
AcDbSymbolTableRecord
100
AcDbTextStyleTableRecord
  2
ACANSGDT
 70
     0
 40
0.0
 41
1.0
 50
0.0
 71
     0
 42
5.84703234913793
  3
amgdtans.shx
  4

  0
ENDTAB
  0
TABLE
  2
VIEW
  5
6
330
0
100
AcDbSymbolTable
 70
     0
  0
ENDTAB
  0
TABLE
  2
UCS
  5
7
330
0
100
AcDbSymbolTable
 70
     0
  0
ENDTAB
  0
TABLE
  2
APPID
  5
9
330
0
100
AcDbSymbolTable
 70
    19
  0
APPID
  5
12
330
9
100
AcDbSymbolTableRecord
100
AcDbRegAppTableRecord
  2
ACAD
 70
     0
  0
APPID
  5
46
330
9
100
AcDbSymbolTableRecord
100
AcDbRegAppTableRecord
  2
MCAD_NO_VIS
 70
     0
  0
APPID
  5
47
330
9
100
AcDbSymbolTableRecord
100
AcDbRegAppTableRecord
  2
ACAD_TEMP_GRAPHIC
 70
     0
  0
APPID
  5
58
330
9
100
AcDbSymbolTableRecord
100
AcDbRegAppTableRecord
  2
ACATTRIBSERVICES
 70
     0
  0
APPID
  5
EE
330
9
100
AcDbSymbolTableRecord
100
AcDbRegAppTableRecord
  2
AD_DRAW
 70
     0
  0
APPID
  5
10C
330
9
100
AcDbSymbolTableRecord
100
AcDbRegAppTableRecord
  2
DESIGNERASSEMBLIES
 70
     0
  0
APPID
  5
111
330
9
100
AcDbSymbolTableRecord
100
AcDbRegAppTableRecord
  2
ACADM_DIM_EDIT
 70
     0
  0
APPID
  5
112
330
9
100
AcDbSymbolTableRecord
100
AcDbRegAppTableRecord
  2
AMDT_DM_ADJ
 70
     0
  0
APPID
  5
22C
330
9
100
AcDbSymbolTableRecord
100
AcDbRegAppTableRecord
  2
ACAD_DSTYLE_DIMTEXT_FILL
 70
     0
  0
APPID
  5
452
330
9
100
AcDbSymbolTableRecord
100
AcDbRegAppTableRecord
  2
GENIUS_GENOENT_13
 70
     0
  0
APPID
  5
453
330
9
100
AcDbSymbolTableRecord
100
AcDbRegAppTableRecord
  2
GENIUS_GENOBJ-N-CRS_13
 70
     0
  0
APPID
  5
454
330
9
100
AcDbSymbolTableRecord
100
AcDbRegAppTableRecord
  2
GENIUS_GENOLIS_13
 70
     0
  0
APPID
  5
455
330
9
100
AcDbSymbolTableRecord
100
AcDbRegAppTableRecord
  2
GENIUS_GENODEF_13
 70
     0
  0
APPID
  5
456
330
9
100
AcDbSymbolTableRecord
100
AcDbRegAppTableRecord
  2
GENIUS_GENOREF_13
 70
     0
  0
APPID
  5
6F3
330
9
100
AcDbSymbolTableRecord
100
AcDbRegAppTableRecord
  2
ACAD_PSEXT
 70
     0
  0
APPID
  5
8B4
330
9
100
AcDbSymbolTableRecord
100
AcDbRegAppTableRecord
  2
GENIUS_GENOBJ-N-CEN_13
 70
     0
  0
APPID
  5
8B5
330
9
100
AcDbSymbolTableRecord
100
AcDbRegAppTableRecord
  2
GENIUS_GENCEN_19
 70
     0
  0
APPID
  5
1561
330
9
100
AcDbSymbolTableRecord
100
AcDbRegAppTableRecord
  2
GENIUS_GENREC_14
 70
     0
  0
APPID
  5
1562
330
9
100
AcDbSymbolTableRecord
100
AcDbRegAppTableRecord
  2
GENIUS_GENOBJ-N-REC_13
 70
     0
  0
ENDTAB
  0
TABLE
  2
DIMSTYLE
  5
A
330
0
100
AcDbSymbolTable
 70
    15
100
AcDbDimStyleTable
 71
     3
340
81
340
8B
340
86
  0
DIMSTYLE
105
81
330
A
100
AcDbSymbolTableRecord
100
AcDbDimStyleTableRecord
  2
AM_ISO
 70
     0
  4
"
 41
3.0
 42
1.0
 43
10.0
 44
1.5
 47
0.1
 48
0.1
 73
     0
 74
     0
 77
     1
 78
     8
 79
     2
140
3.0
141
0.0
143
0.0393701
146
0.71
147
1.0
172
     1
176
   256
177
   256
178
   256
271
     2
272
     2
283
     0
284
     8
340
60C
371
    -1
372
    -1
  0
DIMSTYLE
105
82
330
A
100
AcDbSymbolTableRecord
100
AcDbDimStyleTableRecord
  2
AM_ISO$3
 70
     0
  4
"
 41
3.0
 42
1.0
 43
10.0
 44
1.5
 47
0.1
 48
0.1
 73
     0
 77
     1
 78
     8
 79
     2
140
3.0
141
0.0
143
0.0393701
146
0.71
147
1.0
176
   256
177
   256
178
   256
271
     2
272
     2
283
     0
284
     8
288
     1
289
     0
340
60C
371
    -1
372
    -1
  0
DIMSTYLE
105
83
330
A
100
AcDbSymbolTableRecord
100
AcDbDimStyleTableRecord
  2
AM_ISO$4
 70
     0
  4
"
 41
3.0
 42
1.0
 43
10.0
 44
1.5
 47
0.1
 48
0.1
 73
     0
 77
     1
 78
     8
 79
     2
140
3.0
141
0.0
143
0.0393701
146
0.71
147
1.0
176
   256
177
   256
178
   256
271
     2
272
     2
283
     0
284
     8
288
     1
289
     0
340
60C
371
    -1
372
    -1
  0
DIMSTYLE
105
84
330
A
100
AcDbSymbolTableRecord
100
AcDbDimStyleTableRecord
  2
AM_ISO$6
 70
     0
  4
"
 41
3.0
 42
1.0
 43
10.0
 44
1.5
 47
0.1
 48
0.1
 73
     0
 74
     0
 78
     8
 79
     2
140
3.0
141
0.0
143
0.0393701
146
0.71
147
1.0
172
     1
176
   256
177
   256
178
   256
271
     2
272
     2
283
     0
284
     8
340
60C
371
    -1
372
    -1
  0
DIMSTYLE
105
85
330
A
100
AcDbSymbolTableRecord
100
AcDbDimStyleTableRecord
  2
AM_ISO$7
 70
     0
  4
"
 41
3.0
 42
1.0
 43
10.0
 44
1.5
 47
0.1
 48
0.1
 73
     0
 74
     0
 77
     1
 78
     8
 79
     2
140
5.0
141
0.0
143
0.0393701
146
0.71
147
1.0
172
     1
176
   256
177
   256
178
   256
271
     2
272
     2
283
     0
284
     8
340
60C
371
    -1
372
    -1
  0
DIMSTYLE
105
86
330
A
100
AcDbSymbolTableRecord
100
AcDbDimStyleTableRecord
  2
AM_ISO$SF
 70
     0
  4
"
 41
2.5
 42
1.0
 43
10.0
 44
1.0
 47
0.1
 48
0.1
 73
     0
 74
     0
 75
     1
 76
     1
 77
     1
 78
     8
 79
     2
140
3.5
141
0.0
143
0.0393701
146
0.71
147
1.5
172
     1
176
   256
177
   256
178
     2
271
     2
272
     3
274
     4
283
     0
284
     8
340
11
371
    -1
372
    -1
  0
DIMSTYLE
105
8B
330
A
100
AcDbSymbolTableRecord
100
AcDbDimStyleTableRecord
  2
AM_ISO$SH
 70
     0
  4
"
 41
2.5
 42
1.0
 43
10.0
 44
1.0
 47
0.1
 48
0.1
 73
     0
 74
     0
 75
     1
 76
     1
 77
     1
 78
     8
 79
     2
140
3.5
141
0.0
143
0.0393701
144
2.0
146
0.71
147
1.5
172
     1
173
     1
176
   256
177
   256
178
     2
271
     2
272
     3
274
     4
283
     0
284
     8
340
11
343
87
371
    -1
372
    -1
  0
DIMSTYLE
105
40B
102
{ACAD_REACTORS
330
2BBC
330
2BBD
330
2BBF
330
2C3E
330
2D40
330
2D41
330
2D42
330
2D43
330
2EA3
330
2EA4
330
2EA5
330
2EA6
330
3014
330
3015
330
3016
330
3017
102
}
330
A
100
AcDbSymbolTableRecord
100
AcDbDimStyleTableRecord
  2
AM_ISO$0
 70
     0
  4
"
 41
3.0
 42
1.0
 43
10.0
 44
1.5
 47
0.1
 48
0.1
 73
     0
 74
     0
 77
     1
 78
     8
 79
     2
140
3.0
141
0.0
143
0.0393701
146
0.71
147
1.0
172
     1
176
   256
177
   256
178
   256
271
     2
272
     2
283
     0
284
     8
340
60C
371
    -1
372
    -1
  0
DIMSTYLE
105
7FC
330
A
100
AcDbSymbolTableRecord
100
AcDbDimStyleTableRecord
  2
AM_ANSI
 70
     0
  4
mm
 41
0.1
 42
0.05
 43
0.5
 44
0.1
 47
0.1
 48
0.1
 78
     7
 79
     2
140
0.12
141
0.0
146
0.71
147
0.06
176
   256
177
   256
178
     2
274
     4
284
     7
340
11
371
    -1
372
    -1
  0
DIMSTYLE
105
7FD
330
A
100
AcDbSymbolTableRecord
100
AcDbDimStyleTableRecord
  2
AM_ANSI$3
 70
     0
  4
mm
 41
0.1
 42
0.05
 43
0.5
 44
0.1
 47
0.1
 48
0.1
 78
     7
 79
     2
140
0.12
141
0.0
146
0.71
147
0.06
176
   256
177
   256
178
     2
274
     4
284
     7
288
     1
289
     0
340
11
371
    -1
372
    -1
  0
DIMSTYLE
105
7FE
330
A
100
AcDbSymbolTableRecord
100
AcDbDimStyleTableRecord
  2
AM_ANSI$4
 70
     0
  4
mm
 41
0.1
 42
0.05
 43
0.5
 44
0.1
 47
0.1
 48
0.1
 78
     7
 79
     2
140
0.12
141
0.0
146
0.71
147
0.06
176
   256
177
   256
178
     2
274
     4
284
     7
288
     1
289
     0
340
11
371
    -1
372
    -1
  0
DIMSTYLE
105
7FF
330
A
100
AcDbSymbolTableRecord
100
AcDbDimStyleTableRecord
  2
AM_ANSI$7
 70
     0
  4
mm
 41
0.1
 42
0.05
 43
0.5
 44
0.1
 47
0.1
 48
0.1
 78
     7
 79
     2
140
0.24
141
0.0
146
0.71
147
0.06
176
   256
177
   256
178
     2
274
     4
284
     7
340
11
371
    -1
372
    -1
  0
DIMSTYLE
105
800
330
A
100
AcDbSymbolTableRecord
100
AcDbDimStyleTableRecord
  2
AM_ANSI$SF
 70
     0
  4
mm
 41
0.1
 42
0.05
 43
0.5
 44
0.1
 47
0.1
 48
0.1
 75
     1
 76
     1
 78
     7
 79
     2
140
0.12
141
0.0
146
0.71
147
0.06
176
   256
177
   256
178
     2
274
     4
284
     7
340
11
371
    -1
372
    -1
  0
DIMSTYLE
105
801
330
A
100
AcDbSymbolTableRecord
100
AcDbDimStyleTableRecord
  2
AM_ANSI$SH
 70
     0
  4
mm
 41
0.1
 42
0.05
 43
0.5
 44
0.1
 47
0.1
 48
0.1
 75
     1
 76
     1
 78
     7
 79
     2
140
0.12
141
0.0
146
0.71
147
0.06
173
     1
176
   256
177
   256
178
     2
274
     4
284
     7
340
11
343
87
371
    -1
372
    -1
  0
ENDTAB
  0
TABLE
  2
BLOCK_RECORD
  5
1
330
0
100
AcDbSymbolTable
 70
    20
  0
BLOCK_RECORD
  5
1F
102
{ACAD_XDICTIONARY
360
8F
102
}
330
1
100
AcDbSymbolTableRecord
100
AcDbBlockTableRecord
  2
*Model_Space
340
22
  0
BLOCK_RECORD
  5
1B
330
1
100
AcDbSymbolTableRecord
100
AcDbBlockTableRecord
  2
*Paper_Space
340
1E
  0
BLOCK_RECORD
  5
23
330
1
100
AcDbSymbolTableRecord
100
AcDbBlockTableRecord
  2
*Paper_Space0
340
26
  0
BLOCK_RECORD
  5
87
330
1
100
AcDbSymbolTableRecord
100
AcDbBlockTableRecord
  2
GENAXEH
340
0
  0
BLOCK_RECORD
  5
2BC0
330
1
100
AcDbSymbolTableRecord
100
AcDbBlockTableRecord
  2
*D3
340
0
  0
BLOCK_RECORD
  5
2BCC
330
1
100
AcDbSymbolTableRecord
100
AcDbBlockTableRecord
  2
*D4
340
0
  0
BLOCK_RECORD
  5
2BE4
330
1
100
AcDbSymbolTableRecord
100
AcDbBlockTableRecord
  2
*D5
340
0
  0
BLOCK_RECORD
  5
2C3F
330
1
100
AcDbSymbolTableRecord
100
AcDbBlockTableRecord
  2
*D6
340
0
  0
BLOCK_RECORD
  5
2D44
330
1
100
AcDbSymbolTableRecord
100
AcDbBlockTableRecord
  2
*D7
340
0
  0
BLOCK_RECORD
  5
2D50
330
1
100
AcDbSymbolTableRecord
100
AcDbBlockTableRecord
  2
*D8
340
0
  0
BLOCK_RECORD
  5
2D5C
330
1
100
AcDbSymbolTableRecord
100
AcDbBlockTableRecord
  2
*D9
340
0
  0
BLOCK_RECORD
  5
2D68
330
1
100
AcDbSymbolTableRecord
100
AcDbBlockTableRecord
  2
*D10
340
0
  0
BLOCK_RECORD
  5
2EA7
330
1
100
AcDbSymbolTableRecord
100
AcDbBlockTableRecord
  2
*D11
340
0
  0
BLOCK_RECORD
  5
2EB3
330
1
100
AcDbSymbolTableRecord
100
AcDbBlockTableRecord
  2
*D12
340
0
  0
BLOCK_RECORD
  5
2EBF
330
1
100
AcDbSymbolTableRecord
100
AcDbBlockTableRecord
  2
*D13
340
0
  0
BLOCK_RECORD
  5
2ECB
330
1
100
AcDbSymbolTableRecord
100
AcDbBlockTableRecord
  2
*D14
340
0
  0
BLOCK_RECORD
  5
3018
330
1
100
AcDbSymbolTableRecord
100
AcDbBlockTableRecord
  2
*D15
340
0
  0
BLOCK_RECORD
  5
3024
330
1
100
AcDbSymbolTableRecord
100
AcDbBlockTableRecord
  2
*D16
340
0
  0
BLOCK_RECORD
  5
3030
330
1
100
AcDbSymbolTableRecord
100
AcDbBlockTableRecord
  2
*D17
340
0
  0
BLOCK_RECORD
  5
303C
330
1
100
AcDbSymbolTableRecord
100
AcDbBlockTableRecord
  2
*D18
340
0
  0
ENDTAB
  0
ENDSEC
  0
SECTION
  2
BLOCKS
  0
BLOCK
  5
20
330
1F
100
AcDbEntity
  8
0
100
AcDbBlockBegin
  2
*Model_Space
 70
     0
 10
0.0
 20
0.0
 30
0.0
  3
*Model_Space
  1

  0
ENDBLK
  5
21
330
1F
100
AcDbEntity
  8
0
100
AcDbBlockEnd
  0
BLOCK
  5
1C
330
1B
100
AcDbEntity
 67
     1
  8
0
100
AcDbBlockBegin
  2
*Paper_Space
 70
     0
 10
0.0
 20
0.0
 30
0.0
  3
*Paper_Space
  1

  0
ENDBLK
  5
1D
330
1B
100
AcDbEntity
 67
     1
  8
0
100
AcDbBlockEnd
  0
BLOCK
  5
24
330
23
100
AcDbEntity
  8
0
100
AcDbBlockBegin
  2
*Paper_Space0
 70
     0
 10
0.0
 20
0.0
 30
0.0
  3
*Paper_Space0
  1

  0
ENDBLK
  5
25
330
23
100
AcDbEntity
  8
0
100
AcDbBlockEnd
  0
BLOCK
  5
89
330
87
100
AcDbEntity
  8
0
100
AcDbBlockBegin
  2
GENAXEH
 70
     0
 10
0.0
 20
0.0
 30
0.0
  3
GENAXEH
  1

  0
LINE
  5
88
330
87
100
AcDbEntity
  8
0
100
AcDbLine
 10
-1.0
 20
0.0
 30
0.0
 11
1.0
 21
0.0
 31
0.0
  0
ENDBLK
  5
8A
330
87
100
AcDbEntity
  8
0
100
AcDbBlockEnd
  0
BLOCK
  5
2BCA
330
2BC0
100
AcDbEntity
  8
0
100
AcDbBlockBegin
  2
*D3
 70
     1
 10
0.0
 20
0.0
 30
0.0
  3
*D3
  1

  0
LINE
  5
30C6
330
2BC0
100
AcDbEntity
  8
AM_5
100
AcDbLine
 10
804.0034124124289
 20
508.9561227128467
 30
0.0
 11
828.003412412429
 21
508.9561227128467
 31
0.0
  0
LINE
  5
30C7
330
2BC0
100
AcDbEntity
  8
AM_5
100
AcDbLine
 10
804.0034124124289
 20
578.9561227128467
 30
0.0
 11
828.003412412429
 21
578.9561227128467
 31
0.0
  0
LINE
  5
30C8
330
2BC0
100
AcDbEntity
  8
AM_5
100
AcDbLine
 10
826.5034124124291
 20
511.9561227128468
 30
0.0
 11
826.5034124124291
 21
575.9561227128467
 31
0.0
  0
SOLID
  5
30C9
330
2BC0
100
AcDbEntity
  8
AM_5
100
AcDbTrace
 10
826.003412412429
 20
511.9561227128468
 30
0.0
 11
827.003412412429
 21
511.9561227128468
 31
0.0
 12
826.5034124124291
 22
508.9561227128467
 32
0.0
 13
826.5034124124291
 23
508.9561227128467
 33
0.0
  0
SOLID
  5
30CA
330
2BC0
100
AcDbEntity
  8
AM_5
100
AcDbTrace
 10
826.003412412429
 20
575.9561227128467
 30
0.0
 11
827.003412412429
 21
575.9561227128467
 31
0.0
 12
826.5034124124291
 22
578.9561227128467
 32
0.0
 13
826.5034124124291
 23
578.9561227128467
 33
0.0
  0
MTEXT
  5
30CB
330
2BC0
100
AcDbEntity
  8
AM_5
100
AcDbMText
 10
824.0034124124289
 20
543.956122712847
 30
0.0
 40
3.0
 41
0.0
 71
     5
 72
     1
  1
70
  7
CHINESET
 11
0.0000000000000001
 21
1.0
 31
0.0
 73
     1
 44
1.0
1001
ACAD
1000
MTEXTBEGIN
1070
    73
1070
     1
1070
    44
1040
1.0
1070
    74
1070
     0
1000
MTEXTEND
  0
POINT
  5
30CC
330
2BC0
100
AcDbEntity
  8
Defpoints
 62
     0
100
AcDbPoint
 10
803.003412412429
 20
508.9561227128467
 30
0.0
  0
POINT
  5
30CD
330
2BC0
100
AcDbEntity
  8
Defpoints
 62
     0
100
AcDbPoint
 10
803.003412412429
 20
578.9561227128467
 30
0.0
  0
POINT
  5
30CE
330
2BC0
100
AcDbEntity
  8
Defpoints
 62
     0
100
AcDbPoint
 10
826.5034124124291
 20
578.9561227128467
 30
0.0
  0
ENDBLK
  5
2BCB
330
2BC0
100
AcDbEntity
  8
0
100
AcDbBlockEnd
  0
BLOCK
  5
2BD6
330
2BCC
100
AcDbEntity
  8
0
100
AcDbBlockBegin
  2
*D4
 70
     1
 10
0.0
 20
0.0
 30
0.0
  3
*D4
  1

  0
LINE
  5
30CF
330
2BCC
100
AcDbEntity
  8
AM_5
100
AcDbLine
 10
804.0034124124289
 20
508.9561227128467
 30
0.0
 11
838.0034124124289
 21
508.9561227128467
 31
0.0
  0
LINE
  5
30D0
330
2BCC
100
AcDbEntity
  8
AM_5
100
AcDbLine
 10
796.503412412429
 20
608.9561227128467
 30
0.0
 11
838.0034124124289
 21
608.9561227128467
 31
0.0
  0
LINE
  5
30D1
330
2BCC
100
AcDbEntity
  8
AM_5
100
AcDbLine
 10
836.503412412429
 20
511.9561227128468
 30
0.0
 11
836.503412412429
 21
605.9561227128467
 31
0.0
  0
SOLID
  5
30D2
330
2BCC
100
AcDbEntity
  8
AM_5
100
AcDbTrace
 10
836.003412412429
 20
511.9561227128468
 30
0.0
 11
837.0034124124289
 21
511.9561227128468
 31
0.0
 12
836.503412412429
 22
508.9561227128467
 32
0.0
 13
836.503412412429
 23
508.9561227128467
 33
0.0
  0
SOLID
  5
30D3
330
2BCC
100
AcDbEntity
  8
AM_5
100
AcDbTrace
 10
836.003412412429
 20
605.9561227128467
 30
0.0
 11
837.0034124124289
 21
605.9561227128467
 31
0.0
 12
836.503412412429
 22
608.9561227128467
 32
0.0
 13
836.503412412429
 23
608.9561227128467
 33
0.0
  0
MTEXT
  5
30D4
330
2BCC
100
AcDbEntity
  8
AM_5
100
AcDbMText
 10
834.0034124124288
 20
558.9561227128469
 30
0.0
 40
3.0
 41
0.0
 71
     5
 72
     1
  1
100
  7
CHINESET
 11
0.0000000000000001
 21
1.0
 31
0.0
 73
     1
 44
1.0
1001
ACAD
1000
MTEXTBEGIN
1070
    73
1070
     1
1070
    44
1040
1.0
1070
    74
1070
     0
1000
MTEXTEND
  0
POINT
  5
30D5
330
2BCC
100
AcDbEntity
  8
Defpoints
 62
     0
100
AcDbPoint
 10
803.003412412429
 20
508.9561227128467
 30
0.0
  0
POINT
  5
30D6
330
2BCC
100
AcDbEntity
  8
Defpoints
 62
     0
100
AcDbPoint
 10
795.503412412429
 20
608.9561227128467
 30
0.0
  0
POINT
  5
30D7
330
2BCC
100
AcDbEntity
  8
Defpoints
 62
     0
100
AcDbPoint
 10
836.503412412429
 20
608.9561227128467
 30
0.0
  0
ENDBLK
  5
2BD7
330
2BCC
100
AcDbEntity
  8
0
100
AcDbBlockEnd
  0
BLOCK
  5
2BEE
330
2BE4
100
AcDbEntity
  8
0
100
AcDbBlockBegin
  2
*D5
 70
     1
 10
0.0
 20
0.0
 30
0.0
  3
*D5
  1

  0
LINE
  5
30D8
330
2BE4
100
AcDbEntity
  8
AM_5
100
AcDbLine
 10
796.503412412429
 20
633.9561227128467
 30
0.0
 11
838.0034124124289
 21
633.9561227128467
 31
0.0
  0
LINE
  5
30D9
330
2BE4
100
AcDbEntity
  8
AM_5
100
AcDbLine
 10
796.503412412429
 20
608.9561227128467
 30
0.0
 11
838.0034124124289
 21
608.9561227128467
 31
0.0
  0
LINE
  5
30DA
330
2BE4
100
AcDbEntity
  8
AM_5
100
AcDbLine
 10
836.503412412429
 20
630.9561227128467
 30
0.0
 11
836.503412412429
 21
611.9561227128468
 31
0.0
  0
SOLID
  5
30DB
330
2BE4
100
AcDbEntity
  8
AM_5
100
AcDbTrace
 10
836.003412412429
 20
630.9561227128467
 30
0.0
 11
837.0034124124289
 21
630.9561227128467
 31
0.0
 12
836.503412412429
 22
633.9561227128467
 32
0.0
 13
836.503412412429
 23
633.9561227128467
 33
0.0
  0
SOLID
  5
30DC
330
2BE4
100
AcDbEntity
  8
AM_5
100
AcDbTrace
 10
836.003412412429
 20
611.9561227128468
 30
0.0
 11
837.0034124124289
 21
611.9561227128468
 31
0.0
 12
836.503412412429
 22
608.9561227128467
 32
0.0
 13
836.503412412429
 23
608.9561227128467
 33
0.0
  0
MTEXT
  5
30DD
330
2BE4
100
AcDbEntity
  8
AM_5
100
AcDbMText
 10
834.0034124124288
 20
621.456122712847
 30
0.0
 40
3.0
 41
0.0
 71
     5
 72
     1
  1
25
  7
CHINESET
 11
0.0000000000000001
 21
1.0
 31
0.0
 73
     1
 44
1.0
1001
ACAD
1000
MTEXTBEGIN
1070
    73
1070
     1
1070
    44
1040
1.0
1070
    74
1070
     0
1000
MTEXTEND
  0
POINT
  5
30DE
330
2BE4
100
AcDbEntity
  8
Defpoints
 62
     0
100
AcDbPoint
 10
795.503412412429
 20
633.9561227128467
 30
0.0
  0
POINT
  5
30DF
330
2BE4
100
AcDbEntity
  8
Defpoints
 62
     0
100
AcDbPoint
 10
795.503412412429
 20
608.9561227128467
 30
0.0
  0
POINT
  5
30E0
330
2BE4
100
AcDbEntity
  8
Defpoints
 62
     0
100
AcDbPoint
 10
836.503412412429
 20
608.9561227128467
 30
0.0
  0
ENDBLK
  5
2BEF
330
2BE4
100
AcDbEntity
  8
0
100
AcDbBlockEnd
  0
BLOCK
  5
2C49
330
2C3F
100
AcDbEntity
  8
0
100
AcDbBlockBegin
  2
*D6
 70
     1
 10
0.0
 20
0.0
 30
0.0
  3
*D6
  1

  0
LINE
  5
30E1
330
2C3F
100
AcDbEntity
  8
AM_5
100
AcDbLine
 10
760.003412412429
 20
534.4561227128467
 30
0.0
 11
760.003412412429
 21
527.1373460630377
 31
0.0
  0
LINE
  5
30E2
330
2C3F
100
AcDbEntity
  8
AM_5
100
AcDbLine
 10
805.0034124124291
 20
534.4561227128467
 30
0.0
 11
805.0034124124291
 21
527.1373460630377
 31
0.0
  0
LINE
  5
30E3
330
2C3F
100
AcDbEntity
  8
AM_5
100
AcDbLine
 10
763.003412412429
 20
528.6373460630377
 30
0.0
 11
802.003412412429
 21
528.6373460630377
 31
0.0
  0
SOLID
  5
30E4
330
2C3F
100
AcDbEntity
  8
AM_5
100
AcDbTrace
 10
763.003412412429
 20
529.1373460630377
 30
0.0
 11
763.003412412429
 21
528.1373460630377
 31
0.0
 12
760.003412412429
 22
528.6373460630377
 32
0.0
 13
760.003412412429
 23
528.6373460630377
 33
0.0
  0
SOLID
  5
30E5
330
2C3F
100
AcDbEntity
  8
AM_5
100
AcDbTrace
 10
802.003412412429
 20
529.1373460630377
 30
0.0
 11
802.003412412429
 21
528.1373460630377
 31
0.0
 12
805.0034124124291
 22
528.6373460630377
 32
0.0
 13
805.0034124124291
 23
528.6373460630377
 33
0.0
  0
MTEXT
  5
30E6
330
2C3F
100
AcDbEntity
  8
AM_5
100
AcDbMText
 10
782.503412412429
 20
531.1373460630377
 30
0.0
 40
3.0
 41
0.0
 71
     5
 72
     1
  1
M45x1.5
  7
CHINESET
 73
     1
 44
1.0
1001
ACAD
1000
MTEXTBEGIN
1070
    73
1070
     1
1070
    44
1040
1.0
1070
    74
1070
     0
1000
MTEXTEND
  0
POINT
  5
30E7
330
2C3F
100
AcDbEntity
  8
Defpoints
 62
     0
100
AcDbPoint
 10
760.003412412429
 20
535.4561227128467
 30
0.0
  0
POINT
  5
30E8
330
2C3F
100
AcDbEntity
  8
Defpoints
 62
     0
100
AcDbPoint
 10
805.0034124124291
 20
535.4561227128467
 30
0.0
  0
POINT
  5
30E9
330
2C3F
100
AcDbEntity
  8
Defpoints
 62
     0
100
AcDbPoint
 10
805.0034124124291
 20
528.6373460630377
 30
0.0
  0
ENDBLK
  5
2C4A
330
2C3F
100
AcDbEntity
  8
0
100
AcDbBlockEnd
  0
BLOCK
  5
2D4E
330
2D44
100
AcDbEntity
  8
0
100
AcDbBlockBegin
  2
*D7
 70
     1
 10
0.0
 20
0.0
 30
0.0
  3
*D7
  1

  0
LINE
  5
30EA
330
2D44
100
AcDbEntity
  8
AM_5
100
AcDbLine
 10
1176.822192433855
 20
508.9561227128467
 30
0.0
 11
1200.822192433855
 21
508.9561227128467
 31
0.0
  0
LINE
  5
30EB
330
2D44
100
AcDbEntity
  8
AM_5
100
AcDbLine
 10
1178.322192433855
 20
584.9561227128467
 30
0.0
 11
1200.822192433855
 21
584.9561227128467
 31
0.0
  0
LINE
  5
30EC
330
2D44
100
AcDbEntity
  8
AM_5
100
AcDbLine
 10
1199.322192433855
 20
511.9561227128468
 30
0.0
 11
1199.322192433855
 21
581.9561227128467
 31
0.0
  0
SOLID
  5
30ED
330
2D44
100
AcDbEntity
  8
AM_5
100
AcDbTrace
 10
1198.822192433855
 20
511.9561227128468
 30
0.0
 11
1199.822192433855
 21
511.9561227128468
 31
0.0
 12
1199.322192433855
 22
508.9561227128467
 32
0.0
 13
1199.322192433855
 23
508.9561227128467
 33
0.0
  0
SOLID
  5
30EE
330
2D44
100
AcDbEntity
  8
AM_5
100
AcDbTrace
 10
1198.822192433855
 20
581.9561227128467
 30
0.0
 11
1199.822192433855
 21
581.9561227128467
 31
0.0
 12
1199.322192433855
 22
584.9561227128467
 32
0.0
 13
1199.322192433855
 23
584.9561227128467
 33
0.0
  0
MTEXT
  5
30EF
330
2D44
100
AcDbEntity
  8
AM_5
100
AcDbMText
 10
1196.822192433855
 20
546.9561227128468
 30
0.0
 40
3.0
 41
0.0
 71
     5
 72
     1
  1
76
  7
CHINESET
 11
0.0000000000000001
 21
1.0
 31
0.0
 73
     1
 44
1.0
1001
ACAD
1000
MTEXTBEGIN
1070
    73
1070
     1
1070
    44
1040
1.0
1070
    74
1070
     0
1000
MTEXTEND
  0
POINT
  5
30F0
330
2D44
100
AcDbEntity
  8
Defpoints
 62
     0
100
AcDbPoint
 10
1175.822192433855
 20
508.9561227128467
 30
0.0
  0
POINT
  5
30F1
330
2D44
100
AcDbEntity
  8
Defpoints
 62
     0
100
AcDbPoint
 10
1177.322192433855
 20
584.9561227128467
 30
0.0
  0
POINT
  5
30F2
330
2D44
100
AcDbEntity
  8
Defpoints
 62
     0
100
AcDbPoint
 10
1199.322192433855
 20
584.9561227128467
 30
0.0
  0
ENDBLK
  5
2D4F
330
2D44
100
AcDbEntity
  8
0
100
AcDbBlockEnd
  0
BLOCK
  5
2D5A
330
2D50
100
AcDbEntity
  8
0
100
AcDbBlockBegin
  2
*D8
 70
     1
 10
0.0
 20
0.0
 30
0.0
  3
*D8
  1

  0
LINE
  5
30F3
330
2D50
100
AcDbEntity
  8
AM_5
100
AcDbLine
 10
1176.822192433855
 20
508.9561227128467
 30
0.0
 11
1210.822192433855
 21
508.9561227128467
 31
0.0
  0
LINE
  5
30F4
330
2D50
100
AcDbEntity
  8
AM_5
100
AcDbLine
 10
1170.322192433855
 20
619.9561227128468
 30
0.0
 11
1210.822192433855
 21
619.9561227128468
 31
0.0
  0
LINE
  5
30F5
330
2D50
100
AcDbEntity
  8
AM_5
100
AcDbLine
 10
1209.322192433855
 20
511.9561227128468
 30
0.0
 11
1209.322192433855
 21
616.9561227128467
 31
0.0
  0
SOLID
  5
30F6
330
2D50
100
AcDbEntity
  8
AM_5
100
AcDbTrace
 10
1208.822192433855
 20
511.9561227128468
 30
0.0
 11
1209.822192433855
 21
511.9561227128468
 31
0.0
 12
1209.322192433855
 22
508.9561227128467
 32
0.0
 13
1209.322192433855
 23
508.9561227128467
 33
0.0
  0
SOLID
  5
30F7
330
2D50
100
AcDbEntity
  8
AM_5
100
AcDbTrace
 10
1208.822192433855
 20
616.9561227128467
 30
0.0
 11
1209.822192433855
 21
616.9561227128467
 31
0.0
 12
1209.322192433855
 22
619.9561227128468
 32
0.0
 13
1209.322192433855
 23
619.9561227128468
 33
0.0
  0
MTEXT
  5
30F8
330
2D50
100
AcDbEntity
  8
AM_5
100
AcDbMText
 10
1206.822192433855
 20
564.4561227128469
 30
0.0
 40
3.0
 41
0.0
 71
     5
 72
     1
  1
111
  7
CHINESET
 11
0.0000000000000001
 21
1.0
 31
0.0
 73
     1
 44
1.0
1001
ACAD
1000
MTEXTBEGIN
1070
    73
1070
     1
1070
    44
1040
1.0
1070
    74
1070
     0
1000
MTEXTEND
  0
POINT
  5
30F9
330
2D50
100
AcDbEntity
  8
Defpoints
 62
     0
100
AcDbPoint
 10
1175.822192433855
 20
508.9561227128467
 30
0.0
  0
POINT
  5
30FA
330
2D50
100
AcDbEntity
  8
Defpoints
 62
     0
100
AcDbPoint
 10
1169.322192433855
 20
619.9561227128468
 30
0.0
  0
POINT
  5
30FB
330
2D50
100
AcDbEntity
  8
Defpoints
 62
     0
100
AcDbPoint
 10
1209.322192433855
 20
619.9561227128468
 30
0.0
  0
ENDBLK
  5
2D5B
330
2D50
100
AcDbEntity
  8
0
100
AcDbBlockEnd
  0
BLOCK
  5
2D66
330
2D5C
100
AcDbEntity
  8
0
100
AcDbBlockBegin
  2
*D9
 70
     1
 10
0.0
 20
0.0
 30
0.0
  3
*D9
  1

  0
LINE
  5
30FC
330
2D5C
100
AcDbEntity
  8
AM_5
100
AcDbLine
 10
1170.322192433855
 20
644.9561227128468
 30
0.0
 11
1210.822192433855
 21
644.9561227128468
 31
0.0
  0
LINE
  5
30FD
330
2D5C
100
AcDbEntity
  8
AM_5
100
AcDbLine
 10
1170.322192433855
 20
619.9561227128468
 30
0.0
 11
1210.822192433855
 21
619.9561227128468
 31
0.0
  0
LINE
  5
30FE
330
2D5C
100
AcDbEntity
  8
AM_5
100
AcDbLine
 10
1209.322192433855
 20
641.9561227128467
 30
0.0
 11
1209.322192433855
 21
622.9561227128467
 31
0.0
  0
SOLID
  5
30FF
330
2D5C
100
AcDbEntity
  8
AM_5
100
AcDbTrace
 10
1208.822192433855
 20
641.9561227128467
 30
0.0
 11
1209.822192433855
 21
641.9561227128467
 31
0.0
 12
1209.322192433855
 22
644.9561227128468
 32
0.0
 13
1209.322192433855
 23
644.9561227128468
 33
0.0
  0
SOLID
  5
3100
330
2D5C
100
AcDbEntity
  8
AM_5
100
AcDbTrace
 10
1208.822192433855
 20
622.9561227128467
 30
0.0
 11
1209.822192433855
 21
622.9561227128467
 31
0.0
 12
1209.322192433855
 22
619.9561227128468
 32
0.0
 13
1209.322192433855
 23
619.9561227128468
 33
0.0
  0
MTEXT
  5
3101
330
2D5C
100
AcDbEntity
  8
AM_5
100
AcDbMText
 10
1206.822192433855
 20
632.4561227128469
 30
0.0
 40
3.0
 41
0.0
 71
     5
 72
     1
  1
25
  7
CHINESET
 11
0.0000000000000001
 21
1.0
 31
0.0
 73
     1
 44
1.0
1001
ACAD
1000
MTEXTBEGIN
1070
    73
1070
     1
1070
    44
1040
1.0
1070
    74
1070
     0
1000
MTEXTEND
  0
POINT
  5
3102
330
2D5C
100
AcDbEntity
  8
Defpoints
 62
     0
100
AcDbPoint
 10
1169.322192433855
 20
644.9561227128468
 30
0.0
  0
POINT
  5
3103
330
2D5C
100
AcDbEntity
  8
Defpoints
 62
     0
100
AcDbPoint
 10
1169.322192433855
 20
619.9561227128468
 30
0.0
  0
POINT
  5
3104
330
2D5C
100
AcDbEntity
  8
Defpoints
 62
     0
100
AcDbPoint
 10
1209.322192433855
 20
619.9561227128468
 30
0.0
  0
ENDBLK
  5
2D67
330
2D5C
100
AcDbEntity
  8
0
100
AcDbBlockEnd
  0
BLOCK
  5
2D72
330
2D68
100
AcDbEntity
  8
0
100
AcDbBlockBegin
  2
*D10
 70
     1
 10
0.0
 20
0.0
 30
0.0
  3
*D10
  1

  0
LINE
  5
3105
330
2D68
100
AcDbEntity
  8
AM_5
100
AcDbLine
 10
1130.322192433855
 20
539.4561227128467
 30
0.0
 11
1130.322192433855
 21
527.1373460630377
 31
0.0
  0
LINE
  5
3106
330
2D68
100
AcDbEntity
  8
AM_5
100
AcDbLine
 10
1180.322192433855
 20
539.4561227128467
 30
0.0
 11
1180.322192433855
 21
527.1373460630377
 31
0.0
  0
LINE
  5
3107
330
2D68
100
AcDbEntity
  8
AM_5
100
AcDbLine
 10
1133.322192433855
 20
528.6373460630377
 30
0.0
 11
1177.322192433855
 21
528.6373460630377
 31
0.0
  0
SOLID
  5
3108
330
2D68
100
AcDbEntity
  8
AM_5
100
AcDbTrace
 10
1133.322192433855
 20
529.1373460630377
 30
0.0
 11
1133.322192433855
 21
528.1373460630377
 31
0.0
 12
1130.322192433855
 22
528.6373460630377
 32
0.0
 13
1130.322192433855
 23
528.6373460630377
 33
0.0
  0
SOLID
  5
3109
330
2D68
100
AcDbEntity
  8
AM_5
100
AcDbTrace
 10
1177.322192433855
 20
529.1373460630377
 30
0.0
 11
1177.322192433855
 21
528.1373460630377
 31
0.0
 12
1180.322192433855
 22
528.6373460630377
 32
0.0
 13
1180.322192433855
 23
528.6373460630377
 33
0.0
  0
MTEXT
  5
310A
330
2D68
100
AcDbEntity
  8
AM_5
100
AcDbMText
 10
1155.322192433855
 20
531.1373460630377
 30
0.0
 40
3.0
 41
0.0
 71
     5
 72
     1
  1
M50x1.5
  7
CHINESET
 73
     1
 44
1.0
1001
ACAD
1000
MTEXTBEGIN
1070
    73
1070
     1
1070
    44
1040
1.0
1070
    74
1070
     0
1000
MTEXTEND
  0
POINT
  5
310B
330
2D68
100
AcDbEntity
  8
Defpoints
 62
     0
100
AcDbPoint
 10
1130.322192433855
 20
540.4561227128467
 30
0.0
  0
POINT
  5
310C
330
2D68
100
AcDbEntity
  8
Defpoints
 62
     0
100
AcDbPoint
 10
1180.322192433855
 20
540.4561227128467
 30
0.0
  0
POINT
  5
310D
330
2D68
100
AcDbEntity
  8
Defpoints
 62
     0
100
AcDbPoint
 10
1180.322192433855
 20
528.6373460630377
 30
0.0
  0
ENDBLK
  5
2D73
330
2D68
100
AcDbEntity
  8
0
100
AcDbBlockEnd
  0
BLOCK
  5
2EB1
330
2EA7
100
AcDbEntity
  8
0
100
AcDbBlockBegin
  2
*D11
 70
     1
 10
0.0
 20
0.0
 30
0.0
  3
*D11
  1

  0
LINE
  5
310E
330
2EA7
100
AcDbEntity
  8
AM_5
100
AcDbLine
 10
804.0034124124289
 20
138.0125204969318
 30
0.0
 11
828.003412412429
 21
138.0125204969318
 31
0.0
  0
LINE
  5
310F
330
2EA7
100
AcDbEntity
  8
AM_5
100
AcDbLine
 10
808.003412412429
 20
218.0125204969318
 30
0.0
 11
828.003412412429
 21
218.0125204969318
 31
0.0
  0
LINE
  5
3110
330
2EA7
100
AcDbEntity
  8
AM_5
100
AcDbLine
 10
826.5034124124291
 20
141.0125204969318
 30
0.0
 11
826.5034124124291
 21
215.0125204969318
 31
0.0
  0
SOLID
  5
3111
330
2EA7
100
AcDbEntity
  8
AM_5
100
AcDbTrace
 10
826.003412412429
 20
141.0125204969318
 30
0.0
 11
827.003412412429
 21
141.0125204969318
 31
0.0
 12
826.5034124124291
 22
138.0125204969318
 32
0.0
 13
826.5034124124291
 23
138.0125204969318
 33
0.0
  0
SOLID
  5
3112
330
2EA7
100
AcDbEntity
  8
AM_5
100
AcDbTrace
 10
826.003412412429
 20
215.0125204969318
 30
0.0
 11
827.003412412429
 21
215.0125204969318
 31
0.0
 12
826.5034124124291
 22
218.0125204969318
 32
0.0
 13
826.5034124124291
 23
218.0125204969318
 33
0.0
  0
MTEXT
  5
3113
330
2EA7
100
AcDbEntity
  8
AM_5
100
AcDbMText
 10
824.003412412429
 20
178.0125204969319
 30
0.0
 40
3.0
 41
0.0
 71
     5
 72
     1
  1
80
  7
CHINESET
 11
0.0000000000000001
 21
1.0
 31
0.0
 73
     1
 44
1.0
1001
ACAD
1000
MTEXTBEGIN
1070
    73
1070
     1
1070
    44
1040
1.0
1070
    74
1070
     0
1000
MTEXTEND
  0
POINT
  5
3114
330
2EA7
100
AcDbEntity
  8
Defpoints
 62
     0
100
AcDbPoint
 10
803.003412412429
 20
138.0125204969318
 30
0.0
  0
POINT
  5
3115
330
2EA7
100
AcDbEntity
  8
Defpoints
 62
     0
100
AcDbPoint
 10
807.003412412429
 20
218.0125204969318
 30
0.0
  0
POINT
  5
3116
330
2EA7
100
AcDbEntity
  8
Defpoints
 62
     0
100
AcDbPoint
 10
826.5034124124291
 20
218.0125204969318
 30
0.0
  0
ENDBLK
  5
2EB2
330
2EA7
100
AcDbEntity
  8
0
100
AcDbBlockEnd
  0
BLOCK
  5
2EBD
330
2EB3
100
AcDbEntity
  8
0
100
AcDbBlockBegin
  2
*D12
 70
     1
 10
0.0
 20
0.0
 30
0.0
  3
*D12
  1

  0
LINE
  5
3117
330
2EB3
100
AcDbEntity
  8
AM_5
100
AcDbLine
 10
804.0034124124289
 20
138.0125204969318
 30
0.0
 11
838.0034124124289
 21
138.0125204969318
 31
0.0
  0
LINE
  5
3118
330
2EB3
100
AcDbEntity
  8
AM_5
100
AcDbLine
 10
797.503412412429
 20
251.6125204969318
 30
0.0
 11
838.0034124124289
 21
251.6125204969318
 31
0.0
  0
LINE
  5
3119
330
2EB3
100
AcDbEntity
  8
AM_5
100
AcDbLine
 10
836.503412412429
 20
141.0125204969317
 30
0.0
 11
836.503412412429
 21
248.6125204969317
 31
0.0
  0
SOLID
  5
311A
330
2EB3
100
AcDbEntity
  8
AM_5
100
AcDbTrace
 10
836.003412412429
 20
141.0125204969317
 30
0.0
 11
837.0034124124289
 21
141.0125204969317
 31
0.0
 12
836.503412412429
 22
138.0125204969318
 32
0.0
 13
836.503412412429
 23
138.0125204969318
 33
0.0
  0
SOLID
  5
311B
330
2EB3
100
AcDbEntity
  8
AM_5
100
AcDbTrace
 10
836.003412412429
 20
248.6125204969317
 30
0.0
 11
837.0034124124289
 21
248.6125204969317
 31
0.0
 12
836.503412412429
 22
251.6125204969318
 32
0.0
 13
836.503412412429
 23
251.6125204969318
 33
0.0
  0
MTEXT
  5
311C
330
2EB3
100
AcDbEntity
  8
AM_5
100
AcDbMText
 10
834.003412412429
 20
194.8125204969319
 30
0.0
 40
3.0
 41
0.0
 71
     5
 72
     1
  1
113.6
  7
CHINESET
 11
0.0000000000000001
 21
1.0
 31
0.0
 73
     1
 44
1.0
1001
ACAD
1000
MTEXTBEGIN
1070
    73
1070
     1
1070
    44
1040
1.0
1070
    74
1070
     0
1000
MTEXTEND
  0
POINT
  5
311D
330
2EB3
100
AcDbEntity
  8
Defpoints
 62
     0
100
AcDbPoint
 10
803.003412412429
 20
138.0125204969318
 30
0.0
  0
POINT
  5
311E
330
2EB3
100
AcDbEntity
  8
Defpoints
 62
     0
100
AcDbPoint
 10
796.503412412429
 20
251.6125204969318
 30
0.0
  0
POINT
  5
311F
330
2EB3
100
AcDbEntity
  8
Defpoints
 62
     0
100
AcDbPoint
 10
836.503412412429
 20
251.6125204969318
 30
0.0
  0
ENDBLK
  5
2EBE
330
2EB3
100
AcDbEntity
  8
0
100
AcDbBlockEnd
  0
BLOCK
  5
2EC9
330
2EBF
100
AcDbEntity
  8
0
100
AcDbBlockBegin
  2
*D13
 70
     1
 10
0.0
 20
0.0
 30
0.0
  3
*D13
  1

  0
LINE
  5
3120
330
2EBF
100
AcDbEntity
  8
AM_5
100
AcDbLine
 10
797.503412412429
 20
276.6125204969318
 30
0.0
 11
838.0034124124291
 21
276.6125204969318
 31
0.0
  0
LINE
  5
3121
330
2EBF
100
AcDbEntity
  8
AM_5
100
AcDbLine
 10
797.503412412429
 20
251.6125204969318
 30
0.0
 11
838.0034124124289
 21
251.6125204969318
 31
0.0
  0
LINE
  5
3122
330
2EBF
100
AcDbEntity
  8
AM_5
100
AcDbLine
 10
836.503412412429
 20
273.6125204969318
 30
0.0
 11
836.503412412429
 21
254.6125204969317
 31
0.0
  0
SOLID
  5
3123
330
2EBF
100
AcDbEntity
  8
AM_5
100
AcDbTrace
 10
836.0034124124291
 20
273.6125204969318
 30
0.0
 11
837.0034124124291
 21
273.6125204969318
 31
0.0
 12
836.503412412429
 22
276.6125204969318
 32
0.0
 13
836.503412412429
 23
276.6125204969318
 33
0.0
  0
SOLID
  5
3124
330
2EBF
100
AcDbEntity
  8
AM_5
100
AcDbTrace
 10
836.003412412429
 20
254.6125204969317
 30
0.0
 11
837.0034124124289
 21
254.6125204969317
 31
0.0
 12
836.503412412429
 22
251.6125204969318
 32
0.0
 13
836.503412412429
 23
251.6125204969318
 33
0.0
  0
MTEXT
  5
3125
330
2EBF
100
AcDbEntity
  8
AM_5
100
AcDbMText
 10
834.003412412429
 20
264.1125204969319
 30
0.0
 40
3.0
 41
0.0
 71
     5
 72
     1
  1
25
  7
CHINESET
 11
0.0000000000000001
 21
1.0
 31
0.0
 73
     1
 44
1.0
1001
ACAD
1000
MTEXTBEGIN
1070
    73
1070
     1
1070
    44
1040
1.0
1070
    74
1070
     0
1000
MTEXTEND
  0
POINT
  5
3126
330
2EBF
100
AcDbEntity
  8
Defpoints
 62
     0
100
AcDbPoint
 10
796.503412412429
 20
276.6125204969318
 30
0.0
  0
POINT
  5
3127
330
2EBF
100
AcDbEntity
  8
Defpoints
 62
     0
100
AcDbPoint
 10
796.503412412429
 20
251.6125204969318
 30
0.0
  0
POINT
  5
3128
330
2EBF
100
AcDbEntity
  8
Defpoints
 62
     0
100
AcDbPoint
 10
836.503412412429
 20
251.6125204969318
 30
0.0
  0
ENDBLK
  5
2ECA
330
2EBF
100
AcDbEntity
  8
0
100
AcDbBlockEnd
  0
BLOCK
  5
2ED5
330
2ECB
100
AcDbEntity
  8
0
100
AcDbBlockBegin
  2
*D14
 70
     1
 10
0.0
 20
0.0
 30
0.0
  3
*D14
  1

  0
LINE
  5
3129
330
2ECB
100
AcDbEntity
  8
AM_5
100
AcDbLine
 10
755.003412412429
 20
168.5125204969317
 30
0.0
 11
755.003412412429
 21
156.1937438471228
 31
0.0
  0
LINE
  5
312A
330
2ECB
100
AcDbEntity
  8
AM_5
100
AcDbLine
 10
810.003412412429
 20
168.5125204969318
 30
0.0
 11
810.003412412429
 21
156.1937438471228
 31
0.0
  0
LINE
  5
312B
330
2ECB
100
AcDbEntity
  8
AM_5
100
AcDbLine
 10
758.003412412429
 20
157.6937438471228
 30
0.0
 11
807.003412412429
 21
157.6937438471228
 31
0.0
  0
SOLID
  5
312C
330
2ECB
100
AcDbEntity
  8
AM_5
100
AcDbTrace
 10
758.003412412429
 20
158.1937438471228
 30
0.0
 11
758.003412412429
 21
157.1937438471228
 31
0.0
 12
755.003412412429
 22
157.6937438471228
 32
0.0
 13
755.003412412429
 23
157.6937438471228
 33
0.0
  0
SOLID
  5
312D
330
2ECB
100
AcDbEntity
  8
AM_5
100
AcDbTrace
 10
807.003412412429
 20
158.1937438471228
 30
0.0
 11
807.003412412429
 21
157.1937438471228
 31
0.0
 12
810.003412412429
 22
157.6937438471228
 32
0.0
 13
810.003412412429
 23
157.6937438471228
 33
0.0
  0
MTEXT
  5
312E
330
2ECB
100
AcDbEntity
  8
AM_5
100
AcDbMText
 10
782.503412412429
 20
160.1937438471228
 30
0.0
 40
3.0
 41
0.0
 71
     5
 72
     1
  1
M55x1.5
  7
CHINESET
 73
     1
 44
1.0
1001
ACAD
1000
MTEXTBEGIN
1070
    73
1070
     1
1070
    44
1040
1.0
1070
    74
1070
     0
1000
MTEXTEND
  0
POINT
  5
312F
330
2ECB
100
AcDbEntity
  8
Defpoints
 62
     0
100
AcDbPoint
 10
755.003412412429
 20
169.5125204969317
 30
0.0
  0
POINT
  5
3130
330
2ECB
100
AcDbEntity
  8
Defpoints
 62
     0
100
AcDbPoint
 10
810.003412412429
 20
169.5125204969318
 30
0.0
  0
POINT
  5
3131
330
2ECB
100
AcDbEntity
  8
Defpoints
 62
     0
100
AcDbPoint
 10
810.003412412429
 20
157.6937438471228
 30
0.0
  0
ENDBLK
  5
2ED6
330
2ECB
100
AcDbEntity
  8
0
100
AcDbBlockEnd
  0
BLOCK
  5
3022
330
3018
100
AcDbEntity
  8
0
100
AcDbBlockBegin
  2
*D15
 70
     1
 10
0.0
 20
0.0
 30
0.0
  3
*D15
  1

  0
LINE
  5
3132
330
3018
100
AcDbEntity
  8
AM_5
100
AcDbLine
 10
1186.322192433855
 20
138.0125204969317
 30
0.0
 11
1200.822192433855
 21
138.0125204969317
 31
0.0
  0
LINE
  5
3133
330
3018
100
AcDbEntity
  8
AM_5
100
AcDbLine
 10
1185.322192433855
 20
218.0125204969317
 30
0.0
 11
1200.822192433855
 21
218.0125204969317
 31
0.0
  0
LINE
  5
3134
330
3018
100
AcDbEntity
  8
AM_5
100
AcDbLine
 10
1199.322192433855
 20
141.0125204969317
 30
0.0
 11
1199.322192433855
 21
215.0125204969317
 31
0.0
  0
SOLID
  5
3135
330
3018
100
AcDbEntity
  8
AM_5
100
AcDbTrace
 10
1198.822192433855
 20
141.0125204969317
 30
0.0
 11
1199.822192433855
 21
141.0125204969317
 31
0.0
 12
1199.322192433855
 22
138.0125204969317
 32
0.0
 13
1199.322192433855
 23
138.0125204969317
 33
0.0
  0
SOLID
  5
3136
330
3018
100
AcDbEntity
  8
AM_5
100
AcDbTrace
 10
1198.822192433855
 20
215.0125204969317
 30
0.0
 11
1199.822192433855
 21
215.0125204969317
 31
0.0
 12
1199.322192433855
 22
218.0125204969317
 32
0.0
 13
1199.322192433855
 23
218.0125204969317
 33
0.0
  0
MTEXT
  5
3137
330
3018
100
AcDbEntity
  8
AM_5
100
AcDbMText
 10
1196.822192433855
 20
178.0125204969319
 30
0.0
 40
3.0
 41
0.0
 71
     5
 72
     1
  1
80
  7
CHINESET
 11
0.0000000000000001
 21
1.0
 31
0.0
 73
     1
 44
1.0
1001
ACAD
1000
MTEXTBEGIN
1070
    73
1070
     1
1070
    44
1040
1.0
1070
    74
1070
     0
1000
MTEXTEND
  0
POINT
  5
3138
330
3018
100
AcDbEntity
  8
Defpoints
 62
     0
100
AcDbPoint
 10
1185.322192433855
 20
138.0125204969317
 30
0.0
  0
POINT
  5
3139
330
3018
100
AcDbEntity
  8
Defpoints
 62
     0
100
AcDbPoint
 10
1184.322192433855
 20
218.0125204969317
 30
0.0
  0
POINT
  5
313A
330
3018
100
AcDbEntity
  8
Defpoints
 62
     0
100
AcDbPoint
 10
1199.322192433855
 20
218.0125204969317
 30
0.0
  0
ENDBLK
  5
3023
330
3018
100
AcDbEntity
  8
0
100
AcDbBlockEnd
  0
BLOCK
  5
302E
330
3024
100
AcDbEntity
  8
0
100
AcDbBlockBegin
  2
*D16
 70
     1
 10
0.0
 20
0.0
 30
0.0
  3
*D16
  1

  0
LINE
  5
313B
330
3024
100
AcDbEntity
  8
AM_5
100
AcDbLine
 10
1186.322192433855
 20
138.0125204969318
 30
0.0
 11
1210.822192433855
 21
138.0125204969318
 31
0.0
  0
LINE
  5
313C
330
3024
100
AcDbEntity
  8
AM_5
100
AcDbLine
 10
1170.322192433855
 20
252.5125204969318
 30
0.0
 11
1210.822192433855
 21
252.5125204969318
 31
0.0
  0
LINE
  5
313D
330
3024
100
AcDbEntity
  8
AM_5
100
AcDbLine
 10
1209.322192433855
 20
141.0125204969318
 30
0.0
 11
1209.322192433855
 21
249.5125204969318
 31
0.0
  0
SOLID
  5
313E
330
3024
100
AcDbEntity
  8
AM_5
100
AcDbTrace
 10
1208.822192433855
 20
141.0125204969318
 30
0.0
 11
1209.822192433855
 21
141.0125204969318
 31
0.0
 12
1209.322192433855
 22
138.0125204969318
 32
0.0
 13
1209.322192433855
 23
138.0125204969318
 33
0.0
  0
SOLID
  5
313F
330
3024
100
AcDbEntity
  8
AM_5
100
AcDbTrace
 10
1208.822192433855
 20
249.5125204969318
 30
0.0
 11
1209.822192433855
 21
249.5125204969318
 31
0.0
 12
1209.322192433855
 22
252.5125204969318
 32
0.0
 13
1209.322192433855
 23
252.5125204969318
 33
0.0
  0
MTEXT
  5
3140
330
3024
100
AcDbEntity
  8
AM_5
100
AcDbMText
 10
1206.822192433855
 20
195.262520496932
 30
0.0
 40
3.0
 41
0.0
 71
     5
 72
     1
  1
114.5
  7
CHINESET
 11
0.0000000000000001
 21
1.0
 31
0.0
 73
     1
 44
1.0
1001
ACAD
1000
MTEXTBEGIN
1070
    73
1070
     1
1070
    44
1040
1.0
1070
    74
1070
     0
1000
MTEXTEND
  0
POINT
  5
3141
330
3024
100
AcDbEntity
  8
Defpoints
 62
     0
100
AcDbPoint
 10
1185.322192433855
 20
138.0125204969318
 30
0.0
  0
POINT
  5
3142
330
3024
100
AcDbEntity
  8
Defpoints
 62
     0
100
AcDbPoint
 10
1169.322192433855
 20
252.5125204969318
 30
0.0
  0
POINT
  5
3143
330
3024
100
AcDbEntity
  8
Defpoints
 62
     0
100
AcDbPoint
 10
1209.322192433855
 20
252.5125204969318
 30
0.0
  0
ENDBLK
  5
302F
330
3024
100
AcDbEntity
  8
0
100
AcDbBlockEnd
  0
BLOCK
  5
303A
330
3030
100
AcDbEntity
  8
0
100
AcDbBlockBegin
  2
*D17
 70
     1
 10
0.0
 20
0.0
 30
0.0
  3
*D17
  1

  0
LINE
  5
3144
330
3030
100
AcDbEntity
  8
AM_5
100
AcDbLine
 10
1170.322192433855
 20
277.5125204969318
 30
0.0
 11
1210.822192433855
 21
277.5125204969318
 31
0.0
  0
LINE
  5
3145
330
3030
100
AcDbEntity
  8
AM_5
100
AcDbLine
 10
1170.322192433855
 20
252.5125204969318
 30
0.0
 11
1210.822192433855
 21
252.5125204969318
 31
0.0
  0
LINE
  5
3146
330
3030
100
AcDbEntity
  8
AM_5
100
AcDbLine
 10
1209.322192433855
 20
274.5125204969318
 30
0.0
 11
1209.322192433855
 21
255.5125204969318
 31
0.0
  0
SOLID
  5
3147
330
3030
100
AcDbEntity
  8
AM_5
100
AcDbTrace
 10
1208.822192433855
 20
274.5125204969318
 30
0.0
 11
1209.822192433855
 21
274.5125204969318
 31
0.0
 12
1209.322192433855
 22
277.5125204969318
 32
0.0
 13
1209.322192433855
 23
277.5125204969318
 33
0.0
  0
SOLID
  5
3148
330
3030
100
AcDbEntity
  8
AM_5
100
AcDbTrace
 10
1208.822192433855
 20
255.5125204969318
 30
0.0
 11
1209.822192433855
 21
255.5125204969318
 31
0.0
 12
1209.322192433855
 22
252.5125204969318
 32
0.0
 13
1209.322192433855
 23
252.5125204969318
 33
0.0
  0
MTEXT
  5
3149
330
3030
100
AcDbEntity
  8
AM_5
100
AcDbMText
 10
1206.822192433855
 20
265.012520496932
 30
0.0
 40
3.0
 41
0.0
 71
     5
 72
     1
  1
25
  7
CHINESET
 11
0.0000000000000001
 21
1.0
 31
0.0
 73
     1
 44
1.0
1001
ACAD
1000
MTEXTBEGIN
1070
    73
1070
     1
1070
    44
1040
1.0
1070
    74
1070
     0
1000
MTEXTEND
  0
POINT
  5
314A
330
3030
100
AcDbEntity
  8
Defpoints
 62
     0
100
AcDbPoint
 10
1169.322192433855
 20
277.5125204969318
 30
0.0
  0
POINT
  5
314B
330
3030
100
AcDbEntity
  8
Defpoints
 62
     0
100
AcDbPoint
 10
1169.322192433855
 20
252.5125204969318
 30
0.0
  0
POINT
  5
314C
330
3030
100
AcDbEntity
  8
Defpoints
 62
     0
100
AcDbPoint
 10
1209.322192433855
 20
252.5125204969318
 30
0.0
  0
ENDBLK
  5
303B
330
3030
100
AcDbEntity
  8
0
100
AcDbBlockEnd
  0
BLOCK
  5
3046
330
303C
100
AcDbEntity
  8
0
100
AcDbBlockBegin
  2
*D18
 70
     1
 10
0.0
 20
0.0
 30
0.0
  3
*D18
  1

  0
LINE
  5
314D
330
303C
100
AcDbEntity
  8
AM_5
100
AcDbLine
 10
1122.822192433855
 20
168.5125204969317
 30
0.0
 11
1122.822192433855
 21
156.1937438471227
 31
0.0
  0
LINE
  5
314E
330
303C
100
AcDbEntity
  8
AM_5
100
AcDbLine
 10
1187.822192433855
 20
168.5125204969318
 30
0.0
 11
1187.822192433855
 21
156.1937438471227
 31
0.0
  0
LINE
  5
314F
330
303C
100
AcDbEntity
  8
AM_5
100
AcDbLine
 10
1125.822192433855
 20
157.6937438471227
 30
0.0
 11
1184.822192433855
 21
157.6937438471227
 31
0.0
  0
SOLID
  5
3150
330
303C
100
AcDbEntity
  8
AM_5
100
AcDbTrace
 10
1125.822192433855
 20
158.1937438471227
 30
0.0
 11
1125.822192433855
 21
157.1937438471227
 31
0.0
 12
1122.822192433855
 22
157.6937438471227
 32
0.0
 13
1122.822192433855
 23
157.6937438471227
 33
0.0
  0
SOLID
  5
3151
330
303C
100
AcDbEntity
  8
AM_5
100
AcDbTrace
 10
1184.822192433855
 20
158.1937438471227
 30
0.0
 11
1184.822192433855
 21
157.1937438471227
 31
0.0
 12
1187.822192433855
 22
157.6937438471227
 32
0.0
 13
1187.822192433855
 23
157.6937438471227
 33
0.0
  0
MTEXT
  5
3152
330
303C
100
AcDbEntity
  8
AM_5
100
AcDbMText
 10
1155.322192433855
 20
160.1937438471227
 30
0.0
 40
3.0
 41
0.0
 71
     5
 72
     1
  1
M65x1.5
  7
CHINESET
 73
     1
 44
1.0
1001
ACAD
1000
MTEXTBEGIN
1070
    73
1070
     1
1070
    44
1040
1.0
1070
    74
1070
     0
1000
MTEXTEND
  0
POINT
  5
3153
330
303C
100
AcDbEntity
  8
Defpoints
 62
     0
100
AcDbPoint
 10
1122.822192433855
 20
169.5125204969317
 30
0.0
  0
POINT
  5
3154
330
303C
100
AcDbEntity
  8
Defpoints
 62
     0
100
AcDbPoint
 10
1187.822192433855
 20
169.5125204969318
 30
0.0
  0
POINT
  5
3155
330
303C
100
AcDbEntity
  8
Defpoints
 62
     0
100
AcDbPoint
 10
1187.822192433855
 20
157.6937438471227
 30
0.0
  0
ENDBLK
  5
3047
330
303C
100
AcDbEntity
  8
0
100
AcDbBlockEnd
  0
ENDSEC
  0
SECTION
  2
ENTITIES
  0
TEXT
  5
1728
330
1F
100
AcDbEntity
  8
LOGO
 62
     7
100
AcDbText
 10
784.1389268310808
 20
70.05363340389862
 30
0.0
 40
10.6651221719457
  1
Order example:
 41
0.8
  7
CHINESET
100
AcDbText
  0
TEXT
  5
1729
330
1F
100
AcDbEntity
  8
LOGO
 62
     7
100
AcDbText
 10
786.0523379457004
 20
85.06791718027557
 30
0.0
 40
15.99768325791855
  1
訂購代號:
  7
CHINESET
100
AcDbText
  0
LINE
  5
172A
330
1F
100
AcDbEntity
  8
LOGO
 62
     1
100
AcDbLine
 10
1335.530379236251
 20
105.0951974611587
 30
0.0
 11
603.5303792362515
 21
105.0951974611587
 31
0.0
  0
LINE
  5
172B
330
1F
100
AcDbEntity
  8
LOGO
 62
     1
100
AcDbLine
 10
779.5048950733558
 20
25.10678117156544
 30
0.0
 11
779.5048950733558
 21
105.0951974611587
 31
0.0
  0
TEXT
  5
172C
330
1F
100
AcDbEntity
  8
LOGO
  6
Continuous
 62
     5
100
AcDbText
 10
632.2625779223613
 20
40.82038483861083
 30
0.0
 40
11.99826244343891
  1
金器工業股份有限公司
  7
CHINESET
100
AcDbText
  0
TEXT
  5
172D
330
1F
100
AcDbEntity
  8
LOGO
  6
Continuous
 62
     5
100
AcDbText
 10
610.2241435529281
 20
28.81977167643322
 30
0.0
 40
7.998841628959275
  1
MINDMAN INDUSTRIAL CO., LTD.
 41
0.85
  7
CHINESET
100
AcDbText
  0
LINE
  5
172E
330
1F
100
AcDbEntity
  8
LOGO
 62
     1
100
AcDbLine
 10
779.5048950733558
 20
89.09751420324004
 30
0.0
 11
662.1885511819523
 21
89.09751420324004
 31
0.0
  0
LINE
  5
172F
330
1F
100
AcDbEntity
  8
LOGO
 62
     1
100
AcDbLine
 10
779.5048950733558
 20
73.0998309453214
 30
0.0
 11
662.1885511819523
 21
73.0998309453214
 31
0.0
  0
LINE
  5
1730
330
1F
100
AcDbEntity
  8
LOGO
 62
     1
100
AcDbLine
 10
779.5048950733558
 20
57.10214768740366
 30
0.0
 11
603.5303792362515
 21
57.10214768740366
 31
0.0
  0
LINE
  5
1731
330
1F
100
AcDbEntity
  8
LOGO
 62
     1
100
AcDbLine
 10
662.1885511819523
 20
57.10214768740366
 30
0.0
 11
662.1885511819523
 21
105.0951974611587
 31
0.0
  0
TEXT
  5
1732
330
1F
100
AcDbEntity
  8
LOGO
 62
     6
100
AcDbText
 10
738.1788655599446
 20
61.10156850188198
 30
0.0
 40
7.998841628959275
  1
m/m
  7
CHINESET
 72
     1
 11
752.27206271573
 21
65.10098931636162
 31
0.0
100
AcDbText
 73
     2
  0
TEXT
  5
1733
330
1F
100
AcDbEntity
  8
LOGO
 62
     6
100
AcDbText
 10
738.1788655599446
 20
93.0969350177193
 30
0.0
 40
7.998841628959275
  1
1 : 1
  7
CHINESET
 72
     1
 11
752.27206271573
 21
97.09635583219892
 31
0.0
100
AcDbText
 73
     2
  0
LINE
  5
1734
330
1F
100
AcDbEntity
  8
LOGO
 62
     1
100
AcDbLine
 10
726.1792842136269
 20
57.10214768740366
 30
0.0
 11
726.1792842136269
 21
105.0951974611587
 31
0.0
  0
CIRCLE
  5
1735
330
1F
100
AcDbEntity
  8
LOGO
  6
Continuous
 62
     6
100
AcDbCircle
 10
740.9901399689402
 20
81.11578215505938
 30
0.0
 40
4.644315721282525
  0
CIRCLE
  5
1736
330
1F
100
AcDbEntity
  8
LOGO
  6
Continuous
 62
     6
100
AcDbCircle
 10
740.9901399689402
 20
81.11578215505938
 30
0.0
 40
2.721157874662388
  0
LINE
  5
1737
330
1F
100
AcDbEntity
  8
LOGO
 62
     6
100
AcDbLine
 10
770.1755588650862
 20
76.47146643377595
 30
0.0
 11
770.1755588650862
 21
85.7600978763428
 31
0.0
  0
LINE
  5
1738
330
1F
100
AcDbEntity
  8
LOGO
 62
     6
100
AcDbLine
 10
755.6158956753092
 20
78.39462428039746
 30
0.0
 11
755.6158956753092
 21
83.8369400297222
 31
0.0
  0
LINE
  5
1739
330
1F
100
AcDbEntity
  8
LOGO
  6
Continuous
 62
     6
100
AcDbLine
 10
755.6158956753092
 20
83.8369400297222
 30
0.0
 11
770.1755588650862
 21
85.7600978763428
 31
0.0
  0
LINE
  5
173A
330
1F
100
AcDbEntity
  8
LOGO
  6
Continuous
 62
     6
100
AcDbLine
 10
755.6158956753092
 20
78.39462428039746
 30
0.0
 11
770.1755588650862
 21
76.47146643377595
 31
0.0
  0
TEXT
  5
173B
330
1F
100
AcDbEntity
  8
LOGO
 62
     6
100
AcDbText
 10
668.7840246144024
 20
93.10087145552882
 30
524.2309030401992
 40
7.998841628959275
  1
比例 Scale:
 41
0.9
  7
CHINESET
 72
     4
 11
694.1839176977896
 21
97.09635583219892
 31
524.2309030401992
100
AcDbText
  0
TEXT
  5
173C
330
1F
100
AcDbEntity
  8
LOGO
 62
     6
100
AcDbText
 10
668.3233770384489
 20
77.2117682738563
 30
524.2309030401992
 40
7.998841628959275
  1
投影  View:
 41
0.9
  7
CHINESET
 72
     4
 11
694.1839176977896
 21
81.09867257428026
 31
524.2309030401992
100
AcDbText
  0
TEXT
  5
173D
330
1F
100
AcDbEntity
  8
LOGO
 62
     6
100
AcDbText
 10
669.1054066441373
 20
61.10156850188198
 30
524.2309030401992
 40
7.998841628959275
  1
單位  Unit:
 41
0.9
  7
CHINESET
 72
     4
 11
694.1839176977896
 21
65.10098931636162
 31
524.2309030401992
100
AcDbText
  0
LWPOLYLINE
  5
173E
330
1F
100
AcDbEntity
  8
0
 62
     4
100
AcDbPolyline
 90
        4
 70
     1
 43
0.0
 10
603.5303792362515
 20
105.0951974611587
 10
1335.530379236251
 20
105.0951974611587
 10
1335.530379236251
 20
825.1067811715641
 10
603.5303792362515
 20
825.1067811715641
1001
GENIUS_GENREC_14
1002
{
1000
PYDIR
1011
603.5303792362515
1021
825.1067811715641
1031
0.0
1002
}
1002
{
1000
PXDIR
1011
1335.530379236251
1021
105.0951974611587
1031
0.0
1002
}
1002
{
1000
PORI
1011
603.5303792362515
1021
105.0951974611587
1031
0.0
1002
}
1002
{
1000
PINS
1011
603.5303792362515
1021
105.0951974611587
1031
0.0
1002
}
1002
{
1000
PINS2
1011
1335.530379236251
1021
825.1067811715641
1031
0.0
1002
}
1002
{
1000
C
1070
     1
1002
}
1001
GENIUS_GENODEF_13
1002
{
1000
HIER
1070
     0
1002
}
1002
{
1000
MANEDIT
1070
     0
1002
}
1002
{
1000
NOSEL
1070
     0
1002
}
1002
{
1000
BEHIND
1070
     0
1002
}
1002
{
1000
OTHER
1070
     0
1002
}
1002
{
1000
REACTOR
1002
}
1001
GENIUS_GENOBJ-N-REC_13
1002
{
1000
OWNER
1000
GEN
1002
}
  0
SOLID
  5
173F
330
1F
100
AcDbEntity
  8
LOGO
 62
     5
100
AcDbTrace
 10
611.8293057979403
 20
70.39908335009727
 30
0.0
 11
615.2877950286979
 21
70.39908335009636
 31
0.0
 12
629.7180431984102
 22
103.1951019176274
 32
0.0
 13
633.1765324291695
 23
103.1951019176256
 33
0.0
  0
SOLID
  5
1740
330
1F
100
AcDbEntity
  8
LOGO
 62
     5
100
AcDbTrace
 10
616.7188940207393
 20
70.39908335009727
 30
0.0
 11
620.1773832514968
 21
70.39908335009727
 31
0.0
 12
633.1765324291695
 22
100.5714204322237
 32
0.0
 13
629.7180431984102
 23
87.89029325277875
 33
0.0
  0
SOLID
  5
1741
330
1F
100
AcDbEntity
  8
LOGO
 62
     2
100
AcDbTrace
 10
615.2877950286979
 20
70.39908335009636
 30
0.0
 11
616.7188940207393
 21
70.39908335009727
 31
0.0
 12
633.1765324291695
 22
103.1951019176256
 32
0.0
 13
634.6076314212091
 23
103.1951019176256
 33
0.0
  0
SOLID
  5
1742
330
1F
100
AcDbEntity
  8
LOGO
 62
     5
100
AcDbTrace
 10
606.2844994355868
 20
58.47325841645101
 30
0.0
 11
607.4770819289528
 21
58.47325841645101
 31
0.0
 12
610.8354870534708
 22
64.43617088327369
 32
0.0
 13
612.0280695468331
 23
64.43617088327369
 33
0.0
  0
SOLID
  5
1743
330
1F
100
AcDbEntity
  8
LOGO
 62
     5
100
AcDbTrace
 10
610.8354870534708
 20
64.43617088327369
 30
0.0
 11
612.0280695468331
 21
64.43617088327369
 31
0.0
 12
610.8354870534708
 22
58.47325841645101
 32
0.0
 13
612.0280695468331
 23
58.47325841645101
 33
0.0
  0
SOLID
  5
1744
330
1F
100
AcDbEntity
  8
LOGO
 62
     5
100
AcDbTrace
 10
610.8354870534708
 20
58.47325841645101
 30
0.0
 11
612.0280695468331
 21
58.47325841645101
 31
0.0
 12
615.3864746713566
 22
64.43617088327369
 32
0.0
 13
616.5790571647208
 23
64.43617088327369
 33
0.0
  0
SOLID
  5
1745
330
1F
100
AcDbEntity
  8
LOGO
 62
     5
100
AcDbTrace
 10
615.3864746713566
 20
64.43617088327369
 30
0.0
 11
616.5790571647208
 21
64.43617088327369
 31
0.0
 12
615.3864746713566
 22
58.47325841645101
 32
0.0
 13
616.5790571647208
 23
58.47325841645101
 33
0.0
  0
POLYLINE
  5
1746
330
1F
100
AcDbEntity
  8
LOGO
 62
     5
100
AcDb2dPolyline
 66
     1
 10
0.0
 20
0.0
 30
0.0
 40
1.194493683257918
 41
1.194493683257918
  0
VERTEX
  5
1747
330
1746
100
AcDbEntity
  8
LOGO
 62
     5
100
AcDbVertex
100
AcDb2dVertex
 10
655.3614335905945
 20
62.05100589654444
 30
0.0
 42
1.0
  0
VERTEX
  5
1748
330
1746
100
AcDbEntity
  8
LOGO
 62
     5
100
AcDbVertex
100
AcDb2dVertex
 10
651.77795254082
 20
62.05100589654444
 30
0.0
 42
1.0
  0
SEQEND
  5
1749
330
1746
100
AcDbEntity
  8
LOGO
 62
     5
  0
POLYLINE
  5
174A
330
1F
100
AcDbEntity
  8
LOGO
 62
     5
100
AcDb2dPolyline
 66
     1
 10
0.0
 20
0.0
 30
0.0
 70
     1
  0
VERTEX
  5
174B
330
174A
100
AcDbEntity
  8
LOGO
 62
     5
100
AcDbVertex
100
AcDb2dVertex
 10
645.0229313687573
 20
61.45471464986144
 30
0.0
 42
1.000000057330635
  0
VERTEX
  5
174C
330
174A
100
AcDbEntity
  8
LOGO
 62
     5
100
AcDbVertex
100
AcDb2dVertex
 10
648.6006788488516
 20
61.45471464986144
 30
0.0
 42
1.000000057330635
  0
SEQEND
  5
174D
330
174A
100
AcDbEntity
  8
LOGO
 62
     5
  0
CIRCLE
  5
174E
330
1F
100
AcDbEntity
  8
LOGO
 62
     5
100
AcDbCircle
 10
646.8118051088072
 20
61.45471464986144
 30
0.0
 40
1.788873740047058
  0
POLYLINE
  5
174F
330
1F
100
AcDbEntity
  8
LOGO
 62
     5
100
AcDb2dPolyline
 66
     1
 10
0.0
 20
0.0
 30
0.0
 70
     1
 40
1.194493683257918
 41
1.194493683257918
  0
VERTEX
  5
1750
330
174F
100
AcDbEntity
  8
LOGO
 62
     5
100
AcDbVertex
100
AcDb2dVertex
 10
644.4228177422896
 20
61.45471464986144
 30
0.0
 42
1.0
  0
VERTEX
  5
1751
330
174F
100
AcDbEntity
  8
LOGO
 62
     5
100
AcDbVertex
100
AcDb2dVertex
 10
649.200792475321
 20
61.45471464986144
 30
0.0
 42
1.0
  0
SEQEND
  5
1752
330
174F
100
AcDbEntity
  8
LOGO
 62
     5
  0
LINE
  5
1753
330
1F
100
AcDbEntity
  8
LOGO
 62
     5
100
AcDbLine
 10
655.9548580524347
 20
58.47325841645101
 30
0.0
 11
655.9548580524347
 21
62.05100589654444
 31
0.0
  0
SOLID
  5
1754
330
1F
100
AcDbEntity
  8
LOGO
 62
     5
100
AcDbTrace
 10
648.6005595906076
 20
64.43617088327369
 30
0.0
 11
649.79314208397
 21
64.43617088327369
 31
0.0
 12
648.6005595906076
 22
58.47325841645101
 32
0.0
 13
649.79314208397
 23
58.47325841645101
 33
0.0
  0
SOLID
  5
1755
330
1F
100
AcDbEntity
  8
LOGO
 62
     5
100
AcDbTrace
 10
651.1845280789762
 20
58.47325841645101
 30
0.0
 11
652.3771105723422
 21
58.47325841645101
 31
0.0
 12
651.1845280789762
 22
64.43617088327369
 32
0.0
 13
652.3771105723422
 23
64.43617088327369
 33
0.0
  0
SOLID
  5
1756
330
1F
100
AcDbEntity
  8
LOGO
 62
     5
100
AcDbTrace
 10
654.7622755590723
 20
62.05100589654444
 30
0.0
 11
655.9548580524347
 21
62.05100589654444
 31
0.0
 12
654.7622755590723
 22
58.47325841645101
 32
0.0
 13
655.9548580524347
 23
58.47325841645101
 33
0.0
  0
SOLID
  5
1757
330
1F
100
AcDbEntity
  8
LOGO
 62
     5
100
AcDbTrace
 10
651.0652698296394
 20
100.5714204322237
 30
0.0
 11
647.6067805988837
 21
87.89029325277875
 31
0.0
 12
651.0652698296394
 22
70.39908335009636
 32
0.0
 13
647.6067805988837
 23
70.39908335009636
 33
0.0
  0
SOLID
  5
1758
330
1F
100
AcDbEntity
  8
LOGO
 62
     5
100
AcDbTrace
 10
652.4963688216789
 20
70.39908335009636
 30
0.0
 11
655.9548580524347
 21
70.39908335009636
 31
0.0
 12
652.4963688216789
 22
103.1951019176256
 32
0.0
 13
655.9548580524347
 23
103.1951019176274
 33
0.0
  0
SOLID
  5
1759
330
1F
100
AcDbEntity
  8
LOGO
 62
     2
100
AcDbTrace
 10
651.0652698296394
 20
103.1951019176274
 30
0.0
 11
652.4963688216789
 21
103.1951019176256
 31
0.0
 12
651.0652698296394
 22
70.39908335009636
 32
0.0
 13
652.4963688216789
 23
70.39908335009636
 33
0.0
  0
POLYLINE
  5
175A
330
1F
100
AcDbEntity
  8
LOGO
 62
     5
100
AcDb2dPolyline
 66
     1
 10
0.0
 20
0.0
 30
0.0
 40
1.194493683257918
 41
1.194493683257918
  0
VERTEX
  5
175B
330
175A
100
AcDbEntity
  8
LOGO
 62
     5
100
AcDbVertex
100
AcDb2dVertex
 10
638.2676716802011
 20
62.05100589654444
 30
0.0
 42
1.0
  0
VERTEX
  5
175C
330
175A
100
AcDbEntity
  8
LOGO
 62
     5
100
AcDbVertex
100
AcDb2dVertex
 10
634.6841906304266
 20
62.05100589654444
 30
0.0
 42
1.0
  0
SEQEND
  5
175D
330
175A
100
AcDbEntity
  8
LOGO
 62
     5
  0
POLYLINE
  5
175E
330
1F
100
AcDbEntity
  8
LOGO
 62
     5
100
AcDb2dPolyline
 66
     1
 10
0.0
 20
0.0
 30
0.0
 40
1.194493683257918
 41
1.194493683257918
  0
VERTEX
  5
175F
330
175E
100
AcDbEntity
  8
LOGO
 62
     5
100
AcDbVertex
100
AcDb2dVertex
 10
641.8454191602918
 20
62.05100589654444
 30
0.0
 42
1.0
  0
VERTEX
  5
1760
330
175E
100
AcDbEntity
  8
LOGO
 62
     5
100
AcDbVertex
100
AcDb2dVertex
 10
638.2619381105191
 20
62.05100589654444
 30
0.0
 42
1.0
  0
SEQEND
  5
1761
330
175E
100
AcDbEntity
  8
LOGO
 62
     5
  0
POLYLINE
  5
1762
330
1F
100
AcDbEntity
  8
LOGO
 62
     5
100
AcDb2dPolyline
 66
     1
 10
0.0
 20
0.0
 30
0.0
 40
1.194493683257918
 41
1.194493683257918
  0
VERTEX
  5
1763
330
1762
100
AcDbEntity
  8
LOGO
 62
     5
100
AcDbVertex
100
AcDb2dVertex
 10
624.7516572498985
 20
62.05100589654444
 30
0.0
 42
1.0
  0
VERTEX
  5
1764
330
1762
100
AcDbEntity
  8
LOGO
 62
     5
100
AcDbVertex
100
AcDb2dVertex
 10
621.1681762001258
 20
62.05100589654444
 30
0.0
 42
1.0
  0
SEQEND
  5
1765
330
1762
100
AcDbEntity
  8
LOGO
 62
     5
  0
SOLID
  5
1766
330
1F
100
AcDbEntity
  8
LOGO
 62
     5
100
AcDbTrace
 10
620.5747517382838
 20
64.43617088327369
 30
0.0
 11
621.7673342316461
 21
64.43617088327369
 31
0.0
 12
620.5747517382838
 22
58.47325841645101
 32
0.0
 13
621.7673342316461
 23
58.47325841645101
 33
0.0
  0
SOLID
  5
1767
330
1F
100
AcDbEntity
  8
LOGO
 62
     5
100
AcDbTrace
 10
624.1524992183781
 20
62.05100589654444
 30
0.0
 11
625.3450817117441
 21
62.05100589654444
 31
0.0
 12
624.1524992183781
 22
58.47325841645101
 32
0.0
 13
625.3450817117441
 23
58.47325841645101
 33
0.0
  0
POLYLINE
  5
1768
330
1F
100
AcDbEntity
  8
LOGO
 62
     5
100
AcDb2dPolyline
 66
     1
 10
0.0
 20
0.0
 30
0.0
 70
     1
 40
1.194493683257918
 41
1.194493683257918
  0
VERTEX
  5
1769
330
1768
100
AcDbEntity
  8
LOGO
 62
     5
100
AcDbVertex
100
AcDb2dVertex
 10
627.3290558318945
 20
61.45471464986144
 30
0.0
 42
1.0
  0
VERTEX
  5
176A
330
1768
100
AcDbEntity
  8
LOGO
 62
     5
100
AcDbVertex
100
AcDb2dVertex
 10
632.1070305649278
 20
61.45471464986144
 30
0.0
 42
1.0
  0
SEQEND
  5
176B
330
1768
100
AcDbEntity
  8
LOGO
 62
     5
  0
SOLID
  5
176C
330
1F
100
AcDbEntity
  8
LOGO
 62
     5
100
AcDbTrace
 10
631.5067976802106
 20
66.22504462332177
 30
0.0
 11
632.6993801735747
 21
66.22504462332177
 31
0.0
 12
631.5067976802106
 22
58.47325841645101
 32
0.0
 13
632.6993801735747
 23
58.47325841645101
 33
0.0
  0
SOLID
  5
176D
330
1F
100
AcDbEntity
  8
LOGO
 62
     5
100
AcDbTrace
 10
634.0907661685864
 20
64.43617088327369
 30
0.0
 11
635.2833486619488
 21
64.43617088327369
 31
0.0
 12
634.0907661685864
 22
58.47325841645101
 32
0.0
 13
635.2833486619488
 23
58.47325841645101
 33
0.0
  0
SOLID
  5
176E
330
1F
100
AcDbEntity
  8
LOGO
 62
     5
100
AcDbTrace
 10
637.6685136486771
 20
62.05100589654444
 30
0.0
 11
638.8610961420432
 21
62.05100589654444
 31
0.0
 12
637.6685136486771
 22
58.47325841645101
 32
0.0
 13
638.8610961420432
 23
58.47325841645101
 33
0.0
  0
SOLID
  5
176F
330
1F
100
AcDbEntity
  8
LOGO
 62
     5
100
AcDbTrace
 10
641.2462611287715
 20
62.05100589654444
 30
0.0
 11
642.4388436221356
 21
62.05100589654444
 31
0.0
 12
641.2462611287715
 22
58.4732584164492
 32
0.0
 13
642.4388436221356
 23
58.4732584164492
 33
0.0
  0
SOLID
  5
1770
330
1F
100
AcDbEntity
  8
LOGO
 62
     5
100
AcDbTrace
 10
617.9907832499098
 20
65.27097862862934
 30
0.0
 11
619.1833657432775
 21
65.27097862862934
 31
0.0
 12
617.9907832499098
 22
66.22504462332177
 32
0.0
 13
619.1833657432775
 23
66.22504462332177
 33
0.0
  0
SOLID
  5
1771
330
1F
100
AcDbEntity
  8
LOGO
 62
     5
100
AcDbTrace
 10
617.9907832499098
 20
64.43617088327369
 30
0.0
 11
619.1833657432775
 21
64.43617088327369
 31
0.0
 12
617.9907832499098
 22
58.4732584164492
 32
0.0
 13
619.1833657432775
 23
58.47325841645101
 33
0.0
  0
SOLID
  5
1772
330
1F
100
AcDbEntity
  8
LOGO
 62
     5
100
AcDbTrace
 10
629.7180431984102
 20
70.39908335009727
 30
0.0
 11
633.1765324291695
 21
70.39908335009727
 31
0.0
 12
629.7180431984102
 22
87.89029325277875
 32
0.0
 13
633.1765324291695
 23
100.5714204322237
 33
0.0
  0
SOLID
  5
1773
330
1F
100
AcDbEntity
  8
LOGO
 62
     5
100
AcDbTrace
 10
634.6076314212091
 20
103.1951019176256
 30
0.0
 11
638.0661206519648
 21
103.1951019176274
 31
0.0
 12
634.6076314212091
 22
73.02276483549917
 32
0.0
 13
638.0661206519648
 23
85.70389201494412
 33
0.0
  0
SOLID
  5
1774
330
1F
100
AcDbEntity
  8
LOGO
 62
     2
100
AcDbTrace
 10
633.1765324291695
 20
103.1951019176256
 30
0.0
 11
634.6076314212091
 21
103.1951019176256
 31
0.0
 12
633.1765324291695
 22
70.39908335009727
 32
0.0
 13
634.6076314212091
 23
70.39908335009727
 33
0.0
  0
SOLID
  5
1775
330
1F
100
AcDbEntity
  8
LOGO
 62
     5
100
AcDbTrace
 10
634.6076314212091
 20
73.02276483549917
 30
0.0
 11
638.0661206519648
 21
85.70389201494412
 31
0.0
 12
651.0652698296394
 22
103.1951019176274
 32
0.0
 13
647.6067805988837
 23
103.1951019176274
 33
0.0
  0
SOLID
  5
1776
330
1F
100
AcDbEntity
  8
LOGO
 62
     5
100
AcDbTrace
 10
634.6076314212091
 20
70.39908335009727
 30
0.0
 11
638.0661206519648
 21
70.39908335009727
 31
0.0
 12
651.0652698296394
 22
100.5714204322237
 32
0.0
 13
647.6067805988837
 23
87.89029325277875
 33
0.0
  0
SOLID
  5
1777
330
1F
100
AcDbEntity
  8
LOGO
 62
     2
100
AcDbTrace
 10
633.1765324291695
 20
70.39908335009727
 30
0.0
 11
634.6076314212091
 21
70.39908335009727
 31
0.0
 12
651.0652698296394
 22
103.1951019176274
 32
0.0
 13
652.4963688216789
 23
103.1951019176256
 33
0.0
  0
LWPOLYLINE
  5
1778
330
1F
100
AcDbEntity
  8
0
 62
     1
100
AcDbPolyline
 90
        4
 70
     1
 43
0.0
 10
603.5303792362515
 20
105.0951974611587
 10
1335.530379236251
 20
105.0951974611587
 10
1335.530379236251
 20
25.10678117156454
 10
603.5303792362515
 20
25.10678117156454
1001
GENIUS_GENREC_14
1002
{
1000
PYDIR
1011
603.5303792362515
1021
25.10678117156454
1031
0.0
1002
}
1002
{
1000
PXDIR
1011
1335.530379236251
1021
105.0951974611587
1031
0.0
1002
}
1002
{
1000
PORI
1011
603.5303792362515
1021
105.0951974611587
1031
0.0
1002
}
1002
{
1000
PINS
1011
603.5303792362515
1021
105.0951974611587
1031
0.0
1002
}
1002
{
1000
PINS2
1011
1335.530379236251
1021
25.10678117156454
1031
0.0
1002
}
1002
{
1000
C
1070
     1
1002
}
1001
GENIUS_GENOBJ-N-REC_13
1002
{
1000
OWNER
1000
GEN
1002
}
1001
GENIUS_GENODEF_13
1002
{
1000
HIER
1070
     0
1002
}
1002
{
1000
MANEDIT
1070
     0
1002
}
1002
{
1000
NOSEL
1070
     0
1002
}
1002
{
1000
BEHIND
1070
     0
1002
}
1002
{
1000
OTHER
1070
     0
1002
}
1002
{
1000
REACTOR
1002
}
  0
LINE
  5
1779
330
1F
100
AcDbEntity
  8
LOGO
 62
     6
100
AcDbLine
 10
924.2836854562025
 20
61.10156850188355
 30
0.0
 11
924.2836854562025
 21
31.77248252903132
 31
0.0
  0
LINE
  5
177A
330
1F
100
AcDbEntity
  8
LOGO
 62
     6
100
AcDbLine
 10
889.5254116135561
 20
61.10156850188355
 30
0.0
 11
889.5254116135561
 21
31.77248252903132
 31
0.0
  0
LINE
  5
177B
330
1F
100
AcDbEntity
  8
LOGO
 62
     6
100
AcDbLine
 10
924.2836854562025
 20
31.77248252903132
 30
0.0
 11
889.5254116135561
 21
31.77248252903132
 31
0.0
  0
LINE
  5
177C
330
1F
100
AcDbEntity
  8
LOGO
 62
     6
100
AcDbLine
 10
950.3749422778509
 20
97.09635583219892
 30
0.0
 11
889.5254116135561
 21
97.09635583219892
 31
0.0
  0
LINE
  5
177D
330
1F
100
AcDbEntity
  8
LOGO
 62
     6
100
AcDbLine
 10
950.3749422778509
 20
73.0998309453214
 30
0.0
 11
889.5254116135561
 21
73.0998309453214
 31
0.0
  0
LINE
  5
177E
330
1F
100
AcDbEntity
  8
LOGO
 62
     6
100
AcDbLine
 10
889.5254116135561
 20
97.09635583219892
 30
0.0
 11
889.5254116135561
 21
73.0998309453214
 31
0.0
  0
LINE
  5
177F
330
1F
100
AcDbEntity
  8
LOGO
 62
     6
100
AcDbLine
 10
950.3749422778509
 20
97.09635583219892
 30
0.0
 11
950.3749422778509
 21
73.0998309453214
 31
0.0
  0
LINE
  5
1780
330
1F
100
AcDbEntity
  8
LOGO
 62
     6
100
AcDbLine
 10
910.4135278037189
 20
73.0998309453214
 30
0.0
 11
910.4135278037189
 21
61.10156850188355
 31
0.0
  0
TEXT
  5
1781
330
1F
100
AcDbEntity
  8
LOGO
  6
Continuous
 62
     7
100
AcDbText
 10
893.7892182666759
 20
78.10907043254132
 30
0.0
 40
14.0
  1
MHTS
  7
CHINESET
100
AcDbText
  0
LINE
  5
1782
330
1F
100
AcDbEntity
  8
LOGO
 62
     6
100
AcDbLine
 10
924.2836854562025
 20
61.10156850188355
 30
0.0
 11
889.5254116135561
 21
61.10156850188355
 31
0.0
  0
TEXT
  5
1783
330
1F
100
AcDbEntity
  8
LOGO
  6
Continuous
 62
     6
100
AcDbText
 10
896.7348594534518
 20
35.91222082032778
 30
524.2309030401992
 40
6.0
  1
Model
 41
0.8
  7
CHINESET
100
AcDbText
  0
TEXT
  5
1784
330
1F
100
AcDbEntity
  8
LOGO
 62
     6
100
AcDbText
 10
895.1378545014554
 20
47.03492772803724
 30
524.2309030401992
 40
10.0
  1
型號
  7
CHINESET
100
AcDbText
  0
LINE
  5
1791
330
1F
100
AcDbEntity
  8
LOGO
 62
     6
100
AcDbLine
 10
1059.70045753793
 20
61.10156850188355
 30
0.0
 11
1059.70045753793
 21
31.77248252903132
 31
0.0
  0
LINE
  5
1792
330
1F
100
AcDbEntity
  8
LOGO
 62
     6
100
AcDbLine
 10
1006.374846678201
 20
61.10156850188355
 30
0.0
 11
1006.374846678201
 21
31.77248252903132
 31
0.0
  0
LINE
  5
1793
330
1F
100
AcDbEntity
  8
LOGO
 62
     6
100
AcDbLine
 10
1059.70045753793
 20
31.77248252903132
 30
0.0
 11
1006.374846678201
 21
31.77248252903132
 31
0.0
  0
LINE
  5
1794
330
1F
100
AcDbEntity
  8
LOGO
 62
     6
100
AcDbLine
 10
1023.13117023315
 20
97.09635583219892
 30
0.0
 11
989.5701831716165
 21
97.09635583219892
 31
0.0
  0
LINE
  5
1795
330
1F
100
AcDbEntity
  8
LOGO
 62
     6
100
AcDbLine
 10
1023.13117023315
 20
73.0998309453214
 30
0.0
 11
989.5701831716165
 21
73.0998309453214
 31
0.0
  0
LINE
  5
1796
330
1F
100
AcDbEntity
  8
LOGO
 62
     6
100
AcDbLine
 10
989.5701831716165
 20
97.09635583219892
 30
0.0
 11
989.5701831716165
 21
73.0998309453214
 31
0.0
  0
LINE
  5
1797
330
1F
100
AcDbEntity
  8
LOGO
 62
     6
100
AcDbLine
 10
1023.13117023315
 20
97.09635583219892
 30
0.0
 11
1023.13117023315
 21
73.0998309453214
 31
0.0
  0
TEXT
  5
1799
330
1F
100
AcDbEntity
  8
LOGO
  6
Continuous
 62
     7
100
AcDbText
 10
994.8272357030973
 20
78.10907043254132
 30
0.0
 40
14.0
  1
32
  7
CHINESET
100
AcDbText
  0
LINE
  5
179A
330
1F
100
AcDbEntity
  8
LOGO
 62
     6
100
AcDbLine
 10
1059.70045753793
 20
61.10156850188355
 30
0.0
 11
1006.374846678201
 21
61.10156850188355
 31
0.0
  0
TEXT
  5
17A8
330
1F
100
AcDbEntity
  8
LOGO
  6
Continuous
 62
     6
100
AcDbText
 10
1019.110075272575
 20
35.91222082032778
 30
524.2309030401992
 40
6.0
  1
Tube I.D.
 41
0.8
  7
CHINESET
100
AcDbText
  0
TEXT
  5
17A9
330
1F
100
AcDbEntity
  8
LOGO
 62
     6
100
AcDbText
 10
1021.529339916478
 20
47.03492772803724
 30
524.2309030401992
 40
10.0
  1
內徑
  7
CHINESET
100
AcDbText
  0
TEXT
  5
17B8
330
1F
100
AcDbEntity
  8
0
100
AcDbText
 10
783.2110374383064
 20
29.36213334725085
 30
0.0
 40
8.0
  1
10512265
 41
0.7
  7
CHINESET
 72
     1
 11
802.6777041049731
 21
29.36213334725085
 31
0.0
100
AcDbText
  0
LINE
  5
17B9
330
1F
100
AcDbEntity
  8
LOGO
 62
     1
100
AcDbLine
 10
827.5048950733522
 20
41.10446442948592
 30
0.0
 11
827.5048950733557
 21
25.10678117156635
 31
0.0
  0
LINE
  5
17BA
330
1F
100
AcDbEntity
  8
LOGO
 62
     1
100
AcDbLine
 10
827.5048950733522
 20
41.10446442948592
 30
0.0
 11
779.5048950733558
 21
41.10446442948592
 31
0.0
  0
LINE
  5
17BB
330
1F
100
AcDbEntity
  8
0
 62
     4
100
AcDbLine
 10
603.5303792362515
 20
465.1009893163614
 30
0.0
 11
1335.530379236251
 21
465.1009893163614
 31
0.0
  0
LINE
  5
198A
330
1F
100
AcDbEntity
  8
0
 62
     4
100
AcDbLine
 10
969.5303792362516
 20
825.1067811715641
 30
0.0
 11
969.5303792362516
 21
105.0951974611587
 31
0.0
  0
TEXT
  5
1A89
330
1F
100
AcDbEntity
  8
0
100
AcDbText
 10
621.5361330579203
 20
795.8336520981234
 30
0.0
 40
12.0
  1
%%c25
 41
0.75
  7
CHINESET
100
AcDbText
  0
TEXT
  5
1A8B
330
1F
100
AcDbEntity
  8
0
100
AcDbText
 10
987.5361330579202
 20
795.8336520981234
 30
0.0
 40
12.0
  1
%%c32
 41
0.75
  7
CHINESET
100
AcDbText
  0
TEXT
  5
1A8D
330
1F
100
AcDbEntity
  8
0
100
AcDbText
 10
621.5361330579203
 20
435.8278602429207
 30
0.0
 40
12.0
  1
%%c40
 41
0.75
  7
CHINESET
100
AcDbText
  0
TEXT
  5
1A8E
330
1F
100
AcDbEntity
  8
0
100
AcDbText
 10
987.5361330579202
 20
435.8278602429207
 30
0.0
 40
12.0
  1
%%c50
 41
0.75
  7
CHINESET
100
AcDbText
  0
LINE
  5
1A96
330
1F
100
AcDbEntity
  8
LOGO
 62
     6
100
AcDbLine
 10
998.4607580153515
 20
61.10156850188355
 30
0.0
 11
998.4607580153515
 21
31.77248252903132
 31
0.0
  0
LINE
  5
1A97
330
1F
100
AcDbEntity
  8
LOGO
 62
     6
100
AcDbLine
 10
932.5506200468954
 20
61.10156850188355
 30
0.0
 11
932.5506200468954
 21
31.77248252903132
 31
0.0
  0
LINE
  5
1A98
330
1F
100
AcDbEntity
  8
LOGO
 62
     6
100
AcDbLine
 10
998.4607580153515
 20
31.77248252903132
 30
0.0
 11
932.5506200468954
 21
31.77248252903132
 31
0.0
  0
LINE
  5
1A99
330
1F
100
AcDbEntity
  8
LOGO
 62
     6
100
AcDbLine
 10
970.8939058519414
 20
97.09635583219892
 30
0.0
 11
954.0716269737517
 21
97.09635583219892
 31
0.0
  0
LINE
  5
1A9A
330
1F
100
AcDbEntity
  8
LOGO
 62
     6
100
AcDbLine
 10
970.8939058519414
 20
73.0998309453214
 30
0.0
 11
954.0716269737517
 21
73.0998309453214
 31
0.0
  0
LINE
  5
1A9B
330
1F
100
AcDbEntity
  8
LOGO
 62
     6
100
AcDbLine
 10
954.0716269737517
 20
97.09635583219892
 30
0.0
 11
954.0716269737517
 21
73.0998309453214
 31
0.0
  0
LINE
  5
1A9C
330
1F
100
AcDbEntity
  8
LOGO
 62
     6
100
AcDbLine
 10
970.8939058519414
 20
97.09635583219892
 30
0.0
 11
970.8939058519414
 21
73.0998309453214
 31
0.0
  0
LINE
  5
1A9D
330
1F
100
AcDbEntity
  8
LOGO
 62
     6
100
AcDbLine
 10
963.2974670733224
 20
73.0998309453214
 30
0.0
 11
963.2974670733224
 21
61.10156850188355
 31
0.0
  0
TEXT
  5
1A9E
330
1F
100
AcDbEntity
  8
LOGO
  6
Continuous
 62
     7
100
AcDbText
 10
959.0606535250358
 20
78.10907043254132
 30
0.0
 40
14.0
  1
*
  7
CHINESET
100
AcDbText
  0
LINE
  5
1A9F
330
1F
100
AcDbEntity
  8
LOGO
 62
     6
100
AcDbLine
 10
998.4607580153515
 20
61.10156850188355
 30
0.0
 11
932.5506200468954
 21
61.10156850188355
 31
0.0
  0
TEXT
  5
1AA0
330
1F
100
AcDbEntity
  8
LOGO
  6
Continuous
 62
     6
100
AcDbText
 10
937.9033302431999
 20
35.91222082032778
 30
524.2309030401992
 40
6.0
  1
Swivel direction
 41
0.8
  7
CHINESET
100
AcDbText
  0
TEXT
  5
1AA1
330
1F
100
AcDbEntity
  8
LOGO
 62
     6
100
AcDbText
 10
944.6572691963465
 20
47.03492772803724
 30
524.2309030401992
 40
10.0
  1
旋轉方向
  7
CHINESET
100
AcDbText
  0
LINE
  5
1AA3
330
1F
100
AcDbEntity
  8
LOGO
  6
Continuous
 62
     7
100
AcDbLine
 10
975.2996305237488
 20
85.01309390526399
 30
0.0
 11
985.895620319507
 21
85.01309390526399
 31
0.0
  0
TEXT
  5
1AA6
330
1F
100
AcDbEntity
  8
LOGO
  6
Continuous
 62
     7
100
AcDbText
 10
1029.453116399657
 20
78.10907043254132
 30
0.0
 40
14.0
  1
x
  7
CHINESET
100
AcDbText
  0
LINE
  5
1AA7
330
1F
100
AcDbEntity
  8
LOGO
 62
     6
100
AcDbLine
 10
1079.793351476664
 20
97.09635583219892
 30
0.0
 11
1041.856102615869
 21
97.09635583219892
 31
0.0
  0
LINE
  5
1AA8
330
1F
100
AcDbEntity
  8
LOGO
 62
     6
100
AcDbLine
 10
1079.793351476664
 20
73.0998309453214
 30
0.0
 11
1041.856102615869
 21
73.0998309453214
 31
0.0
  0
LINE
  5
1AA9
330
1F
100
AcDbEntity
  8
LOGO
 62
     6
100
AcDbLine
 10
1041.856102615869
 20
97.09635583219892
 30
0.0
 11
1041.856102615869
 21
73.0998309453214
 31
0.0
  0
LINE
  5
1AAA
330
1F
100
AcDbEntity
  8
LOGO
 62
     6
100
AcDbLine
 10
1079.793351476664
 20
97.09635583219892
 30
0.0
 11
1079.793351476664
 21
73.0998309453214
 31
0.0
  0
TEXT
  5
1AAB
330
1F
100
AcDbEntity
  8
LOGO
  6
Continuous
 62
     7
100
AcDbText
 10
1057.338469861471
 20
78.10907043254132
 30
0.0
 40
14.0
  1
*
  7
CHINESET
100
AcDbText
  0
LINE
  5
1AAC
330
1F
100
AcDbEntity
  8
LOGO
 62
     6
100
AcDbLine
 10
1115.670058558721
 20
61.10156850188355
 30
0.0
 11
1115.670058558721
 21
31.77248252903132
 31
0.0
  0
LINE
  5
1AAD
330
1F
100
AcDbEntity
  8
LOGO
 62
     6
100
AcDbLine
 10
1066.677974474681
 20
61.10156850188355
 30
0.0
 11
1066.677974474681
 21
31.77248252903132
 31
0.0
  0
LINE
  5
1AAE
330
1F
100
AcDbEntity
  8
LOGO
 62
     6
100
AcDbLine
 10
1115.670058558721
 20
31.77248252903132
 30
0.0
 11
1066.677974474681
 21
31.77248252903132
 31
0.0
  0
LINE
  5
1AAF
330
1F
100
AcDbEntity
  8
LOGO
 62
     6
100
AcDbLine
 10
1115.670058558721
 20
61.10156850188355
 30
0.0
 11
1066.677974474681
 21
61.10156850188355
 31
0.0
  0
TEXT
  5
1AB0
330
1F
100
AcDbEntity
  8
LOGO
  6
Continuous
 62
     6
100
AcDbText
 10
1079.059362999384
 20
35.91222082032778
 30
524.2309030401992
 40
6.0
  1
Angle
 41
0.8
  7
CHINESET
100
AcDbText
  0
TEXT
  5
1AB1
330
1F
100
AcDbEntity
  8
LOGO
 62
     6
100
AcDbText
 10
1071.452400227118
 20
47.03492772803724
 30
524.2309030401992
 40
10.0
  1
旋轉角度
  7
CHINESET
100
AcDbText
  0
LINE
  5
1AB7
330
1F
100
AcDbEntity
  8
LOGO
 62
     6
100
AcDbLine
 10
1060.824727046266
 20
73.0998309453214
 30
0.0
 11
1060.824727046266
 21
67.10069972360248
 31
0.0
  0
LINE
  5
1AB8
330
1F
100
AcDbEntity
  8
LOGO
 62
     6
100
AcDbLine
 10
1060.824727046266
 20
67.10069972360248
 30
0.0
 11
1091.1740165167
 21
67.10069972360248
 31
0.0
  0
LINE
  5
1AB9
330
1F
100
AcDbEntity
  8
LOGO
 62
     6
100
AcDbLine
 10
1091.174016516701
 20
61.10156850188355
 30
0.0
 11
1091.1740165167
 21
67.10069972360248
 31
0.0
  0
LINE
  5
1ABA
330
1F
100
AcDbEntity
  8
LOGO
 62
     6
100
AcDbLine
 10
1012.007357411316
 20
73.0998309453214
 30
0.0
 11
1012.007357411316
 21
67.10069972360248
 31
0.0
  0
LINE
  5
1ABB
330
1F
100
AcDbEntity
  8
LOGO
 62
     6
100
AcDbLine
 10
1012.007357411316
 20
67.10069972360248
 30
0.0
 11
1033.037652108065
 21
67.10069972360248
 31
0.0
  0
LINE
  5
1ABC
330
1F
100
AcDbEntity
  8
LOGO
 62
     6
100
AcDbLine
 10
1033.037652108065
 20
61.10156850188355
 30
0.0
 11
1033.037652108065
 21
67.10069972360248
 31
0.0
  0
LINE
  5
29F8
330
1F
100
AcDbEntity
  8
0
100
AcDbLine
 10
723.503412412429
 20
702.5968828979691
 30
0.0
 11
795.503412412429
 21
702.5968828979691
 31
0.0
  0
LINE
  5
29F9
330
1F
100
AcDbEntity
  8
0
100
AcDbLine
 10
723.503412412429
 20
677.5968828979691
 30
0.0
 11
795.503412412429
 21
677.5968828979691
 31
0.0
  0
LINE
  5
29FB
330
1F
100
AcDbEntity
  8
0
100
AcDbLine
 10
722.503412412429
 20
678.5968828979691
 30
0.0
 11
722.503412412429
 21
701.5968828979691
 31
0.0
  0
LINE
  5
29FC
330
1F
100
AcDbEntity
  8
0
100
AcDbLine
 10
723.503412412429
 20
677.5968828979691
 30
0.0
 11
722.503412412429
 21
678.5968828979691
 31
0.0
  0
LINE
  5
29FD
330
1F
100
AcDbEntity
  8
0
100
AcDbLine
 10
722.503412412429
 20
701.5968828979691
 30
0.0
 11
723.503412412429
 21
702.5968828979691
 31
0.0
  0
LINE
  5
29FE
330
1F
100
AcDbEntity
  8
0
100
AcDbLine
 10
723.503412412429
 20
633.9561227128467
 30
0.0
 11
795.503412412429
 21
633.9561227128467
 31
0.0
  0
LINE
  5
29FF
330
1F
100
AcDbEntity
  8
0
100
AcDbLine
 10
762.003412412429
 20
578.9561227128467
 30
0.0
 11
803.003412412429
 21
578.9561227128467
 31
0.0
  0
LINE
  5
2A00
330
1F
100
AcDbEntity
  8
0
100
AcDbLine
 10
723.503412412429
 20
608.9561227128467
 30
0.0
 11
795.503412412429
 21
608.9561227128467
 31
0.0
  0
LINE
  5
2A01
330
1F
100
AcDbEntity
  8
0
100
AcDbLine
 10
792.503412412429
 20
608.9561227128467
 30
0.0
 11
792.503412412429
 21
578.9561227128467
 31
0.0
  0
LINE
  5
2A02
330
1F
100
AcDbEntity
  8
0
100
AcDbLine
 10
772.503412412429
 20
608.9561227128467
 30
0.0
 11
772.503412412429
 21
578.9561227128467
 31
0.0
  0
LINE
  5
2A03
330
1F
100
AcDbEntity
  8
0
100
AcDbLine
 10
722.503412412429
 20
632.9561227128468
 30
0.0
 11
722.503412412429
 21
609.9561227128467
 31
0.0
  0
LINE
  5
2A04
330
1F
100
AcDbEntity
  8
0
100
AcDbLine
 10
723.503412412429
 20
608.9561227128467
 30
0.0
 11
722.503412412429
 21
609.9561227128467
 31
0.0
  0
CIRCLE
  5
2A07
330
1F
100
AcDbEntity
  8
0
100
AcDbCircle
 10
782.503412412429
 20
570.9561227128467
 30
0.0
 40
4.0
  0
CIRCLE
  5
2A08
330
1F
100
AcDbEntity
  8
0
100
AcDbCircle
 10
782.503412412429
 20
570.9561227128467
 30
0.0
 40
4.5
  0
CIRCLE
  5
2A09
330
1F
100
AcDbEntity
  8
0
100
AcDbCircle
 10
732.503412412429
 20
690.0968828979691
 30
0.0
 40
5.0
  0
CIRCLE
  5
2A0A
330
1F
100
AcDbEntity
  8
0
100
AcDbCircle
 10
732.503412412429
 20
690.0968828979691
 30
0.0
 40
4.5
  0
CIRCLE
  5
2A0B
330
1F
100
AcDbEntity
  8
0
100
AcDbCircle
 10
782.503412412429
 20
690.0968828979691
 30
0.0
 40
8.5
  0
LINE
  5
2A0D
330
1F
100
AcDbEntity
  8
0
100
AcDbLine
 10
722.503412412429
 20
632.9561227128468
 30
0.0
 11
723.503412412429
 21
633.9561227128467
 31
0.0
  0
LINE
  5
2A0E
330
1F
100
AcDbEntity
  8
0
  6
HIDDEN
 62
     3
 48
0.5
100
AcDbLine
 10
727.503412412429
 20
608.9561227128467
 30
0.0
 11
727.503412412429
 21
633.9561227128467
 31
0.0
  0
LINE
  5
2A0F
330
1F
100
AcDbEntity
  8
0
  6
HIDDEN
 62
     3
 48
0.5
100
AcDbLine
 10
728.003412412429
 20
608.9561227128467
 30
0.0
 11
728.003412412429
 21
633.9561227128467
 31
0.0
  0
LINE
  5
2A10
330
1F
100
AcDbEntity
  8
0
  6
HIDDEN
 62
     3
 48
0.5
100
AcDbLine
 10
737.003412412429
 20
608.9561227128467
 30
0.0
 11
737.003412412429
 21
633.9561227128467
 31
0.0
  0
LINE
  5
2A11
330
1F
100
AcDbEntity
  8
0
  6
HIDDEN
 62
     3
 48
0.5
100
AcDbLine
 10
737.503412412429
 20
608.9561227128467
 30
0.0
 11
737.503412412429
 21
633.9561227128467
 31
0.0
  0
ARC
  5
2A12
330
1F
100
AcDbEntity
  8
0
100
AcDbCircle
 10
782.503412412429
 20
690.0968828979691
 30
0.0
 40
22.5
100
AcDbArc
 50
215.5487440028703
 51
144.4512559971297
  0
LINE
  5
2A13
330
1F
100
AcDbEntity
  8
0
100
AcDbLine
 10
796.503412412429
 20
678.5968828979691
 30
0.0
 11
796.503412412429
 21
701.5968828979691
 31
0.0
  0
LINE
  5
2A14
330
1F
100
AcDbEntity
  8
0
100
AcDbLine
 10
795.503412412429
 20
702.5968828979691
 30
0.0
 11
796.503412412429
 21
701.5968828979691
 31
0.0
  0
LINE
  5
2A15
330
1F
100
AcDbEntity
  8
0
100
AcDbLine
 10
795.503412412429
 20
677.5968828979691
 30
0.0
 11
796.503412412429
 21
678.5968828979691
 31
0.0
  0
LINE
  5
2A16
330
1F
100
AcDbEntity
  8
0
100
AcDbLine
 10
796.503412412429
 20
632.9561227128468
 30
0.0
 11
796.503412412429
 21
609.9561227128467
 31
0.0
  0
LINE
  5
2A17
330
1F
100
AcDbEntity
  8
0
100
AcDbLine
 10
795.503412412429
 20
633.9561227128467
 30
0.0
 11
796.503412412429
 21
632.9561227128468
 31
0.0
  0
LINE
  5
2A18
330
1F
100
AcDbEntity
  8
0
100
AcDbLine
 10
796.503412412429
 20
609.9561227128467
 30
0.0
 11
795.503412412429
 21
608.9561227128467
 31
0.0
  0
ARC
  5
2A19
330
1F
100
AcDbEntity
  8
0
100
AcDbCircle
 10
782.503412412429
 20
690.0968828979691
 30
0.0
 40
22.0
100
AcDbArc
 50
215.5487440028703
 51
144.4512559971297
  0
LINE
  5
2A1B
330
1F
100
AcDbEntity
  8
0
100
AcDbLine
 10
762.003412412429
 20
508.9561227128467
 30
0.0
 11
803.003412412429
 21
508.9561227128467
 31
0.0
  0
LINE
  5
2A1C
330
1F
100
AcDbEntity
  8
0
100
AcDbLine
 10
761.003412412429
 20
577.9561227128467
 30
0.0
 11
761.003412412429
 21
509.9561227128467
 31
0.0
  0
LINE
  5
2A1D
330
1F
100
AcDbEntity
  8
0
100
AcDbLine
 10
804.0034124124289
 20
577.9561227128467
 30
0.0
 11
804.0034124124289
 21
509.9561227128467
 31
0.0
  0
LINE
  5
2A1E
330
1F
100
AcDbEntity
  8
0
100
AcDbLine
 10
762.003412412429
 20
578.9561227128467
 30
0.0
 11
761.003412412429
 21
577.9561227128467
 31
0.0
  0
LINE
  5
2A1F
330
1F
100
AcDbEntity
  8
0
100
AcDbLine
 10
803.003412412429
 20
578.9561227128467
 30
0.0
 11
804.0034124124289
 21
577.9561227128467
 31
0.0
  0
LINE
  5
2A20
330
1F
100
AcDbEntity
  8
0
100
AcDbLine
 10
803.003412412429
 20
508.9561227128467
 30
0.0
 11
804.0034124124289
 21
509.9561227128467
 31
0.0
  0
LINE
  5
2A21
330
1F
100
AcDbEntity
  8
0
100
AcDbLine
 10
762.003412412429
 20
508.9561227128467
 30
0.0
 11
761.003412412429
 21
509.9561227128467
 31
0.0
  0
LINE
  5
2A22
330
1F
100
AcDbEntity
  8
0
100
AcDbLine
 10
761.003412412429
 20
517.9561227128467
 30
0.0
 11
804.0034124124289
 21
517.9561227128467
 31
0.0
  0
LINE
  5
2A23
330
1F
100
AcDbEntity
  8
0
100
AcDbLine
 10
761.003412412429
 20
552.9561227128467
 30
0.0
 11
804.0034124124289
 21
552.9561227128467
 31
0.0
  0
LINE
  5
2A24
330
1F
100
AcDbEntity
  8
0
100
AcDbLine
 10
760.003412412429
 20
551.9561227128467
 30
0.0
 11
760.003412412429
 21
518.9561227128467
 31
0.0
  0
LINE
  5
2A25
330
1F
100
AcDbEntity
  8
0
100
AcDbLine
 10
805.0034124124291
 20
551.9561227128467
 30
0.0
 11
805.0034124124291
 21
518.9561227128467
 31
0.0
  0
LINE
  5
2A26
330
1F
100
AcDbEntity
  8
0
100
AcDbLine
 10
760.003412412429
 20
551.9561227128467
 30
0.0
 11
761.003412412429
 21
552.9561227128467
 31
0.0
  0
LINE
  5
2A27
330
1F
100
AcDbEntity
  8
0
100
AcDbLine
 10
804.0034124124289
 20
552.9561227128467
 30
0.0
 11
805.0034124124291
 21
551.9561227128467
 31
0.0
  0
LINE
  5
2A28
330
1F
100
AcDbEntity
  8
0
100
AcDbLine
 10
804.0034124124289
 20
517.9561227128467
 30
0.0
 11
805.0034124124291
 21
518.9561227128467
 31
0.0
  0
LINE
  5
2A29
330
1F
100
AcDbEntity
  8
0
100
AcDbLine
 10
760.003412412429
 20
518.9561227128467
 30
0.0
 11
761.003412412429
 21
517.9561227128467
 31
0.0
  0
LINE
  5
2B67
330
1F
100
AcDbEntity
  8
AM_7
100
AcDbLine
 10
732.503412412429
 20
635.9561227128467
 30
0.0
 11
732.503412412429
 21
606.9561227128467
 31
0.0
1001
GENIUS_GENODEF_13
1002
{
1000
HIER
1070
     0
1002
}
1002
{
1000
MANEDIT
1070
     0
1002
}
1002
{
1000
NOSEL
1070
     0
1002
}
1002
{
1000
BEHIND
1070
     0
1002
}
1002
{
1000
OTHER
1070
     0
1002
}
1002
{
1000
REACTOR
1002
}
1001
GENIUS_GENOBJ-N-CEN_13
1002
{
1000
OWNER
1000
GEN
1002
}
1001
GENIUS_GENCEN_19
1002
{
1040
2.0
1002
}
  0
LINE
  5
2B74
330
1F
100
AcDbEntity
  8
AM_7
100
AcDbLine
 10
782.503412412429
 20
635.9561227128467
 30
0.0
 11
782.503412412429
 21
506.9561227128467
 31
0.0
1001
GENIUS_GENODEF_13
1002
{
1000
HIER
1070
     0
1002
}
1002
{
1000
MANEDIT
1070
     0
1002
}
1002
{
1000
NOSEL
1070
     0
1002
}
1002
{
1000
BEHIND
1070
     0
1002
}
1002
{
1000
OTHER
1070
     0
1002
}
1002
{
1000
REACTOR
1002
}
1001
GENIUS_GENOBJ-N-CEN_13
1002
{
1000
OWNER
1000
GEN
1002
}
1001
GENIUS_GENCEN_19
1002
{
1040
2.0
1002
}
  0
LINE
  5
2B82
330
1F
100
AcDbEntity
  8
AM_7
  6
AM_ISO08W050x2
100
AcDbLine
 10
782.503412412429
 20
570.9561227128467
 30
0.0
 11
789.003412412429
 21
570.9561227128467
 31
0.0
1001
GENIUS_GENOREF_13
1005
2B86
  0
LINE
  5
2B83
330
1F
100
AcDbEntity
  8
AM_7
  6
AM_ISO08W050x2
100
AcDbLine
 10
782.503412412429
 20
570.9561227128467
 30
0.0
 11
782.503412412429
 21
577.4561227128467
 31
0.0
1001
GENIUS_GENOREF_13
1005
2B86
  0
LINE
  5
2B84
330
1F
100
AcDbEntity
  8
AM_7
  6
AM_ISO08W050x2
100
AcDbLine
 10
782.503412412429
 20
570.9561227128467
 30
0.0
 11
776.003412412429
 21
570.9561227128467
 31
0.0
1001
GENIUS_GENOREF_13
1005
2B86
  0
LINE
  5
2B85
330
1F
100
AcDbEntity
  8
AM_7
  6
AM_ISO08W050x2
100
AcDbLine
 10
782.503412412429
 20
570.9561227128467
 30
0.0
 11
782.503412412429
 21
564.4561227128467
 31
0.0
1001
GENIUS_GENOREF_13
1005
2B86
  0
POINT
  5
2B86
330
1F
100
AcDbEntity
  8
0
 60
     1
100
AcDbPoint
 10
0.0
 20
0.0
 30
0.0
1001
GENIUS_GENODEF_13
1002
{
1000
HIER
1070
    10
1002
}
1002
{
1000
MANEDIT
1070
     0
1002
}
1002
{
1000
NOSEL
1070
     0
1002
}
1002
{
1000
BEHIND
1070
     0
1002
}
1002
{
1000
OTHER
1070
     0
1002
}
1002
{
1000
REACTOR
1002
}
1001
GENIUS_GENOENT_13
1002
{
1000
MYREF
1005
2B86
1002
}
1002
{
1000
GRP
1005
0
1002
}
1001
GENIUS_GENOLIS_13
1002
{
1000
ENT
1005
2B85
1005
2B84
1005
2B83
1005
2B82
1002
}
1001
GENIUS_GENOBJ-N-CRS_13
1002
{
1000
OWNER
1000
GEN
1002
}
  0
LINE
  5
2B87
330
1F
100
AcDbEntity
  8
0
  6
HIDDEN
 62
     3
 48
0.5
100
AcDbLine
 10
787.5320269910935
 20
519.1020097995221
 30
0.0
 11
787.532026991093
 21
508.9561227128467
 31
0.0
  0
LINE
  5
2B88
330
1F
100
AcDbEntity
  8
0
  6
HIDDEN
 62
     3
 48
0.5
100
AcDbLine
 10
777.5320269910935
 20
518.2630536116705
 30
0.0
 11
777.5320269910935
 21
508.9561227128467
 31
0.0
  0
LINE
  5
2B89
330
1F
100
AcDbEntity
  8
0
  6
HIDDEN
 62
     3
 48
0.5
100
AcDbLine
 10
786.5320269910935
 20
518.9342187122916
 30
0.0
 11
786.532026991093
 21
508.9561227128467
 31
0.0
  0
LINE
  5
2B8A
330
1F
100
AcDbEntity
  8
0
  6
HIDDEN
 62
     3
 48
0.5
100
AcDbLine
 10
778.5320269910934
 20
518.59863653783
 30
0.0
 11
778.5320269910934
 21
508.9561227128467
 31
0.0
  0
LINE
  5
2B98
330
1F
100
AcDbEntity
  8
AM_7
100
AcDbLine
 10
782.503412412429
 20
690.0968828979691
 30
0.0
 11
807.003412412429
 21
690.0968828979691
 31
0.0
1001
GENIUS_GENOREF_13
1005
2B9C
  0
LINE
  5
2B99
330
1F
100
AcDbEntity
  8
AM_7
100
AcDbLine
 10
782.503412412429
 20
690.0968828979691
 30
0.0
 11
782.503412412429
 21
714.5968828979691
 31
0.0
1001
GENIUS_GENOREF_13
1005
2B9C
  0
LINE
  5
2B9A
330
1F
100
AcDbEntity
  8
AM_7
100
AcDbLine
 10
782.503412412429
 20
690.0968828979691
 30
0.0
 11
758.003412412429
 21
690.0968828979691
 31
0.0
1001
GENIUS_GENOREF_13
1005
2B9C
  0
LINE
  5
2B9B
330
1F
100
AcDbEntity
  8
AM_7
100
AcDbLine
 10
782.503412412429
 20
690.0968828979691
 30
0.0
 11
782.503412412429
 21
665.5968828979691
 31
0.0
1001
GENIUS_GENOREF_13
1005
2B9C
  0
POINT
  5
2B9C
330
1F
100
AcDbEntity
  8
0
 60
     1
100
AcDbPoint
 10
0.0
 20
0.0
 30
0.0
1001
GENIUS_GENOLIS_13
1002
{
1000
ENT
1005
2B9B
1005
2B9A
1005
2B99
1005
2B98
1002
}
1001
GENIUS_GENODEF_13
1002
{
1000
HIER
1070
    10
1002
}
1002
{
1000
MANEDIT
1070
     0
1002
}
1002
{
1000
NOSEL
1070
     0
1002
}
1002
{
1000
BEHIND
1070
     0
1002
}
1002
{
1000
OTHER
1070
     0
1002
}
1002
{
1000
REACTOR
1002
}
1001
GENIUS_GENOENT_13
1002
{
1000
MYREF
1005
2B9C
1002
}
1002
{
1000
GRP
1005
0
1002
}
1001
GENIUS_GENOBJ-N-CRS_13
1002
{
1000
OWNER
1000
GEN
1002
}
  0
LINE
  5
2BAA
330
1F
100
AcDbEntity
  8
AM_7
  6
AM_ISO08W050x2
100
AcDbLine
 10
732.503412412429
 20
690.0968828979691
 30
0.0
 11
739.503412412429
 21
690.0968828979691
 31
0.0
1001
GENIUS_GENOREF_13
1005
2BAE
  0
LINE
  5
2BAB
330
1F
100
AcDbEntity
  8
AM_7
  6
AM_ISO08W050x2
100
AcDbLine
 10
732.503412412429
 20
690.0968828979691
 30
0.0
 11
732.503412412429
 21
697.0968828979692
 31
0.0
1001
GENIUS_GENOREF_13
1005
2BAE
  0
LINE
  5
2BAC
330
1F
100
AcDbEntity
  8
AM_7
  6
AM_ISO08W050x2
100
AcDbLine
 10
732.503412412429
 20
690.0968828979691
 30
0.0
 11
725.503412412429
 21
690.0968828979691
 31
0.0
1001
GENIUS_GENOREF_13
1005
2BAE
  0
LINE
  5
2BAD
330
1F
100
AcDbEntity
  8
AM_7
  6
AM_ISO08W050x2
100
AcDbLine
 10
732.503412412429
 20
690.0968828979691
 30
0.0
 11
732.503412412429
 21
683.0968828979692
 31
0.0
1001
GENIUS_GENOREF_13
1005
2BAE
  0
POINT
  5
2BAE
330
1F
100
AcDbEntity
  8
0
 60
     1
100
AcDbPoint
 10
0.0
 20
0.0
 30
0.0
1001
GENIUS_GENOBJ-N-CRS_13
1002
{
1000
OWNER
1000
GEN
1002
}
1001
GENIUS_GENOENT_13
1002
{
1000
MYREF
1005
2BAE
1002
}
1002
{
1000
GRP
1005
0
1002
}
1001
GENIUS_GENODEF_13
1002
{
1000
HIER
1070
    10
1002
}
1002
{
1000
MANEDIT
1070
     0
1002
}
1002
{
1000
NOSEL
1070
     0
1002
}
1002
{
1000
BEHIND
1070
     0
1002
}
1002
{
1000
OTHER
1070
     0
1002
}
1002
{
1000
REACTOR
1002
}
1001
GENIUS_GENOLIS_13
1002
{
1000
ENT
1005
2BAD
1005
2BAC
1005
2BAB
1005
2BAA
1002
}
  0
LINE
  5
2BBB
330
1F
100
AcDbEntity
  8
AM_7
100
AcDbLine
 10
720.503412412429
 20
690.0968828979691
 30
0.0
 11
807.003412412429
 21
690.0968828979691
 31
0.0
1001
GENIUS_GENODEF_13
1002
{
1000
HIER
1070
     0
1002
}
1002
{
1000
MANEDIT
1070
     0
1002
}
1002
{
1000
NOSEL
1070
     0
1002
}
1002
{
1000
BEHIND
1070
     0
1002
}
1002
{
1000
OTHER
1070
     0
1002
}
1002
{
1000
REACTOR
1002
}
1001
GENIUS_GENOBJ-N-CEN_13
1002
{
1000
OWNER
1000
GEN
1002
}
1001
GENIUS_GENCEN_19
1002
{
1040
2.0
1002
}
  0
DIMENSION
  5
2BBC
330
1F
100
AcDbEntity
  8
AM_5
100
AcDbDimension
  2
*D3
 10
826.5034124124291
 20
578.9561227128467
 30
0.0
 11
824.0034124124289
 21
543.956122712847
 31
0.0
 70
    32
 71
     5
 42
70.00000000000006
  3
AM_ISO$0
100
AcDbAlignedDimension
 13
803.003412412429
 23
508.9561227128467
 33
0.0
 14
803.003412412429
 24
578.9561227128467
 34
0.0
 50
90.0
100
AcDbRotatedDimension
1001
ACAD
1000
DSTYLE
1002
{
1070
    40
1040
1.0
1070
   144
1040
1.0
1070
   272
1070
     8
1002
}
  0
DIMENSION
  5
2BBD
330
1F
100
AcDbEntity
  8
AM_5
100
AcDbDimension
  2
*D4
 10
836.503412412429
 20
608.9561227128467
 30
0.0
 11
834.0034124124288
 21
558.9561227128469
 31
0.0
 70
    32
 71
     5
 42
100.0
  3
AM_ISO$0
100
AcDbAlignedDimension
 13
803.003412412429
 23
508.9561227128467
 33
0.0
 14
795.503412412429
 24
608.9561227128467
 34
0.0
 50
90.0
100
AcDbRotatedDimension
1001
ACAD
1000
DSTYLE
1002
{
1070
    40
1040
1.0
1070
   144
1040
1.0
1070
   272
1070
     8
1002
}
  0
DIMENSION
  5
2BBF
330
1F
100
AcDbEntity
  8
AM_5
100
AcDbDimension
  2
*D5
 10
836.503412412429
 20
608.9561227128467
 30
0.0
 11
834.0034124124288
 21
621.456122712847
 31
0.0
 70
    32
 71
     5
 42
25.0
  3
AM_ISO$0
100
AcDbAlignedDimension
 13
795.503412412429
 23
633.9561227128467
 33
0.0
 14
795.503412412429
 24
608.9561227128467
 34
0.0
 50
90.0
100
AcDbRotatedDimension
1001
ACAD
1000
DSTYLE
1002
{
1070
    40
1040
1.0
1070
   144
1040
1.0
1070
   272
1070
     8
1002
}
  0
DIMENSION
  5
2C3E
330
1F
100
AcDbEntity
  8
AM_5
100
AcDbDimension
  2
*D6
 10
805.0034124124291
 20
528.6373460630377
 30
0.0
 11
782.503412412429
 21
531.1373460630377
 31
0.0
 70
    32
  1
M<>x1.5
 71
     5
 42
45.0
  3
AM_ISO$0
100
AcDbAlignedDimension
 13
760.003412412429
 23
535.4561227128467
 33
0.0
 14
805.0034124124291
 24
535.4561227128467
 34
0.0
 50
0.0000000000001132
100
AcDbRotatedDimension
1001
ACAD
1000
DSTYLE
1002
{
1070
    40
1040
1.0
1070
   144
1040
1.0
1070
   272
1070
     8
1002
}
  0
LINE
  5
2CA8
330
1F
100
AcDbEntity
  8
0
100
AcDbLine
 10
1133.322192433855
 20
584.9561227128467
 30
0.0
 11
1177.322192433855
 21
584.9561227128467
 31
0.0
  0
LINE
  5
2CA9
330
1F
100
AcDbEntity
  8
0
100
AcDbLine
 10
1131.822192433855
 20
508.9561227128467
 30
0.0
 11
1178.822192433855
 21
508.9561227128467
 31
0.0
  0
LINE
  5
2CAA
330
1F
100
AcDbEntity
  8
0
100
AcDbLine
 10
1130.322192433855
 20
561.9561227128468
 30
0.0
 11
1130.322192433855
 21
518.9561227128467
 31
0.0
  0
LINE
  5
2CAB
330
1F
100
AcDbEntity
  8
0
100
AcDbLine
 10
1133.322192433855
 20
584.9561227128467
 30
0.0
 11
1131.322192433855
 21
582.9561227128468
 31
0.0
  0
LINE
  5
2CAC
330
1F
100
AcDbEntity
  8
0
100
AcDbLine
 10
1180.322192433855
 20
561.9561227128468
 30
0.0
 11
1180.322192433855
 21
518.9561227128467
 31
0.0
  0
CIRCLE
  5
2CAD
330
1F
100
AcDbEntity
  8
0
100
AcDbCircle
 10
1155.322192433855
 20
570.9561227128467
 30
0.0
 40
4.5
  0
CIRCLE
  5
2CAE
330
1F
100
AcDbEntity
  8
0
100
AcDbCircle
 10
1155.322192433855
 20
570.9561227128467
 30
0.0
 40
4.0
  0
LINE
  5
2CB0
330
1F
100
AcDbEntity
  8
0
100
AcDbLine
 10
1179.322192433855
 20
582.9561227128468
 30
0.0
 11
1177.322192433855
 21
584.9561227128467
 31
0.0
  0
ARC
  5
2CB1
330
1F
100
AcDbEntity
  8
0
100
AcDbCircle
 10
1155.322192433855
 20
709.9561227128467
 30
0.0
 40
25.0
100
AcDbArc
 50
209.9999999999973
 51
150.0000000000027
  0
LINE
  5
2CB2
330
1F
100
AcDbEntity
  8
0
100
AcDbLine
 10
1179.322192433855
 20
582.9561227128468
 30
0.0
 11
1179.322192433855
 21
509.4561227128467
 31
0.0
  0
LINE
  5
2CB3
330
1F
100
AcDbEntity
  8
0
100
AcDbLine
 10
1131.322192433855
 20
582.9561227128468
 30
0.0
 11
1131.322192433855
 21
509.4561227128467
 31
0.0
  0
LINE
  5
2CB4
330
1F
100
AcDbEntity
  8
0
100
AcDbLine
 10
1131.322192433855
 20
562.9561227128467
 30
0.0
 11
1179.322192433855
 21
562.9561227128467
 31
0.0
  0
LINE
  5
2CB5
330
1F
100
AcDbEntity
  8
0
100
AcDbLine
 10
1178.822192433855
 20
508.9561227128467
 30
0.0
 11
1179.322192433855
 21
509.4561227128467
 31
0.0
  0
LINE
  5
2CB6
330
1F
100
AcDbEntity
  8
0
100
AcDbLine
 10
1131.322192433855
 20
509.4561227128467
 30
0.0
 11
1131.822192433855
 21
508.9561227128467
 31
0.0
  0
LINE
  5
2CB8
330
1F
100
AcDbEntity
  8
0
  6
HIDDEN
 62
     3
 48
0.5
100
AcDbLine
 10
1160.322192433855
 20
516.9561227128467
 30
0.0
 11
1160.322192433855
 21
508.9561227128467
 31
0.0
  0
LINE
  5
2CB9
330
1F
100
AcDbEntity
  8
0
  6
HIDDEN
 62
     3
 48
0.5
100
AcDbLine
 10
1150.322192433855
 20
516.9561227128467
 30
0.0
 11
1150.322192433855
 21
508.9561227128467
 31
0.0
  0
LINE
  5
2CBA
330
1F
100
AcDbEntity
  8
0
  6
HIDDEN
 62
     3
 48
0.5
100
AcDbLine
 10
1159.322192433855
 20
516.9561227128467
 30
0.0
 11
1159.322192433855
 21
508.9561227128467
 31
0.0
  0
LINE
  5
2CBB
330
1F
100
AcDbEntity
  8
0
  6
HIDDEN
 62
     3
 48
0.5
100
AcDbLine
 10
1151.322192433855
 20
516.9561227128467
 30
0.0
 11
1151.322192433855
 21
508.9561227128467
 31
0.0
  0
ARC
  5
2CBD
330
1F
100
AcDbEntity
  8
0
100
AcDbCircle
 10
1155.322192433855
 20
709.9561227128467
 30
0.0
 40
24.0
100
AcDbArc
 50
211.3881664643527
 51
148.6118335356473
  0
LINE
  5
2CC2
330
1F
100
AcDbEntity
  8
0
100
AcDbLine
 10
1091.322192433855
 20
722.4561227128467
 30
0.0
 11
1169.322192433855
 21
722.4561227128467
 31
0.0
  0
LINE
  5
2CC3
330
1F
100
AcDbEntity
  8
0
100
AcDbLine
 10
1091.322192433855
 20
697.4561227128467
 30
0.0
 11
1169.322192433855
 21
697.4561227128467
 31
0.0
  0
LINE
  5
2CC4
330
1F
100
AcDbEntity
  8
0
100
AcDbLine
 10
1170.322192433855
 20
698.4561227128467
 30
0.0
 11
1170.322192433855
 21
721.4561227128467
 31
0.0
  0
LINE
  5
2CC6
330
1F
100
AcDbEntity
  8
0
100
AcDbLine
 10
1090.322192433855
 20
698.4561227128467
 30
0.0
 11
1090.322192433855
 21
721.4561227128467
 31
0.0
  0
LINE
  5
2CC7
330
1F
100
AcDbEntity
  8
0
100
AcDbLine
 10
1169.322192433855
 20
722.4561227128467
 30
0.0
 11
1170.322192433855
 21
721.4561227128467
 31
0.0
  0
LINE
  5
2CC8
330
1F
100
AcDbEntity
  8
0
100
AcDbLine
 10
1170.322192433855
 20
698.4561227128467
 30
0.0
 11
1169.322192433855
 21
697.4561227128467
 31
0.0
  0
LINE
  5
2CC9
330
1F
100
AcDbEntity
  8
0
100
AcDbLine
 10
1091.322192433855
 20
697.4561227128467
 30
0.0
 11
1090.322192433855
 21
698.4561227128467
 31
0.0
  0
LINE
  5
2CCA
330
1F
100
AcDbEntity
  8
0
100
AcDbLine
 10
1090.322192433855
 20
721.4561227128467
 30
0.0
 11
1091.322192433855
 21
722.4561227128467
 31
0.0
  0
LINE
  5
2CCB
330
1F
100
AcDbEntity
  8
0
100
AcDbLine
 10
1170.322192433855
 20
643.9561227128467
 30
0.0
 11
1170.322192433855
 21
620.9561227128467
 31
0.0
  0
LINE
  5
2CCC
330
1F
100
AcDbEntity
  8
0
100
AcDbLine
 10
1090.322192433855
 20
644.9561227128468
 30
0.0
 11
1090.322192433855
 21
620.9561227128467
 31
0.0
  0
LINE
  5
2CCD
330
1F
100
AcDbEntity
  8
0
100
AcDbLine
 10
1169.322192433855
 20
619.9561227128468
 30
0.0
 11
1170.322192433855
 21
620.9561227128467
 31
0.0
  0
LINE
  5
2CCE
330
1F
100
AcDbEntity
  8
0
100
AcDbLine
 10
1170.322192433855
 20
643.9561227128467
 30
0.0
 11
1169.322192433855
 21
644.9561227128468
 31
0.0
  0
LINE
  5
2CCF
330
1F
100
AcDbEntity
  8
0
100
AcDbLine
 10
1091.322192433855
 20
619.9561227128468
 30
0.0
 11
1090.322192433855
 21
620.9561227128467
 31
0.0
  0
LINE
  5
2CD1
330
1F
100
AcDbEntity
  8
0
  6
HIDDEN
 62
     3
 48
0.5
100
AcDbLine
 10
1105.322192433855
 20
619.9561227128468
 30
0.0
 11
1105.322192433855
 21
644.9561227128468
 31
0.0
  0
LINE
  5
2CD2
330
1F
100
AcDbEntity
  8
0
  6
HIDDEN
 62
     3
 48
0.5
100
AcDbLine
 10
1095.322192433855
 20
619.9561227128468
 30
0.0
 11
1095.322192433855
 21
644.9561227128468
 31
0.0
  0
LINE
  5
2CD3
330
1F
100
AcDbEntity
  8
0
  6
HIDDEN
 62
     3
 48
0.5
100
AcDbLine
 10
1104.822192433855
 20
619.9561227128468
 30
0.0
 11
1104.822192433855
 21
644.9561227128468
 31
0.0
  0
LINE
  5
2CD4
330
1F
100
AcDbEntity
  8
0
  6
HIDDEN
 62
     3
 48
0.5
100
AcDbLine
 10
1095.822192433855
 20
619.9561227128468
 30
0.0
 11
1095.822192433855
 21
644.9561227128468
 31
0.0
  0
CIRCLE
  5
2CD5
330
1F
100
AcDbEntity
  8
0
100
AcDbCircle
 10
1100.322192433855
 20
709.9561227128467
 30
0.0
 40
5.0
  0
CIRCLE
  5
2CD6
330
1F
100
AcDbEntity
  8
0
100
AcDbCircle
 10
1100.322192433855
 20
709.9561227128467
 30
0.0
 40
4.5
  0
CIRCLE
  5
2CD7
330
1F
100
AcDbEntity
  8
0
100
AcDbCircle
 10
1155.322192433855
 20
709.9561227128467
 30
0.0
 40
8.5
  0
LINE
  5
2CD9
330
1F
100
AcDbEntity
  8
0
100
AcDbLine
 10
1090.322192433855
 20
644.9561227128468
 30
0.0
 11
1169.322192433855
 21
644.9561227128468
 31
0.0
  0
LINE
  5
2CDA
330
1F
100
AcDbEntity
  8
0
100
AcDbLine
 10
1091.322192433855
 20
619.9561227128468
 30
0.0
 11
1169.322192433855
 21
619.9561227128468
 31
0.0
  0
LINE
  5
2CDB
330
1F
100
AcDbEntity
  8
0
100
AcDbLine
 10
1131.322192433855
 20
517.9561227128467
 30
0.0
 11
1179.322192433855
 21
517.9561227128467
 31
0.0
  0
LINE
  5
2CDC
330
1F
100
AcDbEntity
  8
0
100
AcDbLine
 10
1179.322192433855
 20
517.9561227128467
 30
0.0
 11
1180.322192433855
 21
518.9561227128467
 31
0.0
  0
LINE
  5
2CDD
330
1F
100
AcDbEntity
  8
0
100
AcDbLine
 10
1131.322192433855
 20
517.9561227128467
 30
0.0
 11
1130.322192433855
 21
518.9561227128467
 31
0.0
  0
LINE
  5
2CDE
330
1F
100
AcDbEntity
  8
0
100
AcDbLine
 10
1145.322192433855
 20
619.9561227128468
 30
0.0
 11
1145.322192433855
 21
584.9561227128467
 31
0.0
  0
LINE
  5
2CDF
330
1F
100
AcDbEntity
  8
0
100
AcDbLine
 10
1165.322192433855
 20
619.9561227128468
 30
0.0
 11
1165.322192433855
 21
584.9561227128467
 31
0.0
  0
LINE
  5
2CE0
330
1F
100
AcDbEntity
  8
0
100
AcDbLine
 10
1131.322192433855
 20
562.9561227128467
 30
0.0
 11
1130.322192433855
 21
561.9561227128468
 31
0.0
  0
LINE
  5
2CE1
330
1F
100
AcDbEntity
  8
0
100
AcDbLine
 10
1179.322192433855
 20
562.9561227128467
 30
0.0
 11
1180.322192433855
 21
561.9561227128468
 31
0.0
  0
LINE
  5
2CEE
330
1F
100
AcDbEntity
  8
AM_7
100
AcDbLine
 10
1100.322192433855
 20
646.9561227128467
 30
0.0
 11
1100.322192433855
 21
617.9561227128467
 31
0.0
1001
GENIUS_GENOBJ-N-CEN_13
1002
{
1000
OWNER
1000
GEN
1002
}
1001
GENIUS_GENODEF_13
1002
{
1000
HIER
1070
     0
1002
}
1002
{
1000
MANEDIT
1070
     0
1002
}
1002
{
1000
NOSEL
1070
     0
1002
}
1002
{
1000
BEHIND
1070
     0
1002
}
1002
{
1000
OTHER
1070
     0
1002
}
1002
{
1000
REACTOR
1002
}
1001
GENIUS_GENCEN_19
1002
{
1040
2.0
1002
}
  0
LINE
  5
2CFB
330
1F
100
AcDbEntity
  8
AM_7
100
AcDbLine
 10
1155.322192433855
 20
646.9561227128467
 30
0.0
 11
1155.322192433855
 21
506.9561227128467
 31
0.0
1001
GENIUS_GENODEF_13
1002
{
1000
HIER
1070
     0
1002
}
1002
{
1000
MANEDIT
1070
     0
1002
}
1002
{
1000
NOSEL
1070
     0
1002
}
1002
{
1000
BEHIND
1070
     0
1002
}
1002
{
1000
OTHER
1070
     0
1002
}
1002
{
1000
REACTOR
1002
}
1001
GENIUS_GENOBJ-N-CEN_13
1002
{
1000
OWNER
1000
GEN
1002
}
1001
GENIUS_GENCEN_19
1002
{
1040
2.0
1002
}
  0
LINE
  5
2D09
330
1F
100
AcDbEntity
  8
AM_7
  6
AM_ISO08W050x2
100
AcDbLine
 10
1155.322192433855
 20
570.9561227128467
 30
0.0
 11
1161.822192433855
 21
570.9561227128467
 31
0.0
1001
GENIUS_GENOREF_13
1005
2D0D
  0
LINE
  5
2D0A
330
1F
100
AcDbEntity
  8
AM_7
  6
AM_ISO08W050x2
100
AcDbLine
 10
1155.322192433855
 20
570.9561227128467
 30
0.0
 11
1155.322192433855
 21
577.4561227128467
 31
0.0
1001
GENIUS_GENOREF_13
1005
2D0D
  0
LINE
  5
2D0B
330
1F
100
AcDbEntity
  8
AM_7
  6
AM_ISO08W050x2
100
AcDbLine
 10
1155.322192433855
 20
570.9561227128467
 30
0.0
 11
1148.822192433855
 21
570.9561227128467
 31
0.0
1001
GENIUS_GENOREF_13
1005
2D0D
  0
LINE
  5
2D0C
330
1F
100
AcDbEntity
  8
AM_7
  6
AM_ISO08W050x2
100
AcDbLine
 10
1155.322192433855
 20
570.9561227128467
 30
0.0
 11
1155.322192433855
 21
564.4561227128467
 31
0.0
1001
GENIUS_GENOREF_13
1005
2D0D
  0
POINT
  5
2D0D
330
1F
100
AcDbEntity
  8
0
 60
     1
100
AcDbPoint
 10
0.0
 20
0.0
 30
0.0
1001
GENIUS_GENOBJ-N-CRS_13
1002
{
1000
OWNER
1000
GEN
1002
}
1001
GENIUS_GENODEF_13
1002
{
1000
HIER
1070
    10
1002
}
1002
{
1000
MANEDIT
1070
     0
1002
}
1002
{
1000
NOSEL
1070
     0
1002
}
1002
{
1000
BEHIND
1070
     0
1002
}
1002
{
1000
OTHER
1070
     0
1002
}
1002
{
1000
REACTOR
1002
}
1001
GENIUS_GENOENT_13
1002
{
1000
MYREF
1005
2D0D
1002
}
1002
{
1000
GRP
1005
0
1002
}
1001
GENIUS_GENOLIS_13
1002
{
1000
ENT
1005
2D0C
1005
2D0B
1005
2D0A
1005
2D09
1002
}
  0
LINE
  5
2D1C
330
1F
100
AcDbEntity
  8
AM_7
100
AcDbLine
 10
1155.322192433855
 20
709.9561227128467
 30
0.0
 11
1182.322192433855
 21
709.9561227128467
 31
0.0
1001
GENIUS_GENOREF_13
1005
2D20
  0
LINE
  5
2D1D
330
1F
100
AcDbEntity
  8
AM_7
100
AcDbLine
 10
1155.322192433855
 20
709.9561227128467
 30
0.0
 11
1155.322192433855
 21
736.9561227128468
 31
0.0
1001
GENIUS_GENOREF_13
1005
2D20
  0
LINE
  5
2D1E
330
1F
100
AcDbEntity
  8
AM_7
100
AcDbLine
 10
1155.322192433855
 20
709.9561227128467
 30
0.0
 11
1128.322192433855
 21
709.9561227128467
 31
0.0
1001
GENIUS_GENOREF_13
1005
2D20
  0
LINE
  5
2D1F
330
1F
100
AcDbEntity
  8
AM_7
100
AcDbLine
 10
1155.322192433855
 20
709.9561227128467
 30
0.0
 11
1155.322192433855
 21
682.9561227128468
 31
0.0
1001
GENIUS_GENOREF_13
1005
2D20
  0
POINT
  5
2D20
330
1F
100
AcDbEntity
  8
0
 60
     1
100
AcDbPoint
 10
0.0
 20
0.0
 30
0.0
1001
GENIUS_GENOBJ-N-CRS_13
1002
{
1000
OWNER
1000
GEN
1002
}
1001
GENIUS_GENODEF_13
1002
{
1000
HIER
1070
    10
1002
}
1002
{
1000
MANEDIT
1070
     0
1002
}
1002
{
1000
NOSEL
1070
     0
1002
}
1002
{
1000
BEHIND
1070
     0
1002
}
1002
{
1000
OTHER
1070
     0
1002
}
1002
{
1000
REACTOR
1002
}
1001
GENIUS_GENOENT_13
1002
{
1000
MYREF
1005
2D20
1002
}
1002
{
1000
GRP
1005
0
1002
}
1001
GENIUS_GENOLIS_13
1002
{
1000
ENT
1005
2D1F
1005
2D1E
1005
2D1D
1005
2D1C
1002
}
  0
LINE
  5
2D2E
330
1F
100
AcDbEntity
  8
AM_7
  6
AM_ISO08W050x2
100
AcDbLine
 10
1100.322192433855
 20
709.9561227128467
 30
0.0
 11
1107.322192433855
 21
709.9561227128467
 31
0.0
1001
GENIUS_GENOREF_13
1005
2D32
  0
LINE
  5
2D2F
330
1F
100
AcDbEntity
  8
AM_7
  6
AM_ISO08W050x2
100
AcDbLine
 10
1100.322192433855
 20
709.9561227128467
 30
0.0
 11
1100.322192433855
 21
716.9561227128467
 31
0.0
1001
GENIUS_GENOREF_13
1005
2D32
  0
LINE
  5
2D30
330
1F
100
AcDbEntity
  8
AM_7
  6
AM_ISO08W050x2
100
AcDbLine
 10
1100.322192433855
 20
709.9561227128467
 30
0.0
 11
1093.322192433855
 21
709.9561227128467
 31
0.0
1001
GENIUS_GENOREF_13
1005
2D32
  0
LINE
  5
2D31
330
1F
100
AcDbEntity
  8
AM_7
  6
AM_ISO08W050x2
100
AcDbLine
 10
1100.322192433855
 20
709.9561227128467
 30
0.0
 11
1100.322192433855
 21
702.9561227128468
 31
0.0
1001
GENIUS_GENOREF_13
1005
2D32
  0
POINT
  5
2D32
330
1F
100
AcDbEntity
  8
0
 60
     1
100
AcDbPoint
 10
0.0
 20
0.0
 30
0.0
1001
GENIUS_GENOENT_13
1002
{
1000
MYREF
1005
2D32
1002
}
1002
{
1000
GRP
1005
0
1002
}
1001
GENIUS_GENOBJ-N-CRS_13
1002
{
1000
OWNER
1000
GEN
1002
}
1001
GENIUS_GENOLIS_13
1002
{
1000
ENT
1005
2D31
1005
2D30
1005
2D2F
1005
2D2E
1002
}
1001
GENIUS_GENODEF_13
1002
{
1000
HIER
1070
    10
1002
}
1002
{
1000
MANEDIT
1070
     0
1002
}
1002
{
1000
NOSEL
1070
     0
1002
}
1002
{
1000
BEHIND
1070
     0
1002
}
1002
{
1000
OTHER
1070
     0
1002
}
1002
{
1000
REACTOR
1002
}
  0
LINE
  5
2D3F
330
1F
100
AcDbEntity
  8
AM_7
100
AcDbLine
 10
1088.322192433855
 20
709.9561227128467
 30
0.0
 11
1184.322192433855
 21
709.9561227128467
 31
0.0
1001
GENIUS_GENOBJ-N-CEN_13
1002
{
1000
OWNER
1000
GEN
1002
}
1001
GENIUS_GENODEF_13
1002
{
1000
HIER
1070
     0
1002
}
1002
{
1000
MANEDIT
1070
     0
1002
}
1002
{
1000
NOSEL
1070
     0
1002
}
1002
{
1000
BEHIND
1070
     0
1002
}
1002
{
1000
OTHER
1070
     0
1002
}
1002
{
1000
REACTOR
1002
}
1001
GENIUS_GENCEN_19
1002
{
1040
2.0
1002
}
  0
DIMENSION
  5
2D40
330
1F
100
AcDbEntity
  8
AM_5
100
AcDbDimension
  2
*D7
 10
1199.322192433855
 20
584.9561227128467
 30
0.0
 11
1196.822192433855
 21
546.9561227128468
 31
0.0
 70
    32
 71
     5
 42
75.99999999999994
  3
AM_ISO$0
100
AcDbAlignedDimension
 13
1175.822192433855
 23
508.9561227128467
 33
0.0
 14
1177.322192433855
 24
584.9561227128467
 34
0.0
 50
90.0
100
AcDbRotatedDimension
1001
ACAD
1000
DSTYLE
1002
{
1070
    40
1040
1.0
1070
   144
1040
1.0
1070
   272
1070
     8
1002
}
  0
DIMENSION
  5
2D41
330
1F
100
AcDbEntity
  8
AM_5
100
AcDbDimension
  2
*D8
 10
1209.322192433855
 20
619.9561227128468
 30
0.0
 11
1206.822192433855
 21
564.4561227128469
 31
0.0
 70
    32
 71
     5
 42
110.9999999999999
  3
AM_ISO$0
100
AcDbAlignedDimension
 13
1175.822192433855
 23
508.9561227128467
 33
0.0
 14
1169.322192433855
 24
619.9561227128468
 34
0.0
 50
90.0
100
AcDbRotatedDimension
1001
ACAD
1000
DSTYLE
1002
{
1070
    40
1040
1.0
1070
   144
1040
1.0
1070
   272
1070
     8
1002
}
  0
DIMENSION
  5
2D42
330
1F
100
AcDbEntity
  8
AM_5
100
AcDbDimension
  2
*D9
 10
1209.322192433855
 20
619.9561227128468
 30
0.0
 11
1206.822192433855
 21
632.4561227128469
 31
0.0
 70
    32
 71
     5
 42
25.0
  3
AM_ISO$0
100
AcDbAlignedDimension
 13
1169.322192433855
 23
644.9561227128468
 33
0.0
 14
1169.322192433855
 24
619.9561227128468
 34
0.0
 50
90.0
100
AcDbRotatedDimension
1001
ACAD
1000
DSTYLE
1002
{
1070
    40
1040
1.0
1070
   144
1040
1.0
1070
   272
1070
     8
1002
}
  0
DIMENSION
  5
2D43
330
1F
100
AcDbEntity
  8
AM_5
100
AcDbDimension
  2
*D10
 10
1180.322192433855
 20
528.6373460630377
 30
0.0
 11
1155.322192433855
 21
531.1373460630377
 31
0.0
 70
    32
  1
M<>x1.5
 71
     5
 42
50.0
  3
AM_ISO$0
100
AcDbAlignedDimension
 13
1130.322192433855
 23
540.4561227128467
 33
0.0
 14
1180.322192433855
 24
540.4561227128467
 34
0.0
 50
0.0000000000001132
100
AcDbRotatedDimension
1001
ACAD
1000
DSTYLE
1002
{
1070
    40
1040
1.0
1070
   144
1040
1.0
1070
   272
1070
     8
1002
}
  0
ARC
  5
2E19
330
1F
100
AcDbEntity
  8
0
100
AcDbCircle
 10
782.503412412429
 20
342.6125204969319
 30
0.0
 40
26.5
100
AcDbArc
 50
208.1445813085049
 51
151.855418691495
  0
LINE
  5
2E1A
330
1F
100
AcDbEntity
  8
0
100
AcDbLine
 10
718.503412412429
 20
251.6125204969319
 30
0.0
 11
796.503412412429
 21
251.6125204969319
 31
0.0
  0
LINE
  5
2E1B
330
1F
100
AcDbEntity
  8
0
100
AcDbLine
 10
758.003412412429
 20
218.0125204969318
 30
0.0
 11
807.003412412429
 21
218.0125204969318
 31
0.0
  0
LINE
  5
2E1C
330
1F
100
AcDbEntity
  8
0
100
AcDbLine
 10
718.503412412429
 20
276.6125204969319
 30
0.0
 11
796.503412412429
 21
276.6125204969319
 31
0.0
  0
LINE
  5
2E1D
330
1F
100
AcDbEntity
  8
0
100
AcDbLine
 10
756.503412412429
 20
138.0125204969317
 30
0.0
 11
808.5034124124289
 21
138.0125204969317
 31
0.0
  0
LINE
  5
2E1E
330
1F
100
AcDbEntity
  8
0
100
AcDbLine
 10
718.503412412429
 20
330.1125204969319
 30
0.0
 11
796.503412412429
 21
330.1125204969319
 31
0.0
  0
LINE
  5
2E1F
330
1F
100
AcDbEntity
  8
0
100
AcDbLine
 10
718.503412412429
 20
355.1125204969319
 30
0.0
 11
796.503412412429
 21
355.1125204969319
 31
0.0
  0
LINE
  5
2E21
330
1F
100
AcDbEntity
  8
0
  6
HIDDEN
 62
     3
 48
0.5
100
AcDbLine
 10
723.003412412429
 20
251.6125204969319
 30
0.0
 11
723.003412412429
 21
276.6125204969319
 31
0.0
  0
LINE
  5
2E22
330
1F
100
AcDbEntity
  8
0
  6
HIDDEN
 62
     3
 48
0.5
100
AcDbLine
 10
732.003412412429
 20
251.6125204969319
 30
0.0
 11
732.003412412429
 21
276.6125204969319
 31
0.0
  0
LINE
  5
2E23
330
1F
100
AcDbEntity
  8
0
  6
HIDDEN
 62
     3
 48
0.5
100
AcDbLine
 10
722.503412412429
 20
251.6125204969319
 30
0.0
 11
722.503412412429
 21
276.6125204969319
 31
0.0
  0
LINE
  5
2E24
330
1F
100
AcDbEntity
  8
0
  6
HIDDEN
 62
     3
 48
0.5
100
AcDbLine
 10
732.503412412429
 20
251.6125204969319
 30
0.0
 11
732.503412412429
 21
276.6125204969319
 31
0.0
  0
LINE
  5
2E26
330
1F
100
AcDbEntity
  8
0
100
AcDbLine
 10
717.503412412429
 20
275.6125204969319
 30
0.0
 11
717.503412412429
 21
252.6125204969319
 31
0.0
  0
LINE
  5
2E27
330
1F
100
AcDbEntity
  8
0
100
AcDbLine
 10
718.503412412429
 20
251.6125204969319
 30
0.0
 11
717.503412412429
 21
252.6125204969319
 31
0.0
  0
LINE
  5
2E28
330
1F
100
AcDbEntity
  8
0
100
AcDbLine
 10
756.003412412429
 20
216.0125204969318
 30
0.0
 11
756.003412412429
 21
138.5125204969317
 31
0.0
  0
LINE
  5
2E29
330
1F
100
AcDbEntity
  8
0
100
AcDbLine
 10
758.003412412429
 20
218.0125204969318
 30
0.0
 11
756.003412412429
 21
216.0125204969318
 31
0.0
  0
CIRCLE
  5
2E2A
330
1F
100
AcDbEntity
  8
0
100
AcDbCircle
 10
727.503412412429
 20
342.6125204969319
 30
0.0
 40
4.5
  0
CIRCLE
  5
2E2B
330
1F
100
AcDbEntity
  8
0
100
AcDbCircle
 10
727.503412412429
 20
342.6125204969319
 30
0.0
 40
5.0
  0
LINE
  5
2E2C
330
1F
100
AcDbEntity
  8
0
100
AcDbLine
 10
717.503412412429
 20
354.1125204969319
 30
0.0
 11
718.503412412429
 21
355.1125204969319
 31
0.0
  0
LINE
  5
2E2D
330
1F
100
AcDbEntity
  8
0
100
AcDbLine
 10
718.503412412429
 20
330.1125204969319
 30
0.0
 11
717.503412412429
 21
331.1125204969319
 31
0.0
  0
LINE
  5
2E2E
330
1F
100
AcDbEntity
  8
0
100
AcDbLine
 10
717.503412412429
 20
331.1125204969319
 30
0.0
 11
717.503412412429
 21
354.1125204969319
 31
0.0
  0
LINE
  5
2E30
330
1F
100
AcDbEntity
  8
0
100
AcDbLine
 10
797.503412412429
 20
275.6125204969319
 30
0.0
 11
797.503412412429
 21
252.6125204969319
 31
0.0
  0
LINE
  5
2E32
330
1F
100
AcDbEntity
  8
0
100
AcDbLine
 10
796.503412412429
 20
251.6125204969319
 30
0.0
 11
797.503412412429
 21
252.6125204969319
 31
0.0
  0
CIRCLE
  5
2E33
330
1F
100
AcDbEntity
  8
0
100
AcDbCircle
 10
782.503412412429
 20
208.6125204969319
 30
0.0
 40
4.5
  0
CIRCLE
  5
2E34
330
1F
100
AcDbEntity
  8
0
100
AcDbCircle
 10
782.503412412429
 20
208.6125204969319
 30
0.0
 40
4.0
  0
LINE
  5
2E36
330
1F
100
AcDbEntity
  8
0
100
AcDbLine
 10
809.003412412429
 20
216.0125204969318
 30
0.0
 11
809.003412412429
 21
138.5125204969317
 31
0.0
  0
LINE
  5
2E37
330
1F
100
AcDbEntity
  8
0
100
AcDbLine
 10
809.003412412429
 20
216.0125204969318
 30
0.0
 11
807.003412412429
 21
218.0125204969318
 31
0.0
  0
LINE
  5
2E38
330
1F
100
AcDbEntity
  8
0
100
AcDbLine
 10
797.503412412429
 20
275.6125204969319
 30
0.0
 11
796.503412412429
 21
276.6125204969319
 31
0.0
  0
LINE
  5
2E39
330
1F
100
AcDbEntity
  8
0
100
AcDbLine
 10
797.503412412429
 20
331.1125204969319
 30
0.0
 11
796.503412412429
 21
330.1125204969319
 31
0.0
  0
LINE
  5
2E3A
330
1F
100
AcDbEntity
  8
0
100
AcDbLine
 10
796.503412412429
 20
355.1125204969319
 30
0.0
 11
797.503412412429
 21
354.1125204969319
 31
0.0
  0
CIRCLE
  5
2E3C
330
1F
100
AcDbEntity
  8
0
100
AcDbCircle
 10
782.503412412429
 20
342.6125204969319
 30
0.0
 40
8.5
  0
LINE
  5
2E3D
330
1F
100
AcDbEntity
  8
0
100
AcDbLine
 10
797.503412412429
 20
331.1125204969319
 30
0.0
 11
797.503412412429
 21
354.1125204969319
 31
0.0
  0
LINE
  5
2E3E
330
1F
100
AcDbEntity
  8
0
100
AcDbLine
 10
756.003412412429
 20
192.0125204969317
 30
0.0
 11
809.003412412429
 21
192.0125204969317
 31
0.0
  0
LINE
  5
2E3F
330
1F
100
AcDbEntity
  8
0
100
AcDbLine
 10
756.003412412429
 20
147.0125204969317
 30
0.0
 11
809.003412412429
 21
147.0125204969317
 31
0.0
  0
LINE
  5
2E40
330
1F
100
AcDbEntity
  8
0
100
AcDbLine
 10
809.003412412429
 20
138.5125204969317
 30
0.0
 11
808.5034124124289
 21
138.0125204969317
 31
0.0
  0
LINE
  5
2E41
330
1F
100
AcDbEntity
  8
0
100
AcDbLine
 10
756.503412412429
 20
138.0125204969317
 30
0.0
 11
756.003412412429
 21
138.5125204969317
 31
0.0
  0
LINE
  5
2E43
330
1F
100
AcDbEntity
  8
0
  6
HIDDEN
 62
     3
 48
0.5
100
AcDbLine
 10
787.503412412429
 20
146.0125204969317
 30
0.0
 11
787.503412412429
 21
138.0125204969317
 31
0.0
  0
LINE
  5
2E44
330
1F
100
AcDbEntity
  8
0
  6
HIDDEN
 62
     3
 48
0.5
100
AcDbLine
 10
777.503412412429
 20
146.0125204969317
 30
0.0
 11
777.503412412429
 21
138.0125204969317
 31
0.0
  0
LINE
  5
2E45
330
1F
100
AcDbEntity
  8
0
  6
HIDDEN
 62
     3
 48
0.5
100
AcDbLine
 10
786.503412412429
 20
146.0125204969317
 30
0.0
 11
786.503412412429
 21
138.0125204969317
 31
0.0
  0
LINE
  5
2E46
330
1F
100
AcDbEntity
  8
0
  6
HIDDEN
 62
     3
 48
0.5
100
AcDbLine
 10
778.503412412429
 20
146.0125204969317
 30
0.0
 11
778.503412412429
 21
138.0125204969317
 31
0.0
  0
ARC
  5
2E4A
330
1F
100
AcDbEntity
  8
0
100
AcDbCircle
 10
782.503412412429
 20
342.6125204969319
 30
0.0
 40
27.5
100
AcDbArc
 50
208.1445813085049
 51
151.855418691495
  0
LINE
  5
2E4B
330
1F
100
AcDbEntity
  8
0
100
AcDbLine
 10
718.503412412429
 20
276.6125204969319
 30
0.0
 11
717.503412412429
 21
275.6125204969319
 31
0.0
  0
LINE
  5
2E4C
330
1F
100
AcDbEntity
  8
0
100
AcDbLine
 10
772.503412412429
 20
251.6125204969319
 30
0.0
 11
772.503412412429
 21
218.0125204969318
 31
0.0
  0
LINE
  5
2E4D
330
1F
100
AcDbEntity
  8
0
100
AcDbLine
 10
792.503412412429
 20
251.6125204969319
 30
0.0
 11
792.503412412429
 21
218.0125204969318
 31
0.0
  0
LINE
  5
2E4E
330
1F
100
AcDbEntity
  8
0
100
AcDbLine
 10
755.003412412429
 20
191.0125204969317
 30
0.0
 11
755.003412412429
 21
148.0125204969317
 31
0.0
  0
LINE
  5
2E4F
330
1F
100
AcDbEntity
  8
0
100
AcDbLine
 10
810.003412412429
 20
191.0125204969317
 30
0.0
 11
810.003412412429
 21
148.0125204969317
 31
0.0
  0
LINE
  5
2E50
330
1F
100
AcDbEntity
  8
0
100
AcDbLine
 10
809.003412412429
 20
147.0125204969317
 30
0.0
 11
810.003412412429
 21
148.0125204969317
 31
0.0
  0
LINE
  5
2E51
330
1F
100
AcDbEntity
  8
0
100
AcDbLine
 10
755.003412412429
 20
148.0125204969317
 30
0.0
 11
756.003412412429
 21
147.0125204969317
 31
0.0
  0
LINE
  5
2E52
330
1F
100
AcDbEntity
  8
0
100
AcDbLine
 10
755.003412412429
 20
191.0125204969317
 30
0.0
 11
756.003412412429
 21
192.0125204969317
 31
0.0
  0
LINE
  5
2E53
330
1F
100
AcDbEntity
  8
0
100
AcDbLine
 10
809.003412412429
 20
192.0125204969317
 30
0.0
 11
810.003412412429
 21
191.0125204969317
 31
0.0
  0
LINE
  5
2E60
330
1F
100
AcDbEntity
  8
AM_7
100
AcDbLine
 10
727.503412412429
 20
278.6125204969319
 30
0.0
 11
727.503412412429
 21
249.6125204969319
 31
0.0
1001
GENIUS_GENODEF_13
1002
{
1000
HIER
1070
     0
1002
}
1002
{
1000
MANEDIT
1070
     0
1002
}
1002
{
1000
NOSEL
1070
     0
1002
}
1002
{
1000
BEHIND
1070
     0
1002
}
1002
{
1000
OTHER
1070
     0
1002
}
1002
{
1000
REACTOR
1002
}
1001
GENIUS_GENOBJ-N-CEN_13
1002
{
1000
OWNER
1000
GEN
1002
}
1001
GENIUS_GENCEN_19
1002
{
1040
2.0
1002
}
  0
LINE
  5
2E6D
330
1F
100
AcDbEntity
  8
AM_7
100
AcDbLine
 10
782.503412412429
 20
278.6125204969319
 30
0.0
 11
782.503412412429
 21
136.0125204969317
 31
0.0
1001
GENIUS_GENODEF_13
1002
{
1000
HIER
1070
     0
1002
}
1002
{
1000
MANEDIT
1070
     0
1002
}
1002
{
1000
NOSEL
1070
     0
1002
}
1002
{
1000
BEHIND
1070
     0
1002
}
1002
{
1000
OTHER
1070
     0
1002
}
1002
{
1000
REACTOR
1002
}
1001
GENIUS_GENOBJ-N-CEN_13
1002
{
1000
OWNER
1000
GEN
1002
}
1001
GENIUS_GENCEN_19
1002
{
1040
2.0
1002
}
  0
LINE
  5
2E7B
330
1F
100
AcDbEntity
  8
AM_7
100
AcDbLine
 10
782.503412412429
 20
342.6125204969319
 30
0.0
 11
812.0034124124289
 21
342.6125204969319
 31
0.0
1001
GENIUS_GENOREF_13
1005
2E7F
  0
LINE
  5
2E7C
330
1F
100
AcDbEntity
  8
AM_7
100
AcDbLine
 10
782.503412412429
 20
342.6125204969319
 30
0.0
 11
782.503412412429
 21
372.1125204969319
 31
0.0
1001
GENIUS_GENOREF_13
1005
2E7F
  0
LINE
  5
2E7D
330
1F
100
AcDbEntity
  8
AM_7
100
AcDbLine
 10
782.503412412429
 20
342.6125204969319
 30
0.0
 11
753.003412412429
 21
342.6125204969319
 31
0.0
1001
GENIUS_GENOREF_13
1005
2E7F
  0
LINE
  5
2E7E
330
1F
100
AcDbEntity
  8
AM_7
100
AcDbLine
 10
782.503412412429
 20
342.6125204969319
 30
0.0
 11
782.503412412429
 21
313.1125204969319
 31
0.0
1001
GENIUS_GENOREF_13
1005
2E7F
  0
POINT
  5
2E7F
330
1F
100
AcDbEntity
  8
0
 60
     1
100
AcDbPoint
 10
0.0
 20
0.0
 30
0.0
1001
GENIUS_GENODEF_13
1002
{
1000
HIER
1070
    10
1002
}
1002
{
1000
MANEDIT
1070
     0
1002
}
1002
{
1000
NOSEL
1070
     0
1002
}
1002
{
1000
BEHIND
1070
     0
1002
}
1002
{
1000
OTHER
1070
     0
1002
}
1002
{
1000
REACTOR
1002
}
1001
GENIUS_GENOBJ-N-CRS_13
1002
{
1000
OWNER
1000
GEN
1002
}
1001
GENIUS_GENOENT_13
1002
{
1000
MYREF
1005
2E7F
1002
}
1002
{
1000
GRP
1005
0
1002
}
1001
GENIUS_GENOLIS_13
1002
{
1000
ENT
1005
2E7E
1005
2E7D
1005
2E7C
1005
2E7B
1002
}
  0
LINE
  5
2E91
330
1F
100
AcDbEntity
  8
AM_7
  6
AM_ISO08W050x2
100
AcDbLine
 10
727.503412412429
 20
342.6125204969319
 30
0.0
 11
734.503412412429
 21
342.6125204969319
 31
0.0
1001
GENIUS_GENOREF_13
1005
2E95
  0
LINE
  5
2E92
330
1F
100
AcDbEntity
  8
AM_7
  6
AM_ISO08W050x2
100
AcDbLine
 10
727.503412412429
 20
342.6125204969319
 30
0.0
 11
727.503412412429
 21
349.6125204969319
 31
0.0
1001
GENIUS_GENOREF_13
1005
2E95
  0
LINE
  5
2E93
330
1F
100
AcDbEntity
  8
AM_7
  6
AM_ISO08W050x2
100
AcDbLine
 10
727.503412412429
 20
342.6125204969319
 30
0.0
 11
720.503412412429
 21
342.6125204969319
 31
0.0
1001
GENIUS_GENOREF_13
1005
2E95
  0
LINE
  5
2E94
330
1F
100
AcDbEntity
  8
AM_7
  6
AM_ISO08W050x2
100
AcDbLine
 10
727.503412412429
 20
342.6125204969319
 30
0.0
 11
727.503412412429
 21
335.6125204969319
 31
0.0
1001
GENIUS_GENOREF_13
1005
2E95
  0
POINT
  5
2E95
330
1F
100
AcDbEntity
  8
0
 60
     1
100
AcDbPoint
 10
0.0
 20
0.0
 30
0.0
1001
GENIUS_GENOLIS_13
1002
{
1000
ENT
1005
2E94
1005
2E93
1005
2E92
1005
2E91
1002
}
1001
GENIUS_GENODEF_13
1002
{
1000
HIER
1070
    10
1002
}
1002
{
1000
MANEDIT
1070
     0
1002
}
1002
{
1000
NOSEL
1070
     0
1002
}
1002
{
1000
BEHIND
1070
     0
1002
}
1002
{
1000
OTHER
1070
     0
1002
}
1002
{
1000
REACTOR
1002
}
1001
GENIUS_GENOENT_13
1002
{
1000
MYREF
1005
2E95
1002
}
1002
{
1000
GRP
1005
0
1002
}
1001
GENIUS_GENOBJ-N-CRS_13
1002
{
1000
OWNER
1000
GEN
1002
}
  0
LINE
  5
2EA2
330
1F
100
AcDbEntity
  8
AM_7
100
AcDbLine
 10
715.503412412429
 20
342.6125204969319
 30
0.0
 11
812.0034124124289
 21
342.6125204969319
 31
0.0
1001
GENIUS_GENODEF_13
1002
{
1000
HIER
1070
     0
1002
}
1002
{
1000
MANEDIT
1070
     0
1002
}
1002
{
1000
NOSEL
1070
     0
1002
}
1002
{
1000
BEHIND
1070
     0
1002
}
1002
{
1000
OTHER
1070
     0
1002
}
1002
{
1000
REACTOR
1002
}
1001
GENIUS_GENOBJ-N-CEN_13
1002
{
1000
OWNER
1000
GEN
1002
}
1001
GENIUS_GENCEN_19
1002
{
1040
2.0
1002
}
  0
DIMENSION
  5
2EA3
330
1F
100
AcDbEntity
  8
AM_5
100
AcDbDimension
  2
*D11
 10
826.5034124124291
 20
218.0125204969318
 30
0.0
 11
824.003412412429
 21
178.0125204969319
 31
0.0
 70
    32
 71
     5
 42
79.99999999999994
  3
AM_ISO$0
100
AcDbAlignedDimension
 13
803.003412412429
 23
138.0125204969318
 33
0.0
 14
807.003412412429
 24
218.0125204969318
 34
0.0
 50
90.0
100
AcDbRotatedDimension
1001
ACAD
1000
DSTYLE
1002
{
1070
    40
1040
1.0
1070
   144
1040
1.0
1070
   272
1070
     8
1002
}
  0
DIMENSION
  5
2EA4
330
1F
100
AcDbEntity
  8
AM_5
100
AcDbDimension
  2
*D12
 10
836.503412412429
 20
251.6125204969318
 30
0.0
 11
834.003412412429
 21
194.8125204969319
 31
0.0
 70
    32
 71
     5
 42
113.5999999999999
  3
AM_ISO$0
100
AcDbAlignedDimension
 13
803.003412412429
 23
138.0125204969318
 33
0.0
 14
796.503412412429
 24
251.6125204969318
 34
0.0
 50
90.0
100
AcDbRotatedDimension
1001
ACAD
1000
DSTYLE
1002
{
1070
    40
1040
1.0
1070
   144
1040
1.0
1070
   272
1070
     8
1002
}
  0
DIMENSION
  5
2EA5
330
1F
100
AcDbEntity
  8
AM_5
100
AcDbDimension
  2
*D13
 10
836.503412412429
 20
251.6125204969318
 30
0.0
 11
834.003412412429
 21
264.1125204969319
 31
0.0
 70
    32
 71
     5
 42
25.0
  3
AM_ISO$0
100
AcDbAlignedDimension
 13
796.503412412429
 23
276.6125204969318
 33
0.0
 14
796.503412412429
 24
251.6125204969318
 34
0.0
 50
90.0
100
AcDbRotatedDimension
1001
ACAD
1000
DSTYLE
1002
{
1070
    40
1040
1.0
1070
   144
1040
1.0
1070
   272
1070
     8
1002
}
  0
DIMENSION
  5
2EA6
330
1F
100
AcDbEntity
  8
AM_5
100
AcDbDimension
  2
*D14
 10
810.003412412429
 20
157.6937438471228
 30
0.0
 11
782.503412412429
 21
160.1937438471228
 31
0.0
 70
    32
  1
M<>x1.5
 71
     5
 42
55.0
  3
AM_ISO$0
100
AcDbAlignedDimension
 13
755.003412412429
 23
169.5125204969317
 33
0.0
 14
810.003412412429
 24
169.5125204969318
 34
0.0
100
AcDbRotatedDimension
1001
ACAD
1000
DSTYLE
1002
{
1070
    40
1040
1.0
1070
   144
1040
1.0
1070
   272
1070
     8
1002
}
  0
ARC
  5
2F7B
330
1F
100
AcDbEntity
  8
0
100
AcDbCircle
 10
1155.322192433855
 20
343.773668195541
 30
0.0
 40
31.0
100
AcDbArc
 50
203.7799947314112
 51
156.2200052685888
  0
LINE
  5
2F7C
330
1F
100
AcDbEntity
  8
0
100
AcDbLine
 10
1091.322192433855
 20
252.5125204969318
 30
0.0
 11
1169.322192433855
 21
252.5125204969318
 31
0.0
  0
LINE
  5
2F7D
330
1F
100
AcDbEntity
  8
0
100
AcDbLine
 10
1126.322192433855
 20
218.0125204969318
 30
0.0
 11
1184.322192433855
 21
218.0125204969318
 31
0.0
  0
LINE
  5
2F7E
330
1F
100
AcDbEntity
  8
0
100
AcDbLine
 10
1091.322192433855
 20
277.5125204969318
 30
0.0
 11
1169.322192433855
 21
277.5125204969318
 31
0.0
  0
LINE
  5
2F7F
330
1F
100
AcDbEntity
  8
0
100
AcDbLine
 10
1125.322192433855
 20
138.0125204969317
 30
0.0
 11
1185.322192433855
 21
138.0125204969318
 31
0.0
  0
LINE
  5
2F80
330
1F
100
AcDbEntity
  8
0
100
AcDbLine
 10
1091.322192433855
 20
331.273668195541
 30
0.0
 11
1169.322192433855
 21
331.273668195541
 31
0.0
  0
LINE
  5
2F81
330
1F
100
AcDbEntity
  8
0
100
AcDbLine
 10
1091.322192433855
 20
356.273668195541
 30
0.0
 11
1169.322192433855
 21
356.273668195541
 31
0.0
  0
LINE
  5
2F83
330
1F
100
AcDbEntity
  8
0
  6
HIDDEN
 62
     3
 48
0.5
100
AcDbLine
 10
1095.822192433855
 20
252.5125204969318
 30
0.0
 11
1095.822192433855
 21
277.5125204969318
 31
0.0
  0
LINE
  5
2F84
330
1F
100
AcDbEntity
  8
0
  6
HIDDEN
 62
     3
 48
0.5
100
AcDbLine
 10
1104.822192433855
 20
252.5125204969318
 30
0.0
 11
1104.822192433855
 21
277.5125204969318
 31
0.0
  0
LINE
  5
2F85
330
1F
100
AcDbEntity
  8
0
  6
HIDDEN
 62
     3
 48
0.5
100
AcDbLine
 10
1095.322192433855
 20
252.5125204969318
 30
0.0
 11
1095.322192433855
 21
277.5125204969318
 31
0.0
  0
LINE
  5
2F86
330
1F
100
AcDbEntity
  8
0
  6
HIDDEN
 62
     3
 48
0.5
100
AcDbLine
 10
1105.322192433855
 20
252.5125204969318
 30
0.0
 11
1105.322192433855
 21
277.5125204969318
 31
0.0
  0
LINE
  5
2F88
330
1F
100
AcDbEntity
  8
0
100
AcDbLine
 10
1090.322192433855
 20
276.5125204969318
 30
0.0
 11
1090.322192433855
 21
253.5125204969318
 31
0.0
  0
LINE
  5
2F89
330
1F
100
AcDbEntity
  8
0
100
AcDbLine
 10
1091.322192433855
 20
252.5125204969318
 30
0.0
 11
1090.322192433855
 21
253.5125204969318
 31
0.0
  0
LINE
  5
2F8A
330
1F
100
AcDbEntity
  8
0
100
AcDbLine
 10
1124.322192433855
 20
216.0125204969318
 30
0.0
 11
1124.322192433855
 21
139.0125204969317
 31
0.0
  0
LINE
  5
2F8B
330
1F
100
AcDbEntity
  8
0
100
AcDbLine
 10
1126.322192433855
 20
218.0125204969318
 30
0.0
 11
1124.322192433855
 21
216.0125204969318
 31
0.0
  0
CIRCLE
  5
2F8C
330
1F
100
AcDbEntity
  8
0
100
AcDbCircle
 10
1100.322192433855
 20
343.773668195541
 30
0.0
 40
5.0
  0
CIRCLE
  5
2F8D
330
1F
100
AcDbEntity
  8
0
100
AcDbCircle
 10
1100.322192433855
 20
343.773668195541
 30
0.0
 40
4.5
  0
LINE
  5
2F8E
330
1F
100
AcDbEntity
  8
0
100
AcDbLine
 10
1090.322192433855
 20
332.2736681955409
 30
0.0
 11
1090.322192433855
 21
355.2736681955409
 31
0.0
  0
LINE
  5
2F90
330
1F
100
AcDbEntity
  8
0
100
AcDbLine
 10
1091.322192433855
 20
331.273668195541
 30
0.0
 11
1090.322192433855
 21
332.2736681955409
 31
0.0
  0
LINE
  5
2F91
330
1F
100
AcDbEntity
  8
0
100
AcDbLine
 10
1090.322192433855
 20
355.2736681955409
 30
0.0
 11
1091.322192433855
 21
356.273668195541
 31
0.0
  0
LINE
  5
2F92
330
1F
100
AcDbEntity
  8
0
100
AcDbLine
 10
1110.202769915726
 20
356.273668195541
 30
0.0
 11
1110.202769915726
 21
331.273668195541
 31
0.0
  0
LINE
  5
2F93
330
1F
100
AcDbEntity
  8
0
100
AcDbLine
 10
1170.322192433855
 20
276.5125204969318
 30
0.0
 11
1170.322192433855
 21
253.5125204969318
 31
0.0
  0
CIRCLE
  5
2F96
330
1F
100
AcDbEntity
  8
0
100
AcDbCircle
 10
1155.322192433855
 20
207.0125204969317
 30
0.0
 40
4.5
  0
CIRCLE
  5
2F97
330
1F
100
AcDbEntity
  8
0
100
AcDbCircle
 10
1155.322192433855
 20
207.0125204969317
 30
0.0
 40
4.0
  0
LINE
  5
2F98
330
1F
100
AcDbEntity
  8
0
100
AcDbLine
 10
1145.322192433855
 20
252.5125204969318
 30
0.0
 11
1145.322192433855
 21
218.0125204969318
 31
0.0
  0
LINE
  5
2F99
330
1F
100
AcDbEntity
  8
0
100
AcDbLine
 10
1165.322192433855
 20
252.5125204969318
 30
0.0
 11
1165.322192433855
 21
218.0125204969318
 31
0.0
  0
LINE
  5
2F9A
330
1F
100
AcDbEntity
  8
0
100
AcDbLine
 10
1169.322192433855
 20
252.5125204969318
 30
0.0
 11
1170.322192433855
 21
253.5125204969318
 31
0.0
  0
LINE
  5
2F9B
330
1F
100
AcDbEntity
  8
0
100
AcDbLine
 10
1186.322192433855
 20
216.0125204969318
 30
0.0
 11
1186.322192433855
 21
139.0125204969318
 31
0.0
  0
LINE
  5
2F9C
330
1F
100
AcDbEntity
  8
0
100
AcDbLine
 10
1186.322192433855
 20
216.0125204969318
 30
0.0
 11
1184.322192433855
 21
218.0125204969318
 31
0.0
  0
CIRCLE
  5
2F9D
330
1F
100
AcDbEntity
  8
0
100
AcDbCircle
 10
1155.322192433855
 20
343.773668195541
 30
0.0
 40
8.5
  0
LINE
  5
2F9E
330
1F
100
AcDbEntity
  8
0
100
AcDbLine
 10
1170.322192433855
 20
332.2736681955409
 30
0.0
 11
1170.322192433855
 21
355.2736681955409
 31
0.0
  0
LINE
  5
2F9F
330
1F
100
AcDbEntity
  8
0
100
AcDbLine
 10
1170.322192433855
 20
276.5125204969318
 30
0.0
 11
1169.322192433855
 21
277.5125204969318
 31
0.0
  0
LINE
  5
2FA0
330
1F
100
AcDbEntity
  8
0
100
AcDbLine
 10
1170.322192433855
 20
332.2736681955409
 30
0.0
 11
1169.322192433855
 21
331.273668195541
 31
0.0
  0
LINE
  5
2FA1
330
1F
100
AcDbEntity
  8
0
100
AcDbLine
 10
1169.322192433855
 20
356.273668195541
 30
0.0
 11
1170.322192433855
 21
355.2736681955409
 31
0.0
  0
ARC
  5
2FA3
330
1F
100
AcDbEntity
  8
0
100
AcDbCircle
 10
1155.322192433855
 20
343.773668195541
 30
0.0
 40
32.5
100
AcDbArc
 50
202.6198649480409
 51
157.3801350519591
  0
LINE
  5
2FA4
330
1F
100
AcDbEntity
  8
0
100
AcDbLine
 10
1187.822192433855
 20
191.0125204969317
 30
0.0
 11
1187.822192433855
 21
148.0125204969317
 31
0.0
  0
LINE
  5
2FA5
330
1F
100
AcDbEntity
  8
0
100
AcDbLine
 10
1122.822192433855
 20
191.0125204969317
 30
0.0
 11
1122.822192433855
 21
148.0125204969317
 31
0.0
  0
LINE
  5
2FA6
330
1F
100
AcDbEntity
  8
0
100
AcDbLine
 10
1123.822192433855
 20
192.0125204969317
 30
0.0
 11
1186.822192433855
 21
192.0125204969317
 31
0.0
  0
LINE
  5
2FA7
330
1F
100
AcDbEntity
  8
0
100
AcDbLine
 10
1123.822192433855
 20
147.0125204969317
 30
0.0
 11
1186.822192433855
 21
147.0125204969317
 31
0.0
  0
LINE
  5
2FA8
330
1F
100
AcDbEntity
  8
0
100
AcDbLine
 10
1122.822192433855
 20
148.0125204969317
 30
0.0
 11
1123.822192433855
 21
147.0125204969317
 31
0.0
  0
LINE
  5
2FA9
330
1F
100
AcDbEntity
  8
0
100
AcDbLine
 10
1186.822192433855
 20
147.0125204969317
 30
0.0
 11
1187.822192433855
 21
148.0125204969317
 31
0.0
  0
LINE
  5
2FAB
330
1F
100
AcDbEntity
  8
0
  6
HIDDEN
 62
     3
 48
0.5
100
AcDbLine
 10
1160.322192433855
 20
146.0125204969317
 30
0.0
 11
1160.322192433855
 21
138.0125204969317
 31
0.0
  0
LINE
  5
2FAC
330
1F
100
AcDbEntity
  8
0
  6
HIDDEN
 62
     3
 48
0.5
100
AcDbLine
 10
1150.322192433855
 20
146.0125204969317
 30
0.0
 11
1150.322192433855
 21
138.0125204969317
 31
0.0
  0
LINE
  5
2FAD
330
1F
100
AcDbEntity
  8
0
  6
HIDDEN
 62
     3
 48
0.5
100
AcDbLine
 10
1159.322192433855
 20
146.0125204969317
 30
0.0
 11
1159.322192433855
 21
138.0125204969317
 31
0.0
  0
LINE
  5
2FAE
330
1F
100
AcDbEntity
  8
0
  6
HIDDEN
 62
     3
 48
0.5
100
AcDbLine
 10
1151.322192433855
 20
146.0125204969317
 30
0.0
 11
1151.322192433855
 21
138.0125204969317
 31
0.0
  0
LINE
  5
2FB2
330
1F
100
AcDbEntity
  8
0
100
AcDbLine
 10
1091.322192433855
 20
277.5125204969318
 30
0.0
 11
1090.322192433855
 21
276.5125204969318
 31
0.0
  0
LINE
  5
2FB3
330
1F
100
AcDbEntity
  8
0
100
AcDbLine
 10
1124.322192433855
 20
139.0125204969317
 30
0.0
 11
1125.322192433855
 21
138.0125204969317
 31
0.0
  0
LINE
  5
2FB4
330
1F
100
AcDbEntity
  8
0
100
AcDbLine
 10
1185.322192433855
 20
138.0125204969318
 30
0.0
 11
1186.322192433855
 21
139.0125204969318
 31
0.0
  0
LINE
  5
2FB5
330
1F
100
AcDbEntity
  8
0
100
AcDbLine
 10
1122.822192433855
 20
191.0125204969317
 30
0.0
 11
1123.822192433855
 21
192.0125204969317
 31
0.0
  0
LINE
  5
2FB6
330
1F
100
AcDbEntity
  8
0
100
AcDbLine
 10
1186.822192433855
 20
192.0125204969317
 30
0.0
 11
1187.822192433855
 21
191.0125204969317
 31
0.0
  0
LINE
  5
2FC3
330
1F
100
AcDbEntity
  8
AM_7
100
AcDbLine
 10
1155.322192433855
 20
279.5125204969318
 30
0.0
 11
1155.322192433855
 21
136.0125204969317
 31
0.0
1001
GENIUS_GENODEF_13
1002
{
1000
HIER
1070
     0
1002
}
1002
{
1000
MANEDIT
1070
     0
1002
}
1002
{
1000
NOSEL
1070
     0
1002
}
1002
{
1000
BEHIND
1070
     0
1002
}
1002
{
1000
OTHER
1070
     0
1002
}
1002
{
1000
REACTOR
1002
}
1001
GENIUS_GENOBJ-N-CEN_13
1002
{
1000
OWNER
1000
GEN
1002
}
1001
GENIUS_GENCEN_19
1002
{
1040
2.0
1002
}
  0
LINE
  5
2FD1
330
1F
100
AcDbEntity
  8
AM_7
  6
AM_ISO08W050x2
100
AcDbLine
 10
1155.322192433855
 20
207.0125204969317
 30
0.0
 11
1161.822192433855
 21
207.0125204969317
 31
0.0
1001
GENIUS_GENOREF_13
1005
2FD5
  0
LINE
  5
2FD2
330
1F
100
AcDbEntity
  8
AM_7
  6
AM_ISO08W050x2
100
AcDbLine
 10
1155.322192433855
 20
207.0125204969317
 30
0.0
 11
1155.322192433855
 21
213.5125204969317
 31
0.0
1001
GENIUS_GENOREF_13
1005
2FD5
  0
LINE
  5
2FD3
330
1F
100
AcDbEntity
  8
AM_7
  6
AM_ISO08W050x2
100
AcDbLine
 10
1155.322192433855
 20
207.0125204969317
 30
0.0
 11
1148.822192433855
 21
207.0125204969317
 31
0.0
1001
GENIUS_GENOREF_13
1005
2FD5
  0
LINE
  5
2FD4
330
1F
100
AcDbEntity
  8
AM_7
  6
AM_ISO08W050x2
100
AcDbLine
 10
1155.322192433855
 20
207.0125204969317
 30
0.0
 11
1155.322192433855
 21
200.5125204969318
 31
0.0
1001
GENIUS_GENOREF_13
1005
2FD5
  0
POINT
  5
2FD5
330
1F
100
AcDbEntity
  8
0
 60
     1
100
AcDbPoint
 10
0.0
 20
0.0
 30
0.0
1001
GENIUS_GENODEF_13
1002
{
1000
HIER
1070
    10
1002
}
1002
{
1000
MANEDIT
1070
     0
1002
}
1002
{
1000
NOSEL
1070
     0
1002
}
1002
{
1000
BEHIND
1070
     0
1002
}
1002
{
1000
OTHER
1070
     0
1002
}
1002
{
1000
REACTOR
1002
}
1001
GENIUS_GENOENT_13
1002
{
1000
MYREF
1005
2FD5
1002
}
1002
{
1000
GRP
1005
0
1002
}
1001
GENIUS_GENOLIS_13
1002
{
1000
ENT
1005
2FD4
1005
2FD3
1005
2FD2
1005
2FD1
1002
}
1001
GENIUS_GENOBJ-N-CRS_13
1002
{
1000
OWNER
1000
GEN
1002
}
  0
LINE
  5
2FE2
330
1F
100
AcDbEntity
  8
AM_7
100
AcDbLine
 10
1100.322192433855
 20
279.5125204969318
 30
0.0
 11
1100.322192433855
 21
250.5125204969318
 31
0.0
1001
GENIUS_GENODEF_13
1002
{
1000
HIER
1070
     0
1002
}
1002
{
1000
MANEDIT
1070
     0
1002
}
1002
{
1000
NOSEL
1070
     0
1002
}
1002
{
1000
BEHIND
1070
     0
1002
}
1002
{
1000
OTHER
1070
     0
1002
}
1002
{
1000
REACTOR
1002
}
1001
GENIUS_GENOBJ-N-CEN_13
1002
{
1000
OWNER
1000
GEN
1002
}
1001
GENIUS_GENCEN_19
1002
{
1040
2.0
1002
}
  0
LINE
  5
2FF0
330
1F
100
AcDbEntity
  8
AM_7
100
AcDbLine
 10
1155.322192433855
 20
343.773668195541
 30
0.0
 11
1189.822192433855
 21
343.773668195541
 31
0.0
1001
GENIUS_GENOREF_13
1005
2FF4
  0
LINE
  5
2FF1
330
1F
100
AcDbEntity
  8
AM_7
100
AcDbLine
 10
1155.322192433855
 20
343.773668195541
 30
0.0
 11
1155.322192433855
 21
378.2736681955409
 31
0.0
1001
GENIUS_GENOREF_13
1005
2FF4
  0
LINE
  5
2FF2
330
1F
100
AcDbEntity
  8
AM_7
100
AcDbLine
 10
1155.322192433855
 20
343.773668195541
 30
0.0
 11
1120.822192433855
 21
343.773668195541
 31
0.0
1001
GENIUS_GENOREF_13
1005
2FF4
  0
LINE
  5
2FF3
330
1F
100
AcDbEntity
  8
AM_7
100
AcDbLine
 10
1155.322192433855
 20
343.773668195541
 30
0.0
 11
1155.322192433855
 21
309.2736681955409
 31
0.0
1001
GENIUS_GENOREF_13
1005
2FF4
  0
POINT
  5
2FF4
330
1F
100
AcDbEntity
  8
0
 60
     1
100
AcDbPoint
 10
0.0
 20
0.0
 30
0.0
1001
GENIUS_GENOLIS_13
1002
{
1000
ENT
1005
2FF3
1005
2FF2
1005
2FF1
1005
2FF0
1002
}
1001
GENIUS_GENODEF_13
1002
{
1000
HIER
1070
    10
1002
}
1002
{
1000
MANEDIT
1070
     0
1002
}
1002
{
1000
NOSEL
1070
     0
1002
}
1002
{
1000
BEHIND
1070
     0
1002
}
1002
{
1000
OTHER
1070
     0
1002
}
1002
{
1000
REACTOR
1002
}
1001
GENIUS_GENOBJ-N-CRS_13
1002
{
1000
OWNER
1000
GEN
1002
}
1001
GENIUS_GENOENT_13
1002
{
1000
MYREF
1005
2FF4
1002
}
1002
{
1000
GRP
1005
0
1002
}
  0
LINE
  5
3002
330
1F
100
AcDbEntity
  8
AM_7
  6
AM_ISO08W050x2
100
AcDbLine
 10
1100.322192433855
 20
343.773668195541
 30
0.0
 11
1107.322192433855
 21
343.773668195541
 31
0.0
1001
GENIUS_GENOREF_13
1005
3006
  0
LINE
  5
3003
330
1F
100
AcDbEntity
  8
AM_7
  6
AM_ISO08W050x2
100
AcDbLine
 10
1100.322192433855
 20
343.773668195541
 30
0.0
 11
1100.322192433855
 21
350.7736681955409
 31
0.0
1001
GENIUS_GENOREF_13
1005
3006
  0
LINE
  5
3004
330
1F
100
AcDbEntity
  8
AM_7
  6
AM_ISO08W050x2
100
AcDbLine
 10
1100.322192433855
 20
343.773668195541
 30
0.0
 11
1093.322192433855
 21
343.773668195541
 31
0.0
1001
GENIUS_GENOREF_13
1005
3006
  0
LINE
  5
3005
330
1F
100
AcDbEntity
  8
AM_7
  6
AM_ISO08W050x2
100
AcDbLine
 10
1100.322192433855
 20
343.773668195541
 30
0.0
 11
1100.322192433855
 21
336.773668195541
 31
0.0
1001
GENIUS_GENOREF_13
1005
3006
  0
POINT
  5
3006
330
1F
100
AcDbEntity
  8
0
 60
     1
100
AcDbPoint
 10
0.0
 20
0.0
 30
0.0
1001
GENIUS_GENOENT_13
1002
{
1000
MYREF
1005
3006
1002
}
1002
{
1000
GRP
1005
0
1002
}
1001
GENIUS_GENOLIS_13
1002
{
1000
ENT
1005
3005
1005
3004
1005
3003
1005
3002
1002
}
1001
GENIUS_GENOBJ-N-CRS_13
1002
{
1000
OWNER
1000
GEN
1002
}
1001
GENIUS_GENODEF_13
1002
{
1000
HIER
1070
    10
1002
}
1002
{
1000
MANEDIT
1070
     0
1002
}
1002
{
1000
NOSEL
1070
     0
1002
}
1002
{
1000
BEHIND
1070
     0
1002
}
1002
{
1000
OTHER
1070
     0
1002
}
1002
{
1000
REACTOR
1002
}
  0
LINE
  5
3013
330
1F
100
AcDbEntity
  8
AM_7
100
AcDbLine
 10
1088.322192433855
 20
343.773668195541
 30
0.0
 11
1190.665880992908
 21
343.773668195541
 31
0.0
1001
GENIUS_GENODEF_13
1002
{
1000
HIER
1070
     0
1002
}
1002
{
1000
MANEDIT
1070
     0
1002
}
1002
{
1000
NOSEL
1070
     0
1002
}
1002
{
1000
BEHIND
1070
     0
1002
}
1002
{
1000
OTHER
1070
     0
1002
}
1002
{
1000
REACTOR
1002
}
1001
GENIUS_GENOBJ-N-CEN_13
1002
{
1000
OWNER
1000
GEN
1002
}
1001
GENIUS_GENCEN_19
1002
{
1040
2.0
1002
}
  0
DIMENSION
  5
3014
330
1F
100
AcDbEntity
  8
AM_5
100
AcDbDimension
  2
*D15
 10
1199.322192433855
 20
218.0125204969317
 30
0.0
 11
1196.822192433855
 21
178.0125204969319
 31
0.0
 70
    32
 71
     5
 42
79.99999999999994
  3
AM_ISO$0
100
AcDbAlignedDimension
 13
1185.322192433855
 23
138.0125204969317
 33
0.0
 14
1184.322192433855
 24
218.0125204969317
 34
0.0
 50
90.0
100
AcDbRotatedDimension
1001
ACAD
1000
DSTYLE
1002
{
1070
    40
1040
1.0
1070
   144
1040
1.0
1070
   272
1070
     8
1002
}
  0
DIMENSION
  5
3015
330
1F
100
AcDbEntity
  8
AM_5
100
AcDbDimension
  2
*D16
 10
1209.322192433855
 20
252.5125204969318
 30
0.0
 11
1206.822192433855
 21
195.262520496932
 31
0.0
 70
    32
 71
     5
 42
114.5
  3
AM_ISO$0
100
AcDbAlignedDimension
 13
1185.322192433855
 23
138.0125204969318
 33
0.0
 14
1169.322192433855
 24
252.5125204969318
 34
0.0
 50
90.0
100
AcDbRotatedDimension
1001
ACAD
1000
DSTYLE
1002
{
1070
    40
1040
1.0
1070
   144
1040
1.0
1070
   272
1070
     8
1002
}
  0
DIMENSION
  5
3016
330
1F
100
AcDbEntity
  8
AM_5
100
AcDbDimension
  2
*D17
 10
1209.322192433855
 20
252.5125204969318
 30
0.0
 11
1206.822192433855
 21
265.012520496932
 31
0.0
 70
    32
 71
     5
 42
25.00000000000003
  3
AM_ISO$0
100
AcDbAlignedDimension
 13
1169.322192433855
 23
277.5125204969318
 33
0.0
 14
1169.322192433855
 24
252.5125204969318
 34
0.0
 50
90.0
100
AcDbRotatedDimension
1001
ACAD
1000
DSTYLE
1002
{
1070
    40
1040
1.0
1070
   144
1040
1.0
1070
   272
1070
     8
1002
}
  0
DIMENSION
  5
3017
330
1F
100
AcDbEntity
  8
AM_5
100
AcDbDimension
  2
*D18
 10
1187.822192433855
 20
157.6937438471227
 30
0.0
 11
1155.322192433855
 21
160.1937438471227
 31
0.0
 70
    32
  1
M<>x1.5
 71
     5
 42
65.0
  3
AM_ISO$0
100
AcDbAlignedDimension
 13
1122.822192433855
 23
169.5125204969317
 33
0.0
 14
1187.822192433855
 24
169.5125204969318
 34
0.0
100
AcDbRotatedDimension
1001
ACAD
1000
DSTYLE
1002
{
1070
    40
1040
1.0
1070
   144
1040
1.0
1070
   272
1070
     8
1002
}
  0
ENDSEC
  0
SECTION
  2
OBJECTS
  0
DICTIONARY
  5
C
330
0
100
AcDbDictionary
281
     1
  3
ACAD_COLOR
350
BE
  3
ACAD_GROUP
350
D
  3
ACAD_LAYOUT
350
1A
  3
ACAD_MATERIAL
350
BD
  3
ACAD_MLINESTYLE
350
17
  3
ACAD_PLOTSETTINGS
350
19
  3
ACAD_PLOTSTYLENAME
350
E
  3
ACAD_TABLESTYLE
350
11A
  3
ACDBHEADERROUNDTRIPXREC
350
3190
  3
AcDbVariableDictionary
350
94
  3
AcmDictionary
350
5B
  3
AMG
350
41
  3
AMGSNAPSETTINGS
350
1B8
  3
DWGPROPS
350
318F
  0
DICTIONARY
  5
3F9
330
2
100
AcDbDictionary
280
     1
281
     1
  3
ACAD_LAYERFILTERS
360
5B7
  3
ACAD_LAYERSTATES
360
1563
  3
ACLYDICTIONARY
360
5B6
  0
DICTIONARY
  5
8F
330
1F
100
AcDbDictionary
280
     1
281
     1
  3
ACAD_SORTENTS
360
9E6
  0
DICTIONARY
  5
BE
102
{ACAD_REACTORS
330
C
102
}
330
C
100
AcDbDictionary
281
     1
  0
DICTIONARY
  5
D
102
{ACAD_REACTORS
330
C
102
}
330
C
100
AcDbDictionary
281
     1
  0
DICTIONARY
  5
1A
102
{ACAD_REACTORS
330
C
102
}
330
C
100
AcDbDictionary
281
     1
  3
Model
350
22
  3
配置1
350
1E
  3
配置2
350
26
  0
DICTIONARY
  5
BD
102
{ACAD_REACTORS
330
C
102
}
330
C
100
AcDbDictionary
281
     1
  0
DICTIONARY
  5
17
102
{ACAD_REACTORS
330
C
102
}
330
C
100
AcDbDictionary
281
     1
  3
Standard
350
18
  0
DICTIONARY
  5
19
102
{ACAD_REACTORS
330
C
102
}
330
C
100
AcDbDictionary
281
     1
  0
ACDBDICTIONARYWDFLT
  5
E
102
{ACAD_REACTORS
330
C
102
}
330
C
100
AcDbDictionary
281
     1
  3
Normal
350
F
100
AcDbDictionaryWithDefault
340
F
  0
DICTIONARY
  5
11A
102
{ACAD_REACTORS
330
C
102
}
330
C
100
AcDbDictionary
281
     1
  3
Standard
350
11B
  0
DICTIONARY
  5
3190
102
{ACAD_REACTORS
330
C
102
}
330
C
100
AcDbDictionary
281
     1
  0
DICTIONARY
  5
94
102
{ACAD_REACTORS
330
C
102
}
330
C
100
AcDbDictionary
281
     1
  3
CTABLESTYLE
350
138
  3
DIMASSOC
350
96
  3
INDEXCTL
350
95
  3
PROJECTNAME
350
318D
  0
DICTIONARY
  5
5B
102
{ACAD_REACTORS
330
C
102
}
330
C
100
AcDbDictionary
281
     1
  3
AcmBOM
350
1B5
  3
AcmStdDictionary
350
61
  3
AMDTSECTSYM_ARROWCOLOR
350
123
  0
DICTIONARY
  5
41
102
{ACAD_REACTORS
330
C
102
}
330
C
100
AcDbDictionary
281
     1
  0
DICTIONARY
  5
1B8
102
{ACAD_REACTORS
330
C
102
}
330
C
100
AcDbDictionary
281
     1
  0
XRECORD
  5
318F
102
{ACAD_REACTORS
330
C
102
}
330
C
100
AcDbXrecord
280
     1
  1
DWGPROPS COOKIE
  2

  3

  4

  6

  7

  8

  9

300
AmdtFileType=84
301
=
302
=
303
=
304
=
305
=
306
=
307
=
308
=
309
=
 40
0.1206172222222222
 41
2453731.618400787
 42
2453732.445984873
  1

 90
        1
  0
DICTIONARY
  5
5B7
102
{ACAD_REACTORS
330
3F9
102
}
330
3F9
100
AcDbDictionary
281
     1
  0
DICTIONARY
  5
1563
102
{ACAD_REACTORS
330
3F9
102
}
330
3F9
100
AcDbDictionary
281
     1
  0
DICTIONARY
  5
5B6
102
{ACAD_REACTORS
330
3F9
102
}
330
3F9
100
AcDbDictionary
281
     1
1001
ACAD
1000
<All
  0
SORTENTSTABLE
  5
9E6
102
{ACAD_REACTORS
330
8F
102
}
330
8F
100
AcDbSortentsTable
330
1F
331
2A20
  5
2A20
331
1AA9
  5
1AA9
331
1AB1
  5
1AB1
331
17BA
  5
17BA
331
172C
  5
172C
331
2A28
  5
2A28
331
1AB9
  5
1AB9
331
198A
  5
198A
331
1734
  5
1734
331
29F9
  5
29F9
331
1773
  5
1773
331
173C
  5
173C
331
2A01
  5
2A01
331
177B
  5
177B
331
1744
  5
1744
331
1A9A
  5
1A9A
331
1783
  5
1783
331
2A09
  5
2A09
331
2B88
  5
2B88
331
1793
  5
1793
331
2A11
  5
2A11
331
1754
  5
1754
331
2A19
  5
2A19
331
2A21
  5
2A21
331
1AAA
  5
1AAA
331
17BB
  5
17BB
331
172D
  5
172D
331
2A29
  5
2A29
331
1ABA
  5
1ABA
331
176C
  5
176C
331
1735
  5
1735
331
1A8B
  5
1A8B
331
1774
  5
1774
331
173D
  5
173D
331
2A02
  5
2A02
331
177C
  5
177C
331
1745
  5
1745
331
1A9B
  5
1A9B
331
1784
  5
1784
331
2A0A
  5
2A0A
331
2B89
  5
2B89
331
1794
  5
1794
331
1AA3
  5
1AA3
331
2A12
  5
2A12
331
1755
  5
1755
331
2A22
  5
2A22
331
1AAB
  5
1AAB
331
172E
  5
172E
331
1ABB
  5
1ABB
331
176D
  5
176D
331
1736
  5
1736
331
29FB
  5
29FB
331
1775
  5
1775
331
173E
  5
173E
331
2A03
  5
2A03
331
177D
  5
177D
331
1746
  5
1746
331
2B82
  5
2B82
331
1A9C
  5
1A9C
331
174E
  5
174E
331
2A0B
  5
2A0B
331
2B8A
  5
2B8A
331
1795
  5
1795
331
2A13
  5
2A13
331
1756
  5
1756
331
2A1B
  5
2A1B
331
2A23
  5
2A23
331
1AAC
  5
1AAC
331
175E
  5
175E
331
1766
  5
1766
331
172F
  5
172F
331
176E
  5
176E
331
1737
  5
1737
331
1ABC
  5
1ABC
331
29FC
  5
29FC
331
1A8D
  5
1A8D
331
1776
  5
1776
331
173F
  5
173F
331
2A04
  5
2A04
331
177E
  5
177E
331
2B83
  5
2B83
331
1A9D
  5
1A9D
331
174F
  5
174F
331
1796
  5
1796
331
2A14
  5
2A14
331
1757
  5
1757
331
2A1C
  5
2A1C
331
2A24
  5
2A24
331
1AAD
  5
1AAD
331
1728
  5
1728
331
1767
  5
1767
331
1730
  5
1730
331
176F
  5
176F
331
1738
  5
1738
331
2B74
  5
2B74
331
29FD
  5
29FD
331
1A8E
  5
1A8E
331
1777
  5
1777
331
1740
  5
1740
331
1A96
  5
1A96
331
177F
  5
177F
331
2B84
  5
2B84
331
1A9E
  5
1A9E
331
2A0D
  5
2A0D
331
1797
  5
1797
331
1AA6
  5
1AA6
331
2A15
  5
2A15
331
2A1D
  5
2A1D
331
1758
  5
1758
331
2A25
  5
2A25
331
1AAE
  5
1AAE
331
1729
  5
1729
331
1768
  5
1768
331
1731
  5
1731
331
1770
  5
1770
331
1739
  5
1739
331
29FE
  5
29FE
331
1778
  5
1778
331
1741
  5
1741
331
1A97
  5
1A97
331
1780
  5
1780
331
2B85
  5
2B85
331
1A9F
  5
1A9F
331
2A0E
  5
2A0E
331
1AA7
  5
1AA7
331
2A16
  5
2A16
331
2A1E
  5
2A1E
331
17A8
  5
17A8
331
1759
  5
1759
331
2A26
  5
2A26
331
1AAF
  5
1AAF
331
17B8
  5
17B8
331
172A
  5
172A
331
1AB7
  5
1AB7
331
1732
  5
1732
331
1771
  5
1771
331
173A
  5
173A
331
29FF
  5
29FF
331
1779
  5
1779
331
1742
  5
1742
331
2A07
  5
2A07
331
1A98
  5
1A98
331
1781
  5
1781
331
174A
  5
174A
331
1791
  5
1791
331
1AA0
  5
1AA0
331
2A0F
  5
2A0F
331
2A17
  5
2A17
331
1799
  5
1799
331
2A1F
  5
2A1F
331
1AA8
  5
1AA8
331
17A9
  5
17A9
331
175A
  5
175A
331
2A27
  5
2A27
331
1AB0
  5
1AB0
331
17B9
  5
17B9
331
1762
  5
1762
331
172B
  5
172B
331
1AB8
  5
1AB8
331
1733
  5
1733
331
29F8
  5
29F8
331
1A89
  5
1A89
331
1772
  5
1772
331
173B
  5
173B
331
2B67
  5
2B67
331
2A00
  5
2A00
331
177A
  5
177A
331
1743
  5
1743
331
1A99
  5
1A99
331
1782
  5
1782
331
2A08
  5
2A08
331
2B87
  5
2B87
331
1792
  5
1792
331
1AA1
  5
1AA1
331
2A10
  5
2A10
331
1753
  5
1753
331
2A18
  5
2A18
331
179A
  5
179A
  0
LAYOUT
  5
22
102
{ACAD_XDICTIONARY
360
3193
102
}
102
{ACAD_REACTORS
330
1A
102
}
330
1A
100
AcDbPlotSettings
  1

  2
\\RD\EPSON Stylus C63 Series單色
  4
A4
  6

 40
3.757083177566528
 41
3.757076978683471
 42
3.757080078125
 43
3.757080078125
 44
209.9733276367187
 45
296.9683227539062
 46
0.0
 47
0.0
 48
0.0
 49
0.0
140
0.0
141
0.0
142
1.0
143
0.3405120737814363
 70
 11952
 72
     1
 73
     0
 74
     0
  7
單色出圖.ctb
 75
     0
147
2.936753428137963
148
-2047.07469463503
149
-1261.649717473083
100
AcDbLayout
  1
Model
 70
     1
 71
     0
 10
0.0
 20
0.0
 11
12.0
 21
9.0
 12
0.0
 22
0.0
 32
0.0
 14
0.0
 24
0.0
 34
0.0
 15
0.0
 25
0.0
 35
0.0
146
0.0
 13
0.0
 23
0.0
 33
0.0
 16
1.0
 26
0.0
 36
0.0
 17
0.0
 27
1.0
 37
0.0
 76
     0
330
1F
1001
ACAD_PSEXT
1000
\\RD\EPSON Stylus C63 Series單色
1000
EPSON Stylus C63 Series
1000
\\RD
1000

1070
     0
  0
LAYOUT
  5
1E
102
{ACAD_XDICTIONARY
360
3191
102
}
102
{ACAD_REACTORS
330
1A
102
}
330
1A
100
AcDbPlotSettings
  1

  2

  4

  6

 40
0.0
 41
0.0
 42
0.0
 43
0.0
 44
0.0
 45
0.0
 46
0.0
 47
0.0
 48
0.0
 49
0.0
140
0.0
141
0.0
142
1.0
143
1.0
 70
   688
 72
     0
 73
     0
 74
     5
  7
單色出圖.ctb
 75
    16
147
1.0
148
0.0
149
0.0
100
AcDbLayout
  1
配置1
 70
     1
 71
     1
 10
0.0
 20
0.0
 11
420.0
 21
297.0
 12
0.0
 22
0.0
 32
0.0
 14
1.000000000000000E+20
 24
1.000000000000000E+20
 34
1.000000000000000E+20
 15
-1.000000000000000E+20
 25
-1.000000000000000E+20
 35
-1.000000000000000E+20
146
0.0
 13
0.0
 23
0.0
 33
0.0
 16
1.0
 26
0.0
 36
0.0
 17
0.0
 27
1.0
 37
0.0
 76
     0
330
1B
  0
LAYOUT
  5
26
102
{ACAD_XDICTIONARY
360
3195
102
}
102
{ACAD_REACTORS
330
1A
102
}
330
1A
100
AcDbPlotSettings
  1

  2

  4

  6

 40
0.0
 41
0.0
 42
0.0
 43
0.0
 44
0.0
 45
0.0
 46
0.0
 47
0.0
 48
0.0
 49
0.0
140
0.0
141
0.0
142
1.0
143
1.0
 70
   688
 72
     0
 73
     0
 74
     5
  7
單色出圖.ctb
 75
    16
147
1.0
148
0.0
149
0.0
100
AcDbLayout
  1
配置2
 70
     1
 71
     2
 10
0.0
 20
0.0
 11
12.0
 21
9.0
 12
0.0
 22
0.0
 32
0.0
 14
0.0
 24
0.0
 34
0.0
 15
0.0
 25
0.0
 35
0.0
146
0.0
 13
0.0
 23
0.0
 33
0.0
 16
1.0
 26
0.0
 36
0.0
 17
0.0
 27
1.0
 37
0.0
 76
     0
330
23
  0
MLINESTYLE
  5
18
102
{ACAD_REACTORS
330
17
102
}
330
17
100
AcDbMlineStyle
  2
STANDARD
 70
     0
  3

 62
   256
 51
90.0
 52
90.0
 71
     2
 49
0.5
 62
   256
  6
BYLAYER
 49
-0.5
 62
   256
  6
BYLAYER
  0
ACDBPLACEHOLDER
  5
F
102
{ACAD_REACTORS
330
E
102
}
330
E
  0
TABLESTYLE
  5
11B
102
{ACAD_REACTORS
330
11A
102
}
330
11A
100
AcDbTableStyle
  3
Standard
 70
     0
 71
     0
 40
1.5
 41
1.5
280
     0
281
     0
  7
STANDARD
140
4.5
170
     2
 62
     0
 63
     7
283
     0
274
    -2
284
     1
 64
     0
275
    -2
285
     1
 65
     0
276
    -2
286
     1
 66
     0
277
    -2
287
     1
 67
     0
278
    -2
288
     1
 68
     0
279
    -2
289
     1
 69
     0
  7
STANDARD
140
6.0
170
     5
 62
     0
 63
     7
283
     0
274
    -2
284
     1
 64
     0
275
    -2
285
     1
 65
     0
276
    -2
286
     1
 66
     0
277
    -2
287
     1
 67
     0
278
    -2
288
     1
 68
     0
279
    -2
289
     1
 69
     0
  7
STANDARD
140
4.5
170
     5
 62
     0
 63
     7
283
     0
274
    -2
284
     1
 64
     0
275
    -2
285
     1
 65
     0
276
    -2
286
     1
 66
     0
277
    -2
287
     1
 67
     0
278
    -2
288
     1
 68
     0
279
    -2
289
     1
 69
     0
  0
DICTIONARYVAR
  5
138
102
{ACAD_REACTORS
330
94
102
}
330
94
100
DictionaryVariables
280
     0
  1
STANDARD
  0
DICTIONARYVAR
  5
96
102
{ACAD_REACTORS
330
94
102
}
330
94
100
DictionaryVariables
280
     0
  1
2
  0
DICTIONARYVAR
  5
95
102
{ACAD_REACTORS
330
94
102
}
330
94
100
DictionaryVariables
280
     0
  1
0
  0
DICTIONARYVAR
  5
318D
102
{ACAD_REACTORS
330
94
102
}
330
94
100
DictionaryVariables
280
     0
  1

  0
DICTIONARY
  5
1B5
102
{ACAD_REACTORS
330
5B
102
}
330
5B
100
AcDbDictionary
281
     1
  0
DICTIONARY
  5
61
102
{ACAD_REACTORS
330
5B
102
}
330
5B
100
AcDbDictionary
281
     1
  0
XRECORD
  5
123
102
{ACAD_REACTORS
330
5B
102
}
330
5B
100
AcDbXrecord
280
     1
 90
-1023410169
  0
DICTIONARY
  5
3193
330
22
100
AcDbDictionary
280
     1
281
     1
  3
ACAD_XREC_ROUNDTRIP
360
3194
  0
DICTIONARY
  5
3191
330
1E
100
AcDbDictionary
280
     1
281
     1
  3
ACAD_XREC_ROUNDTRIP
360
3192
  0
DICTIONARY
  5
3195
330
26
100
AcDbDictionary
280
     1
281
     1
  3
ACAD_XREC_ROUNDTRIP
360
3196
  0
XRECORD
  5
3194
102
{ACAD_REACTORS
330
3193
102
}
330
3193
100
AcDbXrecord
280
     1
102
SHADEPLOT
 70
     0
102
SHADEPLOTRESLEVEL
 70
     2
102
SHADEPLOTCUSTOMDPI
 70
   300
  0
XRECORD
  5
3192
102
{ACAD_REACTORS
330
3191
102
}
330
3191
100
AcDbXrecord
280
     1
102
SHADEPLOT
 70
     0
102
SHADEPLOTRESLEVEL
 70
     2
102
SHADEPLOTCUSTOMDPI
 70
   300
  0
XRECORD
  5
3196
102
{ACAD_REACTORS
330
3195
102
}
330
3195
100
AcDbXrecord
280
     1
102
SHADEPLOT
 70
     0
102
SHADEPLOTRESLEVEL
 70
     2
102
SHADEPLOTCUSTOMDPI
 70
   300
  0
ENDSEC
  0
EOF
