  0
SECTION
  2
HEADER
  9
$ACADVER
  1
AC1015
  9
$ACADMAINTVER
 70
    20
  9
$DWGCODEPAGE
  3
ANSI_950
  9
$INSBASE
 10
0.0
 20
0.0
 30
0.0
  9
$EXTMIN
 10
603.4359908715278
 20
25.09238914235311
 30
-0.0079935138433029
  9
$EXTMAX
 10
1335.617759795435
 20
825.1404293123478
 30
524.2389038779103
  9
$LIMMIN
 10
0.0
 20
0.0
  9
$LIMMAX
 10
420.0
 20
297.0
  9
$ORTHOMODE
 70
     1
  9
$REGENMODE
 70
     1
  9
$FILLMODE
 70
     1
  9
$QTEXTMODE
 70
     0
  9
$MIRRTEXT
 70
     1
  9
$LTSCALE
 40
1.0
  9
$ATTMODE
 70
     1
  9
$TEXTSIZE
 40
3.0
  9
$TRACEWID
 40
1.0
  9
$TEXTSTYLE
  7
CHINESET
  9
$CLAYER
  8
0
  9
$CELTYPE
  6
ByLayer
  9
$CECOLOR
 62
   256
  9
$CELTSCALE
 40
1.0
  9
$DISPSILH
 70
     0
  9
$DIMSCALE
 40
1.0
  9
$DIMASZ
 40
3.0
  9
$DIMEXO
 40
1.0
  9
$DIMDLI
 40
10.0
  9
$DIMRND
 40
0.0
  9
$DIMDLE
 40
0.0
  9
$DIMEXE
 40
1.5
  9
$DIMTP
 40
0.1
  9
$DIMTM
 40
0.1
  9
$DIMTXT
 40
3.0
  9
$DIMCEN
 40
0.0
  9
$DIMTSZ
 40
0.0
  9
$DIMTOL
 70
     0
  9
$DIMLIM
 70
     0
  9
$DIMTIH
 70
     0
  9
$DIMTOH
 70
     0
  9
$DIMSE1
 70
     0
  9
$DIMSE2
 70
     0
  9
$DIMTAD
 70
     1
  9
$DIMZIN
 70
     8
  9
$DIMBLK
  1

  9
$DIMASO
 70
     1
  9
$DIMSHO
 70
     1
  9
$DIMPOST
  1

  9
$DIMAPOST
  1
"
  9
$DIMALT
 70
     0
  9
$DIMALTD
 70
     2
  9
$DIMALTF
 40
0.0393701
  9
$DIMLFAC
 40
1.0
  9
$DIMTOFL
 70
     1
  9
$DIMTVP
 40
0.0
  9
$DIMTIX
 70
     0
  9
$DIMSOXD
 70
     0
  9
$DIMSAH
 70
     0
  9
$DIMBLK1
  1

  9
$DIMBLK2
  1

  9
$DIMSTYLE
  2
AM_ISO
  9
$DIMCLRD
 70
   256
  9
$DIMCLRE
 70
   256
  9
$DIMCLRT
 70
   256
  9
$DIMTFAC
 40
0.71
  9
$DIMGAP
 40
1.0
  9
$DIMJUST
 70
     0
  9
$DIMSD1
 70
     0
  9
$DIMSD2
 70
     0
  9
$DIMTOLJ
 70
     0
  9
$DIMTZIN
 70
     8
  9
$DIMALTZ
 70
     0
  9
$DIMALTTZ
 70
     0
  9
$DIMUPT
 70
     0
  9
$DIMDEC
 70
     2
  9
$DIMTDEC
 70
     8
  9
$DIMALTU
 70
     2
  9
$DIMALTTD
 70
     2
  9
$DIMTXSTY
  7
CHINESET
  9
$DIMAUNIT
 70
     0
  9
$DIMADEC
 70
     0
  9
$DIMALTRND
 40
0.0
  9
$DIMAZIN
 70
     2
  9
$DIMDSEP
 70
    46
  9
$DIMATFIT
 70
     3
  9
$DIMFRAC
 70
     0
  9
$DIMLDRBLK
  1

  9
$DIMLUNIT
 70
     2
  9
$DIMLWD
 70
    -1
  9
$DIMLWE
 70
    -1
  9
$DIMTMOVE
 70
     0
  9
$LUNITS
 70
     2
  9
$LUPREC
 70
     2
  9
$SKETCHINC
 40
1.0
  9
$FILLETRAD
 40
2.5
  9
$AUNITS
 70
     0
  9
$AUPREC
 70
     0
  9
$MENU
  1
.
  9
$ELEVATION
 40
0.0
  9
$PELEVATION
 40
0.0
  9
$THICKNESS
 40
0.0
  9
$LIMCHECK
 70
     0
  9
$CHAMFERA
 40
0.0
  9
$CHAMFERB
 40
0.0
  9
$CHAMFERC
 40
20.0
  9
$CHAMFERD
 40
0.0
  9
$SKPOLY
 70
     0
  9
$TDCREATE
 40
2453731.618400787
  9
$TDUCREATE
 40
2453731.285067453
  9
$TDUPDATE
 40
2453732.446444583
  9
$TDUUPDATE
 40
2453732.113111250
  9
$TDINDWG
 40
0.1305635069
  9
$TDUSRTIMER
 40
0.1305635069
  9
$USRTIMER
 70
     1
  9
$ANGBASE
 50
0.0
  9
$ANGDIR
 70
     0
  9
$PDMODE
 70
     0
  9
$PDSIZE
 40
0.0
  9
$PLINEWID
 40
0.0
  9
$SPLFRAME
 70
     0
  9
$SPLINETYPE
 70
     6
  9
$SPLINESEGS
 70
     8
  9
$HANDSEED
  5
384A
  9
$SURFTAB1
 70
     6
  9
$SURFTAB2
 70
     6
  9
$SURFTYPE
 70
     6
  9
$SURFU
 70
     6
  9
$SURFV
 70
     6
  9
$UCSBASE
  2

  9
$UCSNAME
  2

  9
$UCSORG
 10
0.0
 20
0.0
 30
0.0
  9
$UCSXDIR
 10
1.0
 20
0.0
 30
0.0
  9
$UCSYDIR
 10
0.0
 20
1.0
 30
0.0
  9
$UCSORTHOREF
  2

  9
$UCSORTHOVIEW
 70
     0
  9
$UCSORGTOP
 10
0.0
 20
0.0
 30
0.0
  9
$UCSORGBOTTOM
 10
0.0
 20
0.0
 30
0.0
  9
$UCSORGLEFT
 10
0.0
 20
0.0
 30
0.0
  9
$UCSORGRIGHT
 10
0.0
 20
0.0
 30
0.0
  9
$UCSORGFRONT
 10
0.0
 20
0.0
 30
0.0
  9
$UCSORGBACK
 10
0.0
 20
0.0
 30
0.0
  9
$PUCSBASE
  2

  9
$PUCSNAME
  2

  9
$PUCSORG
 10
0.0
 20
0.0
 30
0.0
  9
$PUCSXDIR
 10
1.0
 20
0.0
 30
0.0
  9
$PUCSYDIR
 10
0.0
 20
1.0
 30
0.0
  9
$PUCSORTHOREF
  2

  9
$PUCSORTHOVIEW
 70
     0
  9
$PUCSORGTOP
 10
0.0
 20
0.0
 30
0.0
  9
$PUCSORGBOTTOM
 10
0.0
 20
0.0
 30
0.0
  9
$PUCSORGLEFT
 10
0.0
 20
0.0
 30
0.0
  9
$PUCSORGRIGHT
 10
0.0
 20
0.0
 30
0.0
  9
$PUCSORGFRONT
 10
0.0
 20
0.0
 30
0.0
  9
$PUCSORGBACK
 10
0.0
 20
0.0
 30
0.0
  9
$USERI1
 70
     0
  9
$USERI2
 70
     0
  9
$USERI3
 70
     0
  9
$USERI4
 70
     0
  9
$USERI5
 70
     0
  9
$USERR1
 40
0.0
  9
$USERR2
 40
0.0
  9
$USERR3
 40
0.0
  9
$USERR4
 40
0.0
  9
$USERR5
 40
0.0
  9
$WORLDVIEW
 70
     1
  9
$SHADEDGE
 70
     3
  9
$SHADEDIF
 70
    70
  9
$TILEMODE
 70
     1
  9
$MAXACTVP
 70
    64
  9
$PINSBASE
 10
0.0
 20
0.0
 30
0.0
  9
$PLIMCHECK
 70
     0
  9
$PEXTMIN
 10
1.000000000000000E+20
 20
1.000000000000000E+20
 30
1.000000000000000E+20
  9
$PEXTMAX
 10
-1.000000000000000E+20
 20
-1.000000000000000E+20
 30
-1.000000000000000E+20
  9
$PLIMMIN
 10
0.0
 20
0.0
  9
$PLIMMAX
 10
420.0
 20
297.0
  9
$UNITMODE
 70
     0
  9
$VISRETAIN
 70
     1
  9
$PLINEGEN
 70
     0
  9
$PSLTSCALE
 70
     1
  9
$TREEDEPTH
 70
  3020
  9
$CMLSTYLE
  2
Standard
  9
$CMLJUST
 70
     0
  9
$CMLSCALE
 40
20.0
  9
$PROXYGRAPHICS
 70
     1
  9
$MEASUREMENT
 70
     1
  9
$CELWEIGHT
370
    -1
  9
$ENDCAPS
280
     0
  9
$JOINSTYLE
280
     0
  9
$LWDISPLAY
290
     0
  9
$INSUNITS
 70
     4
  9
$HYPERLINKBASE
  1

  9
$STYLESHEET
  1
彩色出圖.ctb
  9
$XEDIT
290
     1
  9
$CEPSNTYPE
380
     0
  9
$PSTYLEMODE
290
     1
  9
$FINGERPRINTGUID
  2
{0D855794-04CD-42EC-BA89-F7EABE2626E6}
  9
$VERSIONGUID
  2
{674007AC-BB16-479F-9A1A-CECA41D545DC}
  9
$EXTNAMES
290
     1
  9
$PSVPSCALE
 40
0.0
  9
$OLESTARTUP
290
     0
  0
ENDSEC
  0
SECTION
  2
CLASSES
  0
CLASS
  1
ACDBDICTIONARYWDFLT
  2
AcDbDictionaryWithDefault
  3
ObjectDBX Classes
 90
        0
280
     0
281
     0
  0
CLASS
  1
ACDBPLACEHOLDER
  2
AcDbPlaceHolder
  3
ObjectDBX Classes
 90
        0
280
     0
281
     0
  0
CLASS
  1
LAYOUT
  2
AcDbLayout
  3
ObjectDBX Classes
 90
        0
280
     0
281
     0
  0
CLASS
  1
ACME_DOCUMENT
  2
AcMeDbDoc
  3
AcMeServices
 90
        0
280
     0
281
     0
  0
CLASS
  1
AMGSETTINGSOBJ
  2
AmgSettingsObj
  3
"AcadM|Product Description: AutoCAD Mechanical 2000|Company: Autodesk"
 90
        0
280
     0
281
     0
  0
CLASS
  1
ACMESCOPE
  2
AcMeScope
  3
AcMeServices
 90
        0
280
     0
281
     0
  0
CLASS
  1
ACMECOMMANDHISTORY
  2
AcMeCommandHistory
  3
AcMeServices
 90
        0
280
     0
281
     0
  0
CLASS
  1
ACIMSYSVARMAN
  2
AcImSysVarManager
  3
AcMeServices
 90
        0
280
     0
281
     0
  0
CLASS
  1
ACIMREALSYSVAR
  2
AcImRealSysVar
  3
AcMeServices
 90
        0
280
     0
281
     0
  0
CLASS
  1
ACIMINTSYSVAR
  2
AcImIntSysVar
  3
AcMeServices
 90
        0
280
     0
281
     0
  0
CLASS
  1
ACMEDRAWINGMAN
  2
AcMeDrawingMan
  3
AcMeServices
 90
        0
280
     0
281
     0
  0
CLASS
  1
ACMEVIEW
  2
AcMeView
  3
AcMeServices
 90
        0
280
     0
281
     0
  0
CLASS
  1
ACDBENTITYCACHE
  2
AcMeEntityCache
  3
AcMeServices
 90
        0
280
     0
281
     0
  0
CLASS
  1
GSMANAGER
  2
AcMeGSManager
  3
AcMeServices
 90
        0
280
     0
281
     0
  0
CLASS
  1
AMDTINTERNALREACTOR
  2
AmdtInternalReactor
  3
AcMeServices
 90
        0
280
     0
281
     0
  0
CLASS
  1
ACMESTATEMGR
  2
AcMeStateMgr
  3
AcMeServices
 90
        0
280
     0
281
     0
  0
CLASS
  1
ACGREFMASTER
  2
AcGrefMaster
  3
AcAttribServices
 90
        0
280
     0
281
     0
  0
CLASS
  1
ACME_DATABASE
  2
AcMeDbDatabase
  3
AcMeServices
 90
        0
280
     0
281
     0
  0
CLASS
  1
ACRFINSADJUSTERMGR
  2
AcRfInsAdjusterMgr
  3
AcMeServices
 90
        0
280
     0
281
     0
  0
CLASS
  1
ACGREFACADMASTER
  2
AcGrefacadMaster
  3
AcGrefServices
 90
        0
280
     0
281
     0
  0
CLASS
  1
AMIMASTER
  2
AmiMaster
  3
AmiServices
 90
        0
280
     0
281
     0
  0
CLASS
  1
ACMDATADICTIONARY
  2
AcmDataDictionary
  3
"AcmSymBB|Product Description: AutoCAD Mechanical 2004 DX|Company: Autodesk"
 90
        0
280
     0
281
     0
  0
CLASS
  1
ACMDATAENTRYBLOCK
  2
AcmDataEntryBlock
  3
"AcmSymBB|Product Description: AutoCAD Mechanical 2004 DX|Company: Autodesk"
 90
        0
280
     0
281
     0
  0
CLASS
  1
ACIMSTRSYSVAR
  2
AcImStrSysVar
  3
AcMeServices
 90
        0
280
     0
281
     0
  0
CLASS
  1
ACMSTANDARDISO
  2
AcmStandardISO
  3
"Amdt_StdImp|Product Description: AutoCAD Mechanical 2004 DX|Company: Autodesk"
 90
        0
280
     0
281
     0
  0
CLASS
  1
AMGOBJPROPCFG
  2
AmgObjPropCfg
  3
"AmgLay|Product Description: AutoCAD Mechanical 2000|Company: Autodesk"
 90
        1
280
     0
281
     0
  0
CLASS
  1
AMDTEDGESTANDARDISO
  2
AmdtEdgeStdISO
  3
"Amdt_StdImp|Product Description: AutoCAD Mechanical 2004 DX|Company: Autodesk"
 90
        0
280
     0
281
     0
  0
CLASS
  1
ACMSURFSTANDARDISO
  2
AcmSurfTextStdISO
  3
"Amdt_StdImp|Product Description: AutoCAD Mechanical 2004 DX|Company: Autodesk"
 90
        0
280
     0
281
     0
  0
CLASS
  1
ACMFCFSTANDARDISO
  2
AcmFCFStdISO
  3
"Amdt_StdImp|Product Description: AutoCAD Mechanical 2004 DX|Company: Autodesk"
 90
        0
280
     0
281
     0
  0
CLASS
  1
ACMWELDSTANDARDISO
  2
AcmWeldingStdISO
  3
"Amdt_StdImp|Product Description: AutoCAD Mechanical 2004 DX|Company: Autodesk"
 90
        0
280
     0
281
     0
  0
CLASS
  1
ACMIDSTANDARDISO
  2
AcmIdStdISO
  3
"Amdt_StdImp|Product Description: AutoCAD Mechanical 2004 DX|Company: Autodesk"
 90
        0
280
     0
281
     0
  0
CLASS
  1
ACMDATUMSTANDARDISO
  2
AcmDatumStdISO
  3
"Amdt_StdImp|Product Description: AutoCAD Mechanical 2004 DX|Company: Autodesk"
 90
        0
280
     0
281
     0
  0
CLASS
  1
ACMBOMSTANDARDISO
  2
AcmBOMStdISO
  3
"Amdt_StdImp|Product Description: AutoCAD Mechanical 2004 DX|Company: Autodesk"
 90
        0
280
     0
281
     0
  0
CLASS
  1
ACMDETAILSTANDARDISO
  2
AmdtDetailSymStdISO
  3
"Amdt_StdImp|Product Description: AutoCAD Mechanical 2004 DX|Company: Autodesk"
 90
        0
280
     0
281
     0
  0
CLASS
  1
ACMSECTIONSTANDARDISO
  2
AmdtSectionSymStdISO
  3
"Amdt_StdImp|Product Description: AutoCAD Mechanical 2004 DX|Company: Autodesk"
 90
        0
280
     0
281
     0
  0
CLASS
  1
ACMCENTERLINESTANDARDISO
  2
AmdtCenterLineStdISO
  3
"Amdt_StdImp|Product Description: AutoCAD Mechanical 2004 DX|Company: Autodesk"
 90
        0
280
     0
281
     0
  0
CLASS
  1
ACMNOTESTANDARDISO
  2
AmdtNoteStdISO
  3
"Amdt_StdImp|Product Description: AutoCAD Mechanical 2004 DX|Company: Autodesk"
 90
        0
280
     0
281
     0
  0
CLASS
  1
ACAMGLAYSTD
  2
AcAmgLayStd
  3
"AcAmgLayStd|Product Description: AutoCAD Mechanical 2000|Company: Autodesk"
 90
        0
280
     0
281
     0
  0
CLASS
  1
ACAMGDIMSTD
  2
AcAmgDimStd
  3
"AcAmgDimStd|Product Description: AutoCAD Mechanical 2000|Company: Autodesk"
 90
        0
280
     0
281
     0
  0
CLASS
  1
ACAMGHOLECHARTSTDISO
  2
AcAmgHoleChartStdISO
  3
ACMSYMBB_MODULE_NAME
 90
        0
280
     0
281
     0
  0
CLASS
  1
ACAMGTITLESTD
  2
AcAmgTitleStd
  3
"TITLEAPP"
 90
        0
280
     0
281
     0
  0
CLASS
  1
LAYER_INDEX
  2
AcDbLayerIndex
  3
ObjectDBX Classes
 90
    32768
280
     0
281
     0
  0
CLASS
  1
IDBUFFER
  2
AcDbIdBuffer
  3
ObjectDBX Classes
 90
    32768
280
     0
281
     0
  0
CLASS
  1
DICTIONARYVAR
  2
AcDbDictionaryVar
  3
ObjectDBX Classes
 90
        0
280
     0
281
     0
  0
CLASS
  1
AM_DRAWING_MGR
  2
AcDmDwgMgr
  3
AcMechDwgViewMgmt
 90
        0
280
     0
281
     0
  0
CLASS
  1
AM_DWG_DOCUMENT
  2
AcDmDwgDocument
  3
AcMechDwgViewMgmt
 90
        0
280
     0
281
     0
  0
CLASS
  1
AM_DWG_SHEET
  2
AcDmSheet
  3
AcMechDwgViewMgmt
 90
        0
280
     0
281
     0
  0
CLASS
  1
AM_VIEWDIMPARMAP
  2
AcDmViewDimParMap
  3
AcMechDwgViewMgmt
 90
        0
280
     0
281
     0
  0
CLASS
  1
AM_DWGMGR_NAME
  2
AcDmDwgMgrName
  3
AcMechDwgViewMgmt
 90
        0
280
     0
281
     0
  0
CLASS
  1
AMDTMENUSTATEMGR
  2
AmdtMenuStateMgr
  3
McadcomServices
 90
        0
280
     0
281
     0
  0
CLASS
  1
AMDTMCOMMENUSTATE
  2
AmdtMcomMenuState
  3
McadcomServices
 90
        0
280
     0
281
     0
  0
CLASS
  1
MAPIAMMOUDLE
  2
MApiAmModule
  3
MApiAmServices
 90
        0
280
     0
281
     0
  0
CLASS
  1
AMDTADMENUSTATE
  2
AmdtAdMenuState
  3
DesignerServices
 90
        0
280
     0
281
     0
  0
CLASS
  1
ADAPPL
  2
AcAdAppl
  3
DesignerServices
 90
        0
280
     0
281
     0
  0
CLASS
  1
DEPMGR
  2
AcAdDepMgr
  3
DesignerServices
 90
        0
280
     0
281
     0
  0
CLASS
  1
PARAMMGR
  2
AcAdParamMgr
  3
DesignerServices
 90
        0
280
     0
281
     0
  0
CLASS
  1
PARAMSCOPE
  2
AcAdParamScope
  3
DesignerServices
 90
        0
280
     0
281
     0
  0
CLASS
  1
NAMEDAPPL
  2
AcAdNamedAppl
  3
DesignerServices
 90
        0
280
     0
281
     0
  0
CLASS
  1
AMDTDMMENUSTATE
  2
AmdtDmMenuState
  3
AcMechDwgViewMgmt
 90
        0
280
     0
281
     0
  0
CLASS
  1
AMDTAMMENUSTATE
  2
AmdtAmMenuState
  3
DesignerAssemblies
 90
        0
280
     0
281
     0
  0
CLASS
  1
ACAMPROJECT
  2
AcAmProject
  3
DesignerAssemblies
 90
        0
280
     0
281
     0
  0
CLASS
  1
ACAMGRCOMPDEF
  2
AcAmGrCompDef
  3
DesignerAssemblies
 90
        0
280
     0
281
     0
  0
CLASS
  1
ACCMCONTEXT
  2
AcCmContext
  3
DesignerAssemblies
 90
        0
280
     0
281
     0
  0
CLASS
  1
ACAMCOMPDEF
  2
AcAmCompDef
  3
DesignerAssemblies
 90
        0
280
     0
281
     0
  0
CLASS
  1
ACAMCOMPDEFMGR
  2
AcAmCompDefMgr
  3
DesignerAssemblies
 90
        0
280
     0
281
     0
  0
CLASS
  1
AMCONTEXTMGR
  2
AcAmContextMgr
  3
DesignerAssemblies
 90
        0
280
     0
281
     0
  0
CLASS
  1
ACAMCONTEXTMODELER
  2
AcAmContextModeler
  3
DesignerAssemblies
 90
        0
280
     0
281
     0
  0
CLASS
  1
ACMTHREADLINESTANDARDISO
  2
AmdtThreadLineStdISO
  3
"Amdt_StdImp|Product Description: AutoCAD Mechanical 2004 DX|Company: Autodesk"
 90
        0
280
     0
281
     0
  0
CLASS
  1
CATALOGSTATE
  2
AcAmCatalogState
  3
DesignerAssemblies
 90
        0
280
     0
281
     0
  0
CLASS
  1
ACAMGRCOMPDEFSET
  2
AcAmGrCompDefSet
  3
DesignerAssemblies
 90
        0
280
     0
281
     0
  0
CLASS
  1
AMDTBROWSERDBTAB
  2
AmdtBrowserDbTab
  3
McadcomServices
 90
        0
280
     0
281
     0
  0
CLASS
  1
CBROWSERAPPOBJECT
  2
CBrowserAppObject
  3
McadcomServices
 90
        0
280
     0
281
     0
  0
CLASS
  1
DM_PLACEHOLDER
  2
AcDmSelsetPlaceholder
  3
AcMechDwgViewMgmt
 90
        0
280
     0
281
     0
  0
CLASS
  1
TABLESTYLE
  2
AcDbTableStyle
  3
ObjectDBX Classes
 90
     2047
280
     0
281
     0
  0
CLASS
  1
VAACXREFPANELOBJECT
  2
VaAcXREFPanelObject
  3
VAAC_ADDIN
 90
    32768
280
     0
281
     0
  0
CLASS
  1
VAACIMAGEINVENTORY
  2
VaAcImageInventory
  3
VAAC_ADDIN
 90
    32768
280
     0
281
     0
  0
CLASS
  1
AMDTNOTETEMPLATEDB
  2
AmdtNoteTemplateDB
  3
AMDT_STDIMP_MODULE_NAME
 90
        0
280
     0
281
     0
  0
CLASS
  1
ACMBOM
  2
AcmBom
  3
"AcmSymBB|Product Description: AutoCAD Mechanical 2004 DX|Company: Autodesk"
 90
    32768
280
     0
281
     0
  0
CLASS
  1
AMDTFORMULAUPDATEDISPATCHER
  2
AmdtFormulaUpdateDispatcher
  3
AcMeServices
 90
    32768
280
     0
281
     0
  0
CLASS
  1
ACMPARTLIST
  2
AcmPartList
  3
"AcmSymBB|Product Description: AutoCAD Mechanical 2004 DX|Company: Autodesk"
 90
    33791
280
     0
281
     1
  0
CLASS
  1
ACAMGFILTERDAT
  2
AcAmgFilterDat
  3
"AcadM|Product Description: AutoCAD Mechanical 2000|Company: Autodesk"
 90
        0
280
     0
281
     0
  0
CLASS
  1
DIMASSOC
  2
AcDbDimAssoc
  3
"AcDbDimAssoc|Product Desc:     AcDim ARX App For Dimension|Company:          Autodesk, Inc.|WEB Address:      www.autodesk.com"
 90
        0
280
     0
281
     0
  0
CLASS
  1
ACMSTANDARDANSI
  2
AcmStandardANSI
  3
"Amdt_StdImp|Product Description: AutoCAD Mechanical 2004 DX|Company: Autodesk"
 90
        0
280
     0
281
     0
  0
CLASS
  1
ACMSURFSTANDARDANSI
  2
AcmSurfTextStdANSI
  3
"Amdt_StdImp|Product Description: AutoCAD Mechanical 2004 DX|Company: Autodesk"
 90
        0
280
     0
281
     0
  0
CLASS
  1
ACMFCFSTANDARDANSI
  2
AcmFCFStdANSI
  3
"Amdt_StdImp|Product Description: AutoCAD Mechanical 2004 DX|Company: Autodesk"
 90
        0
280
     0
281
     0
  0
CLASS
  1
ACMWELDSTANDARDANSI
  2
AcmWeldingStdANSI
  3
"Amdt_StdImp|Product Description: AutoCAD Mechanical 2004 DX|Company: Autodesk"
 90
        0
280
     0
281
     0
  0
CLASS
  1
ACMIDSTANDARDANSI
  2
AcmIdStdANSI
  3
"Amdt_StdImp|Product Description: AutoCAD Mechanical 2004 DX|Company: Autodesk"
 90
        0
280
     0
281
     0
  0
CLASS
  1
ACMDATUMSTANDARDANSI
  2
AcmDatumStdANSI
  3
"Amdt_StdImp|Product Description: AutoCAD Mechanical 2004 DX|Company: Autodesk"
 90
        0
280
     0
281
     0
  0
CLASS
  1
ACMBOMSTANDARDANSI
  2
AcmBOMStdANSI
  3
"Amdt_StdImp|Product Description: AutoCAD Mechanical 2004 DX|Company: Autodesk"
 90
        0
280
     0
281
     0
  0
CLASS
  1
ACMDETAILSTANDARDANSI
  2
AmdtDetailSymStdANSI
  3
"Amdt_StdImp|Product Description: AutoCAD Mechanical 2004 DX|Company: Autodesk"
 90
        0
280
     0
281
     0
  0
CLASS
  1
ACMSECTIONSTANDARDANSI
  2
AmdtSectionSymStdANSI
  3
"Amdt_StdImp|Product Description: AutoCAD Mechanical 2004 DX|Company: Autodesk"
 90
        0
280
     0
281
     0
  0
CLASS
  1
ACMCENTERLINESTANDARDANSI
  2
AmdtCenterLineStdANSI
  3
"Amdt_StdImp|Product Description: AutoCAD Mechanical 2004 DX|Company: Autodesk"
 90
        0
280
     0
281
     0
  0
CLASS
  1
ACMTHREADLINESTANDARDANSI
  2
AmdtThreadLineStdANSI
  3
"Amdt_StdImp|Product Description: AutoCAD Mechanical 2004 DX|Company: Autodesk"
 90
        0
280
     0
281
     0
  0
CLASS
  1
ACMNOTESTANDARDANSI
  2
AmdtNoteStdANSI
  3
"Amdt_StdImp|Product Description: AutoCAD Mechanical 2004 DX|Company: Autodesk"
 90
        0
280
     0
281
     0
  0
CLASS
  1
ACAMGHOLECHARTSTDANSI
  2
AcAmgHoleChartStdANSI
  3
ACMSYMBB_MODULE_NAME
 90
        0
280
     0
281
     0
  0
CLASS
  1
SORTENTSTABLE
  2
AcDbSortentsTable
  3
ObjectDBX Classes
 90
        0
280
     0
281
     0
  0
CLASS
  1
ACRFATTGENMGR
  2
AcRfAttGeneralMgr
  3
AcAttribServices
 90
        0
280
     0
281
     0
  0
ENDSEC
  0
SECTION
  2
TABLES
  0
TABLE
  2
VPORT
  5
8
330
0
100
AcDbSymbolTable
 70
     4
  0
VPORT
  5
3841
330
8
100
AcDbSymbolTableRecord
100
AcDbViewportTableRecord
  2
*Active
 70
     0
 10
0.0
 20
0.0
 11
1.0
 21
1.0
 12
969.516019015967
 22
425.1043923235585
 13
0.0
 23
0.0
 14
2.5
 24
2.5
 15
10.0
 25
10.0
 16
0.0
 26
0.0
 36
1.0
 17
0.0
 27
0.0
 37
0.0
 40
809.1436222194959
 41
1.817669172932331
 42
50.0
 43
0.0
 44
0.0
 50
0.0
 51
0.0
 71
     0
 72
   100
 73
     1
 74
     3
 75
     0
 76
     0
 77
     0
 78
     0
281
     0
 65
     1
110
0.0
120
0.0
130
0.0
111
1.0
121
0.0
131
0.0
112
0.0
122
1.0
132
0.0
 79
     0
146
0.0
  0
ENDTAB
  0
TABLE
  2
LTYPE
  5
5
330
0
100
AcDbSymbolTable
 70
    16
  0
LTYPE
  5
14
330
5
100
AcDbSymbolTableRecord
100
AcDbLinetypeTableRecord
  2
ByBlock
 70
     0
  3

 72
    65
 73
     0
 40
0.0
  0
LTYPE
  5
15
330
5
100
AcDbSymbolTableRecord
100
AcDbLinetypeTableRecord
  2
ByLayer
 70
     0
  3

 72
    65
 73
     0
 40
0.0
  0
LTYPE
  5
16
330
5
100
AcDbSymbolTableRecord
100
AcDbLinetypeTableRecord
  2
Continuous
 70
     0
  3
Solid line
 72
    65
 73
     0
 40
0.0
  0
LTYPE
  5
64
330
5
100
AcDbSymbolTableRecord
100
AcDbLinetypeTableRecord
  2
AM_ISO02W050
 70
     0
  3
__ __ __ __ __ __ __ __ __ __ __ __ __ __ __
 72
    65
 73
     2
 40
7.5
 49
6.0
 74
     0
 49
-1.5
 74
     0
  0
LTYPE
  5
65
330
5
100
AcDbSymbolTableRecord
100
AcDbLinetypeTableRecord
  2
AM_ISO08W050
 70
     0
  3
____ . ____ . ____ . ____ . ____ . ____ . ____
 72
    65
 73
     4
 40
18.0
 49
12.0
 74
     0
 49
-1.5
 74
     0
 49
3.0
 74
     0
 49
-1.5
 74
     0
  0
LTYPE
  5
66
330
5
100
AcDbSymbolTableRecord
100
AcDbLinetypeTableRecord
  2
AM_ISO09W050
 70
     0
  3
_____ . . _____ . . _____ . . ____ .. ____
 72
    65
 73
     6
 40
22.5
 49
12.0
 74
     0
 49
-1.5
 74
     0
 49
3.0
 74
     0
 49
-1.5
 74
     0
 49
3.0
 74
     0
 49
-1.5
 74
     0
  0
LTYPE
  5
67
330
5
100
AcDbSymbolTableRecord
100
AcDbLinetypeTableRecord
  2
Amconstr
 70
     0
  3
_______________________
 72
    65
 73
     2
 40
9999.0
 49
9999.0
 74
     0
 49
0.0
 74
     0
  0
LTYPE
  5
68
330
5
100
AcDbSymbolTableRecord
100
AcDbLinetypeTableRecord
  2
AM_ISO08W050x2
 70
     0
  3
__ . __ . __ . __ . __ . __
 72
    65
 73
     4
 40
9.0
 49
6.0
 74
     0
 49
-0.75
 74
     0
 49
1.5
 74
     0
 49
-0.75
 74
     0
  0
LTYPE
  5
69
330
5
100
AcDbSymbolTableRecord
100
AcDbLinetypeTableRecord
  2
AM_ISO02W050x2
 70
     0
  3
 _ _ _ _ _ _ _ _ _ _ _ _
 72
    65
 73
     2
 40
3.75
 49
3.0
 74
     0
 49
-0.75
 74
     0
  0
LTYPE
  5
6C
330
5
100
AcDbSymbolTableRecord
100
AcDbLinetypeTableRecord
  2
Amzigzag
 70
     0
  3
/\/-/\/-/\/-/\/-/\/-/\/
 72
    65
 73
     2
 40
11.0001
 49
0.0001
 74
     4
 75
   135
340
6B
 46
0.04
 50
0.0
 44
0.0
 45
0.0
 49
-11.0
 74
     0
  0
LTYPE
  5
7A
330
5
100
AcDbSymbolTableRecord
100
AcDbLinetypeTableRecord
  2
ACISOWELD
 70
     0
  3
_ _ _ _ _
 72
    65
 73
     2
 40
2.0
 49
2.0
 74
     0
 49
-1.0
 74
     0
  0
LTYPE
  5
7B
330
5
100
AcDbSymbolTableRecord
100
AcDbLinetypeTableRecord
  2
ACISOTGB
 70
     0
  3
__ . . __ . .
 72
    65
 73
     6
 40
9.0
 49
4.0
 74
     0
 49
-1.0
 74
     0
 49
1.0
 74
     0
 49
-1.0
 74
     0
 49
1.0
 74
     0
 49
-1.0
 74
     0
  0
LTYPE
  5
7C
330
5
100
AcDbSymbolTableRecord
100
AcDbLinetypeTableRecord
  2
ACISOTGL
 70
     0
  3
_ _ _ _ _
 72
    65
 73
     2
 40
3.0
 49
2.0
 74
     0
 49
-1.0
 74
     0
  0
LTYPE
  5
7E
330
5
100
AcDbSymbolTableRecord
100
AcDbLinetypeTableRecord
  2
CENTER
 70
     0
  3
__ . __
 72
    65
 73
     4
 40
7.0
 49
4.0
 74
     0
 49
-1.0
 74
     0
 49
1.0
 74
     0
 49
-1.0
 74
     0
  0
LTYPE
  5
D8
330
5
100
AcDbSymbolTableRecord
100
AcDbLinetypeTableRecord
  2
HIDDEN
 70
     0
  3
Hidden __ __ __ __ __ __ __ __ __ __ __ __ __ _
 72
    65
 73
     2
 40
9.524999999999998
 49
6.349999999999999
 74
     0
 49
-3.174999999999999
 74
     0
  0
LTYPE
  5
D9
330
5
100
AcDbSymbolTableRecord
100
AcDbLinetypeTableRecord
  2
PHANTOM2
 70
     0
  3
Phantom (.5x) ___ _ _ ___ _ _ ___ _ _ ___ _ _
 72
    65
 73
     6
 40
31.75
 49
15.875
 74
     0
 49
-3.174999999999999
 74
     0
 49
3.174999999999999
 74
     0
 49
-3.174999999999999
 74
     0
 49
3.174999999999999
 74
     0
 49
-3.174999999999999
 74
     0
  0
LTYPE
  5
7F5
330
5
100
AcDbSymbolTableRecord
100
AcDbLinetypeTableRecord
  2
ACANSTGB
 70
     0
  3
__ . . __ . .
 72
    65
 73
     6
 40
0.35433070866
 49
0.15748031496
 74
     0
 49
-0.03937007874
 74
     0
 49
0.03937007874
 74
     0
 49
-0.03937007874
 74
     0
 49
0.03937007874
 74
     0
 49
-0.03937007874
 74
     0
  0
LTYPE
  5
7F6
330
5
100
AcDbSymbolTableRecord
100
AcDbLinetypeTableRecord
  2
ACANSTGL
 70
     0
  3
_ _ _ _ _
 72
    65
 73
     2
 40
0.11811023622
 49
0.07874015748
 74
     0
 49
-0.03937007874
 74
     0
  0
ENDTAB
  0
TABLE
  2
LAYER
  5
2
102
{ACAD_XDICTIONARY
360
3F9
102
}
330
0
100
AcDbSymbolTable
 70
     5
  0
LAYER
  5
10
330
2
100
AcDbSymbolTableRecord
100
AcDbLayerTableRecord
  2
0
 70
     0
 62
     7
  6
Continuous
370
    -3
390
F
  0
LAYER
  5
8B2
330
2
100
AcDbSymbolTableRecord
100
AcDbLayerTableRecord
  2
AM_7
 70
     0
 62
     1
  6
CENTER
370
    25
390
F
  0
LAYER
  5
1083
330
2
100
AcDbSymbolTableRecord
100
AcDbLayerTableRecord
  2
AM_5
 70
     0
 62
     5
  6
Continuous
370
    50
390
F
  0
LAYER
  5
1093
330
2
100
AcDbSymbolTableRecord
100
AcDbLayerTableRecord
  2
Defpoints
 70
     0
 62
     7
  6
Continuous
290
     0
370
    -3
390
F
  0
LAYER
  5
1560
330
2
100
AcDbSymbolTableRecord
100
AcDbLayerTableRecord
  2
LOGO
 70
     0
 62
     7
  6
Continuous
370
    -3
390
F
  0
ENDTAB
  0
TABLE
  2
STYLE
  5
3
330
0
100
AcDbSymbolTable
 70
     9
  0
STYLE
  5
11
330
3
100
AcDbSymbolTableRecord
100
AcDbTextStyleTableRecord
  2
STANDARD
 70
     0
 40
0.0
 41
1.0
 50
0.0
 71
     0
 42
3.0
  3
ISOCP.SHX
  4
CHINESET.SHX
  0
STYLE
  5
6B
330
3
100
AcDbSymbolTableRecord
100
AcDbTextStyleTableRecord
  2

 70
     1
 40
0.0
 41
1.0
 50
0.0
 71
     0
 42
2.5
  3
ltypeshp.shx
  4

  0
STYLE
  5
6D
330
3
100
AcDbSymbolTableRecord
100
AcDbTextStyleTableRecord
  2
ACISOTS
 70
     0
 40
1.0
 41
1.0
 50
0.0
 71
     0
 42
1.0
  3
isocp.shx
  4
chineset.shx
  0
STYLE
  5
79
330
3
100
AcDbSymbolTableRecord
100
AcDbTextStyleTableRecord
  2
ACISOGDT
 70
     0
 40
0.0
 41
1.0
 50
0.0
 71
     0
 42
2.5
  3
amgdt.shx
  4
chineset.shx
  0
STYLE
  5
60C
330
3
100
AcDbSymbolTableRecord
100
AcDbTextStyleTableRecord
  2
CHINESET
 70
     0
 40
0.0
 41
0.75
 50
0.0
 71
     0
 42
3.0
  3
simplex.shx
  4
CHINESET.SHX
  0
STYLE
  5
7F9
330
3
100
AcDbSymbolTableRecord
100
AcDbTextStyleTableRecord
  2
ACANSTS
 70
     0
 40
1.0
 41
1.0
 50
0.0
 71
     0
 42
5.84703234913793
  3
romans.shx
  4
chineset.shx
  0
STYLE
  5
7FA
330
3
100
AcDbSymbolTableRecord
100
AcDbTextStyleTableRecord
  2
ACANSGDT
 70
     0
 40
0.0
 41
1.0
 50
0.0
 71
     0
 42
5.84703234913793
  3
amgdtans.shx
  4

  0
ENDTAB
  0
TABLE
  2
VIEW
  5
6
330
0
100
AcDbSymbolTable
 70
     0
  0
ENDTAB
  0
TABLE
  2
UCS
  5
7
330
0
100
AcDbSymbolTable
 70
     0
  0
ENDTAB
  0
TABLE
  2
APPID
  5
9
330
0
100
AcDbSymbolTable
 70
    19
  0
APPID
  5
12
330
9
100
AcDbSymbolTableRecord
100
AcDbRegAppTableRecord
  2
ACAD
 70
     0
  0
APPID
  5
46
330
9
100
AcDbSymbolTableRecord
100
AcDbRegAppTableRecord
  2
MCAD_NO_VIS
 70
     0
  0
APPID
  5
47
330
9
100
AcDbSymbolTableRecord
100
AcDbRegAppTableRecord
  2
ACAD_TEMP_GRAPHIC
 70
     0
  0
APPID
  5
58
330
9
100
AcDbSymbolTableRecord
100
AcDbRegAppTableRecord
  2
ACATTRIBSERVICES
 70
     0
  0
APPID
  5
EE
330
9
100
AcDbSymbolTableRecord
100
AcDbRegAppTableRecord
  2
AD_DRAW
 70
     0
  0
APPID
  5
10C
330
9
100
AcDbSymbolTableRecord
100
AcDbRegAppTableRecord
  2
DESIGNERASSEMBLIES
 70
     0
  0
APPID
  5
111
330
9
100
AcDbSymbolTableRecord
100
AcDbRegAppTableRecord
  2
ACADM_DIM_EDIT
 70
     0
  0
APPID
  5
112
330
9
100
AcDbSymbolTableRecord
100
AcDbRegAppTableRecord
  2
AMDT_DM_ADJ
 70
     0
  0
APPID
  5
22C
330
9
100
AcDbSymbolTableRecord
100
AcDbRegAppTableRecord
  2
ACAD_DSTYLE_DIMTEXT_FILL
 70
     0
  0
APPID
  5
452
330
9
100
AcDbSymbolTableRecord
100
AcDbRegAppTableRecord
  2
GENIUS_GENOENT_13
 70
     0
  0
APPID
  5
453
330
9
100
AcDbSymbolTableRecord
100
AcDbRegAppTableRecord
  2
GENIUS_GENOBJ-N-CRS_13
 70
     0
  0
APPID
  5
454
330
9
100
AcDbSymbolTableRecord
100
AcDbRegAppTableRecord
  2
GENIUS_GENOLIS_13
 70
     0
  0
APPID
  5
455
330
9
100
AcDbSymbolTableRecord
100
AcDbRegAppTableRecord
  2
GENIUS_GENODEF_13
 70
     0
  0
APPID
  5
456
330
9
100
AcDbSymbolTableRecord
100
AcDbRegAppTableRecord
  2
GENIUS_GENOREF_13
 70
     0
  0
APPID
  5
6F3
330
9
100
AcDbSymbolTableRecord
100
AcDbRegAppTableRecord
  2
ACAD_PSEXT
 70
     0
  0
APPID
  5
8B4
330
9
100
AcDbSymbolTableRecord
100
AcDbRegAppTableRecord
  2
GENIUS_GENOBJ-N-CEN_13
 70
     0
  0
APPID
  5
8B5
330
9
100
AcDbSymbolTableRecord
100
AcDbRegAppTableRecord
  2
GENIUS_GENCEN_19
 70
     0
  0
APPID
  5
1561
330
9
100
AcDbSymbolTableRecord
100
AcDbRegAppTableRecord
  2
GENIUS_GENREC_14
 70
     0
  0
APPID
  5
1562
330
9
100
AcDbSymbolTableRecord
100
AcDbRegAppTableRecord
  2
GENIUS_GENOBJ-N-REC_13
 70
     0
  0
ENDTAB
  0
TABLE
  2
DIMSTYLE
  5
A
330
0
100
AcDbSymbolTable
 70
    16
100
AcDbDimStyleTable
 71
     3
340
81
340
8B
340
86
  0
DIMSTYLE
105
81
330
A
100
AcDbSymbolTableRecord
100
AcDbDimStyleTableRecord
  2
AM_ISO
 70
     0
  4
"
 41
3.0
 42
1.0
 43
10.0
 44
1.5
 47
0.1
 48
0.1
 73
     0
 74
     0
 77
     1
 78
     8
 79
     2
140
3.0
141
0.0
143
0.0393701
146
0.71
147
1.0
172
     1
176
   256
177
   256
178
   256
271
     2
272
     2
283
     0
284
     8
340
60C
371
    -1
372
    -1
  0
DIMSTYLE
105
82
330
A
100
AcDbSymbolTableRecord
100
AcDbDimStyleTableRecord
  2
AM_ISO$3
 70
     0
  4
"
 41
3.0
 42
1.0
 43
10.0
 44
1.5
 47
0.1
 48
0.1
 73
     0
 77
     1
 78
     8
 79
     2
140
3.0
141
0.0
143
0.0393701
146
0.71
147
1.0
176
   256
177
   256
178
   256
271
     2
272
     2
283
     0
284
     8
288
     1
289
     0
340
60C
371
    -1
372
    -1
  0
DIMSTYLE
105
83
330
A
100
AcDbSymbolTableRecord
100
AcDbDimStyleTableRecord
  2
AM_ISO$4
 70
     0
  4
"
 41
3.0
 42
1.0
 43
10.0
 44
1.5
 47
0.1
 48
0.1
 73
     0
 77
     1
 78
     8
 79
     2
140
3.0
141
0.0
143
0.0393701
146
0.71
147
1.0
176
   256
177
   256
178
   256
271
     2
272
     2
283
     0
284
     8
288
     1
289
     0
340
60C
371
    -1
372
    -1
  0
DIMSTYLE
105
84
330
A
100
AcDbSymbolTableRecord
100
AcDbDimStyleTableRecord
  2
AM_ISO$6
 70
     0
  4
"
 41
3.0
 42
1.0
 43
10.0
 44
1.5
 47
0.1
 48
0.1
 73
     0
 74
     0
 78
     8
 79
     2
140
3.0
141
0.0
143
0.0393701
146
0.71
147
1.0
172
     1
176
   256
177
   256
178
   256
271
     2
272
     2
283
     0
284
     8
340
60C
371
    -1
372
    -1
  0
DIMSTYLE
105
85
330
A
100
AcDbSymbolTableRecord
100
AcDbDimStyleTableRecord
  2
AM_ISO$7
 70
     0
  4
"
 41
3.0
 42
1.0
 43
10.0
 44
1.5
 47
0.1
 48
0.1
 73
     0
 74
     0
 77
     1
 78
     8
 79
     2
140
5.0
141
0.0
143
0.0393701
146
0.71
147
1.0
172
     1
176
   256
177
   256
178
   256
271
     2
272
     2
283
     0
284
     8
340
60C
371
    -1
372
    -1
  0
DIMSTYLE
105
86
330
A
100
AcDbSymbolTableRecord
100
AcDbDimStyleTableRecord
  2
AM_ISO$SF
 70
     0
  4
"
 41
2.5
 42
1.0
 43
10.0
 44
1.0
 47
0.1
 48
0.1
 73
     0
 74
     0
 75
     1
 76
     1
 77
     1
 78
     8
 79
     2
140
3.5
141
0.0
143
0.0393701
146
0.71
147
1.5
172
     1
176
   256
177
   256
178
     2
271
     2
272
     3
274
     4
283
     0
284
     8
340
11
371
    -1
372
    -1
  0
DIMSTYLE
105
8B
330
A
100
AcDbSymbolTableRecord
100
AcDbDimStyleTableRecord
  2
AM_ISO$SH
 70
     0
  4
"
 41
2.5
 42
1.0
 43
10.0
 44
1.0
 47
0.1
 48
0.1
 73
     0
 74
     0
 75
     1
 76
     1
 77
     1
 78
     8
 79
     2
140
3.5
141
0.0
143
0.0393701
144
2.0
146
0.71
147
1.5
172
     1
173
     1
176
   256
177
   256
178
     2
271
     2
272
     3
274
     4
283
     0
284
     8
340
11
343
87
371
    -1
372
    -1
  0
DIMSTYLE
105
40B
102
{ACAD_REACTORS
330
32BC
330
32BD
330
32BE
330
32BF
330
335F
330
3430
330
3431
330
3432
330
3433
330
350F
330
35E5
330
35E6
330
3611
330
3642
330
3712
330
3713
330
3747
330
377E
102
}
330
A
100
AcDbSymbolTableRecord
100
AcDbDimStyleTableRecord
  2
AM_ISO$0
 70
     0
  4
"
 41
3.0
 42
1.0
 43
10.0
 44
1.5
 47
0.1
 48
0.1
 73
     0
 74
     0
 77
     1
 78
     8
 79
     2
140
3.0
141
0.0
143
0.0393701
146
0.71
147
1.0
172
     1
176
   256
177
   256
178
   256
271
     2
272
     2
283
     0
284
     8
340
60C
371
    -1
372
    -1
  0
DIMSTYLE
105
7FC
330
A
100
AcDbSymbolTableRecord
100
AcDbDimStyleTableRecord
  2
AM_ANSI
 70
     0
  4
mm
 41
0.1
 42
0.05
 43
0.5
 44
0.1
 47
0.1
 48
0.1
 78
     7
 79
     2
140
0.12
141
0.0
146
0.71
147
0.06
176
   256
177
   256
178
     2
274
     4
284
     7
340
11
371
    -1
372
    -1
  0
DIMSTYLE
105
7FD
330
A
100
AcDbSymbolTableRecord
100
AcDbDimStyleTableRecord
  2
AM_ANSI$3
 70
     0
  4
mm
 41
0.1
 42
0.05
 43
0.5
 44
0.1
 47
0.1
 48
0.1
 78
     7
 79
     2
140
0.12
141
0.0
146
0.71
147
0.06
176
   256
177
   256
178
     2
274
     4
284
     7
288
     1
289
     0
340
11
371
    -1
372
    -1
  0
DIMSTYLE
105
7FE
330
A
100
AcDbSymbolTableRecord
100
AcDbDimStyleTableRecord
  2
AM_ANSI$4
 70
     0
  4
mm
 41
0.1
 42
0.05
 43
0.5
 44
0.1
 47
0.1
 48
0.1
 78
     7
 79
     2
140
0.12
141
0.0
146
0.71
147
0.06
176
   256
177
   256
178
     2
274
     4
284
     7
288
     1
289
     0
340
11
371
    -1
372
    -1
  0
DIMSTYLE
105
7FF
330
A
100
AcDbSymbolTableRecord
100
AcDbDimStyleTableRecord
  2
AM_ANSI$7
 70
     0
  4
mm
 41
0.1
 42
0.05
 43
0.5
 44
0.1
 47
0.1
 48
0.1
 78
     7
 79
     2
140
0.24
141
0.0
146
0.71
147
0.06
176
   256
177
   256
178
     2
274
     4
284
     7
340
11
371
    -1
372
    -1
  0
DIMSTYLE
105
800
330
A
100
AcDbSymbolTableRecord
100
AcDbDimStyleTableRecord
  2
AM_ANSI$SF
 70
     0
  4
mm
 41
0.1
 42
0.05
 43
0.5
 44
0.1
 47
0.1
 48
0.1
 75
     1
 76
     1
 78
     7
 79
     2
140
0.12
141
0.0
146
0.71
147
0.06
176
   256
177
   256
178
     2
274
     4
284
     7
340
11
371
    -1
372
    -1
  0
DIMSTYLE
105
801
330
A
100
AcDbSymbolTableRecord
100
AcDbDimStyleTableRecord
  2
AM_ANSI$SH
 70
     0
  4
mm
 41
0.1
 42
0.05
 43
0.5
 44
0.1
 47
0.1
 48
0.1
 75
     1
 76
     1
 78
     7
 79
     2
140
0.12
141
0.0
146
0.71
147
0.06
173
     1
176
   256
177
   256
178
     2
274
     4
284
     7
340
11
343
87
371
    -1
372
    -1
  0
ENDTAB
  0
TABLE
  2
BLOCK_RECORD
  5
1
330
0
100
AcDbSymbolTable
 70
    23
  0
BLOCK_RECORD
  5
1F
102
{ACAD_XDICTIONARY
360
8F
102
}
330
1
100
AcDbSymbolTableRecord
100
AcDbBlockTableRecord
  2
*Model_Space
340
22
  0
BLOCK_RECORD
  5
1B
330
1
100
AcDbSymbolTableRecord
100
AcDbBlockTableRecord
  2
*Paper_Space
340
1E
  0
BLOCK_RECORD
  5
23
330
1
100
AcDbSymbolTableRecord
100
AcDbBlockTableRecord
  2
*Paper_Space0
340
26
  0
BLOCK_RECORD
  5
87
330
1
100
AcDbSymbolTableRecord
100
AcDbBlockTableRecord
  2
GENAXEH
340
0
  0
BLOCK_RECORD
  5
32C0
330
1
100
AcDbSymbolTableRecord
100
AcDbBlockTableRecord
  2
*D3
340
0
  0
BLOCK_RECORD
  5
32CC
330
1
100
AcDbSymbolTableRecord
100
AcDbBlockTableRecord
  2
*D4
340
0
  0
BLOCK_RECORD
  5
32D8
330
1
100
AcDbSymbolTableRecord
100
AcDbBlockTableRecord
  2
*D5
340
0
  0
BLOCK_RECORD
  5
32E4
330
1
100
AcDbSymbolTableRecord
100
AcDbBlockTableRecord
  2
*D6
340
0
  0
BLOCK_RECORD
  5
3360
330
1
100
AcDbSymbolTableRecord
100
AcDbBlockTableRecord
  2
*D7
340
0
  0
BLOCK_RECORD
  5
3434
330
1
100
AcDbSymbolTableRecord
100
AcDbBlockTableRecord
  2
*D8
340
0
  0
BLOCK_RECORD
  5
3440
330
1
100
AcDbSymbolTableRecord
100
AcDbBlockTableRecord
  2
*D9
340
0
  0
BLOCK_RECORD
  5
344C
330
1
100
AcDbSymbolTableRecord
100
AcDbBlockTableRecord
  2
*D10
340
0
  0
BLOCK_RECORD
  5
3458
330
1
100
AcDbSymbolTableRecord
100
AcDbBlockTableRecord
  2
*D11
340
0
  0
BLOCK_RECORD
  5
3510
330
1
100
AcDbSymbolTableRecord
100
AcDbBlockTableRecord
  2
*D12
340
0
  0
BLOCK_RECORD
  5
35E7
330
1
100
AcDbSymbolTableRecord
100
AcDbBlockTableRecord
  2
*D13
340
0
  0
BLOCK_RECORD
  5
35F3
330
1
100
AcDbSymbolTableRecord
100
AcDbBlockTableRecord
  2
*D14
340
0
  0
BLOCK_RECORD
  5
3612
330
1
100
AcDbSymbolTableRecord
100
AcDbBlockTableRecord
  2
*D15
340
0
  0
BLOCK_RECORD
  5
3645
330
1
100
AcDbSymbolTableRecord
100
AcDbBlockTableRecord
  2
*D16
340
0
  0
BLOCK_RECORD
  5
3714
330
1
100
AcDbSymbolTableRecord
100
AcDbBlockTableRecord
  2
*D17
340
0
  0
BLOCK_RECORD
  5
3720
330
1
100
AcDbSymbolTableRecord
100
AcDbBlockTableRecord
  2
*D18
340
0
  0
BLOCK_RECORD
  5
3748
330
1
100
AcDbSymbolTableRecord
100
AcDbBlockTableRecord
  2
*D19
340
0
  0
BLOCK_RECORD
  5
377F
330
1
100
AcDbSymbolTableRecord
100
AcDbBlockTableRecord
  2
*D20
340
0
  0
ENDTAB
  0
ENDSEC
  0
SECTION
  2
BLOCKS
  0
BLOCK
  5
20
330
1F
100
AcDbEntity
  8
0
100
AcDbBlockBegin
  2
*Model_Space
 70
     0
 10
0.0
 20
0.0
 30
0.0
  3
*Model_Space
  1

  0
ENDBLK
  5
21
330
1F
100
AcDbEntity
  8
0
100
AcDbBlockEnd
  0
BLOCK
  5
1C
330
1B
100
AcDbEntity
 67
     1
  8
0
100
AcDbBlockBegin
  2
*Paper_Space
 70
     0
 10
0.0
 20
0.0
 30
0.0
  3
*Paper_Space
  1

  0
ENDBLK
  5
1D
330
1B
100
AcDbEntity
 67
     1
  8
0
100
AcDbBlockEnd
  0
BLOCK
  5
24
330
23
100
AcDbEntity
  8
0
100
AcDbBlockBegin
  2
*Paper_Space0
 70
     0
 10
0.0
 20
0.0
 30
0.0
  3
*Paper_Space0
  1

  0
ENDBLK
  5
25
330
23
100
AcDbEntity
  8
0
100
AcDbBlockEnd
  0
BLOCK
  5
89
330
87
100
AcDbEntity
  8
0
100
AcDbBlockBegin
  2
GENAXEH
 70
     0
 10
0.0
 20
0.0
 30
0.0
  3
GENAXEH
  1

  0
LINE
  5
88
330
87
100
AcDbEntity
  8
0
100
AcDbLine
 10
-1.0
 20
0.0
 30
0.0
 11
1.0
 21
0.0
 31
0.0
  0
ENDBLK
  5
8A
330
87
100
AcDbEntity
  8
0
100
AcDbBlockEnd
  0
BLOCK
  5
32CA
330
32C0
100
AcDbEntity
  8
0
100
AcDbBlockBegin
  2
*D3
 70
     1
 10
0.0
 20
0.0
 30
0.0
  3
*D3
  1

  0
LINE
  5
3799
330
32C0
100
AcDbEntity
  8
AM_5
100
AcDbLine
 10
804.0034124124289
 20
525.6575795242008
 30
0.0
 11
828.003412412429
 21
525.6575795242008
 31
0.0
  0
LINE
  5
379A
330
32C0
100
AcDbEntity
  8
AM_5
100
AcDbLine
 10
804.0034124124289
 20
595.6575795242009
 30
0.0
 11
828.003412412429
 21
595.6575795242009
 31
0.0
  0
LINE
  5
379B
330
32C0
100
AcDbEntity
  8
AM_5
100
AcDbLine
 10
826.5034124124291
 20
528.6575795242008
 30
0.0
 11
826.5034124124291
 21
592.6575795242008
 31
0.0
  0
SOLID
  5
379C
330
32C0
100
AcDbEntity
  8
AM_5
100
AcDbTrace
 10
826.003412412429
 20
528.6575795242008
 30
0.0
 11
827.003412412429
 21
528.6575795242008
 31
0.0
 12
826.5034124124291
 22
525.6575795242008
 32
0.0
 13
826.5034124124291
 23
525.6575795242008
 33
0.0
  0
SOLID
  5
379D
330
32C0
100
AcDbEntity
  8
AM_5
100
AcDbTrace
 10
826.003412412429
 20
592.6575795242008
 30
0.0
 11
827.003412412429
 21
592.6575795242008
 31
0.0
 12
826.5034124124291
 22
595.6575795242009
 32
0.0
 13
826.5034124124291
 23
595.6575795242009
 33
0.0
  0
MTEXT
  5
379E
330
32C0
100
AcDbEntity
  8
AM_5
100
AcDbMText
 10
824.0034124124289
 20
560.6575795242011
 30
0.0
 40
3.0
 41
0.0
 71
     5
 72
     1
  1
70
  7
CHINESET
 11
0.0000000000000001
 21
1.0
 31
0.0
 73
     1
 44
1.0
1001
ACAD
1000
MTEXTBEGIN
1070
    73
1070
     1
1070
    44
1040
1.0
1070
    74
1070
     0
1000
MTEXTEND
  0
POINT
  5
379F
330
32C0
100
AcDbEntity
  8
Defpoints
 62
     0
100
AcDbPoint
 10
803.003412412429
 20
525.6575795242008
 30
0.0
  0
POINT
  5
37A0
330
32C0
100
AcDbEntity
  8
Defpoints
 62
     0
100
AcDbPoint
 10
803.003412412429
 20
595.6575795242009
 30
0.0
  0
POINT
  5
37A1
330
32C0
100
AcDbEntity
  8
Defpoints
 62
     0
100
AcDbPoint
 10
826.5034124124291
 20
595.6575795242009
 30
0.0
  0
ENDBLK
  5
32CB
330
32C0
100
AcDbEntity
  8
0
100
AcDbBlockEnd
  0
BLOCK
  5
32D6
330
32CC
100
AcDbEntity
  8
0
100
AcDbBlockBegin
  2
*D4
 70
     1
 10
0.0
 20
0.0
 30
0.0
  3
*D4
  1

  0
LINE
  5
37A2
330
32CC
100
AcDbEntity
  8
AM_5
100
AcDbLine
 10
804.0034124124289
 20
525.6575795242008
 30
0.0
 11
846.0034124124289
 21
525.6575795242008
 31
0.0
  0
LINE
  5
37A3
330
32CC
100
AcDbEntity
  8
AM_5
100
AcDbLine
 10
832.503412412429
 20
625.6575795242008
 30
0.0
 11
846.0034124124289
 21
625.6575795242008
 31
0.0
  0
LINE
  5
37A4
330
32CC
100
AcDbEntity
  8
AM_5
100
AcDbLine
 10
844.503412412429
 20
528.6575795242008
 30
0.0
 11
844.503412412429
 21
622.6575795242008
 31
0.0
  0
SOLID
  5
37A5
330
32CC
100
AcDbEntity
  8
AM_5
100
AcDbTrace
 10
844.003412412429
 20
528.6575795242008
 30
0.0
 11
845.003412412429
 21
528.6575795242008
 31
0.0
 12
844.503412412429
 22
525.6575795242008
 32
0.0
 13
844.503412412429
 23
525.6575795242008
 33
0.0
  0
SOLID
  5
37A6
330
32CC
100
AcDbEntity
  8
AM_5
100
AcDbTrace
 10
844.003412412429
 20
622.6575795242008
 30
0.0
 11
845.003412412429
 21
622.6575795242008
 31
0.0
 12
844.503412412429
 22
625.6575795242008
 32
0.0
 13
844.503412412429
 23
625.6575795242008
 33
0.0
  0
MTEXT
  5
37A7
330
32CC
100
AcDbEntity
  8
AM_5
100
AcDbMText
 10
842.0034124124288
 20
575.657579524201
 30
0.0
 40
3.0
 41
0.0
 71
     5
 72
     1
  1
100
  7
CHINESET
 11
0.0000000000000001
 21
1.0
 31
0.0
 73
     1
 44
1.0
1001
ACAD
1000
MTEXTBEGIN
1070
    73
1070
     1
1070
    44
1040
1.0
1070
    74
1070
     0
1000
MTEXTEND
  0
POINT
  5
37A8
330
32CC
100
AcDbEntity
  8
Defpoints
 62
     0
100
AcDbPoint
 10
803.003412412429
 20
525.6575795242008
 30
0.0
  0
POINT
  5
37A9
330
32CC
100
AcDbEntity
  8
Defpoints
 62
     0
100
AcDbPoint
 10
831.503412412429
 20
625.6575795242008
 30
0.0
  0
POINT
  5
37AA
330
32CC
100
AcDbEntity
  8
Defpoints
 62
     0
100
AcDbPoint
 10
844.503412412429
 20
625.6575795242008
 30
0.0
  0
ENDBLK
  5
32D7
330
32CC
100
AcDbEntity
  8
0
100
AcDbBlockEnd
  0
BLOCK
  5
32E2
330
32D8
100
AcDbEntity
  8
0
100
AcDbBlockBegin
  2
*D5
 70
     1
 10
0.0
 20
0.0
 30
0.0
  3
*D5
  1

  0
LINE
  5
37AB
330
32D8
100
AcDbEntity
  8
AM_5
100
AcDbLine
 10
832.503412412429
 20
644.6575795242008
 30
0.0
 11
846.0034124124289
 21
644.6575795242008
 31
0.0
  0
LINE
  5
37AC
330
32D8
100
AcDbEntity
  8
AM_5
100
AcDbLine
 10
832.503412412429
 20
625.6575795242008
 30
0.0
 11
846.0034124124289
 21
625.6575795242008
 31
0.0
  0
LINE
  5
37AD
330
32D8
100
AcDbEntity
  8
AM_5
100
AcDbLine
 10
844.503412412429
 20
641.6575795242009
 30
0.0
 11
844.503412412429
 21
628.6575795242008
 31
0.0
  0
SOLID
  5
37AE
330
32D8
100
AcDbEntity
  8
AM_5
100
AcDbTrace
 10
844.003412412429
 20
641.6575795242009
 30
0.0
 11
845.003412412429
 21
641.6575795242009
 31
0.0
 12
844.503412412429
 22
644.6575795242008
 32
0.0
 13
844.503412412429
 23
644.6575795242008
 33
0.0
  0
SOLID
  5
37AF
330
32D8
100
AcDbEntity
  8
AM_5
100
AcDbTrace
 10
844.003412412429
 20
628.6575795242008
 30
0.0
 11
845.003412412429
 21
628.6575795242008
 31
0.0
 12
844.503412412429
 22
625.6575795242008
 32
0.0
 13
844.503412412429
 23
625.6575795242008
 33
0.0
  0
MTEXT
  5
37B0
330
32D8
100
AcDbEntity
  8
AM_5
100
AcDbMText
 10
842.0034124124288
 20
635.1575795242011
 30
0.0
 40
3.0
 41
0.0
 71
     5
 72
     1
  1
19
  7
CHINESET
 11
0.0000000000000001
 21
1.0
 31
0.0
 73
     1
 44
1.0
1001
ACAD
1000
MTEXTBEGIN
1070
    73
1070
     1
1070
    44
1040
1.0
1070
    74
1070
     0
1000
MTEXTEND
  0
POINT
  5
37B1
330
32D8
100
AcDbEntity
  8
Defpoints
 62
     0
100
AcDbPoint
 10
831.503412412429
 20
644.6575795242008
 30
0.0
  0
POINT
  5
37B2
330
32D8
100
AcDbEntity
  8
Defpoints
 62
     0
100
AcDbPoint
 10
831.503412412429
 20
625.6575795242008
 30
0.0
  0
POINT
  5
37B3
330
32D8
100
AcDbEntity
  8
Defpoints
 62
     0
100
AcDbPoint
 10
844.503412412429
 20
625.6575795242008
 30
0.0
  0
ENDBLK
  5
32E3
330
32D8
100
AcDbEntity
  8
0
100
AcDbBlockEnd
  0
BLOCK
  5
32EE
330
32E4
100
AcDbEntity
  8
0
100
AcDbBlockBegin
  2
*D6
 70
     1
 10
0.0
 20
0.0
 30
0.0
  3
*D6
  1

  0
LINE
  5
37B4
330
32E4
100
AcDbEntity
  8
AM_5
100
AcDbLine
 10
760.003412412429
 20
551.1575795242008
 30
0.0
 11
760.003412412429
 21
543.8388028743918
 31
0.0
  0
LINE
  5
37B5
330
32E4
100
AcDbEntity
  8
AM_5
100
AcDbLine
 10
805.0034124124291
 20
551.1575795242008
 30
0.0
 11
805.0034124124291
 21
543.8388028743918
 31
0.0
  0
LINE
  5
37B6
330
32E4
100
AcDbEntity
  8
AM_5
100
AcDbLine
 10
763.003412412429
 20
545.3388028743918
 30
0.0
 11
802.003412412429
 21
545.3388028743918
 31
0.0
  0
SOLID
  5
37B7
330
32E4
100
AcDbEntity
  8
AM_5
100
AcDbTrace
 10
763.003412412429
 20
545.8388028743918
 30
0.0
 11
763.003412412429
 21
544.8388028743918
 31
0.0
 12
760.003412412429
 22
545.3388028743918
 32
0.0
 13
760.003412412429
 23
545.3388028743918
 33
0.0
  0
SOLID
  5
37B8
330
32E4
100
AcDbEntity
  8
AM_5
100
AcDbTrace
 10
802.003412412429
 20
545.8388028743918
 30
0.0
 11
802.003412412429
 21
544.8388028743918
 31
0.0
 12
805.0034124124291
 22
545.3388028743918
 32
0.0
 13
805.0034124124291
 23
545.3388028743918
 33
0.0
  0
MTEXT
  5
37B9
330
32E4
100
AcDbEntity
  8
AM_5
100
AcDbMText
 10
782.503412412429
 20
547.8388028743918
 30
0.0
 40
3.0
 41
0.0
 71
     5
 72
     1
  1
M45x1.5
  7
CHINESET
 73
     1
 44
1.0
1001
ACAD
1000
MTEXTBEGIN
1070
    73
1070
     1
1070
    44
1040
1.0
1070
    74
1070
     0
1000
MTEXTEND
  0
POINT
  5
37BA
330
32E4
100
AcDbEntity
  8
Defpoints
 62
     0
100
AcDbPoint
 10
760.003412412429
 20
552.1575795242008
 30
0.0
  0
POINT
  5
37BB
330
32E4
100
AcDbEntity
  8
Defpoints
 62
     0
100
AcDbPoint
 10
805.0034124124291
 20
552.1575795242008
 30
0.0
  0
POINT
  5
37BC
330
32E4
100
AcDbEntity
  8
Defpoints
 62
     0
100
AcDbPoint
 10
805.0034124124291
 20
545.3388028743918
 30
0.0
  0
ENDBLK
  5
32EF
330
32E4
100
AcDbEntity
  8
0
100
AcDbBlockEnd
  0
BLOCK
  5
336A
330
3360
100
AcDbEntity
  8
0
100
AcDbBlockBegin
  2
*D7
 70
     1
 10
0.0
 20
0.0
 30
0.0
  3
*D7
  1

  0
LINE
  5
37BD
330
3360
100
AcDbEntity
  8
AM_5
100
AcDbLine
 10
732.503412412429
 20
691.9440610279727
 30
0.0
 11
732.503412412429
 21
665.4440600179726
 31
0.0
  0
LINE
  5
37BE
330
3360
100
AcDbEntity
  8
AM_5
100
AcDbLine
 10
832.503412412429
 20
691.9440610279727
 30
0.0
 11
832.503412412429
 21
665.4440600179726
 31
0.0
  0
LINE
  5
37BF
330
3360
100
AcDbEntity
  8
AM_5
100
AcDbLine
 10
735.503412412429
 20
666.9440600179727
 30
0.0
 11
829.503412412429
 21
666.9440600179727
 31
0.0
  0
SOLID
  5
37C0
330
3360
100
AcDbEntity
  8
AM_5
100
AcDbTrace
 10
735.503412412429
 20
667.4440600179726
 30
0.0
 11
735.503412412429
 21
666.4440600179727
 31
0.0
 12
732.503412412429
 22
666.9440600179727
 32
0.0
 13
732.503412412429
 23
666.9440600179727
 33
0.0
  0
SOLID
  5
37C1
330
3360
100
AcDbEntity
  8
AM_5
100
AcDbTrace
 10
829.503412412429
 20
667.4440600179726
 30
0.0
 11
829.503412412429
 21
666.4440600179727
 31
0.0
 12
832.503412412429
 22
666.9440600179727
 32
0.0
 13
832.503412412429
 23
666.9440600179727
 33
0.0
  0
MTEXT
  5
37C2
330
3360
100
AcDbEntity
  8
AM_5
100
AcDbMText
 10
782.503412412429
 20
669.4440600179726
 30
0.0
 40
3.0
 41
0.0
 71
     5
 72
     1
  1
100
  7
CHINESET
 73
     1
 44
1.0
1001
ACAD
1000
MTEXTBEGIN
1070
    73
1070
     1
1070
    44
1040
1.0
1070
    74
1070
     0
1000
MTEXTEND
  0
POINT
  5
37C3
330
3360
100
AcDbEntity
  8
Defpoints
 62
     0
100
AcDbPoint
 10
732.503412412429
 20
692.9440610279726
 30
0.0
  0
POINT
  5
37C4
330
3360
100
AcDbEntity
  8
Defpoints
 62
     0
100
AcDbPoint
 10
832.503412412429
 20
692.9440610279726
 30
0.0
  0
POINT
  5
37C5
330
3360
100
AcDbEntity
  8
Defpoints
 62
     0
100
AcDbPoint
 10
832.503412412429
 20
666.9440600179727
 30
0.0
  0
ENDBLK
  5
336B
330
3360
100
AcDbEntity
  8
0
100
AcDbBlockEnd
  0
BLOCK
  5
343E
330
3434
100
AcDbEntity
  8
0
100
AcDbBlockBegin
  2
*D8
 70
     1
 10
0.0
 20
0.0
 30
0.0
  3
*D8
  1

  0
LINE
  5
37C6
330
3434
100
AcDbEntity
  8
AM_5
100
AcDbLine
 10
1179.822192433855
 20
525.6575795242008
 30
0.0
 11
1193.822192433855
 21
525.6575795242008
 31
0.0
  0
LINE
  5
37C7
330
3434
100
AcDbEntity
  8
AM_5
100
AcDbLine
 10
1178.322192433855
 20
601.6575795242008
 30
0.0
 11
1193.822192433855
 21
601.6575795242008
 31
0.0
  0
LINE
  5
37C8
330
3434
100
AcDbEntity
  8
AM_5
100
AcDbLine
 10
1192.322192433855
 20
528.6575795242008
 30
0.0
 11
1192.322192433855
 21
598.6575795242008
 31
0.0
  0
SOLID
  5
37C9
330
3434
100
AcDbEntity
  8
AM_5
100
AcDbTrace
 10
1191.822192433855
 20
528.6575795242008
 30
0.0
 11
1192.822192433855
 21
528.6575795242008
 31
0.0
 12
1192.322192433855
 22
525.6575795242008
 32
0.0
 13
1192.322192433855
 23
525.6575795242008
 33
0.0
  0
SOLID
  5
37CA
330
3434
100
AcDbEntity
  8
AM_5
100
AcDbTrace
 10
1191.822192433855
 20
598.6575795242008
 30
0.0
 11
1192.822192433855
 21
598.6575795242008
 31
0.0
 12
1192.322192433855
 22
601.6575795242008
 32
0.0
 13
1192.322192433855
 23
601.6575795242008
 33
0.0
  0
MTEXT
  5
37CB
330
3434
100
AcDbEntity
  8
AM_5
100
AcDbMText
 10
1189.822192433855
 20
563.6575795242009
 30
0.0
 40
3.0
 41
0.0
 71
     5
 72
     1
  1
76
  7
CHINESET
 11
0.0000000000000001
 21
1.0
 31
0.0
 73
     1
 44
1.0
1001
ACAD
1000
MTEXTBEGIN
1070
    73
1070
     1
1070
    44
1040
1.0
1070
    74
1070
     0
1000
MTEXTEND
  0
POINT
  5
37CC
330
3434
100
AcDbEntity
  8
Defpoints
 62
     0
100
AcDbPoint
 10
1178.822192433855
 20
525.6575795242008
 30
0.0
  0
POINT
  5
37CD
330
3434
100
AcDbEntity
  8
Defpoints
 62
     0
100
AcDbPoint
 10
1177.322192433855
 20
601.6575795242008
 30
0.0
  0
POINT
  5
37CE
330
3434
100
AcDbEntity
  8
Defpoints
 62
     0
100
AcDbPoint
 10
1192.322192433855
 20
601.6575795242008
 30
0.0
  0
ENDBLK
  5
343F
330
3434
100
AcDbEntity
  8
0
100
AcDbBlockEnd
  0
BLOCK
  5
344A
330
3440
100
AcDbEntity
  8
0
100
AcDbBlockBegin
  2
*D9
 70
     1
 10
0.0
 20
0.0
 30
0.0
  3
*D9
  1

  0
LINE
  5
37CF
330
3440
100
AcDbEntity
  8
AM_5
100
AcDbLine
 10
1179.822192433855
 20
525.6575795242008
 30
0.0
 11
1228.822192433855
 21
525.6575795242008
 31
0.0
  0
LINE
  5
37D0
330
3440
100
AcDbEntity
  8
AM_5
100
AcDbLine
 10
1215.322192433855
 20
636.6575795242008
 30
0.0
 11
1228.822192433855
 21
636.6575795242008
 31
0.0
  0
LINE
  5
37D1
330
3440
100
AcDbEntity
  8
AM_5
100
AcDbLine
 10
1227.322192433855
 20
528.6575795242008
 30
0.0
 11
1227.322192433855
 21
633.6575795242008
 31
0.0
  0
SOLID
  5
37D2
330
3440
100
AcDbEntity
  8
AM_5
100
AcDbTrace
 10
1226.822192433855
 20
528.6575795242008
 30
0.0
 11
1227.822192433855
 21
528.6575795242008
 31
0.0
 12
1227.322192433855
 22
525.6575795242008
 32
0.0
 13
1227.322192433855
 23
525.6575795242008
 33
0.0
  0
SOLID
  5
37D3
330
3440
100
AcDbEntity
  8
AM_5
100
AcDbTrace
 10
1226.822192433855
 20
633.6575795242008
 30
0.0
 11
1227.822192433855
 21
633.6575795242008
 31
0.0
 12
1227.322192433855
 22
636.6575795242008
 32
0.0
 13
1227.322192433855
 23
636.6575795242008
 33
0.0
  0
MTEXT
  5
37D4
330
3440
100
AcDbEntity
  8
AM_5
100
AcDbMText
 10
1224.822192433855
 20
581.1575795242009
 30
0.0
 40
3.0
 41
0.0
 71
     5
 72
     1
  1
111
  7
CHINESET
 11
0.0000000000000001
 21
1.0
 31
0.0
 73
     1
 44
1.0
1001
ACAD
1000
MTEXTBEGIN
1070
    73
1070
     1
1070
    44
1040
1.0
1070
    74
1070
     0
1000
MTEXTEND
  0
POINT
  5
37D5
330
3440
100
AcDbEntity
  8
Defpoints
 62
     0
100
AcDbPoint
 10
1178.822192433855
 20
525.6575795242008
 30
0.0
  0
POINT
  5
37D6
330
3440
100
AcDbEntity
  8
Defpoints
 62
     0
100
AcDbPoint
 10
1214.322192433855
 20
636.6575795242008
 30
0.0
  0
POINT
  5
37D7
330
3440
100
AcDbEntity
  8
Defpoints
 62
     0
100
AcDbPoint
 10
1227.322192433855
 20
636.6575795242008
 30
0.0
  0
ENDBLK
  5
344B
330
3440
100
AcDbEntity
  8
0
100
AcDbBlockEnd
  0
BLOCK
  5
3456
330
344C
100
AcDbEntity
  8
0
100
AcDbBlockBegin
  2
*D10
 70
     1
 10
0.0
 20
0.0
 30
0.0
  3
*D10
  1

  0
LINE
  5
37D8
330
344C
100
AcDbEntity
  8
AM_5
100
AcDbLine
 10
1215.322192433855
 20
658.6575795242008
 30
0.0
 11
1228.822192433855
 21
658.6575795242008
 31
0.0
  0
LINE
  5
37D9
330
344C
100
AcDbEntity
  8
AM_5
100
AcDbLine
 10
1215.322192433855
 20
636.6575795242008
 30
0.0
 11
1228.822192433855
 21
636.6575795242008
 31
0.0
  0
LINE
  5
37DA
330
344C
100
AcDbEntity
  8
AM_5
100
AcDbLine
 10
1227.322192433855
 20
655.6575795242008
 30
0.0
 11
1227.322192433855
 21
639.6575795242008
 31
0.0
  0
SOLID
  5
37DB
330
344C
100
AcDbEntity
  8
AM_5
100
AcDbTrace
 10
1226.822192433855
 20
655.6575795242008
 30
0.0
 11
1227.822192433855
 21
655.6575795242008
 31
0.0
 12
1227.322192433855
 22
658.6575795242008
 32
0.0
 13
1227.322192433855
 23
658.6575795242008
 33
0.0
  0
SOLID
  5
37DC
330
344C
100
AcDbEntity
  8
AM_5
100
AcDbTrace
 10
1226.822192433855
 20
639.6575795242008
 30
0.0
 11
1227.822192433855
 21
639.6575795242008
 31
0.0
 12
1227.322192433855
 22
636.6575795242008
 32
0.0
 13
1227.322192433855
 23
636.6575795242008
 33
0.0
  0
MTEXT
  5
37DD
330
344C
100
AcDbEntity
  8
AM_5
100
AcDbMText
 10
1224.822192433855
 20
647.6575795242009
 30
0.0
 40
3.0
 41
0.0
 71
     5
 72
     1
  1
22
  7
CHINESET
 11
0.0000000000000001
 21
1.0
 31
0.0
 73
     1
 44
1.0
1001
ACAD
1000
MTEXTBEGIN
1070
    73
1070
     1
1070
    44
1040
1.0
1070
    74
1070
     0
1000
MTEXTEND
  0
POINT
  5
37DE
330
344C
100
AcDbEntity
  8
Defpoints
 62
     0
100
AcDbPoint
 10
1214.322192433855
 20
658.6575795242008
 30
0.0
  0
POINT
  5
37DF
330
344C
100
AcDbEntity
  8
Defpoints
 62
     0
100
AcDbPoint
 10
1214.322192433855
 20
636.6575795242008
 30
0.0
  0
POINT
  5
37E0
330
344C
100
AcDbEntity
  8
Defpoints
 62
     0
100
AcDbPoint
 10
1227.322192433855
 20
636.6575795242008
 30
0.0
  0
ENDBLK
  5
3457
330
344C
100
AcDbEntity
  8
0
100
AcDbBlockEnd
  0
BLOCK
  5
3462
330
3458
100
AcDbEntity
  8
0
100
AcDbBlockBegin
  2
*D11
 70
     1
 10
0.0
 20
0.0
 30
0.0
  3
*D11
  1

  0
LINE
  5
37E1
330
3458
100
AcDbEntity
  8
AM_5
100
AcDbLine
 10
1130.322192433855
 20
556.1575795242008
 30
0.0
 11
1130.322192433855
 21
543.8388028743918
 31
0.0
  0
LINE
  5
37E2
330
3458
100
AcDbEntity
  8
AM_5
100
AcDbLine
 10
1180.322192433855
 20
556.1575795242008
 30
0.0
 11
1180.322192433855
 21
543.8388028743918
 31
0.0
  0
LINE
  5
37E3
330
3458
100
AcDbEntity
  8
AM_5
100
AcDbLine
 10
1133.322192433855
 20
545.3388028743918
 30
0.0
 11
1177.322192433855
 21
545.3388028743918
 31
0.0
  0
SOLID
  5
37E4
330
3458
100
AcDbEntity
  8
AM_5
100
AcDbTrace
 10
1133.322192433855
 20
545.8388028743918
 30
0.0
 11
1133.322192433855
 21
544.8388028743918
 31
0.0
 12
1130.322192433855
 22
545.3388028743918
 32
0.0
 13
1130.322192433855
 23
545.3388028743918
 33
0.0
  0
SOLID
  5
37E5
330
3458
100
AcDbEntity
  8
AM_5
100
AcDbTrace
 10
1177.322192433855
 20
545.8388028743918
 30
0.0
 11
1177.322192433855
 21
544.8388028743918
 31
0.0
 12
1180.322192433855
 22
545.3388028743918
 32
0.0
 13
1180.322192433855
 23
545.3388028743918
 33
0.0
  0
MTEXT
  5
37E6
330
3458
100
AcDbEntity
  8
AM_5
100
AcDbMText
 10
1155.322192433855
 20
547.8388028743918
 30
0.0
 40
3.0
 41
0.0
 71
     5
 72
     1
  1
M50x1.5
  7
CHINESET
 73
     1
 44
1.0
1001
ACAD
1000
MTEXTBEGIN
1070
    73
1070
     1
1070
    44
1040
1.0
1070
    74
1070
     0
1000
MTEXTEND
  0
POINT
  5
37E7
330
3458
100
AcDbEntity
  8
Defpoints
 62
     0
100
AcDbPoint
 10
1130.322192433855
 20
557.1575795242008
 30
0.0
  0
POINT
  5
37E8
330
3458
100
AcDbEntity
  8
Defpoints
 62
     0
100
AcDbPoint
 10
1180.322192433855
 20
557.1575795242008
 30
0.0
  0
POINT
  5
37E9
330
3458
100
AcDbEntity
  8
Defpoints
 62
     0
100
AcDbPoint
 10
1180.322192433855
 20
545.3388028743918
 30
0.0
  0
ENDBLK
  5
3463
330
3458
100
AcDbEntity
  8
0
100
AcDbBlockEnd
  0
BLOCK
  5
351A
330
3510
100
AcDbEntity
  8
0
100
AcDbBlockBegin
  2
*D12
 70
     1
 10
0.0
 20
0.0
 30
0.0
  3
*D12
  1

  0
LINE
  5
37FC
330
3510
100
AcDbEntity
  8
AM_5
100
AcDbLine
 10
1095.322192433855
 20
708.24266869614
 30
0.0
 11
1095.322192433855
 21
680.7426676861401
 31
0.0
  0
LINE
  5
37FD
330
3510
100
AcDbEntity
  8
AM_5
100
AcDbLine
 10
1215.322192433855
 20
708.24266869614
 30
0.0
 11
1215.322192433855
 21
680.7426676861401
 31
0.0
  0
LINE
  5
37FE
330
3510
100
AcDbEntity
  8
AM_5
100
AcDbLine
 10
1098.322192433855
 20
682.24266768614
 30
0.0
 11
1212.322192433855
 21
682.24266768614
 31
0.0
  0
SOLID
  5
37FF
330
3510
100
AcDbEntity
  8
AM_5
100
AcDbTrace
 10
1098.322192433855
 20
682.74266768614
 30
0.0
 11
1098.322192433855
 21
681.74266768614
 31
0.0
 12
1095.322192433855
 22
682.24266768614
 32
0.0
 13
1095.322192433855
 23
682.24266768614
 33
0.0
  0
SOLID
  5
3800
330
3510
100
AcDbEntity
  8
AM_5
100
AcDbTrace
 10
1212.322192433855
 20
682.74266768614
 30
0.0
 11
1212.322192433855
 21
681.74266768614
 31
0.0
 12
1215.322192433855
 22
682.24266768614
 32
0.0
 13
1215.322192433855
 23
682.24266768614
 33
0.0
  0
MTEXT
  5
3801
330
3510
100
AcDbEntity
  8
AM_5
100
AcDbMText
 10
1155.322192433855
 20
684.7426676861401
 30
0.0
 40
3.0
 41
0.0
 71
     5
 72
     1
  1
120
  7
CHINESET
 73
     1
 44
1.0
1001
ACAD
1000
MTEXTBEGIN
1070
    73
1070
     1
1070
    44
1040
1.0
1070
    74
1070
     0
1000
MTEXTEND
  0
POINT
  5
3802
330
3510
100
AcDbEntity
  8
Defpoints
 62
     0
100
AcDbPoint
 10
1095.322192433855
 20
709.2426686961401
 30
0.0
  0
POINT
  5
3803
330
3510
100
AcDbEntity
  8
Defpoints
 62
     0
100
AcDbPoint
 10
1215.322192433855
 20
709.2426686961401
 30
0.0
  0
POINT
  5
3804
330
3510
100
AcDbEntity
  8
Defpoints
 62
     0
100
AcDbPoint
 10
1215.322192433855
 20
682.24266768614
 30
0.0
  0
ENDBLK
  5
351B
330
3510
100
AcDbEntity
  8
0
100
AcDbBlockEnd
  0
BLOCK
  5
35F1
330
35E7
100
AcDbEntity
  8
0
100
AcDbBlockBegin
  2
*D13
 70
     1
 10
0.0
 20
0.0
 30
0.0
  3
*D13
  1

  0
LINE
  5
3639
330
35E7
100
AcDbEntity
  8
AM_5
100
AcDbLine
 10
809.5034124124289
 20
138.0125204969317
 30
0.0
 11
856.0034124124291
 21
138.0125204969317
 31
0.0
  0
LINE
  5
363A
330
35E7
100
AcDbEntity
  8
AM_5
100
AcDbLine
 10
842.5034124124291
 20
251.6125204969317
 30
0.0
 11
856.0034124124291
 21
251.6125204969317
 31
0.0
  0
LINE
  5
363B
330
35E7
100
AcDbEntity
  8
AM_5
100
AcDbLine
 10
854.503412412429
 20
141.0125204969317
 30
0.0
 11
854.503412412429
 21
248.6125204969317
 31
0.0
  0
SOLID
  5
363C
330
35E7
100
AcDbEntity
  8
AM_5
100
AcDbTrace
 10
854.0034124124289
 20
141.0125204969317
 30
0.0
 11
855.0034124124291
 21
141.0125204969317
 31
0.0
 12
854.503412412429
 22
138.0125204969317
 32
0.0
 13
854.503412412429
 23
138.0125204969317
 33
0.0
  0
SOLID
  5
363D
330
35E7
100
AcDbEntity
  8
AM_5
100
AcDbTrace
 10
854.0034124124289
 20
248.6125204969317
 30
0.0
 11
855.0034124124291
 21
248.6125204969317
 31
0.0
 12
854.503412412429
 22
251.6125204969317
 32
0.0
 13
854.503412412429
 23
251.6125204969317
 33
0.0
  0
MTEXT
  5
363E
330
35E7
100
AcDbEntity
  8
AM_5
100
AcDbMText
 10
852.003412412429
 20
194.8125204969319
 30
0.0
 40
3.0
 41
0.0
 71
     5
 72
     1
  1
113.6
  7
CHINESET
 11
0.0000000000000001
 21
1.0
 31
0.0
 73
     1
 44
1.0
1001
ACAD
1000
MTEXTBEGIN
1070
    73
1070
     1
1070
    44
1040
1.0
1070
    74
1070
     0
1000
MTEXTEND
  0
POINT
  5
363F
330
35E7
100
AcDbEntity
  8
Defpoints
 62
     0
100
AcDbPoint
 10
808.5034124124289
 20
138.0125204969317
 30
0.0
  0
POINT
  5
3640
330
35E7
100
AcDbEntity
  8
Defpoints
 62
     0
100
AcDbPoint
 10
841.5034124124289
 20
251.6125204969317
 30
0.0
  0
POINT
  5
3641
330
35E7
100
AcDbEntity
  8
Defpoints
 62
     0
100
AcDbPoint
 10
854.503412412429
 20
251.6125204969317
 30
0.0
  0
ENDBLK
  5
35F2
330
35E7
100
AcDbEntity
  8
0
100
AcDbBlockEnd
  0
BLOCK
  5
35FD
330
35F3
100
AcDbEntity
  8
0
100
AcDbBlockBegin
  2
*D14
 70
     1
 10
0.0
 20
0.0
 30
0.0
  3
*D14
  1

  0
LINE
  5
3608
330
35F3
100
AcDbEntity
  8
AM_5
100
AcDbLine
 10
842.5034124124291
 20
273.6125204969317
 30
0.0
 11
856.0034124124291
 21
273.6125204969317
 31
0.0
  0
LINE
  5
3609
330
35F3
100
AcDbEntity
  8
AM_5
100
AcDbLine
 10
842.5034124124291
 20
251.6125204969317
 30
0.0
 11
856.0034124124291
 21
251.6125204969317
 31
0.0
  0
LINE
  5
360A
330
35F3
100
AcDbEntity
  8
AM_5
100
AcDbLine
 10
854.5034124124292
 20
270.6125204969317
 30
0.0
 11
854.503412412429
 21
254.6125204969317
 31
0.0
  0
SOLID
  5
360B
330
35F3
100
AcDbEntity
  8
AM_5
100
AcDbTrace
 10
854.0034124124291
 20
270.6125204969317
 30
0.0
 11
855.0034124124291
 21
270.6125204969317
 31
0.0
 12
854.5034124124292
 22
273.6125204969317
 32
0.0
 13
854.5034124124292
 23
273.6125204969317
 33
0.0
  0
SOLID
  5
360C
330
35F3
100
AcDbEntity
  8
AM_5
100
AcDbTrace
 10
854.0034124124289
 20
254.6125204969317
 30
0.0
 11
855.0034124124291
 21
254.6125204969317
 31
0.0
 12
854.503412412429
 22
251.6125204969317
 32
0.0
 13
854.503412412429
 23
251.6125204969317
 33
0.0
  0
MTEXT
  5
360D
330
35F3
100
AcDbEntity
  8
AM_5
100
AcDbMText
 10
852.003412412429
 20
262.6125204969318
 30
0.0
 40
3.0
 41
0.0
 71
     5
 72
     1
  1
22
  7
CHINESET
 11
0.0000000000000001
 21
1.0
 31
0.0
 73
     1
 44
1.0
1001
ACAD
1000
MTEXTBEGIN
1070
    73
1070
     1
1070
    44
1040
1.0
1070
    74
1070
     0
1000
MTEXTEND
  0
POINT
  5
360E
330
35F3
100
AcDbEntity
  8
Defpoints
 62
     0
100
AcDbPoint
 10
841.5034124124289
 20
273.6125204969317
 30
0.0
  0
POINT
  5
360F
330
35F3
100
AcDbEntity
  8
Defpoints
 62
     0
100
AcDbPoint
 10
841.5034124124289
 20
251.6125204969317
 30
0.0
  0
POINT
  5
3610
330
35F3
100
AcDbEntity
  8
Defpoints
 62
     0
100
AcDbPoint
 10
854.503412412429
 20
251.6125204969317
 30
0.0
  0
ENDBLK
  5
35FE
330
35F3
100
AcDbEntity
  8
0
100
AcDbBlockEnd
  0
BLOCK
  5
361C
330
3612
100
AcDbEntity
  8
0
100
AcDbBlockBegin
  2
*D15
 70
     1
 10
0.0
 20
0.0
 30
0.0
  3
*D15
  1

  0
LINE
  5
3630
330
3612
100
AcDbEntity
  8
AM_5
100
AcDbLine
 10
755.003412412429
 20
168.5125204969317
 30
0.0
 11
755.003412412429
 21
156.1937438471227
 31
0.0
  0
LINE
  5
3631
330
3612
100
AcDbEntity
  8
AM_5
100
AcDbLine
 10
810.0034124124288
 20
168.5125204969317
 30
0.0
 11
810.0034124124288
 21
156.1937438471227
 31
0.0
  0
LINE
  5
3632
330
3612
100
AcDbEntity
  8
AM_5
100
AcDbLine
 10
758.003412412429
 20
157.6937438471227
 30
0.0
 11
807.0034124124289
 21
157.6937438471227
 31
0.0
  0
SOLID
  5
3633
330
3612
100
AcDbEntity
  8
AM_5
100
AcDbTrace
 10
758.003412412429
 20
158.1937438471227
 30
0.0
 11
758.003412412429
 21
157.1937438471227
 31
0.0
 12
755.003412412429
 22
157.6937438471227
 32
0.0
 13
755.003412412429
 23
157.6937438471227
 33
0.0
  0
SOLID
  5
3634
330
3612
100
AcDbEntity
  8
AM_5
100
AcDbTrace
 10
807.0034124124289
 20
158.1937438471227
 30
0.0
 11
807.0034124124289
 21
157.1937438471227
 31
0.0
 12
810.0034124124288
 22
157.6937438471227
 32
0.0
 13
810.0034124124288
 23
157.6937438471227
 33
0.0
  0
MTEXT
  5
3635
330
3612
100
AcDbEntity
  8
AM_5
100
AcDbMText
 10
782.503412412429
 20
160.1937438471227
 30
0.0
 40
3.0
 41
0.0
 71
     5
 72
     1
  1
M55x1.5
  7
CHINESET
 73
     1
 44
1.0
1001
ACAD
1000
MTEXTBEGIN
1070
    73
1070
     1
1070
    44
1040
1.0
1070
    74
1070
     0
1000
MTEXTEND
  0
POINT
  5
3636
330
3612
100
AcDbEntity
  8
Defpoints
 62
     0
100
AcDbPoint
 10
755.003412412429
 20
169.5125204969317
 30
0.0
  0
POINT
  5
3637
330
3612
100
AcDbEntity
  8
Defpoints
 62
     0
100
AcDbPoint
 10
810.0034124124288
 20
169.5125204969317
 30
0.0
  0
POINT
  5
3638
330
3612
100
AcDbEntity
  8
Defpoints
 62
     0
100
AcDbPoint
 10
810.0034124124288
 20
157.6937438471227
 30
0.0
  0
ENDBLK
  5
361D
330
3612
100
AcDbEntity
  8
0
100
AcDbBlockEnd
  0
BLOCK
  5
364F
330
3645
100
AcDbEntity
  8
0
100
AcDbBlockBegin
  2
*D16
 70
     1
 10
0.0
 20
0.0
 30
0.0
  3
*D16
  1

  0
LINE
  5
37F3
330
3645
100
AcDbEntity
  8
AM_5
100
AcDbLine
 10
722.3991780168441
 20
326.1149469454471
 30
0.0
 11
722.3991780168441
 21
297.1149459354471
 31
0.0
  0
LINE
  5
37F4
330
3645
100
AcDbEntity
  8
AM_5
100
AcDbLine
 10
842.3991780168442
 20
326.1149469454471
 30
0.0
 11
842.3991780168442
 21
297.1149459354471
 31
0.0
  0
LINE
  5
37F5
330
3645
100
AcDbEntity
  8
AM_5
100
AcDbLine
 10
725.3991780168441
 20
298.6149459354471
 30
0.0
 11
839.3991780168441
 21
298.6149459354471
 31
0.0
  0
SOLID
  5
37F6
330
3645
100
AcDbEntity
  8
AM_5
100
AcDbTrace
 10
725.3991780168441
 20
299.1149459354471
 30
0.0
 11
725.3991780168441
 21
298.1149459354471
 31
0.0
 12
722.3991780168441
 22
298.6149459354471
 32
0.0
 13
722.3991780168441
 23
298.6149459354471
 33
0.0
  0
SOLID
  5
37F7
330
3645
100
AcDbEntity
  8
AM_5
100
AcDbTrace
 10
839.3991780168441
 20
299.1149459354471
 30
0.0
 11
839.3991780168441
 21
298.1149459354471
 31
0.0
 12
842.3991780168442
 22
298.6149459354471
 32
0.0
 13
842.3991780168442
 23
298.6149459354471
 33
0.0
  0
MTEXT
  5
37F8
330
3645
100
AcDbEntity
  8
AM_5
100
AcDbMText
 10
782.3991780168442
 20
301.1149459354471
 30
0.0
 40
3.0
 41
0.0
 71
     5
 72
     1
  1
120
  7
CHINESET
 73
     1
 44
1.0
1001
ACAD
1000
MTEXTBEGIN
1070
    73
1070
     1
1070
    44
1040
1.0
1070
    74
1070
     0
1000
MTEXTEND
  0
POINT
  5
37F9
330
3645
100
AcDbEntity
  8
Defpoints
 62
     0
100
AcDbPoint
 10
722.3991780168441
 20
327.1149469454471
 30
0.0
  0
POINT
  5
37FA
330
3645
100
AcDbEntity
  8
Defpoints
 62
     0
100
AcDbPoint
 10
842.3991780168442
 20
327.1149469454471
 30
0.0
  0
POINT
  5
37FB
330
3645
100
AcDbEntity
  8
Defpoints
 62
     0
100
AcDbPoint
 10
842.3991780168442
 20
298.6149459354471
 30
0.0
  0
ENDBLK
  5
3650
330
3645
100
AcDbEntity
  8
0
100
AcDbBlockEnd
  0
BLOCK
  5
371E
330
3714
100
AcDbEntity
  8
0
100
AcDbBlockBegin
  2
*D17
 70
     1
 10
0.0
 20
0.0
 30
0.0
  3
*D17
  1

  0
LINE
  5
373E
330
3714
100
AcDbEntity
  8
AM_5
100
AcDbLine
 10
1186.322192433855
 20
138.0125204969317
 30
0.0
 11
1228.822192433855
 21
138.0125204969317
 31
0.0
  0
LINE
  5
373F
330
3714
100
AcDbEntity
  8
AM_5
100
AcDbLine
 10
1215.322192433855
 20
252.5125204969318
 30
0.0
 11
1228.822192433855
 21
252.5125204969317
 31
0.0
  0
LINE
  5
3740
330
3714
100
AcDbEntity
  8
AM_5
100
AcDbLine
 10
1227.322192433855
 20
141.0125204969317
 30
0.0
 11
1227.322192433855
 21
249.5125204969317
 31
0.0
  0
SOLID
  5
3741
330
3714
100
AcDbEntity
  8
AM_5
100
AcDbTrace
 10
1226.822192433855
 20
141.0125204969317
 30
0.0
 11
1227.822192433855
 21
141.0125204969317
 31
0.0
 12
1227.322192433855
 22
138.0125204969317
 32
0.0
 13
1227.322192433855
 23
138.0125204969317
 33
0.0
  0
SOLID
  5
3742
330
3714
100
AcDbEntity
  8
AM_5
100
AcDbTrace
 10
1226.822192433855
 20
249.5125204969317
 30
0.0
 11
1227.822192433855
 21
249.5125204969317
 31
0.0
 12
1227.322192433855
 22
252.5125204969317
 32
0.0
 13
1227.322192433855
 23
252.5125204969317
 33
0.0
  0
MTEXT
  5
3743
330
3714
100
AcDbEntity
  8
AM_5
100
AcDbMText
 10
1224.822192433855
 20
195.2625204969319
 30
0.0
 40
3.0
 41
0.0
 71
     5
 72
     1
  1
114.5
  7
CHINESET
 11
0.0000000000000001
 21
1.0
 31
0.0
 73
     1
 44
1.0
1001
ACAD
1000
MTEXTBEGIN
1070
    73
1070
     1
1070
    44
1040
1.0
1070
    74
1070
     0
1000
MTEXTEND
  0
POINT
  5
3744
330
3714
100
AcDbEntity
  8
Defpoints
 62
     0
100
AcDbPoint
 10
1185.322192433855
 20
138.0125204969317
 30
0.0
  0
POINT
  5
3745
330
3714
100
AcDbEntity
  8
Defpoints
 62
     0
100
AcDbPoint
 10
1214.322192433855
 20
252.5125204969318
 30
0.0
  0
POINT
  5
3746
330
3714
100
AcDbEntity
  8
Defpoints
 62
     0
100
AcDbPoint
 10
1227.322192433855
 20
252.5125204969317
 30
0.0
  0
ENDBLK
  5
371F
330
3714
100
AcDbEntity
  8
0
100
AcDbBlockEnd
  0
BLOCK
  5
372A
330
3720
100
AcDbEntity
  8
0
100
AcDbBlockBegin
  2
*D18
 70
     1
 10
0.0
 20
0.0
 30
0.0
  3
*D18
  1

  0
LINE
  5
3735
330
3720
100
AcDbEntity
  8
AM_5
100
AcDbLine
 10
1215.322192433855
 20
274.5125204969318
 30
0.0
 11
1228.822192433855
 21
274.5125204969318
 31
0.0
  0
LINE
  5
3736
330
3720
100
AcDbEntity
  8
AM_5
100
AcDbLine
 10
1215.322192433855
 20
252.5125204969318
 30
0.0
 11
1228.822192433855
 21
252.5125204969317
 31
0.0
  0
LINE
  5
3737
330
3720
100
AcDbEntity
  8
AM_5
100
AcDbLine
 10
1227.322192433855
 20
271.5125204969317
 30
0.0
 11
1227.322192433855
 21
255.5125204969317
 31
0.0
  0
SOLID
  5
3738
330
3720
100
AcDbEntity
  8
AM_5
100
AcDbTrace
 10
1226.822192433855
 20
271.5125204969317
 30
0.0
 11
1227.822192433855
 21
271.5125204969317
 31
0.0
 12
1227.322192433855
 22
274.5125204969318
 32
0.0
 13
1227.322192433855
 23
274.5125204969318
 33
0.0
  0
SOLID
  5
3739
330
3720
100
AcDbEntity
  8
AM_5
100
AcDbTrace
 10
1226.822192433855
 20
255.5125204969317
 30
0.0
 11
1227.822192433855
 21
255.5125204969317
 31
0.0
 12
1227.322192433855
 22
252.5125204969317
 32
0.0
 13
1227.322192433855
 23
252.5125204969317
 33
0.0
  0
MTEXT
  5
373A
330
3720
100
AcDbEntity
  8
AM_5
100
AcDbMText
 10
1224.822192433855
 20
263.512520496932
 30
0.0
 40
3.0
 41
0.0
 71
     5
 72
     1
  1
22
  7
CHINESET
 11
0.0000000000000001
 21
1.0
 31
0.0
 73
     1
 44
1.0
1001
ACAD
1000
MTEXTBEGIN
1070
    73
1070
     1
1070
    44
1040
1.0
1070
    74
1070
     0
1000
MTEXTEND
  0
POINT
  5
373B
330
3720
100
AcDbEntity
  8
Defpoints
 62
     0
100
AcDbPoint
 10
1214.322192433855
 20
274.5125204969318
 30
0.0
  0
POINT
  5
373C
330
3720
100
AcDbEntity
  8
Defpoints
 62
     0
100
AcDbPoint
 10
1214.322192433855
 20
252.5125204969318
 30
0.0
  0
POINT
  5
373D
330
3720
100
AcDbEntity
  8
Defpoints
 62
     0
100
AcDbPoint
 10
1227.322192433855
 20
252.5125204969317
 30
0.0
  0
ENDBLK
  5
372B
330
3720
100
AcDbEntity
  8
0
100
AcDbBlockEnd
  0
BLOCK
  5
3752
330
3748
100
AcDbEntity
  8
0
100
AcDbBlockBegin
  2
*D19
 70
     1
 10
0.0
 20
0.0
 30
0.0
  3
*D19
  1

  0
LINE
  5
3766
330
3748
100
AcDbEntity
  8
AM_5
100
AcDbLine
 10
1122.822192433855
 20
168.5125204969317
 30
0.0
 11
1122.822192433855
 21
156.1937438471227
 31
0.0
  0
LINE
  5
3767
330
3748
100
AcDbEntity
  8
AM_5
100
AcDbLine
 10
1187.822192433855
 20
168.5125204969317
 30
0.0
 11
1187.822192433855
 21
156.1937438471227
 31
0.0
  0
LINE
  5
3768
330
3748
100
AcDbEntity
  8
AM_5
100
AcDbLine
 10
1125.822192433855
 20
157.6937438471227
 30
0.0
 11
1184.822192433855
 21
157.6937438471227
 31
0.0
  0
SOLID
  5
3769
330
3748
100
AcDbEntity
  8
AM_5
100
AcDbTrace
 10
1125.822192433855
 20
158.1937438471227
 30
0.0
 11
1125.822192433855
 21
157.1937438471227
 31
0.0
 12
1122.822192433855
 22
157.6937438471227
 32
0.0
 13
1122.822192433855
 23
157.6937438471227
 33
0.0
  0
SOLID
  5
376A
330
3748
100
AcDbEntity
  8
AM_5
100
AcDbTrace
 10
1184.822192433855
 20
158.1937438471227
 30
0.0
 11
1184.822192433855
 21
157.1937438471227
 31
0.0
 12
1187.822192433855
 22
157.6937438471227
 32
0.0
 13
1187.822192433855
 23
157.6937438471227
 33
0.0
  0
MTEXT
  5
376B
330
3748
100
AcDbEntity
  8
AM_5
100
AcDbMText
 10
1155.322192433855
 20
160.1937438471227
 30
0.0
 40
3.0
 41
0.0
 71
     5
 72
     1
  1
M65x1.5
  7
CHINESET
 73
     1
 44
1.0
1001
ACAD
1000
MTEXTBEGIN
1070
    73
1070
     1
1070
    44
1040
1.0
1070
    74
1070
     0
1000
MTEXTEND
  0
POINT
  5
376C
330
3748
100
AcDbEntity
  8
Defpoints
 62
     0
100
AcDbPoint
 10
1122.822192433855
 20
169.5125204969317
 30
0.0
  0
POINT
  5
376D
330
3748
100
AcDbEntity
  8
Defpoints
 62
     0
100
AcDbPoint
 10
1187.822192433855
 20
169.5125204969317
 30
0.0
  0
POINT
  5
376E
330
3748
100
AcDbEntity
  8
Defpoints
 62
     0
100
AcDbPoint
 10
1187.822192433855
 20
157.6937438471227
 30
0.0
  0
ENDBLK
  5
3753
330
3748
100
AcDbEntity
  8
0
100
AcDbBlockEnd
  0
BLOCK
  5
3789
330
377F
100
AcDbEntity
  8
0
100
AcDbBlockBegin
  2
*D20
 70
     1
 10
0.0
 20
0.0
 30
0.0
  3
*D20
  1

  0
LINE
  5
378D
330
377F
100
AcDbEntity
  8
AM_5
100
AcDbLine
 10
1094.409558371199
 20
333.4654345252534
 30
0.0
 11
1094.409558371199
 21
298.4654335152534
 31
0.0
  0
LINE
  5
378E
330
377F
100
AcDbEntity
  8
AM_5
100
AcDbLine
 10
1214.409558371199
 20
333.4654345252534
 30
0.0
 11
1214.409558371199
 21
298.4654335152534
 31
0.0
  0
LINE
  5
378F
330
377F
100
AcDbEntity
  8
AM_5
100
AcDbLine
 10
1097.409558371199
 20
299.9654335152535
 30
0.0
 11
1211.409558371199
 21
299.9654335152535
 31
0.0
  0
SOLID
  5
3790
330
377F
100
AcDbEntity
  8
AM_5
100
AcDbTrace
 10
1097.409558371199
 20
300.4654335152534
 30
0.0
 11
1097.409558371199
 21
299.4654335152534
 31
0.0
 12
1094.409558371199
 22
299.9654335152535
 32
0.0
 13
1094.409558371199
 23
299.9654335152535
 33
0.0
  0
SOLID
  5
3791
330
377F
100
AcDbEntity
  8
AM_5
100
AcDbTrace
 10
1211.409558371199
 20
300.4654335152534
 30
0.0
 11
1211.409558371199
 21
299.4654335152534
 31
0.0
 12
1214.409558371199
 22
299.9654335152535
 32
0.0
 13
1214.409558371199
 23
299.9654335152535
 33
0.0
  0
MTEXT
  5
3792
330
377F
100
AcDbEntity
  8
AM_5
100
AcDbMText
 10
1154.409558371199
 20
302.4654335152535
 30
0.0
 40
3.0
 41
0.0
 71
     5
 72
     1
  1
120
  7
CHINESET
 73
     1
 44
1.0
1001
ACAD
1000
MTEXTBEGIN
1070
    73
1070
     1
1070
    44
1040
1.0
1070
    74
1070
     0
1000
MTEXTEND
  0
POINT
  5
3793
330
377F
100
AcDbEntity
  8
Defpoints
 62
     0
100
AcDbPoint
 10
1094.409558371199
 20
334.4654345252534
 30
0.0
  0
POINT
  5
3794
330
377F
100
AcDbEntity
  8
Defpoints
 62
     0
100
AcDbPoint
 10
1214.409558371199
 20
334.4654345252534
 30
0.0
  0
POINT
  5
3795
330
377F
100
AcDbEntity
  8
Defpoints
 62
     0
100
AcDbPoint
 10
1214.409558371199
 20
299.9654335152535
 30
0.0
  0
ENDBLK
  5
378A
330
377F
100
AcDbEntity
  8
0
100
AcDbBlockEnd
  0
ENDSEC
  0
SECTION
  2
ENTITIES
  0
TEXT
  5
1728
330
1F
100
AcDbEntity
  8
LOGO
 62
     7
100
AcDbText
 10
784.1389268310808
 20
70.05363340389862
 30
0.0
 40
10.6651221719457
  1
Order example:
 41
0.8
  7
CHINESET
100
AcDbText
  0
TEXT
  5
1729
330
1F
100
AcDbEntity
  8
LOGO
 62
     7
100
AcDbText
 10
786.0523379457004
 20
85.06791718027557
 30
0.0
 40
15.99768325791855
  1
訂購代號:
  7
CHINESET
100
AcDbText
  0
LINE
  5
172A
330
1F
100
AcDbEntity
  8
LOGO
 62
     1
100
AcDbLine
 10
1335.530379236251
 20
105.0951974611587
 30
0.0
 11
603.5303792362515
 21
105.0951974611587
 31
0.0
  0
LINE
  5
172B
330
1F
100
AcDbEntity
  8
LOGO
 62
     1
100
AcDbLine
 10
779.5048950733558
 20
25.10678117156544
 30
0.0
 11
779.5048950733558
 21
105.0951974611587
 31
0.0
  0
TEXT
  5
172C
330
1F
100
AcDbEntity
  8
LOGO
  6
Continuous
 62
     5
100
AcDbText
 10
632.2625779223613
 20
40.82038483861083
 30
0.0
 40
11.99826244343891
  1
金器工業股份有限公司
  7
CHINESET
100
AcDbText
  0
TEXT
  5
172D
330
1F
100
AcDbEntity
  8
LOGO
  6
Continuous
 62
     5
100
AcDbText
 10
610.2241435529281
 20
28.81977167643322
 30
0.0
 40
7.998841628959275
  1
MINDMAN INDUSTRIAL CO., LTD.
 41
0.85
  7
CHINESET
100
AcDbText
  0
LINE
  5
172E
330
1F
100
AcDbEntity
  8
LOGO
 62
     1
100
AcDbLine
 10
779.5048950733558
 20
89.09751420324004
 30
0.0
 11
662.1885511819523
 21
89.09751420324004
 31
0.0
  0
LINE
  5
172F
330
1F
100
AcDbEntity
  8
LOGO
 62
     1
100
AcDbLine
 10
779.5048950733558
 20
73.0998309453214
 30
0.0
 11
662.1885511819523
 21
73.0998309453214
 31
0.0
  0
LINE
  5
1730
330
1F
100
AcDbEntity
  8
LOGO
 62
     1
100
AcDbLine
 10
779.5048950733558
 20
57.10214768740366
 30
0.0
 11
603.5303792362515
 21
57.10214768740366
 31
0.0
  0
LINE
  5
1731
330
1F
100
AcDbEntity
  8
LOGO
 62
     1
100
AcDbLine
 10
662.1885511819523
 20
57.10214768740366
 30
0.0
 11
662.1885511819523
 21
105.0951974611587
 31
0.0
  0
TEXT
  5
1732
330
1F
100
AcDbEntity
  8
LOGO
 62
     6
100
AcDbText
 10
738.1788655599446
 20
61.10156850188198
 30
0.0
 40
7.998841628959275
  1
m/m
  7
CHINESET
 72
     1
 11
752.27206271573
 21
65.10098931636162
 31
0.0
100
AcDbText
 73
     2
  0
TEXT
  5
1733
330
1F
100
AcDbEntity
  8
LOGO
 62
     6
100
AcDbText
 10
738.1788655599446
 20
93.0969350177193
 30
0.0
 40
7.998841628959275
  1
1 : 1
  7
CHINESET
 72
     1
 11
752.27206271573
 21
97.09635583219892
 31
0.0
100
AcDbText
 73
     2
  0
LINE
  5
1734
330
1F
100
AcDbEntity
  8
LOGO
 62
     1
100
AcDbLine
 10
726.1792842136269
 20
57.10214768740366
 30
0.0
 11
726.1792842136269
 21
105.0951974611587
 31
0.0
  0
CIRCLE
  5
1735
330
1F
100
AcDbEntity
  8
LOGO
  6
Continuous
 62
     6
100
AcDbCircle
 10
740.9901399689402
 20
81.11578215505938
 30
0.0
 40
4.644315721282525
  0
CIRCLE
  5
1736
330
1F
100
AcDbEntity
  8
LOGO
  6
Continuous
 62
     6
100
AcDbCircle
 10
740.9901399689402
 20
81.11578215505938
 30
0.0
 40
2.721157874662388
  0
LINE
  5
1737
330
1F
100
AcDbEntity
  8
LOGO
 62
     6
100
AcDbLine
 10
770.1755588650862
 20
76.47146643377595
 30
0.0
 11
770.1755588650862
 21
85.7600978763428
 31
0.0
  0
LINE
  5
1738
330
1F
100
AcDbEntity
  8
LOGO
 62
     6
100
AcDbLine
 10
755.6158956753092
 20
78.39462428039746
 30
0.0
 11
755.6158956753092
 21
83.8369400297222
 31
0.0
  0
LINE
  5
1739
330
1F
100
AcDbEntity
  8
LOGO
  6
Continuous
 62
     6
100
AcDbLine
 10
755.6158956753092
 20
83.8369400297222
 30
0.0
 11
770.1755588650862
 21
85.7600978763428
 31
0.0
  0
LINE
  5
173A
330
1F
100
AcDbEntity
  8
LOGO
  6
Continuous
 62
     6
100
AcDbLine
 10
755.6158956753092
 20
78.39462428039746
 30
0.0
 11
770.1755588650862
 21
76.47146643377595
 31
0.0
  0
TEXT
  5
173B
330
1F
100
AcDbEntity
  8
LOGO
 62
     6
100
AcDbText
 10
668.7840246144024
 20
93.10087145552882
 30
524.2309030401992
 40
7.998841628959275
  1
比例 Scale:
 41
0.9
  7
CHINESET
 72
     4
 11
694.1839176977896
 21
97.09635583219892
 31
524.2309030401992
100
AcDbText
  0
TEXT
  5
173C
330
1F
100
AcDbEntity
  8
LOGO
 62
     6
100
AcDbText
 10
668.3233770384489
 20
77.2117682738563
 30
524.2309030401992
 40
7.998841628959275
  1
投影  View:
 41
0.9
  7
CHINESET
 72
     4
 11
694.1839176977896
 21
81.09867257428026
 31
524.2309030401992
100
AcDbText
  0
TEXT
  5
173D
330
1F
100
AcDbEntity
  8
LOGO
 62
     6
100
AcDbText
 10
669.1054066441373
 20
61.10156850188198
 30
524.2309030401992
 40
7.998841628959275
  1
單位  Unit:
 41
0.9
  7
CHINESET
 72
     4
 11
694.1839176977896
 21
65.10098931636162
 31
524.2309030401992
100
AcDbText
  0
LWPOLYLINE
  5
173E
330
1F
100
AcDbEntity
  8
0
 62
     4
100
AcDbPolyline
 90
        4
 70
     1
 43
0.0
 10
603.5303792362515
 20
105.0951974611587
 10
1335.530379236251
 20
105.0951974611587
 10
1335.530379236251
 20
825.1067811715641
 10
603.5303792362515
 20
825.1067811715641
1001
GENIUS_GENREC_14
1002
{
1000
PYDIR
1011
603.5303792362515
1021
825.1067811715641
1031
0.0
1002
}
1002
{
1000
PXDIR
1011
1335.530379236251
1021
105.0951974611587
1031
0.0
1002
}
1002
{
1000
PORI
1011
603.5303792362515
1021
105.0951974611587
1031
0.0
1002
}
1002
{
1000
PINS
1011
603.5303792362515
1021
105.0951974611587
1031
0.0
1002
}
1002
{
1000
PINS2
1011
1335.530379236251
1021
825.1067811715641
1031
0.0
1002
}
1002
{
1000
C
1070
     1
1002
}
1001
GENIUS_GENODEF_13
1002
{
1000
HIER
1070
     0
1002
}
1002
{
1000
MANEDIT
1070
     0
1002
}
1002
{
1000
NOSEL
1070
     0
1002
}
1002
{
1000
BEHIND
1070
     0
1002
}
1002
{
1000
OTHER
1070
     0
1002
}
1002
{
1000
REACTOR
1002
}
1001
GENIUS_GENOBJ-N-REC_13
1002
{
1000
OWNER
1000
GEN
1002
}
  0
SOLID
  5
173F
330
1F
100
AcDbEntity
  8
LOGO
 62
     5
100
AcDbTrace
 10
611.8293057979403
 20
70.39908335009727
 30
0.0
 11
615.2877950286979
 21
70.39908335009636
 31
0.0
 12
629.7180431984102
 22
103.1951019176274
 32
0.0
 13
633.1765324291695
 23
103.1951019176256
 33
0.0
  0
SOLID
  5
1740
330
1F
100
AcDbEntity
  8
LOGO
 62
     5
100
AcDbTrace
 10
616.7188940207393
 20
70.39908335009727
 30
0.0
 11
620.1773832514968
 21
70.39908335009727
 31
0.0
 12
633.1765324291695
 22
100.5714204322237
 32
0.0
 13
629.7180431984102
 23
87.89029325277875
 33
0.0
  0
SOLID
  5
1741
330
1F
100
AcDbEntity
  8
LOGO
 62
     2
100
AcDbTrace
 10
615.2877950286979
 20
70.39908335009636
 30
0.0
 11
616.7188940207393
 21
70.39908335009727
 31
0.0
 12
633.1765324291695
 22
103.1951019176256
 32
0.0
 13
634.6076314212091
 23
103.1951019176256
 33
0.0
  0
SOLID
  5
1742
330
1F
100
AcDbEntity
  8
LOGO
 62
     5
100
AcDbTrace
 10
606.2844994355868
 20
58.47325841645101
 30
0.0
 11
607.4770819289528
 21
58.47325841645101
 31
0.0
 12
610.8354870534708
 22
64.43617088327369
 32
0.0
 13
612.0280695468331
 23
64.43617088327369
 33
0.0
  0
SOLID
  5
1743
330
1F
100
AcDbEntity
  8
LOGO
 62
     5
100
AcDbTrace
 10
610.8354870534708
 20
64.43617088327369
 30
0.0
 11
612.0280695468331
 21
64.43617088327369
 31
0.0
 12
610.8354870534708
 22
58.47325841645101
 32
0.0
 13
612.0280695468331
 23
58.47325841645101
 33
0.0
  0
SOLID
  5
1744
330
1F
100
AcDbEntity
  8
LOGO
 62
     5
100
AcDbTrace
 10
610.8354870534708
 20
58.47325841645101
 30
0.0
 11
612.0280695468331
 21
58.47325841645101
 31
0.0
 12
615.3864746713566
 22
64.43617088327369
 32
0.0
 13
616.5790571647208
 23
64.43617088327369
 33
0.0
  0
SOLID
  5
1745
330
1F
100
AcDbEntity
  8
LOGO
 62
     5
100
AcDbTrace
 10
615.3864746713566
 20
64.43617088327369
 30
0.0
 11
616.5790571647208
 21
64.43617088327369
 31
0.0
 12
615.3864746713566
 22
58.47325841645101
 32
0.0
 13
616.5790571647208
 23
58.47325841645101
 33
0.0
  0
POLYLINE
  5
1746
330
1F
100
AcDbEntity
  8
LOGO
 62
     5
100
AcDb2dPolyline
 66
     1
 10
0.0
 20
0.0
 30
0.0
 40
1.194493683257918
 41
1.194493683257918
  0
VERTEX
  5
1747
330
1746
100
AcDbEntity
  8
LOGO
 62
     5
100
AcDbVertex
100
AcDb2dVertex
 10
655.3614335905945
 20
62.05100589654444
 30
0.0
 42
1.0
  0
VERTEX
  5
1748
330
1746
100
AcDbEntity
  8
LOGO
 62
     5
100
AcDbVertex
100
AcDb2dVertex
 10
651.77795254082
 20
62.05100589654444
 30
0.0
 42
1.0
  0
SEQEND
  5
1749
330
1746
100
AcDbEntity
  8
LOGO
 62
     5
  0
POLYLINE
  5
174A
330
1F
100
AcDbEntity
  8
LOGO
 62
     5
100
AcDb2dPolyline
 66
     1
 10
0.0
 20
0.0
 30
0.0
 70
     1
  0
VERTEX
  5
174B
330
174A
100
AcDbEntity
  8
LOGO
 62
     5
100
AcDbVertex
100
AcDb2dVertex
 10
645.0229313687573
 20
61.45471464986144
 30
0.0
 42
1.000000057330635
  0
VERTEX
  5
174C
330
174A
100
AcDbEntity
  8
LOGO
 62
     5
100
AcDbVertex
100
AcDb2dVertex
 10
648.6006788488516
 20
61.45471464986144
 30
0.0
 42
1.000000057330635
  0
SEQEND
  5
174D
330
174A
100
AcDbEntity
  8
LOGO
 62
     5
  0
CIRCLE
  5
174E
330
1F
100
AcDbEntity
  8
LOGO
 62
     5
100
AcDbCircle
 10
646.8118051088072
 20
61.45471464986144
 30
0.0
 40
1.788873740047058
  0
POLYLINE
  5
174F
330
1F
100
AcDbEntity
  8
LOGO
 62
     5
100
AcDb2dPolyline
 66
     1
 10
0.0
 20
0.0
 30
0.0
 70
     1
 40
1.194493683257918
 41
1.194493683257918
  0
VERTEX
  5
1750
330
174F
100
AcDbEntity
  8
LOGO
 62
     5
100
AcDbVertex
100
AcDb2dVertex
 10
644.4228177422896
 20
61.45471464986144
 30
0.0
 42
1.0
  0
VERTEX
  5
1751
330
174F
100
AcDbEntity
  8
LOGO
 62
     5
100
AcDbVertex
100
AcDb2dVertex
 10
649.200792475321
 20
61.45471464986144
 30
0.0
 42
1.0
  0
SEQEND
  5
1752
330
174F
100
AcDbEntity
  8
LOGO
 62
     5
  0
LINE
  5
1753
330
1F
100
AcDbEntity
  8
LOGO
 62
     5
100
AcDbLine
 10
655.9548580524347
 20
58.47325841645101
 30
0.0
 11
655.9548580524347
 21
62.05100589654444
 31
0.0
  0
SOLID
  5
1754
330
1F
100
AcDbEntity
  8
LOGO
 62
     5
100
AcDbTrace
 10
648.6005595906076
 20
64.43617088327369
 30
0.0
 11
649.79314208397
 21
64.43617088327369
 31
0.0
 12
648.6005595906076
 22
58.47325841645101
 32
0.0
 13
649.79314208397
 23
58.47325841645101
 33
0.0
  0
SOLID
  5
1755
330
1F
100
AcDbEntity
  8
LOGO
 62
     5
100
AcDbTrace
 10
651.1845280789762
 20
58.47325841645101
 30
0.0
 11
652.3771105723422
 21
58.47325841645101
 31
0.0
 12
651.1845280789762
 22
64.43617088327369
 32
0.0
 13
652.3771105723422
 23
64.43617088327369
 33
0.0
  0
SOLID
  5
1756
330
1F
100
AcDbEntity
  8
LOGO
 62
     5
100
AcDbTrace
 10
654.7622755590723
 20
62.05100589654444
 30
0.0
 11
655.9548580524347
 21
62.05100589654444
 31
0.0
 12
654.7622755590723
 22
58.47325841645101
 32
0.0
 13
655.9548580524347
 23
58.47325841645101
 33
0.0
  0
SOLID
  5
1757
330
1F
100
AcDbEntity
  8
LOGO
 62
     5
100
AcDbTrace
 10
651.0652698296394
 20
100.5714204322237
 30
0.0
 11
647.6067805988837
 21
87.89029325277875
 31
0.0
 12
651.0652698296394
 22
70.39908335009636
 32
0.0
 13
647.6067805988837
 23
70.39908335009636
 33
0.0
  0
SOLID
  5
1758
330
1F
100
AcDbEntity
  8
LOGO
 62
     5
100
AcDbTrace
 10
652.4963688216789
 20
70.39908335009636
 30
0.0
 11
655.9548580524347
 21
70.39908335009636
 31
0.0
 12
652.4963688216789
 22
103.1951019176256
 32
0.0
 13
655.9548580524347
 23
103.1951019176274
 33
0.0
  0
SOLID
  5
1759
330
1F
100
AcDbEntity
  8
LOGO
 62
     2
100
AcDbTrace
 10
651.0652698296394
 20
103.1951019176274
 30
0.0
 11
652.4963688216789
 21
103.1951019176256
 31
0.0
 12
651.0652698296394
 22
70.39908335009636
 32
0.0
 13
652.4963688216789
 23
70.39908335009636
 33
0.0
  0
POLYLINE
  5
175A
330
1F
100
AcDbEntity
  8
LOGO
 62
     5
100
AcDb2dPolyline
 66
     1
 10
0.0
 20
0.0
 30
0.0
 40
1.194493683257918
 41
1.194493683257918
  0
VERTEX
  5
175B
330
175A
100
AcDbEntity
  8
LOGO
 62
     5
100
AcDbVertex
100
AcDb2dVertex
 10
638.2676716802011
 20
62.05100589654444
 30
0.0
 42
1.0
  0
VERTEX
  5
175C
330
175A
100
AcDbEntity
  8
LOGO
 62
     5
100
AcDbVertex
100
AcDb2dVertex
 10
634.6841906304266
 20
62.05100589654444
 30
0.0
 42
1.0
  0
SEQEND
  5
175D
330
175A
100
AcDbEntity
  8
LOGO
 62
     5
  0
POLYLINE
  5
175E
330
1F
100
AcDbEntity
  8
LOGO
 62
     5
100
AcDb2dPolyline
 66
     1
 10
0.0
 20
0.0
 30
0.0
 40
1.194493683257918
 41
1.194493683257918
  0
VERTEX
  5
175F
330
175E
100
AcDbEntity
  8
LOGO
 62
     5
100
AcDbVertex
100
AcDb2dVertex
 10
641.8454191602918
 20
62.05100589654444
 30
0.0
 42
1.0
  0
VERTEX
  5
1760
330
175E
100
AcDbEntity
  8
LOGO
 62
     5
100
AcDbVertex
100
AcDb2dVertex
 10
638.2619381105191
 20
62.05100589654444
 30
0.0
 42
1.0
  0
SEQEND
  5
1761
330
175E
100
AcDbEntity
  8
LOGO
 62
     5
  0
POLYLINE
  5
1762
330
1F
100
AcDbEntity
  8
LOGO
 62
     5
100
AcDb2dPolyline
 66
     1
 10
0.0
 20
0.0
 30
0.0
 40
1.194493683257918
 41
1.194493683257918
  0
VERTEX
  5
1763
330
1762
100
AcDbEntity
  8
LOGO
 62
     5
100
AcDbVertex
100
AcDb2dVertex
 10
624.7516572498985
 20
62.05100589654444
 30
0.0
 42
1.0
  0
VERTEX
  5
1764
330
1762
100
AcDbEntity
  8
LOGO
 62
     5
100
AcDbVertex
100
AcDb2dVertex
 10
621.1681762001258
 20
62.05100589654444
 30
0.0
 42
1.0
  0
SEQEND
  5
1765
330
1762
100
AcDbEntity
  8
LOGO
 62
     5
  0
SOLID
  5
1766
330
1F
100
AcDbEntity
  8
LOGO
 62
     5
100
AcDbTrace
 10
620.5747517382838
 20
64.43617088327369
 30
0.0
 11
621.7673342316461
 21
64.43617088327369
 31
0.0
 12
620.5747517382838
 22
58.47325841645101
 32
0.0
 13
621.7673342316461
 23
58.47325841645101
 33
0.0
  0
SOLID
  5
1767
330
1F
100
AcDbEntity
  8
LOGO
 62
     5
100
AcDbTrace
 10
624.1524992183781
 20
62.05100589654444
 30
0.0
 11
625.3450817117441
 21
62.05100589654444
 31
0.0
 12
624.1524992183781
 22
58.47325841645101
 32
0.0
 13
625.3450817117441
 23
58.47325841645101
 33
0.0
  0
POLYLINE
  5
1768
330
1F
100
AcDbEntity
  8
LOGO
 62
     5
100
AcDb2dPolyline
 66
     1
 10
0.0
 20
0.0
 30
0.0
 70
     1
 40
1.194493683257918
 41
1.194493683257918
  0
VERTEX
  5
1769
330
1768
100
AcDbEntity
  8
LOGO
 62
     5
100
AcDbVertex
100
AcDb2dVertex
 10
627.3290558318945
 20
61.45471464986144
 30
0.0
 42
1.0
  0
VERTEX
  5
176A
330
1768
100
AcDbEntity
  8
LOGO
 62
     5
100
AcDbVertex
100
AcDb2dVertex
 10
632.1070305649278
 20
61.45471464986144
 30
0.0
 42
1.0
  0
SEQEND
  5
176B
330
1768
100
AcDbEntity
  8
LOGO
 62
     5
  0
SOLID
  5
176C
330
1F
100
AcDbEntity
  8
LOGO
 62
     5
100
AcDbTrace
 10
631.5067976802106
 20
66.22504462332177
 30
0.0
 11
632.6993801735747
 21
66.22504462332177
 31
0.0
 12
631.5067976802106
 22
58.47325841645101
 32
0.0
 13
632.6993801735747
 23
58.47325841645101
 33
0.0
  0
SOLID
  5
176D
330
1F
100
AcDbEntity
  8
LOGO
 62
     5
100
AcDbTrace
 10
634.0907661685864
 20
64.43617088327369
 30
0.0
 11
635.2833486619488
 21
64.43617088327369
 31
0.0
 12
634.0907661685864
 22
58.47325841645101
 32
0.0
 13
635.2833486619488
 23
58.47325841645101
 33
0.0
  0
SOLID
  5
176E
330
1F
100
AcDbEntity
  8
LOGO
 62
     5
100
AcDbTrace
 10
637.6685136486771
 20
62.05100589654444
 30
0.0
 11
638.8610961420432
 21
62.05100589654444
 31
0.0
 12
637.6685136486771
 22
58.47325841645101
 32
0.0
 13
638.8610961420432
 23
58.47325841645101
 33
0.0
  0
SOLID
  5
176F
330
1F
100
AcDbEntity
  8
LOGO
 62
     5
100
AcDbTrace
 10
641.2462611287715
 20
62.05100589654444
 30
0.0
 11
642.4388436221356
 21
62.05100589654444
 31
0.0
 12
641.2462611287715
 22
58.4732584164492
 32
0.0
 13
642.4388436221356
 23
58.4732584164492
 33
0.0
  0
SOLID
  5
1770
330
1F
100
AcDbEntity
  8
LOGO
 62
     5
100
AcDbTrace
 10
617.9907832499098
 20
65.27097862862934
 30
0.0
 11
619.1833657432775
 21
65.27097862862934
 31
0.0
 12
617.9907832499098
 22
66.22504462332177
 32
0.0
 13
619.1833657432775
 23
66.22504462332177
 33
0.0
  0
SOLID
  5
1771
330
1F
100
AcDbEntity
  8
LOGO
 62
     5
100
AcDbTrace
 10
617.9907832499098
 20
64.43617088327369
 30
0.0
 11
619.1833657432775
 21
64.43617088327369
 31
0.0
 12
617.9907832499098
 22
58.4732584164492
 32
0.0
 13
619.1833657432775
 23
58.47325841645101
 33
0.0
  0
SOLID
  5
1772
330
1F
100
AcDbEntity
  8
LOGO
 62
     5
100
AcDbTrace
 10
629.7180431984102
 20
70.39908335009727
 30
0.0
 11
633.1765324291695
 21
70.39908335009727
 31
0.0
 12
629.7180431984102
 22
87.89029325277875
 32
0.0
 13
633.1765324291695
 23
100.5714204322237
 33
0.0
  0
SOLID
  5
1773
330
1F
100
AcDbEntity
  8
LOGO
 62
     5
100
AcDbTrace
 10
634.6076314212091
 20
103.1951019176256
 30
0.0
 11
638.0661206519648
 21
103.1951019176274
 31
0.0
 12
634.6076314212091
 22
73.02276483549917
 32
0.0
 13
638.0661206519648
 23
85.70389201494412
 33
0.0
  0
SOLID
  5
1774
330
1F
100
AcDbEntity
  8
LOGO
 62
     2
100
AcDbTrace
 10
633.1765324291695
 20
103.1951019176256
 30
0.0
 11
634.6076314212091
 21
103.1951019176256
 31
0.0
 12
633.1765324291695
 22
70.39908335009727
 32
0.0
 13
634.6076314212091
 23
70.39908335009727
 33
0.0
  0
SOLID
  5
1775
330
1F
100
AcDbEntity
  8
LOGO
 62
     5
100
AcDbTrace
 10
634.6076314212091
 20
73.02276483549917
 30
0.0
 11
638.0661206519648
 21
85.70389201494412
 31
0.0
 12
651.0652698296394
 22
103.1951019176274
 32
0.0
 13
647.6067805988837
 23
103.1951019176274
 33
0.0
  0
SOLID
  5
1776
330
1F
100
AcDbEntity
  8
LOGO
 62
     5
100
AcDbTrace
 10
634.6076314212091
 20
70.39908335009727
 30
0.0
 11
638.0661206519648
 21
70.39908335009727
 31
0.0
 12
651.0652698296394
 22
100.5714204322237
 32
0.0
 13
647.6067805988837
 23
87.89029325277875
 33
0.0
  0
SOLID
  5
1777
330
1F
100
AcDbEntity
  8
LOGO
 62
     2
100
AcDbTrace
 10
633.1765324291695
 20
70.39908335009727
 30
0.0
 11
634.6076314212091
 21
70.39908335009727
 31
0.0
 12
651.0652698296394
 22
103.1951019176274
 32
0.0
 13
652.4963688216789
 23
103.1951019176256
 33
0.0
  0
LWPOLYLINE
  5
1778
330
1F
100
AcDbEntity
  8
0
 62
     1
100
AcDbPolyline
 90
        4
 70
     1
 43
0.0
 10
603.5303792362515
 20
105.0951974611587
 10
1335.530379236251
 20
105.0951974611587
 10
1335.530379236251
 20
25.10678117156454
 10
603.5303792362515
 20
25.10678117156454
1001
GENIUS_GENREC_14
1002
{
1000
PYDIR
1011
603.5303792362515
1021
25.10678117156454
1031
0.0
1002
}
1002
{
1000
PXDIR
1011
1335.530379236251
1021
105.0951974611587
1031
0.0
1002
}
1002
{
1000
PORI
1011
603.5303792362515
1021
105.0951974611587
1031
0.0
1002
}
1002
{
1000
PINS
1011
603.5303792362515
1021
105.0951974611587
1031
0.0
1002
}
1002
{
1000
PINS2
1011
1335.530379236251
1021
25.10678117156454
1031
0.0
1002
}
1002
{
1000
C
1070
     1
1002
}
1001
GENIUS_GENOBJ-N-REC_13
1002
{
1000
OWNER
1000
GEN
1002
}
1001
GENIUS_GENODEF_13
1002
{
1000
HIER
1070
     0
1002
}
1002
{
1000
MANEDIT
1070
     0
1002
}
1002
{
1000
NOSEL
1070
     0
1002
}
1002
{
1000
BEHIND
1070
     0
1002
}
1002
{
1000
OTHER
1070
     0
1002
}
1002
{
1000
REACTOR
1002
}
  0
LINE
  5
1779
330
1F
100
AcDbEntity
  8
LOGO
 62
     6
100
AcDbLine
 10
940.1013332422312
 20
61.10156850188355
 30
0.0
 11
940.1013332422312
 21
31.77248252903132
 31
0.0
  0
LINE
  5
177A
330
1F
100
AcDbEntity
  8
LOGO
 62
     6
100
AcDbLine
 10
889.5254116135561
 20
61.10156850188355
 30
0.0
 11
889.5254116135561
 21
31.77248252903132
 31
0.0
  0
LINE
  5
177B
330
1F
100
AcDbEntity
  8
LOGO
 62
     6
100
AcDbLine
 10
940.1013332422312
 20
31.77248252903132
 30
0.0
 11
889.5254116135561
 21
31.77248252903132
 31
0.0
  0
LINE
  5
177C
330
1F
100
AcDbEntity
  8
LOGO
 62
     6
100
AcDbLine
 10
962.6617058018883
 20
97.09635583219892
 30
0.0
 11
889.5254116135561
 21
97.09635583219892
 31
0.0
  0
LINE
  5
177D
330
1F
100
AcDbEntity
  8
LOGO
 62
     6
100
AcDbLine
 10
962.6617058018883
 20
73.0998309453214
 30
0.0
 11
889.5254116135561
 21
73.0998309453214
 31
0.0
  0
LINE
  5
177E
330
1F
100
AcDbEntity
  8
LOGO
 62
     6
100
AcDbLine
 10
889.5254116135561
 20
97.09635583219892
 30
0.0
 11
889.5254116135561
 21
73.0998309453214
 31
0.0
  0
LINE
  5
177F
330
1F
100
AcDbEntity
  8
LOGO
 62
     6
100
AcDbLine
 10
962.6617058018883
 20
97.09635583219892
 30
0.0
 11
962.6617058018883
 21
73.0998309453214
 31
0.0
  0
LINE
  5
1780
330
1F
100
AcDbEntity
  8
LOGO
 62
     6
100
AcDbLine
 10
910.4135278037189
 20
73.0998309453214
 30
0.0
 11
910.4135278037189
 21
61.10156850188355
 31
0.0
  0
TEXT
  5
1781
330
1F
100
AcDbEntity
  8
LOGO
  6
Continuous
 62
     7
100
AcDbText
 10
893.7892182666759
 20
78.10907043254132
 30
0.0
 40
14.0
  1
MHTSD
  7
CHINESET
100
AcDbText
  0
LINE
  5
1782
330
1F
100
AcDbEntity
  8
LOGO
 62
     6
100
AcDbLine
 10
940.1013332422312
 20
61.10156850188355
 30
0.0
 11
889.5254116135561
 21
61.10156850188355
 31
0.0
  0
TEXT
  5
1783
330
1F
100
AcDbEntity
  8
LOGO
  6
Continuous
 62
     6
100
AcDbText
 10
907.1712491514954
 20
35.91222082032778
 30
524.2309030401992
 40
6.0
  1
Model
 41
0.8
  7
CHINESET
100
AcDbText
  0
TEXT
  5
1784
330
1F
100
AcDbEntity
  8
LOGO
 62
     6
100
AcDbText
 10
905.574244199499
 20
47.03492772803724
 30
524.2309030401992
 40
10.0
  1
型號
  7
CHINESET
100
AcDbText
  0
LINE
  5
1791
330
1F
100
AcDbEntity
  8
LOGO
 62
     6
100
AcDbLine
 10
1071.77285537441
 20
61.10156850188355
 30
0.0
 11
1071.77285537441
 21
31.77248252903132
 31
0.0
  0
LINE
  5
1792
330
1F
100
AcDbEntity
  8
LOGO
 62
     6
100
AcDbLine
 10
1018.447244514681
 20
61.10156850188355
 30
0.0
 11
1018.447244514681
 21
31.77248252903132
 31
0.0
  0
LINE
  5
1793
330
1F
100
AcDbEntity
  8
LOGO
 62
     6
100
AcDbLine
 10
1071.77285537441
 20
31.77248252903132
 30
0.0
 11
1018.447244514681
 21
31.77248252903132
 31
0.0
  0
LINE
  5
1794
330
1F
100
AcDbEntity
  8
LOGO
 62
     6
100
AcDbLine
 10
1035.20356806963
 20
97.09635583219892
 30
0.0
 11
1001.642581008096
 21
97.09635583219892
 31
0.0
  0
LINE
  5
1795
330
1F
100
AcDbEntity
  8
LOGO
 62
     6
100
AcDbLine
 10
1035.20356806963
 20
73.0998309453214
 30
0.0
 11
1001.642581008096
 21
73.0998309453214
 31
0.0
  0
LINE
  5
1796
330
1F
100
AcDbEntity
  8
LOGO
 62
     6
100
AcDbLine
 10
1001.642581008096
 20
97.09635583219892
 30
0.0
 11
1001.642581008096
 21
73.0998309453214
 31
0.0
  0
LINE
  5
1797
330
1F
100
AcDbEntity
  8
LOGO
 62
     6
100
AcDbLine
 10
1035.20356806963
 20
97.09635583219892
 30
0.0
 11
1035.20356806963
 21
73.0998309453214
 31
0.0
  0
TEXT
  5
1799
330
1F
100
AcDbEntity
  8
LOGO
  6
Continuous
 62
     7
100
AcDbText
 10
1006.899633539577
 20
78.10907043254132
 30
0.0
 40
14.0
  1
32
  7
CHINESET
100
AcDbText
  0
LINE
  5
179A
330
1F
100
AcDbEntity
  8
LOGO
 62
     6
100
AcDbLine
 10
1071.77285537441
 20
61.10156850188355
 30
0.0
 11
1018.447244514681
 21
61.10156850188355
 31
0.0
  0
TEXT
  5
17A8
330
1F
100
AcDbEntity
  8
LOGO
  6
Continuous
 62
     6
100
AcDbText
 10
1031.182473109055
 20
35.91222082032778
 30
524.2309030401992
 40
6.0
  1
Tube I.D.
 41
0.8
  7
CHINESET
100
AcDbText
  0
TEXT
  5
17A9
330
1F
100
AcDbEntity
  8
LOGO
 62
     6
100
AcDbText
 10
1033.601737752958
 20
47.03492772803724
 30
524.2309030401992
 40
10.0
  1
內徑
  7
CHINESET
100
AcDbText
  0
TEXT
  5
17B8
330
1F
100
AcDbEntity
  8
0
100
AcDbText
 10
783.3443707716398
 20
29.36213334725085
 30
0.0
 40
8.0
  1
10512266
 41
0.7
  7
CHINESET
 72
     1
 11
802.6777041049731
 21
29.36213334725085
 31
0.0
100
AcDbText
  0
LINE
  5
17B9
330
1F
100
AcDbEntity
  8
LOGO
 62
     1
100
AcDbLine
 10
827.5048950733522
 20
41.10446442948592
 30
0.0
 11
827.5048950733557
 21
25.10678117156635
 31
0.0
  0
LINE
  5
17BA
330
1F
100
AcDbEntity
  8
LOGO
 62
     1
100
AcDbLine
 10
827.5048950733522
 20
41.10446442948592
 30
0.0
 11
779.5048950733558
 21
41.10446442948592
 31
0.0
  0
LINE
  5
17BB
330
1F
100
AcDbEntity
  8
0
 62
     4
100
AcDbLine
 10
603.5303792362515
 20
465.1009893163614
 30
0.0
 11
1335.530379236251
 21
465.1009893163614
 31
0.0
  0
LINE
  5
198A
330
1F
100
AcDbEntity
  8
0
 62
     4
100
AcDbLine
 10
969.5303792362516
 20
825.1067811715641
 30
0.0
 11
969.5303792362516
 21
105.0951974611587
 31
0.0
  0
TEXT
  5
1A89
330
1F
100
AcDbEntity
  8
0
100
AcDbText
 10
621.5361330579203
 20
795.8336520981234
 30
0.0
 40
12.0
  1
%%c25
 41
0.75
  7
CHINESET
100
AcDbText
  0
TEXT
  5
1A8B
330
1F
100
AcDbEntity
  8
0
100
AcDbText
 10
987.5361330579202
 20
795.8336520981234
 30
0.0
 40
12.0
  1
%%c32
 41
0.75
  7
CHINESET
100
AcDbText
  0
TEXT
  5
1A8D
330
1F
100
AcDbEntity
  8
0
100
AcDbText
 10
621.5361330579203
 20
435.8278602429207
 30
0.0
 40
12.0
  1
%%c40
 41
0.75
  7
CHINESET
100
AcDbText
  0
TEXT
  5
1A8E
330
1F
100
AcDbEntity
  8
0
100
AcDbText
 10
987.5361330579202
 20
435.8278602429207
 30
0.0
 40
12.0
  1
%%c50
 41
0.75
  7
CHINESET
100
AcDbText
  0
LINE
  5
1A96
330
1F
100
AcDbEntity
  8
LOGO
 62
     6
100
AcDbLine
 10
1010.533155851831
 20
61.10156850188355
 30
0.0
 11
1010.533155851831
 21
31.77248252903132
 31
0.0
  0
LINE
  5
1A97
330
1F
100
AcDbEntity
  8
LOGO
 62
     6
100
AcDbLine
 10
944.6230178833753
 20
61.10156850188355
 30
0.0
 11
944.6230178833753
 21
31.77248252903132
 31
0.0
  0
LINE
  5
1A98
330
1F
100
AcDbEntity
  8
LOGO
 62
     6
100
AcDbLine
 10
1010.533155851831
 20
31.77248252903132
 30
0.0
 11
944.6230178833753
 21
31.77248252903132
 31
0.0
  0
LINE
  5
1A99
330
1F
100
AcDbEntity
  8
LOGO
 62
     6
100
AcDbLine
 10
982.9663036884213
 20
97.09635583219892
 30
0.0
 11
966.1440248102318
 21
97.09635583219892
 31
0.0
  0
LINE
  5
1A9A
330
1F
100
AcDbEntity
  8
LOGO
 62
     6
100
AcDbLine
 10
982.9663036884213
 20
73.0998309453214
 30
0.0
 11
966.1440248102318
 21
73.0998309453214
 31
0.0
  0
LINE
  5
1A9B
330
1F
100
AcDbEntity
  8
LOGO
 62
     6
100
AcDbLine
 10
966.1440248102318
 20
97.09635583219892
 30
0.0
 11
966.1440248102318
 21
73.0998309453214
 31
0.0
  0
LINE
  5
1A9C
330
1F
100
AcDbEntity
  8
LOGO
 62
     6
100
AcDbLine
 10
982.9663036884213
 20
97.09635583219892
 30
0.0
 11
982.9663036884213
 21
73.0998309453214
 31
0.0
  0
LINE
  5
1A9D
330
1F
100
AcDbEntity
  8
LOGO
 62
     6
100
AcDbLine
 10
975.3698649098023
 20
73.0998309453214
 30
0.0
 11
975.3698649098023
 21
61.10156850188355
 31
0.0
  0
TEXT
  5
1A9E
330
1F
100
AcDbEntity
  8
LOGO
  6
Continuous
 62
     7
100
AcDbText
 10
971.1330513615157
 20
78.10907043254132
 30
0.0
 40
14.0
  1
*
  7
CHINESET
100
AcDbText
  0
LINE
  5
1A9F
330
1F
100
AcDbEntity
  8
LOGO
 62
     6
100
AcDbLine
 10
1010.533155851831
 20
61.10156850188355
 30
0.0
 11
944.6230178833753
 21
61.10156850188355
 31
0.0
  0
TEXT
  5
1AA0
330
1F
100
AcDbEntity
  8
LOGO
  6
Continuous
 62
     6
100
AcDbText
 10
949.9757280796798
 20
35.91222082032778
 30
524.2309030401992
 40
6.0
  1
Swivel direction
 41
0.8
  7
CHINESET
100
AcDbText
  0
TEXT
  5
1AA1
330
1F
100
AcDbEntity
  8
LOGO
 62
     6
100
AcDbText
 10
956.7296670328264
 20
47.03492772803724
 30
524.2309030401992
 40
10.0
  1
旋轉方向
  7
CHINESET
100
AcDbText
  0
LINE
  5
1AA3
330
1F
100
AcDbEntity
  8
LOGO
  6
Continuous
 62
     7
100
AcDbLine
 10
987.3720283602288
 20
85.01309390526399
 30
0.0
 11
997.9680181559869
 21
85.01309390526399
 31
0.0
  0
TEXT
  5
1AA6
330
1F
100
AcDbEntity
  8
LOGO
  6
Continuous
 62
     7
100
AcDbText
 10
1041.525514236137
 20
78.10907043254132
 30
0.0
 40
14.0
  1
x
  7
CHINESET
100
AcDbText
  0
LINE
  5
1AA7
330
1F
100
AcDbEntity
  8
LOGO
 62
     6
100
AcDbLine
 10
1091.865749313144
 20
97.09635583219892
 30
0.0
 11
1053.928500452349
 21
97.09635583219892
 31
0.0
  0
LINE
  5
1AA8
330
1F
100
AcDbEntity
  8
LOGO
 62
     6
100
AcDbLine
 10
1091.865749313144
 20
73.0998309453214
 30
0.0
 11
1053.928500452349
 21
73.0998309453214
 31
0.0
  0
LINE
  5
1AA9
330
1F
100
AcDbEntity
  8
LOGO
 62
     6
100
AcDbLine
 10
1053.928500452349
 20
97.09635583219892
 30
0.0
 11
1053.928500452349
 21
73.0998309453214
 31
0.0
  0
LINE
  5
1AAA
330
1F
100
AcDbEntity
  8
LOGO
 62
     6
100
AcDbLine
 10
1091.865749313144
 20
97.09635583219892
 30
0.0
 11
1091.865749313144
 21
73.0998309453214
 31
0.0
  0
TEXT
  5
1AAB
330
1F
100
AcDbEntity
  8
LOGO
  6
Continuous
 62
     7
100
AcDbText
 10
1069.410867697951
 20
78.10907043254132
 30
0.0
 40
14.0
  1
*
  7
CHINESET
100
AcDbText
  0
LINE
  5
1AAC
330
1F
100
AcDbEntity
  8
LOGO
 62
     6
100
AcDbLine
 10
1127.742456395201
 20
61.10156850188355
 30
0.0
 11
1127.742456395201
 21
31.77248252903132
 31
0.0
  0
LINE
  5
1AAD
330
1F
100
AcDbEntity
  8
LOGO
 62
     6
100
AcDbLine
 10
1078.750372311161
 20
61.10156850188355
 30
0.0
 11
1078.750372311161
 21
31.77248252903132
 31
0.0
  0
LINE
  5
1AAE
330
1F
100
AcDbEntity
  8
LOGO
 62
     6
100
AcDbLine
 10
1127.742456395201
 20
31.77248252903132
 30
0.0
 11
1078.750372311161
 21
31.77248252903132
 31
0.0
  0
LINE
  5
1AAF
330
1F
100
AcDbEntity
  8
LOGO
 62
     6
100
AcDbLine
 10
1127.742456395201
 20
61.10156850188355
 30
0.0
 11
1078.750372311161
 21
61.10156850188355
 31
0.0
  0
TEXT
  5
1AB0
330
1F
100
AcDbEntity
  8
LOGO
  6
Continuous
 62
     6
100
AcDbText
 10
1091.131760835864
 20
35.91222082032778
 30
524.2309030401992
 40
6.0
  1
Angle
 41
0.8
  7
CHINESET
100
AcDbText
  0
TEXT
  5
1AB1
330
1F
100
AcDbEntity
  8
LOGO
 62
     6
100
AcDbText
 10
1083.524798063598
 20
47.03492772803724
 30
524.2309030401992
 40
10.0
  1
旋轉角度
  7
CHINESET
100
AcDbText
  0
LINE
  5
1AB7
330
1F
100
AcDbEntity
  8
LOGO
 62
     6
100
AcDbLine
 10
1072.897124882746
 20
73.0998309453214
 30
0.0
 11
1072.897124882746
 21
67.10069972360248
 31
0.0
  0
LINE
  5
1AB8
330
1F
100
AcDbEntity
  8
LOGO
 62
     6
100
AcDbLine
 10
1072.897124882746
 20
67.10069972360248
 30
0.0
 11
1103.24641435318
 21
67.10069972360248
 31
0.0
  0
LINE
  5
1AB9
330
1F
100
AcDbEntity
  8
LOGO
 62
     6
100
AcDbLine
 10
1103.246414353181
 20
61.10156850188355
 30
0.0
 11
1103.24641435318
 21
67.10069972360248
 31
0.0
  0
LINE
  5
1ABA
330
1F
100
AcDbEntity
  8
LOGO
 62
     6
100
AcDbLine
 10
1024.079755247796
 20
73.0998309453214
 30
0.0
 11
1024.079755247796
 21
67.10069972360248
 31
0.0
  0
LINE
  5
1ABB
330
1F
100
AcDbEntity
  8
LOGO
 62
     6
100
AcDbLine
 10
1024.079755247796
 20
67.10069972360248
 30
0.0
 11
1045.110049944545
 21
67.10069972360248
 31
0.0
  0
LINE
  5
1ABC
330
1F
100
AcDbEntity
  8
LOGO
 62
     6
100
AcDbLine
 10
1045.110049944545
 20
61.10156850188355
 30
0.0
 11
1045.110049944545
 21
67.10069972360248
 31
0.0
  0
LINE
  5
3259
330
1F
100
AcDbEntity
  8
0
100
AcDbLine
 10
762.003412412429
 20
595.6575795242009
 30
0.0
 11
803.003412412429
 21
595.6575795242009
 31
0.0
  0
LINE
  5
325A
330
1F
100
AcDbEntity
  8
0
100
AcDbLine
 10
792.503412412429
 20
625.6575795242008
 30
0.0
 11
792.503412412429
 21
595.6575795242009
 31
0.0
  0
LINE
  5
325B
330
1F
100
AcDbEntity
  8
0
100
AcDbLine
 10
772.503412412429
 20
625.6575795242008
 30
0.0
 11
772.503412412429
 21
595.6575795242009
 31
0.0
  0
LINE
  5
325C
330
1F
100
AcDbEntity
  8
0
100
AcDbLine
 10
762.003412412429
 20
525.6575795242008
 30
0.0
 11
803.003412412429
 21
525.6575795242008
 31
0.0
  0
LINE
  5
325D
330
1F
100
AcDbEntity
  8
0
100
AcDbLine
 10
761.003412412429
 20
594.6575795242008
 30
0.0
 11
761.003412412429
 21
526.6575795242008
 31
0.0
  0
LINE
  5
325E
330
1F
100
AcDbEntity
  8
0
100
AcDbLine
 10
804.0034124124289
 20
594.6575795242008
 30
0.0
 11
804.0034124124289
 21
526.6575795242008
 31
0.0
  0
LINE
  5
325F
330
1F
100
AcDbEntity
  8
0
100
AcDbLine
 10
762.003412412429
 20
595.6575795242009
 30
0.0
 11
761.003412412429
 21
594.6575795242008
 31
0.0
  0
LINE
  5
3260
330
1F
100
AcDbEntity
  8
0
100
AcDbLine
 10
803.003412412429
 20
595.6575795242009
 30
0.0
 11
804.0034124124289
 21
594.6575795242008
 31
0.0
  0
LINE
  5
3261
330
1F
100
AcDbEntity
  8
0
100
AcDbLine
 10
803.003412412429
 20
525.6575795242008
 30
0.0
 11
804.0034124124289
 21
526.6575795242008
 31
0.0
  0
LINE
  5
3262
330
1F
100
AcDbEntity
  8
0
100
AcDbLine
 10
762.003412412429
 20
525.6575795242008
 30
0.0
 11
761.003412412429
 21
526.6575795242008
 31
0.0
  0
LINE
  5
3263
330
1F
100
AcDbEntity
  8
0
100
AcDbLine
 10
761.003412412429
 20
534.6575795242008
 30
0.0
 11
804.0034124124289
 21
534.6575795242008
 31
0.0
  0
LINE
  5
3264
330
1F
100
AcDbEntity
  8
0
100
AcDbLine
 10
761.003412412429
 20
569.6575795242008
 30
0.0
 11
804.0034124124289
 21
569.6575795242008
 31
0.0
  0
LINE
  5
3265
330
1F
100
AcDbEntity
  8
0
100
AcDbLine
 10
760.003412412429
 20
568.6575795242008
 30
0.0
 11
760.003412412429
 21
535.6575795242008
 31
0.0
  0
LINE
  5
3266
330
1F
100
AcDbEntity
  8
0
100
AcDbLine
 10
805.0034124124291
 20
568.6575795242008
 30
0.0
 11
805.0034124124291
 21
535.6575795242008
 31
0.0
  0
LINE
  5
3267
330
1F
100
AcDbEntity
  8
0
100
AcDbLine
 10
760.003412412429
 20
568.6575795242008
 30
0.0
 11
761.003412412429
 21
569.6575795242008
 31
0.0
  0
LINE
  5
3268
330
1F
100
AcDbEntity
  8
0
100
AcDbLine
 10
804.0034124124289
 20
569.6575795242008
 30
0.0
 11
805.0034124124291
 21
568.6575795242008
 31
0.0
  0
LINE
  5
3269
330
1F
100
AcDbEntity
  8
0
100
AcDbLine
 10
804.0034124124289
 20
534.6575795242008
 30
0.0
 11
805.0034124124291
 21
535.6575795242008
 31
0.0
  0
LINE
  5
326A
330
1F
100
AcDbEntity
  8
0
100
AcDbLine
 10
760.003412412429
 20
535.6575795242008
 30
0.0
 11
761.003412412429
 21
534.6575795242008
 31
0.0
  0
LINE
  5
326E
330
1F
100
AcDbEntity
  8
0
100
AcDbLine
 10
733.503412412429
 20
710.9440610279726
 30
0.0
 11
831.503412412429
 21
710.9440610279726
 31
0.0
  0
LINE
  5
326F
330
1F
100
AcDbEntity
  8
0
100
AcDbLine
 10
733.503412412429
 20
691.9440610279727
 30
0.0
 11
831.503412412429
 21
691.9440610279727
 31
0.0
  0
LINE
  5
3270
330
1F
100
AcDbEntity
  8
0
100
AcDbLine
 10
832.503412412429
 20
692.9440610279726
 30
0.0
 11
832.503412412429
 21
709.9440610279726
 31
0.0
  0
LINE
  5
3271
330
1F
100
AcDbEntity
  8
0
100
AcDbLine
 10
732.503412412429
 20
692.9440610279726
 30
0.0
 11
732.503412412429
 21
709.9440610279726
 31
0.0
  0
LINE
  5
3272
330
1F
100
AcDbEntity
  8
0
100
AcDbLine
 10
772.003412412429
 20
696.9440610279726
 30
0.0
 11
793.003412412429
 21
696.9440610279726
 31
0.0
  0
LINE
  5
3273
330
1F
100
AcDbEntity
  8
0
100
AcDbLine
 10
772.003412412429
 20
705.9440610279726
 30
0.0
 11
793.003412412429
 21
705.9440610279726
 31
0.0
  0
ARC
  5
3274
330
1F
100
AcDbEntity
  8
0
100
AcDbCircle
 10
772.003412412429
 20
701.4440610279726
 30
0.0
 40
4.5
100
AcDbArc
 50
90.0
 51
270.0
  0
ARC
  5
3275
330
1F
100
AcDbEntity
  8
0
100
AcDbCircle
 10
793.003412412429
 20
701.4440610279726
 30
0.0
 40
4.5
100
AcDbArc
 50
270.0
 51
90.0
  0
ARC
  5
3276
330
1F
100
AcDbEntity
  8
0
100
AcDbCircle
 10
782.503412412429
 20
701.4440610279726
 30
0.0
 40
9.0
100
AcDbArc
 50
329.9999999999995
 51
30.00000000000055
  0
ARC
  5
3277
330
1F
100
AcDbEntity
  8
0
100
AcDbCircle
 10
782.503412412429
 20
701.4440610279726
 30
0.0
 40
9.0
100
AcDbArc
 50
149.9999999999994
 51
210.0000000000005
  0
LINE
  5
3278
330
1F
100
AcDbEntity
  8
0
100
AcDbLine
 10
831.503412412429
 20
710.9440610279726
 30
0.0
 11
832.503412412429
 21
709.9440610279726
 31
0.0
  0
LINE
  5
3279
102
{ACAD_REACTORS
330
336D
102
}
330
1F
100
AcDbEntity
  8
0
100
AcDbLine
 10
832.503412412429
 20
692.9440610279726
 30
0.0
 11
831.503412412429
 21
691.9440610279727
 31
0.0
  0
LINE
  5
327A
102
{ACAD_REACTORS
330
336D
102
}
330
1F
100
AcDbEntity
  8
0
100
AcDbLine
 10
733.503412412429
 20
691.9440610279727
 30
0.0
 11
732.503412412429
 21
692.9440610279726
 31
0.0
  0
LINE
  5
327B
330
1F
100
AcDbEntity
  8
0
100
AcDbLine
 10
732.503412412429
 20
709.9440610279726
 30
0.0
 11
733.503412412429
 21
710.9440610279726
 31
0.0
  0
LINE
  5
327C
330
1F
100
AcDbEntity
  8
0
100
AcDbLine
 10
733.503412412429
 20
625.6575795242008
 30
0.0
 11
831.503412412429
 21
625.6575795242008
 31
0.0
  0
LINE
  5
327D
330
1F
100
AcDbEntity
  8
0
100
AcDbLine
 10
733.503412412429
 20
644.6575795242008
 30
0.0
 11
831.503412412429
 21
644.6575795242008
 31
0.0
  0
LINE
  5
327E
330
1F
100
AcDbEntity
  8
0
100
AcDbLine
 10
732.503412412429
 20
626.6575795242008
 30
0.0
 11
732.503412412429
 21
643.6575795242008
 31
0.0
  0
LINE
  5
327F
330
1F
100
AcDbEntity
  8
0
100
AcDbLine
 10
733.503412412429
 20
625.6575795242008
 30
0.0
 11
732.503412412429
 21
626.6575795242008
 31
0.0
  0
LINE
  5
3280
330
1F
100
AcDbEntity
  8
0
100
AcDbLine
 10
732.503412412429
 20
643.6575795242008
 30
0.0
 11
733.503412412429
 21
644.6575795242008
 31
0.0
  0
LINE
  5
3281
330
1F
100
AcDbEntity
  8
0
100
AcDbLine
 10
832.503412412429
 20
626.6575795242008
 30
0.0
 11
832.503412412429
 21
643.6575795242008
 31
0.0
  0
LINE
  5
3282
330
1F
100
AcDbEntity
  8
0
100
AcDbLine
 10
832.503412412429
 20
626.6575795242008
 30
0.0
 11
831.503412412429
 21
625.6575795242008
 31
0.0
  0
LINE
  5
3283
330
1F
100
AcDbEntity
  8
0
100
AcDbLine
 10
831.503412412429
 20
644.6575795242008
 30
0.0
 11
832.503412412429
 21
643.6575795242008
 31
0.0
  0
CIRCLE
  5
3284
330
1F
100
AcDbEntity
  8
0
100
AcDbCircle
 10
782.503412412429
 20
635.1575795242008
 30
0.0
 40
4.0
  0
ARC
  5
3286
330
1F
100
AcDbEntity
  8
0
100
AcDbCircle
 10
782.503412412429
 20
701.4440610279726
 30
0.0
 40
22.5
100
AcDbArc
 50
26.22264650491538
 51
153.7773534950846
  0
ARC
  5
3287
330
1F
100
AcDbEntity
  8
0
100
AcDbCircle
 10
782.503412412429
 20
701.4440610279726
 30
0.0
 40
22.5
100
AcDbArc
 50
206.2226465049154
 51
333.7773534950847
  0
ARC
  5
3288
330
1F
100
AcDbEntity
  8
0
100
AcDbCircle
 10
782.503412412429
 20
701.4440610279726
 30
0.0
 40
21.5
100
AcDbArc
 50
206.2226465049154
 51
333.7773534950847
  0
ARC
  5
3289
330
1F
100
AcDbEntity
  8
0
100
AcDbCircle
 10
782.503412412429
 20
701.4440610279726
 30
0.0
 40
21.5
100
AcDbArc
 50
26.22264650491538
 51
153.7773534950846
  0
LINE
  5
328D
330
1F
100
AcDbEntity
  8
0
  6
HIDDEN
 62
     3
 48
0.5
100
AcDbLine
 10
792.8358421021936
 20
590.5519091775211
 30
0.0
 11
804.0034124124289
 21
590.5519091775211
 31
0.0
  0
LINE
  5
328E
330
1F
100
AcDbEntity
  8
0
  6
HIDDEN
 62
     3
 48
0.5
100
AcDbLine
 10
793.313092649019
 20
581.0519091775211
 30
0.0
 11
804.0034124124289
 21
581.0519091775211
 31
0.0
  0
LINE
  5
328F
330
1F
100
AcDbEntity
  8
0
  6
HIDDEN
 62
     3
 48
0.5
100
AcDbLine
 10
793.313092649019
 20
582.0519091775211
 30
0.0
 11
804.0034124124289
 21
582.0519091775209
 31
0.0
  0
LINE
  5
3290
330
1F
100
AcDbEntity
  8
0
  6
HIDDEN
 62
     3
 48
0.5
100
AcDbLine
 10
792.8358421021936
 20
589.5519091775211
 30
0.0
 11
804.0034124124289
 21
589.5519091775211
 31
0.0
  0
LINE
  5
3291
330
1F
100
AcDbEntity
  8
0
  6
HIDDEN
 62
     3
 48
0.5
100
AcDbLine
 10
801.6908870040563
 20
535.3704753317841
 30
0.0
 11
801.6908870040563
 21
525.6575795242008
 31
0.0
  0
LINE
  5
3292
330
1F
100
AcDbEntity
  8
0
  6
HIDDEN
 62
     3
 48
0.5
100
AcDbLine
 10
791.6908870040563
 20
534.5315191439323
 30
0.0
 11
791.6908870040563
 21
525.6575795242008
 31
0.0
  0
LINE
  5
3293
330
1F
100
AcDbEntity
  8
0
  6
HIDDEN
 62
     3
 48
0.5
100
AcDbLine
 10
800.6908870040563
 20
535.2026842445535
 30
0.0
 11
800.6908870040563
 21
525.6575795242008
 31
0.0
  0
LINE
  5
3294
330
1F
100
AcDbEntity
  8
0
  6
HIDDEN
 62
     3
 48
0.5
100
AcDbLine
 10
792.6908870040563
 20
534.867102070092
 30
0.0
 11
792.6908870040563
 21
525.6575795242008
 31
0.0
  0
LINE
  5
32A1
330
1F
100
AcDbEntity
  8
AM_7
100
AcDbLine
 10
782.503412412429
 20
646.6575795242008
 30
0.0
 11
782.503412412429
 21
523.6575795242008
 31
0.0
1001
GENIUS_GENODEF_13
1002
{
1000
HIER
1070
     0
1002
}
1002
{
1000
MANEDIT
1070
     0
1002
}
1002
{
1000
NOSEL
1070
     0
1002
}
1002
{
1000
BEHIND
1070
     0
1002
}
1002
{
1000
OTHER
1070
     0
1002
}
1002
{
1000
REACTOR
1002
}
1001
GENIUS_GENOBJ-N-CEN_13
1002
{
1000
OWNER
1000
GEN
1002
}
1001
GENIUS_GENCEN_19
1002
{
1040
2.0
1002
}
  0
LINE
  5
32AE
330
1F
100
AcDbEntity
  8
AM_7
100
AcDbLine
 10
730.503412412429
 20
701.4440610279726
 30
0.0
 11
834.5034124124291
 21
701.4440610279726
 31
0.0
1001
GENIUS_GENODEF_13
1002
{
1000
HIER
1070
     0
1002
}
1002
{
1000
MANEDIT
1070
     0
1002
}
1002
{
1000
NOSEL
1070
     0
1002
}
1002
{
1000
BEHIND
1070
     0
1002
}
1002
{
1000
OTHER
1070
     0
1002
}
1002
{
1000
REACTOR
1002
}
1001
GENIUS_GENOBJ-N-CEN_13
1002
{
1000
OWNER
1000
GEN
1002
}
1001
GENIUS_GENCEN_19
1002
{
1040
2.0
1002
}
  0
LINE
  5
32BB
330
1F
100
AcDbEntity
  8
AM_7
100
AcDbLine
 10
782.503412412429
 20
725.9440610279726
 30
0.0
 11
782.503412412429
 21
676.9440610279726
 31
0.0
1001
GENIUS_GENODEF_13
1002
{
1000
HIER
1070
     0
1002
}
1002
{
1000
MANEDIT
1070
     0
1002
}
1002
{
1000
NOSEL
1070
     0
1002
}
1002
{
1000
BEHIND
1070
     0
1002
}
1002
{
1000
OTHER
1070
     0
1002
}
1002
{
1000
REACTOR
1002
}
1001
GENIUS_GENOBJ-N-CEN_13
1002
{
1000
OWNER
1000
GEN
1002
}
1001
GENIUS_GENCEN_19
1002
{
1040
2.0
1002
}
  0
DIMENSION
  5
32BC
330
1F
100
AcDbEntity
  8
AM_5
100
AcDbDimension
  2
*D3
 10
826.5034124124291
 20
595.6575795242009
 30
0.0
 11
824.0034124124289
 21
560.6575795242011
 31
0.0
 70
    32
 71
     5
 42
70.0
  3
AM_ISO$0
100
AcDbAlignedDimension
 13
803.003412412429
 23
525.6575795242008
 33
0.0
 14
803.003412412429
 24
595.6575795242009
 34
0.0
 50
90.0
100
AcDbRotatedDimension
1001
ACAD
1000
DSTYLE
1002
{
1070
    40
1040
1.0
1070
   144
1040
1.0
1070
   272
1070
     8
1002
}
  0
DIMENSION
  5
32BD
330
1F
100
AcDbEntity
  8
AM_5
100
AcDbDimension
  2
*D4
 10
844.503412412429
 20
625.6575795242008
 30
0.0
 11
842.0034124124288
 21
575.657579524201
 31
0.0
 70
    32
 71
     5
 42
100.0
  3
AM_ISO$0
100
AcDbAlignedDimension
 13
803.003412412429
 23
525.6575795242008
 33
0.0
 14
831.503412412429
 24
625.6575795242008
 34
0.0
 50
90.0
100
AcDbRotatedDimension
1001
ACAD
1000
DSTYLE
1002
{
1070
    40
1040
1.0
1070
   144
1040
1.0
1070
   272
1070
     8
1002
}
  0
DIMENSION
  5
32BE
330
1F
100
AcDbEntity
  8
AM_5
100
AcDbDimension
  2
*D5
 10
844.503412412429
 20
625.6575795242008
 30
0.0
 11
842.0034124124288
 21
635.1575795242011
 31
0.0
 70
    32
 71
     5
 42
19.0
  3
AM_ISO$0
100
AcDbAlignedDimension
 13
831.503412412429
 23
644.6575795242008
 33
0.0
 14
831.503412412429
 24
625.6575795242008
 34
0.0
 50
90.0
100
AcDbRotatedDimension
1001
ACAD
1000
DSTYLE
1002
{
1070
    40
1040
1.0
1070
   144
1040
1.0
1070
   272
1070
     8
1002
}
  0
DIMENSION
  5
32BF
330
1F
100
AcDbEntity
  8
AM_5
100
AcDbDimension
  2
*D6
 10
805.0034124124291
 20
545.3388028743918
 30
0.0
 11
782.503412412429
 21
547.8388028743918
 31
0.0
 70
    32
  1
M<>x1.5
 71
     5
 42
45.0
  3
AM_ISO$0
100
AcDbAlignedDimension
 13
760.003412412429
 23
552.1575795242008
 33
0.0
 14
805.0034124124291
 24
552.1575795242008
 34
0.0
 50
0.0000000000002036
100
AcDbRotatedDimension
1001
ACAD
1000
DSTYLE
1002
{
1070
    40
1040
1.0
1070
   144
1040
1.0
1070
   272
1070
     8
1002
}
  0
DIMENSION
  5
335F
102
{ACAD_XDICTIONARY
360
336C
102
}
102
{ACAD_REACTORS
330
336D
102
}
330
1F
100
AcDbEntity
  8
AM_5
100
AcDbDimension
  2
*D7
 10
832.503412412429
 20
666.9440600179727
 30
0.0
 11
782.503412412429
 21
669.4440600179726
 31
0.0
 70
    32
 71
     5
 42
100.0
  3
AM_ISO$0
100
AcDbAlignedDimension
 13
732.503412412429
 23
692.9440610279726
 33
0.0
 14
832.503412412429
 24
692.9440610279726
 34
0.0
 50
0.0000000000002036
100
AcDbRotatedDimension
1001
ACAD
1000
DSTYLE
1002
{
1070
    40
1040
1.0
1070
   144
1040
1.0
1070
   272
1070
     8
1002
}
  0
LINE
  5
33CB
330
1F
100
AcDbEntity
  8
0
100
AcDbLine
 10
1133.322192433855
 20
601.6575795242008
 30
0.0
 11
1177.322192433855
 21
601.6575795242008
 31
0.0
  0
LINE
  5
33CC
330
1F
100
AcDbEntity
  8
0
100
AcDbLine
 10
1131.822192433855
 20
525.6575795242008
 30
0.0
 11
1178.822192433855
 21
525.6575795242008
 31
0.0
  0
LINE
  5
33CD
330
1F
100
AcDbEntity
  8
0
100
AcDbLine
 10
1130.322192433855
 20
578.6575795242008
 30
0.0
 11
1130.322192433855
 21
535.6575795242008
 31
0.0
  0
LINE
  5
33CE
330
1F
100
AcDbEntity
  8
0
100
AcDbLine
 10
1133.322192433855
 20
601.6575795242008
 30
0.0
 11
1131.322192433855
 21
599.6575795242009
 31
0.0
  0
LINE
  5
33CF
330
1F
100
AcDbEntity
  8
0
100
AcDbLine
 10
1180.322192433855
 20
578.6575795242008
 30
0.0
 11
1180.322192433855
 21
535.6575795242008
 31
0.0
  0
LINE
  5
33D0
330
1F
100
AcDbEntity
  8
0
100
AcDbLine
 10
1179.322192433855
 20
599.6575795242009
 30
0.0
 11
1177.322192433855
 21
601.6575795242008
 31
0.0
  0
LINE
  5
33D1
330
1F
100
AcDbEntity
  8
0
100
AcDbLine
 10
1179.322192433855
 20
599.6575795242009
 30
0.0
 11
1179.322192433855
 21
526.1575795242008
 31
0.0
  0
LINE
  5
33D2
330
1F
100
AcDbEntity
  8
0
100
AcDbLine
 10
1131.322192433855
 20
599.6575795242009
 30
0.0
 11
1131.322192433855
 21
526.1575795242008
 31
0.0
  0
LINE
  5
33D3
330
1F
100
AcDbEntity
  8
0
100
AcDbLine
 10
1131.322192433855
 20
579.6575795242008
 30
0.0
 11
1179.322192433855
 21
579.6575795242008
 31
0.0
  0
LINE
  5
33D4
330
1F
100
AcDbEntity
  8
0
100
AcDbLine
 10
1178.822192433855
 20
525.6575795242008
 30
0.0
 11
1179.322192433855
 21
526.1575795242008
 31
0.0
  0
LINE
  5
33D5
330
1F
100
AcDbEntity
  8
0
100
AcDbLine
 10
1131.322192433855
 20
526.1575795242008
 30
0.0
 11
1131.822192433855
 21
525.6575795242008
 31
0.0
  0
LINE
  5
33D8
330
1F
100
AcDbEntity
  8
0
100
AcDbLine
 10
1131.322192433855
 20
534.6575795242008
 30
0.0
 11
1179.322192433855
 21
534.6575795242008
 31
0.0
  0
LINE
  5
33D9
330
1F
100
AcDbEntity
  8
0
100
AcDbLine
 10
1179.322192433855
 20
534.6575795242008
 30
0.0
 11
1180.322192433855
 21
535.6575795242008
 31
0.0
  0
LINE
  5
33DA
330
1F
100
AcDbEntity
  8
0
100
AcDbLine
 10
1131.322192433855
 20
534.6575795242008
 30
0.0
 11
1130.322192433855
 21
535.6575795242008
 31
0.0
  0
LINE
  5
33DB
330
1F
100
AcDbEntity
  8
0
100
AcDbLine
 10
1145.322192433855
 20
636.6575795242008
 30
0.0
 11
1145.322192433855
 21
601.6575795242008
 31
0.0
  0
LINE
  5
33DC
330
1F
100
AcDbEntity
  8
0
100
AcDbLine
 10
1165.322192433855
 20
636.6575795242008
 30
0.0
 11
1165.322192433855
 21
601.6575795242008
 31
0.0
  0
ARC
  5
33DF
330
1F
100
AcDbEntity
  8
0
100
AcDbCircle
 10
1142.822192433855
 20
719.24266869614
 30
0.0
 40
5.0
100
AcDbArc
 50
90.0
 51
270.0
  0
LINE
  5
33E0
330
1F
100
AcDbEntity
  8
0
100
AcDbLine
 10
1096.322192433855
 20
730.2426686961401
 30
0.0
 11
1214.322192433855
 21
730.2426686961401
 31
0.0
  0
LINE
  5
33E1
330
1F
100
AcDbEntity
  8
0
100
AcDbLine
 10
1096.322192433855
 20
708.24266869614
 30
0.0
 11
1214.322192433855
 21
708.24266869614
 31
0.0
  0
LINE
  5
33E2
330
1F
100
AcDbEntity
  8
0
100
AcDbLine
 10
1095.322192433855
 20
709.2426686961401
 30
0.0
 11
1095.322192433855
 21
729.24266869614
 31
0.0
  0
LINE
  5
33E3
102
{ACAD_REACTORS
330
351D
102
}
330
1F
100
AcDbEntity
  8
0
100
AcDbLine
 10
1096.322192433855
 20
708.24266869614
 30
0.0
 11
1095.322192433855
 21
709.2426686961401
 31
0.0
  0
LINE
  5
33E4
330
1F
100
AcDbEntity
  8
0
100
AcDbLine
 10
1095.322192433855
 20
729.24266869614
 30
0.0
 11
1096.322192433855
 21
730.2426686961401
 31
0.0
  0
ARC
  5
33E5
330
1F
100
AcDbEntity
  8
0
100
AcDbCircle
 10
1155.322192433855
 20
719.24266869614
 30
0.0
 40
10.0
100
AcDbArc
 50
329.9999999999995
 51
30.00000000000055
  0
ARC
  5
33E6
330
1F
100
AcDbEntity
  8
0
100
AcDbCircle
 10
1167.822192433855
 20
719.24266869614
 30
0.0
 40
5.0
100
AcDbArc
 50
270.0
 51
90.0
  0
ARC
  5
33E7
330
1F
100
AcDbEntity
  8
0
100
AcDbCircle
 10
1155.322192433855
 20
719.24266869614
 30
0.0
 40
10.0
100
AcDbArc
 50
149.9999999999994
 51
210.0000000000005
  0
LINE
  5
33E8
330
1F
100
AcDbEntity
  8
0
100
AcDbLine
 10
1142.822192433855
 20
714.2426686961401
 30
0.0
 11
1167.822192433855
 21
714.2426686961401
 31
0.0
  0
LINE
  5
33E9
330
1F
100
AcDbEntity
  8
0
100
AcDbLine
 10
1142.822192433855
 20
724.24266869614
 30
0.0
 11
1167.822192433855
 21
724.24266869614
 31
0.0
  0
LINE
  5
33EA
330
1F
100
AcDbEntity
  8
0
100
AcDbLine
 10
1215.322192433855
 20
709.2426686961401
 30
0.0
 11
1215.322192433855
 21
729.24266869614
 31
0.0
  0
LINE
  5
33EB
102
{ACAD_REACTORS
330
351D
102
}
330
1F
100
AcDbEntity
  8
0
100
AcDbLine
 10
1215.322192433855
 20
709.2426686961401
 30
0.0
 11
1214.322192433855
 21
708.24266869614
 31
0.0
  0
LINE
  5
33EC
330
1F
100
AcDbEntity
  8
0
100
AcDbLine
 10
1214.322192433855
 20
730.2426686961401
 30
0.0
 11
1215.322192433855
 21
729.24266869614
 31
0.0
  0
LINE
  5
33ED
330
1F
100
AcDbEntity
  8
0
100
AcDbLine
 10
1096.322192433855
 20
658.6575795242008
 30
0.0
 11
1214.322192433855
 21
658.6575795242008
 31
0.0
  0
LINE
  5
33EE
330
1F
100
AcDbEntity
  8
0
100
AcDbLine
 10
1096.322192433855
 20
636.6575795242008
 30
0.0
 11
1214.322192433855
 21
636.6575795242008
 31
0.0
  0
LINE
  5
33EF
330
1F
100
AcDbEntity
  8
0
100
AcDbLine
 10
1095.322192433855
 20
637.6575795242009
 30
0.0
 11
1095.322192433855
 21
657.6575795242008
 31
0.0
  0
LINE
  5
33F0
330
1F
100
AcDbEntity
  8
0
100
AcDbLine
 10
1096.322192433855
 20
636.6575795242008
 30
0.0
 11
1095.322192433855
 21
637.6575795242009
 31
0.0
  0
LINE
  5
33F1
330
1F
100
AcDbEntity
  8
0
100
AcDbLine
 10
1095.322192433855
 20
657.6575795242008
 30
0.0
 11
1096.322192433855
 21
658.6575795242008
 31
0.0
  0
LINE
  5
33F2
330
1F
100
AcDbEntity
  8
0
100
AcDbLine
 10
1215.322192433855
 20
637.6575795242009
 30
0.0
 11
1215.322192433855
 21
657.6575795242008
 31
0.0
  0
CIRCLE
  5
33F3
330
1F
100
AcDbEntity
  8
0
100
AcDbCircle
 10
1155.322192433855
 20
647.6575795242008
 30
0.0
 40
4.0
  0
LINE
  5
33F4
330
1F
100
AcDbEntity
  8
0
100
AcDbLine
 10
1215.322192433855
 20
637.6575795242009
 30
0.0
 11
1214.322192433855
 21
636.6575795242008
 31
0.0
  0
LINE
  5
33F5
330
1F
100
AcDbEntity
  8
0
100
AcDbLine
 10
1214.322192433855
 20
658.6575795242008
 30
0.0
 11
1215.322192433855
 21
657.6575795242008
 31
0.0
  0
ARC
  5
33F8
330
1F
100
AcDbEntity
  8
0
100
AcDbCircle
 10
1155.322192433855
 20
719.24266869614
 30
0.0
 40
24.0
100
AcDbArc
 50
27.27961273598019
 51
152.7203872640198
  0
ARC
  5
33F9
330
1F
100
AcDbEntity
  8
0
100
AcDbCircle
 10
1155.322192433855
 20
719.24266869614
 30
0.0
 40
25.0
100
AcDbArc
 50
26.10388113733649
 51
153.8961188626635
  0
ARC
  5
33FA
330
1F
100
AcDbEntity
  8
0
100
AcDbCircle
 10
1155.322192433855
 20
719.24266869614
 30
0.0
 40
24.0
100
AcDbArc
 50
207.2796127359802
 51
332.7203872640199
  0
ARC
  5
33FB
330
1F
100
AcDbEntity
  8
0
100
AcDbCircle
 10
1155.322192433855
 20
719.24266869614
 30
0.0
 40
25.0
100
AcDbArc
 50
206.1038811373365
 51
333.8961188626635
  0
LINE
  5
33FE
330
1F
100
AcDbEntity
  8
0
100
AcDbLine
 10
1130.322192433855
 20
578.6575795242008
 30
0.0
 11
1131.322192433855
 21
579.6575795242008
 31
0.0
  0
LINE
  5
33FF
330
1F
100
AcDbEntity
  8
0
100
AcDbLine
 10
1179.322192433855
 20
579.6575795242008
 30
0.0
 11
1180.322192433855
 21
578.6575795242008
 31
0.0
  0
LINE
  5
340D
330
1F
100
AcDbEntity
  8
AM_7
100
AcDbLine
 10
1155.322192433855
 20
660.6575795242008
 30
0.0
 11
1155.322192433855
 21
523.6575795242008
 31
0.0
1001
GENIUS_GENODEF_13
1002
{
1000
HIER
1070
     0
1002
}
1002
{
1000
MANEDIT
1070
     0
1002
}
1002
{
1000
NOSEL
1070
     0
1002
}
1002
{
1000
BEHIND
1070
     0
1002
}
1002
{
1000
OTHER
1070
     0
1002
}
1002
{
1000
REACTOR
1002
}
1001
GENIUS_GENOBJ-N-CEN_13
1002
{
1000
OWNER
1000
GEN
1002
}
1001
GENIUS_GENCEN_19
1002
{
1040
2.0
1002
}
  0
LINE
  5
340E
330
1F
100
AcDbEntity
  8
0
  6
HIDDEN
 62
     3
 48
0.5
100
AcDbLine
 10
1167.772603734426
 20
595.255485566746
 30
0.0
 11
1179.322192433855
 21
595.255485566746
 31
0.0
  0
LINE
  5
340F
330
1F
100
AcDbEntity
  8
0
  6
HIDDEN
 62
     3
 48
0.5
100
AcDbLine
 10
1168.249854281251
 20
585.755485566746
 30
0.0
 11
1179.322192433855
 21
585.755485566746
 31
0.0
  0
LINE
  5
3410
330
1F
100
AcDbEntity
  8
0
  6
HIDDEN
 62
     3
 48
0.5
100
AcDbLine
 10
1168.249854281251
 20
586.755485566746
 30
0.0
 11
1179.322192433855
 21
586.755485566746
 31
0.0
  0
LINE
  5
3411
330
1F
100
AcDbEntity
  8
0
  6
HIDDEN
 62
     3
 48
0.5
100
AcDbLine
 10
1167.772603734426
 20
594.255485566746
 30
0.0
 11
1179.322192433855
 21
594.255485566746
 31
0.0
  0
LINE
  5
3412
330
1F
100
AcDbEntity
  8
0
  6
HIDDEN
 62
     3
 48
0.5
100
AcDbLine
 10
1175.533685252705
 20
534.6462156567802
 30
0.0
 11
1175.533685252705
 21
525.6575795242008
 31
0.0
  0
LINE
  5
3413
330
1F
100
AcDbEntity
  8
0
  6
HIDDEN
 62
     3
 48
0.5
100
AcDbLine
 10
1165.533685252705
 20
533.8072594689284
 30
0.0
 11
1165.533685252705
 21
525.6575795242008
 31
0.0
  0
LINE
  5
3414
330
1F
100
AcDbEntity
  8
0
  6
HIDDEN
 62
     3
 48
0.5
100
AcDbLine
 10
1174.533685252705
 20
534.4784245695495
 30
0.0
 11
1174.533685252705
 21
525.6575795242008
 31
0.0
  0
LINE
  5
3415
330
1F
100
AcDbEntity
  8
0
  6
HIDDEN
 62
     3
 48
0.5
100
AcDbLine
 10
1166.533685252705
 20
534.1428423950882
 30
0.0
 11
1166.533685252705
 21
525.6575795242008
 31
0.0
  0
LINE
  5
3422
330
1F
100
AcDbEntity
  8
AM_7
100
AcDbLine
 10
1093.322192433855
 20
719.24266869614
 30
0.0
 11
1217.322192433855
 21
719.24266869614
 31
0.0
1001
GENIUS_GENODEF_13
1002
{
1000
HIER
1070
     0
1002
}
1002
{
1000
MANEDIT
1070
     0
1002
}
1002
{
1000
NOSEL
1070
     0
1002
}
1002
{
1000
BEHIND
1070
     0
1002
}
1002
{
1000
OTHER
1070
     0
1002
}
1002
{
1000
REACTOR
1002
}
1001
GENIUS_GENOBJ-N-CEN_13
1002
{
1000
OWNER
1000
GEN
1002
}
1001
GENIUS_GENCEN_19
1002
{
1040
2.0
1002
}
  0
LINE
  5
342F
330
1F
100
AcDbEntity
  8
AM_7
100
AcDbLine
 10
1155.322192433855
 20
746.24266869614
 30
0.0
 11
1155.322192433855
 21
692.2426686961401
 31
0.0
1001
GENIUS_GENODEF_13
1002
{
1000
HIER
1070
     0
1002
}
1002
{
1000
MANEDIT
1070
     0
1002
}
1002
{
1000
NOSEL
1070
     0
1002
}
1002
{
1000
BEHIND
1070
     0
1002
}
1002
{
1000
OTHER
1070
     0
1002
}
1002
{
1000
REACTOR
1002
}
1001
GENIUS_GENOBJ-N-CEN_13
1002
{
1000
OWNER
1000
GEN
1002
}
1001
GENIUS_GENCEN_19
1002
{
1040
2.0
1002
}
  0
DIMENSION
  5
3430
330
1F
100
AcDbEntity
  8
AM_5
100
AcDbDimension
  2
*D8
 10
1192.322192433855
 20
601.6575795242008
 30
0.0
 11
1189.822192433855
 21
563.6575795242009
 31
0.0
 70
    32
 71
     5
 42
76.0
  3
AM_ISO$0
100
AcDbAlignedDimension
 13
1178.822192433855
 23
525.6575795242008
 33
0.0
 14
1177.322192433855
 24
601.6575795242008
 34
0.0
 50
90.0
100
AcDbRotatedDimension
1001
ACAD
1000
DSTYLE
1002
{
1070
    40
1040
1.0
1070
   144
1040
1.0
1070
   272
1070
     8
1002
}
  0
DIMENSION
  5
3431
330
1F
100
AcDbEntity
  8
AM_5
100
AcDbDimension
  2
*D9
 10
1227.322192433855
 20
636.6575795242008
 30
0.0
 11
1224.822192433855
 21
581.1575795242009
 31
0.0
 70
    32
 71
     5
 42
111.0
  3
AM_ISO$0
100
AcDbAlignedDimension
 13
1178.822192433855
 23
525.6575795242008
 33
0.0
 14
1214.322192433855
 24
636.6575795242008
 34
0.0
 50
90.0
100
AcDbRotatedDimension
1001
ACAD
1000
DSTYLE
1002
{
1070
    40
1040
1.0
1070
   144
1040
1.0
1070
   272
1070
     8
1002
}
  0
DIMENSION
  5
3432
330
1F
100
AcDbEntity
  8
AM_5
100
AcDbDimension
  2
*D10
 10
1227.322192433855
 20
636.6575795242008
 30
0.0
 11
1224.822192433855
 21
647.6575795242009
 31
0.0
 70
    32
 71
     5
 42
22.0
  3
AM_ISO$0
100
AcDbAlignedDimension
 13
1214.322192433855
 23
658.6575795242008
 33
0.0
 14
1214.322192433855
 24
636.6575795242008
 34
0.0
 50
90.0
100
AcDbRotatedDimension
1001
ACAD
1000
DSTYLE
1002
{
1070
    40
1040
1.0
1070
   144
1040
1.0
1070
   272
1070
     8
1002
}
  0
DIMENSION
  5
3433
330
1F
100
AcDbEntity
  8
AM_5
100
AcDbDimension
  2
*D11
 10
1180.322192433855
 20
545.3388028743918
 30
0.0
 11
1155.322192433855
 21
547.8388028743918
 31
0.0
 70
    32
  1
M<>x1.5
 71
     5
 42
50.0
  3
AM_ISO$0
100
AcDbAlignedDimension
 13
1130.322192433855
 23
557.1575795242008
 33
0.0
 14
1180.322192433855
 24
557.1575795242008
 34
0.0
 50
0.0000000000002036
100
AcDbRotatedDimension
1001
ACAD
1000
DSTYLE
1002
{
1070
    40
1040
1.0
1070
   144
1040
1.0
1070
   272
1070
     8
1002
}
  0
DIMENSION
  5
350F
102
{ACAD_XDICTIONARY
360
351C
102
}
102
{ACAD_REACTORS
330
351D
102
}
330
1F
100
AcDbEntity
  8
AM_5
100
AcDbDimension
  2
*D12
 10
1215.322192433855
 20
682.24266768614
 30
0.0
 11
1155.322192433855
 21
684.7426676861401
 31
0.0
 70
    32
 71
     5
 42
120.0
  3
AM_ISO$0
100
AcDbAlignedDimension
 13
1095.322192433855
 23
709.2426686961401
 33
0.0
 14
1215.322192433855
 24
709.2426686961401
 34
0.0
 50
0.0000000000002036
100
AcDbRotatedDimension
1001
ACAD
1000
DSTYLE
1002
{
1070
    40
1040
1.0
1070
   144
1040
1.0
1070
   272
1070
     8
1002
}
  0
LINE
  5
357C
330
1F
100
AcDbEntity
  8
0
100
AcDbLine
 10
758.003412412429
 20
218.0125204969317
 30
0.0
 11
807.003412412429
 21
218.0125204969317
 31
0.0
  0
LINE
  5
357D
330
1F
100
AcDbEntity
  8
0
100
AcDbLine
 10
756.503412412429
 20
138.0125204969317
 30
0.0
 11
808.5034124124289
 21
138.0125204969317
 31
0.0
  0
LINE
  5
357E
330
1F
100
AcDbEntity
  8
0
100
AcDbLine
 10
756.003412412429
 20
216.0125204969318
 30
0.0
 11
756.003412412429
 21
138.5125204969317
 31
0.0
  0
LINE
  5
357F
330
1F
100
AcDbEntity
  8
0
100
AcDbLine
 10
758.003412412429
 20
218.0125204969317
 30
0.0
 11
756.003412412429
 21
216.0125204969317
 31
0.0
  0
LINE
  5
3580
330
1F
100
AcDbEntity
  8
0
100
AcDbLine
 10
809.003412412429
 20
216.0125204969317
 30
0.0
 11
809.0034124124288
 21
138.5125204969317
 31
0.0
  0
LINE
  5
3581
330
1F
100
AcDbEntity
  8
0
100
AcDbLine
 10
809.003412412429
 20
216.0125204969317
 30
0.0
 11
807.003412412429
 21
218.0125204969317
 31
0.0
  0
LINE
  5
3582
330
1F
100
AcDbEntity
  8
0
100
AcDbLine
 10
756.0034124124289
 20
192.0125204969317
 30
0.0
 11
809.0034124124288
 21
192.0125204969317
 31
0.0
  0
LINE
  5
3583
330
1F
100
AcDbEntity
  8
0
100
AcDbLine
 10
756.003412412429
 20
147.0125204969317
 30
0.0
 11
809.0034124124288
 21
147.0125204969317
 31
0.0
  0
LINE
  5
3584
330
1F
100
AcDbEntity
  8
0
100
AcDbLine
 10
809.0034124124288
 20
138.5125204969317
 30
0.0
 11
808.5034124124289
 21
138.0125204969317
 31
0.0
  0
LINE
  5
3585
330
1F
100
AcDbEntity
  8
0
100
AcDbLine
 10
756.503412412429
 20
138.0125204969317
 30
0.0
 11
756.003412412429
 21
138.5125204969317
 31
0.0
  0
LINE
  5
3588
330
1F
100
AcDbEntity
  8
0
100
AcDbLine
 10
772.503412412429
 20
251.6125204969317
 30
0.0
 11
772.503412412429
 21
218.0125204969317
 31
0.0
  0
LINE
  5
3589
330
1F
100
AcDbEntity
  8
0
100
AcDbLine
 10
792.503412412429
 20
251.6125204969317
 30
0.0
 11
792.503412412429
 21
218.0125204969317
 31
0.0
  0
LINE
  5
358A
330
1F
100
AcDbEntity
  8
0
100
AcDbLine
 10
755.0034124124289
 20
191.0125204969317
 30
0.0
 11
755.003412412429
 21
148.0125204969317
 31
0.0
  0
LINE
  5
358B
330
1F
100
AcDbEntity
  8
0
100
AcDbLine
 10
810.0034124124288
 20
191.0125204969317
 30
0.0
 11
810.0034124124288
 21
148.0125204969317
 31
0.0
  0
LINE
  5
358C
330
1F
100
AcDbEntity
  8
0
100
AcDbLine
 10
809.0034124124288
 20
147.0125204969317
 30
0.0
 11
810.0034124124288
 21
148.0125204969317
 31
0.0
  0
LINE
  5
358D
330
1F
100
AcDbEntity
  8
0
100
AcDbLine
 10
755.003412412429
 20
148.0125204969317
 30
0.0
 11
756.003412412429
 21
147.0125204969317
 31
0.0
  0
ARC
  5
358F
330
1F
100
AcDbEntity
  8
0
100
AcDbCircle
 10
782.3991780168442
 20
337.1149469454471
 30
0.0
 40
26.5
100
AcDbArc
 50
204.5252576384159
 51
335.4747423615842
  0
LINE
  5
3592
330
1F
100
AcDbEntity
  8
0
100
AcDbLine
 10
842.3991780168442
 20
327.1149469454471
 30
0.0
 11
842.3991780168442
 21
347.1149469454471
 31
0.0
  0
LINE
  5
3593
330
1F
100
AcDbEntity
  8
0
100
AcDbLine
 10
722.3991780168441
 20
327.1149469454471
 30
0.0
 11
722.3991780168441
 21
347.1149469454471
 31
0.0
  0
LINE
  5
3594
330
1F
100
AcDbEntity
  8
0
100
AcDbLine
 10
723.3991780168442
 20
326.1149469454471
 30
0.0
 11
841.3991780168441
 21
326.1149469454471
 31
0.0
  0
LINE
  5
3595
330
1F
100
AcDbEntity
  8
0
100
AcDbLine
 10
723.3991780168442
 20
326.1149469454471
 30
0.0
 11
722.3991780168441
 21
327.1149469454471
 31
0.0
  0
LINE
  5
3596
330
1F
100
AcDbEntity
  8
0
100
AcDbLine
 10
842.3991780168442
 20
327.1149469454471
 30
0.0
 11
841.3991780168441
 21
326.1149469454471
 31
0.0
  0
LINE
  5
3597
330
1F
100
AcDbEntity
  8
0
100
AcDbLine
 10
723.3991780168442
 20
348.1149469454471
 30
0.0
 11
841.3991780168441
 21
348.1149469454471
 31
0.0
  0
LINE
  5
3598
330
1F
100
AcDbEntity
  8
0
100
AcDbLine
 10
769.8991780168442
 20
342.1149469454471
 30
0.0
 11
794.8991780168442
 21
342.1149469454471
 31
0.0
  0
LINE
  5
3599
330
1F
100
AcDbEntity
  8
0
100
AcDbLine
 10
769.8991780168442
 20
332.1149469454471
 30
0.0
 11
794.8991780168442
 21
332.1149469454471
 31
0.0
  0
LINE
  5
359A
330
1F
100
AcDbEntity
  8
0
100
AcDbLine
 10
722.3991780168441
 20
347.1149469454471
 30
0.0
 11
723.3991780168442
 21
348.1149469454471
 31
0.0
  0
ARC
  5
359B
330
1F
100
AcDbEntity
  8
0
100
AcDbCircle
 10
769.8991780168442
 20
337.1149469454471
 30
0.0
 40
5.0
100
AcDbArc
 50
90.0
 51
270.0
  0
ARC
  5
359C
330
1F
100
AcDbEntity
  8
0
100
AcDbCircle
 10
782.3991780168442
 20
337.1149469454471
 30
0.0
 40
10.0
100
AcDbArc
 50
149.9999999999994
 51
210.0000000000005
  0
ARC
  5
359D
330
1F
100
AcDbEntity
  8
0
100
AcDbCircle
 10
782.3991780168442
 20
337.1149469454471
 30
0.0
 40
10.0
100
AcDbArc
 50
329.9999999999995
 51
30.00000000000055
  0
ARC
  5
359E
330
1F
100
AcDbEntity
  8
0
100
AcDbCircle
 10
794.8991780168442
 20
337.1149469454471
 30
0.0
 40
5.0
100
AcDbArc
 50
270.0
 51
90.0
  0
LINE
  5
359F
330
1F
100
AcDbEntity
  8
0
100
AcDbLine
 10
841.3991780168441
 20
348.1149469454471
 30
0.0
 11
842.3991780168442
 21
347.1149469454471
 31
0.0
  0
CIRCLE
  5
35A0
330
1F
100
AcDbEntity
  8
0
100
AcDbCircle
 10
782.503412412429
 20
262.6125204969317
 30
0.0
 40
4.0
  0
LINE
  5
35A1
330
1F
100
AcDbEntity
  8
0
100
AcDbLine
 10
842.5034124124291
 20
252.6125204969317
 30
0.0
 11
842.5034124124291
 21
272.6125204969317
 31
0.0
  0
LINE
  5
35A2
330
1F
100
AcDbEntity
  8
0
100
AcDbLine
 10
722.503412412429
 20
252.6125204969317
 30
0.0
 11
722.503412412429
 21
272.6125204969317
 31
0.0
  0
LINE
  5
35A3
330
1F
100
AcDbEntity
  8
0
100
AcDbLine
 10
723.503412412429
 20
251.6125204969317
 30
0.0
 11
841.5034124124289
 21
251.6125204969317
 31
0.0
  0
LINE
  5
35A4
330
1F
100
AcDbEntity
  8
0
100
AcDbLine
 10
723.503412412429
 20
251.6125204969317
 30
0.0
 11
722.503412412429
 21
252.6125204969317
 31
0.0
  0
LINE
  5
35A5
330
1F
100
AcDbEntity
  8
0
100
AcDbLine
 10
842.5034124124291
 20
252.6125204969317
 30
0.0
 11
841.5034124124289
 21
251.6125204969317
 31
0.0
  0
LINE
  5
35A6
330
1F
100
AcDbEntity
  8
0
100
AcDbLine
 10
723.503412412429
 20
273.6125204969317
 30
0.0
 11
841.5034124124289
 21
273.6125204969317
 31
0.0
  0
LINE
  5
35A7
330
1F
100
AcDbEntity
  8
0
100
AcDbLine
 10
722.503412412429
 20
272.6125204969317
 30
0.0
 11
723.503412412429
 21
273.6125204969317
 31
0.0
  0
LINE
  5
35A8
330
1F
100
AcDbEntity
  8
0
100
AcDbLine
 10
841.5034124124289
 20
273.6125204969317
 30
0.0
 11
842.5034124124291
 21
272.6125204969317
 31
0.0
  0
ARC
  5
35A9
330
1F
100
AcDbEntity
  8
0
100
AcDbCircle
 10
782.3991780168442
 20
337.1149469454471
 30
0.0
 40
26.5
100
AcDbArc
 50
24.52525763841586
 51
155.4747423615841
  0
ARC
  5
35AB
330
1F
100
AcDbEntity
  8
0
100
AcDbCircle
 10
782.3991780168442
 20
337.1149469454471
 30
0.0
 40
27.5
100
AcDbArc
 50
24.52525763841586
 51
155.4747423615841
  0
ARC
  5
35AC
330
1F
100
AcDbEntity
  8
0
100
AcDbCircle
 10
782.3991780168442
 20
337.1149469454471
 30
0.0
 40
27.5
100
AcDbArc
 50
204.5252576384159
 51
335.4747423615842
  0
LINE
  5
35AF
330
1F
100
AcDbEntity
  8
0
100
AcDbLine
 10
809.0034124124288
 20
192.0125204969317
 30
0.0
 11
810.0034124124288
 21
191.0125204969317
 31
0.0
  0
LINE
  5
35B0
330
1F
100
AcDbEntity
  8
0
100
AcDbLine
 10
756.0034124124289
 20
192.0125204969317
 30
0.0
 11
755.0034124124289
 21
191.0125204969317
 31
0.0
  0
LINE
  5
35BD
330
1F
100
AcDbEntity
  8
AM_7
100
AcDbLine
 10
782.503412412429
 20
275.6125204969317
 30
0.0
 11
782.503412412429
 21
136.0125204969317
 31
0.0
1001
GENIUS_GENODEF_13
1002
{
1000
HIER
1070
     0
1002
}
1002
{
1000
MANEDIT
1070
     0
1002
}
1002
{
1000
NOSEL
1070
     0
1002
}
1002
{
1000
BEHIND
1070
     0
1002
}
1002
{
1000
OTHER
1070
     0
1002
}
1002
{
1000
REACTOR
1002
}
1001
GENIUS_GENOBJ-N-CEN_13
1002
{
1000
OWNER
1000
GEN
1002
}
1001
GENIUS_GENCEN_19
1002
{
1040
2.0
1002
}
  0
LINE
  5
35BE
330
1F
100
AcDbEntity
  8
0
  6
HIDDEN
 62
     3
 48
0.5
100
AcDbLine
 10
798.3920222970096
 20
212.5625396204213
 30
0.0
 11
809.0034124124292
 21
212.5625396204213
 31
0.0
  0
LINE
  5
35BF
330
1F
100
AcDbEntity
  8
0
  6
HIDDEN
 62
     3
 48
0.5
100
AcDbLine
 10
798.8692728438349
 20
203.0625396204213
 30
0.0
 11
809.0034124124292
 21
203.0625396204213
 31
0.0
  0
LINE
  5
35C0
330
1F
100
AcDbEntity
  8
0
  6
HIDDEN
 62
     3
 48
0.5
100
AcDbLine
 10
798.8692728438349
 20
204.0625396204213
 30
0.0
 11
809.0034124124292
 21
204.0625396204214
 31
0.0
  0
LINE
  5
35C1
330
1F
100
AcDbEntity
  8
0
  6
HIDDEN
 62
     3
 48
0.5
100
AcDbLine
 10
798.3920222970096
 20
211.5625396204213
 30
0.0
 11
809.0034124124292
 21
211.5625396204213
 31
0.0
  0
LINE
  5
35C2
330
1F
100
AcDbEntity
  8
0
  6
HIDDEN
 62
     3
 48
0.5
100
AcDbLine
 10
806.2354841957262
 20
147.5080203668656
 30
0.0
 11
806.2354841957262
 21
138.0125204969318
 31
0.0
  0
LINE
  5
35C3
330
1F
100
AcDbEntity
  8
0
  6
HIDDEN
 62
     3
 48
0.5
100
AcDbLine
 10
796.2354841957262
 20
146.6690641790137
 30
0.0
 11
796.2354841957264
 21
138.0125204969318
 31
0.0
  0
LINE
  5
35C4
330
1F
100
AcDbEntity
  8
0
  6
HIDDEN
 62
     3
 48
0.5
100
AcDbLine
 10
805.2354841957262
 20
147.3402292796349
 30
0.0
 11
805.2354841957262
 21
138.0125204969318
 31
0.0
  0
LINE
  5
35C5
330
1F
100
AcDbEntity
  8
0
  6
HIDDEN
 62
     3
 48
0.5
100
AcDbLine
 10
797.2354841957263
 20
147.0046471051735
 30
0.0
 11
797.2354841957263
 21
138.0125204969317
 31
0.0
  0
LINE
  5
35D2
330
1F
100
AcDbEntity
  8
AM_7
100
AcDbLine
 10
720.3991780168442
 20
337.1149469454471
 30
0.0
 11
844.3991780168442
 21
337.1149469454471
 31
0.0
1001
GENIUS_GENODEF_13
1002
{
1000
HIER
1070
     0
1002
}
1002
{
1000
MANEDIT
1070
     0
1002
}
1002
{
1000
NOSEL
1070
     0
1002
}
1002
{
1000
BEHIND
1070
     0
1002
}
1002
{
1000
OTHER
1070
     0
1002
}
1002
{
1000
REACTOR
1002
}
1001
GENIUS_GENOBJ-N-CEN_13
1002
{
1000
OWNER
1000
GEN
1002
}
1001
GENIUS_GENCEN_19
1002
{
1040
2.0
1002
}
  0
LINE
  5
35DF
330
1F
100
AcDbEntity
  8
AM_7
100
AcDbLine
 10
782.3991780168442
 20
366.6149469454471
 30
0.0
 11
782.3991780168442
 21
307.6149469454471
 31
0.0
1001
GENIUS_GENODEF_13
1002
{
1000
HIER
1070
     0
1002
}
1002
{
1000
MANEDIT
1070
     0
1002
}
1002
{
1000
NOSEL
1070
     0
1002
}
1002
{
1000
BEHIND
1070
     0
1002
}
1002
{
1000
OTHER
1070
     0
1002
}
1002
{
1000
REACTOR
1002
}
1001
GENIUS_GENOBJ-N-CEN_13
1002
{
1000
OWNER
1000
GEN
1002
}
1001
GENIUS_GENCEN_19
1002
{
1040
2.0
1002
}
  0
DIMENSION
  5
35E5
330
1F
100
AcDbEntity
  8
AM_5
100
AcDbDimension
  2
*D13
 10
854.503412412429
 20
251.6125204969317
 30
0.0
 11
852.003412412429
 21
194.8125204969319
 31
0.0
 70
    32
 71
     5
 42
113.6
  3
AM_ISO$0
100
AcDbAlignedDimension
 13
808.5034124124289
 23
138.0125204969317
 33
0.0
 14
841.5034124124289
 24
251.6125204969317
 34
0.0
 50
90.0
100
AcDbRotatedDimension
1001
ACAD
1000
DSTYLE
1002
{
1070
    40
1040
1.0
1070
   144
1040
1.0
1070
   272
1070
     8
1002
}
  0
DIMENSION
  5
35E6
330
1F
100
AcDbEntity
  8
AM_5
100
AcDbDimension
  2
*D14
 10
854.503412412429
 20
251.6125204969317
 30
0.0
 11
852.003412412429
 21
262.6125204969318
 31
0.0
 70
    32
 71
     5
 42
21.99999999999997
  3
AM_ISO$0
100
AcDbAlignedDimension
 13
841.5034124124289
 23
273.6125204969317
 33
0.0
 14
841.5034124124289
 24
251.6125204969317
 34
0.0
 50
90.0
100
AcDbRotatedDimension
1001
ACAD
1000
DSTYLE
1002
{
1070
    40
1040
1.0
1070
   144
1040
1.0
1070
   272
1070
     8
1002
}
  0
DIMENSION
  5
3611
330
1F
100
AcDbEntity
  8
AM_5
100
AcDbDimension
  2
*D15
 10
810.0034124124288
 20
157.6937438471227
 30
0.0
 11
782.503412412429
 21
160.1937438471227
 31
0.0
 70
    32
  1
M<>x1.5
 71
     5
 42
54.99999999999989
  3
AM_ISO$0
100
AcDbAlignedDimension
 13
755.003412412429
 23
169.5125204969317
 33
0.0
 14
810.0034124124288
 24
169.5125204969317
 34
0.0
100
AcDbRotatedDimension
1001
ACAD
1000
DSTYLE
1002
{
1070
    40
1040
1.0
1070
   144
1040
1.0
1070
   272
1070
     8
1002
}
  0
DIMENSION
  5
3642
330
1F
100
AcDbEntity
  8
AM_5
100
AcDbDimension
  2
*D16
 10
842.3991780168442
 20
298.6149459354471
 30
0.0
 11
782.3991780168442
 21
301.1149459354471
 31
0.0
 70
    32
 71
     5
 42
120.0
  3
AM_ISO$0
100
AcDbAlignedDimension
 13
722.3991780168441
 23
327.1149469454471
 33
0.0
 14
842.3991780168442
 24
327.1149469454471
 34
0.0
100
AcDbRotatedDimension
1001
ACAD
1000
DSTYLE
1002
{
1070
    40
1040
1.0
1070
   144
1040
1.0
1070
   272
1070
     8
1002
}
  0
LINE
  5
36AC
330
1F
100
AcDbEntity
  8
0
100
AcDbLine
 10
1126.322192433855
 20
218.0125204969318
 30
0.0
 11
1184.322192433855
 21
218.0125204969318
 31
0.0
  0
LINE
  5
36AD
330
1F
100
AcDbEntity
  8
0
100
AcDbLine
 10
1125.322192433855
 20
138.0125204969317
 30
0.0
 11
1185.322192433855
 21
138.0125204969318
 31
0.0
  0
LINE
  5
36AE
330
1F
100
AcDbEntity
  8
0
100
AcDbLine
 10
1124.322192433855
 20
216.0125204969318
 30
0.0
 11
1124.322192433855
 21
139.0125204969317
 31
0.0
  0
LINE
  5
36AF
330
1F
100
AcDbEntity
  8
0
100
AcDbLine
 10
1126.322192433855
 20
218.0125204969318
 30
0.0
 11
1124.322192433855
 21
216.0125204969318
 31
0.0
  0
LINE
  5
36B0
330
1F
100
AcDbEntity
  8
0
100
AcDbLine
 10
1145.322192433855
 20
252.5125204969318
 30
0.0
 11
1145.322192433855
 21
218.0125204969318
 31
0.0
  0
LINE
  5
36B1
330
1F
100
AcDbEntity
  8
0
100
AcDbLine
 10
1165.322192433855
 20
252.5125204969318
 30
0.0
 11
1165.322192433855
 21
218.0125204969318
 31
0.0
  0
LINE
  5
36B2
330
1F
100
AcDbEntity
  8
0
100
AcDbLine
 10
1186.322192433855
 20
216.0125204969318
 30
0.0
 11
1186.322192433855
 21
139.0125204969318
 31
0.0
  0
LINE
  5
36B3
330
1F
100
AcDbEntity
  8
0
100
AcDbLine
 10
1186.322192433855
 20
216.0125204969318
 30
0.0
 11
1184.322192433855
 21
218.0125204969318
 31
0.0
  0
LINE
  5
36B4
330
1F
100
AcDbEntity
  8
0
100
AcDbLine
 10
1187.822192433855
 20
191.0125204969317
 30
0.0
 11
1187.822192433855
 21
148.0125204969317
 31
0.0
  0
LINE
  5
36B5
330
1F
100
AcDbEntity
  8
0
100
AcDbLine
 10
1122.822192433855
 20
191.0125204969317
 30
0.0
 11
1122.822192433855
 21
148.0125204969317
 31
0.0
  0
LINE
  5
36B6
330
1F
100
AcDbEntity
  8
0
100
AcDbLine
 10
1123.822192433855
 20
192.0125204969317
 30
0.0
 11
1186.822192433855
 21
192.0125204969317
 31
0.0
  0
LINE
  5
36B7
330
1F
100
AcDbEntity
  8
0
100
AcDbLine
 10
1123.822192433855
 20
147.0125204969317
 30
0.0
 11
1186.822192433855
 21
147.0125204969317
 31
0.0
  0
LINE
  5
36B8
330
1F
100
AcDbEntity
  8
0
100
AcDbLine
 10
1122.822192433855
 20
148.0125204969317
 30
0.0
 11
1123.822192433855
 21
147.0125204969317
 31
0.0
  0
LINE
  5
36B9
330
1F
100
AcDbEntity
  8
0
100
AcDbLine
 10
1186.822192433855
 20
147.0125204969317
 30
0.0
 11
1187.822192433855
 21
148.0125204969317
 31
0.0
  0
LINE
  5
36BC
330
1F
100
AcDbEntity
  8
0
100
AcDbLine
 10
1124.322192433855
 20
139.0125204969317
 30
0.0
 11
1125.322192433855
 21
138.0125204969317
 31
0.0
  0
LINE
  5
36BD
330
1F
100
AcDbEntity
  8
0
100
AcDbLine
 10
1185.322192433855
 20
138.0125204969318
 30
0.0
 11
1186.322192433855
 21
139.0125204969318
 31
0.0
  0
ARC
  5
36BF
330
1F
100
AcDbEntity
  8
0
100
AcDbCircle
 10
1154.409558371199
 20
344.4654345252534
 30
0.0
 40
32.5
100
AcDbArc
 50
199.7831703726609
 51
340.2168296273391
  0
ARC
  5
36C1
330
1F
100
AcDbEntity
  8
0
100
AcDbCircle
 10
1154.409558371199
 20
344.4654345252534
 30
0.0
 40
31.0
100
AcDbArc
 50
200.7835595958448
 51
339.2164404041552
  0
ARC
  5
36C3
330
1F
100
AcDbEntity
  8
0
100
AcDbCircle
 10
1141.909558371199
 20
344.4654345252534
 30
0.0
 40
5.0
100
AcDbArc
 50
90.0
 51
270.0
  0
ARC
  5
36C4
330
1F
100
AcDbEntity
  8
0
100
AcDbCircle
 10
1166.909558371199
 20
344.4654345252534
 30
0.0
 40
5.0
100
AcDbArc
 50
270.0
 51
90.0
  0
LINE
  5
36C5
330
1F
100
AcDbEntity
  8
0
100
AcDbLine
 10
1094.409558371199
 20
334.4654345252534
 30
0.0
 11
1094.409558371199
 21
354.4654345252534
 31
0.0
  0
LINE
  5
36C6
330
1F
100
AcDbEntity
  8
0
100
AcDbLine
 10
1214.409558371199
 20
334.4654345252534
 30
0.0
 11
1214.409558371199
 21
354.4654345252534
 31
0.0
  0
ARC
  5
36C7
330
1F
100
AcDbEntity
  8
0
100
AcDbCircle
 10
1154.409558371199
 20
344.4654345252534
 30
0.0
 40
10.0
100
AcDbArc
 50
329.9999999999995
 51
30.00000000000055
  0
ARC
  5
36C8
330
1F
100
AcDbEntity
  8
0
100
AcDbCircle
 10
1154.409558371199
 20
344.4654345252534
 30
0.0
 40
10.0
100
AcDbArc
 50
149.9999999999994
 51
210.0000000000005
  0
LINE
  5
36C9
330
1F
100
AcDbEntity
  8
0
100
AcDbLine
 10
1141.909558371199
 20
339.4654345252534
 30
0.0
 11
1166.909558371199
 21
339.4654345252534
 31
0.0
  0
LINE
  5
36CA
330
1F
100
AcDbEntity
  8
0
100
AcDbLine
 10
1095.409558371199
 20
333.4654345252534
 30
0.0
 11
1213.409558371199
 21
333.4654345252534
 31
0.0
  0
LINE
  5
36CB
102
{ACAD_REACTORS
330
378C
102
}
330
1F
100
AcDbEntity
  8
0
100
AcDbLine
 10
1095.409558371199
 20
333.4654345252534
 30
0.0
 11
1094.409558371199
 21
334.4654345252534
 31
0.0
  0
LINE
  5
36CC
102
{ACAD_REACTORS
330
378C
102
}
330
1F
100
AcDbEntity
  8
0
100
AcDbLine
 10
1214.409558371199
 20
334.4654345252534
 30
0.0
 11
1213.409558371199
 21
333.4654345252534
 31
0.0
  0
LINE
  5
36CE
330
1F
100
AcDbEntity
  8
0
100
AcDbLine
 10
1141.909558371199
 20
349.4654345252534
 30
0.0
 11
1166.909558371199
 21
349.4654345252534
 31
0.0
  0
LINE
  5
36CF
330
1F
100
AcDbEntity
  8
0
100
AcDbLine
 10
1095.409558371199
 20
355.4654345252534
 30
0.0
 11
1213.409558371199
 21
355.4654345252534
 31
0.0
  0
LINE
  5
36D0
330
1F
100
AcDbEntity
  8
0
100
AcDbLine
 10
1094.409558371199
 20
354.4654345252534
 30
0.0
 11
1095.409558371199
 21
355.4654345252534
 31
0.0
  0
LINE
  5
36D1
330
1F
100
AcDbEntity
  8
0
100
AcDbLine
 10
1213.409558371199
 20
355.4654345252534
 30
0.0
 11
1214.409558371199
 21
354.4654345252534
 31
0.0
  0
LINE
  5
36D2
330
1F
100
AcDbEntity
  8
0
100
AcDbLine
 10
1215.322192433855
 20
253.5125204969318
 30
0.0
 11
1215.322192433855
 21
273.5125204969317
 31
0.0
  0
LINE
  5
36D3
330
1F
100
AcDbEntity
  8
0
100
AcDbLine
 10
1095.322192433855
 20
253.5125204969318
 30
0.0
 11
1095.322192433855
 21
273.5125204969317
 31
0.0
  0
LINE
  5
36D4
330
1F
100
AcDbEntity
  8
0
100
AcDbLine
 10
1096.322192433855
 20
252.5125204969318
 30
0.0
 11
1214.322192433855
 21
252.5125204969318
 31
0.0
  0
LINE
  5
36D5
330
1F
100
AcDbEntity
  8
0
100
AcDbLine
 10
1096.322192433855
 20
252.5125204969318
 30
0.0
 11
1095.322192433855
 21
253.5125204969318
 31
0.0
  0
LINE
  5
36D6
330
1F
100
AcDbEntity
  8
0
100
AcDbLine
 10
1215.322192433855
 20
253.5125204969318
 30
0.0
 11
1214.322192433855
 21
252.5125204969318
 31
0.0
  0
CIRCLE
  5
36D7
330
1F
100
AcDbEntity
  8
0
100
AcDbCircle
 10
1155.322192433855
 20
263.5125204969317
 30
0.0
 40
4.0
  0
LINE
  5
36D8
330
1F
100
AcDbEntity
  8
0
100
AcDbLine
 10
1096.322192433855
 20
274.5125204969318
 30
0.0
 11
1214.322192433855
 21
274.5125204969318
 31
0.0
  0
LINE
  5
36D9
330
1F
100
AcDbEntity
  8
0
100
AcDbLine
 10
1095.322192433855
 20
273.5125204969317
 30
0.0
 11
1096.322192433855
 21
274.5125204969318
 31
0.0
  0
LINE
  5
36DA
330
1F
100
AcDbEntity
  8
0
100
AcDbLine
 10
1214.322192433855
 20
274.5125204969318
 30
0.0
 11
1215.322192433855
 21
273.5125204969317
 31
0.0
  0
ARC
  5
36DB
330
1F
100
AcDbEntity
  8
0
100
AcDbCircle
 10
1154.409558371199
 20
344.4654345252534
 30
0.0
 40
32.5
100
AcDbArc
 50
19.78317037266085
 51
160.2168296273391
  0
ARC
  5
36DC
330
1F
100
AcDbEntity
  8
0
100
AcDbCircle
 10
1154.409558371199
 20
344.4654345252534
 30
0.0
 40
31.0
100
AcDbArc
 50
20.7835595958448
 51
159.2164404041552
  0
LINE
  5
36E0
330
1F
100
AcDbEntity
  8
0
100
AcDbLine
 10
1123.822192433855
 20
192.0125204969317
 30
0.0
 11
1122.822192433855
 21
191.0125204969317
 31
0.0
  0
LINE
  5
36E1
330
1F
100
AcDbEntity
  8
0
100
AcDbLine
 10
1186.822192433855
 20
192.0125204969317
 30
0.0
 11
1187.822192433855
 21
191.0125204969317
 31
0.0
  0
LINE
  5
36EE
330
1F
100
AcDbEntity
  8
AM_7
100
AcDbLine
 10
1155.322192433855
 20
276.5125204969318
 30
0.0
 11
1155.322192433855
 21
136.0125204969317
 31
0.0
1001
GENIUS_GENODEF_13
1002
{
1000
HIER
1070
     0
1002
}
1002
{
1000
MANEDIT
1070
     0
1002
}
1002
{
1000
NOSEL
1070
     0
1002
}
1002
{
1000
BEHIND
1070
     0
1002
}
1002
{
1000
OTHER
1070
     0
1002
}
1002
{
1000
REACTOR
1002
}
1001
GENIUS_GENOBJ-N-CEN_13
1002
{
1000
OWNER
1000
GEN
1002
}
1001
GENIUS_GENCEN_19
1002
{
1040
2.0
1002
}
  0
LINE
  5
36EF
330
1F
100
AcDbEntity
  8
0
  6
HIDDEN
 62
     3
 48
0.5
100
AcDbLine
 10
1182.398629786513
 20
148.3107180224366
 30
0.0
 11
1182.398629786513
 21
138.0125204969318
 31
0.0
  0
LINE
  5
36F1
330
1F
100
AcDbEntity
  8
0
  6
HIDDEN
 62
     3
 48
0.5
100
AcDbLine
 10
1181.398629786513
 20
148.1429269352059
 30
0.0
 11
1181.398629786513
 21
138.0125204969317
 31
0.0
  0
LINE
  5
36F2
330
1F
100
AcDbEntity
  8
0
  6
HIDDEN
 62
     3
 48
0.5
100
AcDbLine
 10
1173.398629786513
 20
147.8073447607445
 30
0.0
 11
1173.398629786513
 21
138.0125204969317
 31
0.0
  0
LINE
  5
36F3
330
1F
100
AcDbEntity
  8
0
  6
HIDDEN
 62
     3
 48
0.5
100
AcDbLine
 10
1174.544743140568
 20
209.5308634529663
 30
0.0
 11
1186.322192433855
 21
209.5308634529663
 31
0.0
  0
LINE
  5
36F4
330
1F
100
AcDbEntity
  8
0
  6
HIDDEN
 62
     3
 48
0.5
100
AcDbLine
 10
1175.021993687394
 20
200.0308634529663
 30
0.0
 11
1186.322192433855
 21
200.0308634529663
 31
0.0
  0
LINE
  5
36F5
330
1F
100
AcDbEntity
  8
0
  6
HIDDEN
 62
     3
 48
0.5
100
AcDbLine
 10
1175.021993687394
 20
201.0308634529663
 30
0.0
 11
1186.322192433855
 21
201.0308634529663
 31
0.0
  0
LINE
  5
36F6
330
1F
100
AcDbEntity
  8
0
  6
HIDDEN
 62
     3
 48
0.5
100
AcDbLine
 10
1174.544743140568
 20
208.5308634529663
 30
0.0
 11
1186.322192433855
 21
208.5308634529663
 31
0.0
  0
LINE
  5
36F7
330
1F
100
AcDbEntity
  8
0
  6
HIDDEN
 62
     3
 48
0.5
100
AcDbLine
 10
1172.398629786513
 20
147.8073447607444
 30
0.0
 11
1172.398629786513
 21
138.0125204969317
 31
0.0
  0
LINE
  5
3704
330
1F
100
AcDbEntity
  8
AM_7
100
AcDbLine
 10
1092.409558371199
 20
344.4654345252534
 30
0.0
 11
1216.409558371199
 21
344.4654345252534
 31
0.0
1001
GENIUS_GENOBJ-N-CEN_13
1002
{
1000
OWNER
1000
GEN
1002
}
1001
GENIUS_GENODEF_13
1002
{
1000
HIER
1070
     0
1002
}
1002
{
1000
MANEDIT
1070
     0
1002
}
1002
{
1000
NOSEL
1070
     0
1002
}
1002
{
1000
BEHIND
1070
     0
1002
}
1002
{
1000
OTHER
1070
     0
1002
}
1002
{
1000
REACTOR
1002
}
1001
GENIUS_GENCEN_19
1002
{
1040
2.0
1002
}
  0
LINE
  5
3711
330
1F
100
AcDbEntity
  8
AM_7
100
AcDbLine
 10
1154.409558371199
 20
378.9654345252534
 30
0.0
 11
1154.409558371199
 21
309.9654345252534
 31
0.0
1001
GENIUS_GENODEF_13
1002
{
1000
HIER
1070
     0
1002
}
1002
{
1000
MANEDIT
1070
     0
1002
}
1002
{
1000
NOSEL
1070
     0
1002
}
1002
{
1000
BEHIND
1070
     0
1002
}
1002
{
1000
OTHER
1070
     0
1002
}
1002
{
1000
REACTOR
1002
}
1001
GENIUS_GENOBJ-N-CEN_13
1002
{
1000
OWNER
1000
GEN
1002
}
1001
GENIUS_GENCEN_19
1002
{
1040
2.0
1002
}
  0
DIMENSION
  5
3712
330
1F
100
AcDbEntity
  8
AM_5
100
AcDbDimension
  2
*D17
 10
1227.322192433855
 20
252.5125204969317
 30
0.0
 11
1224.822192433855
 21
195.2625204969319
 31
0.0
 70
    32
 71
     5
 42
114.5
  3
AM_ISO$0
100
AcDbAlignedDimension
 13
1185.322192433855
 23
138.0125204969317
 33
0.0
 14
1214.322192433855
 24
252.5125204969318
 34
0.0
 50
90.0
100
AcDbRotatedDimension
1001
ACAD
1000
DSTYLE
1002
{
1070
    40
1040
1.0
1070
   144
1040
1.0
1070
   272
1070
     8
1002
}
  0
DIMENSION
  5
3713
330
1F
100
AcDbEntity
  8
AM_5
100
AcDbDimension
  2
*D18
 10
1227.322192433855
 20
252.5125204969317
 30
0.0
 11
1224.822192433855
 21
263.512520496932
 31
0.0
 70
    32
 71
     5
 42
22.00000000000003
  3
AM_ISO$0
100
AcDbAlignedDimension
 13
1214.322192433855
 23
274.5125204969318
 33
0.0
 14
1214.322192433855
 24
252.5125204969318
 34
0.0
 50
90.0
100
AcDbRotatedDimension
1001
ACAD
1000
DSTYLE
1002
{
1070
    40
1040
1.0
1070
   144
1040
1.0
1070
   272
1070
     8
1002
}
  0
DIMENSION
  5
3747
330
1F
100
AcDbEntity
  8
AM_5
100
AcDbDimension
  2
*D19
 10
1187.822192433855
 20
157.6937438471227
 30
0.0
 11
1155.322192433855
 21
160.1937438471227
 31
0.0
 70
    32
  1
M<>x1.5
 71
     5
 42
65.0
  3
AM_ISO$0
100
AcDbAlignedDimension
 13
1122.822192433855
 23
169.5125204969317
 33
0.0
 14
1187.822192433855
 24
169.5125204969317
 34
0.0
100
AcDbRotatedDimension
1001
ACAD
1000
DSTYLE
1002
{
1070
    40
1040
1.0
1070
   144
1040
1.0
1070
   272
1070
     8
1002
}
  0
DIMENSION
  5
377E
102
{ACAD_XDICTIONARY
360
378B
102
}
102
{ACAD_REACTORS
330
378C
102
}
330
1F
100
AcDbEntity
  8
AM_5
100
AcDbDimension
  2
*D20
 10
1214.409558371199
 20
299.9654335152535
 30
0.0
 11
1154.409558371199
 21
302.4654335152535
 31
0.0
 70
    32
 71
     5
 42
120.0
  3
AM_ISO$0
100
AcDbAlignedDimension
 13
1094.409558371199
 23
334.4654345252534
 33
0.0
 14
1214.409558371199
 24
334.4654345252534
 34
0.0
 50
0.0000000000001132
100
AcDbRotatedDimension
1001
ACAD
1000
DSTYLE
1002
{
1070
    40
1040
1.0
1070
   144
1040
1.0
1070
   272
1070
     8
1002
}
  0
ENDSEC
  0
SECTION
  2
OBJECTS
  0
DICTIONARY
  5
C
330
0
100
AcDbDictionary
281
     1
  3
ACAD_COLOR
350
BE
  3
ACAD_GROUP
350
D
  3
ACAD_LAYOUT
350
1A
  3
ACAD_MATERIAL
350
BD
  3
ACAD_MLINESTYLE
350
17
  3
ACAD_PLOTSETTINGS
350
19
  3
ACAD_PLOTSTYLENAME
350
E
  3
ACAD_TABLESTYLE
350
11A
  3
ACDBHEADERROUNDTRIPXREC
350
3843
  3
AcDbVariableDictionary
350
94
  3
AcmDictionary
350
5B
  3
AMG
350
41
  3
AMGSNAPSETTINGS
350
1B8
  3
DWGPROPS
350
3842
  0
DICTIONARY
  5
3F9
330
2
100
AcDbDictionary
280
     1
281
     1
  3
ACAD_LAYERFILTERS
360
5B7
  3
ACAD_LAYERSTATES
360
1563
  3
ACLYDICTIONARY
360
5B6
  0
DICTIONARY
  5
8F
330
1F
100
AcDbDictionary
280
     1
281
     1
  3
ACAD_SORTENTS
360
9E6
  0
DICTIONARY
  5
336C
330
335F
100
AcDbDictionary
280
     1
281
     1
  3
ACAD_DIMASSOC
360
336D
  0
DICTIONARY
  5
351C
330
350F
100
AcDbDictionary
280
     1
281
     1
  3
ACAD_DIMASSOC
360
351D
  0
DICTIONARY
  5
378B
330
377E
100
AcDbDictionary
280
     1
281
     1
  3
ACAD_DIMASSOC
360
378C
  0
DICTIONARY
  5
BE
102
{ACAD_REACTORS
330
C
102
}
330
C
100
AcDbDictionary
281
     1
  0
DICTIONARY
  5
D
102
{ACAD_REACTORS
330
C
102
}
330
C
100
AcDbDictionary
281
     1
  0
DICTIONARY
  5
1A
102
{ACAD_REACTORS
330
C
102
}
330
C
100
AcDbDictionary
281
     1
  3
Model
350
22
  3
配置1
350
1E
  3
配置2
350
26
  0
DICTIONARY
  5
BD
102
{ACAD_REACTORS
330
C
102
}
330
C
100
AcDbDictionary
281
     1
  0
DICTIONARY
  5
17
102
{ACAD_REACTORS
330
C
102
}
330
C
100
AcDbDictionary
281
     1
  3
Standard
350
18
  0
DICTIONARY
  5
19
102
{ACAD_REACTORS
330
C
102
}
330
C
100
AcDbDictionary
281
     1
  0
ACDBDICTIONARYWDFLT
  5
E
102
{ACAD_REACTORS
330
C
102
}
330
C
100
AcDbDictionary
281
     1
  3
Normal
350
F
100
AcDbDictionaryWithDefault
340
F
  0
DICTIONARY
  5
11A
102
{ACAD_REACTORS
330
C
102
}
330
C
100
AcDbDictionary
281
     1
  3
Standard
350
11B
  0
DICTIONARY
  5
3843
102
{ACAD_REACTORS
330
C
102
}
330
C
100
AcDbDictionary
281
     1
  0
DICTIONARY
  5
94
102
{ACAD_REACTORS
330
C
102
}
330
C
100
AcDbDictionary
281
     1
  3
CTABLESTYLE
350
138
  3
DIMASSOC
350
96
  3
INDEXCTL
350
95
  3
PROJECTNAME
350
3840
  0
DICTIONARY
  5
5B
102
{ACAD_REACTORS
330
C
102
}
330
C
100
AcDbDictionary
281
     1
  3
AcmBOM
350
1B5
  3
AcmStdDictionary
350
61
  3
AMDTSECTSYM_ARROWCOLOR
350
123
  0
DICTIONARY
  5
41
102
{ACAD_REACTORS
330
C
102
}
330
C
100
AcDbDictionary
281
     1
  0
DICTIONARY
  5
1B8
102
{ACAD_REACTORS
330
C
102
}
330
C
100
AcDbDictionary
281
     1
  0
XRECORD
  5
3842
102
{ACAD_REACTORS
330
C
102
}
330
C
100
AcDbXrecord
280
     1
  1
DWGPROPS COOKIE
  2

  3

  4

  6

  7

  8

  9

300
AmdtFileType=84
301
=
302
=
303
=
304
=
305
=
306
=
307
=
308
=
309
=
 40
0.1305633217592592
 41
2453731.618400787
 42
2453732.446444583
  1

 90
        1
  0
DICTIONARY
  5
5B7
102
{ACAD_REACTORS
330
3F9
102
}
330
3F9
100
AcDbDictionary
281
     1
  0
DICTIONARY
  5
1563
102
{ACAD_REACTORS
330
3F9
102
}
330
3F9
100
AcDbDictionary
281
     1
  0
DICTIONARY
  5
5B6
102
{ACAD_REACTORS
330
3F9
102
}
330
3F9
100
AcDbDictionary
281
     1
1001
ACAD
1000
<All
  0
SORTENTSTABLE
  5
9E6
102
{ACAD_REACTORS
330
8F
102
}
330
8F
100
AcDbSortentsTable
330
1F
331
3430
  5
3430
331
33E9
  5
33E9
331
3264
  5
3264
331
33F1
  5
33F1
331
32BB
  5
32BB
331
35A6
  5
35A6
331
3274
  5
3274
331
33F9
  5
33F9
331
327C
  5
327C
331
357F
  5
357F
331
36D3
  5
36D3
331
177E
  5
177E
331
35BE
  5
35AE
331
1A9D
  5
1A9D
331
174F
  5
174F
331
36DB
  5
36DB
331
1796
  5
1796
331
1757
  5
1757
331
36AC
  5
36AC
331
3284
  5
3284
331
1AAD
  5
1AAD
331
3411
  5
340D
331
33D2
  5
33D2
331
33DA
  5
33DA
331
3294
  5
3294
331
358F
  5
358F
331
33E2
  5
33E2
331
3597
  5
3597
331
325D
  5
325D
331
36B4
  5
36B4
331
35E6
  5
35E6
331
1728
  5
1728
331
359F
  5
359F
331
36F3
  5
36F3
331
1767
  5
1767
331
1730
  5
1730
331
36BC
  5
36BC
331
176F
  5
176F
331
1738
  5
1738
331
36C4
  5
36C4
331
1A8E
  5
1A8E
331
1777
  5
1777
331
36CC
  5
36CC
331
33EA
  5
33EA
331
3265
  5
3265
331
3431
  5
3431
331
33F2
  5
33F2
331
32BC
  5
32BC
331
35A7
  5
35A7
331
3275
  5
3275
331
33FA
  5
33FA
331
35AF
  5
35C3
331
327D
  5
327D
331
1740
  5
1740
331
36D4
  5
36D4
331
1A96
  5
1A96
331
177F
  5
177F
331
35BF
  5
35AF
331
1A9E
  5
1A9E
331
36DC
  5
36DC
331
1797
  5
1797
331
1AA6
  5
1AA6
331
36AD
  5
36AD
331
33CB
  5
33CB
331
1AAE
  5
1AAE
331
3580
  5
3580
331
3588
  5
3588
331
33D3
  5
33D3
331
328D
  5
328D
331
3412
  5
340F
331
3422
  5
3422
331
33DB
  5
33DB
331
1758
  5
1758
331
35DF
  5
35DF
331
33E3
  5
33E3
331
3598
  5
3598
331
325E
  5
325E
331
36B5
  5
36B5
331
1729
  5
1729
331
36F4
  5
36F4
331
1768
  5
1768
331
1731
  5
1731
331
36BD
  5
36BD
331
1770
  5
1770
331
1739
  5
1739
331
36C5
  5
36C5
331
35A0
  5
35A0
331
33EB
  5
33EB
331
3266
  5
3266
331
3432
  5
3432
331
35A8
  5
35A8
331
326E
  5
326E
331
32BD
  5
32BD
331
33F3
  5
33F3
331
3276
  5
3276
331
33FB
  5
33FB
331
35B0
  5
35C4
331
1778
  5
1778
331
327E
  5
327E
331
1741
  5
1741
331
36D5
  5
36D5
331
1A97
  5
1A97
331
1780
  5
1780
331
1A9F
  5
1A9F
331
1AA7
  5
1AA7
331
36AE
  5
36AE
331
35C0
  5
35B0
331
33CC
  5
33CC
331
3286
  5
3286
331
1AAF
  5
1AAF
331
3581
  5
3581
331
3589
  5
3589
331
33D4
  5
33D4
331
328E
  5
328E
331
1AB7
  5
1AB7
331
3413
  5
3410
331
33DC
  5
33DC
331
17A8
  5
17A8
331
1759
  5
1759
331
33E4
  5
33E4
331
3599
  5
3599
331
325F
  5
325F
331
36B6
  5
36B6
331
17B8
  5
17B8
331
172A
  5
172A
331
36F5
  5
36F5
331
1732
  5
1732
331
1771
  5
1771
331
173A
  5
173A
331
36C6
  5
36C6
331
36CE
  5
36CE
331
35A1
  5
35A1
331
32AE
  5
32AE
331
33EC
  5
33EC
331
3267
  5
3267
331
3433
  5
3433
331
35A9
  5
35A9
331
326F
  5
326F
331
32BE
  5
32BE
331
33F4
  5
33F4
331
3277
  5
3277
331
1779
  5
1779
331
327F
  5
327F
331
1742
  5
1742
331
36D6
  5
36D6
331
1A98
  5
1A98
331
1781
  5
1781
331
174A
  5
174A
331
1791
  5
1791
331
1AA0
  5
1AA0
331
1799
  5
1799
331
36AF
  5
36AF
331
1AA8
  5
1AA8
331
35C1
  5
35BD
331
33CD
  5
33CD
331
3287
  5
3287
331
1AB0
  5
1AB0
331
3582
  5
3582
331
358A
  5
358A
331
3414
  5
3411
331
328F
  5
328F
331
1AB8
  5
1AB8
331
33D5
  5
33D5
331
3592
  5
3592
331
17A9
  5
17A9
331
175A
  5
175A
331
33E5
  5
33E5
331
359A
  5
359A
331
36B7
  5
36B7
331
17B9
  5
17B9
331
1762
  5
1762
331
172B
  5
172B
331
36EE
  5
36EE
331
36F6
  5
36F6
331
1733
  5
1733
331
36BF
  5
36BF
331
1A89
  5
1A89
331
1772
  5
1772
331
173B
  5
173B
331
36C7
  5
36C7
331
36CF
  5
36CF
331
3260
  5
3260
331
33ED
  5
33ED
331
3268
  5
3268
331
35A2
  5
35A2
331
3270
  5
3270
331
32BF
  5
32BF
331
33F5
  5
33F5
331
3278
  5
3278
331
177A
  5
177A
331
1743
  5
1743
331
36D7
  5
36D7
331
1A99
  5
1A99
331
1782
  5
1782
331
1792
  5
1792
331
1AA1
  5
1AA1
331
1753
  5
1753
331
179A
  5
179A
331
3280
  5
3280
331
1AA9
  5
1AA9
331
35C2
  5
35BF
331
340D
  5
3415
331
33CE
  5
33CE
331
3288
  5
3288
331
1AB1
  5
1AB1
331
3583
  5
3583
331
35D2
  5
35D2
331
358B
  5
358B
331
3415
  5
3412
331
1AB9
  5
1AB9
331
3290
  5
3290
331
3259
  5
3259
331
3593
  5
3593
331
3611
  5
3611
331
36B0
  5
36B0
331
33E6
  5
33E6
331
359B
  5
359B
331
36B8
  5
36B8
331
17BA
  5
17BA
331
172C
  5
172C
331
36EF
  5
36EF
331
198A
  5
198A
331
1734
  5
1734
331
1773
  5
1773
331
173C
  5
173C
331
36C8
  5
36C8
331
3261
  5
3261
331
33EE
  5
33EE
331
3269
  5
3269
331
35A3
  5
35A3
331
35AB
  5
35AB
331
335F
  5
335F
331
3271
  5
3271
331
357C
  5
357C
331
3279
  5
3279
331
33FE
  5
3413
331
36D0
  5
36D0
331
177B
  5
177B
331
1744
  5
1744
331
36D8
  5
36D8
331
1A9A
  5
1A9A
331
1783
  5
1783
331
1793
  5
1793
331
1754
  5
1754
331
36E0
  5
36E0
331
3281
  5
3281
331
1AAA
  5
1AAA
331
35C3
  5
35C0
331
340E
  5
33FD
331
33CF
  5
33CF
331
3289
  5
3289
331
3584
  5
3584
331
358C
  5
358C
331
1ABA
  5
1ABA
331
3291
  5
3291
331
32A1
  5
32A1
331
33DF
  5
33DF
331
3594
  5
3594
331
325A
  5
325A
331
36B1
  5
36B1
331
33E7
  5
33E7
331
359C
  5
359C
331
36B9
  5
36B9
331
17BB
  5
17BB
331
172D
  5
172D
331
176C
  5
176C
331
1735
  5
1735
331
36C1
  5
36C1
331
1A8B
  5
1A8B
331
1774
  5
1774
331
173D
  5
173D
331
36C9
  5
36C9
331
3262
  5
3262
331
33EF
  5
33EF
331
326A
  5
326A
331
35A4
  5
35A4
331
3272
  5
3272
331
35AC
  5
35AC
331
357D
  5
357D
331
327A
  5
327A
331
33FF
  5
3414
331
3642
  5
3642
331
36D1
  5
36D1
331
177C
  5
177C
331
1745
  5
1745
331
36D9
  5
36D9
331
1A9B
  5
1A9B
331
1784
  5
1784
331
1794
  5
1794
331
1AA3
  5
1AA3
331
1755
  5
1755
331
36E1
  5
36E1
331
3282
  5
3282
331
1AAB
  5
1AAB
331
35C4
  5
35C1
331
340F
  5
33FE
331
33D0
  5
33D0
331
3585
  5
3585
331
33D8
  5
33D8
331
1ABB
  5
1ABB
331
3292
  5
3292
331
358D
  5
358D
331
33E0
  5
33E0
331
3595
  5
3595
331
325B
  5
325B
331
36B2
  5
36B2
331
342F
  5
342F
331
359D
  5
359D
331
36F1
  5
36F1
331
172E
  5
172E
331
176D
  5
176D
331
1736
  5
1736
331
1775
  5
1775
331
173E
  5
173E
331
36CA
  5
36CA
331
33E8
  5
33E8
331
3263
  5
3263
331
33F0
  5
33F0
331
35A5
  5
35A5
331
3273
  5
3273
331
33F8
  5
33F8
331
327B
  5
327B
331
357E
  5
357E
331
36D2
  5
36D2
331
177D
  5
177D
331
1746
  5
1746
331
35BD
  5
35C5
331
36DA
  5
36DA
331
1A9C
  5
1A9C
331
174E
  5
174E
331
1795
  5
1795
331
1756
  5
1756
331
3283
  5
3283
331
1AAC
  5
1AAC
331
3410
  5
33FF
331
33D1
  5
33D1
331
35C5
  5
35C2
331
33D9
  5
33D9
331
3293
  5
3293
331
1ABC
  5
1ABC
331
33E1
  5
33E1
331
3596
  5
3596
331
325C
  5
325C
331
36B3
  5
36B3
331
35E5
  5
35E5
331
175E
  5
175E
331
350F
  5
350F
331
359E
  5
359E
331
36F2
  5
36F2
331
1766
  5
1766
331
172F
  5
172F
331
176E
  5
176E
331
1737
  5
1737
331
36C3
  5
36C3
331
1A8D
  5
1A8D
331
1776
  5
1776
331
173F
  5
173F
331
36CB
  5
36CB
  0
DIMASSOC
  5
336D
102
{ACAD_REACTORS
330
336C
102
}
330
336C
100
AcDbDimAssoc
330
335F
 90
        3
 70
     0
 71
     0
  1
AcDbOsnapPointRef
 72
     1
331
327A
 73
     0
 91
        0
 40
0.0
 10
0.0
 20
0.0
 30
2.000000000000000E+50
 75
     0
  1
AcDbOsnapPointRef
 72
    13
331
3279
 73
     0
 91
        0
 40
0.0
 10
0.0
 20
0.0
 30
2.000000000000000E+50
 75
     0
  0
DIMASSOC
  5
351D
102
{ACAD_REACTORS
330
351C
102
}
330
351C
100
AcDbDimAssoc
330
350F
 90
        3
 70
     0
 71
     0
  1
AcDbOsnapPointRef
 72
     1
331
33E3
 73
     0
 91
        0
 40
0.0
 10
0.0
 20
0.0
 30
2.000000000000000E+50
 75
     0
  1
AcDbOsnapPointRef
 72
    13
331
33EB
 73
     0
 91
        0
 40
0.0
 10
0.0
 20
0.0
 30
2.000000000000000E+50
 75
     0
  0
DIMASSOC
  5
378C
102
{ACAD_REACTORS
330
378B
102
}
330
378B
100
AcDbDimAssoc
330
377E
 90
        3
 70
     0
 71
     0
  1
AcDbOsnapPointRef
 72
     1
331
36CB
 73
     0
 91
        0
 40
0.0
 10
0.0
 20
0.0
 30
2.000000000000000E+50
 75
     0
  1
AcDbOsnapPointRef
 72
    13
331
36CC
 73
     0
 91
        0
 40
0.0
 10
0.0
 20
0.0
 30
2.000000000000000E+50
 75
     0
  0
LAYOUT
  5
22
102
{ACAD_XDICTIONARY
360
3846
102
}
102
{ACAD_REACTORS
330
1A
102
}
330
1A
100
AcDbPlotSettings
  1

  2
\\RD\EPSON Stylus C63 Series單色
  4
A4
  6

 40
3.757083177566528
 41
3.757076978683471
 42
3.757080078125
 43
3.757080078125
 44
209.9733276367187
 45
296.9683227539062
 46
0.0
 47
0.0
 48
0.0
 49
0.0
140
0.0
141
0.0
142
1.0
143
0.3405120737814363
 70
 11952
 72
     1
 73
     0
 74
     0
  7
單色出圖.ctb
 75
     0
147
2.936753428137963
148
-2047.07469463503
149
-1261.649717473083
100
AcDbLayout
  1
Model
 70
     1
 71
     0
 10
0.0
 20
0.0
 11
12.0
 21
9.0
 12
0.0
 22
0.0
 32
0.0
 14
0.0
 24
0.0
 34
0.0
 15
0.0
 25
0.0
 35
0.0
146
0.0
 13
0.0
 23
0.0
 33
0.0
 16
1.0
 26
0.0
 36
0.0
 17
0.0
 27
1.0
 37
0.0
 76
     0
330
1F
1001
ACAD_PSEXT
1000
\\RD\EPSON Stylus C63 Series單色
1000
EPSON Stylus C63 Series
1000
\\RD
1000

1070
     0
  0
LAYOUT
  5
1E
102
{ACAD_XDICTIONARY
360
3844
102
}
102
{ACAD_REACTORS
330
1A
102
}
330
1A
100
AcDbPlotSettings
  1

  2

  4

  6

 40
0.0
 41
0.0
 42
0.0
 43
0.0
 44
0.0
 45
0.0
 46
0.0
 47
0.0
 48
0.0
 49
0.0
140
0.0
141
0.0
142
1.0
143
1.0
 70
   688
 72
     0
 73
     0
 74
     5
  7
單色出圖.ctb
 75
    16
147
1.0
148
0.0
149
0.0
100
AcDbLayout
  1
配置1
 70
     1
 71
     1
 10
0.0
 20
0.0
 11
420.0
 21
297.0
 12
0.0
 22
0.0
 32
0.0
 14
1.000000000000000E+20
 24
1.000000000000000E+20
 34
1.000000000000000E+20
 15
-1.000000000000000E+20
 25
-1.000000000000000E+20
 35
-1.000000000000000E+20
146
0.0
 13
0.0
 23
0.0
 33
0.0
 16
1.0
 26
0.0
 36
0.0
 17
0.0
 27
1.0
 37
0.0
 76
     0
330
1B
  0
LAYOUT
  5
26
102
{ACAD_XDICTIONARY
360
3848
102
}
102
{ACAD_REACTORS
330
1A
102
}
330
1A
100
AcDbPlotSettings
  1

  2

  4

  6

 40
0.0
 41
0.0
 42
0.0
 43
0.0
 44
0.0
 45
0.0
 46
0.0
 47
0.0
 48
0.0
 49
0.0
140
0.0
141
0.0
142
1.0
143
1.0
 70
   688
 72
     0
 73
     0
 74
     5
  7
單色出圖.ctb
 75
    16
147
1.0
148
0.0
149
0.0
100
AcDbLayout
  1
配置2
 70
     1
 71
     2
 10
0.0
 20
0.0
 11
12.0
 21
9.0
 12
0.0
 22
0.0
 32
0.0
 14
0.0
 24
0.0
 34
0.0
 15
0.0
 25
0.0
 35
0.0
146
0.0
 13
0.0
 23
0.0
 33
0.0
 16
1.0
 26
0.0
 36
0.0
 17
0.0
 27
1.0
 37
0.0
 76
     0
330
23
  0
MLINESTYLE
  5
18
102
{ACAD_REACTORS
330
17
102
}
330
17
100
AcDbMlineStyle
  2
STANDARD
 70
     0
  3

 62
   256
 51
90.0
 52
90.0
 71
     2
 49
0.5
 62
   256
  6
BYLAYER
 49
-0.5
 62
   256
  6
BYLAYER
  0
ACDBPLACEHOLDER
  5
F
102
{ACAD_REACTORS
330
E
102
}
330
E
  0
TABLESTYLE
  5
11B
102
{ACAD_REACTORS
330
11A
102
}
330
11A
100
AcDbTableStyle
  3
Standard
 70
     0
 71
     0
 40
1.5
 41
1.5
280
     0
281
     0
  7
STANDARD
140
4.5
170
     2
 62
     0
 63
     7
283
     0
274
    -2
284
     1
 64
     0
275
    -2
285
     1
 65
     0
276
    -2
286
     1
 66
     0
277
    -2
287
     1
 67
     0
278
    -2
288
     1
 68
     0
279
    -2
289
     1
 69
     0
  7
STANDARD
140
6.0
170
     5
 62
     0
 63
     7
283
     0
274
    -2
284
     1
 64
     0
275
    -2
285
     1
 65
     0
276
    -2
286
     1
 66
     0
277
    -2
287
     1
 67
     0
278
    -2
288
     1
 68
     0
279
    -2
289
     1
 69
     0
  7
STANDARD
140
4.5
170
     5
 62
     0
 63
     7
283
     0
274
    -2
284
     1
 64
     0
275
    -2
285
     1
 65
     0
276
    -2
286
     1
 66
     0
277
    -2
287
     1
 67
     0
278
    -2
288
     1
 68
     0
279
    -2
289
     1
 69
     0
  0
DICTIONARYVAR
  5
138
102
{ACAD_REACTORS
330
94
102
}
330
94
100
DictionaryVariables
280
     0
  1
STANDARD
  0
DICTIONARYVAR
  5
96
102
{ACAD_REACTORS
330
94
102
}
330
94
100
DictionaryVariables
280
     0
  1
2
  0
DICTIONARYVAR
  5
95
102
{ACAD_REACTORS
330
94
102
}
330
94
100
DictionaryVariables
280
     0
  1
0
  0
DICTIONARYVAR
  5
3840
102
{ACAD_REACTORS
330
94
102
}
330
94
100
DictionaryVariables
280
     0
  1

  0
DICTIONARY
  5
1B5
102
{ACAD_REACTORS
330
5B
102
}
330
5B
100
AcDbDictionary
281
     1
  0
DICTIONARY
  5
61
102
{ACAD_REACTORS
330
5B
102
}
330
5B
100
AcDbDictionary
281
     1
  0
XRECORD
  5
123
102
{ACAD_REACTORS
330
5B
102
}
330
5B
100
AcDbXrecord
280
     1
 90
-1023410169
  0
DICTIONARY
  5
3846
330
22
100
AcDbDictionary
280
     1
281
     1
  3
ACAD_XREC_ROUNDTRIP
360
3847
  0
DICTIONARY
  5
3844
330
1E
100
AcDbDictionary
280
     1
281
     1
  3
ACAD_XREC_ROUNDTRIP
360
3845
  0
DICTIONARY
  5
3848
330
26
100
AcDbDictionary
280
     1
281
     1
  3
ACAD_XREC_ROUNDTRIP
360
3849
  0
XRECORD
  5
3847
102
{ACAD_REACTORS
330
3846
102
}
330
3846
100
AcDbXrecord
280
     1
102
SHADEPLOT
 70
     0
102
SHADEPLOTRESLEVEL
 70
     2
102
SHADEPLOTCUSTOMDPI
 70
   300
  0
XRECORD
  5
3845
102
{ACAD_REACTORS
330
3844
102
}
330
3844
100
AcDbXrecord
280
     1
102
SHADEPLOT
 70
     0
102
SHADEPLOTRESLEVEL
 70
     2
102
SHADEPLOTCUSTOMDPI
 70
   300
  0
XRECORD
  5
3849
102
{ACAD_REACTORS
330
3848
102
}
330
3848
100
AcDbXrecord
280
     1
102
SHADEPLOT
 70
     0
102
SHADEPLOTRESLEVEL
 70
     2
102
SHADEPLOTCUSTOMDPI
 70
   300
  0
ENDSEC
  0
EOF
