  0
SECTION
  2
HEADER
  9
$ACADVER
  1
AC1015
  9
$ACADMAINTVER
 70
    20
  9
$DWGCODEPAGE
  3
ANSI_950
  9
$INSBASE
 10
0.0
 20
0.0
 30
0.0
  9
$EXTMIN
 10
1681.763868826037
 20
760.3060183843297
 30
-0.0000000000000071
  9
$EXTMAX
 10
2071.509122562755
 20
1055.146018384329
 30
193.2052993154654
  9
$LIMMIN
 10
0.0
 20
0.0
  9
$LIMMAX
 10
420.0
 20
297.0
  9
$ORTHOMODE
 70
     0
  9
$REGENMODE
 70
     1
  9
$FILLMODE
 70
     1
  9
$QTEXTMODE
 70
     0
  9
$MIRRTEXT
 70
     1
  9
$LTSCALE
 40
1.0
  9
$ATTMODE
 70
     1
  9
$TEXTSIZE
 40
3.0
  9
$TRACEWID
 40
1.0
  9
$TEXTSTYLE
  7
STANDARD
  9
$CLAYER
  8
0
  9
$CELTYPE
  6
ByLayer
  9
$CECOLOR
 62
   256
  9
$CELTSCALE
 40
1.0
  9
$DISPSILH
 70
     0
  9
$DIMSCALE
 40
1.0
  9
$DIMASZ
 40
3.5
  9
$DIMEXO
 40
1.5
  9
$DIMDLI
 40
8.0
  9
$DIMRND
 40
0.0
  9
$DIMDLE
 40
0.0
  9
$DIMEXE
 40
1.5
  9
$DIMTP
 40
0.1
  9
$DIMTM
 40
0.1
  9
$DIMTXT
 40
3.5
  9
$DIMCEN
 40
0.0
  9
$DIMTSZ
 40
0.0
  9
$DIMTOL
 70
     0
  9
$DIMLIM
 70
     0
  9
$DIMTIH
 70
     0
  9
$DIMTOH
 70
     0
  9
$DIMSE1
 70
     0
  9
$DIMSE2
 70
     0
  9
$DIMTAD
 70
     1
  9
$DIMZIN
 70
     8
  9
$DIMBLK
  1

  9
$DIMASO
 70
     1
  9
$DIMSHO
 70
     1
  9
$DIMPOST
  1

  9
$DIMAPOST
  1
"
  9
$DIMALT
 70
     0
  9
$DIMALTD
 70
     2
  9
$DIMALTF
 40
0.0393701
  9
$DIMLFAC
 40
1.0
  9
$DIMTOFL
 70
     1
  9
$DIMTVP
 40
0.0
  9
$DIMTIX
 70
     0
  9
$DIMSOXD
 70
     0
  9
$DIMSAH
 70
     0
  9
$DIMBLK1
  1

  9
$DIMBLK2
  1

  9
$DIMSTYLE
  2
AM_ISO
  9
$DIMCLRD
 70
   256
  9
$DIMCLRE
 70
   256
  9
$DIMCLRT
 70
   256
  9
$DIMTFAC
 40
0.71
  9
$DIMGAP
 40
1.0
  9
$DIMJUST
 70
     0
  9
$DIMSD1
 70
     0
  9
$DIMSD2
 70
     0
  9
$DIMTOLJ
 70
     0
  9
$DIMTZIN
 70
     8
  9
$DIMALTZ
 70
     0
  9
$DIMALTTZ
 70
     0
  9
$DIMUPT
 70
     0
  9
$DIMDEC
 70
     2
  9
$DIMTDEC
 70
     8
  9
$DIMALTU
 70
     2
  9
$DIMALTTD
 70
     2
  9
$DIMTXSTY
  7
STANDARD
  9
$DIMAUNIT
 70
     0
  9
$DIMADEC
 70
     0
  9
$DIMALTRND
 40
0.0
  9
$DIMAZIN
 70
     2
  9
$DIMDSEP
 70
    46
  9
$DIMATFIT
 70
     3
  9
$DIMFRAC
 70
     0
  9
$DIMLDRBLK
  1

  9
$DIMLUNIT
 70
     2
  9
$DIMLWD
 70
    -1
  9
$DIMLWE
 70
    -1
  9
$DIMTMOVE
 70
     0
  9
$LUNITS
 70
     2
  9
$LUPREC
 70
     2
  9
$SKETCHINC
 40
1.0
  9
$FILLETRAD
 40
0.5
  9
$AUNITS
 70
     0
  9
$AUPREC
 70
     0
  9
$MENU
  1
.
  9
$ELEVATION
 40
0.0
  9
$PELEVATION
 40
0.0
  9
$THICKNESS
 40
0.0
  9
$LIMCHECK
 70
     0
  9
$CHAMFERA
 40
2.5
  9
$CHAMFERB
 40
2.5
  9
$CHAMFERC
 40
20.0
  9
$CHAMFERD
 40
0.0
  9
$SKPOLY
 70
     0
  9
$TDCREATE
 40
2453229.426093924
  9
$TDUCREATE
 40
2453229.092760591
  9
$TDUPDATE
 40
2456890.441654179
  9
$TDUUPDATE
 40
2456890.108320845
  9
$TDINDWG
 40
0.4213786111
  9
$TDUSRTIMER
 40
0.4213786111
  9
$USRTIMER
 70
     1
  9
$ANGBASE
 50
0.0
  9
$ANGDIR
 70
     0
  9
$PDMODE
 70
     0
  9
$PDSIZE
 40
0.0
  9
$PLINEWID
 40
0.0
  9
$SPLFRAME
 70
     0
  9
$SPLINETYPE
 70
     6
  9
$SPLINESEGS
 70
     8
  9
$HANDSEED
  5
6FB5
  9
$SURFTAB1
 70
     6
  9
$SURFTAB2
 70
     6
  9
$SURFTYPE
 70
     6
  9
$SURFU
 70
     6
  9
$SURFV
 70
     6
  9
$UCSBASE
  2

  9
$UCSNAME
  2

  9
$UCSORG
 10
0.0
 20
0.0
 30
0.0
  9
$UCSXDIR
 10
1.0
 20
0.0
 30
0.0
  9
$UCSYDIR
 10
0.0
 20
1.0
 30
0.0
  9
$UCSORTHOREF
  2

  9
$UCSORTHOVIEW
 70
     0
  9
$UCSORGTOP
 10
0.0
 20
0.0
 30
0.0
  9
$UCSORGBOTTOM
 10
0.0
 20
0.0
 30
0.0
  9
$UCSORGLEFT
 10
0.0
 20
0.0
 30
0.0
  9
$UCSORGRIGHT
 10
0.0
 20
0.0
 30
0.0
  9
$UCSORGFRONT
 10
0.0
 20
0.0
 30
0.0
  9
$UCSORGBACK
 10
0.0
 20
0.0
 30
0.0
  9
$PUCSBASE
  2

  9
$PUCSNAME
  2

  9
$PUCSORG
 10
0.0
 20
0.0
 30
0.0
  9
$PUCSXDIR
 10
1.0
 20
0.0
 30
0.0
  9
$PUCSYDIR
 10
0.0
 20
1.0
 30
0.0
  9
$PUCSORTHOREF
  2

  9
$PUCSORTHOVIEW
 70
     0
  9
$PUCSORGTOP
 10
0.0
 20
0.0
 30
0.0
  9
$PUCSORGBOTTOM
 10
0.0
 20
0.0
 30
0.0
  9
$PUCSORGLEFT
 10
0.0
 20
0.0
 30
0.0
  9
$PUCSORGRIGHT
 10
0.0
 20
0.0
 30
0.0
  9
$PUCSORGFRONT
 10
0.0
 20
0.0
 30
0.0
  9
$PUCSORGBACK
 10
0.0
 20
0.0
 30
0.0
  9
$USERI1
 70
     0
  9
$USERI2
 70
     0
  9
$USERI3
 70
     0
  9
$USERI4
 70
     0
  9
$USERI5
 70
     0
  9
$USERR1
 40
0.0
  9
$USERR2
 40
0.0
  9
$USERR3
 40
0.0
  9
$USERR4
 40
0.0
  9
$USERR5
 40
0.0
  9
$WORLDVIEW
 70
     1
  9
$SHADEDGE
 70
     3
  9
$SHADEDIF
 70
    70
  9
$TILEMODE
 70
     1
  9
$MAXACTVP
 70
    48
  9
$PINSBASE
 10
0.0
 20
0.0
 30
0.0
  9
$PLIMCHECK
 70
     0
  9
$PEXTMIN
 10
1.000000000000000E+20
 20
1.000000000000000E+20
 30
1.000000000000000E+20
  9
$PEXTMAX
 10
-1.000000000000000E+20
 20
-1.000000000000000E+20
 30
-1.000000000000000E+20
  9
$PLIMMIN
 10
0.0
 20
0.0
  9
$PLIMMAX
 10
420.0
 20
297.0
  9
$UNITMODE
 70
     0
  9
$VISRETAIN
 70
     1
  9
$PLINEGEN
 70
     0
  9
$PSLTSCALE
 70
     1
  9
$TREEDEPTH
 70
  3020
  9
$CMLSTYLE
  2
Standard
  9
$CMLJUST
 70
     0
  9
$CMLSCALE
 40
20.0
  9
$PROXYGRAPHICS
 70
     1
  9
$MEASUREMENT
 70
     1
  9
$CELWEIGHT
370
    -1
  9
$ENDCAPS
280
     0
  9
$JOINSTYLE
280
     0
  9
$LWDISPLAY
290
     0
  9
$INSUNITS
 70
     4
  9
$HYPERLINKBASE
  1

  9
$STYLESHEET
  1
單色出圖.ctb
  9
$XEDIT
290
     1
  9
$CEPSNTYPE
380
     0
  9
$PSTYLEMODE
290
     1
  9
$FINGERPRINTGUID
  2
{83CC3F96-1E22-4B35-B707-B045C3365130}
  9
$VERSIONGUID
  2
{D9A8FE4F-FB60-4157-AD84-C18B1FB098ED}
  9
$EXTNAMES
290
     1
  9
$PSVPSCALE
 40
0.0
  9
$OLESTARTUP
290
     0
  0
ENDSEC
  0
SECTION
  2
CLASSES
  0
CLASS
  1
ACDBDICTIONARYWDFLT
  2
AcDbDictionaryWithDefault
  3
ObjectDBX Classes
 90
        0
280
     0
281
     0
  0
CLASS
  1
ACDBPLACEHOLDER
  2
AcDbPlaceHolder
  3
ObjectDBX Classes
 90
        0
280
     0
281
     0
  0
CLASS
  1
LAYOUT
  2
AcDbLayout
  3
ObjectDBX Classes
 90
        0
280
     0
281
     0
  0
CLASS
  1
AMGSETTINGSOBJ
  2
AmgSettingsObj
  3
"AcadM|Product Description: AutoCAD Mechanical 2000|Company: Autodesk"
 90
        0
280
     0
281
     0
  0
CLASS
  1
ACME_DOCUMENT
  2
AcMeDbDoc
  3
AcMeServices
 90
        0
280
     0
281
     0
  0
CLASS
  1
ACMESCOPE
  2
AcMeScope
  3
AcMeServices
 90
        0
280
     0
281
     0
  0
CLASS
  1
ACMECOMMANDHISTORY
  2
AcMeCommandHistory
  3
AcMeServices
 90
        0
280
     0
281
     0
  0
CLASS
  1
ACIMSYSVARMAN
  2
AcImSysVarManager
  3
AcMeServices
 90
        0
280
     0
281
     0
  0
CLASS
  1
ACIMREALSYSVAR
  2
AcImRealSysVar
  3
AcMeServices
 90
        0
280
     0
281
     0
  0
CLASS
  1
ACIMINTSYSVAR
  2
AcImIntSysVar
  3
AcMeServices
 90
        0
280
     0
281
     0
  0
CLASS
  1
ACMEDRAWINGMAN
  2
AcMeDrawingMan
  3
AcMeServices
 90
        0
280
     0
281
     0
  0
CLASS
  1
ACMEVIEW
  2
AcMeView
  3
AcMeServices
 90
        0
280
     0
281
     0
  0
CLASS
  1
ACDBENTITYCACHE
  2
AcMeEntityCache
  3
AcMeServices
 90
        0
280
     0
281
     0
  0
CLASS
  1
GSMANAGER
  2
AcMeGSManager
  3
AcMeServices
 90
        0
280
     0
281
     0
  0
CLASS
  1
AMDTINTERNALREACTOR
  2
AmdtInternalReactor
  3
AcMeServices
 90
        0
280
     0
281
     0
  0
CLASS
  1
ACMESTATEMGR
  2
AcMeStateMgr
  3
AcMeServices
 90
        0
280
     0
281
     0
  0
CLASS
  1
ACGREFMASTER
  2
AcGrefMaster
  3
AcAttribServices
 90
        0
280
     0
281
     0
  0
CLASS
  1
ACME_DATABASE
  2
AcMeDbDatabase
  3
AcMeServices
 90
        0
280
     0
281
     0
  0
CLASS
  1
ACRFINSADJUSTERMGR
  2
AcRfInsAdjusterMgr
  3
AcMeServices
 90
        0
280
     0
281
     0
  0
CLASS
  1
ACGREFACADMASTER
  2
AcGrefacadMaster
  3
AcGrefServices
 90
        0
280
     0
281
     0
  0
CLASS
  1
AMIMASTER
  2
AmiMaster
  3
AmiServices
 90
        0
280
     0
281
     0
  0
CLASS
  1
ACMDATADICTIONARY
  2
AcmDataDictionary
  3
"AcmSymBB|Product Description: AutoCAD Mechanical 2004 DX|Company: Autodesk"
 90
        0
280
     0
281
     0
  0
CLASS
  1
ACMDATAENTRYBLOCK
  2
AcmDataEntryBlock
  3
"AcmSymBB|Product Description: AutoCAD Mechanical 2004 DX|Company: Autodesk"
 90
        0
280
     0
281
     0
  0
CLASS
  1
ACIMSTRSYSVAR
  2
AcImStrSysVar
  3
AcMeServices
 90
        0
280
     0
281
     0
  0
CLASS
  1
ACMSTANDARDISO
  2
AcmStandardISO
  3
"Amdt_StdImp|Product Description: AutoCAD Mechanical 2004 DX|Company: Autodesk"
 90
        0
280
     0
281
     0
  0
CLASS
  1
AMGOBJPROPCFG
  2
AmgObjPropCfg
  3
"AmgLay|Product Description: AutoCAD Mechanical 2000|Company: Autodesk"
 90
        1
280
     0
281
     0
  0
CLASS
  1
AMDTEDGESTANDARDISO
  2
AmdtEdgeStdISO
  3
"Amdt_StdImp|Product Description: AutoCAD Mechanical 2004 DX|Company: Autodesk"
 90
    32768
280
     0
281
     0
  0
CLASS
  1
ACMSURFSTANDARDISO
  2
AcmSurfTextStdISO
  3
"Amdt_StdImp|Product Description: AutoCAD Mechanical 2004 DX|Company: Autodesk"
 90
        0
280
     0
281
     0
  0
CLASS
  1
ACMFCFSTANDARDISO
  2
AcmFCFStdISO
  3
"Amdt_StdImp|Product Description: AutoCAD Mechanical 2004 DX|Company: Autodesk"
 90
        0
280
     0
281
     0
  0
CLASS
  1
ACMWELDSTANDARDISO
  2
AcmWeldingStdISO
  3
"Amdt_StdImp|Product Description: AutoCAD Mechanical 2004 DX|Company: Autodesk"
 90
        0
280
     0
281
     0
  0
CLASS
  1
ACMIDSTANDARDISO
  2
AcmIdStdISO
  3
"Amdt_StdImp|Product Description: AutoCAD Mechanical 2004 DX|Company: Autodesk"
 90
        0
280
     0
281
     0
  0
CLASS
  1
ACMDATUMSTANDARDISO
  2
AcmDatumStdISO
  3
"Amdt_StdImp|Product Description: AutoCAD Mechanical 2004 DX|Company: Autodesk"
 90
        0
280
     0
281
     0
  0
CLASS
  1
ACMBOMSTANDARDISO
  2
AcmBOMStdISO
  3
"Amdt_StdImp|Product Description: AutoCAD Mechanical 2004 DX|Company: Autodesk"
 90
        0
280
     0
281
     0
  0
CLASS
  1
ACMDETAILSTANDARDISO
  2
AmdtDetailSymStdISO
  3
"Amdt_StdImp|Product Description: AutoCAD Mechanical 2004 DX|Company: Autodesk"
 90
        0
280
     0
281
     0
  0
CLASS
  1
ACMSECTIONSTANDARDISO
  2
AmdtSectionSymStdISO
  3
"Amdt_StdImp|Product Description: AutoCAD Mechanical 2004 DX|Company: Autodesk"
 90
        0
280
     0
281
     0
  0
CLASS
  1
ACMCENTERLINESTANDARDISO
  2
AmdtCenterLineStdISO
  3
"Amdt_StdImp|Product Description: AutoCAD Mechanical 2004 DX|Company: Autodesk"
 90
        0
280
     0
281
     0
  0
CLASS
  1
ACMNOTESTANDARDISO
  2
AmdtNoteStdISO
  3
"Amdt_StdImp|Product Description: AutoCAD Mechanical 2004 DX|Company: Autodesk"
 90
        0
280
     0
281
     0
  0
CLASS
  1
ACAMGLAYSTD
  2
AcAmgLayStd
  3
"AcAmgLayStd|Product Description: AutoCAD Mechanical 2000|Company: Autodesk"
 90
        0
280
     0
281
     0
  0
CLASS
  1
ACAMGDIMSTD
  2
AcAmgDimStd
  3
"AcAmgDimStd|Product Description: AutoCAD Mechanical 2000|Company: Autodesk"
 90
        0
280
     0
281
     0
  0
CLASS
  1
ACAMGHOLECHARTSTDISO
  2
AcAmgHoleChartStdISO
  3
ACMSYMBB_MODULE_NAME
 90
        0
280
     0
281
     0
  0
CLASS
  1
ACAMGTITLESTD
  2
AcAmgTitleStd
  3
"TITLEAPP"
 90
        0
280
     0
281
     0
  0
CLASS
  1
ACAMGFILTERDAT
  2
AcAmgFilterDat
  3
"AcadM|Product Description: AutoCAD Mechanical 2000|Company: Autodesk"
 90
    32768
280
     0
281
     0
  0
CLASS
  1
DIMASSOC
  2
AcDbDimAssoc
  3
"AcDbDimAssoc|Product Desc:     AcDim ARX App For Dimension|Company:          Autodesk, Inc.|WEB Address:      www.autodesk.com"
 90
        0
280
     0
281
     0
  0
CLASS
  1
LAYER_INDEX
  2
AcDbLayerIndex
  3
ObjectDBX Classes
 90
        0
280
     0
281
     0
  0
CLASS
  1
IDBUFFER
  2
AcDbIdBuffer
  3
ObjectDBX Classes
 90
        0
280
     0
281
     0
  0
CLASS
  1
DICTIONARYVAR
  2
AcDbDictionaryVar
  3
ObjectDBX Classes
 90
        0
280
     0
281
     0
  0
CLASS
  1
AMDTFORMULAUPDATEDISPATCHER
  2
AmdtFormulaUpdateDispatcher
  3
AcMeServices
 90
    32768
280
     0
281
     0
  0
CLASS
  1
AMDTNOTE
  2
AmdtNote
  3
"AcmSymBB|Product Description: AutoCAD Mechanical 2004 DX|Company: Autodesk"
 90
    33791
280
     0
281
     1
  0
CLASS
  1
TABLESTYLE
  2
AcDbTableStyle
  3
ObjectDBX Classes
 90
     2047
280
     0
281
     0
  0
CLASS
  1
AM_DRAWING_MGR
  2
AcDmDwgMgr
  3
AcMechDwgViewMgmt
 90
        0
280
     0
281
     0
  0
CLASS
  1
AM_DWG_DOCUMENT
  2
AcDmDwgDocument
  3
AcMechDwgViewMgmt
 90
        0
280
     0
281
     0
  0
CLASS
  1
AM_DWG_SHEET
  2
AcDmSheet
  3
AcMechDwgViewMgmt
 90
        0
280
     0
281
     0
  0
CLASS
  1
AM_VIEWDIMPARMAP
  2
AcDmViewDimParMap
  3
AcMechDwgViewMgmt
 90
        0
280
     0
281
     0
  0
CLASS
  1
AM_DWGMGR_NAME
  2
AcDmDwgMgrName
  3
AcMechDwgViewMgmt
 90
        0
280
     0
281
     0
  0
CLASS
  1
AMDTMENUSTATEMGR
  2
AmdtMenuStateMgr
  3
McadcomServices
 90
        0
280
     0
281
     0
  0
CLASS
  1
AMDTMCOMMENUSTATE
  2
AmdtMcomMenuState
  3
McadcomServices
 90
        0
280
     0
281
     0
  0
CLASS
  1
MAPIAMMOUDLE
  2
MApiAmModule
  3
MApiAmServices
 90
        0
280
     0
281
     0
  0
CLASS
  1
AMDTADMENUSTATE
  2
AmdtAdMenuState
  3
DesignerServices
 90
        0
280
     0
281
     0
  0
CLASS
  1
ADAPPL
  2
AcAdAppl
  3
DesignerServices
 90
        0
280
     0
281
     0
  0
CLASS
  1
DEPMGR
  2
AcAdDepMgr
  3
DesignerServices
 90
        0
280
     0
281
     0
  0
CLASS
  1
PARAMMGR
  2
AcAdParamMgr
  3
DesignerServices
 90
        0
280
     0
281
     0
  0
CLASS
  1
PARAMSCOPE
  2
AcAdParamScope
  3
DesignerServices
 90
        0
280
     0
281
     0
  0
CLASS
  1
NAMEDAPPL
  2
AcAdNamedAppl
  3
DesignerServices
 90
        0
280
     0
281
     0
  0
CLASS
  1
AMDTDMMENUSTATE
  2
AmdtDmMenuState
  3
AcMechDwgViewMgmt
 90
        0
280
     0
281
     0
  0
CLASS
  1
AMDTAMMENUSTATE
  2
AmdtAmMenuState
  3
DesignerAssemblies
 90
        0
280
     0
281
     0
  0
CLASS
  1
ACAMPROJECT
  2
AcAmProject
  3
DesignerAssemblies
 90
        0
280
     0
281
     0
  0
CLASS
  1
ACAMGRCOMPDEF
  2
AcAmGrCompDef
  3
DesignerAssemblies
 90
        0
280
     0
281
     0
  0
CLASS
  1
ACCMCONTEXT
  2
AcCmContext
  3
DesignerAssemblies
 90
        0
280
     0
281
     0
  0
CLASS
  1
ACAMCOMPDEF
  2
AcAmCompDef
  3
DesignerAssemblies
 90
        0
280
     0
281
     0
  0
CLASS
  1
ACAMCOMPDEFMGR
  2
AcAmCompDefMgr
  3
DesignerAssemblies
 90
        0
280
     0
281
     0
  0
CLASS
  1
AMCONTEXTMGR
  2
AcAmContextMgr
  3
DesignerAssemblies
 90
        0
280
     0
281
     0
  0
CLASS
  1
ACAMCONTEXTMODELER
  2
AcAmContextModeler
  3
DesignerAssemblies
 90
        0
280
     0
281
     0
  0
CLASS
  1
CATALOGSTATE
  2
AcAmCatalogState
  3
DesignerAssemblies
 90
        0
280
     0
281
     0
  0
CLASS
  1
ACAMGRCOMPDEFSET
  2
AcAmGrCompDefSet
  3
DesignerAssemblies
 90
        0
280
     0
281
     0
  0
CLASS
  1
AMDTBROWSERDBTAB
  2
AmdtBrowserDbTab
  3
McadcomServices
 90
        0
280
     0
281
     0
  0
CLASS
  1
CBROWSERAPPOBJECT
  2
CBrowserAppObject
  3
McadcomServices
 90
        0
280
     0
281
     0
  0
CLASS
  1
DM_PLACEHOLDER
  2
AcDmSelsetPlaceholder
  3
AcMechDwgViewMgmt
 90
        0
280
     0
281
     0
  0
CLASS
  1
AMDTEDGESTANDARDISO13715
  2
AmdtEdgeStdISO13715
  3
"Amdt_StdImp|Product Description: AutoCAD Mechanical 2004 DX|Company: Autodesk"
 90
        0
280
     0
281
     0
  0
CLASS
  1
ACMTHREADLINESTANDARDISO
  2
AmdtThreadLineStdISO
  3
"Amdt_StdImp|Product Description: AutoCAD Mechanical 2004 DX|Company: Autodesk"
 90
        0
280
     0
281
     0
  0
CLASS
  1
AMDTNOTETEMPLATEDB
  2
AmdtNoteTemplateDB
  3
AMDT_STDIMP_MODULE_NAME
 90
        0
280
     0
281
     0
  0
CLASS
  1
ACRFATTGENMGR
  2
AcRfAttGeneralMgr
  3
AcAttribServices
 90
    32768
280
     0
281
     0
  0
CLASS
  1
ASAPP
  2
AcAsAppObject
  3
AutoSurfServices
 90
        0
280
     0
281
     0
  0
CLASS
  1
IM_STATIC_MAN
  2
AcImStaticVarManager
  3
AcMeServices
 90
        0
280
     0
281
     0
  0
CLASS
  1
ACIMDBLSTATICVAR
  2
AcImDblStaticVar
  3
AcMeServices
 90
        0
280
     0
281
     0
  0
CLASS
  1
ACIMSTRSTATICVAR
  2
AcImStrStaticVar
  3
AcMeServices
 90
        0
280
     0
281
     0
  0
CLASS
  1
ACIMINTSTATICVAR
  2
AcImIntStaticVar
  3
AcMeServices
 90
        0
280
     0
281
     0
  0
CLASS
  1
ACASGREFMASTER
  2
AcAsGrefMaster
  3
AutoSurfResolverServices
 90
        0
280
     0
281
     0
  0
CLASS
  1
ACADGREFMODULE
  2
AcAdGrefModule
  3
AdGrefServices
 90
        0
280
     0
281
     0
  0
CLASS
  1
AMDTMAPISURFMOUDULE
  2
AmdtMApiSurfModule
  3
MApiSurfServices
 90
        0
280
     0
281
     0
  0
CLASS
  1
MAPIADMODULE
  2
MApiAdModule
  3
MApiAdServices
 90
        0
280
     0
281
     0
  0
CLASS
  1
SORTENTSTABLE
  2
AcDbSortentsTable
  3
ObjectDBX Classes
 90
        0
280
     0
281
     0
  0
CLASS
  1
ADPART
  2
AcAdPart
  3
DesignerServices
 90
    32768
280
     0
281
     1
  0
CLASS
  1
ADBASE
  2
AcAdBase
  3
DesignerServices
 90
    32768
280
     0
281
     0
  0
CLASS
  1
BODYID
  2
AcAdBodyId
  3
DesignerServices
 90
    32768
280
     0
281
     0
  0
CLASS
  1
WORKPLANEDISPLAYMGR
  2
AcAdDisplayMgr
  3
DesignerServices
 90
    32768
280
     0
281
     0
  0
CLASS
  1
ACCMBODY
  2
AcCmBody
  3
DesignerAssemblies
 90
    32768
280
     0
281
     0
  0
CLASS
  1
ACAMCOMPENT
  2
AcAmCompEnt
  3
DesignerAssemblies
 90
    32768
280
     0
281
     1
  0
CLASS
  1
ACAMCOMPFEEDBACK
  2
AcAmCompFeedback
  3
DesignerAssemblies
 90
    32768
280
     0
281
     0
  0
CLASS
  1
ACAMCOMP
  2
AcAmComp
  3
DesignerAssemblies
 90
    32768
280
     0
281
     0
  0
CLASS
  1
ACAMCOMPENTCLONE
  2
AcAmCompEntClone
  3
DesignerAssemblies
 90
    32768
280
     0
281
     1
  0
CLASS
  1
ACAMCLONEREACTOR
  2
AcAmGrCompCloneReactor
  3
DesignerAssemblies
 90
    32768
280
     0
281
     0
  0
CLASS
  1
ADDATUMPLANEABS
  2
AcAdDatumPlaneAbs
  3
DesignerServices
 90
    32768
280
     0
281
     0
  0
CLASS
  1
ADDATUMAXISABS
  2
AcAdDatumAxisAbs
  3
DesignerServices
 90
    32768
280
     0
281
     0
  0
CLASS
  1
ADDATUMORIENTEDPLANE
  2
AcAdDatumOrientedPlane
  3
DesignerServices
 90
    32768
280
     0
281
     0
  0
CLASS
  1
ACAD_LINE
  2
AcAdLine
  3
DesignerServices
 90
    32768
280
     0
281
     1
  0
CLASS
  1
ACADLINEACAD
  2
AcAdVirtualBoundedLineAcad
  3
DesignerServices
 90
    32768
280
     0
281
     0
  0
CLASS
  1
ACADREFLINEACAD
  2
AcAdVirtualReferenceLine
  3
DesignerServices
 90
    32768
280
     0
281
     0
  0
CLASS
  1
ACADCONSLINE
  2
AcAdConstrainedLine
  3
DesignerServices
 90
    32768
280
     0
281
     0
  0
CLASS
  1
ACADCONSGROUP
  2
AcAdConstraintGroup
  3
DesignerServices
 90
    32768
280
     0
281
     0
  0
CLASS
  1
ACADIMPPTACAD
  2
AcAdVirtualImplicitPoint
  3
DesignerServices
 90
    32768
280
     0
281
     0
  0
CLASS
  1
ACADCONSPOINT
  2
AcAdConstrainedPoint
  3
DesignerServices
 90
    32768
280
     0
281
     0
  0
CLASS
  1
ADPCURCNS
  2
AcAdPointCurveConstr
  3
DesignerServices
 90
    32768
280
     0
281
     0
  0
CLASS
  1
ADPROJCNS
  2
AcAdProjectionConstr
  3
DesignerServices
 90
    32768
280
     0
281
     0
  0
CLASS
  1
ADVERCNS
  2
AcAdVerticalConstr
  3
DesignerServices
 90
    32768
280
     0
281
     0
  0
CLASS
  1
ADHORCNS
  2
AcAdHorizontalConstr
  3
DesignerServices
 90
    32768
280
     0
281
     0
  0
CLASS
  1
ADCOLNCNS
  2
AcAdColinearConstr
  3
DesignerServices
 90
    32768
280
     0
281
     0
  0
CLASS
  1
ADPARCNS
  2
AcAdParallelConstr
  3
DesignerServices
 90
    32768
280
     0
281
     0
  0
ENDSEC
  0
SECTION
  2
TABLES
  0
TABLE
  2
VPORT
  5
8
330
0
100
AcDbSymbolTable
 70
     6
  0
VPORT
  5
6FAA
330
8
100
AcDbSymbolTableRecord
100
AcDbViewportTableRecord
  2
*Active
 70
     0
 10
0.0
 20
0.0
 11
1.0
 21
1.0
 12
664.5600388953796
 22
405.7569008633167
 13
0.0
 23
0.0
 14
2.5
 24
2.5
 15
10.0
 25
10.0
 16
0.0
 26
0.0
 36
1.0
 17
1248.473340879117
 27
495.068632219338
 37
0.0
 40
435.0483661131359
 41
1.263157894736842
 42
50.0
 43
0.0
 44
0.0
 50
0.0
 51
0.0
 71
     0
 72
   100
 73
     1
 74
     3
 75
     0
 76
     0
 77
     0
 78
     0
281
     0
 65
     0
110
0.0
120
0.0
130
0.0
111
1.0
121
0.0
131
0.0
112
0.0
122
1.0
132
0.0
 79
     0
146
0.0
  0
ENDTAB
  0
TABLE
  2
LTYPE
  5
5
330
0
100
AcDbSymbolTable
 70
    17
  0
LTYPE
  5
14
330
5
100
AcDbSymbolTableRecord
100
AcDbLinetypeTableRecord
  2
ByBlock
 70
     0
  3

 72
    65
 73
     0
 40
0.0
  0
LTYPE
  5
15
330
5
100
AcDbSymbolTableRecord
100
AcDbLinetypeTableRecord
  2
ByLayer
 70
     0
  3

 72
    65
 73
     0
 40
0.0
  0
LTYPE
  5
16
330
5
100
AcDbSymbolTableRecord
100
AcDbLinetypeTableRecord
  2
Continuous
 70
     0
  3
Solid line
 72
    65
 73
     0
 40
0.0
  0
LTYPE
  5
4D
330
5
100
AcDbSymbolTableRecord
100
AcDbLinetypeTableRecord
  2
AM_ISO02W050
 70
     0
  3
__ __ __ __ __ __ __ __ __ __ __ __ __ __ __
 72
    65
 73
     2
 40
7.5
 49
6.0
 74
     0
 49
-1.5
 74
     0
  0
LTYPE
  5
4E
330
5
100
AcDbSymbolTableRecord
100
AcDbLinetypeTableRecord
  2
AM_ISO08W050
 70
     0
  3
____ . ____ . ____ . ____ . ____ . ____ . ____
 72
    65
 73
     4
 40
18.0
 49
12.0
 74
     0
 49
-1.5
 74
     0
 49
3.0
 74
     0
 49
-1.5
 74
     0
  0
LTYPE
  5
4F
330
5
100
AcDbSymbolTableRecord
100
AcDbLinetypeTableRecord
  2
AM_ISO09W050
 70
     0
  3
_____ . . _____ . . _____ . . ____ .. ____
 72
    65
 73
     6
 40
22.5
 49
12.0
 74
     0
 49
-1.5
 74
     0
 49
3.0
 74
     0
 49
-1.5
 74
     0
 49
3.0
 74
     0
 49
-1.5
 74
     0
  0
LTYPE
  5
50
330
5
100
AcDbSymbolTableRecord
100
AcDbLinetypeTableRecord
  2
Amconstr
 70
     0
  3
_______________________
 72
    65
 73
     2
 40
9999.0
 49
9999.0
 74
     0
 49
0.0
 74
     0
  0
LTYPE
  5
51
330
5
100
AcDbSymbolTableRecord
100
AcDbLinetypeTableRecord
  2
AM_ISO08W050x2
 70
     0
  3
__ . __ . __ . __ . __ . __
 72
    65
 73
     4
 40
9.0
 49
6.0
 74
     0
 49
-0.75
 74
     0
 49
1.5
 74
     0
 49
-0.75
 74
     0
  0
LTYPE
  5
52
330
5
100
AcDbSymbolTableRecord
100
AcDbLinetypeTableRecord
  2
AM_ISO02W050x2
 70
     0
  3
 _ _ _ _ _ _ _ _ _ _ _ _
 72
    65
 73
     2
 40
3.75
 49
3.0
 74
     0
 49
-0.75
 74
     0
  0
LTYPE
  5
55
330
5
100
AcDbSymbolTableRecord
100
AcDbLinetypeTableRecord
  2
Amzigzag
 70
     0
  3
/\/-/\/-/\/-/\/-/\/-/\/
 72
    65
 73
     2
 40
11.0001
 49
0.0001
 74
     4
 75
   135
340
54
 46
0.04
 50
0.0
 44
0.0
 45
0.0
 49
-11.0
 74
     0
  0
LTYPE
  5
63
330
5
100
AcDbSymbolTableRecord
100
AcDbLinetypeTableRecord
  2
ACISOWELD
 70
     0
  3
_ _ _ _ _
 72
    65
 73
     2
 40
2.0
 49
2.0
 74
     0
 49
-1.0
 74
     0
  0
LTYPE
  5
64
330
5
100
AcDbSymbolTableRecord
100
AcDbLinetypeTableRecord
  2
ACISOTGB
 70
     0
  3
__ . . __ . .
 72
    65
 73
     6
 40
9.0
 49
4.0
 74
     0
 49
-1.0
 74
     0
 49
1.0
 74
     0
 49
-1.0
 74
     0
 49
1.0
 74
     0
 49
-1.0
 74
     0
  0
LTYPE
  5
65
330
5
100
AcDbSymbolTableRecord
100
AcDbLinetypeTableRecord
  2
ACISOTGL
 70
     0
  3
_ _ _ _ _
 72
    65
 73
     2
 40
3.0
 49
2.0
 74
     0
 49
-1.0
 74
     0
  0
LTYPE
  5
68
330
5
100
AcDbSymbolTableRecord
100
AcDbLinetypeTableRecord
  2
CENTER
 70
     0
  3
__ . __
 72
    65
 73
     4
 40
7.0
 49
4.0
 74
     0
 49
-1.0
 74
     0
 49
1.0
 74
     0
 49
-1.0
 74
     0
  0
LTYPE
  5
D47
330
5
100
AcDbSymbolTableRecord
100
AcDbLinetypeTableRecord
  2
HIDDEN2
 70
     0
  3
Hidden (.5x) _ _ _ _ _ _ _ _ _ _ _ _ _ _ _ _ _
 72
    65
 73
     2
 40
0.1875
 49
0.125
 74
     0
 49
-0.0625
 74
     0
  0
LTYPE
  5
2B41
330
5
100
AcDbSymbolTableRecord
100
AcDbLinetypeTableRecord
  2
HIDDEN
 70
     0
  3
Hidden __ __ __ __ __ __ __ __ __ __ __ __ __ _
 72
    65
 73
     2
 40
0.375
 49
0.25
 74
     0
 49
-0.125
 74
     0
  0
LTYPE
  5
2D83
330
5
100
AcDbSymbolTableRecord
100
AcDbLinetypeTableRecord
  2
PHANTOM2
 70
     0
  3
Phantom (.5x) ___ _ _ ___ _ _ ___ _ _ ___ _ _
 72
    65
 73
     6
 40
31.75
 49
15.875
 74
     0
 49
-3.174999999999999
 74
     0
 49
3.174999999999999
 74
     0
 49
-3.174999999999999
 74
     0
 49
3.174999999999999
 74
     0
 49
-3.174999999999999
 74
     0
  0
LTYPE
  5
6F94
330
5
100
AcDbSymbolTableRecord
100
AcDbLinetypeTableRecord
  2
ASULTYPE
 70
     0
  3
實線
 72
    65
 73
     2
 40
3.0
 49
2.5
 74
     0
 49
0.5
 74
     0
  0
LTYPE
  5
6F95
330
5
100
AcDbSymbolTableRecord
100
AcDbLinetypeTableRecord
  2
ASVLTYPE
 70
     0
  3
__ __ __ __ __ __ __ __ __ __ __ __ __ __ __ __ __ __ __ __ __
 72
    65
 73
     2
 40
0.75
 49
0.5
 74
     0
 49
-0.25
 74
     0
  0
ENDTAB
  0
TABLE
  2
LAYER
  5
2
102
{ACAD_XDICTIONARY
360
2DFC
102
}
330
0
100
AcDbSymbolTable
 70
     7
  0
LAYER
  5
10
330
2
100
AcDbSymbolTableRecord
100
AcDbLayerTableRecord
  2
0
 70
     0
 62
     7
  6
Continuous
370
    -3
390
F
  0
LAYER
  5
87
330
2
100
AcDbSymbolTableRecord
100
AcDbLayerTableRecord
  2
AM_5
 70
     0
 62
     5
  6
Continuous
370
    25
390
F
  0
LAYER
  5
97
330
2
100
AcDbSymbolTableRecord
100
AcDbLayerTableRecord
  2
Defpoints
 70
     0
 62
     7
  6
Continuous
290
     0
370
    -3
390
F
  0
LAYER
  5
14A
330
2
100
AcDbSymbolTableRecord
100
AcDbLayerTableRecord
  2
AM_7
 70
     0
 62
     1
  6
AM_ISO08W050
370
    25
390
F
  0
LAYER
  5
494
330
2
100
AcDbSymbolTableRecord
100
AcDbLayerTableRecord
  2
AM_VIS
 70
     2
 62
     7
  6
Continuous
370
    50
390
F
  0
LAYER
  5
D48
330
2
100
AcDbSymbolTableRecord
100
AcDbLayerTableRecord
  2
AM_4
 70
     0
 62
     3
  6
Continuous
370
    25
390
F
  0
LAYER
  5
180F
330
2
100
AcDbSymbolTableRecord
100
AcDbLayerTableRecord
  2
LOGO
 70
     0
 62
     7
  6
Continuous
370
    -3
390
F
  0
ENDTAB
  0
TABLE
  2
STYLE
  5
3
330
0
100
AcDbSymbolTable
 70
     6
  0
STYLE
  5
11
330
3
100
AcDbSymbolTableRecord
100
AcDbTextStyleTableRecord
  2
STANDARD
 70
     0
 40
0.0
 41
1.0
 50
0.0
 71
     0
 42
3.0
  3
ISOCP.SHX
  4
CHINESET.SHX
  0
STYLE
  5
54
330
3
100
AcDbSymbolTableRecord
100
AcDbTextStyleTableRecord
  2

 70
     1
 40
0.0
 41
1.0
 50
0.0
 71
     0
 42
2.5
  3
ltypeshp.shx
  4

  0
STYLE
  5
56
330
3
100
AcDbSymbolTableRecord
100
AcDbTextStyleTableRecord
  2
ACISOTS
 70
     0
 40
1.0
 41
1.0
 50
0.0
 71
     0
 42
2.5
  3
isocp.shx
  4
chineset.shx
  0
STYLE
  5
62
330
3
100
AcDbSymbolTableRecord
100
AcDbTextStyleTableRecord
  2
ACISOGDT
 70
     0
 40
0.0
 41
1.0
 50
0.0
 71
     0
 42
2.5
  3
amgdt.shx
  4

  0
STYLE
  5
499
330
3
100
AcDbSymbolTableRecord
100
AcDbTextStyleTableRecord
  2
CHINESET
 70
     0
 40
0.0
 41
1.0
 50
0.0
 71
     0
 42
2.5
  3
simplex.shx
  4
CHINESET.shx
  0
STYLE
  5
31F3
330
3
100
AcDbSymbolTableRecord
100
AcDbTextStyleTableRecord
  2
DAYUS
 70
     0
 40
0.0
 41
1.0
 50
0.0
 71
     0
 42
4.0
  3
simplex.shx
  4
dayus.shx
  0
ENDTAB
  0
TABLE
  2
VIEW
  5
6
330
0
100
AcDbSymbolTable
 70
     0
  0
ENDTAB
  0
TABLE
  2
UCS
  5
7
330
0
100
AcDbSymbolTable
 70
     0
  0
ENDTAB
  0
TABLE
  2
APPID
  5
9
330
0
100
AcDbSymbolTable
 70
    24
  0
APPID
  5
12
330
9
100
AcDbSymbolTableRecord
100
AcDbRegAppTableRecord
  2
ACAD
 70
     0
  0
APPID
  5
30
330
9
100
AcDbSymbolTableRecord
100
AcDbRegAppTableRecord
  2
MCAD_NO_VIS
 70
     0
  0
APPID
  5
31
330
9
100
AcDbSymbolTableRecord
100
AcDbRegAppTableRecord
  2
ACAD_TEMP_GRAPHIC
 70
     0
  0
APPID
  5
42
330
9
100
AcDbSymbolTableRecord
100
AcDbRegAppTableRecord
  2
ACATTRIBSERVICES
 70
     0
  0
APPID
  5
E0
330
9
100
AcDbSymbolTableRecord
100
AcDbRegAppTableRecord
  2
GENIUS_GENDTOL_13
 70
     0
  0
APPID
  5
150
330
9
100
AcDbSymbolTableRecord
100
AcDbRegAppTableRecord
  2
GENIUS_GENODEF_13
 70
     0
  0
APPID
  5
151
330
9
100
AcDbSymbolTableRecord
100
AcDbRegAppTableRecord
  2
GENIUS_GENOBJ-N-CRS_13
 70
     0
  0
APPID
  5
152
330
9
100
AcDbSymbolTableRecord
100
AcDbRegAppTableRecord
  2
GENIUS_GENOENT_13
 70
     0
  0
APPID
  5
153
330
9
100
AcDbSymbolTableRecord
100
AcDbRegAppTableRecord
  2
GENIUS_GENOLIS_13
 70
     0
  0
APPID
  5
154
330
9
100
AcDbSymbolTableRecord
100
AcDbRegAppTableRecord
  2
GENIUS_GENOREF_13
 70
     0
  0
APPID
  5
6B1
330
9
100
AcDbSymbolTableRecord
100
AcDbRegAppTableRecord
  2
GENIUS_GENDIMSH_14
 70
     0
  0
APPID
  5
2B45
330
9
100
AcDbSymbolTableRecord
100
AcDbRegAppTableRecord
  2
GENIUS_GENOBJ-N-CEN_13
 70
     0
  0
APPID
  5
2D85
330
9
100
AcDbSymbolTableRecord
100
AcDbRegAppTableRecord
  2
AD_DRAW
 70
     0
  0
APPID
  5
2DA3
330
9
100
AcDbSymbolTableRecord
100
AcDbRegAppTableRecord
  2
DESIGNERASSEMBLIES
 70
     0
  0
APPID
  5
2DA8
330
9
100
AcDbSymbolTableRecord
100
AcDbRegAppTableRecord
  2
ACADM_DIM_EDIT
 70
     0
  0
APPID
  5
2DA9
330
9
100
AcDbSymbolTableRecord
100
AcDbRegAppTableRecord
  2
AMDT_DM_ADJ
 70
     0
  0
APPID
  5
2DFA
330
9
100
AcDbSymbolTableRecord
100
AcDbRegAppTableRecord
  2
GENIUS_GENREC_14
 70
     0
  0
APPID
  5
2DFB
330
9
100
AcDbSymbolTableRecord
100
AcDbRegAppTableRecord
  2
GENIUS_GENOBJ-N-REC_13
 70
     0
  0
APPID
  5
300E
330
9
100
AcDbSymbolTableRecord
100
AcDbRegAppTableRecord
  2
GENIUS_GENDIM_13
 70
     0
  0
APPID
  5
300F
330
9
100
AcDbSymbolTableRecord
100
AcDbRegAppTableRecord
  2
GENIUS_GE3DTOL_13
 70
     0
  0
APPID
  5
308F
330
9
100
AcDbSymbolTableRecord
100
AcDbRegAppTableRecord
  2
ASURF_PCURVE_APPNAME
 70
     0
  0
APPID
  5
3094
330
9
100
AcDbSymbolTableRecord
100
AcDbRegAppTableRecord
  2
AMG_3D2D_5.0
 70
     0
  0
APPID
  5
31F8
330
9
100
AcDbSymbolTableRecord
100
AcDbRegAppTableRecord
  2
ACAD_PSEXT
 70
     0
  0
APPID
  5
5590
330
9
100
AcDbSymbolTableRecord
100
AcDbRegAppTableRecord
  2
ACAD_DSTYLE_DIMTEXT_FILL
 70
     0
  0
ENDTAB
  0
TABLE
  2
DIMSTYLE
  5
A
330
0
100
AcDbSymbolTable
 70
    10
100
AcDbDimStyleTable
 71
     1
340
6B
  0
DIMSTYLE
105
6B
330
A
100
AcDbSymbolTableRecord
100
AcDbDimStyleTableRecord
  2
AM_ISO
 70
     0
  4
"
 41
3.5
 42
1.5
 43
8.0
 44
1.5
 47
0.1
 48
0.1
 73
     0
 74
     0
 77
     1
 78
     8
 79
     2
140
3.5
141
0.0
143
0.0393701
146
0.71
147
1.0
172
     1
176
   256
177
   256
178
   256
271
     2
272
     2
283
     0
284
     8
340
11
371
    -1
372
    -1
  0
DIMSTYLE
105
6C
102
{ACAD_REACTORS
330
6F25
102
}
330
A
100
AcDbSymbolTableRecord
100
AcDbDimStyleTableRecord
  2
AM_ISO$3
 70
     0
  4
"
 41
3.5
 42
1.5
 43
8.0
 44
1.5
 47
0.1
 48
0.1
 73
     0
 77
     1
 78
     8
 79
     2
140
3.5
141
0.0
143
0.0393701
146
0.71
147
1.0
176
   256
177
   256
178
   256
271
     2
272
     2
283
     0
284
     8
288
     1
289
     0
340
11
371
    -1
372
    -1
  0
DIMSTYLE
105
6D
102
{ACAD_REACTORS
330
6C81
102
}
330
A
100
AcDbSymbolTableRecord
100
AcDbDimStyleTableRecord
  2
AM_ISO$4
 70
     0
  4
"
 41
3.5
 42
1.5
 43
8.0
 44
1.5
 47
0.1
 48
0.1
 73
     0
 77
     1
 78
     8
 79
     2
140
3.5
141
0.0
143
0.0393701
146
0.71
147
1.0
176
   256
177
   256
178
   256
271
     2
272
     2
283
     0
284
     8
288
     1
289
     0
340
11
371
    -1
372
    -1
  0
DIMSTYLE
105
6E
330
A
100
AcDbSymbolTableRecord
100
AcDbDimStyleTableRecord
  2
AM_ISO$6
 70
     0
  4
"
 41
3.5
 42
1.5
 43
8.0
 44
1.5
 47
0.1
 48
0.1
 73
     0
 74
     0
 78
     8
 79
     2
140
3.5
141
0.0
143
0.0393701
146
0.71
147
1.0
172
     1
176
   256
177
   256
178
   256
271
     2
272
     2
283
     0
284
     8
340
11
371
    -1
372
    -1
  0
DIMSTYLE
105
6F
102
{ACAD_REACTORS
330
6A68
330
6AF2
330
6C2E
330
6EFB
102
}
330
A
100
AcDbSymbolTableRecord
100
AcDbDimStyleTableRecord
  2
AM_ISO$7
 70
     0
  4
"
 41
3.5
 42
1.5
 43
8.0
 44
1.5
 47
0.1
 48
0.1
 73
     0
 74
     0
 77
     1
 78
     8
 79
     2
140
3.5
141
0.0
143
0.0393701
146
0.71
147
1.0
172
     1
176
   256
177
   256
178
   256
271
     2
272
     2
283
     0
284
     8
340
11
371
    -1
372
    -1
  0
DIMSTYLE
105
70
330
A
100
AcDbSymbolTableRecord
100
AcDbDimStyleTableRecord
  2
AM_ISO$SF
 70
     0
  4
"
 41
2.5
 42
1.0
 43
10.0
 44
1.0
 47
0.1
 48
0.1
 73
     0
 74
     0
 75
     1
 76
     1
 77
     1
 78
     8
 79
     2
140
3.5
141
0.0
143
0.0393701
146
0.71
147
1.5
172
     1
176
   256
177
   256
178
     2
271
     2
272
     3
274
     4
283
     0
284
     8
340
11
371
    -1
372
    -1
  0
DIMSTYLE
105
75
330
A
100
AcDbSymbolTableRecord
100
AcDbDimStyleTableRecord
  2
AM_ISO$SH
 70
     0
  4
"
 41
2.5
 42
1.0
 43
10.0
 44
1.0
 47
0.1
 48
0.1
 73
     0
 74
     0
 75
     1
 76
     1
 77
     1
 78
     8
 79
     2
140
3.5
141
0.0
143
0.0393701
144
2.0
146
0.71
147
1.5
172
     1
173
     1
176
   256
177
   256
178
     2
271
     2
272
     3
274
     4
283
     0
284
     8
340
11
341
71
343
71
371
    -1
372
    -1
  0
DIMSTYLE
105
31F5
102
{ACAD_REACTORS
330
6477
330
64A1
330
64C7
330
656D
330
6597
330
68E9
330
694F
330
699A
330
69CD
330
69FB
330
6A40
330
6A7C
330
6ACC
330
6B05
330
6B2F
330
6B63
330
6B8D
330
6BD7
330
6C01
330
6C4A
102
}
330
A
100
AcDbSymbolTableRecord
100
AcDbDimStyleTableRecord
  2
AM_ISO$0
 70
     0
  4
"
 41
3.0
 42
1.0
 43
15.0
 44
1.0
 47
0.1
 48
0.1
 73
     0
 74
     0
 77
     1
 78
     8
 79
     2
140
3.5
141
0.0
143
0.0393701
146
0.71
147
1.0
172
     1
176
   256
177
   256
178
   256
271
     2
272
     2
283
     0
284
     8
340
11
371
    -1
372
    -1
  0
DIMSTYLE
105
31F6
330
A
100
AcDbSymbolTableRecord
100
AcDbDimStyleTableRecord
  2
AM_ANSI$7
 70
     0
  4
"
 40
1.333333333333333
 41
3.0
 42
1.5
 43
9.0
 44
2.0
 47
0.1
 48
0.1
 73
     0
 74
     0
 77
     3
 78
     8
 79
     2
140
5.0
141
0.0
143
0.0393701
146
0.6
147
0.8
172
     1
176
   256
177
   256
178
   256
271
     2
272
     2
284
     8
340
31F3
371
    -1
372
    -1
  0
DIMSTYLE
105
3E6F
330
A
100
AcDbSymbolTableRecord
100
AcDbDimStyleTableRecord
  2
AM_ANSI
 70
     0
  4
"
 40
1.25
 41
3.0
 42
1.5
 43
9.0
 44
2.0
 47
0.1
 48
0.1
 73
     0
 74
     0
 77
     3
 78
     8
 79
     2
140
3.0
141
0.0
143
0.0393701
146
0.6
147
0.8
172
     1
176
   256
177
   256
178
   256
271
     2
272
     2
284
     8
340
31F3
371
    -1
372
    -1
  0
ENDTAB
  0
TABLE
  2
BLOCK_RECORD
  5
1
330
0
100
AcDbSymbolTable
 70
    26
  0
BLOCK_RECORD
  5
1F
102
{ACAD_XDICTIONARY
360
159
102
}
330
1
100
AcDbSymbolTableRecord
100
AcDbBlockTableRecord
  2
*Model_Space
340
22
  0
BLOCK_RECORD
  5
1B
102
{ACAD_XDICTIONARY
360
2CA5
102
}
330
1
100
AcDbSymbolTableRecord
100
AcDbBlockTableRecord
  2
*Paper_Space
340
1E
  0
BLOCK_RECORD
  5
23
102
{ACAD_XDICTIONARY
360
2CA7
102
}
330
1
100
AcDbSymbolTableRecord
100
AcDbBlockTableRecord
  2
*Paper_Space0
340
26
  0
BLOCK_RECORD
  5
71
330
1
100
AcDbSymbolTableRecord
100
AcDbBlockTableRecord
  2
GENAXEH
340
0
  0
BLOCK_RECORD
  5
30E8
330
1
100
AcDbSymbolTableRecord
100
AcDbBlockTableRecord
  2
_DotSmall
340
0
  0
BLOCK_RECORD
  5
6478
330
1
100
AcDbSymbolTableRecord
100
AcDbBlockTableRecord
  2
*D4
340
0
  0
BLOCK_RECORD
  5
64A2
330
1
100
AcDbSymbolTableRecord
100
AcDbBlockTableRecord
  2
*D5
340
0
  0
BLOCK_RECORD
  5
64C8
330
1
100
AcDbSymbolTableRecord
100
AcDbBlockTableRecord
  2
*D6
340
0
  0
BLOCK_RECORD
  5
656E
330
1
100
AcDbSymbolTableRecord
100
AcDbBlockTableRecord
  2
*D7
340
0
  0
BLOCK_RECORD
  5
6598
330
1
100
AcDbSymbolTableRecord
100
AcDbBlockTableRecord
  2
*D8
340
0
  0
BLOCK_RECORD
  5
68EA
330
1
100
AcDbSymbolTableRecord
100
AcDbBlockTableRecord
  2
*D9
340
0
  0
BLOCK_RECORD
  5
6950
330
1
100
AcDbSymbolTableRecord
100
AcDbBlockTableRecord
  2
*D10
340
0
  0
BLOCK_RECORD
  5
699B
330
1
100
AcDbSymbolTableRecord
100
AcDbBlockTableRecord
  2
*D11
340
0
  0
BLOCK_RECORD
  5
69CE
330
1
100
AcDbSymbolTableRecord
100
AcDbBlockTableRecord
  2
*D12
340
0
  0
BLOCK_RECORD
  5
69FC
330
1
100
AcDbSymbolTableRecord
100
AcDbBlockTableRecord
  2
*D13
340
0
  0
BLOCK_RECORD
  5
6A41
330
1
100
AcDbSymbolTableRecord
100
AcDbBlockTableRecord
  2
*D14
340
0
  0
BLOCK_RECORD
  5
6A7D
330
1
100
AcDbSymbolTableRecord
100
AcDbBlockTableRecord
  2
*D15
340
0
  0
BLOCK_RECORD
  5
6ACD
330
1
100
AcDbSymbolTableRecord
100
AcDbBlockTableRecord
  2
*D16
340
0
  0
BLOCK_RECORD
  5
6B06
330
1
100
AcDbSymbolTableRecord
100
AcDbBlockTableRecord
  2
*D17
340
0
  0
BLOCK_RECORD
  5
6B30
330
1
100
AcDbSymbolTableRecord
100
AcDbBlockTableRecord
  2
*D18
340
0
  0
BLOCK_RECORD
  5
6B64
330
1
100
AcDbSymbolTableRecord
100
AcDbBlockTableRecord
  2
*D19
340
0
  0
BLOCK_RECORD
  5
6B8E
330
1
100
AcDbSymbolTableRecord
100
AcDbBlockTableRecord
  2
*D20
340
0
  0
BLOCK_RECORD
  5
6BD8
330
1
100
AcDbSymbolTableRecord
100
AcDbBlockTableRecord
  2
*D21
340
0
  0
BLOCK_RECORD
  5
6C02
330
1
100
AcDbSymbolTableRecord
100
AcDbBlockTableRecord
  2
*D22
340
0
  0
BLOCK_RECORD
  5
6C4B
330
1
100
AcDbSymbolTableRecord
100
AcDbBlockTableRecord
  2
*D23
340
0
  0
BLOCK_RECORD
  5
6C82
330
1
100
AcDbSymbolTableRecord
100
AcDbBlockTableRecord
  2
*D24
340
0
  0
BLOCK_RECORD
  5
6F26
330
1
100
AcDbSymbolTableRecord
100
AcDbBlockTableRecord
  2
*D25
340
0
  0
ENDTAB
  0
ENDSEC
  0
SECTION
  2
BLOCKS
  0
BLOCK
  5
20
330
1F
100
AcDbEntity
  8
0
100
AcDbBlockBegin
  2
*Model_Space
 70
     0
 10
0.0
 20
0.0
 30
0.0
  3
*Model_Space
  1

  0
ENDBLK
  5
21
330
1F
100
AcDbEntity
  8
0
100
AcDbBlockEnd
  0
BLOCK
  5
1C
330
1B
100
AcDbEntity
 67
     1
  8
0
100
AcDbBlockBegin
  2
*Paper_Space
 70
     0
 10
0.0
 20
0.0
 30
0.0
  3
*Paper_Space
  1

  0
ENDBLK
  5
1D
330
1B
100
AcDbEntity
 67
     1
  8
0
100
AcDbBlockEnd
  0
BLOCK
  5
24
330
23
100
AcDbEntity
  8
0
100
AcDbBlockBegin
  2
*Paper_Space0
 70
     0
 10
0.0
 20
0.0
 30
0.0
  3
*Paper_Space0
  1

  0
ENDBLK
  5
25
330
23
100
AcDbEntity
  8
0
100
AcDbBlockEnd
  0
BLOCK
  5
73
330
71
100
AcDbEntity
  8
0
100
AcDbBlockBegin
  2
GENAXEH
 70
     0
 10
0.0
 20
0.0
 30
0.0
  3
GENAXEH
  1

  0
LINE
  5
72
330
71
100
AcDbEntity
  8
0
100
AcDbLine
 10
-1.0
 20
0.0
 30
0.0
 11
1.0
 21
0.0
 31
0.0
  0
ENDBLK
  5
74
330
71
100
AcDbEntity
  8
0
100
AcDbBlockEnd
  0
BLOCK
  5
30E9
330
30E8
100
AcDbEntity
  8
0
100
AcDbBlockBegin
  2
_DotSmall
 70
     0
 10
0.0
 20
0.0
 30
0.0
  3
_DotSmall
  1

  0
LWPOLYLINE
  5
30EA
330
30E8
100
AcDbEntity
  8
0
  6
ByBlock
 62
     0
100
AcDbPolyline
 90
        2
 70
     1
 43
0.5
 10
-0.0625
 20
0.0
 42
1.0
 10
0.0625
 20
0.0
 42
1.0
  0
ENDBLK
  5
30EB
330
30E8
100
AcDbEntity
  8
0
100
AcDbBlockEnd
  0
BLOCK
  5
6482
330
6478
100
AcDbEntity
  8
0
100
AcDbBlockBegin
  2
*D4
 70
     1
 10
0.0
 20
0.0
 30
0.0
  3
*D4
  1

  0
LINE
  5
65FA
330
6478
100
AcDbEntity
  8
AM_5
100
AcDbLine
 10
1733.197486760773
 20
993.5791981949501
 30
0.0
 11
1721.197486760773
 21
993.5791981949501
 31
0.0
  0
LINE
  5
65FB
330
6478
100
AcDbEntity
  8
AM_5
100
AcDbLine
 10
1733.197486760773
 20
983.5791981949501
 30
0.0
 11
1721.197486760773
 21
983.5791981949501
 31
0.0
  0
LINE
  5
65FC
330
6478
100
AcDbEntity
  8
AM_5
100
AcDbLine
 10
1722.197486760773
 20
990.5791981949501
 30
0.0
 11
1722.197486760773
 21
986.5791981949501
 31
0.0
  0
SOLID
  5
65FD
330
6478
100
AcDbEntity
  8
AM_5
100
AcDbTrace
 10
1721.697486760773
 20
990.5791981949501
 30
0.0
 11
1722.697486760773
 21
990.5791981949501
 31
0.0
 12
1722.197486760773
 22
993.5791981949501
 32
0.0
 13
1722.197486760773
 23
993.5791981949501
 33
0.0
  0
SOLID
  5
65FE
330
6478
100
AcDbEntity
  8
AM_5
100
AcDbTrace
 10
1721.697486760773
 20
986.5791981949501
 30
0.0
 11
1722.697486760773
 21
986.5791981949501
 31
0.0
 12
1722.197486760773
 22
983.5791981949501
 32
0.0
 13
1722.197486760773
 23
983.5791981949501
 33
0.0
  0
MTEXT
  5
65FF
330
6478
100
AcDbEntity
  8
AM_5
100
AcDbMText
 10
1719.447486760772
 20
988.5791981949504
 30
0.0
 40
3.5
 41
0.0
 71
     5
 72
     1
  1
%%c10
 11
0.0000000000000001
 21
1.0
 31
0.0
 73
     1
 44
1.0
1001
ACAD
1000
MTEXTBEGIN
1070
    73
1070
     1
1070
    44
1040
1.0
1070
    74
1070
     0
1000
MTEXTEND
  0
POINT
  5
6600
330
6478
100
AcDbEntity
  8
Defpoints
 62
     0
100
AcDbPoint
 10
1734.197486760773
 20
993.5791981949501
 30
0.0
  0
POINT
  5
6601
330
6478
100
AcDbEntity
  8
Defpoints
 62
     0
100
AcDbPoint
 10
1734.197486760773
 20
983.5791981949501
 30
0.0
  0
POINT
  5
6602
330
6478
100
AcDbEntity
  8
Defpoints
 62
     0
100
AcDbPoint
 10
1722.197486760773
 20
983.5791981949501
 30
0.0
  0
ENDBLK
  5
6483
330
6478
100
AcDbEntity
  8
0
100
AcDbBlockEnd
  0
BLOCK
  5
64AC
330
64A2
100
AcDbEntity
  8
0
100
AcDbBlockBegin
  2
*D5
 70
     1
 10
0.0
 20
0.0
 30
0.0
  3
*D5
  1

  0
LINE
  5
6603
330
64A2
100
AcDbEntity
  8
AM_5
100
AcDbLine
 10
1738.197486760773
 20
994.07919819495
 30
0.0
 11
1713.197486760773
 21
994.07919819495
 31
0.0
  0
LINE
  5
6604
330
64A2
100
AcDbEntity
  8
AM_5
100
AcDbLine
 10
1738.197486760773
 20
983.07919819495
 30
0.0
 11
1713.197486760773
 21
983.07919819495
 31
0.0
  0
LINE
  5
6605
330
64A2
100
AcDbEntity
  8
AM_5
100
AcDbLine
 10
1714.197486760773
 20
991.07919819495
 30
0.0
 11
1714.197486760773
 21
986.0791981949502
 31
0.0
  0
SOLID
  5
6606
330
64A2
100
AcDbEntity
  8
AM_5
100
AcDbTrace
 10
1713.697486760773
 20
991.07919819495
 30
0.0
 11
1714.697486760773
 21
991.07919819495
 31
0.0
 12
1714.197486760773
 22
994.07919819495
 32
0.0
 13
1714.197486760773
 23
994.07919819495
 33
0.0
  0
SOLID
  5
6607
330
64A2
100
AcDbEntity
  8
AM_5
100
AcDbTrace
 10
1713.697486760773
 20
986.0791981949502
 30
0.0
 11
1714.697486760773
 21
986.0791981949502
 31
0.0
 12
1714.197486760773
 22
983.07919819495
 32
0.0
 13
1714.197486760773
 23
983.07919819495
 33
0.0
  0
MTEXT
  5
6608
330
64A2
100
AcDbEntity
  8
AM_5
100
AcDbMText
 10
1711.447486760773
 20
988.5791981949504
 30
0.0
 40
3.5
 41
0.0
 71
     5
 72
     1
  1
%%c11
 11
0.0000000000000001
 21
1.0
 31
0.0
 73
     1
 44
1.0
1001
ACAD
1000
MTEXTBEGIN
1070
    73
1070
     1
1070
    44
1040
1.0
1070
    74
1070
     0
1000
MTEXTEND
  0
POINT
  5
6609
330
64A2
100
AcDbEntity
  8
Defpoints
 62
     0
100
AcDbPoint
 10
1739.197486760773
 20
994.07919819495
 30
0.0
  0
POINT
  5
660A
330
64A2
100
AcDbEntity
  8
Defpoints
 62
     0
100
AcDbPoint
 10
1739.197486760773
 20
983.07919819495
 30
0.0
  0
POINT
  5
660B
330
64A2
100
AcDbEntity
  8
Defpoints
 62
     0
100
AcDbPoint
 10
1714.197486760773
 20
983.07919819495
 30
0.0
  0
ENDBLK
  5
64AD
330
64A2
100
AcDbEntity
  8
0
100
AcDbBlockEnd
  0
BLOCK
  5
64D2
330
64C8
100
AcDbEntity
  8
0
100
AcDbBlockBegin
  2
*D6
 70
     1
 10
0.0
 20
0.0
 30
0.0
  3
*D6
  1

  0
LINE
  5
660C
330
64C8
100
AcDbEntity
  8
AM_5
100
AcDbLine
 10
1744.197486760773
 20
1003.57919819495
 30
0.0
 11
1705.197486760773
 21
1003.57919819495
 31
0.0
  0
LINE
  5
660D
330
64C8
100
AcDbEntity
  8
AM_5
100
AcDbLine
 10
1744.197486760773
 20
973.5791981949502
 30
0.0
 11
1705.197486760773
 21
973.5791981949502
 31
0.0
  0
LINE
  5
660E
330
64C8
100
AcDbEntity
  8
AM_5
100
AcDbLine
 10
1706.197486760773
 20
1000.57919819495
 30
0.0
 11
1706.197486760773
 21
976.5791981949501
 31
0.0
  0
SOLID
  5
660F
330
64C8
100
AcDbEntity
  8
AM_5
100
AcDbTrace
 10
1705.697486760773
 20
1000.57919819495
 30
0.0
 11
1706.697486760773
 21
1000.57919819495
 31
0.0
 12
1706.197486760773
 22
1003.57919819495
 32
0.0
 13
1706.197486760773
 23
1003.57919819495
 33
0.0
  0
SOLID
  5
6610
330
64C8
100
AcDbEntity
  8
AM_5
100
AcDbTrace
 10
1705.697486760773
 20
976.5791981949501
 30
0.0
 11
1706.697486760773
 21
976.5791981949501
 31
0.0
 12
1706.197486760773
 22
973.5791981949502
 32
0.0
 13
1706.197486760773
 23
973.5791981949502
 33
0.0
  0
MTEXT
  5
6611
330
64C8
100
AcDbEntity
  8
AM_5
100
AcDbMText
 10
1703.447486760772
 20
988.5791981949504
 30
0.0
 40
3.5
 41
0.0
 71
     5
 72
     1
  1
%%c30
 11
0.0000000000000001
 21
1.0
 31
0.0
 73
     1
 44
1.0
1001
ACAD
1000
MTEXTBEGIN
1070
    73
1070
     1
1070
    44
1040
1.0
1070
    74
1070
     0
1000
MTEXTEND
  0
POINT
  5
6612
330
64C8
100
AcDbEntity
  8
Defpoints
 62
     0
100
AcDbPoint
 10
1745.197486760773
 20
1003.57919819495
 30
0.0
  0
POINT
  5
6613
330
64C8
100
AcDbEntity
  8
Defpoints
 62
     0
100
AcDbPoint
 10
1745.197486760773
 20
973.5791981949502
 30
0.0
  0
POINT
  5
6614
330
64C8
100
AcDbEntity
  8
Defpoints
 62
     0
100
AcDbPoint
 10
1706.197486760773
 20
973.5791981949502
 30
0.0
  0
ENDBLK
  5
64D3
330
64C8
100
AcDbEntity
  8
0
100
AcDbBlockEnd
  0
BLOCK
  5
6578
330
656E
100
AcDbEntity
  8
0
100
AcDbBlockBegin
  2
*D7
 70
     1
 10
0.0
 20
0.0
 30
0.0
  3
*D7
  1

  0
LINE
  5
6615
330
656E
100
AcDbEntity
  8
AM_5
100
AcDbLine
 10
1734.197486760773
 20
982.5791981949501
 30
0.0
 11
1734.197486760773
 21
960.5791981949499
 31
0.0
  0
LINE
  5
6616
330
656E
100
AcDbEntity
  8
AM_5
100
AcDbLine
 10
1744.197486760773
 20
973.5791981949502
 30
0.0
 11
1744.197486760773
 21
960.5791981949499
 31
0.0
  0
LINE
  5
6617
330
656E
100
AcDbEntity
  8
AM_5
100
AcDbLine
 10
1737.197486760773
 20
961.5791981949499
 30
0.0
 11
1741.197486760773
 21
961.5791981949499
 31
0.0
  0
SOLID
  5
6618
330
656E
100
AcDbEntity
  8
AM_5
100
AcDbTrace
 10
1737.197486760773
 20
962.07919819495
 30
0.0
 11
1737.197486760773
 21
961.07919819495
 31
0.0
 12
1734.197486760773
 22
961.5791981949499
 32
0.0
 13
1734.197486760773
 23
961.5791981949499
 33
0.0
  0
SOLID
  5
6619
330
656E
100
AcDbEntity
  8
AM_5
100
AcDbTrace
 10
1741.197486760773
 20
962.07919819495
 30
0.0
 11
1741.197486760773
 21
961.07919819495
 31
0.0
 12
1744.197486760773
 22
961.5791981949499
 32
0.0
 13
1744.197486760773
 23
961.5791981949499
 33
0.0
  0
MTEXT
  5
661A
330
656E
100
AcDbEntity
  8
AM_5
100
AcDbMText
 10
1739.197486760773
 20
964.32919819495
 30
0.0
 40
3.5
 41
0.0
 71
     5
 72
     1
  1
10
 73
     1
 44
1.0
1001
ACAD
1000
MTEXTBEGIN
1070
    73
1070
     1
1070
    44
1040
1.0
1070
    74
1070
     0
1000
MTEXTEND
  0
POINT
  5
661B
330
656E
100
AcDbEntity
  8
Defpoints
 62
     0
100
AcDbPoint
 10
1734.197486760773
 20
983.5791981949501
 30
0.0
  0
POINT
  5
661C
330
656E
100
AcDbEntity
  8
Defpoints
 62
     0
100
AcDbPoint
 10
1744.197486760773
 20
974.5791981949501
 30
0.0
  0
POINT
  5
661D
330
656E
100
AcDbEntity
  8
Defpoints
 62
     0
100
AcDbPoint
 10
1744.197486760773
 20
961.5791981949499
 30
0.0
  0
ENDBLK
  5
6579
330
656E
100
AcDbEntity
  8
0
100
AcDbBlockEnd
  0
BLOCK
  5
65A2
330
6598
100
AcDbEntity
  8
0
100
AcDbBlockBegin
  2
*D8
 70
     1
 10
0.0
 20
0.0
 30
0.0
  3
*D8
  1

  0
LINE
  5
661E
330
6598
100
AcDbEntity
  8
AM_5
100
AcDbLine
 10
1734.197486760773
 20
982.5791981949501
 30
0.0
 11
1734.197486760773
 21
952.5791981949501
 31
0.0
  0
LINE
  5
661F
330
6598
100
AcDbEntity
  8
AM_5
100
AcDbLine
 10
1794.197486760773
 20
970.0791981949501
 30
0.0
 11
1794.197486760773
 21
952.5791981949501
 31
0.0
  0
LINE
  5
6620
330
6598
100
AcDbEntity
  8
AM_5
100
AcDbLine
 10
1737.197486760773
 20
953.57919819495
 30
0.0
 11
1791.197486760773
 21
953.57919819495
 31
0.0
  0
SOLID
  5
6621
330
6598
100
AcDbEntity
  8
AM_5
100
AcDbTrace
 10
1737.197486760773
 20
954.0791981949501
 30
0.0
 11
1737.197486760773
 21
953.0791981949501
 31
0.0
 12
1734.197486760773
 22
953.57919819495
 32
0.0
 13
1734.197486760773
 23
953.57919819495
 33
0.0
  0
SOLID
  5
6622
330
6598
100
AcDbEntity
  8
AM_5
100
AcDbTrace
 10
1791.197486760773
 20
954.0791981949501
 30
0.0
 11
1791.197486760773
 21
953.0791981949501
 31
0.0
 12
1794.197486760773
 22
953.57919819495
 32
0.0
 13
1794.197486760773
 23
953.57919819495
 33
0.0
  0
MTEXT
  5
6623
330
6598
100
AcDbEntity
  8
AM_5
100
AcDbMText
 10
1764.197486760773
 20
956.32919819495
 30
0.0
 40
3.5
 41
0.0
 71
     5
 72
     1
  1
60
 73
     1
 44
1.0
1001
ACAD
1000
MTEXTBEGIN
1070
    73
1070
     1
1070
    44
1040
1.0
1070
    74
1070
     0
1000
MTEXTEND
  0
POINT
  5
6624
330
6598
100
AcDbEntity
  8
Defpoints
 62
     0
100
AcDbPoint
 10
1734.197486760773
 20
983.5791981949501
 30
0.0
  0
POINT
  5
6625
330
6598
100
AcDbEntity
  8
Defpoints
 62
     0
100
AcDbPoint
 10
1794.197486760773
 20
971.0791981949501
 30
0.0
  0
POINT
  5
6626
330
6598
100
AcDbEntity
  8
Defpoints
 62
     0
100
AcDbPoint
 10
1794.197486760773
 20
953.57919819495
 30
0.0
  0
ENDBLK
  5
65A3
330
6598
100
AcDbEntity
  8
0
100
AcDbBlockEnd
  0
BLOCK
  5
68F4
330
68EA
100
AcDbEntity
  8
0
100
AcDbBlockBegin
  2
*D9
 70
     1
 10
0.0
 20
0.0
 30
0.0
  3
*D9
  1

  0
LINE
  5
6982
330
68EA
100
AcDbEntity
  8
AM_5
100
AcDbLine
 10
1788.291174357716
 20
881.1924707089403
 30
0.0
 11
1767.291174357717
 21
881.1924707089403
 31
0.0
  0
LINE
  5
6983
330
68EA
100
AcDbEntity
  8
AM_5
100
AcDbLine
 10
1788.291174357716
 20
846.1924707089403
 30
0.0
 11
1767.291174357717
 21
846.1924707089403
 31
0.0
  0
LINE
  5
6984
330
68EA
100
AcDbEntity
  8
AM_5
100
AcDbLine
 10
1768.291174357716
 20
878.1924707089403
 30
0.0
 11
1768.291174357716
 21
849.1924707089404
 31
0.0
  0
SOLID
  5
6985
330
68EA
100
AcDbEntity
  8
AM_5
100
AcDbTrace
 10
1767.791174357716
 20
878.1924707089403
 30
0.0
 11
1768.791174357716
 21
878.1924707089403
 31
0.0
 12
1768.291174357716
 22
881.1924707089403
 32
0.0
 13
1768.291174357716
 23
881.1924707089403
 33
0.0
  0
SOLID
  5
6986
330
68EA
100
AcDbEntity
  8
AM_5
100
AcDbTrace
 10
1767.791174357716
 20
849.1924707089404
 30
0.0
 11
1768.791174357716
 21
849.1924707089404
 31
0.0
 12
1768.291174357716
 22
846.1924707089403
 32
0.0
 13
1768.291174357716
 23
846.1924707089403
 33
0.0
  0
MTEXT
  5
6987
330
68EA
100
AcDbEntity
  8
AM_5
100
AcDbMText
 10
1765.541174357716
 20
863.6924707089406
 30
0.0
 40
3.5
 41
0.0
 71
     5
 72
     1
  1
35
 11
0.0000000000000001
 21
1.0
 31
0.0
 73
     1
 44
1.0
1001
ACAD
1000
MTEXTBEGIN
1070
    73
1070
     1
1070
    44
1040
1.0
1070
    74
1070
     0
1000
MTEXTEND
  0
POINT
  5
6988
330
68EA
100
AcDbEntity
  8
Defpoints
 62
     0
100
AcDbPoint
 10
1789.291174357716
 20
881.1924707089403
 30
0.0
  0
POINT
  5
6989
330
68EA
100
AcDbEntity
  8
Defpoints
 62
     0
100
AcDbPoint
 10
1789.291174357716
 20
846.1924707089403
 30
0.0
  0
POINT
  5
698A
330
68EA
100
AcDbEntity
  8
Defpoints
 62
     0
100
AcDbPoint
 10
1768.291174357716
 20
846.1924707089403
 30
0.0
  0
ENDBLK
  5
68F5
330
68EA
100
AcDbEntity
  8
0
100
AcDbBlockEnd
  0
BLOCK
  5
695A
330
6950
100
AcDbEntity
  8
0
100
AcDbBlockBegin
  2
*D10
 70
     1
 10
0.0
 20
0.0
 30
0.0
  3
*D10
  1

  0
LINE
  5
6979
330
6950
100
AcDbEntity
  8
AM_5
100
AcDbLine
 10
1794.053570050682
 20
847.6924707089404
 30
0.0
 11
1775.291174357716
 21
847.6924707089406
 31
0.0
  0
LINE
  5
697A
330
6950
100
AcDbEntity
  8
AM_5
100
AcDbLine
 10
1794.053570050682
 20
879.6924707089404
 30
0.0
 11
1775.291174357716
 21
879.6924707089404
 31
0.0
  0
LINE
  5
697B
330
6950
100
AcDbEntity
  8
AM_5
100
AcDbLine
 10
1776.291174357717
 20
850.6924707089405
 30
0.0
 11
1776.291174357717
 21
876.6924707089405
 31
0.0
  0
SOLID
  5
697C
330
6950
100
AcDbEntity
  8
AM_5
100
AcDbTrace
 10
1775.791174357716
 20
850.6924707089405
 30
0.0
 11
1776.791174357716
 21
850.6924707089405
 31
0.0
 12
1776.291174357717
 22
847.6924707089406
 32
0.0
 13
1776.291174357717
 23
847.6924707089406
 33
0.0
  0
SOLID
  5
697D
330
6950
100
AcDbEntity
  8
AM_5
100
AcDbTrace
 10
1775.791174357716
 20
876.6924707089405
 30
0.0
 11
1776.791174357716
 21
876.6924707089405
 31
0.0
 12
1776.291174357717
 22
879.6924707089404
 32
0.0
 13
1776.291174357717
 23
879.6924707089404
 33
0.0
  0
MTEXT
  5
697E
330
6950
100
AcDbEntity
  8
AM_5
100
AcDbMText
 10
1773.540829869527
 20
863.6924707089407
 30
0.0
 40
3.5
 41
0.0
 71
     5
 72
     1
  1
32
 11
0.0000000000000001
 21
1.0
 31
0.0
 73
     1
 44
1.0
1001
ACAD
1000
MTEXTBEGIN
1070
    73
1070
     1
1070
    44
1040
1.0
1070
    74
1070
     0
1000
MTEXTEND
  0
POINT
  5
697F
330
6950
100
AcDbEntity
  8
Defpoints
 62
     0
100
AcDbPoint
 10
1795.053570050682
 20
847.6924707089404
 30
0.0
  0
POINT
  5
6980
330
6950
100
AcDbEntity
  8
Defpoints
 62
     0
100
AcDbPoint
 10
1795.053570050682
 20
879.6924707089404
 30
0.0
  0
POINT
  5
6981
330
6950
100
AcDbEntity
  8
Defpoints
 62
     0
100
AcDbPoint
 10
1776.291174357717
 20
879.6924707089404
 30
0.0
  0
ENDBLK
  5
695B
330
6950
100
AcDbEntity
  8
0
100
AcDbBlockEnd
  0
BLOCK
  5
69A5
330
699B
100
AcDbEntity
  8
0
100
AcDbBlockBegin
  2
*D11
 70
     1
 10
0.0
 20
0.0
 30
0.0
  3
*D11
  1

  0
LINE
  5
69B5
330
699B
100
AcDbEntity
  8
AM_5
100
AcDbLine
 10
1789.291174357716
 20
845.1924707089403
 30
0.0
 11
1789.291174357716
 21
828.0541810583656
 31
0.0
  0
LINE
  5
69B6
330
699B
100
AcDbEntity
  8
AM_5
100
AcDbLine
 10
1819.291174357717
 20
845.1924707089403
 30
0.0
 11
1819.291174357717
 21
828.0541810583656
 31
0.0
  0
LINE
  5
69B7
330
699B
100
AcDbEntity
  8
AM_5
100
AcDbLine
 10
1792.291174357717
 20
829.0541810583656
 30
0.0
 11
1816.291174357716
 21
829.0541810583656
 31
0.0
  0
SOLID
  5
69B8
330
699B
100
AcDbEntity
  8
AM_5
100
AcDbTrace
 10
1792.291174357717
 20
829.5541810583657
 30
0.0
 11
1792.291174357717
 21
828.5541810583657
 31
0.0
 12
1789.291174357716
 22
829.0541810583656
 32
0.0
 13
1789.291174357716
 23
829.0541810583656
 33
0.0
  0
SOLID
  5
69B9
330
699B
100
AcDbEntity
  8
AM_5
100
AcDbTrace
 10
1816.291174357716
 20
829.5541810583657
 30
0.0
 11
1816.291174357716
 21
828.5541810583657
 31
0.0
 12
1819.291174357717
 22
829.0541810583656
 32
0.0
 13
1819.291174357717
 23
829.0541810583656
 33
0.0
  0
MTEXT
  5
69BA
330
699B
100
AcDbEntity
  8
AM_5
100
AcDbMText
 10
1804.291174357716
 20
831.8041810583656
 30
0.0
 40
3.5
 41
0.0
 71
     5
 72
     1
  1
30
 73
     1
 44
1.0
1001
ACAD
1000
MTEXTBEGIN
1070
    73
1070
     1
1070
    44
1040
1.0
1070
    74
1070
     0
1000
MTEXTEND
  0
POINT
  5
69BB
330
699B
100
AcDbEntity
  8
Defpoints
 62
     0
100
AcDbPoint
 10
1789.291174357716
 20
846.1924707089403
 30
0.0
  0
POINT
  5
69BC
330
699B
100
AcDbEntity
  8
Defpoints
 62
     0
100
AcDbPoint
 10
1819.291174357717
 20
846.1924707089403
 30
0.0
  0
POINT
  5
69BD
330
699B
100
AcDbEntity
  8
Defpoints
 62
     0
100
AcDbPoint
 10
1819.291174357717
 20
829.0541810583656
 30
0.0
  0
ENDBLK
  5
69A6
330
699B
100
AcDbEntity
  8
0
100
AcDbBlockEnd
  0
BLOCK
  5
69DA
330
69CE
100
AcDbEntity
  8
0
100
AcDbBlockBegin
  2
*D12
 70
     1
 10
0.0
 20
0.0
 30
0.0
  3
*D12
  1

  0
LINE
  5
6A26
330
69CE
100
AcDbEntity
  8
AM_5
100
AcDbLine
 10
1863.675868390422
 20
847.1924707089403
 30
0.0
 11
1863.675868390422
 21
833.1924707089404
 31
0.0
  0
LINE
  5
6A27
330
69CE
100
AcDbEntity
  8
AM_5
100
AcDbLine
 10
1870.675868390422
 20
847.1924707089403
 30
0.0
 11
1870.675868390422
 21
833.1924707089404
 31
0.0
  0
LINE
  5
6A28
330
69CE
100
AcDbEntity
  8
AM_5
100
AcDbLine
 10
1860.675868390422
 20
834.1924707089404
 30
0.0
 11
1857.675868390422
 21
834.1924707089404
 31
0.0
  0
LINE
  5
6A29
330
69CE
100
AcDbEntity
  8
AM_5
100
AcDbLine
 10
1873.675868390422
 20
834.1924707089404
 30
0.0
 11
1876.675868390422
 21
834.1924707089404
 31
0.0
  0
LINE
  5
6A2A
330
69CE
100
AcDbEntity
  8
AM_5
100
AcDbLine
 10
1863.675868390422
 20
834.1924707089404
 30
0.0
 11
1870.675868390422
 21
834.1924707089404
 31
0.0
  0
SOLID
  5
6A2B
330
69CE
100
AcDbEntity
  8
AM_5
100
AcDbTrace
 10
1860.675868390422
 20
834.6924707089403
 30
0.0
 11
1860.675868390422
 21
833.6924707089403
 31
0.0
 12
1863.675868390422
 22
834.1924707089404
 32
0.0
 13
1863.675868390422
 23
834.1924707089404
 33
0.0
  0
SOLID
  5
6A2C
330
69CE
100
AcDbEntity
  8
AM_5
100
AcDbTrace
 10
1873.675868390422
 20
834.6924707089403
 30
0.0
 11
1873.675868390422
 21
833.6924707089403
 31
0.0
 12
1870.675868390422
 22
834.1924707089404
 32
0.0
 13
1870.675868390422
 23
834.1924707089404
 33
0.0
  0
MTEXT
  5
6A2D
330
69CE
100
AcDbEntity
  8
AM_5
100
AcDbMText
 10
1867.175868390422
 20
836.9424707089404
 30
0.0
 40
3.5
 41
0.0
 71
     5
 72
     1
  1
7
 73
     1
 44
1.0
1001
ACAD
1000
MTEXTBEGIN
1070
    73
1070
     1
1070
    44
1040
1.0
1070
    74
1070
     0
1000
MTEXTEND
  0
POINT
  5
6A2E
330
69CE
100
AcDbEntity
  8
Defpoints
 62
     0
100
AcDbPoint
 10
1863.675868390422
 20
848.1924707089403
 30
0.0
  0
POINT
  5
6A2F
330
69CE
100
AcDbEntity
  8
Defpoints
 62
     0
100
AcDbPoint
 10
1870.675868390422
 20
848.1924707089403
 30
0.0
  0
POINT
  5
6A30
330
69CE
100
AcDbEntity
  8
Defpoints
 62
     0
100
AcDbPoint
 10
1870.675868390422
 20
834.1924707089404
 30
0.0
  0
ENDBLK
  5
69DB
330
69CE
100
AcDbEntity
  8
0
100
AcDbBlockEnd
  0
BLOCK
  5
6A08
330
69FC
100
AcDbEntity
  8
0
100
AcDbBlockBegin
  2
*D13
 70
     1
 10
0.0
 20
0.0
 30
0.0
  3
*D13
  1

  0
LINE
  5
6A0C
330
69FC
100
AcDbEntity
  8
AM_5
100
AcDbLine
 10
1898.675868390421
 20
845.1924707089403
 30
0.0
 11
1898.675868390421
 21
833.1924707089404
 31
0.0
  0
LINE
  5
6A0D
330
69FC
100
AcDbEntity
  8
AM_5
100
AcDbLine
 10
1893.675868390422
 20
846.4424707089403
 30
0.0
 11
1893.675868390422
 21
833.1924707089404
 31
0.0
  0
LINE
  5
6A0E
330
69FC
100
AcDbEntity
  8
AM_5
100
AcDbLine
 10
1901.675868390421
 20
834.1924707089404
 30
0.0
 11
1904.675868390422
 21
834.1924707089404
 31
0.0
  0
LINE
  5
6A0F
330
69FC
100
AcDbEntity
  8
AM_5
100
AcDbLine
 10
1890.675868390422
 20
834.1924707089404
 30
0.0
 11
1887.675868390422
 21
834.1924707089404
 31
0.0
  0
LINE
  5
6A10
330
69FC
100
AcDbEntity
  8
AM_5
100
AcDbLine
 10
1898.675868390421
 20
834.1924707089404
 30
0.0
 11
1893.675868390422
 21
834.1924707089404
 31
0.0
  0
SOLID
  5
6A11
330
69FC
100
AcDbEntity
  8
AM_5
100
AcDbTrace
 10
1901.675868390421
 20
834.6924707089403
 30
0.0
 11
1901.675868390421
 21
833.6924707089403
 31
0.0
 12
1898.675868390421
 22
834.1924707089404
 32
0.0
 13
1898.675868390421
 23
834.1924707089404
 33
0.0
  0
SOLID
  5
6A12
330
69FC
100
AcDbEntity
  8
AM_5
100
AcDbTrace
 10
1890.675868390422
 20
834.6924707089403
 30
0.0
 11
1890.675868390422
 21
833.6924707089403
 31
0.0
 12
1893.675868390422
 22
834.1924707089404
 32
0.0
 13
1893.675868390422
 23
834.1924707089404
 33
0.0
  0
MTEXT
  5
6A13
330
69FC
100
AcDbEntity
  8
AM_5
100
AcDbMText
 10
1896.175868390422
 20
836.9424707089404
 30
0.0
 40
3.5
 41
0.0
 71
     5
 72
     1
  1
5
 73
     1
 44
1.0
1001
ACAD
1000
MTEXTBEGIN
1070
    73
1070
     1
1070
    44
1040
1.0
1070
    74
1070
     0
1000
MTEXTEND
  0
POINT
  5
6A14
330
69FC
100
AcDbEntity
  8
Defpoints
 62
     0
100
AcDbPoint
 10
1898.675868390421
 20
846.1924707089403
 30
0.0
  0
POINT
  5
6A15
330
69FC
100
AcDbEntity
  8
Defpoints
 62
     0
100
AcDbPoint
 10
1893.675868390422
 20
847.4424707089404
 30
0.0
  0
POINT
  5
6A16
330
69FC
100
AcDbEntity
  8
Defpoints
 62
     0
100
AcDbPoint
 10
1893.675868390422
 20
834.1924707089404
 30
0.0
  0
ENDBLK
  5
6A09
330
69FC
100
AcDbEntity
  8
0
100
AcDbBlockEnd
  0
BLOCK
  5
6A4B
330
6A41
100
AcDbEntity
  8
0
100
AcDbBlockBegin
  2
*D14
 70
     1
 10
0.0
 20
0.0
 30
0.0
  3
*D14
  1

  0
LINE
  5
6A4F
330
6A41
100
AcDbEntity
  8
AM_5
100
AcDbLine
 10
1898.925868390422
 20
875.6924707089403
 30
0.0
 11
1910.925868390422
 21
875.6924707089403
 31
0.0
  0
LINE
  5
6A50
330
6A41
100
AcDbEntity
  8
AM_5
100
AcDbLine
 10
1898.925868390422
 20
851.6924707089403
 30
0.0
 11
1910.925868390422
 21
851.6924707089403
 31
0.0
  0
LINE
  5
6A51
330
6A41
100
AcDbEntity
  8
AM_5
100
AcDbLine
 10
1909.925868390422
 20
872.6924707089404
 30
0.0
 11
1909.925868390422
 21
854.6924707089404
 31
0.0
  0
SOLID
  5
6A52
330
6A41
100
AcDbEntity
  8
AM_5
100
AcDbTrace
 10
1909.425868390422
 20
872.6924707089404
 30
0.0
 11
1910.425868390422
 21
872.6924707089404
 31
0.0
 12
1909.925868390422
 22
875.6924707089403
 32
0.0
 13
1909.925868390422
 23
875.6924707089403
 33
0.0
  0
SOLID
  5
6A53
330
6A41
100
AcDbEntity
  8
AM_5
100
AcDbTrace
 10
1909.425868390422
 20
854.6924707089404
 30
0.0
 11
1910.425868390422
 21
854.6924707089404
 31
0.0
 12
1909.925868390422
 22
851.6924707089403
 32
0.0
 13
1909.925868390422
 23
851.6924707089403
 33
0.0
  0
MTEXT
  5
6A54
330
6A41
100
AcDbEntity
  8
AM_5
100
AcDbMText
 10
1907.175523902233
 20
863.6924707089407
 30
0.0
 40
3.5
 41
0.0
 71
     5
 72
     1
  1
24
 11
0.0000000000000001
 21
1.0
 31
0.0
 73
     1
 44
1.0
1001
ACAD
1000
MTEXTBEGIN
1070
    73
1070
     1
1070
    44
1040
1.0
1070
    74
1070
     0
1000
MTEXTEND
  0
POINT
  5
6A55
330
6A41
100
AcDbEntity
  8
Defpoints
 62
     0
100
AcDbPoint
 10
1897.925868390421
 20
875.6924707089403
 30
0.0
  0
POINT
  5
6A56
330
6A41
100
AcDbEntity
  8
Defpoints
 62
     0
100
AcDbPoint
 10
1897.925868390421
 20
851.6924707089403
 30
0.0
  0
POINT
  5
6A57
330
6A41
100
AcDbEntity
  8
Defpoints
 62
     0
100
AcDbPoint
 10
1909.925868390422
 20
851.6924707089403
 30
0.0
  0
ENDBLK
  5
6A4C
330
6A41
100
AcDbEntity
  8
0
100
AcDbBlockEnd
  0
BLOCK
  5
6A87
330
6A7D
100
AcDbEntity
  8
0
100
AcDbBlockBegin
  2
*D15
 70
     1
 10
0.0
 20
0.0
 30
0.0
  3
*D15
  1

  0
LINE
  5
6ED0
330
6A7D
100
AcDbEntity
  8
AM_5
100
AcDbLine
 10
2051.738246676577
 20
863.6924707089404
 30
0.0
 11
2059.666919882148
 21
863.6924707089404
 31
0.0
  0
LINE
  5
6ED1
330
6A7D
100
AcDbEntity
  8
AM_5
100
AcDbLine
 10
2013.175868390422
 20
839.8924707089404
 30
0.0
 11
2059.666919882148
 21
839.8924707089404
 31
0.0
  0
LINE
  5
6ED2
330
6A7D
100
AcDbEntity
  8
AM_5
100
AcDbLine
 10
2058.666919882148
 20
860.6924707089403
 30
0.0
 11
2058.666919882148
 21
842.8924707089404
 31
0.0
  0
SOLID
  5
6ED3
330
6A7D
100
AcDbEntity
  8
AM_5
100
AcDbTrace
 10
2058.166919882148
 20
860.6924707089403
 30
0.0
 11
2059.166919882148
 21
860.6924707089403
 31
0.0
 12
2058.666919882148
 22
863.6924707089404
 32
0.0
 13
2058.666919882148
 23
863.6924707089404
 33
0.0
  0
SOLID
  5
6ED4
330
6A7D
100
AcDbEntity
  8
AM_5
100
AcDbTrace
 10
2058.166919882148
 20
842.8924707089404
 30
0.0
 11
2059.166919882148
 21
842.8924707089404
 31
0.0
 12
2058.666919882148
 22
839.8924707089404
 32
0.0
 13
2058.666919882148
 23
839.8924707089404
 33
0.0
  0
MTEXT
  5
6ED5
330
6A7D
100
AcDbEntity
  8
AM_5
100
AcDbMText
 10
2055.741919882148
 20
851.7924707089408
 30
0.0
 40
3.5
 41
0.0
 71
     5
 72
     1
  1
(22)
 11
0.0000000000000001
 21
1.0
 31
0.0
 73
     1
 44
1.0
1001
ACAD
1000
MTEXTBEGIN
1070
    73
1070
     1
1070
    44
1040
1.0
1070
    74
1070
     0
1000
MTEXTEND
  0
POINT
  5
6ED6
330
6A7D
100
AcDbEntity
  8
Defpoints
 62
     0
100
AcDbPoint
 10
2050.738246676576
 20
863.6924707089404
 30
0.0
  0
POINT
  5
6ED7
330
6A7D
100
AcDbEntity
  8
Defpoints
 62
     0
100
AcDbPoint
 10
2012.175868390422
 20
839.8924707089404
 30
0.0
  0
POINT
  5
6ED8
330
6A7D
100
AcDbEntity
  8
Defpoints
 62
     0
100
AcDbPoint
 10
2058.666919882148
 20
839.8924707089404
 30
0.0
  0
ENDBLK
  5
6A88
330
6A7D
100
AcDbEntity
  8
0
100
AcDbBlockEnd
  0
BLOCK
  5
6AD7
330
6ACD
100
AcDbEntity
  8
0
100
AcDbBlockBegin
  2
*D16
 70
     1
 10
0.0
 20
0.0
 30
0.0
  3
*D16
  1

  0
LINE
  5
6AE4
330
6ACD
100
AcDbEntity
  8
AM_5
100
AcDbLine
 10
2027.175868390422
 20
960.0424707089404
 30
0.0
 11
2061.738247676577
 21
960.0424707089404
 31
0.0
  0
LINE
  5
6AE5
330
6ACD
100
AcDbEntity
  8
AM_5
100
AcDbLine
 10
2027.175868390422
 20
940.0424707089404
 30
0.0
 11
2061.738247676577
 21
940.0424707089404
 31
0.0
  0
LINE
  5
6AE6
330
6ACD
100
AcDbEntity
  8
AM_5
100
AcDbLine
 10
2060.738247676576
 20
957.0424707089404
 30
0.0
 11
2060.738247676576
 21
943.0424707089404
 31
0.0
  0
SOLID
  5
6AE7
330
6ACD
100
AcDbEntity
  8
AM_5
100
AcDbTrace
 10
2060.238247676577
 20
957.0424707089404
 30
0.0
 11
2061.238247676577
 21
957.0424707089404
 31
0.0
 12
2060.738247676576
 22
960.0424707089404
 32
0.0
 13
2060.738247676576
 23
960.0424707089404
 33
0.0
  0
SOLID
  5
6AE8
330
6ACD
100
AcDbEntity
  8
AM_5
100
AcDbTrace
 10
2060.238247676577
 20
943.0424707089404
 30
0.0
 11
2061.238247676577
 21
943.0424707089404
 31
0.0
 12
2060.738247676576
 22
940.0424707089404
 32
0.0
 13
2060.738247676576
 23
940.0424707089404
 33
0.0
  0
MTEXT
  5
6AE9
330
6ACD
100
AcDbEntity
  8
AM_5
100
AcDbMText
 10
2057.987903188387
 20
950.0424707089408
 30
0.0
 40
3.5
 41
0.0
 71
     5
 72
     1
  1
%%c20
 11
0.0000000000000001
 21
1.0
 31
0.0
 73
     1
 44
1.0
1001
ACAD
1000
MTEXTBEGIN
1070
    73
1070
     1
1070
    44
1040
1.0
1070
    74
1070
     0
1000
MTEXTEND
  0
POINT
  5
6AEA
330
6ACD
100
AcDbEntity
  8
Defpoints
 62
     0
100
AcDbPoint
 10
2026.175868390422
 20
960.0424707089404
 30
0.0
  0
POINT
  5
6AEB
330
6ACD
100
AcDbEntity
  8
Defpoints
 62
     0
100
AcDbPoint
 10
2026.175868390422
 20
940.0424707089404
 30
0.0
  0
POINT
  5
6AEC
330
6ACD
100
AcDbEntity
  8
Defpoints
 62
     0
100
AcDbPoint
 10
2060.738247676576
 20
940.0424707089404
 30
0.0
  0
ENDBLK
  5
6AD8
330
6ACD
100
AcDbEntity
  8
0
100
AcDbBlockEnd
  0
BLOCK
  5
6B10
330
6B06
100
AcDbEntity
  8
0
100
AcDbBlockBegin
  2
*D17
 70
     1
 10
0.0
 20
0.0
 30
0.0
  3
*D17
  1

  0
LINE
  5
6B14
330
6B06
100
AcDbEntity
  8
AM_5
100
AcDbLine
 10
1898.675868390421
 20
966.0424707089404
 30
0.0
 11
1898.675868390421
 21
978.0424717089404
 31
0.0
  0
LINE
  5
6B15
330
6B06
100
AcDbEntity
  8
AM_5
100
AcDbLine
 10
1883.675868390422
 20
957.2424707089405
 30
0.0
 11
1883.675868390422
 21
978.0424717089404
 31
0.0
  0
LINE
  5
6B16
330
6B06
100
AcDbEntity
  8
AM_5
100
AcDbLine
 10
1895.675868390422
 20
977.0424717089404
 30
0.0
 11
1886.675868390422
 21
977.0424717089404
 31
0.0
  0
SOLID
  5
6B17
330
6B06
100
AcDbEntity
  8
AM_5
100
AcDbTrace
 10
1895.675868390422
 20
977.5424717089405
 30
0.0
 11
1895.675868390422
 21
976.5424717089405
 31
0.0
 12
1898.675868390421
 22
977.0424717089404
 32
0.0
 13
1898.675868390421
 23
977.0424717089404
 33
0.0
  0
SOLID
  5
6B18
330
6B06
100
AcDbEntity
  8
AM_5
100
AcDbTrace
 10
1886.675868390422
 20
977.5424717089405
 30
0.0
 11
1886.675868390422
 21
976.5424717089405
 31
0.0
 12
1883.675868390422
 22
977.0424717089404
 32
0.0
 13
1883.675868390422
 23
977.0424717089404
 33
0.0
  0
MTEXT
  5
6B19
330
6B06
100
AcDbEntity
  8
AM_5
100
AcDbMText
 10
1891.175868390422
 20
979.7924717089404
 30
0.0
 40
3.5
 41
0.0
 71
     5
 72
     1
  1
15
 73
     1
 44
1.0
1001
ACAD
1000
MTEXTBEGIN
1070
    73
1070
     1
1070
    44
1040
1.0
1070
    74
1070
     0
1000
MTEXTEND
  0
POINT
  5
6B1A
330
6B06
100
AcDbEntity
  8
Defpoints
 62
     0
100
AcDbPoint
 10
1898.675868390421
 20
965.0424707089404
 30
0.0
  0
POINT
  5
6B1B
330
6B06
100
AcDbEntity
  8
Defpoints
 62
     0
100
AcDbPoint
 10
1883.675868390422
 20
956.2424707089403
 30
0.0
  0
POINT
  5
6B1C
330
6B06
100
AcDbEntity
  8
Defpoints
 62
     0
100
AcDbPoint
 10
1883.675868390422
 20
977.0424717089404
 30
0.0
  0
ENDBLK
  5
6B11
330
6B06
100
AcDbEntity
  8
0
100
AcDbBlockEnd
  0
BLOCK
  5
6B3A
330
6B30
100
AcDbEntity
  8
0
100
AcDbBlockBegin
  2
*D18
 70
     1
 10
0.0
 20
0.0
 30
0.0
  3
*D18
  1

  0
LINE
  5
6B5A
330
6B30
100
AcDbEntity
  8
AM_5
100
AcDbLine
 10
1874.675868390422
 20
934.0424707089404
 30
0.0
 11
1874.675868390422
 21
922.0424697089404
 31
0.0
  0
LINE
  5
6B5B
330
6B30
100
AcDbEntity
  8
AM_5
100
AcDbLine
 10
1898.675868390421
 20
934.0424707089404
 30
0.0
 11
1898.675868390421
 21
922.0424697089404
 31
0.0
  0
LINE
  5
6B5C
330
6B30
100
AcDbEntity
  8
AM_5
100
AcDbLine
 10
1877.675868390422
 20
923.0424697089404
 30
0.0
 11
1895.675868390422
 21
923.0424697089404
 31
0.0
  0
SOLID
  5
6B5D
330
6B30
100
AcDbEntity
  8
AM_5
100
AcDbTrace
 10
1877.675868390422
 20
923.5424697089404
 30
0.0
 11
1877.675868390422
 21
922.5424697089405
 31
0.0
 12
1874.675868390422
 22
923.0424697089404
 32
0.0
 13
1874.675868390422
 23
923.0424697089404
 33
0.0
  0
SOLID
  5
6B5E
330
6B30
100
AcDbEntity
  8
AM_5
100
AcDbTrace
 10
1895.675868390422
 20
923.5424697089404
 30
0.0
 11
1895.675868390422
 21
922.5424697089405
 31
0.0
 12
1898.675868390421
 22
923.0424697089404
 32
0.0
 13
1898.675868390421
 23
923.0424697089404
 33
0.0
  0
MTEXT
  5
6B5F
330
6B30
100
AcDbEntity
  8
AM_5
100
AcDbMText
 10
1886.675868390422
 20
925.7928141971293
 30
0.0
 40
3.5
 41
0.0
 71
     5
 72
     1
  1
24
 73
     1
 44
1.0
1001
ACAD
1000
MTEXTBEGIN
1070
    73
1070
     1
1070
    44
1040
1.0
1070
    74
1070
     0
1000
MTEXTEND
  0
POINT
  5
6B60
330
6B30
100
AcDbEntity
  8
Defpoints
 62
     0
100
AcDbPoint
 10
1874.675868390422
 20
935.0424707089404
 30
0.0
  0
POINT
  5
6B61
330
6B30
100
AcDbEntity
  8
Defpoints
 62
     0
100
AcDbPoint
 10
1898.675868390421
 20
935.0424707089404
 30
0.0
  0
POINT
  5
6B62
330
6B30
100
AcDbEntity
  8
Defpoints
 62
     0
100
AcDbPoint
 10
1898.675868390421
 20
923.0424697089404
 30
0.0
  0
ENDBLK
  5
6B3B
330
6B30
100
AcDbEntity
  8
0
100
AcDbBlockEnd
  0
BLOCK
  5
6B6E
330
6B64
100
AcDbEntity
  8
0
100
AcDbBlockBegin
  2
*D19
 70
     1
 10
0.0
 20
0.0
 30
0.0
  3
*D19
  1

  0
LINE
  5
6BB7
330
6B64
100
AcDbEntity
  8
AM_5
100
AcDbLine
 10
1861.675868390422
 20
938.0424707089403
 30
0.0
 11
1861.675868390422
 21
922.0424707089403
 31
0.0
  0
LINE
  5
6BB8
330
6B64
100
AcDbEntity
  8
AM_5
100
AcDbLine
 10
1874.675868390422
 20
934.0424707089404
 30
0.0
 11
1874.675868390422
 21
922.0424707089403
 31
0.0
  0
LINE
  5
6BB9
330
6B64
100
AcDbEntity
  8
AM_5
100
AcDbLine
 10
1864.675868390422
 20
923.0424707089403
 30
0.0
 11
1871.675868390422
 21
923.0424707089403
 31
0.0
  0
SOLID
  5
6BBA
330
6B64
100
AcDbEntity
  8
AM_5
100
AcDbTrace
 10
1864.675868390422
 20
923.5424707089403
 30
0.0
 11
1864.675868390422
 21
922.5424707089402
 31
0.0
 12
1861.675868390422
 22
923.0424707089403
 32
0.0
 13
1861.675868390422
 23
923.0424707089403
 33
0.0
  0
SOLID
  5
6BBB
330
6B64
100
AcDbEntity
  8
AM_5
100
AcDbTrace
 10
1871.675868390422
 20
923.5424707089403
 30
0.0
 11
1871.675868390422
 21
922.5424707089402
 31
0.0
 12
1874.675868390422
 22
923.0424707089403
 32
0.0
 13
1874.675868390422
 23
923.0424707089403
 33
0.0
  0
MTEXT
  5
6BBC
330
6B64
100
AcDbEntity
  8
AM_5
100
AcDbMText
 10
1868.175868390421
 20
925.7924707089403
 30
0.0
 40
3.5
 41
0.0
 71
     5
 72
     1
  1
13
 73
     1
 44
1.0
1001
ACAD
1000
MTEXTBEGIN
1070
    73
1070
     1
1070
    44
1040
1.0
1070
    74
1070
     0
1000
MTEXTEND
  0
POINT
  5
6BBD
330
6B64
100
AcDbEntity
  8
Defpoints
 62
     0
100
AcDbPoint
 10
1861.675868390422
 20
939.0424707089405
 30
0.0
  0
POINT
  5
6BBE
330
6B64
100
AcDbEntity
  8
Defpoints
 62
     0
100
AcDbPoint
 10
1874.675868390422
 20
935.0424707089404
 30
0.0
  0
POINT
  5
6BBF
330
6B64
100
AcDbEntity
  8
Defpoints
 62
     0
100
AcDbPoint
 10
1874.675868390422
 20
923.0424707089403
 30
0.0
  0
ENDBLK
  5
6B6F
330
6B64
100
AcDbEntity
  8
0
100
AcDbBlockEnd
  0
BLOCK
  5
6B98
330
6B8E
100
AcDbEntity
  8
0
100
AcDbBlockBegin
  2
*D20
 70
     1
 10
0.0
 20
0.0
 30
0.0
  3
*D20
  1

  0
LINE
  5
6BCE
330
6B8E
100
AcDbEntity
  8
AM_5
100
AcDbLine
 10
1874.675868390421
 20
934.0424707089404
 30
0.0
 11
1874.675868390421
 21
914.0424707089403
 31
0.0
  0
LINE
  5
6BCF
330
6B8E
100
AcDbEntity
  8
AM_5
100
AcDbLine
 10
1853.675868390421
 20
940.0424707089404
 30
0.0
 11
1853.675868390421
 21
914.0424707089403
 31
0.0
  0
LINE
  5
6BD0
330
6B8E
100
AcDbEntity
  8
AM_5
100
AcDbLine
 10
1871.675868390422
 20
915.0424707089403
 30
0.0
 11
1856.675868390422
 21
915.0424707089403
 31
0.0
  0
SOLID
  5
6BD1
330
6B8E
100
AcDbEntity
  8
AM_5
100
AcDbTrace
 10
1871.675868390422
 20
915.5424707089403
 30
0.0
 11
1871.675868390422
 21
914.5424707089402
 31
0.0
 12
1874.675868390421
 22
915.0424707089403
 32
0.0
 13
1874.675868390421
 23
915.0424707089403
 33
0.0
  0
SOLID
  5
6BD2
330
6B8E
100
AcDbEntity
  8
AM_5
100
AcDbTrace
 10
1856.675868390422
 20
915.5424707089403
 30
0.0
 11
1856.675868390422
 21
914.5424707089402
 31
0.0
 12
1853.675868390421
 22
915.0424707089403
 32
0.0
 13
1853.675868390421
 23
915.0424707089403
 33
0.0
  0
MTEXT
  5
6BD3
330
6B8E
100
AcDbEntity
  8
AM_5
100
AcDbMText
 10
1864.175868390422
 20
917.7928151971292
 30
0.0
 40
3.5
 41
0.0
 71
     5
 72
     1
  1
21
 73
     1
 44
1.0
1001
ACAD
1000
MTEXTBEGIN
1070
    73
1070
     1
1070
    44
1040
1.0
1070
    74
1070
     0
1000
MTEXTEND
  0
POINT
  5
6BD4
330
6B8E
100
AcDbEntity
  8
Defpoints
 62
     0
100
AcDbPoint
 10
1874.675868390421
 20
935.0424707089404
 30
0.0
  0
POINT
  5
6BD5
330
6B8E
100
AcDbEntity
  8
Defpoints
 62
     0
100
AcDbPoint
 10
1853.675868390421
 20
941.0424707089404
 30
0.0
  0
POINT
  5
6BD6
330
6B8E
100
AcDbEntity
  8
Defpoints
 62
     0
100
AcDbPoint
 10
1853.675868390421
 20
915.0424707089403
 30
0.0
  0
ENDBLK
  5
6B99
330
6B8E
100
AcDbEntity
  8
0
100
AcDbBlockEnd
  0
BLOCK
  5
6BE2
330
6BD8
100
AcDbEntity
  8
0
100
AcDbBlockBegin
  2
*D21
 70
     1
 10
0.0
 20
0.0
 30
0.0
  3
*D21
  1

  0
LINE
  5
6EBC
330
6BD8
100
AcDbEntity
  8
AM_5
100
AcDbLine
 10
1874.675868390421
 20
934.0424707089404
 30
0.0
 11
1874.675868390421
 21
914.0424707089405
 31
0.0
  0
LINE
  5
6EBD
330
6BD8
100
AcDbEntity
  8
AM_5
100
AcDbLine
 10
2051.675868390422
 20
944.981921930308
 30
0.0
 11
2051.675868390422
 21
914.0424707089405
 31
0.0
  0
LINE
  5
6EBE
330
6BD8
100
AcDbEntity
  8
AM_5
100
AcDbLine
 10
1877.675868390421
 20
915.0424707089404
 30
0.0
 11
2048.675868390422
 21
915.0424707089404
 31
0.0
  0
SOLID
  5
6EBF
330
6BD8
100
AcDbEntity
  8
AM_5
100
AcDbTrace
 10
1877.675868390421
 20
915.5424707089405
 30
0.0
 11
1877.675868390421
 21
914.5424707089405
 31
0.0
 12
1874.675868390421
 22
915.0424707089404
 32
0.0
 13
1874.675868390421
 23
915.0424707089404
 33
0.0
  0
SOLID
  5
6EC0
330
6BD8
100
AcDbEntity
  8
AM_5
100
AcDbTrace
 10
2048.675868390422
 20
915.5424707089405
 30
0.0
 11
2048.675868390422
 21
914.5424707089405
 31
0.0
 12
2051.675868390422
 22
915.0424707089404
 32
0.0
 13
2051.675868390422
 23
915.0424707089404
 33
0.0
  0
MTEXT
  5
6EC1
330
6BD8
100
AcDbEntity
  8
AM_5
100
AcDbMText
 10
1963.175868390422
 20
917.9674707089404
 30
0.0
 40
3.5
 41
0.0
 71
     5
 72
     1
  1
(177)
 73
     1
 44
1.0
1001
ACAD
1000
MTEXTBEGIN
1070
    73
1070
     1
1070
    44
1040
1.0
1070
    74
1070
     0
1000
MTEXTEND
  0
POINT
  5
6EC2
330
6BD8
100
AcDbEntity
  8
Defpoints
 62
     0
100
AcDbPoint
 10
1874.675868390421
 20
935.0424707089404
 30
0.0
  0
POINT
  5
6EC3
330
6BD8
100
AcDbEntity
  8
Defpoints
 62
     0
100
AcDbPoint
 10
2051.675868390422
 20
945.9819219303081
 30
0.0
  0
POINT
  5
6EC4
330
6BD8
100
AcDbEntity
  8
Defpoints
 62
     0
100
AcDbPoint
 10
2051.675868390422
 20
915.0424707089404
 30
0.0
  0
ENDBLK
  5
6BE3
330
6BD8
100
AcDbEntity
  8
0
100
AcDbBlockEnd
  0
BLOCK
  5
6C0C
330
6C02
100
AcDbEntity
  8
0
100
AcDbBlockBegin
  2
*D22
 70
     1
 10
0.0
 20
0.0
 30
0.0
  3
*D22
  1

  0
LINE
  5
6EC5
330
6C02
100
AcDbEntity
  8
AM_5
100
AcDbLine
 10
1853.675868390421
 20
940.0424707089404
 30
0.0
 11
1853.675868390421
 21
906.0424707089406
 31
0.0
  0
LINE
  5
6EC6
330
6C02
100
AcDbEntity
  8
AM_5
100
AcDbLine
 10
2051.675868390422
 20
944.981921930308
 30
0.0
 11
2051.675868390422
 21
906.0424707089406
 31
0.0
  0
LINE
  5
6EC7
330
6C02
100
AcDbEntity
  8
AM_5
100
AcDbLine
 10
1856.675868390422
 20
907.0424707089406
 30
0.0
 11
2048.675868390422
 21
907.0424707089406
 31
0.0
  0
SOLID
  5
6EC8
330
6C02
100
AcDbEntity
  8
AM_5
100
AcDbTrace
 10
1856.675868390422
 20
907.5424707089407
 30
0.0
 11
1856.675868390422
 21
906.5424707089405
 31
0.0
 12
1853.675868390421
 22
907.0424707089406
 32
0.0
 13
1853.675868390421
 23
907.0424707089406
 33
0.0
  0
SOLID
  5
6EC9
330
6C02
100
AcDbEntity
  8
AM_5
100
AcDbTrace
 10
2048.675868390422
 20
907.5424707089407
 30
0.0
 11
2048.675868390422
 21
906.5424707089405
 31
0.0
 12
2051.675868390422
 22
907.0424707089406
 32
0.0
 13
2051.675868390422
 23
907.0424707089406
 33
0.0
  0
MTEXT
  5
6ECA
330
6C02
100
AcDbEntity
  8
AM_5
100
AcDbMText
 10
1952.675868390422
 20
909.9683165872251
 30
0.0
 40
3.5
 41
0.0
 71
     5
 72
     1
  1
(198)
 73
     1
 44
1.0
1001
ACAD
1000
MTEXTBEGIN
1070
    73
1070
     1
1070
    44
1040
1.0
1070
    74
1070
     0
1000
MTEXTEND
  0
POINT
  5
6ECB
330
6C02
100
AcDbEntity
  8
Defpoints
 62
     0
100
AcDbPoint
 10
1853.675868390421
 20
941.0424707089404
 30
0.0
  0
POINT
  5
6ECC
330
6C02
100
AcDbEntity
  8
Defpoints
 62
     0
100
AcDbPoint
 10
2051.675868390422
 20
945.9819219303081
 30
0.0
  0
POINT
  5
6ECD
330
6C02
100
AcDbEntity
  8
Defpoints
 62
     0
100
AcDbPoint
 10
2051.675868390422
 20
907.0424707089406
 30
0.0
  0
ENDBLK
  5
6C0D
330
6C02
100
AcDbEntity
  8
0
100
AcDbBlockEnd
  0
BLOCK
  5
6C55
330
6C4B
100
AcDbEntity
  8
0
100
AcDbBlockBegin
  2
*D23
 70
     1
 10
0.0
 20
0.0
 30
0.0
  3
*D23
  1

  0
LINE
  5
6C74
330
6C4B
100
AcDbEntity
  8
AM_5
100
AcDbLine
 10
1853.675868390421
 20
940.0424707089404
 30
0.0
 11
1841.675868390422
 21
940.0424707089404
 31
0.0
  0
LINE
  5
6C75
330
6C4B
100
AcDbEntity
  8
AM_5
100
AcDbLine
 10
1853.675868390421
 20
960.0424707089404
 30
0.0
 11
1841.675868390422
 21
960.0424707089404
 31
0.0
  0
LINE
  5
6C76
330
6C4B
100
AcDbEntity
  8
AM_5
100
AcDbLine
 10
1842.675868390422
 20
943.0424707089404
 30
0.0
 11
1842.675868390422
 21
957.0424707089404
 31
0.0
  0
SOLID
  5
6C77
330
6C4B
100
AcDbEntity
  8
AM_5
100
AcDbTrace
 10
1842.175868390422
 20
943.0424707089404
 30
0.0
 11
1843.175868390422
 21
943.0424707089404
 31
0.0
 12
1842.675868390422
 22
940.0424707089404
 32
0.0
 13
1842.675868390422
 23
940.0424707089404
 33
0.0
  0
SOLID
  5
6C78
330
6C4B
100
AcDbEntity
  8
AM_5
100
AcDbTrace
 10
1842.175868390422
 20
957.0424707089404
 30
0.0
 11
1843.175868390422
 21
957.0424707089404
 31
0.0
 12
1842.675868390422
 22
960.0424707089404
 32
0.0
 13
1842.675868390422
 23
960.0424707089404
 33
0.0
  0
MTEXT
  5
6C79
330
6C4B
100
AcDbEntity
  8
AM_5
100
AcDbMText
 10
1839.925523902232
 20
950.0424707089408
 30
0.0
 40
3.5
 41
0.0
 71
     5
 72
     1
  1
%%c20
 11
0.0000000000000001
 21
1.0
 31
0.0
 73
     1
 44
1.0
1001
ACAD
1000
MTEXTBEGIN
1070
    73
1070
     1
1070
    44
1040
1.0
1070
    74
1070
     0
1000
MTEXTEND
  0
POINT
  5
6C7A
330
6C4B
100
AcDbEntity
  8
Defpoints
 62
     0
100
AcDbPoint
 10
1854.675868390422
 20
940.0424707089404
 30
0.0
  0
POINT
  5
6C7B
330
6C4B
100
AcDbEntity
  8
Defpoints
 62
     0
100
AcDbPoint
 10
1854.675868390422
 20
960.0424707089404
 30
0.0
  0
POINT
  5
6C7C
330
6C4B
100
AcDbEntity
  8
Defpoints
 62
     0
100
AcDbPoint
 10
1842.675868390422
 20
960.0424707089404
 30
0.0
  0
ENDBLK
  5
6C56
330
6C4B
100
AcDbEntity
  8
0
100
AcDbBlockEnd
  0
BLOCK
  5
6C89
330
6C82
100
AcDbEntity
  8
0
100
AcDbBlockBegin
  2
*D24
 70
     1
 10
0.0
 20
0.0
 30
0.0
  3
*D24
  1

  0
LINE
  5
6FA2
330
6C82
100
AcDbEntity
  8
AM_5
100
AcDbLine
 10
1889.472632936556
 20
956.0524641196433
 30
0.0
 11
1907.610470404292
 21
974.8574859206717
 31
0.0
  0
LINE
  5
6FA3
330
6C82
100
AcDbEntity
  8
AM_5
100
AcDbLine
 10
1907.610470404292
 20
974.8574859206717
 30
0.0
 11
1933.109092451536
 21
974.8574859206719
 31
0.0
  0
SOLID
  5
6FA4
330
6C82
100
AcDbEntity
  8
AM_5
100
AcDbTrace
 10
1889.052773117444
 20
956.4574277106908
 30
0.0
 11
1889.892492755666
 21
955.647500528596
 31
0.0
 12
1887.042851390271
 22
953.5333052049779
 32
0.0
 13
1887.042851390271
 23
953.5333052049779
 33
0.0
  0
MTEXT
  5
6FA5
330
6C82
100
AcDbEntity
  8
AM_5
100
AcDbMText
 10
1920.859781427914
 20
977.7824859206722
 30
0.0
 40
3.5
 41
0.0
 71
     5
 72
     1
  1
Rc1/8(PORT)
 73
     1
 44
1.0
1001
ACAD
1000
MTEXTBEGIN
1070
    73
1070
     1
1070
    44
1040
1.0
1070
    74
1070
     0
1000
MTEXTEND
  0
POINT
  5
6FA6
330
6C82
100
AcDbEntity
  8
Defpoints
 62
     0
100
AcDbPoint
 10
1887.042851390271
 20
953.5333052049779
 30
0.0
  0
POINT
  5
6FA7
330
6C82
100
AcDbEntity
  8
Defpoints
 62
     0
100
AcDbPoint
 10
1883.675868390421
 20
950.0424707089406
 30
0.0
  0
ENDBLK
  5
6C8A
330
6C82
100
AcDbEntity
  8
0
100
AcDbBlockEnd
  0
BLOCK
  5
6F2C
330
6F26
100
AcDbEntity
  8
0
100
AcDbBlockBegin
  2
*D25
 70
     1
 10
0.0
 20
0.0
 30
0.0
  3
*D25
  1

  0
LINE
  5
6F5A
330
6F26
100
AcDbEntity
  8
AM_5
100
AcDbLine
 10
1896.402665227857
 20
880.7547902373126
 30
0.0
 11
1899.778548335085
 21
887.0221434719189
 31
0.0
  0
LINE
  5
6F5B
330
6F26
100
AcDbEntity
  8
AM_5
100
AcDbLine
 10
1899.778548335085
 20
887.0221434719189
 30
0.0
 11
1926.767426287841
 21
887.0221434719189
 31
0.0
  0
SOLID
  5
6F5C
330
6F26
100
AcDbEntity
  8
AM_5
100
AcDbTrace
 10
1895.889096580051
 20
881.0314218005309
 30
0.0
 11
1896.916233875663
 21
880.4781586740945
 31
0.0
 12
1894.742875848548
 22
877.673378350477
 32
0.0
 13
1894.742875848548
 23
877.673378350477
 33
0.0
  0
MTEXT
  5
6F5D
330
6F26
100
AcDbEntity
  8
AM_5
100
AcDbMText
 10
1913.772987311464
 20
889.7724879601074
 30
0.0
 40
3.5
 41
0.0
 71
     5
 72
     1
  1
2-\U+22054.5 THRU
 73
     1
 44
1.0
1001
ACAD
1000
MTEXTBEGIN
1070
    73
1070
     1
1070
    44
1040
1.0
1070
    74
1070
     0
1000
MTEXTEND
  0
POINT
  5
6F5E
330
6F26
100
AcDbEntity
  8
Defpoints
 62
     0
100
AcDbPoint
 10
1894.742875848548
 20
877.673378350477
 30
0.0
  0
POINT
  5
6F5F
330
6F26
100
AcDbEntity
  8
Defpoints
 62
     0
100
AcDbPoint
 10
1892.608860932293
 20
873.7115630674024
 30
0.0
  0
ENDBLK
  5
6F2D
330
6F26
100
AcDbEntity
  8
0
100
AcDbBlockEnd
  0
ENDSEC
  0
SECTION
  2
ENTITIES
  0
TEXT
  5
18EC
330
1F
100
AcDbEntity
  8
LOGO
  6
Continuous
 62
     7
100
AcDbText
 10
466.8848434021445
 20
-19.43800514375071
 30
0.0
 40
13.27245374673802
  1

  7
CHINESET
 72
     1
 11
466.8848434021445
 21
-12.8017782703817
 31
0.0
100
AcDbText
 73
     2
  0
TEXT
  5
57D0
330
1F
100
AcDbEntity
  8
LOGO
 62
     7
100
AcDbText
 10
1748.327149042111
 20
776.8711807745565
 30
0.0
 40
3.930630776470588
  1
Order example:
 41
0.8
  7
CHINESET
100
AcDbText
  0
TEXT
  5
57D1
330
1F
100
AcDbEntity
  8
LOGO
 62
     7
100
AcDbText
 10
1749.032336708405
 20
782.4046950603403
 30
0.0
 40
5.895946164705882
  1
訂購代號：
  7
CHINESET
100
AcDbText
  0
LINE
  5
57D2
330
1F
100
AcDbEntity
  8
LOGO
 62
     4
100
AcDbLine
 10
1746.619276637802
 20
760.3060183843301
 30
0.0
 11
1746.619276637802
 21
789.7857492078596
 31
0.0
  0
TEXT
  5
57D3
330
1F
100
AcDbEntity
  8
LOGO
  6
Continuous
100
AcDbText
 10
1692.353120651803
 20
766.0972670158196
 30
0.0
 40
4.421959623529412
  1
金器工業股份有限公司
  7
CHINESET
100
AcDbText
  0
TEXT
  5
57D4
330
1F
100
AcDbEntity
  8
LOGO
  6
Continuous
100
AcDbText
 10
1684.230855664948
 20
761.6744410348991
 30
0.0
 40
2.947973082352941
  1
MINDMAN INDUSTRIAL CO., LTD.
 41
0.85
  7
CHINESET
100
AcDbText
  0
LINE
  5
57D5
330
1F
100
AcDbEntity
  8
LOGO
 62
     4
100
AcDbLine
 10
1746.619276637802
 20
783.8898030431538
 30
0.0
 11
1703.382338096625
 21
783.8898030431538
 31
0.0
  0
LINE
  5
57D6
330
1F
100
AcDbEntity
  8
LOGO
 62
     4
100
AcDbLine
 10
1746.619276637802
 20
777.9938568784479
 30
0.0
 11
1703.382338096625
 21
777.9938568784479
 31
0.0
  0
LINE
  5
57D7
330
1F
100
AcDbEntity
  8
LOGO
 62
     4
100
AcDbLine
 10
1746.619276637802
 20
772.0979107137423
 30
0.0
 11
1681.763868826037
 21
772.0979107137423
 31
0.0
  0
LINE
  5
57D8
330
1F
100
AcDbEntity
  8
LOGO
 62
     4
100
AcDbLine
 10
1703.382338096625
 20
772.0979107137423
 30
0.0
 11
1703.382338096625
 21
789.7857492078596
 31
0.0
  0
TEXT
  5
57D9
330
1F
100
AcDbEntity
  8
LOGO
100
AcDbText
 10
1732.932744837105
 20
773.5718972549183
 30
0.0
 40
2.947973082352941
  1
mm
  7
CHINESET
 72
     1
 11
1736.582616272399
 21
775.0458837960948
 31
0.0
100
AcDbText
 73
     2
  0
TEXT
  5
57DA
330
1F
100
AcDbEntity
  8
LOGO
100
AcDbText
 10
1731.388568460634
 20
785.36378958433
 30
0.0
 40
2.947973082352941
  1
1 : 1
  7
CHINESET
 72
     1
 11
1736.582616272399
 21
786.8377761255065
 31
0.0
100
AcDbText
 73
     2
  0
LINE
  5
57DB
330
1F
100
AcDbEntity
  8
LOGO
 62
     4
100
AcDbLine
 10
1726.966122755449
 20
772.0979107137423
 30
0.0
 11
1726.966122755449
 21
789.7857492078596
 31
0.0
  0
TEXT
  5
57DC
330
1F
100
AcDbEntity
  8
LOGO
100
AcDbText
 10
1705.813099830155
 20
785.3652403584848
 30
193.2052993154654
 40
2.947973082352941
  1
比例 Scale:
 41
0.9
  7
CHINESET
 72
     4
 11
1715.174230426037
 21
786.8377761255065
 31
193.2052993154654
100
AcDbText
  0
TEXT
  5
57DD
330
1F
100
AcDbEntity
  8
LOGO
100
AcDbText
 10
1705.643328166037
 20
779.5093113808793
 30
193.2052993154654
 40
2.947973082352941
  1
投影  View:
 41
0.9
  7
CHINESET
 72
     4
 11
1715.174230426037
 21
780.9418299608006
 31
193.2052993154654
100
AcDbText
  0
TEXT
  5
57DE
330
1F
100
AcDbEntity
  8
LOGO
100
AcDbText
 10
1705.931545177213
 20
773.5718972549183
 30
193.2052993154654
 40
2.947973082352941
  1
單位  Unit:
 41
0.9
  7
CHINESET
 72
     4
 11
1715.174230426037
 21
775.0458837960948
 31
193.2052993154654
100
AcDbText
  0
LWPOLYLINE
  5
57DF
330
1F
100
AcDbEntity
  8
LOGO
 62
     4
100
AcDbPolyline
 90
        4
 70
     1
 43
0.0
 10
1681.763868826037
 20
789.7857492078596
 10
2071.509122562755
 20
789.7857492078596
 10
2071.509122562755
 20
1055.146018384329
 10
1681.763868826037
 20
1055.146018384329
1001
GENIUS_GENREC_14
1002
{
1000
PYDIR
1011
1681.763868826037
1021
1055.146018384329
1031
0.0
1002
}
1002
{
1000
PXDIR
1011
2071.509122562755
1021
789.7857492078596
1031
0.0
1002
}
1002
{
1000
PORI
1011
1681.763868826037
1021
789.7857492078596
1031
0.0
1002
}
1002
{
1000
PINS
1011
1681.763868826037
1021
789.7857492078596
1031
0.0
1002
}
1002
{
1000
PINS2
1011
2071.509122562755
1021
1055.146018384329
1031
0.0
1002
}
1002
{
1000
C
1070
     1
1002
}
1001
GENIUS_GENODEF_13
1002
{
1000
HIER
1070
     0
1002
}
1002
{
1000
MANEDIT
1070
     0
1002
}
1002
{
1000
NOSEL
1070
     0
1002
}
1002
{
1000
BEHIND
1070
     0
1002
}
1002
{
1000
OTHER
1070
     0
1002
}
1002
{
1000
REACTOR
1002
}
1001
GENIUS_GENOBJ-N-REC_13
1002
{
1000
OWNER
1000
GEN
1002
}
  0
SOLID
  5
57E0
330
1F
100
AcDbEntity
  8
LOGO
 62
     5
100
AcDbTrace
 10
1684.822438210348
 20
776.998496352228
 30
0.0
 11
1686.097064416343
 21
776.9984963522277
 31
0.0
 12
1691.41533237929
 22
789.0854689952911
 32
0.0
 13
1692.689958585287
 23
789.0854689952905
 33
0.0
  0
SOLID
  5
57E1
330
1F
100
AcDbEntity
  8
LOGO
 62
     5
100
AcDbTrace
 10
1686.62449594986
 20
776.998496352228
 30
0.0
 11
1687.899122155856
 21
776.998496352228
 31
0.0
 12
1692.689958585287
 22
788.1185111838457
 32
0.0
 13
1691.41533237929
 23
783.4448817618612
 33
0.0
  0
SOLID
  5
57E2
330
1F
100
AcDbEntity
  8
LOGO
 62
     2
100
AcDbTrace
 10
1686.097064416343
 20
776.9984963522277
 30
0.0
 11
1686.62449594986
 21
776.998496352228
 31
0.0
 12
1692.689958585287
 22
789.0854689952905
 32
0.0
 13
1693.217390118803
 23
789.0854689952905
 33
0.0
  0
SOLID
  5
57E3
330
1F
100
AcDbEntity
  8
LOGO
 62
     5
100
AcDbTrace
 10
1682.778899825502
 20
772.6032335729327
 30
0.0
 11
1683.218426103432
 21
772.6032335729327
 31
0.0
 12
1684.456166312073
 22
774.8008649625801
 32
0.0
 13
1684.895692590002
 23
774.8008649625801
 33
0.0
  0
SOLID
  5
57E4
330
1F
100
AcDbEntity
  8
LOGO
 62
     5
100
AcDbTrace
 10
1684.456166312073
 20
774.8008649625801
 30
0.0
 11
1684.895692590002
 21
774.8008649625801
 31
0.0
 12
1684.456166312073
 22
772.6032335729327
 32
0.0
 13
1684.895692590002
 23
772.6032335729327
 33
0.0
  0
SOLID
  5
57E5
330
1F
100
AcDbEntity
  8
LOGO
 62
     5
100
AcDbTrace
 10
1684.456166312073
 20
772.6032335729327
 30
0.0
 11
1684.895692590002
 21
772.6032335729327
 31
0.0
 12
1686.133432798645
 22
774.8008649625801
 32
0.0
 13
1686.572959076574
 23
774.8008649625801
 33
0.0
  0
SOLID
  5
57E6
330
1F
100
AcDbEntity
  8
LOGO
 62
     5
100
AcDbTrace
 10
1686.133432798645
 20
774.8008649625801
 30
0.0
 11
1686.572959076574
 21
774.8008649625801
 31
0.0
 12
1686.133432798645
 22
772.6032335729327
 32
0.0
 13
1686.572959076574
 23
772.6032335729327
 33
0.0
  0
POLYLINE
  5
57E7
330
1F
100
AcDbEntity
  8
LOGO
 62
     5
100
AcDb2dPolyline
 66
     1
 10
0.0
 20
0.0
 30
0.0
 40
0.4402306469647058
 41
0.4402306469647058
  0
VERTEX
  5
57E8
330
57E7
100
AcDbEntity
  8
LOGO
 62
     5
100
AcDbVertex
100
AcDb2dVertex
 10
1700.86620390833
 20
773.921812406721
 30
0.0
 42
1.0
  0
VERTEX
  5
57E9
330
57E7
100
AcDbEntity
  8
LOGO
 62
     5
100
AcDbVertex
100
AcDb2dVertex
 10
1699.545511967436
 20
773.921812406721
 30
0.0
 42
1.0
  0
SEQEND
  5
57EA
330
57E7
100
AcDbEntity
  8
LOGO
 62
     5
  0
POLYLINE
  5
57EB
330
1F
100
AcDbEntity
  8
LOGO
 62
     5
100
AcDb2dPolyline
 66
     1
 10
0.0
 20
0.0
 30
0.0
 70
     1
  0
VERTEX
  5
57EC
330
57EB
100
AcDbEntity
  8
LOGO
 62
     5
100
AcDbVertex
100
AcDb2dVertex
 10
1697.055948914472
 20
773.7020492677561
 30
0.0
 42
1.000000057330635
  0
VERTEX
  5
57ED
330
57EB
100
AcDbEntity
  8
LOGO
 62
     5
100
AcDbVertex
100
AcDb2dVertex
 10
1698.374527748261
 20
773.7020492677561
 30
0.0
 42
1.000000057330635
  0
SEQEND
  5
57EE
330
57EB
100
AcDbEntity
  8
LOGO
 62
     5
  0
CIRCLE
  5
57EF
330
1F
100
AcDbEntity
  8
LOGO
 62
     5
100
AcDbCircle
 10
1697.715238331367
 20
773.7020492677561
 30
0.0
 40
0.6592894168943437
  0
POLYLINE
  5
57F0
330
1F
100
AcDbEntity
  8
LOGO
 62
     5
100
AcDb2dPolyline
 66
     1
 10
0.0
 20
0.0
 30
0.0
 70
     1
 40
0.4402306469647058
 41
0.4402306469647058
  0
VERTEX
  5
57F1
330
57F0
100
AcDbEntity
  8
LOGO
 62
     5
100
AcDbVertex
100
AcDb2dVertex
 10
1696.834777037437
 20
773.7020492677561
 30
0.0
 42
1.0
  0
VERTEX
  5
57F2
330
57F0
100
AcDbEntity
  8
LOGO
 62
     5
100
AcDbVertex
100
AcDb2dVertex
 10
1698.595699625296
 20
773.7020492677561
 30
0.0
 42
1.0
  0
SEQEND
  5
57F3
330
57F0
100
AcDbEntity
  8
LOGO
 62
     5
  0
LINE
  5
57F4
330
1F
100
AcDbEntity
  8
LOGO
100
AcDbLine
 10
1701.084910493741
 20
772.6032335729327
 30
0.0
 11
1701.084910493741
 21
773.921812406721
 31
0.0
  0
SOLID
  5
57F5
330
1F
100
AcDbEntity
  8
LOGO
 62
     5
100
AcDbTrace
 10
1698.374483795635
 20
774.8008649625801
 30
0.0
 11
1698.814010073563
 21
774.8008649625801
 31
0.0
 12
1698.374483795635
 22
772.6032335729327
 32
0.0
 13
1698.814010073563
 23
772.6032335729327
 33
0.0
  0
SOLID
  5
57F6
330
1F
100
AcDbEntity
  8
LOGO
 62
     5
100
AcDbTrace
 10
1699.326805382023
 20
772.6032335729327
 30
0.0
 11
1699.766331659953
 21
772.6032335729327
 31
0.0
 12
1699.326805382023
 22
774.8008649625801
 32
0.0
 13
1699.766331659953
 23
774.8008649625801
 33
0.0
  0
SOLID
  5
57F7
330
1F
100
AcDbEntity
  8
LOGO
 62
     5
100
AcDbTrace
 10
1700.645384215813
 20
773.921812406721
 30
0.0
 11
1701.084910493741
 21
773.921812406721
 31
0.0
 12
1700.645384215813
 22
772.6032335729327
 32
0.0
 13
1701.084910493741
 23
772.6032335729327
 33
0.0
  0
SOLID
  5
57F8
330
1F
100
AcDbEntity
  8
LOGO
 62
     5
100
AcDbTrace
 10
1699.28285275423
 20
788.1185111838457
 30
0.0
 11
1698.008226548235
 21
783.4448817618612
 31
0.0
 12
1699.28285275423
 22
776.9984963522277
 32
0.0
 13
1698.008226548235
 23
776.9984963522277
 33
0.0
  0
SOLID
  5
57F9
330
1F
100
AcDbEntity
  8
LOGO
 62
     5
100
AcDbTrace
 10
1699.810284287746
 20
776.9984963522277
 30
0.0
 11
1701.084910493741
 21
776.9984963522277
 31
0.0
 12
1699.810284287746
 22
789.0854689952905
 32
0.0
 13
1701.084910493741
 23
789.0854689952911
 33
0.0
  0
SOLID
  5
57FA
330
1F
100
AcDbEntity
  8
LOGO
 62
     2
100
AcDbTrace
 10
1699.28285275423
 20
789.0854689952911
 30
0.0
 11
1699.810284287746
 21
789.0854689952905
 31
0.0
 12
1699.28285275423
 22
776.9984963522277
 32
0.0
 13
1699.810284287746
 23
776.9984963522277
 33
0.0
  0
POLYLINE
  5
57FB
330
1F
100
AcDbEntity
  8
LOGO
 62
     5
100
AcDb2dPolyline
 66
     1
 10
0.0
 20
0.0
 30
0.0
 40
0.4402306469647058
 41
0.4402306469647058
  0
VERTEX
  5
57FC
330
57FB
100
AcDbEntity
  8
LOGO
 62
     5
100
AcDbVertex
100
AcDb2dVertex
 10
1694.566297956255
 20
773.921812406721
 30
0.0
 42
1.0
  0
VERTEX
  5
57FD
330
57FB
100
AcDbEntity
  8
LOGO
 62
     5
100
AcDbVertex
100
AcDb2dVertex
 10
1693.24560601536
 20
773.921812406721
 30
0.0
 42
1.0
  0
SEQEND
  5
57FE
330
57FB
100
AcDbEntity
  8
LOGO
 62
     5
  0
POLYLINE
  5
57FF
330
1F
100
AcDbEntity
  8
LOGO
 62
     5
100
AcDb2dPolyline
 66
     1
 10
0.0
 20
0.0
 30
0.0
 40
0.4402306469647058
 41
0.4402306469647058
  0
VERTEX
  5
5800
330
57FF
100
AcDbEntity
  8
LOGO
 62
     5
100
AcDbVertex
100
AcDb2dVertex
 10
1695.884876790042
 20
773.921812406721
 30
0.0
 42
1.0
  0
VERTEX
  5
5801
330
57FF
100
AcDbEntity
  8
LOGO
 62
     5
100
AcDbVertex
100
AcDb2dVertex
 10
1694.564184849148
 20
773.921812406721
 30
0.0
 42
1.0
  0
SEQEND
  5
5802
330
57FF
100
AcDbEntity
  8
LOGO
 62
     5
  0
POLYLINE
  5
5803
330
1F
100
AcDbEntity
  8
LOGO
 62
     5
100
AcDb2dPolyline
 66
     1
 10
0.0
 20
0.0
 30
0.0
 40
0.4402306469647058
 41
0.4402306469647058
  0
VERTEX
  5
5804
330
5803
100
AcDbEntity
  8
LOGO
 62
     5
100
AcDbVertex
100
AcDb2dVertex
 10
1689.584970837967
 20
773.921812406721
 30
0.0
 42
1.0
  0
VERTEX
  5
5805
330
5803
100
AcDbEntity
  8
LOGO
 62
     5
100
AcDbVertex
100
AcDb2dVertex
 10
1688.264278897073
 20
773.921812406721
 30
0.0
 42
1.0
  0
SEQEND
  5
5806
330
5803
100
AcDbEntity
  8
LOGO
 62
     5
  0
SOLID
  5
5807
330
1F
100
AcDbEntity
  8
LOGO
 62
     5
100
AcDbTrace
 10
1688.045572311661
 20
774.8008649625801
 30
0.0
 11
1688.48509858959
 21
774.8008649625801
 31
0.0
 12
1688.045572311661
 22
772.6032335729327
 32
0.0
 13
1688.48509858959
 23
772.6032335729327
 33
0.0
  0
SOLID
  5
5808
330
1F
100
AcDbEntity
  8
LOGO
 62
     5
100
AcDbTrace
 10
1689.36415114545
 20
773.921812406721
 30
0.0
 11
1689.80367742338
 21
773.921812406721
 31
0.0
 12
1689.36415114545
 22
772.6032335729327
 32
0.0
 13
1689.80367742338
 23
772.6032335729327
 33
0.0
  0
POLYLINE
  5
5809
330
1F
100
AcDbEntity
  8
LOGO
 62
     5
100
AcDb2dPolyline
 66
     1
 10
0.0
 20
0.0
 30
0.0
 70
     1
 40
0.4402306469647058
 41
0.4402306469647058
  0
VERTEX
  5
580A
330
5809
100
AcDbEntity
  8
LOGO
 62
     5
100
AcDbVertex
100
AcDb2dVertex
 10
1690.534871085361
 20
773.7020492677561
 30
0.0
 42
1.0
  0
VERTEX
  5
580B
330
5809
100
AcDbEntity
  8
LOGO
 62
     5
100
AcDbVertex
100
AcDb2dVertex
 10
1692.295793673221
 20
773.7020492677561
 30
0.0
 42
1.0
  0
SEQEND
  5
580C
330
5809
100
AcDbEntity
  8
LOGO
 62
     5
  0
SOLID
  5
580D
330
1F
100
AcDbEntity
  8
LOGO
 62
     5
100
AcDbTrace
 10
1692.074577843558
 20
775.4601543794748
 30
0.0
 11
1692.514104121488
 21
775.4601543794748
 31
0.0
 12
1692.074577843558
 22
772.6032335729327
 32
0.0
 13
1692.514104121488
 23
772.6032335729327
 33
0.0
  0
SOLID
  5
580E
330
1F
100
AcDbEntity
  8
LOGO
 62
     5
100
AcDbTrace
 10
1693.026899429949
 20
774.8008649625801
 30
0.0
 11
1693.466425707878
 21
774.8008649625801
 31
0.0
 12
1693.026899429949
 22
772.6032335729327
 32
0.0
 13
1693.466425707878
 23
772.6032335729327
 33
0.0
  0
SOLID
  5
580F
330
1F
100
AcDbEntity
  8
LOGO
 62
     5
100
AcDbTrace
 10
1694.345478263737
 20
773.921812406721
 30
0.0
 11
1694.785004541667
 21
773.921812406721
 31
0.0
 12
1694.345478263737
 22
772.6032335729327
 32
0.0
 13
1694.785004541667
 23
772.6032335729327
 33
0.0
  0
SOLID
  5
5810
330
1F
100
AcDbEntity
  8
LOGO
 62
     5
100
AcDbTrace
 10
1695.664057097525
 20
773.921812406721
 30
0.0
 11
1696.103583375455
 21
773.921812406721
 31
0.0
 12
1695.664057097525
 22
772.603233572932
 32
0.0
 13
1696.103583375455
 23
772.603233572932
 33
0.0
  0
SOLID
  5
5811
330
1F
100
AcDbEntity
  8
LOGO
 62
     5
100
AcDbTrace
 10
1687.093250725271
 20
775.1085333571309
 30
0.0
 11
1687.532777003202
 21
775.1085333571309
 31
0.0
 12
1687.093250725271
 22
775.4601543794748
 32
0.0
 13
1687.532777003202
 23
775.4601543794748
 33
0.0
  0
SOLID
  5
5812
330
1F
100
AcDbEntity
  8
LOGO
 62
     5
100
AcDbTrace
 10
1687.093250725271
 20
774.8008649625801
 30
0.0
 11
1687.532777003202
 21
774.8008649625801
 31
0.0
 12
1687.093250725271
 22
772.603233572932
 32
0.0
 13
1687.532777003202
 23
772.6032335729327
 33
0.0
  0
SOLID
  5
5813
330
1F
100
AcDbEntity
  8
LOGO
 62
     5
100
AcDbTrace
 10
1691.41533237929
 20
776.998496352228
 30
0.0
 11
1692.689958585287
 21
776.998496352228
 31
0.0
 12
1691.41533237929
 22
783.4448817618612
 32
0.0
 13
1692.689958585287
 23
788.1185111838457
 33
0.0
  0
SOLID
  5
5814
330
1F
100
AcDbEntity
  8
LOGO
 62
     5
100
AcDbTrace
 10
1693.217390118803
 20
789.0854689952905
 30
0.0
 11
1694.492016324798
 21
789.0854689952911
 31
0.0
 12
1693.217390118803
 22
777.9654541636728
 32
0.0
 13
1694.492016324798
 23
782.6390835856573
 33
0.0
  0
SOLID
  5
5815
330
1F
100
AcDbEntity
  8
LOGO
 62
     2
100
AcDbTrace
 10
1692.689958585287
 20
789.0854689952905
 30
0.0
 11
1693.217390118803
 21
789.0854689952905
 31
0.0
 12
1692.689958585287
 22
776.998496352228
 32
0.0
 13
1693.217390118803
 23
776.998496352228
 33
0.0
  0
SOLID
  5
5816
330
1F
100
AcDbEntity
  8
LOGO
 62
     5
100
AcDbTrace
 10
1693.217390118803
 20
777.9654541636728
 30
0.0
 11
1694.492016324798
 21
782.6390835856573
 31
0.0
 12
1699.28285275423
 22
789.0854689952911
 32
0.0
 13
1698.008226548235
 23
789.0854689952911
 33
0.0
  0
SOLID
  5
5817
330
1F
100
AcDbEntity
  8
LOGO
 62
     5
100
AcDbTrace
 10
1693.217390118803
 20
776.998496352228
 30
0.0
 11
1694.492016324798
 21
776.998496352228
 31
0.0
 12
1699.28285275423
 22
788.1185111838457
 32
0.0
 13
1698.008226548235
 23
783.4448817618612
 33
0.0
  0
SOLID
  5
5818
330
1F
100
AcDbEntity
  8
LOGO
 62
     2
100
AcDbTrace
 10
1692.689958585287
 20
776.998496352228
 30
0.0
 11
1693.217390118803
 21
776.998496352228
 31
0.0
 12
1699.28285275423
 22
789.0854689952911
 32
0.0
 13
1699.810284287746
 23
789.0854689952905
 33
0.0
  0
LWPOLYLINE
  5
5819
330
1F
100
AcDbEntity
  8
LOGO
 62
     4
100
AcDbPolyline
 90
        4
 70
     1
 43
0.0
 10
1681.763868826037
 20
789.7857492078596
 10
2071.509122562755
 20
789.7857492078596
 10
2071.509122562755
 20
760.3060183843297
 10
1681.763868826037
 20
760.3060183843297
1001
GENIUS_GENREC_14
1002
{
1000
PYDIR
1011
1681.763868826037
1021
760.3060183843297
1031
0.0
1002
}
1002
{
1000
PXDIR
1011
2071.509122562755
1021
789.7857492078596
1031
0.0
1002
}
1002
{
1000
PORI
1011
1681.763868826037
1021
789.7857492078596
1031
0.0
1002
}
1002
{
1000
PINS
1011
1681.763868826037
1021
789.7857492078596
1031
0.0
1002
}
1002
{
1000
PINS2
1011
2071.509122562755
1021
760.3060183843297
1031
0.0
1002
}
1002
{
1000
C
1070
     1
1002
}
1001
GENIUS_GENOBJ-N-REC_13
1002
{
1000
OWNER
1000
GEN
1002
}
1001
GENIUS_GENODEF_13
1002
{
1000
HIER
1070
     0
1002
}
1002
{
1000
MANEDIT
1070
     0
1002
}
1002
{
1000
NOSEL
1070
     0
1002
}
1002
{
1000
BEHIND
1070
     0
1002
}
1002
{
1000
OTHER
1070
     0
1002
}
1002
{
1000
REACTOR
1002
}
  0
LINE
  5
581A
330
1F
100
AcDbEntity
  8
LOGO
 62
     4
100
AcDbLine
 10
1816.091117586125
 20
773.5718972549189
 30
0.0
 11
1816.091117586125
 21
762.7626626196241
 31
0.0
  0
LINE
  5
581B
330
1F
100
AcDbEntity
  8
LOGO
 62
     4
100
AcDbLine
 10
1796.437963703772
 20
773.5718972549189
 30
0.0
 11
1796.437963703772
 21
762.7626626196241
 31
0.0
  0
LINE
  5
581C
330
1F
100
AcDbEntity
  8
LOGO
 62
     4
100
AcDbLine
 10
1816.091117586125
 20
762.7626626196241
 30
0.0
 11
1796.437963703772
 21
762.7626626196241
 31
0.0
  0
LINE
  5
581D
330
1F
100
AcDbEntity
  8
LOGO
 62
     4
100
AcDbLine
 10
1825.630857231326
 20
786.8377761255065
 30
0.0
 11
1787.167338008693
 21
786.8377761255065
 31
0.0
  0
LINE
  5
581E
330
1F
100
AcDbEntity
  8
LOGO
 62
     4
100
AcDbLine
 10
1825.630857231326
 20
777.9938568784479
 30
0.0
 11
1787.167338008693
 21
777.9938568784479
 31
0.0
  0
LINE
  5
581F
330
1F
100
AcDbEntity
  8
LOGO
 62
     4
100
AcDbLine
 10
1787.167338008693
 20
786.8377761255065
 30
0.0
 11
1787.167338008693
 21
777.9938568784479
 31
0.0
  0
LINE
  5
5820
330
1F
100
AcDbEntity
  8
LOGO
 62
     4
100
AcDbLine
 10
1825.630857231326
 20
786.8377761255065
 30
0.0
 11
1825.630857231326
 21
777.9938568784479
 31
0.0
  0
LINE
  5
5821
330
1F
100
AcDbEntity
  8
LOGO
 62
     4
100
AcDbLine
 10
1806.084549562212
 20
777.9938568784479
 30
0.0
 11
1806.084549562212
 21
773.5718972549189
 31
0.0
  0
TEXT
  5
5822
330
1F
100
AcDbEntity
  8
LOGO
  6
Continuous
100
AcDbText
 10
1789.514291919561
 20
780.5186171969432
 30
0.0
 40
4.549999999999999
  1
MJC-150K
  7
CHINESET
100
AcDbText
  0
LINE
  5
5823
330
1F
100
AcDbEntity
  8
LOGO
 62
     4
100
AcDbLine
 10
1816.091117586125
 20
773.5718972549189
 30
0.0
 11
1796.437963703772
 21
773.5718972549189
 31
0.0
  0
TEXT
  5
5824
330
1F
100
AcDbEntity
  8
LOGO
  6
Continuous
100
AcDbText
 10
1802.744598563681
 20
764.2883631668815
 30
193.2052993154654
 40
2.2113
  1
Model
 41
0.8
  7
CHINESET
100
AcDbText
  0
TEXT
  5
5825
330
1F
100
AcDbEntity
  8
LOGO
100
AcDbText
 10
1802.156022388622
 20
768.3876367977177
 30
193.2052993154654
 40
3.6855
  1
型號
  7
CHINESET
100
AcDbText
  0
TEXT
  5
5826
330
1F
100
AcDbEntity
  8
LOGO
100
AcDbText
 10
1747.788615406404
 20
761.8743284286789
 30
0.0
 40
2.9484
  1
01004300
 41
0.7
  7
CHINESET
 72
     1
 11
1755.159615406405
 21
761.8743284286789
 31
0.0
100
AcDbText
  0
LINE
  5
5827
330
1F
100
AcDbEntity
  8
LOGO
 62
     4
100
AcDbLine
 10
1764.3096766378
 20
766.2019645490365
 30
0.0
 11
1764.309676637802
 21
760.3060183843304
 31
0.0
  0
LINE
  5
5828
330
1F
100
AcDbEntity
  8
LOGO
 62
     4
100
AcDbLine
 10
1764.3096766378
 20
766.2019645490365
 30
0.0
 11
1746.619276637802
 21
766.2019645490365
 31
0.0
  0
CIRCLE
  5
5829
330
1F
100
AcDbEntity
  8
LOGO
  6
Continuous
100
AcDbCircle
 10
1732.42466364407
 20
780.9481356967967
 30
0.0
 40
1.711662559078674
  0
CIRCLE
  5
582A
330
1F
100
AcDbEntity
  8
LOGO
  6
Continuous
100
AcDbCircle
 10
1732.42466364407
 20
780.9481356967967
 30
0.0
 40
1.002882734706823
  0
LINE
  5
582B
330
1F
100
AcDbEntity
  8
LOGO
100
AcDbLine
 10
1743.180949778244
 20
779.2364731377177
 30
0.0
 11
1743.180949778244
 21
782.6597982558758
 31
0.0
  0
LINE
  5
582C
330
1F
100
AcDbEntity
  8
LOGO
100
AcDbLine
 10
1737.814985909652
 20
779.9452529620901
 30
0.0
 11
1737.814985909652
 21
781.9510184315038
 31
0.0
  0
LINE
  5
582D
330
1F
100
AcDbEntity
  8
LOGO
  6
Continuous
100
AcDbLine
 10
1737.814985909652
 20
781.9510184315038
 30
0.0
 11
1743.180949778244
 21
782.6597982558758
 31
0.0
  0
LINE
  5
582E
330
1F
100
AcDbEntity
  8
LOGO
  6
Continuous
100
AcDbLine
 10
1737.814985909652
 20
779.9452529620901
 30
0.0
 11
1743.180949778244
 21
779.2364731377177
 31
0.0
  0
LINE
  5
582F
330
1F
100
AcDbEntity
  8
LOGO
  6
AM_ISO08W050x2
 48
0.3
100
AcDbLine
 10
1730.065111176251
 20
780.9481356967967
 30
0.0
 11
1734.784216111888
 21
780.9481356967967
 31
0.0
1001
GENIUS_GENOREF_13
1005
5834
  0
LINE
  5
5830
330
1F
100
AcDbEntity
  8
LOGO
  6
AM_ISO08W050x2
 48
0.3
100
AcDbLine
 10
1732.42466364407
 20
778.5885832289782
 30
0.0
 11
1732.42466364407
 21
783.3076881646152
 31
0.0
1001
GENIUS_GENOREF_13
1005
5833
  0
LINE
  5
5831
330
1F
100
AcDbEntity
  8
LOGO
  6
CENTER
 48
0.5
100
AcDbLine
 10
1737.385857946432
 20
780.9481356967967
 30
0.0
 11
1743.721284969291
 21
780.9481356967967
 31
0.0
1001
GENIUS_GENOREF_13
1005
5832
  0
POINT
  5
5832
330
1F
100
AcDbEntity
  8
0
 60
     1
100
AcDbPoint
 10
-447.5377206446601
 20
-231.3490343883884
 30
0.0
1001
GENIUS_GENOBJ-N-CRS_13
1002
{
1000
OWNER
1000
GEN
1002
}
1001
GENIUS_GENOLIS_13
1002
{
1000
ENT
1005
0
1005
0
1005
0
1005
5831
1002
}
1001
GENIUS_GENOENT_13
1002
{
1000
MYREF
1005
5832
1002
}
1002
{
1000
GRP
1005
0
1002
}
1001
GENIUS_GENODEF_13
1002
{
1000
HIER
1070
    10
1002
}
1002
{
1000
MANEDIT
1070
     1
1002
}
1002
{
1000
NOSEL
1070
     0
1002
}
1002
{
1000
BEHIND
1070
     0
1002
}
1002
{
1000
OTHER
1070
     0
1002
}
1002
{
1000
REACTOR
1002
}
  0
POINT
  5
5833
330
1F
100
AcDbEntity
  8
0
 60
     1
100
AcDbPoint
 10
-458.8623058675148
 20
-222.4734479097522
 30
0.0
1001
GENIUS_GENOBJ-N-CRS_13
1002
{
1000
OWNER
1000
GEN
1002
}
1001
GENIUS_GENOLIS_13
1002
{
1000
ENT
1005
0
1005
0
1005
0
1005
5830
1002
}
1001
GENIUS_GENOENT_13
1002
{
1000
MYREF
1005
5833
1002
}
1002
{
1000
GRP
1005
0
1002
}
1001
GENIUS_GENODEF_13
1002
{
1000
HIER
1070
    10
1002
}
1002
{
1000
MANEDIT
1070
     1
1002
}
1002
{
1000
NOSEL
1070
     0
1002
}
1002
{
1000
BEHIND
1070
     0
1002
}
1002
{
1000
OTHER
1070
     0
1002
}
1002
{
1000
REACTOR
1002
}
  0
POINT
  5
5834
330
1F
100
AcDbEntity
  8
0
 60
     1
100
AcDbPoint
 10
-452.503632169678
 20
-231.3490343883884
 30
0.0
1001
GENIUS_GENOBJ-N-CRS_13
1002
{
1000
OWNER
1000
GEN
1002
}
1001
GENIUS_GENOLIS_13
1002
{
1000
ENT
1005
0
1005
0
1005
0
1005
582F
1002
}
1001
GENIUS_GENOENT_13
1002
{
1000
MYREF
1005
5834
1002
}
1002
{
1000
GRP
1005
0
1002
}
1001
GENIUS_GENODEF_13
1002
{
1000
HIER
1070
    10
1002
}
1002
{
1000
MANEDIT
1070
     1
1002
}
1002
{
1000
NOSEL
1070
     0
1002
}
1002
{
1000
BEHIND
1070
     0
1002
}
1002
{
1000
OTHER
1070
     0
1002
}
1002
{
1000
REACTOR
1002
}
  0
LINE
  5
5E3F
330
1F
100
AcDbEntity
  8
AM_7
100
AcDbLine
 10
1852.675868390422
 20
950.0424707089406
 30
0.0
 11
1876.675868390422
 21
950.0424707089406
 31
0.0
  0
LINE
  5
5E40
330
1F
100
AcDbEntity
  8
AM_7
100
AcDbLine
 10
1882.925868390422
 20
950.0424707089404
 30
0.0
 11
1884.425868390422
 21
950.0424707089404
 31
0.0
  0
LINE
  5
5E41
330
1F
100
AcDbEntity
  8
AM_7
100
AcDbLine
 10
1883.675868390422
 20
949.2924707089404
 30
0.0
 11
1883.675868390422
 21
950.7924707089404
 31
0.0
  0
LINE
  5
5E42
330
1F
100
AcDbEntity
  8
AM_7
100
AcDbLine
 10
1877.475868390422
 20
950.0424707089404
 30
0.0
 11
1882.125868390421
 21
950.0424707089404
 31
0.0
  0
LINE
  5
5E43
330
1F
100
AcDbEntity
  8
AM_7
100
AcDbLine
 10
1885.225868390422
 20
950.0424707089404
 30
0.0
 11
1889.875868390421
 21
950.0424707089404
 31
0.0
  0
LINE
  5
5E44
330
1F
100
AcDbEntity
  8
AM_7
100
AcDbLine
 10
1883.675868390422
 20
943.8424707089405
 30
0.0
 11
1883.675868390422
 21
948.4924707089405
 31
0.0
  0
LINE
  5
5E45
102
{ACAD_REACTORS
330
6B13
102
}
330
1F
100
AcDbEntity
  8
AM_7
100
AcDbLine
 10
1883.675868390422
 20
951.5924707089405
 30
0.0
 11
1883.675868390422
 21
956.2424707089403
 31
0.0
  0
LINE
  5
5E46
330
1F
100
AcDbEntity
  8
AM_7
100
AcDbLine
 10
1876.675868390422
 20
950.0424707089404
 30
0.0
 11
1890.675868390422
 21
950.0424707089404
 31
0.0
  0
LINE
  5
5E47
330
1F
100
AcDbEntity
  8
AM_7
100
AcDbLine
 10
2032.390399570238
 20
950.0424707089404
 30
0.0
 11
1896.675868390422
 21
950.0424707089404
 31
0.0
  0
LINE
  5
5E48
330
1F
100
AcDbEntity
  8
AM_7
100
AcDbLine
 10
1992.925868390422
 20
950.0424707089404
 30
0.0
 11
1994.425868390422
 21
950.0424707089404
 31
0.0
  0
LINE
  5
5E49
330
1F
100
AcDbEntity
  8
AM_7
100
AcDbLine
 10
1993.675868390422
 20
949.2924707089404
 30
0.0
 11
1993.675868390422
 21
950.7924707089404
 31
0.0
  0
LINE
  5
5E4A
330
1F
100
AcDbEntity
  8
AM_7
100
AcDbLine
 10
1990.600868390422
 20
950.0424707089404
 30
0.0
 11
1992.125868390422
 21
950.0424707089404
 31
0.0
  0
LINE
  5
5E4B
330
1F
100
AcDbEntity
  8
AM_7
100
AcDbLine
 10
1995.225868390422
 20
950.0424707089404
 30
0.0
 11
1996.750868390422
 21
950.0424707089404
 31
0.0
  0
LINE
  5
5E4C
330
1F
100
AcDbEntity
  8
AM_7
100
AcDbLine
 10
1993.675868390422
 20
946.9674707089405
 30
0.0
 11
1993.675868390422
 21
948.4924707089405
 31
0.0
  0
LINE
  5
5E4D
330
1F
100
AcDbEntity
  8
AM_7
100
AcDbLine
 10
1993.675868390422
 20
951.5924707089405
 30
0.0
 11
1993.675868390422
 21
953.1174707089403
 31
0.0
  0
LINE
  5
5E4E
330
1F
100
AcDbEntity
  8
AM_7
100
AcDbLine
 10
2052.738246676577
 20
950.0424707089404
 30
0.0
 11
2030.961337210605
 21
950.0424707089404
 31
0.0
  0
ARC
  5
5E4F
330
1F
100
AcDbEntity
  8
0
 62
     3
100
AcDbCircle
 10
1883.675868390422
 20
950.0424707089404
 30
0.0
 40
4.849999999999999
100
AcDbArc
 50
253.1112735343114
 51
196.4653475982978
  0
LINE
  5
5E50
330
1F
100
AcDbEntity
  8
AM_7
100
AcDbLine
 10
1732.197486760773
 20
988.57919819495
 30
0.0
 11
1811.897486760773
 21
988.57919819495
 31
0.0
  0
LINE
  5
5E51
330
1F
100
AcDbEntity
  8
AM_7
100
AcDbLine
 10
1803.197486760773
 20
1007.07919819495
 30
0.0
 11
1803.197486760773
 21
992.3037069074949
 31
0.0
  0
LINE
  5
5E52
330
1F
100
AcDbEntity
  8
AM_4
  6
HIDDEN2
100
AcDbLine
 10
1798.347486760773
 20
1005.72919819495
 30
0.0
 11
1798.347486760773
 21
998.0791981949501
 31
0.0
  0
LINE
  5
5E53
330
1F
100
AcDbEntity
  8
AM_4
  6
HIDDEN2
100
AcDbLine
 10
1808.047486760773
 20
1005.72919819495
 30
0.0
 11
1808.047486760773
 21
998.0791981949501
 31
0.0
  0
LINE
  5
5E54
330
1F
100
AcDbEntity
  8
AM_4
  6
HIDDEN2
100
AcDbLine
 10
1798.347486760773
 20
998.0791981949501
 30
0.0
 11
1808.047486760773
 21
998.0791981949501
 31
0.0
  0
LINE
  5
5E55
330
1F
100
AcDbEntity
  8
AM_4
  6
HIDDEN2
100
AcDbLine
 10
1782.197486760773
 20
988.57919819495
 30
0.0
 11
1792.197486760773
 21
988.57919819495
 31
0.0
  0
LINE
  5
5E56
330
1F
100
AcDbEntity
  8
AM_4
  6
HIDDEN2
100
AcDbLine
 10
1782.197486760773
 20
988.57919819495
 30
0.0
 11
1789.047486760773
 21
988.57919819495
 31
0.0
  0
LINE
  5
5E58
330
1F
100
AcDbEntity
  8
AM_4
  6
HIDDEN2
100
AcDbLine
 10
1781.332486760773
 20
996.78219819495
 30
0.0
 11
1790.697486760773
 21
996.78219819495
 31
0.0
  0
LINE
  5
5E59
330
1F
100
AcDbEntity
  8
AM_4
  6
HIDDEN2
100
AcDbLine
 10
1790.697486760773
 20
988.57919819495
 30
0.0
 11
1790.697486760773
 21
996.78219819495
 31
0.0
  0
LINE
  5
5E5B
330
1F
100
AcDbEntity
  8
AM_4
  6
HIDDEN2
100
AcDbLine
 10
1773.547486760773
 20
993.4291981949499
 30
0.0
 11
1781.197486760773
 21
993.4291981949499
 31
0.0
  0
LINE
  5
5E5C
330
1F
100
AcDbEntity
  8
AM_4
  6
HIDDEN2
100
AcDbLine
 10
1781.197486760773
 20
988.57919819495
 30
0.0
 11
1781.197486760773
 21
993.4291981949499
 31
0.0
  0
LINE
  5
5E5D
330
1F
100
AcDbEntity
  8
AM_4
  6
HIDDEN2
100
AcDbLine
 10
1783.185491853894
 20
995.7511981949501
 30
0.0
 11
1782.697486760773
 21
995.7511981949501
 31
0.0
  0
LINE
  5
5E5F
330
1F
100
AcDbEntity
  8
AM_4
  6
HIDDEN2
100
AcDbLine
 10
1793.947486760773
 20
1000.57919819495
 30
0.0
 11
1779.197486760773
 21
1000.57919819495
 31
0.0
  0
LINE
  5
5E61
330
1F
100
AcDbEntity
  8
AM_4
  6
HIDDEN2
100
AcDbLine
 10
1779.197486760773
 20
1000.57919819495
 30
0.0
 11
1779.197486760773
 21
988.57919819495
 31
0.0
  0
ARC
  5
5E62
330
1F
100
AcDbEntity
  8
AM_VIS
100
AcDbCircle
 10
1802.576816606405
 20
1003.298894955663
 30
0.0
 40
9.016575816928952
100
AcDbArc
 50
273.947166402288
 51
302.3198617749524
  0
ARC
  5
5E63
330
1F
100
AcDbEntity
  8
AM_VIS
100
AcDbCircle
 10
1803.818156915141
 20
1003.298894955662
 30
0.0
 40
9.016575816928707
100
AcDbArc
 50
237.6801382250476
 51
266.052833597712
  0
LINE
  5
5E64
330
1F
100
AcDbEntity
  8
AM_VIS
100
AcDbLine
 10
1781.197486760773
 20
996.91719819495
 30
0.0
 11
1781.197486760773
 21
999.5791981949501
 31
0.0
  0
LINE
  5
5E65
330
1F
100
AcDbEntity
  8
AM_VIS
100
AcDbLine
 10
1781.197486760773
 20
999.5791981949501
 30
0.0
 11
1782.197486760773
 21
1000.57919819495
 31
0.0
  0
LINE
  5
5E66
330
1F
100
AcDbEntity
  8
AM_VIS
100
AcDbLine
 10
1782.197486760773
 20
1000.57919819495
 30
0.0
 11
1792.197486760773
 21
1000.57919819495
 31
0.0
  0
LINE
  5
5E67
330
1F
100
AcDbEntity
  8
AM_VIS
100
AcDbLine
 10
1792.197486760773
 20
1000.57919819495
 30
0.0
 11
1792.197486760773
 21
999.5791981949501
 31
0.0
  0
LINE
  5
5E68
330
1F
100
AcDbEntity
  8
AM_VIS
100
AcDbLine
 10
1792.197486760773
 20
999.5791981949501
 30
0.0
 11
1794.197486760773
 21
999.5791981949501
 31
0.0
  0
LINE
  5
5E69
330
1F
100
AcDbEntity
  8
AM_VIS
100
AcDbLine
 10
1794.197486760773
 20
999.5791981949501
 30
0.0
 11
1794.197486760773
 21
1006.07919819495
 31
0.0
  0
LINE
  5
5E6A
330
1F
100
AcDbEntity
  8
AM_VIS
100
AcDbLine
 10
1794.197486760773
 20
1006.07919819495
 30
0.0
 11
1797.997486760773
 21
1006.07919819495
 31
0.0
  0
LINE
  5
5E6B
330
1F
100
AcDbEntity
  8
AM_VIS
100
AcDbLine
 10
1797.997486760773
 20
1006.07919819495
 30
0.0
 11
1798.997486760773
 21
1005.07919819495
 31
0.0
  0
LINE
  5
5E6C
330
1F
100
AcDbEntity
  8
AM_VIS
100
AcDbLine
 10
1798.997486760773
 20
1005.07919819495
 30
0.0
 11
1798.997486760773
 21
995.67919819495
 31
0.0
  0
LINE
  5
5E6D
330
1F
100
AcDbEntity
  8
AM_VIS
100
AcDbLine
 10
1798.997486760773
 20
995.67919819495
 30
0.0
 11
1792.697486760773
 21
995.67919819495
 31
0.0
  0
LINE
  5
5E6E
330
1F
100
AcDbEntity
  8
AM_VIS
100
AcDbLine
 10
1792.697486760773
 20
995.67919819495
 30
0.0
 11
1792.697486760773
 21
995.91719819495
 31
0.0
  0
LINE
  5
5E6F
330
1F
100
AcDbEntity
  8
AM_VIS
100
AcDbLine
 10
1792.697486760773
 20
995.91719819495
 30
0.0
 11
1782.197486760773
 21
995.91719819495
 31
0.0
  0
LINE
  5
5E70
330
1F
100
AcDbEntity
  8
AM_VIS
100
AcDbLine
 10
1782.197486760773
 20
995.91719819495
 30
0.0
 11
1781.197486760773
 21
996.91719819495
 31
0.0
  0
LINE
  5
5E71
330
1F
100
AcDbEntity
  8
AM_VIS
100
AcDbLine
 10
1810.535616712743
 20
995.1791981949499
 30
0.0
 11
1808.697486760773
 21
995.1791981949499
 31
0.0
  0
LINE
  5
5E72
330
1F
100
AcDbEntity
  8
AM_VIS
100
AcDbLine
 10
1808.697486760773
 20
995.1791981949499
 30
0.0
 11
1808.197486760773
 21
995.67919819495
 31
0.0
  0
LINE
  5
5E73
330
1F
100
AcDbEntity
  8
AM_VIS
100
AcDbLine
 10
1808.197486760773
 20
995.67919819495
 30
0.0
 11
1807.397486760773
 21
995.67919819495
 31
0.0
  0
LINE
  5
5E74
330
1F
100
AcDbEntity
  8
AM_VIS
100
AcDbLine
 10
1807.397486760773
 20
995.67919819495
 30
0.0
 11
1807.397486760773
 21
1005.07919819495
 31
0.0
  0
LINE
  5
5E75
330
1F
100
AcDbEntity
  8
AM_VIS
100
AcDbLine
 10
1807.397486760773
 20
1005.07919819495
 30
0.0
 11
1808.397486760773
 21
1006.07919819495
 31
0.0
  0
LINE
  5
5E76
330
1F
100
AcDbEntity
  8
AM_VIS
100
AcDbLine
 10
1808.397486760773
 20
1006.07919819495
 30
0.0
 11
1811.140912686285
 21
1006.07919819495
 31
0.0
  0
LINE
  5
5E77
330
1F
100
AcDbEntity
  8
AM_VIS
100
AcDbLine
 10
1794.197486760773
 20
971.0791981949501
 30
0.0
 11
1794.197486760773
 21
988.57919819495
 31
0.0
  0
LINE
  5
5E83
102
{ACAD_REACTORS
330
65A5
102
}
330
1F
100
AcDbEntity
  8
AM_VIS
100
AcDbLine
 10
1811.044056872334
 20
971.0791981949501
 30
0.0
 11
1794.197486760773
 21
971.0791981949501
 31
0.0
  0
LINE
  5
5E85
330
1F
100
AcDbEntity
  8
AM_VIS
100
AcDbLine
 10
1782.197486760773
 20
995.57919819495
 30
0.0
 11
1782.197486760773
 21
995.91719819495
 31
0.0
  0
LINE
  5
5E86
330
1F
100
AcDbEntity
  8
AM_VIS
100
AcDbLine
 10
1792.697486760773
 20
995.67919819495
 30
0.0
 11
1792.697486760773
 21
995.57919819495
 31
0.0
  0
LINE
  5
5E89
330
1F
100
AcDbEntity
  8
AM_VIS
100
AcDbLine
 10
1808.197486760773
 20
994.2791981949499
 30
0.0
 11
1808.197486760773
 21
995.67919819495
 31
0.0
  0
LINE
  5
5E8B
330
1F
100
AcDbEntity
  8
AM_VIS
100
AcDbLine
 10
1808.697486760773
 20
994.7791981949499
 30
0.0
 11
1808.697486760773
 21
995.1791981949499
 31
0.0
  0
LINE
  5
5E8C
330
1F
100
AcDbEntity
  8
AM_VIS
100
AcDbLine
 10
1808.397486760773
 20
1006.07919819495
 30
0.0
 11
1797.997486760773
 21
1006.07919819495
 31
0.0
  0
LINE
  5
5E8D
330
1F
100
AcDbEntity
  8
AM_VIS
100
AcDbLine
 10
1798.997486760773
 20
1005.07919819495
 30
0.0
 11
1807.397486760773
 21
1005.07919819495
 31
0.0
  0
LINE
  5
5E8E
330
1F
100
AcDbEntity
  8
AM_VIS
100
AcDbLine
 10
1810.244596320287
 20
991.62919819495
 30
0.0
 11
1803.397486760773
 21
991.62919819495
 31
0.0
  0
LINE
  5
5E8F
330
1F
100
AcDbEntity
  8
AM_VIS
100
AcDbLine
 10
1803.397486760773
 20
991.62919819495
 30
0.0
 11
1803.197486760773
 21
991.8291981949501
 31
0.0
  0
LINE
  5
5E90
330
1F
100
AcDbEntity
  8
AM_VIS
100
AcDbLine
 10
1803.197486760773
 20
991.8291981949501
 30
0.0
 11
1803.197486760773
 21
993.7791981949501
 31
0.0
  0
LINE
  5
5E91
330
1F
100
AcDbEntity
  8
AM_VIS
100
AcDbLine
 10
1803.197486760773
 20
993.7791981949501
 30
0.0
 11
1803.697486760773
 21
994.27919819495
 31
0.0
  0
LINE
  5
5E92
330
1F
100
AcDbEntity
  8
AM_VIS
100
AcDbLine
 10
1803.697486760773
 20
994.27919819495
 30
0.0
 11
1808.197486760773
 21
994.27919819495
 31
0.0
  0
LINE
  5
5E93
330
1F
100
AcDbEntity
  8
AM_VIS
100
AcDbLine
 10
1808.197486760773
 20
994.2791981949499
 30
0.0
 11
1809.097486760773
 21
995.1791981949499
 31
0.0
  0
LINE
  5
5E94
330
1F
100
AcDbEntity
  8
AM_VIS
100
AcDbLine
 10
1809.097486760773
 20
995.1791981949499
 30
0.0
 11
1810.535616712743
 21
995.1791981949499
 31
0.0
  0
LINE
  5
5E9C
330
1F
100
AcDbEntity
  8
AM_VIS
100
AcDbLine
 10
1803.197486760773
 20
991.8291981949501
 30
0.0
 11
1803.197486760773
 21
988.57919819495
 31
0.0
  0
LINE
  5
5E9D
330
1F
100
AcDbEntity
  8
AM_VIS
100
AcDbLine
 10
1803.397486760773
 20
988.57919819495
 30
0.0
 11
1803.397486760773
 21
991.62919819495
 31
0.0
  0
LINE
  5
5EAD
330
1F
100
AcDbEntity
  8
AM_VIS
100
AcDbLine
 10
1796.697486760773
 20
991.9791981949501
 30
0.0
 11
1796.697486760773
 21
995.57919819495
 31
0.0
  0
LINE
  5
5EAE
330
1F
100
AcDbEntity
  8
AM_VIS
100
AcDbLine
 10
1796.697486760773
 20
995.57919819495
 30
0.0
 11
1798.197486760773
 21
995.57919819495
 31
0.0
  0
LINE
  5
5EAF
330
1F
100
AcDbEntity
  8
AM_VIS
100
AcDbLine
 10
1798.197486760773
 20
995.57919819495
 30
0.0
 11
1798.197486760773
 21
993.7791981949501
 31
0.0
  0
LINE
  5
5EB0
330
1F
100
AcDbEntity
  8
AM_VIS
100
AcDbLine
 10
1798.197486760773
 20
993.77919819495
 30
0.0
 11
1803.197486760773
 21
993.77919819495
 31
0.0
  0
LINE
  5
5EB1
330
1F
100
AcDbEntity
  8
AM_VIS
100
AcDbLine
 10
1803.197486760773
 20
993.7791981949501
 30
0.0
 11
1803.197486760773
 21
992.7361201331155
 31
0.0
  0
LINE
  5
5EB2
330
1F
100
AcDbEntity
  8
AM_VIS
100
AcDbLine
 10
1803.197486760773
 20
992.7361201331155
 30
0.0
 11
1802.497486760773
 21
992.7361201331155
 31
0.0
  0
LINE
  5
5EB3
330
1F
100
AcDbEntity
  8
AM_VIS
100
AcDbLine
 10
1802.497486760773
 20
992.7361201331155
 30
0.0
 11
1802.497486760773
 21
992.17919819495
 31
0.0
  0
LINE
  5
5EB4
330
1F
100
AcDbEntity
  8
AM_VIS
100
AcDbLine
 10
1802.497486760773
 20
992.17919819495
 30
0.0
 11
1801.997486760773
 21
992.17919819495
 31
0.0
  0
LINE
  5
5EB5
330
1F
100
AcDbEntity
  8
AM_VIS
100
AcDbLine
 10
1801.997486760773
 20
992.17919819495
 30
0.0
 11
1801.997486760773
 21
989.87919819495
 31
0.0
  0
LINE
  5
5EB6
330
1F
100
AcDbEntity
  8
AM_VIS
100
AcDbLine
 10
1801.997486760773
 20
989.87919819495
 30
0.0
 11
1800.797486760773
 21
989.87919819495
 31
0.0
  0
LINE
  5
5EB7
330
1F
100
AcDbEntity
  8
AM_VIS
100
AcDbLine
 10
1800.797486760773
 20
989.87919819495
 30
0.0
 11
1800.197486760773
 21
990.4791981949502
 31
0.0
  0
LINE
  5
5EB8
330
1F
100
AcDbEntity
  8
AM_VIS
100
AcDbLine
 10
1800.197486760773
 20
990.4791981949502
 30
0.0
 11
1800.197486760773
 21
990.8291981949501
 31
0.0
  0
LINE
  5
5EB9
330
1F
100
AcDbEntity
  8
AM_VIS
100
AcDbLine
 10
1800.197486760773
 20
990.8291981949501
 30
0.0
 11
1793.197486760773
 21
990.8291981949501
 31
0.0
  0
LINE
  5
5EBA
330
1F
100
AcDbEntity
  8
AM_VIS
100
AcDbLine
 10
1793.197486760773
 20
990.8291981949501
 30
0.0
 11
1793.197486760773
 21
991.9791981949501
 31
0.0
  0
LINE
  5
5EBB
330
1F
100
AcDbEntity
  8
AM_VIS
100
AcDbLine
 10
1793.197486760773
 20
991.9791981949501
 30
0.0
 11
1796.697486760773
 21
991.9791981949501
 31
0.0
  0
LINE
  5
5EBD
330
1F
100
AcDbEntity
  8
AM_VIS
100
AcDbLine
 10
1803.197486760773
 20
989.6774200594148
 30
0.0
 11
1802.497486760773
 21
989.6774200594148
 31
0.0
  0
LINE
  5
5EBE
330
1F
100
AcDbEntity
  8
AM_VIS
100
AcDbLine
 10
1803.197486760773
 20
990.1734575722903
 30
0.0
 11
1802.497486760773
 21
990.1734575722903
 31
0.0
  0
LINE
  5
5EBF
330
1F
100
AcDbEntity
  8
AM_VIS
100
AcDbLine
 10
1793.197486760773
 20
988.57919819495
 30
0.0
 11
1793.197486760773
 21
990.8291981949501
 31
0.0
  0
LINE
  5
5EC0
330
1F
100
AcDbEntity
  8
AM_VIS
100
AcDbLine
 10
1800.197486760773
 20
990.4791981949502
 30
0.0
 11
1800.197486760773
 21
988.57919819495
 31
0.0
  0
LINE
  5
5EC1
330
1F
100
AcDbEntity
  8
AM_VIS
100
AcDbLine
 10
1800.797486760773
 20
988.57919819495
 30
0.0
 11
1800.797486760773
 21
989.87919819495
 31
0.0
  0
LINE
  5
5EC2
330
1F
100
AcDbEntity
  8
AM_VIS
100
AcDbLine
 10
1801.997486760773
 20
988.57919819495
 30
0.0
 11
1801.997486760773
 21
989.87919819495
 31
0.0
  0
LINE
  5
5EC4
330
1F
100
AcDbEntity
  8
AM_VIS
100
AcDbLine
 10
1802.497486760773
 20
991.6968896485741
 30
0.0
 11
1802.497486760773
 21
989.3160183775329
 31
0.0
  0
LINE
  5
5EC5
330
1F
100
AcDbEntity
  8
AM_VIS
100
AcDbLine
 10
1802.497486760773
 20
992.17919819495
 30
0.0
 11
1802.497486760773
 21
991.9992999505325
 31
0.0
  0
LINE
  5
5EDB
330
1F
100
AcDbEntity
  8
AM_VIS
100
AcDbLine
 10
1779.197486760773
 20
998.5791981949502
 30
0.0
 11
1781.197486760773
 21
998.5791981949502
 31
0.0
  0
LINE
  5
5EDC
330
1F
100
AcDbEntity
  8
AM_VIS
100
AcDbLine
 10
1781.197486760773
 20
998.5791981949502
 30
0.0
 11
1781.197486760773
 21
995.57919819495
 31
0.0
  0
LINE
  5
5EDD
330
1F
100
AcDbEntity
  8
AM_VIS
100
AcDbLine
 10
1781.197486760773
 20
995.57919819495
 30
0.0
 11
1782.697486760773
 21
995.57919819495
 31
0.0
  0
LINE
  5
5EDE
330
1F
100
AcDbEntity
  8
AM_VIS
100
AcDbLine
 10
1782.697486760773
 20
995.57919819495
 30
0.0
 11
1782.697486760773
 21
996.57919819495
 31
0.0
  0
LINE
  5
5EDF
330
1F
100
AcDbEntity
  8
AM_VIS
100
AcDbLine
 10
1782.697486760773
 20
996.57919819495
 30
0.0
 11
1789.197486760773
 21
996.57919819495
 31
0.0
  0
LINE
  5
5EE0
330
1F
100
AcDbEntity
  8
AM_VIS
100
AcDbLine
 10
1789.197486760773
 20
996.57919819495
 30
0.0
 11
1790.197486760773
 21
995.57919819495
 31
0.0
  0
LINE
  5
5EE1
330
1F
100
AcDbEntity
  8
AM_VIS
100
AcDbLine
 10
1790.197486760773
 20
995.57919819495
 30
0.0
 11
1794.197486760773
 21
995.57919819495
 31
0.0
  0
LINE
  5
5EE2
330
1F
100
AcDbEntity
  8
AM_VIS
100
AcDbLine
 10
1794.197486760773
 20
995.57919819495
 30
0.0
 11
1794.697486760773
 21
995.0791981949501
 31
0.0
  0
LINE
  5
5EE3
330
1F
100
AcDbEntity
  8
AM_VIS
100
AcDbLine
 10
1794.697486760773
 20
995.0791981949501
 30
0.0
 11
1794.697486760773
 21
993.4791981949501
 31
0.0
  0
LINE
  5
5EE4
330
1F
100
AcDbEntity
  8
AM_VIS
100
AcDbLine
 10
1794.697486760773
 20
993.4791981949501
 30
0.0
 11
1796.197486760773
 21
993.4791981949501
 31
0.0
  0
LINE
  5
5EE5
330
1F
100
AcDbEntity
  8
AM_VIS
100
AcDbLine
 10
1796.197486760773
 20
993.4791981949501
 30
0.0
 11
1796.697486760773
 21
992.9791981949502
 31
0.0
  0
LINE
  5
5EE6
330
1F
100
AcDbEntity
  8
AM_VIS
100
AcDbLine
 10
1796.697486760773
 20
992.9791981949502
 30
0.0
 11
1796.697486760773
 21
992.2791981949501
 31
0.0
  0
LINE
  5
5EE7
330
1F
100
AcDbEntity
  8
AM_VIS
100
AcDbLine
 10
1796.697486760773
 20
992.2791981949499
 30
0.0
 11
1796.497486760773
 21
992.07919819495
 31
0.0
  0
LINE
  5
5EE8
330
1F
100
AcDbEntity
  8
AM_VIS
100
AcDbLine
 10
1796.497486760773
 20
992.07919819495
 30
0.0
 11
1793.118089194092
 21
992.07919819495
 31
0.0
  0
LINE
  5
5EE9
330
1F
100
AcDbEntity
  8
AM_VIS
100
AcDbLine
 10
1793.118089194092
 20
992.07919819495
 30
0.0
 11
1792.697486760773
 21
992.7791981949502
 31
0.0
  0
LINE
  5
5EEA
330
1F
100
AcDbEntity
  8
AM_VIS
100
AcDbLine
 10
1792.697486760773
 20
992.7791981949498
 30
0.0
 11
1774.197486760773
 21
992.7791981949498
 31
0.0
  0
LINE
  5
5EEB
330
1F
100
AcDbEntity
  8
AM_VIS
100
AcDbLine
 10
1774.197486760773
 20
992.7791981949498
 30
0.0
 11
1773.197486760773
 21
993.77919819495
 31
0.0
  0
LINE
  5
5EEC
330
1F
100
AcDbEntity
  8
AM_VIS
100
AcDbLine
 10
1773.197486760773
 20
993.77919819495
 30
0.0
 11
1773.197486760773
 21
997.0791981949501
 31
0.0
  0
LINE
  5
5EED
330
1F
100
AcDbEntity
  8
AM_VIS
100
AcDbLine
 10
1773.197486760773
 20
997.0791981949501
 30
0.0
 11
1779.197486760773
 21
997.0791981949501
 31
0.0
  0
LINE
  5
5EEE
330
1F
100
AcDbEntity
  8
AM_VIS
100
AcDbLine
 10
1779.197486760773
 20
997.0791981949501
 30
0.0
 11
1779.197486760773
 21
998.5791981949502
 31
0.0
  0
LINE
  5
5EEF
330
1F
100
AcDbEntity
  8
AM_VIS
100
AcDbLine
 10
1792.697486760773
 20
988.57919819495
 30
0.0
 11
1792.697486760773
 21
992.7791981949502
 31
0.0
  0
LINE
  5
5EF0
330
1F
100
AcDbEntity
  8
AM_VIS
100
AcDbLine
 10
1774.197486760773
 20
988.57919819495
 30
0.0
 11
1774.197486760773
 21
992.7791981949502
 31
0.0
  0
LINE
  5
5EF1
330
1F
100
AcDbEntity
  8
AM_VIS
100
AcDbLine
 10
1773.197486760773
 20
993.77919819495
 30
0.0
 11
1773.197486760773
 21
988.57919819495
 31
0.0
  0
LINE
  5
5EF2
330
1F
100
AcDbEntity
  8
AM_VIS
100
AcDbLine
 10
1793.118089194092
 20
992.07919819495
 30
0.0
 11
1793.118089194092
 21
988.57919819495
 31
0.0
  0
LINE
  5
5EF3
330
1F
100
AcDbEntity
  8
AM_VIS
100
AcDbLine
 10
1796.497486760773
 20
992.07919819495
 30
0.0
 11
1796.497486760773
 21
991.9791981949501
 31
0.0
  0
CIRCLE
  5
5EF5
330
1F
100
AcDbEntity
  8
AM_VIS
100
AcDbCircle
 10
1795.697486760773
 20
994.67919819495
 30
0.0
 40
1.199999999999999
  0
LINE
  5
5EFC
330
1F
100
AcDbEntity
  8
AM_VIS
100
AcDbLine
 10
1794.197486760773
 20
976.3291981949501
 30
0.0
 11
1794.197486760773
 21
974.5791981949501
 31
0.0
  0
LINE
  5
5EFD
330
1F
100
AcDbEntity
  8
AM_VIS
100
AcDbLine
 10
1794.197486760773
 20
974.5791981949501
 30
0.0
 11
1793.197486760773
 21
973.5791981949502
 31
0.0
  0
LINE
  5
5EFE
102
{ACAD_REACTORS
330
64D5
102
}
330
1F
100
AcDbEntity
  8
AM_VIS
100
AcDbLine
 10
1793.197486760773
 20
973.5791981949502
 30
0.0
 11
1745.197486760773
 21
973.5791981949502
 31
0.0
  0
LINE
  5
5EFF
330
1F
100
AcDbEntity
  8
AM_VIS
100
AcDbLine
 10
1745.197486760773
 20
973.5791981949502
 30
0.0
 11
1744.197486760773
 21
974.5791981949501
 31
0.0
  0
LINE
  5
5F00
102
{ACAD_REACTORS
330
657B
102
}
330
1F
100
AcDbEntity
  8
AM_VIS
100
AcDbLine
 10
1744.197486760773
 20
974.5791981949501
 30
0.0
 11
1744.197486760773
 21
988.57919819495
 31
0.0
  0
LINE
  5
5F01
330
1F
100
AcDbEntity
  8
AM_VIS
100
AcDbLine
 10
1744.197486760773
 20
983.5791981949501
 30
0.0
 11
1739.197486760773
 21
983.5791981949501
 31
0.0
  0
LINE
  5
5F02
330
1F
100
AcDbEntity
  8
AM_VIS
100
AcDbLine
 10
1739.197486760773
 20
988.57919819495
 30
0.0
 11
1739.197486760773
 21
983.07919819495
 31
0.0
  0
LINE
  5
5F03
102
{ACAD_REACTORS
330
6485
330
64AF
102
}
330
1F
100
AcDbEntity
  8
AM_VIS
100
AcDbLine
 10
1739.197486760773
 20
983.07919819495
 30
0.0
 11
1734.197486760773
 21
983.5791981949501
 31
0.0
  0
LINE
  5
5F04
102
{ACAD_REACTORS
330
657B
330
65A5
102
}
330
1F
100
AcDbEntity
  8
AM_VIS
100
AcDbLine
 10
1734.197486760773
 20
983.5791981949501
 30
0.0
 11
1734.197486760773
 21
985.07919819495
 31
0.0
  0
LINE
  5
5F07
330
1F
100
AcDbEntity
  8
AM_VIS
100
AcDbLine
 10
1749.197486760773
 20
995.0791981949501
 30
0.0
 11
1749.197486760773
 21
992.07919819495
 31
0.0
  0
LINE
  5
5F08
330
1F
100
AcDbEntity
  8
AM_VIS
100
AcDbLine
 10
1749.197486760773
 20
992.07919819495
 30
0.0
 11
1734.197486760773
 21
992.07919819495
 31
0.0
  0
LINE
  5
5F09
102
{ACAD_REACTORS
330
6485
102
}
330
1F
100
AcDbEntity
  8
AM_VIS
100
AcDbLine
 10
1734.197486760773
 20
992.07919819495
 30
0.0
 11
1734.197486760773
 21
993.5791981949501
 31
0.0
  0
LINE
  5
5F0A
102
{ACAD_REACTORS
330
64AF
102
}
330
1F
100
AcDbEntity
  8
AM_VIS
100
AcDbLine
 10
1734.197486760773
 20
993.5791981949501
 30
0.0
 11
1739.197486760773
 21
994.07919819495
 31
0.0
  0
LINE
  5
5F0B
330
1F
100
AcDbEntity
  8
AM_VIS
100
AcDbLine
 10
1739.197486760773
 20
994.07919819495
 30
0.0
 11
1739.197486760773
 21
993.5791981949501
 31
0.0
  0
LINE
  5
5F0C
330
1F
100
AcDbEntity
  8
AM_VIS
100
AcDbLine
 10
1739.197486760773
 20
993.5791981949501
 30
0.0
 11
1744.197486760773
 21
993.5791981949501
 31
0.0
  0
LINE
  5
5F0D
330
1F
100
AcDbEntity
  8
AM_VIS
100
AcDbLine
 10
1744.197486760773
 20
993.5791981949501
 30
0.0
 11
1744.197486760773
 21
1002.57919819495
 31
0.0
  0
LINE
  5
5F0E
330
1F
100
AcDbEntity
  8
AM_VIS
100
AcDbLine
 10
1744.197486760773
 20
1002.57919819495
 30
0.0
 11
1745.197486760773
 21
1003.57919819495
 31
0.0
  0
LINE
  5
5F0F
102
{ACAD_REACTORS
330
64D5
102
}
330
1F
100
AcDbEntity
  8
AM_VIS
100
AcDbLine
 10
1745.197486760773
 20
1003.57919819495
 30
0.0
 11
1793.197486760773
 21
1003.57919819495
 31
0.0
  0
LINE
  5
5F10
330
1F
100
AcDbEntity
  8
AM_VIS
100
AcDbLine
 10
1793.197486760773
 20
1003.57919819495
 30
0.0
 11
1794.197486760773
 21
1002.57919819495
 31
0.0
  0
LINE
  5
5F11
330
1F
100
AcDbEntity
  8
AM_VIS
100
AcDbLine
 10
1794.197486760773
 20
1002.57919819495
 30
0.0
 11
1794.197486760773
 21
1000.82919819495
 31
0.0
  0
LINE
  5
5F12
330
1F
100
AcDbEntity
  8
AM_VIS
100
AcDbLine
 10
1794.197486760773
 20
1000.82919819495
 30
0.0
 11
1793.197486760773
 21
999.8291981949501
 31
0.0
  0
LINE
  5
5F13
330
1F
100
AcDbEntity
  8
AM_VIS
100
AcDbLine
 10
1793.197486760773
 20
999.8291981949501
 30
0.0
 11
1772.197486760773
 21
999.8291981949501
 31
0.0
  0
LINE
  5
5F14
330
1F
100
AcDbEntity
  8
AM_VIS
100
AcDbLine
 10
1772.197486760773
 20
999.8291981949501
 30
0.0
 11
1772.197486760773
 21
997.0791981949501
 31
0.0
  0
LINE
  5
5F15
330
1F
100
AcDbEntity
  8
AM_VIS
100
AcDbLine
 10
1772.197486760773
 20
997.0791981949501
 30
0.0
 11
1771.197486760773
 21
996.0791981949501
 31
0.0
  0
LINE
  5
5F16
330
1F
100
AcDbEntity
  8
AM_VIS
100
AcDbLine
 10
1771.197486760773
 20
996.0791981949501
 30
0.0
 11
1750.197486760773
 21
996.0791981949501
 31
0.0
  0
LINE
  5
5F17
330
1F
100
AcDbEntity
  8
AM_VIS
100
AcDbLine
 10
1772.197486760773
 20
988.57919819495
 30
0.0
 11
1772.197486760773
 21
997.0791981949501
 31
0.0
  0
LINE
  5
5F18
330
1F
100
AcDbEntity
  8
AM_VIS
100
AcDbLine
 10
1771.197486760773
 20
996.0791981949501
 30
0.0
 11
1771.197486760773
 21
988.5791981949502
 31
0.0
  0
LINE
  5
5F19
330
1F
100
AcDbEntity
  8
AM_VIS
100
AcDbLine
 10
1793.197486760773
 20
999.8291981949501
 30
0.0
 11
1793.197486760773
 21
999.5791981949501
 31
0.0
  0
LINE
  5
5F1B
330
1F
100
AcDbEntity
  8
AM_VIS
100
AcDbLine
 10
1749.197486760773
 20
992.07919819495
 30
0.0
 11
1749.197486760773
 21
988.57919819495
 31
0.0
  0
LINE
  5
5F1C
330
1F
100
AcDbEntity
  8
AM_VIS
100
AcDbLine
 10
1734.197486760773
 20
985.07919819495
 30
0.0
 11
1734.197486760773
 21
992.07919819495
 31
0.0
  0
ARC
  5
5F1E
330
1F
100
AcDbEntity
  8
AM_VIS
100
AcDbCircle
 10
1750.197486760773
 20
995.0791981949501
 30
0.0
 40
1.0
100
AcDbArc
 50
90.0
 51
180.0
  0
POLYLINE
  5
5F1F
330
1F
100
AcDbEntity
  8
AM_4
100
AcDb2dPolyline
 66
     1
 10
0.0
 20
0.0
 30
0.0
  0
VERTEX
  5
5F20
330
5F1F
100
AcDbEntity
  8
AM_4
100
AcDbVertex
100
AcDb2dVertex
 10
1811.887117445164
 20
1007.259289395479
 30
0.0
  0
VERTEX
  5
5F21
330
5F1F
100
AcDbEntity
  8
AM_4
100
AcDbVertex
100
AcDb2dVertex
 10
1811.095582463898
 20
1006.007510369429
 30
0.0
  0
VERTEX
  5
5F22
330
5F1F
100
AcDbEntity
  8
AM_4
100
AcDbVertex
100
AcDb2dVertex
 10
1810.363502385773
 20
1004.351008090783
 30
0.0
  0
VERTEX
  5
5F23
330
5F1F
100
AcDbEntity
  8
AM_4
100
AcDbVertex
100
AcDb2dVertex
 10
1809.974195745148
 20
1002.835033155887
 30
0.0
  0
VERTEX
  5
5F24
330
5F1F
100
AcDbEntity
  8
AM_4
100
AcDbVertex
100
AcDb2dVertex
 10
1809.850611760773
 20
1001.434927361616
 30
0.0
  0
VERTEX
  5
5F25
330
5F1F
100
AcDbEntity
  8
AM_4
100
AcDbVertex
100
AcDb2dVertex
 10
1809.915699651398
 20
1000.126032504846
 30
0.0
  0
VERTEX
  5
5F26
330
5F1F
100
AcDbEntity
  8
AM_4
100
AcDbVertex
100
AcDb2dVertex
 10
1810.092408635773
 20
998.8836903824502
 30
0.0
  0
VERTEX
  5
5F27
330
5F1F
100
AcDbEntity
  8
AM_4
100
AcDbVertex
100
AcDb2dVertex
 10
1810.303687932648
 20
997.6832427913041
 30
0.0
  0
VERTEX
  5
5F28
330
5F1F
100
AcDbEntity
  8
AM_4
100
AcDbVertex
100
AcDb2dVertex
 10
1810.472486760773
 20
996.5000315282834
 30
0.0
  0
VERTEX
  5
5F29
330
5F1F
100
AcDbEntity
  8
AM_4
100
AcDbVertex
100
AcDb2dVertex
 10
1810.538827906606
 20
995.3155019058877
 30
0.0
  0
VERTEX
  5
5F2A
330
5F1F
100
AcDbEntity
  8
AM_4
100
AcDbVertex
100
AcDb2dVertex
 10
1810.511028427439
 20
994.1355132991166
 30
0.0
  0
VERTEX
  5
5F2B
330
5F1F
100
AcDbEntity
  8
AM_4
100
AcDbVertex
100
AcDb2dVertex
 10
1810.414478948273
 20
992.9720285985959
 30
0.0
  0
VERTEX
  5
5F2C
330
5F1F
100
AcDbEntity
  8
AM_4
100
AcDbVertex
100
AcDb2dVertex
 10
1810.274570094106
 20
991.8370106949501
 30
0.0
  0
VERTEX
  5
5F2D
330
5F1F
100
AcDbEntity
  8
AM_4
100
AcDbVertex
100
AcDb2dVertex
 10
1810.116692489939
 20
990.7424224788043
 30
0.0
  0
VERTEX
  5
5F2E
330
5F1F
100
AcDbEntity
  8
AM_4
100
AcDbVertex
100
AcDb2dVertex
 10
1809.966236760773
 20
989.7002268407835
 30
0.0
  0
VERTEX
  5
5F2F
330
5F1F
100
AcDbEntity
  8
AM_4
100
AcDbVertex
100
AcDb2dVertex
 10
1809.848593531606
 20
988.7223866715126
 30
0.0
  0
VERTEX
  5
5F30
330
5F1F
100
AcDbEntity
  8
AM_4
100
AcDbVertex
100
AcDb2dVertex
 10
1809.789153427439
 20
987.8208648616169
 30
0.0
  0
VERTEX
  5
5F31
330
5F1F
100
AcDbEntity
  8
AM_4
100
AcDbVertex
100
AcDb2dVertex
 10
1809.804859807648
 20
987.0021799657834
 30
0.0
  0
VERTEX
  5
5F32
330
5F1F
100
AcDbEntity
  8
AM_4
100
AcDbVertex
100
AcDb2dVertex
 10
1809.878866969106
 20
986.25107319495
 30
0.0
  0
VERTEX
  5
5F33
330
5F1F
100
AcDbEntity
  8
AM_4
100
AcDbVertex
100
AcDb2dVertex
 10
1809.985881943065
 20
985.5468414241167
 30
0.0
  0
VERTEX
  5
5F34
330
5F1F
100
AcDbEntity
  8
AM_4
100
AcDbVertex
100
AcDb2dVertex
 10
1810.100611760773
 20
984.8687815282833
 30
0.0
  0
VERTEX
  5
5F35
330
5F1F
100
AcDbEntity
  8
AM_4
100
AcDbVertex
100
AcDb2dVertex
 10
1810.197763453481
 20
984.19619038245
 30
0.0
  0
VERTEX
  5
5F36
330
5F1F
100
AcDbEntity
  8
AM_4
100
AcDbVertex
100
AcDb2dVertex
 10
1810.25204405244
 20
983.5083648616169
 30
0.0
  0
VERTEX
  5
5F37
330
5F1F
100
AcDbEntity
  8
AM_4
100
AcDbVertex
100
AcDb2dVertex
 10
1810.238160588898
 20
982.7846018407834
 30
0.0
  0
VERTEX
  5
5F38
330
5F1F
100
AcDbEntity
  8
AM_4
100
AcDbVertex
100
AcDb2dVertex
 10
1810.130820094106
 20
982.0041981949501
 30
0.0
  0
VERTEX
  5
5F39
330
5F1F
100
AcDbEntity
  8
AM_4
100
AcDbVertex
100
AcDb2dVertex
 10
1809.923626083689
 20
981.1395985855751
 30
0.0
  0
VERTEX
  5
5F3A
330
5F1F
100
AcDbEntity
  8
AM_4
100
AcDbVertex
100
AcDb2dVertex
 10
1809.685768010773
 20
980.1358388199501
 30
0.0
  0
VERTEX
  5
5F3B
330
5F1F
100
AcDbEntity
  8
AM_4
100
AcDbVertex
100
AcDb2dVertex
 10
1809.505331812856
 20
978.9311024918252
 30
0.0
  0
VERTEX
  5
5F3C
330
5F1F
100
AcDbEntity
  8
AM_4
100
AcDbVertex
100
AcDb2dVertex
 10
1809.47040342744
 20
977.4635731949501
 30
0.0
  0
VERTEX
  5
5F3D
330
5F1F
100
AcDbEntity
  8
AM_4
100
AcDbVertex
100
AcDb2dVertex
 10
1809.669068792023
 20
975.6714345230751
 30
0.0
  0
VERTEX
  5
5F3E
330
5F1F
100
AcDbEntity
  8
AM_4
100
AcDbVertex
100
AcDb2dVertex
 10
1810.189413844106
 20
973.4928700699502
 30
0.0
  0
VERTEX
  5
5F3F
330
5F1F
100
AcDbEntity
  8
AM_4
100
AcDbVertex
100
AcDb2dVertex
 10
1811.11952452119
 20
970.866063429325
 30
0.0
  0
VERTEX
  5
5F40
330
5F1F
100
AcDbEntity
  8
AM_4
100
AcDbVertex
100
AcDb2dVertex
 10
1811.681753112256
 20
969.6309920302368
 30
0.0
  0
SEQEND
  5
5F41
330
5F1F
100
AcDbEntity
  8
AM_4
  0
LINE
  5
5F42
330
1F
100
AcDbEntity
  8
AM_7
100
AcDbLine
 10
1852.675868390422
 20
863.6924707089404
 30
0.0
 11
1876.675868390422
 21
863.6924707089404
 31
0.0
  0
LINE
  5
5F43
330
1F
100
AcDbEntity
  8
AM_7
100
AcDbLine
 10
1892.925868390422
 20
851.6924707089403
 30
0.0
 11
1894.425868390422
 21
851.6924707089403
 31
0.0
  0
LINE
  5
5F44
330
1F
100
AcDbEntity
  8
AM_7
100
AcDbLine
 10
1893.675868390422
 20
850.9424707089404
 30
0.0
 11
1893.675868390422
 21
852.4424707089403
 31
0.0
  0
LINE
  5
5F45
330
1F
100
AcDbEntity
  8
AM_7
100
AcDbLine
 10
1889.425868390422
 20
851.6924707089403
 30
0.0
 11
1892.125868390422
 21
851.6924707089403
 31
0.0
  0
LINE
  5
5F46
102
{ACAD_REACTORS
330
6A4E
102
}
330
1F
100
AcDbEntity
  8
AM_7
100
AcDbLine
 10
1895.225868390422
 20
851.6924707089403
 30
0.0
 11
1897.925868390421
 21
851.6924707089403
 31
0.0
  0
LINE
  5
5F47
102
{ACAD_REACTORS
330
6A0B
102
}
330
1F
100
AcDbEntity
  8
AM_7
100
AcDbLine
 10
1893.675868390422
 20
847.4424707089404
 30
0.0
 11
1893.675868390422
 21
850.1424707089404
 31
0.0
  0
LINE
  5
5F48
330
1F
100
AcDbEntity
  8
AM_7
100
AcDbLine
 10
1893.675868390422
 20
853.2424707089404
 30
0.0
 11
1893.675868390422
 21
855.9424707089403
 31
0.0
  0
LINE
  5
5F49
330
1F
100
AcDbEntity
  8
AM_7
100
AcDbLine
 10
1892.925868390422
 20
875.6924707089403
 30
0.0
 11
1894.425868390422
 21
875.6924707089403
 31
0.0
  0
LINE
  5
5F4A
330
1F
100
AcDbEntity
  8
AM_7
100
AcDbLine
 10
1893.675868390422
 20
874.9424707089403
 30
0.0
 11
1893.675868390422
 21
876.4424707089403
 31
0.0
  0
LINE
  5
5F4B
330
1F
100
AcDbEntity
  8
AM_7
100
AcDbLine
 10
1889.425868390422
 20
875.6924707089403
 30
0.0
 11
1892.125868390422
 21
875.6924707089403
 31
0.0
  0
LINE
  5
5F4C
102
{ACAD_REACTORS
330
6A4E
102
}
330
1F
100
AcDbEntity
  8
AM_7
100
AcDbLine
 10
1895.225868390422
 20
875.6924707089403
 30
0.0
 11
1897.925868390421
 21
875.6924707089403
 31
0.0
  0
LINE
  5
5F4D
330
1F
100
AcDbEntity
  8
AM_7
100
AcDbLine
 10
1893.675868390422
 20
871.4424707089404
 30
0.0
 11
1893.675868390422
 21
874.1424707089404
 31
0.0
  0
LINE
  5
5F4E
330
1F
100
AcDbEntity
  8
AM_7
100
AcDbLine
 10
1893.675868390422
 20
877.2424707089404
 30
0.0
 11
1893.675868390422
 21
879.9424707089404
 31
0.0
  0
LINE
  5
5F4F
330
1F
100
AcDbEntity
  8
AM_7
100
AcDbLine
 10
2030.390399570238
 20
863.6924707089404
 30
0.0
 11
1911.481166876411
 21
863.6924707089404
 31
0.0
  0
LINE
  5
5F50
330
1F
100
AcDbEntity
  8
AM_7
100
AcDbLine
 10
1993.675868390422
 20
851.6924707089403
 30
0.0
 11
1993.675868390422
 21
856.1314707089405
 31
0.0
  0
LINE
  5
5F51
330
1F
100
AcDbEntity
  8
AM_7
100
AcDbLine
 10
1993.675868390422
 20
875.6924707089403
 30
0.0
 11
1993.675868390422
 21
871.2534707089403
 31
0.0
  0
LINE
  5
5F52
330
1F
100
AcDbEntity
  8
AM_7
100
AcDbLine
 10
2005.675868390422
 20
860.6924707089403
 30
0.0
 11
2005.675868390422
 21
840.1924707089403
 31
0.0
  0
LINE
  5
5F53
102
{ACAD_REACTORS
330
6A8A
102
}
330
1F
100
AcDbEntity
  8
AM_7
100
AcDbLine
 10
2050.738246676576
 20
863.6924707089404
 30
0.0
 11
2028.961337210605
 21
863.6924707089404
 31
0.0
  0
LINE
  5
5F57
330
1F
100
AcDbEntity
  8
AM_7
100
AcDbLine
 10
1804.291174357716
 20
864.6924707089404
 30
0.0
 11
1804.291174357716
 21
857.1924707089404
 31
0.0
  0
LINE
  5
5F58
330
1F
100
AcDbEntity
  8
AM_7
100
AcDbLine
 10
1803.541174357716
 20
863.6924707089404
 30
0.0
 11
1805.041174357716
 21
863.6924707089404
 31
0.0
  0
LINE
  5
5F59
330
1F
100
AcDbEntity
  8
AM_7
100
AcDbLine
 10
1804.291174357716
 20
862.9424707089404
 30
0.0
 11
1804.291174357716
 21
864.4424707089404
 31
0.0
  0
LINE
  5
5F5A
330
1F
100
AcDbEntity
  8
AM_7
100
AcDbLine
 10
1785.291174357716
 20
863.6924707089404
 30
0.0
 11
1802.741174357716
 21
863.6924707089404
 31
0.0
  0
LINE
  5
5F5B
330
1F
100
AcDbEntity
  8
AM_7
100
AcDbLine
 10
1805.841174357716
 20
863.6924707089404
 30
0.0
 11
1823.291174357716
 21
863.6924707089404
 31
0.0
  0
LINE
  5
5F5C
330
1F
100
AcDbEntity
  8
AM_7
100
AcDbLine
 10
1804.291174357716
 20
837.3925107518603
 30
0.0
 11
1804.291174357716
 21
862.1424707089405
 31
0.0
  0
LINE
  5
5F5D
330
1F
100
AcDbEntity
  8
AM_7
100
AcDbLine
 10
1804.291174357716
 20
865.2424707089405
 30
0.0
 11
1804.291174357716
 21
882.6924707089403
 31
0.0
  0
ARC
  5
5F5E
330
1F
100
AcDbEntity
  8
0
 62
     3
100
AcDbCircle
 10
1804.291174357716
 20
863.6924707089404
 30
0.0
 40
11.25
100
AcDbArc
 50
250.1979588373444
 51
200.7689765834768
  0
CIRCLE
  5
5F5F
330
1F
100
AcDbEntity
  8
AM_4
  6
HIDDEN2
100
AcDbCircle
 10
1804.291174357716
 20
863.6924707089404
 30
0.0
 40
4.849999999999999
  0
LINE
  5
5F60
330
1F
100
AcDbEntity
  8
AM_VIS
100
AcDbLine
 10
1898.675868390421
 20
965.0424707089404
 30
0.0
 11
1874.675868390422
 21
965.0424707089404
 31
0.0
  0
LINE
  5
5F61
102
{ACAD_REACTORS
330
6B13
102
}
330
1F
100
AcDbEntity
  8
AM_VIS
100
AcDbLine
 10
1898.675868390421
 20
935.0424707089404
 30
0.0
 11
1898.675868390421
 21
965.0424707089404
 31
0.0
  0
LINE
  5
5F62
102
{ACAD_REACTORS
330
6B3D
330
6B71
102
}
330
1F
100
AcDbEntity
  8
AM_VIS
100
AcDbLine
 10
1898.675868390421
 20
935.0424707089404
 30
0.0
 11
1874.675868390422
 21
935.0424707089404
 31
0.0
  0
LINE
  5
5F63
102
{ACAD_REACTORS
330
6B9B
330
6BE5
102
}
330
1F
100
AcDbEntity
  8
AM_VIS
100
AcDbLine
 10
1874.675868390422
 20
965.0424707089404
 30
0.0
 11
1874.675868390421
 21
935.0424707089404
 31
0.0
  0
LINE
  5
5F64
330
1F
100
AcDbEntity
  8
AM_VIS
100
AcDbLine
 10
1872.675868390422
 20
939.0424707089405
 30
0.0
 11
1874.675868390422
 21
939.0424707089405
 31
0.0
  0
LINE
  5
5F65
330
1F
100
AcDbEntity
  8
AM_VIS
100
AcDbLine
 10
1872.675868390422
 20
961.0424707089403
 30
0.0
 11
1874.675868390422
 21
961.0424707089403
 31
0.0
  0
LINE
  5
5F66
330
1F
100
AcDbEntity
  8
AM_VIS
100
AcDbLine
 10
1862.675868390422
 20
938.0424707089403
 30
0.0
 11
1863.675868390422
 21
938.0424707089403
 31
0.0
  0
LINE
  5
5F67
330
1F
100
AcDbEntity
  8
AM_VIS
100
AcDbLine
 10
1870.675868390422
 20
938.0424707089403
 30
0.0
 11
1872.675868390422
 21
938.0424707089403
 31
0.0
  0
LINE
  5
5F68
330
1F
100
AcDbEntity
  8
AM_VIS
100
AcDbLine
 10
1862.675868390422
 20
962.0424707089403
 30
0.0
 11
1863.675868390422
 21
962.0424707089403
 31
0.0
  0
LINE
  5
5F69
330
1F
100
AcDbEntity
  8
AM_VIS
100
AcDbLine
 10
1870.675868390422
 20
962.0424707089403
 30
0.0
 11
1872.675868390422
 21
962.0424707089403
 31
0.0
  0
LINE
  5
5F6A
330
1F
100
AcDbEntity
  8
AM_VIS
100
AcDbLine
 10
1861.675868390422
 20
939.0424707089405
 30
0.0
 11
1862.675868390422
 21
938.0424707089403
 31
0.0
  0
LINE
  5
5F6B
330
1F
100
AcDbEntity
  8
AM_VIS
100
AcDbLine
 10
1861.675868390422
 20
961.0424707089403
 30
0.0
 11
1862.675868390422
 21
962.0424707089403
 31
0.0
  0
LINE
  5
5F6C
330
1F
100
AcDbEntity
  8
AM_VIS
100
AcDbLine
 10
1872.675868390422
 20
938.0424707089403
 30
0.0
 11
1872.675868390422
 21
962.0424707089403
 31
0.0
  0
LINE
  5
5F6D
330
1F
100
AcDbEntity
  8
AM_VIS
100
AcDbLine
 10
1862.675868390422
 20
938.0424707089403
 30
0.0
 11
1862.675868390422
 21
962.0424707089403
 31
0.0
  0
LINE
  5
5F6E
102
{ACAD_REACTORS
330
6B71
102
}
330
1F
100
AcDbEntity
  8
AM_VIS
100
AcDbLine
 10
1861.675868390422
 20
939.0424707089405
 30
0.0
 11
1861.675868390422
 21
961.0424707089403
 31
0.0
  0
CIRCLE
  5
5F70
330
1F
100
AcDbEntity
  8
AM_VIS
100
AcDbCircle
 10
1883.675868390422
 20
950.0424707089404
 30
0.0
 40
4.2
  0
LINE
  5
5F7C
330
1F
100
AcDbEntity
  8
AM_VIS
100
AcDbLine
 10
1859.675868390422
 20
944.7746438325141
 30
0.0
 11
1854.675868390422
 21
944.7746438325141
 31
0.0
  0
LINE
  5
5F7D
330
1F
100
AcDbEntity
  8
AM_VIS
100
AcDbLine
 10
1854.675868390422
 20
955.3102975853668
 30
0.0
 11
1859.675868390422
 21
955.3102975853668
 31
0.0
  0
SPLINE
  5
5F7E
330
1F
100
AcDbEntity
  8
AM_VIS
100
AcDbSpline
210
0.0
220
0.0
230
1.0
 70
    12
 71
     2
 72
     6
 73
     3
 74
     0
 42
0.0000000001
 43
0.0000000001
 40
0.0
 40
0.0
 40
0.0
 40
2.519162529224038
 40
2.519162529224038
 40
2.519162529224038
 10
1853.675868390421
 20
953.0005106004903
 30
0.0
 41
1.0
 10
1854.035470603172
 20
954.0946202249054
 30
0.0
 41
1.007472283038977
 10
1854.675868390422
 20
955.3102975853668
 30
0.0
 41
1.0
  0
SPLINE
  5
5F7F
330
1F
100
AcDbEntity
  8
AM_VIS
100
AcDbSpline
210
0.0
220
0.0
230
1.0
 70
    12
 71
     2
 72
     6
 73
     3
 74
     0
 42
0.0000000001
 43
0.0000000001
 40
0.0
 40
0.0
 40
0.0
 40
2.519162529224038
 40
2.519162529224038
 40
2.519162529224038
 10
1854.675868390422
 20
944.7746438325141
 30
0.0
 41
1.0
 10
1854.035470603172
 20
945.9903211929754
 30
0.0
 41
1.007472283038977
 10
1853.675868390421
 20
947.0844308173907
 30
0.0
 41
1.0
  0
LINE
  5
5F80
330
1F
100
AcDbEntity
  8
AM_VIS
100
AcDbLine
 10
1853.675868390421
 20
947.0844308173907
 30
0.0
 11
1853.675868390421
 21
953.0005106004903
 31
0.0
  0
LINE
  5
5F81
102
{ACAD_REACTORS
330
6C58
102
}
330
1F
100
AcDbEntity
  8
AM_VIS
100
AcDbLine
 10
1854.675868390422
 20
940.0424707089404
 30
0.0
 11
1861.675868390422
 21
940.0424707089404
 31
0.0
  0
LINE
  5
5F82
330
1F
100
AcDbEntity
  8
AM_VIS
100
AcDbLine
 10
1854.675868390422
 20
960.0424707089404
 30
0.0
 11
1861.675868390422
 21
960.0424707089404
 31
0.0
  0
LINE
  5
5F83
330
1F
100
AcDbEntity
  8
AM_VIS
100
AcDbLine
 10
1853.675868390421
 20
959.0424707089404
 30
0.0
 11
1854.675868390422
 21
960.0424707089404
 31
0.0
  0
LINE
  5
5F84
330
1F
100
AcDbEntity
  8
AM_VIS
100
AcDbLine
 10
1853.675868390421
 20
941.0424707089404
 30
0.0
 11
1854.675868390422
 21
940.0424707089404
 31
0.0
  0
LINE
  5
5F85
330
1F
100
AcDbEntity
  8
AM_VIS
100
AcDbLine
 10
1859.675868390422
 20
944.7746438325141
 30
0.0
 11
1859.675868390422
 21
955.3102975853668
 31
0.0
  0
LINE
  5
5F86
102
{ACAD_REACTORS
330
6C58
102
}
330
1F
100
AcDbEntity
  8
AM_VIS
100
AcDbLine
 10
1854.675868390422
 20
960.0424707089404
 30
0.0
 11
1854.675868390422
 21
955.3102975853668
 31
0.0
  0
LINE
  5
5F87
330
1F
100
AcDbEntity
  8
AM_VIS
100
AcDbLine
 10
1854.675868390422
 20
944.7746438325141
 30
0.0
 11
1854.675868390422
 21
940.0424707089404
 31
0.0
  0
LINE
  5
5F88
330
1F
100
AcDbEntity
  8
AM_VIS
100
AcDbLine
 10
1853.675868390421
 20
953.0005106004903
 30
0.0
 11
1853.675868390421
 21
959.0424707089404
 31
0.0
  0
LINE
  5
5F89
102
{ACAD_REACTORS
330
6B9B
330
6C0F
102
}
330
1F
100
AcDbEntity
  8
AM_VIS
100
AcDbLine
 10
1853.675868390421
 20
941.0424707089404
 30
0.0
 11
1853.675868390421
 21
947.0844308173907
 31
0.0
  0
LINE
  5
5F8A
330
1F
100
AcDbEntity
  8
AM_VIS
100
AcDbLine
 10
1983.375868390422
 20
959.8924707089404
 30
0.0
 11
1898.675868390421
 21
959.8924707089404
 31
0.0
  0
LINE
  5
5F8B
330
1F
100
AcDbEntity
  8
AM_VIS
100
AcDbLine
 10
1983.375868390422
 20
940.1924707089404
 30
0.0
 11
1898.675868390421
 21
940.1924707089404
 31
0.0
  0
LINE
  5
5F8C
330
1F
100
AcDbEntity
  8
AM_VIS
100
AcDbLine
 10
1983.675868390422
 20
959.5924707089405
 30
0.0
 11
1983.375868390422
 21
959.8924707089404
 31
0.0
  0
LINE
  5
5F8D
330
1F
100
AcDbEntity
  8
AM_VIS
100
AcDbLine
 10
1983.675868390422
 20
940.4924707089405
 30
0.0
 11
1983.375868390422
 21
940.1924707089404
 31
0.0
  0
LINE
  5
5F8E
330
1F
100
AcDbEntity
  8
AM_VIS
100
AcDbLine
 10
1983.375868390422
 20
940.1924707089404
 30
0.0
 11
1983.375868390422
 21
959.8924707089404
 31
0.0
  0
LINE
  5
5F8F
330
1F
100
AcDbEntity
  8
AM_VIS
100
AcDbLine
 10
1983.675868390422
 20
959.5924707089405
 30
0.0
 11
1983.675868390422
 21
940.4924707089405
 31
0.0
  0
SPLINE
  5
5F90
330
1F
100
AcDbEntity
  8
AM_VIS
100
AcDbSpline
210
0.0
220
0.0
230
1.0
 70
    12
 71
     2
 72
     6
 73
     3
 74
     0
 42
0.0000000001
 43
0.0000000001
 40
0.0
 40
0.0
 40
0.0
 40
1.40965427070945
 40
1.40965427070945
 40
1.40965427070945
 10
1989.675868390422
 20
947.0010894437914
 30
0.0
 41
1.0
 10
1989.47037743742
 20
946.3592218568827
 30
0.0
 41
1.002290359892575
 10
1989.175868390422
 20
945.6835717653998
 30
0.0
 41
1.0
  0
LINE
  5
5F91
330
1F
100
AcDbEntity
  8
AM_VIS
100
AcDbLine
 10
1989.175868390422
 20
945.6835717653998
 30
0.0
 11
1986.675868390422
 21
945.6835717653998
 31
0.0
  0
LINE
  5
5F92
330
1F
100
AcDbEntity
  8
AM_VIS
100
AcDbLine
 10
1986.675868390422
 20
954.401369652481
 30
0.0
 11
1989.175868390422
 21
954.401369652481
 31
0.0
  0
SPLINE
  5
5F93
330
1F
100
AcDbEntity
  8
AM_VIS
100
AcDbSpline
210
0.0
220
0.0
230
1.0
 70
    12
 71
     2
 72
     6
 73
     3
 74
     0
 42
0.0000000001
 43
0.0000000001
 40
0.0
 40
0.0
 40
0.0
 40
1.40965427070945
 40
1.40965427070945
 40
1.40965427070945
 10
1989.175868390422
 20
954.401369652481
 30
0.0
 41
1.0
 10
1989.47037743742
 20
953.7257195609983
 30
0.0
 41
1.002290359892575
 10
1989.675868390422
 20
953.0838519740894
 30
0.0
 41
1.0
  0
LINE
  5
5F94
330
1F
100
AcDbEntity
  8
AM_VIS
100
AcDbLine
 10
1984.675868390422
 20
940.5424707089403
 30
0.0
 11
1985.175868390422
 21
940.0424707089404
 31
0.0
  0
LINE
  5
5F95
330
1F
100
AcDbEntity
  8
AM_VIS
100
AcDbLine
 10
1984.675868390422
 20
959.5424707089405
 30
0.0
 11
1985.175868390422
 21
960.0424707089404
 31
0.0
  0
LINE
  5
5F96
330
1F
100
AcDbEntity
  8
AM_VIS
100
AcDbLine
 10
1985.175868390422
 20
940.0424707089404
 30
0.0
 11
1989.175868390422
 21
940.0424707089404
 31
0.0
  0
LINE
  5
5F97
330
1F
100
AcDbEntity
  8
AM_VIS
100
AcDbLine
 10
1985.175868390422
 20
960.0424707089404
 30
0.0
 11
1989.175868390422
 21
960.0424707089404
 31
0.0
  0
LINE
  5
5F98
330
1F
100
AcDbEntity
  8
AM_VIS
100
AcDbLine
 10
1989.675868390422
 20
940.5424707089403
 30
0.0
 11
1989.175868390422
 21
940.0424707089404
 31
0.0
  0
LINE
  5
5F99
330
1F
100
AcDbEntity
  8
AM_VIS
100
AcDbLine
 10
1983.675868390422
 20
942.2924707089403
 30
0.0
 11
1984.675868390422
 21
942.2924707089403
 31
0.0
  0
LINE
  5
5F9A
330
1F
100
AcDbEntity
  8
AM_VIS
100
AcDbLine
 10
1983.675868390422
 20
957.7924707089405
 30
0.0
 11
1984.675868390422
 21
957.7924707089405
 31
0.0
  0
LINE
  5
5F9B
330
1F
100
AcDbEntity
  8
AM_VIS
100
AcDbLine
 10
1989.675868390422
 20
959.5424707089405
 30
0.0
 11
1989.175868390422
 21
960.0424707089404
 31
0.0
  0
LINE
  5
5F9C
330
1F
100
AcDbEntity
  8
AM_VIS
100
AcDbLine
 10
1984.675868390422
 20
940.5424707089403
 30
0.0
 11
1984.675868390422
 21
959.5424707089405
 31
0.0
  0
LINE
  5
5F9D
330
1F
100
AcDbEntity
  8
AM_VIS
100
AcDbLine
 10
1985.175868390422
 20
960.0424707089404
 30
0.0
 11
1985.175868390422
 21
940.0424707089404
 31
0.0
  0
LINE
  5
5F9E
330
1F
100
AcDbEntity
  8
AM_VIS
100
AcDbLine
 10
1989.175868390422
 20
940.0424707089404
 30
0.0
 11
1989.175868390422
 21
945.6835717653998
 31
0.0
  0
LINE
  5
5F9F
330
1F
100
AcDbEntity
  8
AM_VIS
100
AcDbLine
 10
1986.675868390422
 20
954.401369652481
 30
0.0
 11
1986.675868390422
 21
945.6835717653998
 31
0.0
  0
LINE
  5
5FA0
330
1F
100
AcDbEntity
  8
AM_VIS
100
AcDbLine
 10
1989.175868390422
 20
954.401369652481
 30
0.0
 11
1989.175868390422
 21
960.0424707089404
 31
0.0
  0
LINE
  5
5FA1
330
1F
100
AcDbEntity
  8
AM_VIS
100
AcDbLine
 10
1989.675868390422
 20
947.0010894437914
 30
0.0
 11
1989.675868390422
 21
940.5424707089403
 31
0.0
  0
LINE
  5
5FA2
330
1F
100
AcDbEntity
  8
AM_VIS
100
AcDbLine
 10
1989.675868390422
 20
959.5424707089405
 30
0.0
 11
1989.675868390422
 21
953.0838519740894
 31
0.0
  0
SPLINE
  5
5FA3
330
1F
100
AcDbEntity
  8
AM_VIS
100
AcDbSpline
210
0.0
220
0.0
230
1.0
 70
    12
 71
     2
 72
     6
 73
     3
 74
     0
 42
0.0000000001
 43
0.0000000001
 40
0.0
 40
0.0
 40
0.0
 40
1.40965427070945
 40
1.40965427070945
 40
1.40965427070945
 10
2026.675868390422
 20
947.0010894437914
 30
0.0
 41
1.0
 10
2026.470377437419
 20
946.3592218568827
 30
0.0
 41
1.002290359892311
 10
2026.175868390422
 20
945.6835717653998
 30
0.0
 41
1.0
  0
SPLINE
  5
5FA4
330
1F
100
AcDbEntity
  8
AM_VIS
100
AcDbSpline
210
0.0
220
0.0
230
1.0
 70
    12
 71
     2
 72
     6
 73
     3
 74
     0
 42
0.0000000001
 43
0.0000000001
 40
0.0
 40
0.0
 40
0.0
 40
1.40965427070945
 40
1.40965427070945
 40
1.40965427070945
 10
2026.175868390422
 20
954.401369652481
 30
0.0
 41
1.0
 10
2026.470377437419
 20
953.7257195609983
 30
0.0
 41
1.002290359892311
 10
2026.675868390422
 20
953.0838519740896
 30
0.0
 41
1.0
  0
SPLINE
  5
5FA5
330
1F
100
AcDbEntity
  8
AM_VIS
100
AcDbSpline
210
0.0
220
0.0
230
1.0
 70
     8
 71
     3
 72
    39
 73
    35
 74
     0
 42
0.0000000001
 43
0.0000000001
 40
9.309682716481177
 40
9.309682716481177
 40
9.309682716481177
 40
9.309682716481177
 40
9.7019240466558
 40
9.7019240466558
 40
10.09416537683042
 40
10.09416537683042
 40
10.48640670700504
 40
10.48640670700504
 40
10.87864803717967
 40
10.87864803717967
 40
11.26221360004514
 40
11.26221360004514
 40
11.64577916291062
 40
11.64577916291062
 40
12.02934472577609
 40
12.02934472577609
 40
12.41291028864157
 40
12.41291028864157
 40
12.41291028864157
 40
12.79647585150704
 40
12.79647585150704
 40
13.18004141437252
 40
13.18004141437252
 40
13.56360697723799
 40
13.56360697723799
 40
13.94717254010347
 40
13.94717254010347
 40
14.33941387027809
 40
14.33941387027809
 40
14.73165520045271
 40
14.73165520045271
 40
15.12389653062734
 40
15.12389653062734
 40
15.51613786080196
 40
15.51613786080196
 40
15.51613786080196
 40
15.51613786080196
 10
1991.525868390422
 20
950.0424707089404
 30
0.0
 10
1991.525868390422
 20
950.1732178189985
 30
0.0
 10
1991.540599775064
 20
950.3074392668981
 30
0.0
 10
1991.601253832663
 20
950.5720718806346
 30
0.0
 10
1991.647156830049
 20
950.7024879877313
 30
0.0
 10
1991.766634401572
 20
950.9500146176163
 30
0.0
 10
1991.84031927635
 20
951.067383293652
 30
0.0
 10
1992.008107528306
 20
951.2819362784906
 30
0.0
 10
1992.102214408635
 20
951.3791209269488
 30
0.0
 10
1992.297460404747
 20
951.5469694137378
 30
0.0
 10
1992.40508854943
 20
951.6239555202641
 30
0.0
 10
1992.636696866673
 20
951.7586905015155
 30
0.0
 10
1992.760671470598
 20
951.81645227391
 30
0.0
 10
1993.017207558737
 20
951.908751436486
 30
0.0
 10
1993.149929885944
 20
951.943346039734
 30
0.0
 10
1993.415331854261
 20
951.9885594295017
 30
0.0
 10
1993.5480132028
 20
951.9991690181026
 30
0.0
 10
1993.675868390422
 20
951.9991690181026
 30
0.0
 10
1993.803723578043
 20
951.9991690181026
 30
0.0
 10
1993.936404926582
 20
951.9885594295017
 30
0.0
 10
1994.201806894899
 20
951.943346039734
 30
0.0
 10
1994.334529222106
 20
951.908751436486
 30
0.0
 10
1994.591065310245
 20
951.81645227391
 30
0.0
 10
1994.71503991417
 20
951.7586905015155
 30
0.0
 10
1994.946648231413
 20
951.6239555202641
 30
0.0
 10
1995.054276376096
 20
951.5469694137378
 30
0.0
 10
1995.249522372208
 20
951.3791209269488
 30
0.0
 10
1995.343629252537
 20
951.2819362784906
 30
0.0
 10
1995.511417504493
 20
951.067383293652
 30
0.0
 10
1995.585102379271
 20
950.9500146176163
 30
0.0
 10
1995.704579950794
 20
950.7024879877313
 30
0.0
 10
1995.75048294818
 20
950.5720718806346
 30
0.0
 10
1995.81113700578
 20
950.3074392668981
 30
0.0
 10
1995.825868390421
 20
950.1732178189985
 30
0.0
 10
1995.825868390421
 20
950.0424707089404
 30
0.0
  0
SPLINE
  5
5FA6
330
1F
100
AcDbEntity
  8
AM_VIS
100
AcDbSpline
210
0.0
220
0.0
230
1.0
 70
     8
 71
     3
 72
    38
 73
    34
 74
     0
 42
0.0000000001
 43
0.0000000001
 40
3.10322757216039
 40
3.10322757216039
 40
3.10322757216039
 40
3.10322757216039
 40
3.495468902335012
 40
3.495468902335012
 40
3.887710232509634
 40
3.887710232509634
 40
4.279951562684257
 40
4.279951562684257
 40
4.672192892858879
 40
4.672192892858879
 40
5.055758455724355
 40
5.055758455724355
 40
5.439324018589831
 40
5.439324018589831
 40
5.822889581455308
 40
5.822889581455308
 40
6.206455144320784
 40
6.206455144320784
 40
6.590020707186258
 40
6.590020707186258
 40
6.973586270051733
 40
6.973586270051733
 40
7.357151832917208
 40
7.357151832917208
 40
7.740717395782683
 40
7.740717395782683
 40
8.132958725957305
 40
8.132958725957305
 40
8.525200056131929
 40
8.525200056131929
 40
8.917441386306553
 40
8.917441386306553
 40
9.309682716481177
 40
9.309682716481177
 40
9.309682716481177
 40
9.309682716481177
 10
1995.825868390421
 20
950.0424707089404
 30
0.0
 10
1995.825868390421
 20
949.9117235988821
 30
0.0
 10
1995.81113700578
 20
949.7775021509825
 30
0.0
 10
1995.75048294818
 20
949.5128695372461
 30
0.0
 10
1995.704579950794
 20
949.3824534301495
 30
0.0
 10
1995.585102379271
 20
949.1349268002647
 30
0.0
 10
1995.511417504493
 20
949.0175581242288
 30
0.0
 10
1995.343629252537
 20
948.8030051393902
 30
0.0
 10
1995.249522372208
 20
948.705820490932
 30
0.0
 10
1995.054276376096
 20
948.537972004143
 30
0.0
 10
1994.946648231413
 20
948.4609858976169
 30
0.0
 10
1994.71503991417
 20
948.3262509163653
 30
0.0
 10
1994.591065310245
 20
948.2684891439708
 30
0.0
 10
1994.334529222106
 20
948.1761899813948
 30
0.0
 10
1994.201806894899
 20
948.1415953781468
 30
0.0
 10
1993.936404926582
 20
948.0963819883791
 30
0.0
 10
1993.803723578043
 20
948.0857723997782
 30
0.0
 10
1993.5480132028
 20
948.0857723997782
 30
0.0
 10
1993.415331854261
 20
948.0963819883791
 30
0.0
 10
1993.149929885944
 20
948.1415953781468
 30
0.0
 10
1993.017207558737
 20
948.1761899813948
 30
0.0
 10
1992.760671470598
 20
948.2684891439708
 30
0.0
 10
1992.636696866673
 20
948.3262509163653
 30
0.0
 10
1992.40508854943
 20
948.4609858976169
 30
0.0
 10
1992.297460404747
 20
948.537972004143
 30
0.0
 10
1992.102214408635
 20
948.705820490932
 30
0.0
 10
1992.008107528306
 20
948.8030051393902
 30
0.0
 10
1991.84031927635
 20
949.0175581242288
 30
0.0
 10
1991.766634401572
 20
949.1349268002647
 30
0.0
 10
1991.647156830049
 20
949.3824534301495
 30
0.0
 10
1991.601253832663
 20
949.5128695372461
 30
0.0
 10
1991.540599775064
 20
949.7775021509825
 30
0.0
 10
1991.525868390422
 20
949.9117235988821
 30
0.0
 10
1991.525868390422
 20
950.0424707089404
 30
0.0
  0
LINE
  5
5FA7
330
1F
100
AcDbEntity
  8
AM_VIS
100
AcDbLine
 10
2016.675868390422
 20
954.401369652481
 30
0.0
 11
2026.175868390422
 21
954.401369652481
 31
0.0
  0
LINE
  5
5FA8
330
1F
100
AcDbEntity
  8
AM_VIS
100
AcDbLine
 10
2026.175868390422
 20
945.6835717653998
 30
0.0
 11
2016.675868390422
 21
945.6835717653998
 31
0.0
  0
LINE
  5
5FA9
330
1F
100
AcDbEntity
  8
AM_VIS
100
AcDbLine
 10
2026.675868390422
 20
953.0838519740896
 30
0.0
 11
2026.675868390422
 21
947.0010894437914
 31
0.0
  0
LINE
  5
5FAA
330
1F
100
AcDbEntity
  8
AM_VIS
100
AcDbLine
 10
1989.675868390422
 20
940.5424707089403
 30
0.0
 11
1990.175868390422
 21
940.0424707089404
 31
0.0
  0
LINE
  5
5FAB
330
1F
100
AcDbEntity
  8
AM_VIS
100
AcDbLine
 10
1989.675868390422
 20
959.5424707089405
 30
0.0
 11
1990.175868390422
 21
960.0424707089404
 31
0.0
  0
LINE
  5
5FAC
330
1F
100
AcDbEntity
  8
AM_VIS
100
AcDbLine
 10
2026.675868390422
 20
940.5424707089403
 30
0.0
 11
2026.175868390422
 21
940.0424707089404
 31
0.0
  0
LINE
  5
5FAD
330
1F
100
AcDbEntity
  8
AM_VIS
100
AcDbLine
 10
2026.675868390422
 20
959.5424707089405
 30
0.0
 11
2026.175868390422
 21
960.0424707089404
 31
0.0
  0
LINE
  5
5FAE
102
{ACAD_REACTORS
330
6ADA
102
}
330
1F
100
AcDbEntity
  8
AM_VIS
100
AcDbLine
 10
2026.175868390422
 20
960.0424707089404
 30
0.0
 11
1990.175868390422
 21
960.0424707089404
 31
0.0
  0
LINE
  5
5FAF
102
{ACAD_REACTORS
330
6ADA
102
}
330
1F
100
AcDbEntity
  8
AM_VIS
100
AcDbLine
 10
2026.175868390422
 20
940.0424707089404
 30
0.0
 11
1990.175868390422
 21
940.0424707089404
 31
0.0
  0
LINE
  5
5FB0
330
1F
100
AcDbEntity
  8
AM_VIS
100
AcDbLine
 10
1989.675868390422
 20
940.5424707089403
 30
0.0
 11
1989.675868390422
 21
959.5424707089405
 31
0.0
  0
LINE
  5
5FB1
330
1F
100
AcDbEntity
  8
AM_VIS
100
AcDbLine
 10
1990.175868390422
 20
960.0424707089404
 30
0.0
 11
1990.175868390422
 21
940.0424707089404
 31
0.0
  0
LINE
  5
5FB2
330
1F
100
AcDbEntity
  8
AM_VIS
100
AcDbLine
 10
2026.175868390422
 20
954.401369652481
 30
0.0
 11
2026.175868390422
 21
960.0424707089404
 31
0.0
  0
LINE
  5
5FB3
330
1F
100
AcDbEntity
  8
AM_VIS
100
AcDbLine
 10
2016.675868390422
 20
954.401369652481
 30
0.0
 11
2016.675868390422
 21
945.6835717653998
 31
0.0
  0
LINE
  5
5FB4
330
1F
100
AcDbEntity
  8
AM_VIS
100
AcDbLine
 10
2026.175868390422
 20
940.0424707089404
 30
0.0
 11
2026.175868390422
 21
945.6835717653998
 31
0.0
  0
LINE
  5
5FB5
330
1F
100
AcDbEntity
  8
AM_VIS
100
AcDbLine
 10
2026.675868390422
 20
947.0010894437914
 30
0.0
 11
2026.675868390422
 21
940.5424707089403
 31
0.0
  0
LINE
  5
5FB6
330
1F
100
AcDbEntity
  8
AM_VIS
100
AcDbLine
 10
2026.675868390422
 20
959.5424707089405
 30
0.0
 11
2026.675868390422
 21
953.0838519740896
 31
0.0
  0
LINE
  5
5FB7
330
1F
100
AcDbEntity
  8
AM_VIS
100
AcDbLine
 10
1868.958130896194
 20
959.2800750159744
 30
0.0
 11
1865.393605884649
 21
959.2800750159744
 31
0.0
  0
LINE
  5
5FB8
330
1F
100
AcDbEntity
  8
AM_VIS
100
AcDbLine
 10
1868.958130896194
 20
940.8048664019064
 30
0.0
 11
1865.393605884649
 21
940.8048664019064
 31
0.0
  0
SPLINE
  5
5FB9
330
1F
100
AcDbEntity
  8
AM_VIS
100
AcDbSpline
210
0.0
220
-0.0000000000000001
230
1.0
 70
    12
 71
     2
 72
     6
 73
     3
 74
     0
 42
0.0000000001
 43
0.0000000001
 40
0.04335498382688
 40
0.04335498382688
 40
0.04335498382688
 40
18.75380792267474
 40
18.75380792267474
 40
18.75380792267474
 10
1865.393605884649
 20
968.5176793230077
 30
0.0
 41
1.000719107640783
 10
1862.726939217981
 20
963.8988771694902
 30
0.0000000000000009
 41
1.155530892359261
 10
1865.393605884649
 20
959.2800750159744
 30
-0.0000000000000009
 41
1.000719107640684
  0
SPLINE
  5
5FBA
330
1F
100
AcDbEntity
  8
AM_VIS
100
AcDbSpline
210
0.0
220
0.0
230
1.0
 70
    12
 71
     2
 72
     6
 73
     3
 74
     0
 42
0.0000000001
 43
0.0000000001
 40
0.0433549838268166
 40
0.0433549838268166
 40
0.0433549838268166
 40
18.75380792267466
 40
18.75380792267466
 40
18.75380792267466
 10
1865.393605884649
 20
959.2800750159744
 30
0.0
 41
1.000719107640782
 10
1862.726939217982
 20
950.0424707089379
 30
0.0000000000000009
 41
1.155530892359266
 10
1865.393605884649
 20
940.8048664019064
 30
0.0
 41
1.000719107640683
  0
SPLINE
  5
5FBB
330
1F
100
AcDbEntity
  8
AM_VIS
100
AcDbSpline
210
0.0
220
0.0
230
1.0
 70
    12
 71
     2
 72
     6
 73
     3
 74
     0
 42
0.0000000001
 43
0.0000000001
 40
0.0433549838267995
 40
0.0433549838267995
 40
0.0433549838267995
 40
18.75380792267464
 40
18.75380792267464
 40
18.75380792267464
 10
1865.393605884649
 20
940.8048664019064
 30
0.0
 41
1.000719107640782
 10
1862.726939217982
 20
936.1860642483883
 30
0.0
 41
1.155530892359267
 10
1865.393605884649
 20
931.5672620948724
 30
0.0
 41
1.000719107640684
  0
LINE
  5
5FBC
330
1F
100
AcDbEntity
  8
AM_VIS
100
AcDbLine
 10
1868.958130896194
 20
931.5672620948724
 30
0.0
 11
1865.393605884649
 21
931.5672620948724
 31
0.0
  0
LINE
  5
5FBD
330
1F
100
AcDbEntity
  8
AM_VIS
100
AcDbLine
 10
1868.958130896194
 20
968.5176793230084
 30
0.0
 11
1865.393605884649
 21
968.5176793230084
 31
0.0
  0
SPLINE
  5
5FBE
330
1F
100
AcDbEntity
  8
AM_VIS
100
AcDbSpline
210
0.0
220
0.0
230
1.0
 70
    12
 71
     2
 72
     6
 73
     3
 74
     0
 42
0.0000000001
 43
0.0000000001
 40
0.0433549838267954
 40
0.0433549838267954
 40
0.0433549838267954
 40
18.75380792267463
 40
18.75380792267463
 40
18.75380792267463
 10
1868.958130896194
 20
940.8048664019064
 30
0.0
 41
1.000719107640782
 10
1871.624797562862
 20
950.0424707089431
 30
0.0
 41
1.155530892359261
 10
1868.958130896194
 20
959.2800750159744
 30
-0.0000000000000009
 41
1.000719107640684
  0
SPLINE
  5
5FBF
330
1F
100
AcDbEntity
  8
AM_VIS
100
AcDbSpline
210
0.0
220
0.0
230
1.0
 70
    12
 71
     2
 72
     6
 73
     3
 74
     0
 42
0.0000000001
 43
0.0000000001
 40
0.0433549838268208
 40
0.0433549838268208
 40
0.0433549838268208
 40
18.75380792267467
 40
18.75380792267467
 40
18.75380792267467
 10
1868.958130896193
 20
959.2800750159744
 30
0.0
 41
1.000719107640783
 10
1871.624797562861
 20
963.8988771694927
 30
0.0
 41
1.155530892359268
 10
1868.958130896194
 20
968.5176793230084
 30
0.0
 41
1.000719107640685
  0
SPLINE
  5
5FC0
330
1F
100
AcDbEntity
  8
AM_VIS
100
AcDbSpline
210
0.0
220
0.0000000000000001
230
1.0
 70
    12
 71
     2
 72
     6
 73
     3
 74
     0
 42
0.0000000001
 43
0.0000000001
 40
0.0433549838268479
 40
0.0433549838268479
 40
0.0433549838268479
 40
18.75380792267469
 40
18.75380792267469
 40
18.75380792267469
 10
1868.958130896194
 20
931.5672620948724
 30
0.0
 41
1.000719107640783
 10
1871.624797562862
 20
936.1860642483907
 30
0.0
 41
1.155530892359264
 10
1868.958130896194
 20
940.8048664019064
 30
-0.0000000000000009
 41
1.000719107640684
  0
LINE
  5
5FC1
330
1F
100
AcDbEntity
  8
AM_VIS
100
AcDbLine
 10
1863.675868390422
 20
934.5424707089405
 30
0.0
 11
1865.393605884649
 21
931.5672620948724
 31
0.0
  0
LINE
  5
5FC2
330
1F
100
AcDbEntity
  8
AM_VIS
100
AcDbLine
 10
1863.675868390422
 20
965.5424707089403
 30
0.0
 11
1865.393605884649
 21
968.5176793230084
 31
0.0
  0
LINE
  5
5FC3
330
1F
100
AcDbEntity
  8
AM_VIS
100
AcDbLine
 10
1870.675868390422
 20
965.5424707089403
 30
0.0
 11
1868.958130896194
 21
968.5176793230084
 31
0.0
  0
LINE
  5
5FC4
330
1F
100
AcDbEntity
  8
AM_VIS
100
AcDbLine
 10
1870.675868390422
 20
934.5424707089405
 30
0.0
 11
1868.958130896194
 21
931.5672620948724
 31
0.0
  0
LINE
  5
5FC5
330
1F
100
AcDbEntity
  8
AM_VIS
100
AcDbLine
 10
1863.675868390422
 20
965.5424707089403
 30
0.0
 11
1863.675868390422
 21
934.5424707089405
 31
0.0
  0
LINE
  5
5FC6
330
1F
100
AcDbEntity
  8
AM_VIS
100
AcDbLine
 10
1870.675868390422
 20
934.5424707089405
 30
0.0
 11
1870.675868390422
 21
965.5424707089403
 31
0.0
  0
LINE
  5
5FC7
330
1F
100
AcDbEntity
  8
AM_VIS
100
AcDbLine
 10
2032.961337210605
 20
958.0424707089404
 30
0.0
 11
2030.390399570238
 21
958.0424707089404
 31
0.0
  0
SPLINE
  5
5FC8
330
1F
100
AcDbEntity
  8
AM_VIS
100
AcDbSpline
210
0.0000000000000045
220
-0.0000000000000011
230
1.0
 70
    12
 71
     2
 72
     6
 73
     3
 74
     0
 42
0.0000000001
 43
0.0000000001
 40
7.414878650672741
 40
7.414878650672741
 40
7.414878650672741
 40
13.3055821981879
 40
13.3055821981879
 40
13.3055821981879
 10
2032.961337210606
 20
950.0424707089404
 30
-0.0000000000000009
 41
1.097249461754511
 10
2033.675868390422
 20
952.186064248394
 30
0.0
 41
1.087254341444063
 10
2033.675868390422
 20
954.0424707089403
 30
0.0
 41
1.0
  0
SPLINE
  5
5FC9
330
1F
100
AcDbEntity
  8
AM_VIS
100
AcDbSpline
210
0.0
220
0.0
230
1.0
 70
    12
 71
     2
 72
     6
 73
     3
 74
     0
 42
0.0000000001
 43
0.0000000001
 40
13.3055821981879
 40
13.3055821981879
 40
13.3055821981879
 40
19.19628574570309
 40
19.19628574570309
 40
19.19628574570309
 10
2033.675868390422
 20
954.0424707089403
 30
0.0
 41
1.0
 10
2033.675868390422
 20
955.898877169487
 30
0.0
 41
1.087254341444061
 10
2032.961337210606
 20
958.0424707089406
 30
0.0
 41
1.097249461754509
  0
LINE
  5
5FCA
330
1F
100
AcDbEntity
  8
AM_VIS
100
AcDbLine
 10
2032.961337210605
 20
958.0424707089404
 30
0.0
 11
2033.675868390422
 21
958.0424707089404
 31
0.0
  0
LINE
  5
5FCB
330
1F
100
AcDbEntity
  8
AM_VIS
100
AcDbLine
 10
2032.961337210605
 20
942.0424707089404
 30
0.0
 11
2033.675868390422
 21
942.0424707089404
 31
0.0
  0
LINE
  5
5FCC
330
1F
100
AcDbEntity
  8
AM_VIS
100
AcDbLine
 10
2032.961337210605
 20
950.0424707089404
 30
0.0
 11
2030.390399570238
 21
950.0424707089404
 31
0.0
  0
SPLINE
  5
5FCD
330
1F
100
AcDbEntity
  8
AM_VIS
100
AcDbSpline
210
0.0
220
0.0
230
1.0
 70
    12
 71
     2
 72
     6
 73
     3
 74
     0
 42
0.0000000001
 43
0.0000000001
 40
13.3055821981879
 40
13.3055821981879
 40
13.3055821981879
 40
19.19628574570308
 40
19.19628574570308
 40
19.19628574570308
 10
2033.675868390422
 20
946.0424707089403
 30
0.0
 41
1.0
 10
2033.675868390421
 20
947.8988771694869
 30
0.0
 41
1.087254341444067
 10
2032.961337210606
 20
950.0424707089406
 30
0.0
 41
1.097249461754516
  0
SPLINE
  5
5FCE
330
1F
100
AcDbEntity
  8
AM_VIS
100
AcDbSpline
210
0.0
220
0.0
230
1.0
 70
    12
 71
     2
 72
     6
 73
     3
 74
     0
 42
0.0000000001
 43
0.0000000001
 40
7.414878650672704
 40
7.414878650672704
 40
7.414878650672704
 40
13.3055821981879
 40
13.3055821981879
 40
13.3055821981879
 10
2032.961337210605
 20
942.0424707089402
 30
0.0
 41
1.097249461754516
 10
2033.675868390422
 20
944.1860642483938
 30
-0.0000000000000009
 41
1.087254341444067
 10
2033.675868390422
 20
946.0424707089403
 30
0.0
 41
1.0
  0
LINE
  5
5FCF
330
1F
100
AcDbEntity
  8
AM_VIS
100
AcDbLine
 10
2032.961337210605
 20
942.0424707089404
 30
0.0
 11
2030.390399570238
 21
942.0424707089404
 31
0.0
  0
LINE
  5
5FD0
330
1F
100
AcDbEntity
  8
AM_VIS
100
AcDbLine
 10
2029.675868390422
 20
942.0424707089404
 30
0.0
 11
2030.390399570238
 21
942.0424707089404
 31
0.0
  0
SPLINE
  5
5FD1
330
1F
100
AcDbEntity
  8
AM_VIS
100
AcDbSpline
210
0.0
220
0.0
230
1.0
 70
    12
 71
     2
 72
     6
 73
     3
 74
     0
 42
0.0000000001
 43
0.0000000001
 40
13.30558219818791
 40
13.30558219818791
 40
13.30558219818791
 40
19.19628574570309
 40
19.19628574570309
 40
19.19628574570309
 10
2029.675868390422
 20
946.0424707089403
 30
0.0
 41
1.0
 10
2029.675868390422
 20
944.1860642483938
 30
0.0
 41
1.087254341444065
 10
2030.390399570238
 20
942.0424707089406
 30
0.0
 41
1.097249461754513
  0
SPLINE
  5
5FD2
330
1F
100
AcDbEntity
  8
AM_VIS
100
AcDbSpline
210
0.0
220
0.0
230
1.0
 70
    12
 71
     2
 72
     6
 73
     3
 74
     0
 42
0.0000000001
 43
0.0000000001
 40
13.3055821981879
 40
13.3055821981879
 40
13.3055821981879
 40
19.19628574570306
 40
19.19628574570306
 40
19.19628574570306
 10
2029.675868390422
 20
954.0424707089403
 30
0.0
 41
1.0
 10
2029.675868390421
 20
952.1860642483936
 30
0.0
 41
1.087254341444064
 10
2030.390399570237
 20
950.0424707089404
 30
0.0
 41
1.097249461754512
  0
SPLINE
  5
5FD3
330
1F
100
AcDbEntity
  8
AM_VIS
100
AcDbSpline
210
0.0
220
0.0
230
1.0
 70
    12
 71
     2
 72
     6
 73
     3
 74
     0
 42
0.0000000001
 43
0.0000000001
 40
7.414878650672745
 40
7.414878650672745
 40
7.414878650672745
 40
13.30558219818791
 40
13.30558219818791
 40
13.30558219818791
 10
2030.390399570237
 20
950.0424707089404
 30
0.0
 41
1.097249461754512
 10
2029.675868390421
 20
947.898877169487
 30
0.0
 41
1.087254341444064
 10
2029.675868390422
 20
946.0424707089403
 30
0.0
 41
1.0
  0
LINE
  5
5FD4
330
1F
100
AcDbEntity
  8
AM_VIS
100
AcDbLine
 10
2029.675868390422
 20
958.0424707089404
 30
0.0
 11
2030.390399570238
 21
958.0424707089404
 31
0.0
  0
SPLINE
  5
5FD5
330
1F
100
AcDbEntity
  8
AM_VIS
100
AcDbSpline
210
0.0
220
0.0
230
1.0
 70
    12
 71
     2
 72
     6
 73
     3
 74
     0
 42
0.0000000001
 43
0.0000000001
 40
7.414878650672709
 40
7.414878650672709
 40
7.414878650672709
 40
13.3055821981879
 40
13.3055821981879
 40
13.3055821981879
 10
2030.390399570237
 20
958.0424707089404
 30
0.0
 41
1.097249461754512
 10
2029.675868390421
 20
955.898877169487
 30
-0.0000000000000009
 41
1.087254341444063
 10
2029.675868390422
 20
954.0424707089403
 30
0.0
 41
1.0
  0
LINE
  5
5FD6
330
1F
100
AcDbEntity
  8
AM_VIS
100
AcDbLine
 10
2026.675868390422
 20
943.6737222706446
 30
0.0
 11
2029.675868390422
 21
943.6424707089404
 31
0.0
  0
LINE
  5
5FD7
330
1F
100
AcDbEntity
  8
AM_VIS
100
AcDbLine
 10
2026.675868390422
 20
956.4112191472363
 30
0.0
 11
2029.675868390422
 21
956.4424707089404
 31
0.0
  0
LINE
  5
5FD8
330
1F
100
AcDbEntity
  8
AM_VIS
100
AcDbLine
 10
2050.738246676576
 20
955.1010720660556
 30
0.0
 11
2035.675868390422
 21
956.0424707089405
 31
0.0
  0
LINE
  5
5FD9
330
1F
100
AcDbEntity
  8
AM_VIS
100
AcDbLine
 10
2050.738246676576
 20
944.983869351825
 30
0.0
 11
2035.675868390422
 21
944.0424707089404
 31
0.0
  0
LINE
  5
5FDA
330
1F
100
AcDbEntity
  8
AM_VIS
100
AcDbLine
 10
2033.675868390422
 20
943.0424707089404
 30
0.0
 11
2035.175868390422
 21
943.0424707089404
 31
0.0
  0
LINE
  5
5FDB
330
1F
100
AcDbEntity
  8
AM_VIS
100
AcDbLine
 10
2033.675868390422
 20
957.0424707089404
 30
0.0
 11
2035.175868390422
 21
957.0424707089404
 31
0.0
  0
LINE
  5
5FDC
330
1F
100
AcDbEntity
  8
AM_VIS
100
AcDbLine
 10
2033.675868390422
 20
946.0424707089403
 30
0.0
 11
2033.675868390422
 21
954.0424707089403
 31
0.0
  0
LINE
  5
5FDD
330
1F
100
AcDbEntity
  8
AM_VIS
100
AcDbLine
 10
2033.675868390422
 20
942.0424707089404
 30
0.0
 11
2033.675868390422
 21
946.0424707089403
 31
0.0
  0
LINE
  5
5FDE
330
1F
100
AcDbEntity
  8
AM_VIS
100
AcDbLine
 10
2033.675868390422
 20
954.0424707089403
 30
0.0
 11
2033.675868390422
 21
958.0424707089404
 31
0.0
  0
LINE
  5
5FDF
330
1F
100
AcDbEntity
  8
AM_VIS
100
AcDbLine
 10
2029.675868390422
 20
946.0424707089403
 30
0.0
 11
2029.675868390422
 21
942.0424707089404
 31
0.0
  0
LINE
  5
5FE0
330
1F
100
AcDbEntity
  8
AM_VIS
100
AcDbLine
 10
2029.675868390422
 20
954.0424707089403
 30
0.0
 11
2029.675868390422
 21
946.0424707089403
 31
0.0
  0
LINE
  5
5FE1
330
1F
100
AcDbEntity
  8
AM_VIS
100
AcDbLine
 10
2029.675868390422
 20
958.0424707089404
 30
0.0
 11
2029.675868390422
 21
954.0424707089403
 31
0.0
  0
LINE
  5
5FE2
102
{ACAD_REACTORS
330
6C0F
102
}
330
1F
100
AcDbEntity
  8
AM_VIS
100
AcDbLine
 10
2051.675868390422
 20
954.1030194875729
 30
0.0
 11
2051.675868390422
 21
945.9819219303081
 31
0.0
  0
LINE
  5
5FE3
330
1F
100
AcDbEntity
  8
AM_VIS
100
AcDbLine
 10
2035.675868390422
 20
956.5424707089404
 30
0.0
 11
2035.675868390422
 21
943.5424707089405
 31
0.0
  0
ARC
  5
5FE4
102
{ACAD_REACTORS
330
6BE5
102
}
330
1F
100
AcDbEntity
  8
AM_VIS
100
AcDbCircle
 10
2050.675868390422
 20
945.9819219303081
 30
0.0
 40
1.0
100
AcDbArc
 50
273.5763343750047
 51
0.0
  0
ARC
  5
5FE5
330
1F
100
AcDbEntity
  8
AM_VIS
100
AcDbCircle
 10
2050.675868390422
 20
954.1030194875729
 30
0.0
 40
1.0
100
AcDbArc
 50
0.0
 51
86.42366562499534
  0
ARC
  5
5FE6
330
1F
100
AcDbEntity
  8
AM_VIS
100
AcDbCircle
 10
2035.175868390422
 20
943.5424707089405
 30
0.0
 40
0.5
100
AcDbArc
 50
270.0
 51
0.0
  0
ARC
  5
5FE7
330
1F
100
AcDbEntity
  8
AM_VIS
100
AcDbCircle
 10
2035.175868390422
 20
956.5424707089404
 30
0.0
 40
0.5
100
AcDbArc
 50
0.0
 51
90.0
  0
LINE
  5
5FE8
330
1F
100
AcDbEntity
  8
AM_VIS
100
AcDbLine
 10
1994.566971703309
 20
950.7772903369863
 30
0.0
 11
1993.485047581778
 21
951.1815986293202
 31
0.0
  0
LINE
  5
5FE9
330
1F
100
AcDbEntity
  8
AM_VIS
100
AcDbLine
 10
1993.485047581778
 20
951.1815986293202
 30
0.0
 11
1992.593944268891
 21
950.4467790012744
 31
0.0
  0
LINE
  5
5FEA
330
1F
100
AcDbEntity
  8
AM_VIS
100
AcDbLine
 10
1992.593944268891
 20
950.4467790012744
 30
0.0
 11
1992.784765077534
 21
949.3076510808945
 31
0.0
  0
LINE
  5
5FEB
330
1F
100
AcDbEntity
  8
AM_VIS
100
AcDbLine
 10
1992.784765077534
 20
949.3076510808945
 30
0.0
 11
1993.866689199065
 21
948.9033427885606
 31
0.0
  0
LINE
  5
5FEC
330
1F
100
AcDbEntity
  8
AM_VIS
100
AcDbLine
 10
1993.866689199065
 20
948.9033427885606
 30
0.0
 11
1994.757792511952
 21
949.6381624166065
 31
0.0
  0
LINE
  5
5FED
330
1F
100
AcDbEntity
  8
AM_VIS
100
AcDbLine
 10
1994.757792511952
 20
949.6381624166065
 30
0.0
 11
1994.566971703309
 21
950.7772903369863
 31
0.0
  0
CIRCLE
  5
5FEE
330
1F
100
AcDbEntity
  8
AM_VIS
100
AcDbCircle
 10
1993.675868390422
 20
950.0424707089404
 30
0.0
 40
1.570585000000051
  0
LINE
  5
5FEF
330
1F
100
AcDbEntity
  8
AM_VIS
100
AcDbLine
 10
1898.675868390421
 20
846.1924707089403
 30
0.0
 11
1898.675868390421
 21
881.1924707089403
 31
0.0
  0
LINE
  5
5FF0
102
{ACAD_REACTORS
330
6A0B
102
}
330
1F
100
AcDbEntity
  8
AM_VIS
100
AcDbLine
 10
1898.675868390421
 20
846.1924707089403
 30
0.0
 11
1874.675868390422
 21
846.1924707089403
 31
0.0
  0
LINE
  5
5FF1
330
1F
100
AcDbEntity
  8
AM_VIS
100
AcDbLine
 10
1874.675868390422
 20
881.1924707089403
 30
0.0
 11
1874.675868390422
 21
846.1924707089403
 31
0.0
  0
LINE
  5
5FF2
330
1F
100
AcDbEntity
  8
AM_VIS
100
AcDbLine
 10
1898.675868390421
 20
881.1924707089403
 30
0.0
 11
1874.675868390422
 21
881.1924707089403
 31
0.0
  0
LINE
  5
5FF3
330
1F
100
AcDbEntity
  8
AM_VIS
100
AcDbLine
 10
1872.675868390422
 20
852.6924707089403
 30
0.0
 11
1874.675868390422
 21
852.6924707089403
 31
0.0
  0
LINE
  5
5FF4
330
1F
100
AcDbEntity
  8
AM_VIS
100
AcDbLine
 10
1872.675868390422
 20
874.6924707089403
 30
0.0
 11
1874.675868390422
 21
874.6924707089403
 31
0.0
  0
LINE
  5
5FF5
330
1F
100
AcDbEntity
  8
AM_VIS
100
AcDbLine
 10
1862.675868390422
 20
851.6924707089403
 30
0.0
 11
1863.675868390421
 21
851.6924707089403
 31
0.0
  0
LINE
  5
5FF6
330
1F
100
AcDbEntity
  8
AM_VIS
100
AcDbLine
 10
1870.675868390422
 20
851.6924707089403
 30
0.0
 11
1872.675868390422
 21
851.6924707089403
 31
0.0
  0
LINE
  5
5FF7
102
{ACAD_REACTORS
330
6EFE
102
}
330
1F
100
AcDbEntity
  8
AM_VIS
100
AcDbLine
 10
1862.675868390422
 20
875.6924707089403
 30
0.0
 11
1863.675868390422
 21
875.6924707089403
 31
0.0
  0
LINE
  5
5FF8
330
1F
100
AcDbEntity
  8
AM_VIS
100
AcDbLine
 10
1870.675868390422
 20
875.6924707089403
 30
0.0
 11
1872.675868390422
 21
875.6924707089403
 31
0.0
  0
LINE
  5
5FF9
330
1F
100
AcDbEntity
  8
AM_VIS
100
AcDbLine
 10
1861.675868390422
 20
852.6924707089403
 30
0.0
 11
1862.675868390422
 21
851.6924707089403
 31
0.0
  0
LINE
  5
5FFA
330
1F
100
AcDbEntity
  8
AM_VIS
100
AcDbLine
 10
1861.675868390422
 20
874.6924707089403
 30
0.0
 11
1862.675868390422
 21
875.6924707089403
 31
0.0
  0
LINE
  5
5FFB
330
1F
100
AcDbEntity
  8
AM_VIS
100
AcDbLine
 10
1872.675868390422
 20
851.6924707089403
 30
0.0
 11
1872.675868390422
 21
875.6924707089403
 31
0.0
  0
LINE
  5
5FFC
330
1F
100
AcDbEntity
  8
AM_VIS
100
AcDbLine
 10
1862.675868390422
 20
851.6924707089403
 30
0.0
 11
1862.675868390422
 21
875.6924707089403
 31
0.0
  0
LINE
  5
5FFD
330
1F
100
AcDbEntity
  8
AM_VIS
100
AcDbLine
 10
1861.675868390422
 20
852.6924707089403
 30
0.0
 11
1861.675868390422
 21
874.6924707089403
 31
0.0
  0
CIRCLE
  5
5FFE
330
1F
100
AcDbEntity
  8
AM_VIS
100
AcDbCircle
 10
1893.675868390422
 20
851.6924707089403
 30
0.0
 40
2.25
  0
CIRCLE
  5
5FFF
102
{ACAD_REACTORS
330
6F2F
102
}
330
1F
100
AcDbEntity
  8
AM_VIS
100
AcDbCircle
 10
1893.675868390422
 20
875.6924707089403
 30
0.0
 40
2.25
  0
LINE
  5
6000
330
1F
100
AcDbEntity
  8
AM_VIS
100
AcDbLine
 10
1859.675868390422
 20
872.1924707089403
 30
0.0
 11
1854.675868390422
 21
872.1924707089403
 31
0.0
  0
LINE
  5
6001
330
1F
100
AcDbEntity
  8
AM_VIS
100
AcDbLine
 10
1853.675868390421
 20
872.1924707089403
 30
0.0
 11
1854.675868390422
 21
872.1924707089403
 31
0.0
  0
LINE
  5
6002
330
1F
100
AcDbEntity
  8
AM_VIS
100
AcDbLine
 10
1853.675868390421
 20
855.1924707089403
 30
0.0
 11
1854.675868390422
 21
855.1924707089403
 31
0.0
  0
LINE
  5
6003
330
1F
100
AcDbEntity
  8
AM_VIS
100
AcDbLine
 10
1854.675868390422
 20
855.1924707089403
 30
0.0
 11
1859.675868390422
 21
855.1924707089403
 31
0.0
  0
LINE
  5
6004
330
1F
100
AcDbEntity
  8
AM_VIS
100
AcDbLine
 10
1859.675868390422
 20
853.6924707089404
 30
0.0
 11
1861.675868390422
 21
853.6924707089404
 31
0.0
  0
LINE
  5
6005
330
1F
100
AcDbEntity
  8
AM_VIS
100
AcDbLine
 10
1859.675868390422
 20
873.6924707089404
 30
0.0
 11
1861.675868390422
 21
873.6924707089404
 31
0.0
  0
LINE
  5
6006
330
1F
100
AcDbEntity
  8
AM_VIS
100
AcDbLine
 10
1859.675868390422
 20
872.1924707089403
 30
0.0
 11
1859.675868390422
 21
873.6924707089404
 31
0.0
  0
LINE
  5
6007
330
1F
100
AcDbEntity
  8
AM_VIS
100
AcDbLine
 10
1854.675868390422
 20
872.1924707089403
 30
0.0
 11
1854.675868390422
 21
855.1924707089403
 31
0.0
  0
LINE
  5
6008
330
1F
100
AcDbEntity
  8
AM_VIS
100
AcDbLine
 10
1853.675868390421
 20
855.1924707089403
 30
0.0
 11
1853.675868390421
 21
872.1924707089403
 31
0.0
  0
LINE
  5
6009
330
1F
100
AcDbEntity
  8
AM_VIS
100
AcDbLine
 10
1859.675868390422
 20
853.6924707089404
 30
0.0
 11
1859.675868390422
 21
855.1924707089403
 31
0.0
  0
LINE
  5
600A
330
1F
100
AcDbEntity
  8
AM_VIS
100
AcDbLine
 10
1983.375868390422
 20
873.6924707089404
 30
0.0
 11
1898.675868390421
 21
873.6924707089404
 31
0.0
  0
LINE
  5
600B
330
1F
100
AcDbEntity
  8
AM_VIS
100
AcDbLine
 10
1983.375868390422
 20
853.6924707089404
 30
0.0
 11
1898.675868390421
 21
853.6924707089404
 31
0.0
  0
LINE
  5
600C
330
1F
100
AcDbEntity
  8
AM_VIS
100
AcDbLine
 10
1983.675868390422
 20
873.3924707089403
 30
0.0
 11
1983.375868390422
 21
873.6924707089404
 31
0.0
  0
LINE
  5
600D
330
1F
100
AcDbEntity
  8
AM_VIS
100
AcDbLine
 10
1983.675868390422
 20
853.9924707089404
 30
0.0
 11
1983.375868390422
 21
853.6924707089404
 31
0.0
  0
LINE
  5
600E
330
1F
100
AcDbEntity
  8
AM_VIS
100
AcDbLine
 10
1983.375868390422
 20
853.6924707089404
 30
0.0
 11
1983.375868390422
 21
873.6924707089404
 31
0.0
  0
LINE
  5
600F
330
1F
100
AcDbEntity
  8
AM_VIS
100
AcDbLine
 10
1983.675868390422
 20
873.3924707089403
 30
0.0
 11
1983.675868390422
 21
853.9924707089404
 31
0.0
  0
LINE
  5
6010
330
1F
100
AcDbEntity
  8
AM_VIS
100
AcDbLine
 10
1989.175868390422
 20
872.6924707089404
 30
0.0
 11
1989.675868390422
 21
872.6924707089404
 31
0.0
  0
LINE
  5
6011
330
1F
100
AcDbEntity
  8
AM_VIS
100
AcDbLine
 10
1989.175868390422
 20
872.6924707089404
 30
0.0
 11
1986.675868390422
 21
872.6924707089404
 31
0.0
  0
LINE
  5
6012
330
1F
100
AcDbEntity
  8
AM_VIS
100
AcDbLine
 10
1986.675868390422
 20
854.6924707089404
 30
0.0
 11
1989.175868390422
 21
854.6924707089404
 31
0.0
  0
LINE
  5
6013
330
1F
100
AcDbEntity
  8
AM_VIS
100
AcDbLine
 10
1989.175868390422
 20
854.6924707089404
 30
0.0
 11
1989.675868390422
 21
854.6924707089404
 31
0.0
  0
LINE
  5
6014
330
1F
100
AcDbEntity
  8
AM_VIS
100
AcDbLine
 10
1984.675868390422
 20
854.1924707089403
 30
0.0
 11
1985.175868390422
 21
853.6924707089404
 31
0.0
  0
LINE
  5
6015
330
1F
100
AcDbEntity
  8
AM_VIS
100
AcDbLine
 10
1984.675868390422
 20
873.1924707089403
 30
0.0
 11
1985.175868390422
 21
873.6924707089404
 31
0.0
  0
LINE
  5
6016
330
1F
100
AcDbEntity
  8
AM_VIS
100
AcDbLine
 10
1985.175868390422
 20
853.6924707089404
 30
0.0
 11
1986.675868390422
 21
853.6924707089404
 31
0.0
  0
LINE
  5
6017
330
1F
100
AcDbEntity
  8
AM_VIS
100
AcDbLine
 10
1985.175868390422
 20
873.6924707089404
 30
0.0
 11
1986.675868390422
 21
873.6924707089404
 31
0.0
  0
LINE
  5
6018
330
1F
100
AcDbEntity
  8
AM_VIS
100
AcDbLine
 10
1983.675868390422
 20
855.9424707089403
 30
0.0
 11
1984.675868390422
 21
855.9424707089403
 31
0.0
  0
LINE
  5
6019
330
1F
100
AcDbEntity
  8
AM_VIS
100
AcDbLine
 10
1983.675868390422
 20
871.4424707089404
 30
0.0
 11
1984.675868390422
 21
871.4424707089404
 31
0.0
  0
LINE
  5
601A
330
1F
100
AcDbEntity
  8
AM_VIS
100
AcDbLine
 10
1984.675868390422
 20
854.1924707089403
 30
0.0
 11
1984.675868390422
 21
873.1924707089403
 31
0.0
  0
LINE
  5
601B
330
1F
100
AcDbEntity
  8
AM_VIS
100
AcDbLine
 10
1985.175868390422
 20
873.6924707089404
 30
0.0
 11
1985.175868390422
 21
853.6924707089404
 31
0.0
  0
LINE
  5
601C
330
1F
100
AcDbEntity
  8
AM_VIS
100
AcDbLine
 10
1989.175868390422
 20
854.6924707089404
 30
0.0
 11
1989.175868390422
 21
872.6924707089404
 31
0.0
  0
LINE
  5
601D
330
1F
100
AcDbEntity
  8
AM_VIS
100
AcDbLine
 10
1986.675868390422
 20
873.6924707089404
 30
0.0
 11
1986.675868390422
 21
872.6924707089404
 31
0.0
  0
LINE
  5
601E
330
1F
100
AcDbEntity
  8
AM_VIS
100
AcDbLine
 10
1989.675868390422
 20
872.6924707089404
 30
0.0
 11
1989.675868390422
 21
854.6924707089404
 31
0.0
  0
LINE
  5
601F
330
1F
100
AcDbEntity
  8
AM_VIS
100
AcDbLine
 10
1986.675868390422
 20
854.6924707089404
 30
0.0
 11
1986.675868390422
 21
853.6924707089404
 31
0.0
  0
LINE
  5
6020
330
1F
100
AcDbEntity
  8
AM_VIS
100
AcDbLine
 10
2026.175868390422
 20
872.6924707089404
 30
0.0
 11
2026.675868390422
 21
872.6924707089404
 31
0.0
  0
LINE
  5
6021
330
1F
100
AcDbEntity
  8
AM_VIS
100
AcDbLine
 10
2014.675868390422
 20
853.6924707089404
 30
0.0
 11
2013.175868390422
 21
855.1924707089403
 31
0.0
  0
LINE
  5
6022
330
1F
100
AcDbEntity
  8
AM_VIS
100
AcDbLine
 10
1998.175868390422
 20
855.1924707089403
 30
0.0
 11
2013.175868390422
 21
855.1924707089403
 31
0.0
  0
LINE
  5
6023
330
1F
100
AcDbEntity
  8
AM_VIS
100
AcDbLine
 10
1998.175868390422
 20
855.1924707089403
 30
0.0
 11
1996.675868390422
 21
853.6924707089404
 31
0.0
  0
ARC
  5
6024
330
1F
100
AcDbEntity
  8
AM_VIS
100
AcDbCircle
 10
1993.675868390421
 20
841.8324232451976
 30
0.0
 40
12.05334915458086
100
AcDbArc
 50
79.72495560594319
 51
100.2750443940568
  0
ARC
  5
6025
330
1F
100
AcDbEntity
  8
AM_VIS
100
AcDbCircle
 10
1993.675868390422
 20
885.5525181726834
 30
0.0
 40
12.05334915458089
100
AcDbArc
 50
259.7249556059432
 51
280.2750443940568
  0
LINE
  5
6026
330
1F
100
AcDbEntity
  8
AM_VIS
100
AcDbLine
 10
2026.175868390422
 20
872.6924707089404
 30
0.0
 11
2016.675868390422
 21
872.6924707089404
 31
0.0
  0
LINE
  5
6027
330
1F
100
AcDbEntity
  8
AM_VIS
100
AcDbLine
 10
2026.175868390422
 20
854.6924707089404
 30
0.0
 11
2026.675868390422
 21
854.6924707089404
 31
0.0
  0
LINE
  5
6028
330
1F
100
AcDbEntity
  8
AM_VIS
100
AcDbLine
 10
2016.675868390422
 20
854.6924707089404
 30
0.0
 11
2026.175868390422
 21
854.6924707089404
 31
0.0
  0
LINE
  5
6029
330
1F
100
AcDbEntity
  8
AM_VIS
100
AcDbLine
 10
1989.675868390422
 20
854.1924707089403
 30
0.0
 11
1990.175868390422
 21
853.6924707089404
 31
0.0
  0
LINE
  5
602A
330
1F
100
AcDbEntity
  8
AM_VIS
100
AcDbLine
 10
1989.675868390422
 20
873.1924707089403
 30
0.0
 11
1990.175868390422
 21
873.6924707089404
 31
0.0
  0
LINE
  5
602B
330
1F
100
AcDbEntity
  8
AM_VIS
100
AcDbLine
 10
1991.525868390422
 20
873.6924707089404
 30
0.0
 11
1990.175868390422
 21
873.6924707089404
 31
0.0
  0
LINE
  5
602C
330
1F
100
AcDbEntity
  8
AM_VIS
100
AcDbLine
 10
2016.675868390422
 20
873.6924707089404
 30
0.0
 11
1995.825868390421
 21
873.6924707089404
 31
0.0
  0
LINE
  5
602D
330
1F
100
AcDbEntity
  8
AM_VIS
100
AcDbLine
 10
1991.525868390422
 20
853.6924707089404
 30
0.0
 11
1990.175868390422
 21
853.6924707089404
 31
0.0
  0
LINE
  5
602E
330
1F
100
AcDbEntity
  8
AM_VIS
100
AcDbLine
 10
1996.675868390422
 20
853.6924707089404
 30
0.0
 11
1995.825868390421
 21
853.6924707089404
 31
0.0
  0
LINE
  5
602F
330
1F
100
AcDbEntity
  8
AM_VIS
100
AcDbLine
 10
2016.675868390422
 20
853.6924707089404
 30
0.0
 11
2014.675868390422
 21
853.6924707089404
 31
0.0
  0
LINE
  5
6030
330
1F
100
AcDbEntity
  8
AM_VIS
100
AcDbLine
 10
1989.675868390422
 20
854.1924707089403
 30
0.0
 11
1989.675868390422
 21
873.1924707089403
 31
0.0
  0
LINE
  5
6031
330
1F
100
AcDbEntity
  8
AM_VIS
100
AcDbLine
 10
1990.175868390422
 20
873.6924707089404
 30
0.0
 11
1990.175868390422
 21
853.6924707089404
 31
0.0
  0
LINE
  5
6032
330
1F
100
AcDbEntity
  8
AM_VIS
100
AcDbLine
 10
2016.675868390422
 20
873.6924707089404
 30
0.0
 11
2016.675868390422
 21
872.6924707089404
 31
0.0
  0
LINE
  5
6033
330
1F
100
AcDbEntity
  8
AM_VIS
100
AcDbLine
 10
2026.175868390422
 20
854.6924707089404
 30
0.0
 11
2026.175868390422
 21
872.6924707089404
 31
0.0
  0
LINE
  5
6034
330
1F
100
AcDbEntity
  8
AM_VIS
100
AcDbLine
 10
2016.675868390422
 20
854.6924707089404
 30
0.0
 11
2016.675868390422
 21
853.6924707089404
 31
0.0
  0
LINE
  5
6035
330
1F
100
AcDbEntity
  8
AM_VIS
100
AcDbLine
 10
2026.675868390422
 20
872.6924707089404
 30
0.0
 11
2026.675868390422
 21
854.6924707089404
 31
0.0
  0
LINE
  5
611B
330
1F
100
AcDbEntity
  8
AM_VIS
100
AcDbLine
 10
2001.275868390422
 20
847.1924707089403
 30
0.0
 11
2001.275868390422
 21
846.8924707089405
 31
0.0
  0
LINE
  5
611C
330
1F
100
AcDbEntity
  8
AM_VIS
100
AcDbLine
 10
2010.075868390422
 20
847.1924707089403
 30
0.0
 11
2010.075868390422
 21
846.8924707089405
 31
0.0
  0
LINE
  5
611D
330
1F
100
AcDbEntity
  8
AM_VIS
100
AcDbLine
 10
2000.675868390422
 20
855.1924707089403
 30
0.0
 11
2000.675868390422
 21
853.1924707089403
 31
0.0
  0
LINE
  5
611E
330
1F
100
AcDbEntity
  8
AM_VIS
100
AcDbLine
 10
2000.675868390422
 20
848.1924707089403
 30
0.0
 11
2000.675868390422
 21
847.1924707089403
 31
0.0
  0
LINE
  5
611F
330
1F
100
AcDbEntity
  8
AM_VIS
100
AcDbLine
 10
2010.675868390422
 20
855.1924707089403
 30
0.0
 11
2010.675868390422
 21
853.1924707089403
 31
0.0
  0
LINE
  5
6120
330
1F
100
AcDbEntity
  8
AM_VIS
100
AcDbLine
 10
2010.675868390422
 20
848.1924707089403
 30
0.0
 11
2010.675868390422
 21
847.1924707089405
 31
0.0
  0
LINE
  5
6123
330
1F
100
AcDbEntity
  8
AM_VIS
100
AcDbLine
 10
1999.175868390422
 20
846.8924707089405
 30
0.0
 11
1998.675868390422
 21
846.3924707089404
 31
0.0
  0
LINE
  5
6124
330
1F
100
AcDbEntity
  8
AM_VIS
100
AcDbLine
 10
2012.175868390422
 20
846.8924707089405
 30
0.0
 11
2012.675868390422
 21
846.3924707089404
 31
0.0
  0
LINE
  5
6125
330
1F
100
AcDbEntity
  8
AM_VIS
100
AcDbLine
 10
2000.675868390422
 20
847.1924707089403
 30
0.0
 11
2010.675868390422
 21
847.1924707089403
 31
0.0
  0
LINE
  5
616F
330
1F
100
AcDbEntity
  8
AM_VIS
100
AcDbLine
 10
1999.175868390422
 20
846.8924707089405
 30
0.0
 11
2012.175868390422
 21
846.8924707089405
 31
0.0
  0
LINE
  5
6253
330
1F
100
AcDbEntity
  8
AM_VIS
100
AcDbLine
 10
1999.175868390422
 20
853.1924707089403
 30
0.0
 11
1998.675868390422
 21
852.6924707089403
 31
0.0
  0
LINE
  5
6254
330
1F
100
AcDbEntity
  8
AM_VIS
100
AcDbLine
 10
2012.175868390422
 20
853.1924707089403
 30
0.0
 11
2012.675868390422
 21
852.6924707089403
 31
0.0
  0
LINE
  5
6255
330
1F
100
AcDbEntity
  8
AM_VIS
100
AcDbLine
 10
2012.675868390422
 20
848.6924707089404
 30
0.0
 11
2012.675868390422
 21
852.6924707089403
 31
0.0
  0
LINE
  5
6256
330
1F
100
AcDbEntity
  8
AM_VIS
100
AcDbLine
 10
1998.675868390422
 20
848.6924707089404
 30
0.0
 11
1998.675868390422
 21
852.6924707089403
 31
0.0
  0
LINE
  5
6257
330
1F
100
AcDbEntity
  8
AM_VIS
100
AcDbLine
 10
2012.175868390422
 20
848.1924707089403
 30
0.0
 11
2012.675868390422
 21
848.6924707089404
 31
0.0
  0
LINE
  5
6258
330
1F
100
AcDbEntity
  8
AM_VIS
100
AcDbLine
 10
1999.175868390422
 20
848.1924707089403
 30
0.0
 11
1998.675868390422
 21
848.6924707089404
 31
0.0
  0
LINE
  5
6259
330
1F
100
AcDbEntity
  8
AM_VIS
100
AcDbLine
 10
1999.175868390422
 20
853.1924707089403
 30
0.0
 11
2012.175868390422
 21
853.1924707089403
 31
0.0
  0
LINE
  5
62A2
330
1F
100
AcDbEntity
  8
AM_VIS
100
AcDbLine
 10
2012.175868390422
 20
848.1924707089403
 30
0.0
 11
1999.175868390422
 21
848.1924707089403
 31
0.0
  0
LINE
  5
62A3
330
1F
100
AcDbEntity
  8
AM_VIS
100
AcDbLine
 10
1868.958130896194
 20
879.6924707089404
 30
0.0
 11
1865.393605884649
 21
879.6924707089404
 31
0.0
  0
LINE
  5
62A4
330
1F
100
AcDbEntity
  8
AM_VIS
100
AcDbLine
 10
1863.964543525016
 20
879.6924707089404
 30
0.0
 11
1865.393605884649
 21
879.6924707089404
 31
0.0
  0
SPLINE
  5
62A5
330
1F
100
AcDbEntity
  8
AM_VIS
100
AcDbSpline
210
0.0
220
0.0
230
1.0
 70
    12
 71
     2
 72
     6
 73
     3
 74
     0
 42
0.0000000001
 43
0.0000000001
 40
0.0433549838267995
 40
0.0433549838267995
 40
0.0433549838267995
 40
18.75380792267464
 40
18.75380792267464
 40
18.75380792267464
 10
1865.393605884649
 20
879.6924707089404
 30
0.0
 41
1.000719107640782
 10
1862.726939217982
 20
871.6924707089384
 30
0.0
 41
1.155530892359267
 10
1865.393605884649
 20
863.6924707089404
 30
0.0
 41
1.000719107640684
  0
SPLINE
  5
62A6
330
1F
100
AcDbEntity
  8
AM_VIS
100
AcDbSpline
210
0.0
220
0.0
230
1.0
 70
    12
 71
     2
 72
     6
 73
     3
 74
     0
 42
0.0000000001
 43
0.0000000001
 40
0.0433549838268429
 40
0.0433549838268429
 40
0.0433549838268429
 40
18.7538079226747
 40
18.7538079226747
 40
18.7538079226747
 10
1865.393605884649
 20
863.6924707089404
 30
0.0
 41
1.000719107640783
 10
1862.726939217981
 20
855.6924707089383
 30
0.0
 41
1.155530892359265
 10
1865.393605884649
 20
847.6924707089404
 30
0.0
 41
1.000719107640684
  0
LINE
  5
62A8
330
1F
100
AcDbEntity
  8
AM_VIS
100
AcDbLine
 10
1863.964543525016
 20
847.6924707089404
 30
0.0
 11
1865.393605884649
 21
847.6924707089404
 31
0.0
  0
LINE
  5
62A9
330
1F
100
AcDbEntity
  8
AM_VIS
100
AcDbLine
 10
1868.958130896194
 20
847.6924707089404
 30
0.0
 11
1865.393605884649
 21
847.6924707089404
 31
0.0
  0
LINE
  5
62AA
330
1F
100
AcDbEntity
  8
AM_VIS
100
AcDbLine
 10
1868.958130896194
 20
879.6924707089404
 30
0.0
 11
1870.387193255827
 21
879.6924707089404
 31
0.0
  0
LINE
  5
62AB
330
1F
100
AcDbEntity
  8
AM_VIS
100
AcDbLine
 10
1868.958130896194
 20
847.6924707089404
 30
0.0
 11
1870.387193255827
 21
847.6924707089404
 31
0.0
  0
SPLINE
  5
62AC
330
1F
100
AcDbEntity
  8
AM_VIS
100
AcDbSpline
210
0.0
220
0.0
230
1.0
 70
    12
 71
     2
 72
     6
 73
     3
 74
     0
 42
0.0000000001
 43
0.0000000001
 40
0.0433549838268362
 40
0.0433549838268362
 40
0.0433549838268362
 40
18.75380792267469
 40
18.75380792267469
 40
18.75380792267469
 10
1868.958130896194
 20
847.6924707089404
 30
0.0
 41
1.000719107640783
 10
1871.624797562861
 20
855.6924707089427
 30
0.0
 41
1.155530892359262
 10
1868.958130896194
 20
863.6924707089404
 30
0.0
 41
1.000719107640684
  0
SPLINE
  5
62AD
330
1F
100
AcDbEntity
  8
AM_VIS
100
AcDbSpline
210
0.0
220
0.0
230
1.0
 70
    12
 71
     2
 72
     6
 73
     3
 74
     0
 42
0.0000000001
 43
0.0000000001
 40
0.0433549838268479
 40
0.0433549838268479
 40
0.0433549838268479
 40
18.75380792267469
 40
18.75380792267469
 40
18.75380792267469
 10
1868.958130896194
 20
863.6924707089404
 30
0.0
 41
1.000719107640783
 10
1871.624797562862
 20
871.6924707089429
 30
0.0
 41
1.155530892359264
 10
1868.958130896194
 20
879.6924707089404
 30
0.0
 41
1.000719107640684
  0
LINE
  5
62AE
330
1F
100
AcDbEntity
  8
AM_VIS
100
AcDbLine
 10
1863.675868390422
 20
848.1924707089403
 30
0.0
 11
1863.964543525016
 21
847.6924707089406
 31
0.0
  0
LINE
  5
62AF
330
1F
100
AcDbEntity
  8
AM_VIS
100
AcDbLine
 10
1863.675868390422
 20
879.1924707089403
 30
0.0
 11
1863.964543525016
 21
879.6924707089402
 31
0.0
  0
LINE
  5
62B0
330
1F
100
AcDbEntity
  8
AM_VIS
100
AcDbLine
 10
1870.675868390422
 20
879.1924707089403
 30
0.0
 11
1870.387193255827
 21
879.6924707089402
 31
0.0
  0
LINE
  5
62B1
330
1F
100
AcDbEntity
  8
AM_VIS
100
AcDbLine
 10
1870.675868390422
 20
848.1924707089403
 30
0.0
 11
1870.387193255827
 21
847.6924707089406
 31
0.0
  0
LINE
  5
62B2
102
{ACAD_REACTORS
330
69DD
102
}
330
1F
100
AcDbEntity
  8
AM_VIS
100
AcDbLine
 10
1863.675868390422
 20
879.1924707089403
 30
0.0
 11
1863.675868390422
 21
848.1924707089403
 31
0.0
  0
LINE
  5
62B3
102
{ACAD_REACTORS
330
69DD
102
}
330
1F
100
AcDbEntity
  8
AM_VIS
100
AcDbLine
 10
1870.675868390422
 20
848.1924707089403
 30
0.0
 11
1870.675868390422
 21
879.1924707089403
 31
0.0
  0
SPLINE
  5
62B4
330
1F
100
AcDbEntity
  8
AM_VIS
100
AcDbSpline
210
0.0
220
0.0
230
1.0
 70
    12
 71
     2
 72
     6
 73
     3
 74
     0
 42
0.0000000001
 43
0.0000000001
 40
13.30558219818789
 40
13.30558219818789
 40
13.30558219818789
 40
19.19628574570308
 40
19.19628574570308
 40
19.19628574570308
 10
2031.675868390422
 20
856.7642674786648
 30
0.0
 41
1.0
 10
2031.675868390422
 20
857.8360642483868
 30
0.0
 41
1.087254341444062
 10
2030.961337210606
 20
859.0736685554238
 30
0.0
 41
1.097249461754511
  0
SPLINE
  5
62B5
330
1F
100
AcDbEntity
  8
AM_VIS
100
AcDbSpline
210
0.0000000000000363
220
-0.0000000000000146
230
1.0
 70
    12
 71
     2
 72
     6
 73
     3
 74
     0
 42
0.0000000001
 43
0.0000000001
 40
7.414878650672716
 40
7.414878650672716
 40
7.414878650672716
 40
13.30558219818789
 40
13.30558219818789
 40
13.30558219818789
 10
2030.961337210606
 20
854.4548664019064
 30
-0.0000000000000071
 41
1.09724946175451
 10
2031.675868390422
 20
855.692470708943
 30
0.0
 41
1.087254341444062
 10
2031.675868390422
 20
856.7642674786648
 30
0.0
 41
1.0
  0
LINE
  5
62B6
330
1F
100
AcDbEntity
  8
AM_VIS
100
AcDbLine
 10
2030.961337210605
 20
854.4548664019064
 30
0.0
 11
2028.390399570238
 21
854.4548664019064
 31
0.0
  0
SPLINE
  5
62B7
330
1F
100
AcDbEntity
  8
AM_VIS
100
AcDbSpline
210
0.0
220
0.0
230
1.0
 70
    12
 71
     2
 72
     6
 73
     3
 74
     0
 42
0.0000000001
 43
0.0000000001
 40
13.30558219818789
 40
13.30558219818789
 40
13.30558219818789
 40
19.19628574570308
 40
19.19628574570308
 40
19.19628574570308
 10
2031.675868390422
 20
863.6924707089404
 30
0.0
 41
1.0
 10
2031.675868390422
 20
865.8360642483843
 30
0.0
 41
1.087254341444063
 10
2030.961337210606
 20
868.3112728624575
 30
0.0
 41
1.097249461754512
  0
SPLINE
  5
62B8
330
1F
100
AcDbEntity
  8
AM_VIS
100
AcDbSpline
210
0.0
220
0.0
230
1.0
 70
    12
 71
     2
 72
     6
 73
     3
 74
     0
 42
0.0000000001
 43
0.0000000001
 40
7.414878650672701
 40
7.414878650672701
 40
7.414878650672701
 40
13.30558219818789
 40
13.30558219818789
 40
13.30558219818789
 10
2030.961337210606
 20
859.0736685554233
 30
0.0
 41
1.097249461754512
 10
2031.675868390422
 20
861.5488771694966
 30
0.0
 41
1.087254341444063
 10
2031.675868390422
 20
863.6924707089404
 30
0.0
 41
1.0
  0
LINE
  5
62B9
330
1F
100
AcDbEntity
  8
AM_VIS
100
AcDbLine
 10
2030.961337210605
 20
859.0736685554233
 30
0.0
 11
2028.390399570238
 21
859.0736685554233
 31
0.0
  0
LINE
  5
62BA
330
1F
100
AcDbEntity
  8
AM_VIS
100
AcDbLine
 10
2030.961337210605
 20
872.9300750159744
 30
0.0
 11
2028.390399570238
 21
872.9300750159744
 31
0.0
  0
SPLINE
  5
62BB
330
1F
100
AcDbEntity
  8
AM_VIS
100
AcDbSpline
210
0.0000000000000017
220
0.0000000000000007
230
1.0
 70
    12
 71
     2
 72
     6
 73
     3
 74
     0
 42
0.0000000001
 43
0.0000000001
 40
13.3055821981879
 40
13.3055821981879
 40
13.3055821981879
 40
19.19628574570308
 40
19.19628574570308
 40
19.19628574570308
 10
2031.675868390422
 20
870.6206739392159
 30
0.0
 41
1.0
 10
2031.675868390422
 20
871.6924707089377
 30
0.0000000000000071
 41
1.087254341444067
 10
2030.961337210606
 20
872.9300750159744
 30
0.0
 41
1.097249461754516
  0
SPLINE
  5
62BC
330
1F
100
AcDbEntity
  8
AM_VIS
100
AcDbSpline
210
0.0
220
0.0
230
1.0
 70
    12
 71
     2
 72
     6
 73
     3
 74
     0
 42
0.0000000001
 43
0.0000000001
 40
7.414878650672704
 40
7.414878650672704
 40
7.414878650672704
 40
13.3055821981879
 40
13.3055821981879
 40
13.3055821981879
 10
2030.961337210605
 20
868.3112728624575
 30
0.0
 41
1.097249461754516
 10
2031.675868390422
 20
869.548877169494
 30
0.0
 41
1.087254341444067
 10
2031.675868390422
 20
870.6206739392159
 30
0.0
 41
1.0
  0
LINE
  5
62BD
330
1F
100
AcDbEntity
  8
AM_VIS
100
AcDbLine
 10
2030.961337210605
 20
868.3112728624575
 30
0.0
 11
2028.390399570238
 21
868.3112728624575
 31
0.0
  0
SPLINE
  5
62BE
330
1F
100
AcDbEntity
  8
AM_VIS
100
AcDbSpline
210
0.0
220
0.0
230
1.0
 70
    12
 71
     2
 72
     6
 73
     3
 74
     0
 42
0.0000000001
 43
0.0000000001
 40
13.3055821981879
 40
13.3055821981879
 40
13.3055821981879
 40
19.19628574570308
 40
19.19628574570308
 40
19.19628574570308
 10
2027.675868390422
 20
856.7642674786648
 30
0.0
 41
1.0
 10
2027.675868390421
 20
855.6924707089427
 30
0.0
 41
1.087254341444062
 10
2028.390399570238
 20
854.4548664019064
 30
0.0
 41
1.09724946175451
  0
SPLINE
  5
62BF
330
1F
100
AcDbEntity
  8
AM_VIS
100
AcDbSpline
210
0.0
220
0.0
230
1.0
 70
    12
 71
     2
 72
     6
 73
     3
 74
     0
 42
0.0000000001
 43
0.0000000001
 40
7.414878650672714
 40
7.414878650672714
 40
7.414878650672714
 40
13.3055821981879
 40
13.3055821981879
 40
13.3055821981879
 10
2028.390399570239
 20
859.0736685554238
 30
0.0
 41
1.097249461754511
 10
2027.675868390422
 20
857.8360642483868
 30
0.0
 41
1.087254341444062
 10
2027.675868390422
 20
856.7642674786648
 30
0.0
 41
1.0
  0
SPLINE
  5
62C0
330
1F
100
AcDbEntity
  8
AM_VIS
100
AcDbSpline
210
-0.0000000000000363
220
-0.0000000000000073
230
1.0
 70
    12
 71
     2
 72
     6
 73
     3
 74
     0
 42
0.0000000001
 43
0.0000000001
 40
13.30558219818791
 40
13.30558219818791
 40
13.30558219818791
 40
19.1962857457031
 40
19.1962857457031
 40
19.1962857457031
 10
2027.675868390422
 20
863.6924707089404
 30
0.0
 41
1.0
 10
2027.675868390422
 20
861.5488771694966
 30
0.0
 41
1.087254341444062
 10
2028.390399570239
 20
859.0736685554233
 30
-0.0000000000000071
 41
1.09724946175451
  0
SPLINE
  5
62C1
330
1F
100
AcDbEntity
  8
AM_VIS
100
AcDbSpline
210
-0.0000000000000363
220
0.0000000000000073
230
1.0
 70
    12
 71
     2
 72
     6
 73
     3
 74
     0
 42
0.0000000001
 43
0.0000000001
 40
7.414878650672724
 40
7.414878650672724
 40
7.414878650672724
 40
13.30558219818791
 40
13.30558219818791
 40
13.30558219818791
 10
2028.390399570239
 20
868.3112728624575
 30
-0.0000000000000071
 41
1.09724946175451
 10
2027.675868390422
 20
865.8360642483843
 30
0.0
 41
1.087254341444062
 10
2027.675868390422
 20
863.6924707089404
 30
0.0
 41
1.0
  0
SPLINE
  5
62C2
330
1F
100
AcDbEntity
  8
AM_VIS
100
AcDbSpline
210
0.0
220
0.0
230
1.0
 70
    12
 71
     2
 72
     6
 73
     3
 74
     0
 42
0.0000000001
 43
0.0000000001
 40
13.30558219818791
 40
13.30558219818791
 40
13.30558219818791
 40
19.19628574570309
 40
19.19628574570309
 40
19.19628574570309
 10
2027.675868390422
 20
870.6206739392159
 30
0.0
 41
1.0
 10
2027.675868390422
 20
869.548877169494
 30
0.0
 41
1.087254341444065
 10
2028.390399570239
 20
868.3112728624577
 30
0.0
 41
1.097249461754513
  0
SPLINE
  5
62C3
330
1F
100
AcDbEntity
  8
AM_VIS
100
AcDbSpline
210
0.0
220
0.0
230
1.0
 70
    12
 71
     2
 72
     6
 73
     3
 74
     0
 42
0.0000000001
 43
0.0000000001
 40
7.414878650672745
 40
7.414878650672745
 40
7.414878650672745
 40
13.30558219818791
 40
13.30558219818791
 40
13.30558219818791
 10
2028.390399570238
 20
872.9300750159744
 30
0.0
 41
1.097249461754512
 10
2027.675868390421
 20
871.6924707089379
 30
0.0
 41
1.087254341444064
 10
2027.675868390422
 20
870.6206739392159
 30
0.0
 41
1.0
  0
LINE
  5
62C4
330
1F
100
AcDbEntity
  8
AM_VIS
100
AcDbLine
 10
2031.675868390422
 20
871.6924707089404
 30
0.0
 11
2030.961337210605
 21
872.9300750159744
 31
0.0
  0
LINE
  5
62C5
330
1F
100
AcDbEntity
  8
AM_VIS
100
AcDbLine
 10
2031.675868390422
 20
855.6924707089406
 30
0.0
 11
2030.961337210605
 21
854.4548664019064
 31
0.0
  0
LINE
  5
62C6
330
1F
100
AcDbEntity
  8
AM_VIS
100
AcDbLine
 10
2027.675868390422
 20
855.6924707089404
 30
0.0
 11
2028.390399570238
 21
854.4548664019064
 31
0.0
  0
LINE
  5
62C7
330
1F
100
AcDbEntity
  8
AM_VIS
100
AcDbLine
 10
2027.675868390422
 20
871.6924707089404
 30
0.0
 11
2028.390399570238
 21
872.9300750159744
 31
0.0
  0
LINE
  5
62C8
330
1F
100
AcDbEntity
  8
AM_VIS
100
AcDbLine
 10
2026.675868390422
 20
857.3237222706445
 30
0.0
 11
2027.675868390422
 21
857.2924707089404
 31
0.0
  0
LINE
  5
62C9
330
1F
100
AcDbEntity
  8
AM_VIS
100
AcDbLine
 10
2026.675868390422
 20
870.0612191472362
 30
0.0
 11
2027.675868390422
 21
870.0924707089404
 31
0.0
  0
LINE
  5
62CA
330
1F
100
AcDbEntity
  8
AM_VIS
100
AcDbLine
 10
2048.738246676577
 20
868.7510720660556
 30
0.0
 11
2033.675868390422
 21
869.6924707089404
 31
0.0
  0
LINE
  5
62CB
330
1F
100
AcDbEntity
  8
AM_VIS
100
AcDbLine
 10
2048.738246676577
 20
858.6338693518252
 30
0.0
 11
2033.675868390422
 21
857.6924707089403
 31
0.0
  0
LINE
  5
62CC
330
1F
100
AcDbEntity
  8
AM_VIS
100
AcDbLine
 10
2031.675868390422
 20
856.6924707089404
 30
0.0
 11
2033.175868390422
 21
856.6924707089404
 31
0.0
  0
LINE
  5
62CD
330
1F
100
AcDbEntity
  8
AM_VIS
100
AcDbLine
 10
2031.675868390422
 20
870.6924707089404
 30
0.0
 11
2033.175868390422
 21
870.6924707089404
 31
0.0
  0
LINE
  5
62CE
330
1F
100
AcDbEntity
  8
AM_VIS
100
AcDbLine
 10
2031.675868390422
 20
870.6206739392159
 30
0.0
 11
2031.675868390422
 21
871.6924707089404
 31
0.0
  0
LINE
  5
62CF
330
1F
100
AcDbEntity
  8
AM_VIS
100
AcDbLine
 10
2031.675868390422
 20
863.6924707089404
 30
0.0
 11
2031.675868390422
 21
870.6206739392159
 31
0.0
  0
LINE
  5
62D0
330
1F
100
AcDbEntity
  8
AM_VIS
100
AcDbLine
 10
2031.675868390422
 20
856.7642674786648
 30
0.0
 11
2031.675868390422
 21
863.6924707089404
 31
0.0
  0
LINE
  5
62D1
330
1F
100
AcDbEntity
  8
AM_VIS
100
AcDbLine
 10
2031.675868390422
 20
855.6924707089404
 30
0.0
 11
2031.675868390422
 21
856.7642674786648
 31
0.0
  0
LINE
  5
62D2
330
1F
100
AcDbEntity
  8
AM_VIS
100
AcDbLine
 10
2027.675868390422
 20
856.7642674786648
 30
0.0
 11
2027.675868390422
 21
855.6924707089404
 31
0.0
  0
LINE
  5
62D3
330
1F
100
AcDbEntity
  8
AM_VIS
100
AcDbLine
 10
2027.675868390422
 20
863.6924707089404
 30
0.0
 11
2027.675868390422
 21
856.7642674786648
 31
0.0
  0
LINE
  5
62D4
330
1F
100
AcDbEntity
  8
AM_VIS
100
AcDbLine
 10
2027.675868390422
 20
870.6206739392159
 30
0.0
 11
2027.675868390422
 21
863.6924707089404
 31
0.0
  0
LINE
  5
62D5
330
1F
100
AcDbEntity
  8
AM_VIS
100
AcDbLine
 10
2027.675868390422
 20
871.6924707089404
 30
0.0
 11
2027.675868390422
 21
870.6206739392159
 31
0.0
  0
LINE
  5
62D6
330
1F
100
AcDbEntity
  8
AM_VIS
100
AcDbLine
 10
2049.675868390422
 20
867.7530194875728
 30
0.0
 11
2049.675868390422
 21
859.6319219303081
 31
0.0
  0
LINE
  5
62D7
330
1F
100
AcDbEntity
  8
AM_VIS
100
AcDbLine
 10
2033.675868390422
 20
870.1924707089403
 30
0.0
 11
2033.675868390422
 21
857.1924707089404
 31
0.0
  0
ARC
  5
62D8
330
1F
100
AcDbEntity
  8
AM_VIS
100
AcDbCircle
 10
2048.675868390422
 20
859.6319219303081
 30
0.0
 40
1.0
100
AcDbArc
 50
273.5763343750047
 51
0.0
  0
ARC
  5
62D9
330
1F
100
AcDbEntity
  8
AM_VIS
100
AcDbCircle
 10
2048.675868390422
 20
867.7530194875728
 30
0.0
 40
1.0
100
AcDbArc
 50
0.0
 51
86.42366562500834
  0
ARC
  5
62DA
330
1F
100
AcDbEntity
  8
AM_VIS
100
AcDbCircle
 10
2033.175868390422
 20
857.1924707089404
 30
0.0
 40
0.5
100
AcDbArc
 50
270.0
 51
0.0
  0
ARC
  5
62DB
330
1F
100
AcDbEntity
  8
AM_VIS
100
AcDbCircle
 10
2033.175868390422
 20
870.1924707089403
 30
0.0
 40
0.5
100
AcDbArc
 50
0.0
 51
90.0
  0
LINE
  5
62DD
330
1F
100
AcDbEntity
  8
AM_VIS
100
AcDbLine
 10
1992.105283390421
 20
853.6924707089404
 30
0.0
 11
1991.980039581221
 21
853.764780255897
 31
0.0
  0
LINE
  5
62DE
330
1F
100
AcDbEntity
  8
AM_VIS
100
AcDbLine
 10
1995.246453390421
 20
853.6924707089404
 30
0.0
 11
1992.105283390421
 21
853.6924707089404
 31
0.0
  0
LINE
  5
62DF
330
1F
100
AcDbEntity
  8
AM_VIS
100
AcDbLine
 10
1992.105283390421
 20
873.6924707089405
 30
0.0
 11
1991.98003958122
 21
873.6201611619838
 31
0.0
  0
LINE
  5
62E0
330
1F
100
AcDbEntity
  8
AM_VIS
100
AcDbLine
 10
1995.246453390421
 20
873.6924707089405
 30
0.0
 11
1995.371697199623
 21
873.6201611619838
 31
0.0
  0
LINE
  5
62E1
330
1F
100
AcDbEntity
  8
AM_VIS
100
AcDbLine
 10
1992.105283390421
 20
873.6924707089405
 30
0.0
 11
1995.246453390421
 21
873.6924707089405
 31
0.0
  0
LINE
  5
62E2
102
{ACAD_REACTORS
330
69A8
102
}
330
1F
100
AcDbEntity
  8
AM_VIS
100
AcDbLine
 10
1789.291174357716
 20
846.1924707089403
 30
0.0
 11
1789.291174357716
 21
857.6732328224736
 31
0.0
  0
LINE
  5
62E3
330
1F
100
AcDbEntity
  8
AM_VIS
100
AcDbLine
 10
1789.291174357716
 20
869.7117085954072
 30
0.0
 11
1789.291174357716
 21
881.1924707089403
 31
0.0
  0
LINE
  5
62E4
102
{ACAD_REACTORS
330
68F7
102
}
330
1F
100
AcDbEntity
  8
AM_VIS
100
AcDbLine
 10
1819.291174357717
 20
846.1924707089403
 30
0.0
 11
1789.291174357716
 21
846.1924707089403
 31
0.0
  0
LINE
  5
62E5
330
1F
100
AcDbEntity
  8
AM_VIS
100
AcDbLine
 10
1819.291174357717
 20
881.1924707089403
 30
0.0
 11
1819.291174357717
 21
869.7117085954074
 31
0.0
  0
LINE
  5
62E6
102
{ACAD_REACTORS
330
69A8
102
}
330
1F
100
AcDbEntity
  8
AM_VIS
100
AcDbLine
 10
1819.291174357717
 20
857.6732328224736
 30
0.0
 11
1819.291174357717
 21
846.1924707089403
 31
0.0
  0
LINE
  5
62E7
102
{ACAD_REACTORS
330
68F7
102
}
330
1F
100
AcDbEntity
  8
AM_VIS
100
AcDbLine
 10
1789.291174357716
 20
881.1924707089403
 30
0.0
 11
1819.291174357717
 21
881.1924707089403
 31
0.0
  0
CIRCLE
  5
62E9
330
1F
100
AcDbEntity
  8
AM_VIS
100
AcDbCircle
 10
1804.291174357716
 20
863.6924707089404
 30
0.0
 40
11.0
  0
CIRCLE
  5
62EA
330
1F
100
AcDbEntity
  8
AM_VIS
100
AcDbCircle
 10
1804.291174357716
 20
863.6924707089404
 30
0.0
 40
3.399999999999999
  0
CIRCLE
  5
62EB
330
1F
100
AcDbEntity
  8
AM_VIS
100
AcDbCircle
 10
1804.291174357716
 20
863.6924707089404
 30
0.0
 40
2.25
  0
CIRCLE
  5
62EC
330
1F
100
AcDbEntity
  8
AM_VIS
100
AcDbCircle
 10
1804.291174357716
 20
863.6924707089404
 30
0.0
 40
1.899999999999999
  0
CIRCLE
  5
62ED
330
1F
100
AcDbEntity
  8
AM_VIS
100
AcDbCircle
 10
1804.291174357716
 20
863.6924707089404
 30
0.0
 40
1.3
  0
LINE
  5
62EE
330
1F
100
AcDbEntity
  8
AM_VIS
100
AcDbLine
 10
1799.02334748129
 20
872.1924707089403
 30
0.0
 11
1801.333134466167
 21
872.1924707089403
 31
0.0
  0
LINE
  5
62EF
330
1F
100
AcDbEntity
  8
AM_VIS
100
AcDbLine
 10
1807.249214249266
 20
872.1924707089403
 30
0.0
 11
1809.559001234143
 21
872.1924707089403
 31
0.0
  0
LINE
  5
62F0
330
1F
100
AcDbEntity
  8
AM_VIS
100
AcDbLine
 10
1807.249214249266
 20
872.1924707089403
 30
0.0
 11
1801.333134466167
 21
872.1924707089403
 31
0.0
  0
LINE
  5
62F1
330
1F
100
AcDbEntity
  8
AM_VIS
100
AcDbLine
 10
1801.333134466167
 20
855.1924707089403
 30
0.0
 11
1807.249214249266
 21
855.1924707089403
 31
0.0
  0
LINE
  5
62F2
330
1F
100
AcDbEntity
  8
AM_VIS
100
AcDbLine
 10
1807.249214249266
 20
855.1924707089403
 30
0.0
 11
1809.559001234143
 21
855.1924707089403
 31
0.0
  0
LINE
  5
62F3
330
1F
100
AcDbEntity
  8
AM_VIS
100
AcDbLine
 10
1799.02334748129
 20
855.1924707089403
 30
0.0
 11
1801.333134466167
 21
855.1924707089403
 31
0.0
  0
CIRCLE
  5
62F4
330
1F
100
AcDbEntity
  8
AM_VIS
100
AcDbCircle
 10
1804.291174357716
 20
863.6924707089404
 30
0.0
 40
4.2
  0
ARC
  5
62F5
330
1F
100
AcDbEntity
  8
AM_VIS
100
AcDbCircle
 10
1804.291174357716
 20
863.6924707089404
 30
0.0
 40
10.0
100
AcDbArc
 50
58.2116693829456
 51
121.7883306170544
  0
ARC
  5
62F6
330
1F
100
AcDbEntity
  8
AM_VIS
100
AcDbCircle
 10
1804.291174357716
 20
863.6924707089404
 30
0.0
 40
10.0
100
AcDbArc
 50
121.7883306170544
 51
238.2116693829456
  0
ARC
  5
62F7
330
1F
100
AcDbEntity
  8
AM_VIS
100
AcDbCircle
 10
1804.291174357716
 20
863.6924707089404
 30
0.0
 40
10.0
100
AcDbArc
 50
301.7883306170544
 51
58.2116693829456
  0
ARC
  5
62F8
330
1F
100
AcDbEntity
  8
AM_VIS
100
AcDbCircle
 10
1804.291174357716
 20
863.6924707089404
 30
0.0
 40
9.0
100
AcDbArc
 50
109.1881364537164
 51
250.8118635462835
  0
ARC
  5
62F9
330
1F
100
AcDbEntity
  8
AM_VIS
100
AcDbCircle
 10
1804.291174357716
 20
863.6924707089404
 30
0.0
 40
9.0
100
AcDbArc
 50
289.1881364537165
 51
70.81186354628353
  0
CIRCLE
  5
62FA
330
1F
100
AcDbEntity
  8
AM_VIS
100
AcDbCircle
 10
1804.291174357716
 20
863.6924707089404
 30
0.0
 40
5.2
  0
ARC
  5
62FB
330
1F
100
AcDbEntity
  8
AM_VIS
100
AcDbCircle
 10
1804.291174357716
 20
863.6924707089404
 30
0.0
 40
10.0
100
AcDbArc
 50
238.2116693829456
 51
301.7883306170544
  0
CIRCLE
  5
62FC
330
1F
100
AcDbEntity
  8
AM_VIS
100
AcDbCircle
 10
1804.291174357716
 20
863.6924707089404
 30
0.0
 40
3.5
  0
LINE
  5
62FD
330
1F
100
AcDbEntity
  8
AM_VIS
100
AcDbLine
 10
1804.791174357717
 20
838.6339194796631
 30
0.0
 11
1804.791174357717
 21
838.1924707089403
 31
0.0
  0
LINE
  5
62FE
330
1F
100
AcDbEntity
  8
AM_VIS
100
AcDbLine
 10
1803.791174357716
 20
839.1924707089403
 30
0.0
 11
1803.791174357716
 21
838.1924707089403
 31
0.0
  0
LINE
  5
6300
330
1F
100
AcDbEntity
  8
AM_VIS
100
AcDbLine
 10
1811.286861447207
 20
838.6881577984308
 30
0.0
 11
1811.286861447207
 21
844.6967836194502
 31
0.0
  0
LINE
  5
63DA
330
1F
100
AcDbEntity
  8
AM_VIS
100
AcDbLine
 10
1804.791174357717
 20
838.6339194796631
 30
0.0
 11
1804.791174357717
 21
839.1924707089403
 31
0.0
  0
LINE
  5
63DB
330
1F
100
AcDbEntity
  8
AM_VIS
100
AcDbLine
 10
1804.791174357717
 20
839.1924707089403
 30
0.0
 11
1803.795487268226
 21
839.1924707089403
 31
0.0
  0
LINE
  5
63E1
330
1F
100
AcDbEntity
  8
AM_VIS
100
AcDbLine
 10
1797.295487268226
 20
844.6967836194506
 30
0.0
 11
1797.295487268226
 21
838.6881577984308
 31
0.0
  0
LINE
  5
63E7
330
1F
100
AcDbEntity
  8
AM_VIS
100
AcDbLine
 10
1799.891174357717
 20
846.1924707089403
 30
0.0
 11
1799.891174357717
 21
845.1924707089403
 31
0.0
  0
LINE
  5
63E8
330
1F
100
AcDbEntity
  8
AM_VIS
100
AcDbLine
 10
1808.691174357716
 20
846.1924707089403
 30
0.0
 11
1808.691174357716
 21
845.1924707089403
 31
0.0
  0
LINE
  5
63E9
330
1F
100
AcDbEntity
  8
AM_VIS
100
AcDbLine
 10
1797.791174357717
 20
838.1924707089403
 30
0.0
 11
1797.295487268226
 21
838.6881577984306
 31
0.0
  0
LINE
  5
63EA
330
1F
100
AcDbEntity
  8
AM_VIS
100
AcDbLine
 10
1810.791174357716
 20
838.1924707089403
 30
0.0
 11
1811.286861447207
 21
838.6881577984306
 31
0.0
  0
LINE
  5
63EB
330
1F
100
AcDbEntity
  8
AM_VIS
100
AcDbLine
 10
1797.791174357717
 20
845.1924707089403
 30
0.0
 11
1797.295487268226
 21
844.6967836194502
 31
0.0
  0
LINE
  5
63EC
330
1F
100
AcDbEntity
  8
AM_VIS
100
AcDbLine
 10
1810.791174357716
 20
845.1924707089403
 30
0.0
 11
1811.286861447207
 21
844.6967836194501
 31
0.0
  0
LINE
  5
63ED
330
1F
100
AcDbEntity
  8
AM_VIS
100
AcDbLine
 10
1805.121836744008
 20
862.6924707089404
 30
0.0
 11
1803.460511971424
 21
862.6924707089404
 31
0.0
  0
LINE
  5
63EE
330
1F
100
AcDbEntity
  8
AM_VIS
100
AcDbLine
 10
1803.791174357716
 20
838.1924707089403
 30
0.0
 11
1797.791174357717
 21
838.1924707089403
 31
0.0
  0
LINE
  5
63EF
330
1F
100
AcDbEntity
  8
AM_VIS
100
AcDbLine
 10
1810.791174357716
 20
838.1924707089403
 30
0.0
 11
1804.791174357717
 21
838.1924707089403
 31
0.0
  0
LINE
  5
6436
330
1F
100
AcDbEntity
  8
AM_VIS
100
AcDbLine
 10
1797.791174357717
 20
845.1924707089403
 30
0.0
 11
1810.791174357716
 21
845.1924707089403
 31
0.0
  0
LINE
  5
6437
102
{ACAD_REACTORS
330
695D
102
}
330
1F
100
AcDbEntity
  8
AM_VIS
100
AcDbLine
 10
1785.815965743648
 20
863.6924707089404
 30
0.0
 11
1795.053570050682
 21
879.6924707089404
 31
0.0
  0
LINE
  5
6438
330
1F
100
AcDbEntity
  8
AM_VIS
100
AcDbLine
 10
1795.053570050682
 20
879.6924707089404
 30
0.0
 11
1813.52877866475
 21
879.6924707089404
 31
0.0
  0
LINE
  5
6439
330
1F
100
AcDbEntity
  8
AM_VIS
100
AcDbLine
 10
1813.52877866475
 20
879.6924707089404
 30
0.0
 11
1822.766382971785
 21
863.6924707089404
 31
0.0
  0
LINE
  5
643A
330
1F
100
AcDbEntity
  8
AM_VIS
100
AcDbLine
 10
1813.52877866475
 20
847.6924707089404
 30
0.0
 11
1822.766382971785
 21
863.6924707089404
 31
0.0
  0
LINE
  5
643B
330
1F
100
AcDbEntity
  8
AM_VIS
100
AcDbLine
 10
1795.053570050682
 20
847.6924707089404
 30
0.0
 11
1813.52877866475
 21
847.6924707089404
 31
0.0
  0
LINE
  5
643C
102
{ACAD_REACTORS
330
695D
102
}
330
1F
100
AcDbEntity
  8
AM_VIS
100
AcDbLine
 10
1785.815965743648
 20
863.6924707089404
 30
0.0
 11
1795.053570050682
 21
847.6924707089404
 31
0.0
  0
CIRCLE
  5
643D
330
1F
100
AcDbEntity
  8
AM_VIS
100
AcDbCircle
 10
1804.291174357716
 20
863.6924707089404
 30
0.0
 40
15.5
  0
LINE
  5
643F
330
1F
100
AcDbEntity
  8
AM_VIS
100
AcDbLine
 10
1805.491174357716
 20
864.1924707089403
 30
0.0
 11
1803.091174357717
 21
864.1924707089403
 31
0.0
  0
LINE
  5
6440
330
1F
100
AcDbEntity
  8
AM_VIS
100
AcDbLine
 10
1803.091174357716
 20
863.1924707089403
 30
0.0
 11
1805.491174357716
 21
863.1924707089403
 31
0.0
  0
DIMENSION
  5
6477
102
{ACAD_XDICTIONARY
360
6484
102
}
102
{ACAD_REACTORS
330
6485
102
}
330
1F
100
AcDbEntity
  8
AM_5
100
AcDbDimension
  2
*D4
 10
1722.197486760773
 20
983.5791981949501
 30
0.0
 11
1719.447486760772
 21
988.5791981949504
 31
0.0
 70
    32
  1
%%c<>
 71
     5
 42
10.0
  3
AM_ISO$0
100
AcDbAlignedDimension
 13
1734.197486760773
 23
993.5791981949501
 33
0.0
 14
1734.197486760773
 24
983.5791981949501
 34
0.0
 50
90.0
100
AcDbRotatedDimension
  0
DIMENSION
  5
64A1
102
{ACAD_XDICTIONARY
360
64AE
102
}
102
{ACAD_REACTORS
330
64AF
102
}
330
1F
100
AcDbEntity
  8
AM_5
100
AcDbDimension
  2
*D5
 10
1714.197486760773
 20
983.07919819495
 30
0.0
 11
1711.447486760773
 21
988.5791981949504
 31
0.0
 70
    32
  1
%%c<>
 71
     5
 42
11.0
  3
AM_ISO$0
100
AcDbAlignedDimension
 13
1739.197486760773
 23
994.07919819495
 33
0.0
 14
1739.197486760773
 24
983.07919819495
 34
0.0
 50
90.0
100
AcDbRotatedDimension
  0
DIMENSION
  5
64C7
102
{ACAD_XDICTIONARY
360
64D4
102
}
102
{ACAD_REACTORS
330
64D5
102
}
330
1F
100
AcDbEntity
  8
AM_5
100
AcDbDimension
  2
*D6
 10
1706.197486760773
 20
973.5791981949502
 30
0.0
 11
1703.447486760772
 21
988.5791981949504
 31
0.0
 70
    32
  1
%%c<>
 71
     5
 42
30.0
  3
AM_ISO$0
100
AcDbAlignedDimension
 13
1745.197486760773
 23
1003.57919819495
 33
0.0
 14
1745.197486760773
 24
973.5791981949502
 34
0.0
 50
90.0
100
AcDbRotatedDimension
  0
LEADER
  5
6521
330
1F
100
AcDbEntity
  8
AM_5
100
AcDbLeader
  3
AM_ISO$7
 76
     3
 10
1777.372486760773
 20
993.4291981949499
 30
0.0
 10
1758.794753334582
 20
1017.164652382637
 30
0.0
 10
1702.672566735376
 20
1017.164652382637
 30
0.0
1001
ACAD
1000
DSTYLE
1002
{
1070
    40
1040
1.5
1070
    41
1040
3.0
1070
    42
1040
1.0
1070
    43
1040
15.0
1070
    44
1040
1.0
1070
   140
1040
3.5
1070
   141
1040
0.0
1070
   147
1040
1.0
1002
}
  0
TEXT
  5
6524
330
1F
100
AcDbEntity
  8
AM_5
100
AcDbText
 10
1702.513001939189
 20
1019.163571433226
 30
0.0
 40
5.0
  1
Rc1/8(Cool air out)
100
AcDbText
  0
LEADER
  5
6525
330
1F
100
AcDbEntity
  8
AM_5
100
AcDbLeader
  3
AM_ANSI$7
 76
     3
 10
1753.023909738125
 20
981.0802751826665
 30
0.0
 10
1766.374189569423
 20
962.6951849002191
 30
0.0
 10
1790.653802097988
 20
962.6951849002191
 30
0.0
1001
ACAD
1000
DSTYLE
1002
{
1070
    41
1040
4.0
1070
   341
1005
30E8
1070
   147
1040
0.8
1070
    77
1070
     0
1002
}
  0
TEXT
  5
6526
330
1F
100
AcDbEntity
  8
AM_5
100
AcDbText
 10
1767.168679723024
 20
963.7644066553272
 30
0.0
 40
5.0
  1
Silencer
100
AcDbText
  0
LWPOLYLINE
  5
655D
330
1F
100
AcDbEntity
  8
0
100
AcDbPolyline
 90
        4
 70
     1
 43
0.0
 10
1694.266794939602
 20
1030.62791098722
 10
1823.10926046733
 20
1030.62791098722
 10
1823.10926046733
 20
946.0727139908565
 10
1694.266794939602
 20
946.0727139908565
  0
DIMENSION
  5
656D
102
{ACAD_XDICTIONARY
360
657A
102
}
102
{ACAD_REACTORS
330
657B
102
}
330
1F
100
AcDbEntity
  8
AM_5
100
AcDbDimension
  2
*D7
 10
1744.197486760773
 20
961.5791981949499
 30
0.0
 11
1739.197486760773
 21
964.32919819495
 31
0.0
 70
    32
 71
     5
 42
10.0
  3
AM_ISO$0
100
AcDbAlignedDimension
 13
1734.197486760773
 23
983.5791981949501
 33
0.0
 14
1744.197486760773
 24
974.5791981949501
 34
0.0
 50
0.0000000000001018
100
AcDbRotatedDimension
  0
DIMENSION
  5
6597
102
{ACAD_XDICTIONARY
360
65A4
102
}
102
{ACAD_REACTORS
330
65A5
102
}
330
1F
100
AcDbEntity
  8
AM_5
100
AcDbDimension
  2
*D8
 10
1794.197486760773
 20
953.57919819495
 30
0.0
 11
1764.197486760773
 21
956.32919819495
 31
0.0
 70
    32
 71
     5
 42
60.0
  3
AM_ISO$0
100
AcDbAlignedDimension
 13
1734.197486760773
 23
983.5791981949501
 33
0.0
 14
1794.197486760773
 24
971.0791981949501
 34
0.0
 50
0.0000000000001018
100
AcDbRotatedDimension
  0
LINE
  5
662D
330
1F
100
AcDbEntity
  8
AM_VIS
100
AcDbLine
 10
1797.795487268226
 20
845.1924707089403
 30
0.0
 11
1797.795487268226
 21
838.1924707089405
 31
0.0
  0
LINE
  5
66C9
330
1F
100
AcDbEntity
  8
AM_VIS
100
AcDbLine
 10
2006.175868390422
 20
840.3339194796632
 30
0.0
 11
2006.175868390422
 21
839.8924707089404
 31
0.0
  0
LINE
  5
66CA
330
1F
100
AcDbEntity
  8
AM_VIS
100
AcDbLine
 10
2005.175868390422
 20
840.8924707089404
 30
0.0
 11
2005.175868390422
 21
839.8924707089404
 31
0.0
  0
LINE
  5
66CB
330
1F
100
AcDbEntity
  8
AM_VIS
100
AcDbLine
 10
2012.671555479912
 20
840.3881577984307
 30
0.0
 11
2012.671555479912
 21
846.3967836194504
 31
0.0
  0
LINE
  5
66CC
330
1F
100
AcDbEntity
  8
AM_VIS
100
AcDbLine
 10
2006.175868390422
 20
840.3339194796632
 30
0.0
 11
2006.175868390422
 21
840.8924707089404
 31
0.0
  0
LINE
  5
66CD
330
1F
100
AcDbEntity
  8
AM_VIS
100
AcDbLine
 10
2006.175868390422
 20
840.8924707089404
 30
0.0
 11
2005.180181300932
 21
840.8924707089404
 31
0.0
  0
LINE
  5
66CE
102
{ACAD_REACTORS
330
6A6B
102
}
330
1F
100
AcDbEntity
  8
AM_VIS
100
AcDbLine
 10
1998.680181300931
 20
846.3967836194505
 30
0.0
 11
1998.680181300932
 21
840.3881577984307
 31
0.0
  0
LINE
  5
66CF
330
1F
100
AcDbEntity
  8
AM_VIS
100
AcDbLine
 10
1999.175868390422
 20
839.8924707089404
 30
0.0
 11
1998.680181300931
 21
840.3881577984307
 31
0.0
  0
LINE
  5
66D0
330
1F
100
AcDbEntity
  8
AM_VIS
100
AcDbLine
 10
2012.175868390422
 20
839.8924707089404
 30
0.0
 11
2012.671555479912
 21
840.3881577984307
 31
0.0
  0
LINE
  5
66D1
330
1F
100
AcDbEntity
  8
AM_VIS
100
AcDbLine
 10
2005.175868390422
 20
839.8924707089404
 30
0.0
 11
1999.175868390422
 21
839.8924707089404
 31
0.0
  0
LINE
  5
66D2
102
{ACAD_REACTORS
330
6A8A
102
}
330
1F
100
AcDbEntity
  8
AM_VIS
100
AcDbLine
 10
2012.175868390422
 20
839.8924707089404
 30
0.0
 11
2006.175868390422
 21
839.8924707089404
 31
0.0
  0
LINE
  5
6899
330
1F
100
AcDbEntity
  8
AM_VIS
100
AcDbLine
 10
1798.995487268226
 20
845.1924707089403
 30
0.0
 11
1798.995487268226
 21
838.1924707089405
 31
0.0
  0
LINE
  5
689A
330
1F
100
AcDbEntity
  8
AM_VIS
100
AcDbLine
 10
1800.195487268226
 20
845.1924707089403
 30
0.0
 11
1800.195487268226
 21
838.1924707089405
 31
0.0
  0
LINE
  5
689B
330
1F
100
AcDbEntity
  8
AM_VIS
100
AcDbLine
 10
1801.395487268226
 20
845.1924707089403
 30
0.0
 11
1801.395487268226
 21
838.1924707089405
 31
0.0
  0
LINE
  5
689C
330
1F
100
AcDbEntity
  8
AM_VIS
100
AcDbLine
 10
1802.595487268226
 20
845.1924707089403
 30
0.0
 11
1802.595487268226
 21
838.1924707089405
 31
0.0
  0
LINE
  5
689D
330
1F
100
AcDbEntity
  8
AM_VIS
100
AcDbLine
 10
1803.795487268226
 20
845.1924707089403
 30
0.0
 11
1803.795487268226
 21
838.1924707089405
 31
0.0
  0
LINE
  5
689E
330
1F
100
AcDbEntity
  8
AM_VIS
100
AcDbLine
 10
1804.995487268226
 20
845.1924707089403
 30
0.0
 11
1804.995487268226
 21
838.1924707089405
 31
0.0
  0
LINE
  5
689F
330
1F
100
AcDbEntity
  8
AM_VIS
100
AcDbLine
 10
1806.195487268226
 20
845.1924707089403
 30
0.0
 11
1806.195487268226
 21
838.1924707089405
 31
0.0
  0
LINE
  5
68A0
330
1F
100
AcDbEntity
  8
AM_VIS
100
AcDbLine
 10
1807.395487268226
 20
845.1924707089403
 30
0.0
 11
1807.395487268226
 21
838.1924707089405
 31
0.0
  0
LINE
  5
68A1
330
1F
100
AcDbEntity
  8
AM_VIS
100
AcDbLine
 10
1808.595487268226
 20
845.1924707089403
 30
0.0
 11
1808.595487268226
 21
838.1924707089405
 31
0.0
  0
LINE
  5
68A2
330
1F
100
AcDbEntity
  8
AM_VIS
100
AcDbLine
 10
1809.795487268226
 20
845.1924707089403
 30
0.0
 11
1809.795487268226
 21
838.1924707089405
 31
0.0
  0
LINE
  5
68A3
330
1F
100
AcDbEntity
  8
AM_VIS
100
AcDbLine
 10
1810.995487268226
 20
844.9881577984307
 30
0.0
 11
1810.995487268226
 21
838.3967836194505
 31
0.0
  0
LINE
  5
68A8
330
1F
100
AcDbEntity
  8
AM_VIS
100
AcDbLine
 10
1999.875868390422
 20
848.1924707089405
 30
0.0
 11
1999.875868390422
 21
853.1924707089405
 31
0.0
  0
LINE
  5
68A9
330
1F
100
AcDbEntity
  8
AM_VIS
100
AcDbLine
 10
1999.880181300931
 20
846.8924707089405
 30
0.0
 11
1999.880181300932
 21
839.8924707089404
 31
0.0
  0
LINE
  5
68C6
330
1F
100
AcDbEntity
  8
AM_VIS
100
AcDbLine
 10
2001.075868390422
 20
848.1924707089405
 30
0.0
 11
2001.075868390422
 21
853.1924707089405
 31
0.0
  0
LINE
  5
68C7
330
1F
100
AcDbEntity
  8
AM_VIS
100
AcDbLine
 10
2001.080181300932
 20
846.8924707089405
 30
0.0
 11
2001.080181300932
 21
839.8924707089404
 31
0.0
  0
LINE
  5
68C8
330
1F
100
AcDbEntity
  8
AM_VIS
100
AcDbLine
 10
2002.275868390422
 20
848.1924707089405
 30
0.0
 11
2002.275868390422
 21
853.1924707089405
 31
0.0
  0
LINE
  5
68C9
330
1F
100
AcDbEntity
  8
AM_VIS
100
AcDbLine
 10
2002.280181300932
 20
846.8924707089405
 30
0.0
 11
2002.280181300932
 21
839.8924707089404
 31
0.0
  0
LINE
  5
68CA
330
1F
100
AcDbEntity
  8
AM_VIS
100
AcDbLine
 10
2003.475868390422
 20
848.1924707089405
 30
0.0
 11
2003.475868390422
 21
853.1924707089405
 31
0.0
  0
LINE
  5
68CB
330
1F
100
AcDbEntity
  8
AM_VIS
100
AcDbLine
 10
2003.480181300931
 20
846.8924707089405
 30
0.0
 11
2003.480181300932
 21
839.8924707089404
 31
0.0
  0
LINE
  5
68CC
330
1F
100
AcDbEntity
  8
AM_VIS
100
AcDbLine
 10
2004.675868390422
 20
848.1924707089405
 30
0.0
 11
2004.675868390422
 21
853.1924707089405
 31
0.0
  0
LINE
  5
68CD
330
1F
100
AcDbEntity
  8
AM_VIS
100
AcDbLine
 10
2004.680181300932
 20
846.8924707089405
 30
0.0
 11
2004.680181300932
 21
839.8924707089404
 31
0.0
  0
LINE
  5
68CE
330
1F
100
AcDbEntity
  8
AM_VIS
100
AcDbLine
 10
2005.875868390422
 20
848.1924707089405
 30
0.0
 11
2005.875868390422
 21
853.1924707089405
 31
0.0
  0
LINE
  5
68CF
330
1F
100
AcDbEntity
  8
AM_VIS
100
AcDbLine
 10
2005.880181300931
 20
848.6924707089404
 30
0.0
 11
2005.880181300932
 21
841.6924707089405
 31
0.0
  0
LINE
  5
68D0
330
1F
100
AcDbEntity
  8
AM_VIS
100
AcDbLine
 10
2007.075868390422
 20
848.1924707089405
 30
0.0
 11
2007.075868390422
 21
853.1924707089405
 31
0.0
  0
LINE
  5
68D1
330
1F
100
AcDbEntity
  8
AM_VIS
100
AcDbLine
 10
2007.080181300931
 20
846.8924707089405
 30
0.0
 11
2007.080181300932
 21
839.8924707089404
 31
0.0
  0
LINE
  5
68D2
330
1F
100
AcDbEntity
  8
AM_VIS
100
AcDbLine
 10
2008.275868390422
 20
848.1924707089405
 30
0.0
 11
2008.275868390422
 21
853.1924707089405
 31
0.0
  0
LINE
  5
68D3
330
1F
100
AcDbEntity
  8
AM_VIS
100
AcDbLine
 10
2008.280181300932
 20
846.8924707089405
 30
0.0
 11
2008.280181300932
 21
839.8924707089404
 31
0.0
  0
LINE
  5
68D4
330
1F
100
AcDbEntity
  8
AM_VIS
100
AcDbLine
 10
2009.475868390422
 20
848.1924707089405
 30
0.0
 11
2009.475868390422
 21
853.1924707089405
 31
0.0
  0
LINE
  5
68D5
330
1F
100
AcDbEntity
  8
AM_VIS
100
AcDbLine
 10
2009.480181300931
 20
846.8924707089405
 30
0.0
 11
2009.480181300932
 21
839.8924707089404
 31
0.0
  0
LINE
  5
68D6
330
1F
100
AcDbEntity
  8
AM_VIS
100
AcDbLine
 10
2010.675868390422
 20
848.1924707089405
 30
0.0
 11
2010.675868390422
 21
853.1924707089405
 31
0.0
  0
LINE
  5
68D7
330
1F
100
AcDbEntity
  8
AM_VIS
100
AcDbLine
 10
2010.680181300931
 20
846.8924707089405
 30
0.0
 11
2010.680181300932
 21
839.8924707089404
 31
0.0
  0
LINE
  5
68D8
330
1F
100
AcDbEntity
  8
AM_VIS
100
AcDbLine
 10
2011.875868390422
 20
848.1924707089405
 30
0.0
 11
2011.875868390422
 21
853.1924707089405
 31
0.0
  0
LINE
  5
68D9
330
1F
100
AcDbEntity
  8
AM_VIS
100
AcDbLine
 10
2011.880181300931
 20
846.8924707089405
 30
0.0
 11
2011.880181300932
 21
839.8924707089404
 31
0.0
  0
DIMENSION
  5
68E9
102
{ACAD_XDICTIONARY
360
68F6
102
}
102
{ACAD_REACTORS
330
68F7
102
}
330
1F
100
AcDbEntity
  8
AM_5
100
AcDbDimension
  2
*D9
 10
1768.291174357716
 20
846.1924707089403
 30
0.0
 11
1768.291174357716
 21
863.6924707089406
 31
0.0
 70
   160
 71
     5
 42
35.0
  3
AM_ISO$0
100
AcDbAlignedDimension
 13
1789.291174357716
 23
881.1924707089403
 33
0.0
 14
1789.291174357716
 24
846.1924707089403
 34
0.0
 50
90.00000000000003
100
AcDbRotatedDimension
  0
DIMENSION
  5
694F
102
{ACAD_XDICTIONARY
360
695C
102
}
102
{ACAD_REACTORS
330
695D
102
}
330
1F
100
AcDbEntity
  8
AM_5
100
AcDbDimension
  2
*D10
 10
1776.291174357717
 20
879.6924707089404
 30
0.0
 11
1776.291174357716
 21
863.6924707089407
 31
0.0
 70
   160
 71
     5
 42
32.0
  3
AM_ISO$0
100
AcDbAlignedDimension
 13
1795.053570050682
 23
847.6924707089404
 33
0.0
 14
1795.053570050682
 24
879.6924707089404
 34
0.0
 50
90.00000000000003
100
AcDbRotatedDimension
  0
DIMENSION
  5
699A
102
{ACAD_XDICTIONARY
360
69A7
102
}
102
{ACAD_REACTORS
330
69A8
102
}
330
1F
100
AcDbEntity
  8
AM_5
100
AcDbDimension
  2
*D11
 10
1819.291174357717
 20
829.0541810583656
 30
0.0
 11
1804.291174357716
 21
829.0541810583656
 31
0.0
 70
   160
 71
     5
 42
30.0
  3
AM_ISO$0
100
AcDbAlignedDimension
 13
1789.291174357716
 23
846.1924707089403
 33
0.0
 14
1819.291174357717
 24
846.1924707089403
 34
0.0
 50
0.0000000000001132
100
AcDbRotatedDimension
  0
DIMENSION
  5
69CD
102
{ACAD_XDICTIONARY
360
69DC
102
}
102
{ACAD_REACTORS
330
69DD
102
}
330
1F
100
AcDbEntity
  8
AM_5
100
AcDbDimension
  2
*D12
 10
1870.675868390422
 20
834.1924707089404
 30
0.0
 11
1867.175868390422
 21
836.9424707089404
 31
0.0
 70
    32
 71
     5
 42
7.0
  3
AM_ISO$0
100
AcDbAlignedDimension
 13
1863.675868390422
 23
848.1924707089403
 33
0.0
 14
1870.675868390422
 24
848.1924707089403
 34
0.0
 50
0.0000000000001132
100
AcDbRotatedDimension
  0
DIMENSION
  5
69FB
102
{ACAD_XDICTIONARY
360
6A0A
102
}
102
{ACAD_REACTORS
330
6A0B
102
}
330
1F
100
AcDbEntity
  8
AM_5
100
AcDbDimension
  2
*D13
 10
1893.675868390422
 20
834.1924707089404
 30
0.0
 11
1896.175868390422
 21
836.9424707089404
 31
0.0
 70
    32
 71
     5
 42
5.0
  3
AM_ISO$0
100
AcDbAlignedDimension
 13
1898.675868390421
 23
846.1924707089403
 33
0.0
 14
1893.675868390422
 24
847.4424707089404
 34
0.0
 50
0.0000000000001132
100
AcDbRotatedDimension
  0
DIMENSION
  5
6A40
102
{ACAD_XDICTIONARY
360
6A4D
102
}
102
{ACAD_REACTORS
330
6A4E
102
}
330
1F
100
AcDbEntity
  8
AM_5
100
AcDbDimension
  2
*D14
 10
1909.925868390422
 20
851.6924707089403
 30
0.0
 11
1907.175523902233
 21
863.6924707089407
 31
0.0
 70
    32
 71
     5
 42
24.0
  3
AM_ISO$0
100
AcDbAlignedDimension
 13
1897.925868390421
 23
875.6924707089403
 33
0.0
 14
1897.925868390421
 24
851.6924707089403
 34
0.0
 50
90.00000000000003
100
AcDbRotatedDimension
  0
LINE
  5
6A5B
330
1F
100
AcDbEntity
  8
AM_7
100
AcDbLine
 10
1904.63433962644
 20
863.6924707089404
 30
0.0
 11
1896.675868390422
 21
863.6924707089404
 31
0.0
  0
LEADER
  5
6A68
102
{ACAD_XDICTIONARY
360
6A6A
102
}
102
{ACAD_REACTORS
330
6A6B
102
}
330
1F
100
AcDbEntity
  8
AM_5
100
AcDbLeader
  3
AM_ISO$7
 73
     0
 75
     1
 40
4.51997474683058
 41
37.11750000000002
 76
     3
 10
1998.680181300932
 20
843.8814161787526
 30
0.0
 10
1991.520347030034
 20
835.3206984354205
 30
0.0
 10
1988.520347030034
 20
835.3206984354205
 30
0.0
340
6A69
1001
ACAD
1000
DSTYLE
1002
{
1070
    41
1040
3.0
1070
    42
1040
1.0
1070
    43
1040
15.0
1070
    44
1040
1.0
1002
}
  0
MTEXT
  5
6A69
102
{ACAD_REACTORS
330
6A68
102
}
330
1F
100
AcDbEntity
  8
AM_5
100
AcDbMText
 10
1987.520347030034
 20
836.3206984354205
 30
0.0
 40
3.5
 41
0.0
 71
     9
 72
     1
  1
{\F|c136;Adjustment screw}
 73
     1
 44
1.0
1001
ACAD
1000
MTEXTBEGIN
1070
    73
1070
     1
1070
    44
1040
1.0
1070
    74
1070
     0
1000
MTEXTEND
  0
DIMENSION
  5
6A7C
102
{ACAD_XDICTIONARY
360
6A89
102
}
102
{ACAD_REACTORS
330
6A8A
102
}
330
1F
100
AcDbEntity
  8
AM_5
100
AcDbDimension
  2
*D15
 10
2058.666919882148
 20
839.8924707089404
 30
0.0
 11
2055.741919882148
 21
851.7924707089408
 31
0.0
 70
    32
  1
(22)
 71
     5
 42
23.79999999999995
  3
AM_ISO$0
100
AcDbAlignedDimension
 13
2050.738246676576
 23
863.6924707089404
 33
0.0
 14
2012.175868390422
 24
839.8924707089404
 34
0.0
 50
90.00000000000003
100
AcDbRotatedDimension
  0
DIMENSION
  5
6ACC
102
{ACAD_XDICTIONARY
360
6AD9
102
}
102
{ACAD_REACTORS
330
6ADA
102
}
330
1F
100
AcDbEntity
  8
AM_5
100
AcDbDimension
  2
*D16
 10
2060.738247676576
 20
940.0424707089404
 30
0.0
 11
2057.987903188387
 21
950.0424707089408
 31
0.0
 70
    32
  1
%%c<>
 71
     5
 42
20.0
  3
AM_ISO$0
100
AcDbAlignedDimension
 13
2026.175868390422
 23
960.0424707089404
 33
0.0
 14
2026.175868390422
 24
940.0424707089404
 34
0.0
 50
90.0
100
AcDbRotatedDimension
  0
LINE
  5
6AF0
330
1F
100
AcDbEntity
  8
0
100
AcDbLine
 10
2016.675868390422
 20
954.401369652481
 30
0.0
 11
2026.175868390422
 21
945.6835717653998
 31
0.0
  0
LINE
  5
6AF1
330
1F
100
AcDbEntity
  8
0
100
AcDbLine
 10
2026.175868390422
 20
954.401369652481
 30
0.0
 11
2016.675868390422
 21
945.6835717653998
 31
0.0
  0
LEADER
  5
6AF2
330
1F
100
AcDbEntity
  8
AM_5
100
AcDbLeader
  3
AM_ISO$7
 73
     0
 74
     0
 75
     1
 40
3.5
 41
3.15
 76
     3
 10
2020.928425331024
 20
953.0389713411771
 30
0.0
 10
2025.084248083003
 20
966.6278913677354
 30
0.0
 10
2028.084248083003
 20
966.6278913677354
 30
0.0
340
6AF3
213
2.01934571217771
223
0.5469730150462056
233
0.0
1001
ACAD
1000
DSTYLE
1002
{
1070
    41
1040
3.0
1070
    42
1040
1.0
1070
    43
1040
15.0
1070
    44
1040
1.0
1002
}
  0
MTEXT
  5
6AF3
102
{ACAD_REACTORS
330
6AF2
102
}
330
1F
100
AcDbEntity
  8
AM_5
100
AcDbMText
 10
2027.064902370825
 20
967.0809183526891
 30
0.0
 40
3.5
 41
0.0
 71
     7
 72
     1
  1
18
 73
     1
 44
1.0
1001
ACAD
1000
MTEXTBEGIN
1070
    73
1070
     1
1070
    44
1040
1.0
1070
    74
1070
     0
1000
MTEXTEND
  0
DIMENSION
  5
6B05
102
{ACAD_XDICTIONARY
360
6B12
102
}
102
{ACAD_REACTORS
330
6B13
102
}
330
1F
100
AcDbEntity
  8
AM_5
100
AcDbDimension
  2
*D17
 10
1883.675868390422
 20
977.0424717089404
 30
0.0
 11
1891.175868390422
 21
979.7924717089404
 31
0.0
 70
    32
 71
     5
 42
15.0
  3
AM_ISO$0
100
AcDbAlignedDimension
 13
1898.675868390421
 23
965.0424707089404
 33
0.0
 14
1883.675868390422
 24
956.2424707089403
 34
0.0
100
AcDbRotatedDimension
  0
DIMENSION
  5
6B2F
102
{ACAD_XDICTIONARY
360
6B3C
102
}
102
{ACAD_REACTORS
330
6B3D
102
}
330
1F
100
AcDbEntity
  8
AM_5
100
AcDbDimension
  2
*D18
 10
1898.675868390421
 20
923.0424697089404
 30
0.0
 11
1886.675868390422
 21
925.7928141971293
 31
0.0
 70
    32
 71
     5
 42
24.0
  3
AM_ISO$0
100
AcDbAlignedDimension
 13
1874.675868390422
 23
935.0424707089404
 33
0.0
 14
1898.675868390421
 24
935.0424707089404
 34
0.0
 50
0.0000000000001132
100
AcDbRotatedDimension
1001
ACAD
1000
DSTYLE
1002
{
1070
   174
1070
     1
1002
}
  0
DIMENSION
  5
6B63
102
{ACAD_XDICTIONARY
360
6B70
102
}
102
{ACAD_REACTORS
330
6B71
102
}
330
1F
100
AcDbEntity
  8
AM_5
100
AcDbDimension
  2
*D19
 10
1874.675868390422
 20
923.0424707089403
 30
0.0
 11
1868.175868390421
 21
925.7924707089403
 31
0.0
 70
    32
 71
     5
 42
13.0
  3
AM_ISO$0
100
AcDbAlignedDimension
 13
1861.675868390422
 23
939.0424707089405
 33
0.0
 14
1874.675868390422
 24
935.0424707089404
 34
0.0
100
AcDbRotatedDimension
1001
ACAD
1000
DSTYLE
1002
{
1070
   174
1070
     1
1002
}
  0
DIMENSION
  5
6B8D
102
{ACAD_XDICTIONARY
360
6B9A
102
}
102
{ACAD_REACTORS
330
6B9B
102
}
330
1F
100
AcDbEntity
  8
AM_5
100
AcDbDimension
  2
*D20
 10
1853.675868390421
 20
915.0424707089403
 30
0.0
 11
1864.175868390422
 21
917.7928151971292
 31
0.0
 70
    32
 71
     5
 42
20.99999999999977
  3
AM_ISO$0
100
AcDbAlignedDimension
 13
1874.675868390421
 23
935.0424707089404
 33
0.0
 14
1853.675868390421
 24
941.0424707089404
 34
0.0
 50
0.0000000000001132
100
AcDbRotatedDimension
1001
ACAD
1000
DSTYLE
1002
{
1070
   174
1070
     1
1002
}
  0
DIMENSION
  5
6BD7
102
{ACAD_XDICTIONARY
360
6BE4
102
}
102
{ACAD_REACTORS
330
6BE5
102
}
330
1F
100
AcDbEntity
  8
AM_5
100
AcDbDimension
  2
*D21
 10
2051.675868390422
 20
915.0424707089404
 30
0.0
 11
1963.175868390422
 21
917.9674707089404
 31
0.0
 70
    32
  1
(<>)
 71
     5
 42
177.0000000000002
  3
AM_ISO$0
100
AcDbAlignedDimension
 13
1874.675868390421
 23
935.0424707089404
 33
0.0
 14
2051.675868390422
 24
945.9819219303081
 34
0.0
100
AcDbRotatedDimension
1001
ACAD
1000
DSTYLE
1002
{
1070
   174
1070
     1
1002
}
  0
DIMENSION
  5
6C01
102
{ACAD_XDICTIONARY
360
6C0E
102
}
102
{ACAD_REACTORS
330
6C0F
102
}
330
1F
100
AcDbEntity
  8
AM_5
100
AcDbDimension
  2
*D22
 10
2051.675868390422
 20
907.0424707089406
 30
0.0
 11
1952.675868390422
 21
909.9683165872251
 31
0.0
 70
    32
  1
(<>)
 71
     5
 42
198.0
  3
AM_ISO$0
100
AcDbAlignedDimension
 13
1853.675868390421
 23
941.0424707089404
 33
0.0
 14
2051.675868390422
 24
945.9819219303081
 34
0.0
 50
0.0000000000001132
100
AcDbRotatedDimension
  0
LINE
  5
6C2B
330
1F
100
AcDbEntity
  8
0
100
AcDbLine
 10
1859.675868390422
 20
955.3102975853668
 30
0.0
 11
1854.675868390422
 21
944.7746438325141
 31
0.0
  0
LINE
  5
6C2C
330
1F
100
AcDbEntity
  8
0
100
AcDbLine
 10
1859.675868390422
 20
944.7746438325141
 30
0.0
 11
1854.675868390422
 21
955.3102975853668
 31
0.0
  0
LEADER
  5
6C2E
330
1F
100
AcDbEntity
  8
AM_5
100
AcDbLeader
  3
AM_ISO$7
 73
     0
 75
     1
 40
3.5
 41
3.15
 76
     3
 10
1857.185542362394
 20
953.0335602313828
 30
0.0
 10
1851.399601473025
 20
974.2298603141419
 30
0.0
 10
1848.399601473025
 20
974.2298603141419
 30
0.0
340
6C2F
213
-1.557499376130181
223
0.5261130412436615
233
0.0
1001
ACAD
1000
DSTYLE
1002
{
1070
    41
1040
3.0
1070
    42
1040
1.0
1070
    43
1040
15.0
1070
    44
1040
1.0
1002
}
  0
MTEXT
  5
6C2F
102
{ACAD_REACTORS
330
6C2E
102
}
330
1F
100
AcDbEntity
  8
AM_5
100
AcDbMText
 10
1848.957100849155
 20
974.7037472728981
 30
0.0
 40
3.5
 41
0.0
 71
     9
 72
     1
  1
17
 73
     1
 44
1.0
1001
ACAD
1000
MTEXTBEGIN
1070
    73
1070
     1
1070
    44
1040
1.0
1070
    74
1070
     0
1000
MTEXTEND
  0
DIMENSION
  5
6C4A
102
{ACAD_XDICTIONARY
360
6C57
102
}
102
{ACAD_REACTORS
330
6C58
102
}
330
1F
100
AcDbEntity
  8
AM_5
100
AcDbDimension
  2
*D23
 10
1842.675868390422
 20
960.0424707089404
 30
0.0
 11
1839.925523902232
 21
950.0424707089408
 31
0.0
 70
    32
  1
%%c<>
 71
     5
 42
20.0
  3
AM_ISO$0
100
AcDbAlignedDimension
 13
1854.675868390422
 23
940.0424707089404
 33
0.0
 14
1854.675868390422
 24
960.0424707089404
 34
0.0
 50
90.0
100
AcDbRotatedDimension
  0
DIMENSION
  5
6C81
330
1F
100
AcDbEntity
  8
AM_5
100
AcDbDimension
  2
*D24
 10
1883.675868390421
 20
950.0424707089406
 30
0.0
 11
1920.859781427914
 21
974.8574859206723
 31
0.0
 70
   164
  1
Rc1/8(PORT)
 71
     5
 42
4.850000000000591
  3
AM_ISO$4
100
AcDbRadialDimension
 15
1887.042851390271
 25
953.5333052049779
 35
0.0
 40
0.0
  0
LEADER
  5
6EFB
102
{ACAD_XDICTIONARY
360
6EFD
102
}
102
{ACAD_REACTORS
330
6EFE
102
}
330
1F
100
AcDbEntity
  8
AM_5
100
AcDbLeader
  3
AM_ISO$7
 73
     0
 75
     1
 40
3.500688976377952
 41
15.19497474683058
 76
     3
 10
1863.191227301052
 20
875.6924707089403
 30
0.0
 10
1855.585901775047
 20
882.0529165353276
 30
0.0
 10
1852.585901775047
 20
882.0529165353276
 30
0.0
340
6EFC
213
-1.958080952910677
223
-0.2455377680962556
233
0.0
1001
ACAD
1000
DSTYLE
1002
{
1070
    41
1040
3.0
1070
    42
1040
1.0
1070
    43
1040
15.0
1070
    44
1040
1.0
1002
}
  0
MTEXT
  5
6EFC
102
{ACAD_REACTORS
330
6EFB
102
}
330
1F
100
AcDbEntity
  8
AM_5
100
AcDbMText
 10
1853.543982727957
 20
883.2984543034237
 30
0.0
 40
3.5
 41
0.0
 71
     9
 72
     1
  1
M24*1.5
 73
     1
 44
1.0
1001
ACAD
1000
MTEXTBEGIN
1070
    73
1070
     1
1070
    44
1040
1.0
1070
    74
1070
     0
1000
MTEXTEND
  0
DIMENSION
  5
6F25
102
{ACAD_XDICTIONARY
360
6F2E
102
}
102
{ACAD_REACTORS
330
6F2F
102
}
330
1F
100
AcDbEntity
  8
AM_5
100
AcDbDimension
  2
*D25
 10
1892.608860932293
 20
873.7115630674024
 30
0.0
 11
1913.772987311464
 21
887.0221434719185
 31
0.0
 70
   163
  1
2-<> THRU
 71
     5
 42
4.5
  3
AM_ISO$3
100
AcDbDiametricDimension
 15
1894.742875848548
 25
877.673378350477
 35
0.0
 40
0.0
1001
ACAD
1000
DSTYLE
1002
{
1070
   272
1070
     8
1002
}
  0
VIEWPORT
  5
67EA
102
{ACAD_XDICTIONARY
360
6FB3
102
}
330
1B
100
AcDbEntity
 67
     1
  8
0
100
AcDbViewport
 10
128.5
 20
97.5
 30
0.0
 40
314.2260000000001
 41
320.1290895953758
 68
     1
 69
     1
 12
128.5
 22
97.5
 13
0.0
 23
0.0
 14
10.0
 24
10.0
 15
10.0
 25
10.0
 16
0.0
 26
0.0
 36
1.0
 17
0.0
 27
0.0
 37
0.0
 42
50.0
 43
0.0
 44
0.0
 45
320.1290895953758
 50
0.0
 51
0.0
 72
   100
 90
    32800
  1

281
     0
 71
     1
 74
     0
110
0.0
120
0.0
130
0.0
111
1.0
121
0.0
131
0.0
112
0.0
122
1.0
132
0.0
 79
     0
146
0.0
  0
ENDSEC
  0
SECTION
  2
OBJECTS
  0
DICTIONARY
  5
C
330
0
100
AcDbDictionary
281
     1
  3
ACAD_COLOR
350
2D4A
  3
ACAD_GROUP
350
D
  3
ACAD_LAYOUT
350
1A
  3
ACAD_MATERIAL
350
2D49
  3
ACAD_MLINESTYLE
350
17
  3
ACAD_PLOTSETTINGS
350
19
  3
ACAD_PLOTSTYLENAME
350
E
  3
ACAD_TABLESTYLE
350
2D4B
  3
AcadDim
350
6EFF
  3
ACDBHEADERROUNDTRIPXREC
350
6FAC
  3
AcDbVariableDictionary
350
161
  3
AcmDictionary
350
45
  3
AMG
350
2B
  3
AMGSNAPSETTINGS
350
7D
  3
DWGPROPS
350
6FAB
  3
MAPISURF_MODULE
350
3092
  0
DICTIONARY
  5
2DFC
330
2
100
AcDbDictionary
280
     1
281
     1
  3
ACAD_LAYERSTATES
360
2DFD
  0
DICTIONARY
  5
159
330
1F
100
AcDbDictionary
280
     1
281
     1
  3
ACAD_INDEX
360
15A
  3
ACAD_LAYOUTSELFREF
360
2CE5
  3
ACAD_SORTENTS
360
6A5C
  0
DICTIONARY
  5
2CA5
330
1B
100
AcDbDictionary
280
     1
281
     1
  3
ACAD_LAYOUTSELFREF
360
2CE4
  0
DICTIONARY
  5
2CA7
330
23
100
AcDbDictionary
280
     1
281
     1
  3
ACAD_LAYOUTSELFREF
360
2CE6
  0
DICTIONARY
  5
6484
330
6477
100
AcDbDictionary
280
     1
281
     1
  3
ACAD_DIMASSOC
360
6485
  0
DICTIONARY
  5
64AE
330
64A1
100
AcDbDictionary
280
     1
281
     1
  3
ACAD_DIMASSOC
360
64AF
  0
DICTIONARY
  5
64D4
330
64C7
100
AcDbDictionary
280
     1
281
     1
  3
ACAD_DIMASSOC
360
64D5
  0
DICTIONARY
  5
657A
330
656D
100
AcDbDictionary
280
     1
281
     1
  3
ACAD_DIMASSOC
360
657B
  0
DICTIONARY
  5
65A4
330
6597
100
AcDbDictionary
280
     1
281
     1
  3
ACAD_DIMASSOC
360
65A5
  0
DICTIONARY
  5
68F6
330
68E9
100
AcDbDictionary
280
     1
281
     1
  3
ACAD_DIMASSOC
360
68F7
  0
DICTIONARY
  5
695C
330
694F
100
AcDbDictionary
280
     1
281
     1
  3
ACAD_DIMASSOC
360
695D
  0
DICTIONARY
  5
69A7
330
699A
100
AcDbDictionary
280
     1
281
     1
  3
ACAD_DIMASSOC
360
69A8
  0
DICTIONARY
  5
69DC
330
69CD
100
AcDbDictionary
280
     1
281
     1
  3
ACAD_DIMASSOC
360
69DD
  0
DICTIONARY
  5
6A0A
330
69FB
100
AcDbDictionary
280
     1
281
     1
  3
ACAD_DIMASSOC
360
6A0B
  0
DICTIONARY
  5
6A4D
330
6A40
100
AcDbDictionary
280
     1
281
     1
  3
ACAD_DIMASSOC
360
6A4E
  0
DICTIONARY
  5
6A6A
330
6A68
100
AcDbDictionary
280
     1
281
     1
  3
ACAD_DIMASSOC
360
6A6B
  0
DICTIONARY
  5
6A89
330
6A7C
100
AcDbDictionary
280
     1
281
     1
  3
ACAD_DIMASSOC
360
6A8A
  0
DICTIONARY
  5
6AD9
330
6ACC
100
AcDbDictionary
280
     1
281
     1
  3
ACAD_DIMASSOC
360
6ADA
  0
DICTIONARY
  5
6B12
330
6B05
100
AcDbDictionary
280
     1
281
     1
  3
ACAD_DIMASSOC
360
6B13
  0
DICTIONARY
  5
6B3C
330
6B2F
100
AcDbDictionary
280
     1
281
     1
  3
ACAD_DIMASSOC
360
6B3D
  0
DICTIONARY
  5
6B70
330
6B63
100
AcDbDictionary
280
     1
281
     1
  3
ACAD_DIMASSOC
360
6B71
  0
DICTIONARY
  5
6B9A
330
6B8D
100
AcDbDictionary
280
     1
281
     1
  3
ACAD_DIMASSOC
360
6B9B
  0
DICTIONARY
  5
6BE4
330
6BD7
100
AcDbDictionary
280
     1
281
     1
  3
ACAD_DIMASSOC
360
6BE5
  0
DICTIONARY
  5
6C0E
330
6C01
100
AcDbDictionary
280
     1
281
     1
  3
ACAD_DIMASSOC
360
6C0F
  0
DICTIONARY
  5
6C57
330
6C4A
100
AcDbDictionary
280
     1
281
     1
  3
ACAD_DIMASSOC
360
6C58
  0
DICTIONARY
  5
6EFD
330
6EFB
100
AcDbDictionary
280
     1
281
     1
  3
ACAD_DIMASSOC
360
6EFE
  0
DICTIONARY
  5
6F2E
330
6F25
100
AcDbDictionary
280
     1
281
     1
  3
ACAD_DIMASSOC
360
6F2F
  0
DICTIONARY
  5
6FB3
330
67EA
100
AcDbDictionary
280
     1
281
     1
  3
ACAD_XREC_ROUNDTRIP
360
6FB4
  0
DICTIONARY
  5
2D4A
102
{ACAD_REACTORS
330
C
102
}
330
C
100
AcDbDictionary
281
     1
  0
DICTIONARY
  5
D
102
{ACAD_REACTORS
330
C
102
}
330
C
100
AcDbDictionary
281
     1
  0
DICTIONARY
  5
1A
102
{ACAD_REACTORS
330
C
102
}
330
C
100
AcDbDictionary
281
     1
  3
Layout1
350
1E
  3
Layout2
350
26
  3
Model
350
22
  0
DICTIONARY
  5
2D49
102
{ACAD_REACTORS
330
C
102
}
330
C
100
AcDbDictionary
281
     1
  0
DICTIONARY
  5
17
102
{ACAD_REACTORS
330
C
102
}
330
C
100
AcDbDictionary
281
     1
  3
Standard
350
18
  0
DICTIONARY
  5
19
102
{ACAD_REACTORS
330
C
102
}
330
C
100
AcDbDictionary
281
     1
  0
ACDBDICTIONARYWDFLT
  5
E
102
{ACAD_REACTORS
330
C
102
}
330
C
100
AcDbDictionary
281
     1
  3
Normal
350
F
100
AcDbDictionaryWithDefault
340
F
  0
DICTIONARY
  5
2D4B
102
{ACAD_REACTORS
330
C
102
}
330
C
100
AcDbDictionary
281
     1
  3
Standard
350
2D4C
  0
XRECORD
  5
6EFF
102
{ACAD_REACTORS
330
C
102
}
330
C
100
AcDbXrecord
280
     1
 90
   990106
  3

 60
     0
 61
     0
 62
     4
 63
     4
 64
     1
 65
     0
 66
     0
 67
     3
 68
     0
 69
     0
 70
     0
 71
     0
 72
     0
 40
0.0
170
     2
340
6EFC
  0
DICTIONARY
  5
6FAC
102
{ACAD_REACTORS
330
C
102
}
330
C
100
AcDbDictionary
281
     1
  0
DICTIONARY
  5
161
102
{ACAD_REACTORS
330
C
102
}
330
C
100
AcDbDictionary
281
     1
  3
CTABLESTYLE
350
2DF7
  3
DIMASSOC
350
164
  3
HIDETEXT
350
163
  3
INDEXCTL
350
162
  3
PROJECTNAME
350
3004
  0
DICTIONARY
  5
45
102
{ACAD_REACTORS
330
C
102
}
330
C
100
AcDbDictionary
281
     1
  3
AcmStdDictionary
350
4A
  3
AMDTSECTSYM_ARROWCOLOR
350
2DBE
  0
DICTIONARY
  5
2B
102
{ACAD_REACTORS
330
C
102
}
330
C
100
AcDbDictionary
281
     1
  3
AcMgSettings
350
300C
  0
DICTIONARY
  5
7D
102
{ACAD_REACTORS
330
C
102
}
330
C
100
AcDbDictionary
281
     1
  0
XRECORD
  5
6FAB
102
{ACAD_REACTORS
330
C
102
}
330
C
100
AcDbXrecord
280
     1
  1
DWGPROPS COOKIE
  2

  3

  4

  6

  7

  8

  9

300
AmdtFileType=84
301
=
302
=
303
=
304
=
305
=
306
=
307
=
308
=
309
=
 40
0.4213786111111112
 41
2453229.426093924
 42
2456890.441654179
  1

 90
        1
  0
DICTIONARY
  5
2DFD
102
{ACAD_REACTORS
330
2DFC
102
}
330
2DFC
100
AcDbDictionary
281
     1
  0
DICTIONARY
  5
15A
102
{ACAD_REACTORS
330
159
102
}
330
159
100
AcDbDictionary
281
     1
  3
*A1
350
15B
  0
XRECORD
  5
2CE5
102
{ACAD_REACTORS
330
159
102
}
330
159
100
AcDbXrecord
280
     1
340
1F
  0
SORTENTSTABLE
  5
6A5C
102
{ACAD_REACTORS
330
159
102
}
330
159
100
AcDbSortentsTable
330
1F
331
68D0
  5
68D1
331
57D1
  5
57D1
331
5810
  5
5810
331
5F9A
  5
5F9B
331
5F5B
  5
5F5C
331
57D9
  5
57D9
331
5818
  5
5818
331
5E4F
  5
5E4F
331
5EE5
  5
5EE5
331
5FA2
  5
5FA3
331
57E1
  5
57E1
331
5820
  5
5820
331
5EED
  5
5EED
331
5F63
  5
5F64
331
5FAA
  5
5FAB
331
5EF5
  5
5EF5
331
5E5F
  5
5E5F
331
5828
  5
5828
331
5EAE
  5
5EAE
331
5F6B
  5
5F6C
331
5E67
  5
5E67
331
5EB6
  5
5EB6
331
5EFD
  5
5EFD
331
5FB2
  5
5FB3
331
6010
  5
6011
331
5FD1
  5
5FD2
331
616F
  5
6253
331
6018
  5
6019
331
5FD9
  5
5FDA
331
62CE
  5
62CF
331
68D8
  5
68D9
331
66D1
  5
66D2
331
62D6
  5
62D7
331
6257
  5
6258
331
6020
  5
6021
331
5FE1
  5
5FE2
331
62DE
  5
62DF
331
6028
  5
6029
331
5FE9
  5
5FEA
331
6899
  5
689A
331
63ED
  5
63EE
331
62E6
  5
62E7
331
68A1
  5
68A2
331
5830
  5
5830
331
5F44
  5
5F44
331
57F9
  5
57F9
331
5E6F
  5
5E6F
331
5EBE
  5
5EBE
331
5FBA
  5
5FBB
331
5F83
  5
5F84
331
5F4C
  5
5F4C
331
5E40
  5
5E40
331
5E77
  5
5E77
331
5F0D
  5
5F0D
331
5FC2
  5
5FC3
331
5F8B
  5
5F8C
331
5F15
  5
5F15
331
5809
  5
5809
331
5EDE
  5
5EDE
331
5FCA
  5
5FCB
331
5E8F
  5
5E8F
331
5F93
  5
5F94
331
6030
  5
6031
331
5FF1
  5
5FF2
331
62EE
  5
62EF
331
5FF9
  5
5FFA
331
62AF
  5
62B0
331
68A9
  5
68C6
331
643D
  5
643F
331
62F6
  5
62F7
331
6120
  5
6123
331
6001
  5
6002
331
62B7
  5
62B8
331
62FE
  5
6300
331
6009
  5
600A
331
62BF
  5
62C0
331
66CA
  5
66CB
331
68C9
  5
68CA
331
62C7
  5
62C8
331
68D1
  5
68D2
331
18EC
  5
18EC
331
5E48
  5
5E48
331
57D2
  5
57D2
331
5811
  5
5811
331
5F9B
  5
5F9C
331
5E50
  5
5E50
331
57DA
  5
57DA
331
5819
  5
5819
331
5EE6
  5
5EE6
331
5F5C
  5
5F5D
331
5FA3
  5
5FA4
331
5EEE
  5
5EEE
331
57E2
  5
57E2
331
5821
  5
5821
331
5E58
  5
5E58
331
5F64
  5
5F65
331
5FAB
  5
5FAC
331
5829
  5
5829
331
5EAF
  5
5EAF
331
5F6C
  5
5F6D
331
5EFE
  5
5EFE
331
5EB7
  5
5EB7
331
5FB3
  5
5FB4
331
6011
  5
6012
331
5FD2
  5
5FD3
331
6524
  5
6525
331
6019
  5
601A
331
5FDA
  5
5FDB
331
62CF
  5
62D0
331
68D9
  5
68E9
331
66D2
  5
6729
331
6258
  5
6259
331
6021
  5
6022
331
5FE2
  5
5FE3
331
62D7
  5
62D8
331
68E9
  5
694F
331
62DF
  5
62E0
331
6029
  5
602A
331
5FEA
  5
5FEB
331
689A
  5
689B
331
62E7
  5
62E9
331
63EE
  5
63EF
331
68A2
  5
68A3
331
5831
  5
5831
331
5E68
  5
5E68
331
5FBB
  5
5FBC
331
5F45
  5
5F45
331
57FA
  5
57FA
331
5E70
  5
5E70
331
5EBF
  5
5EBF
331
5F7C
  5
5F7D
331
5FC3
  5
5FC4
331
5F4D
  5
5F4D
331
5E41
  5
5E41
331
5F0E
  5
5F0E
331
5F84
  5
5F85
331
5F8C
  5
5F8D
331
5F16
  5
5F16
331
5EDF
  5
5EDF
331
5FCB
  5
5FCC
331
5F94
  5
5F95
331
5F1E
  5
5F1E
331
62A8
  5
62A9
331
6031
  5
6032
331
5FF2
  5
5FF3
331
62EF
  5
62F0
331
5FFA
  5
5FFB
331
62B0
  5
62B1
331
6436
  5
6437
331
62F7
  5
62F8
331
6002
  5
6003
331
62B8
  5
62B9
331
600A
  5
600B
331
62C0
  5
62C1
331
66CB
  5
66CC
331
68CA
  5
68CB
331
68D2
  5
68D3
331
5E49
  5
5E49
331
5812
  5
5812
331
57D3
  5
57D3
331
5E90
  5
5E90
331
5F9C
  5
5F9D
331
5E51
  5
5E51
331
57DB
  5
57DB
331
581A
  5
581A
331
5EE7
  5
5EE7
331
5F5D
  5
5F5E
331
5FA4
  5
5FA5
331
57E3
  5
57E3
331
5822
  5
5822
331
5E59
  5
5E59
331
5EEF
  5
5EEF
331
5F65
  5
5F66
331
5FAC
  5
5FAD
331
5EB0
  5
5EB0
331
5E61
  5
5E61
331
57EB
  5
57EB
331
582A
  5
582A
331
5F6D
  5
5F6E
331
5EFF
  5
5EFF
331
5FB4
  5
5FB5
331
5FD3
  5
5FD4
331
6012
  5
6013
331
62C8
  5
62C9
331
6525
  5
6526
331
601A
  5
601B
331
5FDB
  5
5FDC
331
62D0
  5
62D1
331
655D
  5
656D
331
6259
  5
62A2
331
6022
  5
6023
331
5FE3
  5
5FE4
331
62D8
  5
62D9
331
656D
  5
6597
331
602A
  5
602B
331
5FEB
  5
5FEC
331
62E0
  5
62E1
331
63E7
  5
63E8
331
689B
  5
689C
331
63EF
  5
6436
331
68A3
  5
68A8
331
5EB8
  5
5EB8
331
5E69
  5
5E69
331
5FBC
  5
5FBD
331
5F7D
  5
5F7E
331
5F07
  5
5F07
331
5EC0
  5
5EC0
331
57FB
  5
57FB
331
5E71
  5
5E71
331
5F46
  5
5F46
331
5FC4
  5
5FC5
331
5F4E
  5
5F4E
331
5803
  5
5803
331
5E42
  5
5E42
331
5F0F
  5
5F0F
331
5F85
  5
5F86
331
5F17
  5
5F17
331
5E89
  5
5E89
331
5F8D
  5
5F8E
331
5FCC
  5
5FCD
331
5F95
  5
5F96
331
5F1F
  5
5F1F
331
62A9
  5
62AA
331
6032
  5
6033
331
5FF3
  5
5FF4
331
62B1
  5
62B2
331
5FFB
  5
5FFC
331
62F0
  5
62F1
331
6437
  5
6438
331
62F8
  5
62F9
331
6003
  5
6004
331
62B9
  5
62BA
331
643F
  5
6440
331
62C1
  5
62C2
331
600B
  5
600C
331
66CC
  5
66CD
331
68CB
  5
68CC
331
6477
  5
64A1
331
68D3
  5
68D4
331
5813
  5
5813
331
57D4
  5
57D4
331
5E4A
  5
5E4A
331
5E91
  5
5E91
331
5EE0
  5
5EE0
331
5F9D
  5
5F9E
331
5F5E
  5
5F5F
331
5E52
  5
5E52
331
581B
  5
581B
331
57DC
  5
57DC
331
5EE8
  5
5EE8
331
5FA5
  5
5FA6
331
5F66
  5
5F67
331
57E4
  5
57E4
331
5823
  5
5823
331
5EF0
  5
5EF0
331
5FAD
  5
5FAE
331
5EB1
  5
5EB1
331
582B
  5
582B
331
5E62
  5
5E62
331
5F6E
  5
5F70
331
5FB5
  5
5FB6
331
6300
  5
63DA
331
5FD4
  5
5FD5
331
6013
  5
6014
331
62C9
  5
62CA
331
5FDC
  5
5FDD
331
601B
  5
601C
331
62D1
  5
62D2
331
6526
  5
655D
331
6A40
  5
6A5B
331
6023
  5
6024
331
5FE4
  5
5FE5
331
62D9
  5
62DA
331
62A2
  5
62A3
331
602B
  5
602C
331
5FEC
  5
5FED
331
62E1
  5
62E2
331
63E8
  5
63E9
331
699A
  5
69CD
331
689C
  5
689D
331
5EB9
  5
5EB9
331
57F4
  5
57F4
331
5E6A
  5
5E6A
331
5F00
  5
5F00
331
5FBD
  5
5FBE
331
5F7E
  5
5F7F
331
5F08
  5
5F08
331
5EC1
  5
5EC1
331
5E72
  5
5E72
331
5F47
  5
5F47
331
5F86
  5
5F87
331
5E43
  5
5E43
331
5F10
  5
5F10
331
5F4F
  5
5F4F
331
5FC5
  5
5FC6
331
5F57
  5
5F58
331
5F18
  5
5F18
331
5F8E
  5
5F8F
331
5FCD
  5
5FCE
331
5F96
  5
5F97
331
6033
  5
6034
331
5FF4
  5
5FF5
331
62AA
  5
62AB
331
62E9
  5
62EA
331
62B2
  5
62B3
331
611B
  5
611C
331
5FFC
  5
5FFD
331
62F1
  5
62F2
331
6438
  5
6439
331
64C7
  5
6521
331
62F9
  5
62FA
331
62BA
  5
62BB
331
6123
  5
6124
331
6004
  5
6005
331
6440
  5
6477
331
662D
  5
66C9
331
62C2
  5
62C3
331
600C
  5
600D
331
66CD
  5
66CE
331
68CC
  5
68CD
331
68D4
  5
68D5
331
5EE1
  5
5EE1
331
5814
  5
5814
331
57D5
  5
57D5
331
5E4B
  5
5E4B
331
5E92
  5
5E92
331
5F5F
  5
5F60
331
581C
  5
581C
331
57DD
  5
57DD
331
5E53
  5
5E53
331
5EE9
  5
5EE9
331
5F9E
  5
5F9F
331
5FA6
  5
5FA7
331
5F67
  5
5F68
331
5E5B
  5
5E5B
331
57E5
  5
57E5
331
5824
  5
5824
331
5EF1
  5
5EF1
331
5EB2
  5
5EB2
331
5E63
  5
5E63
331
582C
  5
582C
331
5FAE
  5
5FAF
331
5FB6
  5
5FB7
331
5FD5
  5
5FD6
331
6014
  5
6015
331
62CA
  5
62CB
331
62D2
  5
62D3
331
5FDD
  5
5FDE
331
601C
  5
601D
331
6253
  5
6254
331
63E1
  5
63E7
331
6024
  5
6025
331
5FE5
  5
5FE6
331
62DA
  5
62DB
331
602C
  5
602D
331
5FED
  5
5FEE
331
62A3
  5
62A4
331
62E2
  5
62E3
331
63E9
  5
63EA
331
689D
  5
689E
331
5F01
  5
5F01
331
57F5
  5
57F5
331
5E6B
  5
5E6B
331
5EBA
  5
5EBA
331
5FBE
  5
5FBF
331
5F48
  5
5F48
331
5EC2
  5
5EC2
331
5E73
  5
5E73
331
5F09
  5
5F09
331
5F7F
  5
5F80
331
5FC6
  5
5FC7
331
5F87
  5
5F88
331
5F11
  5
5F11
331
5E44
  5
5E44
331
5E83
  5
5E83
331
5F50
  5
5F51
331
5F19
  5
5F19
331
580D
  5
580D
331
5E8B
  5
5E8B
331
5F8F
  5
5F90
331
5FCE
  5
5FCF
331
5F97
  5
5F98
331
6034
  5
6035
331
5FF5
  5
5FF6
331
62AB
  5
62AC
331
62EA
  5
62EB
331
6597
  5
662D
331
611C
  5
611D
331
5FFD
  5
5FFE
331
62B3
  5
62B4
331
62F2
  5
62F3
331
6439
  5
643A
331
62BB
  5
62BC
331
6124
  5
6125
331
6005
  5
6006
331
62FA
  5
62FB
331
600D
  5
600E
331
62C3
  5
62C4
331
66CE
  5
66CF
331
68CD
  5
68CE
331
68D5
  5
68D6
331
5EE2
  5
5EE2
331
5E4C
  5
5E4C
331
57D6
  5
57D6
331
5815
  5
5815
331
5E93
  5
5E93
331
5F58
  5
5F59
331
5F60
  5
5F61
331
581D
  5
581D
331
57DE
  5
57DE
331
5E54
  5
5E54
331
5EEA
  5
5EEA
331
5F9F
  5
5FA0
331
5E5C
  5
5E5C
331
5825
  5
5825
331
57E6
  5
57E6
331
5EF2
  5
5EF2
331
5F68
  5
5F69
331
5FA7
  5
5FA8
331
5FAF
  5
5FB0
331
5F70
  5
5F7C
331
5E64
  5
5E64
331
582D
  5
582D
331
5EB3
  5
5EB3
331
5FB7
  5
5FB8
331
62CB
  5
62CC
331
5FD6
  5
5FD7
331
6015
  5
6016
331
63DA
  5
63DB
331
62D3
  5
62D4
331
5FDE
  5
5FDF
331
601D
  5
601E
331
6254
  5
6255
331
64A1
  5
64C7
331
5FE6
  5
5FE7
331
6025
  5
6026
331
62DB
  5
62DD
331
69FB
  5
6A40
331
63EA
  5
63EB
331
602D
  5
602E
331
5FEE
  5
5FEF
331
62A4
  5
62A5
331
62E3
  5
62E4
331
689E
  5
689F
331
5F02
  5
5F02
331
5E6C
  5
5E6C
331
57F6
  5
57F6
331
5EBB
  5
5EBB
331
5FBF
  5
5FC0
331
5F80
  5
5F81
331
5F49
  5
5F49
331
5E74
  5
5E74
331
5F0A
  5
5F0A
331
5FC7
  5
5FC8
331
5F88
  5
5F89
331
5F51
  5
5F52
331
5E45
  5
5E45
331
5EDB
  5
5EDB
331
5F12
  5
5F12
331
580E
  5
580E
331
5E8C
  5
5E8C
331
5F90
  5
5F91
331
5FCF
  5
5FD0
331
62AC
  5
62AD
331
5FF6
  5
5FF7
331
6035
  5
611B
331
62EB
  5
62EC
331
643A
  5
643B
331
611D
  5
611E
331
5FFE
  5
5FFF
331
62B4
  5
62B5
331
62F3
  5
62F4
331
62BC
  5
62BD
331
6125
  5
616F
331
6006
  5
6007
331
62FB
  5
62FC
331
68C6
  5
68C7
331
66CF
  5
66D0
331
62C4
  5
62C5
331
600E
  5
600F
331
68CE
  5
68CF
331
68D6
  5
68D7
331
5F98
  5
5F99
331
5EE3
  5
5EE3
331
5E4D
  5
5E4D
331
57D7
  5
57D7
331
5816
  5
5816
331
5E94
  5
5E94
331
5F59
  5
5F5A
331
5FA0
  5
5FA1
331
57DF
  5
57DF
331
581E
  5
581E
331
5E55
  5
5E55
331
5E9C
  5
5E9C
331
5EEB
  5
5EEB
331
5F61
  5
5F62
331
5F69
  5
5F6A
331
5EF3
  5
5EF3
331
5826
  5
5826
331
57E7
  5
57E7
331
5E5D
  5
5E5D
331
5FA8
  5
5FA9
331
5FB0
  5
5FB1
331
5E65
  5
5E65
331
582E
  5
582E
331
57EF
  5
57EF
331
5EB4
  5
5EB4
331
62CC
  5
62CD
331
5FD7
  5
5FD8
331
6016
  5
6017
331
6521
  5
6524
331
63DB
  5
63E1
331
62D4
  5
62D5
331
6255
  5
6256
331
5FDF
  5
5FE0
331
601E
  5
601F
331
5FE7
  5
5FE8
331
6026
  5
6027
331
63EB
  5
63EC
331
5FEF
  5
5FF0
331
602E
  5
602F
331
62A5
  5
62A6
331
62E4
  5
62E5
331
689F
  5
68A0
331
6A5B
  5
5F50
331
5F42
  5
5F42
331
57F7
  5
57F7
331
5E6D
  5
5E6D
331
5F03
  5
5F03
331
5FB8
  5
5FB9
331
5FC0
  5
5FC1
331
5F81
  5
5F82
331
5F4A
  5
5F4A
331
5E75
  5
5E75
331
57FF
  5
57FF
331
5EC4
  5
5EC4
331
5F0B
  5
5F0B
331
5FC8
  5
5FC9
331
5F89
  5
5F8A
331
5F52
  5
5F53
331
5EDC
  5
5EDC
331
5E85
  5
5E85
331
5E46
  5
5E46
331
5807
  5
5807
331
5F13
  5
5F13
331
5F91
  5
5F92
331
580F
  5
580F
331
5E8D
  5
5E8D
331
5F1B
  5
5F1B
331
62EC
  5
62ED
331
5FF7
  5
5FF8
331
62AD
  5
62AE
331
643B
  5
643C
331
62B5
  5
62B6
331
5FFF
  5
6000
331
611E
  5
611F
331
62F4
  5
62F5
331
6007
  5
6008
331
62BD
  5
62BE
331
62FC
  5
62FD
331
68C7
  5
68C8
331
62C5
  5
62C6
331
600F
  5
6010
331
68CF
  5
68D0
331
69CD
  5
69FB
331
68D7
  5
68D8
331
57D0
  5
57D0
331
5F99
  5
5F9A
331
5EE4
  5
5EE4
331
5E4E
  5
5E4E
331
57D8
  5
57D8
331
5817
  5
5817
331
5F5A
  5
5F5B
331
5FA1
  5
5FA2
331
5EEC
  5
5EEC
331
57E0
  5
57E0
331
581F
  5
581F
331
5E56
  5
5E56
331
5E9D
  5
5E9D
331
5F62
  5
5F63
331
5FA9
  5
5FAA
331
5827
  5
5827
331
5EAD
  5
5EAD
331
5F6A
  5
5F6B
331
582F
  5
582F
331
5E66
  5
5E66
331
5EB5
  5
5EB5
331
5EFC
  5
5EFC
331
5FB1
  5
5FB2
331
5FD0
  5
5FD1
331
6017
  5
6018
331
5FD8
  5
5FD9
331
62CD
  5
62CE
331
66D0
  5
66D1
331
62D5
  5
62D6
331
6256
  5
6257
331
5FE0
  5
5FE1
331
601F
  5
6020
331
6027
  5
6028
331
5FE8
  5
5FE9
331
62DD
  5
62DE
331
63EC
  5
63ED
331
62E5
  5
62E6
331
602F
  5
6030
331
62A6
  5
62A8
331
68A0
  5
68A1
331
694F
  5
699A
331
57F0
  5
57F0
331
5F43
  5
5F43
331
5F04
  5
5F04
331
57F8
  5
57F8
331
5E6E
  5
5E6E
331
5EBD
  5
5EBD
331
5FB9
  5
5FBA
331
5F82
  5
5F83
331
5F4B
  5
5F4B
331
5E76
  5
5E76
331
5E3F
  5
5E3F
331
5EC5
  5
5EC5
331
5F0C
  5
5F0C
331
5FC1
  5
5FC2
331
5FC9
  5
5FCA
331
5F8A
  5
5F8B
331
5F53
  5
5F57
331
5F14
  5
5F14
331
5E86
  5
5E86
331
5E47
  5
5E47
331
5808
  5
5808
331
5EDD
  5
5EDD
331
5F92
  5
5F93
331
5E8E
  5
5E8E
331
5F1C
  5
5F1C
331
5FF0
  5
5FF1
331
62ED
  5
62EE
331
5FF8
  5
5FF9
331
62AE
  5
62AF
331
68A8
  5
68A9
331
643C
  5
643D
331
6000
  5
6001
331
611F
  5
6120
331
62B6
  5
62B7
331
62F5
  5
62F6
331
6008
  5
6009
331
62BE
  5
62BF
331
62FD
  5
62FE
331
66C9
  5
66CA
331
68C8
  5
68C9
331
62C6
  5
62C7
  0
XRECORD
  5
2CE4
102
{ACAD_REACTORS
330
2CA5
102
}
330
2CA5
100
AcDbXrecord
280
     1
340
1B
  0
XRECORD
  5
2CE6
102
{ACAD_REACTORS
330
2CA7
102
}
330
2CA7
100
AcDbXrecord
280
     1
340
23
  0
DIMASSOC
  5
6485
102
{ACAD_REACTORS
330
6484
102
}
330
6484
100
AcDbDimAssoc
330
6477
 90
        3
 70
     0
 71
     0
  1
AcDbOsnapPointRef
 72
     1
331
5F09
 73
     0
 91
        0
 40
0.0
 10
0.0
 20
0.0
 30
2.000000000000000E+50
 75
     0
  1
AcDbOsnapPointRef
 72
     1
331
5F03
 73
     0
 91
        0
 40
0.0
 10
0.0
 20
0.0
 30
2.000000000000000E+50
 75
     0
  0
DIMASSOC
  5
64AF
102
{ACAD_REACTORS
330
64AE
102
}
330
64AE
100
AcDbDimAssoc
330
64A1
 90
        3
 70
     0
 71
     0
  1
AcDbOsnapPointRef
 72
     1
331
5F0A
 73
     0
 91
        0
 40
0.0
 10
0.0
 20
0.0
 30
2.000000000000000E+50
 75
     0
  1
AcDbOsnapPointRef
 72
    13
331
5F03
 73
     0
 91
        0
 40
0.0
 10
0.0
 20
0.0
 30
2.000000000000000E+50
 75
     0
  0
DIMASSOC
  5
64D5
102
{ACAD_REACTORS
330
64D4
102
}
330
64D4
100
AcDbDimAssoc
330
64C7
 90
        3
 70
     0
 71
     0
  1
AcDbOsnapPointRef
 72
    13
331
5F0F
 73
     0
 91
        0
 40
0.0
 10
0.0
 20
0.0
 30
2.000000000000000E+50
 75
     0
  1
AcDbOsnapPointRef
 72
     1
331
5EFE
 73
     0
 91
        0
 40
0.0
 10
0.0
 20
0.0
 30
2.000000000000000E+50
 75
     0
  0
DIMASSOC
  5
657B
102
{ACAD_REACTORS
330
657A
102
}
330
657A
100
AcDbDimAssoc
330
656D
 90
        3
 70
     0
 71
     0
  1
AcDbOsnapPointRef
 72
    13
331
5F04
 73
     0
 91
        0
 40
0.0
 10
0.0
 20
0.0
 30
2.000000000000000E+50
 75
     0
  1
AcDbOsnapPointRef
 72
    13
331
5F00
 73
     0
 91
        0
 40
0.0
 10
0.0
 20
0.0
 30
2.000000000000000E+50
 75
     0
  0
DIMASSOC
  5
65A5
102
{ACAD_REACTORS
330
65A4
102
}
330
65A4
100
AcDbDimAssoc
330
6597
 90
        3
 70
     0
 71
     0
  1
AcDbOsnapPointRef
 72
    13
331
5F04
 73
     0
 91
        0
 40
0.0
 10
0.0
 20
0.0
 30
2.000000000000000E+50
 75
     0
  1
AcDbOsnapPointRef
 72
     1
331
5E83
 73
     0
 91
        0
 40
0.0
 10
0.0
 20
0.0
 30
2.000000000000000E+50
 75
     0
  0
DIMASSOC
  5
68F7
102
{ACAD_REACTORS
330
68F6
102
}
330
68F6
100
AcDbDimAssoc
330
68E9
 90
        3
 70
     0
 71
     0
  1
AcDbOsnapPointRef
 72
    13
331
62E7
 73
     0
 91
        0
 40
0.0
 10
0.0
 20
0.0
 30
2.000000000000000E+50
 75
     0
  1
AcDbOsnapPointRef
 72
     1
331
62E4
 73
     0
 91
        0
 40
0.0
 10
0.0
 20
0.0
 30
2.000000000000000E+50
 75
     0
  0
DIMASSOC
  5
695D
102
{ACAD_REACTORS
330
695C
102
}
330
695C
100
AcDbDimAssoc
330
694F
 90
        3
 70
     0
 71
     0
  1
AcDbOsnapPointRef
 72
     1
331
643C
 73
     0
 91
        0
 40
0.0
 10
0.0
 20
0.0
 30
2.000000000000000E+50
 75
     0
  1
AcDbOsnapPointRef
 72
     1
331
6437
 73
     0
 91
        0
 40
0.0
 10
0.0
 20
0.0
 30
2.000000000000000E+50
 75
     0
  0
DIMASSOC
  5
69A8
102
{ACAD_REACTORS
330
69A7
102
}
330
69A7
100
AcDbDimAssoc
330
699A
 90
        3
 70
     0
 71
     0
  1
AcDbOsnapPointRef
 72
    13
331
62E2
 73
     0
 91
        0
 40
0.0
 10
0.0
 20
0.0
 30
2.000000000000000E+50
 75
     0
  1
AcDbOsnapPointRef
 72
     1
331
62E6
 73
     0
 91
        0
 40
0.0
 10
0.0
 20
0.0
 30
2.000000000000000E+50
 75
     0
  0
DIMASSOC
  5
69DD
102
{ACAD_REACTORS
330
69DC
102
}
330
69DC
100
AcDbDimAssoc
330
69CD
 90
        3
 70
     0
 71
     0
  1
AcDbOsnapPointRef
 72
     1
331
62B2
 73
     0
 91
        0
 40
0.0
 10
0.0
 20
0.0
 30
2.000000000000000E+50
 75
     0
  1
AcDbOsnapPointRef
 72
    13
331
62B3
 73
     0
 91
        0
 40
0.0
 10
0.0
 20
0.0
 30
2.000000000000000E+50
 75
     0
  0
DIMASSOC
  5
6A0B
102
{ACAD_REACTORS
330
6A0A
102
}
330
6A0A
100
AcDbDimAssoc
330
69FB
 90
        3
 70
     0
 71
     0
  1
AcDbOsnapPointRef
 72
    13
331
5FF0
 73
     0
 91
        0
 40
0.0
 10
0.0
 20
0.0
 30
2.000000000000000E+50
 75
     0
  1
AcDbOsnapPointRef
 72
    13
331
5F47
 73
     0
 91
        0
 40
0.0
 10
0.0
 20
0.0
 30
2.000000000000000E+50
 75
     0
  0
DIMASSOC
  5
6A4E
102
{ACAD_REACTORS
330
6A4D
102
}
330
6A4D
100
AcDbDimAssoc
330
6A40
 90
        3
 70
     0
 71
     0
  1
AcDbOsnapPointRef
 72
     1
331
5F4C
 73
     0
 91
        0
 40
0.0
 10
0.0
 20
0.0
 30
2.000000000000000E+50
 75
     0
  1
AcDbOsnapPointRef
 72
     1
331
5F46
 73
     0
 91
        0
 40
0.0
 10
0.0
 20
0.0
 30
2.000000000000000E+50
 75
     0
  0
DIMASSOC
  5
6A6B
102
{ACAD_REACTORS
330
6A6A
102
}
330
6A6A
100
AcDbDimAssoc
330
6A68
 90
        1
 70
     0
 71
     0
  1
AcDbOsnapPointRef
 72
    10
331
66CE
 73
     2
 91
        0
 40
0.4186260745175014
 10
0.0
 20
0.0
 30
0.0
 75
     0
  0
DIMASSOC
  5
6A8A
102
{ACAD_REACTORS
330
6A89
102
}
330
6A89
100
AcDbDimAssoc
330
6A7C
 90
        3
 70
     0
 71
     0
  1
AcDbOsnapPointRef
 72
    13
331
5F53
 73
     0
 91
        0
 40
0.0
 10
0.0
 20
0.0
 30
2.000000000000000E+50
 75
     0
  1
AcDbOsnapPointRef
 72
    13
331
66D2
 73
     0
 91
        0
 40
0.0
 10
0.0
 20
0.0
 30
2.000000000000000E+50
 75
     0
  0
DIMASSOC
  5
6ADA
102
{ACAD_REACTORS
330
6AD9
102
}
330
6AD9
100
AcDbDimAssoc
330
6ACC
 90
        3
 70
     0
 71
     0
  1
AcDbOsnapPointRef
 72
    13
331
5FAE
 73
     0
 91
        0
 40
0.0
 10
0.0
 20
0.0
 30
2.000000000000000E+50
 75
     0
  1
AcDbOsnapPointRef
 72
    13
331
5FAF
 73
     0
 91
        0
 40
0.0
 10
0.0
 20
0.0
 30
2.000000000000000E+50
 75
     0
  0
DIMASSOC
  5
6B13
102
{ACAD_REACTORS
330
6B12
102
}
330
6B12
100
AcDbDimAssoc
330
6B05
 90
        3
 70
     0
 71
     0
  1
AcDbOsnapPointRef
 72
     1
331
5F61
 73
     0
 91
        0
 40
0.0
 10
0.0
 20
0.0
 30
2.000000000000000E+50
 75
     0
  1
AcDbOsnapPointRef
 72
     1
331
5E45
 73
     0
 91
        0
 40
0.0
 10
0.0
 20
0.0
 30
2.000000000000000E+50
 75
     0
  0
DIMASSOC
  5
6B3D
102
{ACAD_REACTORS
330
6B3C
102
}
330
6B3C
100
AcDbDimAssoc
330
6B2F
 90
        3
 70
     0
 71
     0
  1
AcDbOsnapPointRef
 72
     1
331
5F62
 73
     0
 91
        0
 40
0.0
 10
0.0
 20
0.0
 30
2.000000000000000E+50
 75
     0
  1
AcDbOsnapPointRef
 72
    13
331
5F62
 73
     0
 91
        0
 40
0.0
 10
0.0
 20
0.0
 30
2.000000000000000E+50
 75
     0
  0
DIMASSOC
  5
6B71
102
{ACAD_REACTORS
330
6B70
102
}
330
6B70
100
AcDbDimAssoc
330
6B63
 90
        3
 70
     0
 71
     0
  1
AcDbOsnapPointRef
 72
    13
331
5F6E
 73
     0
 91
        0
 40
0.0
 10
0.0
 20
0.0
 30
2.000000000000000E+50
 75
     0
  1
AcDbOsnapPointRef
 72
     1
331
5F62
 73
     0
 91
        0
 40
0.0
 10
0.0
 20
0.0
 30
2.000000000000000E+50
 75
     0
  0
DIMASSOC
  5
6B9B
102
{ACAD_REACTORS
330
6B9A
102
}
330
6B9A
100
AcDbDimAssoc
330
6B8D
 90
        3
 70
     0
 71
     0
  1
AcDbOsnapPointRef
 72
     1
331
5F63
 73
     0
 91
        0
 40
0.0
 10
0.0
 20
0.0
 30
2.000000000000000E+50
 75
     0
  1
AcDbOsnapPointRef
 72
    13
331
5F89
 73
     0
 91
        0
 40
0.0
 10
0.0
 20
0.0
 30
2.000000000000000E+50
 75
     0
  0
DIMASSOC
  5
6BE5
102
{ACAD_REACTORS
330
6BE4
102
}
330
6BE4
100
AcDbDimAssoc
330
6BD7
 90
        3
 70
     0
 71
     0
  1
AcDbOsnapPointRef
 72
     1
331
5F63
 73
     0
 91
        0
 40
0.0
 10
0.0
 20
0.0
 30
2.000000000000000E+50
 75
     0
  1
AcDbOsnapPointRef
 72
     1
331
5FE4
 73
     0
 91
        0
 40
0.0
 10
0.0
 20
0.0
 30
2.000000000000000E+50
 75
     0
  0
DIMASSOC
  5
6C0F
102
{ACAD_REACTORS
330
6C0E
102
}
330
6C0E
100
AcDbDimAssoc
330
6C01
 90
        3
 70
     0
 71
     0
  1
AcDbOsnapPointRef
 72
    13
331
5F89
 73
     0
 91
        0
 40
0.0
 10
0.0
 20
0.0
 30
2.000000000000000E+50
 75
     0
  1
AcDbOsnapPointRef
 72
     1
331
5FE2
 73
     0
 91
        0
 40
0.0
 10
0.0
 20
0.0
 30
2.000000000000000E+50
 75
     0
  0
DIMASSOC
  5
6C58
102
{ACAD_REACTORS
330
6C57
102
}
330
6C57
100
AcDbDimAssoc
330
6C4A
 90
        3
 70
     0
 71
     0
  1
AcDbOsnapPointRef
 72
    13
331
5F81
 73
     0
 91
        0
 40
0.0
 10
0.0
 20
0.0
 30
2.000000000000000E+50
 75
     0
  1
AcDbOsnapPointRef
 72
    13
331
5F86
 73
     0
 91
        0
 40
0.0
 10
0.0
 20
0.0
 30
2.000000000000000E+50
 75
     0
  0
DIMASSOC
  5
6EFE
102
{ACAD_REACTORS
330
6EFD
102
}
330
6EFD
100
AcDbDimAssoc
330
6EFB
 90
        1
 70
     0
 71
     0
  1
AcDbOsnapPointRef
 72
    10
331
5FF7
 73
     2
 91
        0
 40
0.5153589106298569
 10
0.0
 20
0.0
 30
0.0
 75
     0
  0
DIMASSOC
  5
6F2F
102
{ACAD_REACTORS
330
6F2E
102
}
330
6F2E
100
AcDbDimAssoc
330
6F25
 90
        2
 70
     0
 71
     0
  1
AcDbOsnapPointRef
 72
     3
331
5FFF
 73
     0
 91
        0
 40
0.0
 10
0.0
 20
0.0
 30
0.0
 75
     0
  0
XRECORD
  5
6FB4
102
{ACAD_REACTORS
330
6FB3
102
}
330
6FB3
100
AcDbXrecord
280
     1
102
SHADEPLOT
 70
     0
  0
LAYOUT
  5
1E
102
{ACAD_XDICTIONARY
360
6FAD
102
}
102
{ACAD_REACTORS
330
1A
102
}
330
1A
100
AcDbPlotSettings
  1

  2
none_device
  4
ISO_A4_(210.00_x_297.00_MM)
  6

 40
7.5
 41
20.0
 42
7.5
 43
20.0
 44
210.0
 45
297.0
 46
0.0
 47
0.0
 48
0.0
 49
0.0
140
0.0
141
0.0
142
1.0
143
1.0
 70
   688
 72
     1
 73
     1
 74
     5
  7
單色出圖.ctb
 75
    16
147
1.0
148
0.0
149
0.0
100
AcDbLayout
  1
Layout1
 70
     1
 71
     1
 10
0.0
 20
0.0
 11
420.0
 21
297.0
 12
0.0
 22
0.0
 32
0.0
 14
1.000000000000000E+20
 24
1.000000000000000E+20
 34
1.000000000000000E+20
 15
-1.000000000000000E+20
 25
-1.000000000000000E+20
 35
-1.000000000000000E+20
146
0.0
 13
0.0
 23
0.0
 33
0.0
 16
1.0
 26
0.0
 36
0.0
 17
0.0
 27
1.0
 37
0.0
 76
     0
330
1B
331
67EA
1001
ACAD_PSEXT
1000
無
1000
無
1000
不適用
1000
除非另選一新建的繪圖機規劃名稱，否則配置將不會出圖。
1070
     0
  0
LAYOUT
  5
26
102
{ACAD_XDICTIONARY
360
6FB1
102
}
102
{ACAD_REACTORS
330
1A
102
}
330
1A
100
AcDbPlotSettings
  1

  2
自動 RD 上的 Epson Stylus Photo 750 單色
  4

  6

 40
0.0
 41
0.0
 42
0.0
 43
0.0
 44
0.0
 45
0.0
 46
0.0
 47
0.0
 48
0.0
 49
0.0
140
0.0
141
0.0
142
1.0
143
1.0
 70
   688
 72
     0
 73
     0
 74
     5
  7
單色出圖.ctb
 75
    16
147
1.0
148
0.0
149
0.0
100
AcDbLayout
  1
Layout2
 70
     1
 71
     2
 10
0.0
 20
0.0
 11
12.0
 21
9.0
 12
0.0
 22
0.0
 32
0.0
 14
0.0
 24
0.0
 34
0.0
 15
0.0
 25
0.0
 35
0.0
146
0.0
 13
0.0
 23
0.0
 33
0.0
 16
1.0
 26
0.0
 36
0.0
 17
0.0
 27
1.0
 37
0.0
 76
     0
330
23
  0
LAYOUT
  5
22
102
{ACAD_XDICTIONARY
360
6FAF
102
}
102
{ACAD_REACTORS
330
1A
102
}
330
1A
100
AcDbPlotSettings
  1

  2
DWF eView (optimized for viewing).pc3
  4
ISO_A1_(841.00_x_594.00_MM)
  6

 40
5.793749809265136
 41
17.79375076293945
 42
5.79376220703125
 43
17.79376220703125
 44
841.0
 45
594.0
 46
107.35
 47
0.0
 48
0.0
 49
0.0
140
0.0
141
0.0
142
1.0
143
0.8888929188736598
 70
 11924
 72
     1
 73
     0
 74
     1
  7
單色出圖.ctb
 75
     0
147
1.124994899573648
148
-112.3790785371866
149
-140.1352246441952
100
AcDbLayout
  1
Model
 70
     1
 71
     0
 10
0.0
 20
0.0
 11
12.0
 21
9.0
 12
0.0
 22
0.0
 32
0.0
 14
0.0
 24
0.0
 34
0.0
 15
0.0
 25
0.0
 35
0.0
146
0.0
 13
0.0
 23
0.0
 33
0.0
 16
1.0
 26
0.0
 36
0.0
 17
0.0
 27
1.0
 37
0.0
 76
     0
330
1F
  0
MLINESTYLE
  5
18
102
{ACAD_REACTORS
330
17
102
}
330
17
100
AcDbMlineStyle
  2
STANDARD
 70
     0
  3

 62
   256
 51
90.0
 52
90.0
 71
     2
 49
0.5
 62
   256
  6
BYLAYER
 49
-0.5
 62
   256
  6
BYLAYER
  0
ACDBPLACEHOLDER
  5
F
102
{ACAD_REACTORS
330
E
102
}
330
E
  0
TABLESTYLE
  5
2D4C
102
{ACAD_REACTORS
330
2D4B
102
}
330
2D4B
100
AcDbTableStyle
  3
Standard
 70
     0
 71
     0
 40
1.5
 41
1.5
280
     0
281
     0
  7
STANDARD
140
4.5
170
     2
 62
     0
 63
     7
283
     0
274
    -2
284
     1
 64
     0
275
    -2
285
     1
 65
     0
276
    -2
286
     1
 66
     0
277
    -2
287
     1
 67
     0
278
    -2
288
     1
 68
     0
279
    -2
289
     1
 69
     0
  7
STANDARD
140
6.0
170
     5
 62
     0
 63
     7
283
     0
274
    -2
284
     1
 64
     0
275
    -2
285
     1
 65
     0
276
    -2
286
     1
 66
     0
277
    -2
287
     1
 67
     0
278
    -2
288
     1
 68
     0
279
    -2
289
     1
 69
     0
  7
STANDARD
140
4.5
170
     5
 62
     0
 63
     7
283
     0
274
    -2
284
     1
 64
     0
275
    -2
285
     1
 65
     0
276
    -2
286
     1
 66
     0
277
    -2
287
     1
 67
     0
278
    -2
288
     1
 68
     0
279
    -2
289
     1
 69
     0
  0
DICTIONARYVAR
  5
2DF7
102
{ACAD_REACTORS
330
161
102
}
330
161
100
DictionaryVariables
280
     0
  1
STANDARD
  0
DICTIONARYVAR
  5
164
102
{ACAD_REACTORS
330
161
102
}
330
161
100
DictionaryVariables
280
     0
  1
2
  0
DICTIONARYVAR
  5
163
102
{ACAD_REACTORS
330
161
102
}
330
161
100
DictionaryVariables
280
     0
  1
1
  0
DICTIONARYVAR
  5
162
102
{ACAD_REACTORS
330
161
102
}
330
161
100
DictionaryVariables
280
     0
  1
1
  0
DICTIONARYVAR
  5
3004
102
{ACAD_REACTORS
330
161
102
}
330
161
100
DictionaryVariables
280
     0
  1

  0
DICTIONARY
  5
4A
102
{ACAD_REACTORS
330
45
102
}
330
45
100
AcDbDictionary
281
     1
  0
XRECORD
  5
2DBE
102
{ACAD_REACTORS
330
45
102
}
330
45
100
AcDbXrecord
280
     1
 90
-1023410169
  0
DICTIONARY
  5
300C
102
{ACAD_REACTORS
330
2B
102
}
330
2B
100
AcDbDictionary
281
     1
  3
DWGSETTINGS
350
300D
  3
TRANSSETTINGS
350
3010
  0
LAYER_INDEX
  5
15B
102
{ACAD_REACTORS
330
15A
102
}
330
15A
100
AcDbIndex
 40
2456890.441654179
100
AcDbLayerIndex
  8
0
360
15C
 90
       10
  8
AM_5
360
15D
 90
       34
  8
Defpoints
360
15E
 90
        0
  8
AM_7
360
15F
 90
       44
  8
AM_VIS
360
4D5
 90
      494
  8
AM_4
360
11F1
 90
       14
  8
LOGO
360
18F9
 90
       78
  0
DICTIONARY
  5
6FAD
330
1E
100
AcDbDictionary
280
     1
281
     1
  3
ACAD_XREC_ROUNDTRIP
360
6FAE
  0
DICTIONARY
  5
6FB1
330
26
100
AcDbDictionary
280
     1
281
     1
  3
ACAD_XREC_ROUNDTRIP
360
6FB2
  0
DICTIONARY
  5
6FAF
330
22
100
AcDbDictionary
280
     1
281
     1
  3
ACAD_XREC_ROUNDTRIP
360
6FB0
  0
IDBUFFER
  5
15C
330
0
100
AcDbIdBuffer
330
5832
330
5833
330
5834
330
5E4F
330
5F5E
330
655D
330
6AF0
330
6AF1
330
6C2B
330
6C2C
  0
IDBUFFER
  5
15D
330
0
100
AcDbIdBuffer
330
6F25
330
6477
330
64A1
330
64C7
330
6521
330
6524
330
6525
330
6526
330
656D
330
6597
330
68E9
330
694F
330
699A
330
69CD
330
69FB
330
6A40
330
6A68
330
6A69
330
6A7C
330
6ACC
330
6AF2
330
6AF3
330
6B05
330
6B2F
330
6B63
330
6B8D
330
6BD7
330
6C01
330
6C2E
330
6C2F
330
6C4A
330
6C81
330
6EFB
330
6EFC
  0
IDBUFFER
  5
15E
330
0
100
AcDbIdBuffer
  0
IDBUFFER
  5
15F
330
0
100
AcDbIdBuffer
330
5E3F
330
5E40
330
5E41
330
5E42
330
5E43
330
5E44
330
5E45
330
5E46
330
5E47
330
5E48
330
5E49
330
5E4A
330
5E4B
330
5E4C
330
5E4D
330
5E4E
330
5E50
330
5E51
330
5F42
330
5F43
330
5F44
330
5F45
330
5F46
330
5F47
330
5F48
330
5F49
330
5F4A
330
5F4B
330
5F4C
330
5F4D
330
5F4E
330
5F4F
330
5F50
330
5F51
330
5F52
330
5F53
330
5F57
330
5F58
330
5F59
330
5F5A
330
5F5B
330
5F5C
330
5F5D
330
6A5B
  0
IDBUFFER
  5
4D5
330
0
100
AcDbIdBuffer
330
5E62
330
5E63
330
5E64
330
5E65
330
5E66
330
5E67
330
5E68
330
5E69
330
5E6A
330
5E6B
330
5E6C
330
5E6D
330
5E6E
330
5E6F
330
5E70
330
5E71
330
5E72
330
5E73
330
5E74
330
5E75
330
5E76
330
5E77
330
5E83
330
5E85
330
5E86
330
5E89
330
5E8B
330
5E8C
330
5E8D
330
5E8E
330
5E8F
330
5E90
330
5E91
330
5E92
330
5E93
330
5E94
330
5E9C
330
5E9D
330
5EAD
330
5EAE
330
5EAF
330
5EB0
330
5EB1
330
5EB2
330
5EB3
330
5EB4
330
5EB5
330
5EB6
330
5EB7
330
5EB8
330
5EB9
330
5EBA
330
5EBB
330
5EBD
330
5EBE
330
5EBF
330
5EC0
330
5EC1
330
5EC2
330
5EC4
330
5EC5
330
5EDB
330
5EDC
330
5EDD
330
5EDE
330
5EDF
330
5EE0
330
5EE1
330
5EE2
330
5EE3
330
5EE4
330
5EE5
330
5EE6
330
5EE7
330
5EE8
330
5EE9
330
5EEA
330
5EEB
330
5EEC
330
5EED
330
5EEE
330
5EEF
330
5EF0
330
5EF1
330
5EF2
330
5EF3
330
5EF5
330
5EFC
330
5EFD
330
5EFE
330
5EFF
330
5F00
330
5F01
330
5F02
330
5F03
330
5F04
330
5F07
330
5F08
330
5F09
330
5F0A
330
5F0B
330
5F0C
330
5F0D
330
5F0E
330
5F0F
330
5F10
330
5F11
330
5F12
330
5F13
330
5F14
330
5F15
330
5F16
330
5F17
330
5F18
330
5F19
330
5F1B
330
5F1C
330
5F1E
330
5F60
330
5F61
330
5F62
330
5F63
330
5F64
330
5F65
330
5F66
330
5F67
330
5F68
330
5F69
330
5F6A
330
5F6B
330
5F6C
330
5F6D
330
5F6E
330
5F70
330
5F7C
330
5F7D
330
5F7E
330
5F7F
330
5F80
330
5F81
330
5F82
330
5F83
330
5F84
330
5F85
330
5F86
330
5F87
330
5F88
330
5F89
330
5F8A
330
5F8B
330
5F8C
330
5F8D
330
5F8E
330
5F8F
330
5F90
330
5F91
330
5F92
330
5F93
330
5F94
330
5F95
330
5F96
330
5F97
330
5F98
330
5F99
330
5F9A
330
5F9B
330
5F9C
330
5F9D
330
5F9E
330
5F9F
330
5FA0
330
5FA1
330
5FA2
330
5FA3
330
5FA4
330
5FA5
330
5FA6
330
5FA7
330
5FA8
330
5FA9
330
5FAA
330
5FAB
330
5FAC
330
5FAD
330
5FAE
330
5FAF
330
5FB0
330
5FB1
330
5FB2
330
5FB3
330
5FB4
330
5FB5
330
5FB6
330
5FB7
330
5FB8
330
5FB9
330
5FBA
330
5FBB
330
5FBC
330
5FBD
330
5FBE
330
5FBF
330
5FC0
330
5FC1
330
5FC2
330
5FC3
330
5FC4
330
5FC5
330
5FC6
330
5FC7
330
5FC8
330
5FC9
330
5FCA
330
5FCB
330
5FCC
330
5FCD
330
5FCE
330
5FCF
330
5FD0
330
5FD1
330
5FD2
330
5FD3
330
5FD4
330
5FD5
330
5FD6
330
5FD7
330
5FD8
330
5FD9
330
5FDA
330
5FDB
330
5FDC
330
5FDD
330
5FDE
330
5FDF
330
5FE0
330
5FE1
330
5FE2
330
5FE3
330
5FE4
330
5FE5
330
5FE6
330
5FE7
330
5FE8
330
5FE9
330
5FEA
330
5FEB
330
5FEC
330
5FED
330
5FEE
330
5FEF
330
5FF0
330
5FF1
330
5FF2
330
5FF3
330
5FF4
330
5FF5
330
5FF6
330
5FF7
330
5FF8
330
5FF9
330
5FFA
330
5FFB
330
5FFC
330
5FFD
330
5FFE
330
5FFF
330
6000
330
6001
330
6002
330
6003
330
6004
330
6005
330
6006
330
6007
330
6008
330
6009
330
600A
330
600B
330
600C
330
600D
330
600E
330
600F
330
6010
330
6011
330
6012
330
6013
330
6014
330
6015
330
6016
330
6017
330
6018
330
6019
330
601A
330
601B
330
601C
330
601D
330
601E
330
601F
330
6020
330
6021
330
6022
330
6023
330
6024
330
6025
330
6026
330
6027
330
6028
330
6029
330
602A
330
602B
330
602C
330
602D
330
602E
330
602F
330
6030
330
6031
330
6032
330
6033
330
6034
330
6035
330
611B
330
611C
330
611D
330
611E
330
611F
330
6120
330
6123
330
6124
330
6125
330
616F
330
6253
330
6254
330
6255
330
6256
330
6257
330
6258
330
6259
330
62A2
330
62A3
330
62A4
330
62A5
330
62A6
330
62A8
330
62A9
330
62AA
330
62AB
330
62AC
330
62AD
330
62AE
330
62AF
330
62B0
330
62B1
330
62B2
330
62B3
330
62B4
330
62B5
330
62B6
330
62B7
330
62B8
330
62B9
330
62BA
330
62BB
330
62BC
330
62BD
330
62BE
330
62BF
330
62C0
330
62C1
330
62C2
330
62C3
330
62C4
330
62C5
330
62C6
330
62C7
330
62C8
330
62C9
330
62CA
330
62CB
330
62CC
330
62CD
330
62CE
330
62CF
330
62D0
330
62D1
330
62D2
330
62D3
330
62D4
330
62D5
330
62D6
330
62D7
330
62D8
330
62D9
330
62DA
330
62DB
330
62DD
330
62DE
330
62DF
330
62E0
330
62E1
330
62E2
330
62E3
330
62E4
330
62E5
330
62E6
330
62E7
330
62E9
330
62EA
330
62EB
330
62EC
330
62ED
330
62EE
330
62EF
330
62F0
330
62F1
330
62F2
330
62F3
330
62F4
330
62F5
330
62F6
330
62F7
330
62F8
330
62F9
330
62FA
330
62FB
330
62FC
330
62FD
330
62FE
330
6300
330
63DA
330
63DB
330
63E1
330
63E7
330
63E8
330
63E9
330
63EA
330
63EB
330
63EC
330
63ED
330
63EE
330
63EF
330
6436
330
6437
330
6438
330
6439
330
643A
330
643B
330
643C
330
643D
330
643F
330
6440
330
662D
330
66C9
330
66CA
330
66CB
330
66CC
330
66CD
330
66CE
330
66CF
330
66D0
330
66D1
330
66D2
330
6899
330
689A
330
689B
330
689C
330
689D
330
689E
330
689F
330
68A0
330
68A1
330
68A2
330
68A3
330
68A8
330
68A9
330
68C6
330
68C7
330
68C8
330
68C9
330
68CA
330
68CB
330
68CC
330
68CD
330
68CE
330
68CF
330
68D0
330
68D1
330
68D2
330
68D3
330
68D4
330
68D5
330
68D6
330
68D7
330
68D8
330
68D9
  0
IDBUFFER
  5
11F1
330
0
100
AcDbIdBuffer
330
5E52
330
5E53
330
5E54
330
5E55
330
5E56
330
5E58
330
5E59
330
5E5B
330
5E5C
330
5E5D
330
5E5F
330
5E61
330
5F1F
330
5F5F
  0
IDBUFFER
  5
18F9
330
0
100
AcDbIdBuffer
330
18EC
330
57D0
330
57D1
330
57D2
330
57D3
330
57D4
330
57D5
330
57D6
330
57D7
330
57D8
330
57D9
330
57DA
330
57DB
330
57DC
330
57DD
330
57DE
330
57DF
330
57E0
330
57E1
330
57E2
330
57E3
330
57E4
330
57E5
330
57E6
330
57E7
330
57EB
330
57EF
330
57F0
330
57F4
330
57F5
330
57F6
330
57F7
330
57F8
330
57F9
330
57FA
330
57FB
330
57FF
330
5803
330
5807
330
5808
330
5809
330
580D
330
580E
330
580F
330
5810
330
5811
330
5812
330
5813
330
5814
330
5815
330
5816
330
5817
330
5818
330
5819
330
581A
330
581B
330
581C
330
581D
330
581E
330
581F
330
5820
330
5821
330
5822
330
5823
330
5824
330
5825
330
5826
330
5827
330
5828
330
5829
330
582A
330
582B
330
582C
330
582D
330
582E
330
582F
330
5830
330
5831
  0
XRECORD
  5
6FAE
102
{ACAD_REACTORS
330
6FAD
102
}
330
6FAD
100
AcDbXrecord
280
     1
102
SHADEPLOT
 70
     0
102
SHADEPLOTRESLEVEL
 70
     2
102
SHADEPLOTCUSTOMDPI
 70
   300
  0
XRECORD
  5
6FB2
102
{ACAD_REACTORS
330
6FB1
102
}
330
6FB1
100
AcDbXrecord
280
     1
102
SHADEPLOT
 70
     0
102
SHADEPLOTRESLEVEL
 70
     2
102
SHADEPLOTCUSTOMDPI
 70
   300
  0
XRECORD
  5
6FB0
102
{ACAD_REACTORS
330
6FAF
102
}
330
6FAF
100
AcDbXrecord
280
     1
102
SHADEPLOT
 70
     0
102
SHADEPLOTRESLEVEL
 70
     2
102
SHADEPLOTCUSTOMDPI
 70
   300
  0
ENDSEC
  0
EOF
