  0
SECTION
  2
HEADER
  9
$ACADVER
  1
AC1015
  9
$ACADMAINTVER
 70
    20
  9
$DWGCODEPAGE
  3
ANSI_950
  9
$INSBASE
 10
0.0
 20
0.0
 30
0.0
  9
$EXTMIN
 10
121.1755382283306
 20
149.260669226546
 30
-0.0058069244264516
  9
$EXTMAX
 10
390.6289682288528
 20
439.6910142064696
 30
190.3016256141528
  9
$LIMMIN
 10
0.0
 20
0.0
  9
$LIMMAX
 10
420.0
 20
297.0
  9
$ORTHOMODE
 70
     1
  9
$REGENMODE
 70
     1
  9
$FILLMODE
 70
     1
  9
$QTEXTMODE
 70
     0
  9
$MIRRTEXT
 70
     1
  9
$LTSCALE
 40
1.0
  9
$ATTMODE
 70
     1
  9
$TEXTSIZE
 40
3.0
  9
$TRACEWID
 40
1.0
  9
$TEXTSTYLE
  7
STANDARD
  9
$CLAYER
  8
0
  9
$CELTYPE
  6
ByLayer
  9
$CECOLOR
 62
   256
  9
$CELTSCALE
 40
1.0
  9
$DISPSILH
 70
     0
  9
$DIMSCALE
 40
1.0
  9
$DIMASZ
 40
3.0
  9
$DIMEXO
 40
1.5
  9
$DIMDLI
 40
8.0
  9
$DIMRND
 40
0.0
  9
$DIMDLE
 40
0.0
  9
$DIMEXE
 40
1.5
  9
$DIMTP
 40
0.1
  9
$DIMTM
 40
0.1
  9
$DIMTXT
 40
3.5
  9
$DIMCEN
 40
0.0
  9
$DIMTSZ
 40
0.0
  9
$DIMTOL
 70
     0
  9
$DIMLIM
 70
     0
  9
$DIMTIH
 70
     0
  9
$DIMTOH
 70
     0
  9
$DIMSE1
 70
     0
  9
$DIMSE2
 70
     0
  9
$DIMTAD
 70
     1
  9
$DIMZIN
 70
     8
  9
$DIMBLK
  1

  9
$DIMASO
 70
     1
  9
$DIMSHO
 70
     1
  9
$DIMPOST
  1

  9
$DIMAPOST
  1
"
  9
$DIMALT
 70
     0
  9
$DIMALTD
 70
     2
  9
$DIMALTF
 40
0.0393701
  9
$DIMLFAC
 40
1.0
  9
$DIMTOFL
 70
     1
  9
$DIMTVP
 40
0.0
  9
$DIMTIX
 70
     0
  9
$DIMSOXD
 70
     0
  9
$DIMSAH
 70
     0
  9
$DIMBLK1
  1

  9
$DIMBLK2
  1

  9
$DIMSTYLE
  2
AM_ISO
  9
$DIMCLRD
 70
   256
  9
$DIMCLRE
 70
   256
  9
$DIMCLRT
 70
   256
  9
$DIMTFAC
 40
0.71
  9
$DIMGAP
 40
1.5
  9
$DIMJUST
 70
     0
  9
$DIMSD1
 70
     0
  9
$DIMSD2
 70
     0
  9
$DIMTOLJ
 70
     0
  9
$DIMTZIN
 70
     8
  9
$DIMALTZ
 70
     0
  9
$DIMALTTZ
 70
     0
  9
$DIMUPT
 70
     0
  9
$DIMDEC
 70
     2
  9
$DIMTDEC
 70
     2
  9
$DIMALTU
 70
     2
  9
$DIMALTTD
 70
     2
  9
$DIMTXSTY
  7
STANDARD
  9
$DIMAUNIT
 70
     0
  9
$DIMADEC
 70
     0
  9
$DIMALTRND
 40
0.0
  9
$DIMAZIN
 70
     2
  9
$DIMDSEP
 70
    46
  9
$DIMATFIT
 70
     3
  9
$DIMFRAC
 70
     0
  9
$DIMLDRBLK
  1

  9
$DIMLUNIT
 70
     2
  9
$DIMLWD
 70
    -1
  9
$DIMLWE
 70
    -1
  9
$DIMTMOVE
 70
     0
  9
$LUNITS
 70
     2
  9
$LUPREC
 70
     2
  9
$SKETCHINC
 40
1.0
  9
$FILLETRAD
 40
2.5
  9
$AUNITS
 70
     0
  9
$AUPREC
 70
     0
  9
$MENU
  1
.
  9
$ELEVATION
 40
0.0
  9
$PELEVATION
 40
0.0
  9
$THICKNESS
 40
0.0
  9
$LIMCHECK
 70
     0
  9
$CHAMFERA
 40
2.5
  9
$CHAMFERB
 40
2.5
  9
$CHAMFERC
 40
20.0
  9
$CHAMFERD
 40
0.0
  9
$SKPOLY
 70
     0
  9
$TDCREATE
 40
2453883.433051574
  9
$TDUCREATE
 40
2453883.099718241
  9
$TDUPDATE
 40
2453883.463453588
  9
$TDUUPDATE
 40
2453883.130120255
  9
$TDINDWG
 40
0.0304029167
  9
$TDUSRTIMER
 40
0.0304029167
  9
$USRTIMER
 70
     1
  9
$ANGBASE
 50
0.0
  9
$ANGDIR
 70
     0
  9
$PDMODE
 70
     0
  9
$PDSIZE
 40
0.0
  9
$PLINEWID
 40
0.0
  9
$SPLFRAME
 70
     0
  9
$SPLINETYPE
 70
     6
  9
$SPLINESEGS
 70
     8
  9
$HANDSEED
  5
84B
  9
$SURFTAB1
 70
     6
  9
$SURFTAB2
 70
     6
  9
$SURFTYPE
 70
     6
  9
$SURFU
 70
     6
  9
$SURFV
 70
     6
  9
$UCSBASE
  2

  9
$UCSNAME
  2

  9
$UCSORG
 10
0.0
 20
0.0
 30
0.0
  9
$UCSXDIR
 10
1.0
 20
0.0
 30
0.0
  9
$UCSYDIR
 10
0.0
 20
1.0
 30
0.0
  9
$UCSORTHOREF
  2

  9
$UCSORTHOVIEW
 70
     0
  9
$UCSORGTOP
 10
0.0
 20
0.0
 30
0.0
  9
$UCSORGBOTTOM
 10
0.0
 20
0.0
 30
0.0
  9
$UCSORGLEFT
 10
0.0
 20
0.0
 30
0.0
  9
$UCSORGRIGHT
 10
0.0
 20
0.0
 30
0.0
  9
$UCSORGFRONT
 10
0.0
 20
0.0
 30
0.0
  9
$UCSORGBACK
 10
0.0
 20
0.0
 30
0.0
  9
$PUCSBASE
  2

  9
$PUCSNAME
  2

  9
$PUCSORG
 10
0.0
 20
0.0
 30
0.0
  9
$PUCSXDIR
 10
1.0
 20
0.0
 30
0.0
  9
$PUCSYDIR
 10
0.0
 20
1.0
 30
0.0
  9
$PUCSORTHOREF
  2

  9
$PUCSORTHOVIEW
 70
     0
  9
$PUCSORGTOP
 10
0.0
 20
0.0
 30
0.0
  9
$PUCSORGBOTTOM
 10
0.0
 20
0.0
 30
0.0
  9
$PUCSORGLEFT
 10
0.0
 20
0.0
 30
0.0
  9
$PUCSORGRIGHT
 10
0.0
 20
0.0
 30
0.0
  9
$PUCSORGFRONT
 10
0.0
 20
0.0
 30
0.0
  9
$PUCSORGBACK
 10
0.0
 20
0.0
 30
0.0
  9
$USERI1
 70
     0
  9
$USERI2
 70
     0
  9
$USERI3
 70
     0
  9
$USERI4
 70
     0
  9
$USERI5
 70
     0
  9
$USERR1
 40
0.0
  9
$USERR2
 40
0.0
  9
$USERR3
 40
0.0
  9
$USERR4
 40
0.0
  9
$USERR5
 40
0.0
  9
$WORLDVIEW
 70
     1
  9
$SHADEDGE
 70
     3
  9
$SHADEDIF
 70
    70
  9
$TILEMODE
 70
     1
  9
$MAXACTVP
 70
    64
  9
$PINSBASE
 10
0.0
 20
0.0
 30
0.0
  9
$PLIMCHECK
 70
     0
  9
$PEXTMIN
 10
1.000000000000000E+20
 20
1.000000000000000E+20
 30
1.000000000000000E+20
  9
$PEXTMAX
 10
-1.000000000000000E+20
 20
-1.000000000000000E+20
 30
-1.000000000000000E+20
  9
$PLIMMIN
 10
0.0
 20
0.0
  9
$PLIMMAX
 10
420.0
 20
297.0
  9
$UNITMODE
 70
     0
  9
$VISRETAIN
 70
     1
  9
$PLINEGEN
 70
     0
  9
$PSLTSCALE
 70
     1
  9
$TREEDEPTH
 70
  3020
  9
$CMLSTYLE
  2
Standard
  9
$CMLJUST
 70
     0
  9
$CMLSCALE
 40
20.0
  9
$PROXYGRAPHICS
 70
     1
  9
$MEASUREMENT
 70
     1
  9
$CELWEIGHT
370
    -1
  9
$ENDCAPS
280
     0
  9
$JOINSTYLE
280
     0
  9
$LWDISPLAY
290
     0
  9
$INSUNITS
 70
     4
  9
$HYPERLINKBASE
  1

  9
$STYLESHEET
  1
彩色出圖.ctb
  9
$XEDIT
290
     1
  9
$CEPSNTYPE
380
     0
  9
$PSTYLEMODE
290
     1
  9
$FINGERPRINTGUID
  2
{32298342-0198-4A68-811A-E683B91896C2}
  9
$VERSIONGUID
  2
{9939F33D-57C7-4D14-AA2B-490CBC4E554F}
  9
$EXTNAMES
290
     1
  9
$PSVPSCALE
 40
0.0
  9
$OLESTARTUP
290
     0
  0
ENDSEC
  0
SECTION
  2
CLASSES
  0
CLASS
  1
ACDBDICTIONARYWDFLT
  2
AcDbDictionaryWithDefault
  3
ObjectDBX Classes
 90
        0
280
     0
281
     0
  0
CLASS
  1
ACDBPLACEHOLDER
  2
AcDbPlaceHolder
  3
ObjectDBX Classes
 90
        0
280
     0
281
     0
  0
CLASS
  1
LAYOUT
  2
AcDbLayout
  3
ObjectDBX Classes
 90
        0
280
     0
281
     0
  0
CLASS
  1
ACME_DOCUMENT
  2
AcMeDbDoc
  3
AcMeServices
 90
        0
280
     0
281
     0
  0
CLASS
  1
AMGSETTINGSOBJ
  2
AmgSettingsObj
  3
"AcadM|Product Description: AutoCAD Mechanical 2000|Company: Autodesk"
 90
        0
280
     0
281
     0
  0
CLASS
  1
ACMESCOPE
  2
AcMeScope
  3
AcMeServices
 90
        0
280
     0
281
     0
  0
CLASS
  1
ACMECOMMANDHISTORY
  2
AcMeCommandHistory
  3
AcMeServices
 90
        0
280
     0
281
     0
  0
CLASS
  1
ACIMSYSVARMAN
  2
AcImSysVarManager
  3
AcMeServices
 90
        0
280
     0
281
     0
  0
CLASS
  1
ACIMREALSYSVAR
  2
AcImRealSysVar
  3
AcMeServices
 90
        0
280
     0
281
     0
  0
CLASS
  1
ACIMINTSYSVAR
  2
AcImIntSysVar
  3
AcMeServices
 90
        0
280
     0
281
     0
  0
CLASS
  1
ACMEDRAWINGMAN
  2
AcMeDrawingMan
  3
AcMeServices
 90
        0
280
     0
281
     0
  0
CLASS
  1
ACMEVIEW
  2
AcMeView
  3
AcMeServices
 90
        0
280
     0
281
     0
  0
CLASS
  1
ACDBENTITYCACHE
  2
AcMeEntityCache
  3
AcMeServices
 90
        0
280
     0
281
     0
  0
CLASS
  1
GSMANAGER
  2
AcMeGSManager
  3
AcMeServices
 90
        0
280
     0
281
     0
  0
CLASS
  1
AMDTINTERNALREACTOR
  2
AmdtInternalReactor
  3
AcMeServices
 90
        0
280
     0
281
     0
  0
CLASS
  1
ACMESTATEMGR
  2
AcMeStateMgr
  3
AcMeServices
 90
        0
280
     0
281
     0
  0
CLASS
  1
ACGREFMASTER
  2
AcGrefMaster
  3
AcAttribServices
 90
        0
280
     0
281
     0
  0
CLASS
  1
ACME_DATABASE
  2
AcMeDbDatabase
  3
AcMeServices
 90
        0
280
     0
281
     0
  0
CLASS
  1
ACRFINSADJUSTERMGR
  2
AcRfInsAdjusterMgr
  3
AcMeServices
 90
        0
280
     0
281
     0
  0
CLASS
  1
ACGREFACADMASTER
  2
AcGrefacadMaster
  3
AcGrefServices
 90
        0
280
     0
281
     0
  0
CLASS
  1
AMIMASTER
  2
AmiMaster
  3
AmiServices
 90
        0
280
     0
281
     0
  0
CLASS
  1
ACMDATADICTIONARY
  2
AcmDataDictionary
  3
"AcmSymBB|Product Description: AutoCAD Mechanical 2004 DX|Company: Autodesk"
 90
        0
280
     0
281
     0
  0
CLASS
  1
ACMDATAENTRYBLOCK
  2
AcmDataEntryBlock
  3
"AcmSymBB|Product Description: AutoCAD Mechanical 2004 DX|Company: Autodesk"
 90
        0
280
     0
281
     0
  0
CLASS
  1
ACIMSTRSYSVAR
  2
AcImStrSysVar
  3
AcMeServices
 90
        0
280
     0
281
     0
  0
CLASS
  1
ACMSTANDARDISO
  2
AcmStandardISO
  3
"Amdt_StdImp|Product Description: AutoCAD Mechanical 2004 DX|Company: Autodesk"
 90
        0
280
     0
281
     0
  0
CLASS
  1
AMGOBJPROPCFG
  2
AmgObjPropCfg
  3
"AmgLay|Product Description: AutoCAD Mechanical 2000|Company: Autodesk"
 90
        1
280
     0
281
     0
  0
CLASS
  1
AMDTEDGESTANDARDISO
  2
AmdtEdgeStdISO
  3
"Amdt_StdImp|Product Description: AutoCAD Mechanical 2004 DX|Company: Autodesk"
 90
        0
280
     0
281
     0
  0
CLASS
  1
ACMSURFSTANDARDISO
  2
AcmSurfTextStdISO
  3
"Amdt_StdImp|Product Description: AutoCAD Mechanical 2004 DX|Company: Autodesk"
 90
        0
280
     0
281
     0
  0
CLASS
  1
ACMFCFSTANDARDISO
  2
AcmFCFStdISO
  3
"Amdt_StdImp|Product Description: AutoCAD Mechanical 2004 DX|Company: Autodesk"
 90
        0
280
     0
281
     0
  0
CLASS
  1
ACMWELDSTANDARDISO
  2
AcmWeldingStdISO
  3
"Amdt_StdImp|Product Description: AutoCAD Mechanical 2004 DX|Company: Autodesk"
 90
        0
280
     0
281
     0
  0
CLASS
  1
ACMIDSTANDARDISO
  2
AcmIdStdISO
  3
"Amdt_StdImp|Product Description: AutoCAD Mechanical 2004 DX|Company: Autodesk"
 90
        0
280
     0
281
     0
  0
CLASS
  1
ACMDATUMSTANDARDISO
  2
AcmDatumStdISO
  3
"Amdt_StdImp|Product Description: AutoCAD Mechanical 2004 DX|Company: Autodesk"
 90
        0
280
     0
281
     0
  0
CLASS
  1
ACMBOMSTANDARDISO
  2
AcmBOMStdISO
  3
"Amdt_StdImp|Product Description: AutoCAD Mechanical 2004 DX|Company: Autodesk"
 90
        0
280
     0
281
     0
  0
CLASS
  1
ACMDETAILSTANDARDISO
  2
AmdtDetailSymStdISO
  3
"Amdt_StdImp|Product Description: AutoCAD Mechanical 2004 DX|Company: Autodesk"
 90
        0
280
     0
281
     0
  0
CLASS
  1
ACMSECTIONSTANDARDISO
  2
AmdtSectionSymStdISO
  3
"Amdt_StdImp|Product Description: AutoCAD Mechanical 2004 DX|Company: Autodesk"
 90
        0
280
     0
281
     0
  0
CLASS
  1
ACMCENTERLINESTANDARDISO
  2
AmdtCenterLineStdISO
  3
"Amdt_StdImp|Product Description: AutoCAD Mechanical 2004 DX|Company: Autodesk"
 90
        0
280
     0
281
     0
  0
CLASS
  1
ACMNOTESTANDARDISO
  2
AmdtNoteStdISO
  3
"Amdt_StdImp|Product Description: AutoCAD Mechanical 2004 DX|Company: Autodesk"
 90
        0
280
     0
281
     0
  0
CLASS
  1
ACAMGLAYSTD
  2
AcAmgLayStd
  3
"AcAmgLayStd|Product Description: AutoCAD Mechanical 2000|Company: Autodesk"
 90
        0
280
     0
281
     0
  0
CLASS
  1
ACAMGDIMSTD
  2
AcAmgDimStd
  3
"AcAmgDimStd|Product Description: AutoCAD Mechanical 2000|Company: Autodesk"
 90
        0
280
     0
281
     0
  0
CLASS
  1
ACAMGHOLECHARTSTDISO
  2
AcAmgHoleChartStdISO
  3
ACMSYMBB_MODULE_NAME
 90
        0
280
     0
281
     0
  0
CLASS
  1
ACAMGTITLESTD
  2
AcAmgTitleStd
  3
"TITLEAPP"
 90
        0
280
     0
281
     0
  0
CLASS
  1
LAYER_INDEX
  2
AcDbLayerIndex
  3
ObjectDBX Classes
 90
    32768
280
     0
281
     0
  0
CLASS
  1
IDBUFFER
  2
AcDbIdBuffer
  3
ObjectDBX Classes
 90
    32768
280
     0
281
     0
  0
CLASS
  1
DICTIONARYVAR
  2
AcDbDictionaryVar
  3
ObjectDBX Classes
 90
        0
280
     0
281
     0
  0
CLASS
  1
AM_DRAWING_MGR
  2
AcDmDwgMgr
  3
AcMechDwgViewMgmt
 90
        0
280
     0
281
     0
  0
CLASS
  1
AM_DWG_DOCUMENT
  2
AcDmDwgDocument
  3
AcMechDwgViewMgmt
 90
        0
280
     0
281
     0
  0
CLASS
  1
AM_DWG_SHEET
  2
AcDmSheet
  3
AcMechDwgViewMgmt
 90
        0
280
     0
281
     0
  0
CLASS
  1
AM_VIEWDIMPARMAP
  2
AcDmViewDimParMap
  3
AcMechDwgViewMgmt
 90
        0
280
     0
281
     0
  0
CLASS
  1
AM_DWGMGR_NAME
  2
AcDmDwgMgrName
  3
AcMechDwgViewMgmt
 90
        0
280
     0
281
     0
  0
CLASS
  1
AMDTMENUSTATEMGR
  2
AmdtMenuStateMgr
  3
McadcomServices
 90
        0
280
     0
281
     0
  0
CLASS
  1
AMDTMCOMMENUSTATE
  2
AmdtMcomMenuState
  3
McadcomServices
 90
        0
280
     0
281
     0
  0
CLASS
  1
MAPIAMMOUDLE
  2
MApiAmModule
  3
MApiAmServices
 90
        0
280
     0
281
     0
  0
CLASS
  1
AMDTADMENUSTATE
  2
AmdtAdMenuState
  3
DesignerServices
 90
        0
280
     0
281
     0
  0
CLASS
  1
ADAPPL
  2
AcAdAppl
  3
DesignerServices
 90
        0
280
     0
281
     0
  0
CLASS
  1
DEPMGR
  2
AcAdDepMgr
  3
DesignerServices
 90
        0
280
     0
281
     0
  0
CLASS
  1
PARAMMGR
  2
AcAdParamMgr
  3
DesignerServices
 90
        0
280
     0
281
     0
  0
CLASS
  1
PARAMSCOPE
  2
AcAdParamScope
  3
DesignerServices
 90
        0
280
     0
281
     0
  0
CLASS
  1
NAMEDAPPL
  2
AcAdNamedAppl
  3
DesignerServices
 90
        0
280
     0
281
     0
  0
CLASS
  1
AMDTDMMENUSTATE
  2
AmdtDmMenuState
  3
AcMechDwgViewMgmt
 90
        0
280
     0
281
     0
  0
CLASS
  1
AMDTAMMENUSTATE
  2
AmdtAmMenuState
  3
DesignerAssemblies
 90
        0
280
     0
281
     0
  0
CLASS
  1
ACAMPROJECT
  2
AcAmProject
  3
DesignerAssemblies
 90
        0
280
     0
281
     0
  0
CLASS
  1
ACAMGRCOMPDEF
  2
AcAmGrCompDef
  3
DesignerAssemblies
 90
        0
280
     0
281
     0
  0
CLASS
  1
ACCMCONTEXT
  2
AcCmContext
  3
DesignerAssemblies
 90
        0
280
     0
281
     0
  0
CLASS
  1
ACAMCOMPDEF
  2
AcAmCompDef
  3
DesignerAssemblies
 90
        0
280
     0
281
     0
  0
CLASS
  1
ACAMCOMPDEFMGR
  2
AcAmCompDefMgr
  3
DesignerAssemblies
 90
        0
280
     0
281
     0
  0
CLASS
  1
AMCONTEXTMGR
  2
AcAmContextMgr
  3
DesignerAssemblies
 90
        0
280
     0
281
     0
  0
CLASS
  1
ACAMCONTEXTMODELER
  2
AcAmContextModeler
  3
DesignerAssemblies
 90
        0
280
     0
281
     0
  0
CLASS
  1
ACMTHREADLINESTANDARDISO
  2
AmdtThreadLineStdISO
  3
"Amdt_StdImp|Product Description: AutoCAD Mechanical 2004 DX|Company: Autodesk"
 90
        0
280
     0
281
     0
  0
CLASS
  1
CATALOGSTATE
  2
AcAmCatalogState
  3
DesignerAssemblies
 90
        0
280
     0
281
     0
  0
CLASS
  1
ACAMGRCOMPDEFSET
  2
AcAmGrCompDefSet
  3
DesignerAssemblies
 90
        0
280
     0
281
     0
  0
CLASS
  1
AMDTBROWSERDBTAB
  2
AmdtBrowserDbTab
  3
McadcomServices
 90
        0
280
     0
281
     0
  0
CLASS
  1
CBROWSERAPPOBJECT
  2
CBrowserAppObject
  3
McadcomServices
 90
        0
280
     0
281
     0
  0
CLASS
  1
DM_PLACEHOLDER
  2
AcDmSelsetPlaceholder
  3
AcMechDwgViewMgmt
 90
        0
280
     0
281
     0
  0
CLASS
  1
TABLESTYLE
  2
AcDbTableStyle
  3
ObjectDBX Classes
 90
     2047
280
     0
281
     0
  0
CLASS
  1
VAACXREFPANELOBJECT
  2
VaAcXREFPanelObject
  3
VAAC_ADDIN
 90
        0
280
     0
281
     0
  0
CLASS
  1
VAACIMAGEINVENTORY
  2
VaAcImageInventory
  3
VAAC_ADDIN
 90
        0
280
     0
281
     0
  0
CLASS
  1
AMDTNOTETEMPLATEDB
  2
AmdtNoteTemplateDB
  3
AMDT_STDIMP_MODULE_NAME
 90
        0
280
     0
281
     0
  0
CLASS
  1
ACMBOM
  2
AcmBom
  3
"AcmSymBB|Product Description: AutoCAD Mechanical 2004 DX|Company: Autodesk"
 90
    32768
280
     0
281
     0
  0
CLASS
  1
AMDTFORMULAUPDATEDISPATCHER
  2
AmdtFormulaUpdateDispatcher
  3
AcMeServices
 90
    32768
280
     0
281
     0
  0
CLASS
  1
ACMPARTLIST
  2
AcmPartList
  3
"AcmSymBB|Product Description: AutoCAD Mechanical 2004 DX|Company: Autodesk"
 90
    33791
280
     0
281
     1
  0
CLASS
  1
ACAMGFILTERDAT
  2
AcAmgFilterDat
  3
"AcadM|Product Description: AutoCAD Mechanical 2000|Company: Autodesk"
 90
        0
280
     0
281
     0
  0
CLASS
  1
DIMASSOC
  2
AcDbDimAssoc
  3
"AcDbDimAssoc|Product Desc:     AcDim ARX App For Dimension|Company:          Autodesk, Inc.|WEB Address:      www.autodesk.com"
 90
    32768
280
     0
281
     0
  0
CLASS
  1
SORTENTSTABLE
  2
AcDbSortentsTable
  3
ObjectDBX Classes
 90
        0
280
     0
281
     0
  0
CLASS
  1
ACMSTANDARDJIS
  2
AcmStandardJIS
  3
"Amdt_StdImp|Product Description: AutoCAD Mechanical 2004 DX|Company: Autodesk"
 90
        0
280
     0
281
     0
  0
CLASS
  1
ACMSURFSTANDARDJIS
  2
AcmSurfTextStdJIS
  3
"Amdt_StdImp|Product Description: AutoCAD Mechanical 2004 DX|Company: Autodesk"
 90
        0
280
     0
281
     0
  0
CLASS
  1
ACMFCFSTANDARDJIS
  2
AcmFCFStdJIS
  3
"Amdt_StdImp|Product Description: AutoCAD Mechanical 2004 DX|Company: Autodesk"
 90
        0
280
     0
281
     0
  0
CLASS
  1
ACMWELDSTANDARDJIS
  2
AcmWeldingStdJIS
  3
"Amdt_StdImp|Product Description: AutoCAD Mechanical 2004 DX|Company: Autodesk"
 90
        0
280
     0
281
     0
  0
CLASS
  1
ACMIDSTANDARDJIS
  2
AcmIdStdJIS
  3
"Amdt_StdImp|Product Description: AutoCAD Mechanical 2004 DX|Company: Autodesk"
 90
        0
280
     0
281
     0
  0
CLASS
  1
ACMDATUMSTANDARDJIS
  2
AcmDatumStdJIS
  3
"Amdt_StdImp|Product Description: AutoCAD Mechanical 2004 DX|Company: Autodesk"
 90
        0
280
     0
281
     0
  0
CLASS
  1
ACMBOMSTANDARDJIS
  2
AcmBOMStdJIS
  3
"Amdt_StdImp|Product Description: AutoCAD Mechanical 2004 DX|Company: Autodesk"
 90
        0
280
     0
281
     0
  0
CLASS
  1
ACMDETAILSTANDARDJIS
  2
AmdtDetailSymStdJIS
  3
"Amdt_StdImp|Product Description: AutoCAD Mechanical 2004 DX|Company: Autodesk"
 90
        0
280
     0
281
     0
  0
CLASS
  1
ACMSECTIONSTANDARDJIS
  2
AmdtSectionSymStdJIS
  3
"Amdt_StdImp|Product Description: AutoCAD Mechanical 2004 DX|Company: Autodesk"
 90
        0
280
     0
281
     0
  0
CLASS
  1
ACMCENTERLINESTANDARDJIS
  2
AmdtCenterLineStdJIS
  3
"Amdt_StdImp|Product Description: AutoCAD Mechanical 2004 DX|Company: Autodesk"
 90
        0
280
     0
281
     0
  0
CLASS
  1
ACMTHREADLINESTANDARDJIS
  2
AmdtThreadLineStdJIS
  3
"Amdt_StdImp|Product Description: AutoCAD Mechanical 2004 DX|Company: Autodesk"
 90
        0
280
     0
281
     0
  0
CLASS
  1
ACMNOTESTANDARDJIS
  2
AmdtNoteStdJIS
  3
"Amdt_StdImp|Product Description: AutoCAD Mechanical 2004 DX|Company: Autodesk"
 90
        0
280
     0
281
     0
  0
CLASS
  1
ACAMGHOLECHARTSTDJIS
  2
AcAmgHoleChartStdJIS
  3
ACMSYMBB_MODULE_NAME
 90
        0
280
     0
281
     0
  0
CLASS
  1
ACRFATTGENMGR
  2
AcRfAttGeneralMgr
  3
AcAttribServices
 90
        0
280
     0
281
     0
  0
ENDSEC
  0
SECTION
  2
TABLES
  0
TABLE
  2
VPORT
  5
8
330
0
100
AcDbSymbolTable
 70
     4
  0
VPORT
  5
842
330
8
100
AcDbSymbolTableRecord
100
AcDbViewportTableRecord
  2
*Active
 70
     0
 10
0.0
 20
0.0
 11
1.0
 21
1.0
 12
255.9123855898395
 22
294.4775952873861
 13
0.0
 23
0.0
 14
2.5
 24
2.5
 15
10.0
 25
10.0
 16
0.0
 26
0.0
 36
1.0
 17
0.0
 27
0.0
 37
0.0
 40
292.6437720095746
 41
1.218987341772151
 42
50.0
 43
0.0
 44
0.0
 50
0.0
 51
0.0
 71
     0
 72
   100
 73
     1
 74
     3
 75
     0
 76
     0
 77
     0
 78
     0
281
     0
 65
     1
110
0.0
120
0.0
130
0.0
111
1.0
121
0.0
131
0.0
112
0.0
122
1.0
132
0.0
 79
     0
146
0.0
  0
ENDTAB
  0
TABLE
  2
LTYPE
  5
5
330
0
100
AcDbSymbolTable
 70
    16
  0
LTYPE
  5
14
330
5
100
AcDbSymbolTableRecord
100
AcDbLinetypeTableRecord
  2
ByBlock
 70
     0
  3

 72
    65
 73
     0
 40
0.0
  0
LTYPE
  5
15
330
5
100
AcDbSymbolTableRecord
100
AcDbLinetypeTableRecord
  2
ByLayer
 70
     0
  3

 72
    65
 73
     0
 40
0.0
  0
LTYPE
  5
16
330
5
100
AcDbSymbolTableRecord
100
AcDbLinetypeTableRecord
  2
Continuous
 70
     0
  3
Solid line
 72
    65
 73
     0
 40
0.0
  0
LTYPE
  5
64
330
5
100
AcDbSymbolTableRecord
100
AcDbLinetypeTableRecord
  2
AM_ISO02W050
 70
     0
  3
__ __ __ __ __ __ __ __ __ __ __ __ __ __ __
 72
    65
 73
     2
 40
7.5
 49
6.0
 74
     0
 49
-1.5
 74
     0
  0
LTYPE
  5
65
330
5
100
AcDbSymbolTableRecord
100
AcDbLinetypeTableRecord
  2
AM_ISO08W050
 70
     0
  3
____ . ____ . ____ . ____ . ____ . ____ . ____
 72
    65
 73
     4
 40
18.0
 49
12.0
 74
     0
 49
-1.5
 74
     0
 49
3.0
 74
     0
 49
-1.5
 74
     0
  0
LTYPE
  5
66
330
5
100
AcDbSymbolTableRecord
100
AcDbLinetypeTableRecord
  2
AM_ISO09W050
 70
     0
  3
_____ . . _____ . . _____ . . ____ .. ____
 72
    65
 73
     6
 40
22.5
 49
12.0
 74
     0
 49
-1.5
 74
     0
 49
3.0
 74
     0
 49
-1.5
 74
     0
 49
3.0
 74
     0
 49
-1.5
 74
     0
  0
LTYPE
  5
67
330
5
100
AcDbSymbolTableRecord
100
AcDbLinetypeTableRecord
  2
Amconstr
 70
     0
  3
_______________________
 72
    65
 73
     2
 40
9999.0
 49
9999.0
 74
     0
 49
0.0
 74
     0
  0
LTYPE
  5
68
330
5
100
AcDbSymbolTableRecord
100
AcDbLinetypeTableRecord
  2
AM_ISO08W050x2
 70
     0
  3
__ . __ . __ . __ . __ . __
 72
    65
 73
     4
 40
9.0
 49
6.0
 74
     0
 49
-0.75
 74
     0
 49
1.5
 74
     0
 49
-0.75
 74
     0
  0
LTYPE
  5
69
330
5
100
AcDbSymbolTableRecord
100
AcDbLinetypeTableRecord
  2
AM_ISO02W050x2
 70
     0
  3
 _ _ _ _ _ _ _ _ _ _ _ _
 72
    65
 73
     2
 40
3.75
 49
3.0
 74
     0
 49
-0.75
 74
     0
  0
LTYPE
  5
6C
330
5
100
AcDbSymbolTableRecord
100
AcDbLinetypeTableRecord
  2
Amzigzag
 70
     0
  3
/\/-/\/-/\/-/\/-/\/-/\/
 72
    65
 73
     2
 40
11.0001
 49
0.0001
 74
     4
 75
   135
340
6B
 46
0.04
 50
0.0
 44
0.0
 45
0.0
 49
-11.0
 74
     0
  0
LTYPE
  5
7A
330
5
100
AcDbSymbolTableRecord
100
AcDbLinetypeTableRecord
  2
ACISOWELD
 70
     0
  3
_ _ _ _ _
 72
    65
 73
     2
 40
2.0
 49
2.0
 74
     0
 49
-1.0
 74
     0
  0
LTYPE
  5
7B
330
5
100
AcDbSymbolTableRecord
100
AcDbLinetypeTableRecord
  2
ACISOTGB
 70
     0
  3
__ . . __ . .
 72
    65
 73
     6
 40
9.0
 49
4.0
 74
     0
 49
-1.0
 74
     0
 49
1.0
 74
     0
 49
-1.0
 74
     0
 49
1.0
 74
     0
 49
-1.0
 74
     0
  0
LTYPE
  5
7C
330
5
100
AcDbSymbolTableRecord
100
AcDbLinetypeTableRecord
  2
ACISOTGL
 70
     0
  3
_ _ _ _ _
 72
    65
 73
     2
 40
3.0
 49
2.0
 74
     0
 49
-1.0
 74
     0
  0
LTYPE
  5
7E
330
5
100
AcDbSymbolTableRecord
100
AcDbLinetypeTableRecord
  2
CENTER
 70
     0
  3
__ . __
 72
    65
 73
     4
 40
7.0
 49
4.0
 74
     0
 49
-1.0
 74
     0
 49
1.0
 74
     0
 49
-1.0
 74
     0
  0
LTYPE
  5
D8
330
5
100
AcDbSymbolTableRecord
100
AcDbLinetypeTableRecord
  2
HIDDEN
 70
     0
  3
Hidden __ __ __ __ __ __ __ __ __ __ __ __ __ _
 72
    65
 73
     2
 40
9.524999999999998
 49
6.349999999999999
 74
     0
 49
-3.174999999999999
 74
     0
  0
LTYPE
  5
D9
330
5
100
AcDbSymbolTableRecord
100
AcDbLinetypeTableRecord
  2
PHANTOM2
 70
     0
  3
Phantom (.5x) ___ _ _ ___ _ _ ___ _ _ ___ _ _
 72
    65
 73
     6
 40
31.75
 49
15.875
 74
     0
 49
-3.174999999999999
 74
     0
 49
3.174999999999999
 74
     0
 49
-3.174999999999999
 74
     0
 49
3.174999999999999
 74
     0
 49
-3.174999999999999
 74
     0
  0
LTYPE
  5
3A5
330
5
100
AcDbSymbolTableRecord
100
AcDbLinetypeTableRecord
  2
ACJISTGB
 70
     0
  3
__ . . __ . .
 72
    65
 73
     6
 40
9.0
 49
4.0
 74
     0
 49
-1.0
 74
     0
 49
1.0
 74
     0
 49
-1.0
 74
     0
 49
1.0
 74
     0
 49
-1.0
 74
     0
  0
LTYPE
  5
3A6
330
5
100
AcDbSymbolTableRecord
100
AcDbLinetypeTableRecord
  2
ACJISTGL
 70
     0
  3
_ _ _ _ _
 72
    65
 73
     2
 40
3.0
 49
2.0
 74
     0
 49
-1.0
 74
     0
  0
ENDTAB
  0
TABLE
  2
LAYER
  5
2
102
{ACAD_XDICTIONARY
360
3BB
102
}
330
0
100
AcDbSymbolTable
 70
     6
  0
LAYER
  5
10
330
2
100
AcDbSymbolTableRecord
100
AcDbLayerTableRecord
  2
0
 70
     0
 62
     7
  6
Continuous
370
    -3
390
F
  0
LAYER
  5
3A7
330
2
100
AcDbSymbolTableRecord
100
AcDbLayerTableRecord
  2
Defpoints
 70
     0
 62
     7
  6
Continuous
290
     0
370
    -3
390
F
  0
LAYER
  5
3A8
330
2
100
AcDbSymbolTableRecord
100
AcDbLayerTableRecord
  2
AM_VIS
 70
     2
 62
     7
  6
Continuous
370
    50
390
F
  0
LAYER
  5
3A9
330
2
100
AcDbSymbolTableRecord
100
AcDbLayerTableRecord
  2
AM_7
 70
     0
 62
     1
  6
AM_ISO08W050
370
    25
390
F
  0
LAYER
  5
3AA
330
2
100
AcDbSymbolTableRecord
100
AcDbLayerTableRecord
  2
AM_6
 70
     0
 62
     2
  6
Continuous
370
    35
390
F
  0
LAYER
  5
3AB
330
2
100
AcDbSymbolTableRecord
100
AcDbLayerTableRecord
  2
LOGO
 70
     0
 62
     7
  6
Continuous
370
    -3
390
F
  0
ENDTAB
  0
TABLE
  2
STYLE
  5
3
330
0
100
AcDbSymbolTable
 70
     8
  0
STYLE
  5
11
330
3
100
AcDbSymbolTableRecord
100
AcDbTextStyleTableRecord
  2
STANDARD
 70
     0
 40
0.0
 41
1.0
 50
0.0
 71
     0
 42
3.0
  3
ISOCP.SHX
  4
CHINESET.SHX
  0
STYLE
  5
6B
330
3
100
AcDbSymbolTableRecord
100
AcDbTextStyleTableRecord
  2

 70
     1
 40
0.0
 41
1.0
 50
0.0
 71
     0
 42
2.5
  3
ltypeshp.shx
  4

  0
STYLE
  5
6D
330
3
100
AcDbSymbolTableRecord
100
AcDbTextStyleTableRecord
  2
ACISOTS
 70
     0
 40
1.0
 41
1.0
 50
0.0
 71
     0
 42
1.0
  3
isocp.shx
  4
chineset.shx
  0
STYLE
  5
79
330
3
100
AcDbSymbolTableRecord
100
AcDbTextStyleTableRecord
  2
ACISOGDT
 70
     0
 40
0.0
 41
1.0
 50
0.0
 71
     0
 42
2.5
  3
amgdt.shx
  4
chineset.shx
  0
STYLE
  5
3AC
330
3
100
AcDbSymbolTableRecord
100
AcDbTextStyleTableRecord
  2
CHINESET
 70
     0
 40
0.0
 41
1.0
 50
0.0
 71
     0
 42
2.5
  3
simplex.shx
  4
CHINESET.shx
  0
STYLE
  5
3AD
330
3
100
AcDbSymbolTableRecord
100
AcDbTextStyleTableRecord
  2
ACJISTS
 70
     0
 40
1.0
 41
1.0
 50
0.0
 71
     0
 42
2.5
  3
isocp.shx
  4
chineset.shx
  0
STYLE
  5
3AE
330
3
100
AcDbSymbolTableRecord
100
AcDbTextStyleTableRecord
  2
ACJISGDT
 70
     0
 40
0.0
 41
1.0
 50
0.0
 71
     0
 42
2.5
  3
amgdt.shx
  4

  0
ENDTAB
  0
TABLE
  2
VIEW
  5
6
330
0
100
AcDbSymbolTable
 70
     0
  0
ENDTAB
  0
TABLE
  2
UCS
  5
7
330
0
100
AcDbSymbolTable
 70
     0
  0
ENDTAB
  0
TABLE
  2
APPID
  5
9
330
0
100
AcDbSymbolTable
 70
    18
  0
APPID
  5
12
330
9
100
AcDbSymbolTableRecord
100
AcDbRegAppTableRecord
  2
ACAD
 70
     0
  0
APPID
  5
46
330
9
100
AcDbSymbolTableRecord
100
AcDbRegAppTableRecord
  2
MCAD_NO_VIS
 70
     0
  0
APPID
  5
47
330
9
100
AcDbSymbolTableRecord
100
AcDbRegAppTableRecord
  2
ACAD_TEMP_GRAPHIC
 70
     0
  0
APPID
  5
58
330
9
100
AcDbSymbolTableRecord
100
AcDbRegAppTableRecord
  2
ACATTRIBSERVICES
 70
     0
  0
APPID
  5
EE
330
9
100
AcDbSymbolTableRecord
100
AcDbRegAppTableRecord
  2
AD_DRAW
 70
     0
  0
APPID
  5
10C
330
9
100
AcDbSymbolTableRecord
100
AcDbRegAppTableRecord
  2
DESIGNERASSEMBLIES
 70
     0
  0
APPID
  5
111
330
9
100
AcDbSymbolTableRecord
100
AcDbRegAppTableRecord
  2
ACADM_DIM_EDIT
 70
     0
  0
APPID
  5
112
330
9
100
AcDbSymbolTableRecord
100
AcDbRegAppTableRecord
  2
AMDT_DM_ADJ
 70
     0
  0
APPID
  5
1FE
330
9
100
AcDbSymbolTableRecord
100
AcDbRegAppTableRecord
  2
ACAD_DSTYLE_DIMTEXT_FILL
 70
     0
  0
APPID
  5
2B5
330
9
100
AcDbSymbolTableRecord
100
AcDbRegAppTableRecord
  2
GENIUS_GENOLIS_13
 70
     0
  0
APPID
  5
2B6
330
9
100
AcDbSymbolTableRecord
100
AcDbRegAppTableRecord
  2
GENIUS_GENOENT_13
 70
     0
  0
APPID
  5
2B7
330
9
100
AcDbSymbolTableRecord
100
AcDbRegAppTableRecord
  2
GENIUS_GENOBJ-N-CRS_13
 70
     0
  0
APPID
  5
2B8
330
9
100
AcDbSymbolTableRecord
100
AcDbRegAppTableRecord
  2
GENIUS_GENODEF_13
 70
     0
  0
APPID
  5
2B9
330
9
100
AcDbSymbolTableRecord
100
AcDbRegAppTableRecord
  2
GENIUS_GENOREF_13
 70
     0
  0
APPID
  5
3B7
330
9
100
AcDbSymbolTableRecord
100
AcDbRegAppTableRecord
  2
ACAD_PSEXT
 70
     0
  0
APPID
  5
3B8
330
9
100
AcDbSymbolTableRecord
100
AcDbRegAppTableRecord
  2
GENIUS_AMGTXT_16
 70
     0
  0
APPID
  5
3B9
330
9
100
AcDbSymbolTableRecord
100
AcDbRegAppTableRecord
  2
GENIUS_GENREC_14
 70
     0
  0
APPID
  5
3BA
330
9
100
AcDbSymbolTableRecord
100
AcDbRegAppTableRecord
  2
GENIUS_GENOBJ-N-REC_13
 70
     0
  0
ENDTAB
  0
TABLE
  2
DIMSTYLE
  5
A
330
0
100
AcDbSymbolTable
 70
    17
100
AcDbDimStyleTable
 71
     1
340
81
  0
DIMSTYLE
105
81
330
A
100
AcDbSymbolTableRecord
100
AcDbDimStyleTableRecord
  2
AM_ISO
 70
     0
  4
"
 41
3.0
 42
1.5
 43
8.0
 44
1.5
 47
0.1
 48
0.1
 73
     0
 74
     0
 77
     1
 78
     8
 79
     2
140
3.5
141
0.0
143
0.0393701
146
0.71
147
1.5
172
     1
176
   256
177
   256
178
   256
271
     2
272
     2
283
     0
284
     8
340
11
371
    -1
372
    -1
  0
DIMSTYLE
105
82
330
A
100
AcDbSymbolTableRecord
100
AcDbDimStyleTableRecord
  2
AM_ISO$3
 70
     0
  4
"
 41
3.0
 42
1.5
 43
8.0
 44
1.5
 47
0.1
 48
0.1
 73
     0
 77
     1
 78
     8
 79
     2
140
3.5
141
0.0
143
0.0393701
146
0.71
147
1.5
176
   256
177
   256
178
   256
271
     2
272
     2
283
     0
284
     8
288
     1
289
     0
340
11
371
    -1
372
    -1
  0
DIMSTYLE
105
83
330
A
100
AcDbSymbolTableRecord
100
AcDbDimStyleTableRecord
  2
AM_ISO$4
 70
     0
  4
"
 41
3.0
 42
1.5
 43
8.0
 44
1.5
 47
0.1
 48
0.1
 73
     0
 77
     1
 78
     8
 79
     2
140
3.5
141
0.0
143
0.0393701
146
0.71
147
1.5
176
   256
177
   256
178
   256
271
     2
272
     2
283
     0
284
     8
288
     1
289
     0
340
11
371
    -1
372
    -1
  0
DIMSTYLE
105
84
330
A
100
AcDbSymbolTableRecord
100
AcDbDimStyleTableRecord
  2
AM_ISO$6
 70
     0
  4
"
 41
3.0
 42
1.5
 43
8.0
 44
1.5
 47
0.1
 48
0.1
 73
     0
 74
     0
 78
     8
 79
     2
140
3.5
141
0.0
143
0.0393701
146
0.71
147
1.5
172
     1
176
   256
177
   256
178
   256
271
     2
272
     2
283
     0
284
     8
340
11
371
    -1
372
    -1
  0
DIMSTYLE
105
85
330
A
100
AcDbSymbolTableRecord
100
AcDbDimStyleTableRecord
  2
AM_ISO$7
 70
     0
  4
"
 41
3.0
 42
1.5
 43
8.0
 44
1.5
 47
0.1
 48
0.1
 73
     0
 74
     0
 77
     1
 78
     8
 79
     2
140
5.0
141
0.0
143
0.0393701
146
0.71
147
1.5
172
     1
176
   256
177
   256
178
   256
271
     2
272
     2
283
     0
284
     8
340
11
371
    -1
372
    -1
  0
DIMSTYLE
105
86
330
A
100
AcDbSymbolTableRecord
100
AcDbDimStyleTableRecord
  2
AM_ISO$SF
 70
     0
  4
"
 41
2.5
 42
1.0
 43
10.0
 44
1.0
 47
0.1
 48
0.1
 73
     0
 74
     0
 75
     1
 76
     1
 77
     1
 78
     8
 79
     2
140
3.5
141
0.0
143
0.0393701
146
0.71
147
1.5
172
     1
176
   256
177
   256
178
     2
271
     2
272
     3
274
     4
283
     0
284
     8
340
11
371
    -1
372
    -1
  0
DIMSTYLE
105
8B
330
A
100
AcDbSymbolTableRecord
100
AcDbDimStyleTableRecord
  2
AM_ISO$SH
 70
     0
  4
"
 41
2.5
 42
1.0
 43
10.0
 44
1.0
 47
0.1
 48
0.1
 73
     0
 74
     0
 75
     1
 76
     1
 77
     1
 78
     8
 79
     2
140
3.5
141
0.0
143
0.0393701
144
2.0
146
0.71
147
1.5
172
     1
173
     1
176
   256
177
   256
178
     2
271
     2
272
     3
274
     4
283
     0
284
     8
340
11
343
87
371
    -1
372
    -1
  0
DIMSTYLE
105
27B
330
A
100
AcDbSymbolTableRecord
100
AcDbDimStyleTableRecord
  2
AM_ISO$0
 70
     0
  4
"
 41
3.0
 42
1.5
 43
8.0
 44
1.5
 47
0.1
 48
0.1
 73
     0
 74
     0
 77
     1
 78
     8
 79
     2
140
3.5
141
0.0
143
0.0393701
146
0.71
147
1.5
172
     1
176
   256
177
   256
178
   256
271
     2
272
     2
283
     0
284
     8
340
11
371
    -1
372
    -1
  0
DIMSTYLE
105
3AF
102
{ACAD_REACTORS
330
58F
330
4AF
330
4AD
330
4AE
330
4B0
330
58D
330
4B1
330
4A6
330
590
330
6A5
330
6AC
330
6AD
330
78C
330
78E
330
78F
102
}
330
A
100
AcDbSymbolTableRecord
100
AcDbDimStyleTableRecord
  2
STANDARD
 70
     0
 41
3.0
 42
2.0
 43
8.0
 44
2.0
 48
0.000000001
 73
     0
 74
     0
 77
     1
 78
     8
 79
     2
140
3.0
141
1.0
146
0.6
147
1.0
176
   256
177
   256
178
   256
179
     2
271
     2
272
     2
279
     2
284
     8
340
3AC
371
    -1
  0
DIMSTYLE
105
3B0
330
A
100
AcDbSymbolTableRecord
100
AcDbDimStyleTableRecord
  2
AM_JIS
 70
     0
  4
"
 41
2.5
 42
1.0
 43
10.0
 44
1.0
 47
0.1
 48
0.1
 73
     0
 74
     0
 77
     3
 78
     8
 79
     2
140
3.5
141
0.0
143
0.0393701
146
0.71
147
1.5
172
     1
176
   256
177
   256
178
     2
271
     2
272
     3
274
     4
283
     0
340
11
341
357
342
357
343
357
344
357
371
    -1
372
    -1
  0
DIMSTYLE
105
3B1
330
A
100
AcDbSymbolTableRecord
100
AcDbDimStyleTableRecord
  2
AM_JIS$3
 70
     0
  4
"
 41
2.5
 42
1.0
 43
10.0
 44
1.0
 47
0.1
 48
0.1
 73
     0
 77
     3
 78
     8
 79
     2
140
3.5
141
0.0
143
0.0393701
146
0.71
147
1.5
176
   256
177
   256
178
     2
271
     2
272
     3
274
     4
283
     0
288
     1
289
     0
340
11
341
357
342
357
343
357
344
357
371
    -1
372
    -1
  0
DIMSTYLE
105
3B2
330
A
100
AcDbSymbolTableRecord
100
AcDbDimStyleTableRecord
  2
AM_JIS$4
 70
     0
  4
"
 41
2.5
 42
1.0
 43
10.0
 44
1.0
 47
0.1
 48
0.1
 73
     0
 77
     3
 78
     8
 79
     2
140
3.5
141
0.0
143
0.0393701
146
0.71
147
1.5
176
   256
177
   256
178
     2
271
     2
272
     3
274
     4
283
     0
288
     1
289
     0
340
11
341
357
342
357
343
357
344
357
371
    -1
372
    -1
  0
DIMSTYLE
105
3B3
330
A
100
AcDbSymbolTableRecord
100
AcDbDimStyleTableRecord
  2
AM_JIS$6
 70
     0
  4
"
 41
2.5
 42
1.0
 43
10.0
 44
1.0
 47
0.1
 48
0.1
 73
     0
 74
     0
 78
     8
 79
     2
140
3.5
141
0.0
143
0.0393701
146
0.71
147
1.5
172
     1
176
   256
177
   256
178
     2
271
     2
272
     3
274
     4
283
     0
340
11
341
357
342
357
343
357
344
357
371
    -1
372
    -1
  0
DIMSTYLE
105
3B4
330
A
100
AcDbSymbolTableRecord
100
AcDbDimStyleTableRecord
  2
AM_JIS$7
 70
     0
  4
"
 41
2.5
 42
1.0
 43
10.0
 44
1.0
 47
0.1
 48
0.1
 73
     0
 74
     0
 77
     3
 78
     8
 79
     2
140
5.0
141
0.0
143
0.0393701
146
0.71
147
1.5
172
     1
176
   256
177
   256
178
     2
271
     2
272
     3
274
     4
283
     0
340
11
341
357
342
357
343
357
344
357
371
    -1
372
    -1
  0
DIMSTYLE
105
3B5
330
A
100
AcDbSymbolTableRecord
100
AcDbDimStyleTableRecord
  2
AM_JIS$SF
 70
     0
  4
"
 41
2.5
 42
1.0
 43
10.0
 44
1.0
 47
0.1
 48
0.1
 73
     0
 74
     0
 75
     1
 76
     1
 77
     3
 78
     8
 79
     2
140
3.5
141
0.0
143
0.0393701
146
0.71
147
1.5
172
     1
176
   256
177
   256
178
     2
271
     2
272
     3
274
     4
283
     0
340
11
341
357
342
357
343
357
344
357
371
    -1
372
    -1
  0
DIMSTYLE
105
3B6
330
A
100
AcDbSymbolTableRecord
100
AcDbDimStyleTableRecord
  2
AM_JIS$SH
 70
     0
  4
"
 41
2.5
 42
1.0
 43
10.0
 44
1.0
 47
0.1
 48
0.1
 73
     0
 74
     0
 75
     1
 76
     1
 77
     3
 78
     8
 79
     2
140
3.5
141
0.0
143
0.0393701
144
2.0
146
0.71
147
1.5
172
     1
173
     1
176
   256
177
   256
178
     2
271
     2
272
     3
274
     4
283
     0
340
11
341
357
342
357
343
87
344
357
371
    -1
372
    -1
  0
ENDTAB
  0
TABLE
  2
BLOCK_RECORD
  5
1
330
0
100
AcDbSymbolTable
 70
    18
  0
BLOCK_RECORD
  5
1F
102
{ACAD_XDICTIONARY
360
8F
102
}
330
1
100
AcDbSymbolTableRecord
100
AcDbBlockTableRecord
  2
*Model_Space
340
22
  0
BLOCK_RECORD
  5
1B
330
1
100
AcDbSymbolTableRecord
100
AcDbBlockTableRecord
  2
*Paper_Space
340
1E
  0
BLOCK_RECORD
  5
23
330
1
100
AcDbSymbolTableRecord
100
AcDbBlockTableRecord
  2
*Paper_Space0
340
26
  0
BLOCK_RECORD
  5
87
330
1
100
AcDbSymbolTableRecord
100
AcDbBlockTableRecord
  2
GENAXEH
340
0
  0
BLOCK_RECORD
  5
357
330
1
100
AcDbSymbolTableRecord
100
AcDbBlockTableRecord
  2
_Open30
340
0
  0
BLOCK_RECORD
  5
35D
330
1
100
AcDbSymbolTableRecord
100
AcDbBlockTableRecord
  2
*D4
340
0
  0
BLOCK_RECORD
  5
369
330
1
100
AcDbSymbolTableRecord
100
AcDbBlockTableRecord
  2
*D5
340
0
  0
BLOCK_RECORD
  5
375
330
1
100
AcDbSymbolTableRecord
100
AcDbBlockTableRecord
  2
*D6
340
0
  0
BLOCK_RECORD
  5
381
330
1
100
AcDbSymbolTableRecord
100
AcDbBlockTableRecord
  2
*D7
340
0
  0
BLOCK_RECORD
  5
38D
330
1
100
AcDbSymbolTableRecord
100
AcDbBlockTableRecord
  2
*D8
340
0
  0
BLOCK_RECORD
  5
399
330
1
100
AcDbSymbolTableRecord
100
AcDbBlockTableRecord
  2
*D9
340
0
  0
BLOCK_RECORD
  5
7A2
330
1
100
AcDbSymbolTableRecord
100
AcDbBlockTableRecord
  2
*D11
340
0
  0
BLOCK_RECORD
  5
7AE
330
1
100
AcDbSymbolTableRecord
100
AcDbBlockTableRecord
  2
*D12
340
0
  0
BLOCK_RECORD
  5
7BA
330
1
100
AcDbSymbolTableRecord
100
AcDbBlockTableRecord
  2
*D13
340
0
  0
BLOCK_RECORD
  5
7C6
330
1
100
AcDbSymbolTableRecord
100
AcDbBlockTableRecord
  2
*D14
340
0
  0
BLOCK_RECORD
  5
7D2
330
1
100
AcDbSymbolTableRecord
100
AcDbBlockTableRecord
  2
*D15
340
0
  0
BLOCK_RECORD
  5
7DE
330
1
100
AcDbSymbolTableRecord
100
AcDbBlockTableRecord
  2
*D16
340
0
  0
ENDTAB
  0
ENDSEC
  0
SECTION
  2
BLOCKS
  0
BLOCK
  5
20
330
1F
100
AcDbEntity
  8
0
100
AcDbBlockBegin
  2
*Model_Space
 70
     0
 10
0.0
 20
0.0
 30
0.0
  3
*Model_Space
  1

  0
ENDBLK
  5
21
330
1F
100
AcDbEntity
  8
0
100
AcDbBlockEnd
  0
BLOCK
  5
1C
330
1B
100
AcDbEntity
 67
     1
  8
0
100
AcDbBlockBegin
  2
*Paper_Space
 70
     0
 10
0.0
 20
0.0
 30
0.0
  3
*Paper_Space
  1

  0
ENDBLK
  5
1D
330
1B
100
AcDbEntity
 67
     1
  8
0
100
AcDbBlockEnd
  0
BLOCK
  5
24
330
23
100
AcDbEntity
  8
0
100
AcDbBlockBegin
  2
*Paper_Space0
 70
     0
 10
0.0
 20
0.0
 30
0.0
  3
*Paper_Space0
  1

  0
ENDBLK
  5
25
330
23
100
AcDbEntity
  8
0
100
AcDbBlockEnd
  0
BLOCK
  5
89
330
87
100
AcDbEntity
  8
0
100
AcDbBlockBegin
  2
GENAXEH
 70
     0
 10
0.0
 20
0.0
 30
0.0
  3
GENAXEH
  1

  0
LINE
  5
88
330
87
100
AcDbEntity
  8
0
100
AcDbLine
 10
-1.0
 20
0.0
 30
0.0
 11
1.0
 21
0.0
 31
0.0
  0
ENDBLK
  5
8A
330
87
100
AcDbEntity
  8
0
100
AcDbBlockEnd
  0
BLOCK
  5
358
330
357
100
AcDbEntity
  8
0
100
AcDbBlockBegin
  2
_Open30
 70
     0
 10
0.0
 20
0.0
 30
0.0
  3
_Open30
  1

  0
LINE
  5
359
330
357
100
AcDbEntity
  8
0
 62
     0
370
    -2
100
AcDbLine
 10
-1.0
 20
0.26794919
 30
0.0
 11
0.0
 21
0.0
 31
0.0
  0
LINE
  5
35A
330
357
100
AcDbEntity
  8
0
 62
     0
370
    -2
100
AcDbLine
 10
0.0
 20
0.0
 30
0.0
 11
-1.0
 21
-0.26794919
 31
0.0
  0
LINE
  5
35B
330
357
100
AcDbEntity
  8
0
 62
     0
370
    -2
100
AcDbLine
 10
0.0
 20
0.0
 30
0.0
 11
-1.0
 21
0.0
 31
0.0
  0
ENDBLK
  5
35C
330
357
100
AcDbEntity
  8
0
100
AcDbBlockEnd
  0
BLOCK
  5
35E
330
35D
100
AcDbEntity
  8
0
100
AcDbBlockBegin
  2
*D4
 70
     1
 10
0.0
 20
0.0
 30
0.0
  3
*D4
  1

  0
LINE
  5
35F
330
35D
100
AcDbEntity
  8
0
 62
     5
370
    -2
100
AcDbLine
 10
-29.18494047463992
 20
248.8662971328476
 30
0.0
 11
-45.47459340284329
 21
248.8662971328476
 31
0.0
  0
LINE
  5
360
330
35D
100
AcDbEntity
  8
0
 62
     5
370
    -2
100
AcDbLine
 10
-36.68494047463992
 20
162.8704990861069
 30
0.0
 11
-45.47459340284331
 21
162.8704990861069
 31
0.0
  0
LINE
  5
361
330
35D
100
AcDbEntity
  8
0
 62
     5
100
AcDbLine
 10
-43.47459340284329
 20
245.8662971328476
 30
0.0
 11
-43.47459340284331
 21
165.8704990861069
 31
0.0
  0
SOLID
  5
362
330
35D
100
AcDbEntity
  8
0
 62
     5
100
AcDbTrace
 10
-43.97459340284329
 20
245.8662971328476
 30
0.0
 11
-42.97459340284329
 21
245.8662971328476
 31
0.0
 12
-43.47459340284329
 22
248.8662971328476
 32
0.0
 13
-43.47459340284329
 23
248.8662971328476
 33
0.0
  0
SOLID
  5
363
330
35D
100
AcDbEntity
  8
0
 62
     5
100
AcDbTrace
 10
-43.9745934028433
 20
165.8704990861069
 30
0.0
 11
-42.97459340284331
 21
165.8704990861069
 31
0.0
 12
-43.47459340284331
 22
162.8704990861069
 32
0.0
 13
-43.47459340284331
 23
162.8704990861069
 33
0.0
  0
MTEXT
  5
364
330
35D
100
AcDbEntity
  8
0
 62
     5
100
AcDbMText
 10
-45.97459340284333
 20
205.8683981094773
 30
0.0
 40
3.0
 41
0.0
 71
     5
 72
     1
  1
\A1;86
  7
CHINESET
 11
0.0000000000000001
 21
1.0
 31
0.0
 73
     1
 44
1.0
1001
ACAD
1000
MTEXTBEGIN
1070
    73
1070
     1
1070
    44
1040
1.0
1070
    74
1070
     0
1000
MTEXTEND
  0
POINT
  5
365
330
35D
100
AcDbEntity
  8
Defpoints
 62
     0
100
AcDbPoint
 10
-27.18494047463992
 20
248.8662971328476
 30
0.0
  0
POINT
  5
366
330
35D
100
AcDbEntity
  8
Defpoints
 62
     0
100
AcDbPoint
 10
-34.68494047463992
 20
162.8704990861069
 30
0.0
  0
POINT
  5
367
330
35D
100
AcDbEntity
  8
Defpoints
 62
     0
100
AcDbPoint
 10
-43.47459340284331
 20
162.8704990861069
 30
0.0
  0
ENDBLK
  5
368
330
35D
100
AcDbEntity
  8
0
100
AcDbBlockEnd
  0
BLOCK
  5
36A
330
369
100
AcDbEntity
  8
0
100
AcDbBlockBegin
  2
*D5
 70
     1
 10
0.0
 20
0.0
 30
0.0
  3
*D5
  1

  0
LINE
  5
36B
330
369
100
AcDbEntity
  8
0
 62
     5
370
    -2
100
AcDbLine
 10
119.7440360601595
 20
129.2545010338949
 30
0.0
 11
126.9245693258996
 21
129.2545010338949
 31
0.0
  0
LINE
  5
36C
330
369
100
AcDbEntity
  8
0
 62
     5
370
    -2
100
AcDbLine
 10
119.7440360601595
 20
105.2545010338949
 30
0.0
 11
126.9245693258996
 21
105.2545010338949
 31
0.0
  0
LINE
  5
36D
330
369
100
AcDbEntity
  8
0
 62
     5
100
AcDbLine
 10
124.9245693258996
 20
126.2545010338949
 30
0.0
 11
124.9245693258996
 21
108.2545010338949
 31
0.0
  0
SOLID
  5
36E
330
369
100
AcDbEntity
  8
0
 62
     5
100
AcDbTrace
 10
124.4245693258996
 20
126.2545010338949
 30
0.0
 11
125.4245693258996
 21
126.2545010338949
 31
0.0
 12
124.9245693258996
 22
129.2545010338949
 32
0.0
 13
124.9245693258996
 23
129.2545010338949
 33
0.0
  0
SOLID
  5
36F
330
369
100
AcDbEntity
  8
0
 62
     5
100
AcDbTrace
 10
124.4245693258996
 20
108.2545010338949
 30
0.0
 11
125.4245693258996
 21
108.2545010338949
 31
0.0
 12
124.9245693258996
 22
105.2545010338949
 32
0.0
 13
124.9245693258996
 23
105.2545010338949
 33
0.0
  0
MTEXT
  5
370
330
369
100
AcDbEntity
  8
0
 62
     5
100
AcDbMText
 10
122.4245693258996
 20
117.2545010338949
 30
0.0
 40
3.0
 41
0.0
 71
     5
 72
     1
  1
\A1;24
  7
CHINESET
 11
0.0000000000000001
 21
1.0
 31
0.0
 73
     1
 44
1.0
1001
ACAD
1000
MTEXTBEGIN
1070
    73
1070
     1
1070
    44
1040
1.0
1070
    74
1070
     0
1000
MTEXTEND
  0
POINT
  5
371
330
369
100
AcDbEntity
  8
Defpoints
 62
     0
100
AcDbPoint
 10
117.7440360601595
 20
129.2545010338949
 30
0.0
  0
POINT
  5
372
330
369
100
AcDbEntity
  8
Defpoints
 62
     0
100
AcDbPoint
 10
117.7440360601595
 20
105.2545010338949
 30
0.0
  0
POINT
  5
373
330
369
100
AcDbEntity
  8
Defpoints
 62
     0
100
AcDbPoint
 10
124.9245693258996
 20
105.2545010338949
 30
0.0
  0
ENDBLK
  5
374
330
369
100
AcDbEntity
  8
0
100
AcDbBlockEnd
  0
BLOCK
  5
376
330
375
100
AcDbEntity
  8
0
100
AcDbBlockBegin
  2
*D6
 70
     1
 10
0.0
 20
0.0
 30
0.0
  3
*D6
  1

  0
LINE
  5
377
330
375
100
AcDbEntity
  8
0
 62
     5
370
    -2
100
AcDbLine
 10
119.7440360601595
 20
133.2545010338949
 30
0.0
 11
135.8414495795662
 21
133.2545010338949
 31
0.0
  0
LINE
  5
378
330
375
100
AcDbEntity
  8
0
 62
     5
370
    -2
100
AcDbLine
 10
119.7440360601595
 20
101.2545010338949
 30
0.0
 11
135.8414495795662
 21
101.2545010338949
 31
0.0
  0
LINE
  5
379
330
375
100
AcDbEntity
  8
0
 62
     5
100
AcDbLine
 10
133.8414495795662
 20
130.2545010338949
 30
0.0
 11
133.8414495795662
 21
104.2545010338949
 31
0.0
  0
SOLID
  5
37A
330
375
100
AcDbEntity
  8
0
 62
     5
100
AcDbTrace
 10
133.3414495795662
 20
130.2545010338949
 30
0.0
 11
134.3414495795662
 21
130.2545010338949
 31
0.0
 12
133.8414495795662
 22
133.2545010338949
 32
0.0
 13
133.8414495795662
 23
133.2545010338949
 33
0.0
  0
SOLID
  5
37B
330
375
100
AcDbEntity
  8
0
 62
     5
100
AcDbTrace
 10
133.3414495795662
 20
104.2545010338949
 30
0.0
 11
134.3414495795662
 21
104.2545010338949
 31
0.0
 12
133.8414495795662
 22
101.2545010338949
 32
0.0
 13
133.8414495795662
 23
101.2545010338949
 33
0.0
  0
MTEXT
  5
37C
330
375
100
AcDbEntity
  8
0
 62
     5
100
AcDbMText
 10
131.3414495795661
 20
117.2545010338949
 30
0.0
 40
3.0
 41
0.0
 71
     5
 72
     1
  1
\A1;32
  7
CHINESET
 11
0.0000000000000001
 21
1.0
 31
0.0
 73
     1
 44
1.0
1001
ACAD
1000
MTEXTBEGIN
1070
    73
1070
     1
1070
    44
1040
1.0
1070
    74
1070
     0
1000
MTEXTEND
  0
POINT
  5
37D
330
375
100
AcDbEntity
  8
Defpoints
 62
     0
100
AcDbPoint
 10
117.7440360601595
 20
133.2545010338949
 30
0.0
  0
POINT
  5
37E
330
375
100
AcDbEntity
  8
Defpoints
 62
     0
100
AcDbPoint
 10
117.7440360601595
 20
101.2545010338949
 30
0.0
  0
POINT
  5
37F
330
375
100
AcDbEntity
  8
Defpoints
 62
     0
100
AcDbPoint
 10
133.8414495795662
 20
101.2545010338949
 30
0.0
  0
ENDBLK
  5
380
330
375
100
AcDbEntity
  8
0
100
AcDbBlockEnd
  0
BLOCK
  5
382
330
381
100
AcDbEntity
  8
0
100
AcDbBlockBegin
  2
*D7
 70
     1
 10
0.0
 20
0.0
 30
0.0
  3
*D7
  1

  0
LINE
  5
383
330
381
100
AcDbEntity
  8
0
 62
     5
370
    -2
100
AcDbLine
 10
49.87114977733082
 20
226.5404990861069
 30
0.0
 11
49.87114977733082
 21
258.9312667155432
 31
0.0
  0
LINE
  5
384
330
381
100
AcDbEntity
  8
0
 62
     5
370
    -2
100
AcDbLine
 10
102.8711497773308
 20
252.5460810106965
 30
0.0
 11
102.8711497773308
 21
258.9312667155432
 31
0.0
  0
LINE
  5
385
330
381
100
AcDbEntity
  8
0
 62
     5
100
AcDbLine
 10
52.87114977733082
 20
256.9312667155432
 30
0.0
 11
99.87114977733085
 21
256.9312667155432
 31
0.0
  0
SOLID
  5
386
330
381
100
AcDbEntity
  8
0
 62
     5
100
AcDbTrace
 10
52.87114977733082
 20
257.4312667155432
 30
0.0
 11
52.87114977733082
 21
256.4312667155432
 31
0.0
 12
49.87114977733082
 22
256.9312667155432
 32
0.0
 13
49.87114977733082
 23
256.9312667155432
 33
0.0
  0
SOLID
  5
387
330
381
100
AcDbEntity
  8
0
 62
     5
100
AcDbTrace
 10
99.87114977733085
 20
257.4312667155432
 30
0.0
 11
99.87114977733085
 21
256.4312667155432
 31
0.0
 12
102.8711497773308
 22
256.9312667155432
 32
0.0
 13
102.8711497773308
 23
256.9312667155432
 33
0.0
  0
MTEXT
  5
388
330
381
100
AcDbEntity
  8
0
 62
     5
100
AcDbMText
 10
76.37114977733084
 20
259.4312667155432
 30
0.0
 40
3.0
 41
0.0
 71
     5
 72
     1
  1
\A1;53
  7
CHINESET
 73
     1
 44
1.0
1001
ACAD
1000
MTEXTBEGIN
1070
    73
1070
     1
1070
    44
1040
1.0
1070
    74
1070
     0
1000
MTEXTEND
  0
POINT
  5
389
330
381
100
AcDbEntity
  8
Defpoints
 62
     0
100
AcDbPoint
 10
49.87114977733082
 20
224.5404990861069
 30
0.0
  0
POINT
  5
38A
330
381
100
AcDbEntity
  8
Defpoints
 62
     0
100
AcDbPoint
 10
102.8711497773308
 20
250.5460810106965
 30
0.0
  0
POINT
  5
38B
330
381
100
AcDbEntity
  8
Defpoints
 62
     0
100
AcDbPoint
 10
102.8711497773308
 20
256.9312667155432
 30
0.0
  0
ENDBLK
  5
38C
330
381
100
AcDbEntity
  8
0
100
AcDbBlockEnd
  0
BLOCK
  5
38E
330
38D
100
AcDbEntity
  8
0
100
AcDbBlockBegin
  2
*D8
 70
     1
 10
0.0
 20
0.0
 30
0.0
  3
*D8
  1

  0
LINE
  5
38F
330
38D
100
AcDbEntity
  8
0
 62
     5
370
    -2
100
AcDbLine
 10
92.67114977733086
 20
125.7545010338949
 30
0.0
 11
92.67114977733086
 21
139.6504815012188
 31
0.0
  0
LINE
  5
390
330
38D
100
AcDbEntity
  8
0
 62
     5
370
    -2
100
AcDbLine
 10
102.8711497773308
 20
125.7545010338949
 30
0.0
 11
102.8711497773308
 21
139.6504815012188
 31
0.0
  0
LINE
  5
391
330
38D
100
AcDbEntity
  8
0
 62
     5
100
AcDbLine
 10
95.67114977733087
 20
137.6504815012188
 30
0.0
 11
99.87114977733085
 21
137.6504815012188
 31
0.0
  0
MTEXT
  5
392
330
38D
100
AcDbEntity
  8
0
 62
     5
100
AcDbMText
 10
97.77114977733086
 20
142.6504815012188
 30
0.0
 40
3.0
 41
0.0
 71
     5
 72
     1
  1
\A1;10.2
  7
CHINESET
 73
     1
 44
1.0
1001
ACAD
1000
MTEXTBEGIN
1070
    73
1070
     1
1070
    44
1040
1.0
1070
    74
1070
     0
1000
MTEXTEND
  0
SOLID
  5
393
330
38D
100
AcDbEntity
  8
0
 62
     5
100
AcDbTrace
 10
95.67114977733087
 20
138.1504815012188
 30
0.0
 11
95.67114977733087
 21
137.1504815012188
 31
0.0
 12
92.67114977733086
 22
137.6504815012188
 32
0.0
 13
92.67114977733086
 23
137.6504815012188
 33
0.0
  0
SOLID
  5
394
330
38D
100
AcDbEntity
  8
0
 62
     5
100
AcDbTrace
 10
99.87114977733085
 20
138.1504815012188
 30
0.0
 11
99.87114977733085
 21
137.1504815012188
 31
0.0
 12
102.8711497773308
 22
137.6504815012188
 32
0.0
 13
102.8711497773308
 23
137.6504815012188
 33
0.0
  0
POINT
  5
395
330
38D
100
AcDbEntity
  8
Defpoints
 62
     0
100
AcDbPoint
 10
92.67114977733086
 20
123.7545010338949
 30
0.0
  0
POINT
  5
396
330
38D
100
AcDbEntity
  8
Defpoints
 62
     0
100
AcDbPoint
 10
102.8711497773308
 20
123.7545010338949
 30
0.0
  0
POINT
  5
397
330
38D
100
AcDbEntity
  8
Defpoints
 62
     0
100
AcDbPoint
 10
102.8711497773308
 20
137.6504815012188
 30
0.0
  0
ENDBLK
  5
398
330
38D
100
AcDbEntity
  8
0
100
AcDbBlockEnd
  0
BLOCK
  5
39A
330
399
100
AcDbEntity
  8
0
100
AcDbBlockBegin
  2
*D9
 70
     1
 10
0.0
 20
0.0
 30
0.0
  3
*D9
  1

  0
LINE
  5
39B
330
399
100
AcDbEntity
  8
0
 62
     5
370
    -2
100
AcDbLine
 10
49.37114977733088
 20
314.568867872652
 30
0.0
 11
49.37114977733088
 21
324.2480064565668
 31
0.0
  0
LINE
  5
39C
330
399
100
AcDbEntity
  8
0
 62
     5
370
    -2
100
AcDbLine
 10
117.8711497773309
 20
317.768867872652
 30
0.0
 11
117.8711497773309
 21
324.2480064565668
 31
0.0
  0
LINE
  5
39D
330
399
100
AcDbEntity
  8
0
 62
     5
100
AcDbLine
 10
52.37114977733089
 20
322.2480064565668
 30
0.0
 11
114.8711497773309
 21
322.2480064565668
 31
0.0
  0
SOLID
  5
39E
330
399
100
AcDbEntity
  8
0
 62
     5
100
AcDbTrace
 10
52.37114977733089
 20
322.7480064565668
 30
0.0
 11
52.37114977733089
 21
321.7480064565668
 31
0.0
 12
49.37114977733088
 22
322.2480064565668
 32
0.0
 13
49.37114977733088
 23
322.2480064565668
 33
0.0
  0
SOLID
  5
39F
330
399
100
AcDbEntity
  8
0
 62
     5
100
AcDbTrace
 10
114.8711497773309
 20
322.7480064565668
 30
0.0
 11
114.8711497773309
 21
321.7480064565668
 31
0.0
 12
117.8711497773309
 22
322.2480064565668
 32
0.0
 13
117.8711497773309
 23
322.2480064565668
 33
0.0
  0
MTEXT
  5
3A0
330
399
100
AcDbEntity
  8
0
 62
     5
100
AcDbMText
 10
83.62114977733089
 20
324.7480064565668
 30
0.0
 40
3.0
 41
0.0
 71
     5
 72
     1
  1
\A1;68.5
  7
CHINESET
 73
     1
 44
1.0
1001
ACAD
1000
MTEXTBEGIN
1070
    73
1070
     1
1070
    44
1040
1.0
1070
    74
1070
     0
1000
MTEXTEND
  0
POINT
  5
3A1
330
399
100
AcDbEntity
  8
Defpoints
 62
     0
100
AcDbPoint
 10
49.37114977733088
 20
312.568867872652
 30
0.0
  0
POINT
  5
3A2
330
399
100
AcDbEntity
  8
Defpoints
 62
     0
100
AcDbPoint
 10
117.8711497773309
 20
315.768867872652
 30
0.0
  0
POINT
  5
3A3
330
399
100
AcDbEntity
  8
Defpoints
 62
     0
100
AcDbPoint
 10
117.8711497773309
 20
322.2480064565668
 30
0.0
  0
ENDBLK
  5
3A4
330
399
100
AcDbEntity
  8
0
100
AcDbBlockEnd
  0
BLOCK
  5
7AC
330
7A2
100
AcDbEntity
  8
0
100
AcDbBlockBegin
  2
*D11
 70
     1
 10
0.0
 20
0.0
 30
0.0
  3
*D11
  1

  0
LINE
  5
7EA
330
7A2
100
AcDbEntity
  8
0
 62
     5
370
    -2
100
AcDbLine
 10
154.4798486068379
 20
349.1979697890977
 30
0.0
 11
138.1901956786345
 21
349.1979697890977
 31
0.0
  0
LINE
  5
7EB
330
7A2
100
AcDbEntity
  8
0
 62
     5
370
    -2
100
AcDbLine
 10
146.9798486068379
 20
263.2021717423571
 30
0.0
 11
138.1901956786345
 21
263.2021717423571
 31
0.0
  0
LINE
  5
7EC
330
7A2
100
AcDbEntity
  8
0
 62
     5
100
AcDbLine
 10
140.1901956786345
 20
346.1979697890977
 30
0.0
 11
140.1901956786345
 21
266.2021717423571
 31
0.0
  0
SOLID
  5
7ED
330
7A2
100
AcDbEntity
  8
0
 62
     5
100
AcDbTrace
 10
139.6901956786345
 20
346.1979697890977
 30
0.0
 11
140.6901956786345
 21
346.1979697890977
 31
0.0
 12
140.1901956786345
 22
349.1979697890977
 32
0.0
 13
140.1901956786345
 23
349.1979697890977
 33
0.0
  0
SOLID
  5
7EE
330
7A2
100
AcDbEntity
  8
0
 62
     5
100
AcDbTrace
 10
139.6901956786345
 20
266.2021717423571
 30
0.0
 11
140.6901956786345
 21
266.2021717423571
 31
0.0
 12
140.1901956786345
 22
263.2021717423571
 32
0.0
 13
140.1901956786345
 23
263.2021717423571
 33
0.0
  0
MTEXT
  5
7EF
330
7A2
100
AcDbEntity
  8
0
 62
     5
100
AcDbMText
 10
137.6901956786344
 20
306.2000707657274
 30
0.0
 40
3.0
 41
0.0
 71
     5
 72
     1
  1
\A1;86
  7
CHINESET
 11
0.0000000000000001
 21
1.0
 31
0.0
 73
     1
 44
1.0
1001
ACAD
1000
MTEXTBEGIN
1070
    73
1070
     1
1070
    44
1040
1.0
1070
    74
1070
     0
1000
MTEXTEND
  0
POINT
  5
7F0
330
7A2
100
AcDbEntity
  8
Defpoints
 62
     0
100
AcDbPoint
 10
156.4798486068379
 20
349.1979697890977
 30
0.0
  0
POINT
  5
7F1
330
7A2
100
AcDbEntity
  8
Defpoints
 62
     0
100
AcDbPoint
 10
148.9798486068379
 20
263.2021717423571
 30
0.0
  0
POINT
  5
7F2
330
7A2
100
AcDbEntity
  8
Defpoints
 62
     0
100
AcDbPoint
 10
140.1901956786345
 20
263.2021717423571
 30
0.0
  0
ENDBLK
  5
7AD
330
7A2
100
AcDbEntity
  8
0
100
AcDbBlockEnd
  0
BLOCK
  5
7B8
330
7AE
100
AcDbEntity
  8
0
100
AcDbBlockBegin
  2
*D12
 70
     1
 10
0.0
 20
0.0
 30
0.0
  3
*D12
  1

  0
LINE
  5
7F3
330
7AE
100
AcDbEntity
  8
0
 62
     5
370
    -2
100
AcDbLine
 10
303.4088251416373
 20
229.586173690145
 30
0.0
 11
310.5893584073774
 21
229.586173690145
 31
0.0
  0
LINE
  5
7F4
330
7AE
100
AcDbEntity
  8
0
 62
     5
370
    -2
100
AcDbLine
 10
303.4088251416373
 20
205.586173690145
 30
0.0
 11
310.5893584073774
 21
205.586173690145
 31
0.0
  0
LINE
  5
7F5
330
7AE
100
AcDbEntity
  8
0
 62
     5
100
AcDbLine
 10
308.5893584073774
 20
226.586173690145
 30
0.0
 11
308.5893584073774
 21
208.586173690145
 31
0.0
  0
SOLID
  5
7F6
330
7AE
100
AcDbEntity
  8
0
 62
     5
100
AcDbTrace
 10
308.0893584073774
 20
226.586173690145
 30
0.0
 11
309.0893584073774
 21
226.586173690145
 31
0.0
 12
308.5893584073774
 22
229.586173690145
 32
0.0
 13
308.5893584073774
 23
229.586173690145
 33
0.0
  0
SOLID
  5
7F7
330
7AE
100
AcDbEntity
  8
0
 62
     5
100
AcDbTrace
 10
308.0893584073774
 20
208.586173690145
 30
0.0
 11
309.0893584073774
 21
208.586173690145
 31
0.0
 12
308.5893584073774
 22
205.586173690145
 32
0.0
 13
308.5893584073774
 23
205.586173690145
 33
0.0
  0
MTEXT
  5
7F8
330
7AE
100
AcDbEntity
  8
0
 62
     5
100
AcDbMText
 10
306.0893584073773
 20
217.586173690145
 30
0.0
 40
3.0
 41
0.0
 71
     5
 72
     1
  1
\A1;24
  7
CHINESET
 11
0.0000000000000001
 21
1.0
 31
0.0
 73
     1
 44
1.0
1001
ACAD
1000
MTEXTBEGIN
1070
    73
1070
     1
1070
    44
1040
1.0
1070
    74
1070
     0
1000
MTEXTEND
  0
POINT
  5
7F9
330
7AE
100
AcDbEntity
  8
Defpoints
 62
     0
100
AcDbPoint
 10
301.4088251416373
 20
229.586173690145
 30
0.0
  0
POINT
  5
7FA
330
7AE
100
AcDbEntity
  8
Defpoints
 62
     0
100
AcDbPoint
 10
301.4088251416373
 20
205.586173690145
 30
0.0
  0
POINT
  5
7FB
330
7AE
100
AcDbEntity
  8
Defpoints
 62
     0
100
AcDbPoint
 10
308.5893584073774
 20
205.586173690145
 30
0.0
  0
ENDBLK
  5
7B9
330
7AE
100
AcDbEntity
  8
0
100
AcDbBlockEnd
  0
BLOCK
  5
7C4
330
7BA
100
AcDbEntity
  8
0
100
AcDbBlockBegin
  2
*D13
 70
     1
 10
0.0
 20
0.0
 30
0.0
  3
*D13
  1

  0
LINE
  5
7FC
330
7BA
100
AcDbEntity
  8
0
 62
     5
370
    -2
100
AcDbLine
 10
303.4088251416373
 20
233.586173690145
 30
0.0
 11
319.506238661044
 21
233.586173690145
 31
0.0
  0
LINE
  5
7FD
330
7BA
100
AcDbEntity
  8
0
 62
     5
370
    -2
100
AcDbLine
 10
303.4088251416373
 20
201.586173690145
 30
0.0
 11
319.506238661044
 21
201.586173690145
 31
0.0
  0
LINE
  5
7FE
330
7BA
100
AcDbEntity
  8
0
 62
     5
100
AcDbLine
 10
317.506238661044
 20
230.586173690145
 30
0.0
 11
317.506238661044
 21
204.586173690145
 31
0.0
  0
SOLID
  5
7FF
330
7BA
100
AcDbEntity
  8
0
 62
     5
100
AcDbTrace
 10
317.006238661044
 20
230.586173690145
 30
0.0
 11
318.006238661044
 21
230.586173690145
 31
0.0
 12
317.506238661044
 22
233.586173690145
 32
0.0
 13
317.506238661044
 23
233.586173690145
 33
0.0
  0
SOLID
  5
800
330
7BA
100
AcDbEntity
  8
0
 62
     5
100
AcDbTrace
 10
317.006238661044
 20
204.586173690145
 30
0.0
 11
318.006238661044
 21
204.586173690145
 31
0.0
 12
317.506238661044
 22
201.586173690145
 32
0.0
 13
317.506238661044
 23
201.586173690145
 33
0.0
  0
MTEXT
  5
801
330
7BA
100
AcDbEntity
  8
0
 62
     5
100
AcDbMText
 10
315.0062386610439
 20
217.586173690145
 30
0.0
 40
3.0
 41
0.0
 71
     5
 72
     1
  1
\A1;32
  7
CHINESET
 11
0.0000000000000001
 21
1.0
 31
0.0
 73
     1
 44
1.0
1001
ACAD
1000
MTEXTBEGIN
1070
    73
1070
     1
1070
    44
1040
1.0
1070
    74
1070
     0
1000
MTEXTEND
  0
POINT
  5
802
330
7BA
100
AcDbEntity
  8
Defpoints
 62
     0
100
AcDbPoint
 10
301.4088251416373
 20
233.586173690145
 30
0.0
  0
POINT
  5
803
330
7BA
100
AcDbEntity
  8
Defpoints
 62
     0
100
AcDbPoint
 10
301.4088251416373
 20
201.586173690145
 30
0.0
  0
POINT
  5
804
330
7BA
100
AcDbEntity
  8
Defpoints
 62
     0
100
AcDbPoint
 10
317.506238661044
 20
201.586173690145
 30
0.0
  0
ENDBLK
  5
7C5
330
7BA
100
AcDbEntity
  8
0
100
AcDbBlockEnd
  0
BLOCK
  5
7D0
330
7C6
100
AcDbEntity
  8
0
100
AcDbBlockBegin
  2
*D14
 70
     1
 10
0.0
 20
0.0
 30
0.0
  3
*D14
  1

  0
LINE
  5
805
330
7C6
100
AcDbEntity
  8
0
 62
     5
370
    -2
100
AcDbLine
 10
233.5359388588087
 20
326.872171742357
 30
0.0
 11
233.5359388588087
 21
359.2629393717933
 31
0.0
  0
LINE
  5
806
330
7C6
100
AcDbEntity
  8
0
 62
     5
370
    -2
100
AcDbLine
 10
286.5359388588087
 20
352.8777536669466
 30
0.0
 11
286.5359388588087
 21
359.2629393717933
 31
0.0
  0
LINE
  5
807
330
7C6
100
AcDbEntity
  8
0
 62
     5
100
AcDbLine
 10
236.5359388588086
 20
357.2629393717933
 30
0.0
 11
283.5359388588086
 21
357.2629393717933
 31
0.0
  0
SOLID
  5
808
330
7C6
100
AcDbEntity
  8
0
 62
     5
100
AcDbTrace
 10
236.5359388588086
 20
357.7629393717933
 30
0.0
 11
236.5359388588086
 21
356.7629393717933
 31
0.0
 12
233.5359388588087
 22
357.2629393717933
 32
0.0
 13
233.5359388588087
 23
357.2629393717933
 33
0.0
  0
SOLID
  5
809
330
7C6
100
AcDbEntity
  8
0
 62
     5
100
AcDbTrace
 10
283.5359388588086
 20
357.7629393717933
 30
0.0
 11
283.5359388588086
 21
356.7629393717933
 31
0.0
 12
286.5359388588087
 22
357.2629393717933
 32
0.0
 13
286.5359388588087
 23
357.2629393717933
 33
0.0
  0
MTEXT
  5
80A
330
7C6
100
AcDbEntity
  8
0
 62
     5
100
AcDbMText
 10
260.0359388588087
 20
359.7629393717933
 30
0.0
 40
3.0
 41
0.0
 71
     5
 72
     1
  1
\A1;53
  7
CHINESET
 73
     1
 44
1.0
1001
ACAD
1000
MTEXTBEGIN
1070
    73
1070
     1
1070
    44
1040
1.0
1070
    74
1070
     0
1000
MTEXTEND
  0
POINT
  5
80B
330
7C6
100
AcDbEntity
  8
Defpoints
 62
     0
100
AcDbPoint
 10
233.5359388588087
 20
324.8721717423571
 30
0.0
  0
POINT
  5
80C
330
7C6
100
AcDbEntity
  8
Defpoints
 62
     0
100
AcDbPoint
 10
286.5359388588087
 20
350.8777536669466
 30
0.0
  0
POINT
  5
80D
330
7C6
100
AcDbEntity
  8
Defpoints
 62
     0
100
AcDbPoint
 10
286.5359388588087
 20
357.2629393717933
 30
0.0
  0
ENDBLK
  5
7D1
330
7C6
100
AcDbEntity
  8
0
100
AcDbBlockEnd
  0
BLOCK
  5
7DC
330
7D2
100
AcDbEntity
  8
0
100
AcDbBlockBegin
  2
*D15
 70
     1
 10
0.0
 20
0.0
 30
0.0
  3
*D15
  1

  0
LINE
  5
80E
330
7D2
100
AcDbEntity
  8
0
 62
     5
370
    -2
100
AcDbLine
 10
276.3359388588087
 20
226.086173690145
 30
0.0
 11
276.3359388588087
 21
239.9821541574689
 31
0.0
  0
LINE
  5
80F
330
7D2
100
AcDbEntity
  8
0
 62
     5
370
    -2
100
AcDbLine
 10
286.5359388588087
 20
226.086173690145
 30
0.0
 11
286.5359388588087
 21
239.9821541574689
 31
0.0
  0
LINE
  5
810
330
7D2
100
AcDbEntity
  8
0
 62
     5
100
AcDbLine
 10
279.3359388588087
 20
237.9821541574689
 30
0.0
 11
283.5359388588086
 21
237.9821541574689
 31
0.0
  0
MTEXT
  5
811
330
7D2
100
AcDbEntity
  8
0
 62
     5
100
AcDbMText
 10
281.4359388588087
 20
242.9821541574689
 30
0.0
 40
3.0
 41
0.0
 71
     5
 72
     1
  1
\A1;10.2
  7
CHINESET
 73
     1
 44
1.0
1001
ACAD
1000
MTEXTBEGIN
1070
    73
1070
     1
1070
    44
1040
1.0
1070
    74
1070
     0
1000
MTEXTEND
  0
SOLID
  5
812
330
7D2
100
AcDbEntity
  8
0
 62
     5
100
AcDbTrace
 10
279.3359388588087
 20
238.4821541574689
 30
0.0
 11
279.3359388588087
 21
237.4821541574689
 31
0.0
 12
276.3359388588087
 22
237.9821541574689
 32
0.0
 13
276.3359388588087
 23
237.9821541574689
 33
0.0
  0
SOLID
  5
813
330
7D2
100
AcDbEntity
  8
0
 62
     5
100
AcDbTrace
 10
283.5359388588086
 20
238.4821541574689
 30
0.0
 11
283.5359388588086
 21
237.4821541574689
 31
0.0
 12
286.5359388588087
 22
237.9821541574689
 32
0.0
 13
286.5359388588087
 23
237.9821541574689
 33
0.0
  0
POINT
  5
814
330
7D2
100
AcDbEntity
  8
Defpoints
 62
     0
100
AcDbPoint
 10
276.3359388588087
 20
224.086173690145
 30
0.0
  0
POINT
  5
815
330
7D2
100
AcDbEntity
  8
Defpoints
 62
     0
100
AcDbPoint
 10
286.5359388588087
 20
224.086173690145
 30
0.0
  0
POINT
  5
816
330
7D2
100
AcDbEntity
  8
Defpoints
 62
     0
100
AcDbPoint
 10
286.5359388588087
 20
237.9821541574689
 30
0.0
  0
ENDBLK
  5
7DD
330
7D2
100
AcDbEntity
  8
0
100
AcDbBlockEnd
  0
BLOCK
  5
7E8
330
7DE
100
AcDbEntity
  8
0
100
AcDbBlockBegin
  2
*D16
 70
     1
 10
0.0
 20
0.0
 30
0.0
  3
*D16
  1

  0
LINE
  5
817
330
7DE
100
AcDbEntity
  8
0
 62
     5
370
    -2
100
AcDbLine
 10
233.0359388588087
 20
414.9005405289021
 30
0.0
 11
233.0359388588087
 21
424.5796791128169
 31
0.0
  0
LINE
  5
818
330
7DE
100
AcDbEntity
  8
0
 62
     5
370
    -2
100
AcDbLine
 10
301.5359388588087
 20
418.100540528902
 30
0.0
 11
301.5359388588087
 21
424.5796791128169
 31
0.0
  0
LINE
  5
819
330
7DE
100
AcDbEntity
  8
0
 62
     5
100
AcDbLine
 10
236.0359388588087
 20
422.5796791128169
 30
0.0
 11
298.5359388588086
 21
422.5796791128169
 31
0.0
  0
SOLID
  5
81A
330
7DE
100
AcDbEntity
  8
0
 62
     5
100
AcDbTrace
 10
236.0359388588087
 20
423.0796791128169
 30
0.0
 11
236.0359388588087
 21
422.079679112817
 31
0.0
 12
233.0359388588087
 22
422.5796791128169
 32
0.0
 13
233.0359388588087
 23
422.5796791128169
 33
0.0
  0
SOLID
  5
81B
330
7DE
100
AcDbEntity
  8
0
 62
     5
100
AcDbTrace
 10
298.5359388588086
 20
423.0796791128169
 30
0.0
 11
298.5359388588086
 21
422.079679112817
 31
0.0
 12
301.5359388588087
 22
422.5796791128169
 32
0.0
 13
301.5359388588087
 23
422.5796791128169
 33
0.0
  0
MTEXT
  5
81C
330
7DE
100
AcDbEntity
  8
0
 62
     5
100
AcDbMText
 10
267.2859388588086
 20
425.0796791128169
 30
0.0
 40
3.0
 41
0.0
 71
     5
 72
     1
  1
\A1;68.5
  7
CHINESET
 73
     1
 44
1.0
1001
ACAD
1000
MTEXTBEGIN
1070
    73
1070
     1
1070
    44
1040
1.0
1070
    74
1070
     0
1000
MTEXTEND
  0
POINT
  5
81D
330
7DE
100
AcDbEntity
  8
Defpoints
 62
     0
100
AcDbPoint
 10
233.0359388588087
 20
412.9005405289021
 30
0.0
  0
POINT
  5
81E
330
7DE
100
AcDbEntity
  8
Defpoints
 62
     0
100
AcDbPoint
 10
301.5359388588087
 20
416.1005405289021
 30
0.0
  0
POINT
  5
81F
330
7DE
100
AcDbEntity
  8
Defpoints
 62
     0
100
AcDbPoint
 10
301.5359388588087
 20
422.5796791128169
 30
0.0
  0
ENDBLK
  5
7E9
330
7DE
100
AcDbEntity
  8
0
100
AcDbBlockEnd
  0
ENDSEC
  0
SECTION
  2
ENTITIES
  0
LINE
  5
5BD
330
1F
100
AcDbEntity
  8
AM_7
 62
     1
100
AcDbLine
 10
243.7859388588087
 20
301.272171742357
 30
0.0
 11
243.7859388588087
 21
274.3625018773118
 31
0.0
  0
LINE
  5
5BE
330
1F
100
AcDbEntity
  8
AM_7
 62
     1
100
AcDbLine
 10
286.5359388588087
 20
261.4003948774907
 30
0.0
 11
286.5359388588087
 21
350.8777536669466
 31
0.0
  0
LINE
  5
5BF
330
1F
100
AcDbEntity
  8
AM_7
 62
     1
100
AcDbLine
 10
164.9798486068379
 20
261.2060409092887
 30
0.0
 11
164.9798486068379
 21
336.6979697890977
 31
0.0
  0
LINE
  5
5C0
330
1F
100
AcDbEntity
  8
AM_7
 62
     1
100
AcDbLine
 10
163.9798486068379
 20
312.0721717423571
 30
0.0
 11
165.9798486068379
 21
312.0721717423571
 31
0.0
  0
LINE
  5
5C1
330
1F
100
AcDbEntity
  8
AM_7
 62
     1
100
AcDbLine
 10
159.4798486068379
 20
312.0721717423571
 30
0.0
 11
162.9798486068379
 21
312.0721717423571
 31
0.0
  0
LINE
  5
5C2
330
1F
100
AcDbEntity
  8
AM_7
 62
     1
100
AcDbLine
 10
166.9798486068379
 20
312.0721717423571
 30
0.0
 11
170.4798486068379
 21
312.0721717423571
 31
0.0
  0
LINE
  5
5C3
330
1F
100
AcDbEntity
  8
AM_VIS
100
AcDbLine
 10
299.5359388588087
 20
326.7721717423571
 30
0.0
 11
299.5359388588087
 21
283.7721717423571
 31
0.0
  0
LINE
  5
5C4
330
1F
100
AcDbEntity
  8
AM_VIS
100
AcDbLine
 10
265.0359388588086
 20
326.7721717423571
 30
0.0
 11
299.5359388588087
 21
326.7721717423571
 31
0.0
  0
LINE
  5
5C5
330
1F
100
AcDbEntity
  8
AM_VIS
100
AcDbLine
 10
299.5359388588087
 20
283.7721717423571
 30
0.0
 11
265.0359388588086
 21
283.7721717423571
 31
0.0
  0
LINE
  5
5C6
330
1F
100
AcDbEntity
  8
AM_VIS
100
AcDbLine
 10
265.0359388588086
 20
326.5721717423571
 30
0.0
 11
265.0359388588086
 21
326.7721717423571
 31
0.0
  0
LINE
  5
5C7
330
1F
100
AcDbEntity
  8
AM_VIS
100
AcDbLine
 10
260.0359388588087
 20
326.5721717423571
 30
0.0
 11
260.0359388588087
 21
297.5721717423571
 31
0.0
  0
LINE
  5
5C8
330
1F
100
AcDbEntity
  8
AM_VIS
100
AcDbLine
 10
265.0359388588086
 20
326.5721717423571
 30
0.0
 11
260.0359388588087
 21
326.5721717423571
 31
0.0
  0
LINE
  5
5C9
330
1F
100
AcDbEntity
  8
AM_VIS
100
AcDbLine
 10
260.0359388588087
 20
326.3721717423571
 30
0.0
 11
256.0359388588087
 21
326.3721717423571
 31
0.0
  0
LINE
  5
5CA
330
1F
100
AcDbEntity
  8
AM_VIS
100
AcDbLine
 10
260.0359388588087
 20
297.7721717423571
 30
0.0
 11
256.0359388588087
 21
297.7721717423571
 31
0.0
  0
LINE
  5
5CB
330
1F
100
AcDbEntity
  8
AM_VIS
100
AcDbLine
 10
256.0359388588087
 20
325.3721717423571
 30
0.0
 11
256.0359388588087
 21
298.772171742357
 31
0.0
  0
LINE
  5
5CC
330
1F
100
AcDbEntity
  8
AM_VIS
100
AcDbLine
 10
256.0359388588087
 20
324.8721717423571
 30
0.0
 11
233.5359388588087
 21
324.8721717423571
 31
0.0
  0
LINE
  5
5CD
330
1F
100
AcDbEntity
  8
AM_VIS
100
AcDbLine
 10
233.5359388588087
 20
324.8721717423571
 30
0.0
 11
233.5359388588087
 21
299.2721717423571
 31
0.0
  0
LINE
  5
5CE
330
1F
100
AcDbEntity
  8
AM_VIS
100
AcDbLine
 10
264.0359388588087
 20
297.5721717423571
 30
0.0
 11
260.0359388588087
 21
297.5721717423571
 31
0.0
  0
LINE
  5
5CF
330
1F
100
AcDbEntity
  8
AM_VIS
100
AcDbLine
 10
265.0359388588086
 20
283.7721717423571
 30
0.0
 11
265.0359388588086
 21
284.7721717423571
 31
0.0
  0
LINE
  5
5D0
330
1F
100
AcDbEntity
  8
AM_VIS
100
AcDbLine
 10
265.0359388588086
 20
284.7721717423571
 30
0.0
 11
264.0359388588087
 21
297.5721717423571
 31
0.0
  0
LINE
  5
5D1
330
1F
100
AcDbEntity
  8
AM_VIS
100
AcDbLine
 10
256.0359388588087
 20
299.2721717423571
 30
0.0
 11
233.5359388588087
 21
299.2721717423571
 31
0.0
  0
LINE
  5
5D2
330
1F
100
AcDbEntity
  8
AM_VIS
100
AcDbLine
 10
239.1671367052916
 20
276.872171742357
 30
0.0
 11
248.4047410123257
 21
276.872171742357
 31
0.0
  0
LINE
  5
5D3
330
1F
100
AcDbEntity
  8
AM_VIS
100
AcDbLine
 10
239.1671367052916
 20
281.2721717423571
 30
0.0
 11
239.1671367052916
 21
276.872171742357
 31
0.0
  0
LINE
  5
5D4
330
1F
100
AcDbEntity
  8
AM_VIS
100
AcDbLine
 10
234.5483345517746
 20
276.872171742357
 30
0.0
 11
239.1671367052916
 21
276.872171742357
 31
0.0
  0
LINE
  5
5D5
330
1F
100
AcDbEntity
  8
AM_VIS
100
AcDbLine
 10
234.5483345517746
 20
281.2721717423571
 30
0.0
 11
234.5483345517746
 21
276.872171742357
 31
0.0
  0
LINE
  5
5D6
330
1F
100
AcDbEntity
  8
AM_VIS
100
AcDbLine
 10
248.4047410123257
 20
281.2721717423571
 30
0.0
 11
248.4047410123257
 21
276.872171742357
 31
0.0
  0
LINE
  5
5D7
330
1F
100
AcDbEntity
  8
AM_VIS
100
AcDbLine
 10
253.0235431658427
 20
281.2721717423571
 30
0.0
 11
253.0235431658427
 21
276.872171742357
 31
0.0
  0
LINE
  5
5D8
330
1F
100
AcDbEntity
  8
AM_VIS
100
AcDbLine
 10
248.4047410123257
 20
276.872171742357
 30
0.0
 11
253.0235431658427
 21
276.872171742357
 31
0.0
  0
LINE
  5
5D9
330
1F
100
AcDbEntity
  8
AM_VIS
100
AcDbLine
 10
234.5483345517746
 20
281.2721717423571
 30
0.0
 11
239.1671367052916
 21
281.2721717423571
 31
0.0
  0
LINE
  5
5DA
330
1F
100
AcDbEntity
  8
AM_VIS
100
AcDbLine
 10
248.4047410123257
 20
281.2721717423571
 30
0.0
 11
253.0235431658427
 21
281.2721717423571
 31
0.0
  0
LINE
  5
5DB
330
1F
100
AcDbEntity
  8
AM_VIS
100
AcDbLine
 10
239.1671367052916
 20
281.2721717423571
 30
0.0
 11
248.4047410123257
 21
281.2721717423571
 31
0.0
  0
LINE
  5
5DC
330
1F
100
AcDbEntity
  8
AM_VIS
100
AcDbLine
 10
297.0359388588087
 20
277.7021717423571
 30
0.0
 11
297.0359388588087
 21
281.1321717423571
 31
0.0
  0
LINE
  5
5DD
330
1F
100
AcDbEntity
  8
AM_VIS
100
AcDbLine
 10
276.0359388588087
 20
281.1321717423571
 30
0.0
 11
276.0359388588087
 21
277.7021717423571
 31
0.0
  0
LINE
  5
5DE
330
1F
100
AcDbEntity
  8
AM_VIS
100
AcDbLine
 10
276.7209842825851
 20
334.6979697890977
 30
0.0
 11
276.7209842825851
 21
349.1979697890977
 31
0.0
  0
LINE
  5
5DF
330
1F
100
AcDbEntity
  8
AM_VIS
100
AcDbLine
 10
281.6284615706969
 20
349.1979697890977
 30
0.0
 11
276.7209842825851
 21
349.1979697890977
 31
0.0
  0
LINE
  5
5E0
330
1F
100
AcDbEntity
  8
AM_VIS
100
AcDbLine
 10
281.6284615706969
 20
334.6979697890977
 30
0.0
 11
281.6284615706969
 21
349.1979697890977
 31
0.0
  0
LINE
  5
5E1
330
1F
100
AcDbEntity
  8
AM_VIS
100
AcDbLine
 10
291.4434161469205
 20
349.1979697890977
 30
0.0
 11
281.6284615706969
 21
349.1979697890977
 31
0.0
  0
LINE
  5
5E2
330
1F
100
AcDbEntity
  8
AM_VIS
100
AcDbLine
 10
291.4434161469205
 20
334.6979697890977
 30
0.0
 11
291.4434161469205
 21
349.1979697890977
 31
0.0
  0
LINE
  5
5E3
330
1F
100
AcDbEntity
  8
AM_VIS
100
AcDbLine
 10
296.3508934350323
 20
349.1979697890977
 30
0.0
 11
291.4434161469205
 21
349.1979697890977
 31
0.0
  0
LINE
  5
5E4
330
1F
100
AcDbEntity
  8
AM_VIS
100
AcDbLine
 10
296.3508934350323
 20
334.6979697890977
 30
0.0
 11
296.3508934350323
 21
349.1979697890977
 31
0.0
  0
LINE
  5
5E5
330
1F
100
AcDbEntity
  8
AM_VIS
100
AcDbLine
 10
281.6284615706969
 20
334.6979697890977
 30
0.0
 11
276.7209842825851
 21
334.6979697890977
 31
0.0
  0
LINE
  5
5E6
330
1F
100
AcDbEntity
  8
AM_VIS
100
AcDbLine
 10
291.4434161469205
 20
334.6979697890977
 30
0.0
 11
281.6284615706969
 21
334.6979697890977
 31
0.0
  0
LINE
  5
5E7
330
1F
100
AcDbEntity
  8
AM_VIS
100
AcDbLine
 10
296.3508934350323
 20
334.6979697890977
 30
0.0
 11
291.4434161469205
 21
334.6979697890977
 31
0.0
  0
LINE
  5
5E8
330
1F
100
AcDbEntity
  8
AM_VIS
100
AcDbLine
 10
270.5359388588087
 20
263.2021717423571
 30
0.0
 11
302.5359388588086
 21
263.2021717423571
 31
0.0
  0
LINE
  5
5E9
330
1F
100
AcDbEntity
  8
AM_VIS
100
AcDbLine
 10
270.5359388588087
 20
269.2021717423571
 30
0.0
 11
270.5359388588087
 21
263.2021717423571
 31
0.0
  0
LINE
  5
5EA
330
1F
100
AcDbEntity
  8
AM_VIS
100
AcDbLine
 10
273.5343450678345
 20
275.7021717423571
 30
0.0
 11
273.5436972865173
 21
275.7021717423571
 31
0.0
  0
LINE
  5
5EB
330
1F
100
AcDbEntity
  8
AM_VIS
100
AcDbLine
 10
299.5281804311
 20
275.7021717423571
 30
0.0
 11
299.5375275747641
 21
275.7021717423571
 31
0.0
  0
LINE
  5
5EC
330
1F
100
AcDbEntity
  8
AM_VIS
100
AcDbLine
 10
302.5359388588086
 20
269.2021717423571
 30
0.0
 11
302.5359388588086
 21
263.2021717423571
 31
0.0
  0
LINE
  5
5ED
330
1F
100
AcDbEntity
  8
AM_VIS
100
AcDbLine
 10
290.7859388588087
 20
269.2021717423571
 30
0.0
 11
302.5359388588086
 21
269.2021717423571
 31
0.0
  0
LINE
  5
5EE
330
1F
100
AcDbEntity
  8
AM_VIS
100
AcDbLine
 10
282.2859388588087
 20
269.2021717423571
 30
0.0
 11
270.5359388588087
 21
269.2021717423571
 31
0.0
  0
LINE
  5
5EF
330
1F
100
AcDbEntity
  8
AM_VIS
100
AcDbLine
 10
233.5359388588087
 20
299.2721717423571
 30
0.0
 11
233.5359388588087
 21
283.272171742357
 31
0.0
  0
LINE
  5
5F0
330
1F
100
AcDbEntity
  8
AM_VIS
100
AcDbLine
 10
254.5359388588086
 20
299.2721717423571
 30
0.0
 11
254.5359388588086
 21
283.272171742357
 31
0.0
  0
LINE
  5
5F1
330
1F
100
AcDbEntity
  8
AM_VIS
100
AcDbLine
 10
237.0359388588086
 20
283.272171742357
 30
0.0
 11
237.0359388588086
 21
281.2721717423571
 31
0.0
  0
LINE
  5
5F2
330
1F
100
AcDbEntity
  8
AM_VIS
100
AcDbLine
 10
250.5359388588086
 20
283.272171742357
 30
0.0
 11
250.5359388588086
 21
281.2721717423571
 31
0.0
  0
LINE
  5
5F3
330
1F
100
AcDbEntity
  8
AM_VIS
100
AcDbLine
 10
280.0359388588087
 20
283.7721717423571
 30
0.0
 11
280.0359388588087
 21
281.1321717423571
 31
0.0
  0
LINE
  5
5F4
330
1F
100
AcDbEntity
  8
AM_VIS
100
AcDbLine
 10
293.0359388588087
 20
283.7721717423571
 30
0.0
 11
293.0359388588087
 21
281.1321717423571
 31
0.0
  0
LINE
  5
5F5
330
1F
100
AcDbEntity
  8
AM_VIS
100
AcDbLine
 10
274.0359388588087
 20
277.7021717423571
 30
0.0
 11
274.0359388588087
 21
275.7021717423571
 31
0.0
  0
LINE
  5
5F6
330
1F
100
AcDbEntity
  8
AM_VIS
100
AcDbLine
 10
299.0359388588087
 20
277.7021717423571
 30
0.0
 11
299.0359388588087
 21
275.7021717423571
 31
0.0
  0
LINE
  5
5F7
330
1F
100
AcDbEntity
  8
AM_VIS
100
AcDbLine
 10
293.0359388588087
 20
326.7721717423571
 30
0.0
 11
293.0359388588087
 21
330.272171742357
 31
0.0
  0
LINE
  5
5F8
330
1F
100
AcDbEntity
  8
AM_VIS
100
AcDbLine
 10
280.0359388588087
 20
326.7721717423571
 30
0.0
 11
280.0359388588087
 21
330.272171742357
 31
0.0
  0
LINE
  5
5F9
330
1F
100
AcDbEntity
  8
AM_VIS
100
AcDbLine
 10
294.5359388588087
 20
331.6979697890977
 30
0.0
 11
294.5359388588087
 21
334.6979697890977
 31
0.0
  0
LINE
  5
5FA
330
1F
100
AcDbEntity
  8
AM_VIS
100
AcDbLine
 10
278.5359388588087
 20
331.6979697890977
 30
0.0
 11
278.5359388588087
 21
334.6979697890977
 31
0.0
  0
LINE
  5
5FB
330
1F
100
AcDbEntity
  8
AM_VIS
100
AcDbLine
 10
300.528484426052
 20
274.7733265281734
 30
0.0
 11
301.5359388588087
 21
274.7733265281734
 31
0.0
  0
LINE
  5
5FC
330
1F
100
AcDbEntity
  8
AM_VIS
100
AcDbLine
 10
271.5359388588087
 20
274.7733265281734
 30
0.0
 11
272.5433932915653
 21
274.7733265281734
 31
0.0
  0
SPLINE
  5
5FD
330
1F
100
AcDbEntity
  8
AM_VIS
100
AcDbSpline
210
0.0
220
0.0
230
1.0
 70
     8
 71
     1
 72
     8
 73
     6
 74
     0
 42
0.0000000001
 43
0.0000000001
 40
0.0
 40
0.0
 40
0.3302837243735349
 40
0.6547946880541275
 40
0.9803557768613964
 40
1.303402297688088
 40
1.55614141612587
 40
1.55614141612587
 10
272.5433932915653
 20
274.7733265281734
 30
0.0
 10
272.8637694945106
 20
274.8263690204417
 30
0.0
 10
273.1459410407517
 20
274.976673714082
 30
0.0
 10
273.3654237663093
 20
275.2081620039047
 30
0.0
 10
273.4971339841044
 20
275.4873241059602
 30
0.0
 10
273.5343501430809
 20
275.7021717423571
 30
0.0
  0
SPLINE
  5
5FE
330
1F
100
AcDbEntity
  8
AM_VIS
100
AcDbSpline
210
0.0
220
0.0
230
1.0
 70
     8
 71
     1
 72
     9
 73
     7
 74
     0
 42
0.0000000001
 43
0.0000000001
 40
0.0
 40
0.0
 40
0.182225601365265
 40
0.3856963003359131
 40
0.6571540244711278
 40
0.9707839308007239
 40
1.295339182109941
 40
1.558082521890193
 40
1.558082521890193
 10
299.5375275745363
 20
275.7021717423571
 30
0.0
 10
299.5586273934814
 20
275.5503103966864
 30
0.0
 10
299.6171323699003
 20
275.370135471023
 30
0.0
 10
299.7530252182176
 20
275.1452098596649
 30
0.0
 10
299.98070427657
 20
274.9378163583171
 30
0.0
 10
300.2724603818328
 20
274.8068662431247
 30
0.0
 10
300.528484426052
 20
274.7733265281734
 30
0.0
  0
LINE
  5
5FF
330
1F
100
AcDbEntity
  8
AM_VIS
100
AcDbLine
 10
256.0359388588087
 20
325.3721717423571
 30
0.0
 11
256.0359388588087
 21
326.3721717423571
 31
0.0
  0
LINE
  5
600
330
1F
100
AcDbEntity
  8
AM_VIS
100
AcDbLine
 10
256.0359388588087
 20
297.7721717423571
 30
0.0
 11
256.0359388588087
 21
298.772171742357
 31
0.0
  0
LINE
  5
601
330
1F
100
AcDbEntity
  8
AM_VIS
100
AcDbLine
 10
254.5359388588086
 20
283.272171742357
 30
0.0
 11
233.5359388588086
 21
283.272171742357
 31
0.0
  0
LINE
  5
602
330
1F
100
AcDbEntity
  8
AM_VIS
100
AcDbLine
 10
276.0359388588087
 20
281.1321717423571
 30
0.0
 11
297.0359388588087
 21
281.1321717423571
 31
0.0
  0
LINE
  5
603
330
1F
100
AcDbEntity
  8
AM_VIS
100
AcDbLine
 10
297.0359388588087
 20
277.7021717423571
 30
0.0
 11
299.0359388588087
 21
277.7021717423571
 31
0.0
  0
LINE
  5
604
330
1F
100
AcDbEntity
  8
AM_VIS
100
AcDbLine
 10
274.0359388588087
 20
277.7021717423571
 30
0.0
 11
276.0359388588087
 21
277.7021717423571
 31
0.0
  0
LINE
  5
605
330
1F
100
AcDbEntity
  8
AM_VIS
100
AcDbLine
 10
280.0359388588087
 20
330.272171742357
 30
0.0
 11
293.0359388588087
 21
330.272171742357
 31
0.0
  0
LINE
  5
606
330
1F
100
AcDbEntity
  8
AM_VIS
100
AcDbLine
 10
294.5359388588087
 20
331.6979697890977
 30
0.0
 11
278.5359388588087
 21
331.6979697890977
 31
0.0
  0
LINE
  5
607
330
1F
100
AcDbEntity
  8
AM_VIS
100
AcDbLine
 10
270.5359388588087
 20
269.2021717423571
 30
0.0
 11
270.5359388588087
 21
273.7733265281733
 31
0.0
  0
LINE
  5
608
330
1F
100
AcDbEntity
  8
AM_VIS
100
AcDbLine
 10
302.5359388588086
 20
273.7733265281733
 30
0.0
 11
302.5359388588086
 21
269.2021717423571
 31
0.0
  0
LINE
  5
609
330
1F
100
AcDbEntity
  8
AM_VIS
100
AcDbLine
 10
273.5436972865173
 20
275.7021717423571
 30
0.0
 11
299.5281804310999
 21
275.7021717423571
 31
0.0
  0
ARC
  5
60A
330
1F
100
AcDbEntity
  8
AM_VIS
100
AcDbCircle
 10
280.7859388588087
 20
331.0221717423571
 30
0.0
 40
0.75
100
AcDbArc
 50
115.7017121122443
 51
270.0
  0
ARC
  5
60B
330
1F
100
AcDbEntity
  8
AM_VIS
100
AcDbCircle
 10
292.2859388588086
 20
331.0221717423571
 30
0.0
 40
0.75
100
AcDbArc
 50
270.0
 51
64.29828788775569
  0
ARC
  5
60C
330
1F
100
AcDbEntity
  8
AM_VIS
100
AcDbCircle
 10
271.5359388588087
 20
273.7733265281733
 30
0.0
 40
1.0
100
AcDbArc
 50
90.0
 51
180.0
  0
ARC
  5
60D
330
1F
100
AcDbEntity
  8
AM_VIS
100
AcDbCircle
 10
301.5359388588087
 20
273.7733265281733
 30
0.0
 40
1.0
100
AcDbArc
 50
0.0
 51
90.0
  0
LINE
  5
60E
330
1F
100
AcDbEntity
  8
AM_VIS
100
AcDbLine
 10
150.4798486068379
 20
326.7721717423571
 30
0.0
 11
150.4798486068379
 21
326.5721717423571
 31
0.0
  0
LINE
  5
60F
330
1F
100
AcDbEntity
  8
AM_VIS
100
AcDbLine
 10
150.4798486068379
 20
326.7721717423571
 30
0.0
 11
179.4798486068379
 21
326.7721717423571
 31
0.0
  0
LINE
  5
610
330
1F
100
AcDbEntity
  8
AM_VIS
100
AcDbLine
 10
179.4798486068379
 20
326.5721717423571
 30
0.0
 11
179.4798486068379
 21
326.7721717423571
 31
0.0
  0
LINE
  5
611
330
1F
100
AcDbEntity
  8
AM_VIS
100
AcDbLine
 10
150.4798486068379
 20
297.5721717423571
 30
0.0
 11
150.4798486068379
 21
326.5721717423571
 31
0.0
  0
LINE
  5
612
330
1F
100
AcDbEntity
  8
AM_VIS
100
AcDbLine
 10
179.4798486068379
 20
326.5721717423571
 30
0.0
 11
179.4798486068379
 21
297.5721717423571
 31
0.0
  0
LINE
  5
613
330
1F
100
AcDbEntity
  8
AM_VIS
100
AcDbLine
 10
150.4798486068379
 20
326.572171742357
 30
0.0
 11
179.4798486068379
 21
326.572171742357
 31
0.0
  0
LINE
  5
614
330
1F
100
AcDbEntity
  8
AM_VIS
100
AcDbLine
 10
151.6798486068378
 20
326.3721717423571
 30
0.0
 11
178.2798486068379
 21
326.3721717423571
 31
0.0
  0
LINE
  5
615
330
1F
100
AcDbEntity
  8
AM_VIS
100
AcDbLine
 10
150.6798486068379
 20
298.772171742357
 30
0.0
 11
150.6798486068379
 21
325.3721717423571
 31
0.0
  0
LINE
  5
616
330
1F
100
AcDbEntity
  8
AM_VIS
100
AcDbLine
 10
178.2798486068379
 20
297.7721717423571
 30
0.0
 11
175.7298486068379
 21
297.7721717423571
 31
0.0
  0
LINE
  5
617
330
1F
100
AcDbEntity
  8
AM_VIS
100
AcDbLine
 10
154.2298486068379
 20
297.7721717423571
 30
0.0
 11
151.6798486068378
 21
297.7721717423571
 31
0.0
  0
LINE
  5
618
330
1F
100
AcDbEntity
  8
AM_VIS
100
AcDbLine
 10
179.2798486068379
 20
325.3721717423571
 30
0.0
 11
179.2798486068379
 21
298.772171742357
 31
0.0
  0
LINE
  5
619
330
1F
100
AcDbEntity
  8
AM_VIS
100
AcDbLine
 10
152.1798486068379
 20
324.8721717423571
 30
0.0
 11
177.7798486068379
 21
324.8721717423571
 31
0.0
  0
LINE
  5
61A
330
1F
100
AcDbEntity
  8
AM_VIS
100
AcDbLine
 10
152.1798486068379
 20
299.2721717423571
 30
0.0
 11
152.1798486068379
 21
324.8721717423571
 31
0.0
  0
LINE
  5
61B
330
1F
100
AcDbEntity
  8
AM_VIS
100
AcDbLine
 10
177.7798486068379
 20
324.8721717423571
 30
0.0
 11
177.7798486068379
 21
299.2721717423571
 31
0.0
  0
LINE
  5
61C
330
1F
100
AcDbEntity
  8
AM_VIS
100
AcDbLine
 10
179.4798486068379
 20
297.5721717423571
 30
0.0
 11
175.7298486068379
 21
297.5721717423571
 31
0.0
  0
LINE
  5
61D
330
1F
100
AcDbEntity
  8
AM_VIS
100
AcDbLine
 10
154.2298486068379
 20
297.5721717423571
 30
0.0
 11
150.4798486068379
 21
297.5721717423571
 31
0.0
  0
LINE
  5
61E
330
1F
100
AcDbEntity
  8
AM_VIS
100
AcDbLine
 10
179.4798486068379
 20
283.7721717423571
 30
0.0
 11
179.4798486068379
 21
284.7721717423571
 31
0.0
  0
LINE
  5
61F
330
1F
100
AcDbEntity
  8
AM_VIS
100
AcDbLine
 10
150.4798486068379
 20
283.7721717423571
 30
0.0
 11
154.2298486068379
 21
283.7721717423571
 31
0.0
  0
LINE
  5
620
330
1F
100
AcDbEntity
  8
AM_VIS
100
AcDbLine
 10
175.7298486068379
 20
283.7721717423571
 30
0.0
 11
179.4798486068379
 21
283.7721717423571
 31
0.0
  0
LINE
  5
621
330
1F
100
AcDbEntity
  8
AM_VIS
100
AcDbLine
 10
150.4798486068379
 20
284.7721717423571
 30
0.0
 11
150.4798486068379
 21
283.7721717423571
 31
0.0
  0
LINE
  5
622
330
1F
100
AcDbEntity
  8
AM_VIS
100
AcDbLine
 10
179.4798486068379
 20
284.7721717423571
 30
0.0
 11
175.7298486068379
 21
284.7721717423571
 31
0.0
  0
LINE
  5
623
330
1F
100
AcDbEntity
  8
AM_VIS
100
AcDbLine
 10
154.2298486068379
 20
284.7721717423571
 30
0.0
 11
150.4798486068379
 21
284.7721717423571
 31
0.0
  0
LINE
  5
624
330
1F
100
AcDbEntity
  8
AM_VIS
100
AcDbLine
 10
150.4798486068379
 20
297.5721717423571
 30
0.0
 11
150.4798486068379
 21
284.7721717423571
 31
0.0
  0
LINE
  5
625
330
1F
100
AcDbEntity
  8
AM_VIS
100
AcDbLine
 10
179.4798486068379
 20
284.7721717423571
 30
0.0
 11
179.4798486068379
 21
297.5721717423571
 31
0.0
  0
LINE
  5
626
330
1F
100
AcDbEntity
  8
AM_VIS
100
AcDbLine
 10
164.9798486068379
 20
299.2721717423571
 30
0.0
 11
152.1798486068379
 21
299.2721717423571
 31
0.0
  0
LINE
  5
627
330
1F
100
AcDbEntity
  8
AM_VIS
100
AcDbLine
 10
177.7798486068379
 20
299.2721717423571
 30
0.0
 11
164.9798486068379
 21
299.2721717423571
 31
0.0
  0
LINE
  5
628
330
1F
100
AcDbEntity
  8
AM_VIS
100
AcDbLine
 10
172.9798486068379
 20
281.1321717423571
 30
0.0
 11
172.9798486068379
 21
276.8021717423571
 31
0.0
  0
LINE
  5
629
330
1F
100
AcDbEntity
  8
AM_VIS
100
AcDbLine
 10
164.9798486068379
 20
276.8021717423571
 30
0.0
 11
172.9798486068379
 21
276.8021717423571
 31
0.0
  0
LINE
  5
62A
330
1F
100
AcDbEntity
  8
AM_VIS
100
AcDbLine
 10
164.9798486068379
 20
281.2021717423571
 30
0.0
 11
164.9798486068379
 21
276.8021717423571
 31
0.0
  0
LINE
  5
62B
330
1F
100
AcDbEntity
  8
AM_VIS
100
AcDbLine
 10
156.9798486068379
 20
276.8021717423571
 30
0.0
 11
164.9798486068379
 21
276.8021717423571
 31
0.0
  0
LINE
  5
62C
330
1F
100
AcDbEntity
  8
AM_VIS
100
AcDbLine
 10
156.9798486068379
 20
281.1321717423571
 30
0.0
 11
156.9798486068379
 21
276.8021717423571
 31
0.0
  0
LINE
  5
62D
330
1F
100
AcDbEntity
  8
AM_VIS
100
AcDbLine
 10
164.9798486068379
 20
281.1321717423571
 30
0.0
 11
172.9798486068379
 21
281.1321717423571
 31
0.0
  0
LINE
  5
62E
330
1F
100
AcDbEntity
  8
AM_VIS
100
AcDbLine
 10
156.9798486068379
 20
281.1321717423571
 30
0.0
 11
164.9798486068379
 21
281.1321717423571
 31
0.0
  0
LINE
  5
62F
330
1F
100
AcDbEntity
  8
AM_VIS
100
AcDbLine
 10
156.4798486068379
 20
334.6979697890977
 30
0.0
 11
156.4798486068379
 21
349.1979697890977
 31
0.0
  0
LINE
  5
630
330
1F
100
AcDbEntity
  8
AM_VIS
100
AcDbLine
 10
164.9798486068379
 20
349.1979697890977
 30
0.0
 11
156.4798486068379
 21
349.1979697890977
 31
0.0
  0
LINE
  5
631
330
1F
100
AcDbEntity
  8
AM_7
 62
     1
100
AcDbLine
 10
164.9798486068379
 20
334.6979697890977
 30
0.0
 11
164.9798486068379
 21
350.2382455948088
 31
0.0
  0
LINE
  5
632
330
1F
100
AcDbEntity
  8
AM_VIS
100
AcDbLine
 10
173.4798486068379
 20
349.1979697890977
 30
0.0
 11
164.9798486068379
 21
349.1979697890977
 31
0.0
  0
LINE
  5
633
330
1F
100
AcDbEntity
  8
AM_VIS
100
AcDbLine
 10
173.4798486068379
 20
334.6979697890977
 30
0.0
 11
173.4798486068379
 21
349.1979697890977
 31
0.0
  0
LINE
  5
634
330
1F
100
AcDbEntity
  8
AM_VIS
100
AcDbLine
 10
164.9798486068379
 20
334.6979697890977
 30
0.0
 11
156.4798486068379
 21
334.6979697890977
 31
0.0
  0
LINE
  5
635
330
1F
100
AcDbEntity
  8
AM_VIS
100
AcDbLine
 10
173.4798486068379
 20
334.6979697890977
 30
0.0
 11
164.9798486068379
 21
334.6979697890977
 31
0.0
  0
LINE
  5
636
330
1F
100
AcDbEntity
  8
AM_VIS
100
AcDbLine
 10
180.9798486068379
 20
269.2021717423571
 30
0.0
 11
180.9798486068379
 21
263.2021717423571
 31
0.0
  0
LINE
  5
637
330
1F
100
AcDbEntity
  8
AM_VIS
100
AcDbLine
 10
148.9798486068379
 20
263.2021717423571
 30
0.0
 11
180.9798486068379
 21
263.2021717423571
 31
0.0
  0
LINE
  5
638
330
1F
100
AcDbEntity
  8
AM_VIS
100
AcDbLine
 10
163.6824365545063
 20
275.702171742357
 30
0.0
 11
165.4289131091366
 21
275.702171742357
 31
0.0
  0
LINE
  5
639
330
1F
100
AcDbEntity
  8
AM_VIS
100
AcDbLine
 10
169.2298486068379
 20
269.2021717423571
 30
0.0
 11
180.9798486068379
 21
269.2021717423571
 31
0.0
  0
LINE
  5
63A
330
1F
100
AcDbEntity
  8
AM_VIS
100
AcDbLine
 10
148.9798486068379
 20
269.2021717423571
 30
0.0
 11
148.9798486068379
 21
263.2021717423571
 31
0.0
  0
LINE
  5
63B
330
1F
100
AcDbEntity
  8
AM_VIS
100
AcDbLine
 10
160.7298486068379
 20
269.2021717423571
 30
0.0
 11
148.9798486068379
 21
269.2021717423571
 31
0.0
  0
LINE
  5
63C
330
1F
100
AcDbEntity
  8
AM_VIS
100
AcDbLine
 10
154.2298486068379
 20
299.2721717423571
 30
0.0
 11
154.2298486068379
 21
283.272171742357
 31
0.0
  0
LINE
  5
63D
330
1F
100
AcDbEntity
  8
AM_VIS
100
AcDbLine
 10
175.7298486068379
 20
299.2721717423571
 30
0.0
 11
175.7298486068379
 21
283.272171742357
 31
0.0
  0
LINE
  5
63E
330
1F
100
AcDbEntity
  8
AM_VIS
100
AcDbLine
 10
158.2298486068379
 20
283.272171742357
 30
0.0
 11
158.2298486068379
 21
281.1321717423571
 31
0.0
  0
LINE
  5
63F
330
1F
100
AcDbEntity
  8
AM_VIS
100
AcDbLine
 10
171.7298486068379
 20
283.272171742357
 30
0.0
 11
171.7298486068379
 21
281.1321717423571
 31
0.0
  0
LINE
  5
640
330
1F
100
AcDbEntity
  8
AM_VIS
100
AcDbLine
 10
152.4798486068379
 20
281.1321717423571
 30
0.0
 11
152.4798486068379
 21
275.7021717423571
 31
0.0
  0
LINE
  5
641
330
1F
100
AcDbEntity
  8
AM_VIS
100
AcDbLine
 10
177.4798486068379
 20
281.1321717423571
 30
0.0
 11
177.4798486068379
 21
275.7021717423571
 31
0.0
  0
LINE
  5
642
330
1F
100
AcDbEntity
  8
AM_VIS
100
AcDbLine
 10
171.4798486068379
 20
326.7721717423571
 30
0.0
 11
171.4798486068379
 21
330.272171742357
 31
0.0
  0
LINE
  5
643
330
1F
100
AcDbEntity
  8
AM_VIS
100
AcDbLine
 10
158.4798486068379
 20
326.7721717423571
 30
0.0
 11
158.4798486068379
 21
330.272171742357
 31
0.0
  0
LINE
  5
644
330
1F
100
AcDbEntity
  8
AM_VIS
100
AcDbLine
 10
172.9798486068379
 20
331.6979697890977
 30
0.0
 11
172.9798486068379
 21
334.6979697890977
 31
0.0
  0
LINE
  5
645
330
1F
100
AcDbEntity
  8
AM_VIS
100
AcDbLine
 10
156.9798486068379
 20
331.6979697890977
 30
0.0
 11
156.9798486068379
 21
334.6979697890977
 31
0.0
  0
LINE
  5
646
330
1F
100
AcDbEntity
  8
AM_VIS
100
AcDbLine
 10
151.9798486068379
 20
275.7021717423571
 30
0.0
 11
151.9798486068379
 21
275.5004115720133
 31
0.0
  0
LINE
  5
647
330
1F
100
AcDbEntity
  8
AM_VIS
100
AcDbLine
 10
179.9798486068379
 20
274.5031411277857
 30
0.0
 11
178.9786302682296
 21
274.5031411277857
 31
0.0
  0
LINE
  5
648
330
1F
100
AcDbEntity
  8
AM_VIS
100
AcDbLine
 10
177.9798486068379
 20
275.7021717423571
 30
0.0
 11
177.9798486068379
 21
275.5004115720133
 31
0.0
  0
SPLINE
  5
649
330
1F
100
AcDbEntity
  8
AM_VIS
100
AcDbSpline
210
0.0
220
0.0
230
1.0
 70
     8
 71
     1
 72
     9
 73
     7
 74
     0
 42
0.0000000001
 43
0.0000000001
 40
0.0
 40
0.0
 40
0.1850187535511487
 40
0.412716359158193
 40
0.7140751933552365
 40
1.031798190047682
 40
1.35145270324927
 40
1.577255429805413
 40
1.577255429805413
 10
177.9798486068379
 20
275.5004115720133
 30
0.0
 10
177.9956869351425
 20
275.3239242173189
 30
0.0
 10
178.0602970303334
 20
275.1087781708567
 30
0.0
 10
178.2183444073873
 20
274.8540427506109
 30
0.0
 10
178.4595122495173
 20
274.6485965862511
 30
0.0
 10
178.7549163721662
 20
274.5285122893845
 30
0.0
 10
178.9786302682296
 20
274.5031411277857
 30
0.0
  0
LINE
  5
64A
330
1F
100
AcDbEntity
  8
AM_VIS
100
AcDbLine
 10
150.9810669454461
 20
274.5031411277857
 30
0.0
 11
149.9798486068379
 21
274.5031411277857
 31
0.0
  0
SPLINE
  5
64B
330
1F
100
AcDbEntity
  8
AM_VIS
100
AcDbSpline
210
0.0
220
0.0
230
1.0
 70
     8
 71
     1
 72
     8
 73
     6
 74
     0
 42
0.0000000001
 43
0.0000000001
 40
0.0
 40
0.0
 40
0.3252618491158119
 40
0.644683613012303
 40
0.9644555358744211
 40
1.283817519395506
 40
1.575479251730607
 40
1.575479251730607
 10
150.9810669454461
 20
274.5031411277857
 30
0.0
 10
151.301122755604
 20
274.5557964337542
 30
0.0
 10
151.5828324705692
 20
274.7046996712993
 30
0.0
 10
151.8033718346514
 20
274.9347859851202
 30
0.0
 10
151.9396913211691
 20
275.220953946083
 30
0.0
 10
151.9798486068379
 20
275.5004115720133
 30
0.0
  0
ARC
  5
64C
330
1F
100
AcDbEntity
  8
AM_VIS
100
AcDbCircle
 10
178.2798486068379
 20
325.3721717423571
 30
0.0
 40
1.0
100
AcDbArc
 50
0.0
 51
90.0
  0
ARC
  5
64D
330
1F
100
AcDbEntity
  8
AM_VIS
100
AcDbCircle
 10
151.6798486068378
 20
325.3721717423571
 30
0.0
 40
1.0
100
AcDbArc
 50
90.0
 51
180.0
  0
ARC
  5
64E
330
1F
100
AcDbEntity
  8
AM_VIS
100
AcDbCircle
 10
151.6798486068378
 20
298.772171742357
 30
0.0
 40
1.0
100
AcDbArc
 50
180.0
 51
270.0
  0
ARC
  5
64F
330
1F
100
AcDbEntity
  8
AM_VIS
100
AcDbCircle
 10
178.2798486068379
 20
298.772171742357
 30
0.0
 40
1.0
100
AcDbArc
 50
270.0
 51
0.0
  0
LINE
  5
650
330
1F
100
AcDbEntity
  8
AM_VIS
100
AcDbLine
 10
175.7298486068379
 20
283.272171742357
 30
0.0
 11
154.2298486068379
 21
283.272171742357
 31
0.0
  0
LINE
  5
651
330
1F
100
AcDbEntity
  8
AM_VIS
100
AcDbLine
 10
172.9798486068379
 20
281.1321717423571
 30
0.0
 11
177.4798486068379
 21
281.1321717423571
 31
0.0
  0
LINE
  5
652
330
1F
100
AcDbEntity
  8
AM_VIS
100
AcDbLine
 10
152.4798486068379
 20
281.1321717423571
 30
0.0
 11
156.9798486068379
 21
281.1321717423571
 31
0.0
  0
CIRCLE
  5
653
330
1F
100
AcDbEntity
  8
AM_VIS
100
AcDbCircle
 10
164.9798486068379
 20
312.0721717423571
 30
0.0
 40
3.5
  0
CIRCLE
  5
654
330
1F
100
AcDbEntity
  8
AM_VIS
100
AcDbCircle
 10
164.9798486068379
 20
312.0721717423571
 30
0.0
 40
2.5
  0
LINE
  5
655
330
1F
100
AcDbEntity
  8
AM_VIS
100
AcDbLine
 10
158.4798486068379
 20
330.272171742357
 30
0.0
 11
171.4798486068379
 21
330.272171742357
 31
0.0
  0
LINE
  5
656
330
1F
100
AcDbEntity
  8
AM_VIS
100
AcDbLine
 10
172.9798486068379
 20
331.6979697890977
 30
0.0
 11
156.9798486068379
 21
331.6979697890977
 31
0.0
  0
LINE
  5
657
330
1F
100
AcDbEntity
  8
AM_VIS
100
AcDbLine
 10
151.9798486068379
 20
275.7021717423571
 30
0.0
 11
163.6824365545058
 21
275.7021717423571
 31
0.0
  0
LINE
  5
658
330
1F
100
AcDbEntity
  8
AM_VIS
100
AcDbLine
 10
180.9798486068379
 20
273.5031411277857
 30
0.0
 11
180.9798486068379
 21
269.2021717423571
 31
0.0
  0
LINE
  5
659
330
1F
100
AcDbEntity
  8
AM_VIS
100
AcDbLine
 10
165.4289131091367
 20
275.7021717423571
 30
0.0
 11
177.9798486068379
 21
275.7021717423571
 31
0.0
  0
LINE
  5
65A
330
1F
100
AcDbEntity
  8
AM_VIS
100
AcDbLine
 10
148.9798486068379
 20
269.2021717423571
 30
0.0
 11
148.9798486068379
 21
273.5031411277857
 31
0.0
  0
ARC
  5
65B
330
1F
100
AcDbEntity
  8
AM_VIS
100
AcDbCircle
 10
159.2298486068379
 20
331.0221717423571
 30
0.0
 40
0.75
100
AcDbArc
 50
115.7017121122443
 51
270.0
  0
ARC
  5
65C
330
1F
100
AcDbEntity
  8
AM_VIS
100
AcDbCircle
 10
170.7298486068379
 20
331.0221717423571
 30
0.0
 40
0.75
100
AcDbArc
 50
270.0
 51
64.29828788775569
  0
ARC
  5
65D
330
1F
100
AcDbEntity
  8
AM_VIS
100
AcDbCircle
 10
179.9798486068379
 20
273.5031411277857
 30
0.0
 40
1.0
100
AcDbArc
 50
0.0
 51
90.0
  0
ARC
  5
65E
330
1F
100
AcDbEntity
  8
AM_VIS
100
AcDbCircle
 10
149.9798486068379
 20
273.5031411277857
 30
0.0
 40
1.0
100
AcDbArc
 50
90.0
 51
180.0
  0
LINE
  5
65F
330
1F
100
AcDbEntity
  8
AM_7
 62
     1
100
AcDbLine
 10
243.1588251416373
 20
217.586173690145
 30
0.0
 11
245.1588251416373
 21
217.586173690145
 31
0.0
  0
LINE
  5
660
330
1F
100
AcDbEntity
  8
AM_7
 62
     1
100
AcDbLine
 10
244.1588251416373
 20
216.586173690145
 30
0.0
 11
244.1588251416373
 21
218.586173690145
 31
0.0
  0
LINE
  5
661
330
1F
100
AcDbEntity
  8
AM_7
 62
     1
100
AcDbLine
 10
230.9088251416373
 20
217.586173690145
 30
0.0
 11
241.6588251416373
 21
217.586173690145
 31
0.0
  0
LINE
  5
662
330
1F
100
AcDbEntity
  8
AM_7
 62
     1
100
AcDbLine
 10
245.6588251416373
 20
217.586173690145
 30
0.0
 11
256.4088251416373
 21
217.586173690145
 31
0.0
  0
LINE
  5
663
330
1F
100
AcDbEntity
  8
AM_7
 62
     1
100
AcDbLine
 10
244.1588251416373
 20
204.836173690145
 30
0.0
 11
244.1588251416373
 21
215.586173690145
 31
0.0
  0
LINE
  5
664
330
1F
100
AcDbEntity
  8
AM_7
 62
     1
100
AcDbLine
 10
244.1588251416373
 20
219.586173690145
 30
0.0
 11
244.1588251416373
 21
230.336173690145
 31
0.0
  0
LINE
  5
665
330
1F
100
AcDbEntity
  8
AM_7
 62
     1
100
AcDbLine
 10
296.4088251416373
 20
229.586173690145
 30
0.0
 11
298.4088251416373
 21
229.586173690145
 31
0.0
  0
LINE
  5
666
330
1F
100
AcDbEntity
  8
AM_7
 62
     1
100
AcDbLine
 10
297.4088251416373
 20
228.586173690145
 30
0.0
 11
297.4088251416373
 21
230.586173690145
 31
0.0
  0
LINE
  5
667
330
1F
100
AcDbEntity
  8
AM_7
 62
     1
100
AcDbLine
 10
293.4088251416373
 20
229.586173690145
 30
0.0
 11
295.4088251416373
 21
229.586173690145
 31
0.0
  0
LINE
  5
668
330
1F
100
AcDbEntity
  8
AM_7
 62
     1
100
AcDbLine
 10
299.4088251416373
 20
229.586173690145
 30
0.0
 11
301.4088251416373
 21
229.586173690145
 31
0.0
  0
LINE
  5
669
330
1F
100
AcDbEntity
  8
AM_7
 62
     1
100
AcDbLine
 10
297.4088251416373
 20
225.586173690145
 30
0.0
 11
297.4088251416373
 21
227.586173690145
 31
0.0
  0
LINE
  5
66A
330
1F
100
AcDbEntity
  8
AM_7
 62
     1
100
AcDbLine
 10
297.4088251416373
 20
231.586173690145
 30
0.0
 11
297.4088251416373
 21
233.586173690145
 31
0.0
  0
LINE
  5
66B
330
1F
100
AcDbEntity
  8
AM_7
 62
     1
100
AcDbLine
 10
272.4088251416373
 20
205.586173690145
 30
0.0
 11
274.4088251416373
 21
205.586173690145
 31
0.0
  0
LINE
  5
66C
330
1F
100
AcDbEntity
  8
AM_7
 62
     1
100
AcDbLine
 10
273.4088251416373
 20
204.586173690145
 30
0.0
 11
273.4088251416373
 21
206.586173690145
 31
0.0
  0
LINE
  5
66D
330
1F
100
AcDbEntity
  8
AM_7
 62
     1
100
AcDbLine
 10
269.4088251416373
 20
205.586173690145
 30
0.0
 11
271.4088251416373
 21
205.586173690145
 31
0.0
  0
LINE
  5
66E
330
1F
100
AcDbEntity
  8
AM_7
 62
     1
100
AcDbLine
 10
275.4088251416373
 20
205.586173690145
 30
0.0
 11
277.4088251416373
 21
205.586173690145
 31
0.0
  0
LINE
  5
66F
330
1F
100
AcDbEntity
  8
AM_7
 62
     1
100
AcDbLine
 10
273.4088251416373
 20
201.586173690145
 30
0.0
 11
273.4088251416373
 21
203.586173690145
 31
0.0
  0
LINE
  5
670
330
1F
100
AcDbEntity
  8
AM_7
 62
     1
100
AcDbLine
 10
273.4088251416373
 20
207.586173690145
 30
0.0
 11
273.4088251416373
 21
209.586173690145
 31
0.0
  0
LINE
  5
671
330
1F
100
AcDbEntity
  8
AM_7
 62
     1
100
AcDbLine
 10
272.4088251416373
 20
229.586173690145
 30
0.0
 11
274.4088251416373
 21
229.586173690145
 31
0.0
  0
LINE
  5
672
330
1F
100
AcDbEntity
  8
AM_7
 62
     1
100
AcDbLine
 10
273.4088251416373
 20
228.586173690145
 30
0.0
 11
273.4088251416373
 21
230.586173690145
 31
0.0
  0
LINE
  5
673
330
1F
100
AcDbEntity
  8
AM_7
 62
     1
100
AcDbLine
 10
269.4088251416373
 20
229.586173690145
 30
0.0
 11
271.4088251416373
 21
229.586173690145
 31
0.0
  0
LINE
  5
674
330
1F
100
AcDbEntity
  8
AM_7
 62
     1
100
AcDbLine
 10
275.4088251416373
 20
229.586173690145
 30
0.0
 11
277.4088251416373
 21
229.586173690145
 31
0.0
  0
LINE
  5
675
330
1F
100
AcDbEntity
  8
AM_7
 62
     1
100
AcDbLine
 10
273.4088251416373
 20
225.586173690145
 30
0.0
 11
273.4088251416373
 21
227.586173690145
 31
0.0
  0
LINE
  5
676
330
1F
100
AcDbEntity
  8
AM_7
 62
     1
100
AcDbLine
 10
273.4088251416373
 20
231.586173690145
 30
0.0
 11
273.4088251416373
 21
233.586173690145
 31
0.0
  0
LINE
  5
677
330
1F
100
AcDbEntity
  8
AM_7
 62
     1
100
AcDbLine
 10
296.4088251416373
 20
205.586173690145
 30
0.0
 11
298.4088251416373
 21
205.586173690145
 31
0.0
  0
LINE
  5
678
330
1F
100
AcDbEntity
  8
AM_7
 62
     1
100
AcDbLine
 10
297.4088251416373
 20
204.586173690145
 30
0.0
 11
297.4088251416373
 21
206.586173690145
 31
0.0
  0
LINE
  5
679
330
1F
100
AcDbEntity
  8
AM_7
 62
     1
100
AcDbLine
 10
293.4088251416373
 20
205.586173690145
 30
0.0
 11
295.4088251416373
 21
205.586173690145
 31
0.0
  0
LINE
  5
67A
330
1F
100
AcDbEntity
  8
AM_7
 62
     1
100
AcDbLine
 10
299.4088251416373
 20
205.586173690145
 30
0.0
 11
301.4088251416373
 21
205.586173690145
 31
0.0
  0
LINE
  5
67B
330
1F
100
AcDbEntity
  8
AM_7
 62
     1
100
AcDbLine
 10
297.4088251416373
 20
201.586173690145
 30
0.0
 11
297.4088251416373
 21
203.586173690145
 31
0.0
  0
LINE
  5
67C
330
1F
100
AcDbEntity
  8
AM_7
 62
     1
100
AcDbLine
 10
297.4088251416373
 20
207.586173690145
 30
0.0
 11
297.4088251416373
 21
209.586173690145
 31
0.0
  0
LINE
  5
67D
330
1F
100
AcDbEntity
  8
AM_7
 62
     1
100
AcDbLine
 10
270.5359388588087
 20
217.586173690145
 30
0.0
 11
287.66305257598
 21
217.586173690145
 31
0.0
  0
LINE
  5
67E
330
1F
100
AcDbEntity
  8
AM_7
 62
     1
100
AcDbLine
 10
286.5359388588087
 20
216.586173690145
 30
0.0
 11
286.5359388588087
 21
218.586173690145
 31
0.0
  0
LINE
  5
67F
330
1F
100
AcDbEntity
  8
AM_7
 62
     1
100
AcDbLine
 10
276.3359388588087
 20
216.586173690145
 30
0.0
 11
276.3359388588087
 21
218.586173690145
 31
0.0
  0
LINE
  5
680
330
1F
100
AcDbEntity
  8
AM_7
 62
     1
100
AcDbLine
 10
288.5359388588087
 20
217.586173690145
 30
0.0
 11
293.0359388588087
 21
217.586173690145
 31
0.0
  0
LINE
  5
681
330
1F
100
AcDbEntity
  8
AM_7
 62
     1
100
AcDbLine
 10
286.5359388588087
 20
211.086173690145
 30
0.0
 11
286.5359388588087
 21
215.586173690145
 31
0.0
  0
LINE
  5
682
330
1F
100
AcDbEntity
  8
AM_7
 62
     1
100
AcDbLine
 10
276.3359388588087
 20
211.086173690145
 30
0.0
 11
276.3359388588087
 21
215.586173690145
 31
0.0
  0
LINE
  5
683
330
1F
100
AcDbEntity
  8
AM_7
 62
     1
100
AcDbLine
 10
286.5359388588087
 20
219.586173690145
 30
0.0
 11
286.5359388588087
 21
224.086173690145
 31
0.0
  0
LINE
  5
684
330
1F
100
AcDbEntity
  8
AM_7
 62
     1
100
AcDbLine
 10
276.3359388588087
 20
219.586173690145
 30
0.0
 11
276.3359388588087
 21
224.086173690145
 31
0.0
  0
LINE
  5
685
330
1F
100
AcDbEntity
  8
AM_VIS
100
AcDbLine
 10
264.9088251416373
 20
203.086173690145
 30
0.0
 11
269.4088251416373
 21
203.086173690145
 31
0.0
  0
LINE
  5
686
330
1F
100
AcDbEntity
  8
AM_VIS
100
AcDbLine
 10
269.4088251416373
 20
232.086173690145
 30
0.0
 11
264.9088251416373
 21
232.086173690145
 31
0.0
  0
LINE
  5
687
330
1F
100
AcDbEntity
  8
AM_VIS
100
AcDbLine
 10
259.9088251416373
 20
203.286173690145
 30
0.0
 11
255.9088251416373
 21
203.286173690145
 31
0.0
  0
LINE
  5
688
330
1F
100
AcDbEntity
  8
AM_VIS
100
AcDbLine
 10
255.9088251416373
 20
230.886173690145
 30
0.0
 11
255.9088251416373
 21
204.286173690145
 31
0.0
  0
LINE
  5
689
330
1F
100
AcDbEntity
  8
AM_VIS
100
AcDbLine
 10
259.9088251416373
 20
231.886173690145
 30
0.0
 11
255.9088251416373
 21
231.886173690145
 31
0.0
  0
LINE
  5
68A
330
1F
100
AcDbEntity
  8
AM_VIS
100
AcDbLine
 10
263.9088251416373
 20
203.086173690145
 30
0.0
 11
259.9088251416373
 21
203.086173690145
 31
0.0
  0
LINE
  5
68B
330
1F
100
AcDbEntity
  8
AM_VIS
100
AcDbLine
 10
259.9088251416373
 20
232.086173690145
 30
0.0
 11
259.9088251416373
 21
203.086173690145
 31
0.0
  0
LINE
  5
68C
330
1F
100
AcDbEntity
  8
AM_VIS
100
AcDbLine
 10
263.9088251416373
 20
232.086173690145
 30
0.0
 11
259.9088251416373
 21
232.086173690145
 31
0.0
  0
LINE
  5
68D
330
1F
100
AcDbEntity
  8
AM_VIS
100
AcDbLine
 10
264.9088251416373
 20
203.086173690145
 30
0.0
 11
264.9088251416373
 21
232.086173690145
 31
0.0
  0
LINE
  5
68E
330
1F
100
AcDbEntity
  8
AM_VIS
100
AcDbLine
 10
263.9088251416373
 20
203.086173690145
 30
0.0
 11
264.9088251416373
 21
203.086173690145
 31
0.0
  0
LINE
  5
68F
330
1F
100
AcDbEntity
  8
AM_VIS
100
AcDbLine
 10
263.9088251416373
 20
203.086173690145
 30
0.0
 11
263.9088251416373
 21
232.086173690145
 31
0.0
  0
LINE
  5
690
330
1F
100
AcDbEntity
  8
AM_VIS
100
AcDbLine
 10
264.9088251416373
 20
232.086173690145
 30
0.0
 11
263.9088251416373
 21
232.086173690145
 31
0.0
  0
LINE
  5
691
330
1F
100
AcDbEntity
  8
AM_VIS
100
AcDbLine
 10
255.9088251416373
 20
230.386173690145
 30
0.0
 11
233.4088251416372
 21
230.386173690145
 31
0.0
  0
LINE
  5
692
330
1F
100
AcDbEntity
  8
AM_VIS
100
AcDbLine
 10
255.9088251416373
 20
204.786173690145
 30
0.0
 11
233.4088251416372
 21
204.786173690145
 31
0.0
  0
LINE
  5
693
330
1F
100
AcDbEntity
  8
AM_VIS
100
AcDbLine
 10
233.4088251416373
 20
217.586173690145
 30
0.0
 11
233.4088251416373
 21
204.786173690145
 31
0.0
  0
LINE
  5
694
330
1F
100
AcDbEntity
  8
AM_VIS
100
AcDbLine
 10
233.4088251416373
 20
230.386173690145
 30
0.0
 11
233.4088251416373
 21
217.586173690145
 31
0.0
  0
LINE
  5
695
330
1F
100
AcDbEntity
  8
AM_VIS
100
AcDbLine
 10
239.5400229881202
 20
225.586173690145
 30
0.0
 11
248.7776272951543
 21
225.586173690145
 31
0.0
  0
LINE
  5
696
330
1F
100
AcDbEntity
  8
AM_VIS
100
AcDbLine
 10
234.9212208346033
 20
217.586173690145
 30
0.0
 11
239.5400229881202
 21
225.586173690145
 31
0.0
  0
LINE
  5
697
330
1F
100
AcDbEntity
  8
AM_VIS
100
AcDbLine
 10
239.5400229881202
 20
209.586173690145
 30
0.0
 11
234.9212208346033
 21
217.586173690145
 31
0.0
  0
LINE
  5
698
330
1F
100
AcDbEntity
  8
AM_VIS
100
AcDbLine
 10
248.7776272951543
 20
209.586173690145
 30
0.0
 11
239.5400229881202
 21
209.586173690145
 31
0.0
  0
LINE
  5
699
330
1F
100
AcDbEntity
  8
AM_VIS
100
AcDbLine
 10
253.3964294486713
 20
217.586173690145
 30
0.0
 11
248.7776272951543
 21
209.586173690145
 31
0.0
  0
LINE
  5
69A
330
1F
100
AcDbEntity
  8
AM_VIS
100
AcDbLine
 10
248.7776272951543
 20
225.586173690145
 30
0.0
 11
253.3964294486713
 21
217.586173690145
 31
0.0
  0
LINE
  5
69B
330
1F
100
AcDbEntity
  8
AM_VIS
100
AcDbLine
 10
269.4088251416373
 20
233.586173690145
 30
0.0
 11
301.4088251416373
 21
233.586173690145
 31
0.0
  0
LINE
  5
69C
330
1F
100
AcDbEntity
  8
AM_VIS
100
AcDbLine
 10
269.4088251416373
 20
201.586173690145
 30
0.0
 11
269.4088251416373
 21
233.586173690145
 31
0.0
  0
LINE
  5
69D
330
1F
100
AcDbEntity
  8
AM_VIS
100
AcDbLine
 10
301.4088251416373
 20
233.586173690145
 30
0.0
 11
301.4088251416373
 21
201.586173690145
 31
0.0
  0
LINE
  5
69E
330
1F
100
AcDbEntity
  8
AM_VIS
100
AcDbLine
 10
301.4088251416373
 20
201.586173690145
 30
0.0
 11
269.4088251416373
 21
201.586173690145
 31
0.0
  0
LINE
  5
69F
330
1F
100
AcDbEntity
  8
AM_VIS
100
AcDbLine
 10
255.9088251416373
 20
203.286173690145
 30
0.0
 11
255.9088251416373
 21
204.286173690145
 31
0.0
  0
LINE
  5
6A0
330
1F
100
AcDbEntity
  8
AM_VIS
100
AcDbLine
 10
255.9088251416373
 20
230.886173690145
 30
0.0
 11
255.9088251416373
 21
231.886173690145
 31
0.0
  0
CIRCLE
  5
6A1
330
1F
100
AcDbEntity
  8
AM_VIS
100
AcDbCircle
 10
244.1588251416373
 20
217.586173690145
 30
0.0
 40
10.75
  0
CIRCLE
  5
6A2
330
1F
100
AcDbEntity
  8
AM_VIS
100
AcDbCircle
 10
244.1588251416373
 20
217.586173690145
 30
0.0
 40
5.0
  0
CIRCLE
  5
6A3
330
1F
100
AcDbEntity
  8
AM_VIS
100
AcDbCircle
 10
286.5359388588087
 20
217.586173690145
 30
0.0
 40
4.5
  0
CIRCLE
  5
6A4
330
1F
100
AcDbEntity
  8
AM_VIS
100
AcDbCircle
 10
286.5359388588087
 20
217.586173690145
 30
0.0
 40
1.5
  0
DIMENSION
  5
6A5
330
1F
100
AcDbEntity
  8
0
100
AcDbDimension
  2
*D11
 10
140.1901956786345
 20
263.2021717423571
 30
0.0
 11
137.6901956786344
 21
306.2000707657274
 31
0.0
 70
    32
 71
     5
 42
85.99579804674062
  3
STANDARD
100
AcDbAlignedDimension
 13
156.4798486068379
 23
349.1979697890977
 33
0.0
 14
148.9798486068379
 24
263.2021717423571
 34
0.0
 50
90.0
100
AcDbRotatedDimension
1001
ACAD
1000
DSTYLE
1002
{
1070
   176
1070
     5
1070
   177
1070
     5
1070
   178
1070
     5
1070
   272
1070
     8
1002
}
  0
CIRCLE
  5
6A6
330
1F
100
AcDbEntity
  8
0
100
AcDbCircle
 10
273.4088251416373
 20
229.586173690145
 30
0.0
 40
2.149999999999999
  0
CIRCLE
  5
6A7
330
1F
100
AcDbEntity
  8
0
100
AcDbCircle
 10
297.4088251416373
 20
229.586173690145
 30
0.0
 40
2.149999999999999
  0
CIRCLE
  5
6A8
330
1F
100
AcDbEntity
  8
0
100
AcDbCircle
 10
297.4088251416373
 20
205.586173690145
 30
0.0
 40
2.149999999999999
  0
CIRCLE
  5
6A9
330
1F
100
AcDbEntity
  8
0
100
AcDbCircle
 10
273.4088251416373
 20
205.586173690145
 30
0.0
 40
2.149999999999999
  0
CIRCLE
  5
6AA
330
1F
100
AcDbEntity
  8
0
100
AcDbCircle
 10
276.3359388588087
 20
217.586173690145
 30
0.0
 40
4.5
  0
CIRCLE
  5
6AB
330
1F
100
AcDbEntity
  8
AM_VIS
100
AcDbCircle
 10
276.3359388588087
 20
217.586173690145
 30
0.0
 40
1.5
  0
DIMENSION
  5
6AC
330
1F
100
AcDbEntity
  8
0
100
AcDbDimension
  2
*D12
 10
308.5893584073774
 20
205.586173690145
 30
0.0
 11
306.0893584073773
 21
217.586173690145
 31
0.0
 70
    32
 71
     5
 42
24.0
  3
STANDARD
100
AcDbAlignedDimension
 13
301.4088251416373
 23
229.586173690145
 33
0.0
 14
301.4088251416373
 24
205.586173690145
 34
0.0
 50
90.0
100
AcDbRotatedDimension
1001
ACAD
1000
DSTYLE
1002
{
1070
   176
1070
     5
1070
   177
1070
     5
1070
   178
1070
     5
1070
   272
1070
     8
1002
}
  0
DIMENSION
  5
6AD
330
1F
100
AcDbEntity
  8
0
100
AcDbDimension
  2
*D13
 10
317.506238661044
 20
201.586173690145
 30
0.0
 11
315.0062386610439
 21
217.586173690145
 31
0.0
 70
    32
 71
     5
 42
32.0
  3
STANDARD
100
AcDbAlignedDimension
 13
301.4088251416373
 23
233.586173690145
 33
0.0
 14
301.4088251416373
 24
201.586173690145
 34
0.0
 50
90.0
100
AcDbRotatedDimension
1001
ACAD
1000
DSTYLE
1002
{
1070
   176
1070
     5
1070
   177
1070
     5
1070
   178
1070
     5
1070
   272
1070
     8
1002
}
  0
LEADER
  5
6AE
330
1F
100
AcDbEntity
  8
0
100
AcDbLeader
  3
STANDARD
 74
     0
 40
3.0
 41
9.000000000000003
 76
     3
 10
298.9395837441841
 20
230.9775717138496
 30
0.0
 10
301.8711606907276
 20
244.4096089380888
 30
0.0
 10
313.353171031956
 20
244.4096089380888
 30
0.0
213
0.0
223
-1.5
233
0.0
1001
ACAD
1000
DSTYLE
1002
{
1070
   176
1070
     5
1070
   177
1070
     5
1070
   178
1070
     5
1070
   272
1070
     8
1002
}
  0
LEADER
  5
6AF
330
1F
100
AcDbEntity
  8
0
100
AcDbLeader
  3
STANDARD
 40
3.000000000000001
 41
4.571428571428571
 76
     3
 10
284.5513049010307
 20
213.3713648196624
 30
0.0
 10
280.6478777336969
 20
191.7947070873344
 30
0.0
 10
269.396821818219
 20
191.7947070873344
 30
0.0
213
0.0
223
1.5
233
0.0
1001
ACAD
1000
DSTYLE
1002
{
1070
   176
1070
     5
1070
   177
1070
     5
1070
   178
1070
     5
1070
   272
1070
     8
1002
}
  0
LEADER
  5
6B0
330
1F
100
AcDbEntity
  8
0
100
AcDbLeader
  3
STANDARD
 40
4.571428571428571
 41
10.57142857142857
 76
     3
 10
164.9798486068379
 20
349.1979697890977
 30
0.0
 10
158.5568154381665
 20
363.6675714674875
 30
0.0
 10
143.7051824072068
 20
363.6675714674875
 30
0.0
213
0.0
223
1.5
233
0.0
1001
ACAD
1000
DSTYLE
1002
{
1070
   176
1070
     5
1070
   177
1070
     5
1070
   178
1070
     5
1070
   272
1070
     8
1002
}
  0
TEXT
  5
6B1
330
1F
100
AcDbEntity
  8
LOGO
 62
     7
100
AcDbText
 10
186.7641153830812
 20
165.5933026477232
 30
0.0
 40
3.871439348416289
  1
Order example:
 41
0.8
  7
CHINESET
100
AcDbText
  0
TEXT
  5
6B2
330
1F
100
AcDbEntity
  8
LOGO
 62
     7
100
AcDbText
 10
187.4586836176881
 20
171.0434876585483
 30
0.0
 40
5.807159022624434
  1
訂購代號：
  7
CHINESET
100
AcDbText
  0
LINE
  5
6B3
330
1F
100
AcDbEntity
  8
LOGO
 62
     4
100
AcDbLine
 10
390.6215585735209
 20
178.3133904005089
 30
0.0
 11
121.2032126061581
 21
178.3133904005089
 31
0.0
  0
LINE
  5
6B4
330
1F
100
AcDbEntity
  8
LOGO
 62
     4
100
AcDbLine
 10
185.081961855027
 20
149.2775952873862
 30
0.0
 11
185.081961855027
 21
178.3133904005089
 31
0.0
  0
TEXT
  5
6B5
330
1F
100
AcDbEntity
  8
LOGO
  6
Continuous
100
AcDbText
 10
131.6330007292159
 20
154.9816334185237
 30
0.0
 40
4.355369266968326
  1
金器工業股份有限公司
  7
CHINESET
100
AcDbText
  0
TEXT
  5
6B6
330
1F
100
AcDbEntity
  8
LOGO
  6
Continuous
100
AcDbText
 10
123.6330490531117
 20
150.6254108406532
 30
0.0
 40
2.903579511312217
  1
MINDMAN INDUSTRIAL CO., LTD.
 41
0.85
  7
CHINESET
100
AcDbText
  0
LINE
  5
6B7
330
1F
100
AcDbEntity
  8
LOGO
 62
     4
100
AcDbLine
 10
185.081961855027
 20
172.5062313778841
 30
0.0
 11
142.4961290224475
 21
172.5062313778841
 31
0.0
  0
LINE
  5
6B8
330
1F
100
AcDbEntity
  8
LOGO
 62
     4
100
AcDbLine
 10
185.081961855027
 20
166.69907235526
 30
0.0
 11
142.4961290224475
 21
166.69907235526
 31
0.0
  0
LINE
  5
6B9
330
1F
100
AcDbEntity
  8
LOGO
 62
     4
100
AcDbLine
 10
185.081961855027
 20
160.8919133326358
 30
0.0
 11
121.2032126061581
 21
160.8919133326358
 31
0.0
  0
LINE
  5
6BA
330
1F
100
AcDbEntity
  8
LOGO
 62
     4
100
AcDbLine
 10
142.4961290224475
 20
160.8919133326358
 30
0.0
 11
142.4961290224475
 21
178.3133904005089
 31
0.0
  0
TEXT
  5
6BB
330
1F
100
AcDbEntity
  8
LOGO
100
AcDbText
 10
171.6015357428223
 20
162.3437030882915
 30
0.0
 40
2.903579511312217
  1
mm
  7
CHINESET
 72
     1
 11
175.1964437092088
 21
163.7954928439476
 31
0.0
100
AcDbText
 73
     2
  0
TEXT
  5
6BC
330
1F
100
AcDbEntity
  8
LOGO
100
AcDbText
 10
170.0806131416587
 20
173.9580211335404
 30
0.0
 40
2.903579511312217
  1
1 : 1
  7
CHINESET
 72
     1
 11
175.1964437092088
 21
175.4098108891965
 31
0.0
100
AcDbText
 73
     2
  0
LINE
  5
6BD
330
1F
100
AcDbEntity
  8
LOGO
 62
     4
100
AcDbLine
 10
165.7247651129454
 20
160.8919133326358
 30
0.0
 11
165.7247651129454
 21
178.3133904005089
 31
0.0
  0
TEXT
  5
6BE
330
1F
100
AcDbEntity
  8
LOGO
100
AcDbText
 10
144.8902858784269
 20
173.9594500604653
 30
190.2958178035923
 40
2.903579511312217
  1
比例 Scale:
 41
0.9
  7
CHINESET
 72
     4
 11
154.1104470676965
 21
175.4098108891965
 31
190.2958178035923
100
AcDbText
  0
TEXT
  5
6BF
330
1F
100
AcDbEntity
  8
LOGO
100
AcDbText
 10
144.7230708083558
 20
168.1917056055178
 30
190.2958178035923
 40
2.903579511312217
  1
投影  View:
 41
0.9
  7
CHINESET
 72
     4
 11
154.1104470676965
 21
169.6026518665718
 31
190.2958178035923
100
AcDbText
  0
TEXT
  5
6C0
330
1F
100
AcDbEntity
  8
LOGO
100
AcDbText
 10
145.0069475552207
 20
162.3437030882915
 30
190.2958178035923
 40
2.903579511312217
  1
單位  Unit:
 41
0.9
  7
CHINESET
 72
     4
 11
154.1104470676965
 21
163.7954928439476
 31
190.2958178035923
100
AcDbText
  0
LWPOLYLINE
  5
6C1
330
1F
100
AcDbEntity
  8
LOGO
 62
     4
100
AcDbPolyline
 90
        4
 70
     1
 43
0.0
 10
121.2032126061581
 20
178.3133904005089
 10
390.6215585735209
 20
178.3133904005089
 10
390.6215585735209
 20
439.6775952873859
 10
121.2032126061581
 20
439.6775952873859
1001
GENIUS_GENREC_14
1002
{
1000
PYDIR
1011
121.2032126061581
1021
439.6775952873859
1031
0.0
1002
}
1002
{
1000
PXDIR
1011
390.6215585735209
1021
178.3133904005089
1031
0.0
1002
}
1002
{
1000
PORI
1011
121.2032126061581
1021
178.3133904005089
1031
0.0
1002
}
1002
{
1000
PINS
1011
121.2032126061581
1021
178.3133904005089
1031
0.0
1002
}
1002
{
1000
PINS2
1011
390.6215585735209
1021
439.6775952873859
1031
0.0
1002
}
1002
{
1000
C
1070
     1
1002
}
1001
GENIUS_GENODEF_13
1002
{
1000
HIER
1070
     0
1002
}
1002
{
1000
MANEDIT
1070
     0
1002
}
1002
{
1000
NOSEL
1070
     0
1002
}
1002
{
1000
BEHIND
1070
     0
1002
}
1002
{
1000
OTHER
1070
     0
1002
}
1002
{
1000
REACTOR
1002
}
1001
GENIUS_GENOBJ-N-REC_13
1002
{
1000
OWNER
1000
GEN
1002
}
  0
SOLID
  5
6C2
330
1F
100
AcDbEntity
  8
LOGO
 62
     5
100
AcDbTrace
 10
124.2157229480512
 20
165.7187009781933
 30
0.0
 11
125.4711545388161
 21
165.7187009781933
 31
0.0
 12
130.7093346244217
 22
177.623655718207
 32
0.0
 13
131.9647662151874
 23
177.6236557182064
 33
0.0
  0
SOLID
  5
6C3
330
1F
100
AcDbEntity
  8
LOGO
 62
     5
100
AcDbTrace
 10
125.9906434729272
 20
165.7187009781933
 30
0.0
 11
127.2460750636922
 21
165.7187009781933
 31
0.0
 12
131.9647662151874
 22
176.6712593390055
 32
0.0
 13
130.7093346244217
 23
172.068010172867
 33
0.0
  0
SOLID
  5
6C4
330
1F
100
AcDbEntity
  8
LOGO
 62
     2
100
AcDbTrace
 10
125.4711545388161
 20
165.7187009781933
 30
0.0
 11
125.9906434729272
 21
165.7187009781933
 31
0.0
 12
131.9647662151874
 22
177.6236557182064
 32
0.0
 13
132.4842551492978
 23
177.6236557182064
 33
0.0
  0
SOLID
  5
6C5
330
1F
100
AcDbEntity
  8
LOGO
 62
     5
100
AcDbTrace
 10
122.2029582385169
 20
161.38962652728
 30
0.0
 11
122.6358656836087
 21
161.38962652728
 31
0.0
 12
123.8549667438088
 22
163.5541637527366
 32
0.0
 13
124.2878741888992
 23
163.5541637527366
 33
0.0
  0
SOLID
  5
6C6
330
1F
100
AcDbEntity
  8
LOGO
 62
     5
100
AcDbTrace
 10
123.8549667438088
 20
163.5541637527366
 30
0.0
 11
124.2878741888992
 21
163.5541637527366
 31
0.0
 12
123.8549667438088
 22
161.38962652728
 32
0.0
 13
124.2878741888992
 23
161.38962652728
 33
0.0
  0
SOLID
  5
6C7
330
1F
100
AcDbEntity
  8
LOGO
 62
     5
100
AcDbTrace
 10
123.8549667438088
 20
161.38962652728
 30
0.0
 11
124.2878741888992
 21
161.38962652728
 31
0.0
 12
125.5069752491013
 22
163.5541637527366
 32
0.0
 13
125.9398826941924
 23
163.5541637527366
 33
0.0
  0
SOLID
  5
6C8
330
1F
100
AcDbEntity
  8
LOGO
 62
     5
100
AcDbTrace
 10
125.5069752491013
 20
163.5541637527366
 30
0.0
 11
125.9398826941924
 21
163.5541637527366
 31
0.0
 12
125.5069752491013
 22
161.38962652728
 32
0.0
 13
125.9398826941924
 23
161.38962652728
 33
0.0
  0
POLYLINE
  5
6C9
330
1F
100
AcDbEntity
  8
LOGO
 62
     5
100
AcDb2dPolyline
 66
     1
 10
0.0
 20
0.0
 30
0.0
 40
0.4336012070226245
 41
0.4336012070226245
  0
VERTEX
  5
6CA
330
6C9
100
AcDbEntity
  8
LOGO
 62
     5
100
AcDbVertex
100
AcDb2dVertex
 10
140.0178853367846
 20
162.6883488625536
 30
0.0
 42
1.0
  0
VERTEX
  5
6CB
330
6C9
100
AcDbEntity
  8
LOGO
 62
     5
100
AcDbVertex
100
AcDb2dVertex
 10
138.7170817157165
 20
162.6883488625536
 30
0.0
 42
1.0
  0
SEQEND
  5
6CC
330
6C9
100
AcDbEntity
  8
LOGO
 62
     5
  0
POLYLINE
  5
6CD
330
1F
100
AcDbEntity
  8
LOGO
 62
     5
100
AcDb2dPolyline
 66
     1
 10
0.0
 20
0.0
 30
0.0
 70
     1
  0
VERTEX
  5
6CE
330
6CD
100
AcDbEntity
  8
LOGO
 62
     5
100
AcDbVertex
100
AcDb2dVertex
 10
136.2650090302577
 20
162.471895140008
 30
0.0
 42
1.000000057330635
  0
VERTEX
  5
6CF
330
6CD
100
AcDbEntity
  8
LOGO
 62
     5
100
AcDbVertex
100
AcDb2dVertex
 10
137.5637313655319
 20
162.471895140008
 30
0.0
 42
1.000000057330635
  0
SEQEND
  5
6D0
330
6CD
100
AcDbEntity
  8
LOGO
 62
     5
  0
CIRCLE
  5
6D1
330
1F
100
AcDbEntity
  8
LOGO
 62
     5
100
AcDbCircle
 10
136.9143701978958
 20
162.471895140008
 30
0.0
 40
0.6493611676370826
  0
POLYLINE
  5
6D2
330
1F
100
AcDbEntity
  8
LOGO
 62
     5
100
AcDb2dPolyline
 66
     1
 10
0.0
 20
0.0
 30
0.0
 70
     1
 40
0.4336012070226245
 41
0.4336012070226245
  0
VERTEX
  5
6D3
330
6D2
100
AcDbEntity
  8
LOGO
 62
     5
100
AcDbVertex
100
AcDb2dVertex
 10
136.0471677838499
 20
162.471895140008
 30
0.0
 42
1.0
  0
VERTEX
  5
6D4
330
6D2
100
AcDbEntity
  8
LOGO
 62
     5
100
AcDbVertex
100
AcDb2dVertex
 10
137.7815726119404
 20
162.471895140008
 30
0.0
 42
1.0
  0
SEQEND
  5
6D5
330
6D2
100
AcDbEntity
  8
LOGO
 62
     5
  0
LINE
  5
6D6
330
1F
100
AcDbEntity
  8
LOGO
100
AcDbLine
 10
140.2332984164326
 20
161.38962652728
 30
0.0
 11
140.2332984164326
 21
162.6883488625536
 31
0.0
  0
SOLID
  5
6D7
330
1F
100
AcDbEntity
  8
LOGO
 62
     5
100
AcDbTrace
 10
137.5636880747894
 20
163.5541637527366
 30
0.0
 11
137.9965955198799
 21
163.5541637527366
 31
0.0
 12
137.5636880747894
 22
161.38962652728
 32
0.0
 13
137.9965955198799
 23
161.38962652728
 33
0.0
  0
SOLID
  5
6D8
330
1F
100
AcDbEntity
  8
LOGO
 62
     5
100
AcDbTrace
 10
138.5016686360671
 20
161.38962652728
 30
0.0
 11
138.934576081159
 21
161.38962652728
 31
0.0
 12
138.5016686360671
 22
163.5541637527366
 32
0.0
 13
138.934576081159
 23
163.5541637527366
 33
0.0
  0
SOLID
  5
6D9
330
1F
100
AcDbEntity
  8
LOGO
 62
     5
100
AcDbTrace
 10
139.8003909713421
 20
162.6883488625536
 30
0.0
 11
140.2332984164326
 21
162.6883488625536
 31
0.0
 12
139.8003909713421
 22
161.38962652728
 32
0.0
 13
140.2332984164326
 23
161.38962652728
 33
0.0
  0
SOLID
  5
6DA
330
1F
100
AcDbEntity
  8
LOGO
 62
     5
100
AcDbTrace
 10
138.4583778915579
 20
176.6712593390055
 30
0.0
 11
137.2029463007936
 21
172.068010172867
 31
0.0
 12
138.4583778915579
 22
165.7187009781933
 32
0.0
 13
137.2029463007936
 23
165.7187009781933
 33
0.0
  0
SOLID
  5
6DB
330
1F
100
AcDbEntity
  8
LOGO
 62
     5
100
AcDbTrace
 10
138.9778668256683
 20
165.7187009781933
 30
0.0
 11
140.2332984164326
 21
165.7187009781933
 31
0.0
 12
138.9778668256683
 22
177.6236557182064
 32
0.0
 13
140.2332984164326
 23
177.623655718207
 33
0.0
  0
SOLID
  5
6DC
330
1F
100
AcDbEntity
  8
LOGO
 62
     2
100
AcDbTrace
 10
138.4583778915579
 20
177.623655718207
 30
0.0
 11
138.9778668256683
 21
177.6236557182064
 31
0.0
 12
138.4583778915579
 22
165.7187009781933
 32
0.0
 13
138.9778668256683
 23
165.7187009781933
 33
0.0
  0
POLYLINE
  5
6DD
330
1F
100
AcDbEntity
  8
LOGO
 62
     5
100
AcDb2dPolyline
 66
     1
 10
0.0
 20
0.0
 30
0.0
 40
0.4336012070226245
 41
0.4336012070226245
  0
VERTEX
  5
6DE
330
6DD
100
AcDbEntity
  8
LOGO
 62
     5
100
AcDbVertex
100
AcDb2dVertex
 10
133.8128497633118
 20
162.6883488625536
 30
0.0
 42
1.0
  0
VERTEX
  5
6DF
330
6DD
100
AcDbEntity
  8
LOGO
 62
     5
100
AcDbVertex
100
AcDb2dVertex
 10
132.5120461422437
 20
162.6883488625536
 30
0.0
 42
1.0
  0
SEQEND
  5
6E0
330
6DD
100
AcDbEntity
  8
LOGO
 62
     5
  0
POLYLINE
  5
6E1
330
1F
100
AcDbEntity
  8
LOGO
 62
     5
100
AcDb2dPolyline
 66
     1
 10
0.0
 20
0.0
 30
0.0
 40
0.4336012070226245
 41
0.4336012070226245
  0
VERTEX
  5
6E2
330
6E1
100
AcDbEntity
  8
LOGO
 62
     5
100
AcDbVertex
100
AcDb2dVertex
 10
135.1115720985847
 20
162.6883488625536
 30
0.0
 42
1.0
  0
VERTEX
  5
6E3
330
6E1
100
AcDbEntity
  8
LOGO
 62
     5
100
AcDbVertex
100
AcDb2dVertex
 10
133.8107684775173
 20
162.6883488625536
 30
0.0
 42
1.0
  0
SEQEND
  5
6E4
330
6E1
100
AcDbEntity
  8
LOGO
 62
     5
  0
POLYLINE
  5
6E5
330
1F
100
AcDbEntity
  8
LOGO
 62
     5
100
AcDb2dPolyline
 66
     1
 10
0.0
 20
0.0
 30
0.0
 40
0.4336012070226245
 41
0.4336012070226245
  0
VERTEX
  5
6E6
330
6E5
100
AcDbEntity
  8
LOGO
 62
     5
100
AcDbVertex
100
AcDb2dVertex
 10
128.9065365251119
 20
162.6883488625536
 30
0.0
 42
1.0
  0
VERTEX
  5
6E7
330
6E5
100
AcDbEntity
  8
LOGO
 62
     5
100
AcDbVertex
100
AcDb2dVertex
 10
127.6057329040445
 20
162.6883488625536
 30
0.0
 42
1.0
  0
SEQEND
  5
6E8
330
6E5
100
AcDbEntity
  8
LOGO
 62
     5
  0
SOLID
  5
6E9
330
1F
100
AcDbEntity
  8
LOGO
 62
     5
100
AcDbTrace
 10
127.3903198243959
 20
163.5541637527366
 30
0.0
 11
127.8232272694863
 21
163.5541637527366
 31
0.0
 12
127.3903198243959
 22
161.38962652728
 32
0.0
 13
127.8232272694863
 23
161.38962652728
 33
0.0
  0
SOLID
  5
6EA
330
1F
100
AcDbEntity
  8
LOGO
 62
     5
100
AcDbTrace
 10
128.6890421596701
 20
162.6883488625536
 30
0.0
 11
129.1219496047619
 21
162.6883488625536
 31
0.0
 12
128.6890421596701
 22
161.38962652728
 32
0.0
 13
129.1219496047619
 23
161.38962652728
 33
0.0
  0
POLYLINE
  5
6EB
330
1F
100
AcDbEntity
  8
LOGO
 62
     5
100
AcDb2dPolyline
 66
     1
 10
0.0
 20
0.0
 30
0.0
 70
     1
 40
0.4336012070226245
 41
0.4336012070226245
  0
VERTEX
  5
6EC
330
6EB
100
AcDbEntity
  8
LOGO
 62
     5
100
AcDbVertex
100
AcDb2dVertex
 10
129.8421322103765
 20
162.471895140008
 30
0.0
 42
1.0
  0
VERTEX
  5
6ED
330
6EB
100
AcDbEntity
  8
LOGO
 62
     5
100
AcDbVertex
100
AcDb2dVertex
 10
131.5765370384676
 20
162.471895140008
 30
0.0
 42
1.0
  0
SEQEND
  5
6EE
330
6EB
100
AcDbEntity
  8
LOGO
 62
     5
  0
SOLID
  5
6EF
330
1F
100
AcDbEntity
  8
LOGO
 62
     5
100
AcDbTrace
 10
131.3586525013153
 20
164.2035249203741
 30
0.0
 11
131.7915599464065
 21
164.2035249203741
 31
0.0
 12
131.3586525013153
 22
161.38962652728
 32
0.0
 13
131.7915599464065
 23
161.38962652728
 33
0.0
  0
SOLID
  5
6F0
330
1F
100
AcDbEntity
  8
LOGO
 62
     5
100
AcDbTrace
 10
132.2966330625957
 20
163.5541637527366
 30
0.0
 11
132.7295405076863
 21
163.5541637527366
 31
0.0
 12
132.2966330625957
 22
161.38962652728
 32
0.0
 13
132.7295405076863
 23
161.38962652728
 33
0.0
  0
SOLID
  5
6F1
330
1F
100
AcDbEntity
  8
LOGO
 62
     5
100
AcDbTrace
 10
133.5953553978686
 20
162.6883488625536
 30
0.0
 11
134.0282628429605
 21
162.6883488625536
 31
0.0
 12
133.5953553978686
 22
161.38962652728
 32
0.0
 13
134.0282628429605
 23
161.38962652728
 33
0.0
  0
SOLID
  5
6F2
330
1F
100
AcDbEntity
  8
LOGO
 62
     5
100
AcDbTrace
 10
134.8940777331428
 20
162.6883488625536
 30
0.0
 11
135.3269851782341
 21
162.6883488625536
 31
0.0
 12
134.8940777331428
 22
161.3896265272793
 32
0.0
 13
135.3269851782341
 23
161.3896265272793
 33
0.0
  0
SOLID
  5
6F3
330
1F
100
AcDbEntity
  8
LOGO
 62
     5
100
AcDbTrace
 10
126.452339263116
 20
163.8571989643008
 30
0.0
 11
126.8852467082086
 21
163.8571989643008
 31
0.0
 12
126.452339263116
 22
164.2035249203741
 32
0.0
 13
126.8852467082086
 23
164.2035249203741
 33
0.0
  0
SOLID
  5
6F4
330
1F
100
AcDbEntity
  8
LOGO
 62
     5
100
AcDbTrace
 10
126.452339263116
 20
163.5541637527366
 30
0.0
 11
126.8852467082086
 21
163.5541637527366
 31
0.0
 12
126.452339263116
 22
161.3896265272793
 32
0.0
 13
126.8852467082086
 23
161.38962652728
 33
0.0
  0
SOLID
  5
6F5
330
1F
100
AcDbEntity
  8
LOGO
 62
     5
100
AcDbTrace
 10
130.7093346244217
 20
165.7187009781933
 30
0.0
 11
131.9647662151874
 21
165.7187009781933
 31
0.0
 12
130.7093346244217
 22
172.068010172867
 32
0.0
 13
131.9647662151874
 23
176.6712593390055
 33
0.0
  0
SOLID
  5
6F6
330
1F
100
AcDbEntity
  8
LOGO
 62
     5
100
AcDbTrace
 10
132.4842551492978
 20
177.6236557182064
 30
0.0
 11
133.739686740062
 21
177.623655718207
 31
0.0
 12
132.4842551492978
 22
166.6710973573942
 32
0.0
 13
133.739686740062
 23
171.2743465235327
 33
0.0
  0
SOLID
  5
6F7
330
1F
100
AcDbEntity
  8
LOGO
 62
     2
100
AcDbTrace
 10
131.9647662151874
 20
177.6236557182064
 30
0.0
 11
132.4842551492978
 21
177.6236557182064
 31
0.0
 12
131.9647662151874
 22
165.7187009781933
 32
0.0
 13
132.4842551492978
 23
165.7187009781933
 33
0.0
  0
SOLID
  5
6F8
330
1F
100
AcDbEntity
  8
LOGO
 62
     5
100
AcDbTrace
 10
132.4842551492978
 20
166.6710973573942
 30
0.0
 11
133.739686740062
 21
171.2743465235327
 31
0.0
 12
138.4583778915579
 22
177.623655718207
 32
0.0
 13
137.2029463007936
 23
177.623655718207
 33
0.0
  0
SOLID
  5
6F9
330
1F
100
AcDbEntity
  8
LOGO
 62
     5
100
AcDbTrace
 10
132.4842551492978
 20
165.7187009781933
 30
0.0
 11
133.739686740062
 21
165.7187009781933
 31
0.0
 12
138.4583778915579
 22
176.6712593390055
 32
0.0
 13
137.2029463007936
 23
172.068010172867
 33
0.0
  0
SOLID
  5
6FA
330
1F
100
AcDbEntity
  8
LOGO
 62
     2
100
AcDbTrace
 10
131.9647662151874
 20
165.7187009781933
 30
0.0
 11
132.4842551492978
 21
165.7187009781933
 31
0.0
 12
138.4583778915579
 22
177.623655718207
 32
0.0
 13
138.9778668256683
 23
177.6236557182064
 33
0.0
  0
LWPOLYLINE
  5
6FB
330
1F
100
AcDbEntity
  8
LOGO
 62
     4
100
AcDbPolyline
 90
        4
 70
     1
 43
0.0
 10
121.2032126061581
 20
178.3133904005089
 10
390.6215585735209
 20
178.3133904005089
 10
390.6215585735209
 20
149.2775952873862
 10
121.2032126061581
 20
149.2775952873862
1001
GENIUS_GENREC_14
1002
{
1000
PYDIR
1011
121.2032126061581
1021
149.2775952873862
1031
0.0
1002
}
1002
{
1000
PXDIR
1011
390.6215585735209
1021
178.3133904005089
1031
0.0
1002
}
1002
{
1000
PORI
1011
121.2032126061581
1021
178.3133904005089
1031
0.0
1002
}
1002
{
1000
PINS
1011
121.2032126061581
1021
178.3133904005089
1031
0.0
1002
}
1002
{
1000
PINS2
1011
390.6215585735209
1021
149.2775952873862
1031
0.0
1002
}
1002
{
1000
C
1070
     1
1002
}
1001
GENIUS_GENOBJ-N-REC_13
1002
{
1000
OWNER
1000
GEN
1002
}
1001
GENIUS_GENODEF_13
1002
{
1000
HIER
1070
     0
1002
}
1002
{
1000
MANEDIT
1070
     0
1002
}
1002
{
1000
NOSEL
1070
     0
1002
}
1002
{
1000
BEHIND
1070
     0
1002
}
1002
{
1000
OTHER
1070
     0
1002
}
1002
{
1000
REACTOR
1002
}
  0
TEXT
  5
6FC
330
1F
100
AcDbEntity
  8
LOGO
100
AcDbText
 10
186.6692915335041
 20
150.82228812716
 30
0.0
 40
2.904
  1
10603201
 41
0.7
  7
CHINESET
 72
     1
 11
193.4936915335041
 21
150.82228812716
 31
0.0
100
AcDbText
  0
LINE
  5
6FD
330
1F
100
AcDbEntity
  8
LOGO
 62
     4
100
AcDbLine
 10
202.5059618550257
 20
155.0847543100117
 30
0.0
 11
202.505961855027
 21
149.2775952873869
 31
0.0
  0
LINE
  5
6FE
330
1F
100
AcDbEntity
  8
LOGO
 62
     4
100
AcDbLine
 10
202.5059618550257
 20
155.0847543100117
 30
0.0
 11
185.081961855027
 21
155.0847543100117
 31
0.0
  0
CIRCLE
  5
6FF
330
1F
100
AcDbEntity
  8
LOGO
  6
Continuous
100
AcDbCircle
 10
171.1011057521241
 20
169.6088626443949
 30
0.0
 40
1.685886606825557
  0
CIRCLE
  5
700
330
1F
100
AcDbEntity
  8
LOGO
  6
Continuous
100
AcDbCircle
 10
171.1011057521241
 20
169.6088626443949
 30
0.0
 40
0.9877803085024472
  0
LINE
  5
701
330
1F
100
AcDbEntity
  8
LOGO
100
AcDbLine
 10
181.6954128114252
 20
167.922976037569
 30
0.0
 11
181.6954128114252
 21
171.2947492512207
 31
0.0
  0
LINE
  5
702
330
1F
100
AcDbEntity
  8
LOGO
100
AcDbLine
 10
176.4102550735361
 20
168.6210823358923
 30
0.0
 11
176.4102550735361
 21
170.5966429528975
 31
0.0
  0
LINE
  5
703
330
1F
100
AcDbEntity
  8
LOGO
  6
Continuous
100
AcDbLine
 10
176.4102550735361
 20
170.5966429528975
 30
0.0
 11
181.6954128114252
 21
171.2947492512207
 31
0.0
  0
LINE
  5
704
330
1F
100
AcDbEntity
  8
LOGO
  6
Continuous
100
AcDbLine
 10
176.4102550735361
 20
168.6210823358923
 30
0.0
 11
181.6954128114252
 21
167.922976037569
 31
0.0
  0
LINE
  5
705
330
1F
100
AcDbEntity
  8
LOGO
  6
AM_ISO08W050x2
 48
0.3
100
AcDbLine
 10
168.777085820451
 20
169.6088626443949
 30
0.0
 11
173.4251256837972
 21
169.6088626443949
 31
0.0
1001
GENIUS_GENOREF_13
1005
7A1
  0
LINE
  5
706
330
1F
100
AcDbEntity
  8
LOGO
  6
AM_ISO08W050x2
 48
0.3
100
AcDbLine
 10
171.1011057521241
 20
167.2848427127217
 30
0.0
 11
171.1011057521241
 21
171.932882576068
 31
0.0
1001
GENIUS_GENOREF_13
1005
7A0
  0
LINE
  5
707
330
1F
100
AcDbEntity
  8
LOGO
  6
CENTER
 48
0.5
100
AcDbLine
 10
175.9875893547769
 20
169.6088626443949
 30
0.0
 11
182.2276110866929
 21
169.6088626443949
 31
0.0
1001
GENIUS_GENOREF_13
1005
79F
  0
LINE
  5
708
330
1F
100
AcDbEntity
  8
LOGO
 62
     4
100
AcDbLine
 10
244.3766061012013
 20
162.3437030882923
 30
0.0
 11
244.3766061012013
 21
151.697244880147
 31
0.0
  0
LINE
  5
709
330
1F
100
AcDbEntity
  8
LOGO
 62
     4
100
AcDbLine
 10
225.0194093591197
 20
162.3437030882923
 30
0.0
 11
225.0194093591197
 21
151.697244880147
 31
0.0
  0
LINE
  5
70A
330
1F
100
AcDbEntity
  8
LOGO
 62
     4
100
AcDbLine
 10
244.3766061012013
 20
151.697244880147
 30
0.0
 11
225.0194093591197
 21
151.697244880147
 31
0.0
  0
LINE
  5
70B
330
1F
100
AcDbEntity
  8
LOGO
 62
     4
100
AcDbLine
 10
248.0850946084333
 20
175.4098108891965
 30
0.0
 11
225.0194093591197
 21
175.4098108891965
 31
0.0
  0
LINE
  5
70C
330
1F
100
AcDbEntity
  8
LOGO
 62
     4
100
AcDbLine
 10
248.0850946084333
 20
166.6990723552603
 30
0.0
 11
225.0194093591197
 21
166.6990723552603
 31
0.0
  0
LINE
  5
70D
330
1F
100
AcDbEntity
  8
LOGO
 62
     4
100
AcDbLine
 10
225.0194093591197
 20
175.4098108891965
 30
0.0
 11
225.0194093591197
 21
166.6990723552603
 31
0.0
  0
LINE
  5
70E
330
1F
100
AcDbEntity
  8
LOGO
 62
     4
100
AcDbLine
 10
248.0850946084333
 20
175.4098108891965
 30
0.0
 11
248.0850946084333
 21
166.6990723552603
 31
0.0
  0
LINE
  5
70F
330
1F
100
AcDbEntity
  8
LOGO
 62
     4
100
AcDbLine
 10
235.7079672073598
 20
166.6990723552603
 30
0.0
 11
235.7079672073598
 21
162.3437030882923
 31
0.0
  0
LINE
  5
710
330
1F
100
AcDbEntity
  8
LOGO
 62
     4
100
AcDbLine
 10
244.3766061012013
 20
162.3437030882923
 30
0.0
 11
225.0194093591197
 21
162.3437030882923
 31
0.0
  0
TEXT
  5
711
330
1F
100
AcDbEntity
  8
LOGO
  6
Continuous
100
AcDbText
 10
231.2310725097014
 20
153.1999698798876
 30
190.2958178035923
 40
2.177999999999999
  1
Model
 41
0.8
  7
CHINESET
100
AcDbText
  0
TEXT
  5
712
330
1F
100
AcDbEntity
  8
LOGO
100
AcDbText
 10
230.6513597121266
 20
157.2375124873861
 30
190.2958178035923
 40
3.63
  1
型號
  7
CHINESET
100
AcDbText
  0
LINE
  5
713
330
1F
100
AcDbEntity
  8
LOGO
  6
Continuous
 62
     7
100
AcDbLine
 10
249.0111181078535
 20
171.0235868097195
 30
0.0
 11
252.8574624037138
 21
171.0235868097195
 31
0.0
  0
LINE
  5
714
330
1F
100
AcDbEntity
  8
LOGO
 62
     4
100
AcDbLine
 10
251.3278850668378
 20
162.5370262949183
 30
0.0
 11
251.3278850668378
 21
151.8905680867729
 31
0.0
  0
LINE
  5
715
330
1F
100
AcDbEntity
  8
LOGO
 62
     4
100
AcDbLine
 10
267.7683773904366
 20
151.8905680867729
 30
0.0
 11
251.3278850668378
 21
151.8905680867729
 31
0.0
  0
LINE
  5
716
330
1F
100
AcDbEntity
  8
LOGO
 62
     4
100
AcDbLine
 10
265.2881403142406
 20
175.4098108891965
 30
0.0
 11
254.07078127615
 21
175.4098108891965
 31
0.0
  0
LINE
  5
717
330
1F
100
AcDbEntity
  8
LOGO
 62
     4
100
AcDbLine
 10
265.2881403142406
 20
166.6990723552603
 30
0.0
 11
254.07078127615
 21
166.6990723552603
 31
0.0
  0
LINE
  5
718
330
1F
100
AcDbEntity
  8
LOGO
 62
     4
100
AcDbLine
 10
254.07078127615
 20
175.4098108891965
 30
0.0
 11
254.07078127615
 21
166.6990723552603
 31
0.0
  0
LINE
  5
719
330
1F
100
AcDbEntity
  8
LOGO
 62
     4
100
AcDbLine
 10
265.2881403142406
 20
175.4098108891965
 30
0.0
 11
265.2881403142406
 21
166.6990723552603
 31
0.0
  0
LINE
  5
71A
330
1F
100
AcDbEntity
  8
LOGO
 62
     4
100
AcDbLine
 10
259.679460795195
 20
166.6990723552603
 30
0.0
 11
259.679460795195
 21
162.5370262949183
 31
0.0
  0
LINE
  5
71B
330
1F
100
AcDbEntity
  8
LOGO
 62
     4
100
AcDbLine
 10
267.7683773904366
 20
162.5370262949183
 30
0.0
 11
251.3278850668378
 21
162.5370262949183
 31
0.0
  0
TEXT
  5
71C
330
1F
100
AcDbEntity
  8
LOGO
  6
Continuous
100
AcDbText
 10
255.7054913274944
 20
153.1999698798876
 30
190.2958178035923
 40
2.177999999999999
  1
CODE
 41
0.8
  7
CHINESET
100
AcDbText
  0
TEXT
  5
71D
330
1F
100
AcDbEntity
  8
LOGO
100
AcDbText
 10
255.6849738131477
 20
157.2375124873861
 30
190.2958178035923
 40
3.63
  1
記號
  7
CHINESET
100
AcDbText
  0
TEXT
  5
71E
330
1F
100
AcDbEntity
  8
LOGO
100
AcDbText
 10
230.6513597121266
 20
169.6851628641129
 30
190.2958178035923
 40
3.63
  1
MJT
  7
CHINESET
100
AcDbText
  0
TEXT
  5
71F
330
1F
100
AcDbEntity
  8
LOGO
100
AcDbText
 10
257.1106950080187
 20
169.6851628641129
 30
190.2958178035923
 40
3.63
  1
00
  7
CHINESET
100
AcDbText
  0
LINE
  5
720
330
1F
100
AcDbEntity
  8
LOGO
 62
     4
100
AcDbLine
 10
267.7683773904366
 20
162.5370262949183
 30
0.0
 11
267.7683773904366
 21
151.8905680867729
 31
0.0
  0
LINE
  5
721
330
1F
100
AcDbEntity
  8
AM_7
 62
     1
100
AcDbLine
 10
357.4148560737487
 20
350.0927100021403
 30
0.0
 11
357.4148560737486
 21
262.2369238156808
 31
0.0
  0
LINE
  5
722
330
1F
100
AcDbEntity
  8
AM_VIS
100
AcDbLine
 10
371.9148560737486
 20
283.7021717423571
 30
0.0
 11
371.9148560737486
 21
326.7021717423571
 31
0.0
  0
LINE
  5
723
330
1F
100
AcDbEntity
  8
AM_VIS
100
AcDbLine
 10
342.9148560737486
 20
326.7021717423571
 30
0.0
 11
342.9148560737486
 21
283.7021717423571
 31
0.0
  0
LINE
  5
724
330
1F
100
AcDbEntity
  8
AM_VIS
100
AcDbLine
 10
371.9148560737486
 20
326.7021717423571
 30
0.0
 11
342.9148560737486
 21
326.7021717423571
 31
0.0
  0
LINE
  5
725
330
1F
100
AcDbEntity
  8
AM_VIS
100
AcDbLine
 10
371.9148560737486
 20
283.7021717423571
 30
0.0
 11
342.9148560737486
 21
283.7021717423571
 31
0.0
  0
LINE
  5
726
330
1F
100
AcDbEntity
  8
AM_VIS
100
AcDbLine
 10
350.6325260906233
 20
277.7021717423571
 30
0.0
 11
350.6325260906233
 21
281.2021717423571
 31
0.0
  0
LINE
  5
727
330
1F
100
AcDbEntity
  8
AM_VIS
100
AcDbLine
 10
350.6325260906233
 20
281.2021717423571
 30
0.0
 11
364.1971860568739
 21
281.2021717423571
 31
0.0
  0
LINE
  5
728
330
1F
100
AcDbEntity
  8
AM_VIS
100
AcDbLine
 10
364.1971860568739
 20
281.2021717423571
 30
0.0
 11
364.1971860568739
 21
277.7021717423571
 31
0.0
  0
LINE
  5
729
330
1F
100
AcDbEntity
  8
AM_VIS
100
AcDbLine
 10
348.9148560737486
 20
334.6279697890976
 30
0.0
 11
348.9148560737486
 21
349.1279697890976
 31
0.0
  0
LINE
  5
72A
330
1F
100
AcDbEntity
  8
AM_VIS
100
AcDbLine
 10
357.4148560737486
 20
349.1279697890976
 30
0.0
 11
348.9148560737486
 21
349.1279697890976
 31
0.0
  0
LINE
  5
72B
330
1F
100
AcDbEntity
  8
AM_VIS
100
AcDbLine
 10
365.9148560737486
 20
334.6279697890976
 30
0.0
 11
365.9148560737486
 21
349.1279697890976
 31
0.0
  0
LINE
  5
72C
330
1F
100
AcDbEntity
  8
AM_VIS
100
AcDbLine
 10
365.9148560737486
 20
349.1279697890976
 30
0.0
 11
357.4148560737486
 21
349.1279697890976
 31
0.0
  0
LINE
  5
72D
330
1F
100
AcDbEntity
  8
AM_VIS
100
AcDbLine
 10
357.4148560737486
 20
334.6279697890976
 30
0.0
 11
348.9148560737486
 21
334.6279697890976
 31
0.0
  0
LINE
  5
72E
330
1F
100
AcDbEntity
  8
AM_VIS
100
AcDbLine
 10
365.9148560737486
 20
334.6279697890976
 30
0.0
 11
357.4148560737486
 21
334.6279697890976
 31
0.0
  0
LINE
  5
72F
330
1F
100
AcDbEntity
  8
AM_VIS
100
AcDbLine
 10
356.9657915714499
 20
275.7021717423569
 30
0.0
 11
358.7122681260802
 21
275.7021717423569
 31
0.0
  0
LINE
  5
730
330
1F
100
AcDbEntity
  8
AM_VIS
100
AcDbLine
 10
341.4148560737487
 20
263.2021717423571
 30
0.0
 11
373.4148560737486
 21
263.2021717423571
 31
0.0
  0
LINE
  5
731
330
1F
100
AcDbEntity
  8
AM_VIS
100
AcDbLine
 10
341.4148560737487
 20
269.2021717423571
 30
0.0
 11
341.4148560737487
 21
263.2021717423571
 31
0.0
  0
LINE
  5
732
330
1F
100
AcDbEntity
  8
AM_VIS
100
AcDbLine
 10
361.6648560737486
 20
269.2021717423571
 30
0.0
 11
373.4148560737486
 21
269.2021717423571
 31
0.0
  0
LINE
  5
733
330
1F
100
AcDbEntity
  8
AM_VIS
100
AcDbLine
 10
353.1648560737486
 20
269.2021717423571
 30
0.0
 11
341.4148560737487
 21
269.2021717423571
 31
0.0
  0
LINE
  5
734
330
1F
100
AcDbEntity
  8
AM_VIS
100
AcDbLine
 10
373.4148560737486
 20
269.2021717423571
 30
0.0
 11
373.4148560737486
 21
263.2021717423571
 31
0.0
  0
LINE
  5
735
330
1F
100
AcDbEntity
  8
AM_VIS
100
AcDbLine
 10
346.6648560737486
 20
283.7021717423571
 30
0.0
 11
346.6648560737486
 21
283.2021717423571
 31
0.0
  0
LINE
  5
736
330
1F
100
AcDbEntity
  8
AM_VIS
100
AcDbLine
 10
368.1648560737486
 20
283.7021717423571
 30
0.0
 11
368.1648560737486
 21
283.2021717423571
 31
0.0
  0
LINE
  5
737
330
1F
100
AcDbEntity
  8
AM_VIS
100
AcDbLine
 10
350.6648560737486
 20
283.2021717423571
 30
0.0
 11
350.6648560737486
 21
281.2021717423571
 31
0.0
  0
LINE
  5
738
330
1F
100
AcDbEntity
  8
AM_VIS
100
AcDbLine
 10
364.1648560737487
 20
283.2021717423571
 30
0.0
 11
364.1648560737487
 21
281.2021717423571
 31
0.0
  0
LINE
  5
739
330
1F
100
AcDbEntity
  8
AM_VIS
100
AcDbLine
 10
350.9148560737486
 20
283.7021717423571
 30
0.0
 11
350.9148560737486
 21
281.2021717423571
 31
0.0
  0
LINE
  5
73A
330
1F
100
AcDbEntity
  8
AM_VIS
100
AcDbLine
 10
363.9148560737486
 20
283.7021717423571
 30
0.0
 11
363.9148560737486
 21
281.2021717423571
 31
0.0
  0
LINE
  5
73B
330
1F
100
AcDbEntity
  8
AM_VIS
100
AcDbLine
 10
344.9148560737486
 20
281.2021717423571
 30
0.0
 11
344.9148560737486
 21
275.7021717423571
 31
0.0
  0
LINE
  5
73C
330
1F
100
AcDbEntity
  8
AM_VIS
100
AcDbLine
 10
369.9148560737486
 20
281.2021717423571
 30
0.0
 11
369.9148560737486
 21
275.7021717423571
 31
0.0
  0
LINE
  5
73D
330
1F
100
AcDbEntity
  8
AM_VIS
100
AcDbLine
 10
363.9148560737486
 20
326.7021717423571
 30
0.0
 11
363.9148560737486
 21
330.2021717423571
 31
0.0
  0
LINE
  5
73E
330
1F
100
AcDbEntity
  8
AM_VIS
100
AcDbLine
 10
350.9148560737486
 20
326.7021717423571
 30
0.0
 11
350.9148560737486
 21
330.2021717423571
 31
0.0
  0
LINE
  5
73F
330
1F
100
AcDbEntity
  8
AM_VIS
100
AcDbLine
 10
365.4148560737486
 20
331.6279697890976
 30
0.0
 11
365.4148560737486
 21
334.6279697890976
 31
0.0
  0
LINE
  5
740
330
1F
100
AcDbEntity
  8
AM_VIS
100
AcDbLine
 10
349.4148560737486
 20
331.6279697890976
 30
0.0
 11
349.4148560737486
 21
334.6279697890976
 31
0.0
  0
LINE
  5
741
330
1F
100
AcDbEntity
  8
AM_VIS
100
AcDbLine
 10
370.4148560737487
 20
275.7021717423571
 30
0.0
 11
370.4148560737487
 21
275.5004115720132
 31
0.0
  0
LINE
  5
742
330
1F
100
AcDbEntity
  8
AM_VIS
100
AcDbLine
 10
342.4148560737486
 20
274.5031411277856
 30
0.0
 11
343.4160744123569
 21
274.5031411277856
 31
0.0
  0
LINE
  5
743
330
1F
100
AcDbEntity
  8
AM_VIS
100
AcDbLine
 10
344.4148560737486
 20
275.7021717423571
 30
0.0
 11
344.4148560737486
 21
275.5004115720132
 31
0.0
  0
SPLINE
  5
744
330
1F
100
AcDbEntity
  8
AM_VIS
100
AcDbSpline
210
0.0
220
0.0
230
1.0
 70
     8
 71
     1
 72
     8
 73
     6
 74
     0
 42
0.0000000001
 43
0.0000000001
 40
0.0
 40
0.0
 40
0.3252618491537208
 40
0.6446836130488283
 40
0.964455535910999
 40
1.28381751943194
 40
1.575479251730613
 40
1.575479251730613
 10
343.4160744123569
 20
274.5031411277856
 30
0.0
 10
343.7361302225511
 20
274.5557964337664
 30
0.0
 10
344.0178399375095
 20
274.7046996713215
 30
0.0
 10
344.2383793015831
 20
274.9347859851505
 30
0.0
 10
344.3746987880901
 20
275.220953946118
 30
0.0
 10
344.4148560737486
 20
275.5004115720132
 30
0.0
  0
LINE
  5
745
330
1F
100
AcDbEntity
  8
AM_VIS
100
AcDbLine
 10
371.4136377351404
 20
274.5031411277856
 30
0.0
 11
372.4148560737486
 21
274.5031411277856
 31
0.0
  0
SPLINE
  5
746
330
1F
100
AcDbEntity
  8
AM_VIS
100
AcDbSpline
210
0.0
220
0.0
230
1.0
 70
     8
 71
     1
 72
     9
 73
     7
 74
     0
 42
0.0000000001
 43
0.0000000001
 40
0.0
 40
0.0
 40
0.1850187750287612
 40
0.412716383448644
 40
0.714075221635304
 40
1.031798218760352
 40
1.351452731998196
 40
1.57725542978498
 40
1.57725542978498
 10
370.4148560737487
 20
275.5004115720132
 30
0.0
 10
370.4306944058108
 20
275.3239241965261
 30
0.0
 10
370.4953045067895
 20
275.1087781485663
 30
0.0
 10
370.6533518927086
 20
274.8540427290163
 30
0.0
 10
370.8945197410746
 20
274.6485965712632
 30
0.0
 10
371.1899238672229
 20
274.5285122829174
 30
0.0
 10
371.4136377351404
 20
274.5031411277856
 30
0.0
  0
LINE
  5
747
330
1F
100
AcDbEntity
  8
AM_VIS
100
AcDbLine
 10
368.1648560737486
 20
283.2021717423571
 30
0.0
 11
363.9148560737486
 21
283.2021717423571
 31
0.0
  0
LINE
  5
748
330
1F
100
AcDbEntity
  8
AM_VIS
100
AcDbLine
 10
350.9148560737486
 20
283.2021717423571
 30
0.0
 11
346.6648560737486
 21
283.2021717423571
 31
0.0
  0
LINE
  5
749
330
1F
100
AcDbEntity
  8
AM_VIS
100
AcDbLine
 10
344.9148560737486
 20
281.2021717423571
 30
0.0
 11
350.6325260906233
 21
281.2021717423571
 31
0.0
  0
LINE
  5
74A
330
1F
100
AcDbEntity
  8
AM_VIS
100
AcDbLine
 10
364.1971860568739
 20
281.2021717423571
 30
0.0
 11
369.9148560737486
 21
281.2021717423571
 31
0.0
  0
LINE
  5
74B
330
1F
100
AcDbEntity
  8
AM_VIS
100
AcDbLine
 10
350.6325260906233
 20
277.7021717423571
 30
0.0
 11
364.1971860568739
 21
277.7021717423571
 31
0.0
  0
LINE
  5
74C
330
1F
100
AcDbEntity
  8
AM_VIS
100
AcDbLine
 10
350.9148560737486
 20
330.2021717423571
 30
0.0
 11
363.9148560737486
 21
330.2021717423571
 31
0.0
  0
LINE
  5
74D
330
1F
100
AcDbEntity
  8
AM_VIS
100
AcDbLine
 10
365.4148560737486
 20
331.6279697890976
 30
0.0
 11
349.4148560737486
 21
331.6279697890976
 31
0.0
  0
LINE
  5
74E
330
1F
100
AcDbEntity
  8
AM_VIS
100
AcDbLine
 10
358.7122681260802
 20
275.7021717423571
 30
0.0
 11
370.4148560737487
 21
275.7021717423571
 31
0.0
  0
LINE
  5
74F
330
1F
100
AcDbEntity
  8
AM_VIS
100
AcDbLine
 10
341.4148560737487
 20
269.2021717423571
 30
0.0
 11
341.4148560737487
 21
273.5031411277856
 31
0.0
  0
LINE
  5
750
330
1F
100
AcDbEntity
  8
AM_VIS
100
AcDbLine
 10
344.4148560737486
 20
275.7021717423571
 30
0.0
 11
356.9657915714486
 21
275.7021717423571
 31
0.0
  0
LINE
  5
751
330
1F
100
AcDbEntity
  8
AM_VIS
100
AcDbLine
 10
373.4148560737486
 20
273.5031411277856
 30
0.0
 11
373.4148560737486
 21
269.2021717423571
 31
0.0
  0
ARC
  5
752
330
1F
100
AcDbEntity
  8
AM_VIS
100
AcDbCircle
 10
351.6648560737487
 20
330.9521717423571
 30
0.0
 40
0.75
100
AcDbArc
 50
115.701712112245
 51
270.0
  0
ARC
  5
753
330
1F
100
AcDbEntity
  8
AM_VIS
100
AcDbCircle
 10
363.1648560737486
 20
330.9521717423571
 30
0.0
 40
0.75
100
AcDbArc
 50
270.0
 51
64.29828788775495
  0
ARC
  5
754
330
1F
100
AcDbEntity
  8
AM_VIS
100
AcDbCircle
 10
342.4148560737486
 20
273.5031411277856
 30
0.0
 40
1.0
100
AcDbArc
 50
90.0
 51
180.0
  0
ARC
  5
755
330
1F
100
AcDbEntity
  8
AM_VIS
100
AcDbCircle
 10
372.4148560737486
 20
273.5031411277856
 30
0.0
 40
1.0
100
AcDbArc
 50
0.0
 51
90.0
  0
LINE
  5
756
330
1F
100
AcDbEntity
  8
AM_7
 62
     1
100
AcDbLine
 10
285.5359388588087
 20
400.1005405289021
 30
0.0
 11
287.5359388588087
 21
400.1005405289021
 31
0.0
  0
LINE
  5
757
330
1F
100
AcDbEntity
  8
AM_7
 62
     1
100
AcDbLine
 10
286.5359388588087
 20
399.1005405289021
 30
0.0
 11
286.5359388588087
 21
401.100540528902
 31
0.0
  0
LINE
  5
758
330
1F
100
AcDbEntity
  8
AM_7
 62
     1
100
AcDbLine
 10
272.7859388588087
 20
400.1005405289021
 30
0.0
 11
284.5359388588087
 21
400.1005405289021
 31
0.0
  0
LINE
  5
759
330
1F
100
AcDbEntity
  8
AM_7
 62
     1
100
AcDbLine
 10
288.5359388588087
 20
400.1005405289021
 30
0.0
 11
300.2859388588086
 21
400.1005405289021
 31
0.0
  0
LINE
  5
75A
330
1F
100
AcDbEntity
  8
AM_7
 62
     1
100
AcDbLine
 10
286.5359388588087
 20
386.3505405289021
 30
0.0
 11
286.5359388588087
 21
398.1005405289021
 31
0.0
  0
LINE
  5
75B
330
1F
100
AcDbEntity
  8
AM_7
 62
     1
100
AcDbLine
 10
286.5359388588087
 20
402.1005405289021
 30
0.0
 11
286.5359388588087
 21
413.8505405289021
 31
0.0
  0
LINE
  5
75C
330
1F
100
AcDbEntity
  8
AM_VIS
100
AcDbLine
 10
299.5359388588087
 20
414.6005405289021
 30
0.0
 11
265.0359388588086
 21
414.6005405289021
 31
0.0
  0
LINE
  5
75D
330
1F
100
AcDbEntity
  8
AM_VIS
100
AcDbLine
 10
299.5359388588087
 20
414.6005405289021
 30
0.0
 11
299.5359388588087
 21
385.6005405289021
 31
0.0
  0
LINE
  5
75E
330
1F
100
AcDbEntity
  8
AM_VIS
100
AcDbLine
 10
265.0359388588086
 20
385.6005405289021
 30
0.0
 11
299.5359388588087
 21
385.6005405289021
 31
0.0
  0
LINE
  5
75F
330
1F
100
AcDbEntity
  8
AM_VIS
100
AcDbLine
 10
265.0359388588086
 20
414.6005405289021
 30
0.0
 11
265.0359388588086
 21
385.6005405289021
 31
0.0
  0
LINE
  5
760
330
1F
100
AcDbEntity
  8
AM_VIS
100
AcDbLine
 10
265.0359388588086
 20
414.6005405289021
 30
0.0
 11
260.0359388588087
 21
414.6005405289021
 31
0.0
  0
LINE
  5
761
330
1F
100
AcDbEntity
  8
AM_VIS
100
AcDbLine
 10
265.0359388588086
 20
385.6005405289021
 30
0.0
 11
260.0359388588087
 21
385.6005405289021
 31
0.0
  0
LINE
  5
762
330
1F
100
AcDbEntity
  8
AM_VIS
100
AcDbLine
 10
260.0359388588087
 20
414.6005405289021
 30
0.0
 11
260.0359388588087
 21
385.6005405289021
 31
0.0
  0
LINE
  5
763
330
1F
100
AcDbEntity
  8
AM_VIS
100
AcDbLine
 10
256.0359388588087
 20
413.4005405289021
 30
0.0
 11
256.0359388588087
 21
386.8005405289022
 31
0.0
  0
LINE
  5
764
330
1F
100
AcDbEntity
  8
AM_VIS
100
AcDbLine
 10
260.0359388588087
 20
414.400540528902
 30
0.0
 11
256.0359388588087
 21
414.400540528902
 31
0.0
  0
LINE
  5
765
330
1F
100
AcDbEntity
  8
AM_VIS
100
AcDbLine
 10
260.0359388588087
 20
385.8005405289021
 30
0.0
 11
256.0359388588087
 21
385.8005405289021
 31
0.0
  0
LINE
  5
766
330
1F
100
AcDbEntity
  8
AM_VIS
100
AcDbLine
 10
233.0359388588087
 20
412.9005405289021
 30
0.0
 11
233.0359388588087
 21
387.3005405289021
 31
0.0
  0
LINE
  5
767
330
1F
100
AcDbEntity
  8
AM_VIS
100
AcDbLine
 10
256.0359388588087
 20
412.9005405289021
 30
0.0
 11
233.0359388588087
 21
412.9005405289021
 31
0.0
  0
LINE
  5
768
330
1F
100
AcDbEntity
  8
AM_VIS
100
AcDbLine
 10
256.0359388588087
 20
387.3005405289021
 30
0.0
 11
233.0359388588087
 21
387.3005405289021
 31
0.0
  0
LINE
  5
769
330
1F
100
AcDbEntity
  8
AM_VIS
100
AcDbLine
 10
281.6284615706969
 20
408.6005405289021
 30
0.0
 11
291.4434161469205
 21
408.6005405289021
 31
0.0
  0
LINE
  5
76A
330
1F
100
AcDbEntity
  8
AM_VIS
100
AcDbLine
 10
276.7209842825851
 20
400.1005405289021
 30
0.0
 11
281.6284615706969
 21
408.6005405289021
 31
0.0
  0
LINE
  5
76B
330
1F
100
AcDbEntity
  8
AM_VIS
100
AcDbLine
 10
281.6284615706969
 20
391.6005405289021
 30
0.0
 11
276.7209842825851
 21
400.1005405289021
 31
0.0
  0
LINE
  5
76C
330
1F
100
AcDbEntity
  8
AM_VIS
100
AcDbLine
 10
291.4434161469205
 20
391.6005405289021
 30
0.0
 11
281.6284615706969
 21
391.6005405289021
 31
0.0
  0
LINE
  5
76D
330
1F
100
AcDbEntity
  8
AM_VIS
100
AcDbLine
 10
296.3508934350323
 20
400.1005405289021
 30
0.0
 11
291.4434161469205
 21
391.6005405289021
 31
0.0
  0
LINE
  5
76E
330
1F
100
AcDbEntity
  8
AM_VIS
100
AcDbLine
 10
291.4434161469205
 20
408.6005405289021
 30
0.0
 11
296.3508934350323
 21
400.1005405289021
 31
0.0
  0
LINE
  5
76F
330
1F
100
AcDbEntity
  8
AM_VIS
100
AcDbLine
 10
301.5359388588087
 20
404.8073430558428
 30
0.0
 11
301.5359388588087
 21
416.1005405289021
 31
0.0
  0
LINE
  5
770
330
1F
100
AcDbEntity
  8
AM_VIS
100
AcDbLine
 10
301.5359388588087
 20
396.3073430558428
 30
0.0
 11
301.5359388588087
 21
384.1005405289021
 31
0.0
  0
LINE
  5
771
330
1F
100
AcDbEntity
  8
AM_VIS
100
AcDbLine
 10
289.6012445257039
 20
384.1005405289021
 30
0.0
 11
301.5359388588087
 21
384.1005405289021
 31
0.0
  0
LINE
  5
772
330
1F
100
AcDbEntity
  8
AM_VIS
100
AcDbLine
 10
281.1012445257039
 20
384.1005405289021
 30
0.0
 11
269.5359388588087
 21
384.1005405289021
 31
0.0
  0
LINE
  5
773
330
1F
100
AcDbEntity
  8
AM_VIS
100
AcDbLine
 10
269.5359388588087
 20
385.6005405289021
 30
0.0
 11
269.5359388588087
 21
384.1005405289021
 31
0.0
  0
LINE
  5
774
330
1F
100
AcDbEntity
  8
AM_VIS
100
AcDbLine
 10
289.6012445257039
 20
416.1005405289021
 30
0.0
 11
301.5359388588087
 21
416.1005405289021
 31
0.0
  0
LINE
  5
775
330
1F
100
AcDbEntity
  8
AM_VIS
100
AcDbLine
 10
269.5359388588087
 20
414.6005405289021
 30
0.0
 11
269.5359388588087
 21
416.1005405289021
 31
0.0
  0
LINE
  5
776
330
1F
100
AcDbEntity
  8
AM_VIS
100
AcDbLine
 10
281.1012445257039
 20
416.1005405289021
 30
0.0
 11
269.5359388588087
 21
416.1005405289021
 31
0.0
  0
LINE
  5
777
330
1F
100
AcDbEntity
  8
AM_VIS
100
AcDbLine
 10
299.5359388588087
 20
394.8505405289021
 30
0.0
 11
300.5359388588086
 21
394.8505405289021
 31
0.0
  0
LINE
  5
778
330
1F
100
AcDbEntity
  8
AM_VIS
100
AcDbLine
 10
299.5359388588087
 20
405.3505405289021
 30
0.0
 11
300.5359388588086
 21
405.3505405289021
 31
0.0
  0
LINE
  5
779
330
1F
100
AcDbEntity
  8
AM_VIS
100
AcDbLine
 10
291.7859388588087
 20
385.1005405289021
 30
0.0
 11
291.7859388588087
 21
385.6005405289021
 31
0.0
  0
LINE
  5
77A
330
1F
100
AcDbEntity
  8
AM_VIS
100
AcDbLine
 10
281.2859388588087
 20
385.1005405289021
 30
0.0
 11
281.2859388588087
 21
385.6005405289021
 31
0.0
  0
LINE
  5
77B
330
1F
100
AcDbEntity
  8
AM_VIS
100
AcDbLine
 10
291.7859388588087
 20
414.6005405289021
 30
0.0
 11
291.7859388588087
 21
415.1005405289021
 31
0.0
  0
LINE
  5
77C
330
1F
100
AcDbEntity
  8
AM_VIS
100
AcDbLine
 10
281.2859388588087
 20
414.6005405289021
 30
0.0
 11
281.2859388588087
 21
415.1005405289021
 31
0.0
  0
LINE
  5
77D
330
1F
100
AcDbEntity
  8
AM_VIS
100
AcDbLine
 10
256.0359388588087
 20
385.8005405289021
 30
0.0
 11
256.0359388588087
 21
386.8005405289021
 31
0.0
  0
LINE
  5
77E
330
1F
100
AcDbEntity
  8
AM_VIS
100
AcDbLine
 10
256.0359388588087
 20
413.4005405289021
 30
0.0
 11
256.0359388588087
 21
414.400540528902
 31
0.0
  0
CIRCLE
  5
77F
330
1F
100
AcDbEntity
  8
AM_VIS
100
AcDbCircle
 10
286.5359388588087
 20
400.1005405289021
 30
0.0
 40
11.75
  0
CIRCLE
  5
780
330
1F
100
AcDbEntity
  8
AM_VIS
100
AcDbCircle
 10
286.5359388588087
 20
400.1005405289021
 30
0.0
 40
5.5
  0
LINE
  5
781
330
1F
100
AcDbEntity
  8
AM_VIS
100
AcDbLine
 10
301.5359388588087
 20
404.8073430558428
 30
0.0
 11
301.5359388588087
 21
396.3073430558428
 31
0.0
  0
LINE
  5
782
330
1F
100
AcDbEntity
  8
AM_VIS
100
AcDbLine
 10
289.6012445257039
 20
384.1005405289021
 30
0.0
 11
281.1012445257039
 21
384.1005405289021
 31
0.0
  0
LINE
  5
783
330
1F
100
AcDbEntity
  8
AM_VIS
100
AcDbLine
 10
281.1012445257039
 20
416.1005405289021
 30
0.0
 11
289.6012445257039
 21
416.1005405289021
 31
0.0
  0
ARC
  5
784
330
1F
100
AcDbEntity
  8
AM_VIS
100
AcDbCircle
 10
300.5359388588086
 20
395.8505405289021
 30
0.0
 40
1.0
100
AcDbArc
 50
270.0
 51
0.0
  0
ARC
  5
785
330
1F
100
AcDbEntity
  8
AM_VIS
100
AcDbCircle
 10
300.5359388588086
 20
404.3505405289021
 30
0.0
 40
1.0
100
AcDbArc
 50
0.0
 51
90.0
  0
ARC
  5
786
330
1F
100
AcDbEntity
  8
AM_VIS
100
AcDbCircle
 10
290.7859388588087
 20
385.1005405289021
 30
0.0
 40
1.0
100
AcDbArc
 50
270.0
 51
0.0
  0
ARC
  5
787
330
1F
100
AcDbEntity
  8
AM_VIS
100
AcDbCircle
 10
282.2859388588087
 20
385.1005405289021
 30
0.0
 40
1.0
100
AcDbArc
 50
180.0
 51
270.0
  0
ARC
  5
788
330
1F
100
AcDbEntity
  8
AM_VIS
100
AcDbCircle
 10
290.7859388588087
 20
415.1005405289021
 30
0.0
 40
1.0
100
AcDbArc
 50
0.0
 51
90.0
  0
ARC
  5
789
330
1F
100
AcDbEntity
  8
AM_VIS
100
AcDbCircle
 10
282.2859388588087
 20
415.1005405289021
 30
0.0
 40
1.0
100
AcDbArc
 50
90.0
 51
180.0
  0
ARC
  5
78A
330
1F
100
AcDbEntity
  8
0
100
AcDbCircle
 10
357.4148560737486
 20
269.2021717423571
 30
0.0
 40
5.25
100
AcDbArc
 50
0.0
 51
180.0
  0
ARC
  5
78B
330
1F
100
AcDbEntity
  8
0
100
AcDbCircle
 10
164.9798486068379
 20
269.2021717423571
 30
0.0
 40
5.25
100
AcDbArc
 50
0.0
 51
180.0
  0
DIMENSION
  5
78C
330
1F
100
AcDbEntity
  8
0
100
AcDbDimension
  2
*D14
 10
286.5359388588087
 20
357.2629393717933
 30
0.0
 11
260.0359388588087
 21
359.7629393717933
 31
0.0
 70
    32
 71
     5
 42
53.00000000000003
  3
STANDARD
100
AcDbAlignedDimension
 13
233.5359388588087
 23
324.8721717423571
 33
0.0
 14
286.5359388588087
 24
350.8777536669466
 34
0.0
100
AcDbRotatedDimension
1001
ACAD
1000
DSTYLE
1002
{
1070
   176
1070
     5
1070
   177
1070
     5
1070
   178
1070
     5
1070
   272
1070
     8
1002
}
  0
ARC
  5
78D
330
1F
100
AcDbEntity
  8
0
100
AcDbCircle
 10
286.5359388588087
 20
269.2021717423571
 30
0.0
 40
5.25
100
AcDbArc
 50
0.0
 51
180.0
  0
DIMENSION
  5
78E
330
1F
100
AcDbEntity
  8
0
100
AcDbDimension
  2
*D15
 10
286.5359388588087
 20
237.9821541574689
 30
0.0
 11
281.4359388588087
 21
242.9821541574689
 31
0.0
 70
    32
 71
     5
 42
10.19999999999999
  3
STANDARD
100
AcDbAlignedDimension
 13
276.3359388588087
 23
224.086173690145
 33
0.0
 14
286.5359388588087
 24
224.086173690145
 34
0.0
100
AcDbRotatedDimension
1001
ACAD
1000
DSTYLE
1002
{
1070
   178
1070
     5
1070
   177
1070
     5
1070
   176
1070
     5
1070
   272
1070
     8
1002
}
  0
DIMENSION
  5
78F
330
1F
100
AcDbEntity
  8
0
100
AcDbDimension
  2
*D16
 10
301.5359388588087
 20
422.5796791128169
 30
0.0
 11
267.2859388588086
 21
425.0796791128169
 31
0.0
 70
    32
 71
     5
 42
68.49999999999997
  3
STANDARD
100
AcDbAlignedDimension
 13
233.0359388588087
 23
412.9005405289021
 33
0.0
 14
301.5359388588087
 24
416.1005405289021
 34
0.0
100
AcDbRotatedDimension
1001
ACAD
1000
DSTYLE
1002
{
1070
   176
1070
     5
1070
   177
1070
     5
1070
   178
1070
     5
1070
   272
1070
     8
1002
}
  0
MTEXT
  5
790
330
1F
100
AcDbEntity
  8
AM_6
100
AcDbMText
 10
272.5079346096367
 20
195.5207584400703
 30
0.0
 40
3.5
 41
7.567957813565726
 71
     1
 72
     5
  1
{\C5;%%C9}
 73
     1
 44
1.0
1001
GENIUS_AMGTXT_16
1040
3.5
1040
0.12
1001
ACAD
1000
MTEXTBEGIN
1070
    73
1070
     1
1070
    44
1040
1.0
1070
    74
1070
     0
1000
MTEXTEND
  0
MTEXT
  5
791
330
1F
100
AcDbEntity
  8
AM_6
100
AcDbMText
 10
303.6759576276994
 20
248.5759371954279
 30
0.0
 40
3.5
 41
7.567957813565726
 71
     1
 72
     5
  1
{\C5;%%C4.3}
 73
     1
 44
1.0
1001
GENIUS_AMGTXT_16
1040
3.5
1040
0.12
1001
ACAD
1000
MTEXTBEGIN
1070
    73
1070
     1
1070
    44
1040
1.0
1070
    74
1070
     0
1000
MTEXTEND
  0
MTEXT
  5
792
330
1F
100
AcDbEntity
  8
AM_6
100
AcDbMText
 10
146.0715871468197
 20
368.0171252564381
 30
0.0
 40
3.5
 41
7.567957813565726
 71
     1
 72
     5
  1
{\C5;G1/4}
 73
     1
 44
1.0
1001
GENIUS_AMGTXT_16
1040
3.5
1040
0.12
1001
ACAD
1000
MTEXTBEGIN
1070
    73
1070
     1
1070
    44
1040
1.0
1070
    74
1070
     0
1000
MTEXTEND
  0
LINE
  5
793
330
1F
100
AcDbEntity
  8
LOGO
 62
     4
100
AcDbLine
 10
272.8987526528833
 20
162.5370262949183
 30
0.0
 11
272.8987526528833
 21
151.8905680867729
 31
0.0
  0
LINE
  5
794
330
1F
100
AcDbEntity
  8
LOGO
 62
     4
100
AcDbLine
 10
289.3392449764822
 20
151.8905680867729
 30
0.0
 11
272.8987526528833
 21
151.8905680867729
 31
0.0
  0
LINE
  5
795
330
1F
100
AcDbEntity
  8
LOGO
 62
     4
100
AcDbLine
 10
286.8590079002861
 20
175.4098108891965
 30
0.0
 11
275.6416488621955
 21
175.4098108891965
 31
0.0
  0
LINE
  5
796
330
1F
100
AcDbEntity
  8
LOGO
 62
     4
100
AcDbLine
 10
286.8590079002861
 20
166.6990723552603
 30
0.0
 11
275.6416488621955
 21
166.6990723552603
 31
0.0
  0
LINE
  5
797
330
1F
100
AcDbEntity
  8
LOGO
 62
     4
100
AcDbLine
 10
275.6416488621955
 20
175.4098108891965
 30
0.0
 11
275.6416488621955
 21
166.6990723552603
 31
0.0
  0
LINE
  5
798
330
1F
100
AcDbEntity
  8
LOGO
 62
     4
100
AcDbLine
 10
286.8590079002861
 20
175.4098108891965
 30
0.0
 11
286.8590079002861
 21
166.6990723552603
 31
0.0
  0
LINE
  5
799
330
1F
100
AcDbEntity
  8
LOGO
 62
     4
100
AcDbLine
 10
281.2503283812405
 20
166.6990723552603
 30
0.0
 11
281.2503283812405
 21
162.5370262949183
 31
0.0
  0
LINE
  5
79A
330
1F
100
AcDbEntity
  8
LOGO
 62
     4
100
AcDbLine
 10
289.3392449764822
 20
162.5370262949183
 30
0.0
 11
272.8987526528833
 21
162.5370262949183
 31
0.0
  0
TEXT
  5
79B
330
1F
100
AcDbEntity
  8
LOGO
100
AcDbText
 10
277.2558413991932
 20
154.8115439032046
 30
190.2958178035923
 40
3.63
  1
FIG.
  7
CHINESET
100
AcDbText
  0
TEXT
  5
79C
330
1F
100
AcDbEntity
  8
LOGO
100
AcDbText
 10
280.434196008575
 20
169.6851628641129
 30
190.2958178035923
 40
3.63
  1
1
  7
CHINESET
100
AcDbText
  0
LINE
  5
79D
330
1F
100
AcDbEntity
  8
LOGO
 62
     4
100
AcDbLine
 10
289.3392449764822
 20
162.5370262949183
 30
0.0
 11
289.3392449764822
 21
151.8905680867729
 31
0.0
  0
LINE
  5
79E
330
1F
100
AcDbEntity
  8
LOGO
  6
Continuous
 62
     7
100
AcDbLine
 10
267.0767200123882
 20
171.0235868097195
 30
0.0
 11
273.173509443266
 21
171.0235868097195
 31
0.0
  0
POINT
  5
79F
330
1F
100
AcDbEntity
  8
0
 60
     1
100
AcDbPoint
 10
-1944.004051949393
 20
-731.1761153951011
 30
0.0
1001
GENIUS_GENOBJ-N-CRS_13
1002
{
1000
OWNER
1000
GEN
1002
}
1001
GENIUS_GENOLIS_13
1002
{
1000
ENT
1005
0
1005
0
1005
0
1005
707
1002
}
1001
GENIUS_GENOENT_13
1002
{
1000
MYREF
1005
79F
1002
}
1002
{
1000
GRP
1005
0
1002
}
1001
GENIUS_GENODEF_13
1002
{
1000
HIER
1070
    10
1002
}
1002
{
1000
MANEDIT
1070
     1
1002
}
1002
{
1000
NOSEL
1070
     0
1002
}
1002
{
1000
BEHIND
1070
     0
1002
}
1002
{
1000
OTHER
1070
     0
1002
}
1002
{
1000
REACTOR
1002
}
  0
POINT
  5
7A0
330
1F
100
AcDbEntity
  8
0
 60
     1
100
AcDbPoint
 10
-1955.328637172247
 20
-722.3005289164649
 30
0.0
1001
GENIUS_GENOBJ-N-CRS_13
1002
{
1000
OWNER
1000
GEN
1002
}
1001
GENIUS_GENOLIS_13
1002
{
1000
ENT
1005
0
1005
0
1005
0
1005
706
1002
}
1001
GENIUS_GENOENT_13
1002
{
1000
MYREF
1005
7A0
1002
}
1002
{
1000
GRP
1005
0
1002
}
1001
GENIUS_GENODEF_13
1002
{
1000
HIER
1070
    10
1002
}
1002
{
1000
MANEDIT
1070
     1
1002
}
1002
{
1000
NOSEL
1070
     0
1002
}
1002
{
1000
BEHIND
1070
     0
1002
}
1002
{
1000
OTHER
1070
     0
1002
}
1002
{
1000
REACTOR
1002
}
  0
POINT
  5
7A1
330
1F
100
AcDbEntity
  8
0
 60
     1
100
AcDbPoint
 10
-1948.96996347441
 20
-731.1761153951011
 30
0.0
1001
GENIUS_GENOBJ-N-CRS_13
1002
{
1000
OWNER
1000
GEN
1002
}
1001
GENIUS_GENOLIS_13
1002
{
1000
ENT
1005
0
1005
0
1005
0
1005
705
1002
}
1001
GENIUS_GENOENT_13
1002
{
1000
MYREF
1005
7A1
1002
}
1002
{
1000
GRP
1005
0
1002
}
1001
GENIUS_GENODEF_13
1002
{
1000
HIER
1070
    10
1002
}
1002
{
1000
MANEDIT
1070
     1
1002
}
1002
{
1000
NOSEL
1070
     0
1002
}
1002
{
1000
BEHIND
1070
     0
1002
}
1002
{
1000
OTHER
1070
     0
1002
}
1002
{
1000
REACTOR
1002
}
  0
ENDSEC
  0
SECTION
  2
OBJECTS
  0
DICTIONARY
  5
C
330
0
100
AcDbDictionary
281
     1
  3
ACAD_COLOR
350
BE
  3
ACAD_GROUP
350
D
  3
ACAD_LAYOUT
350
1A
  3
ACAD_MATERIAL
350
BD
  3
ACAD_MLINESTYLE
350
17
  3
ACAD_PLOTSETTINGS
350
19
  3
ACAD_PLOTSTYLENAME
350
E
  3
ACAD_TABLESTYLE
350
11A
  3
ACDBHEADERROUNDTRIPXREC
350
844
  3
AcDbVariableDictionary
350
94
  3
AcmDictionary
350
5B
  3
AMG
350
41
  3
AMGSNAPSETTINGS
350
1B8
  3
DWGPROPS
350
843
  0
DICTIONARY
  5
3BB
330
2
100
AcDbDictionary
280
     1
281
     1
  3
ACAD_LAYERSTATES
360
3BC
  0
DICTIONARY
  5
8F
330
1F
100
AcDbDictionary
280
     1
281
     1
  0
DICTIONARY
  5
BE
102
{ACAD_REACTORS
330
C
102
}
330
C
100
AcDbDictionary
281
     1
  0
DICTIONARY
  5
D
102
{ACAD_REACTORS
330
C
102
}
330
C
100
AcDbDictionary
281
     1
  0
DICTIONARY
  5
1A
102
{ACAD_REACTORS
330
C
102
}
330
C
100
AcDbDictionary
281
     1
  3
Model
350
22
  3
配置1
350
1E
  3
配置2
350
26
  0
DICTIONARY
  5
BD
102
{ACAD_REACTORS
330
C
102
}
330
C
100
AcDbDictionary
281
     1
  0
DICTIONARY
  5
17
102
{ACAD_REACTORS
330
C
102
}
330
C
100
AcDbDictionary
281
     1
  3
Standard
350
18
  0
DICTIONARY
  5
19
102
{ACAD_REACTORS
330
C
102
}
330
C
100
AcDbDictionary
281
     1
  0
ACDBDICTIONARYWDFLT
  5
E
102
{ACAD_REACTORS
330
C
102
}
330
C
100
AcDbDictionary
281
     1
  3
Normal
350
F
100
AcDbDictionaryWithDefault
340
F
  0
DICTIONARY
  5
11A
102
{ACAD_REACTORS
330
C
102
}
330
C
100
AcDbDictionary
281
     1
  3
Standard
350
11B
  0
DICTIONARY
  5
844
102
{ACAD_REACTORS
330
C
102
}
330
C
100
AcDbDictionary
281
     1
  0
DICTIONARY
  5
94
102
{ACAD_REACTORS
330
C
102
}
330
C
100
AcDbDictionary
281
     1
  3
CTABLESTYLE
350
138
  3
DIMASSOC
350
96
  3
INDEXCTL
350
95
  3
PROJECTNAME
350
841
  0
DICTIONARY
  5
5B
102
{ACAD_REACTORS
330
C
102
}
330
C
100
AcDbDictionary
281
     1
  3
AcmBOM
350
1B5
  3
AcmStdDictionary
350
61
  3
AMDTSECTSYM_ARROWCOLOR
350
123
  0
DICTIONARY
  5
41
102
{ACAD_REACTORS
330
C
102
}
330
C
100
AcDbDictionary
281
     1
  0
DICTIONARY
  5
1B8
102
{ACAD_REACTORS
330
C
102
}
330
C
100
AcDbDictionary
281
     1
  0
XRECORD
  5
843
102
{ACAD_REACTORS
330
C
102
}
330
C
100
AcDbXrecord
280
     1
  1
DWGPROPS COOKIE
  2

  3

  4

  6

  7

  8

  9

300
AmdtFileType=84
301
=
302
=
303
=
304
=
305
=
306
=
307
=
308
=
309
=
 40
0.0304027430555556
 41
2453883.433051574
 42
2453883.463453588
  1

 90
        1
  0
DICTIONARY
  5
3BC
102
{ACAD_REACTORS
330
3BB
102
}
330
3BB
100
AcDbDictionary
281
     1
  0
LAYOUT
  5
22
102
{ACAD_XDICTIONARY
360
847
102
}
102
{ACAD_REACTORS
330
1A
102
}
330
1A
100
AcDbPlotSettings
  1

  2
\\RDS1\iR3300影印機
  4
A4
  6

 40
6.805083274841308
 41
5.619736671447753
 42
6.974411010742187
 43
5.027069091796875
 44
209.9733276367187
 45
296.9259948730469
 46
0.0
 47
0.0
 48
0.0
 49
0.0
140
0.0
141
0.0
142
1.0
143
1.491605352783027
 70
 11952
 72
     1
 73
     1
 74
     0
  7
彩色出圖.ctb
 75
     0
147
0.6704186185268152
148
-77.54785872577599
149
-148.1557092825987
100
AcDbLayout
  1
Model
 70
     1
 71
     0
 10
0.0
 20
0.0
 11
12.0
 21
9.0
 12
0.0
 22
0.0
 32
0.0
 14
0.0
 24
0.0
 34
0.0
 15
0.0
 25
0.0
 35
0.0
146
0.0
 13
0.0
 23
0.0
 33
0.0
 16
1.0
 26
0.0
 36
0.0
 17
0.0
 27
1.0
 37
0.0
 76
     0
330
1F
1001
ACAD_PSEXT
1000
\\RDS1\iR3300影印機
1000
Canon iR2200-3300 PCL5e
1000
\\RDS1
1000

1070
     0
  0
LAYOUT
  5
1E
102
{ACAD_XDICTIONARY
360
845
102
}
102
{ACAD_REACTORS
330
1A
102
}
330
1A
100
AcDbPlotSettings
  1

  2

  4

  6

 40
0.0
 41
0.0
 42
0.0
 43
0.0
 44
0.0
 45
0.0
 46
0.0
 47
0.0
 48
0.0
 49
0.0
140
0.0
141
0.0
142
1.0
143
1.0
 70
   688
 72
     0
 73
     0
 74
     5
  7
彩色出圖.ctb
 75
    16
147
1.0
148
0.0
149
0.0
100
AcDbLayout
  1
配置1
 70
     1
 71
     1
 10
0.0
 20
0.0
 11
420.0
 21
297.0
 12
0.0
 22
0.0
 32
0.0
 14
1.000000000000000E+20
 24
1.000000000000000E+20
 34
1.000000000000000E+20
 15
-1.000000000000000E+20
 25
-1.000000000000000E+20
 35
-1.000000000000000E+20
146
0.0
 13
0.0
 23
0.0
 33
0.0
 16
1.0
 26
0.0
 36
0.0
 17
0.0
 27
1.0
 37
0.0
 76
     0
330
1B
  0
LAYOUT
  5
26
102
{ACAD_XDICTIONARY
360
849
102
}
102
{ACAD_REACTORS
330
1A
102
}
330
1A
100
AcDbPlotSettings
  1

  2

  4

  6

 40
0.0
 41
0.0
 42
0.0
 43
0.0
 44
0.0
 45
0.0
 46
0.0
 47
0.0
 48
0.0
 49
0.0
140
0.0
141
0.0
142
1.0
143
1.0
 70
   688
 72
     0
 73
     0
 74
     5
  7
彩色出圖.ctb
 75
    16
147
1.0
148
0.0
149
0.0
100
AcDbLayout
  1
配置2
 70
     1
 71
     2
 10
0.0
 20
0.0
 11
12.0
 21
9.0
 12
0.0
 22
0.0
 32
0.0
 14
0.0
 24
0.0
 34
0.0
 15
0.0
 25
0.0
 35
0.0
146
0.0
 13
0.0
 23
0.0
 33
0.0
 16
1.0
 26
0.0
 36
0.0
 17
0.0
 27
1.0
 37
0.0
 76
     0
330
23
  0
MLINESTYLE
  5
18
102
{ACAD_REACTORS
330
17
102
}
330
17
100
AcDbMlineStyle
  2
STANDARD
 70
     0
  3

 62
   256
 51
90.0
 52
90.0
 71
     2
 49
0.5
 62
   256
  6
BYLAYER
 49
-0.5
 62
   256
  6
BYLAYER
  0
ACDBPLACEHOLDER
  5
F
102
{ACAD_REACTORS
330
E
102
}
330
E
  0
TABLESTYLE
  5
11B
102
{ACAD_REACTORS
330
11A
102
}
330
11A
100
AcDbTableStyle
  3
Standard
 70
     0
 71
     0
 40
1.5
 41
1.5
280
     0
281
     0
  7
STANDARD
140
4.5
170
     2
 62
     0
 63
     7
283
     0
274
    -2
284
     1
 64
     0
275
    -2
285
     1
 65
     0
276
    -2
286
     1
 66
     0
277
    -2
287
     1
 67
     0
278
    -2
288
     1
 68
     0
279
    -2
289
     1
 69
     0
  7
STANDARD
140
6.0
170
     5
 62
     0
 63
     7
283
     0
274
    -2
284
     1
 64
     0
275
    -2
285
     1
 65
     0
276
    -2
286
     1
 66
     0
277
    -2
287
     1
 67
     0
278
    -2
288
     1
 68
     0
279
    -2
289
     1
 69
     0
  7
STANDARD
140
4.5
170
     5
 62
     0
 63
     7
283
     0
274
    -2
284
     1
 64
     0
275
    -2
285
     1
 65
     0
276
    -2
286
     1
 66
     0
277
    -2
287
     1
 67
     0
278
    -2
288
     1
 68
     0
279
    -2
289
     1
 69
     0
  0
DICTIONARYVAR
  5
138
102
{ACAD_REACTORS
330
94
102
}
330
94
100
DictionaryVariables
280
     0
  1
STANDARD
  0
DICTIONARYVAR
  5
96
102
{ACAD_REACTORS
330
94
102
}
330
94
100
DictionaryVariables
280
     0
  1
2
  0
DICTIONARYVAR
  5
95
102
{ACAD_REACTORS
330
94
102
}
330
94
100
DictionaryVariables
280
     0
  1
0
  0
DICTIONARYVAR
  5
841
102
{ACAD_REACTORS
330
94
102
}
330
94
100
DictionaryVariables
280
     0
  1

  0
DICTIONARY
  5
1B5
102
{ACAD_REACTORS
330
5B
102
}
330
5B
100
AcDbDictionary
281
     1
  0
DICTIONARY
  5
61
102
{ACAD_REACTORS
330
5B
102
}
330
5B
100
AcDbDictionary
281
     1
  0
XRECORD
  5
123
102
{ACAD_REACTORS
330
5B
102
}
330
5B
100
AcDbXrecord
280
     1
 90
-1023410169
  0
DICTIONARY
  5
847
330
22
100
AcDbDictionary
280
     1
281
     1
  3
ACAD_XREC_ROUNDTRIP
360
848
  0
DICTIONARY
  5
845
330
1E
100
AcDbDictionary
280
     1
281
     1
  3
ACAD_XREC_ROUNDTRIP
360
846
  0
DICTIONARY
  5
849
330
26
100
AcDbDictionary
280
     1
281
     1
  3
ACAD_XREC_ROUNDTRIP
360
84A
  0
XRECORD
  5
848
102
{ACAD_REACTORS
330
847
102
}
330
847
100
AcDbXrecord
280
     1
102
SHADEPLOT
 70
     0
102
SHADEPLOTRESLEVEL
 70
     2
102
SHADEPLOTCUSTOMDPI
 70
   300
  0
XRECORD
  5
846
102
{ACAD_REACTORS
330
845
102
}
330
845
100
AcDbXrecord
280
     1
102
SHADEPLOT
 70
     0
102
SHADEPLOTRESLEVEL
 70
     2
102
SHADEPLOTCUSTOMDPI
 70
   300
  0
XRECORD
  5
84A
102
{ACAD_REACTORS
330
849
102
}
330
849
100
AcDbXrecord
280
     1
102
SHADEPLOT
 70
     0
102
SHADEPLOTRESLEVEL
 70
     2
102
SHADEPLOTCUSTOMDPI
 70
   300
  0
ENDSEC
  0
EOF
