  0
SECTION
  2
HEADER
  9
$ACADVER
  1
AC1015
  9
$ACADMAINTVER
 70
    20
  9
$DWGCODEPAGE
  3
ANSI_950
  9
$INSBASE
 10
0.0
 20
0.0
 30
0.0
  9
$EXTMIN
 10
99.62676730792304
 20
97.50847942042287
 30
-0.003999259246882
  9
$EXTMAX
 10
374.6517853478008
 20
297.5375121656748
 30
131.0617256295818
  9
$LIMMIN
 10
0.0
 20
0.0
  9
$LIMMAX
 10
420.0
 20
297.0
  9
$ORTHOMODE
 70
     1
  9
$REGENMODE
 70
     1
  9
$FILLMODE
 70
     1
  9
$QTEXTMODE
 70
     0
  9
$MIRRTEXT
 70
     1
  9
$LTSCALE
 40
1.0
  9
$ATTMODE
 70
     1
  9
$TEXTSIZE
 40
3.0
  9
$TRACEWID
 40
1.0
  9
$TEXTSTYLE
  7
CHINESET
  9
$CLAYER
  8
0
  9
$CELTYPE
  6
ByLayer
  9
$CECOLOR
 62
   256
  9
$CELTSCALE
 40
1.0
  9
$DISPSILH
 70
     0
  9
$DIMSCALE
 40
1.0
  9
$DIMASZ
 40
3.0
  9
$DIMEXO
 40
1.5
  9
$DIMDLI
 40
8.0
  9
$DIMRND
 40
0.0
  9
$DIMDLE
 40
0.0
  9
$DIMEXE
 40
1.5
  9
$DIMTP
 40
0.1
  9
$DIMTM
 40
0.1
  9
$DIMTXT
 40
3.0
  9
$DIMCEN
 40
0.0
  9
$DIMTSZ
 40
0.0
  9
$DIMTOL
 70
     0
  9
$DIMLIM
 70
     0
  9
$DIMTIH
 70
     0
  9
$DIMTOH
 70
     0
  9
$DIMSE1
 70
     0
  9
$DIMSE2
 70
     0
  9
$DIMTAD
 70
     1
  9
$DIMZIN
 70
     8
  9
$DIMBLK
  1

  9
$DIMASO
 70
     1
  9
$DIMSHO
 70
     1
  9
$DIMPOST
  1

  9
$DIMAPOST
  1
"
  9
$DIMALT
 70
     0
  9
$DIMALTD
 70
     2
  9
$DIMALTF
 40
0.0393701
  9
$DIMLFAC
 40
1.0
  9
$DIMTOFL
 70
     1
  9
$DIMTVP
 40
0.0
  9
$DIMTIX
 70
     0
  9
$DIMSOXD
 70
     0
  9
$DIMSAH
 70
     0
  9
$DIMBLK1
  1

  9
$DIMBLK2
  1

  9
$DIMSTYLE
  2
AM_ISO
  9
$DIMCLRD
 70
   256
  9
$DIMCLRE
 70
   256
  9
$DIMCLRT
 70
   256
  9
$DIMTFAC
 40
0.6
  9
$DIMGAP
 40
1.0
  9
$DIMJUST
 70
     0
  9
$DIMSD1
 70
     0
  9
$DIMSD2
 70
     0
  9
$DIMTOLJ
 70
     0
  9
$DIMTZIN
 70
     8
  9
$DIMALTZ
 70
     0
  9
$DIMALTTZ
 70
     0
  9
$DIMUPT
 70
     0
  9
$DIMDEC
 70
     2
  9
$DIMTDEC
 70
     8
  9
$DIMALTU
 70
     2
  9
$DIMALTTD
 70
     2
  9
$DIMTXSTY
  7
CHINESET
  9
$DIMAUNIT
 70
     0
  9
$DIMADEC
 70
     0
  9
$DIMALTRND
 40
0.0
  9
$DIMAZIN
 70
     2
  9
$DIMDSEP
 70
    46
  9
$DIMATFIT
 70
     3
  9
$DIMFRAC
 70
     0
  9
$DIMLDRBLK
  1

  9
$DIMLUNIT
 70
     2
  9
$DIMLWD
 70
    -1
  9
$DIMLWE
 70
    -1
  9
$DIMTMOVE
 70
     0
  9
$LUNITS
 70
     2
  9
$LUPREC
 70
     2
  9
$SKETCHINC
 40
1.0
  9
$FILLETRAD
 40
2.5
  9
$AUNITS
 70
     0
  9
$AUPREC
 70
     0
  9
$MENU
  1
.
  9
$ELEVATION
 40
0.0
  9
$PELEVATION
 40
0.0
  9
$THICKNESS
 40
0.0
  9
$LIMCHECK
 70
     0
  9
$CHAMFERA
 40
2.5
  9
$CHAMFERB
 40
2.5
  9
$CHAMFERC
 40
20.0
  9
$CHAMFERD
 40
0.0
  9
$SKPOLY
 70
     0
  9
$TDCREATE
 40
2454292.652154398
  9
$TDUCREATE
 40
2454292.318821065
  9
$TDUPDATE
 40
2454292.670944549
  9
$TDUUPDATE
 40
2454292.337611216
  9
$TDINDWG
 40
0.0187905093
  9
$TDUSRTIMER
 40
0.0187905093
  9
$USRTIMER
 70
     1
  9
$ANGBASE
 50
0.0
  9
$ANGDIR
 70
     0
  9
$PDMODE
 70
     0
  9
$PDSIZE
 40
0.0
  9
$PLINEWID
 40
0.0
  9
$SPLFRAME
 70
     0
  9
$SPLINETYPE
 70
     6
  9
$SPLINESEGS
 70
     8
  9
$HANDSEED
  5
FC3
  9
$SURFTAB1
 70
     6
  9
$SURFTAB2
 70
     6
  9
$SURFTYPE
 70
     6
  9
$SURFU
 70
     6
  9
$SURFV
 70
     6
  9
$UCSBASE
  2

  9
$UCSNAME
  2

  9
$UCSORG
 10
0.0
 20
0.0
 30
0.0
  9
$UCSXDIR
 10
1.0
 20
0.0
 30
0.0
  9
$UCSYDIR
 10
0.0
 20
1.0
 30
0.0
  9
$UCSORTHOREF
  2

  9
$UCSORTHOVIEW
 70
     0
  9
$UCSORGTOP
 10
0.0
 20
0.0
 30
0.0
  9
$UCSORGBOTTOM
 10
0.0
 20
0.0
 30
0.0
  9
$UCSORGLEFT
 10
0.0
 20
0.0
 30
0.0
  9
$UCSORGRIGHT
 10
0.0
 20
0.0
 30
0.0
  9
$UCSORGFRONT
 10
0.0
 20
0.0
 30
0.0
  9
$UCSORGBACK
 10
0.0
 20
0.0
 30
0.0
  9
$PUCSBASE
  2

  9
$PUCSNAME
  2

  9
$PUCSORG
 10
0.0
 20
0.0
 30
0.0
  9
$PUCSXDIR
 10
1.0
 20
0.0
 30
0.0
  9
$PUCSYDIR
 10
0.0
 20
1.0
 30
0.0
  9
$PUCSORTHOREF
  2

  9
$PUCSORTHOVIEW
 70
     0
  9
$PUCSORGTOP
 10
0.0
 20
0.0
 30
0.0
  9
$PUCSORGBOTTOM
 10
0.0
 20
0.0
 30
0.0
  9
$PUCSORGLEFT
 10
0.0
 20
0.0
 30
0.0
  9
$PUCSORGRIGHT
 10
0.0
 20
0.0
 30
0.0
  9
$PUCSORGFRONT
 10
0.0
 20
0.0
 30
0.0
  9
$PUCSORGBACK
 10
0.0
 20
0.0
 30
0.0
  9
$USERI1
 70
     0
  9
$USERI2
 70
     0
  9
$USERI3
 70
     0
  9
$USERI4
 70
     0
  9
$USERI5
 70
     0
  9
$USERR1
 40
0.0
  9
$USERR2
 40
0.0
  9
$USERR3
 40
0.0
  9
$USERR4
 40
0.0
  9
$USERR5
 40
0.0
  9
$WORLDVIEW
 70
     1
  9
$SHADEDGE
 70
     3
  9
$SHADEDIF
 70
    70
  9
$TILEMODE
 70
     1
  9
$MAXACTVP
 70
    64
  9
$PINSBASE
 10
0.0
 20
0.0
 30
0.0
  9
$PLIMCHECK
 70
     0
  9
$PEXTMIN
 10
1.000000000000000E+20
 20
1.000000000000000E+20
 30
1.000000000000000E+20
  9
$PEXTMAX
 10
-1.000000000000000E+20
 20
-1.000000000000000E+20
 30
-1.000000000000000E+20
  9
$PLIMMIN
 10
0.0
 20
0.0
  9
$PLIMMAX
 10
420.0
 20
297.0
  9
$UNITMODE
 70
     0
  9
$VISRETAIN
 70
     1
  9
$PLINEGEN
 70
     0
  9
$PSLTSCALE
 70
     1
  9
$TREEDEPTH
 70
  3020
  9
$CMLSTYLE
  2
Standard
  9
$CMLJUST
 70
     0
  9
$CMLSCALE
 40
20.0
  9
$PROXYGRAPHICS
 70
     1
  9
$MEASUREMENT
 70
     1
  9
$CELWEIGHT
370
    -1
  9
$ENDCAPS
280
     0
  9
$JOINSTYLE
280
     0
  9
$LWDISPLAY
290
     0
  9
$INSUNITS
 70
     4
  9
$HYPERLINKBASE
  1

  9
$STYLESHEET
  1
彩色出圖.ctb
  9
$XEDIT
290
     1
  9
$CEPSNTYPE
380
     0
  9
$PSTYLEMODE
290
     1
  9
$FINGERPRINTGUID
  2
{D69D8D00-E941-490B-B094-DCE1958EC6B5}
  9
$VERSIONGUID
  2
{88EED473-5CE7-49E8-848C-27293B39D93B}
  9
$EXTNAMES
290
     1
  9
$PSVPSCALE
 40
0.0
  9
$OLESTARTUP
290
     0
  0
ENDSEC
  0
SECTION
  2
CLASSES
  0
CLASS
  1
ACDBDICTIONARYWDFLT
  2
AcDbDictionaryWithDefault
  3
ObjectDBX Classes
 90
        0
280
     0
281
     0
  0
CLASS
  1
ACDBPLACEHOLDER
  2
AcDbPlaceHolder
  3
ObjectDBX Classes
 90
        0
280
     0
281
     0
  0
CLASS
  1
LAYOUT
  2
AcDbLayout
  3
ObjectDBX Classes
 90
        0
280
     0
281
     0
  0
CLASS
  1
ACME_DOCUMENT
  2
AcMeDbDoc
  3
AcMeServices
 90
        0
280
     0
281
     0
  0
CLASS
  1
AMGSETTINGSOBJ
  2
AmgSettingsObj
  3
"AcadM|Product Description: AutoCAD Mechanical 2000|Company: Autodesk"
 90
        0
280
     0
281
     0
  0
CLASS
  1
ACMESCOPE
  2
AcMeScope
  3
AcMeServices
 90
        0
280
     0
281
     0
  0
CLASS
  1
ACMECOMMANDHISTORY
  2
AcMeCommandHistory
  3
AcMeServices
 90
        0
280
     0
281
     0
  0
CLASS
  1
ACIMSYSVARMAN
  2
AcImSysVarManager
  3
AcMeServices
 90
        0
280
     0
281
     0
  0
CLASS
  1
ACIMREALSYSVAR
  2
AcImRealSysVar
  3
AcMeServices
 90
        0
280
     0
281
     0
  0
CLASS
  1
ACIMINTSYSVAR
  2
AcImIntSysVar
  3
AcMeServices
 90
        0
280
     0
281
     0
  0
CLASS
  1
ACMEDRAWINGMAN
  2
AcMeDrawingMan
  3
AcMeServices
 90
        0
280
     0
281
     0
  0
CLASS
  1
ACMEVIEW
  2
AcMeView
  3
AcMeServices
 90
        0
280
     0
281
     0
  0
CLASS
  1
ACDBENTITYCACHE
  2
AcMeEntityCache
  3
AcMeServices
 90
        0
280
     0
281
     0
  0
CLASS
  1
GSMANAGER
  2
AcMeGSManager
  3
AcMeServices
 90
        0
280
     0
281
     0
  0
CLASS
  1
AMDTINTERNALREACTOR
  2
AmdtInternalReactor
  3
AcMeServices
 90
        0
280
     0
281
     0
  0
CLASS
  1
ACMESTATEMGR
  2
AcMeStateMgr
  3
AcMeServices
 90
        0
280
     0
281
     0
  0
CLASS
  1
ACGREFMASTER
  2
AcGrefMaster
  3
AcAttribServices
 90
        0
280
     0
281
     0
  0
CLASS
  1
ACME_DATABASE
  2
AcMeDbDatabase
  3
AcMeServices
 90
        0
280
     0
281
     0
  0
CLASS
  1
ACRFINSADJUSTERMGR
  2
AcRfInsAdjusterMgr
  3
AcMeServices
 90
        0
280
     0
281
     0
  0
CLASS
  1
ACGREFACADMASTER
  2
AcGrefacadMaster
  3
AcGrefServices
 90
        0
280
     0
281
     0
  0
CLASS
  1
AMIMASTER
  2
AmiMaster
  3
AmiServices
 90
        0
280
     0
281
     0
  0
CLASS
  1
ACMDATADICTIONARY
  2
AcmDataDictionary
  3
"AcmSymBB|Product Description: AutoCAD Mechanical 2004 DX|Company: Autodesk"
 90
        0
280
     0
281
     0
  0
CLASS
  1
ACMDATAENTRYBLOCK
  2
AcmDataEntryBlock
  3
"AcmSymBB|Product Description: AutoCAD Mechanical 2004 DX|Company: Autodesk"
 90
        0
280
     0
281
     0
  0
CLASS
  1
ACIMSTRSYSVAR
  2
AcImStrSysVar
  3
AcMeServices
 90
        0
280
     0
281
     0
  0
CLASS
  1
ACMSTANDARDISO
  2
AcmStandardISO
  3
"Amdt_StdImp|Product Description: AutoCAD Mechanical 2004 DX|Company: Autodesk"
 90
        0
280
     0
281
     0
  0
CLASS
  1
AMGOBJPROPCFG
  2
AmgObjPropCfg
  3
"AmgLay|Product Description: AutoCAD Mechanical 2000|Company: Autodesk"
 90
        1
280
     0
281
     0
  0
CLASS
  1
AMDTEDGESTANDARDISO
  2
AmdtEdgeStdISO
  3
"Amdt_StdImp|Product Description: AutoCAD Mechanical 2004 DX|Company: Autodesk"
 90
        0
280
     0
281
     0
  0
CLASS
  1
ACMSURFSTANDARDISO
  2
AcmSurfTextStdISO
  3
"Amdt_StdImp|Product Description: AutoCAD Mechanical 2004 DX|Company: Autodesk"
 90
        0
280
     0
281
     0
  0
CLASS
  1
ACMFCFSTANDARDISO
  2
AcmFCFStdISO
  3
"Amdt_StdImp|Product Description: AutoCAD Mechanical 2004 DX|Company: Autodesk"
 90
        0
280
     0
281
     0
  0
CLASS
  1
ACMWELDSTANDARDISO
  2
AcmWeldingStdISO
  3
"Amdt_StdImp|Product Description: AutoCAD Mechanical 2004 DX|Company: Autodesk"
 90
        0
280
     0
281
     0
  0
CLASS
  1
ACMIDSTANDARDISO
  2
AcmIdStdISO
  3
"Amdt_StdImp|Product Description: AutoCAD Mechanical 2004 DX|Company: Autodesk"
 90
        0
280
     0
281
     0
  0
CLASS
  1
ACMDATUMSTANDARDISO
  2
AcmDatumStdISO
  3
"Amdt_StdImp|Product Description: AutoCAD Mechanical 2004 DX|Company: Autodesk"
 90
        0
280
     0
281
     0
  0
CLASS
  1
ACMBOMSTANDARDISO
  2
AcmBOMStdISO
  3
"Amdt_StdImp|Product Description: AutoCAD Mechanical 2004 DX|Company: Autodesk"
 90
        0
280
     0
281
     0
  0
CLASS
  1
ACMDETAILSTANDARDISO
  2
AmdtDetailSymStdISO
  3
"Amdt_StdImp|Product Description: AutoCAD Mechanical 2004 DX|Company: Autodesk"
 90
        0
280
     0
281
     0
  0
CLASS
  1
ACMSECTIONSTANDARDISO
  2
AmdtSectionSymStdISO
  3
"Amdt_StdImp|Product Description: AutoCAD Mechanical 2004 DX|Company: Autodesk"
 90
        0
280
     0
281
     0
  0
CLASS
  1
ACMCENTERLINESTANDARDISO
  2
AmdtCenterLineStdISO
  3
"Amdt_StdImp|Product Description: AutoCAD Mechanical 2004 DX|Company: Autodesk"
 90
        0
280
     0
281
     0
  0
CLASS
  1
ACMNOTESTANDARDISO
  2
AmdtNoteStdISO
  3
"Amdt_StdImp|Product Description: AutoCAD Mechanical 2004 DX|Company: Autodesk"
 90
        0
280
     0
281
     0
  0
CLASS
  1
ACAMGLAYSTD
  2
AcAmgLayStd
  3
"AcAmgLayStd|Product Description: AutoCAD Mechanical 2000|Company: Autodesk"
 90
        0
280
     0
281
     0
  0
CLASS
  1
ACAMGDIMSTD
  2
AcAmgDimStd
  3
"AcAmgDimStd|Product Description: AutoCAD Mechanical 2000|Company: Autodesk"
 90
        0
280
     0
281
     0
  0
CLASS
  1
ACAMGHOLECHARTSTDISO
  2
AcAmgHoleChartStdISO
  3
ACMSYMBB_MODULE_NAME
 90
        0
280
     0
281
     0
  0
CLASS
  1
ACAMGTITLESTD
  2
AcAmgTitleStd
  3
"TITLEAPP"
 90
        0
280
     0
281
     0
  0
CLASS
  1
LAYER_INDEX
  2
AcDbLayerIndex
  3
ObjectDBX Classes
 90
    32768
280
     0
281
     0
  0
CLASS
  1
IDBUFFER
  2
AcDbIdBuffer
  3
ObjectDBX Classes
 90
    32768
280
     0
281
     0
  0
CLASS
  1
DICTIONARYVAR
  2
AcDbDictionaryVar
  3
ObjectDBX Classes
 90
        0
280
     0
281
     0
  0
CLASS
  1
AM_DRAWING_MGR
  2
AcDmDwgMgr
  3
AcMechDwgViewMgmt
 90
        0
280
     0
281
     0
  0
CLASS
  1
AM_DWG_DOCUMENT
  2
AcDmDwgDocument
  3
AcMechDwgViewMgmt
 90
        0
280
     0
281
     0
  0
CLASS
  1
AM_DWG_SHEET
  2
AcDmSheet
  3
AcMechDwgViewMgmt
 90
        0
280
     0
281
     0
  0
CLASS
  1
AM_VIEWDIMPARMAP
  2
AcDmViewDimParMap
  3
AcMechDwgViewMgmt
 90
        0
280
     0
281
     0
  0
CLASS
  1
AM_DWGMGR_NAME
  2
AcDmDwgMgrName
  3
AcMechDwgViewMgmt
 90
        0
280
     0
281
     0
  0
CLASS
  1
AMDTMENUSTATEMGR
  2
AmdtMenuStateMgr
  3
McadcomServices
 90
        0
280
     0
281
     0
  0
CLASS
  1
AMDTMCOMMENUSTATE
  2
AmdtMcomMenuState
  3
McadcomServices
 90
        0
280
     0
281
     0
  0
CLASS
  1
MAPIAMMOUDLE
  2
MApiAmModule
  3
MApiAmServices
 90
        0
280
     0
281
     0
  0
CLASS
  1
AMDTADMENUSTATE
  2
AmdtAdMenuState
  3
DesignerServices
 90
        0
280
     0
281
     0
  0
CLASS
  1
ADAPPL
  2
AcAdAppl
  3
DesignerServices
 90
        0
280
     0
281
     0
  0
CLASS
  1
DEPMGR
  2
AcAdDepMgr
  3
DesignerServices
 90
        0
280
     0
281
     0
  0
CLASS
  1
PARAMMGR
  2
AcAdParamMgr
  3
DesignerServices
 90
        0
280
     0
281
     0
  0
CLASS
  1
PARAMSCOPE
  2
AcAdParamScope
  3
DesignerServices
 90
        0
280
     0
281
     0
  0
CLASS
  1
NAMEDAPPL
  2
AcAdNamedAppl
  3
DesignerServices
 90
        0
280
     0
281
     0
  0
CLASS
  1
AMDTDMMENUSTATE
  2
AmdtDmMenuState
  3
AcMechDwgViewMgmt
 90
        0
280
     0
281
     0
  0
CLASS
  1
AMDTAMMENUSTATE
  2
AmdtAmMenuState
  3
DesignerAssemblies
 90
        0
280
     0
281
     0
  0
CLASS
  1
ACAMPROJECT
  2
AcAmProject
  3
DesignerAssemblies
 90
        0
280
     0
281
     0
  0
CLASS
  1
ACAMGRCOMPDEF
  2
AcAmGrCompDef
  3
DesignerAssemblies
 90
        0
280
     0
281
     0
  0
CLASS
  1
ACCMCONTEXT
  2
AcCmContext
  3
DesignerAssemblies
 90
        0
280
     0
281
     0
  0
CLASS
  1
ACAMCOMPDEF
  2
AcAmCompDef
  3
DesignerAssemblies
 90
        0
280
     0
281
     0
  0
CLASS
  1
ACAMCOMPDEFMGR
  2
AcAmCompDefMgr
  3
DesignerAssemblies
 90
        0
280
     0
281
     0
  0
CLASS
  1
AMCONTEXTMGR
  2
AcAmContextMgr
  3
DesignerAssemblies
 90
        0
280
     0
281
     0
  0
CLASS
  1
ACAMCONTEXTMODELER
  2
AcAmContextModeler
  3
DesignerAssemblies
 90
        0
280
     0
281
     0
  0
CLASS
  1
ACMTHREADLINESTANDARDISO
  2
AmdtThreadLineStdISO
  3
"Amdt_StdImp|Product Description: AutoCAD Mechanical 2004 DX|Company: Autodesk"
 90
        0
280
     0
281
     0
  0
CLASS
  1
CATALOGSTATE
  2
AcAmCatalogState
  3
DesignerAssemblies
 90
        0
280
     0
281
     0
  0
CLASS
  1
ACAMGRCOMPDEFSET
  2
AcAmGrCompDefSet
  3
DesignerAssemblies
 90
        0
280
     0
281
     0
  0
CLASS
  1
AMDTBROWSERDBTAB
  2
AmdtBrowserDbTab
  3
McadcomServices
 90
        0
280
     0
281
     0
  0
CLASS
  1
CBROWSERAPPOBJECT
  2
CBrowserAppObject
  3
McadcomServices
 90
        0
280
     0
281
     0
  0
CLASS
  1
DM_PLACEHOLDER
  2
AcDmSelsetPlaceholder
  3
AcMechDwgViewMgmt
 90
        0
280
     0
281
     0
  0
CLASS
  1
TABLESTYLE
  2
AcDbTableStyle
  3
ObjectDBX Classes
 90
     2047
280
     0
281
     0
  0
CLASS
  1
VAACXREFPANELOBJECT
  2
VaAcXREFPanelObject
  3
VAAC_ADDIN
 90
    32768
280
     0
281
     0
  0
CLASS
  1
VAACIMAGEINVENTORY
  2
VaAcImageInventory
  3
VAAC_ADDIN
 90
    32768
280
     0
281
     0
  0
CLASS
  1
AMDTNOTETEMPLATEDB
  2
AmdtNoteTemplateDB
  3
AMDT_STDIMP_MODULE_NAME
 90
        0
280
     0
281
     0
  0
CLASS
  1
ACMBOM
  2
AcmBom
  3
"AcmSymBB|Product Description: AutoCAD Mechanical 2004 DX|Company: Autodesk"
 90
    32768
280
     0
281
     0
  0
CLASS
  1
AMDTFORMULAUPDATEDISPATCHER
  2
AmdtFormulaUpdateDispatcher
  3
AcMeServices
 90
    32768
280
     0
281
     0
  0
CLASS
  1
ACMPARTLIST
  2
AcmPartList
  3
"AcmSymBB|Product Description: AutoCAD Mechanical 2004 DX|Company: Autodesk"
 90
    33791
280
     0
281
     1
  0
CLASS
  1
ACAMGFILTERDAT
  2
AcAmgFilterDat
  3
"AcadM|Product Description: AutoCAD Mechanical 2000|Company: Autodesk"
 90
        0
280
     0
281
     0
  0
CLASS
  1
DIMASSOC
  2
AcDbDimAssoc
  3
"AcDbDimAssoc|Product Desc:     AcDim ARX App For Dimension|Company:          Autodesk, Inc.|WEB Address:      www.autodesk.com"
 90
        0
280
     0
281
     0
  0
CLASS
  1
SORTENTSTABLE
  2
AcDbSortentsTable
  3
ObjectDBX Classes
 90
        0
280
     0
281
     0
  0
CLASS
  1
ACRFATTGENMGR
  2
AcRfAttGeneralMgr
  3
AcAttribServices
 90
        0
280
     0
281
     0
  0
ENDSEC
  0
SECTION
  2
TABLES
  0
TABLE
  2
VPORT
  5
8
330
0
100
AcDbSymbolTable
 70
   180
  0
VPORT
  5
FBA
330
8
100
AcDbSymbolTableRecord
100
AcDbViewportTableRecord
  2
*Active
 70
     0
 10
0.0
 20
0.0
 11
1.0
 21
1.0
 12
237.139276327862
 22
197.5229957930488
 13
0.0
 23
0.0
 14
2.5
 24
2.5
 15
10.0
 25
10.0
 16
0.0
 26
0.0
 36
1.0
 17
0.0
 27
0.0
 37
0.0
 40
201.6574916278456
 41
1.661684782608695
 42
50.0
 43
0.0
 44
0.0
 50
0.0
 51
0.0
 71
     0
 72
   100
 73
     1
 74
     3
 75
     0
 76
     0
 77
     0
 78
     0
281
     0
 65
     1
110
0.0
120
0.0
130
0.0
111
1.0
121
0.0
131
0.0
112
0.0
122
1.0
132
0.0
 79
     0
146
0.0
  0
ENDTAB
  0
TABLE
  2
LTYPE
  5
5
330
0
100
AcDbSymbolTable
 70
    14
  0
LTYPE
  5
14
330
5
100
AcDbSymbolTableRecord
100
AcDbLinetypeTableRecord
  2
ByBlock
 70
     0
  3

 72
    65
 73
     0
 40
0.0
  0
LTYPE
  5
15
330
5
100
AcDbSymbolTableRecord
100
AcDbLinetypeTableRecord
  2
ByLayer
 70
     0
  3

 72
    65
 73
     0
 40
0.0
  0
LTYPE
  5
16
330
5
100
AcDbSymbolTableRecord
100
AcDbLinetypeTableRecord
  2
Continuous
 70
     0
  3
Solid line
 72
    65
 73
     0
 40
0.0
  0
LTYPE
  5
64
330
5
100
AcDbSymbolTableRecord
100
AcDbLinetypeTableRecord
  2
AM_ISO02W050
 70
     0
  3
__ __ __ __ __ __ __ __ __ __ __ __ __ __ __
 72
    65
 73
     2
 40
7.5
 49
6.0
 74
     0
 49
-1.5
 74
     0
  0
LTYPE
  5
65
330
5
100
AcDbSymbolTableRecord
100
AcDbLinetypeTableRecord
  2
AM_ISO08W050
 70
     0
  3
____ . ____ . ____ . ____ . ____ . ____ . ____
 72
    65
 73
     4
 40
18.0
 49
12.0
 74
     0
 49
-1.5
 74
     0
 49
3.0
 74
     0
 49
-1.5
 74
     0
  0
LTYPE
  5
66
330
5
100
AcDbSymbolTableRecord
100
AcDbLinetypeTableRecord
  2
AM_ISO09W050
 70
     0
  3
_____ . . _____ . . _____ . . ____ .. ____
 72
    65
 73
     6
 40
22.5
 49
12.0
 74
     0
 49
-1.5
 74
     0
 49
3.0
 74
     0
 49
-1.5
 74
     0
 49
3.0
 74
     0
 49
-1.5
 74
     0
  0
LTYPE
  5
67
330
5
100
AcDbSymbolTableRecord
100
AcDbLinetypeTableRecord
  2
Amconstr
 70
     0
  3
_______________________
 72
    65
 73
     2
 40
9999.0
 49
9999.0
 74
     0
 49
0.0
 74
     0
  0
LTYPE
  5
68
330
5
100
AcDbSymbolTableRecord
100
AcDbLinetypeTableRecord
  2
AM_ISO08W050x2
 70
     0
  3
__ . __ . __ . __ . __ . __
 72
    65
 73
     4
 40
9.0
 49
6.0
 74
     0
 49
-0.75
 74
     0
 49
1.5
 74
     0
 49
-0.75
 74
     0
  0
LTYPE
  5
69
330
5
100
AcDbSymbolTableRecord
100
AcDbLinetypeTableRecord
  2
AM_ISO02W050x2
 70
     0
  3
 _ _ _ _ _ _ _ _ _ _ _ _
 72
    65
 73
     2
 40
3.75
 49
3.0
 74
     0
 49
-0.75
 74
     0
  0
LTYPE
  5
6C
330
5
100
AcDbSymbolTableRecord
100
AcDbLinetypeTableRecord
  2
Amzigzag
 70
     0
  3
/\/-/\/-/\/-/\/-/\/-/\/
 72
    65
 73
     2
 40
11.0001
 49
0.0001
 74
     4
 75
   135
340
6B
 46
0.04
 50
0.0
 44
0.0
 45
0.0
 49
-11.0
 74
     0
  0
LTYPE
  5
7A
330
5
100
AcDbSymbolTableRecord
100
AcDbLinetypeTableRecord
  2
ACISOWELD
 70
     0
  3
_ _ _ _ _
 72
    65
 73
     2
 40
2.0
 49
2.0
 74
     0
 49
-1.0
 74
     0
  0
LTYPE
  5
7B
330
5
100
AcDbSymbolTableRecord
100
AcDbLinetypeTableRecord
  2
ACISOTGB
 70
     0
  3
__ . . __ . .
 72
    65
 73
     6
 40
9.0
 49
4.0
 74
     0
 49
-1.0
 74
     0
 49
1.0
 74
     0
 49
-1.0
 74
     0
 49
1.0
 74
     0
 49
-1.0
 74
     0
  0
LTYPE
  5
7C
330
5
100
AcDbSymbolTableRecord
100
AcDbLinetypeTableRecord
  2
ACISOTGL
 70
     0
  3
_ _ _ _ _
 72
    65
 73
     2
 40
3.0
 49
2.0
 74
     0
 49
-1.0
 74
     0
  0
LTYPE
  5
7E
330
5
100
AcDbSymbolTableRecord
100
AcDbLinetypeTableRecord
  2
CENTER
 70
     0
  3
__ . __
 72
    65
 73
     4
 40
7.0
 49
4.0
 74
     0
 49
-1.0
 74
     0
 49
1.0
 74
     0
 49
-1.0
 74
     0
  0
LTYPE
  5
D8
330
5
100
AcDbSymbolTableRecord
100
AcDbLinetypeTableRecord
  2
HIDDEN
 70
     0
  3
Hidden __ __ __ __ __ __ __ __ __ __ __ __ __ _
 72
    65
 73
     2
 40
9.524999999999998
 49
6.349999999999999
 74
     0
 49
-3.174999999999999
 74
     0
  0
LTYPE
  5
D9
330
5
100
AcDbSymbolTableRecord
100
AcDbLinetypeTableRecord
  2
PHANTOM2
 70
     0
  3
Phantom (.5x) ___ _ _ ___ _ _ ___ _ _ ___ _ _
 72
    65
 73
     6
 40
31.75
 49
15.875
 74
     0
 49
-3.174999999999999
 74
     0
 49
3.174999999999999
 74
     0
 49
-3.174999999999999
 74
     0
 49
3.174999999999999
 74
     0
 49
-3.174999999999999
 74
     0
  0
ENDTAB
  0
TABLE
  2
LAYER
  5
2
102
{ACAD_XDICTIONARY
360
3F9
102
}
330
0
100
AcDbSymbolTable
 70
     6
  0
LAYER
  5
10
330
2
100
AcDbSymbolTableRecord
100
AcDbLayerTableRecord
  2
0
 70
     0
 62
     7
  6
Continuous
370
    -3
390
F
  0
LAYER
  5
8CB
330
2
100
AcDbSymbolTableRecord
100
AcDbLayerTableRecord
  2
AM_5
 70
     0
 62
     5
  6
Continuous
370
    50
390
F
  0
LAYER
  5
939
330
2
100
AcDbSymbolTableRecord
100
AcDbLayerTableRecord
  2
Defpoints
 70
     0
 62
     7
  6
Continuous
290
     0
370
    -3
390
F
  0
LAYER
  5
C77
330
2
100
AcDbSymbolTableRecord
100
AcDbLayerTableRecord
  2
AM_VIS
 70
     0
 62
     7
  6
Continuous
370
    50
390
F
  0
LAYER
  5
D3B
330
2
100
AcDbSymbolTableRecord
100
AcDbLayerTableRecord
  2
AM_7
 70
     0
 62
     1
  6
CENTER
370
    25
390
F
  0
LAYER
  5
D6C
330
2
100
AcDbSymbolTableRecord
100
AcDbLayerTableRecord
  2
LOGO
 70
     0
 62
     7
  6
Continuous
370
    -3
390
F
  0
ENDTAB
  0
TABLE
  2
STYLE
  5
3
330
0
100
AcDbSymbolTable
 70
     6
  0
STYLE
  5
11
330
3
100
AcDbSymbolTableRecord
100
AcDbTextStyleTableRecord
  2
STANDARD
 70
     0
 40
0.0
 41
1.0
 50
0.0
 71
     0
 42
3.0
  3
ISOCP.SHX
  4
CHINESET.SHX
  0
STYLE
  5
6B
330
3
100
AcDbSymbolTableRecord
100
AcDbTextStyleTableRecord
  2

 70
     1
 40
0.0
 41
1.0
 50
0.0
 71
     0
 42
2.5
  3
ltypeshp.shx
  4

  0
STYLE
  5
6D
330
3
100
AcDbSymbolTableRecord
100
AcDbTextStyleTableRecord
  2
ACISOTS
 70
     0
 40
1.0
 41
1.0
 50
0.0
 71
     0
 42
1.0
  3
isocp.shx
  4
chineset.shx
  0
STYLE
  5
79
330
3
100
AcDbSymbolTableRecord
100
AcDbTextStyleTableRecord
  2
ACISOGDT
 70
     0
 40
0.0
 41
1.0
 50
0.0
 71
     0
 42
2.5
  3
amgdt.shx
  4
chineset.shx
  0
STYLE
  5
60C
330
3
100
AcDbSymbolTableRecord
100
AcDbTextStyleTableRecord
  2
CHINESET
 70
     0
 40
0.0
 41
1.0
 50
0.0
 71
     0
 42
3.0
  3
simplex.shx
  4
CHINESET.SHX
  0
ENDTAB
  0
TABLE
  2
VIEW
  5
6
330
0
100
AcDbSymbolTable
 70
     0
  0
ENDTAB
  0
TABLE
  2
UCS
  5
7
330
0
100
AcDbSymbolTable
 70
     0
  0
ENDTAB
  0
TABLE
  2
APPID
  5
9
330
0
100
AcDbSymbolTable
 70
    20
  0
APPID
  5
12
330
9
100
AcDbSymbolTableRecord
100
AcDbRegAppTableRecord
  2
ACAD
 70
     0
  0
APPID
  5
46
330
9
100
AcDbSymbolTableRecord
100
AcDbRegAppTableRecord
  2
MCAD_NO_VIS
 70
     0
  0
APPID
  5
47
330
9
100
AcDbSymbolTableRecord
100
AcDbRegAppTableRecord
  2
ACAD_TEMP_GRAPHIC
 70
     0
  0
APPID
  5
58
330
9
100
AcDbSymbolTableRecord
100
AcDbRegAppTableRecord
  2
ACATTRIBSERVICES
 70
     0
  0
APPID
  5
EE
330
9
100
AcDbSymbolTableRecord
100
AcDbRegAppTableRecord
  2
AD_DRAW
 70
     0
  0
APPID
  5
10C
330
9
100
AcDbSymbolTableRecord
100
AcDbRegAppTableRecord
  2
DESIGNERASSEMBLIES
 70
     0
  0
APPID
  5
111
330
9
100
AcDbSymbolTableRecord
100
AcDbRegAppTableRecord
  2
ACADM_DIM_EDIT
 70
     0
  0
APPID
  5
112
330
9
100
AcDbSymbolTableRecord
100
AcDbRegAppTableRecord
  2
AMDT_DM_ADJ
 70
     0
  0
APPID
  5
22C
330
9
100
AcDbSymbolTableRecord
100
AcDbRegAppTableRecord
  2
ACAD_DSTYLE_DIMTEXT_FILL
 70
     0
  0
APPID
  5
452
330
9
100
AcDbSymbolTableRecord
100
AcDbRegAppTableRecord
  2
GENIUS_GENOENT_13
 70
     0
  0
APPID
  5
453
330
9
100
AcDbSymbolTableRecord
100
AcDbRegAppTableRecord
  2
GENIUS_GENOBJ-N-CRS_13
 70
     0
  0
APPID
  5
454
330
9
100
AcDbSymbolTableRecord
100
AcDbRegAppTableRecord
  2
GENIUS_GENOLIS_13
 70
     0
  0
APPID
  5
455
330
9
100
AcDbSymbolTableRecord
100
AcDbRegAppTableRecord
  2
GENIUS_GENODEF_13
 70
     0
  0
APPID
  5
456
330
9
100
AcDbSymbolTableRecord
100
AcDbRegAppTableRecord
  2
GENIUS_GENOREF_13
 70
     0
  0
APPID
  5
6F3
330
9
100
AcDbSymbolTableRecord
100
AcDbRegAppTableRecord
  2
ACAD_PSEXT
 70
     0
  0
APPID
  5
808
330
9
100
AcDbSymbolTableRecord
100
AcDbRegAppTableRecord
  2
GENIUS_GENDTOL_13
 70
     0
  0
APPID
  5
D31
330
9
100
AcDbSymbolTableRecord
100
AcDbRegAppTableRecord
  2
GENIUS_GENREC_14
 70
     0
  0
APPID
  5
D32
330
9
100
AcDbSymbolTableRecord
100
AcDbRegAppTableRecord
  2
GENIUS_GENOBJ-N-REC_13
 70
     0
  0
APPID
  5
D3C
330
9
100
AcDbSymbolTableRecord
100
AcDbRegAppTableRecord
  2
GENIUS_GENOBJ-N-CEN_13
 70
     0
  0
APPID
  5
D3D
330
9
100
AcDbSymbolTableRecord
100
AcDbRegAppTableRecord
  2
GENIUS_GENCEN_19
 70
     0
  0
ENDTAB
  0
TABLE
  2
DIMSTYLE
  5
A
330
0
100
AcDbSymbolTable
 70
     9
100
AcDbDimStyleTable
 71
     3
340
81
340
8B
340
86
  0
DIMSTYLE
105
81
330
A
100
AcDbSymbolTableRecord
100
AcDbDimStyleTableRecord
  2
AM_ISO
 70
     0
  4
"
 41
3.0
 42
1.5
 43
8.0
 44
1.5
 47
0.1
 48
0.1
 73
     0
 74
     0
 77
     1
 78
     8
 79
     2
140
3.0
141
0.0
143
0.0393701
146
0.6
147
1.0
172
     1
176
   256
177
   256
178
   256
271
     2
272
     2
283
     0
284
     8
340
60C
371
    -1
372
    -1
  0
DIMSTYLE
105
82
330
A
100
AcDbSymbolTableRecord
100
AcDbDimStyleTableRecord
  2
AM_ISO$3
 70
     0
  4
"
 41
3.0
 42
1.5
 43
8.0
 44
1.5
 47
0.1
 48
0.1
 73
     0
 77
     1
 78
     8
 79
     2
140
3.0
141
0.0
143
0.0393701
146
0.6
147
1.0
176
   256
177
   256
178
   256
271
     2
272
     2
283
     0
284
     8
288
     1
289
     0
340
60C
371
    -1
372
    -1
  0
DIMSTYLE
105
83
330
A
100
AcDbSymbolTableRecord
100
AcDbDimStyleTableRecord
  2
AM_ISO$4
 70
     0
  4
"
 41
3.0
 42
1.5
 43
8.0
 44
1.5
 47
0.1
 48
0.1
 73
     0
 77
     1
 78
     8
 79
     2
140
3.0
141
0.0
143
0.0393701
146
0.6
147
1.0
176
   256
177
   256
178
   256
271
     2
272
     2
283
     0
284
     8
288
     1
289
     0
340
60C
371
    -1
372
    -1
  0
DIMSTYLE
105
84
330
A
100
AcDbSymbolTableRecord
100
AcDbDimStyleTableRecord
  2
AM_ISO$6
 70
     0
  4
"
 41
3.0
 42
1.5
 43
8.0
 44
1.5
 47
0.1
 48
0.1
 73
     0
 74
     0
 78
     8
 79
     2
140
3.0
141
0.0
143
0.0393701
146
0.6
147
1.0
172
     1
176
   256
177
   256
178
   256
271
     2
272
     2
283
     0
284
     8
340
60C
371
    -1
372
    -1
  0
DIMSTYLE
105
85
330
A
100
AcDbSymbolTableRecord
100
AcDbDimStyleTableRecord
  2
AM_ISO$7
 70
     0
  4
"
 41
3.0
 42
1.5
 43
8.0
 44
1.5
 47
0.1
 48
0.1
 73
     0
 74
     0
 77
     1
 78
     8
 79
     2
140
5.0
141
0.0
143
0.0393701
146
0.6
147
1.0
172
     1
176
   256
177
   256
178
   256
271
     2
272
     2
283
     0
284
     8
340
60C
371
    -1
372
    -1
  0
DIMSTYLE
105
86
330
A
100
AcDbSymbolTableRecord
100
AcDbDimStyleTableRecord
  2
AM_ISO$SF
 70
     0
  4
"
 41
2.5
 42
1.0
 43
10.0
 44
1.0
 47
0.1
 48
0.1
 73
     0
 74
     0
 75
     1
 76
     1
 77
     1
 78
     8
 79
     2
140
3.5
141
0.0
143
0.0393701
146
0.71
147
1.5
172
     1
176
   256
177
   256
178
     2
271
     2
272
     3
274
     4
283
     0
284
     8
340
11
371
    -1
372
    -1
  0
DIMSTYLE
105
8B
330
A
100
AcDbSymbolTableRecord
100
AcDbDimStyleTableRecord
  2
AM_ISO$SH
 70
     0
  4
"
 41
2.5
 42
1.0
 43
10.0
 44
1.0
 47
0.1
 48
0.1
 73
     0
 74
     0
 75
     1
 76
     1
 77
     1
 78
     8
 79
     2
140
3.5
141
0.0
143
0.0393701
144
2.0
146
0.71
147
1.5
172
     1
173
     1
176
   256
177
   256
178
     2
271
     2
272
     3
274
     4
283
     0
284
     8
340
11
343
87
371
    -1
372
    -1
  0
DIMSTYLE
105
40B
102
{ACAD_REACTORS
330
EB7
330
EDD
330
F03
102
}
330
A
100
AcDbSymbolTableRecord
100
AcDbDimStyleTableRecord
  2
AM_ISO$0
 70
     0
  4
"
 41
3.0
 42
1.5
 43
8.0
 44
1.5
 47
0.1
 48
0.1
 73
     0
 74
     0
 77
     1
 78
     8
 79
     2
140
3.0
141
0.0
143
0.0393701
146
0.6
147
1.0
172
     1
176
   256
177
   256
178
   256
271
     2
272
     2
283
     0
284
     8
340
60C
371
    -1
372
    -1
  0
ENDTAB
  0
TABLE
  2
BLOCK_RECORD
  5
1
330
0
100
AcDbSymbolTable
 70
    13
  0
BLOCK_RECORD
  5
1F
102
{ACAD_XDICTIONARY
360
8F
102
}
330
1
100
AcDbSymbolTableRecord
100
AcDbBlockTableRecord
  2
*Model_Space
340
22
  0
BLOCK_RECORD
  5
1B
330
1
100
AcDbSymbolTableRecord
100
AcDbBlockTableRecord
  2
*Paper_Space
340
1E
  0
BLOCK_RECORD
  5
23
330
1
100
AcDbSymbolTableRecord
100
AcDbBlockTableRecord
  2
*Paper_Space0
340
26
  0
BLOCK_RECORD
  5
87
330
1
100
AcDbSymbolTableRecord
100
AcDbBlockTableRecord
  2
GENAXEH
340
0
  0
BLOCK_RECORD
  5
EB8
330
1
100
AcDbSymbolTableRecord
100
AcDbBlockTableRecord
  2
*D9
340
0
  0
BLOCK_RECORD
  5
EDE
330
1
100
AcDbSymbolTableRecord
100
AcDbBlockTableRecord
  2
*D10
340
0
  0
BLOCK_RECORD
  5
F04
330
1
100
AcDbSymbolTableRecord
100
AcDbBlockTableRecord
  2
*D11
340
0
  0
ENDTAB
  0
ENDSEC
  0
SECTION
  2
BLOCKS
  0
BLOCK
  5
20
330
1F
100
AcDbEntity
  8
0
100
AcDbBlockBegin
  2
*Model_Space
 70
     0
 10
0.0
 20
0.0
 30
0.0
  3
*Model_Space
  1

  0
ENDBLK
  5
21
330
1F
100
AcDbEntity
  8
0
100
AcDbBlockEnd
  0
BLOCK
  5
1C
330
1B
100
AcDbEntity
 67
     1
  8
0
100
AcDbBlockBegin
  2
*Paper_Space
 70
     0
 10
0.0
 20
0.0
 30
0.0
  3
*Paper_Space
  1

  0
ENDBLK
  5
1D
330
1B
100
AcDbEntity
 67
     1
  8
0
100
AcDbBlockEnd
  0
BLOCK
  5
24
330
23
100
AcDbEntity
  8
0
100
AcDbBlockBegin
  2
*Paper_Space0
 70
     0
 10
0.0
 20
0.0
 30
0.0
  3
*Paper_Space0
  1

  0
ENDBLK
  5
25
330
23
100
AcDbEntity
  8
0
100
AcDbBlockEnd
  0
BLOCK
  5
89
330
87
100
AcDbEntity
  8
0
100
AcDbBlockBegin
  2
GENAXEH
 70
     0
 10
0.0
 20
0.0
 30
0.0
  3
GENAXEH
  1

  0
LINE
  5
88
330
87
100
AcDbEntity
  8
0
100
AcDbLine
 10
-1.0
 20
0.0
 30
0.0
 11
1.0
 21
0.0
 31
0.0
  0
ENDBLK
  5
8A
330
87
100
AcDbEntity
  8
0
100
AcDbBlockEnd
  0
BLOCK
  5
EC2
330
EB8
100
AcDbEntity
  8
0
100
AcDbBlockBegin
  2
*D9
 70
     1
 10
0.0
 20
0.0
 30
0.0
  3
*D9
  1

  0
LINE
  5
F60
330
EB8
100
AcDbEntity
  8
AM_5
100
AcDbLine
 10
302.1274085535815
 20
169.1246927848693
 30
0.0
 11
314.1274085535815
 21
169.1246927848693
 31
0.0
  0
LINE
  5
F61
330
EB8
100
AcDbEntity
  8
AM_5
100
AcDbLine
 10
302.1274085535815
 20
185.6246927848693
 30
0.0
 11
314.1274085535815
 21
185.6246927848693
 31
0.0
  0
LINE
  5
F62
330
EB8
100
AcDbEntity
  8
AM_5
100
AcDbLine
 10
312.6274085535815
 20
172.1246927848693
 30
0.0
 11
312.6274085535815
 21
182.6246927848693
 31
0.0
  0
SOLID
  5
F63
330
EB8
100
AcDbEntity
  8
AM_5
100
AcDbTrace
 10
312.1274085535815
 20
172.1246927848693
 30
0.0
 11
313.1274085535815
 21
172.1246927848693
 31
0.0
 12
312.6274085535815
 22
169.1246927848693
 32
0.0
 13
312.6274085535815
 23
169.1246927848693
 33
0.0
  0
SOLID
  5
F64
330
EB8
100
AcDbEntity
  8
AM_5
100
AcDbTrace
 10
312.1274085535815
 20
182.6246927848693
 30
0.0
 11
313.1274085535815
 21
182.6246927848693
 31
0.0
 12
312.6274085535815
 22
185.6246927848693
 32
0.0
 13
312.6274085535815
 23
185.6246927848693
 33
0.0
  0
MTEXT
  5
F65
330
EB8
100
AcDbEntity
  8
AM_5
100
AcDbMText
 10
310.1274085535814
 20
177.3746927848694
 30
0.0
 40
3.0
 41
0.0
 71
     5
 72
     1
  1
16.5
  7
CHINESET
 11
0.0000000000000001
 21
1.0
 31
0.0
 73
     1
 44
1.0
1001
ACAD
1000
MTEXTBEGIN
1070
    73
1070
     1
1070
    44
1040
1.0
1070
    74
1070
     0
1000
MTEXTEND
  0
POINT
  5
F66
330
EB8
100
AcDbEntity
  8
Defpoints
 62
     0
100
AcDbPoint
 10
300.6274085535815
 20
169.1246927848693
 30
0.0
  0
POINT
  5
F67
330
EB8
100
AcDbEntity
  8
Defpoints
 62
     0
100
AcDbPoint
 10
300.6274085535815
 20
185.6246927848693
 30
0.0
  0
POINT
  5
F68
330
EB8
100
AcDbEntity
  8
Defpoints
 62
     0
100
AcDbPoint
 10
312.6274085535815
 20
185.6246927848693
 30
0.0
  0
ENDBLK
  5
EC3
330
EB8
100
AcDbEntity
  8
0
100
AcDbBlockEnd
  0
BLOCK
  5
EE8
330
EDE
100
AcDbEntity
  8
0
100
AcDbBlockBegin
  2
*D10
 70
     1
 10
0.0
 20
0.0
 30
0.0
  3
*D10
  1

  0
LINE
  5
F69
330
EDE
100
AcDbEntity
  8
AM_5
100
AcDbLine
 10
275.6274085535815
 20
187.1246927848693
 30
0.0
 11
275.6274085535815
 21
199.1246927848693
 31
0.0
  0
LINE
  5
F6A
330
EDE
100
AcDbEntity
  8
AM_5
100
AcDbLine
 10
300.6274085535815
 20
187.1246927848693
 30
0.0
 11
300.6274085535815
 21
199.1246927848693
 31
0.0
  0
LINE
  5
F6B
330
EDE
100
AcDbEntity
  8
AM_5
100
AcDbLine
 10
278.6274085535815
 20
197.6246927848693
 30
0.0
 11
297.6274085535815
 21
197.6246927848693
 31
0.0
  0
SOLID
  5
F6C
330
EDE
100
AcDbEntity
  8
AM_5
100
AcDbTrace
 10
278.6274085535815
 20
198.1246927848693
 30
0.0
 11
278.6274085535815
 21
197.1246927848693
 31
0.0
 12
275.6274085535815
 22
197.6246927848693
 32
0.0
 13
275.6274085535815
 23
197.6246927848693
 33
0.0
  0
SOLID
  5
F6D
330
EDE
100
AcDbEntity
  8
AM_5
100
AcDbTrace
 10
297.6274085535815
 20
198.1246927848693
 30
0.0
 11
297.6274085535815
 21
197.1246927848693
 31
0.0
 12
300.6274085535815
 22
197.6246927848693
 32
0.0
 13
300.6274085535815
 23
197.6246927848693
 33
0.0
  0
MTEXT
  5
F6E
330
EDE
100
AcDbEntity
  8
AM_5
100
AcDbMText
 10
288.1274085535815
 20
200.1246927848693
 30
0.0
 40
3.0
 41
0.0
 71
     5
 72
     1
  1
25
  7
CHINESET
 73
     1
 44
1.0
1001
ACAD
1000
MTEXTBEGIN
1070
    73
1070
     1
1070
    44
1040
1.0
1070
    74
1070
     0
1000
MTEXTEND
  0
POINT
  5
F6F
330
EDE
100
AcDbEntity
  8
Defpoints
 62
     0
100
AcDbPoint
 10
275.6274085535815
 20
185.6246927848693
 30
0.0
  0
POINT
  5
F70
330
EDE
100
AcDbEntity
  8
Defpoints
 62
     0
100
AcDbPoint
 10
300.6274085535815
 20
185.6246927848693
 30
0.0
  0
POINT
  5
F71
330
EDE
100
AcDbEntity
  8
Defpoints
 62
     0
100
AcDbPoint
 10
300.6274085535815
 20
197.6246927848693
 30
0.0
  0
ENDBLK
  5
EE9
330
EDE
100
AcDbEntity
  8
0
100
AcDbBlockEnd
  0
BLOCK
  5
F0E
330
F04
100
AcDbEntity
  8
0
100
AcDbBlockBegin
  2
*D11
 70
     1
 10
0.0
 20
0.0
 30
0.0
  3
*D11
  1

  0
LINE
  5
F1E
330
F04
100
AcDbEntity
  8
AM_5
100
AcDbLine
 10
178.6450796111862
 20
239.0385740676779
 30
0.0
 11
178.6450796111862
 21
251.038574067678
 31
0.0
  0
LINE
  5
F1F
330
F04
100
AcDbEntity
  8
AM_5
100
AcDbLine
 10
238.6450796111863
 20
239.0385740676779
 30
0.0
 11
238.6450796111863
 21
251.038574067678
 31
0.0
  0
LINE
  5
F20
330
F04
100
AcDbEntity
  8
AM_5
100
AcDbLine
 10
181.6450796111862
 20
249.538574067678
 30
0.0
 11
235.6450796111862
 21
249.538574067678
 31
0.0
  0
SOLID
  5
F21
330
F04
100
AcDbEntity
  8
AM_5
100
AcDbTrace
 10
181.6450796111862
 20
250.0385740676779
 30
0.0
 11
181.6450796111862
 21
249.038574067678
 31
0.0
 12
178.6450796111862
 22
249.538574067678
 32
0.0
 13
178.6450796111862
 23
249.538574067678
 33
0.0
  0
SOLID
  5
F22
330
F04
100
AcDbEntity
  8
AM_5
100
AcDbTrace
 10
235.6450796111862
 20
250.0385740676779
 30
0.0
 11
235.6450796111862
 21
249.038574067678
 31
0.0
 12
238.6450796111863
 22
249.538574067678
 32
0.0
 13
238.6450796111863
 23
249.538574067678
 33
0.0
  0
MTEXT
  5
F23
330
F04
100
AcDbEntity
  8
AM_5
100
AcDbMText
 10
208.6450796111862
 20
252.038574067678
 30
0.0
 40
3.0
 41
0.0
 71
     5
 72
     1
  1
60
  7
CHINESET
 73
     1
 44
1.0
1001
ACAD
1000
MTEXTBEGIN
1070
    73
1070
     1
1070
    44
1040
1.0
1070
    74
1070
     0
1000
MTEXTEND
  0
POINT
  5
F24
330
F04
100
AcDbEntity
  8
Defpoints
 62
     0
100
AcDbPoint
 10
178.6450796111862
 20
237.5385740676779
 30
0.0
  0
POINT
  5
F25
330
F04
100
AcDbEntity
  8
Defpoints
 62
     0
100
AcDbPoint
 10
238.6450796111863
 20
237.5385740676779
 30
0.0
  0
POINT
  5
F26
330
F04
100
AcDbEntity
  8
Defpoints
 62
     0
100
AcDbPoint
 10
238.6450796111863
 20
249.538574067678
 30
0.0
  0
ENDBLK
  5
F0F
330
F04
100
AcDbEntity
  8
0
100
AcDbBlockEnd
  0
ENDSEC
  0
SECTION
  2
ENTITIES
  0
LINE
  5
C9B
330
1F
100
AcDbEntity
  8
AM_VIS
100
AcDbLine
 10
238.6450796111863
 20
169.1246927848693
 30
0.0
 11
238.6450796111863
 21
185.6246927848693
 31
0.0
  0
LINE
  5
C9C
330
1F
100
AcDbEntity
  8
AM_VIS
100
AcDbLine
 10
178.6450796111862
 20
169.1246927848693
 30
0.0
 11
238.6450796111863
 21
169.1246927848693
 31
0.0
  0
LINE
  5
C9D
330
1F
100
AcDbEntity
  8
AM_VIS
100
AcDbLine
 10
238.6450796111863
 20
185.6246927848693
 30
0.0
 11
178.6450796111862
 21
185.6246927848693
 31
0.0
  0
LINE
  5
C9E
330
1F
100
AcDbEntity
  8
AM_VIS
100
AcDbLine
 10
178.6450796111862
 20
185.6246927848693
 30
0.0
 11
178.6450796111862
 21
169.1246927848693
 31
0.0
  0
LINE
  5
C9F
330
1F
100
AcDbEntity
  8
AM_VIS
100
AcDbLine
 10
224.6450796111862
 20
182.8746927848693
 30
0.0
 11
224.6450796111862
 21
171.8746927848693
 31
0.0
  0
LINE
  5
CA0
330
1F
100
AcDbEntity
  8
AM_VIS
100
AcDbLine
 10
224.6450796111862
 20
171.8746927848693
 30
0.0
 11
196.6450796111862
 21
171.8746927848693
 31
0.0
  0
LINE
  5
CA1
330
1F
100
AcDbEntity
  8
AM_VIS
100
AcDbLine
 10
196.6450796111862
 20
171.8746927848693
 30
0.0
 11
196.6450796111862
 21
182.8746927848693
 31
0.0
  0
LINE
  5
CA2
330
1F
100
AcDbEntity
  8
AM_VIS
100
AcDbLine
 10
196.6450796111862
 20
182.8746927848693
 30
0.0
 11
224.6450796111862
 21
182.8746927848693
 31
0.0
  0
LINE
  5
CA3
330
1F
100
AcDbEntity
  8
AM_VIS
100
AcDbLine
 10
168.6450796111862
 20
172.7239004797868
 30
0.0
 11
178.6450796111862
 21
172.3746927848693
 31
0.0
  0
LINE
  5
CA4
330
1F
100
AcDbEntity
  8
AM_VIS
100
AcDbLine
 10
168.6450796111862
 20
182.0254850899518
 30
0.0
 11
178.6450796111862
 21
182.3746927848693
 31
0.0
  0
LINE
  5
CA5
330
1F
100
AcDbEntity
  8
AM_VIS
100
AcDbLine
 10
238.6450796111863
 20
175.6246927848693
 30
0.0
 11
241.6450796111862
 21
175.6246927848693
 31
0.0
  0
LINE
  5
CA6
330
1F
100
AcDbEntity
  8
AM_VIS
100
AcDbLine
 10
238.6450796111863
 20
182.1246927848693
 30
0.0
 11
241.6450796111862
 21
182.1246927848693
 31
0.0
  0
LINE
  5
CA7
330
1F
100
AcDbEntity
  8
AM_VIS
100
AcDbLine
 10
168.6450796111862
 20
172.7239004797868
 30
0.0
 11
168.6450796111862
 21
182.0254850899518
 31
0.0
  0
LINE
  5
CA8
330
1F
100
AcDbEntity
  8
AM_VIS
100
AcDbLine
 10
241.6450796111862
 20
182.1246927848693
 30
0.0
 11
241.6450796111862
 21
175.6246927848693
 31
0.0
  0
LINE
  5
CA9
330
1F
100
AcDbEntity
  8
AM_VIS
100
AcDbLine
 10
238.6450796111863
 20
212.5385740676779
 30
0.0
 11
178.6450796111862
 21
212.5385740676779
 31
0.0
  0
LINE
  5
CAA
330
1F
100
AcDbEntity
  8
AM_VIS
100
AcDbLine
 10
178.6450796111862
 20
237.5385740676779
 30
0.0
 11
238.6450796111863
 21
237.5385740676779
 31
0.0
  0
LINE
  5
CAB
102
{ACAD_REACTORS
330
F11
102
}
330
1F
100
AcDbEntity
  8
AM_VIS
100
AcDbLine
 10
238.6450796111863
 20
212.5385740676779
 30
0.0
 11
238.6450796111863
 21
237.5385740676779
 31
0.0
  0
LINE
  5
CAC
330
1F
100
AcDbEntity
  8
AM_VIS
100
AcDbLine
 10
178.6450796111862
 20
237.5385740676779
 30
0.0
 11
178.6450796111862
 21
212.5385740676779
 31
0.0
  0
LINE
  5
CAD
330
1F
100
AcDbEntity
  8
AM_VIS
100
AcDbLine
 10
168.6450796111862
 20
220.3877817625954
 30
0.0
 11
178.6450796111862
 21
220.0385740676779
 31
0.0
  0
LINE
  5
CAE
330
1F
100
AcDbEntity
  8
AM_VIS
100
AcDbLine
 10
168.6450796111862
 20
229.6893663727605
 30
0.0
 11
178.6450796111862
 21
230.0385740676779
 31
0.0
  0
LINE
  5
CAF
330
1F
100
AcDbEntity
  8
AM_VIS
100
AcDbLine
 10
238.6450796111863
 20
225.0385740676779
 30
0.0
 11
241.6450796111862
 21
225.0385740676779
 31
0.0
  0
LINE
  5
CB0
330
1F
100
AcDbEntity
  8
AM_VIS
100
AcDbLine
 10
238.6450796111863
 20
231.5385740676779
 30
0.0
 11
241.6450796111862
 21
231.5385740676779
 31
0.0
  0
LINE
  5
CB1
330
1F
100
AcDbEntity
  8
AM_VIS
100
AcDbLine
 10
168.6450796111862
 20
220.3877817625954
 30
0.0
 11
168.6450796111862
 21
229.6893663727604
 31
0.0
  0
LINE
  5
CB2
330
1F
100
AcDbEntity
  8
AM_VIS
100
AcDbLine
 10
241.6450796111862
 20
231.5385740676779
 30
0.0
 11
241.6450796111862
 21
225.0385740676779
 31
0.0
  0
LINE
  5
CB3
330
1F
100
AcDbEntity
  8
AM_VIS
100
AcDbLine
 10
275.6274085535815
 20
169.1246927848693
 30
0.0
 11
275.6274085535815
 21
185.6246927848693
 31
0.0
  0
LINE
  5
CB4
330
1F
100
AcDbEntity
  8
AM_VIS
100
AcDbLine
 10
300.6274085535815
 20
169.1246927848693
 30
0.0
 11
275.6274085535815
 21
169.1246927848693
 31
0.0
  0
LINE
  5
CB5
102
{ACAD_REACTORS
330
EC5
102
}
330
1F
100
AcDbEntity
  8
AM_VIS
100
AcDbLine
 10
300.6274085535815
 20
185.6246927848693
 30
0.0
 11
300.6274085535815
 21
169.1246927848693
 31
0.0
  0
LINE
  5
CB6
102
{ACAD_REACTORS
330
EC5
330
EEB
102
}
330
1F
100
AcDbEntity
  8
AM_VIS
100
AcDbLine
 10
275.6274085535815
 20
185.6246927848693
 30
0.0
 11
300.6274085535815
 21
185.6246927848693
 31
0.0
  0
CIRCLE
  5
CB7
330
1F
100
AcDbEntity
  8
AM_VIS
100
AcDbCircle
 10
291.3774085535815
 20
178.8746927848693
 30
0.0
 40
3.25
  0
LINE
  5
CB8
330
1F
100
AcDbEntity
  8
AM_VIS
100
AcDbLine
 10
183.6450796111862
 20
185.6246927848693
 30
0.0
 11
183.6450796111862
 21
169.1246927848693
 31
0.0
  0
LINE
  5
CB9
330
1F
100
AcDbEntity
  8
AM_VIS
100
AcDbLine
 10
183.6450796111862
 20
237.5385740676779
 30
0.0
 11
183.6450796111862
 21
212.5385740676779
 31
0.0
  0
CIRCLE
  5
CE5
330
1F
100
AcDbEntity
  8
0
100
AcDbCircle
 10
192.0617680122124
 20
180.1246927848693
 30
0.0
 40
2.0
  0
LWPOLYLINE
  5
CE6
330
1F
100
AcDbEntity
  8
0
100
AcDbPolyline
 90
        3
 70
     1
 43
0.0
 10
193.3433093876944
 20
179.3847945267572
 10
192.0617680122124
 20
181.6044893010937
 10
190.7802266367303
 20
179.3847945267572
  0
CIRCLE
  5
D1D
330
1F
100
AcDbEntity
  8
0
100
AcDbCircle
 10
192.0617680122124
 20
174.6246927848693
 30
0.0
 40
2.0
  0
LWPOLYLINE
  5
D1E
330
1F
100
AcDbEntity
  8
0
100
AcDbPolyline
 90
        3
 70
     1
 43
0.0
 10
193.3433093876944
 20
175.3645910429815
 10
192.0617680122124
 20
173.1448962686449
 10
190.7802266367303
 20
175.3645910429815
  0
CIRCLE
  5
D1F
330
1F
100
AcDbEntity
  8
0
100
AcDbCircle
 10
229.5664552675356
 20
174.6246927848693
 30
0.0
 40
2.0
  0
TEXT
  5
D20
330
1F
100
AcDbEntity
  8
0
100
AcDbText
 10
228.6646125823419
 20
173.3603780525274
 30
0.0
 40
2.4
  1
M
  7
CHINESET
100
AcDbText
  0
TEXT
  5
D21
330
1F
100
AcDbEntity
  8
0
100
AcDbText
 10
227.753819108382
 20
182.8468634582744
 30
0.0
 40
1.8
  1
MPa
100
AcDbText
  0
LWPOLYLINE
  5
D30
330
1F
100
AcDbEntity
  8
0
100
AcDbPolyline
 90
        4
 70
     1
 43
0.0
 10
226.6583675865144
 20
180.5884625094476
 10
228.6337121139031
 20
180.5884625094476
 10
228.6337121139031
 20
179.3751045369361
 10
226.6583675865144
 20
179.3751045369361
1001
GENIUS_GENREC_14
1002
{
1000
PYDIR
1011
226.6583675865144
1021
179.3751045369361
1031
0.0
1002
}
1002
{
1000
PXDIR
1011
228.6337121139031
1021
180.5884625094476
1031
0.0
1002
}
1002
{
1000
PORI
1011
226.6583675865144
1021
180.5884625094476
1031
0.0
1002
}
1002
{
1000
PINS
1011
226.6583675865144
1021
180.5884625094476
1031
0.0
1002
}
1002
{
1000
PINS2
1011
228.6337121139031
1021
179.3751045369361
1031
0.0
1002
}
1002
{
1000
C
1070
     1
1002
}
1001
GENIUS_GENOBJ-N-REC_13
1002
{
1000
OWNER
1000
GEN
1002
}
1001
GENIUS_GENODEF_13
1002
{
1000
HIER
1070
     0
1002
}
1002
{
1000
MANEDIT
1070
     0
1002
}
1002
{
1000
NOSEL
1070
     0
1002
}
1002
{
1000
BEHIND
1070
     0
1002
}
1002
{
1000
OTHER
1070
     0
1002
}
1002
{
1000
REACTOR
1002
}
  0
TEXT
  5
D33
330
1F
100
AcDbEntity
  8
0
100
AcDbText
 10
226.4262851091761
 20
178.0341742342427
 30
0.0
 40
0.8294400000000001
  1
OUT1
  7
CHINESET
100
AcDbText
  0
LWPOLYLINE
  5
D36
330
1F
100
AcDbEntity
  8
0
100
AcDbPolyline
 90
        4
 70
     1
 43
0.0
 10
230.3405886162387
 20
180.5884625094476
 10
232.3159331436273
 20
180.5884625094476
 10
232.3159331436273
 20
179.3751045369361
 10
230.3405886162387
 20
179.3751045369361
1001
GENIUS_GENREC_14
1002
{
1000
PYDIR
1011
230.3405886162387
1021
179.3751045369361
1031
0.0
1002
}
1002
{
1000
PXDIR
1011
232.3159331436273
1021
180.5884625094476
1031
0.0
1002
}
1002
{
1000
PORI
1011
230.3405886162387
1021
180.5884625094476
1031
0.0
1002
}
1002
{
1000
PINS
1011
230.3405886162387
1021
180.5884625094476
1031
0.0
1002
}
1002
{
1000
PINS2
1011
232.3159331436273
1021
179.3751045369361
1031
0.0
1002
}
1002
{
1000
C
1070
     1
1002
}
1001
GENIUS_GENOBJ-N-REC_13
1002
{
1000
OWNER
1000
GEN
1002
}
1001
GENIUS_GENODEF_13
1002
{
1000
HIER
1070
     0
1002
}
1002
{
1000
MANEDIT
1070
     0
1002
}
1002
{
1000
NOSEL
1070
     0
1002
}
1002
{
1000
BEHIND
1070
     0
1002
}
1002
{
1000
OTHER
1070
     0
1002
}
1002
{
1000
REACTOR
1002
}
  0
TEXT
  5
D37
330
1F
100
AcDbEntity
  8
0
100
AcDbText
 10
230.1085061389003
 20
178.0341742342427
 30
0.0
 40
0.8294400000000001
  1
OUT2
  7
CHINESET
100
AcDbText
  0
LINE
  5
D4C
330
1F
100
AcDbEntity
  8
AM_VIS
100
AcDbLine
 10
241.6450796111862
 20
226.2885740676779
 30
0.0
 11
247.5643562765827
 21
226.2885740676779
 31
0.0
  0
LINE
  5
D4D
330
1F
100
AcDbEntity
  8
AM_VIS
100
AcDbLine
 10
248.5643562765827
 20
226.2885740676779
 30
0.0
 11
261.6450796111863
 21
226.2885740676779
 31
0.0
  0
LINE
  5
D4E
330
1F
100
AcDbEntity
  8
AM_VIS
100
AcDbLine
 10
241.6450796111862
 20
230.2885740676779
 30
0.0
 11
247.1124354064087
 21
230.2885740676779
 31
0.0
  0
LINE
  5
D4F
330
1F
100
AcDbEntity
  8
AM_VIS
100
AcDbLine
 10
248.1124354064087
 20
230.2885740676779
 30
0.0
 11
261.6450796111863
 21
230.2885740676779
 31
0.0
  0
LINE
  5
D50
330
1F
100
AcDbEntity
  8
AM_VIS
100
AcDbLine
 10
261.6450796111863
 20
230.2885740676779
 30
0.0
 11
261.6450796111863
 21
226.2885740676779
 31
0.0
  0
LINE
  5
D51
330
1F
100
AcDbEntity
  8
AM_7
100
AcDbLine
 10
262.6450796111862
 20
228.2885740676779
 30
0.0
 11
237.0028990959423
 21
228.2885740676779
 31
0.0
1001
GENIUS_GENODEF_13
1002
{
1000
HIER
1070
     0
1002
}
1002
{
1000
MANEDIT
1070
     0
1002
}
1002
{
1000
NOSEL
1070
     0
1002
}
1002
{
1000
BEHIND
1070
     0
1002
}
1002
{
1000
OTHER
1070
     0
1002
}
1002
{
1000
REACTOR
1002
}
1001
GENIUS_GENOBJ-N-CEN_13
1002
{
1000
OWNER
1000
GEN
1002
}
1001
GENIUS_GENCEN_19
1002
{
1040
1.0
1002
}
  0
SPLINE
  5
D52
330
1F
100
AcDbEntity
  8
0
100
AcDbSpline
210
0.0
220
0.0
230
1.0
 70
     8
 71
     3
 72
    10
 73
     6
 74
     0
 42
0.0000000001
 43
0.0000000001
 40
1.090203416053066
 40
1.090203416053066
 40
1.090203416053066
 40
1.090203416053066
 40
2.31322540138396
 40
3.987711229665411
 40
5.405091274369596
 40
5.405091274369596
 40
5.405091274369596
 40
5.405091274369596
 10
247.1124354064087
 20
230.2885740676779
 30
0.0
 10
247.0064225678427
 20
229.8840464465568
 30
0.0
 10
246.9242737820795
 20
228.9450795690592
 30
0.0
 10
248.0671387478053
 20
227.6921345691005
 30
0.0
 10
247.7909146411012
 20
226.7335541159374
 30
0.0
 10
247.5643562766004
 20
226.2885740677128
 30
0.0
  0
SPLINE
  5
D53
330
1F
100
AcDbEntity
  8
0
100
AcDbSpline
210
0.0
220
0.0
230
1.0
 70
     8
 71
     3
 72
    10
 73
     6
 74
     0
 42
0.0000000001
 43
0.0000000001
 40
1.090203416053066
 40
1.090203416053066
 40
1.090203416053066
 40
1.090203416053066
 40
2.31322540138396
 40
3.987711229665411
 40
5.405091274369596
 40
5.405091274369596
 40
5.405091274369596
 40
5.405091274369596
 10
248.1124354064087
 20
230.2885740676779
 30
0.0
 10
248.0064225678427
 20
229.8840464465568
 30
0.0
 10
247.9242737820795
 20
228.9450795690592
 30
0.0
 10
249.0671387478053
 20
227.6921345691005
 30
0.0
 10
248.7909146411012
 20
226.7335541159374
 30
0.0
 10
248.5643562766004
 20
226.2885740677128
 30
0.0
  0
LINE
  5
D63
330
1F
100
AcDbEntity
  8
AM_VIS
100
AcDbLine
 10
241.6450796111862
 20
176.8746927848693
 30
0.0
 11
247.5643562765827
 21
176.8746927848693
 31
0.0
  0
LINE
  5
D64
330
1F
100
AcDbEntity
  8
AM_VIS
100
AcDbLine
 10
248.5643562765827
 20
176.8746927848693
 30
0.0
 11
261.6450796111863
 21
176.8746927848693
 31
0.0
  0
LINE
  5
D65
330
1F
100
AcDbEntity
  8
AM_VIS
100
AcDbLine
 10
241.6450796111862
 20
180.8746927848693
 30
0.0
 11
247.1124354064087
 21
180.8746927848693
 31
0.0
  0
LINE
  5
D66
330
1F
100
AcDbEntity
  8
AM_VIS
100
AcDbLine
 10
248.1124354064087
 20
180.8746927848693
 30
0.0
 11
261.6450796111863
 21
180.8746927848693
 31
0.0
  0
LINE
  5
D67
330
1F
100
AcDbEntity
  8
AM_VIS
100
AcDbLine
 10
261.6450796111863
 20
180.8746927848693
 30
0.0
 11
261.6450796111863
 21
176.8746927848693
 31
0.0
  0
LINE
  5
D68
330
1F
100
AcDbEntity
  8
AM_7
100
AcDbLine
 10
262.6450796111862
 20
178.8746927848693
 30
0.0
 11
237.0028990959423
 21
178.8746927848693
 31
0.0
1001
GENIUS_GENODEF_13
1002
{
1000
HIER
1070
     0
1002
}
1002
{
1000
MANEDIT
1070
     0
1002
}
1002
{
1000
NOSEL
1070
     0
1002
}
1002
{
1000
BEHIND
1070
     0
1002
}
1002
{
1000
OTHER
1070
     0
1002
}
1002
{
1000
REACTOR
1002
}
1001
GENIUS_GENOBJ-N-CEN_13
1002
{
1000
OWNER
1000
GEN
1002
}
1001
GENIUS_GENCEN_19
1002
{
1040
1.0
1002
}
  0
SPLINE
  5
D69
330
1F
100
AcDbEntity
  8
0
100
AcDbSpline
210
0.0
220
0.0
230
1.0
 70
     8
 71
     3
 72
    10
 73
     6
 74
     0
 42
0.0000000001
 43
0.0000000001
 40
1.090203416053066
 40
1.090203416053066
 40
1.090203416053066
 40
1.090203416053066
 40
2.31322540138396
 40
3.987711229665411
 40
5.405091274369596
 40
5.405091274369596
 40
5.405091274369596
 40
5.405091274369596
 10
247.1124354064087
 20
180.8746927848693
 30
0.0
 10
247.0064225678427
 20
180.4701651637482
 30
0.0
 10
246.9242737820795
 20
179.5311982862506
 30
0.0
 10
248.0671387478053
 20
178.2782532862919
 30
0.0
 10
247.7909146411012
 20
177.3196728331288
 30
0.0
 10
247.5643562766004
 20
176.8746927849042
 30
0.0
  0
SPLINE
  5
D6A
330
1F
100
AcDbEntity
  8
0
100
AcDbSpline
210
0.0
220
0.0
230
1.0
 70
     8
 71
     3
 72
    10
 73
     6
 74
     0
 42
0.0000000001
 43
0.0000000001
 40
1.090203416053066
 40
1.090203416053066
 40
1.090203416053066
 40
1.090203416053066
 40
2.31322540138396
 40
3.987711229665411
 40
5.405091274369596
 40
5.405091274369596
 40
5.405091274369596
 40
5.405091274369596
 10
248.1124354064087
 20
180.8746927848693
 30
0.0
 10
248.0064225678427
 20
180.4701651637482
 30
0.0
 10
247.9242737820795
 20
179.5311982862506
 30
0.0
 10
249.0671387478053
 20
178.2782532862919
 30
0.0
 10
248.7909146411012
 20
177.3196728331288
 30
0.0
 10
248.5643562766004
 20
176.8746927849042
 30
0.0
  0
TEXT
  5
E0A
330
1F
100
AcDbEntity
  8
LOGO
 62
     7
100
AcDbText
 10
144.7949807046234
 20
108.765144683854
 30
0.0
 40
2.666280542986425
  1
Order example:
 41
0.8
  7
CHINESET
100
AcDbText
  0
TEXT
  5
E0B
330
1F
100
AcDbEntity
  8
LOGO
 62
     7
100
AcDbText
 10
145.2733334832783
 20
112.5187156279482
 30
0.0
 40
3.999420814479637
  1
訂購代號：
  7
CHINESET
100
AcDbText
  0
LINE
  5
E0C
330
1F
100
AcDbEntity
  8
LOGO
 62
     4
100
AcDbLine
 10
143.6364727651921
 20
97.52843162577073
 30
0.0
 11
143.6364727651921
 21
117.525535698169
 31
0.0
  0
TEXT
  5
E0D
330
1F
100
AcDbEntity
  8
LOGO
  6
Continuous
100
AcDbText
 10
106.8258934774435
 20
101.4568325425321
 30
0.0
 40
2.999565610859728
  1
金器工業股份有限公司
  7
CHINESET
100
AcDbText
  0
TEXT
  5
E0E
330
1F
100
AcDbEntity
  8
LOGO
  6
Continuous
100
AcDbText
 10
101.3162848850852
 20
98.45667925198767
 30
0.0
 40
1.999710407239818
  1
MINDMAN INDUSTRIAL CO., LTD.
 41
0.85
  7
CHINESET
100
AcDbText
  0
LINE
  5
E0F
330
1F
100
AcDbEntity
  8
LOGO
 62
     4
100
AcDbLine
 10
143.6364727651921
 20
113.5261148836894
 30
0.0
 11
114.3073867923412
 21
113.5261148836894
 31
0.0
  0
LINE
  5
E10
330
1F
100
AcDbEntity
  8
LOGO
 62
     4
100
AcDbLine
 10
143.6364727651921
 20
109.5266940692097
 30
0.0
 11
114.3073867923412
 21
109.5266940692097
 31
0.0
  0
LINE
  5
E11
330
1F
100
AcDbEntity
  8
LOGO
 62
     4
100
AcDbLine
 10
143.6364727651921
 20
105.5272732547303
 30
0.0
 11
99.64284380591607
 21
105.5272732547303
 31
0.0
  0
LINE
  5
E12
330
1F
100
AcDbEntity
  8
LOGO
 62
     4
100
AcDbLine
 10
114.3073867923412
 20
105.5272732547303
 30
0.0
 11
114.3073867923412
 21
117.525535698169
 31
0.0
  0
TEXT
  5
E13
330
1F
100
AcDbEntity
  8
LOGO
100
AcDbText
 10
134.3524327430126
 20
106.5271284583498
 30
0.0
 40
1.999710407239818
  1
mm
  7
CHINESET
 72
     1
 11
136.8282646757857
 21
107.5269836619697
 31
0.0
100
AcDbText
 73
     2
  0
TEXT
  5
E14
330
1F
100
AcDbEntity
  8
LOGO
100
AcDbText
 10
133.3049653868393
 20
114.5259700873092
 30
0.0
 40
1.999710407239818
  1
1 : 1
  7
CHINESET
 72
     1
 11
136.8282646757857
 21
115.5258252909291
 31
0.0
100
AcDbText
 73
     2
  0
LINE
  5
E15
330
1F
100
AcDbEntity
  8
LOGO
 62
     4
100
AcDbLine
 10
130.3050700502599
 20
105.5272732547303
 30
0.0
 11
130.3050700502599
 21
117.525535698169
 31
0.0
  0
TEXT
  5
E16
330
1F
100
AcDbEntity
  8
LOGO
100
AcDbText
 10
115.9562551504538
 20
114.5269541967615
 30
131.0577257600498
 40
1.999710407239818
  1
比例 Scale:
 41
0.9
  7
CHINESET
 72
     4
 11
122.3062284213006
 21
115.5258252909291
 31
131.0577257600498
100
AcDbText
  0
TEXT
  5
E17
330
1F
100
AcDbEntity
  8
LOGO
100
AcDbText
 10
115.8410932564654
 20
110.5546784013434
 30
131.0577257600498
 40
1.999710407239818
  1
投影  View:
 41
0.9
  7
CHINESET
 72
     4
 11
122.3062284213006
 21
111.5264044764494
 31
131.0577257600498
100
AcDbText
  0
TEXT
  5
E18
330
1F
100
AcDbEntity
  8
LOGO
100
AcDbText
 10
116.0366006578875
 20
106.5271284583498
 30
131.0577257600498
 40
1.999710407239818
  1
單位  Unit:
 41
0.9
  7
CHINESET
 72
     4
 11
122.3062284213006
 21
107.5269836619697
 31
131.0577257600498
100
AcDbText
  0
LWPOLYLINE
  5
E19
330
1F
100
AcDbEntity
  8
LOGO
 62
     4
100
AcDbPolyline
 90
        4
 70
     1
 43
0.0
 10
99.64284380591607
 20
117.525535698169
 10
374.6428438059161
 20
117.525535698169
 10
374.6428438059161
 20
297.5284316257704
 10
99.64284380591607
 20
297.5284316257704
1001
GENIUS_GENREC_14
1002
{
1000
PYDIR
1011
99.64284380591607
1021
297.5284316257704
1031
0.0
1002
}
1002
{
1000
PXDIR
1011
374.6428438059161
1021
117.525535698169
1031
0.0
1002
}
1002
{
1000
PORI
1011
99.64284380591607
1021
117.525535698169
1031
0.0
1002
}
1002
{
1000
PINS
1011
99.64284380591607
1021
117.525535698169
1031
0.0
1002
}
1002
{
1000
PINS2
1011
374.6428438059161
1021
297.5284316257704
1031
0.0
1002
}
1002
{
1000
C
1070
     1
1002
}
1001
GENIUS_GENODEF_13
1002
{
1000
HIER
1070
     0
1002
}
1002
{
1000
MANEDIT
1070
     0
1002
}
1002
{
1000
NOSEL
1070
     0
1002
}
1002
{
1000
BEHIND
1070
     0
1002
}
1002
{
1000
OTHER
1070
     0
1002
}
1002
{
1000
REACTOR
1002
}
1001
GENIUS_GENOBJ-N-REC_13
1002
{
1000
OWNER
1000
GEN
1002
}
  0
SOLID
  5
E1A
330
1F
100
AcDbEntity
  8
LOGO
 62
     5
100
AcDbTrace
 10
101.7175754463383
 20
108.8515071704037
 30
0.0
 11
102.5821977540277
 21
108.8515071704034
 31
0.0
 12
106.1897597964557
 22
117.0505118122862
 32
0.0
 13
107.0543821041456
 23
117.0505118122858
 33
0.0
  0
SOLID
  5
E1B
330
1F
100
AcDbEntity
  8
LOGO
 62
     5
100
AcDbTrace
 10
102.939972502038
 20
108.8515071704037
 30
0.0
 11
103.8045948097274
 21
108.8515071704037
 31
0.0
 12
107.0543821041456
 22
116.3945914409353
 32
0.0
 13
106.1897597964557
 23
113.224309646074
 33
0.0
  0
SOLID
  5
E1C
330
1F
100
AcDbEntity
  8
LOGO
 62
     2
100
AcDbTrace
 10
102.5821977540277
 20
108.8515071704034
 30
0.0
 11
102.939972502038
 21
108.8515071704037
 31
0.0
 12
107.0543821041456
 22
117.0505118122858
 32
0.0
 13
107.4121568521555
 23
117.0505118122858
 33
0.0
  0
SOLID
  5
E1D
330
1F
100
AcDbEntity
  8
LOGO
 62
     5
100
AcDbTrace
 10
100.3313738557499
 20
105.8700509369921
 30
0.0
 11
100.6295194790914
 21
105.8700509369921
 31
0.0
 12
101.4691207602209
 22
107.3607790536978
 32
0.0
 13
101.7672663835615
 23
107.3607790536978
 33
0.0
  0
SOLID
  5
E1E
330
1F
100
AcDbEntity
  8
LOGO
 62
     5
100
AcDbTrace
 10
101.4691207602209
 20
107.3607790536978
 30
0.0
 11
101.7672663835615
 21
107.3607790536978
 31
0.0
 12
101.4691207602209
 22
105.8700509369921
 32
0.0
 13
101.7672663835615
 23
105.8700509369921
 33
0.0
  0
SOLID
  5
E1F
330
1F
100
AcDbEntity
  8
LOGO
 62
     5
100
AcDbTrace
 10
101.4691207602209
 20
105.8700509369921
 30
0.0
 11
101.7672663835615
 21
105.8700509369921
 31
0.0
 12
102.6068676646923
 22
107.3607790536978
 32
0.0
 13
102.9050132880334
 23
107.3607790536978
 33
0.0
  0
SOLID
  5
E20
330
1F
100
AcDbEntity
  8
LOGO
 62
     5
100
AcDbTrace
 10
102.6068676646923
 20
107.3607790536978
 30
0.0
 11
102.9050132880334
 21
107.3607790536978
 31
0.0
 12
102.6068676646923
 22
105.8700509369921
 32
0.0
 13
102.9050132880334
 23
105.8700509369921
 33
0.0
  0
POLYLINE
  5
E21
330
1F
100
AcDbEntity
  8
LOGO
 62
     5
100
AcDb2dPolyline
 66
     1
 10
0.0
 20
0.0
 30
0.0
 40
0.2986234208144796
 41
0.2986234208144796
  0
VERTEX
  5
E22
330
E21
100
AcDbEntity
  8
LOGO
 62
     5
100
AcDbVertex
100
AcDb2dVertex
 10
112.6006073945018
 20
106.7644878070155
 30
0.0
 42
1.0
  0
VERTEX
  5
E23
330
E21
100
AcDbEntity
  8
LOGO
 62
     5
100
AcDbVertex
100
AcDb2dVertex
 10
111.7047371320582
 20
106.7644878070155
 30
0.0
 42
1.0
  0
SEQEND
  5
E24
330
E21
100
AcDbEntity
  8
LOGO
 62
     5
  0
POLYLINE
  5
E25
330
1F
100
AcDbEntity
  8
LOGO
 62
     5
100
AcDb2dPolyline
 66
     1
 10
0.0
 20
0.0
 30
0.0
 70
     1
  0
VERTEX
  5
E26
330
E25
100
AcDbEntity
  8
LOGO
 62
     5
100
AcDbVertex
100
AcDb2dVertex
 10
110.0159818390425
 20
106.6154149953447
 30
0.0
 42
1.000000057330635
  0
VERTEX
  5
E27
330
E25
100
AcDbEntity
  8
LOGO
 62
     5
100
AcDbVertex
100
AcDb2dVertex
 10
110.9104187090661
 20
106.6154149953447
 30
0.0
 42
1.000000057330635
  0
SEQEND
  5
E28
330
E25
100
AcDbEntity
  8
LOGO
 62
     5
  0
CIRCLE
  5
E29
330
1F
100
AcDbEntity
  8
LOGO
 62
     5
100
AcDbCircle
 10
110.463200274055
 20
106.6154149953447
 30
0.0
 40
0.4472184350117648
  0
POLYLINE
  5
E2A
330
1F
100
AcDbEntity
  8
LOGO
 62
     5
100
AcDb2dPolyline
 66
     1
 10
0.0
 20
0.0
 30
0.0
 70
     1
 40
0.2986234208144796
 41
0.2986234208144796
  0
VERTEX
  5
E2B
330
E2A
100
AcDbEntity
  8
LOGO
 62
     5
100
AcDbVertex
100
AcDb2dVertex
 10
109.8659534324256
 20
106.6154149953447
 30
0.0
 42
1.0
  0
VERTEX
  5
E2C
330
E2A
100
AcDbEntity
  8
LOGO
 62
     5
100
AcDbVertex
100
AcDb2dVertex
 10
111.0604471156835
 20
106.6154149953447
 30
0.0
 42
1.0
  0
SEQEND
  5
E2D
330
E2A
100
AcDbEntity
  8
LOGO
 62
     5
  0
LINE
  5
E2E
330
1F
100
AcDbEntity
  8
LOGO
100
AcDbLine
 10
112.7489635099618
 20
105.8700509369921
 30
0.0
 11
112.7489635099618
 21
106.7644878070155
 31
0.0
  0
SOLID
  5
E2F
330
1F
100
AcDbEntity
  8
LOGO
 62
     5
100
AcDbTrace
 10
110.9103888945051
 20
107.3607790536978
 30
0.0
 11
111.2085345178457
 21
107.3607790536978
 31
0.0
 12
110.9103888945051
 22
105.8700509369921
 32
0.0
 13
111.2085345178457
 23
105.8700509369921
 33
0.0
  0
SOLID
  5
E30
330
1F
100
AcDbEntity
  8
LOGO
 62
     5
100
AcDbTrace
 10
111.5563810165972
 20
105.8700509369921
 30
0.0
 11
111.8545266399387
 21
105.8700509369921
 31
0.0
 12
111.5563810165972
 22
107.3607790536978
 32
0.0
 13
111.8545266399387
 23
107.3607790536978
 33
0.0
  0
SOLID
  5
E31
330
1F
100
AcDbEntity
  8
LOGO
 62
     5
100
AcDbTrace
 10
112.4508178866213
 20
106.7644878070155
 30
0.0
 11
112.7489635099618
 21
106.7644878070155
 31
0.0
 12
112.4508178866213
 22
105.8700509369921
 32
0.0
 13
112.7489635099618
 23
105.8700509369921
 33
0.0
  0
SOLID
  5
E32
330
1F
100
AcDbEntity
  8
LOGO
 62
     5
100
AcDbTrace
 10
111.526566454263
 20
116.3945914409353
 30
0.0
 11
110.6619441465741
 21
113.224309646074
 31
0.0
 12
111.526566454263
 22
108.8515071704034
 32
0.0
 13
110.6619441465741
 23
108.8515071704034
 33
0.0
  0
SOLID
  5
E33
330
1F
100
AcDbEntity
  8
LOGO
 62
     5
100
AcDbTrace
 10
111.8843412022729
 20
108.8515071704034
 30
0.0
 11
112.7489635099618
 21
108.8515071704034
 31
0.0
 12
111.8843412022729
 22
117.0505118122858
 32
0.0
 13
112.7489635099618
 23
117.0505118122862
 33
0.0
  0
SOLID
  5
E34
330
1F
100
AcDbEntity
  8
LOGO
 62
     2
100
AcDbTrace
 10
111.526566454263
 20
117.0505118122862
 30
0.0
 11
111.8843412022729
 21
117.0505118122858
 31
0.0
 12
111.526566454263
 22
108.8515071704034
 32
0.0
 13
111.8843412022729
 23
108.8515071704034
 33
0.0
  0
POLYLINE
  5
E35
330
1F
100
AcDbEntity
  8
LOGO
 62
     5
100
AcDb2dPolyline
 66
     1
 10
0.0
 20
0.0
 30
0.0
 40
0.2986234208144796
 41
0.2986234208144796
  0
VERTEX
  5
E36
330
E35
100
AcDbEntity
  8
LOGO
 62
     5
100
AcDbVertex
100
AcDb2dVertex
 10
108.3271669169034
 20
106.7644878070155
 30
0.0
 42
1.0
  0
VERTEX
  5
E37
330
E35
100
AcDbEntity
  8
LOGO
 62
     5
100
AcDbVertex
100
AcDb2dVertex
 10
107.4312966544598
 20
106.7644878070155
 30
0.0
 42
1.0
  0
SEQEND
  5
E38
330
E35
100
AcDbEntity
  8
LOGO
 62
     5
  0
POLYLINE
  5
E39
330
1F
100
AcDbEntity
  8
LOGO
 62
     5
100
AcDb2dPolyline
 66
     1
 10
0.0
 20
0.0
 30
0.0
 40
0.2986234208144796
 41
0.2986234208144796
  0
VERTEX
  5
E3A
330
E39
100
AcDbEntity
  8
LOGO
 62
     5
100
AcDbVertex
100
AcDb2dVertex
 10
109.2216037869261
 20
106.7644878070155
 30
0.0
 42
1.0
  0
VERTEX
  5
E3B
330
E39
100
AcDbEntity
  8
LOGO
 62
     5
100
AcDbVertex
100
AcDb2dVertex
 10
108.325733524483
 20
106.7644878070155
 30
0.0
 42
1.0
  0
SEQEND
  5
E3C
330
E39
100
AcDbEntity
  8
LOGO
 62
     5
  0
POLYLINE
  5
E3D
330
1F
100
AcDbEntity
  8
LOGO
 62
     5
100
AcDb2dPolyline
 66
     1
 10
0.0
 20
0.0
 30
0.0
 40
0.2986234208144796
 41
0.2986234208144796
  0
VERTEX
  5
E3E
330
E3D
100
AcDbEntity
  8
LOGO
 62
     5
100
AcDbVertex
100
AcDb2dVertex
 10
104.9481633093278
 20
106.7644878070155
 30
0.0
 42
1.0
  0
VERTEX
  5
E3F
330
E3D
100
AcDbEntity
  8
LOGO
 62
     5
100
AcDbVertex
100
AcDb2dVertex
 10
104.0522930468846
 20
106.7644878070155
 30
0.0
 42
1.0
  0
SEQEND
  5
E40
330
E3D
100
AcDbEntity
  8
LOGO
 62
     5
  0
SOLID
  5
E41
330
1F
100
AcDbEntity
  8
LOGO
 62
     5
100
AcDbTrace
 10
103.9039369314241
 20
107.3607790536978
 30
0.0
 11
104.2020825547647
 21
107.3607790536978
 31
0.0
 12
103.9039369314241
 22
105.8700509369921
 32
0.0
 13
104.2020825547647
 23
105.8700509369921
 33
0.0
  0
SOLID
  5
E42
330
1F
100
AcDbEntity
  8
LOGO
 62
     5
100
AcDbTrace
 10
104.7983738014477
 20
106.7644878070155
 30
0.0
 11
105.0965194247892
 21
106.7644878070155
 31
0.0
 12
104.7983738014477
 22
105.8700509369921
 32
0.0
 13
105.0965194247892
 23
105.8700509369921
 33
0.0
  0
POLYLINE
  5
E43
330
1F
100
AcDbEntity
  8
LOGO
 62
     5
100
AcDb2dPolyline
 66
     1
 10
0.0
 20
0.0
 30
0.0
 70
     1
 40
0.2986234208144796
 41
0.2986234208144796
  0
VERTEX
  5
E44
330
E43
100
AcDbEntity
  8
LOGO
 62
     5
100
AcDbVertex
100
AcDb2dVertex
 10
105.5925129548268
 20
106.6154149953447
 30
0.0
 42
1.0
  0
VERTEX
  5
E45
330
E43
100
AcDbEntity
  8
LOGO
 62
     5
100
AcDbVertex
100
AcDb2dVertex
 10
106.7870066380851
 20
106.6154149953447
 30
0.0
 42
1.0
  0
SEQEND
  5
E46
330
E43
100
AcDbEntity
  8
LOGO
 62
     5
  0
SOLID
  5
E47
330
1F
100
AcDbEntity
  8
LOGO
 62
     5
100
AcDbTrace
 10
106.6369484169058
 20
107.8079974887098
 30
0.0
 11
106.9350940402469
 21
107.8079974887098
 31
0.0
 12
106.6369484169058
 22
105.8700509369921
 32
0.0
 13
106.9350940402469
 23
105.8700509369921
 33
0.0
  0
SOLID
  5
E48
330
1F
100
AcDbEntity
  8
LOGO
 62
     5
100
AcDbTrace
 10
107.2829405389998
 20
107.3607790536978
 30
0.0
 11
107.5810861623404
 21
107.3607790536978
 31
0.0
 12
107.2829405389998
 22
105.8700509369921
 32
0.0
 13
107.5810861623404
 23
105.8700509369921
 33
0.0
  0
SOLID
  5
E49
330
1F
100
AcDbEntity
  8
LOGO
 62
     5
100
AcDbTrace
 10
108.1773774090225
 20
106.7644878070155
 30
0.0
 11
108.475523032364
 21
106.7644878070155
 31
0.0
 12
108.1773774090225
 22
105.8700509369921
 32
0.0
 13
108.475523032364
 23
105.8700509369921
 33
0.0
  0
SOLID
  5
E4A
330
1F
100
AcDbEntity
  8
LOGO
 62
     5
100
AcDbTrace
 10
109.071814279046
 20
106.7644878070155
 30
0.0
 11
109.3699599023871
 21
106.7644878070155
 31
0.0
 12
109.071814279046
 22
105.8700509369916
 32
0.0
 13
109.3699599023871
 23
105.8700509369916
 33
0.0
  0
SOLID
  5
E4B
330
1F
100
AcDbEntity
  8
LOGO
 62
     5
100
AcDbTrace
 10
103.2579448093306
 20
107.5694809900367
 30
0.0
 11
103.5560904326726
 21
107.5694809900367
 31
0.0
 12
103.2579448093306
 22
107.8079974887098
 32
0.0
 13
103.5560904326726
 23
107.8079974887098
 33
0.0
  0
SOLID
  5
E4C
330
1F
100
AcDbEntity
  8
LOGO
 62
     5
100
AcDbTrace
 10
103.2579448093306
 20
107.3607790536978
 30
0.0
 11
103.5560904326726
 21
107.3607790536978
 31
0.0
 12
103.2579448093306
 22
105.8700509369916
 32
0.0
 13
103.5560904326726
 23
105.8700509369921
 33
0.0
  0
SOLID
  5
E4D
330
1F
100
AcDbEntity
  8
LOGO
 62
     5
100
AcDbTrace
 10
106.1897597964557
 20
108.8515071704037
 30
0.0
 11
107.0543821041456
 21
108.8515071704037
 31
0.0
 12
106.1897597964557
 22
113.224309646074
 32
0.0
 13
107.0543821041456
 23
116.3945914409353
 33
0.0
  0
SOLID
  5
E4E
330
1F
100
AcDbEntity
  8
LOGO
 62
     5
100
AcDbTrace
 10
107.4121568521555
 20
117.0505118122858
 30
0.0
 11
108.2767791598444
 21
117.0505118122862
 31
0.0
 12
107.4121568521555
 22
109.5074275417541
 32
0.0
 13
108.2767791598444
 23
112.6777093366154
 33
0.0
  0
SOLID
  5
E4F
330
1F
100
AcDbEntity
  8
LOGO
 62
     2
100
AcDbTrace
 10
107.0543821041456
 20
117.0505118122858
 30
0.0
 11
107.4121568521555
 21
117.0505118122858
 31
0.0
 12
107.0543821041456
 22
108.8515071704037
 32
0.0
 13
107.4121568521555
 23
108.8515071704037
 33
0.0
  0
SOLID
  5
E50
330
1F
100
AcDbEntity
  8
LOGO
 62
     5
100
AcDbTrace
 10
107.4121568521555
 20
109.5074275417541
 30
0.0
 11
108.2767791598444
 21
112.6777093366154
 31
0.0
 12
111.526566454263
 22
117.0505118122862
 32
0.0
 13
110.6619441465741
 23
117.0505118122862
 33
0.0
  0
SOLID
  5
E51
330
1F
100
AcDbEntity
  8
LOGO
 62
     5
100
AcDbTrace
 10
107.4121568521555
 20
108.8515071704037
 30
0.0
 11
108.2767791598444
 21
108.8515071704037
 31
0.0
 12
111.526566454263
 22
116.3945914409353
 32
0.0
 13
110.6619441465741
 23
113.224309646074
 33
0.0
  0
SOLID
  5
E52
330
1F
100
AcDbEntity
  8
LOGO
 62
     2
100
AcDbTrace
 10
107.0543821041456
 20
108.8515071704037
 30
0.0
 11
107.4121568521555
 21
108.8515071704037
 31
0.0
 12
111.526566454263
 22
117.0505118122862
 32
0.0
 13
111.8843412022729
 23
117.0505118122858
 33
0.0
  0
LWPOLYLINE
  5
E53
330
1F
100
AcDbEntity
  8
LOGO
 62
     4
100
AcDbPolyline
 90
        4
 70
     1
 43
0.0
 10
99.64284380591607
 20
117.525535698169
 10
374.6428438059161
 20
117.525535698169
 10
374.6428438059161
 20
97.5284316257705
 10
99.64284380591607
 20
97.5284316257705
1001
GENIUS_GENREC_14
1002
{
1000
PYDIR
1011
99.64284380591607
1021
97.5284316257705
1031
0.0
1002
}
1002
{
1000
PXDIR
1011
374.6428438059161
1021
117.525535698169
1031
0.0
1002
}
1002
{
1000
PORI
1011
99.64284380591607
1021
117.525535698169
1031
0.0
1002
}
1002
{
1000
PINS
1011
99.64284380591607
1021
117.525535698169
1031
0.0
1002
}
1002
{
1000
PINS2
1011
374.6428438059161
1021
97.5284316257705
1031
0.0
1002
}
1002
{
1000
C
1070
     1
1002
}
1001
GENIUS_GENOBJ-N-REC_13
1002
{
1000
OWNER
1000
GEN
1002
}
1001
GENIUS_GENODEF_13
1002
{
1000
HIER
1070
     0
1002
}
1002
{
1000
MANEDIT
1070
     0
1002
}
1002
{
1000
NOSEL
1070
     0
1002
}
1002
{
1000
BEHIND
1070
     0
1002
}
1002
{
1000
OTHER
1070
     0
1002
}
1002
{
1000
REACTOR
1002
}
  0
LINE
  5
E54
330
1F
100
AcDbEntity
  8
LOGO
 62
     4
100
AcDbLine
 10
179.4572545702017
 20
106.5271284583502
 30
0.0
 11
179.4572545702017
 21
99.19485696513721
 31
0.0
  0
LINE
  5
E55
330
1F
100
AcDbEntity
  8
LOGO
 62
     4
100
AcDbLine
 10
171.1416019002422
 20
106.5271284583502
 30
0.0
 11
171.1416019002422
 21
99.19485696513721
 31
0.0
  0
LINE
  5
E56
330
1F
100
AcDbEntity
  8
LOGO
 62
     4
100
AcDbLine
 10
179.4572545702017
 20
99.19485696513721
 30
0.0
 11
171.1416019002422
 21
99.19485696513721
 31
0.0
  0
LINE
  5
E57
330
1F
100
AcDbEntity
  8
LOGO
 62
     4
100
AcDbLine
 10
186.8641333716473
 20
115.5258252909291
 30
0.0
 11
171.1416019002422
 21
115.5258252909291
 31
0.0
  0
LINE
  5
E58
330
1F
100
AcDbEntity
  8
LOGO
 62
     4
100
AcDbLine
 10
186.8641333716473
 20
109.5266940692097
 30
0.0
 11
171.1416019002422
 21
109.5266940692097
 31
0.0
  0
LINE
  5
E59
330
1F
100
AcDbEntity
  8
LOGO
 62
     4
100
AcDbLine
 10
171.1416019002422
 20
115.5258252909291
 30
0.0
 11
171.1416019002422
 21
109.5266940692097
 31
0.0
  0
LINE
  5
E5A
330
1F
100
AcDbEntity
  8
LOGO
 62
     4
100
AcDbLine
 10
186.8641333716473
 20
115.5258252909291
 30
0.0
 11
186.8641333716473
 21
109.5266940692097
 31
0.0
  0
LINE
  5
E5B
330
1F
100
AcDbEntity
  8
LOGO
 62
     4
100
AcDbLine
 10
176.2059230686776
 20
109.5266940692097
 30
0.0
 11
176.2059230686776
 21
106.5271284583502
 31
0.0
  0
TEXT
  5
E5C
330
1F
100
AcDbEntity
  8
LOGO
  6
Continuous
100
AcDbText
 10
172.2075535635222
 20
110.7790039410147
 30
0.0
 40
3.5
  1
MP30
  7
CHINESET
100
AcDbText
  0
LINE
  5
E5D
330
1F
100
AcDbEntity
  8
LOGO
 62
     4
100
AcDbLine
 10
179.4572545702017
 20
106.5271284583502
 30
0.0
 11
171.1416019002422
 21
106.5271284583502
 31
0.0
  0
TEXT
  5
E5E
330
1F
100
AcDbEntity
  8
LOGO
  6
Continuous
100
AcDbText
 10
172.8403696711771
 20
100.2297915379613
 30
131.0577257600498
 40
1.5
  1
Model
 41
0.8
  7
CHINESET
100
AcDbText
  0
TEXT
  5
E5F
330
1F
100
AcDbEntity
  8
LOGO
100
AcDbText
 10
172.4411184331779
 20
103.0104682648887
 30
131.0577257600498
 40
2.5
  1
型號
  7
CHINESET
100
AcDbText
  0
LINE
  5
E61
330
1F
100
AcDbEntity
  8
LOGO
 62
     4
100
AcDbLine
 10
195.9629747462522
 20
106.5271284583502
 30
0.0
 11
195.9629747462522
 21
99.19485696513721
 31
0.0
  0
LINE
  5
E62
330
1F
100
AcDbEntity
  8
LOGO
 62
     4
100
AcDbLine
 10
180.267820835666
 20
106.5271284583502
 30
0.0
 11
180.267820835666
 21
99.19485696513721
 31
0.0
  0
LINE
  5
E63
330
1F
100
AcDbEntity
  8
LOGO
 62
     4
100
AcDbLine
 10
195.9629747462522
 20
99.19485696513721
 30
0.0
 11
180.267820835666
 21
99.19485696513721
 31
0.0
  0
LINE
  5
E64
330
1F
100
AcDbEntity
  8
LOGO
 62
     4
100
AcDbLine
 10
192.3046909615905
 20
115.5258252909291
 30
0.0
 11
187.5622218572064
 21
115.5258252909291
 31
0.0
  0
LINE
  5
E65
330
1F
100
AcDbEntity
  8
LOGO
 62
     4
100
AcDbLine
 10
192.3046909615905
 20
109.5266940692097
 30
0.0
 11
187.5622218572064
 21
109.5266940692097
 31
0.0
  0
LINE
  5
E66
330
1F
100
AcDbEntity
  8
LOGO
 62
     4
100
AcDbLine
 10
187.5622218572064
 20
115.5258252909291
 30
0.0
 11
187.5622218572064
 21
109.5266940692097
 31
0.0
  0
LINE
  5
E67
330
1F
100
AcDbEntity
  8
LOGO
 62
     4
100
AcDbLine
 10
192.3046909615905
 20
115.5258252909291
 30
0.0
 11
192.3046909615905
 21
109.5266940692097
 31
0.0
  0
LINE
  5
E68
330
1F
100
AcDbEntity
  8
LOGO
 62
     4
100
AcDbLine
 10
189.9334564093984
 20
109.5266940692097
 30
0.0
 11
189.9334564093984
 21
106.5271284583502
 31
0.0
  0
TEXT
  5
E69
330
1F
100
AcDbEntity
  8
LOGO
  6
Continuous
100
AcDbText
 10
188.5374215564891
 20
110.7790039410147
 30
0.0
 40
3.5
  1
C
  7
CHINESET
100
AcDbText
  0
LINE
  5
E6A
330
1F
100
AcDbEntity
  8
LOGO
 62
     4
100
AcDbLine
 10
195.9629747462522
 20
106.5271284583502
 30
0.0
 11
180.267820835666
 21
106.5271284583502
 31
0.0
  0
LINE
  5
E6B
330
1F
100
AcDbEntity
  8
LOGO
  6
Continuous
100
AcDbLine
 10
193.0440839549708
 20
112.5050098091953
 30
0.0
 11
195.6930814039103
 21
112.5050098091953
 31
0.0
  0
TEXT
  5
E81
330
1F
100
AcDbEntity
  8
LOGO
  6
Continuous
100
AcDbText
 10
181.1270426834057
 20
100.2297915379613
 30
131.0577257600498
 40
1.5
  1
Pressure range
 41
0.8
  7
CHINESET
100
AcDbText
  0
TEXT
  5
E82
330
1F
100
AcDbEntity
  8
LOGO
100
AcDbText
 10
182.9830200390849
 20
103.0104682648887
 30
131.0577257600498
 40
2.5
  1
壓力類型
  7
CHINESET
100
AcDbText
  0
TEXT
  5
E93
330
1F
100
AcDbEntity
  8
LOGO
100
AcDbText
 10
144.5630083564298
 20
98.5922696696921
 30
0.0
 40
2.0
  1
10707102
 41
0.7
  7
CHINESET
 72
     1
 11
149.4296750230964
 21
98.5922696696921
 31
0.0
100
AcDbText
  0
LINE
  5
E94
330
1F
100
AcDbEntity
  8
LOGO
 62
     4
100
AcDbLine
 10
155.6364727651912
 20
101.5278524402508
 30
0.0
 11
155.6364727651921
 21
97.52843162577097
 31
0.0
  0
LINE
  5
E95
330
1F
100
AcDbEntity
  8
LOGO
 62
     4
100
AcDbLine
 10
155.6364727651912
 20
101.5278524402508
 30
0.0
 11
143.6364727651921
 21
101.5278524402508
 31
0.0
  0
CIRCLE
  5
E96
330
1F
100
AcDbEntity
  8
LOGO
  6
Continuous
100
AcDbCircle
 10
134.0077839890882
 20
111.5306818716442
 30
0.0
 40
1.161078930320631
  0
CIRCLE
  5
E97
330
1F
100
AcDbEntity
  8
LOGO
  6
Continuous
100
AcDbCircle
 10
134.0077839890882
 20
111.5306818716442
 30
0.0
 40
0.6802894686655972
  0
LINE
  5
E98
330
1F
100
AcDbEntity
  8
LOGO
100
AcDbLine
 10
141.3041387131247
 20
110.3696029413233
 30
0.0
 11
141.3041387131247
 21
112.6917608019651
 31
0.0
  0
LINE
  5
E99
330
1F
100
AcDbEntity
  8
LOGO
100
AcDbLine
 10
137.6642229156805
 20
110.8503924029787
 30
0.0
 11
137.6642229156805
 21
112.2109713403099
 31
0.0
  0
LINE
  5
E9A
330
1F
100
AcDbEntity
  8
LOGO
  6
Continuous
100
AcDbLine
 10
137.6642229156805
 20
112.2109713403099
 30
0.0
 11
141.3041387131247
 21
112.6917608019651
 31
0.0
  0
LINE
  5
E9B
330
1F
100
AcDbEntity
  8
LOGO
  6
Continuous
100
AcDbLine
 10
137.6642229156805
 20
110.8503924029787
 30
0.0
 11
141.3041387131247
 21
110.3696029413233
 31
0.0
  0
LINE
  5
E9C
330
1F
100
AcDbEntity
  8
LOGO
  6
AM_ISO08W050x2
 48
0.3
100
AcDbLine
 10
132.4072192978533
 20
111.5306818716442
 30
0.0
 11
135.6083486803231
 21
111.5306818716442
 31
0.0
1001
GENIUS_GENOREF_13
1005
EA1
  0
LINE
  5
E9D
330
1F
100
AcDbEntity
  8
LOGO
  6
AM_ISO08W050x2
 48
0.3
100
AcDbLine
 10
134.0077839890882
 20
109.9301171804093
 30
0.0
 11
134.0077839890882
 21
113.1312465628791
 31
0.0
1001
GENIUS_GENOREF_13
1005
EA0
  0
LINE
  5
E9E
330
1F
100
AcDbEntity
  8
LOGO
  6
CENTER
 48
0.5
100
AcDbLine
 10
137.3731308228712
 20
111.5306818716442
 30
0.0
 11
141.6706664509124
 21
111.5306818716442
 31
0.0
1001
GENIUS_GENOREF_13
1005
E9F
  0
POINT
  5
E9F
330
1F
100
AcDbEntity
  8
0
 60
     1
100
AcDbPoint
 10
-1775.512492071653
 20
-840.6048706799555
 30
0.0
1001
GENIUS_GENOBJ-N-CRS_13
1002
{
1000
OWNER
1000
GEN
1002
}
1001
GENIUS_GENOLIS_13
1002
{
1000
ENT
1005
0
1005
0
1005
0
1005
E9E
1002
}
1001
GENIUS_GENOENT_13
1002
{
1000
MYREF
1005
E9F
1002
}
1002
{
1000
GRP
1005
0
1002
}
1001
GENIUS_GENODEF_13
1002
{
1000
HIER
1070
    10
1002
}
1002
{
1000
MANEDIT
1070
     1
1002
}
1002
{
1000
NOSEL
1070
     0
1002
}
1002
{
1000
BEHIND
1070
     0
1002
}
1002
{
1000
OTHER
1070
     0
1002
}
1002
{
1000
REACTOR
1002
}
  0
POINT
  5
EA0
330
1F
100
AcDbEntity
  8
0
 60
     1
100
AcDbPoint
 10
-1786.837077294508
 20
-831.7292842013193
 30
0.0
1001
GENIUS_GENOBJ-N-CRS_13
1002
{
1000
OWNER
1000
GEN
1002
}
1001
GENIUS_GENOLIS_13
1002
{
1000
ENT
1005
0
1005
0
1005
0
1005
E9D
1002
}
1001
GENIUS_GENOENT_13
1002
{
1000
MYREF
1005
EA0
1002
}
1002
{
1000
GRP
1005
0
1002
}
1001
GENIUS_GENODEF_13
1002
{
1000
HIER
1070
    10
1002
}
1002
{
1000
MANEDIT
1070
     1
1002
}
1002
{
1000
NOSEL
1070
     0
1002
}
1002
{
1000
BEHIND
1070
     0
1002
}
1002
{
1000
OTHER
1070
     0
1002
}
1002
{
1000
REACTOR
1002
}
  0
POINT
  5
EA1
330
1F
100
AcDbEntity
  8
0
 60
     1
100
AcDbPoint
 10
-1780.478403596671
 20
-840.6048706799555
 30
0.0
1001
GENIUS_GENOBJ-N-CRS_13
1002
{
1000
OWNER
1000
GEN
1002
}
1001
GENIUS_GENOLIS_13
1002
{
1000
ENT
1005
0
1005
0
1005
0
1005
E9C
1002
}
1001
GENIUS_GENOENT_13
1002
{
1000
MYREF
1005
EA1
1002
}
1002
{
1000
GRP
1005
0
1002
}
1001
GENIUS_GENODEF_13
1002
{
1000
HIER
1070
    10
1002
}
1002
{
1000
MANEDIT
1070
     1
1002
}
1002
{
1000
NOSEL
1070
     0
1002
}
1002
{
1000
BEHIND
1070
     0
1002
}
1002
{
1000
OTHER
1070
     0
1002
}
1002
{
1000
REACTOR
1002
}
  0
CIRCLE
  5
EA7
330
1F
100
AcDbEntity
  8
0
100
AcDbCircle
 10
291.3774085535815
 20
178.8746927848693
 30
0.0
 40
2.0
  0
DIMENSION
  5
EB7
102
{ACAD_XDICTIONARY
360
EC4
102
}
102
{ACAD_REACTORS
330
EC5
102
}
330
1F
100
AcDbEntity
  8
AM_5
100
AcDbDimension
  2
*D9
 10
312.6274085535815
 20
185.6246927848693
 30
0.0
 11
310.1274085535814
 21
177.3746927848694
 31
0.0
 70
    32
 71
     5
 42
16.5
  3
AM_ISO$0
100
AcDbAlignedDimension
 13
300.6274085535815
 23
169.1246927848693
 33
0.0
 14
300.6274085535815
 24
185.6246927848693
 34
0.0
 50
90.0
100
AcDbRotatedDimension
1001
ACAD
1000
DSTYLE
1002
{
1070
    40
1040
1.0
1070
   144
1040
1.0
1070
   272
1070
     8
1002
}
  0
DIMENSION
  5
EDD
102
{ACAD_XDICTIONARY
360
EEA
102
}
102
{ACAD_REACTORS
330
EEB
102
}
330
1F
100
AcDbEntity
  8
AM_5
100
AcDbDimension
  2
*D10
 10
300.6274085535815
 20
197.6246927848693
 30
0.0
 11
288.1274085535815
 21
200.1246927848693
 31
0.0
 70
    32
 71
     5
 42
25.0
  3
AM_ISO$0
100
AcDbAlignedDimension
 13
275.6274085535815
 23
185.6246927848693
 33
0.0
 14
300.6274085535815
 24
185.6246927848693
 34
0.0
 50
0.0000000000000114
100
AcDbRotatedDimension
1001
ACAD
1000
DSTYLE
1002
{
1070
    40
1040
1.0
1070
   144
1040
1.0
1070
   272
1070
     8
1002
}
  0
DIMENSION
  5
F03
102
{ACAD_XDICTIONARY
360
F10
102
}
102
{ACAD_REACTORS
330
F11
102
}
330
1F
100
AcDbEntity
  8
AM_5
100
AcDbDimension
  2
*D11
 10
238.6450796111863
 20
249.538574067678
 30
0.0
 11
208.6450796111862
 21
252.038574067678
 31
0.0
 70
    32
 71
     5
 42
60.0
  3
AM_ISO$0
100
AcDbAlignedDimension
 13
178.6450796111862
 23
237.5385740676779
 33
0.0
 14
238.6450796111863
 24
237.5385740676779
 34
0.0
100
AcDbRotatedDimension
1001
ACAD
1000
DSTYLE
1002
{
1070
    40
1040
1.0
1070
   144
1040
1.0
1070
   272
1070
     8
1002
}
  0
LINE
  5
F34
330
1F
100
AcDbEntity
  8
AM_7
  6
AM_ISO08W050x2
100
AcDbLine
 10
291.3774085535815
 20
178.8746927848693
 30
0.0
 11
296.6274085535815
 21
178.8746927848693
 31
0.0
1001
GENIUS_GENOREF_13
1005
F38
  0
LINE
  5
F35
330
1F
100
AcDbEntity
  8
AM_7
  6
AM_ISO08W050x2
100
AcDbLine
 10
291.3774085535815
 20
178.8746927848693
 30
0.0
 11
291.3774085535815
 21
184.1246927848693
 31
0.0
1001
GENIUS_GENOREF_13
1005
F38
  0
LINE
  5
F36
330
1F
100
AcDbEntity
  8
AM_7
  6
AM_ISO08W050x2
100
AcDbLine
 10
291.3774085535815
 20
178.8746927848693
 30
0.0
 11
286.1274085535815
 21
178.8746927848693
 31
0.0
1001
GENIUS_GENOREF_13
1005
F38
  0
LINE
  5
F37
330
1F
100
AcDbEntity
  8
AM_7
  6
AM_ISO08W050x2
100
AcDbLine
 10
291.3774085535815
 20
178.8746927848693
 30
0.0
 11
291.3774085535815
 21
173.6246927848693
 31
0.0
1001
GENIUS_GENOREF_13
1005
F38
  0
POINT
  5
F38
330
1F
100
AcDbEntity
  8
0
 60
     1
100
AcDbPoint
 10
0.0
 20
0.0
 30
0.0
1001
GENIUS_GENODEF_13
1002
{
1000
HIER
1070
    10
1002
}
1002
{
1000
MANEDIT
1070
     0
1002
}
1002
{
1000
NOSEL
1070
     0
1002
}
1002
{
1000
BEHIND
1070
     0
1002
}
1002
{
1000
OTHER
1070
     0
1002
}
1002
{
1000
REACTOR
1002
}
1001
GENIUS_GENOBJ-N-CRS_13
1002
{
1000
OWNER
1000
GEN
1002
}
1001
GENIUS_GENOENT_13
1002
{
1000
MYREF
1005
F38
1002
}
1002
{
1000
GRP
1005
0
1002
}
1001
GENIUS_GENOLIS_13
1002
{
1000
ENT
1005
F37
1005
F36
1005
F35
1005
F34
1002
}
  0
LINE
  5
F52
330
1F
100
AcDbEntity
  8
AM_7
  6
AM_ISO08W050x2
100
AcDbLine
 10
166.6450796111862
 20
225.0385740676779
 30
0.0
 11
182.1082856339953
 21
225.0385740676779
 31
0.0
1001
GENIUS_GENOBJ-N-CEN_13
1002
{
1000
OWNER
1000
GEN
1002
}
1001
GENIUS_GENODEF_13
1002
{
1000
HIER
1070
     0
1002
}
1002
{
1000
MANEDIT
1070
     0
1002
}
1002
{
1000
NOSEL
1070
     0
1002
}
1002
{
1000
BEHIND
1070
     0
1002
}
1002
{
1000
OTHER
1070
     0
1002
}
1002
{
1000
REACTOR
1002
}
1001
GENIUS_GENCEN_19
1002
{
1040
2.0
1002
}
  0
LINE
  5
F5F
330
1F
100
AcDbEntity
  8
AM_7
  6
AM_ISO08W050x2
100
AcDbLine
 10
166.6450796111862
 20
177.3746927848693
 30
0.0
 11
181.6486886650264
 21
177.3746927848693
 31
0.0
1001
GENIUS_GENOBJ-N-CEN_13
1002
{
1000
OWNER
1000
GEN
1002
}
1001
GENIUS_GENODEF_13
1002
{
1000
HIER
1070
     0
1002
}
1002
{
1000
MANEDIT
1070
     0
1002
}
1002
{
1000
NOSEL
1070
     0
1002
}
1002
{
1000
BEHIND
1070
     0
1002
}
1002
{
1000
OTHER
1070
     0
1002
}
1002
{
1000
REACTOR
1002
}
1001
GENIUS_GENCEN_19
1002
{
1040
2.0
1002
}
  0
LINE
  5
F78
330
1F
100
AcDbEntity
  8
LOGO
 62
     4
100
AcDbLine
 10
202.3494373585206
 20
115.5258252909291
 30
0.0
 11
196.2233898324482
 21
115.5258252909291
 31
0.0
  0
LINE
  5
F79
330
1F
100
AcDbEntity
  8
LOGO
 62
     4
100
AcDbLine
 10
202.3494373585206
 20
109.5266940692097
 30
0.0
 11
196.2233898324482
 21
109.5266940692097
 31
0.0
  0
LINE
  5
F7A
330
1F
100
AcDbEntity
  8
LOGO
 62
     4
100
AcDbLine
 10
196.2233898324482
 20
115.5258252909291
 30
0.0
 11
196.2233898324482
 21
109.5266940692097
 31
0.0
  0
LINE
  5
F7B
330
1F
100
AcDbEntity
  8
LOGO
 62
     4
100
AcDbLine
 10
202.3494373585206
 20
115.5258252909291
 30
0.0
 11
202.3494373585206
 21
109.5266940692097
 31
0.0
  0
TEXT
  5
F7C
330
1F
100
AcDbEntity
  8
LOGO
  6
Continuous
100
AcDbText
 10
197.1985895317309
 20
110.7790039410147
 30
0.0
 40
3.5
  1
01
  7
CHINESET
100
AcDbText
  0
LINE
  5
F7F
330
1F
100
AcDbEntity
  8
LOGO
 62
     4
100
AcDbLine
 10
212.5282803858499
 20
106.5271284583502
 30
0.0
 11
212.5282803858499
 21
99.19485696513721
 31
0.0
  0
LINE
  5
F80
330
1F
100
AcDbEntity
  8
LOGO
 62
     4
100
AcDbLine
 10
196.8331264752637
 20
106.5271284583502
 30
0.0
 11
196.8331264752637
 21
99.19485696513721
 31
0.0
  0
LINE
  5
F81
330
1F
100
AcDbEntity
  8
LOGO
 62
     4
100
AcDbLine
 10
212.5282803858499
 20
99.19485696513721
 30
0.0
 11
196.8331264752637
 21
99.19485696513721
 31
0.0
  0
LINE
  5
F82
330
1F
100
AcDbEntity
  8
LOGO
 62
     4
100
AcDbLine
 10
212.5282803858499
 20
106.5271284583502
 30
0.0
 11
196.8331264752637
 21
106.5271284583502
 31
0.0
  0
TEXT
  5
F83
330
1F
100
AcDbEntity
  8
LOGO
  6
Continuous
100
AcDbText
 10
197.6923483230034
 20
100.2297915379613
 30
131.0577257600498
 40
1.5
  1
Output method
 41
0.8
  7
CHINESET
100
AcDbText
  0
TEXT
  5
F84
330
1F
100
AcDbEntity
  8
LOGO
100
AcDbText
 10
199.5483256786826
 20
103.0104682648887
 30
131.0577257600498
 40
2.5
  1
輸出型式
  7
CHINESET
100
AcDbText
  0
LINE
  5
F88
330
1F
100
AcDbEntity
  8
LOGO
 62
     4
100
AcDbLine
 10
199.2864135954844
 20
109.5266940692097
 30
0.0
 11
199.2864135954844
 21
106.5271284583502
 31
0.0
  0
LINE
  5
F89
330
1F
100
AcDbEntity
  8
LOGO
 62
     4
100
AcDbLine
 10
212.8735951142266
 20
115.5258252909291
 30
0.0
 11
206.7475475881543
 21
115.5258252909291
 31
0.0
  0
LINE
  5
F8A
330
1F
100
AcDbEntity
  8
LOGO
 62
     4
100
AcDbLine
 10
212.8735951142266
 20
109.5266940692097
 30
0.0
 11
206.7475475881543
 21
109.5266940692097
 31
0.0
  0
LINE
  5
F8B
330
1F
100
AcDbEntity
  8
LOGO
 62
     4
100
AcDbLine
 10
206.7475475881543
 20
115.5258252909291
 30
0.0
 11
206.7475475881543
 21
109.5266940692097
 31
0.0
  0
LINE
  5
F8C
330
1F
100
AcDbEntity
  8
LOGO
 62
     4
100
AcDbLine
 10
212.8735951142266
 20
115.5258252909291
 30
0.0
 11
212.8735951142266
 21
109.5266940692097
 31
0.0
  0
TEXT
  5
F8D
330
1F
100
AcDbEntity
  8
LOGO
  6
Continuous
100
AcDbText
 10
207.722747287437
 20
110.7790039410147
 30
0.0
 40
3.5
  1
F1
  7
CHINESET
100
AcDbText
  0
LINE
  5
F8E
330
1F
100
AcDbEntity
  8
LOGO
 62
     4
100
AcDbLine
 10
225.4921548935592
 20
106.5271284583502
 30
0.0
 11
225.4921548935592
 21
99.19485696513721
 31
0.0
  0
LINE
  5
F8F
330
1F
100
AcDbEntity
  8
LOGO
 62
     4
100
AcDbLine
 10
213.5133015701324
 20
106.5271284583502
 30
0.0
 11
213.5133015701324
 21
99.19485696513721
 31
0.0
  0
LINE
  5
F90
330
1F
100
AcDbEntity
  8
LOGO
 62
     4
100
AcDbLine
 10
225.4921548935592
 20
99.19485696513721
 30
0.0
 11
213.5133015701324
 21
99.19485696513721
 31
0.0
  0
LINE
  5
F91
330
1F
100
AcDbEntity
  8
LOGO
 62
     4
100
AcDbLine
 10
225.4921548935592
 20
106.5271284583502
 30
0.0
 11
213.5133015701324
 21
106.5271284583502
 31
0.0
  0
TEXT
  5
F92
330
1F
100
AcDbEntity
  8
LOGO
  6
Continuous
100
AcDbText
 10
217.876152833989
 20
100.2297915379613
 30
131.0577257600498
 40
1.5
  1
Port
 41
0.8
  7
CHINESET
100
AcDbText
  0
TEXT
  5
F93
330
1F
100
AcDbEntity
  8
LOGO
100
AcDbText
 10
214.7283426978252
 20
103.0104682648887
 30
131.0577257600498
 40
2.5
  1
配管口徑
  7
CHINESET
100
AcDbText
  0
LINE
  5
F94
330
1F
100
AcDbEntity
  8
LOGO
 62
     4
100
AcDbLine
 10
219.5027282318458
 20
108.02691126378
 30
0.0
 11
219.5027282318458
 21
106.5271284583502
 31
0.0
  0
LINE
  5
F95
330
1F
100
AcDbEntity
  8
LOGO
  6
Continuous
100
AcDbLine
 10
203.0888303519009
 20
112.5050098091953
 30
0.0
 11
205.7378278008405
 21
112.5050098091953
 31
0.0
  0
LINE
  5
F98
330
1F
100
AcDbEntity
  8
LOGO
 62
     4
100
AcDbLine
 10
209.8105713511905
 20
109.5266940692097
 30
0.0
 11
209.8105713511904
 21
108.02691126378
 31
0.0
  0
LINE
  5
F99
330
1F
100
AcDbEntity
  8
LOGO
 62
     4
100
AcDbLine
 10
209.8105713511905
 20
108.02691126378
 30
0.0
 11
219.5027282318458
 21
108.02691126378
 31
0.0
  0
ENDSEC
  0
SECTION
  2
OBJECTS
  0
DICTIONARY
  5
C
330
0
100
AcDbDictionary
281
     1
  3
ACAD_COLOR
350
BE
  3
ACAD_GROUP
350
D
  3
ACAD_LAYOUT
350
1A
  3
ACAD_MATERIAL
350
BD
  3
ACAD_MLINESTYLE
350
17
  3
ACAD_PLOTSETTINGS
350
19
  3
ACAD_PLOTSTYLENAME
350
E
  3
ACAD_TABLESTYLE
350
11A
  3
ACDBHEADERROUNDTRIPXREC
350
FBC
  3
AcDbVariableDictionary
350
94
  3
AcmDictionary
350
5B
  3
AMG
350
41
  3
AMGSNAPSETTINGS
350
1B8
  3
DWGPROPS
350
FBB
  0
DICTIONARY
  5
3F9
330
2
100
AcDbDictionary
280
     1
281
     1
  3
ACAD_LAYERFILTERS
360
5B7
  3
ACAD_LAYERSTATES
360
C78
  3
ACLYDICTIONARY
360
5B6
  0
DICTIONARY
  5
8F
330
1F
100
AcDbDictionary
280
     1
281
     1
  0
DICTIONARY
  5
EC4
330
EB7
100
AcDbDictionary
280
     1
281
     1
  3
ACAD_DIMASSOC
360
EC5
  0
DICTIONARY
  5
EEA
330
EDD
100
AcDbDictionary
280
     1
281
     1
  3
ACAD_DIMASSOC
360
EEB
  0
DICTIONARY
  5
F10
330
F03
100
AcDbDictionary
280
     1
281
     1
  3
ACAD_DIMASSOC
360
F11
  0
DICTIONARY
  5
BE
102
{ACAD_REACTORS
330
C
102
}
330
C
100
AcDbDictionary
281
     1
  0
DICTIONARY
  5
D
102
{ACAD_REACTORS
330
C
102
}
330
C
100
AcDbDictionary
281
     1
  0
DICTIONARY
  5
1A
102
{ACAD_REACTORS
330
C
102
}
330
C
100
AcDbDictionary
281
     1
  3
Model
350
22
  3
配置1
350
1E
  3
配置2
350
26
  0
DICTIONARY
  5
BD
102
{ACAD_REACTORS
330
C
102
}
330
C
100
AcDbDictionary
281
     1
  0
DICTIONARY
  5
17
102
{ACAD_REACTORS
330
C
102
}
330
C
100
AcDbDictionary
281
     1
  3
Standard
350
18
  0
DICTIONARY
  5
19
102
{ACAD_REACTORS
330
C
102
}
330
C
100
AcDbDictionary
281
     1
  0
ACDBDICTIONARYWDFLT
  5
E
102
{ACAD_REACTORS
330
C
102
}
330
C
100
AcDbDictionary
281
     1
  3
Normal
350
F
100
AcDbDictionaryWithDefault
340
F
  0
DICTIONARY
  5
11A
102
{ACAD_REACTORS
330
C
102
}
330
C
100
AcDbDictionary
281
     1
  3
Standard
350
11B
  0
DICTIONARY
  5
FBC
102
{ACAD_REACTORS
330
C
102
}
330
C
100
AcDbDictionary
281
     1
  0
DICTIONARY
  5
94
102
{ACAD_REACTORS
330
C
102
}
330
C
100
AcDbDictionary
281
     1
  3
CTABLESTYLE
350
138
  3
DIMASSOC
350
96
  3
INDEXCTL
350
95
  3
PROJECTNAME
350
FB9
  0
DICTIONARY
  5
5B
102
{ACAD_REACTORS
330
C
102
}
330
C
100
AcDbDictionary
281
     1
  3
AcmBOM
350
1B5
  3
AcmStdDictionary
350
61
  3
AMDTSECTSYM_ARROWCOLOR
350
123
  0
DICTIONARY
  5
41
102
{ACAD_REACTORS
330
C
102
}
330
C
100
AcDbDictionary
281
     1
  0
DICTIONARY
  5
1B8
102
{ACAD_REACTORS
330
C
102
}
330
C
100
AcDbDictionary
281
     1
  0
XRECORD
  5
FBB
102
{ACAD_REACTORS
330
C
102
}
330
C
100
AcDbXrecord
280
     1
  1
DWGPROPS COOKIE
  2

  3

  4

  6

  7

  8

  9

300
AmdtFileType=84
301
=
302
=
303
=
304
=
305
=
306
=
307
=
308
=
309
=
 40
0.0187903356481482
 41
2454292.652154398
 42
2454292.670944549
  1

 90
        1
  0
DICTIONARY
  5
5B7
102
{ACAD_REACTORS
330
3F9
102
}
330
3F9
100
AcDbDictionary
281
     1
  0
DICTIONARY
  5
C78
102
{ACAD_REACTORS
330
3F9
102
}
330
3F9
100
AcDbDictionary
281
     1
  0
DICTIONARY
  5
5B6
102
{ACAD_REACTORS
330
3F9
102
}
330
3F9
100
AcDbDictionary
281
     1
1001
ACAD
1000
<All
  0
DIMASSOC
  5
EC5
102
{ACAD_REACTORS
330
EC4
102
}
330
EC4
100
AcDbDimAssoc
330
EB7
 90
        3
 70
     0
 71
     0
  1
AcDbOsnapPointRef
 72
     1
331
CB5
 73
     0
 91
        0
 40
0.0
 10
0.0
 20
0.0
 30
2.000000000000000E+50
 75
     0
  1
AcDbOsnapPointRef
 72
     1
331
CB6
 73
     0
 91
        0
 40
0.0
 10
0.0
 20
0.0
 30
2.000000000000000E+50
 75
     0
  0
DIMASSOC
  5
EEB
102
{ACAD_REACTORS
330
EEA
102
}
330
EEA
100
AcDbDimAssoc
330
EDD
 90
        3
 70
     0
 71
     0
  1
AcDbOsnapPointRef
 72
    13
331
CB6
 73
     0
 91
        0
 40
0.0
 10
0.0
 20
0.0
 30
2.000000000000000E+50
 75
     0
  1
AcDbOsnapPointRef
 72
     1
331
CB6
 73
     0
 91
        0
 40
0.0
 10
0.0
 20
0.0
 30
2.000000000000000E+50
 75
     0
  0
DIMASSOC
  5
F11
102
{ACAD_REACTORS
330
F10
102
}
330
F10
100
AcDbDimAssoc
330
F03
 90
        2
 70
     0
 71
     0
  1
AcDbOsnapPointRef
 72
     1
331
CAB
 73
     0
 91
        0
 40
0.0
 10
0.0
 20
0.0
 30
2.000000000000000E+50
 75
     0
  0
LAYOUT
  5
22
102
{ACAD_XDICTIONARY
360
FBF
102
}
102
{ACAD_REACTORS
330
1A
102
}
330
1A
100
AcDbPlotSettings
  1

  2
\\RD\EPSON Stylus C63 Series單色
  4
A4
  6

 40
3.757083177566528
 41
3.757076978683471
 42
3.757080078125
 43
3.757080078125
 44
209.9733276367187
 45
296.9683227539062
 46
0.0
 47
0.0
 48
0.0
 49
0.0
140
0.0
141
0.0
142
1.0
143
0.3405120737814363
 70
 11952
 72
     1
 73
     0
 74
     0
  7
彩色出圖.ctb
 75
     0
147
2.936753428137963
148
-2047.07469463503
149
-1261.649717473083
100
AcDbLayout
  1
Model
 70
     1
 71
     0
 10
0.0
 20
0.0
 11
12.0
 21
9.0
 12
0.0
 22
0.0
 32
0.0
 14
0.0
 24
0.0
 34
0.0
 15
0.0
 25
0.0
 35
0.0
146
0.0
 13
0.0
 23
0.0
 33
0.0
 16
1.0
 26
0.0
 36
0.0
 17
0.0
 27
1.0
 37
0.0
 76
     0
330
1F
1001
ACAD_PSEXT
1000
\\RD\EPSON Stylus C63 Series單色
1000
EPSON Stylus C63 Series
1000
\\RD
1000

1070
     0
  0
LAYOUT
  5
1E
102
{ACAD_XDICTIONARY
360
FBD
102
}
102
{ACAD_REACTORS
330
1A
102
}
330
1A
100
AcDbPlotSettings
  1

  2

  4

  6

 40
0.0
 41
0.0
 42
0.0
 43
0.0
 44
0.0
 45
0.0
 46
0.0
 47
0.0
 48
0.0
 49
0.0
140
0.0
141
0.0
142
1.0
143
1.0
 70
   688
 72
     0
 73
     0
 74
     5
  7
彩色出圖.ctb
 75
    16
147
1.0
148
0.0
149
0.0
100
AcDbLayout
  1
配置1
 70
     1
 71
     1
 10
0.0
 20
0.0
 11
420.0
 21
297.0
 12
0.0
 22
0.0
 32
0.0
 14
1.000000000000000E+20
 24
1.000000000000000E+20
 34
1.000000000000000E+20
 15
-1.000000000000000E+20
 25
-1.000000000000000E+20
 35
-1.000000000000000E+20
146
0.0
 13
0.0
 23
0.0
 33
0.0
 16
1.0
 26
0.0
 36
0.0
 17
0.0
 27
1.0
 37
0.0
 76
     0
330
1B
  0
LAYOUT
  5
26
102
{ACAD_XDICTIONARY
360
FC1
102
}
102
{ACAD_REACTORS
330
1A
102
}
330
1A
100
AcDbPlotSettings
  1

  2

  4

  6

 40
0.0
 41
0.0
 42
0.0
 43
0.0
 44
0.0
 45
0.0
 46
0.0
 47
0.0
 48
0.0
 49
0.0
140
0.0
141
0.0
142
1.0
143
1.0
 70
   688
 72
     0
 73
     0
 74
     5
  7
彩色出圖.ctb
 75
    16
147
1.0
148
0.0
149
0.0
100
AcDbLayout
  1
配置2
 70
     1
 71
     2
 10
0.0
 20
0.0
 11
12.0
 21
9.0
 12
0.0
 22
0.0
 32
0.0
 14
0.0
 24
0.0
 34
0.0
 15
0.0
 25
0.0
 35
0.0
146
0.0
 13
0.0
 23
0.0
 33
0.0
 16
1.0
 26
0.0
 36
0.0
 17
0.0
 27
1.0
 37
0.0
 76
     0
330
23
  0
MLINESTYLE
  5
18
102
{ACAD_REACTORS
330
17
102
}
330
17
100
AcDbMlineStyle
  2
STANDARD
 70
     0
  3

 62
   256
 51
90.0
 52
90.0
 71
     2
 49
0.5
 62
   256
  6
BYLAYER
 49
-0.5
 62
   256
  6
BYLAYER
  0
ACDBPLACEHOLDER
  5
F
102
{ACAD_REACTORS
330
E
102
}
330
E
  0
TABLESTYLE
  5
11B
102
{ACAD_REACTORS
330
11A
102
}
330
11A
100
AcDbTableStyle
  3
Standard
 70
     0
 71
     0
 40
1.5
 41
1.5
280
     0
281
     0
  7
STANDARD
140
4.5
170
     2
 62
     0
 63
     7
283
     0
274
    -2
284
     1
 64
     0
275
    -2
285
     1
 65
     0
276
    -2
286
     1
 66
     0
277
    -2
287
     1
 67
     0
278
    -2
288
     1
 68
     0
279
    -2
289
     1
 69
     0
  7
STANDARD
140
6.0
170
     5
 62
     0
 63
     7
283
     0
274
    -2
284
     1
 64
     0
275
    -2
285
     1
 65
     0
276
    -2
286
     1
 66
     0
277
    -2
287
     1
 67
     0
278
    -2
288
     1
 68
     0
279
    -2
289
     1
 69
     0
  7
STANDARD
140
4.5
170
     5
 62
     0
 63
     7
283
     0
274
    -2
284
     1
 64
     0
275
    -2
285
     1
 65
     0
276
    -2
286
     1
 66
     0
277
    -2
287
     1
 67
     0
278
    -2
288
     1
 68
     0
279
    -2
289
     1
 69
     0
  0
DICTIONARYVAR
  5
138
102
{ACAD_REACTORS
330
94
102
}
330
94
100
DictionaryVariables
280
     0
  1
STANDARD
  0
DICTIONARYVAR
  5
96
102
{ACAD_REACTORS
330
94
102
}
330
94
100
DictionaryVariables
280
     0
  1
2
  0
DICTIONARYVAR
  5
95
102
{ACAD_REACTORS
330
94
102
}
330
94
100
DictionaryVariables
280
     0
  1
0
  0
DICTIONARYVAR
  5
FB9
102
{ACAD_REACTORS
330
94
102
}
330
94
100
DictionaryVariables
280
     0
  1

  0
DICTIONARY
  5
1B5
102
{ACAD_REACTORS
330
5B
102
}
330
5B
100
AcDbDictionary
281
     1
  0
DICTIONARY
  5
61
102
{ACAD_REACTORS
330
5B
102
}
330
5B
100
AcDbDictionary
281
     1
  0
XRECORD
  5
123
102
{ACAD_REACTORS
330
5B
102
}
330
5B
100
AcDbXrecord
280
     1
 90
-1023410169
  0
DICTIONARY
  5
FBF
330
22
100
AcDbDictionary
280
     1
281
     1
  3
ACAD_XREC_ROUNDTRIP
360
FC0
  0
DICTIONARY
  5
FBD
330
1E
100
AcDbDictionary
280
     1
281
     1
  3
ACAD_XREC_ROUNDTRIP
360
FBE
  0
DICTIONARY
  5
FC1
330
26
100
AcDbDictionary
280
     1
281
     1
  3
ACAD_XREC_ROUNDTRIP
360
FC2
  0
XRECORD
  5
FC0
102
{ACAD_REACTORS
330
FBF
102
}
330
FBF
100
AcDbXrecord
280
     1
102
SHADEPLOT
 70
     0
102
SHADEPLOTRESLEVEL
 70
     2
102
SHADEPLOTCUSTOMDPI
 70
   300
  0
XRECORD
  5
FBE
102
{ACAD_REACTORS
330
FBD
102
}
330
FBD
100
AcDbXrecord
280
     1
102
SHADEPLOT
 70
     0
102
SHADEPLOTRESLEVEL
 70
     2
102
SHADEPLOTCUSTOMDPI
 70
   300
  0
XRECORD
  5
FC2
102
{ACAD_REACTORS
330
FC1
102
}
330
FC1
100
AcDbXrecord
280
     1
102
SHADEPLOT
 70
     0
102
SHADEPLOTRESLEVEL
 70
     2
102
SHADEPLOTCUSTOMDPI
 70
   300
  0
ENDSEC
  0
EOF
