  0
SECTION
  2
HEADER
  9
$ACADVER
  1
AC1015
  9
$ACADMAINTVER
 70
    20
  9
$DWGCODEPAGE
  3
ANSI_950
  9
$INSBASE
 10
0.0
 20
0.0
 30
0.0
  9
$EXTMIN
 10
392.8311588164725
 20
242.4801683633678
 30
-0.0045351599860055
  9
$EXTMAX
 10
563.0085568341469
 20
1033.402596892537
 30
148.6239968639457
  9
$LIMMIN
 10
0.0
 20
0.0
  9
$LIMMAX
 10
420.0
 20
297.0
  9
$ORTHOMODE
 70
     0
  9
$REGENMODE
 70
     1
  9
$FILLMODE
 70
     1
  9
$QTEXTMODE
 70
     0
  9
$MIRRTEXT
 70
     1
  9
$LTSCALE
 40
1.0
  9
$ATTMODE
 70
     1
  9
$TEXTSIZE
 40
3.0
  9
$TRACEWID
 40
1.0
  9
$TEXTSTYLE
  7
STANDARD
  9
$CLAYER
  8
AM_REFDIM
  9
$CELTYPE
  6
ByLayer
  9
$CECOLOR
 62
   256
  9
$CELTSCALE
 40
1.0
  9
$DISPSILH
 70
     0
  9
$DIMSCALE
 40
1.5
  9
$DIMASZ
 40
3.0
  9
$DIMEXO
 40
1.0
  9
$DIMDLI
 40
8.0
  9
$DIMRND
 40
0.0
  9
$DIMDLE
 40
0.0
  9
$DIMEXE
 40
1.0
  9
$DIMTP
 40
0.1
  9
$DIMTM
 40
0.1
  9
$DIMTXT
 40
3.5
  9
$DIMCEN
 40
0.0
  9
$DIMTSZ
 40
0.0
  9
$DIMTOL
 70
     0
  9
$DIMLIM
 70
     0
  9
$DIMTIH
 70
     0
  9
$DIMTOH
 70
     0
  9
$DIMSE1
 70
     0
  9
$DIMSE2
 70
     0
  9
$DIMTAD
 70
     1
  9
$DIMZIN
 70
     8
  9
$DIMBLK
  1

  9
$DIMASO
 70
     1
  9
$DIMSHO
 70
     1
  9
$DIMPOST
  1

  9
$DIMAPOST
  1
"
  9
$DIMALT
 70
     0
  9
$DIMALTD
 70
     2
  9
$DIMALTF
 40
0.0393701
  9
$DIMLFAC
 40
1.0
  9
$DIMTOFL
 70
     1
  9
$DIMTVP
 40
0.0
  9
$DIMTIX
 70
     0
  9
$DIMSOXD
 70
     0
  9
$DIMSAH
 70
     0
  9
$DIMBLK1
  1

  9
$DIMBLK2
  1

  9
$DIMSTYLE
  2
AM_ISO
  9
$DIMCLRD
 70
   256
  9
$DIMCLRE
 70
   256
  9
$DIMCLRT
 70
   256
  9
$DIMTFAC
 40
0.6
  9
$DIMGAP
 40
1.0
  9
$DIMJUST
 70
     0
  9
$DIMSD1
 70
     0
  9
$DIMSD2
 70
     0
  9
$DIMTOLJ
 70
     0
  9
$DIMTZIN
 70
     8
  9
$DIMALTZ
 70
     0
  9
$DIMALTTZ
 70
     0
  9
$DIMUPT
 70
     0
  9
$DIMDEC
 70
     1
  9
$DIMTDEC
 70
     8
  9
$DIMALTU
 70
     2
  9
$DIMALTTD
 70
     2
  9
$DIMTXSTY
  7
STANDARD
  9
$DIMAUNIT
 70
     0
  9
$DIMADEC
 70
     0
  9
$DIMALTRND
 40
0.0
  9
$DIMAZIN
 70
     2
  9
$DIMDSEP
 70
    46
  9
$DIMATFIT
 70
     3
  9
$DIMFRAC
 70
     0
  9
$DIMLDRBLK
  1

  9
$DIMLUNIT
 70
     2
  9
$DIMLWD
 70
    -1
  9
$DIMLWE
 70
    -1
  9
$DIMTMOVE
 70
     0
  9
$LUNITS
 70
     2
  9
$LUPREC
 70
     2
  9
$SKETCHINC
 40
1.0
  9
$FILLETRAD
 40
3.75
  9
$AUNITS
 70
     0
  9
$AUPREC
 70
     0
  9
$MENU
  1
.
  9
$ELEVATION
 40
0.0
  9
$PELEVATION
 40
0.0
  9
$THICKNESS
 40
0.0
  9
$LIMCHECK
 70
     0
  9
$CHAMFERA
 40
3.75
  9
$CHAMFERB
 40
3.75
  9
$CHAMFERC
 40
20.0
  9
$CHAMFERD
 40
0.0
  9
$SKPOLY
 70
     0
  9
$TDCREATE
 40
2454392.703168762
  9
$TDUCREATE
 40
2454392.369835428
  9
$TDUPDATE
 40
2456140.452393658
  9
$TDUUPDATE
 40
2456140.119060324
  9
$TDINDWG
 40
0.1280158796
  9
$TDUSRTIMER
 40
0.1280156944
  9
$USRTIMER
 70
     1
  9
$ANGBASE
 50
0.0
  9
$ANGDIR
 70
     0
  9
$PDMODE
 70
     0
  9
$PDSIZE
 40
0.0
  9
$PLINEWID
 40
0.0
  9
$SPLFRAME
 70
     0
  9
$SPLINETYPE
 70
     6
  9
$SPLINESEGS
 70
     8
  9
$HANDSEED
  5
520A
  9
$SURFTAB1
 70
     6
  9
$SURFTAB2
 70
     6
  9
$SURFTYPE
 70
     6
  9
$SURFU
 70
     6
  9
$SURFV
 70
     6
  9
$UCSBASE
  2

  9
$UCSNAME
  2

  9
$UCSORG
 10
0.0
 20
0.0
 30
0.0
  9
$UCSXDIR
 10
1.0
 20
0.0
 30
0.0
  9
$UCSYDIR
 10
0.0
 20
1.0
 30
0.0
  9
$UCSORTHOREF
  2

  9
$UCSORTHOVIEW
 70
     0
  9
$UCSORGTOP
 10
0.0
 20
0.0
 30
0.0
  9
$UCSORGBOTTOM
 10
0.0
 20
0.0
 30
0.0
  9
$UCSORGLEFT
 10
0.0
 20
0.0
 30
0.0
  9
$UCSORGRIGHT
 10
0.0
 20
0.0
 30
0.0
  9
$UCSORGFRONT
 10
0.0
 20
0.0
 30
0.0
  9
$UCSORGBACK
 10
0.0
 20
0.0
 30
0.0
  9
$PUCSBASE
  2

  9
$PUCSNAME
  2

  9
$PUCSORG
 10
0.0
 20
0.0
 30
0.0
  9
$PUCSXDIR
 10
1.0
 20
0.0
 30
0.0
  9
$PUCSYDIR
 10
0.0
 20
1.0
 30
0.0
  9
$PUCSORTHOREF
  2

  9
$PUCSORTHOVIEW
 70
     0
  9
$PUCSORGTOP
 10
0.0
 20
0.0
 30
0.0
  9
$PUCSORGBOTTOM
 10
0.0
 20
0.0
 30
0.0
  9
$PUCSORGLEFT
 10
0.0
 20
0.0
 30
0.0
  9
$PUCSORGRIGHT
 10
0.0
 20
0.0
 30
0.0
  9
$PUCSORGFRONT
 10
0.0
 20
0.0
 30
0.0
  9
$PUCSORGBACK
 10
0.0
 20
0.0
 30
0.0
  9
$USERI1
 70
     0
  9
$USERI2
 70
     0
  9
$USERI3
 70
     0
  9
$USERI4
 70
     0
  9
$USERI5
 70
     0
  9
$USERR1
 40
0.0
  9
$USERR2
 40
0.0
  9
$USERR3
 40
0.0
  9
$USERR4
 40
0.0
  9
$USERR5
 40
0.0
  9
$WORLDVIEW
 70
     1
  9
$SHADEDGE
 70
     3
  9
$SHADEDIF
 70
    70
  9
$TILEMODE
 70
     1
  9
$MAXACTVP
 70
    64
  9
$PINSBASE
 10
0.0
 20
0.0
 30
0.0
  9
$PLIMCHECK
 70
     0
  9
$PEXTMIN
 10
1.000000000000000E+20
 20
1.000000000000000E+20
 30
1.000000000000000E+20
  9
$PEXTMAX
 10
-1.000000000000000E+20
 20
-1.000000000000000E+20
 30
-1.000000000000000E+20
  9
$PLIMMIN
 10
0.0
 20
0.0
  9
$PLIMMAX
 10
420.0
 20
297.0
  9
$UNITMODE
 70
     0
  9
$VISRETAIN
 70
     1
  9
$PLINEGEN
 70
     0
  9
$PSLTSCALE
 70
     1
  9
$TREEDEPTH
 70
  3020
  9
$CMLSTYLE
  2
Standard
  9
$CMLJUST
 70
     0
  9
$CMLSCALE
 40
20.0
  9
$PROXYGRAPHICS
 70
     1
  9
$MEASUREMENT
 70
     1
  9
$CELWEIGHT
370
    -1
  9
$ENDCAPS
280
     0
  9
$JOINSTYLE
280
     0
  9
$LWDISPLAY
290
     0
  9
$INSUNITS
 70
     4
  9
$HYPERLINKBASE
  1

  9
$STYLESHEET
  1
彩色出圖.ctb
  9
$XEDIT
290
     1
  9
$CEPSNTYPE
380
     0
  9
$PSTYLEMODE
290
     1
  9
$FINGERPRINTGUID
  2
{00E4BF2B-312E-4E1D-8C5C-0EEC0927E19E}
  9
$VERSIONGUID
  2
{805A544F-0893-4D86-90E6-A571E0ACAB39}
  9
$EXTNAMES
290
     1
  9
$PSVPSCALE
 40
0.0
  9
$OLESTARTUP
290
     0
  0
ENDSEC
  0
SECTION
  2
CLASSES
  0
CLASS
  1
ACDBDICTIONARYWDFLT
  2
AcDbDictionaryWithDefault
  3
ObjectDBX Classes
 90
        0
280
     0
281
     0
  0
CLASS
  1
ACDBPLACEHOLDER
  2
AcDbPlaceHolder
  3
ObjectDBX Classes
 90
        0
280
     0
281
     0
  0
CLASS
  1
LAYOUT
  2
AcDbLayout
  3
ObjectDBX Classes
 90
        0
280
     0
281
     0
  0
CLASS
  1
ACME_DOCUMENT
  2
AcMeDbDoc
  3
AcMeServices
 90
        0
280
     0
281
     0
  0
CLASS
  1
AMGSETTINGSOBJ
  2
AmgSettingsObj
  3
"AcadM|Product Description: AutoCAD Mechanical 2000|Company: Autodesk"
 90
        0
280
     0
281
     0
  0
CLASS
  1
ACMESCOPE
  2
AcMeScope
  3
AcMeServices
 90
        0
280
     0
281
     0
  0
CLASS
  1
ACMECOMMANDHISTORY
  2
AcMeCommandHistory
  3
AcMeServices
 90
        0
280
     0
281
     0
  0
CLASS
  1
ACIMSYSVARMAN
  2
AcImSysVarManager
  3
AcMeServices
 90
        0
280
     0
281
     0
  0
CLASS
  1
ACIMREALSYSVAR
  2
AcImRealSysVar
  3
AcMeServices
 90
        0
280
     0
281
     0
  0
CLASS
  1
ACIMINTSYSVAR
  2
AcImIntSysVar
  3
AcMeServices
 90
        0
280
     0
281
     0
  0
CLASS
  1
ACMEDRAWINGMAN
  2
AcMeDrawingMan
  3
AcMeServices
 90
        0
280
     0
281
     0
  0
CLASS
  1
ACMEVIEW
  2
AcMeView
  3
AcMeServices
 90
        0
280
     0
281
     0
  0
CLASS
  1
ACDBENTITYCACHE
  2
AcMeEntityCache
  3
AcMeServices
 90
        0
280
     0
281
     0
  0
CLASS
  1
GSMANAGER
  2
AcMeGSManager
  3
AcMeServices
 90
        0
280
     0
281
     0
  0
CLASS
  1
AMDTINTERNALREACTOR
  2
AmdtInternalReactor
  3
AcMeServices
 90
        0
280
     0
281
     0
  0
CLASS
  1
ACMESTATEMGR
  2
AcMeStateMgr
  3
AcMeServices
 90
        0
280
     0
281
     0
  0
CLASS
  1
ACGREFMASTER
  2
AcGrefMaster
  3
AcAttribServices
 90
        0
280
     0
281
     0
  0
CLASS
  1
ACME_DATABASE
  2
AcMeDbDatabase
  3
AcMeServices
 90
        0
280
     0
281
     0
  0
CLASS
  1
ACRFINSADJUSTERMGR
  2
AcRfInsAdjusterMgr
  3
AcMeServices
 90
        0
280
     0
281
     0
  0
CLASS
  1
ACGREFACADMASTER
  2
AcGrefacadMaster
  3
AcGrefServices
 90
        0
280
     0
281
     0
  0
CLASS
  1
AMIMASTER
  2
AmiMaster
  3
AmiServices
 90
        0
280
     0
281
     0
  0
CLASS
  1
ACMDATADICTIONARY
  2
AcmDataDictionary
  3
"AcmSymBB|Product Description: AutoCAD Mechanical 2004 DX|Company: Autodesk"
 90
        0
280
     0
281
     0
  0
CLASS
  1
ACMDATAENTRYBLOCK
  2
AcmDataEntryBlock
  3
"AcmSymBB|Product Description: AutoCAD Mechanical 2004 DX|Company: Autodesk"
 90
        0
280
     0
281
     0
  0
CLASS
  1
ACIMSTRSYSVAR
  2
AcImStrSysVar
  3
AcMeServices
 90
        0
280
     0
281
     0
  0
CLASS
  1
ACMSTANDARDISO
  2
AcmStandardISO
  3
"Amdt_StdImp|Product Description: AutoCAD Mechanical 2004 DX|Company: Autodesk"
 90
        0
280
     0
281
     0
  0
CLASS
  1
AMGOBJPROPCFG
  2
AmgObjPropCfg
  3
"AmgLay|Product Description: AutoCAD Mechanical 2000|Company: Autodesk"
 90
        1
280
     0
281
     0
  0
CLASS
  1
AMDTEDGESTANDARDISO
  2
AmdtEdgeStdISO
  3
"Amdt_StdImp|Product Description: AutoCAD Mechanical 2004 DX|Company: Autodesk"
 90
    32768
280
     0
281
     0
  0
CLASS
  1
ACMSURFSTANDARDISO
  2
AcmSurfTextStdISO
  3
"Amdt_StdImp|Product Description: AutoCAD Mechanical 2004 DX|Company: Autodesk"
 90
        0
280
     0
281
     0
  0
CLASS
  1
ACMFCFSTANDARDISO
  2
AcmFCFStdISO
  3
"Amdt_StdImp|Product Description: AutoCAD Mechanical 2004 DX|Company: Autodesk"
 90
        0
280
     0
281
     0
  0
CLASS
  1
ACMWELDSTANDARDISO
  2
AcmWeldingStdISO
  3
"Amdt_StdImp|Product Description: AutoCAD Mechanical 2004 DX|Company: Autodesk"
 90
        0
280
     0
281
     0
  0
CLASS
  1
ACMIDSTANDARDISO
  2
AcmIdStdISO
  3
"Amdt_StdImp|Product Description: AutoCAD Mechanical 2004 DX|Company: Autodesk"
 90
        0
280
     0
281
     0
  0
CLASS
  1
ACMDATUMSTANDARDISO
  2
AcmDatumStdISO
  3
"Amdt_StdImp|Product Description: AutoCAD Mechanical 2004 DX|Company: Autodesk"
 90
        0
280
     0
281
     0
  0
CLASS
  1
ACMBOMSTANDARDISO
  2
AcmBOMStdISO
  3
"Amdt_StdImp|Product Description: AutoCAD Mechanical 2004 DX|Company: Autodesk"
 90
        0
280
     0
281
     0
  0
CLASS
  1
ACMDETAILSTANDARDISO
  2
AmdtDetailSymStdISO
  3
"Amdt_StdImp|Product Description: AutoCAD Mechanical 2004 DX|Company: Autodesk"
 90
        0
280
     0
281
     0
  0
CLASS
  1
ACMSECTIONSTANDARDISO
  2
AmdtSectionSymStdISO
  3
"Amdt_StdImp|Product Description: AutoCAD Mechanical 2004 DX|Company: Autodesk"
 90
        0
280
     0
281
     0
  0
CLASS
  1
ACMCENTERLINESTANDARDISO
  2
AmdtCenterLineStdISO
  3
"Amdt_StdImp|Product Description: AutoCAD Mechanical 2004 DX|Company: Autodesk"
 90
        0
280
     0
281
     0
  0
CLASS
  1
ACMNOTESTANDARDISO
  2
AmdtNoteStdISO
  3
"Amdt_StdImp|Product Description: AutoCAD Mechanical 2004 DX|Company: Autodesk"
 90
        0
280
     0
281
     0
  0
CLASS
  1
ACAMGLAYSTD
  2
AcAmgLayStd
  3
"AcAmgLayStd|Product Description: AutoCAD Mechanical 2000|Company: Autodesk"
 90
        0
280
     0
281
     0
  0
CLASS
  1
ACAMGDIMSTD
  2
AcAmgDimStd
  3
"AcAmgDimStd|Product Description: AutoCAD Mechanical 2000|Company: Autodesk"
 90
        0
280
     0
281
     0
  0
CLASS
  1
ACAMGHOLECHARTSTDISO
  2
AcAmgHoleChartStdISO
  3
ACMSYMBB_MODULE_NAME
 90
        0
280
     0
281
     0
  0
CLASS
  1
ACAMGTITLESTD
  2
AcAmgTitleStd
  3
"TITLEAPP"
 90
        0
280
     0
281
     0
  0
CLASS
  1
LAYER_INDEX
  2
AcDbLayerIndex
  3
ObjectDBX Classes
 90
        0
280
     0
281
     0
  0
CLASS
  1
IDBUFFER
  2
AcDbIdBuffer
  3
ObjectDBX Classes
 90
        0
280
     0
281
     0
  0
CLASS
  1
DICTIONARYVAR
  2
AcDbDictionaryVar
  3
ObjectDBX Classes
 90
        0
280
     0
281
     0
  0
CLASS
  1
AM_DRAWING_MGR
  2
AcDmDwgMgr
  3
AcMechDwgViewMgmt
 90
        0
280
     0
281
     0
  0
CLASS
  1
AM_DWG_DOCUMENT
  2
AcDmDwgDocument
  3
AcMechDwgViewMgmt
 90
        0
280
     0
281
     0
  0
CLASS
  1
AM_DWG_SHEET
  2
AcDmSheet
  3
AcMechDwgViewMgmt
 90
        0
280
     0
281
     0
  0
CLASS
  1
AM_VIEWDIMPARMAP
  2
AcDmViewDimParMap
  3
AcMechDwgViewMgmt
 90
        0
280
     0
281
     0
  0
CLASS
  1
AM_DWGMGR_NAME
  2
AcDmDwgMgrName
  3
AcMechDwgViewMgmt
 90
        0
280
     0
281
     0
  0
CLASS
  1
AMDTMENUSTATEMGR
  2
AmdtMenuStateMgr
  3
McadcomServices
 90
        0
280
     0
281
     0
  0
CLASS
  1
AMDTMCOMMENUSTATE
  2
AmdtMcomMenuState
  3
McadcomServices
 90
        0
280
     0
281
     0
  0
CLASS
  1
MAPIAMMOUDLE
  2
MApiAmModule
  3
MApiAmServices
 90
        0
280
     0
281
     0
  0
CLASS
  1
AMDTADMENUSTATE
  2
AmdtAdMenuState
  3
DesignerServices
 90
        0
280
     0
281
     0
  0
CLASS
  1
ADAPPL
  2
AcAdAppl
  3
DesignerServices
 90
        0
280
     0
281
     0
  0
CLASS
  1
DEPMGR
  2
AcAdDepMgr
  3
DesignerServices
 90
        0
280
     0
281
     0
  0
CLASS
  1
PARAMMGR
  2
AcAdParamMgr
  3
DesignerServices
 90
        0
280
     0
281
     0
  0
CLASS
  1
PARAMSCOPE
  2
AcAdParamScope
  3
DesignerServices
 90
        0
280
     0
281
     0
  0
CLASS
  1
NAMEDAPPL
  2
AcAdNamedAppl
  3
DesignerServices
 90
        0
280
     0
281
     0
  0
CLASS
  1
AMDTDMMENUSTATE
  2
AmdtDmMenuState
  3
AcMechDwgViewMgmt
 90
        0
280
     0
281
     0
  0
CLASS
  1
AMDTAMMENUSTATE
  2
AmdtAmMenuState
  3
DesignerAssemblies
 90
        0
280
     0
281
     0
  0
CLASS
  1
ACAMPROJECT
  2
AcAmProject
  3
DesignerAssemblies
 90
        0
280
     0
281
     0
  0
CLASS
  1
ACAMGRCOMPDEF
  2
AcAmGrCompDef
  3
DesignerAssemblies
 90
        0
280
     0
281
     0
  0
CLASS
  1
ACCMCONTEXT
  2
AcCmContext
  3
DesignerAssemblies
 90
        0
280
     0
281
     0
  0
CLASS
  1
ACAMCOMPDEF
  2
AcAmCompDef
  3
DesignerAssemblies
 90
        0
280
     0
281
     0
  0
CLASS
  1
ACAMCOMPDEFMGR
  2
AcAmCompDefMgr
  3
DesignerAssemblies
 90
        0
280
     0
281
     0
  0
CLASS
  1
AMCONTEXTMGR
  2
AcAmContextMgr
  3
DesignerAssemblies
 90
        0
280
     0
281
     0
  0
CLASS
  1
ACAMCONTEXTMODELER
  2
AcAmContextModeler
  3
DesignerAssemblies
 90
        0
280
     0
281
     0
  0
CLASS
  1
ACMTHREADLINESTANDARDISO
  2
AmdtThreadLineStdISO
  3
"Amdt_StdImp|Product Description: AutoCAD Mechanical 2004 DX|Company: Autodesk"
 90
        0
280
     0
281
     0
  0
CLASS
  1
CATALOGSTATE
  2
AcAmCatalogState
  3
DesignerAssemblies
 90
        0
280
     0
281
     0
  0
CLASS
  1
ACAMGRCOMPDEFSET
  2
AcAmGrCompDefSet
  3
DesignerAssemblies
 90
        0
280
     0
281
     0
  0
CLASS
  1
AMDTBROWSERDBTAB
  2
AmdtBrowserDbTab
  3
McadcomServices
 90
        0
280
     0
281
     0
  0
CLASS
  1
CBROWSERAPPOBJECT
  2
CBrowserAppObject
  3
McadcomServices
 90
        0
280
     0
281
     0
  0
CLASS
  1
DM_PLACEHOLDER
  2
AcDmSelsetPlaceholder
  3
AcMechDwgViewMgmt
 90
        0
280
     0
281
     0
  0
CLASS
  1
TABLESTYLE
  2
AcDbTableStyle
  3
ObjectDBX Classes
 90
     2047
280
     0
281
     0
  0
CLASS
  1
VAACXREFPANELOBJECT
  2
VaAcXREFPanelObject
  3
VAAC_ADDIN
 90
    32768
280
     0
281
     0
  0
CLASS
  1
VAACIMAGEINVENTORY
  2
VaAcImageInventory
  3
VAAC_ADDIN
 90
    32768
280
     0
281
     0
  0
CLASS
  1
AMDTNOTETEMPLATEDB
  2
AmdtNoteTemplateDB
  3
AMDT_STDIMP_MODULE_NAME
 90
        0
280
     0
281
     0
  0
CLASS
  1
ACMBOM
  2
AcmBom
  3
"AcmSymBB|Product Description: AutoCAD Mechanical 2004 DX|Company: Autodesk"
 90
    32768
280
     0
281
     0
  0
CLASS
  1
AMDTFORMULAUPDATEDISPATCHER
  2
AmdtFormulaUpdateDispatcher
  3
AcMeServices
 90
    32768
280
     0
281
     0
  0
CLASS
  1
ACMPARTLIST
  2
AcmPartList
  3
"AcmSymBB|Product Description: AutoCAD Mechanical 2004 DX|Company: Autodesk"
 90
    33791
280
     0
281
     1
  0
CLASS
  1
ACAMGFILTERDAT
  2
AcAmgFilterDat
  3
"AcadM|Product Description: AutoCAD Mechanical 2000|Company: Autodesk"
 90
    32768
280
     0
281
     0
  0
CLASS
  1
DIMASSOC
  2
AcDbDimAssoc
  3
"AcDbDimAssoc|Product Desc:     AcDim ARX App For Dimension|Company:          Autodesk, Inc.|WEB Address:      www.autodesk.com"
 90
        0
280
     0
281
     0
  0
CLASS
  1
AMDTNOTE
  2
AmdtNote
  3
"AcmSymBB|Product Description: AutoCAD Mechanical 2004 DX|Company: Autodesk"
 90
    33791
280
     0
281
     1
  0
CLASS
  1
AMDTEDGESTANDARDISO13715
  2
AmdtEdgeStdISO13715
  3
"Amdt_StdImp|Product Description: AutoCAD Mechanical 2004 DX|Company: Autodesk"
 90
        0
280
     0
281
     0
  0
CLASS
  1
ACRFATTGENMGR
  2
AcRfAttGeneralMgr
  3
AcAttribServices
 90
    32768
280
     0
281
     0
  0
CLASS
  1
ASAPP
  2
AcAsAppObject
  3
AutoSurfServices
 90
        0
280
     0
281
     0
  0
CLASS
  1
IM_STATIC_MAN
  2
AcImStaticVarManager
  3
AcMeServices
 90
        0
280
     0
281
     0
  0
CLASS
  1
ACIMDBLSTATICVAR
  2
AcImDblStaticVar
  3
AcMeServices
 90
        0
280
     0
281
     0
  0
CLASS
  1
ACIMSTRSTATICVAR
  2
AcImStrStaticVar
  3
AcMeServices
 90
        0
280
     0
281
     0
  0
CLASS
  1
ACIMINTSTATICVAR
  2
AcImIntStaticVar
  3
AcMeServices
 90
        0
280
     0
281
     0
  0
CLASS
  1
ACASGREFMASTER
  2
AcAsGrefMaster
  3
AutoSurfResolverServices
 90
        0
280
     0
281
     0
  0
CLASS
  1
ACADGREFMODULE
  2
AcAdGrefModule
  3
AdGrefServices
 90
        0
280
     0
281
     0
  0
CLASS
  1
AMDTMAPISURFMOUDULE
  2
AmdtMApiSurfModule
  3
MApiSurfServices
 90
        0
280
     0
281
     0
  0
CLASS
  1
MAPIADMODULE
  2
MApiAdModule
  3
MApiAdServices
 90
        0
280
     0
281
     0
  0
CLASS
  1
SORTENTSTABLE
  2
AcDbSortentsTable
  3
ObjectDBX Classes
 90
    32768
280
     0
281
     0
  0
ENDSEC
  0
SECTION
  2
TABLES
  0
TABLE
  2
VPORT
  5
8
330
0
100
AcDbSymbolTable
 70
     7
  0
VPORT
  5
5201
330
8
100
AcDbSymbolTableRecord
100
AcDbViewportTableRecord
  2
*Active
 70
     0
 10
0.0
 20
0.0
 11
1.0
 21
1.0
 12
4.796208936397761
 22
47.3623274159753
 13
0.0
 23
0.0
 14
3.75
 24
3.75
 15
15.0
 25
15.0
 16
0.0
 26
0.0
 36
1.0
 17
475.2465220475392
 27
286.8869866440797
 37
0.0
 40
262.5530739106446
 41
1.263157894736842
 42
50.0
 43
0.0
 44
0.0
 50
0.0
 51
0.0
 71
     0
 72
  1000
 73
     1
 74
     3
 75
     0
 76
     0
 77
     0
 78
     0
281
     0
 65
     0
110
0.0
120
0.0
130
0.0
111
1.0
121
0.0
131
0.0
112
0.0
122
1.0
132
0.0
 79
     0
146
0.0
  0
ENDTAB
  0
TABLE
  2
LTYPE
  5
5
330
0
100
AcDbSymbolTable
 70
    17
  0
LTYPE
  5
14
330
5
100
AcDbSymbolTableRecord
100
AcDbLinetypeTableRecord
  2
ByBlock
 70
     0
  3

 72
    65
 73
     0
 40
0.0
  0
LTYPE
  5
15
330
5
100
AcDbSymbolTableRecord
100
AcDbLinetypeTableRecord
  2
ByLayer
 70
     0
  3

 72
    65
 73
     0
 40
0.0
  0
LTYPE
  5
16
330
5
100
AcDbSymbolTableRecord
100
AcDbLinetypeTableRecord
  2
Continuous
 70
     0
  3
Solid line
 72
    65
 73
     0
 40
0.0
  0
LTYPE
  5
64
330
5
100
AcDbSymbolTableRecord
100
AcDbLinetypeTableRecord
  2
AM_ISO02W050
 70
     0
  3
__ __ __ __ __ __ __ __ __ __ __ __ __ __ __
 72
    65
 73
     2
 40
7.5
 49
6.0
 74
     0
 49
-1.5
 74
     0
  0
LTYPE
  5
65
330
5
100
AcDbSymbolTableRecord
100
AcDbLinetypeTableRecord
  2
AM_ISO08W050
 70
     0
  3
____ . ____ . ____ . ____ . ____ . ____ . ____
 72
    65
 73
     4
 40
18.0
 49
12.0
 74
     0
 49
-1.5
 74
     0
 49
3.0
 74
     0
 49
-1.5
 74
     0
  0
LTYPE
  5
66
330
5
100
AcDbSymbolTableRecord
100
AcDbLinetypeTableRecord
  2
AM_ISO09W050
 70
     0
  3
_____ . . _____ . . _____ . . ____ .. ____
 72
    65
 73
     6
 40
22.5
 49
12.0
 74
     0
 49
-1.5
 74
     0
 49
3.0
 74
     0
 49
-1.5
 74
     0
 49
3.0
 74
     0
 49
-1.5
 74
     0
  0
LTYPE
  5
67
330
5
100
AcDbSymbolTableRecord
100
AcDbLinetypeTableRecord
  2
Amconstr
 70
     0
  3
_______________________
 72
    65
 73
     2
 40
9999.0
 49
9999.0
 74
     0
 49
0.0
 74
     0
  0
LTYPE
  5
68
330
5
100
AcDbSymbolTableRecord
100
AcDbLinetypeTableRecord
  2
AM_ISO08W050x2
 70
     0
  3
__ . __ . __ . __ . __ . __
 72
    65
 73
     4
 40
9.0
 49
6.0
 74
     0
 49
-0.75
 74
     0
 49
1.5
 74
     0
 49
-0.75
 74
     0
  0
LTYPE
  5
69
330
5
100
AcDbSymbolTableRecord
100
AcDbLinetypeTableRecord
  2
AM_ISO02W050x2
 70
     0
  3
 _ _ _ _ _ _ _ _ _ _ _ _
 72
    65
 73
     2
 40
3.75
 49
3.0
 74
     0
 49
-0.75
 74
     0
  0
LTYPE
  5
6C
330
5
100
AcDbSymbolTableRecord
100
AcDbLinetypeTableRecord
  2
Amzigzag
 70
     0
  3
/\/-/\/-/\/-/\/-/\/-/\/
 72
    65
 73
     2
 40
11.0001
 49
0.0001
 74
     4
 75
   135
340
6B
 46
0.04
 50
0.0
 44
0.0
 45
0.0
 49
-11.0
 74
     0
  0
LTYPE
  5
7A
330
5
100
AcDbSymbolTableRecord
100
AcDbLinetypeTableRecord
  2
ACISOWELD
 70
     0
  3
_ _ _ _ _
 72
    65
 73
     2
 40
2.0
 49
2.0
 74
     0
 49
-1.0
 74
     0
  0
LTYPE
  5
7B
330
5
100
AcDbSymbolTableRecord
100
AcDbLinetypeTableRecord
  2
ACISOTGB
 70
     0
  3
__ . . __ . .
 72
    65
 73
     6
 40
9.0
 49
4.0
 74
     0
 49
-1.0
 74
     0
 49
1.0
 74
     0
 49
-1.0
 74
     0
 49
1.0
 74
     0
 49
-1.0
 74
     0
  0
LTYPE
  5
7C
330
5
100
AcDbSymbolTableRecord
100
AcDbLinetypeTableRecord
  2
ACISOTGL
 70
     0
  3
_ _ _ _ _
 72
    65
 73
     2
 40
3.0
 49
2.0
 74
     0
 49
-1.0
 74
     0
  0
LTYPE
  5
7E
330
5
100
AcDbSymbolTableRecord
100
AcDbLinetypeTableRecord
  2
CENTER
 70
     0
  3
__ . __
 72
    65
 73
     4
 40
7.0
 49
4.0
 74
     0
 49
-1.0
 74
     0
 49
1.0
 74
     0
 49
-1.0
 74
     0
  0
LTYPE
  5
D8
330
5
100
AcDbSymbolTableRecord
100
AcDbLinetypeTableRecord
  2
HIDDEN
 70
     0
  3
Hidden __ __ __ __ __ __ __ __ __ __ __ __ __ _
 72
    65
 73
     2
 40
9.524999999999998
 49
6.349999999999999
 74
     0
 49
-3.174999999999999
 74
     0
  0
LTYPE
  5
D9
330
5
100
AcDbSymbolTableRecord
100
AcDbLinetypeTableRecord
  2
PHANTOM2
 70
     0
  3
Phantom (.5x) ___ _ _ ___ _ _ ___ _ _ ___ _ _
 72
    65
 73
     6
 40
31.75
 49
15.875
 74
     0
 49
-3.174999999999999
 74
     0
 49
3.174999999999999
 74
     0
 49
-3.174999999999999
 74
     0
 49
3.174999999999999
 74
     0
 49
-3.174999999999999
 74
     0
  0
LTYPE
  5
3AFB
330
5
100
AcDbSymbolTableRecord
100
AcDbLinetypeTableRecord
  2
HIDDEN2
 70
     0
  3
Hidden (.5x) _ _ _ _ _ _ _ _ _ _ _ _ _ _ _ _ _
 72
    65
 73
     2
 40
0.1875
 49
0.125
 74
     0
 49
-0.0625
 74
     0
  0
LTYPE
  5
3D45
330
5
100
AcDbSymbolTableRecord
100
AcDbLinetypeTableRecord
  2
ASULTYPE
 70
     0
  3
實線
 72
    65
 73
     2
 40
3.0
 49
2.5
 74
     0
 49
0.5
 74
     0
  0
LTYPE
  5
3D46
330
5
100
AcDbSymbolTableRecord
100
AcDbLinetypeTableRecord
  2
ASVLTYPE
 70
     0
  3
__ __ __ __ __ __ __ __ __ __ __ __ __ __ __ __ __ __ __ __ __
 72
    65
 73
     2
 40
0.75
 49
0.5
 74
     0
 49
-0.25
 74
     0
  0
ENDTAB
  0
TABLE
  2
LAYER
  5
2
102
{ACAD_XDICTIONARY
360
3F9
102
}
330
0
100
AcDbSymbolTable
 70
     9
  0
LAYER
  5
10
330
2
100
AcDbSymbolTableRecord
100
AcDbLayerTableRecord
  2
0
 70
     0
 62
     7
  6
Continuous
370
    -3
390
F
  0
LAYER
  5
ACB
330
2
100
AcDbSymbolTableRecord
100
AcDbLayerTableRecord
  2
AM_VIS
 70
     0
 62
     7
  6
Continuous
370
    50
390
F
  0
LAYER
  5
ACC
330
2
100
AcDbSymbolTableRecord
100
AcDbLayerTableRecord
  2
AM_7
 70
     0
 62
     1
  6
AM_ISO08W050x2
370
    25
390
F
  0
LAYER
  5
13A4
330
2
100
AcDbSymbolTableRecord
100
AcDbLayerTableRecord
  2
Defpoints
 70
     0
 62
     7
  6
Continuous
290
     0
370
    -3
390
F
  0
LAYER
  5
16FA
330
2
100
AcDbSymbolTableRecord
100
AcDbLayerTableRecord
  2
LOGO
 70
     0
 62
     7
  6
Continuous
370
    -3
390
F
  0
LAYER
  5
3455
330
2
100
AcDbSymbolTableRecord
100
AcDbLayerTableRecord
  2
AM_4
 70
     0
 62
     3
  6
ASVLTYPE
370
    25
390
F
  0
LAYER
  5
3456
330
2
100
AcDbSymbolTableRecord
100
AcDbLayerTableRecord
  2
AM_REFDIM
 70
     0
 62
     5
  6
Continuous
370
    25
390
F
  0
LAYER
  5
3AFC
330
2
100
AcDbSymbolTableRecord
100
AcDbLayerTableRecord
  2
AM_HID
 70
     0
 62
     7
  6
AM_ISO02W050
370
    25
390
F
  0
LAYER
  5
3EFF
330
2
100
AcDbSymbolTableRecord
100
AcDbLayerTableRecord
  2
AM_5
 70
     0
 62
     5
  6
Continuous
370
    25
390
F
  0
ENDTAB
  0
TABLE
  2
STYLE
  5
3
330
0
100
AcDbSymbolTable
 70
     7
  0
STYLE
  5
11
330
3
100
AcDbSymbolTableRecord
100
AcDbTextStyleTableRecord
  2
STANDARD
 70
     0
 40
0.0
 41
1.0
 50
0.0
 71
     0
 42
3.0
  3
ISOCP.SHX
  4
CHINESET.SHX
  0
STYLE
  5
6B
330
3
100
AcDbSymbolTableRecord
100
AcDbTextStyleTableRecord
  2

 70
     1
 40
0.0
 41
1.0
 50
0.0
 71
     0
 42
2.5
  3
ltypeshp.shx
  4

  0
STYLE
  5
6D
330
3
100
AcDbSymbolTableRecord
100
AcDbTextStyleTableRecord
  2
ACISOTS
 70
     0
 40
1.0
 41
1.0
 50
0.0
 71
     0
 42
1.0
  3
isocp.shx
  4
chineset.shx
  0
STYLE
  5
79
330
3
100
AcDbSymbolTableRecord
100
AcDbTextStyleTableRecord
  2
ACISOGDT
 70
     0
 40
0.0
 41
1.0
 50
0.0
 71
     0
 42
2.5
  3
amgdt.shx
  4
chineset.shx
  0
STYLE
  5
16FB
330
3
100
AcDbSymbolTableRecord
100
AcDbTextStyleTableRecord
  2
CHINESET
 70
     0
 40
0.0
 41
1.0
 50
0.0
 71
     0
 42
3.0
  3
simplex.shx
  4
CHINESET.SHX
  0
STYLE
  5
3457
330
3
100
AcDbSymbolTableRecord
100
AcDbTextStyleTableRecord
  2
DAYUS
 70
     0
 40
0.0
 41
1.0
 50
0.0
 71
     0
 42
2.5
  3
simplex
  4
dayus
  0
ENDTAB
  0
TABLE
  2
VIEW
  5
6
330
0
100
AcDbSymbolTable
 70
     0
  0
ENDTAB
  0
TABLE
  2
UCS
  5
7
330
0
100
AcDbSymbolTable
 70
     0
  0
ENDTAB
  0
TABLE
  2
APPID
  5
9
330
0
100
AcDbSymbolTable
 70
    23
  0
APPID
  5
12
330
9
100
AcDbSymbolTableRecord
100
AcDbRegAppTableRecord
  2
ACAD
 70
     0
  0
APPID
  5
46
330
9
100
AcDbSymbolTableRecord
100
AcDbRegAppTableRecord
  2
MCAD_NO_VIS
 70
     0
  0
APPID
  5
47
330
9
100
AcDbSymbolTableRecord
100
AcDbRegAppTableRecord
  2
ACAD_TEMP_GRAPHIC
 70
     0
  0
APPID
  5
58
330
9
100
AcDbSymbolTableRecord
100
AcDbRegAppTableRecord
  2
ACATTRIBSERVICES
 70
     0
  0
APPID
  5
EE
330
9
100
AcDbSymbolTableRecord
100
AcDbRegAppTableRecord
  2
AD_DRAW
 70
     0
  0
APPID
  5
10C
330
9
100
AcDbSymbolTableRecord
100
AcDbRegAppTableRecord
  2
DESIGNERASSEMBLIES
 70
     0
  0
APPID
  5
111
330
9
100
AcDbSymbolTableRecord
100
AcDbRegAppTableRecord
  2
ACADM_DIM_EDIT
 70
     0
  0
APPID
  5
112
330
9
100
AcDbSymbolTableRecord
100
AcDbRegAppTableRecord
  2
AMDT_DM_ADJ
 70
     0
  0
APPID
  5
22C
330
9
100
AcDbSymbolTableRecord
100
AcDbRegAppTableRecord
  2
ACAD_DSTYLE_DIMTEXT_FILL
 70
     0
  0
APPID
  5
452
330
9
100
AcDbSymbolTableRecord
100
AcDbRegAppTableRecord
  2
GENIUS_GENOENT_13
 70
     0
  0
APPID
  5
453
330
9
100
AcDbSymbolTableRecord
100
AcDbRegAppTableRecord
  2
GENIUS_GENOBJ-N-CRS_13
 70
     0
  0
APPID
  5
454
330
9
100
AcDbSymbolTableRecord
100
AcDbRegAppTableRecord
  2
GENIUS_GENOLIS_13
 70
     0
  0
APPID
  5
455
330
9
100
AcDbSymbolTableRecord
100
AcDbRegAppTableRecord
  2
GENIUS_GENODEF_13
 70
     0
  0
APPID
  5
456
330
9
100
AcDbSymbolTableRecord
100
AcDbRegAppTableRecord
  2
GENIUS_GENOREF_13
 70
     0
  0
APPID
  5
6F3
330
9
100
AcDbSymbolTableRecord
100
AcDbRegAppTableRecord
  2
ACAD_PSEXT
 70
     0
  0
APPID
  5
808
330
9
100
AcDbSymbolTableRecord
100
AcDbRegAppTableRecord
  2
GENIUS_GENDTOL_13
 70
     0
  0
APPID
  5
16FC
330
9
100
AcDbSymbolTableRecord
100
AcDbRegAppTableRecord
  2
GENIUS_GENREC_14
 70
     0
  0
APPID
  5
16FD
330
9
100
AcDbSymbolTableRecord
100
AcDbRegAppTableRecord
  2
GENIUS_GENOBJ-N-REC_13
 70
     0
  0
APPID
  5
268C
330
9
100
AcDbSymbolTableRecord
100
AcDbRegAppTableRecord
  2
GENIUS_GENDIMSH_14
 70
     0
  0
APPID
  5
3991
330
9
100
AcDbSymbolTableRecord
100
AcDbRegAppTableRecord
  2
GENIUS_GENDIM_13
 70
     0
  0
APPID
  5
3992
330
9
100
AcDbSymbolTableRecord
100
AcDbRegAppTableRecord
  2
GENIUS_GE3DTOL_13
 70
     0
  0
APPID
  5
3A12
330
9
100
AcDbSymbolTableRecord
100
AcDbRegAppTableRecord
  2
ASURF_PCURVE_APPNAME
 70
     0
  0
APPID
  5
3A17
330
9
100
AcDbSymbolTableRecord
100
AcDbRegAppTableRecord
  2
AMG_3D2D_5.0
 70
     0
  0
ENDTAB
  0
TABLE
  2
DIMSTYLE
  5
A
330
0
100
AcDbSymbolTable
 70
    11
100
AcDbDimStyleTable
 71
     3
340
81
340
8B
340
86
  0
DIMSTYLE
105
81
102
{ACAD_REACTORS
330
4E77
102
}
330
A
100
AcDbSymbolTableRecord
100
AcDbDimStyleTableRecord
  2
AM_ISO
 70
     0
  4
"
 40
1.5
 41
3.0
 42
1.0
 43
8.0
 44
1.0
 47
0.1
 48
0.1
 73
     0
 74
     0
 77
     1
 78
     8
 79
     2
140
3.5
141
0.0
143
0.0393701
146
0.6
147
1.0
172
     1
176
   256
177
   256
178
   256
271
     2
272
     2
283
     0
284
     8
340
11
371
    -1
372
    -1
  0
DIMSTYLE
105
82
330
A
100
AcDbSymbolTableRecord
100
AcDbDimStyleTableRecord
  2
AM_ISO$3
 70
     0
  4
"
 40
1.5
 41
3.0
 42
1.0
 43
8.0
 44
1.0
 47
0.1
 48
0.1
 73
     0
 77
     1
 78
     8
 79
     2
140
3.5
141
0.0
143
0.0393701
146
0.6
147
1.0
176
   256
177
   256
178
   256
271
     2
272
     2
283
     0
284
     8
288
     1
289
     0
340
11
371
    -1
372
    -1
  0
DIMSTYLE
105
83
330
A
100
AcDbSymbolTableRecord
100
AcDbDimStyleTableRecord
  2
AM_ISO$4
 70
     0
  4
"
 40
1.5
 41
3.0
 42
1.0
 43
8.0
 44
1.0
 47
0.1
 48
0.1
 73
     0
 77
     1
 78
     8
 79
     2
140
3.5
141
0.0
143
0.0393701
146
0.6
147
1.0
176
   256
177
   256
178
   256
271
     2
272
     2
283
     0
284
     8
288
     1
289
     0
340
11
371
    -1
372
    -1
  0
DIMSTYLE
105
84
330
A
100
AcDbSymbolTableRecord
100
AcDbDimStyleTableRecord
  2
AM_ISO$6
 70
     0
  4
"
 40
1.5
 41
3.0
 42
1.0
 43
8.0
 44
1.0
 47
0.1
 48
0.1
 73
     0
 74
     0
 78
     8
 79
     2
140
3.5
141
0.0
143
0.0393701
146
0.6
147
1.0
172
     1
176
   256
177
   256
178
   256
271
     2
272
     2
283
     0
284
     8
340
11
371
    -1
372
    -1
  0
DIMSTYLE
105
85
330
A
100
AcDbSymbolTableRecord
100
AcDbDimStyleTableRecord
  2
AM_ISO$7
 70
     0
  4
"
 40
1.5
 41
3.0
 42
1.0
 43
8.0
 44
1.0
 47
0.1
 48
0.1
 73
     0
 74
     0
 77
     1
 78
     8
 79
     2
140
3.5
141
0.0
143
0.0393701
146
0.6
147
1.0
172
     1
176
   256
177
   256
178
   256
271
     2
272
     2
283
     0
284
     8
340
11
371
    -1
372
    -1
  0
DIMSTYLE
105
86
330
A
100
AcDbSymbolTableRecord
100
AcDbDimStyleTableRecord
  2
AM_ISO$SF
 70
     0
  4
"
 40
1.5
 41
2.5
 42
1.0
 43
10.0
 44
1.0
 47
0.1
 48
0.1
 73
     0
 74
     0
 75
     1
 76
     1
 77
     1
 78
     8
 79
     2
140
3.5
141
0.0
143
0.0393701
146
0.71
147
1.5
172
     1
176
   256
177
   256
178
     2
271
     2
272
     3
274
     4
283
     0
284
     8
340
11
371
    -1
372
    -1
  0
DIMSTYLE
105
8B
330
A
100
AcDbSymbolTableRecord
100
AcDbDimStyleTableRecord
  2
AM_ISO$SH
 70
     0
  4
"
 40
1.5
 41
2.5
 42
1.0
 43
10.0
 44
1.0
 47
0.1
 48
0.1
 73
     0
 74
     0
 75
     1
 76
     1
 77
     1
 78
     8
 79
     2
140
3.5
141
0.0
143
0.0393701
144
2.0
146
0.71
147
1.5
172
     1
173
     1
176
   256
177
   256
178
     2
271
     2
272
     3
274
     4
283
     0
284
     8
340
11
343
87
371
    -1
372
    -1
  0
DIMSTYLE
105
40B
102
{ACAD_REACTORS
330
4E78
330
4E79
330
4E7A
330
4E7B
330
4F60
330
4F63
330
4F64
102
}
330
A
100
AcDbSymbolTableRecord
100
AcDbDimStyleTableRecord
  2
AM_ISO$0
 70
     0
  4
"
 40
1.5
 41
3.0
 42
1.0
 43
8.0
 44
1.0
 47
0.1
 48
0.1
 73
     0
 74
     0
 77
     1
 78
     8
 79
     2
140
3.5
141
0.0
143
0.0393701
146
0.6
147
1.0
172
     1
176
   256
177
   256
178
   256
271
     2
272
     2
283
     0
284
     8
340
11
371
    -1
372
    -1
  0
DIMSTYLE
105
3AFD
330
A
100
AcDbSymbolTableRecord
100
AcDbDimStyleTableRecord
  2
AM_ANSI$0
 70
     0
  4
"
 40
0.8
 41
3.0
 42
1.5
 43
6.4
 44
2.0
 47
0.1
 48
0.1
 73
     0
 74
     0
 77
     3
 78
     8
 79
     2
140
3.0
141
0.0
143
0.0393701
146
0.6
147
0.8
172
     1
176
   256
177
   256
178
   256
271
     2
272
     2
284
     8
340
3457
371
    -1
372
    -1
  0
DIMSTYLE
105
3D53
330
A
100
AcDbSymbolTableRecord
100
AcDbDimStyleTableRecord
  2
ISO-25
 70
     0
 41
2.5
 42
0.625
 43
3.75
 44
1.25
 73
     0
 74
     0
 77
     1
 78
     8
140
2.5
141
2.5
143
0.03937007874016
147
0.625
171
     3
172
     1
271
     2
272
     2
274
     3
278
    44
283
     0
284
     8
340
11
  0
ENDTAB
  0
TABLE
  2
BLOCK_RECORD
  5
1
330
0
100
AcDbSymbolTable
 70
    42
  0
BLOCK_RECORD
  5
1F
102
{ACAD_XDICTIONARY
360
8F
102
}
330
1
100
AcDbSymbolTableRecord
100
AcDbBlockTableRecord
  2
*Model_Space
340
22
  0
BLOCK_RECORD
  5
1B
330
1
100
AcDbSymbolTableRecord
100
AcDbBlockTableRecord
  2
*Paper_Space
340
1E
  0
BLOCK_RECORD
  5
23
330
1
100
AcDbSymbolTableRecord
100
AcDbBlockTableRecord
  2
*Paper_Space0
340
26
  0
BLOCK_RECORD
  5
87
330
1
100
AcDbSymbolTableRecord
100
AcDbBlockTableRecord
  2
GENAXEH
340
0
  0
BLOCK_RECORD
  5
3AEA
330
1
100
AcDbSymbolTableRecord
100
AcDbBlockTableRecord
  2
GENDOT
340
0
  0
BLOCK_RECORD
  5
4296
330
1
100
AcDbSymbolTableRecord
100
AcDbBlockTableRecord
  2
*D4
340
0
  0
BLOCK_RECORD
  5
42A2
102
{ACAD_XDICTIONARY
360
42A4
102
}
330
1
100
AcDbSymbolTableRecord
100
AcDbBlockTableRecord
  2
A$C11A73736
340
0
  0
BLOCK_RECORD
  5
4C77
330
1
100
AcDbSymbolTableRecord
100
AcDbBlockTableRecord
  2
*D17
340
0
  0
BLOCK_RECORD
  5
4C83
330
1
100
AcDbSymbolTableRecord
100
AcDbBlockTableRecord
  2
*D18
340
0
  0
BLOCK_RECORD
  5
4C8F
330
1
100
AcDbSymbolTableRecord
100
AcDbBlockTableRecord
  2
*D19
340
0
  0
BLOCK_RECORD
  5
4C9D
330
1
100
AcDbSymbolTableRecord
100
AcDbBlockTableRecord
  2
*D20
340
0
  0
BLOCK_RECORD
  5
4CAB
330
1
100
AcDbSymbolTableRecord
100
AcDbBlockTableRecord
  2
*D21
340
0
  0
BLOCK_RECORD
  5
4CB7
330
1
100
AcDbSymbolTableRecord
100
AcDbBlockTableRecord
  2
*D22
340
0
  0
BLOCK_RECORD
  5
4CF6
330
1
100
AcDbSymbolTableRecord
100
AcDbBlockTableRecord
  2
*D23
340
0
  0
BLOCK_RECORD
  5
4D0D
330
1
100
AcDbSymbolTableRecord
100
AcDbBlockTableRecord
  2
*D24
340
0
  0
BLOCK_RECORD
  5
4F6A
330
1
100
AcDbSymbolTableRecord
100
AcDbBlockTableRecord
  2
*D33
340
0
  0
BLOCK_RECORD
  5
4F76
330
1
100
AcDbSymbolTableRecord
100
AcDbBlockTableRecord
  2
*D34
340
0
  0
BLOCK_RECORD
  5
4F82
330
1
100
AcDbSymbolTableRecord
100
AcDbBlockTableRecord
  2
*D35
340
0
  0
BLOCK_RECORD
  5
4F90
330
1
100
AcDbSymbolTableRecord
100
AcDbBlockTableRecord
  2
*D36
340
0
  0
BLOCK_RECORD
  5
4F9E
330
1
100
AcDbSymbolTableRecord
100
AcDbBlockTableRecord
  2
*D37
340
0
  0
BLOCK_RECORD
  5
4FAA
330
1
100
AcDbSymbolTableRecord
100
AcDbBlockTableRecord
  2
*D38
340
0
  0
BLOCK_RECORD
  5
4FE9
330
1
100
AcDbSymbolTableRecord
100
AcDbBlockTableRecord
  2
*D39
340
0
  0
BLOCK_RECORD
  5
5000
330
1
100
AcDbSymbolTableRecord
100
AcDbBlockTableRecord
  2
*D40
340
0
  0
ENDTAB
  0
ENDSEC
  0
SECTION
  2
BLOCKS
  0
BLOCK
  5
20
330
1F
100
AcDbEntity
  8
0
100
AcDbBlockBegin
  2
*Model_Space
 70
     0
 10
0.0
 20
0.0
 30
0.0
  3
*Model_Space
  1

  0
ENDBLK
  5
21
330
1F
100
AcDbEntity
  8
0
100
AcDbBlockEnd
  0
BLOCK
  5
1C
330
1B
100
AcDbEntity
 67
     1
  8
0
100
AcDbBlockBegin
  2
*Paper_Space
 70
     0
 10
0.0
 20
0.0
 30
0.0
  3
*Paper_Space
  1

  0
ENDBLK
  5
1D
330
1B
100
AcDbEntity
 67
     1
  8
0
100
AcDbBlockEnd
  0
BLOCK
  5
24
330
23
100
AcDbEntity
  8
0
100
AcDbBlockBegin
  2
*Paper_Space0
 70
     0
 10
0.0
 20
0.0
 30
0.0
  3
*Paper_Space0
  1

  0
ENDBLK
  5
25
330
23
100
AcDbEntity
  8
0
100
AcDbBlockEnd
  0
BLOCK
  5
89
330
87
100
AcDbEntity
  8
0
100
AcDbBlockBegin
  2
GENAXEH
 70
     0
 10
0.0
 20
0.0
 30
0.0
  3
GENAXEH
  1

  0
LINE
  5
88
330
87
100
AcDbEntity
  8
0
100
AcDbLine
 10
-1.0
 20
0.0
 30
0.0
 11
1.0
 21
0.0
 31
0.0
  0
ENDBLK
  5
8A
330
87
100
AcDbEntity
  8
0
100
AcDbBlockEnd
  0
BLOCK
  5
3AEB
330
3AEA
100
AcDbEntity
  8
0
100
AcDbBlockBegin
  2
GENDOT
 70
     0
 10
0.0
 20
0.0
 30
0.0
  3
GENDOT
  1

  0
LINE
  5
3AEC
330
3AEA
100
AcDbEntity
  8
0
100
AcDbLine
 10
0.0
 20
0.0
 30
0.0
 11
-1.0
 21
0.0
 31
0.0
  0
LWPOLYLINE
  5
3AED
330
3AEA
100
AcDbEntity
  8
0
100
AcDbPolyline
 90
        2
 70
     1
 43
0.25
 10
-0.125
 20
0.0
 42
1.0
 10
0.125
 20
0.0
 42
1.0
  0
ENDBLK
  5
3AEE
330
3AEA
100
AcDbEntity
  8
0
100
AcDbBlockEnd
  0
BLOCK
  5
4297
330
4296
100
AcDbEntity
  8
0
 62
     6
100
AcDbBlockBegin
  2
*D4
 70
     1
 10
0.0
 20
0.0
 30
0.0
  3
*D4
  1

  0
LINE
  5
4298
330
4296
100
AcDbEntity
  8
AM_5
100
AcDbLine
 10
142.7610165365147
 20
156.2384599547412
 30
0.0
 11
135.1984654333557
 21
156.2384599547412
 31
0.0
  0
LINE
  5
4299
330
4296
100
AcDbEntity
  8
AM_5
100
AcDbLine
 10
142.7610165365147
 20
170.2384599547412
 30
0.0
 11
135.1984654333557
 21
170.2384599547412
 31
0.0
  0
LINE
  5
429A
330
4296
100
AcDbEntity
  8
AM_5
100
AcDbLine
 10
136.1984654333557
 20
159.2384599547412
 30
0.0
 11
136.1984654333557
 21
167.2384599547412
 31
0.0
  0
SOLID
  5
429B
330
4296
100
AcDbEntity
  8
AM_5
100
AcDbTrace
 10
135.6984654333557
 20
159.2384599547412
 30
0.0
 11
136.6984654333557
 21
159.2384599547412
 31
0.0
 12
136.1984654333557
 22
156.2384599547412
 32
0.0
 13
136.1984654333557
 23
156.2384599547412
 33
0.0
  0
SOLID
  5
429C
330
4296
100
AcDbEntity
  8
AM_5
100
AcDbTrace
 10
135.6984654333557
 20
167.2384599547412
 30
0.0
 11
136.6984654333557
 21
167.2384599547412
 31
0.0
 12
136.1984654333557
 22
170.2384599547412
 32
0.0
 13
136.1984654333557
 23
170.2384599547412
 33
0.0
  0
MTEXT
  5
429D
330
4296
100
AcDbEntity
  8
AM_5
100
AcDbMText
 10
133.4484654333557
 20
163.2384599547412
 30
0.0
 40
3.5
 41
0.0
 71
     5
 72
     1
  1
%%c14
 11
0.0000000000000001
 21
1.0
 31
0.0
 73
     1
 44
1.0
1001
ACAD
1000
MTEXTBEGIN
1070
    73
1070
     1
1070
    44
1040
1.0
1070
    74
1070
     0
1000
MTEXTEND
  0
POINT
  5
429E
330
4296
100
AcDbEntity
  8
Defpoints
 62
     0
100
AcDbPoint
 10
143.7610165365147
 20
156.2384599547412
 30
0.0
  0
POINT
  5
429F
330
4296
100
AcDbEntity
  8
Defpoints
 62
     0
100
AcDbPoint
 10
143.7610165365147
 20
170.2384599547412
 30
0.0
  0
POINT
  5
42A0
330
4296
100
AcDbEntity
  8
Defpoints
 62
     0
100
AcDbPoint
 10
136.1984654333557
 20
170.2384599547412
 30
0.0
  0
ENDBLK
  5
42A1
330
4296
100
AcDbEntity
  8
0
 62
     6
100
AcDbBlockEnd
  0
BLOCK
  5
42A5
330
42A2
100
AcDbEntity
  8
0
100
AcDbBlockBegin
  2
A$C11A73736
 70
     0
 10
0.0
 20
0.0
 30
0.0
  3
A$C11A73736
  1

  0
DIMENSION
  5
42A3
330
42A2
100
AcDbEntity
  8
AM_5
100
AcDbDimension
  2
*D4
 10
4.324999834982122
 20
13.99999985764856
 30
0.0
 11
1.574999834982094
 21
6.999999857648589
 31
0.0
 12
-131.8734655983736
 22
-156.2384600970927
 32
0.0
  1
%%c<>
 71
     5
 42
14.0
  3
AM_ISO$0
100
AcDbAlignedDimension
 13
11.88755093814109
 23
-0.0000001423514391
 33
0.0
 14
11.88755093814109
 24
13.99999985764856
 34
0.0
 50
90.0
100
AcDbRotatedDimension
1001
ACAD
1000
DSTYLE
1002
{
1070
    40
1040
1.0
1070
   144
1040
1.0
1002
}
  0
ENDBLK
  5
42A6
330
42A2
100
AcDbEntity
  8
0
100
AcDbBlockEnd
  0
BLOCK
  5
4C81
330
4C77
100
AcDbEntity
  8
0
100
AcDbBlockBegin
  2
*D17
 70
     1
 10
0.0
 20
0.0
 30
0.0
  3
*D17
  1

  0
LINE
  5
4CC5
330
4C77
100
AcDbEntity
  8
AM_REFDIM
100
AcDbLine
 10
454.7324825628382
 20
1016.381491575352
 30
0.0
 11
454.7324825628382
 21
1028.381491575352
 31
0.0
  0
LINE
  5
4CC6
330
4C77
100
AcDbEntity
  8
AM_REFDIM
100
AcDbLine
 10
484.7324825628382
 20
1016.381491575352
 30
0.0
 11
484.7324825628382
 21
1028.381491575352
 31
0.0
  0
LINE
  5
4CC7
330
4C77
100
AcDbEntity
  8
AM_REFDIM
100
AcDbLine
 10
459.2324825628382
 20
1026.881491575352
 30
0.0
 11
480.2324825628382
 21
1026.881491575352
 31
0.0
  0
SOLID
  5
4CC8
330
4C77
100
AcDbEntity
  8
AM_REFDIM
100
AcDbTrace
 10
459.2324825628382
 20
1027.631491575352
 30
0.0
 11
459.2324825628382
 21
1026.131491575352
 31
0.0
 12
454.7324825628382
 22
1026.881491575352
 32
0.0
 13
454.7324825628382
 23
1026.881491575352
 33
0.0
  0
SOLID
  5
4CC9
330
4C77
100
AcDbEntity
  8
AM_REFDIM
100
AcDbTrace
 10
480.2324825628382
 20
1027.631491575352
 30
0.0
 11
480.2324825628382
 21
1026.131491575352
 31
0.0
 12
484.7324825628382
 22
1026.881491575352
 32
0.0
 13
484.7324825628382
 23
1026.881491575352
 33
0.0
  0
MTEXT
  5
4CCA
330
4C77
100
AcDbEntity
  8
AM_REFDIM
100
AcDbMText
 10
469.7324825628381
 20
1031.006491575352
 30
0.0
 40
5.25
 41
0.0
 71
     5
 72
     1
  1
30
 73
     1
 44
1.0
1001
ACAD
1000
MTEXTBEGIN
1070
    73
1070
     1
1070
    44
1040
1.0
1070
    74
1070
     0
1000
MTEXTEND
  0
POINT
  5
4CCB
330
4C77
100
AcDbEntity
  8
Defpoints
 62
     0
100
AcDbPoint
 10
454.7324825628382
 20
1014.881491575352
 30
0.0
  0
POINT
  5
4CCC
330
4C77
100
AcDbEntity
  8
Defpoints
 62
     0
100
AcDbPoint
 10
484.7324825628382
 20
1014.881491575352
 30
0.0
  0
POINT
  5
4CCD
330
4C77
100
AcDbEntity
  8
Defpoints
 62
     0
100
AcDbPoint
 10
484.7324825628382
 20
1026.881491575352
 30
0.0
  0
ENDBLK
  5
4C82
330
4C77
100
AcDbEntity
  8
0
100
AcDbBlockEnd
  0
BLOCK
  5
4C8D
330
4C83
100
AcDbEntity
  8
0
100
AcDbBlockBegin
  2
*D18
 70
     1
 10
0.0
 20
0.0
 30
0.0
  3
*D18
  1

  0
LINE
  5
4CCE
330
4C83
100
AcDbEntity
  8
AM_REFDIM
100
AcDbLine
 10
484.7324825628382
 20
1016.381491575352
 30
0.0
 11
495.7324825628382
 21
1016.381491575352
 31
0.0
  0
LINE
  5
4CCF
330
4C83
100
AcDbEntity
  8
AM_REFDIM
100
AcDbLine
 10
484.7324825628382
 20
986.3814915753524
 30
0.0
 11
495.7324825628382
 21
986.3814915753524
 31
0.0
  0
LINE
  5
4CD0
330
4C83
100
AcDbEntity
  8
AM_REFDIM
100
AcDbLine
 10
494.2324825628381
 20
1010.381491575352
 30
0.0
 11
494.2324825628381
 21
992.3814915753522
 31
0.0
  0
SOLID
  5
4CD1
330
4C83
100
AcDbEntity
  8
AM_REFDIM
100
AcDbTrace
 10
493.2324825628382
 20
1010.381491575352
 30
0.0
 11
495.2324825628381
 21
1010.381491575352
 31
0.0
 12
494.2324825628381
 22
1016.381491575352
 32
0.0
 13
494.2324825628381
 23
1016.381491575352
 33
0.0
  0
SOLID
  5
4CD2
330
4C83
100
AcDbEntity
  8
AM_REFDIM
100
AcDbTrace
 10
493.2324825628382
 20
992.3814915753522
 30
0.0
 11
495.2324825628381
 21
992.3814915753522
 31
0.0
 12
494.2324825628381
 22
986.3814915753524
 32
0.0
 13
494.2324825628381
 23
986.3814915753524
 33
0.0
  0
MTEXT
  5
4CD3
330
4C83
100
AcDbEntity
  8
AM_REFDIM
100
AcDbMText
 10
490.107482562838
 20
1001.381491575352
 30
0.0
 40
5.25
 41
0.0
 71
     5
 72
     1
  1
30
 11
0.0000000000000001
 21
1.0
 31
0.0
 73
     1
 44
1.0
1001
ACAD
1000
MTEXTBEGIN
1070
    73
1070
     1
1070
    44
1040
1.0
1070
    74
1070
     0
1000
MTEXTEND
  0
POINT
  5
4CD4
330
4C83
100
AcDbEntity
  8
Defpoints
 62
     0
100
AcDbPoint
 10
483.2324825628382
 20
1016.381491575352
 30
0.0
  0
POINT
  5
4CD5
330
4C83
100
AcDbEntity
  8
Defpoints
 62
     0
100
AcDbPoint
 10
483.2324825628382
 20
986.3814915753524
 30
0.0
  0
POINT
  5
4CD6
330
4C83
100
AcDbEntity
  8
Defpoints
 62
     0
100
AcDbPoint
 10
494.2324825628381
 20
986.3814915753524
 30
0.0
  0
ENDBLK
  5
4C8E
330
4C83
100
AcDbEntity
  8
0
100
AcDbBlockEnd
  0
BLOCK
  5
4C9B
330
4C8F
100
AcDbEntity
  8
0
100
AcDbBlockBegin
  2
*D19
 70
     1
 10
0.0
 20
0.0
 30
0.0
  3
*D19
  1

  0
LINE
  5
4CD7
330
4C8F
100
AcDbEntity
  8
AM_REFDIM
100
AcDbLine
 10
466.7324825628382
 20
980.8814915753524
 30
0.0
 11
466.7324825628382
 21
971.8814915653522
 31
0.0
  0
LINE
  5
4CD8
330
4C8F
100
AcDbEntity
  8
AM_REFDIM
100
AcDbLine
 10
472.7324825628381
 20
980.8814915753524
 30
0.0
 11
472.7324825628381
 21
971.8814915653522
 31
0.0
  0
LINE
  5
4CD9
330
4C8F
100
AcDbEntity
  8
AM_REFDIM
100
AcDbLine
 10
478.7324825628381
 20
973.3814915653523
 30
0.0
 11
484.7324825628382
 21
973.3814915653523
 31
0.0
  0
LINE
  5
4CDA
330
4C8F
100
AcDbEntity
  8
AM_REFDIM
100
AcDbLine
 10
460.7324825628381
 20
973.3814915653523
 30
0.0
 11
449.0578762636255
 21
973.3814915653523
 31
0.0
  0
LINE
  5
4CDB
330
4C8F
100
AcDbEntity
  8
AM_REFDIM
100
AcDbLine
 10
472.7324825628381
 20
973.3814915653523
 30
0.0
 11
466.7324825628382
 21
973.3814915653523
 31
0.0
  0
SOLID
  5
4CDC
330
4C8F
100
AcDbEntity
  8
AM_REFDIM
100
AcDbTrace
 10
478.7324825628381
 20
974.3814915653523
 30
0.0
 11
478.7324825628381
 21
972.3814915653523
 31
0.0
 12
472.7324825628381
 22
973.3814915653523
 32
0.0
 13
472.7324825628381
 23
973.3814915653523
 33
0.0
  0
SOLID
  5
4CDD
330
4C8F
100
AcDbEntity
  8
AM_REFDIM
100
AcDbTrace
 10
460.7324825628381
 20
974.3814915653523
 30
0.0
 11
460.7324825628381
 21
972.3814915653523
 31
0.0
 12
466.7324825628382
 22
973.3814915653523
 32
0.0
 13
466.7324825628382
 23
973.3814915653523
 33
0.0
  0
MTEXT
  5
4CDE
330
4C8F
100
AcDbEntity
  8
AM_REFDIM
100
AcDbMText
 10
451.8951794132318
 20
977.5064915653523
 30
0.0
 40
5.25
 41
0.0
 71
     5
 72
     1
  1
6
 73
     1
 44
1.0
1001
ACAD
1000
MTEXTBEGIN
1070
    73
1070
     1
1070
    44
1040
1.0
1070
    74
1070
     0
1000
MTEXTEND
  0
POINT
  5
4CDF
330
4C8F
100
AcDbEntity
  8
Defpoints
 62
     0
100
AcDbPoint
 10
466.7324825628382
 20
982.3814915753523
 30
0.0
  0
POINT
  5
4CE0
330
4C8F
100
AcDbEntity
  8
Defpoints
 62
     0
100
AcDbPoint
 10
472.7324825628381
 20
982.3814915753523
 30
0.0
  0
POINT
  5
4CE1
330
4C8F
100
AcDbEntity
  8
Defpoints
 62
     0
100
AcDbPoint
 10
472.7324825628381
 20
973.3814915653523
 30
0.0
  0
ENDBLK
  5
4C9C
330
4C8F
100
AcDbEntity
  8
0
100
AcDbBlockEnd
  0
BLOCK
  5
4CA9
330
4C9D
100
AcDbEntity
  8
0
100
AcDbBlockBegin
  2
*D20
 70
     1
 10
0.0
 20
0.0
 30
0.0
  3
*D20
  1

  0
LINE
  5
4CE2
330
4C9D
100
AcDbEntity
  8
AM_REFDIM
100
AcDbLine
 10
474.2324825628381
 20
982.3814915753523
 30
0.0
 11
495.7324825628382
 21
982.3814915753523
 31
0.0
  0
LINE
  5
4CE3
330
4C9D
100
AcDbEntity
  8
AM_REFDIM
100
AcDbLine
 10
484.7324825628382
 20
986.3814915753524
 30
0.0
 11
495.7324825628382
 21
986.3814915753524
 31
0.0
  0
LINE
  5
4CE4
330
4C9D
100
AcDbEntity
  8
AM_REFDIM
100
AcDbLine
 10
494.2324825628381
 20
976.3814915753524
 30
0.0
 11
494.2324825628381
 21
970.3814915753524
 31
0.0
  0
LINE
  5
4CE5
330
4C9D
100
AcDbEntity
  8
AM_REFDIM
100
AcDbLine
 10
494.2324825628381
 20
992.3814915753522
 30
0.0
 11
494.2324825628381
 21
1004.006491575352
 31
0.0
  0
LINE
  5
4CE6
330
4C9D
100
AcDbEntity
  8
AM_REFDIM
100
AcDbLine
 10
494.2324825628381
 20
982.3814915753523
 30
0.0
 11
494.2324825628381
 21
986.3814915753524
 31
0.0
  0
SOLID
  5
4CE7
330
4C9D
100
AcDbEntity
  8
AM_REFDIM
100
AcDbTrace
 10
493.2324825628382
 20
976.3814915753524
 30
0.0
 11
495.2324825628381
 21
976.3814915753524
 31
0.0
 12
494.2324825628381
 22
982.3814915753523
 32
0.0
 13
494.2324825628381
 23
982.3814915753523
 33
0.0
  0
SOLID
  5
4CE8
330
4C9D
100
AcDbEntity
  8
AM_REFDIM
100
AcDbTrace
 10
493.2324825628382
 20
992.3814915753522
 30
0.0
 11
495.2324825628381
 21
992.3814915753522
 31
0.0
 12
494.2324825628381
 22
986.3814915753524
 32
0.0
 13
494.2324825628381
 23
986.3814915753524
 33
0.0
  0
MTEXT
  5
4CE9
330
4C9D
100
AcDbEntity
  8
AM_REFDIM
100
AcDbMText
 10
490.107482562838
 20
1001.193991575352
 30
0.0
 40
5.25
 41
0.0
 71
     5
 72
     1
  1
4
 11
0.0000000000000001
 21
1.0
 31
0.0
 73
     1
 44
1.0
1001
ACAD
1000
MTEXTBEGIN
1070
    73
1070
     1
1070
    44
1040
1.0
1070
    74
1070
     0
1000
MTEXTEND
  0
POINT
  5
4CEA
330
4C9D
100
AcDbEntity
  8
Defpoints
 62
     0
100
AcDbPoint
 10
472.7324825628381
 20
982.3814915753523
 30
0.0
  0
POINT
  5
4CEB
330
4C9D
100
AcDbEntity
  8
Defpoints
 62
     0
100
AcDbPoint
 10
483.2324825628382
 20
986.3814915753524
 30
0.0
  0
POINT
  5
4CEC
330
4C9D
100
AcDbEntity
  8
Defpoints
 62
     0
100
AcDbPoint
 10
494.2324825628381
 20
986.3814915753524
 30
0.0
  0
ENDBLK
  5
4CAA
330
4C9D
100
AcDbEntity
  8
0
100
AcDbBlockEnd
  0
BLOCK
  5
4CB5
330
4CAB
100
AcDbEntity
  8
0
100
AcDbBlockBegin
  2
*D21
 70
     1
 10
0.0
 20
0.0
 30
0.0
  3
*D21
  1

  0
LINE
  5
4CED
330
4CAB
100
AcDbEntity
  8
AM_REFDIM
100
AcDbLine
 10
524.248807211788
 20
982.3814915753523
 30
0.0
 11
562.948807211788
 21
982.3814915753523
 31
0.0
  0
LINE
  5
4CEE
330
4CAB
100
AcDbEntity
  8
AM_REFDIM
100
AcDbLine
 10
524.6241064726633
 20
920.6905457802553
 30
0.0
 11
562.948807211788
 21
920.6905457802553
 31
0.0
  0
LINE
  5
4CEF
330
4CAB
100
AcDbEntity
  8
AM_REFDIM
100
AcDbLine
 10
561.4488072117881
 20
976.3814915753522
 30
0.0
 11
561.4488072117881
 21
926.6905457802552
 31
0.0
  0
SOLID
  5
4CF0
330
4CAB
100
AcDbEntity
  8
AM_REFDIM
100
AcDbTrace
 10
560.4488072117881
 20
976.3814915753522
 30
0.0
 11
562.448807211788
 21
976.3814915753522
 31
0.0
 12
561.4488072117881
 22
982.3814915753523
 32
0.0
 13
561.4488072117881
 23
982.3814915753523
 33
0.0
  0
SOLID
  5
4CF1
330
4CAB
100
AcDbEntity
  8
AM_REFDIM
100
AcDbTrace
 10
560.4488072117881
 20
926.6905457802552
 30
0.0
 11
562.448807211788
 21
926.6905457802552
 31
0.0
 12
561.4488072117881
 22
920.6905457802553
 32
0.0
 13
561.4488072117881
 23
920.6905457802553
 33
0.0
  0
MTEXT
  5
4CF2
330
4CAB
100
AcDbEntity
  8
AM_REFDIM
100
AcDbMText
 10
557.323807211788
 20
951.5360186778039
 30
0.0
 40
5.25
 41
0.0
 71
     5
 72
     1
  1
150
 11
0.0000000000000001
 21
1.0
 31
0.0
 73
     1
 44
1.0
1001
ACAD
1000
MTEXTBEGIN
1070
    73
1070
     1
1070
    44
1040
1.0
1070
    74
1070
     0
1000
MTEXTEND
  0
POINT
  5
4CF3
330
4CAB
100
AcDbEntity
  8
Defpoints
 62
     0
100
AcDbPoint
 10
522.748807211788
 20
982.3814915753523
 30
0.0
  0
POINT
  5
4CF4
330
4CAB
100
AcDbEntity
  8
Defpoints
 62
     0
100
AcDbPoint
 10
523.1241064726633
 20
920.6905457802553
 30
0.0
  0
POINT
  5
4CF5
330
4CAB
100
AcDbEntity
  8
Defpoints
 62
     0
100
AcDbPoint
 10
561.4488072117881
 20
920.6905457802553
 30
0.0
  0
ENDBLK
  5
4CB6
330
4CAB
100
AcDbEntity
  8
0
100
AcDbBlockEnd
  0
BLOCK
  5
4CC3
330
4CB7
100
AcDbEntity
  8
0
100
AcDbBlockBegin
  2
*D22
 70
     1
 10
0.0
 20
0.0
 30
0.0
  3
*D22
  1

  0
LINE
  5
4D02
330
4CB7
100
AcDbEntity
  8
AM_REFDIM
100
AcDbLine
 10
527.748807211788
 20
1007.681491575352
 30
0.0
 11
549.4308537543274
 21
1007.681491575352
 31
0.0
  0
LINE
  5
4D03
330
4CB7
100
AcDbEntity
  8
AM_REFDIM
100
AcDbLine
 10
527.748807211788
 20
995.0814915753523
 30
0.0
 11
549.4308537543274
 21
995.0814915753523
 31
0.0
  0
LINE
  5
4D04
330
4CB7
100
AcDbEntity
  8
AM_REFDIM
100
AcDbLine
 10
547.9308537543274
 20
1013.681491575352
 30
0.0
 11
547.9308537543274
 21
1019.681491575352
 31
0.0
  0
LINE
  5
4D05
330
4CB7
100
AcDbEntity
  8
AM_REFDIM
100
AcDbLine
 10
547.9308537543274
 20
989.0814915753523
 30
0.0
 11
547.9308537543274
 21
983.0814915753524
 31
0.0
  0
LINE
  5
4D06
330
4CB7
100
AcDbEntity
  8
AM_REFDIM
100
AcDbLine
 10
547.9308537543274
 20
1007.681491575352
 30
0.0
 11
547.9308537543274
 21
995.0814915753523
 31
0.0
  0
SOLID
  5
4D07
330
4CB7
100
AcDbEntity
  8
AM_REFDIM
100
AcDbTrace
 10
546.9308537543274
 20
1013.681491575352
 30
0.0
 11
548.9308537543275
 21
1013.681491575352
 31
0.0
 12
547.9308537543274
 22
1007.681491575352
 32
0.0
 13
547.9308537543274
 23
1007.681491575352
 33
0.0
  0
SOLID
  5
4D08
330
4CB7
100
AcDbEntity
  8
AM_REFDIM
100
AcDbTrace
 10
546.9308537543274
 20
989.0814915753523
 30
0.0
 11
548.9308537543275
 21
989.0814915753523
 31
0.0
 12
547.9308537543274
 22
995.0814915753523
 32
0.0
 13
547.9308537543274
 23
995.0814915753523
 33
0.0
  0
MTEXT
  5
4D09
330
4CB7
100
AcDbEntity
  8
AM_REFDIM
100
AcDbMText
 10
543.8053370220439
 20
1001.381491575352
 30
0.0
 40
5.25
 41
0.0
 71
     5
 72
     1
  1
12.6
 11
0.0000000000000001
 21
1.0
 31
0.0
 73
     1
 44
1.0
1001
ACAD
1000
MTEXTBEGIN
1070
    73
1070
     1
1070
    44
1040
1.0
1070
    74
1070
     0
1000
MTEXTEND
  0
POINT
  5
4D0A
330
4CB7
100
AcDbEntity
  8
Defpoints
 62
     0
100
AcDbPoint
 10
526.248807211788
 20
1007.681491575352
 30
0.0
  0
POINT
  5
4D0B
330
4CB7
100
AcDbEntity
  8
Defpoints
 62
     0
100
AcDbPoint
 10
526.248807211788
 20
995.0814915753523
 30
0.0
  0
POINT
  5
4D0C
330
4CB7
100
AcDbEntity
  8
Defpoints
 62
     0
100
AcDbPoint
 10
547.9308537543274
 20
995.0814915753523
 30
0.0
  0
ENDBLK
  5
4CC4
330
4CB7
100
AcDbEntity
  8
0
100
AcDbBlockEnd
  0
BLOCK
  5
4D00
330
4CF6
100
AcDbEntity
  8
0
100
AcDbBlockBegin
  2
*D23
 70
     1
 10
0.0
 20
0.0
 30
0.0
  3
*D23
  1

  0
LINE
  5
4CF7
330
4CF6
100
AcDbEntity
  8
AM_REFDIM
100
AcDbLine
 10
505.7488072117879
 20
1016.381491575352
 30
0.0
 11
505.7488072117879
 21
1028.381491575352
 31
0.0
  0
LINE
  5
4CF8
330
4CF6
100
AcDbEntity
  8
AM_REFDIM
100
AcDbLine
 10
541.248807211788
 20
1016.381491575352
 30
0.0
 11
541.248807211788
 21
1028.381491575352
 31
0.0
  0
LINE
  5
4CF9
330
4CF6
100
AcDbEntity
  8
AM_REFDIM
100
AcDbLine
 10
511.748807211788
 20
1026.881491575352
 30
0.0
 11
535.248807211788
 21
1026.881491575352
 31
0.0
  0
SOLID
  5
4CFA
330
4CF6
100
AcDbEntity
  8
AM_REFDIM
100
AcDbTrace
 10
511.748807211788
 20
1027.881491575352
 30
0.0
 11
511.748807211788
 21
1025.881491575352
 31
0.0
 12
505.7488072117879
 22
1026.881491575352
 32
0.0
 13
505.7488072117879
 23
1026.881491575352
 33
0.0
  0
SOLID
  5
4CFB
330
4CF6
100
AcDbEntity
  8
AM_REFDIM
100
AcDbTrace
 10
535.248807211788
 20
1027.881491575352
 30
0.0
 11
535.248807211788
 21
1025.881491575352
 31
0.0
 12
541.248807211788
 22
1026.881491575352
 32
0.0
 13
541.248807211788
 23
1026.881491575352
 33
0.0
  0
MTEXT
  5
4CFC
330
4CF6
100
AcDbEntity
  8
AM_REFDIM
100
AcDbMText
 10
523.498807211788
 20
1031.006491575352
 30
0.0
 40
5.25
 41
0.0
 71
     5
 72
     1
  1
35.5
 73
     1
 44
1.0
1001
ACAD
1000
MTEXTBEGIN
1070
    73
1070
     1
1070
    44
1040
1.0
1070
    74
1070
     0
1000
MTEXTEND
  0
POINT
  5
4CFD
330
4CF6
100
AcDbEntity
  8
Defpoints
 62
     0
100
AcDbPoint
 10
505.7488072117879
 20
1014.881491575352
 30
0.0
  0
POINT
  5
4CFE
330
4CF6
100
AcDbEntity
  8
Defpoints
 62
     0
100
AcDbPoint
 10
541.248807211788
 20
1014.881491575352
 30
0.0
  0
POINT
  5
4CFF
330
4CF6
100
AcDbEntity
  8
Defpoints
 62
     0
100
AcDbPoint
 10
541.248807211788
 20
1026.881491575352
 30
0.0
  0
ENDBLK
  5
4D01
330
4CF6
100
AcDbEntity
  8
0
100
AcDbBlockEnd
  0
BLOCK
  5
4D17
330
4D0D
100
AcDbEntity
  8
0
100
AcDbBlockBegin
  2
*D24
 70
     1
 10
0.0
 20
0.0
 30
0.0
  3
*D24
  1

  0
LINE
  5
4D0E
330
4D0D
100
AcDbEntity
  8
AM_REFDIM
100
AcDbLine
 10
542.748807211788
 20
987.8814915753522
 30
0.0
 11
555.9055259064991
 21
987.8814915753522
 31
0.0
  0
LINE
  5
4D0F
330
4D0D
100
AcDbEntity
  8
AM_REFDIM
100
AcDbLine
 10
542.748807211788
 20
1014.881491575352
 30
0.0
 11
555.9055259064991
 21
1014.881491575352
 31
0.0
  0
LINE
  5
4D10
330
4D0D
100
AcDbEntity
  8
AM_REFDIM
100
AcDbLine
 10
554.4055259064991
 20
993.8814915753523
 30
0.0
 11
554.4055259064991
 21
1008.881491575352
 31
0.0
  0
SOLID
  5
4D11
330
4D0D
100
AcDbEntity
  8
AM_REFDIM
100
AcDbTrace
 10
553.4055259064992
 20
993.8814915753523
 30
0.0
 11
555.4055259064991
 21
993.8814915753523
 31
0.0
 12
554.4055259064991
 22
987.8814915753522
 32
0.0
 13
554.4055259064991
 23
987.8814915753522
 33
0.0
  0
SOLID
  5
4D12
330
4D0D
100
AcDbEntity
  8
AM_REFDIM
100
AcDbTrace
 10
553.4055259064992
 20
1008.881491575352
 30
0.0
 11
555.4055259064991
 21
1008.881491575352
 31
0.0
 12
554.4055259064991
 22
1014.881491575352
 32
0.0
 13
554.4055259064991
 23
1014.881491575352
 33
0.0
  0
MTEXT
  5
4D13
330
4D0D
100
AcDbEntity
  8
AM_REFDIM
100
AcDbMText
 10
550.2800091742155
 20
1001.381491575352
 30
0.0
 40
5.25
 41
0.0
 71
     5
 72
     1
  1
27
 11
0.0000000000000001
 21
1.0
 31
0.0
 73
     1
 44
1.0
1001
ACAD
1000
MTEXTBEGIN
1070
    73
1070
     1
1070
    44
1040
1.0
1070
    74
1070
     0
1000
MTEXTEND
  0
POINT
  5
4D14
330
4D0D
100
AcDbEntity
  8
Defpoints
 62
     0
100
AcDbPoint
 10
541.248807211788
 20
987.8814915753522
 30
0.0
  0
POINT
  5
4D15
330
4D0D
100
AcDbEntity
  8
Defpoints
 62
     0
100
AcDbPoint
 10
541.248807211788
 20
1014.881491575352
 30
0.0
  0
POINT
  5
4D16
330
4D0D
100
AcDbEntity
  8
Defpoints
 62
     0
100
AcDbPoint
 10
554.4055259064991
 20
1014.881491575352
 30
0.0
  0
ENDBLK
  5
4D18
330
4D0D
100
AcDbEntity
  8
0
100
AcDbBlockEnd
  0
BLOCK
  5
4F74
330
4F6A
100
AcDbEntity
  8
0
100
AcDbBlockBegin
  2
*D33
 70
     1
 10
0.0
 20
0.0
 30
0.0
  3
*D33
  1

  0
LINE
  5
5145
330
4F6A
100
AcDbEntity
  8
AM_REFDIM
100
AcDbLine
 10
417.2520467440952
 20
379.6796610168936
 30
0.0
 11
417.2520467440952
 21
391.6796610168936
 31
0.0
  0
LINE
  5
5146
330
4F6A
100
AcDbEntity
  8
AM_REFDIM
100
AcDbLine
 10
447.2520467440951
 20
379.6796610168936
 30
0.0
 11
447.2520467440951
 21
391.6796610168936
 31
0.0
  0
LINE
  5
5147
330
4F6A
100
AcDbEntity
  8
AM_REFDIM
100
AcDbLine
 10
421.7520467440952
 20
390.1796610168936
 30
0.0
 11
442.7520467440952
 21
390.1796610168936
 31
0.0
  0
SOLID
  5
5148
330
4F6A
100
AcDbEntity
  8
AM_REFDIM
100
AcDbTrace
 10
421.7520467440952
 20
390.9296610168936
 30
0.0
 11
421.7520467440952
 21
389.4296610168936
 31
0.0
 12
417.2520467440952
 22
390.1796610168936
 32
0.0
 13
417.2520467440952
 23
390.1796610168936
 33
0.0
  0
SOLID
  5
5149
330
4F6A
100
AcDbEntity
  8
AM_REFDIM
100
AcDbTrace
 10
442.7520467440952
 20
390.9296610168936
 30
0.0
 11
442.7520467440952
 21
389.4296610168936
 31
0.0
 12
447.2520467440951
 22
390.1796610168936
 32
0.0
 13
447.2520467440951
 23
390.1796610168936
 33
0.0
  0
MTEXT
  5
514A
330
4F6A
100
AcDbEntity
  8
AM_REFDIM
100
AcDbMText
 10
432.2520467440951
 20
394.3046610168936
 30
0.0
 40
5.25
 41
0.0
 71
     5
 72
     1
  1
30
 73
     1
 44
1.0
1001
ACAD
1000
MTEXTBEGIN
1070
    73
1070
     1
1070
    44
1040
1.0
1070
    74
1070
     0
1000
MTEXTEND
  0
POINT
  5
514B
330
4F6A
100
AcDbEntity
  8
Defpoints
 62
     0
100
AcDbPoint
 10
417.2520467440952
 20
378.1796610168936
 30
0.0
  0
POINT
  5
514C
330
4F6A
100
AcDbEntity
  8
Defpoints
 62
     0
100
AcDbPoint
 10
447.2520467440951
 20
378.1796610168936
 30
0.0
  0
POINT
  5
514D
330
4F6A
100
AcDbEntity
  8
Defpoints
 62
     0
100
AcDbPoint
 10
447.2520467440951
 20
390.1796610168936
 30
0.0
  0
ENDBLK
  5
4F75
330
4F6A
100
AcDbEntity
  8
0
100
AcDbBlockEnd
  0
BLOCK
  5
4F80
330
4F76
100
AcDbEntity
  8
0
100
AcDbBlockBegin
  2
*D34
 70
     1
 10
0.0
 20
0.0
 30
0.0
  3
*D34
  1

  0
LINE
  5
51D2
330
4F76
100
AcDbEntity
  8
AM_REFDIM
100
AcDbLine
 10
447.2520467440951
 20
379.6796610168937
 30
0.0
 11
465.5553399059223
 21
379.6796610168937
 31
0.0
  0
LINE
  5
51D3
330
4F76
100
AcDbEntity
  8
AM_REFDIM
100
AcDbLine
 10
447.2520467440951
 20
349.6796610168937
 30
0.0
 11
465.5553399059223
 21
349.6796610168937
 31
0.0
  0
LINE
  5
51D4
330
4F76
100
AcDbEntity
  8
AM_REFDIM
100
AcDbLine
 10
464.0553399059223
 20
373.6796610168937
 30
0.0
 11
464.0553399059223
 21
355.6796610168937
 31
0.0
  0
SOLID
  5
51D5
330
4F76
100
AcDbEntity
  8
AM_REFDIM
100
AcDbTrace
 10
463.0553399059222
 20
373.6796610168937
 30
0.0
 11
465.0553399059223
 21
373.6796610168937
 31
0.0
 12
464.0553399059223
 22
379.6796610168937
 32
0.0
 13
464.0553399059223
 23
379.6796610168937
 33
0.0
  0
SOLID
  5
51D6
330
4F76
100
AcDbEntity
  8
AM_REFDIM
100
AcDbTrace
 10
463.0553399059222
 20
355.6796610168937
 30
0.0
 11
465.0553399059223
 21
355.6796610168937
 31
0.0
 12
464.0553399059223
 22
349.6796610168937
 32
0.0
 13
464.0553399059223
 23
349.6796610168937
 33
0.0
  0
MTEXT
  5
51D7
330
4F76
100
AcDbEntity
  8
AM_REFDIM
100
AcDbMText
 10
459.9303399059222
 20
364.6796610168938
 30
0.0
 40
5.25
 41
0.0
 71
     5
 72
     1
  1
30
 11
0.0000000000000001
 21
1.0
 31
0.0
 73
     1
 44
1.0
1001
ACAD
1000
MTEXTBEGIN
1070
    73
1070
     1
1070
    44
1040
1.0
1070
    74
1070
     0
1000
MTEXTEND
  0
POINT
  5
51D8
330
4F76
100
AcDbEntity
  8
Defpoints
 62
     0
100
AcDbPoint
 10
445.7520467440952
 20
379.6796610168937
 30
0.0
  0
POINT
  5
51D9
330
4F76
100
AcDbEntity
  8
Defpoints
 62
     0
100
AcDbPoint
 10
445.7520467440952
 20
349.6796610168937
 30
0.0
  0
POINT
  5
51DA
330
4F76
100
AcDbEntity
  8
Defpoints
 62
     0
100
AcDbPoint
 10
464.0553399059223
 20
349.6796610168937
 30
0.0
  0
ENDBLK
  5
4F81
330
4F76
100
AcDbEntity
  8
0
100
AcDbBlockEnd
  0
BLOCK
  5
4F8E
330
4F82
100
AcDbEntity
  8
0
100
AcDbBlockBegin
  2
*D35
 70
     1
 10
0.0
 20
0.0
 30
0.0
  3
*D35
  1

  0
LINE
  5
5157
330
4F82
100
AcDbEntity
  8
AM_REFDIM
100
AcDbLine
 10
429.2520467440952
 20
344.1796610168937
 30
0.0
 11
429.2520467440952
 21
335.1796610068937
 31
0.0
  0
LINE
  5
5158
330
4F82
100
AcDbEntity
  8
AM_REFDIM
100
AcDbLine
 10
435.2520467440951
 20
344.1796610168937
 30
0.0
 11
435.2520467440951
 21
335.1796610068937
 31
0.0
  0
LINE
  5
5159
330
4F82
100
AcDbEntity
  8
AM_REFDIM
100
AcDbLine
 10
441.2520467440952
 20
336.6796610068937
 30
0.0
 11
447.2520467440951
 21
336.6796610068937
 31
0.0
  0
LINE
  5
515A
330
4F82
100
AcDbEntity
  8
AM_REFDIM
100
AcDbLine
 10
423.2520467440951
 20
336.6796610068937
 30
0.0
 11
411.5774404448826
 21
336.6796610068937
 31
0.0
  0
LINE
  5
515B
330
4F82
100
AcDbEntity
  8
AM_REFDIM
100
AcDbLine
 10
435.2520467440951
 20
336.6796610068937
 30
0.0
 11
429.2520467440952
 21
336.6796610068937
 31
0.0
  0
SOLID
  5
515C
330
4F82
100
AcDbEntity
  8
AM_REFDIM
100
AcDbTrace
 10
441.2520467440952
 20
337.6796610068937
 30
0.0
 11
441.2520467440952
 21
335.6796610068937
 31
0.0
 12
435.2520467440951
 22
336.6796610068937
 32
0.0
 13
435.2520467440951
 23
336.6796610068937
 33
0.0
  0
SOLID
  5
515D
330
4F82
100
AcDbEntity
  8
AM_REFDIM
100
AcDbTrace
 10
423.2520467440951
 20
337.6796610068937
 30
0.0
 11
423.2520467440951
 21
335.6796610068937
 31
0.0
 12
429.2520467440952
 22
336.6796610068937
 32
0.0
 13
429.2520467440952
 23
336.6796610068937
 33
0.0
  0
MTEXT
  5
515E
330
4F82
100
AcDbEntity
  8
AM_REFDIM
100
AcDbMText
 10
414.4147435944888
 20
340.8046610068937
 30
0.0
 40
5.25
 41
0.0
 71
     5
 72
     1
  1
6
 73
     1
 44
1.0
1001
ACAD
1000
MTEXTBEGIN
1070
    73
1070
     1
1070
    44
1040
1.0
1070
    74
1070
     0
1000
MTEXTEND
  0
POINT
  5
515F
330
4F82
100
AcDbEntity
  8
Defpoints
 62
     0
100
AcDbPoint
 10
429.2520467440952
 20
345.6796610168937
 30
0.0
  0
POINT
  5
5160
330
4F82
100
AcDbEntity
  8
Defpoints
 62
     0
100
AcDbPoint
 10
435.2520467440951
 20
345.6796610168937
 30
0.0
  0
POINT
  5
5161
330
4F82
100
AcDbEntity
  8
Defpoints
 62
     0
100
AcDbPoint
 10
435.2520467440951
 20
336.6796610068937
 30
0.0
  0
ENDBLK
  5
4F8F
330
4F82
100
AcDbEntity
  8
0
100
AcDbBlockEnd
  0
BLOCK
  5
4F9C
330
4F90
100
AcDbEntity
  8
0
100
AcDbBlockBegin
  2
*D36
 70
     1
 10
0.0
 20
0.0
 30
0.0
  3
*D36
  1

  0
LINE
  5
51C7
330
4F90
100
AcDbEntity
  8
AM_REFDIM
100
AcDbLine
 10
436.7520467440952
 20
345.6796610168937
 30
0.0
 11
465.5553399059222
 21
345.6796610168937
 31
0.0
  0
LINE
  5
51C8
330
4F90
100
AcDbEntity
  8
AM_REFDIM
100
AcDbLine
 10
447.2520467440951
 20
349.6796610168937
 30
0.0
 11
465.5553399059222
 21
349.6796610168937
 31
0.0
  0
LINE
  5
51C9
330
4F90
100
AcDbEntity
  8
AM_REFDIM
100
AcDbLine
 10
464.0553399059222
 20
339.6796610168937
 30
0.0
 11
464.0553399059222
 21
333.6796610168937
 31
0.0
  0
LINE
  5
51CA
330
4F90
100
AcDbEntity
  8
AM_REFDIM
100
AcDbLine
 10
464.0553399059222
 20
355.6796610168937
 30
0.0
 11
464.0553399059222
 21
361.6796610168937
 31
0.0
  0
LINE
  5
51CB
330
4F90
100
AcDbEntity
  8
AM_REFDIM
100
AcDbLine
 10
464.0553399059222
 20
345.6796610168937
 30
0.0
 11
464.0553399059222
 21
349.6796610168937
 31
0.0
  0
SOLID
  5
51CC
330
4F90
100
AcDbEntity
  8
AM_REFDIM
100
AcDbTrace
 10
463.0553399059222
 20
339.6796610168937
 30
0.0
 11
465.0553399059222
 21
339.6796610168937
 31
0.0
 12
464.0553399059222
 22
345.6796610168937
 32
0.0
 13
464.0553399059222
 23
345.6796610168937
 33
0.0
  0
SOLID
  5
51CD
330
4F90
100
AcDbEntity
  8
AM_REFDIM
100
AcDbTrace
 10
463.0553399059222
 20
355.6796610168937
 30
0.0
 11
465.0553399059222
 21
355.6796610168937
 31
0.0
 12
464.0553399059222
 22
349.6796610168937
 32
0.0
 13
464.0553399059222
 23
349.6796610168937
 33
0.0
  0
MTEXT
  5
51CE
330
4F90
100
AcDbEntity
  8
AM_REFDIM
100
AcDbMText
 10
459.9303399059222
 20
347.6796610168938
 30
0.0
 40
5.25
 41
0.0
 71
     5
 72
     1
  1
4
 11
0.0000000000000001
 21
1.0
 31
0.0
 73
     1
 44
1.0
1001
ACAD
1000
MTEXTBEGIN
1070
    73
1070
     1
1070
    44
1040
1.0
1070
    74
1070
     0
1000
MTEXTEND
  0
POINT
  5
51CF
330
4F90
100
AcDbEntity
  8
Defpoints
 62
     0
100
AcDbPoint
 10
435.2520467440951
 20
345.6796610168937
 30
0.0
  0
POINT
  5
51D0
330
4F90
100
AcDbEntity
  8
Defpoints
 62
     0
100
AcDbPoint
 10
445.7520467440952
 20
349.6796610168937
 30
0.0
  0
POINT
  5
51D1
330
4F90
100
AcDbEntity
  8
Defpoints
 62
     0
100
AcDbPoint
 10
464.0553399059222
 20
349.6796610168937
 30
0.0
  0
ENDBLK
  5
4F9D
330
4F90
100
AcDbEntity
  8
0
100
AcDbBlockEnd
  0
BLOCK
  5
4FA8
330
4F9E
100
AcDbEntity
  8
0
100
AcDbBlockBegin
  2
*D37
 70
     1
 10
0.0
 20
0.0
 30
0.0
  3
*D37
  1

  0
LINE
  5
51EF
330
4F9E
100
AcDbEntity
  8
AM_REFDIM
100
AcDbLine
 10
503.967925571117
 20
345.6796610168936
 30
0.0
 11
536.0698919084844
 21
345.6796610168936
 31
0.0
  0
LINE
  5
51F0
330
4F9E
100
AcDbEntity
  8
AM_REFDIM
100
AcDbLine
 10
504.3432248319923
 20
283.9887152217967
 30
0.0
 11
536.0698919084844
 21
283.9887152217967
 31
0.0
  0
LINE
  5
51F1
330
4F9E
100
AcDbEntity
  8
AM_REFDIM
100
AcDbLine
 10
534.5698919084845
 20
339.6796610168936
 30
0.0
 11
534.5698919084845
 21
289.9887152217967
 31
0.0
  0
SOLID
  5
51F2
330
4F9E
100
AcDbEntity
  8
AM_REFDIM
100
AcDbTrace
 10
533.5698919084844
 20
339.6796610168936
 30
0.0
 11
535.5698919084844
 21
339.6796610168936
 31
0.0
 12
534.5698919084845
 22
345.6796610168936
 32
0.0
 13
534.5698919084845
 23
345.6796610168936
 33
0.0
  0
SOLID
  5
51F3
330
4F9E
100
AcDbEntity
  8
AM_REFDIM
100
AcDbTrace
 10
533.5698919084844
 20
289.9887152217967
 30
0.0
 11
535.5698919084844
 21
289.9887152217967
 31
0.0
 12
534.5698919084845
 22
283.9887152217967
 32
0.0
 13
534.5698919084845
 23
283.9887152217967
 33
0.0
  0
MTEXT
  5
51F4
330
4F9E
100
AcDbEntity
  8
AM_REFDIM
100
AcDbMText
 10
530.4448919084843
 20
314.8341881193452
 30
0.0
 40
5.25
 41
0.0
 71
     5
 72
     1
  1
150
 11
0.0000000000000001
 21
1.0
 31
0.0
 73
     1
 44
1.0
1001
ACAD
1000
MTEXTBEGIN
1070
    73
1070
     1
1070
    44
1040
1.0
1070
    74
1070
     0
1000
MTEXTEND
  0
POINT
  5
51F5
330
4F9E
100
AcDbEntity
  8
Defpoints
 62
     0
100
AcDbPoint
 10
502.4679255711171
 20
345.6796610168936
 30
0.0
  0
POINT
  5
51F6
330
4F9E
100
AcDbEntity
  8
Defpoints
 62
     0
100
AcDbPoint
 10
502.8432248319924
 20
283.9887152217967
 30
0.0
  0
POINT
  5
51F7
330
4F9E
100
AcDbEntity
  8
Defpoints
 62
     0
100
AcDbPoint
 10
534.5698919084845
 20
283.9887152217967
 30
0.0
  0
ENDBLK
  5
4FA9
330
4F9E
100
AcDbEntity
  8
0
100
AcDbBlockEnd
  0
BLOCK
  5
4FB6
330
4FAA
100
AcDbEntity
  8
0
100
AcDbBlockBegin
  2
*D38
 70
     1
 10
0.0
 20
0.0
 30
0.0
  3
*D38
  1

  0
LINE
  5
51E4
330
4FAA
100
AcDbEntity
  8
AM_REFDIM
100
AcDbLine
 10
507.4679255711171
 20
370.9796610168937
 30
0.0
 11
536.0698919084844
 21
370.9796610168937
 31
0.0
  0
LINE
  5
51E5
330
4FAA
100
AcDbEntity
  8
AM_REFDIM
100
AcDbLine
 10
507.4679255711171
 20
358.3796610168938
 30
0.0
 11
536.0698919084844
 21
358.3796610168938
 31
0.0
  0
LINE
  5
51E6
330
4FAA
100
AcDbEntity
  8
AM_REFDIM
100
AcDbLine
 10
534.5698919084845
 20
376.9796610168937
 30
0.0
 11
534.5698919084845
 21
382.9796610168937
 31
0.0
  0
LINE
  5
51E7
330
4FAA
100
AcDbEntity
  8
AM_REFDIM
100
AcDbLine
 10
534.5698919084845
 20
352.3796610168937
 30
0.0
 11
534.5698919084845
 21
346.3796610168937
 31
0.0
  0
LINE
  5
51E8
330
4FAA
100
AcDbEntity
  8
AM_REFDIM
100
AcDbLine
 10
534.5698919084845
 20
370.9796610168937
 30
0.0
 11
534.5698919084845
 21
358.3796610168938
 31
0.0
  0
SOLID
  5
51E9
330
4FAA
100
AcDbEntity
  8
AM_REFDIM
100
AcDbTrace
 10
533.5698919084844
 20
376.9796610168937
 30
0.0
 11
535.5698919084844
 21
376.9796610168937
 31
0.0
 12
534.5698919084845
 22
370.9796610168937
 32
0.0
 13
534.5698919084845
 23
370.9796610168937
 33
0.0
  0
SOLID
  5
51EA
330
4FAA
100
AcDbEntity
  8
AM_REFDIM
100
AcDbTrace
 10
533.5698919084844
 20
352.3796610168937
 30
0.0
 11
535.5698919084844
 21
352.3796610168937
 31
0.0
 12
534.5698919084845
 22
358.3796610168938
 32
0.0
 13
534.5698919084845
 23
358.3796610168938
 33
0.0
  0
MTEXT
  5
51EB
330
4FAA
100
AcDbEntity
  8
AM_REFDIM
100
AcDbMText
 10
530.4443751762009
 20
364.6796610168938
 30
0.0
 40
5.25
 41
0.0
 71
     5
 72
     1
  1
12.6
 11
0.0000000000000001
 21
1.0
 31
0.0
 73
     1
 44
1.0
1001
ACAD
1000
MTEXTBEGIN
1070
    73
1070
     1
1070
    44
1040
1.0
1070
    74
1070
     0
1000
MTEXTEND
  0
POINT
  5
51EC
330
4FAA
100
AcDbEntity
  8
Defpoints
 62
     0
100
AcDbPoint
 10
505.9679255711171
 20
370.9796610168937
 30
0.0
  0
POINT
  5
51ED
330
4FAA
100
AcDbEntity
  8
Defpoints
 62
     0
100
AcDbPoint
 10
505.9679255711171
 20
358.3796610168938
 30
0.0
  0
POINT
  5
51EE
330
4FAA
100
AcDbEntity
  8
Defpoints
 62
     0
100
AcDbPoint
 10
534.5698919084845
 20
358.3796610168938
 30
0.0
  0
ENDBLK
  5
4FB7
330
4FAA
100
AcDbEntity
  8
0
100
AcDbBlockEnd
  0
BLOCK
  5
4FF3
330
4FE9
100
AcDbEntity
  8
0
100
AcDbBlockBegin
  2
*D39
 70
     1
 10
0.0
 20
0.0
 30
0.0
  3
*D39
  1

  0
LINE
  5
5176
330
4FE9
100
AcDbEntity
  8
AM_REFDIM
100
AcDbLine
 10
485.4679255711171
 20
379.6796610168937
 30
0.0
 11
485.4679255711171
 21
391.6796610168937
 31
0.0
  0
LINE
  5
5177
330
4FE9
100
AcDbEntity
  8
AM_REFDIM
100
AcDbLine
 10
520.9679255711171
 20
379.6796610168937
 30
0.0
 11
520.9679255711171
 21
391.6796610168937
 31
0.0
  0
LINE
  5
5178
330
4FE9
100
AcDbEntity
  8
AM_REFDIM
100
AcDbLine
 10
491.467925571117
 20
390.1796610168937
 30
0.0
 11
514.9679255711171
 21
390.1796610168937
 31
0.0
  0
SOLID
  5
5179
330
4FE9
100
AcDbEntity
  8
AM_REFDIM
100
AcDbTrace
 10
491.467925571117
 20
391.1796610168937
 30
0.0
 11
491.467925571117
 21
389.1796610168937
 31
0.0
 12
485.4679255711171
 22
390.1796610168937
 32
0.0
 13
485.4679255711171
 23
390.1796610168937
 33
0.0
  0
SOLID
  5
517A
330
4FE9
100
AcDbEntity
  8
AM_REFDIM
100
AcDbTrace
 10
514.9679255711171
 20
391.1796610168937
 30
0.0
 11
514.9679255711171
 21
389.1796610168937
 31
0.0
 12
520.9679255711171
 22
390.1796610168937
 32
0.0
 13
520.9679255711171
 23
390.1796610168937
 33
0.0
  0
MTEXT
  5
517B
330
4FE9
100
AcDbEntity
  8
AM_REFDIM
100
AcDbMText
 10
503.2179255711171
 20
394.3046610168937
 30
0.0
 40
5.25
 41
0.0
 71
     5
 72
     1
  1
35.5
 73
     1
 44
1.0
1001
ACAD
1000
MTEXTBEGIN
1070
    73
1070
     1
1070
    44
1040
1.0
1070
    74
1070
     0
1000
MTEXTEND
  0
POINT
  5
517C
330
4FE9
100
AcDbEntity
  8
Defpoints
 62
     0
100
AcDbPoint
 10
485.4679255711171
 20
378.1796610168937
 30
0.0
  0
POINT
  5
517D
330
4FE9
100
AcDbEntity
  8
Defpoints
 62
     0
100
AcDbPoint
 10
520.9679255711171
 20
378.1796610168937
 30
0.0
  0
POINT
  5
517E
330
4FE9
100
AcDbEntity
  8
Defpoints
 62
     0
100
AcDbPoint
 10
520.9679255711171
 20
390.1796610168937
 30
0.0
  0
ENDBLK
  5
4FF4
330
4FE9
100
AcDbEntity
  8
0
100
AcDbBlockEnd
  0
BLOCK
  5
500A
330
5000
100
AcDbEntity
  8
0
100
AcDbBlockBegin
  2
*D40
 70
     1
 10
0.0
 20
0.0
 30
0.0
  3
*D40
  1

  0
LINE
  5
51DB
330
5000
100
AcDbEntity
  8
AM_REFDIM
100
AcDbLine
 10
522.4679255711171
 20
351.1796610168937
 30
0.0
 11
549.3543223842963
 21
351.1796610168937
 31
0.0
  0
LINE
  5
51DC
330
5000
100
AcDbEntity
  8
AM_REFDIM
100
AcDbLine
 10
522.4679255711171
 20
378.1796610168937
 30
0.0
 11
549.3543223842963
 21
378.1796610168937
 31
0.0
  0
LINE
  5
51DD
330
5000
100
AcDbEntity
  8
AM_REFDIM
100
AcDbLine
 10
547.8543223842962
 20
357.1796610168937
 30
0.0
 11
547.8543223842962
 21
372.1796610168937
 31
0.0
  0
SOLID
  5
51DE
330
5000
100
AcDbEntity
  8
AM_REFDIM
100
AcDbTrace
 10
546.8543223842963
 20
357.1796610168937
 30
0.0
 11
548.8543223842963
 21
357.1796610168937
 31
0.0
 12
547.8543223842962
 22
351.1796610168937
 32
0.0
 13
547.8543223842962
 23
351.1796610168937
 33
0.0
  0
SOLID
  5
51DF
330
5000
100
AcDbEntity
  8
AM_REFDIM
100
AcDbTrace
 10
546.8543223842963
 20
372.1796610168937
 30
0.0
 11
548.8543223842963
 21
372.1796610168937
 31
0.0
 12
547.8543223842962
 22
378.1796610168937
 32
0.0
 13
547.8543223842962
 23
378.1796610168937
 33
0.0
  0
MTEXT
  5
51E0
330
5000
100
AcDbEntity
  8
AM_REFDIM
100
AcDbMText
 10
543.7288056520127
 20
364.6796610168939
 30
0.0
 40
5.25
 41
0.0
 71
     5
 72
     1
  1
27
 11
0.0000000000000001
 21
1.0
 31
0.0
 73
     1
 44
1.0
1001
ACAD
1000
MTEXTBEGIN
1070
    73
1070
     1
1070
    44
1040
1.0
1070
    74
1070
     0
1000
MTEXTEND
  0
POINT
  5
51E1
330
5000
100
AcDbEntity
  8
Defpoints
 62
     0
100
AcDbPoint
 10
520.9679255711171
 20
351.1796610168937
 30
0.0
  0
POINT
  5
51E2
330
5000
100
AcDbEntity
  8
Defpoints
 62
     0
100
AcDbPoint
 10
520.9679255711171
 20
378.1796610168937
 30
0.0
  0
POINT
  5
51E3
330
5000
100
AcDbEntity
  8
Defpoints
 62
     0
100
AcDbPoint
 10
547.8543223842962
 20
378.1796610168937
 30
0.0
  0
ENDBLK
  5
500B
330
5000
100
AcDbEntity
  8
0
100
AcDbBlockEnd
  0
ENDSEC
  0
SECTION
  2
ENTITIES
  0
TEXT
  5
179B
330
1F
100
AcDbEntity
  8
LOGO
 62
     7
100
AcDbText
 10
444.0651350579663
 20
255.2995915957443
 30
0.0
 40
3.023562135746606
  1
Order example:
 41
0.8
  7
CHINESET
100
AcDbText
  0
TEXT
  5
179C
330
1F
100
AcDbEntity
  8
LOGO
 62
     7
100
AcDbText
 10
444.607587108961
 20
259.5561410463471
 30
0.0
 40
4.535343203619909
  1
訂購代號：
  7
CHINESET
100
AcDbText
  0
LINE
  5
179D
330
1F
100
AcDbEntity
  8
LOGO
 62
     4
100
AcDbLine
 10
442.7513870546514
 20
242.5571589878777
 30
0.0
 11
442.7513870546514
 21
265.2338750059775
 31
0.0
  0
TEXT
  5
179E
330
1F
100
AcDbEntity
  8
LOGO
  6
Continuous
100
AcDbText
 10
401.0081901423444
 20
247.0119656274852
 30
0.0
 40
3.401507402714933
  1
金器工業股份有限公司
  7
CHINESET
100
AcDbText
  0
TEXT
  5
179F
330
1F
100
AcDbEntity
  8
LOGO
  6
Continuous
100
AcDbText
 10
394.7602939986101
 20
243.6097917960078
 30
0.0
 40
2.267671601809954
  1
MINDMAN INDUSTRIAL CO., LTD.
 41
0.85
  7
CHINESET
100
AcDbText
  0
LINE
  5
17A0
330
1F
100
AcDbEntity
  8
LOGO
 62
     4
100
AcDbLine
 10
442.7513870546514
 20
260.6985318023575
 30
0.0
 11
409.4922035614384
 21
260.6985318023575
 31
0.0
  0
LINE
  5
17A1
330
1F
100
AcDbEntity
  8
LOGO
 62
     4
100
AcDbLine
 10
442.7513870546514
 20
256.1631885987375
 30
0.0
 11
409.4922035614384
 21
256.1631885987375
 31
0.0
  0
LINE
  5
17A2
330
1F
100
AcDbEntity
  8
LOGO
 62
     4
100
AcDbLine
 10
442.7513870546514
 20
251.6278453951179
 30
0.0
 11
392.8626118148322
 21
251.6278453951179
 31
0.0
  0
LINE
  5
17A3
330
1F
100
AcDbEntity
  8
LOGO
 62
     4
100
AcDbLine
 10
409.4922035614384
 20
251.6278453951179
 30
0.0
 11
409.4922035614384
 21
265.2338750059775
 31
0.0
  0
TEXT
  5
17A4
330
1F
100
AcDbEntity
  8
LOGO
100
AcDbText
 10
432.2232856694998
 20
252.7616811960225
 30
0.0
 40
2.267671601809954
  1
mm
  7
CHINESET
 72
     1
 11
435.0308790812645
 21
253.8955169969275
 31
0.0
100
AcDbText
 73
     2
  0
TEXT
  5
17A5
330
1F
100
AcDbEntity
  8
LOGO
100
AcDbText
 10
431.0354576875993
 20
261.8323676032624
 30
0.0
 40
2.267671601809954
  1
1 : 1
  7
CHINESET
 72
     1
 11
435.0308790812645
 21
262.9662034041674
 31
0.0
100
AcDbText
 73
     2
  0
LINE
  5
17A6
330
1F
100
AcDbEntity
  8
LOGO
 62
     4
100
AcDbLine
 10
427.6335763759182
 20
251.6278453951179
 30
0.0
 11
427.6335763759182
 21
265.2338750059775
 31
0.0
  0
TEXT
  5
17A7
330
1F
100
AcDbEntity
  8
LOGO
100
AcDbText
 10
411.3620202795379
 20
261.8334835833814
 30
148.6194610118964
 40
2.267671601809954
  1
比例 Scale:
 41
0.9
  7
CHINESET
 72
     4
 11
418.5628899686783
 21
262.9662034041674
 31
148.6194610118964
100
AcDbText
  0
TEXT
  5
17A8
330
1F
100
AcDbEntity
  8
LOGO
100
AcDbText
 10
411.2314266917551
 20
257.3289228313772
 30
148.6194610118964
 40
2.267671601809954
  1
投影  View:
 41
0.9
  7
CHINESET
 72
     4
 11
418.5628899686783
 21
258.4308602005474
 31
148.6194610118964
100
AcDbText
  0
TEXT
  5
17A9
330
1F
100
AcDbEntity
  8
LOGO
100
AcDbText
 10
411.4531320849678
 20
252.7616811960225
 30
148.6194610118964
 40
2.267671601809954
  1
單位  Unit:
 41
0.9
  7
CHINESET
 72
     4
 11
418.5628899686783
 21
253.8955169969275
 31
148.6194610118964
100
AcDbText
  0
LWPOLYLINE
  5
17AA
330
1F
100
AcDbEntity
  8
LOGO
 62
     4
100
AcDbPolyline
 90
        4
 70
     1
 43
0.0
 10
392.8626118148324
 20
265.2338750059775
 10
557.6272604740625
 20
265.2338750059775
 10
557.6272604740625
 20
403.7971500650426
 10
392.8626118148324
 20
403.7971500650426
1001
GENIUS_GENREC_14
1002
{
1000
PYDIR
1011
392.8626118148324
1021
403.7971500650426
1031
0.0
1002
}
1002
{
1000
PXDIR
1011
557.6272604740625
1021
265.2338750059775
1031
0.0
1002
}
1002
{
1000
PORI
1011
392.8626118148324
1021
265.2338750059775
1031
0.0
1002
}
1002
{
1000
PINS
1011
392.8626118148324
1021
265.2338750059775
1031
0.0
1002
}
1002
{
1000
PINS2
1011
557.6272604740625
1021
403.7971500650426
1031
0.0
1002
}
1002
{
1000
C
1070
     1
1002
}
1001
GENIUS_GENODEF_13
1002
{
1000
HIER
1070
     0
1002
}
1002
{
1000
MANEDIT
1070
     0
1002
}
1002
{
1000
NOSEL
1070
     0
1002
}
1002
{
1000
BEHIND
1070
     0
1002
}
1002
{
1000
OTHER
1070
     0
1002
}
1002
{
1000
REACTOR
1002
}
1001
GENIUS_GENOBJ-N-REC_13
1002
{
1000
OWNER
1000
GEN
1002
}
  0
SOLID
  5
17AB
330
1F
100
AcDbEntity
  8
LOGO
 62
     5
100
AcDbTrace
 10
395.2153574950712
 20
255.3975266554915
 30
0.0
 11
396.1958391919908
 21
255.3975266554913
 31
0.0
 12
400.2868145481043
 22
264.6951979193863
 32
0.0
 13
401.2672962450245
 23
264.6951979193858
 33
0.0
  0
SOLID
  5
17AC
330
1F
100
AcDbEntity
  8
LOGO
 62
     5
100
AcDbTrace
 10
396.6015557562345
 20
255.3975266554915
 30
0.0
 11
397.5820374531545
 21
255.3975266554915
 31
0.0
 12
401.2672962450245
 22
263.9513842182744
 32
0.0
 13
400.2868145481043
 23
260.3562846629017
 33
0.0
  0
SOLID
  5
17AD
330
1F
100
AcDbEntity
  8
LOGO
 62
     2
100
AcDbTrace
 10
396.1958391919908
 20
255.3975266554913
 30
0.0
 11
396.6015557562345
 21
255.3975266554915
 31
0.0
 12
401.2672962450245
 22
264.6951979193858
 32
0.0
 13
401.6730128092677
 23
264.6951979193858
 33
0.0
  0
SOLID
  5
17AE
330
1F
100
AcDbEntity
  8
LOGO
 62
     5
100
AcDbTrace
 10
393.6434048913438
 20
252.0165552868028
 30
0.0
 11
393.9815020282131
 21
252.0165552868028
 31
0.0
 12
394.933609881014
 22
253.7070409711471
 32
0.0
 13
395.2717070178822
 23
253.7070409711471
 33
0.0
  0
SOLID
  5
17AF
330
1F
100
AcDbEntity
  8
LOGO
 62
     5
100
AcDbTrace
 10
394.933609881014
 20
253.7070409711471
 30
0.0
 11
395.2717070178822
 21
253.7070409711471
 31
0.0
 12
394.933609881014
 22
252.0165552868028
 32
0.0
 13
395.2717070178822
 23
252.0165552868028
 33
0.0
  0
SOLID
  5
17B0
330
1F
100
AcDbEntity
  8
LOGO
 62
     5
100
AcDbTrace
 10
394.933609881014
 20
252.0165552868028
 30
0.0
 11
395.2717070178822
 21
252.0165552868028
 31
0.0
 12
396.2238148706846
 22
253.7070409711471
 32
0.0
 13
396.5619120075534
 23
253.7070409711471
 33
0.0
  0
SOLID
  5
17B1
330
1F
100
AcDbEntity
  8
LOGO
 62
     5
100
AcDbTrace
 10
396.2238148706846
 20
253.7070409711471
 30
0.0
 11
396.5619120075534
 21
253.7070409711471
 31
0.0
 12
396.2238148706846
 22
252.0165552868028
 32
0.0
 13
396.5619120075534
 23
252.0165552868028
 33
0.0
  0
POLYLINE
  5
17B2
330
1F
100
AcDbEntity
  8
LOGO
 62
     5
100
AcDb2dPolyline
 66
     1
 10
0.0
 20
0.0
 30
0.0
 40
0.3386389592036199
 41
0.3386389592036199
  0
VERTEX
  5
17B3
330
17B2
100
AcDbEntity
  8
LOGO
 62
     5
100
AcDbVertex
100
AcDb2dVertex
 10
407.5567157242885
 20
253.0308466974093
 30
0.0
 42
1.0
  0
VERTEX
  5
17B4
330
17B2
100
AcDbEntity
  8
LOGO
 62
     5
100
AcDbVertex
100
AcDb2dVertex
 10
406.5407988466774
 20
253.0308466974093
 30
0.0
 42
1.0
  0
SEQEND
  5
17B5
330
17B2
100
AcDbEntity
  8
LOGO
 62
     5
  0
POLYLINE
  5
17B6
330
1F
100
AcDbEntity
  8
LOGO
 62
     5
100
AcDb2dPolyline
 66
     1
 10
0.0
 20
0.0
 30
0.0
 70
     1
  0
VERTEX
  5
17B7
330
17B6
100
AcDbEntity
  8
LOGO
 62
     5
100
AcDbVertex
100
AcDb2dVertex
 10
404.6257503443976
 20
252.8617981289747
 30
0.0
 42
1.000000057330635
  0
VERTEX
  5
17B8
330
17B6
100
AcDbEntity
  8
LOGO
 62
     5
100
AcDbVertex
100
AcDb2dVertex
 10
405.6400417550045
 20
252.8617981289747
 30
0.0
 42
1.000000057330635
  0
SEQEND
  5
17B9
330
17B6
100
AcDbEntity
  8
LOGO
 62
     5
  0
CIRCLE
  5
17BA
330
1F
100
AcDbEntity
  8
LOGO
 62
     5
100
AcDbCircle
 10
405.1328960497016
 20
252.8617981289747
 30
0.0
 40
0.5071457053033413
  0
POLYLINE
  5
17BB
330
1F
100
AcDbEntity
  8
LOGO
 62
     5
100
AcDb2dPolyline
 66
     1
 10
0.0
 20
0.0
 30
0.0
 70
     1
 40
0.3386389592036199
 41
0.3386389592036199
  0
VERTEX
  5
17BC
330
17BB
100
AcDbEntity
  8
LOGO
 62
     5
100
AcDbVertex
100
AcDb2dVertex
 10
404.455618131294
 20
252.8617981289747
 30
0.0
 42
1.0
  0
VERTEX
  5
17BD
330
17BB
100
AcDbEntity
  8
LOGO
 62
     5
100
AcDbVertex
100
AcDb2dVertex
 10
405.8101739681085
 20
252.8617981289747
 30
0.0
 42
1.0
  0
SEQEND
  5
17BE
330
17BB
100
AcDbEntity
  8
LOGO
 62
     5
  0
LINE
  5
17BF
330
1F
100
AcDbEntity
  8
LOGO
100
AcDbLine
 10
407.7249515592202
 20
252.0165552868028
 30
0.0
 11
407.7249515592202
 21
253.0308466974093
 31
0.0
  0
SOLID
  5
17C0
330
1F
100
AcDbEntity
  8
LOGO
 62
     5
100
AcDbTrace
 10
405.6400079452921
 20
253.7070409711471
 30
0.0
 11
405.9781050821604
 21
253.7070409711471
 31
0.0
 12
405.6400079452921
 22
252.0165552868028
 32
0.0
 13
405.9781050821604
 23
252.0165552868028
 33
0.0
  0
SOLID
  5
17C1
330
1F
100
AcDbEntity
  8
LOGO
 62
     5
100
AcDbTrace
 10
406.3725630117446
 20
252.0165552868028
 30
0.0
 11
406.7106601486139
 21
252.0165552868028
 31
0.0
 12
406.3725630117446
 22
253.7070409711471
 32
0.0
 13
406.7106601486139
 23
253.7070409711471
 33
0.0
  0
SOLID
  5
17C2
330
1F
100
AcDbEntity
  8
LOGO
 62
     5
100
AcDbTrace
 10
407.386854422352
 20
253.0308466974093
 30
0.0
 11
407.7249515592202
 21
253.0308466974093
 31
0.0
 12
407.386854422352
 22
252.0165552868028
 32
0.0
 13
407.7249515592202
 23
252.0165552868028
 33
0.0
  0
SOLID
  5
17C3
330
1F
100
AcDbEntity
  8
LOGO
 62
     5
100
AcDbTrace
 10
406.3387532980577
 20
263.9513842182744
 30
0.0
 11
405.3582716011385
 21
260.3562846629017
 31
0.0
 12
406.3387532980577
 22
255.3975266554913
 32
0.0
 13
405.3582716011385
 23
255.3975266554913
 33
0.0
  0
SOLID
  5
17C4
330
1F
100
AcDbEntity
  8
LOGO
 62
     5
100
AcDbTrace
 10
406.7444698623011
 20
255.3975266554913
 30
0.0
 11
407.7249515592202
 21
255.3975266554913
 31
0.0
 12
406.7444698623011
 22
264.6951979193858
 32
0.0
 13
407.7249515592202
 23
264.6951979193863
 33
0.0
  0
SOLID
  5
17C5
330
1F
100
AcDbEntity
  8
LOGO
 62
     2
100
AcDbTrace
 10
406.3387532980577
 20
264.6951979193863
 30
0.0
 11
406.7444698623011
 21
264.6951979193858
 31
0.0
 12
406.3387532980577
 22
255.3975266554913
 32
0.0
 13
406.7444698623011
 23
255.3975266554913
 33
0.0
  0
POLYLINE
  5
17C6
330
1F
100
AcDbEntity
  8
LOGO
 62
     5
100
AcDb2dPolyline
 66
     1
 10
0.0
 20
0.0
 30
0.0
 40
0.3386389592036199
 41
0.3386389592036199
  0
VERTEX
  5
17C7
330
17C6
100
AcDbEntity
  8
LOGO
 62
     5
100
AcDbVertex
100
AcDb2dVertex
 10
402.7106342226919
 20
253.0308466974093
 30
0.0
 42
1.0
  0
VERTEX
  5
17C8
330
17C6
100
AcDbEntity
  8
LOGO
 62
     5
100
AcDbVertex
100
AcDb2dVertex
 10
401.694717345081
 20
253.0308466974093
 30
0.0
 42
1.0
  0
SEQEND
  5
17C9
330
17C6
100
AcDbEntity
  8
LOGO
 62
     5
  0
POLYLINE
  5
17CA
330
1F
100
AcDbEntity
  8
LOGO
 62
     5
100
AcDb2dPolyline
 66
     1
 10
0.0
 20
0.0
 30
0.0
 40
0.3386389592036199
 41
0.3386389592036199
  0
VERTEX
  5
17CB
330
17CA
100
AcDbEntity
  8
LOGO
 62
     5
100
AcDbVertex
100
AcDb2dVertex
 10
403.7249256332977
 20
253.0308466974093
 30
0.0
 42
1.0
  0
VERTEX
  5
17CC
330
17CA
100
AcDbEntity
  8
LOGO
 62
     5
100
AcDbVertex
100
AcDb2dVertex
 10
402.7090087556871
 20
253.0308466974093
 30
0.0
 42
1.0
  0
SEQEND
  5
17CD
330
17CA
100
AcDbEntity
  8
LOGO
 62
     5
  0
POLYLINE
  5
17CE
330
1F
100
AcDbEntity
  8
LOGO
 62
     5
100
AcDb2dPolyline
 66
     1
 10
0.0
 20
0.0
 30
0.0
 40
0.3386389592036199
 41
0.3386389592036199
  0
VERTEX
  5
17CF
330
17CE
100
AcDbEntity
  8
LOGO
 62
     5
100
AcDbVertex
100
AcDb2dVertex
 10
398.8788441317012
 20
253.0308466974093
 30
0.0
 42
1.0
  0
VERTEX
  5
17D0
330
17CE
100
AcDbEntity
  8
LOGO
 62
     5
100
AcDbVertex
100
AcDb2dVertex
 10
397.8629272540906
 20
253.0308466974093
 30
0.0
 42
1.0
  0
SEQEND
  5
17D1
330
17CE
100
AcDbEntity
  8
LOGO
 62
     5
  0
SOLID
  5
17D2
330
1F
100
AcDbEntity
  8
LOGO
 62
     5
100
AcDbTrace
 10
397.6946914191584
 20
253.7070409711471
 30
0.0
 11
398.0327885560267
 21
253.7070409711471
 31
0.0
 12
397.6946914191584
 22
252.0165552868028
 32
0.0
 13
398.0327885560267
 23
252.0165552868028
 33
0.0
  0
SOLID
  5
17D3
330
1F
100
AcDbEntity
  8
LOGO
 62
     5
100
AcDbTrace
 10
398.7089828297652
 20
253.0308466974093
 30
0.0
 11
399.0470799666344
 21
253.0308466974093
 31
0.0
 12
398.7089828297652
 22
252.0165552868028
 32
0.0
 13
399.0470799666344
 23
252.0165552868028
 33
0.0
  0
POLYLINE
  5
17D4
330
1F
100
AcDbEntity
  8
LOGO
 62
     5
100
AcDb2dPolyline
 66
     1
 10
0.0
 20
0.0
 30
0.0
 70
     1
 40
0.3386389592036199
 41
0.3386389592036199
  0
VERTEX
  5
17D5
330
17D4
100
AcDbEntity
  8
LOGO
 62
     5
100
AcDbVertex
100
AcDb2dVertex
 10
399.609536629697
 20
252.8617981289747
 30
0.0
 42
1.0
  0
VERTEX
  5
17D6
330
17D4
100
AcDbEntity
  8
LOGO
 62
     5
100
AcDbVertex
100
AcDb2dVertex
 10
400.9640924665119
 20
252.8617981289747
 30
0.0
 42
1.0
  0
SEQEND
  5
17D7
330
17D4
100
AcDbEntity
  8
LOGO
 62
     5
  0
SOLID
  5
17D8
330
1F
100
AcDbEntity
  8
LOGO
 62
     5
100
AcDbTrace
 10
400.7939264436947
 20
254.2141866764506
 30
0.0
 11
401.1320235805635
 21
254.2141866764506
 31
0.0
 12
400.7939264436947
 22
252.0165552868028
 32
0.0
 13
401.1320235805635
 23
252.0165552868028
 33
0.0
  0
SOLID
  5
17D9
330
1F
100
AcDbEntity
  8
LOGO
 62
     5
100
AcDbTrace
 10
401.5264815101493
 20
253.7070409711471
 30
0.0
 11
401.8645786470175
 21
253.7070409711471
 31
0.0
 12
401.5264815101493
 22
252.0165552868028
 32
0.0
 13
401.8645786470175
 23
252.0165552868028
 33
0.0
  0
SOLID
  5
17DA
330
1F
100
AcDbEntity
  8
LOGO
 62
     5
100
AcDbTrace
 10
402.5407729207548
 20
253.0308466974093
 30
0.0
 11
402.8788700576241
 21
253.0308466974093
 31
0.0
 12
402.5407729207548
 22
252.0165552868028
 32
0.0
 13
402.8788700576241
 23
252.0165552868028
 33
0.0
  0
SOLID
  5
17DB
330
1F
100
AcDbEntity
  8
LOGO
 62
     5
100
AcDbTrace
 10
403.5550643313618
 20
253.0308466974093
 30
0.0
 11
403.8931614682304
 21
253.0308466974093
 31
0.0
 12
403.5550643313618
 22
252.0165552868022
 32
0.0
 13
403.8931614682304
 23
252.0165552868022
 33
0.0
  0
SOLID
  5
17DC
330
1F
100
AcDbEntity
  8
LOGO
 62
     5
100
AcDbTrace
 10
396.9621363527044
 20
253.9437089669554
 30
0.0
 11
397.3002334895743
 21
253.9437089669554
 31
0.0
 12
396.9621363527044
 22
254.2141866764506
 32
0.0
 13
397.3002334895743
 23
254.2141866764506
 33
0.0
  0
SOLID
  5
17DD
330
1F
100
AcDbEntity
  8
LOGO
 62
     5
100
AcDbTrace
 10
396.9621363527044
 20
253.7070409711471
 30
0.0
 11
397.3002334895743
 21
253.7070409711471
 31
0.0
 12
396.9621363527044
 22
252.0165552868022
 32
0.0
 13
397.3002334895743
 23
252.0165552868028
 33
0.0
  0
SOLID
  5
17DE
330
1F
100
AcDbEntity
  8
LOGO
 62
     5
100
AcDbTrace
 10
400.2868145481043
 20
255.3975266554915
 30
0.0
 11
401.2672962450245
 21
255.3975266554915
 31
0.0
 12
400.2868145481043
 22
260.3562846629017
 32
0.0
 13
401.2672962450245
 23
263.9513842182744
 33
0.0
  0
SOLID
  5
17DF
330
1F
100
AcDbEntity
  8
LOGO
 62
     5
100
AcDbTrace
 10
401.6730128092677
 20
264.6951979193858
 30
0.0
 11
402.653494506187
 21
264.6951979193863
 31
0.0
 12
401.6730128092677
 22
256.141340356603
 32
0.0
 13
402.653494506187
 23
259.7364399119756
 33
0.0
  0
SOLID
  5
17E0
330
1F
100
AcDbEntity
  8
LOGO
 62
     2
100
AcDbTrace
 10
401.2672962450245
 20
264.6951979193858
 30
0.0
 11
401.6730128092677
 21
264.6951979193858
 31
0.0
 12
401.2672962450245
 22
255.3975266554915
 32
0.0
 13
401.6730128092677
 23
255.3975266554915
 33
0.0
  0
SOLID
  5
17E1
330
1F
100
AcDbEntity
  8
LOGO
 62
     5
100
AcDbTrace
 10
401.6730128092677
 20
256.141340356603
 30
0.0
 11
402.653494506187
 21
259.7364399119756
 31
0.0
 12
406.3387532980577
 22
264.6951979193863
 32
0.0
 13
405.3582716011385
 23
264.6951979193863
 33
0.0
  0
SOLID
  5
17E2
330
1F
100
AcDbEntity
  8
LOGO
 62
     5
100
AcDbTrace
 10
401.6730128092677
 20
255.3975266554915
 30
0.0
 11
402.653494506187
 21
255.3975266554915
 31
0.0
 12
406.3387532980577
 22
263.9513842182744
 32
0.0
 13
405.3582716011385
 23
260.3562846629017
 33
0.0
  0
SOLID
  5
17E3
330
1F
100
AcDbEntity
  8
LOGO
 62
     2
100
AcDbTrace
 10
401.2672962450245
 20
255.3975266554915
 30
0.0
 11
401.6730128092677
 21
255.3975266554915
 31
0.0
 12
406.3387532980577
 22
264.6951979193863
 32
0.0
 13
406.7444698623011
 23
264.6951979193858
 33
0.0
  0
LWPOLYLINE
  5
17E4
330
1F
100
AcDbEntity
  8
LOGO
 62
     4
100
AcDbPolyline
 90
        4
 70
     1
 43
0.0
 10
392.8626118148324
 20
265.2338750059775
 10
557.6272604740625
 20
265.2338750059775
 10
557.6272604740625
 20
242.5571589878777
 10
392.8626118148324
 20
242.5571589878776
1001
GENIUS_GENREC_14
1002
{
1000
PYDIR
1011
392.8626118148324
1021
242.5571589878776
1031
0.0
1002
}
1002
{
1000
PXDIR
1011
557.6272604740625
1021
265.2338750059775
1031
0.0
1002
}
1002
{
1000
PORI
1011
392.8626118148324
1021
265.2338750059775
1031
0.0
1002
}
1002
{
1000
PINS
1011
392.8626118148324
1021
265.2338750059775
1031
0.0
1002
}
1002
{
1000
PINS2
1011
557.6272604740625
1021
242.5571589878777
1031
0.0
1002
}
1002
{
1000
C
1070
     1
1002
}
1001
GENIUS_GENOBJ-N-REC_13
1002
{
1000
OWNER
1000
GEN
1002
}
1001
GENIUS_GENODEF_13
1002
{
1000
HIER
1070
     0
1002
}
1002
{
1000
MANEDIT
1070
     0
1002
}
1002
{
1000
NOSEL
1070
     0
1002
}
1002
{
1000
BEHIND
1070
     0
1002
}
1002
{
1000
OTHER
1070
     0
1002
}
1002
{
1000
REACTOR
1002
}
  0
LINE
  5
17E5
330
1F
100
AcDbEntity
  8
LOGO
 62
     4
100
AcDbLine
 10
488.2431694099364
 20
252.761681196023
 30
0.0
 11
488.2431694099364
 21
244.4468853227194
 31
0.0
  0
LINE
  5
17E6
330
1F
100
AcDbEntity
  8
LOGO
 62
     4
100
AcDbLine
 10
473.1253587312032
 20
252.761681196023
 30
0.0
 11
473.1253587312032
 21
244.4468853227194
 31
0.0
  0
LINE
  5
17E7
330
1F
100
AcDbEntity
  8
LOGO
 62
     4
100
AcDbLine
 10
488.2431694099364
 20
244.4468853227194
 30
0.0
 11
473.1253587312032
 21
244.4468853227194
 31
0.0
  0
LINE
  5
17E8
330
1F
100
AcDbEntity
  8
LOGO
 62
     4
100
AcDbLine
 10
489.0038646571818
 20
262.9662034041674
 30
0.0
 11
473.9422034937981
 21
262.9662034041674
 31
0.0
  0
LINE
  5
17E9
330
1F
100
AcDbEntity
  8
LOGO
 62
     4
100
AcDbLine
 10
489.0038646571818
 20
256.1631885987375
 30
0.0
 11
473.9422034937981
 21
256.1631885987375
 31
0.0
  0
LINE
  5
17EA
330
1F
100
AcDbEntity
  8
LOGO
 62
     4
100
AcDbLine
 10
473.9422034937981
 20
262.9662034041674
 30
0.0
 11
473.9422034937981
 21
256.1631885987375
 31
0.0
  0
LINE
  5
17EB
330
1F
100
AcDbEntity
  8
LOGO
 62
     4
100
AcDbLine
 10
489.0038646571818
 20
262.9662034041674
 30
0.0
 11
489.0038646571818
 21
256.1631885987375
 31
0.0
  0
LINE
  5
17EC
330
1F
100
AcDbEntity
  8
LOGO
 62
     4
100
AcDbLine
 10
481.4730340754899
 20
256.1631885987375
 30
0.0
 11
481.4730340754899
 21
252.761681196023
 31
0.0
  0
TEXT
  5
17ED
330
1F
100
AcDbEntity
  8
LOGO
  6
Continuous
100
AcDbText
 10
476.3124942031452
 20
257.5833079933644
 30
0.0
 40
3.779999999999999
  1
MP41
100
AcDbText
  0
LINE
  5
17EE
330
1F
100
AcDbEntity
  8
LOGO
 62
     4
100
AcDbLine
 10
488.2431694099364
 20
252.761681196023
 30
0.0
 11
473.1253587312032
 21
252.761681196023
 31
0.0
  0
TEXT
  5
17EF
330
1F
100
AcDbEntity
  8
LOGO
  6
Continuous
100
AcDbText
 10
477.9766163157484
 20
245.6205011283018
 30
148.6194610118964
 40
1.700999999999999
  1
Model
 41
0.8
  7
CHINESET
100
AcDbText
  0
TEXT
  5
17F0
330
1F
100
AcDbEntity
  8
LOGO
100
AcDbText
 10
477.5238654118574
 20
248.7737885366375
 30
148.6194610118964
 40
2.834999999999999
  1
型號
  7
CHINESET
100
AcDbText
  0
TEXT
  5
1824
330
1F
100
AcDbEntity
  8
LOGO
100
AcDbText
 10
443.8020784151148
 20
243.7635513296846
 30
0.0
 40
2.267999999999999
  1
0120731B
 41
0.7
  7
CHINESET
 72
     1
 11
449.3208784151148
 21
243.7635513296846
 31
0.0
100
AcDbText
  0
LINE
  5
1825
330
1F
100
AcDbEntity
  8
LOGO
 62
     4
100
AcDbLine
 10
456.3593870546502
 20
247.0925021914982
 30
0.0
 11
456.3593870546514
 21
242.5571589878781
 31
0.0
  0
LINE
  5
1826
330
1F
100
AcDbEntity
  8
LOGO
 62
     4
100
AcDbLine
 10
456.3593870546502
 20
247.0925021914982
 30
0.0
 11
442.7513870546514
 21
247.0925021914982
 31
0.0
  0
CIRCLE
  5
1827
330
1F
100
AcDbEntity
  8
LOGO
  6
Continuous
100
AcDbCircle
 10
431.8324539825495
 20
258.4357107666983
 30
0.0
 40
1.316663506983595
  0
CIRCLE
  5
1828
330
1F
100
AcDbEntity
  8
LOGO
  6
Continuous
100
AcDbCircle
 10
431.8324539825495
 20
258.4357107666983
 30
0.0
 40
0.7714482574667873
  0
LINE
  5
1829
330
1F
100
AcDbEntity
  8
LOGO
100
AcDbLine
 10
440.1065202396069
 20
257.1190472597145
 30
0.0
 11
440.1065202396069
 21
259.7523742736822
 31
0.0
  0
LINE
  5
182A
330
1F
100
AcDbEntity
  8
LOGO
100
AcDbLine
 10
435.978855725305
 20
257.6642625092317
 30
0.0
 11
435.978855725305
 21
259.2071590241651
 31
0.0
  0
LINE
  5
182B
330
1F
100
AcDbEntity
  8
LOGO
  6
Continuous
100
AcDbLine
 10
435.978855725305
 20
259.2071590241651
 30
0.0
 11
440.1065202396069
 21
259.7523742736822
 31
0.0
  0
LINE
  5
182C
330
1F
100
AcDbEntity
  8
LOGO
  6
Continuous
100
AcDbLine
 10
435.978855725305
 20
257.6642625092317
 30
0.0
 11
440.1065202396069
 21
257.1190472597145
 31
0.0
  0
LINE
  5
182D
330
1F
100
AcDbEntity
  8
LOGO
  6
AM_ISO08W050x2
 48
0.3
100
AcDbLine
 10
430.017413622689
 20
258.4357107666983
 30
0.0
 11
433.6474943424099
 21
258.4357107666983
 31
0.0
1001
GENIUS_GENOREF_13
1005
1832
  0
LINE
  5
182E
330
1F
100
AcDbEntity
  8
LOGO
  6
AM_ISO08W050x2
 48
0.3
100
AcDbLine
 10
431.8324539825495
 20
256.6206704068378
 30
0.0
 11
431.8324539825495
 21
260.2507511265587
 31
0.0
1001
GENIUS_GENOREF_13
1005
1831
  0
LINE
  5
182F
330
1F
100
AcDbEntity
  8
LOGO
  6
CENTER
 48
0.5
100
AcDbLine
 10
435.6487572920594
 20
258.4357107666983
 30
0.0
 11
440.5221626942581
 21
258.4357107666983
 31
0.0
1001
GENIUS_GENOREF_13
1005
1830
  0
POINT
  5
1830
330
1F
100
AcDbEntity
  8
0
 60
     1
100
AcDbPoint
 10
-1582.868394589036
 20
-798.6687030228181
 30
0.0
1001
GENIUS_GENOBJ-N-CRS_13
1002
{
1000
OWNER
1000
GEN
1002
}
1001
GENIUS_GENOLIS_13
1002
{
1000
ENT
1005
0
1005
0
1005
0
1005
182F
1002
}
1001
GENIUS_GENOENT_13
1002
{
1000
MYREF
1005
1830
1002
}
1002
{
1000
GRP
1005
0
1002
}
1001
GENIUS_GENODEF_13
1002
{
1000
HIER
1070
    10
1002
}
1002
{
1000
MANEDIT
1070
     1
1002
}
1002
{
1000
NOSEL
1070
     0
1002
}
1002
{
1000
BEHIND
1070
     0
1002
}
1002
{
1000
OTHER
1070
     0
1002
}
1002
{
1000
REACTOR
1002
}
  0
POINT
  5
1831
330
1F
100
AcDbEntity
  8
0
 60
     1
100
AcDbPoint
 10
-1594.19297981189
 20
-789.7931165441819
 30
0.0
1001
GENIUS_GENOBJ-N-CRS_13
1002
{
1000
OWNER
1000
GEN
1002
}
1001
GENIUS_GENOLIS_13
1002
{
1000
ENT
1005
0
1005
0
1005
0
1005
182E
1002
}
1001
GENIUS_GENOENT_13
1002
{
1000
MYREF
1005
1831
1002
}
1002
{
1000
GRP
1005
0
1002
}
1001
GENIUS_GENODEF_13
1002
{
1000
HIER
1070
    10
1002
}
1002
{
1000
MANEDIT
1070
     1
1002
}
1002
{
1000
NOSEL
1070
     0
1002
}
1002
{
1000
BEHIND
1070
     0
1002
}
1002
{
1000
OTHER
1070
     0
1002
}
1002
{
1000
REACTOR
1002
}
  0
POINT
  5
1832
330
1F
100
AcDbEntity
  8
0
 60
     1
100
AcDbPoint
 10
-1587.834306114053
 20
-798.6687030228181
 30
0.0
1001
GENIUS_GENOBJ-N-CRS_13
1002
{
1000
OWNER
1000
GEN
1002
}
1001
GENIUS_GENOLIS_13
1002
{
1000
ENT
1005
0
1005
0
1005
0
1005
182D
1002
}
1001
GENIUS_GENOENT_13
1002
{
1000
MYREF
1005
1832
1002
}
1002
{
1000
GRP
1005
0
1002
}
1001
GENIUS_GENODEF_13
1002
{
1000
HIER
1070
    10
1002
}
1002
{
1000
MANEDIT
1070
     1
1002
}
1002
{
1000
NOSEL
1070
     0
1002
}
1002
{
1000
BEHIND
1070
     0
1002
}
1002
{
1000
OTHER
1070
     0
1002
}
1002
{
1000
REACTOR
1002
}
  0
DIMENSION
  5
4E77
330
1F
100
AcDbEntity
  8
AM_REFDIM
100
AcDbDimension
  2
*D33
 10
447.2520467440951
 20
390.1796610168936
 30
0.0
 11
432.2520467440951
 21
394.3046610168936
 31
0.0
 70
    32
 71
     5
 42
30.0
  3
AM_ISO
100
AcDbAlignedDimension
 13
417.2520467440952
 23
378.1796610168936
 33
0.0
 14
447.2520467440951
 24
378.1796610168936
 34
0.0
100
AcDbRotatedDimension
  0
DIMENSION
  5
4E78
330
1F
100
AcDbEntity
  8
AM_REFDIM
100
AcDbDimension
  2
*D34
 10
464.0553399059223
 20
349.6796610168937
 30
0.0
 11
464.0553399059222
 21
364.6796610168938
 31
0.0
 70
   160
 71
     5
 42
30.0
  3
AM_ISO$0
100
AcDbAlignedDimension
 13
445.7520467440952
 23
379.6796610168937
 33
0.0
 14
445.7520467440952
 24
349.6796610168937
 34
0.0
 50
90.0
100
AcDbRotatedDimension
1001
ACAD
1000
DSTYLE
1002
{
1070
    41
1040
4.0
1070
    43
1040
10.0
1070
   140
1040
3.5
1070
   285
1070
     0
1002
}
  0
DIMENSION
  5
4E79
330
1F
100
AcDbEntity
  8
AM_REFDIM
100
AcDbDimension
  2
*D35
 10
435.2520467440951
 20
336.6796610068937
 30
0.0
 11
414.4147435944888
 21
336.6796610068937
 31
0.0
 70
   160
 71
     5
 42
6.0
  3
AM_ISO$0
100
AcDbAlignedDimension
 13
429.2520467440952
 23
345.6796610168937
 33
0.0
 14
435.2520467440951
 24
345.6796610168937
 34
0.0
100
AcDbRotatedDimension
1001
ACAD
1000
DSTYLE
1002
{
1070
    41
1040
4.0
1070
    43
1040
10.0
1070
   140
1040
3.5
1070
   285
1070
     0
1002
}
  0
DIMENSION
  5
4E7A
330
1F
100
AcDbEntity
  8
AM_REFDIM
100
AcDbDimension
  2
*D36
 10
464.0553399059222
 20
349.6796610168937
 30
0.0
 11
464.0553399059221
 21
347.6796610168938
 31
0.0
 70
   160
 71
     5
 42
4.0
  3
AM_ISO$0
100
AcDbAlignedDimension
 13
435.2520467440951
 23
345.6796610168937
 33
0.0
 14
445.7520467440952
 24
349.6796610168937
 34
0.0
 50
90.0
100
AcDbRotatedDimension
1001
ACAD
1000
DSTYLE
1002
{
1070
    41
1040
4.0
1070
    43
1040
10.0
1070
   140
1040
3.5
1070
   285
1070
     0
1002
}
  0
DIMENSION
  5
4E7B
330
1F
100
AcDbEntity
  8
AM_REFDIM
100
AcDbDimension
  2
*D37
 10
534.5698919084845
 20
283.9887152217967
 30
0.0
 11
534.5698919084843
 21
314.8341881193452
 31
0.0
 70
   160
  1
150
 71
     5
 42
61.69094579509692
  3
AM_ISO$0
100
AcDbAlignedDimension
 13
502.4679255711171
 23
345.6796610168936
 33
0.0
 14
502.8432248319924
 24
283.9887152217967
 34
0.0
 50
90.0
100
AcDbRotatedDimension
1001
ACAD
1000
DSTYLE
1002
{
1070
    41
1040
4.0
1070
    43
1040
10.0
1070
   140
1040
3.5
1070
   285
1070
     0
1002
}
  0
LINE
  5
4E7C
330
1F
100
AcDbEntity
  8
AM_VIS
100
AcDbLine
 10
497.6679255711172
 20
345.6796610168937
 30
0.0
 11
497.6679255711172
 21
327.5148678710768
 31
0.0
  0
LINE
  5
4E7D
330
1F
100
AcDbEntity
  8
AM_VIS
100
AcDbLine
 10
497.6679255711172
 20
325.0356608269058
 30
0.0
 11
497.6679255711172
 21
314.9887152217968
 31
0.0
  0
LINE
  5
4E7E
330
1F
100
AcDbEntity
  8
AM_VIS
100
AcDbLine
 10
501.267925571117
 20
345.6796610168937
 30
0.0
 11
501.267925571117
 21
324.8072924346252
 31
0.0
  0
LINE
  5
4E7F
330
1F
100
AcDbEntity
  8
AM_VIS
100
AcDbLine
 10
501.267925571117
 20
322.3280853904544
 30
0.0
 11
501.267925571117
 21
314.9887152217968
 31
0.0
  0
LINE
  5
4E80
330
1F
100
AcDbEntity
  8
AM_VIS
100
AcDbLine
 10
497.4679308192387
 20
307.4887152217967
 30
0.0
 11
497.4679308192387
 21
305.9887152217966
 31
0.0
  0
LINE
  5
4E81
330
1F
100
AcDbEntity
  8
AM_VIS
100
AcDbLine
 10
501.4679203229953
 20
307.4887152217967
 30
0.0
 11
501.4679203229953
 21
305.9887152217966
 31
0.0
  0
LINE
  5
4E82
330
1F
100
AcDbEntity
  8
AM_VIS
100
AcDbLine
 10
495.3009596435752
 20
308.9887152217969
 30
0.0
 11
495.1342929769084
 21
307.4887152217967
 31
0.0
  0
LINE
  5
4E83
330
1F
100
AcDbEntity
  8
AM_VIS
100
AcDbLine
 10
503.634891498659
 20
308.9887152217969
 30
0.0
 11
503.8015581653256
 21
307.4887152217967
 31
0.0
  0
LINE
  5
4E84
330
1F
100
AcDbEntity
  8
AM_VIS
100
AcDbLine
 10
497.4679308192387
 20
310.4887152217967
 30
0.0
 11
497.4679308192387
 21
308.9887152217969
 31
0.0
  0
LINE
  5
4E85
330
1F
100
AcDbEntity
  8
AM_VIS
100
AcDbLine
 10
501.4679203229953
 20
310.4887152217967
 30
0.0
 11
501.4679203229953
 21
308.9887152217969
 31
0.0
  0
LINE
  5
4E86
330
1F
100
AcDbEntity
  8
AM_VIS
100
AcDbLine
 10
495.6342929769083
 20
311.9887152217964
 30
0.0
 11
495.4676263102417
 21
310.4887152217967
 31
0.0
  0
LINE
  5
4E87
330
1F
100
AcDbEntity
  8
AM_VIS
100
AcDbLine
 10
503.3015581653258
 20
311.9887152217964
 30
0.0
 11
503.4682248319923
 21
310.4887152217967
 31
0.0
  0
LINE
  5
4E88
330
1F
100
AcDbEntity
  8
AM_VIS
100
AcDbLine
 10
497.4679308192387
 20
313.4887152217966
 30
0.0
 11
497.4679308192387
 21
311.9887152217964
 31
0.0
  0
LINE
  5
4E89
330
1F
100
AcDbEntity
  8
AM_VIS
100
AcDbLine
 10
501.4679203229953
 20
313.4887152217966
 30
0.0
 11
501.4679203229953
 21
311.9887152217964
 31
0.0
  0
LINE
  5
4E8A
330
1F
100
AcDbEntity
  8
AM_VIS
100
AcDbLine
 10
495.9676263102416
 20
314.9887152217968
 30
0.0
 11
495.800959643575
 21
313.4887152217966
 31
0.0
  0
LINE
  5
4E8B
330
1F
100
AcDbEntity
  8
AM_VIS
100
AcDbLine
 10
502.9682248319926
 20
314.9887152217968
 30
0.0
 11
503.1348914986592
 21
313.4887152217966
 31
0.0
  0
LINE
  5
4E8C
330
1F
100
AcDbEntity
  8
AM_VIS
100
AcDbLine
 10
502.8432248319924
 20
283.9887152217968
 30
0.0
 11
503.1432248319925
 21
285.9887152217964
 31
0.0
  0
LINE
  5
4E8D
330
1F
100
AcDbEntity
  8
AM_VIS
100
AcDbLine
 10
496.0926263102416
 20
283.9887152217968
 30
0.0
 11
495.7926263102416
 21
285.9887152217964
 31
0.0
  0
LINE
  5
4E8E
330
1F
100
AcDbEntity
  8
AM_VIS
100
AcDbLine
 10
495.8426263102417
 20
289.9887152217967
 30
0.0
 11
495.8426263102417
 21
285.9887152217964
 31
0.0
  0
LINE
  5
4E8F
330
1F
100
AcDbEntity
  8
AM_VIS
100
AcDbLine
 10
503.0932248319925
 20
289.9887152217967
 30
0.0
 11
503.0932248319925
 21
285.9887152217964
 31
0.0
  0
LINE
  5
4E90
330
1F
100
AcDbEntity
  8
AM_VIS
100
AcDbLine
 10
494.9676263102416
 20
305.9887152217966
 30
0.0
 11
494.9676263102416
 21
289.9887152217967
 31
0.0
  0
LINE
  5
4E91
330
1F
100
AcDbEntity
  8
AM_VIS
100
AcDbLine
 10
503.9682248319925
 20
305.9887152217966
 30
0.0
 11
503.9682248319925
 21
289.9887152217967
 31
0.0
  0
LINE
  5
4E92
330
1F
100
AcDbEntity
  8
AM_VIS
100
AcDbLine
 10
495.1342929769084
 20
307.4887152217967
 30
0.0
 11
503.8015581653256
 21
307.4887152217967
 31
0.0
  0
LINE
  5
4E93
330
1F
100
AcDbEntity
  8
AM_VIS
100
AcDbLine
 10
495.3009596435752
 20
308.9887152217969
 30
0.0
 11
503.634891498659
 21
308.9887152217969
 31
0.0
  0
LINE
  5
4E94
330
1F
100
AcDbEntity
  8
AM_VIS
100
AcDbLine
 10
495.4676263102417
 20
310.4887152217967
 30
0.0
 11
503.4682248319923
 21
310.4887152217967
 31
0.0
  0
LINE
  5
4E95
330
1F
100
AcDbEntity
  8
AM_VIS
100
AcDbLine
 10
495.6342929769083
 20
311.9887152217964
 30
0.0
 11
503.3015581653258
 21
311.9887152217964
 31
0.0
  0
LINE
  5
4E96
330
1F
100
AcDbEntity
  8
AM_VIS
100
AcDbLine
 10
495.800959643575
 20
313.4887152217966
 30
0.0
 11
503.1348914986592
 21
313.4887152217966
 31
0.0
  0
LINE
  5
4E97
330
1F
100
AcDbEntity
  8
AM_VIS
100
AcDbLine
 10
496.0926263102416
 20
283.9887152217968
 30
0.0
 11
502.8432248319924
 21
283.9887152217968
 31
0.0
  0
LINE
  5
4E98
330
1F
100
AcDbEntity
  8
AM_VIS
100
AcDbLine
 10
495.7926263102416
 20
285.9887152217964
 30
0.0
 11
503.1432248319925
 21
285.9887152217964
 31
0.0
  0
LINE
  5
4E99
330
1F
100
AcDbEntity
  8
AM_VIS
100
AcDbLine
 10
494.9676263102416
 20
305.9887152217966
 30
0.0
 11
503.9682248319925
 21
305.9887152217966
 31
0.0
  0
LINE
  5
4E9A
330
1F
100
AcDbEntity
  8
AM_VIS
100
AcDbLine
 10
494.9676263102416
 20
289.9887152217967
 30
0.0
 11
503.9682248319925
 21
289.9887152217967
 31
0.0
  0
LINE
  5
4E9B
330
1F
100
AcDbEntity
  8
AM_VIS
100
AcDbLine
 10
495.9676263102416
 20
314.9887152217968
 30
0.0
 11
502.9682248319926
 21
314.9887152217968
 31
0.0
  0
LINE
  5
4E9C
330
1F
100
AcDbEntity
  8
AM_VIS
100
AcDbLine
 10
426.5520467440951
 20
353.9296610168937
 30
0.0
 11
426.5520467440951
 21
352.9296610168937
 31
0.0
  0
LINE
  5
4E9D
330
1F
100
AcDbEntity
  8
AM_VIS
100
AcDbLine
 10
421.9520467440952
 20
354.9296610168937
 30
0.0
 11
425.5520467440951
 21
354.9296610168937
 31
0.0
  0
LINE
  5
4E9E
330
1F
100
AcDbEntity
  8
AM_VIS
100
AcDbLine
 10
420.9520467440952
 20
352.9296610168937
 30
0.0
 11
420.9520467440952
 21
353.9296610168937
 31
0.0
  0
LINE
  5
4E9F
330
1F
100
AcDbEntity
  8
AM_VIS
100
AcDbLine
 10
425.5520467440951
 20
351.9296610168937
 30
0.0
 11
421.9520467440952
 21
351.9296610168937
 31
0.0
  0
LINE
  5
4EA0
330
1F
100
AcDbEntity
  8
AM_VIS
100
AcDbLine
 10
444.5520467440951
 20
353.9296610168937
 30
0.0
 11
444.5520467440951
 21
352.9296610168937
 31
0.0
  0
LINE
  5
4EA1
330
1F
100
AcDbEntity
  8
AM_VIS
100
AcDbLine
 10
439.9520467440952
 20
354.9296610168937
 30
0.0
 11
443.5520467440951
 21
354.9296610168937
 31
0.0
  0
LINE
  5
4EA2
330
1F
100
AcDbEntity
  8
AM_VIS
100
AcDbLine
 10
438.9520467440952
 20
352.9296610168937
 30
0.0
 11
438.9520467440952
 21
353.9296610168937
 31
0.0
  0
LINE
  5
4EA3
330
1F
100
AcDbEntity
  8
AM_VIS
100
AcDbLine
 10
443.5520467440951
 20
351.9296610168937
 30
0.0
 11
439.9520467440952
 21
351.9296610168937
 31
0.0
  0
LINE
  5
4EA4
330
1F
100
AcDbEntity
  8
AM_VIS
100
AcDbLine
 10
435.5520467440952
 20
353.9296610168937
 30
0.0
 11
435.5520467440952
 21
352.9296610168937
 31
0.0
  0
LINE
  5
4EA5
330
1F
100
AcDbEntity
  8
AM_VIS
100
AcDbLine
 10
430.9520467440952
 20
354.9296610168937
 30
0.0
 11
434.5520467440951
 21
354.9296610168937
 31
0.0
  0
LINE
  5
4EA6
330
1F
100
AcDbEntity
  8
AM_VIS
100
AcDbLine
 10
429.9520467440952
 20
352.9296610168937
 30
0.0
 11
429.9520467440952
 21
353.9296610168937
 31
0.0
  0
LINE
  5
4EA7
330
1F
100
AcDbEntity
  8
AM_VIS
100
AcDbLine
 10
434.5520467440951
 20
351.9296610168937
 30
0.0
 11
430.9520467440952
 21
351.9296610168937
 31
0.0
  0
LINE
  5
4EA8
330
1F
100
AcDbEntity
  8
AM_VIS
100
AcDbLine
 10
422.5020467440952
 20
352.4296610168937
 30
0.0
 11
423.7520467440951
 21
354.5947245263547
 31
0.0
  0
LINE
  5
4EA9
330
1F
100
AcDbEntity
  8
AM_VIS
100
AcDbLine
 10
423.7520467440951
 20
354.5947245263547
 30
0.0
 11
425.0020467440951
 21
352.4296610168937
 31
0.0
  0
LINE
  5
4EAA
330
1F
100
AcDbEntity
  8
AM_VIS
100
AcDbLine
 10
425.0020467440951
 20
352.4296610168937
 30
0.0
 11
422.5020467440952
 21
352.4296610168937
 31
0.0
  0
LINE
  5
4EAB
330
1F
100
AcDbEntity
  8
AM_VIS
100
AcDbLine
 10
440.5020467440952
 20
354.4296610168937
 30
0.0
 11
443.0020467440952
 21
354.4296610168937
 31
0.0
  0
LINE
  5
4EAC
330
1F
100
AcDbEntity
  8
AM_VIS
100
AcDbLine
 10
443.0020467440952
 20
354.4296610168937
 30
0.0
 11
441.7520467440952
 21
352.2645975074326
 31
0.0
  0
LINE
  5
4EAD
330
1F
100
AcDbEntity
  8
AM_VIS
100
AcDbLine
 10
441.7520467440952
 20
352.2645975074326
 30
0.0
 11
440.5020467440952
 21
354.4296610168937
 31
0.0
  0
LINE
  5
4EAE
330
1F
100
AcDbEntity
  8
AM_VIS
100
AcDbLine
 10
434.9782869529724
 20
353.8923242022723
 30
0.0
 11
434.9179736370456
 21
353.8923242022723
 31
0.0
  0
SPLINE
  5
4EAF
330
1F
100
AcDbEntity
  8
AM_VIS
100
AcDbSpline
210
0.0
220
0.0
230
1.0
 70
     8
 71
     3
 72
     8
 73
     4
 74
     0
 42
0.0000000001
 43
0.0000000001
 40
0.0
 40
0.0
 40
0.0
 40
0.0
 40
80.0
 40
80.0
 40
80.0
 40
80.0
 10
434.9179736370456
 20
353.8923242022723
 30
0.0
 10
434.8887308032582
 20
354.0622980926117
 30
0.0
 10
434.8439527493171
 20
354.1719586670243
 30
0.0
 10
434.7836394333902
 20
354.2213059255098
 30
0.0
  0
SPLINE
  5
4EB0
330
1F
100
AcDbEntity
  8
AM_VIS
100
AcDbSpline
210
0.0
220
0.0
230
1.0
 70
     8
 71
     3
 72
     8
 73
     4
 74
     0
 42
0.0000000001
 43
0.0000000001
 40
0.0
 40
0.0
 40
0.0
 40
0.0
 40
80.0
 40
80.0
 40
80.0
 40
80.0
 10
434.7836394333902
 20
354.2213059255098
 30
0.0
 10
434.7288091461839
 20
354.266997803627
 30
0.0
 10
434.6237177344838
 20
354.2898437845177
 30
0.0
 10
434.4683652819542
 20
354.2898437845177
 30
0.0
  0
LINE
  5
4EB1
330
1F
100
AcDbEntity
  8
AM_VIS
100
AcDbLine
 10
434.4683652819542
 20
354.2898437845177
 30
0.0
 11
434.309357449056
 21
354.2898437845177
 31
0.0
  0
LINE
  5
4EB2
330
1F
100
AcDbEntity
  8
AM_VIS
100
AcDbLine
 10
434.309357449056
 20
354.2898437845177
 30
0.0
 11
434.309357449056
 21
352.7244390847788
 31
0.0
  0
SPLINE
  5
4EB3
330
1F
100
AcDbEntity
  8
AM_VIS
100
AcDbSpline
210
0.0
220
0.0
230
1.0
 70
     8
 71
     3
 72
     8
 73
     4
 74
     0
 42
0.0000000001
 43
0.0000000001
 40
0.0
 40
0.0
 40
0.0
 40
0.0
 40
80.0
 40
80.0
 40
80.0
 40
80.0
 10
434.309357449056
 20
352.7244390847788
 30
0.0
 10
434.309357449056
 20
352.6166061587183
 30
0.0
 10
434.3294618737543
 20
352.5398437566297
 30
0.0
 10
434.3696707649829
 20
352.4941518785125
 30
0.0
  0
SPLINE
  5
4EB4
330
1F
100
AcDbEntity
  8
AM_VIS
100
AcDbSpline
210
0.0
220
0.0
230
1.0
 70
     8
 71
     3
 72
     8
 73
     4
 74
     0
 42
0.0000000001
 43
0.0000000001
 40
0.0
 40
0.0
 40
0.0
 40
0.0
 40
80.0
 40
80.0
 40
80.0
 40
80.0
 10
434.3696707649829
 20
352.4941518785125
 30
0.0
 10
434.4117073045635
 20
352.4521153389317
 30
0.0
 10
434.4893835308284
 20
352.427441709689
 30
0.0
 10
434.6026994856096
 20
352.420130990784
 30
0.0
  0
LINE
  5
4EB5
330
1F
100
AcDbEntity
  8
AM_VIS
100
AcDbLine
 10
434.6026994856096
 20
352.420130990784
 30
0.0
 11
434.6026994856096
 21
352.3653007035777
 31
0.0
  0
LINE
  5
4EB6
330
1F
100
AcDbEntity
  8
AM_VIS
100
AcDbLine
 10
434.6026994856096
 20
352.3653007035777
 30
0.0
 11
433.8487830365234
 21
352.3653007035777
 31
0.0
  0
LINE
  5
4EB7
330
1F
100
AcDbEntity
  8
AM_VIS
100
AcDbLine
 10
433.8487830365234
 20
352.3653007035777
 30
0.0
 11
433.8487830365234
 21
352.420130990784
 31
0.0
  0
SPLINE
  5
4EB8
330
1F
100
AcDbEntity
  8
AM_VIS
100
AcDbSpline
210
0.0
220
0.0
230
1.0
 70
     8
 71
     3
 72
     8
 73
     4
 74
     0
 42
0.0000000001
 43
0.0000000001
 40
0.0
 40
0.0
 40
0.0
 40
0.0
 40
80.0
 40
80.0
 40
80.0
 40
80.0
 10
433.8487830365234
 20
352.420130990784
 30
0.0
 10
433.9657542880086
 20
352.4292693998733
 30
0.0
 10
434.0443443802817
 20
352.4594260578366
 30
0.0
 10
434.0845532715103
 20
352.5106009646743
 30
0.0
  0
SPLINE
  5
4EB9
330
1F
100
AcDbEntity
  8
AM_VIS
100
AcDbSpline
210
0.0
220
0.0
230
1.0
 70
     8
 71
     3
 72
     8
 73
     4
 74
     0
 42
0.0000000001
 43
0.0000000001
 40
0.0
 40
0.0
 40
0.0
 40
0.0
 40
80.0
 40
80.0
 40
80.0
 40
80.0
 10
434.0845532715103
 20
352.5106009646743
 30
0.0
 10
434.1174514020019
 20
352.5544651944394
 30
0.0
 10
434.133900529996
 20
352.6385382736008
 30
0.0
 10
434.133900529996
 20
352.7628202858232
 30
0.0
  0
LINE
  5
4EBA
330
1F
100
AcDbEntity
  8
AM_VIS
100
AcDbLine
 10
434.133900529996
 20
352.7628202858232
 30
0.0
 11
434.133900529996
 21
354.2898437845177
 31
0.0
  0
LINE
  5
4EBB
330
1F
100
AcDbEntity
  8
AM_VIS
100
AcDbLine
 10
434.133900529996
 20
354.2898437845177
 30
0.0
 11
433.9694096683772
 21
354.2898437845177
 31
0.0
  0
SPLINE
  5
4EBC
330
1F
100
AcDbEntity
  8
AM_VIS
100
AcDbSpline
210
0.0
220
0.0
230
1.0
 70
     8
 71
     3
 72
     8
 73
     4
 74
     0
 42
0.0000000001
 43
0.0000000001
 40
0.0
 40
0.0
 40
0.0
 40
0.0
 40
80.0
 40
80.0
 40
80.0
 40
80.0
 10
433.9694096683772
 20
354.2898437845177
 30
0.0
 10
433.8158848641996
 20
354.2898437845177
 30
0.0
 10
433.7107934524994
 20
354.2651701552748
 30
0.0
 10
433.654135516941
 20
354.2158228967892
 30
0.0
  0
SPLINE
  5
4EBD
330
1F
100
AcDbEntity
  8
AM_VIS
100
AcDbSpline
210
0.0
220
0.0
230
1.0
 70
     8
 71
     3
 72
     8
 73
     4
 74
     0
 42
0.0000000001
 43
0.0000000001
 40
0.0
 40
0.0
 40
0.0
 40
0.0
 40
80.0
 40
80.0
 40
80.0
 40
80.0
 10
433.654135516941
 20
354.2158228967892
 30
0.0
 10
433.5974775395506
 20
354.17013097684
 30
0.0
 10
433.5536133097856
 20
354.0622980926117
 30
0.0
 10
433.5225428276461
 20
353.8923242022723
 30
0.0
  0
LINE
  5
4EBE
330
1F
100
AcDbEntity
  8
AM_VIS
100
AcDbLine
 10
433.5225428276461
 20
353.8923242022723
 30
0.0
 11
433.4594879973589
 21
353.8923242022723
 31
0.0
  0
LINE
  5
4EBF
330
1F
100
AcDbEntity
  8
AM_VIS
100
AcDbLine
 10
433.4594879973589
 20
353.8923242022723
 30
0.0
 11
433.4759370835207
 21
354.3830552727683
 31
0.0
  0
LINE
  5
4EC0
330
1F
100
AcDbEntity
  8
AM_VIS
100
AcDbLine
 10
433.4759370835207
 20
354.3830552727683
 30
0.0
 11
434.9618378668106
 21
354.3830552727683
 31
0.0
  0
LINE
  5
4EC1
330
1F
100
AcDbEntity
  8
AM_VIS
100
AcDbLine
 10
434.9618378668106
 20
354.3830552727683
 30
0.0
 11
434.9782869529724
 21
353.8923242022723
 31
0.0
  0
SPLINE
  5
4EC2
330
1F
100
AcDbEntity
  8
AM_VIS
100
AcDbSpline
210
0.0
220
0.0
230
1.0
 70
     8
 71
     3
 72
     8
 73
     4
 74
     0
 42
0.0000000001
 43
0.0000000001
 40
0.0
 40
0.0
 40
0.0
 40
0.0
 40
80.0
 40
80.0
 40
80.0
 40
80.0
 10
431.6363809477506
 20
352.8697393458754
 30
0.0
 10
431.6436916248233
 20
352.7308359376755
 30
0.0
 10
431.5998273950582
 20
352.6092954816457
 30
0.0
 10
431.5047882584555
 20
352.5051179359537
 30
0.0
  0
SPLINE
  5
4EC3
330
1F
100
AcDbEntity
  8
AM_VIS
100
AcDbSpline
210
0.0
220
0.0
230
1.0
 70
     8
 71
     3
 72
     8
 73
     4
 74
     0
 42
0.0000000001
 43
0.0000000001
 40
0.0
 40
0.0
 40
0.0
 40
0.0
 40
80.0
 40
80.0
 40
80.0
 40
80.0
 10
431.5047882584555
 20
352.5051179359537
 30
0.0
 10
431.4006107127636
 20
352.3881466844685
 30
0.0
 10
431.2589657902033
 20
352.3296610168937
 30
0.0
 10
431.0798535326069
 20
352.3296610168937
 30
0.0
  0
SPLINE
  5
4EC4
330
1F
100
AcDbEntity
  8
AM_VIS
100
AcDbSpline
210
0.0
220
0.0
230
1.0
 70
     8
 71
     3
 72
     8
 73
     4
 74
     0
 42
0.0000000001
 43
0.0000000001
 40
0.0
 40
0.0
 40
0.0
 40
0.0
 40
80.0
 40
80.0
 40
80.0
 40
80.0
 10
431.0798535326069
 20
352.3296610168937
 30
0.0
 10
431.0012634403339
 20
352.3296610168937
 30
0.0
 10
430.9217595238847
 20
352.3479377932399
 30
0.0
 10
430.8413417832595
 20
352.3844913040999
 30
0.0
  0
SPLINE
  5
4EC5
330
1F
100
AcDbEntity
  8
AM_VIS
100
AcDbSpline
210
0.0
220
0.0
230
1.0
 70
     8
 71
     3
 72
     8
 73
     4
 74
     0
 42
0.0000000001
 43
0.0000000001
 40
0.0
 40
0.0
 40
0.0
 40
0.0
 40
80.0
 40
80.0
 40
80.0
 40
80.0
 10
430.8413417832595
 20
352.3844913040999
 30
0.0
 10
430.7627516909867
 20
352.4173894764237
 30
0.0
 10
430.7152321226852
 20
352.4338385625855
 30
0.0
 10
430.6987830365234
 20
352.4338385625855
 30
0.0
  0
SPLINE
  5
4EC6
330
1F
100
AcDbEntity
  8
AM_VIS
100
AcDbSpline
210
0.0
220
0.0
230
1.0
 70
     8
 71
     3
 72
     8
 73
     4
 74
     0
 42
0.0000000001
 43
0.0000000001
 40
0.0
 40
0.0
 40
0.0
 40
0.0
 40
80.0
 40
80.0
 40
80.0
 40
80.0
 10
430.6987830365234
 20
352.4338385625855
 30
0.0
 10
430.6366420304122
 20
352.4338385625855
 30
0.0
 10
430.6019161679041
 20
352.4000265660857
 30
0.0
 10
430.5946054908315
 20
352.332402531254
 30
0.0
  0
LINE
  5
4EC7
330
1F
100
AcDbEntity
  8
AM_VIS
100
AcDbLine
 10
430.5946054908315
 20
352.332402531254
 30
0.0
 11
430.5342921749046
 21
352.332402531254
 31
0.0
  0
LINE
  5
4EC8
330
1F
100
AcDbEntity
  8
AM_VIS
100
AcDbLine
 10
430.5342921749046
 20
352.332402531254
 30
0.0
 11
430.4520467440952
 21
352.9547262910451
 31
0.0
  0
LINE
  5
4EC9
330
1F
100
AcDbEntity
  8
AM_VIS
100
AcDbLine
 10
430.4520467440952
 20
352.9547262910451
 30
0.0
 11
430.5151015743824
 21
352.9547262910451
 31
0.0
  0
SPLINE
  5
4ECA
330
1F
100
AcDbEntity
  8
AM_VIS
100
AcDbSpline
210
0.0
220
0.0
230
1.0
 70
     8
 71
     3
 72
     8
 73
     4
 74
     0
 42
0.0000000001
 43
0.0000000001
 40
0.0
 40
0.0
 40
0.0
 40
0.0
 40
80.0
 40
80.0
 40
80.0
 40
80.0
 10
430.5151015743824
 20
352.9547262910451
 30
0.0
 10
430.6211067684264
 20
352.5946740438358
 30
0.0
 10
430.8011328920311
 20
352.4146479620634
 30
0.0
 10
431.0551799033642
 20
352.4146479620634
 30
0.0
  0
SPLINE
  5
4ECB
330
1F
100
AcDbEntity
  8
AM_VIS
100
AcDbSpline
210
0.0
220
0.0
230
1.0
 70
     8
 71
     3
 72
     8
 73
     4
 74
     0
 42
0.0000000001
 43
0.0000000001
 40
0.0
 40
0.0
 40
0.0
 40
0.0
 40
80.0
 40
80.0
 40
80.0
 40
80.0
 10
431.0551799033642
 20
352.4146479620634
 30
0.0
 10
431.1630127875924
 20
352.4146479620634
 30
0.0
 10
431.255310451667
 20
352.4530292049399
 30
0.0
 10
431.3320728537558
 20
352.5297915651966
 30
0.0
  0
SPLINE
  5
4ECC
330
1F
100
AcDbEntity
  8
AM_VIS
100
AcDbSpline
210
0.0
220
0.0
230
1.0
 70
     8
 71
     3
 72
     8
 73
     4
 74
     0
 42
0.0000000001
 43
0.0000000001
 40
0.0
 40
0.0
 40
0.0
 40
0.0
 40
80.0
 40
80.0
 40
80.0
 40
80.0
 10
431.3320728537558
 20
352.5297915651966
 30
0.0
 10
431.4033521852917
 20
352.6028985869168
 30
0.0
 10
431.4389918719757
 20
352.6851440177261
 30
0.0
 10
431.4389919138079
 20
352.7765278576247
 30
0.0
  0
SPLINE
  5
4ECD
330
1F
100
AcDbEntity
  8
AM_VIS
100
AcDbSpline
210
0.0
220
0.0
230
1.0
 70
     8
 71
     3
 72
     8
 73
     4
 74
     0
 42
0.0000000001
 43
0.0000000001
 40
0.0
 40
0.0
 40
0.0
 40
0.0
 40
80.0
 40
80.0
 40
80.0
 40
80.0
 10
431.4389919138079
 20
352.7765278576247
 30
0.0
 10
431.4389918719757
 20
352.8715669942274
 30
0.0
 10
431.4115767283726
 20
352.9547262910451
 30
0.0
 10
431.3567464829985
 20
353.0260056644133
 30
0.0
  0
SPLINE
  5
4ECE
330
1F
100
AcDbEntity
  8
AM_VIS
100
AcDbSpline
210
0.0
220
0.0
230
1.0
 70
     8
 71
     3
 72
     8
 73
     4
 74
     0
 42
0.0000000001
 43
0.0000000001
 40
0.0
 40
0.0
 40
0.0
 40
0.0
 40
80.0
 40
80.0
 40
80.0
 40
80.0
 10
431.3567464829985
 20
353.0260056644133
 30
0.0
 10
431.2927777867031
 20
353.1045957148541
 30
0.0
 10
431.1630127875924
 20
353.2106009507302
 30
0.0
 10
430.9674514438341
 20
353.3440213302096
 30
0.0
  0
SPLINE
  5
4ECF
330
1F
100
AcDbEntity
  8
AM_VIS
100
AcDbSpline
210
0.0
220
0.0
230
1.0
 70
     8
 71
     3
 72
     8
 73
     4
 74
     0
 42
0.0000000001
 43
0.0000000001
 40
0.0
 40
0.0
 40
0.0
 40
0.0
 40
80.0
 40
80.0
 40
80.0
 40
80.0
 10
430.9674514438341
 20
353.3440213302096
 30
0.0
 10
430.8066159207517
 20
353.4518542144379
 30
0.0
 10
430.704266065244
 20
353.531358130887
 30
0.0
 10
430.6604018354789
 20
353.5825330795569
 30
0.0
  0
SPLINE
  5
4ED0
330
1F
100
AcDbEntity
  8
AM_VIS
100
AcDbSpline
210
0.0
220
0.0
230
1.0
 70
     8
 71
     3
 72
     8
 73
     4
 74
     0
 42
0.0000000001
 43
0.0000000001
 40
0.0
 40
0.0
 40
0.0
 40
0.0
 40
80.0
 40
80.0
 40
80.0
 40
80.0
 10
430.6604018354789
 20
353.5825330795569
 30
0.0
 10
430.574501024301
 20
353.6739168776233
 30
0.0
 10
430.5315506605443
 20
353.7863189663961
 30
0.0
 10
430.5315506605443
 20
353.9197393458754
 30
0.0
  0
SPLINE
  5
4ED1
330
1F
100
AcDbEntity
  8
AM_VIS
100
AcDbSpline
210
0.0
220
0.0
230
1.0
 70
     8
 71
     3
 72
     8
 73
     4
 74
     0
 42
0.0000000001
 43
0.0000000001
 40
0.0
 40
0.0
 40
0.0
 40
0.0
 40
80.0
 40
80.0
 40
80.0
 40
80.0
 10
430.5315506605443
 20
353.9197393458754
 30
0.0
 10
430.5315506605443
 20
354.0805748271257
 30
0.0
 10
430.5799840530217
 20
354.2075983537083
 30
0.0
 10
430.6768509216408
 20
354.3008098419589
 30
0.0
  0
SPLINE
  5
4ED2
330
1F
100
AcDbEntity
  8
AM_VIS
100
AcDbSpline
210
0.0
220
0.0
230
1.0
 70
     8
 71
     3
 72
     8
 73
     4
 74
     0
 42
0.0000000001
 43
0.0000000001
 40
0.0
 40
0.0
 40
0.0
 40
0.0
 40
80.0
 40
80.0
 40
80.0
 40
80.0
 10
430.6768509216408
 20
354.3008098419589
 30
0.0
 10
430.7645793811709
 20
354.3867106113046
 30
0.0
 10
430.8733260895752
 20
354.4296610168937
 30
0.0
 10
431.0030911305182
 20
354.4296610168937
 30
0.0
  0
SPLINE
  5
4ED3
330
1F
100
AcDbEntity
  8
AM_VIS
100
AcDbSpline
210
0.0
220
0.0
230
1.0
 70
     8
 71
     3
 72
     8
 73
     4
 74
     0
 42
0.0000000001
 43
0.0000000001
 40
0.0
 40
0.0
 40
0.0
 40
0.0
 40
80.0
 40
80.0
 40
80.0
 40
80.0
 10
431.0030911305182
 20
354.4296610168937
 30
0.0
 10
431.063404446445
 20
354.4296610168937
 30
0.0
 10
431.1383391583496
 20
354.4122980647235
 30
0.0
 10
431.2278953080638
 20
354.3775722440477
 30
0.0
  0
SPLINE
  5
4ED4
330
1F
100
AcDbEntity
  8
AM_VIS
100
AcDbSpline
210
0.0
220
0.0
230
1.0
 70
     8
 71
     3
 72
     8
 73
     4
 74
     0
 42
0.0000000001
 43
0.0000000001
 40
0.0
 40
0.0
 40
0.0
 40
0.0
 40
80.0
 40
80.0
 40
80.0
 40
80.0
 10
431.2278953080638
 20
354.3775722440477
 30
0.0
 10
431.3156237675939
 20
354.3428463815397
 30
0.0
 10
431.3658848502556
 20
354.3254834712018
 30
0.0
 10
431.3786785978812
 20
354.3254834712018
 30
0.0
  0
SPLINE
  5
4ED5
330
1F
100
AcDbEntity
  8
AM_VIS
100
AcDbSpline
210
0.0
220
0.0
230
1.0
 70
     8
 71
     3
 72
     8
 73
     4
 74
     0
 42
0.0000000001
 43
0.0000000001
 40
0.0
 40
0.0
 40
0.0
 40
0.0
 40
80.0
 40
80.0
 40
80.0
 40
80.0
 10
431.3786785978812
 20
354.3254834712018
 30
0.0
 10
431.413404418557
 20
354.3254834712018
 30
0.0
 10
431.4344227092633
 20
354.3382771769951
 30
0.0
 10
431.4417334281682
 20
354.3638646722462
 30
0.0
  0
LINE
  5
4ED6
330
1F
100
AcDbEntity
  8
AM_VIS
100
AcDbLine
 10
431.4412911559685
 20
354.3639568735989
 30
0.0
 11
431.4550074690539
 21
354.4297513959338
 31
0.0
  0
LINE
  5
4ED7
330
1F
100
AcDbEntity
  8
AM_VIS
100
AcDbLine
 10
431.4554409999698
 20
354.4296610168937
 30
0.0
 11
431.5157543158967
 21
354.4296610168937
 31
0.0
  0
LINE
  5
4ED8
330
1F
100
AcDbEntity
  8
AM_VIS
100
AcDbLine
 10
431.5157543158967
 20
354.4296610168937
 30
0.0
 11
431.5760676318237
 21
353.8045957427423
 31
0.0
  0
LINE
  5
4ED9
330
1F
100
AcDbEntity
  8
AM_VIS
100
AcDbLine
 10
431.5760676318237
 20
353.8045957427423
 30
0.0
 11
431.5102712871761
 21
353.8045957427423
 31
0.0
  0
SPLINE
  5
4EDA
330
1F
100
AcDbEntity
  8
AM_VIS
100
AcDbSpline
210
0.0
220
0.0
230
1.0
 70
     8
 71
     3
 72
     8
 73
     4
 74
     0
 42
0.0000000001
 43
0.0000000001
 40
0.0
 40
0.0
 40
0.0
 40
0.0
 40
80.0
 40
80.0
 40
80.0
 40
80.0
 10
431.5102712871761
 20
353.8045957427423
 30
0.0
 10
431.4810284533887
 20
353.9544651665513
 30
0.0
 10
431.4289396805427
 20
354.0778333127653
 30
0.0
 10
431.3540049686382
 20
354.1747001813845
 30
0.0
  0
SPLINE
  5
4EDB
330
1F
100
AcDbEntity
  8
AM_VIS
100
AcDbSpline
210
0.0
220
0.0
230
1.0
 70
     8
 71
     3
 72
     8
 73
     4
 74
     0
 42
0.0000000001
 43
0.0000000001
 40
0.0
 40
0.0
 40
0.0
 40
0.0
 40
80.0
 40
80.0
 40
80.0
 40
80.0
 10
431.3540049686382
 20
354.1747001813845
 30
0.0
 10
431.2607934803876
 20
354.2916714328698
 30
0.0
 10
431.1483913916147
 20
354.3501571004446
 30
0.0
 10
431.0167987023198
 20
354.3501571004446
 30
0.0
  0
SPLINE
  5
4EDC
330
1F
100
AcDbEntity
  8
AM_VIS
100
AcDbSpline
210
0.0
220
0.0
230
1.0
 70
     8
 71
     3
 72
     8
 73
     4
 74
     0
 42
0.0000000001
 43
0.0000000001
 40
0.0
 40
0.0
 40
0.0
 40
0.0
 40
80.0
 40
80.0
 40
80.0
 40
80.0
 10
431.0167987023198
 20
354.3501571004446
 30
0.0
 10
430.9363809198623
 20
354.3501571004446
 30
0.0
 10
430.8651015464943
 20
354.3254834712018
 30
0.0
 10
430.8029605822152
 20
354.2761362127162
 30
0.0
  0
SPLINE
  5
4EDD
330
1F
100
AcDbEntity
  8
AM_VIS
100
AcDbSpline
210
0.0
220
0.0
230
1.0
 70
     8
 71
     3
 72
     8
 73
     4
 74
     0
 42
0.0000000001
 43
0.0000000001
 40
0.0
 40
0.0
 40
0.0
 40
0.0
 40
80.0
 40
80.0
 40
80.0
 40
80.0
 10
430.8029605822152
 20
354.2761362127162
 30
0.0
 10
430.7280258284786
 20
354.2139952066049
 30
0.0
 10
430.6905584516102
 20
354.1326635999717
 30
0.0
 10
430.6905584934424
 20
354.0321414346482
 30
0.0
  0
SPLINE
  5
4EDE
330
1F
100
AcDbEntity
  8
AM_VIS
100
AcDbSpline
210
0.0
220
0.0
230
1.0
 70
     8
 71
     3
 72
     8
 73
     4
 74
     0
 42
0.0000000001
 43
0.0000000001
 40
0.0
 40
0.0
 40
0.0
 40
0.0
 40
80.0
 40
80.0
 40
80.0
 40
80.0
 10
430.6905584934424
 20
354.0321414346482
 30
0.0
 10
430.6905584516102
 20
353.9023763937053
 30
0.0
 10
430.7700624098916
 20
353.7753529089548
 30
0.0
 10
430.9290702427897
 20
353.6510709385647
 30
0.0
  0
LINE
  5
4EDF
330
1F
100
AcDbEntity
  8
AM_VIS
100
AcDbLine
 10
430.9291318323403
 20
353.6511567422338
 30
0.0
 11
431.3759976520981
 21
353.3303981397052
 31
0.0
  0
SPLINE
  5
4EE0
330
1F
100
AcDbEntity
  8
AM_VIS
100
AcDbSpline
210
0.0
220
0.0
230
1.0
 70
     8
 71
     3
 72
     8
 73
     4
 74
     0
 42
0.0000000001
 43
0.0000000001
 40
0.0
 40
0.0
 40
0.0
 40
0.0
 40
80.0
 40
80.0
 40
80.0
 40
80.0
 10
431.3759370835207
 20
353.3303137584081
 30
0.0
 10
431.5404279451395
 20
353.1895826600238
 30
0.0
 10
431.6272425386614
 20
353.0360578558463
 30
0.0
 10
431.6363809477506
 20
352.8697393458754
 30
0.0
  0
LINE
  5
4EE1
330
1F
100
AcDbEntity
  8
AM_VIS
100
AcDbLine
 10
433.3786133237297
 20
352.8587732884342
 30
0.0
 11
433.2634697205965
 21
352.3653007035777
 31
0.0
  0
LINE
  5
4EE2
330
1F
100
AcDbEntity
  8
AM_VIS
100
AcDbLine
 10
433.2634697205965
 20
352.3653007035777
 30
0.0
 11
431.8351407388733
 21
352.3653007035777
 31
0.0
  0
LINE
  5
4EE3
330
1F
100
AcDbEntity
  8
AM_VIS
100
AcDbLine
 10
431.8351407388733
 20
352.3653007035777
 30
0.0
 11
431.8351407388733
 21
352.420130990784
 31
0.0
  0
SPLINE
  5
4EE4
330
1F
100
AcDbEntity
  8
AM_VIS
100
AcDbSpline
210
0.0
220
0.0
230
1.0
 70
     8
 71
     3
 72
     8
 73
     4
 74
     0
 42
0.0000000001
 43
0.0000000001
 40
0.0
 40
0.0
 40
0.0
 40
0.0
 40
80.0
 40
80.0
 40
80.0
 40
80.0
 10
431.8351407388733
 20
352.420130990784
 30
0.0
 10
431.9338352140123
 20
352.4292693998733
 30
0.0
 10
432.0005454246681
 20
352.4475461343871
 30
0.0
 10
432.0352712871761
 20
352.4749612779903
 30
0.0
  0
SPLINE
  5
4EE5
330
1F
100
AcDbEntity
  8
AM_VIS
100
AcDbSpline
210
0.0
220
0.0
230
1.0
 70
     8
 71
     3
 72
     8
 73
     4
 74
     0
 42
0.0000000001
 43
0.0000000001
 40
0.0
 40
0.0
 40
0.0
 40
0.0
 40
80.0
 40
80.0
 40
80.0
 40
80.0
 10
432.0352712871761
 20
352.4749612779903
 30
0.0
 10
432.0827908554774
 20
352.5151701692189
 30
0.0
 10
432.1065506605442
 20
352.5910187052994
 30
0.0
 10
432.1065506605442
 20
352.7025069698962
 30
0.0
  0
LINE
  5
4EE6
330
1F
100
AcDbEntity
  8
AM_VIS
100
AcDbLine
 10
432.1065506605442
 20
352.7025069698962
 30
0.0
 11
432.1065506605442
 21
354.0431074920895
 31
0.0
  0
SPLINE
  5
4EE7
330
1F
100
AcDbEntity
  8
AM_VIS
100
AcDbSpline
210
0.0
220
0.0
230
1.0
 70
     8
 71
     3
 72
     8
 73
     4
 74
     0
 42
0.0000000001
 43
0.0000000001
 40
0.0
 40
0.0
 40
0.0
 40
0.0
 40
80.0
 40
80.0
 40
80.0
 40
80.0
 10
432.1065506605442
 20
354.0431074920895
 30
0.0
 10
432.1065506605442
 20
354.1600787435748
 30
0.0
 10
432.0827908554774
 20
354.2377550116717
 30
0.0
 10
432.0352712871761
 20
354.2761362127162
 30
0.0
  0
SPLINE
  5
4EE8
330
1F
100
AcDbEntity
  8
AM_VIS
100
AcDbSpline
210
0.0
220
0.0
230
1.0
 70
     8
 71
     3
 72
     8
 73
     4
 74
     0
 42
0.0000000001
 43
0.0000000001
 40
0.0
 40
0.0
 40
0.0
 40
0.0
 40
80.0
 40
80.0
 40
80.0
 40
80.0
 10
432.0352712871761
 20
354.2761362127162
 30
0.0
 10
432.0042007632045
 20
354.3017236661349
 30
0.0
 10
431.9374905943809
 20
354.3190865764729
 30
0.0
 10
431.8351407388733
 20
354.328224985562
 30
0.0
  0
LINE
  5
4EE9
330
1F
100
AcDbEntity
  8
AM_VIS
100
AcDbLine
 10
431.8351407388733
 20
354.328224985562
 30
0.0
 11
431.8351407388733
 21
354.3830552727683
 31
0.0
  0
LINE
  5
4EEA
330
1F
100
AcDbEntity
  8
AM_VIS
100
AcDbLine
 10
431.8351407388733
 20
354.3830552727683
 30
0.0
 11
433.241537605714
 21
354.3830552727683
 31
0.0
  0
LINE
  5
4EEB
330
1F
100
AcDbEntity
  8
AM_VIS
100
AcDbLine
 10
433.241537605714
 20
354.3830552727683
 30
0.0
 11
433.249762148795
 21
353.9718281187214
 31
0.0
  0
LINE
  5
4EEC
330
1F
100
AcDbEntity
  8
AM_VIS
100
AcDbLine
 10
433.249762148795
 20
353.9718281187214
 30
0.0
 11
433.1921903472284
 21
353.9718281187214
 31
0.0
  0
SPLINE
  5
4EED
330
1F
100
AcDbEntity
  8
AM_VIS
100
AcDbSpline
210
0.0
220
0.0
230
1.0
 70
     8
 71
     3
 72
     8
 73
     4
 74
     0
 42
0.0000000001
 43
0.0000000001
 40
0.0
 40
0.0
 40
0.0
 40
0.0
 40
80.0
 40
80.0
 40
80.0
 40
80.0
 10
433.1921903472284
 20
353.9718281187214
 30
0.0
 10
433.1702582323458
 20
354.1125591752734
 30
0.0
 10
433.1355323698378
 20
354.2002876348034
 30
0.0
 10
433.0880128015365
 20
354.2350134973114
 30
0.0
  0
SPLINE
  5
4EEE
330
1F
100
AcDbEntity
  8
AM_VIS
100
AcDbSpline
210
0.0
220
0.0
230
1.0
 70
     8
 71
     3
 72
     8
 73
     4
 74
     0
 42
0.0000000001
 43
0.0000000001
 40
0.0
 40
0.0
 40
0.0
 40
0.0
 40
80.0
 40
80.0
 40
80.0
 40
80.0
 10
433.0880128015365
 20
354.2350134973114
 30
0.0
 10
433.0404931914029
 20
354.2715670081715
 30
0.0
 10
432.9390571600713
 20
354.2898437845177
 30
0.0
 10
432.7837047075417
 20
354.2898437845177
 30
0.0
  0
LINE
  5
4EEF
330
1F
100
AcDbEntity
  8
AM_VIS
100
AcDbLine
 10
432.7837047075417
 20
354.2898437845177
 30
0.0
 11
432.3889266396565
 21
354.2898437845177
 31
0.0
  0
SPLINE
  5
4EF0
330
1F
100
AcDbEntity
  8
AM_VIS
100
AcDbSpline
210
0.0
220
0.0
230
1.0
 70
     8
 71
     3
 72
     8
 73
     4
 74
     0
 42
0.0000000001
 43
0.0000000001
 40
0.0
 40
0.0
 40
0.0
 40
0.0
 40
80.0
 40
80.0
 40
80.0
 40
80.0
 10
432.3889266396565
 20
354.2898437845177
 30
0.0
 10
432.3395793811709
 20
354.2898437845177
 30
0.0
 10
432.3121642375678
 20
354.2880160943334
 30
0.0
 10
432.3066812088471
 20
354.2843607557971
 30
0.0
  0
SPLINE
  5
4EF1
330
1F
100
AcDbEntity
  8
AM_VIS
100
AcDbSpline
210
0.0
220
0.0
230
1.0
 70
     8
 71
     3
 72
     8
 73
     4
 74
     0
 42
0.0000000001
 43
0.0000000001
 40
0.0
 40
0.0
 40
0.0
 40
0.0
 40
80.0
 40
80.0
 40
80.0
 40
80.0
 10
432.3066812088471
 20
354.2843607557971
 30
0.0
 10
432.288404432501
 20
354.2752223467078
 30
0.0
 10
432.279266065244
 20
354.2423241743841
 30
0.0
 10
432.279266065244
 20
354.1856662388257
 30
0.0
  0
LINE
  5
4EF2
330
1F
100
AcDbEntity
  8
AM_VIS
100
AcDbLine
 10
432.279266065244
 20
354.1856662388257
 30
0.0
 11
432.279266065244
 21
353.4810970482252
 31
0.0
  0
LINE
  5
4EF3
330
1F
100
AcDbEntity
  8
AM_VIS
100
AcDbLine
 10
432.279266065244
 20
353.4810970482252
 30
0.0
 11
432.7288744203354
 21
353.4810970482252
 31
0.0
  0
SPLINE
  5
4EF4
330
1F
100
AcDbEntity
  8
AM_VIS
100
AcDbSpline
210
0.0
220
0.0
230
1.0
 70
     8
 71
     3
 72
     8
 73
     4
 74
     0
 42
0.0000000001
 43
0.0000000001
 40
0.0
 40
0.0
 40
0.0
 40
0.0
 40
80.0
 40
80.0
 40
80.0
 40
80.0
 10
432.7288744203354
 20
353.4810970482252
 30
0.0
 10
432.8458456718205
 20
353.4810970482252
 30
0.0
 10
432.9235219399176
 20
353.5012014729235
 30
0.0
 10
432.9619031409619
 20
353.5414103641522
 30
0.0
  0
SPLINE
  5
4EF5
330
1F
100
AcDbEntity
  8
AM_VIS
100
AcDbSpline
210
0.0
220
0.0
230
1.0
 70
     8
 71
     3
 72
     8
 73
     4
 74
     0
 42
0.0000000001
 43
0.0000000001
 40
0.0
 40
0.0
 40
0.0
 40
0.0
 40
80.0
 40
80.0
 40
80.0
 40
80.0
 10
432.9619031409619
 20
353.5414103641522
 30
0.0
 10
432.9929736231015
 20
353.5743085364759
 30
0.0
 10
433.0167333863361
 20
353.6483294242044
 30
0.0
 10
433.0331825143302
 20
353.7634730273375
 30
0.0
  0
LINE
  5
4EF6
330
1F
100
AcDbEntity
  8
AM_VIS
100
AcDbLine
 10
433.0331825143302
 20
353.7634730273375
 30
0.0
 11
433.0907543158968
 21
353.7634730273375
 31
0.0
  0
LINE
  5
4EF7
330
1F
100
AcDbEntity
  8
AM_VIS
100
AcDbLine
 10
433.0907543158968
 20
353.7634730273375
 30
0.0
 11
433.0907543158968
 21
353.0808359516196
 31
0.0
  0
LINE
  5
4EF8
330
1F
100
AcDbEntity
  8
AM_VIS
100
AcDbLine
 10
433.0907543158968
 20
353.0808359516196
 30
0.0
 11
433.0331825143302
 21
353.0808359516196
 31
0.0
  0
SPLINE
  5
4EF9
330
1F
100
AcDbEntity
  8
AM_VIS
100
AcDbSpline
210
0.0
220
0.0
230
1.0
 70
     8
 71
     3
 72
     8
 73
     4
 74
     0
 42
0.0000000001
 43
0.0000000001
 40
0.0
 40
0.0
 40
0.0
 40
0.0
 40
80.0
 40
80.0
 40
80.0
 40
80.0
 10
433.0331825143302
 20
353.0808359516196
 30
0.0
 10
433.0167333863361
 20
353.2051179220096
 30
0.0
 10
432.9911459329173
 20
353.2837080142827
 30
0.0
 10
432.9564201122414
 20
353.3166061866064
 30
0.0
  0
SPLINE
  5
4EFA
330
1F
100
AcDbEntity
  8
AM_VIS
100
AcDbSpline
210
0.0
220
0.0
230
1.0
 70
     8
 71
     3
 72
     8
 73
     4
 74
     0
 42
0.0000000001
 43
0.0000000001
 40
0.0
 40
0.0
 40
0.0
 40
0.0
 40
80.0
 40
80.0
 40
80.0
 40
80.0
 10
432.9564201122414
 20
353.3166061866064
 30
0.0
 10
432.919866559549
 20
353.3513320072823
 30
0.0
 10
432.8440179816364
 20
353.3686949594524
 30
0.0
 10
432.7288744203354
 20
353.3686949594524
 30
0.0
  0
LINE
  5
4EFB
330
1F
100
AcDbEntity
  8
AM_VIS
100
AcDbLine
 10
432.7288744203354
 20
353.3686949594524
 30
0.0
 11
432.279266065244
 21
353.3686949594524
 31
0.0
  0
LINE
  5
4EFC
330
1F
100
AcDbEntity
  8
AM_VIS
100
AcDbLine
 10
432.279266065244
 20
353.3686949594524
 30
0.0
 11
432.279266065244
 21
352.6065539672853
 31
0.0
  0
SPLINE
  5
4EFD
330
1F
100
AcDbEntity
  8
AM_VIS
100
AcDbSpline
210
0.0
220
0.0
230
1.0
 70
     8
 71
     3
 72
     8
 73
     4
 74
     0
 42
0.0000000001
 43
0.0000000001
 40
0.0
 40
0.0
 40
0.0
 40
0.0
 40
80.0
 40
80.0
 40
80.0
 40
80.0
 10
432.279266065244
 20
352.6065539672853
 30
0.0
 10
432.279266065244
 20
352.5407576226379
 30
0.0
 10
432.3030258284786
 20
352.4987210830571
 30
0.0
 10
432.3505454386122
 20
352.4804443067109
 30
0.0
  0
SPLINE
  5
4EFE
330
1F
100
AcDbEntity
  8
AM_VIS
100
AcDbSpline
210
0.0
220
0.0
230
1.0
 70
     8
 71
     3
 72
     8
 73
     4
 74
     0
 42
0.0000000001
 43
0.0000000001
 40
0.0
 40
0.0
 40
0.0
 40
0.0
 40
80.0
 40
80.0
 40
80.0
 40
80.0
 10
432.3505454386122
 20
352.4804443067109
 30
0.0
 10
432.3962373167293
 20
352.4658229107333
 30
0.0
 10
432.5241746674879
 20
352.4585121918283
 30
0.0
 10
432.7343574490559
 20
352.4585121918283
 30
0.0
  0
SPLINE
  5
4EFF
330
1F
100
AcDbEntity
  8
AM_VIS
100
AcDbSpline
210
0.0
220
0.0
230
1.0
 70
     8
 71
     3
 72
     8
 73
     4
 74
     0
 42
0.0000000001
 43
0.0000000001
 40
0.0
 40
0.0
 40
0.0
 40
0.0
 40
80.0
 40
80.0
 40
80.0
 40
80.0
 10
432.7343574490559
 20
352.4585121918283
 30
0.0
 10
432.9043313393953
 20
352.4585121918283
 30
0.0
 10
433.0286133097856
 20
352.4859273354315
 30
0.0
 10
433.1072034020586
 20
352.5407576226379
 30
0.0
  0
SPLINE
  5
4F00
330
1F
100
AcDbEntity
  8
AM_VIS
100
AcDbSpline
210
0.0
220
0.0
230
1.0
 70
     8
 71
     3
 72
     8
 73
     4
 74
     0
 42
0.0000000001
 43
0.0000000001
 40
0.0
 40
0.0
 40
0.0
 40
0.0
 40
80.0
 40
80.0
 40
80.0
 40
80.0
 10
433.1072034020586
 20
352.5407576226379
 30
0.0
 10
433.1857934524995
 20
352.595587909844
 30
0.0
 10
433.2570728258676
 20
352.701593103888
 30
0.0
 10
433.3210415221631
 20
352.8587732884342
 30
0.0
  0
LINE
  5
4F01
330
1F
100
AcDbEntity
  8
AM_VIS
100
AcDbLine
 10
433.3210415221631
 20
352.8587732884342
 30
0.0
 11
433.3786133237297
 21
352.8587732884342
 31
0.0
  0
LINE
  5
4F02
330
1F
100
AcDbEntity
  8
AM_VIS
100
AcDbLine
 10
430.4520467440952
 20
345.6796610168937
 30
0.0
 11
430.4520467440952
 21
327.5148678710769
 31
0.0
  0
LINE
  5
4F03
330
1F
100
AcDbEntity
  8
AM_VIS
100
AcDbLine
 10
430.4520467440952
 20
325.035660826906
 30
0.0
 11
430.4520467440952
 21
314.9887152217968
 31
0.0
  0
LINE
  5
4F04
330
1F
100
AcDbEntity
  8
AM_VIS
100
AcDbLine
 10
434.0520467440951
 20
345.6796610168937
 30
0.0
 11
434.0520467440951
 21
324.8072924346252
 31
0.0
  0
LINE
  5
4F05
330
1F
100
AcDbEntity
  8
AM_VIS
100
AcDbLine
 10
434.0520467440951
 20
322.3280853904544
 30
0.0
 11
434.0520467440951
 21
314.9887152217968
 31
0.0
  0
LINE
  5
4F06
330
1F
100
AcDbEntity
  8
AM_VIS
100
AcDbLine
 10
430.2520519922167
 20
307.4887152217967
 30
0.0
 11
430.2520519922167
 21
305.9887152217966
 31
0.0
  0
LINE
  5
4F07
330
1F
100
AcDbEntity
  8
AM_VIS
100
AcDbLine
 10
434.2520414959735
 20
307.4887152217967
 30
0.0
 11
434.2520414959735
 21
305.9887152217966
 31
0.0
  0
LINE
  5
4F08
330
1F
100
AcDbEntity
  8
AM_VIS
100
AcDbLine
 10
428.0850808165532
 20
308.9887152217969
 30
0.0
 11
427.9184141498866
 21
307.4887152217967
 31
0.0
  0
LINE
  5
4F09
330
1F
100
AcDbEntity
  8
AM_VIS
100
AcDbLine
 10
436.4190126716371
 20
308.9887152217969
 30
0.0
 11
436.5856793383037
 21
307.4887152217967
 31
0.0
  0
LINE
  5
4F0A
330
1F
100
AcDbEntity
  8
AM_VIS
100
AcDbLine
 10
430.2520519922167
 20
310.4887152217967
 30
0.0
 11
430.2520519922167
 21
308.9887152217969
 31
0.0
  0
LINE
  5
4F0B
330
1F
100
AcDbEntity
  8
AM_VIS
100
AcDbLine
 10
434.2520414959735
 20
310.4887152217967
 30
0.0
 11
434.2520414959735
 21
308.9887152217969
 31
0.0
  0
LINE
  5
4F0C
330
1F
100
AcDbEntity
  8
AM_VIS
100
AcDbLine
 10
428.4184141498863
 20
311.9887152217964
 30
0.0
 11
428.2517474832197
 21
310.4887152217967
 31
0.0
  0
LINE
  5
4F0D
330
1F
100
AcDbEntity
  8
AM_VIS
100
AcDbLine
 10
436.085679338304
 20
311.9887152217964
 30
0.0
 11
436.2523460049706
 21
310.4887152217967
 31
0.0
  0
LINE
  5
4F0E
330
1F
100
AcDbEntity
  8
AM_VIS
100
AcDbLine
 10
430.2520519922167
 20
313.4887152217966
 30
0.0
 11
430.2520519922167
 21
311.9887152217964
 31
0.0
  0
LINE
  5
4F0F
330
1F
100
AcDbEntity
  8
AM_VIS
100
AcDbLine
 10
434.2520414959735
 20
313.4887152217966
 30
0.0
 11
434.2520414959735
 21
311.9887152217964
 31
0.0
  0
LINE
  5
4F10
330
1F
100
AcDbEntity
  8
AM_VIS
100
AcDbLine
 10
428.7517474832196
 20
314.9887152217968
 30
0.0
 11
428.585080816553
 21
313.4887152217966
 31
0.0
  0
LINE
  5
4F11
330
1F
100
AcDbEntity
  8
AM_VIS
100
AcDbLine
 10
435.7523460049707
 20
314.9887152217968
 30
0.0
 11
435.9190126716373
 21
313.4887152217966
 31
0.0
  0
LINE
  5
4F12
330
1F
100
AcDbEntity
  8
AM_VIS
100
AcDbLine
 10
435.6273460049704
 20
283.9887152217968
 30
0.0
 11
435.9273460049706
 21
285.9887152217964
 31
0.0
  0
LINE
  5
4F13
330
1F
100
AcDbEntity
  8
AM_VIS
100
AcDbLine
 10
428.8767474832197
 20
283.9887152217968
 30
0.0
 11
428.5767474832197
 21
285.9887152217964
 31
0.0
  0
LINE
  5
4F14
330
1F
100
AcDbEntity
  8
AM_VIS
100
AcDbLine
 10
428.6267474832198
 20
289.9887152217967
 30
0.0
 11
428.6267474832198
 21
285.9887152217964
 31
0.0
  0
LINE
  5
4F15
330
1F
100
AcDbEntity
  8
AM_VIS
100
AcDbLine
 10
435.8773460049706
 20
289.9887152217967
 30
0.0
 11
435.8773460049706
 21
285.9887152217964
 31
0.0
  0
LINE
  5
4F16
330
1F
100
AcDbEntity
  8
AM_VIS
100
AcDbLine
 10
427.7517474832197
 20
305.9887152217966
 30
0.0
 11
427.7517474832197
 21
289.9887152217967
 31
0.0
  0
LINE
  5
4F17
330
1F
100
AcDbEntity
  8
AM_VIS
100
AcDbLine
 10
436.7523460049707
 20
305.9887152217966
 30
0.0
 11
436.7523460049707
 21
289.9887152217967
 31
0.0
  0
ARC
  5
4F18
330
1F
100
AcDbEntity
  8
AM_VIS
100
AcDbCircle
 10
425.5520467440951
 20
353.9296610168937
 30
0.0
 40
1.0
100
AcDbArc
 50
0.0
 51
90.0
  0
ARC
  5
4F19
330
1F
100
AcDbEntity
  8
AM_VIS
100
AcDbCircle
 10
421.9520467440952
 20
353.9296610168937
 30
0.0
 40
1.0
100
AcDbArc
 50
90.0
 51
180.0
  0
ARC
  5
4F1A
330
1F
100
AcDbEntity
  8
AM_VIS
100
AcDbCircle
 10
421.9520467440952
 20
352.9296610168937
 30
0.0
 40
1.0
100
AcDbArc
 50
180.0
 51
270.0
  0
ARC
  5
4F1B
330
1F
100
AcDbEntity
  8
AM_VIS
100
AcDbCircle
 10
425.5520467440951
 20
352.9296610168937
 30
0.0
 40
1.0
100
AcDbArc
 50
270.0
 51
0.0
  0
ARC
  5
4F1C
330
1F
100
AcDbEntity
  8
AM_VIS
100
AcDbCircle
 10
443.5520467440951
 20
353.9296610168937
 30
0.0
 40
1.0
100
AcDbArc
 50
0.0
 51
90.0
  0
ARC
  5
4F1D
330
1F
100
AcDbEntity
  8
AM_VIS
100
AcDbCircle
 10
439.9520467440952
 20
353.9296610168937
 30
0.0
 40
1.0
100
AcDbArc
 50
90.0
 51
180.0
  0
ARC
  5
4F1E
330
1F
100
AcDbEntity
  8
AM_VIS
100
AcDbCircle
 10
439.9520467440952
 20
352.9296610168937
 30
0.0
 40
1.0
100
AcDbArc
 50
180.0
 51
270.0
  0
ARC
  5
4F1F
330
1F
100
AcDbEntity
  8
AM_VIS
100
AcDbCircle
 10
443.5520467440951
 20
352.9296610168937
 30
0.0
 40
1.0
100
AcDbArc
 50
270.0
 51
0.0
  0
ARC
  5
4F20
330
1F
100
AcDbEntity
  8
AM_VIS
100
AcDbCircle
 10
434.5520467440951
 20
353.9296610168937
 30
0.0
 40
1.0
100
AcDbArc
 50
0.0
 51
90.0
  0
ARC
  5
4F21
330
1F
100
AcDbEntity
  8
AM_VIS
100
AcDbCircle
 10
430.9520467440952
 20
353.9296610168937
 30
0.0
 40
1.0
100
AcDbArc
 50
90.0
 51
180.0
  0
ARC
  5
4F22
330
1F
100
AcDbEntity
  8
AM_VIS
100
AcDbCircle
 10
430.9520467440952
 20
352.9296610168937
 30
0.0
 40
1.0
100
AcDbArc
 50
180.0
 51
270.0
  0
ARC
  5
4F23
330
1F
100
AcDbEntity
  8
AM_VIS
100
AcDbCircle
 10
434.5520467440951
 20
352.9296610168937
 30
0.0
 40
1.0
100
AcDbArc
 50
270.0
 51
0.0
  0
LINE
  5
4F24
330
1F
100
AcDbEntity
  8
AM_VIS
100
AcDbLine
 10
427.9184141498866
 20
307.4887152217967
 30
0.0
 11
436.5856793383037
 21
307.4887152217967
 31
0.0
  0
LINE
  5
4F25
330
1F
100
AcDbEntity
  8
AM_VIS
100
AcDbLine
 10
428.0850808165532
 20
308.9887152217969
 30
0.0
 11
436.4190126716371
 21
308.9887152217969
 31
0.0
  0
LINE
  5
4F26
330
1F
100
AcDbEntity
  8
AM_VIS
100
AcDbLine
 10
428.2517474832197
 20
310.4887152217967
 30
0.0
 11
436.2523460049706
 21
310.4887152217967
 31
0.0
  0
LINE
  5
4F27
330
1F
100
AcDbEntity
  8
AM_VIS
100
AcDbLine
 10
428.4184141498863
 20
311.9887152217964
 30
0.0
 11
436.085679338304
 21
311.9887152217964
 31
0.0
  0
LINE
  5
4F28
330
1F
100
AcDbEntity
  8
AM_VIS
100
AcDbLine
 10
428.585080816553
 20
313.4887152217966
 30
0.0
 11
435.9190126716373
 21
313.4887152217966
 31
0.0
  0
LINE
  5
4F29
330
1F
100
AcDbEntity
  8
AM_VIS
100
AcDbLine
 10
428.8767474832197
 20
283.9887152217968
 30
0.0
 11
435.6273460049705
 21
283.9887152217968
 31
0.0
  0
LINE
  5
4F2A
330
1F
100
AcDbEntity
  8
AM_VIS
100
AcDbLine
 10
428.5767474832197
 20
285.9887152217964
 30
0.0
 11
435.9273460049706
 21
285.9887152217964
 31
0.0
  0
LINE
  5
4F2B
330
1F
100
AcDbEntity
  8
AM_VIS
100
AcDbLine
 10
427.7517474832197
 20
305.9887152217966
 30
0.0
 11
436.7523460049707
 21
305.9887152217966
 31
0.0
  0
LINE
  5
4F2C
330
1F
100
AcDbEntity
  8
AM_VIS
100
AcDbLine
 10
427.7517474832197
 20
289.9887152217967
 30
0.0
 11
436.7523460049707
 21
289.9887152217967
 31
0.0
  0
LINE
  5
4F2D
330
1F
100
AcDbEntity
  8
AM_VIS
100
AcDbLine
 10
428.7517474832196
 20
314.9887152217968
 30
0.0
 11
435.7523460049707
 21
314.9887152217968
 31
0.0
  0
LINE
  5
4F2E
330
1F
100
AcDbEntity
  8
AM_VIS
100
AcDbLine
 10
427.4520467440952
 20
329.7711807347864
 30
0.0
 11
437.0520467440951
 21
322.5509795709157
 31
0.0
  0
LINE
  5
4F2F
330
1F
100
AcDbEntity
  8
AM_VIS
100
AcDbLine
 10
427.4520467440952
 20
327.2919736906155
 30
0.0
 11
437.0520467440951
 21
320.0717725267448
 31
0.0
  0
LINE
  5
4F30
330
1F
100
AcDbEntity
  8
AM_VIS
100
AcDbLine
 10
494.667925571117
 20
329.7711807347864
 30
0.0
 11
504.2679255711171
 21
322.5509795709157
 31
0.0
  0
LINE
  5
4F31
330
1F
100
AcDbEntity
  8
AM_VIS
100
AcDbLine
 10
494.667925571117
 20
327.2919736906155
 30
0.0
 11
504.2679255711171
 21
320.0717725267448
 31
0.0
  0
LINE
  5
4F32
330
1F
100
AcDbEntity
  8
AM_VIS
100
AcDbLine
 10
445.7520467440952
 20
349.6796610168937
 30
0.0
 11
418.7520467440951
 21
349.6796610168937
 31
0.0
  0
LINE
  5
4F33
330
1F
100
AcDbEntity
  8
AM_VIS
100
AcDbLine
 10
419.7520467440951
 20
356.6796610168937
 30
0.0
 11
419.7520467440951
 21
375.6796610168937
 31
0.0
  0
LINE
  5
4F34
330
1F
100
AcDbEntity
  8
AM_VIS
100
AcDbLine
 10
419.7520467440951
 20
375.6796610168937
 30
0.0
 11
444.7520467440951
 21
375.6796610168937
 31
0.0
  0
LINE
  5
4F35
330
1F
100
AcDbEntity
  8
AM_VIS
100
AcDbLine
 10
444.7520467440951
 20
375.6796610168937
 30
0.0
 11
444.7520467440951
 21
356.6796610168937
 31
0.0
  0
LINE
  5
4F36
330
1F
100
AcDbEntity
  8
AM_VIS
100
AcDbLine
 10
444.7520467440951
 20
356.6796610168937
 30
0.0
 11
419.7520467440951
 21
356.6796610168937
 31
0.0
  0
LINE
  5
4F37
330
1F
100
AcDbEntity
  8
AM_VIS
100
AcDbLine
 10
418.7520467440951
 20
379.6796610168937
 30
0.0
 11
445.7520467440952
 21
379.6796610168937
 31
0.0
  0
LINE
  5
4F38
330
1F
100
AcDbEntity
  8
AM_VIS
100
AcDbLine
 10
447.2520467440951
 20
378.1796610168937
 30
0.0
 11
447.2520467440951
 21
351.1796610168937
 31
0.0
  0
LINE
  5
4F39
330
1F
100
AcDbEntity
  8
AM_VIS
100
AcDbLine
 10
417.2520467440952
 20
351.1796610168937
 30
0.0
 11
417.2520467440952
 21
378.1796610168937
 31
0.0
  0
LINE
  5
4F3A
330
1F
100
AcDbEntity
  8
AM_VIS
100
AcDbLine
 10
429.2520467440952
 20
349.6796610168937
 30
0.0
 11
429.2520467440952
 21
345.6796610168937
 31
0.0
  0
LINE
  5
4F3B
330
1F
100
AcDbEntity
  8
AM_VIS
100
AcDbLine
 10
435.2520467440951
 20
349.6796610168937
 30
0.0
 11
435.2520467440951
 21
345.6796610168937
 31
0.0
  0
LINE
  5
4F3C
330
1F
100
AcDbEntity
  8
AM_VIS
100
AcDbLine
 10
435.2520467440951
 20
345.6796610168937
 30
0.0
 11
429.2520467440952
 21
345.6796610168937
 31
0.0
  0
ARC
  5
4F3D
330
1F
100
AcDbEntity
  8
AM_VIS
100
AcDbCircle
 10
418.7520467440951
 20
378.1796610168937
 30
0.0
 40
1.5
100
AcDbArc
 50
90.0
 51
180.0
  0
ARC
  5
4F3E
330
1F
100
AcDbEntity
  8
AM_VIS
100
AcDbCircle
 10
445.7520467440952
 20
378.1796610168937
 30
0.0
 40
1.5
100
AcDbArc
 50
0.0
 51
90.0
  0
ARC
  5
4F3F
330
1F
100
AcDbEntity
  8
AM_VIS
100
AcDbCircle
 10
445.7520467440952
 20
351.1796610168937
 30
0.0
 40
1.5
100
AcDbArc
 50
270.0
 51
0.0
  0
ARC
  5
4F40
330
1F
100
AcDbEntity
  8
AM_VIS
100
AcDbCircle
 10
418.7520467440951
 20
351.1796610168937
 30
0.0
 40
1.5
100
AcDbArc
 50
180.0
 51
270.0
  0
LINE
  5
4F41
330
1F
100
AcDbEntity
  8
AM_VIS
100
AcDbLine
 10
507.4679255711171
 20
379.6796610168937
 30
0.0
 11
504.4679255711171
 21
379.6796610168937
 31
0.0
  0
LINE
  5
4F42
330
1F
100
AcDbEntity
  8
AM_VIS
100
AcDbLine
 10
505.167925571117
 20
358.3796610168936
 30
0.0
 11
505.167925571117
 21
370.9796610168937
 31
0.0
  0
LINE
  5
4F43
330
1F
100
AcDbEntity
  8
AM_VIS
100
AcDbLine
 10
506.767925571117
 20
370.9796610168938
 30
0.0
 11
506.767925571117
 21
358.3796610168938
 31
0.0
  0
LINE
  5
4F44
330
1F
100
AcDbEntity
  8
AM_VIS
100
AcDbLine
 10
507.4679255711171
 20
351.6796610168937
 30
0.0
 11
507.4679255711171
 21
377.6796610168937
 31
0.0
  0
LINE
  5
4F45
330
1F
100
AcDbEntity
  8
AM_VIS
100
AcDbLine
 10
504.4679255711171
 20
349.6796610168937
 30
0.0
 11
507.4679255711171
 21
349.6796610168937
 31
0.0
  0
LINE
  5
4F46
102
{ACAD_REACTORS
330
4F66
102
}
330
1F
100
AcDbEntity
  8
AM_VIS
100
AcDbLine
 10
507.7679255711171
 20
351.1796610168937
 30
0.0
 11
520.9679255711171
 21
351.1796610168937
 31
0.0
  0
LINE
  5
4F47
330
1F
100
AcDbEntity
  8
AM_VIS
100
AcDbLine
 10
520.9679255711171
 20
377.1796610168937
 30
0.0
 11
520.9679255711171
 21
352.1796610168937
 31
0.0
  0
LINE
  5
4F48
102
{ACAD_REACTORS
330
4F66
102
}
330
1F
100
AcDbEntity
  8
AM_VIS
100
AcDbLine
 10
520.9679255711171
 20
378.1796610168937
 30
0.0
 11
507.7679255711171
 21
378.1796610168937
 31
0.0
  0
LINE
  5
4F49
330
1F
100
AcDbEntity
  8
AM_VIS
100
AcDbLine
 10
504.4679255711171
 20
377.6796610168937
 30
0.0
 11
504.4679255711171
 21
351.6796610168937
 31
0.0
  0
ARC
  5
4F4A
330
1F
100
AcDbEntity
  8
AM_VIS
100
AcDbCircle
 10
505.9679255711171
 20
358.3796610168938
 30
0.0
 40
0.8
100
AcDbArc
 50
0.0
 51
180.0
  0
ARC
  5
4F4B
330
1F
100
AcDbEntity
  8
AM_VIS
100
AcDbCircle
 10
505.9679255711171
 20
370.9796610168937
 30
0.0
 40
0.8
100
AcDbArc
 50
180.0
 51
0.0
  0
LINE
  5
4F4C
330
1F
100
AcDbEntity
  8
AM_VIS
100
AcDbLine
 10
507.4679255711171
 20
379.6796610168937
 30
0.0
 11
507.4679255711171
 21
377.6796610168937
 31
0.0
  0
ARC
  5
4F4D
330
1F
100
AcDbEntity
  8
AM_VIS
100
AcDbCircle
 10
505.9679255711171
 20
370.9796610168937
 30
0.0
 40
0.8
100
AcDbArc
 50
0.0
 51
180.0
  0
ARC
  5
4F4E
330
1F
100
AcDbEntity
  8
AM_VIS
100
AcDbCircle
 10
505.9679255711171
 20
358.3796610168938
 30
0.0
 40
0.8
100
AcDbArc
 50
180.0
 51
0.0
  0
LINE
  5
4F4F
330
1F
100
AcDbEntity
  8
AM_VIS
100
AcDbLine
 10
507.4679255711171
 20
351.6796610168937
 30
0.0
 11
507.4679255711171
 21
349.6796610168937
 31
0.0
  0
LINE
  5
4F50
330
1F
100
AcDbEntity
  8
AM_VIS
100
AcDbLine
 10
520.9679255711171
 20
352.1796610168937
 30
0.0
 11
520.9679255711171
 21
351.1796610168937
 31
0.0
  0
LINE
  5
4F51
102
{ACAD_REACTORS
330
4F62
102
}
330
1F
100
AcDbEntity
  8
AM_VIS
100
AcDbLine
 10
520.9679255711171
 20
378.1796610168937
 30
0.0
 11
520.9679255711171
 21
377.1796610168937
 31
0.0
  0
ARC
  5
4F52
330
1F
100
AcDbEntity
  8
AM_VIS
100
AcDbCircle
 10
507.7679255711171
 20
378.4796610168937
 30
0.0
 40
0.3000000000000007
100
AcDbArc
 50
180.0
 51
270.0
  0
ARC
  5
4F53
330
1F
100
AcDbEntity
  8
AM_VIS
100
AcDbCircle
 10
507.7679255711171
 20
350.8796610168937
 30
0.0
 40
0.3000000000000007
100
AcDbArc
 50
90.0
 51
180.0
  0
LINE
  5
4F54
330
1F
100
AcDbEntity
  8
AM_VIS
100
AcDbLine
 10
504.4679255711171
 20
379.6796610168937
 30
0.0
 11
486.967925571117
 21
379.6796610168937
 31
0.0
  0
ARC
  5
4F55
330
1F
100
AcDbEntity
  8
AM_VIS
100
AcDbCircle
 10
486.967925571117
 20
378.1796610168937
 30
0.0
 40
1.5
100
AcDbArc
 50
90.0
 51
180.0
  0
LINE
  5
4F56
102
{ACAD_REACTORS
330
4F62
102
}
330
1F
100
AcDbEntity
  8
AM_VIS
100
AcDbLine
 10
485.4679255711171
 20
378.1796610168937
 30
0.0
 11
485.4679255711171
 21
351.1796610168937
 31
0.0
  0
LINE
  5
4F57
330
1F
100
AcDbEntity
  8
AM_VIS
100
AcDbLine
 10
504.4679255711171
 20
378.1796610168937
 30
0.0
 11
504.4679255711171
 21
351.1796610168937
 31
0.0
  0
LINE
  5
4F58
330
1F
100
AcDbEntity
  8
AM_VIS
100
AcDbLine
 10
486.967925571117
 20
349.6796610168937
 30
0.0
 11
504.4679255711171
 21
349.6796610168937
 31
0.0
  0
ARC
  5
4F59
330
1F
100
AcDbEntity
  8
AM_VIS
100
AcDbCircle
 10
486.967925571117
 20
351.1796610168937
 30
0.0
 40
1.5
100
AcDbArc
 50
180.0
 51
270.0
  0
LINE
  5
4F5A
330
1F
100
AcDbEntity
  8
AM_VIS
100
AcDbLine
 10
496.4679255711171
 20
349.6796610168937
 30
0.0
 11
496.4679255711171
 21
345.6796610168937
 31
0.0
  0
LINE
  5
4F5B
330
1F
100
AcDbEntity
  8
AM_VIS
100
AcDbLine
 10
502.4679255711171
 20
349.6796610168937
 30
0.0
 11
502.4679255711171
 21
345.6796610168937
 31
0.0
  0
LINE
  5
4F5C
330
1F
100
AcDbEntity
  8
AM_VIS
100
AcDbLine
 10
502.4679255711171
 20
345.6796610168937
 30
0.0
 11
496.4679255711171
 21
345.6796610168937
 31
0.0
  0
LINE
  5
4F5D
330
1F
100
AcDbEntity
  8
AM_VIS
100
AcDbLine
 10
504.4679255711171
 20
379.6796610168937
 30
0.0
 11
504.4679255711171
 21
378.1796610168937
 31
0.0
  0
LINE
  5
4F5E
330
1F
100
AcDbEntity
  8
AM_VIS
100
AcDbLine
 10
504.4679255711171
 20
351.1796610168937
 30
0.0
 11
504.4679255711171
 21
349.6796610168937
 31
0.0
  0
LINE
  5
4F5F
330
1F
100
AcDbEntity
  8
AM_VIS
100
AcDbLine
 10
485.467925571117
 20
351.1796610168937
 30
0.0
 11
485.4679255711171
 21
351.1796610168937
 31
0.0
  0
DIMENSION
  5
4F60
102
{ACAD_XDICTIONARY
360
4F61
102
}
102
{ACAD_REACTORS
330
4F62
102
}
330
1F
100
AcDbEntity
  8
AM_REFDIM
100
AcDbDimension
  2
*D39
 10
520.9679255711171
 20
390.1796610168937
 30
0.0
 11
503.2179255711171
 21
394.3046610168937
 31
0.0
 70
    32
 71
     5
 42
35.5
  3
AM_ISO$0
100
AcDbAlignedDimension
 13
485.4679255711171
 23
378.1796610168937
 33
0.0
 14
520.9679255711171
 24
378.1796610168937
 34
0.0
100
AcDbRotatedDimension
1001
ACAD
1000
DSTYLE
1002
{
1070
    41
1040
4.0
1070
    43
1040
10.0
1070
   140
1040
3.5
1070
   285
1070
     0
1002
}
  0
DIMENSION
  5
4F63
330
1F
100
AcDbEntity
  8
AM_REFDIM
100
AcDbDimension
  2
*D38
 10
534.5698919084845
 20
358.3796610168938
 30
0.0
 11
534.5698919084843
 21
364.6796610168938
 31
0.0
 70
   160
 71
     5
 42
12.59999999999991
  3
AM_ISO$0
100
AcDbAlignedDimension
 13
505.9679255711171
 23
370.9796610168937
 33
0.0
 14
505.9679255711171
 24
358.3796610168938
 34
0.0
 50
90.0
100
AcDbRotatedDimension
1001
ACAD
1000
DSTYLE
1002
{
1070
    41
1040
4.0
1070
    43
1040
10.0
1070
   140
1040
3.5
1070
   285
1070
     0
1002
}
  0
DIMENSION
  5
4F64
102
{ACAD_XDICTIONARY
360
4F65
102
}
102
{ACAD_REACTORS
330
4F66
102
}
330
1F
100
AcDbEntity
  8
AM_REFDIM
100
AcDbDimension
  2
*D40
 10
547.8543223842962
 20
378.1796610168937
 30
0.0
 11
547.8543223842962
 21
364.6796610168939
 31
0.0
 70
   160
 71
     5
 42
27.0
  3
AM_ISO$0
100
AcDbAlignedDimension
 13
520.9679255711171
 23
351.1796610168937
 33
0.0
 14
520.9679255711171
 24
378.1796610168937
 34
0.0
 50
90.0
100
AcDbRotatedDimension
1001
ACAD
1000
DSTYLE
1002
{
1070
    41
1040
4.0
1070
    43
1040
10.0
1070
   140
1040
3.5
1070
   285
1070
     0
1002
}
  0
LINE
  5
4F67
330
1F
100
AcDbEntity
  8
AM_VIS
100
AcDbLine
 10
484.4679255711169
 20
354.9296610168937
 30
0.0
 11
485.4679255711171
 21
354.9296610168937
 31
0.0
  0
LINE
  5
4F68
330
1F
100
AcDbEntity
  8
AM_VIS
100
AcDbLine
 10
484.4679255711169
 20
351.9296610168937
 30
0.0
 11
485.4679255711171
 21
351.9296610168937
 31
0.0
  0
LINE
  5
4F69
330
1F
100
AcDbEntity
  8
AM_VIS
100
AcDbLine
 10
484.4679255711169
 20
354.9296610168937
 30
0.0
 11
484.4679255711171
 21
351.9296610168937
 31
0.0
  0
ENDSEC
  0
SECTION
  2
OBJECTS
  0
DICTIONARY
  5
C
330
0
100
AcDbDictionary
281
     1
  3
ACAD_COLOR
350
BE
  3
ACAD_GROUP
350
D
  3
ACAD_LAYOUT
350
1A
  3
ACAD_MATERIAL
350
BD
  3
ACAD_MLINESTYLE
350
17
  3
ACAD_PLOTSETTINGS
350
19
  3
ACAD_PLOTSTYLENAME
350
E
  3
ACAD_TABLESTYLE
350
11A
  3
ACDBHEADERROUNDTRIPXREC
350
5203
  3
AcDbVariableDictionary
350
94
  3
AcmDictionary
350
5B
  3
AMG
350
41
  3
AMGSNAPSETTINGS
350
1B8
  3
DWGPROPS
350
5202
  3
MAPISURF_MODULE
350
3A15
  0
DICTIONARY
  5
3F9
330
2
100
AcDbDictionary
280
     1
281
     1
  3
ACAD_LAYERFILTERS
360
481C
  3
ACAD_LAYERSTATES
360
AD2
  3
ACLYDICTIONARY
360
481B
  0
DICTIONARY
  5
8F
330
1F
100
AcDbDictionary
280
     1
281
     1
  3
ACAD_INDEX
360
49E1
  0
DICTIONARY
  5
42A4
330
42A2
100
AcDbDictionary
280
     1
281
     1
  0
DICTIONARY
  5
4F61
330
4F60
100
AcDbDictionary
280
     1
281
     1
  3
ACAD_DIMASSOC
360
4F62
  0
DICTIONARY
  5
4F65
330
4F64
100
AcDbDictionary
280
     1
281
     1
  3
ACAD_DIMASSOC
360
4F66
  0
DICTIONARY
  5
BE
102
{ACAD_REACTORS
330
C
102
}
330
C
100
AcDbDictionary
281
     1
  0
DICTIONARY
  5
D
102
{ACAD_REACTORS
330
C
102
}
330
C
100
AcDbDictionary
281
     1
  0
DICTIONARY
  5
1A
102
{ACAD_REACTORS
330
C
102
}
330
C
100
AcDbDictionary
281
     1
  3
Model
350
22
  3
配置1
350
1E
  3
配置2
350
26
  0
DICTIONARY
  5
BD
102
{ACAD_REACTORS
330
C
102
}
330
C
100
AcDbDictionary
281
     1
  0
DICTIONARY
  5
17
102
{ACAD_REACTORS
330
C
102
}
330
C
100
AcDbDictionary
281
     1
  3
Standard
350
18
  0
DICTIONARY
  5
19
102
{ACAD_REACTORS
330
C
102
}
330
C
100
AcDbDictionary
281
     1
  0
ACDBDICTIONARYWDFLT
  5
E
102
{ACAD_REACTORS
330
C
102
}
330
C
100
AcDbDictionary
281
     1
  3
Normal
350
F
100
AcDbDictionaryWithDefault
340
F
  0
DICTIONARY
  5
11A
102
{ACAD_REACTORS
330
C
102
}
330
C
100
AcDbDictionary
281
     1
  3
Standard
350
11B
  0
DICTIONARY
  5
5203
102
{ACAD_REACTORS
330
C
102
}
330
C
100
AcDbDictionary
281
     1
  0
DICTIONARY
  5
94
102
{ACAD_REACTORS
330
C
102
}
330
C
100
AcDbDictionary
281
     1
  3
CTABLESTYLE
350
138
  3
DIMASSOC
350
96
  3
INDEXCTL
350
95
  3
PROJECTNAME
350
1B44
  0
DICTIONARY
  5
5B
102
{ACAD_REACTORS
330
C
102
}
330
C
100
AcDbDictionary
281
     1
  3
AcmBOM
350
1B5
  3
AcmStdDictionary
350
61
  3
AMDTSECTSYM_ARROWCOLOR
350
123
  0
DICTIONARY
  5
41
102
{ACAD_REACTORS
330
C
102
}
330
C
100
AcDbDictionary
281
     1
  3
AcMgSettings
350
398F
  0
DICTIONARY
  5
1B8
102
{ACAD_REACTORS
330
C
102
}
330
C
100
AcDbDictionary
281
     1
  0
XRECORD
  5
5202
102
{ACAD_REACTORS
330
C
102
}
330
C
100
AcDbXrecord
280
     1
  1
DWGPROPS COOKIE
  2

  3

  4

  6

  7

  8

  9

300
AmdtFileType=84
301
=
302
=
303
=
304
=
305
=
306
=
307
=
308
=
309
=
 40
0.1280158796296296
 41
2454392.703168762
 42
2456140.452393658
  1

 90
        1
  0
DICTIONARY
  5
481C
102
{ACAD_REACTORS
330
3F9
102
}
330
3F9
100
AcDbDictionary
281
     1
  0
DICTIONARY
  5
AD2
102
{ACAD_REACTORS
330
3F9
102
}
330
3F9
100
AcDbDictionary
281
     1
  0
DICTIONARY
  5
481B
102
{ACAD_REACTORS
330
3F9
102
}
330
3F9
100
AcDbDictionary
281
     1
1001
ACAD
1000
<All
  0
DICTIONARY
  5
49E1
102
{ACAD_REACTORS
330
8F
102
}
330
8F
100
AcDbDictionary
281
     1
  3
*A1
350
49E2
  0
DIMASSOC
  5
4F62
102
{ACAD_REACTORS
330
4F61
102
}
330
4F61
100
AcDbDimAssoc
330
4F60
 90
        3
 70
     0
 71
     0
  1
AcDbOsnapPointRef
 72
    13
331
4F56
 73
     0
 91
        0
 40
0.0
 10
0.0
 20
0.0
 30
2.000000000000000E+50
 75
     0
  1
AcDbOsnapPointRef
 72
    13
331
4F51
 73
     0
 91
        0
 40
0.0
 10
0.0
 20
0.0
 30
2.000000000000000E+50
 75
     0
  0
DIMASSOC
  5
4F66
102
{ACAD_REACTORS
330
4F65
102
}
330
4F65
100
AcDbDimAssoc
330
4F64
 90
        3
 70
     0
 71
     0
  1
AcDbOsnapPointRef
 72
     1
331
4F46
 73
     0
 91
        0
 40
0.0
 10
0.0
 20
0.0
 30
2.000000000000000E+50
 75
     0
  1
AcDbOsnapPointRef
 72
    13
331
4F48
 73
     0
 91
        0
 40
0.0
 10
0.0
 20
0.0
 30
2.000000000000000E+50
 75
     0
  0
LAYOUT
  5
22
102
{ACAD_XDICTIONARY
360
5206
102
}
102
{ACAD_REACTORS
330
1A
102
}
330
1A
100
AcDbPlotSettings
  1

  2
\\RD\EPSON Stylus C63 Series單色
  4
A4
  6

 40
3.757083177566528
 41
3.757076978683471
 42
3.757080078125
 43
3.757080078125
 44
209.9733276367187
 45
296.9683227539062
 46
0.0
 47
0.0
 48
0.0
 49
0.0
140
0.0
141
0.0
142
1.0
143
0.3405120737814363
 70
 11952
 72
     1
 73
     0
 74
     0
  7
單色出圖.ctb
 75
     0
147
2.936753428137963
148
-2047.07469463503
149
-1261.649717473083
100
AcDbLayout
  1
Model
 70
     1
 71
     0
 10
0.0
 20
0.0
 11
12.0
 21
9.0
 12
0.0
 22
0.0
 32
0.0
 14
0.0
 24
0.0
 34
0.0
 15
0.0
 25
0.0
 35
0.0
146
0.0
 13
0.0
 23
0.0
 33
0.0
 16
1.0
 26
0.0
 36
0.0
 17
0.0
 27
1.0
 37
0.0
 76
     0
330
1F
1001
ACAD_PSEXT
1000
\\RD\EPSON Stylus C63 Series單色
1000
EPSON Stylus C63 Series
1000
\\RD
1000

1070
     0
  0
LAYOUT
  5
1E
102
{ACAD_XDICTIONARY
360
5204
102
}
102
{ACAD_REACTORS
330
1A
102
}
330
1A
100
AcDbPlotSettings
  1

  2

  4

  6

 40
0.0
 41
0.0
 42
0.0
 43
0.0
 44
0.0
 45
0.0
 46
0.0
 47
0.0
 48
0.0
 49
0.0
140
0.0
141
0.0
142
1.0
143
1.0
 70
   688
 72
     0
 73
     0
 74
     5
  7
單色出圖.ctb
 75
    16
147
1.0
148
0.0
149
0.0
100
AcDbLayout
  1
配置1
 70
     1
 71
     1
 10
0.0
 20
0.0
 11
420.0
 21
297.0
 12
0.0
 22
0.0
 32
0.0
 14
1.000000000000000E+20
 24
1.000000000000000E+20
 34
1.000000000000000E+20
 15
-1.000000000000000E+20
 25
-1.000000000000000E+20
 35
-1.000000000000000E+20
146
0.0
 13
0.0
 23
0.0
 33
0.0
 16
1.0
 26
0.0
 36
0.0
 17
0.0
 27
1.0
 37
0.0
 76
     0
330
1B
  0
LAYOUT
  5
26
102
{ACAD_XDICTIONARY
360
5208
102
}
102
{ACAD_REACTORS
330
1A
102
}
330
1A
100
AcDbPlotSettings
  1

  2

  4

  6

 40
0.0
 41
0.0
 42
0.0
 43
0.0
 44
0.0
 45
0.0
 46
0.0
 47
0.0
 48
0.0
 49
0.0
140
0.0
141
0.0
142
1.0
143
1.0
 70
   688
 72
     0
 73
     0
 74
     5
  7
單色出圖.ctb
 75
    16
147
1.0
148
0.0
149
0.0
100
AcDbLayout
  1
配置2
 70
     1
 71
     2
 10
0.0
 20
0.0
 11
12.0
 21
9.0
 12
0.0
 22
0.0
 32
0.0
 14
0.0
 24
0.0
 34
0.0
 15
0.0
 25
0.0
 35
0.0
146
0.0
 13
0.0
 23
0.0
 33
0.0
 16
1.0
 26
0.0
 36
0.0
 17
0.0
 27
1.0
 37
0.0
 76
     0
330
23
  0
MLINESTYLE
  5
18
102
{ACAD_REACTORS
330
17
102
}
330
17
100
AcDbMlineStyle
  2
STANDARD
 70
     0
  3

 62
   256
 51
90.0
 52
90.0
 71
     2
 49
0.5
 62
   256
  6
BYLAYER
 49
-0.5
 62
   256
  6
BYLAYER
  0
ACDBPLACEHOLDER
  5
F
102
{ACAD_REACTORS
330
E
102
}
330
E
  0
TABLESTYLE
  5
11B
102
{ACAD_REACTORS
330
11A
102
}
330
11A
100
AcDbTableStyle
  3
Standard
 70
     0
 71
     0
 40
1.5
 41
1.5
280
     0
281
     0
  7
STANDARD
140
4.5
170
     2
 62
     0
 63
     7
283
     0
274
    -2
284
     1
 64
     0
275
    -2
285
     1
 65
     0
276
    -2
286
     1
 66
     0
277
    -2
287
     1
 67
     0
278
    -2
288
     1
 68
     0
279
    -2
289
     1
 69
     0
  7
STANDARD
140
6.0
170
     5
 62
     0
 63
     7
283
     0
274
    -2
284
     1
 64
     0
275
    -2
285
     1
 65
     0
276
    -2
286
     1
 66
     0
277
    -2
287
     1
 67
     0
278
    -2
288
     1
 68
     0
279
    -2
289
     1
 69
     0
  7
STANDARD
140
4.5
170
     5
 62
     0
 63
     7
283
     0
274
    -2
284
     1
 64
     0
275
    -2
285
     1
 65
     0
276
    -2
286
     1
 66
     0
277
    -2
287
     1
 67
     0
278
    -2
288
     1
 68
     0
279
    -2
289
     1
 69
     0
  0
DICTIONARYVAR
  5
138
102
{ACAD_REACTORS
330
94
102
}
330
94
100
DictionaryVariables
280
     0
  1
STANDARD
  0
DICTIONARYVAR
  5
96
102
{ACAD_REACTORS
330
94
102
}
330
94
100
DictionaryVariables
280
     0
  1
2
  0
DICTIONARYVAR
  5
95
102
{ACAD_REACTORS
330
94
102
}
330
94
100
DictionaryVariables
280
     0
  1
1
  0
DICTIONARYVAR
  5
1B44
102
{ACAD_REACTORS
330
94
102
}
330
94
100
DictionaryVariables
280
     0
  1

  0
DICTIONARY
  5
1B5
102
{ACAD_REACTORS
330
5B
102
}
330
5B
100
AcDbDictionary
281
     1
  0
DICTIONARY
  5
61
102
{ACAD_REACTORS
330
5B
102
}
330
5B
100
AcDbDictionary
281
     1
  0
XRECORD
  5
123
102
{ACAD_REACTORS
330
5B
102
}
330
5B
100
AcDbXrecord
280
     1
 90
-1023410169
  0
DICTIONARY
  5
398F
102
{ACAD_REACTORS
330
41
102
}
330
41
100
AcDbDictionary
281
     1
  3
DWGSETTINGS
350
3990
  3
TRANSSETTINGS
350
3993
  0
LAYER_INDEX
  5
49E2
102
{ACAD_REACTORS
330
49E1
102
}
330
49E1
100
AcDbIndex
 40
2456140.452393658
100
AcDbLayerIndex
  8
0
360
49E3
 90
        3
  8
AM_VIS
360
49E4
 90
      231
  8
AM_7
360
49E5
 90
        0
  8
Defpoints
360
49E6
 90
        0
  8
LOGO
360
49E7
 90
       77
  8
AM_4
360
49E8
 90
        0
  8
AM_REFDIM
360
49E9
 90
        8
  8
AM_HID
360
49EA
 90
        0
  8
AM_5
360
49EB
 90
        0
  0
DICTIONARY
  5
5206
330
22
100
AcDbDictionary
280
     1
281
     1
  3
ACAD_XREC_ROUNDTRIP
360
5207
  0
DICTIONARY
  5
5204
330
1E
100
AcDbDictionary
280
     1
281
     1
  3
ACAD_XREC_ROUNDTRIP
360
5205
  0
DICTIONARY
  5
5208
330
26
100
AcDbDictionary
280
     1
281
     1
  3
ACAD_XREC_ROUNDTRIP
360
5209
  0
IDBUFFER
  5
49E3
330
0
100
AcDbIdBuffer
330
1830
330
1831
330
1832
  0
IDBUFFER
  5
49E4
330
0
100
AcDbIdBuffer
330
4E7C
330
4E7D
330
4E7E
330
4E7F
330
4E80
330
4E81
330
4E82
330
4E83
330
4E84
330
4E85
330
4E86
330
4E87
330
4E88
330
4E89
330
4E8A
330
4E8B
330
4E8C
330
4E8D
330
4E8E
330
4E8F
330
4E90
330
4E91
330
4E92
330
4E93
330
4E94
330
4E95
330
4E96
330
4E97
330
4E98
330
4E99
330
4E9A
330
4E9B
330
4E9C
330
4E9D
330
4E9E
330
4E9F
330
4EA0
330
4EA1
330
4EA2
330
4EA3
330
4EA4
330
4EA5
330
4EA6
330
4EA7
330
4EA8
330
4EA9
330
4EAA
330
4EAB
330
4EAC
330
4EAD
330
4EAE
330
4EAF
330
4EB0
330
4EB1
330
4EB2
330
4EB3
330
4EB4
330
4EB5
330
4EB6
330
4EB7
330
4EB8
330
4EB9
330
4EBA
330
4EBB
330
4EBC
330
4EBD
330
4EBE
330
4EBF
330
4EC0
330
4EC1
330
4EC2
330
4EC3
330
4EC4
330
4EC5
330
4EC6
330
4EC7
330
4EC8
330
4EC9
330
4ECA
330
4ECB
330
4ECC
330
4ECD
330
4ECE
330
4ECF
330
4ED0
330
4ED1
330
4ED2
330
4ED3
330
4ED4
330
4ED5
330
4ED6
330
4ED7
330
4ED8
330
4ED9
330
4EDA
330
4EDB
330
4EDC
330
4EDD
330
4EDE
330
4EDF
330
4EE0
330
4EE1
330
4EE2
330
4EE3
330
4EE4
330
4EE5
330
4EE6
330
4EE7
330
4EE8
330
4EE9
330
4EEA
330
4EEB
330
4EEC
330
4EED
330
4EEE
330
4EEF
330
4EF0
330
4EF1
330
4EF2
330
4EF3
330
4EF4
330
4EF5
330
4EF6
330
4EF7
330
4EF8
330
4EF9
330
4EFA
330
4EFB
330
4EFC
330
4EFD
330
4EFE
330
4EFF
330
4F00
330
4F01
330
4F02
330
4F03
330
4F04
330
4F05
330
4F06
330
4F07
330
4F08
330
4F09
330
4F0A
330
4F0B
330
4F0C
330
4F0D
330
4F0E
330
4F0F
330
4F10
330
4F11
330
4F12
330
4F13
330
4F14
330
4F15
330
4F16
330
4F17
330
4F18
330
4F19
330
4F1A
330
4F1B
330
4F1C
330
4F1D
330
4F1E
330
4F1F
330
4F20
330
4F21
330
4F22
330
4F23
330
4F24
330
4F25
330
4F26
330
4F27
330
4F28
330
4F29
330
4F2A
330
4F2B
330
4F2C
330
4F2D
330
4F2E
330
4F2F
330
4F30
330
4F31
330
4F32
330
4F33
330
4F34
330
4F35
330
4F36
330
4F37
330
4F38
330
4F39
330
4F3A
330
4F3B
330
4F3C
330
4F3D
330
4F3E
330
4F3F
330
4F40
330
4F41
330
4F42
330
4F43
330
4F44
330
4F45
330
4F46
330
4F47
330
4F48
330
4F49
330
4F4A
330
4F4B
330
4F4C
330
4F4D
330
4F4E
330
4F4F
330
4F50
330
4F51
330
4F52
330
4F53
330
4F54
330
4F55
330
4F56
330
4F57
330
4F58
330
4F59
330
4F5A
330
4F5B
330
4F5C
330
4F5D
330
4F5E
330
4F5F
330
4F67
330
4F68
330
4F69
  0
IDBUFFER
  5
49E5
330
0
100
AcDbIdBuffer
  0
IDBUFFER
  5
49E6
330
0
100
AcDbIdBuffer
  0
IDBUFFER
  5
49E7
330
0
100
AcDbIdBuffer
330
179B
330
179C
330
179D
330
179E
330
179F
330
17A0
330
17A1
330
17A2
330
17A3
330
17A4
330
17A5
330
17A6
330
17A7
330
17A8
330
17A9
330
17AA
330
17AB
330
17AC
330
17AD
330
17AE
330
17AF
330
17B0
330
17B1
330
17B2
330
17B6
330
17BA
330
17BB
330
17BF
330
17C0
330
17C1
330
17C2
330
17C3
330
17C4
330
17C5
330
17C6
330
17CA
330
17CE
330
17D2
330
17D3
330
17D4
330
17D8
330
17D9
330
17DA
330
17DB
330
17DC
330
17DD
330
17DE
330
17DF
330
17E0
330
17E1
330
17E2
330
17E3
330
17E4
330
17E5
330
17E6
330
17E7
330
17E8
330
17E9
330
17EA
330
17EB
330
17EC
330
17ED
330
17EE
330
17EF
330
17F0
330
1824
330
1825
330
1826
330
1827
330
1828
330
1829
330
182A
330
182B
330
182C
330
182D
330
182E
330
182F
  0
IDBUFFER
  5
49E8
330
0
100
AcDbIdBuffer
  0
IDBUFFER
  5
49E9
330
0
100
AcDbIdBuffer
330
4E77
330
4E78
330
4E79
330
4E7A
330
4E7B
330
4F60
330
4F63
330
4F64
  0
IDBUFFER
  5
49EA
330
0
100
AcDbIdBuffer
  0
IDBUFFER
  5
49EB
330
0
100
AcDbIdBuffer
  0
XRECORD
  5
5207
102
{ACAD_REACTORS
330
5206
102
}
330
5206
100
AcDbXrecord
280
     1
102
SHADEPLOT
 70
     0
102
SHADEPLOTRESLEVEL
 70
     2
102
SHADEPLOTCUSTOMDPI
 70
   300
  0
XRECORD
  5
5205
102
{ACAD_REACTORS
330
5204
102
}
330
5204
100
AcDbXrecord
280
     1
102
SHADEPLOT
 70
     0
102
SHADEPLOTRESLEVEL
 70
     2
102
SHADEPLOTCUSTOMDPI
 70
   300
  0
XRECORD
  5
5209
102
{ACAD_REACTORS
330
5208
102
}
330
5208
100
AcDbXrecord
280
     1
102
SHADEPLOT
 70
     0
102
SHADEPLOTRESLEVEL
 70
     2
102
SHADEPLOTCUSTOMDPI
 70
   300
  0
ENDSEC
  0
EOF
