  0
SECTION
  2
HEADER
  9
$ACADVER
  1
AC1015
  9
$ACADMAINTVER
 70
    20
  9
$DWGCODEPAGE
  3
ANSI_950
  9
$INSBASE
 10
0.0
 20
0.0
 30
0.0
  9
$EXTMIN
 10
105.5703746359451
 20
79.23019370077884
 30
-0.0079987975094014
  9
$EXTMAX
 10
287.833557952933
 20
325.390925627003
 30
131.0657257432486
  9
$LIMMIN
 10
0.0
 20
0.0
  9
$LIMMAX
 10
420.0
 20
297.0
  9
$ORTHOMODE
 70
     1
  9
$REGENMODE
 70
     1
  9
$FILLMODE
 70
     1
  9
$QTEXTMODE
 70
     0
  9
$MIRRTEXT
 70
     1
  9
$LTSCALE
 40
1.0
  9
$ATTMODE
 70
     1
  9
$TEXTSIZE
 40
3.0
  9
$TRACEWID
 40
1.0
  9
$TEXTSTYLE
  7
CHINESET
  9
$CLAYER
  8
0
  9
$CELTYPE
  6
ByLayer
  9
$CECOLOR
 62
   256
  9
$CELTSCALE
 40
1.0
  9
$DISPSILH
 70
     0
  9
$DIMSCALE
 40
1.0
  9
$DIMASZ
 40
3.0
  9
$DIMEXO
 40
1.5
  9
$DIMDLI
 40
8.0
  9
$DIMRND
 40
0.0
  9
$DIMDLE
 40
0.0
  9
$DIMEXE
 40
1.5
  9
$DIMTP
 40
0.1
  9
$DIMTM
 40
0.1
  9
$DIMTXT
 40
3.0
  9
$DIMCEN
 40
0.0
  9
$DIMTSZ
 40
0.0
  9
$DIMTOL
 70
     0
  9
$DIMLIM
 70
     0
  9
$DIMTIH
 70
     0
  9
$DIMTOH
 70
     0
  9
$DIMSE1
 70
     0
  9
$DIMSE2
 70
     0
  9
$DIMTAD
 70
     1
  9
$DIMZIN
 70
     8
  9
$DIMBLK
  1

  9
$DIMASO
 70
     1
  9
$DIMSHO
 70
     1
  9
$DIMPOST
  1

  9
$DIMAPOST
  1
"
  9
$DIMALT
 70
     0
  9
$DIMALTD
 70
     2
  9
$DIMALTF
 40
0.0393701
  9
$DIMLFAC
 40
1.0
  9
$DIMTOFL
 70
     1
  9
$DIMTVP
 40
0.0
  9
$DIMTIX
 70
     0
  9
$DIMSOXD
 70
     0
  9
$DIMSAH
 70
     0
  9
$DIMBLK1
  1

  9
$DIMBLK2
  1

  9
$DIMSTYLE
  2
AM_ISO
  9
$DIMCLRD
 70
   256
  9
$DIMCLRE
 70
   256
  9
$DIMCLRT
 70
   256
  9
$DIMTFAC
 40
0.6
  9
$DIMGAP
 40
1.0
  9
$DIMJUST
 70
     0
  9
$DIMSD1
 70
     0
  9
$DIMSD2
 70
     0
  9
$DIMTOLJ
 70
     0
  9
$DIMTZIN
 70
     8
  9
$DIMALTZ
 70
     0
  9
$DIMALTTZ
 70
     0
  9
$DIMUPT
 70
     0
  9
$DIMDEC
 70
     2
  9
$DIMTDEC
 70
     8
  9
$DIMALTU
 70
     2
  9
$DIMALTTD
 70
     2
  9
$DIMTXSTY
  7
CHINESET
  9
$DIMAUNIT
 70
     0
  9
$DIMADEC
 70
     0
  9
$DIMALTRND
 40
0.0
  9
$DIMAZIN
 70
     2
  9
$DIMDSEP
 70
    46
  9
$DIMATFIT
 70
     3
  9
$DIMFRAC
 70
     0
  9
$DIMLDRBLK
  1

  9
$DIMLUNIT
 70
     2
  9
$DIMLWD
 70
    -1
  9
$DIMLWE
 70
    -1
  9
$DIMTMOVE
 70
     0
  9
$LUNITS
 70
     2
  9
$LUPREC
 70
     2
  9
$SKETCHINC
 40
1.0
  9
$FILLETRAD
 40
2.5
  9
$AUNITS
 70
     0
  9
$AUPREC
 70
     0
  9
$MENU
  1
.
  9
$ELEVATION
 40
0.0
  9
$PELEVATION
 40
0.0
  9
$THICKNESS
 40
0.0
  9
$LIMCHECK
 70
     0
  9
$CHAMFERA
 40
2.5
  9
$CHAMFERB
 40
2.5
  9
$CHAMFERC
 40
20.0
  9
$CHAMFERD
 40
0.0
  9
$SKPOLY
 70
     0
  9
$TDCREATE
 40
2454190.707994063
  9
$TDUCREATE
 40
2454190.374660729
  9
$TDUPDATE
 40
2454202.417986470
  9
$TDUUPDATE
 40
2454202.084653137
  9
$TDINDWG
 40
0.0292482292
  9
$TDUSRTIMER
 40
0.0292482292
  9
$USRTIMER
 70
     1
  9
$ANGBASE
 50
0.0
  9
$ANGDIR
 70
     0
  9
$PDMODE
 70
     0
  9
$PDSIZE
 40
0.0
  9
$PLINEWID
 40
0.0
  9
$SPLFRAME
 70
     0
  9
$SPLINETYPE
 70
     6
  9
$SPLINESEGS
 70
     8
  9
$HANDSEED
  5
1891
  9
$SURFTAB1
 70
     6
  9
$SURFTAB2
 70
     6
  9
$SURFTYPE
 70
     6
  9
$SURFU
 70
     6
  9
$SURFV
 70
     6
  9
$UCSBASE
  2

  9
$UCSNAME
  2

  9
$UCSORG
 10
0.0
 20
0.0
 30
0.0
  9
$UCSXDIR
 10
1.0
 20
0.0
 30
0.0
  9
$UCSYDIR
 10
0.0
 20
1.0
 30
0.0
  9
$UCSORTHOREF
  2

  9
$UCSORTHOVIEW
 70
     0
  9
$UCSORGTOP
 10
0.0
 20
0.0
 30
0.0
  9
$UCSORGBOTTOM
 10
0.0
 20
0.0
 30
0.0
  9
$UCSORGLEFT
 10
0.0
 20
0.0
 30
0.0
  9
$UCSORGRIGHT
 10
0.0
 20
0.0
 30
0.0
  9
$UCSORGFRONT
 10
0.0
 20
0.0
 30
0.0
  9
$UCSORGBACK
 10
0.0
 20
0.0
 30
0.0
  9
$PUCSBASE
  2

  9
$PUCSNAME
  2

  9
$PUCSORG
 10
0.0
 20
0.0
 30
0.0
  9
$PUCSXDIR
 10
1.0
 20
0.0
 30
0.0
  9
$PUCSYDIR
 10
0.0
 20
1.0
 30
0.0
  9
$PUCSORTHOREF
  2

  9
$PUCSORTHOVIEW
 70
     0
  9
$PUCSORGTOP
 10
0.0
 20
0.0
 30
0.0
  9
$PUCSORGBOTTOM
 10
0.0
 20
0.0
 30
0.0
  9
$PUCSORGLEFT
 10
0.0
 20
0.0
 30
0.0
  9
$PUCSORGRIGHT
 10
0.0
 20
0.0
 30
0.0
  9
$PUCSORGFRONT
 10
0.0
 20
0.0
 30
0.0
  9
$PUCSORGBACK
 10
0.0
 20
0.0
 30
0.0
  9
$USERI1
 70
     0
  9
$USERI2
 70
     0
  9
$USERI3
 70
     0
  9
$USERI4
 70
     0
  9
$USERI5
 70
     0
  9
$USERR1
 40
0.0
  9
$USERR2
 40
0.0
  9
$USERR3
 40
0.0
  9
$USERR4
 40
0.0
  9
$USERR5
 40
0.0
  9
$WORLDVIEW
 70
     1
  9
$SHADEDGE
 70
     3
  9
$SHADEDIF
 70
    70
  9
$TILEMODE
 70
     1
  9
$MAXACTVP
 70
    64
  9
$PINSBASE
 10
0.0
 20
0.0
 30
0.0
  9
$PLIMCHECK
 70
     0
  9
$PEXTMIN
 10
1.000000000000000E+20
 20
1.000000000000000E+20
 30
1.000000000000000E+20
  9
$PEXTMAX
 10
-1.000000000000000E+20
 20
-1.000000000000000E+20
 30
-1.000000000000000E+20
  9
$PLIMMIN
 10
0.0
 20
0.0
  9
$PLIMMAX
 10
420.0
 20
297.0
  9
$UNITMODE
 70
     0
  9
$VISRETAIN
 70
     1
  9
$PLINEGEN
 70
     0
  9
$PSLTSCALE
 70
     1
  9
$TREEDEPTH
 70
  3020
  9
$CMLSTYLE
  2
Standard
  9
$CMLJUST
 70
     0
  9
$CMLSCALE
 40
20.0
  9
$PROXYGRAPHICS
 70
     1
  9
$MEASUREMENT
 70
     1
  9
$CELWEIGHT
370
    -1
  9
$ENDCAPS
280
     0
  9
$JOINSTYLE
280
     0
  9
$LWDISPLAY
290
     0
  9
$INSUNITS
 70
     4
  9
$HYPERLINKBASE
  1

  9
$STYLESHEET
  1
彩色出圖.ctb
  9
$XEDIT
290
     1
  9
$CEPSNTYPE
380
     0
  9
$PSTYLEMODE
290
     1
  9
$FINGERPRINTGUID
  2
{0520EE89-6E3B-4F1C-8382-74071CD60FEB}
  9
$VERSIONGUID
  2
{C88C81E3-FCEA-4B28-90EB-3472290F5934}
  9
$EXTNAMES
290
     1
  9
$PSVPSCALE
 40
0.0
  9
$OLESTARTUP
290
     0
  0
ENDSEC
  0
SECTION
  2
CLASSES
  0
CLASS
  1
ACDBDICTIONARYWDFLT
  2
AcDbDictionaryWithDefault
  3
ObjectDBX Classes
 90
        0
280
     0
281
     0
  0
CLASS
  1
ACDBPLACEHOLDER
  2
AcDbPlaceHolder
  3
ObjectDBX Classes
 90
        0
280
     0
281
     0
  0
CLASS
  1
LAYOUT
  2
AcDbLayout
  3
ObjectDBX Classes
 90
        0
280
     0
281
     0
  0
CLASS
  1
ACME_DOCUMENT
  2
AcMeDbDoc
  3
AcMeServices
 90
        0
280
     0
281
     0
  0
CLASS
  1
AMGSETTINGSOBJ
  2
AmgSettingsObj
  3
"AcadM|Product Description: AutoCAD Mechanical 2000|Company: Autodesk"
 90
        0
280
     0
281
     0
  0
CLASS
  1
ACMESCOPE
  2
AcMeScope
  3
AcMeServices
 90
        0
280
     0
281
     0
  0
CLASS
  1
ACMECOMMANDHISTORY
  2
AcMeCommandHistory
  3
AcMeServices
 90
        0
280
     0
281
     0
  0
CLASS
  1
ACIMSYSVARMAN
  2
AcImSysVarManager
  3
AcMeServices
 90
        0
280
     0
281
     0
  0
CLASS
  1
ACIMREALSYSVAR
  2
AcImRealSysVar
  3
AcMeServices
 90
        0
280
     0
281
     0
  0
CLASS
  1
ACIMINTSYSVAR
  2
AcImIntSysVar
  3
AcMeServices
 90
        0
280
     0
281
     0
  0
CLASS
  1
ACMEDRAWINGMAN
  2
AcMeDrawingMan
  3
AcMeServices
 90
        0
280
     0
281
     0
  0
CLASS
  1
ACMEVIEW
  2
AcMeView
  3
AcMeServices
 90
        0
280
     0
281
     0
  0
CLASS
  1
ACDBENTITYCACHE
  2
AcMeEntityCache
  3
AcMeServices
 90
        0
280
     0
281
     0
  0
CLASS
  1
GSMANAGER
  2
AcMeGSManager
  3
AcMeServices
 90
        0
280
     0
281
     0
  0
CLASS
  1
AMDTINTERNALREACTOR
  2
AmdtInternalReactor
  3
AcMeServices
 90
        0
280
     0
281
     0
  0
CLASS
  1
ACMESTATEMGR
  2
AcMeStateMgr
  3
AcMeServices
 90
        0
280
     0
281
     0
  0
CLASS
  1
ACGREFMASTER
  2
AcGrefMaster
  3
AcAttribServices
 90
        0
280
     0
281
     0
  0
CLASS
  1
ACME_DATABASE
  2
AcMeDbDatabase
  3
AcMeServices
 90
        0
280
     0
281
     0
  0
CLASS
  1
ACRFINSADJUSTERMGR
  2
AcRfInsAdjusterMgr
  3
AcMeServices
 90
        0
280
     0
281
     0
  0
CLASS
  1
ACGREFACADMASTER
  2
AcGrefacadMaster
  3
AcGrefServices
 90
        0
280
     0
281
     0
  0
CLASS
  1
AMIMASTER
  2
AmiMaster
  3
AmiServices
 90
        0
280
     0
281
     0
  0
CLASS
  1
ACMDATADICTIONARY
  2
AcmDataDictionary
  3
"AcmSymBB|Product Description: AutoCAD Mechanical 2004 DX|Company: Autodesk"
 90
        0
280
     0
281
     0
  0
CLASS
  1
ACMDATAENTRYBLOCK
  2
AcmDataEntryBlock
  3
"AcmSymBB|Product Description: AutoCAD Mechanical 2004 DX|Company: Autodesk"
 90
        0
280
     0
281
     0
  0
CLASS
  1
ACIMSTRSYSVAR
  2
AcImStrSysVar
  3
AcMeServices
 90
        0
280
     0
281
     0
  0
CLASS
  1
ACMSTANDARDISO
  2
AcmStandardISO
  3
"Amdt_StdImp|Product Description: AutoCAD Mechanical 2004 DX|Company: Autodesk"
 90
        0
280
     0
281
     0
  0
CLASS
  1
AMGOBJPROPCFG
  2
AmgObjPropCfg
  3
"AmgLay|Product Description: AutoCAD Mechanical 2000|Company: Autodesk"
 90
        1
280
     0
281
     0
  0
CLASS
  1
AMDTEDGESTANDARDISO
  2
AmdtEdgeStdISO
  3
"Amdt_StdImp|Product Description: AutoCAD Mechanical 2004 DX|Company: Autodesk"
 90
        0
280
     0
281
     0
  0
CLASS
  1
ACMSURFSTANDARDISO
  2
AcmSurfTextStdISO
  3
"Amdt_StdImp|Product Description: AutoCAD Mechanical 2004 DX|Company: Autodesk"
 90
        0
280
     0
281
     0
  0
CLASS
  1
ACMFCFSTANDARDISO
  2
AcmFCFStdISO
  3
"Amdt_StdImp|Product Description: AutoCAD Mechanical 2004 DX|Company: Autodesk"
 90
        0
280
     0
281
     0
  0
CLASS
  1
ACMWELDSTANDARDISO
  2
AcmWeldingStdISO
  3
"Amdt_StdImp|Product Description: AutoCAD Mechanical 2004 DX|Company: Autodesk"
 90
        0
280
     0
281
     0
  0
CLASS
  1
ACMIDSTANDARDISO
  2
AcmIdStdISO
  3
"Amdt_StdImp|Product Description: AutoCAD Mechanical 2004 DX|Company: Autodesk"
 90
        0
280
     0
281
     0
  0
CLASS
  1
ACMDATUMSTANDARDISO
  2
AcmDatumStdISO
  3
"Amdt_StdImp|Product Description: AutoCAD Mechanical 2004 DX|Company: Autodesk"
 90
        0
280
     0
281
     0
  0
CLASS
  1
ACMBOMSTANDARDISO
  2
AcmBOMStdISO
  3
"Amdt_StdImp|Product Description: AutoCAD Mechanical 2004 DX|Company: Autodesk"
 90
        0
280
     0
281
     0
  0
CLASS
  1
ACMDETAILSTANDARDISO
  2
AmdtDetailSymStdISO
  3
"Amdt_StdImp|Product Description: AutoCAD Mechanical 2004 DX|Company: Autodesk"
 90
        0
280
     0
281
     0
  0
CLASS
  1
ACMSECTIONSTANDARDISO
  2
AmdtSectionSymStdISO
  3
"Amdt_StdImp|Product Description: AutoCAD Mechanical 2004 DX|Company: Autodesk"
 90
        0
280
     0
281
     0
  0
CLASS
  1
ACMCENTERLINESTANDARDISO
  2
AmdtCenterLineStdISO
  3
"Amdt_StdImp|Product Description: AutoCAD Mechanical 2004 DX|Company: Autodesk"
 90
        0
280
     0
281
     0
  0
CLASS
  1
ACMNOTESTANDARDISO
  2
AmdtNoteStdISO
  3
"Amdt_StdImp|Product Description: AutoCAD Mechanical 2004 DX|Company: Autodesk"
 90
        0
280
     0
281
     0
  0
CLASS
  1
ACAMGLAYSTD
  2
AcAmgLayStd
  3
"AcAmgLayStd|Product Description: AutoCAD Mechanical 2000|Company: Autodesk"
 90
        0
280
     0
281
     0
  0
CLASS
  1
ACAMGDIMSTD
  2
AcAmgDimStd
  3
"AcAmgDimStd|Product Description: AutoCAD Mechanical 2000|Company: Autodesk"
 90
        0
280
     0
281
     0
  0
CLASS
  1
ACAMGHOLECHARTSTDISO
  2
AcAmgHoleChartStdISO
  3
ACMSYMBB_MODULE_NAME
 90
        0
280
     0
281
     0
  0
CLASS
  1
ACAMGTITLESTD
  2
AcAmgTitleStd
  3
"TITLEAPP"
 90
        0
280
     0
281
     0
  0
CLASS
  1
LAYER_INDEX
  2
AcDbLayerIndex
  3
ObjectDBX Classes
 90
    32768
280
     0
281
     0
  0
CLASS
  1
IDBUFFER
  2
AcDbIdBuffer
  3
ObjectDBX Classes
 90
    32768
280
     0
281
     0
  0
CLASS
  1
DICTIONARYVAR
  2
AcDbDictionaryVar
  3
ObjectDBX Classes
 90
        0
280
     0
281
     0
  0
CLASS
  1
AM_DRAWING_MGR
  2
AcDmDwgMgr
  3
AcMechDwgViewMgmt
 90
        0
280
     0
281
     0
  0
CLASS
  1
AM_DWG_DOCUMENT
  2
AcDmDwgDocument
  3
AcMechDwgViewMgmt
 90
        0
280
     0
281
     0
  0
CLASS
  1
AM_DWG_SHEET
  2
AcDmSheet
  3
AcMechDwgViewMgmt
 90
        0
280
     0
281
     0
  0
CLASS
  1
AM_VIEWDIMPARMAP
  2
AcDmViewDimParMap
  3
AcMechDwgViewMgmt
 90
        0
280
     0
281
     0
  0
CLASS
  1
AM_DWGMGR_NAME
  2
AcDmDwgMgrName
  3
AcMechDwgViewMgmt
 90
        0
280
     0
281
     0
  0
CLASS
  1
AMDTMENUSTATEMGR
  2
AmdtMenuStateMgr
  3
McadcomServices
 90
        0
280
     0
281
     0
  0
CLASS
  1
AMDTMCOMMENUSTATE
  2
AmdtMcomMenuState
  3
McadcomServices
 90
        0
280
     0
281
     0
  0
CLASS
  1
MAPIAMMOUDLE
  2
MApiAmModule
  3
MApiAmServices
 90
        0
280
     0
281
     0
  0
CLASS
  1
AMDTADMENUSTATE
  2
AmdtAdMenuState
  3
DesignerServices
 90
        0
280
     0
281
     0
  0
CLASS
  1
ADAPPL
  2
AcAdAppl
  3
DesignerServices
 90
        0
280
     0
281
     0
  0
CLASS
  1
DEPMGR
  2
AcAdDepMgr
  3
DesignerServices
 90
        0
280
     0
281
     0
  0
CLASS
  1
PARAMMGR
  2
AcAdParamMgr
  3
DesignerServices
 90
        0
280
     0
281
     0
  0
CLASS
  1
PARAMSCOPE
  2
AcAdParamScope
  3
DesignerServices
 90
        0
280
     0
281
     0
  0
CLASS
  1
NAMEDAPPL
  2
AcAdNamedAppl
  3
DesignerServices
 90
        0
280
     0
281
     0
  0
CLASS
  1
AMDTDMMENUSTATE
  2
AmdtDmMenuState
  3
AcMechDwgViewMgmt
 90
        0
280
     0
281
     0
  0
CLASS
  1
AMDTAMMENUSTATE
  2
AmdtAmMenuState
  3
DesignerAssemblies
 90
        0
280
     0
281
     0
  0
CLASS
  1
ACAMPROJECT
  2
AcAmProject
  3
DesignerAssemblies
 90
        0
280
     0
281
     0
  0
CLASS
  1
ACAMGRCOMPDEF
  2
AcAmGrCompDef
  3
DesignerAssemblies
 90
        0
280
     0
281
     0
  0
CLASS
  1
ACCMCONTEXT
  2
AcCmContext
  3
DesignerAssemblies
 90
        0
280
     0
281
     0
  0
CLASS
  1
ACAMCOMPDEF
  2
AcAmCompDef
  3
DesignerAssemblies
 90
        0
280
     0
281
     0
  0
CLASS
  1
ACAMCOMPDEFMGR
  2
AcAmCompDefMgr
  3
DesignerAssemblies
 90
        0
280
     0
281
     0
  0
CLASS
  1
AMCONTEXTMGR
  2
AcAmContextMgr
  3
DesignerAssemblies
 90
        0
280
     0
281
     0
  0
CLASS
  1
ACAMCONTEXTMODELER
  2
AcAmContextModeler
  3
DesignerAssemblies
 90
        0
280
     0
281
     0
  0
CLASS
  1
ACMTHREADLINESTANDARDISO
  2
AmdtThreadLineStdISO
  3
"Amdt_StdImp|Product Description: AutoCAD Mechanical 2004 DX|Company: Autodesk"
 90
        0
280
     0
281
     0
  0
CLASS
  1
CATALOGSTATE
  2
AcAmCatalogState
  3
DesignerAssemblies
 90
        0
280
     0
281
     0
  0
CLASS
  1
ACAMGRCOMPDEFSET
  2
AcAmGrCompDefSet
  3
DesignerAssemblies
 90
        0
280
     0
281
     0
  0
CLASS
  1
AMDTBROWSERDBTAB
  2
AmdtBrowserDbTab
  3
McadcomServices
 90
        0
280
     0
281
     0
  0
CLASS
  1
CBROWSERAPPOBJECT
  2
CBrowserAppObject
  3
McadcomServices
 90
        0
280
     0
281
     0
  0
CLASS
  1
DM_PLACEHOLDER
  2
AcDmSelsetPlaceholder
  3
AcMechDwgViewMgmt
 90
        0
280
     0
281
     0
  0
CLASS
  1
TABLESTYLE
  2
AcDbTableStyle
  3
ObjectDBX Classes
 90
     2047
280
     0
281
     0
  0
CLASS
  1
VAACXREFPANELOBJECT
  2
VaAcXREFPanelObject
  3
VAAC_ADDIN
 90
    32768
280
     0
281
     0
  0
CLASS
  1
VAACIMAGEINVENTORY
  2
VaAcImageInventory
  3
VAAC_ADDIN
 90
    32768
280
     0
281
     0
  0
CLASS
  1
AMDTNOTETEMPLATEDB
  2
AmdtNoteTemplateDB
  3
AMDT_STDIMP_MODULE_NAME
 90
        0
280
     0
281
     0
  0
CLASS
  1
ACMBOM
  2
AcmBom
  3
"AcmSymBB|Product Description: AutoCAD Mechanical 2004 DX|Company: Autodesk"
 90
    32768
280
     0
281
     0
  0
CLASS
  1
AMDTFORMULAUPDATEDISPATCHER
  2
AmdtFormulaUpdateDispatcher
  3
AcMeServices
 90
        0
280
     0
281
     0
  0
CLASS
  1
ACMPARTLIST
  2
AcmPartList
  3
"AcmSymBB|Product Description: AutoCAD Mechanical 2004 DX|Company: Autodesk"
 90
    33791
280
     0
281
     1
  0
CLASS
  1
ACAMGFILTERDAT
  2
AcAmgFilterDat
  3
"AcadM|Product Description: AutoCAD Mechanical 2000|Company: Autodesk"
 90
        0
280
     0
281
     0
  0
CLASS
  1
DIMASSOC
  2
AcDbDimAssoc
  3
"AcDbDimAssoc|Product Desc:     AcDim ARX App For Dimension|Company:          Autodesk, Inc.|WEB Address:      www.autodesk.com"
 90
        0
280
     0
281
     0
  0
CLASS
  1
AMDTNOTE
  2
AmdtNote
  3
"AcmSymBB|Product Description: AutoCAD Mechanical 2004 DX|Company: Autodesk"
 90
     1023
280
     0
281
     1
  0
CLASS
  1
STDPART2D
  2
AmgStdPart
  3
"AmgStdPart|Product Description: AutoCAD Mechanical 2000|Company: Autodesk"
 90
    33791
280
     0
281
     1
  0
CLASS
  1
ACAMSTDPCOMPDEF
  2
AcAmStdpCompDef
  3
DesignerAssemblies
 90
    32768
280
     0
281
     0
  0
CLASS
  1
ACRFATTGENMGR
  2
AcRfAttGeneralMgr
  3
AcAttribServices
 90
        0
280
     0
281
     0
  0
CLASS
  1
ACRFOBJATTMGR
  2
AcRfObjAttGroupMgr
  3
AcAttribServices
 90
    32768
280
     0
281
     0
  0
CLASS
  1
ACRFMCADAPIATTHOLDER
  2
AcRfMCADAPIAttHolder
  3
AcAttribServices
 90
    32768
280
     0
281
     0
  0
CLASS
  1
AMDTSYSATTR
  2
AmdtSystemAttribute
  3
AcAttribServices
 90
    32768
280
     0
281
     0
  0
CLASS
  1
ACAMCOMP
  2
AcAmComp
  3
DesignerAssemblies
 90
    32768
280
     0
281
     0
  0
CLASS
  1
AC_AM_STDP_VIEW_DEF
  2
AcAmStdpViewDef
  3
DesignerAssemblies
 90
    32768
280
     0
281
     0
  0
CLASS
  1
AC_AM_MVD_DEP_MGR
  2
AcAmMVDdepMgr
  3
DesignerAssemblies
 90
        0
280
     0
281
     0
  0
CLASS
  1
AC_AM_MASTER_VIEW_DEF
  2
AcAmMasterViewDef
  3
DesignerAssemblies
 90
        0
280
     0
281
     0
  0
CLASS
  1
AC_AM_DIRTY_NODES
  2
AcAmDirtyNodes
  3
DesignerAssemblies
 90
        0
280
     0
281
     0
  0
CLASS
  1
AC_AM_MAPPER_CACHE
  2
AcAmMapperCache
  3
DesignerAssemblies
 90
        0
280
     0
281
     0
  0
CLASS
  1
ACAMMVDBACKUPOBJECT
  2
AcAmMVDBackupObject
  3
DesignerAssemblies
 90
        0
280
     0
281
     0
  0
CLASS
  1
AC_AM_COMP_VIEW_INST
  2
AcAmCompView
  3
DesignerAssemblies
 90
    32768
280
     0
281
     0
  0
CLASS
  1
AC_AM_2D_XREF_MGR
  2
AcAmXrefMgr2d
  3
DesignerAssemblies
 90
        0
280
     0
281
     0
  0
CLASS
  1
SORTENTSTABLE
  2
AcDbSortentsTable
  3
ObjectDBX Classes
 90
        0
280
     0
281
     0
  0
ENDSEC
  0
SECTION
  2
TABLES
  0
TABLE
  2
VPORT
  5
8
330
0
100
AcDbSymbolTable
 70
     5
  0
VPORT
  5
1888
330
8
100
AcDbSymbolTableRecord
100
AcDbViewportTableRecord
  2
*Active
 70
     0
 10
0.0
 20
0.0
 11
1.0
 21
1.0
 12
196.7019662944391
 22
202.3105596638909
 13
0.0
 23
0.0
 14
2.5
 24
2.5
 15
10.0
 25
10.0
 16
0.0
 26
0.0
 36
1.0
 17
0.0
 27
0.0
 37
0.0
 40
248.1647541671432
 41
1.661684782608695
 42
50.0
 43
0.0
 44
0.0
 50
0.0
 51
0.0
 71
     0
 72
   100
 73
     1
 74
     3
 75
     0
 76
     0
 77
     0
 78
     0
281
     0
 65
     1
110
0.0
120
0.0
130
0.0
111
1.0
121
0.0
131
0.0
112
0.0
122
1.0
132
0.0
 79
     0
146
0.0
  0
ENDTAB
  0
TABLE
  2
LTYPE
  5
5
330
0
100
AcDbSymbolTable
 70
    14
  0
LTYPE
  5
14
330
5
100
AcDbSymbolTableRecord
100
AcDbLinetypeTableRecord
  2
ByBlock
 70
     0
  3

 72
    65
 73
     0
 40
0.0
  0
LTYPE
  5
15
330
5
100
AcDbSymbolTableRecord
100
AcDbLinetypeTableRecord
  2
ByLayer
 70
     0
  3

 72
    65
 73
     0
 40
0.0
  0
LTYPE
  5
16
330
5
100
AcDbSymbolTableRecord
100
AcDbLinetypeTableRecord
  2
Continuous
 70
     0
  3
Solid line
 72
    65
 73
     0
 40
0.0
  0
LTYPE
  5
64
330
5
100
AcDbSymbolTableRecord
100
AcDbLinetypeTableRecord
  2
AM_ISO02W050
 70
     0
  3
__ __ __ __ __ __ __ __ __ __ __ __ __ __ __
 72
    65
 73
     2
 40
7.5
 49
6.0
 74
     0
 49
-1.5
 74
     0
  0
LTYPE
  5
65
330
5
100
AcDbSymbolTableRecord
100
AcDbLinetypeTableRecord
  2
AM_ISO08W050
 70
     0
  3
____ . ____ . ____ . ____ . ____ . ____ . ____
 72
    65
 73
     4
 40
18.0
 49
12.0
 74
     0
 49
-1.5
 74
     0
 49
3.0
 74
     0
 49
-1.5
 74
     0
  0
LTYPE
  5
66
330
5
100
AcDbSymbolTableRecord
100
AcDbLinetypeTableRecord
  2
AM_ISO09W050
 70
     0
  3
_____ . . _____ . . _____ . . ____ .. ____
 72
    65
 73
     6
 40
22.5
 49
12.0
 74
     0
 49
-1.5
 74
     0
 49
3.0
 74
     0
 49
-1.5
 74
     0
 49
3.0
 74
     0
 49
-1.5
 74
     0
  0
LTYPE
  5
67
330
5
100
AcDbSymbolTableRecord
100
AcDbLinetypeTableRecord
  2
Amconstr
 70
     0
  3
_______________________
 72
    65
 73
     2
 40
9999.0
 49
9999.0
 74
     0
 49
0.0
 74
     0
  0
LTYPE
  5
68
330
5
100
AcDbSymbolTableRecord
100
AcDbLinetypeTableRecord
  2
AM_ISO08W050x2
 70
     0
  3
__ . __ . __ . __ . __ . __
 72
    65
 73
     4
 40
9.0
 49
6.0
 74
     0
 49
-0.75
 74
     0
 49
1.5
 74
     0
 49
-0.75
 74
     0
  0
LTYPE
  5
69
330
5
100
AcDbSymbolTableRecord
100
AcDbLinetypeTableRecord
  2
AM_ISO02W050x2
 70
     0
  3
 _ _ _ _ _ _ _ _ _ _ _ _
 72
    65
 73
     2
 40
3.75
 49
3.0
 74
     0
 49
-0.75
 74
     0
  0
LTYPE
  5
6C
330
5
100
AcDbSymbolTableRecord
100
AcDbLinetypeTableRecord
  2
Amzigzag
 70
     0
  3
/\/-/\/-/\/-/\/-/\/-/\/
 72
    65
 73
     2
 40
11.0001
 49
0.0001
 74
     4
 75
   135
340
6B
 46
0.04
 50
0.0
 44
0.0
 45
0.0
 49
-11.0
 74
     0
  0
LTYPE
  5
7A
330
5
100
AcDbSymbolTableRecord
100
AcDbLinetypeTableRecord
  2
ACISOWELD
 70
     0
  3
_ _ _ _ _
 72
    65
 73
     2
 40
2.0
 49
2.0
 74
     0
 49
-1.0
 74
     0
  0
LTYPE
  5
7B
330
5
100
AcDbSymbolTableRecord
100
AcDbLinetypeTableRecord
  2
ACISOTGB
 70
     0
  3
__ . . __ . .
 72
    65
 73
     6
 40
9.0
 49
4.0
 74
     0
 49
-1.0
 74
     0
 49
1.0
 74
     0
 49
-1.0
 74
     0
 49
1.0
 74
     0
 49
-1.0
 74
     0
  0
LTYPE
  5
7C
330
5
100
AcDbSymbolTableRecord
100
AcDbLinetypeTableRecord
  2
ACISOTGL
 70
     0
  3
_ _ _ _ _
 72
    65
 73
     2
 40
3.0
 49
2.0
 74
     0
 49
-1.0
 74
     0
  0
LTYPE
  5
7E
330
5
100
AcDbSymbolTableRecord
100
AcDbLinetypeTableRecord
  2
CENTER
 70
     0
  3
__ . __
 72
    65
 73
     4
 40
7.0
 49
4.0
 74
     0
 49
-1.0
 74
     0
 49
1.0
 74
     0
 49
-1.0
 74
     0
  0
LTYPE
  5
D8
330
5
100
AcDbSymbolTableRecord
100
AcDbLinetypeTableRecord
  2
HIDDEN
 70
     0
  3
Hidden __ __ __ __ __ __ __ __ __ __ __ __ __ _
 72
    65
 73
     2
 40
9.524999999999998
 49
6.349999999999999
 74
     0
 49
-3.174999999999999
 74
     0
  0
LTYPE
  5
D9
330
5
100
AcDbSymbolTableRecord
100
AcDbLinetypeTableRecord
  2
PHANTOM2
 70
     0
  3
Phantom (.5x) ___ _ _ ___ _ _ ___ _ _ ___ _ _
 72
    65
 73
     6
 40
31.75
 49
15.875
 74
     0
 49
-3.174999999999999
 74
     0
 49
3.174999999999999
 74
     0
 49
-3.174999999999999
 74
     0
 49
3.174999999999999
 74
     0
 49
-3.174999999999999
 74
     0
  0
ENDTAB
  0
TABLE
  2
LAYER
  5
2
102
{ACAD_XDICTIONARY
360
3F9
102
}
330
0
100
AcDbSymbolTable
 70
     7
  0
LAYER
  5
10
330
2
100
AcDbSymbolTableRecord
100
AcDbLayerTableRecord
  2
0
 70
     0
 62
     7
  6
Continuous
370
    -3
390
F
  0
LAYER
  5
8CB
330
2
100
AcDbSymbolTableRecord
100
AcDbLayerTableRecord
  2
AM_5
 70
     0
 62
     5
  6
Continuous
370
    50
390
F
  0
LAYER
  5
939
330
2
100
AcDbSymbolTableRecord
100
AcDbLayerTableRecord
  2
Defpoints
 70
     0
 62
     7
  6
Continuous
290
     0
370
    -3
390
F
  0
LAYER
  5
C77
330
2
100
AcDbSymbolTableRecord
100
AcDbLayerTableRecord
  2
AM_VIS
 70
     0
 62
     7
  6
Continuous
370
    50
390
F
  0
LAYER
  5
1546
330
2
100
AcDbSymbolTableRecord
100
AcDbLayerTableRecord
  2
AM_7
 70
     0
 62
     1
  6
CENTER
370
    25
390
F
  0
LAYER
  5
1630
330
2
100
AcDbSymbolTableRecord
100
AcDbLayerTableRecord
  2
AM_0N
 70
     0
 62
     7
  6
Continuous
370
    50
390
F
  0
LAYER
  5
16AD
330
2
100
AcDbSymbolTableRecord
100
AcDbLayerTableRecord
  2
LOGO
 70
     0
 62
     7
  6
Continuous
370
    -3
390
F
  0
ENDTAB
  0
TABLE
  2
STYLE
  5
3
330
0
100
AcDbSymbolTable
 70
     7
  0
STYLE
  5
11
330
3
100
AcDbSymbolTableRecord
100
AcDbTextStyleTableRecord
  2
STANDARD
 70
     0
 40
0.0
 41
1.0
 50
0.0
 71
     0
 42
3.0
  3
ISOCP.SHX
  4
CHINESET.SHX
  0
STYLE
  5
6B
330
3
100
AcDbSymbolTableRecord
100
AcDbTextStyleTableRecord
  2

 70
     1
 40
0.0
 41
1.0
 50
0.0
 71
     0
 42
2.5
  3
ltypeshp.shx
  4

  0
STYLE
  5
6D
330
3
100
AcDbSymbolTableRecord
100
AcDbTextStyleTableRecord
  2
ACISOTS
 70
     0
 40
1.0
 41
1.0
 50
0.0
 71
     0
 42
1.0
  3
isocp.shx
  4
chineset.shx
  0
STYLE
  5
79
330
3
100
AcDbSymbolTableRecord
100
AcDbTextStyleTableRecord
  2
ACISOGDT
 70
     0
 40
0.0
 41
1.0
 50
0.0
 71
     0
 42
2.5
  3
amgdt.shx
  4
chineset.shx
  0
STYLE
  5
60C
330
3
100
AcDbSymbolTableRecord
100
AcDbTextStyleTableRecord
  2
CHINESET
 70
     0
 40
0.0
 41
1.0
 50
0.0
 71
     0
 42
3.0
  3
simplex.shx
  4
CHINESET.SHX
  0
STYLE
  5
1696
330
3
100
AcDbSymbolTableRecord
100
AcDbTextStyleTableRecord
  2
Arial
 70
     0
 40
0.0
 41
1.0
 50
0.0
 71
     0
 42
1.2
  3
ARIAL.TTF
  4

1001
ACAD
1000
Arial
1071
       34
  0
ENDTAB
  0
TABLE
  2
VIEW
  5
6
330
0
100
AcDbSymbolTable
 70
     0
  0
ENDTAB
  0
TABLE
  2
UCS
  5
7
330
0
100
AcDbSymbolTable
 70
     0
  0
ENDTAB
  0
TABLE
  2
APPID
  5
9
330
0
100
AcDbSymbolTable
 70
    26
  0
APPID
  5
12
330
9
100
AcDbSymbolTableRecord
100
AcDbRegAppTableRecord
  2
ACAD
 70
     0
  0
APPID
  5
46
330
9
100
AcDbSymbolTableRecord
100
AcDbRegAppTableRecord
  2
MCAD_NO_VIS
 70
     0
  0
APPID
  5
47
330
9
100
AcDbSymbolTableRecord
100
AcDbRegAppTableRecord
  2
ACAD_TEMP_GRAPHIC
 70
     0
  0
APPID
  5
58
330
9
100
AcDbSymbolTableRecord
100
AcDbRegAppTableRecord
  2
ACATTRIBSERVICES
 70
     0
  0
APPID
  5
EE
330
9
100
AcDbSymbolTableRecord
100
AcDbRegAppTableRecord
  2
AD_DRAW
 70
     0
  0
APPID
  5
10C
330
9
100
AcDbSymbolTableRecord
100
AcDbRegAppTableRecord
  2
DESIGNERASSEMBLIES
 70
     0
  0
APPID
  5
111
330
9
100
AcDbSymbolTableRecord
100
AcDbRegAppTableRecord
  2
ACADM_DIM_EDIT
 70
     0
  0
APPID
  5
112
330
9
100
AcDbSymbolTableRecord
100
AcDbRegAppTableRecord
  2
AMDT_DM_ADJ
 70
     0
  0
APPID
  5
22C
330
9
100
AcDbSymbolTableRecord
100
AcDbRegAppTableRecord
  2
ACAD_DSTYLE_DIMTEXT_FILL
 70
     0
  0
APPID
  5
452
330
9
100
AcDbSymbolTableRecord
100
AcDbRegAppTableRecord
  2
GENIUS_GENOENT_13
 70
     0
  0
APPID
  5
453
330
9
100
AcDbSymbolTableRecord
100
AcDbRegAppTableRecord
  2
GENIUS_GENOBJ-N-CRS_13
 70
     0
  0
APPID
  5
454
330
9
100
AcDbSymbolTableRecord
100
AcDbRegAppTableRecord
  2
GENIUS_GENOLIS_13
 70
     0
  0
APPID
  5
455
330
9
100
AcDbSymbolTableRecord
100
AcDbRegAppTableRecord
  2
GENIUS_GENODEF_13
 70
     0
  0
APPID
  5
456
330
9
100
AcDbSymbolTableRecord
100
AcDbRegAppTableRecord
  2
GENIUS_GENOREF_13
 70
     0
  0
APPID
  5
6F3
330
9
100
AcDbSymbolTableRecord
100
AcDbRegAppTableRecord
  2
ACAD_PSEXT
 70
     0
  0
APPID
  5
808
330
9
100
AcDbSymbolTableRecord
100
AcDbRegAppTableRecord
  2
GENIUS_GENDTOL_13
 70
     0
  0
APPID
  5
1548
330
9
100
AcDbSymbolTableRecord
100
AcDbRegAppTableRecord
  2
GENIUS_GENOBJ-N-CEN_13
 70
     0
  0
APPID
  5
1549
330
9
100
AcDbSymbolTableRecord
100
AcDbRegAppTableRecord
  2
GENIUS_GENCEN_19
 70
     0
  0
APPID
  5
162C
330
9
100
AcDbSymbolTableRecord
100
AcDbRegAppTableRecord
  2
GEVID1176253404
 70
     0
  0
APPID
  5
162D
330
9
100
AcDbSymbolTableRecord
100
AcDbRegAppTableRecord
  2
GEVMK
 70
     0
  0
APPID
  5
162E
330
9
100
AcDbSymbolTableRecord
100
AcDbRegAppTableRecord
  2
GEVDC
 70
     0
  0
APPID
  5
1646
330
9
100
AcDbSymbolTableRecord
100
AcDbRegAppTableRecord
  2
AMG_2DHIDE
 70
     0
  0
APPID
  5
1647
330
9
100
AcDbSymbolTableRecord
100
AcDbRegAppTableRecord
  2
AMG_2DSTRUCT_BTR
 70
     0
  0
APPID
  5
1658
330
9
100
AcDbSymbolTableRecord
100
AcDbRegAppTableRecord
  2
ACADM_2DVIEW_IGN_NOTIFY
 70
     0
  0
APPID
  5
16AE
330
9
100
AcDbSymbolTableRecord
100
AcDbRegAppTableRecord
  2
GENIUS_GENREC_14
 70
     0
  0
APPID
  5
16AF
330
9
100
AcDbSymbolTableRecord
100
AcDbRegAppTableRecord
  2
GENIUS_GENOBJ-N-REC_13
 70
     0
  0
ENDTAB
  0
TABLE
  2
DIMSTYLE
  5
A
330
0
100
AcDbSymbolTable
 70
     9
100
AcDbDimStyleTable
 71
     3
340
81
340
8B
340
86
  0
DIMSTYLE
105
81
330
A
100
AcDbSymbolTableRecord
100
AcDbDimStyleTableRecord
  2
AM_ISO
 70
     0
  4
"
 41
3.0
 42
1.5
 43
8.0
 44
1.5
 47
0.1
 48
0.1
 73
     0
 74
     0
 77
     1
 78
     8
 79
     2
140
3.0
141
0.0
143
0.0393701
146
0.6
147
1.0
172
     1
176
   256
177
   256
178
   256
271
     2
272
     2
283
     0
284
     8
340
60C
371
    -1
372
    -1
  0
DIMSTYLE
105
82
330
A
100
AcDbSymbolTableRecord
100
AcDbDimStyleTableRecord
  2
AM_ISO$3
 70
     0
  4
"
 41
3.0
 42
1.5
 43
8.0
 44
1.5
 47
0.1
 48
0.1
 73
     0
 77
     1
 78
     8
 79
     2
140
3.0
141
0.0
143
0.0393701
146
0.6
147
1.0
176
   256
177
   256
178
   256
271
     2
272
     2
283
     0
284
     8
288
     1
289
     0
340
60C
371
    -1
372
    -1
  0
DIMSTYLE
105
83
330
A
100
AcDbSymbolTableRecord
100
AcDbDimStyleTableRecord
  2
AM_ISO$4
 70
     0
  4
"
 41
3.0
 42
1.5
 43
8.0
 44
1.5
 47
0.1
 48
0.1
 73
     0
 77
     1
 78
     8
 79
     2
140
3.0
141
0.0
143
0.0393701
146
0.6
147
1.0
176
   256
177
   256
178
   256
271
     2
272
     2
283
     0
284
     8
288
     1
289
     0
340
60C
371
    -1
372
    -1
  0
DIMSTYLE
105
84
330
A
100
AcDbSymbolTableRecord
100
AcDbDimStyleTableRecord
  2
AM_ISO$6
 70
     0
  4
"
 41
3.0
 42
1.5
 43
8.0
 44
1.5
 47
0.1
 48
0.1
 73
     0
 74
     0
 78
     8
 79
     2
140
3.0
141
0.0
143
0.0393701
146
0.6
147
1.0
172
     1
176
   256
177
   256
178
   256
271
     2
272
     2
283
     0
284
     8
340
60C
371
    -1
372
    -1
  0
DIMSTYLE
105
85
330
A
100
AcDbSymbolTableRecord
100
AcDbDimStyleTableRecord
  2
AM_ISO$7
 70
     0
  4
"
 41
3.0
 42
1.5
 43
8.0
 44
1.5
 47
0.1
 48
0.1
 73
     0
 74
     0
 77
     1
 78
     8
 79
     2
140
5.0
141
0.0
143
0.0393701
146
0.6
147
1.0
172
     1
176
   256
177
   256
178
   256
271
     2
272
     2
283
     0
284
     8
340
60C
371
    -1
372
    -1
  0
DIMSTYLE
105
86
330
A
100
AcDbSymbolTableRecord
100
AcDbDimStyleTableRecord
  2
AM_ISO$SF
 70
     0
  4
"
 41
2.5
 42
1.0
 43
10.0
 44
1.0
 47
0.1
 48
0.1
 73
     0
 74
     0
 75
     1
 76
     1
 77
     1
 78
     8
 79
     2
140
3.5
141
0.0
143
0.0393701
146
0.71
147
1.5
172
     1
176
   256
177
   256
178
     2
271
     2
272
     3
274
     4
283
     0
284
     8
340
11
371
    -1
372
    -1
  0
DIMSTYLE
105
8B
330
A
100
AcDbSymbolTableRecord
100
AcDbDimStyleTableRecord
  2
AM_ISO$SH
 70
     0
  4
"
 41
2.5
 42
1.0
 43
10.0
 44
1.0
 47
0.1
 48
0.1
 73
     0
 74
     0
 75
     1
 76
     1
 77
     1
 78
     8
 79
     2
140
3.5
141
0.0
143
0.0393701
144
2.0
146
0.71
147
1.5
172
     1
173
     1
176
   256
177
   256
178
     2
271
     2
272
     3
274
     4
283
     0
284
     8
340
11
343
87
371
    -1
372
    -1
  0
DIMSTYLE
105
40B
102
{ACAD_REACTORS
330
1586
330
15AC
330
15E6
102
}
330
A
100
AcDbSymbolTableRecord
100
AcDbDimStyleTableRecord
  2
AM_ISO$0
 70
     0
  4
"
 41
3.0
 42
1.5
 43
8.0
 44
1.5
 47
0.1
 48
0.1
 73
     0
 74
     0
 77
     1
 78
     8
 79
     2
140
3.0
141
0.0
143
0.0393701
146
0.6
147
1.0
172
     1
176
   256
177
   256
178
   256
271
     2
272
     2
283
     0
284
     8
340
60C
371
    -1
372
    -1
  0
ENDTAB
  0
TABLE
  2
BLOCK_RECORD
  5
1
330
0
100
AcDbSymbolTable
 70
    10
  0
BLOCK_RECORD
  5
1F
102
{ACAD_XDICTIONARY
360
8F
102
}
330
1
100
AcDbSymbolTableRecord
100
AcDbBlockTableRecord
  2
*Model_Space
340
22
  0
BLOCK_RECORD
  5
1B
330
1
100
AcDbSymbolTableRecord
100
AcDbBlockTableRecord
  2
*Paper_Space
340
1E
  0
BLOCK_RECORD
  5
23
330
1
100
AcDbSymbolTableRecord
100
AcDbBlockTableRecord
  2
*Paper_Space0
340
26
  0
BLOCK_RECORD
  5
87
330
1
100
AcDbSymbolTableRecord
100
AcDbBlockTableRecord
  2
GENAXEH
340
0
  0
BLOCK_RECORD
  5
1587
330
1
100
AcDbSymbolTableRecord
100
AcDbBlockTableRecord
  2
*D3
340
0
  0
BLOCK_RECORD
  5
15AD
330
1
100
AcDbSymbolTableRecord
100
AcDbBlockTableRecord
  2
*D4
340
0
  0
BLOCK_RECORD
  5
15E7
330
1
100
AcDbSymbolTableRecord
100
AcDbBlockTableRecord
  2
*D5
340
0
  0
BLOCK_RECORD
  5
165B
330
1
100
AcDbSymbolTableRecord
100
AcDbBlockTableRecord
  2
*U7
340
0
  0
BLOCK_RECORD
  5
187E
330
1
100
AcDbSymbolTableRecord
100
AcDbBlockTableRecord
  2
*S9
340
0
  0
ENDTAB
  0
ENDSEC
  0
SECTION
  2
BLOCKS
  0
BLOCK
  5
20
330
1F
100
AcDbEntity
  8
0
100
AcDbBlockBegin
  2
*Model_Space
 70
     0
 10
0.0
 20
0.0
 30
0.0
  3
*Model_Space
  1

  0
ENDBLK
  5
21
330
1F
100
AcDbEntity
  8
0
100
AcDbBlockEnd
  0
BLOCK
  5
1C
330
1B
100
AcDbEntity
 67
     1
  8
0
100
AcDbBlockBegin
  2
*Paper_Space
 70
     0
 10
0.0
 20
0.0
 30
0.0
  3
*Paper_Space
  1

  0
ENDBLK
  5
1D
330
1B
100
AcDbEntity
 67
     1
  8
0
100
AcDbBlockEnd
  0
BLOCK
  5
24
330
23
100
AcDbEntity
  8
0
100
AcDbBlockBegin
  2
*Paper_Space0
 70
     0
 10
0.0
 20
0.0
 30
0.0
  3
*Paper_Space0
  1

  0
ENDBLK
  5
25
330
23
100
AcDbEntity
  8
0
100
AcDbBlockEnd
  0
BLOCK
  5
89
330
87
100
AcDbEntity
  8
0
100
AcDbBlockBegin
  2
GENAXEH
 70
     0
 10
0.0
 20
0.0
 30
0.0
  3
GENAXEH
  1

  0
LINE
  5
88
330
87
100
AcDbEntity
  8
0
100
AcDbLine
 10
-1.0
 20
0.0
 30
0.0
 11
1.0
 21
0.0
 31
0.0
  0
ENDBLK
  5
8A
330
87
100
AcDbEntity
  8
0
100
AcDbBlockEnd
  0
BLOCK
  5
1591
330
1587
100
AcDbEntity
  8
0
100
AcDbBlockBegin
  2
*D3
 70
     1
 10
0.0
 20
0.0
 30
0.0
  3
*D3
  1

  0
LINE
  5
181B
330
1587
100
AcDbEntity
  8
AM_5
100
AcDbLine
 10
149.3363440351081
 20
142.0136283899217
 30
0.0
 11
149.3363440351081
 21
121.5136273899217
 31
0.0
  0
LINE
  5
181C
330
1587
100
AcDbEntity
  8
AM_5
100
AcDbLine
 10
169.3363440351081
 20
142.0136283899217
 30
0.0
 11
169.3363440351081
 21
121.5136273899217
 31
0.0
  0
LINE
  5
181D
330
1587
100
AcDbEntity
  8
AM_5
100
AcDbLine
 10
152.3363440351081
 20
123.0136273899217
 30
0.0
 11
166.3363440351081
 21
123.0136273899217
 31
0.0
  0
SOLID
  5
181E
330
1587
100
AcDbEntity
  8
AM_5
100
AcDbTrace
 10
152.3363440351081
 20
123.5136273899217
 30
0.0
 11
152.3363440351081
 21
122.5136273899217
 31
0.0
 12
149.3363440351081
 22
123.0136273899217
 32
0.0
 13
149.3363440351081
 23
123.0136273899217
 33
0.0
  0
SOLID
  5
181F
330
1587
100
AcDbEntity
  8
AM_5
100
AcDbTrace
 10
166.3363440351081
 20
123.5136273899217
 30
0.0
 11
166.3363440351081
 21
122.5136273899217
 31
0.0
 12
169.3363440351081
 22
123.0136273899217
 32
0.0
 13
169.3363440351081
 23
123.0136273899217
 33
0.0
  0
MTEXT
  5
1820
330
1587
100
AcDbEntity
  8
AM_5
100
AcDbMText
 10
159.3363440351081
 20
125.5136273899217
 30
0.0
 40
3.0
 41
0.0
 71
     5
 72
     1
  1
20
  7
CHINESET
 73
     1
 44
1.0
1001
ACAD
1000
MTEXTBEGIN
1070
    73
1070
     1
1070
    44
1040
1.0
1070
    74
1070
     0
1000
MTEXTEND
  0
POINT
  5
1821
330
1587
100
AcDbEntity
  8
Defpoints
 62
     0
100
AcDbPoint
 10
149.3363440351081
 20
143.5136283899217
 30
0.0
  0
POINT
  5
1822
330
1587
100
AcDbEntity
  8
Defpoints
 62
     0
100
AcDbPoint
 10
169.3363440351081
 20
143.5136283899217
 30
0.0
  0
POINT
  5
1823
330
1587
100
AcDbEntity
  8
Defpoints
 62
     0
100
AcDbPoint
 10
169.3363440351081
 20
123.0136273899217
 30
0.0
  0
ENDBLK
  5
1592
330
1587
100
AcDbEntity
  8
0
100
AcDbBlockEnd
  0
BLOCK
  5
15B7
330
15AD
100
AcDbEntity
  8
0
100
AcDbBlockBegin
  2
*D4
 70
     1
 10
0.0
 20
0.0
 30
0.0
  3
*D4
  1

  0
LINE
  5
1824
330
15AD
100
AcDbEntity
  8
AM_5
100
AcDbLine
 10
210.7620750325692
 20
142.0136283899217
 30
0.0
 11
210.7620750325692
 21
121.5136273899217
 31
0.0
  0
LINE
  5
1825
330
15AD
100
AcDbEntity
  8
AM_5
100
AcDbLine
 10
241.2620750325692
 20
142.0136283899217
 30
0.0
 11
241.2620750325692
 21
121.5136273899217
 31
0.0
  0
LINE
  5
1826
330
15AD
100
AcDbEntity
  8
AM_5
100
AcDbLine
 10
213.7620750325692
 20
123.0136273899217
 30
0.0
 11
238.2620750325692
 21
123.0136273899217
 31
0.0
  0
SOLID
  5
1827
330
15AD
100
AcDbEntity
  8
AM_5
100
AcDbTrace
 10
213.7620750325692
 20
123.5136273899217
 30
0.0
 11
213.7620750325692
 21
122.5136273899217
 31
0.0
 12
210.7620750325692
 22
123.0136273899217
 32
0.0
 13
210.7620750325692
 23
123.0136273899217
 33
0.0
  0
SOLID
  5
1828
330
15AD
100
AcDbEntity
  8
AM_5
100
AcDbTrace
 10
238.2620750325692
 20
123.5136273899217
 30
0.0
 11
238.2620750325692
 21
122.5136273899217
 31
0.0
 12
241.2620750325692
 22
123.0136273899217
 32
0.0
 13
241.2620750325692
 23
123.0136273899217
 33
0.0
  0
MTEXT
  5
1829
330
15AD
100
AcDbEntity
  8
AM_5
100
AcDbMText
 10
226.0120750325692
 20
125.5136273899217
 30
0.0
 40
3.0
 41
0.0
 71
     5
 72
     1
  1
30.5
  7
CHINESET
 73
     1
 44
1.0
1001
ACAD
1000
MTEXTBEGIN
1070
    73
1070
     1
1070
    44
1040
1.0
1070
    74
1070
     0
1000
MTEXTEND
  0
POINT
  5
182A
330
15AD
100
AcDbEntity
  8
Defpoints
 62
     0
100
AcDbPoint
 10
210.7620750325692
 20
143.5136283899217
 30
0.0
  0
POINT
  5
182B
330
15AD
100
AcDbEntity
  8
Defpoints
 62
     0
100
AcDbPoint
 10
241.2620750325692
 20
143.5136283899217
 30
0.0
  0
POINT
  5
182C
330
15AD
100
AcDbEntity
  8
Defpoints
 62
     0
100
AcDbPoint
 10
241.2620750325692
 20
123.0136273899217
 30
0.0
  0
ENDBLK
  5
15B8
330
15AD
100
AcDbEntity
  8
0
100
AcDbBlockEnd
  0
BLOCK
  5
15F1
330
15E7
100
AcDbEntity
  8
0
100
AcDbBlockBegin
  2
*D5
 70
     1
 10
0.0
 20
0.0
 30
0.0
  3
*D5
  1

  0
LINE
  5
182D
330
15E7
100
AcDbEntity
  8
AM_5
100
AcDbLine
 10
164.8863440351081
 20
135.0136283899217
 30
0.0
 11
188.4469688289406
 21
135.0136283899217
 31
0.0
  0
LINE
  5
182E
330
15E7
100
AcDbEntity
  8
AM_5
100
AcDbLine
 10
167.336344035108
 20
228.0136283899217
 30
0.0
 11
188.4469688289406
 21
228.0136283899217
 31
0.0
  0
LINE
  5
182F
330
15E7
100
AcDbEntity
  8
AM_5
100
AcDbLine
 10
186.9469688289406
 20
138.0136283899217
 30
0.0
 11
186.9469688289406
 21
225.0136283899217
 31
0.0
  0
SOLID
  5
1830
330
15E7
100
AcDbEntity
  8
AM_5
100
AcDbTrace
 10
186.4469688289406
 20
138.0136283899217
 30
0.0
 11
187.4469688289406
 21
138.0136283899217
 31
0.0
 12
186.9469688289406
 22
135.0136283899217
 32
0.0
 13
186.9469688289406
 23
135.0136283899217
 33
0.0
  0
SOLID
  5
1831
330
15E7
100
AcDbEntity
  8
AM_5
100
AcDbTrace
 10
186.4469688289406
 20
225.0136283899217
 30
0.0
 11
187.4469688289406
 21
225.0136283899217
 31
0.0
 12
186.9469688289406
 22
228.0136283899217
 32
0.0
 13
186.9469688289406
 23
228.0136283899217
 33
0.0
  0
MTEXT
  5
1832
330
15E7
100
AcDbEntity
  8
AM_5
100
AcDbMText
 10
184.4469688289406
 20
181.5136283899217
 30
0.0
 40
3.0
 41
0.0
 71
     5
 72
     1
  1
93
  7
CHINESET
 11
0.0000000000000001
 21
1.0
 31
0.0
 73
     1
 44
1.0
1001
ACAD
1000
MTEXTBEGIN
1070
    73
1070
     1
1070
    44
1040
1.0
1070
    74
1070
     0
1000
MTEXTEND
  0
POINT
  5
1833
330
15E7
100
AcDbEntity
  8
Defpoints
 62
     0
100
AcDbPoint
 10
163.3863440351081
 20
135.0136283899217
 30
0.0
  0
POINT
  5
1834
330
15E7
100
AcDbEntity
  8
Defpoints
 62
     0
100
AcDbPoint
 10
165.836344035108
 20
228.0136283899217
 30
0.0
  0
POINT
  5
1835
330
15E7
100
AcDbEntity
  8
Defpoints
 62
     0
100
AcDbPoint
 10
186.9469688289406
 20
228.0136283899217
 30
0.0
  0
ENDBLK
  5
15F2
330
15E7
100
AcDbEntity
  8
0
100
AcDbBlockEnd
  0
BLOCK
  5
165C
330
165B
100
AcDbEntity
  8
0
100
AcDbBlockBegin
  2
*U7
 70
     1
 10
0.0
 20
0.0
 30
0.0
  3
*U7
  1

  0
ENDBLK
  5
165D
330
165B
100
AcDbEntity
  8
0
100
AcDbBlockEnd
  0
BLOCK
  5
1883
330
187E
100
AcDbEntity
  8
0
100
AcDbBlockBegin
  2
*S9
 70
     1
 10
0.0
 20
0.0
 30
0.0
  3
*S9
  1

  0
LINE
  5
187F
330
187E
100
AcDbEntity
  8
AM_5
 62
     5
100
AcDbLine
 10
191.1268857100012
 20
123.4949429650352
 30
0.0
 11
178.5339012533867
 21
123.4949429650352
 31
0.0
  0
LINE
  5
1880
330
187E
100
AcDbEntity
  8
AM_5
 62
     5
100
AcDbLine
 10
178.5339012533867
 20
123.4949429650352
 30
0.0
 11
166.4628850658703
 21
136.9113917550939
 31
0.0
  0
TRACE
  5
1881
330
187E
100
AcDbEntity
  8
AM_5
 62
     5
370
    35
100
AcDbTrace
 10
166.8054310044905
 20
137.2195863924943
 30
0.0
 11
166.12033912725
 21
136.6031971176935
 31
0.0
 12
164.1219143708716
 22
139.513286488775
 32
0.0
 13
164.1219143708716
 23
139.513286488775
 33
0.0
  0
MTEXT
  5
1882
330
187E
100
AcDbEntity
  8
AM_5
 62
     5
100
AcDbMText
 10
179.9268857100012
 20
124.0430542970752
 30
0.0
 40
3.5
 41
0.0
 71
     7
 72
     5
  1
PT1/8
  7
ACISOTS
 73
     1
 44
1.0
1001
ACAD
1000
MTEXTBEGIN
1070
    73
1070
     1
1070
    44
1040
1.0
1070
    74
1070
     0
1000
MTEXTEND
  0
ENDBLK
  5
1884
330
187E
100
AcDbEntity
  8
0
100
AcDbBlockEnd
  0
ENDSEC
  0
SECTION
  2
ENTITIES
  0
LINE
  5
10DC
330
1F
100
AcDbEntity
  8
AM_VIS
100
AcDbLine
 10
154.086344035108
 20
166.0136283899217
 30
0.0
 11
154.086344035108
 21
164.0136283899217
 31
0.0
  0
LINE
  5
10DD
330
1F
100
AcDbEntity
  8
AM_VIS
100
AcDbLine
 10
154.086344035108
 20
164.0136283899217
 30
0.0
 11
152.586344035108
 21
164.0136283899217
 31
0.0
  0
LINE
  5
10DE
330
1F
100
AcDbEntity
  8
AM_VIS
100
AcDbLine
 10
152.586344035108
 20
164.0136283899217
 30
0.0
 11
152.586344035108
 21
166.0136283899217
 31
0.0
  0
LINE
  5
10DF
330
1F
100
AcDbEntity
  8
AM_VIS
100
AcDbLine
 10
152.586344035108
 20
166.0136283899217
 30
0.0
 11
154.086344035108
 21
166.0136283899217
 31
0.0
  0
CIRCLE
  5
10E0
330
1F
100
AcDbEntity
  8
AM_VIS
100
AcDbCircle
 10
153.336344035108
 20
153.5136283899217
 30
0.0
 40
1.0
  0
LINE
  5
10E1
330
1F
100
AcDbEntity
  8
AM_VIS
100
AcDbLine
 10
150.336344035108
 20
150.5136283899217
 30
0.0
 11
150.336344035108
 21
150.6136283899217
 31
0.0
  0
LINE
  5
10E2
330
1F
100
AcDbEntity
  8
AM_VIS
100
AcDbLine
 10
150.336344035108
 20
204.4136283899217
 30
0.0
 11
150.336344035108
 21
204.5136283899217
 31
0.0
  0
LINE
  5
10E3
330
1F
100
AcDbEntity
  8
AM_VIS
100
AcDbLine
 10
168.3363440351079
 20
204.5136283899217
 30
0.0
 11
168.3363440351079
 21
204.4136283899217
 31
0.0
  0
LINE
  5
10E4
330
1F
100
AcDbEntity
  8
AM_VIS
100
AcDbLine
 10
168.3363440351079
 20
150.6136283899217
 30
0.0
 11
168.3363440351079
 21
150.5136283899217
 31
0.0
  0
LINE
  5
10E5
330
1F
100
AcDbEntity
  8
AM_VIS
100
AcDbLine
 10
161.3363440351079
 20
183.313628389922
 30
0.0
 11
157.3363440351079
 21
183.313628389922
 31
0.0
  0
LINE
  5
10E6
330
1F
100
AcDbEntity
  8
AM_VIS
100
AcDbLine
 10
157.3363440351079
 20
201.313628389922
 30
0.0
 11
161.3363440351079
 21
201.313628389922
 31
0.0
  0
LINE
  5
10E7
330
1F
100
AcDbEntity
  8
AM_VIS
100
AcDbLine
 10
154.336344035108
 20
168.5136283899217
 30
0.0
 11
154.336344035108
 21
161.5136283899217
 31
0.0
  0
LINE
  5
10E8
330
1F
100
AcDbEntity
  8
AM_VIS
100
AcDbLine
 10
154.336344035108
 20
161.5136283899217
 30
0.0
 11
152.336344035108
 21
161.5136283899217
 31
0.0
  0
LINE
  5
10E9
330
1F
100
AcDbEntity
  8
AM_VIS
100
AcDbLine
 10
152.336344035108
 20
161.5136283899217
 30
0.0
 11
152.336344035108
 21
168.5136283899217
 31
0.0
  0
LINE
  5
10EA
330
1F
100
AcDbEntity
  8
AM_VIS
100
AcDbLine
 10
152.336344035108
 20
168.5136283899217
 30
0.0
 11
154.336344035108
 21
168.5136283899217
 31
0.0
  0
LINE
  5
10EB
330
1F
100
AcDbEntity
  8
AM_VIS
100
AcDbLine
 10
151.836344035108
 20
153.0136283899217
 30
0.0
 11
151.836344035108
 21
157.0136283899217
 31
0.0
  0
LINE
  5
10EC
330
1F
100
AcDbEntity
  8
AM_VIS
100
AcDbLine
 10
154.836344035108
 20
157.0136283899217
 30
0.0
 11
154.836344035108
 21
153.0136283899217
 31
0.0
  0
LINE
  5
10F1
330
1F
100
AcDbEntity
  8
AM_VIS
100
AcDbLine
 10
161.3363440351079
 20
201.313628389922
 30
0.0
 11
161.3363440351079
 21
183.313628389922
 31
0.0
  0
LINE
  5
1109
330
1F
100
AcDbEntity
  8
AM_VIS
100
AcDbLine
 10
157.3363440351079
 20
183.313628389922
 30
0.0
 11
157.3363440351079
 21
201.313628389922
 31
0.0
  0
ARC
  5
1117
330
1F
100
AcDbEntity
  8
AM_VIS
100
AcDbCircle
 10
153.336344035108
 20
153.0136283899217
 30
0.0
 40
1.5
100
AcDbArc
 50
180.0
 51
0.0
  0
ARC
  5
1118
330
1F
100
AcDbEntity
  8
AM_VIS
100
AcDbCircle
 10
153.336344035108
 20
157.0136283899217
 30
0.0
 40
1.5
100
AcDbArc
 50
0.0
 51
180.0
  0
LINE
  5
1119
330
1F
100
AcDbEntity
  8
AM_VIS
100
AcDbLine
 10
168.3362258656867
 20
213.0136283899217
 30
0.0
 11
168.3362258656867
 21
215.5136283899217
 31
0.0
  0
LINE
  5
111A
330
1F
100
AcDbEntity
  8
AM_VIS
100
AcDbLine
 10
168.2563539149489
 20
215.5936382551313
 30
0.0
 11
168.3362355925765
 21
215.5136381024066
 31
0.0
  0
LINE
  5
111B
330
1F
100
AcDbEntity
  8
AM_VIS
100
AcDbLine
 10
168.2563489759881
 20
212.9674318232024
 30
0.0
 11
168.3362307354485
 21
213.0136199677358
 31
0.0
  0
LINE
  5
111C
330
1F
100
AcDbEntity
  8
AM_VIS
100
AcDbLine
 10
150.3364524776395
 20
215.5136381024066
 30
0.0
 11
150.416334155267
 21
215.5936382551313
 31
0.0
  0
LINE
  5
111D
330
1F
100
AcDbEntity
  8
AM_VIS
100
AcDbLine
 10
150.3364622045293
 20
215.5136283899217
 30
0.0
 11
150.3364622045293
 21
213.0136283899217
 31
0.0
  0
LINE
  5
111E
330
1F
100
AcDbEntity
  8
AM_VIS
100
AcDbLine
 10
150.3364573347675
 20
213.0136199677358
 30
0.0
 11
150.4163390942279
 21
212.9674318232024
 31
0.0
  0
LINE
  5
111F
330
1F
100
AcDbEntity
  8
AM_VIS
100
AcDbLine
 10
150.4667902712082
 20
215.5136369874515
 30
0.0
 11
150.5379913943673
 21
215.5936371248502
 31
0.0
  0
LINE
  5
1120
330
1F
100
AcDbEntity
  8
AM_VIS
100
AcDbLine
 10
150.4667999312182
 20
215.5136283899217
 30
0.0
 11
150.4667999312182
 21
213.0136283899217
 31
0.0
  0
LINE
  5
1121
330
1F
100
AcDbEntity
  8
AM_VIS
100
AcDbLine
 10
150.4667948008485
 20
213.0136204812141
 30
0.0
 11
150.5379960024141
 21
212.9674323425645
 31
0.0
  0
LINE
  5
1122
330
1F
100
AcDbEntity
  8
AM_VIS
100
AcDbLine
 10
150.4516177932375
 20
213.0136283899217
 30
0.0
 11
150.4516177932375
 21
215.5136283899217
 31
0.0
  0
LINE
  5
1123
330
1F
100
AcDbEntity
  8
AM_VIS
100
AcDbLine
 10
150.4516080940836
 20
215.5136388629577
 30
0.0
 11
150.5379913587838
 21
215.5936390258093
 31
0.0
  0
LINE
  5
1124
330
1F
100
AcDbEntity
  8
AM_VIS
100
AcDbLine
 10
150.4516131200932
 20
213.0136196499772
 30
0.0
 11
150.5379964679549
 21
212.9674315019075
 31
0.0
  0
LINE
  5
1125
330
1F
100
AcDbEntity
  8
AM_VIS
100
AcDbLine
 10
150.8390663401558
 20
215.5136354773779
 30
0.0
 11
150.8996447265743
 21
215.5936355931086
 31
0.0
  0
LINE
  5
1126
330
1F
100
AcDbEntity
  8
AM_VIS
100
AcDbLine
 10
150.8390756998854
 20
215.5136283899217
 30
0.0
 11
150.8390756998854
 21
213.0136283899217
 31
0.0
  0
LINE
  5
1127
330
1F
100
AcDbEntity
  8
AM_VIS
100
AcDbLine
 10
150.8390702828509
 20
213.0136212851613
 30
0.0
 11
150.8996487401538
 21
212.9674331561437
 31
0.0
  0
LINE
  5
1128
330
1F
100
AcDbEntity
  8
AM_VIS
100
AcDbLine
 10
150.8091255530714
 20
213.0136283899217
 30
0.0
 11
150.8091255530714
 21
215.5136283899217
 31
0.0
  0
LINE
  5
1129
330
1F
100
AcDbEntity
  8
AM_VIS
100
AcDbLine
 10
150.809115898705
 20
215.5136393148444
 30
0.0
 11
150.8996444356539
 21
215.5936394835872
 31
0.0
  0
LINE
  5
112A
330
1F
100
AcDbEntity
  8
AM_VIS
100
AcDbLine
 10
150.8091210032347
 20
213.0136194722569
 30
0.0
 11
150.8996496237518
 21
212.9674313222443
 31
0.0
  0
LINE
  5
112B
330
1F
100
AcDbEntity
  8
AM_VIS
100
AcDbLine
 10
151.4431261945661
 20
215.5136335845941
 30
0.0
 11
151.4914294266619
 21
215.5936336716838
 31
0.0
  0
LINE
  5
112C
330
1F
100
AcDbEntity
  8
AM_VIS
100
AcDbLine
 10
151.4431347980121
 20
215.5136283899217
 30
0.0
 11
151.4431347980121
 21
213.0136283899217
 31
0.0
  0
LINE
  5
112D
330
1F
100
AcDbEntity
  8
AM_VIS
100
AcDbLine
 10
151.4431291875199
 20
213.0136225224982
 30
0.0
 11
151.4914324762125
 21
212.967434409308
 31
0.0
  0
LINE
  5
112E
330
1F
100
AcDbEntity
  8
AM_VIS
100
AcDbLine
 10
151.3992336042955
 20
213.0136283899217
 30
0.0
 11
151.3992336042955
 21
215.5136283899217
 31
0.0
  0
LINE
  5
112F
330
1F
100
AcDbEntity
  8
AM_VIS
100
AcDbLine
 10
151.3992239730886
 20
215.5136394903963
 30
0.0
 11
151.4914283947676
 21
215.5936396614024
 31
0.0
  0
LINE
  5
1130
330
1F
100
AcDbEntity
  8
AM_VIS
100
AcDbLine
 10
151.3992291036115
 20
213.0136194052939
 30
0.0
 11
151.4914336089402
 21
212.9674312545557
 31
0.0
  0
LINE
  5
1131
330
1F
100
AcDbEntity
  8
AM_VIS
100
AcDbLine
 10
152.2624929700564
 20
215.513631469613
 30
0.0
 11
152.2972034708202
 21
215.5936315227472
 31
0.0
  0
LINE
  5
1132
330
1F
100
AcDbEntity
  8
AM_VIS
100
AcDbLine
 10
152.2625000680659
 20
215.5136283899217
 30
0.0
 11
152.2625000680659
 21
213.0136283899217
 31
0.0
  0
LINE
  5
1133
330
1F
100
AcDbEntity
  8
AM_VIS
100
AcDbLine
 10
152.2624946755168
 20
213.0136243373992
 30
0.0
 11
152.2972052106036
 21
212.9674362496269
 31
0.0
  0
LINE
  5
1134
330
1F
100
AcDbEntity
  8
AM_VIS
100
AcDbLine
 10
152.2058453375696
 20
213.0136283899217
 30
0.0
 11
152.2058453375696
 21
215.5136283899217
 31
0.0
  0
LINE
  5
1135
330
1F
100
AcDbEntity
  8
AM_VIS
100
AcDbLine
 10
152.2058356944268
 20
215.5136394029948
 30
0.0
 11
152.2972008994001
 21
215.5936395728759
 31
0.0
  0
LINE
  5
1136
330
1F
100
AcDbEntity
  8
AM_VIS
100
AcDbLine
 10
152.2058408123277
 20
213.013619438491
 30
0.0
 11
152.2972061009155
 21
212.967431288112
 31
0.0
  0
LINE
  5
1137
330
1F
100
AcDbEntity
  8
AM_VIS
100
AcDbLine
 10
153.2748167540821
 20
215.513629551599
 30
0.0
 11
153.2949877273519
 21
215.5936295721559
 31
0.0
  0
LINE
  5
1138
330
1F
100
AcDbEntity
  8
AM_VIS
100
AcDbLine
 10
153.2748213614057
 20
215.5136283899217
 30
0.0
 11
153.2748213614057
 21
213.0136283899217
 31
0.0
  0
LINE
  5
1139
330
1F
100
AcDbEntity
  8
AM_VIS
100
AcDbLine
 10
153.2748172451358
 20
213.0136265922877
 30
0.0
 11
153.2949882289504
 21
212.9674385397519
 31
0.0
  0
LINE
  5
113A
330
1F
100
AcDbEntity
  8
AM_VIS
100
AcDbLine
 10
153.2069584874896
 20
213.0136283899217
 30
0.0
 11
153.2069584874896
 21
215.5136283899217
 31
0.0
  0
LINE
  5
113B
330
1F
100
AcDbEntity
  8
AM_VIS
100
AcDbLine
 10
153.20694880391
 20
215.5136390459261
 30
0.0
 11
153.2949825824583
 21
215.5936392111744
 31
0.0
  0
LINE
  5
113C
330
1F
100
AcDbEntity
  8
AM_VIS
100
AcDbLine
 10
153.2069538637083
 20
213.0136195770696
 30
0.0
 11
153.2949877256172
 21
212.9674314281998
 31
0.0
  0
LINE
  5
113D
330
1F
100
AcDbEntity
  8
AM_VIS
100
AcDbLine
 10
154.452483962775
 20
215.5136284680014
 30
0.0
 11
154.4575652132959
 21
215.5936284694027
 31
0.0
  0
LINE
  5
113E
330
1F
100
AcDbEntity
  8
AM_VIS
100
AcDbLine
 10
154.4524851920738
 20
215.5136283899217
 30
0.0
 11
154.4524851920738
 21
213.0136283899217
 31
0.0
  0
LINE
  5
113F
330
1F
100
AcDbEntity
  8
AM_VIS
100
AcDbLine
 10
154.4524839725534
 20
213.0136282557595
 30
0.0
 11
154.4575652232932
 21
212.9674402318214
 31
0.0
  0
LINE
  5
1140
330
1F
100
AcDbEntity
  8
AM_VIS
100
AcDbLine
 10
154.3752652970331
 20
213.0136283899217
 30
0.0
 11
154.3752652970331
 21
215.5136283899217
 31
0.0
  0
LINE
  5
1141
330
1F
100
AcDbEntity
  8
AM_VIS
100
AcDbLine
 10
154.3752555737187
 20
215.5136383928853
 30
0.0
 11
154.4575565890964
 21
215.5936385495091
 31
0.0
  0
LINE
  5
1142
330
1F
100
AcDbEntity
  8
AM_VIS
100
AcDbLine
 10
154.3752605006922
 20
213.0136198434838
 30
0.0
 11
154.4575615985059
 21
212.967431697558
 31
0.0
  0
LINE
  5
1143
330
1F
100
AcDbEntity
  8
AM_VIS
100
AcDbLine
 10
155.7532233164153
 20
215.5936287031126
 30
0.0
 11
155.7633703865163
 21
215.513628697607
 31
0.0
  0
LINE
  5
1144
330
1F
100
AcDbEntity
  8
AM_VIS
100
AcDbLine
 10
155.76336796071
 20
215.5136283899217
 30
0.0
 11
155.76336796071
 21
213.0136283899217
 31
0.0
  0
LINE
  5
1145
330
1F
100
AcDbEntity
  8
AM_VIS
100
AcDbLine
 10
155.7532232404663
 20
212.9674398426094
 30
0.0
 11
155.7633703122158
 21
213.0136278733183
 31
0.0
  0
LINE
  5
1146
330
1F
100
AcDbEntity
  8
AM_VIS
100
AcDbLine
 10
155.6788974019842
 20
213.0136283899217
 30
0.0
 11
155.6788974019842
 21
215.5136283899217
 31
0.0
  0
LINE
  5
1147
330
1F
100
AcDbEntity
  8
AM_VIS
100
AcDbLine
 10
155.6788877021498
 20
215.5136374014508
 30
0.0
 11
155.7532109932787
 21
215.593637544607
 31
0.0
  0
LINE
  5
1148
330
1F
100
AcDbEntity
  8
AM_VIS
100
AcDbLine
 10
155.7532208472035
 20
215.5936283899218
 30
0.0
 11
155.7532208472035
 21
212.9674403683865
 31
0.0
  0
LINE
  5
1149
330
1F
100
AcDbEntity
  8
AM_VIS
100
AcDbLine
 10
155.6788923642141
 20
213.0136202834239
 30
0.0
 11
155.7532157352289
 21
212.9674321424832
 31
0.0
  0
LINE
  5
114A
330
1F
100
AcDbEntity
  8
AM_VIS
100
AcDbLine
 10
157.1466191386228
 20
215.5936301621377
 30
0.0
 11
157.1717177539209
 21
215.5136301315512
 31
0.0
  0
LINE
  5
114B
330
1F
100
AcDbEntity
  8
AM_VIS
100
AcDbLine
 10
157.1717122026023
 20
215.5136283899217
 30
0.0
 11
157.1717122026023
 21
213.0136283899217
 31
0.0
  0
LINE
  5
114C
330
1F
100
AcDbEntity
  8
AM_VIS
100
AcDbLine
 10
157.1466182786744
 20
212.9674377661148
 30
0.0
 11
157.171716911688
 21
213.0136258310006
 31
0.0
  0
LINE
  5
114D
330
1F
100
AcDbEntity
  8
AM_VIS
100
AcDbLine
 10
157.0822951168351
 20
213.0136283899217
 30
0.0
 11
157.0822951168351
 21
215.5136283899217
 31
0.0
  0
LINE
  5
114E
330
1F
100
AcDbEntity
  8
AM_VIS
100
AcDbLine
 10
157.0822856192089
 20
215.51363602579
 30
0.0
 11
157.1466038382994
 21
215.5936361495111
 31
0.0
  0
LINE
  5
114F
330
1F
100
AcDbEntity
  8
AM_VIS
100
AcDbLine
 10
157.1466134898121
 20
215.5936283899218
 30
0.0
 11
157.1466134898121
 21
212.9674403683865
 31
0.0
  0
LINE
  5
1150
330
1F
100
AcDbEntity
  8
AM_VIS
100
AcDbLine
 10
157.0822897935042
 20
213.0136209770314
 30
0.0
 11
157.1466080866015
 21
212.9674328442616
 31
0.0
  0
LINE
  5
1151
330
1F
100
AcDbEntity
  8
AM_VIS
100
AcDbLine
 10
158.599744106483
 20
215.5936322442925
 30
0.0
 11
158.6391096594887
 21
215.5136321795309
 31
0.0
  0
LINE
  5
1152
330
1F
100
AcDbEntity
  8
AM_VIS
100
AcDbLine
 10
158.6391019581114
 20
215.5136283899217
 30
0.0
 11
158.6391019581114
 21
213.0136283899217
 31
0.0
  0
LINE
  5
1153
330
1F
100
AcDbEntity
  8
AM_VIS
100
AcDbLine
 10
158.5997419065058
 20
212.9674355674346
 30
0.0
 11
158.6391075019967
 21
213.0136236649307
 31
0.0
  0
LINE
  5
1154
330
1F
100
AcDbEntity
  8
AM_VIS
100
AcDbLine
 10
158.5471774103096
 20
213.0136283899217
 30
0.0
 11
158.5471774103096
 21
215.5136283899217
 31
0.0
  0
LINE
  5
1155
330
1F
100
AcDbEntity
  8
AM_VIS
100
AcDbLine
 10
158.547168486761
 20
215.5136342525427
 30
0.0
 11
158.5997272017154
 21
215.5936343499278
 31
0.0
  0
LINE
  5
1156
330
1F
100
AcDbEntity
  8
AM_VIS
100
AcDbLine
 10
158.5997362734948
 20
215.5936283899218
 30
0.0
 11
158.5997362734948
 21
212.9674403683865
 31
0.0
  0
LINE
  5
1157
330
1F
100
AcDbEntity
  8
AM_VIS
100
AcDbLine
 10
158.5471718402296
 20
213.013622051569
 30
0.0
 11
158.5997306174497
 21
212.9674339322116
 31
0.0
  0
LINE
  5
1158
330
1F
100
AcDbEntity
  8
AM_VIS
100
AcDbLine
 10
160.0729608685005
 20
215.5936343499278
 30
0.0
 11
160.125519583455
 21
215.5136342525427
 31
0.0
  0
LINE
  5
1159
330
1F
100
AcDbEntity
  8
AM_VIS
100
AcDbLine
 10
160.1255106599064
 20
215.5136283899217
 30
0.0
 11
160.1255106599064
 21
213.0136283899217
 31
0.0
  0
LINE
  5
115A
330
1F
100
AcDbEntity
  8
AM_VIS
100
AcDbLine
 10
160.0729574527663
 20
212.9674339322116
 30
0.0
 11
160.1255162299864
 21
213.013622051569
 31
0.0
  0
LINE
  5
115B
330
1F
100
AcDbEntity
  8
AM_VIS
100
AcDbLine
 10
160.0335861121046
 20
213.0136283899217
 30
0.0
 11
160.0335861121046
 21
215.5136283899217
 31
0.0
  0
LINE
  5
115C
330
1F
100
AcDbEntity
  8
AM_VIS
100
AcDbLine
 10
160.0335784107272
 20
215.5136321795309
 30
0.0
 11
160.072943963733
 21
215.5936322442925
 31
0.0
  0
LINE
  5
115D
330
1F
100
AcDbEntity
  8
AM_VIS
100
AcDbLine
 10
160.0729517967212
 20
215.5936283899218
 30
0.0
 11
160.0729517967212
 21
212.9674403683865
 31
0.0
  0
LINE
  5
115E
330
1F
100
AcDbEntity
  8
AM_VIS
100
AcDbLine
 10
160.0335805682193
 20
213.0136236649307
 30
0.0
 11
160.0729461637102
 21
212.9674355674346
 31
0.0
  0
LINE
  5
115F
330
1F
100
AcDbEntity
  8
AM_VIS
100
AcDbLine
 10
161.5260842319166
 20
215.5936361495111
 30
0.0
 11
161.5904024510071
 21
215.51363602579
 31
0.0
  0
LINE
  5
1160
330
1F
100
AcDbEntity
  8
AM_VIS
100
AcDbLine
 10
161.5903929533808
 20
215.5136283899217
 30
0.0
 11
161.5903929533808
 21
213.0136283899217
 31
0.0
  0
LINE
  5
1161
330
1F
100
AcDbEntity
  8
AM_VIS
100
AcDbLine
 10
161.5260799836145
 20
212.9674328442616
 30
0.0
 11
161.5903982767118
 21
213.0136209770315
 31
0.0
  0
LINE
  5
1162
330
1F
100
AcDbEntity
  8
AM_VIS
100
AcDbLine
 10
161.5009758676136
 20
213.0136283899217
 30
0.0
 11
161.5009758676136
 21
215.5136283899217
 31
0.0
  0
LINE
  5
1163
330
1F
100
AcDbEntity
  8
AM_VIS
100
AcDbLine
 10
161.5009703162951
 20
215.5136301315512
 30
0.0
 11
161.5260689315932
 21
215.5936301621377
 31
0.0
  0
LINE
  5
1164
330
1F
100
AcDbEntity
  8
AM_VIS
100
AcDbLine
 10
161.5260745804039
 20
215.5936283899218
 30
0.0
 11
161.5260745804039
 21
212.9674403683865
 31
0.0
  0
LINE
  5
1165
330
1F
100
AcDbEntity
  8
AM_VIS
100
AcDbLine
 10
161.500971158528
 20
213.0136258310006
 30
0.0
 11
161.5260697915416
 21
212.9674377661148
 31
0.0
  0
LINE
  5
1166
330
1F
100
AcDbEntity
  8
AM_VIS
100
AcDbLine
 10
162.9194770769374
 20
215.593637544607
 30
0.0
 11
162.9938003680661
 21
215.5136374014508
 31
0.0
  0
LINE
  5
1167
330
1F
100
AcDbEntity
  8
AM_VIS
100
AcDbLine
 10
162.9937906682318
 20
215.5136283899217
 30
0.0
 11
162.9937906682318
 21
213.0136283899217
 31
0.0
  0
LINE
  5
1168
330
1F
100
AcDbEntity
  8
AM_VIS
100
AcDbLine
 10
162.919472334987
 20
212.9674321424832
 30
0.0
 11
162.9937957060019
 21
213.0136202834239
 31
0.0
  0
LINE
  5
1169
330
1F
100
AcDbEntity
  8
AM_VIS
100
AcDbLine
 10
162.909320109506
 20
213.0136283899217
 30
0.0
 11
162.909320109506
 21
215.5136283899217
 31
0.0
  0
LINE
  5
116A
330
1F
100
AcDbEntity
  8
AM_VIS
100
AcDbLine
 10
162.9093176836997
 20
215.513628697607
 30
0.0
 11
162.9194647538007
 21
215.5936287031126
 31
0.0
  0
LINE
  5
116B
330
1F
100
AcDbEntity
  8
AM_VIS
100
AcDbLine
 10
162.9194672230124
 20
215.5936283899218
 30
0.0
 11
162.9194672230124
 21
212.9674403683865
 31
0.0
  0
LINE
  5
116C
330
1F
100
AcDbEntity
  8
AM_VIS
100
AcDbLine
 10
162.9093177580002
 20
213.0136278733183
 30
0.0
 11
162.9194648297497
 21
212.9674398426094
 31
0.0
  0
LINE
  5
116D
330
1F
100
AcDbEntity
  8
AM_VIS
100
AcDbLine
 10
164.2151314811196
 20
215.5936385495091
 30
0.0
 11
164.2974324964973
 21
215.5136383928853
 31
0.0
  0
LINE
  5
116E
330
1F
100
AcDbEntity
  8
AM_VIS
100
AcDbLine
 10
164.2974227731828
 20
215.5136283899217
 30
0.0
 11
164.2974227731828
 21
213.0136283899217
 31
0.0
  0
LINE
  5
116F
330
1F
100
AcDbEntity
  8
AM_VIS
100
AcDbLine
 10
164.2151264717101
 20
212.967431697558
 30
0.0
 11
164.2974275695238
 21
213.0136198434838
 31
0.0
  0
LINE
  5
1170
330
1F
100
AcDbEntity
  8
AM_VIS
100
AcDbLine
 10
164.2202028781422
 20
213.0136283899217
 30
0.0
 11
164.2202028781422
 21
215.5136283899217
 31
0.0
  0
LINE
  5
1171
330
1F
100
AcDbEntity
  8
AM_VIS
100
AcDbLine
 10
164.2151228569201
 20
215.5936284694027
 30
0.0
 11
164.2202041074409
 21
215.5136284680014
 31
0.0
  0
LINE
  5
1172
330
1F
100
AcDbEntity
  8
AM_VIS
100
AcDbLine
 10
164.2151228469229
 20
212.9674402318214
 30
0.0
 11
164.2202040976625
 21
213.0136282557595
 31
0.0
  0
LINE
  5
1173
330
1F
100
AcDbEntity
  8
AM_VIS
100
AcDbLine
 10
165.3777054877576
 20
215.5936392111743
 30
0.0
 11
165.465739266306
 21
215.5136390459261
 31
0.0
  0
LINE
  5
1174
330
1F
100
AcDbEntity
  8
AM_VIS
100
AcDbLine
 10
165.4657295827263
 20
215.5136283899217
 30
0.0
 11
165.4657295827263
 21
213.0136283899217
 31
0.0
  0
LINE
  5
1175
330
1F
100
AcDbEntity
  8
AM_VIS
100
AcDbLine
 10
165.3777003445987
 20
212.9674314281998
 30
0.0
 11
165.4657342065076
 21
213.0136195770696
 31
0.0
  0
LINE
  5
1176
330
1F
100
AcDbEntity
  8
AM_VIS
100
AcDbLine
 10
165.3978667088103
 20
213.0136283899217
 30
0.0
 11
165.3978667088103
 21
215.5136283899217
 31
0.0
  0
LINE
  5
1177
330
1F
100
AcDbEntity
  8
AM_VIS
100
AcDbLine
 10
165.3777003428641
 20
215.5936295721559
 30
0.0
 11
165.3978713161338
 21
215.513629551599
 31
0.0
  0
LINE
  5
1178
330
1F
100
AcDbEntity
  8
AM_VIS
100
AcDbLine
 10
165.3776998412656
 20
212.9674385397519
 30
0.0
 11
165.3978708250802
 21
213.0136265922877
 31
0.0
  0
LINE
  5
1179
330
1F
100
AcDbEntity
  8
AM_VIS
100
AcDbLine
 10
166.3754871708159
 20
215.5936395728759
 30
0.0
 11
166.4668523757892
 21
215.5136394029948
 31
0.0
  0
LINE
  5
117A
330
1F
100
AcDbEntity
  8
AM_VIS
100
AcDbLine
 10
166.4668427326464
 20
215.5136283899217
 30
0.0
 11
166.4668427326464
 21
213.0136283899217
 31
0.0
  0
LINE
  5
117B
330
1F
100
AcDbEntity
  8
AM_VIS
100
AcDbLine
 10
166.3754819693004
 20
212.967431288112
 30
0.0
 11
166.4668472578883
 21
213.013619438491
 31
0.0
  0
LINE
  5
117C
330
1F
100
AcDbEntity
  8
AM_VIS
100
AcDbLine
 10
166.4101880021501
 20
213.0136283899217
 30
0.0
 11
166.4101880021501
 21
215.5136283899217
 31
0.0
  0
LINE
  5
117D
330
1F
100
AcDbEntity
  8
AM_VIS
100
AcDbLine
 10
166.3754845993958
 20
215.5936315227472
 30
0.0
 11
166.4101951001597
 21
215.513631469613
 31
0.0
  0
LINE
  5
117E
330
1F
100
AcDbEntity
  8
AM_VIS
100
AcDbLine
 10
166.3754828596125
 20
212.9674362496269
 30
0.0
 11
166.4101933946992
 21
213.0136243373992
 31
0.0
  0
LINE
  5
117F
330
1F
100
AcDbEntity
  8
AM_VIS
100
AcDbLine
 10
167.1812596754484
 20
215.5936396614025
 30
0.0
 11
167.2734640971273
 21
215.5136394903963
 31
0.0
  0
LINE
  5
1180
330
1F
100
AcDbEntity
  8
AM_VIS
100
AcDbLine
 10
167.2734544659205
 20
215.5136283899217
 30
0.0
 11
167.2734544659205
 21
213.0136283899217
 31
0.0
  0
LINE
  5
1181
330
1F
100
AcDbEntity
  8
AM_VIS
100
AcDbLine
 10
167.1812544612758
 20
212.9674312545557
 30
0.0
 11
167.2734589666045
 21
213.0136194052939
 31
0.0
  0
LINE
  5
1182
330
1F
100
AcDbEntity
  8
AM_VIS
100
AcDbLine
 10
167.2295532722039
 20
213.0136283899217
 30
0.0
 11
167.2295532722039
 21
215.5136283899217
 31
0.0
  0
LINE
  5
1183
330
1F
100
AcDbEntity
  8
AM_VIS
100
AcDbLine
 10
167.1812586435541
 20
215.5936336716838
 30
0.0
 11
167.2295618756498
 21
215.5136335845941
 31
0.0
  0
LINE
  5
1184
330
1F
100
AcDbEntity
  8
AM_VIS
100
AcDbLine
 10
167.1812555940035
 20
212.967434409308
 30
0.0
 11
167.2295588826961
 21
213.0136225224982
 31
0.0
  0
LINE
  5
1185
330
1F
100
AcDbEntity
  8
AM_VIS
100
AcDbLine
 10
167.7730436345621
 20
215.5936394835872
 30
0.0
 11
167.8635721715109
 21
215.5136393148444
 31
0.0
  0
LINE
  5
1186
330
1F
100
AcDbEntity
  8
AM_VIS
100
AcDbLine
 10
167.8635625171446
 20
215.5136283899217
 30
0.0
 11
167.8635625171446
 21
213.0136283899217
 31
0.0
  0
LINE
  5
1187
330
1F
100
AcDbEntity
  8
AM_VIS
100
AcDbLine
 10
167.7730384464642
 20
212.9674313222443
 30
0.0
 11
167.8635670669813
 21
213.0136194722569
 31
0.0
  0
LINE
  5
1188
330
1F
100
AcDbEntity
  8
AM_VIS
100
AcDbLine
 10
167.8336123703306
 20
213.0136283899217
 30
0.0
 11
167.8336123703306
 21
215.5136283899217
 31
0.0
  0
LINE
  5
1189
330
1F
100
AcDbEntity
  8
AM_VIS
100
AcDbLine
 10
167.7730433436417
 20
215.5936355931087
 30
0.0
 11
167.8336217300602
 21
215.5136354773779
 31
0.0
  0
LINE
  5
118A
330
1F
100
AcDbEntity
  8
AM_VIS
100
AcDbLine
 10
167.7730393300622
 20
212.9674331561437
 30
0.0
 11
167.8336177873651
 21
213.0136212851613
 31
0.0
  0
LINE
  5
118B
330
1F
100
AcDbEntity
  8
AM_VIS
100
AcDbLine
 10
168.1346967114322
 20
215.5936390258093
 30
0.0
 11
168.2210799761324
 21
215.5136388629577
 31
0.0
  0
LINE
  5
118C
330
1F
100
AcDbEntity
  8
AM_VIS
100
AcDbLine
 10
168.2210702769784
 20
215.5136283899217
 30
0.0
 11
168.2210702769784
 21
213.0136283899217
 31
0.0
  0
LINE
  5
118D
330
1F
100
AcDbEntity
  8
AM_VIS
100
AcDbLine
 10
168.1346916022611
 20
212.9674315019075
 30
0.0
 11
168.2210749501228
 21
213.0136196499772
 31
0.0
  0
LINE
  5
118E
330
1F
100
AcDbEntity
  8
AM_VIS
100
AcDbLine
 10
168.2058881389978
 20
213.0136283899217
 30
0.0
 11
168.2058881389978
 21
215.5136283899217
 31
0.0
  0
LINE
  5
118F
330
1F
100
AcDbEntity
  8
AM_VIS
100
AcDbLine
 10
168.1346966758486
 20
215.5936371248502
 30
0.0
 11
168.2058977990078
 21
215.5136369874515
 31
0.0
  0
LINE
  5
1190
330
1F
100
AcDbEntity
  8
AM_VIS
100
AcDbLine
 10
168.1346920678019
 20
212.9674323425645
 30
0.0
 11
168.2058932693674
 21
213.0136204812141
 31
0.0
  0
LINE
  5
1191
330
1F
100
AcDbEntity
  8
AM_VIS
100
AcDbLine
 10
150.836344035108
 20
216.0136283899217
 30
0.0
 11
150.416344035108
 21
215.5936283899218
 31
0.0
  0
LINE
  5
1192
330
1F
100
AcDbEntity
  8
AM_VIS
100
AcDbLine
 10
167.836344035108
 20
216.0136283899217
 30
0.0
 11
168.256344035108
 21
215.5936283899218
 31
0.0
  0
LINE
  5
1193
330
1F
100
AcDbEntity
  8
AM_VIS
100
AcDbLine
 10
165.7382678237547
 20
211.5136283899218
 30
0.0
 11
168.256344035108
 21
212.9674403683865
 31
0.0
  0
LINE
  5
1194
330
1F
100
AcDbEntity
  8
AM_VIS
100
AcDbLine
 10
152.9344202464613
 20
211.5136283899218
 30
0.0
 11
150.416344035108
 21
212.9674403683865
 31
0.0
  0
LINE
  5
1195
330
1F
100
AcDbEntity
  8
AM_VIS
100
AcDbLine
 10
150.836344035108
 20
216.0136283899217
 30
0.0
 11
167.836344035108
 21
216.0136283899217
 31
0.0
  0
LINE
  5
1196
330
1F
100
AcDbEntity
  8
AM_VIS
100
AcDbLine
 10
168.3362258656867
 20
215.5136283899217
 30
0.0
 11
168.2210702769784
 21
215.5136283899217
 31
0.0
  0
LINE
  5
1197
330
1F
100
AcDbEntity
  8
AM_VIS
100
AcDbLine
 10
168.2058881389978
 20
215.5136283899217
 30
0.0
 11
167.8635625171446
 21
215.5136283899217
 31
0.0
  0
LINE
  5
1198
330
1F
100
AcDbEntity
  8
AM_VIS
100
AcDbLine
 10
167.8336123703306
 20
215.5136283899217
 30
0.0
 11
167.2734544659205
 21
215.5136283899217
 31
0.0
  0
LINE
  5
1199
330
1F
100
AcDbEntity
  8
AM_VIS
100
AcDbLine
 10
167.2295532722039
 20
215.5136283899217
 30
0.0
 11
166.4668427326464
 21
215.5136283899217
 31
0.0
  0
LINE
  5
119A
330
1F
100
AcDbEntity
  8
AM_VIS
100
AcDbLine
 10
166.4101880021501
 20
215.5136283899217
 30
0.0
 11
165.4657295827263
 21
215.5136283899217
 31
0.0
  0
LINE
  5
119B
330
1F
100
AcDbEntity
  8
AM_VIS
100
AcDbLine
 10
165.3978667088103
 20
215.5136283899217
 30
0.0
 11
164.2974227731828
 21
215.5136283899217
 31
0.0
  0
LINE
  5
119C
330
1F
100
AcDbEntity
  8
AM_VIS
100
AcDbLine
 10
164.2202028781422
 20
215.5136283899217
 30
0.0
 11
162.9937906682318
 21
215.5136283899217
 31
0.0
  0
LINE
  5
119D
330
1F
100
AcDbEntity
  8
AM_VIS
100
AcDbLine
 10
162.909320109506
 20
215.5136283899217
 30
0.0
 11
161.5903929533808
 21
215.5136283899217
 31
0.0
  0
LINE
  5
119E
330
1F
100
AcDbEntity
  8
AM_VIS
100
AcDbLine
 10
161.5009758676136
 20
215.5136283899217
 30
0.0
 11
160.1255106599064
 21
215.5136283899217
 31
0.0
  0
LINE
  5
119F
330
1F
100
AcDbEntity
  8
AM_VIS
100
AcDbLine
 10
160.0335861121046
 20
215.5136283899217
 30
0.0
 11
158.6391019581114
 21
215.5136283899217
 31
0.0
  0
LINE
  5
11A0
330
1F
100
AcDbEntity
  8
AM_VIS
100
AcDbLine
 10
158.5471774103096
 20
215.5136283899217
 30
0.0
 11
157.1717122026023
 21
215.5136283899217
 31
0.0
  0
LINE
  5
11A1
330
1F
100
AcDbEntity
  8
AM_VIS
100
AcDbLine
 10
157.0822951168351
 20
215.5136283899217
 30
0.0
 11
155.76336796071
 21
215.5136283899217
 31
0.0
  0
LINE
  5
11A2
330
1F
100
AcDbEntity
  8
AM_VIS
100
AcDbLine
 10
155.6788974019842
 20
215.5136283899217
 30
0.0
 11
154.4524851920738
 21
215.5136283899217
 31
0.0
  0
LINE
  5
11A3
330
1F
100
AcDbEntity
  8
AM_VIS
100
AcDbLine
 10
154.3752652970331
 20
215.5136283899217
 30
0.0
 11
153.2748213614057
 21
215.5136283899217
 31
0.0
  0
LINE
  5
11A4
330
1F
100
AcDbEntity
  8
AM_VIS
100
AcDbLine
 10
153.2069584874896
 20
215.5136283899217
 30
0.0
 11
152.2625000680659
 21
215.5136283899217
 31
0.0
  0
LINE
  5
11A5
330
1F
100
AcDbEntity
  8
AM_VIS
100
AcDbLine
 10
152.2058453375696
 20
215.5136283899217
 30
0.0
 11
151.4431347980121
 21
215.5136283899217
 31
0.0
  0
LINE
  5
11A6
330
1F
100
AcDbEntity
  8
AM_VIS
100
AcDbLine
 10
151.3992336042955
 20
215.5136283899217
 30
0.0
 11
150.8390756998854
 21
215.5136283899217
 31
0.0
  0
LINE
  5
11A7
330
1F
100
AcDbEntity
  8
AM_VIS
100
AcDbLine
 10
150.8091255530714
 20
215.5136283899217
 30
0.0
 11
150.4667999312182
 21
215.5136283899217
 31
0.0
  0
LINE
  5
11A8
330
1F
100
AcDbEntity
  8
AM_VIS
100
AcDbLine
 10
150.4516177932375
 20
215.5136283899217
 30
0.0
 11
150.3364622045293
 21
215.5136283899217
 31
0.0
  0
LINE
  5
11A9
330
1F
100
AcDbEntity
  8
AM_VIS
100
AcDbLine
 10
168.3362258656867
 20
213.0136283899217
 30
0.0
 11
168.2210702769784
 21
213.0136283899217
 31
0.0
  0
LINE
  5
11AA
330
1F
100
AcDbEntity
  8
AM_VIS
100
AcDbLine
 10
150.4516177932375
 20
213.0136283899217
 30
0.0
 11
150.3364622045293
 21
213.0136283899217
 31
0.0
  0
LINE
  5
11AB
330
1F
100
AcDbEntity
  8
AM_VIS
100
AcDbLine
 10
150.8091255530714
 20
213.0136283899217
 30
0.0
 11
150.4667999312182
 21
213.0136283899217
 31
0.0
  0
LINE
  5
11AC
330
1F
100
AcDbEntity
  8
AM_VIS
100
AcDbLine
 10
151.3992336042955
 20
213.0136283899217
 30
0.0
 11
150.8390756998854
 21
213.0136283899217
 31
0.0
  0
LINE
  5
11AD
330
1F
100
AcDbEntity
  8
AM_VIS
100
AcDbLine
 10
152.2058453375696
 20
213.0136283899217
 30
0.0
 11
151.4431347980121
 21
213.0136283899217
 31
0.0
  0
LINE
  5
11AE
330
1F
100
AcDbEntity
  8
AM_VIS
100
AcDbLine
 10
153.2069584874896
 20
213.0136283899217
 30
0.0
 11
152.2625000680659
 21
213.0136283899217
 31
0.0
  0
LINE
  5
11AF
330
1F
100
AcDbEntity
  8
AM_VIS
100
AcDbLine
 10
154.3752652970331
 20
213.0136283899217
 30
0.0
 11
153.2748213614057
 21
213.0136283899217
 31
0.0
  0
LINE
  5
11B0
330
1F
100
AcDbEntity
  8
AM_VIS
100
AcDbLine
 10
155.6788974019842
 20
213.0136283899217
 30
0.0
 11
154.4524851920738
 21
213.0136283899217
 31
0.0
  0
LINE
  5
11B1
330
1F
100
AcDbEntity
  8
AM_VIS
100
AcDbLine
 10
157.0822951168351
 20
213.0136283899217
 30
0.0
 11
155.76336796071
 21
213.0136283899217
 31
0.0
  0
LINE
  5
11B2
330
1F
100
AcDbEntity
  8
AM_VIS
100
AcDbLine
 10
158.5471774103096
 20
213.0136283899217
 30
0.0
 11
157.1717122026023
 21
213.0136283899217
 31
0.0
  0
LINE
  5
11B3
330
1F
100
AcDbEntity
  8
AM_VIS
100
AcDbLine
 10
160.0335861121046
 20
213.0136283899217
 30
0.0
 11
158.6391019581114
 21
213.0136283899217
 31
0.0
  0
LINE
  5
11B4
330
1F
100
AcDbEntity
  8
AM_VIS
100
AcDbLine
 10
161.5009758676136
 20
213.0136283899217
 30
0.0
 11
160.1255106599064
 21
213.0136283899217
 31
0.0
  0
LINE
  5
11B5
330
1F
100
AcDbEntity
  8
AM_VIS
100
AcDbLine
 10
162.909320109506
 20
213.0136283899217
 30
0.0
 11
161.5903929533808
 21
213.0136283899217
 31
0.0
  0
LINE
  5
11B6
330
1F
100
AcDbEntity
  8
AM_VIS
100
AcDbLine
 10
164.2202028781422
 20
213.0136283899217
 30
0.0
 11
162.9937906682318
 21
213.0136283899217
 31
0.0
  0
LINE
  5
11B7
330
1F
100
AcDbEntity
  8
AM_VIS
100
AcDbLine
 10
165.3978667088103
 20
213.0136283899217
 30
0.0
 11
164.2974227731828
 21
213.0136283899217
 31
0.0
  0
LINE
  5
11B8
330
1F
100
AcDbEntity
  8
AM_VIS
100
AcDbLine
 10
166.4101880021501
 20
213.0136283899217
 30
0.0
 11
165.4657295827263
 21
213.0136283899217
 31
0.0
  0
LINE
  5
11B9
330
1F
100
AcDbEntity
  8
AM_VIS
100
AcDbLine
 10
167.2295532722039
 20
213.0136283899217
 30
0.0
 11
166.4668427326464
 21
213.0136283899217
 31
0.0
  0
LINE
  5
11BA
330
1F
100
AcDbEntity
  8
AM_VIS
100
AcDbLine
 10
167.8336123703306
 20
213.0136283899217
 30
0.0
 11
167.2734544659205
 21
213.0136283899217
 31
0.0
  0
LINE
  5
11BB
330
1F
100
AcDbEntity
  8
AM_VIS
100
AcDbLine
 10
168.2058881389978
 20
213.0136283899217
 30
0.0
 11
167.8635625171446
 21
213.0136283899217
 31
0.0
  0
LINE
  5
11BC
330
1F
100
AcDbEntity
  8
AM_VIS
100
AcDbLine
 10
161.836344035108
 20
216.0136283899217
 30
0.0
 11
161.836344035108
 21
217.0136283899217
 31
0.0
  0
LINE
  5
11BD
330
1F
100
AcDbEntity
  8
AM_VIS
100
AcDbLine
 10
156.836344035108
 20
216.0136283899217
 30
0.0
 11
156.836344035108
 21
217.0136283899217
 31
0.0
  0
ARC
  5
11BE
330
1F
100
AcDbEntity
  8
AM_VIS
100
AcDbCircle
 10
169.1902084749126
 20
220.0136283899218
 30
0.0
 40
5.000000000000017
100
AcDbArc
 50
166.1134596373704
 51
193.8865403626296
  0
LINE
  5
11BF
330
1F
100
AcDbEntity
  8
AM_VIS
100
AcDbLine
 10
166.336192230265
 20
222.5136283899217
 30
0.0
 11
166.336192230265
 21
227.5136283899217
 31
0.0
  0
LINE
  5
11C0
330
1F
100
AcDbEntity
  8
AM_VIS
100
AcDbLine
 10
166.2563567388004
 20
227.593641069428
 30
0.0
 11
166.3362046814434
 21
227.5136408173949
 31
0.0
  0
LINE
  5
11C1
330
1F
100
AcDbEntity
  8
AM_VIS
100
AcDbLine
 10
166.2563567388004
 20
222.4336157104154
 30
0.0
 11
166.3362046814434
 21
222.5136159624486
 31
0.0
  0
LINE
  5
11C2
330
1F
100
AcDbEntity
  8
AM_VIS
100
AcDbLine
 10
152.3628912970027
 20
227.5136401824144
 30
0.0
 11
152.4387707759437
 21
227.5936404233044
 31
0.0
  0
LINE
  5
11C3
330
1F
100
AcDbEntity
  8
AM_VIS
100
AcDbLine
 10
152.3629037299063
 20
227.5136283899217
 30
0.0
 11
152.3629037299063
 21
222.5136283899217
 31
0.0
  0
LINE
  5
11C4
330
1F
100
AcDbEntity
  8
AM_VIS
100
AcDbLine
 10
152.3628912970027
 20
222.5136165974291
 30
0.0
 11
152.4387707759437
 21
222.4336163565391
 31
0.0
  0
LINE
  5
11C5
330
1F
100
AcDbEntity
  8
AM_VIS
100
AcDbLine
 10
152.355484651604
 20
222.5136283899217
 30
0.0
 11
152.355484651604
 21
227.5136283899217
 31
0.0
  0
LINE
  5
11C6
330
1F
100
AcDbEntity
  8
AM_VIS
100
AcDbLine
 10
152.3554722098045
 20
227.5136413446792
 30
0.0
 11
152.4387707702152
 21
227.5936416058241
 31
0.0
  0
LINE
  5
11C7
330
1F
100
AcDbEntity
  8
AM_VIS
100
AcDbLine
 10
152.3554722098045
 20
222.5136154351643
 30
0.0
 11
152.4387707702152
 21
222.4336151740193
 31
0.0
  0
LINE
  5
11C8
330
1F
100
AcDbEntity
  8
AM_VIS
100
AcDbLine
 10
152.5509190109552
 20
227.5136385621395
 30
0.0
 11
152.6174141657518
 21
227.593638773751
 31
0.0
  0
LINE
  5
11C9
330
1F
100
AcDbEntity
  8
AM_VIS
100
AcDbLine
 10
152.5509312491338
 20
227.5136283899217
 30
0.0
 11
152.5509312491338
 21
222.5136283899217
 31
0.0
  0
LINE
  5
11CA
330
1F
100
AcDbEntity
  8
AM_VIS
100
AcDbLine
 10
152.5509190109552
 20
222.5136182177039
 30
0.0
 11
152.6174141657517
 21
222.4336180060924
 31
0.0
  0
LINE
  5
11CB
330
1F
100
AcDbEntity
  8
AM_VIS
100
AcDbLine
 10
152.5288661644577
 20
222.5136283899217
 30
0.0
 11
152.5288661644577
 21
227.5136283899217
 31
0.0
  0
LINE
  5
11CC
330
1F
100
AcDbEntity
  8
AM_VIS
100
AcDbLine
 10
152.5288537754812
 20
227.5136421045099
 30
0.0
 11
152.6174140219825
 21
227.5936423785594
 31
0.0
  0
LINE
  5
11CD
330
1F
100
AcDbEntity
  8
AM_VIS
100
AcDbLine
 10
152.5288537754812
 20
222.5136146753336
 30
0.0
 11
152.6174140219825
 21
222.4336144012841
 31
0.0
  0
LINE
  5
11CE
330
1F
100
AcDbEntity
  8
AM_VIS
100
AcDbLine
 10
152.9146857465332
 20
227.5136364550248
 30
0.0
 11
152.9700743881963
 21
227.5936366267439
 31
0.0
  0
LINE
  5
11CF
330
1F
100
AcDbEntity
  8
AM_VIS
100
AcDbLine
 10
152.9146973953047
 20
227.5136283899217
 30
0.0
 11
152.9146973953047
 21
222.5136283899217
 31
0.0
  0
LINE
  5
11D0
330
1F
100
AcDbEntity
  8
AM_VIS
100
AcDbLine
 10
152.9146857465332
 20
222.5136203248187
 30
0.0
 11
152.9700743881964
 21
222.4336201530996
 31
0.0
  0
LINE
  5
11D1
330
1F
100
AcDbEntity
  8
AM_VIS
100
AcDbLine
 10
152.8785577783577
 20
222.5136283899217
 30
0.0
 11
152.8785577783577
 21
227.5136283899217
 31
0.0
  0
LINE
  5
11D2
330
1F
100
AcDbEntity
  8
AM_VIS
100
AcDbLine
 10
152.8785454367326
 20
227.5136425099657
 30
0.0
 11
152.9700736979075
 21
227.5936427907922
 31
0.0
  0
LINE
  5
11D3
330
1F
100
AcDbEntity
  8
AM_VIS
100
AcDbLine
 10
152.8785454367326
 20
222.5136142698778
 30
0.0
 11
152.9700736979075
 21
222.4336139890513
 31
0.0
  0
LINE
  5
11D4
330
1F
100
AcDbEntity
  8
AM_VIS
100
AcDbLine
 10
153.4447704600779
 20
227.5136339366599
 30
0.0
 11
153.4876180603556
 21
227.5936340580023
 31
0.0
  0
LINE
  5
11D5
330
1F
100
AcDbEntity
  8
AM_VIS
100
AcDbLine
 10
153.4447808163108
 20
227.5136283899217
 30
0.0
 11
153.4447808163108
 21
222.5136283899217
 31
0.0
  0
LINE
  5
11D6
330
1F
100
AcDbEntity
  8
AM_VIS
100
AcDbLine
 10
153.4447704600779
 20
222.5136228431836
 30
0.0
 11
153.4876180603556
 21
222.4336227218412
 31
0.0
  0
LINE
  5
11D7
330
1F
100
AcDbEntity
  8
AM_VIS
100
AcDbLine
 10
153.3955026641885
 20
222.5136283899217
 30
0.0
 11
153.3955026641885
 21
227.5136283899217
 31
0.0
  0
LINE
  5
11D8
330
1F
100
AcDbEntity
  8
AM_VIS
100
AcDbLine
 10
153.3954903334473
 20
227.5136425896039
 30
0.0
 11
153.487616067391
 21
227.5936428717526
 31
0.0
  0
LINE
  5
11D9
330
1F
100
AcDbEntity
  8
AM_VIS
100
AcDbLine
 10
153.3954903334473
 20
222.5136141902396
 30
0.0
 11
153.487616067391
 21
222.4336139080909
 31
0.0
  0
LINE
  5
11DA
330
1F
100
AcDbEntity
  8
AM_VIS
100
AcDbLine
 10
154.1274446186137
 20
227.5136313137553
 30
0.0
 11
154.1566414662454
 21
227.5936313795007
 31
0.0
  0
LINE
  5
11DB
330
1F
100
AcDbEntity
  8
AM_VIS
100
AcDbLine
 10
154.1274526299879
 20
227.5136283899217
 30
0.0
 11
154.1274526299879
 21
222.5136283899217
 31
0.0
  0
LINE
  5
11DC
330
1F
100
AcDbEntity
  8
AM_VIS
100
AcDbLine
 10
154.1274446186137
 20
222.5136254660882
 30
0.0
 11
154.1566414662454
 21
222.4336254003427
 31
0.0
  0
LINE
  5
11DD
330
1F
100
AcDbEntity
  8
AM_VIS
100
AcDbLine
 10
154.0663122209458
 20
222.5136283899217
 30
0.0
 11
154.0663122209458
 21
227.5136283899217
 31
0.0
  0
LINE
  5
11DE
330
1F
100
AcDbEntity
  8
AM_VIS
100
AcDbLine
 10
154.0662998589412
 20
227.5136423492327
 30
0.0
 11
154.1566370494379
 21
227.5936426273817
 31
0.0
  0
LINE
  5
11DF
330
1F
100
AcDbEntity
  8
AM_VIS
100
AcDbLine
 10
154.0662998589412
 20
222.5136144306107
 30
0.0
 11
154.1566370494378
 21
222.4336141524617
 31
0.0
  0
LINE
  5
11E0
330
1F
100
AcDbEntity
  8
AM_VIS
100
AcDbLine
 10
154.9450275492339
 20
227.5136292118205
 30
0.0
 11
154.9598174881275
 21
227.5936292307037
 31
0.0
  0
LINE
  5
11E1
330
1F
100
AcDbEntity
  8
AM_VIS
100
AcDbLine
 10
154.945031994953
 20
227.5136283899217
 30
0.0
 11
154.945031994953
 21
222.5136283899217
 31
0.0
  0
LINE
  5
11E2
330
1F
100
AcDbEntity
  8
AM_VIS
100
AcDbLine
 10
154.9450275492339
 20
222.513627568023
 30
0.0
 11
154.9598174881275
 21
222.4336275491397
 31
0.0
  0
LINE
  5
11E3
330
1F
100
AcDbEntity
  8
AM_VIS
100
AcDbLine
 10
154.8736128334695
 20
222.5136283899217
 30
0.0
 11
154.8736128334695
 21
227.5136283899217
 31
0.0
  0
LINE
  5
11E4
330
1F
100
AcDbEntity
  8
AM_VIS
100
AcDbLine
 10
154.8736004156077
 20
227.5136417715128
 30
0.0
 11
154.9598093690311
 21
227.5936420399396
 31
0.0
  0
LINE
  5
11E5
330
1F
100
AcDbEntity
  8
AM_VIS
100
AcDbLine
 10
154.8736004156077
 20
222.5136150083307
 30
0.0
 11
154.9598093690311
 21
222.4336147399038
 31
0.0
  0
LINE
  5
11E6
330
1F
100
AcDbEntity
  8
AM_VIS
100
AcDbLine
 10
155.876344035108
 20
227.5936283899217
 30
0.0
 11
155.876344035108
 21
227.5136283899217
 31
0.0
  0
LINE
  5
11E7
330
1F
100
AcDbEntity
  8
AM_VIS
100
AcDbLine
 10
155.876344035108
 20
227.5136283899217
 30
0.0
 11
155.876344035108
 21
222.5136283899217
 31
0.0
  0
LINE
  5
11E8
330
1F
100
AcDbEntity
  8
AM_VIS
100
AcDbLine
 10
155.876344035108
 20
222.5136283899217
 30
0.0
 11
155.876344035108
 21
222.4336283899218
 31
0.0
  0
LINE
  5
11E9
330
1F
100
AcDbEntity
  8
AM_VIS
100
AcDbLine
 10
155.796495839951
 20
222.5136283899217
 30
0.0
 11
155.796495839951
 21
227.5136283899217
 31
0.0
  0
LINE
  5
11EA
330
1F
100
AcDbEntity
  8
AM_VIS
100
AcDbLine
 10
155.7964833887725
 20
227.5136408173948
 30
0.0
 11
155.8763313314156
 21
227.593641069428
 31
0.0
  0
LINE
  5
11EB
330
1F
100
AcDbEntity
  8
AM_VIS
100
AcDbLine
 10
155.7964833887725
 20
222.5136159624486
 30
0.0
 11
155.8763313314156
 21
222.4336157104154
 31
0.0
  0
LINE
  5
11EC
330
1F
100
AcDbEntity
  8
AM_VIS
100
AcDbLine
 10
156.8824827646341
 20
227.5936292307037
 30
0.0
 11
156.8972727035277
 21
227.5136292118205
 31
0.0
  0
LINE
  5
11ED
330
1F
100
AcDbEntity
  8
AM_VIS
100
AcDbLine
 10
156.8972682578086
 20
227.5136283899217
 30
0.0
 11
156.8972682578086
 21
222.5136283899217
 31
0.0
  0
LINE
  5
11EE
330
1F
100
AcDbEntity
  8
AM_VIS
100
AcDbLine
 10
156.8824827646341
 20
222.4336275491397
 30
0.0
 11
156.8972727035277
 21
222.513627568023
 31
0.0
  0
LINE
  5
11EF
330
1F
100
AcDbEntity
  8
AM_VIS
100
AcDbLine
 10
156.8110590552902
 20
222.5136283899217
 30
0.0
 11
156.8110590552902
 21
227.5136283899217
 31
0.0
  0
LINE
  5
11F0
330
1F
100
AcDbEntity
  8
AM_VIS
100
AcDbLine
 10
156.8110466857823
 20
227.5136394325995
 30
0.0
 11
156.8824655924398
 21
227.5936396600912
 31
0.0
  0
LINE
  5
11F1
330
1F
100
AcDbEntity
  8
AM_VIS
100
AcDbLine
 10
156.8824782167737
 20
227.5936283899217
 30
0.0
 11
156.8824782167737
 21
222.4336283899217
 31
0.0
  0
LINE
  5
11F2
330
1F
100
AcDbEntity
  8
AM_VIS
100
AcDbLine
 10
156.8110466857823
 20
222.5136173472439
 30
0.0
 11
156.8824655924398
 21
222.4336171197523
 31
0.0
  0
LINE
  5
11F3
330
1F
100
AcDbEntity
  8
AM_VIS
100
AcDbLine
 10
157.9521744256963
 20
227.5936313795007
 30
0.0
 11
157.981371273328
 21
227.5136313137553
 31
0.0
  0
LINE
  5
11F4
330
1F
100
AcDbEntity
  8
AM_VIS
100
AcDbLine
 10
157.9813632619538
 20
227.5136283899217
 30
0.0
 11
157.9813632619538
 21
222.5136283899217
 31
0.0
  0
LINE
  5
11F5
330
1F
100
AcDbEntity
  8
AM_VIS
100
AcDbLine
 10
157.9521744256963
 20
222.4336254003428
 30
0.0
 11
157.981371273328
 21
222.5136254660882
 31
0.0
  0
LINE
  5
11F6
330
1F
100
AcDbEntity
  8
AM_VIS
100
AcDbLine
 10
157.8910258251356
 20
222.5136283899217
 30
0.0
 11
157.8910258251356
 21
227.5136283899217
 31
0.0
  0
LINE
  5
11F7
330
1F
100
AcDbEntity
  8
AM_VIS
100
AcDbLine
 10
157.8910138152746
 20
227.5136375684594
 30
0.0
 11
157.9521539717097
 21
227.5936377615143
 31
0.0
  0
LINE
  5
11F8
330
1F
100
AcDbEntity
  8
AM_VIS
100
AcDbLine
 10
157.9521662341778
 20
227.5936283899217
 30
0.0
 11
157.9521662341778
 21
222.4336283899217
 31
0.0
  0
LINE
  5
11F9
330
1F
100
AcDbEntity
  8
AM_VIS
100
AcDbLine
 10
157.8910138152746
 20
222.5136192113841
 30
0.0
 11
157.9521539717097
 21
222.4336190183291
 31
0.0
  0
LINE
  5
11FA
330
1F
100
AcDbEntity
  8
AM_VIS
100
AcDbLine
 10
159.0577143123402
 20
227.5936340580022
 30
0.0
 11
159.1005619126179
 21
227.5136339366599
 31
0.0
  0
LINE
  5
11FB
330
1F
100
AcDbEntity
  8
AM_VIS
100
AcDbLine
 10
159.100551556385
 20
227.5136283899217
 30
0.0
 11
159.100551556385
 21
222.5136283899217
 31
0.0
  0
LINE
  5
11FC
330
1F
100
AcDbEntity
  8
AM_VIS
100
AcDbLine
 10
159.0577143123402
 20
222.4336227218412
 30
0.0
 11
159.1005619126178
 21
222.5136228431836
 31
0.0
  0
LINE
  5
11FD
330
1F
100
AcDbEntity
  8
AM_VIS
100
AcDbLine
 10
159.0084255774286
 20
222.5136283899217
 30
0.0
 11
159.0084255774286
 21
227.5136283899217
 31
0.0
  0
LINE
  5
11FE
330
1F
100
AcDbEntity
  8
AM_VIS
100
AcDbLine
 10
159.0084144645451
 20
227.5136352351553
 30
0.0
 11
159.0576923769095
 21
227.5936353828396
 31
0.0
  0
LINE
  5
11FF
330
1F
100
AcDbEntity
  8
AM_VIS
100
AcDbLine
 10
159.0577037295508
 20
227.5936283899217
 30
0.0
 11
159.0577037295508
 21
222.4336283899217
 31
0.0
  0
LINE
  5
1200
330
1F
100
AcDbEntity
  8
AM_VIS
100
AcDbLine
 10
159.0084144645451
 20
222.5136215446881
 30
0.0
 11
159.0576923769095
 21
222.4336213970038
 31
0.0
  0
LINE
  5
1201
330
1F
100
AcDbEntity
  8
AM_VIS
100
AcDbLine
 10
160.1704697592674
 20
227.5936366267438
 30
0.0
 11
160.2258584009305
 21
227.5136364550248
 31
0.0
  0
LINE
  5
1202
330
1F
100
AcDbEntity
  8
AM_VIS
100
AcDbLine
 10
160.2258467521591
 20
227.5136283899217
 30
0.0
 11
160.2258467521591
 21
222.5136283899217
 31
0.0
  0
LINE
  5
1203
330
1F
100
AcDbEntity
  8
AM_VIS
100
AcDbLine
 10
160.1704697592674
 20
222.4336201530996
 30
0.0
 11
160.2258584009305
 21
222.5136203248187
 31
0.0
  0
LINE
  5
1204
330
1F
100
AcDbEntity
  8
AM_VIS
100
AcDbLine
 10
160.1343182455278
 20
222.5136283899217
 30
0.0
 11
160.1343182455278
 21
227.5136283899217
 31
0.0
  0
LINE
  5
1205
330
1F
100
AcDbEntity
  8
AM_VIS
100
AcDbLine
 10
160.1343089114888
 20
227.5136326065001
 30
0.0
 11
160.1704483213559
 21
227.5936327000468
 31
0.0
  0
LINE
  5
1206
330
1F
100
AcDbEntity
  8
AM_VIS
100
AcDbLine
 10
160.1704578624748
 20
227.5936283899217
 30
0.0
 11
160.1704578624748
 21
222.4336283899217
 31
0.0
  0
LINE
  5
1207
330
1F
100
AcDbEntity
  8
AM_VIS
100
AcDbLine
 10
160.1343089114888
 20
222.5136241733434
 30
0.0
 11
160.1704483213559
 21
222.4336240797966
 31
0.0
  0
LINE
  5
1208
330
1F
100
AcDbEntity
  8
AM_VIS
100
AcDbLine
 10
161.2616213781778
 20
227.593638773751
 30
0.0
 11
161.3281165329743
 21
227.5136385621395
 31
0.0
  0
LINE
  5
1209
330
1F
100
AcDbEntity
  8
AM_VIS
100
AcDbLine
 10
161.3281042947957
 20
227.5136283899217
 30
0.0
 11
161.3281042947957
 21
222.5136283899217
 31
0.0
  0
LINE
  5
120A
330
1F
100
AcDbEntity
  8
AM_VIS
100
AcDbLine
 10
161.2616213781778
 20
222.4336180060924
 30
0.0
 11
161.3281165329743
 21
222.5136182177039
 31
0.0
  0
LINE
  5
120B
330
1F
100
AcDbEntity
  8
AM_VIS
100
AcDbLine
 10
161.2395438007337
 20
222.5136283899217
 30
0.0
 11
161.2395438007337
 21
227.5136283899217
 31
0.0
  0
LINE
  5
120C
330
1F
100
AcDbEntity
  8
AM_VIS
100
AcDbLine
 10
161.2395374257469
 20
227.5136301482171
 30
0.0
 11
161.2616023653458
 21
227.593630188231
 31
0.0
  0
LINE
  5
120D
330
1F
100
AcDbEntity
  8
AM_VIS
100
AcDbLine
 10
161.2616088854098
 20
227.5936283899217
 30
0.0
 11
161.2616088854098
 21
222.4336283899217
 31
0.0
  0
LINE
  5
120E
330
1F
100
AcDbEntity
  8
AM_VIS
100
AcDbLine
 10
161.2395374257469
 20
222.5136266316264
 30
0.0
 11
161.2616023653459
 21
222.4336265916124
 31
0.0
  0
LINE
  5
120F
330
1F
100
AcDbEntity
  8
AM_VIS
100
AcDbLine
 10
162.3029092468927
 20
227.5936404233044
 30
0.0
 11
162.3787887258337
 21
227.5136401824144
 31
0.0
  0
LINE
  5
1210
330
1F
100
AcDbEntity
  8
AM_VIS
100
AcDbLine
 10
162.37877629293
 20
227.5136283899217
 30
0.0
 11
162.37877629293
 21
222.5136283899217
 31
0.0
  0
LINE
  5
1211
330
1F
100
AcDbEntity
  8
AM_VIS
100
AcDbLine
 10
162.3029092468927
 20
222.4336163565391
 30
0.0
 11
162.3787887258337
 21
222.5136165974291
 31
0.0
  0
LINE
  5
1212
330
1F
100
AcDbEntity
  8
AM_VIS
100
AcDbLine
 10
162.2954774817148
 20
222.5136283899217
 30
0.0
 11
162.2954774817148
 21
227.5136283899217
 31
0.0
  0
LINE
  5
1213
330
1F
100
AcDbEntity
  8
AM_VIS
100
AcDbLine
 10
162.2954751952294
 20
227.5136286019654
 30
0.0
 11
162.3028942206746
 21
227.5936286068672
 31
0.0
  0
LINE
  5
1214
330
1F
100
AcDbEntity
  8
AM_VIS
100
AcDbLine
 10
162.3028965600171
 20
227.5936283899217
 30
0.0
 11
162.3028965600171
 21
222.4336283899217
 31
0.0
  0
LINE
  5
1215
330
1F
100
AcDbEntity
  8
AM_VIS
100
AcDbLine
 10
162.2954751952294
 20
222.5136281778781
 30
0.0
 11
162.3028942206746
 21
222.4336281729762
 31
0.0
  0
LINE
  5
1216
330
1F
100
AcDbEntity
  8
AM_VIS
100
AcDbLine
 10
163.2673647750916
 20
227.5936416058242
 30
0.0
 11
163.3506633355023
 21
227.5136413446792
 31
0.0
  0
LINE
  5
1217
330
1F
100
AcDbEntity
  8
AM_VIS
100
AcDbLine
 10
163.3506508937029
 20
227.5136283899217
 30
0.0
 11
163.3506508937029
 21
222.5136283899217
 31
0.0
  0
LINE
  5
1218
330
1F
100
AcDbEntity
  8
AM_VIS
100
AcDbLine
 10
163.2673647750916
 20
222.4336151740193
 30
0.0
 11
163.3506633355023
 21
222.5136154351643
 31
0.0
  0
LINE
  5
1219
330
1F
100
AcDbEntity
  8
AM_VIS
100
AcDbLine
 10
163.2747711607899
 20
222.5136283899217
 30
0.0
 11
163.2747711607899
 21
227.5136283899217
 31
0.0
  0
LINE
  5
121A
330
1F
100
AcDbEntity
  8
AM_VIS
100
AcDbLine
 10
163.2673544218302
 20
227.5936286068672
 30
0.0
 11
163.2747734472753
 21
227.5136286019654
 31
0.0
  0
LINE
  5
121B
330
1F
100
AcDbEntity
  8
AM_VIS
100
AcDbLine
 10
163.2673544218302
 20
222.4336281729762
 30
0.0
 11
163.2747734472753
 21
222.5136281778781
 31
0.0
  0
LINE
  5
121C
330
1F
100
AcDbEntity
  8
AM_VIS
100
AcDbLine
 10
164.1300091979316
 20
227.5936423785594
 30
0.0
 11
164.2185694444329
 21
227.5136421045099
 31
0.0
  0
LINE
  5
121D
330
1F
100
AcDbEntity
  8
AM_VIS
100
AcDbLine
 10
164.2185570554564
 20
227.5136283899217
 30
0.0
 11
164.2185570554564
 21
222.5136283899217
 31
0.0
  0
LINE
  5
121E
330
1F
100
AcDbEntity
  8
AM_VIS
100
AcDbLine
 10
164.1300091979316
 20
222.4336144012841
 30
0.0
 11
164.2185694444329
 21
222.5136146753336
 31
0.0
  0
LINE
  5
121F
330
1F
100
AcDbEntity
  8
AM_VIS
100
AcDbLine
 10
164.1520616460705
 20
222.5136283899217
 30
0.0
 11
164.1520616460705
 21
227.5136283899217
 31
0.0
  0
LINE
  5
1220
330
1F
100
AcDbEntity
  8
AM_VIS
100
AcDbLine
 10
164.1300030814584
 20
227.593630188231
 30
0.0
 11
164.1520680210574
 21
227.5136301482171
 31
0.0
  0
LINE
  5
1221
330
1F
100
AcDbEntity
  8
AM_VIS
100
AcDbLine
 10
164.1300030814584
 20
222.4336265916124
 30
0.0
 11
164.1520680210574
 21
222.5136266316264
 31
0.0
  0
LINE
  5
1222
330
1F
100
AcDbEntity
  8
AM_VIS
100
AcDbLine
 10
164.8685005449417
 20
227.5936427907922
 30
0.0
 11
164.9600288061165
 21
227.5136425099657
 31
0.0
  0
LINE
  5
1223
330
1F
100
AcDbEntity
  8
AM_VIS
100
AcDbLine
 10
164.9600164644915
 20
227.5136283899217
 30
0.0
 11
164.9600164644915
 21
222.5136283899217
 31
0.0
  0
LINE
  5
1224
330
1F
100
AcDbEntity
  8
AM_VIS
100
AcDbLine
 10
164.8685005449417
 20
222.4336139890513
 30
0.0
 11
164.9600288061165
 21
222.5136142698778
 31
0.0
  0
LINE
  5
1225
330
1F
100
AcDbEntity
  8
AM_VIS
100
AcDbLine
 10
164.9046275748072
 20
222.5136283899217
 30
0.0
 11
164.9046275748072
 21
227.5136283899217
 31
0.0
  0
LINE
  5
1226
330
1F
100
AcDbEntity
  8
AM_VIS
100
AcDbLine
 10
164.8684974989791
 20
227.5936327000468
 30
0.0
 11
164.9046369088462
 21
227.5136326065001
 31
0.0
  0
LINE
  5
1227
330
1F
100
AcDbEntity
  8
AM_VIS
100
AcDbLine
 10
164.8684974989791
 20
222.4336240797967
 30
0.0
 11
164.9046369088462
 21
222.5136241733434
 31
0.0
  0
LINE
  5
1228
330
1F
100
AcDbEntity
  8
AM_VIS
100
AcDbLine
 10
165.4637123083821
 20
227.5936428717526
 30
0.0
 11
165.5558380423258
 21
227.5136425896039
 31
0.0
  0
LINE
  5
1229
330
1F
100
AcDbEntity
  8
AM_VIS
100
AcDbLine
 10
165.5558257115846
 20
227.5136283899217
 30
0.0
 11
165.5558257115846
 21
222.5136283899217
 31
0.0
  0
LINE
  5
122A
330
1F
100
AcDbEntity
  8
AM_VIS
100
AcDbLine
 10
165.4637123083821
 20
222.4336139080909
 30
0.0
 11
165.5558380423258
 21
222.5136141902396
 31
0.0
  0
LINE
  5
122B
330
1F
100
AcDbEntity
  8
AM_VIS
100
AcDbLine
 10
165.5129778847505
 20
222.5136283899217
 30
0.0
 11
165.5129778847505
 21
227.5136283899217
 31
0.0
  0
LINE
  5
122C
330
1F
100
AcDbEntity
  8
AM_VIS
100
AcDbLine
 10
165.4637110852696
 20
227.5936353828396
 30
0.0
 11
165.512988997634
 21
227.5136352351553
 31
0.0
  0
LINE
  5
122D
330
1F
100
AcDbEntity
  8
AM_VIS
100
AcDbLine
 10
165.4637110852696
 20
222.4336213970038
 30
0.0
 11
165.512988997634
 21
222.5136215446881
 31
0.0
  0
LINE
  5
122E
330
1F
100
AcDbEntity
  8
AM_VIS
100
AcDbLine
 10
165.9002288217084
 20
227.5936426273817
 30
0.0
 11
165.990566012205
 21
227.5136423492327
 31
0.0
  0
LINE
  5
122F
330
1F
100
AcDbEntity
  8
AM_VIS
100
AcDbLine
 10
165.9905536502004
 20
227.5136283899217
 30
0.0
 11
165.9905536502004
 21
222.5136283899217
 31
0.0
  0
LINE
  5
1230
330
1F
100
AcDbEntity
  8
AM_VIS
100
AcDbLine
 10
165.9002288217084
 20
222.4336141524617
 30
0.0
 11
165.990566012205
 21
222.5136144306107
 31
0.0
  0
LINE
  5
1231
330
1F
100
AcDbEntity
  8
AM_VIS
100
AcDbLine
 10
165.9613566224244
 20
222.5136283899217
 30
0.0
 11
165.9613566224244
 21
227.5136283899217
 31
0.0
  0
LINE
  5
1232
330
1F
100
AcDbEntity
  8
AM_VIS
100
AcDbLine
 10
165.9002284758503
 20
227.5936377615143
 30
0.0
 11
165.9613686322854
 21
227.5136375684594
 31
0.0
  0
LINE
  5
1233
330
1F
100
AcDbEntity
  8
AM_VIS
100
AcDbLine
 10
165.9002284758503
 20
222.4336190183291
 30
0.0
 11
165.9613686322854
 21
222.5136192113841
 31
0.0
  0
LINE
  5
1234
330
1F
100
AcDbEntity
  8
AM_VIS
100
AcDbLine
 10
166.1667445195192
 20
227.5936420399396
 30
0.0
 11
166.2529534729426
 21
227.5136417715128
 31
0.0
  0
LINE
  5
1235
330
1F
100
AcDbEntity
  8
AM_VIS
100
AcDbLine
 10
166.2529410550808
 20
227.5136283899217
 30
0.0
 11
166.2529410550808
 21
222.5136283899217
 31
0.0
  0
LINE
  5
1236
330
1F
100
AcDbEntity
  8
AM_VIS
100
AcDbLine
 10
166.1667445195192
 20
222.4336147399038
 30
0.0
 11
166.2529534729426
 21
222.5136150083307
 31
0.0
  0
LINE
  5
1237
330
1F
100
AcDbEntity
  8
AM_VIS
100
AcDbLine
 10
166.2381510140458
 20
222.5136283899217
 30
0.0
 11
166.2381510140458
 21
227.5136283899217
 31
0.0
  0
LINE
  5
1238
330
1F
100
AcDbEntity
  8
AM_VIS
100
AcDbLine
 10
166.1667444768962
 20
227.5936396600912
 30
0.0
 11
166.2381633835537
 21
227.5136394325995
 31
0.0
  0
LINE
  5
1239
330
1F
100
AcDbEntity
  8
AM_VIS
100
AcDbLine
 10
166.1667444768962
 20
222.4336171197523
 30
0.0
 11
166.2381633835537
 21
222.5136173472439
 31
0.0
  0
LINE
  5
123A
330
1F
100
AcDbEntity
  8
AM_VIS
100
AcDbLine
 10
154.336344035108
 20
222.0136283899218
 30
0.0
 11
154.336344035108
 21
217.5136283899217
 31
0.0
  0
LINE
  5
123B
330
1F
100
AcDbEntity
  8
AM_VIS
100
AcDbLine
 10
164.336344035108
 20
218.8136283899217
 30
0.0
 11
164.336344035108
 21
217.5136283899217
 31
0.0
  0
LINE
  5
123C
330
1F
100
AcDbEntity
  8
AM_VIS
100
AcDbLine
 10
164.336344035108
 20
222.0136283899218
 30
0.0
 11
164.336344035108
 21
221.2136283899217
 31
0.0
  0
LINE
  5
123D
330
1F
100
AcDbEntity
  8
AM_VIS
100
AcDbLine
 10
163.836344035108
 20
217.0136283899217
 30
0.0
 11
164.336344035108
 21
217.5136283899217
 31
0.0
  0
LINE
  5
123E
330
1F
100
AcDbEntity
  8
AM_VIS
100
AcDbLine
 10
154.836344035108
 20
217.0136283899217
 30
0.0
 11
154.336344035108
 21
217.5136283899217
 31
0.0
  0
LINE
  5
123F
330
1F
100
AcDbEntity
  8
AM_VIS
100
AcDbLine
 10
152.836344035108
 20
228.0136283899217
 30
0.0
 11
152.336344035108
 21
227.5136283899217
 31
0.0
  0
LINE
  5
1240
330
1F
100
AcDbEntity
  8
AM_VIS
100
AcDbLine
 10
165.836344035108
 20
228.0136283899217
 30
0.0
 11
166.256344035108
 21
227.5936283899217
 31
0.0
  0
LINE
  5
1241
330
1F
100
AcDbEntity
  8
AM_VIS
100
AcDbLine
 10
152.336344035108
 20
222.5136283899217
 30
0.0
 11
152.336344035108
 21
227.5136283899217
 31
0.0
  0
LINE
  5
1242
330
1F
100
AcDbEntity
  8
AM_VIS
100
AcDbLine
 10
165.836344035108
 20
222.0136283899218
 30
0.0
 11
166.256344035108
 21
222.4336283899218
 31
0.0
  0
LINE
  5
1243
330
1F
100
AcDbEntity
  8
AM_VIS
100
AcDbLine
 10
152.836344035108
 20
222.0136283899218
 30
0.0
 11
152.336344035108
 21
222.5136283899217
 31
0.0
  0
LINE
  5
1244
330
1F
100
AcDbEntity
  8
AM_VIS
100
AcDbLine
 10
154.336344035108
 20
217.5136283899217
 30
0.0
 11
164.336344035108
 21
217.5136283899217
 31
0.0
  0
LINE
  5
1245
330
1F
100
AcDbEntity
  8
AM_VIS
100
AcDbLine
 10
163.836344035108
 20
217.0136283899217
 30
0.0
 11
154.836344035108
 21
217.0136283899217
 31
0.0
  0
LINE
  5
1246
102
{ACAD_REACTORS
330
15F4
102
}
330
1F
100
AcDbEntity
  8
AM_VIS
100
AcDbLine
 10
152.836344035108
 20
228.0136283899217
 30
0.0
 11
165.836344035108
 21
228.0136283899217
 31
0.0
  0
LINE
  5
1247
330
1F
100
AcDbEntity
  8
AM_VIS
100
AcDbLine
 10
166.336192230265
 20
227.5136283899217
 30
0.0
 11
166.2529410550808
 21
227.5136283899217
 31
0.0
  0
LINE
  5
1248
330
1F
100
AcDbEntity
  8
AM_VIS
100
AcDbLine
 10
166.2381510140458
 20
227.5136283899217
 30
0.0
 11
165.9905536502004
 21
227.5136283899217
 31
0.0
  0
LINE
  5
1249
330
1F
100
AcDbEntity
  8
AM_VIS
100
AcDbLine
 10
165.9613566224244
 20
227.5136283899217
 30
0.0
 11
165.5558257115846
 21
227.5136283899217
 31
0.0
  0
LINE
  5
124A
330
1F
100
AcDbEntity
  8
AM_VIS
100
AcDbLine
 10
165.5129778847504
 20
227.5136283899217
 30
0.0
 11
164.9600164644914
 21
227.5136283899217
 31
0.0
  0
LINE
  5
124B
330
1F
100
AcDbEntity
  8
AM_VIS
100
AcDbLine
 10
164.9046275748072
 20
227.5136283899217
 30
0.0
 11
164.2185570554564
 21
227.5136283899217
 31
0.0
  0
LINE
  5
124C
330
1F
100
AcDbEntity
  8
AM_VIS
100
AcDbLine
 10
164.1520616460705
 20
227.5136283899217
 30
0.0
 11
163.3506508937029
 21
227.5136283899217
 31
0.0
  0
LINE
  5
124D
330
1F
100
AcDbEntity
  8
AM_VIS
100
AcDbLine
 10
163.2747711607899
 20
227.5136283899217
 30
0.0
 11
162.37877629293
 21
227.5136283899217
 31
0.0
  0
LINE
  5
124E
330
1F
100
AcDbEntity
  8
AM_VIS
100
AcDbLine
 10
162.2954774817148
 20
227.5136283899217
 30
0.0
 11
161.3281042947957
 21
227.5136283899217
 31
0.0
  0
LINE
  5
124F
330
1F
100
AcDbEntity
  8
AM_VIS
100
AcDbLine
 10
161.2395438007337
 20
227.5136283899217
 30
0.0
 11
160.2258467521591
 21
227.5136283899217
 31
0.0
  0
LINE
  5
1250
330
1F
100
AcDbEntity
  8
AM_VIS
100
AcDbLine
 10
160.1343182455278
 20
227.5136283899217
 30
0.0
 11
159.100551556385
 21
227.5136283899217
 31
0.0
  0
LINE
  5
1251
330
1F
100
AcDbEntity
  8
AM_VIS
100
AcDbLine
 10
159.0084255774286
 20
227.5136283899217
 30
0.0
 11
157.9813632619538
 21
227.5136283899217
 31
0.0
  0
LINE
  5
1252
330
1F
100
AcDbEntity
  8
AM_VIS
100
AcDbLine
 10
157.8910258251356
 20
227.5136283899217
 30
0.0
 11
156.8972682578086
 21
227.5136283899217
 31
0.0
  0
LINE
  5
1253
330
1F
100
AcDbEntity
  8
AM_VIS
100
AcDbLine
 10
156.8110590552902
 20
227.5136283899217
 30
0.0
 11
155.876344035108
 21
227.5136283899217
 31
0.0
  0
LINE
  5
1254
330
1F
100
AcDbEntity
  8
AM_VIS
100
AcDbLine
 10
155.796495839951
 20
227.5136283899217
 30
0.0
 11
154.945031994953
 21
227.5136283899217
 31
0.0
  0
LINE
  5
1255
330
1F
100
AcDbEntity
  8
AM_VIS
100
AcDbLine
 10
154.8736128334695
 20
227.5136283899217
 30
0.0
 11
154.1274526299879
 21
227.5136283899217
 31
0.0
  0
LINE
  5
1256
330
1F
100
AcDbEntity
  8
AM_VIS
100
AcDbLine
 10
154.0663122209458
 20
227.5136283899217
 30
0.0
 11
153.4447808163107
 21
227.5136283899217
 31
0.0
  0
LINE
  5
1257
330
1F
100
AcDbEntity
  8
AM_VIS
100
AcDbLine
 10
153.3955026641885
 20
227.5136283899217
 30
0.0
 11
152.9146973953047
 21
227.5136283899217
 31
0.0
  0
LINE
  5
1258
330
1F
100
AcDbEntity
  8
AM_VIS
100
AcDbLine
 10
152.8785577783577
 20
227.5136283899217
 30
0.0
 11
152.5509312491338
 21
227.5136283899217
 31
0.0
  0
LINE
  5
1259
330
1F
100
AcDbEntity
  8
AM_VIS
100
AcDbLine
 10
152.5288661644577
 20
227.5136283899217
 30
0.0
 11
152.3629037299063
 21
227.5136283899217
 31
0.0
  0
LINE
  5
125A
330
1F
100
AcDbEntity
  8
AM_VIS
100
AcDbLine
 10
152.355484651604
 20
227.5136283899217
 30
0.0
 11
152.336344035108
 21
227.5136283899217
 31
0.0
  0
LINE
  5
125B
330
1F
100
AcDbEntity
  8
AM_VIS
100
AcDbLine
 10
166.2529410550808
 20
222.5136283899217
 30
0.0
 11
166.336192230265
 21
222.5136283899217
 31
0.0
  0
LINE
  5
125C
330
1F
100
AcDbEntity
  8
AM_VIS
100
AcDbLine
 10
152.336344035108
 20
222.5136283899217
 30
0.0
 11
152.355484651604
 21
222.5136283899217
 31
0.0
  0
LINE
  5
125D
330
1F
100
AcDbEntity
  8
AM_VIS
100
AcDbLine
 10
152.3629037299063
 20
222.5136283899217
 30
0.0
 11
152.5288661644577
 21
222.5136283899217
 31
0.0
  0
LINE
  5
125E
330
1F
100
AcDbEntity
  8
AM_VIS
100
AcDbLine
 10
152.5509312491338
 20
222.5136283899217
 30
0.0
 11
152.8785577783577
 21
222.5136283899217
 31
0.0
  0
LINE
  5
125F
330
1F
100
AcDbEntity
  8
AM_VIS
100
AcDbLine
 10
152.9146973953047
 20
222.5136283899217
 30
0.0
 11
153.3955026641885
 21
222.5136283899217
 31
0.0
  0
LINE
  5
1260
330
1F
100
AcDbEntity
  8
AM_VIS
100
AcDbLine
 10
153.4447808163108
 20
222.5136283899217
 30
0.0
 11
154.0663122209458
 21
222.5136283899217
 31
0.0
  0
LINE
  5
1261
330
1F
100
AcDbEntity
  8
AM_VIS
100
AcDbLine
 10
154.1274526299879
 20
222.5136283899217
 30
0.0
 11
154.8736128334695
 21
222.5136283899217
 31
0.0
  0
LINE
  5
1262
330
1F
100
AcDbEntity
  8
AM_VIS
100
AcDbLine
 10
154.945031994953
 20
222.5136283899217
 30
0.0
 11
155.796495839951
 21
222.5136283899217
 31
0.0
  0
LINE
  5
1263
330
1F
100
AcDbEntity
  8
AM_VIS
100
AcDbLine
 10
155.876344035108
 20
222.5136283899217
 30
0.0
 11
156.8110590552902
 21
222.5136283899217
 31
0.0
  0
LINE
  5
1264
330
1F
100
AcDbEntity
  8
AM_VIS
100
AcDbLine
 10
156.8972682578086
 20
222.5136283899217
 30
0.0
 11
157.8910258251356
 21
222.5136283899217
 31
0.0
  0
LINE
  5
1265
330
1F
100
AcDbEntity
  8
AM_VIS
100
AcDbLine
 10
157.9813632619538
 20
222.5136283899217
 30
0.0
 11
159.0084255774286
 21
222.5136283899217
 31
0.0
  0
LINE
  5
1266
330
1F
100
AcDbEntity
  8
AM_VIS
100
AcDbLine
 10
159.100551556385
 20
222.5136283899217
 30
0.0
 11
160.1343182455278
 21
222.5136283899217
 31
0.0
  0
LINE
  5
1267
330
1F
100
AcDbEntity
  8
AM_VIS
100
AcDbLine
 10
160.2258467521591
 20
222.5136283899217
 30
0.0
 11
161.2395438007337
 21
222.5136283899217
 31
0.0
  0
LINE
  5
1268
330
1F
100
AcDbEntity
  8
AM_VIS
100
AcDbLine
 10
161.3281042947957
 20
222.5136283899217
 30
0.0
 11
162.2954774817148
 21
222.5136283899217
 31
0.0
  0
LINE
  5
1269
330
1F
100
AcDbEntity
  8
AM_VIS
100
AcDbLine
 10
162.37877629293
 20
222.5136283899217
 30
0.0
 11
163.27477116079
 21
222.5136283899217
 31
0.0
  0
LINE
  5
126A
330
1F
100
AcDbEntity
  8
AM_VIS
100
AcDbLine
 10
163.3506508937029
 20
222.5136283899217
 30
0.0
 11
164.1520616460705
 21
222.5136283899217
 31
0.0
  0
LINE
  5
126B
330
1F
100
AcDbEntity
  8
AM_VIS
100
AcDbLine
 10
164.2185570554564
 20
222.5136283899217
 30
0.0
 11
164.9046275748072
 21
222.5136283899217
 31
0.0
  0
LINE
  5
126C
330
1F
100
AcDbEntity
  8
AM_VIS
100
AcDbLine
 10
164.9600164644915
 20
222.5136283899217
 30
0.0
 11
165.5129778847505
 21
222.5136283899217
 31
0.0
  0
LINE
  5
126D
330
1F
100
AcDbEntity
  8
AM_VIS
100
AcDbLine
 10
165.5558257115846
 20
222.5136283899217
 30
0.0
 11
165.9613566224243
 21
222.5136283899217
 31
0.0
  0
LINE
  5
126E
330
1F
100
AcDbEntity
  8
AM_VIS
100
AcDbLine
 10
165.9905536502004
 20
222.5136283899217
 30
0.0
 11
166.2381510140458
 21
222.5136283899217
 31
0.0
  0
LINE
  5
126F
330
1F
100
AcDbEntity
  8
AM_VIS
100
AcDbLine
 10
165.836344035108
 20
222.0136283899218
 30
0.0
 11
152.836344035108
 21
222.0136283899218
 31
0.0
  0
LINE
  5
1270
330
1F
100
AcDbEntity
  8
AM_VIS
100
AcDbLine
 10
168.836344035108
 20
150.5136283899217
 30
0.0
 11
149.8363440351081
 21
150.5136283899217
 31
0.0
  0
LINE
  5
1271
330
1F
100
AcDbEntity
  8
AM_VIS
100
AcDbLine
 10
149.8363440351081
 20
143.5136283899217
 30
0.0
 11
168.836344035108
 21
143.5136283899217
 31
0.0
  0
LINE
  5
1272
330
1F
100
AcDbEntity
  8
AM_VIS
100
AcDbLine
 10
149.3363440351081
 20
150.5136283899217
 30
0.0
 11
149.3363440351081
 21
143.5136283899217
 31
0.0
  0
LINE
  5
1273
330
1F
100
AcDbEntity
  8
AM_VIS
100
AcDbLine
 10
169.3363440351081
 20
143.5136283899217
 30
0.0
 11
169.3363440351081
 21
150.5136283899217
 31
0.0
  0
LINE
  5
1274
330
1F
100
AcDbEntity
  8
AM_VIS
100
AcDbLine
 10
163.9124847066351
 20
135.5129445876283
 30
0.0
 11
164.3313440351081
 21
143.5136283899217
 31
0.0
  0
LINE
  5
1275
330
1F
100
AcDbEntity
  8
AM_VIS
100
AcDbLine
 10
154.7602033635811
 20
135.5129445876283
 30
0.0
 11
154.3413440351081
 21
143.5136283899217
 31
0.0
  0
LINE
  5
1276
330
1F
100
AcDbEntity
  8
AM_VIS
100
AcDbLine
 10
163.3863440351081
 20
135.0136283899217
 30
0.0
 11
163.9124847066351
 21
135.5129445876283
 31
0.0
  0
LINE
  5
1277
330
1F
100
AcDbEntity
  8
AM_VIS
100
AcDbLine
 10
155.2863440351081
 20
135.0136283899217
 30
0.0
 11
154.7602033635811
 21
135.5129445876283
 31
0.0
  0
LINE
  5
1278
330
1F
100
AcDbEntity
  8
AM_VIS
100
AcDbLine
 10
149.3363440351081
 20
150.5136283899217
 30
0.0
 11
149.8363440351081
 21
150.5136283899217
 31
0.0
  0
LINE
  5
1279
102
{ACAD_REACTORS
330
1594
102
}
330
1F
100
AcDbEntity
  8
AM_VIS
100
AcDbLine
 10
149.8363440351081
 20
143.5136283899217
 30
0.0
 11
149.3363440351081
 21
143.5136283899217
 31
0.0
  0
LINE
  5
127A
102
{ACAD_REACTORS
330
1594
102
}
330
1F
100
AcDbEntity
  8
AM_VIS
100
AcDbLine
 10
169.3363440351081
 20
143.5136283899217
 30
0.0
 11
168.836344035108
 21
143.5136283899217
 31
0.0
  0
LINE
  5
127B
330
1F
100
AcDbEntity
  8
AM_VIS
100
AcDbLine
 10
168.836344035108
 20
150.5136283899217
 30
0.0
 11
169.3363440351081
 21
150.5136283899217
 31
0.0
  0
LINE
  5
127C
102
{ACAD_REACTORS
330
15F4
102
}
330
1F
100
AcDbEntity
  8
AM_VIS
100
AcDbLine
 10
163.3863440351081
 20
135.0136283899217
 30
0.0
 11
155.2863440351081
 21
135.0136283899217
 31
0.0
  0
LINE
  5
127E
330
1F
100
AcDbEntity
  8
AM_VIS
100
AcDbLine
 10
149.836344035108
 20
204.5136283899217
 30
0.0
 11
168.836344035108
 21
204.5136283899217
 31
0.0
  0
LINE
  5
127F
330
1F
100
AcDbEntity
  8
AM_VIS
100
AcDbLine
 10
149.836344035108
 20
211.5136283899218
 30
0.0
 11
168.836344035108
 21
211.5136283899218
 31
0.0
  0
LINE
  5
1280
330
1F
100
AcDbEntity
  8
AM_VIS
100
AcDbLine
 10
169.336344035108
 20
204.5136283899217
 30
0.0
 11
169.336344035108
 21
211.5136283899218
 31
0.0
  0
LINE
  5
1281
330
1F
100
AcDbEntity
  8
AM_VIS
100
AcDbLine
 10
149.336344035108
 20
211.5136283899218
 30
0.0
 11
149.336344035108
 21
204.5136283899217
 31
0.0
  0
LINE
  5
1282
330
1F
100
AcDbEntity
  8
AM_VIS
100
AcDbLine
 10
149.836344035108
 20
204.5136283899217
 30
0.0
 11
149.336344035108
 21
204.5136283899217
 31
0.0
  0
LINE
  5
1283
330
1F
100
AcDbEntity
  8
AM_VIS
100
AcDbLine
 10
149.336344035108
 20
211.5136283899218
 30
0.0
 11
149.836344035108
 21
211.5136283899218
 31
0.0
  0
LINE
  5
1284
330
1F
100
AcDbEntity
  8
AM_VIS
100
AcDbLine
 10
168.836344035108
 20
211.5136283899218
 30
0.0
 11
169.336344035108
 21
211.5136283899218
 31
0.0
  0
LINE
  5
1285
330
1F
100
AcDbEntity
  8
AM_VIS
100
AcDbLine
 10
169.336344035108
 20
204.5136283899217
 30
0.0
 11
168.836344035108
 21
204.5136283899217
 31
0.0
  0
LINE
  5
1286
330
1F
100
AcDbEntity
  8
AM_VIS
100
AcDbLine
 10
152.628140105108
 20
166.0136283899217
 30
0.0
 11
152.628140105108
 21
164.0136283899217
 31
0.0
  0
LINE
  5
1287
330
1F
100
AcDbEntity
  8
AM_VIS
100
AcDbLine
 10
169.336344035108
 20
204.5136283899217
 30
0.0
 11
169.336344035108
 21
204.4136283899217
 31
0.0
  0
LINE
  5
1288
330
1F
100
AcDbEntity
  8
AM_VIS
100
AcDbLine
 10
149.336344035108
 20
204.4136283899217
 30
0.0
 11
149.336344035108
 21
204.5136283899217
 31
0.0
  0
LINE
  5
1289
330
1F
100
AcDbEntity
  8
AM_VIS
100
AcDbLine
 10
149.336344035108
 20
150.5136283899217
 30
0.0
 11
149.336344035108
 21
150.6136283899217
 31
0.0
  0
LINE
  5
128A
330
1F
100
AcDbEntity
  8
AM_VIS
100
AcDbLine
 10
169.336344035108
 20
150.6136283899217
 30
0.0
 11
169.336344035108
 21
150.5136283899217
 31
0.0
  0
LINE
  5
128B
330
1F
100
AcDbEntity
  8
AM_VIS
100
AcDbLine
 10
149.336344035108
 20
204.4136283899217
 30
0.0
 11
149.336344035108
 21
150.6136283899217
 31
0.0
  0
LINE
  5
128C
330
1F
100
AcDbEntity
  8
AM_VIS
100
AcDbLine
 10
149.336344035108
 20
204.4136283899217
 30
0.0
 11
150.336344035108
 21
204.4136283899217
 31
0.0
  0
LINE
  5
128D
330
1F
100
AcDbEntity
  8
AM_VIS
100
AcDbLine
 10
150.336344035108
 20
204.4136283899217
 30
0.0
 11
150.336344035108
 21
150.6136283899217
 31
0.0
  0
LINE
  5
128E
330
1F
100
AcDbEntity
  8
AM_VIS
100
AcDbLine
 10
149.336344035108
 20
150.6136283899217
 30
0.0
 11
150.336344035108
 21
150.6136283899217
 31
0.0
  0
LINE
  5
128F
330
1F
100
AcDbEntity
  8
AM_VIS
100
AcDbLine
 10
168.336344035108
 20
204.4136283899217
 30
0.0
 11
168.336344035108
 21
150.6136283899217
 31
0.0
  0
LINE
  5
1290
330
1F
100
AcDbEntity
  8
AM_VIS
100
AcDbLine
 10
168.336344035108
 20
204.4136283899217
 30
0.0
 11
169.336344035108
 21
204.4136283899217
 31
0.0
  0
LINE
  5
1291
330
1F
100
AcDbEntity
  8
AM_VIS
100
AcDbLine
 10
169.336344035108
 20
204.4136283899217
 30
0.0
 11
169.336344035108
 21
150.6136283899217
 31
0.0
  0
LINE
  5
1292
330
1F
100
AcDbEntity
  8
AM_VIS
100
AcDbLine
 10
168.336344035108
 20
150.6136283899217
 30
0.0
 11
169.336344035108
 21
150.6136283899217
 31
0.0
  0
LINE
  5
1293
330
1F
100
AcDbEntity
  8
AM_VIS
100
AcDbLine
 10
212.2620750325693
 20
206.3136283899219
 30
0.0
 11
211.3620750325693
 21
206.3136283899219
 31
0.0
  0
LINE
  5
1294
330
1F
100
AcDbEntity
  8
AM_VIS
100
AcDbLine
 10
211.3620750325693
 20
150.6136283899217
 30
0.0
 11
211.3620750325693
 21
150.5136283899217
 31
0.0
  0
LINE
  5
1295
330
1F
100
AcDbEntity
  8
AM_VIS
100
AcDbLine
 10
211.3620750325693
 20
204.5136283899217
 30
0.0
 11
211.3620750325693
 21
204.4136283899217
 31
0.0
  0
LINE
  5
1296
330
1F
100
AcDbEntity
  8
AM_VIS
100
AcDbLine
 10
224.7352523876122
 20
213.0136283899217
 30
0.0
 11
223.383439077883
 21
213.0136283899217
 31
0.0
  0
LINE
  5
1297
330
1F
100
AcDbEntity
  8
AM_VIS
100
AcDbLine
 10
223.296197280668
 20
213.0136283899217
 30
0.0
 11
222.0191658879978
 21
213.0136283899217
 31
0.0
  0
LINE
  5
1298
330
1F
100
AcDbEntity
  8
AM_VIS
100
AcDbLine
 10
221.9380435873294
 20
213.0136283899217
 30
0.0
 11
220.7706281991379
 21
213.0136283899217
 31
0.0
  0
LINE
  5
1299
330
1F
100
AcDbEntity
  8
AM_VIS
100
AcDbLine
 10
220.6978381999082
 20
213.0136283899217
 30
0.0
 11
219.6718828647606
 21
213.0136283899217
 31
0.0
  0
LINE
  5
129A
330
1F
100
AcDbEntity
  8
AM_VIS
100
AcDbLine
 10
219.6094106883991
 20
213.0136283899217
 30
0.0
 11
218.7529007933722
 21
213.0136283899217
 31
0.0
  0
LINE
  5
129B
330
1F
100
AcDbEntity
  8
AM_VIS
100
AcDbLine
 10
218.7024505179973
 20
213.0136283899217
 30
0.0
 11
218.0387494202728
 21
213.0136283899217
 31
0.0
  0
LINE
  5
129C
330
1F
100
AcDbEntity
  8
AM_VIS
100
AcDbLine
 10
218.0016971978828
 20
213.0136283899217
 30
0.0
 11
217.5489089332669
 21
213.0136283899217
 31
0.0
  0
LINE
  5
129D
330
1F
100
AcDbEntity
  8
AM_VIS
100
AcDbLine
 10
217.5262654519006
 20
213.0136283899217
 30
0.0
 11
217.2967409039211
 21
213.0136283899217
 31
0.0
  0
LINE
  5
129E
330
1F
100
AcDbEntity
  8
AM_VIS
100
AcDbLine
 10
217.289123818723
 20
213.0136283899217
 30
0.0
 11
217.2620750325693
 21
213.0136283899217
 31
0.0
  0
LINE
  5
129F
330
1F
100
AcDbEntity
  8
AM_VIS
100
AcDbLine
 10
235.2620750325693
 20
213.0136283899217
 30
0.0
 11
235.2350262464156
 21
213.0136283899217
 31
0.0
  0
LINE
  5
12A0
330
1F
100
AcDbEntity
  8
AM_VIS
100
AcDbLine
 10
235.2274091612175
 20
213.0136283899217
 30
0.0
 11
234.997884613238
 21
213.0136283899217
 31
0.0
  0
LINE
  5
12A1
330
1F
100
AcDbEntity
  8
AM_VIS
100
AcDbLine
 10
234.9752411318717
 20
213.0136283899217
 30
0.0
 11
234.5224528672557
 21
213.0136283899217
 31
0.0
  0
LINE
  5
12A2
330
1F
100
AcDbEntity
  8
AM_VIS
100
AcDbLine
 10
234.4854006448658
 20
213.0136283899217
 30
0.0
 11
233.8216995471412
 21
213.0136283899217
 31
0.0
  0
LINE
  5
12A3
330
1F
100
AcDbEntity
  8
AM_VIS
100
AcDbLine
 10
233.7712492717664
 20
213.0136283899217
 30
0.0
 11
232.9147393767394
 21
213.0136283899217
 31
0.0
  0
LINE
  5
12A4
330
1F
100
AcDbEntity
  8
AM_VIS
100
AcDbLine
 10
232.852267200378
 20
213.0136283899217
 30
0.0
 11
231.8263118652303
 21
213.0136283899217
 31
0.0
  0
LINE
  5
12A5
330
1F
100
AcDbEntity
  8
AM_VIS
100
AcDbLine
 10
231.7535218660006
 20
213.0136283899217
 30
0.0
 11
230.5861064778092
 21
213.0136283899217
 31
0.0
  0
LINE
  5
12A6
330
1F
100
AcDbEntity
  8
AM_VIS
100
AcDbLine
 10
230.5049841771407
 20
213.0136283899217
 30
0.0
 11
229.2279527844705
 21
213.0136283899217
 31
0.0
  0
LINE
  5
12A7
330
1F
100
AcDbEntity
  8
AM_VIS
100
AcDbLine
 10
229.1407109872556
 20
213.0136283899217
 30
0.0
 11
227.7888976775263
 21
213.0136283899217
 31
0.0
  0
LINE
  5
12A8
330
1F
100
AcDbEntity
  8
AM_VIS
100
AcDbLine
 10
227.6979161125705
 20
213.0136283899217
 30
0.0
 11
226.3081948289573
 21
213.0136283899217
 31
0.0
  0
LINE
  5
12A9
330
1F
100
AcDbEntity
  8
AM_VIS
100
AcDbLine
 10
226.2159552361813
 20
213.0136283899217
 30
0.0
 11
224.8262339525681
 21
213.0136283899217
 31
0.0
  0
LINE
  5
12AA
330
1F
100
AcDbEntity
  8
AM_VIS
100
AcDbLine
 10
227.6979161125705
 20
215.5136283899217
 30
0.0
 11
226.3081948289573
 21
215.5136283899217
 31
0.0
  0
LINE
  5
12AB
330
1F
100
AcDbEntity
  8
AM_VIS
100
AcDbLine
 10
229.1407109872556
 20
215.5136283899217
 30
0.0
 11
227.7888976775263
 21
215.5136283899217
 31
0.0
  0
LINE
  5
12AC
330
1F
100
AcDbEntity
  8
AM_VIS
100
AcDbLine
 10
230.5049841771407
 20
215.5136283899217
 30
0.0
 11
229.2279527844705
 21
215.5136283899217
 31
0.0
  0
LINE
  5
12AD
330
1F
100
AcDbEntity
  8
AM_VIS
100
AcDbLine
 10
231.7535218660006
 20
215.5136283899217
 30
0.0
 11
230.5861064778092
 21
215.5136283899217
 31
0.0
  0
LINE
  5
12AE
330
1F
100
AcDbEntity
  8
AM_VIS
100
AcDbLine
 10
232.852267200378
 20
215.5136283899217
 30
0.0
 11
231.8263118652303
 21
215.5136283899217
 31
0.0
  0
LINE
  5
12AF
330
1F
100
AcDbEntity
  8
AM_VIS
100
AcDbLine
 10
233.7712492717664
 20
215.5136283899217
 30
0.0
 11
232.9147393767394
 21
215.5136283899217
 31
0.0
  0
LINE
  5
12B0
330
1F
100
AcDbEntity
  8
AM_VIS
100
AcDbLine
 10
234.4854006448658
 20
215.5136283899217
 30
0.0
 11
233.8216995471412
 21
215.5136283899217
 31
0.0
  0
LINE
  5
12B1
330
1F
100
AcDbEntity
  8
AM_VIS
100
AcDbLine
 10
234.9752411318717
 20
215.5136283899217
 30
0.0
 11
234.5224528672557
 21
215.5136283899217
 31
0.0
  0
LINE
  5
12B2
330
1F
100
AcDbEntity
  8
AM_VIS
100
AcDbLine
 10
235.2274091612175
 20
215.5136283899217
 30
0.0
 11
234.997884613238
 21
215.5136283899217
 31
0.0
  0
LINE
  5
12B3
330
1F
100
AcDbEntity
  8
AM_VIS
100
AcDbLine
 10
235.2620750325693
 20
215.5136283899217
 30
0.0
 11
235.2350262464156
 21
215.5136283899217
 31
0.0
  0
LINE
  5
12B4
330
1F
100
AcDbEntity
  8
AM_VIS
100
AcDbLine
 10
217.289123818723
 20
215.5136283899217
 30
0.0
 11
217.2620750325693
 21
215.5136283899217
 31
0.0
  0
LINE
  5
12B5
330
1F
100
AcDbEntity
  8
AM_VIS
100
AcDbLine
 10
217.5262654519006
 20
215.5136283899217
 30
0.0
 11
217.2967409039211
 21
215.5136283899217
 31
0.0
  0
LINE
  5
12B6
330
1F
100
AcDbEntity
  8
AM_VIS
100
AcDbLine
 10
218.0016971978828
 20
215.5136283899217
 30
0.0
 11
217.5489089332669
 21
215.5136283899217
 31
0.0
  0
LINE
  5
12B7
330
1F
100
AcDbEntity
  8
AM_VIS
100
AcDbLine
 10
218.7024505179973
 20
215.5136283899217
 30
0.0
 11
218.0387494202728
 21
215.5136283899217
 31
0.0
  0
LINE
  5
12B8
330
1F
100
AcDbEntity
  8
AM_VIS
100
AcDbLine
 10
219.6094106883991
 20
215.5136283899217
 30
0.0
 11
218.7529007933722
 21
215.5136283899217
 31
0.0
  0
LINE
  5
12B9
330
1F
100
AcDbEntity
  8
AM_VIS
100
AcDbLine
 10
220.6978381999082
 20
215.5136283899217
 30
0.0
 11
219.6718828647606
 21
215.5136283899217
 31
0.0
  0
LINE
  5
12BA
330
1F
100
AcDbEntity
  8
AM_VIS
100
AcDbLine
 10
221.9380435873294
 20
215.5136283899217
 30
0.0
 11
220.7706281991379
 21
215.5136283899217
 31
0.0
  0
LINE
  5
12BB
330
1F
100
AcDbEntity
  8
AM_VIS
100
AcDbLine
 10
223.296197280668
 20
215.5136283899217
 30
0.0
 11
222.0191658879978
 21
215.5136283899217
 31
0.0
  0
LINE
  5
12BC
330
1F
100
AcDbEntity
  8
AM_VIS
100
AcDbLine
 10
224.7352523876122
 20
215.5136283899217
 30
0.0
 11
223.383439077883
 21
215.5136283899217
 31
0.0
  0
LINE
  5
12BD
330
1F
100
AcDbEntity
  8
AM_VIS
100
AcDbLine
 10
226.2159552361813
 20
215.5136283899217
 30
0.0
 11
224.8262339525681
 21
215.5136283899217
 31
0.0
  0
LINE
  5
12BE
330
1F
100
AcDbEntity
  8
AM_VIS
100
AcDbLine
 10
217.7620750325693
 20
216.0136283899217
 30
0.0
 11
234.7620750325693
 21
216.0136283899217
 31
0.0
  0
LINE
  5
12BF
330
1F
100
AcDbEntity
  8
AM_VIS
100
AcDbLine
 10
219.8601512439226
 20
211.5136283899218
 30
0.0
 11
217.2620750325693
 21
213.0136283899217
 31
0.0
  0
LINE
  5
12C0
330
1F
100
AcDbEntity
  8
AM_VIS
100
AcDbLine
 10
232.663998821216
 20
211.5136283899218
 30
0.0
 11
235.2620750325693
 21
213.0136283899217
 31
0.0
  0
LINE
  5
12C1
330
1F
100
AcDbEntity
  8
AM_VIS
100
AcDbLine
 10
235.2620750325693
 20
213.0136283899217
 30
0.0
 11
235.2620750325693
 21
215.5136283899217
 31
0.0
  0
LINE
  5
12C2
330
1F
100
AcDbEntity
  8
AM_VIS
100
AcDbLine
 10
217.2620750325693
 20
213.0136283899217
 30
0.0
 11
217.2620750325693
 21
215.5136283899217
 31
0.0
  0
LINE
  5
12C3
330
1F
100
AcDbEntity
  8
AM_VIS
100
AcDbLine
 10
234.7620750325693
 20
216.0136283899217
 30
0.0
 11
235.2620750325693
 21
215.5136283899217
 31
0.0
  0
LINE
  5
12C4
330
1F
100
AcDbEntity
  8
AM_VIS
100
AcDbLine
 10
217.7620750325693
 20
216.0136283899217
 30
0.0
 11
217.2620750325693
 21
215.5136283899217
 31
0.0
  0
LINE
  5
12C5
330
1F
100
AcDbEntity
  8
AM_VIS
100
AcDbLine
 10
224.7352469265941
 20
213.0136214568058
 30
0.0
 11
224.7938857432584
 21
212.9674333299111
 31
0.0
  0
LINE
  5
12C6
330
1F
100
AcDbEntity
  8
AM_VIS
100
AcDbLine
 10
224.7938912872651
 20
215.5936283899218
 30
0.0
 11
224.7938912872651
 21
212.9674403683865
 31
0.0
  0
LINE
  5
12C7
330
1F
100
AcDbEntity
  8
AM_VIS
100
AcDbLine
 10
224.7352431149356
 20
215.513635186639
 30
0.0
 11
224.7938818625544
 21
215.5936352980776
 31
0.0
  0
LINE
  5
12C8
330
1F
100
AcDbEntity
  8
AM_VIS
100
AcDbLine
 10
224.7352523876122
 20
213.0136283899217
 30
0.0
 11
224.7352523876122
 21
215.5136283899217
 31
0.0
  0
LINE
  5
12C9
330
1F
100
AcDbEntity
  8
AM_VIS
100
AcDbLine
 10
224.7938966494689
 20
212.9674366135761
 30
0.0
 11
224.826239227795
 21
213.0136246960157
 31
0.0
  0
LINE
  5
12CA
330
1F
100
AcDbEntity
  8
AM_VIS
100
AcDbLine
 10
224.8262339525681
 20
215.5136283899217
 30
0.0
 11
224.8262339525681
 21
213.0136283899217
 31
0.0
  0
LINE
  5
12CB
330
1F
100
AcDbEntity
  8
AM_VIS
100
AcDbLine
 10
224.7938981588903
 20
215.5936311679935
 30
0.0
 11
224.8262407071126
 21
215.5136311206599
 31
0.0
  0
LINE
  5
12CC
330
1F
100
AcDbEntity
  8
AM_VIS
100
AcDbLine
 10
223.2961921025436
 20
213.0136205917701
 30
0.0
 11
223.3657505122322
 21
212.9674324544147
 31
0.0
  0
LINE
  5
12CD
330
1F
100
AcDbEntity
  8
AM_VIS
100
AcDbLine
 10
223.3657557672635
 20
215.5936283899218
 30
0.0
 11
223.3657557672635
 21
212.9674403683865
 31
0.0
  0
LINE
  5
12CE
330
1F
100
AcDbEntity
  8
AM_VIS
100
AcDbLine
 10
223.296187649609
 20
215.5136367639127
 30
0.0
 11
223.3657459817931
 21
215.59363689817
 31
0.0
  0
LINE
  5
12CF
330
1F
100
AcDbEntity
  8
AM_VIS
100
AcDbLine
 10
223.296197280668
 20
213.0136283899217
 30
0.0
 11
223.296197280668
 21
215.5136283899217
 31
0.0
  0
LINE
  5
12D0
330
1F
100
AcDbEntity
  8
AM_VIS
100
AcDbLine
 10
223.3657595796899
 20
212.9674389087865
 30
0.0
 11
223.3834428251431
 21
213.0136269552709
 31
0.0
  0
LINE
  5
12D1
330
1F
100
AcDbEntity
  8
AM_VIS
100
AcDbLine
 10
223.383439077883
 20
215.5136283899217
 30
0.0
 11
223.383439077883
 21
213.0136283899217
 31
0.0
  0
LINE
  5
12D2
330
1F
100
AcDbEntity
  8
AM_VIS
100
AcDbLine
 10
223.3657599356168
 20
215.5936293112964
 30
0.0
 11
223.3834431735176
 21
215.5136292952226
 31
0.0
  0
LINE
  5
12D3
330
1F
100
AcDbEntity
  8
AM_VIS
100
AcDbLine
 10
221.9380386780741
 20
213.0136200377273
 30
0.0
 11
222.0166193055916
 21
212.9674318939836
 31
0.0
  0
LINE
  5
12D4
330
1F
100
AcDbEntity
  8
AM_VIS
100
AcDbLine
 10
222.0166242866786
 20
215.5936283899218
 30
0.0
 11
222.0166242866786
 21
212.9674403683865
 31
0.0
  0
LINE
  5
12D5
330
1F
100
AcDbEntity
  8
AM_VIS
100
AcDbLine
 10
221.9380338621655
 20
215.5136379425123
 30
0.0
 11
222.0166144082329
 21
215.5936380930742
 31
0.0
  0
LINE
  5
12D6
330
1F
100
AcDbEntity
  8
AM_VIS
100
AcDbLine
 10
221.9380435873294
 20
213.0136283899217
 30
0.0
 11
221.9380435873294
 21
215.5136283899217
 31
0.0
  0
LINE
  5
12D7
330
1F
100
AcDbEntity
  8
AM_VIS
100
AcDbLine
 10
222.0166249132256
 20
212.9674403339095
 30
0.0
 11
222.0191665034962
 21
213.0136283560527
 31
0.0
  0
LINE
  5
12D8
330
1F
100
AcDbEntity
  8
AM_VIS
100
AcDbLine
 10
222.0191658879978
 20
215.5136283899217
 30
0.0
 11
222.0191658879978
 21
213.0136283899217
 31
0.0
  0
LINE
  5
12D9
330
1F
100
AcDbEntity
  8
AM_VIS
100
AcDbLine
 10
222.0166249144919
 20
215.5936284098673
 30
0.0
 11
222.0191665047346
 21
215.5136284095154
 31
0.0
  0
LINE
  5
12DA
330
1F
100
AcDbEntity
  8
AM_VIS
100
AcDbLine
 10
220.6978334989998
 20
213.0136196920918
 30
0.0
 11
220.7832928663319
 21
212.9674315444861
 31
0.0
  0
LINE
  5
12DB
330
1F
100
AcDbEntity
  8
AM_VIS
100
AcDbLine
 10
220.6978284934336
 20
215.5136387587554
 30
0.0
 11
220.7832877777384
 21
215.5936389202352
 31
0.0
  0
LINE
  5
12DC
330
1F
100
AcDbEntity
  8
AM_VIS
100
AcDbLine
 10
220.6978381999082
 20
213.0136283899217
 30
0.0
 11
220.6978381999082
 21
215.5136283899217
 31
0.0
  0
LINE
  5
12DD
330
1F
100
AcDbEntity
  8
AM_VIS
100
AcDbLine
 10
220.770625336615
 20
213.0136276047312
 30
0.0
 11
220.7832947223306
 21
212.9674395693373
 31
0.0
  0
LINE
  5
12DE
330
1F
100
AcDbEntity
  8
AM_VIS
100
AcDbLine
 10
220.7706281991379
 20
215.5136283899217
 30
0.0
 11
220.7706281991379
 21
213.0136283899217
 31
0.0
  0
LINE
  5
12DF
330
1F
100
AcDbEntity
  8
AM_VIS
100
AcDbLine
 10
220.7706251968474
 20
215.5136288653863
 30
0.0
 11
220.7832945794826
 21
215.5936288738755
 31
0.0
  0
LINE
  5
12E0
330
1F
100
AcDbEntity
  8
AM_VIS
100
AcDbLine
 10
219.6094061231745
 20
213.013619493654
 30
0.0
 11
219.69941311833
 21
212.967431343874
 31
0.0
  0
LINE
  5
12E1
330
1F
100
AcDbEntity
  8
AM_VIS
100
AcDbLine
 10
219.6094010273879
 20
215.5136392593712
 30
0.0
 11
219.6994079390097
 21
215.5936394273958
 31
0.0
  0
LINE
  5
12E2
330
1F
100
AcDbEntity
  8
AM_VIS
100
AcDbLine
 10
219.6094106883991
 20
213.0136283899217
 30
0.0
 11
219.6094106883991
 21
215.5136283899217
 31
0.0
  0
LINE
  5
12E3
330
1F
100
AcDbEntity
  8
AM_VIS
100
AcDbLine
 10
219.6718779273111
 20
213.0136254464844
 30
0.0
 11
219.6994127290284
 21
212.9674373755364
 31
0.0
  0
LINE
  5
12E4
330
1F
100
AcDbEntity
  8
AM_VIS
100
AcDbLine
 10
219.6718828647606
 20
215.5136283899217
 30
0.0
 11
219.6718828647606
 21
213.0136283899217
 31
0.0
  0
LINE
  5
12E5
330
1F
100
AcDbEntity
  8
AM_VIS
100
AcDbLine
 10
219.6718768834857
 20
215.5136304485844
 30
0.0
 11
219.6994116634848
 21
215.5936304845879
 31
0.0
  0
LINE
  5
12E6
330
1F
100
AcDbEntity
  8
AM_VIS
100
AcDbLine
 10
218.7024460142458
 20
213.0136194094128
 30
0.0
 11
218.7945454779425
 21
212.967431258719
 31
0.0
  0
LINE
  5
12E7
330
1F
100
AcDbEntity
  8
AM_VIS
100
AcDbLine
 10
218.7024408852602
 20
215.5136394795121
 30
0.0
 11
218.794540265311
 21
215.5936396503784
 31
0.0
  0
LINE
  5
12E8
330
1F
100
AcDbEntity
  8
AM_VIS
100
AcDbLine
 10
218.7024505179973
 20
213.0136283899217
 30
0.0
 11
218.7024505179973
 21
215.5136283899217
 31
0.0
  0
LINE
  5
12E9
330
1F
100
AcDbEntity
  8
AM_VIS
100
AcDbLine
 10
218.7528952080867
 20
213.0136233535063
 30
0.0
 11
218.7945443720843
 21
212.967435251629
 31
0.0
  0
LINE
  5
12EA
330
1F
100
AcDbEntity
  8
AM_VIS
100
AcDbLine
 10
218.7529007933722
 20
215.5136283899217
 30
0.0
 11
218.7529007933722
 21
213.0136283899217
 31
0.0
  0
LINE
  5
12EB
330
1F
100
AcDbEntity
  8
AM_VIS
100
AcDbLine
 10
218.752892830228
 20
215.5136325356422
 30
0.0
 11
218.7945419478934
 21
215.5936326061489
 31
0.0
  0
LINE
  5
12EC
330
1F
100
AcDbEntity
  8
AM_VIS
100
AcDbLine
 10
218.0016926818548
 20
213.013619425976
 30
0.0
 11
218.0933723777985
 21
212.9674312754614
 31
0.0
  0
LINE
  5
12ED
330
1F
100
AcDbEntity
  8
AM_VIS
100
AcDbLine
 10
218.0016875591335
 20
215.5136394358582
 30
0.0
 11
218.0933671714481
 21
215.5936396061628
 31
0.0
  0
LINE
  5
12EE
330
1F
100
AcDbEntity
  8
AM_VIS
100
AcDbLine
 10
218.0016971978828
 20
213.0136283899217
 30
0.0
 11
218.0016971978828
 21
215.5136283899217
 31
0.0
  0
LINE
  5
12EF
330
1F
100
AcDbEntity
  8
AM_VIS
100
AcDbLine
 10
218.0387438815679
 20
213.0136218392042
 30
0.0
 11
218.0933713350888
 21
212.9674337171232
 31
0.0
  0
LINE
  5
12F0
330
1F
100
AcDbEntity
  8
AM_VIS
100
AcDbLine
 10
218.0387494202728
 20
215.5136283899217
 30
0.0
 11
218.0387494202728
 21
213.0136283899217
 31
0.0
  0
LINE
  5
12F1
330
1F
100
AcDbEntity
  8
AM_VIS
100
AcDbLine
 10
218.0387403643152
 20
215.5136345737052
 30
0.0
 11
218.0933677530887
 21
215.5936346759676
 31
0.0
  0
LINE
  5
12F2
330
1F
100
AcDbEntity
  8
AM_VIS
100
AcDbLine
 10
217.526260849705
 20
213.0136195459447
 30
0.0
 11
217.6150199917559
 21
212.9674313967346
 31
0.0
  0
LINE
  5
12F3
330
1F
100
AcDbEntity
  8
AM_VIS
100
AcDbLine
 10
217.5262557761328
 20
215.5136391250498
 30
0.0
 11
217.6150148347517
 21
215.5936392913297
 31
0.0
  0
LINE
  5
12F4
330
1F
100
AcDbEntity
  8
AM_VIS
100
AcDbLine
 10
217.5262654519006
 20
213.0136283899217
 30
0.0
 11
217.5262654519006
 21
215.5136283899217
 31
0.0
  0
LINE
  5
12F5
330
1F
100
AcDbEntity
  8
AM_VIS
100
AcDbLine
 10
217.5489036582551
 20
213.013620839047
 30
0.0
 11
217.6150193065138
 21
212.9674327046211
 31
0.0
  0
LINE
  5
12F6
330
1F
100
AcDbEntity
  8
AM_VIS
100
AcDbLine
 10
217.5489089332669
 20
215.5136283899217
 30
0.0
 11
217.5489089332669
 21
213.0136283899217
 31
0.0
  0
LINE
  5
12F7
330
1F
100
AcDbEntity
  8
AM_VIS
100
AcDbLine
 10
217.5488993824423
 20
215.5136362831371
 30
0.0
 11
217.6150149553836
 21
215.5936364105601
 31
0.0
  0
LINE
  5
12F8
330
1F
100
AcDbEntity
  8
AM_VIS
100
AcDbLine
 10
217.2891190561919
 20
213.013619788618
 30
0.0
 11
217.3725365232055
 21
212.9674316420814
 31
0.0
  0
LINE
  5
12F9
330
1F
100
AcDbEntity
  8
AM_VIS
100
AcDbLine
 10
217.2891140998571
 20
215.5136385239313
 30
0.0
 11
217.3725314842015
 21
215.5936386823015
 31
0.0
  0
LINE
  5
12FA
330
1F
100
AcDbEntity
  8
AM_VIS
100
AcDbLine
 10
217.289123818723
 20
213.0136283899217
 30
0.0
 11
217.289123818723
 21
215.5136283899217
 31
0.0
  0
LINE
  5
12FB
330
1F
100
AcDbEntity
  8
AM_VIS
100
AcDbLine
 10
217.2967359105411
 20
213.0136201951758
 30
0.0
 11
217.3725362881945
 21
212.9674320532228
 31
0.0
  0
LINE
  5
12FC
330
1F
100
AcDbEntity
  8
AM_VIS
100
AcDbLine
 10
217.2967409039211
 20
215.5136283899217
 30
0.0
 11
217.2967409039211
 21
213.0136283899217
 31
0.0
  0
LINE
  5
12FD
330
1F
100
AcDbEntity
  8
AM_VIS
100
AcDbLine
 10
217.2967311917131
 20
215.5136375922581
 30
0.0
 11
217.3725314888813
 21
215.5936377380413
 31
0.0
  0
LINE
  5
12FE
330
1F
100
AcDbEntity
  8
AM_VIS
100
AcDbLine
 10
235.151613776944
 20
212.9674320532228
 30
0.0
 11
235.2274141545974
 21
213.0136201951758
 31
0.0
  0
LINE
  5
12FF
330
1F
100
AcDbEntity
  8
AM_VIS
100
AcDbLine
 10
235.1516185762572
 20
215.5936377380413
 30
0.0
 11
235.2274188734254
 21
215.5136375922581
 31
0.0
  0
LINE
  5
1300
330
1F
100
AcDbEntity
  8
AM_VIS
100
AcDbLine
 10
235.2274091612175
 20
213.0136283899217
 30
0.0
 11
235.2274091612175
 21
215.5136283899217
 31
0.0
  0
LINE
  5
1301
330
1F
100
AcDbEntity
  8
AM_VIS
100
AcDbLine
 10
235.1516135419329
 20
212.9674316420814
 30
0.0
 11
235.2350310089466
 21
213.013619788618
 31
0.0
  0
LINE
  5
1302
330
1F
100
AcDbEntity
  8
AM_VIS
100
AcDbLine
 10
235.2350262464156
 20
215.5136283899217
 30
0.0
 11
235.2350262464156
 21
213.0136283899217
 31
0.0
  0
LINE
  5
1303
330
1F
100
AcDbEntity
  8
AM_VIS
100
AcDbLine
 10
235.1516185809371
 20
215.5936386823015
 30
0.0
 11
235.2350359652815
 21
215.5136385239313
 31
0.0
  0
LINE
  5
1304
330
1F
100
AcDbEntity
  8
AM_VIS
100
AcDbLine
 10
234.9091307586248
 20
212.9674327046211
 30
0.0
 11
234.9752464068834
 21
213.013620839047
 31
0.0
  0
LINE
  5
1305
330
1F
100
AcDbEntity
  8
AM_VIS
100
AcDbLine
 10
234.909135109755
 20
215.5936364105601
 30
0.0
 11
234.9752506826962
 21
215.5136362831371
 31
0.0
  0
LINE
  5
1306
330
1F
100
AcDbEntity
  8
AM_VIS
100
AcDbLine
 10
234.9752411318717
 20
213.0136283899217
 30
0.0
 11
234.9752411318717
 21
215.5136283899217
 31
0.0
  0
LINE
  5
1307
330
1F
100
AcDbEntity
  8
AM_VIS
100
AcDbLine
 10
234.9091300733826
 20
212.9674313967346
 30
0.0
 11
234.9978892154336
 21
213.0136195459447
 31
0.0
  0
LINE
  5
1308
330
1F
100
AcDbEntity
  8
AM_VIS
100
AcDbLine
 10
234.997884613238
 20
215.5136283899217
 30
0.0
 11
234.997884613238
 21
213.0136283899217
 31
0.0
  0
LINE
  5
1309
330
1F
100
AcDbEntity
  8
AM_VIS
100
AcDbLine
 10
234.9091352303869
 20
215.5936392913297
 30
0.0
 11
234.9978942890057
 21
215.5136391250499
 31
0.0
  0
LINE
  5
130A
330
1F
100
AcDbEntity
  8
AM_VIS
100
AcDbLine
 10
234.4307787300498
 20
212.9674337171232
 30
0.0
 11
234.4854061835706
 21
213.0136218392042
 31
0.0
  0
LINE
  5
130B
330
1F
100
AcDbEntity
  8
AM_VIS
100
AcDbLine
 10
234.4307823120498
 20
215.5936346759676
 30
0.0
 11
234.4854097008233
 21
215.5136345737053
 31
0.0
  0
LINE
  5
130C
330
1F
100
AcDbEntity
  8
AM_VIS
100
AcDbLine
 10
234.4854006448658
 20
213.0136283899217
 30
0.0
 11
234.4854006448658
 21
215.5136283899217
 31
0.0
  0
LINE
  5
130D
330
1F
100
AcDbEntity
  8
AM_VIS
100
AcDbLine
 10
234.4307776873401
 20
212.9674312754614
 30
0.0
 11
234.5224573832838
 21
213.013619425976
 31
0.0
  0
LINE
  5
130E
330
1F
100
AcDbEntity
  8
AM_VIS
100
AcDbLine
 10
234.5224528672557
 20
215.5136283899217
 30
0.0
 11
234.5224528672557
 21
213.0136283899217
 31
0.0
  0
LINE
  5
130F
330
1F
100
AcDbEntity
  8
AM_VIS
100
AcDbLine
 10
234.4307828936905
 20
215.5936396061628
 30
0.0
 11
234.522462506005
 21
215.5136394358582
 31
0.0
  0
LINE
  5
1310
330
1F
100
AcDbEntity
  8
AM_VIS
100
AcDbLine
 10
233.7296056930541
 20
212.967435251629
 30
0.0
 11
233.7712548570519
 21
213.0136233535063
 31
0.0
  0
LINE
  5
1311
330
1F
100
AcDbEntity
  8
AM_VIS
100
AcDbLine
 10
233.7296081172451
 20
215.5936326061489
 30
0.0
 11
233.7712572349105
 21
215.5136325356422
 31
0.0
  0
LINE
  5
1312
330
1F
100
AcDbEntity
  8
AM_VIS
100
AcDbLine
 10
233.7712492717664
 20
213.0136283899217
 30
0.0
 11
233.7712492717664
 21
215.5136283899217
 31
0.0
  0
LINE
  5
1313
330
1F
100
AcDbEntity
  8
AM_VIS
100
AcDbLine
 10
233.7296045871959
 20
212.967431258719
 30
0.0
 11
233.8217040508927
 21
213.0136194094128
 31
0.0
  0
LINE
  5
1314
330
1F
100
AcDbEntity
  8
AM_VIS
100
AcDbLine
 10
233.8216995471412
 20
215.5136283899217
 30
0.0
 11
233.8216995471412
 21
213.0136283899217
 31
0.0
  0
LINE
  5
1315
330
1F
100
AcDbEntity
  8
AM_VIS
100
AcDbLine
 10
233.7296097998275
 20
215.5936396503784
 30
0.0
 11
233.8217091798784
 21
215.5136394795121
 31
0.0
  0
LINE
  5
1316
330
1F
100
AcDbEntity
  8
AM_VIS
100
AcDbLine
 10
232.8247373361101
 20
212.9674373755364
 30
0.0
 11
232.8522721378275
 21
213.0136254464844
 31
0.0
  0
LINE
  5
1317
330
1F
100
AcDbEntity
  8
AM_VIS
100
AcDbLine
 10
232.8247384016536
 20
215.5936304845879
 30
0.0
 11
232.8522731816529
 21
215.5136304485844
 31
0.0
  0
LINE
  5
1318
330
1F
100
AcDbEntity
  8
AM_VIS
100
AcDbLine
 10
232.852267200378
 20
213.0136283899217
 30
0.0
 11
232.852267200378
 21
215.5136283899217
 31
0.0
  0
LINE
  5
1319
330
1F
100
AcDbEntity
  8
AM_VIS
100
AcDbLine
 10
232.8247369468085
 20
212.967431343874
 30
0.0
 11
232.914743941964
 21
213.013619493654
 31
0.0
  0
LINE
  5
131A
330
1F
100
AcDbEntity
  8
AM_VIS
100
AcDbLine
 10
232.9147393767394
 20
215.5136283899217
 30
0.0
 11
232.9147393767394
 21
213.0136283899217
 31
0.0
  0
LINE
  5
131B
330
1F
100
AcDbEntity
  8
AM_VIS
100
AcDbLine
 10
232.8247421261289
 20
215.5936394273958
 30
0.0
 11
232.9147490377506
 21
215.5136392593712
 31
0.0
  0
LINE
  5
131C
330
1F
100
AcDbEntity
  8
AM_VIS
100
AcDbLine
 10
231.740855342808
 20
212.9674395693373
 30
0.0
 11
231.7535247285236
 21
213.0136276047312
 31
0.0
  0
LINE
  5
131D
330
1F
100
AcDbEntity
  8
AM_VIS
100
AcDbLine
 10
231.7408554856559
 20
215.5936288738755
 30
0.0
 11
231.7535248682911
 21
215.5136288653863
 31
0.0
  0
LINE
  5
131E
330
1F
100
AcDbEntity
  8
AM_VIS
100
AcDbLine
 10
231.7535218660006
 20
213.0136283899217
 30
0.0
 11
231.7535218660006
 21
215.5136283899217
 31
0.0
  0
LINE
  5
131F
330
1F
100
AcDbEntity
  8
AM_VIS
100
AcDbLine
 10
231.7408571988066
 20
212.9674315444862
 30
0.0
 11
231.8263165661387
 21
213.0136196920918
 31
0.0
  0
LINE
  5
1320
330
1F
100
AcDbEntity
  8
AM_VIS
100
AcDbLine
 10
231.8263118652303
 20
215.5136283899217
 30
0.0
 11
231.8263118652303
 21
213.0136283899217
 31
0.0
  0
LINE
  5
1321
330
1F
100
AcDbEntity
  8
AM_VIS
100
AcDbLine
 10
231.7408622874001
 20
215.5936389202352
 30
0.0
 11
231.8263215717049
 21
215.5136387587554
 31
0.0
  0
LINE
  5
1322
330
1F
100
AcDbEntity
  8
AM_VIS
100
AcDbLine
 10
230.5049835616424
 20
213.0136283560527
 30
0.0
 11
230.5075251519129
 21
212.9674403339095
 31
0.0
  0
LINE
  5
1323
330
1F
100
AcDbEntity
  8
AM_VIS
100
AcDbLine
 10
230.5075257784599
 20
215.5936283899218
 30
0.0
 11
230.5075257784599
 21
212.9674403683865
 31
0.0
  0
LINE
  5
1324
330
1F
100
AcDbEntity
  8
AM_VIS
100
AcDbLine
 10
230.5049835604039
 20
215.5136284095154
 30
0.0
 11
230.5075251506467
 21
215.5936284098673
 31
0.0
  0
LINE
  5
1325
330
1F
100
AcDbEntity
  8
AM_VIS
100
AcDbLine
 10
230.5049841771407
 20
213.0136283899217
 30
0.0
 11
230.5049841771407
 21
215.5136283899217
 31
0.0
  0
LINE
  5
1326
330
1F
100
AcDbEntity
  8
AM_VIS
100
AcDbLine
 10
230.5075307595469
 20
212.9674318939836
 30
0.0
 11
230.5861113870645
 21
213.0136200377273
 31
0.0
  0
LINE
  5
1327
330
1F
100
AcDbEntity
  8
AM_VIS
100
AcDbLine
 10
230.5861064778092
 20
215.5136283899217
 30
0.0
 11
230.5861064778092
 21
213.0136283899217
 31
0.0
  0
LINE
  5
1328
330
1F
100
AcDbEntity
  8
AM_VIS
100
AcDbLine
 10
230.5075356569056
 20
215.5936380930742
 30
0.0
 11
230.5861162029731
 21
215.5136379425123
 31
0.0
  0
LINE
  5
1329
330
1F
100
AcDbEntity
  8
AM_VIS
100
AcDbLine
 10
229.1407072399954
 20
213.0136269552709
 30
0.0
 11
229.1583904854486
 21
212.9674389087865
 31
0.0
  0
LINE
  5
132A
330
1F
100
AcDbEntity
  8
AM_VIS
100
AcDbLine
 10
229.158394297875
 20
215.5936283899218
 30
0.0
 11
229.158394297875
 21
212.9674403683865
 31
0.0
  0
LINE
  5
132B
330
1F
100
AcDbEntity
  8
AM_VIS
100
AcDbLine
 10
229.140706891621
 20
215.5136292952226
 30
0.0
 11
229.1583901295218
 21
215.5936293112964
 31
0.0
  0
LINE
  5
132C
330
1F
100
AcDbEntity
  8
AM_VIS
100
AcDbLine
 10
229.1407109872556
 20
213.0136283899217
 30
0.0
 11
229.1407109872556
 21
215.5136283899217
 31
0.0
  0
LINE
  5
132D
330
1F
100
AcDbEntity
  8
AM_VIS
100
AcDbLine
 10
229.1583995529064
 20
212.9674324544147
 30
0.0
 11
229.2279579625949
 21
213.0136205917701
 31
0.0
  0
LINE
  5
132E
330
1F
100
AcDbEntity
  8
AM_VIS
100
AcDbLine
 10
229.2279527844705
 20
215.5136283899217
 30
0.0
 11
229.2279527844705
 21
213.0136283899217
 31
0.0
  0
LINE
  5
132F
330
1F
100
AcDbEntity
  8
AM_VIS
100
AcDbLine
 10
229.1584040833454
 20
215.59363689817
 30
0.0
 11
229.2279624155295
 21
215.5136367639127
 31
0.0
  0
LINE
  5
1330
330
1F
100
AcDbEntity
  8
AM_VIS
100
AcDbLine
 10
227.6979108373436
 20
213.0136246960157
 30
0.0
 11
227.7302534156697
 21
212.9674366135761
 31
0.0
  0
LINE
  5
1331
330
1F
100
AcDbEntity
  8
AM_VIS
100
AcDbLine
 10
227.7302587778734
 20
215.5936283899218
 30
0.0
 11
227.7302587778734
 21
212.9674403683865
 31
0.0
  0
LINE
  5
1332
330
1F
100
AcDbEntity
  8
AM_VIS
100
AcDbLine
 10
227.6979093580259
 20
215.5136311206599
 30
0.0
 11
227.7302519062483
 21
215.5936311679935
 31
0.0
  0
LINE
  5
1333
330
1F
100
AcDbEntity
  8
AM_VIS
100
AcDbLine
 10
227.6979161125705
 20
213.0136283899217
 30
0.0
 11
227.6979161125705
 21
215.5136283899217
 31
0.0
  0
LINE
  5
1334
330
1F
100
AcDbEntity
  8
AM_VIS
100
AcDbLine
 10
227.7302643218801
 20
212.9674333299111
 30
0.0
 11
227.7889031385444
 21
213.0136214568058
 31
0.0
  0
LINE
  5
1335
330
1F
100
AcDbEntity
  8
AM_VIS
100
AcDbLine
 10
227.7888976775263
 20
215.5136283899217
 30
0.0
 11
227.7888976775263
 21
213.0136283899217
 31
0.0
  0
LINE
  5
1336
330
1F
100
AcDbEntity
  8
AM_VIS
100
AcDbLine
 10
227.7302682025841
 20
215.5936352980776
 30
0.0
 11
227.7889069502029
 21
215.513635186639
 31
0.0
  0
LINE
  5
1337
330
1F
100
AcDbEntity
  8
AM_VIS
100
AcDbLine
 10
226.2620807366981
 20
212.9674346727052
 30
0.0
 11
226.3082004447797
 21
213.013622782416
 31
0.0
  0
LINE
  5
1338
330
1F
100
AcDbEntity
  8
AM_VIS
100
AcDbLine
 10
226.2159496203588
 20
213.013622782416
 30
0.0
 11
226.2620693284404
 21
212.9674346727052
 31
0.0
  0
LINE
  5
1339
330
1F
100
AcDbEntity
  8
AM_VIS
100
AcDbLine
 10
226.3081948289573
 20
215.5136283899217
 30
0.0
 11
226.3081948289573
 21
213.0136283899217
 31
0.0
  0
LINE
  5
133A
330
1F
100
AcDbEntity
  8
AM_VIS
100
AcDbLine
 10
226.215946823368
 20
215.5136332398673
 30
0.0
 11
226.2620664780449
 21
215.5936333215631
 31
0.0
  0
LINE
  5
133B
330
1F
100
AcDbEntity
  8
AM_VIS
100
AcDbLine
 10
226.2620835870936
 20
215.5936333215631
 30
0.0
 11
226.3082032417706
 21
215.5136332398673
 31
0.0
  0
LINE
  5
133C
330
1F
100
AcDbEntity
  8
AM_VIS
100
AcDbLine
 10
226.2159552361813
 20
213.0136283899217
 30
0.0
 11
226.2159552361813
 21
215.5136283899217
 31
0.0
  0
LINE
  5
133D
330
1F
100
AcDbEntity
  8
AM_VIS
100
AcDbLine
 10
226.2620750325693
 20
215.5936283899218
 30
0.0
 11
226.2620750325693
 21
212.9674403683865
 31
0.0
  0
LINE
  5
133E
330
1F
100
AcDbEntity
  8
AM_VIS
100
AcDbLine
 10
223.7620750325693
 20
216.0136283899217
 30
0.0
 11
223.7620750325693
 21
217.0136283899217
 31
0.0
  0
LINE
  5
133F
330
1F
100
AcDbEntity
  8
AM_VIS
100
AcDbLine
 10
228.7620750325693
 20
216.0136283899217
 30
0.0
 11
228.7620750325693
 21
217.0136283899217
 31
0.0
  0
LINE
  5
1340
330
1F
100
AcDbEntity
  8
AM_VIS
100
AcDbLine
 10
232.7620750325693
 20
222.0136283899218
 30
0.0
 11
219.7620750325693
 21
222.0136283899218
 31
0.0
  0
LINE
  5
1341
330
1F
100
AcDbEntity
  8
AM_VIS
100
AcDbLine
 10
224.0891750352359
 20
222.5136283899217
 30
0.0
 11
225.09371702858
 21
222.5136283899217
 31
0.0
  0
LINE
  5
1342
330
1F
100
AcDbEntity
  8
AM_VIS
100
AcDbLine
 10
223.0499032320624
 20
222.5136283899217
 30
0.0
 11
224.0017192601522
 21
222.5136283899217
 31
0.0
  0
LINE
  5
1343
330
1F
100
AcDbEntity
  8
AM_VIS
100
AcDbLine
 10
222.0938249912459
 20
222.5136283899217
 30
0.0
 11
222.9682635189196
 21
222.5136283899217
 31
0.0
  0
LINE
  5
1344
330
1F
100
AcDbEntity
  8
AM_VIS
100
AcDbLine
 10
221.2457022370187
 20
222.5136283899217
 30
0.0
 11
222.0201157657311
 21
222.5136283899217
 31
0.0
  0
LINE
  5
1345
330
1F
100
AcDbEntity
  8
AM_VIS
100
AcDbLine
 10
220.5275009032169
 20
222.5136283899217
 30
0.0
 11
221.1818325293549
 21
222.5136283899217
 31
0.0
  0
LINE
  5
1346
330
1F
100
AcDbEntity
  8
AM_VIS
100
AcDbLine
 10
219.9578220271321
 20
222.5136283899217
 30
0.0
 11
220.4751249052836
 21
222.5136283899217
 31
0.0
  0
LINE
  5
1347
330
1F
100
AcDbEntity
  8
AM_VIS
100
AcDbLine
 10
219.5514199924164
 20
222.5136283899217
 30
0.0
 11
219.9182962497638
 21
222.5136283899217
 31
0.0
  0
LINE
  5
1348
330
1F
100
AcDbEntity
  8
AM_VIS
100
AcDbLine
 10
219.3188203982959
 20
222.5136283899217
 30
0.0
 11
219.525768132485
 21
222.5136283899217
 31
0.0
  0
LINE
  5
1349
330
1F
100
AcDbEntity
  8
AM_VIS
100
AcDbLine
 10
219.2620750325693
 20
222.5136283899217
 30
0.0
 11
219.3077068254993
 21
222.5136283899217
 31
0.0
  0
LINE
  5
134A
330
1F
100
AcDbEntity
  8
AM_VIS
100
AcDbLine
 10
233.2164432396392
 20
222.5136283899217
 30
0.0
 11
233.2620750325693
 21
222.5136283899217
 31
0.0
  0
LINE
  5
134B
330
1F
100
AcDbEntity
  8
AM_VIS
100
AcDbLine
 10
232.9983819326535
 20
222.5136283899217
 30
0.0
 11
233.2053296668426
 21
222.5136283899217
 31
0.0
  0
LINE
  5
134C
330
1F
100
AcDbEntity
  8
AM_VIS
100
AcDbLine
 10
232.6058538153747
 20
222.5136283899217
 30
0.0
 11
232.9727300727221
 21
222.5136283899217
 31
0.0
  0
LINE
  5
134D
330
1F
100
AcDbEntity
  8
AM_VIS
100
AcDbLine
 10
232.049025159855
 20
222.5136283899217
 30
0.0
 11
232.5663280380064
 21
222.5136283899217
 31
0.0
  0
LINE
  5
134E
330
1F
100
AcDbEntity
  8
AM_VIS
100
AcDbLine
 10
231.3423175357836
 20
222.5136283899217
 30
0.0
 11
231.9966491619217
 21
222.5136283899217
 31
0.0
  0
LINE
  5
134F
330
1F
100
AcDbEntity
  8
AM_VIS
100
AcDbLine
 10
230.5040342994075
 20
222.5136283899217
 30
0.0
 11
231.2784478281198
 21
222.5136283899217
 31
0.0
  0
LINE
  5
1350
330
1F
100
AcDbEntity
  8
AM_VIS
100
AcDbLine
 10
229.5558865462189
 20
222.5136283899217
 30
0.0
 11
230.4303250738926
 21
222.5136283899217
 31
0.0
  0
LINE
  5
1351
330
1F
100
AcDbEntity
  8
AM_VIS
100
AcDbLine
 10
228.5224308049864
 20
222.5136283899217
 30
0.0
 11
229.4742468330761
 21
222.5136283899217
 31
0.0
  0
LINE
  5
1352
330
1F
100
AcDbEntity
  8
AM_VIS
100
AcDbLine
 10
227.4304330365585
 20
222.5136283899217
 30
0.0
 11
228.4349750299027
 21
222.5136283899217
 31
0.0
  0
LINE
  5
1353
330
1F
100
AcDbEntity
  8
AM_VIS
100
AcDbLine
 10
226.3081754095375
 20
222.5136283899217
 30
0.0
 11
227.3394262581701
 21
222.5136283899217
 31
0.0
  0
LINE
  5
1354
330
1F
100
AcDbEntity
  8
AM_VIS
100
AcDbLine
 10
225.1847238069685
 20
222.5136283899217
 30
0.0
 11
226.215974655601
 21
222.5136283899217
 31
0.0
  0
LINE
  5
1355
330
1F
100
AcDbEntity
  8
AM_VIS
100
AcDbLine
 10
227.3394262581701
 20
227.5136283899217
 30
0.0
 11
226.3081754095375
 21
227.5136283899217
 31
0.0
  0
LINE
  5
1356
330
1F
100
AcDbEntity
  8
AM_VIS
100
AcDbLine
 10
228.4349750299027
 20
227.5136283899217
 30
0.0
 11
227.4304330365585
 21
227.5136283899217
 31
0.0
  0
LINE
  5
1357
330
1F
100
AcDbEntity
  8
AM_VIS
100
AcDbLine
 10
229.4742468330761
 20
227.5136283899217
 30
0.0
 11
228.5224308049864
 21
227.5136283899217
 31
0.0
  0
LINE
  5
1358
330
1F
100
AcDbEntity
  8
AM_VIS
100
AcDbLine
 10
230.4303250738926
 20
227.5136283899217
 30
0.0
 11
229.5558865462189
 21
227.5136283899217
 31
0.0
  0
LINE
  5
1359
330
1F
100
AcDbEntity
  8
AM_VIS
100
AcDbLine
 10
231.2784478281198
 20
227.5136283899217
 30
0.0
 11
230.5040342994075
 21
227.5136283899217
 31
0.0
  0
LINE
  5
135A
330
1F
100
AcDbEntity
  8
AM_VIS
100
AcDbLine
 10
231.9966491619217
 20
227.5136283899217
 30
0.0
 11
231.3423175357836
 21
227.5136283899217
 31
0.0
  0
LINE
  5
135B
330
1F
100
AcDbEntity
  8
AM_VIS
100
AcDbLine
 10
232.5663280380064
 20
227.5136283899217
 30
0.0
 11
232.049025159855
 21
227.5136283899217
 31
0.0
  0
LINE
  5
135C
330
1F
100
AcDbEntity
  8
AM_VIS
100
AcDbLine
 10
232.9727300727221
 20
227.5136283899217
 30
0.0
 11
232.6058538153747
 21
227.5136283899217
 31
0.0
  0
LINE
  5
135D
330
1F
100
AcDbEntity
  8
AM_VIS
100
AcDbLine
 10
233.2053296668426
 20
227.5136283899217
 30
0.0
 11
232.9983819326535
 21
227.5136283899217
 31
0.0
  0
LINE
  5
135E
330
1F
100
AcDbEntity
  8
AM_VIS
100
AcDbLine
 10
233.2620750325693
 20
227.5136283899217
 30
0.0
 11
233.2164432396392
 21
227.5136283899217
 31
0.0
  0
LINE
  5
135F
330
1F
100
AcDbEntity
  8
AM_VIS
100
AcDbLine
 10
219.3077068254993
 20
227.5136283899217
 30
0.0
 11
219.2620750325693
 21
227.5136283899217
 31
0.0
  0
LINE
  5
1360
330
1F
100
AcDbEntity
  8
AM_VIS
100
AcDbLine
 10
219.525768132485
 20
227.5136283899217
 30
0.0
 11
219.3188203982959
 21
227.5136283899217
 31
0.0
  0
LINE
  5
1361
330
1F
100
AcDbEntity
  8
AM_VIS
100
AcDbLine
 10
219.9182962497638
 20
227.5136283899217
 30
0.0
 11
219.5514199924164
 21
227.5136283899217
 31
0.0
  0
LINE
  5
1362
330
1F
100
AcDbEntity
  8
AM_VIS
100
AcDbLine
 10
220.4751249052835
 20
227.5136283899217
 30
0.0
 11
219.9578220271321
 21
227.5136283899217
 31
0.0
  0
LINE
  5
1363
330
1F
100
AcDbEntity
  8
AM_VIS
100
AcDbLine
 10
221.1818325293549
 20
227.5136283899217
 30
0.0
 11
220.5275009032169
 21
227.5136283899217
 31
0.0
  0
LINE
  5
1364
330
1F
100
AcDbEntity
  8
AM_VIS
100
AcDbLine
 10
222.0201157657311
 20
227.5136283899217
 30
0.0
 11
221.2457022370187
 21
227.5136283899217
 31
0.0
  0
LINE
  5
1365
330
1F
100
AcDbEntity
  8
AM_VIS
100
AcDbLine
 10
222.9682635189196
 20
227.5136283899217
 30
0.0
 11
222.0938249912459
 21
227.5136283899217
 31
0.0
  0
LINE
  5
1366
330
1F
100
AcDbEntity
  8
AM_VIS
100
AcDbLine
 10
224.0017192601522
 20
227.5136283899217
 30
0.0
 11
223.0499032320624
 21
227.5136283899217
 31
0.0
  0
LINE
  5
1367
330
1F
100
AcDbEntity
  8
AM_VIS
100
AcDbLine
 10
225.09371702858
 20
227.5136283899217
 30
0.0
 11
224.0891750352359
 21
227.5136283899217
 31
0.0
  0
LINE
  5
1368
330
1F
100
AcDbEntity
  8
AM_VIS
100
AcDbLine
 10
226.215974655601
 20
227.5136283899217
 30
0.0
 11
225.1847238069685
 21
227.5136283899217
 31
0.0
  0
LINE
  5
1369
330
1F
100
AcDbEntity
  8
AM_VIS
100
AcDbLine
 10
219.7620750325693
 20
228.0136283899217
 30
0.0
 11
232.7620750325693
 21
228.0136283899217
 31
0.0
  0
LINE
  5
136A
330
1F
100
AcDbEntity
  8
AM_VIS
100
AcDbLine
 10
230.7620750325693
 20
217.0136283899217
 30
0.0
 11
221.7620750325693
 21
217.0136283899217
 31
0.0
  0
LINE
  5
136B
330
1F
100
AcDbEntity
  8
AM_VIS
100
AcDbLine
 10
221.2620750325693
 20
217.5136283899217
 30
0.0
 11
231.2620750325693
 21
217.5136283899217
 31
0.0
  0
LINE
  5
136C
330
1F
100
AcDbEntity
  8
AM_VIS
100
AcDbLine
 10
219.7620750325693
 20
222.0136283899218
 30
0.0
 11
219.2620750325693
 21
222.5136283899217
 31
0.0
  0
LINE
  5
136D
330
1F
100
AcDbEntity
  8
AM_VIS
100
AcDbLine
 10
232.7620750325693
 20
222.0136283899218
 30
0.0
 11
233.2620750325693
 21
222.5136283899217
 31
0.0
  0
LINE
  5
136E
330
1F
100
AcDbEntity
  8
AM_VIS
100
AcDbLine
 10
233.2620750325693
 20
222.5136283899217
 30
0.0
 11
233.2620750325693
 21
227.5136283899217
 31
0.0
  0
LINE
  5
136F
330
1F
100
AcDbEntity
  8
AM_VIS
100
AcDbLine
 10
219.2620750325693
 20
222.5136283899217
 30
0.0
 11
219.2620750325693
 21
227.5136283899217
 31
0.0
  0
LINE
  5
1370
330
1F
100
AcDbEntity
  8
AM_VIS
100
AcDbLine
 10
232.7620750325693
 20
228.0136283899217
 30
0.0
 11
233.2620750325693
 21
227.5136283899217
 31
0.0
  0
LINE
  5
1371
330
1F
100
AcDbEntity
  8
AM_VIS
100
AcDbLine
 10
219.7620750325693
 20
228.0136283899217
 30
0.0
 11
219.2620750325693
 21
227.5136283899217
 31
0.0
  0
LINE
  5
1372
330
1F
100
AcDbEntity
  8
AM_VIS
100
AcDbLine
 10
221.7620750325693
 20
217.0136283899217
 30
0.0
 11
221.2620750325693
 21
217.5136283899217
 31
0.0
  0
LINE
  5
1373
330
1F
100
AcDbEntity
  8
AM_VIS
100
AcDbLine
 10
230.7620750325693
 20
217.0136283899217
 30
0.0
 11
231.2620750325693
 21
217.5136283899217
 31
0.0
  0
LINE
  5
1374
330
1F
100
AcDbEntity
  8
AM_VIS
100
AcDbLine
 10
231.2620750325693
 20
222.0136283899218
 30
0.0
 11
231.2620750325693
 21
217.5136283899217
 31
0.0
  0
LINE
  5
1375
330
1F
100
AcDbEntity
  8
AM_VIS
100
AcDbLine
 10
221.2620750325693
 20
222.0136283899218
 30
0.0
 11
221.2620750325693
 21
217.5136283899217
 31
0.0
  0
LINE
  5
1376
330
1F
100
AcDbEntity
  8
AM_VIS
100
AcDbLine
 10
225.0937051801712
 20
222.5136197536822
 30
0.0
 11
225.1520168699231
 21
222.4336195709472
 31
0.0
  0
LINE
  5
1377
330
1F
100
AcDbEntity
  8
AM_VIS
100
AcDbLine
 10
225.1520289690336
 20
227.5936283899217
 30
0.0
 11
225.1520289690336
 21
222.4336283899217
 31
0.0
  0
LINE
  5
1378
330
1F
100
AcDbEntity
  8
AM_VIS
100
AcDbLine
 10
225.0937051801712
 20
227.5136370261613
 30
0.0
 11
225.1520168699231
 21
227.5936372088963
 31
0.0
  0
LINE
  5
1379
330
1F
100
AcDbEntity
  8
AM_VIS
100
AcDbLine
 10
225.09371702858
 20
222.5136283899217
 30
0.0
 11
225.09371702858
 21
227.5136283899217
 31
0.0
  0
LINE
  5
137A
330
1F
100
AcDbEntity
  8
AM_VIS
100
AcDbLine
 10
225.1520378753913
 20
222.433624750048
 30
0.0
 11
225.1847325187227
 21
222.5136248295791
 31
0.0
  0
LINE
  5
137B
330
1F
100
AcDbEntity
  8
AM_VIS
100
AcDbLine
 10
225.1847238069685
 20
227.5136283899217
 30
0.0
 11
225.1847238069685
 21
222.5136283899217
 31
0.0
  0
LINE
  5
137C
330
1F
100
AcDbEntity
  8
AM_VIS
100
AcDbLine
 10
225.1520378753913
 20
227.5936320297955
 30
0.0
 11
225.1847325187227
 21
227.5136319502644
 31
0.0
  0
LINE
  5
137D
330
1F
100
AcDbEntity
  8
AM_VIS
100
AcDbLine
 10
224.0017069461563
 20
222.5136177671285
 30
0.0
 11
224.0707199465869
 21
222.4336175472532
 31
0.0
  0
LINE
  5
137E
330
1F
100
AcDbEntity
  8
AM_VIS
100
AcDbLine
 10
224.0707325154631
 20
227.5936283899217
 30
0.0
 11
224.0707325154631
 21
222.4336283899217
 31
0.0
  0
LINE
  5
137F
330
1F
100
AcDbEntity
  8
AM_VIS
100
AcDbLine
 10
224.0017069461564
 20
227.513639012715
 30
0.0
 11
224.0707199465868
 21
227.5936392325903
 31
0.0
  0
LINE
  5
1380
330
1F
100
AcDbEntity
  8
AM_VIS
100
AcDbLine
 10
224.0017192601522
 20
222.5136283899217
 30
0.0
 11
224.0017192601522
 21
227.5136283899217
 31
0.0
  0
LINE
  5
1381
330
1F
100
AcDbEntity
  8
AM_VIS
100
AcDbLine
 10
224.0707380840452
 20
222.4336271061973
 30
0.0
 11
224.0891804792886
 21
222.513627134905
 31
0.0
  0
LINE
  5
1382
330
1F
100
AcDbEntity
  8
AM_VIS
100
AcDbLine
 10
224.0891750352359
 20
227.5136283899217
 30
0.0
 11
224.0891750352359
 21
222.5136283899217
 31
0.0
  0
LINE
  5
1383
330
1F
100
AcDbEntity
  8
AM_VIS
100
AcDbLine
 10
224.0707380840452
 20
227.5936296736462
 30
0.0
 11
224.0891804792886
 21
227.5136296449384
 31
0.0
  0
LINE
  5
1384
330
1F
100
AcDbEntity
  8
AM_VIS
100
AcDbLine
 10
222.9682510724439
 20
222.5136162660168
 30
0.0
 11
223.046177982257
 21
222.4336160192876
 31
0.0
  0
LINE
  5
1385
330
1F
100
AcDbEntity
  8
AM_VIS
100
AcDbLine
 10
223.0461906820264
 20
227.5936283899217
 30
0.0
 11
223.0461906820264
 21
222.4336283899217
 31
0.0
  0
LINE
  5
1386
330
1F
100
AcDbEntity
  8
AM_VIS
100
AcDbLine
 10
222.968251072444
 20
227.5136405138267
 30
0.0
 11
223.0461779822569
 21
227.5936407605559
 31
0.0
  0
LINE
  5
1387
330
1F
100
AcDbEntity
  8
AM_VIS
100
AcDbLine
 10
222.9682635189196
 20
222.5136283899217
 30
0.0
 11
222.9682635189196
 21
227.5136283899217
 31
0.0
  0
LINE
  5
1388
330
1F
100
AcDbEntity
  8
AM_VIS
100
AcDbLine
 10
223.0461918601985
 20
222.4336283352469
 30
0.0
 11
223.0499043835723
 21
222.5136283364841
 31
0.0
  0
LINE
  5
1389
330
1F
100
AcDbEntity
  8
AM_VIS
100
AcDbLine
 10
223.0499032320624
 20
227.5136283899217
 30
0.0
 11
223.0499032320624
 21
222.5136283899217
 31
0.0
  0
LINE
  5
138A
330
1F
100
AcDbEntity
  8
AM_VIS
100
AcDbLine
 10
223.0461918601985
 20
227.5936284445966
 30
0.0
 11
223.0499043835723
 21
227.5136284433593
 31
0.0
  0
LINE
  5
138B
330
1F
100
AcDbEntity
  8
AM_VIS
100
AcDbLine
 10
222.0201033347535
 20
222.5136152096255
 30
0.0
 11
222.1049258831275
 21
222.4336149446223
 31
0.0
  0
LINE
  5
138C
330
1F
100
AcDbEntity
  8
AM_VIS
100
AcDbLine
 10
222.0201033347535
 20
227.513641570218
 30
0.0
 11
222.1049258831275
 21
227.5936418352212
 31
0.0
  0
LINE
  5
138D
330
1F
100
AcDbEntity
  8
AM_VIS
100
AcDbLine
 10
222.0201157657311
 20
222.5136283899217
 30
0.0
 11
222.0201157657311
 21
227.5136283899217
 31
0.0
  0
LINE
  5
138E
330
1F
100
AcDbEntity
  8
AM_VIS
100
AcDbLine
 10
222.0938216020015
 20
222.5136279190924
 30
0.0
 11
222.1049350966522
 21
222.4336279082365
 31
0.0
  0
LINE
  5
138F
330
1F
100
AcDbEntity
  8
AM_VIS
100
AcDbLine
 10
222.0938249912459
 20
227.5136283899217
 30
0.0
 11
222.0938249912459
 21
222.5136283899217
 31
0.0
  0
LINE
  5
1390
330
1F
100
AcDbEntity
  8
AM_VIS
100
AcDbLine
 10
222.0938216020015
 20
227.5136288607511
 30
0.0
 11
222.1049350966522
 21
227.5936288716069
 31
0.0
  0
LINE
  5
1391
330
1F
100
AcDbEntity
  8
AM_VIS
100
AcDbLine
 10
221.1818201544417
 20
222.5136145422373
 30
0.0
 11
221.2713414751383
 21
222.4336142659548
 31
0.0
  0
LINE
  5
1392
330
1F
100
AcDbEntity
  8
AM_VIS
100
AcDbLine
 10
221.1818201544417
 20
227.5136422376062
 30
0.0
 11
221.2713414751383
 21
227.5936425138887
 31
0.0
  0
LINE
  5
1393
330
1F
100
AcDbEntity
  8
AM_VIS
100
AcDbLine
 10
221.1818325293549
 20
222.5136283899217
 30
0.0
 11
221.1818325293549
 21
227.5136283899217
 31
0.0
  0
LINE
  5
1394
330
1F
100
AcDbEntity
  8
AM_VIS
100
AcDbLine
 10
221.2456950049962
 20
222.5136260710027
 30
0.0
 11
221.2713467012901
 21
222.433626018533
 31
0.0
  0
LINE
  5
1395
330
1F
100
AcDbEntity
  8
AM_VIS
100
AcDbLine
 10
221.2457022370187
 20
227.5136283899217
 30
0.0
 11
221.2457022370187
 21
222.5136283899217
 31
0.0
  0
LINE
  5
1396
330
1F
100
AcDbEntity
  8
AM_VIS
100
AcDbLine
 10
221.2456950049962
 20
227.5136307088408
 30
0.0
 11
221.2713467012901
 21
227.5936307613104
 31
0.0
  0
LINE
  5
1397
330
1F
100
AcDbEntity
  8
AM_VIS
100
AcDbLine
 10
220.4751125704075
 20
222.5136142200469
 30
0.0
 11
220.5670141005292
 21
222.4336139383928
 31
0.0
  0
LINE
  5
1398
330
1F
100
AcDbEntity
  8
AM_VIS
100
AcDbLine
 10
220.4751125704075
 20
227.5136425597966
 30
0.0
 11
220.5670141005292
 21
227.5936428414507
 31
0.0
  0
LINE
  5
1399
330
1F
100
AcDbEntity
  8
AM_VIS
100
AcDbLine
 10
220.4751249052835
 20
222.5136283899217
 30
0.0
 11
220.4751249052835
 21
227.5136283899217
 31
0.0
  0
LINE
  5
139A
330
1F
100
AcDbEntity
  8
AM_VIS
100
AcDbLine
 10
220.5274910223476
 20
222.5136235080922
 30
0.0
 11
220.5670165820321
 21
222.4336234005414
 31
0.0
  0
LINE
  5
139B
330
1F
100
AcDbEntity
  8
AM_VIS
100
AcDbLine
 10
220.5275009032169
 20
227.5136283899217
 30
0.0
 11
220.5275009032169
 21
222.5136283899217
 31
0.0
  0
LINE
  5
139C
330
1F
100
AcDbEntity
  8
AM_VIS
100
AcDbLine
 10
220.5274910223476
 20
227.5136332717513
 30
0.0
 11
220.5670165820321
 21
227.5936333793021
 31
0.0
  0
LINE
  5
139D
330
1F
100
AcDbEntity
  8
AM_VIS
100
AcDbLine
 10
219.9182839148878
 20
222.5136142200469
 30
0.0
 11
220.0101854450094
 21
222.4336139383928
 31
0.0
  0
LINE
  5
139E
330
1F
100
AcDbEntity
  8
AM_VIS
100
AcDbLine
 10
219.9182839148878
 20
227.5136425597966
 30
0.0
 11
220.0101854450094
 21
227.5936428414507
 31
0.0
  0
LINE
  5
139F
330
1F
100
AcDbEntity
  8
AM_VIS
100
AcDbLine
 10
219.9182962497638
 20
222.5136283899217
 30
0.0
 11
219.9182962497638
 21
227.5136283899217
 31
0.0
  0
LINE
  5
13A0
330
1F
100
AcDbEntity
  8
AM_VIS
100
AcDbLine
 10
219.9578106216305
 20
222.5136209227899
 30
0.0
 11
220.0101863751394
 21
222.4336207627664
 31
0.0
  0
LINE
  5
13A1
330
1F
100
AcDbEntity
  8
AM_VIS
100
AcDbLine
 10
219.9578220271321
 20
227.5136283899217
 30
0.0
 11
219.9578220271321
 21
222.5136283899217
 31
0.0
  0
LINE
  5
13A2
330
1F
100
AcDbEntity
  8
AM_VIS
100
AcDbLine
 10
219.9578106216305
 20
227.5136358570536
 30
0.0
 11
220.0101863751394
 21
227.5936360170771
 31
0.0
  0
LINE
  5
13A3
330
1F
100
AcDbEntity
  8
AM_VIS
100
AcDbLine
 10
219.5257557575718
 20
222.5136145422373
 30
0.0
 11
219.6152770782684
 21
222.4336142659548
 31
0.0
  0
LINE
  5
13A4
330
1F
100
AcDbEntity
  8
AM_VIS
100
AcDbLine
 10
219.5257557575718
 20
227.5136422376062
 30
0.0
 11
219.6152770782684
 21
227.5936425138887
 31
0.0
  0
LINE
  5
13A5
330
1F
100
AcDbEntity
  8
AM_VIS
100
AcDbLine
 10
219.525768132485
 20
222.5136283899217
 30
0.0
 11
219.525768132485
 21
227.5136283899217
 31
0.0
  0
LINE
  5
13A6
330
1F
100
AcDbEntity
  8
AM_VIS
100
AcDbLine
 10
219.5514078541952
 20
222.5136186991768
 30
0.0
 11
219.6152773079939
 21
222.4336184964995
 31
0.0
  0
LINE
  5
13A7
330
1F
100
AcDbEntity
  8
AM_VIS
100
AcDbLine
 10
219.5514199924164
 20
227.5136283899217
 30
0.0
 11
219.5514199924164
 21
222.5136283899217
 31
0.0
  0
LINE
  5
13A8
330
1F
100
AcDbEntity
  8
AM_VIS
100
AcDbLine
 10
219.5514078541952
 20
227.5136380806667
 30
0.0
 11
219.6152773079939
 21
227.593638283344
 31
0.0
  0
LINE
  5
13A9
330
1F
100
AcDbEntity
  8
AM_VIS
100
AcDbLine
 10
219.3076943945218
 20
222.5136152096255
 30
0.0
 11
219.3925169428957
 21
222.4336149446223
 31
0.0
  0
LINE
  5
13AA
330
1F
100
AcDbEntity
  8
AM_VIS
100
AcDbLine
 10
219.3076943945218
 20
227.513641570218
 30
0.0
 11
219.3925169428958
 21
227.5936418352212
 31
0.0
  0
LINE
  5
13AB
330
1F
100
AcDbEntity
  8
AM_VIS
100
AcDbLine
 10
219.3077068254993
 20
222.5136283899217
 30
0.0
 11
219.3077068254993
 21
227.5136283899217
 31
0.0
  0
LINE
  5
13AC
330
1F
100
AcDbEntity
  8
AM_VIS
100
AcDbLine
 10
219.3188079901609
 20
222.5136169575695
 30
0.0
 11
219.3925169611745
 21
222.4336167230823
 31
0.0
  0
LINE
  5
13AD
330
1F
100
AcDbEntity
  8
AM_VIS
100
AcDbLine
 10
219.3188203982959
 20
227.5136283899217
 30
0.0
 11
219.3188203982959
 21
222.5136283899217
 31
0.0
  0
LINE
  5
13AE
330
1F
100
AcDbEntity
  8
AM_VIS
100
AcDbLine
 10
219.3188079901609
 20
227.513639822274
 30
0.0
 11
219.3925169611746
 21
227.5936400567611
 31
0.0
  0
LINE
  5
13AF
330
1F
100
AcDbEntity
  8
AM_VIS
100
AcDbLine
 10
233.131633103964
 20
222.4336167230823
 30
0.0
 11
233.2053420749776
 21
222.5136169575695
 31
0.0
  0
LINE
  5
13B0
330
1F
100
AcDbEntity
  8
AM_VIS
100
AcDbLine
 10
233.131633103964
 20
227.5936400567611
 30
0.0
 11
233.2053420749776
 21
227.513639822274
 31
0.0
  0
LINE
  5
13B1
330
1F
100
AcDbEntity
  8
AM_VIS
100
AcDbLine
 10
233.2053296668426
 20
222.5136283899217
 30
0.0
 11
233.2053296668426
 21
227.5136283899217
 31
0.0
  0
LINE
  5
13B2
330
1F
100
AcDbEntity
  8
AM_VIS
100
AcDbLine
 10
233.1316331222428
 20
222.4336149446223
 30
0.0
 11
233.2164556706167
 21
222.5136152096255
 31
0.0
  0
LINE
  5
13B3
330
1F
100
AcDbEntity
  8
AM_VIS
100
AcDbLine
 10
233.2164432396392
 20
227.5136283899217
 30
0.0
 11
233.2164432396392
 21
222.5136283899217
 31
0.0
  0
LINE
  5
13B4
330
1F
100
AcDbEntity
  8
AM_VIS
100
AcDbLine
 10
233.1316331222428
 20
227.5936418352212
 30
0.0
 11
233.2164556706167
 21
227.513641570218
 31
0.0
  0
LINE
  5
13B5
330
1F
100
AcDbEntity
  8
AM_VIS
100
AcDbLine
 10
232.9088727571447
 20
222.4336184964995
 30
0.0
 11
232.9727422109434
 21
222.5136186991768
 31
0.0
  0
LINE
  5
13B6
330
1F
100
AcDbEntity
  8
AM_VIS
100
AcDbLine
 10
232.9088727571447
 20
227.593638283344
 30
0.0
 11
232.9727422109434
 21
227.5136380806667
 31
0.0
  0
LINE
  5
13B7
330
1F
100
AcDbEntity
  8
AM_VIS
100
AcDbLine
 10
232.9727300727221
 20
222.5136283899217
 30
0.0
 11
232.9727300727221
 21
227.5136283899217
 31
0.0
  0
LINE
  5
13B8
330
1F
100
AcDbEntity
  8
AM_VIS
100
AcDbLine
 10
232.9088729868702
 20
222.4336142659548
 30
0.0
 11
232.9983943075667
 21
222.5136145422373
 31
0.0
  0
LINE
  5
13B9
330
1F
100
AcDbEntity
  8
AM_VIS
100
AcDbLine
 10
232.9983819326535
 20
227.5136283899217
 30
0.0
 11
232.9983819326535
 21
222.5136283899217
 31
0.0
  0
LINE
  5
13BA
330
1F
100
AcDbEntity
  8
AM_VIS
100
AcDbLine
 10
232.9088729868701
 20
227.5936425138886
 30
0.0
 11
232.9983943075667
 21
227.5136422376061
 31
0.0
  0
LINE
  5
13BB
330
1F
100
AcDbEntity
  8
AM_VIS
100
AcDbLine
 10
232.513963689999
 20
222.4336207627664
 30
0.0
 11
232.5663394435081
 21
222.5136209227899
 31
0.0
  0
LINE
  5
13BC
330
1F
100
AcDbEntity
  8
AM_VIS
100
AcDbLine
 10
232.513963689999
 20
227.5936360170771
 30
0.0
 11
232.5663394435081
 21
227.5136358570536
 31
0.0
  0
LINE
  5
13BD
330
1F
100
AcDbEntity
  8
AM_VIS
100
AcDbLine
 10
232.5663280380064
 20
222.5136283899217
 30
0.0
 11
232.5663280380064
 21
227.5136283899217
 31
0.0
  0
LINE
  5
13BE
330
1F
100
AcDbEntity
  8
AM_VIS
100
AcDbLine
 10
232.5139646201291
 20
222.4336139383927
 30
0.0
 11
232.6058661502507
 21
222.5136142200469
 31
0.0
  0
LINE
  5
13BF
330
1F
100
AcDbEntity
  8
AM_VIS
100
AcDbLine
 10
232.6058538153747
 20
227.5136283899217
 30
0.0
 11
232.6058538153747
 21
222.5136283899217
 31
0.0
  0
LINE
  5
13C0
330
1F
100
AcDbEntity
  8
AM_VIS
100
AcDbLine
 10
232.513964620129
 20
227.5936428414508
 30
0.0
 11
232.6058661502508
 21
227.5136425597966
 31
0.0
  0
LINE
  5
13C1
330
1F
100
AcDbEntity
  8
AM_VIS
100
AcDbLine
 10
231.9571334831065
 20
222.4336234005414
 30
0.0
 11
231.996659042791
 21
222.5136235080922
 31
0.0
  0
LINE
  5
13C2
330
1F
100
AcDbEntity
  8
AM_VIS
100
AcDbLine
 10
231.9571334831065
 20
227.5936333793021
 30
0.0
 11
231.996659042791
 21
227.5136332717513
 31
0.0
  0
LINE
  5
13C3
330
1F
100
AcDbEntity
  8
AM_VIS
100
AcDbLine
 10
231.9966491619217
 20
222.5136283899217
 30
0.0
 11
231.9966491619217
 21
227.5136283899217
 31
0.0
  0
LINE
  5
13C4
330
1F
100
AcDbEntity
  8
AM_VIS
100
AcDbLine
 10
231.9571359646094
 20
222.4336139383928
 30
0.0
 11
232.049037494731
 21
222.5136142200469
 31
0.0
  0
LINE
  5
13C5
330
1F
100
AcDbEntity
  8
AM_VIS
100
AcDbLine
 10
232.049025159855
 20
227.5136283899217
 30
0.0
 11
232.049025159855
 21
222.5136283899217
 31
0.0
  0
LINE
  5
13C6
330
1F
100
AcDbEntity
  8
AM_VIS
100
AcDbLine
 10
231.9571359646094
 20
227.5936428414507
 30
0.0
 11
232.049037494731
 21
227.5136425597966
 31
0.0
  0
LINE
  5
13C7
330
1F
100
AcDbEntity
  8
AM_VIS
100
AcDbLine
 10
231.2528033638484
 20
222.433626018533
 30
0.0
 11
231.2784550601423
 21
222.5136260710027
 31
0.0
  0
LINE
  5
13C8
330
1F
100
AcDbEntity
  8
AM_VIS
100
AcDbLine
 10
231.2528033638484
 20
227.5936307613104
 30
0.0
 11
231.2784550601423
 21
227.5136307088408
 31
0.0
  0
LINE
  5
13C9
330
1F
100
AcDbEntity
  8
AM_VIS
100
AcDbLine
 10
231.2784478281198
 20
222.5136283899217
 30
0.0
 11
231.2784478281198
 21
227.5136283899217
 31
0.0
  0
LINE
  5
13CA
330
1F
100
AcDbEntity
  8
AM_VIS
100
AcDbLine
 10
231.2528085900002
 20
222.4336142659548
 30
0.0
 11
231.3423299106969
 21
222.5136145422373
 31
0.0
  0
LINE
  5
13CB
330
1F
100
AcDbEntity
  8
AM_VIS
100
AcDbLine
 10
231.3423175357836
 20
227.5136283899217
 30
0.0
 11
231.3423175357836
 21
222.5136283899217
 31
0.0
  0
LINE
  5
13CC
330
1F
100
AcDbEntity
  8
AM_VIS
100
AcDbLine
 10
231.2528085900002
 20
227.5936425138886
 30
0.0
 11
231.3423299106969
 21
227.5136422376062
 31
0.0
  0
LINE
  5
13CD
330
1F
100
AcDbEntity
  8
AM_VIS
100
AcDbLine
 10
230.4192149684862
 20
222.4336279082366
 30
0.0
 11
230.430328463137
 21
222.5136279190925
 31
0.0
  0
LINE
  5
13CE
330
1F
100
AcDbEntity
  8
AM_VIS
100
AcDbLine
 10
230.4192149684861
 20
227.5936288716069
 30
0.0
 11
230.4303284631371
 21
227.5136288607511
 31
0.0
  0
LINE
  5
13CF
330
1F
100
AcDbEntity
  8
AM_VIS
100
AcDbLine
 10
230.4303250738926
 20
222.5136283899217
 30
0.0
 11
230.4303250738926
 21
227.5136283899217
 31
0.0
  0
LINE
  5
13D0
330
1F
100
AcDbEntity
  8
AM_VIS
100
AcDbLine
 10
230.419224182011
 20
222.4336149446223
 30
0.0
 11
230.504046730385
 21
222.5136152096255
 31
0.0
  0
LINE
  5
13D1
330
1F
100
AcDbEntity
  8
AM_VIS
100
AcDbLine
 10
230.5040342994075
 20
227.5136283899217
 30
0.0
 11
230.5040342994075
 21
222.5136283899217
 31
0.0
  0
LINE
  5
13D2
330
1F
100
AcDbEntity
  8
AM_VIS
100
AcDbLine
 10
230.419224182011
 20
227.5936418352212
 30
0.0
 11
230.504046730385
 21
227.513641570218
 31
0.0
  0
LINE
  5
13D3
330
1F
100
AcDbEntity
  8
AM_VIS
100
AcDbLine
 10
229.4742456815663
 20
222.5136283364841
 30
0.0
 11
229.47795820494
 21
222.4336283352469
 31
0.0
  0
LINE
  5
13D4
330
1F
100
AcDbEntity
  8
AM_VIS
100
AcDbLine
 10
229.4779593831121
 20
227.5936283899217
 30
0.0
 11
229.4779593831121
 21
222.4336283899217
 31
0.0
  0
LINE
  5
13D5
330
1F
100
AcDbEntity
  8
AM_VIS
100
AcDbLine
 10
229.4742456815663
 20
227.5136284433593
 30
0.0
 11
229.47795820494
 21
227.5936284445966
 31
0.0
  0
LINE
  5
13D6
330
1F
100
AcDbEntity
  8
AM_VIS
100
AcDbLine
 10
229.4742468330761
 20
222.5136283899217
 30
0.0
 11
229.4742468330761
 21
227.5136283899217
 31
0.0
  0
LINE
  5
13D7
330
1F
100
AcDbEntity
  8
AM_VIS
100
AcDbLine
 10
229.4779720828815
 20
222.4336160192876
 30
0.0
 11
229.5558989926946
 21
222.5136162660168
 31
0.0
  0
LINE
  5
13D8
330
1F
100
AcDbEntity
  8
AM_VIS
100
AcDbLine
 10
229.5558865462189
 20
227.5136283899217
 30
0.0
 11
229.5558865462189
 21
222.5136283899217
 31
0.0
  0
LINE
  5
13D9
330
1F
100
AcDbEntity
  8
AM_VIS
100
AcDbLine
 10
229.4779720828815
 20
227.5936407605559
 30
0.0
 11
229.5558989926946
 21
227.5136405138267
 31
0.0
  0
LINE
  5
13DA
330
1F
100
AcDbEntity
  8
AM_VIS
100
AcDbLine
 10
228.4349695858499
 20
222.513627134905
 30
0.0
 11
228.4534119810934
 21
222.4336271061973
 31
0.0
  0
LINE
  5
13DB
330
1F
100
AcDbEntity
  8
AM_VIS
100
AcDbLine
 10
228.4534175496755
 20
227.5936283899217
 30
0.0
 11
228.4534175496755
 21
222.4336283899217
 31
0.0
  0
LINE
  5
13DC
330
1F
100
AcDbEntity
  8
AM_VIS
100
AcDbLine
 10
228.4349695858499
 20
227.5136296449384
 30
0.0
 11
228.4534119810934
 21
227.5936296736462
 31
0.0
  0
LINE
  5
13DD
330
1F
100
AcDbEntity
  8
AM_VIS
100
AcDbLine
 10
228.4349750299027
 20
222.5136283899217
 30
0.0
 11
228.4349750299027
 21
227.5136283899217
 31
0.0
  0
LINE
  5
13DE
330
1F
100
AcDbEntity
  8
AM_VIS
100
AcDbLine
 10
228.4534301185518
 20
222.4336175472532
 30
0.0
 11
228.5224431189822
 21
222.5136177671285
 31
0.0
  0
LINE
  5
13DF
330
1F
100
AcDbEntity
  8
AM_VIS
100
AcDbLine
 10
228.5224308049864
 20
227.5136283899217
 30
0.0
 11
228.5224308049864
 21
222.5136283899217
 31
0.0
  0
LINE
  5
13E0
330
1F
100
AcDbEntity
  8
AM_VIS
100
AcDbLine
 10
228.4534301185518
 20
227.5936392325903
 30
0.0
 11
228.5224431189822
 21
227.513639012715
 31
0.0
  0
LINE
  5
13E1
330
1F
100
AcDbEntity
  8
AM_VIS
100
AcDbLine
 10
227.3394175464158
 20
222.5136248295791
 30
0.0
 11
227.3721121897473
 21
222.433624750048
 31
0.0
  0
LINE
  5
13E2
330
1F
100
AcDbEntity
  8
AM_VIS
100
AcDbLine
 10
227.372121096105
 20
227.5936283899217
 30
0.0
 11
227.372121096105
 21
222.4336283899217
 31
0.0
  0
LINE
  5
13E3
330
1F
100
AcDbEntity
  8
AM_VIS
100
AcDbLine
 10
227.3394175464158
 20
227.5136319502644
 30
0.0
 11
227.3721121897473
 21
227.5936320297955
 31
0.0
  0
LINE
  5
13E4
330
1F
100
AcDbEntity
  8
AM_VIS
100
AcDbLine
 10
227.3394262581701
 20
222.5136283899217
 30
0.0
 11
227.3394262581701
 21
227.5136283899217
 31
0.0
  0
LINE
  5
13E5
330
1F
100
AcDbEntity
  8
AM_VIS
100
AcDbLine
 10
227.3721331952155
 20
222.4336195709472
 30
0.0
 11
227.4304448849674
 21
222.5136197536822
 31
0.0
  0
LINE
  5
13E6
330
1F
100
AcDbEntity
  8
AM_VIS
100
AcDbLine
 10
227.4304330365585
 20
227.5136283899217
 30
0.0
 11
227.4304330365585
 21
222.5136283899217
 31
0.0
  0
LINE
  5
13E7
330
1F
100
AcDbEntity
  8
AM_VIS
100
AcDbLine
 10
227.3721331952155
 20
227.5936372088963
 30
0.0
 11
227.4304448849674
 21
227.5136370261613
 31
0.0
  0
LINE
  5
13E8
330
1F
100
AcDbEntity
  8
AM_VIS
100
AcDbLine
 10
226.262086031491
 20
222.4336220517841
 30
0.0
 11
226.308186174601
 21
222.5136221865451
 31
0.0
  0
LINE
  5
13E9
330
1F
100
AcDbEntity
  8
AM_VIS
100
AcDbLine
 10
226.2159638905375
 20
222.5136221865451
 30
0.0
 11
226.2620640336475
 21
222.4336220517841
 31
0.0
  0
LINE
  5
13EA
330
1F
100
AcDbEntity
  8
AM_VIS
100
AcDbLine
 10
226.3081754095375
 20
227.5136283899217
 30
0.0
 11
226.3081754095375
 21
222.5136283899217
 31
0.0
  0
LINE
  5
13EB
330
1F
100
AcDbEntity
  8
AM_VIS
100
AcDbLine
 10
226.2159638905375
 20
227.5136345932984
 30
0.0
 11
226.2620640336475
 21
227.5936347280594
 31
0.0
  0
LINE
  5
13EC
330
1F
100
AcDbEntity
  8
AM_VIS
100
AcDbLine
 10
226.262086031491
 20
227.5936347280594
 30
0.0
 11
226.308186174601
 21
227.5136345932984
 31
0.0
  0
LINE
  5
13ED
330
1F
100
AcDbEntity
  8
AM_VIS
100
AcDbLine
 10
226.215974655601
 20
222.5136283899217
 30
0.0
 11
226.215974655601
 21
227.5136283899217
 31
0.0
  0
LINE
  5
13EE
330
1F
100
AcDbEntity
  8
AM_VIS
100
AcDbLine
 10
226.2620750325693
 20
227.5936283899217
 30
0.0
 11
226.2620750325693
 21
222.4336283899217
 31
0.0
  0
ARC
  5
13EF
330
1F
100
AcDbEntity
  8
AM_VIS
100
AcDbCircle
 10
226.2620750325693
 20
220.0136283899218
 30
0.0
 40
1.200000000000002
100
AcDbArc
 50
90.0
 51
270.0
  0
ARC
  5
13F0
330
1F
100
AcDbEntity
  8
AM_VIS
100
AcDbCircle
 10
226.2620750325693
 20
220.0136283899218
 30
0.0
 40
1.200000000000002
100
AcDbArc
 50
270.0
 51
90.0
  0
LINE
  5
13F2
330
1F
100
AcDbEntity
  8
AM_VIS
100
AcDbLine
 10
230.3120750325692
 20
135.0136283899217
 30
0.0
 11
222.2120750325692
 21
135.0136283899217
 31
0.0
  0
LINE
  5
13F3
330
1F
100
AcDbEntity
  8
AM_VIS
100
AcDbLine
 10
241.2620750325692
 20
143.5136283899217
 30
0.0
 11
240.7620750325692
 21
143.5136283899217
 31
0.0
  0
LINE
  5
13F4
330
1F
100
AcDbEntity
  8
AM_VIS
100
AcDbLine
 10
210.7620750325692
 20
150.5136283899217
 30
0.0
 11
211.2620750325692
 21
150.5136283899217
 31
0.0
  0
LINE
  5
13F7
330
1F
100
AcDbEntity
  8
AM_VIS
100
AcDbLine
 10
222.2120750325692
 20
135.0136283899217
 30
0.0
 11
221.6859343610422
 21
135.5129445876283
 31
0.0
  0
LINE
  5
13F8
330
1F
100
AcDbEntity
  8
AM_VIS
100
AcDbLine
 10
230.3120750325692
 20
135.0136283899217
 30
0.0
 11
230.8382157040962
 21
135.5129445876283
 31
0.0
  0
LINE
  5
13F9
330
1F
100
AcDbEntity
  8
AM_VIS
100
AcDbLine
 10
221.6859343610422
 20
135.5129445876283
 30
0.0
 11
221.2670750325692
 21
143.5136283899217
 31
0.0
  0
LINE
  5
13FA
330
1F
100
AcDbEntity
  8
AM_VIS
100
AcDbLine
 10
230.8382157040962
 20
135.5129445876283
 30
0.0
 11
231.2570750325692
 21
143.5136283899217
 31
0.0
  0
LINE
  5
13FB
102
{ACAD_REACTORS
330
15BA
102
}
330
1F
100
AcDbEntity
  8
AM_VIS
100
AcDbLine
 10
241.2620750325692
 20
143.5136283899217
 30
0.0
 11
241.2620750325692
 21
148.5136283899217
 31
0.0
  0
LINE
  5
13FC
330
1F
100
AcDbEntity
  8
AM_VIS
100
AcDbLine
 10
240.7620750325692
 20
148.5136283899217
 30
0.0
 11
211.3620750325692
 21
148.5136283899217
 31
0.0
  0
LINE
  5
13FD
330
1F
100
AcDbEntity
  8
AM_VIS
100
AcDbLine
 10
211.3620750325692
 20
148.5136283899217
 30
0.0
 11
211.3620750325692
 21
150.5136283899217
 31
0.0
  0
LINE
  5
13FE
330
1F
100
AcDbEntity
  8
AM_VIS
100
AcDbLine
 10
211.3620750325692
 20
150.5136283899217
 30
0.0
 11
211.2620750325692
 21
150.5136283899217
 31
0.0
  0
LINE
  5
1401
330
1F
100
AcDbEntity
  8
AM_VIS
100
AcDbLine
 10
240.7620750325692
 20
143.5136283899217
 30
0.0
 11
210.7620750325692
 21
143.5136283899217
 31
0.0
  0
LINE
  5
1402
102
{ACAD_REACTORS
330
15BA
102
}
330
1F
100
AcDbEntity
  8
AM_VIS
100
AcDbLine
 10
210.7620750325692
 20
150.5136283899217
 30
0.0
 11
210.7620750325692
 21
143.5136283899217
 31
0.0
  0
LINE
  5
1403
330
1F
100
AcDbEntity
  8
AM_VIS
100
AcDbLine
 10
240.7620750325692
 20
211.5136283899218
 30
0.0
 11
241.2620750325693
 21
211.5136283899218
 31
0.0
  0
LINE
  5
1404
330
1F
100
AcDbEntity
  8
AM_VIS
100
AcDbLine
 10
211.2620750325692
 20
204.5136283899217
 30
0.0
 11
210.7620750325692
 21
204.5136283899217
 31
0.0
  0
LINE
  5
1405
330
1F
100
AcDbEntity
  8
AM_VIS
100
AcDbLine
 10
210.7620750325692
 20
211.5136283899218
 30
0.0
 11
211.2620750325692
 21
211.5136283899218
 31
0.0
  0
LINE
  5
1406
330
1F
100
AcDbEntity
  8
AM_VIS
100
AcDbLine
 10
215.0120750325692
 20
211.5136283899218
 30
0.0
 11
217.5120750325692
 21
211.5136283899218
 31
0.0
  0
LINE
  5
1407
330
1F
100
AcDbEntity
  8
AM_VIS
100
AcDbLine
 10
241.2620750325693
 20
206.5136283899217
 30
0.0
 11
241.2620750325693
 21
211.5136283899218
 31
0.0
  0
LINE
  5
1408
330
1F
100
AcDbEntity
  8
AM_VIS
100
AcDbLine
 10
240.7620750325692
 20
206.5136283899217
 30
0.0
 11
211.3620750325692
 21
206.5136283899217
 31
0.0
  0
LINE
  5
1409
330
1F
100
AcDbEntity
  8
AM_VIS
100
AcDbLine
 10
210.7620750325692
 20
211.5136283899218
 30
0.0
 11
210.7620750325692
 21
204.5136283899217
 31
0.0
  0
LINE
  5
140A
330
1F
100
AcDbEntity
  8
AM_VIS
100
AcDbLine
 10
211.2620750325692
 20
211.5136283899218
 30
0.0
 11
215.0120750325692
 21
211.5136283899218
 31
0.0
  0
LINE
  5
140B
330
1F
100
AcDbEntity
  8
AM_VIS
100
AcDbLine
 10
240.7620750325692
 20
211.5136283899218
 30
0.0
 11
217.5120750325692
 21
211.5136283899218
 31
0.0
  0
LINE
  5
140D
330
1F
100
AcDbEntity
  8
AM_VIS
100
AcDbLine
 10
211.3620750325692
 20
206.5136283899217
 30
0.0
 11
211.3620750325692
 21
204.5136283899217
 31
0.0
  0
LINE
  5
140E
330
1F
100
AcDbEntity
  8
AM_VIS
100
AcDbLine
 10
211.2620750325692
 20
204.5136283899217
 30
0.0
 11
211.3620750325692
 21
204.5136283899217
 31
0.0
  0
LINE
  5
1410
330
1F
100
AcDbEntity
  8
AM_VIS
100
AcDbLine
 10
210.7620750325692
 20
204.4136283899217
 30
0.0
 11
210.7620750325692
 21
150.6136283899217
 31
0.0
  0
LINE
  5
1411
330
1F
100
AcDbEntity
  8
AM_VIS
100
AcDbLine
 10
243.2620750325693
 20
191.3636283899217
 30
0.0
 11
243.2620750325693
 21
196.5136283899217
 31
0.0
  0
LINE
  5
1412
330
1F
100
AcDbEntity
  8
AM_VIS
100
AcDbLine
 10
243.2620750325693
 20
166.5136283899217
 30
0.0
 11
243.2620750325693
 21
171.6636283899217
 31
0.0
  0
LINE
  5
1413
330
1F
100
AcDbEntity
  8
AM_VIS
100
AcDbLine
 10
241.2620750325693
 20
206.5136283899217
 30
0.0
 11
212.2620750325693
 21
206.5136283899217
 31
0.0
  0
LINE
  5
1414
330
1F
100
AcDbEntity
  8
AM_VIS
100
AcDbLine
 10
241.2620750325693
 20
148.5136283899217
 30
0.0
 11
212.2620750325693
 21
148.5136283899217
 31
0.0
  0
LINE
  5
1415
330
1F
100
AcDbEntity
  8
AM_VIS
100
AcDbLine
 10
243.2620750325693
 20
171.6636283899217
 30
0.0
 11
246.7620750325692
 21
171.6636283899217
 31
0.0
  0
LINE
  5
1416
330
1F
100
AcDbEntity
  8
AM_VIS
100
AcDbLine
 10
246.7620750325692
 20
191.3636283899217
 30
0.0
 11
246.7620750325692
 21
171.6636283899217
 31
0.0
  0
LINE
  5
1417
330
1F
100
AcDbEntity
  8
AM_VIS
100
AcDbLine
 10
212.2620750325693
 20
150.6136283899217
 30
0.0
 11
212.2620750325693
 21
148.5136283899217
 31
0.0
  0
LINE
  5
1418
330
1F
100
AcDbEntity
  8
AM_VIS
100
AcDbLine
 10
210.7620750325692
 20
150.6136283899217
 30
0.0
 11
212.2620750325693
 21
150.6136283899217
 31
0.0
  0
LINE
  5
1419
330
1F
100
AcDbEntity
  8
AM_VIS
100
AcDbLine
 10
212.2620750325693
 20
204.4136283899217
 30
0.0
 11
210.7620750325692
 21
204.4136283899217
 31
0.0
  0
LINE
  5
141A
330
1F
100
AcDbEntity
  8
AM_VIS
100
AcDbLine
 10
212.2620750325693
 20
206.5136283899217
 30
0.0
 11
212.2620750325693
 21
204.4136283899217
 31
0.0
  0
LINE
  5
141B
330
1F
100
AcDbEntity
  8
AM_VIS
100
AcDbLine
 10
243.2620750325693
 20
191.3636283899217
 30
0.0
 11
246.7620750325692
 21
191.3636283899217
 31
0.0
  0
LINE
  5
141C
330
1F
100
AcDbEntity
  8
AM_VIS
100
AcDbLine
 10
241.2620750325693
 20
196.5136283899217
 30
0.0
 11
243.2620750325693
 21
196.5136283899217
 31
0.0
  0
LINE
  5
141D
330
1F
100
AcDbEntity
  8
AM_VIS
100
AcDbLine
 10
241.2620750325693
 20
196.5136283899217
 30
0.0
 11
241.2620750325693
 21
206.5136283899217
 31
0.0
  0
LINE
  5
141E
330
1F
100
AcDbEntity
  8
AM_VIS
100
AcDbLine
 10
241.2620750325693
 20
166.5136283899217
 30
0.0
 11
243.2620750325693
 21
166.5136283899217
 31
0.0
  0
LINE
  5
141F
330
1F
100
AcDbEntity
  8
AM_VIS
100
AcDbLine
 10
241.2620750325693
 20
148.5136283899217
 30
0.0
 11
241.2620750325693
 21
166.5136283899217
 31
0.0
  0
LINE
  5
1421
330
1F
100
AcDbEntity
  8
AM_VIS
100
AcDbLine
 10
168.256344035108
 20
269.0635191089488
 30
0.0
 11
168.3362258656867
 21
269.1096389053369
 31
0.0
  0
LINE
  5
1422
330
1F
100
AcDbEntity
  8
AM_VIS
100
AcDbLine
 10
168.256344035108
 20
269.0635191089489
 30
0.0
 11
168.3362258656867
 21
269.0173993125608
 31
0.0
  0
LINE
  5
1423
330
1F
100
AcDbEntity
  8
AM_VIS
100
AcDbLine
 10
168.1346868614602
 20
270.531702854253
 30
0.0
 11
168.2058881389978
 21
270.5903417539059
 31
0.0
  0
LINE
  5
1424
330
1F
100
AcDbEntity
  8
AM_VIS
100
AcDbLine
 10
168.1346868614602
 20
270.531702854253
 30
0.0
 11
168.2210702769784
 21
270.49936018895
 31
0.0
  0
LINE
  5
1425
330
1F
100
AcDbEntity
  8
AM_VIS
100
AcDbLine
 10
167.7730338310776
 20
271.9598383742546
 30
0.0
 11
167.8336123703306
 21
272.0293968608501
 31
0.0
  0
LINE
  5
1426
330
1F
100
AcDbEntity
  8
AM_VIS
100
AcDbLine
 10
167.7730338310776
 20
271.9598383742546
 30
0.0
 11
167.8635625171446
 21
271.9421550636352
 31
0.0
  0
LINE
  5
1427
330
1F
100
AcDbEntity
  8
AM_VIS
100
AcDbLine
 10
167.1812498958698
 20
273.3089698548395
 30
0.0
 11
167.2295532722039
 21
273.3875505541888
 31
0.0
  0
LINE
  5
1428
330
1F
100
AcDbEntity
  8
AM_VIS
100
AcDbLine
 10
167.1812498958699
 20
273.3089698548395
 30
0.0
 11
167.2734544659205
 21
273.3064282535203
 31
0.0
  0
LINE
  5
1429
330
1F
100
AcDbEntity
  8
AM_VIS
100
AcDbLine
 10
166.3754773789238
 20
274.5422965061406
 30
0.0
 11
166.4101880021501
 21
274.62775594161
 31
0.0
  0
LINE
  5
142A
330
1F
100
AcDbEntity
  8
AM_VIS
100
AcDbLine
 10
166.3754773789238
 20
274.5422965061407
 30
0.0
 11
166.4668427326464
 21
274.5549659423802
 31
0.0
  0
LINE
  5
142B
330
1F
100
AcDbEntity
  8
AM_VIS
100
AcDbLine
 10
165.3776956540096
 20
275.6261763921532
 30
0.0
 11
165.3978667088103
 21
275.7161834531191
 31
0.0
  0
LINE
  5
142C
330
1F
100
AcDbEntity
  8
AM_VIS
100
AcDbLine
 10
165.3776956540096
 20
275.6261763921531
 30
0.0
 11
165.4657295827263
 21
275.6537112767576
 31
0.0
  0
LINE
  5
142D
330
1F
100
AcDbEntity
  8
AM_VIS
100
AcDbLine
 10
164.21512160556
 20
276.5310440950506
 30
0.0
 11
164.2202028781422
 21
276.6231436235208
 31
0.0
  0
LINE
  5
142E
330
1F
100
AcDbEntity
  8
AM_VIS
100
AcDbLine
 10
164.21512160556
 20
276.5310440950506
 30
0.0
 11
164.2974227731829
 21
276.572693348146
 31
0.0
  0
LINE
  5
142F
330
1F
100
AcDbEntity
  8
AM_VIS
100
AcDbLine
 10
162.909320109506
 20
277.3238969436353
 30
0.0
 11
162.9194672230124
 21
277.232217182712
 31
0.0
  0
LINE
  5
1430
330
1F
100
AcDbEntity
  8
AM_VIS
100
AcDbLine
 10
162.9194672230124
 20
277.232217182712
 30
0.0
 11
162.9937906682318
 21
277.2868447212454
 31
0.0
  0
LINE
  5
1431
330
1F
100
AcDbEntity
  8
AM_VIS
100
AcDbLine
 10
161.5009758676136
 20
277.7993286896176
 30
0.0
 11
161.5260745804039
 21
277.7105694811277
 31
0.0
  0
LINE
  5
1432
330
1F
100
AcDbEntity
  8
AM_VIS
100
AcDbLine
 10
161.5260745804039
 20
277.7105694811277
 30
0.0
 11
161.5903929533808
 21
277.7766852082513
 31
0.0
  0
LINE
  5
1433
330
1F
100
AcDbEntity
  8
AM_VIS
100
AcDbLine
 10
160.0335861121046
 20
278.0364703227951
 30
0.0
 11
160.0729517967212
 21
277.9530527865683
 31
0.0
  0
LINE
  5
1434
330
1F
100
AcDbEntity
  8
AM_VIS
100
AcDbLine
 10
160.0729517967212
 20
277.9530527865683
 30
0.0
 11
160.1255106599064
 21
278.028853237597
 31
0.0
  0
LINE
  5
1435
330
1F
100
AcDbEntity
  8
AM_VIS
100
AcDbLine
 10
158.5471774103096
 20
278.028853237597
 30
0.0
 11
158.5997362734948
 21
277.9530527865683
 31
0.0
  0
LINE
  5
1436
330
1F
100
AcDbEntity
  8
AM_VIS
100
AcDbLine
 10
158.5997362734948
 20
277.9530527865682
 30
0.0
 11
158.6391019581114
 21
278.0364703227951
 31
0.0
  0
LINE
  5
1437
330
1F
100
AcDbEntity
  8
AM_VIS
100
AcDbLine
 10
157.0822951168351
 20
277.7766852082513
 30
0.0
 11
157.1466134898121
 21
277.7105694811277
 31
0.0
  0
LINE
  5
1438
330
1F
100
AcDbEntity
  8
AM_VIS
100
AcDbLine
 10
157.1466134898121
 20
277.7105694811276
 30
0.0
 11
157.1717122026023
 21
277.7993286896176
 31
0.0
  0
LINE
  5
1439
330
1F
100
AcDbEntity
  8
AM_VIS
100
AcDbLine
 10
155.6788974019842
 20
277.2868447212454
 30
0.0
 11
155.7532208472035
 21
277.232217182712
 31
0.0
  0
LINE
  5
143A
330
1F
100
AcDbEntity
  8
AM_VIS
100
AcDbLine
 10
155.7532208472035
 20
277.232217182712
 30
0.0
 11
155.76336796071
 21
277.3238969436353
 31
0.0
  0
LINE
  5
143B
330
1F
100
AcDbEntity
  8
AM_VIS
100
AcDbLine
 10
154.3752652970331
 20
276.572693348146
 30
0.0
 11
154.457566464656
 21
276.5310440950506
 31
0.0
  0
LINE
  5
143C
330
1F
100
AcDbEntity
  8
AM_VIS
100
AcDbLine
 10
154.4524851920738
 20
276.6231436235208
 30
0.0
 11
154.457566464656
 21
276.5310440950506
 31
0.0
  0
LINE
  5
143D
330
1F
100
AcDbEntity
  8
AM_VIS
100
AcDbLine
 10
153.2069584874896
 20
275.6537112767576
 30
0.0
 11
153.2949924162064
 21
275.6261763921532
 31
0.0
  0
LINE
  5
143E
330
1F
100
AcDbEntity
  8
AM_VIS
100
AcDbLine
 10
153.2748213614057
 20
275.7161834531191
 30
0.0
 11
153.2949924162064
 21
275.6261763921532
 31
0.0
  0
LINE
  5
143F
330
1F
100
AcDbEntity
  8
AM_VIS
100
AcDbLine
 10
152.2058453375696
 20
274.5549659423802
 30
0.0
 11
152.2972106912921
 21
274.5422965061407
 31
0.0
  0
LINE
  5
1440
330
1F
100
AcDbEntity
  8
AM_VIS
100
AcDbLine
 10
152.2625000680659
 20
274.62775594161
 30
0.0
 11
152.2972106912922
 21
274.5422965061406
 31
0.0
  0
LINE
  5
1441
330
1F
100
AcDbEntity
  8
AM_VIS
100
AcDbLine
 10
151.3992336042955
 20
273.3064282535203
 30
0.0
 11
151.4914381743462
 21
273.3089698548395
 31
0.0
  0
LINE
  5
1442
330
1F
100
AcDbEntity
  8
AM_VIS
100
AcDbLine
 10
151.4431347980121
 20
273.3875505541888
 30
0.0
 11
151.4914381743462
 21
273.3089698548395
 31
0.0
  0
LINE
  5
1443
330
1F
100
AcDbEntity
  8
AM_VIS
100
AcDbLine
 10
150.8091255530714
 20
271.9421550636352
 30
0.0
 11
150.8996542391384
 21
271.9598383742546
 31
0.0
  0
LINE
  5
1444
330
1F
100
AcDbEntity
  8
AM_VIS
100
AcDbLine
 10
150.8390756998854
 20
272.0293968608501
 30
0.0
 11
150.8996542391384
 21
271.9598383742546
 31
0.0
  0
LINE
  5
1445
330
1F
100
AcDbEntity
  8
AM_VIS
100
AcDbLine
 10
150.4516177932375
 20
270.49936018895
 30
0.0
 11
150.5380012087557
 21
270.531702854253
 31
0.0
  0
LINE
  5
1446
330
1F
100
AcDbEntity
  8
AM_VIS
100
AcDbLine
 10
150.4667999312182
 20
270.5903417539059
 30
0.0
 11
150.5380012087557
 21
270.531702854253
 31
0.0
  0
LINE
  5
1447
330
1F
100
AcDbEntity
  8
AM_VIS
100
AcDbLine
 10
150.3364622045293
 20
269.0173993125608
 30
0.0
 11
150.416344035108
 21
269.0635191089489
 31
0.0
  0
LINE
  5
1448
330
1F
100
AcDbEntity
  8
AM_VIS
100
AcDbLine
 10
150.3364622045293
 20
269.1096389053369
 30
0.0
 11
150.416344035108
 21
269.0635191089488
 31
0.0
  0
LINE
  5
1449
330
1F
100
AcDbEntity
  8
AM_VIS
100
AcDbLine
 10
150.4667999312182
 20
267.5366964639918
 30
0.0
 11
150.5380012087557
 21
267.5953353636447
 31
0.0
  0
LINE
  5
144A
330
1F
100
AcDbEntity
  8
AM_VIS
100
AcDbLine
 10
150.4516177932375
 20
267.6276780289477
 30
0.0
 11
150.5380012087557
 21
267.5953353636447
 31
0.0
  0
LINE
  5
144B
330
1F
100
AcDbEntity
  8
AM_VIS
100
AcDbLine
 10
150.8390756998854
 20
266.0976413570476
 30
0.0
 11
150.8996542391384
 21
266.1671998436431
 31
0.0
  0
LINE
  5
144C
330
1F
100
AcDbEntity
  8
AM_VIS
100
AcDbLine
 10
150.8091255530714
 20
266.1848831542625
 30
0.0
 11
150.8996542391384
 21
266.1671998436431
 31
0.0
  0
LINE
  5
144D
330
1F
100
AcDbEntity
  8
AM_VIS
100
AcDbLine
 10
151.4431347980121
 20
264.739487663709
 30
0.0
 11
151.4914381743462
 21
264.8180683630582
 31
0.0
  0
LINE
  5
144E
330
1F
100
AcDbEntity
  8
AM_VIS
100
AcDbLine
 10
151.3992336042955
 20
264.8206099643774
 30
0.0
 11
151.4914381743462
 21
264.8180683630582
 31
0.0
  0
LINE
  5
144F
330
1F
100
AcDbEntity
  8
AM_VIS
100
AcDbLine
 10
152.2625000680659
 20
263.4992822762878
 30
0.0
 11
152.2972106912922
 21
263.5847417117571
 31
0.0
  0
LINE
  5
1450
330
1F
100
AcDbEntity
  8
AM_VIS
100
AcDbLine
 10
152.2058453375696
 20
263.5720722755175
 30
0.0
 11
152.2972106912922
 21
263.584741711757
 31
0.0
  0
LINE
  5
1451
330
1F
100
AcDbEntity
  8
AM_VIS
100
AcDbLine
 10
153.2748213614057
 20
262.4108547647787
 30
0.0
 11
153.2949924162064
 21
262.5008618257445
 31
0.0
  0
LINE
  5
1452
330
1F
100
AcDbEntity
  8
AM_VIS
100
AcDbLine
 10
153.2069584874896
 20
262.4733269411402
 30
0.0
 11
153.2949924162064
 21
262.5008618257445
 31
0.0
  0
LINE
  5
1453
330
1F
100
AcDbEntity
  8
AM_VIS
100
AcDbLine
 10
154.4524851920738
 20
261.503894594377
 30
0.0
 11
154.457566464656
 21
261.5959941228471
 31
0.0
  0
LINE
  5
1454
330
1F
100
AcDbEntity
  8
AM_VIS
100
AcDbLine
 10
154.3752652970331
 20
261.5543448697517
 30
0.0
 11
154.457566464656
 21
261.5959941228471
 31
0.0
  0
LINE
  5
1455
330
1F
100
AcDbEntity
  8
AM_VIS
100
AcDbLine
 10
155.7532208472035
 20
260.8948210351858
 30
0.0
 11
155.76336796071
 21
260.8031412742624
 31
0.0
  0
LINE
  5
1456
330
1F
100
AcDbEntity
  8
AM_VIS
100
AcDbLine
 10
155.6788974019842
 20
260.8401934966524
 30
0.0
 11
155.7532208472035
 21
260.8948210351858
 31
0.0
  0
LINE
  5
1457
330
1F
100
AcDbEntity
  8
AM_VIS
100
AcDbLine
 10
157.1466134898121
 20
260.4164687367701
 30
0.0
 11
157.1717122026023
 21
260.3277095282802
 31
0.0
  0
LINE
  5
1458
330
1F
100
AcDbEntity
  8
AM_VIS
100
AcDbLine
 10
157.0822951168351
 20
260.3503530096464
 30
0.0
 11
157.146613489812
 21
260.4164687367701
 31
0.0
  0
LINE
  5
1459
330
1F
100
AcDbEntity
  8
AM_VIS
100
AcDbLine
 10
158.5997362734948
 20
260.1739854313295
 30
0.0
 11
158.6391019581114
 21
260.0905678951026
 31
0.0
  0
LINE
  5
145A
330
1F
100
AcDbEntity
  8
AM_VIS
100
AcDbLine
 10
158.5471774103096
 20
260.0981849803007
 30
0.0
 11
158.5997362734948
 21
260.1739854313295
 31
0.0
  0
LINE
  5
145B
330
1F
100
AcDbEntity
  8
AM_VIS
100
AcDbLine
 10
160.0729517967212
 20
260.1739854313294
 30
0.0
 11
160.1255106599064
 21
260.0981849803007
 31
0.0
  0
LINE
  5
145C
330
1F
100
AcDbEntity
  8
AM_VIS
100
AcDbLine
 10
160.0335861121046
 20
260.0905678951026
 30
0.0
 11
160.0729517967212
 21
260.1739854313294
 31
0.0
  0
LINE
  5
145D
330
1F
100
AcDbEntity
  8
AM_VIS
100
AcDbLine
 10
161.5260745804039
 20
260.4164687367701
 30
0.0
 11
161.5903929533808
 21
260.3503530096464
 31
0.0
  0
LINE
  5
145E
330
1F
100
AcDbEntity
  8
AM_VIS
100
AcDbLine
 10
161.5009758676136
 20
260.3277095282802
 30
0.0
 11
161.5260745804039
 21
260.4164687367701
 31
0.0
  0
LINE
  5
145F
330
1F
100
AcDbEntity
  8
AM_VIS
100
AcDbLine
 10
162.9194672230125
 20
260.8948210351858
 30
0.0
 11
162.9937906682318
 21
260.8401934966524
 31
0.0
  0
LINE
  5
1460
330
1F
100
AcDbEntity
  8
AM_VIS
100
AcDbLine
 10
162.909320109506
 20
260.8031412742624
 30
0.0
 11
162.9194672230124
 21
260.8948210351858
 31
0.0
  0
LINE
  5
1461
330
1F
100
AcDbEntity
  8
AM_VIS
100
AcDbLine
 10
164.21512160556
 20
261.5959941228471
 30
0.0
 11
164.2974227731829
 21
261.5543448697518
 31
0.0
  0
LINE
  5
1462
330
1F
100
AcDbEntity
  8
AM_VIS
100
AcDbLine
 10
164.21512160556
 20
261.5959941228471
 30
0.0
 11
164.2202028781422
 21
261.503894594377
 31
0.0
  0
LINE
  5
1463
330
1F
100
AcDbEntity
  8
AM_VIS
100
AcDbLine
 10
165.3776956540096
 20
262.5008618257445
 30
0.0
 11
165.4657295827263
 21
262.4733269411402
 31
0.0
  0
LINE
  5
1464
330
1F
100
AcDbEntity
  8
AM_VIS
100
AcDbLine
 10
165.3776956540096
 20
262.5008618257445
 30
0.0
 11
165.3978667088103
 21
262.4108547647787
 31
0.0
  0
LINE
  5
1465
330
1F
100
AcDbEntity
  8
AM_VIS
100
AcDbLine
 10
166.3754773789238
 20
263.584741711757
 30
0.0
 11
166.4668427326464
 21
263.5720722755175
 31
0.0
  0
LINE
  5
1466
330
1F
100
AcDbEntity
  8
AM_VIS
100
AcDbLine
 10
166.3754773789238
 20
263.584741711757
 30
0.0
 11
166.4101880021501
 21
263.4992822762878
 31
0.0
  0
LINE
  5
1467
330
1F
100
AcDbEntity
  8
AM_VIS
100
AcDbLine
 10
167.1812498958699
 20
264.8180683630582
 30
0.0
 11
167.2734544659205
 21
264.8206099643774
 31
0.0
  0
LINE
  5
1468
330
1F
100
AcDbEntity
  8
AM_VIS
100
AcDbLine
 10
167.1812498958699
 20
264.8180683630582
 30
0.0
 11
167.2295532722039
 21
264.739487663709
 31
0.0
  0
LINE
  5
1469
330
1F
100
AcDbEntity
  8
AM_VIS
100
AcDbLine
 10
167.7730338310776
 20
266.1671998436432
 30
0.0
 11
167.8635625171446
 21
266.1848831542625
 31
0.0
  0
LINE
  5
146A
330
1F
100
AcDbEntity
  8
AM_VIS
100
AcDbLine
 10
167.7730338310776
 20
266.1671998436431
 30
0.0
 11
167.8336123703306
 21
266.0976413570476
 31
0.0
  0
LINE
  5
146B
330
1F
100
AcDbEntity
  8
AM_VIS
100
AcDbLine
 10
168.1346868614602
 20
267.5953353636447
 30
0.0
 11
168.2210702769784
 21
267.6276780289477
 31
0.0
  0
LINE
  5
146C
330
1F
100
AcDbEntity
  8
AM_VIS
100
AcDbLine
 10
168.1346868614602
 20
267.5953353636447
 30
0.0
 11
168.2058881389978
 21
267.5366964639918
 31
0.0
  0
CIRCLE
  5
146D
330
1F
100
AcDbEntity
  8
AM_VIS
100
AcDbCircle
 10
159.336344035108
 20
269.0635191089489
 30
0.0
 40
8.5
  0
ARC
  5
146E
330
1F
100
AcDbEntity
  8
AM_VIS
100
AcDbCircle
 10
159.336344035108
 20
269.0635191089489
 30
0.0
 40
9.0
100
AcDbArc
 50
350.8199248172791
 51
359.7063909721951
  0
ARC
  5
146F
330
1F
100
AcDbEntity
  8
AM_VIS
100
AcDbCircle
 10
159.336344035108
 20
269.0635191089489
 30
0.0
 40
9.0
100
AcDbArc
 50
341.3462406067528
 51
350.2327067616687
  0
ARC
  5
1470
330
1F
100
AcDbEntity
  8
AM_VIS
100
AcDbCircle
 10
159.336344035108
 20
269.0635191089489
 30
0.0
 40
9.0
100
AcDbArc
 50
331.8725563962269
 51
340.759022551142
  0
ARC
  5
1471
330
1F
100
AcDbEntity
  8
AM_VIS
100
AcDbCircle
 10
159.336344035108
 20
269.0635191089489
 30
0.0
 40
9.0
100
AcDbArc
 50
322.3988721857003
 51
331.2853383406159
  0
ARC
  5
1472
330
1F
100
AcDbEntity
  8
AM_VIS
100
AcDbCircle
 10
159.336344035108
 20
269.0635191089489
 30
0.0
 40
9.0
100
AcDbArc
 50
312.9251879751735
 51
321.811654130089
  0
ARC
  5
1473
330
1F
100
AcDbEntity
  8
AM_VIS
100
AcDbCircle
 10
159.336344035108
 20
269.0635191089489
 30
0.0
 40
9.0
100
AcDbArc
 50
303.4515037646486
 51
312.3379699195629
  0
ARC
  5
1474
330
1F
100
AcDbEntity
  8
AM_VIS
100
AcDbCircle
 10
159.336344035108
 20
269.0635191089489
 30
0.0
 40
9.0
100
AcDbArc
 50
293.9778195541211
 51
302.8642857090357
  0
ARC
  5
1475
330
1F
100
AcDbEntity
  8
AM_VIS
100
AcDbCircle
 10
159.336344035108
 20
269.0635191089489
 30
0.0
 40
9.0
100
AcDbArc
 50
284.5041353435944
 51
293.3906014985095
  0
ARC
  5
1476
330
1F
100
AcDbEntity
  8
AM_VIS
100
AcDbCircle
 10
159.336344035108
 20
269.0635191089489
 30
0.0
 40
9.0
100
AcDbArc
 50
275.0304511330684
 51
283.9169172879836
  0
ARC
  5
1477
330
1F
100
AcDbEntity
  8
AM_VIS
100
AcDbCircle
 10
159.336344035108
 20
269.0635191089489
 30
0.0
 40
9.0
100
AcDbArc
 50
265.5567669225415
 51
274.4432330774584
  0
ARC
  5
1478
330
1F
100
AcDbEntity
  8
AM_VIS
100
AcDbCircle
 10
159.336344035108
 20
269.0635191089489
 30
0.0
 40
9.0
100
AcDbArc
 50
256.0830827120164
 51
264.9695488669316
  0
ARC
  5
1479
330
1F
100
AcDbEntity
  8
AM_VIS
100
AcDbCircle
 10
159.336344035108
 20
269.0635191089489
 30
0.0
 40
9.0
100
AcDbArc
 50
246.6093985014905
 51
255.4958646564057
  0
ARC
  5
147A
330
1F
100
AcDbEntity
  8
AM_VIS
100
AcDbCircle
 10
159.336344035108
 20
269.0635191089489
 30
0.0
 40
9.0
100
AcDbArc
 50
237.1357142909629
 51
246.022180445879
  0
ARC
  5
147B
330
1F
100
AcDbEntity
  8
AM_VIS
100
AcDbCircle
 10
159.336344035108
 20
269.0635191089489
 30
0.0
 40
9.0
100
AcDbArc
 50
227.6620300804371
 51
236.5484962353514
  0
ARC
  5
147C
330
1F
100
AcDbEntity
  8
AM_VIS
100
AcDbCircle
 10
159.336344035108
 20
269.0635191089489
 30
0.0
 40
9.0
100
AcDbArc
 50
218.18834586991
 51
227.0748120248264
  0
ARC
  5
147D
330
1F
100
AcDbEntity
  8
AM_VIS
100
AcDbCircle
 10
159.336344035108
 20
269.0635191089489
 30
0.0
 40
9.0
100
AcDbArc
 50
208.7146616593841
 51
217.6011278142997
  0
ARC
  5
147E
330
1F
100
AcDbEntity
  8
AM_VIS
100
AcDbCircle
 10
159.336344035108
 20
269.0635191089489
 30
0.0
 40
9.0
100
AcDbArc
 50
199.240977448858
 51
208.1274436037731
  0
ARC
  5
147F
330
1F
100
AcDbEntity
  8
AM_VIS
100
AcDbCircle
 10
159.336344035108
 20
269.0635191089489
 30
0.0
 40
9.0
100
AcDbArc
 50
189.7672932383313
 51
198.6537593932472
  0
ARC
  5
1480
330
1F
100
AcDbEntity
  8
AM_VIS
100
AcDbCircle
 10
159.336344035108
 20
269.0635191089489
 30
0.0
 40
9.0
100
AcDbArc
 50
180.2936090278049
 51
189.1800751827209
  0
ARC
  5
1481
330
1F
100
AcDbEntity
  8
AM_VIS
100
AcDbCircle
 10
159.336344035108
 20
269.0635191089489
 30
0.0
 40
9.0
100
AcDbArc
 50
170.8199248172791
 51
179.7063909721951
  0
ARC
  5
1482
330
1F
100
AcDbEntity
  8
AM_VIS
100
AcDbCircle
 10
159.336344035108
 20
269.0635191089489
 30
0.0
 40
9.0
100
AcDbArc
 50
161.3462406067528
 51
170.2327067616687
  0
ARC
  5
1483
330
1F
100
AcDbEntity
  8
AM_VIS
100
AcDbCircle
 10
159.336344035108
 20
269.0635191089489
 30
0.0
 40
9.0
100
AcDbArc
 50
151.8725563962268
 51
160.759022551142
  0
ARC
  5
1484
330
1F
100
AcDbEntity
  8
AM_VIS
100
AcDbCircle
 10
159.336344035108
 20
269.0635191089489
 30
0.0
 40
9.0
100
AcDbArc
 50
142.3988721857003
 51
151.2853383406159
  0
ARC
  5
1485
330
1F
100
AcDbEntity
  8
AM_VIS
100
AcDbCircle
 10
159.336344035108
 20
269.0635191089489
 30
0.0
 40
9.0
100
AcDbArc
 50
132.9251879751735
 51
141.8116541300889
  0
ARC
  5
1486
330
1F
100
AcDbEntity
  8
AM_VIS
100
AcDbCircle
 10
159.336344035108
 20
269.0635191089489
 30
0.0
 40
9.0
100
AcDbArc
 50
123.4515037646485
 51
132.3379699195629
  0
ARC
  5
1487
330
1F
100
AcDbEntity
  8
AM_VIS
100
AcDbCircle
 10
159.336344035108
 20
269.0635191089489
 30
0.0
 40
9.0
100
AcDbArc
 50
113.977819554121
 51
122.8642857090371
  0
ARC
  5
1488
330
1F
100
AcDbEntity
  8
AM_VIS
100
AcDbCircle
 10
159.336344035108
 20
269.0635191089489
 30
0.0
 40
9.0
100
AcDbArc
 50
104.5041353435943
 51
113.3906014985094
  0
ARC
  5
1489
330
1F
100
AcDbEntity
  8
AM_VIS
100
AcDbCircle
 10
159.336344035108
 20
269.0635191089489
 30
0.0
 40
9.0
100
AcDbArc
 50
95.03045113306839
 51
103.9169172879836
  0
ARC
  5
148A
330
1F
100
AcDbEntity
  8
AM_VIS
100
AcDbCircle
 10
159.336344035108
 20
269.0635191089489
 30
0.0
 40
9.0
100
AcDbArc
 50
85.55676692254156
 51
94.44323307745845
  0
ARC
  5
148B
330
1F
100
AcDbEntity
  8
AM_VIS
100
AcDbCircle
 10
159.336344035108
 20
269.0635191089489
 30
0.0
 40
9.0
100
AcDbArc
 50
76.0830827120164
 51
84.9695488669316
  0
ARC
  5
148C
330
1F
100
AcDbEntity
  8
AM_VIS
100
AcDbCircle
 10
159.336344035108
 20
269.0635191089489
 30
0.0
 40
9.0
100
AcDbArc
 50
66.60939850149055
 51
75.49586465640567
  0
ARC
  5
148D
330
1F
100
AcDbEntity
  8
AM_VIS
100
AcDbCircle
 10
159.336344035108
 20
269.0635191089489
 30
0.0
 40
9.0
100
AcDbArc
 50
57.13571429096289
 51
66.02218044587894
  0
ARC
  5
148E
330
1F
100
AcDbEntity
  8
AM_VIS
100
AcDbCircle
 10
159.336344035108
 20
269.0635191089489
 30
0.0
 40
9.0
100
AcDbArc
 50
47.66203008043707
 51
56.54849623535144
  0
ARC
  5
148F
330
1F
100
AcDbEntity
  8
AM_VIS
100
AcDbCircle
 10
159.336344035108
 20
269.0635191089489
 30
0.0
 40
9.0
100
AcDbArc
 50
38.18834586991
 51
47.07481202482645
  0
ARC
  5
1490
330
1F
100
AcDbEntity
  8
AM_VIS
100
AcDbCircle
 10
159.336344035108
 20
269.0635191089489
 30
0.0
 40
9.0
100
AcDbArc
 50
28.71466165938408
 51
37.60112781429969
  0
ARC
  5
1491
330
1F
100
AcDbEntity
  8
AM_VIS
100
AcDbCircle
 10
159.336344035108
 20
269.0635191089489
 30
0.0
 40
9.0
100
AcDbArc
 50
19.24097744885798
 51
28.1274436037731
  0
ARC
  5
1492
330
1F
100
AcDbEntity
  8
AM_VIS
100
AcDbCircle
 10
159.336344035108
 20
269.0635191089489
 30
0.0
 40
9.0
100
AcDbArc
 50
9.767293238331285
 51
18.65375939324717
  0
ARC
  5
1493
330
1F
100
AcDbEntity
  8
AM_VIS
100
AcDbCircle
 10
159.336344035108
 20
269.0635191089489
 30
0.0
 40
9.0
100
AcDbArc
 50
0.29360902780489
 51
9.180075182720909
  0
LINE
  5
1494
330
1F
100
AcDbEntity
  8
AM_VIS
100
AcDbLine
 10
166.256344035108
 20
269.0635191089489
 30
0.0
 11
166.336192230265
 21
269.1096194859171
 31
0.0
  0
LINE
  5
1495
330
1F
100
AcDbEntity
  8
AM_VIS
100
AcDbLine
 10
166.256344035108
 20
269.0635191089489
 30
0.0
 11
166.336192230265
 21
269.0174187319806
 31
0.0
  0
LINE
  5
1496
330
1F
100
AcDbEntity
  8
AM_VIS
100
AcDbLine
 10
166.1667318525623
 20
270.1735651724846
 30
0.0
 11
166.2381510140458
 21
270.2318771129381
 31
0.0
  0
LINE
  5
1497
330
1F
100
AcDbEntity
  8
AM_VIS
100
AcDbLine
 10
166.1667318525623
 20
270.1735651724845
 30
0.0
 11
166.2529410550808
 21
270.1408703345497
 31
0.0
  0
LINE
  5
1498
330
1F
100
AcDbEntity
  8
AM_VIS
100
AcDbLine
 10
165.9002162133822
 20
271.254861626055
 30
0.0
 11
165.9613566224244
 21
271.323874881366
 31
0.0
  0
LINE
  5
1499
330
1F
100
AcDbEntity
  8
AM_VIS
100
AcDbLine
 10
165.9002162133822
 20
271.254861626055
 30
0.0
 11
165.9905536502004
 21
271.2364191062823
 31
0.0
  0
LINE
  5
149A
330
1F
100
AcDbEntity
  8
AM_VIS
100
AcDbLine
 10
165.4636997326282
 20
272.2794034594917
 30
0.0
 11
165.5129778847505
 21
272.3573306225985
 31
0.0
  0
LINE
  5
149B
330
1F
100
AcDbEntity
  8
AM_VIS
100
AcDbLine
 10
165.4636997326282
 20
272.2794034594917
 30
0.0
 11
165.5558257115846
 21
272.2756909094557
 31
0.0
  0
LINE
  5
149C
330
1F
100
AcDbEntity
  8
AM_VIS
100
AcDbLine
 10
164.8684879578602
 20
273.2206555774757
 30
0.0
 11
164.9046275748072
 21
273.3054783757871
 31
0.0
  0
LINE
  5
149D
330
1F
100
AcDbEntity
  8
AM_VIS
100
AcDbLine
 10
164.8684879578602
 20
273.2206555774756
 30
0.0
 11
164.9600164644914
 21
273.2317691502722
 31
0.0
  0
LINE
  5
149E
330
1F
100
AcDbEntity
  8
AM_VIS
100
AcDbLine
 10
164.1299965613945
 20
274.0542400445681
 30
0.0
 11
164.1520616460705
 21
274.1437616121632
 31
0.0
  0
LINE
  5
149F
330
1F
100
AcDbEntity
  8
AM_VIS
100
AcDbLine
 10
164.1299965613944
 20
274.0542400445681
 30
0.0
 11
164.2185570554564
 21
274.0798919044995
 31
0.0
  0
LINE
  5
14A0
330
1F
100
AcDbEntity
  8
AM_VIS
100
AcDbLine
 10
163.2673520824876
 20
274.758567460933
 30
0.0
 11
163.2747711607899
 21
274.8504692362346
 31
0.0
  0
LINE
  5
14A1
330
1F
100
AcDbEntity
  8
AM_VIS
100
AcDbLine
 10
163.2673520824875
 20
274.758567460933
 30
0.0
 11
163.3506508937029
 21
274.7980932383013
 31
0.0
  0
LINE
  5
14A2
330
1F
100
AcDbEntity
  8
AM_VIS
100
AcDbLine
 10
162.2954774817148
 20
275.4072978917544
 30
0.0
 11
162.3028965600171
 21
275.3153961164526
 31
0.0
  0
LINE
  5
14A3
330
1F
100
AcDbEntity
  8
AM_VIS
100
AcDbLine
 10
162.3028965600171
 20
275.3153961164526
 30
0.0
 11
162.37877629293
 21
275.367772114386
 31
0.0
  0
LINE
  5
14A4
330
1F
100
AcDbEntity
  8
AM_VIS
100
AcDbLine
 10
161.2395438007338
 20
275.7998260090331
 30
0.0
 11
161.2616088854099
 21
275.7103044414379
 31
0.0
  0
LINE
  5
14A5
330
1F
100
AcDbEntity
  8
AM_VIS
100
AcDbLine
 10
161.2616088854098
 20
275.7103044414379
 30
0.0
 11
161.3281042947957
 21
275.7741741491017
 31
0.0
  0
LINE
  5
14A6
330
1F
100
AcDbEntity
  8
AM_VIS
100
AcDbLine
 10
160.1343182455278
 20
276.0178873160187
 30
0.0
 11
160.1704578624748
 21
275.9330645177074
 31
0.0
  0
LINE
  5
14A7
330
1F
100
AcDbEntity
  8
AM_VIS
100
AcDbLine
 10
160.1704578624748
 20
275.9330645177074
 30
0.0
 11
160.2258467521591
 21
276.0067737432223
 31
0.0
  0
LINE
  5
14A8
330
1F
100
AcDbEntity
  8
AM_VIS
100
AcDbLine
 10
159.0084255774286
 20
276.0558341394029
 30
0.0
 11
159.0577037295508
 21
275.9779069762962
 31
0.0
  0
LINE
  5
14A9
330
1F
100
AcDbEntity
  8
AM_VIS
100
AcDbLine
 10
159.0577037295509
 20
275.9779069762962
 30
0.0
 11
159.100551556385
 21
276.059546689439
 31
0.0
  0
LINE
  5
14AA
330
1F
100
AcDbEntity
  8
AM_VIS
100
AcDbLine
 10
157.8910258251356
 20
275.9126836763923
 30
0.0
 11
157.9521662341778
 21
275.8436704210814
 31
0.0
  0
LINE
  5
14AB
330
1F
100
AcDbEntity
  8
AM_VIS
100
AcDbLine
 10
157.9521662341778
 20
275.8436704210814
 30
0.0
 11
157.9813632619538
 21
275.931126196165
 31
0.0
  0
LINE
  5
14AC
330
1F
100
AcDbEntity
  8
AM_VIS
100
AcDbLine
 10
156.8110590552902
 20
275.5921434487855
 30
0.0
 11
156.8824782167737
 21
275.5338315083319
 31
0.0
  0
LINE
  5
14AD
330
1F
100
AcDbEntity
  8
AM_VIS
100
AcDbLine
 10
156.8824782167737
 20
275.5338315083319
 30
0.0
 11
156.8972682578086
 21
275.6248382867203
 31
0.0
  0
LINE
  5
14AE
330
1F
100
AcDbEntity
  8
AM_VIS
100
AcDbLine
 10
155.796495839951
 20
275.1025152801054
 30
0.0
 11
155.876344035108
 21
275.0564149031372
 31
0.0
  0
LINE
  5
14AF
330
1F
100
AcDbEntity
  8
AM_VIS
100
AcDbLine
 10
155.876344035108
 20
275.1486156570737
 30
0.0
 11
155.876344035108
 21
275.0564149031372
 31
0.0
  0
LINE
  5
14B0
330
1F
100
AcDbEntity
  8
AM_VIS
100
AcDbLine
 10
154.8736128334695
 20
274.4564802827311
 30
0.0
 11
154.959822035988
 21
274.4237854447963
 31
0.0
  0
LINE
  5
14B1
330
1F
100
AcDbEntity
  8
AM_VIS
100
AcDbLine
 10
154.945031994953
 20
274.5147922231847
 30
0.0
 11
154.959822035988
 21
274.4237854447963
 31
0.0
  0
LINE
  5
14B2
330
1F
100
AcDbEntity
  8
AM_VIS
100
AcDbLine
 10
154.0663122209458
 20
273.670770423748
 30
0.0
 11
154.156649657764
 21
273.6523279039752
 31
0.0
  0
LINE
  5
14B3
330
1F
100
AcDbEntity
  8
AM_VIS
100
AcDbLine
 10
154.1274526299879
 20
273.7397836790589
 30
0.0
 11
154.156649657764
 21
273.6523279039752
 31
0.0
  0
LINE
  5
14B4
330
1F
100
AcDbEntity
  8
AM_VIS
100
AcDbLine
 10
153.3955026641885
 20
272.7657351757893
 30
0.0
 11
153.487628643145
 21
272.7620226257532
 31
0.0
  0
LINE
  5
14B5
330
1F
100
AcDbEntity
  8
AM_VIS
100
AcDbLine
 10
153.4447808163108
 20
272.8436623388961
 30
0.0
 11
153.4876286431449
 21
272.7620226257532
 31
0.0
  0
LINE
  5
14B6
330
1F
100
AcDbEntity
  8
AM_VIS
100
AcDbLine
 10
152.8785577783577
 20
271.764814476384
 30
0.0
 11
152.9700862849889
 21
271.7759280491805
 31
0.0
  0
LINE
  5
14B7
330
1F
100
AcDbEntity
  8
AM_VIS
100
AcDbLine
 10
152.9146973953047
 20
271.8496372746955
 30
0.0
 11
152.9700862849889
 21
271.7759280491805
 31
0.0
  0
LINE
  5
14B8
330
1F
100
AcDbEntity
  8
AM_VIS
100
AcDbLine
 10
152.5288661644577
 20
270.6939316458874
 30
0.0
 11
152.6174266585197
 21
270.7195835058188
 31
0.0
  0
LINE
  5
14B9
330
1F
100
AcDbEntity
  8
AM_VIS
100
AcDbLine
 10
152.5509312491338
 20
270.7834532134825
 30
0.0
 11
152.6174266585197
 21
270.7195835058187
 31
0.0
  0
LINE
  5
14BA
330
1F
100
AcDbEntity
  8
AM_VIS
100
AcDbLine
 10
152.355484651604
 20
269.5808219871003
 30
0.0
 11
152.4387834628193
 21
269.6203477644686
 31
0.0
  0
LINE
  5
14BB
330
1F
100
AcDbEntity
  8
AM_VIS
100
AcDbLine
 10
152.3629037299063
 20
269.672723762402
 30
0.0
 11
152.4387834628193
 21
269.6203477644686
 31
0.0
  0
LINE
  5
14BC
330
1F
100
AcDbEntity
  8
AM_VIS
100
AcDbLine
 10
152.3629037299063
 20
268.4543144554957
 30
0.0
 11
152.4387834628193
 21
268.5066904534291
 31
0.0
  0
LINE
  5
14BD
330
1F
100
AcDbEntity
  8
AM_VIS
100
AcDbLine
 10
152.355484651604
 20
268.5462162307974
 30
0.0
 11
152.4387834628193
 21
268.5066904534291
 31
0.0
  0
LINE
  5
14BE
330
1F
100
AcDbEntity
  8
AM_VIS
100
AcDbLine
 10
152.5509312491338
 20
267.3435850044153
 30
0.0
 11
152.6174266585198
 21
267.407454712079
 31
0.0
  0
LINE
  5
14BF
330
1F
100
AcDbEntity
  8
AM_VIS
100
AcDbLine
 10
152.5288661644577
 20
267.4331065720103
 30
0.0
 11
152.6174266585197
 21
267.407454712079
 31
0.0
  0
LINE
  5
14C0
330
1F
100
AcDbEntity
  8
AM_VIS
100
AcDbLine
 10
152.9146973953047
 20
266.2774009432023
 30
0.0
 11
152.9700862849889
 21
266.3511101687172
 31
0.0
  0
LINE
  5
14C1
330
1F
100
AcDbEntity
  8
AM_VIS
100
AcDbLine
 10
152.8785577783577
 20
266.3622237415137
 30
0.0
 11
152.9700862849889
 21
266.3511101687172
 31
0.0
  0
LINE
  5
14C2
330
1F
100
AcDbEntity
  8
AM_VIS
100
AcDbLine
 10
153.4447808163108
 20
265.2833758790016
 30
0.0
 11
153.4876286431449
 21
265.3650155921445
 31
0.0
  0
LINE
  5
14C3
330
1F
100
AcDbEntity
  8
AM_VIS
100
AcDbLine
 10
153.3955026641885
 20
265.3613030421084
 30
0.0
 11
153.4876286431449
 21
265.3650155921445
 31
0.0
  0
LINE
  5
14C4
330
1F
100
AcDbEntity
  8
AM_VIS
100
AcDbLine
 10
154.1274526299879
 20
264.3872545388388
 30
0.0
 11
154.156649657764
 21
264.4747103139226
 31
0.0
  0
LINE
  5
14C5
330
1F
100
AcDbEntity
  8
AM_VIS
100
AcDbLine
 10
154.0663122209458
 20
264.4562677941497
 30
0.0
 11
154.156649657764
 21
264.4747103139226
 31
0.0
  0
LINE
  5
14C6
330
1F
100
AcDbEntity
  8
AM_VIS
100
AcDbLine
 10
154.945031994953
 20
263.6122459947131
 30
0.0
 11
154.959822035988
 21
263.7032527731015
 31
0.0
  0
LINE
  5
14C7
330
1F
100
AcDbEntity
  8
AM_VIS
100
AcDbLine
 10
154.8736128334695
 20
263.6705579351666
 30
0.0
 11
154.959822035988
 21
263.7032527731015
 31
0.0
  0
LINE
  5
14C8
330
1F
100
AcDbEntity
  8
AM_VIS
100
AcDbLine
 10
155.876344035108
 20
263.0706233147606
 30
0.0
 11
155.876344035108
 21
262.9784225608241
 31
0.0
  0
LINE
  5
14C9
330
1F
100
AcDbEntity
  8
AM_VIS
100
AcDbLine
 10
155.796495839951
 20
263.0245229377923
 30
0.0
 11
155.876344035108
 21
263.0706233147606
 31
0.0
  0
LINE
  5
14CA
330
1F
100
AcDbEntity
  8
AM_VIS
100
AcDbLine
 10
156.8824782167737
 20
262.5932067095658
 30
0.0
 11
156.8972682578086
 21
262.5021999311774
 31
0.0
  0
LINE
  5
14CB
330
1F
100
AcDbEntity
  8
AM_VIS
100
AcDbLine
 10
156.8110590552902
 20
262.5348947691123
 30
0.0
 11
156.8824782167736
 21
262.5932067095658
 31
0.0
  0
LINE
  5
14CC
330
1F
100
AcDbEntity
  8
AM_VIS
100
AcDbLine
 10
157.9521662341778
 20
262.2833677968164
 30
0.0
 11
157.9813632619538
 21
262.1959120217327
 31
0.0
  0
LINE
  5
14CD
330
1F
100
AcDbEntity
  8
AM_VIS
100
AcDbLine
 10
157.8910258251356
 20
262.2143545415054
 30
0.0
 11
157.9521662341777
 21
262.2833677968163
 31
0.0
  0
LINE
  5
14CE
330
1F
100
AcDbEntity
  8
AM_VIS
100
AcDbLine
 10
159.0577037295508
 20
262.1491312416016
 30
0.0
 11
159.100551556385
 21
262.0674915284588
 31
0.0
  0
LINE
  5
14CF
330
1F
100
AcDbEntity
  8
AM_VIS
100
AcDbLine
 10
159.0084255774286
 20
262.0712040784949
 30
0.0
 11
159.0577037295508
 21
262.1491312416016
 31
0.0
  0
LINE
  5
14D0
330
1F
100
AcDbEntity
  8
AM_VIS
100
AcDbLine
 10
160.1704578624748
 20
262.1939737001903
 30
0.0
 11
160.2258467521591
 21
262.1202644746755
 31
0.0
  0
LINE
  5
14D1
330
1F
100
AcDbEntity
  8
AM_VIS
100
AcDbLine
 10
160.1343182455278
 20
262.1091509018789
 30
0.0
 11
160.1704578624748
 21
262.1939737001903
 31
0.0
  0
LINE
  5
14D2
330
1F
100
AcDbEntity
  8
AM_VIS
100
AcDbLine
 10
161.2616088854098
 20
262.4167337764598
 30
0.0
 11
161.3281042947957
 21
262.352864068796
 31
0.0
  0
LINE
  5
14D3
330
1F
100
AcDbEntity
  8
AM_VIS
100
AcDbLine
 10
161.2395438007337
 20
262.3272122088646
 30
0.0
 11
161.2616088854098
 21
262.4167337764598
 31
0.0
  0
LINE
  5
14D4
330
1F
100
AcDbEntity
  8
AM_VIS
100
AcDbLine
 10
162.3028965600171
 20
262.8116421014449
 30
0.0
 11
162.37877629293
 21
262.7592661035117
 31
0.0
  0
LINE
  5
14D5
330
1F
100
AcDbEntity
  8
AM_VIS
100
AcDbLine
 10
162.2954774817148
 20
262.7197403261434
 30
0.0
 11
162.3028965600171
 21
262.8116421014449
 31
0.0
  0
LINE
  5
14D6
330
1F
100
AcDbEntity
  8
AM_VIS
100
AcDbLine
 10
163.2673520824876
 20
263.3684707569648
 30
0.0
 11
163.3506508937029
 21
263.3289449795964
 31
0.0
  0
LINE
  5
14D7
330
1F
100
AcDbEntity
  8
AM_VIS
100
AcDbLine
 10
163.2673520824876
 20
263.3684707569648
 30
0.0
 11
163.2747711607899
 21
263.2765689816632
 31
0.0
  0
LINE
  5
14D8
330
1F
100
AcDbEntity
  8
AM_VIS
100
AcDbLine
 10
164.1299965613944
 20
264.0727981733296
 30
0.0
 11
164.2185570554564
 21
264.0471463133983
 31
0.0
  0
LINE
  5
14D9
330
1F
100
AcDbEntity
  8
AM_VIS
100
AcDbLine
 10
164.1299965613944
 20
264.0727981733296
 30
0.0
 11
164.1520616460705
 21
263.9832766057345
 31
0.0
  0
LINE
  5
14DA
330
1F
100
AcDbEntity
  8
AM_VIS
100
AcDbLine
 10
164.8684879578602
 20
264.906382640422
 30
0.0
 11
164.9600164644914
 21
264.8952690676255
 31
0.0
  0
LINE
  5
14DB
330
1F
100
AcDbEntity
  8
AM_VIS
100
AcDbLine
 10
164.8684879578602
 20
264.906382640422
 30
0.0
 11
164.9046275748072
 21
264.8215598421107
 31
0.0
  0
LINE
  5
14DC
330
1F
100
AcDbEntity
  8
AM_VIS
100
AcDbLine
 10
165.4636997326282
 20
265.847634758406
 30
0.0
 11
165.5558257115846
 21
265.851347308442
 31
0.0
  0
LINE
  5
14DD
330
1F
100
AcDbEntity
  8
AM_VIS
100
AcDbLine
 10
165.4636997326282
 20
265.8476347584059
 30
0.0
 11
165.5129778847505
 21
265.7697075952992
 31
0.0
  0
LINE
  5
14DE
330
1F
100
AcDbEntity
  8
AM_VIS
100
AcDbLine
 10
165.9002162133822
 20
266.8721765918427
 30
0.0
 11
165.9905536502004
 21
266.8906191116155
 31
0.0
  0
LINE
  5
14DF
330
1F
100
AcDbEntity
  8
AM_VIS
100
AcDbLine
 10
165.9002162133822
 20
266.8721765918427
 30
0.0
 11
165.9613566224244
 21
266.8031633365318
 31
0.0
  0
LINE
  5
14E0
330
1F
100
AcDbEntity
  8
AM_VIS
100
AcDbLine
 10
166.1667318525623
 20
267.9534730454132
 30
0.0
 11
166.2529410550808
 21
267.9861678833481
 31
0.0
  0
LINE
  5
14E1
330
1F
100
AcDbEntity
  8
AM_VIS
100
AcDbLine
 10
166.1667318525623
 20
267.9534730454132
 30
0.0
 11
166.2381510140458
 21
267.8951611049596
 31
0.0
  0
CIRCLE
  5
14E2
330
1F
100
AcDbEntity
  8
AM_VIS
100
AcDbCircle
 10
159.336344035108
 20
269.0635191089489
 30
0.0
 40
6.5
  0
ARC
  5
14E3
330
1F
100
AcDbEntity
  8
AM_VIS
100
AcDbCircle
 10
159.336344035108
 20
269.0635191089489
 30
0.0
 40
7.0
100
AcDbArc
 50
351.1465702161239
 51
359.6226605531055
  0
ARC
  5
14E4
330
1F
100
AcDbEntity
  8
AM_VIS
100
AcDbCircle
 10
159.336344035108
 20
269.0635191089489
 30
0.0
 40
7.0
100
AcDbArc
 50
341.9158009853549
 51
350.3918913223369
  0
ARC
  5
14E5
330
1F
100
AcDbEntity
  8
AM_VIS
100
AcDbCircle
 10
159.336344035108
 20
269.0635191089489
 30
0.0
 40
7.0
100
AcDbArc
 50
332.6850317545845
 51
341.1611220915677
  0
ARC
  5
14E6
330
1F
100
AcDbEntity
  8
AM_VIS
100
AcDbCircle
 10
159.336344035108
 20
269.0635191089489
 30
0.0
 40
7.0
100
AcDbArc
 50
323.4542625238166
 51
331.9303528607989
  0
ARC
  5
14E7
330
1F
100
AcDbEntity
  8
AM_VIS
100
AcDbCircle
 10
159.336344035108
 20
269.0635191089489
 30
0.0
 40
7.0
100
AcDbArc
 50
314.2234932930479
 51
322.6995836300289
  0
ARC
  5
14E8
330
1F
100
AcDbEntity
  8
AM_VIS
100
AcDbCircle
 10
159.336344035108
 20
269.0635191089489
 30
0.0
 40
7.0
100
AcDbArc
 50
304.9927240622782
 51
313.4688143992598
  0
ARC
  5
14E9
330
1F
100
AcDbEntity
  8
AM_VIS
100
AcDbCircle
 10
159.336344035108
 20
269.0635191089489
 30
0.0
 40
7.0
100
AcDbArc
 50
295.7619548315086
 51
304.2380451684907
  0
ARC
  5
14EA
330
1F
100
AcDbEntity
  8
AM_VIS
100
AcDbCircle
 10
159.336344035108
 20
269.0635191089489
 30
0.0
 40
7.0
100
AcDbArc
 50
286.5311856007402
 51
295.0072759377221
  0
ARC
  5
14EB
330
1F
100
AcDbEntity
  8
AM_VIS
100
AcDbCircle
 10
159.336344035108
 20
269.0635191089489
 30
0.0
 40
7.0
100
AcDbArc
 50
277.3004163699705
 51
285.776506706953
  0
ARC
  5
14EC
330
1F
100
AcDbEntity
  8
AM_VIS
100
AcDbCircle
 10
159.336344035108
 20
269.0635191089489
 30
0.0
 40
7.0
100
AcDbArc
 50
268.0696471392022
 51
276.5457374761826
  0
ARC
  5
14ED
330
1F
100
AcDbEntity
  8
AM_VIS
100
AcDbCircle
 10
159.336344035108
 20
269.0635191089489
 30
0.0
 40
7.0
100
AcDbArc
 50
258.8388779084325
 51
267.3149682454138
  0
ARC
  5
14EE
330
1F
100
AcDbEntity
  8
AM_VIS
100
AcDbCircle
 10
159.336344035108
 20
269.0635191089489
 30
0.0
 40
7.0
100
AcDbArc
 50
249.6081086776628
 51
258.0841990146447
  0
ARC
  5
14EF
330
1F
100
AcDbEntity
  8
AM_VIS
100
AcDbCircle
 10
159.336344035108
 20
269.0635191089489
 30
0.0
 40
7.0
100
AcDbArc
 50
240.377339446893
 51
248.8534297838754
  0
ARC
  5
14F0
330
1F
100
AcDbEntity
  8
AM_VIS
100
AcDbCircle
 10
159.336344035108
 20
269.0635191089489
 30
0.0
 40
7.0
100
AcDbArc
 50
231.1465702161228
 51
239.6226605531076
  0
ARC
  5
14F1
330
1F
100
AcDbEntity
  8
AM_VIS
100
AcDbCircle
 10
159.336344035108
 20
269.0635191089489
 30
0.0
 40
7.0
100
AcDbArc
 50
221.9158009853539
 51
230.3918913223382
  0
ARC
  5
14F2
330
1F
100
AcDbEntity
  8
AM_VIS
100
AcDbCircle
 10
159.336344035108
 20
269.0635191089489
 30
0.0
 40
7.0
100
AcDbArc
 50
212.6850317545854
 51
221.1611220915683
  0
ARC
  5
14F3
330
1F
100
AcDbEntity
  8
AM_VIS
100
AcDbCircle
 10
159.336344035108
 20
269.0635191089489
 30
0.0
 40
7.0
100
AcDbArc
 50
203.4542625238161
 51
211.9303528607986
  0
ARC
  5
14F4
330
1F
100
AcDbEntity
  8
AM_VIS
100
AcDbCircle
 10
159.336344035108
 20
269.0635191089489
 30
0.0
 40
7.0
100
AcDbArc
 50
194.2234932930472
 51
202.6995836300303
  0
ARC
  5
14F5
330
1F
100
AcDbEntity
  8
AM_VIS
100
AcDbCircle
 10
159.336344035108
 20
269.0635191089489
 30
0.0
 40
7.0
100
AcDbArc
 50
184.992724062279
 51
193.4688143992597
  0
ARC
  5
14F6
330
1F
100
AcDbEntity
  8
AM_VIS
100
AcDbCircle
 10
159.336344035108
 20
269.0635191089489
 30
0.0
 40
7.0
100
AcDbArc
 50
175.761954831509
 51
184.2380451684909
  0
ARC
  5
14F7
330
1F
100
AcDbEntity
  8
AM_VIS
100
AcDbCircle
 10
159.336344035108
 20
269.0635191089489
 30
0.0
 40
7.0
100
AcDbArc
 50
166.5311856007402
 51
175.0072759377209
  0
ARC
  5
14F8
330
1F
100
AcDbEntity
  8
AM_VIS
100
AcDbCircle
 10
159.336344035108
 20
269.0635191089489
 30
0.0
 40
7.0
100
AcDbArc
 50
157.3004163699696
 51
165.7765067069528
  0
ARC
  5
14F9
330
1F
100
AcDbEntity
  8
AM_VIS
100
AcDbCircle
 10
159.336344035108
 20
269.0635191089489
 30
0.0
 40
7.0
100
AcDbArc
 50
148.0696471392014
 51
156.5457374761839
  0
ARC
  5
14FA
330
1F
100
AcDbEntity
  8
AM_VIS
100
AcDbCircle
 10
159.336344035108
 20
269.0635191089489
 30
0.0
 40
7.0
100
AcDbArc
 50
138.8388779084317
 51
147.3149682454145
  0
ARC
  5
14FB
330
1F
100
AcDbEntity
  8
AM_VIS
100
AcDbCircle
 10
159.336344035108
 20
269.0635191089489
 30
0.0
 40
7.0
100
AcDbArc
 50
129.6081086776618
 51
138.084199014646
  0
ARC
  5
14FC
330
1F
100
AcDbEntity
  8
AM_VIS
100
AcDbCircle
 10
159.336344035108
 20
269.0635191089489
 30
0.0
 40
7.0
100
AcDbArc
 50
120.3773394468924
 51
128.8534297838758
  0
ARC
  5
14FD
330
1F
100
AcDbEntity
  8
AM_VIS
100
AcDbCircle
 10
159.336344035108
 20
269.0635191089489
 30
0.0
 40
7.0
100
AcDbArc
 50
111.1465702161246
 51
119.622660553107
  0
ARC
  5
14FE
330
1F
100
AcDbEntity
  8
AM_VIS
100
AcDbCircle
 10
159.336344035108
 20
269.0635191089489
 30
0.0
 40
7.0
100
AcDbArc
 50
101.9158009853552
 51
110.3918913223372
  0
ARC
  5
14FF
330
1F
100
AcDbEntity
  8
AM_VIS
100
AcDbCircle
 10
159.336344035108
 20
269.0635191089489
 30
0.0
 40
7.0
100
AcDbArc
 50
92.68503175458617
 51
101.1611220915675
  0
ARC
  5
1500
330
1F
100
AcDbEntity
  8
AM_VIS
100
AcDbCircle
 10
159.336344035108
 20
269.0635191089489
 30
0.0
 40
7.0
100
AcDbArc
 50
83.45426252381576
 51
91.93035286079785
  0
ARC
  5
1501
330
1F
100
AcDbEntity
  8
AM_VIS
100
AcDbCircle
 10
159.336344035108
 20
269.0635191089489
 30
0.0
 40
7.0
100
AcDbArc
 50
74.22349329304705
 51
82.69958363002949
  0
ARC
  5
1502
330
1F
100
AcDbEntity
  8
AM_VIS
100
AcDbCircle
 10
159.336344035108
 20
269.0635191089489
 30
0.0
 40
7.0
100
AcDbArc
 50
64.992724062278
 51
73.46881439925979
  0
ARC
  5
1503
330
1F
100
AcDbEntity
  8
AM_VIS
100
AcDbCircle
 10
159.336344035108
 20
269.0635191089489
 30
0.0
 40
7.0
100
AcDbArc
 50
55.76195483150929
 51
64.23804516849132
  0
ARC
  5
1504
330
1F
100
AcDbEntity
  8
AM_VIS
100
AcDbCircle
 10
159.336344035108
 20
269.0635191089489
 30
0.0
 40
7.0
100
AcDbArc
 50
46.53118560074022
 51
55.00727593772175
  0
ARC
  5
1505
330
1F
100
AcDbEntity
  8
AM_VIS
100
AcDbCircle
 10
159.336344035108
 20
269.0635191089489
 30
0.0
 40
7.0
100
AcDbArc
 50
37.30041636997112
 51
45.77650670695211
  0
ARC
  5
1506
330
1F
100
AcDbEntity
  8
AM_VIS
100
AcDbCircle
 10
159.336344035108
 20
269.0635191089489
 30
0.0
 40
7.0
100
AcDbArc
 50
28.06964713920108
 51
36.54573747618338
  0
ARC
  5
1507
330
1F
100
AcDbEntity
  8
AM_VIS
100
AcDbCircle
 10
159.336344035108
 20
269.0635191089489
 30
0.0
 40
7.0
100
AcDbArc
 50
18.83887790843234
 51
27.31496824541407
  0
ARC
  5
1508
330
1F
100
AcDbEntity
  8
AM_VIS
100
AcDbCircle
 10
159.336344035108
 20
269.0635191089489
 30
0.0
 40
7.0
100
AcDbArc
 50
9.608108677663123
 51
18.08419901464463
  0
ARC
  5
1509
330
1F
100
AcDbEntity
  8
AM_VIS
100
AcDbCircle
 10
159.336344035108
 20
269.0635191089489
 30
0.0
 40
7.0
100
AcDbArc
 50
0.377339446894513
 51
8.853429783876128
  0
LINE
  5
150A
330
1F
100
AcDbEntity
  8
AM_VIS
100
AcDbLine
 10
169.336344035108
 20
260.3135191089488
 30
0.0
 11
169.336344035108
 21
257.8135191089488
 31
0.0
  0
LINE
  5
150B
330
1F
100
AcDbEntity
  8
AM_VIS
100
AcDbLine
 10
169.336344035108
 20
283.5635191089488
 30
0.0
 11
169.336344035108
 21
260.3135191089488
 31
0.0
  0
LINE
  5
150C
330
1F
100
AcDbEntity
  8
AM_VIS
100
AcDbLine
 10
169.336344035108
 20
254.0635191089488
 30
0.0
 11
169.336344035108
 21
257.8135191089488
 31
0.0
  0
LINE
  5
150D
330
1F
100
AcDbEntity
  8
AM_VIS
100
AcDbLine
 10
149.836344035108
 20
253.5635191089488
 30
0.0
 11
168.836344035108
 21
253.5635191089488
 31
0.0
  0
LINE
  5
150E
330
1F
100
AcDbEntity
  8
AM_VIS
100
AcDbLine
 10
149.336344035108
 20
282.3135191089488
 30
0.0
 11
149.336344035108
 21
279.8135191089488
 31
0.0
  0
LINE
  5
150F
330
1F
100
AcDbEntity
  8
AM_VIS
100
AcDbLine
 10
149.336344035108
 20
254.0635191089488
 30
0.0
 11
149.336344035108
 21
279.8135191089488
 31
0.0
  0
LINE
  5
1510
330
1F
100
AcDbEntity
  8
AM_VIS
100
AcDbLine
 10
149.336344035108
 20
282.3135191089488
 30
0.0
 11
149.336344035108
 21
283.5635191089488
 31
0.0
  0
LINE
  5
1511
330
1F
100
AcDbEntity
  8
AM_VIS
100
AcDbLine
 10
153.586344035108
 20
284.0635191089488
 30
0.0
 11
168.836344035108
 21
284.0635191089488
 31
0.0
  0
LINE
  5
1512
330
1F
100
AcDbEntity
  8
AM_VIS
100
AcDbLine
 10
151.086344035108
 20
284.0635191089488
 30
0.0
 11
153.586344035108
 21
284.0635191089488
 31
0.0
  0
LINE
  5
1513
330
1F
100
AcDbEntity
  8
AM_VIS
100
AcDbLine
 10
149.836344035108
 20
284.0635191089488
 30
0.0
 11
151.086344035108
 21
284.0635191089488
 31
0.0
  0
CIRCLE
  5
1516
330
1F
100
AcDbEntity
  8
AM_VIS
100
AcDbCircle
 10
152.336344035108
 20
259.0635191089488
 30
0.0
 40
1.55
  0
CIRCLE
  5
1517
330
1F
100
AcDbEntity
  8
AM_VIS
100
AcDbCircle
 10
152.336344035108
 20
259.0635191089488
 30
0.0
 40
2.049999999999999
  0
ARC
  5
1518
330
1F
100
AcDbEntity
  8
AM_VIS
100
AcDbCircle
 10
166.336344035108
 20
259.0635191089488
 30
0.0
 40
3.25
100
AcDbArc
 50
133.0331895265269
 51
337.3801350519597
  0
ARC
  5
1519
330
1F
100
AcDbEntity
  8
AM_VIS
100
AcDbCircle
 10
166.336344035108
 20
259.0635191089488
 30
0.0
 40
3.25
100
AcDbArc
 50
129.5449172800157
 51
130.6583028839007
  0
ARC
  5
151A
330
1F
100
AcDbEntity
  8
AM_VIS
100
AcDbCircle
 10
166.336344035108
 20
259.0635191089488
 30
0.0
 40
3.25
100
AcDbArc
 50
22.6198649480403
 51
116.9508508705915
  0
ARC
  5
151B
330
1F
100
AcDbEntity
  8
AM_VIS
100
AcDbCircle
 10
149.836344035108
 20
254.0635191089488
 30
0.0
 40
0.5
100
AcDbArc
 50
180.0
 51
270.0
  0
ARC
  5
151C
330
1F
100
AcDbEntity
  8
AM_VIS
100
AcDbCircle
 10
152.336344035108
 20
281.0635191089488
 30
0.0
 40
3.25
100
AcDbArc
 50
202.6198649480403
 51
67.38013505195969
  0
ARC
  5
151D
330
1F
100
AcDbEntity
  8
AM_VIS
100
AcDbCircle
 10
168.836344035108
 20
254.0635191089488
 30
0.0
 40
0.5
100
AcDbArc
 50
270.0
 51
0.0
  0
ARC
  5
151E
330
1F
100
AcDbEntity
  8
AM_VIS
100
AcDbCircle
 10
152.336344035108
 20
281.0635191089488
 30
0.0
 40
3.25
100
AcDbArc
 50
112.6198649480403
 51
157.3801350519597
  0
ARC
  5
151F
330
1F
100
AcDbEntity
  8
AM_VIS
100
AcDbCircle
 10
149.836344035108
 20
283.5635191089488
 30
0.0
 40
0.5
100
AcDbArc
 50
90.0
 51
180.0
  0
ARC
  5
1520
330
1F
100
AcDbEntity
  8
AM_VIS
100
AcDbCircle
 10
168.836344035108
 20
283.5635191089488
 30
0.0
 40
0.5
100
AcDbArc
 50
0.0
 51
90.0
  0
LINE
  5
1522
330
1F
100
AcDbEntity
  8
AM_VIS
100
AcDbLine
 10
169.336344035108
 20
284.0635191089488
 30
0.0
 11
169.336344035108
 21
286.0635191089488
 31
0.0
  0
LINE
  5
1523
330
1F
100
AcDbEntity
  8
AM_VIS
100
AcDbLine
 10
169.336344035108
 20
286.0635191089488
 30
0.0
 11
169.336344035108
 21
289.5635191089488
 31
0.0
  0
LINE
  5
1524
330
1F
100
AcDbEntity
  8
AM_VIS
100
AcDbLine
 10
169.336344035108
 20
254.0635191089488
 30
0.0
 11
169.336344035108
 21
253.5635191089488
 31
0.0
  0
LINE
  5
1525
330
1F
100
AcDbEntity
  8
AM_VIS
100
AcDbLine
 10
149.336344035108
 20
284.0635191089488
 30
0.0
 11
149.336344035108
 21
286.0635191089488
 31
0.0
  0
LINE
  5
1526
330
1F
100
AcDbEntity
  8
AM_VIS
100
AcDbLine
 10
149.336344035108
 20
253.5635191089488
 30
0.0
 11
149.336344035108
 21
254.0635191089488
 31
0.0
  0
LINE
  5
1527
330
1F
100
AcDbEntity
  8
AM_VIS
100
AcDbLine
 10
167.2741772746421
 20
289.345935447318
 30
0.0
 11
166.398510795574
 21
286.2811027705796
 31
0.0
  0
LINE
  5
1528
330
1F
100
AcDbEntity
  8
AM_VIS
100
AcDbLine
 10
169.336344035108
 20
289.5635191089488
 30
0.0
 11
167.5626344589343
 21
289.5635191089488
 31
0.0
  0
LINE
  5
1529
330
1F
100
AcDbEntity
  8
AM_VIS
100
AcDbLine
 10
152.2741772746421
 20
286.2811027705796
 30
0.0
 11
151.398510795574
 21
289.345935447318
 31
0.0
  0
LINE
  5
152A
330
1F
100
AcDbEntity
  8
AM_VIS
100
AcDbLine
 10
149.336344035108
 20
289.5635191089488
 30
0.0
 11
149.336344035108
 21
286.0635191089488
 31
0.0
  0
LINE
  5
152B
330
1F
100
AcDbEntity
  8
AM_VIS
100
AcDbLine
 10
151.1100536112817
 20
289.5635191089488
 30
0.0
 11
149.336344035108
 21
289.5635191089488
 31
0.0
  0
LINE
  5
152C
330
1F
100
AcDbEntity
  8
AM_VIS
100
AcDbLine
 10
149.336344035108
 20
283.5635191089488
 30
0.0
 11
149.336344035108
 21
284.0635191089488
 31
0.0
  0
LINE
  5
152D
330
1F
100
AcDbEntity
  8
AM_VIS
100
AcDbLine
 10
149.3363440351081
 20
284.0635191089488
 30
0.0
 11
149.836344035108
 21
284.0635191089488
 31
0.0
  0
LINE
  5
152E
330
1F
100
AcDbEntity
  8
AM_VIS
100
AcDbLine
 10
168.836344035108
 20
284.0635191089488
 30
0.0
 11
169.336344035108
 21
284.0635191089488
 31
0.0
  0
LINE
  5
152F
330
1F
100
AcDbEntity
  8
AM_VIS
100
AcDbLine
 10
169.336344035108
 20
284.0635191089488
 30
0.0
 11
169.336344035108
 21
283.5635191089488
 31
0.0
  0
LINE
  5
1531
330
1F
100
AcDbEntity
  8
AM_VIS
100
AcDbLine
 10
169.336344035108
 20
286.0635191089488
 30
0.0
 11
149.336344035108
 21
286.0635191089488
 31
0.0
  0
LINE
  5
1532
330
1F
100
AcDbEntity
  8
AM_VIS
100
AcDbLine
 10
149.336344035108
 20
253.5635191089488
 30
0.0
 11
149.836344035108
 21
253.5635191089488
 31
0.0
  0
LINE
  5
1533
330
1F
100
AcDbEntity
  8
AM_VIS
100
AcDbLine
 10
168.836344035108
 20
253.5635191089488
 30
0.0
 11
169.336344035108
 21
253.5635191089488
 31
0.0
  0
ARC
  5
1534
330
1F
100
AcDbEntity
  8
AM_VIS
100
AcDbCircle
 10
166.1100536112817
 20
286.3635191089488
 30
0.0
 40
0.3
100
AcDbArc
 50
270.0
 51
344.0546040990738
  0
ARC
  5
1535
330
1F
100
AcDbEntity
  8
AM_VIS
100
AcDbCircle
 10
167.5626344589343
 20
289.2635191089489
 30
0.0
 40
0.3
100
AcDbArc
 50
90.0
 51
164.0546040990737
  0
ARC
  5
1536
330
1F
100
AcDbEntity
  8
AM_VIS
100
AcDbCircle
 10
152.5626344589343
 20
286.3635191089488
 30
0.0
 40
0.3
100
AcDbArc
 50
195.9453959009262
 51
270.0
  0
ARC
  5
1537
330
1F
100
AcDbEntity
  8
AM_VIS
100
AcDbCircle
 10
151.1100536112817
 20
289.2635191089489
 30
0.0
 40
0.3
100
AcDbArc
 50
15.94539590092621
 51
90.0
  0
LINE
  5
1547
330
1F
100
AcDbEntity
  8
AM_7
100
AcDbLine
 10
159.3363440351081
 20
132.4447032817905
 30
0.0
 11
159.3363440351081
 21
230.6007142916993
 31
0.0
1001
GENIUS_GENOBJ-N-CEN_13
1002
{
1000
OWNER
1000
GEN
1002
}
1001
GENIUS_GENODEF_13
1002
{
1000
HIER
1070
     0
1002
}
1002
{
1000
MANEDIT
1070
     0
1002
}
1002
{
1000
NOSEL
1070
     0
1002
}
1002
{
1000
BEHIND
1070
     0
1002
}
1002
{
1000
OTHER
1070
     0
1002
}
1002
{
1000
REACTOR
1002
}
1001
GENIUS_GENCEN_19
1002
{
1040
2.0
1002
}
  0
LINE
  5
1556
330
1F
100
AcDbEntity
  8
AM_7
100
AcDbLine
 10
159.336344035108
 20
251.5635191089488
 30
0.0
 11
159.336344035108
 21
291.8053470607347
 31
0.0
1001
GENIUS_GENODEF_13
1002
{
1000
HIER
1070
     0
1002
}
1002
{
1000
MANEDIT
1070
     0
1002
}
1002
{
1000
NOSEL
1070
     0
1002
}
1002
{
1000
BEHIND
1070
     0
1002
}
1002
{
1000
OTHER
1070
     0
1002
}
1002
{
1000
REACTOR
1002
}
1001
GENIUS_GENOBJ-N-CEN_13
1002
{
1000
OWNER
1000
GEN
1002
}
1001
GENIUS_GENCEN_19
1002
{
1040
2.0
1002
}
  0
LINE
  5
1564
330
1F
100
AcDbEntity
  8
AM_7
100
AcDbLine
 10
159.336344035108
 20
269.0635191089489
 30
0.0
 11
171.7414209209364
 21
269.0635191089489
 31
0.0
1001
GENIUS_GENOREF_13
1005
1568
  0
LINE
  5
1565
330
1F
100
AcDbEntity
  8
AM_7
100
AcDbLine
 10
159.336344035108
 20
269.0635191089489
 30
0.0
 11
159.336344035108
 21
281.4685959947772
 31
0.0
1001
GENIUS_GENOREF_13
1005
1568
  0
LINE
  5
1566
330
1F
100
AcDbEntity
  8
AM_7
100
AcDbLine
 10
159.336344035108
 20
269.0635191089489
 30
0.0
 11
146.9312671492797
 21
269.0635191089489
 31
0.0
1001
GENIUS_GENOREF_13
1005
1568
  0
LINE
  5
1567
330
1F
100
AcDbEntity
  8
AM_7
100
AcDbLine
 10
159.336344035108
 20
269.0635191089489
 30
0.0
 11
159.336344035108
 21
256.6584422231205
 31
0.0
1001
GENIUS_GENOREF_13
1005
1568
  0
POINT
  5
1568
330
1F
100
AcDbEntity
  8
0
 60
     1
100
AcDbPoint
 10
0.0
 20
0.0
 30
0.0
1001
GENIUS_GENOENT_13
1002
{
1000
MYREF
1005
1568
1002
}
1002
{
1000
GRP
1005
0
1002
}
1001
GENIUS_GENODEF_13
1002
{
1000
HIER
1070
    10
1002
}
1002
{
1000
MANEDIT
1070
     0
1002
}
1002
{
1000
NOSEL
1070
     0
1002
}
1002
{
1000
BEHIND
1070
     0
1002
}
1002
{
1000
OTHER
1070
     0
1002
}
1002
{
1000
REACTOR
1002
}
1001
GENIUS_GENOBJ-N-CRS_13
1002
{
1000
OWNER
1000
GEN
1002
}
1001
GENIUS_GENOLIS_13
1002
{
1000
ENT
1005
1567
1005
1566
1005
1565
1005
1564
1002
}
  0
LINE
  5
1575
330
1F
100
AcDbEntity
  8
AM_7
100
AcDbLine
 10
226.2620750325692
 20
133.0136283899217
 30
0.0
 11
226.2620750325692
 21
231.7741784015438
 31
0.0
1001
GENIUS_GENODEF_13
1002
{
1000
HIER
1070
     0
1002
}
1002
{
1000
MANEDIT
1070
     0
1002
}
1002
{
1000
NOSEL
1070
     0
1002
}
1002
{
1000
BEHIND
1070
     0
1002
}
1002
{
1000
OTHER
1070
     0
1002
}
1002
{
1000
REACTOR
1002
}
1001
GENIUS_GENOBJ-N-CEN_13
1002
{
1000
OWNER
1000
GEN
1002
}
1001
GENIUS_GENCEN_19
1002
{
1040
2.0
1002
}
  0
DIMENSION
  5
1586
102
{ACAD_XDICTIONARY
360
1593
102
}
102
{ACAD_REACTORS
330
1594
102
}
330
1F
100
AcDbEntity
  8
AM_5
100
AcDbDimension
  2
*D3
 10
169.3363440351081
 20
123.0136273899217
 30
0.0
 11
159.3363440351081
 21
125.5136273899217
 31
0.0
 70
    32
 71
     5
 42
20.0
  3
AM_ISO$0
100
AcDbAlignedDimension
 13
149.3363440351081
 23
143.5136283899217
 33
0.0
 14
169.3363440351081
 24
143.5136283899217
 34
0.0
 50
0.0000000000001018
100
AcDbRotatedDimension
1001
ACAD
1000
DSTYLE
1002
{
1070
    40
1040
1.0
1070
   144
1040
1.0
1070
   272
1070
     8
1002
}
  0
DIMENSION
  5
15AC
102
{ACAD_XDICTIONARY
360
15B9
102
}
102
{ACAD_REACTORS
330
15BA
102
}
330
1F
100
AcDbEntity
  8
AM_5
100
AcDbDimension
  2
*D4
 10
241.2620750325692
 20
123.0136273899217
 30
0.0
 11
226.0120750325692
 21
125.5136273899217
 31
0.0
 70
    32
 71
     5
 42
30.49999999999997
  3
AM_ISO$0
100
AcDbAlignedDimension
 13
210.7620750325692
 23
143.5136283899217
 33
0.0
 14
241.2620750325692
 24
143.5136283899217
 34
0.0
 50
0.0000000000001018
100
AcDbRotatedDimension
1001
ACAD
1000
DSTYLE
1002
{
1070
    40
1040
1.0
1070
   144
1040
1.0
1070
   272
1070
     8
1002
}
  0
DIMENSION
  5
15E6
102
{ACAD_XDICTIONARY
360
15F3
102
}
102
{ACAD_REACTORS
330
15F4
102
}
330
1F
100
AcDbEntity
  8
AM_5
100
AcDbDimension
  2
*D5
 10
186.9469688289406
 20
228.0136283899217
 30
0.0
 11
184.4469688289406
 21
181.5136283899217
 31
0.0
 70
    32
 71
     5
 42
93.0
  3
AM_ISO$0
100
AcDbAlignedDimension
 13
163.3863440351081
 23
135.0136283899217
 33
0.0
 14
165.836344035108
 24
228.0136283899217
 34
0.0
 50
90.0
100
AcDbRotatedDimension
1001
ACAD
1000
DSTYLE
1002
{
1070
    40
1040
1.0
1070
   144
1040
1.0
1070
   272
1070
     8
1002
}
  0
INSERT
  5
1601
330
1F
100
AcDbEntity
  8
AM_5
100
AcDbBlockReference
  2
*S9
 10
0.0
 20
0.0
 30
0.0
  0
CIRCLE
  5
1678
330
1F
100
AcDbEntity
  8
AM_0N
100
AcDbCircle
 10
152.336344035108
 20
281.0635191089488
 30
0.0
 40
2.77
  0
LINE
  5
1679
330
1F
100
AcDbEntity
  8
AM_0N
100
AcDbLine
 10
153.336603376479
 20
281.6410191089488
 30
0.0
 11
152.336344035108
 21
282.2185191089488
 31
0.0
  0
LINE
  5
167A
330
1F
100
AcDbEntity
  8
AM_0N
100
AcDbLine
 10
152.336344035108
 20
282.2185191089488
 30
0.0
 11
151.336084693737
 21
281.6410191089488
 31
0.0
  0
LINE
  5
167B
330
1F
100
AcDbEntity
  8
AM_0N
100
AcDbLine
 10
151.336084693737
 20
281.6410191089488
 30
0.0
 11
151.336084693737
 21
280.4860191089488
 31
0.0
  0
LINE
  5
167C
330
1F
100
AcDbEntity
  8
AM_0N
100
AcDbLine
 10
151.336084693737
 20
280.4860191089488
 30
0.0
 11
152.336344035108
 21
279.9085191089488
 31
0.0
  0
LINE
  5
167D
330
1F
100
AcDbEntity
  8
AM_0N
100
AcDbLine
 10
152.336344035108
 20
279.9085191089488
 30
0.0
 11
153.336603376479
 21
280.4860191089486
 31
0.0
  0
LINE
  5
167E
330
1F
100
AcDbEntity
  8
AM_0N
100
AcDbLine
 10
153.336603376479
 20
280.4860191089486
 30
0.0
 11
153.336603376479
 21
281.6410191089488
 31
0.0
  0
CIRCLE
  5
167F
330
1F
100
AcDbEntity
  8
AM_0N
100
AcDbCircle
 10
152.336344035108
 20
281.0635191089488
 30
0.0
 40
1.155
  0
CIRCLE
  5
1680
330
1F
100
AcDbEntity
  8
AM_0N
100
AcDbCircle
 10
166.336344035108
 20
259.0635191089488
 30
0.0
 40
2.77
  0
LINE
  5
1681
330
1F
100
AcDbEntity
  8
AM_0N
100
AcDbLine
 10
167.336603376479
 20
259.6410191089488
 30
0.0
 11
166.336344035108
 21
260.2185191089488
 31
0.0
  0
LINE
  5
1682
330
1F
100
AcDbEntity
  8
AM_0N
100
AcDbLine
 10
166.336344035108
 20
260.2185191089488
 30
0.0
 11
165.336084693737
 21
259.6410191089488
 31
0.0
  0
LINE
  5
1683
330
1F
100
AcDbEntity
  8
AM_0N
100
AcDbLine
 10
165.336084693737
 20
259.6410191089488
 30
0.0
 11
165.336084693737
 21
258.4860191089488
 31
0.0
  0
LINE
  5
1684
330
1F
100
AcDbEntity
  8
AM_0N
100
AcDbLine
 10
165.336084693737
 20
258.4860191089488
 30
0.0
 11
166.336344035108
 21
257.9085191089488
 31
0.0
  0
LINE
  5
1685
330
1F
100
AcDbEntity
  8
AM_0N
100
AcDbLine
 10
166.336344035108
 20
257.9085191089488
 30
0.0
 11
167.336603376479
 21
258.4860191089486
 31
0.0
  0
LINE
  5
1686
330
1F
100
AcDbEntity
  8
AM_0N
100
AcDbLine
 10
167.336603376479
 20
258.4860191089486
 30
0.0
 11
167.336603376479
 21
259.6410191089488
 31
0.0
  0
CIRCLE
  5
1687
330
1F
100
AcDbEntity
  8
AM_0N
100
AcDbCircle
 10
166.336344035108
 20
259.0635191089488
 30
0.0
 40
1.155
  0
LINE
  5
168C
330
1F
100
AcDbEntity
  8
0
100
AcDbLine
 10
163.836344035108
 20
199.313628389922
 30
0.0
 11
161.3363440351079
 21
199.313628389922
 31
0.0
  0
LINE
  5
168D
330
1F
100
AcDbEntity
  8
0
100
AcDbLine
 10
154.8363440351082
 20
197.3136283899219
 30
0.0
 11
157.3363440351082
 21
197.313628389922
 31
0.0
  0
LINE
  5
168E
330
1F
100
AcDbEntity
  8
0
100
AcDbLine
 10
163.836344035108
 20
195.3136283899219
 30
0.0
 11
161.3363440351079
 21
195.313628389922
 31
0.0
  0
LINE
  5
168F
330
1F
100
AcDbEntity
  8
0
100
AcDbLine
 10
154.8363440351082
 20
193.313628389922
 30
0.0
 11
157.3363440351082
 21
193.313628389922
 31
0.0
  0
LINE
  5
1690
330
1F
100
AcDbEntity
  8
0
100
AcDbLine
 10
163.836344035108
 20
191.313628389922
 30
0.0
 11
161.3363440351079
 21
191.313628389922
 31
0.0
  0
LINE
  5
1691
330
1F
100
AcDbEntity
  8
0
100
AcDbLine
 10
154.8363440351082
 20
189.313628389922
 30
0.0
 11
157.3363440351082
 21
189.313628389922
 31
0.0
  0
LINE
  5
1692
330
1F
100
AcDbEntity
  8
0
100
AcDbLine
 10
163.836344035108
 20
187.313628389922
 30
0.0
 11
161.3363440351079
 21
187.313628389922
 31
0.0
  0
LINE
  5
1693
330
1F
100
AcDbEntity
  8
0
100
AcDbLine
 10
154.8363440351082
 20
185.3136283899219
 30
0.0
 11
157.3363440351082
 21
185.313628389922
 31
0.0
  0
TEXT
  5
16A4
330
1F
100
AcDbEntity
  8
AM_VIS
100
AcDbText
 10
165.0873593329578
 20
198.536684558507
 30
0.0
 40
2.0
  1
1
  7
Arial
100
AcDbText
  0
TEXT
  5
16A5
330
1F
100
AcDbEntity
  8
AM_VIS
100
AcDbText
 10
165.0873593329575
 20
194.536684558507
 30
0.0
 40
2.0
  1
3
  7
Arial
100
AcDbText
  0
TEXT
  5
16A6
330
1F
100
AcDbEntity
  8
AM_VIS
100
AcDbText
 10
165.0873593329577
 20
190.536684558507
 30
0.0
 40
2.0
  1
5
  7
Arial
100
AcDbText
  0
TEXT
  5
16A7
330
1F
100
AcDbEntity
  8
AM_VIS
100
AcDbText
 10
165.0873593329576
 20
186.536684558507
 30
0.0
 40
2.0
  1
7
  7
Arial
100
AcDbText
  0
TEXT
  5
16A8
330
1F
100
AcDbEntity
  8
AM_VIS
100
AcDbText
 10
152.1776371605646
 20
196.5900921722959
 30
0.0
 40
2.0
  1
2
  7
Arial
100
AcDbText
  0
TEXT
  5
16A9
330
1F
100
AcDbEntity
  8
AM_VIS
100
AcDbText
 10
152.1776371605642
 20
192.5900921722959
 30
0.0
 40
2.0
  1
4
  7
Arial
100
AcDbText
  0
TEXT
  5
16AA
330
1F
100
AcDbEntity
  8
AM_VIS
100
AcDbText
 10
152.1776371605638
 20
188.5900921722959
 30
0.0
 40
2.0
  1
6
  7
Arial
100
AcDbText
  0
LWPOLYLINE
  5
174D
330
1F
100
AcDbEntity
  8
LOGO
 62
     4
100
AcDbPolyline
 90
        4
 70
     1
 43
0.0
 10
105.5781890425875
 20
99.23094636617506
 10
287.8066131194677
 20
99.23094636617506
 10
287.8066131194677
 20
325.3704033596491
 10
105.5781890425875
 20
325.3704033596491
1001
GENIUS_GENREC_14
1002
{
1000
PYDIR
1011
105.5781890425875
1021
325.3704033596491
1031
0.0
1002
}
1002
{
1000
PXDIR
1011
287.8066131194677
1021
99.23094636617506
1031
0.0
1002
}
1002
{
1000
PORI
1011
105.5781890425875
1021
99.23094636617506
1031
0.0
1002
}
1002
{
1000
PINS
1011
105.5781890425875
1021
99.23094636617506
1031
0.0
1002
}
1002
{
1000
PINS2
1011
287.8066131194677
1021
325.3704033596491
1031
0.0
1002
}
1002
{
1000
C
1070
     1
1002
}
1001
GENIUS_GENODEF_13
1002
{
1000
HIER
1070
     0
1002
}
1002
{
1000
MANEDIT
1070
     0
1002
}
1002
{
1000
NOSEL
1070
     0
1002
}
1002
{
1000
BEHIND
1070
     0
1002
}
1002
{
1000
OTHER
1070
     0
1002
}
1002
{
1000
REACTOR
1002
}
1001
GENIUS_GENOBJ-N-REC_13
1002
{
1000
OWNER
1000
GEN
1002
}
  0
LWPOLYLINE
  5
174E
330
1F
100
AcDbEntity
  8
LOGO
 62
     4
100
AcDbPolyline
 90
        4
 70
     1
 43
0.0
 10
105.5781890425875
 20
99.23094636617506
 10
287.8066131194677
 20
99.23094636617506
 10
287.8066131194677
 20
79.23384229377652
 10
105.5781890425875
 20
79.23384229377652
1001
GENIUS_GENREC_14
1002
{
1000
PYDIR
1011
105.5781890425875
1021
79.23384229377652
1031
0.0
1002
}
1002
{
1000
PXDIR
1011
287.8066131194677
1021
99.23094636617506
1031
0.0
1002
}
1002
{
1000
PORI
1011
105.5781890425875
1021
99.23094636617506
1031
0.0
1002
}
1002
{
1000
PINS
1011
105.5781890425875
1021
99.23094636617506
1031
0.0
1002
}
1002
{
1000
PINS2
1011
287.8066131194677
1021
79.23384229377652
1031
0.0
1002
}
1002
{
1000
C
1070
     1
1002
}
1001
GENIUS_GENOBJ-N-REC_13
1002
{
1000
OWNER
1000
GEN
1002
}
1001
GENIUS_GENODEF_13
1002
{
1000
HIER
1070
     0
1002
}
1002
{
1000
MANEDIT
1070
     0
1002
}
1002
{
1000
NOSEL
1070
     0
1002
}
1002
{
1000
BEHIND
1070
     0
1002
}
1002
{
1000
OTHER
1070
     0
1002
}
1002
{
1000
REACTOR
1002
}
  0
TEXT
  5
174F
330
1F
100
AcDbEntity
  8
LOGO
 62
     7
100
AcDbText
 10
150.7303259412948
 20
90.47055535186004
 30
0.0
 40
2.666280542986425
  1
Order example:
 41
0.8
  7
CHINESET
100
AcDbText
  0
TEXT
  5
1750
330
1F
100
AcDbEntity
  8
LOGO
 62
     7
100
AcDbText
 10
151.2086787199497
 20
94.22412629595427
 30
0.0
 40
3.999420814479637
  1
訂購代號：
  7
CHINESET
100
AcDbText
  0
LINE
  5
1751
330
1F
100
AcDbEntity
  8
LOGO
 62
     4
100
AcDbLine
 10
149.5718180018635
 20
79.23384229377674
 30
0.0
 11
149.5718180018635
 21
99.23094636617506
 31
0.0
  0
TEXT
  5
1752
330
1F
100
AcDbEntity
  8
LOGO
  6
Continuous
100
AcDbText
 10
112.7612387141149
 20
83.16224321053809
 30
0.0
 40
2.999565610859728
  1
金器工業股份有限公司
  7
CHINESET
100
AcDbText
  0
TEXT
  5
1753
330
1F
100
AcDbEntity
  8
LOGO
  6
Continuous
100
AcDbText
 10
107.2516301217566
 20
80.16208991999368
 30
0.0
 40
1.999710407239818
  1
MINDMAN INDUSTRIAL CO., LTD.
 41
0.85
  7
CHINESET
100
AcDbText
  0
LINE
  5
1754
330
1F
100
AcDbEntity
  8
LOGO
 62
     4
100
AcDbLine
 10
149.5718180018635
 20
95.2315255516954
 30
0.0
 11
120.2427320290127
 21
95.2315255516954
 31
0.0
  0
LINE
  5
1755
330
1F
100
AcDbEntity
  8
LOGO
 62
     4
100
AcDbLine
 10
149.5718180018635
 20
91.23210473721574
 30
0.0
 11
120.2427320290127
 21
91.23210473721574
 31
0.0
  0
LINE
  5
1756
330
1F
100
AcDbEntity
  8
LOGO
 62
     4
100
AcDbLine
 10
149.5718180018635
 20
87.23268392273629
 30
0.0
 11
105.5781890425875
 21
87.23268392273629
 31
0.0
  0
LINE
  5
1757
330
1F
100
AcDbEntity
  8
LOGO
 62
     4
100
AcDbLine
 10
120.2427320290127
 20
87.23268392273629
 30
0.0
 11
120.2427320290127
 21
99.23094636617506
 31
0.0
  0
TEXT
  5
1758
330
1F
100
AcDbEntity
  8
LOGO
100
AcDbText
 10
140.287777979684
 20
88.23253912635587
 30
0.0
 40
1.999710407239818
  1
mm
  7
CHINESET
 72
     1
 11
142.7636099124571
 21
89.23239432997579
 31
0.0
100
AcDbText
 73
     2
  0
TEXT
  5
1759
330
1F
100
AcDbEntity
  8
LOGO
100
AcDbText
 10
139.2403106235107
 20
96.23138075531521
 30
0.0
 40
1.999710407239818
  1
1 : 1
  7
CHINESET
 72
     1
 11
142.7636099124571
 21
97.23123595893511
 31
0.0
100
AcDbText
 73
     2
  0
LINE
  5
175A
330
1F
100
AcDbEntity
  8
LOGO
 62
     4
100
AcDbLine
 10
136.2404152869313
 20
87.23268392273629
 30
0.0
 11
136.2404152869313
 21
99.23094636617506
 31
0.0
  0
CIRCLE
  5
175B
330
1F
100
AcDbEntity
  8
LOGO
  6
Continuous
100
AcDbCircle
 10
139.9431292257596
 20
93.23609253965022
 30
0.0
 40
1.161078930320631
  0
CIRCLE
  5
175C
330
1F
100
AcDbEntity
  8
LOGO
  6
Continuous
100
AcDbCircle
 10
139.9431292257596
 20
93.23609253965022
 30
0.0
 40
0.6802894686655972
  0
LINE
  5
175D
330
1F
100
AcDbEntity
  8
LOGO
100
AcDbLine
 10
147.2394839497962
 20
92.07501360932937
 30
0.0
 11
147.2394839497962
 21
94.39717146997109
 31
0.0
  0
LINE
  5
175E
330
1F
100
AcDbEntity
  8
LOGO
100
AcDbLine
 10
143.5995681523519
 20
92.55580307098474
 30
0.0
 11
143.5995681523519
 21
93.91638200831593
 31
0.0
  0
LINE
  5
175F
330
1F
100
AcDbEntity
  8
LOGO
  6
Continuous
100
AcDbLine
 10
143.5995681523519
 20
93.91638200831593
 30
0.0
 11
147.2394839497962
 21
94.39717146997109
 31
0.0
  0
LINE
  5
1760
330
1F
100
AcDbEntity
  8
LOGO
  6
Continuous
100
AcDbLine
 10
143.5995681523519
 20
92.55580307098474
 30
0.0
 11
147.2394839497962
 21
92.07501360932937
 31
0.0
  0
TEXT
  5
1761
330
1F
100
AcDbEntity
  8
LOGO
100
AcDbText
 10
121.8916003871252
 20
96.23236486476759
 30
131.0577257600498
 40
1.999710407239818
  1
比例 Scale:
 41
0.9
  7
CHINESET
 72
     4
 11
128.241573657972
 21
97.23123595893511
 31
131.0577257600498
100
AcDbText
  0
TEXT
  5
1762
330
1F
100
AcDbEntity
  8
LOGO
100
AcDbText
 10
121.7764384931368
 20
92.26008906934946
 30
131.0577257600498
 40
1.999710407239818
  1
投影  View:
 41
0.9
  7
CHINESET
 72
     4
 11
128.241573657972
 21
93.23181514445545
 31
131.0577257600498
100
AcDbText
  0
TEXT
  5
1763
330
1F
100
AcDbEntity
  8
LOGO
100
AcDbText
 10
121.9719458945589
 20
88.23253912635587
 30
131.0577257600498
 40
1.999710407239818
  1
單位  Unit:
 41
0.9
  7
CHINESET
 72
     4
 11
128.241573657972
 21
89.23239432997579
 31
131.0577257600498
100
AcDbText
  0
SOLID
  5
1764
330
1F
100
AcDbEntity
  8
LOGO
 62
     5
100
AcDbTrace
 10
107.6529206830097
 20
90.5569178384097
 30
0.0
 11
108.5175429906991
 21
90.55691783840947
 31
0.0
 12
112.1251050331272
 22
98.75592248029224
 32
0.0
 13
112.989727340817
 23
98.75592248029178
 33
0.0
  0
SOLID
  5
1765
330
1F
100
AcDbEntity
  8
LOGO
 62
     5
100
AcDbTrace
 10
108.8753177387094
 20
90.5569178384097
 30
0.0
 11
109.7399400463988
 21
90.5569178384097
 31
0.0
 12
112.989727340817
 22
98.10000210894131
 32
0.0
 13
112.1251050331272
 23
94.92972031408006
 33
0.0
  0
SOLID
  5
1766
330
1F
100
AcDbEntity
  8
LOGO
 62
     2
100
AcDbTrace
 10
108.5175429906991
 20
90.55691783840947
 30
0.0
 11
108.8753177387094
 21
90.5569178384097
 31
0.0
 12
112.989727340817
 22
98.75592248029178
 32
0.0
 13
113.3475020888269
 23
98.75592248029178
 33
0.0
  0
SOLID
  5
1767
330
1F
100
AcDbEntity
  8
LOGO
 62
     5
100
AcDbTrace
 10
106.2667190924213
 20
87.57546160499813
 30
0.0
 11
106.5648647157628
 21
87.57546160499813
 31
0.0
 12
107.4044659968923
 22
89.06618972170381
 32
0.0
 13
107.7026116202329
 23
89.06618972170381
 33
0.0
  0
SOLID
  5
1768
330
1F
100
AcDbEntity
  8
LOGO
 62
     5
100
AcDbTrace
 10
107.4044659968923
 20
89.06618972170381
 30
0.0
 11
107.7026116202329
 21
89.06618972170381
 31
0.0
 12
107.4044659968923
 22
87.57546160499813
 32
0.0
 13
107.7026116202329
 23
87.57546160499813
 33
0.0
  0
SOLID
  5
1769
330
1F
100
AcDbEntity
  8
LOGO
 62
     5
100
AcDbTrace
 10
107.4044659968923
 20
87.57546160499813
 30
0.0
 11
107.7026116202329
 21
87.57546160499813
 31
0.0
 12
108.5422129013637
 22
89.06618972170381
 32
0.0
 13
108.8403585247048
 23
89.06618972170381
 33
0.0
  0
SOLID
  5
176A
330
1F
100
AcDbEntity
  8
LOGO
 62
     5
100
AcDbTrace
 10
108.5422129013637
 20
89.06618972170381
 30
0.0
 11
108.8403585247048
 21
89.06618972170381
 31
0.0
 12
108.5422129013637
 22
87.57546160499813
 32
0.0
 13
108.8403585247048
 23
87.57546160499813
 33
0.0
  0
POLYLINE
  5
176B
330
1F
100
AcDbEntity
  8
LOGO
 62
     5
100
AcDb2dPolyline
 66
     1
 10
0.0
 20
0.0
 30
0.0
 40
0.2986234208144796
 41
0.2986234208144796
  0
VERTEX
  5
176C
330
176B
100
AcDbEntity
  8
LOGO
 62
     5
100
AcDbVertex
100
AcDb2dVertex
 10
118.5359526311732
 20
88.46989847502149
 30
0.0
 42
1.0
  0
VERTEX
  5
176D
330
176B
100
AcDbEntity
  8
LOGO
 62
     5
100
AcDbVertex
100
AcDb2dVertex
 10
117.6400823687296
 20
88.46989847502149
 30
0.0
 42
1.0
  0
SEQEND
  5
176E
330
176B
100
AcDbEntity
  8
LOGO
 62
     5
  0
POLYLINE
  5
176F
330
1F
100
AcDbEntity
  8
LOGO
 62
     5
100
AcDb2dPolyline
 66
     1
 10
0.0
 20
0.0
 30
0.0
 70
     1
  0
VERTEX
  5
1770
330
176F
100
AcDbEntity
  8
LOGO
 62
     5
100
AcDbVertex
100
AcDb2dVertex
 10
115.9513270757139
 20
88.32082566335074
 30
0.0
 42
1.000000057330635
  0
VERTEX
  5
1771
330
176F
100
AcDbEntity
  8
LOGO
 62
     5
100
AcDbVertex
100
AcDb2dVertex
 10
116.8457639457375
 20
88.32082566335074
 30
0.0
 42
1.000000057330635
  0
SEQEND
  5
1772
330
176F
100
AcDbEntity
  8
LOGO
 62
     5
  0
CIRCLE
  5
1773
330
1F
100
AcDbEntity
  8
LOGO
 62
     5
100
AcDbCircle
 10
116.3985455107264
 20
88.32082566335074
 30
0.0
 40
0.4472184350117648
  0
POLYLINE
  5
1774
330
1F
100
AcDbEntity
  8
LOGO
 62
     5
100
AcDb2dPolyline
 66
     1
 10
0.0
 20
0.0
 30
0.0
 70
     1
 40
0.2986234208144796
 41
0.2986234208144796
  0
VERTEX
  5
1775
330
1774
100
AcDbEntity
  8
LOGO
 62
     5
100
AcDbVertex
100
AcDb2dVertex
 10
115.801298669097
 20
88.32082566335074
 30
0.0
 42
1.0
  0
VERTEX
  5
1776
330
1774
100
AcDbEntity
  8
LOGO
 62
     5
100
AcDbVertex
100
AcDb2dVertex
 10
116.9957923523549
 20
88.32082566335074
 30
0.0
 42
1.0
  0
SEQEND
  5
1777
330
1774
100
AcDbEntity
  8
LOGO
 62
     5
  0
LINE
  5
1778
330
1F
100
AcDbEntity
  8
LOGO
100
AcDbLine
 10
118.6843087466333
 20
87.57546160499813
 30
0.0
 11
118.6843087466333
 21
88.46989847502149
 31
0.0
  0
SOLID
  5
1779
330
1F
100
AcDbEntity
  8
LOGO
 62
     5
100
AcDbTrace
 10
116.8457341311765
 20
89.06618972170381
 30
0.0
 11
117.1438797545171
 21
89.06618972170381
 31
0.0
 12
116.8457341311765
 22
87.57546160499813
 32
0.0
 13
117.1438797545171
 23
87.57546160499813
 33
0.0
  0
SOLID
  5
177A
330
1F
100
AcDbEntity
  8
LOGO
 62
     5
100
AcDbTrace
 10
117.4917262532686
 20
87.57546160499813
 30
0.0
 11
117.7898718766101
 21
87.57546160499813
 31
0.0
 12
117.4917262532686
 22
89.06618972170381
 32
0.0
 13
117.7898718766101
 23
89.06618972170381
 33
0.0
  0
SOLID
  5
177B
330
1F
100
AcDbEntity
  8
LOGO
 62
     5
100
AcDbTrace
 10
118.3861631232927
 20
88.46989847502149
 30
0.0
 11
118.6843087466333
 21
88.46989847502149
 31
0.0
 12
118.3861631232927
 22
87.57546160499813
 32
0.0
 13
118.6843087466333
 23
87.57546160499813
 33
0.0
  0
SOLID
  5
177C
330
1F
100
AcDbEntity
  8
LOGO
 62
     5
100
AcDbTrace
 10
117.4619116909344
 20
98.10000210894131
 30
0.0
 11
116.5972893832455
 21
94.92972031408006
 31
0.0
 12
117.4619116909344
 22
90.55691783840947
 32
0.0
 13
116.5972893832455
 23
90.55691783840947
 33
0.0
  0
SOLID
  5
177D
330
1F
100
AcDbEntity
  8
LOGO
 62
     5
100
AcDbTrace
 10
117.8196864389443
 20
90.55691783840947
 30
0.0
 11
118.6843087466333
 21
90.55691783840947
 31
0.0
 12
117.8196864389443
 22
98.75592248029178
 32
0.0
 13
118.6843087466333
 23
98.75592248029224
 33
0.0
  0
SOLID
  5
177E
330
1F
100
AcDbEntity
  8
LOGO
 62
     2
100
AcDbTrace
 10
117.4619116909344
 20
98.75592248029224
 30
0.0
 11
117.8196864389443
 21
98.75592248029178
 31
0.0
 12
117.4619116909344
 22
90.55691783840947
 32
0.0
 13
117.8196864389443
 23
90.55691783840947
 33
0.0
  0
POLYLINE
  5
177F
330
1F
100
AcDbEntity
  8
LOGO
 62
     5
100
AcDb2dPolyline
 66
     1
 10
0.0
 20
0.0
 30
0.0
 40
0.2986234208144796
 41
0.2986234208144796
  0
VERTEX
  5
1780
330
177F
100
AcDbEntity
  8
LOGO
 62
     5
100
AcDbVertex
100
AcDb2dVertex
 10
114.2625121535749
 20
88.46989847502149
 30
0.0
 42
1.0
  0
VERTEX
  5
1781
330
177F
100
AcDbEntity
  8
LOGO
 62
     5
100
AcDbVertex
100
AcDb2dVertex
 10
113.3666418911313
 20
88.46989847502149
 30
0.0
 42
1.0
  0
SEQEND
  5
1782
330
177F
100
AcDbEntity
  8
LOGO
 62
     5
  0
POLYLINE
  5
1783
330
1F
100
AcDbEntity
  8
LOGO
 62
     5
100
AcDb2dPolyline
 66
     1
 10
0.0
 20
0.0
 30
0.0
 40
0.2986234208144796
 41
0.2986234208144796
  0
VERTEX
  5
1784
330
1783
100
AcDbEntity
  8
LOGO
 62
     5
100
AcDbVertex
100
AcDb2dVertex
 10
115.1569490235976
 20
88.46989847502149
 30
0.0
 42
1.0
  0
VERTEX
  5
1785
330
1783
100
AcDbEntity
  8
LOGO
 62
     5
100
AcDbVertex
100
AcDb2dVertex
 10
114.2610787611544
 20
88.46989847502149
 30
0.0
 42
1.0
  0
SEQEND
  5
1786
330
1783
100
AcDbEntity
  8
LOGO
 62
     5
  0
POLYLINE
  5
1787
330
1F
100
AcDbEntity
  8
LOGO
 62
     5
100
AcDb2dPolyline
 66
     1
 10
0.0
 20
0.0
 30
0.0
 40
0.2986234208144796
 41
0.2986234208144796
  0
VERTEX
  5
1788
330
1787
100
AcDbEntity
  8
LOGO
 62
     5
100
AcDbVertex
100
AcDb2dVertex
 10
110.8835085459992
 20
88.46989847502149
 30
0.0
 42
1.0
  0
VERTEX
  5
1789
330
1787
100
AcDbEntity
  8
LOGO
 62
     5
100
AcDbVertex
100
AcDb2dVertex
 10
109.987638283556
 20
88.46989847502149
 30
0.0
 42
1.0
  0
SEQEND
  5
178A
330
1787
100
AcDbEntity
  8
LOGO
 62
     5
  0
SOLID
  5
178B
330
1F
100
AcDbEntity
  8
LOGO
 62
     5
100
AcDbTrace
 10
109.8392821680955
 20
89.06618972170381
 30
0.0
 11
110.1374277914361
 21
89.06618972170381
 31
0.0
 12
109.8392821680955
 22
87.57546160499813
 32
0.0
 13
110.1374277914361
 23
87.57546160499813
 33
0.0
  0
SOLID
  5
178C
330
1F
100
AcDbEntity
  8
LOGO
 62
     5
100
AcDbTrace
 10
110.7337190381191
 20
88.46989847502149
 30
0.0
 11
111.0318646614606
 21
88.46989847502149
 31
0.0
 12
110.7337190381191
 22
87.57546160499813
 32
0.0
 13
111.0318646614606
 23
87.57546160499813
 33
0.0
  0
POLYLINE
  5
178D
330
1F
100
AcDbEntity
  8
LOGO
 62
     5
100
AcDb2dPolyline
 66
     1
 10
0.0
 20
0.0
 30
0.0
 70
     1
 40
0.2986234208144796
 41
0.2986234208144796
  0
VERTEX
  5
178E
330
178D
100
AcDbEntity
  8
LOGO
 62
     5
100
AcDbVertex
100
AcDb2dVertex
 10
111.5278581914982
 20
88.32082566335074
 30
0.0
 42
1.0
  0
VERTEX
  5
178F
330
178D
100
AcDbEntity
  8
LOGO
 62
     5
100
AcDbVertex
100
AcDb2dVertex
 10
112.7223518747565
 20
88.32082566335074
 30
0.0
 42
1.0
  0
SEQEND
  5
1790
330
178D
100
AcDbEntity
  8
LOGO
 62
     5
  0
SOLID
  5
1791
330
1F
100
AcDbEntity
  8
LOGO
 62
     5
100
AcDbTrace
 10
112.5722936535773
 20
89.51340815671583
 30
0.0
 11
112.8704392769183
 21
89.51340815671583
 31
0.0
 12
112.5722936535773
 22
87.57546160499813
 32
0.0
 13
112.8704392769183
 23
87.57546160499813
 33
0.0
  0
SOLID
  5
1792
330
1F
100
AcDbEntity
  8
LOGO
 62
     5
100
AcDbTrace
 10
113.2182857756712
 20
89.06618972170381
 30
0.0
 11
113.5164313990118
 21
89.06618972170381
 31
0.0
 12
113.2182857756712
 22
87.57546160499813
 32
0.0
 13
113.5164313990118
 23
87.57546160499813
 33
0.0
  0
SOLID
  5
1793
330
1F
100
AcDbEntity
  8
LOGO
 62
     5
100
AcDbTrace
 10
114.1127226456939
 20
88.46989847502149
 30
0.0
 11
114.4108682690354
 21
88.46989847502149
 31
0.0
 12
114.1127226456939
 22
87.57546160499813
 32
0.0
 13
114.4108682690354
 23
87.57546160499813
 33
0.0
  0
SOLID
  5
1794
330
1F
100
AcDbEntity
  8
LOGO
 62
     5
100
AcDbTrace
 10
115.0071595157175
 20
88.46989847502149
 30
0.0
 11
115.3053051390585
 21
88.46989847502149
 31
0.0
 12
115.0071595157175
 22
87.57546160499769
 32
0.0
 13
115.3053051390585
 23
87.57546160499769
 33
0.0
  0
SOLID
  5
1795
330
1F
100
AcDbEntity
  8
LOGO
 62
     5
100
AcDbTrace
 10
109.193290046002
 20
89.27489165804272
 30
0.0
 11
109.491435669344
 21
89.27489165804272
 31
0.0
 12
109.193290046002
 22
89.51340815671583
 32
0.0
 13
109.491435669344
 23
89.51340815671583
 33
0.0
  0
SOLID
  5
1796
330
1F
100
AcDbEntity
  8
LOGO
 62
     5
100
AcDbTrace
 10
109.193290046002
 20
89.06618972170381
 30
0.0
 11
109.491435669344
 21
89.06618972170381
 31
0.0
 12
109.193290046002
 22
87.57546160499769
 32
0.0
 13
109.491435669344
 23
87.57546160499813
 33
0.0
  0
SOLID
  5
1797
330
1F
100
AcDbEntity
  8
LOGO
 62
     5
100
AcDbTrace
 10
112.1251050331272
 20
90.5569178384097
 30
0.0
 11
112.989727340817
 21
90.5569178384097
 31
0.0
 12
112.1251050331272
 22
94.92972031408006
 32
0.0
 13
112.989727340817
 23
98.10000210894131
 33
0.0
  0
SOLID
  5
1798
330
1F
100
AcDbEntity
  8
LOGO
 62
     5
100
AcDbTrace
 10
113.3475020888269
 20
98.75592248029178
 30
0.0
 11
114.2121243965158
 21
98.75592248029224
 31
0.0
 12
113.3475020888269
 22
91.21283820976017
 32
0.0
 13
114.2121243965158
 23
94.38312000462142
 33
0.0
  0
SOLID
  5
1799
330
1F
100
AcDbEntity
  8
LOGO
 62
     2
100
AcDbTrace
 10
112.989727340817
 20
98.75592248029178
 30
0.0
 11
113.3475020888269
 21
98.75592248029178
 31
0.0
 12
112.989727340817
 22
90.5569178384097
 32
0.0
 13
113.3475020888269
 23
90.5569178384097
 33
0.0
  0
SOLID
  5
179A
330
1F
100
AcDbEntity
  8
LOGO
 62
     5
100
AcDbTrace
 10
113.3475020888269
 20
91.21283820976017
 30
0.0
 11
114.2121243965158
 21
94.38312000462142
 31
0.0
 12
117.4619116909344
 22
98.75592248029224
 32
0.0
 13
116.5972893832455
 23
98.75592248029224
 33
0.0
  0
SOLID
  5
179B
330
1F
100
AcDbEntity
  8
LOGO
 62
     5
100
AcDbTrace
 10
113.3475020888269
 20
90.5569178384097
 30
0.0
 11
114.2121243965158
 21
90.5569178384097
 31
0.0
 12
117.4619116909344
 22
98.10000210894131
 32
0.0
 13
116.5972893832455
 23
94.92972031408006
 33
0.0
  0
SOLID
  5
179C
330
1F
100
AcDbEntity
  8
LOGO
 62
     2
100
AcDbTrace
 10
112.989727340817
 20
90.5569178384097
 30
0.0
 11
113.3475020888269
 21
90.5569178384097
 31
0.0
 12
117.4619116909344
 22
98.75592248029224
 32
0.0
 13
117.8196864389443
 23
98.75592248029178
 33
0.0
  0
LINE
  5
179D
330
1F
100
AcDbEntity
  8
LOGO
 62
     4
100
AcDbLine
 10
190.4083498518458
 20
88.23253912635626
 30
0.0
 11
190.4083498518458
 21
80.90026763314321
 31
0.0
  0
LINE
  5
179E
330
1F
100
AcDbEntity
  8
LOGO
 62
     4
100
AcDbLine
 10
177.0769471369136
 20
88.23253912635626
 30
0.0
 11
177.0769471369136
 21
80.90026763314321
 31
0.0
  0
LINE
  5
179F
330
1F
100
AcDbEntity
  8
LOGO
 62
     4
100
AcDbLine
 10
190.4083498518458
 20
80.90026763314321
 30
0.0
 11
177.0769471369136
 21
80.90026763314321
 31
0.0
  0
LINE
  5
17A0
330
1F
100
AcDbEntity
  8
LOGO
 62
     4
100
AcDbLine
 10
189.9386283447264
 20
97.23123595893511
 30
0.0
 11
177.0769471369136
 21
97.23123595893511
 31
0.0
  0
LINE
  5
17A1
330
1F
100
AcDbEntity
  8
LOGO
 62
     4
100
AcDbLine
 10
189.9386283447264
 20
91.23210473721574
 30
0.0
 11
177.0769471369136
 21
91.23210473721574
 31
0.0
  0
LINE
  5
17A2
330
1F
100
AcDbEntity
  8
LOGO
 62
     4
100
AcDbLine
 10
177.0769471369136
 20
97.23123595893511
 30
0.0
 11
177.0769471369136
 21
91.23210473721574
 31
0.0
  0
LINE
  5
17A3
330
1F
100
AcDbEntity
  8
LOGO
 62
     4
100
AcDbLine
 10
189.9386283447264
 20
97.23123595893511
 30
0.0
 11
189.9386283447264
 21
91.23210473721574
 31
0.0
  0
LINE
  5
17A4
330
1F
100
AcDbEntity
  8
LOGO
 62
     4
100
AcDbLine
 10
184.4382128726162
 20
91.23210473721574
 30
0.0
 11
184.4382128726162
 21
88.23253912635626
 31
0.0
  0
TEXT
  5
17A5
330
1F
100
AcDbEntity
  8
LOGO
  6
Continuous
100
AcDbText
 10
178.1428988001936
 20
92.48441460902071
 30
0.0
 40
3.5
  1
MPS
  7
CHINESET
100
AcDbText
  0
LINE
  5
17A6
330
1F
100
AcDbEntity
  8
LOGO
 62
     4
100
AcDbLine
 10
190.4083498518458
 20
88.23253912635626
 30
0.0
 11
177.0769471369136
 21
88.23253912635626
 31
0.0
  0
TEXT
  5
17A7
330
1F
100
AcDbEntity
  8
LOGO
  6
Continuous
100
AcDbText
 10
181.3549520615566
 20
81.93520220596733
 30
131.0577257600498
 40
1.5
  1
Model
 41
0.8
  7
CHINESET
100
AcDbText
  0
TEXT
  5
17A8
330
1F
100
AcDbEntity
  8
LOGO
100
AcDbText
 10
180.9557008235575
 20
84.7158789328947
 30
131.0577257600498
 40
2.5
  1
型號
  7
CHINESET
100
AcDbText
  0
LINE
  5
17A9
330
1F
100
AcDbEntity
  8
LOGO
  6
Continuous
100
AcDbLine
 10
190.7727186893386
 20
94.21042047720138
 30
0.0
 11
193.4217161382781
 21
94.21042047720138
 31
0.0
  0
TEXT
  5
17B2
330
1F
100
AcDbEntity
  8
LOGO
  6
Continuous
100
AcDbText
 10
195.5297804537916
 20
92.48441460902071
 30
0.0
 40
3.5
  1
6A
  7
CHINESET
100
AcDbText
  0
LINE
  5
17B4
330
1F
100
AcDbEntity
  8
LOGO
  6
Continuous
100
AcDbLine
 10
202.5455253908111
 20
94.21042047720138
 30
0.0
 11
205.1945228397507
 21
94.21042047720138
 31
0.0
  0
LINE
  5
17B5
330
1F
100
AcDbEntity
  8
LOGO
 62
     4
100
AcDbLine
 10
214.9697907237909
 20
88.23253912635626
 30
0.0
 11
214.9697907237909
 21
80.90026763314321
 31
0.0
  0
LINE
  5
17B6
330
1F
100
AcDbEntity
  8
LOGO
 62
     4
100
AcDbLine
 10
201.6383880088587
 20
88.23253912635626
 30
0.0
 11
201.6383880088587
 21
80.90026763314321
 31
0.0
  0
LINE
  5
17B7
330
1F
100
AcDbEntity
  8
LOGO
 62
     4
100
AcDbLine
 10
214.9697907237909
 20
80.90026763314321
 30
0.0
 11
201.6383880088587
 21
80.90026763314321
 31
0.0
  0
LINE
  5
17B8
330
1F
100
AcDbEntity
  8
LOGO
 62
     4
100
AcDbLine
 10
216.2811364811822
 20
97.23123595893511
 30
0.0
 11
206.0301418979023
 21
97.23123595893511
 31
0.0
  0
LINE
  5
17B9
330
1F
100
AcDbEntity
  8
LOGO
 62
     4
100
AcDbLine
 10
216.2811364811822
 20
91.23210473721574
 30
0.0
 11
206.0301418979023
 21
91.23210473721574
 31
0.0
  0
LINE
  5
17BA
330
1F
100
AcDbEntity
  8
LOGO
 62
     4
100
AcDbLine
 10
206.0301418979023
 20
97.23123595893511
 30
0.0
 11
206.0301418979023
 21
91.23210473721574
 31
0.0
  0
LINE
  5
17BB
330
1F
100
AcDbEntity
  8
LOGO
 62
     4
100
AcDbLine
 10
216.2811364811822
 20
97.23123595893511
 30
0.0
 11
216.2811364811822
 21
91.23210473721574
 31
0.0
  0
LINE
  5
17BC
330
1F
100
AcDbEntity
  8
LOGO
 62
     4
100
AcDbLine
 10
211.1556391895423
 20
91.23210473721574
 30
0.0
 11
211.1556391895423
 21
88.23253912635626
 31
0.0
  0
LINE
  5
17BE
330
1F
100
AcDbEntity
  8
LOGO
 62
     4
100
AcDbLine
 10
214.9697907237909
 20
88.23253912635626
 30
0.0
 11
201.6383880088587
 21
88.23253912635626
 31
0.0
  0
TEXT
  5
17CC
330
1F
100
AcDbEntity
  8
LOGO
  6
Continuous
100
AcDbText
 10
203.584927054772
 20
81.93520220596733
 30
131.0577257600498
 40
1.5
  1
Fitting type
 41
0.8
  7
CHINESET
100
AcDbText
  0
TEXT
  5
17CD
330
1F
100
AcDbEntity
  8
LOGO
100
AcDbText
 10
203.4452311703243
 20
84.7158789328947
 30
131.0577257600498
 40
2.5
  1
接續方式
  7
CHINESET
100
AcDbText
  0
TEXT
  5
17DC
330
1F
100
AcDbEntity
  8
LOGO
100
AcDbText
 10
150.3650202597679
 20
80.2976803376981
 30
0.0
 40
2.0
  1
10704052
 41
0.7
  7
CHINESET
 72
     1
 11
155.3650202597679
 21
80.2976803376981
 31
0.0
100
AcDbText
  0
LINE
  5
17DD
330
1F
100
AcDbEntity
  8
LOGO
 62
     4
100
AcDbLine
 10
161.5718180018626
 20
83.23326310825686
 30
0.0
 11
161.5718180018635
 21
79.23384229377697
 31
0.0
  0
LINE
  5
17DE
330
1F
100
AcDbEntity
  8
LOGO
 62
     4
100
AcDbLine
 10
161.5718180018626
 20
83.23326310825686
 30
0.0
 11
149.5718180018635
 21
83.23326310825686
 31
0.0
  0
LINE
  5
17DF
330
1F
100
AcDbEntity
  8
LOGO
  6
AM_ISO08W050x2
 48
0.3
100
AcDbLine
 10
138.3425645345247
 20
93.23609253965022
 30
0.0
 11
141.5436939169946
 21
93.23609253965022
 31
0.0
1001
GENIUS_GENOREF_13
1005
17E4
  0
LINE
  5
17E0
330
1F
100
AcDbEntity
  8
LOGO
  6
AM_ISO08W050x2
 48
0.3
100
AcDbLine
 10
139.9431292257596
 20
91.63552784841531
 30
0.0
 11
139.9431292257596
 21
94.83665723088515
 31
0.0
1001
GENIUS_GENOREF_13
1005
17E3
  0
LINE
  5
17E1
330
1F
100
AcDbEntity
  8
LOGO
  6
CENTER
 48
0.5
100
AcDbLine
 10
143.3084760595426
 20
93.23609253965022
 30
0.0
 11
147.6060116875838
 21
93.23609253965022
 31
0.0
1001
GENIUS_GENOREF_13
1005
17E2
  0
POINT
  5
17E2
330
1F
100
AcDbEntity
  8
0
 60
     1
100
AcDbPoint
 10
-1966.762970697395
 20
-858.8994600119495
 30
0.0
1001
GENIUS_GENOBJ-N-CRS_13
1002
{
1000
OWNER
1000
GEN
1002
}
1001
GENIUS_GENOLIS_13
1002
{
1000
ENT
1005
0
1005
0
1005
0
1005
17E1
1002
}
1001
GENIUS_GENOENT_13
1002
{
1000
MYREF
1005
17E2
1002
}
1002
{
1000
GRP
1005
0
1002
}
1001
GENIUS_GENODEF_13
1002
{
1000
HIER
1070
    10
1002
}
1002
{
1000
MANEDIT
1070
     1
1002
}
1002
{
1000
NOSEL
1070
     0
1002
}
1002
{
1000
BEHIND
1070
     0
1002
}
1002
{
1000
OTHER
1070
     0
1002
}
1002
{
1000
REACTOR
1002
}
  0
POINT
  5
17E3
330
1F
100
AcDbEntity
  8
0
 60
     1
100
AcDbPoint
 10
-1978.08755592025
 20
-850.0238735333132
 30
0.0
1001
GENIUS_GENOBJ-N-CRS_13
1002
{
1000
OWNER
1000
GEN
1002
}
1001
GENIUS_GENOLIS_13
1002
{
1000
ENT
1005
0
1005
0
1005
0
1005
17E0
1002
}
1001
GENIUS_GENOENT_13
1002
{
1000
MYREF
1005
17E3
1002
}
1002
{
1000
GRP
1005
0
1002
}
1001
GENIUS_GENODEF_13
1002
{
1000
HIER
1070
    10
1002
}
1002
{
1000
MANEDIT
1070
     1
1002
}
1002
{
1000
NOSEL
1070
     0
1002
}
1002
{
1000
BEHIND
1070
     0
1002
}
1002
{
1000
OTHER
1070
     0
1002
}
1002
{
1000
REACTOR
1002
}
  0
POINT
  5
17E4
330
1F
100
AcDbEntity
  8
0
 60
     1
100
AcDbPoint
 10
-1971.728882222413
 20
-858.8994600119495
 30
0.0
1001
GENIUS_GENOBJ-N-CRS_13
1002
{
1000
OWNER
1000
GEN
1002
}
1001
GENIUS_GENOLIS_13
1002
{
1000
ENT
1005
0
1005
0
1005
0
1005
17DF
1002
}
1001
GENIUS_GENOENT_13
1002
{
1000
MYREF
1005
17E4
1002
}
1002
{
1000
GRP
1005
0
1002
}
1001
GENIUS_GENODEF_13
1002
{
1000
HIER
1070
    10
1002
}
1002
{
1000
MANEDIT
1070
     1
1002
}
1002
{
1000
NOSEL
1070
     0
1002
}
1002
{
1000
BEHIND
1070
     0
1002
}
1002
{
1000
OTHER
1070
     0
1002
}
1002
{
1000
REACTOR
1002
}
  0
ENDSEC
  0
SECTION
  2
OBJECTS
  0
DICTIONARY
  5
C
330
0
100
AcDbDictionary
281
     1
  3
ACAD_COLOR
350
BE
  3
ACAD_GROUP
350
D
  3
ACAD_LAYOUT
350
1A
  3
ACAD_MATERIAL
350
BD
  3
ACAD_MLINESTYLE
350
17
  3
ACAD_PLOTSETTINGS
350
19
  3
ACAD_PLOTSTYLENAME
350
E
  3
ACAD_TABLESTYLE
350
11A
  3
ACDBHEADERROUNDTRIPXREC
350
188A
  3
AcDbVariableDictionary
350
94
  3
AcmDictionary
350
5B
  3
AMG
350
41
  3
AMGSNAPSETTINGS
350
1B8
  3
DWGPROPS
350
1889
  0
DICTIONARY
  5
3F9
330
2
100
AcDbDictionary
280
     1
281
     1
  3
ACAD_LAYERFILTERS
360
5B7
  3
ACAD_LAYERSTATES
360
C78
  3
ACLYDICTIONARY
360
5B6
  0
DICTIONARY
  5
8F
330
1F
100
AcDbDictionary
280
     1
281
     1
  3
ACAD_SORTENTS
360
166C
  0
DICTIONARY
  5
1593
330
1586
100
AcDbDictionary
280
     1
281
     1
  3
ACAD_DIMASSOC
360
1594
  0
DICTIONARY
  5
15B9
330
15AC
100
AcDbDictionary
280
     1
281
     1
  3
ACAD_DIMASSOC
360
15BA
  0
DICTIONARY
  5
15F3
330
15E6
100
AcDbDictionary
280
     1
281
     1
  3
ACAD_DIMASSOC
360
15F4
  0
DICTIONARY
  5
BE
102
{ACAD_REACTORS
330
C
102
}
330
C
100
AcDbDictionary
281
     1
  0
DICTIONARY
  5
D
102
{ACAD_REACTORS
330
C
102
}
330
C
100
AcDbDictionary
281
     1
  0
DICTIONARY
  5
1A
102
{ACAD_REACTORS
330
C
102
}
330
C
100
AcDbDictionary
281
     1
  3
Model
350
22
  3
配置1
350
1E
  3
配置2
350
26
  0
DICTIONARY
  5
BD
102
{ACAD_REACTORS
330
C
102
}
330
C
100
AcDbDictionary
281
     1
  0
DICTIONARY
  5
17
102
{ACAD_REACTORS
330
C
102
}
330
C
100
AcDbDictionary
281
     1
  3
Standard
350
18
  0
DICTIONARY
  5
19
102
{ACAD_REACTORS
330
C
102
}
330
C
100
AcDbDictionary
281
     1
  0
ACDBDICTIONARYWDFLT
  5
E
102
{ACAD_REACTORS
330
C
102
}
330
C
100
AcDbDictionary
281
     1
  3
Normal
350
F
100
AcDbDictionaryWithDefault
340
F
  0
DICTIONARY
  5
11A
102
{ACAD_REACTORS
330
C
102
}
330
C
100
AcDbDictionary
281
     1
  3
Standard
350
11B
  0
DICTIONARY
  5
188A
102
{ACAD_REACTORS
330
C
102
}
330
C
100
AcDbDictionary
281
     1
  0
DICTIONARY
  5
94
102
{ACAD_REACTORS
330
C
102
}
330
C
100
AcDbDictionary
281
     1
  3
CTABLESTYLE
350
138
  3
DIMASSOC
350
96
  3
INDEXCTL
350
95
  3
PROJECTNAME
350
1887
  0
DICTIONARY
  5
5B
102
{ACAD_REACTORS
330
C
102
}
330
C
100
AcDbDictionary
281
     1
  3
AcmBOM
350
1B5
  3
AcmStdDictionary
350
61
  3
AMDTSECTSYM_ARROWCOLOR
350
123
  0
DICTIONARY
  5
41
102
{ACAD_REACTORS
330
C
102
}
330
C
100
AcDbDictionary
281
     1
  0
DICTIONARY
  5
1B8
102
{ACAD_REACTORS
330
C
102
}
330
C
100
AcDbDictionary
281
     1
  0
XRECORD
  5
1889
102
{ACAD_REACTORS
330
C
102
}
330
C
100
AcDbXrecord
280
     1
  1
DWGPROPS COOKIE
  2

  3

  4

  6

  7

  8

  9

300
AmdtFileType=84
301
=
302
=
303
=
304
=
305
=
306
=
307
=
308
=
309
=
 40
0.0292480439814815
 41
2454190.707994063
 42
2454202.41798647
  1

 90
        1
  0
DICTIONARY
  5
5B7
102
{ACAD_REACTORS
330
3F9
102
}
330
3F9
100
AcDbDictionary
281
     1
  0
DICTIONARY
  5
C78
102
{ACAD_REACTORS
330
3F9
102
}
330
3F9
100
AcDbDictionary
281
     1
  0
DICTIONARY
  5
5B6
102
{ACAD_REACTORS
330
3F9
102
}
330
3F9
100
AcDbDictionary
281
     1
1001
ACAD
1000
<All
  0
SORTENTSTABLE
  5
166C
102
{ACAD_REACTORS
330
8F
102
}
330
8F
100
AcDbSortentsTable
330
1F
331
1547
  5
1547
331
1520
  5
1520
331
14AC
  5
14AC
331
1476
  5
1476
331
14CB
  5
14CB
331
1457
  5
1457
331
14EA
  5
14EA
331
134F
  5
134F
331
136E
  5
136E
331
1319
  5
1319
331
1330
  5
1330
331
12DB
  5
12DB
331
12FA
  5
12FA
331
138D
  5
138D
331
1286
  5
1286
331
1231
  5
1231
331
1248
  5
1248
331
11F3
  5
11F3
331
1212
  5
1212
331
11D4
  5
11D4
331
1267
  5
1267
331
12A5
  5
12A5
331
12BC
  5
12BC
331
1187
  5
1187
331
11A6
  5
11A6
331
14CC
  5
14CC
331
14EB
  5
14EB
331
14AD
  5
14AD
331
1477
  5
1477
331
138E
  5
138E
331
1331
  5
1331
331
1350
  5
1350
331
136F
  5
136F
331
12FB
  5
12FB
331
12A6
  5
12A6
331
12BD
  5
12BD
331
1268
  5
1268
331
1287
  5
1287
331
1213
  5
1213
331
11D5
  5
11D5
331
11F4
  5
11F4
331
1232
  5
1232
331
1249
  5
1249
331
12DC
  5
12DC
331
131A
  5
131A
331
11A7
  5
11A7
331
1522
  5
1522
331
14AE
  5
14AE
331
14CD
  5
14CD
331
14EC
  5
14EC
331
1351
  5
1351
331
1370
  5
1370
331
131B
  5
131B
331
1332
  5
1332
331
12BE
  5
12BE
331
12DD
  5
12DD
331
12FC
  5
12FC
331
1288
  5
1288
331
1233
  5
1233
331
124A
  5
124A
331
11F5
  5
11F5
331
1214
  5
1214
331
11D6
  5
11D6
331
1269
  5
1269
331
12A7
  5
12A7
331
138F
  5
138F
331
1523
  5
1523
331
14CE
  5
14CE
331
14ED
  5
14ED
331
14AF
  5
14AF
331
1371
  5
1371
331
1390
  5
1390
331
131C
  5
131C
331
1333
  5
1333
331
12FD
  5
12FD
331
1352
  5
1352
331
12A8
  5
12A8
331
12BF
  5
12BF
331
126A
  5
126A
331
1289
  5
1289
331
1215
  5
1215
331
11D7
  5
11D7
331
11F6
  5
11F6
331
1234
  5
1234
331
124B
  5
124B
331
12DE
  5
12DE
331
14EE
  5
14EE
331
14CF
  5
14CF
331
1524
  5
1524
331
1353
  5
1353
331
1372
  5
1372
331
131D
  5
131D
331
1334
  5
1334
331
1391
  5
1391
331
12C0
  5
12C0
331
12DF
  5
12DF
331
12FE
  5
12FE
331
128A
  5
128A
331
1235
  5
1235
331
124C
  5
124C
331
11F7
  5
11F7
331
1216
  5
1216
331
11D8
  5
11D8
331
126B
  5
126B
331
12A9
  5
12A9
331
1525
  5
1525
331
14EF
  5
14EF
331
1373
  5
1373
331
1392
  5
1392
331
131E
  5
131E
331
1335
  5
1335
331
12E0
  5
12E0
331
12FF
  5
12FF
331
12AA
  5
12AA
331
12C1
  5
12C1
331
1354
  5
1354
331
126C
  5
126C
331
128B
  5
128B
331
1217
  5
1217
331
11D9
  5
11D9
331
11F8
  5
11F8
331
1236
  5
1236
331
124D
  5
124D
331
1526
  5
1526
331
1355
  5
1355
331
1374
  5
1374
331
131F
  5
131F
331
1336
  5
1336
331
1393
  5
1393
331
12C2
  5
12C2
331
12E1
  5
12E1
331
128C
  5
128C
331
1237
  5
1237
331
124E
  5
124E
331
11F9
  5
11F9
331
1218
  5
1218
331
11DA
  5
11DA
331
126D
  5
126D
331
12AB
  5
12AB
331
1300
  5
1300
331
1527
  5
1527
331
1575
  5
1575
331
1375
  5
1375
331
1394
  5
1394
331
1320
  5
1320
331
1337
  5
1337
331
12E2
  5
12E2
331
1301
  5
1301
331
12AC
  5
12AC
331
12C3
  5
12C3
331
1356
  5
1356
331
124F
  5
124F
331
1219
  5
1219
331
126E
  5
126E
331
11DB
  5
11DB
331
11FA
  5
11FA
331
128D
  5
128D
331
1357
  5
1357
331
1376
  5
1376
331
1302
  5
1302
331
12AD
  5
12AD
331
12C4
  5
12C4
331
128E
  5
128E
331
12E3
  5
12E3
331
1321
  5
1321
331
1338
  5
1338
331
1395
  5
1395
331
1250
  5
1250
331
11FB
  5
11FB
331
121A
  5
121A
331
11DC
  5
11DC
331
126F
  5
126F
331
1377
  5
1377
331
1396
  5
1396
331
1322
  5
1322
331
1339
  5
1339
331
12E4
  5
12E4
331
1303
  5
1303
331
12AE
  5
12AE
331
12C5
  5
12C5
331
1358
  5
1358
331
1251
  5
1251
331
121B
  5
121B
331
1270
  5
1270
331
11DD
  5
11DD
331
11FC
  5
11FC
331
128F
  5
128F
331
1359
  5
1359
331
1378
  5
1378
331
1304
  5
1304
331
12AF
  5
12AF
331
12C6
  5
12C6
331
1271
  5
1271
331
1290
  5
1290
331
1252
  5
1252
331
12E5
  5
12E5
331
1323
  5
1323
331
11FD
  5
11FD
331
121C
  5
121C
331
133A
  5
133A
331
11DE
  5
11DE
331
1397
  5
1397
331
15E6
  5
15E6
331
1379
  5
1379
331
1398
  5
1398
331
1324
  5
1324
331
133B
  5
133B
331
12E6
  5
12E6
331
1305
  5
1305
331
12C7
  5
12C7
331
135A
  5
135A
331
1253
  5
1253
331
121D
  5
121D
331
1272
  5
1272
331
11DF
  5
11DF
331
11FE
  5
11FE
331
1291
  5
1291
331
1399
  5
1399
331
135B
  5
135B
331
137A
  5
137A
331
1306
  5
1306
331
12C8
  5
12C8
331
1273
  5
1273
331
1292
  5
1292
331
1254
  5
1254
331
12E7
  5
12E7
331
1325
  5
1325
331
11FF
  5
11FF
331
121E
  5
121E
331
133C
  5
133C
331
137B
  5
137B
331
139A
  5
139A
331
1326
  5
1326
331
133D
  5
133D
331
12E8
  5
12E8
331
1307
  5
1307
331
1293
  5
1293
331
1255
  5
1255
331
121F
  5
121F
331
1274
  5
1274
331
12C9
  5
12C9
331
135C
  5
135C
331
139B
  5
139B
331
133E
  5
133E
331
135D
  5
135D
331
1308
  5
1308
331
12CA
  5
12CA
331
1275
  5
1275
331
1294
  5
1294
331
1256
  5
1256
331
12E9
  5
12E9
331
1327
  5
1327
331
137C
  5
137C
331
137D
  5
137D
331
139C
  5
139C
331
133F
  5
133F
331
12EA
  5
12EA
331
1309
  5
1309
331
1295
  5
1295
331
1257
  5
1257
331
1276
  5
1276
331
12CB
  5
12CB
331
135E
  5
135E
331
139D
  5
139D
331
1340
  5
1340
331
130A
  5
130A
331
135F
  5
135F
331
12CC
  5
12CC
331
1277
  5
1277
331
1296
  5
1296
331
12EB
  5
12EB
331
137E
  5
137E
331
1360
  5
1360
331
137F
  5
137F
331
1341
  5
1341
331
139E
  5
139E
331
12EC
  5
12EC
331
130B
  5
130B
331
1297
  5
1297
331
12CD
  5
12CD
331
139F
  5
139F
331
1342
  5
1342
331
130C
  5
130C
331
1361
  5
1361
331
12CE
  5
12CE
331
12ED
  5
12ED
331
1380
  5
1380
331
1362
  5
1362
331
1381
  5
1381
331
1343
  5
1343
331
12CF
  5
12CF
331
12EE
  5
12EE
331
130D
  5
130D
331
1382
  5
1382
331
1344
  5
1344
331
130E
  5
130E
331
1363
  5
1363
331
12EF
  5
12EF
331
1364
  5
1364
331
1383
  5
1383
331
1345
  5
1345
331
130F
  5
130F
331
1384
  5
1384
331
1346
  5
1346
331
1365
  5
1365
331
1366
  5
1366
331
1385
  5
1385
331
1347
  5
1347
331
1386
  5
1386
331
1367
  5
1367
331
1387
  5
1387
331
13A0
  5
13A0
331
13A1
  5
13A1
331
13C0
  5
13C0
331
10E0
  5
10E0
331
13C1
  5
13C1
331
13E0
  5
13E0
331
13A2
  5
13A2
331
10E1
  5
10E1
331
13E1
  5
13E1
331
13A3
  5
13A3
331
13C2
  5
13C2
331
10E2
  5
10E2
331
1130
  5
1130
331
1401
  5
1401
331
1418
  5
1418
331
13C3
  5
13C3
331
13E2
  5
13E2
331
13A4
  5
13A4
331
10E3
  5
10E3
331
1131
  5
1131
331
1148
  5
1148
331
1419
  5
1419
331
1438
  5
1438
331
13E3
  5
13E3
331
1402
  5
1402
331
13A5
  5
13A5
331
13C4
  5
13C4
331
1149
  5
1149
331
1168
  5
1168
331
10E4
  5
10E4
331
1132
  5
1132
331
1458
  5
1458
331
1403
  5
1403
331
141A
  5
141A
331
13C5
  5
13C5
331
13E4
  5
13E4
331
13A6
  5
13A6
331
1439
  5
1439
331
1169
  5
1169
331
1188
  5
1188
331
10E5
  5
10E5
331
1133
  5
1133
331
114A
  5
114A
331
1478
  5
1478
331
141B
  5
141B
331
143A
  5
143A
331
13E5
  5
13E5
331
1404
  5
1404
331
13A7
  5
13A7
331
13C6
  5
13C6
331
1459
  5
1459
331
1189
  5
1189
331
11A8
  5
11A8
331
1134
  5
1134
331
114B
  5
114B
331
10E6
  5
10E6
331
116A
  5
116A
331
1490
  5
1490
331
143B
  5
143B
331
145A
  5
145A
331
1405
  5
1405
331
141C
  5
141C
331
13C7
  5
13C7
331
13E6
  5
13E6
331
1479
  5
1479
331
13A8
  5
13A8
331
11A9
  5
11A9
331
116B
  5
116B
331
118A
  5
118A
331
10E7
  5
10E7
331
1135
  5
1135
331
114C
  5
114C
331
14B0
  5
14B0
331
147A
  5
147A
331
1491
  5
1491
331
141D
  5
141D
331
143C
  5
143C
331
13E7
  5
13E7
331
1406
  5
1406
331
13A9
  5
13A9
331
13C8
  5
13C8
331
145B
  5
145B
331
118B
  5
118B
331
11AA
  5
11AA
331
1136
  5
1136
331
114D
  5
114D
331
1117
  5
1117
331
10E8
  5
10E8
331
116C
  5
116C
331
14D0
  5
14D0
331
1492
  5
1492
331
14B1
  5
14B1
331
143D
  5
143D
331
145C
  5
145C
331
1407
  5
1407
331
141E
  5
141E
331
13AA
  5
13AA
331
13C9
  5
13C9
331
13E8
  5
13E8
331
147B
  5
147B
331
11AB
  5
11AB
331
114E
  5
114E
331
116D
  5
116D
331
1118
  5
1118
331
10E9
  5
10E9
331
1137
  5
1137
331
118C
  5
118C
331
14F0
  5
14F0
331
14B2
  5
14B2
331
14D1
  5
14D1
331
145D
  5
145D
331
147C
  5
147C
331
1408
  5
1408
331
141F
  5
141F
331
13E9
  5
13E9
331
143E
  5
143E
331
1493
  5
1493
331
13AB
  5
13AB
331
13CA
  5
13CA
331
118D
  5
118D
331
11AC
  5
11AC
331
1138
  5
1138
331
114F
  5
114F
331
1119
  5
1119
331
10EA
  5
10EA
331
116E
  5
116E
331
1508
  5
1508
331
14D2
  5
14D2
331
14F1
  5
14F1
331
1494
  5
1494
331
14B3
  5
14B3
331
143F
  5
143F
331
145E
  5
145E
331
1409
  5
1409
331
13AC
  5
13AC
331
13CB
  5
13CB
331
13EA
  5
13EA
331
147D
  5
147D
331
11AD
  5
11AD
331
1150
  5
1150
331
116F
  5
116F
331
118E
  5
118E
331
111A
  5
111A
331
10EB
  5
10EB
331
1139
  5
1139
331
14F2
  5
14F2
331
1509
  5
1509
331
14B4
  5
14B4
331
14D3
  5
14D3
331
145F
  5
145F
331
147E
  5
147E
331
140A
  5
140A
331
1421
  5
1421
331
13CC
  5
13CC
331
13EB
  5
13EB
331
13AD
  5
13AD
331
1440
  5
1440
331
1495
  5
1495
331
1528
  5
1528
331
1170
  5
1170
331
118F
  5
118F
331
113A
  5
113A
331
1151
  5
1151
331
111B
  5
111B
331
11AE
  5
11AE
331
10EC
  5
10EC
331
150A
  5
150A
331
1529
  5
1529
331
14D4
  5
14D4
331
14F3
  5
14F3
331
147F
  5
147F
331
1496
  5
1496
331
1441
  5
1441
331
1460
  5
1460
331
140B
  5
140B
331
1422
  5
1422
331
14B5
  5
14B5
331
13AE
  5
13AE
331
13CD
  5
13CD
331
13EC
  5
13EC
331
11AF
  5
11AF
331
1152
  5
1152
331
1171
  5
1171
331
1190
  5
1190
331
111C
  5
111C
331
113B
  5
113B
331
152A
  5
152A
331
14F4
  5
14F4
331
150B
  5
150B
331
14B6
  5
14B6
331
14D5
  5
14D5
331
1461
  5
1461
331
1423
  5
1423
331
13CE
  5
13CE
331
13ED
  5
13ED
331
13AF
  5
13AF
331
1442
  5
1442
331
1480
  5
1480
331
1497
  5
1497
331
1172
  5
1172
331
1191
  5
1191
331
11B0
  5
11B0
331
113C
  5
113C
331
1153
  5
1153
331
111D
  5
111D
331
150C
  5
150C
331
152B
  5
152B
331
14D6
  5
14D6
331
14F5
  5
14F5
331
1481
  5
1481
331
1498
  5
1498
331
1443
  5
1443
331
1462
  5
1462
331
13EE
  5
13EE
331
13B0
  5
13B0
331
13CF
  5
13CF
331
140D
  5
140D
331
1424
  5
1424
331
14B7
  5
14B7
331
11C0
  5
11C0
331
1192
  5
1192
331
11B1
  5
11B1
331
113D
  5
113D
331
1154
  5
1154
331
111E
  5
111E
331
1173
  5
1173
331
152C
  5
152C
331
14F6
  5
14F6
331
150D
  5
150D
331
1499
  5
1499
331
14B8
  5
14B8
331
14D7
  5
14D7
331
1463
  5
1463
331
140E
  5
140E
331
1425
  5
1425
331
13D0
  5
13D0
331
13EF
  5
13EF
331
13B1
  5
13B1
331
1444
  5
1444
331
1482
  5
1482
331
11E0
  5
11E0
331
11C1
  5
11C1
331
1174
  5
1174
331
1193
  5
1193
331
11B2
  5
11B2
331
113E
  5
113E
331
1155
  5
1155
331
111F
  5
111F
331
150E
  5
150E
331
152D
  5
152D
331
14D8
  5
14D8
331
14F7
  5
14F7
331
1483
  5
1483
331
149A
  5
149A
331
1445
  5
1445
331
1464
  5
1464
331
13F0
  5
13F0
331
13B2
  5
13B2
331
13D1
  5
13D1
331
1426
  5
1426
331
14B9
  5
14B9
331
11C2
  5
11C2
331
11E1
  5
11E1
331
1200
  5
1200
331
1194
  5
1194
331
11B3
  5
11B3
331
113F
  5
113F
331
1156
  5
1156
331
1120
  5
1120
331
10F1
  5
10F1
331
1175
  5
1175
331
152E
  5
152E
331
14F8
  5
14F8
331
150F
  5
150F
331
149B
  5
149B
331
14BA
  5
14BA
331
14D9
  5
14D9
331
1465
  5
1465
331
13D2
  5
13D2
331
1410
  5
1410
331
1427
  5
1427
331
13B3
  5
13B3
331
1446
  5
1446
331
1484
  5
1484
331
11E2
  5
11E2
331
1201
  5
1201
331
11C3
  5
11C3
331
1220
  5
1220
331
1176
  5
1176
331
1195
  5
1195
331
11B4
  5
11B4
331
1140
  5
1140
331
1157
  5
1157
331
1121
  5
1121
331
1556
  5
1556
331
14F9
  5
14F9
331
1510
  5
1510
331
14BB
  5
14BB
331
14DA
  5
14DA
331
1485
  5
1485
331
149C
  5
149C
331
152F
  5
152F
331
1447
  5
1447
331
1466
  5
1466
331
13F2
  5
13F2
331
13B4
  5
13B4
331
13D3
  5
13D3
331
1411
  5
1411
331
1428
  5
1428
331
1202
  5
1202
331
1221
  5
1221
331
11C4
  5
11C4
331
11E3
  5
11E3
331
1238
  5
1238
331
1196
  5
1196
331
11B5
  5
11B5
331
1141
  5
1141
331
1158
  5
1158
331
1122
  5
1122
331
1177
  5
1177
331
1586
  5
1586
331
14FA
  5
14FA
331
1511
  5
1511
331
149D
  5
149D
331
14BC
  5
14BC
331
14DB
  5
14DB
331
1467
  5
1467
331
1412
  5
1412
331
1429
  5
1429
331
13D4
  5
13D4
331
13F3
  5
13F3
331
13B5
  5
13B5
331
1448
  5
1448
331
1486
  5
1486
331
1239
  5
1239
331
1258
  5
1258
331
11E4
  5
11E4
331
1203
  5
1203
331
11C5
  5
11C5
331
1222
  5
1222
331
1178
  5
1178
331
1197
  5
1197
331
11B6
  5
11B6
331
1123
  5
1123
331
1142
  5
1142
331
1159
  5
1159
331
14FB
  5
14FB
331
1512
  5
1512
331
14BD
  5
14BD
331
14DC
  5
14DC
331
1487
  5
1487
331
149E
  5
149E
331
1531
  5
1531
331
142A
  5
142A
331
1449
  5
1449
331
13F4
  5
13F4
331
13B6
  5
13B6
331
13D5
  5
13D5
331
1413
  5
1413
331
1468
  5
1468
331
1259
  5
1259
331
1278
  5
1278
331
1204
  5
1204
331
1223
  5
1223
331
11C6
  5
11C6
331
11E5
  5
11E5
331
123A
  5
123A
331
1198
  5
1198
331
11B7
  5
11B7
331
1143
  5
1143
331
115A
  5
115A
331
1124
  5
1124
331
1179
  5
1179
331
1532
  5
1532
331
14DD
  5
14DD
331
1488
  5
1488
331
149F
  5
149F
331
1469
  5
1469
331
14BE
  5
14BE
331
14FC
  5
14FC
331
1513
  5
1513
331
13D6
  5
13D6
331
1414
  5
1414
331
142B
  5
142B
331
13B7
  5
13B7
331
144A
  5
144A
331
1279
  5
1279
331
1298
  5
1298
331
1224
  5
1224
331
123B
  5
123B
331
11E6
  5
11E6
331
1205
  5
1205
331
11C7
  5
11C7
331
125A
  5
125A
331
117A
  5
117A
331
1199
  5
1199
331
11B8
  5
11B8
331
1125
  5
1125
331
1144
  5
1144
331
115B
  5
115B
331
14FD
  5
14FD
331
14BF
  5
14BF
331
14DE
  5
14DE
331
1489
  5
1489
331
14A0
  5
14A0
331
1533
  5
1533
331
142C
  5
142C
331
144B
  5
144B
331
13B8
  5
13B8
331
13D7
  5
13D7
331
1415
  5
1415
331
146A
  5
146A
331
1299
  5
1299
331
12B0
  5
12B0
331
125B
  5
125B
331
127A
  5
127A
331
1206
  5
1206
331
1225
  5
1225
331
11C8
  5
11C8
331
11E7
  5
11E7
331
123C
  5
123C
331
119A
  5
119A
331
11B9
  5
11B9
331
1145
  5
1145
331
115C
  5
115C
331
1126
  5
1126
331
117B
  5
117B
331
1534
  5
1534
331
14DF
  5
14DF
331
148A
  5
148A
331
14A1
  5
14A1
331
144C
  5
144C
331
146B
  5
146B
331
1416
  5
1416
331
142D
  5
142D
331
14C0
  5
14C0
331
14FE
  5
14FE
331
13D8
  5
13D8
331
13F7
  5
13F7
331
13B9
  5
13B9
331
12B1
  5
12B1
331
12D0
  5
12D0
331
127B
  5
127B
331
129A
  5
129A
331
1226
  5
1226
331
123D
  5
123D
331
11E8
  5
11E8
331
1207
  5
1207
331
11C9
  5
11C9
331
125C
  5
125C
331
117C
  5
117C
331
119B
  5
119B
331
11BA
  5
11BA
331
1127
  5
1127
331
1146
  5
1146
331
115D
  5
115D
331
1564
  5
1564
331
14FF
  5
14FF
331
1516
  5
1516
331
14C1
  5
14C1
331
14E0
  5
14E0
331
148B
  5
148B
331
14A2
  5
14A2
331
1535
  5
1535
331
142E
  5
142E
331
144D
  5
144D
331
13F8
  5
13F8
331
13BA
  5
13BA
331
13D9
  5
13D9
331
1417
  5
1417
331
146C
  5
146C
331
12D1
  5
12D1
331
12F0
  5
12F0
331
129B
  5
129B
331
12B2
  5
12B2
331
123E
  5
123E
331
125D
  5
125D
331
1208
  5
1208
331
1227
  5
1227
331
11CA
  5
11CA
331
11E9
  5
11E9
331
127C
  5
127C
331
119C
  5
119C
331
11BB
  5
11BB
331
1147
  5
1147
331
115E
  5
115E
331
1109
  5
1109
331
1128
  5
1128
331
117D
  5
117D
331
1601
  5
1601
331
1565
  5
1565
331
1536
  5
1536
331
14E1
  5
14E1
331
148C
  5
148C
331
14A3
  5
14A3
331
144E
  5
144E
331
146D
  5
146D
331
142F
  5
142F
331
14C2
  5
14C2
331
1500
  5
1500
331
13BB
  5
13BB
331
13DA
  5
13DA
331
13F9
  5
13F9
331
1517
  5
1517
331
12F1
  5
12F1
331
1310
  5
1310
331
12B3
  5
12B3
331
12D2
  5
12D2
331
129C
  5
129C
331
1228
  5
1228
331
123F
  5
123F
331
11EA
  5
11EA
331
1209
  5
1209
331
11CB
  5
11CB
331
125E
  5
125E
331
115F
  5
115F
331
1129
  5
1129
331
117E
  5
117E
331
119D
  5
119D
331
11BC
  5
11BC
331
1566
  5
1566
331
1501
  5
1501
331
1518
  5
1518
331
14C3
  5
14C3
331
14E2
  5
14E2
331
146E
  5
146E
331
1430
  5
1430
331
13FA
  5
13FA
331
144F
  5
144F
331
148D
  5
148D
331
14A4
  5
14A4
331
1537
  5
1537
331
13BC
  5
13BC
331
13DB
  5
13DB
331
1328
  5
1328
331
12D3
  5
12D3
331
12F2
  5
12F2
331
129D
  5
129D
331
12B4
  5
12B4
331
1240
  5
1240
331
125F
  5
125F
331
127E
  5
127E
331
120A
  5
120A
331
11CC
  5
11CC
331
11EB
  5
11EB
331
1229
  5
1229
331
1311
  5
1311
331
119E
  5
119E
331
11BD
  5
11BD
331
1160
  5
1160
331
10DC
  5
10DC
331
112A
  5
112A
331
117F
  5
117F
331
1519
  5
1519
331
1567
  5
1567
331
14E3
  5
14E3
331
148E
  5
148E
331
14A5
  5
14A5
331
1450
  5
1450
331
146F
  5
146F
331
1431
  5
1431
331
14C4
  5
14C4
331
1502
  5
1502
331
13BD
  5
13BD
331
13DC
  5
13DC
331
13FB
  5
13FB
331
1348
  5
1348
331
12F3
  5
12F3
331
1312
  5
1312
331
12B5
  5
12B5
331
12D4
  5
12D4
331
1260
  5
1260
331
127F
  5
127F
331
122A
  5
122A
331
1241
  5
1241
331
11EC
  5
11EC
331
120B
  5
120B
331
129E
  5
129E
331
1329
  5
1329
331
11CD
  5
11CD
331
11BE
  5
11BE
331
1161
  5
1161
331
112B
  5
112B
331
1180
  5
1180
331
119F
  5
119F
331
10DD
  5
10DD
331
1503
  5
1503
331
151A
  5
151A
331
14C5
  5
14C5
331
14E4
  5
14E4
331
1470
  5
1470
331
1432
  5
1432
331
13DD
  5
13DD
331
13FC
  5
13FC
331
13BE
  5
13BE
331
1451
  5
1451
331
148F
  5
148F
331
14A6
  5
14A6
331
1368
  5
1368
331
1313
  5
1313
331
132A
  5
132A
331
12D5
  5
12D5
331
12F4
  5
12F4
331
129F
  5
129F
331
12B6
  5
12B6
331
1349
  5
1349
331
1242
  5
1242
331
1261
  5
1261
331
1280
  5
1280
331
120C
  5
120C
331
11CE
  5
11CE
331
11ED
  5
11ED
331
122B
  5
122B
331
1181
  5
1181
331
11A0
  5
11A0
331
11BF
  5
11BF
331
1162
  5
1162
331
10DE
  5
10DE
331
112C
  5
112C
331
151B
  5
151B
331
14E5
  5
14E5
331
14A7
  5
14A7
331
1452
  5
1452
331
1471
  5
1471
331
1433
  5
1433
331
14C6
  5
14C6
331
1504
  5
1504
331
13BF
  5
13BF
331
13DE
  5
13DE
331
13FD
  5
13FD
331
1388
  5
1388
331
134A
  5
134A
331
1369
  5
1369
331
12F5
  5
12F5
331
1314
  5
1314
331
12A0
  5
12A0
331
12B7
  5
12B7
331
1262
  5
1262
331
1281
  5
1281
331
122C
  5
122C
331
1243
  5
1243
331
12D6
  5
12D6
331
11CF
  5
11CF
331
11EE
  5
11EE
331
120D
  5
120D
331
132B
  5
132B
331
1163
  5
1163
331
10DF
  5
10DF
331
112D
  5
112D
331
1182
  5
1182
331
11A1
  5
11A1
331
1505
  5
1505
331
151C
  5
151C
331
14C7
  5
14C7
331
14E6
  5
14E6
331
1472
  5
1472
331
1434
  5
1434
331
13DF
  5
13DF
331
13FE
  5
13FE
331
1453
  5
1453
331
14A8
  5
14A8
331
136A
  5
136A
331
1389
  5
1389
331
1315
  5
1315
331
132C
  5
132C
331
12D7
  5
12D7
331
12F6
  5
12F6
331
1282
  5
1282
331
122D
  5
122D
331
1244
  5
1244
331
120E
  5
120E
331
1263
  5
1263
331
12A1
  5
12A1
331
12B8
  5
12B8
331
134B
  5
134B
331
11D0
  5
11D0
331
11EF
  5
11EF
331
1183
  5
1183
331
11A2
  5
11A2
331
1164
  5
1164
331
112E
  5
112E
331
151D
  5
151D
331
14E7
  5
14E7
331
14A9
  5
14A9
331
1454
  5
1454
331
1473
  5
1473
331
1435
  5
1435
331
14C8
  5
14C8
331
1506
  5
1506
331
138A
  5
138A
331
132D
  5
132D
331
134C
  5
134C
331
12F7
  5
12F7
331
1316
  5
1316
331
12A2
  5
12A2
331
12B9
  5
12B9
331
1264
  5
1264
331
1283
  5
1283
331
122E
  5
122E
331
1245
  5
1245
331
12D8
  5
12D8
331
136B
  5
136B
331
11D1
  5
11D1
331
11F0
  5
11F0
331
120F
  5
120F
331
11A3
  5
11A3
331
1165
  5
1165
331
112F
  5
112F
331
1184
  5
1184
331
1507
  5
1507
331
151E
  5
151E
331
14AA
  5
14AA
331
1474
  5
1474
331
14C9
  5
14C9
331
1436
  5
1436
331
1455
  5
1455
331
14E8
  5
14E8
331
136C
  5
136C
331
138B
  5
138B
331
1317
  5
1317
331
132E
  5
132E
331
12D9
  5
12D9
331
12F8
  5
12F8
331
1284
  5
1284
331
122F
  5
122F
331
1246
  5
1246
331
11F1
  5
11F1
331
1210
  5
1210
331
11D2
  5
11D2
331
1265
  5
1265
331
12A3
  5
12A3
331
12BA
  5
12BA
331
134D
  5
134D
331
1185
  5
1185
331
11A4
  5
11A4
331
1166
  5
1166
331
151F
  5
151F
331
14E9
  5
14E9
331
15AC
  5
15AC
331
14AB
  5
14AB
331
1456
  5
1456
331
1475
  5
1475
331
1437
  5
1437
331
14CA
  5
14CA
331
138C
  5
138C
331
132F
  5
132F
331
134E
  5
134E
331
136D
  5
136D
331
12F9
  5
12F9
331
12A4
  5
12A4
331
12BB
  5
12BB
331
1266
  5
1266
331
1285
  5
1285
331
1230
  5
1230
331
1247
  5
1247
331
12DA
  5
12DA
331
1318
  5
1318
331
11D3
  5
11D3
331
11F2
  5
11F2
331
1211
  5
1211
331
11A5
  5
11A5
331
1167
  5
1167
331
1186
  5
1186
  0
DIMASSOC
  5
1594
102
{ACAD_REACTORS
330
1593
102
}
330
1593
100
AcDbDimAssoc
330
1586
 90
        3
 70
     0
 71
     0
  1
AcDbOsnapPointRef
 72
     1
331
1279
 73
     0
 91
        0
 40
0.0
 10
0.0
 20
0.0
 30
2.000000000000000E+50
 75
     0
  1
AcDbOsnapPointRef
 72
    13
331
127A
 73
     0
 91
        0
 40
0.0
 10
0.0
 20
0.0
 30
2.000000000000000E+50
 75
     0
  0
DIMASSOC
  5
15BA
102
{ACAD_REACTORS
330
15B9
102
}
330
15B9
100
AcDbDimAssoc
330
15AC
 90
        3
 70
     0
 71
     0
  1
AcDbOsnapPointRef
 72
     1
331
1402
 73
     0
 91
        0
 40
0.0
 10
0.0
 20
0.0
 30
2.000000000000000E+50
 75
     0
  1
AcDbOsnapPointRef
 72
    13
331
13FB
 73
     0
 91
        0
 40
0.0
 10
0.0
 20
0.0
 30
2.000000000000000E+50
 75
     0
  0
DIMASSOC
  5
15F4
102
{ACAD_REACTORS
330
15F3
102
}
330
15F3
100
AcDbDimAssoc
330
15E6
 90
        3
 70
     0
 71
     0
  1
AcDbOsnapPointRef
 72
    13
331
127C
 73
     0
 91
        0
 40
0.0
 10
0.0
 20
0.0
 30
2.000000000000000E+50
 75
     0
  1
AcDbOsnapPointRef
 72
     1
331
1246
 73
     0
 91
        0
 40
0.0
 10
0.0
 20
0.0
 30
2.000000000000000E+50
 75
     0
  0
LAYOUT
  5
22
102
{ACAD_XDICTIONARY
360
188D
102
}
102
{ACAD_REACTORS
330
1A
102
}
330
1A
100
AcDbPlotSettings
  1

  2
\\RD\EPSON Stylus C63 Series單色
  4
A4
  6

 40
3.757083177566528
 41
3.757076978683471
 42
3.757080078125
 43
3.757080078125
 44
209.9733276367187
 45
296.9683227539062
 46
0.0
 47
0.0
 48
0.0
 49
0.0
140
0.0
141
0.0
142
1.0
143
0.3405120737814363
 70
 11952
 72
     1
 73
     0
 74
     0
  7
彩色出圖.ctb
 75
     0
147
2.936753428137963
148
-2047.07469463503
149
-1261.649717473083
100
AcDbLayout
  1
Model
 70
     1
 71
     0
 10
0.0
 20
0.0
 11
12.0
 21
9.0
 12
0.0
 22
0.0
 32
0.0
 14
0.0
 24
0.0
 34
0.0
 15
0.0
 25
0.0
 35
0.0
146
0.0
 13
0.0
 23
0.0
 33
0.0
 16
1.0
 26
0.0
 36
0.0
 17
0.0
 27
1.0
 37
0.0
 76
     0
330
1F
1001
ACAD_PSEXT
1000
\\RD\EPSON Stylus C63 Series單色
1000
EPSON Stylus C63 Series
1000
\\RD
1000

1070
     0
  0
LAYOUT
  5
1E
102
{ACAD_XDICTIONARY
360
188B
102
}
102
{ACAD_REACTORS
330
1A
102
}
330
1A
100
AcDbPlotSettings
  1

  2

  4

  6

 40
0.0
 41
0.0
 42
0.0
 43
0.0
 44
0.0
 45
0.0
 46
0.0
 47
0.0
 48
0.0
 49
0.0
140
0.0
141
0.0
142
1.0
143
1.0
 70
   688
 72
     0
 73
     0
 74
     5
  7
彩色出圖.ctb
 75
    16
147
1.0
148
0.0
149
0.0
100
AcDbLayout
  1
配置1
 70
     1
 71
     1
 10
0.0
 20
0.0
 11
420.0
 21
297.0
 12
0.0
 22
0.0
 32
0.0
 14
1.000000000000000E+20
 24
1.000000000000000E+20
 34
1.000000000000000E+20
 15
-1.000000000000000E+20
 25
-1.000000000000000E+20
 35
-1.000000000000000E+20
146
0.0
 13
0.0
 23
0.0
 33
0.0
 16
1.0
 26
0.0
 36
0.0
 17
0.0
 27
1.0
 37
0.0
 76
     0
330
1B
  0
LAYOUT
  5
26
102
{ACAD_XDICTIONARY
360
188F
102
}
102
{ACAD_REACTORS
330
1A
102
}
330
1A
100
AcDbPlotSettings
  1

  2

  4

  6

 40
0.0
 41
0.0
 42
0.0
 43
0.0
 44
0.0
 45
0.0
 46
0.0
 47
0.0
 48
0.0
 49
0.0
140
0.0
141
0.0
142
1.0
143
1.0
 70
   688
 72
     0
 73
     0
 74
     5
  7
彩色出圖.ctb
 75
    16
147
1.0
148
0.0
149
0.0
100
AcDbLayout
  1
配置2
 70
     1
 71
     2
 10
0.0
 20
0.0
 11
12.0
 21
9.0
 12
0.0
 22
0.0
 32
0.0
 14
0.0
 24
0.0
 34
0.0
 15
0.0
 25
0.0
 35
0.0
146
0.0
 13
0.0
 23
0.0
 33
0.0
 16
1.0
 26
0.0
 36
0.0
 17
0.0
 27
1.0
 37
0.0
 76
     0
330
23
  0
MLINESTYLE
  5
18
102
{ACAD_REACTORS
330
17
102
}
330
17
100
AcDbMlineStyle
  2
STANDARD
 70
     0
  3

 62
   256
 51
90.0
 52
90.0
 71
     2
 49
0.5
 62
   256
  6
BYLAYER
 49
-0.5
 62
   256
  6
BYLAYER
  0
ACDBPLACEHOLDER
  5
F
102
{ACAD_REACTORS
330
E
102
}
330
E
  0
TABLESTYLE
  5
11B
102
{ACAD_REACTORS
330
11A
102
}
330
11A
100
AcDbTableStyle
  3
Standard
 70
     0
 71
     0
 40
1.5
 41
1.5
280
     0
281
     0
  7
STANDARD
140
4.5
170
     2
 62
     0
 63
     7
283
     0
274
    -2
284
     1
 64
     0
275
    -2
285
     1
 65
     0
276
    -2
286
     1
 66
     0
277
    -2
287
     1
 67
     0
278
    -2
288
     1
 68
     0
279
    -2
289
     1
 69
     0
  7
STANDARD
140
6.0
170
     5
 62
     0
 63
     7
283
     0
274
    -2
284
     1
 64
     0
275
    -2
285
     1
 65
     0
276
    -2
286
     1
 66
     0
277
    -2
287
     1
 67
     0
278
    -2
288
     1
 68
     0
279
    -2
289
     1
 69
     0
  7
STANDARD
140
4.5
170
     5
 62
     0
 63
     7
283
     0
274
    -2
284
     1
 64
     0
275
    -2
285
     1
 65
     0
276
    -2
286
     1
 66
     0
277
    -2
287
     1
 67
     0
278
    -2
288
     1
 68
     0
279
    -2
289
     1
 69
     0
  0
DICTIONARYVAR
  5
138
102
{ACAD_REACTORS
330
94
102
}
330
94
100
DictionaryVariables
280
     0
  1
STANDARD
  0
DICTIONARYVAR
  5
96
102
{ACAD_REACTORS
330
94
102
}
330
94
100
DictionaryVariables
280
     0
  1
2
  0
DICTIONARYVAR
  5
95
102
{ACAD_REACTORS
330
94
102
}
330
94
100
DictionaryVariables
280
     0
  1
0
  0
DICTIONARYVAR
  5
1887
102
{ACAD_REACTORS
330
94
102
}
330
94
100
DictionaryVariables
280
     0
  1

  0
DICTIONARY
  5
1B5
102
{ACAD_REACTORS
330
5B
102
}
330
5B
100
AcDbDictionary
281
     1
  0
DICTIONARY
  5
61
102
{ACAD_REACTORS
330
5B
102
}
330
5B
100
AcDbDictionary
281
     1
  0
XRECORD
  5
123
102
{ACAD_REACTORS
330
5B
102
}
330
5B
100
AcDbXrecord
280
     1
 90
-1023410169
  0
DICTIONARY
  5
188D
330
22
100
AcDbDictionary
280
     1
281
     1
  3
ACAD_XREC_ROUNDTRIP
360
188E
  0
DICTIONARY
  5
188B
330
1E
100
AcDbDictionary
280
     1
281
     1
  3
ACAD_XREC_ROUNDTRIP
360
188C
  0
DICTIONARY
  5
188F
330
26
100
AcDbDictionary
280
     1
281
     1
  3
ACAD_XREC_ROUNDTRIP
360
1890
  0
XRECORD
  5
188E
102
{ACAD_REACTORS
330
188D
102
}
330
188D
100
AcDbXrecord
280
     1
102
SHADEPLOT
 70
     0
102
SHADEPLOTRESLEVEL
 70
     2
102
SHADEPLOTCUSTOMDPI
 70
   300
  0
XRECORD
  5
188C
102
{ACAD_REACTORS
330
188B
102
}
330
188B
100
AcDbXrecord
280
     1
102
SHADEPLOT
 70
     0
102
SHADEPLOTRESLEVEL
 70
     2
102
SHADEPLOTCUSTOMDPI
 70
   300
  0
XRECORD
  5
1890
102
{ACAD_REACTORS
330
188F
102
}
330
188F
100
AcDbXrecord
280
     1
102
SHADEPLOT
 70
     0
102
SHADEPLOTRESLEVEL
 70
     2
102
SHADEPLOTCUSTOMDPI
 70
   300
  0
ENDSEC
  0
EOF
