  0
SECTION
  2
HEADER
  9
$ACADVER
  1
AC1015
  9
$ACADMAINTVER
 70
    20
  9
$DWGCODEPAGE
  3
ANSI_950
  9
$INSBASE
 10
0.0
 20
0.0
 30
0.0
  9
$EXTMIN
 10
132.8714000583527
 20
181.212843416299
 30
-0.0043991851715646
  9
$EXTMAX
 10
328.0801400310363
 20
401.2543849049357
 30
144.16789819254
  9
$LIMMIN
 10
0.0
 20
0.0
  9
$LIMMAX
 10
420.0
 20
297.0
  9
$ORTHOMODE
 70
     1
  9
$REGENMODE
 70
     1
  9
$FILLMODE
 70
     1
  9
$QTEXTMODE
 70
     0
  9
$MIRRTEXT
 70
     1
  9
$LTSCALE
 40
1.0
  9
$ATTMODE
 70
     1
  9
$TEXTSIZE
 40
3.0
  9
$TRACEWID
 40
1.0
  9
$TEXTSTYLE
  7
STANDARD
  9
$CLAYER
  8
0
  9
$CELTYPE
  6
ByLayer
  9
$CECOLOR
 62
   256
  9
$CELTSCALE
 40
1.0
  9
$DISPSILH
 70
     0
  9
$DIMSCALE
 40
1.0
  9
$DIMASZ
 40
3.0
  9
$DIMEXO
 40
1.5
  9
$DIMDLI
 40
8.0
  9
$DIMRND
 40
0.0
  9
$DIMDLE
 40
0.0
  9
$DIMEXE
 40
1.5
  9
$DIMTP
 40
0.1
  9
$DIMTM
 40
0.1
  9
$DIMTXT
 40
3.5
  9
$DIMCEN
 40
0.0
  9
$DIMTSZ
 40
0.0
  9
$DIMTOL
 70
     0
  9
$DIMLIM
 70
     0
  9
$DIMTIH
 70
     0
  9
$DIMTOH
 70
     0
  9
$DIMSE1
 70
     0
  9
$DIMSE2
 70
     0
  9
$DIMTAD
 70
     1
  9
$DIMZIN
 70
     8
  9
$DIMBLK
  1

  9
$DIMASO
 70
     1
  9
$DIMSHO
 70
     1
  9
$DIMPOST
  1

  9
$DIMAPOST
  1
"
  9
$DIMALT
 70
     0
  9
$DIMALTD
 70
     2
  9
$DIMALTF
 40
0.0393701
  9
$DIMLFAC
 40
1.0
  9
$DIMTOFL
 70
     1
  9
$DIMTVP
 40
0.0
  9
$DIMTIX
 70
     0
  9
$DIMSOXD
 70
     0
  9
$DIMSAH
 70
     0
  9
$DIMBLK1
  1

  9
$DIMBLK2
  1

  9
$DIMSTYLE
  2
AM_ISO
  9
$DIMCLRD
 70
   256
  9
$DIMCLRE
 70
   256
  9
$DIMCLRT
 70
   256
  9
$DIMTFAC
 40
0.71
  9
$DIMGAP
 40
1.5
  9
$DIMJUST
 70
     0
  9
$DIMSD1
 70
     0
  9
$DIMSD2
 70
     0
  9
$DIMTOLJ
 70
     0
  9
$DIMTZIN
 70
     8
  9
$DIMALTZ
 70
     0
  9
$DIMALTTZ
 70
     0
  9
$DIMUPT
 70
     0
  9
$DIMDEC
 70
     2
  9
$DIMTDEC
 70
     2
  9
$DIMALTU
 70
     2
  9
$DIMALTTD
 70
     2
  9
$DIMTXSTY
  7
STANDARD
  9
$DIMAUNIT
 70
     0
  9
$DIMADEC
 70
     0
  9
$DIMALTRND
 40
0.0
  9
$DIMAZIN
 70
     2
  9
$DIMDSEP
 70
    46
  9
$DIMATFIT
 70
     3
  9
$DIMFRAC
 70
     0
  9
$DIMLDRBLK
  1

  9
$DIMLUNIT
 70
     2
  9
$DIMLWD
 70
    -1
  9
$DIMLWE
 70
    -1
  9
$DIMTMOVE
 70
     0
  9
$LUNITS
 70
     2
  9
$LUPREC
 70
     2
  9
$SKETCHINC
 40
1.0
  9
$FILLETRAD
 40
2.5
  9
$AUNITS
 70
     0
  9
$AUPREC
 70
     0
  9
$MENU
  1
.
  9
$ELEVATION
 40
0.0
  9
$PELEVATION
 40
0.0
  9
$THICKNESS
 40
0.0
  9
$LIMCHECK
 70
     0
  9
$CHAMFERA
 40
2.5
  9
$CHAMFERB
 40
2.5
  9
$CHAMFERC
 40
20.0
  9
$CHAMFERD
 40
0.0
  9
$SKPOLY
 70
     0
  9
$TDCREATE
 40
2453883.445780521
  9
$TDUCREATE
 40
2453883.112447187
  9
$TDUPDATE
 40
2453883.460290614
  9
$TDUUPDATE
 40
2453883.126957280
  9
$TDINDWG
 40
0.0145109954
  9
$TDUSRTIMER
 40
0.0145109954
  9
$USRTIMER
 70
     1
  9
$ANGBASE
 50
0.0
  9
$ANGDIR
 70
     0
  9
$PDMODE
 70
     0
  9
$PDSIZE
 40
0.0
  9
$PLINEWID
 40
0.0
  9
$SPLFRAME
 70
     0
  9
$SPLINETYPE
 70
     6
  9
$SPLINESEGS
 70
     8
  9
$HANDSEED
  5
6CA
  9
$SURFTAB1
 70
     6
  9
$SURFTAB2
 70
     6
  9
$SURFTYPE
 70
     6
  9
$SURFU
 70
     6
  9
$SURFV
 70
     6
  9
$UCSBASE
  2

  9
$UCSNAME
  2

  9
$UCSORG
 10
0.0
 20
0.0
 30
0.0
  9
$UCSXDIR
 10
1.0
 20
0.0
 30
0.0
  9
$UCSYDIR
 10
0.0
 20
1.0
 30
0.0
  9
$UCSORTHOREF
  2

  9
$UCSORTHOVIEW
 70
     0
  9
$UCSORGTOP
 10
0.0
 20
0.0
 30
0.0
  9
$UCSORGBOTTOM
 10
0.0
 20
0.0
 30
0.0
  9
$UCSORGLEFT
 10
0.0
 20
0.0
 30
0.0
  9
$UCSORGRIGHT
 10
0.0
 20
0.0
 30
0.0
  9
$UCSORGFRONT
 10
0.0
 20
0.0
 30
0.0
  9
$UCSORGBACK
 10
0.0
 20
0.0
 30
0.0
  9
$PUCSBASE
  2

  9
$PUCSNAME
  2

  9
$PUCSORG
 10
0.0
 20
0.0
 30
0.0
  9
$PUCSXDIR
 10
1.0
 20
0.0
 30
0.0
  9
$PUCSYDIR
 10
0.0
 20
1.0
 30
0.0
  9
$PUCSORTHOREF
  2

  9
$PUCSORTHOVIEW
 70
     0
  9
$PUCSORGTOP
 10
0.0
 20
0.0
 30
0.0
  9
$PUCSORGBOTTOM
 10
0.0
 20
0.0
 30
0.0
  9
$PUCSORGLEFT
 10
0.0
 20
0.0
 30
0.0
  9
$PUCSORGRIGHT
 10
0.0
 20
0.0
 30
0.0
  9
$PUCSORGFRONT
 10
0.0
 20
0.0
 30
0.0
  9
$PUCSORGBACK
 10
0.0
 20
0.0
 30
0.0
  9
$USERI1
 70
     0
  9
$USERI2
 70
     0
  9
$USERI3
 70
     0
  9
$USERI4
 70
     0
  9
$USERI5
 70
     0
  9
$USERR1
 40
0.0
  9
$USERR2
 40
0.0
  9
$USERR3
 40
0.0
  9
$USERR4
 40
0.0
  9
$USERR5
 40
0.0
  9
$WORLDVIEW
 70
     1
  9
$SHADEDGE
 70
     3
  9
$SHADEDIF
 70
    70
  9
$TILEMODE
 70
     1
  9
$MAXACTVP
 70
    64
  9
$PINSBASE
 10
0.0
 20
0.0
 30
0.0
  9
$PLIMCHECK
 70
     0
  9
$PEXTMIN
 10
1.000000000000000E+20
 20
1.000000000000000E+20
 30
1.000000000000000E+20
  9
$PEXTMAX
 10
-1.000000000000000E+20
 20
-1.000000000000000E+20
 30
-1.000000000000000E+20
  9
$PLIMMIN
 10
0.0
 20
0.0
  9
$PLIMMAX
 10
420.0
 20
297.0
  9
$UNITMODE
 70
     0
  9
$VISRETAIN
 70
     1
  9
$PLINEGEN
 70
     0
  9
$PSLTSCALE
 70
     1
  9
$TREEDEPTH
 70
  3020
  9
$CMLSTYLE
  2
Standard
  9
$CMLJUST
 70
     0
  9
$CMLSCALE
 40
20.0
  9
$PROXYGRAPHICS
 70
     1
  9
$MEASUREMENT
 70
     1
  9
$CELWEIGHT
370
    -1
  9
$ENDCAPS
280
     0
  9
$JOINSTYLE
280
     0
  9
$LWDISPLAY
290
     0
  9
$INSUNITS
 70
     4
  9
$HYPERLINKBASE
  1

  9
$STYLESHEET
  1
彩色出圖.ctb
  9
$XEDIT
290
     1
  9
$CEPSNTYPE
380
     0
  9
$PSTYLEMODE
290
     1
  9
$FINGERPRINTGUID
  2
{D5E7D991-1793-4CFF-B516-00AB579B5378}
  9
$VERSIONGUID
  2
{1209B14C-6FF9-4075-97C2-26D312324EEF}
  9
$EXTNAMES
290
     1
  9
$PSVPSCALE
 40
0.0
  9
$OLESTARTUP
290
     0
  0
ENDSEC
  0
SECTION
  2
CLASSES
  0
CLASS
  1
ACDBDICTIONARYWDFLT
  2
AcDbDictionaryWithDefault
  3
ObjectDBX Classes
 90
        0
280
     0
281
     0
  0
CLASS
  1
ACDBPLACEHOLDER
  2
AcDbPlaceHolder
  3
ObjectDBX Classes
 90
        0
280
     0
281
     0
  0
CLASS
  1
LAYOUT
  2
AcDbLayout
  3
ObjectDBX Classes
 90
        0
280
     0
281
     0
  0
CLASS
  1
ACME_DOCUMENT
  2
AcMeDbDoc
  3
AcMeServices
 90
        0
280
     0
281
     0
  0
CLASS
  1
AMGSETTINGSOBJ
  2
AmgSettingsObj
  3
"AcadM|Product Description: AutoCAD Mechanical 2000|Company: Autodesk"
 90
        0
280
     0
281
     0
  0
CLASS
  1
ACMESCOPE
  2
AcMeScope
  3
AcMeServices
 90
        0
280
     0
281
     0
  0
CLASS
  1
ACMECOMMANDHISTORY
  2
AcMeCommandHistory
  3
AcMeServices
 90
        0
280
     0
281
     0
  0
CLASS
  1
ACIMSYSVARMAN
  2
AcImSysVarManager
  3
AcMeServices
 90
        0
280
     0
281
     0
  0
CLASS
  1
ACIMREALSYSVAR
  2
AcImRealSysVar
  3
AcMeServices
 90
        0
280
     0
281
     0
  0
CLASS
  1
ACIMINTSYSVAR
  2
AcImIntSysVar
  3
AcMeServices
 90
        0
280
     0
281
     0
  0
CLASS
  1
ACMEDRAWINGMAN
  2
AcMeDrawingMan
  3
AcMeServices
 90
        0
280
     0
281
     0
  0
CLASS
  1
ACMEVIEW
  2
AcMeView
  3
AcMeServices
 90
        0
280
     0
281
     0
  0
CLASS
  1
ACDBENTITYCACHE
  2
AcMeEntityCache
  3
AcMeServices
 90
        0
280
     0
281
     0
  0
CLASS
  1
GSMANAGER
  2
AcMeGSManager
  3
AcMeServices
 90
        0
280
     0
281
     0
  0
CLASS
  1
AMDTINTERNALREACTOR
  2
AmdtInternalReactor
  3
AcMeServices
 90
        0
280
     0
281
     0
  0
CLASS
  1
ACMESTATEMGR
  2
AcMeStateMgr
  3
AcMeServices
 90
        0
280
     0
281
     0
  0
CLASS
  1
ACGREFMASTER
  2
AcGrefMaster
  3
AcAttribServices
 90
        0
280
     0
281
     0
  0
CLASS
  1
ACME_DATABASE
  2
AcMeDbDatabase
  3
AcMeServices
 90
        0
280
     0
281
     0
  0
CLASS
  1
ACRFINSADJUSTERMGR
  2
AcRfInsAdjusterMgr
  3
AcMeServices
 90
        0
280
     0
281
     0
  0
CLASS
  1
ACGREFACADMASTER
  2
AcGrefacadMaster
  3
AcGrefServices
 90
        0
280
     0
281
     0
  0
CLASS
  1
AMIMASTER
  2
AmiMaster
  3
AmiServices
 90
        0
280
     0
281
     0
  0
CLASS
  1
ACMDATADICTIONARY
  2
AcmDataDictionary
  3
"AcmSymBB|Product Description: AutoCAD Mechanical 2004 DX|Company: Autodesk"
 90
        0
280
     0
281
     0
  0
CLASS
  1
ACMDATAENTRYBLOCK
  2
AcmDataEntryBlock
  3
"AcmSymBB|Product Description: AutoCAD Mechanical 2004 DX|Company: Autodesk"
 90
        0
280
     0
281
     0
  0
CLASS
  1
ACIMSTRSYSVAR
  2
AcImStrSysVar
  3
AcMeServices
 90
        0
280
     0
281
     0
  0
CLASS
  1
ACMSTANDARDISO
  2
AcmStandardISO
  3
"Amdt_StdImp|Product Description: AutoCAD Mechanical 2004 DX|Company: Autodesk"
 90
        0
280
     0
281
     0
  0
CLASS
  1
AMGOBJPROPCFG
  2
AmgObjPropCfg
  3
"AmgLay|Product Description: AutoCAD Mechanical 2000|Company: Autodesk"
 90
        1
280
     0
281
     0
  0
CLASS
  1
AMDTEDGESTANDARDISO
  2
AmdtEdgeStdISO
  3
"Amdt_StdImp|Product Description: AutoCAD Mechanical 2004 DX|Company: Autodesk"
 90
        0
280
     0
281
     0
  0
CLASS
  1
ACMSURFSTANDARDISO
  2
AcmSurfTextStdISO
  3
"Amdt_StdImp|Product Description: AutoCAD Mechanical 2004 DX|Company: Autodesk"
 90
        0
280
     0
281
     0
  0
CLASS
  1
ACMFCFSTANDARDISO
  2
AcmFCFStdISO
  3
"Amdt_StdImp|Product Description: AutoCAD Mechanical 2004 DX|Company: Autodesk"
 90
        0
280
     0
281
     0
  0
CLASS
  1
ACMWELDSTANDARDISO
  2
AcmWeldingStdISO
  3
"Amdt_StdImp|Product Description: AutoCAD Mechanical 2004 DX|Company: Autodesk"
 90
        0
280
     0
281
     0
  0
CLASS
  1
ACMIDSTANDARDISO
  2
AcmIdStdISO
  3
"Amdt_StdImp|Product Description: AutoCAD Mechanical 2004 DX|Company: Autodesk"
 90
        0
280
     0
281
     0
  0
CLASS
  1
ACMDATUMSTANDARDISO
  2
AcmDatumStdISO
  3
"Amdt_StdImp|Product Description: AutoCAD Mechanical 2004 DX|Company: Autodesk"
 90
        0
280
     0
281
     0
  0
CLASS
  1
ACMBOMSTANDARDISO
  2
AcmBOMStdISO
  3
"Amdt_StdImp|Product Description: AutoCAD Mechanical 2004 DX|Company: Autodesk"
 90
        0
280
     0
281
     0
  0
CLASS
  1
ACMDETAILSTANDARDISO
  2
AmdtDetailSymStdISO
  3
"Amdt_StdImp|Product Description: AutoCAD Mechanical 2004 DX|Company: Autodesk"
 90
        0
280
     0
281
     0
  0
CLASS
  1
ACMSECTIONSTANDARDISO
  2
AmdtSectionSymStdISO
  3
"Amdt_StdImp|Product Description: AutoCAD Mechanical 2004 DX|Company: Autodesk"
 90
        0
280
     0
281
     0
  0
CLASS
  1
ACMCENTERLINESTANDARDISO
  2
AmdtCenterLineStdISO
  3
"Amdt_StdImp|Product Description: AutoCAD Mechanical 2004 DX|Company: Autodesk"
 90
        0
280
     0
281
     0
  0
CLASS
  1
ACMNOTESTANDARDISO
  2
AmdtNoteStdISO
  3
"Amdt_StdImp|Product Description: AutoCAD Mechanical 2004 DX|Company: Autodesk"
 90
        0
280
     0
281
     0
  0
CLASS
  1
ACAMGLAYSTD
  2
AcAmgLayStd
  3
"AcAmgLayStd|Product Description: AutoCAD Mechanical 2000|Company: Autodesk"
 90
        0
280
     0
281
     0
  0
CLASS
  1
ACAMGDIMSTD
  2
AcAmgDimStd
  3
"AcAmgDimStd|Product Description: AutoCAD Mechanical 2000|Company: Autodesk"
 90
        0
280
     0
281
     0
  0
CLASS
  1
ACAMGHOLECHARTSTDISO
  2
AcAmgHoleChartStdISO
  3
ACMSYMBB_MODULE_NAME
 90
        0
280
     0
281
     0
  0
CLASS
  1
ACAMGTITLESTD
  2
AcAmgTitleStd
  3
"TITLEAPP"
 90
        0
280
     0
281
     0
  0
CLASS
  1
LAYER_INDEX
  2
AcDbLayerIndex
  3
ObjectDBX Classes
 90
    32768
280
     0
281
     0
  0
CLASS
  1
IDBUFFER
  2
AcDbIdBuffer
  3
ObjectDBX Classes
 90
    32768
280
     0
281
     0
  0
CLASS
  1
DICTIONARYVAR
  2
AcDbDictionaryVar
  3
ObjectDBX Classes
 90
        0
280
     0
281
     0
  0
CLASS
  1
AM_DRAWING_MGR
  2
AcDmDwgMgr
  3
AcMechDwgViewMgmt
 90
        0
280
     0
281
     0
  0
CLASS
  1
AM_DWG_DOCUMENT
  2
AcDmDwgDocument
  3
AcMechDwgViewMgmt
 90
        0
280
     0
281
     0
  0
CLASS
  1
AM_DWG_SHEET
  2
AcDmSheet
  3
AcMechDwgViewMgmt
 90
        0
280
     0
281
     0
  0
CLASS
  1
AM_VIEWDIMPARMAP
  2
AcDmViewDimParMap
  3
AcMechDwgViewMgmt
 90
        0
280
     0
281
     0
  0
CLASS
  1
AM_DWGMGR_NAME
  2
AcDmDwgMgrName
  3
AcMechDwgViewMgmt
 90
        0
280
     0
281
     0
  0
CLASS
  1
AMDTMENUSTATEMGR
  2
AmdtMenuStateMgr
  3
McadcomServices
 90
        0
280
     0
281
     0
  0
CLASS
  1
AMDTMCOMMENUSTATE
  2
AmdtMcomMenuState
  3
McadcomServices
 90
        0
280
     0
281
     0
  0
CLASS
  1
MAPIAMMOUDLE
  2
MApiAmModule
  3
MApiAmServices
 90
        0
280
     0
281
     0
  0
CLASS
  1
AMDTADMENUSTATE
  2
AmdtAdMenuState
  3
DesignerServices
 90
        0
280
     0
281
     0
  0
CLASS
  1
ADAPPL
  2
AcAdAppl
  3
DesignerServices
 90
        0
280
     0
281
     0
  0
CLASS
  1
DEPMGR
  2
AcAdDepMgr
  3
DesignerServices
 90
        0
280
     0
281
     0
  0
CLASS
  1
PARAMMGR
  2
AcAdParamMgr
  3
DesignerServices
 90
        0
280
     0
281
     0
  0
CLASS
  1
PARAMSCOPE
  2
AcAdParamScope
  3
DesignerServices
 90
        0
280
     0
281
     0
  0
CLASS
  1
NAMEDAPPL
  2
AcAdNamedAppl
  3
DesignerServices
 90
        0
280
     0
281
     0
  0
CLASS
  1
AMDTDMMENUSTATE
  2
AmdtDmMenuState
  3
AcMechDwgViewMgmt
 90
        0
280
     0
281
     0
  0
CLASS
  1
AMDTAMMENUSTATE
  2
AmdtAmMenuState
  3
DesignerAssemblies
 90
        0
280
     0
281
     0
  0
CLASS
  1
ACAMPROJECT
  2
AcAmProject
  3
DesignerAssemblies
 90
        0
280
     0
281
     0
  0
CLASS
  1
ACAMGRCOMPDEF
  2
AcAmGrCompDef
  3
DesignerAssemblies
 90
        0
280
     0
281
     0
  0
CLASS
  1
ACCMCONTEXT
  2
AcCmContext
  3
DesignerAssemblies
 90
        0
280
     0
281
     0
  0
CLASS
  1
ACAMCOMPDEF
  2
AcAmCompDef
  3
DesignerAssemblies
 90
        0
280
     0
281
     0
  0
CLASS
  1
ACAMCOMPDEFMGR
  2
AcAmCompDefMgr
  3
DesignerAssemblies
 90
        0
280
     0
281
     0
  0
CLASS
  1
AMCONTEXTMGR
  2
AcAmContextMgr
  3
DesignerAssemblies
 90
        0
280
     0
281
     0
  0
CLASS
  1
ACAMCONTEXTMODELER
  2
AcAmContextModeler
  3
DesignerAssemblies
 90
        0
280
     0
281
     0
  0
CLASS
  1
ACMTHREADLINESTANDARDISO
  2
AmdtThreadLineStdISO
  3
"Amdt_StdImp|Product Description: AutoCAD Mechanical 2004 DX|Company: Autodesk"
 90
        0
280
     0
281
     0
  0
CLASS
  1
CATALOGSTATE
  2
AcAmCatalogState
  3
DesignerAssemblies
 90
        0
280
     0
281
     0
  0
CLASS
  1
ACAMGRCOMPDEFSET
  2
AcAmGrCompDefSet
  3
DesignerAssemblies
 90
        0
280
     0
281
     0
  0
CLASS
  1
AMDTBROWSERDBTAB
  2
AmdtBrowserDbTab
  3
McadcomServices
 90
        0
280
     0
281
     0
  0
CLASS
  1
CBROWSERAPPOBJECT
  2
CBrowserAppObject
  3
McadcomServices
 90
        0
280
     0
281
     0
  0
CLASS
  1
DM_PLACEHOLDER
  2
AcDmSelsetPlaceholder
  3
AcMechDwgViewMgmt
 90
        0
280
     0
281
     0
  0
CLASS
  1
TABLESTYLE
  2
AcDbTableStyle
  3
ObjectDBX Classes
 90
     2047
280
     0
281
     0
  0
CLASS
  1
VAACXREFPANELOBJECT
  2
VaAcXREFPanelObject
  3
VAAC_ADDIN
 90
        0
280
     0
281
     0
  0
CLASS
  1
VAACIMAGEINVENTORY
  2
VaAcImageInventory
  3
VAAC_ADDIN
 90
        0
280
     0
281
     0
  0
CLASS
  1
AMDTNOTETEMPLATEDB
  2
AmdtNoteTemplateDB
  3
AMDT_STDIMP_MODULE_NAME
 90
        0
280
     0
281
     0
  0
CLASS
  1
ACMBOM
  2
AcmBom
  3
"AcmSymBB|Product Description: AutoCAD Mechanical 2004 DX|Company: Autodesk"
 90
    32768
280
     0
281
     0
  0
CLASS
  1
AMDTFORMULAUPDATEDISPATCHER
  2
AmdtFormulaUpdateDispatcher
  3
AcMeServices
 90
    32768
280
     0
281
     0
  0
CLASS
  1
ACMPARTLIST
  2
AcmPartList
  3
"AcmSymBB|Product Description: AutoCAD Mechanical 2004 DX|Company: Autodesk"
 90
    33791
280
     0
281
     1
  0
CLASS
  1
ACAMGFILTERDAT
  2
AcAmgFilterDat
  3
"AcadM|Product Description: AutoCAD Mechanical 2000|Company: Autodesk"
 90
        0
280
     0
281
     0
  0
CLASS
  1
DIMASSOC
  2
AcDbDimAssoc
  3
"AcDbDimAssoc|Product Desc:     AcDim ARX App For Dimension|Company:          Autodesk, Inc.|WEB Address:      www.autodesk.com"
 90
    32768
280
     0
281
     0
  0
CLASS
  1
ACMSTANDARDJIS
  2
AcmStandardJIS
  3
"Amdt_StdImp|Product Description: AutoCAD Mechanical 2004 DX|Company: Autodesk"
 90
        0
280
     0
281
     0
  0
CLASS
  1
ACMSURFSTANDARDJIS
  2
AcmSurfTextStdJIS
  3
"Amdt_StdImp|Product Description: AutoCAD Mechanical 2004 DX|Company: Autodesk"
 90
        0
280
     0
281
     0
  0
CLASS
  1
ACMFCFSTANDARDJIS
  2
AcmFCFStdJIS
  3
"Amdt_StdImp|Product Description: AutoCAD Mechanical 2004 DX|Company: Autodesk"
 90
        0
280
     0
281
     0
  0
CLASS
  1
ACMWELDSTANDARDJIS
  2
AcmWeldingStdJIS
  3
"Amdt_StdImp|Product Description: AutoCAD Mechanical 2004 DX|Company: Autodesk"
 90
        0
280
     0
281
     0
  0
CLASS
  1
ACMIDSTANDARDJIS
  2
AcmIdStdJIS
  3
"Amdt_StdImp|Product Description: AutoCAD Mechanical 2004 DX|Company: Autodesk"
 90
        0
280
     0
281
     0
  0
CLASS
  1
ACMDATUMSTANDARDJIS
  2
AcmDatumStdJIS
  3
"Amdt_StdImp|Product Description: AutoCAD Mechanical 2004 DX|Company: Autodesk"
 90
        0
280
     0
281
     0
  0
CLASS
  1
ACMBOMSTANDARDJIS
  2
AcmBOMStdJIS
  3
"Amdt_StdImp|Product Description: AutoCAD Mechanical 2004 DX|Company: Autodesk"
 90
        0
280
     0
281
     0
  0
CLASS
  1
ACMDETAILSTANDARDJIS
  2
AmdtDetailSymStdJIS
  3
"Amdt_StdImp|Product Description: AutoCAD Mechanical 2004 DX|Company: Autodesk"
 90
        0
280
     0
281
     0
  0
CLASS
  1
ACMSECTIONSTANDARDJIS
  2
AmdtSectionSymStdJIS
  3
"Amdt_StdImp|Product Description: AutoCAD Mechanical 2004 DX|Company: Autodesk"
 90
        0
280
     0
281
     0
  0
CLASS
  1
ACMCENTERLINESTANDARDJIS
  2
AmdtCenterLineStdJIS
  3
"Amdt_StdImp|Product Description: AutoCAD Mechanical 2004 DX|Company: Autodesk"
 90
        0
280
     0
281
     0
  0
CLASS
  1
ACMTHREADLINESTANDARDJIS
  2
AmdtThreadLineStdJIS
  3
"Amdt_StdImp|Product Description: AutoCAD Mechanical 2004 DX|Company: Autodesk"
 90
        0
280
     0
281
     0
  0
CLASS
  1
ACMNOTESTANDARDJIS
  2
AmdtNoteStdJIS
  3
"Amdt_StdImp|Product Description: AutoCAD Mechanical 2004 DX|Company: Autodesk"
 90
        0
280
     0
281
     0
  0
CLASS
  1
ACAMGHOLECHARTSTDJIS
  2
AcAmgHoleChartStdJIS
  3
ACMSYMBB_MODULE_NAME
 90
        0
280
     0
281
     0
  0
CLASS
  1
ACRFATTGENMGR
  2
AcRfAttGeneralMgr
  3
AcAttribServices
 90
        0
280
     0
281
     0
  0
ENDSEC
  0
SECTION
  2
TABLES
  0
TABLE
  2
VPORT
  5
8
330
0
100
AcDbSymbolTable
 70
     5
  0
VPORT
  5
6C1
330
8
100
AcDbSymbolTableRecord
100
AcDbViewportTableRecord
  2
*Active
 70
     0
 10
0.0
 20
0.0
 11
1.0
 21
1.0
 12
230.4757700446945
 22
291.2336141606174
 13
0.0
 23
0.0
 14
2.5
 24
2.5
 15
10.0
 25
10.0
 16
0.0
 26
0.0
 36
1.0
 17
0.0
 27
0.0
 37
0.0
 40
221.7106302989171
 41
1.218987341772151
 42
50.0
 43
0.0
 44
0.0
 50
0.0
 51
0.0
 71
     0
 72
   100
 73
     1
 74
     3
 75
     0
 76
     0
 77
     0
 78
     0
281
     0
 65
     1
110
0.0
120
0.0
130
0.0
111
1.0
121
0.0
131
0.0
112
0.0
122
1.0
132
0.0
 79
     0
146
0.0
  0
ENDTAB
  0
TABLE
  2
LTYPE
  5
5
330
0
100
AcDbSymbolTable
 70
    16
  0
LTYPE
  5
14
330
5
100
AcDbSymbolTableRecord
100
AcDbLinetypeTableRecord
  2
ByBlock
 70
     0
  3

 72
    65
 73
     0
 40
0.0
  0
LTYPE
  5
15
330
5
100
AcDbSymbolTableRecord
100
AcDbLinetypeTableRecord
  2
ByLayer
 70
     0
  3

 72
    65
 73
     0
 40
0.0
  0
LTYPE
  5
16
330
5
100
AcDbSymbolTableRecord
100
AcDbLinetypeTableRecord
  2
Continuous
 70
     0
  3
Solid line
 72
    65
 73
     0
 40
0.0
  0
LTYPE
  5
64
330
5
100
AcDbSymbolTableRecord
100
AcDbLinetypeTableRecord
  2
AM_ISO02W050
 70
     0
  3
__ __ __ __ __ __ __ __ __ __ __ __ __ __ __
 72
    65
 73
     2
 40
7.5
 49
6.0
 74
     0
 49
-1.5
 74
     0
  0
LTYPE
  5
65
330
5
100
AcDbSymbolTableRecord
100
AcDbLinetypeTableRecord
  2
AM_ISO08W050
 70
     0
  3
____ . ____ . ____ . ____ . ____ . ____ . ____
 72
    65
 73
     4
 40
18.0
 49
12.0
 74
     0
 49
-1.5
 74
     0
 49
3.0
 74
     0
 49
-1.5
 74
     0
  0
LTYPE
  5
66
330
5
100
AcDbSymbolTableRecord
100
AcDbLinetypeTableRecord
  2
AM_ISO09W050
 70
     0
  3
_____ . . _____ . . _____ . . ____ .. ____
 72
    65
 73
     6
 40
22.5
 49
12.0
 74
     0
 49
-1.5
 74
     0
 49
3.0
 74
     0
 49
-1.5
 74
     0
 49
3.0
 74
     0
 49
-1.5
 74
     0
  0
LTYPE
  5
67
330
5
100
AcDbSymbolTableRecord
100
AcDbLinetypeTableRecord
  2
Amconstr
 70
     0
  3
_______________________
 72
    65
 73
     2
 40
9999.0
 49
9999.0
 74
     0
 49
0.0
 74
     0
  0
LTYPE
  5
68
330
5
100
AcDbSymbolTableRecord
100
AcDbLinetypeTableRecord
  2
AM_ISO08W050x2
 70
     0
  3
__ . __ . __ . __ . __ . __
 72
    65
 73
     4
 40
9.0
 49
6.0
 74
     0
 49
-0.75
 74
     0
 49
1.5
 74
     0
 49
-0.75
 74
     0
  0
LTYPE
  5
69
330
5
100
AcDbSymbolTableRecord
100
AcDbLinetypeTableRecord
  2
AM_ISO02W050x2
 70
     0
  3
 _ _ _ _ _ _ _ _ _ _ _ _
 72
    65
 73
     2
 40
3.75
 49
3.0
 74
     0
 49
-0.75
 74
     0
  0
LTYPE
  5
6C
330
5
100
AcDbSymbolTableRecord
100
AcDbLinetypeTableRecord
  2
Amzigzag
 70
     0
  3
/\/-/\/-/\/-/\/-/\/-/\/
 72
    65
 73
     2
 40
11.0001
 49
0.0001
 74
     4
 75
   135
340
6B
 46
0.04
 50
0.0
 44
0.0
 45
0.0
 49
-11.0
 74
     0
  0
LTYPE
  5
7A
330
5
100
AcDbSymbolTableRecord
100
AcDbLinetypeTableRecord
  2
ACISOWELD
 70
     0
  3
_ _ _ _ _
 72
    65
 73
     2
 40
2.0
 49
2.0
 74
     0
 49
-1.0
 74
     0
  0
LTYPE
  5
7B
330
5
100
AcDbSymbolTableRecord
100
AcDbLinetypeTableRecord
  2
ACISOTGB
 70
     0
  3
__ . . __ . .
 72
    65
 73
     6
 40
9.0
 49
4.0
 74
     0
 49
-1.0
 74
     0
 49
1.0
 74
     0
 49
-1.0
 74
     0
 49
1.0
 74
     0
 49
-1.0
 74
     0
  0
LTYPE
  5
7C
330
5
100
AcDbSymbolTableRecord
100
AcDbLinetypeTableRecord
  2
ACISOTGL
 70
     0
  3
_ _ _ _ _
 72
    65
 73
     2
 40
3.0
 49
2.0
 74
     0
 49
-1.0
 74
     0
  0
LTYPE
  5
7E
330
5
100
AcDbSymbolTableRecord
100
AcDbLinetypeTableRecord
  2
CENTER
 70
     0
  3
__ . __
 72
    65
 73
     4
 40
7.0
 49
4.0
 74
     0
 49
-1.0
 74
     0
 49
1.0
 74
     0
 49
-1.0
 74
     0
  0
LTYPE
  5
D8
330
5
100
AcDbSymbolTableRecord
100
AcDbLinetypeTableRecord
  2
HIDDEN
 70
     0
  3
Hidden __ __ __ __ __ __ __ __ __ __ __ __ __ _
 72
    65
 73
     2
 40
9.524999999999998
 49
6.349999999999999
 74
     0
 49
-3.174999999999999
 74
     0
  0
LTYPE
  5
D9
330
5
100
AcDbSymbolTableRecord
100
AcDbLinetypeTableRecord
  2
PHANTOM2
 70
     0
  3
Phantom (.5x) ___ _ _ ___ _ _ ___ _ _ ___ _ _
 72
    65
 73
     6
 40
31.75
 49
15.875
 74
     0
 49
-3.174999999999999
 74
     0
 49
3.174999999999999
 74
     0
 49
-3.174999999999999
 74
     0
 49
3.174999999999999
 74
     0
 49
-3.174999999999999
 74
     0
  0
LTYPE
  5
399
330
5
100
AcDbSymbolTableRecord
100
AcDbLinetypeTableRecord
  2
ACJISTGB
 70
     0
  3
__ . . __ . .
 72
    65
 73
     6
 40
9.0
 49
4.0
 74
     0
 49
-1.0
 74
     0
 49
1.0
 74
     0
 49
-1.0
 74
     0
 49
1.0
 74
     0
 49
-1.0
 74
     0
  0
LTYPE
  5
39A
330
5
100
AcDbSymbolTableRecord
100
AcDbLinetypeTableRecord
  2
ACJISTGL
 70
     0
  3
_ _ _ _ _
 72
    65
 73
     2
 40
3.0
 49
2.0
 74
     0
 49
-1.0
 74
     0
  0
ENDTAB
  0
TABLE
  2
LAYER
  5
2
102
{ACAD_XDICTIONARY
360
3AF
102
}
330
0
100
AcDbSymbolTable
 70
     6
  0
LAYER
  5
10
330
2
100
AcDbSymbolTableRecord
100
AcDbLayerTableRecord
  2
0
 70
     0
 62
     7
  6
Continuous
370
    -3
390
F
  0
LAYER
  5
39B
330
2
100
AcDbSymbolTableRecord
100
AcDbLayerTableRecord
  2
Defpoints
 70
     0
 62
     7
  6
Continuous
290
     0
370
    -3
390
F
  0
LAYER
  5
39C
330
2
100
AcDbSymbolTableRecord
100
AcDbLayerTableRecord
  2
AM_VIS
 70
     2
 62
     7
  6
Continuous
370
    50
390
F
  0
LAYER
  5
39D
330
2
100
AcDbSymbolTableRecord
100
AcDbLayerTableRecord
  2
AM_7
 70
     0
 62
     1
  6
AM_ISO08W050
370
    25
390
F
  0
LAYER
  5
39E
330
2
100
AcDbSymbolTableRecord
100
AcDbLayerTableRecord
  2
AM_6
 70
     0
 62
     2
  6
Continuous
370
    35
390
F
  0
LAYER
  5
39F
330
2
100
AcDbSymbolTableRecord
100
AcDbLayerTableRecord
  2
LOGO
 70
     0
 62
     7
  6
Continuous
370
    -3
390
F
  0
ENDTAB
  0
TABLE
  2
STYLE
  5
3
330
0
100
AcDbSymbolTable
 70
     8
  0
STYLE
  5
11
330
3
100
AcDbSymbolTableRecord
100
AcDbTextStyleTableRecord
  2
STANDARD
 70
     0
 40
0.0
 41
1.0
 50
0.0
 71
     0
 42
3.0
  3
ISOCP.SHX
  4
CHINESET.SHX
  0
STYLE
  5
6B
330
3
100
AcDbSymbolTableRecord
100
AcDbTextStyleTableRecord
  2

 70
     1
 40
0.0
 41
1.0
 50
0.0
 71
     0
 42
2.5
  3
ltypeshp.shx
  4

  0
STYLE
  5
6D
330
3
100
AcDbSymbolTableRecord
100
AcDbTextStyleTableRecord
  2
ACISOTS
 70
     0
 40
1.0
 41
1.0
 50
0.0
 71
     0
 42
1.0
  3
isocp.shx
  4
chineset.shx
  0
STYLE
  5
79
330
3
100
AcDbSymbolTableRecord
100
AcDbTextStyleTableRecord
  2
ACISOGDT
 70
     0
 40
0.0
 41
1.0
 50
0.0
 71
     0
 42
2.5
  3
amgdt.shx
  4
chineset.shx
  0
STYLE
  5
3A0
330
3
100
AcDbSymbolTableRecord
100
AcDbTextStyleTableRecord
  2
CHINESET
 70
     0
 40
0.0
 41
1.0
 50
0.0
 71
     0
 42
2.5
  3
simplex.shx
  4
CHINESET.shx
  0
STYLE
  5
3A1
330
3
100
AcDbSymbolTableRecord
100
AcDbTextStyleTableRecord
  2
ACJISTS
 70
     0
 40
1.0
 41
1.0
 50
0.0
 71
     0
 42
2.5
  3
isocp.shx
  4
chineset.shx
  0
STYLE
  5
3A2
330
3
100
AcDbSymbolTableRecord
100
AcDbTextStyleTableRecord
  2
ACJISGDT
 70
     0
 40
0.0
 41
1.0
 50
0.0
 71
     0
 42
2.5
  3
amgdt.shx
  4

  0
ENDTAB
  0
TABLE
  2
VIEW
  5
6
330
0
100
AcDbSymbolTable
 70
     0
  0
ENDTAB
  0
TABLE
  2
UCS
  5
7
330
0
100
AcDbSymbolTable
 70
     0
  0
ENDTAB
  0
TABLE
  2
APPID
  5
9
330
0
100
AcDbSymbolTable
 70
    18
  0
APPID
  5
12
330
9
100
AcDbSymbolTableRecord
100
AcDbRegAppTableRecord
  2
ACAD
 70
     0
  0
APPID
  5
46
330
9
100
AcDbSymbolTableRecord
100
AcDbRegAppTableRecord
  2
MCAD_NO_VIS
 70
     0
  0
APPID
  5
47
330
9
100
AcDbSymbolTableRecord
100
AcDbRegAppTableRecord
  2
ACAD_TEMP_GRAPHIC
 70
     0
  0
APPID
  5
58
330
9
100
AcDbSymbolTableRecord
100
AcDbRegAppTableRecord
  2
ACATTRIBSERVICES
 70
     0
  0
APPID
  5
EE
330
9
100
AcDbSymbolTableRecord
100
AcDbRegAppTableRecord
  2
AD_DRAW
 70
     0
  0
APPID
  5
10C
330
9
100
AcDbSymbolTableRecord
100
AcDbRegAppTableRecord
  2
DESIGNERASSEMBLIES
 70
     0
  0
APPID
  5
111
330
9
100
AcDbSymbolTableRecord
100
AcDbRegAppTableRecord
  2
ACADM_DIM_EDIT
 70
     0
  0
APPID
  5
112
330
9
100
AcDbSymbolTableRecord
100
AcDbRegAppTableRecord
  2
AMDT_DM_ADJ
 70
     0
  0
APPID
  5
1FE
330
9
100
AcDbSymbolTableRecord
100
AcDbRegAppTableRecord
  2
ACAD_DSTYLE_DIMTEXT_FILL
 70
     0
  0
APPID
  5
2B5
330
9
100
AcDbSymbolTableRecord
100
AcDbRegAppTableRecord
  2
GENIUS_GENOLIS_13
 70
     0
  0
APPID
  5
2B6
330
9
100
AcDbSymbolTableRecord
100
AcDbRegAppTableRecord
  2
GENIUS_GENOENT_13
 70
     0
  0
APPID
  5
2B7
330
9
100
AcDbSymbolTableRecord
100
AcDbRegAppTableRecord
  2
GENIUS_GENOBJ-N-CRS_13
 70
     0
  0
APPID
  5
2B8
330
9
100
AcDbSymbolTableRecord
100
AcDbRegAppTableRecord
  2
GENIUS_GENODEF_13
 70
     0
  0
APPID
  5
2B9
330
9
100
AcDbSymbolTableRecord
100
AcDbRegAppTableRecord
  2
GENIUS_GENOREF_13
 70
     0
  0
APPID
  5
3AB
330
9
100
AcDbSymbolTableRecord
100
AcDbRegAppTableRecord
  2
ACAD_PSEXT
 70
     0
  0
APPID
  5
3AC
330
9
100
AcDbSymbolTableRecord
100
AcDbRegAppTableRecord
  2
GENIUS_AMGTXT_16
 70
     0
  0
APPID
  5
3AD
330
9
100
AcDbSymbolTableRecord
100
AcDbRegAppTableRecord
  2
GENIUS_GENREC_14
 70
     0
  0
APPID
  5
3AE
330
9
100
AcDbSymbolTableRecord
100
AcDbRegAppTableRecord
  2
GENIUS_GENOBJ-N-REC_13
 70
     0
  0
ENDTAB
  0
TABLE
  2
DIMSTYLE
  5
A
330
0
100
AcDbSymbolTable
 70
    17
100
AcDbDimStyleTable
 71
     1
340
81
  0
DIMSTYLE
105
81
330
A
100
AcDbSymbolTableRecord
100
AcDbDimStyleTableRecord
  2
AM_ISO
 70
     0
  4
"
 41
3.0
 42
1.5
 43
8.0
 44
1.5
 47
0.1
 48
0.1
 73
     0
 74
     0
 77
     1
 78
     8
 79
     2
140
3.5
141
0.0
143
0.0393701
146
0.71
147
1.5
172
     1
176
   256
177
   256
178
   256
271
     2
272
     2
283
     0
284
     8
340
11
371
    -1
372
    -1
  0
DIMSTYLE
105
82
330
A
100
AcDbSymbolTableRecord
100
AcDbDimStyleTableRecord
  2
AM_ISO$3
 70
     0
  4
"
 41
3.0
 42
1.5
 43
8.0
 44
1.5
 47
0.1
 48
0.1
 73
     0
 77
     1
 78
     8
 79
     2
140
3.5
141
0.0
143
0.0393701
146
0.71
147
1.5
176
   256
177
   256
178
   256
271
     2
272
     2
283
     0
284
     8
288
     1
289
     0
340
11
371
    -1
372
    -1
  0
DIMSTYLE
105
83
330
A
100
AcDbSymbolTableRecord
100
AcDbDimStyleTableRecord
  2
AM_ISO$4
 70
     0
  4
"
 41
3.0
 42
1.5
 43
8.0
 44
1.5
 47
0.1
 48
0.1
 73
     0
 77
     1
 78
     8
 79
     2
140
3.5
141
0.0
143
0.0393701
146
0.71
147
1.5
176
   256
177
   256
178
   256
271
     2
272
     2
283
     0
284
     8
288
     1
289
     0
340
11
371
    -1
372
    -1
  0
DIMSTYLE
105
84
330
A
100
AcDbSymbolTableRecord
100
AcDbDimStyleTableRecord
  2
AM_ISO$6
 70
     0
  4
"
 41
3.0
 42
1.5
 43
8.0
 44
1.5
 47
0.1
 48
0.1
 73
     0
 74
     0
 78
     8
 79
     2
140
3.5
141
0.0
143
0.0393701
146
0.71
147
1.5
172
     1
176
   256
177
   256
178
   256
271
     2
272
     2
283
     0
284
     8
340
11
371
    -1
372
    -1
  0
DIMSTYLE
105
85
330
A
100
AcDbSymbolTableRecord
100
AcDbDimStyleTableRecord
  2
AM_ISO$7
 70
     0
  4
"
 41
3.0
 42
1.5
 43
8.0
 44
1.5
 47
0.1
 48
0.1
 73
     0
 74
     0
 77
     1
 78
     8
 79
     2
140
5.0
141
0.0
143
0.0393701
146
0.71
147
1.5
172
     1
176
   256
177
   256
178
   256
271
     2
272
     2
283
     0
284
     8
340
11
371
    -1
372
    -1
  0
DIMSTYLE
105
86
330
A
100
AcDbSymbolTableRecord
100
AcDbDimStyleTableRecord
  2
AM_ISO$SF
 70
     0
  4
"
 41
2.5
 42
1.0
 43
10.0
 44
1.0
 47
0.1
 48
0.1
 73
     0
 74
     0
 75
     1
 76
     1
 77
     1
 78
     8
 79
     2
140
3.5
141
0.0
143
0.0393701
146
0.71
147
1.5
172
     1
176
   256
177
   256
178
     2
271
     2
272
     3
274
     4
283
     0
284
     8
340
11
371
    -1
372
    -1
  0
DIMSTYLE
105
8B
330
A
100
AcDbSymbolTableRecord
100
AcDbDimStyleTableRecord
  2
AM_ISO$SH
 70
     0
  4
"
 41
2.5
 42
1.0
 43
10.0
 44
1.0
 47
0.1
 48
0.1
 73
     0
 74
     0
 75
     1
 76
     1
 77
     1
 78
     8
 79
     2
140
3.5
141
0.0
143
0.0393701
144
2.0
146
0.71
147
1.5
172
     1
173
     1
176
   256
177
   256
178
     2
271
     2
272
     3
274
     4
283
     0
284
     8
340
11
343
87
371
    -1
372
    -1
  0
DIMSTYLE
105
27B
330
A
100
AcDbSymbolTableRecord
100
AcDbDimStyleTableRecord
  2
AM_ISO$0
 70
     0
  4
"
 41
3.0
 42
1.5
 43
8.0
 44
1.5
 47
0.1
 48
0.1
 73
     0
 74
     0
 77
     1
 78
     8
 79
     2
140
3.5
141
0.0
143
0.0393701
146
0.71
147
1.5
172
     1
176
   256
177
   256
178
   256
271
     2
272
     2
283
     0
284
     8
340
11
371
    -1
372
    -1
  0
DIMSTYLE
105
3A3
102
{ACAD_REACTORS
330
46F
330
419
330
41C
330
41A
330
470
330
4E3
330
5BD
330
631
330
567
330
568
330
56A
102
}
330
A
100
AcDbSymbolTableRecord
100
AcDbDimStyleTableRecord
  2
STANDARD
 70
     0
 41
3.0
 42
2.0
 43
8.0
 44
2.0
 48
0.000000001
 73
     0
 74
     0
 77
     1
 78
     8
 79
     2
140
3.0
141
1.0
146
0.6
147
1.0
176
   256
177
   256
178
   256
179
     2
271
     2
272
     2
279
     2
284
     8
340
3A0
371
    -1
  0
DIMSTYLE
105
3A4
330
A
100
AcDbSymbolTableRecord
100
AcDbDimStyleTableRecord
  2
AM_JIS
 70
     0
  4
"
 41
2.5
 42
1.0
 43
10.0
 44
1.0
 47
0.1
 48
0.1
 73
     0
 74
     0
 77
     3
 78
     8
 79
     2
140
3.5
141
0.0
143
0.0393701
146
0.71
147
1.5
172
     1
176
   256
177
   256
178
     2
271
     2
272
     3
274
     4
283
     0
340
11
341
357
342
357
343
357
344
357
371
    -1
372
    -1
  0
DIMSTYLE
105
3A5
330
A
100
AcDbSymbolTableRecord
100
AcDbDimStyleTableRecord
  2
AM_JIS$3
 70
     0
  4
"
 41
2.5
 42
1.0
 43
10.0
 44
1.0
 47
0.1
 48
0.1
 73
     0
 77
     3
 78
     8
 79
     2
140
3.5
141
0.0
143
0.0393701
146
0.71
147
1.5
176
   256
177
   256
178
     2
271
     2
272
     3
274
     4
283
     0
288
     1
289
     0
340
11
341
357
342
357
343
357
344
357
371
    -1
372
    -1
  0
DIMSTYLE
105
3A6
330
A
100
AcDbSymbolTableRecord
100
AcDbDimStyleTableRecord
  2
AM_JIS$4
 70
     0
  4
"
 41
2.5
 42
1.0
 43
10.0
 44
1.0
 47
0.1
 48
0.1
 73
     0
 77
     3
 78
     8
 79
     2
140
3.5
141
0.0
143
0.0393701
146
0.71
147
1.5
176
   256
177
   256
178
     2
271
     2
272
     3
274
     4
283
     0
288
     1
289
     0
340
11
341
357
342
357
343
357
344
357
371
    -1
372
    -1
  0
DIMSTYLE
105
3A7
330
A
100
AcDbSymbolTableRecord
100
AcDbDimStyleTableRecord
  2
AM_JIS$6
 70
     0
  4
"
 41
2.5
 42
1.0
 43
10.0
 44
1.0
 47
0.1
 48
0.1
 73
     0
 74
     0
 78
     8
 79
     2
140
3.5
141
0.0
143
0.0393701
146
0.71
147
1.5
172
     1
176
   256
177
   256
178
     2
271
     2
272
     3
274
     4
283
     0
340
11
341
357
342
357
343
357
344
357
371
    -1
372
    -1
  0
DIMSTYLE
105
3A8
330
A
100
AcDbSymbolTableRecord
100
AcDbDimStyleTableRecord
  2
AM_JIS$7
 70
     0
  4
"
 41
2.5
 42
1.0
 43
10.0
 44
1.0
 47
0.1
 48
0.1
 73
     0
 74
     0
 77
     3
 78
     8
 79
     2
140
5.0
141
0.0
143
0.0393701
146
0.71
147
1.5
172
     1
176
   256
177
   256
178
     2
271
     2
272
     3
274
     4
283
     0
340
11
341
357
342
357
343
357
344
357
371
    -1
372
    -1
  0
DIMSTYLE
105
3A9
330
A
100
AcDbSymbolTableRecord
100
AcDbDimStyleTableRecord
  2
AM_JIS$SF
 70
     0
  4
"
 41
2.5
 42
1.0
 43
10.0
 44
1.0
 47
0.1
 48
0.1
 73
     0
 74
     0
 75
     1
 76
     1
 77
     3
 78
     8
 79
     2
140
3.5
141
0.0
143
0.0393701
146
0.71
147
1.5
172
     1
176
   256
177
   256
178
     2
271
     2
272
     3
274
     4
283
     0
340
11
341
357
342
357
343
357
344
357
371
    -1
372
    -1
  0
DIMSTYLE
105
3AA
330
A
100
AcDbSymbolTableRecord
100
AcDbDimStyleTableRecord
  2
AM_JIS$SH
 70
     0
  4
"
 41
2.5
 42
1.0
 43
10.0
 44
1.0
 47
0.1
 48
0.1
 73
     0
 74
     0
 75
     1
 76
     1
 77
     3
 78
     8
 79
     2
140
3.5
141
0.0
143
0.0393701
144
2.0
146
0.71
147
1.5
172
     1
173
     1
176
   256
177
   256
178
     2
271
     2
272
     3
274
     4
283
     0
340
11
341
357
342
357
343
87
344
357
371
    -1
372
    -1
  0
ENDTAB
  0
TABLE
  2
BLOCK_RECORD
  5
1
330
0
100
AcDbSymbolTable
 70
    16
  0
BLOCK_RECORD
  5
1F
102
{ACAD_XDICTIONARY
360
8F
102
}
330
1
100
AcDbSymbolTableRecord
100
AcDbBlockTableRecord
  2
*Model_Space
340
22
  0
BLOCK_RECORD
  5
1B
330
1
100
AcDbSymbolTableRecord
100
AcDbBlockTableRecord
  2
*Paper_Space
340
1E
  0
BLOCK_RECORD
  5
23
330
1
100
AcDbSymbolTableRecord
100
AcDbBlockTableRecord
  2
*Paper_Space0
340
26
  0
BLOCK_RECORD
  5
87
330
1
100
AcDbSymbolTableRecord
100
AcDbBlockTableRecord
  2
GENAXEH
340
0
  0
BLOCK_RECORD
  5
357
330
1
100
AcDbSymbolTableRecord
100
AcDbBlockTableRecord
  2
_Open30
340
0
  0
BLOCK_RECORD
  5
35D
330
1
100
AcDbSymbolTableRecord
100
AcDbBlockTableRecord
  2
*D4
340
0
  0
BLOCK_RECORD
  5
369
330
1
100
AcDbSymbolTableRecord
100
AcDbBlockTableRecord
  2
*D5
340
0
  0
BLOCK_RECORD
  5
375
330
1
100
AcDbSymbolTableRecord
100
AcDbBlockTableRecord
  2
*D6
340
0
  0
BLOCK_RECORD
  5
381
330
1
100
AcDbSymbolTableRecord
100
AcDbBlockTableRecord
  2
*D7
340
0
  0
BLOCK_RECORD
  5
38D
330
1
100
AcDbSymbolTableRecord
100
AcDbBlockTableRecord
  2
*D8
340
0
  0
BLOCK_RECORD
  5
635
330
1
100
AcDbSymbolTableRecord
100
AcDbBlockTableRecord
  2
*D10
340
0
  0
BLOCK_RECORD
  5
641
330
1
100
AcDbSymbolTableRecord
100
AcDbBlockTableRecord
  2
*D11
340
0
  0
BLOCK_RECORD
  5
64D
330
1
100
AcDbSymbolTableRecord
100
AcDbBlockTableRecord
  2
*D12
340
0
  0
BLOCK_RECORD
  5
659
330
1
100
AcDbSymbolTableRecord
100
AcDbBlockTableRecord
  2
*D13
340
0
  0
BLOCK_RECORD
  5
665
330
1
100
AcDbSymbolTableRecord
100
AcDbBlockTableRecord
  2
*D14
340
0
  0
ENDTAB
  0
ENDSEC
  0
SECTION
  2
BLOCKS
  0
BLOCK
  5
20
330
1F
100
AcDbEntity
  8
0
100
AcDbBlockBegin
  2
*Model_Space
 70
     0
 10
0.0
 20
0.0
 30
0.0
  3
*Model_Space
  1

  0
ENDBLK
  5
21
330
1F
100
AcDbEntity
  8
0
100
AcDbBlockEnd
  0
BLOCK
  5
1C
330
1B
100
AcDbEntity
 67
     1
  8
0
100
AcDbBlockBegin
  2
*Paper_Space
 70
     0
 10
0.0
 20
0.0
 30
0.0
  3
*Paper_Space
  1

  0
ENDBLK
  5
1D
330
1B
100
AcDbEntity
 67
     1
  8
0
100
AcDbBlockEnd
  0
BLOCK
  5
24
330
23
100
AcDbEntity
  8
0
100
AcDbBlockBegin
  2
*Paper_Space0
 70
     0
 10
0.0
 20
0.0
 30
0.0
  3
*Paper_Space0
  1

  0
ENDBLK
  5
25
330
23
100
AcDbEntity
  8
0
100
AcDbBlockEnd
  0
BLOCK
  5
89
330
87
100
AcDbEntity
  8
0
100
AcDbBlockBegin
  2
GENAXEH
 70
     0
 10
0.0
 20
0.0
 30
0.0
  3
GENAXEH
  1

  0
LINE
  5
88
330
87
100
AcDbEntity
  8
0
100
AcDbLine
 10
-1.0
 20
0.0
 30
0.0
 11
1.0
 21
0.0
 31
0.0
  0
ENDBLK
  5
8A
330
87
100
AcDbEntity
  8
0
100
AcDbBlockEnd
  0
BLOCK
  5
358
330
357
100
AcDbEntity
  8
0
100
AcDbBlockBegin
  2
_Open30
 70
     0
 10
0.0
 20
0.0
 30
0.0
  3
_Open30
  1

  0
LINE
  5
359
330
357
100
AcDbEntity
  8
0
 62
     0
370
    -2
100
AcDbLine
 10
-1.0
 20
0.26794919
 30
0.0
 11
0.0
 21
0.0
 31
0.0
  0
LINE
  5
35A
330
357
100
AcDbEntity
  8
0
 62
     0
370
    -2
100
AcDbLine
 10
0.0
 20
0.0
 30
0.0
 11
-1.0
 21
-0.26794919
 31
0.0
  0
LINE
  5
35B
330
357
100
AcDbEntity
  8
0
 62
     0
370
    -2
100
AcDbLine
 10
0.0
 20
0.0
 30
0.0
 11
-1.0
 21
0.0
 31
0.0
  0
ENDBLK
  5
35C
330
357
100
AcDbEntity
  8
0
100
AcDbBlockEnd
  0
BLOCK
  5
35E
330
35D
100
AcDbEntity
  8
0
100
AcDbBlockBegin
  2
*D4
 70
     1
 10
0.0
 20
0.0
 30
0.0
  3
*D4
  1

  0
LINE
  5
35F
330
35D
100
AcDbEntity
  8
0
 62
     5
370
    -2
100
AcDbLine
 10
350.572095841702
 20
50.44839815276322
 30
0.0
 11
387.1823589555188
 21
50.44839815276321
 31
0.0
  0
LINE
  5
360
330
35D
100
AcDbEntity
  8
0
 62
     5
370
    -2
100
AcDbLine
 10
350.572095841702
 20
27.44839815276322
 30
0.0
 11
387.1823589555188
 21
27.44839815276321
 31
0.0
  0
LINE
  5
361
330
35D
100
AcDbEntity
  8
0
 62
     5
100
AcDbLine
 10
385.1823589555188
 20
47.4483981527632
 30
0.0
 11
385.1823589555188
 21
30.44839815276321
 31
0.0
  0
SOLID
  5
362
330
35D
100
AcDbEntity
  8
0
 62
     5
100
AcDbTrace
 10
384.6823589555188
 20
47.4483981527632
 30
0.0
 11
385.6823589555188
 21
47.4483981527632
 31
0.0
 12
385.1823589555188
 22
50.44839815276321
 32
0.0
 13
385.1823589555188
 23
50.44839815276321
 33
0.0
  0
SOLID
  5
363
330
35D
100
AcDbEntity
  8
0
 62
     5
100
AcDbTrace
 10
384.6823589555188
 20
30.44839815276321
 30
0.0
 11
385.6823589555188
 21
30.44839815276321
 31
0.0
 12
385.1823589555188
 22
27.44839815276321
 32
0.0
 13
385.1823589555188
 23
27.44839815276321
 33
0.0
  0
MTEXT
  5
364
330
35D
100
AcDbEntity
  8
0
 62
     5
100
AcDbMText
 10
382.6823589555188
 20
38.94839815276327
 30
0.0
 40
3.0
 41
0.0
 71
     5
 72
     1
  1
\A1;23
  7
CHINESET
 11
0.0000000000000001
 21
1.0
 31
0.0
 73
     1
 44
1.0
1001
ACAD
1000
MTEXTBEGIN
1070
    73
1070
     1
1070
    44
1040
1.0
1070
    74
1070
     0
1000
MTEXTEND
  0
POINT
  5
365
330
35D
100
AcDbEntity
  8
Defpoints
 62
     0
100
AcDbPoint
 10
348.572095841702
 20
50.44839815276322
 30
0.0
  0
POINT
  5
366
330
35D
100
AcDbEntity
  8
Defpoints
 62
     0
100
AcDbPoint
 10
348.572095841702
 20
27.44839815276322
 30
0.0
  0
POINT
  5
367
330
35D
100
AcDbEntity
  8
Defpoints
 62
     0
100
AcDbPoint
 10
385.1823589555188
 20
27.44839815276321
 30
0.0
  0
ENDBLK
  5
368
330
35D
100
AcDbEntity
  8
0
100
AcDbBlockEnd
  0
BLOCK
  5
36A
330
369
100
AcDbEntity
  8
0
100
AcDbBlockBegin
  2
*D5
 70
     1
 10
0.0
 20
0.0
 30
0.0
  3
*D5
  1

  0
LINE
  5
36B
330
369
100
AcDbEntity
  8
0
 62
     5
370
    -2
100
AcDbLine
 10
316.0721412654783
 20
-65.95562303813398
 30
0.0
 11
316.0721412654783
 21
-76.04577059276767
 31
0.0
  0
LINE
  5
36C
330
369
100
AcDbEntity
  8
0
 62
     5
370
    -2
100
AcDbLine
 10
335.0720504179256
 20
-65.95562303813398
 30
0.0
 11
335.0720504179256
 21
-76.04577059276767
 31
0.0
  0
LINE
  5
36D
330
369
100
AcDbEntity
  8
0
 62
     5
100
AcDbLine
 10
319.0721412654783
 20
-74.04577059276767
 30
0.0
 11
332.0720504179255
 21
-74.04577059276767
 31
0.0
  0
SOLID
  5
36E
330
369
100
AcDbEntity
  8
0
 62
     5
100
AcDbTrace
 10
319.0721412654783
 20
-73.54577059276767
 30
0.0
 11
319.0721412654783
 21
-74.54577059276767
 31
0.0
 12
316.0721412654783
 22
-74.04577059276767
 32
0.0
 13
316.0721412654783
 23
-74.04577059276767
 33
0.0
  0
SOLID
  5
36F
330
369
100
AcDbEntity
  8
0
 62
     5
100
AcDbTrace
 10
332.0720504179255
 20
-73.54577059276767
 30
0.0
 11
332.0720504179255
 21
-74.54577059276767
 31
0.0
 12
335.0720504179256
 22
-74.04577059276767
 32
0.0
 13
335.0720504179256
 23
-74.04577059276767
 33
0.0
  0
MTEXT
  5
370
330
369
100
AcDbEntity
  8
0
 62
     5
100
AcDbMText
 10
325.5720958417019
 20
-71.54577059276767
 30
0.0
 40
3.0
 41
0.0
 71
     5
 72
     1
  1
\A1;19
  7
CHINESET
 73
     1
 44
1.0
1001
ACAD
1000
MTEXTBEGIN
1070
    73
1070
     1
1070
    44
1040
1.0
1070
    74
1070
     0
1000
MTEXTEND
  0
POINT
  5
371
330
369
100
AcDbEntity
  8
Defpoints
 62
     0
100
AcDbPoint
 10
316.0721412654783
 20
-63.95562303813398
 30
0.0
  0
POINT
  5
372
330
369
100
AcDbEntity
  8
Defpoints
 62
     0
100
AcDbPoint
 10
335.0720504179256
 20
-63.95562303813398
 30
0.0
  0
POINT
  5
373
330
369
100
AcDbEntity
  8
Defpoints
 62
     0
100
AcDbPoint
 10
335.0720504179256
 20
-74.04577059276767
 30
0.0
  0
ENDBLK
  5
374
330
369
100
AcDbEntity
  8
0
100
AcDbBlockEnd
  0
BLOCK
  5
376
330
375
100
AcDbEntity
  8
0
100
AcDbBlockBegin
  2
*D6
 70
     1
 10
0.0
 20
0.0
 30
0.0
  3
*D6
  1

  0
LINE
  5
377
330
375
100
AcDbEntity
  8
0
 62
     5
370
    -2
100
AcDbLine
 10
375.572095841702
 20
-38.70562303813399
 30
0.0
 11
375.572095841702
 21
15.30786325754235
 31
0.0
  0
LINE
  5
378
330
375
100
AcDbEntity
  8
0
 62
     5
370
    -2
100
AcDbLine
 10
325.5720958417019
 20
6.557348117893567
 30
0.0
 11
325.5720958417019
 21
15.30786325754235
 31
0.0
  0
LINE
  5
379
330
375
100
AcDbEntity
  8
0
 62
     5
100
AcDbLine
 10
372.572095841702
 20
13.30786325754235
 30
0.0
 11
328.5720958417019
 21
13.30786325754235
 31
0.0
  0
SOLID
  5
37A
330
375
100
AcDbEntity
  8
0
 62
     5
100
AcDbTrace
 10
372.572095841702
 20
13.80786325754235
 30
0.0
 11
372.572095841702
 21
12.80786325754235
 31
0.0
 12
375.572095841702
 22
13.30786325754235
 32
0.0
 13
375.572095841702
 23
13.30786325754235
 33
0.0
  0
SOLID
  5
37B
330
375
100
AcDbEntity
  8
0
 62
     5
100
AcDbTrace
 10
328.5720958417019
 20
13.80786325754235
 30
0.0
 11
328.5720958417019
 21
12.80786325754235
 31
0.0
 12
325.5720958417019
 22
13.30786325754235
 32
0.0
 13
325.5720958417019
 23
13.30786325754235
 33
0.0
  0
MTEXT
  5
37C
330
375
100
AcDbEntity
  8
0
 62
     5
100
AcDbMText
 10
350.572095841702
 20
15.80786325754235
 30
0.0
 40
3.0
 41
0.0
 71
     5
 72
     1
  1
\A1;50
  7
CHINESET
 73
     1
 44
1.0
1001
ACAD
1000
MTEXTBEGIN
1070
    73
1070
     1
1070
    44
1040
1.0
1070
    74
1070
     0
1000
MTEXTEND
  0
POINT
  5
37D
330
375
100
AcDbEntity
  8
Defpoints
 62
     0
100
AcDbPoint
 10
375.572095841702
 20
-40.70562303813399
 30
0.0
  0
POINT
  5
37E
330
375
100
AcDbEntity
  8
Defpoints
 62
     0
100
AcDbPoint
 10
325.5720958417019
 20
4.557348117893567
 30
0.0
  0
POINT
  5
37F
330
375
100
AcDbEntity
  8
Defpoints
 62
     0
100
AcDbPoint
 10
325.5720958417019
 20
13.30786325754235
 30
0.0
  0
ENDBLK
  5
380
330
375
100
AcDbEntity
  8
0
100
AcDbBlockEnd
  0
BLOCK
  5
382
330
381
100
AcDbEntity
  8
0
100
AcDbBlockBegin
  2
*D7
 70
     1
 10
0.0
 20
0.0
 30
0.0
  3
*D7
  1

  0
LINE
  5
383
330
381
100
AcDbEntity
  8
0
 62
     5
370
    -2
100
AcDbLine
 10
375.572095841702
 20
40.94839815276322
 30
0.0
 11
375.572095841702
 21
58.0296489374781
 31
0.0
  0
LINE
  5
384
330
381
100
AcDbEntity
  8
0
 62
     5
370
    -2
100
AcDbLine
 10
315.572095841702
 20
51.94839815276321
 30
0.0
 11
315.572095841702
 21
58.0296489374781
 31
0.0
  0
LINE
  5
385
330
381
100
AcDbEntity
  8
0
 62
     5
100
AcDbLine
 10
372.572095841702
 20
56.0296489374781
 30
0.0
 11
318.572095841702
 21
56.0296489374781
 31
0.0
  0
SOLID
  5
386
330
381
100
AcDbEntity
  8
0
 62
     5
100
AcDbTrace
 10
372.572095841702
 20
56.5296489374781
 30
0.0
 11
372.572095841702
 21
55.5296489374781
 31
0.0
 12
375.572095841702
 22
56.0296489374781
 32
0.0
 13
375.572095841702
 23
56.0296489374781
 33
0.0
  0
SOLID
  5
387
330
381
100
AcDbEntity
  8
0
 62
     5
100
AcDbTrace
 10
318.572095841702
 20
56.5296489374781
 30
0.0
 11
318.572095841702
 21
55.5296489374781
 31
0.0
 12
315.572095841702
 22
56.0296489374781
 32
0.0
 13
315.572095841702
 23
56.0296489374781
 33
0.0
  0
MTEXT
  5
388
330
381
100
AcDbEntity
  8
0
 62
     5
100
AcDbMText
 10
345.572095841702
 20
58.5296489374781
 30
0.0
 40
3.0
 41
0.0
 71
     5
 72
     1
  1
\A1;60
  7
CHINESET
 73
     1
 44
1.0
1001
ACAD
1000
MTEXTBEGIN
1070
    73
1070
     1
1070
    44
1040
1.0
1070
    74
1070
     0
1000
MTEXTEND
  0
POINT
  5
389
330
381
100
AcDbEntity
  8
Defpoints
 62
     0
100
AcDbPoint
 10
375.572095841702
 20
38.94839815276322
 30
0.0
  0
POINT
  5
38A
330
381
100
AcDbEntity
  8
Defpoints
 62
     0
100
AcDbPoint
 10
315.572095841702
 20
49.94839815276321
 30
0.0
  0
POINT
  5
38B
330
381
100
AcDbEntity
  8
Defpoints
 62
     0
100
AcDbPoint
 10
315.572095841702
 20
56.0296489374781
 30
0.0
  0
ENDBLK
  5
38C
330
381
100
AcDbEntity
  8
0
100
AcDbBlockEnd
  0
BLOCK
  5
38E
330
38D
100
AcDbEntity
  8
0
100
AcDbBlockBegin
  2
*D8
 70
     1
 10
0.0
 20
0.0
 30
0.0
  3
*D8
  1

  0
LINE
  5
38F
330
38D
100
AcDbEntity
  8
0
 62
     5
370
    -2
100
AcDbLine
 10
273.2216064879259
 20
4.044376961866021
 30
0.0
 11
263.5081590504912
 21
4.044376961866023
 31
0.0
  0
LINE
  5
390
330
38D
100
AcDbEntity
  8
0
 62
     5
370
    -2
100
AcDbLine
 10
271.6216064879258
 20
-63.95562303813397
 30
0.0
 11
263.5081590504912
 21
-63.95562303813397
 31
0.0
  0
LINE
  5
391
330
38D
100
AcDbEntity
  8
0
 62
     5
100
AcDbLine
 10
265.5081590504912
 20
1.044376961866023
 30
0.0
 11
265.5081590504912
 21
-60.95562303813397
 31
0.0
  0
SOLID
  5
392
330
38D
100
AcDbEntity
  8
0
 62
     5
100
AcDbTrace
 10
265.0081590504912
 20
1.044376961866023
 30
0.0
 11
266.0081590504912
 21
1.044376961866023
 31
0.0
 12
265.5081590504912
 22
4.044376961866023
 32
0.0
 13
265.5081590504912
 23
4.044376961866023
 33
0.0
  0
SOLID
  5
393
330
38D
100
AcDbEntity
  8
0
 62
     5
100
AcDbTrace
 10
265.0081590504912
 20
-60.95562303813397
 30
0.0
 11
266.0081590504912
 21
-60.95562303813397
 31
0.0
 12
265.5081590504912
 22
-63.95562303813397
 32
0.0
 13
265.5081590504912
 23
-63.95562303813397
 33
0.0
  0
MTEXT
  5
394
330
38D
100
AcDbEntity
  8
0
 62
     5
100
AcDbMText
 10
263.0081590504912
 20
-29.95562303813393
 30
0.0
 40
3.0
 41
0.0
 71
     5
 72
     1
  1
\A1;68
  7
CHINESET
 11
0.0000000000000001
 21
1.0
 31
0.0
 73
     1
 44
1.0
1001
ACAD
1000
MTEXTBEGIN
1070
    73
1070
     1
1070
    44
1040
1.0
1070
    74
1070
     0
1000
MTEXTEND
  0
POINT
  5
395
330
38D
100
AcDbEntity
  8
Defpoints
 62
     0
100
AcDbPoint
 10
275.2216064879259
 20
4.04437696186602
 30
0.0
  0
POINT
  5
396
330
38D
100
AcDbEntity
  8
Defpoints
 62
     0
100
AcDbPoint
 10
273.6216064879258
 20
-63.95562303813398
 30
0.0
  0
POINT
  5
397
330
38D
100
AcDbEntity
  8
Defpoints
 62
     0
100
AcDbPoint
 10
265.5081590504912
 20
-63.95562303813397
 30
0.0
  0
ENDBLK
  5
398
330
38D
100
AcDbEntity
  8
0
100
AcDbBlockEnd
  0
BLOCK
  5
63F
330
635
100
AcDbEntity
  8
0
100
AcDbBlockBegin
  2
*D10
 70
     1
 10
0.0
 20
0.0
 30
0.0
  3
*D10
  1

  0
LINE
  5
671
330
635
100
AcDbEntity
  8
0
 62
     5
370
    -2
100
AcDbLine
 10
263.7452772156997
 20
370.8309895553659
 30
0.0
 11
263.7452772156997
 21
387.9122403400808
 31
0.0
  0
LINE
  5
672
330
635
100
AcDbEntity
  8
0
 62
     5
370
    -2
100
AcDbLine
 10
203.7452772156997
 20
381.8309895553659
 30
0.0
 11
203.7452772156997
 21
387.9122403400808
 31
0.0
  0
LINE
  5
673
330
635
100
AcDbEntity
  8
0
 62
     5
100
AcDbLine
 10
260.7452772156997
 20
385.9122403400808
 30
0.0
 11
206.7452772156997
 21
385.9122403400808
 31
0.0
  0
SOLID
  5
674
330
635
100
AcDbEntity
  8
0
 62
     5
100
AcDbTrace
 10
260.7452772156997
 20
386.4122403400808
 30
0.0
 11
260.7452772156997
 21
385.4122403400808
 31
0.0
 12
263.7452772156997
 22
385.9122403400808
 32
0.0
 13
263.7452772156997
 23
385.9122403400808
 33
0.0
  0
SOLID
  5
675
330
635
100
AcDbEntity
  8
0
 62
     5
100
AcDbTrace
 10
206.7452772156997
 20
386.4122403400808
 30
0.0
 11
206.7452772156997
 21
385.4122403400808
 31
0.0
 12
203.7452772156997
 22
385.9122403400808
 32
0.0
 13
203.7452772156997
 23
385.9122403400808
 33
0.0
  0
MTEXT
  5
676
330
635
100
AcDbEntity
  8
0
 62
     5
100
AcDbMText
 10
233.7452772156997
 20
388.4122403400808
 30
0.0
 40
3.0
 41
0.0
 71
     5
 72
     1
  1
\A1;60
  7
CHINESET
 73
     1
 44
1.0
1001
ACAD
1000
MTEXTBEGIN
1070
    73
1070
     1
1070
    44
1040
1.0
1070
    74
1070
     0
1000
MTEXTEND
  0
POINT
  5
677
330
635
100
AcDbEntity
  8
Defpoints
 62
     0
100
AcDbPoint
 10
263.7452772156997
 20
368.8309895553659
 30
0.0
  0
POINT
  5
678
330
635
100
AcDbEntity
  8
Defpoints
 62
     0
100
AcDbPoint
 10
203.7452772156997
 20
379.8309895553659
 30
0.0
  0
POINT
  5
679
330
635
100
AcDbEntity
  8
Defpoints
 62
     0
100
AcDbPoint
 10
203.7452772156997
 20
385.9122403400808
 30
0.0
  0
ENDBLK
  5
640
330
635
100
AcDbEntity
  8
0
100
AcDbBlockEnd
  0
BLOCK
  5
64B
330
641
100
AcDbEntity
  8
0
100
AcDbBlockBegin
  2
*D11
 70
     1
 10
0.0
 20
0.0
 30
0.0
  3
*D11
  1

  0
LINE
  5
67A
330
641
100
AcDbEntity
  8
0
 62
     5
370
    -2
100
AcDbLine
 10
161.3947878619235
 20
333.9269683644687
 30
0.0
 11
151.6813404244889
 21
333.9269683644687
 31
0.0
  0
LINE
  5
67B
330
641
100
AcDbEntity
  8
0
 62
     5
370
    -2
100
AcDbLine
 10
159.7947878619234
 20
265.9269683644687
 30
0.0
 11
151.6813404244889
 21
265.9269683644687
 31
0.0
  0
LINE
  5
67C
330
641
100
AcDbEntity
  8
0
 62
     5
100
AcDbLine
 10
153.6813404244889
 20
330.9269683644687
 30
0.0
 11
153.6813404244889
 21
268.9269683644687
 31
0.0
  0
SOLID
  5
67D
330
641
100
AcDbEntity
  8
0
 62
     5
100
AcDbTrace
 10
153.1813404244889
 20
330.9269683644687
 30
0.0
 11
154.1813404244889
 21
330.9269683644687
 31
0.0
 12
153.6813404244889
 22
333.9269683644687
 32
0.0
 13
153.6813404244889
 23
333.9269683644687
 33
0.0
  0
SOLID
  5
67E
330
641
100
AcDbEntity
  8
0
 62
     5
100
AcDbTrace
 10
153.1813404244889
 20
268.9269683644687
 30
0.0
 11
154.1813404244889
 21
268.9269683644687
 31
0.0
 12
153.6813404244889
 22
265.9269683644687
 32
0.0
 13
153.6813404244889
 23
265.9269683644687
 33
0.0
  0
MTEXT
  5
67F
330
641
100
AcDbEntity
  8
0
 62
     5
100
AcDbMText
 10
151.1813404244889
 20
299.9269683644688
 30
0.0
 40
3.0
 41
0.0
 71
     5
 72
     1
  1
\A1;68
  7
CHINESET
 11
0.0000000000000001
 21
1.0
 31
0.0
 73
     1
 44
1.0
1001
ACAD
1000
MTEXTBEGIN
1070
    73
1070
     1
1070
    44
1040
1.0
1070
    74
1070
     0
1000
MTEXTEND
  0
POINT
  5
680
330
641
100
AcDbEntity
  8
Defpoints
 62
     0
100
AcDbPoint
 10
163.3947878619235
 20
333.9269683644687
 30
0.0
  0
POINT
  5
681
330
641
100
AcDbEntity
  8
Defpoints
 62
     0
100
AcDbPoint
 10
161.7947878619234
 20
265.9269683644687
 30
0.0
  0
POINT
  5
682
330
641
100
AcDbEntity
  8
Defpoints
 62
     0
100
AcDbPoint
 10
153.6813404244889
 20
265.9269683644687
 30
0.0
  0
ENDBLK
  5
64C
330
641
100
AcDbEntity
  8
0
100
AcDbBlockEnd
  0
BLOCK
  5
657
330
64D
100
AcDbEntity
  8
0
100
AcDbBlockBegin
  2
*D12
 70
     1
 10
0.0
 20
0.0
 30
0.0
  3
*D12
  1

  0
LINE
  5
683
330
64D
100
AcDbEntity
  8
0
 62
     5
370
    -2
100
AcDbLine
 10
238.7452772156997
 20
380.3309895553659
 30
0.0
 11
275.3555403295165
 21
380.3309895553659
 31
0.0
  0
LINE
  5
684
330
64D
100
AcDbEntity
  8
0
 62
     5
370
    -2
100
AcDbLine
 10
238.7452772156997
 20
357.3309895553659
 30
0.0
 11
275.3555403295165
 21
357.3309895553659
 31
0.0
  0
LINE
  5
685
330
64D
100
AcDbEntity
  8
0
 62
     5
100
AcDbLine
 10
273.3555403295165
 20
377.3309895553659
 30
0.0
 11
273.3555403295165
 21
360.3309895553659
 31
0.0
  0
SOLID
  5
686
330
64D
100
AcDbEntity
  8
0
 62
     5
100
AcDbTrace
 10
272.8555403295165
 20
377.3309895553659
 30
0.0
 11
273.8555403295165
 21
377.3309895553659
 31
0.0
 12
273.3555403295165
 22
380.3309895553659
 32
0.0
 13
273.3555403295165
 23
380.3309895553659
 33
0.0
  0
SOLID
  5
687
330
64D
100
AcDbEntity
  8
0
 62
     5
100
AcDbTrace
 10
272.8555403295165
 20
360.3309895553659
 30
0.0
 11
273.8555403295165
 21
360.3309895553659
 31
0.0
 12
273.3555403295165
 22
357.3309895553659
 32
0.0
 13
273.3555403295165
 23
357.3309895553659
 33
0.0
  0
MTEXT
  5
688
330
64D
100
AcDbEntity
  8
0
 62
     5
100
AcDbMText
 10
270.8555403295164
 20
368.830989555366
 30
0.0
 40
3.0
 41
0.0
 71
     5
 72
     1
  1
\A1;23
  7
CHINESET
 11
0.0000000000000001
 21
1.0
 31
0.0
 73
     1
 44
1.0
1001
ACAD
1000
MTEXTBEGIN
1070
    73
1070
     1
1070
    44
1040
1.0
1070
    74
1070
     0
1000
MTEXTEND
  0
POINT
  5
689
330
64D
100
AcDbEntity
  8
Defpoints
 62
     0
100
AcDbPoint
 10
236.7452772156997
 20
380.3309895553659
 30
0.0
  0
POINT
  5
68A
330
64D
100
AcDbEntity
  8
Defpoints
 62
     0
100
AcDbPoint
 10
236.7452772156997
 20
357.3309895553659
 30
0.0
  0
POINT
  5
68B
330
64D
100
AcDbEntity
  8
Defpoints
 62
     0
100
AcDbPoint
 10
273.3555403295165
 20
357.3309895553659
 30
0.0
  0
ENDBLK
  5
658
330
64D
100
AcDbEntity
  8
0
100
AcDbBlockEnd
  0
BLOCK
  5
663
330
659
100
AcDbEntity
  8
0
100
AcDbBlockBegin
  2
*D13
 70
     1
 10
0.0
 20
0.0
 30
0.0
  3
*D13
  1

  0
LINE
  5
68C
330
659
100
AcDbEntity
  8
0
 62
     5
370
    -2
100
AcDbLine
 10
204.245322639476
 20
263.9269683644688
 30
0.0
 11
204.245322639476
 21
253.8368208098351
 31
0.0
  0
LINE
  5
68D
330
659
100
AcDbEntity
  8
0
 62
     5
370
    -2
100
AcDbLine
 10
223.2452317919232
 20
263.9269683644688
 30
0.0
 11
223.2452317919232
 21
253.8368208098351
 31
0.0
  0
LINE
  5
68E
330
659
100
AcDbEntity
  8
0
 62
     5
100
AcDbLine
 10
207.245322639476
 20
255.836820809835
 30
0.0
 11
220.2452317919232
 21
255.836820809835
 31
0.0
  0
SOLID
  5
68F
330
659
100
AcDbEntity
  8
0
 62
     5
100
AcDbTrace
 10
207.245322639476
 20
256.3368208098351
 30
0.0
 11
207.245322639476
 21
255.336820809835
 31
0.0
 12
204.245322639476
 22
255.836820809835
 32
0.0
 13
204.245322639476
 23
255.836820809835
 33
0.0
  0
SOLID
  5
690
330
659
100
AcDbEntity
  8
0
 62
     5
100
AcDbTrace
 10
220.2452317919232
 20
256.3368208098351
 30
0.0
 11
220.2452317919232
 21
255.336820809835
 31
0.0
 12
223.2452317919232
 22
255.836820809835
 32
0.0
 13
223.2452317919232
 23
255.836820809835
 33
0.0
  0
MTEXT
  5
691
330
659
100
AcDbEntity
  8
0
 62
     5
100
AcDbMText
 10
213.7452772156996
 20
258.3368208098351
 30
0.0
 40
3.0
 41
0.0
 71
     5
 72
     1
  1
\A1;19
  7
CHINESET
 73
     1
 44
1.0
1001
ACAD
1000
MTEXTBEGIN
1070
    73
1070
     1
1070
    44
1040
1.0
1070
    74
1070
     0
1000
MTEXTEND
  0
POINT
  5
692
330
659
100
AcDbEntity
  8
Defpoints
 62
     0
100
AcDbPoint
 10
204.245322639476
 20
265.9269683644687
 30
0.0
  0
POINT
  5
693
330
659
100
AcDbEntity
  8
Defpoints
 62
     0
100
AcDbPoint
 10
223.2452317919232
 20
265.9269683644687
 30
0.0
  0
POINT
  5
694
330
659
100
AcDbEntity
  8
Defpoints
 62
     0
100
AcDbPoint
 10
223.2452317919232
 20
255.836820809835
 30
0.0
  0
ENDBLK
  5
664
330
659
100
AcDbEntity
  8
0
100
AcDbBlockEnd
  0
BLOCK
  5
66F
330
665
100
AcDbEntity
  8
0
100
AcDbBlockBegin
  2
*D14
 70
     1
 10
0.0
 20
0.0
 30
0.0
  3
*D14
  1

  0
LINE
  5
695
330
665
100
AcDbEntity
  8
0
 62
     5
370
    -2
100
AcDbLine
 10
263.7452772156997
 20
291.1769683644688
 30
0.0
 11
263.7452772156997
 21
345.1904546601451
 31
0.0
  0
LINE
  5
696
330
665
100
AcDbEntity
  8
0
 62
     5
370
    -2
100
AcDbLine
 10
213.7452772156996
 20
336.4399395204963
 30
0.0
 11
213.7452772156996
 21
345.1904546601451
 31
0.0
  0
LINE
  5
697
330
665
100
AcDbEntity
  8
0
 62
     5
100
AcDbLine
 10
260.7452772156997
 20
343.1904546601451
 30
0.0
 11
216.7452772156996
 21
343.1904546601451
 31
0.0
  0
SOLID
  5
698
330
665
100
AcDbEntity
  8
0
 62
     5
100
AcDbTrace
 10
260.7452772156997
 20
343.690454660145
 30
0.0
 11
260.7452772156997
 21
342.6904546601451
 31
0.0
 12
263.7452772156997
 22
343.1904546601451
 32
0.0
 13
263.7452772156997
 23
343.1904546601451
 33
0.0
  0
SOLID
  5
699
330
665
100
AcDbEntity
  8
0
 62
     5
100
AcDbTrace
 10
216.7452772156996
 20
343.690454660145
 30
0.0
 11
216.7452772156996
 21
342.6904546601451
 31
0.0
 12
213.7452772156996
 22
343.1904546601451
 32
0.0
 13
213.7452772156996
 23
343.1904546601451
 33
0.0
  0
MTEXT
  5
69A
330
665
100
AcDbEntity
  8
0
 62
     5
100
AcDbMText
 10
238.7452772156997
 20
345.690454660145
 30
0.0
 40
3.0
 41
0.0
 71
     5
 72
     1
  1
\A1;50
  7
CHINESET
 73
     1
 44
1.0
1001
ACAD
1000
MTEXTBEGIN
1070
    73
1070
     1
1070
    44
1040
1.0
1070
    74
1070
     0
1000
MTEXTEND
  0
POINT
  5
69B
330
665
100
AcDbEntity
  8
Defpoints
 62
     0
100
AcDbPoint
 10
263.7452772156997
 20
289.1769683644687
 30
0.0
  0
POINT
  5
69C
330
665
100
AcDbEntity
  8
Defpoints
 62
     0
100
AcDbPoint
 10
213.7452772156996
 20
334.4399395204963
 30
0.0
  0
POINT
  5
69D
330
665
100
AcDbEntity
  8
Defpoints
 62
     0
100
AcDbPoint
 10
213.7452772156996
 20
343.1904546601451
 30
0.0
  0
ENDBLK
  5
670
330
665
100
AcDbEntity
  8
0
100
AcDbBlockEnd
  0
ENDSEC
  0
SECTION
  2
ENTITIES
  0
LINE
  5
500
330
1F
100
AcDbEntity
  8
AM_7
 62
     1
100
AcDbLine
 10
254.7452772156997
 20
291.1769683644688
 30
0.0
 11
254.7452772156997
 21
269.4645936221587
 31
0.0
  0
LINE
  5
501
330
1F
100
AcDbEntity
  8
AM_VIS
100
AcDbLine
 10
263.7452772156997
 20
289.1769683644687
 30
0.0
 11
263.7452772156997
 21
277.1769683644687
 31
0.0
  0
LINE
  5
502
330
1F
100
AcDbEntity
  8
AM_7
 62
     1
100
AcDbLine
 10
213.7452772156997
 20
263.3742662892358
 30
0.0
 11
213.7452772156996
 21
335.8566604672463
 31
0.0
  0
LINE
  5
503
330
1F
100
AcDbEntity
  8
AM_7
 62
     1
100
AcDbLine
 10
170.3947878619236
 20
335.2723688873853
 30
0.0
 11
170.3947878619234
 21
264.7483273925906
 31
0.0
  0
LINE
  5
504
330
1F
100
AcDbEntity
  8
AM_VIS
100
AcDbLine
 10
177.3947878619236
 20
333.9269683644687
 30
0.0
 11
177.3947878619235
 21
321.9269683644687
 31
0.0
  0
LINE
  5
505
330
1F
100
AcDbEntity
  8
AM_VIS
100
AcDbLine
 10
163.3947878619235
 20
333.9269683644687
 30
0.0
 11
163.3947878619236
 21
321.9269683644687
 31
0.0
  0
LINE
  5
506
330
1F
100
AcDbEntity
  8
AM_7
 62
     1
100
AcDbLine
 10
212.9952772156997
 20
368.9309895553659
 30
0.0
 11
214.9952772156997
 21
368.9309895553659
 31
0.0
  0
LINE
  5
507
330
1F
100
AcDbEntity
  8
AM_7
 62
     1
100
AcDbLine
 10
213.9952772156997
 20
367.930989555366
 30
0.0
 11
213.9952772156997
 21
369.930989555366
 31
0.0
  0
LINE
  5
508
330
1F
100
AcDbEntity
  8
AM_7
 62
     1
100
AcDbLine
 10
203.4952772156997
 20
368.9309895553659
 30
0.0
 11
211.9952772156997
 21
368.9309895553659
 31
0.0
  0
LINE
  5
509
330
1F
100
AcDbEntity
  8
AM_7
 62
     1
100
AcDbLine
 10
215.9952772156997
 20
368.9309895553659
 30
0.0
 11
224.4952772156997
 21
368.9309895553659
 31
0.0
  0
LINE
  5
50A
330
1F
100
AcDbEntity
  8
AM_7
 62
     1
100
AcDbLine
 10
213.9952772156997
 20
358.4309895553659
 30
0.0
 11
213.9952772156997
 21
366.930989555366
 31
0.0
  0
LINE
  5
50B
330
1F
100
AcDbEntity
  8
AM_7
 62
     1
100
AcDbLine
 10
213.9952772156997
 20
370.9309895553659
 30
0.0
 11
213.9952772156997
 21
379.430989555366
 31
0.0
  0
LINE
  5
50C
330
1F
100
AcDbEntity
  8
AM_VIS
100
AcDbLine
 10
203.7452772156997
 20
288.9269683644688
 30
0.0
 11
203.7452772156997
 21
317.9269683644687
 31
0.0
  0
LINE
  5
50D
330
1F
100
AcDbEntity
  8
AM_VIS
100
AcDbLine
 10
231.7452772156997
 20
288.9269683644688
 30
0.0
 11
203.7452772156997
 21
288.9269683644688
 31
0.0
  0
LINE
  5
50E
330
1F
100
AcDbEntity
  8
AM_VIS
100
AcDbLine
 10
203.7452772156997
 20
317.9269683644687
 30
0.0
 11
231.7452772156997
 21
317.9269683644687
 31
0.0
  0
LINE
  5
50F
330
1F
100
AcDbEntity
  8
AM_VIS
100
AcDbLine
 10
231.7452772156997
 20
287.9269683644687
 30
0.0
 11
236.7452772156997
 21
287.9269683644687
 31
0.0
  0
LINE
  5
510
330
1F
100
AcDbEntity
  8
AM_VIS
100
AcDbLine
 10
231.7452772156997
 20
318.9269683644687
 30
0.0
 11
236.7452772156997
 21
318.9269683644687
 31
0.0
  0
LINE
  5
511
330
1F
100
AcDbEntity
  8
AM_VIS
100
AcDbLine
 10
236.7452772156997
 20
287.9269683644687
 30
0.0
 11
236.7452772156997
 21
318.9269683644687
 31
0.0
  0
LINE
  5
512
330
1F
100
AcDbEntity
  8
AM_VIS
100
AcDbLine
 10
231.7452772156997
 20
318.9269683644687
 30
0.0
 11
231.7452772156997
 21
287.9269683644687
 31
0.0
  0
LINE
  5
513
330
1F
100
AcDbEntity
  8
AM_VIS
100
AcDbLine
 10
236.7452772156997
 20
317.6769683644687
 30
0.0
 11
262.2452772156997
 21
317.6769683644687
 31
0.0
  0
LINE
  5
514
330
1F
100
AcDbEntity
  8
AM_VIS
100
AcDbLine
 10
262.2452772156997
 20
289.1769683644687
 30
0.0
 11
262.2452772156997
 21
317.6769683644687
 31
0.0
  0
LINE
  5
515
330
1F
100
AcDbEntity
  8
AM_VIS
100
AcDbLine
 10
236.7452772156997
 20
289.1769683644687
 30
0.0
 11
262.2452772156997
 21
289.1769683644687
 31
0.0
  0
LINE
  5
516
330
1F
100
AcDbEntity
  8
AM_VIS
100
AcDbLine
 10
259.3640793692166
 20
270.1769683644688
 30
0.0
 11
263.7452772156997
 21
270.1769683644688
 31
0.0
  0
LINE
  5
517
330
1F
100
AcDbEntity
  8
AM_VIS
100
AcDbLine
 10
259.3640793692166
 20
275.1769683644687
 30
0.0
 11
259.3640793692166
 21
270.1769683644688
 31
0.0
  0
LINE
  5
518
330
1F
100
AcDbEntity
  8
AM_VIS
100
AcDbLine
 10
254.7452772156997
 20
270.1769683644688
 30
0.0
 11
259.3640793692166
 21
270.1769683644688
 31
0.0
  0
LINE
  5
519
330
1F
100
AcDbEntity
  8
AM_VIS
100
AcDbLine
 10
259.3640793692166
 20
275.1769683644687
 30
0.0
 11
263.7452772156997
 21
275.1769683644687
 31
0.0
  0
LINE
  5
51A
330
1F
100
AcDbEntity
  8
AM_VIS
100
AcDbLine
 10
254.7452772156997
 20
275.1769683644687
 30
0.0
 11
259.3640793692166
 21
275.1769683644687
 31
0.0
  0
LINE
  5
51B
330
1F
100
AcDbEntity
  8
AM_VIS
100
AcDbLine
 10
209.9925004659671
 20
288.9269683644688
 30
0.0
 11
209.9925004659671
 21
285.9269683644687
 31
0.0
  0
LINE
  5
51C
330
1F
100
AcDbEntity
  8
AM_VIS
100
AcDbLine
 10
206.2397237162346
 20
288.9269683644688
 30
0.0
 11
206.2397237162346
 21
285.9269683644687
 31
0.0
  0
LINE
  5
51D
330
1F
100
AcDbEntity
  8
AM_VIS
100
AcDbLine
 10
217.4980539654322
 20
288.9269683644688
 30
0.0
 11
217.4980539654322
 21
285.9269683644687
 31
0.0
  0
LINE
  5
51E
330
1F
100
AcDbEntity
  8
AM_VIS
100
AcDbLine
 10
221.2508307151648
 20
288.9269683644688
 30
0.0
 11
221.2508307151648
 21
285.9269683644687
 31
0.0
  0
LINE
  5
51F
330
1F
100
AcDbEntity
  8
AM_VIS
100
AcDbLine
 10
208.8377999275878
 20
265.9269683644687
 30
0.0
 11
218.6527545038114
 21
265.9269683644687
 31
0.0
  0
LINE
  5
520
330
1F
100
AcDbEntity
  8
AM_VIS
100
AcDbLine
 10
208.8377999275878
 20
285.9269683644687
 30
0.0
 11
208.8377999275878
 21
265.9269683644687
 31
0.0
  0
LINE
  5
521
330
1F
100
AcDbEntity
  8
AM_VIS
100
AcDbLine
 10
204.245322639476
 20
265.9269683644687
 30
0.0
 11
208.8377999275878
 21
265.9269683644687
 31
0.0
  0
LINE
  5
522
330
1F
100
AcDbEntity
  8
AM_VIS
100
AcDbLine
 10
204.245322639476
 20
285.9269683644687
 30
0.0
 11
204.245322639476
 21
265.9269683644687
 31
0.0
  0
LINE
  5
523
330
1F
100
AcDbEntity
  8
AM_VIS
100
AcDbLine
 10
218.6527545038114
 20
285.9269683644687
 30
0.0
 11
218.6527545038114
 21
265.9269683644687
 31
0.0
  0
LINE
  5
524
330
1F
100
AcDbEntity
  8
AM_VIS
100
AcDbLine
 10
223.2452317919232
 20
285.9269683644687
 30
0.0
 11
223.2452317919232
 21
265.9269683644687
 31
0.0
  0
LINE
  5
525
330
1F
100
AcDbEntity
  8
AM_VIS
100
AcDbLine
 10
218.6527545038114
 20
265.9269683644687
 30
0.0
 11
223.2452317919232
 21
265.9269683644687
 31
0.0
  0
LINE
  5
526
330
1F
100
AcDbEntity
  8
AM_VIS
100
AcDbLine
 10
204.245322639476
 20
285.9269683644687
 30
0.0
 11
208.8377999275878
 21
285.9269683644687
 31
0.0
  0
LINE
  5
527
330
1F
100
AcDbEntity
  8
AM_VIS
100
AcDbLine
 10
218.6527545038114
 20
285.9269683644687
 30
0.0
 11
223.2452317919232
 21
285.9269683644687
 31
0.0
  0
LINE
  5
528
330
1F
100
AcDbEntity
  8
AM_VIS
100
AcDbLine
 10
208.8377999275878
 20
285.9269683644687
 30
0.0
 11
218.6527545038114
 21
285.9269683644687
 31
0.0
  0
LINE
  5
529
330
1F
100
AcDbEntity
  8
AM_VIS
100
AcDbLine
 10
217.786729100027
 20
333.9269683644687
 30
0.0
 11
209.7038253313722
 21
333.9269683644687
 31
0.0
  0
LINE
  5
52A
330
1F
100
AcDbEntity
  8
AM_VIS
100
AcDbLine
 10
217.786729100027
 20
321.9269683644687
 30
0.0
 11
217.786729100027
 21
333.9269683644687
 31
0.0
  0
LINE
  5
52B
330
1F
100
AcDbEntity
  8
AM_VIS
100
AcDbLine
 10
221.8281809843544
 20
333.9269683644687
 30
0.0
 11
217.786729100027
 21
333.9269683644687
 31
0.0
  0
LINE
  5
52C
330
1F
100
AcDbEntity
  8
AM_VIS
100
AcDbLine
 10
221.8281809843544
 20
321.9269683644687
 30
0.0
 11
221.8281809843544
 21
333.9269683644687
 31
0.0
  0
LINE
  5
52D
330
1F
100
AcDbEntity
  8
AM_VIS
100
AcDbLine
 10
209.7038253313722
 20
321.9269683644687
 30
0.0
 11
209.7038253313722
 21
333.9269683644687
 31
0.0
  0
LINE
  5
52E
330
1F
100
AcDbEntity
  8
AM_VIS
100
AcDbLine
 10
205.6623734470449
 20
321.9269683644687
 30
0.0
 11
205.6623734470449
 21
333.9269683644687
 31
0.0
  0
LINE
  5
52F
330
1F
100
AcDbEntity
  8
AM_VIS
100
AcDbLine
 10
209.7038253313722
 20
333.9269683644687
 30
0.0
 11
205.6623734470449
 21
333.9269683644687
 31
0.0
  0
LINE
  5
530
330
1F
100
AcDbEntity
  8
AM_VIS
100
AcDbLine
 10
221.8281809843544
 20
321.9269683644687
 30
0.0
 11
217.786729100027
 21
321.9269683644687
 31
0.0
  0
LINE
  5
531
330
1F
100
AcDbEntity
  8
AM_VIS
100
AcDbLine
 10
209.7038253313722
 20
321.9269683644687
 30
0.0
 11
205.6623734470449
 21
321.9269683644687
 31
0.0
  0
LINE
  5
532
330
1F
100
AcDbEntity
  8
AM_VIS
100
AcDbLine
 10
217.786729100027
 20
321.9269683644687
 30
0.0
 11
209.7038253313722
 21
321.9269683644687
 31
0.0
  0
LINE
  5
533
330
1F
100
AcDbEntity
  8
AM_VIS
100
AcDbLine
 10
245.7452772156997
 20
289.1769683644687
 30
0.0
 11
245.7452772156997
 21
277.1769683644687
 31
0.0
  0
LINE
  5
534
330
1F
100
AcDbEntity
  8
AM_VIS
100
AcDbLine
 10
261.4952772156997
 20
277.1769683644687
 30
0.0
 11
261.4952772156997
 21
275.1769683644687
 31
0.0
  0
LINE
  5
535
330
1F
100
AcDbEntity
  8
AM_VIS
100
AcDbLine
 10
219.7452772156997
 20
317.9269683644687
 30
0.0
 11
219.7452772156997
 21
321.9269683644687
 31
0.0
  0
LINE
  5
536
330
1F
100
AcDbEntity
  8
AM_VIS
100
AcDbLine
 10
207.7452772156997
 20
317.9269683644687
 30
0.0
 11
207.7452772156997
 21
321.9269683644687
 31
0.0
  0
LINE
  5
537
330
1F
100
AcDbEntity
  8
AM_VIS
100
AcDbLine
 10
262.2452772156997
 20
289.1769683644687
 30
0.0
 11
263.7452772156997
 21
289.1769683644687
 31
0.0
  0
LINE
  5
538
330
1F
100
AcDbEntity
  8
AM_VIS
100
AcDbLine
 10
263.7452772156997
 20
277.1769683644687
 30
0.0
 11
245.7452772156997
 21
277.1769683644687
 31
0.0
  0
LINE
  5
539
330
1F
100
AcDbEntity
  8
AM_VIS
100
AcDbLine
 10
159.3947878619234
 20
317.9269683644687
 30
0.0
 11
159.3947878619234
 21
288.9269683644688
 31
0.0
  0
LINE
  5
53A
330
1F
100
AcDbEntity
  8
AM_VIS
100
AcDbLine
 10
181.3947878619235
 20
288.9269683644688
 30
0.0
 11
181.3947878619235
 21
317.9269683644687
 31
0.0
  0
LINE
  5
53B
330
1F
100
AcDbEntity
  8
AM_VIS
100
AcDbLine
 10
159.3947878619234
 20
288.9269683644688
 30
0.0
 11
181.3947878619235
 21
288.9269683644688
 31
0.0
  0
LINE
  5
53C
330
1F
100
AcDbEntity
  8
AM_VIS
100
AcDbLine
 10
159.3947878619234
 20
317.9269683644687
 30
0.0
 11
181.3947878619235
 21
317.9269683644687
 31
0.0
  0
LINE
  5
53D
330
1F
100
AcDbEntity
  8
AM_VIS
100
AcDbLine
 10
158.8947878619235
 20
287.9269683644687
 30
0.0
 11
158.8947878619235
 21
318.9269683644687
 31
0.0
  0
LINE
  5
53E
330
1F
100
AcDbEntity
  8
AM_VIS
100
AcDbLine
 10
158.8947878619235
 20
318.9269683644687
 30
0.0
 11
164.2947878619234
 21
318.9269683644687
 31
0.0
  0
LINE
  5
53F
330
1F
100
AcDbEntity
  8
AM_VIS
100
AcDbLine
 10
176.2947878619234
 20
318.9269683644687
 30
0.0
 11
181.8947878619234
 21
318.9269683644687
 31
0.0
  0
LINE
  5
540
330
1F
100
AcDbEntity
  8
AM_VIS
100
AcDbLine
 10
181.8947878619234
 20
318.9269683644687
 30
0.0
 11
181.8947878619234
 21
287.9269683644687
 31
0.0
  0
LINE
  5
541
330
1F
100
AcDbEntity
  8
AM_VIS
100
AcDbLine
 10
181.8947878619234
 20
287.9269683644687
 30
0.0
 11
176.7947878619234
 21
287.9269683644687
 31
0.0
  0
LINE
  5
542
330
1F
100
AcDbEntity
  8
AM_VIS
100
AcDbLine
 10
163.7947878619234
 20
287.9269683644687
 30
0.0
 11
158.8947878619235
 21
287.9269683644687
 31
0.0
  0
LINE
  5
543
330
1F
100
AcDbEntity
  8
AM_VIS
100
AcDbLine
 10
176.7947878619234
 20
288.9269683644688
 30
0.0
 11
176.7947878619234
 21
285.9269683644687
 31
0.0
  0
LINE
  5
544
330
1F
100
AcDbEntity
  8
AM_VIS
100
AcDbLine
 10
163.7947878619234
 20
288.9269683644688
 30
0.0
 11
163.7947878619234
 21
285.9269683644687
 31
0.0
  0
LINE
  5
545
330
1F
100
AcDbEntity
  8
AM_VIS
100
AcDbLine
 10
178.7947878619234
 20
285.9269683644687
 30
0.0
 11
178.7947878619234
 21
265.9269683644687
 31
0.0
  0
LINE
  5
546
330
1F
100
AcDbEntity
  8
AM_VIS
100
AcDbLine
 10
170.2947878619234
 20
265.9269683644687
 30
0.0
 11
178.7947878619234
 21
265.9269683644687
 31
0.0
  0
LINE
  5
547
330
1F
100
AcDbEntity
  8
AM_VIS
100
AcDbLine
 10
161.7947878619234
 20
265.9269683644687
 30
0.0
 11
170.2947878619234
 21
265.9269683644687
 31
0.0
  0
LINE
  5
548
330
1F
100
AcDbEntity
  8
AM_VIS
100
AcDbLine
 10
161.7947878619234
 20
285.9269683644687
 30
0.0
 11
161.7947878619234
 21
265.9269683644687
 31
0.0
  0
LINE
  5
549
330
1F
100
AcDbEntity
  8
AM_VIS
100
AcDbLine
 10
170.2947878619234
 20
285.9269683644687
 30
0.0
 11
178.7947878619234
 21
285.9269683644687
 31
0.0
  0
LINE
  5
54A
330
1F
100
AcDbEntity
  8
AM_VIS
100
AcDbLine
 10
161.7947878619234
 20
285.9269683644687
 30
0.0
 11
170.2947878619234
 21
285.9269683644687
 31
0.0
  0
LINE
  5
54B
330
1F
100
AcDbEntity
  8
AM_VIS
100
AcDbLine
 10
170.2947878619234
 20
333.9269683644687
 30
0.0
 11
163.3947878619235
 21
333.9269683644687
 31
0.0
  0
LINE
  5
54C
330
1F
100
AcDbEntity
  8
AM_VIS
100
AcDbLine
 10
177.3947878619236
 20
333.9269683644687
 30
0.0
 11
170.2947878619234
 21
333.9269683644687
 31
0.0
  0
LINE
  5
54D
330
1F
100
AcDbEntity
  8
AM_VIS
100
AcDbLine
 10
170.2947878619234
 20
321.9269683644687
 30
0.0
 11
163.3947878619236
 21
321.9269683644687
 31
0.0
  0
LINE
  5
54E
330
1F
100
AcDbEntity
  8
AM_VIS
100
AcDbLine
 10
177.3947878619236
 20
321.9269683644687
 30
0.0
 11
170.2947878619234
 21
321.9269683644687
 31
0.0
  0
LINE
  5
54F
330
1F
100
AcDbEntity
  8
AM_VIS
100
AcDbLine
 10
161.3947878619234
 20
287.9269683644687
 30
0.0
 11
161.3947878619234
 21
277.1769683644687
 31
0.0
  0
LINE
  5
550
330
1F
100
AcDbEntity
  8
AM_VIS
100
AcDbLine
 10
179.3947878619235
 20
287.9269683644687
 30
0.0
 11
179.3947878619235
 21
277.1769683644687
 31
0.0
  0
LINE
  5
551
330
1F
100
AcDbEntity
  8
AM_VIS
100
AcDbLine
 10
176.2947878619234
 20
317.9269683644687
 30
0.0
 11
176.2947878619234
 21
321.9269683644687
 31
0.0
  0
LINE
  5
552
330
1F
100
AcDbEntity
  8
AM_VIS
100
AcDbLine
 10
164.2947878619234
 20
317.9269683644687
 30
0.0
 11
164.2947878619234
 21
321.9269683644687
 31
0.0
  0
LINE
  5
553
330
1F
100
AcDbEntity
  8
AM_VIS
100
AcDbLine
 10
179.3947878619235
 20
277.1769683644687
 30
0.0
 11
178.7947878619234
 21
277.1769683644687
 31
0.0
  0
LINE
  5
554
330
1F
100
AcDbEntity
  8
AM_VIS
100
AcDbLine
 10
161.7947878619234
 20
277.1769683644687
 30
0.0
 11
161.3947878619234
 21
277.1769683644687
 31
0.0
  0
LINE
  5
555
330
1F
100
AcDbEntity
  8
AM_VIS
100
AcDbLine
 10
231.7452772156997
 20
379.8309895553659
 30
0.0
 11
203.7452772156997
 21
379.8309895553659
 31
0.0
  0
LINE
  5
556
330
1F
100
AcDbEntity
  8
AM_VIS
100
AcDbLine
 10
203.7452772156997
 20
357.8309895553659
 30
0.0
 11
231.7452772156997
 21
357.8309895553659
 31
0.0
  0
LINE
  5
557
330
1F
100
AcDbEntity
  8
AM_VIS
100
AcDbLine
 10
231.7452772156997
 20
380.3309895553659
 30
0.0
 11
236.7452772156997
 21
380.3309895553659
 31
0.0
  0
LINE
  5
558
330
1F
100
AcDbEntity
  8
AM_VIS
100
AcDbLine
 10
236.7452772156997
 20
357.3309895553659
 30
0.0
 11
236.7452772156997
 21
380.3309895553659
 31
0.0
  0
LINE
  5
559
330
1F
100
AcDbEntity
  8
AM_VIS
100
AcDbLine
 10
231.7452772156997
 20
357.3309895553659
 30
0.0
 11
236.7452772156997
 21
357.3309895553659
 31
0.0
  0
LINE
  5
55A
330
1F
100
AcDbEntity
  8
AM_VIS
100
AcDbLine
 10
231.7452772156997
 20
380.3309895553659
 30
0.0
 11
231.7452772156997
 21
357.3309895553659
 31
0.0
  0
LINE
  5
55B
330
1F
100
AcDbEntity
  8
AM_VIS
100
AcDbLine
 10
236.7452772156997
 20
379.0809895553659
 30
0.0
 11
262.2452772156997
 21
379.0809895553659
 31
0.0
  0
LINE
  5
55C
330
1F
100
AcDbEntity
  8
AM_VIS
100
AcDbLine
 10
262.2452772156997
 20
358.5809895553659
 30
0.0
 11
262.2452772156997
 21
379.0809895553659
 31
0.0
  0
LINE
  5
55D
330
1F
100
AcDbEntity
  8
AM_VIS
100
AcDbLine
 10
236.7452772156997
 20
358.5809895553659
 30
0.0
 11
262.2452772156997
 21
358.5809895553659
 31
0.0
  0
LINE
  5
55E
330
1F
100
AcDbEntity
  8
AM_VIS
100
AcDbLine
 10
218.036729100027
 20
361.930989555366
 30
0.0
 11
209.9538253313722
 21
361.930989555366
 31
0.0
  0
LINE
  5
55F
330
1F
100
AcDbEntity
  8
AM_VIS
100
AcDbLine
 10
222.0781809843544
 20
368.9309895553659
 30
0.0
 11
218.036729100027
 21
361.930989555366
 31
0.0
  0
LINE
  5
560
330
1F
100
AcDbEntity
  8
AM_VIS
100
AcDbLine
 10
218.036729100027
 20
375.930989555366
 30
0.0
 11
222.0781809843544
 21
368.9309895553659
 31
0.0
  0
LINE
  5
561
330
1F
100
AcDbEntity
  8
AM_VIS
100
AcDbLine
 10
209.9538253313722
 20
375.930989555366
 30
0.0
 11
218.036729100027
 21
375.930989555366
 31
0.0
  0
LINE
  5
562
330
1F
100
AcDbEntity
  8
AM_VIS
100
AcDbLine
 10
205.9123734470449
 20
368.9309895553659
 30
0.0
 11
209.9538253313722
 21
375.930989555366
 31
0.0
  0
LINE
  5
563
330
1F
100
AcDbEntity
  8
AM_VIS
100
AcDbLine
 10
209.9538253313722
 20
361.930989555366
 30
0.0
 11
205.9123734470449
 21
368.9309895553659
 31
0.0
  0
ARC
  5
564
330
1F
100
AcDbEntity
  8
AM_VIS
100
AcDbCircle
 10
254.7452772156997
 20
368.8309895553659
 30
0.0
 40
9.0
100
AcDbArc
 50
326.4426902380793
 51
33.55730976192069
  0
CIRCLE
  5
565
330
1F
100
AcDbEntity
  8
AM_VIS
100
AcDbCircle
 10
213.9952772156997
 20
368.9309895553659
 30
0.0
 40
8.5
  0
CIRCLE
  5
566
330
1F
100
AcDbEntity
  8
AM_VIS
100
AcDbCircle
 10
213.9952772156997
 20
368.9309895553659
 30
0.0
 40
4.0
  0
DIMENSION
  5
567
330
1F
100
AcDbEntity
  8
0
100
AcDbDimension
  2
*D12
 10
273.3555403295165
 20
357.3309895553659
 30
0.0
 11
270.8555403295164
 21
368.830989555366
 31
0.0
 70
    32
 71
     5
 42
23.0
  3
STANDARD
100
AcDbAlignedDimension
 13
236.7452772156997
 23
380.3309895553659
 33
0.0
 14
236.7452772156997
 24
357.3309895553659
 34
0.0
 50
90.0
100
AcDbRotatedDimension
1001
ACAD
1000
DSTYLE
1002
{
1070
   176
1070
     5
1070
   177
1070
     5
1070
   178
1070
     5
1070
   272
1070
     8
1002
}
  0
DIMENSION
  5
568
330
1F
100
AcDbEntity
  8
0
100
AcDbDimension
  2
*D13
 10
223.2452317919232
 20
255.836820809835
 30
0.0
 11
213.7452772156996
 21
258.3368208098351
 31
0.0
 70
    32
 71
     5
 42
18.99990915244723
  3
STANDARD
100
AcDbAlignedDimension
 13
204.245322639476
 23
265.9269683644687
 33
0.0
 14
223.2452317919232
 24
265.9269683644687
 34
0.0
100
AcDbRotatedDimension
1001
ACAD
1000
DSTYLE
1002
{
1070
   176
1070
     5
1070
   177
1070
     5
1070
   178
1070
     5
1070
   272
1070
     8
1002
}
  0
MTEXT
  5
569
330
1F
100
AcDbEntity
  8
AM_6
100
AcDbMText
 10
192.3408715691319
 20
347.0968163838789
 30
0.0
 40
3.5
 41
6.458657425616934
 71
     1
 72
     5
  1
{\C5;2-PT1/8}
 73
     1
 44
1.0
1001
GENIUS_AMGTXT_16
1040
3.5
1040
0.12
1001
ACAD
1000
MTEXTBEGIN
1070
    73
1070
     1
1070
    44
1040
1.0
1070
    74
1070
     0
1000
MTEXTEND
  0
DIMENSION
  5
56A
330
1F
100
AcDbEntity
  8
0
100
AcDbDimension
  2
*D14
 10
213.7452772156996
 20
343.1904546601451
 30
0.0
 11
238.7452772156997
 21
345.690454660145
 31
0.0
 70
    32
 71
     5
 42
50.00000000000006
  3
STANDARD
100
AcDbAlignedDimension
 13
263.7452772156997
 23
289.1769683644687
 33
0.0
 14
213.7452772156996
 24
334.4399395204963
 34
0.0
100
AcDbRotatedDimension
1001
ACAD
1000
DSTYLE
1002
{
1070
   176
1070
     5
1070
   177
1070
     5
1070
   178
1070
     5
1070
   272
1070
     8
1002
}
  0
LINE
  5
56B
330
1F
100
AcDbEntity
  8
0
100
AcDbLine
 10
263.7452772156997
 20
275.1769683644687
 30
0.0
 11
263.7452772156997
 21
270.1769683644688
 31
0.0
  0
LINE
  5
56C
330
1F
100
AcDbEntity
  8
AM_VIS
100
AcDbLine
 10
250.1264750621826
 20
270.1769683644688
 30
0.0
 11
245.7452772156996
 21
270.1769683644688
 31
0.0
  0
LINE
  5
56D
330
1F
100
AcDbEntity
  8
AM_VIS
100
AcDbLine
 10
250.1264750621826
 20
275.1769683644687
 30
0.0
 11
250.1264750621826
 21
270.1769683644688
 31
0.0
  0
LINE
  5
56E
330
1F
100
AcDbEntity
  8
AM_VIS
100
AcDbLine
 10
254.7452772156997
 20
270.1769683644688
 30
0.0
 11
250.1264750621826
 21
270.1769683644688
 31
0.0
  0
LINE
  5
56F
330
1F
100
AcDbEntity
  8
AM_VIS
100
AcDbLine
 10
250.1264750621826
 20
275.1769683644687
 30
0.0
 11
245.7452772156996
 21
275.1769683644687
 31
0.0
  0
LINE
  5
570
330
1F
100
AcDbEntity
  8
AM_VIS
100
AcDbLine
 10
254.7452772156997
 20
275.1769683644687
 30
0.0
 11
250.1264750621826
 21
275.1769683644687
 31
0.0
  0
LINE
  5
571
330
1F
100
AcDbEntity
  8
AM_VIS
100
AcDbLine
 10
247.9952772156997
 20
277.1769683644687
 30
0.0
 11
247.9952772156997
 21
275.1769683644687
 31
0.0
  0
LINE
  5
572
330
1F
100
AcDbEntity
  8
0
100
AcDbLine
 10
245.7452772156996
 20
275.1769683644687
 30
0.0
 11
245.7452772156996
 21
270.1769683644688
 31
0.0
  0
LINE
  5
573
330
1F
100
AcDbEntity
  8
0
100
AcDbLine
 10
203.7452772156997
 20
357.8309895553659
 30
0.0
 11
203.7452772156997
 21
379.8309895553659
 31
0.0
  0
LINE
  5
574
330
1F
100
AcDbEntity
  8
AM_7
 62
     1
100
AcDbLine
 10
253.7452772156997
 20
232.9564415911855
 30
0.0
 11
255.7452772156997
 21
232.9564415911855
 31
0.0
  0
LINE
  5
575
330
1F
100
AcDbEntity
  8
AM_7
 62
     1
100
AcDbLine
 10
254.7452772156997
 20
231.9564415911855
 30
0.0
 11
254.7452772156997
 21
233.9564415911855
 31
0.0
  0
LINE
  5
576
330
1F
100
AcDbEntity
  8
AM_7
 62
     1
100
AcDbLine
 10
243.7452772156997
 20
232.9564415911855
 30
0.0
 11
252.7452772156997
 21
232.9564415911855
 31
0.0
  0
LINE
  5
577
330
1F
100
AcDbEntity
  8
AM_7
 62
     1
100
AcDbLine
 10
256.7452772156997
 20
232.9564415911855
 30
0.0
 11
265.7452772156997
 21
232.9564415911855
 31
0.0
  0
LINE
  5
578
330
1F
100
AcDbEntity
  8
AM_7
 62
     1
100
AcDbLine
 10
254.7452772156997
 20
221.9564415911855
 30
0.0
 11
254.7452772156997
 21
230.9564415911855
 31
0.0
  0
LINE
  5
579
330
1F
100
AcDbEntity
  8
AM_7
 62
     1
100
AcDbLine
 10
254.7452772156997
 20
234.9564415911855
 30
0.0
 11
254.7452772156997
 21
243.9564415911855
 31
0.0
  0
LINE
  5
57A
330
1F
100
AcDbEntity
  8
AM_7
 62
     1
100
AcDbLine
 10
213.4952772156997
 20
232.8564415911855
 30
0.0
 11
215.4952772156997
 21
232.8564415911855
 31
0.0
  0
LINE
  5
57B
330
1F
100
AcDbEntity
  8
AM_7
 62
     1
100
AcDbLine
 10
214.4952772156997
 20
231.8564415911855
 30
0.0
 11
214.4952772156997
 21
233.8564415911855
 31
0.0
  0
LINE
  5
57C
330
1F
100
AcDbEntity
  8
AM_7
 62
     1
100
AcDbLine
 10
208.4952772156997
 20
232.8564415911855
 30
0.0
 11
212.4952772156997
 21
232.8564415911855
 31
0.0
  0
LINE
  5
57D
330
1F
100
AcDbEntity
  8
AM_7
 62
     1
100
AcDbLine
 10
216.4952772156997
 20
232.8564415911855
 30
0.0
 11
220.4952772156997
 21
232.8564415911855
 31
0.0
  0
LINE
  5
57E
330
1F
100
AcDbEntity
  8
AM_7
 62
     1
100
AcDbLine
 10
214.4952772156997
 20
226.8564415911855
 30
0.0
 11
214.4952772156997
 21
230.8564415911855
 31
0.0
  0
LINE
  5
57F
330
1F
100
AcDbEntity
  8
AM_7
 62
     1
100
AcDbLine
 10
214.4952772156997
 20
234.8564415911855
 30
0.0
 11
214.4952772156997
 21
238.8564415911855
 31
0.0
  0
LINE
  5
580
330
1F
100
AcDbEntity
  8
AM_7
 62
     1
100
AcDbLine
 10
297.5343381447336
 20
307.1769683644687
 30
0.0
 11
299.5343381447336
 21
307.1769683644687
 31
0.0
  0
LINE
  5
581
330
1F
100
AcDbEntity
  8
AM_7
 62
     1
100
AcDbLine
 10
298.5343381447336
 20
306.1769683644687
 30
0.0
 11
298.5343381447336
 21
308.1769683644687
 31
0.0
  0
LINE
  5
582
330
1F
100
AcDbEntity
  8
AM_7
 62
     1
100
AcDbLine
 10
293.0343381447336
 20
307.1769683644687
 30
0.0
 11
296.5343381447336
 21
307.1769683644687
 31
0.0
  0
LINE
  5
583
330
1F
100
AcDbEntity
  8
AM_7
 62
     1
100
AcDbLine
 10
300.5343381447336
 20
307.1769683644687
 30
0.0
 11
304.0343381447336
 21
307.1769683644687
 31
0.0
  0
LINE
  5
584
330
1F
100
AcDbEntity
  8
AM_7
 62
     1
100
AcDbLine
 10
298.5343381447336
 20
263.6210179382128
 30
0.0
 11
298.5343381447336
 21
305.1769683644687
 31
0.0
  0
LINE
  5
585
330
1F
100
AcDbEntity
  8
AM_7
 62
     1
100
AcDbLine
 10
298.5343381447336
 20
309.1769683644687
 30
0.0
 11
298.5343381447336
 21
335.3013465330537
 31
0.0
  0
LINE
  5
586
330
1F
100
AcDbEntity
  8
AM_VIS
100
AcDbLine
 10
304.5343381447335
 20
318.9269683644687
 30
0.0
 11
304.5343381447336
 21
321.9269683644687
 31
0.0
  0
LINE
  5
587
330
1F
100
AcDbEntity
  8
AM_VIS
100
AcDbLine
 10
292.5343381447336
 20
318.9269683644687
 30
0.0
 11
292.5343381447335
 21
321.9269683644687
 31
0.0
  0
LINE
  5
588
330
1F
100
AcDbEntity
  8
AM_VIS
100
AcDbLine
 10
305.5343381447336
 20
321.9269683644687
 30
0.0
 11
305.5343381447336
 21
333.9269683644687
 31
0.0
  0
LINE
  5
589
330
1F
100
AcDbEntity
  8
AM_VIS
100
AcDbLine
 10
291.5343381447336
 20
321.9269683644687
 30
0.0
 11
291.5343381447336
 21
333.9269683644687
 31
0.0
  0
LINE
  5
58A
330
1F
100
AcDbEntity
  8
AM_VIS
100
AcDbLine
 10
203.7452772156997
 20
221.9564415911855
 30
0.0
 11
231.7452772156997
 21
221.9564415911855
 31
0.0
  0
LINE
  5
58B
330
1F
100
AcDbEntity
  8
AM_VIS
100
AcDbLine
 10
203.7452772156997
 20
221.9564415911855
 30
0.0
 11
203.7452772156997
 21
243.9564415911855
 31
0.0
  0
LINE
  5
58C
330
1F
100
AcDbEntity
  8
AM_VIS
100
AcDbLine
 10
231.7452772156997
 20
243.9564415911855
 30
0.0
 11
203.7452772156997
 21
243.9564415911855
 31
0.0
  0
LINE
  5
58D
330
1F
100
AcDbEntity
  8
AM_VIS
100
AcDbLine
 10
231.7452772156997
 20
221.4564415911855
 30
0.0
 11
236.7452772156996
 21
221.4564415911855
 31
0.0
  0
LINE
  5
58E
330
1F
100
AcDbEntity
  8
AM_VIS
100
AcDbLine
 10
231.7452772156997
 20
244.4564415911855
 30
0.0
 11
236.7452772156996
 21
244.4564415911855
 31
0.0
  0
LINE
  5
58F
330
1F
100
AcDbEntity
  8
AM_VIS
100
AcDbLine
 10
236.7452772156996
 20
222.7064415911855
 30
0.0
 11
262.2452772156997
 21
222.7064415911855
 31
0.0
  0
LINE
  5
590
330
1F
100
AcDbEntity
  8
AM_VIS
100
AcDbLine
 10
236.7452772156997
 20
243.2064415911855
 30
0.0
 11
262.2452772156997
 21
243.2064415911855
 31
0.0
  0
LINE
  5
591
330
1F
100
AcDbEntity
  8
AM_VIS
100
AcDbLine
 10
209.5877999275878
 20
241.3564415911855
 30
0.0
 11
219.4027545038114
 21
241.3564415911855
 31
0.0
  0
LINE
  5
592
330
1F
100
AcDbEntity
  8
AM_VIS
100
AcDbLine
 10
204.680322639476
 20
232.8564415911855
 30
0.0
 11
209.5877999275878
 21
241.3564415911855
 31
0.0
  0
LINE
  5
593
330
1F
100
AcDbEntity
  8
AM_VIS
100
AcDbLine
 10
209.5877999275878
 20
224.3564415911855
 30
0.0
 11
204.680322639476
 21
232.8564415911855
 31
0.0
  0
LINE
  5
594
330
1F
100
AcDbEntity
  8
AM_VIS
100
AcDbLine
 10
219.4027545038114
 20
224.3564415911855
 30
0.0
 11
209.5877999275878
 21
224.3564415911855
 31
0.0
  0
LINE
  5
595
330
1F
100
AcDbEntity
  8
AM_VIS
100
AcDbLine
 10
224.3102317919233
 20
232.8564415911855
 30
0.0
 11
219.4027545038114
 21
224.3564415911855
 31
0.0
  0
LINE
  5
596
330
1F
100
AcDbEntity
  8
AM_VIS
100
AcDbLine
 10
219.4027545038114
 20
241.3564415911855
 30
0.0
 11
224.3102317919233
 21
232.8564415911855
 31
0.0
  0
CIRCLE
  5
597
330
1F
100
AcDbEntity
  8
AM_VIS
100
AcDbCircle
 10
254.7452772156997
 20
232.9564415911855
 30
0.0
 40
5.0
  0
CIRCLE
  5
598
330
1F
100
AcDbEntity
  8
AM_VIS
100
AcDbCircle
 10
214.4952772156997
 20
232.8564415911855
 30
0.0
 40
4.0
  0
LINE
  5
599
330
1F
100
AcDbEntity
  8
AM_VIS
100
AcDbLine
 10
310.0343381447336
 20
287.9269683644687
 30
0.0
 11
307.5343381447336
 21
287.9269683644687
 31
0.0
  0
LINE
  5
59A
330
1F
100
AcDbEntity
  8
AM_VIS
100
AcDbLine
 10
289.5343381447336
 20
287.9269683644687
 30
0.0
 11
287.0343381447336
 21
287.9269683644687
 31
0.0
  0
LINE
  5
59B
330
1F
100
AcDbEntity
  8
AM_VIS
100
AcDbLine
 10
310.0343381447336
 20
318.9269683644687
 30
0.0
 11
310.0343381447336
 21
287.9269683644687
 31
0.0
  0
LINE
  5
59C
330
1F
100
AcDbEntity
  8
AM_VIS
100
AcDbLine
 10
287.0343381447336
 20
318.9269683644687
 30
0.0
 11
310.0343381447336
 21
318.9269683644687
 31
0.0
  0
LINE
  5
59D
330
1F
100
AcDbEntity
  8
AM_VIS
100
AcDbLine
 10
287.0343381447336
 20
287.9269683644687
 30
0.0
 11
287.0343381447336
 21
318.9269683644687
 31
0.0
  0
LINE
  5
59E
330
1F
100
AcDbEntity
  8
AM_VIS
100
AcDbLine
 10
308.7843381447336
 20
317.6769683644687
 30
0.0
 11
308.7843381447336
 21
289.1769683644687
 31
0.0
  0
LINE
  5
59F
330
1F
100
AcDbEntity
  8
AM_VIS
100
AcDbLine
 10
288.2843381447336
 20
317.6769683644687
 30
0.0
 11
308.7843381447336
 21
317.6769683644687
 31
0.0
  0
LINE
  5
5A0
330
1F
100
AcDbEntity
  8
AM_VIS
100
AcDbLine
 10
288.2843381447336
 20
289.1769683644687
 30
0.0
 11
288.2843381447336
 21
317.6769683644687
 31
0.0
  0
LINE
  5
5A1
330
1F
100
AcDbEntity
  8
AM_VIS
100
AcDbLine
 10
308.7843381447336
 20
289.1769683644687
 30
0.0
 11
303.5092753302667
 21
289.1769683644687
 31
0.0
  0
LINE
  5
5A2
330
1F
100
AcDbEntity
  8
AM_VIS
100
AcDbLine
 10
293.5594009592005
 20
289.1769683644687
 30
0.0
 11
288.2843381447336
 21
289.1769683644687
 31
0.0
  0
LINE
  5
5A3
330
1F
100
AcDbEntity
  8
AM_VIS
100
AcDbLine
 10
306.5343381447336
 20
275.1769683644687
 30
0.0
 11
306.5343381447336
 21
270.1769683644688
 31
0.0
  0
LINE
  5
5A4
330
1F
100
AcDbEntity
  8
AM_VIS
100
AcDbLine
 10
298.5343381447336
 20
270.1769683644688
 30
0.0
 11
306.5343381447336
 21
270.1769683644688
 31
0.0
  0
LINE
  5
5A5
330
1F
100
AcDbEntity
  8
AM_VIS
100
AcDbLine
 10
290.5343381447336
 20
270.1769683644688
 30
0.0
 11
298.5343381447336
 21
270.1769683644688
 31
0.0
  0
LINE
  5
5A6
330
1F
100
AcDbEntity
  8
AM_VIS
100
AcDbLine
 10
290.5343381447336
 20
275.1769683644687
 30
0.0
 11
290.5343381447336
 21
270.1769683644688
 31
0.0
  0
LINE
  5
5A7
330
1F
100
AcDbEntity
  8
AM_VIS
100
AcDbLine
 10
298.5343381447336
 20
275.1769683644687
 30
0.0
 11
306.5343381447336
 21
275.1769683644687
 31
0.0
  0
LINE
  5
5A8
330
1F
100
AcDbEntity
  8
AM_VIS
100
AcDbLine
 10
290.5343381447336
 20
275.1769683644687
 30
0.0
 11
298.5343381447336
 21
275.1769683644687
 31
0.0
  0
LINE
  5
5A9
330
1F
100
AcDbEntity
  8
AM_VIS
100
AcDbLine
 10
307.1343381447336
 20
277.1769683644687
 30
0.0
 11
307.1343381447336
 21
265.9269683644687
 31
0.0
  0
LINE
  5
5AA
330
1F
100
AcDbEntity
  8
AM_VIS
100
AcDbLine
 10
298.6343381447336
 20
265.9269683644687
 30
0.0
 11
307.1343381447336
 21
265.9269683644687
 31
0.0
  0
LINE
  5
5AB
330
1F
100
AcDbEntity
  8
AM_VIS
100
AcDbLine
 10
290.1343381447336
 20
277.1769683644687
 30
0.0
 11
290.1343381447336
 21
265.9269683644687
 31
0.0
  0
LINE
  5
5AC
330
1F
100
AcDbEntity
  8
AM_VIS
100
AcDbLine
 10
290.1343381447336
 20
265.9269683644687
 30
0.0
 11
298.6343381447336
 21
265.9269683644687
 31
0.0
  0
LINE
  5
5AD
330
1F
100
AcDbEntity
  8
AM_VIS
100
AcDbLine
 10
298.6343381447336
 20
333.9269683644687
 30
0.0
 11
291.5343381447335
 21
333.9269683644687
 31
0.0
  0
LINE
  5
5AE
330
1F
100
AcDbEntity
  8
AM_VIS
100
AcDbLine
 10
305.5343381447336
 20
333.9269683644687
 30
0.0
 11
298.6343381447336
 21
333.9269683644687
 31
0.0
  0
LINE
  5
5AF
330
1F
100
AcDbEntity
  8
AM_VIS
100
AcDbLine
 10
298.6343381447336
 20
321.9269683644687
 30
0.0
 11
291.5343381447335
 21
321.9269683644687
 31
0.0
  0
LINE
  5
5B0
330
1F
100
AcDbEntity
  8
AM_VIS
100
AcDbLine
 10
305.5343381447336
 20
321.9269683644687
 30
0.0
 11
298.6343381447336
 21
321.9269683644687
 31
0.0
  0
LINE
  5
5B1
330
1F
100
AcDbEntity
  8
AM_VIS
100
AcDbLine
 10
289.5343381447336
 20
289.1769683644687
 30
0.0
 11
289.5343381447336
 21
277.1769683644687
 31
0.0
  0
LINE
  5
5B2
330
1F
100
AcDbEntity
  8
AM_VIS
100
AcDbLine
 10
307.5343381447336
 20
289.1769683644687
 30
0.0
 11
307.5343381447336
 21
277.1769683644687
 31
0.0
  0
LINE
  5
5B3
330
1F
100
AcDbEntity
  8
AM_VIS
100
AcDbLine
 10
291.7843381447336
 20
277.1769683644687
 30
0.0
 11
291.7843381447336
 21
275.1769683644687
 31
0.0
  0
LINE
  5
5B4
330
1F
100
AcDbEntity
  8
AM_VIS
100
AcDbLine
 10
305.2843381447336
 20
277.1769683644687
 30
0.0
 11
305.2843381447336
 21
275.1769683644687
 31
0.0
  0
LINE
  5
5B5
330
1F
100
AcDbEntity
  8
AM_VIS
100
AcDbLine
 10
293.5594009592005
 20
289.1769683644687
 30
0.0
 11
303.5092753302667
 21
289.1769683644687
 31
0.0
  0
LINE
  5
5B6
330
1F
100
AcDbEntity
  8
AM_VIS
100
AcDbLine
 10
307.5343381447336
 20
277.1769683644687
 30
0.0
 11
289.5343381447336
 21
277.1769683644687
 31
0.0
  0
CIRCLE
  5
5B7
330
1F
100
AcDbEntity
  8
AM_VIS
100
AcDbCircle
 10
298.5343381447336
 20
307.1769683644687
 30
0.0
 40
3.5
  0
CIRCLE
  5
5B8
330
1F
100
AcDbEntity
  8
AM_VIS
100
AcDbCircle
 10
298.5343381447336
 20
307.1769683644687
 30
0.0
 40
2.5
  0
LINE
  5
5B9
330
1F
100
AcDbEntity
  8
0
100
AcDbLine
 10
262.2452772156997
 20
243.2064415911855
 30
0.0
 11
262.2452772156997
 21
237.9313787767186
 31
0.0
  0
LINE
  5
5BA
330
1F
100
AcDbEntity
  8
0
100
AcDbLine
 10
262.2452772156996
 20
227.9815044056522
 30
0.0
 11
262.2452772156997
 21
222.7064415911855
 31
0.0
  0
LINE
  5
5BB
330
1F
100
AcDbEntity
  8
0
100
AcDbLine
 10
236.7452772156996
 20
244.4564415911855
 30
0.0
 11
236.7452772156996
 21
221.4564415911855
 31
0.0
  0
LINE
  5
5BC
330
1F
100
AcDbEntity
  8
0
100
AcDbLine
 10
231.7452772156997
 20
244.4564415911855
 30
0.0
 11
231.7452772156997
 21
221.4564415911855
 31
0.0
  0
DIMENSION
  5
5BD
330
1F
100
AcDbEntity
  8
0
100
AcDbDimension
  2
*D10
 10
203.7452772156997
 20
385.9122403400808
 30
0.0
 11
233.7452772156997
 21
388.4122403400808
 31
0.0
 70
    32
 71
     5
 42
60.0
  3
STANDARD
100
AcDbAlignedDimension
 13
263.7452772156997
 23
368.8309895553659
 33
0.0
 14
203.7452772156997
 24
379.8309895553659
 34
0.0
100
AcDbRotatedDimension
1001
ACAD
1000
DSTYLE
1002
{
1070
   178
1070
     5
1070
   177
1070
     5
1070
   176
1070
     5
1070
   272
1070
     8
1002
}
  0
LEADER
  5
5BE
330
1F
100
AcDbEntity
  8
0
100
AcDbLeader
  3
STANDARD
 76
     3
 10
213.7452772156996
 20
333.9269683644687
 30
0.0
 10
209.4077008300894
 20
343.6208210237794
 30
0.0
 10
191.2770118943037
 20
343.6208210237794
 30
0.0
1001
ACAD
1000
DSTYLE
1002
{
1070
   176
1070
     5
1070
   177
1070
     5
1070
   178
1070
     5
1070
   272
1070
     8
1002
}
  0
CIRCLE
  5
5BF
330
1F
100
AcDbEntity
  8
0
100
AcDbCircle
 10
254.7452772156997
 20
232.9564415911855
 30
0.0
 40
9.000000000000113
  0
LWPOLYLINE
  5
5C0
330
1F
100
AcDbEntity
  8
0
100
AcDbPolyline
 90
        6
 70
     1
 43
0.0
 10
245.7452772156996
 20
232.9564415911855
 10
250.2452772156997
 20
225.1622129571255
 10
259.2452772156998
 20
225.1622129571255
 10
263.7452772156998
 20
232.9564415911855
 10
259.2452772156998
 20
240.7506702252456
 10
250.2452772156997
 20
240.7506702252456
  0
TEXT
  5
5C1
330
1F
100
AcDbEntity
  8
LOGO
 62
     7
100
AcDbText
 10
182.5525684461344
 20
193.6025233962737
 30
0.0
 40
2.932908597285067
  1
Order example:
 41
0.8
  7
CHINESET
100
AcDbText
  0
TEXT
  5
5C2
330
1F
100
AcDbEntity
  8
LOGO
 62
     7
100
AcDbText
 10
183.0787565026548
 20
197.7314514347776
 30
0.0
 40
4.399362895927601
  1
訂購代號：
  7
CHINESET
100
AcDbText
  0
LINE
  5
5C3
330
1F
100
AcDbEntity
  8
LOGO
 62
     4
100
AcDbLine
 10
328.0710675167984
 20
203.2389535120205
 30
0.0
 11
132.8852178575564
 21
203.2389535120205
 31
0.0
  0
LINE
  5
5C4
330
1F
100
AcDbEntity
  8
LOGO
 62
     4
100
AcDbLine
 10
181.2782097127601
 20
181.242139032382
 30
0.0
 11
181.2782097127601
 21
203.2389535120205
 31
0.0
  0
TEXT
  5
5C5
330
1F
100
AcDbEntity
  8
LOGO
  6
Continuous
100
AcDbText
 10
140.7865724962366
 20
185.5633800408195
 30
0.0
 40
3.299522171945701
  1
金器工業股份有限公司
  7
CHINESET
100
AcDbText
  0
TEXT
  5
5C6
330
1F
100
AcDbEntity
  8
LOGO
  6
Continuous
100
AcDbText
 10
134.7260030446425
 20
182.2632114212207
 30
0.0
 40
2.1996814479638
  1
MINDMAN INDUSTRIAL CO., LTD.
 41
0.85
  7
CHINESET
100
AcDbText
  0
LINE
  5
5C7
330
1F
100
AcDbEntity
  8
LOGO
 62
     4
100
AcDbLine
 10
181.2782097127601
 20
198.8395906160926
 30
0.0
 11
149.0162151426241
 21
198.8395906160926
 31
0.0
  0
LINE
  5
5C8
330
1F
100
AcDbEntity
  8
LOGO
 62
     4
100
AcDbLine
 10
181.2782097127601
 20
194.4402277201652
 30
0.0
 11
149.0162151426241
 21
194.4402277201652
 31
0.0
  0
LINE
  5
5C9
330
1F
100
AcDbEntity
  8
LOGO
 62
     4
100
AcDbLine
 10
181.2782097127601
 20
190.0408648242378
 30
0.0
 11
132.8852178575564
 21
190.0408648242378
 31
0.0
  0
LINE
  5
5CA
330
1F
100
AcDbEntity
  8
LOGO
 62
     4
100
AcDbLine
 10
149.0162151426241
 20
190.0408648242378
 30
0.0
 11
149.0162151426241
 21
203.2389535120205
 31
0.0
  0
TEXT
  5
5CB
330
1F
100
AcDbEntity
  8
LOGO
100
AcDbText
 10
171.0657656883626
 20
191.1407055482193
 30
0.0
 40
2.1996814479638
  1
mm
  7
CHINESET
 72
     1
 11
173.789180814413
 21
192.2405462722012
 31
0.0
100
AcDbText
 73
     2
  0
TEXT
  5
5CC
330
1F
100
AcDbEntity
  8
LOGO
100
AcDbText
 10
169.913551596572
 20
199.9394313400746
 30
0.0
 40
2.1996814479638
  1
1 : 1
  7
CHINESET
 72
     1
 11
173.789180814413
 21
201.0392720640565
 31
0.0
100
AcDbText
 73
     2
  0
LINE
  5
5CD
330
1F
100
AcDbEntity
  8
LOGO
 62
     4
100
AcDbLine
 10
166.6136667263346
 20
190.0408648242378
 30
0.0
 11
166.6136667263346
 21
203.2389535120205
 31
0.0
  0
TEXT
  5
5CE
330
1F
100
AcDbEntity
  8
LOGO
100
AcDbText
 10
150.8299703365478
 20
199.9405138604722
 30
144.1634983360548
 40
2.1996814479638
  1
比例 Scale:
 41
0.9
  7
CHINESET
 72
     4
 11
157.8149409344793
 21
201.0392720640565
 31
144.1634983360548
100
AcDbText
  0
TEXT
  5
5CF
330
1F
100
AcDbEntity
  8
LOGO
100
AcDbText
 10
150.7032922531607
 20
195.571010485512
 30
144.1634983360548
 40
2.1996814479638
  1
投影  View:
 41
0.9
  7
CHINESET
 72
     4
 11
157.8149409344793
 21
196.6399091681286
 31
144.1634983360548
100
AcDbText
  0
TEXT
  5
5D0
330
1F
100
AcDbEntity
  8
LOGO
100
AcDbText
 10
150.918350394725
 20
191.1407055482193
 30
144.1634983360548
 40
2.1996814479638
  1
單位  Unit:
 41
0.9
  7
CHINESET
 72
     4
 11
157.8149409344793
 21
192.2405462722012
 31
144.1634983360548
100
AcDbText
  0
LWPOLYLINE
  5
5D1
330
1F
100
AcDbEntity
  8
LOGO
 62
     4
100
AcDbPolyline
 90
        4
 70
     1
 43
0.0
 10
132.8852178575564
 20
203.2389535120205
 10
328.0710675167984
 20
203.2389535120205
 10
328.0710675167984
 20
401.2421390323818
 10
132.8852178575564
 20
401.2421390323818
1001
GENIUS_GENREC_14
1002
{
1000
PYDIR
1011
132.8852178575564
1021
401.2421390323818
1031
0.0
1002
}
1002
{
1000
PXDIR
1011
328.0710675167984
1021
203.2389535120205
1031
0.0
1002
}
1002
{
1000
PORI
1011
132.8852178575564
1021
203.2389535120205
1031
0.0
1002
}
1002
{
1000
PINS
1011
132.8852178575564
1021
203.2389535120205
1031
0.0
1002
}
1002
{
1000
PINS2
1011
328.0710675167984
1021
401.2421390323818
1031
0.0
1002
}
1002
{
1000
C
1070
     1
1002
}
1001
GENIUS_GENODEF_13
1002
{
1000
HIER
1070
     0
1002
}
1002
{
1000
MANEDIT
1070
     0
1002
}
1002
{
1000
NOSEL
1070
     0
1002
}
1002
{
1000
BEHIND
1070
     0
1002
}
1002
{
1000
OTHER
1070
     0
1002
}
1002
{
1000
REACTOR
1002
}
1001
GENIUS_GENOBJ-N-REC_13
1002
{
1000
OWNER
1000
GEN
1002
}
  0
SOLID
  5
5D2
330
1F
100
AcDbEntity
  8
LOGO
 62
     5
100
AcDbTrace
 10
135.1674226620207
 20
193.6975221314783
 30
0.0
 11
136.1185072004792
 21
193.6975221314783
 31
0.0
 12
140.08682544715
 22
202.7164272375493
 32
0.0
 13
141.0379099856089
 23
202.7164272375489
 33
0.0
  0
SOLID
  5
5D3
330
1F
100
AcDbEntity
  8
LOGO
 62
     5
100
AcDbTrace
 10
136.5120594232905
 20
193.6975221314783
 30
0.0
 11
137.4631439617488
 21
193.6975221314783
 31
0.0
 12
141.0379099856089
 22
201.9949148290633
 32
0.0
 13
140.08682544715
 23
198.5076048547159
 33
0.0
  0
SOLID
  5
5D4
330
1F
100
AcDbEntity
  8
LOGO
 62
     2
100
AcDbTrace
 10
136.1185072004792
 20
193.6975221314783
 30
0.0
 11
136.5120594232905
 21
193.6975221314783
 31
0.0
 12
141.0379099856089
 22
202.7164272375489
 32
0.0
 13
141.4314622084197
 23
202.7164272375489
 33
0.0
  0
SOLID
  5
5D5
330
1F
100
AcDbEntity
  8
LOGO
 62
     5
100
AcDbTrace
 10
133.6426009123736
 20
190.4179202747258
 30
0.0
 11
133.9705610980492
 21
190.4179202747258
 31
0.0
 12
134.8941225072917
 22
192.057721203102
 32
0.0
 13
135.2220826929663
 23
192.057721203102
 33
0.0
  0
SOLID
  5
5D6
330
1F
100
AcDbEntity
  8
LOGO
 62
     5
100
AcDbTrace
 10
134.8941225072917
 20
192.057721203102
 30
0.0
 11
135.2220826929663
 21
192.057721203102
 31
0.0
 12
134.8941225072917
 22
190.4179202747258
 32
0.0
 13
135.2220826929663
 23
190.4179202747258
 33
0.0
  0
SOLID
  5
5D7
330
1F
100
AcDbEntity
  8
LOGO
 62
     5
100
AcDbTrace
 10
134.8941225072917
 20
190.4179202747258
 30
0.0
 11
135.2220826929663
 21
190.4179202747258
 31
0.0
 12
136.1456441022102
 22
192.057721203102
 32
0.0
 13
136.4736042878854
 23
192.057721203102
 33
0.0
  0
SOLID
  5
5D8
330
1F
100
AcDbEntity
  8
LOGO
 62
     5
100
AcDbTrace
 10
136.1456441022102
 20
192.057721203102
 30
0.0
 11
136.4736042878854
 21
192.057721203102
 31
0.0
 12
136.1456441022102
 22
190.4179202747258
 32
0.0
 13
136.4736042878854
 23
190.4179202747258
 33
0.0
  0
POLYLINE
  5
5D9
330
1F
100
AcDbEntity
  8
LOGO
 62
     5
100
AcDb2dPolyline
 66
     1
 10
0.0
 20
0.0
 30
0.0
 40
0.3284857628959275
 41
0.3284857628959275
  0
VERTEX
  5
5DA
330
5D9
100
AcDbEntity
  8
LOGO
 62
     5
100
AcDbVertex
100
AcDb2dVertex
 10
147.1387578050007
 20
191.4018008317512
 30
0.0
 42
1.0
  0
VERTEX
  5
5DB
330
5D9
100
AcDbEntity
  8
LOGO
 62
     5
100
AcDbVertex
100
AcDb2dVertex
 10
146.1533005163127
 20
191.4018008317512
 30
0.0
 42
1.0
  0
SEQEND
  5
5DC
330
5D9
100
AcDbEntity
  8
LOGO
 62
     5
  0
POLYLINE
  5
5DD
330
1F
100
AcDbEntity
  8
LOGO
 62
     5
100
AcDb2dPolyline
 66
     1
 10
0.0
 20
0.0
 30
0.0
 70
     1
  0
VERTEX
  5
5DE
330
5DD
100
AcDbEntity
  8
LOGO
 62
     5
100
AcDbVertex
100
AcDb2dVertex
 10
144.2956696939955
 20
191.2378207389137
 30
0.0
 42
1.000000057330635
  0
VERTEX
  5
5DF
330
5DD
100
AcDbEntity
  8
LOGO
 62
     5
100
AcDbVertex
100
AcDb2dVertex
 10
145.2795502510215
 20
191.2378207389137
 30
0.0
 42
1.000000057330635
  0
SEQEND
  5
5E0
330
5DD
100
AcDbEntity
  8
LOGO
 62
     5
  0
CIRCLE
  5
5E1
330
1F
100
AcDbEntity
  8
LOGO
 62
     5
100
AcDbCircle
 10
144.7876099725092
 20
191.2378207389137
 30
0.0
 40
0.4919402785129413
  0
POLYLINE
  5
5E2
330
1F
100
AcDbEntity
  8
LOGO
 62
     5
100
AcDb2dPolyline
 66
     1
 10
0.0
 20
0.0
 30
0.0
 70
     1
 40
0.3284857628959275
 41
0.3284857628959275
  0
VERTEX
  5
5E3
330
5E2
100
AcDbEntity
  8
LOGO
 62
     5
100
AcDbVertex
100
AcDb2dVertex
 10
144.1306384467169
 20
191.2378207389137
 30
0.0
 42
1.0
  0
VERTEX
  5
5E4
330
5E2
100
AcDbEntity
  8
LOGO
 62
     5
100
AcDbVertex
100
AcDb2dVertex
 10
145.4445814983006
 20
191.2378207389137
 30
0.0
 42
1.0
  0
SEQEND
  5
5E5
330
5E2
100
AcDbEntity
  8
LOGO
 62
     5
  0
LINE
  5
5E6
330
1F
100
AcDbEntity
  8
LOGO
100
AcDbLine
 10
147.3019495320067
 20
190.4179202747258
 30
0.0
 11
147.3019495320067
 21
191.4018008317512
 31
0.0
  0
SOLID
  5
5E7
330
1F
100
AcDbEntity
  8
LOGO
 62
     5
100
AcDbTrace
 10
145.2795174550043
 20
192.057721203102
 30
0.0
 11
145.6074776406789
 21
192.057721203102
 31
0.0
 12
145.2795174550043
 22
190.4179202747258
 32
0.0
 13
145.6074776406789
 23
190.4179202747258
 33
0.0
  0
SOLID
  5
5E8
330
1F
100
AcDbEntity
  8
LOGO
 62
     5
100
AcDbTrace
 10
145.9901087893056
 20
190.4179202747258
 30
0.0
 11
146.3180689749814
 21
190.4179202747258
 31
0.0
 12
145.9901087893056
 22
192.057721203102
 32
0.0
 13
146.3180689749814
 23
192.057721203102
 33
0.0
  0
SOLID
  5
5E9
330
1F
100
AcDbEntity
  8
LOGO
 62
     5
100
AcDbTrace
 10
146.973989346332
 20
191.4018008317512
 30
0.0
 11
147.3019495320067
 21
191.4018008317512
 31
0.0
 12
146.973989346332
 22
190.4179202747258
 32
0.0
 13
147.3019495320067
 23
190.4179202747258
 33
0.0
  0
SOLID
  5
5EA
330
1F
100
AcDbEntity
  8
LOGO
 62
     5
100
AcDbTrace
 10
145.957312770738
 20
201.9949148290633
 30
0.0
 11
145.0062282322802
 21
198.5076048547159
 31
0.0
 12
145.957312770738
 22
193.6975221314783
 32
0.0
 13
145.0062282322802
 23
193.6975221314783
 33
0.0
  0
SOLID
  5
5EB
330
1F
100
AcDbEntity
  8
LOGO
 62
     5
100
AcDbTrace
 10
146.3508649935489
 20
193.6975221314783
 30
0.0
 11
147.3019495320067
 21
193.6975221314783
 31
0.0
 12
146.3508649935489
 22
202.7164272375489
 32
0.0
 13
147.3019495320067
 23
202.7164272375493
 33
0.0
  0
SOLID
  5
5EC
330
1F
100
AcDbEntity
  8
LOGO
 62
     2
100
AcDbTrace
 10
145.957312770738
 20
202.7164272375493
 30
0.0
 11
146.3508649935489
 21
202.7164272375489
 31
0.0
 12
145.957312770738
 22
193.6975221314783
 32
0.0
 13
146.3508649935489
 23
193.6975221314783
 33
0.0
  0
POLYLINE
  5
5ED
330
1F
100
AcDbEntity
  8
LOGO
 62
     5
100
AcDb2dPolyline
 66
     1
 10
0.0
 20
0.0
 30
0.0
 40
0.3284857628959275
 41
0.3284857628959275
  0
VERTEX
  5
5EE
330
5ED
100
AcDbEntity
  8
LOGO
 62
     5
100
AcDbVertex
100
AcDb2dVertex
 10
142.4379732796425
 20
191.4018008317512
 30
0.0
 42
1.0
  0
VERTEX
  5
5EF
330
5ED
100
AcDbEntity
  8
LOGO
 62
     5
100
AcDbVertex
100
AcDb2dVertex
 10
141.4525159909545
 20
191.4018008317512
 30
0.0
 42
1.0
  0
SEQEND
  5
5F0
330
5ED
100
AcDbEntity
  8
LOGO
 62
     5
  0
POLYLINE
  5
5F1
330
1F
100
AcDbEntity
  8
LOGO
 62
     5
100
AcDb2dPolyline
 66
     1
 10
0.0
 20
0.0
 30
0.0
 40
0.3284857628959275
 41
0.3284857628959275
  0
VERTEX
  5
5F2
330
5F1
100
AcDbEntity
  8
LOGO
 62
     5
100
AcDbVertex
100
AcDb2dVertex
 10
143.4218538366675
 20
191.4018008317512
 30
0.0
 42
1.0
  0
VERTEX
  5
5F3
330
5F1
100
AcDbEntity
  8
LOGO
 62
     5
100
AcDbVertex
100
AcDb2dVertex
 10
142.43639654798
 20
191.4018008317512
 30
0.0
 42
1.0
  0
SEQEND
  5
5F4
330
5F1
100
AcDbEntity
  8
LOGO
 62
     5
  0
POLYLINE
  5
5F5
330
1F
100
AcDbEntity
  8
LOGO
 62
     5
100
AcDb2dPolyline
 66
     1
 10
0.0
 20
0.0
 30
0.0
 40
0.3284857628959275
 41
0.3284857628959275
  0
VERTEX
  5
5F6
330
5F5
100
AcDbEntity
  8
LOGO
 62
     5
100
AcDbVertex
100
AcDb2dVertex
 10
138.7210693113093
 20
191.4018008317512
 30
0.0
 42
1.0
  0
VERTEX
  5
5F7
330
5F5
100
AcDbEntity
  8
LOGO
 62
     5
100
AcDbVertex
100
AcDb2dVertex
 10
137.7356120226219
 20
191.4018008317512
 30
0.0
 42
1.0
  0
SEQEND
  5
5F8
330
5F5
100
AcDbEntity
  8
LOGO
 62
     5
  0
SOLID
  5
5F9
330
1F
100
AcDbEntity
  8
LOGO
 62
     5
100
AcDbTrace
 10
137.5724202956152
 20
192.057721203102
 30
0.0
 11
137.9003804812899
 21
192.057721203102
 31
0.0
 12
137.5724202956152
 22
190.4179202747258
 32
0.0
 13
137.9003804812899
 23
190.4179202747258
 33
0.0
  0
SOLID
  5
5FA
330
1F
100
AcDbEntity
  8
LOGO
 62
     5
100
AcDbTrace
 10
138.5563008526412
 20
191.4018008317512
 30
0.0
 11
138.8842610383169
 21
191.4018008317512
 31
0.0
 12
138.5563008526412
 22
190.4179202747258
 32
0.0
 13
138.8842610383169
 23
190.4179202747258
 33
0.0
  0
POLYLINE
  5
5FB
330
1F
100
AcDbEntity
  8
LOGO
 62
     5
100
AcDb2dPolyline
 66
     1
 10
0.0
 20
0.0
 30
0.0
 70
     1
 40
0.3284857628959275
 41
0.3284857628959275
  0
VERTEX
  5
5FC
330
5FB
100
AcDbEntity
  8
LOGO
 62
     5
100
AcDbVertex
100
AcDb2dVertex
 10
139.4298539213582
 20
191.2378207389137
 30
0.0
 42
1.0
  0
VERTEX
  5
5FD
330
5FB
100
AcDbEntity
  8
LOGO
 62
     5
100
AcDbVertex
100
AcDb2dVertex
 10
140.7437969729423
 20
191.2378207389137
 30
0.0
 42
1.0
  0
SEQEND
  5
5FE
330
5FB
100
AcDbEntity
  8
LOGO
 62
     5
  0
SOLID
  5
5FF
330
1F
100
AcDbEntity
  8
LOGO
 62
     5
100
AcDbTrace
 10
140.5787329296451
 20
192.5496614816153
 30
0.0
 11
140.9066931153202
 21
192.5496614816153
 31
0.0
 12
140.5787329296451
 22
190.4179202747258
 32
0.0
 13
140.9066931153202
 23
190.4179202747258
 33
0.0
  0
SOLID
  5
600
330
1F
100
AcDbEntity
  8
LOGO
 62
     5
100
AcDbTrace
 10
141.2893242639484
 20
192.057721203102
 30
0.0
 11
141.6172844496231
 21
192.057721203102
 31
0.0
 12
141.2893242639484
 22
190.4179202747258
 32
0.0
 13
141.6172844496231
 23
190.4179202747258
 33
0.0
  0
SOLID
  5
601
330
1F
100
AcDbEntity
  8
LOGO
 62
     5
100
AcDbTrace
 10
142.2732048209735
 20
191.4018008317512
 30
0.0
 11
142.6011650066491
 21
191.4018008317512
 31
0.0
 12
142.2732048209735
 22
190.4179202747258
 32
0.0
 13
142.6011650066491
 23
190.4179202747258
 33
0.0
  0
SOLID
  5
602
330
1F
100
AcDbEntity
  8
LOGO
 62
     5
100
AcDbTrace
 10
143.2570853779994
 20
191.4018008317512
 30
0.0
 11
143.5850455636745
 21
191.4018008317512
 31
0.0
 12
143.2570853779994
 22
190.4179202747253
 32
0.0
 13
143.5850455636745
 23
190.4179202747253
 33
0.0
  0
SOLID
  5
603
330
1F
100
AcDbEntity
  8
LOGO
 62
     5
100
AcDbTrace
 10
136.8618289613124
 20
192.2872933330749
 30
0.0
 11
137.1897891469885
 21
192.2872933330749
 31
0.0
 12
136.8618289613124
 22
192.5496614816153
 32
0.0
 13
137.1897891469885
 23
192.5496614816153
 33
0.0
  0
SOLID
  5
604
330
1F
100
AcDbEntity
  8
LOGO
 62
     5
100
AcDbTrace
 10
136.8618289613124
 20
192.057721203102
 30
0.0
 11
137.1897891469885
 21
192.057721203102
 31
0.0
 12
136.8618289613124
 22
190.4179202747253
 32
0.0
 13
137.1897891469885
 23
190.4179202747258
 33
0.0
  0
SOLID
  5
605
330
1F
100
AcDbEntity
  8
LOGO
 62
     5
100
AcDbTrace
 10
140.08682544715
 20
193.6975221314783
 30
0.0
 11
141.0379099856089
 21
193.6975221314783
 31
0.0
 12
140.08682544715
 22
198.5076048547159
 32
0.0
 13
141.0379099856089
 23
201.9949148290633
 33
0.0
  0
SOLID
  5
606
330
1F
100
AcDbEntity
  8
LOGO
 62
     5
100
AcDbTrace
 10
141.4314622084197
 20
202.7164272375489
 30
0.0
 11
142.3825467468776
 21
202.7164272375493
 31
0.0
 12
141.4314622084197
 22
194.4190345399638
 32
0.0
 13
142.3825467468776
 23
197.9063445143112
 33
0.0
  0
SOLID
  5
607
330
1F
100
AcDbEntity
  8
LOGO
 62
     2
100
AcDbTrace
 10
141.0379099856089
 20
202.7164272375489
 30
0.0
 11
141.4314622084197
 21
202.7164272375489
 31
0.0
 12
141.0379099856089
 22
193.6975221314783
 32
0.0
 13
141.4314622084197
 23
193.6975221314783
 33
0.0
  0
SOLID
  5
608
330
1F
100
AcDbEntity
  8
LOGO
 62
     5
100
AcDbTrace
 10
141.4314622084197
 20
194.4190345399638
 30
0.0
 11
142.3825467468776
 21
197.9063445143112
 31
0.0
 12
145.957312770738
 22
202.7164272375493
 32
0.0
 13
145.0062282322802
 23
202.7164272375493
 33
0.0
  0
SOLID
  5
609
330
1F
100
AcDbEntity
  8
LOGO
 62
     5
100
AcDbTrace
 10
141.4314622084197
 20
193.6975221314783
 30
0.0
 11
142.3825467468776
 21
193.6975221314783
 31
0.0
 12
145.957312770738
 22
201.9949148290633
 32
0.0
 13
145.0062282322802
 23
198.5076048547159
 33
0.0
  0
SOLID
  5
60A
330
1F
100
AcDbEntity
  8
LOGO
 62
     2
100
AcDbTrace
 10
141.0379099856089
 20
193.6975221314783
 30
0.0
 11
141.4314622084197
 21
193.6975221314783
 31
0.0
 12
145.957312770738
 22
202.7164272375493
 32
0.0
 13
146.3508649935489
 23
202.7164272375489
 33
0.0
  0
LWPOLYLINE
  5
60B
330
1F
100
AcDbEntity
  8
LOGO
 62
     4
100
AcDbPolyline
 90
        4
 70
     1
 43
0.0
 10
132.8852178575564
 20
203.2389535120205
 10
328.0710675167984
 20
203.2389535120205
 10
328.0710675167984
 20
181.242139032382
 10
132.8852178575564
 20
181.242139032382
1001
GENIUS_GENREC_14
1002
{
1000
PYDIR
1011
132.8852178575564
1021
181.242139032382
1031
0.0
1002
}
1002
{
1000
PXDIR
1011
328.0710675167984
1021
203.2389535120205
1031
0.0
1002
}
1002
{
1000
PORI
1011
132.8852178575564
1021
203.2389535120205
1031
0.0
1002
}
1002
{
1000
PINS
1011
132.8852178575564
1021
203.2389535120205
1031
0.0
1002
}
1002
{
1000
PINS2
1011
328.0710675167984
1021
181.242139032382
1031
0.0
1002
}
1002
{
1000
C
1070
     1
1002
}
1001
GENIUS_GENOBJ-N-REC_13
1002
{
1000
OWNER
1000
GEN
1002
}
1001
GENIUS_GENODEF_13
1002
{
1000
HIER
1070
     0
1002
}
1002
{
1000
MANEDIT
1070
     0
1002
}
1002
{
1000
NOSEL
1070
     0
1002
}
1002
{
1000
BEHIND
1070
     0
1002
}
1002
{
1000
OTHER
1070
     0
1002
}
1002
{
1000
REACTOR
1002
}
  0
TEXT
  5
60C
330
1F
100
AcDbEntity
  8
LOGO
100
AcDbText
 10
182.4807321964548
 20
182.4123608806955
 30
0.0
 40
2.2
  1
10603201
 41
0.7
  7
CHINESET
 72
     1
 11
187.6507321964548
 21
182.4123608806955
 31
0.0
100
AcDbText
  0
LINE
  5
60D
330
1F
100
AcDbEntity
  8
LOGO
 62
     4
100
AcDbLine
 10
194.4782097127591
 20
185.6415019283104
 30
0.0
 11
194.4782097127601
 21
181.2421390323826
 31
0.0
  0
LINE
  5
60E
330
1F
100
AcDbEntity
  8
LOGO
 62
     4
100
AcDbLine
 10
194.4782097127591
 20
185.6415019283104
 30
0.0
 11
181.2782097127601
 21
185.6415019283104
 31
0.0
  0
CIRCLE
  5
60F
330
1F
100
AcDbEntity
  8
LOGO
  6
Continuous
100
AcDbCircle
 10
170.6866520590458
 20
196.6446143028431
 30
0.0
 40
1.277186823352694
  0
CIRCLE
  5
610
330
1F
100
AcDbEntity
  8
LOGO
  6
Continuous
100
AcDbCircle
 10
170.6866520590458
 20
196.6446143028431
 30
0.0
 40
0.748318415532157
  0
LINE
  5
611
330
1F
100
AcDbEntity
  8
LOGO
100
AcDbLine
 10
178.7126422554859
 20
195.3674274794902
 30
0.0
 11
178.7126422554859
 21
197.9218011261961
 31
0.0
  0
LINE
  5
612
330
1F
100
AcDbEntity
  8
LOGO
100
AcDbLine
 10
174.7087348782973
 20
195.8962958873108
 30
0.0
 11
174.7087348782973
 21
197.3929327183754
 31
0.0
  0
LINE
  5
613
330
1F
100
AcDbEntity
  8
LOGO
  6
Continuous
100
AcDbLine
 10
174.7087348782973
 20
197.3929327183754
 30
0.0
 11
178.7126422554859
 21
197.9218011261961
 31
0.0
  0
LINE
  5
614
330
1F
100
AcDbEntity
  8
LOGO
  6
Continuous
100
AcDbLine
 10
174.7087348782973
 20
195.8962958873108
 30
0.0
 11
178.7126422554859
 21
195.3674274794902
 31
0.0
  0
LINE
  5
615
330
1F
100
AcDbEntity
  8
LOGO
  6
AM_ISO08W050x2
 48
0.3
100
AcDbLine
 10
168.9260308986873
 20
196.6446143028431
 30
0.0
 11
172.4472732194041
 21
196.6446143028431
 31
0.0
1001
GENIUS_GENOREF_13
1005
634
  0
LINE
  5
616
330
1F
100
AcDbEntity
  8
LOGO
  6
AM_ISO08W050x2
 48
0.3
100
AcDbLine
 10
170.6866520590458
 20
194.8839931424847
 30
0.0
 11
170.6866520590458
 21
198.4052354632015
 31
0.0
1001
GENIUS_GENOREF_13
1005
633
  0
LINE
  5
617
330
1F
100
AcDbEntity
  8
LOGO
  6
CENTER
 48
0.5
100
AcDbLine
 10
174.388533576207
 20
196.6446143028431
 30
0.0
 11
179.1158227670524
 21
196.6446143028431
 31
0.0
1001
GENIUS_GENOREF_13
1005
632
  0
LINE
  5
618
330
1F
100
AcDbEntity
  8
LOGO
 62
     4
100
AcDbLine
 10
227.5683329686227
 20
191.14070554822
 30
0.0
 11
227.5683329686227
 21
183.0752069056856
 31
0.0
  0
LINE
  5
619
330
1F
100
AcDbEntity
  8
LOGO
 62
     4
100
AcDbLine
 10
212.9037899821973
 20
191.14070554822
 30
0.0
 11
212.9037899821973
 21
183.0752069056856
 31
0.0
  0
LINE
  5
61A
330
1F
100
AcDbEntity
  8
LOGO
 62
     4
100
AcDbLine
 10
227.5683329686227
 20
183.0752069056856
 30
0.0
 11
212.9037899821973
 21
183.0752069056856
 31
0.0
  0
LINE
  5
61B
330
1F
100
AcDbEntity
  8
LOGO
 62
     4
100
AcDbLine
 10
229.0078557380679
 20
201.0392720640565
 30
0.0
 11
211.5338517613151
 21
201.0392720640565
 31
0.0
  0
LINE
  5
61C
330
1F
100
AcDbEntity
  8
LOGO
 62
     4
100
AcDbLine
 10
229.0078557380679
 20
194.4402277201654
 30
0.0
 11
211.5338517613151
 21
194.4402277201654
 31
0.0
  0
LINE
  5
61D
330
1F
100
AcDbEntity
  8
LOGO
 62
     4
100
AcDbLine
 10
211.5338517613151
 20
201.0392720640565
 30
0.0
 11
211.5338517613151
 21
194.4402277201654
 31
0.0
  0
LINE
  5
61E
330
1F
100
AcDbEntity
  8
LOGO
 62
     4
100
AcDbLine
 10
229.0078557380679
 20
201.0392720640565
 30
0.0
 11
229.0078557380679
 21
194.4402277201654
 31
0.0
  0
LINE
  5
61F
330
1F
100
AcDbEntity
  8
LOGO
 62
     4
100
AcDbLine
 10
219.631244070588
 20
194.4402277201654
 30
0.0
 11
219.631244070588
 21
191.14070554822
 31
0.0
  0
LINE
  5
620
330
1F
100
AcDbEntity
  8
LOGO
 62
     4
100
AcDbLine
 10
227.5683329686227
 20
191.14070554822
 30
0.0
 11
212.9037899821973
 21
191.14070554822
 31
0.0
  0
TEXT
  5
621
330
1F
100
AcDbEntity
  8
LOGO
  6
Continuous
100
AcDbText
 10
217.6095953993047
 20
184.2136349357922
 30
144.1634983360548
 40
1.649999999999999
  1
Model
 41
0.8
  7
CHINESET
100
AcDbText
  0
TEXT
  5
622
330
1F
100
AcDbEntity
  8
LOGO
100
AcDbText
 10
217.1704190375057
 20
187.2723793354123
 30
144.1634983360548
 40
2.75
  1
型號
  7
CHINESET
100
AcDbText
  0
LINE
  5
623
330
1F
100
AcDbEntity
  8
LOGO
  6
Continuous
 62
     7
100
AcDbLine
 10
229.7093886921742
 20
197.7163750341496
 30
0.0
 11
232.6232858860076
 21
197.7163750341496
 31
0.0
  0
LINE
  5
624
330
1F
100
AcDbEntity
  8
LOGO
 62
     4
100
AcDbLine
 10
232.698960265594
 20
191.14070554822
 30
0.0
 11
232.698960265594
 21
183.0752069056856
 31
0.0
  0
LINE
  5
625
330
1F
100
AcDbEntity
  8
LOGO
 62
     4
100
AcDbLine
 10
243.2383488681118
 20
183.0752069056856
 30
0.0
 11
232.698960265594
 21
183.0752069056856
 31
0.0
  0
LINE
  5
626
330
1F
100
AcDbEntity
  8
LOGO
 62
     4
100
AcDbLine
 10
242.0404661212553
 20
201.0392720640565
 30
0.0
 11
233.5424668499745
 21
201.0392720640565
 31
0.0
  0
LINE
  5
627
330
1F
100
AcDbEntity
  8
LOGO
 62
     4
100
AcDbLine
 10
242.0404661212553
 20
194.4402277201654
 30
0.0
 11
233.5424668499745
 21
194.4402277201654
 31
0.0
  0
LINE
  5
628
330
1F
100
AcDbEntity
  8
LOGO
 62
     4
100
AcDbLine
 10
233.5424668499745
 20
201.0392720640565
 30
0.0
 11
233.5424668499745
 21
194.4402277201654
 31
0.0
  0
LINE
  5
629
330
1F
100
AcDbEntity
  8
LOGO
 62
     4
100
AcDbLine
 10
242.0404661212553
 20
201.0392720640565
 30
0.0
 11
242.0404661212553
 21
194.4402277201654
 31
0.0
  0
LINE
  5
62A
330
1F
100
AcDbEntity
  8
LOGO
 62
     4
100
AcDbLine
 10
237.7914664856147
 20
194.4402277201654
 30
0.0
 11
237.7914664856147
 21
191.14070554822
 31
0.0
  0
LINE
  5
62B
330
1F
100
AcDbEntity
  8
LOGO
 62
     4
100
AcDbLine
 10
243.2383488681118
 20
191.14070554822
 30
0.0
 11
232.698960265594
 21
191.14070554822
 31
0.0
  0
TEXT
  5
62C
330
1F
100
AcDbEntity
  8
LOGO
  6
Continuous
100
AcDbText
 10
234.7808835555384
 20
184.2136349357922
 30
144.1634983360548
 40
1.649999999999999
  1
CODE
 41
0.8
  7
CHINESET
100
AcDbText
  0
TEXT
  5
62D
330
1F
100
AcDbEntity
  8
LOGO
100
AcDbText
 10
234.7653399840636
 20
187.2723793354123
 30
144.1634983360548
 40
2.75
  1
記號
  7
CHINESET
100
AcDbText
  0
TEXT
  5
62E
330
1F
100
AcDbEntity
  8
LOGO
100
AcDbText
 10
215.8004808166235
 20
196.7024174995992
 30
144.1634983360548
 40
2.75
  1
MRB
  7
CHINESET
100
AcDbText
  0
TEXT
  5
62F
330
1F
100
AcDbEntity
  8
LOGO
100
AcDbText
 10
235.8454317983599
 20
196.7024174995992
 30
144.1634983360548
 40
2.75
  1
03
  7
CHINESET
100
AcDbText
  0
LINE
  5
630
330
1F
100
AcDbEntity
  8
LOGO
 62
     4
100
AcDbLine
 10
243.2383488681118
 20
191.14070554822
 30
0.0
 11
243.2383488681118
 21
183.0752069056856
 31
0.0
  0
DIMENSION
  5
631
330
1F
100
AcDbEntity
  8
0
100
AcDbDimension
  2
*D11
 10
153.6813404244889
 20
265.9269683644687
 30
0.0
 11
151.1813404244889
 21
299.9269683644688
 31
0.0
 70
    32
 71
     5
 42
68.0
  3
STANDARD
100
AcDbAlignedDimension
 13
163.3947878619235
 23
333.9269683644687
 33
0.0
 14
161.7947878619234
 24
265.9269683644687
 34
0.0
 50
90.0
100
AcDbRotatedDimension
1001
ACAD
1000
DSTYLE
1002
{
1070
   176
1070
     5
1070
   177
1070
     5
1070
   178
1070
     5
1070
   272
1070
     8
1002
}
  0
POINT
  5
632
330
1F
100
AcDbEntity
  8
0
 60
     1
100
AcDbPoint
 10
-1580.172456970213
 20
-589.7617569316853
 30
0.0
1001
GENIUS_GENOBJ-N-CRS_13
1002
{
1000
OWNER
1000
GEN
1002
}
1001
GENIUS_GENOLIS_13
1002
{
1000
ENT
1005
0
1005
0
1005
0
1005
617
1002
}
1001
GENIUS_GENOENT_13
1002
{
1000
MYREF
1005
632
1002
}
1002
{
1000
GRP
1005
0
1002
}
1001
GENIUS_GENODEF_13
1002
{
1000
HIER
1070
    10
1002
}
1002
{
1000
MANEDIT
1070
     1
1002
}
1002
{
1000
NOSEL
1070
     0
1002
}
1002
{
1000
BEHIND
1070
     0
1002
}
1002
{
1000
OTHER
1070
     0
1002
}
1002
{
1000
REACTOR
1002
}
  0
POINT
  5
633
330
1F
100
AcDbEntity
  8
0
 60
     1
100
AcDbPoint
 10
-1591.497042193068
 20
-580.8861704530491
 30
0.0
1001
GENIUS_GENOBJ-N-CRS_13
1002
{
1000
OWNER
1000
GEN
1002
}
1001
GENIUS_GENOLIS_13
1002
{
1000
ENT
1005
0
1005
0
1005
0
1005
616
1002
}
1001
GENIUS_GENOENT_13
1002
{
1000
MYREF
1005
633
1002
}
1002
{
1000
GRP
1005
0
1002
}
1001
GENIUS_GENODEF_13
1002
{
1000
HIER
1070
    10
1002
}
1002
{
1000
MANEDIT
1070
     1
1002
}
1002
{
1000
NOSEL
1070
     0
1002
}
1002
{
1000
BEHIND
1070
     0
1002
}
1002
{
1000
OTHER
1070
     0
1002
}
1002
{
1000
REACTOR
1002
}
  0
POINT
  5
634
330
1F
100
AcDbEntity
  8
0
 60
     1
100
AcDbPoint
 10
-1585.138368495231
 20
-589.7617569316853
 30
0.0
1001
GENIUS_GENOBJ-N-CRS_13
1002
{
1000
OWNER
1000
GEN
1002
}
1001
GENIUS_GENOLIS_13
1002
{
1000
ENT
1005
0
1005
0
1005
0
1005
615
1002
}
1001
GENIUS_GENOENT_13
1002
{
1000
MYREF
1005
634
1002
}
1002
{
1000
GRP
1005
0
1002
}
1001
GENIUS_GENODEF_13
1002
{
1000
HIER
1070
    10
1002
}
1002
{
1000
MANEDIT
1070
     1
1002
}
1002
{
1000
NOSEL
1070
     0
1002
}
1002
{
1000
BEHIND
1070
     0
1002
}
1002
{
1000
OTHER
1070
     0
1002
}
1002
{
1000
REACTOR
1002
}
  0
ENDSEC
  0
SECTION
  2
OBJECTS
  0
DICTIONARY
  5
C
330
0
100
AcDbDictionary
281
     1
  3
ACAD_COLOR
350
BE
  3
ACAD_GROUP
350
D
  3
ACAD_LAYOUT
350
1A
  3
ACAD_MATERIAL
350
BD
  3
ACAD_MLINESTYLE
350
17
  3
ACAD_PLOTSETTINGS
350
19
  3
ACAD_PLOTSTYLENAME
350
E
  3
ACAD_TABLESTYLE
350
11A
  3
ACDBHEADERROUNDTRIPXREC
350
6C3
  3
AcDbVariableDictionary
350
94
  3
AcmDictionary
350
5B
  3
AMG
350
41
  3
AMGSNAPSETTINGS
350
1B8
  3
DWGPROPS
350
6C2
  0
DICTIONARY
  5
3AF
330
2
100
AcDbDictionary
280
     1
281
     1
  3
ACAD_LAYERSTATES
360
3B0
  0
DICTIONARY
  5
8F
330
1F
100
AcDbDictionary
280
     1
281
     1
  0
DICTIONARY
  5
BE
102
{ACAD_REACTORS
330
C
102
}
330
C
100
AcDbDictionary
281
     1
  0
DICTIONARY
  5
D
102
{ACAD_REACTORS
330
C
102
}
330
C
100
AcDbDictionary
281
     1
  0
DICTIONARY
  5
1A
102
{ACAD_REACTORS
330
C
102
}
330
C
100
AcDbDictionary
281
     1
  3
Model
350
22
  3
配置1
350
1E
  3
配置2
350
26
  0
DICTIONARY
  5
BD
102
{ACAD_REACTORS
330
C
102
}
330
C
100
AcDbDictionary
281
     1
  0
DICTIONARY
  5
17
102
{ACAD_REACTORS
330
C
102
}
330
C
100
AcDbDictionary
281
     1
  3
Standard
350
18
  0
DICTIONARY
  5
19
102
{ACAD_REACTORS
330
C
102
}
330
C
100
AcDbDictionary
281
     1
  0
ACDBDICTIONARYWDFLT
  5
E
102
{ACAD_REACTORS
330
C
102
}
330
C
100
AcDbDictionary
281
     1
  3
Normal
350
F
100
AcDbDictionaryWithDefault
340
F
  0
DICTIONARY
  5
11A
102
{ACAD_REACTORS
330
C
102
}
330
C
100
AcDbDictionary
281
     1
  3
Standard
350
11B
  0
DICTIONARY
  5
6C3
102
{ACAD_REACTORS
330
C
102
}
330
C
100
AcDbDictionary
281
     1
  0
DICTIONARY
  5
94
102
{ACAD_REACTORS
330
C
102
}
330
C
100
AcDbDictionary
281
     1
  3
CTABLESTYLE
350
138
  3
DIMASSOC
350
96
  3
INDEXCTL
350
95
  3
PROJECTNAME
350
6C0
  0
DICTIONARY
  5
5B
102
{ACAD_REACTORS
330
C
102
}
330
C
100
AcDbDictionary
281
     1
  3
AcmBOM
350
1B5
  3
AcmStdDictionary
350
61
  3
AMDTSECTSYM_ARROWCOLOR
350
123
  0
DICTIONARY
  5
41
102
{ACAD_REACTORS
330
C
102
}
330
C
100
AcDbDictionary
281
     1
  0
DICTIONARY
  5
1B8
102
{ACAD_REACTORS
330
C
102
}
330
C
100
AcDbDictionary
281
     1
  0
XRECORD
  5
6C2
102
{ACAD_REACTORS
330
C
102
}
330
C
100
AcDbXrecord
280
     1
  1
DWGPROPS COOKIE
  2

  3

  4

  6

  7

  8

  9

300
AmdtFileType=84
301
=
302
=
303
=
304
=
305
=
306
=
307
=
308
=
309
=
 40
0.0145108101851852
 41
2453883.445780521
 42
2453883.460290614
  1

 90
        1
  0
DICTIONARY
  5
3B0
102
{ACAD_REACTORS
330
3AF
102
}
330
3AF
100
AcDbDictionary
281
     1
  0
LAYOUT
  5
22
102
{ACAD_XDICTIONARY
360
6C6
102
}
102
{ACAD_REACTORS
330
1A
102
}
330
1A
100
AcDbPlotSettings
  1

  2
\\RDS1\iR3300影印機
  4
A4
  6

 40
6.805083274841308
 41
5.619736671447753
 42
6.974411010742187
 43
5.027069091796875
 44
209.9733276367187
 45
296.9259948730469
 46
0.0
 47
0.0
 48
0.0
 49
0.0
140
0.0
141
0.0
142
1.0
143
1.130226763674737
 70
 11952
 72
     1
 73
     1
 74
     0
  7
彩色出圖.ctb
 75
     0
147
0.8847781986233208
148
-95.32449723931302
149
-180.3618534999202
100
AcDbLayout
  1
Model
 70
     1
 71
     0
 10
0.0
 20
0.0
 11
12.0
 21
9.0
 12
0.0
 22
0.0
 32
0.0
 14
0.0
 24
0.0
 34
0.0
 15
0.0
 25
0.0
 35
0.0
146
0.0
 13
0.0
 23
0.0
 33
0.0
 16
1.0
 26
0.0
 36
0.0
 17
0.0
 27
1.0
 37
0.0
 76
     0
330
1F
1001
ACAD_PSEXT
1000
\\RDS1\iR3300影印機
1000
Canon iR2200-3300 PCL5e
1000
\\RDS1
1000

1070
     0
  0
LAYOUT
  5
1E
102
{ACAD_XDICTIONARY
360
6C4
102
}
102
{ACAD_REACTORS
330
1A
102
}
330
1A
100
AcDbPlotSettings
  1

  2

  4

  6

 40
0.0
 41
0.0
 42
0.0
 43
0.0
 44
0.0
 45
0.0
 46
0.0
 47
0.0
 48
0.0
 49
0.0
140
0.0
141
0.0
142
1.0
143
1.0
 70
   688
 72
     0
 73
     0
 74
     5
  7
彩色出圖.ctb
 75
    16
147
1.0
148
0.0
149
0.0
100
AcDbLayout
  1
配置1
 70
     1
 71
     1
 10
0.0
 20
0.0
 11
420.0
 21
297.0
 12
0.0
 22
0.0
 32
0.0
 14
1.000000000000000E+20
 24
1.000000000000000E+20
 34
1.000000000000000E+20
 15
-1.000000000000000E+20
 25
-1.000000000000000E+20
 35
-1.000000000000000E+20
146
0.0
 13
0.0
 23
0.0
 33
0.0
 16
1.0
 26
0.0
 36
0.0
 17
0.0
 27
1.0
 37
0.0
 76
     0
330
1B
  0
LAYOUT
  5
26
102
{ACAD_XDICTIONARY
360
6C8
102
}
102
{ACAD_REACTORS
330
1A
102
}
330
1A
100
AcDbPlotSettings
  1

  2

  4

  6

 40
0.0
 41
0.0
 42
0.0
 43
0.0
 44
0.0
 45
0.0
 46
0.0
 47
0.0
 48
0.0
 49
0.0
140
0.0
141
0.0
142
1.0
143
1.0
 70
   688
 72
     0
 73
     0
 74
     5
  7
彩色出圖.ctb
 75
    16
147
1.0
148
0.0
149
0.0
100
AcDbLayout
  1
配置2
 70
     1
 71
     2
 10
0.0
 20
0.0
 11
12.0
 21
9.0
 12
0.0
 22
0.0
 32
0.0
 14
0.0
 24
0.0
 34
0.0
 15
0.0
 25
0.0
 35
0.0
146
0.0
 13
0.0
 23
0.0
 33
0.0
 16
1.0
 26
0.0
 36
0.0
 17
0.0
 27
1.0
 37
0.0
 76
     0
330
23
  0
MLINESTYLE
  5
18
102
{ACAD_REACTORS
330
17
102
}
330
17
100
AcDbMlineStyle
  2
STANDARD
 70
     0
  3

 62
   256
 51
90.0
 52
90.0
 71
     2
 49
0.5
 62
   256
  6
BYLAYER
 49
-0.5
 62
   256
  6
BYLAYER
  0
ACDBPLACEHOLDER
  5
F
102
{ACAD_REACTORS
330
E
102
}
330
E
  0
TABLESTYLE
  5
11B
102
{ACAD_REACTORS
330
11A
102
}
330
11A
100
AcDbTableStyle
  3
Standard
 70
     0
 71
     0
 40
1.5
 41
1.5
280
     0
281
     0
  7
STANDARD
140
4.5
170
     2
 62
     0
 63
     7
283
     0
274
    -2
284
     1
 64
     0
275
    -2
285
     1
 65
     0
276
    -2
286
     1
 66
     0
277
    -2
287
     1
 67
     0
278
    -2
288
     1
 68
     0
279
    -2
289
     1
 69
     0
  7
STANDARD
140
6.0
170
     5
 62
     0
 63
     7
283
     0
274
    -2
284
     1
 64
     0
275
    -2
285
     1
 65
     0
276
    -2
286
     1
 66
     0
277
    -2
287
     1
 67
     0
278
    -2
288
     1
 68
     0
279
    -2
289
     1
 69
     0
  7
STANDARD
140
4.5
170
     5
 62
     0
 63
     7
283
     0
274
    -2
284
     1
 64
     0
275
    -2
285
     1
 65
     0
276
    -2
286
     1
 66
     0
277
    -2
287
     1
 67
     0
278
    -2
288
     1
 68
     0
279
    -2
289
     1
 69
     0
  0
DICTIONARYVAR
  5
138
102
{ACAD_REACTORS
330
94
102
}
330
94
100
DictionaryVariables
280
     0
  1
STANDARD
  0
DICTIONARYVAR
  5
96
102
{ACAD_REACTORS
330
94
102
}
330
94
100
DictionaryVariables
280
     0
  1
2
  0
DICTIONARYVAR
  5
95
102
{ACAD_REACTORS
330
94
102
}
330
94
100
DictionaryVariables
280
     0
  1
0
  0
DICTIONARYVAR
  5
6C0
102
{ACAD_REACTORS
330
94
102
}
330
94
100
DictionaryVariables
280
     0
  1

  0
DICTIONARY
  5
1B5
102
{ACAD_REACTORS
330
5B
102
}
330
5B
100
AcDbDictionary
281
     1
  0
DICTIONARY
  5
61
102
{ACAD_REACTORS
330
5B
102
}
330
5B
100
AcDbDictionary
281
     1
  0
XRECORD
  5
123
102
{ACAD_REACTORS
330
5B
102
}
330
5B
100
AcDbXrecord
280
     1
 90
-1023410169
  0
DICTIONARY
  5
6C6
330
22
100
AcDbDictionary
280
     1
281
     1
  3
ACAD_XREC_ROUNDTRIP
360
6C7
  0
DICTIONARY
  5
6C4
330
1E
100
AcDbDictionary
280
     1
281
     1
  3
ACAD_XREC_ROUNDTRIP
360
6C5
  0
DICTIONARY
  5
6C8
330
26
100
AcDbDictionary
280
     1
281
     1
  3
ACAD_XREC_ROUNDTRIP
360
6C9
  0
XRECORD
  5
6C7
102
{ACAD_REACTORS
330
6C6
102
}
330
6C6
100
AcDbXrecord
280
     1
102
SHADEPLOT
 70
     0
102
SHADEPLOTRESLEVEL
 70
     2
102
SHADEPLOTCUSTOMDPI
 70
   300
  0
XRECORD
  5
6C5
102
{ACAD_REACTORS
330
6C4
102
}
330
6C4
100
AcDbXrecord
280
     1
102
SHADEPLOT
 70
     0
102
SHADEPLOTRESLEVEL
 70
     2
102
SHADEPLOTCUSTOMDPI
 70
   300
  0
XRECORD
  5
6C9
102
{ACAD_REACTORS
330
6C8
102
}
330
6C8
100
AcDbXrecord
280
     1
102
SHADEPLOT
 70
     0
102
SHADEPLOTRESLEVEL
 70
     2
102
SHADEPLOTCUSTOMDPI
 70
   300
  0
ENDSEC
  0
EOF
