  0
SECTION
  2
HEADER
  9
$ACADVER
  1
AC1015
  9
$ACADMAINTVER
 70
    20
  9
$DWGCODEPAGE
  3
ANSI_950
  9
$INSBASE
 10
0.0
 20
0.0
 30
0.0
  9
$EXTMIN
 10
1218.677850177792
 20
943.7526627697529
 30
-0.0058069244264516
  9
$EXTMAX
 10
1493.645555888349
 20
1234.24384683168
 30
190.3016256141528
  9
$LIMMIN
 10
0.0
 20
0.0
  9
$LIMMAX
 10
420.0
 20
297.0
  9
$ORTHOMODE
 70
     0
  9
$REGENMODE
 70
     1
  9
$FILLMODE
 70
     1
  9
$QTEXTMODE
 70
     0
  9
$MIRRTEXT
 70
     1
  9
$LTSCALE
 40
1.0
  9
$ATTMODE
 70
     1
  9
$TEXTSIZE
 40
1.0
  9
$TRACEWID
 40
1.0
  9
$TEXTSTYLE
  7
STANDARD
  9
$CLAYER
  8
0
  9
$CELTYPE
  6
ByLayer
  9
$CECOLOR
 62
   256
  9
$CELTSCALE
 40
1.0
  9
$DISPSILH
 70
     0
  9
$DIMSCALE
 40
1.0
  9
$DIMASZ
 40
2.5
  9
$DIMEXO
 40
1.0
  9
$DIMDLI
 40
10.0
  9
$DIMRND
 40
0.0
  9
$DIMDLE
 40
0.0
  9
$DIMEXE
 40
1.0
  9
$DIMTP
 40
0.1
  9
$DIMTM
 40
0.1
  9
$DIMTXT
 40
3.5
  9
$DIMCEN
 40
0.0
  9
$DIMTSZ
 40
0.0
  9
$DIMTOL
 70
     0
  9
$DIMLIM
 70
     0
  9
$DIMTIH
 70
     0
  9
$DIMTOH
 70
     0
  9
$DIMSE1
 70
     0
  9
$DIMSE2
 70
     0
  9
$DIMTAD
 70
     1
  9
$DIMZIN
 70
     8
  9
$DIMBLK
  1

  9
$DIMASO
 70
     1
  9
$DIMSHO
 70
     1
  9
$DIMPOST
  1

  9
$DIMAPOST
  1
"
  9
$DIMALT
 70
     0
  9
$DIMALTD
 70
     2
  9
$DIMALTF
 40
0.0393701
  9
$DIMLFAC
 40
1.0
  9
$DIMTOFL
 70
     1
  9
$DIMTVP
 40
0.0
  9
$DIMTIX
 70
     0
  9
$DIMSOXD
 70
     0
  9
$DIMSAH
 70
     0
  9
$DIMBLK1
  1

  9
$DIMBLK2
  1

  9
$DIMSTYLE
  2
AM_ISO
  9
$DIMCLRD
 70
   256
  9
$DIMCLRE
 70
   256
  9
$DIMCLRT
 70
     2
  9
$DIMTFAC
 40
0.71
  9
$DIMGAP
 40
1.5
  9
$DIMJUST
 70
     0
  9
$DIMSD1
 70
     0
  9
$DIMSD2
 70
     0
  9
$DIMTOLJ
 70
     0
  9
$DIMTZIN
 70
     8
  9
$DIMALTZ
 70
     0
  9
$DIMALTTZ
 70
     0
  9
$DIMUPT
 70
     0
  9
$DIMDEC
 70
     2
  9
$DIMTDEC
 70
     3
  9
$DIMALTU
 70
     2
  9
$DIMALTTD
 70
     4
  9
$DIMTXSTY
  7
STANDARD
  9
$DIMAUNIT
 70
     0
  9
$DIMADEC
 70
     0
  9
$DIMALTRND
 40
0.0
  9
$DIMAZIN
 70
     2
  9
$DIMDSEP
 70
    46
  9
$DIMATFIT
 70
     3
  9
$DIMFRAC
 70
     0
  9
$DIMLDRBLK
  1

  9
$DIMLUNIT
 70
     2
  9
$DIMLWD
 70
    -1
  9
$DIMLWE
 70
    -1
  9
$DIMTMOVE
 70
     0
  9
$LUNITS
 70
     2
  9
$LUPREC
 70
     2
  9
$SKETCHINC
 40
1.0
  9
$FILLETRAD
 40
2.5
  9
$AUNITS
 70
     0
  9
$AUPREC
 70
     0
  9
$MENU
  1
.
  9
$ELEVATION
 40
0.0
  9
$PELEVATION
 40
0.0
  9
$THICKNESS
 40
0.0
  9
$LIMCHECK
 70
     0
  9
$CHAMFERA
 40
2.5
  9
$CHAMFERB
 40
2.5
  9
$CHAMFERC
 40
20.0
  9
$CHAMFERD
 40
0.0
  9
$SKPOLY
 70
     0
  9
$TDCREATE
 40
2453883.470806562
  9
$TDUCREATE
 40
2453883.137473229
  9
$TDUPDATE
 40
2453883.474946100
  9
$TDUUPDATE
 40
2453883.141612767
  9
$TDINDWG
 40
0.0047012384
  9
$TDUSRTIMER
 40
0.0041406250
  9
$USRTIMER
 70
     1
  9
$ANGBASE
 50
0.0
  9
$ANGDIR
 70
     0
  9
$PDMODE
 70
     0
  9
$PDSIZE
 40
0.0
  9
$PLINEWID
 40
0.0
  9
$SPLFRAME
 70
     0
  9
$SPLINETYPE
 70
     6
  9
$SPLINESEGS
 70
     8
  9
$HANDSEED
  5
6A2
  9
$SURFTAB1
 70
     6
  9
$SURFTAB2
 70
     6
  9
$SURFTYPE
 70
     6
  9
$SURFU
 70
     6
  9
$SURFV
 70
     6
  9
$UCSBASE
  2

  9
$UCSNAME
  2

  9
$UCSORG
 10
0.0
 20
0.0
 30
0.0
  9
$UCSXDIR
 10
1.0
 20
0.0
 30
0.0
  9
$UCSYDIR
 10
0.0
 20
1.0
 30
0.0
  9
$UCSORTHOREF
  2

  9
$UCSORTHOVIEW
 70
     0
  9
$UCSORGTOP
 10
0.0
 20
0.0
 30
0.0
  9
$UCSORGBOTTOM
 10
0.0
 20
0.0
 30
0.0
  9
$UCSORGLEFT
 10
0.0
 20
0.0
 30
0.0
  9
$UCSORGRIGHT
 10
0.0
 20
0.0
 30
0.0
  9
$UCSORGFRONT
 10
0.0
 20
0.0
 30
0.0
  9
$UCSORGBACK
 10
0.0
 20
0.0
 30
0.0
  9
$PUCSBASE
  2

  9
$PUCSNAME
  2

  9
$PUCSORG
 10
0.0
 20
0.0
 30
0.0
  9
$PUCSXDIR
 10
1.0
 20
0.0
 30
0.0
  9
$PUCSYDIR
 10
0.0
 20
1.0
 30
0.0
  9
$PUCSORTHOREF
  2

  9
$PUCSORTHOVIEW
 70
     0
  9
$PUCSORGTOP
 10
0.0
 20
0.0
 30
0.0
  9
$PUCSORGBOTTOM
 10
0.0
 20
0.0
 30
0.0
  9
$PUCSORGLEFT
 10
0.0
 20
0.0
 30
0.0
  9
$PUCSORGRIGHT
 10
0.0
 20
0.0
 30
0.0
  9
$PUCSORGFRONT
 10
0.0
 20
0.0
 30
0.0
  9
$PUCSORGBACK
 10
0.0
 20
0.0
 30
0.0
  9
$USERI1
 70
     0
  9
$USERI2
 70
     0
  9
$USERI3
 70
     0
  9
$USERI4
 70
     0
  9
$USERI5
 70
     0
  9
$USERR1
 40
0.0
  9
$USERR2
 40
0.0
  9
$USERR3
 40
0.0
  9
$USERR4
 40
0.0
  9
$USERR5
 40
0.0
  9
$WORLDVIEW
 70
     1
  9
$SHADEDGE
 70
     3
  9
$SHADEDIF
 70
    70
  9
$TILEMODE
 70
     1
  9
$MAXACTVP
 70
    64
  9
$PINSBASE
 10
0.0
 20
0.0
 30
0.0
  9
$PLIMCHECK
 70
     0
  9
$PEXTMIN
 10
1.000000000000000E+20
 20
1.000000000000000E+20
 30
1.000000000000000E+20
  9
$PEXTMAX
 10
-1.000000000000000E+20
 20
-1.000000000000000E+20
 30
-1.000000000000000E+20
  9
$PLIMMIN
 10
0.0
 20
0.0
  9
$PLIMMAX
 10
420.0
 20
297.0
  9
$UNITMODE
 70
     0
  9
$VISRETAIN
 70
     1
  9
$PLINEGEN
 70
     0
  9
$PSLTSCALE
 70
     1
  9
$TREEDEPTH
 70
  3020
  9
$CMLSTYLE
  2
Standard
  9
$CMLJUST
 70
     0
  9
$CMLSCALE
 40
20.0
  9
$PROXYGRAPHICS
 70
     1
  9
$MEASUREMENT
 70
     1
  9
$CELWEIGHT
370
    -1
  9
$ENDCAPS
280
     0
  9
$JOINSTYLE
280
     0
  9
$LWDISPLAY
290
     0
  9
$INSUNITS
 70
     4
  9
$HYPERLINKBASE
  1

  9
$STYLESHEET
  1
彩色出圖.ctb
  9
$XEDIT
290
     1
  9
$CEPSNTYPE
380
     0
  9
$PSTYLEMODE
290
     1
  9
$FINGERPRINTGUID
  2
{663A0BD4-933C-4373-A760-FE147EE62DD2}
  9
$VERSIONGUID
  2
{1249E47C-A6E6-415C-8AF2-0E9A42F58A90}
  9
$EXTNAMES
290
     1
  9
$PSVPSCALE
 40
0.0
  9
$OLESTARTUP
290
     0
  0
ENDSEC
  0
SECTION
  2
CLASSES
  0
CLASS
  1
ACDBDICTIONARYWDFLT
  2
AcDbDictionaryWithDefault
  3
ObjectDBX Classes
 90
        0
280
     0
281
     0
  0
CLASS
  1
ACDBPLACEHOLDER
  2
AcDbPlaceHolder
  3
ObjectDBX Classes
 90
        0
280
     0
281
     0
  0
CLASS
  1
LAYOUT
  2
AcDbLayout
  3
ObjectDBX Classes
 90
        0
280
     0
281
     0
  0
CLASS
  1
ACME_DOCUMENT
  2
AcMeDbDoc
  3
AcMeServices
 90
        0
280
     0
281
     0
  0
CLASS
  1
AMGSETTINGSOBJ
  2
AmgSettingsObj
  3
"AcadM|Product Description: AutoCAD Mechanical 2000|Company: Autodesk"
 90
        0
280
     0
281
     0
  0
CLASS
  1
ACMESCOPE
  2
AcMeScope
  3
AcMeServices
 90
        0
280
     0
281
     0
  0
CLASS
  1
ACMECOMMANDHISTORY
  2
AcMeCommandHistory
  3
AcMeServices
 90
        0
280
     0
281
     0
  0
CLASS
  1
ACIMSYSVARMAN
  2
AcImSysVarManager
  3
AcMeServices
 90
        0
280
     0
281
     0
  0
CLASS
  1
ACIMREALSYSVAR
  2
AcImRealSysVar
  3
AcMeServices
 90
        0
280
     0
281
     0
  0
CLASS
  1
ACIMINTSYSVAR
  2
AcImIntSysVar
  3
AcMeServices
 90
        0
280
     0
281
     0
  0
CLASS
  1
ACMEDRAWINGMAN
  2
AcMeDrawingMan
  3
AcMeServices
 90
        0
280
     0
281
     0
  0
CLASS
  1
ACMEVIEW
  2
AcMeView
  3
AcMeServices
 90
        0
280
     0
281
     0
  0
CLASS
  1
ACDBENTITYCACHE
  2
AcMeEntityCache
  3
AcMeServices
 90
        0
280
     0
281
     0
  0
CLASS
  1
GSMANAGER
  2
AcMeGSManager
  3
AcMeServices
 90
        0
280
     0
281
     0
  0
CLASS
  1
AMDTINTERNALREACTOR
  2
AmdtInternalReactor
  3
AcMeServices
 90
        0
280
     0
281
     0
  0
CLASS
  1
ACMESTATEMGR
  2
AcMeStateMgr
  3
AcMeServices
 90
        0
280
     0
281
     0
  0
CLASS
  1
ACGREFMASTER
  2
AcGrefMaster
  3
AcAttribServices
 90
        0
280
     0
281
     0
  0
CLASS
  1
ACME_DATABASE
  2
AcMeDbDatabase
  3
AcMeServices
 90
        0
280
     0
281
     0
  0
CLASS
  1
ACRFINSADJUSTERMGR
  2
AcRfInsAdjusterMgr
  3
AcMeServices
 90
        0
280
     0
281
     0
  0
CLASS
  1
ACGREFACADMASTER
  2
AcGrefacadMaster
  3
AcGrefServices
 90
        0
280
     0
281
     0
  0
CLASS
  1
AMIMASTER
  2
AmiMaster
  3
AmiServices
 90
        0
280
     0
281
     0
  0
CLASS
  1
ACMDATADICTIONARY
  2
AcmDataDictionary
  3
"AcmSymBB|Product Description: AutoCAD Mechanical 2004 DX|Company: Autodesk"
 90
        0
280
     0
281
     0
  0
CLASS
  1
ACMDATAENTRYBLOCK
  2
AcmDataEntryBlock
  3
"AcmSymBB|Product Description: AutoCAD Mechanical 2004 DX|Company: Autodesk"
 90
        0
280
     0
281
     0
  0
CLASS
  1
ACIMSTRSYSVAR
  2
AcImStrSysVar
  3
AcMeServices
 90
        0
280
     0
281
     0
  0
CLASS
  1
ACMSTANDARDISO
  2
AcmStandardISO
  3
"Amdt_StdImp|Product Description: AutoCAD Mechanical 2004 DX|Company: Autodesk"
 90
        0
280
     0
281
     0
  0
CLASS
  1
AMGOBJPROPCFG
  2
AmgObjPropCfg
  3
"AmgLay|Product Description: AutoCAD Mechanical 2000|Company: Autodesk"
 90
        1
280
     0
281
     0
  0
CLASS
  1
AMDTEDGESTANDARDISO
  2
AmdtEdgeStdISO
  3
"Amdt_StdImp|Product Description: AutoCAD Mechanical 2004 DX|Company: Autodesk"
 90
        0
280
     0
281
     0
  0
CLASS
  1
ACMSURFSTANDARDISO
  2
AcmSurfTextStdISO
  3
"Amdt_StdImp|Product Description: AutoCAD Mechanical 2004 DX|Company: Autodesk"
 90
        0
280
     0
281
     0
  0
CLASS
  1
ACMFCFSTANDARDISO
  2
AcmFCFStdISO
  3
"Amdt_StdImp|Product Description: AutoCAD Mechanical 2004 DX|Company: Autodesk"
 90
        0
280
     0
281
     0
  0
CLASS
  1
ACMWELDSTANDARDISO
  2
AcmWeldingStdISO
  3
"Amdt_StdImp|Product Description: AutoCAD Mechanical 2004 DX|Company: Autodesk"
 90
        0
280
     0
281
     0
  0
CLASS
  1
ACMIDSTANDARDISO
  2
AcmIdStdISO
  3
"Amdt_StdImp|Product Description: AutoCAD Mechanical 2004 DX|Company: Autodesk"
 90
        0
280
     0
281
     0
  0
CLASS
  1
ACMDATUMSTANDARDISO
  2
AcmDatumStdISO
  3
"Amdt_StdImp|Product Description: AutoCAD Mechanical 2004 DX|Company: Autodesk"
 90
        0
280
     0
281
     0
  0
CLASS
  1
ACMBOMSTANDARDISO
  2
AcmBOMStdISO
  3
"Amdt_StdImp|Product Description: AutoCAD Mechanical 2004 DX|Company: Autodesk"
 90
        0
280
     0
281
     0
  0
CLASS
  1
ACMDETAILSTANDARDISO
  2
AmdtDetailSymStdISO
  3
"Amdt_StdImp|Product Description: AutoCAD Mechanical 2004 DX|Company: Autodesk"
 90
        0
280
     0
281
     0
  0
CLASS
  1
ACMSECTIONSTANDARDISO
  2
AmdtSectionSymStdISO
  3
"Amdt_StdImp|Product Description: AutoCAD Mechanical 2004 DX|Company: Autodesk"
 90
        0
280
     0
281
     0
  0
CLASS
  1
ACMCENTERLINESTANDARDISO
  2
AmdtCenterLineStdISO
  3
"Amdt_StdImp|Product Description: AutoCAD Mechanical 2004 DX|Company: Autodesk"
 90
        0
280
     0
281
     0
  0
CLASS
  1
ACMNOTESTANDARDISO
  2
AmdtNoteStdISO
  3
"Amdt_StdImp|Product Description: AutoCAD Mechanical 2004 DX|Company: Autodesk"
 90
        0
280
     0
281
     0
  0
CLASS
  1
ACAMGLAYSTD
  2
AcAmgLayStd
  3
"AcAmgLayStd|Product Description: AutoCAD Mechanical 2000|Company: Autodesk"
 90
        0
280
     0
281
     0
  0
CLASS
  1
ACAMGDIMSTD
  2
AcAmgDimStd
  3
"AcAmgDimStd|Product Description: AutoCAD Mechanical 2000|Company: Autodesk"
 90
        0
280
     0
281
     0
  0
CLASS
  1
ACAMGHOLECHARTSTDISO
  2
AcAmgHoleChartStdISO
  3
ACMSYMBB_MODULE_NAME
 90
        0
280
     0
281
     0
  0
CLASS
  1
ACAMGTITLESTD
  2
AcAmgTitleStd
  3
"TITLEAPP"
 90
        0
280
     0
281
     0
  0
CLASS
  1
LAYER_INDEX
  2
AcDbLayerIndex
  3
ObjectDBX Classes
 90
    32768
280
     0
281
     0
  0
CLASS
  1
IDBUFFER
  2
AcDbIdBuffer
  3
ObjectDBX Classes
 90
    32768
280
     0
281
     0
  0
CLASS
  1
DICTIONARYVAR
  2
AcDbDictionaryVar
  3
ObjectDBX Classes
 90
        0
280
     0
281
     0
  0
CLASS
  1
AM_DRAWING_MGR
  2
AcDmDwgMgr
  3
AcMechDwgViewMgmt
 90
        0
280
     0
281
     0
  0
CLASS
  1
AM_DWG_DOCUMENT
  2
AcDmDwgDocument
  3
AcMechDwgViewMgmt
 90
        0
280
     0
281
     0
  0
CLASS
  1
AM_DWG_SHEET
  2
AcDmSheet
  3
AcMechDwgViewMgmt
 90
        0
280
     0
281
     0
  0
CLASS
  1
AM_VIEWDIMPARMAP
  2
AcDmViewDimParMap
  3
AcMechDwgViewMgmt
 90
        0
280
     0
281
     0
  0
CLASS
  1
AM_DWGMGR_NAME
  2
AcDmDwgMgrName
  3
AcMechDwgViewMgmt
 90
        0
280
     0
281
     0
  0
CLASS
  1
AMDTMENUSTATEMGR
  2
AmdtMenuStateMgr
  3
McadcomServices
 90
        0
280
     0
281
     0
  0
CLASS
  1
AMDTMCOMMENUSTATE
  2
AmdtMcomMenuState
  3
McadcomServices
 90
        0
280
     0
281
     0
  0
CLASS
  1
MAPIAMMOUDLE
  2
MApiAmModule
  3
MApiAmServices
 90
        0
280
     0
281
     0
  0
CLASS
  1
AMDTADMENUSTATE
  2
AmdtAdMenuState
  3
DesignerServices
 90
        0
280
     0
281
     0
  0
CLASS
  1
ADAPPL
  2
AcAdAppl
  3
DesignerServices
 90
        0
280
     0
281
     0
  0
CLASS
  1
DEPMGR
  2
AcAdDepMgr
  3
DesignerServices
 90
        0
280
     0
281
     0
  0
CLASS
  1
PARAMMGR
  2
AcAdParamMgr
  3
DesignerServices
 90
        0
280
     0
281
     0
  0
CLASS
  1
PARAMSCOPE
  2
AcAdParamScope
  3
DesignerServices
 90
        0
280
     0
281
     0
  0
CLASS
  1
NAMEDAPPL
  2
AcAdNamedAppl
  3
DesignerServices
 90
        0
280
     0
281
     0
  0
CLASS
  1
AMDTDMMENUSTATE
  2
AmdtDmMenuState
  3
AcMechDwgViewMgmt
 90
        0
280
     0
281
     0
  0
CLASS
  1
AMDTAMMENUSTATE
  2
AmdtAmMenuState
  3
DesignerAssemblies
 90
        0
280
     0
281
     0
  0
CLASS
  1
ACAMPROJECT
  2
AcAmProject
  3
DesignerAssemblies
 90
        0
280
     0
281
     0
  0
CLASS
  1
ACAMGRCOMPDEF
  2
AcAmGrCompDef
  3
DesignerAssemblies
 90
        0
280
     0
281
     0
  0
CLASS
  1
ACCMCONTEXT
  2
AcCmContext
  3
DesignerAssemblies
 90
        0
280
     0
281
     0
  0
CLASS
  1
ACAMCOMPDEF
  2
AcAmCompDef
  3
DesignerAssemblies
 90
        0
280
     0
281
     0
  0
CLASS
  1
ACAMCOMPDEFMGR
  2
AcAmCompDefMgr
  3
DesignerAssemblies
 90
        0
280
     0
281
     0
  0
CLASS
  1
AMCONTEXTMGR
  2
AcAmContextMgr
  3
DesignerAssemblies
 90
        0
280
     0
281
     0
  0
CLASS
  1
ACAMCONTEXTMODELER
  2
AcAmContextModeler
  3
DesignerAssemblies
 90
        0
280
     0
281
     0
  0
CLASS
  1
ACMTHREADLINESTANDARDISO
  2
AmdtThreadLineStdISO
  3
"Amdt_StdImp|Product Description: AutoCAD Mechanical 2004 DX|Company: Autodesk"
 90
        0
280
     0
281
     0
  0
CLASS
  1
CATALOGSTATE
  2
AcAmCatalogState
  3
DesignerAssemblies
 90
        0
280
     0
281
     0
  0
CLASS
  1
ACAMGRCOMPDEFSET
  2
AcAmGrCompDefSet
  3
DesignerAssemblies
 90
        0
280
     0
281
     0
  0
CLASS
  1
AMDTBROWSERDBTAB
  2
AmdtBrowserDbTab
  3
McadcomServices
 90
        0
280
     0
281
     0
  0
CLASS
  1
CBROWSERAPPOBJECT
  2
CBrowserAppObject
  3
McadcomServices
 90
        0
280
     0
281
     0
  0
CLASS
  1
DM_PLACEHOLDER
  2
AcDmSelsetPlaceholder
  3
AcMechDwgViewMgmt
 90
        0
280
     0
281
     0
  0
CLASS
  1
TABLESTYLE
  2
AcDbTableStyle
  3
ObjectDBX Classes
 90
     2047
280
     0
281
     0
  0
CLASS
  1
VAACXREFPANELOBJECT
  2
VaAcXREFPanelObject
  3
VAAC_ADDIN
 90
        0
280
     0
281
     0
  0
CLASS
  1
VAACIMAGEINVENTORY
  2
VaAcImageInventory
  3
VAAC_ADDIN
 90
        0
280
     0
281
     0
  0
CLASS
  1
AMDTNOTETEMPLATEDB
  2
AmdtNoteTemplateDB
  3
AMDT_STDIMP_MODULE_NAME
 90
        0
280
     0
281
     0
  0
CLASS
  1
ACMBOM
  2
AcmBom
  3
"AcmSymBB|Product Description: AutoCAD Mechanical 2004 DX|Company: Autodesk"
 90
    32768
280
     0
281
     0
  0
CLASS
  1
AMDTFORMULAUPDATEDISPATCHER
  2
AmdtFormulaUpdateDispatcher
  3
AcMeServices
 90
    32768
280
     0
281
     0
  0
CLASS
  1
ACMPARTLIST
  2
AcmPartList
  3
"AcmSymBB|Product Description: AutoCAD Mechanical 2004 DX|Company: Autodesk"
 90
    33791
280
     0
281
     1
  0
CLASS
  1
ACAMGFILTERDAT
  2
AcAmgFilterDat
  3
"AcadM|Product Description: AutoCAD Mechanical 2000|Company: Autodesk"
 90
        0
280
     0
281
     0
  0
CLASS
  1
SORTENTSTABLE
  2
AcDbSortentsTable
  3
ObjectDBX Classes
 90
        0
280
     0
281
     0
  0
CLASS
  1
ACMSTANDARDJIS
  2
AcmStandardJIS
  3
"Amdt_StdImp|Product Description: AutoCAD Mechanical 2004 DX|Company: Autodesk"
 90
        0
280
     0
281
     0
  0
CLASS
  1
ACMSURFSTANDARDJIS
  2
AcmSurfTextStdJIS
  3
"Amdt_StdImp|Product Description: AutoCAD Mechanical 2004 DX|Company: Autodesk"
 90
        0
280
     0
281
     0
  0
CLASS
  1
ACMFCFSTANDARDJIS
  2
AcmFCFStdJIS
  3
"Amdt_StdImp|Product Description: AutoCAD Mechanical 2004 DX|Company: Autodesk"
 90
        0
280
     0
281
     0
  0
CLASS
  1
ACMWELDSTANDARDJIS
  2
AcmWeldingStdJIS
  3
"Amdt_StdImp|Product Description: AutoCAD Mechanical 2004 DX|Company: Autodesk"
 90
        0
280
     0
281
     0
  0
CLASS
  1
ACMIDSTANDARDJIS
  2
AcmIdStdJIS
  3
"Amdt_StdImp|Product Description: AutoCAD Mechanical 2004 DX|Company: Autodesk"
 90
        0
280
     0
281
     0
  0
CLASS
  1
ACMDATUMSTANDARDJIS
  2
AcmDatumStdJIS
  3
"Amdt_StdImp|Product Description: AutoCAD Mechanical 2004 DX|Company: Autodesk"
 90
        0
280
     0
281
     0
  0
CLASS
  1
ACMBOMSTANDARDJIS
  2
AcmBOMStdJIS
  3
"Amdt_StdImp|Product Description: AutoCAD Mechanical 2004 DX|Company: Autodesk"
 90
        0
280
     0
281
     0
  0
CLASS
  1
ACMDETAILSTANDARDJIS
  2
AmdtDetailSymStdJIS
  3
"Amdt_StdImp|Product Description: AutoCAD Mechanical 2004 DX|Company: Autodesk"
 90
        0
280
     0
281
     0
  0
CLASS
  1
ACMSECTIONSTANDARDJIS
  2
AmdtSectionSymStdJIS
  3
"Amdt_StdImp|Product Description: AutoCAD Mechanical 2004 DX|Company: Autodesk"
 90
        0
280
     0
281
     0
  0
CLASS
  1
ACMCENTERLINESTANDARDJIS
  2
AmdtCenterLineStdJIS
  3
"Amdt_StdImp|Product Description: AutoCAD Mechanical 2004 DX|Company: Autodesk"
 90
        0
280
     0
281
     0
  0
CLASS
  1
ACMTHREADLINESTANDARDJIS
  2
AmdtThreadLineStdJIS
  3
"Amdt_StdImp|Product Description: AutoCAD Mechanical 2004 DX|Company: Autodesk"
 90
        0
280
     0
281
     0
  0
CLASS
  1
ACMNOTESTANDARDJIS
  2
AmdtNoteStdJIS
  3
"Amdt_StdImp|Product Description: AutoCAD Mechanical 2004 DX|Company: Autodesk"
 90
        0
280
     0
281
     0
  0
CLASS
  1
ACAMGHOLECHARTSTDJIS
  2
AcAmgHoleChartStdJIS
  3
ACMSYMBB_MODULE_NAME
 90
        0
280
     0
281
     0
  0
CLASS
  1
ACRFATTGENMGR
  2
AcRfAttGeneralMgr
  3
AcAttribServices
 90
        0
280
     0
281
     0
  0
ENDSEC
  0
SECTION
  2
TABLES
  0
TABLE
  2
VPORT
  5
8
330
0
100
AcDbSymbolTable
 70
     4
  0
VPORT
  5
699
330
8
100
AcDbSymbolTableRecord
100
AcDbViewportTableRecord
  2
*Active
 70
     0
 10
0.0
 20
0.0
 11
1.0
 21
1.0
 12
1356.161703033071
 22
1088.998254800716
 13
0.0
 23
0.0
 14
2.5
 24
2.5
 15
10.0
 25
10.0
 16
0.0
 26
0.0
 36
1.0
 17
0.0
 27
0.0
 37
0.0
 40
292.6946570130926
 41
1.218987341772151
 42
50.0
 43
0.0
 44
0.0
 50
0.0
 51
0.0
 71
     0
 72
   100
 73
     1
 74
     3
 75
     0
 76
     0
 77
     0
 78
     0
281
     0
 65
     1
110
0.0
120
0.0
130
0.0
111
1.0
121
0.0
131
0.0
112
0.0
122
1.0
132
0.0
 79
     0
146
0.0
  0
ENDTAB
  0
TABLE
  2
LTYPE
  5
5
330
0
100
AcDbSymbolTable
 70
    16
  0
LTYPE
  5
14
330
5
100
AcDbSymbolTableRecord
100
AcDbLinetypeTableRecord
  2
ByBlock
 70
     0
  3

 72
    65
 73
     0
 40
0.0
  0
LTYPE
  5
15
330
5
100
AcDbSymbolTableRecord
100
AcDbLinetypeTableRecord
  2
ByLayer
 70
     0
  3

 72
    65
 73
     0
 40
0.0
  0
LTYPE
  5
16
330
5
100
AcDbSymbolTableRecord
100
AcDbLinetypeTableRecord
  2
Continuous
 70
     0
  3
Solid line
 72
    65
 73
     0
 40
0.0
  0
LTYPE
  5
64
330
5
100
AcDbSymbolTableRecord
100
AcDbLinetypeTableRecord
  2
AM_ISO02W050
 70
     0
  3
__ __ __ __ __ __ __ __ __ __ __ __ __ __ __
 72
    65
 73
     2
 40
7.5
 49
6.0
 74
     0
 49
-1.5
 74
     0
  0
LTYPE
  5
65
330
5
100
AcDbSymbolTableRecord
100
AcDbLinetypeTableRecord
  2
AM_ISO08W050
 70
     0
  3
____ . ____ . ____ . ____ . ____ . ____ . ____
 72
    65
 73
     4
 40
18.0
 49
12.0
 74
     0
 49
-1.5
 74
     0
 49
3.0
 74
     0
 49
-1.5
 74
     0
  0
LTYPE
  5
66
330
5
100
AcDbSymbolTableRecord
100
AcDbLinetypeTableRecord
  2
AM_ISO09W050
 70
     0
  3
_____ . . _____ . . _____ . . ____ .. ____
 72
    65
 73
     6
 40
22.5
 49
12.0
 74
     0
 49
-1.5
 74
     0
 49
3.0
 74
     0
 49
-1.5
 74
     0
 49
3.0
 74
     0
 49
-1.5
 74
     0
  0
LTYPE
  5
67
330
5
100
AcDbSymbolTableRecord
100
AcDbLinetypeTableRecord
  2
Amconstr
 70
     0
  3
_______________________
 72
    65
 73
     2
 40
9999.0
 49
9999.0
 74
     0
 49
0.0
 74
     0
  0
LTYPE
  5
68
330
5
100
AcDbSymbolTableRecord
100
AcDbLinetypeTableRecord
  2
AM_ISO08W050x2
 70
     0
  3
__ . __ . __ . __ . __ . __
 72
    65
 73
     4
 40
9.0
 49
6.0
 74
     0
 49
-0.75
 74
     0
 49
1.5
 74
     0
 49
-0.75
 74
     0
  0
LTYPE
  5
69
330
5
100
AcDbSymbolTableRecord
100
AcDbLinetypeTableRecord
  2
AM_ISO02W050x2
 70
     0
  3
 _ _ _ _ _ _ _ _ _ _ _ _
 72
    65
 73
     2
 40
3.75
 49
3.0
 74
     0
 49
-0.75
 74
     0
  0
LTYPE
  5
6C
330
5
100
AcDbSymbolTableRecord
100
AcDbLinetypeTableRecord
  2
Amzigzag
 70
     0
  3
/\/-/\/-/\/-/\/-/\/-/\/
 72
    65
 73
     2
 40
11.0001
 49
0.0001
 74
     4
 75
   135
340
6B
 46
0.04
 50
0.0
 44
0.0
 45
0.0
 49
-11.0
 74
     0
  0
LTYPE
  5
7A
330
5
100
AcDbSymbolTableRecord
100
AcDbLinetypeTableRecord
  2
ACISOWELD
 70
     0
  3
_ _ _ _ _
 72
    65
 73
     2
 40
2.0
 49
2.0
 74
     0
 49
-1.0
 74
     0
  0
LTYPE
  5
7B
330
5
100
AcDbSymbolTableRecord
100
AcDbLinetypeTableRecord
  2
ACISOTGB
 70
     0
  3
__ . . __ . .
 72
    65
 73
     6
 40
9.0
 49
4.0
 74
     0
 49
-1.0
 74
     0
 49
1.0
 74
     0
 49
-1.0
 74
     0
 49
1.0
 74
     0
 49
-1.0
 74
     0
  0
LTYPE
  5
7C
330
5
100
AcDbSymbolTableRecord
100
AcDbLinetypeTableRecord
  2
ACISOTGL
 70
     0
  3
_ _ _ _ _
 72
    65
 73
     2
 40
3.0
 49
2.0
 74
     0
 49
-1.0
 74
     0
  0
LTYPE
  5
7E
330
5
100
AcDbSymbolTableRecord
100
AcDbLinetypeTableRecord
  2
CENTER
 70
     0
  3
__ . __
 72
    65
 73
     4
 40
7.0
 49
4.0
 74
     0
 49
-1.0
 74
     0
 49
1.0
 74
     0
 49
-1.0
 74
     0
  0
LTYPE
  5
D8
330
5
100
AcDbSymbolTableRecord
100
AcDbLinetypeTableRecord
  2
HIDDEN
 70
     0
  3
Hidden __ __ __ __ __ __ __ __ __ __ __ __ __ _
 72
    65
 73
     2
 40
9.524999999999998
 49
6.349999999999999
 74
     0
 49
-3.174999999999999
 74
     0
  0
LTYPE
  5
D9
330
5
100
AcDbSymbolTableRecord
100
AcDbLinetypeTableRecord
  2
PHANTOM2
 70
     0
  3
Phantom (.5x) ___ _ _ ___ _ _ ___ _ _ ___ _ _
 72
    65
 73
     6
 40
31.75
 49
15.875
 74
     0
 49
-3.174999999999999
 74
     0
 49
3.174999999999999
 74
     0
 49
-3.174999999999999
 74
     0
 49
3.174999999999999
 74
     0
 49
-3.174999999999999
 74
     0
  0
LTYPE
  5
250
330
5
100
AcDbSymbolTableRecord
100
AcDbLinetypeTableRecord
  2
ACJISTGB
 70
     0
  3
__ . . __ . .
 72
    65
 73
     6
 40
9.0
 49
4.0
 74
     0
 49
-1.0
 74
     0
 49
1.0
 74
     0
 49
-1.0
 74
     0
 49
1.0
 74
     0
 49
-1.0
 74
     0
  0
LTYPE
  5
251
330
5
100
AcDbSymbolTableRecord
100
AcDbLinetypeTableRecord
  2
ACJISTGL
 70
     0
  3
_ _ _ _ _
 72
    65
 73
     2
 40
3.0
 49
2.0
 74
     0
 49
-1.0
 74
     0
  0
ENDTAB
  0
TABLE
  2
LAYER
  5
2
102
{ACAD_XDICTIONARY
360
26B
102
}
330
0
100
AcDbSymbolTable
 70
     7
  0
LAYER
  5
10
330
2
100
AcDbSymbolTableRecord
100
AcDbLayerTableRecord
  2
0
 70
     0
 62
     7
  6
Continuous
370
    -3
390
F
  0
LAYER
  5
1B0
330
2
100
AcDbSymbolTableRecord
100
AcDbLayerTableRecord
  2
AM_5
 70
     0
 62
     3
  6
Continuous
370
    25
390
F
  0
LAYER
  5
252
330
2
100
AcDbSymbolTableRecord
100
AcDbLayerTableRecord
  2
Defpoints
 70
     0
 62
     7
  6
Continuous
290
     0
370
    -3
390
F
  0
LAYER
  5
253
330
2
100
AcDbSymbolTableRecord
100
AcDbLayerTableRecord
  2
AM_VIS
 70
     2
 62
     7
  6
Continuous
370
    50
390
F
  0
LAYER
  5
254
330
2
100
AcDbSymbolTableRecord
100
AcDbLayerTableRecord
  2
AM_7
 70
     0
 62
     4
  6
AM_ISO08W050
370
    25
390
F
  0
LAYER
  5
255
330
2
100
AcDbSymbolTableRecord
100
AcDbLayerTableRecord
  2
AM_6
 70
     0
 62
     2
  6
Continuous
370
    35
390
F
  0
LAYER
  5
256
330
2
100
AcDbSymbolTableRecord
100
AcDbLayerTableRecord
  2
LOGO
 70
     0
 62
     7
  6
Continuous
370
    -3
390
F
  0
ENDTAB
  0
TABLE
  2
STYLE
  5
3
330
0
100
AcDbSymbolTable
 70
    11
  0
STYLE
  5
11
330
3
100
AcDbSymbolTableRecord
100
AcDbTextStyleTableRecord
  2
STANDARD
 70
     0
 40
0.0
 41
1.0
 50
0.0
 71
     0
 42
1.0
  3
ISOCP.SHX
  4
CHINESET.SHX
  0
STYLE
  5
6B
330
3
100
AcDbSymbolTableRecord
100
AcDbTextStyleTableRecord
  2

 70
     1
 40
0.0
 41
1.0
 50
0.0
 71
     0
 42
2.5
  3
ltypeshp.shx
  4

  0
STYLE
  5
6D
330
3
100
AcDbSymbolTableRecord
100
AcDbTextStyleTableRecord
  2
ACISOTS
 70
     0
 40
1.0
 41
1.0
 50
0.0
 71
     0
 42
1.0
  3
isocp.shx
  4
chineset.shx
  0
STYLE
  5
79
330
3
100
AcDbSymbolTableRecord
100
AcDbTextStyleTableRecord
  2
ACISOGDT
 70
     0
 40
0.0
 41
1.0
 50
0.0
 71
     0
 42
2.5
  3
amgdt.shx
  4
chineset.shx
  0
STYLE
  5
1FA
330
3
100
AcDbSymbolTableRecord
100
AcDbTextStyleTableRecord
  2
USER1
 70
     0
 40
0.0
 41
1.0
 50
0.0
 71
     0
 42
1.0
  3
TXT.SHX
  4

  0
STYLE
  5
1FB
330
3
100
AcDbSymbolTableRecord
100
AcDbTextStyleTableRecord
  2
USER2
 70
     0
 40
0.0
 41
1.0
 50
0.0
 71
     0
 42
1.0
  3
SIMPLEX.SHX
  4

  0
STYLE
  5
1FC
330
3
100
AcDbSymbolTableRecord
100
AcDbTextStyleTableRecord
  2
USER3
 70
     0
 40
0.0
 41
1.0
 50
0.0
 71
     0
 42
1.0
  3
ITALIC.SHX
  4

  0
STYLE
  5
257
330
3
100
AcDbSymbolTableRecord
100
AcDbTextStyleTableRecord
  2
CHINESET
 70
     0
 40
0.0
 41
1.0
 50
0.0
 71
     0
 42
2.5
  3
simplex.shx
  4
CHINESET.shx
  0
STYLE
  5
258
330
3
100
AcDbSymbolTableRecord
100
AcDbTextStyleTableRecord
  2
ACJISTS
 70
     0
 40
1.0
 41
1.0
 50
0.0
 71
     0
 42
2.5
  3
isocp.shx
  4
chineset.shx
  0
STYLE
  5
259
330
3
100
AcDbSymbolTableRecord
100
AcDbTextStyleTableRecord
  2
ACJISGDT
 70
     0
 40
0.0
 41
1.0
 50
0.0
 71
     0
 42
2.5
  3
amgdt.shx
  4

  0
ENDTAB
  0
TABLE
  2
VIEW
  5
6
330
0
100
AcDbSymbolTable
 70
     0
  0
ENDTAB
  0
TABLE
  2
UCS
  5
7
330
0
100
AcDbSymbolTable
 70
     0
  0
ENDTAB
  0
TABLE
  2
APPID
  5
9
330
0
100
AcDbSymbolTable
 70
    17
  0
APPID
  5
12
330
9
100
AcDbSymbolTableRecord
100
AcDbRegAppTableRecord
  2
ACAD
 70
     0
  0
APPID
  5
46
330
9
100
AcDbSymbolTableRecord
100
AcDbRegAppTableRecord
  2
MCAD_NO_VIS
 70
     0
  0
APPID
  5
47
330
9
100
AcDbSymbolTableRecord
100
AcDbRegAppTableRecord
  2
ACAD_TEMP_GRAPHIC
 70
     0
  0
APPID
  5
58
330
9
100
AcDbSymbolTableRecord
100
AcDbRegAppTableRecord
  2
ACATTRIBSERVICES
 70
     0
  0
APPID
  5
EE
330
9
100
AcDbSymbolTableRecord
100
AcDbRegAppTableRecord
  2
AD_DRAW
 70
     0
  0
APPID
  5
10C
330
9
100
AcDbSymbolTableRecord
100
AcDbRegAppTableRecord
  2
DESIGNERASSEMBLIES
 70
     0
  0
APPID
  5
111
330
9
100
AcDbSymbolTableRecord
100
AcDbRegAppTableRecord
  2
ACADM_DIM_EDIT
 70
     0
  0
APPID
  5
112
330
9
100
AcDbSymbolTableRecord
100
AcDbRegAppTableRecord
  2
AMDT_DM_ADJ
 70
     0
  0
APPID
  5
262
330
9
100
AcDbSymbolTableRecord
100
AcDbRegAppTableRecord
  2
GENIUS_GENODEF_13
 70
     0
  0
APPID
  5
263
330
9
100
AcDbSymbolTableRecord
100
AcDbRegAppTableRecord
  2
ACAD_PSEXT
 70
     0
  0
APPID
  5
264
330
9
100
AcDbSymbolTableRecord
100
AcDbRegAppTableRecord
  2
GENIUS_AMGTXT_16
 70
     0
  0
APPID
  5
265
330
9
100
AcDbSymbolTableRecord
100
AcDbRegAppTableRecord
  2
GENIUS_GENOENT_13
 70
     0
  0
APPID
  5
266
330
9
100
AcDbSymbolTableRecord
100
AcDbRegAppTableRecord
  2
GENIUS_GENOBJ-N-CRS_13
 70
     0
  0
APPID
  5
267
330
9
100
AcDbSymbolTableRecord
100
AcDbRegAppTableRecord
  2
GENIUS_GENOLIS_13
 70
     0
  0
APPID
  5
268
330
9
100
AcDbSymbolTableRecord
100
AcDbRegAppTableRecord
  2
GENIUS_GENOREF_13
 70
     0
  0
APPID
  5
269
330
9
100
AcDbSymbolTableRecord
100
AcDbRegAppTableRecord
  2
GENIUS_GENREC_14
 70
     0
  0
APPID
  5
26A
330
9
100
AcDbSymbolTableRecord
100
AcDbRegAppTableRecord
  2
GENIUS_GENOBJ-N-REC_13
 70
     0
  0
ENDTAB
  0
TABLE
  2
DIMSTYLE
  5
A
330
0
100
AcDbSymbolTable
 70
    17
100
AcDbDimStyleTable
 71
     1
340
81
  0
DIMSTYLE
105
27
330
A
100
AcDbSymbolTableRecord
100
AcDbDimStyleTableRecord
  2
ISO-25
 70
     0
 41
2.5
 42
0.625
 43
3.75
 44
1.25
 73
     0
 74
     0
 77
     1
 78
     8
140
2.5
141
2.5
143
0.03937007874016
147
0.625
171
     3
172
     1
271
     2
272
     2
274
     3
278
    44
283
     0
284
     8
340
11
  0
DIMSTYLE
105
81
330
A
100
AcDbSymbolTableRecord
100
AcDbDimStyleTableRecord
  2
AM_ISO
 70
     0
  4
"
 41
2.5
 42
1.0
 43
10.0
 44
1.0
 47
0.1
 48
0.1
 73
     0
 74
     0
 77
     1
 78
     8
 79
     2
140
3.5
141
0.0
143
0.0393701
146
0.71
147
1.5
172
     1
176
   256
177
   256
178
     2
271
     2
272
     3
274
     4
283
     0
284
     8
340
11
371
    -1
372
    -1
  0
DIMSTYLE
105
82
330
A
100
AcDbSymbolTableRecord
100
AcDbDimStyleTableRecord
  2
AM_ISO$3
 70
     0
  4
"
 41
2.5
 42
1.0
 43
10.0
 44
1.0
 47
0.1
 48
0.1
 73
     0
 77
     1
 78
     8
 79
     2
140
3.5
141
0.0
143
0.0393701
146
0.71
147
1.5
176
   256
177
   256
178
     2
271
     2
272
     3
274
     4
283
     0
284
     8
288
     1
289
     0
340
11
371
    -1
372
    -1
  0
DIMSTYLE
105
83
330
A
100
AcDbSymbolTableRecord
100
AcDbDimStyleTableRecord
  2
AM_ISO$4
 70
     0
  4
"
 41
2.5
 42
1.0
 43
10.0
 44
1.0
 47
0.1
 48
0.1
 73
     0
 77
     1
 78
     8
 79
     2
140
3.5
141
0.0
143
0.0393701
146
0.71
147
1.5
176
   256
177
   256
178
     2
271
     2
272
     3
274
     4
283
     0
284
     8
288
     1
289
     0
340
11
371
    -1
372
    -1
  0
DIMSTYLE
105
84
330
A
100
AcDbSymbolTableRecord
100
AcDbDimStyleTableRecord
  2
AM_ISO$6
 70
     0
  4
"
 41
2.5
 42
1.0
 43
10.0
 44
1.0
 47
0.1
 48
0.1
 73
     0
 74
     0
 78
     8
 79
     2
140
3.5
141
0.0
143
0.0393701
146
0.71
147
1.5
172
     1
176
   256
177
   256
178
     2
271
     2
272
     3
274
     4
283
     0
284
     8
340
11
371
    -1
372
    -1
  0
DIMSTYLE
105
85
330
A
100
AcDbSymbolTableRecord
100
AcDbDimStyleTableRecord
  2
AM_ISO$7
 70
     0
  4
"
 41
2.5
 42
1.0
 43
10.0
 44
1.0
 47
0.1
 48
0.1
 73
     0
 74
     0
 77
     1
 78
     8
 79
     2
140
5.0
141
0.0
143
0.0393701
146
0.71
147
1.5
172
     1
176
   256
177
   256
178
     2
271
     2
272
     3
274
     4
283
     0
284
     8
340
11
371
    -1
372
    -1
  0
DIMSTYLE
105
86
330
A
100
AcDbSymbolTableRecord
100
AcDbDimStyleTableRecord
  2
AM_ISO$SF
 70
     0
  4
"
 41
2.5
 42
1.0
 43
10.0
 44
1.0
 47
0.1
 48
0.1
 73
     0
 74
     0
 75
     1
 76
     1
 77
     1
 78
     8
 79
     2
140
3.5
141
0.0
143
0.0393701
146
0.71
147
1.5
172
     1
176
   256
177
   256
178
     2
271
     2
272
     3
274
     4
283
     0
284
     8
340
11
371
    -1
372
    -1
  0
DIMSTYLE
105
8B
330
A
100
AcDbSymbolTableRecord
100
AcDbDimStyleTableRecord
  2
AM_ISO$SH
 70
     0
  4
"
 41
2.5
 42
1.0
 43
10.0
 44
1.0
 47
0.1
 48
0.1
 73
     0
 74
     0
 75
     1
 76
     1
 77
     1
 78
     8
 79
     2
140
3.5
141
0.0
143
0.0393701
144
2.0
146
0.71
147
1.5
172
     1
173
     1
176
   256
177
   256
178
     2
271
     2
272
     3
274
     4
283
     0
284
     8
340
11
343
87
371
    -1
372
    -1
  0
DIMSTYLE
105
25A
102
{ACAD_REACTORS
330
340
330
3AD
330
344
330
33F
330
33E
330
41F
330
420
330
421
330
511
330
512
330
513
330
580
330
5F3
330
5F4
102
}
330
A
100
AcDbSymbolTableRecord
100
AcDbDimStyleTableRecord
  2
STANDARD
 70
     0
 41
3.0
 42
2.0
 43
8.0
 44
2.0
 48
0.000000001
 73
     0
 74
     0
 77
     1
 78
     8
 79
     2
140
3.0
141
1.0
146
0.6
147
1.0
176
   256
177
   256
178
   256
179
     2
271
     2
272
     2
279
     2
284
     8
340
257
371
    -1
  0
DIMSTYLE
105
25B
330
A
100
AcDbSymbolTableRecord
100
AcDbDimStyleTableRecord
  2
AM_JIS
 70
     0
  4
"
 41
2.5
 42
1.0
 43
10.0
 44
1.0
 47
0.1
 48
0.1
 73
     0
 74
     0
 77
     3
 78
     8
 79
     2
140
3.5
141
0.0
143
0.0393701
146
0.71
147
1.5
172
     1
176
   256
177
   256
178
     2
271
     2
272
     3
274
     4
283
     0
340
11
341
201
342
201
343
201
344
201
371
    -1
372
    -1
  0
DIMSTYLE
105
25C
330
A
100
AcDbSymbolTableRecord
100
AcDbDimStyleTableRecord
  2
AM_JIS$3
 70
     0
  4
"
 41
2.5
 42
1.0
 43
10.0
 44
1.0
 47
0.1
 48
0.1
 73
     0
 77
     3
 78
     8
 79
     2
140
3.5
141
0.0
143
0.0393701
146
0.71
147
1.5
176
   256
177
   256
178
     2
271
     2
272
     3
274
     4
283
     0
288
     1
289
     0
340
11
341
201
342
201
343
201
344
201
371
    -1
372
    -1
  0
DIMSTYLE
105
25D
330
A
100
AcDbSymbolTableRecord
100
AcDbDimStyleTableRecord
  2
AM_JIS$4
 70
     0
  4
"
 41
2.5
 42
1.0
 43
10.0
 44
1.0
 47
0.1
 48
0.1
 73
     0
 77
     3
 78
     8
 79
     2
140
3.5
141
0.0
143
0.0393701
146
0.71
147
1.5
176
   256
177
   256
178
     2
271
     2
272
     3
274
     4
283
     0
288
     1
289
     0
340
11
341
201
342
201
343
201
344
201
371
    -1
372
    -1
  0
DIMSTYLE
105
25E
330
A
100
AcDbSymbolTableRecord
100
AcDbDimStyleTableRecord
  2
AM_JIS$6
 70
     0
  4
"
 41
2.5
 42
1.0
 43
10.0
 44
1.0
 47
0.1
 48
0.1
 73
     0
 74
     0
 78
     8
 79
     2
140
3.5
141
0.0
143
0.0393701
146
0.71
147
1.5
172
     1
176
   256
177
   256
178
     2
271
     2
272
     3
274
     4
283
     0
340
11
341
201
342
201
343
201
344
201
371
    -1
372
    -1
  0
DIMSTYLE
105
25F
330
A
100
AcDbSymbolTableRecord
100
AcDbDimStyleTableRecord
  2
AM_JIS$7
 70
     0
  4
"
 41
2.5
 42
1.0
 43
10.0
 44
1.0
 47
0.1
 48
0.1
 73
     0
 74
     0
 77
     3
 78
     8
 79
     2
140
5.0
141
0.0
143
0.0393701
146
0.71
147
1.5
172
     1
176
   256
177
   256
178
     2
271
     2
272
     3
274
     4
283
     0
340
11
341
201
342
201
343
201
344
201
371
    -1
372
    -1
  0
DIMSTYLE
105
260
330
A
100
AcDbSymbolTableRecord
100
AcDbDimStyleTableRecord
  2
AM_JIS$SF
 70
     0
  4
"
 41
2.5
 42
1.0
 43
10.0
 44
1.0
 47
0.1
 48
0.1
 73
     0
 74
     0
 75
     1
 76
     1
 77
     3
 78
     8
 79
     2
140
3.5
141
0.0
143
0.0393701
146
0.71
147
1.5
172
     1
176
   256
177
   256
178
     2
271
     2
272
     3
274
     4
283
     0
340
11
341
201
342
201
343
201
344
201
371
    -1
372
    -1
  0
DIMSTYLE
105
261
330
A
100
AcDbSymbolTableRecord
100
AcDbDimStyleTableRecord
  2
AM_JIS$SH
 70
     0
  4
"
 41
2.5
 42
1.0
 43
10.0
 44
1.0
 47
0.1
 48
0.1
 73
     0
 74
     0
 75
     1
 76
     1
 77
     3
 78
     8
 79
     2
140
3.5
141
0.0
143
0.0393701
144
2.0
146
0.71
147
1.5
172
     1
173
     1
176
   256
177
   256
178
     2
271
     2
272
     3
274
     4
283
     0
340
11
341
201
342
201
343
87
344
201
371
    -1
372
    -1
  0
ENDTAB
  0
TABLE
  2
BLOCK_RECORD
  5
1
330
0
100
AcDbSymbolTable
 70
    18
  0
BLOCK_RECORD
  5
1F
102
{ACAD_XDICTIONARY
360
8F
102
}
330
1
100
AcDbSymbolTableRecord
100
AcDbBlockTableRecord
  2
*Model_Space
340
22
  0
BLOCK_RECORD
  5
1B
330
1
100
AcDbSymbolTableRecord
100
AcDbBlockTableRecord
  2
*Paper_Space
340
1E
  0
BLOCK_RECORD
  5
23
330
1
100
AcDbSymbolTableRecord
100
AcDbBlockTableRecord
  2
*Paper_Space0
340
26
  0
BLOCK_RECORD
  5
87
330
1
100
AcDbSymbolTableRecord
100
AcDbBlockTableRecord
  2
GENAXEH
340
0
  0
BLOCK_RECORD
  5
201
330
1
100
AcDbSymbolTableRecord
100
AcDbBlockTableRecord
  2
_Open30
340
0
  0
BLOCK_RECORD
  5
207
330
1
100
AcDbSymbolTableRecord
100
AcDbBlockTableRecord
  2
*D4
340
0
  0
BLOCK_RECORD
  5
214
330
1
100
AcDbSymbolTableRecord
100
AcDbBlockTableRecord
  2
*D5
340
0
  0
BLOCK_RECORD
  5
220
330
1
100
AcDbSymbolTableRecord
100
AcDbBlockTableRecord
  2
*D6
340
0
  0
BLOCK_RECORD
  5
22C
330
1
100
AcDbSymbolTableRecord
100
AcDbBlockTableRecord
  2
*D7
340
0
  0
BLOCK_RECORD
  5
238
330
1
100
AcDbSymbolTableRecord
100
AcDbBlockTableRecord
  2
*D8
340
0
  0
BLOCK_RECORD
  5
244
330
1
100
AcDbSymbolTableRecord
100
AcDbBlockTableRecord
  2
*D9
340
0
  0
BLOCK_RECORD
  5
5F8
330
1
100
AcDbSymbolTableRecord
100
AcDbBlockTableRecord
  2
*D11
340
0
  0
BLOCK_RECORD
  5
605
330
1
100
AcDbSymbolTableRecord
100
AcDbBlockTableRecord
  2
*D12
340
0
  0
BLOCK_RECORD
  5
611
330
1
100
AcDbSymbolTableRecord
100
AcDbBlockTableRecord
  2
*D13
340
0
  0
BLOCK_RECORD
  5
61D
330
1
100
AcDbSymbolTableRecord
100
AcDbBlockTableRecord
  2
*D14
340
0
  0
BLOCK_RECORD
  5
629
330
1
100
AcDbSymbolTableRecord
100
AcDbBlockTableRecord
  2
*D15
340
0
  0
BLOCK_RECORD
  5
635
330
1
100
AcDbSymbolTableRecord
100
AcDbBlockTableRecord
  2
*D16
340
0
  0
ENDTAB
  0
ENDSEC
  0
SECTION
  2
BLOCKS
  0
BLOCK
  5
20
330
1F
100
AcDbEntity
  8
0
100
AcDbBlockBegin
  2
*Model_Space
 70
     0
 10
0.0
 20
0.0
 30
0.0
  3
*Model_Space
  1

  0
ENDBLK
  5
21
330
1F
100
AcDbEntity
  8
0
100
AcDbBlockEnd
  0
BLOCK
  5
1C
330
1B
100
AcDbEntity
 67
     1
  8
0
100
AcDbBlockBegin
  2
*Paper_Space
 70
     0
 10
0.0
 20
0.0
 30
0.0
  3
*Paper_Space
  1

  0
ENDBLK
  5
1D
330
1B
100
AcDbEntity
 67
     1
  8
0
100
AcDbBlockEnd
  0
BLOCK
  5
24
330
23
100
AcDbEntity
  8
0
100
AcDbBlockBegin
  2
*Paper_Space0
 70
     0
 10
0.0
 20
0.0
 30
0.0
  3
*Paper_Space0
  1

  0
ENDBLK
  5
25
330
23
100
AcDbEntity
  8
0
100
AcDbBlockEnd
  0
BLOCK
  5
89
330
87
100
AcDbEntity
  8
0
100
AcDbBlockBegin
  2
GENAXEH
 70
     0
 10
0.0
 20
0.0
 30
0.0
  3
GENAXEH
  1

  0
LINE
  5
88
330
87
100
AcDbEntity
  8
0
100
AcDbLine
 10
-1.0
 20
0.0
 30
0.0
 11
1.0
 21
0.0
 31
0.0
  0
ENDBLK
  5
8A
330
87
100
AcDbEntity
  8
0
100
AcDbBlockEnd
  0
BLOCK
  5
202
330
201
100
AcDbEntity
  8
0
100
AcDbBlockBegin
  2
_Open30
 70
     0
 10
0.0
 20
0.0
 30
0.0
  3
_Open30
  1

  0
LINE
  5
203
330
201
100
AcDbEntity
  8
0
 62
     0
370
    -2
100
AcDbLine
 10
-1.0
 20
0.26794919
 30
0.0
 11
0.0
 21
0.0
 31
0.0
  0
LINE
  5
204
330
201
100
AcDbEntity
  8
0
 62
     0
370
    -2
100
AcDbLine
 10
0.0
 20
0.0
 30
0.0
 11
-1.0
 21
-0.26794919
 31
0.0
  0
LINE
  5
205
330
201
100
AcDbEntity
  8
0
 62
     0
370
    -2
100
AcDbLine
 10
0.0
 20
0.0
 30
0.0
 11
-1.0
 21
0.0
 31
0.0
  0
ENDBLK
  5
206
330
201
100
AcDbEntity
  8
0
100
AcDbBlockEnd
  0
BLOCK
  5
208
330
207
100
AcDbEntity
  8
0
100
AcDbBlockBegin
  2
*D4
 70
     1
 10
0.0
 20
0.0
 30
0.0
  3
*D4
  1

  0
LINE
  5
209
330
207
100
AcDbEntity
  8
0
 62
     5
370
    -2
100
AcDbLine
 10
86.61173147316622
 20
20.92057704306581
 30
0.0
 11
95.28982803151881
 21
20.9205770430658
 31
0.0
  0
LINE
  5
20A
330
207
100
AcDbEntity
  8
0
 62
     5
370
    -2
100
AcDbLine
 10
74.85062447423598
 20
28.9205770430658
 30
0.0
 11
95.28982803151881
 21
28.9205770430658
 31
0.0
  0
LINE
  5
20B
330
207
100
AcDbEntity
  8
0
 62
     5
100
AcDbLine
 10
93.28982803151882
 20
17.9205770430658
 30
0.0
 11
93.28982803151882
 21
14.9205770430658
 31
0.0
  0
LINE
  5
20C
330
207
100
AcDbEntity
  8
0
 62
     5
100
AcDbLine
 10
93.28982803151882
 20
31.9205770430658
 30
0.0
 11
93.28982803151884
 21
34.9205770430658
 31
0.0
  0
SOLID
  5
20D
330
207
100
AcDbEntity
  8
0
 62
     5
100
AcDbTrace
 10
92.78982803151881
 20
17.9205770430658
 30
0.0
 11
93.78982803151883
 21
17.9205770430658
 31
0.0
 12
93.28982803151882
 22
20.9205770430658
 32
0.0
 13
93.28982803151882
 23
20.9205770430658
 33
0.0
  0
SOLID
  5
20E
330
207
100
AcDbEntity
  8
0
 62
     5
100
AcDbTrace
 10
92.78982803151881
 20
31.9205770430658
 30
0.0
 11
93.78982803151883
 21
31.9205770430658
 31
0.0
 12
93.28982803151882
 22
28.9205770430658
 32
0.0
 13
93.28982803151882
 23
28.9205770430658
 33
0.0
  0
MTEXT
  5
20F
330
207
100
AcDbEntity
  8
0
 62
     5
100
AcDbMText
 10
90.78982803151882
 20
24.92057704306582
 30
0.0
 40
3.0
 41
0.0
 71
     5
 72
     1
  1
\A1;8
  7
CHINESET
 11
0.0000000000000001
 21
1.0
 31
0.0
 73
     1
 44
1.0
1001
ACAD
1000
MTEXTBEGIN
1070
    73
1070
     1
1070
    44
1040
1.0
1070
    74
1070
     0
1000
MTEXTEND
  0
POINT
  5
210
330
207
100
AcDbEntity
  8
Defpoints
 62
     0
100
AcDbPoint
 10
84.61173147316623
 20
20.92057704306581
 30
0.0
  0
POINT
  5
211
330
207
100
AcDbEntity
  8
Defpoints
 62
     0
100
AcDbPoint
 10
72.85062447423598
 20
28.9205770430658
 30
0.0
  0
POINT
  5
212
330
207
100
AcDbEntity
  8
Defpoints
 62
     0
100
AcDbPoint
 10
93.28982803151882
 20
28.9205770430658
 30
0.0
  0
ENDBLK
  5
213
330
207
100
AcDbEntity
  8
0
100
AcDbBlockEnd
  0
BLOCK
  5
215
330
214
100
AcDbEntity
  8
0
100
AcDbBlockBegin
  2
*D5
 70
     1
 10
0.0
 20
0.0
 30
0.0
  3
*D5
  1

  0
LINE
  5
216
330
214
100
AcDbEntity
  8
0
 62
     5
370
    -2
100
AcDbLine
 10
86.61173147316622
 20
20.92057704306581
 30
0.0
 11
104.6975060618631
 21
20.9205770430658
 31
0.0
  0
LINE
  5
217
330
214
100
AcDbEntity
  8
0
 62
     5
370
    -2
100
AcDbLine
 10
74.85062447423598
 20
36.92057704306583
 30
0.0
 11
104.6975060618631
 21
36.92057704306583
 31
0.0
  0
LINE
  5
218
330
214
100
AcDbEntity
  8
0
 62
     5
100
AcDbLine
 10
102.6975060618631
 20
23.9205770430658
 30
0.0
 11
102.6975060618631
 21
33.92057704306583
 31
0.0
  0
SOLID
  5
219
330
214
100
AcDbEntity
  8
0
 62
     5
100
AcDbTrace
 10
102.1975060618631
 20
23.9205770430658
 30
0.0
 11
103.1975060618631
 21
23.9205770430658
 31
0.0
 12
102.6975060618631
 22
20.9205770430658
 32
0.0
 13
102.6975060618631
 23
20.9205770430658
 33
0.0
  0
SOLID
  5
21A
330
214
100
AcDbEntity
  8
0
 62
     5
100
AcDbTrace
 10
102.1975060618631
 20
33.92057704306583
 30
0.0
 11
103.1975060618631
 21
33.92057704306583
 31
0.0
 12
102.6975060618631
 22
36.92057704306583
 32
0.0
 13
102.6975060618631
 23
36.92057704306583
 33
0.0
  0
MTEXT
  5
21B
330
214
100
AcDbEntity
  8
0
 62
     5
100
AcDbMText
 10
100.1975060618631
 20
28.92057704306583
 30
0.0
 40
3.0
 41
0.0
 71
     5
 72
     1
  1
\A1;16
  7
CHINESET
 11
0.0000000000000001
 21
1.0
 31
0.0
 73
     1
 44
1.0
1001
ACAD
1000
MTEXTBEGIN
1070
    73
1070
     1
1070
    44
1040
1.0
1070
    74
1070
     0
1000
MTEXTEND
  0
POINT
  5
21C
330
214
100
AcDbEntity
  8
Defpoints
 62
     0
100
AcDbPoint
 10
84.61173147316623
 20
20.92057704306581
 30
0.0
  0
POINT
  5
21D
330
214
100
AcDbEntity
  8
Defpoints
 62
     0
100
AcDbPoint
 10
72.85062447423598
 20
36.92057704306583
 30
0.0
  0
POINT
  5
21E
330
214
100
AcDbEntity
  8
Defpoints
 62
     0
100
AcDbPoint
 10
102.6975060618631
 20
36.92057704306583
 30
0.0
  0
ENDBLK
  5
21F
330
214
100
AcDbEntity
  8
0
100
AcDbBlockEnd
  0
BLOCK
  5
221
330
220
100
AcDbEntity
  8
0
100
AcDbBlockBegin
  2
*D6
 70
     1
 10
0.0
 20
0.0
 30
0.0
  3
*D6
  1

  0
LINE
  5
222
330
220
100
AcDbEntity
  8
0
 62
     5
370
    -2
100
AcDbLine
 10
-41.14332979783466
 20
117.9273887970523
 30
0.0
 11
-57.9316451328501
 21
117.9273887970523
 31
0.0
  0
LINE
  5
223
330
220
100
AcDbEntity
  8
0
 62
     5
370
    -2
100
AcDbLine
 10
-45.64332979783467
 20
19.9315907503117
 30
0.0
 11
-57.93164513285012
 21
19.9315907503117
 31
0.0
  0
LINE
  5
224
330
220
100
AcDbEntity
  8
0
 62
     5
100
AcDbLine
 10
-55.9316451328501
 20
114.9273887970523
 30
0.0
 11
-55.93164513285012
 21
22.9315907503117
 31
0.0
  0
SOLID
  5
225
330
220
100
AcDbEntity
  8
0
 62
     5
100
AcDbTrace
 10
-56.4316451328501
 20
114.9273887970523
 30
0.0
 11
-55.4316451328501
 21
114.9273887970523
 31
0.0
 12
-55.9316451328501
 22
117.9273887970523
 32
0.0
 13
-55.9316451328501
 23
117.9273887970523
 33
0.0
  0
SOLID
  5
226
330
220
100
AcDbEntity
  8
0
 62
     5
100
AcDbTrace
 10
-56.43164513285012
 20
22.9315907503117
 30
0.0
 11
-55.43164513285012
 21
22.9315907503117
 31
0.0
 12
-55.93164513285012
 22
19.9315907503117
 32
0.0
 13
-55.93164513285012
 23
19.9315907503117
 33
0.0
  0
MTEXT
  5
227
330
220
100
AcDbEntity
  8
0
 62
     5
100
AcDbMText
 10
-58.43164513285012
 20
68.92948977368198
 30
0.0
 40
3.0
 41
0.0
 71
     5
 72
     1
  1
\A1;98
  7
CHINESET
 11
0.0000000000000001
 21
1.0
 31
0.0
 73
     1
 44
1.0
1001
ACAD
1000
MTEXTBEGIN
1070
    73
1070
     1
1070
    44
1040
1.0
1070
    74
1070
     0
1000
MTEXTEND
  0
POINT
  5
228
330
220
100
AcDbEntity
  8
Defpoints
 62
     0
100
AcDbPoint
 10
-39.14332979783467
 20
117.9273887970523
 30
0.0
  0
POINT
  5
229
330
220
100
AcDbEntity
  8
Defpoints
 62
     0
100
AcDbPoint
 10
-43.64332979783466
 20
19.9315907503117
 30
0.0
  0
POINT
  5
22A
330
220
100
AcDbEntity
  8
Defpoints
 62
     0
100
AcDbPoint
 10
-55.93164513285012
 20
19.9315907503117
 30
0.0
  0
ENDBLK
  5
22B
330
220
100
AcDbEntity
  8
0
100
AcDbBlockEnd
  0
BLOCK
  5
22D
330
22C
100
AcDbEntity
  8
0
100
AcDbBlockBegin
  2
*D7
 70
     1
 10
0.0
 20
0.0
 30
0.0
  3
*D7
  1

  0
LINE
  5
22E
330
22C
100
AcDbEntity
  8
0
 62
     5
370
    -2
100
AcDbLine
 10
69.60062447423593
 20
120.8442741131767
 30
0.0
 11
69.60062447423593
 21
127.2096770481662
 31
0.0
  0
LINE
  5
22F
330
22C
100
AcDbEntity
  8
0
 62
     5
370
    -2
100
AcDbLine
 10
16.60062447423593
 20
96.7705770430658
 30
0.0
 11
16.60062447423593
 21
127.2096770481662
 31
0.0
  0
LINE
  5
230
330
22C
100
AcDbEntity
  8
0
 62
     5
100
AcDbLine
 10
66.60062447423593
 20
125.2096770481662
 30
0.0
 11
19.60062447423593
 21
125.2096770481662
 31
0.0
  0
SOLID
  5
231
330
22C
100
AcDbEntity
  8
0
 62
     5
100
AcDbTrace
 10
66.60062447423593
 20
125.7096770481662
 30
0.0
 11
66.60062447423593
 21
124.7096770481662
 31
0.0
 12
69.60062447423593
 22
125.2096770481662
 32
0.0
 13
69.60062447423593
 23
125.2096770481662
 33
0.0
  0
SOLID
  5
232
330
22C
100
AcDbEntity
  8
0
 62
     5
100
AcDbTrace
 10
19.60062447423593
 20
125.7096770481662
 30
0.0
 11
19.60062447423593
 21
124.7096770481662
 31
0.0
 12
16.60062447423593
 22
125.2096770481662
 32
0.0
 13
16.60062447423593
 23
125.2096770481662
 33
0.0
  0
MTEXT
  5
233
330
22C
100
AcDbEntity
  8
0
 62
     5
100
AcDbMText
 10
43.10062447423592
 20
127.7096770481662
 30
0.0
 40
3.0
 41
0.0
 71
     5
 72
     1
  1
\A1;53
  7
CHINESET
 73
     1
 44
1.0
1001
ACAD
1000
MTEXTBEGIN
1070
    73
1070
     1
1070
    44
1040
1.0
1070
    74
1070
     0
1000
MTEXTEND
  0
POINT
  5
234
330
22C
100
AcDbEntity
  8
Defpoints
 62
     0
100
AcDbPoint
 10
69.60062447423593
 20
118.8442741131767
 30
0.0
  0
POINT
  5
235
330
22C
100
AcDbEntity
  8
Defpoints
 62
     0
100
AcDbPoint
 10
16.60062447423593
 20
94.77057704306579
 30
0.0
  0
POINT
  5
236
330
22C
100
AcDbEntity
  8
Defpoints
 62
     0
100
AcDbPoint
 10
16.60062447423593
 20
125.2096770481662
 30
0.0
  0
ENDBLK
  5
237
330
22C
100
AcDbEntity
  8
0
100
AcDbBlockEnd
  0
BLOCK
  5
239
330
238
100
AcDbEntity
  8
0
100
AcDbBlockBegin
  2
*D8
 70
     1
 10
0.0
 20
0.0
 30
0.0
  3
*D8
  1

  0
LINE
  5
23A
330
238
100
AcDbEntity
  8
0
 62
     5
370
    -2
100
AcDbLine
 10
86.60062447423593
 20
165.2356504411
 30
0.0
 11
86.60062447423593
 21
188.0571927631309
 31
0.0
  0
LINE
  5
23B
330
238
100
AcDbEntity
  8
0
 62
     5
370
    -2
100
AcDbLine
 10
16.60062447423593
 20
178.0356504411001
 30
0.0
 11
16.60062447423593
 21
188.0571927631309
 31
0.0
  0
LINE
  5
23C
330
238
100
AcDbEntity
  8
0
 62
     5
100
AcDbLine
 10
83.60062447423592
 20
186.0571927631309
 30
0.0
 11
19.60062447423593
 21
186.0571927631309
 31
0.0
  0
SOLID
  5
23D
330
238
100
AcDbEntity
  8
0
 62
     5
100
AcDbTrace
 10
83.60062447423592
 20
186.5571927631309
 30
0.0
 11
83.60062447423592
 21
185.5571927631309
 31
0.0
 12
86.60062447423593
 22
186.0571927631309
 32
0.0
 13
86.60062447423593
 23
186.0571927631309
 33
0.0
  0
SOLID
  5
23E
330
238
100
AcDbEntity
  8
0
 62
     5
100
AcDbTrace
 10
19.60062447423593
 20
186.5571927631309
 30
0.0
 11
19.60062447423593
 21
185.5571927631309
 31
0.0
 12
16.60062447423593
 22
186.0571927631309
 32
0.0
 13
16.60062447423593
 23
186.0571927631309
 33
0.0
  0
MTEXT
  5
23F
330
238
100
AcDbEntity
  8
0
 62
     5
100
AcDbMText
 10
51.60062447423593
 20
188.5571927631309
 30
0.0
 40
3.0
 41
0.0
 71
     5
 72
     1
  1
\A1;70
  7
CHINESET
 73
     1
 44
1.0
1001
ACAD
1000
MTEXTBEGIN
1070
    73
1070
     1
1070
    44
1040
1.0
1070
    74
1070
     0
1000
MTEXTEND
  0
POINT
  5
240
330
238
100
AcDbEntity
  8
Defpoints
 62
     0
100
AcDbPoint
 10
86.60062447423593
 20
163.2356504411
 30
0.0
  0
POINT
  5
241
330
238
100
AcDbEntity
  8
Defpoints
 62
     0
100
AcDbPoint
 10
16.60062447423593
 20
176.0356504411
 30
0.0
  0
POINT
  5
242
330
238
100
AcDbEntity
  8
Defpoints
 62
     0
100
AcDbPoint
 10
16.60062447423593
 20
186.0571927631309
 30
0.0
  0
ENDBLK
  5
243
330
238
100
AcDbEntity
  8
0
100
AcDbBlockEnd
  0
BLOCK
  5
245
330
244
100
AcDbEntity
  8
0
100
AcDbBlockBegin
  2
*D9
 70
     1
 10
0.0
 20
0.0
 30
0.0
  3
*D9
  1

  0
LINE
  5
246
330
244
100
AcDbEntity
  8
0
 62
     5
370
    -2
100
AcDbLine
 10
85.10062447423592
 20
-14.43809885498263
 30
0.0
 11
97.94077805039208
 21
-14.43809885498263
 31
0.0
  0
LINE
  5
247
330
244
100
AcDbEntity
  8
0
 62
     5
370
    -2
100
AcDbLine
 10
85.10062447423592
 20
-43.43809885498262
 30
0.0
 11
97.94077805039206
 21
-43.43809885498262
 31
0.0
  0
LINE
  5
248
330
244
100
AcDbEntity
  8
0
 62
     5
100
AcDbLine
 10
95.94077805039207
 20
-17.43809885498263
 30
0.0
 11
95.94077805039205
 21
-40.43809885498262
 31
0.0
  0
SOLID
  5
249
330
244
100
AcDbEntity
  8
0
 62
     5
100
AcDbTrace
 10
95.44077805039206
 20
-17.43809885498263
 30
0.0
 11
96.44077805039207
 21
-17.43809885498263
 31
0.0
 12
95.94077805039207
 22
-14.43809885498263
 32
0.0
 13
95.94077805039207
 23
-14.43809885498263
 33
0.0
  0
SOLID
  5
24A
330
244
100
AcDbEntity
  8
0
 62
     5
100
AcDbTrace
 10
95.44077805039206
 20
-40.43809885498262
 30
0.0
 11
96.44077805039206
 21
-40.43809885498262
 31
0.0
 12
95.94077805039205
 22
-43.43809885498262
 32
0.0
 13
95.94077805039205
 23
-43.43809885498262
 33
0.0
  0
MTEXT
  5
24B
330
244
100
AcDbEntity
  8
0
 62
     5
100
AcDbMText
 10
93.44077805039207
 20
-28.93809885498261
 30
0.0
 40
3.0
 41
0.0
 71
     5
 72
     1
  1
\A1;29
  7
CHINESET
 11
0.0000000000000001
 21
1.0
 31
0.0
 73
     1
 44
1.0
1001
ACAD
1000
MTEXTBEGIN
1070
    73
1070
     1
1070
    44
1040
1.0
1070
    74
1070
     0
1000
MTEXTEND
  0
POINT
  5
24C
330
244
100
AcDbEntity
  8
Defpoints
 62
     0
100
AcDbPoint
 10
83.10062447423593
 20
-14.43809885498263
 30
0.0
  0
POINT
  5
24D
330
244
100
AcDbEntity
  8
Defpoints
 62
     0
100
AcDbPoint
 10
83.10062447423593
 20
-43.43809885498262
 30
0.0
  0
POINT
  5
24E
330
244
100
AcDbEntity
  8
Defpoints
 62
     0
100
AcDbPoint
 10
95.94077805039205
 20
-43.43809885498262
 30
0.0
  0
ENDBLK
  5
24F
330
244
100
AcDbEntity
  8
0
100
AcDbBlockEnd
  0
BLOCK
  5
603
330
5F8
100
AcDbEntity
  8
0
100
AcDbBlockBegin
  2
*D11
 70
     1
 10
0.0
 20
0.0
 30
0.0
  3
*D11
  1

  0
LINE
  5
641
330
5F8
100
AcDbEntity
  8
0
 62
     5
370
    -2
100
AcDbLine
 10
1388.428095844699
 20
1057.878054066952
 30
0.0
 11
1397.106192403051
 21
1057.878054066952
 31
0.0
  0
LINE
  5
642
330
5F8
100
AcDbEntity
  8
0
 62
     5
370
    -2
100
AcDbLine
 10
1376.666988845769
 20
1065.878054066952
 30
0.0
 11
1397.106192403051
 21
1065.878054066952
 31
0.0
  0
LINE
  5
643
330
5F8
100
AcDbEntity
  8
0
 62
     5
100
AcDbLine
 10
1395.106192403052
 20
1054.878054066952
 30
0.0
 11
1395.106192403052
 21
1051.878054066952
 31
0.0
  0
LINE
  5
644
330
5F8
100
AcDbEntity
  8
0
 62
     5
100
AcDbLine
 10
1395.106192403052
 20
1068.878054066952
 30
0.0
 11
1395.106192403052
 21
1071.878054066952
 31
0.0
  0
SOLID
  5
645
330
5F8
100
AcDbEntity
  8
0
 62
     5
100
AcDbTrace
 10
1394.606192403051
 20
1054.878054066952
 30
0.0
 11
1395.606192403051
 21
1054.878054066952
 31
0.0
 12
1395.106192403052
 22
1057.878054066952
 32
0.0
 13
1395.106192403052
 23
1057.878054066952
 33
0.0
  0
SOLID
  5
646
330
5F8
100
AcDbEntity
  8
0
 62
     5
100
AcDbTrace
 10
1394.606192403051
 20
1068.878054066952
 30
0.0
 11
1395.606192403051
 21
1068.878054066952
 31
0.0
 12
1395.106192403052
 22
1065.878054066952
 32
0.0
 13
1395.106192403052
 23
1065.878054066952
 33
0.0
  0
MTEXT
  5
647
330
5F8
100
AcDbEntity
  8
0
 62
     5
100
AcDbMText
 10
1392.606192403051
 20
1061.878054066952
 30
0.0
 40
3.0
 41
0.0
 71
     5
 72
     1
  1
\A1;8
  7
CHINESET
 11
0.0000000000000001
 21
1.0
 31
0.0
 73
     1
 44
1.0
1001
ACAD
1000
MTEXTBEGIN
1070
    73
1070
     1
1070
    44
1040
1.0
1070
    74
1070
     0
1000
MTEXTEND
  0
POINT
  5
648
330
5F8
100
AcDbEntity
  8
Defpoints
 62
     0
100
AcDbPoint
 10
1386.428095844699
 20
1057.878054066952
 30
0.0
  0
POINT
  5
649
330
5F8
100
AcDbEntity
  8
Defpoints
 62
     0
100
AcDbPoint
 10
1374.666988845769
 20
1065.878054066952
 30
0.0
  0
POINT
  5
64A
330
5F8
100
AcDbEntity
  8
Defpoints
 62
     0
100
AcDbPoint
 10
1395.106192403052
 20
1065.878054066952
 30
0.0
  0
ENDBLK
  5
604
330
5F8
100
AcDbEntity
  8
0
100
AcDbBlockEnd
  0
BLOCK
  5
60F
330
605
100
AcDbEntity
  8
0
100
AcDbBlockBegin
  2
*D12
 70
     1
 10
0.0
 20
0.0
 30
0.0
  3
*D12
  1

  0
LINE
  5
64B
330
605
100
AcDbEntity
  8
0
 62
     5
370
    -2
100
AcDbLine
 10
1388.428095844699
 20
1057.878054066952
 30
0.0
 11
1406.513870433396
 21
1057.878054066952
 31
0.0
  0
LINE
  5
64C
330
605
100
AcDbEntity
  8
0
 62
     5
370
    -2
100
AcDbLine
 10
1376.666988845769
 20
1073.878054066952
 30
0.0
 11
1406.513870433396
 21
1073.878054066952
 31
0.0
  0
LINE
  5
64D
330
605
100
AcDbEntity
  8
0
 62
     5
100
AcDbLine
 10
1404.513870433396
 20
1060.878054066952
 30
0.0
 11
1404.513870433396
 21
1070.878054066952
 31
0.0
  0
SOLID
  5
64E
330
605
100
AcDbEntity
  8
0
 62
     5
100
AcDbTrace
 10
1404.013870433396
 20
1060.878054066952
 30
0.0
 11
1405.013870433396
 21
1060.878054066952
 31
0.0
 12
1404.513870433396
 22
1057.878054066952
 32
0.0
 13
1404.513870433396
 23
1057.878054066952
 33
0.0
  0
SOLID
  5
64F
330
605
100
AcDbEntity
  8
0
 62
     5
100
AcDbTrace
 10
1404.013870433396
 20
1070.878054066952
 30
0.0
 11
1405.013870433396
 21
1070.878054066952
 31
0.0
 12
1404.513870433396
 22
1073.878054066952
 32
0.0
 13
1404.513870433396
 23
1073.878054066952
 33
0.0
  0
MTEXT
  5
650
330
605
100
AcDbEntity
  8
0
 62
     5
100
AcDbMText
 10
1402.013870433395
 20
1065.878054066953
 30
0.0
 40
3.0
 41
0.0
 71
     5
 72
     1
  1
\A1;16
  7
CHINESET
 11
0.0000000000000001
 21
1.0
 31
0.0
 73
     1
 44
1.0
1001
ACAD
1000
MTEXTBEGIN
1070
    73
1070
     1
1070
    44
1040
1.0
1070
    74
1070
     0
1000
MTEXTEND
  0
POINT
  5
651
330
605
100
AcDbEntity
  8
Defpoints
 62
     0
100
AcDbPoint
 10
1386.428095844699
 20
1057.878054066952
 30
0.0
  0
POINT
  5
652
330
605
100
AcDbEntity
  8
Defpoints
 62
     0
100
AcDbPoint
 10
1374.666988845769
 20
1073.878054066952
 30
0.0
  0
POINT
  5
653
330
605
100
AcDbEntity
  8
Defpoints
 62
     0
100
AcDbPoint
 10
1404.513870433396
 20
1073.878054066952
 30
0.0
  0
ENDBLK
  5
610
330
605
100
AcDbEntity
  8
0
100
AcDbBlockEnd
  0
BLOCK
  5
61B
330
611
100
AcDbEntity
  8
0
100
AcDbBlockBegin
  2
*D13
 70
     1
 10
0.0
 20
0.0
 30
0.0
  3
*D13
  1

  0
LINE
  5
654
330
611
100
AcDbEntity
  8
0
 62
     5
370
    -2
100
AcDbLine
 10
1260.673034573698
 20
1154.884865820939
 30
0.0
 11
1243.884719238683
 21
1154.884865820939
 31
0.0
  0
LINE
  5
655
330
611
100
AcDbEntity
  8
0
 62
     5
370
    -2
100
AcDbLine
 10
1256.173034573698
 20
1056.889067774198
 30
0.0
 11
1243.884719238683
 21
1056.889067774198
 31
0.0
  0
LINE
  5
656
330
611
100
AcDbEntity
  8
0
 62
     5
100
AcDbLine
 10
1245.884719238683
 20
1151.884865820939
 30
0.0
 11
1245.884719238683
 21
1059.889067774198
 31
0.0
  0
SOLID
  5
657
330
611
100
AcDbEntity
  8
0
 62
     5
100
AcDbTrace
 10
1245.384719238683
 20
1151.884865820939
 30
0.0
 11
1246.384719238682
 21
1151.884865820939
 31
0.0
 12
1245.884719238683
 22
1154.884865820939
 32
0.0
 13
1245.884719238683
 23
1154.884865820939
 33
0.0
  0
SOLID
  5
658
330
611
100
AcDbEntity
  8
0
 62
     5
100
AcDbTrace
 10
1245.384719238683
 20
1059.889067774198
 30
0.0
 11
1246.384719238682
 21
1059.889067774198
 31
0.0
 12
1245.884719238683
 22
1056.889067774198
 32
0.0
 13
1245.884719238683
 23
1056.889067774198
 33
0.0
  0
MTEXT
  5
659
330
611
100
AcDbEntity
  8
0
 62
     5
100
AcDbMText
 10
1243.384719238682
 20
1105.886966797569
 30
0.0
 40
3.0
 41
0.0
 71
     5
 72
     1
  1
\A1;98
  7
CHINESET
 11
0.0000000000000001
 21
1.0
 31
0.0
 73
     1
 44
1.0
1001
ACAD
1000
MTEXTBEGIN
1070
    73
1070
     1
1070
    44
1040
1.0
1070
    74
1070
     0
1000
MTEXTEND
  0
POINT
  5
65A
330
611
100
AcDbEntity
  8
Defpoints
 62
     0
100
AcDbPoint
 10
1262.673034573698
 20
1154.884865820939
 30
0.0
  0
POINT
  5
65B
330
611
100
AcDbEntity
  8
Defpoints
 62
     0
100
AcDbPoint
 10
1258.173034573698
 20
1056.889067774198
 30
0.0
  0
POINT
  5
65C
330
611
100
AcDbEntity
  8
Defpoints
 62
     0
100
AcDbPoint
 10
1245.884719238683
 20
1056.889067774198
 30
0.0
  0
ENDBLK
  5
61C
330
611
100
AcDbEntity
  8
0
100
AcDbBlockEnd
  0
BLOCK
  5
627
330
61D
100
AcDbEntity
  8
0
100
AcDbBlockBegin
  2
*D14
 70
     1
 10
0.0
 20
0.0
 30
0.0
  3
*D14
  1

  0
LINE
  5
65D
330
61D
100
AcDbEntity
  8
0
 62
     5
370
    -2
100
AcDbLine
 10
1371.416988845769
 20
1157.801751137063
 30
0.0
 11
1371.416988845769
 21
1164.167154072052
 31
0.0
  0
LINE
  5
65E
330
61D
100
AcDbEntity
  8
0
 62
     5
370
    -2
100
AcDbLine
 10
1318.416988845769
 20
1133.728054066952
 30
0.0
 11
1318.416988845769
 21
1164.167154072052
 31
0.0
  0
LINE
  5
65F
330
61D
100
AcDbEntity
  8
0
 62
     5
100
AcDbLine
 10
1368.416988845768
 20
1162.167154072053
 30
0.0
 11
1321.416988845768
 21
1162.167154072053
 31
0.0
  0
SOLID
  5
660
330
61D
100
AcDbEntity
  8
0
 62
     5
100
AcDbTrace
 10
1368.416988845768
 20
1162.667154072052
 30
0.0
 11
1368.416988845768
 21
1161.667154072052
 31
0.0
 12
1371.416988845769
 22
1162.167154072053
 32
0.0
 13
1371.416988845769
 23
1162.167154072053
 33
0.0
  0
SOLID
  5
661
330
61D
100
AcDbEntity
  8
0
 62
     5
100
AcDbTrace
 10
1321.416988845768
 20
1162.667154072052
 30
0.0
 11
1321.416988845768
 21
1161.667154072052
 31
0.0
 12
1318.416988845769
 22
1162.167154072053
 32
0.0
 13
1318.416988845769
 23
1162.167154072053
 33
0.0
  0
MTEXT
  5
662
330
61D
100
AcDbEntity
  8
0
 62
     5
100
AcDbMText
 10
1344.916988845769
 20
1164.667154072053
 30
0.0
 40
3.0
 41
0.0
 71
     5
 72
     1
  1
\A1;53
  7
CHINESET
 73
     1
 44
1.0
1001
ACAD
1000
MTEXTBEGIN
1070
    73
1070
     1
1070
    44
1040
1.0
1070
    74
1070
     0
1000
MTEXTEND
  0
POINT
  5
663
330
61D
100
AcDbEntity
  8
Defpoints
 62
     0
100
AcDbPoint
 10
1371.416988845769
 20
1155.801751137063
 30
0.0
  0
POINT
  5
664
330
61D
100
AcDbEntity
  8
Defpoints
 62
     0
100
AcDbPoint
 10
1318.416988845769
 20
1131.728054066952
 30
0.0
  0
POINT
  5
665
330
61D
100
AcDbEntity
  8
Defpoints
 62
     0
100
AcDbPoint
 10
1318.416988845769
 20
1162.167154072053
 30
0.0
  0
ENDBLK
  5
628
330
61D
100
AcDbEntity
  8
0
100
AcDbBlockEnd
  0
BLOCK
  5
633
330
629
100
AcDbEntity
  8
0
100
AcDbBlockBegin
  2
*D15
 70
     1
 10
0.0
 20
0.0
 30
0.0
  3
*D15
  1

  0
LINE
  5
666
330
629
100
AcDbEntity
  8
0
 62
     5
370
    -2
100
AcDbLine
 10
1388.416988845768
 20
1202.193127464987
 30
0.0
 11
1388.416988845768
 21
1225.014669787017
 31
0.0
  0
LINE
  5
667
330
629
100
AcDbEntity
  8
0
 62
     5
370
    -2
100
AcDbLine
 10
1318.416988845769
 20
1214.993127464986
 30
0.0
 11
1318.416988845769
 21
1225.014669787017
 31
0.0
  0
LINE
  5
668
330
629
100
AcDbEntity
  8
0
 62
     5
100
AcDbLine
 10
1385.416988845769
 20
1223.014669787017
 30
0.0
 11
1321.416988845768
 21
1223.014669787017
 31
0.0
  0
SOLID
  5
669
330
629
100
AcDbEntity
  8
0
 62
     5
100
AcDbTrace
 10
1385.416988845769
 20
1223.514669787017
 30
0.0
 11
1385.416988845769
 21
1222.514669787017
 31
0.0
 12
1388.416988845768
 22
1223.014669787017
 32
0.0
 13
1388.416988845768
 23
1223.014669787017
 33
0.0
  0
SOLID
  5
66A
330
629
100
AcDbEntity
  8
0
 62
     5
100
AcDbTrace
 10
1321.416988845768
 20
1223.514669787017
 30
0.0
 11
1321.416988845768
 21
1222.514669787017
 31
0.0
 12
1318.416988845769
 22
1223.014669787017
 32
0.0
 13
1318.416988845769
 23
1223.014669787017
 33
0.0
  0
MTEXT
  5
66B
330
629
100
AcDbEntity
  8
0
 62
     5
100
AcDbMText
 10
1353.416988845768
 20
1225.514669787017
 30
0.0
 40
3.0
 41
0.0
 71
     5
 72
     1
  1
\A1;70
  7
CHINESET
 73
     1
 44
1.0
1001
ACAD
1000
MTEXTBEGIN
1070
    73
1070
     1
1070
    44
1040
1.0
1070
    74
1070
     0
1000
MTEXTEND
  0
POINT
  5
66C
330
629
100
AcDbEntity
  8
Defpoints
 62
     0
100
AcDbPoint
 10
1388.416988845768
 20
1200.193127464986
 30
0.0
  0
POINT
  5
66D
330
629
100
AcDbEntity
  8
Defpoints
 62
     0
100
AcDbPoint
 10
1318.416988845769
 20
1212.993127464986
 30
0.0
  0
POINT
  5
66E
330
629
100
AcDbEntity
  8
Defpoints
 62
     0
100
AcDbPoint
 10
1318.416988845769
 20
1223.014669787017
 30
0.0
  0
ENDBLK
  5
634
330
629
100
AcDbEntity
  8
0
100
AcDbBlockEnd
  0
BLOCK
  5
63F
330
635
100
AcDbEntity
  8
0
100
AcDbBlockBegin
  2
*D16
 70
     1
 10
0.0
 20
0.0
 30
0.0
  3
*D16
  1

  0
LINE
  5
66F
330
635
100
AcDbEntity
  8
0
 62
     5
370
    -2
100
AcDbLine
 10
1386.916988845769
 20
1022.519378168904
 30
0.0
 11
1399.757142421925
 21
1022.519378168904
 31
0.0
  0
LINE
  5
670
330
635
100
AcDbEntity
  8
0
 62
     5
370
    -2
100
AcDbLine
 10
1386.916988845769
 20
993.5193781689038
 30
0.0
 11
1399.757142421925
 21
993.5193781689038
 31
0.0
  0
LINE
  5
671
330
635
100
AcDbEntity
  8
0
 62
     5
100
AcDbLine
 10
1397.757142421925
 20
1019.519378168904
 30
0.0
 11
1397.757142421925
 21
996.5193781689039
 31
0.0
  0
SOLID
  5
672
330
635
100
AcDbEntity
  8
0
 62
     5
100
AcDbTrace
 10
1397.257142421925
 20
1019.519378168904
 30
0.0
 11
1398.257142421925
 21
1019.519378168904
 31
0.0
 12
1397.757142421925
 22
1022.519378168904
 32
0.0
 13
1397.757142421925
 23
1022.519378168904
 33
0.0
  0
SOLID
  5
673
330
635
100
AcDbEntity
  8
0
 62
     5
100
AcDbTrace
 10
1397.257142421925
 20
996.5193781689039
 30
0.0
 11
1398.257142421925
 21
996.5193781689039
 31
0.0
 12
1397.757142421925
 22
993.5193781689038
 32
0.0
 13
1397.757142421925
 23
993.5193781689038
 33
0.0
  0
MTEXT
  5
674
330
635
100
AcDbEntity
  8
0
 62
     5
100
AcDbMText
 10
1395.257142421925
 20
1008.019378168904
 30
0.0
 40
3.0
 41
0.0
 71
     5
 72
     1
  1
\A1;29
  7
CHINESET
 11
0.0000000000000001
 21
1.0
 31
0.0
 73
     1
 44
1.0
1001
ACAD
1000
MTEXTBEGIN
1070
    73
1070
     1
1070
    44
1040
1.0
1070
    74
1070
     0
1000
MTEXTEND
  0
POINT
  5
675
330
635
100
AcDbEntity
  8
Defpoints
 62
     0
100
AcDbPoint
 10
1384.916988845768
 20
1022.519378168904
 30
0.0
  0
POINT
  5
676
330
635
100
AcDbEntity
  8
Defpoints
 62
     0
100
AcDbPoint
 10
1384.916988845768
 20
993.5193781689038
 30
0.0
  0
POINT
  5
677
330
635
100
AcDbEntity
  8
Defpoints
 62
     0
100
AcDbPoint
 10
1397.757142421925
 20
993.5193781689038
 30
0.0
  0
ENDBLK
  5
640
330
635
100
AcDbEntity
  8
0
100
AcDbBlockEnd
  0
ENDSEC
  0
SECTION
  2
ENTITIES
  0
LINE
  5
441
330
1F
100
AcDbEntity
  8
AM_7
 62
     1
100
AcDbLine
 10
1329.166988845768
 20
1108.128054066952
 30
0.0
 11
1329.166988845768
 21
1081.799849901265
 31
0.0
  0
LINE
  5
442
330
1F
100
AcDbEntity
  8
AM_7
 62
     1
100
AcDbLine
 10
1371.416988845769
 20
1130.628054066952
 30
0.0
 11
1371.416988845769
 21
1156.673383663717
 31
0.0
  0
LINE
  5
443
330
1F
100
AcDbEntity
  8
AM_7
 62
     1
100
AcDbLine
 10
1370.416988845769
 20
1065.878054066952
 30
0.0
 11
1372.416988845769
 21
1065.878054066952
 31
0.0
  0
LINE
  5
444
330
1F
100
AcDbEntity
  8
AM_7
 62
     1
100
AcDbLine
 10
1371.416988845769
 20
1064.878054066952
 30
0.0
 11
1371.416988845769
 21
1066.878054066952
 31
0.0
  0
LINE
  5
445
330
1F
100
AcDbEntity
  8
AM_7
 62
     1
100
AcDbLine
 10
1368.166988845769
 20
1065.878054066952
 30
0.0
 11
1369.416988845769
 21
1065.878054066952
 31
0.0
  0
LINE
  5
446
330
1F
100
AcDbEntity
  8
AM_7
 62
     1
100
AcDbLine
 10
1373.416988845769
 20
1065.878054066952
 30
0.0
 11
1374.666988845769
 21
1065.878054066952
 31
0.0
  0
LINE
  5
447
330
1F
100
AcDbEntity
  8
AM_7
 62
     1
100
AcDbLine
 10
1371.416988845769
 20
1062.628054066952
 30
0.0
 11
1371.416988845769
 21
1063.878054066952
 31
0.0
  0
LINE
  5
448
330
1F
100
AcDbEntity
  8
AM_7
 62
     1
100
AcDbLine
 10
1371.416988845769
 20
1067.878054066952
 30
0.0
 11
1371.416988845769
 21
1069.128054066952
 31
0.0
  0
LINE
  5
449
330
1F
100
AcDbEntity
  8
AM_7
 62
     1
100
AcDbLine
 10
1370.416988845769
 20
1073.878054066952
 30
0.0
 11
1372.416988845769
 21
1073.878054066952
 31
0.0
  0
LINE
  5
44A
330
1F
100
AcDbEntity
  8
AM_7
 62
     1
100
AcDbLine
 10
1371.416988845769
 20
1072.878054066952
 30
0.0
 11
1371.416988845769
 21
1074.878054066952
 31
0.0
  0
LINE
  5
44B
330
1F
100
AcDbEntity
  8
AM_7
 62
     1
100
AcDbLine
 10
1368.166988845769
 20
1073.878054066952
 30
0.0
 11
1369.416988845769
 21
1073.878054066952
 31
0.0
  0
LINE
  5
44C
330
1F
100
AcDbEntity
  8
AM_7
 62
     1
100
AcDbLine
 10
1373.416988845769
 20
1073.878054066952
 30
0.0
 11
1374.666988845769
 21
1073.878054066952
 31
0.0
  0
LINE
  5
44D
330
1F
100
AcDbEntity
  8
AM_7
 62
     1
100
AcDbLine
 10
1371.416988845769
 20
1070.628054066952
 30
0.0
 11
1371.416988845769
 21
1071.878054066952
 31
0.0
  0
LINE
  5
44E
330
1F
100
AcDbEntity
  8
AM_7
 62
     1
100
AcDbLine
 10
1371.416988845769
 20
1075.878054066952
 30
0.0
 11
1371.416988845769
 21
1076.986470984747
 31
0.0
  0
LINE
  5
44F
330
1F
100
AcDbEntity
  8
AM_7
 62
     1
100
AcDbLine
 10
1271.173034573698
 20
1156.025396553944
 30
0.0
 11
1271.173034573698
 21
1054.224260033112
 31
0.0
  0
LINE
  5
450
330
1F
100
AcDbEntity
  8
AM_7
 62
     1
100
AcDbLine
 10
1270.173034573698
 20
1117.939067774198
 30
0.0
 11
1272.173034573698
 21
1117.939067774198
 31
0.0
  0
LINE
  5
451
330
1F
100
AcDbEntity
  8
AM_7
 62
     1
100
AcDbLine
 10
1265.673034573698
 20
1117.939067774198
 30
0.0
 11
1269.173034573698
 21
1117.939067774198
 31
0.0
  0
LINE
  5
452
330
1F
100
AcDbEntity
  8
AM_7
 62
     1
100
AcDbLine
 10
1273.173034573698
 20
1117.939067774198
 30
0.0
 11
1276.673034573698
 21
1117.939067774198
 31
0.0
  0
LINE
  5
453
330
1F
100
AcDbEntity
  8
AM_7
 62
     1
100
AcDbLine
 10
1368.916988845768
 20
1200.193127464986
 30
0.0
 11
1370.916988845769
 21
1200.193127464986
 31
0.0
  0
LINE
  5
454
330
1F
100
AcDbEntity
  8
AM_7
 62
     1
100
AcDbLine
 10
1371.416988845769
 20
1199.193127464986
 30
0.0
 11
1371.416988845769
 21
1201.193127464987
 31
0.0
  0
LINE
  5
455
330
1F
100
AcDbEntity
  8
AM_7
 62
     1
100
AcDbLine
 10
1350.916988845768
 20
1200.193127464986
 30
0.0
 11
1367.916988845768
 21
1200.193127464986
 31
0.0
  0
LINE
  5
456
330
1F
100
AcDbEntity
  8
AM_7
 62
     1
100
AcDbLine
 10
1371.916988845768
 20
1200.193127464986
 30
0.0
 11
1388.916988845769
 21
1200.193127464986
 31
0.0
  0
LINE
  5
457
330
1F
100
AcDbEntity
  8
AM_7
 62
     1
100
AcDbLine
 10
1371.416988845769
 20
1185.272070115539
 30
0.0
 11
1371.416988845769
 21
1202.272070115539
 31
0.0
  0
LINE
  5
458
330
1F
100
AcDbEntity
  8
AM_7
 62
     1
100
AcDbLine
 10
1371.416988845769
 20
1202.193127464987
 30
0.0
 11
1371.416988845769
 21
1219.193127464986
 31
0.0
  0
LINE
  5
459
330
1F
100
AcDbEntity
  8
AM_VIS
100
AcDbLine
 10
1385.416988845769
 20
1133.628054066952
 30
0.0
 11
1385.416988845769
 21
1090.628054066952
 31
0.0
  0
LINE
  5
45A
330
1F
100
AcDbEntity
  8
AM_VIS
100
AcDbLine
 10
1350.416988845769
 20
1133.628054066952
 30
0.0
 11
1385.416988845769
 21
1133.628054066952
 31
0.0
  0
LINE
  5
45B
330
1F
100
AcDbEntity
  8
AM_VIS
100
AcDbLine
 10
1385.416988845769
 20
1090.628054066952
 30
0.0
 11
1350.416988845769
 21
1090.628054066952
 31
0.0
  0
LINE
  5
45C
330
1F
100
AcDbEntity
  8
AM_VIS
100
AcDbLine
 10
1350.416988845769
 20
1133.428054066952
 30
0.0
 11
1350.416988845769
 21
1133.628054066952
 31
0.0
  0
LINE
  5
45D
330
1F
100
AcDbEntity
  8
AM_VIS
100
AcDbLine
 10
1345.416988845768
 20
1133.428054066952
 30
0.0
 11
1345.416988845768
 21
1104.428054066952
 31
0.0
  0
LINE
  5
45E
330
1F
100
AcDbEntity
  8
AM_VIS
100
AcDbLine
 10
1350.416988845769
 20
1133.428054066952
 30
0.0
 11
1345.416988845768
 21
1133.428054066952
 31
0.0
  0
LINE
  5
45F
330
1F
100
AcDbEntity
  8
AM_VIS
100
AcDbLine
 10
1345.416988845768
 20
1133.228054066952
 30
0.0
 11
1341.416988845768
 21
1133.228054066952
 31
0.0
  0
LINE
  5
460
330
1F
100
AcDbEntity
  8
AM_VIS
100
AcDbLine
 10
1345.416988845768
 20
1104.628054066952
 30
0.0
 11
1341.416988845768
 21
1104.628054066952
 31
0.0
  0
LINE
  5
461
330
1F
100
AcDbEntity
  8
AM_VIS
100
AcDbLine
 10
1341.416988845768
 20
1132.228054066952
 30
0.0
 11
1341.416988845768
 21
1105.628054066952
 31
0.0
  0
LINE
  5
462
330
1F
100
AcDbEntity
  8
AM_VIS
100
AcDbLine
 10
1341.416988845768
 20
1131.728054066952
 30
0.0
 11
1318.416988845769
 21
1131.728054066952
 31
0.0
  0
LINE
  5
463
330
1F
100
AcDbEntity
  8
AM_VIS
100
AcDbLine
 10
1318.416988845769
 20
1131.728054066952
 30
0.0
 11
1318.416988845769
 21
1106.128054066952
 31
0.0
  0
LINE
  5
464
330
1F
100
AcDbEntity
  8
AM_VIS
100
AcDbLine
 10
1349.416988845768
 20
1104.428054066952
 30
0.0
 11
1345.416988845768
 21
1104.428054066952
 31
0.0
  0
LINE
  5
465
330
1F
100
AcDbEntity
  8
AM_VIS
100
AcDbLine
 10
1350.416988845769
 20
1090.628054066952
 30
0.0
 11
1350.416988845769
 21
1091.628054066952
 31
0.0
  0
LINE
  5
466
330
1F
100
AcDbEntity
  8
AM_VIS
100
AcDbLine
 10
1350.416988845769
 20
1091.628054066952
 30
0.0
 11
1349.416988845768
 21
1104.428054066952
 31
0.0
  0
LINE
  5
467
330
1F
100
AcDbEntity
  8
AM_VIS
100
AcDbLine
 10
1341.416988845768
 20
1106.128054066952
 30
0.0
 11
1318.416988845769
 21
1106.128054066952
 31
0.0
  0
LINE
  5
468
330
1F
100
AcDbEntity
  8
AM_VIS
100
AcDbLine
 10
1324.548186692252
 20
1083.728054066952
 30
0.0
 11
1333.785790999286
 21
1083.728054066952
 31
0.0
  0
LINE
  5
469
330
1F
100
AcDbEntity
  8
AM_VIS
100
AcDbLine
 10
1324.548186692252
 20
1088.128054066952
 30
0.0
 11
1324.548186692252
 21
1083.728054066952
 31
0.0
  0
LINE
  5
46A
330
1F
100
AcDbEntity
  8
AM_VIS
100
AcDbLine
 10
1319.929384538734
 20
1083.728054066952
 30
0.0
 11
1324.548186692252
 21
1083.728054066952
 31
0.0
  0
LINE
  5
46B
330
1F
100
AcDbEntity
  8
AM_VIS
100
AcDbLine
 10
1319.929384538734
 20
1088.128054066952
 30
0.0
 11
1319.929384538734
 21
1083.728054066952
 31
0.0
  0
LINE
  5
46C
330
1F
100
AcDbEntity
  8
AM_VIS
100
AcDbLine
 10
1333.785790999286
 20
1088.128054066952
 30
0.0
 11
1333.785790999286
 21
1083.728054066952
 31
0.0
  0
LINE
  5
46D
330
1F
100
AcDbEntity
  8
AM_VIS
100
AcDbLine
 10
1338.404593152803
 20
1088.128054066952
 30
0.0
 11
1338.404593152803
 21
1083.728054066952
 31
0.0
  0
LINE
  5
46E
330
1F
100
AcDbEntity
  8
AM_VIS
100
AcDbLine
 10
1333.785790999286
 20
1083.728054066952
 30
0.0
 11
1338.404593152803
 21
1083.728054066952
 31
0.0
  0
LINE
  5
46F
330
1F
100
AcDbEntity
  8
AM_VIS
100
AcDbLine
 10
1319.929384538734
 20
1088.128054066952
 30
0.0
 11
1324.548186692252
 21
1088.128054066952
 31
0.0
  0
LINE
  5
470
330
1F
100
AcDbEntity
  8
AM_VIS
100
AcDbLine
 10
1333.785790999286
 20
1088.128054066952
 30
0.0
 11
1338.404593152803
 21
1088.128054066952
 31
0.0
  0
LINE
  5
471
330
1F
100
AcDbEntity
  8
AM_VIS
100
AcDbLine
 10
1324.548186692252
 20
1088.128054066952
 30
0.0
 11
1333.785790999286
 21
1088.128054066952
 31
0.0
  0
LINE
  5
472
330
1F
100
AcDbEntity
  8
AM_VIS
100
AcDbLine
 10
1381.916988845768
 20
1084.628054066952
 30
0.0
 11
1381.916988845768
 21
1088.128054066952
 31
0.0
  0
LINE
  5
473
330
1F
100
AcDbEntity
  8
AM_VIS
100
AcDbLine
 10
1360.916988845768
 20
1088.128054066952
 30
0.0
 11
1360.916988845768
 21
1084.628054066952
 31
0.0
  0
LINE
  5
474
330
1F
100
AcDbEntity
  8
AM_VIS
100
AcDbLine
 10
1386.416988845768
 20
1079.128054066952
 30
0.0
 11
1386.416988845768
 21
1082.628054066952
 31
0.0
  0
LINE
  5
475
330
1F
100
AcDbEntity
  8
AM_VIS
100
AcDbLine
 10
1356.416988845768
 20
1082.628054066952
 30
0.0
 11
1356.416988845768
 21
1079.128054066952
 31
0.0
  0
LINE
  5
476
330
1F
100
AcDbEntity
  8
AM_VIS
100
AcDbLine
 10
1367.324312459832
 20
1082.628054066952
 30
0.0
 11
1375.509665231705
 21
1082.628054066952
 31
0.0
  0
LINE
  5
477
330
1F
100
AcDbEntity
  8
AM_VIS
100
AcDbLine
 10
1375.509665231705
 20
1061.628054066952
 30
0.0
 11
1367.324312459832
 21
1061.628054066952
 31
0.0
  0
LINE
  5
478
330
1F
100
AcDbEntity
  8
AM_VIS
100
AcDbLine
 10
1363.911435346303
 20
1057.878054066952
 30
0.0
 11
1378.922542345234
 21
1057.878054066952
 31
0.0
  0
LINE
  5
479
330
1F
100
AcDbEntity
  8
AM_VIS
100
AcDbLine
 10
1363.911435346303
 20
1061.378054066952
 30
0.0
 11
1363.911435346303
 21
1057.878054066952
 31
0.0
  0
LINE
  5
47A
330
1F
100
AcDbEntity
  8
AM_VIS
100
AcDbLine
 10
1356.405881846838
 20
1057.878054066952
 30
0.0
 11
1363.911435346303
 21
1057.878054066952
 31
0.0
  0
LINE
  5
47B
330
1F
100
AcDbEntity
  8
AM_VIS
100
AcDbLine
 10
1356.405881846838
 20
1061.378054066952
 30
0.0
 11
1356.405881846838
 21
1057.878054066952
 31
0.0
  0
LINE
  5
47C
330
1F
100
AcDbEntity
  8
AM_VIS
100
AcDbLine
 10
1378.922542345234
 20
1061.378054066952
 30
0.0
 11
1378.922542345234
 21
1057.878054066952
 31
0.0
  0
LINE
  5
47D
330
1F
100
AcDbEntity
  8
AM_VIS
100
AcDbLine
 10
1386.428095844699
 20
1061.378054066952
 30
0.0
 11
1386.428095844699
 21
1057.878054066952
 31
0.0
  0
LINE
  5
47E
330
1F
100
AcDbEntity
  8
AM_VIS
100
AcDbLine
 10
1378.922542345234
 20
1057.878054066952
 30
0.0
 11
1386.428095844699
 21
1057.878054066952
 31
0.0
  0
LINE
  5
47F
330
1F
100
AcDbEntity
  8
AM_VIS
100
AcDbLine
 10
1356.405881846838
 20
1061.378054066952
 30
0.0
 11
1363.911435346303
 21
1061.378054066952
 31
0.0
  0
LINE
  5
480
330
1F
100
AcDbEntity
  8
AM_VIS
100
AcDbLine
 10
1378.922542345234
 20
1061.378054066952
 30
0.0
 11
1386.428095844699
 21
1061.378054066952
 31
0.0
  0
LINE
  5
481
330
1F
100
AcDbEntity
  8
AM_VIS
100
AcDbLine
 10
1363.911435346303
 20
1061.378054066952
 30
0.0
 11
1378.922542345234
 21
1061.378054066952
 31
0.0
  0
LINE
  5
482
330
1F
100
AcDbEntity
  8
AM_VIS
100
AcDbLine
 10
1361.602034269545
 20
1141.516751137063
 30
0.0
 11
1361.602034269545
 21
1155.801751137063
 31
0.0
  0
LINE
  5
483
330
1F
100
AcDbEntity
  8
AM_VIS
100
AcDbLine
 10
1366.509511557657
 20
1155.801751137063
 30
0.0
 11
1361.602034269545
 21
1155.801751137063
 31
0.0
  0
LINE
  5
484
330
1F
100
AcDbEntity
  8
AM_VIS
100
AcDbLine
 10
1366.509511557657
 20
1141.516751137063
 30
0.0
 11
1366.509511557657
 21
1155.586751137063
 31
0.0
  0
LINE
  5
485
330
1F
100
AcDbEntity
  8
AM_VIS
100
AcDbLine
 10
1376.32446613388
 20
1155.801751137063
 30
0.0
 11
1366.509511557657
 21
1155.801751137063
 31
0.0
  0
LINE
  5
486
330
1F
100
AcDbEntity
  8
AM_VIS
100
AcDbLine
 10
1376.32446613388
 20
1141.516751137063
 30
0.0
 11
1376.32446613388
 21
1155.586751137063
 31
0.0
  0
LINE
  5
487
330
1F
100
AcDbEntity
  8
AM_VIS
100
AcDbLine
 10
1381.231943421992
 20
1155.801751137063
 30
0.0
 11
1376.32446613388
 21
1155.801751137063
 31
0.0
  0
LINE
  5
488
330
1F
100
AcDbEntity
  8
AM_VIS
100
AcDbLine
 10
1381.231943421992
 20
1141.516751137063
 30
0.0
 11
1381.231943421992
 21
1155.801751137063
 31
0.0
  0
LINE
  5
489
330
1F
100
AcDbEntity
  8
AM_VIS
100
AcDbLine
 10
1366.509511557657
 20
1141.516751137063
 30
0.0
 11
1361.602034269545
 21
1141.516751137063
 31
0.0
  0
LINE
  5
48A
330
1F
100
AcDbEntity
  8
AM_VIS
100
AcDbLine
 10
1376.32446613388
 20
1141.516751137063
 30
0.0
 11
1366.509511557657
 21
1141.516751137063
 31
0.0
  0
LINE
  5
48B
330
1F
100
AcDbEntity
  8
AM_VIS
100
AcDbLine
 10
1381.231943421992
 20
1141.516751137063
 30
0.0
 11
1376.32446613388
 21
1141.516751137063
 31
0.0
  0
LINE
  5
48C
330
1F
100
AcDbEntity
  8
AM_VIS
100
AcDbLine
 10
1318.416988845769
 20
1106.128054066952
 30
0.0
 11
1318.416988845769
 21
1090.128054066952
 31
0.0
  0
LINE
  5
48D
330
1F
100
AcDbEntity
  8
AM_VIS
100
AcDbLine
 10
1339.916988845768
 20
1106.128054066952
 30
0.0
 11
1339.916988845768
 21
1090.128054066952
 31
0.0
  0
LINE
  5
48E
330
1F
100
AcDbEntity
  8
AM_VIS
100
AcDbLine
 10
1322.416988845768
 20
1090.128054066952
 30
0.0
 11
1322.416988845768
 21
1088.128054066952
 31
0.0
  0
LINE
  5
48F
330
1F
100
AcDbEntity
  8
AM_VIS
100
AcDbLine
 10
1335.916988845768
 20
1090.128054066952
 30
0.0
 11
1335.916988845768
 21
1088.128054066952
 31
0.0
  0
LINE
  5
490
330
1F
100
AcDbEntity
  8
AM_VIS
100
AcDbLine
 10
1364.916988845769
 20
1090.628054066952
 30
0.0
 11
1364.916988845769
 21
1088.128054066952
 31
0.0
  0
LINE
  5
491
330
1F
100
AcDbEntity
  8
AM_VIS
100
AcDbLine
 10
1377.916988845768
 20
1090.628054066952
 30
0.0
 11
1377.916988845768
 21
1088.128054066952
 31
0.0
  0
LINE
  5
492
330
1F
100
AcDbEntity
  8
AM_VIS
100
AcDbLine
 10
1358.916988845768
 20
1084.628054066952
 30
0.0
 11
1358.916988845768
 21
1082.628054066952
 31
0.0
  0
LINE
  5
493
330
1F
100
AcDbEntity
  8
AM_VIS
100
AcDbLine
 10
1383.916988845768
 20
1084.628054066952
 30
0.0
 11
1383.916988845768
 21
1082.628054066952
 31
0.0
  0
LINE
  5
494
330
1F
100
AcDbEntity
  8
AM_VIS
100
AcDbLine
 10
1354.416988845768
 20
1079.128054066952
 30
0.0
 11
1354.416988845768
 21
1061.628054066952
 31
0.0
  0
LINE
  5
495
330
1F
100
AcDbEntity
  8
AM_VIS
100
AcDbLine
 10
1388.416988845768
 20
1079.128054066952
 30
0.0
 11
1388.416988845768
 21
1061.628054066952
 31
0.0
  0
LINE
  5
496
330
1F
100
AcDbEntity
  8
AM_VIS
100
AcDbLine
 10
1361.416988845769
 20
1061.628054066952
 30
0.0
 11
1361.416988845769
 21
1061.378054066952
 31
0.0
  0
LINE
  5
497
330
1F
100
AcDbEntity
  8
AM_VIS
100
AcDbLine
 10
1381.416988845768
 20
1061.628054066952
 30
0.0
 11
1381.416988845768
 21
1061.378054066952
 31
0.0
  0
LINE
  5
498
330
1F
100
AcDbEntity
  8
AM_VIS
100
AcDbLine
 10
1377.916988845768
 20
1133.590953090322
 30
0.0
 11
1377.916988845768
 21
1137.090953090323
 31
0.0
  0
LINE
  5
499
330
1F
100
AcDbEntity
  8
AM_VIS
100
AcDbLine
 10
1364.916988845769
 20
1133.590953090322
 30
0.0
 11
1364.916988845769
 21
1137.090953090323
 31
0.0
  0
LINE
  5
49A
330
1F
100
AcDbEntity
  8
AM_VIS
100
AcDbLine
 10
1379.416988845769
 20
1138.516751137063
 30
0.0
 11
1379.416988845769
 21
1141.516751137063
 31
0.0
  0
LINE
  5
49B
330
1F
100
AcDbEntity
  8
AM_VIS
100
AcDbLine
 10
1363.416988845769
 20
1138.516751137063
 30
0.0
 11
1363.416988845769
 21
1141.516751137063
 31
0.0
  0
LINE
  5
49C
330
1F
100
AcDbEntity
  8
AM_VIS
100
AcDbLine
 10
1341.416988845768
 20
1132.228054066952
 30
0.0
 11
1341.416988845768
 21
1133.228054066952
 31
0.0
  0
LINE
  5
49D
330
1F
100
AcDbEntity
  8
AM_VIS
100
AcDbLine
 10
1341.416988845768
 20
1104.628054066952
 30
0.0
 11
1341.416988845768
 21
1105.628054066952
 31
0.0
  0
LINE
  5
49E
330
1F
100
AcDbEntity
  8
AM_VIS
100
AcDbLine
 10
1339.916988845768
 20
1090.128054066952
 30
0.0
 11
1318.416988845769
 21
1090.128054066952
 31
0.0
  0
LINE
  5
49F
330
1F
100
AcDbEntity
  8
AM_VIS
100
AcDbLine
 10
1360.916988845768
 20
1088.128054066952
 30
0.0
 11
1381.916988845768
 21
1088.128054066952
 31
0.0
  0
LINE
  5
4A0
330
1F
100
AcDbEntity
  8
AM_VIS
100
AcDbLine
 10
1381.916988845768
 20
1084.628054066952
 30
0.0
 11
1383.916988845768
 21
1084.628054066952
 31
0.0
  0
LINE
  5
4A1
330
1F
100
AcDbEntity
  8
AM_VIS
100
AcDbLine
 10
1358.916988845768
 20
1084.628054066952
 30
0.0
 11
1360.916988845768
 21
1084.628054066952
 31
0.0
  0
LINE
  5
4A2
330
1F
100
AcDbEntity
  8
AM_VIS
100
AcDbLine
 10
1388.416988845768
 20
1061.628054066952
 30
0.0
 11
1375.509665231705
 21
1061.628054066952
 31
0.0
  0
LINE
  5
4A3
330
1F
100
AcDbEntity
  8
AM_VIS
100
AcDbLine
 10
1367.324312459832
 20
1061.628054066952
 30
0.0
 11
1354.416988845768
 21
1061.628054066952
 31
0.0
  0
LINE
  5
4A4
330
1F
100
AcDbEntity
  8
AM_VIS
100
AcDbLine
 10
1386.416988845768
 20
1079.128054066952
 30
0.0
 11
1388.416988845768
 21
1079.128054066952
 31
0.0
  0
LINE
  5
4A5
330
1F
100
AcDbEntity
  8
AM_VIS
100
AcDbLine
 10
1354.416988845768
 20
1079.128054066952
 30
0.0
 11
1356.416988845768
 21
1079.128054066952
 31
0.0
  0
LINE
  5
4A6
330
1F
100
AcDbEntity
  8
AM_VIS
100
AcDbLine
 10
1356.416988845768
 20
1082.628054066952
 30
0.0
 11
1367.324312459832
 21
1082.628054066952
 31
0.0
  0
LINE
  5
4A7
330
1F
100
AcDbEntity
  8
AM_VIS
100
AcDbLine
 10
1375.509665231705
 20
1082.628054066952
 30
0.0
 11
1386.416988845768
 21
1082.628054066952
 31
0.0
  0
LINE
  5
4A8
330
1F
100
AcDbEntity
  8
AM_VIS
100
AcDbLine
 10
1364.916988845769
 20
1137.090953090323
 30
0.0
 11
1377.916988845768
 21
1137.090953090323
 31
0.0
  0
LINE
  5
4A9
330
1F
100
AcDbEntity
  8
AM_VIS
100
AcDbLine
 10
1379.416988845769
 20
1138.516751137063
 30
0.0
 11
1363.416988845769
 21
1138.516751137063
 31
0.0
  0
ARC
  5
4AA
330
1F
100
AcDbEntity
  8
AM_VIS
100
AcDbCircle
 10
1365.666988845769
 20
1137.840953090322
 30
0.0
 40
0.75
100
AcDbArc
 50
115.7017121122465
 51
270.0
  0
ARC
  5
4AB
330
1F
100
AcDbEntity
  8
AM_VIS
100
AcDbCircle
 10
1377.166988845768
 20
1137.840953090322
 30
0.0
 40
0.75
100
AcDbArc
 50
270.0
 51
64.29828788775345
  0
LINE
  5
4AC
330
1F
100
AcDbEntity
  8
AM_VIS
100
AcDbLine
 10
1256.673034573698
 20
1132.639067774198
 30
0.0
 11
1285.673034573698
 21
1132.639067774198
 31
0.0
  0
LINE
  5
4AD
330
1F
100
AcDbEntity
  8
AM_VIS
100
AcDbLine
 10
1256.673034573698
 20
1103.439067774198
 30
0.0
 11
1256.673034573698
 21
1132.439067774198
 31
0.0
  0
LINE
  5
4AE
330
1F
100
AcDbEntity
  8
AM_VIS
100
AcDbLine
 10
1285.673034573698
 20
1132.439067774198
 30
0.0
 11
1285.673034573698
 21
1103.439067774198
 31
0.0
  0
LINE
  5
4AF
330
1F
100
AcDbEntity
  8
AM_VIS
100
AcDbLine
 10
1256.673034573698
 20
1132.439067774198
 30
0.0
 11
1285.673034573698
 21
1132.439067774198
 31
0.0
  0
LINE
  5
4B0
330
1F
100
AcDbEntity
  8
AM_VIS
100
AcDbLine
 10
1257.873034573698
 20
1132.239067774198
 30
0.0
 11
1284.473034573698
 21
1132.239067774198
 31
0.0
  0
LINE
  5
4B1
330
1F
100
AcDbEntity
  8
AM_VIS
100
AcDbLine
 10
1256.873034573698
 20
1104.639067774198
 30
0.0
 11
1256.873034573698
 21
1131.239067774198
 31
0.0
  0
LINE
  5
4B2
330
1F
100
AcDbEntity
  8
AM_VIS
100
AcDbLine
 10
1284.473034573698
 20
1103.639067774198
 30
0.0
 11
1281.923034573698
 21
1103.639067774198
 31
0.0
  0
LINE
  5
4B3
330
1F
100
AcDbEntity
  8
AM_VIS
100
AcDbLine
 10
1260.423034573698
 20
1103.639067774198
 30
0.0
 11
1257.873034573698
 21
1103.639067774198
 31
0.0
  0
LINE
  5
4B4
330
1F
100
AcDbEntity
  8
AM_VIS
100
AcDbLine
 10
1285.473034573698
 20
1131.239067774198
 30
0.0
 11
1285.473034573698
 21
1104.639067774198
 31
0.0
  0
LINE
  5
4B5
330
1F
100
AcDbEntity
  8
AM_VIS
100
AcDbLine
 10
1258.373034573698
 20
1130.739067774198
 30
0.0
 11
1283.973034573698
 21
1130.739067774198
 31
0.0
  0
LINE
  5
4B6
330
1F
100
AcDbEntity
  8
AM_VIS
100
AcDbLine
 10
1258.373034573698
 20
1105.139067774198
 30
0.0
 11
1258.373034573698
 21
1130.739067774198
 31
0.0
  0
LINE
  5
4B7
330
1F
100
AcDbEntity
  8
AM_VIS
100
AcDbLine
 10
1283.973034573698
 20
1130.739067774198
 30
0.0
 11
1283.973034573698
 21
1105.139067774198
 31
0.0
  0
LINE
  5
4B8
330
1F
100
AcDbEntity
  8
AM_VIS
100
AcDbLine
 10
1285.673034573698
 20
1103.439067774198
 30
0.0
 11
1281.923034573698
 21
1103.439067774198
 31
0.0
  0
LINE
  5
4B9
330
1F
100
AcDbEntity
  8
AM_VIS
100
AcDbLine
 10
1260.423034573698
 20
1103.439067774198
 30
0.0
 11
1256.673034573698
 21
1103.439067774198
 31
0.0
  0
LINE
  5
4BA
330
1F
100
AcDbEntity
  8
AM_VIS
100
AcDbLine
 10
1285.673034573698
 20
1089.639067774198
 30
0.0
 11
1285.673034573698
 21
1090.639067774198
 31
0.0
  0
LINE
  5
4BB
330
1F
100
AcDbEntity
  8
AM_VIS
100
AcDbLine
 10
1256.673034573698
 20
1089.639067774198
 30
0.0
 11
1260.423034573698
 21
1089.639067774198
 31
0.0
  0
LINE
  5
4BC
330
1F
100
AcDbEntity
  8
AM_VIS
100
AcDbLine
 10
1281.923034573698
 20
1089.639067774198
 30
0.0
 11
1285.673034573698
 21
1089.639067774198
 31
0.0
  0
LINE
  5
4BD
330
1F
100
AcDbEntity
  8
AM_VIS
100
AcDbLine
 10
1256.673034573698
 20
1090.639067774198
 30
0.0
 11
1256.673034573698
 21
1089.639067774198
 31
0.0
  0
LINE
  5
4BE
330
1F
100
AcDbEntity
  8
AM_VIS
100
AcDbLine
 10
1285.673034573698
 20
1090.639067774198
 30
0.0
 11
1281.923034573698
 21
1090.639067774198
 31
0.0
  0
LINE
  5
4BF
330
1F
100
AcDbEntity
  8
AM_VIS
100
AcDbLine
 10
1260.423034573698
 20
1090.639067774198
 30
0.0
 11
1256.673034573698
 21
1090.639067774198
 31
0.0
  0
LINE
  5
4C0
330
1F
100
AcDbEntity
  8
AM_VIS
100
AcDbLine
 10
1256.673034573698
 20
1103.439067774198
 30
0.0
 11
1256.673034573698
 21
1090.639067774198
 31
0.0
  0
LINE
  5
4C1
330
1F
100
AcDbEntity
  8
AM_VIS
100
AcDbLine
 10
1285.673034573698
 20
1090.639067774198
 30
0.0
 11
1285.673034573698
 21
1103.439067774198
 31
0.0
  0
LINE
  5
4C2
330
1F
100
AcDbEntity
  8
AM_VIS
100
AcDbLine
 10
1271.173034573698
 20
1105.139067774198
 30
0.0
 11
1258.373034573698
 21
1105.139067774198
 31
0.0
  0
LINE
  5
4C3
330
1F
100
AcDbEntity
  8
AM_VIS
100
AcDbLine
 10
1283.973034573698
 20
1105.139067774198
 30
0.0
 11
1271.173034573698
 21
1105.139067774198
 31
0.0
  0
LINE
  5
4C4
330
1F
100
AcDbEntity
  8
AM_VIS
100
AcDbLine
 10
1279.173034573698
 20
1087.139067774198
 30
0.0
 11
1279.173034573698
 21
1082.739067774198
 31
0.0
  0
LINE
  5
4C5
330
1F
100
AcDbEntity
  8
AM_VIS
100
AcDbLine
 10
1271.173034573698
 20
1082.739067774198
 30
0.0
 11
1279.173034573698
 21
1082.739067774198
 31
0.0
  0
LINE
  5
4C6
330
1F
100
AcDbEntity
  8
AM_VIS
100
AcDbLine
 10
1263.173034573698
 20
1082.739067774198
 30
0.0
 11
1271.173034573698
 21
1082.739067774198
 31
0.0
  0
LINE
  5
4C7
330
1F
100
AcDbEntity
  8
AM_VIS
100
AcDbLine
 10
1263.173034573698
 20
1087.139067774198
 30
0.0
 11
1263.173034573698
 21
1082.739067774198
 31
0.0
  0
LINE
  5
4C8
330
1F
100
AcDbEntity
  8
AM_VIS
100
AcDbLine
 10
1271.173034573698
 20
1087.139067774198
 30
0.0
 11
1279.173034573698
 21
1087.139067774198
 31
0.0
  0
LINE
  5
4C9
330
1F
100
AcDbEntity
  8
AM_VIS
100
AcDbLine
 10
1263.173034573698
 20
1087.139067774198
 30
0.0
 11
1271.173034573698
 21
1087.139067774198
 31
0.0
  0
LINE
  5
4CA
330
1F
100
AcDbEntity
  8
AM_VIS
100
AcDbLine
 10
1263.173034573698
 20
1078.139067774198
 30
0.0
 11
1263.173034573698
 21
1081.639067774198
 31
0.0
  0
LINE
  5
4CB
330
1F
100
AcDbEntity
  8
AM_VIS
100
AcDbLine
 10
1279.173034573698
 20
1081.639067774198
 30
0.0
 11
1279.173034573698
 21
1078.139067774198
 31
0.0
  0
LINE
  5
4CC
330
1F
100
AcDbEntity
  8
AM_VIS
100
AcDbLine
 10
1263.173034573698
 20
1081.639067774198
 30
0.0
 11
1279.173034573698
 21
1081.639067774198
 31
0.0
  0
LINE
  5
4CD
330
1F
100
AcDbEntity
  8
AM_VIS
100
AcDbLine
 10
1287.673034573698
 20
1060.639067774198
 30
0.0
 11
1287.673034573698
 21
1081.639067774198
 31
0.0
  0
LINE
  5
4CE
330
1F
100
AcDbEntity
  8
AM_VIS
100
AcDbLine
 10
1284.173034573698
 20
1060.389067774198
 30
0.0
 11
1284.173034573698
 21
1056.889067774198
 31
0.0
  0
LINE
  5
4CF
330
1F
100
AcDbEntity
  8
AM_VIS
100
AcDbLine
 10
1271.173034573698
 20
1056.889067774198
 30
0.0
 11
1284.173034573698
 21
1056.889067774198
 31
0.0
  0
LINE
  5
4D0
330
1F
100
AcDbEntity
  8
AM_VIS
100
AcDbLine
 10
1258.173034573698
 20
1056.889067774198
 30
0.0
 11
1271.173034573698
 21
1056.889067774198
 31
0.0
  0
LINE
  5
4D1
330
1F
100
AcDbEntity
  8
AM_VIS
100
AcDbLine
 10
1258.173034573698
 20
1060.389067774198
 30
0.0
 11
1258.173034573698
 21
1056.889067774198
 31
0.0
  0
LINE
  5
4D2
330
1F
100
AcDbEntity
  8
AM_VIS
100
AcDbLine
 10
1271.173034573698
 20
1060.389067774198
 30
0.0
 11
1284.173034573698
 21
1060.389067774198
 31
0.0
  0
LINE
  5
4D3
330
1F
100
AcDbEntity
  8
AM_VIS
100
AcDbLine
 10
1258.173034573698
 20
1060.389067774198
 30
0.0
 11
1271.173034573698
 21
1060.389067774198
 31
0.0
  0
LINE
  5
4D4
330
1F
100
AcDbEntity
  8
AM_VIS
100
AcDbLine
 10
1262.673034573698
 20
1140.564865820939
 30
0.0
 11
1262.673034573698
 21
1154.884865820939
 31
0.0
  0
LINE
  5
4D5
330
1F
100
AcDbEntity
  8
AM_VIS
100
AcDbLine
 10
1271.173034573698
 20
1154.884865820939
 30
0.0
 11
1262.673034573698
 21
1154.884865820939
 31
0.0
  0
LINE
  5
4D6
330
1F
100
AcDbEntity
  8
AM_VIS
100
AcDbLine
 10
1279.673034573698
 20
1154.884865820939
 30
0.0
 11
1271.173034573698
 21
1154.884865820939
 31
0.0
  0
LINE
  5
4D7
330
1F
100
AcDbEntity
  8
AM_VIS
100
AcDbLine
 10
1279.673034573698
 20
1140.564865820939
 30
0.0
 11
1279.673034573698
 21
1154.884865820939
 31
0.0
  0
LINE
  5
4D8
330
1F
100
AcDbEntity
  8
AM_VIS
100
AcDbLine
 10
1271.173034573698
 20
1140.564865820939
 30
0.0
 11
1262.673034573698
 21
1140.564865820939
 31
0.0
  0
LINE
  5
4D9
330
1F
100
AcDbEntity
  8
AM_VIS
100
AcDbLine
 10
1279.673034573698
 20
1140.564865820939
 30
0.0
 11
1271.173034573698
 21
1140.564865820939
 31
0.0
  0
LINE
  5
4DA
330
1F
100
AcDbEntity
  8
AM_VIS
100
AcDbLine
 10
1260.423034573698
 20
1105.139067774198
 30
0.0
 11
1260.423034573698
 21
1089.139067774198
 31
0.0
  0
LINE
  5
4DB
330
1F
100
AcDbEntity
  8
AM_VIS
100
AcDbLine
 10
1281.923034573698
 20
1105.139067774198
 30
0.0
 11
1281.923034573698
 21
1089.139067774198
 31
0.0
  0
LINE
  5
4DC
330
1F
100
AcDbEntity
  8
AM_VIS
100
AcDbLine
 10
1264.423034573698
 20
1089.139067774198
 30
0.0
 11
1264.423034573698
 21
1087.139067774198
 31
0.0
  0
LINE
  5
4DD
330
1F
100
AcDbEntity
  8
AM_VIS
100
AcDbLine
 10
1277.923034573698
 20
1089.139067774198
 30
0.0
 11
1277.923034573698
 21
1087.139067774198
 31
0.0
  0
LINE
  5
4DE
330
1F
100
AcDbEntity
  8
AM_VIS
100
AcDbLine
 10
1258.673034573698
 20
1087.139067774198
 30
0.0
 11
1258.673034573698
 21
1081.639067774198
 31
0.0
  0
LINE
  5
4DF
330
1F
100
AcDbEntity
  8
AM_VIS
100
AcDbLine
 10
1283.673034573698
 20
1087.139067774198
 30
0.0
 11
1283.673034573698
 21
1081.639067774198
 31
0.0
  0
LINE
  5
4E0
330
1F
100
AcDbEntity
  8
AM_VIS
100
AcDbLine
 10
1254.173034573698
 20
1081.639067774198
 30
0.0
 11
1254.173034573698
 21
1060.639067774198
 31
0.0
  0
LINE
  5
4E1
330
1F
100
AcDbEntity
  8
AM_VIS
100
AcDbLine
 10
1261.173034573698
 20
1060.639067774198
 30
0.0
 11
1261.173034573698
 21
1060.389067774198
 31
0.0
  0
LINE
  5
4E2
330
1F
100
AcDbEntity
  8
AM_VIS
100
AcDbLine
 10
1281.173034573698
 20
1060.639067774198
 30
0.0
 11
1281.173034573698
 21
1060.389067774198
 31
0.0
  0
LINE
  5
4E3
330
1F
100
AcDbEntity
  8
AM_VIS
100
AcDbLine
 10
1277.673034573698
 20
1132.639067774198
 30
0.0
 11
1277.673034573698
 21
1136.139067774198
 31
0.0
  0
LINE
  5
4E4
330
1F
100
AcDbEntity
  8
AM_VIS
100
AcDbLine
 10
1264.673034573698
 20
1132.639067774198
 30
0.0
 11
1264.673034573698
 21
1136.139067774198
 31
0.0
  0
LINE
  5
4E5
330
1F
100
AcDbEntity
  8
AM_VIS
100
AcDbLine
 10
1279.173034573698
 20
1137.564865820939
 30
0.0
 11
1279.173034573698
 21
1140.564865820939
 31
0.0
  0
LINE
  5
4E6
330
1F
100
AcDbEntity
  8
AM_VIS
100
AcDbLine
 10
1263.173034573698
 20
1137.564865820939
 30
0.0
 11
1263.173034573698
 21
1140.564865820939
 31
0.0
  0
ARC
  5
4E7
330
1F
100
AcDbEntity
  8
AM_VIS
100
AcDbCircle
 10
1257.873034573698
 20
1104.639067774198
 30
0.0
 40
1.0
100
AcDbArc
 50
180.0
 51
270.0
  0
ARC
  5
4E8
330
1F
100
AcDbEntity
  8
AM_VIS
100
AcDbCircle
 10
1284.473034573698
 20
1104.639067774198
 30
0.0
 40
1.0
100
AcDbArc
 50
270.0
 51
0.0
  0
LINE
  5
4E9
330
1F
100
AcDbEntity
  8
AM_VIS
100
AcDbLine
 10
1281.923034573698
 20
1089.139067774198
 30
0.0
 11
1260.423034573698
 21
1089.139067774198
 31
0.0
  0
LINE
  5
4EA
330
1F
100
AcDbEntity
  8
AM_VIS
100
AcDbLine
 10
1279.173034573698
 20
1087.139067774198
 30
0.0
 11
1283.673034573698
 21
1087.139067774198
 31
0.0
  0
LINE
  5
4EB
330
1F
100
AcDbEntity
  8
AM_VIS
100
AcDbLine
 10
1258.673034573698
 20
1087.139067774198
 30
0.0
 11
1263.173034573698
 21
1087.139067774198
 31
0.0
  0
LINE
  5
4EC
330
1F
100
AcDbEntity
  8
AM_VIS
100
AcDbLine
 10
1287.673034573698
 20
1060.639067774198
 30
0.0
 11
1254.173034573698
 21
1060.639067774198
 31
0.0
  0
LINE
  5
4ED
330
1F
100
AcDbEntity
  8
AM_VIS
100
AcDbLine
 10
1263.173034573698
 20
1078.139067774198
 30
0.0
 11
1279.173034573698
 21
1078.139067774198
 31
0.0
  0
LINE
  5
4EE
330
1F
100
AcDbEntity
  8
AM_VIS
100
AcDbLine
 10
1279.173034573698
 20
1081.639067774198
 30
0.0
 11
1287.673034573698
 21
1081.639067774198
 31
0.0
  0
LINE
  5
4EF
330
1F
100
AcDbEntity
  8
AM_VIS
100
AcDbLine
 10
1254.173034573698
 20
1081.639067774198
 30
0.0
 11
1263.173034573698
 21
1081.639067774198
 31
0.0
  0
CIRCLE
  5
4F0
330
1F
100
AcDbEntity
  8
AM_VIS
100
AcDbCircle
 10
1271.173034573698
 20
1117.939067774198
 30
0.0
 40
3.5
  0
CIRCLE
  5
4F1
330
1F
100
AcDbEntity
  8
AM_VIS
100
AcDbCircle
 10
1271.173034573698
 20
1117.939067774198
 30
0.0
 40
2.5
  0
LINE
  5
4F2
330
1F
100
AcDbEntity
  8
AM_VIS
100
AcDbLine
 10
1264.673034573698
 20
1136.139067774198
 30
0.0
 11
1277.673034573698
 21
1136.139067774198
 31
0.0
  0
LINE
  5
4F3
330
1F
100
AcDbEntity
  8
AM_VIS
100
AcDbLine
 10
1279.173034573698
 20
1137.564865820939
 30
0.0
 11
1263.173034573698
 21
1137.564865820939
 31
0.0
  0
ARC
  5
4F4
330
1F
100
AcDbEntity
  8
AM_VIS
100
AcDbCircle
 10
1265.423034573698
 20
1136.889067774198
 30
0.0
 40
0.75
100
AcDbArc
 50
115.7017121122465
 51
270.0
  0
ARC
  5
4F5
330
1F
100
AcDbEntity
  8
AM_VIS
100
AcDbCircle
 10
1276.923034573698
 20
1136.889067774198
 30
0.0
 40
0.75
100
AcDbArc
 50
270.0
 51
64.29828788775345
  0
LINE
  5
4F6
330
1F
100
AcDbEntity
  8
AM_VIS
100
AcDbLine
 10
1385.416988845769
 20
1214.693127464987
 30
0.0
 11
1350.416988845769
 21
1214.693127464987
 31
0.0
  0
LINE
  5
4F7
330
1F
100
AcDbEntity
  8
AM_VIS
100
AcDbLine
 10
1385.416988845769
 20
1214.693127464987
 30
0.0
 11
1385.416988845769
 21
1185.693127464986
 31
0.0
  0
LINE
  5
4F8
330
1F
100
AcDbEntity
  8
AM_VIS
100
AcDbLine
 10
1350.416988845769
 20
1185.693127464986
 30
0.0
 11
1385.416988845769
 21
1185.693127464986
 31
0.0
  0
LINE
  5
4F9
330
1F
100
AcDbEntity
  8
AM_VIS
100
AcDbLine
 10
1350.416988845769
 20
1214.693127464987
 30
0.0
 11
1350.416988845769
 21
1185.693127464986
 31
0.0
  0
LINE
  5
4FA
330
1F
100
AcDbEntity
  8
AM_VIS
100
AcDbLine
 10
1350.416988845769
 20
1214.693127464987
 30
0.0
 11
1345.416988845768
 21
1214.693127464987
 31
0.0
  0
LINE
  5
4FB
330
1F
100
AcDbEntity
  8
AM_VIS
100
AcDbLine
 10
1350.416988845769
 20
1185.693127464986
 30
0.0
 11
1345.416988845768
 21
1185.693127464986
 31
0.0
  0
LINE
  5
4FC
330
1F
100
AcDbEntity
  8
AM_VIS
100
AcDbLine
 10
1345.416988845768
 20
1214.693127464987
 30
0.0
 11
1345.416988845768
 21
1185.693127464986
 31
0.0
  0
LINE
  5
4FD
330
1F
100
AcDbEntity
  8
AM_VIS
100
AcDbLine
 10
1341.416988845768
 20
1213.493127464986
 30
0.0
 11
1341.416988845768
 21
1186.893127464986
 31
0.0
  0
LINE
  5
4FE
330
1F
100
AcDbEntity
  8
AM_VIS
100
AcDbLine
 10
1345.416988845768
 20
1214.493127464987
 30
0.0
 11
1341.416988845768
 21
1214.493127464987
 31
0.0
  0
LINE
  5
4FF
330
1F
100
AcDbEntity
  8
AM_VIS
100
AcDbLine
 10
1345.416988845768
 20
1185.893127464987
 30
0.0
 11
1341.416988845768
 21
1185.893127464987
 31
0.0
  0
LINE
  5
500
330
1F
100
AcDbEntity
  8
AM_VIS
100
AcDbLine
 10
1318.416988845769
 20
1212.993127464986
 30
0.0
 11
1318.416988845769
 21
1187.393127464987
 31
0.0
  0
LINE
  5
501
330
1F
100
AcDbEntity
  8
AM_VIS
100
AcDbLine
 10
1341.416988845768
 20
1212.993127464986
 30
0.0
 11
1318.416988845769
 21
1212.993127464986
 31
0.0
  0
LINE
  5
502
330
1F
100
AcDbEntity
  8
AM_VIS
100
AcDbLine
 10
1341.416988845768
 20
1187.393127464987
 30
0.0
 11
1318.416988845769
 21
1187.393127464987
 31
0.0
  0
LINE
  5
503
330
1F
100
AcDbEntity
  8
AM_VIS
100
AcDbLine
 10
1386.416988845768
 20
1192.130869716688
 30
0.0
 11
1386.416988845768
 21
1208.255385213285
 31
0.0
  0
LINE
  5
504
330
1F
100
AcDbEntity
  8
AM_VIS
100
AcDbLine
 10
1366.009511557657
 20
1208.693127464987
 30
0.0
 11
1375.82446613388
 21
1208.693127464987
 31
0.0
  0
LINE
  5
505
330
1F
100
AcDbEntity
  8
AM_VIS
100
AcDbLine
 10
1361.102034269545
 20
1200.193127464986
 30
0.0
 11
1366.009511557657
 21
1208.693127464987
 31
0.0
  0
LINE
  5
506
330
1F
100
AcDbEntity
  8
AM_VIS
100
AcDbLine
 10
1366.009511557657
 20
1191.693127464986
 30
0.0
 11
1361.102034269545
 21
1200.193127464986
 31
0.0
  0
LINE
  5
507
330
1F
100
AcDbEntity
  8
AM_VIS
100
AcDbLine
 10
1375.82446613388
 20
1191.693127464986
 30
0.0
 11
1366.009511557657
 21
1191.693127464986
 31
0.0
  0
LINE
  5
508
330
1F
100
AcDbEntity
  8
AM_VIS
100
AcDbLine
 10
1380.731943421992
 20
1200.193127464986
 30
0.0
 11
1375.82446613388
 21
1191.693127464986
 31
0.0
  0
LINE
  5
509
330
1F
100
AcDbEntity
  8
AM_VIS
100
AcDbLine
 10
1375.82446613388
 20
1208.693127464987
 30
0.0
 11
1380.731943421992
 21
1200.193127464986
 31
0.0
  0
LINE
  5
50A
330
1F
100
AcDbEntity
  8
AM_VIS
100
AcDbLine
 10
1341.416988845768
 20
1185.893127464987
 30
0.0
 11
1341.416988845768
 21
1186.893127464986
 31
0.0
  0
LINE
  5
50B
330
1F
100
AcDbEntity
  8
AM_VIS
100
AcDbLine
 10
1341.416988845768
 20
1213.493127464986
 30
0.0
 11
1341.416988845768
 21
1214.493127464987
 31
0.0
  0
CIRCLE
  5
50C
330
1F
100
AcDbEntity
  8
AM_VIS
100
AcDbCircle
 10
1370.916988845769
 20
1200.193127464986
 30
0.0
 40
11.75
  0
CIRCLE
  5
50D
330
1F
100
AcDbEntity
  8
AM_VIS
100
AcDbCircle
 10
1370.916988845769
 20
1200.193127464986
 30
0.0
 40
5.5
  0
ARC
  5
50E
330
1F
100
AcDbEntity
  8
0
100
AcDbCircle
 10
1371.166988845768
 20
1200.193127464986
 30
0.0
 40
17.25
100
AcDbArc
 50
283.8287435443011
 51
256.171256455699
  0
LINE
  5
50F
330
1F
100
AcDbEntity
  8
0
100
AcDbLine
 10
1367.293883220151
 20
1082.628054066952
 30
0.0
 11
1367.293883220151
 21
1061.628054066952
 31
0.0
  0
LINE
  5
510
330
1F
100
AcDbEntity
  8
0
100
AcDbLine
 10
1375.540094471386
 20
1082.628054066952
 30
0.0
 11
1375.540094471386
 21
1061.628054066952
 31
0.0
  0
DIMENSION
  5
511
330
1F
100
AcDbEntity
  8
0
100
AcDbDimension
  2
*D11
 10
1395.106192403052
 20
1065.878054066952
 30
0.0
 11
1392.606192403051
 21
1061.878054066952
 31
0.0
 70
    32
 71
     5
 42
8.0
  3
STANDARD
100
AcDbAlignedDimension
 13
1386.428095844699
 23
1057.878054066952
 33
0.0
 14
1374.666988845769
 24
1065.878054066952
 34
0.0
 50
90.0
100
AcDbRotatedDimension
1001
ACAD
1000
DSTYLE
1002
{
1070
   176
1070
     5
1070
   177
1070
     5
1070
   178
1070
     5
1070
   272
1070
     8
1002
}
  0
DIMENSION
  5
512
330
1F
100
AcDbEntity
  8
0
100
AcDbDimension
  2
*D12
 10
1404.513870433396
 20
1073.878054066952
 30
0.0
 11
1402.013870433395
 21
1065.878054066953
 31
0.0
 70
    32
 71
     5
 42
16.00000000000022
  3
STANDARD
100
AcDbAlignedDimension
 13
1386.428095844699
 23
1057.878054066952
 33
0.0
 14
1374.666988845769
 24
1073.878054066952
 34
0.0
 50
90.0
100
AcDbRotatedDimension
1001
ACAD
1000
DSTYLE
1002
{
1070
   176
1070
     5
1070
   177
1070
     5
1070
   178
1070
     5
1070
   272
1070
     8
1002
}
  0
DIMENSION
  5
513
330
1F
100
AcDbEntity
  8
0
100
AcDbDimension
  2
*D13
 10
1245.884719238683
 20
1056.889067774198
 30
0.0
 11
1243.384719238682
 21
1105.886966797569
 31
0.0
 70
    32
 71
     5
 42
97.99579804674046
  3
STANDARD
100
AcDbAlignedDimension
 13
1262.673034573698
 23
1154.884865820939
 33
0.0
 14
1258.173034573698
 24
1056.889067774198
 34
0.0
 50
90.0
100
AcDbRotatedDimension
1001
ACAD
1000
DSTYLE
1002
{
1070
   178
1070
     5
1070
   177
1070
     5
1070
   176
1070
     5
1070
   272
1070
     8
1002
}
  0
MTEXT
  5
514
330
1F
100
AcDbEntity
  8
AM_6
100
AcDbMText
 10
1382.725244912482
 20
1170.648126994042
 30
0.0
 40
3.5
 41
11.09240479765003
 71
     1
 72
     5
  1
{\C5;G1/4}
 73
     1
 44
1.0
1001
GENIUS_AMGTXT_16
1040
3.5
1040
0.12
1001
ACAD
1000
MTEXTBEGIN
1070
    73
1070
     1
1070
    44
1040
1.0
1070
    74
1070
     0
1000
MTEXTEND
  0
CIRCLE
  5
515
330
1F
100
AcDbEntity
  8
0
100
AcDbCircle
 10
1371.416988845769
 20
1073.878054066952
 30
0.0
 40
1.5
  0
CIRCLE
  5
516
330
1F
100
AcDbEntity
  8
0
100
AcDbCircle
 10
1371.416988845769
 20
1065.878054066952
 30
0.0
 40
1.5
  0
LEADER
  5
517
330
1F
100
AcDbEntity
  8
0
100
AcDbLeader
  3
STANDARD
 76
     3
 10
1372.570037652047
 20
1074.721148395818
 30
0.0
 10
1390.402980330567
 20
1086.886462870235
 30
0.0
 10
1399.281183766189
 20
1086.886462870235
 30
0.0
1001
ACAD
1000
DSTYLE
1002
{
1070
   176
1070
     5
1070
   177
1070
     5
1070
   178
1070
     5
1070
   272
1070
     8
1002
}
  0
MTEXT
  5
518
330
1F
100
AcDbEntity
  8
0
100
AcDbMText
 10
1392.622530497924
 20
1091.171102296028
 30
0.0
 40
3.5
 41
8.801666936795982
 71
     1
 72
     5
  1
{\C5;M3}
 73
     1
 44
1.0
1001
GENIUS_AMGTXT_16
1040
3.5
1040
0.12
1001
ACAD
1000
MTEXTBEGIN
1070
    73
1070
     1
1070
    44
1040
1.0
1070
    74
1070
     0
1000
MTEXTEND
  0
LINE
  5
519
330
1F
100
AcDbEntity
  8
AM_7
 62
     1
100
AcDbLine
 10
1328.166988845769
 20
1008.019378168904
 30
0.0
 11
1330.166988845769
 21
1008.019378168904
 31
0.0
  0
LINE
  5
51A
330
1F
100
AcDbEntity
  8
AM_7
 62
     1
100
AcDbLine
 10
1329.166988845768
 20
1007.019378168904
 30
0.0
 11
1329.166988845768
 21
1009.019378168904
 31
0.0
  0
LINE
  5
51B
330
1F
100
AcDbEntity
  8
AM_7
 62
     1
100
AcDbLine
 10
1316.416988845769
 20
1008.019378168904
 30
0.0
 11
1327.166988845769
 21
1008.019378168904
 31
0.0
  0
LINE
  5
51C
330
1F
100
AcDbEntity
  8
AM_7
 62
     1
100
AcDbLine
 10
1331.166988845768
 20
1008.019378168904
 30
0.0
 11
1341.916988845768
 21
1008.019378168904
 31
0.0
  0
LINE
  5
51D
330
1F
100
AcDbEntity
  8
AM_7
 62
     1
100
AcDbLine
 10
1329.166988845768
 20
995.2693781689038
 30
0.0
 11
1329.166988845768
 21
1006.019378168904
 31
0.0
  0
LINE
  5
51E
330
1F
100
AcDbEntity
  8
AM_7
 62
     1
100
AcDbLine
 10
1329.166988845768
 20
1010.019378168904
 30
0.0
 11
1329.166988845768
 21
1020.769378168904
 31
0.0
  0
LINE
  5
51F
330
1F
100
AcDbEntity
  8
AM_7
 62
     1
100
AcDbLine
 10
1370.416988845769
 20
1008.019378168904
 30
0.0
 11
1372.416988845769
 21
1008.019378168904
 31
0.0
  0
LINE
  5
520
330
1F
100
AcDbEntity
  8
AM_7
 62
     1
100
AcDbLine
 10
1371.416988845769
 20
1007.019378168904
 30
0.0
 11
1371.416988845769
 21
1009.019378168904
 31
0.0
  0
LINE
  5
521
330
1F
100
AcDbEntity
  8
AM_7
 62
     1
100
AcDbLine
 10
1352.416988845769
 20
1008.019378168904
 30
0.0
 11
1369.416988845769
 21
1008.019378168904
 31
0.0
  0
LINE
  5
522
330
1F
100
AcDbEntity
  8
AM_7
 62
     1
100
AcDbLine
 10
1373.416988845769
 20
1008.019378168904
 30
0.0
 11
1390.416988845769
 21
1008.019378168904
 31
0.0
  0
LINE
  5
523
330
1F
100
AcDbEntity
  8
AM_7
 62
     1
100
AcDbLine
 10
1371.416988845769
 20
989.0193781689038
 30
0.0
 11
1371.416988845769
 21
1006.019378168904
 31
0.0
  0
LINE
  5
524
330
1F
100
AcDbEntity
  8
AM_7
 62
     1
100
AcDbLine
 10
1371.416988845769
 20
1010.019378168904
 30
0.0
 11
1371.416988845769
 21
1027.019378168904
 31
0.0
  0
LINE
  5
525
330
1F
100
AcDbEntity
  8
AM_7
 62
     1
100
AcDbLine
 10
1440.000897264405
 20
1156.964724412795
 30
0.0
 11
1440.000897264405
 21
1054.359987046856
 31
0.0
  0
LINE
  5
526
330
1F
100
AcDbEntity
  8
AM_VIS
100
AcDbLine
 10
1384.916988845768
 20
993.5193781689038
 30
0.0
 11
1384.916988845768
 21
997.6873890090178
 31
0.0
  0
LINE
  5
527
330
1F
100
AcDbEntity
  8
AM_VIS
100
AcDbLine
 10
1384.916988845768
 20
1018.35136732879
 30
0.0
 11
1384.916988845768
 21
1022.519378168904
 31
0.0
  0
LINE
  5
528
330
1F
100
AcDbEntity
  8
AM_VIS
100
AcDbLine
 10
1350.416988845769
 20
993.5193781689038
 30
0.0
 11
1362.542869171119
 21
993.5193781689038
 31
0.0
  0
LINE
  5
529
330
1F
100
AcDbEntity
  8
AM_VIS
100
AcDbLine
 10
1380.291108520418
 20
993.5193781689038
 30
0.0
 11
1384.916988845768
 21
993.5193781689038
 31
0.0
  0
LINE
  5
52A
330
1F
100
AcDbEntity
  8
AM_VIS
100
AcDbLine
 10
1384.916988845768
 20
1022.519378168904
 30
0.0
 11
1380.291108520418
 21
1022.519378168904
 31
0.0
  0
LINE
  5
52B
330
1F
100
AcDbEntity
  8
AM_VIS
100
AcDbLine
 10
1362.542869171119
 20
1022.519378168904
 30
0.0
 11
1350.416988845769
 21
1022.519378168904
 31
0.0
  0
LINE
  5
52C
330
1F
100
AcDbEntity
  8
AM_VIS
100
AcDbLine
 10
1345.416988845768
 20
993.7193781689039
 30
0.0
 11
1341.416988845768
 21
993.7193781689039
 31
0.0
  0
LINE
  5
52D
330
1F
100
AcDbEntity
  8
AM_VIS
100
AcDbLine
 10
1341.416988845768
 20
1021.319378168904
 30
0.0
 11
1341.416988845768
 21
994.7193781689039
 31
0.0
  0
LINE
  5
52E
330
1F
100
AcDbEntity
  8
AM_VIS
100
AcDbLine
 10
1345.416988845768
 20
1022.319378168904
 30
0.0
 11
1341.416988845768
 21
1022.319378168904
 31
0.0
  0
LINE
  5
52F
330
1F
100
AcDbEntity
  8
AM_VIS
100
AcDbLine
 10
1349.416988845768
 20
993.5193781689038
 30
0.0
 11
1345.416988845768
 21
993.5193781689038
 31
0.0
  0
LINE
  5
530
330
1F
100
AcDbEntity
  8
AM_VIS
100
AcDbLine
 10
1345.416988845768
 20
1022.519378168904
 30
0.0
 11
1345.416988845768
 21
993.5193781689038
 31
0.0
  0
LINE
  5
531
330
1F
100
AcDbEntity
  8
AM_VIS
100
AcDbLine
 10
1349.416988845768
 20
1022.519378168904
 30
0.0
 11
1345.416988845768
 21
1022.519378168904
 31
0.0
  0
LINE
  5
532
330
1F
100
AcDbEntity
  8
AM_VIS
100
AcDbLine
 10
1350.416988845769
 20
993.5193781689038
 30
0.0
 11
1350.416988845769
 21
1022.519378168904
 31
0.0
  0
LINE
  5
533
330
1F
100
AcDbEntity
  8
AM_VIS
100
AcDbLine
 10
1349.416988845768
 20
993.5193781689038
 30
0.0
 11
1350.416988845769
 21
993.5193781689038
 31
0.0
  0
LINE
  5
534
330
1F
100
AcDbEntity
  8
AM_VIS
100
AcDbLine
 10
1349.416988845768
 20
993.5193781689038
 30
0.0
 11
1349.416988845768
 21
1022.519378168904
 31
0.0
  0
LINE
  5
535
330
1F
100
AcDbEntity
  8
AM_VIS
100
AcDbLine
 10
1350.416988845769
 20
1022.519378168904
 30
0.0
 11
1349.416988845768
 21
1022.519378168904
 31
0.0
  0
LINE
  5
536
330
1F
100
AcDbEntity
  8
AM_VIS
100
AcDbLine
 10
1341.416988845768
 20
1020.819378168904
 30
0.0
 11
1318.416988845769
 21
1020.819378168904
 31
0.0
  0
LINE
  5
537
330
1F
100
AcDbEntity
  8
AM_VIS
100
AcDbLine
 10
1341.416988845768
 20
995.2193781689038
 30
0.0
 11
1318.416988845769
 21
995.2193781689038
 31
0.0
  0
LINE
  5
538
330
1F
100
AcDbEntity
  8
AM_VIS
100
AcDbLine
 10
1318.416988845769
 20
1008.019378168904
 30
0.0
 11
1318.416988845769
 21
995.2193781689038
 31
0.0
  0
LINE
  5
539
330
1F
100
AcDbEntity
  8
AM_VIS
100
AcDbLine
 10
1318.416988845769
 20
1020.819378168904
 30
0.0
 11
1318.416988845769
 21
1008.019378168904
 31
0.0
  0
LINE
  5
53A
330
1F
100
AcDbEntity
  8
AM_VIS
100
AcDbLine
 10
1324.548186692252
 20
1016.019378168904
 30
0.0
 11
1333.785790999286
 21
1016.019378168904
 31
0.0
  0
LINE
  5
53B
330
1F
100
AcDbEntity
  8
AM_VIS
100
AcDbLine
 10
1319.929384538734
 20
1008.019378168904
 30
0.0
 11
1324.548186692252
 21
1016.019378168904
 31
0.0
  0
LINE
  5
53C
330
1F
100
AcDbEntity
  8
AM_VIS
100
AcDbLine
 10
1324.548186692252
 20
1000.019378168904
 30
0.0
 11
1319.929384538734
 21
1008.019378168904
 31
0.0
  0
LINE
  5
53D
330
1F
100
AcDbEntity
  8
AM_VIS
100
AcDbLine
 10
1333.785790999286
 20
1000.019378168904
 30
0.0
 11
1324.548186692252
 21
1000.019378168904
 31
0.0
  0
LINE
  5
53E
330
1F
100
AcDbEntity
  8
AM_VIS
100
AcDbLine
 10
1338.404593152803
 20
1008.019378168904
 30
0.0
 11
1333.785790999286
 21
1000.019378168904
 31
0.0
  0
LINE
  5
53F
330
1F
100
AcDbEntity
  8
AM_VIS
100
AcDbLine
 10
1333.785790999286
 20
1016.019378168904
 30
0.0
 11
1338.404593152803
 21
1008.019378168904
 31
0.0
  0
LINE
  5
540
330
1F
100
AcDbEntity
  8
AM_VIS
100
AcDbLine
 10
1375.509665231705
 20
1024.519378168904
 30
0.0
 11
1367.324312459832
 21
1024.519378168904
 31
0.0
  0
LINE
  5
541
330
1F
100
AcDbEntity
  8
AM_VIS
100
AcDbLine
 10
1363.911435346303
 20
1021.019378168904
 30
0.0
 11
1378.922542345234
 21
1021.019378168904
 31
0.0
  0
LINE
  5
542
330
1F
100
AcDbEntity
  8
AM_VIS
100
AcDbLine
 10
1356.405881846838
 20
1008.019378168904
 30
0.0
 11
1363.911435346303
 21
1021.019378168904
 31
0.0
  0
LINE
  5
543
330
1F
100
AcDbEntity
  8
AM_VIS
100
AcDbLine
 10
1363.911435346303
 20
995.0193781689039
 30
0.0
 11
1356.405881846838
 21
1008.019378168904
 31
0.0
  0
LINE
  5
544
330
1F
100
AcDbEntity
  8
AM_VIS
100
AcDbLine
 10
1378.922542345234
 20
995.0193781689039
 30
0.0
 11
1363.911435346303
 21
995.0193781689039
 31
0.0
  0
LINE
  5
545
330
1F
100
AcDbEntity
  8
AM_VIS
100
AcDbLine
 10
1386.428095844699
 20
1008.019378168904
 30
0.0
 11
1378.922542345234
 21
995.0193781689039
 31
0.0
  0
LINE
  5
546
330
1F
100
AcDbEntity
  8
AM_VIS
100
AcDbLine
 10
1378.922542345234
 20
1021.019378168904
 30
0.0
 11
1386.428095844699
 21
1008.019378168904
 31
0.0
  0
LINE
  5
547
330
1F
100
AcDbEntity
  8
AM_VIS
100
AcDbLine
 10
1341.416988845768
 20
993.7193781689039
 30
0.0
 11
1341.416988845768
 21
994.7193781689039
 31
0.0
  0
LINE
  5
548
330
1F
100
AcDbEntity
  8
AM_VIS
100
AcDbLine
 10
1341.416988845768
 20
1021.319378168904
 30
0.0
 11
1341.416988845768
 21
1022.319378168904
 31
0.0
  0
CIRCLE
  5
549
330
1F
100
AcDbEntity
  8
AM_VIS
100
AcDbCircle
 10
1329.166988845768
 20
1008.019378168904
 30
0.0
 40
10.75
  0
CIRCLE
  5
54A
330
1F
100
AcDbEntity
  8
AM_VIS
100
AcDbCircle
 10
1329.166988845768
 20
1008.019378168904
 30
0.0
 40
5.0
  0
ARC
  5
54B
330
1F
100
AcDbEntity
  8
AM_VIS
100
AcDbCircle
 10
1371.416988845769
 20
1008.019378168904
 30
0.0
 40
17.0
100
AcDbArc
 50
103.9305545623628
 51
76.06944543763717
  0
CIRCLE
  5
54C
330
1F
100
AcDbEntity
  8
AM_VIS
100
AcDbCircle
 10
1370.916988845769
 20
1008.019378168904
 30
0.0
 40
5.5
  0
LINE
  5
54D
330
1F
100
AcDbEntity
  8
AM_VIS
100
AcDbLine
 10
1454.500897264405
 20
1090.878054066952
 30
0.0
 11
1454.500897264405
 21
1133.878054066952
 31
0.0
  0
LINE
  5
54E
330
1F
100
AcDbEntity
  8
AM_VIS
100
AcDbLine
 10
1425.500897264405
 20
1133.878054066952
 30
0.0
 11
1425.500897264405
 21
1090.878054066952
 31
0.0
  0
LINE
  5
54F
330
1F
100
AcDbEntity
  8
AM_VIS
100
AcDbLine
 10
1454.500897264405
 20
1133.878054066952
 30
0.0
 11
1425.500897264405
 21
1133.878054066952
 31
0.0
  0
LINE
  5
550
330
1F
100
AcDbEntity
  8
AM_VIS
100
AcDbLine
 10
1454.500897264405
 20
1090.878054066952
 30
0.0
 11
1425.500897264405
 21
1090.878054066952
 31
0.0
  0
LINE
  5
551
330
1F
100
AcDbEntity
  8
AM_VIS
100
AcDbLine
 10
1433.21856728128
 20
1084.878054066952
 30
0.0
 11
1433.21856728128
 21
1088.378054066952
 31
0.0
  0
LINE
  5
552
330
1F
100
AcDbEntity
  8
AM_VIS
100
AcDbLine
 10
1433.21856728128
 20
1088.378054066952
 30
0.0
 11
1446.783227247531
 21
1088.378054066952
 31
0.0
  0
LINE
  5
553
330
1F
100
AcDbEntity
  8
AM_VIS
100
AcDbLine
 10
1446.783227247531
 20
1088.378054066952
 30
0.0
 11
1446.783227247531
 21
1084.878054066952
 31
0.0
  0
LINE
  5
554
330
1F
100
AcDbEntity
  8
AM_VIS
100
AcDbLine
 10
1432.000897264405
 20
1079.378054066952
 30
0.0
 11
1432.000897264405
 21
1082.878054066952
 31
0.0
  0
LINE
  5
555
330
1F
100
AcDbEntity
  8
AM_VIS
100
AcDbLine
 10
1448.000897264405
 20
1082.878054066952
 30
0.0
 11
1448.000897264405
 21
1079.378054066952
 31
0.0
  0
LINE
  5
556
330
1F
100
AcDbEntity
  8
AM_VIS
100
AcDbLine
 10
1432.000897264405
 20
1082.878054066952
 30
0.0
 11
1448.000897264405
 21
1082.878054066952
 31
0.0
  0
LINE
  5
557
330
1F
100
AcDbEntity
  8
AM_VIS
100
AcDbLine
 10
1423.500897264405
 20
1082.878054066952
 30
0.0
 11
1423.500897264405
 21
1061.878054066952
 31
0.0
  0
LINE
  5
558
330
1F
100
AcDbEntity
  8
AM_VIS
100
AcDbLine
 10
1453.000897264405
 20
1061.378054066952
 30
0.0
 11
1453.000897264405
 21
1057.878054066952
 31
0.0
  0
LINE
  5
559
330
1F
100
AcDbEntity
  8
AM_VIS
100
AcDbLine
 10
1440.000897264405
 20
1057.878054066952
 30
0.0
 11
1453.000897264405
 21
1057.878054066952
 31
0.0
  0
LINE
  5
55A
330
1F
100
AcDbEntity
  8
AM_VIS
100
AcDbLine
 10
1427.000897264405
 20
1061.378054066952
 30
0.0
 11
1427.000897264405
 21
1057.878054066952
 31
0.0
  0
LINE
  5
55B
330
1F
100
AcDbEntity
  8
AM_VIS
100
AcDbLine
 10
1427.000897264405
 20
1057.878054066952
 30
0.0
 11
1440.000897264405
 21
1057.878054066952
 31
0.0
  0
LINE
  5
55C
330
1F
100
AcDbEntity
  8
AM_VIS
100
AcDbLine
 10
1440.000897264405
 20
1061.378054066952
 30
0.0
 11
1453.000897264405
 21
1061.378054066952
 31
0.0
  0
LINE
  5
55D
330
1F
100
AcDbEntity
  8
AM_VIS
100
AcDbLine
 10
1427.000897264405
 20
1061.378054066952
 30
0.0
 11
1440.000897264405
 21
1061.378054066952
 31
0.0
  0
LINE
  5
55E
330
1F
100
AcDbEntity
  8
AM_VIS
100
AcDbLine
 10
1431.500897264405
 20
1141.803852113693
 30
0.0
 11
1431.500897264405
 21
1156.303852113693
 31
0.0
  0
LINE
  5
55F
330
1F
100
AcDbEntity
  8
AM_VIS
100
AcDbLine
 10
1440.000897264405
 20
1156.303852113693
 30
0.0
 11
1431.500897264405
 21
1156.303852113693
 31
0.0
  0
LINE
  5
560
330
1F
100
AcDbEntity
  8
AM_VIS
100
AcDbLine
 10
1448.500897264405
 20
1141.803852113693
 30
0.0
 11
1448.500897264405
 21
1156.303852113693
 31
0.0
  0
LINE
  5
561
330
1F
100
AcDbEntity
  8
AM_VIS
100
AcDbLine
 10
1448.500897264405
 20
1156.303852113693
 30
0.0
 11
1440.000897264405
 21
1156.303852113693
 31
0.0
  0
LINE
  5
562
330
1F
100
AcDbEntity
  8
AM_VIS
100
AcDbLine
 10
1440.000897264405
 20
1141.803852113693
 30
0.0
 11
1431.500897264405
 21
1141.803852113693
 31
0.0
  0
LINE
  5
563
330
1F
100
AcDbEntity
  8
AM_VIS
100
AcDbLine
 10
1448.500897264405
 20
1141.803852113693
 30
0.0
 11
1440.000897264405
 21
1141.803852113693
 31
0.0
  0
LINE
  5
564
330
1F
100
AcDbEntity
  8
AM_VIS
100
AcDbLine
 10
1429.250897264405
 20
1090.878054066952
 30
0.0
 11
1429.250897264405
 21
1090.378054066952
 31
0.0
  0
LINE
  5
565
330
1F
100
AcDbEntity
  8
AM_VIS
100
AcDbLine
 10
1450.750897264405
 20
1090.878054066952
 30
0.0
 11
1450.750897264405
 21
1090.378054066952
 31
0.0
  0
LINE
  5
566
330
1F
100
AcDbEntity
  8
AM_VIS
100
AcDbLine
 10
1433.250897264405
 20
1090.378054066952
 30
0.0
 11
1433.250897264405
 21
1088.378054066952
 31
0.0
  0
LINE
  5
567
330
1F
100
AcDbEntity
  8
AM_VIS
100
AcDbLine
 10
1446.750897264405
 20
1090.378054066952
 30
0.0
 11
1446.750897264405
 21
1088.378054066952
 31
0.0
  0
LINE
  5
568
330
1F
100
AcDbEntity
  8
AM_VIS
100
AcDbLine
 10
1433.500897264405
 20
1090.878054066952
 30
0.0
 11
1433.500897264405
 21
1088.378054066952
 31
0.0
  0
LINE
  5
569
330
1F
100
AcDbEntity
  8
AM_VIS
100
AcDbLine
 10
1446.500897264405
 20
1090.878054066952
 30
0.0
 11
1446.500897264405
 21
1088.378054066952
 31
0.0
  0
LINE
  5
56A
330
1F
100
AcDbEntity
  8
AM_VIS
100
AcDbLine
 10
1427.500897264405
 20
1088.378054066952
 30
0.0
 11
1427.500897264405
 21
1082.878054066952
 31
0.0
  0
LINE
  5
56B
330
1F
100
AcDbEntity
  8
AM_VIS
100
AcDbLine
 10
1452.500897264405
 20
1088.378054066952
 30
0.0
 11
1452.500897264405
 21
1082.878054066952
 31
0.0
  0
LINE
  5
56C
330
1F
100
AcDbEntity
  8
AM_VIS
100
AcDbLine
 10
1457.000897264405
 20
1082.878054066952
 30
0.0
 11
1457.000897264405
 21
1061.878054066952
 31
0.0
  0
LINE
  5
56D
330
1F
100
AcDbEntity
  8
AM_VIS
100
AcDbLine
 10
1430.000897264405
 20
1061.878054066952
 30
0.0
 11
1430.000897264405
 21
1061.378054066952
 31
0.0
  0
LINE
  5
56E
330
1F
100
AcDbEntity
  8
AM_VIS
100
AcDbLine
 10
1450.000897264405
 20
1061.878054066952
 30
0.0
 11
1450.000897264405
 21
1061.378054066952
 31
0.0
  0
LINE
  5
56F
330
1F
100
AcDbEntity
  8
AM_VIS
100
AcDbLine
 10
1446.500897264405
 20
1133.878054066952
 30
0.0
 11
1446.500897264405
 21
1137.378054066952
 31
0.0
  0
LINE
  5
570
330
1F
100
AcDbEntity
  8
AM_VIS
100
AcDbLine
 10
1433.500897264405
 20
1133.878054066952
 30
0.0
 11
1433.500897264405
 21
1137.378054066952
 31
0.0
  0
LINE
  5
571
330
1F
100
AcDbEntity
  8
AM_VIS
100
AcDbLine
 10
1448.000897264405
 20
1138.803852113693
 30
0.0
 11
1448.000897264405
 21
1141.803852113693
 31
0.0
  0
LINE
  5
572
330
1F
100
AcDbEntity
  8
AM_VIS
100
AcDbLine
 10
1432.000897264405
 20
1138.803852113693
 30
0.0
 11
1432.000897264405
 21
1141.803852113693
 31
0.0
  0
LINE
  5
573
330
1F
100
AcDbEntity
  8
AM_VIS
100
AcDbLine
 10
1450.750897264405
 20
1090.378054066952
 30
0.0
 11
1446.500897264405
 21
1090.378054066952
 31
0.0
  0
LINE
  5
574
330
1F
100
AcDbEntity
  8
AM_VIS
100
AcDbLine
 10
1433.500897264405
 20
1090.378054066952
 30
0.0
 11
1429.250897264405
 21
1090.378054066952
 31
0.0
  0
LINE
  5
575
330
1F
100
AcDbEntity
  8
AM_VIS
100
AcDbLine
 10
1427.500897264405
 20
1088.378054066952
 30
0.0
 11
1433.21856728128
 21
1088.378054066952
 31
0.0
  0
LINE
  5
576
330
1F
100
AcDbEntity
  8
AM_VIS
100
AcDbLine
 10
1446.783227247531
 20
1088.378054066952
 30
0.0
 11
1452.500897264405
 21
1088.378054066952
 31
0.0
  0
LINE
  5
577
330
1F
100
AcDbEntity
  8
AM_VIS
100
AcDbLine
 10
1433.21856728128
 20
1084.878054066952
 30
0.0
 11
1446.783227247531
 21
1084.878054066952
 31
0.0
  0
LINE
  5
578
330
1F
100
AcDbEntity
  8
AM_VIS
100
AcDbLine
 10
1457.000897264405
 20
1061.878054066952
 30
0.0
 11
1423.500897264405
 21
1061.878054066952
 31
0.0
  0
LINE
  5
579
330
1F
100
AcDbEntity
  8
AM_VIS
100
AcDbLine
 10
1432.000897264405
 20
1079.378054066952
 30
0.0
 11
1448.000897264405
 21
1079.378054066952
 31
0.0
  0
LINE
  5
57A
330
1F
100
AcDbEntity
  8
AM_VIS
100
AcDbLine
 10
1448.000897264405
 20
1082.878054066952
 30
0.0
 11
1457.000897264405
 21
1082.878054066952
 31
0.0
  0
LINE
  5
57B
330
1F
100
AcDbEntity
  8
AM_VIS
100
AcDbLine
 10
1423.500897264405
 20
1082.878054066952
 30
0.0
 11
1432.000897264405
 21
1082.878054066952
 31
0.0
  0
LINE
  5
57C
330
1F
100
AcDbEntity
  8
AM_VIS
100
AcDbLine
 10
1433.500897264405
 20
1137.378054066952
 30
0.0
 11
1446.500897264405
 21
1137.378054066952
 31
0.0
  0
LINE
  5
57D
330
1F
100
AcDbEntity
  8
AM_VIS
100
AcDbLine
 10
1448.000897264405
 20
1138.803852113693
 30
0.0
 11
1432.000897264405
 21
1138.803852113693
 31
0.0
  0
ARC
  5
57E
330
1F
100
AcDbEntity
  8
AM_VIS
100
AcDbCircle
 10
1434.250897264405
 20
1138.128054066952
 30
0.0
 40
0.75
100
AcDbArc
 50
115.7017121122465
 51
270.0
  0
ARC
  5
57F
330
1F
100
AcDbEntity
  8
AM_VIS
100
AcDbCircle
 10
1445.750897264405
 20
1138.128054066952
 30
0.0
 40
0.75
100
AcDbArc
 50
270.0
 51
64.29828788775345
  0
DIMENSION
  5
580
330
1F
100
AcDbEntity
  8
0
100
AcDbDimension
  2
*D14
 10
1318.416988845769
 20
1162.167154072053
 30
0.0
 11
1344.916988845769
 21
1164.667154072053
 31
0.0
 70
    32
 71
     5
 42
53.0
  3
STANDARD
100
AcDbAlignedDimension
 13
1371.416988845769
 23
1155.801751137063
 33
0.0
 14
1318.416988845769
 24
1131.728054066952
 34
0.0
100
AcDbRotatedDimension
1001
ACAD
1000
DSTYLE
1002
{
1070
   176
1070
     5
1070
   177
1070
     5
1070
   178
1070
     5
1070
   272
1070
     8
1002
}
  0
LINE
  5
581
330
1F
100
AcDbEntity
  8
0
100
AcDbLine
 10
1367.043883220151
 20
1183.443127464987
 30
0.0
 11
1375.290094471386
 21
1183.443127464987
 31
0.0
  0
TEXT
  5
582
330
1F
100
AcDbEntity
  8
LOGO
 62
     7
100
AcDbText
 10
1284.255825994919
 20
960.121886334875
 30
0.0
 40
3.871439348416289
  1
Order example:
 41
0.8
  7
CHINESET
100
AcDbText
  0
TEXT
  5
583
330
1F
100
AcDbEntity
  8
LOGO
 62
     7
100
AcDbText
 10
1284.950394229526
 20
965.5720713457
 30
0.0
 40
5.807159022624434
  1
訂購代號：
  7
CHINESET
100
AcDbText
  0
LINE
  5
584
330
1F
100
AcDbEntity
  8
LOGO
 62
     4
100
AcDbLine
 10
1493.599971356923
 20
972.8419740876606
 30
0.0
 11
1218.694923217996
 21
972.8419740876606
 31
0.0
  0
LINE
  5
585
330
1F
100
AcDbEntity
  8
LOGO
 62
     4
100
AcDbLine
 10
1282.573672466865
 20
943.8061789745379
 30
0.0
 11
1282.573672466865
 21
972.8419740876606
 31
0.0
  0
TEXT
  5
586
330
1F
100
AcDbEntity
  8
LOGO
  6
Continuous
100
AcDbText
 10
1229.124711341054
 20
949.5102171056755
 30
0.0
 40
4.355369266968326
  1
金器工業股份有限公司
  7
CHINESET
100
AcDbText
  0
TEXT
  5
587
330
1F
100
AcDbEntity
  8
LOGO
  6
Continuous
100
AcDbText
 10
1221.124759664949
 20
945.1539945278049
 30
0.0
 40
2.903579511312217
  1
MINDMAN INDUSTRIAL CO., LTD.
 41
0.85
  7
CHINESET
100
AcDbText
  0
LINE
  5
588
330
1F
100
AcDbEntity
  8
LOGO
 62
     4
100
AcDbLine
 10
1282.573672466865
 20
967.0348150650358
 30
0.0
 11
1239.987839634285
 21
967.0348150650358
 31
0.0
  0
LINE
  5
589
330
1F
100
AcDbEntity
  8
LOGO
 62
     4
100
AcDbLine
 10
1282.573672466865
 20
961.2276560424117
 30
0.0
 11
1239.987839634285
 21
961.2276560424117
 31
0.0
  0
LINE
  5
58A
330
1F
100
AcDbEntity
  8
LOGO
 62
     4
100
AcDbLine
 10
1282.573672466865
 20
955.4204970197874
 30
0.0
 11
1218.694923217996
 21
955.4204970197874
 31
0.0
  0
LINE
  5
58B
330
1F
100
AcDbEntity
  8
LOGO
 62
     4
100
AcDbLine
 10
1239.987839634285
 20
955.4204970197874
 30
0.0
 11
1239.987839634285
 21
972.8419740876606
 31
0.0
  0
TEXT
  5
58C
330
1F
100
AcDbEntity
  8
LOGO
100
AcDbText
 10
1269.09324635466
 20
956.8722867754431
 30
0.0
 40
2.903579511312217
  1
mm
  7
CHINESET
 72
     1
 11
1272.688154321046
 21
958.3240765310993
 31
0.0
100
AcDbText
 73
     2
  0
TEXT
  5
58D
330
1F
100
AcDbEntity
  8
LOGO
100
AcDbText
 10
1267.572323753496
 20
968.486604820692
 30
0.0
 40
2.903579511312217
  1
1 : 1
  7
CHINESET
 72
     1
 11
1272.688154321046
 21
969.9383945763482
 31
0.0
100
AcDbText
 73
     2
  0
LINE
  5
58E
330
1F
100
AcDbEntity
  8
LOGO
 62
     4
100
AcDbLine
 10
1263.216475724783
 20
955.4204970197874
 30
0.0
 11
1263.216475724783
 21
972.8419740876606
 31
0.0
  0
TEXT
  5
58F
330
1F
100
AcDbEntity
  8
LOGO
100
AcDbText
 10
1242.381996490265
 20
968.4880337476169
 30
190.2958178035923
 40
2.903579511312217
  1
比例 Scale:
 41
0.9
  7
CHINESET
 72
     4
 11
1251.602157679534
 21
969.9383945763482
 31
190.2958178035923
100
AcDbText
  0
TEXT
  5
590
330
1F
100
AcDbEntity
  8
LOGO
100
AcDbText
 10
1242.214781420193
 20
962.7202892926694
 30
190.2958178035923
 40
2.903579511312217
  1
投影  View:
 41
0.9
  7
CHINESET
 72
     4
 11
1251.602157679534
 21
964.1312355537234
 31
190.2958178035923
100
AcDbText
  0
TEXT
  5
591
330
1F
100
AcDbEntity
  8
LOGO
100
AcDbText
 10
1242.498658167058
 20
956.8722867754431
 30
190.2958178035923
 40
2.903579511312217
  1
單位  Unit:
 41
0.9
  7
CHINESET
 72
     4
 11
1251.602157679534
 21
958.3240765310993
 31
190.2958178035923
100
AcDbText
  0
LWPOLYLINE
  5
592
330
1F
100
AcDbEntity
  8
LOGO
 62
     4
100
AcDbPolyline
 90
        4
 70
     1
 43
0.0
 10
1218.694923217996
 20
972.8419740876606
 10
1493.599971356923
 20
972.8419740876606
 10
1493.599971356923
 20
1234.206178974537
 10
1218.694923217996
 20
1234.206178974537
1001
GENIUS_GENREC_14
1002
{
1000
PYDIR
1011
1218.694923217996
1021
1234.206178974537
1031
0.0
1002
}
1002
{
1000
PXDIR
1011
1493.599971356923
1021
972.8419740876606
1031
0.0
1002
}
1002
{
1000
PORI
1011
1218.694923217996
1021
972.8419740876606
1031
0.0
1002
}
1002
{
1000
PINS
1011
1218.694923217996
1021
972.8419740876606
1031
0.0
1002
}
1002
{
1000
PINS2
1011
1493.599971356923
1021
1234.206178974537
1031
0.0
1002
}
1002
{
1000
C
1070
     1
1002
}
1001
GENIUS_GENODEF_13
1002
{
1000
HIER
1070
     0
1002
}
1002
{
1000
MANEDIT
1070
     0
1002
}
1002
{
1000
NOSEL
1070
     0
1002
}
1002
{
1000
BEHIND
1070
     0
1002
}
1002
{
1000
OTHER
1070
     0
1002
}
1002
{
1000
REACTOR
1002
}
1001
GENIUS_GENOBJ-N-REC_13
1002
{
1000
OWNER
1000
GEN
1002
}
  0
SOLID
  5
593
330
1F
100
AcDbEntity
  8
LOGO
 62
     5
100
AcDbTrace
 10
1221.707433559889
 20
960.247284665345
 30
0.0
 11
1222.962865150654
 21
960.247284665345
 31
0.0
 12
1228.201045236259
 22
972.1522394053588
 32
0.0
 13
1229.456476827025
 23
972.1522394053581
 33
0.0
  0
SOLID
  5
594
330
1F
100
AcDbEntity
  8
LOGO
 62
     5
100
AcDbTrace
 10
1223.482354084765
 20
960.247284665345
 30
0.0
 11
1224.73778567553
 21
960.247284665345
 31
0.0
 12
1229.456476827025
 22
971.1998430261571
 32
0.0
 13
1228.201045236259
 23
966.5965938600187
 33
0.0
  0
SOLID
  5
595
330
1F
100
AcDbEntity
  8
LOGO
 62
     2
100
AcDbTrace
 10
1222.962865150654
 20
960.247284665345
 30
0.0
 11
1223.482354084765
 21
960.247284665345
 31
0.0
 12
1229.456476827025
 22
972.1522394053581
 32
0.0
 13
1229.975965761135
 23
972.1522394053581
 33
0.0
  0
SOLID
  5
596
330
1F
100
AcDbEntity
  8
LOGO
 62
     5
100
AcDbTrace
 10
1219.694668850354
 20
955.9182102144317
 30
0.0
 11
1220.127576295446
 21
955.9182102144317
 31
0.0
 12
1221.346677355646
 22
958.0827474398883
 32
0.0
 13
1221.779584800737
 23
958.0827474398883
 33
0.0
  0
SOLID
  5
597
330
1F
100
AcDbEntity
  8
LOGO
 62
     5
100
AcDbTrace
 10
1221.346677355646
 20
958.0827474398883
 30
0.0
 11
1221.779584800737
 21
958.0827474398883
 31
0.0
 12
1221.346677355646
 22
955.9182102144317
 32
0.0
 13
1221.779584800737
 23
955.9182102144317
 33
0.0
  0
SOLID
  5
598
330
1F
100
AcDbEntity
  8
LOGO
 62
     5
100
AcDbTrace
 10
1221.346677355646
 20
955.9182102144317
 30
0.0
 11
1221.779584800737
 21
955.9182102144317
 31
0.0
 12
1222.998685860939
 22
958.0827474398883
 32
0.0
 13
1223.43159330603
 23
958.0827474398883
 33
0.0
  0
SOLID
  5
599
330
1F
100
AcDbEntity
  8
LOGO
 62
     5
100
AcDbTrace
 10
1222.998685860939
 20
958.0827474398883
 30
0.0
 11
1223.43159330603
 21
958.0827474398883
 31
0.0
 12
1222.998685860939
 22
955.9182102144317
 32
0.0
 13
1223.43159330603
 23
955.9182102144317
 33
0.0
  0
POLYLINE
  5
59A
330
1F
100
AcDbEntity
  8
LOGO
 62
     5
100
AcDb2dPolyline
 66
     1
 10
0.0
 20
0.0
 30
0.0
 40
0.4336012070226245
 41
0.4336012070226245
  0
VERTEX
  5
59B
330
59A
100
AcDbEntity
  8
LOGO
 62
     5
100
AcDbVertex
100
AcDb2dVertex
 10
1237.509595948622
 20
957.2169325497053
 30
0.0
 42
1.0
  0
VERTEX
  5
59C
330
59A
100
AcDbEntity
  8
LOGO
 62
     5
100
AcDbVertex
100
AcDb2dVertex
 10
1236.208792327554
 20
957.2169325497053
 30
0.0
 42
1.0
  0
SEQEND
  5
59D
330
59A
100
AcDbEntity
  8
LOGO
 62
     5
  0
POLYLINE
  5
59E
330
1F
100
AcDbEntity
  8
LOGO
 62
     5
100
AcDb2dPolyline
 66
     1
 10
0.0
 20
0.0
 30
0.0
 70
     1
  0
VERTEX
  5
59F
330
59E
100
AcDbEntity
  8
LOGO
 62
     5
100
AcDbVertex
100
AcDb2dVertex
 10
1233.756719642095
 20
957.0004788271596
 30
0.0
 42
1.000000057330635
  0
VERTEX
  5
5A0
330
59E
100
AcDbEntity
  8
LOGO
 62
     5
100
AcDbVertex
100
AcDb2dVertex
 10
1235.05544197737
 20
957.0004788271596
 30
0.0
 42
1.000000057330635
  0
SEQEND
  5
5A1
330
59E
100
AcDbEntity
  8
LOGO
 62
     5
  0
CIRCLE
  5
5A2
330
1F
100
AcDbEntity
  8
LOGO
 62
     5
100
AcDbCircle
 10
1234.406080809733
 20
957.0004788271596
 30
0.0
 40
0.6493611676370826
  0
POLYLINE
  5
5A3
330
1F
100
AcDbEntity
  8
LOGO
 62
     5
100
AcDb2dPolyline
 66
     1
 10
0.0
 20
0.0
 30
0.0
 70
     1
 40
0.4336012070226245
 41
0.4336012070226245
  0
VERTEX
  5
5A4
330
5A3
100
AcDbEntity
  8
LOGO
 62
     5
100
AcDbVertex
100
AcDb2dVertex
 10
1233.538878395688
 20
957.0004788271596
 30
0.0
 42
1.0
  0
VERTEX
  5
5A5
330
5A3
100
AcDbEntity
  8
LOGO
 62
     5
100
AcDbVertex
100
AcDb2dVertex
 10
1235.273283223778
 20
957.0004788271596
 30
0.0
 42
1.0
  0
SEQEND
  5
5A6
330
5A3
100
AcDbEntity
  8
LOGO
 62
     5
  0
LINE
  5
5A7
330
1F
100
AcDbEntity
  8
LOGO
100
AcDbLine
 10
1237.72500902827
 20
955.9182102144317
 30
0.0
 11
1237.72500902827
 21
957.2169325497053
 31
0.0
  0
SOLID
  5
5A8
330
1F
100
AcDbEntity
  8
LOGO
 62
     5
100
AcDbTrace
 10
1235.055398686627
 20
958.0827474398883
 30
0.0
 11
1235.488306131718
 21
958.0827474398883
 31
0.0
 12
1235.055398686627
 22
955.9182102144317
 32
0.0
 13
1235.488306131718
 23
955.9182102144317
 33
0.0
  0
SOLID
  5
5A9
330
1F
100
AcDbEntity
  8
LOGO
 62
     5
100
AcDbTrace
 10
1235.993379247905
 20
955.9182102144317
 30
0.0
 11
1236.426286692997
 21
955.9182102144317
 31
0.0
 12
1235.993379247905
 22
958.0827474398883
 32
0.0
 13
1236.426286692997
 23
958.0827474398883
 33
0.0
  0
SOLID
  5
5AA
330
1F
100
AcDbEntity
  8
LOGO
 62
     5
100
AcDbTrace
 10
1237.29210158318
 20
957.2169325497053
 30
0.0
 11
1237.72500902827
 21
957.2169325497053
 31
0.0
 12
1237.29210158318
 22
955.9182102144317
 32
0.0
 13
1237.72500902827
 23
955.9182102144317
 33
0.0
  0
SOLID
  5
5AB
330
1F
100
AcDbEntity
  8
LOGO
 62
     5
100
AcDbTrace
 10
1235.950088503396
 20
971.1998430261571
 30
0.0
 11
1234.694656912631
 21
966.5965938600187
 31
0.0
 12
1235.950088503396
 22
960.247284665345
 32
0.0
 13
1234.694656912631
 23
960.247284665345
 33
0.0
  0
SOLID
  5
5AC
330
1F
100
AcDbEntity
  8
LOGO
 62
     5
100
AcDbTrace
 10
1236.469577437506
 20
960.247284665345
 30
0.0
 11
1237.72500902827
 21
960.247284665345
 31
0.0
 12
1236.469577437506
 22
972.1522394053581
 32
0.0
 13
1237.72500902827
 23
972.1522394053588
 33
0.0
  0
SOLID
  5
5AD
330
1F
100
AcDbEntity
  8
LOGO
 62
     2
100
AcDbTrace
 10
1235.950088503396
 20
972.1522394053588
 30
0.0
 11
1236.469577437506
 21
972.1522394053581
 31
0.0
 12
1235.950088503396
 22
960.247284665345
 32
0.0
 13
1236.469577437506
 23
960.247284665345
 33
0.0
  0
POLYLINE
  5
5AE
330
1F
100
AcDbEntity
  8
LOGO
 62
     5
100
AcDb2dPolyline
 66
     1
 10
0.0
 20
0.0
 30
0.0
 40
0.4336012070226245
 41
0.4336012070226245
  0
VERTEX
  5
5AF
330
5AE
100
AcDbEntity
  8
LOGO
 62
     5
100
AcDbVertex
100
AcDb2dVertex
 10
1231.30456037515
 20
957.2169325497053
 30
0.0
 42
1.0
  0
VERTEX
  5
5B0
330
5AE
100
AcDbEntity
  8
LOGO
 62
     5
100
AcDbVertex
100
AcDb2dVertex
 10
1230.003756754081
 20
957.2169325497053
 30
0.0
 42
1.0
  0
SEQEND
  5
5B1
330
5AE
100
AcDbEntity
  8
LOGO
 62
     5
  0
POLYLINE
  5
5B2
330
1F
100
AcDbEntity
  8
LOGO
 62
     5
100
AcDb2dPolyline
 66
     1
 10
0.0
 20
0.0
 30
0.0
 40
0.4336012070226245
 41
0.4336012070226245
  0
VERTEX
  5
5B3
330
5B2
100
AcDbEntity
  8
LOGO
 62
     5
100
AcDbVertex
100
AcDb2dVertex
 10
1232.603282710422
 20
957.2169325497053
 30
0.0
 42
1.0
  0
VERTEX
  5
5B4
330
5B2
100
AcDbEntity
  8
LOGO
 62
     5
100
AcDbVertex
100
AcDb2dVertex
 10
1231.302479089355
 20
957.2169325497053
 30
0.0
 42
1.0
  0
SEQEND
  5
5B5
330
5B2
100
AcDbEntity
  8
LOGO
 62
     5
  0
POLYLINE
  5
5B6
330
1F
100
AcDbEntity
  8
LOGO
 62
     5
100
AcDb2dPolyline
 66
     1
 10
0.0
 20
0.0
 30
0.0
 40
0.4336012070226245
 41
0.4336012070226245
  0
VERTEX
  5
5B7
330
5B6
100
AcDbEntity
  8
LOGO
 62
     5
100
AcDbVertex
100
AcDb2dVertex
 10
1226.39824713695
 20
957.2169325497053
 30
0.0
 42
1.0
  0
VERTEX
  5
5B8
330
5B6
100
AcDbEntity
  8
LOGO
 62
     5
100
AcDbVertex
100
AcDb2dVertex
 10
1225.097443515882
 20
957.2169325497053
 30
0.0
 42
1.0
  0
SEQEND
  5
5B9
330
5B6
100
AcDbEntity
  8
LOGO
 62
     5
  0
SOLID
  5
5BA
330
1F
100
AcDbEntity
  8
LOGO
 62
     5
100
AcDbTrace
 10
1224.882030436234
 20
958.0827474398883
 30
0.0
 11
1225.314937881324
 21
958.0827474398883
 31
0.0
 12
1224.882030436234
 22
955.9182102144317
 32
0.0
 13
1225.314937881324
 23
955.9182102144317
 33
0.0
  0
SOLID
  5
5BB
330
1F
100
AcDbEntity
  8
LOGO
 62
     5
100
AcDbTrace
 10
1226.180752771508
 20
957.2169325497053
 30
0.0
 11
1226.6136602166
 21
957.2169325497053
 31
0.0
 12
1226.180752771508
 22
955.9182102144317
 32
0.0
 13
1226.6136602166
 23
955.9182102144317
 33
0.0
  0
POLYLINE
  5
5BC
330
1F
100
AcDbEntity
  8
LOGO
 62
     5
100
AcDb2dPolyline
 66
     1
 10
0.0
 20
0.0
 30
0.0
 70
     1
 40
0.4336012070226245
 41
0.4336012070226245
  0
VERTEX
  5
5BD
330
5BC
100
AcDbEntity
  8
LOGO
 62
     5
100
AcDbVertex
100
AcDb2dVertex
 10
1227.333842822214
 20
957.0004788271596
 30
0.0
 42
1.0
  0
VERTEX
  5
5BE
330
5BC
100
AcDbEntity
  8
LOGO
 62
     5
100
AcDbVertex
100
AcDb2dVertex
 10
1229.068247650305
 20
957.0004788271596
 30
0.0
 42
1.0
  0
SEQEND
  5
5BF
330
5BC
100
AcDbEntity
  8
LOGO
 62
     5
  0
SOLID
  5
5C0
330
1F
100
AcDbEntity
  8
LOGO
 62
     5
100
AcDbTrace
 10
1228.850363113153
 20
958.7321086075258
 30
0.0
 11
1229.283270558244
 21
958.7321086075258
 31
0.0
 12
1228.850363113153
 22
955.9182102144317
 32
0.0
 13
1229.283270558244
 23
955.9182102144317
 33
0.0
  0
SOLID
  5
5C1
330
1F
100
AcDbEntity
  8
LOGO
 62
     5
100
AcDbTrace
 10
1229.788343674433
 20
958.0827474398883
 30
0.0
 11
1230.221251119524
 21
958.0827474398883
 31
0.0
 12
1229.788343674433
 22
955.9182102144317
 32
0.0
 13
1230.221251119524
 23
955.9182102144317
 33
0.0
  0
SOLID
  5
5C2
330
1F
100
AcDbEntity
  8
LOGO
 62
     5
100
AcDbTrace
 10
1231.087066009706
 20
957.2169325497053
 30
0.0
 11
1231.519973454798
 21
957.2169325497053
 31
0.0
 12
1231.087066009706
 22
955.9182102144317
 32
0.0
 13
1231.519973454798
 23
955.9182102144317
 33
0.0
  0
SOLID
  5
5C3
330
1F
100
AcDbEntity
  8
LOGO
 62
     5
100
AcDbTrace
 10
1232.385788344981
 20
957.2169325497053
 30
0.0
 11
1232.818695790072
 21
957.2169325497053
 31
0.0
 12
1232.385788344981
 22
955.918210214431
 32
0.0
 13
1232.818695790072
 23
955.918210214431
 33
0.0
  0
SOLID
  5
5C4
330
1F
100
AcDbEntity
  8
LOGO
 62
     5
100
AcDbTrace
 10
1223.944049874954
 20
958.3857826514524
 30
0.0
 11
1224.376957320046
 21
958.3857826514524
 31
0.0
 12
1223.944049874954
 22
958.7321086075258
 32
0.0
 13
1224.376957320046
 23
958.7321086075258
 33
0.0
  0
SOLID
  5
5C5
330
1F
100
AcDbEntity
  8
LOGO
 62
     5
100
AcDbTrace
 10
1223.944049874954
 20
958.0827474398883
 30
0.0
 11
1224.376957320046
 21
958.0827474398883
 31
0.0
 12
1223.944049874954
 22
955.918210214431
 32
0.0
 13
1224.376957320046
 23
955.9182102144317
 33
0.0
  0
SOLID
  5
5C6
330
1F
100
AcDbEntity
  8
LOGO
 62
     5
100
AcDbTrace
 10
1228.201045236259
 20
960.247284665345
 30
0.0
 11
1229.456476827025
 21
960.247284665345
 31
0.0
 12
1228.201045236259
 22
966.5965938600187
 32
0.0
 13
1229.456476827025
 23
971.1998430261571
 33
0.0
  0
SOLID
  5
5C7
330
1F
100
AcDbEntity
  8
LOGO
 62
     5
100
AcDbTrace
 10
1229.975965761135
 20
972.1522394053581
 30
0.0
 11
1231.2313973519
 21
972.1522394053588
 31
0.0
 12
1229.975965761135
 22
961.1996810445459
 32
0.0
 13
1231.2313973519
 23
965.8029302106843
 33
0.0
  0
SOLID
  5
5C8
330
1F
100
AcDbEntity
  8
LOGO
 62
     2
100
AcDbTrace
 10
1229.456476827025
 20
972.1522394053581
 30
0.0
 11
1229.975965761135
 21
972.1522394053581
 31
0.0
 12
1229.456476827025
 22
960.247284665345
 32
0.0
 13
1229.975965761135
 23
960.247284665345
 33
0.0
  0
SOLID
  5
5C9
330
1F
100
AcDbEntity
  8
LOGO
 62
     5
100
AcDbTrace
 10
1229.975965761135
 20
961.1996810445459
 30
0.0
 11
1231.2313973519
 21
965.8029302106843
 31
0.0
 12
1235.950088503396
 22
972.1522394053588
 32
0.0
 13
1234.694656912631
 23
972.1522394053588
 33
0.0
  0
SOLID
  5
5CA
330
1F
100
AcDbEntity
  8
LOGO
 62
     5
100
AcDbTrace
 10
1229.975965761135
 20
960.247284665345
 30
0.0
 11
1231.2313973519
 21
960.247284665345
 31
0.0
 12
1235.950088503396
 22
971.1998430261571
 32
0.0
 13
1234.694656912631
 23
966.5965938600187
 33
0.0
  0
SOLID
  5
5CB
330
1F
100
AcDbEntity
  8
LOGO
 62
     2
100
AcDbTrace
 10
1229.456476827025
 20
960.247284665345
 30
0.0
 11
1229.975965761135
 21
960.247284665345
 31
0.0
 12
1235.950088503396
 22
972.1522394053588
 32
0.0
 13
1236.469577437506
 23
972.1522394053581
 33
0.0
  0
LWPOLYLINE
  5
5CC
330
1F
100
AcDbEntity
  8
LOGO
 62
     4
100
AcDbPolyline
 90
        4
 70
     1
 43
0.0
 10
1218.694923217996
 20
972.8419740876606
 10
1493.599971356923
 20
972.8419740876606
 10
1493.599971356923
 20
943.8061789745379
 10
1218.694923217996
 20
943.8061789745379
1001
GENIUS_GENREC_14
1002
{
1000
PYDIR
1011
1218.694923217996
1021
943.8061789745379
1031
0.0
1002
}
1002
{
1000
PXDIR
1011
1493.599971356923
1021
972.8419740876606
1031
0.0
1002
}
1002
{
1000
PORI
1011
1218.694923217996
1021
972.8419740876606
1031
0.0
1002
}
1002
{
1000
PINS
1011
1218.694923217996
1021
972.8419740876606
1031
0.0
1002
}
1002
{
1000
PINS2
1011
1493.599971356923
1021
943.8061789745379
1031
0.0
1002
}
1002
{
1000
C
1070
     1
1002
}
1001
GENIUS_GENOBJ-N-REC_13
1002
{
1000
OWNER
1000
GEN
1002
}
1001
GENIUS_GENODEF_13
1002
{
1000
HIER
1070
     0
1002
}
1002
{
1000
MANEDIT
1070
     0
1002
}
1002
{
1000
NOSEL
1070
     0
1002
}
1002
{
1000
BEHIND
1070
     0
1002
}
1002
{
1000
OTHER
1070
     0
1002
}
1002
{
1000
REACTOR
1002
}
  0
TEXT
  5
5CD
330
1F
100
AcDbEntity
  8
LOGO
100
AcDbText
 10
1284.161002145342
 20
945.3508718143117
 30
0.0
 40
2.904
  1
10603201
 41
0.7
  7
CHINESET
 72
     1
 11
1290.985402145342
 21
945.3508718143117
 31
0.0
100
AcDbText
  0
LINE
  5
5CE
330
1F
100
AcDbEntity
  8
LOGO
 62
     4
100
AcDbLine
 10
1299.997672466863
 20
949.6133379971634
 30
0.0
 11
1299.997672466864
 21
943.8061789745386
 31
0.0
  0
LINE
  5
5CF
330
1F
100
AcDbEntity
  8
LOGO
 62
     4
100
AcDbLine
 10
1299.997672466863
 20
949.6133379971634
 30
0.0
 11
1282.573672466865
 21
949.6133379971634
 31
0.0
  0
CIRCLE
  5
5D0
330
1F
100
AcDbEntity
  8
LOGO
  6
Continuous
100
AcDbCircle
 10
1268.592816363962
 20
964.1374463315466
 30
0.0
 40
1.685886606825557
  0
CIRCLE
  5
5D1
330
1F
100
AcDbEntity
  8
LOGO
  6
Continuous
100
AcDbCircle
 10
1268.592816363962
 20
964.1374463315466
 30
0.0
 40
0.9877803085024472
  0
LINE
  5
5D2
330
1F
100
AcDbEntity
  8
LOGO
100
AcDbLine
 10
1279.187123423263
 20
962.4515597247206
 30
0.0
 11
1279.187123423263
 21
965.8233329383724
 31
0.0
  0
LINE
  5
5D3
330
1F
100
AcDbEntity
  8
LOGO
100
AcDbLine
 10
1273.901965685374
 20
963.1496660230439
 30
0.0
 11
1273.901965685374
 21
965.1252266400492
 31
0.0
  0
LINE
  5
5D4
330
1F
100
AcDbEntity
  8
LOGO
  6
Continuous
100
AcDbLine
 10
1273.901965685374
 20
965.1252266400492
 30
0.0
 11
1279.187123423263
 21
965.8233329383724
 31
0.0
  0
LINE
  5
5D5
330
1F
100
AcDbEntity
  8
LOGO
  6
Continuous
100
AcDbLine
 10
1273.901965685374
 20
963.1496660230439
 30
0.0
 11
1279.187123423263
 21
962.4515597247206
 31
0.0
  0
LINE
  5
5D6
330
1F
100
AcDbEntity
  8
LOGO
  6
AM_ISO08W050x2
 48
0.3
100
AcDbLine
 10
1266.268796432289
 20
964.1374463315466
 30
0.0
 11
1270.916836295635
 21
964.1374463315466
 31
0.0
1001
GENIUS_GENOREF_13
1005
5F7
  0
LINE
  5
5D7
330
1F
100
AcDbEntity
  8
LOGO
  6
AM_ISO08W050x2
 48
0.3
100
AcDbLine
 10
1268.592816363962
 20
961.8134263998735
 30
0.0
 11
1268.592816363962
 21
966.4614662632196
 31
0.0
1001
GENIUS_GENOREF_13
1005
5F6
  0
LINE
  5
5D8
330
1F
100
AcDbEntity
  8
LOGO
  6
CENTER
 48
0.5
100
AcDbLine
 10
1273.479299966615
 20
964.1374463315466
 30
0.0
 11
1279.71932169853
 21
964.1374463315466
 31
0.0
1001
GENIUS_GENOREF_13
1005
5F5
  0
LINE
  5
5D9
330
1F
100
AcDbEntity
  8
LOGO
 62
     4
100
AcDbLine
 10
1343.773625996399
 20
956.8722867754441
 30
0.0
 11
1343.773625996399
 21
946.2258285672985
 31
0.0
  0
LINE
  5
5DA
330
1F
100
AcDbEntity
  8
LOGO
 62
     4
100
AcDbLine
 10
1324.416429254317
 20
956.8722867754441
 30
0.0
 11
1324.416429254317
 21
946.2258285672985
 31
0.0
  0
LINE
  5
5DB
330
1F
100
AcDbEntity
  8
LOGO
 62
     4
100
AcDbLine
 10
1343.773625996399
 20
946.2258285672985
 30
0.0
 11
1324.416429254317
 21
946.2258285672985
 31
0.0
  0
LINE
  5
5DC
330
1F
100
AcDbEntity
  8
LOGO
 62
     4
100
AcDbLine
 10
1345.576805220271
 20
969.9383945763482
 30
0.0
 11
1322.511119970957
 21
969.9383945763482
 31
0.0
  0
LINE
  5
5DD
330
1F
100
AcDbEntity
  8
LOGO
 62
     4
100
AcDbLine
 10
1345.576805220271
 20
961.227656042412
 30
0.0
 11
1322.511119970957
 21
961.227656042412
 31
0.0
  0
LINE
  5
5DE
330
1F
100
AcDbEntity
  8
LOGO
 62
     4
100
AcDbLine
 10
1322.511119970957
 20
969.9383945763482
 30
0.0
 11
1322.511119970957
 21
961.227656042412
 31
0.0
  0
LINE
  5
5DF
330
1F
100
AcDbEntity
  8
LOGO
 62
     4
100
AcDbLine
 10
1345.576805220271
 20
969.9383945763482
 30
0.0
 11
1345.576805220271
 21
961.227656042412
 31
0.0
  0
LINE
  5
5E0
330
1F
100
AcDbEntity
  8
LOGO
 62
     4
100
AcDbLine
 10
1333.199677819197
 20
961.227656042412
 30
0.0
 11
1333.199677819197
 21
956.8722867754441
 31
0.0
  0
LINE
  5
5E1
330
1F
100
AcDbEntity
  8
LOGO
 62
     4
100
AcDbLine
 10
1343.773625996399
 20
956.8722867754441
 30
0.0
 11
1324.416429254317
 21
956.8722867754441
 31
0.0
  0
TEXT
  5
5E2
330
1F
100
AcDbEntity
  8
LOGO
  6
Continuous
100
AcDbText
 10
1330.628092404898
 20
947.7285535670393
 30
190.2958178035923
 40
2.177999999999999
  1
Model
 41
0.8
  7
CHINESET
100
AcDbText
  0
TEXT
  5
5E3
330
1F
100
AcDbEntity
  8
LOGO
100
AcDbText
 10
1330.048379607324
 20
951.7660961745379
 30
190.2958178035923
 40
3.63
  1
型號
  7
CHINESET
100
AcDbText
  0
LINE
  5
5E4
330
1F
100
AcDbEntity
  8
LOGO
  6
Continuous
 62
     7
100
AcDbLine
 10
1346.502828719691
 20
965.5521704968712
 30
0.0
 11
1350.349173015551
 21
965.5521704968712
 31
0.0
  0
LINE
  5
5E5
330
1F
100
AcDbEntity
  8
LOGO
 62
     4
100
AcDbLine
 10
1349.732331874996
 20
956.8722867754441
 30
0.0
 11
1349.732331874996
 21
946.2258285672985
 31
0.0
  0
LINE
  5
5E6
330
1F
100
AcDbEntity
  8
LOGO
 62
     4
100
AcDbLine
 10
1364.362780379403
 20
946.2258285672985
 30
0.0
 11
1349.732331874996
 21
946.2258285672985
 31
0.0
  0
LINE
  5
5E7
330
1F
100
AcDbEntity
  8
LOGO
 62
     4
100
AcDbLine
 10
1362.779850926078
 20
969.9383945763482
 30
0.0
 11
1351.562491887988
 21
969.9383945763482
 31
0.0
  0
LINE
  5
5E8
330
1F
100
AcDbEntity
  8
LOGO
 62
     4
100
AcDbLine
 10
1362.779850926078
 20
961.227656042412
 30
0.0
 11
1351.562491887988
 21
961.227656042412
 31
0.0
  0
LINE
  5
5E9
330
1F
100
AcDbEntity
  8
LOGO
 62
     4
100
AcDbLine
 10
1351.562491887988
 20
969.9383945763482
 30
0.0
 11
1351.562491887988
 21
961.227656042412
 31
0.0
  0
LINE
  5
5EA
330
1F
100
AcDbEntity
  8
LOGO
 62
     4
100
AcDbLine
 10
1362.779850926078
 20
969.9383945763482
 30
0.0
 11
1362.779850926078
 21
961.227656042412
 31
0.0
  0
LINE
  5
5EB
330
1F
100
AcDbEntity
  8
LOGO
 62
     4
100
AcDbLine
 10
1357.171171407032
 20
961.227656042412
 30
0.0
 11
1357.171171407032
 21
956.8722867754441
 31
0.0
  0
LINE
  5
5EC
330
1F
100
AcDbEntity
  8
LOGO
 62
     4
100
AcDbLine
 10
1364.362780379403
 20
956.8722867754441
 30
0.0
 11
1349.732331874996
 21
956.8722867754441
 31
0.0
  0
TEXT
  5
5ED
330
1F
100
AcDbEntity
  8
LOGO
  6
Continuous
100
AcDbText
 10
1353.959326792829
 20
947.7285535670393
 30
190.2958178035923
 40
2.177999999999999
  1
CODE
 41
0.8
  7
CHINESET
100
AcDbText
  0
TEXT
  5
5EE
330
1F
100
AcDbEntity
  8
LOGO
100
AcDbText
 10
1353.938809278482
 20
951.7660961745379
 30
190.2958178035923
 40
3.63
  1
記號
  7
CHINESET
100
AcDbText
  0
TEXT
  5
5EF
330
1F
100
AcDbEntity
  8
LOGO
100
AcDbText
 10
1328.143070323964
 20
964.2137465512647
 30
190.2958178035923
 40
3.63
  1
MRC
  7
CHINESET
100
AcDbText
  0
TEXT
  5
5F0
330
1F
100
AcDbEntity
  8
LOGO
100
AcDbText
 10
1354.602405619856
 20
964.2137465512647
 30
190.2958178035923
 40
3.63
  1
06
  7
CHINESET
100
AcDbText
  0
LINE
  5
5F1
330
1F
100
AcDbEntity
  8
LOGO
 62
     4
100
AcDbLine
 10
1364.362780379403
 20
956.8722867754441
 30
0.0
 11
1364.362780379403
 21
946.2258285672985
 31
0.0
  0
LEADER
  5
5F2
330
1F
100
AcDbEntity
  8
0
100
AcDbLeader
  3
STANDARD
 76
     3
 10
1371.416988845769
 20
1155.801751137063
 30
0.0
 10
1381.779461320603
 20
1166.862290716948
 30
0.0
 10
1392.541624650107
 20
1166.862290716948
 30
0.0
1001
ACAD
1000
DSTYLE
1002
{
1070
   176
1070
     5
1070
   177
1070
     5
1070
   178
1070
     5
1070
   272
1070
     8
1002
}
  0
DIMENSION
  5
5F3
330
1F
100
AcDbEntity
  8
0
100
AcDbDimension
  2
*D15
 10
1318.416988845769
 20
1223.014669787017
 30
0.0
 11
1353.416988845768
 21
1225.514669787017
 31
0.0
 70
    32
 71
     5
 42
70.0
  3
STANDARD
100
AcDbAlignedDimension
 13
1388.416988845768
 23
1200.193127464986
 33
0.0
 14
1318.416988845769
 24
1212.993127464986
 34
0.0
100
AcDbRotatedDimension
1001
ACAD
1000
DSTYLE
1002
{
1070
   176
1070
     5
1070
   177
1070
     5
1070
   178
1070
     5
1070
   272
1070
     8
1002
}
  0
DIMENSION
  5
5F4
330
1F
100
AcDbEntity
  8
0
100
AcDbDimension
  2
*D16
 10
1397.757142421925
 20
993.5193781689038
 30
0.0
 11
1395.257142421925
 21
1008.019378168904
 31
0.0
 70
    32
 71
     5
 42
29.0
  3
STANDARD
100
AcDbAlignedDimension
 13
1384.916988845768
 23
1022.519378168904
 33
0.0
 14
1384.916988845768
 24
993.5193781689038
 34
0.0
 50
90.0
100
AcDbRotatedDimension
1001
ACAD
1000
DSTYLE
1002
{
1070
   176
1070
     5
1070
   177
1070
     5
1070
   178
1070
     5
1070
   272
1070
     8
1002
}
  0
POINT
  5
5F5
330
1F
100
AcDbEntity
  8
0
 60
     1
100
AcDbPoint
 10
-725.2152793276486
 20
63.35246829205051
 30
0.0
1001
GENIUS_GENOBJ-N-CRS_13
1002
{
1000
OWNER
1000
GEN
1002
}
1001
GENIUS_GENOLIS_13
1002
{
1000
ENT
1005
0
1005
0
1005
0
1005
5D8
1002
}
1001
GENIUS_GENOENT_13
1002
{
1000
MYREF
1005
5F5
1002
}
1002
{
1000
GRP
1005
0
1002
}
1001
GENIUS_GENODEF_13
1002
{
1000
HIER
1070
    10
1002
}
1002
{
1000
MANEDIT
1070
     1
1002
}
1002
{
1000
NOSEL
1070
     0
1002
}
1002
{
1000
BEHIND
1070
     0
1002
}
1002
{
1000
OTHER
1070
     0
1002
}
1002
{
1000
REACTOR
1002
}
  0
POINT
  5
5F6
330
1F
100
AcDbEntity
  8
0
 60
     1
100
AcDbPoint
 10
-736.5398645505033
 20
72.22805477068675
 30
0.0
1001
GENIUS_GENOBJ-N-CRS_13
1002
{
1000
OWNER
1000
GEN
1002
}
1001
GENIUS_GENOLIS_13
1002
{
1000
ENT
1005
0
1005
0
1005
0
1005
5D7
1002
}
1001
GENIUS_GENOENT_13
1002
{
1000
MYREF
1005
5F6
1002
}
1002
{
1000
GRP
1005
0
1002
}
1001
GENIUS_GENODEF_13
1002
{
1000
HIER
1070
    10
1002
}
1002
{
1000
MANEDIT
1070
     1
1002
}
1002
{
1000
NOSEL
1070
     0
1002
}
1002
{
1000
BEHIND
1070
     0
1002
}
1002
{
1000
OTHER
1070
     0
1002
}
1002
{
1000
REACTOR
1002
}
  0
POINT
  5
5F7
330
1F
100
AcDbEntity
  8
0
 60
     1
100
AcDbPoint
 10
-730.1811908526665
 20
63.35246829205051
 30
0.0
1001
GENIUS_GENOBJ-N-CRS_13
1002
{
1000
OWNER
1000
GEN
1002
}
1001
GENIUS_GENOLIS_13
1002
{
1000
ENT
1005
0
1005
0
1005
0
1005
5D6
1002
}
1001
GENIUS_GENOENT_13
1002
{
1000
MYREF
1005
5F7
1002
}
1002
{
1000
GRP
1005
0
1002
}
1001
GENIUS_GENODEF_13
1002
{
1000
HIER
1070
    10
1002
}
1002
{
1000
MANEDIT
1070
     1
1002
}
1002
{
1000
NOSEL
1070
     0
1002
}
1002
{
1000
BEHIND
1070
     0
1002
}
1002
{
1000
OTHER
1070
     0
1002
}
1002
{
1000
REACTOR
1002
}
  0
ENDSEC
  0
SECTION
  2
OBJECTS
  0
DICTIONARY
  5
C
330
0
100
AcDbDictionary
281
     1
  3
ACAD_COLOR
350
BE
  3
ACAD_GROUP
350
D
  3
ACAD_LAYOUT
350
1A
  3
ACAD_MATERIAL
350
BD
  3
ACAD_MLINESTYLE
350
17
  3
ACAD_PLOTSETTINGS
350
19
  3
ACAD_PLOTSTYLENAME
350
E
  3
ACAD_TABLESTYLE
350
11A
  3
ACDBHEADERROUNDTRIPXREC
350
69B
  3
AcDbVariableDictionary
350
94
  3
AcmDictionary
350
5B
  3
AMG
350
41
  3
AMGSNAPSETTINGS
350
1B8
  3
DWGPROPS
350
69A
  0
DICTIONARY
  5
26B
330
2
100
AcDbDictionary
280
     1
281
     1
  3
ACAD_LAYERSTATES
360
26C
  0
DICTIONARY
  5
8F
330
1F
100
AcDbDictionary
280
     1
281
     1
  0
DICTIONARY
  5
BE
102
{ACAD_REACTORS
330
C
102
}
330
C
100
AcDbDictionary
281
     1
  0
DICTIONARY
  5
D
102
{ACAD_REACTORS
330
C
102
}
330
C
100
AcDbDictionary
281
     1
  0
DICTIONARY
  5
1A
102
{ACAD_REACTORS
330
C
102
}
330
C
100
AcDbDictionary
281
     1
  3
Model
350
22
  3
配置1
350
1E
  3
配置2
350
26
  0
DICTIONARY
  5
BD
102
{ACAD_REACTORS
330
C
102
}
330
C
100
AcDbDictionary
281
     1
  0
DICTIONARY
  5
17
102
{ACAD_REACTORS
330
C
102
}
330
C
100
AcDbDictionary
281
     1
  3
Standard
350
18
  0
DICTIONARY
  5
19
102
{ACAD_REACTORS
330
C
102
}
330
C
100
AcDbDictionary
281
     1
  0
ACDBDICTIONARYWDFLT
  5
E
102
{ACAD_REACTORS
330
C
102
}
330
C
100
AcDbDictionary
281
     1
  3
Normal
350
F
100
AcDbDictionaryWithDefault
340
F
  0
DICTIONARY
  5
11A
102
{ACAD_REACTORS
330
C
102
}
330
C
100
AcDbDictionary
281
     1
  3
Standard
350
11B
  0
DICTIONARY
  5
69B
102
{ACAD_REACTORS
330
C
102
}
330
C
100
AcDbDictionary
281
     1
  0
DICTIONARY
  5
94
102
{ACAD_REACTORS
330
C
102
}
330
C
100
AcDbDictionary
281
     1
  3
CTABLESTYLE
350
138
  3
DIMASSOC
350
96
  3
INDEXCTL
350
95
  3
PROJECTNAME
350
698
  0
DICTIONARY
  5
5B
102
{ACAD_REACTORS
330
C
102
}
330
C
100
AcDbDictionary
281
     1
  3
AcmBOM
350
1B5
  3
AcmStdDictionary
350
61
  3
AMDTSECTSYM_ARROWCOLOR
350
123
  0
DICTIONARY
  5
41
102
{ACAD_REACTORS
330
C
102
}
330
C
100
AcDbDictionary
281
     1
  0
DICTIONARY
  5
1B8
102
{ACAD_REACTORS
330
C
102
}
330
C
100
AcDbDictionary
281
     1
  0
XRECORD
  5
69A
102
{ACAD_REACTORS
330
C
102
}
330
C
100
AcDbXrecord
280
     1
  1
DWGPROPS COOKIE
  2

  3

  4

  6

  7

  8

  9

300
AmdtFileType=84
301
=
302
=
303
=
304
=
305
=
306
=
307
=
308
=
309
=
 40
0.0047008796296296
 41
2453883.470806562
 42
2453883.4749461
  1

 90
        1
  0
DICTIONARY
  5
26C
102
{ACAD_REACTORS
330
26B
102
}
330
26B
100
AcDbDictionary
281
     1
  0
LAYOUT
  5
22
102
{ACAD_XDICTIONARY
360
69E
102
}
102
{ACAD_REACTORS
330
1A
102
}
330
1A
100
AcDbPlotSettings
  1

  2
\\RDS1\iR3300影印機
  4
A4
  6

 40
6.805083274841308
 41
5.619736671447753
 42
6.974411010742187
 43
5.027069091796875
 44
209.9733276367187
 45
296.9259948730469
 46
0.0
 47
0.0
 48
0.0
 49
0.0
140
0.0
141
0.0
142
1.0
143
1.491396423076279
 70
 11952
 72
     1
 73
     1
 74
     0
  7
彩色出圖.ctb
 75
     0
147
0.670512537462921
148
-1177.807904007843
149
-942.7047883297843
100
AcDbLayout
  1
Model
 70
     1
 71
     0
 10
0.0
 20
0.0
 11
12.0
 21
9.0
 12
0.0
 22
0.0
 32
0.0
 14
0.0
 24
0.0
 34
0.0
 15
0.0
 25
0.0
 35
0.0
146
0.0
 13
0.0
 23
0.0
 33
0.0
 16
1.0
 26
0.0
 36
0.0
 17
0.0
 27
1.0
 37
0.0
 76
     0
330
1F
1001
ACAD_PSEXT
1000
\\RDS1\iR3300影印機
1000
Canon iR2200-3300 PCL5e
1000
\\RDS1
1000

1070
     0
  0
LAYOUT
  5
1E
102
{ACAD_XDICTIONARY
360
69C
102
}
102
{ACAD_REACTORS
330
1A
102
}
330
1A
100
AcDbPlotSettings
  1

  2

  4

  6

 40
0.0
 41
0.0
 42
0.0
 43
0.0
 44
0.0
 45
0.0
 46
0.0
 47
0.0
 48
0.0
 49
0.0
140
0.0
141
0.0
142
1.0
143
1.0
 70
   688
 72
     0
 73
     0
 74
     5
  7
彩色出圖.ctb
 75
    16
147
1.0
148
0.0
149
0.0
100
AcDbLayout
  1
配置1
 70
     1
 71
     1
 10
0.0
 20
0.0
 11
420.0
 21
297.0
 12
0.0
 22
0.0
 32
0.0
 14
1.000000000000000E+20
 24
1.000000000000000E+20
 34
1.000000000000000E+20
 15
-1.000000000000000E+20
 25
-1.000000000000000E+20
 35
-1.000000000000000E+20
146
0.0
 13
0.0
 23
0.0
 33
0.0
 16
1.0
 26
0.0
 36
0.0
 17
0.0
 27
1.0
 37
0.0
 76
     0
330
1B
  0
LAYOUT
  5
26
102
{ACAD_XDICTIONARY
360
6A0
102
}
102
{ACAD_REACTORS
330
1A
102
}
330
1A
100
AcDbPlotSettings
  1

  2

  4

  6

 40
0.0
 41
0.0
 42
0.0
 43
0.0
 44
0.0
 45
0.0
 46
0.0
 47
0.0
 48
0.0
 49
0.0
140
0.0
141
0.0
142
1.0
143
1.0
 70
   688
 72
     0
 73
     0
 74
     5
  7
彩色出圖.ctb
 75
    16
147
1.0
148
0.0
149
0.0
100
AcDbLayout
  1
配置2
 70
     1
 71
     2
 10
0.0
 20
0.0
 11
12.0
 21
9.0
 12
0.0
 22
0.0
 32
0.0
 14
0.0
 24
0.0
 34
0.0
 15
0.0
 25
0.0
 35
0.0
146
0.0
 13
0.0
 23
0.0
 33
0.0
 16
1.0
 26
0.0
 36
0.0
 17
0.0
 27
1.0
 37
0.0
 76
     0
330
23
  0
MLINESTYLE
  5
18
102
{ACAD_REACTORS
330
17
102
}
330
17
100
AcDbMlineStyle
  2
STANDARD
 70
     0
  3

 62
   256
 51
90.0
 52
90.0
 71
     2
 49
0.5
 62
   256
  6
BYLAYER
 49
-0.5
 62
   256
  6
BYLAYER
  0
ACDBPLACEHOLDER
  5
F
102
{ACAD_REACTORS
330
E
102
}
330
E
  0
TABLESTYLE
  5
11B
102
{ACAD_REACTORS
330
11A
102
}
330
11A
100
AcDbTableStyle
  3
Standard
 70
     0
 71
     0
 40
1.5
 41
1.5
280
     0
281
     0
  7
STANDARD
140
4.5
170
     2
 62
     0
 63
     7
283
     0
274
    -2
284
     1
 64
     0
275
    -2
285
     1
 65
     0
276
    -2
286
     1
 66
     0
277
    -2
287
     1
 67
     0
278
    -2
288
     1
 68
     0
279
    -2
289
     1
 69
     0
  7
STANDARD
140
6.0
170
     5
 62
     0
 63
     7
283
     0
274
    -2
284
     1
 64
     0
275
    -2
285
     1
 65
     0
276
    -2
286
     1
 66
     0
277
    -2
287
     1
 67
     0
278
    -2
288
     1
 68
     0
279
    -2
289
     1
 69
     0
  7
STANDARD
140
4.5
170
     5
 62
     0
 63
     7
283
     0
274
    -2
284
     1
 64
     0
275
    -2
285
     1
 65
     0
276
    -2
286
     1
 66
     0
277
    -2
287
     1
 67
     0
278
    -2
288
     1
 68
     0
279
    -2
289
     1
 69
     0
  0
DICTIONARYVAR
  5
138
102
{ACAD_REACTORS
330
94
102
}
330
94
100
DictionaryVariables
280
     0
  1
STANDARD
  0
DICTIONARYVAR
  5
96
102
{ACAD_REACTORS
330
94
102
}
330
94
100
DictionaryVariables
280
     0
  1
2
  0
DICTIONARYVAR
  5
95
102
{ACAD_REACTORS
330
94
102
}
330
94
100
DictionaryVariables
280
     0
  1
0
  0
DICTIONARYVAR
  5
698
102
{ACAD_REACTORS
330
94
102
}
330
94
100
DictionaryVariables
280
     0
  1

  0
DICTIONARY
  5
1B5
102
{ACAD_REACTORS
330
5B
102
}
330
5B
100
AcDbDictionary
281
     1
  0
DICTIONARY
  5
61
102
{ACAD_REACTORS
330
5B
102
}
330
5B
100
AcDbDictionary
281
     1
  0
XRECORD
  5
123
102
{ACAD_REACTORS
330
5B
102
}
330
5B
100
AcDbXrecord
280
     1
 90
-1023410169
  0
DICTIONARY
  5
69E
330
22
100
AcDbDictionary
280
     1
281
     1
  3
ACAD_XREC_ROUNDTRIP
360
69F
  0
DICTIONARY
  5
69C
330
1E
100
AcDbDictionary
280
     1
281
     1
  3
ACAD_XREC_ROUNDTRIP
360
69D
  0
DICTIONARY
  5
6A0
330
26
100
AcDbDictionary
280
     1
281
     1
  3
ACAD_XREC_ROUNDTRIP
360
6A1
  0
XRECORD
  5
69F
102
{ACAD_REACTORS
330
69E
102
}
330
69E
100
AcDbXrecord
280
     1
102
SHADEPLOT
 70
     0
102
SHADEPLOTRESLEVEL
 70
     2
102
SHADEPLOTCUSTOMDPI
 70
   300
  0
XRECORD
  5
69D
102
{ACAD_REACTORS
330
69C
102
}
330
69C
100
AcDbXrecord
280
     1
102
SHADEPLOT
 70
     0
102
SHADEPLOTRESLEVEL
 70
     2
102
SHADEPLOTCUSTOMDPI
 70
   300
  0
XRECORD
  5
6A1
102
{ACAD_REACTORS
330
6A0
102
}
330
6A0
100
AcDbXrecord
280
     1
102
SHADEPLOT
 70
     0
102
SHADEPLOTRESLEVEL
 70
     2
102
SHADEPLOTCUSTOMDPI
 70
   300
  0
ENDSEC
  0
EOF
