  0
SECTION
  2
HEADER
  9
$ACADVER
  1
AC1009
  9
$INSBASE
 10
0.0
 20
0.0
 30
0.0
  9
$EXTMIN
 10
9.4473535531907373
 20
-53.813781172285992
 30
-0.0000000349181948
  9
$EXTMAX
 10
392.37046769252828
 20
234.74212705244099
 30
0.0000000814935746
  9
$LIMMIN
 10
0.0
 20
0.0
  9
$LIMMAX
 10
340.0
 20
270.0
  9
$ORTHOMODE
 70
     1
  9
$REGENMODE
 70
     1
  9
$FILLMODE
 70
     1
  9
$QTEXTMODE
 70
     0
  9
$MIRRTEXT
 70
     1
  9
$DRAGMODE
 70
     2
  9
$LTSCALE
 40
6.0
  9
$OSMODE
 70
    39
  9
$ATTMODE
 70
     1
  9
$TEXTSIZE
 40
2.5
  9
$TRACEWID
 40
0.05
  9
$TEXTSTYLE
  7
CHINESET
  9
$CLAYER
  8
0
  9
$CELTYPE
  6
BYLAYER
  9
$CECOLOR
 62
   256
  9
$DIMSCALE
 40
1.0
  9
$DIMASZ
 40
3.0
  9
$DIMEXO
 40
2.0
  9
$DIMDLI
 40
7.0
  9
$DIMRND
 40
0.0
  9
$DIMDLE
 40
0.0
  9
$DIMEXE
 40
2.0
  9
$DIMTP
 40
0.0
  9
$DIMTM
 40
0.0
  9
$DIMTXT
 40
3.0
  9
$DIMCEN
 40
0.09
  9
$DIMTSZ
 40
0.0
  9
$DIMTOL
 70
     0
  9
$DIMLIM
 70
     0
  9
$DIMTIH
 70
     0
  9
$DIMTOH
 70
     0
  9
$DIMSE1
 70
     0
  9
$DIMSE2
 70
     0
  9
$DIMTAD
 70
     1
  9
$DIMZIN
 70
     8
  9
$DIMBLK
  1

  9
$DIMASO
 70
     1
  9
$DIMSHO
 70
     0
  9
$DIMPOST
  1

  9
$DIMAPOST
  1

  9
$DIMALT
 70
     0
  9
$DIMALTD
 70
     2
  9
$DIMALTF
 40
25.399999999999999
  9
$DIMLFAC
 40
1.0
  9
$DIMTOFL
 70
     0
  9
$DIMTVP
 40
0.0
  9
$DIMTIX
 70
     0
  9
$DIMSOXD
 70
     0
  9
$DIMSAH
 70
     0
  9
$DIMBLK1
  1

  9
$DIMBLK2
  1

  9
$DIMSTYLE
  2
STANDARD
  9
$DIMCLRD
 70
   256
  9
$DIMCLRE
 70
   256
  9
$DIMCLRT
 70
   256
  9
$DIMTFAC
 40
1.0
  9
$DIMGAP
 40
1.0
  9
$LUNITS
 70
     2
  9
$LUPREC
 70
     2
  9
$SKETCHINC
 40
0.1
  9
$FILLETRAD
 40
0.0
  9
$AUNITS
 70
     0
  9
$AUPREC
 70
     0
  9
$MENU
  1
C:\CACAD\SUPPORT\ACAD
  9
$ELEVATION
 40
0.0
  9
$PELEVATION
 40
0.0
  9
$THICKNESS
 40
0.0
  9
$LIMCHECK
 70
     0
  9
$BLIPMODE
 70
     0
  9
$CHAMFERA
 40
0.5
  9
$CHAMFERB
 40
0.5
  9
$SKPOLY
 70
     0
  9
$TDCREATE
 40
2451089.4003323382
  9
$TDUPDATE
 40
2451922.649876886
  9
$TDINDWG
 40
0.0080767708
  9
$TDUSRTIMER
 40
0.0080767708
  9
$USRTIMER
 70
     1
  9
$ANGBASE
 50
0.0
  9
$ANGDIR
 70
     0
  9
$PDMODE
 70
    65
  9
$PDSIZE
 40
7.2999999999999989
  9
$PLINEWID
 40
0.0
  9
$COORDS
 70
     2
  9
$SPLFRAME
 70
     0
  9
$SPLINETYPE
 70
     6
  9
$SPLINESEGS
 70
     8
  9
$ATTDIA
 70
     0
  9
$ATTREQ
 70
     1
  9
$HANDLING
 70
 12289
  9
$HANDSEED
  5
538
  9
$SURFTAB1
 70
     6
  9
$SURFTAB2
 70
     6
  9
$SURFTYPE
 70
     6
  9
$SURFU
 70
     6
  9
$SURFV
 70
     6
  9
$UCSNAME
  2

  9
$UCSORG
 10
0.0
 20
0.0
 30
0.0
  9
$UCSXDIR
 10
1.0
 20
0.0
 30
0.0
  9
$UCSYDIR
 10
0.0
 20
1.0
 30
0.0
  9
$PUCSNAME
  2

  9
$PUCSORG
 10
0.0
 20
0.0
 30
0.0
  9
$PUCSXDIR
 10
1.0
 20
0.0
 30
0.0
  9
$PUCSYDIR
 10
0.0
 20
1.0
 30
0.0
  9
$USERI1
 70
     0
  9
$USERI2
 70
     0
  9
$USERI3
 70
     0
  9
$USERI4
 70
     0
  9
$USERI5
 70
     0
  9
$USERR1
 40
0.0
  9
$USERR2
 40
0.0
  9
$USERR3
 40
0.0
  9
$USERR4
 40
0.0
  9
$USERR5
 40
0.0
  9
$WORLDVIEW
 70
     1
  9
$SHADEDGE
 70
     3
  9
$SHADEDIF
 70
    70
  9
$TILEMODE
 70
     1
  9
$MAXACTVP
 70
    16
  9
$PLIMCHECK
 70
     0
  9
$PEXTMIN
 10
1.0000000000000000E+020
 20
1.0000000000000000E+020
 30
1.0000000000000000E+020
  9
$PEXTMAX
 10
-1.0000000000000000E+020
 20
-1.0000000000000000E+020
 30
-1.0000000000000000E+020
  9
$PLIMMIN
 10
0.0
 20
0.0
  9
$PLIMMAX
 10
12.0
 20
9.0
  9
$UNITMODE
 70
     0
  9
$VISRETAIN
 70
     0
  9
$PLINEGEN
 70
     0
  9
$PSLTSCALE
 70
     0
  0
ENDSEC
  0
SECTION
  2
TABLES
  0
TABLE
  2
VPORT
 70
     3
  0
VPORT
  2
*ACTIVE
 70
     0
 10
0.0
 20
0.0
 11
1.0
 21
1.0
 12
200.90891062285951
 22
90.464172940077489
 13
0.0
 23
0.0
 14
1.0
 24
1.0
 15
0.0
 25
0.0
 16
0.0
 26
0.0
 36
1.0
 17
0.0
 27
0.0
 37
0.0
 40
291.73851015367609
 41
1.7274401473296499
 42
50.0
 43
0.0
 44
0.0
 50
0.0
 51
0.0
 71
     0
 72
   100
 73
     1
 74
     1
 75
     0
 76
     0
 77
     0
 78
     0
  0
ENDTAB
  0
TABLE
  2
LTYPE
 70
     4
  0
LTYPE
  2
CONTINUOUS
 70
     0
  3
Solid line
 72
    65
 73
     0
 40
0.0
  0
LTYPE
  2
HIDDEN
 70
     0
  3
_ _ _ _ _ _ _ _ _ _ _ _ _ _ _ _ _ _ _ _ _ _ _
 72
    65
 73
     2
 40
0.375
 49
0.25
 49
-0.125
  0
LTYPE
  2
DASHED
 70
     0
  3
__ __ __ __ __ __ __ __ __ __ __ __ __ __ __ __
 72
    65
 73
     2
 40
0.75
 49
0.5
 49
-0.25
  0
LTYPE
  2
CENTER
 70
     0
  3
____ _ ____ _ ____ _ ____ _ ____ _ ____ _ ____ 
 72
    65
 73
     4
 40
2.0
 49
1.25
 49
-0.25
 49
0.25
 49
-0.25
  0
ENDTAB
  0
TABLE
  2
LAYER
 70
     6
  0
LAYER
  2
0
 70
     0
 62
     7
  6
CONTINUOUS
  0
LAYER
  2
DEFPOINTS
 70
     0
 62
    -7
  6
CONTINUOUS
  0
LAYER
  2
DIM
 70
     0
 62
     5
  6
CONTINUOUS
  0
LAYER
  2
CENTER
 70
     0
 62
     1
  6
CENTER
  0
LAYER
  2
HID
 70
     0
 62
     6
  6
HIDDEN
  0
LAYER
  2
LOGO
 70
     0
 62
     7
  6
CONTINUOUS
  0
ENDTAB
  0
TABLE
  2
STYLE
 70
     3
  0
STYLE
  2
STANDARD
 70
     0
 40
0.0
 41
1.0
 50
0.0
 71
     0
 42
6.0
  3
txt
  4

  0
STYLE
  2
CHINESET
 70
     0
 40
0.0
 41
1.0
 50
0.0
 71
     0
 42
2.5
  3
SIMPLEX.SHX
  4
CHINESET
  0
STYLE
  2
LOGO
 70
     0
 40
0.0
 41
1.0
 50
0.0
 71
     0
 42
5.0
  3
txt
  4

  0
ENDTAB
  0
TABLE
  2
VIEW
 70
     0
  0
ENDTAB
  0
TABLE
  2
UCS
 70
     0
  0
ENDTAB
  0
TABLE
  2
APPID
 70
     1
  0
APPID
  2
ACAD
 70
     0
  0
ENDTAB
  0
TABLE
  2
DIMSTYLE
 70
     1
  0
DIMSTYLE
  2
STANDARD
 70
     0
  3

  4

  5

  6

  7

 40
1.0
 41
3.0
 42
2.0
 43
7.0
 44
2.0
 45
0.0
 46
0.0
 47
0.0
 48
0.0
140
3.0
141
0.09
142
0.0
143
25.399999999999999
144
1.0
145
0.0
146
1.0
147
1.0
 71
     0
 72
     0
 73
     0
 74
     0
 75
     0
 76
     0
 77
     1
 78
     8
170
     0
171
     2
172
     0
173
     0
174
     0
175
     0
176
   256
177
   256
178
   256
  0
ENDTAB
  0
ENDSEC
  0
SECTION
  2
BLOCKS
  0
BLOCK
  8
0
  2
$MODEL_SPACE
 70
     0
 10
0.0
 20
0.0
 30
0.0
  3
$MODEL_SPACE
  1

  0
ENDBLK
  5
345
  8
0
  0
BLOCK
 67
     1
  8
0
  2
$PAPER_SPACE
 70
     0
 10
0.0
 20
0.0
 30
0.0
  3
$PAPER_SPACE
  1

  0
ENDBLK
  5
343
 67
     1
  8
0
  0
BLOCK
  8
0
  2
*X0
 70
     1
 10
0.0
 20
0.0
 30
0.0
  3
*X0
  1

  0
LINE
  5
32
  8
0
 62
     0
 10
130.76114418325969
 20
222.68502573751081
 30
0.0
 11
131.79132579959321
 21
223.71520735384431
 31
0.0
  0
LINE
  5
33
  8
0
 62
     0
 10
131.79132579959321
 20
223.71520735384431
 30
0.0
 11
132.6638083935207
 21
224.58768994777179
 31
0.0
  0
LINE
  5
34
  8
0
 62
     0
 10
130.2866604937507
 20
223.62475561037499
 30
0.0
 11
130.3771122372201
 21
223.71520735384431
 31
0.0
  0
LINE
  5
35
  8
0
 62
     0
 10
130.3771122372201
 20
223.71520735384431
 30
0.0
 11
131.7240785206566
 21
225.06217363728089
 31
0.0
  0
LINE
  5
36
  8
0
 62
     0
 10
131.8778055299116
 20
222.3874735217897
 30
0.0
 11
132.96136060924189
 21
223.47102860111991
 31
0.0
  0
ENDBLK
  5
37
  8
0
  0
BLOCK
  8
0
  2
*D8
 70
     1
 10
0.0
 20
0.0
 30
0.0
  3
*D8
  1

  0
LINE
  5
471
  8
DIM
 10
144.44968306953831
 20
110.81197127036199
 30
0.0
 11
29.834068051099258
 21
110.81197127036199
 31
0.0
  0
LINE
  5
472
  8
DIM
 10
144.44968306953831
 20
188.81197127036211
 30
0.0
 11
29.834068051099269
 21
188.81197127036211
 31
0.0
  0
LINE
  5
473
  8
DIM
 10
31.834068051099258
 20
113.81197127036199
 30
0.0
 11
31.83406805109928
 21
185.81197127036211
 31
0.0
  0
SOLID
  5
474
  8
DIM
 10
31.334068051099258
 20
113.81197127036199
 30
0.0
 11
32.334068051099258
 21
113.81197127036199
 31
0.0
 12
31.834068051099258
 22
110.81197127036199
 32
0.0
 13
31.834068051099258
 23
110.81197127036199
 33
0.0
  0
SOLID
  5
475
  8
DIM
 10
31.334068051099269
 20
185.81197127036211
 30
0.0
 11
32.33406805109928
 21
185.81197127036211
 31
0.0
 12
31.83406805109928
 22
188.81197127036211
 32
0.0
 13
31.83406805109928
 23
188.81197127036211
 33
0.0
  0
INSERT
  5
476
  8
0
  2
*U16
 10
0.0
 20
0.0
 30
0.0
  0
POINT
  5
477
  8
DEFPOINTS
 62
     0
 10
146.44968306953831
 20
110.81197127036199
 30
0.0
  0
POINT
  5
478
  8
DEFPOINTS
 62
     0
 10
146.44968306953831
 20
188.81197127036211
 30
0.0
  0
POINT
  5
479
  8
DEFPOINTS
 62
     0
 10
31.83406805109928
 20
188.81197127036211
 30
0.0
  0
ENDBLK
  5
358
  8
0
  0
BLOCK
  8
0
  2
*D9
 70
     1
 10
0.0
 20
0.0
 30
0.0
  3
*D9
  1

  0
LINE
  5
47A
  8
DIM
 10
142.44968306953831
 20
126.81197127036199
 30
0.0
 11
39.764479821189461
 21
126.81197127036199
 31
0.0
  0
LINE
  5
47B
  8
DIM
 10
142.44968306953831
 20
172.81197127036199
 30
0.0
 11
39.764479821189468
 21
172.81197127036211
 31
0.0
  0
LINE
  5
47C
  8
DIM
 10
41.764479821189461
 20
129.81197127036211
 30
0.0
 11
41.764479821189461
 21
169.81197127036211
 31
0.0
  0
SOLID
  5
47D
  8
DIM
 10
41.264479821189447
 20
129.81197127036211
 30
0.0
 11
42.264479821189461
 21
129.81197127036211
 31
0.0
 12
41.764479821189461
 22
126.81197127036199
 32
0.0
 13
41.764479821189461
 23
126.81197127036199
 33
0.0
  0
SOLID
  5
47E
  8
DIM
 10
41.264479821189461
 20
169.81197127036211
 30
0.0
 11
42.264479821189468
 21
169.81197127036211
 31
0.0
 12
41.764479821189461
 22
172.81197127036211
 32
0.0
 13
41.764479821189461
 23
172.81197127036211
 33
0.0
  0
INSERT
  5
47F
  8
0
  2
*U17
 10
0.0
 20
0.0
 30
0.0
  0
POINT
  5
480
  8
DEFPOINTS
 62
     0
 10
144.44968306953831
 20
126.81197127036199
 30
0.0
  0
POINT
  5
481
  8
DEFPOINTS
 62
     0
 10
144.44968306953831
 20
172.81197127036199
 30
0.0
  0
POINT
  5
482
  8
DEFPOINTS
 62
     0
 10
41.764479821189461
 20
172.81197127036211
 30
0.0
  0
ENDBLK
  5
365
  8
0
  0
BLOCK
  8
0
  2
*D10
 70
     1
 10
0.0
 20
0.0
 30
0.0
  3
*D10
  1

  0
LINE
  5
483
  8
DIM
 10
61.184053437293571
 20
130.3473714889796
 30
0.0
 11
61.184053437293571
 21
65.074790325516616
 31
0.0
  0
LINE
  5
484
  8
DIM
 10
56.189053437293488
 20
145.06197127036199
 30
0.0
 11
56.189053437293481
 21
65.074790325516616
 31
0.0
  0
LINE
  5
485
  8
DIM
 10
64.184053437293556
 20
67.074790325516616
 30
0.0
 11
67.184053437293556
 21
67.074790325516616
 31
0.0
  0
LINE
  5
486
  8
DIM
 10
53.189053437293481
 20
67.074790325516616
 30
0.0
 11
50.189053437293488
 21
67.074790325516616
 31
0.0
  0
TEXT
  5
487
  8
0
 10
57.686553437293533
 20
56.824790325516609
 30
0.0
 40
3.0
  1
5
  7
CHINESET
  0
SOLID
  5
488
  8
DIM
 10
64.184053437293556
 20
67.574790325516616
 30
0.0
 11
64.184053437293556
 21
66.574790325516616
 31
0.0
 12
61.184053437293571
 22
67.074790325516616
 32
0.0
 13
61.184053437293571
 23
67.074790325516616
 33
0.0
  0
SOLID
  5
489
  8
DIM
 10
53.189053437293481
 20
67.574790325516616
 30
0.0
 11
53.189053437293481
 21
66.574790325516616
 31
0.0
 12
56.189053437293481
 22
67.074790325516616
 32
0.0
 13
56.189053437293481
 23
67.074790325516616
 33
0.0
  0
POINT
  5
48A
  8
DEFPOINTS
 62
     0
 10
61.184053437293571
 20
132.3473714889796
 30
0.0
  0
POINT
  5
48B
  8
DEFPOINTS
 62
     0
 10
56.189053437293488
 20
147.06197127036199
 30
0.0
  0
POINT
  5
48C
  8
DEFPOINTS
 62
     0
 10
56.189053437293481
 20
67.074790325516616
 30
0.0
  0
ENDBLK
  5
371
  8
0
  0
BLOCK
  8
0
  2
*D11
 70
     1
 10
0.0
 20
0.0
 30
0.0
  3
*D11
  1

  0
LINE
  5
44C
  8
DIM
 10
184.18905343729341
 20
128.81197127036199
 30
0.0
 11
256.87138677217081
 21
128.81197127036199
 31
0.0
  0
LINE
  5
44D
  8
DIM
 10
184.18905343729341
 20
170.81197127036199
 30
0.0
 11
256.87138677217081
 21
170.81197127036199
 31
0.0
  0
LINE
  5
44E
  8
DIM
 10
254.87138677217081
 20
131.81197127036199
 30
0.0
 11
254.87138677217081
 21
167.81197127036199
 31
0.0
  0
SOLID
  5
44F
  8
DIM
 10
254.37138677217081
 20
131.81197127036199
 30
0.0
 11
255.37138677217069
 21
131.81197127036199
 31
0.0
 12
254.87138677217081
 22
128.81197127036199
 32
0.0
 13
254.87138677217081
 23
128.81197127036199
 33
0.0
  0
SOLID
  5
450
  8
DIM
 10
254.37138677217081
 20
167.81197127036199
 30
0.0
 11
255.37138677217069
 21
167.81197127036199
 31
0.0
 12
254.87138677217081
 22
170.81197127036199
 32
0.0
 13
254.87138677217081
 23
170.81197127036199
 33
0.0
  0
INSERT
  5
451
  8
0
  2
*U15
 10
0.0
 20
0.0
 30
0.0
  0
POINT
  5
452
  8
DEFPOINTS
 62
     0
 10
182.1890534372935
 20
128.81197127036199
 30
0.0
  0
POINT
  5
453
  8
DEFPOINTS
 62
     0
 10
182.1890534372935
 20
170.81197127036199
 30
0.0
  0
POINT
  5
454
  8
DEFPOINTS
 62
     0
 10
254.87138677217081
 20
170.81197127036199
 30
0.0
  0
ENDBLK
  5
37E
  8
0
  0
BLOCK
  8
0
  2
*D12
 70
     1
 10
0.0
 20
0.0
 30
0.0
  3
*D12
  1

  0
LINE
  5
455
  8
DIM
 10
310.9744046944794
 20
135.81197127036199
 30
0.0
 11
310.9744046944794
 21
89.199621303825836
 31
0.0
  0
LINE
  5
456
  8
DIM
 10
318.9744046944794
 20
135.81197127036191
 30
0.0
 11
318.9744046944794
 21
89.199621303825836
 31
0.0
  0
LINE
  5
457
  8
DIM
 10
307.9744046944794
 20
91.19962130382585
 30
0.0
 11
304.9744046944794
 21
91.19962130382585
 31
0.0
  0
LINE
  5
458
  8
DIM
 10
321.9744046944794
 20
91.19962130382585
 30
0.0
 11
324.9744046944794
 21
91.19962130382585
 31
0.0
  0
SOLID
  5
459
  8
DIM
 10
307.9744046944794
 20
91.699621303825836
 30
0.0
 11
307.9744046944794
 21
90.69962130382585
 31
0.0
 12
310.9744046944794
 22
91.19962130382585
 32
0.0
 13
310.9744046944794
 23
91.19962130382585
 33
0.0
  0
SOLID
  5
45A
  8
DIM
 10
321.9744046944794
 20
91.699621303825836
 30
0.0
 11
321.9744046944794
 21
90.69962130382585
 31
0.0
 12
318.9744046944794
 22
91.19962130382585
 32
0.0
 13
318.9744046944794
 23
91.19962130382585
 33
0.0
  0
TEXT
  5
45B
  8
0
 10
313.9744046944794
 20
92.699621303825865
 30
0.0
 40
3.0
  1
8
  7
CHINESET
  0
POINT
  5
45C
  8
DEFPOINTS
 62
     0
 10
310.9744046944794
 20
137.81197127036199
 30
0.0
  0
POINT
  5
45D
  8
DEFPOINTS
 62
     0
 10
318.9744046944794
 20
137.81197127036191
 30
0.0
  0
POINT
  5
45E
  8
DEFPOINTS
 62
     0
 10
318.9744046944794
 20
91.19962130382585
 30
0.0
  0
ENDBLK
  5
38B
  8
0
  0
BLOCK
  8
0
  2
*D13
 70
     1
 10
0.0
 20
0.0
 30
0.0
  3
*D13
  1

  0
LINE
  5
45F
  8
DIM
 10
307.97440469447952
 20
144.81197127036199
 30
0.0
 11
307.97440469447952
 21
65.074790325516631
 31
0.0
  0
LINE
  5
460
  8
DIM
 10
337.9744046944794
 20
144.81197127036199
 30
0.0
 11
337.9744046944794
 21
65.074790325516631
 31
0.0
  0
LINE
  5
461
  8
DIM
 10
310.97440469447952
 20
67.074790325516631
 30
0.0
 11
334.9744046944794
 21
67.074790325516631
 31
0.0
  0
SOLID
  5
462
  8
DIM
 10
310.97440469447952
 20
67.574790325516631
 30
0.0
 11
310.97440469447952
 21
66.574790325516631
 31
0.0
 12
307.97440469447952
 22
67.074790325516631
 32
0.0
 13
307.97440469447952
 23
67.074790325516631
 33
0.0
  0
SOLID
  5
463
  8
DIM
 10
334.9744046944794
 20
67.574790325516631
 30
0.0
 11
334.9744046944794
 21
66.574790325516631
 31
0.0
 12
337.9744046944794
 22
67.074790325516631
 32
0.0
 13
337.9744046944794
 23
67.074790325516631
 33
0.0
  0
TEXT
  5
464
  8
0
 10
320.54583326590802
 20
68.574790325516631
 30
0.0
 40
3.0
  1
30
  7
CHINESET
  0
POINT
  5
465
  8
DEFPOINTS
 62
     0
 10
307.97440469447952
 20
146.81197127036199
 30
0.0
  0
POINT
  5
466
  8
DEFPOINTS
 62
     0
 10
337.9744046944794
 20
146.81197127036199
 30
0.0
  0
POINT
  5
467
  8
DEFPOINTS
 62
     0
 10
337.9744046944794
 20
67.074790325516631
 30
0.0
  0
ENDBLK
  5
398
  8
0
  0
BLOCK
  8
0
  2
*D14
 70
     1
 10
0.0
 20
0.0
 30
0.0
  3
*D14
  1

  0
LINE
  5
468
  8
DIM
 10
310.9744046944794
 20
135.81197127036199
 30
0.0
 11
310.9744046944794
 21
79.015483443271293
 31
0.0
  0
LINE
  5
469
  8
DIM
 10
334.97440469447952
 20
135.81197127036191
 30
0.0
 11
334.97440469447952
 21
79.015483443271293
 31
0.0
  0
LINE
  5
46A
  8
DIM
 10
313.9744046944794
 20
81.015483443271293
 30
0.0
 11
331.97440469447952
 21
81.015483443271293
 31
0.0
  0
SOLID
  5
46B
  8
DIM
 10
313.9744046944794
 20
81.515483443271293
 30
0.0
 11
313.9744046944794
 21
80.515483443271279
 31
0.0
 12
310.9744046944794
 22
81.015483443271293
 32
0.0
 13
310.9744046944794
 23
81.015483443271293
 33
0.0
  0
SOLID
  5
46C
  8
DIM
 10
331.97440469447952
 20
81.515483443271293
 30
0.0
 11
331.97440469447952
 21
80.515483443271279
 31
0.0
 12
334.97440469447952
 22
81.015483443271293
 32
0.0
 13
334.97440469447952
 23
81.015483443271293
 33
0.0
  0
TEXT
  5
46D
  8
0
 10
320.47440469447952
 20
82.515483443271293
 30
0.0
 40
3.0
  1
24
  7
CHINESET
  0
POINT
  5
46E
  8
DEFPOINTS
 62
     0
 10
310.9744046944794
 20
137.81197127036199
 30
0.0
  0
POINT
  5
46F
  8
DEFPOINTS
 62
     0
 10
334.97440469447952
 20
137.81197127036191
 30
0.0
  0
POINT
  5
470
  8
DEFPOINTS
 62
     0
 10
334.97440469447952
 20
81.015483443271293
 30
0.0
  0
ENDBLK
  5
3A5
  8
0
  0
BLOCK
  8
0
  2
*U15
 70
     1
 10
0.0
 20
0.0
 30
0.0
  3
*U15
  1

  0
TEXT
  5
515
  8
0
 10
253.37138677217069
 20
146.02625698464769
 30
0.0
 40
3.0
  1
\U+2205
 50
90.0
  7
CHINESET
  0
TEXT
  5
516
  8
0
 10
253.37138677217069
 20
148.7405426989335
 30
0.0
 40
3.0
  1
42
 50
90.0
  7
CHINESET
  0
ENDBLK
  5
518
  8
0
  0
BLOCK
  8
0
  2
*U16
 70
     1
 10
0.0
 20
0.0
 30
0.0
  3
*U16
  1

  0
TEXT
  5
51A
  8
0
 10
30.334068051099241
 20
146.0262569846478
 30
0.0
 40
3.0
  1
\U+2205
 50
90.0
  7
CHINESET
  0
TEXT
  5
51B
  8
0
 10
30.334068051099241
 20
148.7405426989335
 30
0.0
 40
3.0
  1
78
 50
90.0
  7
CHINESET
  0
ENDBLK
  5
51D
  8
0
  0
BLOCK
  8
0
  2
*U17
 70
     1
 10
0.0
 20
0.0
 30
0.0
  3
*U17
  1

  0
TEXT
  5
51F
  8
0
 10
40.26447982118944
 20
146.0976855560763
 30
0.0
 40
3.0
  1
\U+2205
 50
90.0
  7
CHINESET
  0
TEXT
  5
520
  8
0
 10
40.26447982118944
 20
148.81197127036211
 30
0.0
 40
3.0
  1
46
 50
90.0
  7
CHINESET
  0
ENDBLK
  5
522
  8
0
  0
ENDSEC
  0
SECTION
  2
ENTITIES
  0
LINE
  5
96
  8
0
 62
     4
 10
392.34651856897261
 20
9.1232876712328732
 30
0.0
 11
9.4543428719093754
 21
9.1232876712328732
 31
0.0
  0
LINE
  5
97
  8
0
 62
     4
 10
9.4543428719093754
 20
234.7286576892491
 30
0.0
 11
392.3465185689725
 21
234.72865768924919
 31
0.0
  0
LINE
  5
98
  8
0
 62
     4
 10
9.4543428719093754
 20
9.1232876712328732
 30
0.0
 11
9.4543428719093754
 21
234.7286576892491
 31
0.0
  0
LINE
  5
99
  8
0
 62
     4
 10
392.3465185689725
 20
234.72865768924919
 30
0.0
 11
392.34651856897261
 21
9.1232876712328732
 31
0.0
  0
LINE
  5
9A
  8
CENTER
  6
CENTER
 10
240.1890534372935
 20
149.81197127036199
 30
0.0
 11
54.1641143811257
 21
149.81197127036199
 31
0.0
  0
LINE
  5
9B
  8
0
 62
     7
 10
182.1890534372935
 20
170.81197127036199
 30
0.0
 11
163.1890534372935
 21
170.81197127036199
 31
0.0
  0
LINE
  5
9C
  8
0
 62
     7
 10
182.1890534372935
 20
128.81197127036199
 30
0.0
 11
163.1890534372935
 21
128.81197127036199
 31
0.0
  0
LINE
  5
9D
  8
0
 62
     7
 10
163.1890534372935
 20
170.81197127036199
 30
0.0
 11
163.1890534372935
 21
168.31197127036199
 31
0.0
  0
LINE
  5
9E
  8
0
 62
     7
 10
161.1890534372935
 20
169.81197127036199
 30
0.0
 11
159.44968306953831
 21
169.81197127036199
 31
0.0
  0
LINE
  5
9F
  8
0
 62
     7
 10
161.1890534372935
 20
129.81197127036199
 30
0.0
 11
159.44968306953831
 21
129.81197127036199
 31
0.0
  0
LINE
  5
A0
  8
0
 62
     7
 10
163.1890534372935
 20
131.31197127036199
 30
0.0
 11
159.44968306953831
 21
131.31197127036199
 31
0.0
  0
LINE
  5
A1
  8
0
 62
     7
 10
161.1890534372935
 20
169.81197127036199
 30
0.0
 11
161.1890534372935
 21
129.81197127036199
 31
0.0
  0
LINE
  5
A2
  8
0
 62
     7
 10
163.1890534372935
 20
149.81197127036199
 30
0.0
 11
163.1890534372935
 21
128.81197127036199
 31
0.0
  0
LINE
  5
A3
  8
0
 10
81.989053437293521
 20
169.81197127036199
 30
0.0
 11
80.489053437293521
 21
168.31197127036199
 31
0.0
  0
LINE
  5
A4
  8
0
 10
80.489053437293521
 20
131.31197127036199
 30
0.0
 11
81.989053437293521
 21
129.81197127036199
 31
0.0
  0
LINE
  5
A5
  8
0
 62
     7
 10
163.1890534372935
 20
168.31197127036199
 30
0.0
 11
159.44968306953831
 21
168.31197127036199
 31
0.0
  0
LINE
  5
A6
  8
0
 62
     7
 10
183.18905343729341
 20
129.81197127036199
 30
0.0
 11
182.1890534372935
 21
128.81197127036199
 31
0.0
  0
LINE
  5
A7
  8
0
 62
     7
 10
183.18905343729341
 20
169.81197127036199
 30
0.0
 11
182.1890534372935
 21
170.81197127036199
 31
0.0
  0
LINE
  5
A8
  8
CENTER
  6
CENTER
 10
172.18905343729341
 20
172.73716398899441
 30
0.0
 11
172.18905343729341
 21
159.72180167641011
 31
0.0
  0
LINE
  5
A9
  8
HID
  6
HIDDEN
 10
176.14222689661361
 20
161.31197127036199
 30
0.0
 11
168.2358799779733
 21
161.31197127036199
 31
0.0
  0
LINE
  5
AA
  8
HID
  6
HIDDEN
 10
176.4006405908525
 20
169.711971270362
 30
0.0
 11
176.10684287587131
 21
161.29870549021589
 31
0.0
  0
LINE
  5
AB
  8
HID
  6
HIDDEN
 10
177.53972393602211
 20
170.81197127036199
 30
0.0
 11
177.26035778008821
 21
162.81197127036199
 31
0.0
  0
LINE
  5
AC
  8
HID
  6
HIDDEN
 10
176.4006405908525
 20
169.711971270362
 30
0.0
 11
167.9774662837344
 21
169.711971270362
 31
0.0
  0
LINE
  5
AD
  8
HID
  6
HIDDEN
 10
177.53972393602211
 20
170.81197127036199
 30
0.0
 11
176.4006405908525
 21
169.711971270362
 31
0.0
  0
LINE
  5
AE
  8
HID
  6
HIDDEN
 10
166.83838293856479
 20
170.81197127036199
 30
0.0
 11
167.9774662837344
 21
169.711971270362
 31
0.0
  0
LINE
  5
AF
  8
HID
  6
HIDDEN
 10
167.9774662837344
 20
169.711971270362
 30
0.0
 11
168.27126399871571
 21
161.29870549021589
 31
0.0
  0
LINE
  5
B0
  8
HID
  6
HIDDEN
 10
166.83838293856479
 20
170.81197127036199
 30
0.0
 11
167.11774909449881
 21
162.81197127036199
 31
0.0
  0
LINE
  5
B1
  8
HID
  6
HIDDEN
 10
176.10684287587131
 20
161.29870549021589
 30
0.0
 11
172.18905343729341
 21
159.8298918206429
 31
0.0
  0
LINE
  5
B2
  8
HID
  6
HIDDEN
 10
172.18905343729341
 20
159.8298918206429
 30
0.0
 11
168.27126399871571
 21
161.29870549021589
 31
0.0
  0
LINE
  5
B3
  8
HID
  6
HIDDEN
 10
177.26035778008821
 20
162.81197127036199
 30
0.0
 11
176.12668657477209
 21
161.86695467801181
 31
0.0
  0
LINE
  5
B4
  8
HID
  6
HIDDEN
 10
167.11774909449881
 20
162.81197127036199
 30
0.0
 11
168.2514202998149
 21
161.86695467801181
 31
0.0
  0
CIRCLE
  5
B5
  8
0
 10
322.97440469447952
 20
149.81197127036199
 30
0.0
 40
21.0
  0
ARC
  5
B6
  8
0
 10
322.97440469447952
 20
149.81197127036199
 30
0.0
 40
20.0
 50
78.463040967184583
 51
281.53695903281528
  0
LINE
  5
B7
  8
0
 10
331.97440469447952
 20
161.81197127036199
 30
0.0
 11
331.97440469447952
 21
154.81197127036199
 31
0.0
  0
LINE
  5
B8
  8
0
 10
336.97440469447952
 20
165.46444711286051
 30
0.0
 11
336.97440469447952
 21
152.81197127036199
 31
0.0
  0
LINE
  5
B9
  8
0
 10
326.97440469447952
 20
170.42749939845029
 30
0.0
 11
326.97440469447952
 21
129.19644314227369
 31
0.0
  0
ARC
  5
BA
  8
0
 10
322.97440469447952
 20
149.81197127036199
 30
0.0
 40
20.0
 50
314.4270040008056
 51
45.572995999194383
  0
LINE
  5
BB
  8
0
 10
335.47440469447952
 20
158.31197127036199
 30
0.0
 11
328.47440469447952
 21
158.31197127036199
 31
0.0
  0
LINE
  5
BC
  8
0
 10
335.47440469447952
 20
141.31197127036199
 30
0.0
 11
328.47440469447952
 21
141.31197127036199
 31
0.0
  0
LINE
  5
BD
  8
0
 10
331.97440469447952
 20
144.81197127036199
 30
0.0
 11
331.97440469447952
 21
137.81197127036199
 31
0.0
  0
CIRCLE
  5
BE
  8
0
 10
322.9744046944794
 20
162.31197127036199
 30
0.0
 40
1.3500000000000001
  0
LINE
  5
CD
  8
HID
  6
HIDDEN
 10
177.26035778008821
 20
162.81197127036199
 30
0.0
 11
167.11774909449881
 21
162.81197127036199
 31
0.0
  0
ARC
  5
CE
  8
0
 10
322.9744046944794
 20
149.81197127036199
 30
0.0
 40
6.25
 50
50.208180500442758
 51
129.79181949955719
  0
LINE
  5
D3
  8
0
 62
     7
 10
182.1890534372935
 20
128.81197127036199
 30
0.0
 11
182.1890534372935
 21
170.81197127036199
 31
0.0
  0
LINE
  5
D4
  8
0
 10
81.989053437293521
 20
129.81197127036199
 30
0.0
 11
81.989053437293521
 21
169.81197127036199
 31
0.0
  0
LINE
  5
D5
  8
HID
  6
DASHED
 10
233.18905343729341
 20
153.31197127036199
 30
0.0
 11
233.18905343729341
 21
146.31197127036199
 31
0.0
  0
LINE
  5
D6
  8
0
 62
     7
 10
216.22319733756279
 20
155.81197127036199
 30
0.0
 11
183.18905343729341
 21
155.81197127036199
 31
0.0
  0
LINE
  5
D9
  8
0
 62
     7
 10
216.22319733756291
 20
143.81197127036199
 30
0.0
 11
183.18905343729341
 21
143.81197127036199
 31
0.0
  0
LINE
  5
DA
  8
0
 62
     7
 10
183.18905343729341
 20
169.81197127036199
 30
0.0
 11
183.18905343729341
 21
129.81197127036199
 31
0.0
  0
CIRCLE
  5
DB
  8
0
 62
     7
 10
227.1890534372935
 20
149.81197127036199
 30
0.0
 40
2.0499999999999989
  0
ARC
  5
DC
  8
0
 10
59.489053437293492
 20
149.81197127036199
 30
0.0
 40
0.9999999999999928
 50
0.0
 51
180.0
  0
LINE
  5
DD
  8
0
 10
61.671553437293518
 20
167.93487148897961
 30
0.0
 11
80.489053437293549
 21
167.9348714889795
 31
0.0
  0
LINE
  5
DE
  8
0
 10
61.671553437293547
 20
131.85987148897951
 30
0.0
 11
80.489053437293464
 21
131.85987148897951
 31
0.0
  0
LINE
  5
DF
  8
0
 10
61.184053437293507
 20
167.4473714889796
 30
0.0
 11
61.184053437293571
 21
132.3473714889796
 31
0.0
  0
ARC
  5
E0
  8
0
 10
61.671553437293547
 20
132.3473714889796
 30
0.0
 40
0.4875
 50
180.0
 51
270.0
  0
ARC
  5
E1
  8
0
 10
61.671553437293518
 20
167.4473714889796
 30
0.0
 40
0.4875
 50
89.999999999999943
 51
180.0
  0
LINE
  5
E7
  8
CENTER
  6
CENTER
 10
59.489053437293492
 20
152.47502209684859
 30
0.0
 11
59.489053437293492
 21
147.42502209684861
 31
0.0
  0
LINE
  5
E8
  8
0
 10
56.689053437293488
 20
152.86197127036201
 30
0.0
 11
56.689053437293488
 21
146.56197127036199
 31
0.0
  0
LINE
  5
E9
  8
0
 10
80.489053437293521
 20
168.31197127036199
 30
0.0
 11
80.489053437293521
 21
131.31197127036199
 31
0.0
  0
LINE
  5
EA
  8
0
 10
56.189053437293488
 20
152.36197127036201
 30
0.0
 11
56.189053437293488
 21
147.06197127036199
 31
0.0
  0
LINE
  5
EB
  8
0
 10
56.189053437293488
 20
147.06197127036199
 30
0.0
 11
56.689053437293488
 21
146.56197127036199
 31
0.0
  0
LINE
  5
EC
  8
0
 10
61.184053437293542
 20
146.56197127036199
 30
0.0
 11
56.689053437293488
 21
146.56197127036199
 31
0.0
  0
ARC
  5
ED
  8
0
 10
59.489053437293492
 20
149.81197127036199
 30
0.0
 40
0.9999999999999928
 50
180.0
 51
0.0
  0
LINE
  5
EE
  8
CENTER
  6
CENTER
 10
322.97440469447952
 20
190.81197127036199
 30
0.0
 11
322.97440469447952
 21
108.81197127036189
 31
0.0
  0
LINE
  5
EF
  8
CENTER
  6
CENTER
 10
363.97440469447952
 20
149.81197127036199
 30
0.0
 11
281.97440469447952
 21
149.81197127036199
 31
0.0
  0
CIRCLE
  5
F0
  8
0
 10
322.97440469447952
 20
149.81197127036199
 30
0.0
 40
39.0
  0
CIRCLE
  5
F1
  8
CENTER
  6
CENTER
 10
322.97440469447952
 20
149.81197127036199
 30
0.0
 40
32.0
  0
CIRCLE
  5
F2
  8
0
 10
350.68721761558152
 20
165.81197127036191
 30
0.0
 40
3.2999999999999989
  0
CIRCLE
  5
F3
  8
0
 10
295.2615917733774
 20
165.81197127036191
 30
0.0
 40
3.2999999999999989
  0
CIRCLE
  5
F4
  8
0
 10
322.97440469447952
 20
117.81197127036199
 30
0.0
 40
3.2999999999999989
  0
LINE
  5
F5
  8
CENTER
  6
CENTER
 10
346.11417951217351
 20
163.17172649034501
 30
0.0
 11
355.2585249382883
 21
168.45121678367531
 31
0.0
  0
LINE
  5
F6
  8
CENTER
  6
CENTER
 10
299.83462987678541
 20
163.17172649034501
 30
0.0
 11
290.69028445067062
 21
168.45121678367531
 31
0.0
  0
LINE
  5
F7
  8
HID
  6
DASHED
 10
361.145074062464
 20
141.81197127036199
 30
0.0
 11
342.39089253342712
 21
141.81197127036199
 31
0.0
  0
LINE
  5
F8
  8
HID
  6
DASHED
 10
303.55791685553191
 20
141.81197127036199
 30
0.0
 11
284.80373532649492
 21
141.81197127036199
 31
0.0
  0
LINE
  5
F9
  8
0
 10
159.44968306953831
 20
188.81197127036211
 30
0.0
 11
153.94968306953831
 21
188.81197127036211
 31
0.0
  0
LINE
  5
FA
  8
0
 10
159.44968306953831
 20
110.81197127036199
 30
0.0
 11
146.4496830695382
 21
110.81197127036199
 31
0.0
  0
LINE
  5
FB
  8
0
 62
     7
 10
146.44968306953831
 20
172.81197127036211
 30
0.0
 11
144.44968306953831
 21
172.81197127036199
 31
0.0
  0
LINE
  5
FC
  8
0
 62
     7
 10
146.44968306953831
 20
126.81197127036199
 30
0.0
 11
144.44968306953831
 21
126.81197127036199
 31
0.0
  0
LINE
  5
FD
  8
0
 62
     7
 10
146.4496830695382
 20
188.81197127036199
 30
0.0
 11
146.44968306953831
 21
110.81197127036199
 31
0.0
  0
LINE
  5
FE
  8
0
 62
     7
 10
153.94968306953831
 20
141.81197127036199
 30
0.0
 11
151.94968306953831
 21
141.81197127036199
 31
0.0
  0
LINE
  5
FF
  8
0
 10
151.94968306953831
 20
188.81197127036211
 30
0.0
 11
146.44968306953831
 21
188.81197127036211
 31
0.0
  0
LINE
  5
100
  8
0
 62
     7
 10
159.44968306953831
 20
177.81197127036199
 30
0.0
 11
154.34866306953819
 21
177.81197127036199
 31
0.0
  0
LINE
  5
101
  8
0
 62
     7
 10
159.44968306953831
 20
178.81197127036199
 30
0.0
 11
153.94968306953831
 21
178.81197127036199
 31
0.0
  0
LINE
  5
102
  8
0
 62
     7
 10
159.44968306953831
 20
184.81197127036211
 30
0.0
 11
153.94968306953831
 21
184.81197127036211
 31
0.0
  0
LINE
  5
103
  8
0
 62
     7
 10
159.44968306953831
 20
185.81197127036211
 30
0.0
 11
154.3486630695383
 21
185.81197127036211
 31
0.0
  0
LINE
  5
104
  8
0
 62
     7
 10
151.94968306953831
 20
178.81197127036199
 30
0.0
 11
150.04968306953819
 21
178.81197127036199
 31
0.0
  0
LINE
  5
105
  8
0
 62
     7
 10
151.94968306953831
 20
184.81197127036211
 30
0.0
 11
150.04968306953819
 21
184.81197127036211
 31
0.0
  0
LINE
  5
106
  8
HID
  6
DASHED
 10
159.44968306953831
 20
114.511971270362
 30
0.0
 11
146.44968306953831
 21
114.511971270362
 31
0.0
  0
LINE
  5
107
  8
CENTER
  6
CENTER
 10
164.2011477852628
 20
181.81197127036199
 30
0.0
 11
147.97304631483971
 21
181.81197127036199
 31
0.0
  0
LINE
  5
108
  8
CENTER
  6
CENTER
 10
161.44968306953831
 20
117.81197127036199
 30
0.0
 11
144.44968306953831
 21
117.81197127036199
 31
0.0
  0
LINE
  5
109
  8
HID
  6
DASHED
 10
159.44968306953831
 20
121.11197127036201
 30
0.0
 11
146.44968306953831
 21
121.11197127036201
 31
0.0
  0
LINE
  5
115
  8
0
 62
     7
 10
144.44968306953831
 20
172.81197127036199
 30
0.0
 11
144.44968306953831
 21
126.81197127036199
 31
0.0
  0
LINE
  5
116
  8
0
 62
     7
 10
153.94968306953831
 20
188.81197127036211
 30
0.0
 11
153.94968306953831
 21
141.81197127036199
 31
0.0
  0
LINE
  5
117
  8
0
 62
     7
 10
151.94968306953831
 20
188.81197127036211
 30
0.0
 11
151.94968306953831
 21
141.81197127036199
 31
0.0
  0
LINE
  5
118
  8
0
 62
     7
 10
159.44968306953831
 20
188.81197127036211
 30
0.0
 11
159.44968306953831
 21
110.81197127036199
 31
0.0
  0
LINE
  5
119
  8
0
 62
     7
 10
144.44968306953831
 20
129.81197127036199
 30
0.0
 11
81.989053437293521
 21
129.81197127036199
 31
0.0
  0
LINE
  5
11A
  8
0
 62
     7
 10
144.44968306953831
 20
131.31197127036199
 30
0.0
 11
80.489053437293521
 21
131.31197127036199
 31
0.0
  0
LINE
  5
11B
  8
0
 62
     7
 10
149.6477230695383
 20
184.31247127036201
 30
0.0
 11
149.6477230695383
 21
179.31147127036201
 31
0.0
  0
LINE
  5
11C
  8
0
 62
     7
 10
162.6503230695383
 20
186.12783427037019
 30
0.0
 11
162.6503230695383
 21
177.49610827034849
 31
0.0
  0
LINE
  5
11D
  8
0
 62
     7
 10
153.6485230695383
 20
185.1126312703621
 30
0.0
 11
153.64852306953819
 21
178.51131127036211
 31
0.0
  0
LINE
  5
11E
  8
0
 62
     7
 10
159.44968306953831
 20
187.56312127036199
 30
0.0
 11
159.44968306953831
 21
176.060821270362
 31
0.0
  0
LINE
  5
11F
  8
0
 62
     7
 10
157.94938306953819
 20
185.81277127036199
 30
0.0
 11
157.94938306953819
 21
177.811171270362
 31
0.0
  0
LINE
  5
120
  8
0
 62
     7
 10
157.94938306953819
 20
185.81277127036199
 30
0.0
 11
154.3486630695383
 21
185.81277127036199
 31
0.0
  0
LINE
  5
121
  8
0
 62
     7
 10
157.94938306953819
 20
177.811171270362
 30
0.0
 11
154.34866306953819
 21
177.811171270362
 31
0.0
  0
LINE
  5
122
  8
0
 62
     7
 10
153.6485230695383
 20
184.81257127036201
 30
0.0
 11
150.1478230695383
 21
184.81257127036201
 31
0.0
  0
LINE
  5
123
  8
0
 62
     7
 10
153.6485230695383
 20
178.811371270362
 30
0.0
 11
150.1478230695383
 21
178.811371270362
 31
0.0
  0
LINE
  5
124
  8
0
 62
     7
 10
150.1478230695383
 20
178.811371270362
 30
0.0
 11
149.6477230695383
 21
179.31147127036201
 31
0.0
  0
LINE
  5
125
  8
0
 62
     7
 10
149.6477230695383
 20
184.31247127036201
 30
0.0
 11
150.1478230695383
 21
184.81257127036201
 31
0.0
  0
LINE
  5
126
  8
0
 62
     7
 10
150.1478230695383
 20
184.81257127036201
 30
0.0
 11
150.1478230695383
 21
178.811371270362
 31
0.0
  0
LINE
  5
127
  8
0
 62
     7
 10
153.6485230695383
 20
185.1126312703621
 30
0.0
 11
154.3486630695383
 21
185.81277127036199
 31
0.0
  0
LINE
  5
128
  8
0
 62
     7
 10
153.64852306953819
 20
178.51131127036211
 30
0.0
 11
154.34866306953819
 21
177.811171270362
 31
0.0
  0
LINE
  5
129
  8
0
 62
     7
 10
154.3486630695383
 20
185.81277127036199
 30
0.0
 11
154.34866306953819
 21
177.811171270362
 31
0.0
  0
LINE
  5
12A
  8
0
 62
     7
 10
162.13660532571259
 20
187.56312127036199
 30
0.0
 11
159.44968306953831
 21
187.56312127036199
 31
0.0
  0
LINE
  5
12B
  8
0
 62
     7
 10
162.13660532571259
 20
176.060821270362
 30
0.0
 11
159.44968306953831
 21
176.060821270362
 31
0.0
  0
LINE
  5
12C
  8
0
 62
     7
 10
162.13660532571259
 20
178.936396270362
 30
0.0
 11
159.44968306953831
 21
178.936396270362
 31
0.0
  0
ARC
  5
12D
  8
0
 62
     7
 10
160.3814384621881
 20
177.49860877036201
 30
0.0
 40
2.2688859852295389
 50
320.67654868824798
 51
39.323451311752088
  0
LINE
  5
12E
  8
0
 62
     7
 10
162.13660532571259
 20
184.68754627036211
 30
0.0
 11
159.44968306953831
 21
184.68754627036211
 31
0.0
  0
ARC
  5
12F
  8
0
 62
     7
 10
154.34533691371331
 20
181.81197127036199
 30
0.0
 40
8.3049861558249365
 50
339.74207545866813
 51
20.25792454133239
  0
ARC
  5
130
  8
0
 62
     7
 10
160.3814384621881
 20
186.125333770362
 30
0.0
 40
2.2688859852295389
 50
320.67654868824792
 51
39.32345131175186
  0
LINE
  5
13A
  8
CENTER
  6
CENTER
 10
227.1890534372935
 20
158.87609004194269
 30
0.0
 11
227.1890534372935
 21
140.60226316197461
 31
0.0
  0
LINE
  5
13B
  8
HID
  6
DASHED
 10
233.18905343729341
 20
146.31197127036199
 30
0.0
 11
230.68905343729341
 21
143.81197127036199
 31
0.0
  0
LINE
  5
13C
  8
HID
  6
DASHED
 10
233.18905343729341
 20
153.31197127036199
 30
0.0
 11
230.68905343729341
 21
155.81197127036199
 31
0.0
  0
LINE
  5
13D
  8
0
 62
     7
 10
215.51643590736469
 20
145.33983531536239
 30
0.0
 11
213.18905343729341
 21
145.33983531536239
 31
0.0
  0
LINE
  5
13E
  8
0
 62
     7
 10
215.51643590736469
 20
154.28410722536159
 30
0.0
 11
213.1890534372935
 21
154.28410722536159
 31
0.0
  0
LINE
  5
13F
  8
HID
  6
HIDDEN
 10
215.51643590736501
 20
145.33983531536239
 30
0.0
 11
232.21691748229389
 21
145.33983531536239
 31
0.0
  0
LINE
  5
140
  8
HID
  6
HIDDEN
 10
215.51643590736501
 20
154.28410722536159
 30
0.0
 11
232.21691748229381
 21
154.28410722536159
 31
0.0
  0
LINE
  5
141
  8
HID
  6
DASHED
 10
216.22319733756291
 20
143.81197127036199
 30
0.0
 11
230.68905343729341
 21
143.81197127036199
 31
0.0
  0
LINE
  5
142
  8
HID
  6
DASHED
 10
216.22319733756279
 20
155.81197127036199
 30
0.0
 11
230.68905343729341
 21
155.81197127036199
 31
0.0
  0
ARC
  5
143
  8
0
 62
     7
 10
227.1890534372935
 20
149.81197127036199
 30
0.0
 40
3.0499999999999989
 50
212.5474683725603
 51
147.45253162743961
  0
LINE
  5
144
  8
0
 62
     7
 10
224.61806809224981
 20
151.45286564708789
 30
0.0
 11
225.33076646973171
 21
150.67757484370841
 31
0.0
  0
LINE
  5
145
  8
0
 62
     7
 10
225.68694844705621
 20
151.20702703924869
 30
0.0
 11
225.68694844705621
 21
151.566729122499
 31
0.0
  0
ARC
  5
146
  8
0
 62
     7
 10
227.1890534372935
 20
149.81197127036199
 30
0.0
 40
2.309868940293426
 50
229.4358664178404
 51
333.97809773468322
  0
LINE
  5
147
  8
0
 62
     7
 10
229.26476266136419
 20
150.8253447150704
 30
0.0
 11
229.10351102643961
 21
150.54501433823799
 31
0.0
  0
LINE
  5
148
  8
0
 62
     7
 10
229.26476266136419
 20
148.79859782565359
 30
0.0
 11
229.10351102643961
 21
149.078928202486
 31
0.0
  0
LINE
  5
149
  8
0
 62
     7
 10
225.68694844705621
 20
148.4169155014753
 30
0.0
 11
225.68694844705621
 21
148.05721341822499
 31
0.0
  0
LINE
  5
14A
  8
0
 62
     7
 10
224.61806809224981
 20
148.1710768936361
 30
0.0
 11
225.33076646973171
 21
148.9463676970156
 31
0.0
  0
ARC
  5
14B
  8
0
 62
     7
 10
227.1890534372935
 20
149.81197127036199
 30
0.0
 40
2.309868940293426
 50
26.021902265316388
 51
130.56413358215951
  0
CIRCLE
  5
14C
  8
0
 62
     7
 10
227.1890534372935
 20
149.81197127036199
 30
0.0
 40
1.5499999999999989
  0
LINE
  5
14D
  8
CENTER
  6
CENTER
 10
336.97440469447952
 20
163.06197127036191
 30
0.0
 11
326.97440469447952
 21
163.06197127036191
 31
0.0
  0
LINE
  5
14E
  8
CENTER
  6
CENTER
 10
336.97440469447952
 20
136.56197127036199
 30
0.0
 11
326.9744046944794
 21
136.56197127036199
 31
0.0
  0
LINE
  5
14F
  8
0
 10
318.9744046944794
 20
161.81197127036199
 30
0.0
 11
318.9744046944794
 21
137.81197127036191
 31
0.0
  0
ARC
  5
150
  8
0
 10
322.9744046944794
 20
149.81197127036199
 30
0.0
 40
6.25
 50
230.20818050044269
 51
309.79181949955722
  0
LINE
  5
151
  8
0
 10
310.9744046944794
 20
161.81197127036199
 30
0.0
 11
310.9744046944794
 21
137.81197127036199
 31
0.0
  0
LINE
  5
152
  8
0
 10
334.9744046944794
 20
161.81197127036199
 30
0.0
 11
334.97440469447952
 21
137.81197127036199
 31
0.0
  0
LINE
  5
153
  8
CENTER
  6
CENTER
 10
334.4744046944794
 20
162.31197127036199
 30
0.0
 11
327.47440469447952
 21
162.31197127036199
 31
0.0
  0
LINE
  5
154
  8
CENTER
  6
CENTER
 10
334.47440469447952
 20
137.31197127036191
 30
0.0
 11
327.47440469447952
 21
137.31197127036191
 31
0.0
  0
LINE
  5
155
  8
CENTER
  6
CENTER
 10
318.4744046944794
 20
162.31197127036199
 30
0.0
 11
311.4744046944794
 21
162.31197127036199
 31
0.0
  0
LINE
  5
156
  8
CENTER
  6
CENTER
 10
318.4744046944794
 20
137.31197127036191
 30
0.0
 11
311.4744046944794
 21
137.31197127036199
 31
0.0
  0
CIRCLE
  5
157
  8
0
 10
322.97440469447952
 20
149.81197127036199
 30
0.0
 40
3.5
  0
ARC
  5
158
  8
0
 10
322.97440469447952
 20
149.81197127036199
 30
0.0
 40
6.0
 50
48.189685104221738
 51
131.81031489577899
  0
ARC
  5
159
  8
0
 10
322.97440469447952
 20
149.81197127036199
 30
0.0
 40
6.0
 50
228.1896851042209
 51
311.81031489577822
  0
LINE
  5
15A
  8
CENTER
  6
CENTER
 10
307.97440469447952
 20
152.81197127036199
 30
0.0
 11
307.97440469447952
 21
146.81197127036199
 31
0.0
  0
LINE
  5
15B
  8
CENTER
  6
CENTER
 10
337.9744046944794
 20
152.81197127036199
 30
0.0
 11
337.9744046944794
 21
146.81197127036199
 31
0.0
  0
LINE
  5
15C
  8
CENTER
  6
CENTER
 10
337.9744046944794
 20
152.81197127036199
 30
0.0
 11
335.62440469447938
 21
152.81197127036199
 31
0.0
  0
LINE
  5
15D
  8
CENTER
  6
CENTER
 10
337.9744046944794
 20
146.81197127036199
 30
0.0
 11
335.62440469447938
 21
146.81197127036199
 31
0.0
  0
LINE
  5
15E
  8
CENTER
  6
CENTER
 10
310.32440469447948
 20
146.81197127036199
 30
0.0
 11
307.97440469447952
 21
146.81197127036199
 31
0.0
  0
LINE
  5
15F
  8
CENTER
  6
CENTER
 10
310.3244046944796
 20
152.81197127036199
 30
0.0
 11
307.97440469447952
 21
152.81197127036199
 31
0.0
  0
LINE
  5
160
  8
CENTER
  6
CENTER
 10
335.62440469447938
 20
153.8297298210129
 30
0.0
 11
335.62440469447949
 21
145.7942127197112
 31
0.0
  0
LINE
  5
161
  8
0
 10
335.62440469447938
 20
153.8297298210129
 30
0.0
 11
334.9744046944794
 21
153.8297298210129
 31
0.0
  0
LINE
  5
162
  8
0
 10
335.62440469447949
 20
145.7942127197112
 30
0.0
 11
334.9744046944794
 21
145.7942127197112
 31
0.0
  0
LINE
  5
163
  8
0
 10
310.3244046944796
 20
153.8297298210129
 30
0.0
 11
310.97440469447952
 21
153.8297298210129
 31
0.0
  0
LINE
  5
164
  8
CENTER
  6
CENTER
 10
310.3244046944796
 20
153.8297298210129
 30
0.0
 11
310.32440469447943
 21
145.7942127197112
 31
0.0
  0
LINE
  5
165
  8
0
 10
310.32440469447943
 20
145.7942127197112
 30
0.0
 11
310.97440469447952
 21
145.7942127197112
 31
0.0
  0
LINE
  5
166
  8
0
 10
318.9744046944794
 20
137.81197127036191
 30
0.0
 11
318.4744046944794
 21
137.31197127036191
 31
0.0
  0
LINE
  5
167
  8
0
 10
311.4744046944794
 20
137.31197127036199
 30
0.0
 11
310.9744046944794
 21
137.81197127036199
 31
0.0
  0
LINE
  5
168
  8
0
 10
310.9744046944794
 20
161.81197127036199
 30
0.0
 11
311.4744046944794
 21
162.31197127036199
 31
0.0
  0
LINE
  5
169
  8
0
 10
318.9744046944794
 20
161.81197127036199
 30
0.0
 11
318.4744046944794
 21
162.31197127036199
 31
0.0
  0
LINE
  5
16A
  8
0
 10
334.9744046944794
 20
161.81197127036199
 30
0.0
 11
334.4744046944794
 21
162.31197127036199
 31
0.0
  0
LINE
  5
16B
  8
0
 10
334.97440469447952
 20
137.81197127036191
 30
0.0
 11
334.47440469447952
 21
137.31197127036191
 31
0.0
  0
LINE
  5
16C
  8
0
 10
327.47440469447952
 20
137.31197127036191
 30
0.0
 11
326.97440469447952
 21
137.81197127036191
 31
0.0
  0
LINE
  5
16D
  8
0
 10
326.97440469447952
 20
161.81197127036199
 30
0.0
 11
327.47440469447952
 21
162.31197127036199
 31
0.0
  0
LINE
  5
16E
  8
0
 10
334.4744046944794
 20
162.31197127036199
 30
0.0
 11
334.47440469447952
 21
137.31197127036191
 31
0.0
  0
LINE
  5
16F
  8
0
 10
327.47440469447952
 20
162.31197127036199
 30
0.0
 11
327.47440469447952
 21
137.31197127036191
 31
0.0
  0
LINE
  5
170
  8
0
 10
311.47440469447957
 20
162.31197127036211
 30
0.0
 11
311.47440469447957
 21
137.31197127036191
 31
0.0
  0
LINE
  5
171
  8
0
 10
318.47440469447952
 20
162.31197127036191
 30
0.0
 11
318.47440469447952
 21
137.31197127036211
 31
0.0
  0
LINE
  5
172
  8
HID
  6
HIDDEN
 10
331.97440469447952
 20
139.87045840522629
 30
0.0
 11
331.45053390856287
 21
140.8127023625342
 31
0.0
  0
LINE
  5
173
  8
HID
  6
HIDDEN
 10
333.41591755961531
 20
141.31197127036199
 30
0.0
 11
332.47367360230731
 21
141.83584205627861
 31
0.0
  0
LINE
  5
174
  8
HID
  6
HIDDEN
 10
333.41591755961531
 20
141.31197127036191
 30
0.0
 11
332.47367360230731
 21
140.78810048444541
 31
0.0
  0
LINE
  5
175
  8
HID
  6
HIDDEN
 10
330.53289182934378
 20
141.31197127036191
 30
0.0
 11
331.47513578665172
 21
140.78810048444541
 31
0.0
  0
LINE
  5
176
  8
HID
  6
HIDDEN
 10
330.53289182934378
 20
141.31197127036199
 30
0.0
 11
331.47513578665172
 21
141.83584205627861
 31
0.0
  0
LINE
  5
177
  8
HID
  6
HIDDEN
 10
331.97440469447952
 20
139.87045840522629
 30
0.0
 11
332.49827548039622
 21
140.8127023625342
 31
0.0
  0
LINE
  5
178
  8
HID
  6
HIDDEN
 10
330.53289182934378
 20
158.31197127036199
 30
0.0
 11
331.47513578665172
 21
157.78810048444541
 31
0.0
  0
LINE
  5
179
  8
HID
  6
HIDDEN
 10
330.53289182934378
 20
158.31197127036211
 30
0.0
 11
331.47513578665172
 21
158.83584205627861
 31
0.0
  0
LINE
  5
17A
  8
HID
  6
HIDDEN
 10
331.97440469447952
 20
159.7534841354977
 30
0.0
 11
331.45053390856287
 21
158.81124017818979
 31
0.0
  0
LINE
  5
17B
  8
HID
  6
HIDDEN
 10
331.97440469447952
 20
159.7534841354977
 30
0.0
 11
332.49827548039622
 21
158.81124017818979
 31
0.0
  0
LINE
  5
17C
  8
HID
  6
HIDDEN
 10
333.41591755961531
 20
158.31197127036211
 30
0.0
 11
332.47367360230731
 21
158.83584205627861
 31
0.0
  0
LINE
  5
17D
  8
HID
  6
HIDDEN
 10
333.41591755961531
 20
158.31197127036199
 30
0.0
 11
332.47367360230731
 21
157.78810048444541
 31
0.0
  0
INSERT
  5
17E
  8
0
  2
*X0
 10
99.259197340635126
 20
293.94559817225689
 30
0.0
 50
270.0
1001
ACAD
1000
HATCH
1002
{
1070
    16
1000
_U
1040
1.0
1040
0.7853981633974483
1070
     0
1002
}
  0
POLYLINE
  5
17F
  8
0
 66
     1
 10
0.0
 20
0.0
 30
0.0
 70
     1
  0
VERTEX
  5
501
  8
0
 10
327.86190469447951
 20
184.6337707110263
 30
0.0
  0
VERTEX
  5
502
  8
0
 10
322.97440469447952
 20
187.45557015169061
 30
0.0
  0
VERTEX
  5
503
  8
0
 10
318.08690469447947
 20
184.6337707110263
 30
0.0
  0
VERTEX
  5
504
  8
0
 10
318.08690469447947
 20
178.99017182969769
 30
0.0
  0
VERTEX
  5
505
  8
0
 10
322.97440469447952
 20
176.16837238903341
 30
0.0
  0
VERTEX
  5
506
  8
0
 10
327.86190469447951
 20
178.99017182969769
 30
0.0
  0
SEQEND
  5
507
  8
0
  0
CIRCLE
  5
187
  8
0
 10
322.97440469447952
 20
181.81197127036199
 30
0.0
 40
4.8875000000000242
  0
LINE
  5
188
  8
0
 10
61.184053437293542
 20
152.86197127036201
 30
0.0
 11
56.689053437293488
 21
152.86197127036201
 31
0.0
  0
LINE
  5
189
  8
0
 10
56.189053437293488
 20
152.36197127036201
 30
0.0
 11
56.689053437293488
 21
152.86197127036201
 31
0.0
  0
DIMENSION
  5
18A
  8
DIM
  2
*D10
 10
56.189053437293481
 20
67.074790325516616
 30
0.0
 11
58.686553437293519
 21
58.324790325516616
 31
0.0
 70
     0
 13
61.184053437293571
 23
132.3473714889796
 33
0.0
 14
56.189053437293488
 24
147.06197127036199
 34
0.0
1001
ACAD
1000
DSTYLE
1002
{
1070
   140
1040
3.0
1070
   147
1040
1.5
1002
}
  0
LINE
  5
18B
  8
DIM
 10
144.44968306953831
 20
124.81197127036199
 30
0.0
 11
144.44968306953831
 21
91.136135447998555
 31
0.0
  0
LINE
  5
18C
  8
DIM
 10
146.44968306953831
 20
108.81197127036199
 30
0.0
 11
146.44968306953831
 21
91.136135447998555
 31
0.0
  0
LINE
  5
18D
  8
DIM
 10
141.44968306953831
 20
94.136135447998555
 30
0.0
 11
138.44968306953831
 21
94.136135447998555
 31
0.0
  0
LINE
  5
18E
  8
DIM
 10
149.44968306953831
 20
94.136135447998555
 30
0.0
 11
152.44968306953831
 21
94.136135447998555
 31
0.0
  0
LINE
  5
18F
  8
DIM
 10
152.44968306953831
 20
94.136135447998555
 30
0.0
 11
154.53968306953831
 21
94.136135447998555
 31
0.0
  0
SOLID
  5
190
  8
DIM
 10
141.44968306953831
 20
94.636135447998555
 30
0.0
 11
141.44968306953831
 21
93.636135447998555
 31
0.0
 12
144.44968306953831
 22
94.136135447998555
 32
0.0
 13
144.44968306953831
 23
94.136135447998555
 33
0.0
  0
SOLID
  5
191
  8
DIM
 10
149.44968306953831
 20
94.636135447998555
 30
0.0
 11
149.44968306953831
 21
93.636135447998555
 31
0.0
 12
146.44968306953831
 22
94.136135447998555
 32
0.0
 13
146.44968306953831
 23
94.136135447998555
 33
0.0
  0
TEXT
  5
192
  8
DIM
 10
138.98838577209551
 20
95.636135447998555
 30
0.0
 40
3.0
  1
2
  7
CHINESET
 72
     1
 11
139.98838577209551
 21
97.136135447998555
 31
0.0
 73
     2
  0
LINE
  5
196
  8
0
 10
61.671553437293547
 20
131.85987148897951
 30
0.0
 11
61.671553437293547
 21
167.93487148898279
 31
0.0
  0
SOLID
  5
197
  8
DIM
 10
120.90669266581151
 20
127.3862268744607
 30
0.0
 11
121.7925882481816
 21
126.922342172043
 31
0.0
 12
122.7412945642499
 22
129.81197127036199
 32
0.0
 13
122.7412945642499
 23
129.81197127036199
 33
0.0
  0
LINE
  5
198
  8
DIM
 10
121.3496404569966
 20
127.1542845232518
 30
0.0
 11
104.2749283855708
 21
94.546156004512255
 31
0.0
  0
LINE
  5
199
  8
DIM
 10
104.2749283855708
 20
94.546156004512255
 30
0.0
 11
102.63347366869191
 21
94.546156004512255
 31
0.0
  0
LINE
  5
19A
  8
DIM
 10
102.63347366869191
 20
94.546156004512255
 30
0.0
 11
82.343473668691985
 21
94.546156004512255
 31
0.0
  0
TEXT
  5
19B
  8
DIM
 10
82.400616525834863
 20
96.046156004512255
 30
0.0
 40
3.0
  1
M40*P1.5
  7
CHINESET
 72
     2
 11
102.543473668692
 21
97.546156004512241
 31
0.0
 73
     2
  0
DIMENSION
  5
19E
  8
DIM
  2
*D9
 10
41.764479821189461
 20
172.81197127036211
 30
0.0
 11
38.76447982118944
 21
149.81197127036211
 31
0.0
 70
     0
  1
%%C<>
 13
144.44968306953831
 23
126.81197127036199
 33
0.0
 14
144.44968306953831
 24
172.81197127036199
 34
0.0
 50
90.0
1001
ACAD
1000
DSTYLE
1002
{
1070
   140
1040
3.0
1070
   147
1040
1.5
1002
}
  0
DIMENSION
  5
19F
  8
DIM
  2
*D8
 10
31.83406805109928
 20
188.81197127036211
 30
0.0
 11
28.834068051099241
 21
149.81197127036211
 31
0.0
 70
     0
  1
%%C<>
 13
146.44968306953831
 23
110.81197127036199
 33
0.0
 14
146.44968306953831
 24
188.81197127036211
 34
0.0
 50
90.0
1001
ACAD
1000
DSTYLE
1002
{
1070
   140
1040
3.0
1070
   147
1040
1.5
1002
}
  0
DIMENSION
  5
1A0
  8
DIM
  2
*D11
 10
254.87138677217081
 20
170.81197127036199
 30
0.0
 11
251.87138677217069
 21
149.81197127036199
 31
0.0
 70
     0
  1
%%C42
 13
182.1890534372935
 23
128.81197127036199
 33
0.0
 14
182.1890534372935
 24
170.81197127036199
 34
0.0
 50
90.0
1001
ACAD
1000
DSTYLE
1002
{
1070
   140
1040
3.0
1070
   147
1040
1.5
1002
}
  0
SOLID
  5
1A1
  8
DIM
 10
179.50481619133649
 20
169.13076247517489
 30
0.0
 11
178.67794427585289
 21
169.6931527625951
 31
0.0
 12
177.40420937133419
 22
166.9313418724343
 32
0.0
 13
177.40420937133419
 23
166.9313418724343
 33
0.0
  0
LINE
  5
1A2
  8
DIM
 10
179.09138023359469
 20
169.411957618885
 30
0.0
 11
189.42539765468661
 21
184.6058700507954
 31
0.0
  0
LINE
  5
1A3
  8
DIM
 10
189.42539765468661
 20
184.6058700507954
 30
0.0
 11
190.72066864838669
 21
184.6058700507954
 31
0.0
  0
LINE
  5
1A4
  8
DIM
 10
190.72066864838669
 20
184.6058700507954
 30
0.0
 11
206.8106686483867
 21
184.6058700507954
 31
0.0
  0
TEXT
  5
1A5
  8
DIM
 10
190.8106686483867
 20
186.10587005079529
 30
0.0
 40
3.0
  1
PT 1/8
  7
CHINESET
 11
190.8106686483867
 21
187.6058700507954
 31
0.0
 73
     2
  0
LINE
  5
1A6
  8
DIM
 10
238.76075907597891
 20
159.96460812023309
 30
0.0
 11
240.48233375063481
 21
162.4214721049876
 31
0.0
  0
LINE
  5
1A7
  8
DIM
 10
240.48233375063481
 20
162.4214721049876
 30
0.0
 11
247.57233375063481
 21
162.4214721049876
 31
0.0
  0
SOLID
  5
1A8
  8
DIM
 10
239.17023640677141
 20
159.6776790077904
 30
0.0
 11
238.3512817451865
 21
160.2515372326757
 31
0.0
 12
237.0391844013231
 22
157.50774413547859
 32
0.0
 13
237.0391844013231
 23
157.50774413547859
 33
0.0
  0
TEXT
  5
1A9
  8
DIM
 10
240.28661946492051
 20
163.92147210498749
 30
0.0
 40
3.0
  1
%%C25
  7
CHINESET
 72
     4
 11
244.0723337506347
 21
165.42147210498749
 31
0.0
  0
SOLID
  5
1AC
  8
DIM
 10
293.7156108193638
 20
171.95593478401949
 30
0.0
 11
292.81804907971213
 21
171.51504599587281
 31
0.0
 12
294.58949631397797
 22
169.0428051709911
 32
0.0
 13
294.58949631397797
 23
169.0428051709911
 33
0.0
  0
LINE
  5
1AD
  8
DIM
 10
293.26682994953802
 20
171.73549038994619
 30
0.0
 11
285.50204118009412
 21
187.54305343827559
 31
0.0
  0
LINE
  5
1AE
  8
DIM
 10
285.50204118009412
 20
187.54305343827559
 30
0.0
 11
282.50204118009412
 21
187.54305343827559
 31
0.0
  0
LINE
  5
1AF
  8
DIM
 10
282.50204118009412
 20
187.54305343827559
 30
0.0
 11
267.41204118009421
 21
187.54305343827559
 31
0.0
  0
TEXT
  5
1B0
  8
DIM
 10
266.9834697515227
 20
189.04305343827559
 30
0.0
 40
3.0
  1
3-%%C6.6
  7
CHINESET
 72
     2
 11
282.41204118009421
 21
190.54305343827559
 31
0.0
 73
     2
  0
LINE
  5
1B1
  8
DIM
 10
303.38298501724762
 20
124.5102662876821
 30
0.0
 11
353.12423244710908
 21
188.74952963231061
 31
0.0
  0
LINE
  5
1B2
  8
DIM
 10
353.12423244710908
 20
188.74952963231061
 30
0.0
 11
373.60998637688692
 21
188.74952963231061
 31
0.0
  0
SOLID
  5
1B3
  8
DIM
 10
340.33378963661642
 20
173.04775734337221
 30
0.0
 11
341.12446791732521
 21
172.43552547845869
 31
0.0
 12
342.5658243717113
 22
175.1136762530416
 32
0.0
 13
342.5658243717113
 23
175.1136762530416
 33
0.0
  0
SOLID
  5
1B6
  8
DIM
 10
305.61501975234228
 20
126.57618519735141
 30
0.0
 11
304.82434147163349
 21
127.188417062265
 31
0.0
 12
303.38298501724739
 22
124.510266287682
 32
0.0
 13
303.38298501724739
 23
124.510266287682
 33
0.0
  0
TEXT
  5
1B7
  8
DIM
 10
353.92320694656041
 20
190.26328499809631
 30
0.0
 40
3.0
  1
P.C.D 64
  7
CHINESET
  0
LINE
  5
1B8
  8
0
 10
347.64339546223619
 20
14.966251362377999
 30
0.0
 11
357.64339546223607
 21
14.966251362377999
 31
0.0
  0
LINE
  5
1B9
  8
0
 10
357.64339546223607
 20
14.966251362377999
 30
0.0
 11
357.64339546223619
 21
34.966251362378031
 31
0.0
  0
LINE
  5
1BA
  8
0
 10
347.64339546223619
 20
14.966251362377999
 30
0.0
 11
347.64339546223607
 21
34.966251362378003
 31
0.0
  0
LINE
  5
1BB
  8
0
 10
347.64339546223607
 20
34.966251362378003
 30
0.0
 11
351.64339546223607
 21
34.966251362378003
 31
0.0
  0
LINE
  5
1BC
  8
0
 10
347.64339546223607
 20
32.396976087288671
 30
0.0
 11
357.6433954622363
 21
32.396976087288671
 31
0.0
  0
LINE
  5
1BD
  8
0
 10
347.64339546223607
 20
30.274974448741499
 30
0.0
 11
357.6433954622363
 21
30.274974448741531
 31
0.0
  0
POLYLINE
  5
1BE
  8
0
 66
     1
 10
0.0
 20
0.0
 30
0.0
  0
VERTEX
  5
508
  8
0
 10
357.64339546223607
 20
14.966251362377999
 30
0.0
  0
VERTEX
  5
509
  8
0
 10
347.64339546223619
 20
18.603968338587279
 30
0.0
  0
VERTEX
  5
50A
  8
0
 10
347.93469649075729
 20
18.603968338587279
 30
0.0
  0
VERTEX
  5
50B
  8
0
 10
357.64339546223607
 20
21.635398184809858
 30
0.0
  0
VERTEX
  5
50C
  8
0
 10
347.64339546223619
 20
24.363686124242189
 30
0.0
  0
VERTEX
  5
50D
  8
0
 10
357.64339546223619
 20
27.546687338410681
 30
0.0
  0
VERTEX
  5
50E
  8
0
 10
347.64339546223607
 20
30.274974448741499
 30
0.0
  0
SEQEND
  5
50F
  8
0
  0
LINE
  5
1C7
  8
0
 10
351.64339546223607
 20
32.39697608728865
 30
0.0
 11
351.64339546223607
 21
46.912030637901019
 31
0.0
  0
LINE
  5
1C8
  8
0
 10
353.64339546223607
 20
32.39697608728865
 30
0.0
 11
353.64339546223607
 21
46.912030637901019
 31
0.0
  0
CIRCLE
  5
1C9
  8
0
 10
352.64339546223607
 20
49.67612861515191
 30
0.0
 40
2.9394281123781871
  0
CIRCLE
  5
1CA
  8
0
 10
352.64339546223607
 20
49.67612861515191
 30
0.0
 40
0.4547141038377163
  0
LINE
  5
1CB
  8
0
 10
353.64339546223607
 20
34.966251362378003
 30
0.0
 11
357.64339546223619
 21
34.966251362378031
 31
0.0
  0
LINE
  5
1CC
  8
0
 10
357.64339546223619
 20
33.761120057004838
 30
0.0
 11
375.69550836038889
 21
33.761120057004838
 31
0.0
  0
LINE
  5
1CD
  8
0
 10
362.04265054683282
 20
33.761120057004838
 30
0.0
 11
362.04265054683282
 21
41.339695916213643
 31
0.0
  0
LINE
  5
1CE
  8
0
 10
362.04265054683282
 20
41.339695916213643
 30
0.0
 11
364.51517747624968
 21
41.339695916213643
 31
0.0
  0
LINE
  5
1CF
  8
0
 10
371.90304826581809
 20
41.339695916213643
 30
0.0
 11
371.90304826581809
 21
33.761120057004838
 31
0.0
  0
CIRCLE
  5
1D0
  8
0
 10
366.97284940632551
 20
41.339695916213643
 30
0.0
 40
1.7398394720389661
  0
CIRCLE
  5
1D1
  8
0
 10
366.97284940632551
 20
41.339695916213643
 30
0.0
 40
0.264078787987728
  0
LINE
  5
1D2
  8
0
 10
364.51517747624968
 20
41.339695916213643
 30
0.0
 11
367.40526725385052
 21
44.238306183898302
 31
0.0
  0
LINE
  5
1D3
  8
0
 10
364.51517747624968
 20
41.339695916213643
 30
0.0
 11
367.40526725385052
 21
38.441085648528983
 31
0.0
  0
LINE
  5
1D4
  8
0
 10
368.71268887836447
 20
41.339695916213643
 30
0.0
 11
371.90304826581809
 21
41.339695916213643
 31
0.0
  0
ARC
  5
1D5
  8
0
 10
367.06120847934199
 20
39.429930286101758
 30
0.0
 40
4.8878896748268392
 50
237.6585544448304
 51
302.34144555516951
  0
SOLID
  5
1D6
  8
0
 10
365.58188198077681
 20
31.158771616746449
 30
0.0
 11
365.17271672330742
 21
31.446145575343891
 31
0.0
 12
364.51517747624979
 22
30.07496282363682
 32
0.0
 13
364.51517747624979
 23
30.07496282363682
 33
0.0
  0
LINE
  5
1D7
  8
0
 10
365.37729935204209
 20
31.302458596045192
 30
0.0
 11
368.86117747929887
 21
36.262831129062342
 31
0.0
  0
ARC
  5
1D8
  8
0
 10
367.06120847934199
 20
28.09230982790795
 30
0.0
 40
4.8878896748268392
 50
57.658554444830401
 51
122.3414455551695
  0
CIRCLE
  5
1D9
  8
0
 10
371.90304826581809
 20
33.761120057004838
 30
0.0
 40
0.5
  0
CIRCLE
  5
1DA
  8
0
 10
362.04265054683282
 20
33.761120057004838
 30
0.0
 40
0.5
  0
CIRCLE
  5
1DB
  8
0
 10
371.90304826581809
 20
33.761120057004838
 30
0.0
 40
0.3
  0
CIRCLE
  5
1DC
  8
0
 10
362.04265054683282
 20
33.761120057004838
 30
0.0
 40
0.3
  0
TEXT
  5
1DD
  8
DIM
 10
140.33987660286729
 20
217.91303681937001
 30
0.0
 40
5.2000000000000002
  1
MSAR-%%C32-30-
  7
CHINESET
  0
TEXT
  5
1DE
  8
DIM
 10
215.5833791520854
 20
217.48955298440401
 30
0.0
 40
5.8499999999999996
  1
外觀尺寸圖
  7
CHINESET
  0
CIRCLE
  5
1DF
  8
0
 62
     7
 10
227.1890534372935
 20
149.81197127036199
 30
0.0
 40
12.5
  0
CIRCLE
  5
1E0
  8
0
 62
     7
 10
227.1890534372935
 20
149.81197127036199
 30
0.0
 40
12.0
  0
LINE
  5
1E1
  8
DIM
 10
239.68101517004189
 20
147.81197127036199
 30
0.0
 11
239.68101517004189
 21
64.074790325516631
 31
0.0
  0
LINE
  5
1E2
  8
DIM
 10
236.68101517004189
 20
67.074790325516631
 30
0.0
 11
66.6357252790731
 21
67.074790325516631
 31
0.0
  0
SOLID
  5
1E3
  8
DIM
 10
236.68101517004189
 20
67.574790325516631
 30
0.0
 11
236.68101517004189
 21
66.574790325516631
 31
0.0
 12
239.68101517004189
 22
67.074790325516631
 32
0.0
 13
239.68101517004189
 23
67.074790325516631
 33
0.0
  0
TEXT
  5
1E4
  8
DIM
 10
144.81422945575619
 20
68.574790325516631
 30
0.0
 40
3.0
  1
178.5
  7
CHINESET
 72
     4
 11
150.52851517004191
 21
70.074790325516631
 31
0.0
  0
LINE
  5
1E6
  8
DIM
 10
183.18905343729341
 20
127.81197127036199
 30
0.0
 11
183.18905343729341
 21
91.136135447998555
 31
0.0
  0
LINE
  5
1E7
  8
DIM
 10
227.1890534372935
 20
136.60226316197461
 30
0.0
 11
227.1890534372935
 21
91.136135447998555
 31
0.0
  0
LINE
  5
1E8
  8
DIM
 10
186.1890534372935
 20
94.136135447998555
 30
0.0
 11
224.1890534372935
 21
94.136135447998555
 31
0.0
  0
SOLID
  5
1E9
  8
DIM
 10
186.1890534372935
 20
94.636135447998555
 30
0.0
 11
186.1890534372935
 21
93.636135447998555
 31
0.0
 12
183.18905343729341
 22
94.136135447998555
 32
0.0
 13
183.18905343729341
 23
94.136135447998555
 33
0.0
  0
SOLID
  5
1EA
  8
DIM
 10
224.1890534372935
 20
94.636135447998555
 30
0.0
 11
224.1890534372935
 21
93.636135447998555
 31
0.0
 12
227.1890534372935
 22
94.136135447998555
 32
0.0
 13
227.1890534372935
 23
94.136135447998555
 33
0.0
  0
TEXT
  5
1EB
  8
DIM
 10
202.6890534372935
 20
95.636135447998555
 30
0.0
 40
3.0
  1
44
  7
CHINESET
 72
     4
 11
205.1890534372935
 21
97.136135447998555
 31
0.0
  0
LINE
  5
1EF
  8
DIM
 10
146.44968306953831
 20
108.81197127036199
 30
0.0
 11
146.44968306953831
 21
78.015483443271293
 31
0.0
  0
LINE
  5
1F0
  8
DIM
 10
227.1890534372935
 20
138.60226316197461
 30
0.0
 11
227.1890534372935
 21
78.015483443271293
 31
0.0
  0
LINE
  5
1F1
  8
DIM
 10
149.44968306953831
 20
81.015483443271293
 30
0.0
 11
224.1890534372935
 21
81.015483443271293
 31
0.0
  0
SOLID
  5
1F2
  8
DIM
 10
149.44968306953831
 20
81.515483443271293
 30
0.0
 11
149.44968306953831
 21
80.515483443271279
 31
0.0
 12
146.44968306953831
 22
81.015483443271293
 32
0.0
 13
146.44968306953831
 23
81.015483443271293
 33
0.0
  0
SOLID
  5
1F3
  8
DIM
 10
224.1890534372935
 20
81.515483443271293
 30
0.0
 11
224.1890534372935
 21
80.515483443271279
 31
0.0
 12
227.1890534372935
 22
81.015483443271293
 32
0.0
 13
227.1890534372935
 23
81.015483443271293
 33
0.0
  0
TEXT
  5
1F4
  8
DIM
 10
179.81936825341589
 20
82.515483443271293
 30
0.0
 40
3.0
  1
MIN.77
  7
CHINESET
 72
     4
 11
186.81936825341589
 21
84.015483443271293
 31
0.0
  0
LINE
  5
1F8
  8
DIM
 10
163.1890534372935
 20
126.81197127036199
 30
0.0
 11
163.1890534372935
 21
91.136135447998555
 31
0.0
  0
LINE
  5
1F9
  8
DIM
 10
183.18905343729341
 20
127.81197127036199
 30
0.0
 11
183.18905343729341
 21
91.136135447998555
 31
0.0
  0
LINE
  5
1FA
  8
DIM
 10
166.18905343729341
 20
94.136135447998555
 30
0.0
 11
180.1890534372935
 21
94.136135447998555
 31
0.0
  0
SOLID
  5
1FB
  8
DIM
 10
166.18905343729341
 20
94.636135447998555
 30
0.0
 11
166.18905343729341
 21
93.636135447998555
 31
0.0
 12
163.1890534372935
 22
94.136135447998555
 32
0.0
 13
163.1890534372935
 23
94.136135447998555
 33
0.0
  0
SOLID
  5
1FC
  8
DIM
 10
180.1890534372935
 20
94.636135447998555
 30
0.0
 11
180.1890534372935
 21
93.636135447998555
 31
0.0
 12
183.18905343729341
 22
94.136135447998555
 32
0.0
 13
183.18905343729341
 23
94.136135447998555
 33
0.0
  0
TEXT
  5
1FD
  8
DIM
 10
170.76048200872199
 20
95.636135447998555
 30
0.0
 40
3.0
  1
20
  7
CHINESET
 72
     1
 11
173.18905343729341
 21
97.136135447998555
 31
0.0
 73
     2
  0
LINE
  5
201
  8
DIM
 10
146.44968306953831
 20
108.81197127036199
 30
0.0
 11
146.44968306953831
 21
91.136135447998555
 31
0.0
  0
LINE
  5
202
  8
DIM
 10
159.44968306953831
 20
108.81197127036199
 30
0.0
 11
159.44968306953831
 21
91.136135447998555
 31
0.0
  0
LINE
  5
203
  8
DIM
 10
149.44968306953831
 20
94.136135447998555
 30
0.0
 11
156.44968306953831
 21
94.136135447998555
 31
0.0
  0
SOLID
  5
204
  8
DIM
 10
149.44968306953831
 20
94.636135447998555
 30
0.0
 11
149.44968306953831
 21
93.636135447998555
 31
0.0
 12
146.44968306953831
 22
94.136135447998555
 32
0.0
 13
146.44968306953831
 23
94.136135447998555
 33
0.0
  0
SOLID
  5
205
  8
DIM
 10
156.44968306953831
 20
94.636135447998555
 30
0.0
 11
156.44968306953831
 21
93.636135447998555
 31
0.0
 12
159.44968306953831
 22
94.136135447998555
 32
0.0
 13
159.44968306953831
 23
94.136135447998555
 33
0.0
  0
TEXT
  5
206
  8
DIM
 10
150.80682592668111
 20
95.636135447998555
 30
0.0
 40
3.0
  1
13
  7
CHINESET
 72
     1
 11
152.94968306953831
 21
97.136135447998555
 31
0.0
 73
     2
  0
LINE
  5
20A
  8
HID
  6
HIDDEN
 10
331.97440469447952
 20
156.87045840522629
 30
0.0
 11
331.45053390856287
 21
157.8127023625342
 31
0.0
  0
LINE
  5
20B
  8
HID
  6
HIDDEN
 10
331.97440469447952
 20
156.87045840522629
 30
0.0
 11
332.49827548039622
 21
157.8127023625342
 31
0.0
  0
LINE
  5
20C
  8
HID
  6
HIDDEN
 10
331.97440469447952
 20
142.7534841354977
 30
0.0
 11
331.45053390856287
 21
141.81124017818979
 31
0.0
  0
LINE
  5
20D
  8
HID
  6
HIDDEN
 10
331.97440469447952
 20
142.7534841354977
 30
0.0
 11
332.49827548039622
 21
141.81124017818979
 31
0.0
  0
CIRCLE
  5
20E
  8
HID
  6
HIDDEN
 10
331.97440469447952
 20
141.31197127036199
 30
0.0
 40
2.8814518142310699
  0
CIRCLE
  5
20F
  8
HID
  6
HIDDEN
 10
331.97440469447952
 20
141.31197127036199
 30
0.0
 40
3.5
  0
CIRCLE
  5
210
  8
HID
  6
HIDDEN
 10
331.97440469447952
 20
158.31197127036199
 30
0.0
 40
2.8814518142310699
  0
CIRCLE
  5
211
  8
HID
  6
HIDDEN
 10
331.97440469447952
 20
158.31197127036199
 30
0.0
 40
3.5
  0
DIMENSION
  5
212
  8
DIM
  2
*D14
 10
334.97440469447952
 20
81.015483443271293
 30
0.0
 11
322.97440469447952
 21
84.015483443271293
 31
0.0
 70
     0
  1
24
 13
310.9744046944794
 23
137.81197127036199
 33
0.0
 14
334.97440469447952
 24
137.81197127036191
 34
0.0
1001
ACAD
1000
DSTYLE
1002
{
1070
   140
1040
3.0
1070
   147
1040
1.5
1002
}
  0
DIMENSION
  5
213
  8
DIM
  2
*D13
 10
337.9744046944794
 20
67.074790325516631
 30
0.0
 11
322.97440469447952
 21
70.074790325516631
 31
0.0
 70
     0
  1
30
 13
307.97440469447952
 23
146.81197127036199
 33
0.0
 14
337.9744046944794
 24
146.81197127036199
 34
0.0
1001
ACAD
1000
DSTYLE
1002
{
1070
   140
1040
3.0
1070
   147
1040
1.5
1002
}
  0
LINE
  5
214
  8
0
 10
336.97440469447952
 20
146.81197127036199
 30
0.0
 11
336.97440469447952
 21
134.1594954278635
 31
0.0
  0
DIMENSION
  5
215
  8
DIM
  2
*D12
 10
318.9744046944794
 20
91.19962130382585
 30
0.0
 11
314.9744046944794
 21
94.199621303825836
 31
0.0
 70
     0
  1
8
 13
310.9744046944794
 23
137.81197127036199
 33
0.0
 14
318.9744046944794
 24
137.81197127036191
 34
0.0
1001
ACAD
1000
DSTYLE
1002
{
1070
   140
1040
3.0
1070
   147
1040
1.5
1002
}
  0
LINE
  5
216
  8
0
 62
     7
 10
213.1890534372935
 20
154.28410722536159
 30
0.0
 11
213.18905343729341
 21
145.33983531536239
 31
0.0
  0
LINE
  5
217
  8
0
 10
213.1890534372935
 20
154.28410722536159
 30
0.0
 11
215.19729611520759
 21
153.3401090692864
 31
0.0
  0
LINE
  5
218
  8
HID
  6
HIDDEN
 10
232.21691748229381
 20
154.28410722536159
 30
0.0
 11
215.19729611520759
 21
146.28383347143759
 31
0.0
  0
LINE
  5
219
  8
0
 10
215.19729611520759
 20
146.28383347143759
 30
0.0
 11
213.18905343729341
 21
145.33983531536239
 31
0.0
  0
LINE
  5
21A
  8
HID
  6
HIDDEN
 10
215.19729611520759
 20
153.3401090692864
 30
0.0
 11
232.21691748229389
 21
145.33983531536239
 31
0.0
  0
LINE
  5
21B
  8
0
 62
     7
 10
153.94968306953831
 20
168.31197127036199
 30
0.0
 11
151.94968306953831
 21
168.31197127036199
 31
0.0
  0
LINE
  5
21C
  8
0
 62
     7
 10
153.94968306953831
 20
169.81197127036199
 30
0.0
 11
151.94968306953831
 21
169.81197127036199
 31
0.0
  0
LINE
  5
21D
  8
0
 62
     7
 10
144.44968306953831
 20
168.31197127036199
 30
0.0
 11
80.489053437293521
 21
168.31197127036199
 31
0.0
  0
LINE
  5
21E
  8
0
 62
     7
 10
144.44968306953831
 20
169.81197127036199
 30
0.0
 11
81.989053437293521
 21
169.81197127036199
 31
0.0
  0
TEXT
  5
21F
  8
DIM
 10
132.67778144672209
 20
209.93331752476951
 30
0.0
 40
3.0
  1
S=1:1
  7
CHINESET
  0
TEXT
  5
48F
  8
LOGO
 62
     6
 10
358.3881081299491
 20
-37.024528564813238
 30
0.0
 40
8.3905120429174627
  1
行程
 41
0.9
  7
CHINESET
 72
     4
 11
365.9395689685748
 21
-32.829272543354499
 31
0.0
  0
LINE
  5
490
  8
LOGO
 62
     6
 10
387.60640726315791
 20
-48.561482623824681
 30
0.0
 11
344.27273067399159
 21
-48.561482623824752
 31
0.0
  0
LINE
  5
491
  8
LOGO
 62
     6
 10
387.60640726315791
 20
-25.48757450580165
 30
0.0
 11
344.27273067399159
 21
-25.48757450580165
 31
0.0
  0
TEXT
  5
492
  8
LOGO
  6
CONTINUOUS
 62
     6
 10
356.45029939622759
 20
-45.93944761041304
 30
0.0
 40
5.2440700268234144
  1
Stroke
 41
0.8
  7
CHINESET
 72
     4
 11
365.9395689685748
 21
-43.317412597001329
 31
0.0
  0
TEXT
  5
493
  8
LOGO
  6
CONTINUOUS
 62
     7
 10
358.42806321935598
 20
-11.971928605155981
 30
0.0
 40
10.48814005364682
  1
30
  7
CHINESET
 72
     1
 11
366.91846231040341
 21
-6.7278585783325697
 31
0.0
 73
     2
  0
LINE
  5
494
  8
LOGO
 62
     6
 10
383.4111512416992
 20
2.8304036390447802
 30
0.0
 11
348.46798669545041
 21
2.8304036390447802
 31
0.0
  0
LINE
  5
495
  8
LOGO
 62
     6
 10
383.41115124169909
 20
-16.048248457519531
 30
0.0
 11
348.46798669545041
 21
-16.048248457519509
 31
0.0
  0
LINE
  5
496
  8
LOGO
 62
     1
 10
392.34651856897261
 20
9.1232876712328732
 30
0.0
 11
9.4543428719093754
 21
9.1232876712328732
 31
0.0
  0
LINE
  5
497
  8
LOGO
 62
     1
 10
392.34651856897261
 20
-53.805552650648089
 30
0.0
 11
9.4543428719093754
 21
-53.805552650648089
 31
0.0
  0
LINE
  5
498
  8
LOGO
  6
CONTINUOUS
 62
     6
 10
129.10373241119851
 20
-7.6011025527350489
 30
0.0
 11
140.5581749731414
 21
-6.0881073134546781
 31
0.0
  0
LINE
  5
499
  8
LOGO
  6
CONTINUOUS
 62
     6
 10
129.10373241119851
 20
-11.88270524793775
 30
0.0
 11
140.5581749731414
 21
-13.395700487218139
 31
0.0
  0
LINE
  5
49A
  8
LOGO
 62
     1
 10
147.8977915800474
 20
-3.4624803931433208
 30
0.0
 11
55.60215910795543
 21
-3.4624803931433208
 31
0.0
  0
LINE
  5
49B
  8
LOGO
 62
     1
 10
147.8977915800474
 20
-16.048248457519509
 30
0.0
 11
55.60215910795543
 21
-16.048248457519509
 31
0.0
  0
TEXT
  5
49C
  8
LOGO
 62
     6
 10
115.38559502684539
 20
-0.3160383770492685
 30
0.0
 40
6.2928840321880974
  1
1 : 1
  7
CHINESET
 72
     1
 11
126.473057369272
 21
2.8304036390447802
 31
0.0
 73
     2
  0
TEXT
  5
49D
  8
LOGO
 62
     6
 10
115.38559502684539
 20
-25.48757450580165
 30
0.0
 40
6.2928840321880974
  1
m/m
  7
CHINESET
 72
     1
 11
126.473057369272
 21
-22.341132489707601
 31
0.0
 73
     2
  0
LINE
  5
49E
  8
LOGO
 62
     1
 10
147.8977915800474
 20
-28.634016521895639
 30
0.0
 11
9.4543428719093132
 21
-28.634016521895639
 31
0.0
  0
TEXT
  5
49F
  8
LOGO
  6
CONTINUOUS
 62
     5
 10
11.514110065366721
 20
-41.443276937315048
 30
0.0
 40
9.4393260482821457
  1
金器工業股份有限公司
 41
0.8
  7
LOGO
  0
TEXT
  5
4A0
  8
LOGO
  6
CONTINUOUS
 62
     5
 10
14.216963719731099
 20
-50.88445235343093
 30
0.0
 40
6.2928840321880974
  1
MINDMAN INDUSTRIAL CO.,LTD
 41
0.85
  7
CHINESET
  0
SOLID
  5
4A1
  8
LOGO
 62
     5
 10
15.983311048412171
 20
-18.172992539890839
 30
0.0
 11
18.704188978653178
 21
-18.172992539891741
 31
0.0
 12
30.05681758414287
 22
7.6284361089479686
 32
0.0
 13
32.777695514383637
 23
7.6284361089461852
 33
0.0
  0
SOLID
  5
4A2
  8
LOGO
 62
     5
 10
19.83006950151324
 20
-18.172992539890839
 30
0.0
 11
22.550947431754011
 21
-18.172992539890839
 31
0.0
 12
32.777695514383637
 22
5.5643218170399278
 32
0.0
 13
30.05681758414287
 23
-4.412230593844729
 33
0.0
  0
SOLID
  5
4A3
  8
LOGO
 62
     2
 10
18.704188978653178
 20
-18.172992539891741
 30
0.0
 11
19.83006950151324
 21
-18.172992539890839
 31
0.0
 12
32.777695514383637
 22
7.6284361089461852
 32
0.0
 13
33.903576037242857
 23
7.6284361089461852
 33
0.0
  0
SOLID
  5
4A4
  8
LOGO
 62
     5
 10
18.78182266317738
 20
-22.86416138513432
 30
0.0
 11
19.720056432225121
 21
-22.86416138513432
 31
0.0
 12
18.78182266317738
 22
-27.555330230376939
 32
0.0
 13
19.720056432225121
 23
-27.555330230376939
 33
0.0
  0
SOLID
  5
4A5
  8
LOGO
 62
     5
 10
11.621076485235021
 20
-27.555330230376939
 30
0.0
 11
12.55931025428467
 21
-27.555330230376939
 31
0.0
 12
15.201449574205601
 22
-22.86416138513432
 32
0.0
 13
16.13968334325358
 23
-22.86416138513432
 33
0.0
  0
SOLID
  5
4A6
  8
LOGO
 62
     5
 10
15.201449574205601
 20
-22.86416138513432
 30
0.0
 11
16.13968334325358
 21
-22.86416138513432
 31
0.0
 12
15.201449574205601
 22
-27.555330230376939
 32
0.0
 13
16.13968334325358
 23
-27.555330230376939
 33
0.0
  0
SOLID
  5
4A7
  8
LOGO
 62
     5
 10
15.201449574205601
 20
-27.555330230376939
 30
0.0
 11
16.13968334325358
 21
-27.555330230376939
 31
0.0
 12
18.78182266317738
 22
-22.86416138513432
 32
0.0
 13
19.720056432225121
 23
-22.86416138513432
 33
0.0
  0
LINE
  5
4A8
  8
LOGO
 62
     1
 10
9.4543428719093754
 20
-53.805552650648089
 30
0.0
 11
9.4543428719093754
 21
9.1232876712328732
 31
0.0
  0
TEXT
  5
4A9
  8
LOGO
 62
     6
 10
60.790979111281942
 20
-0.3129414853011445
 30
0.0
 40
6.2928840321880974
  1
比例 Scale:
 41
0.9
  7
CHINESET
 72
     4
 11
80.773695236707795
 21
2.8304036390447802
 31
0.0
  0
TEXT
  5
4AA
  8
LOGO
 62
     6
 10
62.990679199319118
 20
-12.81328695229158
 30
0.0
 40
6.2928840321880974
  1
投影 View:
 41
0.9
  7
CHINESET
 72
     4
 11
80.773695236707795
 21
-9.7553644253314218
 31
0.0
  0
TEXT
  5
4AB
  8
LOGO
 62
     6
 10
63.605920986394658
 20
-25.48757450580165
 30
0.0
 40
6.2928840321880974
  1
單位 Unit:
 41
0.9
  7
CHINESET
 72
     4
 11
80.773695236707795
 21
-22.341132489707601
 31
0.0
  0
POLYLINE
  5
4AC
  8
LOGO
 62
     5
 66
     1
 10
0.0
 20
0.0
 30
0.0
 70
     1
 40
0.9397373488067558
 41
0.9397373488067558
  0
VERTEX
  5
523
  8
LOGO
 62
     5
 10
41.625422791810927
 20
-25.2097458077561
 30
0.0
 42
1.0
  0
VERTEX
  5
524
  8
LOGO
 62
     5
 10
45.384372187037897
 20
-25.2097458077561
 30
0.0
 42
1.0
  0
SEQEND
  5
525
  8
LOGO
 62
     5
  0
LINE
  5
4AD
  8
LOGO
 62
     5
 10
50.697960503213253
 20
-27.555330230376939
 30
0.0
 11
50.697960503213253
 21
-24.74062892323176
 31
0.0
  0
SOLID
  5
4AE
  8
LOGO
 62
     5
 10
44.912154319622637
 20
-22.86416138513432
 30
0.0
 11
45.850388088670499
 21
-22.86416138513432
 31
0.0
 12
44.912154319622637
 22
-27.555330230376939
 32
0.0
 13
45.850388088670499
 23
-27.555330230376939
 33
0.0
  0
SOLID
  5
4AF
  8
LOGO
 62
     5
 10
46.945025427018457
 20
-27.555330230376939
 30
0.0
 11
47.883259196068003
 21
-27.555330230376939
 31
0.0
 12
46.945025427018457
 22
-22.86416138513432
 32
0.0
 13
47.883259196068003
 23
-22.86416138513432
 33
0.0
  0
SOLID
  5
4B0
  8
LOGO
 62
     5
 10
49.759726734165511
 20
-24.74062892323176
 30
0.0
 11
50.697960503213253
 21
-24.740628923231881
 31
0.0
 12
49.759726734165511
 22
-27.555330230376939
 32
0.0
 13
50.697960503213253
 23
-27.555330230376939
 33
0.0
  0
SOLID
  5
4B1
  8
LOGO
 62
     5
 10
31.464074414339599
 20
-21.456810731560839
 30
0.0
 11
32.402308183387341
 21
-21.456810731560839
 31
0.0
 12
31.464074414339599
 22
-27.555330230376939
 32
0.0
 13
32.402308183387341
 23
-27.555330230376939
 33
0.0
  0
SOLID
  5
4B2
  8
LOGO
 62
     5
 10
33.496945521738041
 20
-22.86416138513432
 30
0.0
 11
34.435179290785911
 21
-22.86416138513432
 31
0.0
 12
33.496945521738041
 22
-27.555330230376939
 32
0.0
 13
34.435179290785911
 23
-27.555330230376939
 33
0.0
  0
SOLID
  5
4B3
  8
LOGO
 62
     5
 10
36.311646828883312
 20
-24.74062892323176
 30
0.0
 11
37.24988059793116
 21
-24.74062892323176
 31
0.0
 12
36.311646828883312
 22
-27.555330230376939
 32
0.0
 13
37.24988059793116
 23
-27.555330230376939
 33
0.0
  0
SOLID
  5
4B4
  8
LOGO
 62
     5
 10
39.126348136028682
 20
-24.74062892323176
 30
0.0
 11
40.064581905076423
 21
-24.74062892323176
 31
0.0
 12
39.126348136028682
 22
-27.555330230378729
 32
0.0
 13
40.064581905076423
 23
-27.555330230378729
 33
0.0
  0
LINE
  5
4B5
  8
LOGO
 62
     1
 10
55.60215910795543
 20
-28.63401652189571
 30
0.0
 11
55.60215910795543
 21
9.1232876712328732
 31
0.0
  0
SOLID
  5
4B6
  8
LOGO
 62
     5
 10
22.863566923601219
 20
-22.86416138513432
 30
0.0
 11
23.80180069264896
 21
-22.86416138513432
 31
0.0
 12
22.863566923601219
 22
-27.555330230376939
 32
0.0
 13
23.80180069264896
 23
-27.555330230376939
 33
0.0
  0
SOLID
  5
4B7
  8
LOGO
 62
     5
 10
25.67826823074623
 20
-24.74062892323176
 30
0.0
 11
26.616501999795769
 21
-24.74062892323176
 31
0.0
 12
25.67826823074623
 22
-27.555330230376939
 32
0.0
 13
26.616501999795769
 23
-27.555330230376939
 33
0.0
  0
SOLID
  5
4B8
  8
LOGO
 62
     5
 10
20.830695816202521
 20
-22.86416138513432
 30
0.0
 11
21.768929585253009
 21
-22.86416138513432
 31
0.0
 12
20.830695816202521
 22
-27.555330230378729
 32
0.0
 13
21.768929585253009
 23
-27.555330230376939
 33
0.0
  0
POLYLINE
  5
4B9
  8
LOGO
 62
     5
 66
     1
 10
0.0
 20
0.0
 30
0.0
 70
     1
 40
0.9397373488067558
 41
0.9397373488067558
  0
VERTEX
  5
526
  8
LOGO
 62
     5
 10
28.177342886528731
 20
-25.2097458077561
 30
0.0
 42
1.0
  0
VERTEX
  5
527
  8
LOGO
 62
     5
 10
31.936292281755819
 20
-25.2097458077561
 30
0.0
 42
1.0
  0
SEQEND
  5
528
  8
LOGO
 62
     5
  0
POLYLINE
  5
4BA
  8
LOGO
 62
     5
 66
     1
 10
0.0
 20
0.0
 30
0.0
 40
0.9397373488067558
 41
0.9397373488067558
  0
VERTEX
  5
529
  8
LOGO
 62
     5
 10
50.231098988326998
 20
-24.740628923231739
 30
0.0
 42
1.0
  0
VERTEX
  5
52A
  8
LOGO
 62
     5
 10
47.411886941906623
 20
-24.740628923231739
 30
0.0
 42
1.0
  0
SEQEND
  5
52B
  8
LOGO
 62
     5
  0
SOLID
  5
4BB
  8
LOGO
 62
     5
 10
47.977082572972478
 20
-18.172992539891741
 30
0.0
 11
50.697960503213253
 21
-18.172992539891741
 31
0.0
 12
47.977082572972478
 22
7.6284361089461852
 32
0.0
 13
50.697960503213253
 23
7.6284361089479686
 33
0.0
  0
SOLID
  5
4BC
  8
LOGO
 62
     5
 10
33.903576037242857
 20
7.6284361089461852
 30
0.0
 11
36.624453967483511
 21
7.6284361089479686
 31
0.0
 12
33.903576037242857
 22
-16.108878247984581
 32
0.0
 13
36.624453967483511
 23
-6.1323258370999252
 33
0.0
  0
SOLID
  5
4BD
  8
LOGO
 62
     5
 10
33.903576037242857
 20
-16.108878247984581
 30
0.0
 11
36.624453967483511
 21
-6.1323258370999252
 31
0.0
 12
46.851202050113258
 22
7.6284361089479686
 32
0.0
 13
44.130324119872249
 23
7.6284361089479686
 33
0.0
  0
SOLID
  5
4BE
  8
LOGO
 62
     5
 10
46.851202050113258
 20
5.5643218170399278
 30
0.0
 11
44.130324119872249
 21
-4.412230593844729
 31
0.0
 12
46.851202050113258
 22
-18.172992539891741
 32
0.0
 13
44.130324119872249
 23
-18.172992539891741
 33
0.0
  0
SOLID
  5
4BF
  8
LOGO
 62
     2
 10
46.851202050113258
 20
7.6284361089479686
 30
0.0
 11
47.977082572972478
 21
7.6284361089461852
 31
0.0
 12
46.851202050113258
 22
-18.172992539891741
 32
0.0
 13
47.977082572972478
 23
-18.172992539891741
 33
0.0
  0
SOLID
  5
4C0
  8
LOGO
 62
     5
 10
30.05681758414287
 20
-18.172992539890839
 30
0.0
 11
32.777695514383637
 21
-18.172992539890839
 31
0.0
 12
30.05681758414287
 22
-4.412230593844729
 32
0.0
 13
32.777695514383637
 23
5.5643218170399278
 33
0.0
  0
SOLID
  5
4C1
  8
LOGO
 62
     2
 10
32.777695514383637
 20
7.6284361089461852
 30
0.0
 11
33.903576037242857
 21
7.6284361089461852
 31
0.0
 12
32.777695514383637
 22
-18.172992539890839
 32
0.0
 13
33.903576037242857
 23
-18.172992539890839
 33
0.0
  0
SOLID
  5
4C2
  8
LOGO
 62
     5
 10
33.903576037242857
 20
-18.172992539890839
 30
0.0
 11
36.624453967483511
 21
-18.172992539890839
 31
0.0
 12
46.851202050113258
 22
5.5643218170399278
 32
0.0
 13
44.130324119872249
 23
-4.412230593844729
 33
0.0
  0
SOLID
  5
4C3
  8
LOGO
 62
     2
 10
32.777695514383637
 20
-18.172992539890839
 30
0.0
 11
33.903576037242857
 21
-18.172992539890839
 31
0.0
 12
46.851202050113258
 22
7.6284361089479686
 32
0.0
 13
47.977082572972478
 23
7.6284361089461852
 33
0.0
  0
POLYLINE
  5
4C4
  8
LOGO
 62
     5
 66
     1
 10
0.0
 20
0.0
 30
0.0
 40
0.9397373488067558
 41
0.9397373488067558
  0
VERTEX
  5
52C
  8
LOGO
 62
     5
 10
36.783019083044792
 20
-24.740628923231739
 30
0.0
 42
1.0
  0
VERTEX
  5
52D
  8
LOGO
 62
     5
 10
33.963807036624416
 20
-24.740628923231739
 30
0.0
 42
1.0
  0
SEQEND
  5
52E
  8
LOGO
 62
     5
  0
POLYLINE
  5
4C5
  8
LOGO
 62
     5
 66
     1
 10
0.0
 20
0.0
 30
0.0
 40
0.9397373488067558
 41
0.9397373488067558
  0
VERTEX
  5
52F
  8
LOGO
 62
     5
 10
26.149640484907959
 20
-24.740628923231739
 30
0.0
 42
1.0
  0
VERTEX
  5
530
  8
LOGO
 62
     5
 10
23.330428438487591
 20
-24.740628923231739
 30
0.0
 42
1.0
  0
SEQEND
  5
531
  8
LOGO
 62
     5
  0
SOLID
  5
4C6
  8
LOGO
 62
     5
 10
20.830695816202521
 20
-22.207397746800691
 30
0.0
 11
21.768929585253009
 21
-22.207397746800691
 31
0.0
 12
20.830695816202521
 22
-21.456810731560839
 32
0.0
 13
21.768929585253009
 23
-21.456810731560839
 33
0.0
  0
POLYLINE
  5
4C7
  8
LOGO
 62
     5
 66
     1
 10
0.0
 20
0.0
 30
0.0
 70
     1
  0
VERTEX
  5
532
  8
LOGO
 62
     5
 10
42.09754683585178
 20
-25.209745807755638
 30
0.0
 42
1.0000000573306349
  0
VERTEX
  5
533
  8
LOGO
 62
     5
 10
44.91224814299823
 20
-25.209745807755638
 30
0.0
 42
1.0000000573306349
  0
SEQEND
  5
534
  8
LOGO
 62
     5
  0
CIRCLE
  5
4C8
  8
LOGO
 62
     5
 10
43.504897489424962
 20
-25.209745807755638
 30
0.0
 40
1.407350653572998
  0
POLYLINE
  5
4C9
  8
LOGO
 62
     5
 66
     1
 10
0.0
 20
0.0
 30
0.0
 40
0.9397373488067558
 41
0.9397373488067558
  0
VERTEX
  5
535
  8
LOGO
 62
     5
 10
39.597720390190041
 20
-24.740628923231739
 30
0.0
 42
1.0
  0
VERTEX
  5
536
  8
LOGO
 62
     5
 10
36.77850834376968
 20
-24.740628923231739
 30
0.0
 42
1.0
  0
SEQEND
  5
537
  8
LOGO
 62
     5
  0
LINE
  5
4CA
  8
LOGO
 62
     1
 10
105.9452313654602
 20
-28.63401652189571
 30
0.0
 11
105.9452313654602
 21
9.1232876712328732
 31
0.0
  0
CIRCLE
  5
4CB
  8
LOGO
  6
CONTINUOUS
 62
     6
 10
117.59729325254899
 20
-9.7419039003364212
 30
0.0
 40
3.6537965868817368
  0
CIRCLE
  5
4CC
  8
LOGO
  6
CONTINUOUS
 62
     6
 10
117.59729325254899
 20
-9.7419039003364212
 30
0.0
 40
2.1408013476013559
  0
LINE
  5
4CD
  8
LOGO
 62
     6
 10
129.10373241119859
 20
-11.882705247937769
 30
0.0
 11
129.10373241119851
 21
-7.6011025527350418
 31
0.0
  0
TEXT
  5
4CE
  8
LOGO
  6
CONTINUOUS
 62
     6
 10
249.636449834834
 20
-45.939447610412977
 30
0.0
 40
5.2440700268234144
  1
Model
  7
CHINESET
 72
     4
 11
259.62515464783098
 21
-43.31741259700128
 31
0.0
  0
TEXT
  5
4CF
  8
LOGO
  6
CONTINUOUS
 62
     7
 10
239.64774502183701
 20
-11.852992436060781
 30
0.0
 40
10.48814005364682
  1
MSAR
  7
CHINESET
 72
     1
 11
259.62515464783098
 21
-6.6089224092373673
 31
0.0
 73
     2
  0
LINE
  5
4D0
  8
LOGO
 62
     6
 10
284.79669077658338
 20
2.8304036390447802
 30
0.0
 11
234.4536185190787
 21
2.8304036390447802
 31
0.0
  0
LINE
  5
4D1
  8
LOGO
 62
     6
 10
284.79669077658338
 20
-16.048248457519509
 30
0.0
 11
234.4536185190787
 21
-16.048248457519509
 31
0.0
  0
LINE
  5
4D2
  8
LOGO
 62
     6
 10
280.60143475512473
 20
-25.48757450580165
 30
0.0
 11
238.64887454053741
 21
-25.48757450580165
 31
0.0
  0
LINE
  5
4D3
  8
LOGO
 62
     6
 10
280.60143475512473
 20
-48.561482623824702
 30
0.0
 11
238.64887454053741
 21
-48.561482623824752
 31
0.0
  0
TEXT
  5
4D4
  8
LOGO
 62
     7
 10
153.04882476888699
 20
-6.6326627693212803
 30
0.0
 40
12.58576806437619
  1
訂購代號:
  7
CHINESET
  0
TEXT
  5
4D5
  8
LOGO
 62
     7
 10
151.5434975216761
 20
-18.444766448063
 30
0.0
 40
8.3905120429174627
  1
Order example:
 41
0.8
  7
CHINESET
  0
LINE
  5
4D6
  8
LOGO
 62
     1
 10
147.8977915800474
 20
-53.805552650648089
 30
0.0
 11
147.8977915800474
 21
9.1232876712328732
 31
0.0
  0
LINE
  5
4D7
  8
LOGO
 62
     6
 10
140.5581749731414
 20
-13.395700487218139
 30
0.0
 11
140.5581749731414
 21
-6.0881073134546781
 31
0.0
  0
LINE
  5
4D8
  8
LOGO
 62
     6
 10
238.64887454053741
 20
-25.48757450580165
 30
0.0
 11
238.64887454053741
 21
-48.561482623824752
 31
0.0
  0
LINE
  5
4D9
  8
LOGO
 62
     6
 10
234.4536185190787
 20
2.8304036390447802
 30
0.0
 11
234.4536185190787
 21
-16.048248457519509
 31
0.0
  0
TEXT
  5
4DA
  8
LOGO
  6
CONTINUOUS
 62
     7
 10
309.26394508933578
 20
-11.97192860515587
 30
0.0
 40
10.48814005364682
  1
32
  7
CHINESET
 72
     1
 11
317.75434418038321
 21
-6.7278585783324552
 31
0.0
 73
     2
  0
LINE
  5
4DB
  8
LOGO
 62
     6
 10
333.61458343350898
 20
-48.561482623824581
 30
0.0
 11
299.93631824359989
 21
-48.56148262382461
 31
0.0
  0
LINE
  5
4DC
  8
LOGO
 62
     6
 10
333.61458343350898
 20
-16.048248457519389
 30
0.0
 11
299.93631824359989
 21
-16.048248457519389
 31
0.0
  0
LINE
  5
4DD
  8
LOGO
 62
     6
 10
333.61458343350898
 20
-25.48757450580154
 30
0.0
 11
299.93631824359989
 21
-25.48757450580154
 31
0.0
  0
LINE
  5
4DE
  8
LOGO
 62
     6
 10
333.61458343350898
 20
2.8304036390450098
 30
0.0
 11
299.93631824359989
 21
2.8304036390448939
 31
0.0
  0
LINE
  5
4DF
  8
LOGO
 62
     6
 10
299.93631824359989
 20
-25.48757450580154
 30
0.0
 11
299.93631824359989
 21
-48.561482623824581
 31
0.0
  0
LINE
  5
4E0
  8
LOGO
 62
     6
 10
280.60143475512473
 20
-25.48757450580165
 30
0.0
 11
280.60143475512473
 21
-48.561482623824681
 31
0.0
  0
TEXT
  5
4E1
  8
LOGO
 62
     6
 10
251.23464260491349
 20
-36.80981073694322
 30
0.0
 40
8.3905120429174627
  1
型式
  7
CHINESET
 72
     4
 11
259.62515464783098
 21
-32.829272543354428
 31
0.0
  0
LINE
  5
4E2
  8
LOGO
 62
     6
 10
259.62515464783098
 20
-16.048248457519509
 30
0.0
 11
259.62515464783098
 21
-25.48757450580165
 31
0.0
  0
LINE
  5
4E3
  8
LOGO
 62
     6
 10
299.93631824359989
 20
2.8304036390448939
 30
0.0
 11
299.93631824359989
 21
-16.048248457519389
 31
0.0
  0
LINE
  5
4E4
  8
LOGO
 62
     6
 10
284.79669077658349
 20
2.8304036390447802
 30
0.0
 11
284.79669077658349
 21
-16.048248457519509
 31
0.0
  0
LINE
  5
4E5
  8
LOGO
  6
CONTINUOUS
 62
     7
 10
288.3354230201802
 20
-6.6757935784955453
 30
0.0
 11
296.67154693461708
 21
-6.6757935784955453
 31
0.0
  0
LINE
  5
4E6
  8
LOGO
 62
     6
 10
344.27273067399159
 20
-25.48757450580165
 30
0.0
 11
344.27273067399159
 21
-48.561482623824752
 31
0.0
  0
LINE
  5
4E7
  8
LOGO
 62
     6
 10
333.61458343350898
 20
-25.48757450580154
 30
0.0
 11
333.61458343350898
 21
-48.56148262382451
 31
0.0
  0
TEXT
  5
4E8
  8
LOGO
  6
CONTINUOUS
 62
     6
 10
310.28279271010638
 20
-45.939447610412913
 30
0.0
 40
5.2440700268234144
  1
Bore
 41
0.8
  7
CHINESET
 72
     4
 11
316.77545083855449
 21
-43.317412597001208
 31
0.0
  0
TEXT
  5
4E9
  8
LOGO
 62
     6
 10
308.75202369751469
 20
-37.02452856481311
 30
0.0
 40
8.3905120429174627
  1
內徑
 41
0.9
  7
CHINESET
 72
     4
 11
316.77545083855449
 21
-32.829272543354378
 31
0.0
  0
LINE
  5
4EA
  8
LOGO
  6
CONTINUOUS
 62
     7
 10
336.86709147203072
 20
-6.6757935784954219
 30
0.0
 11
345.2032153864676
 21
-6.6757935784954219
 31
0.0
  0
LINE
  5
4EB
  8
LOGO
 62
     6
 10
333.61458343350898
 20
2.8304036390450098
 30
0.0
 11
333.61458343350898
 21
-16.048248457519389
 31
0.0
  0
LINE
  5
4EC
  8
LOGO
 62
     6
 10
316.77545035487401
 20
-16.048248457519389
 30
0.0
 11
316.77545035487401
 21
-25.48757450580154
 31
0.0
  0
LINE
  5
4ED
  8
LOGO
 62
     6
 10
348.46798669545041
 20
2.8304036390447802
 30
0.0
 11
348.46798669545041
 21
-16.048248457519509
 31
0.0
  0
LINE
  5
4EE
  8
LOGO
 62
     6
 10
366.38382753508989
 20
-16.048248457519509
 30
0.0
 11
366.38382753508989
 21
-25.48757450580165
 31
0.0
  0
LINE
  5
4F4
  8
LOGO
 62
     6
 10
387.60640726315791
 20
-25.48757450580165
 30
0.0
 11
387.60640726315791
 21
-48.648486557231273
 31
0.0
  0
LINE
  5
4F5
  8
LOGO
 62
     6
 10
383.4111512416992
 20
2.8304036390447802
 30
0.0
 11
383.41115124169909
 21
-16.048248457519531
 31
0.0
  0
LINE
  5
4FE
  8
LOGO
 62
     1
 10
392.34651856897261
 20
-53.805552650648089
 30
0.0
 11
392.34651856897261
 21
9.1232876712328732
 31
0.0
  0
ENDSEC
  0
EOF
