  0
SECTION
  2
HEADER
  9
$ACADVER
  1
AC1009
  9
$INSBASE
 10
0.0
 20
0.0
 30
0.0
  9
$EXTMIN
 10
9.4443979056603666
 20
-53.995147132309107
 30
-0.0000000349181948
  9
$EXTMAX
 10
392.35638519511139
 20
209.39886530767981
 30
0.0000000814935746
  9
$LIMMIN
 10
0.0
 20
0.0
  9
$LIMMAX
 10
396.0
 20
273.0
  9
$ORTHOMODE
 70
     1
  9
$REGENMODE
 70
     1
  9
$FILLMODE
 70
     1
  9
$QTEXTMODE
 70
     0
  9
$MIRRTEXT
 70
     1
  9
$DRAGMODE
 70
     2
  9
$LTSCALE
 40
6.0
  9
$OSMODE
 70
    39
  9
$ATTMODE
 70
     1
  9
$TEXTSIZE
 40
5.0
  9
$TRACEWID
 40
0.05
  9
$TEXTSTYLE
  7
CHINESET
  9
$CLAYER
  8
0
  9
$CELTYPE
  6
BYLAYER
  9
$CECOLOR
 62
   256
  9
$DIMSCALE
 40
1.0
  9
$DIMASZ
 40
3.0
  9
$DIMEXO
 40
2.0
  9
$DIMDLI
 40
8.0
  9
$DIMRND
 40
0.0
  9
$DIMDLE
 40
0.0
  9
$DIMEXE
 40
2.0
  9
$DIMTP
 40
0.0
  9
$DIMTM
 40
0.0
  9
$DIMTXT
 40
3.0
  9
$DIMCEN
 40
5.0
  9
$DIMTSZ
 40
0.0
  9
$DIMTOL
 70
     0
  9
$DIMLIM
 70
     0
  9
$DIMTIH
 70
     0
  9
$DIMTOH
 70
     0
  9
$DIMSE1
 70
     0
  9
$DIMSE2
 70
     0
  9
$DIMTAD
 70
     1
  9
$DIMZIN
 70
     8
  9
$DIMBLK
  1

  9
$DIMASO
 70
     1
  9
$DIMSHO
 70
     1
  9
$DIMPOST
  1

  9
$DIMAPOST
  1

  9
$DIMALT
 70
     0
  9
$DIMALTD
 70
     2
  9
$DIMALTF
 40
25.399999999999999
  9
$DIMLFAC
 40
1.0
  9
$DIMTOFL
 70
     0
  9
$DIMTVP
 40
0.0
  9
$DIMTIX
 70
     0
  9
$DIMSOXD
 70
     0
  9
$DIMSAH
 70
     0
  9
$DIMBLK1
  1

  9
$DIMBLK2
  1

  9
$DIMSTYLE
  2
STANDARD
  9
$DIMCLRD
 70
   256
  9
$DIMCLRE
 70
   256
  9
$DIMCLRT
 70
     0
  9
$DIMTFAC
 40
1.0
  9
$DIMGAP
 40
1.0
  9
$LUNITS
 70
     2
  9
$LUPREC
 70
     2
  9
$SKETCHINC
 40
0.1
  9
$FILLETRAD
 40
0.3
  9
$AUNITS
 70
     0
  9
$AUPREC
 70
     0
  9
$MENU
  1
C:\CACAD\SUPPORT\ACAD
  9
$ELEVATION
 40
0.0
  9
$PELEVATION
 40
0.0
  9
$THICKNESS
 40
0.0
  9
$LIMCHECK
 70
     0
  9
$BLIPMODE
 70
     0
  9
$CHAMFERA
 40
0.5
  9
$CHAMFERB
 40
0.5
  9
$SKPOLY
 70
     0
  9
$TDCREATE
 40
2451089.4010355552
  9
$TDUPDATE
 40
2451922.6586846872
  9
$TDINDWG
 40
0.0055604282
  9
$TDUSRTIMER
 40
0.0055604282
  9
$USRTIMER
 70
     1
  9
$ANGBASE
 50
0.0
  9
$ANGDIR
 70
     0
  9
$PDMODE
 70
    65
  9
$PDSIZE
 40
8.3000000000000007
  9
$PLINEWID
 40
0.0
  9
$COORDS
 70
     2
  9
$SPLFRAME
 70
     0
  9
$SPLINETYPE
 70
     6
  9
$SPLINESEGS
 70
     8
  9
$ATTDIA
 70
     0
  9
$ATTREQ
 70
     1
  9
$HANDLING
 70
 12289
  9
$HANDSEED
  5
10FE22BE51B
  9
$SURFTAB1
 70
     6
  9
$SURFTAB2
 70
     6
  9
$SURFTYPE
 70
     6
  9
$SURFU
 70
     6
  9
$SURFV
 70
     6
  9
$UCSNAME
  2

  9
$UCSORG
 10
0.0
 20
0.0
 30
0.0
  9
$UCSXDIR
 10
1.0
 20
0.0
 30
0.0
  9
$UCSYDIR
 10
0.0
 20
1.0
 30
0.0
  9
$PUCSNAME
  2

  9
$PUCSORG
 10
0.0
 20
0.0
 30
0.0
  9
$PUCSXDIR
 10
1.0
 20
0.0
 30
0.0
  9
$PUCSYDIR
 10
0.0
 20
1.0
 30
0.0
  9
$USERI1
 70
     0
  9
$USERI2
 70
     0
  9
$USERI3
 70
     0
  9
$USERI4
 70
     0
  9
$USERI5
 70
     0
  9
$USERR1
 40
0.0
  9
$USERR2
 40
0.0
  9
$USERR3
 40
0.0
  9
$USERR4
 40
0.0
  9
$USERR5
 40
0.0
  9
$WORLDVIEW
 70
     1
  9
$SHADEDGE
 70
     3
  9
$SHADEDIF
 70
    70
  9
$TILEMODE
 70
     1
  9
$MAXACTVP
 70
    16
  9
$PLIMCHECK
 70
     0
  9
$PEXTMIN
 10
1.0000000000000000E+020
 20
1.0000000000000000E+020
 30
1.0000000000000000E+020
  9
$PEXTMAX
 10
-1.0000000000000000E+020
 20
-1.0000000000000000E+020
 30
-1.0000000000000000E+020
  9
$PLIMMIN
 10
0.0
 20
0.0
  9
$PLIMMAX
 10
12.0
 20
9.0
  9
$UNITMODE
 70
     0
  9
$VISRETAIN
 70
     0
  9
$PLINEGEN
 70
     0
  9
$PSLTSCALE
 70
     0
  0
ENDSEC
  0
SECTION
  2
TABLES
  0
TABLE
  2
VPORT
 70
     3
  0
VPORT
  2
*ACTIVE
 70
     0
 10
0.0
 20
0.0
 11
1.0
 21
1.0
 12
200.9003915503859
 22
77.701859087685378
 13
0.0
 23
0.0
 14
1.0
 24
1.0
 15
0.0
 25
0.0
 16
0.0
 26
0.0
 36
1.0
 17
0.0
 27
0.0
 37
0.0
 40
266.29909345954758
 41
1.7274401473296499
 42
50.0
 43
0.0
 44
0.0
 50
0.0
 51
0.0
 71
     0
 72
   100
 73
     1
 74
     1
 75
     0
 76
     0
 77
     0
 78
     0
  0
ENDTAB
  0
TABLE
  2
LTYPE
 70
     4
  0
LTYPE
  2
CONTINUOUS
 70
     0
  3
Solid line
 72
    65
 73
     0
 40
0.0
  0
LTYPE
  2
HIDDEN
 70
     0
  3
__ __ __ __ __ __ __ __ __ __ __ __ __ __ __ __
 72
    65
 73
     2
 40
0.375
 49
0.25
 49
-0.125
  0
LTYPE
  2
CENTER
 70
     0
  3
____ _ ____ _ ____ _ ____ _ ____ _ ____ _ ____ 
 72
    65
 73
     4
 40
2.0
 49
1.25
 49
-0.25
 49
0.25
 49
-0.25
  0
LTYPE
  2
DASHED
 70
     0
  3
__ __ __ __ __ __ __ __ __ __ __ __ __ __ __ __
 72
    65
 73
     2
 40
0.75
 49
0.5
 49
-0.25
  0
ENDTAB
  0
TABLE
  2
LAYER
 70
     6
  0
LAYER
  2
0
 70
     0
 62
     7
  6
CONTINUOUS
  0
LAYER
  2
DEFPOINTS
 70
     0
 62
     7
  6
CONTINUOUS
  0
LAYER
  2
LOGO
 70
     0
 62
     7
  6
CONTINUOUS
  0
LAYER
  2
DIM
 70
     0
 62
     5
  6
CONTINUOUS
  0
LAYER
  2
CENTER
 70
     0
 62
     1
  6
CENTER
  0
LAYER
  2
HID
 70
     0
 62
     6
  6
HIDDEN
  0
ENDTAB
  0
TABLE
  2
STYLE
 70
     3
  0
STYLE
  2
STANDARD
 70
     0
 40
0.0
 41
1.0
 50
0.0
 71
     0
 42
0.2
  3
txt
  4

  0
STYLE
  2
CHINESET
 70
     0
 40
0.0
 41
1.0
 50
0.0
 71
     0
 42
5.0
  3
SIMPLEX.SHX
  4
CHINESET
  0
STYLE
  2
LOGO
 70
     0
 40
0.0
 41
1.0
 50
0.0
 71
     0
 42
5.0
  3
txt
  4

  0
ENDTAB
  0
TABLE
  2
VIEW
 70
     0
  0
ENDTAB
  0
TABLE
  2
UCS
 70
     0
  0
ENDTAB
  0
TABLE
  2
APPID
 70
     1
  0
APPID
  2
ACAD
 70
     0
  0
ENDTAB
  0
TABLE
  2
DIMSTYLE
 70
     1
  0
DIMSTYLE
  2
STANDARD
 70
     0
  3

  4

  5

  6

  7

 40
1.0
 41
3.0
 42
2.0
 43
8.0
 44
2.0
 45
0.0
 46
0.0
 47
0.0
 48
0.0
140
3.0
141
5.0
142
0.0
143
25.399999999999999
144
1.0
145
0.0
146
1.0
147
1.0
 71
     0
 72
     0
 73
     0
 74
     0
 75
     0
 76
     0
 77
     1
 78
     8
170
     0
171
     2
172
     0
173
     0
174
     0
175
     0
176
   256
177
   256
178
     0
  0
ENDTAB
  0
ENDSEC
  0
SECTION
  2
BLOCKS
  0
BLOCK
  8
0
  2
$MODEL_SPACE
 70
     0
 10
0.0
 20
0.0
 30
0.0
  3
$MODEL_SPACE
  1

  0
ENDBLK
  5
10FE22BE39C
  8
0
  0
BLOCK
 67
     1
  8
0
  2
$PAPER_SPACE
 70
     0
 10
0.0
 20
0.0
 30
0.0
  3
$PAPER_SPACE
  1

  0
ENDBLK
  5
10FE22BE39A
 67
     1
  8
0
  0
BLOCK
  8
0
  2
*D6
 70
     1
 10
0.0
 20
0.0
 30
0.0
  3
*D6
  1

  0
LINE
  5
10FE22BE4EE
  8
DIM
 10
252.85589045918209
 20
107.5544698504398
 30
0.0
 11
252.85589045918209
 21
14.404268814529541
 31
0.0
  0
LINE
  5
10FE22BE4EF
  8
DIM
 10
57.855890459182142
 20
79.554469850439844
 30
0.0
 11
57.855890459182142
 21
14.404268814529541
 31
0.0
  0
LINE
  5
10FE22BE4F0
  8
DIM
 10
249.85589045918209
 20
16.404268814529541
 30
0.0
 11
60.855890459182142
 21
16.404268814529541
 31
0.0
  0
SOLID
  5
10FE22BE4F1
  8
DIM
 10
249.85589045918209
 20
16.904268814529541
 30
0.0
 11
249.85589045918209
 21
15.904268814529541
 31
0.0
 12
252.85589045918209
 22
16.404268814529541
 32
0.0
 13
252.85589045918209
 23
16.404268814529541
 33
0.0
  0
SOLID
  5
10FE22BE4F2
  8
DIM
 10
60.855890459182142
 20
16.904268814529541
 30
0.0
 11
60.855890459182142
 21
15.904268814529541
 31
0.0
 12
57.855890459182142
 22
16.404268814529541
 32
0.0
 13
57.855890459182142
 23
16.404268814529541
 33
0.0
  0
TEXT
  5
10FE22BE4F3
  8
0
 62
     0
 10
149.85589045918209
 20
18.689983100243818
 30
0.0
 40
3.0
  1
(195)
  7
CHINESET
  0
POINT
  5
10FE22BE4F4
  8
DEFPOINTS
 62
     0
 10
252.85589045918209
 20
109.5544698504398
 30
0.0
  0
POINT
  5
10FE22BE4F5
  8
DEFPOINTS
 62
     0
 10
57.855890459182142
 20
81.554469850439844
 30
0.0
  0
POINT
  5
10FE22BE4F6
  8
DEFPOINTS
 62
     0
 10
57.855890459182142
 20
16.404268814529541
 30
0.0
  0
ENDBLK
  5
10FE22BE414
  8
0
  0
BLOCK
  8
0
  2
*D7
 70
     1
 10
0.0
 20
0.0
 30
0.0
  3
*D7
  1

  0
LINE
  5
10FE22BE4C0
  8
DIM
 10
191.7558904591821
 20
77.554469850439872
 30
0.0
 11
210.90317089348761
 21
77.554469850439872
 31
0.0
  0
LINE
  5
10FE22BE4C1
  8
DIM
 10
191.7558904591821
 20
141.5544698504398
 30
0.0
 11
210.90317089348761
 21
141.5544698504398
 31
0.0
  0
LINE
  5
10FE22BE4C2
  8
DIM
 10
208.9031708934875
 20
80.554469850439872
 30
0.0
 11
208.9031708934875
 21
138.5544698504398
 31
0.0
  0
SOLID
  5
10FE22BE4C3
  8
DIM
 10
208.40317089348761
 20
80.554469850439872
 30
0.0
 11
209.40317089348761
 21
80.554469850439872
 31
0.0
 12
208.9031708934875
 22
77.554469850439872
 32
0.0
 13
208.9031708934875
 23
77.554469850439872
 33
0.0
  0
SOLID
  5
10FE22BE4C4
  8
DIM
 10
208.40317089348761
 20
138.5544698504398
 30
0.0
 11
209.40317089348761
 21
138.5544698504398
 31
0.0
 12
208.9031708934875
 22
141.5544698504398
 32
0.0
 13
208.9031708934875
 23
141.5544698504398
 33
0.0
  0
INSERT
  5
10FE22BE4C5
  8
0
  2
*U12
 10
0.0
 20
0.0
 30
0.0
  0
POINT
  5
10FE22BE4C6
  8
DEFPOINTS
 62
     0
 10
189.7558904591821
 20
77.554469850439872
 30
0.0
  0
POINT
  5
10FE22BE4C7
  8
DEFPOINTS
 62
     0
 10
189.7558904591821
 20
141.5544698504398
 30
0.0
  0
POINT
  5
10FE22BE4C8
  8
DEFPOINTS
 62
     0
 10
208.9031708934875
 20
141.5544698504398
 30
0.0
  0
ENDBLK
  5
10FE22BE420
  8
0
  0
BLOCK
  8
0
  2
*D8
 70
     1
 10
0.0
 20
0.0
 30
0.0
  3
*D8
  1

  0
LINE
  5
10FE22BE4E5
  8
DIM
 10
222.85589045918209
 20
111.5544698504398
 30
0.0
 11
222.85589045918209
 21
143.22827129136209
 31
0.0
  0
LINE
  5
10FE22BE4E6
  8
DIM
 10
252.85589045918209
 20
111.5544698504398
 30
0.0
 11
252.85589045918209
 21
143.22827129136209
 31
0.0
  0
LINE
  5
10FE22BE4E7
  8
DIM
 10
225.85589045918209
 20
141.22827129136209
 30
0.0
 11
249.85589045918209
 21
141.22827129136209
 31
0.0
  0
SOLID
  5
10FE22BE4E8
  8
DIM
 10
225.85589045918209
 20
141.72827129136209
 30
0.0
 11
225.85589045918209
 21
140.72827129136209
 31
0.0
 12
222.85589045918209
 22
141.22827129136209
 32
0.0
 13
222.85589045918209
 23
141.22827129136209
 33
0.0
  0
SOLID
  5
10FE22BE4E9
  8
DIM
 10
249.85589045918209
 20
141.72827129136209
 30
0.0
 11
249.85589045918209
 21
140.72827129136209
 31
0.0
 12
252.85589045918209
 22
141.22827129136209
 32
0.0
 13
252.85589045918209
 23
141.22827129136209
 33
0.0
  0
INSERT
  5
10FE22BE4EA
  8
0
  2
*U13
 10
0.0
 20
0.0
 30
0.0
  0
POINT
  5
10FE22BE4EB
  8
DEFPOINTS
 62
     0
 10
222.85589045918209
 20
109.5544698504398
 30
0.0
  0
POINT
  5
10FE22BE4EC
  8
DEFPOINTS
 62
     0
 10
252.85589045918209
 20
109.5544698504398
 30
0.0
  0
POINT
  5
10FE22BE4ED
  8
DEFPOINTS
 62
     0
 10
252.85589045918209
 20
141.22827129136209
 30
0.0
  0
ENDBLK
  5
10FE22BE42C
  8
0
  0
BLOCK
  8
0
  2
*D9
 70
     1
 10
0.0
 20
0.0
 30
0.0
  3
*D9
  1

  0
LINE
  5
10FE22BE4DB
  8
DIM
 10
310.68993484674741
 20
126.5544698504398
 30
0.0
 11
310.68993484674741
 21
179.06421844489421
 31
0.0
  0
LINE
  5
10FE22BE4DC
  8
DIM
 10
318.68993484674729
 20
126.5544698504398
 30
0.0
 11
318.68993484674729
 21
179.06421844489421
 31
0.0
  0
LINE
  5
10FE22BE4DD
  8
DIM
 10
307.68993484674741
 20
177.06421844489421
 30
0.0
 11
304.68993484674741
 21
177.06421844489421
 31
0.0
  0
LINE
  5
10FE22BE4DE
  8
DIM
 10
321.68993484674741
 20
177.06421844489421
 30
0.0
 11
324.68993484674729
 21
177.06421844489421
 31
0.0
  0
SOLID
  5
10FE22BE4DF
  8
DIM
 10
307.68993484674741
 20
177.56421844489421
 30
0.0
 11
307.68993484674741
 21
176.56421844489421
 31
0.0
 12
310.68993484674741
 22
177.06421844489421
 32
0.0
 13
310.68993484674741
 23
177.06421844489421
 33
0.0
  0
SOLID
  5
10FE22BE4E0
  8
DIM
 10
321.68993484674741
 20
177.56421844489421
 30
0.0
 11
321.68993484674741
 21
176.56421844489421
 31
0.0
 12
318.68993484674729
 22
177.06421844489421
 32
0.0
 13
318.68993484674729
 23
177.06421844489421
 33
0.0
  0
TEXT
  5
10FE22BE4E1
  8
0
 62
     0
 10
313.68993484674741
 20
178.06421844489421
 30
0.0
 40
3.0
  1
8
  7
CHINESET
  0
POINT
  5
10FE22BE4E2
  8
DEFPOINTS
 62
     0
 10
310.68993484674741
 20
124.5544698504398
 30
0.0
  0
POINT
  5
10FE22BE4E3
  8
DEFPOINTS
 62
     0
 10
318.68993484674729
 20
124.5544698504398
 30
0.0
  0
POINT
  5
10FE22BE4E4
  8
DEFPOINTS
 62
     0
 10
318.68993484674729
 20
177.06421844489421
 30
0.0
  0
ENDBLK
  5
10FE22BE439
  8
0
  0
BLOCK
  8
0
  2
*D10
 70
     1
 10
0.0
 20
0.0
 30
0.0
  3
*D10
  1

  0
LINE
  5
10FE22BE4D2
  8
DIM
 10
307.68993484674741
 20
114.0544698504398
 30
0.0
 11
307.68993484674741
 21
200.40991054300929
 31
0.0
  0
LINE
  5
10FE22BE4D3
  8
DIM
 10
343.68993484674752
 20
114.0544698504398
 30
0.0
 11
343.68993484674752
 21
200.40991054300929
 31
0.0
  0
LINE
  5
10FE22BE4D4
  8
DIM
 10
310.68993484674741
 20
198.40991054300929
 30
0.0
 11
340.68993484674752
 21
198.40991054300929
 31
0.0
  0
SOLID
  5
10FE22BE4D5
  8
DIM
 10
310.68993484674741
 20
198.90991054300929
 30
0.0
 11
310.68993484674741
 21
197.90991054300929
 31
0.0
 12
307.68993484674741
 22
198.40991054300929
 32
0.0
 13
307.68993484674741
 23
198.40991054300929
 33
0.0
  0
SOLID
  5
10FE22BE4D6
  8
DIM
 10
340.68993484674752
 20
198.90991054300929
 30
0.0
 11
340.68993484674752
 21
197.90991054300929
 31
0.0
 12
343.68993484674752
 22
198.40991054300929
 32
0.0
 13
343.68993484674752
 23
198.40991054300929
 33
0.0
  0
TEXT
  5
10FE22BE4D7
  8
0
 62
     0
 10
323.33279198960457
 20
199.40991054300929
 30
0.0
 40
3.0
  1
36
  7
CHINESET
  0
POINT
  5
10FE22BE4D8
  8
DEFPOINTS
 62
     0
 10
307.68993484674741
 20
112.0544698504398
 30
0.0
  0
POINT
  5
10FE22BE4D9
  8
DEFPOINTS
 62
     0
 10
343.68993484674752
 20
112.0544698504398
 30
0.0
  0
POINT
  5
10FE22BE4DA
  8
DEFPOINTS
 62
     0
 10
343.68993484674752
 20
198.40991054300929
 30
0.0
  0
ENDBLK
  5
10FE22BE445
  8
0
  0
BLOCK
  8
0
  2
*D11
 70
     1
 10
0.0
 20
0.0
 30
0.0
  3
*D11
  1

  0
LINE
  5
10FE22BE4C9
  8
DIM
 10
310.68993484674741
 20
126.5544698504398
 30
0.0
 11
310.68993484674741
 21
190.7376437447995
 31
0.0
  0
LINE
  5
10FE22BE4CA
  8
DIM
 10
340.68993484674752
 20
126.5544698504398
 30
0.0
 11
340.68993484674752
 21
190.7376437447995
 31
0.0
  0
LINE
  5
10FE22BE4CB
  8
DIM
 10
313.68993484674741
 20
188.7376437447995
 30
0.0
 11
337.68993484674752
 21
188.7376437447995
 31
0.0
  0
SOLID
  5
10FE22BE4CC
  8
DIM
 10
313.68993484674741
 20
189.2376437447995
 30
0.0
 11
313.68993484674741
 21
188.2376437447995
 31
0.0
 12
310.68993484674741
 22
188.7376437447995
 32
0.0
 13
310.68993484674741
 23
188.7376437447995
 33
0.0
  0
SOLID
  5
10FE22BE4CD
  8
DIM
 10
337.68993484674752
 20
189.2376437447995
 30
0.0
 11
337.68993484674752
 21
188.2376437447995
 31
0.0
 12
340.68993484674752
 22
188.7376437447995
 32
0.0
 13
340.68993484674752
 23
188.7376437447995
 33
0.0
  0
TEXT
  5
10FE22BE4CE
  8
0
 62
     0
 10
323.26136341817602
 20
189.7376437447995
 30
0.0
 40
3.0
  1
30
  7
CHINESET
  0
POINT
  5
10FE22BE4CF
  8
DEFPOINTS
 62
     0
 10
310.68993484674741
 20
124.5544698504398
 30
0.0
  0
POINT
  5
10FE22BE4D0
  8
DEFPOINTS
 62
     0
 10
340.68993484674752
 20
124.5544698504398
 30
0.0
  0
POINT
  5
10FE22BE4D1
  8
DEFPOINTS
 62
     0
 10
340.68993484674752
 20
188.7376437447995
 30
0.0
  0
ENDBLK
  5
10FE22BE451
  8
0
  0
BLOCK
  8
0
  2
*U12
 70
     1
 10
0.0
 20
0.0
 30
0.0
  3
*U12
  1

  0
TEXT
  5
10FE22BE512
  8
0
 62
     0
 10
207.9031708934875
 20
105.697326993297
 30
0.0
 40
3.0
  1
\U+2205
 50
90.0
  7
CHINESET
  0
TEXT
  5
10FE22BE513
  8
0
 62
     0
 10
207.9031708934875
 20
108.41161270758271
 30
0.0
 40
3.0
  1
64
 50
90.0
  7
CHINESET
  0
ENDBLK
  5
10FE22BE515
  8
0
  0
BLOCK
  8
0
  2
*U13
 70
     1
 10
0.0
 20
0.0
 30
0.0
  3
*U13
  1

  0
TEXT
  5
10FE22BE517
  8
0
 62
     0
 10
234.07017617346779
 20
142.22827129136209
 30
0.0
 40
3.0
  1
\U+2205
  7
CHINESET
  0
TEXT
  5
10FE22BE518
  8
0
 62
     0
 10
236.78446188775359
 20
142.22827129136209
 30
0.0
 40
3.0
  1
30
  7
CHINESET
  0
ENDBLK
  5
10FE22BE51A
  8
0
  0
ENDSEC
  0
SECTION
  2
ENTITIES
  0
LINE
  5
1
  8
0
 62
     4
 10
392.3465185689725
 20
209.3971800158557
 30
0.0
 11
392.34651856897261
 21
9.1232876712328732
 31
0.0
  0
LINE
  5
2
  8
0
 62
     4
 10
9.4543428719093754
 20
9.1232876712328732
 30
0.0
 11
9.4543428719093754
 21
209.39718001585561
 31
0.0
  0
LINE
  5
1C
  8
0
 62
     4
 10
9.4543428719093754
 20
209.39718001585561
 30
0.0
 11
392.3465185689725
 21
209.3971800158557
 31
0.0
  0
LINE
  5
28
  8
0
 62
     4
 10
392.34651856897261
 20
9.1232876712328732
 30
0.0
 11
9.4543428719093754
 21
9.1232876712328732
 31
0.0
  0
LINE
  5
58
  8
CENTER
  6
CENTER
 10
51.03092282457947
 20
109.5544698504398
 30
0.0
 11
256.29612023852951
 21
109.5544698504398
 31
0.0
  0
LINE
  5
5B
  8
0
 10
166.7558904591821
 20
141.5544698504398
 30
0.0
 11
189.7558904591821
 21
141.5544698504398
 31
0.0
  0
LINE
  5
5C
  8
0
 10
166.7558904591821
 20
77.554469850439872
 30
0.0
 11
189.7558904591821
 21
77.554469850439872
 31
0.0
  0
LINE
  5
5E
  8
0
 10
76.15589045918216
 20
140.5544698504398
 30
0.0
 11
146.7558904591821
 21
140.5544698504398
 31
0.0
  0
LINE
  5
5F
  8
0
 10
76.155890459182103
 20
78.554469850439872
 30
0.0
 11
146.7558904591821
 21
78.554469850439901
 31
0.0
  0
LINE
  5
60
  8
0
 10
75.15589045918216
 20
139.5544698504398
 30
0.0
 11
146.7558904591821
 21
139.5544698504398
 31
0.0
  0
LINE
  5
61
  8
0
 10
75.155890459182217
 20
79.554469850439872
 30
0.0
 11
146.7558904591821
 21
79.554469850439872
 31
0.0
  0
LINE
  5
63
  8
0
 10
76.155890459182103
 20
78.554469850439872
 30
0.0
 11
74.655890459182103
 21
80.054469850439858
 31
0.0
  0
LINE
  5
64
  8
0
 10
74.65589045918216
 20
139.0544698504398
 30
0.0
 11
76.15589045918216
 21
140.5544698504398
 31
0.0
  0
LINE
  5
90
  8
CENTER
  6
CENTER
 10
179.7558904591821
 20
145.18490349895751
 30
0.0
 11
179.7558904591821
 21
125.6043295036482
 31
0.0
  0
LINE
  5
91
  8
HID
  6
HIDDEN
 10
174.0358904591821
 20
141.5544698504398
 30
0.0
 11
174.31525661511611
 21
133.5544698504398
 31
0.0
  0
LINE
  5
93
  8
HID
  6
HIDDEN
 10
173.18537234652811
 20
141.5544698504398
 30
0.0
 11
173.46473850246201
 21
133.5544698504398
 31
0.0
  0
LINE
  5
95
  8
HID
  6
HIDDEN
 10
185.4758904591821
 20
141.5544698504398
 30
0.0
 11
185.19652430324811
 21
133.5544698504398
 31
0.0
  0
LINE
  5
96
  8
HID
  6
HIDDEN
 10
186.32640857183611
 20
141.5544698504398
 30
0.0
 11
186.0470424159021
 21
133.5544698504398
 31
0.0
  0
LINE
  5
99
  8
HID
  6
HIDDEN
 10
173.46473850246201
 20
133.5544698504398
 30
0.0
 11
186.0470424159021
 21
133.5544698504398
 31
0.0
  0
LINE
  5
A5
  8
CENTER
  6
CENTER
 10
265.86452400660733
 20
109.5544698504398
 30
0.0
 11
385.5153456868876
 21
109.5544698504398
 31
0.0
  0
LINE
  5
A6
  8
CENTER
  6
CENTER
 10
325.68993484674752
 20
167.85109009264559
 30
0.0
 11
325.68993484674741
 21
51.257849608234061
 31
0.0
  0
CIRCLE
  5
A7
  8
0
 10
325.68993484674741
 20
109.5544698504398
 30
0.0
 40
32.0
  0
LINE
  5
CA
  8
HID
  6
HIDDEN
 10
332.23681606752058
 20
140.87759782772031
 30
0.0
 11
331.98108680346752
 21
133.5544698504398
 31
0.0
  0
LINE
  5
CB
  8
HID
  6
HIDDEN
 10
331.39205082660811
 20
141.0423385200119
 30
0.0
 11
331.04326676708411
 21
131.0544698504398
 31
0.0
  0
LINE
  5
CC
  8
HID
  6
HIDDEN
 10
319.98781886688693
 20
141.0423385200119
 30
0.0
 11
320.33660292641082
 21
131.0544698504398
 31
0.0
  0
LINE
  5
CD
  8
HID
  6
HIDDEN
 10
319.14305362597418
 20
140.87759782772031
 30
0.0
 11
319.39878289002741
 21
133.5544698504398
 31
0.0
  0
LINE
  5
CE
  8
HID
  6
HIDDEN
 10
319.39878289002741
 20
133.5544698504398
 30
0.0
 11
331.98108680346752
 21
133.5544698504398
 31
0.0
  0
LINE
  5
52BF
  8
0
 10
58.855890459182092
 20
138.5544698504398
 30
0.0
 11
74.65589045918216
 21
138.5544698504398
 31
0.0
  0
LINE
  5
52C0
  8
0
 10
58.855890459182149
 20
80.554469850439759
 30
0.0
 11
74.65589045918216
 21
80.554469850439915
 31
0.0
  0
LINE
  5
52C1
  8
0
 10
58.855890459182149
 20
80.554469850439844
 30
0.0
 11
57.855890459182142
 21
81.554469850439844
 31
0.0
  0
LINE
  5
52C2
  8
0
 10
58.855890459182149
 20
138.5544698504398
 30
0.0
 11
57.855890459182142
 21
137.5544698504398
 31
0.0
  0
LINE
  5
52C3
  8
0
 10
58.855890459182149
 20
80.554469850439844
 30
0.0
 11
58.855890459182149
 21
94.857531393740814
 31
0.0
  0
LINE
  5
52C9
  8
0
 10
57.855890459182142
 20
94.857531393740814
 30
0.0
 11
67.855890459182135
 21
94.857531393740814
 31
0.0
  0
LINE
  5
52CD
  8
0
 10
76.155890459182103
 20
78.554469850439872
 30
0.0
 11
76.155890459182103
 21
140.5544698504398
 31
0.0
  0
LINE
  5
56AD
  8
0
 10
146.7558904591821
 20
165.5544698504398
 30
0.0
 11
156.7558904591821
 21
165.5544698504398
 31
0.0
  0
LINE
  5
56AE
  8
0
 10
146.7558904591821
 20
53.554469850439872
 30
0.0
 11
156.7558904591821
 21
53.554469850439872
 31
0.0
  0
LINE
  5
56B4
  8
CENTER
  6
CENTER
 10
143.37302980549541
 20
63.554469850439872
 30
0.0
 11
161.0640701270932
 21
63.554469850439872
 31
0.0
  0
LINE
  5
56B5
  8
HID
  6
HIDDEN
 10
146.7558904591821
 20
69.054469850439872
 30
0.0
 11
156.7558904591821
 21
69.054469850439872
 31
0.0
  0
LINE
  5
56B6
  8
HID
  6
HIDDEN
 10
146.7558904591821
 20
58.054469850439851
 30
0.0
 11
156.7558904591821
 21
58.054469850439872
 31
0.0
  0
LINE
  5
56C2
  8
0
 10
166.7558904591821
 20
147.5544698504398
 30
0.0
 11
166.7558904591821
 21
71.554469850439872
 31
0.0
  0
CIRCLE
  5
56EF
  8
0
 10
325.68993484674752
 20
109.5544698504398
 30
0.0
 40
56.0
  0
CIRCLE
  5
56F0
  8
CENTER
  6
CENTER
 10
325.68993484674752
 20
109.5544698504398
 30
0.0
 40
46.0
  0
CIRCLE
  5
56F1
  8
0
 10
325.68993484674741
 20
63.554469850439787
 30
0.0
 40
5.5
  0
CIRCLE
  5
56F2
  8
0
 10
365.52710342083168
 20
132.55446985043969
 30
0.0
 40
5.5
  0
CIRCLE
  5
56F3
  8
0
 10
285.8527662726633
 20
132.55446985043969
 30
0.0
 40
5.5
  0
LINE
  5
56F4
  8
CENTER
  6
CENTER
 10
277.19251223481882
 20
137.5544698504398
 30
0.0
 11
291.9149440991543
 21
129.05446985043969
 31
0.0
  0
LINE
  5
56F5
  8
CENTER
  6
CENTER
 10
374.1873574586761
 20
137.55446985043969
 30
0.0
 11
359.46492559434063
 21
129.05446985043969
 31
0.0
  0
LINE
  5
6D17
  8
0
 10
74.655890459182103
 20
80.054469850439858
 30
0.0
 11
74.655890459182103
 21
139.0544698504398
 31
0.0
  0
LINE
  5
9058
  8
0
 10
67.855890459182135
 20
124.2514083071389
 30
0.0
 11
67.855890459182135
 21
94.857531393740814
 31
0.0
  0
LINE
  5
905A
  8
0
 10
57.855890459182142
 20
124.2514083071389
 30
0.0
 11
67.855890459182135
 21
94.857531393740814
 31
0.0
  0
LINE
  5
905B
  8
0
 10
57.855890459182142
 20
94.857531393740814
 30
0.0
 11
67.855890459182135
 21
124.2514083071389
 31
0.0
  0
LINE
  5
9063
  8
0
 10
57.855890459182142
 20
137.5544698504398
 30
0.0
 11
57.855890459182142
 21
81.554469850439844
 31
0.0
  0
LINE
  5
906F
  8
HID
  6
HIDDEN
 10
174.31525661511611
 20
133.5544698504398
 30
0.0
 11
174.31525661511611
 21
131.18581175234539
 31
0.0
  0
LINE
  5
9070
  8
HID
  6
HIDDEN
 10
185.19652430324811
 20
133.5544698504398
 30
0.0
 11
185.19652430324811
 21
131.18581175234539
 31
0.0
  0
LINE
  5
908A
  8
0
 10
191.7558904591821
 20
119.5544698504398
 30
0.0
 11
226.6755505716832
 21
119.5544698504398
 31
0.0
  0
LINE
  5
90AD
  8
0
 10
191.7558904591821
 20
99.554469850439872
 30
0.0
 11
226.6755505716832
 21
99.554469850439872
 31
0.0
  0
LINE
  5
90B0
  8
0
 10
220.85589045918209
 20
102.41304142189691
 30
0.0
 11
220.85589045918209
 21
116.6958982789827
 31
0.0
  0
LINE
  5
90B7
  8
CENTER
  6
CENTER
 10
237.85589045918209
 20
100.5544698504398
 30
0.0
 11
237.85589045918209
 21
118.5544698504398
 31
0.0
  0
CIRCLE
  5
90B8
  8
0
 10
237.85589045918209
 20
109.5544698504398
 30
0.0
 40
3.0499999999999989
  0
CIRCLE
  5
90B9
  8
0
 10
237.85589045918209
 20
109.5544698504398
 30
0.0
 40
15.0
  0
LINE
  5
90BA
  8
0
 10
220.85589045918209
 20
116.6958982789827
 30
0.0
 11
223.84680280345879
 21
114.9159494087579
 31
0.0
  0
LINE
  5
90BC
  8
0
 10
224.66498450090921
 20
102.41304142189691
 30
0.0
 11
220.85589045918209
 21
102.41304142189691
 31
0.0
  0
LINE
  5
90BD
  8
0
 10
223.84680280345879
 20
104.19299029212171
 30
0.0
 11
220.85589045918209
 21
102.41304142189691
 31
0.0
  0
LINE
  5
90BF
  8
0
 10
224.66498450090921
 20
116.6958982789827
 30
0.0
 11
220.85589045918209
 21
116.6958982789827
 31
0.0
  0
LINE
  5
90C2
  8
0
 10
191.7558904591821
 20
139.5544698504398
 30
0.0
 11
191.7558904591821
 21
79.554469850439872
 31
0.0
  0
LINE
  5
90CD
  8
0
 10
53.105890459182149
 20
114.5544698504399
 30
0.0
 11
57.855890459182142
 21
114.5544698504399
 31
0.0
  0
ARC
  5
915A
  8
0
 10
325.68993484674752
 20
109.5544698504398
 30
0.0
 40
31.0
 50
216.2493208828993
 51
283.0503049396799
  0
LINE
  5
915B
  8
0
 10
350.68993484674752
 20
129.5294542058779
 30
0.0
 11
350.68993484674741
 21
89.579485495001691
 31
0.0
  0
LINE
  5
915C
  8
0
 10
300.68993484674752
 20
129.52945420587801
 30
0.0
 11
300.68993484674752
 21
89.579485495001634
 31
0.0
  0
ARC
  5
915D
  8
0
 10
325.68993484674752
 20
109.5544698504398
 30
0.0
 40
31.0
 50
36.249320882899497
 51
52.200277564572872
  0
LINE
  5
915E
  8
0
 10
344.68993484674752
 20
135.3032562296072
 30
0.0
 11
344.68993484674752
 21
83.805683471272445
 31
0.0
  0
LINE
  5
915F
  8
0
 10
332.68993484674752
 20
140.77945984243181
 30
0.0
 11
332.68993484674752
 21
78.329479858447897
 31
0.0
  0
ARC
  5
9160
  8
0
 10
325.68993484674752
 20
109.5544698504398
 30
0.0
 40
31.0
 50
76.949695060320082
 51
143.75067911710059
  0
ARC
  5
9161
  8
0
 10
325.68993484674752
 20
109.5544698504398
 30
0.0
 40
31.0
 50
307.7997224354271
 51
323.75067911710039
  0
ARC
  5
9165
  8
0
 10
338.68993484674752
 20
123.0544698504398
 30
0.0
 40
4.2999999999999989
 50
297.71774768960938
 51
159.583789871086
  0
ARC
  5
9166
  8
0
 10
338.68993484674752
 20
96.054469850439887
 30
0.0
 40
4.2999999999999989
 50
200.41621012891451
 51
62.282252310390511
  0
LINE
  5
9167
  8
CENTER
  6
CENTER
 10
333.68993484674752
 20
123.0544698504398
 30
0.0
 11
343.68993484674752
 21
123.0544698504398
 31
0.0
  0
LINE
  5
9168
  8
CENTER
  6
CENTER
 10
338.68993484674752
 20
118.0544698504398
 30
0.0
 11
338.68993484674752
 21
128.0544698504398
 31
0.0
  0
LINE
  5
9169
  8
CENTER
  6
CENTER
 10
333.68993484674752
 20
96.054469850439901
 30
0.0
 11
343.68993484674752
 21
96.054469850439901
 31
0.0
  0
LINE
  5
916A
  8
CENTER
  6
CENTER
 10
338.68993484674752
 20
91.054469850439901
 30
0.0
 11
338.68993484674752
 21
101.0544698504399
 31
0.0
  0
ARC
  5
916B
  8
0
 10
325.68993484674752
 20
109.5544698504398
 30
0.0
 40
10.0
 50
45.572995999194241
 51
134.42700400080611
  0
ARC
  5
916C
  8
0
 10
325.68993484674752
 20
109.5544698504398
 30
0.0
 40
9.0
 50
38.942441268981327
 51
141.05755873101899
  0
LINE
  5
916D
  8
0
 10
318.68993484674729
 20
124.5544698504398
 30
0.0
 11
318.68993484674741
 21
94.554469850439872
 31
0.0
  0
ARC
  5
916E
  8
0
 10
325.68993484674752
 20
109.5544698504398
 30
0.0
 40
9.0
 50
218.9424412689807
 51
321.05755873101862
  0
ARC
  5
916F
  8
0
 10
325.68993484674752
 20
109.5544698504398
 30
0.0
 40
10.0
 50
225.57299599919381
 51
314.42700400080571
  0
LINE
  5
9170
  8
0
 10
310.68993484674741
 20
124.5544698504398
 30
0.0
 11
318.68993484674741
 21
124.5544698504398
 31
0.0
  0
LINE
  5
9171
  8
0
 10
310.68993484674741
 20
94.554469850439872
 30
0.0
 11
318.68993484674752
 21
94.554469850439872
 31
0.0
  0
LINE
  5
9172
  8
0
 10
310.68993484674741
 20
124.5544698504398
 30
0.0
 11
310.68993484674741
 21
94.554469850439872
 31
0.0
  0
LINE
  5
9173
  8
0
 10
340.68993484674752
 20
124.5544698504398
 30
0.0
 11
340.68993484674752
 21
94.554469850439872
 31
0.0
  0
LINE
  5
9174
  8
0
 10
332.68993484674752
 20
94.554469850439872
 30
0.0
 11
340.68993484674752
 21
94.554469850439872
 31
0.0
  0
LINE
  5
9175
  8
0
 10
332.68993484674752
 20
124.5544698504398
 30
0.0
 11
340.68993484674752
 21
124.5544698504398
 31
0.0
  0
LINE
  5
9176
  8
0
 10
307.68993484674741
 20
112.0544698504398
 30
0.0
 11
307.68993484674741
 21
107.0544698504398
 31
0.0
  0
LINE
  5
9177
  8
0
 10
343.68993484674752
 20
112.0544698504398
 30
0.0
 11
343.68993484674741
 21
107.0544698504398
 31
0.0
  0
LINE
  5
9178
  8
0
 10
308.18993484674741
 20
112.5544698504398
 30
0.0
 11
309.88993484674739
 21
112.5544698504398
 31
0.0
  0
LINE
  5
9179
  8
0
 10
308.18993484674741
 20
106.5544698504399
 30
0.0
 11
309.88993484674739
 21
106.5544698504399
 31
0.0
  0
LINE
  5
917A
  8
0
 10
309.88993484674739
 20
114.0544698504398
 30
0.0
 11
309.88993484674739
 21
105.0544698504398
 31
0.0
  0
LINE
  5
917B
  8
0
 10
341.48993484674747
 20
114.0544698504398
 30
0.0
 11
341.48993484674747
 21
105.0544698504398
 31
0.0
  0
LINE
  5
917D
  8
0
 10
341.48993484674747
 20
106.5544698504399
 30
0.0
 11
343.18993484674741
 21
106.5544698504398
 31
0.0
  0
LINE
  5
917E
  8
0
 10
341.48993484674747
 20
112.5544698504399
 30
0.0
 11
343.18993484674752
 21
112.5544698504398
 31
0.0
  0
LINE
  5
917F
  8
0
 10
189.7558904591821
 20
141.5544698504398
 30
0.0
 11
191.7558904591821
 21
139.5544698504398
 31
0.0
  0
LINE
  5
9180
  8
0
 10
191.7558904591821
 20
79.554469850439872
 30
0.0
 11
189.7558904591821
 21
77.554469850439872
 31
0.0
  0
LINE
  5
9181
  8
0
 10
189.7558904591821
 20
77.554469850439872
 30
0.0
 11
189.7558904591821
 21
89.579485495001634
 31
0.0
  0
LINE
  5
9182
  8
0
 10
191.7558904591821
 20
89.579485495001634
 30
0.0
 11
169.7558904591821
 21
89.579485495001606
 31
0.0
  0
LINE
  5
9183
  8
0
 10
169.7558904591821
 20
129.52945420587801
 30
0.0
 11
169.7558904591821
 21
89.579485495001606
 31
0.0
  0
LINE
  5
9185
  8
0
 10
169.7558904591821
 20
89.579485495001606
 30
0.0
 11
191.7558904591821
 21
129.52945420587801
 31
0.0
  0
LINE
  5
9186
  8
0
 10
169.7558904591821
 20
129.52945420587801
 30
0.0
 11
191.7558904591821
 21
89.579485495001634
 31
0.0
  0
LINE
  5
9198
  8
HID
  6
HIDDEN
 10
307.68993484674752
 20
119.5544698504398
 30
0.0
 11
307.68993484674752
 21
114.5544698504398
 31
0.0
  0
LINE
  5
91CD
  8
0
 10
332.68993484674752
 20
134.5544698504398
 30
0.0
 11
344.68993484674741
 21
134.5544698504398
 31
0.0
  0
LINE
  5
91CE
  8
0
 10
332.68993484674752
 20
84.554469850439872
 30
0.0
 11
344.68993484674741
 21
84.554469850439872
 31
0.0
  0
ARC
  5
91CF
  8
0
 10
338.68993484674752
 20
123.0544698504398
 30
0.0
 40
4.0
 50
300.00000000000011
 51
157.97568716295851
  0
ARC
  5
91D0
  8
0
 10
338.68993484674752
 20
96.054469850439901
 30
0.0
 40
4.0
 50
202.02431283704249
 51
59.999999999999858
  0
LINE
  5
91D1
  8
0
 10
340.68993484674752
 20
114.0544698504398
 30
0.0
 11
341.48993484674747
 21
114.0544698504398
 31
0.0
  0
LINE
  5
91D2
  8
0
 10
340.68993484674752
 20
105.0544698504398
 30
0.0
 11
341.48993484674747
 21
105.0544698504398
 31
0.0
  0
LINE
  5
91D3
  8
0
 10
309.88993484674739
 20
114.0544698504398
 30
0.0
 11
310.68993484674741
 21
114.0544698504398
 31
0.0
  0
LINE
  5
91D4
  8
0
 10
309.88993484674739
 20
105.0544698504398
 30
0.0
 11
310.68993484674741
 21
105.0544698504398
 31
0.0
  0
LINE
  5
91D5
  8
0
 10
308.18993484674741
 20
112.5544698504398
 30
0.0
 11
307.68993484674741
 21
112.0544698504398
 31
0.0
  0
LINE
  5
91D6
  8
0
 10
307.68993484674741
 20
107.0544698504398
 30
0.0
 11
308.18993484674741
 21
106.5544698504399
 31
0.0
  0
LINE
  5
91D7
  8
0
 10
308.18993484674741
 20
106.5544698504399
 30
0.0
 11
308.18993484674741
 21
112.5544698504398
 31
0.0
  0
LINE
  5
91D8
  8
0
 10
343.18993484674741
 20
106.5544698504398
 30
0.0
 11
343.68993484674741
 21
107.0544698504398
 31
0.0
  0
LINE
  5
91D9
  8
0
 10
343.68993484674752
 20
112.0544698504398
 30
0.0
 11
343.18993484674752
 21
112.5544698504398
 31
0.0
  0
LINE
  5
91DA
  8
0
 10
343.18993484674741
 20
106.5544698504398
 30
0.0
 11
343.18993484674752
 21
112.5544698504398
 31
0.0
  0
SOLID
  5
922F
  8
DIM
 10
332.80248901985129
 20
58.833709516314187
 30
0.0
 11
333.25152506971278
 21
59.727223156906589
 31
0.0
 12
330.3464661230048
 22
60.627574486195059
 32
0.0
 13
330.3464661230048
 23
60.627574486195059
 33
0.0
  0
LINE
  5
9230
  8
DIM
 10
333.02700704478201
 20
59.280466336610388
 30
0.0
 11
351.74961071351242
 21
49.871405732951317
 31
0.0
  0
LINE
  5
9232
  8
DIM
 10
351.74961071351242
 20
49.871405732951317
 30
0.0
 11
367.12532499922668
 21
49.871405732951317
 31
0.0
  0
TEXT
  5
9233
  8
DIM
 10
354.8396107135124
 20
51.37140573295131
 30
0.0
 40
3.0
  1
3-%%C11
  7
CHINESET
 11
354.8396107135124
 21
52.871405732951317
 31
0.0
 73
     2
  0
LINE
  5
A9C9
  8
CENTER
  6
CENTER
 10
62.85589045918212
 20
88.869883794003897
 30
0.0
 11
62.85589045918212
 21
74.455703337926977
 31
0.0
  0
LINE
  5
A9D1
  8
HID
  6
DASHED
 10
64.318390459182083
 20
85.429469850439787
 30
0.0
 11
64.318390459182083
 21
80.554469850439773
 31
0.0
  0
LINE
  5
A9D2
  8
HID
  6
DASHED
 10
61.393390459182143
 20
85.429469850439787
 30
0.0
 11
61.393390459182143
 21
80.554469850439773
 31
0.0
  0
LINE
  5
A9D3
  8
HID
  6
DASHED
 10
61.880890459182098
 20
87.379469850439804
 30
0.0
 11
63.83089045918215
 21
87.379469850439804
 31
0.0
  0
LINE
  5
A9D4
  8
HID
  6
DASHED
 10
63.83089045918215
 20
87.379469850439804
 30
0.0
 11
63.83089045918215
 21
80.971781588447897
 31
0.0
  0
LINE
  5
A9D5
  8
HID
  6
DASHED
 10
61.880890459182098
 20
87.379469850439804
 30
0.0
 11
61.880890459182098
 21
80.971781588447854
 31
0.0
  0
LINE
  5
A9E4
  8
HID
  6
DASHED
 10
61.393390459182143
 20
85.429469850439787
 30
0.0
 11
64.318390459182083
 21
85.429469850439787
 31
0.0
  0
LINE
  5
A9E5
  8
HID
  6
DASHED
 10
64.318390459182083
 20
85.429469850439787
 30
0.0
 11
63.83089045918215
 21
85.846781588447882
 31
0.0
  0
LINE
  5
A9E6
  8
HID
  6
DASHED
 10
61.393390459182143
 20
85.429469850439787
 30
0.0
 11
61.880890459182098
 21
85.846781588447882
 31
0.0
  0
LINE
  5
A9E7
  8
HID
  6
DASHED
 10
63.83089045918215
 20
87.379469850439804
 30
0.0
 11
62.85589045918212
 21
87.865034446766842
 31
0.0
  0
LINE
  5
A9E8
  8
HID
  6
DASHED
 10
62.85589045918212
 20
87.865034446766842
 30
0.0
 11
61.880890459182098
 21
87.379469850439804
 31
0.0
  0
LINE
  5
A9E9
  8
HID
  6
DASHED
 10
64.318390459182083
 20
80.554469850439773
 30
0.0
 11
63.83089045918215
 21
80.971781588447897
 31
0.0
  0
LINE
  5
A9EA
  8
HID
  6
DASHED
 10
61.393390459182143
 20
80.554469850439773
 30
0.0
 11
61.880890459182098
 21
80.971781588447897
 31
0.0
  0
LINE
  5
A9EB
  8
HID
  6
DASHED
 10
63.83089045918215
 20
80.971781588447897
 30
0.0
 11
61.880890459182098
 21
80.971781588447897
 31
0.0
  0
ARC
  5
AAEA
  8
0
 10
53.506042474163031
 20
71.448240073452226
 30
0.0
 40
6.5
 50
109.31689120996811
 51
220.50008337793631
  0
ARC
  5
AAEB
  8
0
 10
48.721558558959401
 20
66.686068197024227
 30
0.0
 40
0.581336569251838
 50
342.36549069921892
 51
107.0907392094538
  0
ARC
  5
AAEC
  8
0
 10
53.506042474163031
 20
71.448240073452226
 30
0.0
 40
7.7000000000000002
 50
106.2148818935197
 51
220.7129753171919
  0
ARC
  5
AAED
  8
HID
  6
DASHED
 10
37.63714577653402
 20
78.143490988377735
 30
0.0
 40
16.455765749459431
 50
199.4491956427637
 51
315.01205453208308
  0
ARC
  5
AAEE
  8
0
 10
53.506042474163031
 20
71.448240073452226
 30
0.0
 40
7.7000000000000002
 50
228.40041076982561
 51
68.277590683822055
  0
ARC
  5
AAEF
  8
0
 10
53.506042474163031
 20
71.448240073452226
 30
0.0
 40
6.5
 50
229.70606786232631
 51
63.995728543894892
  0
LINE
  5
AAF0
  8
0
 10
47.121534265019619
 20
72.668098642049486
 30
0.0
 11
46.381893519131523
 21
74.369969298846527
 31
0.0
  0
LINE
  5
AAF1
  8
0
 10
22.589734493542629
 20
74.131612939610548
 30
0.0
 11
23.142369597236009
 21
72.762404614880964
 31
0.0
  0
LINE
  5
AAF2
  8
0
 10
22.12039360871924
 20
72.664200106913498
 30
0.0
 11
21.905655673727569
 21
73.484107234507476
 31
0.0
  0
ARC
  5
AAF3
  8
0
 10
22.059572951782538
 20
78.663891836301516
 30
0.0
 40
5.0
 50
278.0376249648267
 51
15.90669364322428
  0
ARC
  5
AAF4
  8
0
 10
22.059572951782538
 20
78.663891836301516
 30
0.0
 40
6.0
 50
280.39691042289752
 51
12.19220009555394
  0
ARC
  5
AAF5
  8
0
 10
22.059572951782538
 20
78.663891836301516
 30
0.0
 40
6.0
 50
31.62068890068646
 51
270.58080443858972
  0
LINE
  5
AAF6
  8
0
 10
29.442684981453251
 20
103.5148246135567
 30
0.0
 11
29.442684981453251
 21
148.5148246135567
 31
0.0
  0
LINE
  5
AAF7
  8
0
 10
27.64268498145324
 20
103.1991617733583
 30
0.0
 11
27.64268498145324
 21
148.5148246135567
 31
0.0
  0
LINE
  5
AAF8
  8
0
 10
27.64268498145324
 20
148.5148246135567
 30
0.0
 11
29.442684981453251
 21
148.5148246135567
 31
0.0
  0
ARC
  5
AAF9
  8
0
 10
28.54268498145327
 20
91.714824613556786
 30
0.0
 40
10.0
 50
143.97112238028049
 51
135.06455582572369
  0
LINE
  5
AAFA
  8
CENTER
  6
CENTER
 10
15.836551320328789
 20
91.714824613556786
 30
0.0
 11
41.720939492779081
 21
91.714824613556786
 31
0.0
  0
ARC
  5
AAFB
  8
0
 10
28.54268498145327
 20
91.714824613556786
 30
0.0
 40
11.800000000000001
 50
135.3263119646038
 51
130.1720699613337
  0
LINE
  5
AAFC
  8
CENTER
  6
CENTER
 10
28.54268498145327
 20
103.7769547910715
 30
0.0
 11
28.54268498145327
 21
79.287175339753645
 31
0.0
  0
LINE
  5
AAFD
  8
0
 10
23.51111876536017
 20
100.3567770210322
 30
0.0
 11
22.046853797972538
 21
101.56592491939659
 31
0.0
  0
ARC
  5
AAFE
  8
0
 10
22.059572951782538
 20
78.663891836301516
 30
0.0
 40
5.0
 50
44.0735465603615
 51
268.08485455776639
  0
LINE
  5
AAFF
  8
0
 10
17.762882599510391
 20
81.220931534212298
 30
0.0
 11
17.42548483737087
 21
82.475089462752933
 31
0.0
  0
ARC
  5
AB00
  8
0
 10
22.389341734240269
 20
73.610787125830726
 30
0.0
 40
0.5
 50
95.320521224474561
 51
194.6764162843821
  0
LINE
  5
AB01
  8
0
 10
22.34297812764364
 20
74.108632901130036
 30
0.0
 11
22.589734493542629
 21
74.131612939610548
 31
0.0
  0
ARC
  5
AB02
  8
HID
  6
DASHED
 10
37.63714577653402
 20
78.143490988377735
 30
0.0
 40
15.42576574945943
 50
199.4491956427637
 51
315.0310137467589
  0
LINE
  5
AB03
  8
0
 10
67.35589045918212
 20
80.554469850439773
 30
0.0
 11
51.35589045918212
 21
80.554469850439773
 31
0.0
  0
LINE
  5
AB04
  8
0
 10
67.35589045918212
 20
79.554469850439787
 30
0.0
 11
56.35589045918212
 21
79.554469850439787
 31
0.0
  0
LINE
  5
AB05
  8
0
 10
51.35589045918212
 20
76.554469850439787
 30
0.0
 11
51.35589045918212
 21
80.554469850439773
 31
0.0
  0
LINE
  5
AB06
  8
0
 10
56.35589045918212
 20
76.554469850439787
 30
0.0
 11
51.35589045918212
 21
76.554469850439787
 31
0.0
  0
LINE
  5
AB07
  8
0
 10
56.35589045918212
 20
76.554469850439787
 30
0.0
 11
56.35589045918212
 21
79.554469850439787
 31
0.0
  0
LINE
  5
AB08
  8
0
 10
67.35589045918212
 20
79.554469850439787
 30
0.0
 11
67.35589045918212
 21
80.554469850439773
 31
0.0
  0
LINE
  5
AB09
  8
0
 10
65.35589045918212
 20
78.554469850439787
 30
0.0
 11
60.35589045918212
 21
78.554469850439787
 31
0.0
  0
ARC
  5
AB0A
  8
0
 10
64.35589045918212
 20
77.054469850439787
 30
0.0
 40
1.0
 50
269.9999999999996
 51
0.0
  0
ARC
  5
AB0B
  8
0
 10
61.35589045918212
 20
77.054469850439787
 30
0.0
 40
1.0
 50
180.0
 51
269.9999999999996
  0
LINE
  5
AB0C
  8
0
 10
64.35589045918212
 20
76.054469850439787
 30
0.0
 11
61.35589045918212
 21
76.054469850439787
 31
0.0
  0
LINE
  5
AB0D
  8
0
 10
60.35589045918212
 20
77.054469850439787
 30
0.0
 11
60.35589045918212
 21
79.554469850439787
 31
0.0
  0
LINE
  5
AB0E
  8
0
 10
62.792053214650792
 20
79.554469850439787
 30
0.0
 11
64.356519113124847
 21
78.554469850439787
 31
0.0
  0
LINE
  5
AB0F
  8
0
 10
61.399484052827262
 20
79.554469850439787
 30
0.0
 11
62.963949951301203
 21
78.554469850439787
 31
0.0
  0
LINE
  5
AB10
  8
0
 10
65.35589045918212
 20
77.054469850439787
 30
0.0
 11
65.35589045918212
 21
79.554469850439787
 31
0.0
  0
LINE
  5
AB11
  8
0
 10
61.511632705186479
 20
76.054469850439787
 30
0.0
 11
62.85589045918212
 21
77.674699995220053
 31
0.0
  0
LINE
  5
AB12
  8
0
 10
64.200148213177755
 20
76.054469850439787
 30
0.0
 11
62.85589045918212
 21
77.674699995220053
 31
0.0
  0
DIMENSION
  5
B94E
  8
DIM
  2
*D7
 10
208.9031708934875
 20
141.5544698504398
 30
0.0
 11
206.40317089348761
 21
109.5544698504399
 31
0.0
 70
     0
  1
%%C64
 13
189.7558904591821
 23
77.554469850439872
 33
0.0
 14
189.7558904591821
 24
141.5544698504398
 34
0.0
 50
90.0
  0
SOLID
  5
BA6C
  8
DIM
 10
188.6283151286998
 20
138.92931144345479
 30
0.0
 11
187.91383729785619
 21
139.6289695236861
 31
0.0
 12
186.17210197258419
 22
137.1357069910394
 32
0.0
 13
186.17210197258419
 23
137.1357069910394
 33
0.0
  0
LINE
  5
BA6D
  8
DIM
 10
188.27107621327801
 20
139.27914048357039
 30
0.0
 11
202.85301444470181
 21
154.16994485138531
 31
0.0
  0
LINE
  5
BA6E
  8
DIM
 10
202.85301444470181
 20
154.16994485138531
 30
0.0
 11
205.85301444470181
 21
154.16994485138531
 31
0.0
  0
LINE
  5
BA6F
  8
DIM
 10
205.85301444470181
 20
154.16994485138531
 30
0.0
 11
221.80015730184471
 21
154.16994485138531
 31
0.0
  0
TEXT
  5
BA70
  8
DIM
 10
205.94301444470179
 20
155.66994485138531
 30
0.0
 40
3.0
  1
PT 1/4
  7
CHINESET
 11
205.94301444470179
 21
157.16994485138531
 31
0.0
 73
     2
  0
DIMENSION
  5
CBFD
  8
DIM
  2
*D11
 10
340.68993484674752
 20
188.7376437447995
 30
0.0
 11
325.68993484674752
 21
191.2376437447995
 31
0.0
 70
     0
  1
30
 13
310.68993484674741
 23
124.5544698504398
 33
0.0
 14
340.68993484674752
 24
124.5544698504398
 34
0.0
  0
DIMENSION
  5
CE66
  8
DIM
  2
*D10
 10
343.68993484674752
 20
198.40991054300929
 30
0.0
 11
325.68993484674752
 21
200.90991054300929
 31
0.0
 70
     0
  1
36
 13
307.68993484674741
 23
112.0544698504398
 33
0.0
 14
343.68993484674752
 24
112.0544698504398
 34
0.0
  0
DIMENSION
  5
D037
  8
DIM
  2
*D9
 10
318.68993484674729
 20
177.06421844489421
 30
0.0
 11
314.68993484674741
 21
179.56421844489421
 31
0.0
 70
     0
  1
8
 13
310.68993484674741
 23
124.5544698504398
 33
0.0
 14
318.68993484674729
 24
124.5544698504398
 34
0.0
  0
DIMENSION
  5
D0FE
  8
DIM
  2
*D8
 10
252.85589045918209
 20
141.22827129136209
 30
0.0
 11
237.85589045918209
 21
143.72827129136209
 31
0.0
 70
     0
  1
%%C30
 13
222.85589045918209
 23
109.5544698504398
 33
0.0
 14
252.85589045918209
 24
109.5544698504398
 34
0.0
  0
SOLID
  5
D2BF
  8
DIM
 10
103.6450952107503
 20
76.310759089872576
 30
0.0
 11
104.48377070562771
 21
75.766127641742656
 31
0.0
 12
105.6983273025787
 22
78.554469850439915
 32
0.0
 13
105.6983273025787
 23
78.554469850439915
 33
0.0
  0
LINE
  5
D2C0
  8
DIM
 10
104.064432958189
 20
76.038443365807609
 30
0.0
 11
95.289718972641538
 21
62.52630112814262
 31
0.0
  0
LINE
  5
D2C1
  8
DIM
 10
95.289718972641538
 20
62.52630112814262
 30
0.0
 11
92.289718972641538
 21
62.52630112814262
 31
0.0
  0
LINE
  5
D2C2
  8
DIM
 10
92.289718972641538
 20
62.52630112814262
 30
0.0
 11
78.771147544070118
 21
62.52630112814262
 31
0.0
  0
TEXT
  5
D2C3
  8
DIM
 10
78.771147544070104
 20
64.02630112814262
 30
0.0
 40
3.0
  1
M62*2
  7
CHINESET
 72
     2
 11
92.199718972641534
 21
65.52630112814262
 31
0.0
 73
     2
  0
LINE
  5
D2CB
  8
0
 10
52.605890459182149
 20
105.0544698504398
 30
0.0
 11
52.605890459182149
 21
114.0544698504398
 31
0.0
  0
LINE
  5
D2CC
  8
0
 10
53.105890459182149
 20
114.5544698504399
 30
0.0
 11
52.605890459182149
 21
114.0544698504398
 31
0.0
  0
LINE
  5
D2CD
  8
0
 10
53.105890459182149
 20
104.5544698504398
 30
0.0
 11
57.855890459182142
 21
104.5544698504398
 31
0.0
  0
LINE
  5
D2CE
  8
0
 10
53.105890459182149
 20
104.5544698504398
 30
0.0
 11
52.605890459182149
 21
105.0544698504398
 31
0.0
  0
LINE
  5
D2D1
  8
CENTER
  6
CENTER
 10
56.605890459182142
 20
104.20015572707381
 30
0.0
 11
56.605890459182142
 21
114.8598535746825
 31
0.0
  0
LINE
  5
D2D2
  8
HID
 10
55.355890459182142
 20
104.5544698504398
 30
0.0
 11
55.355890459182142
 21
114.5544698504398
 31
0.0
  0
CIRCLE
  5
D2D3
  8
0
 10
56.605890459182142
 20
109.5544698504398
 30
0.0
 40
1.25
  0
LINE
  5
D2D5
  8
0
 10
53.105890459182149
 20
114.5544698504399
 30
0.0
 11
53.105890459182149
 21
104.5544698504398
 31
0.0
  0
DIMENSION
  5
D6CA
  8
DIM
  2
*D6
 10
57.855890459182142
 20
16.404268814529541
 30
0.0
 11
155.35589045918209
 21
19.689983100243829
 31
0.0
 70
     0
  1
(195)
 13
252.85589045918209
 23
109.5544698504398
 33
0.0
 14
57.855890459182142
 24
81.554469850439844
 34
0.0
  0
LINE
  5
DCBD
  8
DIM
 10
52.605890459182149
 20
103.0544698504398
 30
0.0
 11
52.605890459182149
 21
14.404268814529541
 31
0.0
  0
LINE
  5
DCBF
  8
DIM
 10
49.605890459182149
 20
16.404268814529541
 30
0.0
 11
46.605890459182142
 21
16.404268814529541
 31
0.0
  0
LINE
  5
DCC0
  8
DIM
 10
46.605890459182142
 20
16.404268814529541
 30
0.0
 11
37.373033316324999
 21
16.404268814529541
 31
0.0
  0
SOLID
  5
DCC2
  8
DIM
 10
49.605890459182149
 20
16.904268814529541
 30
0.0
 11
49.605890459182149
 21
15.904268814529541
 31
0.0
 12
52.605890459182149
 22
16.404268814529541
 32
0.0
 13
52.605890459182149
 23
16.404268814529541
 33
0.0
  0
TEXT
  5
DCC3
  8
DIM
 10
37.373033316324992
 20
17.904268814529541
 30
0.0
 40
3.0
  1
5.25
  7
CHINESET
 72
     1
 11
41.944461887753562
 21
19.404268814529541
 31
0.0
 73
     2
  0
LINE
  5
E49B
  8
0
 10
156.7558904591821
 20
165.55446985043989
 30
0.0
 11
156.7558904591821
 21
53.554469850439872
 31
0.0
  0
LINE
  5
E49D
  8
0
 10
146.7558904591821
 20
165.5544698504398
 30
0.0
 11
146.7558904591821
 21
53.554469850439872
 31
0.0
  0
LINE
  5
E49F
  8
0
 10
156.7558904591821
 20
147.5544698504398
 30
0.0
 11
166.7558904591821
 21
147.5544698504398
 31
0.0
  0
LINE
  5
E4A0
  8
0
 10
156.7558904591821
 20
71.554469850439872
 30
0.0
 11
166.7558904591821
 21
71.554469850439872
 31
0.0
  0
LINE
  5
E4A4
  8
CENTER
  6
CENTER
 10
161.7558904591821
 20
104.5544698504398
 30
0.0
 11
161.7558904591821
 21
114.5544698504398
 31
0.0
  0
LINE
  5
E4A5
  8
CENTER
  6
CENTER
 10
161.7558904591821
 20
149.33003401151001
 30
0.0
 11
161.7558904591821
 21
141.33003401151001
 31
0.0
  0
LINE
  5
E4A6
  8
HID
  6
HIDDEN
 10
159.2558904591821
 20
147.5544698504398
 30
0.0
 11
159.2558904591821
 21
142.5544698504398
 31
0.0
  0
LINE
  5
E4A7
  8
HID
  6
HIDDEN
 10
164.2558904591821
 20
147.5544698504398
 30
0.0
 11
164.2558904591821
 21
142.5544698504398
 31
0.0
  0
LINE
  5
E4A8
  8
HID
  6
HIDDEN
 10
159.2558904591821
 20
142.5544698504398
 30
0.0
 11
164.2558904591821
 21
142.5544698504398
 31
0.0
  0
LINE
  5
E4A9
  8
HID
  6
HIDDEN
 10
159.2558904591821
 20
142.5544698504398
 30
0.0
 11
161.7558904591821
 21
141.84218899237311
 31
0.0
  0
LINE
  5
E4AA
  8
HID
  6
HIDDEN
 10
161.7558904591821
 20
141.84218899237311
 30
0.0
 11
164.2558904591821
 21
142.5544698504398
 31
0.0
  0
LINE
  5
E9B7
  8
DIM
 10
166.7558904591821
 20
70.036405958300733
 30
0.0
 11
166.7558904591821
 21
37.509382463500827
 31
0.0
  0
LINE
  5
E9B8
  8
DIM
 10
156.7558904591821
 20
51.554469850439872
 30
0.0
 11
156.7558904591821
 21
37.509382463500827
 31
0.0
  0
LINE
  5
E9BB
  8
DIM
 10
164.19951774511421
 20
39.50938246350082
 30
0.0
 11
159.3157614644781
 21
39.50938246350082
 31
0.0
  0
SOLID
  5
E9BC
  8
DIM
 10
159.7558904591821
 20
40.009382463500827
 30
0.0
 11
159.7558904591821
 21
39.009382463500827
 31
0.0
 12
156.7558904591821
 22
39.50938246350082
 32
0.0
 13
156.7558904591821
 23
39.50938246350082
 33
0.0
  0
SOLID
  5
E9BD
  8
DIM
 10
163.7558904591821
 20
40.009382463500827
 30
0.0
 11
163.7558904591821
 21
39.009382463500827
 31
0.0
 12
166.7558904591821
 22
39.50938246350082
 32
0.0
 13
166.7558904591821
 23
39.50938246350082
 33
0.0
  0
TEXT
  5
E9BE
  8
DIM
 10
159.39441587326789
 20
41.00938246350082
 30
0.0
 40
3.0
  1
10
  7
CHINESET
 72
     4
 11
161.537273016125
 21
42.509382463500827
 31
0.0
  0
LINE
  5
E9C2
  8
DIM
 10
154.19951774511409
 20
39.50938246350082
 30
0.0
 11
149.3157614644781
 21
39.50938246350082
 31
0.0
  0
SOLID
  5
E9C3
  8
DIM
 10
149.7558904591821
 20
40.009382463500827
 30
0.0
 11
149.7558904591821
 21
39.009382463500827
 31
0.0
 12
146.7558904591821
 22
39.50938246350082
 32
0.0
 13
146.7558904591821
 23
39.50938246350082
 33
0.0
  0
SOLID
  5
E9C5
  8
DIM
 10
153.7558904591821
 20
40.009382463500827
 30
0.0
 11
153.7558904591821
 21
39.009382463500827
 31
0.0
 12
156.7558904591821
 22
39.50938246350082
 32
0.0
 13
156.7558904591821
 23
39.50938246350082
 33
0.0
  0
TEXT
  5
E9C6
  8
DIM
 10
149.3008868898867
 20
41.00938246350082
 30
0.0
 40
3.0
  1
10
  7
CHINESET
 72
     4
 11
151.44374403274381
 21
42.509382463500827
 31
0.0
  0
TEXT
  5
E9CB
  8
DIM
 10
165.83910147488419
 20
163.0950343166997
 30
0.0
 40
3.0
  1
4-%%C5
  7
CHINESET
 72
     2
 11
177.12481576059849
 21
164.5950343166997
 31
0.0
 73
     2
  0
LINE
  5
E9E9
  8
DIM
 10
237.85589045918209
 20
98.554469850439887
 30
0.0
 11
237.85589045918209
 21
26.24143772601894
 31
0.0
  0
LINE
  5
E9EA
  8
DIM
 10
149.7558904591821
 20
28.24143772601894
 30
0.0
 11
234.85589045918209
 21
28.24143772601894
 31
0.0
  0
SOLID
  5
E9EB
  8
DIM
 10
149.7558904591821
 20
28.74143772601894
 30
0.0
 11
149.7558904591821
 21
27.74143772601894
 31
0.0
 12
146.7558904591821
 22
28.24143772601894
 32
0.0
 13
146.7558904591821
 23
28.24143772601894
 33
0.0
  0
SOLID
  5
E9EC
  8
DIM
 10
234.85589045918209
 20
28.74143772601894
 30
0.0
 11
234.85589045918209
 21
27.74143772601894
 31
0.0
 12
237.85589045918209
 22
28.24143772601894
 32
0.0
 13
237.85589045918209
 23
28.24143772601894
 33
0.0
  0
TEXT
  5
E9ED
  8
DIM
 10
185.2344618877535
 20
29.74143772601894
 30
0.0
 40
3.0
  1
MIN.94
  7
CHINESET
 72
     1
 11
192.30589045918211
 21
31.24143772601894
 31
0.0
 73
     2
  0
LINE
  5
E9F1
  8
DIM
 10
146.7558904591821
 20
51.9249547278039
 30
0.0
 11
146.7558904591821
 21
26.24143772601894
 31
0.0
  0
LINE
  5
E9F2
  8
DIM
 10
163.95788631452771
 20
149.5919227340768
 30
0.0
 11
177.910205926587
 21
162.50166266751231
 31
0.0
  0
SOLID
  5
E9F3
  8
DIM
 10
163.6183108339215
 20
149.9589220433011
 30
0.0
 11
164.29746179513381
 21
149.22492342485259
 31
0.0
 12
161.7558904591821
 22
147.55446985043989
 32
0.0
 13
161.7558904591821
 23
147.55446985043989
 33
0.0
  0
LINE
  5
E9F4
  8
DIM
 10
166.0895364584396
 20
162.50166266751231
 30
0.0
 11
177.46525074415391
 21
162.50166266751231
 31
0.0
  0
CIRCLE
  5
E9F7
  8
0
 10
161.7558904591821
 20
109.5544698504398
 30
0.0
 40
2.5
  0
LINE
  5
E9F8
  8
0
 10
191.7558904591821
 20
129.52945420587801
 30
0.0
 11
169.7558904591821
 21
129.52945420587801
 31
0.0
  0
LINE
  5
E9F9
  8
0
 10
189.7558904591821
 20
141.5544698504398
 30
0.0
 11
189.7558904591821
 21
129.52945420587801
 31
0.0
  0
LINE
  5
E9FA
  8
0
 10
57.855890459182142
 20
124.2514083071389
 30
0.0
 11
67.855890459182135
 21
124.2514083071389
 31
0.0
  0
LINE
  5
E9FB
  8
0
 10
58.855890459182149
 20
138.5544698504398
 30
0.0
 11
58.855890459182149
 21
124.2514083071389
 31
0.0
  0
LINE
  5
10FE22BE203
  8
HID
  6
HIDDEN
 10
164.2558904591821
 20
71.554469850439858
 30
0.0
 11
164.2558904591821
 21
76.554469850439858
 31
0.0
  0
LINE
  5
10FE22BE204
  8
HID
  6
HIDDEN
 10
159.2558904591821
 20
71.554469850439858
 30
0.0
 11
159.2558904591821
 21
76.554469850439858
 31
0.0
  0
LINE
  5
10FE22BE205
  8
HID
  6
HIDDEN
 10
159.2558904591821
 20
76.554469850439858
 30
0.0
 11
161.7558904591821
 21
77.266750708506635
 31
0.0
  0
LINE
  5
10FE22BE206
  8
HID
  6
HIDDEN
 10
159.2558904591821
 20
76.554469850439858
 30
0.0
 11
164.2558904591821
 21
76.554469850439858
 31
0.0
  0
LINE
  5
10FE22BE207
  8
HID
  6
HIDDEN
 10
161.7558904591821
 20
77.266750708506635
 30
0.0
 11
164.2558904591821
 21
76.554469850439858
 31
0.0
  0
LINE
  5
10FE22BE208
  8
CENTER
  6
CENTER
 10
161.7558904591821
 20
69.77890568936968
 30
0.0
 11
161.7558904591821
 21
77.778905689369736
 31
0.0
  0
TEXT
  5
10FE22BE3A2
  8
LOGO
 62
     6
 10
359.39246703417808
 20
-37.157358845978841
 30
0.0
 40
8.4146630031293892
  1
行程
 41
0.9
  7
CHINESET
 72
     4
 11
366.96566373699449
 21
-32.950027344414138
 31
0.0
  0
LINE
  5
10FE22BE3A3
  8
LOGO
 62
     6
 10
388.6948671109547
 20
-48.727520475281693
 30
0.0
 11
345.23646036303433
 21
-48.72752047528175
 31
0.0
  0
LINE
  5
10FE22BE3A4
  8
LOGO
 62
     6
 10
388.6948671109547
 20
-25.587197216675861
 30
0.0
 11
345.23646036303433
 21
-25.587197216675861
 31
0.0
  0
TEXT
  5
10FE22BE3A5
  8
LOGO
  6
CONTINUOUS
 62
     6
 10
357.44908057869338
 20
-46.09793828680381
 30
0.0
 40
5.2591643769558694
  1
Stroke
 41
0.8
  7
CHINESET
 72
     4
 11
366.96566373699449
 21
-43.46835609832587
 31
0.0
  0
TEXT
  5
10FE22BE3A6
  8
LOGO
  6
CONTINUOUS
 62
     7
 10
359.43253712893511
 20
-12.032648347449079
 30
0.0
 40
10.51832875391173
  1
30
  7
CHINESET
 72
     1
 11
367.9473746916255
 21
-6.7734839704932126
 31
0.0
 73
     2
  0
LINE
  5
10FE22BE3A7
  8
LOGO
 62
     6
 10
384.48753560939002
 20
2.81229041888583
 30
0.0
 11
349.44379186459901
 21
2.81229041888583
 31
0.0
  0
LINE
  5
10FE22BE3A8
  8
LOGO
 62
     6
 10
384.48753560938991
 20
-16.12070133815531
 30
0.0
 11
349.44379186459901
 21
-16.120701338155289
 31
0.0
  0
LINE
  5
10FE22BE3A9
  8
LOGO
 62
     1
 10
392.34651856897261
 20
9.1232876712328732
 30
0.0
 11
9.4543428719093754
 21
9.1232876712328732
 31
0.0
  0
LINE
  5
10FE22BE3AA
  8
LOGO
 62
     1
 10
392.34651856897261
 20
-53.986684852237552
 30
0.0
 11
9.4543428719093754
 21
-53.986684852237552
 31
0.0
  0
LINE
  5
10FE22BE3AB
  8
LOGO
  6
CONTINUOUS
 62
     6
 10
129.44812708358131
 20
-7.6492414602059924
 30
0.0
 11
140.9355397175708
 21
-6.1318912676596176
 31
0.0
  0
LINE
  5
10FE22BE3AC
  8
LOGO
  6
CONTINUOUS
 62
     6
 10
129.44812708358131
 20
-11.943168172799551
 30
0.0
 11
140.9355397175708
 21
-13.460518365345941
 31
0.0
  0
LINE
  5
10FE22BE3AD
  8
LOGO
 62
     1
 10
148.2962824235442
 20
-3.498706833461211
 30
0.0
 11
55.734989389121019
 21
-3.498706833461211
 31
0.0
  0
LINE
  5
10FE22BE3AE
  8
LOGO
 62
     1
 10
148.2962824235442
 20
-16.120701338155289
 30
0.0
 11
55.734989389121019
 21
-16.120701338155289
 31
0.0
  0
TEXT
  5
10FE22BE3AF
  8
LOGO
 62
     6
 10
115.69050388615069
 20
-0.3432082072876903
 30
0.0
 40
6.3109972523470423
  1
1 : 1
  7
CHINESET
 72
     1
 11
126.80987999742879
 21
2.81229041888583
 31
0.0
 73
     2
  0
TEXT
  5
10FE22BE3B0
  8
LOGO
 62
     6
 10
115.69050388615069
 20
-25.587197216675861
 30
0.0
 40
6.3109972523470423
  1
m/m
  7
CHINESET
 72
     1
 11
126.80987999742879
 21
-22.431698590502339
 31
0.0
 73
     2
  0
LINE
  5
10FE22BE3B1
  8
LOGO
 62
     1
 10
148.2962824235442
 20
-28.742695842849312
 30
0.0
 11
9.4543428719093132
 21
-28.742695842849312
 31
0.0
  0
TEXT
  5
10FE22BE3B2
  8
LOGO
  6
CONTINUOUS
 62
     5
 10
11.52003882815028
 20
-41.588825991254581
 30
0.0
 40
9.4664958785205648
  1
金器工業股份有限公司
 41
0.8
  7
LOGO
  0
TEXT
  5
10FE22BE3B3
  8
LOGO
  6
CONTINUOUS
 62
     5
 10
14.23067228316703
 20
-51.057176560765399
 30
0.0
 40
6.3109972523470423
  1
MINDMAN INDUSTRIAL CO.,LTD
 41
0.85
  7
CHINESET
  0
SOLID
  5
10FE22BE3B4
  8
LOGO
 62
     5
 10
16.002103805022159
 20
-18.251561210544121
 30
0.0
 11
18.730813416368989
 21
-18.251561210545031
 31
0.0
 12
30.116119036127841
 22
7.6241333798154933
 32
0.0
 13
32.844828647474444
 23
7.6241333798136983
 33
0.0
  0
SOLID
  5
10FE22BE3B5
  8
LOGO
 62
     5
 10
19.859934634859059
 20
-18.251561210544121
 30
0.0
 11
22.58864424620565
 21
-18.251561210544121
 31
0.0
 12
32.844828647474444
 22
5.5540778125857839
 32
0.0
 13
30.116119036127841
 23
-4.451190762353586
 33
0.0
  0
SOLID
  5
10FE22BE3B6
  8
LOGO
 62
     2
 10
18.730813416368989
 20
-18.251561210545031
 30
0.0
 11
19.859934634859059
 21
-18.251561210544121
 31
0.0
 12
32.844828647474444
 22
7.6241333798136983
 32
0.0
 13
33.973949865963668
 23
7.6241333798136983
 33
0.0
  0
SOLID
  5
10FE22BE3B7
  8
LOGO
 62
     5
 10
18.8086705590107
 20
-22.956232954245952
 30
0.0
 11
19.749604907750111
 21
-22.956232954245952
 31
0.0
 12
18.8086705590107
 22
-27.660904697946901
 32
0.0
 13
19.749604907750111
 23
-27.660904697946901
 33
0.0
  0
SOLID
  5
10FE22BE3B8
  8
LOGO
 62
     5
 10
11.62731313646889
 20
-27.660904697946901
 30
0.0
 11
12.568247485210209
 21
-27.660904697946901
 31
0.0
 12
15.217991847739199
 22
-22.956232954245952
 32
0.0
 13
16.158926196478841
 23
-22.956232954245952
 33
0.0
  0
SOLID
  5
10FE22BE3B9
  8
LOGO
 62
     5
 10
15.217991847739199
 20
-22.956232954245952
 30
0.0
 11
16.158926196478841
 21
-22.956232954245952
 31
0.0
 12
15.217991847739199
 22
-27.660904697946901
 32
0.0
 13
16.158926196478841
 23
-27.660904697946901
 33
0.0
  0
SOLID
  5
10FE22BE3BA
  8
LOGO
 62
     5
 10
15.217991847739199
 20
-27.660904697946901
 30
0.0
 11
16.158926196478841
 21
-27.660904697946901
 31
0.0
 12
18.8086705590107
 22
-22.956232954245952
 32
0.0
 13
19.749604907750111
 23
-22.956232954245952
 33
0.0
  0
LINE
  5
10FE22BE3BB
  8
LOGO
 62
     1
 10
9.4543428719093754
 20
-53.986684852237552
 30
0.0
 11
9.4543428719093754
 21
9.1232876712328732
 31
0.0
  0
TEXT
  5
10FE22BE3BC
  8
LOGO
 62
     6
 10
60.93874471281967
 20
-0.3401024015532683
 30
0.0
 40
6.3109972523470423
  1
比例 Scale:
 41
0.9
  7
CHINESET
 72
     4
 11
80.978978398509184
 21
2.81229041888583
 31
0.0
  0
TEXT
  5
10FE22BE3BD
  8
LOGO
 62
     6
 10
63.144776341653483
 20
-12.87642843140619
 30
0.0
 40
6.3109972523470423
  1
投影 View:
 41
0.9
  7
CHINESET
 72
     4
 11
80.978978398509184
 21
-9.8097040858082565
 31
0.0
  0
TEXT
  5
10FE22BE3BE
  8
LOGO
 62
     6
 10
63.761789019449907
 20
-25.587197216675861
 30
0.0
 40
6.3109972523470423
  1
單位 Unit:
 41
0.9
  7
CHINESET
 72
     4
 11
80.978978398509184
 21
-22.431698590502339
 31
0.0
  0
POLYLINE
  5
10FE22BE3BF
  8
LOGO
 62
     5
 66
     1
 10
0.0
 20
0.0
 30
0.0
 70
     1
 40
0.9424422563504917
 41
0.9424422563504917
  0
VERTEX
  5
10FE22BE4FC
  8
LOGO
 62
     5
 10
41.71802291766096
 20
-25.308568826096892
 30
0.0
 42
1.0
  0
VERTEX
  5
10FE22BE4FD
  8
LOGO
 62
     5
 10
45.487791943062867
 20
-25.308568826096892
 30
0.0
 42
1.0
  0
SEQEND
  5
10FE22BE4FE
  8
LOGO
 62
     5
  0
LINE
  5
10FE22BE3C0
  8
LOGO
 62
     5
 10
50.816674708414872
 20
-27.660904697946901
 30
0.0
 11
50.816674708414872
 21
-24.83810165172671
 31
0.0
  0
SOLID
  5
10FE22BE3C1
  8
LOGO
 62
     5
 10
45.014214860039672
 20
-22.956232954245952
 30
0.0
 11
45.955149208779197
 21
-22.956232954245952
 31
0.0
 12
45.014214860039672
 22
-27.660904697946901
 32
0.0
 13
45.955149208779197
 23
-27.660904697946901
 33
0.0
  0
SOLID
  5
10FE22BE3C2
  8
LOGO
 62
     5
 10
47.05293731345342
 20
-27.660904697946901
 30
0.0
 11
47.993871662194621
 21
-27.660904697946901
 31
0.0
 12
47.05293731345342
 22
-22.956232954245952
 32
0.0
 13
47.993871662194621
 23
-22.956232954245952
 33
0.0
  0
SOLID
  5
10FE22BE3C3
  8
LOGO
 62
     5
 10
49.875740359675468
 20
-24.83810165172671
 30
0.0
 11
50.816674708414872
 21
-24.838101651726841
 31
0.0
 12
49.875740359675468
 22
-27.660904697946901
 32
0.0
 13
50.816674708414872
 23
-27.660904697946901
 33
0.0
  0
SOLID
  5
10FE22BE3C4
  8
LOGO
 62
     5
 10
31.527426465804101
 20
-21.54483143113497
 30
0.0
 11
32.468360814543502
 21
-21.54483143113497
 31
0.0
 12
31.527426465804101
 22
-27.660904697946901
 32
0.0
 13
32.468360814543502
 23
-27.660904697946901
 33
0.0
  0
SOLID
  5
10FE22BE3C5
  8
LOGO
 62
     5
 10
33.566148919220481
 20
-22.956232954245952
 30
0.0
 11
34.507083267960013
 21
-22.956232954245952
 31
0.0
 12
33.566148919220481
 22
-27.660904697946901
 32
0.0
 13
34.507083267960013
 23
-27.660904697946901
 33
0.0
  0
SOLID
  5
10FE22BE3C6
  8
LOGO
 62
     5
 10
36.388951965440739
 20
-24.83810165172671
 30
0.0
 11
37.329886314180271
 21
-24.83810165172671
 31
0.0
 12
36.388951965440739
 22
-27.660904697946901
 32
0.0
 13
37.329886314180271
 23
-27.660904697946901
 33
0.0
  0
SOLID
  5
10FE22BE3C7
  8
LOGO
 62
     5
 10
39.211755011661111
 20
-24.83810165172671
 30
0.0
 11
40.152689360400508
 21
-24.83810165172671
 31
0.0
 12
39.211755011661111
 22
-27.660904697948691
 32
0.0
 13
40.152689360400508
 23
-27.660904697948691
 33
0.0
  0
LINE
  5
10FE22BE3C8
  8
LOGO
 62
     1
 10
55.734989389121019
 20
-28.742695842849379
 30
0.0
 11
55.734989389121019
 21
9.1232876712328732
 31
0.0
  0
SOLID
  5
10FE22BE3C9
  8
LOGO
 62
     5
 10
22.90216357120612
 20
-22.956232954245952
 30
0.0
 11
23.843097919945532
 21
-22.956232954245952
 31
0.0
 12
22.90216357120612
 22
-27.660904697946901
 32
0.0
 13
23.843097919945532
 23
-27.660904697946901
 33
0.0
  0
SOLID
  5
10FE22BE3CA
  8
LOGO
 62
     5
 10
25.72496661742613
 20
-24.83810165172671
 30
0.0
 11
26.665900966167332
 21
-24.83810165172671
 31
0.0
 12
25.72496661742613
 22
-27.660904697946901
 32
0.0
 13
26.665900966167332
 23
-27.660904697946901
 33
0.0
  0
SOLID
  5
10FE22BE3CB
  8
LOGO
 62
     5
 10
20.863441117789499
 20
-22.956232954245952
 30
0.0
 11
21.80437546653166
 21
-22.956232954245952
 31
0.0
 12
20.863441117789499
 22
-27.660904697948691
 32
0.0
 13
21.80437546653166
 23
-27.660904697946901
 33
0.0
  0
POLYLINE
  5
10FE22BE3CC
  8
LOGO
 62
     5
 66
     1
 10
0.0
 20
0.0
 30
0.0
 70
     1
 40
0.9424422563504917
 41
0.9424422563504917
  0
VERTEX
  5
10FE22BE4FF
  8
LOGO
 62
     5
 10
28.231234523426231
 20
-25.308568826096892
 30
0.0
 42
1.0
  0
VERTEX
  5
10FE22BE500
  8
LOGO
 62
     5
 10
32.001003548828258
 20
-25.308568826096892
 30
0.0
 42
1.0
  0
SEQEND
  5
10FE22BE501
  8
LOGO
 62
     5
  0
POLYLINE
  5
10FE22BE3CD
  8
LOGO
 62
     5
 66
     1
 10
0.0
 20
0.0
 30
0.0
 40
0.9424422563504917
 41
0.9424422563504917
  0
VERTEX
  5
10FE22BE502
  8
LOGO
 62
     5
 10
50.348469395460889
 20
-24.838101651726699
 30
0.0
 42
1.0
  0
VERTEX
  5
10FE22BE503
  8
LOGO
 62
     5
 10
47.521142626409308
 20
-24.838101651726699
 30
0.0
 42
1.0
  0
SEQEND
  5
10FE22BE504
  8
LOGO
 62
     5
  0
SOLID
  5
10FE22BE3CE
  8
LOGO
 62
     5
 10
48.08796509706827
 20
-18.251561210545031
 30
0.0
 11
50.816674708414872
 21
-18.251561210545031
 31
0.0
 12
48.08796509706827
 22
7.6241333798136983
 32
0.0
 13
50.816674708414872
 23
7.6241333798154933
 33
0.0
  0
SOLID
  5
10FE22BE3CF
  8
LOGO
 62
     5
 10
33.973949865963668
 20
7.6241333798136983
 30
0.0
 11
36.702659477310149
 21
7.6241333798154933
 31
0.0
 12
33.973949865963668
 22
-16.181505643316211
 32
0.0
 13
36.702659477310149
 23
-6.1762370683768353
 33
0.0
  0
SOLID
  5
10FE22BE3D0
  8
LOGO
 62
     5
 10
33.973949865963668
 20
-16.181505643316211
 30
0.0
 11
36.702659477310149
 21
-6.1762370683768353
 31
0.0
 12
46.958843878579053
 22
7.6241333798154933
 32
0.0
 13
44.230134267232224
 23
7.6241333798154933
 33
0.0
  0
SOLID
  5
10FE22BE3D1
  8
LOGO
 62
     5
 10
46.958843878579053
 20
5.5540778125857839
 30
0.0
 11
44.230134267232224
 21
-4.451190762353586
 31
0.0
 12
46.958843878579053
 22
-18.251561210545031
 32
0.0
 13
44.230134267232224
 23
-18.251561210545031
 33
0.0
  0
SOLID
  5
10FE22BE3D2
  8
LOGO
 62
     2
 10
46.958843878579053
 20
7.6241333798154933
 30
0.0
 11
48.08796509706827
 21
7.6241333798136983
 31
0.0
 12
46.958843878579053
 22
-18.251561210545031
 32
0.0
 13
48.08796509706827
 23
-18.251561210545031
 33
0.0
  0
SOLID
  5
10FE22BE3D3
  8
LOGO
 62
     5
 10
30.116119036127841
 20
-18.251561210544121
 30
0.0
 11
32.844828647474444
 21
-18.251561210544121
 31
0.0
 12
30.116119036127841
 22
-4.451190762353586
 32
0.0
 13
32.844828647474444
 23
5.5540778125857839
 33
0.0
  0
SOLID
  5
10FE22BE3D4
  8
LOGO
 62
     2
 10
32.844828647474444
 20
7.6241333798136983
 30
0.0
 11
33.973949865963668
 21
7.6241333798136983
 31
0.0
 12
32.844828647474444
 22
-18.251561210544121
 32
0.0
 13
33.973949865963668
 23
-18.251561210544121
 33
0.0
  0
SOLID
  5
10FE22BE3D5
  8
LOGO
 62
     5
 10
33.973949865963668
 20
-18.251561210544121
 30
0.0
 11
36.702659477310149
 21
-18.251561210544121
 31
0.0
 12
46.958843878579053
 22
5.5540778125857839
 32
0.0
 13
44.230134267232224
 23
-4.451190762353586
 33
0.0
  0
SOLID
  5
10FE22BE3D6
  8
LOGO
 62
     2
 10
32.844828647474444
 20
-18.251561210544121
 30
0.0
 11
33.973949865963668
 21
-18.251561210544121
 31
0.0
 12
46.958843878579053
 22
7.6241333798154933
 32
0.0
 13
48.08796509706827
 23
7.6241333798136983
 33
0.0
  0
POLYLINE
  5
10FE22BE3D7
  8
LOGO
 62
     5
 66
     1
 10
0.0
 20
0.0
 30
0.0
 40
0.9424422563504917
 41
0.9424422563504917
  0
VERTEX
  5
10FE22BE505
  8
LOGO
 62
     5
 10
36.861681001226167
 20
-24.838101651726699
 30
0.0
 42
1.0
  0
VERTEX
  5
10FE22BE506
  8
LOGO
 62
     5
 10
34.034354232174579
 20
-24.838101651726699
 30
0.0
 42
1.0
  0
SEQEND
  5
10FE22BE507
  8
LOGO
 62
     5
  0
POLYLINE
  5
10FE22BE3D8
  8
LOGO
 62
     5
 66
     1
 10
0.0
 20
0.0
 30
0.0
 40
0.9424422563504917
 41
0.9424422563504917
  0
VERTEX
  5
10FE22BE508
  8
LOGO
 62
     5
 10
26.197695653211809
 20
-24.838101651726699
 30
0.0
 42
1.0
  0
VERTEX
  5
10FE22BE509
  8
LOGO
 62
     5
 10
23.370368884160222
 20
-24.838101651726699
 30
0.0
 42
1.0
  0
SEQEND
  5
10FE22BE50A
  8
LOGO
 62
     5
  0
SOLID
  5
10FE22BE3D9
  8
LOGO
 62
     5
 10
20.863441117789499
 20
-22.297578910128141
 30
0.0
 11
21.80437546653166
 21
-22.297578910128141
 31
0.0
 12
20.863441117789499
 22
-21.54483143113497
 32
0.0
 13
21.80437546653166
 23
-21.54483143113497
 33
0.0
  0
POLYLINE
  5
10FE22BE3DA
  8
LOGO
 62
     5
 66
     1
 10
0.0
 20
0.0
 30
0.0
 70
     1
  0
VERTEX
  5
10FE22BE50B
  8
LOGO
 62
     5
 10
42.191505907251781
 20
-25.30856882609644
 30
0.0
 42
1.0000000573306349
  0
VERTEX
  5
10FE22BE50C
  8
LOGO
 62
     5
 10
45.01430895347324
 20
-25.30856882609644
 30
0.0
 42
1.0000000573306349
  0
SEQEND
  5
10FE22BE50D
  8
LOGO
 62
     5
  0
CIRCLE
  5
10FE22BE3DB
  8
LOGO
 62
     5
 10
43.602907430362457
 20
-25.30856882609644
 30
0.0
 40
1.4114015231104959
  0
POLYLINE
  5
10FE22BE3DC
  8
LOGO
 62
     5
 66
     1
 10
0.0
 20
0.0
 30
0.0
 40
0.9424422563504917
 41
0.9424422563504917
  0
VERTEX
  5
10FE22BE50E
  8
LOGO
 62
     5
 10
39.684484047446411
 20
-24.838101651726699
 30
0.0
 42
1.0
  0
VERTEX
  5
10FE22BE50F
  8
LOGO
 62
     5
 10
36.857157278394837
 20
-24.838101651726699
 30
0.0
 42
1.0
  0
SEQEND
  5
10FE22BE510
  8
LOGO
 62
     5
  0
LINE
  5
10FE22BE3DD
  8
LOGO
 62
     1
 10
106.2229674078973
 20
-28.742695842849379
 30
0.0
 11
106.2229674078973
 21
9.1232876712328732
 31
0.0
  0
CIRCLE
  5
10FE22BE3DE
  8
LOGO
  6
CONTINUOUS
 62
     6
 10
117.9085681876762
 20
-9.7962048165027866
 30
0.0
 40
3.6643135488431642
  0
CIRCLE
  5
10FE22BE3DF
  8
LOGO
  6
CONTINUOUS
 62
     6
 10
117.9085681876762
 20
-9.7962048165027866
 30
0.0
 40
2.1469633562967849
  0
LINE
  5
10FE22BE3E0
  8
LOGO
 62
     6
 10
129.4481270835814
 20
-11.94316817279956
 30
0.0
 11
129.44812708358131
 21
-7.6492414602059737
 31
0.0
  0
TEXT
  5
10FE22BE3E1
  8
LOGO
  6
CONTINUOUS
 62
     6
 10
250.3277817200883
 20
-46.097938286803753
 30
0.0
 40
5.2591643769558694
  1
Model
  7
CHINESET
 72
     4
 11
260.34523767619459
 21
-43.46835609832582
 31
0.0
  0
TEXT
  5
10FE22BE3E2
  8
LOGO
  6
CONTINUOUS
 62
     7
 10
240.31032576398181
 20
-11.913369836590601
 30
0.0
 40
10.51832875391173
  1
MSAR
  7
CHINESET
 72
     1
 11
260.34523767619459
 21
-6.6542054596347331
 31
0.0
 73
     2
  0
LINE
  5
10FE22BE3E3
  8
LOGO
 62
     6
 10
285.58922668558279
 20
2.81229041888583
 30
0.0
 11
235.10124866680661
 21
2.81229041888583
 31
0.0
  0
LINE
  5
10FE22BE3E4
  8
LOGO
 62
     6
 10
285.58922668558279
 20
-16.120701338155289
 30
0.0
 11
235.10124866680661
 21
-16.120701338155289
 31
0.0
  0
LINE
  5
10FE22BE3E5
  8
LOGO
 62
     6
 10
281.38189518401822
 20
-25.587197216675861
 30
0.0
 11
239.30858016837121
 21
-25.587197216675861
 31
0.0
  0
LINE
  5
10FE22BE3E6
  8
LOGO
 62
     6
 10
281.38189518401822
 20
-48.7275204752817
 30
0.0
 11
239.30858016837121
 21
-48.72752047528175
 31
0.0
  0
TEXT
  5
10FE22BE3E7
  8
LOGO
 62
     7
 10
153.4621421684935
 20
-6.6780141531515538
 30
0.0
 40
12.621994504694079
  1
訂購代號:
  7
CHINESET
  0
TEXT
  5
10FE22BE3E8
  8
LOGO
 62
     7
 10
151.95248203930029
 20
-18.524117383351548
 30
0.0
 40
8.4146630031293892
  1
Order example:
 41
0.8
  7
CHINESET
  0
LINE
  5
10FE22BE3E9
  8
LOGO
 62
     1
 10
148.2962824235442
 20
-53.986684852237552
 30
0.0
 11
148.2962824235442
 21
9.1232876712328732
 31
0.0
  0
LINE
  5
10FE22BE3EA
  8
LOGO
 62
     6
 10
140.9355397175708
 20
-13.460518365345941
 30
0.0
 11
140.9355397175708
 21
-6.1318912676596176
 31
0.0
  0
LINE
  5
10FE22BE3EB
  8
LOGO
 62
     6
 10
239.30858016837121
 20
-25.587197216675861
 30
0.0
 11
239.30858016837121
 21
-48.72752047528175
 31
0.0
  0
LINE
  5
10FE22BE3EC
  8
LOGO
 62
     6
 10
235.10124866680661
 20
2.81229041888583
 30
0.0
 11
235.10124866680661
 21
-16.120701338155289
 31
0.0
  0
TEXT
  5
10FE22BE3ED
  8
LOGO
  6
CONTINUOUS
 62
     7
 10
310.12690669850468
 20
-12.03264834744896
 30
0.0
 40
10.51832875391173
  1
50
  7
CHINESET
 72
     1
 11
318.64174426119519
 21
-6.7734839704930936
 31
0.0
 73
     2
  0
LINE
  5
10FE22BE3EE
  8
LOGO
 62
     6
 10
334.54763507946899
 20
-48.727520475281572
 30
0.0
 11
300.77243153365902
 21
-48.727520475281622
 31
0.0
  0
LINE
  5
10FE22BE3EF
  8
LOGO
 62
     6
 10
334.54763507946899
 20
-16.120701338155168
 30
0.0
 11
300.77243153365902
 21
-16.120701338155168
 31
0.0
  0
LINE
  5
10FE22BE3F0
  8
LOGO
 62
     6
 10
334.54763507946899
 20
-25.58719721667574
 30
0.0
 11
300.77243153365902
 21
-25.58719721667574
 31
0.0
  0
LINE
  5
10FE22BE3F1
  8
LOGO
 62
     6
 10
334.54763507946899
 20
2.8122904188860689
 30
0.0
 11
300.77243153365902
 21
2.812290418885949
 31
0.0
  0
LINE
  5
10FE22BE3F2
  8
LOGO
 62
     6
 10
300.77243153365902
 20
-25.58719721667574
 30
0.0
 11
300.77243153365902
 21
-48.727520475281572
 31
0.0
  0
LINE
  5
10FE22BE3F3
  8
LOGO
 62
     6
 10
281.38189518401822
 20
-25.587197216675861
 30
0.0
 11
281.38189518401822
 21
-48.727520475281693
 31
0.0
  0
TEXT
  5
10FE22BE3F4
  8
LOGO
 62
     6
 10
251.93057467306519
 20
-36.942022981725458
 30
0.0
 40
8.4146630031293892
  1
型式
  7
CHINESET
 72
     4
 11
260.34523767619459
 21
-32.950027344414082
 31
0.0
  0
LINE
  5
10FE22BE3F5
  8
LOGO
 62
     6
 10
260.34523767619459
 20
-16.120701338155289
 30
0.0
 11
260.34523767619459
 21
-25.587197216675861
 31
0.0
  0
LINE
  5
10FE22BE3F6
  8
LOGO
 62
     6
 10
300.77243153365902
 20
2.812290418885949
 30
0.0
 11
300.77243153365902
 21
-16.120701338155168
 31
0.0
  0
LINE
  5
10FE22BE3F7
  8
LOGO
 62
     6
 10
285.5892266855829
 20
2.81229041888583
 30
0.0
 11
285.5892266855829
 21
-16.120701338155289
 31
0.0
  0
LINE
  5
10FE22BE3F8
  8
LOGO
  6
CONTINUOUS
 62
     7
 10
289.13814469390752
 20
-6.721269108558011
 30
0.0
 11
297.49826301964492
 21
-6.721269108558011
 31
0.0
  0
LINE
  5
10FE22BE3F9
  8
LOGO
 62
     6
 10
345.23646036303433
 20
-25.587197216675861
 30
0.0
 11
345.23646036303433
 21
-48.72752047528175
 31
0.0
  0
LINE
  5
10FE22BE3FA
  8
LOGO
 62
     6
 10
334.54763507946899
 20
-25.58719721667574
 30
0.0
 11
334.54763507946899
 21
-48.727520475281509
 31
0.0
  0
TEXT
  5
10FE22BE3FB
  8
LOGO
  6
CONTINUOUS
 62
     6
 10
311.14868693509482
 20
-46.097938286803689
 30
0.0
 40
5.2591643769558694
  1
Bore
 41
0.8
  7
CHINESET
 72
     4
 11
317.660033306564
 21
-43.468356098325749
 31
0.0
  0
TEXT
  5
10FE22BE3FC
  8
LOGO
 62
     6
 10
309.61351180982149
 20
-37.157358845978713
 30
0.0
 40
8.4146630031293892
  1
內徑
 41
0.9
  7
CHINESET
 72
     4
 11
317.660033306564
 21
-32.950027344414018
 31
0.0
  0
LINE
  5
10FE22BE3FD
  8
LOGO
  6
CONTINUOUS
 62
     7
 10
337.80950502484768
 20
-6.7212691085578919
 30
0.0
 11
346.16962335058503
 21
-6.7212691085578919
 31
0.0
  0
LINE
  5
10FE22BE3FE
  8
LOGO
 62
     6
 10
334.54763507946899
 20
2.8122904188860689
 30
0.0
 11
334.54763507946899
 21
-16.120701338155168
 31
0.0
  0
LINE
  5
10FE22BE3FF
  8
LOGO
 62
     6
 10
317.66003282149131
 20
-16.120701338155168
 30
0.0
 11
317.66003282149131
 21
-25.58719721667574
 31
0.0
  0
LINE
  5
10FE22BE400
  8
LOGO
 62
     6
 10
349.44379186459912
 20
2.81229041888583
 30
0.0
 11
349.44379186459901
 21
-16.120701338155289
 31
0.0
  0
LINE
  5
10FE22BE401
  8
LOGO
 62
     6
 10
367.411201042031
 20
-16.120701338155289
 30
0.0
 11
367.411201042031
 21
-25.587197216675861
 31
0.0
  0
LINE
  5
10FE22BE402
  8
LOGO
 62
     6
 10
388.6948671109547
 20
-25.587197216675861
 30
0.0
 11
388.6948671109547
 21
-48.814774837806702
 31
0.0
  0
LINE
  5
10FE22BE403
  8
LOGO
 62
     6
 10
384.48753560939002
 20
2.81229041888583
 30
0.0
 11
384.48753560938991
 21
-16.12070133815531
 31
0.0
  0
LINE
  5
10FE22BE404
  8
LOGO
 62
     1
 10
392.34651856897261
 20
-53.986684852237552
 30
0.0
 11
392.34651856897261
 21
9.1232876712328732
 31
0.0
  0
VIEWPORT
  5
9002
 67
     1
  8
0
 10
6.662790697674418
 20
4.5
 30
0.0
 40
13.325581395348831
 41
9.0
 68
     1
 69
     1
1001
ACAD
1000
MVIEW
1002
{
1070
    16
1010
0.0
1020
0.0
1030
0.0
1010
0.0
1020
0.0
1030
1.0
1040
0.0
1040
9.0
1040
6.662790697674418
1040
4.5
1040
50.0
1040
0.0
1040
0.0
1070
     0
1070
   100
1070
     1
1070
     1
1070
     0
1070
     0
1070
     0
1070
     0
1040
0.0
1040
0.0
1040
0.0
1040
1.0
1040
1.0
1040
0.0
1040
0.0
1070
     0
1002
{
1002
}
1002
}
  0
ENDSEC
  0
EOF
