  0
SECTION
  2
HEADER
  9
$ACADVER
  1
AC1009
  9
$INSBASE
 10
0.0
 20
0.0
 30
0.0
  9
$EXTMIN
 10
9.4443979056603666
 20
-53.994369030477181
 30
-0.0000000349181948
  9
$EXTMAX
 10
392.35638519511139
 20
549.31435042806186
 30
0.0000000814935746
  9
$LIMMIN
 10
0.0
 20
0.0
  9
$LIMMAX
 10
396.0
 20
273.0
  9
$ORTHOMODE
 70
     0
  9
$REGENMODE
 70
     1
  9
$FILLMODE
 70
     1
  9
$QTEXTMODE
 70
     0
  9
$MIRRTEXT
 70
     1
  9
$DRAGMODE
 70
     2
  9
$LTSCALE
 40
6.0
  9
$OSMODE
 70
    39
  9
$ATTMODE
 70
     1
  9
$TEXTSIZE
 40
4.0
  9
$TRACEWID
 40
0.05
  9
$TEXTSTYLE
  7
CHINESET
  9
$CLAYER
  8
0
  9
$CELTYPE
  6
BYLAYER
  9
$CECOLOR
 62
   256
  9
$DIMSCALE
 40
1.0
  9
$DIMASZ
 40
3.0
  9
$DIMEXO
 40
2.0
  9
$DIMDLI
 40
0.38
  9
$DIMRND
 40
0.0
  9
$DIMDLE
 40
0.0
  9
$DIMEXE
 40
2.0
  9
$DIMTP
 40
0.0
  9
$DIMTM
 40
0.0
  9
$DIMTXT
 40
3.0
  9
$DIMCEN
 40
0.09
  9
$DIMTSZ
 40
0.0
  9
$DIMTOL
 70
     0
  9
$DIMLIM
 70
     0
  9
$DIMTIH
 70
     0
  9
$DIMTOH
 70
     0
  9
$DIMSE1
 70
     0
  9
$DIMSE2
 70
     0
  9
$DIMTAD
 70
     1
  9
$DIMZIN
 70
     8
  9
$DIMBLK
  1

  9
$DIMASO
 70
     1
  9
$DIMSHO
 70
     1
  9
$DIMPOST
  1

  9
$DIMAPOST
  1

  9
$DIMALT
 70
     0
  9
$DIMALTD
 70
     2
  9
$DIMALTF
 40
25.399999999999999
  9
$DIMLFAC
 40
1.0
  9
$DIMTOFL
 70
     0
  9
$DIMTVP
 40
0.0
  9
$DIMTIX
 70
     0
  9
$DIMSOXD
 70
     0
  9
$DIMSAH
 70
     0
  9
$DIMBLK1
  1

  9
$DIMBLK2
  1

  9
$DIMSTYLE
  2
STANDARD
  9
$DIMCLRD
 70
   256
  9
$DIMCLRE
 70
   256
  9
$DIMCLRT
 70
   256
  9
$DIMTFAC
 40
1.0
  9
$DIMGAP
 40
1.0
  9
$LUNITS
 70
     2
  9
$LUPREC
 70
     2
  9
$SKETCHINC
 40
0.1
  9
$FILLETRAD
 40
0.0
  9
$AUNITS
 70
     0
  9
$AUPREC
 70
     0
  9
$MENU
  1
ACAD
  9
$ELEVATION
 40
0.0
  9
$PELEVATION
 40
0.0
  9
$THICKNESS
 40
0.0
  9
$LIMCHECK
 70
     0
  9
$BLIPMODE
 70
     0
  9
$CHAMFERA
 40
0.3
  9
$CHAMFERB
 40
0.3
  9
$SKPOLY
 70
     0
  9
$TDCREATE
 40
2451089.4034467698
  9
$TDUPDATE
 40
2451922.6653440278
  9
$TDINDWG
 40
0.0062328009
  9
$TDUSRTIMER
 40
0.0062328009
  9
$USRTIMER
 70
     1
  9
$ANGBASE
 50
0.0
  9
$ANGDIR
 70
     0
  9
$PDMODE
 70
    65
  9
$PDSIZE
 40
8.3000000000000007
  9
$PLINEWID
 40
0.0
  9
$COORDS
 70
     2
  9
$SPLFRAME
 70
     0
  9
$SPLINETYPE
 70
     6
  9
$SPLINESEGS
 70
     8
  9
$ATTDIA
 70
     0
  9
$ATTREQ
 70
     1
  9
$HANDLING
 70
 12289
  9
$HANDSEED
  5
10FE22B59D7
  9
$SURFTAB1
 70
     6
  9
$SURFTAB2
 70
     6
  9
$SURFTYPE
 70
     6
  9
$SURFU
 70
     6
  9
$SURFV
 70
     6
  9
$UCSNAME
  2

  9
$UCSORG
 10
0.0
 20
0.0
 30
0.0
  9
$UCSXDIR
 10
1.0
 20
0.0
 30
0.0
  9
$UCSYDIR
 10
0.0
 20
1.0
 30
0.0
  9
$PUCSNAME
  2

  9
$PUCSORG
 10
0.0
 20
0.0
 30
0.0
  9
$PUCSXDIR
 10
1.0
 20
0.0
 30
0.0
  9
$PUCSYDIR
 10
0.0
 20
1.0
 30
0.0
  9
$USERI1
 70
     0
  9
$USERI2
 70
     0
  9
$USERI3
 70
     0
  9
$USERI4
 70
     0
  9
$USERI5
 70
     0
  9
$USERR1
 40
0.0
  9
$USERR2
 40
0.0
  9
$USERR3
 40
0.0
  9
$USERR4
 40
0.0
  9
$USERR5
 40
0.0
  9
$WORLDVIEW
 70
     1
  9
$SHADEDGE
 70
     3
  9
$SHADEDIF
 70
    70
  9
$TILEMODE
 70
     1
  9
$MAXACTVP
 70
    16
  9
$PLIMCHECK
 70
     0
  9
$PEXTMIN
 10
1.0000000000000000E+020
 20
1.0000000000000000E+020
 30
1.0000000000000000E+020
  9
$PEXTMAX
 10
-1.0000000000000000E+020
 20
-1.0000000000000000E+020
 30
-1.0000000000000000E+020
  9
$PLIMMIN
 10
0.0
 20
0.0
  9
$PLIMMAX
 10
12.0
 20
9.0
  9
$UNITMODE
 70
     0
  9
$VISRETAIN
 70
     0
  9
$PLINEGEN
 70
     0
  9
$PSLTSCALE
 70
     0
  0
ENDSEC
  0
SECTION
  2
TABLES
  0
TABLE
  2
VPORT
 70
     3
  0
VPORT
  2
*ACTIVE
 70
     0
 10
0.0
 20
0.0
 11
1.0
 21
1.0
 12
200.90039155038579
 22
247.6599906987924
 13
0.0
 23
0.0
 14
1.0
 24
1.0
 15
0.0
 25
0.0
 16
0.0
 26
0.0
 36
1.0
 17
0.0
 27
0.0
 37
0.0
 40
609.9628597466849
 41
1.7274401473296499
 42
50.0
 43
0.0
 44
0.0
 50
0.0
 51
0.0
 71
     0
 72
   100
 73
     1
 74
     1
 75
     0
 76
     0
 77
     0
 78
     0
  0
ENDTAB
  0
TABLE
  2
LTYPE
 70
     4
  0
LTYPE
  2
CONTINUOUS
 70
     0
  3
Solid line
 72
    65
 73
     0
 40
0.0
  0
LTYPE
  2
CENTER
 70
     0
  3
____ _ ____ _ ____ _ ____ _ ____ _ ____ _ ____ 
 72
    65
 73
     4
 40
2.0
 49
1.25
 49
-0.25
 49
0.25
 49
-0.25
  0
LTYPE
  2
HIDDEN
 70
     0
  3
__ __ __ __ __ __ __ __ __ __ __ __ __ __ __ __
 72
    65
 73
     2
 40
0.375
 49
0.25
 49
-0.125
  0
LTYPE
  2
DASHED
 70
     0
  3
__ __ __ __ __ __ __ __ __ __ __ __ __ __ __ __
 72
    65
 73
     2
 40
0.75
 49
0.5
 49
-0.25
  0
ENDTAB
  0
TABLE
  2
LAYER
 70
     6
  0
LAYER
  2
0
 70
     0
 62
     7
  6
CONTINUOUS
  0
LAYER
  2
DEFPOINTS
 70
     0
 62
     7
  6
CONTINUOUS
  0
LAYER
  2
LOGO
 70
     0
 62
     7
  6
CONTINUOUS
  0
LAYER
  2
DIM
 70
     0
 62
     5
  6
CONTINUOUS
  0
LAYER
  2
CENTER
 70
     0
 62
     1
  6
CENTER
  0
LAYER
  2
HIDDEN
 70
     0
 62
     6
  6
HIDDEN
  0
ENDTAB
  0
TABLE
  2
STYLE
 70
     3
  0
STYLE
  2
STANDARD
 70
     0
 40
0.0
 41
1.0
 50
0.0
 71
     0
 42
0.2
  3
txt
  4

  0
STYLE
  2
CHINESET
 70
     0
 40
0.0
 41
1.0
 50
0.0
 71
     0
 42
4.0
  3
SIMPLEX.SHX
  4
CHINESET
  0
STYLE
  2
LOGO
 70
     0
 40
0.0
 41
1.0
 50
0.0
 71
     0
 42
5.0
  3
txt
  4

  0
ENDTAB
  0
TABLE
  2
VIEW
 70
     0
  0
ENDTAB
  0
TABLE
  2
UCS
 70
     0
  0
ENDTAB
  0
TABLE
  2
APPID
 70
     1
  0
APPID
  2
ACAD
 70
     0
  0
ENDTAB
  0
TABLE
  2
DIMSTYLE
 70
     1
  0
DIMSTYLE
  2
STANDARD
 70
     0
  3

  4

  5

  6

  7

 40
1.0
 41
3.0
 42
2.0
 43
0.38
 44
2.0
 45
0.0
 46
0.0
 47
0.0
 48
0.0
140
3.0
141
0.09
142
0.0
143
25.399999999999999
144
1.0
145
0.0
146
1.0
147
1.0
 71
     0
 72
     0
 73
     0
 74
     0
 75
     0
 76
     0
 77
     1
 78
     8
170
     0
171
     2
172
     0
173
     0
174
     0
175
     0
176
   256
177
   256
178
   256
  0
ENDTAB
  0
ENDSEC
  0
SECTION
  2
BLOCKS
  0
BLOCK
  8
0
  2
$MODEL_SPACE
 70
     0
 10
0.0
 20
0.0
 30
0.0
  3
$MODEL_SPACE
  1

  0
ENDBLK
  5
10FE22B5622
  8
0
  0
BLOCK
 67
     1
  8
0
  2
$PAPER_SPACE
 70
     0
 10
0.0
 20
0.0
 30
0.0
  3
$PAPER_SPACE
  1

  0
ENDBLK
  5
10FE22B5620
 67
     1
  8
0
  0
BLOCK
  8
0
  2
*D17
 70
     1
 10
0.0
 20
0.0
 30
0.0
  3
*D17
  1

  0
LINE
  5
10FE22B5968
  8
DIM
 10
124.2073814088954
 20
280.47649335800372
 30
0.0
 11
124.2073814088954
 21
301.31100679940909
 31
0.0
  0
LINE
  5
10FE22B5969
  8
DIM
 10
143.20738140889549
 20
280.47649335800372
 30
0.0
 11
143.20738140889549
 21
301.31100679940909
 31
0.0
  0
LINE
  5
10FE22B596A
  8
DIM
 10
127.2073814088954
 20
299.31100679940909
 30
0.0
 11
140.20738140889549
 21
299.31100679940909
 31
0.0
  0
SOLID
  5
10FE22B596B
  8
DIM
 10
127.2073814088954
 20
299.81100679940909
 30
0.0
 11
127.2073814088954
 21
298.81100679940909
 31
0.0
 12
124.2073814088954
 22
299.31100679940909
 32
0.0
 13
124.2073814088954
 23
299.31100679940909
 33
0.0
  0
SOLID
  5
10FE22B596C
  8
DIM
 10
140.20738140889549
 20
299.81100679940909
 30
0.0
 11
140.20738140889549
 21
298.81100679940909
 31
0.0
 12
143.20738140889549
 22
299.31100679940909
 32
0.0
 13
143.20738140889549
 23
299.31100679940909
 33
0.0
  0
TEXT
  5
10FE22B596D
  8
0
 10
131.6359528374669
 20
300.81100679940909
 30
0.0
 40
3.0
  1
19
  7
CHINESET
  0
POINT
  5
10FE22B596E
  8
DEFPOINTS
 62
     0
 10
124.2073814088954
 20
278.47649335800372
 30
0.0
  0
POINT
  5
10FE22B596F
  8
DEFPOINTS
 62
     0
 10
143.20738140889549
 20
278.47649335800372
 30
0.0
  0
POINT
  5
10FE22B5970
  8
DEFPOINTS
 62
     0
 10
143.20738140889549
 20
299.31100679940909
 30
0.0
  0
ENDBLK
  5
10FE22B569A
  8
0
  0
BLOCK
  8
0
  2
*D18
 70
     1
 10
0.0
 20
0.0
 30
0.0
  3
*D18
  1

  0
LINE
  5
10FE22B5956
  8
DIM
 10
135.70738140889549
 20
284.97649335800378
 30
0.0
 11
268.38387670656351
 21
284.97649335800378
 31
0.0
  0
LINE
  5
10FE22B5957
  8
DIM
 10
177.70738140889549
 20
24.976493358004049
 30
0.0
 11
268.3838767065634
 21
24.976493358004031
 31
0.0
  0
LINE
  5
10FE22B5958
  8
DIM
 10
266.38387670656351
 20
281.97649335800378
 30
0.0
 11
266.3838767065634
 21
27.976493358004021
 31
0.0
  0
SOLID
  5
10FE22B5959
  8
DIM
 10
265.88387670656351
 20
281.97649335800378
 30
0.0
 11
266.88387670656351
 21
281.97649335800378
 31
0.0
 12
266.38387670656351
 22
284.97649335800378
 32
0.0
 13
266.38387670656351
 23
284.97649335800378
 33
0.0
  0
SOLID
  5
10FE22B595A
  8
DIM
 10
265.8838767065634
 20
27.976493358004021
 30
0.0
 11
266.8838767065634
 21
27.976493358004021
 31
0.0
 12
266.3838767065634
 22
24.976493358004031
 32
0.0
 13
266.3838767065634
 23
24.976493358004031
 33
0.0
  0
TEXT
  5
10FE22B595B
  8
0
 10
264.8838767065634
 20
151.119350500861
 30
0.0
 40
3.0
  1
260
 50
90.0
  7
CHINESET
  0
POINT
  5
10FE22B595C
  8
DEFPOINTS
 62
     0
 10
133.70738140889549
 20
284.97649335800378
 30
0.0
  0
POINT
  5
10FE22B595D
  8
DEFPOINTS
 62
     0
 10
175.70738140889549
 20
24.976493358004049
 30
0.0
  0
POINT
  5
10FE22B595E
  8
DEFPOINTS
 62
     0
 10
266.3838767065634
 20
24.976493358004031
 30
0.0
  0
ENDBLK
  5
10FE22B56A6
  8
0
  0
BLOCK
  8
0
  2
*D19
 70
     1
 10
0.0
 20
0.0
 30
0.0
  3
*D19
  1

  0
LINE
  5
10FE22B5932
  8
DIM
 10
215.70738140889549
 20
128.47649335800381
 30
0.0
 11
249.6008193227168
 21
128.47649335800381
 31
0.0
  0
LINE
  5
10FE22B5933
  8
DIM
 10
157.05135525929609
 20
272.47649335800389
 30
0.0
 11
249.6008193227168
 21
272.47649335800389
 31
0.0
  0
LINE
  5
10FE22B5934
  8
DIM
 10
247.6008193227168
 20
131.47649335800381
 30
0.0
 11
247.6008193227168
 21
269.47649335800378
 31
0.0
  0
SOLID
  5
10FE22B5935
  8
DIM
 10
247.10081932271669
 20
131.47649335800381
 30
0.0
 11
248.1008193227168
 21
131.47649335800381
 31
0.0
 12
247.6008193227168
 22
128.47649335800381
 32
0.0
 13
247.6008193227168
 23
128.47649335800381
 33
0.0
  0
SOLID
  5
10FE22B5936
  8
DIM
 10
247.1008193227168
 20
269.47649335800378
 30
0.0
 11
248.1008193227168
 21
269.47649335800378
 31
0.0
 12
247.6008193227168
 22
272.47649335800389
 32
0.0
 13
247.6008193227168
 23
272.47649335800389
 33
0.0
  0
TEXT
  5
10FE22B5937
  8
0
 10
246.10081932271669
 20
192.3336362151467
 30
0.0
 40
3.0
  1
MIN.137
 50
90.0
  7
CHINESET
  0
POINT
  5
10FE22B5938
  8
DEFPOINTS
 62
     0
 10
213.70738140889549
 20
128.47649335800381
 30
0.0
  0
POINT
  5
10FE22B5939
  8
DEFPOINTS
 62
     0
 10
155.05135525929609
 20
272.47649335800389
 30
0.0
  0
POINT
  5
10FE22B593A
  8
DEFPOINTS
 62
     0
 10
247.6008193227168
 20
272.47649335800389
 30
0.0
  0
ENDBLK
  5
10FE22B56B2
  8
0
  0
BLOCK
  8
0
  2
*D20
 70
     1
 10
0.0
 20
0.0
 30
0.0
  3
*D20
  1

  0
LINE
  5
10FE22B5917
  8
DIM
 10
157.05135525929609
 20
272.47649335800389
 30
0.0
 11
201.5996735055262
 21
272.47649335800389
 31
0.0
  0
LINE
  5
10FE22B5918
  8
DIM
 10
177.70738140889549
 20
189.47649335800381
 30
0.0
 11
201.5996735055262
 21
189.47649335800381
 31
0.0
  0
LINE
  5
10FE22B5919
  8
DIM
 10
199.5996735055262
 20
269.47649335800378
 30
0.0
 11
199.5996735055262
 21
192.47649335800381
 31
0.0
  0
SOLID
  5
10FE22B591A
  8
DIM
 10
199.0996735055262
 20
269.47649335800378
 30
0.0
 11
200.0996735055262
 21
269.47649335800378
 31
0.0
 12
199.5996735055262
 22
272.47649335800389
 32
0.0
 13
199.5996735055262
 23
272.47649335800389
 33
0.0
  0
SOLID
  5
10FE22B591B
  8
DIM
 10
199.0996735055262
 20
192.47649335800381
 30
0.0
 11
200.0996735055262
 21
192.47649335800381
 31
0.0
 12
199.5996735055262
 22
189.47649335800381
 32
0.0
 13
199.5996735055262
 23
189.47649335800381
 33
0.0
  0
TEXT
  5
10FE22B591C
  8
0
 10
198.0996735055262
 20
228.54792192943239
 30
0.0
 40
3.0
  1
83
 50
90.0
  7
CHINESET
  0
POINT
  5
10FE22B591D
  8
DEFPOINTS
 62
     0
 10
155.05135525929609
 20
272.47649335800389
 30
0.0
  0
POINT
  5
10FE22B591E
  8
DEFPOINTS
 62
     0
 10
175.7073814088956
 20
189.47649335800381
 30
0.0
  0
POINT
  5
10FE22B591F
  8
DEFPOINTS
 62
     0
 10
199.5996735055262
 20
189.47649335800381
 30
0.0
  0
ENDBLK
  5
10FE22B56BE
  8
0
  0
BLOCK
  8
0
  2
*D21
 70
     1
 10
0.0
 20
0.0
 30
0.0
  3
*D21
  1

  0
LINE
  5
10FE22B5905
  8
DIM
 10
180.70738140889549
 20
186.47649335800389
 30
0.0
 11
180.70738140889549
 21
213.70282704683271
 31
0.0
  0
LINE
  5
10FE22B5906
  8
DIM
 10
86.707381408895571
 20
186.47649335800389
 30
0.0
 11
86.707381408895571
 21
213.70282704683271
 31
0.0
  0
LINE
  5
10FE22B5907
  8
DIM
 10
177.70738140889549
 20
211.70282704683271
 30
0.0
 11
89.707381408895557
 21
211.70282704683271
 31
0.0
  0
INSERT
  5
10FE22B5908
  8
0
  2
*U36
 10
0.0
 20
0.0
 30
0.0
  0
SOLID
  5
10FE22B5909
  8
DIM
 10
177.70738140889549
 20
212.20282704683271
 30
0.0
 11
177.70738140889549
 21
211.20282704683271
 31
0.0
 12
180.70738140889549
 22
211.70282704683271
 32
0.0
 13
180.70738140889549
 23
211.70282704683271
 33
0.0
  0
SOLID
  5
10FE22B590A
  8
DIM
 10
89.707381408895557
 20
212.20282704683271
 30
0.0
 11
89.707381408895557
 21
211.20282704683271
 31
0.0
 12
86.707381408895571
 22
211.70282704683271
 32
0.0
 13
86.707381408895571
 23
211.70282704683271
 33
0.0
  0
POINT
  5
10FE22B590B
  8
DEFPOINTS
 62
     0
 10
180.70738140889549
 20
184.47649335800389
 30
0.0
  0
POINT
  5
10FE22B590C
  8
DEFPOINTS
 62
     0
 10
86.707381408895571
 20
184.47649335800389
 30
0.0
  0
POINT
  5
10FE22B590D
  8
DEFPOINTS
 62
     0
 10
86.707381408895571
 20
211.70282704683271
 30
0.0
  0
ENDBLK
  5
10FE22B56CA
  8
0
  0
BLOCK
  8
0
  2
*D22
 70
     1
 10
0.0
 20
0.0
 30
0.0
  3
*D22
  1

  0
LINE
  5
10FE22B590E
  8
DIM
 10
153.7180219259628
 20
272.47649335800389
 30
0.0
 11
175.51209513440699
 21
272.47649335800389
 31
0.0
  0
LINE
  5
10FE22B590F
  8
DIM
 10
155.70738140889549
 20
247.47649335800389
 30
0.0
 11
175.51209513440699
 21
247.47649335800389
 31
0.0
  0
LINE
  5
10FE22B5910
  8
DIM
 10
173.51209513440699
 20
269.47649335800378
 30
0.0
 11
173.51209513440699
 21
250.47649335800389
 31
0.0
  0
SOLID
  5
10FE22B5911
  8
DIM
 10
173.01209513440699
 20
269.47649335800378
 30
0.0
 11
174.01209513440699
 21
269.47649335800378
 31
0.0
 12
173.51209513440699
 22
272.47649335800389
 32
0.0
 13
173.51209513440699
 23
272.47649335800389
 33
0.0
  0
SOLID
  5
10FE22B5912
  8
DIM
 10
173.01209513440699
 20
250.47649335800389
 30
0.0
 11
174.01209513440699
 21
250.47649335800389
 31
0.0
 12
173.51209513440699
 22
247.47649335800389
 32
0.0
 13
173.51209513440699
 23
247.47649335800389
 33
0.0
  0
TEXT
  5
10FE22B5913
  8
0
 10
172.01209513440699
 20
257.54792192943239
 30
0.0
 40
3.0
  1
25
 50
90.0
  7
CHINESET
  0
POINT
  5
10FE22B5914
  8
DEFPOINTS
 62
     0
 10
151.7180219259628
 20
272.47649335800389
 30
0.0
  0
POINT
  5
10FE22B5915
  8
DEFPOINTS
 62
     0
 10
153.70738140889549
 20
247.47649335800389
 30
0.0
  0
POINT
  5
10FE22B5916
  8
DEFPOINTS
 62
     0
 10
173.51209513440699
 20
247.47649335800389
 30
0.0
  0
ENDBLK
  5
10FE22B56D6
  8
0
  0
BLOCK
  8
0
  2
*D23
 70
     1
 10
0.0
 20
0.0
 30
0.0
  3
*D23
  1

  0
LINE
  5
10FE22B58FC
  8
DIM
 10
89.707381408895557
 20
189.47649335800389
 30
0.0
 11
70.227740875237231
 21
189.47649335800389
 31
0.0
  0
LINE
  5
10FE22B58FD
  8
DIM
 10
78.817543319485992
 20
172.47649335800389
 30
0.0
 11
70.227740875237231
 21
172.47649335800389
 31
0.0
  0
LINE
  5
10FE22B58FE
  8
DIM
 10
72.227740875237231
 20
186.47649335800389
 30
0.0
 11
72.227740875237231
 21
175.47649335800389
 31
0.0
  0
TEXT
  5
10FE22B58FF
  8
0
 10
68.727740875237231
 20
178.35190577661999
 30
0.0
 40
3.0
  1
17
 50
90.0
  7
CHINESET
  0
SOLID
  5
10FE22B5900
  8
DIM
 10
71.727740875237231
 20
186.47649335800389
 30
0.0
 11
72.727740875237231
 21
186.47649335800389
 31
0.0
 12
72.227740875237231
 22
189.47649335800389
 32
0.0
 13
72.227740875237231
 23
189.47649335800389
 33
0.0
  0
SOLID
  5
10FE22B5901
  8
DIM
 10
71.727740875237231
 20
175.47649335800389
 30
0.0
 11
72.727740875237231
 21
175.47649335800389
 31
0.0
 12
72.227740875237231
 22
172.47649335800389
 32
0.0
 13
72.227740875237231
 23
172.47649335800389
 33
0.0
  0
POINT
  5
10FE22B5902
  8
DEFPOINTS
 62
     0
 10
91.707381408895571
 20
189.47649335800389
 30
0.0
  0
POINT
  5
10FE22B5903
  8
DEFPOINTS
 62
     0
 10
80.817543319486006
 20
172.47649335800389
 30
0.0
  0
POINT
  5
10FE22B5904
  8
DEFPOINTS
 62
     0
 10
72.227740875237231
 20
172.47649335800389
 30
0.0
  0
ENDBLK
  5
10FE22B56E2
  8
0
  0
BLOCK
  8
0
  2
*D24
 70
     1
 10
0.0
 20
0.0
 30
0.0
  3
*D24
  1

  0
LINE
  5
10FE22B594D
  8
DIM
 10
190.70738140889549
 20
153.47649335800381
 30
0.0
 11
234.99177585342051
 21
153.47649335800381
 31
0.0
  0
LINE
  5
10FE22B594E
  8
DIM
 10
215.70738140889549
 20
143.47649335800381
 30
0.0
 11
234.99177585342051
 21
143.47649335800381
 31
0.0
  0
LINE
  5
10FE22B594F
  8
DIM
 10
232.99177585342051
 20
150.47649335800381
 30
0.0
 11
232.99177585342051
 21
146.47649335800381
 31
0.0
  0
TEXT
  5
10FE22B5950
  8
0
 10
229.49177585342051
 20
146.07656979490091
 30
0.0
 40
3.0
  1
10
 50
90.0
  7
CHINESET
  0
SOLID
  5
10FE22B5951
  8
DIM
 10
232.49177585342039
 20
150.47649335800381
 30
0.0
 11
233.49177585342051
 21
150.47649335800381
 31
0.0
 12
232.99177585342051
 22
153.47649335800381
 32
0.0
 13
232.99177585342051
 23
153.47649335800381
 33
0.0
  0
SOLID
  5
10FE22B5952
  8
DIM
 10
232.49177585342039
 20
146.47649335800381
 30
0.0
 11
233.49177585342051
 21
146.47649335800381
 31
0.0
 12
232.99177585342051
 22
143.47649335800381
 32
0.0
 13
232.99177585342051
 23
143.47649335800381
 33
0.0
  0
POINT
  5
10FE22B5953
  8
DEFPOINTS
 62
     0
 10
188.70738140889549
 20
153.47649335800381
 30
0.0
  0
POINT
  5
10FE22B5954
  8
DEFPOINTS
 62
     0
 10
213.70738140889549
 20
143.47649335800381
 30
0.0
  0
POINT
  5
10FE22B5955
  8
DEFPOINTS
 62
     0
 10
232.99177585342051
 20
143.47649335800381
 30
0.0
  0
ENDBLK
  5
10FE22B56EE
  8
0
  0
BLOCK
  8
0
  2
*D25
 70
     1
 10
0.0
 20
0.0
 30
0.0
  3
*D25
  1

  0
LINE
  5
10FE22B5920
  8
DIM
 10
177.70738140889549
 20
189.47649335800381
 30
0.0
 11
201.5996735055262
 21
189.47649335800381
 31
0.0
  0
LINE
  5
10FE22B5921
  8
DIM
 10
181.70738140889549
 20
161.47649335800389
 30
0.0
 11
201.5996735055262
 21
161.47649335800381
 31
0.0
  0
LINE
  5
10FE22B5922
  8
DIM
 10
199.5996735055262
 20
186.47649335800381
 30
0.0
 11
199.5996735055262
 21
164.47649335800381
 31
0.0
  0
SOLID
  5
10FE22B5923
  8
DIM
 10
199.0996735055262
 20
186.47649335800381
 30
0.0
 11
200.0996735055262
 21
186.47649335800381
 31
0.0
 12
199.5996735055262
 22
189.47649335800381
 32
0.0
 13
199.5996735055262
 23
189.47649335800381
 33
0.0
  0
SOLID
  5
10FE22B5924
  8
DIM
 10
199.0996735055262
 20
164.47649335800381
 30
0.0
 11
200.0996735055262
 21
164.47649335800381
 31
0.0
 12
199.5996735055262
 22
161.47649335800381
 32
0.0
 13
199.5996735055262
 23
161.47649335800381
 33
0.0
  0
TEXT
  5
10FE22B5925
  8
0
 10
198.0996735055262
 20
173.04792192943239
 30
0.0
 40
3.0
  1
28
 50
90.0
  7
CHINESET
  0
POINT
  5
10FE22B5926
  8
DEFPOINTS
 62
     0
 10
175.7073814088956
 20
189.47649335800381
 30
0.0
  0
POINT
  5
10FE22B5927
  8
DEFPOINTS
 62
     0
 10
179.70738140889549
 20
161.47649335800389
 30
0.0
  0
POINT
  5
10FE22B5928
  8
DEFPOINTS
 62
     0
 10
199.5996735055262
 20
161.47649335800381
 30
0.0
  0
ENDBLK
  5
10FE22B56FA
  8
0
  0
BLOCK
  8
0
  2
*D26
 70
     1
 10
0.0
 20
0.0
 30
0.0
  3
*D26
  1

  0
LINE
  5
10FE22B5944
  8
DIM
 10
215.70738140889549
 20
128.47649335800381
 30
0.0
 11
234.99177585342051
 21
128.47649335800381
 31
0.0
  0
LINE
  5
10FE22B5945
  8
DIM
 10
215.70738140889549
 20
143.47649335800381
 30
0.0
 11
234.99177585342051
 21
143.47649335800381
 31
0.0
  0
LINE
  5
10FE22B5946
  8
DIM
 10
232.99177585342051
 20
131.47649335800381
 30
0.0
 11
232.99177585342051
 21
140.47649335800381
 31
0.0
  0
TEXT
  5
10FE22B5947
  8
0
 10
229.49177585342051
 20
133.93381370047931
 30
0.0
 40
3.0
  1
15
 50
90.0
  7
CHINESET
  0
SOLID
  5
10FE22B5948
  8
DIM
 10
232.49177585342039
 20
131.47649335800381
 30
0.0
 11
233.49177585342051
 21
131.47649335800381
 31
0.0
 12
232.99177585342051
 22
128.47649335800381
 32
0.0
 13
232.99177585342051
 23
128.47649335800381
 33
0.0
  0
SOLID
  5
10FE22B5949
  8
DIM
 10
232.49177585342039
 20
140.47649335800381
 30
0.0
 11
233.49177585342051
 21
140.47649335800381
 31
0.0
 12
232.99177585342051
 22
143.47649335800381
 32
0.0
 13
232.99177585342051
 23
143.47649335800381
 33
0.0
  0
POINT
  5
10FE22B594A
  8
DEFPOINTS
 62
     0
 10
213.70738140889549
 20
128.47649335800381
 30
0.0
  0
POINT
  5
10FE22B594B
  8
DEFPOINTS
 62
     0
 10
213.70738140889549
 20
143.47649335800381
 30
0.0
  0
POINT
  5
10FE22B594C
  8
DEFPOINTS
 62
     0
 10
232.99177585342051
 20
143.47649335800381
 30
0.0
  0
ENDBLK
  5
10FE22B5706
  8
0
  0
BLOCK
  8
0
  2
*D27
 70
     1
 10
0.0
 20
0.0
 30
0.0
  3
*D27
  1

  0
LINE
  5
10FE22B58F3
  8
DIM
 10
53.7073814088956
 20
126.47649335800391
 30
0.0
 11
53.7073814088956
 21
74.306109066622355
 31
0.0
  0
LINE
  5
10FE22B58F4
  8
DIM
 10
213.70738140889549
 20
126.47649335800379
 30
0.0
 11
213.70738140889549
 21
74.306109066622355
 31
0.0
  0
LINE
  5
10FE22B58F5
  8
DIM
 10
56.7073814088956
 20
76.306109066622355
 30
0.0
 11
210.70738140889549
 21
76.306109066622355
 31
0.0
  0
INSERT
  5
10FE22B58F6
  8
0
  2
*U35
 10
0.0
 20
0.0
 30
0.0
  0
SOLID
  5
10FE22B58F7
  8
DIM
 10
56.7073814088956
 20
76.806109066622355
 30
0.0
 11
56.7073814088956
 21
75.806109066622355
 31
0.0
 12
53.7073814088956
 22
76.306109066622355
 32
0.0
 13
53.7073814088956
 23
76.306109066622355
 33
0.0
  0
SOLID
  5
10FE22B58F8
  8
DIM
 10
210.70738140889549
 20
76.806109066622355
 30
0.0
 11
210.70738140889549
 21
75.806109066622355
 31
0.0
 12
213.70738140889549
 22
76.306109066622355
 32
0.0
 13
213.70738140889549
 23
76.306109066622355
 33
0.0
  0
POINT
  5
10FE22B58F9
  8
DEFPOINTS
 62
     0
 10
53.7073814088956
 20
128.47649335800389
 30
0.0
  0
POINT
  5
10FE22B58FA
  8
DEFPOINTS
 62
     0
 10
213.70738140889549
 20
128.47649335800381
 30
0.0
  0
POINT
  5
10FE22B58FB
  8
DEFPOINTS
 62
     0
 10
213.70738140889549
 20
76.306109066622355
 30
0.0
  0
ENDBLK
  5
10FE22B5712
  8
0
  0
BLOCK
  8
0
  2
*D28
 70
     1
 10
0.0
 20
0.0
 30
0.0
  3
*D28
  1

  0
LINE
  5
10FE22B58EA
  8
DIM
 10
78.707381408895543
 20
141.47649335800381
 30
0.0
 11
78.707381408895543
 21
86.812980841003537
 31
0.0
  0
LINE
  5
10FE22B58EB
  8
DIM
 10
188.70738140889549
 20
141.47649335800381
 30
0.0
 11
188.70738140889549
 21
86.812980841003537
 31
0.0
  0
LINE
  5
10FE22B58EC
  8
DIM
 10
81.707381408895543
 20
88.812980841003537
 30
0.0
 11
185.70738140889549
 21
88.812980841003537
 31
0.0
  0
INSERT
  5
10FE22B58ED
  8
0
  2
*U34
 10
0.0
 20
0.0
 30
0.0
  0
SOLID
  5
10FE22B58EE
  8
DIM
 10
81.707381408895543
 20
89.312980841003537
 30
0.0
 11
81.707381408895543
 21
88.312980841003537
 31
0.0
 12
78.707381408895543
 22
88.812980841003537
 32
0.0
 13
78.707381408895543
 23
88.812980841003537
 33
0.0
  0
SOLID
  5
10FE22B58EF
  8
DIM
 10
185.70738140889549
 20
89.312980841003537
 30
0.0
 11
185.70738140889549
 21
88.312980841003537
 31
0.0
 12
188.70738140889549
 22
88.812980841003537
 32
0.0
 13
188.70738140889549
 23
88.812980841003537
 33
0.0
  0
POINT
  5
10FE22B58F0
  8
DEFPOINTS
 62
     0
 10
78.707381408895543
 20
143.47649335800381
 30
0.0
  0
POINT
  5
10FE22B58F1
  8
DEFPOINTS
 62
     0
 10
188.70738140889549
 20
143.47649335800381
 30
0.0
  0
POINT
  5
10FE22B58F2
  8
DEFPOINTS
 62
     0
 10
188.70738140889549
 20
88.812980841003537
 30
0.0
  0
ENDBLK
  5
10FE22B571E
  8
0
  0
BLOCK
  8
0
  2
*D29
 70
     1
 10
0.0
 20
0.0
 30
0.0
  3
*D29
  1

  0
LINE
  5
10FE22B595F
  8
DIM
 10
89.707381408895557
 20
24.976493358003911
 30
0.0
 11
73.083928191263581
 21
24.976493358003911
 31
0.0
  0
LINE
  5
10FE22B5960
  8
DIM
 10
81.992781552185448
 20
45.976493358003943
 30
0.0
 11
73.083928191263595
 21
45.97649335800395
 31
0.0
  0
LINE
  5
10FE22B5961
  8
DIM
 10
75.083928191263581
 20
27.976493358003911
 30
0.0
 11
75.083928191263595
 21
42.97649335800395
 31
0.0
  0
SOLID
  5
10FE22B5962
  8
DIM
 10
74.583928191263581
 20
27.976493358003911
 30
0.0
 11
75.583928191263581
 21
27.976493358003911
 31
0.0
 12
75.083928191263581
 22
24.976493358003911
 32
0.0
 13
75.083928191263581
 23
24.976493358003911
 33
0.0
  0
SOLID
  5
10FE22B5963
  8
DIM
 10
74.583928191263595
 20
42.97649335800395
 30
0.0
 11
75.583928191263595
 21
42.97649335800395
 31
0.0
 12
75.083928191263595
 22
45.97649335800395
 32
0.0
 13
75.083928191263595
 23
45.97649335800395
 33
0.0
  0
TEXT
  5
10FE22B5964
  8
0
 10
73.583928191263581
 20
33.690779072289658
 30
0.0
 40
3.0
  1
21
 50
90.0
  7
CHINESET
  0
POINT
  5
10FE22B5965
  8
DEFPOINTS
 62
     0
 10
91.707381408895571
 20
24.976493358003911
 30
0.0
  0
POINT
  5
10FE22B5966
  8
DEFPOINTS
 62
     0
 10
83.992781552185434
 20
45.976493358003943
 30
0.0
  0
POINT
  5
10FE22B5967
  8
DEFPOINTS
 62
     0
 10
75.083928191263595
 20
45.97649335800395
 30
0.0
  0
ENDBLK
  5
10FE22B572A
  8
0
  0
BLOCK
  8
0
  2
*D30
 70
     1
 10
0.0
 20
0.0
 30
0.0
  3
*D30
  1

  0
LINE
  5
10FE22B597A
  8
DIM
 10
319.53400646964502
 20
278.47649335800378
 30
0.0
 11
319.53400646964502
 21
305.4503188965644
 31
0.0
  0
LINE
  5
10FE22B597B
  8
DIM
 10
364.53400646964502
 20
278.47649335800378
 30
0.0
 11
364.53400646964502
 21
305.4503188965644
 31
0.0
  0
LINE
  5
10FE22B597C
  8
DIM
 10
322.53400646964502
 20
303.4503188965644
 30
0.0
 11
361.53400646964502
 21
303.4503188965644
 31
0.0
  0
SOLID
  5
10FE22B597D
  8
DIM
 10
322.53400646964502
 20
303.9503188965644
 30
0.0
 11
322.53400646964502
 21
302.9503188965644
 31
0.0
 12
319.53400646964502
 22
303.4503188965644
 32
0.0
 13
319.53400646964502
 23
303.4503188965644
 33
0.0
  0
SOLID
  5
10FE22B597E
  8
DIM
 10
361.53400646964502
 20
303.9503188965644
 30
0.0
 11
361.53400646964502
 21
302.9503188965644
 31
0.0
 12
364.53400646964502
 22
303.4503188965644
 32
0.0
 13
364.53400646964502
 23
303.4503188965644
 33
0.0
  0
TEXT
  5
10FE22B597F
  8
0
 10
339.60543504107358
 20
304.9503188965644
 30
0.0
 40
3.0
  1
45
  7
CHINESET
  0
POINT
  5
10FE22B5980
  8
DEFPOINTS
 62
     0
 10
319.53400646964502
 20
276.47649335800378
 30
0.0
  0
POINT
  5
10FE22B5981
  8
DEFPOINTS
 62
     0
 10
364.53400646964502
 20
276.47649335800378
 30
0.0
  0
POINT
  5
10FE22B5982
  8
DEFPOINTS
 62
     0
 10
364.53400646964502
 20
303.4503188965644
 30
0.0
  0
ENDBLK
  5
10FE22B5820
  8
0
  0
BLOCK
  8
0
  2
*D31
 70
     1
 10
0.0
 20
0.0
 30
0.0
  3
*D31
  1

  0
LINE
  5
10FE22B5971
  8
DIM
 10
335.03400646964508
 20
282.47649335800372
 30
0.0
 11
335.03400646964508
 21
295.80017445077499
 31
0.0
  0
LINE
  5
10FE22B5972
  8
DIM
 10
349.03400646964508
 20
282.47649335800372
 30
0.0
 11
349.03400646964508
 21
295.80017445077499
 31
0.0
  0
LINE
  5
10FE22B5973
  8
DIM
 10
338.03400646964519
 20
293.80017445077499
 30
0.0
 11
346.03400646964508
 21
293.80017445077499
 31
0.0
  0
SOLID
  5
10FE22B5974
  8
DIM
 10
338.03400646964519
 20
294.3001744507751
 30
0.0
 11
338.03400646964519
 21
293.30017445077499
 31
0.0
 12
335.03400646964508
 22
293.80017445077499
 32
0.0
 13
335.03400646964508
 23
293.80017445077499
 33
0.0
  0
SOLID
  5
10FE22B5975
  8
DIM
 10
346.03400646964508
 20
294.3001744507751
 30
0.0
 11
346.03400646964508
 21
293.30017445077499
 31
0.0
 12
349.03400646964508
 22
293.80017445077499
 32
0.0
 13
349.03400646964508
 23
293.80017445077499
 33
0.0
  0
TEXT
  5
10FE22B5976
  8
0
 10
339.81972075535941
 20
295.30017445077499
 30
0.0
 40
3.0
  1
14
  7
CHINESET
  0
POINT
  5
10FE22B5977
  8
DEFPOINTS
 62
     0
 10
335.03400646964508
 20
280.47649335800372
 30
0.0
  0
POINT
  5
10FE22B5978
  8
DEFPOINTS
 62
     0
 10
349.03400646964508
 20
280.47649335800372
 30
0.0
  0
POINT
  5
10FE22B5979
  8
DEFPOINTS
 62
     0
 10
349.03400646964508
 20
293.80017445077499
 30
0.0
  0
ENDBLK
  5
10FE22B582D
  8
0
  0
BLOCK
  8
0
  2
*D32
 70
     1
 10
0.0
 20
0.0
 30
0.0
  3
*D32
  1

  0
LINE
  5
10FE22B5983
  8
DIM
 10
334.03400646964519
 20
259.97649335800378
 30
0.0
 11
307.12856670728638
 21
259.97649335800378
 31
0.0
  0
LINE
  5
10FE22B5984
  8
DIM
 10
334.03400646964519
 20
284.97649335800378
 30
0.0
 11
307.12856670728638
 21
284.97649335800378
 31
0.0
  0
LINE
  5
10FE22B5985
  8
DIM
 10
309.12856670728638
 20
262.97649335800378
 30
0.0
 11
309.12856670728638
 21
281.97649335800378
 31
0.0
  0
SOLID
  5
10FE22B5986
  8
DIM
 10
308.62856670728638
 20
262.97649335800378
 30
0.0
 11
309.62856670728638
 21
262.97649335800378
 31
0.0
 12
309.12856670728638
 22
259.97649335800378
 32
0.0
 13
309.12856670728638
 23
259.97649335800378
 33
0.0
  0
SOLID
  5
10FE22B5987
  8
DIM
 10
308.62856670728638
 20
281.97649335800378
 30
0.0
 11
309.62856670728638
 21
281.97649335800378
 31
0.0
 12
309.12856670728638
 22
284.97649335800378
 32
0.0
 13
309.12856670728638
 23
284.97649335800378
 33
0.0
  0
INSERT
  5
10FE22B5988
  8
0
  2
*U37
 10
0.0
 20
0.0
 30
0.0
  0
POINT
  5
10FE22B5989
  8
DEFPOINTS
 62
     0
 10
336.03400646964519
 20
259.97649335800378
 30
0.0
  0
POINT
  5
10FE22B598A
  8
DEFPOINTS
 62
     0
 10
336.03400646964519
 20
284.97649335800378
 30
0.0
  0
POINT
  5
10FE22B598B
  8
DEFPOINTS
 62
     0
 10
309.12856670728638
 20
284.97649335800378
 30
0.0
  0
ENDBLK
  5
10FE22B5839
  8
0
  0
BLOCK
  8
0
  2
*D33
 70
     1
 10
0.0
 20
0.0
 30
0.0
  3
*D33
  1

  0
LINE
  5
10FE22B598C
  8
DIM
 10
366.53400646964502
 20
268.47649335800372
 30
0.0
 11
379.66163645801771
 21
268.47649335800372
 31
0.0
  0
LINE
  5
10FE22B598D
  8
DIM
 10
366.53400646964502
 20
276.47649335800378
 30
0.0
 11
379.66163645801771
 21
276.47649335800378
 31
0.0
  0
LINE
  5
10FE22B598E
  8
DIM
 10
377.66163645801771
 20
265.47649335800372
 30
0.0
 11
377.66163645801771
 21
262.47649335800378
 31
0.0
  0
LINE
  5
10FE22B598F
  8
DIM
 10
377.66163645801771
 20
279.47649335800378
 30
0.0
 11
377.66163645801771
 21
282.47649335800378
 31
0.0
  0
INSERT
  5
10FE22B5990
  8
0
  2
*U38
 10
0.0
 20
0.0
 30
0.0
  0
SOLID
  5
10FE22B5991
  8
DIM
 10
377.16163645801771
 20
265.47649335800372
 30
0.0
 11
378.16163645801771
 21
265.47649335800372
 31
0.0
 12
377.66163645801771
 22
268.47649335800372
 32
0.0
 13
377.66163645801771
 23
268.47649335800372
 33
0.0
  0
SOLID
  5
10FE22B5992
  8
DIM
 10
377.16163645801771
 20
279.47649335800378
 30
0.0
 11
378.16163645801771
 21
279.47649335800378
 31
0.0
 12
377.66163645801771
 22
276.47649335800378
 32
0.0
 13
377.66163645801771
 23
276.47649335800378
 33
0.0
  0
POINT
  5
10FE22B5993
  8
DEFPOINTS
 62
     0
 10
364.53400646964502
 20
268.47649335800372
 30
0.0
  0
POINT
  5
10FE22B5994
  8
DEFPOINTS
 62
     0
 10
364.53400646964502
 20
276.47649335800378
 30
0.0
  0
POINT
  5
10FE22B5995
  8
DEFPOINTS
 62
     0
 10
377.66163645801771
 20
276.47649335800378
 30
0.0
  0
ENDBLK
  5
10FE22B5846
  8
0
  0
BLOCK
  8
0
  2
*U34
 70
     1
 10
0.0
 20
0.0
 30
0.0
  3
*U34
  1

  0
TEXT
  5
10FE22B59BF
  8
0
 10
140.65004862653271
 20
92.312980841003537
 30
0.0
 40
3.0
  1
\U+2205
  7
CHINESET
  0
TEXT
  5
10FE22B59C0
  8
0
 10
143.3643343408184
 20
92.312980841003537
 30
0.0
 40
3.0
  1
110
  7
CHINESET
  0
ENDBLK
  5
10FE22B59C2
  8
0
  0
BLOCK
  8
0
  2
*U35
 70
     1
 10
0.0
 20
0.0
 30
0.0
  3
*U35
  1

  0
TEXT
  5
10FE22B59C4
  8
0
 10
140.09158398209101
 20
79.806109066622355
 30
0.0
 40
3.0
  1
\U+2205
  7
CHINESET
  0
TEXT
  5
10FE22B59C5
  8
0
 10
142.8058696963767
 20
79.806109066622355
 30
0.0
 40
3.0
  1
160
  7
CHINESET
  0
ENDBLK
  5
10FE22B59C7
  8
0
  0
BLOCK
  8
0
  2
*U36
 70
     1
 10
0.0
 20
0.0
 30
0.0
  3
*U36
  1

  0
TEXT
  5
10FE22B59C9
  8
0
 10
141.2649396478684
 20
215.20282704683271
 30
0.0
 40
3.0
  1
\U+2205
  7
CHINESET
  0
TEXT
  5
10FE22B59CA
  8
0
 10
143.9792253621541
 20
215.20282704683271
 30
0.0
 40
3.0
  1
94
  7
CHINESET
  0
ENDBLK
  5
10FE22B59CC
  8
0
  0
BLOCK
  8
0
  2
*U37
 70
     1
 10
0.0
 20
0.0
 30
0.0
  3
*U37
  1

  0
TEXT
  5
10FE22B59CE
  8
0
 10
307.62856670728632
 20
268.69077907228962
 30
0.0
 40
3.0
  1
\U+2205
 50
90.0
  7
CHINESET
  0
TEXT
  5
10FE22B59CF
  8
0
 10
307.62856670728632
 20
271.40506478657528
 30
0.0
 40
3.0
  1
25
 50
90.0
  7
CHINESET
  0
ENDBLK
  5
10FE22B59D1
  8
0
  0
BLOCK
  8
0
  2
*U38
 70
     1
 10
0.0
 20
0.0
 30
0.0
  3
*U38
  1

  0
TEXT
  5
10FE22B59D3
  8
0
 10
375.35699623778498
 20
270.22307155494877
 30
0.0
 40
3.0
  1
\U+2205
 50
90.0
  7
CHINESET
  0
TEXT
  5
10FE22B59D4
  8
0
 10
375.35699623778498
 20
272.9373572692345
 30
0.0
 40
3.0
  1
8
 50
90.0
  7
CHINESET
  0
ENDBLK
  5
10FE22B59D6
  8
0
  0
ENDSEC
  0
SECTION
  2
ENTITIES
  0
LINE
  5
1
  8
0
 62
     4
 10
392.34651856897239
 20
549.28082191780834
 30
0.0
 11
392.34651856897261
 21
9.1232876712328732
 31
0.0
  0
LINE
  5
2
  8
0
 62
     4
 10
9.4543428719093754
 20
9.1232876712328732
 30
0.0
 11
9.4543428719093754
 21
549.28082191780823
 31
0.0
  0
LINE
  5
1C
  8
0
 62
     4
 10
9.4543428719093754
 20
549.28082191780823
 30
0.0
 11
392.3465185689725
 21
549.28082191780834
 31
0.0
  0
LINE
  5
28
  8
0
 62
     4
 10
392.34651856897261
 20
9.1232876712328732
 30
0.0
 11
9.4543428719093754
 21
9.1232876712328732
 31
0.0
  0
LINE
  5
5A
  8
CENTER
  6
CENTER
 10
133.70738140889549
 20
290.98280801046002
 30
0.0
 11
133.70738140889549
 21
19.456941512223299
 31
0.0
  0
LINE
  5
5B
  8
CENTER
  6
CENTER
 10
113.8585438901324
 20
272.47649335800389
 30
0.0
 11
151.7180219259628
 21
272.47649335800389
 31
0.0
  0
LINE
  5
65
  8
0
 10
153.70738140889549
 20
247.47649335800389
 30
0.0
 11
153.70738140889549
 21
189.47649335800381
 31
0.0
  0
LINE
  5
67
  8
0
 10
118.7073814088955
 20
247.47649335800389
 30
0.0
 11
124.2073814088954
 21
247.47649335800389
 31
0.0
  0
LINE
  5
68
  8
0
 10
86.707381408895571
 20
184.47649335800381
 30
0.0
 11
86.707381408895571
 21
162.47649335800389
 31
0.0
  0
LINE
  5
69
  8
0
 10
180.70738140889549
 20
184.47649335800389
 30
0.0
 11
180.70738140889549
 21
162.47649335800389
 31
0.0
  0
LINE
  5
6B
  8
0
 10
87.707381408895515
 20
161.47649335800401
 30
0.0
 11
179.70738140889549
 21
161.47649335800389
 31
0.0
  0
LINE
  5
6C
  8
0
 10
86.707381408895543
 20
184.47649335800389
 30
0.0
 11
180.70738140889549
 21
184.47649335800389
 31
0.0
  0
LINE
  5
6F
  8
0
 10
86.707381408895571
 20
184.47649335800389
 30
0.0
 11
91.707381408895571
 21
189.47649335800389
 31
0.0
  0
LINE
  5
70
  8
0
 10
175.70738140889549
 20
189.47649335800389
 30
0.0
 11
180.70738140889549
 21
184.47649335800389
 31
0.0
  0
LINE
  5
71
  8
0
 10
86.707381408895571
 20
162.47649335800389
 30
0.0
 11
87.707381408895529
 21
161.47649335800389
 31
0.0
  0
LINE
  5
72
  8
0
 10
179.70738140889549
 20
161.47649335800389
 30
0.0
 11
180.70738140889549
 21
162.47649335800389
 31
0.0
  0
LINE
  5
73
  8
0
 10
87.707381408895529
 20
161.47649335800401
 30
0.0
 11
87.707381408895529
 21
153.47649335800389
 31
0.0
  0
LINE
  5
74
  8
0
 10
179.70738140889549
 20
161.47649335800389
 30
0.0
 11
179.70738140889549
 21
153.47649335800381
 31
0.0
  0
LINE
  5
75
  8
0
 10
178.70738140889549
 20
158.47649335800389
 30
0.0
 11
178.70738140889549
 21
153.47649335800381
 31
0.0
  0
LINE
  5
76
  8
0
 10
88.707381408895543
 20
158.47649335800389
 30
0.0
 11
88.707381408895543
 21
153.47649335800389
 31
0.0
  0
LINE
  5
77
  8
0
 10
89.207381408895571
 20
52.776493358003911
 30
0.0
 11
87.707381408895529
 21
54.276493358003918
 31
0.0
  0
LINE
  5
78
  8
0
 10
178.20738140889549
 20
52.776493358004053
 30
0.0
 11
179.70738140889549
 21
54.27649335800406
 31
0.0
  0
LINE
  5
79
  8
0
 10
87.707381408895529
 20
158.47649335800389
 30
0.0
 11
179.70738140889549
 21
158.47649335800389
 31
0.0
  0
LINE
  5
7A
  8
0
 10
88.707381408895543
 20
158.47649335800389
 30
0.0
 11
87.707381408895529
 21
159.47649335800389
 31
0.0
  0
LINE
  5
7B
  8
0
 10
178.70738140889549
 20
158.47649335800389
 30
0.0
 11
179.70738140889549
 21
159.47649335800389
 31
0.0
  0
LINE
  5
7C
  8
0
 10
179.70738140889549
 20
54.27649335800406
 30
0.0
 11
87.707381408895387
 21
54.27649335800406
 31
0.0
  0
LINE
  5
7E
  8
CENTER
  6
CENTER
 10
80.817543319486006
 20
172.47649335800389
 30
0.0
 11
105.59829374747081
 21
172.47649335800381
 31
0.0
  0
LINE
  5
7F
  8
HIDDEN
  6
HIDDEN
 10
86.707381408895571
 20
178.19596914990689
 30
0.0
 11
96.707381408895571
 21
177.84676145498941
 31
0.0
  0
LINE
  5
80
  8
HIDDEN
  6
HIDDEN
 10
86.707381408895571
 20
166.75701756610081
 30
0.0
 11
96.707381408895571
 21
167.1062252610183
 31
0.0
  0
LINE
  5
81
  8
HIDDEN
  6
HIDDEN
 10
86.707381408895571
 20
179.05649335800379
 30
0.0
 11
96.707381408895571
 21
178.70728566308631
 31
0.0
  0
LINE
  5
82
  8
HIDDEN
  6
HIDDEN
 10
86.707381408895571
 20
165.89649335800391
 30
0.0
 11
96.707381408895571
 21
166.24570105292131
 31
0.0
  0
LINE
  5
83
  8
HIDDEN
  6
HIDDEN
 10
96.707381408895571
 20
178.70728566308631
 30
0.0
 11
96.707381408895571
 21
166.24570105292131
 31
0.0
  0
LINE
  5
84
  8
HIDDEN
  6
HIDDEN
 10
99.707381408895543
 20
177.8467614549896
 30
0.0
 11
99.707381408895543
 21
167.1062252610183
 31
0.0
  0
LINE
  5
85
  8
HIDDEN
  6
HIDDEN
 10
96.707381408895571
 20
167.1062252610183
 30
0.0
 11
99.707381408895543
 21
167.1062252610183
 31
0.0
  0
LINE
  5
86
  8
HIDDEN
  6
HIDDEN
 10
99.707381408895543
 20
167.1062252610183
 30
0.0
 11
102.93416402199421
 21
172.47649335800381
 31
0.0
  0
LINE
  5
87
  8
HIDDEN
  6
HIDDEN
 10
99.707381408895543
 20
177.8467614549896
 30
0.0
 11
102.93416402199421
 21
172.47649335800401
 31
0.0
  0
LINE
  5
88
  8
HIDDEN
  6
HIDDEN
 10
96.707381408895571
 20
177.8467614549896
 30
0.0
 11
99.707381408895543
 21
177.8467614549896
 31
0.0
  0
LINE
  5
168
  8
0
 10
91.707381408895571
 20
24.976493358003911
 30
0.0
 11
175.70738140889549
 21
24.976493358004049
 31
0.0
  0
LINE
  5
169
  8
0
 10
89.707381408895543
 20
52.776493358003911
 30
0.0
 11
89.707381408895543
 21
26.976493358003939
 31
0.0
  0
LINE
  5
16A
  8
0
 10
177.7073814088954
 20
52.77649335800411
 30
0.0
 11
177.7073814088954
 21
26.976493358004038
 31
0.0
  0
LINE
  5
16B
  8
0
 10
175.70738140889549
 20
24.976493358004049
 30
0.0
 11
177.7073814088954
 21
26.976493358004038
 31
0.0
  0
LINE
  5
16C
  8
0
 10
91.707381408895571
 20
24.976493358003911
 30
0.0
 11
89.707381408895543
 21
26.976493358003939
 31
0.0
  0
LINE
  5
16E
  8
0
 10
89.207381408895515
 20
52.776493358003968
 30
0.0
 11
178.20738140889549
 21
52.776493358004053
 31
0.0
  0
LINE
  5
1C7
  8
0
 10
213.70738140889549
 20
143.47649335800381
 30
0.0
 11
213.70738140889549
 21
128.47649335800389
 31
0.0
  0
LINE
  5
1CC
  8
0
 10
53.7073814088956
 20
128.47649335800381
 30
0.0
 11
213.70738140889549
 21
128.47649335800381
 31
0.0
  0
LINE
  5
1CE
  8
0
 10
178.70738140889549
 20
127.47649335800391
 30
0.0
 11
178.70738140889549
 21
53.276493358004018
 31
0.0
  0
LINE
  5
1CF
  8
0
 10
179.70738140889549
 20
127.47649335800391
 30
0.0
 11
179.70738140889549
 21
54.27649335800406
 31
0.0
  0
LINE
  5
1D9
  8
0
 10
53.7073814088956
 20
143.47649335800381
 30
0.0
 11
53.7073814088956
 21
128.47649335800381
 31
0.0
  0
LINE
  5
1FA
  8
0
 10
91.707381408895429
 20
189.47649335800381
 30
0.0
 11
175.7073814088954
 21
189.47649335800381
 31
0.0
  0
LINE
  5
204
  8
CENTER
  6
CENTER
 10
133.70738140889549
 20
337.71320537226489
 30
0.0
 11
133.70738140889549
 21
507.71320537226501
 31
0.0
  0
LINE
  5
205
  8
CENTER
  6
CENTER
 10
48.707381408895543
 20
422.71320537226501
 30
0.0
 11
218.7073814088954
 21
422.71320537226501
 31
0.0
  0
CIRCLE
  5
206
  8
0
 10
133.70738140889549
 20
422.71320537226501
 30
0.0
 40
80.0
  0
CIRCLE
  5
207
  8
CENTER
  6
CENTER
 10
133.70738140889549
 20
422.71320537226501
 30
0.0
 40
67.5
  0
CIRCLE
  5
208
  8
0
 10
201.2073814088954
 20
422.71320537226501
 30
0.0
 40
7.0
  0
CIRCLE
  5
20C
  8
0
 10
99.957381408895543
 20
481.16992012771459
 30
0.0
 40
7.0
  0
CIRCLE
  5
20D
  8
0
 10
99.957381408895543
 20
364.25649061681531
 30
0.0
 40
7.0
  0
LINE
  5
20E
  8
CENTER
  6
CENTER
 10
108.2716574063388
 20
466.76917167199218
 30
0.0
 11
93.707381408895543
 21
491.99523767502018
 31
0.0
  0
LINE
  5
210
  8
CENTER
  6
CENTER
 10
110.5709716023312
 20
382.63976808256069
 30
0.0
 11
94.436590743558753
 21
354.69420068649993
 31
0.0
  0
CIRCLE
  5
215
  8
0
 10
133.70738140889549
 20
422.71320537226501
 30
0.0
 40
46.999999999999993
  0
ARC
  5
217
  8
0
 10
133.70738140889549
 20
422.71320537226501
 30
0.0
 40
41.999999999999993
 50
135.58469140280701
 51
224.4153085971929
  0
LINE
  5
218
  8
0
 10
103.7073814088955
 20
386.53310034201382
 30
0.0
 11
103.7073814088955
 21
458.89331040251591
 31
0.0
  0
ARC
  5
21A
  8
0
 10
133.70738140889549
 20
422.71320537226501
 30
0.0
 40
41.999999999999993
 50
249.07516757236161
 51
110.92483242763829
  0
LINE
  5
23C
  8
0
 10
103.7073814088955
 20
452.71320537226501
 30
0.0
 11
118.7073814088955
 21
452.71320537226501
 31
0.0
  0
LINE
  5
23D
  8
0
 10
103.7073814088955
 20
392.71320537226489
 30
0.0
 11
118.7073814088955
 21
392.71320537226489
 31
0.0
  0
CIRCLE
  5
23F
  8
0
 10
110.7073814088955
 20
443.71320537226501
 30
0.0
 40
4.299999999999998
  0
CIRCLE
  5
240
  8
0
 10
110.7073814088955
 20
401.71320537226489
 30
0.0
 40
4.299999999999998
  0
CIRCLE
  5
242
  8
0
 10
110.7073814088955
 20
443.71320537226501
 30
0.0
 40
3.7499999999999991
  0
CIRCLE
  5
244
  8
0
 10
110.7073814088955
 20
401.71320537226489
 30
0.0
 40
3.7499999999999991
  0
LINE
  5
245
  8
CENTER
  6
CENTER
 10
109.7073814088955
 20
443.71320537226501
 30
0.0
 11
111.7073814088955
 21
443.71320537226501
 31
0.0
  0
LINE
  5
246
  8
CENTER
  6
CENTER
 10
110.7073814088955
 20
442.71320537226501
 30
0.0
 11
110.7073814088955
 21
444.71320537226489
 31
0.0
  0
LINE
  5
247
  8
CENTER
  6
CENTER
 10
108.7073814088955
 20
443.71320537226501
 30
0.0
 11
105.4073814088954
 21
443.71320537226501
 31
0.0
  0
LINE
  5
248
  8
CENTER
  6
CENTER
 10
112.7073814088955
 20
443.71320537226501
 30
0.0
 11
116.0073814088955
 21
443.71320537226501
 31
0.0
  0
LINE
  5
249
  8
CENTER
  6
CENTER
 10
110.7073814088955
 20
441.71320537226489
 30
0.0
 11
110.7073814088955
 21
438.41320537226488
 31
0.0
  0
LINE
  5
24A
  8
CENTER
  6
CENTER
 10
110.7073814088955
 20
445.71320537226489
 30
0.0
 11
110.7073814088955
 21
449.01320537226491
 31
0.0
  0
LINE
  5
24B
  8
CENTER
  6
CENTER
 10
109.7073814088955
 20
401.71320537226489
 30
0.0
 11
111.7073814088955
 21
401.71320537226489
 31
0.0
  0
LINE
  5
24C
  8
CENTER
  6
CENTER
 10
110.7073814088955
 20
400.71320537226478
 30
0.0
 11
110.7073814088955
 21
402.71320537226489
 31
0.0
  0
LINE
  5
24D
  8
CENTER
  6
CENTER
 10
108.7073814088955
 20
401.71320537226489
 30
0.0
 11
105.4073814088954
 21
401.71320537226489
 31
0.0
  0
LINE
  5
24E
  8
CENTER
  6
CENTER
 10
112.7073814088955
 20
401.71320537226489
 30
0.0
 11
116.0073814088955
 21
401.71320537226489
 31
0.0
  0
LINE
  5
24F
  8
CENTER
  6
CENTER
 10
110.7073814088955
 20
399.71320537226501
 30
0.0
 11
110.7073814088955
 21
396.413205372265
 31
0.0
  0
LINE
  5
250
  8
CENTER
  6
CENTER
 10
110.7073814088955
 20
403.71320537226501
 30
0.0
 11
110.7073814088955
 21
407.01320537226502
 31
0.0
  0
LINE
  5
251
  8
HIDDEN
  6
HIDDEN
 10
128.00005157660681
 20
469.36539059638341
 30
0.0
 11
128.40695485089341
 21
457.71320537226501
 31
0.0
  0
LINE
  5
252
  8
HIDDEN
  6
HIDDEN
 10
127.1434661912059
 20
469.25259747202239
 30
0.0
 11
127.476589103813
 21
459.71320537226478
 31
0.0
  0
LINE
  5
253
  8
HIDDEN
  6
HIDDEN
 10
139.93817371397779
 20
459.71320537226478
 30
0.0
 11
127.476589103813
 21
459.71320537226478
 31
0.0
  0
LINE
  5
254
  8
HIDDEN
  6
HIDDEN
 10
139.41471124118411
 20
469.36539059638341
 30
0.0
 11
139.0078079668975
 21
457.71320537226501
 31
0.0
  0
LINE
  5
255
  8
HIDDEN
  6
HIDDEN
 10
140.27129662658501
 20
469.25259747202261
 30
0.0
 11
139.93817371397799
 21
459.71320537226478
 31
0.0
  0
LINE
  5
257
  8
HIDDEN
  6
HIDDEN
 10
87.167989309137866
 20
429.27712058995451
 30
0.0
 11
96.707381408895571
 21
428.94399767734751
 31
0.0
  0
LINE
  5
258
  8
HIDDEN
  6
HIDDEN
 10
87.055196184776989
 20
428.42053520455357
 30
0.0
 11
98.707381408895543
 21
428.01363193026691
 31
0.0
  0
LINE
  5
259
  8
HIDDEN
  6
HIDDEN
 10
87.167989309137937
 20
416.14929015457551
 30
0.0
 11
96.707381408895571
 21
416.48241306718239
 31
0.0
  0
LINE
  5
25A
  8
HIDDEN
  6
HIDDEN
 10
87.055196184776989
 20
417.0058755399761
 30
0.0
 11
98.707381408895543
 21
417.41277881426282
 31
0.0
  0
LINE
  5
25B
  8
HIDDEN
  6
HIDDEN
 10
96.707381408895571
 20
428.94399767734723
 30
0.0
 11
96.707381408895571
 21
416.48241306718239
 31
0.0
  0
LINE
  5
348
  8
0
 10
177.7073814088954
 20
26.976493358004038
 30
0.0
 11
160.3719646608422
 21
26.976493358004038
 31
0.0
  0
LINE
  5
34B
  8
0
 10
160.3719646608422
 20
34.976493358004006
 30
0.0
 11
160.3719646608422
 21
24.97649335800401
 31
0.0
  0
LINE
  5
34C
  8
0
 10
107.04279815694881
 20
34.976493358004006
 30
0.0
 11
160.3719646608422
 21
34.976493358004006
 31
0.0
  0
LINE
  5
34E
  8
0
 10
107.04279815694881
 20
34.976493358003992
 30
0.0
 11
160.3719646608422
 21
24.97649335800401
 31
0.0
  0
LINE
  5
34F
  8
0
 10
160.3719646608422
 20
34.976493358004006
 30
0.0
 11
107.04279815694881
 21
24.97649335800401
 31
0.0
  0
LINE
  5
351
  8
CENTER
  6
CENTER
 10
83.992781552185434
 20
45.976493358003943
 30
0.0
 11
106.7307751637001
 21
45.976493358004042
 31
0.0
  0
LINE
  5
352
  8
HIDDEN
  6
HIDDEN
 10
96.207381408895543
 20
50.613508356307577
 30
0.0
 11
96.207381408895543
 21
41.339478359700308
 31
0.0
  0
LINE
  5
353
  8
HIDDEN
  6
HIDDEN
 10
98.207381408895515
 20
49.96231267208649
 30
0.0
 11
98.207381408895515
 21
41.990674043921409
 31
0.0
  0
LINE
  5
354
  8
HIDDEN
  6
HIDDEN
 10
89.707381408895543
 20
50.840493358003968
 30
0.0
 11
96.207381408895543
 21
50.613508356307619
 31
0.0
  0
LINE
  5
355
  8
HIDDEN
  6
HIDDEN
 10
89.707381408895543
 20
41.112493358003967
 30
0.0
 11
96.207381408895543
 21
41.339478359700308
 31
0.0
  0
LINE
  5
356
  8
HIDDEN
  6
HIDDEN
 10
89.707381408895543
 20
50.259139212766321
 30
0.0
 11
98.207381408895515
 21
49.96231267208649
 31
0.0
  0
LINE
  5
357
  8
HIDDEN
  6
HIDDEN
 10
89.707381408895543
 20
41.693847503241578
 30
0.0
 11
98.207381408895515
 21
41.990674043921409
 31
0.0
  0
LINE
  5
358
  8
HIDDEN
  6
HIDDEN
 10
98.207381408895515
 20
49.476493358003992
 30
0.0
 11
103.7073814088955
 21
49.476493358003992
 31
0.0
  0
LINE
  5
359
  8
HIDDEN
  6
HIDDEN
 10
98.207381408895515
 20
42.47649335800395
 30
0.0
 11
103.7073814088955
 21
42.476493358004006
 31
0.0
  0
LINE
  5
45C
  8
CENTER
  6
CENTER
 10
121.317006194903
 20
172.47649335800389
 30
0.0
 11
146.0977566228878
 21
172.47649335800381
 31
0.0
  0
CIRCLE
  5
45F
  8
HIDDEN
  6
HIDDEN
 10
133.70738140889549
 20
172.47649335800389
 30
0.0
 40
5.7194757919029842
  0
CIRCLE
  5
460
  8
HIDDEN
  6
HIDDEN
 10
133.70738140889549
 20
172.47649335800389
 30
0.0
 40
6.5799999999999166
  0
DIMENSION
  5
478
  8
DIM
  2
*D27
 10
213.70738140889549
 20
76.306109066622355
 30
0.0
 11
145.0201554106624
 21
81.306109066622355
 31
0.0
 70
   128
  1
%%C<>
 13
53.7073814088956
 23
128.47649335800389
 33
0.0
 14
213.70738140889549
 24
128.47649335800381
 34
0.0
1001
ACAD
1000
DSTYLE
1002
{
1070
    41
1040
3.0
1070
    42
1040
2.0
1070
    43
1040
8.0
1070
    44
1040
2.0
1070
    73
1070
     0
1070
    74
1070
     0
1070
    77
1070
     1
1070
   140
1040
3.0
1070
   141
1040
-1.0
1070
   147
1040
1.5
1002
}
  0
DIMENSION
  5
549
  8
DIM
  2
*D23
 10
72.227740875237231
 20
172.47649335800389
 30
0.0
 11
67.227740875237231
 21
180.4947629194771
 31
0.0
 70
   128
 13
91.707381408895571
 23
189.47649335800389
 33
0.0
 14
80.817543319486006
 24
172.47649335800389
 34
0.0
 50
90.0
1001
ACAD
1000
DSTYLE
1002
{
1070
    41
1040
3.0
1070
    42
1040
2.0
1070
    43
1040
8.0
1070
    44
1040
2.0
1070
    73
1070
     0
1070
    74
1070
     0
1070
    77
1070
     1
1070
   140
1040
3.0
1070
   141
1040
-1.0
1070
   147
1040
1.5
1002
}
  0
SOLID
  5
54A
  8
DIM
 10
181.6144595336267
 20
66.305063266969896
 30
0.0
 11
182.27975961222521
 21
67.051639321646732
 31
0.0
 12
179.70738140889549
 22
68.674251530103831
 32
0.0
 13
179.70738140889549
 23
68.674251530103831
 33
0.0
  0
LINE
  5
54B
  8
DIM
 10
181.94710957292591
 20
66.678351294308342
 30
0.0
 11
190.04200084284579
 21
59.464710079341501
 31
0.0
  0
LINE
  5
54C
  8
DIM
 10
190.04200084284579
 20
59.464710079341501
 30
0.0
 11
193.04200084284579
 21
59.464710079341501
 31
0.0
  0
LINE
  5
54D
  8
DIM
 10
193.04200084284579
 20
59.464710079341501
 30
0.0
 11
206.5605722714173
 21
59.464710079341501
 31
0.0
  0
TEXT
  5
54E
  8
DIM
 10
193.13200084284591
 20
60.964710079341486
 30
0.0
 40
3.0
  1
M92*2
  7
CHINESET
 11
193.13200084284591
 21
62.464710079341486
 31
0.0
 73
     2
  0
DIMENSION
  5
644
  8
DIM
  2
*D22
 10
173.51209513440699
 20
247.47649335800389
 30
0.0
 11
170.51209513440699
 21
259.97649335800389
 31
0.0
 70
     0
 13
151.7180219259628
 23
272.47649335800389
 33
0.0
 14
153.70738140889549
 24
247.47649335800389
 34
0.0
 50
90.0
1001
ACAD
1000
DSTYLE
1002
{
1070
    41
1040
3.0
1070
    42
1040
2.0
1070
    43
1040
8.0
1070
    44
1040
2.0
1070
    73
1070
     0
1070
    74
1070
     0
1070
    77
1070
     1
1070
   140
1040
3.0
1070
   141
1040
-1.0
1070
   147
1040
1.5
1002
}
  0
DIMENSION
  5
764
  8
DIM
  2
*D20
 10
199.5996735055262
 20
189.47649335800381
 30
0.0
 11
196.59967350552611
 21
230.97649335800381
 31
0.0
 70
     0
 13
155.05135525929609
 23
272.47649335800389
 33
0.0
 14
175.7073814088956
 24
189.47649335800381
 34
0.0
 50
90.0
1001
ACAD
1000
DSTYLE
1002
{
1070
    41
1040
3.0
1070
    42
1040
2.0
1070
    43
1040
8.0
1070
    44
1040
2.0
1070
    73
1070
     0
1070
    74
1070
     0
1070
    77
1070
     1
1070
   140
1040
3.0
1070
   141
1040
-1.0
1070
   147
1040
1.5
1002
}
  0
DIMENSION
  5
770
  8
DIM
  2
*D25
 10
199.5996735055262
 20
161.47649335800381
 30
0.0
 11
196.59967350552611
 21
175.47649335800381
 31
0.0
 70
     0
 13
175.7073814088956
 23
189.47649335800381
 33
0.0
 14
179.70738140889549
 24
161.47649335800389
 34
0.0
 50
90.0
1001
ACAD
1000
DSTYLE
1002
{
1070
    41
1040
3.0
1070
    42
1040
2.0
1070
    43
1040
8.0
1070
    44
1040
2.0
1070
    73
1070
     0
1070
    74
1070
     0
1070
    77
1070
     1
1070
   140
1040
3.0
1070
   141
1040
-1.0
1070
   147
1040
1.5
1002
}
  0
DIMENSION
  5
80B
  8
DIM
  2
*D26
 10
232.99177585342051
 20
143.47649335800381
 30
0.0
 11
227.99177585342039
 21
136.0766708433365
 31
0.0
 70
   128
 13
213.70738140889549
 23
128.47649335800381
 33
0.0
 14
213.70738140889549
 24
143.47649335800381
 34
0.0
 50
90.0
1001
ACAD
1000
DSTYLE
1002
{
1070
    41
1040
3.0
1070
    42
1040
2.0
1070
    43
1040
8.0
1070
    44
1040
2.0
1070
    73
1070
     0
1070
    74
1070
     0
1070
    77
1070
     1
1070
   140
1040
3.0
1070
   141
1040
-1.0
1070
   147
1040
1.5
1002
}
  0
DIMENSION
  5
B97
  8
DIM
  2
*D19
 10
247.6008193227168
 20
272.47649335800389
 30
0.0
 11
244.6008193227168
 21
200.47649335800389
 31
0.0
 70
     0
  1
MIN.137
 13
213.70738140889549
 23
128.47649335800381
 33
0.0
 14
155.05135525929609
 24
272.47649335800389
 34
0.0
 50
90.0
1001
ACAD
1000
DSTYLE
1002
{
1070
    41
1040
3.0
1070
    42
1040
2.0
1070
    43
1040
8.0
1070
    44
1040
2.0
1070
    73
1070
     0
1070
    74
1070
     0
1070
    77
1070
     1
1070
   140
1040
3.0
1070
   141
1040
-1.0
1070
   147
1040
1.5
1002
}
  0
DIMENSION
  5
D03
  8
DIM
  2
*D18
 10
266.3838767065634
 20
24.976493358004031
 30
0.0
 11
263.3838767065634
 21
154.97649335800389
 31
0.0
 70
     0
 13
133.70738140889549
 23
284.97649335800378
 33
0.0
 14
175.70738140889549
 24
24.976493358004049
 34
0.0
 50
90.0
1001
ACAD
1000
DSTYLE
1002
{
1070
    41
1040
3.0
1070
    42
1040
2.0
1070
    43
1040
8.0
1070
    44
1040
2.0
1070
    73
1070
     0
1070
    74
1070
     0
1070
    77
1070
     1
1070
   140
1040
3.0
1070
   141
1040
-1.0
1070
   147
1040
1.5
1002
}
  0
DIMENSION
  5
E86
  8
DIM
  2
*D21
 10
86.707381408895571
 20
211.70282704683271
 30
0.0
 11
145.12208250501121
 21
216.70282704683271
 31
0.0
 70
   128
  1
%%C<>
 13
180.70738140889549
 23
184.47649335800389
 33
0.0
 14
86.707381408895571
 24
184.47649335800389
 34
0.0
1001
ACAD
1000
DSTYLE
1002
{
1070
    41
1040
3.0
1070
    42
1040
2.0
1070
    43
1040
8.0
1070
    44
1040
2.0
1070
    73
1070
     0
1070
    74
1070
     0
1070
    77
1070
     1
1070
   140
1040
3.0
1070
   141
1040
-1.0
1070
   147
1040
1.5
1002
}
  0
LINE
  5
E89
  8
DIM
 10
148.70738140889549
 20
201.92680677629761
 30
0.0
 11
111.36157621027419
 21
201.92680677629761
 31
0.0
  0
SOLID
  5
E8A
  8
DIM
 10
148.70738140889549
 20
202.76014010963101
 30
0.0
 11
148.70738140889549
 21
201.0934734429643
 31
0.0
 12
153.70738140889549
 22
201.92680677629761
 32
0.0
 13
153.70738140889549
 23
201.92680677629761
 33
0.0
  0
TEXT
  5
E8C
  8
DIM
 10
139.7432642270804
 20
205.42680677629761
 30
0.0
 40
3.0
  1
%%C40
  7
CHINESET
 72
     1
 11
143.52897851279471
 21
206.9268067762977
 31
0.0
 73
     2
  0
DIMENSION
  5
124E
  8
DIM
  2
*D29
 10
75.083928191263595
 20
45.97649335800395
 30
0.0
 11
72.083928191263581
 21
35.476493358003943
 31
0.0
 70
     0
 13
91.707381408895571
 23
24.976493358003911
 33
0.0
 14
83.992781552185434
 24
45.976493358003943
 34
0.0
 50
90.0
1001
ACAD
1000
DSTYLE
1002
{
1070
    41
1040
3.0
1070
    42
1040
2.0
1070
    43
1040
8.0
1070
    44
1040
2.0
1070
    73
1070
     0
1070
    74
1070
     0
1070
    77
1070
     1
1070
   140
1040
3.0
1070
   141
1040
-1.0
1070
   147
1040
1.5
1002
}
  0
SOLID
  5
124F
  8
DIM
 10
92.794339130950704
 20
38.180666255245967
 30
0.0
 11
93.782907778455765
 21
38.331437702045243
 31
0.0
 12
92.836309114305379
 22
41.221757921160872
 32
0.0
 13
92.836309114305379
 23
41.221757921160872
 33
0.0
  0
LINE
  5
1250
  8
DIM
 10
93.288623454703256
 20
38.256051978645587
 30
0.0
 11
96.749956611073856
 21
15.561002553849709
 31
0.0
  0
LINE
  5
1252
  8
DIM
 10
96.749956611073856
 20
15.561002553849709
 30
0.0
 11
114.62140528424121
 21
15.561002553849709
 31
0.0
  0
TEXT
  5
1253
  8
DIM
 10
98.907119569955583
 20
17.061002553849718
 30
0.0
 40
3.0
  1
PT 1/8
  7
CHINESET
 11
98.907119569955583
 21
18.561002553849711
 31
0.0
 73
     2
  0
SOLID
  5
1D56
  8
DIM
 10
75.810571164429234
 20
379.03119308514442
 30
0.0
 11
76.867911749603735
 21
377.74285746710052
 31
0.0
 12
80.204248311148206
 22
381.559047031646
 32
0.0
 13
80.204248311148206
 23
381.559047031646
 33
0.0
  0
LINE
  5
1D57
  8
DIM
 10
76.33924145701647
 20
378.3870252761223
 30
0.0
 11
53.773229086002658
 21
359.8670368575377
 31
0.0
  0
LINE
  5
1D58
  8
DIM
 10
53.773229086002658
 20
359.8670368575377
 30
0.0
 11
48.773229086002658
 21
359.8670368575377
 31
0.0
  0
LINE
  5
1D59
  8
DIM
 10
48.773229086002658
 20
359.8670368575377
 30
0.0
 11
12.432752895526439
 21
359.8670368575377
 31
0.0
  0
TEXT
  5
1D5A
  8
DIM
 10
12.432752895526461
 20
362.3670368575377
 30
0.0
 40
5.0
  1
P.C.D 135
  7
CHINESET
 72
     2
 11
48.623229086002652
 21
364.8670368575377
 31
0.0
 73
     2
  0
LINE
  5
2044
  8
0
 10
118.7073814088955
 20
247.47649335800389
 30
0.0
 11
118.7073814088955
 21
189.97649335800381
 31
0.0
  0
LINE
  5
20C9
  8
0
 10
118.7073814088954
 20
378.17109046962491
 30
0.0
 11
118.7073814088955
 21
467.2553202749051
 31
0.0
  0
SOLID
  5
28BB
  8
DIM
 10
210.39570916728951
 20
430.5378443886766
 30
0.0
 11
209.11100175893361
 21
431.59959042831758
 31
0.0
 12
206.56811734418881
 22
427.21459518342942
 32
0.0
 13
206.56811734418881
 23
427.21459518342942
 33
0.0
  0
LINE
  5
28BC
  8
DIM
 10
209.75335546311149
 20
431.06871740849709
 30
0.0
 11
232.3896863608621
 21
458.45856480757152
 31
0.0
  0
LINE
  5
28BD
  8
DIM
 10
232.3896863608621
 20
458.45856480757152
 30
0.0
 11
237.3896863608621
 21
458.45856480757152
 31
0.0
  0
LINE
  5
28BE
  8
DIM
 10
237.3896863608621
 20
458.45856480757152
 30
0.0
 11
260.39682921800488
 21
458.45856480757152
 31
0.0
  0
TEXT
  5
28BF
  8
DIM
 10
237.53968636086199
 20
460.95856480757141
 30
0.0
 40
5.0
  1
3-%%C14
  7
CHINESET
 11
237.53968636086199
 21
463.45856480757152
 31
0.0
 73
     2
  0
LINE
  5
2FE4
  8
0
 10
53.7073814088956
 20
143.47649335800381
 30
0.0
 11
213.70738140889549
 21
143.47649335800381
 31
0.0
  0
LINE
  5
2FE5
  8
0
 10
188.70738140889549
 20
153.47649335800381
 30
0.0
 11
188.70738140889549
 21
143.47649335800381
 31
0.0
  0
LINE
  5
2FE6
  8
0
 10
78.707381408895543
 20
153.47649335800389
 30
0.0
 11
78.707381408895543
 21
143.47649335800381
 31
0.0
  0
LINE
  5
2FE7
  8
0
 10
78.707381408895543
 20
153.47649335800389
 30
0.0
 11
188.70738140889549
 21
153.47649335800381
 31
0.0
  0
DIMENSION
  5
3300
  8
DIM
  2
*D24
 10
232.99177585342051
 20
143.47649335800381
 30
0.0
 11
227.99177585342039
 21
148.21942693775799
 31
0.0
 70
   128
 13
188.70738140889549
 23
153.47649335800381
 33
0.0
 14
213.70738140889549
 24
143.47649335800381
 34
0.0
 50
90.0
1001
ACAD
1000
DSTYLE
1002
{
1070
    41
1040
3.0
1070
    42
1040
2.0
1070
    43
1040
8.0
1070
    44
1040
2.0
1070
    73
1070
     0
1070
    74
1070
     0
1070
    77
1070
     1
1070
   140
1040
3.0
1070
   141
1040
-1.0
1070
   147
1040
1.5
1002
}
  0
DIMENSION
  5
35BC
  8
DIM
  2
*D28
 10
188.70738140889549
 20
88.812980841003537
 30
0.0
 11
145.29290576938979
 21
93.812980841003537
 31
0.0
 70
   128
  1
%%C<>
 13
78.707381408895543
 23
143.47649335800381
 33
0.0
 14
188.70738140889549
 24
143.47649335800381
 34
0.0
1001
ACAD
1000
DSTYLE
1002
{
1070
    41
1040
3.0
1070
    42
1040
2.0
1070
    43
1040
8.0
1070
    44
1040
2.0
1070
    73
1070
     0
1070
    74
1070
     0
1070
    77
1070
     1
1070
   140
1040
3.0
1070
   141
1040
-1.0
1070
   147
1040
1.5
1002
}
  0
LINE
  5
362B
  8
CENTER
  6
CENTER
 10
189.87974504412011
 20
148.47649335800381
 30
0.0
 11
179.37674316662259
 21
148.47649335800381
 31
0.0
  0
LINE
  5
362E
  8
HIDDEN
  6
HIDDEN
 10
188.70738140889549
 20
150.97649335800381
 30
0.0
 11
183.70738140889549
 21
150.97649335800381
 31
0.0
  0
LINE
  5
362F
  8
HIDDEN
  6
HIDDEN
 10
188.70738140889549
 20
145.97649335800381
 30
0.0
 11
183.70738140889549
 21
145.97649335800381
 31
0.0
  0
LINE
  5
3630
  8
HIDDEN
  6
HIDDEN
 10
183.70738140889549
 20
150.97649335800381
 30
0.0
 11
183.70738140889549
 21
145.97649335800381
 31
0.0
  0
LINE
  5
3631
  8
HIDDEN
  6
HIDDEN
 10
183.70738140889549
 20
145.97649335800381
 30
0.0
 11
182.20522986132659
 21
148.47649335800389
 31
0.0
  0
LINE
  5
3632
  8
HIDDEN
  6
HIDDEN
 10
183.70738140889549
 20
150.97649335800381
 30
0.0
 11
182.20522986132659
 21
148.47649335800389
 31
0.0
  0
LINE
  5
3633
  8
CENTER
  6
CENTER
 10
77.535017773670859
 20
148.47649335800381
 30
0.0
 11
88.038019651168355
 21
148.47649335800381
 31
0.0
  0
LINE
  5
3634
  8
HIDDEN
  6
HIDDEN
 10
78.707381408895486
 20
150.97649335800381
 30
0.0
 11
83.707381408895486
 21
150.97649335800381
 31
0.0
  0
LINE
  5
3635
  8
HIDDEN
  6
HIDDEN
 10
78.707381408895486
 20
145.97649335800381
 30
0.0
 11
83.707381408895486
 21
145.97649335800381
 31
0.0
  0
LINE
  5
3636
  8
HIDDEN
  6
HIDDEN
 10
83.707381408895486
 20
145.97649335800381
 30
0.0
 11
85.209532956464386
 21
148.47649335800389
 31
0.0
  0
LINE
  5
3637
  8
HIDDEN
  6
HIDDEN
 10
83.707381408895486
 20
150.97649335800381
 30
0.0
 11
85.209532956464344
 21
148.47649335800389
 31
0.0
  0
LINE
  5
3638
  8
HIDDEN
  6
HIDDEN
 10
83.707381408895458
 20
150.97649335800381
 30
0.0
 11
83.707381408895486
 21
145.97649335800381
 31
0.0
  0
LINE
  5
3639
  8
CENTER
  6
CENTER
 10
132.0407147422288
 20
148.47649335800381
 30
0.0
 11
135.37404807556209
 21
148.47649335800381
 31
0.0
  0
CIRCLE
  5
363B
  8
0
 10
133.70738140889549
 20
422.71320537226501
 30
0.0
 40
55.0
  0
LINE
  5
363C
  8
HIDDEN
  6
HIDDEN
 10
188.70738140889549
 20
420.21320537226501
 30
0.0
 11
183.7073814088954
 21
420.21320537226501
 31
0.0
  0
LINE
  5
363D
  8
HIDDEN
  6
HIDDEN
 10
188.70738140889549
 20
425.21320537226489
 30
0.0
 11
183.7073814088954
 21
425.21320537226489
 31
0.0
  0
LINE
  5
363E
  8
HIDDEN
  6
HIDDEN
 10
183.7073814088954
 20
425.21320537226489
 30
0.0
 11
183.7073814088954
 21
420.21320537226501
 31
0.0
  0
LINE
  5
363F
  8
HIDDEN
  6
HIDDEN
 10
183.7073814088954
 20
425.21320537226489
 30
0.0
 11
182.20522986132659
 21
422.71320537226501
 31
0.0
  0
LINE
  5
3640
  8
HIDDEN
  6
HIDDEN
 10
183.7073814088954
 20
420.21320537226501
 30
0.0
 11
182.2052298613265
 21
422.71320537226501
 31
0.0
  0
LINE
  5
3646
  8
HIDDEN
  6
HIDDEN
 10
131.20738140889549
 20
472.71320537226501
 30
0.0
 11
133.7073814088954
 21
471.21105382469602
 31
0.0
  0
LINE
  5
3647
  8
HIDDEN
  6
HIDDEN
 10
131.20738140889549
 20
472.71320537226501
 30
0.0
 11
136.2073814088954
 21
472.71320537226501
 31
0.0
  0
LINE
  5
3648
  8
HIDDEN
  6
HIDDEN
 10
136.20738140889549
 20
477.71320537226501
 30
0.0
 11
136.2073814088954
 21
472.71320537226501
 31
0.0
  0
LINE
  5
3649
  8
HIDDEN
  6
HIDDEN
 10
136.2073814088954
 20
472.71320537226501
 30
0.0
 11
133.7073814088954
 21
471.21105382469602
 31
0.0
  0
LINE
  5
364A
  8
HIDDEN
  6
HIDDEN
 10
131.20738140889549
 20
477.71320537226501
 30
0.0
 11
131.20738140889549
 21
472.71320537226501
 31
0.0
  0
LINE
  5
364B
  8
HIDDEN
  6
HIDDEN
 10
131.20738140889549
 20
367.71320537226478
 30
0.0
 11
131.20738140889549
 21
372.71320537226489
 31
0.0
  0
LINE
  5
364C
  8
HIDDEN
  6
HIDDEN
 10
136.20738140889549
 20
367.71320537226478
 30
0.0
 11
136.2073814088954
 21
372.71320537226489
 31
0.0
  0
LINE
  5
364D
  8
HIDDEN
  6
HIDDEN
 10
131.20738140889549
 20
372.71320537226489
 30
0.0
 11
136.2073814088954
 21
372.71320537226489
 31
0.0
  0
LINE
  5
364E
  8
HIDDEN
  6
HIDDEN
 10
136.2073814088954
 20
372.71320537226489
 30
0.0
 11
133.7073814088954
 21
374.21535691983382
 31
0.0
  0
LINE
  5
364F
  8
HIDDEN
  6
HIDDEN
 10
131.20738140889549
 20
372.71320537226489
 30
0.0
 11
133.7073814088954
 21
374.2153569198336
 31
0.0
  0
LINE
  5
3650
  8
HIDDEN
  6
HIDDEN
 10
83.7073814088956
 20
425.21320537226489
 30
0.0
 11
85.209532956464415
 21
422.71320537226501
 31
0.0
  0
LINE
  5
3651
  8
HIDDEN
  6
HIDDEN
 10
83.7073814088956
 20
425.21320537226489
 30
0.0
 11
83.7073814088956
 21
420.21320537226501
 31
0.0
  0
LINE
  5
3652
  8
HIDDEN
  6
HIDDEN
 10
78.7073814088956
 20
420.21320537226501
 30
0.0
 11
83.7073814088956
 21
420.21320537226501
 31
0.0
  0
LINE
  5
3653
  8
HIDDEN
  6
HIDDEN
 10
83.7073814088956
 20
420.21320537226501
 30
0.0
 11
85.209532956464528
 21
422.71320537226501
 31
0.0
  0
LINE
  5
3654
  8
HIDDEN
  6
HIDDEN
 10
78.7073814088956
 20
425.21320537226489
 30
0.0
 11
83.7073814088956
 21
425.21320537226489
 31
0.0
  0
LINE
  5
3665
  8
0
 10
93.707381408895543
 20
189.97649335800381
 30
0.0
 11
173.70738140889549
 21
189.97649335800381
 31
0.0
  0
LINE
  5
3667
  8
0
 10
173.70738140889549
 20
189.97649335800381
 30
0.0
 11
173.70738140889549
 21
189.47649335800381
 31
0.0
  0
LINE
  5
3668
  8
0
 10
93.707381408895543
 20
189.97649335800389
 30
0.0
 11
93.707381408895571
 21
189.47649335800389
 31
0.0
  0
ARC
  5
36D5
  8
0
 10
133.70738140889549
 20
272.47649335800378
 30
0.0
 40
12.5
 50
319.46419788868349
 51
220.53580211131651
  0
LINE
  5
36D6
  8
0
 10
124.2073814088954
 20
278.47649335800372
 30
0.0
 11
124.2073814088954
 21
247.47649335800381
 31
0.0
  0
LINE
  5
36D7
  8
0
 10
143.20738140889549
 20
278.47649335800372
 30
0.0
 11
143.20738140889549
 21
247.47649335800381
 31
0.0
  0
LINE
  5
36D8
  8
0
 10
126.2073814088955
 20
280.47649335800372
 30
0.0
 11
141.20738140889549
 21
280.47649335800372
 31
0.0
  0
LINE
  5
36D9
  8
0
 10
124.2073814088954
 20
278.47649335800372
 30
0.0
 11
143.20738140889549
 21
278.47649335800372
 31
0.0
  0
LINE
  5
36DA
  8
0
 10
126.2073814088955
 20
280.47649335800372
 30
0.0
 11
124.2073814088954
 21
278.47649335800372
 31
0.0
  0
LINE
  5
36DB
  8
0
 10
141.20738140889549
 20
280.47649335800372
 30
0.0
 11
143.20738140889549
 21
278.47649335800372
 31
0.0
  0
CIRCLE
  5
3874
  8
0
 10
133.70738140889549
 20
272.47649335800378
 30
0.0
 40
3.9999999999999991
  0
LINE
  5
3875
  8
HIDDEN
  6
HIDDEN
 10
124.2073814088954
 20
255.47649335800369
 30
0.0
 11
143.20738140889549
 21
255.47649335800369
 31
0.0
  0
ARC
  5
3876
  8
0
 10
133.70738140889549
 20
272.47649335800378
 30
0.0
 40
11.999999999999989
 50
322.3415379937922
 51
217.6584620062078
  0
ARC
  5
3877
  8
HIDDEN
  6
HIDDEN
 10
133.70738140889549
 20
272.47649335800378
 30
0.0
 40
11.999999999999989
 50
217.6584620062078
 51
322.3415379937922
  0
ARC
  5
3878
  8
HIDDEN
  6
HIDDEN
 10
133.70738140889549
 20
272.47649335800378
 30
0.0
 40
12.5
 50
220.53580211131651
 51
319.46419788868349
  0
DIMENSION
  5
47EB
  8
DIM
  2
*D17
 10
143.20738140889549
 20
299.31100679940909
 30
0.0
 11
133.70738140889549
 21
302.31100679940909
 31
0.0
 70
     0
 13
124.2073814088954
 23
278.47649335800372
 33
0.0
 14
143.20738140889549
 24
278.47649335800372
 34
0.0
1001
ACAD
1000
DSTYLE
1002
{
1070
    41
1040
3.0
1070
    42
1040
2.0
1070
    43
1040
8.0
1070
    44
1040
2.0
1070
    73
1070
     0
1070
    74
1070
     0
1070
    77
1070
     1
1070
   140
1040
3.0
1070
   141
1040
-1.0
1070
   147
1040
1.5
1002
}
  0
LINE
  5
55B0
  8
0
 10
143.20738140889549
 20
247.47649335800389
 30
0.0
 11
153.70738140889549
 21
247.47649335800389
 31
0.0
  0
DIMENSION
  5
5900
  8
DIM
  2
*D32
 10
309.12856670728638
 20
284.97649335800378
 30
0.0
 11
306.12856670728632
 21
272.47649335800389
 31
0.0
 70
     0
  1
%%C<>
 13
336.03400646964519
 23
259.97649335800378
 33
0.0
 14
336.03400646964519
 24
284.97649335800378
 34
0.0
 50
90.0
1001
ACAD
1000
DSTYLE
1002
{
1070
    41
1040
3.0
1070
    42
1040
2.0
1070
    43
1040
8.0
1070
    44
1040
2.0
1070
    73
1070
     0
1070
    74
1070
     0
1070
    77
1070
     1
1070
   140
1040
3.0
1070
   141
1040
-1.0
1070
   147
1040
1.5
1002
}
  0
DIMENSION
  5
5902
  8
DIM
  2
*D30
 10
364.53400646964502
 20
303.4503188965644
 30
0.0
 11
342.03400646964502
 21
306.4503188965644
 31
0.0
 70
     0
 13
319.53400646964502
 23
276.47649335800378
 33
0.0
 14
364.53400646964502
 24
276.47649335800378
 34
0.0
1001
ACAD
1000
DSTYLE
1002
{
1070
    41
1040
3.0
1070
    42
1040
2.0
1070
    43
1040
8.0
1070
    44
1040
2.0
1070
    73
1070
     0
1070
    74
1070
     0
1070
    77
1070
     1
1070
   140
1040
3.0
1070
   141
1040
-1.0
1070
   147
1040
1.5
1002
}
  0
LINE
  5
5904
  8
0
 10
349.03400646964508
 20
278.47649335800389
 30
0.0
 11
360.57450268738421
 21
278.47649335800389
 31
0.0
  0
LINE
  5
5905
  8
0
 10
349.03400646964508
 20
280.47649335800372
 30
0.0
 11
361.03400646964508
 21
280.47649335800372
 31
0.0
  0
LINE
  5
5906
  8
HIDDEN
  6
DASHED
 10
322.43808852737959
 20
276.47649335800378
 30
0.0
 11
361.62992441191051
 21
276.47649335800378
 31
0.0
  0
LINE
  5
5907
  8
0
 10
349.03400646964508
 20
257.12443855182278
 30
0.0
 11
360.57450268738421
 21
247.47649335800381
 31
0.0
  0
LINE
  5
5908
  8
0
 10
323.49351025190589
 20
247.47649335800381
 30
0.0
 11
360.57450268738421
 21
247.47649335800381
 31
0.0
  0
LINE
  5
5909
  8
CENTER
  6
CENTER
 10
315.53428159145727
 20
272.47649335800378
 30
0.0
 11
368.53373134783271
 21
272.47649335800378
 31
0.0
  0
LINE
  5
590A
  8
HIDDEN
  6
DASHED
 10
322.43808852737959
 20
268.47649335800372
 30
0.0
 11
361.62992441191051
 21
268.47649335800372
 31
0.0
  0
LINE
  5
590B
  8
0
 10
360.57450268738421
 20
278.47649335800389
 30
0.0
 11
349.03400646964508
 21
268.82854816418489
 31
0.0
  0
LINE
  5
590C
  8
0
 10
323.49351025190589
 20
278.47649335800389
 30
0.0
 11
335.03400646964508
 21
268.82854816418461
 31
0.0
  0
LINE
  5
590D
  8
0
 10
323.49351025190589
 20
280.47649335800372
 30
0.0
 11
323.49351025190589
 21
247.47649335800381
 31
0.0
  0
LINE
  5
590E
  8
0
 10
322.03400646964508
 20
279.47649335800378
 30
0.0
 11
322.03400646964508
 21
222.78172739656881
 31
0.0
  0
LINE
  5
590F
  8
0
 10
348.03400646964502
 20
284.97649335800378
 30
0.0
 11
348.03400646964502
 21
259.97649335800378
 31
0.0
  0
LINE
  5
5910
  8
0
 10
336.03400646964519
 20
284.97649335800378
 30
0.0
 11
336.03400646964508
 21
259.97649335800378
 31
0.0
  0
LINE
  5
5911
  8
0
 10
348.53400646964502
 20
284.47649335800378
 30
0.0
 11
348.53400646964519
 21
260.47649335800378
 31
0.0
  0
LINE
  5
5912
  8
0
 10
335.53400646964519
 20
284.47649335800389
 30
0.0
 11
335.53400646964502
 21
260.47649335800378
 31
0.0
  0
LINE
  5
5913
  8
0
 10
335.03400646964508
 20
280.47649335800372
 30
0.0
 11
335.03400646964508
 21
255.47649335800369
 31
0.0
  0
LINE
  5
5914
  8
0
 10
349.03400646964508
 20
280.47649335800372
 30
0.0
 11
349.03400646964508
 21
255.47649335800369
 31
0.0
  0
LINE
  5
5915
  8
CENTER
  6
CENTER
 10
342.03400646964502
 20
289.10078602123599
 30
0.0
 11
342.03400646964502
 21
222.78172739656881
 31
0.0
  0
LINE
  5
5916
  8
0
 10
335.03400646964508
 20
257.12443855182289
 30
0.0
 11
323.49351025190589
 21
247.47649335800381
 31
0.0
  0
LINE
  5
5917
  8
0
 10
319.53400646964502
 20
276.47649335800378
 30
0.0
 11
321.1340064696451
 21
276.47649335800378
 31
0.0
  0
LINE
  5
5918
  8
0
 10
319.53400646964502
 20
268.47649335800372
 30
0.0
 11
321.1340064696451
 21
268.47649335800372
 31
0.0
  0
LINE
  5
5919
  8
0
 10
319.53400646964502
 20
276.47649335800378
 30
0.0
 11
319.53400646964502
 21
268.47649335800372
 31
0.0
  0
LINE
  5
591A
  8
0
 10
322.03400646964508
 20
276.47649335800378
 30
0.0
 11
322.43808852737959
 21
276.47649335800378
 31
0.0
  0
LINE
  5
591B
  8
0
 10
321.1340064696451
 20
276.27649335800368
 30
0.0
 11
322.03400646964508
 21
276.27649335800368
 31
0.0
  0
LINE
  5
591C
  8
0
 10
322.03400646964508
 20
268.47649335800372
 30
0.0
 11
322.43808852737959
 21
268.47649335800372
 31
0.0
  0
LINE
  5
591D
  8
0
 10
321.1340064696451
 20
268.67649335800382
 30
0.0
 11
322.03400646964508
 21
268.67649335800382
 31
0.0
  0
LINE
  5
591E
  8
0
 10
321.1340064696451
 20
276.47649335800378
 30
0.0
 11
321.1340064696451
 21
268.47649335800372
 31
0.0
  0
LINE
  5
591F
  8
0
 10
322.03400646964508
 20
276.47649335800378
 30
0.0
 11
322.03400646964508
 21
268.47649335800372
 31
0.0
  0
LINE
  5
5920
  8
0
 10
336.03400646964508
 20
259.97649335800378
 30
0.0
 11
348.03400646964502
 21
259.97649335800378
 31
0.0
  0
LINE
  5
5921
  8
0
 10
335.03400646964508
 20
255.47649335800369
 30
0.0
 11
349.03400646964508
 21
255.47649335800369
 31
0.0
  0
LINE
  5
5922
  8
0
 10
335.03400646964502
 20
265.47649335800372
 30
0.0
 11
335.53400646964502
 21
264.97649335800378
 31
0.0
  0
LINE
  5
5923
  8
0
 10
336.03400646964519
 20
259.97649335800378
 30
0.0
 11
335.53400646964519
 21
260.47649335800378
 31
0.0
  0
LINE
  5
5924
  8
0
 10
349.03400646964508
 20
265.47649335800372
 30
0.0
 11
348.53400646964508
 21
264.97649335800378
 31
0.0
  0
LINE
  5
5925
  8
0
 10
348.53400646964508
 20
260.47649335800378
 30
0.0
 11
348.03400646964502
 21
259.97649335800378
 31
0.0
  0
LINE
  5
5926
  8
0
 10
323.49351025190589
 20
278.47649335800389
 30
0.0
 11
335.03400646964508
 21
278.47649335800389
 31
0.0
  0
LINE
  5
5927
  8
0
 10
323.03400646964508
 20
280.47649335800372
 30
0.0
 11
335.03400646964508
 21
280.47649335800372
 31
0.0
  0
LINE
  5
5928
  8
0
 10
323.03400646964508
 20
280.47649335800372
 30
0.0
 11
322.03400646964508
 21
279.47649335800378
 31
0.0
  0
LINE
  5
592A
  8
0
 10
336.03400646964508
 20
284.97649335800378
 30
0.0
 11
348.03400646964502
 21
284.97649335800378
 31
0.0
  0
DIMENSION
  5
592B
  8
DIM
  2
*D31
 10
349.03400646964508
 20
293.80017445077499
 30
0.0
 11
342.03400646964519
 21
296.8001744507751
 31
0.0
 70
     0
 13
335.03400646964508
 23
280.47649335800372
 33
0.0
 14
349.03400646964508
 24
280.47649335800372
 34
0.0
1001
ACAD
1000
DSTYLE
1002
{
1070
   140
1040
3.0
1070
    74
1070
     0
1070
    73
1070
     0
1070
    77
1070
     1
1070
   147
1040
1.5
1070
   287
1070
     3
1070
    42
1040
2.0
1070
    44
1040
2.0
1070
    43
1040
8.0
1070
   141
1040
-1.0
1070
    41
1040
3.0
1002
}
  0
LINE
  5
592C
  8
0
 10
336.03400646964519
 20
284.97649335800378
 30
0.0
 11
335.53400646964519
 21
284.47649335800378
 31
0.0
  0
LINE
  5
592D
  8
0
 10
335.53400646964519
 20
279.97649335800378
 30
0.0
 11
335.03400646964508
 21
279.47649335800378
 31
0.0
  0
LINE
  5
5932
  8
0
 10
348.53400646964508
 20
284.47649335800378
 30
0.0
 11
348.03400646964502
 21
284.97649335800378
 31
0.0
  0
LINE
  5
5933
  8
0
 10
349.03400646964508
 20
279.47649335800378
 30
0.0
 11
348.53400646964508
 21
279.97649335800378
 31
0.0
  0
DIMENSION
  5
5939
  8
DIM
  2
*D33
 10
377.66163645801771
 20
276.47649335800378
 30
0.0
 11
373.8569962377851
 21
272.58021441209161
 31
0.0
 70
   128
  1
%%C<>
 13
364.53400646964502
 23
268.47649335800372
 33
0.0
 14
364.53400646964502
 24
276.47649335800378
 34
0.0
 50
90.0
1001
ACAD
1000
DSTYLE
1002
{
1070
    41
1040
3.0
1070
    42
1040
2.0
1070
    43
1040
8.0
1070
    44
1040
2.0
1070
    73
1070
     0
1070
    74
1070
     0
1070
    77
1070
     1
1070
   140
1040
3.0
1070
   141
1040
-1.0
1070
   147
1040
1.5
1002
}
  0
LINE
  5
593B
  8
0
 10
360.57450268738421
 20
280.47649335800372
 30
0.0
 11
360.57450268738421
 21
247.47649335800381
 31
0.0
  0
LINE
  5
593C
  8
0
 10
362.03400646964502
 20
279.47649335800378
 30
0.0
 11
362.03400646964502
 21
222.78172739656881
 31
0.0
  0
LINE
  5
593D
  8
0
 10
361.62992441191051
 20
276.47649335800378
 30
0.0
 11
362.03400646964502
 21
276.47649335800378
 31
0.0
  0
LINE
  5
593E
  8
0
 10
362.93400646964488
 20
276.47649335800378
 30
0.0
 11
364.53400646964491
 21
276.47649335800378
 31
0.0
  0
LINE
  5
593F
  8
0
 10
362.03400646964502
 20
276.27649335800368
 30
0.0
 11
362.93400646964488
 21
276.27649335800368
 31
0.0
  0
LINE
  5
5940
  8
0
 10
362.03400646964502
 20
268.67649335800382
 30
0.0
 11
362.93400646964488
 21
268.67649335800382
 31
0.0
  0
LINE
  5
5941
  8
0
 10
361.62992441191051
 20
268.47649335800372
 30
0.0
 11
362.03400646964502
 21
268.47649335800372
 31
0.0
  0
LINE
  5
5942
  8
0
 10
362.93400646964488
 20
268.47649335800372
 30
0.0
 11
364.53400646964491
 21
268.47649335800372
 31
0.0
  0
LINE
  5
5947
  8
0
 10
364.53400646964502
 20
276.47649335800378
 30
0.0
 11
364.53400646964502
 21
268.47649335800372
 31
0.0
  0
LINE
  5
5948
  8
0
 10
362.93400646964488
 20
276.47649335800378
 30
0.0
 11
362.93400646964488
 21
268.47649335800372
 31
0.0
  0
LINE
  5
5949
  8
0
 10
362.03400646964502
 20
276.47649335800378
 30
0.0
 11
362.03400646964502
 21
268.47649335800372
 31
0.0
  0
LINE
  5
594B
  8
0
 10
361.03400646964508
 20
280.47649335800372
 30
0.0
 11
362.03400646964502
 21
279.47649335800378
 31
0.0
  0
LINE
  5
594F
  8
0
 10
121.2073814088955
 20
416.71320537226512
 30
0.0
 11
146.20738140889549
 21
416.71320537226512
 31
0.0
  0
LINE
  5
5950
  8
0
 10
121.7073814088954
 20
416.21320537226512
 30
0.0
 11
145.70738140889549
 21
416.21320537226501
 31
0.0
  0
LINE
  5
5951
  8
0
 10
121.2073814088955
 20
428.71320537226501
 30
0.0
 11
146.20738140889549
 21
428.71320537226501
 31
0.0
  0
LINE
  5
5952
  8
0
 10
121.7073814088955
 20
429.21320537226489
 30
0.0
 11
145.70738140889549
 21
429.21320537226512
 31
0.0
  0
ARC
  5
5953
  8
0
 10
133.70738140889549
 20
422.71320537226501
 30
0.0
 40
20.0
 50
221.4096221092708
 51
138.59037789072909
  0
LINE
  5
5954
  8
HIDDEN
  6
HIDDEN
 10
137.7073814088954
 20
403.11728742999952
 30
0.0
 11
137.7073814088954
 21
442.30912331453038
 31
0.0
  0
LINE
  5
5955
  8
0
 10
121.2073814088955
 20
416.71320537226512
 30
0.0
 11
121.7073814088955
 21
416.21320537226512
 31
0.0
  0
LINE
  5
5956
  8
HIDDEN
  6
HIDDEN
 10
129.70738140889549
 20
403.11728742999952
 30
0.0
 11
129.7073814088954
 21
442.30912331453038
 31
0.0
  0
LINE
  5
5957
  8
0
 10
129.70738140889549
 20
402.71320537226489
 30
0.0
 11
137.7073814088954
 21
402.71320537226489
 31
0.0
  0
LINE
  5
5958
  8
0
 10
129.70738140889549
 20
401.81320537226497
 30
0.0
 11
137.7073814088954
 21
401.81320537226497
 31
0.0
  0
LINE
  5
5959
  8
0
 10
129.70738140889549
 20
400.21320537226489
 30
0.0
 11
137.7073814088954
 21
400.21320537226489
 31
0.0
  0
LINE
  5
595A
  8
0
 10
126.2073814088955
 20
415.71320537226512
 30
0.0
 11
141.20738140889549
 21
415.71320537226512
 31
0.0
  0
LINE
  5
595B
  8
0
 10
124.2073814088955
 20
405.11348946546678
 30
0.0
 11
124.2073814088955
 21
416.21320537226501
 31
0.0
  0
LINE
  5
595C
  8
0
 10
126.2073814088955
 20
416.21320537226512
 30
0.0
 11
126.7073814088955
 21
415.71320537226512
 31
0.0
  0
LINE
  5
595D
  8
0
 10
129.70738140889549
 20
402.71320537226489
 30
0.0
 11
129.70738140889549
 21
403.11728742999952
 31
0.0
  0
LINE
  5
595E
  8
0
 10
129.70738140889549
 20
400.21320537226489
 30
0.0
 11
129.70738140889549
 21
401.81320537226497
 31
0.0
  0
LINE
  5
595F
  8
0
 10
129.90738140889539
 20
401.81320537226497
 30
0.0
 11
129.9073814088955
 21
402.71320537226489
 31
0.0
  0
LINE
  5
5960
  8
0
 10
126.2073814088955
 20
404.17270915452548
 30
0.0
 11
126.2073814088955
 21
415.71320537226512
 31
0.0
  0
LINE
  5
5961
  8
0
 10
140.70738140889549
 20
415.71320537226512
 30
0.0
 11
141.20738140889549
 21
416.21320537226501
 31
0.0
  0
LINE
  5
5962
  8
0
 10
137.7073814088954
 20
402.71320537226489
 30
0.0
 11
137.7073814088954
 21
403.11728742999952
 31
0.0
  0
LINE
  5
5963
  8
0
 10
137.7073814088954
 20
400.21320537226489
 30
0.0
 11
137.7073814088954
 21
401.81320537226497
 31
0.0
  0
LINE
  5
5964
  8
0
 10
137.50738140889541
 20
401.81320537226497
 30
0.0
 11
137.50738140889541
 21
402.71320537226489
 31
0.0
  0
LINE
  5
5965
  8
0
 10
141.20738140889549
 20
404.17270915452548
 30
0.0
 11
141.20738140889549
 21
415.71320537226512
 31
0.0
  0
LINE
  5
5966
  8
0
 10
143.20738140889549
 20
405.11348946546678
 30
0.0
 11
143.20738140889549
 21
416.21320537226501
 31
0.0
  0
LINE
  5
5967
  8
0
 10
129.70738140889549
 20
442.71320537226501
 30
0.0
 11
137.7073814088954
 21
442.71320537226501
 31
0.0
  0
LINE
  5
5968
  8
0
 10
129.70738140889549
 20
443.61320537226487
 30
0.0
 11
137.7073814088954
 21
443.61320537226487
 31
0.0
  0
LINE
  5
5969
  8
0
 10
129.70738140889549
 20
445.21320537226501
 30
0.0
 11
137.7073814088954
 21
445.21320537226501
 31
0.0
  0
LINE
  5
596A
  8
0
 10
126.2073814088955
 20
429.71320537226501
 30
0.0
 11
141.20738140889549
 21
429.71320537226501
 31
0.0
  0
LINE
  5
596B
  8
0
 10
126.2073814088955
 20
429.71320537226501
 30
0.0
 11
126.2073814088955
 21
441.25370159000443
 31
0.0
  0
LINE
  5
596C
  8
0
 10
124.2073814088955
 20
429.21320537226489
 30
0.0
 11
124.2073814088955
 21
440.31292127906312
 31
0.0
  0
LINE
  5
596D
  8
0
 10
121.7073814088955
 20
429.21320537226512
 30
0.0
 11
121.2073814088955
 21
428.71320537226501
 31
0.0
  0
LINE
  5
596E
  8
0
 10
121.2073814088955
 20
416.71320537226512
 30
0.0
 11
121.2073814088955
 21
428.71320537226501
 31
0.0
  0
LINE
  5
596F
  8
0
 10
126.7073814088955
 20
429.71320537226501
 30
0.0
 11
126.2073814088955
 21
429.21320537226512
 31
0.0
  0
LINE
  5
5970
  8
0
 10
129.7073814088954
 20
442.30912331453038
 30
0.0
 11
129.7073814088954
 21
442.71320537226501
 31
0.0
  0
LINE
  5
5971
  8
0
 10
129.7073814088954
 20
443.61320537226487
 30
0.0
 11
129.7073814088954
 21
445.21320537226501
 31
0.0
  0
LINE
  5
5972
  8
0
 10
129.9073814088955
 20
442.71320537226501
 30
0.0
 11
129.9073814088955
 21
443.61320537226487
 31
0.0
  0
LINE
  5
5973
  8
0
 10
143.20738140889549
 20
429.21320537226512
 30
0.0
 11
143.20738140889549
 21
440.31292127906312
 31
0.0
  0
LINE
  5
5974
  8
0
 10
141.20738140889549
 20
429.71320537226501
 30
0.0
 11
141.20738140889549
 21
441.25370159000443
 31
0.0
  0
LINE
  5
5975
  8
0
 10
140.70738140889549
 20
429.71320537226501
 30
0.0
 11
141.20738140889549
 21
429.21320537226512
 31
0.0
  0
LINE
  5
5976
  8
0
 10
137.7073814088954
 20
442.30912331453038
 30
0.0
 11
137.7073814088954
 21
442.71320537226501
 31
0.0
  0
LINE
  5
5977
  8
0
 10
137.7073814088954
 20
443.61320537226487
 30
0.0
 11
137.7073814088954
 21
445.21320537226501
 31
0.0
  0
LINE
  5
5978
  8
0
 10
137.50738140889541
 20
442.71320537226501
 30
0.0
 11
137.50738140889541
 21
443.61320537226487
 31
0.0
  0
LINE
  5
5979
  8
0
 10
146.20738140889549
 20
416.71320537226512
 30
0.0
 11
145.7073814088956
 21
416.21320537226512
 31
0.0
  0
LINE
  5
597A
  8
0
 10
145.70738140889549
 20
429.21320537226512
 30
0.0
 11
146.20738140889549
 21
428.71320537226501
 31
0.0
  0
LINE
  5
597B
  8
0
 10
146.20738140889549
 20
416.71320537226512
 30
0.0
 11
146.20738140889549
 21
428.71320537226501
 31
0.0
  0
CIRCLE
  5
597D
  8
0
 10
133.70738140889549
 20
459.21320537226489
 30
0.0
 40
4.5
  0
CIRCLE
  5
597E
  8
0
 10
133.70738140889549
 20
459.21320537226489
 30
0.0
 40
3.6666666666666661
  0
POLYLINE
  5
597F
  8
0
 66
     1
 10
0.0
 20
0.0
 30
0.0
 70
     1
  0
VERTEX
  5
10FE22B5997
  8
0
 10
135.87244491835659
 20
460.46320537226489
 30
0.0
  0
VERTEX
  5
10FE22B5998
  8
0
 10
133.70738140889549
 20
461.71320537226489
 30
0.0
  0
VERTEX
  5
10FE22B5999
  8
0
 10
131.54231789943441
 20
460.46320537226489
 30
0.0
  0
VERTEX
  5
10FE22B599A
  8
0
 10
131.54231789943441
 20
457.96320537226489
 30
0.0
  0
VERTEX
  5
10FE22B599B
  8
0
 10
133.70738140889549
 20
456.71320537226489
 30
0.0
  0
VERTEX
  5
10FE22B599C
  8
0
 10
135.87244491835659
 20
457.96320537226489
 30
0.0
  0
SEQEND
  5
10FE22B599D
  8
0
  0
POLYLINE
  5
5987
  8
0
 66
     1
 10
0.0
 20
0.0
 30
0.0
 70
     1
  0
VERTEX
  5
10FE22B599E
  8
0
 10
95.957381408895543
 20
424.878268881726
 30
0.0
  0
VERTEX
  5
10FE22B599F
  8
0
 10
94.707381408895543
 20
422.71320537226501
 30
0.0
  0
VERTEX
  5
10FE22B59A0
  8
0
 10
95.957381408895543
 20
420.54814186280379
 30
0.0
  0
VERTEX
  5
10FE22B59A1
  8
0
 10
98.457381408895543
 20
420.54814186280379
 30
0.0
  0
VERTEX
  5
10FE22B59A2
  8
0
 10
99.707381408895543
 20
422.71320537226501
 30
0.0
  0
VERTEX
  5
10FE22B59A3
  8
0
 10
98.457381408895543
 20
424.878268881726
 30
0.0
  0
SEQEND
  5
10FE22B59A4
  8
0
  0
CIRCLE
  5
598F
  8
0
 10
97.207381408895543
 20
422.71320537226501
 30
0.0
 40
3.6666666666666661
  0
CIRCLE
  5
5990
  8
0
 10
97.207381408895543
 20
422.71320537226501
 30
0.0
 40
4.5
  0
CIRCLE
  5
5994
  8
0
 10
133.70738140889549
 20
148.47649335800381
 30
0.0
 40
2.5
  0
LINE
  5
5995
  8
0
 10
88.707381408895543
 20
128.47649335800381
 30
0.0
 11
88.707381408895543
 21
53.27649335800394
 31
0.0
  0
LINE
  5
5996
  8
0
 10
87.707381408895529
 20
128.47649335800381
 30
0.0
 11
87.707381408895529
 21
54.276493358003918
 31
0.0
  0
LINE
  5
5998
  8
0
 10
107.04279815694881
 20
34.976493358004006
 30
0.0
 11
107.04279815694881
 21
24.97649335800401
 31
0.0
  0
LINE
  5
5999
  8
0
 10
89.707381408895557
 20
26.976493358004038
 30
0.0
 11
107.04279815694881
 21
26.976493358004038
 31
0.0
  0
SOLID
  5
10FE22B551E
  8
DIM
 10
83.811714695803204
 20
171.54637815724169
 30
0.0
 11
84.269896204866214
 21
170.65751950438809
 31
0.0
 12
86.707381408895571
 22
172.47649335800389
 32
0.0
 13
86.707381408895571
 23
172.47649335800389
 33
0.0
  0
LINE
  5
10FE22B551F
  8
DIM
 10
84.040805450334716
 20
171.10194883081491
 30
0.0
 11
64.760877563531295
 21
161.16369101508531
 31
0.0
  0
LINE
  5
10FE22B5520
  8
DIM
 10
64.760877563531295
 20
161.16369101508531
 30
0.0
 11
61.760877563531309
 21
161.16369101508531
 31
0.0
  0
LINE
  5
10FE22B5521
  8
DIM
 10
61.760877563531309
 20
161.16369101508531
 30
0.0
 11
39.670877563531299
 21
161.16369101508531
 31
0.0
  0
TEXT
  5
10FE22B5522
  8
DIM
 10
39.242306134959883
 20
162.66369101508531
 30
0.0
 40
3.0
  1
2-PT 1/4
  7
CHINESET
 72
     2
 11
61.670877563531299
 21
164.16369101508531
 31
0.0
 73
     2
  0
TEXT
  5
10FE22B5628
  8
LOGO
 62
     6
 10
359.39246703417808
 20
-37.157358845978841
 30
0.0
 40
8.4146630031293892
  1
行程
 41
0.9
  7
CHINESET
 72
     4
 11
366.96566373699449
 21
-32.950027344414138
 31
0.0
  0
LINE
  5
10FE22B5629
  8
LOGO
 62
     6
 10
388.6948671109547
 20
-48.727520475281693
 30
0.0
 11
345.23646036303433
 21
-48.72752047528175
 31
0.0
  0
LINE
  5
10FE22B562A
  8
LOGO
 62
     6
 10
388.6948671109547
 20
-25.587197216675861
 30
0.0
 11
345.23646036303433
 21
-25.587197216675861
 31
0.0
  0
TEXT
  5
10FE22B562B
  8
LOGO
  6
CONTINUOUS
 62
     6
 10
357.44908057869338
 20
-46.09793828680381
 30
0.0
 40
5.2591643769558694
  1
Stroke
 41
0.8
  7
CHINESET
 72
     4
 11
366.96566373699449
 21
-43.46835609832587
 31
0.0
  0
TEXT
  5
10FE22B562C
  8
LOGO
  6
CONTINUOUS
 62
     7
 10
359.43253712893511
 20
-12.032648347449079
 30
0.0
 40
10.51832875391173
  1
30
  7
CHINESET
 72
     1
 11
367.9473746916255
 21
-6.7734839704932126
 31
0.0
 73
     2
  0
LINE
  5
10FE22B562D
  8
LOGO
 62
     6
 10
384.48753560939002
 20
2.81229041888583
 30
0.0
 11
349.44379186459901
 21
2.81229041888583
 31
0.0
  0
LINE
  5
10FE22B562E
  8
LOGO
 62
     6
 10
384.48753560938991
 20
-16.12070133815531
 30
0.0
 11
349.44379186459901
 21
-16.120701338155289
 31
0.0
  0
LINE
  5
10FE22B562F
  8
LOGO
 62
     1
 10
392.34651856897261
 20
9.1232876712328732
 30
0.0
 11
9.4543428719093754
 21
9.1232876712328732
 31
0.0
  0
LINE
  5
10FE22B5630
  8
LOGO
 62
     1
 10
392.34651856897261
 20
-53.986684852237552
 30
0.0
 11
9.4543428719093754
 21
-53.986684852237552
 31
0.0
  0
LINE
  5
10FE22B5631
  8
LOGO
  6
CONTINUOUS
 62
     6
 10
129.44812708358131
 20
-7.6492414602059924
 30
0.0
 11
140.9355397175708
 21
-6.1318912676596176
 31
0.0
  0
LINE
  5
10FE22B5632
  8
LOGO
  6
CONTINUOUS
 62
     6
 10
129.44812708358131
 20
-11.943168172799551
 30
0.0
 11
140.9355397175708
 21
-13.460518365345941
 31
0.0
  0
LINE
  5
10FE22B5633
  8
LOGO
 62
     1
 10
148.2962824235442
 20
-3.498706833461211
 30
0.0
 11
55.734989389121019
 21
-3.498706833461211
 31
0.0
  0
LINE
  5
10FE22B5634
  8
LOGO
 62
     1
 10
148.2962824235442
 20
-16.120701338155289
 30
0.0
 11
55.734989389121019
 21
-16.120701338155289
 31
0.0
  0
TEXT
  5
10FE22B5635
  8
LOGO
 62
     6
 10
115.69050388615069
 20
-0.3432082072876903
 30
0.0
 40
6.3109972523470423
  1
1 : 1
  7
CHINESET
 72
     1
 11
126.80987999742879
 21
2.81229041888583
 31
0.0
 73
     2
  0
TEXT
  5
10FE22B5636
  8
LOGO
 62
     6
 10
115.69050388615069
 20
-25.587197216675861
 30
0.0
 40
6.3109972523470423
  1
m/m
  7
CHINESET
 72
     1
 11
126.80987999742879
 21
-22.431698590502339
 31
0.0
 73
     2
  0
LINE
  5
10FE22B5637
  8
LOGO
 62
     1
 10
148.2962824235442
 20
-28.742695842849312
 30
0.0
 11
9.4543428719093132
 21
-28.742695842849312
 31
0.0
  0
TEXT
  5
10FE22B5638
  8
LOGO
  6
CONTINUOUS
 62
     5
 10
11.52003882815028
 20
-41.588825991254581
 30
0.0
 40
9.4664958785205648
  1
金器工業股份有限公司
 41
0.8
  7
LOGO
  0
TEXT
  5
10FE22B5639
  8
LOGO
  6
CONTINUOUS
 62
     5
 10
14.23067228316703
 20
-51.057176560765399
 30
0.0
 40
6.3109972523470423
  1
MINDMAN INDUSTRIAL CO.,LTD
 41
0.85
  7
CHINESET
  0
SOLID
  5
10FE22B563A
  8
LOGO
 62
     5
 10
16.002103805022159
 20
-18.251561210544121
 30
0.0
 11
18.730813416368989
 21
-18.251561210545031
 31
0.0
 12
30.116119036127841
 22
7.6241333798154933
 32
0.0
 13
32.844828647474444
 23
7.6241333798136983
 33
0.0
  0
SOLID
  5
10FE22B563B
  8
LOGO
 62
     5
 10
19.859934634859059
 20
-18.251561210544121
 30
0.0
 11
22.58864424620565
 21
-18.251561210544121
 31
0.0
 12
32.844828647474444
 22
5.5540778125857839
 32
0.0
 13
30.116119036127841
 23
-4.451190762353586
 33
0.0
  0
SOLID
  5
10FE22B563C
  8
LOGO
 62
     2
 10
18.730813416368989
 20
-18.251561210545031
 30
0.0
 11
19.859934634859059
 21
-18.251561210544121
 31
0.0
 12
32.844828647474444
 22
7.6241333798136983
 32
0.0
 13
33.973949865963668
 23
7.6241333798136983
 33
0.0
  0
SOLID
  5
10FE22B563D
  8
LOGO
 62
     5
 10
18.8086705590107
 20
-22.956232954245952
 30
0.0
 11
19.749604907750111
 21
-22.956232954245952
 31
0.0
 12
18.8086705590107
 22
-27.660904697946901
 32
0.0
 13
19.749604907750111
 23
-27.660904697946901
 33
0.0
  0
SOLID
  5
10FE22B563E
  8
LOGO
 62
     5
 10
11.62731313646889
 20
-27.660904697946901
 30
0.0
 11
12.568247485210209
 21
-27.660904697946901
 31
0.0
 12
15.217991847739199
 22
-22.956232954245952
 32
0.0
 13
16.158926196478841
 23
-22.956232954245952
 33
0.0
  0
SOLID
  5
10FE22B563F
  8
LOGO
 62
     5
 10
15.217991847739199
 20
-22.956232954245952
 30
0.0
 11
16.158926196478841
 21
-22.956232954245952
 31
0.0
 12
15.217991847739199
 22
-27.660904697946901
 32
0.0
 13
16.158926196478841
 23
-27.660904697946901
 33
0.0
  0
SOLID
  5
10FE22B5640
  8
LOGO
 62
     5
 10
15.217991847739199
 20
-27.660904697946901
 30
0.0
 11
16.158926196478841
 21
-27.660904697946901
 31
0.0
 12
18.8086705590107
 22
-22.956232954245952
 32
0.0
 13
19.749604907750111
 23
-22.956232954245952
 33
0.0
  0
LINE
  5
10FE22B5641
  8
LOGO
 62
     1
 10
9.4543428719093754
 20
-53.986684852237552
 30
0.0
 11
9.4543428719093754
 21
9.1232876712328732
 31
0.0
  0
TEXT
  5
10FE22B5642
  8
LOGO
 62
     6
 10
60.93874471281967
 20
-0.3401024015532683
 30
0.0
 40
6.3109972523470423
  1
比例 Scale:
 41
0.9
  7
CHINESET
 72
     4
 11
80.978978398509184
 21
2.81229041888583
 31
0.0
  0
TEXT
  5
10FE22B5643
  8
LOGO
 62
     6
 10
63.144776341653483
 20
-12.87642843140619
 30
0.0
 40
6.3109972523470423
  1
投影 View:
 41
0.9
  7
CHINESET
 72
     4
 11
80.978978398509184
 21
-9.8097040858082565
 31
0.0
  0
TEXT
  5
10FE22B5644
  8
LOGO
 62
     6
 10
63.761789019449907
 20
-25.587197216675861
 30
0.0
 40
6.3109972523470423
  1
單位 Unit:
 41
0.9
  7
CHINESET
 72
     4
 11
80.978978398509184
 21
-22.431698590502339
 31
0.0
  0
POLYLINE
  5
10FE22B5645
  8
LOGO
 62
     5
 66
     1
 10
0.0
 20
0.0
 30
0.0
 70
     1
 40
0.9424422563504917
 41
0.9424422563504917
  0
VERTEX
  5
10FE22B59A9
  8
LOGO
 62
     5
 10
41.71802291766096
 20
-25.308568826096892
 30
0.0
 42
1.0
  0
VERTEX
  5
10FE22B59AA
  8
LOGO
 62
     5
 10
45.487791943062867
 20
-25.308568826096892
 30
0.0
 42
1.0
  0
SEQEND
  5
10FE22B59AB
  8
LOGO
 62
     5
  0
LINE
  5
10FE22B5646
  8
LOGO
 62
     5
 10
50.816674708414872
 20
-27.660904697946901
 30
0.0
 11
50.816674708414872
 21
-24.83810165172671
 31
0.0
  0
SOLID
  5
10FE22B5647
  8
LOGO
 62
     5
 10
45.014214860039672
 20
-22.956232954245952
 30
0.0
 11
45.955149208779197
 21
-22.956232954245952
 31
0.0
 12
45.014214860039672
 22
-27.660904697946901
 32
0.0
 13
45.955149208779197
 23
-27.660904697946901
 33
0.0
  0
SOLID
  5
10FE22B5648
  8
LOGO
 62
     5
 10
47.05293731345342
 20
-27.660904697946901
 30
0.0
 11
47.993871662194621
 21
-27.660904697946901
 31
0.0
 12
47.05293731345342
 22
-22.956232954245952
 32
0.0
 13
47.993871662194621
 23
-22.956232954245952
 33
0.0
  0
SOLID
  5
10FE22B5649
  8
LOGO
 62
     5
 10
49.875740359675468
 20
-24.83810165172671
 30
0.0
 11
50.816674708414872
 21
-24.838101651726841
 31
0.0
 12
49.875740359675468
 22
-27.660904697946901
 32
0.0
 13
50.816674708414872
 23
-27.660904697946901
 33
0.0
  0
SOLID
  5
10FE22B564A
  8
LOGO
 62
     5
 10
31.527426465804101
 20
-21.54483143113497
 30
0.0
 11
32.468360814543502
 21
-21.54483143113497
 31
0.0
 12
31.527426465804101
 22
-27.660904697946901
 32
0.0
 13
32.468360814543502
 23
-27.660904697946901
 33
0.0
  0
SOLID
  5
10FE22B564B
  8
LOGO
 62
     5
 10
33.566148919220481
 20
-22.956232954245952
 30
0.0
 11
34.507083267960013
 21
-22.956232954245952
 31
0.0
 12
33.566148919220481
 22
-27.660904697946901
 32
0.0
 13
34.507083267960013
 23
-27.660904697946901
 33
0.0
  0
SOLID
  5
10FE22B564C
  8
LOGO
 62
     5
 10
36.388951965440739
 20
-24.83810165172671
 30
0.0
 11
37.329886314180271
 21
-24.83810165172671
 31
0.0
 12
36.388951965440739
 22
-27.660904697946901
 32
0.0
 13
37.329886314180271
 23
-27.660904697946901
 33
0.0
  0
SOLID
  5
10FE22B564D
  8
LOGO
 62
     5
 10
39.211755011661111
 20
-24.83810165172671
 30
0.0
 11
40.152689360400508
 21
-24.83810165172671
 31
0.0
 12
39.211755011661111
 22
-27.660904697948691
 32
0.0
 13
40.152689360400508
 23
-27.660904697948691
 33
0.0
  0
LINE
  5
10FE22B564E
  8
LOGO
 62
     1
 10
55.734989389121019
 20
-28.742695842849379
 30
0.0
 11
55.734989389121019
 21
9.1232876712328732
 31
0.0
  0
SOLID
  5
10FE22B564F
  8
LOGO
 62
     5
 10
22.90216357120612
 20
-22.956232954245952
 30
0.0
 11
23.843097919945532
 21
-22.956232954245952
 31
0.0
 12
22.90216357120612
 22
-27.660904697946901
 32
0.0
 13
23.843097919945532
 23
-27.660904697946901
 33
0.0
  0
SOLID
  5
10FE22B5650
  8
LOGO
 62
     5
 10
25.72496661742613
 20
-24.83810165172671
 30
0.0
 11
26.665900966167332
 21
-24.83810165172671
 31
0.0
 12
25.72496661742613
 22
-27.660904697946901
 32
0.0
 13
26.665900966167332
 23
-27.660904697946901
 33
0.0
  0
SOLID
  5
10FE22B5651
  8
LOGO
 62
     5
 10
20.863441117789499
 20
-22.956232954245952
 30
0.0
 11
21.80437546653166
 21
-22.956232954245952
 31
0.0
 12
20.863441117789499
 22
-27.660904697948691
 32
0.0
 13
21.80437546653166
 23
-27.660904697946901
 33
0.0
  0
POLYLINE
  5
10FE22B5652
  8
LOGO
 62
     5
 66
     1
 10
0.0
 20
0.0
 30
0.0
 70
     1
 40
0.9424422563504917
 41
0.9424422563504917
  0
VERTEX
  5
10FE22B59AC
  8
LOGO
 62
     5
 10
28.231234523426231
 20
-25.308568826096892
 30
0.0
 42
1.0
  0
VERTEX
  5
10FE22B59AD
  8
LOGO
 62
     5
 10
32.001003548828258
 20
-25.308568826096892
 30
0.0
 42
1.0
  0
SEQEND
  5
10FE22B59AE
  8
LOGO
 62
     5
  0
POLYLINE
  5
10FE22B5653
  8
LOGO
 62
     5
 66
     1
 10
0.0
 20
0.0
 30
0.0
 40
0.9424422563504917
 41
0.9424422563504917
  0
VERTEX
  5
10FE22B59AF
  8
LOGO
 62
     5
 10
50.348469395460889
 20
-24.838101651726699
 30
0.0
 42
1.0
  0
VERTEX
  5
10FE22B59B0
  8
LOGO
 62
     5
 10
47.521142626409308
 20
-24.838101651726699
 30
0.0
 42
1.0
  0
SEQEND
  5
10FE22B59B1
  8
LOGO
 62
     5
  0
SOLID
  5
10FE22B5654
  8
LOGO
 62
     5
 10
48.08796509706827
 20
-18.251561210545031
 30
0.0
 11
50.816674708414872
 21
-18.251561210545031
 31
0.0
 12
48.08796509706827
 22
7.6241333798136983
 32
0.0
 13
50.816674708414872
 23
7.6241333798154933
 33
0.0
  0
SOLID
  5
10FE22B5655
  8
LOGO
 62
     5
 10
33.973949865963668
 20
7.6241333798136983
 30
0.0
 11
36.702659477310149
 21
7.6241333798154933
 31
0.0
 12
33.973949865963668
 22
-16.181505643316211
 32
0.0
 13
36.702659477310149
 23
-6.1762370683768353
 33
0.0
  0
SOLID
  5
10FE22B5656
  8
LOGO
 62
     5
 10
33.973949865963668
 20
-16.181505643316211
 30
0.0
 11
36.702659477310149
 21
-6.1762370683768353
 31
0.0
 12
46.958843878579053
 22
7.6241333798154933
 32
0.0
 13
44.230134267232224
 23
7.6241333798154933
 33
0.0
  0
SOLID
  5
10FE22B5657
  8
LOGO
 62
     5
 10
46.958843878579053
 20
5.5540778125857839
 30
0.0
 11
44.230134267232224
 21
-4.451190762353586
 31
0.0
 12
46.958843878579053
 22
-18.251561210545031
 32
0.0
 13
44.230134267232224
 23
-18.251561210545031
 33
0.0
  0
SOLID
  5
10FE22B5658
  8
LOGO
 62
     2
 10
46.958843878579053
 20
7.6241333798154933
 30
0.0
 11
48.08796509706827
 21
7.6241333798136983
 31
0.0
 12
46.958843878579053
 22
-18.251561210545031
 32
0.0
 13
48.08796509706827
 23
-18.251561210545031
 33
0.0
  0
SOLID
  5
10FE22B5659
  8
LOGO
 62
     5
 10
30.116119036127841
 20
-18.251561210544121
 30
0.0
 11
32.844828647474444
 21
-18.251561210544121
 31
0.0
 12
30.116119036127841
 22
-4.451190762353586
 32
0.0
 13
32.844828647474444
 23
5.5540778125857839
 33
0.0
  0
SOLID
  5
10FE22B565A
  8
LOGO
 62
     2
 10
32.844828647474444
 20
7.6241333798136983
 30
0.0
 11
33.973949865963668
 21
7.6241333798136983
 31
0.0
 12
32.844828647474444
 22
-18.251561210544121
 32
0.0
 13
33.973949865963668
 23
-18.251561210544121
 33
0.0
  0
SOLID
  5
10FE22B565B
  8
LOGO
 62
     5
 10
33.973949865963668
 20
-18.251561210544121
 30
0.0
 11
36.702659477310149
 21
-18.251561210544121
 31
0.0
 12
46.958843878579053
 22
5.5540778125857839
 32
0.0
 13
44.230134267232224
 23
-4.451190762353586
 33
0.0
  0
SOLID
  5
10FE22B565C
  8
LOGO
 62
     2
 10
32.844828647474444
 20
-18.251561210544121
 30
0.0
 11
33.973949865963668
 21
-18.251561210544121
 31
0.0
 12
46.958843878579053
 22
7.6241333798154933
 32
0.0
 13
48.08796509706827
 23
7.6241333798136983
 33
0.0
  0
POLYLINE
  5
10FE22B565D
  8
LOGO
 62
     5
 66
     1
 10
0.0
 20
0.0
 30
0.0
 40
0.9424422563504917
 41
0.9424422563504917
  0
VERTEX
  5
10FE22B59B2
  8
LOGO
 62
     5
 10
36.861681001226167
 20
-24.838101651726699
 30
0.0
 42
1.0
  0
VERTEX
  5
10FE22B59B3
  8
LOGO
 62
     5
 10
34.034354232174579
 20
-24.838101651726699
 30
0.0
 42
1.0
  0
SEQEND
  5
10FE22B59B4
  8
LOGO
 62
     5
  0
POLYLINE
  5
10FE22B565E
  8
LOGO
 62
     5
 66
     1
 10
0.0
 20
0.0
 30
0.0
 40
0.9424422563504917
 41
0.9424422563504917
  0
VERTEX
  5
10FE22B59B5
  8
LOGO
 62
     5
 10
26.197695653211809
 20
-24.838101651726699
 30
0.0
 42
1.0
  0
VERTEX
  5
10FE22B59B6
  8
LOGO
 62
     5
 10
23.370368884160222
 20
-24.838101651726699
 30
0.0
 42
1.0
  0
SEQEND
  5
10FE22B59B7
  8
LOGO
 62
     5
  0
SOLID
  5
10FE22B565F
  8
LOGO
 62
     5
 10
20.863441117789499
 20
-22.297578910128141
 30
0.0
 11
21.80437546653166
 21
-22.297578910128141
 31
0.0
 12
20.863441117789499
 22
-21.54483143113497
 32
0.0
 13
21.80437546653166
 23
-21.54483143113497
 33
0.0
  0
POLYLINE
  5
10FE22B5660
  8
LOGO
 62
     5
 66
     1
 10
0.0
 20
0.0
 30
0.0
 70
     1
  0
VERTEX
  5
10FE22B59B8
  8
LOGO
 62
     5
 10
42.191505907251781
 20
-25.30856882609644
 30
0.0
 42
1.0000000573306349
  0
VERTEX
  5
10FE22B59B9
  8
LOGO
 62
     5
 10
45.01430895347324
 20
-25.30856882609644
 30
0.0
 42
1.0000000573306349
  0
SEQEND
  5
10FE22B59BA
  8
LOGO
 62
     5
  0
CIRCLE
  5
10FE22B5661
  8
LOGO
 62
     5
 10
43.602907430362457
 20
-25.30856882609644
 30
0.0
 40
1.4114015231104959
  0
POLYLINE
  5
10FE22B5662
  8
LOGO
 62
     5
 66
     1
 10
0.0
 20
0.0
 30
0.0
 40
0.9424422563504917
 41
0.9424422563504917
  0
VERTEX
  5
10FE22B59BB
  8
LOGO
 62
     5
 10
39.684484047446411
 20
-24.838101651726699
 30
0.0
 42
1.0
  0
VERTEX
  5
10FE22B59BC
  8
LOGO
 62
     5
 10
36.857157278394837
 20
-24.838101651726699
 30
0.0
 42
1.0
  0
SEQEND
  5
10FE22B59BD
  8
LOGO
 62
     5
  0
LINE
  5
10FE22B5663
  8
LOGO
 62
     1
 10
106.2229674078973
 20
-28.742695842849379
 30
0.0
 11
106.2229674078973
 21
9.1232876712328732
 31
0.0
  0
CIRCLE
  5
10FE22B5664
  8
LOGO
  6
CONTINUOUS
 62
     6
 10
117.9085681876762
 20
-9.7962048165027866
 30
0.0
 40
3.6643135488431642
  0
CIRCLE
  5
10FE22B5665
  8
LOGO
  6
CONTINUOUS
 62
     6
 10
117.9085681876762
 20
-9.7962048165027866
 30
0.0
 40
2.1469633562967849
  0
LINE
  5
10FE22B5666
  8
LOGO
 62
     6
 10
129.4481270835814
 20
-11.94316817279956
 30
0.0
 11
129.44812708358131
 21
-7.6492414602059737
 31
0.0
  0
TEXT
  5
10FE22B5667
  8
LOGO
  6
CONTINUOUS
 62
     6
 10
250.3277817200883
 20
-46.097938286803753
 30
0.0
 40
5.2591643769558694
  1
Model
  7
CHINESET
 72
     4
 11
260.34523767619459
 21
-43.46835609832582
 31
0.0
  0
TEXT
  5
10FE22B5668
  8
LOGO
  6
CONTINUOUS
 62
     7
 10
240.31032576398181
 20
-11.913369836590601
 30
0.0
 40
10.51832875391173
  1
MSAR
  7
CHINESET
 72
     1
 11
260.34523767619459
 21
-6.6542054596347331
 31
0.0
 73
     2
  0
LINE
  5
10FE22B5669
  8
LOGO
 62
     6
 10
285.58922668558279
 20
2.81229041888583
 30
0.0
 11
235.10124866680661
 21
2.81229041888583
 31
0.0
  0
LINE
  5
10FE22B566A
  8
LOGO
 62
     6
 10
285.58922668558279
 20
-16.120701338155289
 30
0.0
 11
235.10124866680661
 21
-16.120701338155289
 31
0.0
  0
LINE
  5
10FE22B566B
  8
LOGO
 62
     6
 10
281.38189518401822
 20
-25.587197216675861
 30
0.0
 11
239.30858016837121
 21
-25.587197216675861
 31
0.0
  0
LINE
  5
10FE22B566C
  8
LOGO
 62
     6
 10
281.38189518401822
 20
-48.7275204752817
 30
0.0
 11
239.30858016837121
 21
-48.72752047528175
 31
0.0
  0
TEXT
  5
10FE22B566D
  8
LOGO
 62
     7
 10
153.4621421684935
 20
-6.6780141531515538
 30
0.0
 40
12.621994504694079
  1
訂購代號:
  7
CHINESET
  0
TEXT
  5
10FE22B566E
  8
LOGO
 62
     7
 10
151.95248203930029
 20
-18.524117383351548
 30
0.0
 40
8.4146630031293892
  1
Order example:
 41
0.8
  7
CHINESET
  0
LINE
  5
10FE22B566F
  8
LOGO
 62
     1
 10
148.2962824235442
 20
-53.986684852237552
 30
0.0
 11
148.2962824235442
 21
9.1232876712328732
 31
0.0
  0
LINE
  5
10FE22B5670
  8
LOGO
 62
     6
 10
140.9355397175708
 20
-13.460518365345941
 30
0.0
 11
140.9355397175708
 21
-6.1318912676596176
 31
0.0
  0
LINE
  5
10FE22B5671
  8
LOGO
 62
     6
 10
239.30858016837121
 20
-25.587197216675861
 30
0.0
 11
239.30858016837121
 21
-48.72752047528175
 31
0.0
  0
LINE
  5
10FE22B5672
  8
LOGO
 62
     6
 10
235.10124866680661
 20
2.81229041888583
 30
0.0
 11
235.10124866680661
 21
-16.120701338155289
 31
0.0
  0
TEXT
  5
10FE22B5673
  8
LOGO
  6
CONTINUOUS
 62
     7
 10
310.12690669850468
 20
-12.03264834744896
 30
0.0
 40
10.51832875391173
  1
80
  7
CHINESET
 72
     1
 11
318.64174426119519
 21
-6.7734839704930936
 31
0.0
 73
     2
  0
LINE
  5
10FE22B5674
  8
LOGO
 62
     6
 10
334.54763507946899
 20
-48.727520475281572
 30
0.0
 11
300.77243153365902
 21
-48.727520475281622
 31
0.0
  0
LINE
  5
10FE22B5675
  8
LOGO
 62
     6
 10
334.54763507946899
 20
-16.120701338155168
 30
0.0
 11
300.77243153365902
 21
-16.120701338155168
 31
0.0
  0
LINE
  5
10FE22B5676
  8
LOGO
 62
     6
 10
334.54763507946899
 20
-25.58719721667574
 30
0.0
 11
300.77243153365902
 21
-25.58719721667574
 31
0.0
  0
LINE
  5
10FE22B5677
  8
LOGO
 62
     6
 10
334.54763507946899
 20
2.8122904188860689
 30
0.0
 11
300.77243153365902
 21
2.812290418885949
 31
0.0
  0
LINE
  5
10FE22B5678
  8
LOGO
 62
     6
 10
300.77243153365902
 20
-25.58719721667574
 30
0.0
 11
300.77243153365902
 21
-48.727520475281572
 31
0.0
  0
LINE
  5
10FE22B5679
  8
LOGO
 62
     6
 10
281.38189518401822
 20
-25.587197216675861
 30
0.0
 11
281.38189518401822
 21
-48.727520475281693
 31
0.0
  0
TEXT
  5
10FE22B567A
  8
LOGO
 62
     6
 10
251.93057467306519
 20
-36.942022981725458
 30
0.0
 40
8.4146630031293892
  1
型式
  7
CHINESET
 72
     4
 11
260.34523767619459
 21
-32.950027344414082
 31
0.0
  0
LINE
  5
10FE22B567B
  8
LOGO
 62
     6
 10
260.34523767619459
 20
-16.120701338155289
 30
0.0
 11
260.34523767619459
 21
-25.587197216675861
 31
0.0
  0
LINE
  5
10FE22B567C
  8
LOGO
 62
     6
 10
300.77243153365902
 20
2.812290418885949
 30
0.0
 11
300.77243153365902
 21
-16.120701338155168
 31
0.0
  0
LINE
  5
10FE22B567D
  8
LOGO
 62
     6
 10
285.5892266855829
 20
2.81229041888583
 30
0.0
 11
285.5892266855829
 21
-16.120701338155289
 31
0.0
  0
LINE
  5
10FE22B567E
  8
LOGO
  6
CONTINUOUS
 62
     7
 10
289.13814469390752
 20
-6.721269108558011
 30
0.0
 11
297.49826301964492
 21
-6.721269108558011
 31
0.0
  0
LINE
  5
10FE22B567F
  8
LOGO
 62
     6
 10
345.23646036303433
 20
-25.587197216675861
 30
0.0
 11
345.23646036303433
 21
-48.72752047528175
 31
0.0
  0
LINE
  5
10FE22B5680
  8
LOGO
 62
     6
 10
334.54763507946899
 20
-25.58719721667574
 30
0.0
 11
334.54763507946899
 21
-48.727520475281509
 31
0.0
  0
TEXT
  5
10FE22B5681
  8
LOGO
  6
CONTINUOUS
 62
     6
 10
311.14868693509482
 20
-46.097938286803689
 30
0.0
 40
5.2591643769558694
  1
Bore
 41
0.8
  7
CHINESET
 72
     4
 11
317.660033306564
 21
-43.468356098325749
 31
0.0
  0
TEXT
  5
10FE22B5682
  8
LOGO
 62
     6
 10
309.61351180982149
 20
-37.157358845978713
 30
0.0
 40
8.4146630031293892
  1
內徑
 41
0.9
  7
CHINESET
 72
     4
 11
317.660033306564
 21
-32.950027344414018
 31
0.0
  0
LINE
  5
10FE22B5683
  8
LOGO
  6
CONTINUOUS
 62
     7
 10
337.80950502484768
 20
-6.7212691085578919
 30
0.0
 11
346.16962335058503
 21
-6.7212691085578919
 31
0.0
  0
LINE
  5
10FE22B5684
  8
LOGO
 62
     6
 10
334.54763507946899
 20
2.8122904188860689
 30
0.0
 11
334.54763507946899
 21
-16.120701338155168
 31
0.0
  0
LINE
  5
10FE22B5685
  8
LOGO
 62
     6
 10
317.66003282149131
 20
-16.120701338155168
 30
0.0
 11
317.66003282149131
 21
-25.58719721667574
 31
0.0
  0
LINE
  5
10FE22B5686
  8
LOGO
 62
     6
 10
349.44379186459912
 20
2.81229041888583
 30
0.0
 11
349.44379186459901
 21
-16.120701338155289
 31
0.0
  0
LINE
  5
10FE22B5687
  8
LOGO
 62
     6
 10
367.411201042031
 20
-16.120701338155289
 30
0.0
 11
367.411201042031
 21
-25.587197216675861
 31
0.0
  0
LINE
  5
10FE22B5688
  8
LOGO
 62
     6
 10
388.6948671109547
 20
-25.587197216675861
 30
0.0
 11
388.6948671109547
 21
-48.814774837806702
 31
0.0
  0
LINE
  5
10FE22B5689
  8
LOGO
 62
     6
 10
384.48753560939002
 20
2.81229041888583
 30
0.0
 11
384.48753560938991
 21
-16.12070133815531
 31
0.0
  0
LINE
  5
10FE22B568A
  8
LOGO
 62
     1
 10
392.34651856897261
 20
-53.986684852237552
 30
0.0
 11
392.34651856897261
 21
9.1232876712328732
 31
0.0
  0
ENDSEC
  0
EOF
