  0
SECTION
  2
HEADER
  9
$ACADVER
  1
AC1015
  9
$ACADMAINTVER
 70
    20
  9
$DWGCODEPAGE
  3
ANSI_950
  9
$INSBASE
 10
0.0
 20
0.0
 30
0.0
  9
$EXTMIN
 10
97.60324195922988
 20
69.45208592503295
 30
0.0
  9
$EXTMAX
 10
918.5675661398402
 20
674.8959797241566
 30
298.1563261041133
  9
$LIMMIN
 10
0.0
 20
0.0
  9
$LIMMAX
 10
420.0
 20
297.0
  9
$ORTHOMODE
 70
     0
  9
$REGENMODE
 70
     1
  9
$FILLMODE
 70
     1
  9
$QTEXTMODE
 70
     0
  9
$MIRRTEXT
 70
     1
  9
$LTSCALE
 40
2.0
  9
$ATTMODE
 70
     1
  9
$TEXTSIZE
 40
3.0
  9
$TRACEWID
 40
1.0
  9
$TEXTSTYLE
  7
STANDARD
  9
$CLAYER
  8
0
  9
$CELTYPE
  6
ByLayer
  9
$CECOLOR
 62
   256
  9
$CELTSCALE
 40
1.0
  9
$DISPSILH
 70
     0
  9
$DIMSCALE
 40
1.0
  9
$DIMASZ
 40
3.0
  9
$DIMEXO
 40
1.0
  9
$DIMDLI
 40
11.0
  9
$DIMRND
 40
0.0
  9
$DIMDLE
 40
0.0
  9
$DIMEXE
 40
1.5
  9
$DIMTP
 40
0.1
  9
$DIMTM
 40
0.1
  9
$DIMTXT
 40
3.5
  9
$DIMCEN
 40
0.0
  9
$DIMTSZ
 40
0.0
  9
$DIMTOL
 70
     0
  9
$DIMLIM
 70
     0
  9
$DIMTIH
 70
     0
  9
$DIMTOH
 70
     0
  9
$DIMSE1
 70
     0
  9
$DIMSE2
 70
     0
  9
$DIMTAD
 70
     1
  9
$DIMZIN
 70
     8
  9
$DIMBLK
  1

  9
$DIMASO
 70
     1
  9
$DIMSHO
 70
     1
  9
$DIMPOST
  1

  9
$DIMAPOST
  1
"
  9
$DIMALT
 70
     0
  9
$DIMALTD
 70
     2
  9
$DIMALTF
 40
0.0393701
  9
$DIMLFAC
 40
1.0
  9
$DIMTOFL
 70
     1
  9
$DIMTVP
 40
0.0
  9
$DIMTIX
 70
     0
  9
$DIMSOXD
 70
     0
  9
$DIMSAH
 70
     0
  9
$DIMBLK1
  1

  9
$DIMBLK2
  1

  9
$DIMSTYLE
  2
AM_ISO
  9
$DIMCLRD
 70
   256
  9
$DIMCLRE
 70
   256
  9
$DIMCLRT
 70
   256
  9
$DIMTFAC
 40
0.6
  9
$DIMGAP
 40
1.1
  9
$DIMJUST
 70
     0
  9
$DIMSD1
 70
     0
  9
$DIMSD2
 70
     0
  9
$DIMTOLJ
 70
     0
  9
$DIMTZIN
 70
     8
  9
$DIMALTZ
 70
     0
  9
$DIMALTTZ
 70
     0
  9
$DIMUPT
 70
     0
  9
$DIMDEC
 70
     2
  9
$DIMTDEC
 70
     8
  9
$DIMALTU
 70
     2
  9
$DIMALTTD
 70
     2
  9
$DIMTXSTY
  7
STANDARD
  9
$DIMAUNIT
 70
     0
  9
$DIMADEC
 70
     0
  9
$DIMALTRND
 40
0.0
  9
$DIMAZIN
 70
     2
  9
$DIMDSEP
 70
    46
  9
$DIMATFIT
 70
     3
  9
$DIMFRAC
 70
     0
  9
$DIMLDRBLK
  1

  9
$DIMLUNIT
 70
     2
  9
$DIMLWD
 70
    -1
  9
$DIMLWE
 70
    -1
  9
$DIMTMOVE
 70
     0
  9
$LUNITS
 70
     2
  9
$LUPREC
 70
     2
  9
$SKETCHINC
 40
1.0
  9
$FILLETRAD
 40
2.5
  9
$AUNITS
 70
     0
  9
$AUPREC
 70
     0
  9
$MENU
  1
.
  9
$ELEVATION
 40
0.0
  9
$PELEVATION
 40
0.0
  9
$THICKNESS
 40
0.0
  9
$LIMCHECK
 70
     0
  9
$CHAMFERA
 40
2.5
  9
$CHAMFERB
 40
2.5
  9
$CHAMFERC
 40
20.0
  9
$CHAMFERD
 40
0.0
  9
$SKPOLY
 70
     0
  9
$TDCREATE
 40
2454041.635008137
  9
$TDUCREATE
 40
2454041.301674803
  9
$TDUPDATE
 40
2457039.621179827
  9
$TDUUPDATE
 40
2457039.287846493
  9
$TDINDWG
 40
0.0709502199
  9
$TDUSRTIMER
 40
0.0709502199
  9
$USRTIMER
 70
     1
  9
$ANGBASE
 50
0.0
  9
$ANGDIR
 70
     0
  9
$PDMODE
 70
     0
  9
$PDSIZE
 40
0.0
  9
$PLINEWID
 40
0.0
  9
$SPLFRAME
 70
     0
  9
$SPLINETYPE
 70
     6
  9
$SPLINESEGS
 70
     8
  9
$HANDSEED
  5
4FA4
  9
$SURFTAB1
 70
     6
  9
$SURFTAB2
 70
     6
  9
$SURFTYPE
 70
     6
  9
$SURFU
 70
     6
  9
$SURFV
 70
     6
  9
$UCSBASE
  2

  9
$UCSNAME
  2

  9
$UCSORG
 10
0.0
 20
0.0
 30
0.0
  9
$UCSXDIR
 10
1.0
 20
0.0
 30
0.0
  9
$UCSYDIR
 10
0.0
 20
1.0
 30
0.0
  9
$UCSORTHOREF
  2

  9
$UCSORTHOVIEW
 70
     0
  9
$UCSORGTOP
 10
0.0
 20
0.0
 30
0.0
  9
$UCSORGBOTTOM
 10
0.0
 20
0.0
 30
0.0
  9
$UCSORGLEFT
 10
0.0
 20
0.0
 30
0.0
  9
$UCSORGRIGHT
 10
0.0
 20
0.0
 30
0.0
  9
$UCSORGFRONT
 10
0.0
 20
0.0
 30
0.0
  9
$UCSORGBACK
 10
0.0
 20
0.0
 30
0.0
  9
$PUCSBASE
  2

  9
$PUCSNAME
  2

  9
$PUCSORG
 10
0.0
 20
0.0
 30
0.0
  9
$PUCSXDIR
 10
1.0
 20
0.0
 30
0.0
  9
$PUCSYDIR
 10
0.0
 20
1.0
 30
0.0
  9
$PUCSORTHOREF
  2

  9
$PUCSORTHOVIEW
 70
     0
  9
$PUCSORGTOP
 10
0.0
 20
0.0
 30
0.0
  9
$PUCSORGBOTTOM
 10
0.0
 20
0.0
 30
0.0
  9
$PUCSORGLEFT
 10
0.0
 20
0.0
 30
0.0
  9
$PUCSORGRIGHT
 10
0.0
 20
0.0
 30
0.0
  9
$PUCSORGFRONT
 10
0.0
 20
0.0
 30
0.0
  9
$PUCSORGBACK
 10
0.0
 20
0.0
 30
0.0
  9
$USERI1
 70
     0
  9
$USERI2
 70
     0
  9
$USERI3
 70
     0
  9
$USERI4
 70
     0
  9
$USERI5
 70
     0
  9
$USERR1
 40
0.0
  9
$USERR2
 40
0.0
  9
$USERR3
 40
0.0
  9
$USERR4
 40
0.0
  9
$USERR5
 40
0.0
  9
$WORLDVIEW
 70
     1
  9
$SHADEDGE
 70
     3
  9
$SHADEDIF
 70
    70
  9
$TILEMODE
 70
     1
  9
$MAXACTVP
 70
    64
  9
$PINSBASE
 10
0.0
 20
0.0
 30
0.0
  9
$PLIMCHECK
 70
     0
  9
$PEXTMIN
 10
1.000000000000000E+20
 20
1.000000000000000E+20
 30
1.000000000000000E+20
  9
$PEXTMAX
 10
-1.000000000000000E+20
 20
-1.000000000000000E+20
 30
-1.000000000000000E+20
  9
$PLIMMIN
 10
0.0
 20
0.0
  9
$PLIMMAX
 10
420.0
 20
297.0
  9
$UNITMODE
 70
     0
  9
$VISRETAIN
 70
     1
  9
$PLINEGEN
 70
     0
  9
$PSLTSCALE
 70
     1
  9
$TREEDEPTH
 70
  3020
  9
$CMLSTYLE
  2
Standard
  9
$CMLJUST
 70
     0
  9
$CMLSCALE
 40
20.0
  9
$PROXYGRAPHICS
 70
     1
  9
$MEASUREMENT
 70
     1
  9
$CELWEIGHT
370
    -1
  9
$ENDCAPS
280
     0
  9
$JOINSTYLE
280
     0
  9
$LWDISPLAY
290
     0
  9
$INSUNITS
 70
     4
  9
$HYPERLINKBASE
  1

  9
$STYLESHEET
  1
彩色出圖.ctb
  9
$XEDIT
290
     1
  9
$CEPSNTYPE
380
     0
  9
$PSTYLEMODE
290
     1
  9
$FINGERPRINTGUID
  2
{8D0B6FBF-8FC8-4F19-8CCC-77AFF7773EC0}
  9
$VERSIONGUID
  2
{B3257367-3E0E-450F-8461-6589ED906C5C}
  9
$EXTNAMES
290
     1
  9
$PSVPSCALE
 40
0.0
  9
$OLESTARTUP
290
     0
  0
ENDSEC
  0
SECTION
  2
CLASSES
  0
CLASS
  1
ACDBDICTIONARYWDFLT
  2
AcDbDictionaryWithDefault
  3
ObjectDBX Classes
 90
        0
280
     0
281
     0
  0
CLASS
  1
ACDBPLACEHOLDER
  2
AcDbPlaceHolder
  3
ObjectDBX Classes
 90
        0
280
     0
281
     0
  0
CLASS
  1
LAYOUT
  2
AcDbLayout
  3
ObjectDBX Classes
 90
        0
280
     0
281
     0
  0
CLASS
  1
ACME_DOCUMENT
  2
AcMeDbDoc
  3
AcMeServices
 90
        0
280
     0
281
     0
  0
CLASS
  1
AMGSETTINGSOBJ
  2
AmgSettingsObj
  3
"AcadM|Product Description: AutoCAD Mechanical 2000|Company: Autodesk"
 90
        0
280
     0
281
     0
  0
CLASS
  1
ACMESCOPE
  2
AcMeScope
  3
AcMeServices
 90
        0
280
     0
281
     0
  0
CLASS
  1
ACMECOMMANDHISTORY
  2
AcMeCommandHistory
  3
AcMeServices
 90
        0
280
     0
281
     0
  0
CLASS
  1
ACIMSYSVARMAN
  2
AcImSysVarManager
  3
AcMeServices
 90
        0
280
     0
281
     0
  0
CLASS
  1
ACIMREALSYSVAR
  2
AcImRealSysVar
  3
AcMeServices
 90
        0
280
     0
281
     0
  0
CLASS
  1
ACIMINTSYSVAR
  2
AcImIntSysVar
  3
AcMeServices
 90
        0
280
     0
281
     0
  0
CLASS
  1
ACMEDRAWINGMAN
  2
AcMeDrawingMan
  3
AcMeServices
 90
        0
280
     0
281
     0
  0
CLASS
  1
ACMEVIEW
  2
AcMeView
  3
AcMeServices
 90
        0
280
     0
281
     0
  0
CLASS
  1
ACDBENTITYCACHE
  2
AcMeEntityCache
  3
AcMeServices
 90
        0
280
     0
281
     0
  0
CLASS
  1
GSMANAGER
  2
AcMeGSManager
  3
AcMeServices
 90
        0
280
     0
281
     0
  0
CLASS
  1
AMDTINTERNALREACTOR
  2
AmdtInternalReactor
  3
AcMeServices
 90
        0
280
     0
281
     0
  0
CLASS
  1
ACMESTATEMGR
  2
AcMeStateMgr
  3
AcMeServices
 90
        0
280
     0
281
     0
  0
CLASS
  1
ACGREFMASTER
  2
AcGrefMaster
  3
AcAttribServices
 90
        0
280
     0
281
     0
  0
CLASS
  1
ACME_DATABASE
  2
AcMeDbDatabase
  3
AcMeServices
 90
        0
280
     0
281
     0
  0
CLASS
  1
ACRFINSADJUSTERMGR
  2
AcRfInsAdjusterMgr
  3
AcMeServices
 90
        0
280
     0
281
     0
  0
CLASS
  1
ACGREFACADMASTER
  2
AcGrefacadMaster
  3
AcGrefServices
 90
        0
280
     0
281
     0
  0
CLASS
  1
AMIMASTER
  2
AmiMaster
  3
AmiServices
 90
        0
280
     0
281
     0
  0
CLASS
  1
ACMDATADICTIONARY
  2
AcmDataDictionary
  3
"AcmSymBB|Product Description: AutoCAD Mechanical 2004 DX|Company: Autodesk"
 90
        0
280
     0
281
     0
  0
CLASS
  1
ACMDATAENTRYBLOCK
  2
AcmDataEntryBlock
  3
"AcmSymBB|Product Description: AutoCAD Mechanical 2004 DX|Company: Autodesk"
 90
        0
280
     0
281
     0
  0
CLASS
  1
ACIMSTRSYSVAR
  2
AcImStrSysVar
  3
AcMeServices
 90
        0
280
     0
281
     0
  0
CLASS
  1
ACMSTANDARDISO
  2
AcmStandardISO
  3
"Amdt_StdImp|Product Description: AutoCAD Mechanical 2004 DX|Company: Autodesk"
 90
        0
280
     0
281
     0
  0
CLASS
  1
AMGOBJPROPCFG
  2
AmgObjPropCfg
  3
"AmgLay|Product Description: AutoCAD Mechanical 2000|Company: Autodesk"
 90
        1
280
     0
281
     0
  0
CLASS
  1
AMDTEDGESTANDARDISO
  2
AmdtEdgeStdISO
  3
"Amdt_StdImp|Product Description: AutoCAD Mechanical 2004 DX|Company: Autodesk"
 90
    32768
280
     0
281
     0
  0
CLASS
  1
ACMSURFSTANDARDISO
  2
AcmSurfTextStdISO
  3
"Amdt_StdImp|Product Description: AutoCAD Mechanical 2004 DX|Company: Autodesk"
 90
        0
280
     0
281
     0
  0
CLASS
  1
ACMFCFSTANDARDISO
  2
AcmFCFStdISO
  3
"Amdt_StdImp|Product Description: AutoCAD Mechanical 2004 DX|Company: Autodesk"
 90
        0
280
     0
281
     0
  0
CLASS
  1
ACMWELDSTANDARDISO
  2
AcmWeldingStdISO
  3
"Amdt_StdImp|Product Description: AutoCAD Mechanical 2004 DX|Company: Autodesk"
 90
        0
280
     0
281
     0
  0
CLASS
  1
ACMIDSTANDARDISO
  2
AcmIdStdISO
  3
"Amdt_StdImp|Product Description: AutoCAD Mechanical 2004 DX|Company: Autodesk"
 90
        0
280
     0
281
     0
  0
CLASS
  1
ACMDATUMSTANDARDISO
  2
AcmDatumStdISO
  3
"Amdt_StdImp|Product Description: AutoCAD Mechanical 2004 DX|Company: Autodesk"
 90
        0
280
     0
281
     0
  0
CLASS
  1
ACMBOMSTANDARDISO
  2
AcmBOMStdISO
  3
"Amdt_StdImp|Product Description: AutoCAD Mechanical 2004 DX|Company: Autodesk"
 90
        0
280
     0
281
     0
  0
CLASS
  1
ACMDETAILSTANDARDISO
  2
AmdtDetailSymStdISO
  3
"Amdt_StdImp|Product Description: AutoCAD Mechanical 2004 DX|Company: Autodesk"
 90
        0
280
     0
281
     0
  0
CLASS
  1
ACMSECTIONSTANDARDISO
  2
AmdtSectionSymStdISO
  3
"Amdt_StdImp|Product Description: AutoCAD Mechanical 2004 DX|Company: Autodesk"
 90
        0
280
     0
281
     0
  0
CLASS
  1
ACMCENTERLINESTANDARDISO
  2
AmdtCenterLineStdISO
  3
"Amdt_StdImp|Product Description: AutoCAD Mechanical 2004 DX|Company: Autodesk"
 90
        0
280
     0
281
     0
  0
CLASS
  1
ACMNOTESTANDARDISO
  2
AmdtNoteStdISO
  3
"Amdt_StdImp|Product Description: AutoCAD Mechanical 2004 DX|Company: Autodesk"
 90
        0
280
     0
281
     0
  0
CLASS
  1
ACAMGLAYSTD
  2
AcAmgLayStd
  3
"AcAmgLayStd|Product Description: AutoCAD Mechanical 2000|Company: Autodesk"
 90
        0
280
     0
281
     0
  0
CLASS
  1
ACAMGDIMSTD
  2
AcAmgDimStd
  3
"AcAmgDimStd|Product Description: AutoCAD Mechanical 2000|Company: Autodesk"
 90
        0
280
     0
281
     0
  0
CLASS
  1
ACAMGHOLECHARTSTDISO
  2
AcAmgHoleChartStdISO
  3
ACMSYMBB_MODULE_NAME
 90
        0
280
     0
281
     0
  0
CLASS
  1
ACAMGTITLESTD
  2
AcAmgTitleStd
  3
"TITLEAPP"
 90
        0
280
     0
281
     0
  0
CLASS
  1
LAYER_INDEX
  2
AcDbLayerIndex
  3
ObjectDBX Classes
 90
        0
280
     0
281
     0
  0
CLASS
  1
IDBUFFER
  2
AcDbIdBuffer
  3
ObjectDBX Classes
 90
        0
280
     0
281
     0
  0
CLASS
  1
DICTIONARYVAR
  2
AcDbDictionaryVar
  3
ObjectDBX Classes
 90
        0
280
     0
281
     0
  0
CLASS
  1
AM_DRAWING_MGR
  2
AcDmDwgMgr
  3
AcMechDwgViewMgmt
 90
        0
280
     0
281
     0
  0
CLASS
  1
AM_DWG_DOCUMENT
  2
AcDmDwgDocument
  3
AcMechDwgViewMgmt
 90
        0
280
     0
281
     0
  0
CLASS
  1
AM_DWG_SHEET
  2
AcDmSheet
  3
AcMechDwgViewMgmt
 90
        0
280
     0
281
     0
  0
CLASS
  1
AM_VIEWDIMPARMAP
  2
AcDmViewDimParMap
  3
AcMechDwgViewMgmt
 90
        0
280
     0
281
     0
  0
CLASS
  1
AM_DWGMGR_NAME
  2
AcDmDwgMgrName
  3
AcMechDwgViewMgmt
 90
        0
280
     0
281
     0
  0
CLASS
  1
AMDTMENUSTATEMGR
  2
AmdtMenuStateMgr
  3
McadcomServices
 90
        0
280
     0
281
     0
  0
CLASS
  1
AMDTMCOMMENUSTATE
  2
AmdtMcomMenuState
  3
McadcomServices
 90
        0
280
     0
281
     0
  0
CLASS
  1
MAPIAMMOUDLE
  2
MApiAmModule
  3
MApiAmServices
 90
        0
280
     0
281
     0
  0
CLASS
  1
AMDTADMENUSTATE
  2
AmdtAdMenuState
  3
DesignerServices
 90
        0
280
     0
281
     0
  0
CLASS
  1
ADAPPL
  2
AcAdAppl
  3
DesignerServices
 90
        0
280
     0
281
     0
  0
CLASS
  1
DEPMGR
  2
AcAdDepMgr
  3
DesignerServices
 90
        0
280
     0
281
     0
  0
CLASS
  1
PARAMMGR
  2
AcAdParamMgr
  3
DesignerServices
 90
        0
280
     0
281
     0
  0
CLASS
  1
PARAMSCOPE
  2
AcAdParamScope
  3
DesignerServices
 90
        0
280
     0
281
     0
  0
CLASS
  1
NAMEDAPPL
  2
AcAdNamedAppl
  3
DesignerServices
 90
        0
280
     0
281
     0
  0
CLASS
  1
AMDTDMMENUSTATE
  2
AmdtDmMenuState
  3
AcMechDwgViewMgmt
 90
        0
280
     0
281
     0
  0
CLASS
  1
AMDTAMMENUSTATE
  2
AmdtAmMenuState
  3
DesignerAssemblies
 90
        0
280
     0
281
     0
  0
CLASS
  1
ACAMPROJECT
  2
AcAmProject
  3
DesignerAssemblies
 90
        0
280
     0
281
     0
  0
CLASS
  1
ACAMGRCOMPDEF
  2
AcAmGrCompDef
  3
DesignerAssemblies
 90
        0
280
     0
281
     0
  0
CLASS
  1
ACCMCONTEXT
  2
AcCmContext
  3
DesignerAssemblies
 90
        0
280
     0
281
     0
  0
CLASS
  1
ACAMCOMPDEF
  2
AcAmCompDef
  3
DesignerAssemblies
 90
        0
280
     0
281
     0
  0
CLASS
  1
ACAMCOMPDEFMGR
  2
AcAmCompDefMgr
  3
DesignerAssemblies
 90
        0
280
     0
281
     0
  0
CLASS
  1
AMCONTEXTMGR
  2
AcAmContextMgr
  3
DesignerAssemblies
 90
        0
280
     0
281
     0
  0
CLASS
  1
ACAMCONTEXTMODELER
  2
AcAmContextModeler
  3
DesignerAssemblies
 90
        0
280
     0
281
     0
  0
CLASS
  1
ACMTHREADLINESTANDARDISO
  2
AmdtThreadLineStdISO
  3
"Amdt_StdImp|Product Description: AutoCAD Mechanical 2004 DX|Company: Autodesk"
 90
        0
280
     0
281
     0
  0
CLASS
  1
CATALOGSTATE
  2
AcAmCatalogState
  3
DesignerAssemblies
 90
        0
280
     0
281
     0
  0
CLASS
  1
ACAMGRCOMPDEFSET
  2
AcAmGrCompDefSet
  3
DesignerAssemblies
 90
        0
280
     0
281
     0
  0
CLASS
  1
AMDTBROWSERDBTAB
  2
AmdtBrowserDbTab
  3
McadcomServices
 90
        0
280
     0
281
     0
  0
CLASS
  1
CBROWSERAPPOBJECT
  2
CBrowserAppObject
  3
McadcomServices
 90
        0
280
     0
281
     0
  0
CLASS
  1
DM_PLACEHOLDER
  2
AcDmSelsetPlaceholder
  3
AcMechDwgViewMgmt
 90
        0
280
     0
281
     0
  0
CLASS
  1
TABLESTYLE
  2
AcDbTableStyle
  3
ObjectDBX Classes
 90
     2047
280
     0
281
     0
  0
CLASS
  1
VAACXREFPANELOBJECT
  2
VaAcXREFPanelObject
  3
VAAC_ADDIN
 90
    32768
280
     0
281
     0
  0
CLASS
  1
VAACIMAGEINVENTORY
  2
VaAcImageInventory
  3
VAAC_ADDIN
 90
    32768
280
     0
281
     0
  0
CLASS
  1
AMDTNOTETEMPLATEDB
  2
AmdtNoteTemplateDB
  3
AMDT_STDIMP_MODULE_NAME
 90
        0
280
     0
281
     0
  0
CLASS
  1
ACMBOM
  2
AcmBom
  3
"AcmSymBB|Product Description: AutoCAD Mechanical 2004 DX|Company: Autodesk"
 90
    32768
280
     0
281
     0
  0
CLASS
  1
AMDTFORMULAUPDATEDISPATCHER
  2
AmdtFormulaUpdateDispatcher
  3
AcMeServices
 90
    32768
280
     0
281
     0
  0
CLASS
  1
ACMPARTLIST
  2
AcmPartList
  3
"AcmSymBB|Product Description: AutoCAD Mechanical 2004 DX|Company: Autodesk"
 90
    33791
280
     0
281
     1
  0
CLASS
  1
ACAMGFILTERDAT
  2
AcAmgFilterDat
  3
"AcadM|Product Description: AutoCAD Mechanical 2000|Company: Autodesk"
 90
    32768
280
     0
281
     0
  0
CLASS
  1
DIMASSOC
  2
AcDbDimAssoc
  3
"AcDbDimAssoc|Product Desc:     AcDim ARX App For Dimension|Company:          Autodesk, Inc.|WEB Address:      www.autodesk.com"
 90
        0
280
     0
281
     0
  0
CLASS
  1
SORTENTSTABLE
  2
AcDbSortentsTable
  3
ObjectDBX Classes
 90
        0
280
     0
281
     0
  0
CLASS
  1
AMDTNOTE
  2
AmdtNote
  3
"AcmSymBB|Product Description: AutoCAD Mechanical 2004 DX|Company: Autodesk"
 90
    33791
280
     0
281
     1
  0
CLASS
  1
AMDTEDGESTANDARDISO13715
  2
AmdtEdgeStdISO13715
  3
"Amdt_StdImp|Product Description: AutoCAD Mechanical 2004 DX|Company: Autodesk"
 90
        0
280
     0
281
     0
  0
CLASS
  1
ACRFATTGENMGR
  2
AcRfAttGeneralMgr
  3
AcAttribServices
 90
    32768
280
     0
281
     0
  0
CLASS
  1
ASAPP
  2
AcAsAppObject
  3
AutoSurfServices
 90
        0
280
     0
281
     0
  0
CLASS
  1
IM_STATIC_MAN
  2
AcImStaticVarManager
  3
AcMeServices
 90
        0
280
     0
281
     0
  0
CLASS
  1
ACIMDBLSTATICVAR
  2
AcImDblStaticVar
  3
AcMeServices
 90
        0
280
     0
281
     0
  0
CLASS
  1
ACIMSTRSTATICVAR
  2
AcImStrStaticVar
  3
AcMeServices
 90
        0
280
     0
281
     0
  0
CLASS
  1
ACIMINTSTATICVAR
  2
AcImIntStaticVar
  3
AcMeServices
 90
        0
280
     0
281
     0
  0
CLASS
  1
ACASGREFMASTER
  2
AcAsGrefMaster
  3
AutoSurfResolverServices
 90
        0
280
     0
281
     0
  0
CLASS
  1
ACADGREFMODULE
  2
AcAdGrefModule
  3
AdGrefServices
 90
        0
280
     0
281
     0
  0
CLASS
  1
AMDTMAPISURFMOUDULE
  2
AmdtMApiSurfModule
  3
MApiSurfServices
 90
        0
280
     0
281
     0
  0
CLASS
  1
MAPIADMODULE
  2
MApiAdModule
  3
MApiAdServices
 90
        0
280
     0
281
     0
  0
ENDSEC
  0
SECTION
  2
TABLES
  0
TABLE
  2
VPORT
  5
8
330
0
100
AcDbSymbolTable
 70
     9
  0
VPORT
  5
4F9B
330
8
100
AcDbSymbolTableRecord
100
AcDbViewportTableRecord
  2
*Active
 70
     0
 10
0.0
 20
0.0
 11
1.0
 21
1.0
 12
-241.3836722955736
 22
38.23461329956035
 13
0.0
 23
0.0
 14
2.5
 24
2.5
 15
10.0
 25
10.0
 16
0.0
 26
0.0
 36
1.0
 17
929.8150558886097
 27
372.168251500793
 37
0.0
 40
952.798910536746
 41
1.642857142857142
 42
50.0
 43
0.0
 44
0.0
 50
0.0
 51
0.0
 71
     0
 72
   100
 73
     1
 74
     3
 75
     0
 76
     0
 77
     0
 78
     0
281
     0
 65
     0
110
0.0
120
0.0
130
0.0
111
1.0
121
0.0
131
0.0
112
0.0
122
1.0
132
0.0
 79
     0
146
0.0
  0
ENDTAB
  0
TABLE
  2
LTYPE
  5
5
330
0
100
AcDbSymbolTable
 70
    16
  0
LTYPE
  5
14
330
5
100
AcDbSymbolTableRecord
100
AcDbLinetypeTableRecord
  2
ByBlock
 70
     0
  3

 72
    65
 73
     0
 40
0.0
  0
LTYPE
  5
15
330
5
100
AcDbSymbolTableRecord
100
AcDbLinetypeTableRecord
  2
ByLayer
 70
     0
  3

 72
    65
 73
     0
 40
0.0
  0
LTYPE
  5
16
330
5
100
AcDbSymbolTableRecord
100
AcDbLinetypeTableRecord
  2
Continuous
 70
     0
  3
Solid line
 72
    65
 73
     0
 40
0.0
  0
LTYPE
  5
64
330
5
100
AcDbSymbolTableRecord
100
AcDbLinetypeTableRecord
  2
AM_ISO02W050
 70
     0
  3
__ __ __ __ __ __ __ __ __ __ __ __ __ __ __
 72
    65
 73
     2
 40
7.5
 49
6.0
 74
     0
 49
-1.5
 74
     0
  0
LTYPE
  5
65
330
5
100
AcDbSymbolTableRecord
100
AcDbLinetypeTableRecord
  2
AM_ISO08W050
 70
     0
  3
____ . ____ . ____ . ____ . ____ . ____ . ____
 72
    65
 73
     4
 40
18.0
 49
12.0
 74
     0
 49
-1.5
 74
     0
 49
3.0
 74
     0
 49
-1.5
 74
     0
  0
LTYPE
  5
66
330
5
100
AcDbSymbolTableRecord
100
AcDbLinetypeTableRecord
  2
AM_ISO09W050
 70
     0
  3
_____ . . _____ . . _____ . . ____ .. ____
 72
    65
 73
     6
 40
22.5
 49
12.0
 74
     0
 49
-1.5
 74
     0
 49
3.0
 74
     0
 49
-1.5
 74
     0
 49
3.0
 74
     0
 49
-1.5
 74
     0
  0
LTYPE
  5
67
330
5
100
AcDbSymbolTableRecord
100
AcDbLinetypeTableRecord
  2
Amconstr
 70
     0
  3
_______________________
 72
    65
 73
     2
 40
9999.0
 49
9999.0
 74
     0
 49
0.0
 74
     0
  0
LTYPE
  5
68
330
5
100
AcDbSymbolTableRecord
100
AcDbLinetypeTableRecord
  2
AM_ISO08W050x2
 70
     0
  3
__ . __ . __ . __ . __ . __
 72
    65
 73
     4
 40
9.0
 49
6.0
 74
     0
 49
-0.75
 74
     0
 49
1.5
 74
     0
 49
-0.75
 74
     0
  0
LTYPE
  5
69
330
5
100
AcDbSymbolTableRecord
100
AcDbLinetypeTableRecord
  2
AM_ISO02W050x2
 70
     0
  3
 _ _ _ _ _ _ _ _ _ _ _ _
 72
    65
 73
     2
 40
3.75
 49
3.0
 74
     0
 49
-0.75
 74
     0
  0
LTYPE
  5
6C
330
5
100
AcDbSymbolTableRecord
100
AcDbLinetypeTableRecord
  2
Amzigzag
 70
     0
  3
/\/-/\/-/\/-/\/-/\/-/\/
 72
    65
 73
     2
 40
11.0001
 49
0.0001
 74
     4
 75
   135
340
6B
 46
0.04
 50
0.0
 44
0.0
 45
0.0
 49
-11.0
 74
     0
  0
LTYPE
  5
7A
330
5
100
AcDbSymbolTableRecord
100
AcDbLinetypeTableRecord
  2
ACISOWELD
 70
     0
  3
_ _ _ _ _
 72
    65
 73
     2
 40
2.0
 49
2.0
 74
     0
 49
-1.0
 74
     0
  0
LTYPE
  5
7B
330
5
100
AcDbSymbolTableRecord
100
AcDbLinetypeTableRecord
  2
ACISOTGB
 70
     0
  3
__ . . __ . .
 72
    65
 73
     6
 40
9.0
 49
4.0
 74
     0
 49
-1.0
 74
     0
 49
1.0
 74
     0
 49
-1.0
 74
     0
 49
1.0
 74
     0
 49
-1.0
 74
     0
  0
LTYPE
  5
7C
330
5
100
AcDbSymbolTableRecord
100
AcDbLinetypeTableRecord
  2
ACISOTGL
 70
     0
  3
_ _ _ _ _
 72
    65
 73
     2
 40
3.0
 49
2.0
 74
     0
 49
-1.0
 74
     0
  0
LTYPE
  5
7E
330
5
100
AcDbSymbolTableRecord
100
AcDbLinetypeTableRecord
  2
CENTER
 70
     0
  3
__ . __
 72
    65
 73
     4
 40
7.0
 49
4.0
 74
     0
 49
-1.0
 74
     0
 49
1.0
 74
     0
 49
-1.0
 74
     0
  0
LTYPE
  5
D8
330
5
100
AcDbSymbolTableRecord
100
AcDbLinetypeTableRecord
  2
HIDDEN
 70
     0
  3
Hidden __ __ __ __ __ __ __ __ __ __ __ __ __ _
 72
    65
 73
     2
 40
9.524999999999998
 49
6.349999999999999
 74
     0
 49
-3.174999999999999
 74
     0
  0
LTYPE
  5
D9
330
5
100
AcDbSymbolTableRecord
100
AcDbLinetypeTableRecord
  2
PHANTOM2
 70
     0
  3
Phantom (.5x) ___ _ _ ___ _ _ ___ _ _ ___ _ _
 72
    65
 73
     6
 40
31.75
 49
15.875
 74
     0
 49
-3.174999999999999
 74
     0
 49
3.174999999999999
 74
     0
 49
-3.174999999999999
 74
     0
 49
3.174999999999999
 74
     0
 49
-3.174999999999999
 74
     0
  0
LTYPE
  5
4497
330
5
100
AcDbSymbolTableRecord
100
AcDbLinetypeTableRecord
  2
ASULTYPE
 70
     0
  3
實線
 72
    65
 73
     2
 40
3.0
 49
2.5
 74
     0
 49
0.5
 74
     0
  0
LTYPE
  5
4498
330
5
100
AcDbSymbolTableRecord
100
AcDbLinetypeTableRecord
  2
ASVLTYPE
 70
     0
  3
__ __ __ __ __ __ __ __ __ __ __ __ __ __ __ __ __ __ __ __ __
 72
    65
 73
     2
 40
0.75
 49
0.5
 74
     0
 49
-0.25
 74
     0
  0
ENDTAB
  0
TABLE
  2
LAYER
  5
2
102
{ACAD_XDICTIONARY
360
3F9
102
}
330
0
100
AcDbSymbolTable
 70
     8
  0
LAYER
  5
10
330
2
100
AcDbSymbolTableRecord
100
AcDbLayerTableRecord
  2
0
 70
     0
 62
     7
  6
Continuous
370
    -3
390
F
  0
LAYER
  5
B51
330
2
100
AcDbSymbolTableRecord
100
AcDbLayerTableRecord
  2
Defpoints
 70
     0
 62
     7
  6
Continuous
290
     0
370
    -3
390
F
  0
LAYER
  5
1456
330
2
100
AcDbSymbolTableRecord
100
AcDbLayerTableRecord
  2
AM_5
 70
     0
 62
     5
  6
Continuous
370
    50
390
F
  0
LAYER
  5
258E
330
2
100
AcDbSymbolTableRecord
100
AcDbLayerTableRecord
  2
LOGO
 70
     0
 62
     7
  6
Continuous
370
    -3
390
F
  0
LAYER
  5
3B38
330
2
100
AcDbSymbolTableRecord
100
AcDbLayerTableRecord
  2
CENTER
 70
     0
 62
     1
  6
CENTER
370
    -3
390
F
  0
LAYER
  5
3B39
330
2
100
AcDbSymbolTableRecord
100
AcDbLayerTableRecord
  2
HIDDEN
 70
     0
 62
     3
  6
AM_ISO02W050x2
370
    -3
390
F
  0
LAYER
  5
3B3A
330
2
100
AcDbSymbolTableRecord
100
AcDbLayerTableRecord
  2
假想
 70
     0
 62
     2
  6
AM_ISO08W050x2
370
    -3
390
F
1001
AcAecLayerStandard
1000

1000

  0
LAYER
  5
44F1
330
2
100
AcDbSymbolTableRecord
100
AcDbLayerTableRecord
  2
AM_VIS
 70
     0
 62
     7
  6
Continuous
370
    50
390
F
  0
ENDTAB
  0
TABLE
  2
STYLE
  5
3
330
0
100
AcDbSymbolTable
 70
     5
  0
STYLE
  5
11
330
3
100
AcDbSymbolTableRecord
100
AcDbTextStyleTableRecord
  2
STANDARD
 70
     0
 40
0.0
 41
1.0
 50
0.0
 71
     0
 42
3.0
  3
ISOCP.SHX
  4
CHINESET.SHX
  0
STYLE
  5
6B
330
3
100
AcDbSymbolTableRecord
100
AcDbTextStyleTableRecord
  2

 70
     1
 40
0.0
 41
1.0
 50
0.0
 71
     0
 42
2.5
  3
ltypeshp.shx
  4

  0
STYLE
  5
6D
330
3
100
AcDbSymbolTableRecord
100
AcDbTextStyleTableRecord
  2
ACISOTS
 70
     0
 40
1.0
 41
1.0
 50
0.0
 71
     0
 42
1.0
  3
isocp.shx
  4
chineset.shx
  0
STYLE
  5
79
330
3
100
AcDbSymbolTableRecord
100
AcDbTextStyleTableRecord
  2
ACISOGDT
 70
     0
 40
0.0
 41
1.0
 50
0.0
 71
     0
 42
2.5
  3
amgdt.shx
  4
chineset.shx
  0
STYLE
  5
B5A
330
3
100
AcDbSymbolTableRecord
100
AcDbTextStyleTableRecord
  2
CHINESET
 70
     0
 40
0.0
 41
1.0
 50
0.0
 71
     0
 42
2.5
  3
simplex.shx
  4
CHINESET.shx
  0
ENDTAB
  0
TABLE
  2
VIEW
  5
6
330
0
100
AcDbSymbolTable
 70
     0
  0
ENDTAB
  0
TABLE
  2
UCS
  5
7
330
0
100
AcDbSymbolTable
 70
     0
  0
ENDTAB
  0
TABLE
  2
APPID
  5
9
330
0
100
AcDbSymbolTable
 70
    25
  0
APPID
  5
12
330
9
100
AcDbSymbolTableRecord
100
AcDbRegAppTableRecord
  2
ACAD
 70
     0
  0
APPID
  5
46
330
9
100
AcDbSymbolTableRecord
100
AcDbRegAppTableRecord
  2
MCAD_NO_VIS
 70
     0
  0
APPID
  5
47
330
9
100
AcDbSymbolTableRecord
100
AcDbRegAppTableRecord
  2
ACAD_TEMP_GRAPHIC
 70
     0
  0
APPID
  5
58
330
9
100
AcDbSymbolTableRecord
100
AcDbRegAppTableRecord
  2
ACATTRIBSERVICES
 70
     0
  0
APPID
  5
EE
330
9
100
AcDbSymbolTableRecord
100
AcDbRegAppTableRecord
  2
AD_DRAW
 70
     0
  0
APPID
  5
10C
330
9
100
AcDbSymbolTableRecord
100
AcDbRegAppTableRecord
  2
DESIGNERASSEMBLIES
 70
     0
  0
APPID
  5
111
330
9
100
AcDbSymbolTableRecord
100
AcDbRegAppTableRecord
  2
ACADM_DIM_EDIT
 70
     0
  0
APPID
  5
112
330
9
100
AcDbSymbolTableRecord
100
AcDbRegAppTableRecord
  2
AMDT_DM_ADJ
 70
     0
  0
APPID
  5
22C
330
9
100
AcDbSymbolTableRecord
100
AcDbRegAppTableRecord
  2
ACAD_DSTYLE_DIMTEXT_FILL
 70
     0
  0
APPID
  5
452
330
9
100
AcDbSymbolTableRecord
100
AcDbRegAppTableRecord
  2
GENIUS_GENOENT_13
 70
     0
  0
APPID
  5
453
330
9
100
AcDbSymbolTableRecord
100
AcDbRegAppTableRecord
  2
GENIUS_GENOBJ-N-CRS_13
 70
     0
  0
APPID
  5
454
330
9
100
AcDbSymbolTableRecord
100
AcDbRegAppTableRecord
  2
GENIUS_GENOLIS_13
 70
     0
  0
APPID
  5
455
330
9
100
AcDbSymbolTableRecord
100
AcDbRegAppTableRecord
  2
GENIUS_GENODEF_13
 70
     0
  0
APPID
  5
456
330
9
100
AcDbSymbolTableRecord
100
AcDbRegAppTableRecord
  2
GENIUS_GENOREF_13
 70
     0
  0
APPID
  5
6F3
330
9
100
AcDbSymbolTableRecord
100
AcDbRegAppTableRecord
  2
ACAD_PSEXT
 70
     0
  0
APPID
  5
808
330
9
100
AcDbSymbolTableRecord
100
AcDbRegAppTableRecord
  2
GENIUS_GENDTOL_13
 70
     0
  0
APPID
  5
B60
330
9
100
AcDbSymbolTableRecord
100
AcDbRegAppTableRecord
  2
AcAecLayerStandard
 70
     0
  0
APPID
  5
160A
330
9
100
AcDbSymbolTableRecord
100
AcDbRegAppTableRecord
  2
GENIUS_GENOBJ-N-HTC_13
 70
     0
  0
APPID
  5
160B
330
9
100
AcDbSymbolTableRecord
100
AcDbRegAppTableRecord
  2
GENIUS_GENHATCH_13
 70
     0
  0
APPID
  5
258F
330
9
100
AcDbSymbolTableRecord
100
AcDbRegAppTableRecord
  2
GENIUS_GENREC_14
 70
     0
  0
APPID
  5
2590
330
9
100
AcDbSymbolTableRecord
100
AcDbRegAppTableRecord
  2
GENIUS_GENOBJ-N-REC_13
 70
     0
  0
APPID
  5
4418
330
9
100
AcDbSymbolTableRecord
100
AcDbRegAppTableRecord
  2
GENIUS_GENDIM_13
 70
     0
  0
APPID
  5
4419
330
9
100
AcDbSymbolTableRecord
100
AcDbRegAppTableRecord
  2
GENIUS_GE3DTOL_13
 70
     0
  0
APPID
  5
4499
330
9
100
AcDbSymbolTableRecord
100
AcDbRegAppTableRecord
  2
ASURF_PCURVE_APPNAME
 70
     0
  0
APPID
  5
449E
330
9
100
AcDbSymbolTableRecord
100
AcDbRegAppTableRecord
  2
AMG_3D2D_5.0
 70
     0
  0
ENDTAB
  0
TABLE
  2
DIMSTYLE
  5
A
330
0
100
AcDbSymbolTable
 70
     9
100
AcDbDimStyleTable
 71
     3
340
81
340
8B
340
86
  0
DIMSTYLE
105
81
330
A
100
AcDbSymbolTableRecord
100
AcDbDimStyleTableRecord
  2
AM_ISO
 70
     0
  4
"
 41
3.0
 42
1.0
 43
11.0
 44
1.5
 47
0.1
 48
0.1
 73
     0
 74
     0
 77
     1
 78
     8
 79
     2
140
3.5
141
0.0
143
0.0393701
146
0.6
147
1.1
172
     1
176
   256
177
   256
178
   256
271
     2
272
     2
283
     0
284
     8
340
11
371
    -1
372
    -1
  0
DIMSTYLE
105
82
102
{ACAD_REACTORS
330
3FC0
102
}
330
A
100
AcDbSymbolTableRecord
100
AcDbDimStyleTableRecord
  2
AM_ISO$3
 70
     0
  4
"
 41
3.0
 42
1.0
 43
11.0
 44
1.5
 47
0.1
 48
0.1
 73
     0
 77
     1
 78
     8
 79
     2
140
3.5
141
0.0
143
0.0393701
146
0.6
147
1.1
176
   256
177
   256
178
   256
271
     2
272
     2
283
     0
284
     8
288
     1
289
     0
340
11
371
    -1
372
    -1
  0
DIMSTYLE
105
83
102
{ACAD_REACTORS
330
3FBF
102
}
330
A
100
AcDbSymbolTableRecord
100
AcDbDimStyleTableRecord
  2
AM_ISO$4
 70
     0
  4
"
 41
3.0
 42
1.0
 43
11.0
 44
1.5
 47
0.1
 48
0.1
 73
     0
 77
     1
 78
     8
 79
     2
140
3.5
141
0.0
143
0.0393701
146
0.6
147
1.1
176
   256
177
   256
178
   256
271
     2
272
     2
283
     0
284
     8
288
     1
289
     0
340
11
371
    -1
372
    -1
  0
DIMSTYLE
105
84
330
A
100
AcDbSymbolTableRecord
100
AcDbDimStyleTableRecord
  2
AM_ISO$6
 70
     0
  4
"
 41
3.0
 42
1.0
 43
11.0
 44
1.5
 47
0.1
 48
0.1
 73
     0
 74
     0
 78
     8
 79
     2
140
3.5
141
0.0
143
0.0393701
146
0.6
147
1.1
172
     1
176
   256
177
   256
178
   256
271
     2
272
     2
283
     0
284
     8
340
11
371
    -1
372
    -1
  0
DIMSTYLE
105
85
330
A
100
AcDbSymbolTableRecord
100
AcDbDimStyleTableRecord
  2
AM_ISO$7
 70
     0
  4
"
 41
3.0
 42
1.0
 43
11.0
 44
1.5
 47
0.1
 48
0.1
 73
     0
 74
     0
 77
     1
 78
     8
 79
     2
140
5.0
141
0.0
143
0.0393701
146
0.6
147
1.1
172
     1
176
   256
177
   256
178
   256
271
     2
272
     2
283
     0
284
     8
340
11
371
    -1
372
    -1
  0
DIMSTYLE
105
86
330
A
100
AcDbSymbolTableRecord
100
AcDbDimStyleTableRecord
  2
AM_ISO$SF
 70
     0
  4
"
 41
2.5
 42
1.0
 43
10.0
 44
1.0
 47
0.1
 48
0.1
 73
     0
 74
     0
 75
     1
 76
     1
 77
     1
 78
     8
 79
     2
140
3.5
141
0.0
143
0.0393701
146
0.71
147
1.5
172
     1
176
   256
177
   256
178
     2
271
     2
272
     3
274
     4
283
     0
284
     8
340
11
371
    -1
372
    -1
  0
DIMSTYLE
105
8B
330
A
100
AcDbSymbolTableRecord
100
AcDbDimStyleTableRecord
  2
AM_ISO$SH
 70
     0
  4
"
 41
2.5
 42
1.0
 43
10.0
 44
1.0
 47
0.1
 48
0.1
 73
     0
 74
     0
 75
     1
 76
     1
 77
     1
 78
     8
 79
     2
140
3.5
141
0.0
143
0.0393701
144
2.0
146
0.71
147
1.5
172
     1
173
     1
176
   256
177
   256
178
     2
271
     2
272
     3
274
     4
283
     0
284
     8
340
11
343
87
371
    -1
372
    -1
  0
DIMSTYLE
105
40B
102
{ACAD_REACTORS
330
3E07
330
4046
330
4049
330
404A
330
404B
330
4079
330
407C
330
407F
330
4080
330
4084
330
4087
330
408A
330
408B
330
3FB6
330
3FB9
330
3FBA
330
3FBB
330
3FBC
330
3FC2
330
3FC3
330
4081
102
}
330
A
100
AcDbSymbolTableRecord
100
AcDbDimStyleTableRecord
  2
AM_ISO$0
 70
     0
  4
"
 41
3.0
 42
1.0
 43
11.0
 44
1.5
 47
0.1
 48
0.1
 73
     0
 74
     0
 77
     1
 78
     8
 79
     2
140
3.5
141
0.0
143
0.0393701
146
0.6
147
1.1
172
     1
176
   256
177
   256
178
   256
271
     2
272
     2
283
     0
284
     8
340
11
371
    -1
372
    -1
  0
DIMSTYLE
105
44F2
330
A
100
AcDbSymbolTableRecord
100
AcDbDimStyleTableRecord
  2
AM_ANSI
 70
     0
  4
mm
 41
0.1
 42
0.05
 43
0.5
 44
0.1
 47
0.1
 48
0.1
 78
     7
 79
     2
140
0.12
141
0.0
146
0.71
147
0.06
176
   256
177
   256
178
     2
274
     4
284
     7
340
11
371
    -1
372
    -1
  0
ENDTAB
  0
TABLE
  2
BLOCK_RECORD
  5
1
330
0
100
AcDbSymbolTable
 70
    29
  0
BLOCK_RECORD
  5
1F
102
{ACAD_XDICTIONARY
360
8F
102
}
330
1
100
AcDbSymbolTableRecord
100
AcDbBlockTableRecord
  2
*Model_Space
340
22
  0
BLOCK_RECORD
  5
1B
330
1
100
AcDbSymbolTableRecord
100
AcDbBlockTableRecord
  2
*Paper_Space
340
1E
  0
BLOCK_RECORD
  5
23
330
1
100
AcDbSymbolTableRecord
100
AcDbBlockTableRecord
  2
*Paper_Space0
340
26
  0
BLOCK_RECORD
  5
87
330
1
100
AcDbSymbolTableRecord
100
AcDbBlockTableRecord
  2
GENAXEH
340
0
  0
BLOCK_RECORD
  5
32ED
330
1
100
AcDbSymbolTableRecord
100
AcDbBlockTableRecord
  2
_DotSmall
340
0
102
{BLKREFS
331
43DA
331
43EC
102
}
  0
BLOCK_RECORD
  5
3A1C
330
1
100
AcDbSymbolTableRecord
100
AcDbBlockTableRecord
  2
_None
340
0
  0
BLOCK_RECORD
  5
408C
330
1
100
AcDbSymbolTableRecord
100
AcDbBlockTableRecord
  2
*D4
340
0
  0
BLOCK_RECORD
  5
4098
330
1
100
AcDbSymbolTableRecord
100
AcDbBlockTableRecord
  2
*D5
340
0
  0
BLOCK_RECORD
  5
40A4
330
1
100
AcDbSymbolTableRecord
100
AcDbBlockTableRecord
  2
*D6
340
0
  0
BLOCK_RECORD
  5
40AE
330
1
100
AcDbSymbolTableRecord
100
AcDbBlockTableRecord
  2
*D7
340
0
  0
BLOCK_RECORD
  5
40BA
330
1
100
AcDbSymbolTableRecord
100
AcDbBlockTableRecord
  2
*D8
340
0
  0
BLOCK_RECORD
  5
40C6
330
1
100
AcDbSymbolTableRecord
100
AcDbBlockTableRecord
  2
*D9
340
0
  0
BLOCK_RECORD
  5
40D2
330
1
100
AcDbSymbolTableRecord
100
AcDbBlockTableRecord
  2
*D10
340
0
  0
BLOCK_RECORD
  5
40DE
330
1
100
AcDbSymbolTableRecord
100
AcDbBlockTableRecord
  2
*D11
340
0
  0
BLOCK_RECORD
  5
40EA
330
1
100
AcDbSymbolTableRecord
100
AcDbBlockTableRecord
  2
*D12
340
0
  0
BLOCK_RECORD
  5
40F8
330
1
100
AcDbSymbolTableRecord
100
AcDbBlockTableRecord
  2
*D13
340
0
  0
BLOCK_RECORD
  5
4104
330
1
100
AcDbSymbolTableRecord
100
AcDbBlockTableRecord
  2
*D14
340
0
  0
BLOCK_RECORD
  5
4110
330
1
100
AcDbSymbolTableRecord
100
AcDbBlockTableRecord
  2
*D15
340
0
  0
BLOCK_RECORD
  5
411C
330
1
100
AcDbSymbolTableRecord
100
AcDbBlockTableRecord
  2
*D16
340
0
  0
BLOCK_RECORD
  5
4125
330
1
100
AcDbSymbolTableRecord
100
AcDbBlockTableRecord
  2
*D17
340
0
  0
BLOCK_RECORD
  5
412E
330
1
100
AcDbSymbolTableRecord
100
AcDbBlockTableRecord
  2
*D18
340
0
  0
BLOCK_RECORD
  5
4145
330
1
100
AcDbSymbolTableRecord
100
AcDbBlockTableRecord
  2
*D19
340
0
  0
BLOCK_RECORD
  5
416E
330
1
100
AcDbSymbolTableRecord
100
AcDbBlockTableRecord
  2
*D20
340
0
  0
BLOCK_RECORD
  5
417A
330
1
100
AcDbSymbolTableRecord
100
AcDbBlockTableRecord
  2
*D21
340
0
  0
BLOCK_RECORD
  5
4198
330
1
100
AcDbSymbolTableRecord
100
AcDbBlockTableRecord
  2
*D22
340
0
  0
BLOCK_RECORD
  5
41A4
330
1
100
AcDbSymbolTableRecord
100
AcDbBlockTableRecord
  2
*D23
340
0
  0
BLOCK_RECORD
  5
41B0
330
1
100
AcDbSymbolTableRecord
100
AcDbBlockTableRecord
  2
*D24
340
0
  0
BLOCK_RECORD
  5
41F4
330
1
100
AcDbSymbolTableRecord
100
AcDbBlockTableRecord
  2
*D25
340
0
  0
BLOCK_RECORD
  5
4219
330
1
100
AcDbSymbolTableRecord
100
AcDbBlockTableRecord
  2
*D26
340
0
  0
ENDTAB
  0
ENDSEC
  0
SECTION
  2
BLOCKS
  0
BLOCK
  5
20
330
1F
100
AcDbEntity
  8
0
100
AcDbBlockBegin
  2
*Model_Space
 70
     0
 10
0.0
 20
0.0
 30
0.0
  3
*Model_Space
  1

  0
ENDBLK
  5
21
330
1F
100
AcDbEntity
  8
0
100
AcDbBlockEnd
  0
BLOCK
  5
1C
330
1B
100
AcDbEntity
 67
     1
  8
0
100
AcDbBlockBegin
  2
*Paper_Space
 70
     0
 10
0.0
 20
0.0
 30
0.0
  3
*Paper_Space
  1

  0
ENDBLK
  5
1D
330
1B
100
AcDbEntity
 67
     1
  8
0
100
AcDbBlockEnd
  0
BLOCK
  5
24
330
23
100
AcDbEntity
  8
0
100
AcDbBlockBegin
  2
*Paper_Space0
 70
     0
 10
0.0
 20
0.0
 30
0.0
  3
*Paper_Space0
  1

  0
ENDBLK
  5
25
330
23
100
AcDbEntity
  8
0
100
AcDbBlockEnd
  0
BLOCK
  5
89
330
87
100
AcDbEntity
  8
0
100
AcDbBlockBegin
  2
GENAXEH
 70
     0
 10
0.0
 20
0.0
 30
0.0
  3
GENAXEH
  1

  0
LINE
  5
88
330
87
100
AcDbEntity
  8
0
100
AcDbLine
 10
-1.0
 20
0.0
 30
0.0
 11
1.0
 21
0.0
 31
0.0
  0
ENDBLK
  5
8A
330
87
100
AcDbEntity
  8
0
100
AcDbBlockEnd
  0
BLOCK
  5
32EE
330
32ED
100
AcDbEntity
  8
0
100
AcDbBlockBegin
  2
_DotSmall
 70
     0
 10
0.0
 20
0.0
 30
0.0
  3
_DotSmall
  1

  0
LWPOLYLINE
  5
32EF
330
32ED
100
AcDbEntity
  8
0
  6
ByBlock
 62
     0
100
AcDbPolyline
 90
        2
 70
     1
 43
0.5
 10
-0.0625
 20
0.0
 42
1.0
 10
0.0625
 20
0.0
 42
1.0
  0
ENDBLK
  5
32F0
330
32ED
100
AcDbEntity
  8
0
100
AcDbBlockEnd
  0
BLOCK
  5
3A1D
330
3A1C
100
AcDbEntity
  8
0
100
AcDbBlockBegin
  2
_None
 70
     0
 10
0.0
 20
0.0
 30
0.0
  3
_None
  1

  0
ENDBLK
  5
3A1E
330
3A1C
100
AcDbEntity
  8
0
100
AcDbBlockEnd
  0
BLOCK
  5
4096
330
408C
100
AcDbEntity
  8
0
100
AcDbBlockBegin
  2
*D4
 70
     1
 10
0.0
 20
0.0
 30
0.0
  3
*D4
  1

  0
LINE
  5
4EBB
330
408C
100
AcDbEntity
  8
AM_5
100
AcDbLine
 10
662.2200580959696
 20
200.4263725154725
 30
0.0
 11
662.2200580959696
 21
171.2862531007345
 31
0.0
  0
LINE
  5
4EBC
330
408C
100
AcDbEntity
  8
AM_5
100
AcDbLine
 10
610.2200580959686
 20
200.2192657342858
 30
0.0
 11
610.2200580959686
 21
171.2862531007345
 31
0.0
  0
LINE
  5
4EBD
330
408C
100
AcDbEntity
  8
AM_5
100
AcDbLine
 10
656.2200580959697
 20
174.2862531007345
 30
0.0
 11
616.2200580959686
 21
174.2862531007345
 31
0.0
  0
SOLID
  5
4EBE
330
408C
100
AcDbEntity
  8
AM_5
100
AcDbTrace
 10
656.2200580959697
 20
175.2862531007345
 30
0.0
 11
656.2200580959697
 21
173.2862531007345
 31
0.0
 12
662.2200580959696
 22
174.2862531007345
 32
0.0
 13
662.2200580959696
 23
174.2862531007345
 33
0.0
  0
SOLID
  5
4EBF
330
408C
100
AcDbEntity
  8
AM_5
100
AcDbTrace
 10
616.2200580959686
 20
175.2862531007345
 30
0.0
 11
616.2200580959686
 21
173.2862531007345
 31
0.0
 12
610.2200580959686
 22
174.2862531007345
 32
0.0
 13
610.2200580959686
 23
174.2862531007345
 33
0.0
  0
MTEXT
  5
4EC0
330
408C
100
AcDbEntity
  8
AM_5
100
AcDbMText
 10
636.2200580959687
 20
179.9869420771124
 30
0.0
 40
7.0
 41
0.0
 71
     5
 72
     1
  1
52
 73
     1
 44
1.0
1001
ACAD
1000
MTEXTBEGIN
1070
    73
1070
     1
1070
    44
1040
1.0
1070
    74
1070
     0
1000
MTEXTEND
  0
POINT
  5
4EC1
330
408C
100
AcDbEntity
  8
Defpoints
 62
     0
100
AcDbPoint
 10
662.2200580959696
 20
202.4263725154725
 30
0.0
  0
POINT
  5
4EC2
330
408C
100
AcDbEntity
  8
Defpoints
 62
     0
100
AcDbPoint
 10
610.2200580959686
 20
202.2192657342858
 30
0.0
  0
POINT
  5
4EC3
330
408C
100
AcDbEntity
  8
Defpoints
 62
     0
100
AcDbPoint
 10
610.2200580959686
 20
174.2862531007345
 30
0.0
  0
ENDBLK
  5
4097
330
408C
100
AcDbEntity
  8
0
100
AcDbBlockEnd
  0
BLOCK
  5
4225
330
4098
100
AcDbEntity
  8
0
100
AcDbBlockBegin
  2
*D5
 70
     1
 10
0.0
 20
0.0
 30
0.0
  3
*D5
  1

  0
LINE
  5
43D4
330
4098
100
AcDbEntity
  8
AM_5
100
AcDbLine
 10
795.6887659090331
 20
505.5715889547529
 30
0.0
 11
795.6887659090331
 21
524.0715894510026
 31
0.0
  0
LINE
  5
43D5
330
4098
100
AcDbEntity
  8
AM_5
100
AcDbLine
 10
803.7887655676133
 20
505.5715894510025
 30
0.0
 11
803.7887655676133
 21
524.0715894510026
 31
0.0
  0
LINE
  5
43D6
330
4098
100
AcDbEntity
  8
AM_5
100
AcDbLine
 10
789.6887659090331
 20
521.0715894510026
 30
0.0
 11
783.6887659090331
 21
521.0715894510026
 31
0.0
  0
LINE
  5
43D7
330
4098
100
AcDbEntity
  8
AM_5
100
AcDbLine
 10
803.7887655676133
 20
521.0715894510026
 30
0.0
 11
809.7887655676132
 21
521.0715894510026
 31
0.0
  0
LINE
  5
43D8
330
4098
100
AcDbEntity
  8
AM_5
100
AcDbLine
 10
795.6887659090331
 20
521.0715894510026
 30
0.0
 11
803.7887655676133
 21
521.0715894510026
 31
0.0
  0
SOLID
  5
43D9
330
4098
100
AcDbEntity
  8
AM_5
100
AcDbTrace
 10
789.6887659090331
 20
522.0715894510026
 30
0.0
 11
789.6887659090331
 21
520.0715894510026
 31
0.0
 12
795.6887659090331
 22
521.0715894510026
 32
0.0
 13
795.6887659090331
 23
521.0715894510026
 33
0.0
  0
INSERT
  5
43DA
330
4098
100
AcDbEntity
  8
AM_5
100
AcDbBlockReference
  2
_DotSmall
 10
803.7887655676133
 20
521.0715894510026
 30
0.0
 41
6.0
 42
6.0
 43
6.0
 50
180.0
  0
MTEXT
  5
43DB
330
4098
100
AcDbEntity
  8
AM_5
100
AcDbMText
 10
799.7387657383232
 20
526.7715894510026
 30
0.0
 40
7.0
 41
0.0
 71
     5
 72
     1
  1
8
 73
     1
 44
1.0
1001
ACAD
1000
MTEXTBEGIN
1070
    73
1070
     1
1070
    44
1040
1.0
1070
    74
1070
     0
1000
MTEXTEND
  0
POINT
  5
43DC
330
4098
100
AcDbEntity
  8
Defpoints
 62
     0
100
AcDbPoint
 10
795.6887659090331
 20
503.5715889547528
 30
0.0
  0
POINT
  5
43DD
330
4098
100
AcDbEntity
  8
Defpoints
 62
     0
100
AcDbPoint
 10
803.7887655676133
 20
503.5715894510025
 30
0.0
  0
POINT
  5
43DE
330
4098
100
AcDbEntity
  8
Defpoints
 62
     0
100
AcDbPoint
 10
803.7887655676133
 20
521.0715894510026
 30
0.0
  0
ENDBLK
  5
4226
330
4098
100
AcDbEntity
  8
0
100
AcDbBlockEnd
  0
BLOCK
  5
40AC
330
40A4
100
AcDbEntity
  8
0
100
AcDbBlockBegin
  2
*D6
 70
     1
 10
0.0
 20
0.0
 30
0.0
  3
*D6
  1

  0
LINE
  5
43DF
330
40A4
100
AcDbEntity
  8
AM_5
100
AcDbLine
 10
818.7887655676131
 20
505.5715894510025
 30
0.0
 11
818.7887655676131
 21
524.0715894510026
 31
0.0
  0
LINE
  5
43E0
330
40A4
100
AcDbEntity
  8
AM_5
100
AcDbLine
 10
803.7887655676133
 20
505.5715894510025
 30
0.0
 11
803.7887655676133
 21
524.0715894510026
 31
0.0
  0
LINE
  5
43E1
330
40A4
100
AcDbEntity
  8
AM_5
100
AcDbLine
 10
818.7887655676131
 20
521.0715894510026
 30
0.0
 11
803.7887655676133
 21
521.0715894510026
 31
0.0
  0
MTEXT
  5
43E2
330
40A4
100
AcDbEntity
  8
AM_5
100
AcDbMText
 10
811.2887655676132
 20
526.7715894510026
 30
0.0
 40
7.0
 41
0.0
 71
     5
 72
     1
  1
14
 73
     1
 44
1.0
1001
ACAD
1000
MTEXTBEGIN
1070
    73
1070
     1
1070
    44
1040
1.0
1070
    74
1070
     0
1000
MTEXTEND
  0
POINT
  5
43E3
330
40A4
100
AcDbEntity
  8
Defpoints
 62
     0
100
AcDbPoint
 10
818.7887655676131
 20
503.5715894510025
 30
0.0
  0
POINT
  5
43E4
330
40A4
100
AcDbEntity
  8
Defpoints
 62
     0
100
AcDbPoint
 10
803.7887655676133
 20
503.5715894510025
 30
0.0
  0
POINT
  5
43E5
330
40A4
100
AcDbEntity
  8
Defpoints
 62
     0
100
AcDbPoint
 10
803.7887655676133
 20
521.0715894510026
 30
0.0
  0
ENDBLK
  5
40AD
330
40A4
100
AcDbEntity
  8
0
100
AcDbBlockEnd
  0
BLOCK
  5
4227
330
40AE
100
AcDbEntity
  8
0
100
AcDbBlockBegin
  2
*D7
 70
     1
 10
0.0
 20
0.0
 30
0.0
  3
*D7
  1

  0
LINE
  5
43E6
330
40AE
100
AcDbEntity
  8
AM_5
100
AcDbLine
 10
826.8887652261934
 20
505.5715889547527
 30
0.0
 11
826.8887652261934
 21
524.0715894510026
 31
0.0
  0
LINE
  5
43E7
330
40AE
100
AcDbEntity
  8
AM_5
100
AcDbLine
 10
818.7887655676131
 20
505.5715894510025
 30
0.0
 11
818.7887655676131
 21
524.0715894510026
 31
0.0
  0
LINE
  5
43E8
330
40AE
100
AcDbEntity
  8
AM_5
100
AcDbLine
 10
832.8887652261935
 20
521.0715894510026
 30
0.0
 11
838.8887652261933
 21
521.0715894510026
 31
0.0
  0
LINE
  5
43E9
330
40AE
100
AcDbEntity
  8
AM_5
100
AcDbLine
 10
818.7887655676131
 20
521.0715894510026
 30
0.0
 11
812.7887655676133
 21
521.0715894510026
 31
0.0
  0
LINE
  5
43EA
330
40AE
100
AcDbEntity
  8
AM_5
100
AcDbLine
 10
826.8887652261934
 20
521.0715894510026
 30
0.0
 11
818.7887655676131
 21
521.0715894510026
 31
0.0
  0
SOLID
  5
43EB
330
40AE
100
AcDbEntity
  8
AM_5
100
AcDbTrace
 10
832.8887652261935
 20
522.0715894510026
 30
0.0
 11
832.8887652261935
 21
520.0715894510026
 31
0.0
 12
826.8887652261934
 22
521.0715894510026
 32
0.0
 13
826.8887652261934
 23
521.0715894510026
 33
0.0
  0
INSERT
  5
43EC
330
40AE
100
AcDbEntity
  8
AM_5
100
AcDbBlockReference
  2
_DotSmall
 10
818.7887655676131
 20
521.0715894510026
 30
0.0
 41
6.0
 42
6.0
 43
6.0
  0
MTEXT
  5
43ED
330
40AE
100
AcDbEntity
  8
AM_5
100
AcDbMText
 10
822.8387653969033
 20
526.7715894510026
 30
0.0
 40
7.0
 41
0.0
 71
     5
 72
     1
  1
8
 73
     1
 44
1.0
1001
ACAD
1000
MTEXTBEGIN
1070
    73
1070
     1
1070
    44
1040
1.0
1070
    74
1070
     0
1000
MTEXTEND
  0
POINT
  5
43EE
330
40AE
100
AcDbEntity
  8
Defpoints
 62
     0
100
AcDbPoint
 10
826.8887652261934
 20
503.5715889547527
 30
0.0
  0
POINT
  5
43EF
330
40AE
100
AcDbEntity
  8
Defpoints
 62
     0
100
AcDbPoint
 10
818.7887655676131
 20
503.5715894510025
 30
0.0
  0
POINT
  5
43F0
330
40AE
100
AcDbEntity
  8
Defpoints
 62
     0
100
AcDbPoint
 10
818.7887655676131
 20
521.0715894510026
 30
0.0
  0
ENDBLK
  5
4228
330
40AE
100
AcDbEntity
  8
0
100
AcDbBlockEnd
  0
BLOCK
  5
40C4
330
40BA
100
AcDbEntity
  8
0
100
AcDbBlockBegin
  2
*D8
 70
     1
 10
0.0
 20
0.0
 30
0.0
  3
*D8
  1

  0
LINE
  5
438C
330
40BA
100
AcDbEntity
  8
AM_5
100
AcDbLine
 10
581.2200580959687
 20
187.9263725154725
 30
0.0
 11
581.2200580959687
 21
137.9161648440496
 31
0.0
  0
LINE
  5
438D
330
40BA
100
AcDbEntity
  8
AM_5
100
AcDbLine
 10
691.2200580959687
 20
187.9263725154723
 30
0.0
 11
691.2200580959687
 21
137.9161648440496
 31
0.0
  0
LINE
  5
438E
330
40BA
100
AcDbEntity
  8
AM_5
100
AcDbLine
 10
587.2200580959687
 20
140.9161648440496
 30
0.0
 11
685.2200580959687
 21
140.9161648440496
 31
0.0
  0
SOLID
  5
438F
330
40BA
100
AcDbEntity
  8
AM_5
100
AcDbTrace
 10
587.2200580959687
 20
141.9161648440496
 30
0.0
 11
587.2200580959687
 21
139.9161648440496
 31
0.0
 12
581.2200580959687
 22
140.9161648440496
 32
0.0
 13
581.2200580959687
 23
140.9161648440496
 33
0.0
  0
SOLID
  5
4390
330
40BA
100
AcDbEntity
  8
AM_5
100
AcDbTrace
 10
685.2200580959687
 20
141.9161648440496
 30
0.0
 11
685.2200580959687
 21
139.9161648440496
 31
0.0
 12
691.2200580959687
 22
140.9161648440496
 32
0.0
 13
691.2200580959687
 23
140.9161648440496
 33
0.0
  0
MTEXT
  5
4391
330
40BA
100
AcDbEntity
  8
AM_5
100
AcDbMText
 10
636.2200580959687
 20
146.6161648440496
 30
0.0
 40
7.0
 41
0.0
 71
     5
 72
     1
  1
110
 73
     1
 44
1.0
1001
ACAD
1000
MTEXTBEGIN
1070
    73
1070
     1
1070
    44
1040
1.0
1070
    74
1070
     0
1000
MTEXTEND
  0
POINT
  5
4392
330
40BA
100
AcDbEntity
  8
Defpoints
 62
     0
100
AcDbPoint
 10
581.2200580959687
 20
189.9263725154725
 30
0.0
  0
POINT
  5
4393
330
40BA
100
AcDbEntity
  8
Defpoints
 62
     0
100
AcDbPoint
 10
691.2200580959687
 20
189.9263725154723
 30
0.0
  0
POINT
  5
4394
330
40BA
100
AcDbEntity
  8
Defpoints
 62
     0
100
AcDbPoint
 10
691.2200580959687
 20
140.9161648440496
 30
0.0
  0
ENDBLK
  5
40C5
330
40BA
100
AcDbEntity
  8
0
100
AcDbBlockEnd
  0
BLOCK
  5
40D0
330
40C6
100
AcDbEntity
  8
0
100
AcDbBlockBegin
  2
*D9
 70
     1
 10
0.0
 20
0.0
 30
0.0
  3
*D9
  1

  0
LINE
  5
4395
330
40C6
100
AcDbEntity
  8
AM_5
100
AcDbLine
 10
692.7200580959687
 20
262.4263725154723
 30
0.0
 11
722.672276229898
 21
262.4263725154723
 31
0.0
  0
LINE
  5
4396
330
40C6
100
AcDbEntity
  8
AM_5
100
AcDbLine
 10
692.7200580959687
 20
189.4263725154722
 30
0.0
 11
722.6722762298979
 21
189.4263725154722
 31
0.0
  0
LINE
  5
4397
330
40C6
100
AcDbEntity
  8
AM_5
100
AcDbLine
 10
719.6722762298979
 20
256.4263725154723
 30
0.0
 11
719.6722762298978
 21
195.4263725154722
 31
0.0
  0
SOLID
  5
4398
330
40C6
100
AcDbEntity
  8
AM_5
100
AcDbTrace
 10
718.6722762298979
 20
256.4263725154723
 30
0.0
 11
720.672276229898
 21
256.4263725154723
 31
0.0
 12
719.6722762298979
 22
262.4263725154723
 32
0.0
 13
719.6722762298979
 23
262.4263725154723
 33
0.0
  0
SOLID
  5
4399
330
40C6
100
AcDbEntity
  8
AM_5
100
AcDbTrace
 10
718.6722762298979
 20
195.4263725154722
 30
0.0
 11
720.6722762298978
 21
195.4263725154722
 31
0.0
 12
719.6722762298978
 22
189.4263725154722
 32
0.0
 13
719.6722762298978
 23
189.4263725154722
 33
0.0
  0
MTEXT
  5
439A
330
40C6
100
AcDbEntity
  8
AM_5
100
AcDbMText
 10
713.9722762298978
 20
225.9263725154724
 30
0.0
 40
7.0
 41
0.0
 71
     5
 72
     1
  1
73
 11
0.0000000000000001
 21
1.0
 31
0.0
 73
     1
 44
1.0
1001
ACAD
1000
MTEXTBEGIN
1070
    73
1070
     1
1070
    44
1040
1.0
1070
    74
1070
     0
1000
MTEXTEND
  0
POINT
  5
439B
330
40C6
100
AcDbEntity
  8
Defpoints
 62
     0
100
AcDbPoint
 10
690.7200580959687
 20
262.4263725154723
 30
0.0
  0
POINT
  5
439C
330
40C6
100
AcDbEntity
  8
Defpoints
 62
     0
100
AcDbPoint
 10
690.7200580959687
 20
189.4263725154722
 30
0.0
  0
POINT
  5
439D
330
40C6
100
AcDbEntity
  8
Defpoints
 62
     0
100
AcDbPoint
 10
719.6722762298978
 20
189.4263725154722
 30
0.0
  0
ENDBLK
  5
40D1
330
40C6
100
AcDbEntity
  8
0
100
AcDbBlockEnd
  0
BLOCK
  5
40DC
330
40D2
100
AcDbEntity
  8
0
100
AcDbBlockBegin
  2
*D10
 70
     1
 10
0.0
 20
0.0
 30
0.0
  3
*D10
  1

  0
LINE
  5
43FA
330
40D2
100
AcDbEntity
  8
AM_5
100
AcDbLine
 10
828.7887655676135
 20
503.5715889547527
 30
0.0
 11
849.8779439524142
 21
503.5715889547527
 31
0.0
  0
LINE
  5
43FB
330
40D2
100
AcDbEntity
  8
AM_5
100
AcDbLine
 10
828.7887655676135
 20
478.5715899472525
 30
0.0
 11
849.8779439524142
 21
478.5715899472525
 31
0.0
  0
LINE
  5
43FC
330
40D2
100
AcDbEntity
  8
AM_5
100
AcDbLine
 10
846.8779439524142
 20
497.5715889547528
 30
0.0
 11
846.8779439524142
 21
484.5715899472525
 31
0.0
  0
SOLID
  5
43FD
330
40D2
100
AcDbEntity
  8
AM_5
100
AcDbTrace
 10
845.8779439524143
 20
497.5715889547528
 30
0.0
 11
847.8779439524142
 21
497.5715889547528
 31
0.0
 12
846.8779439524142
 22
503.5715889547527
 32
0.0
 13
846.8779439524142
 23
503.5715889547527
 33
0.0
  0
SOLID
  5
43FE
330
40D2
100
AcDbEntity
  8
AM_5
100
AcDbTrace
 10
845.8779439524143
 20
484.5715899472525
 30
0.0
 11
847.8779439524142
 21
484.5715899472525
 31
0.0
 12
846.8779439524142
 22
478.5715899472525
 32
0.0
 13
846.8779439524142
 23
478.5715899472525
 33
0.0
  0
MTEXT
  5
43FF
330
40D2
100
AcDbEntity
  8
AM_5
100
AcDbMText
 10
841.1772549760362
 20
491.0715894510027
 30
0.0
 40
7.0
 41
0.0
 71
     5
 72
     1
  1
%%c25
 11
0.0000000000000001
 21
1.0
 31
0.0
 73
     1
 44
1.0
1001
ACAD
1000
MTEXTBEGIN
1070
    73
1070
     1
1070
    44
1040
1.0
1070
    74
1070
     0
1000
MTEXTEND
  0
POINT
  5
4400
330
40D2
100
AcDbEntity
  8
Defpoints
 62
     0
100
AcDbPoint
 10
826.7887655676135
 20
503.5715889547527
 30
0.0
  0
POINT
  5
4401
330
40D2
100
AcDbEntity
  8
Defpoints
 62
     0
100
AcDbPoint
 10
826.7887655676135
 20
478.5715899472525
 30
0.0
  0
POINT
  5
4402
330
40D2
100
AcDbEntity
  8
Defpoints
 62
     0
100
AcDbPoint
 10
846.8779439524142
 20
478.5715899472525
 30
0.0
  0
ENDBLK
  5
40DD
330
40D2
100
AcDbEntity
  8
0
100
AcDbBlockEnd
  0
BLOCK
  5
40E8
330
40DE
100
AcDbEntity
  8
0
100
AcDbBlockBegin
  2
*D11
 70
     1
 10
0.0
 20
0.0
 30
0.0
  3
*D11
  1

  0
LINE
  5
43C2
330
40DE
100
AcDbEntity
  8
AM_5
100
AcDbLine
 10
652.7200580959687
 20
491.0715894510025
 30
0.0
 11
691.7504320756678
 21
491.0715894510025
 31
0.0
  0
LINE
  5
43C3
330
40DE
100
AcDbEntity
  8
AM_5
100
AcDbLine
 10
659.220058095969
 20
445.5715894510026
 30
0.0
 11
691.7504320756678
 21
445.5715894510026
 31
0.0
  0
LINE
  5
43C4
330
40DE
100
AcDbEntity
  8
AM_5
100
AcDbLine
 10
688.7504320756678
 20
485.0715894510025
 30
0.0
 11
688.7504320756678
 21
451.5715894510026
 31
0.0
  0
SOLID
  5
43C5
330
40DE
100
AcDbEntity
  8
AM_5
100
AcDbTrace
 10
687.7504320756678
 20
485.0715894510025
 30
0.0
 11
689.7504320756678
 21
485.0715894510025
 31
0.0
 12
688.7504320756678
 22
491.0715894510025
 32
0.0
 13
688.7504320756678
 23
491.0715894510025
 33
0.0
  0
SOLID
  5
43C6
330
40DE
100
AcDbEntity
  8
AM_5
100
AcDbTrace
 10
687.7504320756678
 20
451.5715894510026
 30
0.0
 11
689.7504320756678
 21
451.5715894510026
 31
0.0
 12
688.7504320756678
 22
445.5715894510026
 32
0.0
 13
688.7504320756678
 23
445.5715894510026
 33
0.0
  0
MTEXT
  5
43C7
330
40DE
100
AcDbEntity
  8
AM_5
100
AcDbMText
 10
683.0504320756676
 20
468.3215894510026
 30
0.0
 40
7.0
 41
0.0
 71
     5
 72
     1
  1
45.5
 11
0.0000000000000001
 21
1.0
 31
0.0
 73
     1
 44
1.0
1001
ACAD
1000
MTEXTBEGIN
1070
    73
1070
     1
1070
    44
1040
1.0
1070
    74
1070
     0
1000
MTEXTEND
  0
POINT
  5
43C8
330
40DE
100
AcDbEntity
  8
Defpoints
 62
     0
100
AcDbPoint
 10
650.7200580959687
 20
491.0715894510025
 30
0.0
  0
POINT
  5
43C9
330
40DE
100
AcDbEntity
  8
Defpoints
 62
     0
100
AcDbPoint
 10
657.2200580959689
 20
445.5715894510026
 30
0.0
  0
POINT
  5
43CA
330
40DE
100
AcDbEntity
  8
Defpoints
 62
     0
100
AcDbPoint
 10
688.7504320756678
 20
445.5715894510026
 30
0.0
  0
ENDBLK
  5
40E9
330
40DE
100
AcDbEntity
  8
0
100
AcDbBlockEnd
  0
BLOCK
  5
40F6
330
40EA
100
AcDbEntity
  8
0
100
AcDbBlockBegin
  2
*D12
 70
     1
 10
0.0
 20
0.0
 30
0.0
  3
*D12
  1

  0
LINE
  5
4303
330
40EA
100
AcDbEntity
  8
AM_5
100
AcDbLine
 10
605.5700580959686
 20
319.5715894510029
 30
0.0
 11
585.7484264752701
 21
319.5715894510029
 31
0.0
  0
LINE
  5
4304
330
40EA
100
AcDbEntity
  8
AM_5
100
AcDbLine
 10
630.220058095969
 20
313.5715894510028
 30
0.0
 11
585.7484264752701
 21
313.5715894510028
 31
0.0
  0
LINE
  5
4305
330
40EA
100
AcDbEntity
  8
AM_5
100
AcDbLine
 10
588.7484264752702
 20
307.5715894510029
 30
0.0
 11
588.7484264752702
 21
301.5715894510029
 31
0.0
  0
LINE
  5
4306
330
40EA
100
AcDbEntity
  8
AM_5
100
AcDbLine
 10
588.7484264752702
 20
325.5715894510029
 30
0.0
 11
588.7484264752702
 21
343.3377311832864
 31
0.0
  0
LINE
  5
4307
330
40EA
100
AcDbEntity
  8
AM_5
100
AcDbLine
 10
588.7484264752702
 20
313.5715894510028
 30
0.0
 11
588.7484264752702
 21
319.5715894510029
 31
0.0
  0
SOLID
  5
4308
330
40EA
100
AcDbEntity
  8
AM_5
100
AcDbTrace
 10
587.7484264752702
 20
307.5715894510029
 30
0.0
 11
589.7484264752701
 21
307.5715894510029
 31
0.0
 12
588.7484264752702
 22
313.5715894510028
 32
0.0
 13
588.7484264752702
 23
313.5715894510028
 33
0.0
  0
SOLID
  5
4309
330
40EA
100
AcDbEntity
  8
AM_5
100
AcDbTrace
 10
587.7484264752702
 20
325.5715894510029
 30
0.0
 11
589.7484264752701
 21
325.5715894510029
 31
0.0
 12
588.7484264752702
 22
319.5715894510029
 32
0.0
 13
588.7484264752702
 23
319.5715894510029
 33
0.0
  0
MTEXT
  5
430A
330
40EA
100
AcDbEntity
  8
AM_5
100
AcDbMText
 10
583.04842647527
 20
339.3546603171448
 30
0.0
 40
7.0
 41
0.0
 71
     5
 72
     1
  1
6
 11
0.0000000000000001
 21
1.0
 31
0.0
 73
     1
 44
1.0
1001
ACAD
1000
MTEXTBEGIN
1070
    73
1070
     1
1070
    44
1040
1.0
1070
    74
1070
     0
1000
MTEXTEND
  0
POINT
  5
430B
330
40EA
100
AcDbEntity
  8
Defpoints
 62
     0
100
AcDbPoint
 10
607.5700580959686
 20
319.5715894510029
 30
0.0
  0
POINT
  5
430C
330
40EA
100
AcDbEntity
  8
Defpoints
 62
     0
100
AcDbPoint
 10
632.2200580959689
 20
313.5715894510028
 30
0.0
  0
POINT
  5
430D
330
40EA
100
AcDbEntity
  8
Defpoints
 62
     0
100
AcDbPoint
 10
588.7484264752702
 20
313.5715894510028
 30
0.0
  0
ENDBLK
  5
40F7
330
40EA
100
AcDbEntity
  8
0
100
AcDbBlockEnd
  0
BLOCK
  5
4102
330
40F8
100
AcDbEntity
  8
0
100
AcDbBlockBegin
  2
*D13
 70
     1
 10
0.0
 20
0.0
 30
0.0
  3
*D13
  1

  0
LINE
  5
430E
330
40F8
100
AcDbEntity
  8
AM_5
100
AcDbLine
 10
666.8700580959688
 20
319.5715894510029
 30
0.0
 11
706.9479761899311
 21
319.5715894510029
 31
0.0
  0
LINE
  5
430F
330
40F8
100
AcDbEntity
  8
AM_5
100
AcDbLine
 10
693.2200580959687
 20
410.5715894510027
 30
0.0
 11
706.9479761899311
 21
410.5715894510027
 31
0.0
  0
LINE
  5
4310
330
40F8
100
AcDbEntity
  8
AM_5
100
AcDbLine
 10
703.947976189931
 20
325.5715894510029
 30
0.0
 11
703.947976189931
 21
404.5715894510027
 31
0.0
  0
SOLID
  5
4311
330
40F8
100
AcDbEntity
  8
AM_5
100
AcDbTrace
 10
702.9479761899311
 20
325.5715894510029
 30
0.0
 11
704.947976189931
 21
325.5715894510029
 31
0.0
 12
703.947976189931
 22
319.5715894510029
 32
0.0
 13
703.947976189931
 23
319.5715894510029
 33
0.0
  0
SOLID
  5
4312
330
40F8
100
AcDbEntity
  8
AM_5
100
AcDbTrace
 10
702.9479761899311
 20
404.5715894510027
 30
0.0
 11
704.947976189931
 21
404.5715894510027
 31
0.0
 12
703.947976189931
 22
410.5715894510027
 32
0.0
 13
703.947976189931
 23
410.5715894510027
 33
0.0
  0
MTEXT
  5
4313
330
40F8
100
AcDbEntity
  8
AM_5
100
AcDbMText
 10
698.2479761899309
 20
365.5887036896225
 30
0.0
 40
7.0
 41
0.0
 71
     5
 72
     1
  1
91
 11
0.0000000000000001
 21
1.0
 31
0.0
 73
     1
 44
1.0
1001
ACAD
1000
MTEXTBEGIN
1070
    73
1070
     1
1070
    44
1040
1.0
1070
    74
1070
     0
1000
MTEXTEND
  0
POINT
  5
4314
330
40F8
100
AcDbEntity
  8
Defpoints
 62
     0
100
AcDbPoint
 10
664.8700580959688
 20
319.5715894510029
 30
0.0
  0
POINT
  5
4315
330
40F8
100
AcDbEntity
  8
Defpoints
 62
     0
100
AcDbPoint
 10
691.2200580959687
 20
410.5715894510027
 30
0.0
  0
POINT
  5
4316
330
40F8
100
AcDbEntity
  8
Defpoints
 62
     0
100
AcDbPoint
 10
703.947976189931
 20
410.5715894510027
 30
0.0
  0
ENDBLK
  5
4103
330
40F8
100
AcDbEntity
  8
0
100
AcDbBlockEnd
  0
BLOCK
  5
410E
330
4104
100
AcDbEntity
  8
0
100
AcDbBlockBegin
  2
*D14
 70
     1
 10
0.0
 20
0.0
 30
0.0
  3
*D14
  1

  0
LINE
  5
4317
330
4104
100
AcDbEntity
  8
AM_5
100
AcDbLine
 10
693.2200580959687
 20
420.5715894510027
 30
0.0
 11
706.9479761899311
 21
420.5715894510027
 31
0.0
  0
LINE
  5
4318
330
4104
100
AcDbEntity
  8
AM_5
100
AcDbLine
 10
650.7200580959687
 20
491.0715894510025
 30
0.0
 11
706.9479761899311
 21
491.0715894510025
 31
0.0
  0
LINE
  5
4319
330
4104
100
AcDbEntity
  8
AM_5
100
AcDbLine
 10
703.947976189931
 20
426.5715894510027
 30
0.0
 11
703.947976189931
 21
485.0715894510025
 31
0.0
  0
SOLID
  5
431A
330
4104
100
AcDbEntity
  8
AM_5
100
AcDbTrace
 10
702.9479761899311
 20
426.5715894510027
 30
0.0
 11
704.947976189931
 21
426.5715894510027
 31
0.0
 12
703.947976189931
 22
420.5715894510027
 32
0.0
 13
703.947976189931
 23
420.5715894510027
 33
0.0
  0
SOLID
  5
431B
330
4104
100
AcDbEntity
  8
AM_5
100
AcDbTrace
 10
702.9479761899311
 20
485.0715894510025
 30
0.0
 11
704.947976189931
 21
485.0715894510025
 31
0.0
 12
703.947976189931
 22
491.0715894510025
 32
0.0
 13
703.947976189931
 23
491.0715894510025
 33
0.0
  0
MTEXT
  5
431C
330
4104
100
AcDbEntity
  8
AM_5
100
AcDbMText
 10
698.2479761899309
 20
459.0516592408951
 30
0.0
 40
7.0
 41
0.0
 71
     5
 72
     1
  1
70.5
 11
0.0000000000000001
 21
1.0
 31
0.0
 73
     1
 44
1.0
1001
ACAD
1000
MTEXTBEGIN
1070
    73
1070
     1
1070
    44
1040
1.0
1070
    74
1070
     0
1000
MTEXTEND
  0
POINT
  5
431D
330
4104
100
AcDbEntity
  8
Defpoints
 62
     0
100
AcDbPoint
 10
691.2200580959687
 20
420.5715894510027
 30
0.0
  0
POINT
  5
431E
330
4104
100
AcDbEntity
  8
Defpoints
 62
     0
100
AcDbPoint
 10
648.7200580959687
 20
491.0715894510025
 30
0.0
  0
POINT
  5
431F
330
4104
100
AcDbEntity
  8
Defpoints
 62
     0
100
AcDbPoint
 10
703.947976189931
 20
491.0715894510025
 30
0.0
  0
ENDBLK
  5
410F
330
4104
100
AcDbEntity
  8
0
100
AcDbBlockEnd
  0
BLOCK
  5
411A
330
4110
100
AcDbEntity
  8
0
100
AcDbBlockBegin
  2
*D15
 70
     1
 10
0.0
 20
0.0
 30
0.0
  3
*D15
  1

  0
LINE
  5
4F0A
330
4110
100
AcDbEntity
  8
AM_5
100
AcDbLine
 10
638.220058095969
 20
503.5715894510026
 30
0.0
 11
722.6722762298977
 21
503.5715894510025
 31
0.0
  0
LINE
  5
4F0B
330
4110
100
AcDbEntity
  8
AM_5
100
AcDbLine
 10
664.2200580959701
 20
319.5715894510029
 30
0.0
 11
722.6722762298977
 21
319.5715894510029
 31
0.0
  0
LINE
  5
4F0C
330
4110
100
AcDbEntity
  8
AM_5
100
AcDbLine
 10
719.6722762298978
 20
497.5715894510026
 30
0.0
 11
719.6722762298978
 21
325.5715894510029
 31
0.0
  0
SOLID
  5
4F0D
330
4110
100
AcDbEntity
  8
AM_5
100
AcDbTrace
 10
718.6722762298977
 20
497.5715894510026
 30
0.0
 11
720.6722762298977
 21
497.5715894510026
 31
0.0
 12
719.6722762298978
 22
503.5715894510025
 32
0.0
 13
719.6722762298978
 23
503.5715894510025
 33
0.0
  0
SOLID
  5
4F0E
330
4110
100
AcDbEntity
  8
AM_5
100
AcDbTrace
 10
718.6722762298977
 20
325.5715894510029
 30
0.0
 11
720.6722762298977
 21
325.5715894510029
 31
0.0
 12
719.6722762298978
 22
319.5715894510029
 32
0.0
 13
719.6722762298978
 23
319.5715894510029
 33
0.0
  0
MTEXT
  5
4F0F
330
4110
100
AcDbEntity
  8
AM_5
100
AcDbMText
 10
713.9722762298975
 20
415.3286861487974
 30
0.0
 40
7.0
 41
0.0
 71
     5
 72
     1
  1
184
 11
0.0000000000000001
 21
1.0
 31
0.0
 73
     1
 44
1.0
1001
ACAD
1000
MTEXTBEGIN
1070
    73
1070
     1
1070
    44
1040
1.0
1070
    74
1070
     0
1000
MTEXTEND
  0
POINT
  5
4F10
330
4110
100
AcDbEntity
  8
Defpoints
 62
     0
100
AcDbPoint
 10
636.2200580959689
 20
503.5715894510026
 30
0.0
  0
POINT
  5
4F11
330
4110
100
AcDbEntity
  8
Defpoints
 62
     0
100
AcDbPoint
 10
662.2200580959701
 20
319.5715894510029
 30
0.0
  0
POINT
  5
4F12
330
4110
100
AcDbEntity
  8
Defpoints
 62
     0
100
AcDbPoint
 10
719.6722762298978
 20
319.5715894510029
 30
0.0
  0
ENDBLK
  5
411B
330
4110
100
AcDbEntity
  8
0
100
AcDbBlockEnd
  0
BLOCK
  5
4123
330
411C
100
AcDbEntity
  8
0
100
AcDbBlockBegin
  2
*D16
 70
     1
 10
0.0
 20
0.0
 30
0.0
  3
*D16
  1

  0
LINE
  5
4F02
330
411C
100
AcDbEntity
  8
AM_5
100
AcDbLine
 10
626.2424748833956
 20
383.4404089064594
 30
0.0
 11
601.4501224283023
 21
371.9328265694044
 31
0.0
  0
LINE
  5
4F03
330
411C
100
AcDbEntity
  8
AM_5
100
AcDbLine
 10
601.4501224283023
 20
371.9328265694044
 30
0.0
 11
578.2501224283021
 21
371.9328265694044
 31
0.0
  0
SOLID
  5
4F04
330
411C
100
AcDbEntity
  8
AM_5
100
AcDbTrace
 10
625.8214584702552
 20
384.3474619257843
 30
0.0
 11
626.663491296536
 21
382.5333558871345
 31
0.0
 12
631.6847929993449
 22
385.9665073853017
 32
0.0
 13
631.6847929993449
 23
385.9665073853017
 33
0.0
  0
MTEXT
  5
4F05
330
411C
100
AcDbEntity
  8
AM_5
100
AcDbMText
 10
588.7501224283023
 20
377.6328265694044
 30
0.0
 40
7.0
 41
0.0
 71
     5
 72
     1
  1
Rc1/8
 73
     1
 44
1.0
1001
ACAD
1000
MTEXTBEGIN
1070
    73
1070
     1
1070
    44
1040
1.0
1070
    74
1070
     0
1000
MTEXTEND
  0
POINT
  5
4F06
330
411C
100
AcDbEntity
  8
Defpoints
 62
     0
100
AcDbPoint
 10
631.6847929993449
 20
385.9665073853017
 30
0.0
  0
POINT
  5
4F07
330
411C
100
AcDbEntity
  8
Defpoints
 62
     0
100
AcDbPoint
 10
636.2200580959684
 20
388.0715894510031
 30
0.0
  0
ENDBLK
  5
4124
330
411C
100
AcDbEntity
  8
0
100
AcDbBlockEnd
  0
BLOCK
  5
412C
330
4125
100
AcDbEntity
  8
0
100
AcDbBlockBegin
  2
*D17
 70
     1
 10
0.0
 20
0.0
 30
0.0
  3
*D17
  1

  0
LINE
  5
433A
330
4125
100
AcDbEntity
  8
AM_5
100
AcDbLine
 10
687.9173390175662
 20
189.8395667024709
 30
0.0
 11
699.8477936625187
 21
175.4338293436835
 31
0.0
  0
LINE
  5
433B
330
4125
100
AcDbEntity
  8
AM_5
100
AcDbLine
 10
699.8477936625187
 20
175.4338293436835
 30
0.0
 11
739.8722539759786
 21
175.4338293436835
 31
0.0
  0
SOLID
  5
433C
330
4125
100
AcDbEntity
  8
AM_5
100
AcDbTrace
 10
688.6875109997569
 20
190.4774029807183
 30
0.0
 11
687.1471670353756
 21
189.2017304242235
 31
0.0
 12
684.0903213480816
 22
194.4605985956148
 32
0.0
 13
684.0903213480816
 23
194.4605985956148
 33
0.0
  0
MTEXT
  5
433D
330
4125
100
AcDbEntity
  8
AM_5
100
AcDbMText
 10
720.9600238192486
 20
181.1338293436832
 30
0.0
 40
7.0
 41
0.0
 71
     5
 72
     1
  1
4-\U+22059thru
 73
     1
 44
1.0
1001
ACAD
1000
MTEXTBEGIN
1070
    73
1070
     1
1070
    44
1040
1.0
1070
    74
1070
     0
1000
MTEXTEND
  0
POINT
  5
433E
330
4125
100
AcDbEntity
  8
Defpoints
 62
     0
100
AcDbPoint
 10
684.0903213480816
 20
194.4605985956148
 30
0.0
  0
POINT
  5
433F
330
4125
100
AcDbEntity
  8
Defpoints
 62
     0
100
AcDbPoint
 10
678.3497948438551
 20
201.3921464353305
 30
0.0
  0
ENDBLK
  5
412D
330
4125
100
AcDbEntity
  8
0
100
AcDbBlockEnd
  0
BLOCK
  5
413A
330
412E
100
AcDbEntity
  8
0
100
AcDbBlockBegin
  2
*D18
 70
     1
 10
0.0
 20
0.0
 30
0.0
  3
*D18
  1

  0
LINE
  5
4340
330
412E
100
AcDbEntity
  8
AM_5
100
AcDbLine
 10
693.2200580959687
 20
420.5715894510028
 30
0.0
 11
706.9479761899311
 21
420.5715894510028
 31
0.0
  0
LINE
  5
4341
330
412E
100
AcDbEntity
  8
AM_5
100
AcDbLine
 10
693.2200580959687
 20
410.5715894510028
 30
0.0
 11
706.9479761899311
 21
410.5715894510028
 31
0.0
  0
LINE
  5
4342
330
412E
100
AcDbEntity
  8
AM_5
100
AcDbLine
 10
703.947976189931
 20
426.5715894510028
 30
0.0
 11
703.947976189931
 21
432.5715894510028
 31
0.0
  0
LINE
  5
4343
330
412E
100
AcDbEntity
  8
AM_5
100
AcDbLine
 10
703.947976189931
 20
404.5715894510029
 30
0.0
 11
703.947976189931
 21
398.5715894510029
 31
0.0
  0
LINE
  5
4344
330
412E
100
AcDbEntity
  8
AM_5
100
AcDbLine
 10
703.947976189931
 20
420.5715894510028
 30
0.0
 11
703.947976189931
 21
410.5715894510028
 31
0.0
  0
SOLID
  5
4345
330
412E
100
AcDbEntity
  8
AM_5
100
AcDbTrace
 10
702.9479761899311
 20
426.5715894510028
 30
0.0
 11
704.947976189931
 21
426.5715894510028
 31
0.0
 12
703.947976189931
 22
420.5715894510028
 32
0.0
 13
703.947976189931
 23
420.5715894510028
 33
0.0
  0
SOLID
  5
4346
330
412E
100
AcDbEntity
  8
AM_5
100
AcDbTrace
 10
702.9479761899311
 20
404.5715894510029
 30
0.0
 11
704.947976189931
 21
404.5715894510029
 31
0.0
 12
703.947976189931
 22
410.5715894510028
 32
0.0
 13
703.947976189931
 23
410.5715894510028
 33
0.0
  0
MTEXT
  5
4347
330
412E
100
AcDbEntity
  8
AM_5
100
AcDbMText
 10
698.2479761899309
 20
415.5715894510029
 30
0.0
 40
7.0
 41
0.0
 71
     5
 72
     1
  1
10
 11
0.0000000000000001
 21
1.0
 31
0.0
 73
     1
 44
1.0
1001
ACAD
1000
MTEXTBEGIN
1070
    73
1070
     1
1070
    44
1040
1.0
1070
    74
1070
     0
1000
MTEXTEND
  0
POINT
  5
4348
330
412E
100
AcDbEntity
  8
Defpoints
 62
     0
100
AcDbPoint
 10
691.2200580959687
 20
420.5715894510028
 30
0.0
  0
POINT
  5
4349
330
412E
100
AcDbEntity
  8
Defpoints
 62
     0
100
AcDbPoint
 10
691.2200580959687
 20
410.5715894510028
 30
0.0
  0
POINT
  5
434A
330
412E
100
AcDbEntity
  8
Defpoints
 62
     0
100
AcDbPoint
 10
703.947976189931
 20
410.5715894510028
 30
0.0
  0
ENDBLK
  5
413B
330
412E
100
AcDbEntity
  8
0
100
AcDbBlockEnd
  0
BLOCK
  5
414F
330
4145
100
AcDbEntity
  8
0
100
AcDbBlockBegin
  2
*D19
 70
     1
 10
0.0
 20
0.0
 30
0.0
  3
*D19
  1

  0
LINE
  5
43CB
330
4145
100
AcDbEntity
  8
AM_5
100
AcDbLine
 10
792.7887655676133
 20
496.0715894510026
 30
0.0
 11
792.7887655676133
 21
540.0715894510026
 31
0.0
  0
LINE
  5
43CC
330
4145
100
AcDbEntity
  8
AM_5
100
AcDbLine
 10
829.7887655676133
 20
495.5965893507602
 30
0.0
 11
829.7887655676133
 21
540.0715894510026
 31
0.0
  0
LINE
  5
43CD
330
4145
100
AcDbEntity
  8
AM_5
100
AcDbLine
 10
798.7887655676132
 20
537.0715894510026
 30
0.0
 11
823.7887655676132
 21
537.0715894510026
 31
0.0
  0
SOLID
  5
43CE
330
4145
100
AcDbEntity
  8
AM_5
100
AcDbTrace
 10
798.7887655676132
 20
538.0715894510026
 30
0.0
 11
798.7887655676132
 21
536.0715894510026
 31
0.0
 12
792.7887655676133
 22
537.0715894510026
 32
0.0
 13
792.7887655676133
 23
537.0715894510026
 33
0.0
  0
SOLID
  5
43CF
330
4145
100
AcDbEntity
  8
AM_5
100
AcDbTrace
 10
823.7887655676132
 20
538.0715894510026
 30
0.0
 11
823.7887655676132
 21
536.0715894510026
 31
0.0
 12
829.7887655676133
 22
537.0715894510026
 32
0.0
 13
829.7887655676133
 23
537.0715894510026
 33
0.0
  0
MTEXT
  5
43D0
330
4145
100
AcDbEntity
  8
AM_5
100
AcDbMText
 10
811.2887655676132
 20
542.7715894510027
 30
0.0
 40
7.0
 41
0.0
 71
     5
 72
     1
  1
37
 73
     1
 44
1.0
1001
ACAD
1000
MTEXTBEGIN
1070
    73
1070
     1
1070
    44
1040
1.0
1070
    74
1070
     0
1000
MTEXTEND
  0
POINT
  5
43D1
330
4145
100
AcDbEntity
  8
Defpoints
 62
     0
100
AcDbPoint
 10
792.7887655676133
 20
494.0715894510026
 30
0.0
  0
POINT
  5
43D2
330
4145
100
AcDbEntity
  8
Defpoints
 62
     0
100
AcDbPoint
 10
829.7887655676133
 20
493.5965893507601
 30
0.0
  0
POINT
  5
43D3
330
4145
100
AcDbEntity
  8
Defpoints
 62
     0
100
AcDbPoint
 10
829.7887655676133
 20
537.0715894510026
 30
0.0
  0
ENDBLK
  5
4150
330
4145
100
AcDbEntity
  8
0
100
AcDbBlockEnd
  0
BLOCK
  5
4178
330
416E
100
AcDbEntity
  8
0
100
AcDbBlockBegin
  2
*D20
 70
     1
 10
0.0
 20
0.0
 30
0.0
  3
*D20
  1

  0
LINE
  5
43F1
330
416E
100
AcDbEntity
  8
AM_5
100
AcDbLine
 10
786.3290675700535
 20
491.0715894510026
 30
0.0
 11
773.3290675700533
 21
491.0715894510026
 31
0.0
  0
LINE
  5
43F2
330
416E
100
AcDbEntity
  8
AM_5
100
AcDbLine
 10
786.3290675700535
 20
461.0715894510026
 30
0.0
 11
773.3290675700533
 21
461.0715894510026
 31
0.0
  0
LINE
  5
43F3
330
416E
100
AcDbEntity
  8
AM_5
100
AcDbLine
 10
776.3290675700533
 20
485.0715894510026
 30
0.0
 11
776.3290675700533
 21
467.0715894510026
 31
0.0
  0
SOLID
  5
43F4
330
416E
100
AcDbEntity
  8
AM_5
100
AcDbTrace
 10
775.3290675700533
 20
485.0715894510026
 30
0.0
 11
777.3290675700533
 21
485.0715894510026
 31
0.0
 12
776.3290675700533
 22
491.0715894510026
 32
0.0
 13
776.3290675700533
 23
491.0715894510026
 33
0.0
  0
SOLID
  5
43F5
330
416E
100
AcDbEntity
  8
AM_5
100
AcDbTrace
 10
775.3290675700533
 20
467.0715894510026
 30
0.0
 11
777.3290675700533
 21
467.0715894510026
 31
0.0
 12
776.3290675700533
 22
461.0715894510026
 32
0.0
 13
776.3290675700533
 23
461.0715894510026
 33
0.0
  0
MTEXT
  5
43F6
330
416E
100
AcDbEntity
  8
AM_5
100
AcDbMText
 10
770.6290675700532
 20
476.0715894510027
 30
0.0
 40
7.0
 41
0.0
 71
     5
 72
     1
  1
ST=30
 11
0.0000000000000001
 21
1.0
 31
0.0
 73
     1
 44
1.0
1001
ACAD
1000
MTEXTBEGIN
1070
    73
1070
     1
1070
    44
1040
1.0
1070
    74
1070
     0
1000
MTEXTEND
  0
POINT
  5
43F7
330
416E
100
AcDbEntity
  8
Defpoints
 62
     0
100
AcDbPoint
 10
788.3290675700536
 20
491.0715894510026
 30
0.0
  0
POINT
  5
43F8
330
416E
100
AcDbEntity
  8
Defpoints
 62
     0
100
AcDbPoint
 10
788.3290675700536
 20
461.0715894510026
 30
0.0
  0
POINT
  5
43F9
330
416E
100
AcDbEntity
  8
Defpoints
 62
     0
100
AcDbPoint
 10
776.3290675700533
 20
461.0715894510026
 30
0.0
  0
ENDBLK
  5
4179
330
416E
100
AcDbEntity
  8
0
100
AcDbBlockEnd
  0
BLOCK
  5
4184
330
417A
100
AcDbEntity
  8
0
100
AcDbBlockBegin
  2
*D21
 70
     1
 10
0.0
 20
0.0
 30
0.0
  3
*D21
  1

  0
LINE
  5
4383
330
417A
100
AcDbEntity
  8
AM_5
100
AcDbLine
 10
591.2200580959687
 20
190.4263725154723
 30
0.0
 11
591.2200580959687
 21
155.2862531007358
 31
0.0
  0
LINE
  5
4384
330
417A
100
AcDbEntity
  8
AM_5
100
AcDbLine
 10
681.2200580959687
 20
190.4263725154723
 30
0.0
 11
681.2200580959687
 21
155.2862531007358
 31
0.0
  0
LINE
  5
4385
330
417A
100
AcDbEntity
  8
AM_5
100
AcDbLine
 10
597.2200580959687
 20
158.2862531007358
 30
0.0
 11
675.2200580959687
 21
158.2862531007358
 31
0.0
  0
SOLID
  5
4386
330
417A
100
AcDbEntity
  8
AM_5
100
AcDbTrace
 10
597.2200580959687
 20
159.2862531007358
 30
0.0
 11
597.2200580959687
 21
157.2862531007358
 31
0.0
 12
591.2200580959687
 22
158.2862531007358
 32
0.0
 13
591.2200580959687
 23
158.2862531007358
 33
0.0
  0
SOLID
  5
4387
330
417A
100
AcDbEntity
  8
AM_5
100
AcDbTrace
 10
675.2200580959687
 20
159.2862531007358
 30
0.0
 11
675.2200580959687
 21
157.2862531007358
 31
0.0
 12
681.2200580959687
 22
158.2862531007358
 32
0.0
 13
681.2200580959687
 23
158.2862531007358
 33
0.0
  0
MTEXT
  5
4388
330
417A
100
AcDbEntity
  8
AM_5
100
AcDbMText
 10
636.2200580959687
 20
163.9862531007358
 30
0.0
 40
7.0
 41
0.0
 71
     5
 72
     1
  1
90
 73
     1
 44
1.0
1001
ACAD
1000
MTEXTBEGIN
1070
    73
1070
     1
1070
    44
1040
1.0
1070
    74
1070
     0
1000
MTEXTEND
  0
POINT
  5
4389
330
417A
100
AcDbEntity
  8
Defpoints
 62
     0
100
AcDbPoint
 10
591.2200580959687
 20
192.4263725154722
 30
0.0
  0
POINT
  5
438A
330
417A
100
AcDbEntity
  8
Defpoints
 62
     0
100
AcDbPoint
 10
681.2200580959687
 20
192.4263725154722
 30
0.0
  0
POINT
  5
438B
330
417A
100
AcDbEntity
  8
Defpoints
 62
     0
100
AcDbPoint
 10
681.2200580959687
 20
158.2862531007358
 30
0.0
  0
ENDBLK
  5
4185
330
417A
100
AcDbEntity
  8
0
100
AcDbBlockEnd
  0
BLOCK
  5
41A2
330
4198
100
AcDbEntity
  8
0
100
AcDbBlockBegin
  2
*D22
 70
     1
 10
0.0
 20
0.0
 30
0.0
  3
*D22
  1

  0
LINE
  5
4F1D
330
4198
100
AcDbEntity
  8
AM_5
100
AcDbLine
 10
575.0523532598898
 20
225.9263725154723
 30
0.0
 11
562.0523532598897
 21
225.9263725154723
 31
0.0
  0
LINE
  5
4F1E
330
4198
100
AcDbEntity
  8
AM_5
100
AcDbLine
 10
627.2200580959685
 20
256.9263725154723
 30
0.0
 11
562.0523532598898
 21
256.9263725154723
 31
0.0
  0
LINE
  5
4F1F
330
4198
100
AcDbEntity
  8
AM_5
100
AcDbLine
 10
565.0523532598897
 20
231.9263725154723
 30
0.0
 11
565.0523532598897
 21
250.9263725154724
 31
0.0
  0
SOLID
  5
4F20
330
4198
100
AcDbEntity
  8
AM_5
100
AcDbTrace
 10
564.0523532598897
 20
231.9263725154723
 30
0.0
 11
566.0523532598897
 21
231.9263725154723
 31
0.0
 12
565.0523532598897
 22
225.9263725154723
 32
0.0
 13
565.0523532598897
 23
225.9263725154723
 33
0.0
  0
SOLID
  5
4F21
330
4198
100
AcDbEntity
  8
AM_5
100
AcDbTrace
 10
564.0523532598897
 20
250.9263725154724
 30
0.0
 11
566.0523532598897
 21
250.9263725154724
 31
0.0
 12
565.0523532598898
 22
256.9263725154723
 32
0.0
 13
565.0523532598898
 23
256.9263725154723
 33
0.0
  0
MTEXT
  5
4F22
330
4198
100
AcDbEntity
  8
AM_5
100
AcDbMText
 10
559.3523532598896
 20
241.4263725154724
 30
0.0
 40
7.0
 41
0.0
 71
     5
 72
     1
  1
31
 11
0.0000000000000001
 21
1.0
 31
0.0
 73
     1
 44
1.0
1001
ACAD
1000
MTEXTBEGIN
1070
    73
1070
     1
1070
    44
1040
1.0
1070
    74
1070
     0
1000
MTEXTEND
  0
POINT
  5
4F23
330
4198
100
AcDbEntity
  8
Defpoints
 62
     0
100
AcDbPoint
 10
577.0523532598899
 20
225.9263725154723
 30
0.0
  0
POINT
  5
4F24
330
4198
100
AcDbEntity
  8
Defpoints
 62
     0
100
AcDbPoint
 10
629.2200580959685
 20
256.9263725154723
 30
0.0
  0
POINT
  5
4F25
330
4198
100
AcDbEntity
  8
Defpoints
 62
     0
100
AcDbPoint
 10
565.0523532598898
 20
256.9263725154723
 30
0.0
  0
ENDBLK
  5
41A3
330
4198
100
AcDbEntity
  8
0
100
AcDbBlockEnd
  0
BLOCK
  5
41AE
330
41A4
100
AcDbEntity
  8
0
100
AcDbBlockBegin
  2
*D23
 70
     1
 10
0.0
 20
0.0
 30
0.0
  3
*D23
  1

  0
LINE
  5
4F13
330
41A4
100
AcDbEntity
  8
AM_5
100
AcDbLine
 10
575.0523532598898
 20
225.9263725154723
 30
0.0
 11
562.0523532598898
 21
225.9263725154723
 31
0.0
  0
LINE
  5
4F14
330
41A4
100
AcDbEntity
  8
AM_5
100
AcDbLine
 10
610.7200580959688
 20
199.9263725154724
 30
0.0
 11
562.0523532598898
 21
199.9263725154725
 31
0.0
  0
LINE
  5
4F15
330
41A4
100
AcDbEntity
  8
AM_5
100
AcDbLine
 10
565.0523532598898
 20
219.9263725154723
 30
0.0
 11
565.0523532598898
 21
205.9263725154725
 31
0.0
  0
SOLID
  5
4F16
330
41A4
100
AcDbEntity
  8
AM_5
100
AcDbTrace
 10
564.0523532598898
 20
219.9263725154723
 30
0.0
 11
566.0523532598898
 21
219.9263725154723
 31
0.0
 12
565.0523532598898
 22
225.9263725154723
 32
0.0
 13
565.0523532598898
 23
225.9263725154723
 33
0.0
  0
SOLID
  5
4F17
330
41A4
100
AcDbEntity
  8
AM_5
100
AcDbTrace
 10
564.0523532598898
 20
205.9263725154725
 30
0.0
 11
566.0523532598898
 21
205.9263725154725
 31
0.0
 12
565.0523532598898
 22
199.9263725154725
 32
0.0
 13
565.0523532598898
 23
199.9263725154725
 33
0.0
  0
MTEXT
  5
4F18
330
41A4
100
AcDbEntity
  8
AM_5
100
AcDbMText
 10
559.3516642835119
 20
212.9263725154725
 30
0.0
 40
7.0
 41
0.0
 71
     5
 72
     1
  1
26
 11
0.0000000000000001
 21
1.0
 31
0.0
 73
     1
 44
1.0
1001
ACAD
1000
MTEXTBEGIN
1070
    73
1070
     1
1070
    44
1040
1.0
1070
    74
1070
     0
1000
MTEXTEND
  0
POINT
  5
4F19
330
41A4
100
AcDbEntity
  8
Defpoints
 62
     0
100
AcDbPoint
 10
577.0523532598899
 20
225.9263725154723
 30
0.0
  0
POINT
  5
4F1A
330
41A4
100
AcDbEntity
  8
Defpoints
 62
     0
100
AcDbPoint
 10
612.7200580959688
 20
199.9263725154724
 30
0.0
  0
POINT
  5
4F1B
330
41A4
100
AcDbEntity
  8
Defpoints
 62
     0
100
AcDbPoint
 10
565.0523532598898
 20
199.9263725154725
 30
0.0
  0
ENDBLK
  5
41AF
330
41A4
100
AcDbEntity
  8
0
100
AcDbBlockEnd
  0
BLOCK
  5
41BA
330
41B0
100
AcDbEntity
  8
0
100
AcDbBlockBegin
  2
*D24
 70
     1
 10
0.0
 20
0.0
 30
0.0
  3
*D24
  1

  0
LINE
  5
43B0
330
41B0
100
AcDbEntity
  8
AM_5
100
AcDbLine
 10
688.7200580959687
 20
253.9263725154723
 30
0.0
 11
706.9479761899311
 21
253.9263725154722
 31
0.0
  0
LINE
  5
43B1
330
41B0
100
AcDbEntity
  8
AM_5
100
AcDbLine
 10
688.7200580959687
 20
197.9263725154723
 30
0.0
 11
706.9479761899311
 21
197.9263725154722
 31
0.0
  0
LINE
  5
43B2
330
41B0
100
AcDbEntity
  8
AM_5
100
AcDbLine
 10
703.9479761899311
 20
247.9263725154723
 30
0.0
 11
703.9479761899311
 21
203.9263725154723
 31
0.0
  0
SOLID
  5
43B3
330
41B0
100
AcDbEntity
  8
AM_5
100
AcDbTrace
 10
702.9479761899311
 20
247.9263725154723
 30
0.0
 11
704.9479761899312
 21
247.9263725154722
 31
0.0
 12
703.9479761899311
 22
253.9263725154723
 32
0.0
 13
703.9479761899311
 23
253.9263725154723
 33
0.0
  0
SOLID
  5
43B4
330
41B0
100
AcDbEntity
  8
AM_5
100
AcDbTrace
 10
702.9479761899311
 20
203.9263725154723
 30
0.0
 11
704.9479761899312
 21
203.9263725154722
 31
0.0
 12
703.9479761899311
 22
197.9263725154723
 32
0.0
 13
703.9479761899311
 23
197.9263725154723
 33
0.0
  0
MTEXT
  5
43B5
330
41B0
100
AcDbEntity
  8
AM_5
100
AcDbMText
 10
698.2479761899311
 20
225.9263725154724
 30
0.0
 40
7.0
 41
0.0
 71
     5
 72
     1
  1
56
 11
0.0000000000000001
 21
1.0
 31
0.0
 73
     1
 44
1.0
1001
ACAD
1000
MTEXTBEGIN
1070
    73
1070
     1
1070
    44
1040
1.0
1070
    74
1070
     0
1000
MTEXTEND
  0
POINT
  5
43B6
330
41B0
100
AcDbEntity
  8
Defpoints
 62
     0
100
AcDbPoint
 10
686.7200580959687
 20
253.9263725154723
 30
0.0
  0
POINT
  5
43B7
330
41B0
100
AcDbEntity
  8
Defpoints
 62
     0
100
AcDbPoint
 10
686.7200580959687
 20
197.9263725154723
 30
0.0
  0
POINT
  5
43B8
330
41B0
100
AcDbEntity
  8
Defpoints
 62
     0
100
AcDbPoint
 10
703.9479761899311
 20
197.9263725154723
 30
0.0
  0
ENDBLK
  5
41BB
330
41B0
100
AcDbEntity
  8
0
100
AcDbBlockEnd
  0
BLOCK
  5
4200
330
41F4
100
AcDbEntity
  8
0
100
AcDbBlockBegin
  2
*D25
 70
     1
 10
0.0
 20
0.0
 30
0.0
  3
*D25
  1

  0
LINE
  5
4F8F
330
41F4
100
AcDbEntity
  8
AM_5
100
AcDbLine
 10
645.2200580959685
 20
256.9263725154723
 30
0.0
 11
668.2901260646278
 21
256.9263725154723
 31
0.0
  0
LINE
  5
4F90
330
41F4
100
AcDbEntity
  8
AM_5
100
AcDbLine
 10
639.9708830959686
 20
260.4263725154723
 30
0.0
 11
668.2901260646278
 21
260.4263725154723
 31
0.0
  0
LINE
  5
4F91
330
41F4
100
AcDbEntity
  8
AM_5
100
AcDbLine
 10
665.2901260646276
 20
250.9263725154724
 30
0.0
 11
665.2901260646276
 21
244.9263725154724
 31
0.0
  0
LINE
  5
4F92
330
41F4
100
AcDbEntity
  8
AM_5
100
AcDbLine
 10
665.2901260646277
 20
266.4263725154723
 30
0.0
 11
665.2901260646277
 21
286.9163220091335
 31
0.0
  0
LINE
  5
4F93
330
41F4
100
AcDbEntity
  8
AM_5
100
AcDbLine
 10
665.2901260646277
 20
256.9263725154723
 30
0.0
 11
665.2901260646277
 21
260.4263725154723
 31
0.0
  0
SOLID
  5
4F94
330
41F4
100
AcDbEntity
  8
AM_5
100
AcDbTrace
 10
664.2901260646276
 20
250.9263725154724
 30
0.0
 11
666.2901260646276
 21
250.9263725154724
 31
0.0
 12
665.2901260646277
 22
256.9263725154723
 32
0.0
 13
665.2901260646277
 23
256.9263725154723
 33
0.0
  0
SOLID
  5
4F95
330
41F4
100
AcDbEntity
  8
AM_5
100
AcDbTrace
 10
664.2901260646278
 20
266.4263725154723
 30
0.0
 11
666.2901260646277
 21
266.4263725154723
 31
0.0
 12
665.2901260646277
 22
260.4263725154723
 32
0.0
 13
665.2901260646277
 23
260.4263725154723
 33
0.0
  0
MTEXT
  5
4F96
330
41F4
100
AcDbEntity
  8
AM_5
100
AcDbMText
 10
659.5901260646276
 20
279.671347262303
 30
0.0
 40
7.0
 41
0.0
 71
     5
 72
     1
  1
3.5
 11
0.0000000000000001
 21
1.0
 31
0.0
 73
     1
 44
1.0
1001
ACAD
1000
MTEXTBEGIN
1070
    73
1070
     1
1070
    44
1040
1.0
1070
    74
1070
     0
1000
MTEXTEND
  0
POINT
  5
4F97
330
41F4
100
AcDbEntity
  8
Defpoints
 62
     0
100
AcDbPoint
 10
643.2200580959685
 20
256.9263725154723
 30
0.0
  0
POINT
  5
4F98
330
41F4
100
AcDbEntity
  8
Defpoints
 62
     0
100
AcDbPoint
 10
637.9708830959685
 20
260.4263725154723
 30
0.0
  0
POINT
  5
4F99
330
41F4
100
AcDbEntity
  8
Defpoints
 62
     0
100
AcDbPoint
 10
665.2901260646277
 20
260.4263725154723
 30
0.0
  0
ENDBLK
  5
4201
330
41F4
100
AcDbEntity
  8
0
100
AcDbBlockEnd
  0
BLOCK
  5
4223
330
4219
100
AcDbEntity
  8
0
100
AcDbBlockBegin
  2
*D26
 70
     1
 10
0.0
 20
0.0
 30
0.0
  3
*D26
  1

  0
LINE
  5
434B
330
4219
100
AcDbEntity
  8
AM_5
100
AcDbLine
 10
689.2200580959687
 20
410.5715894510028
 30
0.0
 11
684.1988486319028
 21
410.5715894510028
 31
0.0
  0
LINE
  5
434C
330
4219
100
AcDbEntity
  8
AM_5
100
AcDbLine
 10
644.2200580959689
 20
388.0715894510029
 30
0.0
 11
690.1988486319027
 21
388.0715894510029
 31
0.0
  0
LINE
  5
434D
330
4219
100
AcDbEntity
  8
AM_5
100
AcDbLine
 10
687.1988486319028
 20
404.5715894510029
 30
0.0
 11
687.1988486319028
 21
394.0715894510029
 31
0.0
  0
SOLID
  5
434E
330
4219
100
AcDbEntity
  8
AM_5
100
AcDbTrace
 10
686.1988486319027
 20
404.5715894510029
 30
0.0
 11
688.1988486319028
 21
404.5715894510029
 31
0.0
 12
687.1988486319028
 22
410.5715894510028
 32
0.0
 13
687.1988486319028
 23
410.5715894510028
 33
0.0
  0
SOLID
  5
434F
330
4219
100
AcDbEntity
  8
AM_5
100
AcDbTrace
 10
686.1988486319027
 20
394.0715894510029
 30
0.0
 11
688.1988486319028
 21
394.0715894510029
 31
0.0
 12
687.1988486319028
 22
388.0715894510029
 32
0.0
 13
687.1988486319028
 23
388.0715894510029
 33
0.0
  0
MTEXT
  5
4350
330
4219
100
AcDbEntity
  8
AM_5
100
AcDbMText
 10
681.4981596555248
 20
399.3215894510029
 30
0.0
 40
7.0
 41
0.0
 71
     5
 72
     1
  1
22.5
 11
0.0000000000000001
 21
1.0
 31
0.0
 73
     1
 44
1.0
1001
ACAD
1000
MTEXTBEGIN
1070
    73
1070
     1
1070
    44
1040
1.0
1070
    74
1070
     0
1000
MTEXTEND
  0
POINT
  5
4351
330
4219
100
AcDbEntity
  8
Defpoints
 62
     0
100
AcDbPoint
 10
691.2200580959687
 20
410.5715894510028
 30
0.0
  0
POINT
  5
4352
330
4219
100
AcDbEntity
  8
Defpoints
 62
     0
100
AcDbPoint
 10
642.2200580959689
 20
388.0715894510029
 30
0.0
  0
POINT
  5
4353
330
4219
100
AcDbEntity
  8
Defpoints
 62
     0
100
AcDbPoint
 10
687.1988486319028
 20
388.0715894510029
 30
0.0
  0
ENDBLK
  5
4224
330
4219
100
AcDbEntity
  8
0
100
AcDbBlockEnd
  0
ENDSEC
  0
SECTION
  2
ENTITIES
  0
LWPOLYLINE
  5
262E
330
1F
100
AcDbEntity
  8
LOGO
 62
     4
100
AcDbPolyline
 90
        4
 70
     1
 43
0.0
 10
489.8111698256295
 20
114.9454976897396
 10
911.6531738710362
 20
114.9454976897396
 10
911.6531738710362
 20
674.8959797241566
 10
489.8111698256295
 20
674.8959797241566
1001
GENIUS_GENREC_14
1002
{
1000
PYDIR
1011
489.8111698256295
1021
674.8959797241566
1031
0.0
1002
}
1002
{
1000
PXDIR
1011
911.6531738710362
1021
114.9454976897396
1031
0.0
1002
}
1002
{
1000
PORI
1011
489.8111698256295
1021
114.9454976897396
1031
0.0
1002
}
1002
{
1000
PINS
1011
489.8111698256295
1021
114.9454976897396
1031
0.0
1002
}
1002
{
1000
PINS2
1011
911.6531738710362
1021
674.8959797241566
1031
0.0
1002
}
1002
{
1000
C
1070
     1
1002
}
1001
GENIUS_GENODEF_13
1002
{
1000
HIER
1070
     0
1002
}
1002
{
1000
MANEDIT
1070
     0
1002
}
1002
{
1000
NOSEL
1070
     0
1002
}
1002
{
1000
BEHIND
1070
     0
1002
}
1002
{
1000
OTHER
1070
     0
1002
}
1002
{
1000
REACTOR
1002
}
1001
GENIUS_GENOBJ-N-REC_13
1002
{
1000
OWNER
1000
GEN
1002
}
  0
LWPOLYLINE
  5
262F
330
1F
100
AcDbEntity
  8
LOGO
 62
     4
100
AcDbPolyline
 90
        4
 70
     1
 43
0.0
 10
489.8111698256295
 20
114.9454976897396
 10
911.6531738710362
 20
114.9454976897396
 10
911.6531738710362
 20
69.45208592503295
 10
489.8111698256295
 20
69.45208592503295
1001
GENIUS_GENREC_14
1002
{
1000
PYDIR
1011
489.8111698256295
1021
69.45208592503295
1031
0.0
1002
}
1002
{
1000
PXDIR
1011
911.6531738710362
1021
114.9454976897396
1031
0.0
1002
}
1002
{
1000
PORI
1011
489.8111698256295
1021
114.9454976897396
1031
0.0
1002
}
1002
{
1000
PINS
1011
489.8111698256295
1021
114.9454976897396
1031
0.0
1002
}
1002
{
1000
PINS2
1011
911.6531738710362
1021
69.45208592503295
1031
0.0
1002
}
1002
{
1000
C
1070
     1
1002
}
1001
GENIUS_GENOBJ-N-REC_13
1002
{
1000
OWNER
1000
GEN
1002
}
1001
GENIUS_GENODEF_13
1002
{
1000
HIER
1070
     0
1002
}
1002
{
1000
MANEDIT
1070
     0
1002
}
1002
{
1000
NOSEL
1070
     0
1002
}
1002
{
1000
BEHIND
1070
     0
1002
}
1002
{
1000
OTHER
1070
     0
1002
}
1002
{
1000
REACTOR
1002
}
  0
TEXT
  5
2630
330
1F
100
AcDbEntity
  8
LOGO
 62
     7
100
AcDbText
 10
592.5322812701885
 20
95.01560813217297
 30
0.0
 40
6.065788235294117
  1
Order example:
 41
0.8
  7
CHINESET
100
AcDbText
  0
TEXT
  5
2631
330
1F
100
AcDbEntity
  8
LOGO
 62
     7
100
AcDbText
 10
593.6205338416284
 20
103.5549820299873
 30
0.0
 40
9.098682352941175
  1
訂購代號：
  7
CHINESET
100
AcDbText
  0
LINE
  5
2632
330
1F
100
AcDbEntity
  8
LOGO
 62
     4
100
AcDbLine
 10
589.8966757079825
 20
69.45208592503347
 30
0.0
 11
589.8966757079825
 21
114.9454976897396
 31
0.0
  0
TEXT
  5
2633
330
1F
100
AcDbEntity
  8
LOGO
  6
Continuous
100
AcDbText
 10
506.1526078283543
 20
78.38919801066554
 30
0.0
 40
6.824011764705882
  1
金器工業股份有限公司
  7
CHINESET
100
AcDbText
  0
TEXT
  5
2634
330
1F
100
AcDbEntity
  8
LOGO
  6
Continuous
100
AcDbText
 10
493.6182482807392
 20
71.56384927467701
 30
0.0
 40
4.549341176470587
  1
MINDMAN INDUSTRIAL CO., LTD.
 41
0.85
  7
CHINESET
100
AcDbText
  0
LINE
  5
2635
330
1F
100
AcDbEntity
  8
LOGO
 62
     4
100
AcDbLine
 10
589.8966757079825
 20
105.8468153367984
 30
0.0
 11
523.1730051197468
 21
105.8468153367984
 31
0.0
  0
LINE
  5
2636
330
1F
100
AcDbEntity
  8
LOGO
 62
     4
100
AcDbLine
 10
589.8966757079825
 20
96.74813298385718
 30
0.0
 11
523.1730051197468
 21
96.74813298385718
 31
0.0
  0
LINE
  5
2637
330
1F
100
AcDbEntity
  8
LOGO
 62
     4
100
AcDbLine
 10
589.8966757079825
 20
87.64945063091644
 30
0.0
 11
489.8111698256294
 21
87.64945063091644
 31
0.0
  0
LINE
  5
2638
330
1F
100
AcDbEntity
  8
LOGO
 62
     4
100
AcDbLine
 10
523.1730051197468
 20
87.64945063091644
 30
0.0
 11
523.1730051197468
 21
114.9454976897396
 31
0.0
  0
TEXT
  5
2639
330
1F
100
AcDbEntity
  8
LOGO
100
AcDbText
 10
568.775484657524
 20
89.924121219151
 30
0.0
 40
4.549341176470587
  1
mm
  7
CHINESET
 72
     1
 11
574.4080023045828
 21
92.19879180738629
 31
0.0
100
AcDbText
 73
     2
  0
TEXT
  5
263A
330
1F
100
AcDbEntity
  8
LOGO
100
AcDbText
 10
566.3924964222299
 20
108.1214859250335
 30
0.0
 40
4.549341176470587
  1
1 : 1
  7
CHINESET
 72
     1
 11
574.4080023045828
 21
110.3961565132687
 31
0.0
100
AcDbText
 73
     2
  0
LINE
  5
263B
330
1F
100
AcDbEntity
  8
LOGO
 62
     4
100
AcDbLine
 10
559.5677345315117
 20
87.64945063091644
 30
0.0
 11
559.5677345315117
 21
114.9454976897396
 31
0.0
  0
CIRCLE
  5
263C
330
1F
100
AcDbEntity
  8
LOGO
  6
Continuous
100
AcDbCircle
 10
567.9914087423461
 20
101.3072052343956
 30
0.0
 40
2.641454566479436
  0
CIRCLE
  5
263D
330
1F
100
AcDbEntity
  8
LOGO
  6
Continuous
100
AcDbCircle
 10
567.9914087423461
 20
101.3072052343956
 30
0.0
 40
1.547658541214233
  0
LINE
  5
263E
330
1F
100
AcDbEntity
  8
LOGO
100
AcDbLine
 10
584.5906157395291
 20
98.6657506679157
 30
0.0
 11
584.5906157395291
 21
103.9486598008756
 31
0.0
  0
LINE
  5
263F
330
1F
100
AcDbEntity
  8
LOGO
100
AcDbLine
 10
576.3098073003435
 20
99.75954669318168
 30
0.0
 11
576.3098073003435
 21
102.8548637756101
 31
0.0
  0
LINE
  5
2640
330
1F
100
AcDbEntity
  8
LOGO
  6
Continuous
100
AcDbLine
 10
576.3098073003435
 20
102.8548637756101
 30
0.0
 11
584.5906157395291
 21
103.9486598008756
 31
0.0
  0
LINE
  5
2641
330
1F
100
AcDbEntity
  8
LOGO
  6
Continuous
100
AcDbLine
 10
576.3098073003435
 20
99.75954669318168
 30
0.0
 11
584.5906157395291
 21
98.6657506679157
 31
0.0
  0
TEXT
  5
2642
330
1F
100
AcDbEntity
  8
LOGO
100
AcDbText
 10
526.9241806344528
 20
108.1237247740376
 30
298.1563261041133
 40
4.549341176470587
  1
比例 Scale:
 41
0.9
  7
CHINESET
 72
     4
 11
541.3703698256292
 21
110.3961565132687
 31
298.1563261041133
100
AcDbText
  0
TEXT
  5
2643
330
1F
100
AcDbEntity
  8
LOGO
100
AcDbText
 10
526.6621873256292
 20
99.08679733946138
 30
298.1563261041133
 40
4.549341176470587
  1
投影  View:
 41
0.9
  7
CHINESET
 72
     4
 11
541.3703698256292
 21
101.2974741603275
 31
298.1563261041133
100
AcDbText
  0
TEXT
  5
2644
330
1F
100
AcDbEntity
  8
LOGO
100
AcDbText
 10
527.1069666638645
 20
89.924121219151
 30
298.1563261041133
 40
4.549341176470587
  1
單位  Unit:
 41
0.9
  7
CHINESET
 72
     4
 11
541.3703698256292
 21
92.19879180738629
 31
298.1563261041133
100
AcDbText
  0
SOLID
  5
2645
330
1F
100
AcDbEntity
  8
LOGO
 62
     5
100
AcDbTrace
 10
494.5311843075899
 20
95.21208278907344
 30
0.0
 11
496.4982000575833
 21
95.21208278907293
 31
0.0
 12
504.7054037041071
 22
113.8648183493562
 32
0.0
 13
506.6724194541015
 23
113.8648183493552
 33
0.0
  0
SOLID
  5
2646
330
1F
100
AcDbEntity
  8
LOGO
 62
     5
100
AcDbTrace
 10
497.3121376093068
 20
95.21208278907344
 30
0.0
 11
499.2791533593003
 21
95.21208278907344
 31
0.0
 12
506.6724194541015
 22
112.3725995045328
 32
0.0
 13
504.7054037041071
 23
105.1602084212235
 33
0.0
  0
SOLID
  5
2647
330
1F
100
AcDbEntity
  8
LOGO
 62
     2
100
AcDbTrace
 10
496.4982000575833
 20
95.21208278907293
 30
0.0
 11
497.3121376093068
 21
95.21208278907344
 31
0.0
 12
506.6724194541015
 22
113.8648183493552
 32
0.0
 13
507.4863570058241
 23
113.8648183493552
 33
0.0
  0
SOLID
  5
2648
330
1F
100
AcDbEntity
  8
LOGO
 62
     5
100
AcDbTrace
 10
491.3775756890014
 20
88.42926985806213
 30
0.0
 11
492.0558569821033
 21
88.42926985806213
 31
0.0
 12
493.9659498966729
 22
91.82067632356753
 32
0.0
 13
494.6442311897727
 23
91.82067632356753
 33
0.0
  0
SOLID
  5
2649
330
1F
100
AcDbEntity
  8
LOGO
 62
     5
100
AcDbTrace
 10
493.9659498966729
 20
91.82067632356753
 30
0.0
 11
494.6442311897727
 21
91.82067632356753
 31
0.0
 12
493.9659498966729
 22
88.42926985806213
 32
0.0
 13
494.6442311897727
 23
88.42926985806213
 33
0.0
  0
SOLID
  5
264A
330
1F
100
AcDbEntity
  8
LOGO
 62
     5
100
AcDbTrace
 10
493.9659498966729
 20
88.42926985806213
 30
0.0
 11
494.6442311897727
 21
88.42926985806213
 31
0.0
 12
496.5543241043454
 22
91.82067632356753
 32
0.0
 13
497.2326053974463
 23
91.82067632356753
 33
0.0
  0
SOLID
  5
264B
330
1F
100
AcDbEntity
  8
LOGO
 62
     5
100
AcDbTrace
 10
496.5543241043454
 20
91.82067632356753
 30
0.0
 11
497.2326053974463
 21
91.82067632356753
 31
0.0
 12
496.5543241043454
 22
88.42926985806213
 32
0.0
 13
497.2326053974463
 23
88.42926985806213
 33
0.0
  0
POLYLINE
  5
264C
330
1F
100
AcDbEntity
  8
LOGO
 62
     5
100
AcDb2dPolyline
 66
     1
 10
0.0
 20
0.0
 30
0.0
 40
0.6793682823529412
 41
0.6793682823529412
  0
VERTEX
  5
264D
330
264C
100
AcDbEntity
  8
LOGO
 62
     5
100
AcDbVertex
100
AcDb2dVertex
 10
519.2900819896619
 20
90.46411373736527
 30
0.0
 42
1.0
  0
VERTEX
  5
264E
330
264C
100
AcDbEntity
  8
LOGO
 62
     5
100
AcDbVertex
100
AcDb2dVertex
 10
517.2519771426027
 20
90.46411373736527
 30
0.0
 42
1.0
  0
SEQEND
  5
264F
330
264C
100
AcDbEntity
  8
LOGO
 62
     5
  0
POLYLINE
  5
2650
330
1F
100
AcDbEntity
  8
LOGO
 62
     5
100
AcDb2dPolyline
 66
     1
 10
0.0
 20
0.0
 30
0.0
 70
     1
  0
VERTEX
  5
2651
330
2650
100
AcDbEntity
  8
LOGO
 62
     5
100
AcDbVertex
100
AcDb2dVertex
 10
513.410058850992
 20
90.12497309081432
 30
0.0
 42
1.000000057330635
  0
VERTEX
  5
2652
330
2650
100
AcDbEntity
  8
LOGO
 62
     5
100
AcDbVertex
100
AcDb2dVertex
 10
515.4449027302957
 20
90.12497309081432
 30
0.0
 42
1.000000057330635
  0
SEQEND
  5
2653
330
2650
100
AcDbEntity
  8
LOGO
 62
     5
  0
CIRCLE
  5
2654
330
1F
100
AcDbEntity
  8
LOGO
 62
     5
100
AcDbCircle
 10
514.4274807906454
 20
90.12497309081432
 30
0.0
 40
1.017421939651764
  0
POLYLINE
  5
2655
330
1F
100
AcDbEntity
  8
LOGO
 62
     5
100
AcDb2dPolyline
 66
     1
 10
0.0
 20
0.0
 30
0.0
 70
     1
 40
0.6793682823529412
 41
0.6793682823529412
  0
VERTEX
  5
2656
330
2655
100
AcDbEntity
  8
LOGO
 62
     5
100
AcDbVertex
100
AcDb2dVertex
 10
513.0687442259386
 20
90.12497309081432
 30
0.0
 42
1.0
  0
VERTEX
  5
2657
330
2655
100
AcDbEntity
  8
LOGO
 62
     5
100
AcDbVertex
100
AcDb2dVertex
 10
515.7862173553503
 20
90.12497309081432
 30
0.0
 42
1.0
  0
SEQEND
  5
2658
330
2655
100
AcDbEntity
  8
LOGO
 62
     5
  0
LINE
  5
2659
330
1F
100
AcDbEntity
  8
LOGO
100
AcDbLine
 10
519.6275921523335
 20
88.42926985806213
 30
0.0
 11
519.6275921523335
 21
90.46411373736527
 31
0.0
  0
SOLID
  5
265A
330
1F
100
AcDbEntity
  8
LOGO
 62
     5
100
AcDbTrace
 10
515.4448349021695
 20
91.82067632356753
 30
0.0
 11
516.1231161952693
 21
91.82067632356753
 31
0.0
 12
515.4448349021695
 22
88.42926985806213
 32
0.0
 13
516.1231161952693
 23
88.42926985806213
 33
0.0
  0
SOLID
  5
265B
330
1F
100
AcDbEntity
  8
LOGO
 62
     5
100
AcDbTrace
 10
516.914466979929
 20
88.42926985806213
 30
0.0
 11
517.592748273031
 21
88.42926985806213
 31
0.0
 12
516.914466979929
 22
91.82067632356753
 32
0.0
 13
517.592748273031
 23
91.82067632356753
 33
0.0
  0
SOLID
  5
265C
330
1F
100
AcDbEntity
  8
LOGO
 62
     5
100
AcDbTrace
 10
518.9493108592338
 20
90.46411373736527
 30
0.0
 11
519.6275921523335
 21
90.46411373736527
 31
0.0
 12
518.9493108592338
 22
88.42926985806213
 32
0.0
 13
519.6275921523335
 23
88.42926985806213
 33
0.0
  0
SOLID
  5
265D
330
1F
100
AcDbEntity
  8
LOGO
 62
     5
100
AcDbTrace
 10
516.8466388506187
 20
112.3725995045328
 30
0.0
 11
514.8796231006265
 21
105.1602084212235
 31
0.0
 12
516.8466388506187
 22
95.21208278907293
 32
0.0
 13
514.8796231006265
 23
95.21208278907293
 33
0.0
  0
SOLID
  5
265E
330
1F
100
AcDbEntity
  8
LOGO
 62
     5
100
AcDbTrace
 10
517.6605764023413
 20
95.21208278907293
 30
0.0
 11
519.6275921523335
 21
95.21208278907293
 31
0.0
 12
517.6605764023413
 22
113.8648183493552
 32
0.0
 13
519.6275921523335
 23
113.8648183493562
 33
0.0
  0
SOLID
  5
265F
330
1F
100
AcDbEntity
  8
LOGO
 62
     2
100
AcDbTrace
 10
516.8466388506187
 20
113.8648183493562
 30
0.0
 11
517.6605764023413
 21
113.8648183493552
 31
0.0
 12
516.8466388506187
 22
95.21208278907293
 32
0.0
 13
517.6605764023413
 23
95.21208278907293
 33
0.0
  0
POLYLINE
  5
2660
330
1F
100
AcDbEntity
  8
LOGO
 62
     5
100
AcDb2dPolyline
 66
     1
 10
0.0
 20
0.0
 30
0.0
 40
0.6793682823529412
 41
0.6793682823529412
  0
VERTEX
  5
2661
330
2660
100
AcDbEntity
  8
LOGO
 62
     5
100
AcDbVertex
100
AcDb2dVertex
 10
509.5680049031257
 20
90.46411373736527
 30
0.0
 42
1.0
  0
VERTEX
  5
2662
330
2660
100
AcDbEntity
  8
LOGO
 62
     5
100
AcDbVertex
100
AcDb2dVertex
 10
507.5299000560666
 20
90.46411373736527
 30
0.0
 42
1.0
  0
SEQEND
  5
2663
330
2660
100
AcDbEntity
  8
LOGO
 62
     5
  0
POLYLINE
  5
2664
330
1F
100
AcDbEntity
  8
LOGO
 62
     5
100
AcDb2dPolyline
 66
     1
 10
0.0
 20
0.0
 30
0.0
 40
0.6793682823529412
 41
0.6793682823529412
  0
VERTEX
  5
2665
330
2664
100
AcDbEntity
  8
LOGO
 62
     5
100
AcDbVertex
100
AcDb2dVertex
 10
511.6028487824273
 20
90.46411373736527
 30
0.0
 42
1.0
  0
VERTEX
  5
2666
330
2664
100
AcDbEntity
  8
LOGO
 62
     5
100
AcDbVertex
100
AcDb2dVertex
 10
509.5647439353691
 20
90.46411373736527
 30
0.0
 42
1.0
  0
SEQEND
  5
2667
330
2664
100
AcDbEntity
  8
LOGO
 62
     5
  0
POLYLINE
  5
2668
330
1F
100
AcDbEntity
  8
LOGO
 62
     5
100
AcDb2dPolyline
 66
     1
 10
0.0
 20
0.0
 30
0.0
 40
0.6793682823529412
 41
0.6793682823529412
  0
VERTEX
  5
2669
330
2668
100
AcDbEntity
  8
LOGO
 62
     5
100
AcDbVertex
100
AcDb2dVertex
 10
501.8807716958911
 20
90.46411373736527
 30
0.0
 42
1.0
  0
VERTEX
  5
266A
330
2668
100
AcDbEntity
  8
LOGO
 62
     5
100
AcDbVertex
100
AcDb2dVertex
 10
499.8426668488329
 20
90.46411373736527
 30
0.0
 42
1.0
  0
SEQEND
  5
266B
330
2668
100
AcDbEntity
  8
LOGO
 62
     5
  0
SOLID
  5
266C
330
1F
100
AcDbEntity
  8
LOGO
 62
     5
100
AcDbTrace
 10
499.5051566861603
 20
91.82067632356753
 30
0.0
 11
500.1834379792601
 21
91.82067632356753
 31
0.0
 12
499.5051566861603
 22
88.42926985806213
 32
0.0
 13
500.1834379792601
 23
88.42926985806213
 33
0.0
  0
SOLID
  5
266D
330
1F
100
AcDbEntity
  8
LOGO
 62
     5
100
AcDbTrace
 10
501.5400005654639
 20
90.46411373736527
 30
0.0
 11
502.2182818585658
 21
90.46411373736527
 31
0.0
 12
501.5400005654639
 22
88.42926985806213
 32
0.0
 13
502.2182818585658
 23
88.42926985806213
 33
0.0
  0
POLYLINE
  5
266E
330
1F
100
AcDbEntity
  8
LOGO
 62
     5
100
AcDb2dPolyline
 66
     1
 10
0.0
 20
0.0
 30
0.0
 70
     1
 40
0.6793682823529412
 41
0.6793682823529412
  0
VERTEX
  5
266F
330
266E
100
AcDbEntity
  8
LOGO
 62
     5
100
AcDbVertex
100
AcDb2dVertex
 10
503.3466671394013
 20
90.12497309081432
 30
0.0
 42
1.0
  0
VERTEX
  5
2670
330
266E
100
AcDbEntity
  8
LOGO
 62
     5
100
AcDbVertex
100
AcDb2dVertex
 10
506.064140268814
 20
90.12497309081432
 30
0.0
 42
1.0
  0
SEQEND
  5
2671
330
266E
100
AcDbEntity
  8
LOGO
 62
     5
  0
SOLID
  5
2672
330
1F
100
AcDbEntity
  8
LOGO
 62
     5
100
AcDbTrace
 10
505.7227578156312
 20
92.83809826321988
 30
0.0
 11
506.4010391087321
 21
92.83809826321988
 31
0.0
 12
505.7227578156312
 22
88.42926985806213
 32
0.0
 13
506.4010391087321
 23
88.42926985806213
 33
0.0
  0
SOLID
  5
2673
330
1F
100
AcDbEntity
  8
LOGO
 62
     5
100
AcDbTrace
 10
507.192389893395
 20
91.82067632356753
 30
0.0
 11
507.8706711864947
 21
91.82067632356753
 31
0.0
 12
507.192389893395
 22
88.42926985806213
 32
0.0
 13
507.8706711864947
 23
88.42926985806213
 33
0.0
  0
SOLID
  5
2674
330
1F
100
AcDbEntity
  8
LOGO
 62
     5
100
AcDbTrace
 10
509.2272337726965
 20
90.46411373736527
 30
0.0
 11
509.9055150657984
 21
90.46411373736527
 31
0.0
 12
509.2272337726965
 22
88.42926985806213
 32
0.0
 13
509.9055150657984
 23
88.42926985806213
 33
0.0
  0
SOLID
  5
2675
330
1F
100
AcDbEntity
  8
LOGO
 62
     5
100
AcDbTrace
 10
511.2620776520001
 20
90.46411373736527
 30
0.0
 11
511.940358945101
 21
90.46411373736527
 31
0.0
 12
511.2620776520001
 22
88.4292698580611
 32
0.0
 13
511.940358945101
 23
88.4292698580611
 33
0.0
  0
SOLID
  5
2676
330
1F
100
AcDbEntity
  8
LOGO
 62
     5
100
AcDbTrace
 10
498.0355246083976
 20
92.29547322873855
 30
0.0
 11
498.7138059015006
 21
92.29547322873855
 31
0.0
 12
498.0355246083976
 22
92.83809826321988
 32
0.0
 13
498.7138059015006
 23
92.83809826321988
 33
0.0
  0
SOLID
  5
2677
330
1F
100
AcDbEntity
  8
LOGO
 62
     5
100
AcDbTrace
 10
498.0355246083976
 20
91.82067632356753
 30
0.0
 11
498.7138059015006
 21
91.82067632356753
 31
0.0
 12
498.0355246083976
 22
88.4292698580611
 32
0.0
 13
498.7138059015006
 23
88.42926985806213
 33
0.0
  0
SOLID
  5
2678
330
1F
100
AcDbEntity
  8
LOGO
 62
     5
100
AcDbTrace
 10
504.7054037041071
 20
95.21208278907344
 30
0.0
 11
506.6724194541015
 21
95.21208278907344
 31
0.0
 12
504.7054037041071
 22
105.1602084212235
 32
0.0
 13
506.6724194541015
 23
112.3725995045328
 33
0.0
  0
SOLID
  5
2679
330
1F
100
AcDbEntity
  8
LOGO
 62
     5
100
AcDbTrace
 10
507.4863570058241
 20
113.8648183493552
 30
0.0
 11
509.4533727558164
 21
113.8648183493562
 31
0.0
 12
507.4863570058241
 22
96.70430163389578
 32
0.0
 13
509.4533727558164
 23
103.9166927172051
 33
0.0
  0
SOLID
  5
267A
330
1F
100
AcDbEntity
  8
LOGO
 62
     2
100
AcDbTrace
 10
506.6724194541015
 20
113.8648183493552
 30
0.0
 11
507.4863570058241
 21
113.8648183493552
 31
0.0
 12
506.6724194541015
 22
95.21208278907344
 32
0.0
 13
507.4863570058241
 23
95.21208278907344
 33
0.0
  0
SOLID
  5
267B
330
1F
100
AcDbEntity
  8
LOGO
 62
     5
100
AcDbTrace
 10
507.4863570058241
 20
96.70430163389578
 30
0.0
 11
509.4533727558164
 21
103.9166927172051
 31
0.0
 12
516.8466388506187
 22
113.8648183493562
 32
0.0
 13
514.8796231006265
 23
113.8648183493562
 33
0.0
  0
SOLID
  5
267C
330
1F
100
AcDbEntity
  8
LOGO
 62
     5
100
AcDbTrace
 10
507.4863570058241
 20
95.21208278907344
 30
0.0
 11
509.4533727558164
 21
95.21208278907344
 31
0.0
 12
516.8466388506187
 22
112.3725995045328
 32
0.0
 13
514.8796231006265
 23
105.1602084212235
 33
0.0
  0
SOLID
  5
267D
330
1F
100
AcDbEntity
  8
LOGO
 62
     2
100
AcDbTrace
 10
506.6724194541015
 20
95.21208278907344
 30
0.0
 11
507.4863570058241
 21
95.21208278907344
 31
0.0
 12
516.8466388506187
 22
113.8648183493562
 32
0.0
 13
517.6605764023413
 23
113.8648183493552
 33
0.0
  0
LINE
  5
267E
330
1F
100
AcDbEntity
  8
LOGO
 62
     4
100
AcDbLine
 10
682.7997856666923
 20
89.92412121915188
 30
0.0
 11
682.7997856666923
 21
73.24320357209218
 31
0.0
  0
LINE
  5
267F
330
1F
100
AcDbEntity
  8
LOGO
 62
     4
100
AcDbLine
 10
652.4708444902215
 20
89.92412121915188
 30
0.0
 11
652.4708444902215
 21
73.24320357209218
 31
0.0
  0
LINE
  5
2680
330
1F
100
AcDbEntity
  8
LOGO
 62
     4
100
AcDbLine
 10
682.7997856666923
 20
73.24320357209218
 30
0.0
 11
652.4708444902215
 21
73.24320357209218
 31
0.0
  0
LINE
  5
2681
330
1F
100
AcDbEntity
  8
LOGO
 62
     4
100
AcDbLine
 10
688.2396035876681
 20
110.3961565132687
 30
0.0
 11
652.4708444902215
 21
110.3961565132687
 31
0.0
  0
LINE
  5
2682
330
1F
100
AcDbEntity
  8
LOGO
 62
     4
100
AcDbLine
 10
688.2396035876681
 20
96.74813298385718
 30
0.0
 11
652.4708444902215
 21
96.74813298385718
 31
0.0
  0
LINE
  5
2683
330
1F
100
AcDbEntity
  8
LOGO
 62
     4
100
AcDbLine
 10
652.4708444902215
 20
110.3961565132687
 30
0.0
 11
652.4708444902215
 21
96.74813298385718
 31
0.0
  0
LINE
  5
2684
330
1F
100
AcDbEntity
  8
LOGO
 62
     4
100
AcDbLine
 10
688.2396035876681
 20
110.3961565132687
 30
0.0
 11
688.2396035876681
 21
96.74813298385718
 31
0.0
  0
LINE
  5
2685
330
1F
100
AcDbEntity
  8
LOGO
 62
     4
100
AcDbLine
 10
669.2177240389447
 20
96.74813298385718
 30
0.0
 11
669.2177240389447
 21
89.92412121915188
 31
0.0
  0
TEXT
  5
2686
330
1F
100
AcDbEntity
  8
LOGO
  6
Continuous
 62
     7
100
AcDbText
 10
654.8958845241834
 20
99.5971379422135
 30
0.0
 40
7.9625
  1
MSBR
  7
CHINESET
100
AcDbText
  0
LINE
  5
2687
330
1F
100
AcDbEntity
  8
LOGO
 62
     4
100
AcDbLine
 10
682.7997856666923
 20
89.92412121915188
 30
0.0
 11
652.4708444902215
 21
89.92412121915188
 31
0.0
  0
TEXT
  5
2688
330
1F
100
AcDbEntity
  8
LOGO
  6
Continuous
100
AcDbText
 10
662.2033056937843
 20
75.59767972526704
 30
298.1563261041133
 40
3.4125
  1
Model
 41
0.8
  7
CHINESET
100
AcDbText
  0
TEXT
  5
2689
330
1F
100
AcDbEntity
  8
LOGO
100
AcDbText
 10
661.2950091273363
 20
81.92371927902682
 30
298.1563261041133
 40
5.6875
  1
型號
  7
CHINESET
100
AcDbText
  0
LINE
  5
268A
330
1F
100
AcDbEntity
  8
LOGO
  6
Continuous
 62
     7
100
AcDbLine
 10
689.6905012882061
 20
103.5238012923245
 30
0.0
 11
695.7169704845434
 21
103.5238012923245
 31
0.0
  0
LINE
  5
2696
330
1F
100
AcDbEntity
  8
LOGO
 62
     4
100
AcDbLine
 10
719.0736222286073
 20
89.92412121915188
 30
0.0
 11
719.0736222286073
 21
73.24320357209218
 31
0.0
  0
LINE
  5
2697
330
1F
100
AcDbEntity
  8
LOGO
 62
     4
100
AcDbLine
 10
688.7446810521364
 20
89.92412121915188
 30
0.0
 11
688.7446810521364
 21
73.24320357209218
 31
0.0
  0
LINE
  5
2698
330
1F
100
AcDbEntity
  8
LOGO
 62
     4
100
AcDbLine
 10
719.0736222286073
 20
73.24320357209218
 30
0.0
 11
688.7446810521364
 21
73.24320357209218
 31
0.0
  0
LINE
  5
2699
330
1F
100
AcDbEntity
  8
LOGO
 62
     4
100
AcDbLine
 10
722.0569338266725
 20
110.3961565132687
 30
0.0
 11
698.7359211497108
 21
110.3961565132687
 31
0.0
  0
LINE
  5
269A
330
1F
100
AcDbEntity
  8
LOGO
 62
     4
100
AcDbLine
 10
722.0569338266725
 20
96.74813298385718
 30
0.0
 11
698.7359211497108
 21
96.74813298385718
 31
0.0
  0
LINE
  5
269B
330
1F
100
AcDbEntity
  8
LOGO
 62
     4
100
AcDbLine
 10
698.7359211497108
 20
110.3961565132687
 30
0.0
 11
698.7359211497108
 21
96.74813298385718
 31
0.0
  0
LINE
  5
269C
330
1F
100
AcDbEntity
  8
LOGO
 62
     4
100
AcDbLine
 10
722.0569338266725
 20
110.3961565132687
 30
0.0
 11
722.0569338266725
 21
96.74813298385718
 31
0.0
  0
LINE
  5
269D
330
1F
100
AcDbEntity
  8
LOGO
 62
     4
100
AcDbLine
 10
710.3964274881917
 20
96.74813298385718
 30
0.0
 11
710.3964274881917
 21
89.92412121915188
 31
0.0
  0
TEXT
  5
269E
330
1F
100
AcDbEntity
  8
LOGO
  6
Continuous
 62
     7
100
AcDbText
 10
703.2137527378129
 20
99.5971379422135
 30
0.0
 40
7.9625
  1
40
  7
CHINESET
100
AcDbText
  0
LINE
  5
269F
330
1F
100
AcDbEntity
  8
LOGO
 62
     4
100
AcDbLine
 10
719.0736222286073
 20
89.92412121915188
 30
0.0
 11
688.7446810521364
 21
89.92412121915188
 31
0.0
  0
LINE
  5
26A0
330
1F
100
AcDbEntity
  8
LOGO
  6
Continuous
 62
     7
100
AcDbLine
 10
723.998283775099
 20
103.5238012923245
 30
0.0
 11
730.0247529714376
 21
103.5238012923245
 31
0.0
  0
LINE
  5
26A1
330
1F
100
AcDbEntity
  8
LOGO
 62
     4
100
AcDbLine
 10
752.7147014121031
 20
89.92412121915188
 30
0.0
 11
752.7147014121031
 21
73.24320357209218
 31
0.0
  0
LINE
  5
26A2
330
1F
100
AcDbEntity
  8
LOGO
 62
     4
100
AcDbLine
 10
728.0069437501951
 20
89.92412121915188
 30
0.0
 11
728.0069437501951
 21
73.24320357209218
 31
0.0
  0
LINE
  5
26A3
330
1F
100
AcDbEntity
  8
LOGO
 62
     4
100
AcDbLine
 10
752.7147014121031
 20
73.24320357209218
 30
0.0
 11
728.0069437501951
 21
73.24320357209218
 31
0.0
  0
LINE
  5
26A4
330
1F
100
AcDbEntity
  8
LOGO
 62
     4
100
AcDbLine
 10
752.8488994553364
 20
110.3961565132687
 30
0.0
 11
731.9257863287315
 21
110.3961565132687
 31
0.0
  0
LINE
  5
26A5
330
1F
100
AcDbEntity
  8
LOGO
 62
     4
100
AcDbLine
 10
752.8488994553364
 20
96.74813298385718
 30
0.0
 11
731.9257863287315
 21
96.74813298385718
 31
0.0
  0
LINE
  5
26A6
330
1F
100
AcDbEntity
  8
LOGO
 62
     4
100
AcDbLine
 10
731.9257863287315
 20
110.3961565132687
 30
0.0
 11
731.9257863287315
 21
96.74813298385718
 31
0.0
  0
LINE
  5
26A7
330
1F
100
AcDbEntity
  8
LOGO
 62
     4
100
AcDbLine
 10
752.8488994553364
 20
110.3961565132687
 30
0.0
 11
752.8488994553364
 21
96.74813298385718
 31
0.0
  0
LINE
  5
26A8
330
1F
100
AcDbEntity
  8
LOGO
 62
     4
100
AcDbLine
 10
740.3608225811491
 20
96.74813298385718
 30
0.0
 11
740.3608225811491
 21
89.92412121915188
 31
0.0
  0
TEXT
  5
26A9
330
1F
100
AcDbEntity
  8
LOGO
  6
Continuous
 62
     7
100
AcDbText
 10
736.820096172978
 20
99.5971379422135
 30
0.0
 40
7.9625
  1
30
  7
CHINESET
100
AcDbText
  0
LINE
  5
26AA
330
1F
100
AcDbEntity
  8
LOGO
 62
     4
100
AcDbLine
 10
752.7147014121031
 20
89.92412121915188
 30
0.0
 11
728.0069437501951
 21
89.92412121915188
 31
0.0
  0
TEXT
  5
26AD
330
1F
100
AcDbEntity
  8
LOGO
  6
Continuous
100
AcDbText
 10
695.0973546518155
 20
75.59767972526704
 30
298.1563261041133
 40
3.4125
  1
Tube I.D.
 41
0.8
  7
CHINESET
100
AcDbText
  0
TEXT
  5
26AE
330
1F
100
AcDbEntity
  8
LOGO
100
AcDbText
 10
696.4733114180348
 20
81.92371927902682
 30
298.1563261041133
 40
5.6875
  1
內徑
  7
CHINESET
100
AcDbText
  0
TEXT
  5
26AF
330
1F
100
AcDbEntity
  8
LOGO
  6
Continuous
100
AcDbText
 10
734.5186926338719
 20
75.59767972526704
 30
298.1563261041133
 40
3.4125
  1
Stroke
 41
0.8
  7
CHINESET
100
AcDbText
  0
TEXT
  5
26B0
330
1F
100
AcDbEntity
  8
LOGO
100
AcDbText
 10
734.2820811017007
 20
81.92371927902682
 30
298.1563261041133
 40
5.6875
  1
行程
  7
CHINESET
100
AcDbText
  0
TEXT
  5
26BD
330
1F
100
AcDbEntity
  8
LOGO
100
AcDbText
 10
593.2937108447148
 20
71.87231747495454
 30
0.0
 40
4.549999999999999
  1
11101061
 41
0.7
  7
CHINESET
 72
     1
 11
603.0762108447149
 21
71.87231747495454
 31
0.0
100
AcDbText
  0
LINE
  5
26BE
330
1F
100
AcDbEntity
  8
LOGO
 62
     4
100
AcDbLine
 10
617.1966757079805
 20
78.55076827797573
 30
0.0
 11
617.1966757079825
 21
69.45208592503398
 31
0.0
  0
LINE
  5
26BF
330
1F
100
AcDbEntity
  8
LOGO
 62
     4
100
AcDbLine
 10
617.1966757079805
 20
78.55076827797573
 30
0.0
 11
589.8966757079825
 21
78.55076827797573
 31
0.0
  0
LINE
  5
26C0
330
1F
100
AcDbEntity
  8
LOGO
  6
AM_ISO08W050x2
 48
0.3
100
AcDbLine
 10
564.3501240697867
 20
101.3072052343956
 30
0.0
 11
571.6326934149056
 21
101.3072052343956
 31
0.0
1001
GENIUS_GENOREF_13
1005
26C5
  0
LINE
  5
26C1
330
1F
100
AcDbEntity
  8
LOGO
  6
AM_ISO08W050x2
 48
0.3
100
AcDbLine
 10
567.9914087423461
 20
97.6659205618362
 30
0.0
 11
567.9914087423461
 21
104.9484899069551
 31
0.0
1001
GENIUS_GENOREF_13
1005
26C4
  0
LINE
  5
26C2
330
1F
100
AcDbEntity
  8
LOGO
  6
CENTER
 48
0.5
100
AcDbLine
 10
575.6475727892023
 20
101.3072052343956
 30
0.0
 11
585.4244663429962
 21
101.3072052343956
 31
0.0
1001
GENIUS_GENOREF_13
1005
26C3
  0
POINT
  5
26C3
330
1F
100
AcDbEntity
  8
0
 60
     1
100
AcDbPoint
 10
-1492.166350791449
 20
-810.004521671931
 30
0.0
1001
GENIUS_GENOBJ-N-CRS_13
1002
{
1000
OWNER
1000
GEN
1002
}
1001
GENIUS_GENOLIS_13
1002
{
1000
ENT
1005
0
1005
0
1005
0
1005
26C2
1002
}
1001
GENIUS_GENOENT_13
1002
{
1000
MYREF
1005
26C3
1002
}
1002
{
1000
GRP
1005
0
1002
}
1001
GENIUS_GENODEF_13
1002
{
1000
HIER
1070
    10
1002
}
1002
{
1000
MANEDIT
1070
     1
1002
}
1002
{
1000
NOSEL
1070
     0
1002
}
1002
{
1000
BEHIND
1070
     0
1002
}
1002
{
1000
OTHER
1070
     0
1002
}
1002
{
1000
REACTOR
1002
}
  0
POINT
  5
26C4
330
1F
100
AcDbEntity
  8
0
 60
     1
100
AcDbPoint
 10
-1503.490936014304
 20
-801.1289351932948
 30
0.0
1001
GENIUS_GENOBJ-N-CRS_13
1002
{
1000
OWNER
1000
GEN
1002
}
1001
GENIUS_GENOLIS_13
1002
{
1000
ENT
1005
0
1005
0
1005
0
1005
26C1
1002
}
1001
GENIUS_GENOENT_13
1002
{
1000
MYREF
1005
26C4
1002
}
1002
{
1000
GRP
1005
0
1002
}
1001
GENIUS_GENODEF_13
1002
{
1000
HIER
1070
    10
1002
}
1002
{
1000
MANEDIT
1070
     1
1002
}
1002
{
1000
NOSEL
1070
     0
1002
}
1002
{
1000
BEHIND
1070
     0
1002
}
1002
{
1000
OTHER
1070
     0
1002
}
1002
{
1000
REACTOR
1002
}
  0
POINT
  5
26C5
330
1F
100
AcDbEntity
  8
0
 60
     1
100
AcDbPoint
 10
-1497.132262316467
 20
-810.004521671931
 30
0.0
1001
GENIUS_GENOBJ-N-CRS_13
1002
{
1000
OWNER
1000
GEN
1002
}
1001
GENIUS_GENOLIS_13
1002
{
1000
ENT
1005
0
1005
0
1005
0
1005
26C0
1002
}
1001
GENIUS_GENOENT_13
1002
{
1000
MYREF
1005
26C5
1002
}
1002
{
1000
GRP
1005
0
1002
}
1001
GENIUS_GENODEF_13
1002
{
1000
HIER
1070
    10
1002
}
1002
{
1000
MANEDIT
1070
     1
1002
}
1002
{
1000
NOSEL
1070
     0
1002
}
1002
{
1000
BEHIND
1070
     0
1002
}
1002
{
1000
OTHER
1070
     0
1002
}
1002
{
1000
REACTOR
1002
}
  0
LINE
  5
3DE8
330
1F
100
AcDbEntity
  8
0
100
AcDbLine
 10
581.2200580959689
 20
420.5715894510028
 30
0.0
 11
581.2200580959689
 21
410.5715894510028
 31
0.0
  0
LINE
  5
3DE9
330
1F
100
AcDbEntity
  8
HIDDEN
  6
HIDDEN
100
AcDbLine
 10
586.7200580959689
 20
410.5715894510028
 30
0.0
 11
586.7200580959689
 21
420.5715894510028
 31
0.0
  0
LINE
  5
3DEA
330
1F
100
AcDbEntity
  8
HIDDEN
  6
HIDDEN
100
AcDbLine
 10
595.7200580959689
 20
410.5715894510028
 30
0.0
 11
595.7200580959689
 21
420.5715894510028
 31
0.0
  0
LINE
  5
3DEB
330
1F
100
AcDbEntity
  8
CENTER
  6
CENTER
100
AcDbLine
 10
591.2200580959689
 20
408.7506427675534
 30
0.0
 11
591.2200580959689
 21
422.2697071621944
 31
0.0
  0
LINE
  5
3DEC
330
1F
100
AcDbEntity
  8
HIDDEN
  6
HIDDEN
100
AcDbLine
 10
676.720058095969
 20
410.5715894510028
 30
0.0
 11
676.720058095969
 21
420.5715894510028
 31
0.0
  0
LINE
  5
3DED
330
1F
100
AcDbEntity
  8
CENTER
  6
CENTER
100
AcDbLine
 10
681.2200580959687
 20
408.7506427675534
 30
0.0
 11
681.2200580959687
 21
422.2697071621944
 31
0.0
  0
LINE
  5
3DEE
330
1F
100
AcDbEntity
  8
0
100
AcDbLine
 10
691.2200580959687
 20
420.5715894510028
 30
0.0
 11
691.2200580959687
 21
410.5715894510028
 31
0.0
  0
LINE
  5
3DEF
330
1F
100
AcDbEntity
  8
HIDDEN
  6
HIDDEN
100
AcDbLine
 10
685.7200580959687
 20
410.5715894510028
 30
0.0
 11
685.7200580959687
 21
420.5715894510028
 31
0.0
  0
LINE
  5
3DF0
330
1F
100
AcDbEntity
  8
CENTER
  6
CENTER
100
AcDbLine
 10
636.2200580959689
 20
390.0715894510029
 30
0.0
 11
636.2200580959689
 21
446.8914650476717
 31
0.0
  0
LINE
  5
3DF1
330
1F
100
AcDbEntity
  8
0
100
AcDbLine
 10
667.370058095969
 20
410.5715894510028
 30
0.0
 11
610.0700580959689
 21
410.5715894510028
 31
0.0
  0
LINE
  5
3DF2
330
1F
100
AcDbEntity
  8
0
100
AcDbLine
 10
612.5700580959688
 20
410.5715894510028
 30
0.0
 11
664.8700580959688
 21
410.5715894510028
 31
0.0
  0
LINE
  5
3DF3
330
1F
100
AcDbEntity
  8
0
100
AcDbLine
 10
691.2200580959687
 20
410.5715894510028
 30
0.0
 11
581.2200580959689
 21
410.5715894510028
 31
0.0
  0
ARC
  5
3DF4
330
1F
100
AcDbEntity
  8
假想
100
AcDbCircle
 10
644.5106759605506
 20
301.1931438327607
 30
0.0
 40
7.588716478928212
100
AcDbArc
 50
250.8544573249733
 51
111.3505460313715
  0
ARC
  5
3DF5
330
1F
100
AcDbEntity
  8
假想
100
AcDbCircle
 10
644.5106759605506
 20
301.1931438327607
 30
0.0
 40
8.58901647892822
100
AcDbArc
 50
250.8544573249733
 51
111.3505460313715
  0
LINE
  5
3DF7
330
1F
100
AcDbEntity
  8
0
100
AcDbLine
 10
581.7200580959687
 20
262.4263725154723
 30
0.0
 11
690.7200580959687
 21
262.4263725154723
 31
0.0
  0
LINE
  5
3DF8
330
1F
100
AcDbEntity
  8
0
100
AcDbLine
 10
581.7200580959687
 20
189.4263725154725
 30
0.0
 11
690.7200580959687
 21
189.4263725154722
 31
0.0
  0
LINE
  5
3DF9
102
{ACAD_REACTORS
330
4086
330
4083
102
}
330
1F
100
AcDbEntity
  8
CENTER
  6
CENTER
100
AcDbLine
 10
577.0523532598899
 20
225.9263725154723
 30
0.0
 11
693.756074870488
 21
225.9263725154723
 31
0.0
  0
ARC
  5
3DFF
330
1F
100
AcDbEntity
  8
假想
100
AcDbCircle
 10
647.2900542686706
 20
297.7134530192241
 30
0.0
 40
6.43157620053702
100
AcDbArc
 50
162.8158932628393
 51
215.0030663876392
  0
ARC
  5
3E00
330
1F
100
AcDbEntity
  8
假想
100
AcDbCircle
 10
647.0137016696177
 20
296.6620553242159
 30
0.0
 40
6.413953136422758
100
AcDbArc
 50
163.8852723335591
 51
213.9592761329869
  0
ARC
  5
3E01
330
1F
100
AcDbEntity
  8
假想
100
AcDbCircle
 10
630.1509548420755
 20
297.5402946652354
 30
0.0
 40
10.4972323210746
100
AcDbArc
 50
288.5802547675303
 51
355.748200843575
  0
ARC
  5
3E03
330
1F
100
AcDbEntity
  8
假想
100
AcDbCircle
 10
648.1015488326214
 20
301.9309375472168
 30
0.0
 40
9.892592998693839
100
AcDbArc
 50
132.7721083992956
 51
210.9978482153075
  0
ARC
  5
3E04
330
1F
100
AcDbEntity
  8
假想
100
AcDbCircle
 10
648.2071453753579
 20
301.8222354201345
 30
0.0
 40
9.120367220846699
100
AcDbArc
 50
135.0910733926956
 51
213.698630115395
  0
LINE
  5
3E06
102
{ACAD_REACTORS
330
3FC5
102
}
330
1F
100
AcDbEntity
  8
CENTER
  6
CENTER
100
AcDbLine
 10
638.220058095969
 20
388.0715894510029
 30
0.0
 11
642.2200580959689
 21
388.0715894510029
 31
0.0
  0
DIMENSION
  5
3E07
330
1F
100
AcDbEntity
  8
AM_5
100
AcDbDimension
  2
*D4
 10
610.2200580959686
 20
174.2862531007345
 30
0.0
 11
636.2200580959687
 21
174.2862531007345
 31
0.0
 70
   160
  1
<>
 71
     5
 42
52.00000000000102
  3
AM_ISO$0
100
AcDbAlignedDimension
 13
662.2200580959696
 23
202.4263725154725
 33
0.0
 14
610.2200580959686
 24
202.2192657342858
 34
0.0
 50
180.0
100
AcDbRotatedDimension
1001
ACAD
1000
DSTYLE
1002
{
1070
    40
1040
2.0
1002
}
  0
LINE
  5
3E08
330
1F
100
AcDbEntity
  8
CENTER
  6
CENTER
100
AcDbLine
 10
681.2200580959687
 20
255.9263725154723
 30
0.0
 11
681.2200580959687
 21
259.4263725154723
 31
0.0
  0
LINE
  5
3E09
330
1F
100
AcDbEntity
  8
0
100
AcDbLine
 10
691.2200580959687
 20
189.9263725154723
 30
0.0
 11
691.2200580959687
 21
261.9263725154723
 31
0.0
  0
CIRCLE
  5
3E0A
330
1F
100
AcDbEntity
  8
0
100
AcDbCircle
 10
681.2200580959687
 20
253.9263725154722
 30
0.0
 40
4.5
  0
CIRCLE
  5
3E0B
330
1F
100
AcDbEntity
  8
0
100
AcDbCircle
 10
681.2200580959687
 20
197.9263725154721
 30
0.0
 40
4.5
  0
LINE
  5
3E0C
330
1F
100
AcDbEntity
  8
0
100
AcDbLine
 10
690.7200580959687
 20
189.4263725154722
 30
0.0
 11
691.2200580959687
 21
189.9263725154723
 31
0.0
  0
LINE
  5
3E0D
102
{ACAD_REACTORS
330
4089
102
}
330
1F
100
AcDbEntity
  8
CENTER
  6
CENTER
100
AcDbLine
 10
683.2200580959687
 20
197.9263725154723
 30
0.0
 11
686.7200580959687
 21
197.9263725154723
 31
0.0
  0
LINE
  5
3E0E
102
{ACAD_REACTORS
330
4089
102
}
330
1F
100
AcDbEntity
  8
CENTER
  6
CENTER
100
AcDbLine
 10
683.2200580959687
 20
253.9263725154723
 30
0.0
 11
686.7200580959687
 21
253.9263725154723
 31
0.0
  0
LINE
  5
3E12
330
1F
100
AcDbEntity
  8
CENTER
  6
CENTER
100
AcDbLine
 10
681.2200580959687
 20
198.9263725154723
 30
0.0
 11
681.2200580959687
 21
196.9263725154723
 31
0.0
  0
LINE
  5
3E13
330
1F
100
AcDbEntity
  8
CENTER
  6
CENTER
100
AcDbLine
 10
679.2200580959687
 20
197.9263725154723
 30
0.0
 11
675.7200580959687
 21
197.9263725154723
 31
0.0
  0
LINE
  5
3E14
102
{ACAD_REACTORS
330
407E
102
}
330
1F
100
AcDbEntity
  8
CENTER
  6
CENTER
100
AcDbLine
 10
681.2200580959687
 20
195.9263725154723
 30
0.0
 11
681.2200580959687
 21
192.4263725154722
 31
0.0
  0
LINE
  5
3E15
330
1F
100
AcDbEntity
  8
CENTER
  6
CENTER
100
AcDbLine
 10
680.2200580959687
 20
197.9263725154723
 30
0.0
 11
682.2200580959687
 21
197.9263725154723
 31
0.0
  0
LINE
  5
3E16
330
1F
100
AcDbEntity
  8
CENTER
  6
CENTER
100
AcDbLine
 10
681.2200580959687
 20
199.9263725154723
 30
0.0
 11
681.2200580959687
 21
203.4263725154723
 31
0.0
  0
LINE
  5
3E28
330
1F
100
AcDbEntity
  8
CENTER
  6
CENTER
100
AcDbLine
 10
681.2200580959687
 20
251.9263725154723
 30
0.0
 11
681.2200580959687
 21
248.4263725154723
 31
0.0
  0
LINE
  5
3E29
330
1F
100
AcDbEntity
  8
CENTER
  6
CENTER
100
AcDbLine
 10
679.2200580959687
 20
253.9263725154723
 30
0.0
 11
675.7200580959687
 21
253.9263725154723
 31
0.0
  0
LINE
  5
3E2A
330
1F
100
AcDbEntity
  8
CENTER
  6
CENTER
100
AcDbLine
 10
681.2200580959687
 20
254.9263725154723
 30
0.0
 11
681.2200580959687
 21
252.9263725154723
 31
0.0
  0
LINE
  5
3E2B
330
1F
100
AcDbEntity
  8
CENTER
  6
CENTER
100
AcDbLine
 10
680.2200580959687
 20
253.9263725154723
 30
0.0
 11
682.2200580959687
 21
253.9263725154723
 31
0.0
  0
LINE
  5
3E45
330
1F
100
AcDbEntity
  8
0
100
AcDbLine
 10
691.2200580959687
 20
261.9263725154723
 30
0.0
 11
690.7200580959687
 21
262.4263725154723
 31
0.0
  0
LINE
  5
3E47
330
1F
100
AcDbEntity
  8
0
100
AcDbLine
 10
657.2200580959689
 20
410.5715894510028
 30
0.0
 11
658.2200580959689
 21
410.5715894510028
 31
0.0
  0
LINE
  5
3E48
330
1F
100
AcDbEntity
  8
CENTER
  6
CENTER
100
AcDbLine
 10
591.2200580959687
 20
255.9263725154723
 30
0.0
 11
591.2200580959687
 21
259.4263725154723
 31
0.0
  0
LINE
  5
3E49
330
1F
100
AcDbEntity
  8
0
100
AcDbLine
 10
633.4692330959689
 20
259.4263725154724
 30
0.0
 11
633.4692330959689
 21
257.9263725154723
 31
0.0
  0
LINE
  5
3E4A
330
1F
100
AcDbEntity
  8
0
100
AcDbLine
 10
638.9708830959688
 20
259.4263725154724
 30
0.0
 11
638.9708830959688
 21
257.9263725154723
 31
0.0
  0
LINE
  5
3E4B
330
1F
100
AcDbEntity
  8
0
100
AcDbLine
 10
581.2200580959687
 20
189.9263725154725
 30
0.0
 11
581.2200580959687
 21
261.9263725154723
 31
0.0
  0
LINE
  5
3E4C
330
1F
100
AcDbEntity
  8
CENTER
  6
CENTER
100
AcDbLine
 10
636.2200580959687
 20
186.1974245590562
 30
0.0
 11
636.2200580959687
 21
266.0322400646213
 31
0.0
  0
LINE
  5
3E64
330
1F
100
AcDbEntity
  8
0
100
AcDbLine
 10
633.4692330959689
 20
258.7263725154723
 30
0.0
 11
638.9708830959688
 21
258.7263725154723
 31
0.0
  0
LINE
  5
3E65
330
1F
100
AcDbEntity
  8
0
100
AcDbLine
 10
639.9696182959356
 20
257.9263725154723
 30
0.0
 11
632.4704978960018
 21
257.9263725154723
 31
0.0
  0
LINE
  5
3E66
330
1F
100
AcDbEntity
  8
0
100
AcDbLine
 10
639.9696182959356
 20
257.9263725154723
 30
0.0
 11
639.9696182959356
 21
256.9263725154723
 31
0.0
  0
LINE
  5
3E67
330
1F
100
AcDbEntity
  8
0
100
AcDbLine
 10
632.4704978960018
 20
257.9263725154723
 30
0.0
 11
632.4704978960018
 21
256.9263725154721
 31
0.0
  0
LINE
  5
3E7D
330
1F
100
AcDbEntity
  8
CENTER
  6
CENTER
100
AcDbLine
 10
591.2200580959687
 20
198.9263725154723
 30
0.0
 11
591.2200580959687
 21
196.9263725154723
 31
0.0
  0
CIRCLE
  5
3E7E
330
1F
100
AcDbEntity
  8
0
100
AcDbCircle
 10
591.2200580959687
 20
197.9263725154721
 30
0.0
 40
4.5
  0
LINE
  5
3E7F
330
1F
100
AcDbEntity
  8
CENTER
  6
CENTER
100
AcDbLine
 10
589.2200580959687
 20
197.9263725154723
 30
0.0
 11
585.7200580959687
 21
197.9263725154723
 31
0.0
  0
LINE
  5
3E80
330
1F
100
AcDbEntity
  8
CENTER
  6
CENTER
100
AcDbLine
 10
593.2200580959687
 20
197.9263725154723
 30
0.0
 11
596.7200580959687
 21
197.9263725154723
 31
0.0
  0
LINE
  5
3E81
102
{ACAD_REACTORS
330
407E
102
}
330
1F
100
AcDbEntity
  8
CENTER
  6
CENTER
100
AcDbLine
 10
591.2200580959687
 20
195.9263725154723
 30
0.0
 11
591.2200580959687
 21
192.4263725154722
 31
0.0
  0
LINE
  5
3E82
330
1F
100
AcDbEntity
  8
CENTER
  6
CENTER
100
AcDbLine
 10
590.2200580959687
 20
197.9263725154723
 30
0.0
 11
592.2200580959687
 21
197.9263725154723
 31
0.0
  0
LINE
  5
3E83
330
1F
100
AcDbEntity
  8
0
100
AcDbLine
 10
581.7200580959687
 20
189.4263725154725
 30
0.0
 11
581.2200580959687
 21
189.9263725154725
 31
0.0
  0
LINE
  5
3E84
330
1F
100
AcDbEntity
  8
CENTER
  6
CENTER
100
AcDbLine
 10
591.2200580959687
 20
199.9263725154723
 30
0.0
 11
591.2200580959687
 21
203.4263725154723
 31
0.0
  0
CIRCLE
  5
3E85
330
1F
100
AcDbEntity
  8
0
100
AcDbCircle
 10
591.2200580959687
 20
253.9263725154722
 30
0.0
 40
4.5
  0
LINE
  5
3E86
330
1F
100
AcDbEntity
  8
CENTER
  6
CENTER
100
AcDbLine
 10
589.2200580959687
 20
253.9263725154723
 30
0.0
 11
585.7200580959687
 21
253.9263725154723
 31
0.0
  0
LINE
  5
3E87
330
1F
100
AcDbEntity
  8
CENTER
  6
CENTER
100
AcDbLine
 10
591.2200580959687
 20
251.9263725154723
 30
0.0
 11
591.2200580959687
 21
248.4263725154723
 31
0.0
  0
LINE
  5
3E88
330
1F
100
AcDbEntity
  8
CENTER
  6
CENTER
100
AcDbLine
 10
593.2200580959687
 20
253.9263725154723
 30
0.0
 11
596.7200580959687
 21
253.9263725154723
 31
0.0
  0
LINE
  5
3E89
330
1F
100
AcDbEntity
  8
CENTER
  6
CENTER
100
AcDbLine
 10
591.2200580959687
 20
254.9263725154723
 30
0.0
 11
591.2200580959687
 21
252.9263725154723
 31
0.0
  0
LINE
  5
3E8A
330
1F
100
AcDbEntity
  8
CENTER
  6
CENTER
100
AcDbLine
 10
590.2200580959687
 20
253.9263725154723
 30
0.0
 11
592.2200580959687
 21
253.9263725154723
 31
0.0
  0
LINE
  5
3E8B
330
1F
100
AcDbEntity
  8
0
100
AcDbLine
 10
597.7591342923634
 20
294.9068751604936
 30
0.0
 11
569.1807214451067
 21
294.9068751604932
 31
0.0
  0
LINE
  5
3E8C
330
1F
100
AcDbEntity
  8
0
100
AcDbLine
 10
597.4433767533131
 20
296.7074151604936
 30
0.0
 11
569.1807214451067
 21
296.7074151604931
 31
0.0
  0
LINE
  5
3E8D
330
1F
100
AcDbEntity
  8
CENTER
  6
CENTER
100
AcDbLine
 10
636.2200580959689
 20
386.0715894510029
 30
0.0
 11
636.2200580959689
 21
310.0523967988193
 31
0.0
  0
ARC
  5
3E94
330
1F
100
AcDbEntity
  8
0
100
AcDbCircle
 10
609.2469167533128
 20
295.8071451604936
 30
0.0
 40
11.80354
100
AcDbArc
 50
315.3263119646169
 51
310.1720699613364
  0
LINE
  5
3E95
330
1F
100
AcDbEntity
  8
CENTER
  6
CENTER
100
AcDbLine
 10
621.9568622545359
 20
295.807145160494
 30
0.0
 11
596.0647087656337
 21
295.8071451604935
 31
0.0
  0
LINE
  5
3E96
330
1F
100
AcDbEntity
  8
CENTER
  6
CENTER
100
AcDbLine
 10
609.2469167533128
 20
283.7413963439258
 30
0.0
 11
609.2469167533128
 21
308.238522729079
 31
0.0
  0
ARC
  5
3E97
330
1F
100
AcDbEntity
  8
0
100
AcDbCircle
 10
609.2469167533128
 20
295.8071451604936
 30
0.0
 40
10.003
100
AcDbArc
 50
323.9711223802853
 51
315.0645558257133
  0
ARC
  5
3E98
330
1F
100
AcDbEntity
  8
0
100
AcDbCircle
 10
622.3017648104013
 20
289.3220881972144
 30
0.0
 40
5.0015
100
AcDbArc
 50
8.0376249648232
 51
105.9066936432312
  0
ARC
  5
3E99
330
1F
100
AcDbEntity
  8
0
100
AcDbCircle
 10
622.3017648104013
 20
289.3220881972144
 30
0.0
 40
6.001799999999999
100
AcDbArc
 50
10.39691042289328
 51
102.192200095555
  0
ARC
  5
3E9A
330
1F
100
AcDbEntity
  8
假想
100
AcDbCircle
 10
630.1509548420755
 20
297.5402946652354
 30
0.0
 40
9.496932321074586
100
AcDbArc
 50
288.5802547675303
 51
355.748200843575
  0
ARC
  5
3E9B
330
1F
100
AcDbEntity
  8
0
100
AcDbCircle
 10
622.3017648104013
 20
289.3220881972144
 30
0.0
 40
6.001799999999999
100
AcDbArc
 50
121.6206889006941
 51
0.5808044385862081
  0
ARC
  5
3E9C
330
1F
100
AcDbEntity
  8
0
100
AcDbCircle
 10
622.3017648104013
 20
289.3220881972144
 30
0.0
 40
5.0015
100
AcDbArc
 50
134.0735465603573
 51
358.0848545577688
  0
LINE
  5
3E9D
102
{ACAD_REACTORS
330
3FBE
102
}
330
1F
100
AcDbEntity
  8
0
100
AcDbLine
 10
634.4692330959689
 20
260.4263725154723
 30
0.0
 11
637.9708830959688
 21
260.4263725154723
 31
0.0
  0
ARC
  5
3E9E
102
{ACAD_REACTORS
330
3FBE
102
}
330
1F
100
AcDbEntity
  8
0
100
AcDbCircle
 10
637.9708830959685
 20
259.4263725154722
 30
0.0
 40
1.0
100
AcDbArc
 50
0.0
 51
90.0
  0
ARC
  5
3E9F
330
1F
100
AcDbEntity
  8
0
100
AcDbCircle
 10
634.4692330959689
 20
259.4263725154722
 30
0.0
 40
1.0
100
AcDbArc
 50
90.0
 51
180.0
  0
LINE
  5
3EA0
330
1F
100
AcDbEntity
  8
假想
100
AcDbLine
 10
628.3032564473086
 20
289.3829271003483
 30
0.0
 11
633.4957160152888
 21
287.5901962186483
 31
0.0
  0
LINE
  5
3EA1
330
1F
100
AcDbEntity
  8
假想
100
AcDbLine
 10
628.205022477989
 20
290.4052096816617
 30
0.0
 11
633.1769877544265
 21
288.5383588553975
 31
0.0
  0
LINE
  5
3EA2
330
1F
100
AcDbEntity
  8
0
100
AcDbLine
 10
626.8354033907615
 20
289.852408787437
 30
0.0
 11
628.2050224779886
 21
290.4052096816615
 31
0.0
  0
ARC
  5
3EA3
330
1F
100
AcDbEntity
  8
0
100
AcDbCircle
 10
627.3563854522852
 20
289.6519559103068
 30
0.0
 40
0.50015
100
AcDbArc
 50
185.3205212244755
 51
284.6764162843864
  0
LINE
  5
3EA4
330
1F
100
AcDbEntity
  8
0
100
AcDbLine
 10
628.3032564473083
 20
289.3829271003481
 30
0.0
 11
627.483103347576
 21
289.168124743976
 31
0.0
  0
LINE
  5
3EA5
330
1F
100
AcDbEntity
  8
0
100
AcDbLine
 10
626.8583903232535
 20
289.6055783946283
 30
0.0
 11
626.8354033907615
 21
289.852408787437
 31
0.0
  0
ARC
  5
3EA6
330
1F
100
AcDbEntity
  8
0
100
AcDbCircle
 10
635.7124387845925
 20
313.1313704719274
 30
0.0
 40
0.50015
100
AcDbArc
 50
15.09138823506452
 51
189.0385917048708
  0
ARC
  5
3EA7
330
1F
100
AcDbEntity
  8
0
100
AcDbCircle
 10
631.0352055554443
 20
317.7492794510027
 30
0.0
 40
6.501949999999999
100
AcDbArc
 50
153.9957285439276
 51
310.500083377927
  0
ARC
  5
3EA8
330
1F
100
AcDbEntity
  8
0
100
AcDbCircle
 10
631.0352055554443
 20
317.7492794510027
 30
0.0
 40
7.702309999999999
100
AcDbArc
 50
158.2775906838347
 51
305.1798914089616
  0
ARC
  5
3EA9
330
1F
100
AcDbEntity
  8
0
100
AcDbCircle
 10
631.0352055554443
 20
317.7492794510027
 30
0.0
 40
7.702309999999999
100
AcDbArc
 50
314.7706790732327
 51
13.685523156418
  0
ARC
  5
3EAA
330
1F
100
AcDbEntity
  8
假想
100
AcDbCircle
 10
655.6956210971535
 20
312.1962831949815
 30
0.0
 40
19.23608929169812
100
AcDbArc
 50
179.7471620742259
 51
217.3035341348934
  0
ARC
  5
3EAB
330
1F
100
AcDbEntity
  8
假想
100
AcDbCircle
 10
655.6956210971535
 20
312.1962831949815
 30
0.0
 40
20.23638929169812
100
AcDbArc
 50
182.1026307728865
 51
219.3201427666028
  0
LINE
  5
3EAC
330
1F
100
AcDbEntity
  8
0
100
AcDbLine
 10
636.1953394987351
 20
313.2615892216552
 30
0.0
 11
636.4597191000558
 21
312.2811689784146
 31
0.0
  0
LINE
  5
3EAD
330
1F
100
AcDbEntity
  8
0
100
AcDbLine
 10
635.4728567598414
 20
311.4538182983777
 30
0.0
 11
635.2184992722983
 21
313.0527970623382
 31
0.0
  0
LINE
  5
3EAE
330
1F
100
AcDbEntity
  8
0
100
AcDbLine
 10
629.8149810292767
 20
311.3628558893966
 30
0.0
 11
628.1125998112826
 21
310.6229932512849
 31
0.0
  0
LINE
  5
3EAF
330
1F
100
AcDbEntity
  8
0
100
AcDbLine
 10
633.6742026502514
 20
323.6915894510028
 30
0.0
 11
628.2410192096048
 21
323.6915894510028
 31
0.0
  0
LINE
  5
3EB0
330
1F
100
AcDbEntity
  8
0
100
AcDbLine
 10
632.6515425212575
 20
324.5715894510029
 30
0.0
 11
628.2410192096048
 21
324.5715894510029
 31
0.0
  0
LINE
  5
3EB1
330
1F
100
AcDbEntity
  8
0
100
AcDbLine
 10
633.7628266484925
 20
325.4515894510027
 30
0.0
 11
628.2410192096048
 21
325.4515894510027
 31
0.0
  0
ARC
  5
3EB2
330
1F
100
AcDbEntity
  8
0
100
AcDbCircle
 10
631.0352055554443
 20
317.7492794510027
 30
0.0
 40
6.501949999999999
100
AcDbArc
 50
16.27639759439128
 51
75.60575204946992
  0
ARC
  5
3EB3
330
1F
100
AcDbEntity
  8
0
100
AcDbCircle
 10
636.2200580959687
 20
324.5715894510027
 30
0.0
 40
2.610054862731276
100
AcDbArc
 50
200.8378145991025
 51
160.2962021019358
  0
CIRCLE
  5
3EB4
330
1F
100
AcDbEntity
  8
0
100
AcDbCircle
 10
636.2200580959687
 20
324.5715894510027
 30
0.0
 40
1.805901294842626
  0
ARC
  5
3EB5
330
1F
100
AcDbEntity
  8
0
100
AcDbCircle
 10
631.0352055554443
 20
317.7492794510027
 30
0.0
 40
7.702309999999999
100
AcDbArc
 50
13.685523156418
 51
77.88638311801098
  0
ARC
  5
3EB6
330
1F
100
AcDbEntity
  8
0
100
AcDbCircle
 10
631.0352055554443
 20
317.7492794510027
 30
0.0
 40
6.501949999999999
100
AcDbArc
 50
319.7060678623283
 51
16.27639759439128
  0
LINE
  5
3EB7
330
1F
100
AcDbEntity
  8
0
100
AcDbLine
 10
635.2200580959689
 20
324.5715894510029
 30
0.0
 11
637.2200580959689
 21
324.5715894510029
 31
0.0
  0
LINE
  5
3EB8
330
1F
100
AcDbEntity
  8
0
100
AcDbLine
 10
636.2200580959689
 20
323.5715894510029
 30
0.0
 11
636.2200580959689
 21
325.5715894510029
 31
0.0
  0
LINE
  5
3EB9
330
1F
100
AcDbEntity
  8
0
100
AcDbLine
 10
632.6515425212575
 20
323.6915894510028
 30
0.0
 11
632.6515425212575
 21
325.4515894510027
 31
0.0
  0
ARC
  5
3EBA
330
1F
100
AcDbEntity
  8
0
100
AcDbCircle
 10
631.0352055554443
 20
317.7492794510027
 30
0.0
 40
6.501949999999999
100
AcDbArc
 50
113.9461456619669
 51
153.9957285439173
  0
ARC
  5
3EBB
330
1F
100
AcDbEntity
  8
0
100
AcDbCircle
 10
631.0352055554443
 20
317.7492794510027
 30
0.0
 40
7.702309999999999
100
AcDbArc
 50
111.2705634124648
 51
158.2775906838163
  0
LINE
  5
3EBC
330
1F
100
AcDbEntity
  8
0
100
AcDbLine
 10
628.2410192096048
 20
325.4515894510027
 30
0.0
 11
628.2410192096048
 21
323.6915894510028
 31
0.0
  0
LINE
  5
3EBD
330
1F
100
AcDbEntity
  8
0
100
AcDbLine
 10
581.7200580959687
 20
262.4263725154723
 30
0.0
 11
581.2200580959687
 21
261.9263725154723
 31
0.0
  0
LINE
  5
3EBE
330
1F
100
AcDbEntity
  8
CENTER
  6
CENTER
100
AcDbLine
 10
634.220058095969
 20
388.0715894510029
 30
0.0
 11
630.220058095969
 21
388.0715894510029
 31
0.0
  0
LINE
  5
3EC1
330
1F
100
AcDbEntity
  8
CENTER
  6
CENTER
100
AcDbLine
 10
637.2200580959689
 20
388.0715894510029
 30
0.0
 11
635.2200580959689
 21
388.0715894510029
 31
0.0
  0
LINE
  5
3EC2
330
1F
100
AcDbEntity
  8
CENTER
  6
CENTER
100
AcDbLine
 10
635.2200580959689
 20
388.0715894510029
 30
0.0
 11
637.2200580959689
 21
388.0715894510029
 31
0.0
  0
LINE
  5
3EC5
330
1F
100
AcDbEntity
  8
CENTER
  6
CENTER
100
AcDbLine
 10
636.2200580959689
 20
387.0715894510029
 30
0.0
 11
636.2200580959689
 21
389.0715894510029
 31
0.0
  0
LINE
  5
3EC9
330
1F
100
AcDbEntity
  8
CENTER
  6
CENTER
100
AcDbLine
 10
635.2200580959687
 20
404.5715894510029
 30
0.0
 11
637.2200580959687
 21
404.5715894510029
 31
0.0
  0
LINE
  5
3ECA
330
1F
100
AcDbEntity
  8
CENTER
  6
CENTER
100
AcDbLine
 10
638.2200580959687
 20
404.5715894510029
 30
0.0
 11
639.7200580959687
 21
404.5715894510029
 31
0.0
  0
LINE
  5
3ECB
330
1F
100
AcDbEntity
  8
CENTER
  6
CENTER
100
AcDbLine
 10
634.2200580959687
 20
404.5715894510029
 30
0.0
 11
632.7200580959687
 21
404.5715894510029
 31
0.0
  0
LINE
  5
3ECC
330
1F
100
AcDbEntity
  8
0
100
AcDbLine
 10
569.1807214451067
 20
294.9068751604932
 30
0.0
 11
569.1807214451067
 21
296.7074151604931
 31
0.0
  0
CIRCLE
  5
3ECD
330
1F
100
AcDbEntity
  8
假想
100
AcDbCircle
 10
636.2200580959687
 20
461.0715894510025
 30
0.0
 40
12.5
  0
LINE
  5
3ECE
330
1F
100
AcDbEntity
  8
CENTER
  6
CENTER
100
AcDbLine
 10
638.220058095969
 20
461.0715894510026
 30
0.0
 11
649.7200580959689
 21
461.0715894510026
 31
0.0
  0
CIRCLE
  5
3ECF
330
1F
100
AcDbEntity
  8
0
 62
     7
100
AcDbCircle
 10
636.2200580959687
 20
491.0715894510025
 30
0.0
 40
12.5
  0
LINE
  5
3ED0
330
1F
100
AcDbEntity
  8
CENTER
  6
CENTER
100
AcDbLine
 10
638.220058095969
 20
491.0715894510026
 30
0.0
 11
649.7200580959689
 21
491.0715894510026
 31
0.0
  0
LINE
  5
3ED1
330
1F
100
AcDbEntity
  8
0
 62
     7
100
AcDbLine
 10
621.6258811750184
 20
561.7406626328429
 30
0.0
 11
632.5450581227666
 21
561.7406626328429
 31
0.0
  0
LINE
  5
3ED2
330
1F
100
AcDbEntity
  8
0
 62
     7
100
AcDbLine
 10
639.8950580691716
 20
561.7406626328429
 30
0.0
 11
650.8232988215748
 21
561.7406626328429
 31
0.0
  0
LINE
  5
3ED3
330
1F
100
AcDbEntity
  8
0
 62
     7
100
AcDbLine
 10
615.2200580959689
 20
445.5715894510026
 30
0.0
 11
657.2200580959689
 21
445.5715894510026
 31
0.0
  0
LINE
  5
3ED4
330
1F
100
AcDbEntity
  8
0
100
AcDbLine
 10
611.2200830959688
 20
420.5715894510026
 30
0.0
 11
661.2200330959686
 21
420.5715894510028
 31
0.0
  0
CIRCLE
  5
3ED5
330
1F
100
AcDbEntity
  8
0
 62
     7
100
AcDbCircle
 10
636.2200580959687
 20
576.8406626328427
 30
0.0
 40
22.0
  0
CIRCLE
  5
3ED6
330
1F
100
AcDbEntity
  8
0
 62
     7
100
AcDbCircle
 10
636.2200580959687
 20
576.8406626328427
 30
0.0
 40
21.0063
  0
LINE
  5
3ED7
330
1F
100
AcDbEntity
  8
CENTER
  6
CENTER
100
AcDbLine
 10
577.0523532598899
 20
576.8406626328428
 30
0.0
 11
695.3877629320478
 21
576.8406626328428
 31
0.0
  0
LINE
  5
3ED8
330
1F
100
AcDbEntity
  8
0
100
AcDbLine
 10
581.7200580959689
 20
613.3406626328429
 30
0.0
 11
690.7200580959689
 21
613.3406626328429
 31
0.0
  0
LINE
  5
3ED9
330
1F
100
AcDbEntity
  8
0
100
AcDbLine
 10
691.2200580959687
 20
420.5715894510028
 30
0.0
 11
581.2200580959689
 21
420.5715894510028
 31
0.0
  0
LINE
  5
3EDA
330
1F
100
AcDbEntity
  8
0
100
AcDbLine
 10
581.7200580959689
 20
540.3406626328428
 30
0.0
 11
690.7200580959689
 21
540.3406626328428
 31
0.0
  0
LINE
  5
3EDB
330
1F
100
AcDbEntity
  8
0
 62
     7
100
AcDbLine
 10
643.3614865245116
 20
497.0715894510026
 30
0.0
 11
630.0070153631367
 21
445.5715894510026
 31
0.0
  0
LINE
  5
3EDC
330
1F
100
AcDbEntity
  8
0
 62
     7
100
AcDbLine
 10
629.078629667426
 20
497.0715894510026
 30
0.0
 11
642.4331008288009
 21
445.5715894510026
 31
0.0
  0
LINE
  5
3EDD
330
1F
100
AcDbEntity
  8
0
 62
     7
100
AcDbLine
 10
627.2200580959689
 20
497.0715894510026
 30
0.0
 11
645.2200580959689
 21
497.0715894510026
 31
0.0
  0
LINE
  5
3EDE
330
1F
100
AcDbEntity
  8
0
 62
     7
100
AcDbLine
 10
624.2200580959689
 20
591.8406626328428
 30
0.0
 11
648.2200580959689
 21
591.840662632843
 31
0.0
  0
LINE
  5
3EDF
330
1F
100
AcDbEntity
  8
0
 62
     7
100
AcDbLine
 10
624.2200580959689
 20
583.8406626328428
 30
0.0
 11
648.2200580959689
 21
583.8406626328428
 31
0.0
  0
LINE
  5
3EE0
330
1F
100
AcDbEntity
  8
0
 62
     7
100
AcDbLine
 10
648.2200580959689
 20
569.8406626328428
 30
0.0
 11
624.2200580959689
 21
569.8406626328428
 31
0.0
  0
LINE
  5
3EE1
330
1F
100
AcDbEntity
  8
0
 62
     7
100
AcDbLine
 10
648.2200580959689
 20
569.8406626328428
 30
0.0
 11
624.2200580959689
 21
569.8406626328428
 31
0.0
  0
LINE
  5
3EE2
330
1F
100
AcDbEntity
  8
0
 62
     7
100
AcDbLine
 10
624.2200580959689
 20
561.8406626328428
 30
0.0
 11
648.2200580959689
 21
561.8406626328428
 31
0.0
  0
LINE
  5
3EE3
330
1F
100
AcDbEntity
  8
0
 62
     7
100
AcDbLine
 10
629.008782203313
 20
583.8406626328428
 30
0.0
 11
643.4313339886247
 21
583.8406626328428
 31
0.0
  0
CIRCLE
  5
3EE4
330
1F
100
AcDbEntity
  8
0
 62
     7
100
AcDbCircle
 10
656.2260580959688
 20
596.8466626328428
 30
0.0
 40
2.950884999999999
  0
POLYLINE
  5
3EE5
330
1F
100
AcDbEntity
  8
0
 62
     7
100
AcDb2dPolyline
 66
     1
 10
0.0
 20
0.0
 30
0.0
 70
     1
  0
VERTEX
  5
3EE6
330
3EE5
100
AcDbEntity
  8
0
 62
     7
100
AcDbVertex
100
AcDb2dVertex
 10
656.2260580959688
 20
593.8957776328426
 30
0.0
  0
VERTEX
  5
3EE7
330
3EE5
100
AcDbEntity
  8
0
 62
     7
100
AcDbVertex
100
AcDb2dVertex
 10
658.7815994696153
 20
595.3712201328427
 30
0.0
  0
VERTEX
  5
3EE8
330
3EE5
100
AcDbEntity
  8
0
 62
     7
100
AcDbVertex
100
AcDb2dVertex
 10
658.7815994696153
 20
598.3221051328427
 30
0.0
  0
VERTEX
  5
3EE9
330
3EE5
100
AcDbEntity
  8
0
 62
     7
100
AcDbVertex
100
AcDb2dVertex
 10
656.2260580959688
 20
599.7975476328427
 30
0.0
  0
VERTEX
  5
3EEA
330
3EE5
100
AcDbEntity
  8
0
 62
     7
100
AcDbVertex
100
AcDb2dVertex
 10
653.6705167223225
 20
598.3221051328427
 30
0.0
  0
VERTEX
  5
3EEB
330
3EE5
100
AcDbEntity
  8
0
 62
     7
100
AcDbVertex
100
AcDb2dVertex
 10
653.6705167223225
 20
595.3712201328427
 30
0.0
  0
SEQEND
  5
3EEC
330
3EE5
100
AcDbEntity
  8
0
 62
     7
  0
CIRCLE
  5
3EED
330
1F
100
AcDbEntity
  8
0
 62
     7
100
AcDbCircle
 10
656.2260580959688
 20
596.8466626328428
 30
0.0
 40
5.0015
  0
LINE
  5
3EEE
330
1F
100
AcDbEntity
  8
0
100
AcDbLine
 10
691.2200580959689
 20
612.8406626328428
 30
0.0
 11
691.2200580959689
 21
540.8406626328428
 31
0.0
  0
LINE
  5
3EEF
330
1F
100
AcDbEntity
  8
0
 62
     7
100
AcDbLine
 10
643.3614865245116
 20
497.0715894510026
 30
0.0
 11
643.3614865245116
 21
445.5715894510026
 31
0.0
  0
LINE
  5
3EF0
330
1F
100
AcDbEntity
  8
0
 62
     7
100
AcDbLine
 10
646.2200580959689
 20
494.0715894510026
 30
0.0
 11
646.2200580959689
 21
448.0391145407936
 31
0.0
  0
LINE
  5
3EF1
330
1F
100
AcDbEntity
  8
0
 62
     7
100
AcDbLine
 10
657.2200580959689
 20
445.5715894510026
 30
0.0
 11
657.2200580959689
 21
422.0001594510028
 31
0.0
  0
LINE
  5
3EF2
330
1F
100
AcDbEntity
  8
0
 62
     0
100
AcDbLine
 10
655.5396581200808
 20
422.7144444510076
 30
0.0
 11
655.5396581200808
 21
429.8572944510079
 31
0.0
  0
LINE
  5
3EF3
330
1F
100
AcDbEntity
  8
0
 62
     0
100
AcDbLine
 10
653.7539456200808
 20
422.7144444510076
 30
0.0
 11
653.7539456200808
 21
429.8572944510079
 31
0.0
  0
LINE
  5
3EF4
330
1F
100
AcDbEntity
  8
0
 62
     0
100
AcDbLine
 10
658.9004580718566
 20
422.7144444510076
 30
0.0
 11
658.9004580718566
 21
429.8572944510079
 31
0.0
  0
LINE
  5
3EF5
330
1F
100
AcDbEntity
  8
0
 62
     0
100
AcDbLine
 10
660.6861705718566
 20
422.7144444510076
 30
0.0
 11
660.6861705718566
 21
429.8572944510079
 31
0.0
  0
LINE
  5
3EF6
330
1F
100
AcDbEntity
  8
0
100
AcDbLine
 10
661.2200330959686
 20
429.8572944510026
 30
0.0
 11
661.2200330959686
 21
420.5715894510028
 31
0.0
  0
LINE
  5
3EF7
330
1F
100
AcDbEntity
  8
0
100
AcDbLine
 10
653.2200830959688
 20
429.8572944510026
 30
0.0
 11
653.2200830959688
 21
420.5715894510028
 31
0.0
  0
LINE
  5
3EF8
330
1F
100
AcDbEntity
  8
0
100
AcDbLine
 10
661.2200330959686
 20
422.0001594510028
 30
0.0
 11
653.2200830959688
 21
422.0001594510028
 31
0.0
  0
LINE
  5
3EF9
330
1F
100
AcDbEntity
  8
0
100
AcDbLine
 10
661.2200330959686
 20
422.7144444510029
 30
0.0
 11
653.2200830959688
 21
422.7144444510029
 31
0.0
  0
LINE
  5
3EFA
330
1F
100
AcDbEntity
  8
0
100
AcDbLine
 10
657.2200580959689
 20
422.0001594510028
 30
0.0
 11
656.1386419426661
 21
420.5715894510028
 31
0.0
  0
LINE
  5
3EFB
330
1F
100
AcDbEntity
  8
0
100
AcDbLine
 10
653.2200830959688
 20
429.8572944510026
 30
0.0
 11
661.2200330959707
 21
429.8572944510026
 31
0.0
  0
LINE
  5
3EFC
330
1F
100
AcDbEntity
  8
0
100
AcDbLine
 10
660.5057480959686
 20
430.5715794510028
 30
0.0
 11
653.9343680959688
 21
430.5715794510026
 31
0.0
  0
ARC
  5
3EFD
330
1F
100
AcDbEntity
  8
0
100
AcDbCircle
 10
660.5057480959686
 20
429.8572944510025
 30
0.0
 40
0.7142850000000001
100
AcDbArc
 50
0.0
 51
90.0
  0
ARC
  5
3EFE
330
1F
100
AcDbEntity
  8
0
100
AcDbCircle
 10
653.9343680959688
 20
429.8572944510025
 30
0.0
 40
0.7142850000000001
100
AcDbArc
 50
90.0
 51
180.0
  0
LINE
  5
3EFF
330
1F
100
AcDbEntity
  8
0
 62
     7
100
AcDbLine
 10
650.8142350169192
 20
440.5715894510026
 30
0.0
 11
656.019047969192
 21
440.5715894510026
 31
0.0
  0
LINE
  5
3F00
330
1F
100
AcDbEntity
  8
0
100
AcDbLine
 10
656.019047969192
 20
445.5715894510026
 30
0.0
 11
656.019047969192
 21
440.5715894510026
 31
0.0
  0
LINE
  5
3F01
330
1F
100
AcDbEntity
  8
0
100
AcDbLine
 10
645.4728330959689
 20
447.0715894510026
 30
0.0
 11
645.4728330959689
 21
445.5715894510026
 31
0.0
  0
LINE
  5
3F02
330
1F
100
AcDbEntity
  8
0
100
AcDbLine
 10
650.9744830959688
 20
447.0715894510026
 30
0.0
 11
650.9744830959688
 21
445.5715894510026
 31
0.0
  0
LINE
  5
3F03
330
1F
100
AcDbEntity
  8
0
100
AcDbLine
 10
650.8142350169192
 20
445.5715894510026
 30
0.0
 11
650.8142350169192
 21
440.5715894510026
 31
0.0
  0
LINE
  5
3F04
330
1F
100
AcDbEntity
  8
0
100
AcDbLine
 10
650.9744830959688
 20
446.3715894510028
 30
0.0
 11
645.4728330959689
 21
446.3715894510028
 31
0.0
  0
ARC
  5
3F05
330
1F
100
AcDbEntity
  8
0
100
AcDbCircle
 10
646.4728330959689
 20
447.0715894510025
 30
0.0
 40
1.0
100
AcDbArc
 50
90.0
 51
180.0
  0
LINE
  5
3F06
330
1F
100
AcDbEntity
  8
0
100
AcDbLine
 10
649.9744830959688
 20
448.0715894510026
 30
0.0
 11
646.4728330959689
 21
448.0715894510026
 31
0.0
  0
ARC
  5
3F07
330
1F
100
AcDbEntity
  8
0
100
AcDbCircle
 10
649.9744830959685
 20
447.0715894510025
 30
0.0
 40
1.0
100
AcDbArc
 50
0.0
 51
90.0
  0
LINE
  5
3F08
330
1F
100
AcDbEntity
  8
0
 62
     7
100
AcDbLine
 10
643.3614865245116
 20
494.0715894510026
 30
0.0
 11
646.2200580959689
 21
494.0715894510026
 31
0.0
  0
LINE
  5
3F09
330
1F
100
AcDbEntity
  8
0
 62
     7
100
AcDbLine
 10
645.2200580959689
 20
497.0715894510026
 30
0.0
 11
646.2200580959689
 21
494.0715894510026
 31
0.0
  0
CIRCLE
  5
3F0A
330
1F
100
AcDbEntity
  8
0
100
AcDbCircle
 10
681.2200580959687
 20
548.8406626328427
 30
0.0
 40
4.5
  0
LINE
  5
3F0B
330
1F
100
AcDbEntity
  8
0
100
AcDbLine
 10
691.2200580959689
 20
540.8406626328428
 30
0.0
 11
690.7200580959689
 21
540.3406626328428
 31
0.0
  0
LINE
  5
3F0C
330
1F
100
AcDbEntity
  8
CENTER
  6
CENTER
100
AcDbLine
 10
683.2200580959689
 20
548.8406626328428
 30
0.0
 11
686.7200580959689
 21
548.8406626328428
 31
0.0
  0
CIRCLE
  5
3F0D
330
1F
100
AcDbEntity
  8
0
 62
     7
100
AcDbCircle
 10
656.2260580959688
 20
556.8346626328429
 30
0.0
 40
2.950884999999999
  0
POLYLINE
  5
3F0E
330
1F
100
AcDbEntity
  8
0
 62
     7
100
AcDb2dPolyline
 66
     1
 10
0.0
 20
0.0
 30
0.0
 70
     1
  0
VERTEX
  5
3F0F
330
3F0E
100
AcDbEntity
  8
0
 62
     7
100
AcDbVertex
100
AcDb2dVertex
 10
656.2260580959688
 20
553.8837776328427
 30
0.0
  0
VERTEX
  5
3F10
330
3F0E
100
AcDbEntity
  8
0
 62
     7
100
AcDbVertex
100
AcDb2dVertex
 10
658.7815994696153
 20
555.3592201328427
 30
0.0
  0
VERTEX
  5
3F11
330
3F0E
100
AcDbEntity
  8
0
 62
     7
100
AcDbVertex
100
AcDb2dVertex
 10
658.7815994696153
 20
558.3101051328427
 30
0.0
  0
VERTEX
  5
3F12
330
3F0E
100
AcDbEntity
  8
0
 62
     7
100
AcDbVertex
100
AcDb2dVertex
 10
656.2260580959688
 20
559.7855476328426
 30
0.0
  0
VERTEX
  5
3F13
330
3F0E
100
AcDbEntity
  8
0
 62
     7
100
AcDbVertex
100
AcDb2dVertex
 10
653.6705167223225
 20
558.3101051328427
 30
0.0
  0
VERTEX
  5
3F14
330
3F0E
100
AcDbEntity
  8
0
 62
     7
100
AcDbVertex
100
AcDb2dVertex
 10
653.6705167223225
 20
555.3592201328427
 30
0.0
  0
SEQEND
  5
3F15
330
3F0E
100
AcDbEntity
  8
0
 62
     7
  0
CIRCLE
  5
3F16
330
1F
100
AcDbEntity
  8
0
 62
     7
100
AcDbCircle
 10
656.2260580959688
 20
556.8346626328429
 30
0.0
 40
5.0015
  0
LINE
  5
3F17
330
1F
100
AcDbEntity
  8
CENTER
  6
CENTER
100
AcDbLine
 10
681.2200580959689
 20
546.8406626328428
 30
0.0
 11
681.2200580959689
 21
543.3406626328428
 31
0.0
  0
LINE
  5
3F18
330
1F
100
AcDbEntity
  8
CENTER
  6
CENTER
100
AcDbLine
 10
679.2200580959689
 20
548.8406626328428
 30
0.0
 11
675.720058095969
 21
548.8406626328428
 31
0.0
  0
LINE
  5
3F19
330
1F
100
AcDbEntity
  8
CENTER
  6
CENTER
100
AcDbLine
 10
681.2200580959689
 20
550.8406626328429
 30
0.0
 11
681.2200580959689
 21
554.3406626328428
 31
0.0
  0
LINE
  5
3F1A
330
1F
100
AcDbEntity
  8
CENTER
  6
CENTER
100
AcDbLine
 10
680.220058095969
 20
548.8406626328428
 30
0.0
 11
682.2200580959689
 21
548.8406626328428
 31
0.0
  0
LINE
  5
3F1B
330
1F
100
AcDbEntity
  8
CENTER
  6
CENTER
100
AcDbLine
 10
681.2200580959689
 20
547.8406626328428
 30
0.0
 11
681.2200580959689
 21
549.8406626328428
 31
0.0
  0
LINE
  5
3F1C
330
1F
100
AcDbEntity
  8
CENTER
  6
CENTER
100
AcDbLine
 10
655.2257580959686
 20
556.834662632843
 30
0.0
 11
657.2263580959689
 21
556.834662632843
 31
0.0
  0
LINE
  5
3F1D
330
1F
100
AcDbEntity
  8
CENTER
  6
CENTER
100
AcDbLine
 10
656.2260580959688
 20
555.8343626328428
 30
0.0
 11
656.2260580959688
 21
557.8349626328429
 31
0.0
  0
ARC
  5
3F1E
330
1F
100
AcDbEntity
  8
0
 62
     7
100
AcDbCircle
 10
636.2200580959687
 20
576.8406626328427
 30
0.0
 40
8.55
100
AcDbArc
 50
305.0437882020613
 51
54.95621179795412
  0
ARC
  5
3F1F
330
1F
100
AcDbEntity
  8
0
 62
     7
100
AcDbCircle
 10
636.2200580959687
 20
576.8406626328427
 30
0.0
 40
10.05
100
AcDbArc
 50
315.851740922877
 51
44.14825907712301
  0
LINE
  5
3F20
330
1F
100
AcDbEntity
  8
0
 62
     7
100
AcDbLine
 10
643.4313339886247
 20
569.8406626328428
 30
0.0
 11
656.019047969192
 21
569.8406626328428
 31
0.0
  0
LINE
  5
3F21
330
1F
100
AcDbEntity
  8
0
 62
     7
100
AcDbLine
 10
648.7200580959689
 20
569.3406626328428
 30
0.0
 11
648.7200580959689
 21
562.3406626328428
 31
0.0
  0
ARC
  5
3F22
330
1F
100
AcDbEntity
  8
HIDDEN
100
AcDbCircle
 10
648.2236580959689
 20
565.3372126328427
 30
0.0
 40
2.750824999999999
100
AcDbArc
 50
82.53791231438064
 51
277.4620876856194
  0
ARC
  5
3F23
330
1F
100
AcDbEntity
  8
0
  6
Continuous
 62
     7
100
AcDbCircle
 10
648.2236580959689
 20
565.3372126328427
 30
0.0
 40
2.750824999999999
100
AcDbArc
 50
277.4620876856194
 51
82.53791231438064
  0
ARC
  5
3F24
330
1F
100
AcDbEntity
  8
0
 62
     7
100
AcDbCircle
 10
648.2200580959687
 20
562.3406626328427
 30
0.0
 40
0.5
100
AcDbArc
 50
270.0
 51
0.0
  0
LINE
  5
3F25
330
1F
100
AcDbEntity
  8
HIDDEN
  6
HIDDEN
100
AcDbLine
 10
647.7235080959687
 20
567.087737632843
 30
0.0
 11
648.7238080959688
 21
567.087737632843
 31
0.0
  0
ARC
  5
3F26
330
1F
100
AcDbEntity
  8
0
 62
     7
100
AcDbCircle
 10
649.2239580959687
 20
564.3369126328429
 30
0.0
 40
0.50015
100
AcDbArc
 50
90.0
 51
180.0
  0
LINE
  5
3F27
330
1F
100
AcDbEntity
  8
0
 62
     7
100
AcDbLine
 10
648.7238080959688
 20
566.337512632843
 30
0.0
 11
648.7238080959688
 21
567.087737632843
 31
0.0
  0
ARC
  5
3F28
330
1F
100
AcDbEntity
  8
0
 62
     7
100
AcDbCircle
 10
649.2239580959687
 20
566.3375126328429
 30
0.0
 40
0.50015
100
AcDbArc
 50
180.0
 51
270.0
  0
LINE
  5
3F29
330
1F
100
AcDbEntity
  8
0
 62
     7
100
AcDbLine
 10
649.9741830959688
 20
564.8370626328428
 30
0.0
 11
649.9741830959688
 21
565.837362632843
 31
0.0
  0
LINE
  5
3F2A
330
1F
100
AcDbEntity
  8
0
 62
     7
100
AcDbLine
 10
649.2239580959687
 20
565.837362632843
 30
0.0
 11
649.9741830959688
 21
565.837362632843
 31
0.0
  0
LINE
  5
3F2B
330
1F
100
AcDbEntity
  8
0
 62
     7
100
AcDbLine
 10
649.2239580959687
 20
564.8370626328428
 30
0.0
 11
649.9741830959688
 21
564.8370626328428
 31
0.0
  0
ARC
  5
3F2C
330
1F
100
AcDbEntity
  8
HIDDEN
100
AcDbCircle
 10
647.2233580959688
 20
564.3369126328429
 30
0.0
 40
0.50015
100
AcDbArc
 50
0.0
 51
90.0
  0
LINE
  5
3F2D
330
1F
100
AcDbEntity
  8
HIDDEN
100
AcDbLine
 10
646.4731330959688
 20
565.837362632843
 30
0.0
 11
647.2233580959688
 21
565.837362632843
 31
0.0
  0
LINE
  5
3F2E
330
1F
100
AcDbEntity
  8
HIDDEN
100
AcDbLine
 10
647.7235080959687
 20
566.337512632843
 30
0.0
 11
647.7235080959687
 21
567.087737632843
 31
0.0
  0
LINE
  5
3F2F
330
1F
100
AcDbEntity
  8
HIDDEN
100
AcDbLine
 10
646.4731330959688
 20
564.8370626328428
 30
0.0
 11
647.2233580959688
 21
564.8370626328428
 31
0.0
  0
LINE
  5
3F30
330
1F
100
AcDbEntity
  8
HIDDEN
100
AcDbLine
 10
646.4731330959688
 20
564.8370626328428
 30
0.0
 11
646.4731330959688
 21
565.837362632843
 31
0.0
  0
ARC
  5
3F31
330
1F
100
AcDbEntity
  8
HIDDEN
100
AcDbCircle
 10
647.2233580959688
 20
566.3375126328429
 30
0.0
 40
0.50015
100
AcDbArc
 50
270.0
 51
0.0
  0
LINE
  5
3F32
330
1F
100
AcDbEntity
  8
HIDDEN
  6
HIDDEN
100
AcDbLine
 10
647.7235080959687
 20
563.586687632843
 30
0.0
 11
648.7238080959688
 21
563.586687632843
 31
0.0
  0
LINE
  5
3F33
330
1F
100
AcDbEntity
  8
0
 62
     7
100
AcDbLine
 10
648.7238080959688
 20
563.586687632843
 30
0.0
 11
648.7238080959688
 21
564.336912632843
 31
0.0
  0
LINE
  5
3F34
330
1F
100
AcDbEntity
  8
HIDDEN
100
AcDbLine
 10
647.7235080959687
 20
563.586687632843
 30
0.0
 11
647.7235080959687
 21
564.336912632843
 31
0.0
  0
ARC
  5
3F35
330
1F
100
AcDbEntity
  8
0
 62
     7
100
AcDbCircle
 10
648.2200580959687
 20
569.3406626328427
 30
0.0
 40
0.5
100
AcDbArc
 50
0.0
 51
90.0
  0
LINE
  5
3F36
330
1F
100
AcDbEntity
  8
CENTER
  6
CENTER
100
AcDbLine
 10
655.2257580959686
 20
596.8466626328429
 30
0.0
 11
657.2263580959689
 21
596.8466626328429
 31
0.0
  0
LINE
  5
3F37
330
1F
100
AcDbEntity
  8
CENTER
  6
CENTER
100
AcDbLine
 10
656.2260580959688
 20
595.8463626328428
 30
0.0
 11
656.2260580959688
 21
597.8469626328428
 31
0.0
  0
LINE
  5
3F38
330
1F
100
AcDbEntity
  8
0
 62
     7
100
AcDbLine
 10
648.7200580959689
 20
591.3406626328431
 30
0.0
 11
648.7200580959689
 21
584.3406626328428
 31
0.0
  0
ARC
  5
3F39
330
1F
100
AcDbEntity
  8
0
 62
     7
100
AcDbCircle
 10
648.2200580959687
 20
584.3406626328427
 30
0.0
 40
0.5
100
AcDbArc
 50
270.0
 51
0.0
  0
ARC
  5
3F3A
330
1F
100
AcDbEntity
  8
0
 62
     7
100
AcDbCircle
 10
648.2200580959687
 20
591.340662632843
 30
0.0
 40
0.5
100
AcDbArc
 50
0.0
 51
90.0
  0
CIRCLE
  5
3F3B
330
1F
100
AcDbEntity
  8
0
100
AcDbCircle
 10
681.2200580959687
 20
604.8406626328427
 30
0.0
 40
4.5
  0
LINE
  5
3F3C
330
1F
100
AcDbEntity
  8
CENTER
  6
CENTER
100
AcDbLine
 10
683.2200580959689
 20
604.8406626328429
 30
0.0
 11
686.7200580959689
 21
604.8406626328429
 31
0.0
  0
LINE
  5
3F3D
330
1F
100
AcDbEntity
  8
0
100
AcDbLine
 10
690.7200580959689
 20
613.3406626328429
 30
0.0
 11
691.2200580959689
 21
612.8406626328428
 31
0.0
  0
LINE
  5
3F3E
330
1F
100
AcDbEntity
  8
CENTER
  6
CENTER
100
AcDbLine
 10
681.2200580959689
 20
606.8406626328428
 30
0.0
 11
681.2200580959689
 21
610.3406626328428
 31
0.0
  0
LINE
  5
3F3F
330
1F
100
AcDbEntity
  8
CENTER
  6
CENTER
100
AcDbLine
 10
679.2200580959689
 20
604.8406626328429
 30
0.0
 11
675.720058095969
 21
604.8406626328429
 31
0.0
  0
LINE
  5
3F40
330
1F
100
AcDbEntity
  8
CENTER
  6
CENTER
100
AcDbLine
 10
681.2200580959689
 20
602.8406626328428
 30
0.0
 11
681.2200580959689
 21
599.3406626328428
 31
0.0
  0
LINE
  5
3F41
330
1F
100
AcDbEntity
  8
CENTER
  6
CENTER
100
AcDbLine
 10
680.220058095969
 20
604.8406626328429
 30
0.0
 11
682.2200580959689
 21
604.8406626328429
 31
0.0
  0
LINE
  5
3F42
330
1F
100
AcDbEntity
  8
CENTER
  6
CENTER
100
AcDbLine
 10
681.2200580959689
 20
603.8406626328428
 30
0.0
 11
681.2200580959689
 21
605.8406626328428
 31
0.0
  0
CIRCLE
  5
3F43
330
1F
100
AcDbEntity
  8
0
 62
     7
100
AcDbCircle
 10
616.2140580959686
 20
596.8466626328428
 30
0.0
 40
2.950884999999999
  0
POLYLINE
  5
3F44
330
1F
100
AcDbEntity
  8
0
 62
     7
100
AcDb2dPolyline
 66
     1
 10
0.0
 20
0.0
 30
0.0
 70
     1
  0
VERTEX
  5
3F45
330
3F44
100
AcDbEntity
  8
0
 62
     7
100
AcDbVertex
100
AcDb2dVertex
 10
616.2140580959686
 20
593.8957776328426
 30
0.0
  0
VERTEX
  5
3F46
330
3F44
100
AcDbEntity
  8
0
 62
     7
100
AcDbVertex
100
AcDb2dVertex
 10
618.7695994696151
 20
595.3712201328427
 30
0.0
  0
VERTEX
  5
3F47
330
3F44
100
AcDbEntity
  8
0
 62
     7
100
AcDbVertex
100
AcDb2dVertex
 10
618.7695994696151
 20
598.3221051328427
 30
0.0
  0
VERTEX
  5
3F48
330
3F44
100
AcDbEntity
  8
0
 62
     7
100
AcDbVertex
100
AcDb2dVertex
 10
616.2140580959686
 20
599.7975476328427
 30
0.0
  0
VERTEX
  5
3F49
330
3F44
100
AcDbEntity
  8
0
 62
     7
100
AcDbVertex
100
AcDb2dVertex
 10
613.6585167223225
 20
598.3221051328427
 30
0.0
  0
VERTEX
  5
3F4A
330
3F44
100
AcDbEntity
  8
0
 62
     7
100
AcDbVertex
100
AcDb2dVertex
 10
613.6585167223223
 20
595.3712201328427
 30
0.0
  0
SEQEND
  5
3F4B
330
3F44
100
AcDbEntity
  8
0
 62
     7
  0
CIRCLE
  5
3F4C
330
1F
100
AcDbEntity
  8
0
 62
     7
100
AcDbCircle
 10
616.2140580959686
 20
596.8466626328428
 30
0.0
 40
5.0015
  0
LINE
  5
3F4D
330
1F
100
AcDbEntity
  8
0
100
AcDbLine
 10
581.2200580959689
 20
612.8406626328428
 30
0.0
 11
581.2200580959689
 21
540.8406626328428
 31
0.0
  0
LINE
  5
3F4E
330
1F
100
AcDbEntity
  8
CENTER
  6
CENTER
100
AcDbLine
 10
636.2200580959689
 20
616.5696105892591
 30
0.0
 11
636.2200580959689
 21
536.7347950836938
 31
0.0
  0
LINE
  5
3F4F
330
1F
100
AcDbEntity
  8
CENTER
  6
CENTER
100
AcDbLine
 10
636.2200580959689
 20
493.0715894510026
 30
0.0
 11
636.2200580959689
 21
504.5715894510026
 31
0.0
  0
LINE
  5
3F50
330
1F
100
AcDbEntity
  8
CENTER
  6
CENTER
100
AcDbLine
 10
636.2200580959689
 20
459.0715894510026
 30
0.0
 11
636.2200580959689
 21
449.0715894510026
 31
0.0
  0
LINE
  5
3F51
330
1F
100
AcDbEntity
  8
0
 62
     7
100
AcDbLine
 10
626.220058095969
 20
494.0715894510026
 30
0.0
 11
626.220058095969
 21
448.0391145407936
 31
0.0
  0
LINE
  5
3F52
330
1F
100
AcDbEntity
  8
0
 62
     7
100
AcDbLine
 10
629.078629667426
 20
497.0715894510026
 30
0.0
 11
629.078629667426
 21
445.5715894510026
 31
0.0
  0
LINE
  5
3F53
330
1F
100
AcDbEntity
  8
0
 62
     7
100
AcDbLine
 10
616.4210682227457
 20
440.5715894510026
 30
0.0
 11
621.6258811750184
 21
440.5715894510026
 31
0.0
  0
LINE
  5
3F54
330
1F
100
AcDbEntity
  8
0
100
AcDbLine
 10
621.4656330959688
 20
447.0715894510026
 30
0.0
 11
621.4656330959688
 21
445.5715894510026
 31
0.0
  0
LINE
  5
3F55
330
1F
100
AcDbEntity
  8
0
100
AcDbLine
 10
626.9672830959688
 20
447.0715894510026
 30
0.0
 11
626.9672830959688
 21
445.5715894510026
 31
0.0
  0
LINE
  5
3F56
330
1F
100
AcDbEntity
  8
0
100
AcDbLine
 10
621.6258811750184
 20
445.5715894510026
 30
0.0
 11
621.6258811750184
 21
440.5715894510026
 31
0.0
  0
LINE
  5
3F57
330
1F
100
AcDbEntity
  8
0
100
AcDbLine
 10
621.4656330959688
 20
446.3715894510028
 30
0.0
 11
626.9672830959688
 21
446.3715894510028
 31
0.0
  0
LINE
  5
3F58
330
1F
100
AcDbEntity
  8
0
100
AcDbLine
 10
622.4656330959689
 20
448.0715894510026
 30
0.0
 11
625.9672830959687
 21
448.0715894510026
 31
0.0
  0
ARC
  5
3F59
330
1F
100
AcDbEntity
  8
0
100
AcDbCircle
 10
625.9672830959686
 20
447.0715894510025
 30
0.0
 40
1.0
100
AcDbArc
 50
0.0
 51
90.0
  0
ARC
  5
3F5A
330
1F
100
AcDbEntity
  8
0
100
AcDbCircle
 10
622.4656330959689
 20
447.0715894510025
 30
0.0
 40
1.0
100
AcDbArc
 50
90.0
 51
180.0
  0
LINE
  5
3F5B
330
1F
100
AcDbEntity
  8
0
 62
     7
100
AcDbLine
 10
615.2200580959689
 20
445.5715894510026
 30
0.0
 11
615.2200580959689
 21
422.0001594510026
 31
0.0
  0
LINE
  5
3F5C
330
1F
100
AcDbEntity
  8
0
 62
     0
100
AcDbLine
 10
613.5396581200812
 20
422.7144444510081
 30
0.0
 11
613.5396581200812
 21
429.8572944510083
 31
0.0
  0
LINE
  5
3F5D
330
1F
100
AcDbEntity
  8
0
 62
     0
100
AcDbLine
 10
611.7539456200812
 20
422.7144444510081
 30
0.0
 11
611.7539456200812
 21
429.8572944510083
 31
0.0
  0
LINE
  5
3F5E
330
1F
100
AcDbEntity
  8
0
 62
     0
100
AcDbLine
 10
616.9004580718562
 20
422.7144444510081
 30
0.0
 11
616.9004580718562
 21
429.8572944510083
 31
0.0
  0
LINE
  5
3F5F
330
1F
100
AcDbEntity
  8
0
 62
     0
100
AcDbLine
 10
618.6861705718562
 20
422.7144444510081
 30
0.0
 11
618.6861705718562
 21
429.8572944510083
 31
0.0
  0
LINE
  5
3F60
330
1F
100
AcDbEntity
  8
0
100
AcDbLine
 10
619.2200330959689
 20
429.8572944510026
 30
0.0
 11
619.2200330959689
 21
420.5715894510026
 31
0.0
  0
LINE
  5
3F61
330
1F
100
AcDbEntity
  8
0
100
AcDbLine
 10
611.2200830959688
 20
429.8572944510026
 30
0.0
 11
611.2200830959688
 21
420.5715894510026
 31
0.0
  0
LINE
  5
3F62
330
1F
100
AcDbEntity
  8
0
100
AcDbLine
 10
619.2200330959689
 20
422.0001594510026
 30
0.0
 11
611.2200830959688
 21
422.0001594510026
 31
0.0
  0
LINE
  5
3F63
330
1F
100
AcDbEntity
  8
0
100
AcDbLine
 10
619.2200330959689
 20
422.7144444510027
 30
0.0
 11
611.2200830959688
 21
422.7144444510027
 31
0.0
  0
LINE
  5
3F64
330
1F
100
AcDbEntity
  8
0
100
AcDbLine
 10
615.2200580959689
 20
422.0001594510026
 30
0.0
 11
614.0203909719576
 21
420.5715894510028
 31
0.0
  0
LINE
  5
3F65
330
1F
100
AcDbEntity
  8
0
100
AcDbLine
 10
611.9343680959688
 20
430.5715794510026
 30
0.0
 11
618.5057480959689
 21
430.5715794510026
 31
0.0
  0
LINE
  5
3F66
330
1F
100
AcDbEntity
  8
0
100
AcDbLine
 10
611.2200830959688
 20
429.8572944510026
 30
0.0
 11
619.2200330959689
 21
429.8572944510026
 31
0.0
  0
ARC
  5
3F67
330
1F
100
AcDbEntity
  8
0
100
AcDbCircle
 10
618.5057480959686
 20
429.8572944510025
 30
0.0
 40
0.7142850000000001
100
AcDbArc
 50
0.0
 51
90.0
  0
ARC
  5
3F68
330
1F
100
AcDbEntity
  8
0
100
AcDbCircle
 10
611.9343680959688
 20
429.8572944510025
 30
0.0
 40
0.7142850000000001
100
AcDbArc
 50
90.0
 51
180.0
  0
LINE
  5
3F69
330
1F
100
AcDbEntity
  8
0
100
AcDbLine
 10
616.4210682227457
 20
445.5715894510026
 30
0.0
 11
616.4210682227457
 21
440.5715894510026
 31
0.0
  0
LINE
  5
3F6A
330
1F
100
AcDbEntity
  8
CENTER
  6
CENTER
100
AcDbLine
 10
634.220058095969
 20
461.0715894510026
 30
0.0
 11
622.7200580959689
 21
461.0715894510026
 31
0.0
  0
LINE
  5
3F6B
330
1F
100
AcDbEntity
  8
CENTER
  6
CENTER
100
AcDbLine
 10
636.2200580959689
 20
463.0715894510026
 30
0.0
 11
636.2200580959689
 21
474.5715894510026
 31
0.0
  0
LINE
  5
3F6C
330
1F
100
AcDbEntity
  8
CENTER
  6
CENTER
100
AcDbLine
 10
635.2200580959689
 20
461.0715894510026
 30
0.0
 11
637.2200580959689
 21
461.0715894510026
 31
0.0
  0
CIRCLE
  5
3F6D
330
1F
100
AcDbEntity
  8
HIDDEN
  6
HIDDEN
100
AcDbCircle
 10
636.2200580959687
 20
461.0715894510025
 30
0.0
 40
3.049999999999999
  0
LINE
  5
3F6E
330
1F
100
AcDbEntity
  8
CENTER
  6
CENTER
100
AcDbLine
 10
636.2200580959689
 20
460.0715894510026
 30
0.0
 11
636.2200580959689
 21
462.0715894510026
 31
0.0
  0
LINE
  5
3F6F
330
1F
100
AcDbEntity
  8
CENTER
  6
CENTER
100
AcDbLine
 10
634.220058095969
 20
491.0715894510026
 30
0.0
 11
622.7200580959689
 21
491.0715894510026
 31
0.0
  0
LINE
  5
3F70
330
1F
100
AcDbEntity
  8
CENTER
  6
CENTER
100
AcDbLine
 10
636.2200580959689
 20
489.0715894510026
 30
0.0
 11
636.2200580959689
 21
477.5715894510026
 31
0.0
  0
LINE
  5
3F71
330
1F
100
AcDbEntity
  8
CENTER
  6
CENTER
100
AcDbLine
 10
635.2200580959689
 20
491.0715894510026
 30
0.0
 11
637.2200580959689
 21
491.0715894510026
 31
0.0
  0
CIRCLE
  5
3F72
330
1F
100
AcDbEntity
  8
0
 62
     7
100
AcDbCircle
 10
636.2200580959687
 20
491.0715894510025
 30
0.0
 40
3.049999999999999
  0
LINE
  5
3F73
330
1F
100
AcDbEntity
  8
CENTER
  6
CENTER
100
AcDbLine
 10
636.2200580959689
 20
490.0715894510026
 30
0.0
 11
636.2200580959689
 21
492.0715894510026
 31
0.0
  0
LINE
  5
3F74
330
1F
100
AcDbEntity
  8
0
 62
     7
100
AcDbLine
 10
626.220058095969
 20
494.0715894510026
 30
0.0
 11
629.078629667426
 21
494.0715894510026
 31
0.0
  0
LINE
  5
3F75
330
1F
100
AcDbEntity
  8
0
 62
     7
100
AcDbLine
 10
626.220058095969
 20
494.0715894510026
 30
0.0
 11
627.2200580959689
 21
497.0715894510026
 31
0.0
  0
POLYLINE
  5
3F76
330
1F
100
AcDbEntity
  8
0
 62
     7
100
AcDb2dPolyline
 66
     1
 10
0.0
 20
0.0
 30
0.0
 70
     1
  0
VERTEX
  5
3F77
330
3F76
100
AcDbEntity
  8
0
 62
     7
100
AcDbVertex
100
AcDb2dVertex
 10
616.2140580959686
 20
553.8837776328427
 30
0.0
  0
VERTEX
  5
3F78
330
3F76
100
AcDbEntity
  8
0
 62
     7
100
AcDbVertex
100
AcDb2dVertex
 10
618.7695994696151
 20
555.3592201328427
 30
0.0
  0
VERTEX
  5
3F79
330
3F76
100
AcDbEntity
  8
0
 62
     7
100
AcDbVertex
100
AcDb2dVertex
 10
618.7695994696151
 20
558.3101051328427
 30
0.0
  0
VERTEX
  5
3F7A
330
3F76
100
AcDbEntity
  8
0
 62
     7
100
AcDbVertex
100
AcDb2dVertex
 10
616.2140580959686
 20
559.7855476328426
 30
0.0
  0
VERTEX
  5
3F7B
330
3F76
100
AcDbEntity
  8
0
 62
     7
100
AcDbVertex
100
AcDb2dVertex
 10
613.6585167223225
 20
558.3101051328427
 30
0.0
  0
VERTEX
  5
3F7C
330
3F76
100
AcDbEntity
  8
0
 62
     7
100
AcDbVertex
100
AcDb2dVertex
 10
613.6585167223223
 20
555.3592201328427
 30
0.0
  0
SEQEND
  5
3F7D
330
3F76
100
AcDbEntity
  8
0
 62
     7
  0
CIRCLE
  5
3F7E
330
1F
100
AcDbEntity
  8
0
 62
     7
100
AcDbCircle
 10
616.2140580959686
 20
556.8346626328429
 30
0.0
 40
2.950884999999999
  0
CIRCLE
  5
3F7F
330
1F
100
AcDbEntity
  8
0
 62
     7
100
AcDbCircle
 10
616.2140580959686
 20
556.8346626328429
 30
0.0
 40
5.0015
  0
LINE
  5
3F80
330
1F
100
AcDbEntity
  8
CENTER
  6
CENTER
100
AcDbLine
 10
615.2137580959687
 20
556.834662632843
 30
0.0
 11
617.2143580959688
 21
556.834662632843
 31
0.0
  0
LINE
  5
3F81
330
1F
100
AcDbEntity
  8
CENTER
  6
CENTER
100
AcDbLine
 10
616.2140580959689
 20
555.8343626328428
 30
0.0
 11
616.2140580959689
 21
557.8349626328429
 31
0.0
  0
LINE
  5
3F82
330
1F
100
AcDbEntity
  8
0
 62
     7
100
AcDbLine
 10
616.4210682227457
 20
569.8406626328428
 30
0.0
 11
629.008782203313
 21
569.8406626328428
 31
0.0
  0
ARC
  5
3F83
330
1F
100
AcDbEntity
  8
0
 62
     7
100
AcDbCircle
 10
636.2200580959687
 20
576.8406626328427
 30
0.0
 40
8.55
100
AcDbArc
 50
125.0437882020458
 51
234.9562117979388
  0
ARC
  5
3F84
330
1F
100
AcDbEntity
  8
0
 62
     7
100
AcDbCircle
 10
636.2200580959687
 20
576.8406626328427
 30
0.0
 40
10.05
100
AcDbArc
 50
135.851740922877
 51
224.148259077123
  0
LINE
  5
3F85
330
1F
100
AcDbEntity
  8
0
 62
     7
100
AcDbLine
 10
623.7200580959689
 20
569.3406626328428
 30
0.0
 11
623.7200580959689
 21
562.3406626328428
 31
0.0
  0
ARC
  5
3F86
330
1F
100
AcDbEntity
  8
HIDDEN
100
AcDbCircle
 10
625.2167580959686
 20
564.3369126328429
 30
0.0
 40
0.50015
100
AcDbArc
 50
90.0
 51
180.0
  0
ARC
  5
3F87
330
1F
100
AcDbEntity
  8
HIDDEN
100
AcDbCircle
 10
625.2167580959686
 20
566.3375126328429
 30
0.0
 40
0.50015
100
AcDbArc
 50
180.0
 51
270.0
  0
ARC
  5
3F88
330
1F
100
AcDbEntity
  8
HIDDEN
100
AcDbCircle
 10
624.2164580959685
 20
565.3372126328427
 30
0.0
 40
2.750824999999999
100
AcDbArc
 50
262.5379123143937
 51
97.46208768560622
  0
LINE
  5
3F89
330
1F
100
AcDbEntity
  8
HIDDEN
100
AcDbLine
 10
625.2167580959686
 20
565.837362632843
 30
0.0
 11
625.9669830959689
 21
565.837362632843
 31
0.0
  0
LINE
  5
3F8A
330
1F
100
AcDbEntity
  8
HIDDEN
100
AcDbLine
 10
625.2167580959686
 20
564.8370626328428
 30
0.0
 11
625.9669830959689
 21
564.8370626328428
 31
0.0
  0
LINE
  5
3F8B
330
1F
100
AcDbEntity
  8
HIDDEN
100
AcDbLine
 10
625.9669830959689
 20
564.8370626328428
 30
0.0
 11
625.9669830959689
 21
565.837362632843
 31
0.0
  0
ARC
  5
3F8C
330
1F
100
AcDbEntity
  8
0
  6
Continuous
 62
     7
100
AcDbCircle
 10
624.2164580959687
 20
565.337212632843
 30
0.0
 40
2.750824999999999
100
AcDbArc
 50
97.46208768561935
 51
262.5379123143806
  0
ARC
  5
3F8D
330
1F
100
AcDbEntity
  8
0
 62
     7
100
AcDbCircle
 10
624.2200580959687
 20
562.3406626328427
 30
0.0
 40
0.5
100
AcDbArc
 50
180.0
 51
270.0
  0
ARC
  5
3F8E
330
1F
100
AcDbEntity
  8
0
 62
     7
100
AcDbCircle
 10
623.2161580959687
 20
564.3369126328429
 30
0.0
 40
0.50015
100
AcDbArc
 50
0.0
 51
90.0
  0
ARC
  5
3F8F
330
1F
100
AcDbEntity
  8
0
 62
     7
100
AcDbCircle
 10
623.2161580959687
 20
566.3375126328429
 30
0.0
 40
0.50015
100
AcDbArc
 50
270.0
 51
0.0
  0
LINE
  5
3F90
330
1F
100
AcDbEntity
  8
0
 62
     7
100
AcDbLine
 10
622.4659330959686
 20
565.837362632843
 30
0.0
 11
623.2161580959687
 21
565.837362632843
 31
0.0
  0
LINE
  5
3F91
330
1F
100
AcDbEntity
  8
0
 62
     7
100
AcDbLine
 10
623.7163080959689
 20
566.337512632843
 30
0.0
 11
623.7163080959686
 21
567.087737632843
 31
0.0
  0
LINE
  5
3F92
330
1F
100
AcDbEntity
  8
0
 62
     7
100
AcDbLine
 10
622.4659330959686
 20
564.8370626328428
 30
0.0
 11
623.2161580959687
 21
564.8370626328428
 31
0.0
  0
LINE
  5
3F93
330
1F
100
AcDbEntity
  8
0
 62
     7
100
AcDbLine
 10
622.4659330959686
 20
564.8370626328428
 30
0.0
 11
622.4659330959686
 21
565.837362632843
 31
0.0
  0
LINE
  5
3F94
330
1F
100
AcDbEntity
  8
HIDDEN
100
AcDbLine
 10
624.7166080959687
 20
566.337512632843
 30
0.0
 11
624.7166080959687
 21
567.087737632843
 31
0.0
  0
LINE
  5
3F95
330
1F
100
AcDbEntity
  8
HIDDEN
100
AcDbLine
 10
623.7163080959686
 20
567.087737632843
 30
0.0
 11
624.7166080959687
 21
567.087737632843
 31
0.0
  0
LINE
  5
3F96
330
1F
100
AcDbEntity
  8
HIDDEN
100
AcDbLine
 10
623.7163080959689
 20
563.586687632843
 30
0.0
 11
624.7166080959687
 21
563.586687632843
 31
0.0
  0
LINE
  5
3F97
330
1F
100
AcDbEntity
  8
0
 62
     7
100
AcDbLine
 10
623.7163080959689
 20
563.586687632843
 30
0.0
 11
623.7163080959689
 21
564.336912632843
 31
0.0
  0
LINE
  5
3F98
330
1F
100
AcDbEntity
  8
HIDDEN
100
AcDbLine
 10
624.7166080959687
 20
563.586687632843
 30
0.0
 11
624.7166080959687
 21
564.336912632843
 31
0.0
  0
ARC
  5
3F99
330
1F
100
AcDbEntity
  8
0
 62
     7
100
AcDbCircle
 10
624.2200580959687
 20
569.3406626328427
 30
0.0
 40
0.5
100
AcDbArc
 50
90.0
 51
180.0
  0
LINE
  5
3F9A
330
1F
100
AcDbEntity
  8
0
 62
     7
100
AcDbLine
 10
623.7200580959689
 20
591.3406626328428
 30
0.0
 11
623.7200580959689
 21
584.3406626328428
 31
0.0
  0
ARC
  5
3F9B
330
1F
100
AcDbEntity
  8
0
 62
     7
100
AcDbCircle
 10
624.2200580959687
 20
584.3406626328427
 30
0.0
 40
0.5
100
AcDbArc
 50
180.0
 51
270.0
  0
ARC
  5
3F9C
330
1F
100
AcDbEntity
  8
0
 62
     7
100
AcDbCircle
 10
624.2200580959687
 20
591.3406626328427
 30
0.0
 40
0.5
100
AcDbArc
 50
90.0
 51
180.0
  0
LINE
  5
3F9D
330
1F
100
AcDbEntity
  8
CENTER
  6
CENTER
100
AcDbLine
 10
615.2137580959687
 20
596.8466626328429
 30
0.0
 11
617.2143580959688
 21
596.8466626328429
 31
0.0
  0
LINE
  5
3F9E
330
1F
100
AcDbEntity
  8
CENTER
  6
CENTER
100
AcDbLine
 10
616.2140580959689
 20
595.8463626328428
 30
0.0
 11
616.2140580959689
 21
597.8469626328428
 31
0.0
  0
CIRCLE
  5
3F9F
330
1F
100
AcDbEntity
  8
0
100
AcDbCircle
 10
591.2200580959687
 20
548.8406626328427
 30
0.0
 40
4.5
  0
LINE
  5
3FA0
330
1F
100
AcDbEntity
  8
CENTER
  6
CENTER
100
AcDbLine
 10
589.220058095969
 20
548.8406626328428
 30
0.0
 11
585.7200580959689
 21
548.8406626328428
 31
0.0
  0
LINE
  5
3FA1
330
1F
100
AcDbEntity
  8
CENTER
  6
CENTER
100
AcDbLine
 10
591.2200580959689
 20
546.8406626328428
 30
0.0
 11
591.2200580959689
 21
543.3406626328428
 31
0.0
  0
LINE
  5
3FA2
330
1F
100
AcDbEntity
  8
CENTER
  6
CENTER
100
AcDbLine
 10
593.220058095969
 20
548.8406626328428
 30
0.0
 11
596.720058095969
 21
548.8406626328428
 31
0.0
  0
LINE
  5
3FA3
330
1F
100
AcDbEntity
  8
CENTER
  6
CENTER
100
AcDbLine
 10
591.2200580959689
 20
550.8406626328429
 30
0.0
 11
591.2200580959689
 21
554.3406626328428
 31
0.0
  0
LINE
  5
3FA4
330
1F
100
AcDbEntity
  8
CENTER
  6
CENTER
100
AcDbLine
 10
590.2200580959689
 20
548.8406626328428
 30
0.0
 11
592.2200580959689
 21
548.8406626328428
 31
0.0
  0
LINE
  5
3FA5
330
1F
100
AcDbEntity
  8
CENTER
  6
CENTER
100
AcDbLine
 10
591.2200580959689
 20
547.8406626328428
 30
0.0
 11
591.2200580959689
 21
549.8406626328428
 31
0.0
  0
LINE
  5
3FA6
330
1F
100
AcDbEntity
  8
0
100
AcDbLine
 10
581.7200580959689
 20
540.3406626328428
 30
0.0
 11
581.2200580959689
 21
540.8406626328428
 31
0.0
  0
LINE
  5
3FA7
330
1F
100
AcDbEntity
  8
CENTER
  6
CENTER
100
AcDbLine
 10
589.220058095969
 20
604.8406626328429
 30
0.0
 11
585.7200580959689
 21
604.8406626328429
 31
0.0
  0
CIRCLE
  5
3FA8
330
1F
100
AcDbEntity
  8
0
100
AcDbCircle
 10
591.2200580959687
 20
604.8406626328427
 30
0.0
 40
4.5
  0
LINE
  5
3FA9
330
1F
100
AcDbEntity
  8
CENTER
  6
CENTER
100
AcDbLine
 10
591.2200580959689
 20
606.8406626328428
 30
0.0
 11
591.2200580959689
 21
610.3406626328428
 31
0.0
  0
LINE
  5
3FAA
330
1F
100
AcDbEntity
  8
CENTER
  6
CENTER
100
AcDbLine
 10
593.220058095969
 20
604.8406626328429
 30
0.0
 11
596.720058095969
 21
604.8406626328429
 31
0.0
  0
LINE
  5
3FAB
330
1F
100
AcDbEntity
  8
CENTER
  6
CENTER
100
AcDbLine
 10
591.2200580959689
 20
602.8406626328428
 30
0.0
 11
591.2200580959689
 21
599.3406626328428
 31
0.0
  0
LINE
  5
3FAC
330
1F
100
AcDbEntity
  8
CENTER
  6
CENTER
100
AcDbLine
 10
590.2200580959689
 20
604.8406626328429
 30
0.0
 11
592.2200580959689
 21
604.8406626328429
 31
0.0
  0
LINE
  5
3FAD
330
1F
100
AcDbEntity
  8
CENTER
  6
CENTER
100
AcDbLine
 10
591.2200580959689
 20
603.8406626328428
 30
0.0
 11
591.2200580959689
 21
605.8406626328428
 31
0.0
  0
LINE
  5
3FAE
330
1F
100
AcDbEntity
  8
0
100
AcDbLine
 10
581.7200580959689
 20
613.3406626328429
 30
0.0
 11
581.2200580959689
 21
612.8406626328428
 31
0.0
  0
LINE
  5
3FAF
330
1F
100
AcDbEntity
  8
假想
100
AcDbLine
 10
640.2200580959689
 20
313.5715894510028
 30
0.0
 11
632.2200580959689
 21
313.5715894510028
 31
0.0
  0
LINE
  5
3FB0
330
1F
100
AcDbEntity
  8
假想
100
AcDbLine
 10
631.2200580959689
 20
319.5715894510029
 30
0.0
 11
631.2200580959689
 21
314.5715894510029
 31
0.0
  0
LINE
  5
3FB1
330
1F
100
AcDbEntity
  8
假想
100
AcDbLine
 10
641.2200580959689
 20
319.5715894510029
 30
0.0
 11
641.2200580959689
 21
314.5715894510029
 31
0.0
  0
LINE
  5
3FB2
330
1F
100
AcDbEntity
  8
假想
100
AcDbLine
 10
631.2200580959689
 20
314.5715894510029
 30
0.0
 11
632.2200580959689
 21
313.5715894510028
 31
0.0
  0
LINE
  5
3FB3
330
1F
100
AcDbEntity
  8
假想
100
AcDbLine
 10
640.2200580959689
 20
313.5715894510028
 30
0.0
 11
641.2200580959689
 21
314.5715894510029
 31
0.0
  0
LINE
  5
3FB4
330
1F
100
AcDbEntity
  8
CENTER
  6
CENTER
100
AcDbLine
 10
640.2200580959689
 20
318.0715894510029
 30
0.0
 11
632.2200580959689
 21
318.0715894510029
 31
0.0
  0
CIRCLE
  5
3FB5
330
1F
100
AcDbEntity
  8
假想
100
AcDbCircle
 10
636.2200580959687
 20
318.0715894510028
 30
0.0
 40
1.5
  0
DIMENSION
  5
3FB6
330
1F
100
AcDbEntity
  8
AM_5
100
AcDbDimension
  2
*D12
 10
588.7484264752702
 20
313.5715894510028
 30
0.0
 11
588.7484264752701
 21
339.3546603171448
 31
0.0
 70
   160
  1
6
 71
     5
 42
6.0
  3
AM_ISO$0
100
AcDbAlignedDimension
 13
607.5700580959686
 23
319.5715894510029
 33
0.0
 14
632.2200580959689
 24
313.5715894510028
 34
0.0
 50
90.0
100
AcDbRotatedDimension
1001
ACAD
1000
DSTYLE
1002
{
1070
    40
1040
2.0
1002
}
  0
DIMENSION
  5
3FB9
330
1F
100
AcDbEntity
  8
AM_5
100
AcDbDimension
  2
*D13
 10
703.947976189931
 20
410.5715894510027
 30
0.0
 11
703.9479761899309
 21
365.5887036896225
 31
0.0
 70
   160
  1
91
 71
     5
 42
90.99999999999988
  3
AM_ISO$0
100
AcDbAlignedDimension
 13
664.8700580959688
 23
319.5715894510029
 33
0.0
 14
691.2200580959687
 24
410.5715894510027
 34
0.0
 50
90.0
100
AcDbRotatedDimension
1001
ACAD
1000
DSTYLE
1002
{
1070
    40
1040
2.0
1002
}
  0
DIMENSION
  5
3FBA
330
1F
100
AcDbEntity
  8
AM_5
100
AcDbDimension
  2
*D14
 10
703.947976189931
 20
491.0715894510025
 30
0.0
 11
703.9479761899309
 21
459.0516592408951
 31
0.0
 70
   160
  1
70.5
 71
     5
 42
70.49999999999977
  3
AM_ISO$0
100
AcDbAlignedDimension
 13
691.2200580959687
 23
420.5715894510027
 33
0.0
 14
648.7200580959687
 24
491.0715894510025
 34
0.0
 50
90.0
100
AcDbRotatedDimension
1001
ACAD
1000
DSTYLE
1002
{
1070
    40
1040
2.0
1002
}
  0
DIMENSION
  5
3FBB
330
1F
100
AcDbEntity
  8
AM_5
100
AcDbDimension
  2
*D15
 10
719.6722762298978
 20
319.5715894510029
 30
0.0
 11
719.6722762298976
 21
415.3286861487974
 31
0.0
 70
   160
  1
184
 71
     5
 42
183.9999999999997
  3
AM_ISO$0
100
AcDbAlignedDimension
 13
636.2200580959689
 23
503.5715894510026
 33
0.0
 14
662.2200580959701
 24
319.5715894510029
 34
0.0
 50
90.0
100
AcDbRotatedDimension
1001
ACAD
1000
DSTYLE
1002
{
1070
    40
1040
2.0
1002
}
  0
DIMENSION
  5
3FBC
102
{ACAD_XDICTIONARY
360
3FBD
102
}
102
{ACAD_REACTORS
330
3FBE
102
}
330
1F
100
AcDbEntity
  8
AM_5
100
AcDbDimension
  2
*D25
 10
665.2901260646277
 20
260.4263725154723
 30
0.0
 11
659.5901260646276
 21
279.671347262303
 31
0.0
 70
    32
 71
     5
 42
3.499999999999943
  3
AM_ISO$0
100
AcDbAlignedDimension
 13
643.2200580959685
 23
256.9263725154723
 33
0.0
 14
637.9708830959685
 24
260.4263725154723
 34
0.0
 50
90.0
100
AcDbRotatedDimension
1001
ACAD
1000
DSTYLE
1002
{
1070
    40
1040
2.0
1002
}
  0
DIMENSION
  5
3FBF
330
1F
100
AcDbEntity
  8
AM_5
100
AcDbDimension
  2
*D16
 10
636.2200580959684
 20
388.0715894510031
 30
0.0
 11
588.7501224283023
 21
371.9328265694044
 31
0.0
 70
   164
  1
Rc1/8
 71
     5
 42
4.999999999998863
  3
AM_ISO$4
100
AcDbRadialDimension
 15
631.6847929993449
 25
385.9665073853017
 35
0.0
 40
0.0
1001
ACAD
1000
DSTYLE
1002
{
1070
    40
1040
2.0
1002
}
  0
DIMENSION
  5
3FC0
330
1F
100
AcDbEntity
  8
AM_5
100
AcDbDimension
  2
*D17
 10
678.3497948438551
 20
201.3921464353305
 30
0.0
 11
720.9600238192486
 21
175.4338293436832
 31
0.0
 70
   163
  1
4-<>thru
 71
     5
 42
8.999999999999658
  3
AM_ISO$3
100
AcDbDiametricDimension
 15
684.0903213480816
 25
194.4605985956148
 35
0.0
 40
0.0
1001
ACAD
1000
DSTYLE
1002
{
1070
    40
1040
2.0
1070
   141
1040
0.0
1002
}
  0
DIMENSION
  5
3FC2
330
1F
100
AcDbEntity
  8
AM_5
100
AcDbDimension
  2
*D18
 10
703.947976189931
 20
410.5715894510028
 30
0.0
 11
703.9479761899309
 21
415.5715894510029
 31
0.0
 70
   160
 71
     5
 42
10.0
  3
AM_ISO$0
100
AcDbAlignedDimension
 13
691.2200580959687
 23
420.5715894510028
 33
0.0
 14
691.2200580959687
 24
410.5715894510028
 34
0.0
 50
90.0
100
AcDbRotatedDimension
1001
ACAD
1000
DSTYLE
1002
{
1070
    40
1040
2.0
1002
}
  0
DIMENSION
  5
3FC3
102
{ACAD_XDICTIONARY
360
3FC4
102
}
102
{ACAD_REACTORS
330
3FC5
102
}
330
1F
100
AcDbEntity
  8
AM_5
100
AcDbDimension
  2
*D26
 10
687.1988486319028
 20
388.0715894510029
 30
0.0
 11
687.1988486319026
 21
399.3215894510029
 31
0.0
 70
   160
 71
     5
 42
22.5
  3
AM_ISO$0
100
AcDbAlignedDimension
 13
691.2200580959687
 23
410.5715894510028
 33
0.0
 14
642.2200580959689
 24
388.0715894510029
 34
0.0
 50
90.0
100
AcDbRotatedDimension
1001
ACAD
1000
DSTYLE
1002
{
1070
    40
1040
2.0
1002
}
  0
LINE
  5
3FC6
330
1F
100
AcDbEntity
  8
0
100
AcDbLine
 10
774.7887655676132
 20
420.5715894510028
 30
0.0
 11
774.7887655676132
 21
410.5715894510028
 31
0.0
  0
LINE
  5
3FC7
330
1F
100
AcDbEntity
  8
HIDDEN
  6
HIDDEN
100
AcDbLine
 10
778.7887655676132
 20
410.5715894510028
 30
0.0
 11
778.7887655676132
 21
420.5715894510028
 31
0.0
  0
LINE
  5
3FC8
330
1F
100
AcDbEntity
  8
HIDDEN
  6
HIDDEN
100
AcDbLine
 10
787.7887655676133
 20
410.5715894510028
 30
0.0
 11
787.7887655676133
 21
420.5715894510028
 31
0.0
  0
LINE
  5
3FC9
330
1F
100
AcDbEntity
  8
CENTER
  6
CENTER
100
AcDbLine
 10
783.2887655676132
 20
408.7506427675534
 30
0.0
 11
783.2887655676132
 21
422.2697071621944
 31
0.0
  0
LINE
  5
3FCA
330
1F
100
AcDbEntity
  8
HIDDEN
  6
HIDDEN
100
AcDbLine
 10
834.7887655676132
 20
410.5715894510028
 30
0.0
 11
834.7887655676132
 21
420.5715894510028
 31
0.0
  0
LINE
  5
3FCB
330
1F
100
AcDbEntity
  8
CENTER
  6
CENTER
100
AcDbLine
 10
839.2887655676132
 20
408.7506427675534
 30
0.0
 11
839.2887655676132
 21
422.2697071621944
 31
0.0
  0
LINE
  5
3FCC
330
1F
100
AcDbEntity
  8
0
100
AcDbLine
 10
847.7887655676132
 20
420.5715894510028
 30
0.0
 11
847.7887655676132
 21
410.5715894510028
 31
0.0
  0
LINE
  5
3FCD
330
1F
100
AcDbEntity
  8
HIDDEN
  6
HIDDEN
100
AcDbLine
 10
843.7887655676131
 20
410.5715894510028
 30
0.0
 11
843.7887655676131
 21
420.5715894510028
 31
0.0
  0
LINE
  5
3FCE
330
1F
100
AcDbEntity
  8
0
100
AcDbLine
 10
841.4387655676131
 20
410.5715894510028
 30
0.0
 11
784.1387655676129
 21
410.5715894510028
 31
0.0
  0
LINE
  5
3FCF
330
1F
100
AcDbEntity
  8
0
100
AcDbLine
 10
786.6387655676129
 20
410.5715894510028
 30
0.0
 11
838.9387655676129
 21
410.5715894510028
 31
0.0
  0
LINE
  5
3FD0
330
1F
100
AcDbEntity
  8
0
100
AcDbLine
 10
847.7887655676132
 20
410.5715894510028
 30
0.0
 11
774.7887655676132
 21
410.5715894510028
 31
0.0
  0
LINE
  5
3FD3
330
1F
100
AcDbEntity
  8
0
100
AcDbLine
 10
831.288765567613
 20
410.5715894510028
 30
0.0
 11
832.2887655676129
 21
410.5715894510028
 31
0.0
  0
LINE
  5
3FD4
330
1F
100
AcDbEntity
  8
0
 62
     7
100
AcDbLine
 10
789.288765567613
 20
445.5715894510026
 30
0.0
 11
831.288765567613
 21
445.5715894510026
 31
0.0
  0
LINE
  5
3FD5
330
1F
100
AcDbEntity
  8
0
100
AcDbLine
 10
785.2887905676128
 20
420.5715894510026
 30
0.0
 11
835.2887405676128
 21
420.5715894510028
 31
0.0
  0
LINE
  5
3FD6
330
1F
100
AcDbEntity
  8
0
100
AcDbLine
 10
847.7887655676132
 20
420.5715894510028
 30
0.0
 11
774.7887655676132
 21
420.5715894510028
 31
0.0
  0
LINE
  5
3FD7
330
1F
100
AcDbEntity
  8
0
 62
     7
100
AcDbLine
 10
804.2887655676132
 20
497.0715894510026
 30
0.0
 11
818.2887655676132
 21
497.0715894510026
 31
0.0
  0
LINE
  5
3FD8
330
1F
100
AcDbEntity
  8
0
 62
     7
100
AcDbLine
 10
831.288765567613
 20
445.5715894510026
 30
0.0
 11
831.288765567613
 21
422.0001594510028
 31
0.0
  0
LINE
  5
3FD9
330
1F
100
AcDbEntity
  8
0
 62
     0
100
AcDbLine
 10
829.6083655917248
 20
422.7144444510076
 30
0.0
 11
829.6083655917248
 21
429.8572944510079
 31
0.0
  0
LINE
  5
3FDA
330
1F
100
AcDbEntity
  8
0
 62
     0
100
AcDbLine
 10
827.8226530917248
 20
422.7144444510076
 30
0.0
 11
827.8226530917248
 21
429.8572944510079
 31
0.0
  0
LINE
  5
3FDB
330
1F
100
AcDbEntity
  8
0
 62
     0
100
AcDbLine
 10
832.9691655435008
 20
422.7144444510076
 30
0.0
 11
832.9691655435008
 21
429.8572944510079
 31
0.0
  0
LINE
  5
3FDC
330
1F
100
AcDbEntity
  8
0
 62
     0
100
AcDbLine
 10
834.7548780435007
 20
422.7144444510076
 30
0.0
 11
834.7548780435007
 21
429.8572944510079
 31
0.0
  0
LINE
  5
3FDD
330
1F
100
AcDbEntity
  8
0
100
AcDbLine
 10
835.2887405676128
 20
429.8572944510026
 30
0.0
 11
835.2887405676128
 21
420.5715894510028
 31
0.0
  0
LINE
  5
3FDE
330
1F
100
AcDbEntity
  8
0
100
AcDbLine
 10
827.2887905676128
 20
429.8572944510026
 30
0.0
 11
827.2887905676128
 21
420.5715894510028
 31
0.0
  0
LINE
  5
3FDF
330
1F
100
AcDbEntity
  8
0
100
AcDbLine
 10
835.2887405676128
 20
422.0001594510028
 30
0.0
 11
827.2887905676128
 21
422.0001594510028
 31
0.0
  0
LINE
  5
3FE0
330
1F
100
AcDbEntity
  8
0
100
AcDbLine
 10
835.2887405676128
 20
422.7144444510029
 30
0.0
 11
827.2887905676128
 21
422.7144444510029
 31
0.0
  0
LINE
  5
3FE1
330
1F
100
AcDbEntity
  8
0
100
AcDbLine
 10
831.288765567613
 20
422.0001594510028
 30
0.0
 11
830.2073494143101
 21
420.5715894510028
 31
0.0
  0
LINE
  5
3FE2
330
1F
100
AcDbEntity
  8
0
100
AcDbLine
 10
827.2887905676128
 20
429.8572944510026
 30
0.0
 11
835.2887405676147
 21
429.8572944510026
 31
0.0
  0
LINE
  5
3FE3
330
1F
100
AcDbEntity
  8
0
100
AcDbLine
 10
834.5744555676127
 20
430.5715794510028
 30
0.0
 11
828.0030755676129
 21
430.5715794510026
 31
0.0
  0
ARC
  5
3FE4
330
1F
100
AcDbEntity
  8
0
100
AcDbCircle
 10
834.5744555676127
 20
429.8572944510025
 30
0.0
 40
0.7142850000000001
100
AcDbArc
 50
0.0
 51
90.0
  0
ARC
  5
3FE5
330
1F
100
AcDbEntity
  8
0
100
AcDbCircle
 10
828.0030755676129
 20
429.8572944510025
 30
0.0
 40
0.7142850000000001
100
AcDbArc
 50
90.0
 51
180.0
  0
LINE
  5
3FE6
330
1F
100
AcDbEntity
  8
0
100
AcDbLine
 10
797.034490567613
 20
447.0715894510026
 30
0.0
 11
797.034490567613
 21
445.5715894510026
 31
0.0
  0
LINE
  5
3FE7
330
1F
100
AcDbEntity
  8
0
100
AcDbLine
 10
802.5361405676132
 20
447.0715894510026
 30
0.0
 11
802.5361405676132
 21
445.5715894510026
 31
0.0
  0
LINE
  5
3FE8
330
1F
100
AcDbEntity
  8
0
100
AcDbLine
 10
797.034490567613
 20
446.3715894510028
 30
0.0
 11
802.5361405676132
 21
446.3715894510028
 31
0.0
  0
LINE
  5
3FE9
330
1F
100
AcDbEntity
  8
0
100
AcDbLine
 10
798.034490567613
 20
448.0715894510026
 30
0.0
 11
801.5361405676131
 21
448.0715894510026
 31
0.0
  0
ARC
  5
3FEA
330
1F
100
AcDbEntity
  8
0
100
AcDbCircle
 10
801.5361405676127
 20
447.0715894510025
 30
0.0
 40
1.0
100
AcDbArc
 50
0.0
 51
90.0
  0
ARC
  5
3FEB
330
1F
100
AcDbEntity
  8
0
100
AcDbCircle
 10
798.034490567613
 20
447.0715894510025
 30
0.0
 40
1.0
100
AcDbArc
 50
90.0
 51
180.0
  0
LINE
  5
3FEC
330
1F
100
AcDbEntity
  8
0
 62
     7
100
AcDbLine
 10
789.288765567613
 20
445.5715894510026
 30
0.0
 11
789.288765567613
 21
422.0001594510026
 31
0.0
  0
LINE
  5
3FED
330
1F
100
AcDbEntity
  8
0
 62
     0
100
AcDbLine
 10
787.6083655917254
 20
422.7144444510081
 30
0.0
 11
787.6083655917254
 21
429.8572944510083
 31
0.0
  0
LINE
  5
3FEE
330
1F
100
AcDbEntity
  8
0
 62
     0
100
AcDbLine
 10
785.8226530917253
 20
422.7144444510081
 30
0.0
 11
785.8226530917253
 21
429.8572944510083
 31
0.0
  0
LINE
  5
3FEF
330
1F
100
AcDbEntity
  8
0
 62
     0
100
AcDbLine
 10
790.9691655435002
 20
422.7144444510081
 30
0.0
 11
790.9691655435002
 21
429.8572944510083
 31
0.0
  0
LINE
  5
3FF0
330
1F
100
AcDbEntity
  8
0
 62
     0
100
AcDbLine
 10
792.7548780435003
 20
422.7144444510081
 30
0.0
 11
792.7548780435003
 21
429.8572944510083
 31
0.0
  0
LINE
  5
3FF1
330
1F
100
AcDbEntity
  8
0
100
AcDbLine
 10
793.288740567613
 20
429.8572944510026
 30
0.0
 11
793.288740567613
 21
420.5715894510026
 31
0.0
  0
LINE
  5
3FF2
330
1F
100
AcDbEntity
  8
0
100
AcDbLine
 10
785.2887905676128
 20
429.8572944510026
 30
0.0
 11
785.2887905676128
 21
420.5715894510026
 31
0.0
  0
LINE
  5
3FF3
330
1F
100
AcDbEntity
  8
0
100
AcDbLine
 10
793.288740567613
 20
422.0001594510026
 30
0.0
 11
785.2887905676128
 21
422.0001594510026
 31
0.0
  0
LINE
  5
3FF4
330
1F
100
AcDbEntity
  8
0
100
AcDbLine
 10
793.288740567613
 20
422.7144444510027
 30
0.0
 11
785.2887905676128
 21
422.7144444510027
 31
0.0
  0
LINE
  5
3FF5
330
1F
100
AcDbEntity
  8
0
100
AcDbLine
 10
789.288765567613
 20
422.0001594510026
 30
0.0
 11
788.0890984436017
 21
420.5715894510028
 31
0.0
  0
LINE
  5
3FF6
330
1F
100
AcDbEntity
  8
0
100
AcDbLine
 10
786.0030755676128
 20
430.5715794510026
 30
0.0
 11
792.5744555676129
 21
430.5715794510026
 31
0.0
  0
LINE
  5
3FF7
330
1F
100
AcDbEntity
  8
0
100
AcDbLine
 10
785.2887905676128
 20
429.8572944510026
 30
0.0
 11
793.288740567613
 21
429.8572944510026
 31
0.0
  0
ARC
  5
3FF8
330
1F
100
AcDbEntity
  8
0
100
AcDbCircle
 10
792.5744555676127
 20
429.8572944510025
 30
0.0
 40
0.7142850000000001
100
AcDbArc
 50
0.0
 51
90.0
  0
ARC
  5
3FF9
330
1F
100
AcDbEntity
  8
0
100
AcDbCircle
 10
786.0030755676128
 20
429.8572944510025
 30
0.0
 40
0.7142850000000001
100
AcDbArc
 50
90.0
 51
180.0
  0
LINE
  5
3FFA
102
{ACAD_REACTORS
330
407B
102
}
330
1F
100
AcDbEntity
  8
CENTER
  6
CENTER
100
AcDbLine
 10
833.2331232617983
 20
491.0715894510026
 30
0.0
 11
788.3290675700536
 21
491.0715894510026
 31
0.0
  0
LINE
  5
3FFB
330
1F
100
AcDbEntity
  8
假想
100
AcDbLine
 10
815.2887655676133
 20
313.5715894510028
 30
0.0
 11
807.2887655676133
 21
313.5715894510028
 31
0.0
  0
LINE
  5
3FFC
330
1F
100
AcDbEntity
  8
假想
100
AcDbLine
 10
806.2887655676131
 20
319.5715894510029
 30
0.0
 11
806.2887655676131
 21
314.5715894510029
 31
0.0
  0
LINE
  5
3FFD
330
1F
100
AcDbEntity
  8
假想
100
AcDbLine
 10
816.2887655676133
 20
319.5715894510029
 30
0.0
 11
816.2887655676133
 21
314.5715894510029
 31
0.0
  0
LINE
  5
3FFE
330
1F
100
AcDbEntity
  8
假想
100
AcDbLine
 10
806.2887655676131
 20
314.5715894510029
 30
0.0
 11
807.2887655676133
 21
313.5715894510028
 31
0.0
  0
LINE
  5
3FFF
330
1F
100
AcDbEntity
  8
假想
100
AcDbLine
 10
815.2887655676133
 20
313.5715894510028
 30
0.0
 11
816.2887655676133
 21
314.5715894510029
 31
0.0
  0
LINE
  5
4000
330
1F
100
AcDbEntity
  8
0
100
AcDbLine
 10
803.7887655676129
 20
478.5715894510025
 30
0.0
 11
803.7887655676133
 21
503.5715894510025
 31
0.0
  0
LINE
  5
4001
330
1F
100
AcDbEntity
  8
0
100
AcDbLine
 10
803.7887655676133
 20
503.5715894510025
 30
0.0
 11
795.7887655676132
 21
503.5715894510025
 31
0.0
  0
LINE
  5
4002
330
1F
100
AcDbEntity
  8
0
100
AcDbLine
 10
803.7887655676133
 20
478.5715894510025
 30
0.0
 11
795.7887655676132
 21
478.5715894510025
 31
0.0
  0
LINE
  5
4003
330
1F
100
AcDbEntity
  8
0
100
AcDbLine
 10
795.7887655676132
 20
503.5715894510025
 30
0.0
 11
795.7887655676132
 21
478.5715894510025
 31
0.0
  0
LINE
  5
4004
330
1F
100
AcDbEntity
  8
0
100
AcDbLine
 10
826.7887655676132
 20
478.5715894510025
 30
0.0
 11
826.7887655676132
 21
503.5715894510025
 31
0.0
  0
LINE
  5
4005
330
1F
100
AcDbEntity
  8
0
100
AcDbLine
 10
826.7887655676132
 20
503.5715894510025
 30
0.0
 11
818.7887655676131
 21
503.5715894510025
 31
0.0
  0
LINE
  5
4006
330
1F
100
AcDbEntity
  8
0
100
AcDbLine
 10
826.7887655676132
 20
478.5715894510025
 30
0.0
 11
818.7887655676131
 21
478.5715894510025
 31
0.0
  0
LINE
  5
4007
330
1F
100
AcDbEntity
  8
0
100
AcDbLine
 10
818.7887655676131
 20
503.5715894510025
 30
0.0
 11
818.7887655676131
 21
478.5715894510025
 31
0.0
  0
LINE
  5
4009
330
1F
100
AcDbEntity
  8
0
100
AcDbLine
 10
804.2887655676132
 20
445.5715894510026
 30
0.0
 11
804.2887655676132
 21
440.5715894510026
 31
0.0
  0
LINE
  5
400A
330
1F
100
AcDbEntity
  8
0
100
AcDbLine
 10
796.1887655676133
 20
440.5715894510026
 30
0.0
 11
804.2887655676132
 21
440.5715894510026
 31
0.0
  0
LINE
  5
400B
330
1F
100
AcDbEntity
  8
0
100
AcDbLine
 10
804.2887655676132
 20
497.0715894510026
 30
0.0
 11
804.2887655676132
 21
445.5715894510026
 31
0.0
  0
LINE
  5
400C
330
1F
100
AcDbEntity
  8
0
100
AcDbLine
 10
796.1887655676133
 20
440.5715894510026
 30
0.0
 11
796.1887655676133
 21
445.5715894510026
 31
0.0
  0
LINE
  5
400D
330
1F
100
AcDbEntity
  8
CENTER
  6
CENTER
100
AcDbLine
 10
811.2887655676132
 20
512.5472979319649
 30
0.0
 11
811.2887655676132
 21
297.4276201264909
 31
0.0
  0
LINE
  5
401C
330
1F
100
AcDbEntity
  8
0
100
AcDbLine
 10
777.6387655676131
 20
322.5681772136504
 30
0.0
 11
779.1387655676132
 21
322.5681772136504
 31
0.0
  0
LINE
  5
401D
330
1F
100
AcDbEntity
  8
0
100
AcDbLine
 10
777.6387655676131
 20
328.0698272136504
 30
0.0
 11
779.1387655676132
 21
328.0698272136504
 31
0.0
  0
LINE
  5
401E
330
1F
100
AcDbEntity
  8
0
100
AcDbLine
 10
778.338765567613
 20
322.5681772136504
 30
0.0
 11
778.338765567613
 21
328.0698272136504
 31
0.0
  0
LINE
  5
401F
330
1F
100
AcDbEntity
  8
0
100
AcDbLine
 10
779.1387655676132
 20
329.0685624136172
 30
0.0
 11
779.1387655676132
 21
321.5694420136833
 31
0.0
  0
LINE
  5
4020
330
1F
100
AcDbEntity
  8
0
100
AcDbLine
 10
779.1387655676132
 20
329.0685624136172
 30
0.0
 11
780.1387655676132
 21
329.0685624136172
 31
0.0
  0
LINE
  5
4021
330
1F
100
AcDbEntity
  8
0
100
AcDbLine
 10
779.1387655676132
 20
321.5694420136833
 30
0.0
 11
780.1387655676132
 21
321.5694420136833
 31
0.0
  0
LINE
  5
4022
330
1F
100
AcDbEntity
  8
0
100
AcDbLine
 10
776.6387655676131
 20
323.5681772136504
 30
0.0
 11
776.6387655676131
 21
327.0698272136503
 31
0.0
  0
ARC
  5
4023
330
1F
100
AcDbEntity
  8
0
100
AcDbCircle
 10
777.6387655676131
 20
327.0698272136501
 30
0.0
 40
1.0
100
AcDbArc
 50
90.0
 51
180.0
  0
ARC
  5
4024
330
1F
100
AcDbEntity
  8
0
100
AcDbCircle
 10
777.6387655676131
 20
323.5681772136504
 30
0.0
 40
1.0
100
AcDbArc
 50
180.0
 51
270.0
  0
LINE
  5
4025
330
1F
100
AcDbEntity
  8
0
100
AcDbLine
 10
780.1387655676132
 20
321.5694420136833
 30
0.0
 11
780.1387655676132
 21
329.0685624136172
 31
0.0
  0
ARC
  5
4026
330
1F
100
AcDbEntity
  8
0
100
AcDbCircle
 10
777.5977838031032
 20
319.2214357528197
 30
0.0
 40
5.0015
100
AcDbArc
 50
101.0547035214061
 51
171.9623750351768
  0
ARC
  5
4027
330
1F
100
AcDbEntity
  8
0
100
AcDbCircle
 10
777.5977838031032
 20
319.2214357528197
 30
0.0
 40
6.001799999999999
100
AcDbArc
 50
99.19461651108022
 51
169.6030895771067
  0
ARC
  5
4028
330
1F
100
AcDbEntity
  8
0
100
AcDbCircle
 10
777.5977838031032
 20
319.2214357528197
 30
0.0
 40
6.001799999999999
100
AcDbArc
 50
176.1251475363283
 51
3.344617891483881
  0
ARC
  5
4029
330
1F
100
AcDbEntity
  8
0
100
AcDbCircle
 10
777.5977838031032
 20
319.2214357528197
 30
0.0
 40
5.0015
100
AcDbArc
 50
172.556601517519
 51
4.014546462791683
  0
ARC
  5
402A
330
1F
100
AcDbEntity
  8
假想
100
AcDbCircle
 10
763.3786260652192
 20
308.8067978339643
 30
0.0
 40
7.588716478928212
100
AcDbArc
 50
68.64945396862845
 51
289.1455426750267
  0
ARC
  5
402B
330
1F
100
AcDbEntity
  8
假想
100
AcDbCircle
 10
763.3786260652192
 20
308.8067978339643
 30
0.0
 40
8.58901647892822
100
AcDbArc
 50
68.64945396862845
 51
289.1455426750267
  0
ARC
  5
402C
330
1F
100
AcDbEntity
  8
假想
100
AcDbCircle
 10
821.3841754510101
 20
321.242596394873
 30
0.0
 40
53.74546301116191
100
AcDbArc
 50
191.7185107807828
 51
220.3197512205578
  0
ARC
  5
402D
330
1F
100
AcDbEntity
  8
假想
100
AcDbCircle
 10
759.7877531931484
 20
309.5445915484204
 30
0.0
 40
9.892592998693839
100
AcDbArc
 50
8.115021692694313
 51
47.22789160070436
  0
ARC
  5
402E
330
1F
100
AcDbEntity
  8
假想
100
AcDbCircle
 10
759.6821566504119
 20
309.4358894213381
 30
0.0
 40
9.120367220846699
100
AcDbArc
 50
5.605148245955136
 51
44.90892660730438
  0
ARC
  5
402F
330
1F
100
AcDbEntity
  8
假想
100
AcDbCircle
 10
822.2204614483583
 20
321.6642767464211
 30
0.0
 40
53.72029765997578
100
AcDbArc
 50
191.5142957018472
 51
219.9760552552392
  0
ARC
  5
4030
330
1F
100
AcDbEntity
  8
假想
100
AcDbCircle
 10
718.7511079005377
 20
326.5886040652973
 30
0.0
 40
53.31505208607334
100
AcDbArc
 50
332.0962581195549
 51
353.2310245511191
  0
ARC
  5
4031
330
1F
100
AcDbEntity
  8
假想
100
AcDbCircle
 10
719.1685327123265
 20
327.1634528595168
 30
0.0
 40
53.96511499794471
100
AcDbArc
 50
330.6256828800861
 51
352.2870246815748
  0
LINE
  5
4032
330
1F
100
AcDbEntity
  8
0
100
AcDbLine
 10
821.2887655676132
 20
445.5715894510026
 30
0.0
 11
821.2887655676132
 21
474.6715894510026
 31
0.0
  0
LINE
  5
4033
330
1F
100
AcDbEntity
  8
0
100
AcDbLine
 10
821.2887655676132
 20
474.6715894510026
 30
0.0
 11
818.2887655676132
 21
474.6715894510026
 31
0.0
  0
LINE
  5
4034
330
1F
100
AcDbEntity
  8
0
100
AcDbLine
 10
818.2887655676132
 20
497.0715894510026
 30
0.0
 11
818.2887655676132
 21
474.6715894510026
 31
0.0
  0
LINE
  5
4035
330
1F
100
AcDbEntity
  8
0
100
AcDbLine
 10
803.7887655676133
 20
494.0724864501024
 30
0.0
 11
804.2887655676132
 21
494.0724864501023
 31
0.0
  0
LINE
  5
4036
330
1F
100
AcDbEntity
  8
0
100
AcDbLine
 10
818.2887655676132
 20
494.0724864501024
 30
0.0
 11
818.7887655676131
 21
494.0724864501024
 31
0.0
  0
LINE
  5
4037
330
1F
100
AcDbEntity
  8
0
100
AcDbLine
 10
803.7887655676133
 20
488.0706924519028
 30
0.0
 11
804.2887655676132
 21
488.0706924519028
 31
0.0
  0
LINE
  5
4038
330
1F
100
AcDbEntity
  8
0
100
AcDbLine
 10
818.2887655676132
 20
488.0706924519028
 30
0.0
 11
818.7887655676135
 21
488.0706924519028
 31
0.0
  0
LINE
  5
4039
330
1F
100
AcDbEntity
  8
0
100
AcDbLine
 10
784.5882972867699
 20
306.710685160494
 30
0.0
 11
784.5882972867699
 21
284.903605160494
 31
0.0
  0
LINE
  5
403A
330
1F
100
AcDbEntity
  8
0
100
AcDbLine
 10
786.3882972867699
 20
306.710685160494
 30
0.0
 11
786.3882972867699
 21
284.903605160494
 31
0.0
  0
ARC
  5
403B
330
1F
100
AcDbEntity
  8
0
100
AcDbCircle
 10
785.5875372153684
 20
289.3220881972147
 30
0.0
 40
5.001499999999943
100
AcDbArc
 50
101.5245650104305
 51
80.78706817929989
  0
ARC
  5
403C
330
1F
100
AcDbEntity
  8
0
100
AcDbCircle
 10
785.5875372153684
 20
289.3220881972147
 30
0.0
 40
6.001799999999975
100
AcDbArc
 50
99.58380493008236
 51
82.33273475409186
  0
ARC
  5
403D
330
1F
100
AcDbEntity
  8
0
100
AcDbCircle
 10
785.48829728677
 20
306.710685160494
 30
0.0
 40
0.9000000000000028
100
AcDbArc
 50
0.0
 51
180.0
  0
ARC
  5
403E
330
1F
100
AcDbEntity
  8
0
100
AcDbCircle
 10
785.4882972867699
 20
284.903605160494
 30
0.0
 40
0.9000000000000028
100
AcDbArc
 50
322.7474508118115
 51
0.0
  0
ARC
  5
403F
330
1F
100
AcDbEntity
  8
0
100
AcDbCircle
 10
785.4882972867699
 20
284.903605160494
 30
0.0
 40
0.9000000000000028
100
AcDbArc
 50
180.0
 51
214.6792346883123
  0
LINE
  5
4040
330
1F
100
AcDbEntity
  8
0
  6
CENTER
 62
     7
100
AcDbLine
 10
794.7887655676132
 20
488.0715894510026
 30
0.0
 11
792.7887655676133
 21
488.0715894510026
 31
0.0
  0
LINE
  5
4041
330
1F
100
AcDbEntity
  8
0
  6
CENTER
 62
     7
100
AcDbLine
 10
794.7887655676132
 20
494.0715894510026
 30
0.0
 11
792.7887655676133
 21
494.0715894510026
 31
0.0
  0
LINE
  5
4042
102
{ACAD_REACTORS
330
4048
102
}
330
1F
100
AcDbEntity
  8
0
  6
Continuous
 62
     7
100
AcDbLine
 10
792.7887655676133
 20
494.0715894510026
 30
0.0
 11
792.7887655676133
 21
488.0715894510026
 31
0.0
  0
LINE
  5
4043
330
1F
100
AcDbEntity
  8
0
  6
Continuous
 62
     7
100
AcDbLine
 10
794.7887655676132
 20
494.746589424205
 30
0.0
 11
794.7887655676132
 21
487.3965894778002
 31
0.0
  0
LINE
  5
4044
330
1F
100
AcDbEntity
  8
0
  6
CENTER
 62
     7
100
AcDbLine
 10
795.7887655676132
 20
487.3965894778002
 30
0.0
 11
794.7887655676132
 21
487.3965894778002
 31
0.0
  0
LINE
  5
4045
330
1F
100
AcDbEntity
  8
0
  6
CENTER
 62
     7
100
AcDbLine
 10
795.7887655676132
 20
494.746589424205
 30
0.0
 11
794.7887655676132
 21
494.746589424205
 31
0.0
  0
DIMENSION
  5
4046
102
{ACAD_XDICTIONARY
360
4047
102
}
102
{ACAD_REACTORS
330
4048
102
}
330
1F
100
AcDbEntity
  8
AM_5
100
AcDbDimension
  2
*D19
 10
829.7887655676133
 20
537.0715894510026
 30
0.0
 11
811.2887655676132
 21
542.7715894510027
 31
0.0
 70
    32
  1
37
 71
     5
 42
37.0
  3
AM_ISO$0
100
AcDbAlignedDimension
 13
792.7887655676133
 23
494.0715894510026
 33
0.0
 14
829.7887655676133
 24
493.5965893507601
 34
0.0
100
AcDbRotatedDimension
1001
ACAD
1000
DSTYLE
1002
{
1070
    40
1040
2.0
1002
}
  0
DIMENSION
  5
4049
330
1F
100
AcDbEntity
  8
AM_5
100
AcDbDimension
  2
*D5
 10
803.7887655676133
 20
521.0715894510026
 30
0.0
 11
799.7387657383232
 21
526.7715894510026
 31
0.0
 70
    32
  1
8
 71
     5
 42
8.099999658580145
  3
AM_ISO$0
100
AcDbAlignedDimension
 13
795.6887659090331
 23
503.5715889547528
 33
0.0
 14
803.7887655676133
 24
503.5715894510025
 34
0.0
100
AcDbRotatedDimension
1001
ACAD
1000
DSTYLE
1002
{
1070
    40
1040
2.0
1070
   173
1070
     1
1070
   174
1070
     1
1070
   272
1070
     8
1070
   344
1005
32ED
1002
}
  0
DIMENSION
  5
404A
330
1F
100
AcDbEntity
  8
AM_5
100
AcDbDimension
  2
*D6
 10
803.7887655676133
 20
521.0715894510026
 30
0.0
 11
811.2887655676132
 21
526.7715894510026
 31
0.0
 70
    32
  1
14
 71
     5
 42
15.0
  3
AM_ISO$0
100
AcDbAlignedDimension
 13
818.7887655676131
 23
503.5715894510025
 33
0.0
 14
803.7887655676133
 24
503.5715894510025
 34
0.0
100
AcDbRotatedDimension
1001
ACAD
1000
DSTYLE
1002
{
1070
    40
1040
2.0
1070
   174
1070
     1
1070
   272
1070
     8
1070
   342
1005
3A1C
1002
}
  0
DIMENSION
  5
404B
330
1F
100
AcDbEntity
  8
AM_5
100
AcDbDimension
  2
*D7
 10
818.7887655676131
 20
521.0715894510026
 30
0.0
 11
822.8387653969033
 21
526.7715894510026
 31
0.0
 70
    32
  1
8
 71
     5
 42
8.099999658580145
  3
AM_ISO$0
100
AcDbAlignedDimension
 13
826.8887652261934
 23
503.5715889547527
 33
0.0
 14
818.7887655676131
 24
503.5715894510025
 34
0.0
100
AcDbRotatedDimension
1001
ACAD
1000
DSTYLE
1002
{
1070
    40
1040
2.0
1070
   173
1070
     1
1070
   174
1070
     1
1070
   272
1070
     8
1070
   344
1005
32ED
1002
}
  0
LINE
  5
404C
330
1F
100
AcDbEntity
  8
0
  6
CENTER
 62
     7
100
AcDbLine
 10
827.7887655676133
 20
488.0715894510026
 30
0.0
 11
829.7887655676133
 21
488.0715894510026
 31
0.0
  0
LINE
  5
404D
330
1F
100
AcDbEntity
  8
0
  6
CENTER
 62
     7
100
AcDbLine
 10
827.7887655676133
 20
494.0715894510026
 30
0.0
 11
829.7887655676133
 21
494.0715894510026
 31
0.0
  0
LINE
  5
404E
330
1F
100
AcDbEntity
  8
0
  6
Continuous
 62
     7
100
AcDbLine
 10
829.7887655676133
 20
494.0715894510026
 30
0.0
 11
829.7887655676133
 21
488.0715894510026
 31
0.0
  0
LINE
  5
404F
330
1F
100
AcDbEntity
  8
0
  6
Continuous
 62
     7
100
AcDbLine
 10
827.7887655676133
 20
494.746589424205
 30
0.0
 11
827.7887655676133
 21
487.3965894778002
 31
0.0
  0
LINE
  5
4050
330
1F
100
AcDbEntity
  8
0
  6
CENTER
 62
     7
100
AcDbLine
 10
826.7887655676132
 20
487.3965894778002
 30
0.0
 11
827.7887655676133
 21
487.3965894778002
 31
0.0
  0
LINE
  5
4051
330
1F
100
AcDbEntity
  8
0
  6
CENTER
 62
     7
100
AcDbLine
 10
826.7887655676132
 20
494.746589424205
 30
0.0
 11
827.7887655676133
 21
494.746589424205
 31
0.0
  0
LINE
  5
4052
330
1F
100
AcDbEntity
  8
0
  6
CENTER
 62
     7
100
AcDbLine
 10
639.220058095969
 20
592.8406626328429
 30
0.0
 11
639.220058095969
 21
595.3406626328427
 31
0.0
  0
LINE
  5
4053
330
1F
100
AcDbEntity
  8
0
  6
CENTER
 62
     7
100
AcDbLine
 10
633.2200580959689
 20
592.8406626328429
 30
0.0
 11
633.2200580959689
 21
595.3406626328427
 31
0.0
  0
LINE
  5
4054
330
1F
100
AcDbEntity
  8
0
  6
Continuous
 62
     7
100
AcDbLine
 10
633.2200580959689
 20
595.3406626328427
 30
0.0
 11
639.220058095969
 21
595.3406626328427
 31
0.0
  0
LINE
  5
4055
330
1F
100
AcDbEntity
  8
0
  6
Continuous
 62
     7
100
AcDbLine
 10
632.5450581227666
 20
592.8406626328429
 30
0.0
 11
639.8950580691716
 21
592.8406626328429
 31
0.0
  0
LINE
  5
4056
330
1F
100
AcDbEntity
  8
0
  6
CENTER
 62
     7
100
AcDbLine
 10
639.8950580691716
 20
591.840662632843
 30
0.0
 11
639.8950580691716
 21
592.8406626328429
 31
0.0
  0
LINE
  5
4057
330
1F
100
AcDbEntity
  8
0
  6
CENTER
 62
     7
100
AcDbLine
 10
632.5450581227666
 20
591.8406626328428
 30
0.0
 11
632.5450581227666
 21
592.8406626328429
 31
0.0
  0
LINE
  5
4058
330
1F
100
AcDbEntity
  8
0
  6
CENTER
 62
     7
100
AcDbLine
 10
639.220058095969
 20
560.8406626328427
 30
0.0
 11
639.220058095969
 21
558.340662632843
 31
0.0
  0
LINE
  5
4059
330
1F
100
AcDbEntity
  8
0
  6
CENTER
 62
     7
100
AcDbLine
 10
633.2200580959689
 20
560.8406626328427
 30
0.0
 11
633.2200580959689
 21
558.340662632843
 31
0.0
  0
LINE
  5
405A
330
1F
100
AcDbEntity
  8
0
  6
Continuous
 62
     7
100
AcDbLine
 10
633.2200580959689
 20
558.340662632843
 30
0.0
 11
639.220058095969
 21
558.340662632843
 31
0.0
  0
LINE
  5
405B
330
1F
100
AcDbEntity
  8
0
  6
Continuous
 62
     7
100
AcDbLine
 10
632.5450581227666
 20
560.8406626328427
 30
0.0
 11
639.8950580691716
 21
560.8406626328427
 31
0.0
  0
LINE
  5
405C
330
1F
100
AcDbEntity
  8
0
  6
CENTER
 62
     7
100
AcDbLine
 10
639.8950580691716
 20
561.8406626328426
 30
0.0
 11
639.8950580691716
 21
560.8406626328427
 31
0.0
  0
LINE
  5
405D
330
1F
100
AcDbEntity
  8
0
  6
CENTER
 62
     7
100
AcDbLine
 10
632.5450581227666
 20
561.8406626328428
 30
0.0
 11
632.5450581227666
 21
560.8406626328427
 31
0.0
  0
LINE
  5
405E
330
1F
100
AcDbEntity
  8
假想
100
AcDbLine
 10
804.2887655676132
 20
467.0715894510026
 30
0.0
 11
818.2887655676132
 21
467.0715894510026
 31
0.0
  0
LINE
  5
405F
102
{ACAD_REACTORS
330
407B
102
}
330
1F
100
AcDbEntity
  8
CENTER
  6
CENTER
100
AcDbLine
 10
833.2331232617983
 20
461.0715894510026
 30
0.0
 11
788.3290675700536
 21
461.0715894510026
 31
0.0
  0
LINE
  5
4060
330
1F
100
AcDbEntity
  8
假想
100
AcDbLine
 10
803.7887655676129
 20
448.5715894510025
 30
0.0
 11
803.7887655676133
 21
473.5715894510025
 31
0.0
  0
LINE
  5
4061
330
1F
100
AcDbEntity
  8
假想
100
AcDbLine
 10
803.7887655676133
 20
473.5715894510025
 30
0.0
 11
795.7887655676132
 21
473.5715894510025
 31
0.0
  0
LINE
  5
4062
330
1F
100
AcDbEntity
  8
假想
100
AcDbLine
 10
803.7887655676133
 20
448.5715894510025
 30
0.0
 11
795.7887655676132
 21
448.5715894510025
 31
0.0
  0
LINE
  5
4063
330
1F
100
AcDbEntity
  8
假想
100
AcDbLine
 10
795.7887655676132
 20
473.5715894510025
 30
0.0
 11
795.7887655676132
 21
448.5715894510025
 31
0.0
  0
LINE
  5
4064
330
1F
100
AcDbEntity
  8
假想
100
AcDbLine
 10
826.7887655676132
 20
448.5715894510025
 30
0.0
 11
826.7887655676132
 21
473.5715894510025
 31
0.0
  0
LINE
  5
4065
330
1F
100
AcDbEntity
  8
假想
100
AcDbLine
 10
826.7887655676132
 20
473.5715894510025
 30
0.0
 11
818.7887655676131
 21
473.5715894510025
 31
0.0
  0
LINE
  5
4066
330
1F
100
AcDbEntity
  8
假想
100
AcDbLine
 10
826.7887655676132
 20
448.5715894510025
 30
0.0
 11
818.7887655676131
 21
448.5715894510025
 31
0.0
  0
LINE
  5
4067
330
1F
100
AcDbEntity
  8
假想
100
AcDbLine
 10
818.7887655676131
 20
473.5715894510025
 30
0.0
 11
818.7887655676131
 21
448.5715894510025
 31
0.0
  0
LINE
  5
4068
330
1F
100
AcDbEntity
  8
假想
100
AcDbLine
 10
818.2887655676132
 20
467.0715894510026
 30
0.0
 11
818.2887655676132
 21
445.5715894510026
 31
0.0
  0
LINE
  5
4069
330
1F
100
AcDbEntity
  8
假想
100
AcDbLine
 10
803.7887655676133
 20
464.0724864501025
 30
0.0
 11
804.2887655676132
 21
464.0724864501023
 31
0.0
  0
LINE
  5
406A
330
1F
100
AcDbEntity
  8
假想
100
AcDbLine
 10
818.2887655676132
 20
464.0724864501025
 30
0.0
 11
818.7887655676131
 21
464.0724864501025
 31
0.0
  0
LINE
  5
406B
330
1F
100
AcDbEntity
  8
假想
100
AcDbLine
 10
803.7887655676133
 20
458.0706924519027
 30
0.0
 11
804.2887655676132
 21
458.0706924519027
 31
0.0
  0
LINE
  5
406C
330
1F
100
AcDbEntity
  8
假想
100
AcDbLine
 10
818.2887655676132
 20
458.0706924519027
 30
0.0
 11
818.7887655676135
 21
458.0706924519027
 31
0.0
  0
LINE
  5
406D
330
1F
100
AcDbEntity
  8
假想
100
AcDbLine
 10
794.7887655676132
 20
458.0715894510026
 30
0.0
 11
792.7887655676133
 21
458.0715894510026
 31
0.0
  0
LINE
  5
406E
330
1F
100
AcDbEntity
  8
假想
100
AcDbLine
 10
794.7887655676132
 20
464.0715894510026
 30
0.0
 11
792.7887655676133
 21
464.0715894510026
 31
0.0
  0
LINE
  5
406F
330
1F
100
AcDbEntity
  8
假想
100
AcDbLine
 10
792.7887655676133
 20
464.0715894510026
 30
0.0
 11
792.7887655676133
 21
458.0715894510026
 31
0.0
  0
LINE
  5
4070
330
1F
100
AcDbEntity
  8
假想
100
AcDbLine
 10
794.7887655676132
 20
464.746589424205
 30
0.0
 11
794.7887655676132
 21
457.3965894778001
 31
0.0
  0
LINE
  5
4071
330
1F
100
AcDbEntity
  8
假想
100
AcDbLine
 10
795.7887655676132
 20
457.3965894778001
 30
0.0
 11
794.7887655676132
 21
457.3965894778001
 31
0.0
  0
LINE
  5
4072
330
1F
100
AcDbEntity
  8
假想
100
AcDbLine
 10
795.7887655676132
 20
464.746589424205
 30
0.0
 11
794.7887655676132
 21
464.746589424205
 31
0.0
  0
LINE
  5
4073
330
1F
100
AcDbEntity
  8
假想
100
AcDbLine
 10
827.7887655676133
 20
458.0715894510026
 30
0.0
 11
829.7887655676133
 21
458.0715894510026
 31
0.0
  0
LINE
  5
4074
330
1F
100
AcDbEntity
  8
假想
100
AcDbLine
 10
827.7887655676133
 20
464.0715894510026
 30
0.0
 11
829.7887655676133
 21
464.0715894510026
 31
0.0
  0
LINE
  5
4075
330
1F
100
AcDbEntity
  8
假想
100
AcDbLine
 10
829.7887655676133
 20
464.0715894510026
 30
0.0
 11
829.7887655676133
 21
458.0715894510026
 31
0.0
  0
LINE
  5
4076
330
1F
100
AcDbEntity
  8
假想
100
AcDbLine
 10
827.7887655676133
 20
464.746589424205
 30
0.0
 11
827.7887655676133
 21
457.3965894778001
 31
0.0
  0
LINE
  5
4077
330
1F
100
AcDbEntity
  8
假想
100
AcDbLine
 10
826.7887655676132
 20
457.3965894778001
 30
0.0
 11
827.7887655676133
 21
457.3965894778001
 31
0.0
  0
LINE
  5
4078
330
1F
100
AcDbEntity
  8
假想
100
AcDbLine
 10
826.7887655676132
 20
464.746589424205
 30
0.0
 11
827.7887655676133
 21
464.746589424205
 31
0.0
  0
DIMENSION
  5
4079
102
{ACAD_XDICTIONARY
360
407A
102
}
102
{ACAD_REACTORS
330
407B
102
}
330
1F
100
AcDbEntity
  8
AM_5
100
AcDbDimension
  2
*D20
 10
776.3290675700533
 20
461.0715894510026
 30
0.0
 11
770.6290675700532
 21
476.0715894510027
 31
0.0
 70
    32
  1
ST=<>
 71
     5
 42
30.0
  3
AM_ISO$0
100
AcDbAlignedDimension
 13
788.3290675700536
 23
491.0715894510026
 33
0.0
 14
788.3290675700536
 24
461.0715894510026
 34
0.0
 50
90.0
100
AcDbRotatedDimension
1001
ACAD
1000
DSTYLE
1002
{
1070
    40
1040
2.0
1002
}
  0
DIMENSION
  5
407C
102
{ACAD_XDICTIONARY
360
407D
102
}
102
{ACAD_REACTORS
330
407E
102
}
330
1F
100
AcDbEntity
  8
AM_5
100
AcDbDimension
  2
*D21
 10
681.2200580959687
 20
158.2862531007358
 30
0.0
 11
636.2200580959687
 21
163.9862531007358
 31
0.0
 70
    32
 71
     5
 42
90.0
  3
AM_ISO$0
100
AcDbAlignedDimension
 13
591.2200580959687
 23
192.4263725154722
 33
0.0
 14
681.2200580959687
 24
192.4263725154722
 34
0.0
100
AcDbRotatedDimension
1001
ACAD
1000
DSTYLE
1002
{
1070
    40
1040
2.0
1002
}
  0
DIMENSION
  5
407F
330
1F
100
AcDbEntity
  8
AM_5
100
AcDbDimension
  2
*D8
 10
691.2200580959687
 20
140.9161648440496
 30
0.0
 11
636.2200580959687
 21
146.6161648440496
 31
0.0
 70
    32
 71
     5
 42
110.0
  3
AM_ISO$0
100
AcDbAlignedDimension
 13
581.2200580959687
 23
189.9263725154725
 33
0.0
 14
691.2200580959687
 24
189.9263725154723
 34
0.0
100
AcDbRotatedDimension
1001
ACAD
1000
DSTYLE
1002
{
1070
    40
1040
2.0
1002
}
  0
DIMENSION
  5
4080
330
1F
100
AcDbEntity
  8
AM_5
100
AcDbDimension
  2
*D9
 10
719.6722762298978
 20
189.4263725154722
 30
0.0
 11
713.9722762298978
 21
225.9263725154724
 31
0.0
 70
    32
  1
<>
 71
     5
 42
73.00000000000003
  3
AM_ISO$0
100
AcDbAlignedDimension
 13
690.7200580959687
 23
262.4263725154723
 33
0.0
 14
690.7200580959687
 24
189.4263725154722
 34
0.0
 50
90.0
100
AcDbRotatedDimension
1001
ACAD
1000
DSTYLE
1002
{
1070
    40
1040
2.0
1002
}
  0
DIMENSION
  5
4081
102
{ACAD_XDICTIONARY
360
4082
102
}
102
{ACAD_REACTORS
330
4083
102
}
330
1F
100
AcDbEntity
  8
AM_5
100
AcDbDimension
  2
*D22
 10
565.0523532598898
 20
256.9263725154723
 30
0.0
 11
559.3523532598896
 21
241.4263725154724
 31
0.0
 70
    32
 71
     5
 42
31.00000000000003
  3
AM_ISO$0
100
AcDbAlignedDimension
 13
577.0523532598899
 23
225.9263725154723
 33
0.0
 14
629.2200580959685
 24
256.9263725154723
 34
0.0
 50
90.0
100
AcDbRotatedDimension
1001
ACAD
1000
DSTYLE
1002
{
1070
    40
1040
2.0
1002
}
  0
DIMENSION
  5
4084
102
{ACAD_XDICTIONARY
360
4085
102
}
102
{ACAD_REACTORS
330
4086
102
}
330
1F
100
AcDbEntity
  8
AM_5
100
AcDbDimension
  2
*D23
 10
565.0523532598898
 20
199.9263725154725
 30
0.0
 11
559.3516642835119
 21
212.9263725154725
 31
0.0
 70
    32
 71
     5
 42
25.99999999999983
  3
AM_ISO$0
100
AcDbAlignedDimension
 13
577.0523532598899
 23
225.9263725154723
 33
0.0
 14
612.7200580959688
 24
199.9263725154724
 34
0.0
 50
90.0
100
AcDbRotatedDimension
1001
ACAD
1000
DSTYLE
1002
{
1070
    40
1040
2.0
1002
}
  0
DIMENSION
  5
4087
102
{ACAD_XDICTIONARY
360
4088
102
}
102
{ACAD_REACTORS
330
4089
102
}
330
1F
100
AcDbEntity
  8
AM_5
100
AcDbDimension
  2
*D24
 10
703.9479761899311
 20
197.9263725154723
 30
0.0
 11
698.2479761899311
 21
225.9263725154724
 31
0.0
 70
    32
 71
     5
 42
56.0
  3
AM_ISO$0
100
AcDbAlignedDimension
 13
686.7200580959687
 23
253.9263725154723
 33
0.0
 14
686.7200580959687
 24
197.9263725154723
 34
0.0
 50
90.0
100
AcDbRotatedDimension
1001
ACAD
1000
DSTYLE
1002
{
1070
    40
1040
2.0
1002
}
  0
DIMENSION
  5
408A
330
1F
100
AcDbEntity
  8
AM_5
100
AcDbDimension
  2
*D10
 10
846.8779439524142
 20
478.5715899472525
 30
0.0
 11
841.1772549760362
 21
491.0715894510027
 31
0.0
 70
    32
  1
%%c25
 71
     5
 42
24.99999900750026
  3
AM_ISO$0
100
AcDbAlignedDimension
 13
826.7887655676135
 23
503.5715889547527
 33
0.0
 14
826.7887655676135
 24
478.5715899472525
 34
0.0
 50
90.0
100
AcDbRotatedDimension
1001
ACAD
1000
DSTYLE
1002
{
1070
    40
1040
2.0
1002
}
  0
DIMENSION
  5
408B
330
1F
100
AcDbEntity
  8
AM_5
100
AcDbDimension
  2
*D11
 10
688.7504320756678
 20
445.5715894510026
 30
0.0
 11
683.0504320756676
 21
468.3215894510026
 31
0.0
 70
    32
 71
     5
 42
45.49999999999989
  3
AM_ISO$0
100
AcDbAlignedDimension
 13
650.7200580959687
 23
491.0715894510025
 33
0.0
 14
657.2200580959689
 24
445.5715894510026
 34
0.0
 50
90.0
100
AcDbRotatedDimension
1001
ACAD
1000
DSTYLE
1002
{
1070
    40
1040
2.0
1002
}
  0
LINE
  5
4D61
330
1F
100
AcDbEntity
  8
AM_VIS
100
AcDbLine
 10
662.2200580959696
 20
249.4263725154723
 30
0.0
 11
662.2200580959696
 21
238.6007155154724
 31
0.0
  0
LINE
  5
4D62
330
1F
100
AcDbEntity
  8
AM_VIS
100
AcDbLine
 10
661.1957150959694
 20
238.6007155154724
 30
0.0
 11
662.2200580959696
 21
238.6007155154724
 31
0.0
  0
LINE
  5
4D63
330
1F
100
AcDbEntity
  8
AM_VIS
100
AcDbLine
 10
660.7200580959695
 20
239.0763725154724
 30
0.0
 11
661.1957150959694
 21
238.6007155154724
 31
0.0
  0
LINE
  5
4D64
330
1F
100
AcDbEntity
  8
AM_VIS
100
AcDbLine
 10
658.6200580959695
 20
239.0763725154724
 30
0.0
 11
660.7200580959695
 21
239.0763725154724
 31
0.0
  0
LINE
  5
4D65
330
1F
100
AcDbEntity
  8
AM_VIS
100
AcDbLine
 10
656.9200580959695
 20
236.4763725154724
 30
0.0
 11
656.9200580959695
 21
237.3763725154724
 31
0.0
  0
LINE
  5
4D66
330
1F
100
AcDbEntity
  8
AM_VIS
100
AcDbLine
 10
660.7200580872678
 20
234.7763725154724
 30
0.0
 11
658.6200580959695
 21
234.7763725154724
 31
0.0
  0
LINE
  5
4D67
330
1F
100
AcDbEntity
  8
AM_VIS
100
AcDbLine
 10
661.2200580959695
 20
235.2263725154724
 30
0.0
 11
660.7200580872678
 21
234.7763725154724
 31
0.0
  0
LINE
  5
4D68
330
1F
100
AcDbEntity
  8
AM_VIS
100
AcDbLine
 10
662.2200580959695
 20
235.2263725154724
 30
0.0
 11
661.2200580959695
 21
235.2263725154724
 31
0.0
  0
LINE
  5
4D69
330
1F
100
AcDbEntity
  8
AM_VIS
100
AcDbLine
 10
662.2200580959696
 20
235.2263725154724
 30
0.0
 11
662.2200580959696
 21
233.4263725154724
 31
0.0
  0
LINE
  5
4D6A
330
1F
100
AcDbEntity
  8
AM_VIS
100
AcDbLine
 10
659.7200580959695
 20
230.9263725154724
 30
0.0
 11
662.2200580959695
 21
233.4263725154724
 31
0.0
  0
LINE
  5
4D6B
330
1F
100
AcDbEntity
  8
AM_VIS
100
AcDbLine
 10
659.7200580959695
 20
220.9263725154724
 30
0.0
 11
659.7200580959695
 21
230.9263725154724
 31
0.0
  0
LINE
  5
4D6C
330
1F
100
AcDbEntity
  8
AM_VIS
100
AcDbLine
 10
610.2200580959679
 20
233.4263725154722
 30
0.0
 11
612.7200580959679
 21
230.9263725154722
 31
0.0
  0
LINE
  5
4D6D
330
1F
100
AcDbEntity
  8
AM_VIS
100
AcDbLine
 10
610.2200580959687
 20
233.4263725154722
 30
0.0
 11
610.2200580959687
 21
235.2520295154722
 31
0.0
  0
LINE
  5
4D6E
330
1F
100
AcDbEntity
  8
AM_VIS
100
AcDbLine
 10
611.2200580959679
 20
235.2520295154722
 30
0.0
 11
610.2200580959679
 21
235.2520295154722
 31
0.0
  0
LINE
  5
4D6F
330
1F
100
AcDbEntity
  8
AM_VIS
100
AcDbLine
 10
611.6957150959678
 20
234.7763725154721
 30
0.0
 11
611.2200580959679
 21
235.2520295154722
 31
0.0
  0
LINE
  5
4D70
330
1F
100
AcDbEntity
  8
AM_VIS
100
AcDbLine
 10
613.8200580959679
 20
234.7763725154721
 30
0.0
 11
611.6957150959678
 21
234.7763725154721
 31
0.0
  0
LINE
  5
4D71
330
1F
100
AcDbEntity
  8
AM_VIS
100
AcDbLine
 10
615.5200580959679
 20
237.3763725154721
 30
0.0
 11
615.5200580959679
 21
236.4763725154722
 31
0.0
  0
LINE
  5
4D72
330
1F
100
AcDbEntity
  8
AM_VIS
100
AcDbLine
 10
611.7200581046696
 20
239.0763725154721
 30
0.0
 11
613.8200580959679
 21
239.0763725154721
 31
0.0
  0
LINE
  5
4D73
330
1F
100
AcDbEntity
  8
AM_VIS
100
AcDbLine
 10
611.2200580959679
 20
238.6263725154722
 30
0.0
 11
611.7200581046696
 21
239.0763725154721
 31
0.0
  0
LINE
  5
4D74
330
1F
100
AcDbEntity
  8
AM_VIS
100
AcDbLine
 10
610.2200580959689
 20
238.6263725154722
 30
0.0
 11
611.2200580959679
 21
238.6263725154722
 31
0.0
  0
LINE
  5
4D75
330
1F
100
AcDbEntity
  8
AM_VIS
100
AcDbLine
 10
610.2200580959687
 20
238.6263725154722
 30
0.0
 11
610.2200580959687
 21
249.4263725154723
 31
0.0
  0
LINE
  5
4D76
330
1F
100
AcDbEntity
  8
AM_VIS
100
AcDbLine
 10
610.2200580959689
 20
249.4263725154722
 30
0.0
 11
612.7200580959688
 21
251.9263725154723
 31
0.0
  0
LINE
  5
4D77
330
1F
100
AcDbEntity
  8
AM_VIS
100
AcDbLine
 10
612.7200580959688
 20
251.9263725154723
 30
0.0
 11
623.5200580959687
 21
251.9263725154723
 31
0.0
  0
LINE
  5
4D78
330
1F
100
AcDbEntity
  8
AM_VIS
100
AcDbLine
 10
623.5200580959687
 20
251.9263725154723
 30
0.0
 11
623.5200580959687
 21
250.9263725154724
 31
0.0
  0
LINE
  5
4D79
330
1F
100
AcDbEntity
  8
AM_VIS
100
AcDbLine
 10
623.5200580959687
 20
250.9263725154724
 30
0.0
 11
623.0700580959686
 21
250.4263725154723
 31
0.0
  0
LINE
  5
4D7A
330
1F
100
AcDbEntity
  8
AM_VIS
100
AcDbLine
 10
623.0700580959686
 20
250.4263725154723
 30
0.0
 11
623.0700580959686
 21
248.3263725154723
 31
0.0
  0
LINE
  5
4D7B
330
1F
100
AcDbEntity
  8
AM_VIS
100
AcDbLine
 10
624.7700580959687
 20
246.6263725154723
 30
0.0
 11
625.6700580959686
 21
246.6263725154723
 31
0.0
  0
LINE
  5
4D7C
330
1F
100
AcDbEntity
  8
AM_VIS
100
AcDbLine
 10
627.3700580959686
 20
248.3263725154723
 30
0.0
 11
627.3700580959686
 21
250.4263725154723
 31
0.0
  0
LINE
  5
4D7D
330
1F
100
AcDbEntity
  8
AM_VIS
100
AcDbLine
 10
627.3700580959686
 20
250.4263725154723
 30
0.0
 11
626.9200580959685
 21
250.9263725154724
 31
0.0
  0
LINE
  5
4D7E
330
1F
100
AcDbEntity
  8
AM_VIS
100
AcDbLine
 10
626.9200580959685
 20
250.9263725154724
 30
0.0
 11
626.9200580959685
 21
251.9263725154725
 31
0.0
  0
LINE
  5
4D7F
330
1F
100
AcDbEntity
  8
AM_VIS
100
AcDbLine
 10
626.9200580959685
 20
251.9263725154725
 30
0.0
 11
628.7200580959685
 21
251.9263725154725
 31
0.0
  0
LINE
  5
4D80
330
1F
100
AcDbEntity
  8
AM_VIS
100
AcDbLine
 10
628.7200580959685
 20
251.9263725154725
 30
0.0
 11
629.2200580959685
 21
256.9263725154723
 31
0.0
  0
LINE
  5
4D81
330
1F
100
AcDbEntity
  8
AM_VIS
100
AcDbLine
 10
629.2200580959685
 20
256.9263725154723
 30
0.0
 11
643.2200580959685
 21
256.9263725154723
 31
0.0
  0
LINE
  5
4D82
330
1F
100
AcDbEntity
  8
AM_VIS
100
AcDbLine
 10
643.2200580959685
 20
256.9263725154723
 30
0.0
 11
643.7200580959685
 21
251.9263725154723
 31
0.0
  0
LINE
  5
4D83
330
1F
100
AcDbEntity
  8
AM_VIS
100
AcDbLine
 10
643.7200580959685
 20
251.9263725154723
 30
0.0
 11
645.5200580959687
 21
251.9263725154723
 31
0.0
  0
LINE
  5
4D84
330
1F
100
AcDbEntity
  8
AM_VIS
100
AcDbLine
 10
645.5200580959687
 20
251.9263725154723
 30
0.0
 11
645.5200580959687
 21
250.9263725154724
 31
0.0
  0
LINE
  5
4D85
330
1F
100
AcDbEntity
  8
AM_VIS
100
AcDbLine
 10
645.5200580959687
 20
250.9263725154724
 30
0.0
 11
645.0700580959686
 21
250.4263725154723
 31
0.0
  0
LINE
  5
4D86
330
1F
100
AcDbEntity
  8
AM_VIS
100
AcDbLine
 10
645.0700580959686
 20
250.4263725154723
 30
0.0
 11
645.0700580959686
 21
248.3263725154723
 31
0.0
  0
LINE
  5
4D87
330
1F
100
AcDbEntity
  8
AM_VIS
100
AcDbLine
 10
646.7700580959687
 20
246.6263725154723
 30
0.0
 11
647.6700580959685
 21
246.6263725154723
 31
0.0
  0
LINE
  5
4D88
330
1F
100
AcDbEntity
  8
AM_VIS
100
AcDbLine
 10
649.3700580959686
 20
248.3263725154723
 30
0.0
 11
649.3700580959686
 21
250.4263725154723
 31
0.0
  0
LINE
  5
4D89
330
1F
100
AcDbEntity
  8
AM_VIS
100
AcDbLine
 10
649.3700580959686
 20
250.4263725154723
 30
0.0
 11
648.9200580959685
 21
250.9263725154724
 31
0.0
  0
LINE
  5
4D8A
330
1F
100
AcDbEntity
  8
AM_VIS
100
AcDbLine
 10
648.9200580959685
 20
250.9263725154724
 30
0.0
 11
648.9200580959685
 21
251.9263725154723
 31
0.0
  0
LINE
  5
4D8B
330
1F
100
AcDbEntity
  8
AM_VIS
100
AcDbLine
 10
648.9200580959685
 20
251.9263725154723
 30
0.0
 11
659.7200580959696
 21
251.9263725154723
 31
0.0
  0
LINE
  5
4D8C
330
1F
100
AcDbEntity
  8
AM_VIS
100
AcDbLine
 10
659.7200580959696
 20
251.9263725154723
 30
0.0
 11
662.2200580959696
 21
249.4263725154723
 31
0.0
  0
LINE
  5
4D8D
330
1F
100
AcDbEntity
  8
AM_VIS
100
AcDbLine
 10
662.2200580959695
 20
218.4263725154724
 30
0.0
 11
659.7200580959695
 21
220.9263725154724
 31
0.0
  0
LINE
  5
4D8E
330
1F
100
AcDbEntity
  8
AM_VIS
100
AcDbLine
 10
662.2200580959696
 20
218.4263725154724
 30
0.0
 11
662.2200580959696
 21
216.6007155154724
 31
0.0
  0
LINE
  5
4D8F
330
1F
100
AcDbEntity
  8
AM_VIS
100
AcDbLine
 10
661.2200580959695
 20
216.6007155154724
 30
0.0
 11
662.2200580959695
 21
216.6007155154724
 31
0.0
  0
LINE
  5
4D90
330
1F
100
AcDbEntity
  8
AM_VIS
100
AcDbLine
 10
660.7444010959696
 20
217.0763725154724
 30
0.0
 11
661.2200580959695
 21
216.6007155154724
 31
0.0
  0
LINE
  5
4D91
330
1F
100
AcDbEntity
  8
AM_VIS
100
AcDbLine
 10
658.6200580959695
 20
217.0763725154724
 30
0.0
 11
660.7444010959696
 21
217.0763725154724
 31
0.0
  0
LINE
  5
4D92
330
1F
100
AcDbEntity
  8
AM_VIS
100
AcDbLine
 10
656.9200580959695
 20
214.4763725154724
 30
0.0
 11
656.9200580959695
 21
215.3763725154724
 31
0.0
  0
LINE
  5
4D93
330
1F
100
AcDbEntity
  8
AM_VIS
100
AcDbLine
 10
660.7200580872678
 20
212.7763725154724
 30
0.0
 11
658.6200580959696
 21
212.7763725154724
 31
0.0
  0
LINE
  5
4D94
330
1F
100
AcDbEntity
  8
AM_VIS
100
AcDbLine
 10
661.2200580959695
 20
213.2263725154724
 30
0.0
 11
660.7200580872678
 21
212.7763725154724
 31
0.0
  0
LINE
  5
4D95
330
1F
100
AcDbEntity
  8
AM_VIS
100
AcDbLine
 10
662.2200580959696
 20
213.2263725154724
 30
0.0
 11
661.2200580959695
 21
213.2263725154724
 31
0.0
  0
LINE
  5
4D96
330
1F
100
AcDbEntity
  8
AM_VIS
100
AcDbLine
 10
662.2200580959696
 20
213.2263725154724
 30
0.0
 11
662.2200580959696
 21
202.4263725154725
 31
0.0
  0
LINE
  5
4D97
330
1F
100
AcDbEntity
  8
AM_VIS
100
AcDbLine
 10
662.2200580959696
 20
202.4263725154725
 30
0.0
 11
659.7200580959695
 21
199.9263725154724
 31
0.0
  0
LINE
  5
4D98
330
1F
100
AcDbEntity
  8
AM_VIS
100
AcDbLine
 10
659.7200580959696
 20
199.9263725154723
 30
0.0
 11
648.8944010959689
 21
199.9263725154723
 31
0.0
  0
LINE
  5
4D99
330
1F
100
AcDbEntity
  8
AM_VIS
100
AcDbLine
 10
648.8944010959689
 20
200.9507155154715
 30
0.0
 11
648.8944010959689
 21
199.9263725154724
 31
0.0
  0
LINE
  5
4D9A
330
1F
100
AcDbEntity
  8
AM_VIS
100
AcDbLine
 10
649.3700580959689
 20
201.4263725154715
 30
0.0
 11
648.8944010959689
 21
200.9507155154715
 31
0.0
  0
LINE
  5
4D9B
330
1F
100
AcDbEntity
  8
AM_VIS
100
AcDbLine
 10
649.3700580959689
 20
203.5263725154715
 30
0.0
 11
649.3700580959689
 21
201.4263725154715
 31
0.0
  0
LINE
  5
4D9C
330
1F
100
AcDbEntity
  8
AM_VIS
100
AcDbLine
 10
646.7700580959689
 20
205.2263725154715
 30
0.0
 11
647.6700580959689
 21
205.2263725154715
 31
0.0
  0
LINE
  5
4D9D
330
1F
100
AcDbEntity
  8
AM_VIS
100
AcDbLine
 10
645.0700580959688
 20
201.4263725241732
 30
0.0
 11
645.0700580959688
 21
203.5263725154715
 31
0.0
  0
LINE
  5
4D9E
330
1F
100
AcDbEntity
  8
AM_VIS
100
AcDbLine
 10
645.5200580959689
 20
200.9263725154715
 30
0.0
 11
645.0700580959688
 21
201.4263725241732
 31
0.0
  0
LINE
  5
4D9F
330
1F
100
AcDbEntity
  8
AM_VIS
100
AcDbLine
 10
645.5200580959689
 20
199.9263725154715
 30
0.0
 11
645.5200580959689
 21
200.9263725154715
 31
0.0
  0
LINE
  5
4DA0
330
1F
100
AcDbEntity
  8
AM_VIS
100
AcDbLine
 10
645.5200580959689
 20
199.9263725154723
 30
0.0
 11
643.7200580959689
 21
199.9263725154723
 31
0.0
  0
LINE
  5
4DA1
330
1F
100
AcDbEntity
  8
AM_VIS
100
AcDbLine
 10
641.2200580959688
 20
202.4263725154715
 30
0.0
 11
643.7200580959689
 21
199.9263725154715
 31
0.0
  0
LINE
  5
4DA2
330
1F
100
AcDbEntity
  8
AM_VIS
100
AcDbLine
 10
631.2200580959689
 20
202.4263725154715
 30
0.0
 11
641.2200580959688
 21
202.4263725154715
 31
0.0
  0
LINE
  5
4DA3
330
1F
100
AcDbEntity
  8
AM_VIS
100
AcDbLine
 10
628.7200580959688
 20
199.9263725154715
 30
0.0
 11
631.2200580959689
 21
202.4263725154715
 31
0.0
  0
LINE
  5
4DA4
330
1F
100
AcDbEntity
  8
AM_VIS
100
AcDbLine
 10
628.7200580959688
 20
199.9263725154723
 30
0.0
 11
626.8944010959688
 21
199.9263725154723
 31
0.0
  0
LINE
  5
4DA5
330
1F
100
AcDbEntity
  8
AM_VIS
100
AcDbLine
 10
626.8944010959688
 20
200.9263725154715
 30
0.0
 11
626.8944010959688
 21
199.9263725154715
 31
0.0
  0
LINE
  5
4DA6
330
1F
100
AcDbEntity
  8
AM_VIS
100
AcDbLine
 10
627.3700580959689
 20
201.4020295154715
 30
0.0
 11
626.8944010959688
 21
200.9263725154715
 31
0.0
  0
LINE
  5
4DA7
330
1F
100
AcDbEntity
  8
AM_VIS
100
AcDbLine
 10
627.3700580959689
 20
203.5263725154715
 30
0.0
 11
627.3700580959689
 21
201.4020295154715
 31
0.0
  0
LINE
  5
4DA8
330
1F
100
AcDbEntity
  8
AM_VIS
100
AcDbLine
 10
624.7700580959689
 20
205.2263725154715
 30
0.0
 11
625.6700580959688
 21
205.2263725154715
 31
0.0
  0
LINE
  5
4DA9
330
1F
100
AcDbEntity
  8
AM_VIS
100
AcDbLine
 10
623.0700580959688
 20
201.4263725241732
 30
0.0
 11
623.0700580959688
 21
203.5263725154715
 31
0.0
  0
LINE
  5
4DAA
330
1F
100
AcDbEntity
  8
AM_VIS
100
AcDbLine
 10
623.5200580959688
 20
200.9263725154715
 30
0.0
 11
623.0700580959688
 21
201.4263725241732
 31
0.0
  0
LINE
  5
4DAB
330
1F
100
AcDbEntity
  8
AM_VIS
100
AcDbLine
 10
623.5200580959689
 20
199.9263725154724
 30
0.0
 11
623.5200580959689
 21
200.9263725154715
 31
0.0
  0
LINE
  5
4DAC
330
1F
100
AcDbEntity
  8
AM_VIS
100
AcDbLine
 10
623.5200580959689
 20
199.9263725154723
 30
0.0
 11
612.7200580959688
 21
199.9263725154723
 31
0.0
  0
LINE
  5
4DAD
330
1F
100
AcDbEntity
  8
AM_VIS
100
AcDbLine
 10
612.7200580959688
 20
199.9263725154724
 30
0.0
 11
610.2200580959687
 21
202.4263725154723
 31
0.0
  0
LINE
  5
4DAE
330
1F
100
AcDbEntity
  8
AM_VIS
100
AcDbLine
 10
610.2200580959686
 20
202.4263725154722
 30
0.0
 11
610.2200580959686
 21
213.2520295154721
 31
0.0
  0
LINE
  5
4DAF
330
1F
100
AcDbEntity
  8
AM_VIS
100
AcDbLine
 10
611.244401095968
 20
213.2520295154721
 30
0.0
 11
610.2200580959689
 21
213.2520295154721
 31
0.0
  0
LINE
  5
4DB0
330
1F
100
AcDbEntity
  8
AM_VIS
100
AcDbLine
 10
611.7200580959679
 20
212.7763725154721
 30
0.0
 11
611.244401095968
 21
213.2520295154721
 31
0.0
  0
LINE
  5
4DB1
330
1F
100
AcDbEntity
  8
AM_VIS
100
AcDbLine
 10
613.8200580959679
 20
212.7763725154721
 30
0.0
 11
611.7200580959679
 21
212.7763725154721
 31
0.0
  0
LINE
  5
4DB2
330
1F
100
AcDbEntity
  8
AM_VIS
100
AcDbLine
 10
615.5200580959679
 20
215.3763725154722
 30
0.0
 11
615.5200580959679
 21
214.4763725154722
 31
0.0
  0
LINE
  5
4DB3
330
1F
100
AcDbEntity
  8
AM_VIS
100
AcDbLine
 10
611.7200581046696
 20
217.0763725154722
 30
0.0
 11
613.8200580959679
 21
217.0763725154722
 31
0.0
  0
LINE
  5
4DB4
330
1F
100
AcDbEntity
  8
AM_VIS
100
AcDbLine
 10
611.2200580959679
 20
216.6263725154721
 30
0.0
 11
611.7200581046696
 21
217.0763725154722
 31
0.0
  0
LINE
  5
4DB5
330
1F
100
AcDbEntity
  8
AM_VIS
100
AcDbLine
 10
610.2200580959679
 20
216.6263725154721
 30
0.0
 11
611.2200580959679
 21
216.6263725154721
 31
0.0
  0
LINE
  5
4DB6
330
1F
100
AcDbEntity
  8
AM_VIS
100
AcDbLine
 10
610.2200580959686
 20
216.6263725154721
 30
0.0
 11
610.2200580959686
 21
218.4263725154722
 31
0.0
  0
LINE
  5
4DB7
330
1F
100
AcDbEntity
  8
AM_VIS
100
AcDbLine
 10
612.7200580959679
 20
220.9263725154722
 30
0.0
 11
610.2200580959679
 21
218.4263725154722
 31
0.0
  0
LINE
  5
4DB8
330
1F
100
AcDbEntity
  8
AM_VIS
100
AcDbLine
 10
612.7200580959679
 20
230.9263725154722
 30
0.0
 11
612.7200580959679
 21
220.9263725154722
 31
0.0
  0
CIRCLE
  5
4E59
330
1F
100
AcDbEntity
  8
AM_VIS
100
AcDbCircle
 10
655.9059417037565
 20
246.0423042973537
 30
0.0
 40
2.576499999999999
  0
CIRCLE
  5
4E5A
330
1F
100
AcDbEntity
  8
AM_VIS
100
AcDbCircle
 10
656.3359898778501
 20
206.2404889076845
 30
0.0
 40
2.576499999999999
  0
CIRCLE
  5
4E5B
330
1F
100
AcDbEntity
  8
AM_VIS
100
AcDbCircle
 10
616.5341744881809
 20
205.8104407335909
 30
0.0
 40
2.576499999999999
  0
CIRCLE
  5
4E5C
330
1F
100
AcDbEntity
  8
AM_VIS
100
AcDbCircle
 10
616.1041263140873
 20
245.61225612326
 30
0.0
 40
2.576499999999999
  0
ARC
  5
4E5D
330
1F
100
AcDbEntity
  8
AM_VIS
100
AcDbCircle
 10
658.6200580959695
 20
237.3763725154724
 30
0.0
 40
1.7
100
AcDbArc
 50
90.0
 51
180.0
  0
ARC
  5
4E5E
330
1F
100
AcDbEntity
  8
AM_VIS
100
AcDbCircle
 10
658.6200580959695
 20
236.4763725154724
 30
0.0
 40
1.7
100
AcDbArc
 50
180.0
 51
270.0
  0
ARC
  5
4E5F
330
1F
100
AcDbEntity
  8
AM_VIS
100
AcDbCircle
 10
613.8200580959679
 20
236.4763725154722
 30
0.0
 40
1.7
100
AcDbArc
 50
270.0
 51
0.0
  0
ARC
  5
4E60
330
1F
100
AcDbEntity
  8
AM_VIS
100
AcDbCircle
 10
613.8200580959679
 20
237.3763725154721
 30
0.0
 40
1.7
100
AcDbArc
 50
0.0
 51
90.0
  0
ARC
  5
4E61
330
1F
100
AcDbEntity
  8
AM_VIS
100
AcDbCircle
 10
624.7700580959688
 20
248.3263725154723
 30
0.0
 40
1.7
100
AcDbArc
 50
180.0
 51
269.9999999999959
  0
ARC
  5
4E62
330
1F
100
AcDbEntity
  8
AM_VIS
100
AcDbCircle
 10
625.6700580959686
 20
248.3263725154723
 30
0.0
 40
1.7
100
AcDbArc
 50
269.9999999999959
 51
0.0
  0
ARC
  5
4E63
330
1F
100
AcDbEntity
  8
AM_VIS
100
AcDbCircle
 10
646.7700580959688
 20
248.3263725154723
 30
0.0
 40
1.7
100
AcDbArc
 50
180.0
 51
269.9999999999959
  0
ARC
  5
4E64
330
1F
100
AcDbEntity
  8
AM_VIS
100
AcDbCircle
 10
647.6700580959686
 20
248.3263725154723
 30
0.0
 40
1.7
100
AcDbArc
 50
269.9999999999959
 51
0.0
  0
CIRCLE
  5
4E65
330
1F
100
AcDbEntity
  8
AM_VIS
100
AcDbCircle
 10
636.2200580959687
 20
225.9263725154723
 30
0.0
 40
20.0
  0
CIRCLE
  5
4E66
330
1F
100
AcDbEntity
  8
AM_VIS
100
AcDbCircle
 10
636.2200580959687
 20
225.9263725154723
 30
0.0
 40
19.2
  0
CIRCLE
  5
4E67
330
1F
100
AcDbEntity
  8
AM_VIS
100
AcDbCircle
 10
636.2200580959687
 20
225.9263725154723
 30
0.0
 40
5.25
  0
ARC
  5
4E68
330
1F
100
AcDbEntity
  8
AM_VIS
100
AcDbCircle
 10
658.6200580959695
 20
215.3763725154724
 30
0.0
 40
1.7
100
AcDbArc
 50
90.0
 51
180.0
  0
ARC
  5
4E69
330
1F
100
AcDbEntity
  8
AM_VIS
100
AcDbCircle
 10
658.6200580959695
 20
214.4763725154724
 30
0.0
 40
1.7
100
AcDbArc
 50
180.0
 51
270.0
  0
ARC
  5
4E6A
330
1F
100
AcDbEntity
  8
AM_VIS
100
AcDbCircle
 10
647.6700580959689
 20
203.5263725154715
 30
0.0
 40
1.7
100
AcDbArc
 50
0.0
 51
90.0
  0
ARC
  5
4E6B
330
1F
100
AcDbEntity
  8
AM_VIS
100
AcDbCircle
 10
646.7700580959689
 20
203.5263725154715
 30
0.0
 40
1.7
100
AcDbArc
 50
90.0
 51
180.0
  0
ARC
  5
4E6C
330
1F
100
AcDbEntity
  8
AM_VIS
100
AcDbCircle
 10
625.6700580959688
 20
203.5263725154715
 30
0.0
 40
1.7
100
AcDbArc
 50
0.0
 51
90.0
  0
ARC
  5
4E6D
330
1F
100
AcDbEntity
  8
AM_VIS
100
AcDbCircle
 10
624.7700580959689
 20
203.5263725154715
 30
0.0
 40
1.7
100
AcDbArc
 50
90.0
 51
180.0
  0
ARC
  5
4E6E
330
1F
100
AcDbEntity
  8
AM_VIS
100
AcDbCircle
 10
613.8200580959679
 20
214.4763725154722
 30
0.0
 40
1.7
100
AcDbArc
 50
270.0
 51
0.0
  0
ARC
  5
4E6F
330
1F
100
AcDbEntity
  8
AM_VIS
100
AcDbCircle
 10
613.8200580959679
 20
215.3763725154722
 30
0.0
 40
1.7
100
AcDbArc
 50
0.0
 51
90.0
  0
LINE
  5
4EC4
330
1F
100
AcDbEntity
  8
AM_VIS
100
AcDbLine
 10
648.920058095969
 20
410.0715894510028
 30
0.0
 11
648.920058095969
 21
319.5715894510029
 31
0.0
  0
LINE
  5
4EC5
330
1F
100
AcDbEntity
  8
AM_VIS
100
AcDbLine
 10
645.5200580959691
 20
410.0715894510028
 30
0.0
 11
645.5200580959691
 21
319.5715894510029
 31
0.0
  0
LINE
  5
4EC6
330
1F
100
AcDbEntity
  8
AM_VIS
100
AcDbLine
 10
643.7200580959689
 20
410.0715894510028
 30
0.0
 11
643.7200580959689
 21
319.5715894510029
 31
0.0
  0
LINE
  5
4EC7
330
1F
100
AcDbEntity
  8
AM_VIS
100
AcDbLine
 10
628.7200580959689
 20
410.0715894510028
 30
0.0
 11
628.7200580959689
 21
319.5715894510029
 31
0.0
  0
LINE
  5
4EC8
330
1F
100
AcDbEntity
  8
AM_VIS
100
AcDbLine
 10
626.920058095969
 20
410.0715894510028
 30
0.0
 11
626.920058095969
 21
319.5715894510029
 31
0.0
  0
LINE
  5
4EC9
330
1F
100
AcDbEntity
  8
AM_VIS
100
AcDbLine
 10
623.5200580959691
 20
410.0715894510028
 30
0.0
 11
623.5200580959691
 21
319.5715894510029
 31
0.0
  0
LINE
  5
4ECA
330
1F
100
AcDbEntity
  8
AM_VIS
100
AcDbLine
 10
612.7200580959692
 20
319.5715894510029
 30
0.0
 11
612.7200580959692
 21
410.0715894510028
 31
0.0
  0
LINE
  5
4ECB
330
1F
100
AcDbEntity
  8
AM_VIS
100
AcDbLine
 10
610.2200580959694
 20
410.0715894510028
 30
0.0
 11
610.2200580959694
 21
319.5715894510029
 31
0.0
  0
LINE
  5
4ECC
330
1F
100
AcDbEntity
  8
AM_VIS
100
AcDbLine
 10
662.2200580959701
 20
319.5715894510029
 30
0.0
 11
662.2200580959701
 21
410.0715894510028
 31
0.0
  0
LINE
  5
4ECD
330
1F
100
AcDbEntity
  8
AM_VIS
100
AcDbLine
 10
659.72005809597
 20
410.0715894510028
 30
0.0
 11
659.72005809597
 21
319.5715894510029
 31
0.0
  0
LINE
  5
4ECE
330
1F
100
AcDbEntity
  8
AM_VIS
100
AcDbLine
 10
643.220058095969
 20
410.0715894510028
 30
0.0
 11
643.220058095969
 21
319.5715894510029
 31
0.0
  0
LINE
  5
4ECF
330
1F
100
AcDbEntity
  8
AM_VIS
100
AcDbLine
 10
629.2200580959689
 20
410.0715894510028
 30
0.0
 11
629.2200580959689
 21
319.5715894510029
 31
0.0
  0
LINE
  5
4ED0
330
1F
100
AcDbEntity
  8
AM_VIS
100
AcDbLine
 10
610.2200580959693
 20
319.5715894510029
 30
0.0
 11
612.7200580959692
 21
319.5715894510029
 31
0.0
  0
LINE
  5
4ED1
330
1F
100
AcDbEntity
  8
AM_VIS
100
AcDbLine
 10
612.7200580959692
 20
319.5715894510029
 30
0.0
 11
623.5200580959691
 21
319.5715894510029
 31
0.0
  0
LINE
  5
4ED2
330
1F
100
AcDbEntity
  8
AM_VIS
100
AcDbLine
 10
624.7700580959691
 20
319.5715894510029
 30
0.0
 11
625.670058095969
 21
319.5715894510029
 31
0.0
  0
LINE
  5
4ED3
330
1F
100
AcDbEntity
  8
AM_VIS
100
AcDbLine
 10
626.920058095969
 20
319.5715894510029
 30
0.0
 11
628.7200580959689
 21
319.5715894510029
 31
0.0
  0
LINE
  5
4ED4
330
1F
100
AcDbEntity
  8
AM_VIS
100
AcDbLine
 10
628.7200580959689
 20
319.5715894510029
 30
0.0
 11
629.2200580959689
 21
319.5715894510029
 31
0.0
  0
LINE
  5
4ED5
330
1F
100
AcDbEntity
  8
AM_VIS
100
AcDbLine
 10
629.2200580959689
 20
319.5715894510029
 30
0.0
 11
643.220058095969
 21
319.5715894510029
 31
0.0
  0
LINE
  5
4ED6
330
1F
100
AcDbEntity
  8
AM_VIS
100
AcDbLine
 10
643.220058095969
 20
319.5715894510029
 30
0.0
 11
643.7200580959689
 21
319.5715894510029
 31
0.0
  0
LINE
  5
4ED7
330
1F
100
AcDbEntity
  8
AM_VIS
100
AcDbLine
 10
643.7200580959689
 20
319.5715894510029
 30
0.0
 11
645.5200580959691
 21
319.5715894510029
 31
0.0
  0
LINE
  5
4ED8
330
1F
100
AcDbEntity
  8
AM_VIS
100
AcDbLine
 10
646.7700580959691
 20
319.5715894510029
 30
0.0
 11
647.670058095969
 21
319.5715894510029
 31
0.0
  0
LINE
  5
4ED9
330
1F
100
AcDbEntity
  8
AM_VIS
100
AcDbLine
 10
648.920058095969
 20
319.5715894510029
 30
0.0
 11
659.72005809597
 21
319.5715894510029
 31
0.0
  0
LINE
  5
4EDA
330
1F
100
AcDbEntity
  8
AM_VIS
100
AcDbLine
 10
659.72005809597
 20
319.5715894510029
 30
0.0
 11
662.2200580959701
 21
319.5715894510029
 31
0.0
  0
LINE
  5
4EDB
330
1F
100
AcDbEntity
  8
AM_VIS
100
AcDbLine
 10
610.2200580959694
 20
410.0715894510028
 30
0.0
 11
612.7200580959692
 21
410.0715894510028
 31
0.0
  0
LINE
  5
4EDC
330
1F
100
AcDbEntity
  8
AM_VIS
100
AcDbLine
 10
612.5129513147827
 20
410.5715894510028
 30
0.0
 11
612.7200580959692
 21
410.0715894510028
 31
0.0
  0
LINE
  5
4EDD
330
1F
100
AcDbEntity
  8
AM_VIS
100
AcDbLine
 10
612.7200580959692
 20
410.0715894510028
 30
0.0
 11
623.5200580959691
 21
410.0715894510028
 31
0.0
  0
LINE
  5
4EDE
330
1F
100
AcDbEntity
  8
AM_VIS
100
AcDbLine
 10
624.0200580959691
 20
410.5715894510028
 30
0.0
 11
623.5200580959691
 21
410.0715894510028
 31
0.0
  0
LINE
  5
4EDF
330
1F
100
AcDbEntity
  8
AM_VIS
100
AcDbLine
 10
624.7700580959691
 20
410.0715894510028
 30
0.0
 11
625.670058095969
 21
410.0715894510028
 31
0.0
  0
LINE
  5
4EE0
330
1F
100
AcDbEntity
  8
AM_VIS
100
AcDbLine
 10
626.4200580959689
 20
410.5715894510028
 30
0.0
 11
626.920058095969
 21
410.0715894510028
 31
0.0
  0
LINE
  5
4EE1
330
1F
100
AcDbEntity
  8
AM_VIS
100
AcDbLine
 10
626.920058095969
 20
410.0715894510028
 30
0.0
 11
628.7200580959689
 21
410.0715894510028
 31
0.0
  0
LINE
  5
4EE2
330
1F
100
AcDbEntity
  8
AM_VIS
100
AcDbLine
 10
628.2675643149128
 20
410.5715894510028
 30
0.0
 11
628.7200580959689
 21
410.0715894510028
 31
0.0
  0
LINE
  5
4EE3
330
1F
100
AcDbEntity
  8
AM_VIS
100
AcDbLine
 10
628.7200580959689
 20
410.0715894510028
 30
0.0
 11
629.2200580959689
 21
410.0715894510028
 31
0.0
  0
LINE
  5
4EE4
330
1F
100
AcDbEntity
  8
AM_VIS
100
AcDbLine
 10
628.7675643149128
 20
410.5715894510028
 30
0.0
 11
629.2200580959689
 21
410.0715894510028
 31
0.0
  0
LINE
  5
4EE5
330
1F
100
AcDbEntity
  8
AM_VIS
100
AcDbLine
 10
629.2200580959689
 20
410.0715894510028
 30
0.0
 11
643.220058095969
 21
410.0715894510028
 31
0.0
  0
LINE
  5
4EE6
330
1F
100
AcDbEntity
  8
AM_VIS
100
AcDbLine
 10
643.220058095969
 20
410.0715894510028
 30
0.0
 11
643.7200580959689
 21
410.0715894510028
 31
0.0
  0
LINE
  5
4EE7
330
1F
100
AcDbEntity
  8
AM_VIS
100
AcDbLine
 10
643.6725518770249
 20
410.5715894510028
 30
0.0
 11
643.220058095969
 21
410.0715894510028
 31
0.0
  0
LINE
  5
4EE8
330
1F
100
AcDbEntity
  8
AM_VIS
100
AcDbLine
 10
643.7200580959689
 20
410.0715894510028
 30
0.0
 11
645.5200580959691
 21
410.0715894510028
 31
0.0
  0
LINE
  5
4EE9
330
1F
100
AcDbEntity
  8
AM_VIS
100
AcDbLine
 10
644.1725518770249
 20
410.5715894510028
 30
0.0
 11
643.7200580959689
 21
410.0715894510028
 31
0.0
  0
LINE
  5
4EEA
330
1F
100
AcDbEntity
  8
AM_VIS
100
AcDbLine
 10
646.0200580959691
 20
410.5715894510028
 30
0.0
 11
645.5200580959691
 21
410.0715894510028
 31
0.0
  0
LINE
  5
4EEB
330
1F
100
AcDbEntity
  8
AM_VIS
100
AcDbLine
 10
646.7700580959691
 20
410.0715894510028
 30
0.0
 11
647.670058095969
 21
410.0715894510028
 31
0.0
  0
LINE
  5
4EEC
330
1F
100
AcDbEntity
  8
AM_VIS
100
AcDbLine
 10
659.72005809597
 20
410.0715894510028
 30
0.0
 11
662.2200580959701
 21
410.0715894510028
 31
0.0
  0
LINE
  5
4EED
330
1F
100
AcDbEntity
  8
AM_VIS
100
AcDbLine
 10
662.72005809597
 20
410.5715894510028
 30
0.0
 11
662.2200580959701
 21
410.0715894510028
 31
0.0
  0
LINE
  5
4EEE
330
1F
100
AcDbEntity
  8
AM_VIS
100
AcDbLine
 10
659.72005809597
 20
410.0715894510028
 30
0.0
 11
659.9271648771567
 21
410.5715894510028
 31
0.0
  0
LINE
  5
4EEF
330
1F
100
AcDbEntity
  8
AM_VIS
100
AcDbLine
 10
648.920058095969
 20
410.0715894510028
 30
0.0
 11
659.72005809597
 21
410.0715894510028
 31
0.0
  0
LINE
  5
4EF0
330
1F
100
AcDbEntity
  8
AM_VIS
100
AcDbLine
 10
648.420058095969
 20
410.5715894510028
 30
0.0
 11
648.920058095969
 21
410.0715894510028
 31
0.0
  0
LINE
  5
4EF1
330
1F
100
AcDbEntity
  8
AM_VIS
100
AcDbLine
 10
610.2200580959694
 20
410.0715894510028
 30
0.0
 11
609.7200580959691
 21
410.5715894510028
 31
0.0
  0
CIRCLE
  5
4EF2
330
1F
100
AcDbEntity
  8
AM_VIS
100
AcDbCircle
 10
636.2200580959692
 20
388.0715894510029
 30
0.0
 40
1.0
  0
CIRCLE
  5
4EF3
330
1F
100
AcDbEntity
  8
AM_VIS
100
AcDbCircle
 10
636.2200580959692
 20
404.5715894510029
 30
0.0
 40
2.576499999999999
  0
CIRCLE
  5
4EF4
330
1F
100
AcDbEntity
  8
AM_VIS
100
AcDbCircle
 10
636.2200580959692
 20
388.0715894510029
 30
0.0
 40
4.25
  0
CIRCLE
  5
4EF5
330
1F
100
AcDbEntity
  8
AM_VIS
100
AcDbCircle
 10
636.2200580959692
 20
404.5715894510029
 30
0.0
 40
3.576499999999999
  0
LINE
  5
4EF9
330
1F
100
AcDbEntity
  8
AM_VIS
100
AcDbLine
 10
623.5200580959691
 20
319.5715894510029
 30
0.0
 11
624.7700580959691
 21
319.5715894510029
 31
0.0
  0
LINE
  5
4EFA
330
1F
100
AcDbEntity
  8
AM_VIS
100
AcDbLine
 10
625.670058095969
 20
319.5715894510029
 30
0.0
 11
626.920058095969
 21
319.5715894510029
 31
0.0
  0
LINE
  5
4EFB
330
1F
100
AcDbEntity
  8
AM_VIS
100
AcDbLine
 10
645.5200580959691
 20
319.5715894510029
 30
0.0
 11
646.7700580959691
 21
319.5715894510029
 31
0.0
  0
LINE
  5
4EFC
330
1F
100
AcDbEntity
  8
AM_VIS
100
AcDbLine
 10
647.670058095969
 20
319.5715894510029
 30
0.0
 11
648.920058095969
 21
319.5715894510029
 31
0.0
  0
LINE
  5
4EFD
330
1F
100
AcDbEntity
  8
AM_VIS
100
AcDbLine
 10
623.5200580959691
 20
410.0715894510028
 30
0.0
 11
624.7700580959691
 21
410.0715894510028
 31
0.0
  0
LINE
  5
4EFE
330
1F
100
AcDbEntity
  8
AM_VIS
100
AcDbLine
 10
625.670058095969
 20
410.0715894510028
 30
0.0
 11
626.920058095969
 21
410.0715894510028
 31
0.0
  0
LINE
  5
4EFF
330
1F
100
AcDbEntity
  8
AM_VIS
100
AcDbLine
 10
645.5200580959691
 20
410.0715894510028
 30
0.0
 11
646.7700580959691
 21
410.0715894510028
 31
0.0
  0
LINE
  5
4F00
330
1F
100
AcDbEntity
  8
AM_VIS
100
AcDbLine
 10
647.670058095969
 20
410.0715894510028
 30
0.0
 11
648.920058095969
 21
410.0715894510028
 31
0.0
  0
ARC
  5
4F08
330
1F
100
AcDbEntity
  8
0
 62
     3
100
AcDbCircle
 10
636.2200580959689
 20
388.0715894510028
 30
0.0
 40
5.0
100
AcDbArc
 50
255.526889054607
 51
189.4060020687775
  0
ARC
  5
4F09
330
1F
100
AcDbEntity
  8
0
 62
     3
100
AcDbCircle
 10
636.2200580959687
 20
404.5715894510027
 30
0.0
 40
3.0
100
AcDbArc
 50
251.7383276016523
 51
199.4759162331486
  0
LINE
  5
4F3D
330
1F
100
AcDbEntity
  8
CENTER
  6
CENTER
100
AcDbLine
 10
655.9059417037565
 20
248.0423042973538
 30
0.0
 11
655.9059417037565
 21
251.5423042973538
 31
0.0
  0
LINE
  5
4F3E
102
{ACAD_REACTORS
330
4089
102
}
330
1F
100
AcDbEntity
  8
CENTER
  6
CENTER
100
AcDbLine
 10
657.9059417037565
 20
246.0423042973538
 30
0.0
 11
661.4059417037565
 21
246.0423042973538
 31
0.0
  0
LINE
  5
4F3F
330
1F
100
AcDbEntity
  8
CENTER
  6
CENTER
100
AcDbLine
 10
655.9059417037565
 20
244.0423042973538
 30
0.0
 11
655.9059417037565
 21
240.5423042973538
 31
0.0
  0
LINE
  5
4F40
330
1F
100
AcDbEntity
  8
CENTER
  6
CENTER
100
AcDbLine
 10
653.9059417037565
 20
246.0423042973538
 30
0.0
 11
650.4059417037565
 21
246.0423042973538
 31
0.0
  0
LINE
  5
4F41
330
1F
100
AcDbEntity
  8
CENTER
  6
CENTER
100
AcDbLine
 10
655.9059417037565
 20
247.0423042973538
 30
0.0
 11
655.9059417037565
 21
245.0423042973538
 31
0.0
  0
LINE
  5
4F42
330
1F
100
AcDbEntity
  8
CENTER
  6
CENTER
100
AcDbLine
 10
654.9059417037565
 20
246.0423042973538
 30
0.0
 11
656.9059417037565
 21
246.0423042973538
 31
0.0
  0
LINE
  5
4F43
330
1F
100
AcDbEntity
  8
CENTER
  6
CENTER
100
AcDbLine
 10
616.1041263140873
 20
247.6122561232602
 30
0.0
 11
616.1041263140873
 21
251.1122561232602
 31
0.0
  0
LINE
  5
4F44
102
{ACAD_REACTORS
330
4089
102
}
330
1F
100
AcDbEntity
  8
CENTER
  6
CENTER
100
AcDbLine
 10
618.1041263140873
 20
245.6122561232602
 30
0.0
 11
621.6041263140873
 21
245.6122561232602
 31
0.0
  0
LINE
  5
4F45
330
1F
100
AcDbEntity
  8
CENTER
  6
CENTER
100
AcDbLine
 10
616.1041263140873
 20
243.6122561232602
 30
0.0
 11
616.1041263140873
 21
240.1122561232602
 31
0.0
  0
LINE
  5
4F46
330
1F
100
AcDbEntity
  8
CENTER
  6
CENTER
100
AcDbLine
 10
614.1041263140873
 20
245.6122561232602
 30
0.0
 11
610.6041263140873
 21
245.6122561232602
 31
0.0
  0
LINE
  5
4F47
330
1F
100
AcDbEntity
  8
CENTER
  6
CENTER
100
AcDbLine
 10
616.1041263140873
 20
246.6122561232602
 30
0.0
 11
616.1041263140873
 21
244.6122561232602
 31
0.0
  0
LINE
  5
4F48
330
1F
100
AcDbEntity
  8
CENTER
  6
CENTER
100
AcDbLine
 10
615.1041263140873
 20
245.6122561232602
 30
0.0
 11
617.1041263140873
 21
245.6122561232602
 31
0.0
  0
LINE
  5
4F49
330
1F
100
AcDbEntity
  8
CENTER
  6
CENTER
100
AcDbLine
 10
616.5341744881809
 20
207.810440733591
 30
0.0
 11
616.5341744881809
 21
211.310440733591
 31
0.0
  0
LINE
  5
4F4A
102
{ACAD_REACTORS
330
4089
102
}
330
1F
100
AcDbEntity
  8
CENTER
  6
CENTER
100
AcDbLine
 10
618.5341744881809
 20
205.810440733591
 30
0.0
 11
622.0341744881809
 21
205.810440733591
 31
0.0
  0
LINE
  5
4F4B
330
1F
100
AcDbEntity
  8
CENTER
  6
CENTER
100
AcDbLine
 10
616.5341744881809
 20
203.810440733591
 30
0.0
 11
616.5341744881809
 21
200.310440733591
 31
0.0
  0
LINE
  5
4F4C
330
1F
100
AcDbEntity
  8
CENTER
  6
CENTER
100
AcDbLine
 10
614.5341744881809
 20
205.810440733591
 30
0.0
 11
611.0341744881809
 21
205.810440733591
 31
0.0
  0
LINE
  5
4F4D
330
1F
100
AcDbEntity
  8
CENTER
  6
CENTER
100
AcDbLine
 10
616.5341744881809
 20
206.810440733591
 30
0.0
 11
616.5341744881809
 21
204.810440733591
 31
0.0
  0
LINE
  5
4F4E
330
1F
100
AcDbEntity
  8
CENTER
  6
CENTER
100
AcDbLine
 10
615.5341744881809
 20
205.810440733591
 30
0.0
 11
617.5341744881809
 21
205.810440733591
 31
0.0
  0
LINE
  5
4F4F
330
1F
100
AcDbEntity
  8
CENTER
  6
CENTER
100
AcDbLine
 10
656.3359898778501
 20
208.2404889076846
 30
0.0
 11
656.3359898778501
 21
211.7404889076846
 31
0.0
  0
LINE
  5
4F50
102
{ACAD_REACTORS
330
4089
102
}
330
1F
100
AcDbEntity
  8
CENTER
  6
CENTER
100
AcDbLine
 10
658.3359898778501
 20
206.2404889076846
 30
0.0
 11
661.8359898778501
 21
206.2404889076846
 31
0.0
  0
LINE
  5
4F51
330
1F
100
AcDbEntity
  8
CENTER
  6
CENTER
100
AcDbLine
 10
656.3359898778501
 20
204.2404889076846
 30
0.0
 11
656.3359898778501
 21
200.7404889076846
 31
0.0
  0
LINE
  5
4F52
330
1F
100
AcDbEntity
  8
CENTER
  6
CENTER
100
AcDbLine
 10
654.3359898778501
 20
206.2404889076846
 30
0.0
 11
650.83598987785
 21
206.2404889076846
 31
0.0
  0
LINE
  5
4F53
330
1F
100
AcDbEntity
  8
CENTER
  6
CENTER
100
AcDbLine
 10
656.3359898778501
 20
207.2404889076846
 30
0.0
 11
656.3359898778501
 21
205.2404889076846
 31
0.0
  0
LINE
  5
4F54
330
1F
100
AcDbEntity
  8
CENTER
  6
CENTER
100
AcDbLine
 10
655.3359898778501
 20
206.2404889076846
 30
0.0
 11
657.3359898778501
 21
206.2404889076846
 31
0.0
  0
LINE
  5
4F55
330
1F
100
AcDbEntity
  8
AM_VIS
100
AcDbLine
 10
803.7887655676133
 20
319.5715894510029
 30
0.0
 11
803.7887655676133
 21
410.0715894510028
 31
0.0
  0
LINE
  5
4F56
330
1F
100
AcDbEntity
  8
AM_VIS
100
AcDbLine
 10
806.2887655676133
 20
410.0715894510028
 30
0.0
 11
806.2887655676133
 21
319.5715894510029
 31
0.0
  0
LINE
  5
4F57
330
1F
100
AcDbEntity
  8
AM_VIS
100
AcDbLine
 10
801.9887655676132
 20
410.0715894510028
 30
0.0
 11
801.9887655676132
 21
319.5715894510029
 31
0.0
  0
LINE
  5
4F58
330
1F
100
AcDbEntity
  8
AM_VIS
100
AcDbLine
 10
798.6144225676134
 20
319.5715894510029
 30
0.0
 11
798.6144225676134
 21
410.0715894510028
 31
0.0
  0
LINE
  5
4F59
330
1F
100
AcDbEntity
  8
AM_VIS
100
AcDbLine
 10
787.7887655676135
 20
319.5715894510029
 30
0.0
 11
787.7887655676135
 21
410.0715894510028
 31
0.0
  0
LINE
  5
4F5A
330
1F
100
AcDbEntity
  8
AM_VIS
100
AcDbLine
 10
785.2887655676135
 20
410.0715894510028
 30
0.0
 11
785.2887655676135
 21
319.5715894510029
 31
0.0
  0
LINE
  5
4F5B
330
1F
100
AcDbEntity
  8
AM_VIS
100
AcDbLine
 10
780.2887655676134
 20
410.0715894510028
 30
0.0
 11
780.2887655676134
 21
319.5715894510029
 31
0.0
  0
LINE
  5
4F5C
330
1F
100
AcDbEntity
  8
AM_VIS
100
AcDbLine
 10
787.7887655676135
 20
319.5715894510029
 30
0.0
 11
798.6144225676134
 21
319.5715894510029
 31
0.0
  0
LINE
  5
4F5D
330
1F
100
AcDbEntity
  8
AM_VIS
100
AcDbLine
 10
800.7387655676133
 20
319.5715894510029
 30
0.0
 11
799.8387655676133
 21
319.5715894510029
 31
0.0
  0
LINE
  5
4F5E
330
1F
100
AcDbEntity
  8
AM_VIS
100
AcDbLine
 10
801.9887655676132
 20
319.5715894510029
 30
0.0
 11
803.7887655676133
 21
319.5715894510029
 31
0.0
  0
LINE
  5
4F5F
330
1F
100
AcDbEntity
  8
AM_VIS
100
AcDbLine
 10
806.2887655676133
 20
319.5715894510029
 30
0.0
 11
803.7887655676133
 21
319.5715894510029
 31
0.0
  0
LINE
  5
4F60
330
1F
100
AcDbEntity
  8
AM_VIS
100
AcDbLine
 10
816.2887655676133
 20
319.5715894510029
 30
0.0
 11
806.2887655676133
 21
319.5715894510029
 31
0.0
  0
LINE
  5
4F61
330
1F
100
AcDbEntity
  8
AM_VIS
100
AcDbLine
 10
780.2887655676134
 20
319.5715894510029
 30
0.0
 11
785.2887655676135
 21
319.5715894510029
 31
0.0
  0
LINE
  5
4F62
330
1F
100
AcDbEntity
  8
AM_VIS
100
AcDbLine
 10
785.2887655676135
 20
319.5715894510029
 30
0.0
 11
787.7887655676135
 21
319.5715894510029
 31
0.0
  0
LINE
  5
4F63
330
1F
100
AcDbEntity
  8
AM_VIS
100
AcDbLine
 10
818.7887655676133
 20
319.5715894510029
 30
0.0
 11
816.2887655676133
 21
319.5715894510029
 31
0.0
  0
LINE
  5
4F64
330
1F
100
AcDbEntity
  8
AM_VIS
100
AcDbLine
 10
816.2887655676133
 20
410.0715894510028
 30
0.0
 11
816.2887655676133
 21
319.5715894510029
 31
0.0
  0
LINE
  5
4F65
330
1F
100
AcDbEntity
  8
AM_VIS
100
AcDbLine
 10
818.7887655676133
 20
319.5715894510029
 30
0.0
 11
820.6144225676133
 21
319.5715894510029
 31
0.0
  0
LINE
  5
4F66
330
1F
100
AcDbEntity
  8
AM_VIS
100
AcDbLine
 10
818.7887655676135
 20
410.0715894510028
 30
0.0
 11
818.7887655676135
 21
319.5715894510029
 31
0.0
  0
LINE
  5
4F67
330
1F
100
AcDbEntity
  8
AM_VIS
100
AcDbLine
 10
820.6144225676133
 20
319.5715894510029
 30
0.0
 11
820.6144225676133
 21
410.0715894510028
 31
0.0
  0
LINE
  5
4F68
330
1F
100
AcDbEntity
  8
AM_VIS
100
AcDbLine
 10
822.7387655676134
 20
319.5715894510029
 30
0.0
 11
821.8387655676133
 21
319.5715894510029
 31
0.0
  0
LINE
  5
4F69
330
1F
100
AcDbEntity
  8
AM_VIS
100
AcDbLine
 10
823.9887655676133
 20
319.5715894510029
 30
0.0
 11
834.7887655676132
 21
319.5715894510029
 31
0.0
  0
LINE
  5
4F6A
330
1F
100
AcDbEntity
  8
AM_VIS
100
AcDbLine
 10
823.9887655676133
 20
410.0715894510028
 30
0.0
 11
823.9887655676133
 21
319.5715894510029
 31
0.0
  0
LINE
  5
4F6B
330
1F
100
AcDbEntity
  8
AM_VIS
100
AcDbLine
 10
834.7887655676132
 20
319.5715894510029
 30
0.0
 11
837.2887655676134
 21
319.5715894510029
 31
0.0
  0
LINE
  5
4F6C
330
1F
100
AcDbEntity
  8
AM_VIS
100
AcDbLine
 10
834.7887655676132
 20
410.0715894510028
 30
0.0
 11
834.7887655676132
 21
319.5715894510029
 31
0.0
  0
LINE
  5
4F6D
330
1F
100
AcDbEntity
  8
AM_VIS
100
AcDbLine
 10
837.2887655676132
 20
319.5715894510029
 30
0.0
 11
837.2887655676132
 21
410.0715894510028
 31
0.0
  0
LINE
  5
4F6E
330
1F
100
AcDbEntity
  8
AM_VIS
100
AcDbLine
 10
780.2887655676134
 20
410.0715894510028
 30
0.0
 11
785.2887655676135
 21
410.0715894510028
 31
0.0
  0
LINE
  5
4F6F
330
1F
100
AcDbEntity
  8
AM_VIS
100
AcDbLine
 10
779.7887655676134
 20
410.0715894510029
 30
0.0
 11
780.2887655676134
 21
409.5715894510028
 31
0.0
  0
LINE
  5
4F70
330
1F
100
AcDbEntity
  8
AM_VIS
100
AcDbLine
 10
785.2887655676135
 20
410.0715894510028
 30
0.0
 11
787.7887655676135
 21
410.0715894510028
 31
0.0
  0
LINE
  5
4F71
330
1F
100
AcDbEntity
  8
AM_VIS
100
AcDbLine
 10
834.7887655676132
 20
410.0715894510028
 30
0.0
 11
837.2887655676132
 21
410.0715894510028
 31
0.0
  0
LINE
  5
4F72
330
1F
100
AcDbEntity
  8
AM_VIS
100
AcDbLine
 10
834.7887655676132
 20
410.0715894510028
 30
0.0
 11
834.9958723487997
 21
410.5715894510028
 31
0.0
  0
LINE
  5
4F73
330
1F
100
AcDbEntity
  8
AM_VIS
100
AcDbLine
 10
823.9887655676133
 20
410.0715894510028
 30
0.0
 11
834.7887655676132
 21
410.0715894510028
 31
0.0
  0
LINE
  5
4F74
330
1F
100
AcDbEntity
  8
AM_VIS
100
AcDbLine
 10
799.8387655676133
 20
410.0715894510028
 30
0.0
 11
800.7387655676133
 21
410.0715894510028
 31
0.0
  0
LINE
  5
4F75
330
1F
100
AcDbEntity
  8
AM_VIS
100
AcDbLine
 10
821.8387655676133
 20
410.0715894510028
 30
0.0
 11
822.7387655676134
 21
410.0715894510028
 31
0.0
  0
LINE
  5
4F76
330
1F
100
AcDbEntity
  8
AM_VIS
100
AcDbLine
 10
803.7887655676133
 20
410.0715894510028
 30
0.0
 11
806.2887655676133
 21
410.0715894510028
 31
0.0
  0
LINE
  5
4F77
330
1F
100
AcDbEntity
  8
AM_VIS
100
AcDbLine
 10
820.6144225676133
 20
410.0715894510028
 30
0.0
 11
821.1144225676132
 21
410.5715894510028
 31
0.0
  0
LINE
  5
4F78
330
1F
100
AcDbEntity
  8
AM_VIS
100
AcDbLine
 10
818.7887655676135
 20
410.0715894510028
 30
0.0
 11
820.6144225676133
 21
410.0715894510028
 31
0.0
  0
LINE
  5
4F79
330
1F
100
AcDbEntity
  8
AM_VIS
100
AcDbLine
 10
806.4958723487999
 20
410.5715894510028
 30
0.0
 11
806.2887655676133
 21
410.0715894510028
 31
0.0
  0
LINE
  5
4F7A
330
1F
100
AcDbEntity
  8
AM_VIS
100
AcDbLine
 10
806.2887655676133
 20
410.0715894510028
 30
0.0
 11
816.2887655676133
 21
410.0715894510028
 31
0.0
  0
LINE
  5
4F7B
330
1F
100
AcDbEntity
  8
AM_VIS
100
AcDbLine
 10
818.7887655676135
 20
410.0715894510028
 30
0.0
 11
818.5816587864268
 21
410.5715894510028
 31
0.0
  0
LINE
  5
4F7C
330
1F
100
AcDbEntity
  8
AM_VIS
100
AcDbLine
 10
816.2887655676133
 20
410.0715894510028
 30
0.0
 11
818.7887655676135
 21
410.0715894510028
 31
0.0
  0
LINE
  5
4F7D
330
1F
100
AcDbEntity
  8
AM_VIS
100
AcDbLine
 10
816.0816587864268
 20
410.5715894510028
 30
0.0
 11
816.2887655676133
 21
410.0715894510028
 31
0.0
  0
LINE
  5
4F7E
330
1F
100
AcDbEntity
  8
AM_VIS
100
AcDbLine
 10
803.7887655676133
 20
410.0715894510028
 30
0.0
 11
803.9958723487998
 21
410.5715894510028
 31
0.0
  0
LINE
  5
4F7F
330
1F
100
AcDbEntity
  8
AM_VIS
100
AcDbLine
 10
801.9887655676132
 20
410.0715894510028
 30
0.0
 11
803.7887655676133
 21
410.0715894510028
 31
0.0
  0
LINE
  5
4F80
330
1F
100
AcDbEntity
  8
AM_VIS
100
AcDbLine
 10
801.4887655676133
 20
410.5715894510028
 30
0.0
 11
801.9887655676132
 21
410.0715894510028
 31
0.0
  0
LINE
  5
4F81
330
1F
100
AcDbEntity
  8
AM_VIS
100
AcDbLine
 10
823.9887655676133
 20
410.0715894510028
 30
0.0
 11
823.4887655676132
 21
410.5715894510028
 31
0.0
  0
LINE
  5
4F82
330
1F
100
AcDbEntity
  8
AM_VIS
100
AcDbLine
 10
798.6144225676134
 20
410.0715894510028
 30
0.0
 11
799.1144225676134
 21
410.5715894510028
 31
0.0
  0
LINE
  5
4F83
330
1F
100
AcDbEntity
  8
AM_VIS
100
AcDbLine
 10
787.7887655676135
 20
410.0715894510028
 30
0.0
 11
798.6144225676134
 21
410.0715894510028
 31
0.0
  0
LINE
  5
4F84
330
1F
100
AcDbEntity
  8
AM_VIS
100
AcDbLine
 10
787.5816587864269
 20
410.5715894510028
 30
0.0
 11
787.7887655676135
 21
410.0715894510028
 31
0.0
  0
LINE
  5
4F85
330
1F
100
AcDbEntity
  8
AM_VIS
100
AcDbLine
 10
837.7887655676135
 20
410.5715894510028
 30
0.0
 11
837.2887655676132
 21
410.0715894510028
 31
0.0
  0
LINE
  5
4F86
330
1F
100
AcDbEntity
  8
AM_VIS
100
AcDbLine
 10
785.2887655676135
 20
410.0715894510028
 30
0.0
 11
784.7887655676134
 21
410.5715894510028
 31
0.0
  0
LINE
  5
4F87
330
1F
100
AcDbEntity
  8
AM_VIS
100
AcDbLine
 10
799.8387655676133
 20
319.5715894510029
 30
0.0
 11
798.6144225676134
 21
319.5715894510029
 31
0.0
  0
LINE
  5
4F88
330
1F
100
AcDbEntity
  8
AM_VIS
100
AcDbLine
 10
801.9887655676132
 20
319.5715894510029
 30
0.0
 11
800.7387655676133
 21
319.5715894510029
 31
0.0
  0
LINE
  5
4F89
330
1F
100
AcDbEntity
  8
AM_VIS
100
AcDbLine
 10
821.8387655676133
 20
319.5715894510029
 30
0.0
 11
820.6144225676133
 21
319.5715894510029
 31
0.0
  0
LINE
  5
4F8A
330
1F
100
AcDbEntity
  8
AM_VIS
100
AcDbLine
 10
823.9887655676133
 20
319.5715894510029
 30
0.0
 11
822.7387655676134
 21
319.5715894510029
 31
0.0
  0
LINE
  5
4F8B
330
1F
100
AcDbEntity
  8
AM_VIS
100
AcDbLine
 10
798.6144225676134
 20
410.0715894510028
 30
0.0
 11
799.8387655676133
 21
410.0715894510028
 31
0.0
  0
LINE
  5
4F8C
330
1F
100
AcDbEntity
  8
AM_VIS
100
AcDbLine
 10
822.7387655676134
 20
410.0715894510028
 30
0.0
 11
823.9887655676133
 21
410.0715894510028
 31
0.0
  0
LINE
  5
4F8D
330
1F
100
AcDbEntity
  8
AM_VIS
100
AcDbLine
 10
800.7387655676133
 20
410.0715894510028
 30
0.0
 11
801.9887655676132
 21
410.0715894510028
 31
0.0
  0
LINE
  5
4F8E
330
1F
100
AcDbEntity
  8
AM_VIS
100
AcDbLine
 10
820.6144225676133
 20
410.0715894510028
 30
0.0
 11
821.8387655676133
 21
410.0715894510028
 31
0.0
  0
ENDSEC
  0
SECTION
  2
OBJECTS
  0
DICTIONARY
  5
C
330
0
100
AcDbDictionary
281
     1
  3
ACAD_COLOR
350
BE
  3
ACAD_GROUP
350
D
  3
ACAD_LAYOUT
350
1A
  3
ACAD_MATERIAL
350
BD
  3
ACAD_MLINESTYLE
350
17
  3
ACAD_PLOTSETTINGS
350
19
  3
ACAD_PLOTSTYLENAME
350
E
  3
ACAD_TABLESTYLE
350
11A
  3
ACDBHEADERROUNDTRIPXREC
350
4F9D
  3
AcDbVariableDictionary
350
94
  3
AcmDictionary
350
5B
  3
AMG
350
41
  3
AMGSNAPSETTINGS
350
1B8
  3
DWGPROPS
350
4F9C
  3
MAPISURF_MODULE
350
449C
  0
DICTIONARY
  5
3F9
330
2
100
AcDbDictionary
280
     1
281
     1
  3
ACAD_LAYERFILTERS
360
1E0D
  3
ACAD_LAYERSTATES
360
B61
  3
ACLYDICTIONARY
360
1E0C
  0
DICTIONARY
  5
8F
330
1F
100
AcDbDictionary
280
     1
281
     1
  3
ACAD_INDEX
360
4F32
  0
DICTIONARY
  5
3FBD
330
3FBC
100
AcDbDictionary
280
     1
281
     1
  3
ACAD_DIMASSOC
360
3FBE
  0
DICTIONARY
  5
3FC4
330
3FC3
100
AcDbDictionary
280
     1
281
     1
  3
ACAD_DIMASSOC
360
3FC5
  0
DICTIONARY
  5
4047
330
4046
100
AcDbDictionary
280
     1
281
     1
  3
ACAD_DIMASSOC
360
4048
  0
DICTIONARY
  5
407A
330
4079
100
AcDbDictionary
280
     1
281
     1
  3
ACAD_DIMASSOC
360
407B
  0
DICTIONARY
  5
407D
330
407C
100
AcDbDictionary
280
     1
281
     1
  3
ACAD_DIMASSOC
360
407E
  0
DICTIONARY
  5
4082
330
4081
100
AcDbDictionary
280
     1
281
     1
  3
ACAD_DIMASSOC
360
4083
  0
DICTIONARY
  5
4085
330
4084
100
AcDbDictionary
280
     1
281
     1
  3
ACAD_DIMASSOC
360
4086
  0
DICTIONARY
  5
4088
330
4087
100
AcDbDictionary
280
     1
281
     1
  3
ACAD_DIMASSOC
360
4089
  0
DICTIONARY
  5
BE
102
{ACAD_REACTORS
330
C
102
}
330
C
100
AcDbDictionary
281
     1
  0
DICTIONARY
  5
D
102
{ACAD_REACTORS
330
C
102
}
330
C
100
AcDbDictionary
281
     1
  0
DICTIONARY
  5
1A
102
{ACAD_REACTORS
330
C
102
}
330
C
100
AcDbDictionary
281
     1
  3
Model
350
22
  3
配置1
350
1E
  3
配置2
350
26
  0
DICTIONARY
  5
BD
102
{ACAD_REACTORS
330
C
102
}
330
C
100
AcDbDictionary
281
     1
  0
DICTIONARY
  5
17
102
{ACAD_REACTORS
330
C
102
}
330
C
100
AcDbDictionary
281
     1
  3
Standard
350
18
  0
DICTIONARY
  5
19
102
{ACAD_REACTORS
330
C
102
}
330
C
100
AcDbDictionary
281
     1
  0
ACDBDICTIONARYWDFLT
  5
E
102
{ACAD_REACTORS
330
C
102
}
330
C
100
AcDbDictionary
281
     1
  3
Normal
350
F
100
AcDbDictionaryWithDefault
340
F
  0
DICTIONARY
  5
11A
102
{ACAD_REACTORS
330
C
102
}
330
C
100
AcDbDictionary
281
     1
  3
Standard
350
11B
  0
DICTIONARY
  5
4F9D
102
{ACAD_REACTORS
330
C
102
}
330
C
100
AcDbDictionary
281
     1
  0
DICTIONARY
  5
94
102
{ACAD_REACTORS
330
C
102
}
330
C
100
AcDbDictionary
281
     1
  3
CTABLESTYLE
350
138
  3
DIMASSOC
350
96
  3
INDEXCTL
350
95
  3
PROJECTNAME
350
27A8
  0
DICTIONARY
  5
5B
102
{ACAD_REACTORS
330
C
102
}
330
C
100
AcDbDictionary
281
     1
  3
AcmBOM
350
1B5
  3
AcmStdDictionary
350
61
  3
AMDTSECTSYM_ARROWCOLOR
350
123
  0
DICTIONARY
  5
41
102
{ACAD_REACTORS
330
C
102
}
330
C
100
AcDbDictionary
281
     1
  3
AcMgSettings
350
4416
  0
DICTIONARY
  5
1B8
102
{ACAD_REACTORS
330
C
102
}
330
C
100
AcDbDictionary
281
     1
  0
XRECORD
  5
4F9C
102
{ACAD_REACTORS
330
C
102
}
330
C
100
AcDbXrecord
280
     1
  1
DWGPROPS COOKIE
  2

  3

  4

  6

  7

  8

  9

300
AmdtFileType=84
301
=
302
=
303
=
304
=
305
=
306
=
307
=
308
=
309
=
 40
0.0709502199074074
 41
2454041.635008137
 42
2457039.621179827
  1

 90
        1
  0
DICTIONARY
  5
1E0D
102
{ACAD_REACTORS
330
3F9
102
}
330
3F9
100
AcDbDictionary
281
     1
  0
DICTIONARY
  5
B61
102
{ACAD_REACTORS
330
3F9
102
}
330
3F9
100
AcDbDictionary
281
     1
  0
DICTIONARY
  5
1E0C
102
{ACAD_REACTORS
330
3F9
102
}
330
3F9
100
AcDbDictionary
281
     1
1001
ACAD
1000
<All
  0
DICTIONARY
  5
4F32
102
{ACAD_REACTORS
330
8F
102
}
330
8F
100
AcDbDictionary
281
     1
  3
*A1
350
4F33
  0
DIMASSOC
  5
3FBE
102
{ACAD_REACTORS
330
3FBD
102
}
330
3FBD
100
AcDbDimAssoc
330
3FBC
 90
        2
 70
     0
 71
     0
  1
AcDbOsnapPointRef
 72
     6
331
3E9D
 73
     0
 91
        0
 40
0.9999999999999349
 10
0.0
 20
0.0
 30
0.0
332
3E9E
 74
     0
 92
        0
 75
     0
  0
DIMASSOC
  5
3FC5
102
{ACAD_REACTORS
330
3FC4
102
}
330
3FC4
100
AcDbDimAssoc
330
3FC3
 90
        2
 70
     0
 71
     0
  1
AcDbOsnapPointRef
 72
     1
331
3E06
 73
     0
 91
        0
 40
0.0
 10
0.0
 20
0.0
 30
2.000000000000000E+50
 75
     0
  0
DIMASSOC
  5
4048
102
{ACAD_REACTORS
330
4047
102
}
330
4047
100
AcDbDimAssoc
330
4046
 90
        1
 70
     0
 71
     0
  1
AcDbOsnapPointRef
 72
    13
331
4042
 73
     0
 91
        0
 40
0.0
 10
0.0
 20
0.0
 30
2.000000000000000E+50
 75
     0
  0
DIMASSOC
  5
407B
102
{ACAD_REACTORS
330
407A
102
}
330
407A
100
AcDbDimAssoc
330
4079
 90
        3
 70
     0
 71
     0
  1
AcDbOsnapPointRef
 72
     1
331
3FFA
 73
     0
 91
        0
 40
0.0
 10
0.0
 20
0.0
 30
2.000000000000000E+50
 75
     0
  1
AcDbOsnapPointRef
 72
     1
331
405F
 73
     0
 91
        0
 40
0.0
 10
0.0
 20
0.0
 30
2.000000000000000E+50
 75
     0
  0
DIMASSOC
  5
407E
102
{ACAD_REACTORS
330
407D
102
}
330
407D
100
AcDbDimAssoc
330
407C
 90
        3
 70
     0
 71
     0
  1
AcDbOsnapPointRef
 72
     1
331
3E81
 73
     0
 91
        0
 40
0.0
 10
0.0
 20
0.0
 30
2.000000000000000E+50
 75
     0
  1
AcDbOsnapPointRef
 72
     1
331
3E14
 73
     0
 91
        0
 40
0.0
 10
0.0
 20
0.0
 30
2.000000000000000E+50
 75
     0
  0
DIMASSOC
  5
4083
102
{ACAD_REACTORS
330
4082
102
}
330
4082
100
AcDbDimAssoc
330
4081
 90
        1
 70
     0
 71
     0
  1
AcDbOsnapPointRef
 72
    13
331
3DF9
 73
     0
 91
        0
 40
0.0
 10
0.0
 20
0.0
 30
2.000000000000000E+50
 75
     0
  0
DIMASSOC
  5
4086
102
{ACAD_REACTORS
330
4085
102
}
330
4085
100
AcDbDimAssoc
330
4084
 90
        1
 70
     0
 71
     0
  1
AcDbOsnapPointRef
 72
    13
331
3DF9
 73
     0
 91
        0
 40
0.0
 10
0.0
 20
0.0
 30
2.000000000000000E+50
 75
     0
  0
DIMASSOC
  5
4089
102
{ACAD_REACTORS
330
4088
102
}
330
4088
100
AcDbDimAssoc
330
4087
 90
        3
 70
     0
 71
     0
  1
AcDbOsnapPointRef
 72
     1
331
3E0E
 73
     0
 91
        0
 40
0.0
 10
0.0
 20
0.0
 30
2.000000000000000E+50
 75
     0
  1
AcDbOsnapPointRef
 72
     1
331
3E0D
 73
     0
 91
        0
 40
0.0
 10
0.0
 20
0.0
 30
2.000000000000000E+50
 75
     0
  0
LAYOUT
  5
22
102
{ACAD_XDICTIONARY
360
4FA0
102
}
102
{ACAD_REACTORS
330
1A
102
}
330
1A
100
AcDbPlotSettings
  1

  2
\\RD\EPSON Stylus C63 Series單色
  4
A4
  6

 40
3.757083177566528
 41
3.757076978683471
 42
3.757080078125
 43
3.757080078125
 44
209.9733276367187
 45
296.9683227539062
 46
0.0
 47
0.0
 48
0.0
 49
0.0
140
0.0
141
0.0
142
1.0
143
0.3405120737814363
 70
 11952
 72
     1
 73
     0
 74
     0
  7
彩色出圖.ctb
 75
     0
147
2.936753428137963
148
-2047.07469463503
149
-1261.649717473083
100
AcDbLayout
  1
Model
 70
     1
 71
     0
 10
0.0
 20
0.0
 11
12.0
 21
9.0
 12
0.0
 22
0.0
 32
0.0
 14
0.0
 24
0.0
 34
0.0
 15
0.0
 25
0.0
 35
0.0
146
0.0
 13
0.0
 23
0.0
 33
0.0
 16
1.0
 26
0.0
 36
0.0
 17
0.0
 27
1.0
 37
0.0
 76
     0
330
1F
1001
ACAD_PSEXT
1000
\\RD\EPSON Stylus C63 Series單色
1000
EPSON Stylus C63 Series
1000
\\RD
1000

1070
     0
  0
LAYOUT
  5
1E
102
{ACAD_XDICTIONARY
360
4F9E
102
}
102
{ACAD_REACTORS
330
1A
102
}
330
1A
100
AcDbPlotSettings
  1

  2

  4

  6

 40
0.0
 41
0.0
 42
0.0
 43
0.0
 44
0.0
 45
0.0
 46
0.0
 47
0.0
 48
0.0
 49
0.0
140
0.0
141
0.0
142
1.0
143
1.0
 70
   688
 72
     0
 73
     0
 74
     5
  7
彩色出圖.ctb
 75
    16
147
1.0
148
0.0
149
0.0
100
AcDbLayout
  1
配置1
 70
     1
 71
     1
 10
0.0
 20
0.0
 11
420.0
 21
297.0
 12
0.0
 22
0.0
 32
0.0
 14
1.000000000000000E+20
 24
1.000000000000000E+20
 34
1.000000000000000E+20
 15
-1.000000000000000E+20
 25
-1.000000000000000E+20
 35
-1.000000000000000E+20
146
0.0
 13
0.0
 23
0.0
 33
0.0
 16
1.0
 26
0.0
 36
0.0
 17
0.0
 27
1.0
 37
0.0
 76
     0
330
1B
  0
LAYOUT
  5
26
102
{ACAD_XDICTIONARY
360
4FA2
102
}
102
{ACAD_REACTORS
330
1A
102
}
330
1A
100
AcDbPlotSettings
  1

  2

  4

  6

 40
0.0
 41
0.0
 42
0.0
 43
0.0
 44
0.0
 45
0.0
 46
0.0
 47
0.0
 48
0.0
 49
0.0
140
0.0
141
0.0
142
1.0
143
1.0
 70
   688
 72
     0
 73
     0
 74
     5
  7
彩色出圖.ctb
 75
    16
147
1.0
148
0.0
149
0.0
100
AcDbLayout
  1
配置2
 70
     1
 71
     2
 10
0.0
 20
0.0
 11
12.0
 21
9.0
 12
0.0
 22
0.0
 32
0.0
 14
0.0
 24
0.0
 34
0.0
 15
0.0
 25
0.0
 35
0.0
146
0.0
 13
0.0
 23
0.0
 33
0.0
 16
1.0
 26
0.0
 36
0.0
 17
0.0
 27
1.0
 37
0.0
 76
     0
330
23
  0
MLINESTYLE
  5
18
102
{ACAD_REACTORS
330
17
102
}
330
17
100
AcDbMlineStyle
  2
STANDARD
 70
     0
  3

 62
   256
 51
90.0
 52
90.0
 71
     2
 49
0.5
 62
   256
  6
BYLAYER
 49
-0.5
 62
   256
  6
BYLAYER
  0
ACDBPLACEHOLDER
  5
F
102
{ACAD_REACTORS
330
E
102
}
330
E
  0
TABLESTYLE
  5
11B
102
{ACAD_REACTORS
330
11A
102
}
330
11A
100
AcDbTableStyle
  3
Standard
 70
     0
 71
     0
 40
1.5
 41
1.5
280
     0
281
     0
  7
STANDARD
140
4.5
170
     2
 62
     0
 63
     7
283
     0
274
    -2
284
     1
 64
     0
275
    -2
285
     1
 65
     0
276
    -2
286
     1
 66
     0
277
    -2
287
     1
 67
     0
278
    -2
288
     1
 68
     0
279
    -2
289
     1
 69
     0
  7
STANDARD
140
6.0
170
     5
 62
     0
 63
     7
283
     0
274
    -2
284
     1
 64
     0
275
    -2
285
     1
 65
     0
276
    -2
286
     1
 66
     0
277
    -2
287
     1
 67
     0
278
    -2
288
     1
 68
     0
279
    -2
289
     1
 69
     0
  7
STANDARD
140
4.5
170
     5
 62
     0
 63
     7
283
     0
274
    -2
284
     1
 64
     0
275
    -2
285
     1
 65
     0
276
    -2
286
     1
 66
     0
277
    -2
287
     1
 67
     0
278
    -2
288
     1
 68
     0
279
    -2
289
     1
 69
     0
  0
DICTIONARYVAR
  5
138
102
{ACAD_REACTORS
330
94
102
}
330
94
100
DictionaryVariables
280
     0
  1
STANDARD
  0
DICTIONARYVAR
  5
96
102
{ACAD_REACTORS
330
94
102
}
330
94
100
DictionaryVariables
280
     0
  1
2
  0
DICTIONARYVAR
  5
95
102
{ACAD_REACTORS
330
94
102
}
330
94
100
DictionaryVariables
280
     0
  1
1
  0
DICTIONARYVAR
  5
27A8
102
{ACAD_REACTORS
330
94
102
}
330
94
100
DictionaryVariables
280
     0
  1

  0
DICTIONARY
  5
1B5
102
{ACAD_REACTORS
330
5B
102
}
330
5B
100
AcDbDictionary
281
     1
  0
DICTIONARY
  5
61
102
{ACAD_REACTORS
330
5B
102
}
330
5B
100
AcDbDictionary
281
     1
  0
XRECORD
  5
123
102
{ACAD_REACTORS
330
5B
102
}
330
5B
100
AcDbXrecord
280
     1
 90
-1023410169
  0
DICTIONARY
  5
4416
102
{ACAD_REACTORS
330
41
102
}
330
41
100
AcDbDictionary
281
     1
  3
DWGSETTINGS
350
4417
  3
TRANSSETTINGS
350
441A
  0
LAYER_INDEX
  5
4F33
102
{ACAD_REACTORS
330
4F32
102
}
330
4F32
100
AcDbIndex
 40
2457039.621179827
100
AcDbLayerIndex
  8
0
360
4F34
 90
      304
  8
Defpoints
360
4F35
 90
        0
  8
AM_5
360
4F36
 90
       23
  8
LOGO
360
4F37
 90
      103
  8
CENTER
360
4F38
 90
      116
  8
HIDDEN
360
4F39
 90
       29
  8
假想
360
4F3A
 90
       58
  8
AM_VIS
360
4F3B
 90
      227
  0
DICTIONARY
  5
4FA0
330
22
100
AcDbDictionary
280
     1
281
     1
  3
ACAD_XREC_ROUNDTRIP
360
4FA1
  0
DICTIONARY
  5
4F9E
330
1E
100
AcDbDictionary
280
     1
281
     1
  3
ACAD_XREC_ROUNDTRIP
360
4F9F
  0
DICTIONARY
  5
4FA2
330
26
100
AcDbDictionary
280
     1
281
     1
  3
ACAD_XREC_ROUNDTRIP
360
4FA3
  0
IDBUFFER
  5
4F34
330
0
100
AcDbIdBuffer
330
26C3
330
26C4
330
26C5
330
3DE8
330
3DEE
330
3DF1
330
3DF2
330
3DF3
330
3DF7
330
3DF8
330
3E09
330
3E0A
330
3E0B
330
3E0C
330
3E45
330
3E47
330
3E49
330
3E4A
330
3E4B
330
3E64
330
3E65
330
3E66
330
3E67
330
3E7E
330
3E83
330
3E85
330
3E8B
330
3E8C
330
3E94
330
3E97
330
3E98
330
3E99
330
3E9B
330
3E9C
330
3E9D
330
3E9E
330
3E9F
330
3EA2
330
3EA3
330
3EA4
330
3EA5
330
3EA6
330
3EA7
330
3EA8
330
3EA9
330
3EAC
330
3EAD
330
3EAE
330
3EAF
330
3EB0
330
3EB1
330
3EB2
330
3EB3
330
3EB4
330
3EB5
330
3EB6
330
3EB7
330
3EB8
330
3EB9
330
3EBA
330
3EBB
330
3EBC
330
3EBD
330
3ECC
330
3ECF
330
3ED1
330
3ED2
330
3ED3
330
3ED4
330
3ED5
330
3ED6
330
3ED8
330
3ED9
330
3EDA
330
3EDB
330
3EDC
330
3EDD
330
3EDE
330
3EDF
330
3EE0
330
3EE1
330
3EE2
330
3EE3
330
3EE4
330
3EE5
330
3EED
330
3EEE
330
3EEF
330
3EF0
330
3EF1
330
3EF2
330
3EF3
330
3EF4
330
3EF5
330
3EF6
330
3EF7
330
3EF8
330
3EF9
330
3EFA
330
3EFB
330
3EFC
330
3EFD
330
3EFE
330
3EFF
330
3F00
330
3F01
330
3F02
330
3F03
330
3F04
330
3F05
330
3F06
330
3F07
330
3F08
330
3F09
330
3F0A
330
3F0B
330
3F0D
330
3F0E
330
3F16
330
3F1E
330
3F1F
330
3F20
330
3F21
330
3F23
330
3F24
330
3F26
330
3F27
330
3F28
330
3F29
330
3F2A
330
3F2B
330
3F33
330
3F35
330
3F38
330
3F39
330
3F3A
330
3F3B
330
3F3D
330
3F43
330
3F44
330
3F4C
330
3F4D
330
3F51
330
3F52
330
3F53
330
3F54
330
3F55
330
3F56
330
3F57
330
3F58
330
3F59
330
3F5A
330
3F5B
330
3F5C
330
3F5D
330
3F5E
330
3F5F
330
3F60
330
3F61
330
3F62
330
3F63
330
3F64
330
3F65
330
3F66
330
3F67
330
3F68
330
3F69
330
3F72
330
3F74
330
3F75
330
3F76
330
3F7E
330
3F7F
330
3F82
330
3F83
330
3F84
330
3F85
330
3F8C
330
3F8D
330
3F8E
330
3F8F
330
3F90
330
3F91
330
3F92
330
3F93
330
3F97
330
3F99
330
3F9A
330
3F9B
330
3F9C
330
3F9F
330
3FA6
330
3FA8
330
3FAE
330
3FC6
330
3FCC
330
3FCE
330
3FCF
330
3FD0
330
3FD3
330
3FD4
330
3FD5
330
3FD6
330
3FD7
330
3FD8
330
3FD9
330
3FDA
330
3FDB
330
3FDC
330
3FDD
330
3FDE
330
3FDF
330
3FE0
330
3FE1
330
3FE2
330
3FE3
330
3FE4
330
3FE5
330
3FE6
330
3FE7
330
3FE8
330
3FE9
330
3FEA
330
3FEB
330
3FEC
330
3FED
330
3FEE
330
3FEF
330
3FF0
330
3FF1
330
3FF2
330
3FF3
330
3FF4
330
3FF5
330
3FF6
330
3FF7
330
3FF8
330
3FF9
330
4000
330
4001
330
4002
330
4003
330
4004
330
4005
330
4006
330
4007
330
4009
330
400A
330
400B
330
400C
330
401C
330
401D
330
401E
330
401F
330
4020
330
4021
330
4022
330
4023
330
4024
330
4025
330
4026
330
4027
330
4028
330
4029
330
4032
330
4033
330
4034
330
4035
330
4036
330
4037
330
4038
330
4039
330
403A
330
403B
330
403C
330
403D
330
403E
330
403F
330
4040
330
4041
330
4042
330
4043
330
4044
330
4045
330
404C
330
404D
330
404E
330
404F
330
4050
330
4051
330
4052
330
4053
330
4054
330
4055
330
4056
330
4057
330
4058
330
4059
330
405A
330
405B
330
405C
330
405D
330
4F08
330
4F09
  0
IDBUFFER
  5
4F35
330
0
100
AcDbIdBuffer
  0
IDBUFFER
  5
4F36
330
0
100
AcDbIdBuffer
330
3E07
330
3FB6
330
3FB9
330
3FBA
330
3FBB
330
3FBC
330
3FBF
330
3FC0
330
3FC2
330
3FC3
330
4046
330
4049
330
404A
330
404B
330
4079
330
407C
330
407F
330
4080
330
4081
330
4084
330
4087
330
408A
330
408B
  0
IDBUFFER
  5
4F37
330
0
100
AcDbIdBuffer
330
262E
330
262F
330
2630
330
2631
330
2632
330
2633
330
2634
330
2635
330
2636
330
2637
330
2638
330
2639
330
263A
330
263B
330
263C
330
263D
330
263E
330
263F
330
2640
330
2641
330
2642
330
2643
330
2644
330
2645
330
2646
330
2647
330
2648
330
2649
330
264A
330
264B
330
264C
330
2650
330
2654
330
2655
330
2659
330
265A
330
265B
330
265C
330
265D
330
265E
330
265F
330
2660
330
2664
330
2668
330
266C
330
266D
330
266E
330
2672
330
2673
330
2674
330
2675
330
2676
330
2677
330
2678
330
2679
330
267A
330
267B
330
267C
330
267D
330
267E
330
267F
330
2680
330
2681
330
2682
330
2683
330
2684
330
2685
330
2686
330
2687
330
2688
330
2689
330
268A
330
2696
330
2697
330
2698
330
2699
330
269A
330
269B
330
269C
330
269D
330
269E
330
269F
330
26A0
330
26A1
330
26A2
330
26A3
330
26A4
330
26A5
330
26A6
330
26A7
330
26A8
330
26A9
330
26AA
330
26AD
330
26AE
330
26AF
330
26B0
330
26BD
330
26BE
330
26BF
330
26C0
330
26C1
330
26C2
  0
IDBUFFER
  5
4F38
330
0
100
AcDbIdBuffer
330
4F3D
330
4F3E
330
4F3F
330
4F40
330
4F41
330
4F42
330
4F43
330
4F44
330
4F45
330
4F46
330
4F47
330
4F48
330
4F49
330
4F4A
330
4F4B
330
4F4C
330
4F4D
330
4F4E
330
4F4F
330
4F50
330
4F51
330
4F52
330
4F53
330
4F54
330
3DEB
330
3DED
330
3DF0
330
3DF9
330
3E06
330
3E08
330
3E0D
330
3E0E
330
3E12
330
3E13
330
3E14
330
3E15
330
3E16
330
3E28
330
3E29
330
3E2A
330
3E2B
330
3E48
330
3E4C
330
3E7D
330
3E7F
330
3E80
330
3E81
330
3E82
330
3E84
330
3E86
330
3E87
330
3E88
330
3E89
330
3E8A
330
3E8D
330
3E95
330
3E96
330
3EBE
330
3EC1
330
3EC2
330
3EC5
330
3EC9
330
3ECA
330
3ECB
330
3ECE
330
3ED0
330
3ED7
330
3F0C
330
3F17
330
3F18
330
3F19
330
3F1A
330
3F1B
330
3F1C
330
3F1D
330
3F36
330
3F37
330
3F3C
330
3F3E
330
3F3F
330
3F40
330
3F41
330
3F42
330
3F4E
330
3F4F
330
3F50
330
3F6A
330
3F6B
330
3F6C
330
3F6E
330
3F6F
330
3F70
330
3F71
330
3F73
330
3F80
330
3F81
330
3F9D
330
3F9E
330
3FA0
330
3FA1
330
3FA2
330
3FA3
330
3FA4
330
3FA5
330
3FA7
330
3FA9
330
3FAA
330
3FAB
330
3FAC
330
3FAD
330
3FB4
330
3FC9
330
3FCB
330
3FFA
330
400D
330
405F
  0
IDBUFFER
  5
4F39
330
0
100
AcDbIdBuffer
330
3DE9
330
3DEA
330
3DEC
330
3DEF
330
3F22
330
3F25
330
3F2C
330
3F2D
330
3F2E
330
3F2F
330
3F30
330
3F31
330
3F32
330
3F34
330
3F6D
330
3F86
330
3F87
330
3F88
330
3F89
330
3F8A
330
3F8B
330
3F94
330
3F95
330
3F96
330
3F98
330
3FC7
330
3FC8
330
3FCA
330
3FCD
  0
IDBUFFER
  5
4F3A
330
0
100
AcDbIdBuffer
330
3DF4
330
3DF5
330
3DFF
330
3E00
330
3E01
330
3E03
330
3E04
330
3E9A
330
3EA0
330
3EA1
330
3EAA
330
3EAB
330
3ECD
330
3FAF
330
3FB0
330
3FB1
330
3FB2
330
3FB3
330
3FB5
330
3FFB
330
3FFC
330
3FFD
330
3FFE
330
3FFF
330
402A
330
402B
330
402C
330
402D
330
402E
330
402F
330
4030
330
4031
330
405E
330
4060
330
4061
330
4062
330
4063
330
4064
330
4065
330
4066
330
4067
330
4068
330
4069
330
406A
330
406B
330
406C
330
406D
330
406E
330
406F
330
4070
330
4071
330
4072
330
4073
330
4074
330
4075
330
4076
330
4077
330
4078
  0
IDBUFFER
  5
4F3B
330
0
100
AcDbIdBuffer
330
4D61
330
4D62
330
4D63
330
4D64
330
4D65
330
4D66
330
4D67
330
4D68
330
4D69
330
4D6A
330
4D6B
330
4D6C
330
4D6D
330
4D6E
330
4D6F
330
4D70
330
4D71
330
4D72
330
4D73
330
4D74
330
4D75
330
4D76
330
4D77
330
4D78
330
4D79
330
4D7A
330
4D7B
330
4D7C
330
4D7D
330
4D7E
330
4D7F
330
4D80
330
4D81
330
4D82
330
4D83
330
4D84
330
4D85
330
4D86
330
4D87
330
4D88
330
4D89
330
4D8A
330
4D8B
330
4D8C
330
4D8D
330
4D8E
330
4D8F
330
4D90
330
4D91
330
4D92
330
4D93
330
4D94
330
4D95
330
4D96
330
4D97
330
4D98
330
4D99
330
4D9A
330
4D9B
330
4D9C
330
4D9D
330
4D9E
330
4D9F
330
4DA0
330
4DA1
330
4DA2
330
4DA3
330
4DA4
330
4DA5
330
4DA6
330
4DA7
330
4DA8
330
4DA9
330
4DAA
330
4DAB
330
4DAC
330
4DAD
330
4DAE
330
4DAF
330
4DB0
330
4DB1
330
4DB2
330
4DB3
330
4DB4
330
4DB5
330
4DB6
330
4DB7
330
4DB8
330
4E59
330
4E5A
330
4E5B
330
4E5C
330
4E5D
330
4E5E
330
4E5F
330
4E60
330
4E61
330
4E62
330
4E63
330
4E64
330
4E65
330
4E66
330
4E67
330
4E68
330
4E69
330
4E6A
330
4E6B
330
4E6C
330
4E6D
330
4E6E
330
4E6F
330
4EC4
330
4EC5
330
4EC6
330
4EC7
330
4EC8
330
4EC9
330
4ECA
330
4ECB
330
4ECC
330
4ECD
330
4ECE
330
4ECF
330
4ED0
330
4ED1
330
4ED2
330
4ED3
330
4ED4
330
4ED5
330
4ED6
330
4ED7
330
4ED8
330
4ED9
330
4EDA
330
4EDB
330
4EDC
330
4EDD
330
4EDE
330
4EDF
330
4EE0
330
4EE1
330
4EE2
330
4EE3
330
4EE4
330
4EE5
330
4EE6
330
4EE7
330
4EE8
330
4EE9
330
4EEA
330
4EEB
330
4EEC
330
4EED
330
4EEE
330
4EEF
330
4EF0
330
4EF1
330
4EF2
330
4EF3
330
4EF4
330
4EF5
330
4EF9
330
4EFA
330
4EFB
330
4EFC
330
4EFD
330
4EFE
330
4EFF
330
4F00
330
4F55
330
4F56
330
4F57
330
4F58
330
4F59
330
4F5A
330
4F5B
330
4F5C
330
4F5D
330
4F5E
330
4F5F
330
4F60
330
4F61
330
4F62
330
4F63
330
4F64
330
4F65
330
4F66
330
4F67
330
4F68
330
4F69
330
4F6A
330
4F6B
330
4F6C
330
4F6D
330
4F6E
330
4F6F
330
4F70
330
4F71
330
4F72
330
4F73
330
4F74
330
4F75
330
4F76
330
4F77
330
4F78
330
4F79
330
4F7A
330
4F7B
330
4F7C
330
4F7D
330
4F7E
330
4F7F
330
4F80
330
4F81
330
4F82
330
4F83
330
4F84
330
4F85
330
4F86
330
4F87
330
4F88
330
4F89
330
4F8A
330
4F8B
330
4F8C
330
4F8D
330
4F8E
  0
XRECORD
  5
4FA1
102
{ACAD_REACTORS
330
4FA0
102
}
330
4FA0
100
AcDbXrecord
280
     1
102
SHADEPLOT
 70
     0
102
SHADEPLOTRESLEVEL
 70
     2
102
SHADEPLOTCUSTOMDPI
 70
   300
  0
XRECORD
  5
4F9F
102
{ACAD_REACTORS
330
4F9E
102
}
330
4F9E
100
AcDbXrecord
280
     1
102
SHADEPLOT
 70
     0
102
SHADEPLOTRESLEVEL
 70
     2
102
SHADEPLOTCUSTOMDPI
 70
   300
  0
XRECORD
  5
4FA3
102
{ACAD_REACTORS
330
4FA2
102
}
330
4FA2
100
AcDbXrecord
280
     1
102
SHADEPLOT
 70
     0
102
SHADEPLOTRESLEVEL
 70
     2
102
SHADEPLOTCUSTOMDPI
 70
   300
  0
ENDSEC
  0
EOF
