  0
SECTION
  2
HEADER
  9
$ACADVER
  1
AC1015
  9
$ACADMAINTVER
 70
    20
  9
$DWGCODEPAGE
  3
ANSI_950
  9
$INSBASE
 10
0.0
 20
0.0
 30
0.0
  9
$EXTMIN
 10
1477.964306586221
 20
313.9134964833686
 30
-0.016377466401309
  9
$EXTMAX
 10
1857.674531681612
 20
858.8357641191651
 30
268.357073459297
  9
$LIMMIN
 10
0.0
 20
0.0
  9
$LIMMAX
 10
420.0
 20
297.0
  9
$ORTHOMODE
 70
     0
  9
$REGENMODE
 70
     1
  9
$FILLMODE
 70
     1
  9
$QTEXTMODE
 70
     0
  9
$MIRRTEXT
 70
     1
  9
$LTSCALE
 40
1.0
  9
$ATTMODE
 70
     1
  9
$TEXTSIZE
 40
3.5
  9
$TRACEWID
 40
1.0
  9
$TEXTSTYLE
  7
STANDARD
  9
$CLAYER
  8
0
  9
$CELTYPE
  6
ByLayer
  9
$CECOLOR
 62
   256
  9
$CELTSCALE
 40
1.0
  9
$DISPSILH
 70
     0
  9
$DIMSCALE
 40
1.0
  9
$DIMASZ
 40
3.0
  9
$DIMEXO
 40
1.0
  9
$DIMDLI
 40
10.0
  9
$DIMRND
 40
0.0
  9
$DIMDLE
 40
0.0
  9
$DIMEXE
 40
1.5
  9
$DIMTP
 40
0.1
  9
$DIMTM
 40
0.1
  9
$DIMTXT
 40
3.5
  9
$DIMCEN
 40
3.0
  9
$DIMTSZ
 40
0.0
  9
$DIMTOL
 70
     0
  9
$DIMLIM
 70
     0
  9
$DIMTIH
 70
     0
  9
$DIMTOH
 70
     0
  9
$DIMSE1
 70
     0
  9
$DIMSE2
 70
     0
  9
$DIMTAD
 70
     1
  9
$DIMZIN
 70
     8
  9
$DIMBLK
  1

  9
$DIMASO
 70
     1
  9
$DIMSHO
 70
     1
  9
$DIMPOST
  1

  9
$DIMAPOST
  1
"
  9
$DIMALT
 70
     0
  9
$DIMALTD
 70
     2
  9
$DIMALTF
 40
0.0393701
  9
$DIMLFAC
 40
1.0
  9
$DIMTOFL
 70
     1
  9
$DIMTVP
 40
0.0
  9
$DIMTIX
 70
     0
  9
$DIMSOXD
 70
     0
  9
$DIMSAH
 70
     0
  9
$DIMBLK1
  1

  9
$DIMBLK2
  1

  9
$DIMSTYLE
  2
AM_ISO
  9
$DIMCLRD
 70
   256
  9
$DIMCLRE
 70
   256
  9
$DIMCLRT
 70
   256
  9
$DIMTFAC
 40
0.71
  9
$DIMGAP
 40
0.8
  9
$DIMJUST
 70
     0
  9
$DIMSD1
 70
     0
  9
$DIMSD2
 70
     0
  9
$DIMTOLJ
 70
     1
  9
$DIMTZIN
 70
     0
  9
$DIMALTZ
 70
     0
  9
$DIMALTTZ
 70
     0
  9
$DIMUPT
 70
     0
  9
$DIMDEC
 70
     4
  9
$DIMTDEC
 70
     8
  9
$DIMALTU
 70
     2
  9
$DIMALTTD
 70
     2
  9
$DIMTXSTY
  7
STANDARD
  9
$DIMAUNIT
 70
     0
  9
$DIMADEC
 70
     0
  9
$DIMALTRND
 40
0.0
  9
$DIMAZIN
 70
     0
  9
$DIMDSEP
 70
    46
  9
$DIMATFIT
 70
     3
  9
$DIMFRAC
 70
     0
  9
$DIMLDRBLK
  1

  9
$DIMLUNIT
 70
     2
  9
$DIMLWD
 70
    -2
  9
$DIMLWE
 70
    -2
  9
$DIMTMOVE
 70
     0
  9
$LUNITS
 70
     2
  9
$LUPREC
 70
     2
  9
$SKETCHINC
 40
1.0
  9
$FILLETRAD
 40
2.5
  9
$AUNITS
 70
     0
  9
$AUPREC
 70
     0
  9
$MENU
  1
.
  9
$ELEVATION
 40
0.0
  9
$PELEVATION
 40
0.0
  9
$THICKNESS
 40
0.0
  9
$LIMCHECK
 70
     0
  9
$CHAMFERA
 40
2.5
  9
$CHAMFERB
 40
2.5
  9
$CHAMFERC
 40
0.0
  9
$CHAMFERD
 40
0.0
  9
$SKPOLY
 70
     0
  9
$TDCREATE
 40
2453021.369367211
  9
$TDUCREATE
 40
2453021.036033877
  9
$TDUPDATE
 40
2455763.650977917
  9
$TDUUPDATE
 40
2455763.317644584
  9
$TDINDWG
 40
0.4355568403
  9
$TDUSRTIMER
 40
0.4355561227
  9
$USRTIMER
 70
     1
  9
$ANGBASE
 50
0.0
  9
$ANGDIR
 70
     0
  9
$PDMODE
 70
     0
  9
$PDSIZE
 40
0.0
  9
$PLINEWID
 40
0.0
  9
$SPLFRAME
 70
     0
  9
$SPLINETYPE
 70
     6
  9
$SPLINESEGS
 70
     8
  9
$HANDSEED
  5
33A0
  9
$SURFTAB1
 70
     6
  9
$SURFTAB2
 70
     6
  9
$SURFTYPE
 70
     6
  9
$SURFU
 70
     6
  9
$SURFV
 70
     6
  9
$UCSBASE
  2

  9
$UCSNAME
  2

  9
$UCSORG
 10
0.0
 20
0.0
 30
0.0
  9
$UCSXDIR
 10
1.0
 20
0.0
 30
0.0
  9
$UCSYDIR
 10
0.0
 20
1.0
 30
0.0
  9
$UCSORTHOREF
  2

  9
$UCSORTHOVIEW
 70
     0
  9
$UCSORGTOP
 10
0.0
 20
0.0
 30
0.0
  9
$UCSORGBOTTOM
 10
0.0
 20
0.0
 30
0.0
  9
$UCSORGLEFT
 10
0.0
 20
0.0
 30
0.0
  9
$UCSORGRIGHT
 10
0.0
 20
0.0
 30
0.0
  9
$UCSORGFRONT
 10
0.0
 20
0.0
 30
0.0
  9
$UCSORGBACK
 10
0.0
 20
0.0
 30
0.0
  9
$PUCSBASE
  2

  9
$PUCSNAME
  2

  9
$PUCSORG
 10
0.0
 20
0.0
 30
0.0
  9
$PUCSXDIR
 10
1.0
 20
0.0
 30
0.0
  9
$PUCSYDIR
 10
0.0
 20
1.0
 30
0.0
  9
$PUCSORTHOREF
  2

  9
$PUCSORTHOVIEW
 70
     0
  9
$PUCSORGTOP
 10
0.0
 20
0.0
 30
0.0
  9
$PUCSORGBOTTOM
 10
0.0
 20
0.0
 30
0.0
  9
$PUCSORGLEFT
 10
0.0
 20
0.0
 30
0.0
  9
$PUCSORGRIGHT
 10
0.0
 20
0.0
 30
0.0
  9
$PUCSORGFRONT
 10
0.0
 20
0.0
 30
0.0
  9
$PUCSORGBACK
 10
0.0
 20
0.0
 30
0.0
  9
$USERI1
 70
     0
  9
$USERI2
 70
     0
  9
$USERI3
 70
     0
  9
$USERI4
 70
     0
  9
$USERI5
 70
     0
  9
$USERR1
 40
0.0
  9
$USERR2
 40
0.0
  9
$USERR3
 40
0.0
  9
$USERR4
 40
0.0
  9
$USERR5
 40
0.0
  9
$WORLDVIEW
 70
     1
  9
$SHADEDGE
 70
     3
  9
$SHADEDIF
 70
    70
  9
$TILEMODE
 70
     1
  9
$MAXACTVP
 70
    64
  9
$PINSBASE
 10
0.0
 20
0.0
 30
0.0
  9
$PLIMCHECK
 70
     0
  9
$PEXTMIN
 10
1.000000000000000E+20
 20
1.000000000000000E+20
 30
1.000000000000000E+20
  9
$PEXTMAX
 10
-1.000000000000000E+20
 20
-1.000000000000000E+20
 30
-1.000000000000000E+20
  9
$PLIMMIN
 10
0.0
 20
0.0
  9
$PLIMMAX
 10
420.0
 20
297.0
  9
$UNITMODE
 70
     0
  9
$VISRETAIN
 70
     1
  9
$PLINEGEN
 70
     0
  9
$PSLTSCALE
 70
     1
  9
$TREEDEPTH
 70
  3020
  9
$CMLSTYLE
  2
Standard
  9
$CMLJUST
 70
     0
  9
$CMLSCALE
 40
1.0
  9
$PROXYGRAPHICS
 70
     1
  9
$MEASUREMENT
 70
     0
  9
$CELWEIGHT
370
    -1
  9
$ENDCAPS
280
     0
  9
$JOINSTYLE
280
     0
  9
$LWDISPLAY
290
     0
  9
$INSUNITS
 70
     0
  9
$HYPERLINKBASE
  1

  9
$STYLESHEET
  1

  9
$XEDIT
290
     1
  9
$CEPSNTYPE
380
     0
  9
$PSTYLEMODE
290
     1
  9
$FINGERPRINTGUID
  2
{656AED19-CE1A-40D9-A97D-EB2B84136F2B}
  9
$VERSIONGUID
  2
{87F4D9A3-49B8-4050-BA25-721D9DD7EF17}
  9
$EXTNAMES
290
     1
  9
$PSVPSCALE
 40
0.0
  9
$OLESTARTUP
290
     0
  0
ENDSEC
  0
SECTION
  2
CLASSES
  0
CLASS
  1
ACDBDICTIONARYWDFLT
  2
AcDbDictionaryWithDefault
  3
ObjectDBX Classes
 90
        0
280
     0
281
     0
  0
CLASS
  1
TABLESTYLE
  2
AcDbTableStyle
  3
ObjectDBX Classes
 90
     2047
280
     0
281
     0
  0
CLASS
  1
AMGSETTINGSOBJ
  2
AmgSettingsObj
  3
"AcadM|Product Description: AutoCAD Mechanical 2000|Company: Autodesk"
 90
        0
280
     0
281
     0
  0
CLASS
  1
ACME_DOCUMENT
  2
AcMeDbDoc
  3
AcMeServices
 90
        0
280
     0
281
     0
  0
CLASS
  1
ACMESCOPE
  2
AcMeScope
  3
AcMeServices
 90
        0
280
     0
281
     0
  0
CLASS
  1
ACMECOMMANDHISTORY
  2
AcMeCommandHistory
  3
AcMeServices
 90
        0
280
     0
281
     0
  0
CLASS
  1
ACIMSYSVARMAN
  2
AcImSysVarManager
  3
AcMeServices
 90
        0
280
     0
281
     0
  0
CLASS
  1
ACIMINTSYSVAR
  2
AcImIntSysVar
  3
AcMeServices
 90
        0
280
     0
281
     0
  0
CLASS
  1
ACMEDRAWINGMAN
  2
AcMeDrawingMan
  3
AcMeServices
 90
        0
280
     0
281
     0
  0
CLASS
  1
ACMEVIEW
  2
AcMeView
  3
AcMeServices
 90
        0
280
     0
281
     0
  0
CLASS
  1
ACDBENTITYCACHE
  2
AcMeEntityCache
  3
AcMeServices
 90
        0
280
     0
281
     0
  0
CLASS
  1
GSMANAGER
  2
AcMeGSManager
  3
AcMeServices
 90
        0
280
     0
281
     0
  0
CLASS
  1
AMDTINTERNALREACTOR
  2
AmdtInternalReactor
  3
AcMeServices
 90
        0
280
     0
281
     0
  0
CLASS
  1
ACMESTATEMGR
  2
AcMeStateMgr
  3
AcMeServices
 90
        0
280
     0
281
     0
  0
CLASS
  1
ACGREFMASTER
  2
AcGrefMaster
  3
AcAttribServices
 90
        0
280
     0
281
     0
  0
CLASS
  1
AM_DRAWING_MGR
  2
AcDmDwgMgr
  3
AcMechDwgViewMgmt
 90
        0
280
     0
281
     0
  0
CLASS
  1
AM_DWG_DOCUMENT
  2
AcDmDwgDocument
  3
AcMechDwgViewMgmt
 90
        0
280
     0
281
     0
  0
CLASS
  1
AM_DWG_SHEET
  2
AcDmSheet
  3
AcMechDwgViewMgmt
 90
        0
280
     0
281
     0
  0
CLASS
  1
AM_VIEWDIMPARMAP
  2
AcDmViewDimParMap
  3
AcMechDwgViewMgmt
 90
        0
280
     0
281
     0
  0
CLASS
  1
ACIMREALSYSVAR
  2
AcImRealSysVar
  3
AcMeServices
 90
        0
280
     0
281
     0
  0
CLASS
  1
AM_DWGMGR_NAME
  2
AcDmDwgMgrName
  3
AcMechDwgViewMgmt
 90
        0
280
     0
281
     0
  0
CLASS
  1
ACME_DATABASE
  2
AcMeDbDatabase
  3
AcMeServices
 90
        0
280
     0
281
     0
  0
CLASS
  1
ACRFINSADJUSTERMGR
  2
AcRfInsAdjusterMgr
  3
AcMeServices
 90
        0
280
     0
281
     0
  0
CLASS
  1
ACGREFACADMASTER
  2
AcGrefacadMaster
  3
AcGrefServices
 90
        0
280
     0
281
     0
  0
CLASS
  1
AMDTMENUSTATEMGR
  2
AmdtMenuStateMgr
  3
McadcomServices
 90
        0
280
     0
281
     0
  0
CLASS
  1
AMDTMCOMMENUSTATE
  2
AmdtMcomMenuState
  3
McadcomServices
 90
        0
280
     0
281
     0
  0
CLASS
  1
AMIMASTER
  2
AmiMaster
  3
AmiServices
 90
        0
280
     0
281
     0
  0
CLASS
  1
MAPIAMMOUDLE
  2
MApiAmModule
  3
MApiAmServices
 90
        0
280
     0
281
     0
  0
CLASS
  1
AMDTADMENUSTATE
  2
AmdtAdMenuState
  3
DesignerServices
 90
        0
280
     0
281
     0
  0
CLASS
  1
ADAPPL
  2
AcAdAppl
  3
DesignerServices
 90
        0
280
     0
281
     0
  0
CLASS
  1
DEPMGR
  2
AcAdDepMgr
  3
DesignerServices
 90
        0
280
     0
281
     0
  0
CLASS
  1
PARAMMGR
  2
AcAdParamMgr
  3
DesignerServices
 90
        0
280
     0
281
     0
  0
CLASS
  1
PARAMSCOPE
  2
AcAdParamScope
  3
DesignerServices
 90
        0
280
     0
281
     0
  0
CLASS
  1
NAMEDAPPL
  2
AcAdNamedAppl
  3
DesignerServices
 90
        0
280
     0
281
     0
  0
CLASS
  1
AMDTDMMENUSTATE
  2
AmdtDmMenuState
  3
AcMechDwgViewMgmt
 90
        0
280
     0
281
     0
  0
CLASS
  1
AMDTAMMENUSTATE
  2
AmdtAmMenuState
  3
DesignerAssemblies
 90
        0
280
     0
281
     0
  0
CLASS
  1
ACIMSTRSYSVAR
  2
AcImStrSysVar
  3
AcMeServices
 90
        0
280
     0
281
     0
  0
CLASS
  1
ACAMPROJECT
  2
AcAmProject
  3
DesignerAssemblies
 90
        0
280
     0
281
     0
  0
CLASS
  1
ACAMGRCOMPDEF
  2
AcAmGrCompDef
  3
DesignerAssemblies
 90
        0
280
     0
281
     0
  0
CLASS
  1
ACCMCONTEXT
  2
AcCmContext
  3
DesignerAssemblies
 90
        0
280
     0
281
     0
  0
CLASS
  1
ACAMCOMPDEF
  2
AcAmCompDef
  3
DesignerAssemblies
 90
        0
280
     0
281
     0
  0
CLASS
  1
ACAMCOMPDEFMGR
  2
AcAmCompDefMgr
  3
DesignerAssemblies
 90
        0
280
     0
281
     0
  0
CLASS
  1
AMCONTEXTMGR
  2
AcAmContextMgr
  3
DesignerAssemblies
 90
        0
280
     0
281
     0
  0
CLASS
  1
ACAMCONTEXTMODELER
  2
AcAmContextModeler
  3
DesignerAssemblies
 90
        0
280
     0
281
     0
  0
CLASS
  1
ACMDATADICTIONARY
  2
AcmDataDictionary
  3
"AcmSymBB|Product Description: AutoCAD Mechanical 2004 DX|Company: Autodesk"
 90
        0
280
     0
281
     0
  0
CLASS
  1
CATALOGSTATE
  2
AcAmCatalogState
  3
DesignerAssemblies
 90
        0
280
     0
281
     0
  0
CLASS
  1
ACAMGRCOMPDEFSET
  2
AcAmGrCompDefSet
  3
DesignerAssemblies
 90
        0
280
     0
281
     0
  0
CLASS
  1
AMDTBROWSERDBTAB
  2
AmdtBrowserDbTab
  3
McadcomServices
 90
        0
280
     0
281
     0
  0
CLASS
  1
CBROWSERAPPOBJECT
  2
CBrowserAppObject
  3
McadcomServices
 90
        0
280
     0
281
     0
  0
CLASS
  1
DM_PLACEHOLDER
  2
AcDmSelsetPlaceholder
  3
AcMechDwgViewMgmt
 90
        0
280
     0
281
     0
  0
CLASS
  1
ACMSTANDARDANSI
  2
AcmStandardANSI
  3
"Amdt_StdImp|Product Description: AutoCAD Mechanical 2004 DX|Company: Autodesk"
 90
        0
280
     0
281
     0
  0
CLASS
  1
AMGOBJPROPCFG
  2
AmgObjPropCfg
  3
"AmgLay|Product Description: AutoCAD Mechanical 2000|Company: Autodesk"
 90
        1
280
     0
281
     0
  0
CLASS
  1
ACMSURFSTANDARDANSI
  2
AcmSurfTextStdANSI
  3
"Amdt_StdImp|Product Description: AutoCAD Mechanical 2004 DX|Company: Autodesk"
 90
        0
280
     0
281
     0
  0
CLASS
  1
ACMFCFSTANDARDANSI
  2
AcmFCFStdANSI
  3
"Amdt_StdImp|Product Description: AutoCAD Mechanical 2004 DX|Company: Autodesk"
 90
        0
280
     0
281
     0
  0
CLASS
  1
ACMWELDSTANDARDANSI
  2
AcmWeldingStdANSI
  3
"Amdt_StdImp|Product Description: AutoCAD Mechanical 2004 DX|Company: Autodesk"
 90
        0
280
     0
281
     0
  0
CLASS
  1
ACMIDSTANDARDANSI
  2
AcmIdStdANSI
  3
"Amdt_StdImp|Product Description: AutoCAD Mechanical 2004 DX|Company: Autodesk"
 90
        0
280
     0
281
     0
  0
CLASS
  1
ACMDATUMSTANDARDANSI
  2
AcmDatumStdANSI
  3
"Amdt_StdImp|Product Description: AutoCAD Mechanical 2004 DX|Company: Autodesk"
 90
        0
280
     0
281
     0
  0
CLASS
  1
ACMBOMSTANDARDANSI
  2
AcmBOMStdANSI
  3
"Amdt_StdImp|Product Description: AutoCAD Mechanical 2004 DX|Company: Autodesk"
 90
        0
280
     0
281
     0
  0
CLASS
  1
ACMDETAILSTANDARDANSI
  2
AmdtDetailSymStdANSI
  3
"Amdt_StdImp|Product Description: AutoCAD Mechanical 2004 DX|Company: Autodesk"
 90
        0
280
     0
281
     0
  0
CLASS
  1
ACMSECTIONSTANDARDANSI
  2
AmdtSectionSymStdANSI
  3
"Amdt_StdImp|Product Description: AutoCAD Mechanical 2004 DX|Company: Autodesk"
 90
        0
280
     0
281
     0
  0
CLASS
  1
ACMCENTERLINESTANDARDANSI
  2
AmdtCenterLineStdANSI
  3
"Amdt_StdImp|Product Description: AutoCAD Mechanical 2004 DX|Company: Autodesk"
 90
        0
280
     0
281
     0
  0
CLASS
  1
ACMTHREADLINESTANDARDANSI
  2
AmdtThreadLineStdANSI
  3
"Amdt_StdImp|Product Description: AutoCAD Mechanical 2004 DX|Company: Autodesk"
 90
        0
280
     0
281
     0
  0
CLASS
  1
ACMNOTESTANDARDANSI
  2
AmdtNoteStdANSI
  3
"Amdt_StdImp|Product Description: AutoCAD Mechanical 2004 DX|Company: Autodesk"
 90
        0
280
     0
281
     0
  0
CLASS
  1
AMDTNOTETEMPLATEDB
  2
AmdtNoteTemplateDB
  3
AMDT_STDIMP_MODULE_NAME
 90
        0
280
     0
281
     0
  0
CLASS
  1
ACAMGLAYSTD
  2
AcAmgLayStd
  3
"AcAmgLayStd|Product Description: AutoCAD Mechanical 2000|Company: Autodesk"
 90
        0
280
     0
281
     0
  0
CLASS
  1
ACAMGDIMSTD
  2
AcAmgDimStd
  3
"AcAmgDimStd|Product Description: AutoCAD Mechanical 2000|Company: Autodesk"
 90
        0
280
     0
281
     0
  0
CLASS
  1
ACAMGHOLECHARTSTDANSI
  2
AcAmgHoleChartStdANSI
  3
ACMSYMBB_MODULE_NAME
 90
        0
280
     0
281
     0
  0
CLASS
  1
ACAMGTITLESTD
  2
AcAmgTitleStd
  3
"TITLEAPP"
 90
        0
280
     0
281
     0
  0
CLASS
  1
ACAMGFILTERDAT
  2
AcAmgFilterDat
  3
"AcadM|Product Description: AutoCAD Mechanical 2000|Company: Autodesk"
 90
    32768
280
     0
281
     0
  0
CLASS
  1
ACMSTANDARDISO
  2
AcmStandardISO
  3
"Amdt_StdImp|Product Description: AutoCAD Mechanical 2004 DX|Company: Autodesk"
 90
    32768
280
     0
281
     0
  0
CLASS
  1
AMDTEDGESTANDARDISO13715
  2
AmdtEdgeStdISO13715
  3
"Amdt_StdImp|Product Description: AutoCAD Mechanical 2004 DX|Company: Autodesk"
 90
    32768
280
     0
281
     0
  0
CLASS
  1
ACMSURFSTANDARDISO
  2
AcmSurfTextStdISO
  3
"Amdt_StdImp|Product Description: AutoCAD Mechanical 2004 DX|Company: Autodesk"
 90
    32768
280
     0
281
     0
  0
CLASS
  1
ACMFCFSTANDARDISO
  2
AcmFCFStdISO
  3
"Amdt_StdImp|Product Description: AutoCAD Mechanical 2004 DX|Company: Autodesk"
 90
    32768
280
     0
281
     0
  0
CLASS
  1
ACMWELDSTANDARDISO
  2
AcmWeldingStdISO
  3
"Amdt_StdImp|Product Description: AutoCAD Mechanical 2004 DX|Company: Autodesk"
 90
    32768
280
     0
281
     0
  0
CLASS
  1
ACMIDSTANDARDISO
  2
AcmIdStdISO
  3
"Amdt_StdImp|Product Description: AutoCAD Mechanical 2004 DX|Company: Autodesk"
 90
    32768
280
     0
281
     0
  0
CLASS
  1
ACMDATUMSTANDARDISO
  2
AcmDatumStdISO
  3
"Amdt_StdImp|Product Description: AutoCAD Mechanical 2004 DX|Company: Autodesk"
 90
    32768
280
     0
281
     0
  0
CLASS
  1
ACMBOMSTANDARDISO
  2
AcmBOMStdISO
  3
"Amdt_StdImp|Product Description: AutoCAD Mechanical 2004 DX|Company: Autodesk"
 90
    32768
280
     0
281
     0
  0
CLASS
  1
ACMDETAILSTANDARDISO
  2
AmdtDetailSymStdISO
  3
"Amdt_StdImp|Product Description: AutoCAD Mechanical 2004 DX|Company: Autodesk"
 90
    32768
280
     0
281
     0
  0
CLASS
  1
ACMSECTIONSTANDARDISO
  2
AmdtSectionSymStdISO
  3
"Amdt_StdImp|Product Description: AutoCAD Mechanical 2004 DX|Company: Autodesk"
 90
    32768
280
     0
281
     0
  0
CLASS
  1
ACMCENTERLINESTANDARDISO
  2
AmdtCenterLineStdISO
  3
"Amdt_StdImp|Product Description: AutoCAD Mechanical 2004 DX|Company: Autodesk"
 90
    32768
280
     0
281
     0
  0
CLASS
  1
ACMTHREADLINESTANDARDISO
  2
AmdtThreadLineStdISO
  3
"Amdt_StdImp|Product Description: AutoCAD Mechanical 2004 DX|Company: Autodesk"
 90
    32768
280
     0
281
     0
  0
CLASS
  1
ACMNOTESTANDARDISO
  2
AmdtNoteStdISO
  3
"Amdt_StdImp|Product Description: AutoCAD Mechanical 2004 DX|Company: Autodesk"
 90
    32768
280
     0
281
     0
  0
CLASS
  1
ACAMGHOLECHARTSTDISO
  2
AcAmgHoleChartStdISO
  3
ACMSYMBB_MODULE_NAME
 90
    32768
280
     0
281
     0
  0
CLASS
  1
ACMDATAENTRYBLOCK
  2
AcmDataEntryBlock
  3
"AcmSymBB|Product Description: AutoCAD Mechanical 2004 DX|Company: Autodesk"
 90
        0
280
     0
281
     0
  0
CLASS
  1
ACRFATTGENMGR
  2
AcRfAttGeneralMgr
  3
AcAttribServices
 90
    32768
280
     0
281
     0
  0
CLASS
  1
DICTIONARYVAR
  2
AcDbDictionaryVar
  3
ObjectDBX Classes
 90
        0
280
     0
281
     0
  0
CLASS
  1
ACDBPLACEHOLDER
  2
AcDbPlaceHolder
  3
ObjectDBX Classes
 90
        0
280
     0
281
     0
  0
CLASS
  1
LAYOUT
  2
AcDbLayout
  3
ObjectDBX Classes
 90
        0
280
     0
281
     0
  0
CLASS
  1
ASAPP
  2
AcAsAppObject
  3
AutoSurfServices
 90
        0
280
     0
281
     0
  0
CLASS
  1
IM_STATIC_MAN
  2
AcImStaticVarManager
  3
AcMeServices
 90
        0
280
     0
281
     0
  0
CLASS
  1
ACIMDBLSTATICVAR
  2
AcImDblStaticVar
  3
AcMeServices
 90
        0
280
     0
281
     0
  0
CLASS
  1
ACIMSTRSTATICVAR
  2
AcImStrStaticVar
  3
AcMeServices
 90
        0
280
     0
281
     0
  0
CLASS
  1
ACIMINTSTATICVAR
  2
AcImIntStaticVar
  3
AcMeServices
 90
        0
280
     0
281
     0
  0
CLASS
  1
ACASGREFMASTER
  2
AcAsGrefMaster
  3
AutoSurfResolverServices
 90
        0
280
     0
281
     0
  0
CLASS
  1
ACADGREFMODULE
  2
AcAdGrefModule
  3
AdGrefServices
 90
        0
280
     0
281
     0
  0
CLASS
  1
AMDTMAPISURFMOUDULE
  2
AmdtMApiSurfModule
  3
MApiSurfServices
 90
        0
280
     0
281
     0
  0
CLASS
  1
MAPIADMODULE
  2
MApiAdModule
  3
MApiAdServices
 90
        0
280
     0
281
     0
  0
CLASS
  1
LAYER_INDEX
  2
AcDbLayerIndex
  3
ObjectDBX Classes
 90
        0
280
     0
281
     0
  0
CLASS
  1
IDBUFFER
  2
AcDbIdBuffer
  3
ObjectDBX Classes
 90
        0
280
     0
281
     0
  0
ENDSEC
  0
SECTION
  2
TABLES
  0
TABLE
  2
VPORT
  5
2CD6
330
0
100
AcDbSymbolTable
 70
    26
  0
VPORT
  5
3399
330
2CD6
100
AcDbSymbolTableRecord
100
AcDbViewportTableRecord
  2
*Active
 70
     0
 10
0.0
 20
0.0
 11
1.0
 21
1.0
 12
-25.18360444449175
 22
0.0197820609370183
 13
0.0
 23
0.0
 14
2.5
 24
2.5
 15
10.0
 25
10.0
 16
0.0
 26
0.0
 36
1.0
 17
1693.003023578408
 27
586.3548482403298
 37
0.0
 40
549.4133852262014
 41
1.305364511691884
 42
50.0
 43
0.0
 44
0.0
 50
0.0
 51
0.0
 71
     0
 72
   100
 73
     1
 74
     3
 75
     0
 76
     0
 77
     0
 78
     0
281
     0
 65
     0
110
0.0
120
0.0
130
0.0
111
1.0
121
0.0
131
0.0
112
0.0
122
1.0
132
0.0
 79
     0
146
0.0
  0
ENDTAB
  0
TABLE
  2
LTYPE
  5
2CD3
330
0
100
AcDbSymbolTable
 70
    22
  0
LTYPE
  5
2CE1
330
2CD3
100
AcDbSymbolTableRecord
100
AcDbLinetypeTableRecord
  2
ByBlock
 70
     0
  3

 72
    65
 73
     0
 40
0.0
  0
LTYPE
  5
2CE2
330
2CD3
100
AcDbSymbolTableRecord
100
AcDbLinetypeTableRecord
  2
ByLayer
 70
     0
  3

 72
    65
 73
     0
 40
0.0
  0
LTYPE
  5
2CE3
330
2CD3
100
AcDbSymbolTableRecord
100
AcDbLinetypeTableRecord
  2
CONTINUOUS
 70
     0
  3
Solid line
 72
    65
 73
     0
 40
0.0
  0
LTYPE
  5
2CF5
330
2CD3
100
AcDbSymbolTableRecord
100
AcDbLinetypeTableRecord
  2
AMCONSTR
 70
     0
  3
_______________________
 72
    65
 73
     2
 40
9999.0
 49
9999.0
 74
     0
 49
0.0
 74
     0
  0
LTYPE
  5
2CF6
330
2CD3
100
AcDbSymbolTableRecord
100
AcDbLinetypeTableRecord
  2
AM_ISO08W050X2
 70
     0
  3
__ . __ . __ . __ . __ . __
 72
    65
 73
     4
 40
9.0
 49
6.0
 74
     0
 49
-0.75
 74
     0
 49
1.5
 74
     0
 49
-0.75
 74
     0
  0
LTYPE
  5
2CF7
330
2CD3
100
AcDbSymbolTableRecord
100
AcDbLinetypeTableRecord
  2
AM_ISO02W050X2
 70
     0
  3
 _ _ _ _ _ _ _ _ _ _ _ _
 72
    65
 73
     2
 40
3.75
 49
3.0
 74
     0
 49
-0.75
 74
     0
  0
LTYPE
  5
2CF8
330
2CD3
100
AcDbSymbolTableRecord
100
AcDbLinetypeTableRecord
  2
CENTER
 70
     0
  3
__ . __
 72
    65
 73
     4
 40
7.0
 49
4.0
 74
     0
 49
-1.0
 74
     0
 49
1.0
 74
     0
 49
-1.0
 74
     0
  0
LTYPE
  5
2CF9
330
2CD3
100
AcDbSymbolTableRecord
100
AcDbLinetypeTableRecord
  2
HIDDEN
 70
     0
  3
Hidden __ __ __ __ __ __ __ __ __ __ __ __ __ _
 72
    65
 73
     2
 40
9.524999999999998
 49
6.349999999999997
 74
     0
 49
-3.174999999999998
 74
     0
  0
LTYPE
  5
2CFA
330
2CD3
100
AcDbSymbolTableRecord
100
AcDbLinetypeTableRecord
  2
PHANTOM2
 70
     0
  3
Phantom (.5x) ___ _ _ ___ _ _ ___ _ _ ___ _ _
 72
    65
 73
     6
 40
31.75
 49
15.875
 74
     0
 49
-3.174999999999998
 74
     0
 49
3.174999999999998
 74
     0
 49
-3.174999999999998
 74
     0
 49
3.174999999999998
 74
     0
 49
-3.174999999999998
 74
     0
  0
LTYPE
  5
2CFB
330
2CD3
100
AcDbSymbolTableRecord
100
AcDbLinetypeTableRecord
  2
DASHED
 70
     0
  3
__ __ __ __ __ __ __ __ __ __ __ __ __ __ __ __
 72
    65
 73
     2
 40
0.75
 49
0.5
 74
     0
 49
-0.25
 74
     0
  0
LTYPE
  5
2CFC
330
2CD3
100
AcDbSymbolTableRecord
100
AcDbLinetypeTableRecord
  2
CENTER2
 70
     0
  3
Center (.5x) ___ _ ___ _ ___ _ ___ _ ___ _ ___
 72
    65
 73
     4
 40
1.125
 49
0.75
 74
     0
 49
-0.125
 74
     0
 49
0.125
 74
     0
 49
-0.125
 74
     0
  0
LTYPE
  5
2CFD
330
2CD3
100
AcDbSymbolTableRecord
100
AcDbLinetypeTableRecord
  2
HIDDEN2
 70
     0
  3
Hidden (.5x) _ _ _ _ _ _ _ _ _ _ _ _ _ _ _ _ _
 72
    65
 73
     2
 40
0.1875
 49
0.125
 74
     0
 49
-0.0625
 74
     0
  0
LTYPE
  5
2CFE
330
2CD3
100
AcDbSymbolTableRecord
100
AcDbLinetypeTableRecord
  2
AMZIGZAG2
 70
     0
  3
/\/-/\/-/\/-/\/-/\/-/\/
 72
    65
 73
     2
 40
0.4401
 49
0.0001
 74
     0
 49
-0.4400000000000002
 74
     0
  0
LTYPE
  5
2CFF
330
2CD3
100
AcDbSymbolTableRecord
100
AcDbLinetypeTableRecord
  2
ACANSTGB
 70
     0
  3
__ . . __ . .
 72
    65
 73
     6
 40
0.35433070866
 49
0.15748031496
 74
     0
 49
-0.03937007874
 74
     0
 49
0.03937007874
 74
     0
 49
-0.03937007874
 74
     0
 49
0.03937007874
 74
     0
 49
-0.03937007874
 74
     0
  0
LTYPE
  5
2D00
330
2CD3
100
AcDbSymbolTableRecord
100
AcDbLinetypeTableRecord
  2
ACANSTGL
 70
     0
  3
_ _ _ _ _
 72
    65
 73
     2
 40
0.11811023622
 49
0.07874015748
 74
     0
 49
-0.03937007874
 74
     0
  0
ENDTAB
  0
TABLE
  2
LAYER
  5
2CD0
102
{ACAD_XDICTIONARY
360
2E8A
102
}
330
0
100
AcDbSymbolTable
 70
     7
  0
LAYER
  5
2CDE
330
2CD0
100
AcDbSymbolTableRecord
100
AcDbLayerTableRecord
  2
0
 70
     0
 62
     7
  6
CONTINUOUS
370
    -3
390
2CDD
  0
LAYER
  5
2D03
330
2CD0
100
AcDbSymbolTableRecord
100
AcDbLayerTableRecord
  2
DEFPOINTS
 70
     0
 62
     7
  6
CONTINUOUS
290
     0
370
    -3
390
2CDD
  0
LAYER
  5
2D04
330
2CD0
100
AcDbSymbolTableRecord
100
AcDbLayerTableRecord
  2
CEN
 70
     0
 62
     1
  6
CENTER
370
    -3
390
2CDD
  0
LAYER
  5
2D05
330
2CD0
100
AcDbSymbolTableRecord
100
AcDbLayerTableRecord
  2
AM_5
 70
     0
 62
     5
  6
CONTINUOUS
370
    -3
390
2CDD
  0
LAYER
  5
2D07
330
2CD0
100
AcDbSymbolTableRecord
100
AcDbLayerTableRecord
  2
HIDDEN
 70
     0
 62
     3
  6
AM_ISO02W050X2
370
    -3
390
2CDD
  0
LAYER
  5
2D08
330
2CD0
100
AcDbSymbolTableRecord
100
AcDbLayerTableRecord
  2
假想
 70
     0
 62
     2
  6
AM_ISO08W050X2
370
    -3
390
2CDD
  0
LAYER
  5
2E79
330
2CD0
100
AcDbSymbolTableRecord
100
AcDbLayerTableRecord
  2
LOGO
 70
     0
 62
     7
  6
CONTINUOUS
370
    -3
390
2CDD
  0
ENDTAB
  0
TABLE
  2
STYLE
  5
2CD1
330
0
100
AcDbSymbolTable
 70
     9
  0
STYLE
  5
2CDF
330
2CD1
100
AcDbSymbolTableRecord
100
AcDbTextStyleTableRecord
  2
STANDARD
 70
     0
 40
0.0
 41
1.0
 50
0.0
 71
     0
 42
3.5
  3
ISOCP.SHX
  4
CHINESET.SHX
  0
STYLE
  5
2D0C
330
2CD1
100
AcDbSymbolTableRecord
100
AcDbTextStyleTableRecord
  2
DAYUS
 70
     0
 40
0.0
 41
1.0
 50
0.0
 71
     0
 42
2.5
  3
simplex
  4
dayus
  0
STYLE
  5
2D0E
330
2CD1
100
AcDbSymbolTableRecord
100
AcDbTextStyleTableRecord
  2
ROMANS
 70
     0
 40
0.0
 41
1.0
 50
0.0
 71
     0
 42
3.0
  3
romans
  4

  0
STYLE
  5
2D0F
330
2CD1
100
AcDbSymbolTableRecord
100
AcDbTextStyleTableRecord
  2
ACANSTS
 70
     0
 40
1.0
 41
1.0
 50
0.0
 71
     0
 42
3.5
  3
romans.shx
  4
chineset.shx
  0
STYLE
  5
2D10
330
2CD1
100
AcDbSymbolTableRecord
100
AcDbTextStyleTableRecord
  2
ACANSGDT
 70
     0
 40
0.0
 41
1.0
 50
0.0
 71
     0
 42
3.5
  3
amgdtans.shx
  4

  0
STYLE
  5
2E7C
330
2CD1
100
AcDbSymbolTableRecord
100
AcDbTextStyleTableRecord
  2
CHINESET
 70
     0
 40
0.0
 41
1.0
 50
0.0
 71
     0
 42
2.5
  3
simplex.shx
  4
CHINESET.shx
  0
ENDTAB
  0
TABLE
  2
VIEW
  5
2CD4
330
0
100
AcDbSymbolTable
 70
     0
  0
ENDTAB
  0
TABLE
  2
UCS
  5
2CD5
330
0
100
AcDbSymbolTable
 70
     0
  0
ENDTAB
  0
TABLE
  2
APPID
  5
2CD7
330
0
100
AcDbSymbolTable
 70
    26
  0
APPID
  5
2CE0
330
2CD7
100
AcDbSymbolTableRecord
100
AcDbRegAppTableRecord
  2
ACAD
 70
     0
  0
APPID
  5
2D11
330
2CD7
100
AcDbSymbolTableRecord
100
AcDbRegAppTableRecord
  2
MCAD_NO_VIS
 70
     0
  0
APPID
  5
2D12
330
2CD7
100
AcDbSymbolTableRecord
100
AcDbRegAppTableRecord
  2
ACAD_TEMP_GRAPHIC
 70
     0
  0
APPID
  5
2D13
330
2CD7
100
AcDbSymbolTableRecord
100
AcDbRegAppTableRecord
  2
ACATTRIBSERVICES
 70
     0
  0
APPID
  5
2D14
330
2CD7
100
AcDbSymbolTableRecord
100
AcDbRegAppTableRecord
  2
GENIUS_GENODEF_13
 70
     0
  0
APPID
  5
2D15
330
2CD7
100
AcDbSymbolTableRecord
100
AcDbRegAppTableRecord
  2
GENIUS_GENOBJ-N-HTC_13
 70
     0
  0
APPID
  5
2D16
330
2CD7
100
AcDbSymbolTableRecord
100
AcDbRegAppTableRecord
  2
GENIUS_GENHATCH_13
 70
     0
  0
APPID
  5
2D17
330
2CD7
100
AcDbSymbolTableRecord
100
AcDbRegAppTableRecord
  2
AD_DRAW
 70
     0
  0
APPID
  5
2D18
330
2CD7
100
AcDbSymbolTableRecord
100
AcDbRegAppTableRecord
  2
DESIGNERASSEMBLIES
 70
     0
  0
APPID
  5
2D19
330
2CD7
100
AcDbSymbolTableRecord
100
AcDbRegAppTableRecord
  2
ACADM_DIM_EDIT
 70
     0
  0
APPID
  5
2D1A
330
2CD7
100
AcDbSymbolTableRecord
100
AcDbRegAppTableRecord
  2
AMDT_DM_ADJ
 70
     0
  0
APPID
  5
2D1B
330
2CD7
100
AcDbSymbolTableRecord
100
AcDbRegAppTableRecord
  2
ACAD_DSTYLE_DIMTEXT_FILL
 70
     0
  0
APPID
  5
2D1C
330
2CD7
100
AcDbSymbolTableRecord
100
AcDbRegAppTableRecord
  2
ACAD_PSEXT
 70
     0
  0
APPID
  5
2D1D
330
2CD7
100
AcDbSymbolTableRecord
100
AcDbRegAppTableRecord
  2
ACAECLAYERSTANDARD
 70
     0
  0
APPID
  5
2D1E
330
2CD7
100
AcDbSymbolTableRecord
100
AcDbRegAppTableRecord
  2
GENIUS_GENDTOL_13
 70
     0
  0
APPID
  5
2D1F
330
2CD7
100
AcDbSymbolTableRecord
100
AcDbRegAppTableRecord
  2
GENIUS_GENDIM_13
 70
     0
  0
APPID
  5
2D20
330
2CD7
100
AcDbSymbolTableRecord
100
AcDbRegAppTableRecord
  2
GENIUS_GE3DTOL_13
 70
     0
  0
APPID
  5
2D21
330
2CD7
100
AcDbSymbolTableRecord
100
AcDbRegAppTableRecord
  2
ASURF_PCURVE_APPNAME
 70
     0
  0
APPID
  5
2D22
330
2CD7
100
AcDbSymbolTableRecord
100
AcDbRegAppTableRecord
  2
AMG_3D2D_5_0
 70
     0
  0
APPID
  5
2E84
330
2CD7
100
AcDbSymbolTableRecord
100
AcDbRegAppTableRecord
  2
GENIUS_GENOENT_13
 70
     0
  0
APPID
  5
2E85
330
2CD7
100
AcDbSymbolTableRecord
100
AcDbRegAppTableRecord
  2
GENIUS_GENOBJ-N-CRS_13
 70
     0
  0
APPID
  5
2E86
330
2CD7
100
AcDbSymbolTableRecord
100
AcDbRegAppTableRecord
  2
GENIUS_GENOLIS_13
 70
     0
  0
APPID
  5
2E87
330
2CD7
100
AcDbSymbolTableRecord
100
AcDbRegAppTableRecord
  2
GENIUS_GENOREF_13
 70
     0
  0
APPID
  5
2E88
330
2CD7
100
AcDbSymbolTableRecord
100
AcDbRegAppTableRecord
  2
GENIUS_GENREC_14
 70
     0
  0
APPID
  5
2E89
330
2CD7
100
AcDbSymbolTableRecord
100
AcDbRegAppTableRecord
  2
GENIUS_GENOBJ-N-REC_13
 70
     0
  0
APPID
  5
3158
330
2CD7
100
AcDbSymbolTableRecord
100
AcDbRegAppTableRecord
  2
AMG_3D2D_5.0
 70
     0
  0
ENDTAB
  0
TABLE
  2
DIMSTYLE
  5
2CD8
330
0
100
AcDbSymbolTable
 70
    14
100
AcDbDimStyleTable
 71
     1
340
2D23
  0
DIMSTYLE
105
2D23
102
{ACAD_REACTORS
330
13E9
330
13EA
330
13ED
330
13F0
330
13F6
330
13F9
330
1403
330
1404
330
1407
330
1624
330
1DEE
102
}
330
2CD8
100
AcDbSymbolTableRecord
100
AcDbDimStyleTableRecord
  2
AM_ISO
 70
     0
  4
"
 41
3.0
 42
1.0
 43
10.0
 44
1.5
 47
0.1
 48
0.1
 73
     0
 74
     0
 77
     1
 78
     8
140
3.5
141
3.0
143
0.0393701
146
0.71
147
0.8
172
     1
176
   256
177
   256
178
   256
271
     2
272
     2
279
     2
284
     8
285
     8
286
     8
340
2CDF
  0
DIMSTYLE
105
2D24
330
2CD8
100
AcDbSymbolTableRecord
100
AcDbDimStyleTableRecord
  2
AM_ANSI
 70
     0
  4
mm
 41
0.1
 42
0.05
 43
0.5
 44
0.1
 47
0.1
 48
0.1
 78
     7
140
0.12
141
0.0
146
0.71
147
0.06
176
   256
177
   256
178
     2
271
     2
272
     2
279
     2
284
     8
285
     8
286
     8
340
2CDF
  0
DIMSTYLE
105
2D25
330
2CD8
100
AcDbSymbolTableRecord
100
AcDbDimStyleTableRecord
  2
AM_ANSI$3
 70
     0
  4
mm
 41
0.1
 42
0.05
 43
0.5
 44
0.1
 47
0.1
 48
0.1
 78
     7
140
0.12
141
0.0
146
0.71
147
0.06
176
   256
177
   256
178
     2
271
     2
272
     2
279
     2
284
     8
285
     8
286
     8
340
2CDF
  0
DIMSTYLE
105
2D26
330
2CD8
100
AcDbSymbolTableRecord
100
AcDbDimStyleTableRecord
  2
AM_ANSI$4
 70
     0
  4
mm
 41
0.1
 42
0.05
 43
0.5
 44
0.1
 47
0.1
 48
0.1
 78
     7
140
0.12
141
0.0
146
0.71
147
0.06
176
   256
177
   256
178
     2
271
     2
272
     2
279
     2
284
     8
285
     8
286
     8
340
2CDF
  0
DIMSTYLE
105
2D27
330
2CD8
100
AcDbSymbolTableRecord
100
AcDbDimStyleTableRecord
  2
AM_ANSI$7
 70
     0
  4
mm
 41
0.1
 42
0.05
 43
0.5
 44
0.1
 47
0.1
 48
0.1
 78
     7
140
0.24
141
0.0
146
0.71
147
0.06
176
   256
177
   256
178
     2
271
     2
272
     2
279
     2
284
     8
285
     8
286
     8
340
2CDF
  0
DIMSTYLE
105
2D28
330
2CD8
100
AcDbSymbolTableRecord
100
AcDbDimStyleTableRecord
  2
AM_ANSI$SF
 70
     0
  4
mm
 41
0.1
 42
0.05
 43
0.5
 44
0.1
 47
0.1
 48
0.1
 75
     1
 76
     1
 78
     7
140
0.12
141
0.0
146
0.71
147
0.06
176
   256
177
   256
178
     2
271
     2
272
     2
279
     2
284
     8
285
     8
286
     8
340
2CDF
  0
DIMSTYLE
105
2D29
330
2CD8
100
AcDbSymbolTableRecord
100
AcDbDimStyleTableRecord
  2
AM_ANSI$SH
 70
     0
  4
mm
 41
0.1
 42
0.05
 43
0.5
 44
0.1
 47
0.1
 48
0.1
 75
     1
 76
     1
 78
     7
140
0.12
141
0.0
146
0.71
147
0.06
173
     1
176
   256
177
   256
178
     2
271
     2
272
     2
279
     2
284
     8
285
     8
286
     8
340
2CDF
  0
DIMSTYLE
105
2E83
102
{ACAD_REACTORS
330
13E6
330
13F3
330
1414
330
1417
330
1408
330
140B
330
1411
330
140E
330
13DA
330
13DB
330
13FD
330
1400
102
}
330
2CD8
100
AcDbSymbolTableRecord
100
AcDbDimStyleTableRecord
  2
AM_ISO$0
 70
     0
  4
"
 41
3.0
 42
1.0
 43
11.0
 44
1.5
 47
0.1
 48
0.1
 73
     0
 74
     0
 77
     1
 78
     8
 79
     2
140
3.5
141
0.0
143
0.0393701
146
0.6
147
1.1
172
     1
176
   256
177
   256
178
   256
271
     2
272
     2
283
     0
284
     8
340
2CDF
371
    -1
372
    -1
  0
ENDTAB
  0
TABLE
  2
BLOCK_RECORD
  5
2CCF
330
0
100
AcDbSymbolTable
 70
    62
  0
BLOCK_RECORD
  5
2CF0
102
{ACAD_XDICTIONARY
360
338D
102
}
330
2CCF
100
AcDbSymbolTableRecord
100
AcDbBlockTableRecord
  2
*Model_Space
340
2CF3
  0
BLOCK_RECORD
  5
2CEC
330
2CCF
100
AcDbSymbolTableRecord
100
AcDbBlockTableRecord
  2
*Paper_Space
340
2CEF
  0
BLOCK_RECORD
  5
2D41
330
2CCF
100
AcDbSymbolTableRecord
100
AcDbBlockTableRecord
  2
_NONE
340
0
  0
BLOCK_RECORD
  5
2D43
330
2CCF
100
AcDbSymbolTableRecord
100
AcDbBlockTableRecord
  2
_DOTSMALL
340
0
102
{BLKREFS
331
28CF
331
28E1
331
28EF
331
28F9
331
32D1
331
32E3
102
}
  0
BLOCK_RECORD
  5
2D51
330
2CCF
100
AcDbSymbolTableRecord
100
AcDbBlockTableRecord
  2
*D9
340
0
  0
BLOCK_RECORD
  5
2D53
330
2CCF
100
AcDbSymbolTableRecord
100
AcDbBlockTableRecord
  2
*U10
340
0
102
{BLKREFS
331
2327
102
}
  0
BLOCK_RECORD
  5
2D55
330
2CCF
100
AcDbSymbolTableRecord
100
AcDbBlockTableRecord
  2
*D11
340
0
  0
BLOCK_RECORD
  5
2D57
330
2CCF
100
AcDbSymbolTableRecord
100
AcDbBlockTableRecord
  2
*U12
340
0
102
{BLKREFS
331
2470
102
}
  0
BLOCK_RECORD
  5
2D85
330
2CCF
100
AcDbSymbolTableRecord
100
AcDbBlockTableRecord
  2
*D20
340
0
  0
BLOCK_RECORD
  5
2D87
330
2CCF
100
AcDbSymbolTableRecord
100
AcDbBlockTableRecord
  2
*U21
340
0
102
{BLKREFS
331
27E4
102
}
  0
BLOCK_RECORD
  5
2D89
330
2CCF
100
AcDbSymbolTableRecord
100
AcDbBlockTableRecord
  2
*D22
340
0
  0
BLOCK_RECORD
  5
2D8B
330
2CCF
100
AcDbSymbolTableRecord
100
AcDbBlockTableRecord
  2
*U23
340
0
102
{BLKREFS
331
2458
102
}
  0
BLOCK_RECORD
  5
2D95
330
2CCF
100
AcDbSymbolTableRecord
100
AcDbBlockTableRecord
  2
*D28
340
0
  0
BLOCK_RECORD
  5
2D97
330
2CCF
100
AcDbSymbolTableRecord
100
AcDbBlockTableRecord
  2
*U29
340
0
102
{BLKREFS
331
279A
102
}
  0
BLOCK_RECORD
  5
2DBD
330
2CCF
100
AcDbSymbolTableRecord
100
AcDbBlockTableRecord
  2
*D40
340
0
  0
BLOCK_RECORD
  5
2DBF
330
2CCF
100
AcDbSymbolTableRecord
100
AcDbBlockTableRecord
  2
*U41
340
0
102
{BLKREFS
331
2460
102
}
  0
BLOCK_RECORD
  5
2DE5
330
2CCF
100
AcDbSymbolTableRecord
100
AcDbBlockTableRecord
  2
*D42
340
0
  0
BLOCK_RECORD
  5
2DE7
330
2CCF
100
AcDbSymbolTableRecord
100
AcDbBlockTableRecord
  2
*U43
340
0
102
{BLKREFS
331
2448
102
}
  0
BLOCK_RECORD
  5
2DF1
330
2CCF
100
AcDbSymbolTableRecord
100
AcDbBlockTableRecord
  2
*U44
340
0
102
{BLKREFS
331
13FC
102
}
  0
BLOCK_RECORD
  5
31AF
330
2CCF
100
AcDbSymbolTableRecord
100
AcDbBlockTableRecord
  2
*D46
340
0
  0
BLOCK_RECORD
  5
31C8
330
2CCF
100
AcDbSymbolTableRecord
100
AcDbBlockTableRecord
  2
*D47
340
0
  0
BLOCK_RECORD
  5
31D9
330
2CCF
100
AcDbSymbolTableRecord
100
AcDbBlockTableRecord
  2
*D48
340
0
  0
BLOCK_RECORD
  5
31F2
330
2CCF
100
AcDbSymbolTableRecord
100
AcDbBlockTableRecord
  2
*D49
340
0
  0
BLOCK_RECORD
  5
32F2
330
2CCF
100
AcDbSymbolTableRecord
100
AcDbBlockTableRecord
  2
*D50
340
0
  0
BLOCK_RECORD
  5
32FE
330
2CCF
100
AcDbSymbolTableRecord
100
AcDbBlockTableRecord
  2
*D51
340
0
  0
BLOCK_RECORD
  5
330A
330
2CCF
100
AcDbSymbolTableRecord
100
AcDbBlockTableRecord
  2
*D52
340
0
  0
BLOCK_RECORD
  5
3316
330
2CCF
100
AcDbSymbolTableRecord
100
AcDbBlockTableRecord
  2
*D53
340
0
  0
BLOCK_RECORD
  5
3322
330
2CCF
100
AcDbSymbolTableRecord
100
AcDbBlockTableRecord
  2
*D54
340
0
  0
BLOCK_RECORD
  5
332E
330
2CCF
100
AcDbSymbolTableRecord
100
AcDbBlockTableRecord
  2
*D55
340
0
  0
BLOCK_RECORD
  5
333A
330
2CCF
100
AcDbSymbolTableRecord
100
AcDbBlockTableRecord
  2
*D56
340
0
  0
BLOCK_RECORD
  5
3348
330
2CCF
100
AcDbSymbolTableRecord
100
AcDbBlockTableRecord
  2
*D57
340
0
  0
BLOCK_RECORD
  5
3354
330
2CCF
100
AcDbSymbolTableRecord
100
AcDbBlockTableRecord
  2
*D58
340
0
  0
BLOCK_RECORD
  5
3360
330
2CCF
100
AcDbSymbolTableRecord
100
AcDbBlockTableRecord
  2
*D59
340
0
  0
BLOCK_RECORD
  5
336C
330
2CCF
100
AcDbSymbolTableRecord
100
AcDbBlockTableRecord
  2
*D60
340
0
  0
BLOCK_RECORD
  5
3378
330
2CCF
100
AcDbSymbolTableRecord
100
AcDbBlockTableRecord
  2
*D61
340
0
  0
ENDTAB
  0
ENDSEC
  0
SECTION
  2
BLOCKS
  0
BLOCK
  5
2CF1
330
2CF0
100
AcDbEntity
  8
0
100
AcDbBlockBegin
  2
*Model_Space
 70
     0
 10
0.0
 20
0.0
 30
0.0
  3
*Model_Space
  1

  0
ENDBLK
  5
2CF2
330
2CF0
100
AcDbEntity
  8
0
100
AcDbBlockEnd
  0
BLOCK
  5
2CED
330
2CEC
100
AcDbEntity
 67
     1
  8
0
100
AcDbBlockBegin
  2
*Paper_Space
 70
     0
 10
0.0
 20
0.0
 30
0.0
  3
*Paper_Space
  1

  0
ENDBLK
  5
2CEE
330
2CEC
100
AcDbEntity
 67
     1
  8
0
100
AcDbBlockEnd
  0
BLOCK
  5
2D42
330
2D41
100
AcDbEntity
  8
0
100
AcDbBlockBegin
  2
_NONE
 70
     0
 10
0.0
 20
0.0
 30
0.0
  3
_NONE
  1

  0
ENDBLK
  5
A5E
330
2D41
100
AcDbEntity
  8
0
100
AcDbBlockEnd
  0
BLOCK
  5
2D44
330
2D43
100
AcDbEntity
  8
0
100
AcDbBlockBegin
  2
_DOTSMALL
 70
     0
 10
0.0
 20
0.0
 30
0.0
  3
_DOTSMALL
  1

  0
POLYLINE
  5
C39
330
2D43
100
AcDbEntity
  8
0
  6
ByBlock
 62
     0
100
AcDb2dPolyline
 66
     1
 10
0.0
 20
0.0
 30
0.0
 70
     1
 40
0.5
 41
0.5
  0
VERTEX
  5
28B8
330
C39
100
AcDbEntity
  8
0
  6
ByBlock
 62
     0
100
AcDbVertex
100
AcDb2dVertex
 10
-0.0625
 20
0.0
 30
0.0
 42
1.0
  0
VERTEX
  5
28B9
330
C39
100
AcDbEntity
  8
0
  6
ByBlock
 62
     0
100
AcDbVertex
100
AcDb2dVertex
 10
0.0625
 20
0.0
 30
0.0
 42
1.0
  0
SEQEND
  5
28BA
330
C39
100
AcDbEntity
  8
0
  6
ByBlock
 62
     0
  0
ENDBLK
  5
C3A
330
2D43
100
AcDbEntity
  8
0
100
AcDbBlockEnd
  0
BLOCK
  5
2D52
330
2D51
100
AcDbEntity
  8
0
100
AcDbBlockBegin
  2
*D9
 70
     1
 10
0.0
 20
0.0
 30
0.0
  3
*D9
  1

  0
LINE
  5
2321
330
2D51
100
AcDbEntity
  8
AM_5
100
AcDbLine
 10
1565.783193823991
 20
401.7029016904543
 30
0.0
 11
1562.172089483446
 21
396.9112500501848
 31
0.0
  0
LINE
  5
2322
330
2D51
100
AcDbEntity
  8
AM_5
100
AcDbLine
 10
1624.15991363789
 20
479.1642206861925
 30
0.0
 11
1630.322785647362
 21
487.3418674634963
 31
0.0
  0
LINE
  5
2323
330
2D51
100
AcDbEntity
  8
AM_5
100
AcDbLine
 10
1630.322785647362
 20
487.3418674634963
 30
0.0
 11
1646.212735141025
 21
487.3418674634963
 31
0.0
  0
LINE
  5
2324
330
2D51
100
AcDbEntity
  8
AM_5
100
AcDbLine
 10
1569.394298164534
 20
406.4945533307239
 30
0.0
 11
1620.548809297346
 21
474.3725690459227
 31
0.0
  0
SOLID
  5
2325
330
2D51
100
AcDbEntity
  8
AM_5
100
AcDbTrace
 10
1564.984585217279
 20
402.3047524138783
 30
0.0
 11
1566.581802430702
 21
401.1010509670302
 31
0.0
 12
1569.394298164534
 22
406.4945533307239
 32
0.0
 13
1569.394298164534
 23
406.4945533307239
 33
0.0
  0
SOLID
  5
2326
330
2D51
100
AcDbEntity
  8
AM_5
100
AcDbTrace
 10
1623.361305031179
 20
479.7660714096164
 30
0.0
 11
1624.958522244602
 21
478.5623699627682
 31
0.0
 12
1620.548809297346
 22
474.3725690459227
 32
0.0
 13
1620.548809297346
 23
474.3725690459227
 33
0.0
  0
INSERT
  5
2327
330
2D51
100
AcDbEntity
  8
0
100
AcDbBlockReference
  2
*U10
 10
0.0
 20
0.0
 30
0.0
  0
POINT
  5
2328
330
2D51
100
AcDbEntity
  8
DEFPOINTS
 62
     0
100
AcDbPoint
 10
1620.548809297346
 20
474.3725690459227
 30
0.0
  0
POINT
  5
2329
330
2D51
100
AcDbEntity
  8
DEFPOINTS
 62
     0
100
AcDbPoint
 10
1569.394298164534
 20
406.4945533307239
 30
0.0
  0
ENDBLK
  5
1743
330
2D51
100
AcDbEntity
  8
0
100
AcDbBlockEnd
  0
BLOCK
  5
2D54
330
2D53
100
AcDbEntity
  8
0
100
AcDbBlockBegin
  2
*U10
 70
     1
 10
0.0
 20
0.0
 30
0.0
  3
*U10
  1

  0
TEXT
  5
2A7E
330
2D53
100
AcDbEntity
  8
AM_5
100
AcDbText
 10
1630.872785647363
 20
488.9418674634962
 30
0.0
 40
7.0
  1
\U+220585
100
AcDbText
  0
ENDBLK
  5
2A80
330
2D53
100
AcDbEntity
  8
0
100
AcDbBlockEnd
  0
BLOCK
  5
2D56
330
2D55
100
AcDbEntity
  8
0
100
AcDbBlockBegin
  2
*D11
 70
     1
 10
0.0
 20
0.0
 30
0.0
  3
*D11
  1

  0
LINE
  5
246D
330
2D55
100
AcDbEntity
  8
AM_5
100
AcDbLine
 10
1626.080700300424
 20
628.9812865251933
 30
0.0
 11
1633.55083721356
 21
610.6616953289099
 31
0.0
  0
LINE
  5
246E
330
2D55
100
AcDbEntity
  8
AM_5
100
AcDbLine
 10
1633.55083721356
 20
610.6616953289099
 30
0.0
 11
1667.528593119071
 21
610.6616953289099
 31
0.0
  0
SOLID
  5
246F
330
2D55
100
AcDbEntity
  8
AM_5
100
AcDbTrace
 10
1627.006676056025
 20
629.3588694962579
 30
0.0
 11
1625.154724544822
 21
628.6037035541283
 31
0.0
 12
1623.815202474034
 22
634.5371410588024
 32
0.0
 13
1623.815202474034
 23
634.5371410588024
 33
0.0
  0
INSERT
  5
2470
330
2D55
100
AcDbEntity
  8
0
100
AcDbBlockReference
  2
*U12
 10
0.0
 20
0.0
 30
0.0
  0
POINT
  5
2471
330
2D55
100
AcDbEntity
  8
DEFPOINTS
 62
     0
100
AcDbPoint
 10
1623.815202474034
 20
634.5371410588024
 30
0.0
  0
POINT
  5
2472
330
2D55
100
AcDbEntity
  8
DEFPOINTS
 62
     0
100
AcDbPoint
 10
1621.979403818987
 20
639.0392112711992
 30
0.0
  0
ENDBLK
  5
174E
330
2D55
100
AcDbEntity
  8
0
100
AcDbBlockEnd
  0
BLOCK
  5
2D58
330
2D57
100
AcDbEntity
  8
0
100
AcDbBlockBegin
  2
*U12
 70
     1
 10
0.0
 20
0.0
 30
0.0
  3
*U12
  1

  0
TEXT
  5
2ACA
330
2D57
100
AcDbEntity
  8
AM_5
100
AcDbText
 10
1634.278593119072
 20
612.2616953289101
 30
0.0
 40
7.0
  1
2-PT1/8
100
AcDbText
  0
ENDBLK
  5
2ACC
330
2D57
100
AcDbEntity
  8
0
100
AcDbBlockEnd
  0
BLOCK
  5
2D86
330
2D85
100
AcDbEntity
  8
0
100
AcDbBlockBegin
  2
*D20
 70
     1
 10
0.0
 20
0.0
 30
0.0
  3
*D20
  1

  0
LINE
  5
27DF
330
2D85
100
AcDbEntity
  8
AM_5
100
AcDbLine
 10
1724.962589659048
 20
626.9119090325399
 30
0.0
 11
1715.284300236932
 21
516.2885547364854
 31
0.0
  0
LINE
  5
27E0
330
2D85
100
AcDbEntity
  8
AM_5
100
AcDbLine
 10
1789.462142981666
 20
627.0816455684321
 30
0.0
 11
1779.769003536873
 21
516.2885547364854
 31
0.0
  0
LINE
  5
27E1
330
2D85
100
AcDbEntity
  8
AM_5
100
AcDbLine
 10
1723.459277563984
 20
518.2885547364856
 30
0.0
 11
1771.943980863925
 21
518.2885547364856
 31
0.0
  0
SOLID
  5
27E2
330
2D85
100
AcDbEntity
  8
AM_5
100
AcDbTrace
 10
1723.459277563984
 20
519.6218880698189
 30
0.0
 11
1723.459277563984
 21
516.9552214031519
 31
0.0
 12
1715.459277563984
 22
518.2885547364856
 32
0.0
 13
1715.459277563984
 23
518.2885547364856
 33
0.0
  0
SOLID
  5
27E3
330
2D85
100
AcDbEntity
  8
AM_5
100
AcDbTrace
 10
1771.943980863925
 20
519.6218880698189
 30
0.0
 11
1771.943980863925
 21
516.9552214031519
 31
0.0
 12
1779.943980863925
 22
518.2885547364856
 32
0.0
 13
1779.943980863925
 23
518.2885547364856
 33
0.0
  0
INSERT
  5
27E4
330
2D85
100
AcDbEntity
  8
0
100
AcDbBlockReference
  2
*U21
 10
0.0
 20
0.0
 30
0.0
  0
POINT
  5
27E5
330
2D85
100
AcDbEntity
  8
DEFPOINTS
 62
     0
100
AcDbPoint
 10
1725.1375669861
 20
628.9119090325399
 30
0.0
  0
POINT
  5
27E6
330
2D85
100
AcDbEntity
  8
DEFPOINTS
 62
     0
100
AcDbPoint
 10
1789.637120308718
 20
629.0816455684321
 30
0.0
  0
POINT
  5
27E7
330
2D85
100
AcDbEntity
  8
DEFPOINTS
 62
     0
100
AcDbPoint
 10
1779.943980863925
 20
518.2885547364856
 30
0.0
  0
ENDBLK
  5
1858
330
2D85
100
AcDbEntity
  8
0
100
AcDbBlockEnd
  0
BLOCK
  5
2D88
330
2D87
100
AcDbEntity
  8
0
100
AcDbBlockBegin
  2
*U21
 70
     1
 10
0.0
 20
0.0
 30
0.0
  3
*U21
  1

  0
TEXT
  5
2B06
330
2D87
100
AcDbEntity
  8
AM_5
100
AcDbText
 10
1739.016103286022
 20
520.2885547364854
 30
0.0
 40
7.0
  1
64.5
100
AcDbText
  0
ENDBLK
  5
2B08
330
2D87
100
AcDbEntity
  8
0
100
AcDbBlockEnd
  0
BLOCK
  5
2D8A
330
2D89
100
AcDbEntity
  8
0
100
AcDbBlockBegin
  2
*D22
 70
     1
 10
0.0
 20
0.0
 30
0.0
  3
*D22
  1

  0
LINE
  5
2455
330
2D89
100
AcDbEntity
  8
AM_5
100
AcDbLine
 10
1648.757668152635
 20
402.8564228684703
 30
0.0
 11
1664.366388857949
 21
385.8444778554517
 31
0.0
  0
LINE
  5
2456
330
2D89
100
AcDbEntity
  8
AM_5
100
AcDbLine
 10
1664.366388857949
 20
385.8444778554517
 30
0.0
 11
1705.190849171408
 21
385.8444778554517
 31
0.0
  0
SOLID
  5
2457
330
2D89
100
AcDbEntity
  8
AM_5
100
AcDbTrace
 10
1649.494510720922
 20
403.5324872363823
 30
0.0
 11
1648.020825584348
 21
402.1803585005583
 31
0.0
 12
1644.701281945164
 22
407.2774782781927
 32
0.0
 13
1644.701281945164
 23
407.2774782781927
 33
0.0
  0
INSERT
  5
2458
330
2D89
100
AcDbEntity
  8
0
100
AcDbBlockReference
  2
*U23
 10
0.0
 20
0.0
 30
0.0
  0
LINE
  5
2459
330
2D89
100
AcDbEntity
  8
AM_5
100
AcDbLine
 10
1633.969090424774
 20
412.43509391216
 30
0.0
 11
1645.969090424774
 21
412.4350939121598
 31
0.0
  0
LINE
  5
245A
330
2D89
100
AcDbEntity
  8
AM_5
100
AcDbLine
 10
1639.969090424774
 20
406.43509391216
 30
0.0
 11
1639.969090424774
 21
418.4350939121599
 31
0.0
  0
POINT
  5
245B
330
2D89
100
AcDbEntity
  8
DEFPOINTS
 62
     0
100
AcDbPoint
 10
1644.701281945164
 20
407.2774782781927
 30
0.0
  0
POINT
  5
245C
330
2D89
100
AcDbEntity
  8
DEFPOINTS
 62
     0
100
AcDbPoint
 10
1635.236898904383
 20
417.592709546127
 30
0.0
  0
ENDBLK
  5
1863
330
2D89
100
AcDbEntity
  8
0
100
AcDbBlockEnd
  0
BLOCK
  5
2D8C
330
2D8B
100
AcDbEntity
  8
0
100
AcDbBlockBegin
  2
*U23
 70
     1
 10
0.0
 20
0.0
 30
0.0
  3
*U23
  1

  0
TEXT
  5
2AC2
330
2D8B
100
AcDbEntity
  8
AM_5
100
AcDbText
 10
1664.91638885795
 20
387.4444778554517
 30
0.0
 40
7.0
  1
4-\U+22059Thru
100
AcDbText
  0
ENDBLK
  5
2AC4
330
2D8B
100
AcDbEntity
  8
0
100
AcDbBlockEnd
  0
BLOCK
  5
2D96
330
2D95
100
AcDbEntity
  8
0
100
AcDbBlockBegin
  2
*D28
 70
     1
 10
0.0
 20
0.0
 30
0.0
  3
*D28
  1

  0
LINE
  5
2795
330
2D95
100
AcDbEntity
  8
AM_5
100
AcDbLine
 10
1561.054426491935
 20
627.0392112711203
 30
0.0
 11
1551.246086523659
 21
514.9293724304643
 31
0.0
  0
LINE
  5
2796
330
2D95
100
AcDbEntity
  8
AM_5
100
AcDbLine
 10
1628.554426491935
 20
627.0392112711991
 30
0.0
 11
1618.746086523652
 21
514.9293724304643
 31
0.0
  0
LINE
  5
2797
330
2D95
100
AcDbEntity
  8
AM_5
100
AcDbLine
 10
1559.421063850711
 20
516.9293724304646
 30
0.0
 11
1610.921063850704
 21
516.9293724304646
 31
0.0
  0
SOLID
  5
2798
330
2D95
100
AcDbEntity
  8
AM_5
100
AcDbTrace
 10
1559.421063850711
 20
518.2627057637979
 30
0.0
 11
1559.421063850711
 21
515.5960390971312
 31
0.0
 12
1551.421063850711
 22
516.9293724304646
 32
0.0
 13
1551.421063850711
 23
516.9293724304646
 33
0.0
  0
SOLID
  5
2799
330
2D95
100
AcDbEntity
  8
AM_5
100
AcDbTrace
 10
1610.921063850704
 20
518.2627057637979
 30
0.0
 11
1610.921063850704
 21
515.5960390971312
 31
0.0
 12
1618.921063850704
 22
516.9293724304646
 32
0.0
 13
1618.921063850704
 23
516.9293724304646
 33
0.0
  0
INSERT
  5
279A
330
2D95
100
AcDbEntity
  8
0
100
AcDbBlockReference
  2
*U29
 10
0.0
 20
0.0
 30
0.0
  0
POINT
  5
279B
330
2D95
100
AcDbEntity
  8
DEFPOINTS
 62
     0
100
AcDbPoint
 10
1561.229403818986
 20
629.0392112711201
 30
0.0
  0
POINT
  5
279C
330
2D95
100
AcDbEntity
  8
DEFPOINTS
 62
     0
100
AcDbPoint
 10
1628.729403818987
 20
629.039211271199
 30
0.0
  0
POINT
  5
279D
330
2D95
100
AcDbEntity
  8
DEFPOINTS
 62
     0
100
AcDbPoint
 10
1618.921063850704
 20
516.9293724304646
 30
0.0
  0
ENDBLK
  5
1890
330
2D95
100
AcDbEntity
  8
0
100
AcDbBlockEnd
  0
BLOCK
  5
2D98
330
2D97
100
AcDbEntity
  8
0
100
AcDbBlockBegin
  2
*U29
 70
     1
 10
0.0
 20
0.0
 30
0.0
  3
*U29
  1

  0
TEXT
  5
2B02
330
2D97
100
AcDbEntity
  8
AM_5
100
AcDbText
 10
1576.835537922774
 20
518.9293724304643
 30
0.0
 40
7.0
  1
67.5
100
AcDbText
  0
ENDBLK
  5
2B04
330
2D97
100
AcDbEntity
  8
0
100
AcDbBlockEnd
  0
BLOCK
  5
2DBE
330
2DBD
100
AcDbEntity
  8
0
100
AcDbBlockBegin
  2
*D40
 70
     1
 10
0.0
 20
0.0
 30
0.0
  3
*D40
  1

  0
LINE
  5
245D
330
2DBD
100
AcDbEntity
  8
AM_5
100
AcDbLine
 10
1773.711263520853
 20
629.2739377161783
 30
0.0
 11
1795.135677953908
 21
604.0311738919625
 31
0.0
  0
LINE
  5
245E
330
2DBD
100
AcDbEntity
  8
AM_5
100
AcDbLine
 10
1795.135677953908
 20
604.0311738919625
 30
0.0
 11
1827.895461418475
 21
604.0311738919625
 31
0.0
  0
SOLID
  5
245F
330
2DBD
100
AcDbEntity
  8
AM_5
100
AcDbTrace
 10
1774.72781696224
 20
630.1367220916643
 30
0.0
 11
1772.694710079467
 21
628.4111533406924
 31
0.0
 12
1768.534557267938
 22
635.3732583644982
 32
0.0
 13
1768.534557267938
 23
635.3732583644982
 33
0.0
  0
INSERT
  5
2460
330
2DBD
100
AcDbEntity
  8
0
100
AcDbBlockReference
  2
*U41
 10
0.0
 20
0.0
 30
0.0
  0
POINT
  5
2461
330
2DBD
100
AcDbEntity
  8
DEFPOINTS
 62
     0
100
AcDbPoint
 10
1768.534557267938
 20
635.3732583644982
 30
0.0
  0
POINT
  5
2462
330
2DBD
100
AcDbEntity
  8
DEFPOINTS
 62
     0
100
AcDbPoint
 10
1762.239682714298
 20
642.7900319784105
 30
0.0
  0
ENDBLK
  5
1998
330
2DBD
100
AcDbEntity
  8
0
100
AcDbBlockEnd
  0
BLOCK
  5
2DC0
330
2DBF
100
AcDbEntity
  8
0
100
AcDbBlockBegin
  2
*U41
 70
     1
 10
0.0
 20
0.0
 30
0.0
  3
*U41
  1

  0
TEXT
  5
2AC6
330
2DBF
100
AcDbEntity
  8
AM_5
100
AcDbText
 10
1795.863433859421
 20
607.6348796989168
 30
0.0
 40
7.0
  1
2-Plugs
100
AcDbText
  0
ENDBLK
  5
2AC8
330
2DBF
100
AcDbEntity
  8
0
100
AcDbBlockEnd
  0
BLOCK
  5
2DE6
330
2DE5
100
AcDbEntity
  8
0
100
AcDbBlockBegin
  2
*D42
 70
     1
 10
0.0
 20
0.0
 30
0.0
  3
*D42
  1

  0
LINE
  5
2443
330
2DE5
100
AcDbEntity
  8
AM_5
100
AcDbLine
 10
1735.638207339321
 20
709.7839347367214
 30
0.0
 11
1725.928330952973
 21
709.7839347367214
 31
0.0
  0
LINE
  5
2444
330
2DE5
100
AcDbEntity
  8
AM_5
100
AcDbLine
 10
1735.638207339321
 20
679.7839347367214
 30
0.0
 11
1725.928330952973
 21
679.7839347367214
 31
0.0
  0
LINE
  5
2445
330
2DE5
100
AcDbEntity
  8
AM_5
100
AcDbLine
 10
1727.928330952973
 20
701.7839347367214
 30
0.0
 11
1727.928330952973
 21
687.7839347367214
 31
0.0
  0
SOLID
  5
2446
330
2DE5
100
AcDbEntity
  8
AM_5
100
AcDbTrace
 10
1726.594997619639
 20
701.7839347367214
 30
0.0
 11
1729.261664286306
 21
701.7839347367214
 31
0.0
 12
1727.928330952973
 22
709.7839347367214
 32
0.0
 13
1727.928330952973
 23
709.7839347367214
 33
0.0
  0
SOLID
  5
2447
330
2DE5
100
AcDbEntity
  8
AM_5
100
AcDbTrace
 10
1726.594997619639
 20
687.7839347367214
 30
0.0
 11
1729.261664286306
 21
687.7839347367214
 31
0.0
 12
1727.928330952973
 22
679.7839347367214
 32
0.0
 13
1727.928330952973
 23
679.7839347367214
 33
0.0
  0
INSERT
  5
2448
330
2DE5
100
AcDbEntity
  8
0
100
AcDbBlockReference
  2
*U43
 10
0.0
 20
0.0
 30
0.0
  0
POINT
  5
2449
330
2DE5
100
AcDbEntity
  8
DEFPOINTS
 62
     0
100
AcDbPoint
 10
1737.638207339321
 20
709.7839347367214
 30
0.0
  0
POINT
  5
244A
330
2DE5
100
AcDbEntity
  8
DEFPOINTS
 62
     0
100
AcDbPoint
 10
1737.638207339321
 20
679.7839347367214
 30
0.0
  0
POINT
  5
244B
330
2DE5
100
AcDbEntity
  8
DEFPOINTS
 62
     0
100
AcDbPoint
 10
1727.928330952973
 20
679.7839347367214
 30
0.0
  0
ENDBLK
  5
1DFC
330
2DE5
100
AcDbEntity
  8
0
100
AcDbBlockEnd
  0
BLOCK
  5
2DE8
330
2DE7
100
AcDbEntity
  8
0
100
AcDbBlockBegin
  2
*U43
 70
     1
 10
0.0
 20
0.0
 30
0.0
  3
*U43
  1

  0
TEXT
  5
2ABA
330
2DE7
100
AcDbEntity
  8
AM_5
100
AcDbText
 10
1725.928330952973
 20
681.969800878454
 30
0.0
 40
7.0
  1
ST=30
 50
90.0
100
AcDbText
  0
ENDBLK
  5
2ABC
330
2DE7
100
AcDbEntity
  8
0
100
AcDbBlockEnd
  0
BLOCK
  5
2DF2
330
2DF1
100
AcDbEntity
  8
0
100
AcDbBlockBegin
  2
*U44
 70
     1
 10
0.0
 20
0.0
 30
0.0
  3
*U44
  1

  0
LINE
  5
28E7
330
2DF1
100
AcDbEntity
  8
AM_5
100
AcDbLine
 10
1664.333029219566
 20
374.6888754765074
 30
0.0
 11
1745.883029219566
 21
374.6888754765074
 31
0.0
  0
TEXT
  5
28E8
330
2DF1
100
AcDbEntity
  8
AM_5
100
AcDbText
 10
1664.333029219566
 20
376.0888754765073
 30
0.0
 40
7.0
  1
4*2-\U+220514 depth 5mm
100
AcDbText
  0
ENDBLK
  5
28EA
330
2DF1
100
AcDbEntity
  8
0
100
AcDbBlockEnd
  0
BLOCK
  5
31C6
330
31AF
100
AcDbEntity
  8
0
100
AcDbBlockBegin
  2
*D46
 70
     1
 10
0.0
 20
0.0
 30
0.0
  3
*D46
  1

  0
LINE
  5
32CC
330
31AF
100
AcDbEntity
  8
AM_5
370
    -2
100
AcDbLine
 10
1772.987119967298
 20
724.2839342404713
 30
0.0
 11
1772.987119967298
 21
742.2732093562006
 31
0.0
  0
LINE
  5
32CD
330
31AF
100
AcDbEntity
  8
AM_5
370
    -2
100
AcDbLine
 10
1764.987120284898
 20
724.2839342404713
 30
0.0
 11
1764.987120284898
 21
742.2732093562006
 31
0.0
  0
LINE
  5
32CE
330
31AF
100
AcDbEntity
  8
AM_5
370
    -2
100
AcDbLine
 10
1764.987120284898
 20
739.2732093562005
 30
0.0
 11
1752.987120284898
 21
739.2732093562005
 31
0.0
  0
LINE
  5
32CF
330
31AF
100
AcDbEntity
  8
AM_5
370
    -2
100
AcDbLine
 10
1778.987119967298
 20
739.2732093562005
 30
0.0
 11
1790.987119967298
 21
739.2732093562005
 31
0.0
  0
LINE
  5
32D0
330
31AF
100
AcDbEntity
  8
AM_5
370
    -2
100
AcDbLine
 10
1764.987120284898
 20
739.2732093562005
 30
0.0
 11
1772.987119967298
 21
739.2732093562005
 31
0.0
  0
INSERT
  5
32D1
330
31AF
100
AcDbEntity
  8
AM_5
370
    -2
100
AcDbBlockReference
  2
_DOTSMALL
 10
1764.987120284898
 20
739.2732093562005
 30
0.0
 41
6.0
 42
6.0
 43
6.0
  0
SOLID
  5
32D2
330
31AF
100
AcDbEntity
  8
AM_5
100
AcDbTrace
 10
1778.987119967298
 20
740.2732093562006
 30
0.0
 11
1778.987119967298
 21
738.2732093562005
 31
0.0
 12
1772.987119967298
 22
739.2732093562005
 32
0.0
 13
1772.987119967298
 23
739.2732093562005
 33
0.0
  0
MTEXT
  5
32D3
330
31AF
100
AcDbEntity
  8
AM_5
100
AcDbMText
 10
1787.987119967298
 20
744.3732093562005
 30
0.0
 40
7.0
 41
0.0
 71
     5
 72
     1
  1
\A1;8
 73
     1
 44
1.0
1001
ACAD
1000
MTEXTBEGIN
1070
    73
1070
     1
1070
    44
1040
1.0
1070
    74
1070
     0
1000
MTEXTEND
  0
POINT
  5
32D4
330
31AF
100
AcDbEntity
  8
DEFPOINTS
 62
     0
100
AcDbPoint
 10
1772.987119967298
 20
722.2839342404713
 30
0.0
  0
POINT
  5
32D5
330
31AF
100
AcDbEntity
  8
DEFPOINTS
 62
     0
100
AcDbPoint
 10
1764.987120284898
 20
722.2839342404713
 30
0.0
  0
POINT
  5
32D6
330
31AF
100
AcDbEntity
  8
DEFPOINTS
 62
     0
100
AcDbPoint
 10
1764.987120284898
 20
739.2732093562005
 30
0.0
  0
ENDBLK
  5
31C7
330
31AF
100
AcDbEntity
  8
0
100
AcDbBlockEnd
  0
BLOCK
  5
31D0
330
31C8
100
AcDbEntity
  8
0
100
AcDbBlockBegin
  2
*D47
 70
     1
 10
0.0
 20
0.0
 30
0.0
  3
*D47
  1

  0
LINE
  5
32D7
330
31C8
100
AcDbEntity
  8
AM_5
370
    -2
100
AcDbLine
 10
1764.987120284898
 20
724.2839342404713
 30
0.0
 11
1764.987120284898
 21
742.2732093562006
 31
0.0
  0
LINE
  5
32D8
330
31C8
100
AcDbEntity
  8
AM_5
370
    -2
100
AcDbLine
 10
1749.787120332538
 20
724.2839342404713
 30
0.0
 11
1749.787120332538
 21
742.2732093562006
 31
0.0
  0
LINE
  5
32D9
330
31C8
100
AcDbEntity
  8
AM_5
370
    -2
100
AcDbLine
 10
1764.987120284898
 20
739.2732093562005
 30
0.0
 11
1749.787120332538
 21
739.2732093562005
 31
0.0
  0
MTEXT
  5
32DA
330
31C8
100
AcDbEntity
  8
AM_5
100
AcDbMText
 10
1757.7096454771
 20
744.3732093562005
 30
0.0
 40
7.0
 41
0.0
 71
     5
 72
     1
  1
\A1;14
 73
     1
 44
1.0
1001
ACAD
1000
MTEXTBEGIN
1070
    73
1070
     1
1070
    44
1040
1.0
1070
    74
1070
     0
1000
MTEXTEND
  0
POINT
  5
32DB
330
31C8
100
AcDbEntity
  8
DEFPOINTS
 62
     0
100
AcDbPoint
 10
1764.987120284898
 20
722.2839342404713
 30
0.0
  0
POINT
  5
32DC
330
31C8
100
AcDbEntity
  8
DEFPOINTS
 62
     0
100
AcDbPoint
 10
1749.787120332538
 20
722.2839342404713
 30
0.0
  0
POINT
  5
32DD
330
31C8
100
AcDbEntity
  8
DEFPOINTS
 62
     0
100
AcDbPoint
 10
1749.787120332538
 20
739.2732093562005
 30
0.0
  0
ENDBLK
  5
31D1
330
31C8
100
AcDbEntity
  8
0
100
AcDbBlockEnd
  0
BLOCK
  5
31F0
330
31D9
100
AcDbEntity
  8
0
100
AcDbBlockBegin
  2
*D48
 70
     1
 10
0.0
 20
0.0
 30
0.0
  3
*D48
  1

  0
LINE
  5
32DE
330
31D9
100
AcDbEntity
  8
AM_5
370
    -2
100
AcDbLine
 10
1741.787120650138
 20
724.2839342404717
 30
0.0
 11
1741.787120650138
 21
742.2732093562006
 31
0.0
  0
LINE
  5
32DF
330
31D9
100
AcDbEntity
  8
AM_5
370
    -2
100
AcDbLine
 10
1749.787120332538
 20
724.2839342404713
 30
0.0
 11
1749.787120332538
 21
742.2732093562006
 31
0.0
  0
LINE
  5
32E0
330
31D9
100
AcDbEntity
  8
AM_5
370
    -2
100
AcDbLine
 10
1749.787120332538
 20
739.2732093562005
 30
0.0
 11
1761.787120332538
 21
739.2732093562005
 31
0.0
  0
LINE
  5
32E1
330
31D9
100
AcDbEntity
  8
AM_5
370
    -2
100
AcDbLine
 10
1735.787120650138
 20
739.2732093562005
 30
0.0
 11
1723.787120650138
 21
739.2732093562005
 31
0.0
  0
LINE
  5
32E2
330
31D9
100
AcDbEntity
  8
AM_5
370
    -2
100
AcDbLine
 10
1749.787120332538
 20
739.2732093562005
 30
0.0
 11
1741.787120650138
 21
739.2732093562005
 31
0.0
  0
INSERT
  5
32E3
330
31D9
100
AcDbEntity
  8
AM_5
370
    -2
100
AcDbBlockReference
  2
_DOTSMALL
 10
1749.787120332538
 20
739.2732093562005
 30
0.0
 41
6.0
 42
6.0
 43
6.0
 50
180.0
  0
SOLID
  5
32E4
330
31D9
100
AcDbEntity
  8
AM_5
100
AcDbTrace
 10
1735.787120650138
 20
740.2732093562006
 30
0.0
 11
1735.787120650138
 21
738.2732093562005
 31
0.0
 12
1741.787120650138
 22
739.2732093562005
 32
0.0
 13
1741.787120650138
 23
739.2732093562005
 33
0.0
  0
MTEXT
  5
32E5
330
31D9
100
AcDbEntity
  8
AM_5
100
AcDbMText
 10
1726.787120650138
 20
744.3732093562005
 30
0.0
 40
7.0
 41
0.0
 71
     5
 72
     1
  1
\A1;8
 73
     1
 44
1.0
1001
ACAD
1000
MTEXTBEGIN
1070
    73
1070
     1
1070
    44
1040
1.0
1070
    74
1070
     0
1000
MTEXTEND
  0
POINT
  5
32E6
330
31D9
100
AcDbEntity
  8
DEFPOINTS
 62
     0
100
AcDbPoint
 10
1741.787120650138
 20
722.2839342404718
 30
0.0
  0
POINT
  5
32E7
330
31D9
100
AcDbEntity
  8
DEFPOINTS
 62
     0
100
AcDbPoint
 10
1749.787120332538
 20
722.2839342404713
 30
0.0
  0
POINT
  5
32E8
330
31D9
100
AcDbEntity
  8
DEFPOINTS
 62
     0
100
AcDbPoint
 10
1749.787120332538
 20
739.2732093562005
 30
0.0
  0
ENDBLK
  5
31F1
330
31D9
100
AcDbEntity
  8
0
100
AcDbBlockEnd
  0
BLOCK
  5
31FC
330
31F2
100
AcDbEntity
  8
0
100
AcDbBlockBegin
  2
*D49
 70
     1
 10
0.0
 20
0.0
 30
0.0
  3
*D49
  1

  0
LINE
  5
32E9
330
31F2
100
AcDbEntity
  8
AM_5
370
    -2
100
AcDbLine
 10
1738.887120308718
 20
714.3089346364791
 30
0.0
 11
1738.887120308718
 21
752.2732093562005
 31
0.0
  0
LINE
  5
32EA
330
31F2
100
AcDbEntity
  8
AM_5
370
    -2
100
AcDbLine
 10
1775.887120308718
 20
714.3089346364789
 30
0.0
 11
1775.887120308718
 21
752.2732093562005
 31
0.0
  0
LINE
  5
32EB
330
31F2
100
AcDbEntity
  8
AM_5
370
    -2
100
AcDbLine
 10
1744.887120308718
 20
749.2732093562006
 30
0.0
 11
1769.887120308718
 21
749.2732093562006
 31
0.0
  0
SOLID
  5
32EC
330
31F2
100
AcDbEntity
  8
AM_5
100
AcDbTrace
 10
1744.887120308718
 20
750.2732093562006
 30
0.0
 11
1744.887120308718
 21
748.2732093562006
 31
0.0
 12
1738.887120308718
 22
749.2732093562006
 32
0.0
 13
1738.887120308718
 23
749.2732093562006
 33
0.0
  0
SOLID
  5
32ED
330
31F2
100
AcDbEntity
  8
AM_5
100
AcDbTrace
 10
1769.887120308718
 20
750.2732093562006
 30
0.0
 11
1769.887120308718
 21
748.2732093562006
 31
0.0
 12
1775.887120308718
 22
749.2732093562006
 32
0.0
 13
1775.887120308718
 23
749.2732093562006
 33
0.0
  0
MTEXT
  5
32EE
330
31F2
100
AcDbEntity
  8
AM_5
100
AcDbMText
 10
1756.253844086286
 20
754.3732093562006
 30
0.0
 40
7.0
 41
0.0
 71
     5
 72
     1
  1
\A1;37
 73
     1
 44
1.0
1001
ACAD
1000
MTEXTBEGIN
1070
    73
1070
     1
1070
    44
1040
1.0
1070
    74
1070
     0
1000
MTEXTEND
  0
POINT
  5
32EF
330
31F2
100
AcDbEntity
  8
DEFPOINTS
 62
     0
100
AcDbPoint
 10
1738.887120308718
 20
712.3089346364792
 30
0.0
  0
POINT
  5
32F0
330
31F2
100
AcDbEntity
  8
DEFPOINTS
 62
     0
100
AcDbPoint
 10
1775.887120308718
 20
712.3089346364788
 30
0.0
  0
POINT
  5
32F1
330
31F2
100
AcDbEntity
  8
DEFPOINTS
 62
     0
100
AcDbPoint
 10
1775.887120308718
 20
749.2732093562006
 30
0.0
  0
ENDBLK
  5
31FD
330
31F2
100
AcDbEntity
  8
0
100
AcDbBlockEnd
  0
BLOCK
  5
32FC
330
32F2
100
AcDbEntity
  8
0
100
AcDbBlockBegin
  2
*D50
 70
     1
 10
0.0
 20
0.0
 30
0.0
  3
*D50
  1

  0
LINE
  5
32F3
330
32F2
100
AcDbEntity
  8
AM_5
370
    -2
100
AcDbLine
 10
1774.987119967298
 20
722.2839342404713
 30
0.0
 11
1793.508145839368
 21
722.2839342404712
 31
0.0
  0
LINE
  5
32F4
330
32F2
100
AcDbEntity
  8
AM_5
370
    -2
100
AcDbLine
 10
1774.987119967298
 20
697.2839352329712
 30
0.0
 11
1793.508145839368
 21
697.283935232971
 31
0.0
  0
LINE
  5
32F5
330
32F2
100
AcDbEntity
  8
AM_5
370
    -2
100
AcDbLine
 10
1790.508145839368
 20
716.2839342404713
 30
0.0
 11
1790.508145839368
 21
703.2839352329712
 31
0.0
  0
SOLID
  5
32F6
330
32F2
100
AcDbEntity
  8
AM_5
100
AcDbTrace
 10
1789.508145839368
 20
716.2839342404713
 30
0.0
 11
1791.508145839368
 21
716.2839342404713
 31
0.0
 12
1790.508145839368
 22
722.2839342404713
 32
0.0
 13
1790.508145839368
 23
722.2839342404713
 33
0.0
  0
SOLID
  5
32F7
330
32F2
100
AcDbEntity
  8
AM_5
100
AcDbTrace
 10
1789.508145839368
 20
703.2839352329712
 30
0.0
 11
1791.508145839368
 21
703.2839352329712
 31
0.0
 12
1790.508145839368
 22
697.2839352329712
 32
0.0
 13
1790.508145839368
 23
697.2839352329712
 33
0.0
  0
MTEXT
  5
32F8
330
32F2
100
AcDbEntity
  8
AM_5
100
AcDbMText
 10
1785.40745686299
 20
709.7839347367215
 30
0.0
 40
7.0
 41
0.0
 71
     5
 72
     1
  1
\A1;%%c25
 11
0.0000000000000001
 21
1.0
 31
0.0
 73
     1
 44
1.0
1001
ACAD
1000
MTEXTBEGIN
1070
    73
1070
     1
1070
    44
1040
1.0
1070
    74
1070
     0
1000
MTEXTEND
  0
POINT
  5
32F9
330
32F2
100
AcDbEntity
  8
DEFPOINTS
 62
     0
100
AcDbPoint
 10
1772.987119967298
 20
722.2839342404713
 30
0.0
  0
POINT
  5
32FA
330
32F2
100
AcDbEntity
  8
DEFPOINTS
 62
     0
100
AcDbPoint
 10
1772.987119967298
 20
697.2839352329712
 30
0.0
  0
POINT
  5
32FB
330
32F2
100
AcDbEntity
  8
DEFPOINTS
 62
     0
100
AcDbPoint
 10
1790.508145839368
 20
697.2839352329712
 30
0.0
  0
ENDBLK
  5
32FD
330
32F2
100
AcDbEntity
  8
0
100
AcDbBlockEnd
  0
BLOCK
  5
3308
330
32FE
100
AcDbEntity
  8
0
100
AcDbBlockBegin
  2
*D51
 70
     1
 10
0.0
 20
0.0
 30
0.0
  3
*D51
  1

  0
LINE
  5
32FF
330
32FE
100
AcDbEntity
  8
AM_5
370
    -2
100
AcDbLine
 10
1749.387120626318
 20
630.5705065940004
 30
0.0
 11
1749.387120626318
 21
605.3192598404332
 31
0.0
  0
LINE
  5
3300
330
32FE
100
AcDbEntity
  8
AM_5
370
    -2
100
AcDbLine
 10
1765.387119991119
 20
630.5705065940004
 30
0.0
 11
1765.387119991119
 21
605.3192598404332
 31
0.0
  0
LINE
  5
3301
330
32FE
100
AcDbEntity
  8
AM_5
370
    -2
100
AcDbLine
 10
1755.387120626318
 20
608.3192598404332
 30
0.0
 11
1759.387119991119
 21
608.3192598404332
 31
0.0
  0
SOLID
  5
3302
330
32FE
100
AcDbEntity
  8
AM_5
100
AcDbTrace
 10
1755.387120626318
 20
609.3192598404332
 30
0.0
 11
1755.387120626318
 21
607.3192598404332
 31
0.0
 12
1749.387120626318
 22
608.3192598404332
 32
0.0
 13
1749.387120626318
 23
608.3192598404332
 33
0.0
  0
SOLID
  5
3303
330
32FE
100
AcDbEntity
  8
AM_5
100
AcDbTrace
 10
1759.387119991119
 20
609.3192598404332
 30
0.0
 11
1759.387119991119
 21
607.3192598404332
 31
0.0
 12
1765.387119991119
 22
608.3192598404332
 32
0.0
 13
1765.387119991119
 23
608.3192598404332
 33
0.0
  0
MTEXT
  5
3304
330
32FE
100
AcDbEntity
  8
AM_5
100
AcDbMText
 10
1757.387120308719
 20
613.4192598404332
 30
0.0
 40
7.0
 41
0.0
 71
     5
 72
     1
  1
\A1;16
 73
     1
 44
1.0
1001
ACAD
1000
MTEXTBEGIN
1070
    73
1070
     1
1070
    44
1040
1.0
1070
    74
1070
     0
1000
MTEXTEND
  0
POINT
  5
3305
330
32FE
100
AcDbEntity
  8
DEFPOINTS
 62
     0
100
AcDbPoint
 10
1749.387120626318
 20
632.5705065940004
 30
0.0
  0
POINT
  5
3306
330
32FE
100
AcDbEntity
  8
DEFPOINTS
 62
     0
100
AcDbPoint
 10
1765.387119991119
 20
632.5705065940004
 30
0.0
  0
POINT
  5
3307
330
32FE
100
AcDbEntity
  8
DEFPOINTS
 62
     0
100
AcDbPoint
 10
1765.387119991119
 20
608.3192598404332
 30
0.0
  0
ENDBLK
  5
3309
330
32FE
100
AcDbEntity
  8
0
100
AcDbBlockEnd
  0
BLOCK
  5
3314
330
330A
100
AcDbEntity
  8
0
100
AcDbBlockBegin
  2
*D52
 70
     1
 10
0.0
 20
0.0
 30
0.0
  3
*D52
  1

  0
LINE
  5
330B
330
330A
100
AcDbEntity
  8
AM_5
370
    -2
100
AcDbLine
 10
1611.310731547975
 20
709.2330983830322
 30
0.0
 11
1651.427114626686
 21
709.2330983830322
 31
0.0
  0
LINE
  5
330C
330
330A
100
AcDbEntity
  8
AM_5
370
    -2
100
AcDbLine
 10
1630.842184398188
 20
664.1314288088524
 30
0.0
 11
1651.427114626686
 21
664.1314288088524
 31
0.0
  0
LINE
  5
330D
330
330A
100
AcDbEntity
  8
AM_5
370
    -2
100
AcDbLine
 10
1648.427114626686
 20
703.2330983830322
 30
0.0
 11
1648.427114626686
 21
670.1314288088524
 31
0.0
  0
SOLID
  5
330E
330
330A
100
AcDbEntity
  8
AM_5
100
AcDbTrace
 10
1647.427114626686
 20
703.2330983830322
 30
0.0
 11
1649.427114626686
 21
703.2330983830322
 31
0.0
 12
1648.427114626686
 22
709.2330983830322
 32
0.0
 13
1648.427114626686
 23
709.2330983830322
 33
0.0
  0
SOLID
  5
330F
330
330A
100
AcDbEntity
  8
AM_5
100
AcDbTrace
 10
1647.427114626686
 20
670.1314288088524
 30
0.0
 11
1649.427114626686
 21
670.1314288088524
 31
0.0
 12
1648.427114626686
 22
664.1314288088524
 32
0.0
 13
1648.427114626686
 23
664.1314288088524
 33
0.0
  0
MTEXT
  5
3310
330
330A
100
AcDbEntity
  8
AM_5
100
AcDbMText
 10
1643.327114626686
 20
688.5481181025145
 30
0.0
 40
7.0
 41
0.0
 71
     5
 72
     1
  1
\A1;45.5
 11
0.0000000000000001
 21
1.0
 31
0.0
 73
     1
 44
1.0
1001
ACAD
1000
MTEXTBEGIN
1070
    73
1070
     1
1070
    44
1040
1.0
1070
    74
1070
     0
1000
MTEXTEND
  0
POINT
  5
3311
330
330A
100
AcDbEntity
  8
DEFPOINTS
 62
     0
100
AcDbPoint
 10
1609.310731547975
 20
709.2330983830322
 30
0.0
  0
POINT
  5
3312
330
330A
100
AcDbEntity
  8
DEFPOINTS
 62
     0
100
AcDbPoint
 10
1628.842184398188
 20
664.1314288088524
 30
0.0
  0
POINT
  5
3313
330
330A
100
AcDbEntity
  8
DEFPOINTS
 62
     0
100
AcDbPoint
 10
1648.427114626686
 20
664.1314288088524
 30
0.0
  0
ENDBLK
  5
3315
330
330A
100
AcDbEntity
  8
0
100
AcDbBlockEnd
  0
BLOCK
  5
3320
330
3316
100
AcDbEntity
  8
0
100
AcDbBlockBegin
  2
*D53
 70
     1
 10
0.0
 20
0.0
 30
0.0
  3
*D53
  1

  0
LINE
  5
3317
330
3316
100
AcDbEntity
  8
AM_5
370
    -2
100
AcDbLine
 10
1611.310731547975
 20
709.2330983830322
 30
0.0
 11
1679.645742894165
 21
709.2330983830322
 31
0.0
  0
LINE
  5
3318
330
3316
100
AcDbEntity
  8
AM_5
370
    -2
100
AcDbLine
 10
1652.95608020058
 20
629.039211271199
 30
0.0
 11
1679.645742894165
 21
629.039211271199
 31
0.0
  0
LINE
  5
3319
330
3316
100
AcDbEntity
  8
AM_5
370
    -2
100
AcDbLine
 10
1676.645742894165
 20
703.2330983830322
 30
0.0
 11
1676.645742894165
 21
635.0392112711991
 31
0.0
  0
SOLID
  5
331A
330
3316
100
AcDbEntity
  8
AM_5
100
AcDbTrace
 10
1675.645742894165
 20
703.2330983830322
 30
0.0
 11
1677.645742894165
 21
703.2330983830322
 31
0.0
 12
1676.645742894165
 22
709.2330983830322
 32
0.0
 13
1676.645742894165
 23
709.2330983830322
 33
0.0
  0
SOLID
  5
331B
330
3316
100
AcDbEntity
  8
AM_5
100
AcDbTrace
 10
1675.645742894165
 20
635.0392112711991
 30
0.0
 11
1677.645742894165
 21
635.0392112711991
 31
0.0
 12
1676.645742894165
 22
629.039211271199
 32
0.0
 13
1676.645742894165
 23
629.039211271199
 33
0.0
  0
MTEXT
  5
331C
330
3316
100
AcDbEntity
  8
AM_5
100
AcDbMText
 10
1671.545742894165
 20
669.1361548271158
 30
0.0
 40
7.0
 41
0.0
 71
     5
 72
     1
  1
\A1;80.5
 11
0.0000000000000001
 21
1.0
 31
0.0
 73
     1
 44
1.0
1001
ACAD
1000
MTEXTBEGIN
1070
    73
1070
     1
1070
    44
1040
1.0
1070
    74
1070
     0
1000
MTEXTEND
  0
POINT
  5
331D
330
3316
100
AcDbEntity
  8
DEFPOINTS
 62
     0
100
AcDbPoint
 10
1609.310731547975
 20
709.2330983830322
 30
0.0
  0
POINT
  5
331E
330
3316
100
AcDbEntity
  8
DEFPOINTS
 62
     0
100
AcDbPoint
 10
1650.95608020058
 20
629.039211271199
 30
0.0
  0
POINT
  5
331F
330
3316
100
AcDbEntity
  8
DEFPOINTS
 62
     0
100
AcDbPoint
 10
1676.645742894165
 20
629.039211271199
 30
0.0
  0
ENDBLK
  5
3321
330
3316
100
AcDbEntity
  8
0
100
AcDbBlockEnd
  0
BLOCK
  5
332C
330
3322
100
AcDbEntity
  8
0
100
AcDbBlockBegin
  2
*D54
 70
     1
 10
0.0
 20
0.0
 30
0.0
  3
*D54
  1

  0
LINE
  5
3323
330
3322
100
AcDbEntity
  8
AM_5
370
    -2
100
AcDbLine
 10
1596.979403818986
 20
721.733098383032
 30
0.0
 11
1696.029290611952
 21
721.733098383032
 31
0.0
  0
LINE
  5
3324
330
3322
100
AcDbEntity
  8
AM_5
370
    -2
100
AcDbLine
 10
1630.465451297261
 20
534.0787781238539
 30
0.0
 11
1696.029290611952
 21
534.0787781238539
 31
0.0
  0
LINE
  5
3325
330
3322
100
AcDbEntity
  8
AM_5
370
    -2
100
AcDbLine
 10
1693.029290611952
 20
715.733098383032
 30
0.0
 11
1693.029290611952
 21
540.0787781238538
 31
0.0
  0
SOLID
  5
3326
330
3322
100
AcDbEntity
  8
AM_5
100
AcDbTrace
 10
1692.029290611952
 20
715.733098383032
 30
0.0
 11
1694.029290611952
 21
715.733098383032
 31
0.0
 12
1693.029290611952
 22
721.733098383032
 32
0.0
 13
1693.029290611952
 23
721.733098383032
 33
0.0
  0
SOLID
  5
3327
330
3322
100
AcDbEntity
  8
AM_5
100
AcDbTrace
 10
1692.029290611952
 20
540.0787781238538
 30
0.0
 11
1694.029290611952
 21
540.0787781238538
 31
0.0
 12
1693.029290611952
 22
534.0787781238539
 32
0.0
 13
1693.029290611952
 23
534.0787781238539
 33
0.0
  0
MTEXT
  5
3328
330
3322
100
AcDbEntity
  8
AM_5
100
AcDbMText
 10
1687.929290611952
 20
624.2979743386647
 30
0.0
 40
7.0
 41
0.0
 71
     5
 72
     1
  1
\A1;188
 11
0.0000000000000001
 21
1.0
 31
0.0
 73
     1
 44
1.0
1001
ACAD
1000
MTEXTBEGIN
1070
    73
1070
     1
1070
    44
1040
1.0
1070
    74
1070
     0
1000
MTEXTEND
  0
POINT
  5
3329
330
3322
100
AcDbEntity
  8
DEFPOINTS
 62
     0
100
AcDbPoint
 10
1594.979403818986
 20
721.733098383032
 30
0.0
  0
POINT
  5
332A
330
3322
100
AcDbEntity
  8
DEFPOINTS
 62
     0
100
AcDbPoint
 10
1628.465451297261
 20
534.0787781238539
 30
0.0
  0
POINT
  5
332B
330
3322
100
AcDbEntity
  8
DEFPOINTS
 62
     0
100
AcDbPoint
 10
1693.029290611952
 20
534.0787781238539
 30
0.0
  0
ENDBLK
  5
332D
330
3322
100
AcDbEntity
  8
0
100
AcDbBlockEnd
  0
BLOCK
  5
3338
330
332E
100
AcDbEntity
  8
0
100
AcDbBlockBegin
  2
*D55
 70
     1
 10
0.0
 20
0.0
 30
0.0
  3
*D55
  1

  0
LINE
  5
332F
330
332E
100
AcDbEntity
  8
AM_5
370
    -2
100
AcDbLine
 10
1630.465451297261
 20
534.0787781238539
 30
0.0
 11
1679.645742894166
 21
534.0787781238539
 31
0.0
  0
LINE
  5
3330
330
332E
100
AcDbEntity
  8
AM_5
370
    -2
100
AcDbLine
 10
1652.95608020058
 20
629.039211271199
 30
0.0
 11
1679.645742894166
 21
629.039211271199
 31
0.0
  0
LINE
  5
3331
330
332E
100
AcDbEntity
  8
AM_5
370
    -2
100
AcDbLine
 10
1676.645742894165
 20
540.0787781238538
 30
0.0
 11
1676.645742894165
 21
623.0392112711991
 31
0.0
  0
SOLID
  5
3332
330
332E
100
AcDbEntity
  8
AM_5
100
AcDbTrace
 10
1675.645742894165
 20
540.0787781238538
 30
0.0
 11
1677.645742894165
 21
540.0787781238538
 31
0.0
 12
1676.645742894165
 22
534.0787781238539
 32
0.0
 13
1676.645742894165
 23
534.0787781238539
 33
0.0
  0
SOLID
  5
3333
330
332E
100
AcDbEntity
  8
AM_5
100
AcDbTrace
 10
1675.645742894165
 20
623.0392112711991
 30
0.0
 11
1677.645742894165
 21
623.0392112711991
 31
0.0
 12
1676.645742894165
 22
629.039211271199
 32
0.0
 13
1676.645742894165
 23
629.039211271199
 33
0.0
  0
MTEXT
  5
3334
330
332E
100
AcDbEntity
  8
AM_5
100
AcDbMText
 10
1671.545742894165
 20
580.0658218863901
 30
0.0
 40
7.0
 41
0.0
 71
     5
 72
     1
  1
\A1;95
 11
0.0000000000000001
 21
1.0
 31
0.0
 73
     1
 44
1.0
1001
ACAD
1000
MTEXTBEGIN
1070
    73
1070
     1
1070
    44
1040
1.0
1070
    74
1070
     0
1000
MTEXTEND
  0
POINT
  5
3335
330
332E
100
AcDbEntity
  8
DEFPOINTS
 62
     0
100
AcDbPoint
 10
1628.465451297261
 20
534.0787781238539
 30
0.0
  0
POINT
  5
3336
330
332E
100
AcDbEntity
  8
DEFPOINTS
 62
     0
100
AcDbPoint
 10
1650.95608020058
 20
629.039211271199
 30
0.0
  0
POINT
  5
3337
330
332E
100
AcDbEntity
  8
DEFPOINTS
 62
     0
100
AcDbPoint
 10
1676.645742894165
 20
629.039211271199
 30
0.0
  0
ENDBLK
  5
3339
330
332E
100
AcDbEntity
  8
0
100
AcDbBlockEnd
  0
BLOCK
  5
3346
330
333A
100
AcDbEntity
  8
0
100
AcDbBlockBegin
  2
*D56
 70
     1
 10
0.0
 20
0.0
 30
0.0
  3
*D56
  1

  0
LINE
  5
333B
330
333A
100
AcDbEntity
  8
AM_5
370
    -2
100
AcDbLine
 10
1652.95608020058
 20
649.0308814074824
 30
0.0
 11
1665.95608020058
 21
649.0308814074824
 31
0.0
  0
LINE
  5
333C
330
333A
100
AcDbEntity
  8
AM_5
370
    -2
100
AcDbLine
 10
1630.346550800519
 20
654.028798941553
 30
0.0
 11
1665.95608020058
 21
654.028798941553
 31
0.0
  0
LINE
  5
333D
330
333A
100
AcDbEntity
  8
AM_5
370
    -2
100
AcDbLine
 10
1662.95608020058
 20
643.0308814074824
 30
0.0
 11
1662.95608020058
 21
637.0308814074824
 31
0.0
  0
LINE
  5
333E
330
333A
100
AcDbEntity
  8
AM_5
370
    -2
100
AcDbLine
 10
1662.95608020058
 20
660.0287989415529
 30
0.0
 11
1662.95608020058
 21
676.7187484352144
 31
0.0
  0
LINE
  5
333F
330
333A
100
AcDbEntity
  8
AM_5
370
    -2
100
AcDbLine
 10
1662.95608020058
 20
649.0308814074824
 30
0.0
 11
1662.95608020058
 21
654.028798941553
 31
0.0
  0
SOLID
  5
3340
330
333A
100
AcDbEntity
  8
AM_5
100
AcDbTrace
 10
1661.95608020058
 20
643.0308814074824
 30
0.0
 11
1663.95608020058
 21
643.0308814074824
 31
0.0
 12
1662.95608020058
 22
649.0308814074824
 32
0.0
 13
1662.95608020058
 23
649.0308814074824
 33
0.0
  0
SOLID
  5
3341
330
333A
100
AcDbEntity
  8
AM_5
100
AcDbTrace
 10
1661.95608020058
 20
660.0287989415529
 30
0.0
 11
1663.95608020058
 21
660.0287989415529
 31
0.0
 12
1662.95608020058
 22
654.028798941553
 32
0.0
 13
1662.95608020058
 23
654.028798941553
 33
0.0
  0
MTEXT
  5
3342
330
333A
100
AcDbEntity
  8
AM_5
100
AcDbMText
 10
1657.85608020058
 20
673.573773688384
 30
0.0
 40
7.0
 41
0.0
 71
     5
 72
     1
  1
\A1;5
 11
0.0000000000000001
 21
1.0
 31
0.0
 73
     1
 44
1.0
1001
ACAD
1000
MTEXTBEGIN
1070
    73
1070
     1
1070
    44
1040
1.0
1070
    74
1070
     0
1000
MTEXTEND
  0
POINT
  5
3343
330
333A
100
AcDbEntity
  8
DEFPOINTS
 62
     0
100
AcDbPoint
 10
1650.95608020058
 20
649.0308814074824
 30
0.0
  0
POINT
  5
3344
330
333A
100
AcDbEntity
  8
DEFPOINTS
 62
     0
100
AcDbPoint
 10
1628.346550800519
 20
654.028798941553
 30
0.0
  0
POINT
  5
3345
330
333A
100
AcDbEntity
  8
DEFPOINTS
 62
     0
100
AcDbPoint
 10
1662.95608020058
 20
654.028798941553
 30
0.0
  0
ENDBLK
  5
3347
330
333A
100
AcDbEntity
  8
0
100
AcDbBlockEnd
  0
BLOCK
  5
3352
330
3348
100
AcDbEntity
  8
0
100
AcDbBlockBegin
  2
*D57
 70
     1
 10
0.0
 20
0.0
 30
0.0
  3
*D57
  1

  0
LINE
  5
3349
330
3348
100
AcDbEntity
  8
AM_5
370
    -2
100
AcDbLine
 10
1652.95608020058
 20
629.039211271199
 30
0.0
 11
1665.95608020058
 21
629.039211271199
 31
0.0
  0
LINE
  5
334A
330
3348
100
AcDbEntity
  8
AM_5
370
    -2
100
AcDbLine
 10
1652.95608020058
 20
649.0308814074824
 30
0.0
 11
1665.95608020058
 21
649.0308814074824
 31
0.0
  0
LINE
  5
334B
330
3348
100
AcDbEntity
  8
AM_5
370
    -2
100
AcDbLine
 10
1662.95608020058
 20
635.0392112711991
 30
0.0
 11
1662.95608020058
 21
643.0308814074824
 31
0.0
  0
SOLID
  5
334C
330
3348
100
AcDbEntity
  8
AM_5
100
AcDbTrace
 10
1661.95608020058
 20
635.0392112711991
 30
0.0
 11
1663.95608020058
 21
635.0392112711991
 31
0.0
 12
1662.95608020058
 22
629.039211271199
 32
0.0
 13
1662.95608020058
 23
629.039211271199
 33
0.0
  0
SOLID
  5
334D
330
3348
100
AcDbEntity
  8
AM_5
100
AcDbTrace
 10
1661.95608020058
 20
643.0308814074824
 30
0.0
 11
1663.95608020058
 21
643.0308814074824
 31
0.0
 12
1662.95608020058
 22
649.0308814074824
 32
0.0
 13
1662.95608020058
 23
649.0308814074824
 33
0.0
  0
MTEXT
  5
334E
330
3348
100
AcDbEntity
  8
AM_5
100
AcDbMText
 10
1657.855391224202
 20
639.0350463393409
 30
0.0
 40
7.0
 41
0.0
 71
     5
 72
     1
  1
\A1;20
 11
0.0000000000000001
 21
1.0
 31
0.0
 73
     1
 44
1.0
1001
ACAD
1000
MTEXTBEGIN
1070
    73
1070
     1
1070
    44
1040
1.0
1070
    74
1070
     0
1000
MTEXTEND
  0
POINT
  5
334F
330
3348
100
AcDbEntity
  8
DEFPOINTS
 62
     0
100
AcDbPoint
 10
1650.95608020058
 20
629.039211271199
 30
0.0
  0
POINT
  5
3350
330
3348
100
AcDbEntity
  8
DEFPOINTS
 62
     0
100
AcDbPoint
 10
1650.95608020058
 20
649.0308814074824
 30
0.0
  0
POINT
  5
3351
330
3348
100
AcDbEntity
  8
DEFPOINTS
 62
     0
100
AcDbPoint
 10
1662.95608020058
 20
649.0308814074824
 30
0.0
  0
ENDBLK
  5
3353
330
3348
100
AcDbEntity
  8
0
100
AcDbBlockEnd
  0
BLOCK
  5
335E
330
3354
100
AcDbEntity
  8
0
100
AcDbBlockBegin
  2
*D58
 70
     1
 10
0.0
 20
0.0
 30
0.0
  3
*D58
  1

  0
LINE
  5
3355
330
3354
100
AcDbEntity
  8
AM_5
370
    -2
100
AcDbLine
 10
1649.968652503677
 20
468.4320284644861
 30
0.0
 11
1679.645742894165
 21
468.4320284644861
 31
0.0
  0
LINE
  5
3356
330
3354
100
AcDbEntity
  8
AM_5
370
    -2
100
AcDbLine
 10
1649.968652503677
 20
412.4350939121598
 30
0.0
 11
1679.645742894165
 21
412.4350939121597
 31
0.0
  0
LINE
  5
3357
330
3354
100
AcDbEntity
  8
AM_5
370
    -2
100
AcDbLine
 10
1676.645742894165
 20
462.432028464486
 30
0.0
 11
1676.645742894165
 21
418.4350939121597
 31
0.0
  0
SOLID
  5
3358
330
3354
100
AcDbEntity
  8
AM_5
100
AcDbTrace
 10
1675.645742894165
 20
462.432028464486
 30
0.0
 11
1677.645742894165
 21
462.432028464486
 31
0.0
 12
1676.645742894165
 22
468.4320284644861
 32
0.0
 13
1676.645742894165
 23
468.4320284644861
 33
0.0
  0
SOLID
  5
3359
330
3354
100
AcDbEntity
  8
AM_5
100
AcDbTrace
 10
1675.645742894165
 20
418.4350939121597
 30
0.0
 11
1677.645742894165
 21
418.4350939121597
 31
0.0
 12
1676.645742894165
 22
412.4350939121597
 32
0.0
 13
1676.645742894165
 23
412.4350939121597
 33
0.0
  0
MTEXT
  5
335A
330
3354
100
AcDbEntity
  8
AM_5
100
AcDbMText
 10
1671.545742894165
 20
440.4335611883232
 30
0.0
 40
7.0
 41
0.0
 71
     5
 72
     1
  1
\A1;56
 11
0.0000000000000001
 21
1.0
 31
0.0
 73
     1
 44
1.0
1001
ACAD
1000
MTEXTBEGIN
1070
    73
1070
     1
1070
    44
1040
1.0
1070
    74
1070
     0
1000
MTEXTEND
  0
POINT
  5
335B
330
3354
100
AcDbEntity
  8
DEFPOINTS
 62
     0
100
AcDbPoint
 10
1647.968652503677
 20
468.4320284644861
 30
0.0
  0
POINT
  5
335C
330
3354
100
AcDbEntity
  8
DEFPOINTS
 62
     0
100
AcDbPoint
 10
1647.968652503677
 20
412.4350939121598
 30
0.0
  0
POINT
  5
335D
330
3354
100
AcDbEntity
  8
DEFPOINTS
 62
     0
100
AcDbPoint
 10
1676.645742894165
 20
412.4350939121597
 30
0.0
  0
ENDBLK
  5
335F
330
3354
100
AcDbEntity
  8
0
100
AcDbBlockEnd
  0
BLOCK
  5
336A
330
3360
100
AcDbEntity
  8
0
100
AcDbBlockBegin
  2
*D59
 70
     1
 10
0.0
 20
0.0
 30
0.0
  3
*D59
  1

  0
LINE
  5
3361
330
3360
100
AcDbEntity
  8
AM_5
370
    -2
100
AcDbLine
 10
1647.968761983951
 20
477.9315084331845
 30
0.0
 11
1696.029290611952
 21
477.9315084331844
 31
0.0
  0
LINE
  5
3362
330
3360
100
AcDbEntity
  8
AM_5
370
    -2
100
AcDbLine
 10
1647.968761983951
 20
402.935613943462
 30
0.0
 11
1696.029290611952
 21
402.9356139434619
 31
0.0
  0
LINE
  5
3363
330
3360
100
AcDbEntity
  8
AM_5
370
    -2
100
AcDbLine
 10
1693.029290611952
 20
471.9315084331844
 30
0.0
 11
1693.029290611952
 21
408.9356139434618
 31
0.0
  0
SOLID
  5
3364
330
3360
100
AcDbEntity
  8
AM_5
100
AcDbTrace
 10
1692.029290611952
 20
471.9315084331844
 30
0.0
 11
1694.029290611952
 21
471.9315084331844
 31
0.0
 12
1693.029290611952
 22
477.9315084331844
 32
0.0
 13
1693.029290611952
 23
477.9315084331844
 33
0.0
  0
SOLID
  5
3365
330
3360
100
AcDbEntity
  8
AM_5
100
AcDbTrace
 10
1692.029290611952
 20
408.9356139434618
 30
0.0
 11
1694.029290611952
 21
408.9356139434618
 31
0.0
 12
1693.029290611952
 22
402.9356139434619
 32
0.0
 13
1693.029290611952
 23
402.9356139434619
 33
0.0
  0
MTEXT
  5
3366
330
3360
100
AcDbEntity
  8
AM_5
100
AcDbMText
 10
1687.929290611952
 20
440.2733108939233
 30
0.0
 40
7.0
 41
0.0
 71
     5
 72
     1
  1
\A1;75
 11
0.0000000000000001
 21
1.0
 31
0.0
 73
     1
 44
1.0
1001
ACAD
1000
MTEXTBEGIN
1070
    73
1070
     1
1070
    44
1040
1.0
1070
    74
1070
     0
1000
MTEXTEND
  0
POINT
  5
3367
330
3360
100
AcDbEntity
  8
DEFPOINTS
 62
     0
100
AcDbPoint
 10
1645.968761983951
 20
477.9315084331845
 30
0.0
  0
POINT
  5
3368
330
3360
100
AcDbEntity
  8
DEFPOINTS
 62
     0
100
AcDbPoint
 10
1645.968761983951
 20
402.935613943462
 30
0.0
  0
POINT
  5
3369
330
3360
100
AcDbEntity
  8
DEFPOINTS
 62
     0
100
AcDbPoint
 10
1693.029290611952
 20
402.9356139434619
 30
0.0
  0
ENDBLK
  5
336B
330
3360
100
AcDbEntity
  8
0
100
AcDbBlockEnd
  0
BLOCK
  5
3376
330
336C
100
AcDbEntity
  8
0
100
AcDbBlockBegin
  2
*D60
 70
     1
 10
0.0
 20
0.0
 30
0.0
  3
*D60
  1

  0
LINE
  5
336D
330
336C
100
AcDbEntity
  8
AM_5
370
    -2
100
AcDbLine
 10
1549.974017037106
 20
402.4355318332561
 30
0.0
 11
1549.974017037106
 21
385.7934417735855
 31
0.0
  0
LINE
  5
336E
330
336C
100
AcDbEntity
  8
AM_5
370
    -2
100
AcDbLine
 10
1639.969090424773
 20
402.4355318332561
 30
0.0
 11
1639.969090424773
 21
385.7934417735855
 31
0.0
  0
LINE
  5
336F
330
336C
100
AcDbEntity
  8
AM_5
370
    -2
100
AcDbLine
 10
1555.974017037106
 20
388.7934417735855
 30
0.0
 11
1633.969090424773
 21
388.7934417735855
 31
0.0
  0
SOLID
  5
3370
330
336C
100
AcDbEntity
  8
AM_5
100
AcDbTrace
 10
1555.974017037106
 20
389.7934417735855
 30
0.0
 11
1555.974017037106
 21
387.7934417735855
 31
0.0
 12
1549.974017037106
 22
388.7934417735855
 32
0.0
 13
1549.974017037106
 23
388.7934417735855
 33
0.0
  0
SOLID
  5
3371
330
336C
100
AcDbEntity
  8
AM_5
100
AcDbTrace
 10
1633.969090424773
 20
389.7934417735855
 30
0.0
 11
1633.969090424773
 21
387.7934417735855
 31
0.0
 12
1639.969090424773
 22
388.7934417735855
 32
0.0
 13
1639.969090424773
 23
388.7934417735855
 33
0.0
  0
MTEXT
  5
3372
330
336C
100
AcDbEntity
  8
AM_5
100
AcDbMText
 10
1594.971553730939
 20
393.8934417735855
 30
0.0
 40
7.0
 41
0.0
 71
     5
 72
     1
  1
\A1;90
 73
     1
 44
1.0
1001
ACAD
1000
MTEXTBEGIN
1070
    73
1070
     1
1070
    44
1040
1.0
1070
    74
1070
     0
1000
MTEXTEND
  0
POINT
  5
3373
330
336C
100
AcDbEntity
  8
DEFPOINTS
 62
     0
100
AcDbPoint
 10
1549.974017037106
 20
404.4355318332562
 30
0.0
  0
POINT
  5
3374
330
336C
100
AcDbEntity
  8
DEFPOINTS
 62
     0
100
AcDbPoint
 10
1639.969090424773
 20
404.4355318332562
 30
0.0
  0
POINT
  5
3375
330
336C
100
AcDbEntity
  8
DEFPOINTS
 62
     0
100
AcDbPoint
 10
1639.969090424773
 20
388.7934417735855
 30
0.0
  0
ENDBLK
  5
3377
330
336C
100
AcDbEntity
  8
0
100
AcDbBlockEnd
  0
BLOCK
  5
3382
330
3378
100
AcDbEntity
  8
0
100
AcDbBlockBegin
  2
*D61
 70
     1
 10
0.0
 20
0.0
 30
0.0
  3
*D61
  1

  0
LINE
  5
3384
330
3378
100
AcDbEntity
  8
AM_5
370
    -2
100
AcDbLine
 10
1538.974619178613
 20
405.9353402427765
 30
0.0
 11
1538.974619178613
 21
369.7934417735869
 31
0.0
  0
LINE
  5
3385
330
3378
100
AcDbEntity
  8
AM_5
370
    -2
100
AcDbLine
 10
1650.968488283266
 20
405.9353402427765
 30
0.0
 11
1650.968488283266
 21
369.7934417735869
 31
0.0
  0
LINE
  5
3386
330
3378
100
AcDbEntity
  8
AM_5
370
    -2
100
AcDbLine
 10
1544.974619178613
 20
372.7934417735869
 30
0.0
 11
1644.968488283266
 21
372.7934417735869
 31
0.0
  0
SOLID
  5
3387
330
3378
100
AcDbEntity
  8
AM_5
100
AcDbTrace
 10
1544.974619178613
 20
373.7934417735869
 30
0.0
 11
1544.974619178613
 21
371.7934417735869
 31
0.0
 12
1538.974619178613
 22
372.7934417735869
 32
0.0
 13
1538.974619178613
 23
372.7934417735869
 33
0.0
  0
SOLID
  5
3388
330
3378
100
AcDbEntity
  8
AM_5
100
AcDbTrace
 10
1644.968488283266
 20
373.7934417735869
 30
0.0
 11
1644.968488283266
 21
371.7934417735869
 31
0.0
 12
1650.968488283266
 22
372.7934417735869
 32
0.0
 13
1650.968488283266
 23
372.7934417735869
 33
0.0
  0
MTEXT
  5
3389
330
3378
100
AcDbEntity
  8
AM_5
100
AcDbMText
 10
1594.971553730939
 20
377.8941307499648
 30
0.0
 40
7.0
 41
0.0
 71
     5
 72
     1
  1
\A1;112
 73
     1
 44
1.0
1001
ACAD
1000
MTEXTBEGIN
1070
    73
1070
     1
1070
    44
1040
1.0
1070
    74
1070
     0
1000
MTEXTEND
  0
POINT
  5
338A
330
3378
100
AcDbEntity
  8
DEFPOINTS
 62
     0
100
AcDbPoint
 10
1538.974619178613
 20
407.9353402427766
 30
0.0
  0
POINT
  5
338B
330
3378
100
AcDbEntity
  8
DEFPOINTS
 62
     0
100
AcDbPoint
 10
1650.968488283266
 20
407.9353402427766
 30
0.0
  0
POINT
  5
338C
330
3378
100
AcDbEntity
  8
DEFPOINTS
 62
     0
100
AcDbPoint
 10
1650.968488283266
 20
372.7934417735869
 30
0.0
  0
ENDBLK
  5
3383
330
3378
100
AcDbEntity
  8
0
100
AcDbBlockEnd
  0
ENDSEC
  0
SECTION
  2
ENTITIES
  0
LINE
  5
11D7
330
2CF0
100
AcDbEntity
  8
CEN
100
AcDbLine
 10
1757.387120308718
 20
531.5900044205483
 30
0.0
 11
1757.387120308718
 21
606.2879303598553
 31
0.0
  0
LINE
  5
11D8
330
2CF0
100
AcDbEntity
  8
0
100
AcDbLine
 10
1725.137120308718
 20
629.0816455684534
 30
0.0
 11
1725.387121579118
 21
534.0816493399536
 31
0.0
  0
LINE
  5
11D9
330
2CF0
100
AcDbEntity
  8
0
100
AcDbLine
 10
1730.156440164364
 20
534.0816493399536
 30
0.0
 11
1730.156440164364
 21
619.0816459654536
 31
0.0
  0
LINE
  5
11DA
330
2CF0
100
AcDbEntity
  8
0
100
AcDbLine
 10
1789.637120308718
 20
629.0816455684534
 30
0.0
 11
1789.387119038318
 21
534.0816493399536
 31
0.0
  0
LINE
  5
11DB
330
2CF0
100
AcDbEntity
  8
0
100
AcDbLine
 10
1784.617800453071
 20
534.0816493399536
 30
0.0
 11
1784.617800453071
 21
619.0816459654536
 31
0.0
  0
LINE
  5
11DC
330
2CF0
100
AcDbEntity
  8
CEN
100
AcDbLine
 10
1594.979403818986
 20
725.4270139597393
 30
0.0
 11
1594.979403818986
 21
529.1944826518443
 31
0.0
  0
LINE
  5
11DD
330
2CF0
100
AcDbEntity
  8
0
100
AcDbLine
 10
1584.979403818987
 20
701.7330983830322
 30
0.0
 11
1584.979403818987
 21
664.1314288088524
 31
0.0
  0
LINE
  5
11DE
330
2CF0
100
AcDbEntity
  8
0
100
AcDbLine
 10
1604.979403818986
 20
701.7330983830322
 30
0.0
 11
1604.979403818986
 21
664.1314288088524
 31
0.0
  0
LINE
  5
11DF
330
2CF0
100
AcDbEntity
  8
0
 62
     7
100
AcDbLine
 10
1622.75042179483
 20
408.4353128727082
 30
0.0
 11
1567.192685667049
 21
408.4353128727082
 31
0.0
  0
LINE
  5
11E0
330
2CF0
100
AcDbEntity
  8
0
 62
     7
100
AcDbLine
 10
1645.968761983951
 20
402.935613943462
 30
0.0
 11
1543.974345477928
 21
402.935613943462
 31
0.0
  0
LINE
  5
11E1
330
2CF0
100
AcDbEntity
  8
0
 62
     7
100
AcDbLine
 10
1615.970404188062
 20
478.1814947481501
 30
0.0
 11
1573.972703273817
 21
478.1814947481501
 31
0.0
  0
LINE
  5
11E2
330
2CF0
100
AcDbEntity
  8
0
 62
     7
100
AcDbLine
 10
1645.968761983951
 20
477.9315084331845
 30
0.0
 11
1543.974345477928
 21
477.9315084331845
 31
0.0
  0
LINE
  5
11E3
330
2CF0
100
AcDbEntity
  8
0
 62
     7
100
AcDbLine
 10
1622.75042179483
 20
472.4318095039381
 30
0.0
 11
1567.192685667049
 21
472.4318095039381
 31
0.0
  0
LINE
  5
11E4
330
2CF0
100
AcDbEntity
  8
CEN
100
AcDbLine
 10
1653.178375387106
 20
440.4335611883232
 30
0.0
 11
1537.385042086365
 21
440.4335611883232
 31
0.0
  0
ARC
  5
11E5
330
2CF0
100
AcDbEntity
  8
0
100
AcDbCircle
 10
1594.97155373094
 20
440.4335611883229
 30
0.0
 40
20.50000000615
100
AcDbArc
 50
58.13655878694537
 51
121.8634412130546
  0
LINE
  5
11E6
330
2CF0
100
AcDbEntity
  8
0
100
AcDbLine
 10
1580.97155372674
 20
469.4335611970228
 30
0.0
 11
1608.971553735139
 21
469.4335611970228
 31
0.0
  0
CIRCLE
  5
11E7
330
2CF0
100
AcDbEntity
  8
0
100
AcDbCircle
 10
1594.97155373094
 20
440.4335611883229
 30
0.0
 40
5.500000001649999
  0
ARC
  5
11E8
330
2CF0
100
AcDbEntity
  8
0
100
AcDbCircle
 10
1594.97155373094
 20
440.4335611883229
 30
0.0
 40
20.50000000615
100
AcDbArc
 50
238.1365587869454
 51
301.8634412130546
  0
LINE
  5
11E9
330
2CF0
100
AcDbEntity
  8
0
100
AcDbLine
 10
1580.97155372674
 20
411.4335611796231
 30
0.0
 11
1608.971553735139
 21
411.4335611796231
 31
0.0
  0
CIRCLE
  5
11EA
330
2CF0
100
AcDbEntity
  8
CEN
100
AcDbCircle
 10
1594.971553730939
 20
440.4335611883229
 30
0.0
 40
22.50000000675
  0
LINE
  5
11EB
330
2CF0
100
AcDbEntity
  8
CEN
100
AcDbLine
 10
1563.67744538526
 20
471.7276695340021
 30
0.0
 11
1626.56924792205
 21
408.8358669972127
 31
0.0
  0
LINE
  5
11EC
330
2CF0
100
AcDbEntity
  8
CEN
100
AcDbLine
 10
1563.340566738846
 20
408.8025741962288
 30
0.0
 11
1626.232503231574
 21
471.6945106889578
 31
0.0
  0
LINE
  5
11ED
330
2CF0
100
AcDbEntity
  8
0
 62
     7
100
AcDbLine
 10
1538.974619178613
 20
472.9317821338694
 30
0.0
 11
1538.974619178613
 21
407.9353402427766
 31
0.0
  0
LINE
  5
11EE
330
2CF0
100
AcDbEntity
  8
0
 62
     7
100
AcDbLine
 10
1561.47338752553
 20
466.4129011113777
 30
0.0
 11
1561.47338752553
 21
414.4542212652685
 31
0.0
  0
ARC
  5
11EF
330
2CF0
100
AcDbEntity
  8
0
 62
     7
100
AcDbCircle
 10
1549.974017037106
 20
412.4350939121598
 30
0.0
 40
9.999452598629677
100
AcDbArc
 50
24.62431835216872
 51
90.0
  0
ARC
  5
11F0
330
2CF0
100
AcDbEntity
  8
0
 62
     7
100
AcDbCircle
 10
1547.474153887448
 20
424.4344370305156
 30
0.0
 40
1.999890519725934
100
AcDbArc
 50
180.0
 51
270.0
  0
CIRCLE
  5
11F1
330
2CF0
100
AcDbEntity
  8
0
100
AcDbCircle
 10
1579.061651149469
 20
424.5236586068525
 30
0.0
 40
2.200000000659998
  0
LINE
  5
11F2
330
2CF0
100
AcDbEntity
  8
CEN
100
AcDbLine
 10
1594.97155373094
 20
481.1950140387057
 30
0.0
 11
1594.97155373094
 21
401.2730922960948
 31
0.0
  0
CIRCLE
  5
11F3
330
2CF0
100
AcDbEntity
  8
0
100
AcDbCircle
 10
1569.97155372344
 20
415.4335611808232
 30
0.0
 40
5.500000001649999
  0
LINE
  5
11F4
330
2CF0
100
AcDbEntity
  8
CEN
100
AcDbLine
 10
1563.97155372164
 20
415.4335611808232
 30
0.0
 11
1575.971553725239
 21
415.4335611808232
 31
0.0
  0
CIRCLE
  5
11F5
330
2CF0
100
AcDbEntity
  8
0
100
AcDbCircle
 10
1569.97155372344
 20
415.4335611808232
 30
0.0
 40
3.0000000009
  0
ARC
  5
11F6
330
2CF0
100
AcDbEntity
  8
0
 62
     7
100
AcDbCircle
 10
1543.974345477928
 20
407.9353402427766
 30
0.0
 40
4.999726299314839
100
AcDbArc
 50
180.0
 51
270.0
  0
LINE
  5
11F7
330
2CF0
100
AcDbEntity
  8
CEN
100
AcDbLine
 10
1541.52942945399
 20
412.4350939121598
 30
0.0
 11
1557.97357911601
 21
412.4350939121598
 31
0.0
  0
CIRCLE
  5
11F8
330
2CF0
100
AcDbEntity
  8
0
 62
     7
100
AcDbCircle
 10
1549.974017037106
 20
412.4350939121598
 30
0.0
 40
6.99961681904077
  0
CIRCLE
  5
11F9
330
2CF0
100
AcDbEntity
  8
0
 62
     7
100
AcDbCircle
 10
1549.974017037106
 20
412.4350939121598
 30
0.0
 40
4.499753669383355
  0
LINE
  5
11FA
330
2CF0
100
AcDbEntity
  8
CEN
100
AcDbLine
 10
1549.974017037106
 20
420.5974202525228
 30
0.0
 11
1549.974017037106
 21
404.4355318332562
 31
0.0
  0
LINE
  5
11FB
330
2CF0
100
AcDbEntity
  8
0
 62
     7
100
AcDbLine
 10
1547.474153887448
 20
422.4345465107896
 30
0.0
 11
1549.974017037106
 21
422.4345465107896
 31
0.0
  0
ARC
  5
11FC
330
2CF0
100
AcDbEntity
  8
0
 62
     7
100
AcDbCircle
 10
1594.97155373094
 20
440.4335611883232
 30
0.0
 40
42.49767354417613
100
AcDbArc
 50
218.213210701732
 51
228.6174010737861
  0
ARC
  5
11FD
330
2CF0
100
AcDbEntity
  8
0
 62
     7
100
AcDbCircle
 10
1567.192685667049
 20
408.9352855026395
 30
0.0
 40
0.4999726299314839
100
AcDbArc
 50
228.5903778907302
 51
270.0
  0
ARC
  5
11FE
330
2CF0
100
AcDbEntity
  8
0
 62
     7
100
AcDbCircle
 10
1560.882132007346
 20
417.4348202114748
 30
0.0
 40
1.999890519725934
100
AcDbArc
 50
204.6243183521628
 51
270.0
  0
ARC
  5
11FF
330
2CF0
100
AcDbEntity
  8
0
 62
     7
100
AcDbCircle
 10
1561.973360155462
 20
414.4542212652685
 30
0.0
 40
0.4999726299314839
100
AcDbArc
 50
180.0
 51
218.2132107017452
  0
ARC
  5
1200
330
2CF0
100
AcDbEntity
  8
0
100
AcDbCircle
 10
1583.357830225845
 20
421.7487698692417
 30
0.0
 40
1.500000000449998
100
AcDbArc
 50
58.13655878694537
 51
135.0
  0
LINE
  5
1201
330
2CF0
100
AcDbEntity
  8
CEN
100
AcDbLine
 10
1569.97155372344
 20
421.433561182623
 30
0.0
 11
1569.97155372344
 21
409.433561179023
 31
0.0
  0
ARC
  5
1202
330
2CF0
100
AcDbEntity
  8
0
100
AcDbCircle
 10
1580.97155372674
 20
413.4335611802231
 30
0.0
 40
2.0000000006
100
AcDbArc
 50
180.0
 51
270.0
  0
LINE
  5
1203
330
2CF0
100
AcDbEntity
  8
0
100
AcDbLine
 10
1579.557340163942
 20
420.0696001515348
 30
0.0
 11
1582.297170053747
 21
422.8094300413397
 31
0.0
  0
ARC
  5
1204
330
2CF0
100
AcDbEntity
  8
0
100
AcDbCircle
 10
1580.97155372674
 20
418.6553865887375
 30
0.0
 40
2.0000000006
100
AcDbArc
 50
135.0
 51
180.0
  0
LINE
  5
1205
330
2CF0
100
AcDbEntity
  8
0
100
AcDbLine
 10
1578.971553726139
 20
418.6553865887375
 30
0.0
 11
1578.971553726139
 21
413.4335611802231
 31
0.0
  0
CIRCLE
  5
1206
330
2CF0
100
AcDbEntity
  8
0
 62
     7
100
AcDbCircle
 10
1549.974017037106
 20
468.4320284644861
 30
0.0
 40
4.499753669383355
  0
CIRCLE
  5
1207
330
2CF0
100
AcDbEntity
  8
0
 62
     7
100
AcDbCircle
 10
1549.974017037106
 20
468.4320284644861
 30
0.0
 40
6.99961681904077
  0
CIRCLE
  5
1208
330
2CF0
100
AcDbEntity
  8
0
100
AcDbCircle
 10
1569.97155372344
 20
465.4335611958231
 30
0.0
 40
3.0000000009
  0
CIRCLE
  5
1209
330
2CF0
100
AcDbEntity
  8
0
100
AcDbCircle
 10
1569.97155372344
 20
465.4335611958231
 30
0.0
 40
5.500000001649999
  0
LINE
  5
120A
330
2CF0
100
AcDbEntity
  8
CEN
100
AcDbLine
 10
1569.97155372344
 20
471.4335611976231
 30
0.0
 11
1569.97155372344
 21
459.433561194023
 31
0.0
  0
LINE
  5
120B
330
2CF0
100
AcDbEntity
  8
0
100
AcDbLine
 10
1578.971553726139
 20
467.433561196423
 30
0.0
 11
1578.971553726139
 21
462.2117357879084
 31
0.0
  0
LINE
  5
120C
330
2CF0
100
AcDbEntity
  8
0
100
AcDbLine
 10
1567.47155372269
 20
424.433561183523
 30
0.0
 11
1573.193379131354
 21
424.433561183523
 31
0.0
  0
LINE
  5
120D
330
2CF0
100
AcDbEntity
  8
CEN
100
AcDbLine
 10
1563.97155372164
 20
465.4335611958231
 30
0.0
 11
1575.971553725239
 21
465.4335611958231
 31
0.0
  0
LINE
  5
120E
330
2CF0
100
AcDbEntity
  8
0
100
AcDbLine
 10
1567.47155372269
 20
456.433561193123
 30
0.0
 11
1573.193379131354
 21
456.433561193123
 31
0.0
  0
LINE
  5
120F
330
2CF0
100
AcDbEntity
  8
0
100
AcDbLine
 10
1565.47155372209
 20
454.4335611925231
 30
0.0
 11
1565.47155372209
 21
426.4335611841228
 31
0.0
  0
ARC
  5
1210
330
2CF0
100
AcDbEntity
  8
0
 62
     7
100
AcDbCircle
 10
1546.974181257517
 20
440.4335611883232
 30
0.0
 40
4.999726299314839
100
AcDbArc
 50
274.0960437581514
 51
85.90395624184861
  0
ARC
  5
1211
330
2CF0
100
AcDbEntity
  8
0
 62
     7
100
AcDbCircle
 10
1547.474153887448
 20
433.4518233686457
 30
0.0
 40
1.999890519725934
100
AcDbArc
 50
94.0960437581514
 51
180.0
  0
LINE
  5
1212
330
2CF0
100
AcDbEntity
  8
0
 62
     7
100
AcDbLine
 10
1545.474263367723
 20
433.4518233686457
 30
0.0
 11
1545.474263367723
 21
424.4344370305156
 31
0.0
  0
CIRCLE
  5
1213
330
2CF0
100
AcDbEntity
  8
0
 62
     7
100
AcDbCircle
 10
1546.974181257517
 20
440.4335611883232
 30
0.0
 40
2.199879571698528
  0
LINE
  5
1214
330
2CF0
100
AcDbEntity
  8
CEN
100
AcDbLine
 10
1546.974181257517
 20
444.0019403980584
 30
0.0
 11
1546.974181257517
 21
437.207645260757
 31
0.0
  0
ARC
  5
1215
330
2CF0
100
AcDbEntity
  8
0
100
AcDbCircle
 10
1567.47155372269
 20
426.4335611841228
 30
0.0
 40
2.0000000006
100
AcDbArc
 50
180.0
 51
270.0
  0
ARC
  5
1216
330
2CF0
100
AcDbEntity
  8
0
 62
     7
100
AcDbCircle
 10
1549.974017037106
 20
468.4320284644861
 30
0.0
 40
9.999452598629677
100
AcDbArc
 50
270.0
 51
335.3756816478313
  0
LINE
  5
1217
330
2CF0
100
AcDbEntity
  8
0
 62
     7
100
AcDbLine
 10
1545.474263367723
 20
456.4326853461308
 30
0.0
 11
1545.474263367723
 21
447.4152990080003
 31
0.0
  0
ARC
  5
1218
330
2CF0
100
AcDbEntity
  8
0
 62
     7
100
AcDbCircle
 10
1547.474153887448
 20
447.4152990080003
 30
0.0
 40
1.999890519725934
100
AcDbArc
 50
180.0
 51
265.9039562418485
  0
ARC
  5
1219
330
2CF0
100
AcDbEntity
  8
0
 62
     7
100
AcDbCircle
 10
1547.474153887448
 20
456.4326853461308
 30
0.0
 40
1.999890519725934
100
AcDbArc
 50
90.0
 51
180.0
  0
LINE
  5
121A
330
2CF0
100
AcDbEntity
  8
0
 62
     7
100
AcDbLine
 10
1547.474153887448
 20
458.4325758658564
 30
0.0
 11
1549.974017037106
 21
458.4325758658564
 31
0.0
  0
ARC
  5
121B
330
2CF0
100
AcDbEntity
  8
0
100
AcDbCircle
 10
1567.47155372269
 20
454.4335611925231
 30
0.0
 40
2.0000000006
100
AcDbArc
 50
90.0
 51
180.0
  0
ARC
  5
121C
330
2CF0
100
AcDbEntity
  8
0
 62
     7
100
AcDbCircle
 10
1560.882132007346
 20
463.4323021651712
 30
0.0
 40
1.999890519725934
100
AcDbArc
 50
90.0
 51
155.3756816478372
  0
LINE
  5
121D
330
2CF0
100
AcDbEntity
  8
0
 62
     7
100
AcDbLine
 10
1560.882132007346
 20
465.4321926848973
 30
0.0
 11
1561.47338752553
 21
465.4321926848973
 31
0.0
  0
ARC
  5
121E
330
2CF0
100
AcDbEntity
  8
0
100
AcDbCircle
 10
1594.97155373094
 20
440.4335611883229
 30
0.0
 40
20.50000000615
100
AcDbArc
 50
148.1365587869431
 51
211.8634412130568
  0
LINE
  5
121F
330
2CF0
100
AcDbEntity
  8
0
100
AcDbLine
 10
1574.607592694152
 20
425.0193476213255
 30
0.0
 11
1577.347422583956
 21
427.7591775111305
 31
0.0
  0
ARC
  5
1220
330
2CF0
100
AcDbEntity
  8
0
100
AcDbCircle
 10
1573.193379131354
 20
426.4335611841228
 30
0.0
 40
2.0000000006
100
AcDbArc
 50
270.0
 51
315.0
  0
ARC
  5
1221
330
2CF0
100
AcDbEntity
  8
0
100
AcDbCircle
 10
1576.286762411858
 20
428.8198376832282
 30
0.0
 40
1.500000000449998
100
AcDbArc
 50
315.0
 51
31.86344121305687
  0
ARC
  5
1222
330
2CF0
100
AcDbEntity
  8
0
100
AcDbCircle
 10
1583.357830225845
 20
459.1183525074043
 30
0.0
 40
1.500000000449998
100
AcDbArc
 50
225.0
 51
301.8634412130546
  0
LINE
  5
1223
330
2CF0
100
AcDbEntity
  8
0
100
AcDbLine
 10
1574.607592694152
 20
455.8477747553205
 30
0.0
 11
1577.347422583956
 21
453.1079448655155
 31
0.0
  0
CIRCLE
  5
1224
330
2CF0
100
AcDbEntity
  8
0
100
AcDbCircle
 10
1579.061651149469
 20
456.3434637697934
 30
0.0
 40
2.200000000659998
  0
ARC
  5
1225
330
2CF0
100
AcDbEntity
  8
0
100
AcDbCircle
 10
1576.286762411858
 20
452.0472846934175
 30
0.0
 40
1.500000000449998
100
AcDbArc
 50
328.1365587869432
 51
45.0
  0
ARC
  5
1226
330
2CF0
100
AcDbEntity
  8
0
100
AcDbCircle
 10
1573.193379131354
 20
454.4335611925231
 30
0.0
 40
2.0000000006
100
AcDbArc
 50
45.0
 51
90.0
  0
LINE
  5
1227
330
2CF0
100
AcDbEntity
  8
0
100
AcDbLine
 10
1579.557340163942
 20
460.7975222251111
 30
0.0
 11
1582.297170053747
 21
458.0576923353063
 31
0.0
  0
ARC
  5
1228
330
2CF0
100
AcDbEntity
  8
0
100
AcDbCircle
 10
1580.97155372674
 20
462.2117357879084
 30
0.0
 40
2.0000000006
100
AcDbArc
 50
180.0
 51
225.0
  0
ARC
  5
1229
330
2CF0
100
AcDbEntity
  8
0
 62
     7
100
AcDbCircle
 10
1543.974345477928
 20
472.9317821338694
 30
0.0
 40
4.999726299314839
100
AcDbArc
 50
90.0
 51
180.0
  0
ARC
  5
122A
330
2CF0
100
AcDbEntity
  8
0
 62
     7
100
AcDbCircle
 10
1594.97155373094
 20
440.4335611883232
 30
0.0
 40
42.49767354417613
100
AcDbArc
 50
131.4096221092697
 51
141.7867892982678
  0
ARC
  5
122B
330
2CF0
100
AcDbEntity
  8
0
 62
     7
100
AcDbCircle
 10
1561.973360155462
 20
466.4129011113777
 30
0.0
 40
0.4999726299314839
100
AcDbArc
 50
141.7867892982548
 51
180.0
  0
ARC
  5
122C
330
2CF0
100
AcDbEntity
  8
0
 62
     7
100
AcDbCircle
 10
1567.192685667049
 20
471.9318368740068
 30
0.0
 40
0.4999726299314839
100
AcDbArc
 50
90.0
 51
131.4096221092697
  0
ARC
  5
122D
330
2CF0
100
AcDbEntity
  8
0
100
AcDbCircle
 10
1580.97155372674
 20
467.433561196423
 30
0.0
 40
2.0000000006
100
AcDbArc
 50
90.0
 51
180.0
  0
LINE
  5
122E
330
2CF0
100
AcDbEntity
  8
0
 62
     7
100
AcDbLine
 10
1573.972703273817
 20
478.1814947481501
 30
0.0
 11
1573.972703273817
 21
477.9315084331845
 31
0.0
  0
LINE
  5
122F
330
2CF0
100
AcDbEntity
  8
0
 62
     7
100
AcDbLine
 10
1628.469719936349
 20
466.4129011113777
 30
0.0
 11
1628.469719936349
 21
414.4542212652685
 31
0.0
  0
LINE
  5
1230
330
2CF0
100
AcDbEntity
  8
0
 62
     7
100
AcDbLine
 10
1650.968488283266
 20
472.9317821338694
 30
0.0
 11
1650.968488283266
 21
407.9353402427766
 31
0.0
  0
CIRCLE
  5
1231
330
2CF0
100
AcDbEntity
  8
0
100
AcDbCircle
 10
1610.88145631241
 20
424.5236586068528
 30
0.0
 40
2.200000000659998
  0
ARC
  5
1232
330
2CF0
100
AcDbEntity
  8
0
 62
     7
100
AcDbCircle
 10
1642.468953574431
 20
424.4344370305156
 30
0.0
 40
1.999890519725934
100
AcDbArc
 50
270.0
 51
0.0
  0
ARC
  5
1233
330
2CF0
100
AcDbEntity
  8
0
 62
     7
100
AcDbCircle
 10
1639.969090424773
 20
412.4350939121598
 30
0.0
 40
9.999452598629677
100
AcDbArc
 50
90.0
 51
155.3756816478312
  0
ARC
  5
1234
330
2CF0
100
AcDbEntity
  8
0
 62
     7
100
AcDbCircle
 10
1629.060975454533
 20
417.4348202114748
 30
0.0
 40
1.999890519725934
100
AcDbArc
 50
270.0
 51
335.3756816478372
  0
LINE
  5
1235
330
2CF0
100
AcDbEntity
  8
CEN
100
AcDbLine
 10
1613.971553736639
 20
415.4335611808232
 30
0.0
 11
1625.97155374024
 21
415.4335611808232
 31
0.0
  0
CIRCLE
  5
1236
330
2CF0
100
AcDbEntity
  8
0
100
AcDbCircle
 10
1619.97155373844
 20
415.4335611808232
 30
0.0
 40
5.500000001649999
  0
ARC
  5
1237
330
2CF0
100
AcDbEntity
  8
0
100
AcDbCircle
 10
1608.971553735139
 20
413.4335611802231
 30
0.0
 40
2.0000000006
100
AcDbArc
 50
270.0
 51
0.0
  0
ARC
  5
1238
330
2CF0
100
AcDbEntity
  8
0
100
AcDbCircle
 10
1606.585277236034
 20
421.7487698692417
 30
0.0
 40
1.500000000449998
100
AcDbArc
 50
45.0
 51
121.8634412130546
  0
LINE
  5
1239
330
2CF0
100
AcDbEntity
  8
0
100
AcDbLine
 10
1607.645937408132
 20
422.8094300413397
 30
0.0
 11
1610.385767297937
 21
420.0696001515348
 31
0.0
  0
ARC
  5
123A
330
2CF0
100
AcDbEntity
  8
0
100
AcDbCircle
 10
1608.971553735139
 20
418.6553865887375
 30
0.0
 40
2.0000000006
100
AcDbArc
 50
0.0
 51
45.0
  0
LINE
  5
123B
330
2CF0
100
AcDbEntity
  8
0
100
AcDbLine
 10
1610.971553735739
 20
418.6553865887375
 30
0.0
 11
1610.971553735739
 21
413.4335611802231
 31
0.0
  0
CIRCLE
  5
123C
330
2CF0
100
AcDbEntity
  8
0
100
AcDbCircle
 10
1619.97155373844
 20
415.4335611808232
 30
0.0
 40
3.0000000009
  0
LINE
  5
123D
330
2CF0
100
AcDbEntity
  8
CEN
100
AcDbLine
 10
1619.97155373844
 20
421.433561182623
 30
0.0
 11
1619.97155373844
 21
409.433561179023
 31
0.0
  0
ARC
  5
123E
330
2CF0
100
AcDbEntity
  8
0
 62
     7
100
AcDbCircle
 10
1594.97155373094
 20
440.4335611883232
 30
0.0
 40
42.49767354417613
100
AcDbArc
 50
311.4096221092698
 51
321.7867892982678
  0
ARC
  5
123F
330
2CF0
100
AcDbEntity
  8
0
 62
     7
100
AcDbCircle
 10
1622.75042179483
 20
408.9352855026395
 30
0.0
 40
0.4999726299314839
100
AcDbArc
 50
270.0
 51
311.4096221092698
  0
ARC
  5
1240
330
2CF0
100
AcDbEntity
  8
0
 62
     7
100
AcDbCircle
 10
1627.969747306418
 20
414.4542212652685
 30
0.0
 40
0.4999726299314839
100
AcDbArc
 50
321.7867892982587
 51
0.0
  0
LINE
  5
1241
330
2CF0
100
AcDbEntity
  8
0
 62
     7
100
AcDbLine
 10
1629.060975454533
 20
415.4349296917488
 30
0.0
 11
1628.469719936349
 21
415.4349296917488
 31
0.0
  0
ARC
  5
1242
330
2CF0
100
AcDbEntity
  8
0
 62
     7
100
AcDbCircle
 10
1645.968761983951
 20
407.9353402427766
 30
0.0
 40
4.999726299314839
100
AcDbArc
 50
270.0
 51
0.0
  0
CIRCLE
  5
1243
330
2CF0
100
AcDbEntity
  8
0
 62
     7
100
AcDbCircle
 10
1639.969090424773
 20
412.4350939121598
 30
0.0
 40
6.99961681904077
  0
CIRCLE
  5
1244
330
2CF0
100
AcDbEntity
  8
0
 62
     7
100
AcDbCircle
 10
1639.969090424773
 20
412.4350939121598
 30
0.0
 40
4.499753669383355
  0
LINE
  5
1245
330
2CF0
100
AcDbEntity
  8
0
 62
     7
100
AcDbLine
 10
1642.468953574431
 20
422.4345465107896
 30
0.0
 11
1639.969090424773
 21
422.4345465107896
 31
0.0
  0
CIRCLE
  5
1246
330
2CF0
100
AcDbEntity
  8
0
100
AcDbCircle
 10
1619.97155373844
 20
465.4335611958231
 30
0.0
 40
5.500000001649999
  0
LINE
  5
1247
330
2CF0
100
AcDbEntity
  8
CEN
100
AcDbLine
 10
1619.97155373844
 20
471.4335611976231
 30
0.0
 11
1619.97155373844
 21
459.433561194023
 31
0.0
  0
CIRCLE
  5
1248
330
2CF0
100
AcDbEntity
  8
0
100
AcDbCircle
 10
1619.97155373844
 20
465.4335611958231
 30
0.0
 40
3.0000000009
  0
LINE
  5
1249
330
2CF0
100
AcDbEntity
  8
0
100
AcDbLine
 10
1610.971553735739
 20
467.433561196423
 30
0.0
 11
1610.971553735739
 21
462.2117357879084
 31
0.0
  0
CIRCLE
  5
124A
330
2CF0
100
AcDbEntity
  8
0
 62
     7
100
AcDbCircle
 10
1639.969090424773
 20
468.4320284644861
 30
0.0
 40
4.499753669383355
  0
CIRCLE
  5
124B
330
2CF0
100
AcDbEntity
  8
0
 62
     7
100
AcDbCircle
 10
1639.969090424773
 20
468.4320284644861
 30
0.0
 40
6.99961681904077
  0
ARC
  5
124C
330
2CF0
100
AcDbEntity
  8
0
 62
     7
100
AcDbCircle
 10
1629.060975454533
 20
463.4323021651712
 30
0.0
 40
1.999890519725934
100
AcDbArc
 50
24.62431835216281
 51
90.0
  0
ARC
  5
124D
330
2CF0
100
AcDbEntity
  8
0
 62
     7
100
AcDbCircle
 10
1639.969090424773
 20
468.4320284644861
 30
0.0
 40
9.999452598629677
100
AcDbArc
 50
204.6243183521687
 51
270.0
  0
LINE
  5
124E
330
2CF0
100
AcDbEntity
  8
0
100
AcDbLine
 10
1624.471553739789
 20
454.4335611925231
 30
0.0
 11
1624.471553739789
 21
426.4335611841228
 31
0.0
  0
ARC
  5
124F
330
2CF0
100
AcDbEntity
  8
0
100
AcDbCircle
 10
1594.97155373094
 20
440.4335611883229
 30
0.0
 40
20.50000000615
100
AcDbArc
 50
328.1365587869432
 51
31.86344121305687
  0
LINE
  5
1250
330
2CF0
100
AcDbEntity
  8
0
100
AcDbLine
 10
1612.595684877923
 20
427.7591775111305
 30
0.0
 11
1615.335514767727
 21
425.0193476213255
 31
0.0
  0
ARC
  5
1251
330
2CF0
100
AcDbEntity
  8
0
100
AcDbCircle
 10
1613.656345050021
 20
428.8198376832282
 30
0.0
 40
1.500000000449998
100
AcDbArc
 50
148.1365587869431
 51
225.0
  0
LINE
  5
1252
330
2CF0
100
AcDbEntity
  8
0
100
AcDbLine
 10
1616.749728330525
 20
424.433561183523
 30
0.0
 11
1622.47155373919
 21
424.433561183523
 31
0.0
  0
ARC
  5
1253
330
2CF0
100
AcDbEntity
  8
0
100
AcDbCircle
 10
1616.749728330525
 20
426.4335611841228
 30
0.0
 40
2.0000000006
100
AcDbArc
 50
225.0
 51
270.0
  0
ARC
  5
1254
330
2CF0
100
AcDbEntity
  8
0
100
AcDbCircle
 10
1622.47155373919
 20
426.4335611841228
 30
0.0
 40
2.0000000006
100
AcDbArc
 50
270.0
 51
0.0
  0
LINE
  5
1255
330
2CF0
100
AcDbEntity
  8
0
100
AcDbLine
 10
1612.595684877923
 20
453.1079448655155
 30
0.0
 11
1615.335514767727
 21
455.8477747553205
 31
0.0
  0
LINE
  5
1256
330
2CF0
100
AcDbEntity
  8
CEN
100
AcDbLine
 10
1613.971553736639
 20
465.4335611958231
 30
0.0
 11
1625.97155374024
 21
465.4335611958231
 31
0.0
  0
CIRCLE
  5
1257
330
2CF0
100
AcDbEntity
  8
0
100
AcDbCircle
 10
1610.809736251183
 20
456.4148619726526
 30
0.0
 40
2.200000000659998
  0
ARC
  5
1258
330
2CF0
100
AcDbEntity
  8
0
100
AcDbCircle
 10
1613.656345050021
 20
452.0472846934175
 30
0.0
 40
1.500000000449998
100
AcDbArc
 50
135.0
 51
211.8634412130568
  0
ARC
  5
1259
330
2CF0
100
AcDbEntity
  8
0
100
AcDbCircle
 10
1606.585277236034
 20
459.1183525074043
 30
0.0
 40
1.500000000449998
100
AcDbArc
 50
238.1365587869454
 51
315.0
  0
ARC
  5
125A
330
2CF0
100
AcDbEntity
  8
0
100
AcDbCircle
 10
1608.971553735139
 20
462.2117357879084
 30
0.0
 40
2.0000000006
100
AcDbArc
 50
315.0
 51
0.0
  0
ARC
  5
125B
330
2CF0
100
AcDbEntity
  8
0
100
AcDbCircle
 10
1608.971553735139
 20
462.2117357879084
 30
0.0
 40
2.0000000006
100
AcDbArc
 50
315.0
 51
0.0
  0
LINE
  5
125C
330
2CF0
100
AcDbEntity
  8
0
100
AcDbLine
 10
1607.645937408132
 20
458.0576923353063
 30
0.0
 11
1610.385767297937
 21
460.7975222251111
 31
0.0
  0
ARC
  5
125D
330
2CF0
100
AcDbEntity
  8
0
100
AcDbCircle
 10
1622.47155373919
 20
454.4335611925231
 30
0.0
 40
2.0000000006
100
AcDbArc
 50
0.0
 51
90.0
  0
LINE
  5
125E
330
2CF0
100
AcDbEntity
  8
0
100
AcDbLine
 10
1616.749728330525
 20
456.433561193123
 30
0.0
 11
1622.47155373919
 21
456.433561193123
 31
0.0
  0
ARC
  5
125F
330
2CF0
100
AcDbEntity
  8
0
100
AcDbCircle
 10
1616.749728330525
 20
454.4335611925231
 30
0.0
 40
2.0000000006
100
AcDbArc
 50
90.0
 51
135.0
  0
ARC
  5
1260
330
2CF0
100
AcDbEntity
  8
0
100
AcDbCircle
 10
1616.749728330525
 20
454.4335611925231
 30
0.0
 40
2.0000000006
100
AcDbArc
 50
90.0
 51
135.0
  0
LINE
  5
1261
330
2CF0
100
AcDbEntity
  8
0
 62
     7
100
AcDbLine
 10
1629.060975454533
 20
465.4321926848973
 30
0.0
 11
1628.469719936349
 21
465.4321926848973
 31
0.0
  0
ARC
  5
1262
330
2CF0
100
AcDbEntity
  8
0
 62
     7
100
AcDbCircle
 10
1642.968926204362
 20
440.4335611883232
 30
0.0
 40
4.999726299314839
100
AcDbArc
 50
94.0960437581514
 51
265.9039562418485
  0
ARC
  5
1263
330
2CF0
100
AcDbEntity
  8
0
 62
     7
100
AcDbCircle
 10
1642.468953574431
 20
433.4518233686457
 30
0.0
 40
1.999890519725934
100
AcDbArc
 50
0.0
 51
85.90395624184861
  0
LINE
  5
1264
330
2CF0
100
AcDbEntity
  8
0
 62
     7
100
AcDbLine
 10
1644.468844094156
 20
433.4518233686457
 30
0.0
 11
1644.468844094156
 21
424.4344370305156
 31
0.0
  0
CIRCLE
  5
1265
330
2CF0
100
AcDbEntity
  8
0
 62
     7
100
AcDbCircle
 10
1642.968926204362
 20
440.4335611883232
 30
0.0
 40
2.199879571698528
  0
LINE
  5
1266
330
2CF0
100
AcDbEntity
  8
0
 62
     7
100
AcDbLine
 10
1644.468844094156
 20
456.4326853461308
 30
0.0
 11
1644.468844094156
 21
447.4152990080003
 31
0.0
  0
ARC
  5
1267
330
2CF0
100
AcDbEntity
  8
0
 62
     7
100
AcDbCircle
 10
1642.468953574431
 20
447.4152990080003
 30
0.0
 40
1.999890519725934
100
AcDbArc
 50
274.0960437581514
 51
0.0
  0
LINE
  5
1268
330
2CF0
100
AcDbEntity
  8
0
 62
     7
100
AcDbLine
 10
1642.468953574431
 20
458.4325758658564
 30
0.0
 11
1639.969090424773
 21
458.4325758658564
 31
0.0
  0
ARC
  5
1269
330
2CF0
100
AcDbEntity
  8
0
 62
     7
100
AcDbCircle
 10
1642.468953574431
 20
456.4326853461308
 30
0.0
 40
1.999890519725934
100
AcDbArc
 50
0.0
 51
90.0
  0
ARC
  5
126A
330
2CF0
100
AcDbEntity
  8
0
100
AcDbCircle
 10
1608.971553735139
 20
467.433561196423
 30
0.0
 40
2.0000000006
100
AcDbArc
 50
0.0
 51
90.0
  0
ARC
  5
126B
330
2CF0
100
AcDbEntity
  8
0
 62
     7
100
AcDbCircle
 10
1594.97155373094
 20
440.4335611883232
 30
0.0
 40
42.49767354417613
100
AcDbArc
 50
38.2132107017322
 51
48.59037789073024
  0
ARC
  5
126C
330
2CF0
100
AcDbEntity
  8
0
 62
     7
100
AcDbCircle
 10
1627.969747306418
 20
466.4129011113777
 30
0.0
 40
0.4999726299314839
100
AcDbArc
 50
0.0
 51
38.21321070174518
  0
ARC
  5
126D
330
2CF0
100
AcDbEntity
  8
0
 62
     7
100
AcDbCircle
 10
1622.75042179483
 20
471.9318368740068
 30
0.0
 40
0.4999726299314839
100
AcDbArc
 50
48.59037789073024
 51
90.0
  0
LINE
  5
126E
330
2CF0
100
AcDbEntity
  8
0
 62
     7
100
AcDbLine
 10
1615.970404188062
 20
478.1814947481501
 30
0.0
 11
1615.970404188062
 21
477.9315084331845
 31
0.0
  0
ARC
  5
126F
330
2CF0
100
AcDbEntity
  8
0
 62
     7
100
AcDbCircle
 10
1645.968761983951
 20
472.9317821338694
 30
0.0
 40
4.999726299314839
100
AcDbArc
 50
0.0
 51
90.0
  0
LINE
  5
1270
330
2CF0
100
AcDbEntity
  8
0
100
AcDbLine
 10
1725.387121579118
 20
534.0816493399536
 30
0.0
 11
1789.387119038318
 21
534.0816493399536
 31
0.0
  0
LINE
  5
1271
330
2CF0
100
AcDbEntity
  8
0
 62
     7
100
AcDbLine
 10
1568.830451904906
 20
824.8478499757439
 30
0.0
 11
1621.137237150814
 21
824.8478499757439
 31
0.0
  0
LINE
  5
1272
330
2CF0
100
AcDbEntity
  8
0
 62
     7
100
AcDbLine
 10
1568.830451904906
 20
757.8478526356438
 30
0.0
 11
1621.137237150814
 21
757.8478526356438
 31
0.0
  0
LINE
  5
1273
330
2CF0
100
AcDbEntity
  8
0
100
AcDbLine
 10
1645.98384250316
 20
828.8478498169435
 30
0.0
 11
1543.98384655256
 21
828.8478498169435
 31
0.0
  0
LINE
  5
1274
330
2CF0
100
AcDbEntity
  8
0
100
AcDbLine
 10
1645.98384250316
 20
753.8478527944438
 30
0.0
 11
1543.98384655256
 21
753.8478527944438
 31
0.0
  0
LINE
  5
1275
330
2CF0
100
AcDbEntity
  8
CEN
100
AcDbLine
 10
1536.98384683046
 20
791.3478513056936
 30
0.0
 11
1652.983842225259
 21
791.3478513056936
 31
0.0
  0
LINE
  5
1276
330
2CF0
100
AcDbEntity
  8
0
100
AcDbLine
 10
1587.837975390444
 20
715.2330983830323
 30
0.0
 11
1600.359677339973
 21
664.1314288088524
 31
0.0
  0
LINE
  5
1277
330
2CF0
100
AcDbEntity
  8
0
100
AcDbLine
 10
1602.120832247529
 20
715.2330983830323
 30
0.0
 11
1589.599130298001
 21
664.1314288088524
 31
0.0
  0
LINE
  5
1278
330
2CF0
100
AcDbEntity
  8
0
  6
DASHED
100
AcDbLine
 10
1585.979403818986
 20
715.2330983830323
 30
0.0
 11
1603.979403818987
 21
715.2330983830323
 31
0.0
  0
LINE
  5
1279
330
2CF0
100
AcDbEntity
  8
CEN
100
AcDbLine
 10
1580.562164910724
 20
709.2330983830322
 30
0.0
 11
1609.310731547975
 21
709.2330983830322
 31
0.0
  0
CIRCLE
  5
127A
330
2CF0
100
AcDbEntity
  8
0
100
AcDbCircle
 10
1594.979403818986
 20
709.2330983830322
 30
0.0
 40
3.049999999999998
  0
LINE
  5
127B
330
2CF0
100
AcDbEntity
  8
0
100
AcDbLine
 10
1582.48384502411
 20
784.3478513056936
 30
0.0
 11
1607.48384403161
 21
784.3478513056936
 31
0.0
  0
LINE
  5
127C
330
2CF0
100
AcDbEntity
  8
0
100
AcDbLine
 10
1599.98384452786
 20
808.3478513056938
 30
0.0
 11
1597.98384452786
 21
808.3478513056938
 31
0.0
  0
LINE
  5
127D
330
2CF0
100
AcDbEntity
  8
0
100
AcDbLine
 10
1574.107781680666
 20
763.6478513056938
 30
0.0
 11
1615.859907375054
 21
763.6478513056938
 31
0.0
  0
LINE
  5
127E
330
2CF0
100
AcDbEntity
  8
0
100
AcDbLine
 10
1574.107781680666
 20
819.0478513056937
 30
0.0
 11
1615.859907375054
 21
819.0478513056937
 31
0.0
  0
LINE
  5
127F
330
2CF0
100
AcDbEntity
  8
0
 62
     7
100
AcDbLine
 10
1607.48384403161
 20
776.347851623294
 30
0.0
 11
1582.483845024109
 21
776.347851623294
 31
0.0
  0
LINE
  5
1280
330
2CF0
100
AcDbEntity
  8
0
 62
     7
100
AcDbLine
 10
1582.48384502411
 20
806.347850988094
 30
0.0
 11
1607.48384403161
 21
806.347850988094
 31
0.0
  0
LINE
  5
1281
330
2CF0
100
AcDbEntity
  8
0
  6
Continuous
 62
     7
100
AcDbLine
 10
1582.63384576286
 20
798.3478513056938
 30
0.0
 11
1607.33384329286
 21
798.3478513056938
 31
0.0
  0
ARC
  5
1282
330
2CF0
100
AcDbEntity
  8
0
100
AcDbCircle
 10
1594.98384452786
 20
791.3478513056936
 30
0.0
 40
19.0
100
AcDbArc
 50
232.1363520778806
 51
307.8636479221196
  0
LINE
  5
1283
330
2CF0
100
AcDbEntity
  8
0
100
AcDbLine
 10
1608.222670366376
 20
763.6478513056938
 30
0.0
 11
1581.745018689344
 21
763.6478513056938
 31
0.0
  0
LINE
  5
1284
330
2CF0
100
AcDbEntity
  8
0
100
AcDbLine
 10
1606.58384336786
 20
765.0478511656938
 30
0.0
 11
1583.38384568786
 21
765.0478511656938
 31
0.0
  0
LINE
  5
1285
330
2CF0
100
AcDbEntity
  8
0
100
AcDbLine
 10
1606.58384336786
 20
807.2478469456937
 30
0.0
 11
1598.658844501062
 21
807.2478469456937
 31
0.0
  0
ARC
  5
1286
330
2CF0
100
AcDbEntity
  8
0
100
AcDbCircle
 10
1594.98384452786
 20
791.3478513056936
 30
0.0
 40
19.0
100
AcDbArc
 50
65.57815326595229
 51
114.4218467340477
  0
CIRCLE
  5
1287
330
2CF0
100
AcDbEntity
  8
0
100
AcDbCircle
 10
1594.979403818986
 20
709.2330983830322
 30
0.0
 40
12.5
  0
CIRCLE
  5
1288
330
2CF0
100
AcDbEntity
  8
0
100
AcDbCircle
 10
1594.979403818986
 20
709.2330983830322
 30
0.0
 40
3.669021829838357
  0
ARC
  5
1289
330
2CF0
100
AcDbEntity
  8
0
100
AcDbCircle
 10
1543.98384655256
 20
758.8478525959439
 30
0.0
 40
4.999999801499999
100
AcDbArc
 50
180.0
 51
270.0
  0
LINE
  5
128A
330
2CF0
100
AcDbEntity
  8
CEN
100
AcDbLine
 10
1594.98384452786
 20
832.0103609851393
 30
0.0
 11
1594.98384452786
 21
751.3831212672733
 31
0.0
  0
LINE
  5
128B
330
2CF0
100
AcDbEntity
  8
0
100
AcDbLine
 10
1587.837975390444
 20
698.9739561186905
 30
0.0
 11
1587.837975390444
 21
664.1314288088524
 31
0.0
  0
LINE
  5
128C
330
2CF0
100
AcDbEntity
  8
0
100
AcDbLine
 10
1594.979403818986
 20
664.1314288088524
 30
0.0
 11
1561.116623239785
 21
664.1314288088524
 31
0.0
  0
LINE
  5
128D
330
2CF0
100
AcDbEntity
  8
0
100
AcDbLine
 10
1560.616790811575
 20
663.6443726765155
 30
0.0
 11
1560.23835378668
 21
649.0308814074824
 31
0.0
  0
LINE
  5
128E
330
2CF0
100
AcDbEntity
  8
0
 62
     7
100
AcDbLine
 10
1594.979403818986
 20
649.0308814074822
 30
0.0
 11
1538.98246926666
 21
649.0308814074824
 31
0.0
  0
ARC
  5
128F
330
2CF0
100
AcDbEntity
  8
0
100
AcDbCircle
 10
1561.116623239785
 20
663.6314288088524
 30
0.0
 40
0.5
100
AcDbArc
 50
90.0
 51
178.5165763010134
  0
LINE
  5
1290
330
2CF0
100
AcDbEntity
  8
0
100
AcDbLine
 10
1575.979403818986
 20
668.0300182743222
 30
0.0
 11
1575.979403818986
 21
664.1314288088524
 31
0.0
  0
LINE
  5
1291
330
2CF0
100
AcDbEntity
  8
0
100
AcDbLine
 10
1576.979403818987
 20
669.0300182743222
 30
0.0
 11
1583.479403818986
 21
669.0300182743222
 31
0.0
  0
LINE
  5
1292
330
2CF0
100
AcDbEntity
  8
0
100
AcDbLine
 10
1580.979403818986
 20
665.8300182743221
 30
0.0
 11
1583.479403818986
 21
665.8300182743221
 31
0.0
  0
LINE
  5
1293
330
2CF0
100
AcDbEntity
  8
0
100
AcDbLine
 10
1576.979403818987
 20
669.0300182743222
 30
0.0
 11
1575.979403818986
 21
668.0300182743222
 31
0.0
  0
LINE
  5
1294
330
2CF0
100
AcDbEntity
  8
0
100
AcDbLine
 10
1580.979403818986
 20
665.8300182743221
 30
0.0
 11
1580.979403818986
 21
664.1314288088524
 31
0.0
  0
LINE
  5
1295
330
2CF0
100
AcDbEntity
  8
0
100
AcDbLine
 10
1583.479403818986
 20
669.0300182743222
 30
0.0
 11
1583.479403818986
 21
665.8300182743221
 31
0.0
  0
LINE
  5
1296
330
2CF0
100
AcDbEntity
  8
0
  6
DASHED
100
AcDbLine
 10
1587.837975390444
 20
715.2330983830323
 30
0.0
 11
1587.837975390444
 21
698.9739561186913
 31
0.0
  0
LINE
  5
1297
330
2CF0
100
AcDbEntity
  8
0
  6
DASHED
100
AcDbLine
 10
1584.979403818987
 20
712.2330983830322
 30
0.0
 11
1584.979403818987
 21
701.7330983830333
 31
0.0
  0
LINE
  5
1298
330
2CF0
100
AcDbEntity
  8
0
  6
DASHED
100
AcDbLine
 10
1584.979403818987
 20
712.2330983830322
 30
0.0
 11
1585.979403818986
 21
715.2330983830323
 31
0.0
  0
LINE
  5
1299
330
2CF0
100
AcDbEntity
  8
0
  6
DASHED
100
AcDbLine
 10
1584.979403818987
 20
712.2330983830322
 30
0.0
 11
1587.837975390444
 21
712.2330983830322
 31
0.0
  0
LINE
  5
129A
330
2CF0
100
AcDbEntity
  8
0
100
AcDbLine
 10
1538.98384675106
 20
758.8478525959439
 30
0.0
 11
1538.98384675106
 21
823.8478500154435
 31
0.0
  0
LINE
  5
129B
330
2CF0
100
AcDbEntity
  8
CEN
100
AcDbLine
 10
1568.98384452786
 20
784.8478513056935
 30
0.0
 11
1568.98384452786
 21
797.8478513056941
 31
0.0
  0
ARC
  5
129C
330
2CF0
100
AcDbEntity
  8
0
100
AcDbCircle
 10
1594.98384452786
 20
791.3478513056936
 30
0.0
 40
35.00000000000003
100
AcDbArc
 50
128.5477070152506
 51
231.4522929847494
  0
ARC
  5
129D
330
2CF0
100
AcDbEntity
  8
0
100
AcDbCircle
 10
1594.98384452786
 20
791.3478513056936
 30
0.0
 40
10.15
100
AcDbArc
 50
136.3971810273013
 51
223.6028189726988
  0
ARC
  5
129E
330
2CF0
100
AcDbEntity
  8
0
100
AcDbCircle
 10
1594.98384452786
 20
791.3478513056936
 30
0.0
 40
19.0
100
AcDbArc
 50
131.1395084278359
 51
222.161219091837
  0
ARC
  5
129F
330
2CF0
100
AcDbEntity
  8
0
100
AcDbCircle
 10
1594.98384452786
 20
791.3478513056936
 30
0.0
 40
9.503408973306861
100
AcDbArc
 50
132.5592938437803
 51
227.4407061562197
  0
LINE
  5
12A0
330
2CF0
100
AcDbEntity
  8
0
100
AcDbLine
 10
1582.63384576286
 20
806.4978470206938
 30
0.0
 11
1582.63384576286
 21
797.3478513056938
 31
0.0
  0
LINE
  5
12A1
330
2CF0
100
AcDbEntity
  8
0
100
AcDbLine
 10
1581.222858242017
 20
807.6589573298862
 30
0.0
 11
1581.108290397304
 21
797.3478513056938
 31
0.0
  0
ARC
  5
12A2
330
2CF0
100
AcDbEntity
  8
0
100
AcDbCircle
 10
1594.98384452786
 20
791.3478513056936
 30
0.0
 40
42.49999831275
100
AcDbArc
 50
225.0991278440249
 51
232.0209014671797
  0
CIRCLE
  5
12A3
330
2CF0
100
AcDbEntity
  8
0
100
AcDbCircle
 10
1568.98384452786
 20
791.3478513056936
 30
0.0
 40
5.5
  0
CIRCLE
  5
12A4
330
2CF0
100
AcDbEntity
  8
0
100
AcDbCircle
 10
1568.98384452786
 20
791.3478513056936
 30
0.0
 40
3.5
  0
LINE
  5
12A5
330
2CF0
100
AcDbEntity
  8
0
100
AcDbLine
 10
1572.712785777037
 20
764.3478523775939
 30
0.0
 11
1562.291950805708
 21
764.3478523775939
 31
0.0
  0
CIRCLE
  5
12A6
330
2CF0
100
AcDbEntity
  8
0
100
AcDbCircle
 10
1549.98384631436
 20
763.3478524172939
 30
0.0
 40
4.49999982135
  0
CIRCLE
  5
12A7
330
2CF0
100
AcDbEntity
  8
0
100
AcDbCircle
 10
1549.98384631436
 20
763.3478524172939
 30
0.0
 40
6.9999997221
  0
LINE
  5
12A8
330
2CF0
100
AcDbEntity
  8
CEN
100
AcDbLine
 10
1541.662313584075
 20
763.3478524172939
 30
0.0
 11
1558.62014130489
 21
763.3478524172939
 31
0.0
  0
ARC
  5
12A9
330
2CF0
100
AcDbEntity
  8
0
100
AcDbCircle
 10
1549.98384631436
 20
763.3478524172935
 30
0.0
 40
9.999999602999999
100
AcDbArc
 50
14.47751218592945
 51
90.0
  0
LINE
  5
12AA
330
2CF0
100
AcDbEntity
  8
CEN
100
AcDbLine
 10
1549.98384631436
 20
771.6436387744415
 30
0.0
 11
1549.98384631436
 21
754.6999975363217
 31
0.0
  0
LINE
  5
12AB
330
2CF0
100
AcDbEntity
  8
0
100
AcDbLine
 10
1538.98384675106
 20
773.3478520202934
 30
0.0
 11
1549.98384631436
 21
773.3478520202934
 31
0.0
  0
ARC
  5
12AC
330
2CF0
100
AcDbEntity
  8
0
100
AcDbCircle
 10
1561.60279589171
 20
766.3478522981939
 30
0.0
 40
1.999999920599999
100
AcDbArc
 50
194.4775121859295
 51
270.0
  0
LINE
  5
12AD
330
2CF0
100
AcDbEntity
  8
0
100
AcDbLine
 10
1564.98384571886
 20
764.3478523775939
 30
0.0
 11
1564.98384571886
 21
761.2438660538416
 31
0.0
  0
LINE
  5
12AE
330
2CF0
100
AcDbEntity
  8
0
100
AcDbLine
 10
1561.60279589171
 20
764.3478523775939
 30
0.0
 11
1562.291950805708
 21
764.3478523775939
 31
0.0
  0
CIRCLE
  5
12AF
330
2CF0
100
AcDbEntity
  8
0
100
AcDbCircle
 10
1546.98384643346
 20
791.3478513056936
 30
0.0
 40
2.19999991266
  0
LINE
  5
12B0
330
2CF0
100
AcDbEntity
  8
CEN
100
AcDbLine
 10
1546.98384643346
 20
795.2273563800287
 30
0.0
 11
1546.98384643346
 21
786.9845037924177
 31
0.0
  0
ARC
  5
12B1
330
2CF0
100
AcDbEntity
  8
0
100
AcDbCircle
 10
1575.98384452786
 20
772.3478513056938
 30
0.0
 40
5.5
100
AcDbArc
 50
27.58103839095861
 51
331.145774457122
  0
LINE
  5
12B2
330
2CF0
100
AcDbEntity
  8
CEN
100
AcDbLine
 10
1575.98384452786
 20
765.8478513056937
 30
0.0
 11
1575.98384452786
 21
778.8478513056941
 31
0.0
  0
LINE
  5
12B3
330
2CF0
100
AcDbEntity
  8
0
100
AcDbLine
 10
1580.974957063971
 20
785.3478513056938
 30
0.0
 11
1580.745080512017
 21
764.6589616298863
 31
0.0
  0
LINE
  5
12B4
330
2CF0
100
AcDbEntity
  8
0
100
AcDbLine
 10
1582.63384576286
 20
776.347851623294
 30
0.0
 11
1582.63384576286
 21
765.7978510906938
 31
0.0
  0
ARC
  5
12B5
330
2CF0
100
AcDbEntity
  8
0
100
AcDbCircle
 10
1583.38384568786
 20
765.7978510906938
 30
0.0
 40
0.7499999250000001
100
AcDbArc
 50
180.0
 51
270.0
  0
ARC
  5
12B6
330
2CF0
100
AcDbEntity
  8
0
100
AcDbCircle
 10
1574.107781680666
 20
765.1478513056938
 30
0.0
 40
1.5
100
AcDbArc
 50
231.4522929847494
 51
270.0
  0
ARC
  5
12B7
330
2CF0
100
AcDbEntity
  8
0
100
AcDbCircle
 10
1581.745018689344
 20
764.6478512056936
 30
0.0
 40
0.9999998999999998
100
AcDbArc
 50
179.3634064240324
 51
270.0
  0
LINE
  5
12B8
330
2CF0
100
AcDbEntity
  8
CEN
100
AcDbLine
 10
1582.48384452786
 20
772.3478513056938
 30
0.0
 11
1569.48384452786
 21
772.3478513056938
 31
0.0
  0
CIRCLE
  5
12B9
330
2CF0
100
AcDbEntity
  8
0
100
AcDbCircle
 10
1575.98384452786
 20
772.3478513056938
 30
0.0
 40
3.5
  0
LINE
  5
12BA
330
2CF0
100
AcDbEntity
  8
0
100
AcDbLine
 10
1582.63384576286
 20
768.6478508056937
 30
0.0
 11
1580.78940150286
 21
768.6478508056937
 31
0.0
  0
LINE
  5
12BB
330
2CF0
100
AcDbEntity
  8
0
100
AcDbLine
 10
1584.98384552786
 20
765.0478511656938
 30
0.0
 11
1584.98384552786
 21
763.6478513056938
 31
0.0
  0
LINE
  5
12BC
330
2CF0
100
AcDbEntity
  8
0
100
AcDbLine
 10
1583.48384452786
 20
797.3478513056938
 30
0.0
 11
1583.48384452786
 21
785.3478513056938
 31
0.0
  0
LINE
  5
12BD
330
2CF0
100
AcDbEntity
  8
0
100
AcDbLine
 10
1576.95608815054
 20
785.3478513056938
 30
0.0
 11
1583.48384452786
 21
785.3478513056938
 31
0.0
  0
LINE
  5
12BE
330
2CF0
100
AcDbEntity
  8
0
100
AcDbLine
 10
1582.483845024109
 20
776.347851623294
 30
0.0
 11
1582.48384502411
 21
784.3478513056936
 31
0.0
  0
LINE
  5
12BF
330
2CF0
100
AcDbEntity
  8
0
100
AcDbLine
 10
1582.63384576286
 20
785.3478513056938
 30
0.0
 11
1582.63384576286
 21
784.3478513056936
 31
0.0
  0
LINE
  5
12C0
330
2CF0
100
AcDbEntity
  8
0
100
AcDbLine
 10
1576.95608815054
 20
797.3478513056938
 30
0.0
 11
1583.48384452786
 21
797.3478513056938
 31
0.0
  0
LINE
  5
12C1
330
2CF0
100
AcDbEntity
  8
0
100
AcDbLine
 10
1561.60279589171
 20
818.3478502337939
 30
0.0
 11
1572.712785777037
 21
818.3478502337939
 31
0.0
  0
ARC
  5
12C2
330
2CF0
100
AcDbEntity
  8
0
100
AcDbCircle
 10
1594.98384452786
 20
791.3478513056936
 30
0.0
 40
42.49999831275
100
AcDbArc
 50
127.9790985328202
 51
134.900872155975
  0
LINE
  5
12C3
330
2CF0
100
AcDbEntity
  8
CEN
100
AcDbLine
 10
1549.98384631436
 20
827.7408289398518
 30
0.0
 11
1549.98384631436
 21
810.7971877017321
 31
0.0
  0
CIRCLE
  5
12C4
330
2CF0
100
AcDbEntity
  8
0
100
AcDbCircle
 10
1549.98384631436
 20
819.3478501940937
 30
0.0
 40
6.9999997221
  0
CIRCLE
  5
12C5
330
2CF0
100
AcDbEntity
  8
0
100
AcDbCircle
 10
1549.98384631436
 20
819.3478501940937
 30
0.0
 40
4.49999982135
  0
ARC
  5
12C6
330
2CF0
100
AcDbEntity
  8
0
100
AcDbCircle
 10
1561.60279589171
 20
816.3478503131937
 30
0.0
 40
1.999999920599999
100
AcDbArc
 50
90.0
 51
165.5224878140705
  0
LINE
  5
12C7
330
2CF0
100
AcDbEntity
  8
0
100
AcDbLine
 10
1564.98384571886
 20
818.3478502337939
 30
0.0
 11
1564.98384571886
 21
821.4518365575463
 31
0.0
  0
ARC
  5
12C8
330
2CF0
100
AcDbEntity
  8
0
100
AcDbCircle
 10
1549.98384631436
 20
819.3478501940937
 30
0.0
 40
9.999999602999999
100
AcDbArc
 50
270.0
 51
345.5224878140705
  0
LINE
  5
12C9
330
2CF0
100
AcDbEntity
  8
0
100
AcDbLine
 10
1538.98384675106
 20
809.3478505910933
 30
0.0
 11
1549.98384631436
 21
809.3478505910933
 31
0.0
  0
LINE
  5
12CA
330
2CF0
100
AcDbEntity
  8
CEN
100
AcDbLine
 10
1540.169916017991
 20
819.3478501940937
 30
0.0
 11
1560.041843164328
 21
819.3478501940937
 31
0.0
  0
ARC
  5
12CB
330
2CF0
100
AcDbEntity
  8
0
100
AcDbCircle
 10
1543.98384655256
 20
823.8478500154435
 30
0.0
 40
4.999999801499999
100
AcDbArc
 50
90.0
 51
180.0
  0
LINE
  5
12CC
330
2CF0
100
AcDbEntity
  8
0
100
AcDbLine
 10
1589.98384452786
 20
808.6478468056938
 30
0.0
 11
1582.222796419344
 21
808.6478468056938
 31
0.0
  0
LINE
  5
12CD
330
2CF0
100
AcDbEntity
  8
0
100
AcDbLine
 10
1591.308844554657
 20
807.2478469456937
 30
0.0
 11
1583.38384568786
 21
807.2478469456937
 31
0.0
  0
ARC
  5
12CE
330
2CF0
100
AcDbEntity
  8
0
100
AcDbCircle
 10
1594.98384452786
 20
791.3478513056936
 30
0.0
 40
19.0
100
AcDbArc
 50
123.191883174218
 51
127.8636479221194
  0
CIRCLE
  5
12CF
330
2CF0
100
AcDbEntity
  8
0
100
AcDbCircle
 10
1575.98384452786
 20
810.3478513056938
 30
0.0
 40
3.5
  0
CIRCLE
  5
12D0
330
2CF0
100
AcDbEntity
  8
0
100
AcDbCircle
 10
1575.98384452786
 20
810.3478513056938
 30
0.0
 40
5.5
  0
LINE
  5
12D1
330
2CF0
100
AcDbEntity
  8
CEN
100
AcDbLine
 10
1575.98384452786
 20
803.8478513056938
 30
0.0
 11
1575.98384452786
 21
816.8478513056941
 31
0.0
  0
ARC
  5
12D2
330
2CF0
100
AcDbEntity
  8
0
100
AcDbCircle
 10
1582.222796419344
 20
807.6478469056937
 30
0.0
 40
0.9999998999999998
100
AcDbArc
 50
90.0
 51
179.3634064240324
  0
ARC
  5
12D3
330
2CF0
100
AcDbEntity
  8
0
100
AcDbCircle
 10
1583.38384568786
 20
806.4978470206938
 30
0.0
 40
0.7499999250000001
100
AcDbArc
 50
90.0
 51
180.0
  0
LINE
  5
12D4
330
2CF0
100
AcDbEntity
  8
CEN
100
AcDbLine
 10
1582.48384452786
 20
810.3478513056938
 30
0.0
 11
1569.48384452786
 21
810.3478513056938
 31
0.0
  0
LINE
  5
12D5
330
2CF0
100
AcDbEntity
  8
0
100
AcDbLine
 10
1591.98384452786
 20
808.3478513056938
 30
0.0
 11
1589.98384452786
 21
808.3478513056938
 31
0.0
  0
LINE
  5
12D6
330
2CF0
100
AcDbEntity
  8
0
100
AcDbLine
 10
1589.98384452786
 20
809.6781540855172
 30
0.0
 11
1589.98384452786
 21
808.3478513056938
 31
0.0
  0
ARC
  5
12D7
330
2CF0
100
AcDbEntity
  8
0
100
AcDbCircle
 10
1574.107781680666
 20
817.5478513056939
 30
0.0
 40
1.5
100
AcDbArc
 50
90.0
 51
128.5477070152506
  0
ARC
  5
12D8
330
2CF0
100
AcDbEntity
  8
0
100
AcDbCircle
 10
1645.98384250316
 20
758.8478525959439
 30
0.0
 40
4.999999801499999
100
AcDbArc
 50
270.0
 51
0.0
  0
LINE
  5
12D9
330
2CF0
100
AcDbEntity
  8
0
 62
     7
100
AcDbLine
 10
1719.887121797468
 20
649.0816447744537
 30
0.0
 11
1794.887118819968
 21
649.0816447744537
 31
0.0
  0
LINE
  5
12DA
330
2CF0
100
AcDbEntity
  8
0
 62
     7
100
AcDbLine
 10
1719.887121797468
 20
629.0816455684534
 30
0.0
 11
1794.887118819968
 21
629.0816455684534
 31
0.0
  0
LINE
  5
12DB
330
2CF0
100
AcDbEntity
  8
0
100
AcDbLine
 10
1602.120832247529
 20
698.9739561186905
 30
0.0
 11
1602.120832247529
 21
664.1314288088524
 31
0.0
  0
LINE
  5
12DC
330
2CF0
100
AcDbEntity
  8
0
100
AcDbLine
 10
1628.842184398188
 20
664.1314288088524
 30
0.0
 11
1594.979403818986
 21
664.1314288088524
 31
0.0
  0
LINE
  5
12DD
330
2CF0
100
AcDbEntity
  8
0
100
AcDbLine
 10
1613.979403818986
 20
668.0300182743222
 30
0.0
 11
1613.979403818986
 21
664.1314288088524
 31
0.0
  0
LINE
  5
12DE
330
2CF0
100
AcDbEntity
  8
0
100
AcDbLine
 10
1612.979403818987
 20
669.0300182743222
 30
0.0
 11
1613.979403818986
 21
668.0300182743222
 31
0.0
  0
LINE
  5
12DF
330
2CF0
100
AcDbEntity
  8
0
100
AcDbLine
 10
1606.479403818986
 20
665.8300182743221
 30
0.0
 11
1608.979403818986
 21
665.8300182743221
 31
0.0
  0
LINE
  5
12E0
330
2CF0
100
AcDbEntity
  8
0
100
AcDbLine
 10
1606.479403818986
 20
669.0300182743222
 30
0.0
 11
1612.979403818987
 21
669.0300182743222
 31
0.0
  0
LINE
  5
12E1
330
2CF0
100
AcDbEntity
  8
0
100
AcDbLine
 10
1606.479403818986
 20
669.0300182743222
 30
0.0
 11
1606.479403818986
 21
665.8300182743221
 31
0.0
  0
LINE
  5
12E2
330
2CF0
100
AcDbEntity
  8
0
100
AcDbLine
 10
1608.979403818986
 20
665.8300182743221
 30
0.0
 11
1608.979403818986
 21
664.1314288088524
 31
0.0
  0
LINE
  5
12E3
330
2CF0
100
AcDbEntity
  8
0
100
AcDbLine
 10
1629.342016826398
 20
663.6443726765155
 30
0.0
 11
1629.720453851293
 21
649.0308814074824
 31
0.0
  0
LINE
  5
12E4
330
2CF0
100
AcDbEntity
  8
0
 62
     7
100
AcDbLine
 10
1650.95608020058
 20
649.0308814074824
 30
0.0
 11
1594.979403818986
 21
649.0308814074824
 31
0.0
  0
ARC
  5
12E5
330
2CF0
100
AcDbEntity
  8
0
100
AcDbCircle
 10
1628.842184398188
 20
663.6314288088524
 30
0.0
 40
0.5
100
AcDbArc
 50
1.483423698986495
 51
90.0
  0
LINE
  5
12E6
330
2CF0
100
AcDbEntity
  8
0
 62
     7
100
AcDbLine
 10
1719.887121797468
 20
649.0816447744537
 30
0.0
 11
1719.887121797468
 21
629.0816455684534
 31
0.0
  0
LINE
  5
12E7
330
2CF0
100
AcDbEntity
  8
0
  6
DASHED
100
AcDbLine
 10
1602.120832247529
 20
715.2330983830323
 30
0.0
 11
1602.120832247529
 21
698.9739561186913
 31
0.0
  0
LINE
  5
12E8
330
2CF0
100
AcDbEntity
  8
0
  6
DASHED
100
AcDbLine
 10
1604.979403818986
 20
712.2330983830322
 30
0.0
 11
1604.979403818986
 21
701.7330983830333
 31
0.0
  0
LINE
  5
12E9
330
2CF0
100
AcDbEntity
  8
0
  6
DASHED
100
AcDbLine
 10
1603.979403818987
 20
715.2330983830323
 30
0.0
 11
1604.979403818986
 21
712.2330983830322
 31
0.0
  0
LINE
  5
12EA
330
2CF0
100
AcDbEntity
  8
0
  6
DASHED
100
AcDbLine
 10
1602.120832247529
 20
712.2330983830322
 30
0.0
 11
1604.979403818986
 21
712.2330983830322
 31
0.0
  0
LINE
  5
12EB
330
2CF0
100
AcDbEntity
  8
0
100
AcDbLine
 10
1767.387120308718
 20
693.7839347367212
 30
0.0
 11
1767.387120308718
 21
667.497445168385
 31
0.0
  0
LINE
  5
12EC
330
2CF0
100
AcDbEntity
  8
0
100
AcDbLine
 10
1750.387120308718
 20
715.7839347367212
 30
0.0
 11
1750.387120308718
 21
667.7881193615994
 31
0.0
  0
LINE
  5
12ED
330
2CF0
100
AcDbEntity
  8
0
100
AcDbLine
 10
1725.387121579118
 20
619.0816459654536
 30
0.0
 11
1789.387119038318
 21
619.0816459654536
 31
0.0
  0
LINE
  5
12EE
330
2CF0
100
AcDbEntity
  8
0
 62
     7
100
AcDbLine
 10
1785.087120308718
 20
654.0816445759538
 30
0.0
 11
1790.768168944868
 21
654.0816445759538
 31
0.0
  0
CIRCLE
  5
12EF
330
2CF0
100
AcDbEntity
  8
0
 62
     7
100
AcDbCircle
 10
1749.387120626318
 20
639.0816451714538
 30
0.0
 40
4.863999806899199
  0
LINE
  5
12F0
330
2CF0
100
AcDbEntity
  8
CEN
100
AcDbLine
 10
1749.387120626318
 20
632.5705065940004
 30
0.0
 11
1749.387120626318
 21
645.7301587906575
 31
0.0
  0
CIRCLE
  5
12F1
330
2CF0
100
AcDbEntity
  8
0
 62
     7
100
AcDbCircle
 10
1749.387120626318
 20
639.0816451714538
 30
0.0
 40
4.249999831274998
  0
POLYLINE
  5
12F2
330
2CF0
100
AcDbEntity
  8
0
 62
     7
100
AcDb2dPolyline
 66
     1
 10
0.0
 20
0.0
 30
0.0
 70
     1
  0
VERTEX
  5
28BB
330
12F2
100
AcDbEntity
  8
0
 62
     7
100
AcDbVertex
100
AcDb2dVertex
 10
1751.985196734528
 20
640.5816451119036
 30
0.0
  0
VERTEX
  5
28BC
330
12F2
100
AcDbEntity
  8
0
 62
     7
100
AcDbVertex
100
AcDb2dVertex
 10
1749.387120626318
 20
642.0816450523536
 30
0.0
  0
VERTEX
  5
28BD
330
12F2
100
AcDbEntity
  8
0
 62
     7
100
AcDbVertex
100
AcDb2dVertex
 10
1746.789044518109
 20
640.5816451119036
 30
0.0
  0
VERTEX
  5
28BE
330
12F2
100
AcDbEntity
  8
0
 62
     7
100
AcDbVertex
100
AcDb2dVertex
 10
1746.789044518109
 20
637.5816452310036
 30
0.0
  0
VERTEX
  5
28BF
330
12F2
100
AcDbEntity
  8
0
 62
     7
100
AcDbVertex
100
AcDb2dVertex
 10
1749.387120626318
 20
636.0816452905536
 30
0.0
  0
VERTEX
  5
28C0
330
12F2
100
AcDbEntity
  8
0
 62
     7
100
AcDbVertex
100
AcDb2dVertex
 10
1751.985196734528
 20
637.5816452310036
 30
0.0
  0
SEQEND
  5
28C1
330
12F2
100
AcDbEntity
  8
0
 62
     7
  0
LINE
  5
12F3
330
2CF0
100
AcDbEntity
  8
CEN
100
AcDbLine
 10
1765.387119991119
 20
632.5705065940004
 30
0.0
 11
1765.387119991119
 21
645.7301587906575
 31
0.0
  0
CIRCLE
  5
12F4
330
2CF0
100
AcDbEntity
  8
0
 62
     7
100
AcDbCircle
 10
1765.387119991119
 20
639.0816451714538
 30
0.0
 40
4.863999806899199
  0
CIRCLE
  5
12F5
330
2CF0
100
AcDbEntity
  8
0
 62
     7
100
AcDbCircle
 10
1765.387119991119
 20
639.0816451714538
 30
0.0
 40
4.249999831274998
  0
POLYLINE
  5
12F6
330
2CF0
100
AcDbEntity
  8
0
 62
     7
100
AcDb2dPolyline
 66
     1
 10
0.0
 20
0.0
 30
0.0
 70
     1
  0
VERTEX
  5
28C2
330
12F6
100
AcDbEntity
  8
0
 62
     7
100
AcDbVertex
100
AcDb2dVertex
 10
1767.985196099328
 20
640.5816451119036
 30
0.0
  0
VERTEX
  5
28C3
330
12F6
100
AcDbEntity
  8
0
 62
     7
100
AcDbVertex
100
AcDb2dVertex
 10
1765.387119991119
 20
642.0816450523536
 30
0.0
  0
VERTEX
  5
28C4
330
12F6
100
AcDbEntity
  8
0
 62
     7
100
AcDbVertex
100
AcDb2dVertex
 10
1762.789043882909
 20
640.5816451119036
 30
0.0
  0
VERTEX
  5
28C5
330
12F6
100
AcDbEntity
  8
0
 62
     7
100
AcDbVertex
100
AcDb2dVertex
 10
1762.789043882909
 20
637.5816452310036
 30
0.0
  0
VERTEX
  5
28C6
330
12F6
100
AcDbEntity
  8
0
 62
     7
100
AcDbVertex
100
AcDb2dVertex
 10
1765.387119991119
 20
636.0816452905536
 30
0.0
  0
VERTEX
  5
28C7
330
12F6
100
AcDbEntity
  8
0
 62
     7
100
AcDbVertex
100
AcDb2dVertex
 10
1767.985196099328
 20
637.5816452310036
 30
0.0
  0
SEQEND
  5
28C8
330
12F6
100
AcDbEntity
  8
0
 62
     7
  0
LINE
  5
12F7
330
2CF0
100
AcDbEntity
  8
CEN
100
AcDbLine
 10
1742.970962148758
 20
639.0816451714538
 30
0.0
 11
1772.531580533702
 21
639.0816451714538
 31
0.0
  0
ARC
  5
12F8
330
2CF0
100
AcDbEntity
  8
0
 62
     3
100
AcDbCircle
 10
1739.387121023318
 20
632.8316454195786
 30
0.0
 40
1.499999940449999
100
AcDbArc
 50
262.2927960255308
 51
196.4602621617438
  0
CIRCLE
  5
12F9
330
2CF0
100
AcDbEntity
  8
0
 62
     7
100
AcDbCircle
 10
1739.387121023318
 20
632.8316454195786
 30
0.0
 40
1.249999950374999
  0
LINE
  5
12FA
330
2CF0
100
AcDbEntity
  8
CEN
100
AcDbLine
 10
1736.921348101233
 20
632.8316454195786
 30
0.0
 11
1741.733542053824
 21
632.8316454195786
 31
0.0
  0
LINE
  5
12FB
330
2CF0
100
AcDbEntity
  8
CEN
100
AcDbLine
 10
1739.387121023318
 20
630.7508623394161
 30
0.0
 11
1739.387121023318
 21
635.2842786672757
 31
0.0
  0
LINE
  5
12FC
330
2CF0
100
AcDbEntity
  8
0
 62
     7
100
AcDbLine
 10
1772.387119713218
 20
636.0816452905537
 30
0.0
 11
1776.387119554418
 21
636.0816452905537
 31
0.0
  0
LINE
  5
12FD
330
2CF0
100
AcDbEntity
  8
0
 62
     7
100
AcDbLine
 10
1772.387119713218
 20
632.0816454493536
 30
0.0
 11
1776.387119554418
 21
632.0816454493536
 31
0.0
  0
LINE
  5
12FE
330
2CF0
100
AcDbEntity
  8
0
 62
     7
100
AcDbLine
 10
1772.387119713218
 20
636.0816452905537
 30
0.0
 11
1772.387119713218
 21
632.0816454493536
 31
0.0
  0
LINE
  5
12FF
330
2CF0
100
AcDbEntity
  8
0
 62
     7
100
AcDbLine
 10
1776.387119554418
 20
636.0816452905537
 30
0.0
 11
1776.387119554418
 21
632.0816454493536
 31
0.0
  0
TEXT
  5
1300
330
2CF0
100
AcDbEntity
  8
0
 62
     7
100
AcDbText
 10
1773.002440486389
 20
632.7172971172748
 30
0.0
 40
2.999999880899998
  1
2
  7
ROMANS
100
AcDbText
  0
LINE
  5
1301
330
2CF0
100
AcDbEntity
  8
0
100
AcDbLine
 10
1763.387120308718
 20
669.5808546280112
 30
0.0
 11
1751.387120308718
 21
669.5808546280114
 31
0.0
  0
LINE
  5
1302
330
2CF0
100
AcDbEntity
  8
0
100
AcDbLine
 10
1729.687120308718
 20
664.6822651625416
 30
0.0
 11
1785.087120308718
 21
664.6822651625416
 31
0.0
  0
LINE
  5
1303
330
2CF0
100
AcDbEntity
  8
0
  6
Continuous
100
AcDbLine
 10
1729.687120308718
 20
649.0816447744537
 30
0.0
 11
1729.687120308718
 21
664.6822651625416
 31
0.0
  0
LINE
  5
1304
330
2CF0
100
AcDbEntity
  8
0
 62
     7
100
AcDbLine
 10
1738.387121063018
 20
642.0816450523536
 30
0.0
 11
1742.387120904218
 21
642.0816450523536
 31
0.0
  0
LINE
  5
1305
330
2CF0
100
AcDbEntity
  8
0
 62
     7
100
AcDbLine
 10
1738.387121063018
 20
646.0816448935536
 30
0.0
 11
1742.387120904218
 21
646.0816448935536
 31
0.0
  0
LINE
  5
1306
330
2CF0
100
AcDbEntity
  8
0
 62
     7
100
AcDbLine
 10
1724.006071672568
 20
649.0816447744537
 30
0.0
 11
1724.006071672568
 21
654.0816445759535
 31
0.0
  0
LINE
  5
1307
330
2CF0
100
AcDbEntity
  8
0
 62
     7
100
AcDbLine
 10
1738.387121063018
 20
646.0816448935536
 30
0.0
 11
1738.387121063018
 21
642.0816450523536
 31
0.0
  0
LINE
  5
1308
330
2CF0
100
AcDbEntity
  8
0
 62
     7
100
AcDbLine
 10
1724.006071672568
 20
654.0816445759538
 30
0.0
 11
1729.687120308718
 21
654.0816445759538
 31
0.0
  0
LINE
  5
1309
330
2CF0
100
AcDbEntity
  8
0
 62
     7
100
AcDbLine
 10
1742.387120904218
 20
646.0816448935536
 30
0.0
 11
1742.387120904218
 21
642.0816450523536
 31
0.0
  0
TEXT
  5
130A
330
2CF0
100
AcDbEntity
  8
0
 62
     7
100
AcDbText
 10
1738.974322037321
 20
642.7171929130301
 30
0.0
 40
2.999999880899998
  1
1
  7
ROMANS
100
AcDbText
  0
ARC
  5
130B
330
2CF0
100
AcDbEntity
  8
0
100
AcDbCircle
 10
1757.159690979175
 20
566.6145544836049
 30
0.0
 40
99.99999
100
AcDbArc
 50
93.30927932788666
 51
101.0425316597387
  0
ARC
  5
130C
330
2CF0
100
AcDbEntity
  8
0
100
AcDbCircle
 10
1757.159690979175
 20
566.6145544836049
 30
0.0
 40
101.39998986
100
AcDbArc
 50
93.26353925666522
 51
100.4851525232568
  0
LINE
  5
130D
330
2CF0
100
AcDbEntity
  8
0
100
AcDbLine
 10
1736.871303195368
 20
665.4120195343956
 30
0.0
 11
1732.552094388354
 21
676.1614710997752
 31
0.0
  0
LINE
  5
130E
330
2CF0
100
AcDbEntity
  8
0
100
AcDbLine
 10
1737.863044717889
 20
666.809450666849
 30
0.0
 11
1733.878076784772
 21
676.6109815414452
 31
0.0
  0
ARC
  5
130F
330
2CF0
100
AcDbEntity
  8
0
100
AcDbCircle
 10
1738.570362157264
 20
667.0588538092832
 30
0.0
 40
0.7499999250000001
100
AcDbArc
 50
199.4228674088184
 51
280.4851525232632
  0
ARC
  5
1310
330
2CF0
100
AcDbEntity
  8
0
100
AcDbCircle
 10
1737.814393114536
 20
665.7445570576412
 30
0.0
 40
0.9999998999999998
100
AcDbArc
 50
199.4228674088184
 51
281.0425316597387
  0
CIRCLE
  5
1311
330
2CF0
100
AcDbEntity
  8
0
100
AcDbCircle
 10
1732.859693409175
 20
677.3941329669733
 30
0.0
 40
0.6999999299999998
  0
ARC
  5
1312
330
2CF0
100
AcDbEntity
  8
0
100
AcDbCircle
 10
1733.367343588176
 20
675.9370900800737
 30
0.0
 40
0.8455637763134916
100
AcDbArc
 50
52.84200537182189
 51
164.6114991104285
  0
LINE
  5
1313
330
2CF0
100
AcDbEntity
  8
0
100
AcDbLine
 10
1751.387120308718
 20
669.5808546280114
 30
0.0
 11
1751.387120308718
 21
664.6822651625416
 31
0.0
  0
LINE
  5
1314
330
2CF0
100
AcDbEntity
  8
0
100
AcDbLine
 10
1750.387120308718
 20
666.3849423074166
 30
0.0
 11
1750.387120308718
 21
664.6822651625416
 31
0.0
  0
LINE
  5
1315
330
2CF0
100
AcDbEntity
  8
0
  6
Continuous
100
AcDbLine
 10
1785.087120308718
 20
649.0816447744537
 30
0.0
 11
1785.087120308718
 21
664.6822651625416
 31
0.0
  0
ARC
  5
1316
330
2CF0
100
AcDbEntity
  8
0
 62
     3
100
AcDbCircle
 10
1775.387119594118
 20
645.3316449233287
 30
0.0
 40
1.499999940449999
100
AcDbArc
 50
260.7195386194764
 51
187.9579276769737
  0
CIRCLE
  5
1317
330
2CF0
100
AcDbEntity
  8
0
 62
     7
100
AcDbCircle
 10
1775.387119594118
 20
645.3316449233287
 30
0.0
 40
1.249999950374999
  0
LINE
  5
1318
330
2CF0
100
AcDbEntity
  8
CEN
100
AcDbLine
 10
1775.387119594118
 20
642.977345686407
 30
0.0
 11
1775.387119594118
 21
647.7855140001529
 31
0.0
  0
LINE
  5
1319
330
2CF0
100
AcDbEntity
  8
CEN
100
AcDbLine
 10
1772.94405389868
 20
645.3316449233287
 30
0.0
 11
1777.618755790709
 21
645.3316449233287
 31
0.0
  0
LINE
  5
131A
330
2CF0
100
AcDbEntity
  8
0
100
AcDbLine
 10
1771.560470392576
 20
665.3808546280112
 30
0.0
 11
1767.01377022486
 21
665.3808546280112
 31
0.0
  0
ARC
  5
131B
330
2CF0
100
AcDbEntity
  8
0
100
AcDbCircle
 10
1757.159690979175
 20
566.6145544836049
 30
0.0
 40
99.99999
100
AcDbArc
 50
78.69685327512272
 51
86.42963522610161
  0
ARC
  5
131C
330
2CF0
100
AcDbEntity
  8
0
100
AcDbCircle
 10
1757.159690979175
 20
566.6145544836049
 30
0.0
 40
101.39998986
100
AcDbArc
 50
78.8549256559861
 51
86.47899278809797
  0
LINE
  5
131D
330
2CF0
100
AcDbEntity
  8
0
100
AcDbLine
 10
1763.387120308718
 20
669.5808546280114
 30
0.0
 11
1763.387120308718
 21
664.6822651625416
 31
0.0
  0
ARC
  5
131E
330
2CF0
100
AcDbEntity
  8
0
100
AcDbCircle
 10
1767.01377022486
 20
663.880854628011
 30
0.0
 40
1.5
100
AcDbArc
 50
90.0
 51
147.7053317637908
  0
LINE
  5
131F
330
2CF0
100
AcDbEntity
  8
0
100
AcDbLine
 10
1767.387120308718
 20
666.0901680243584
 30
0.0
 11
1767.387120308718
 21
665.3808546280112
 31
0.0
  0
LINE
  5
1320
330
2CF0
100
AcDbEntity
  8
0
100
AcDbLine
 10
1776.387120308718
 20
669.5808546280112
 30
0.0
 11
1776.387120308718
 21
666.1749075614518
 31
0.0
  0
LINE
  5
1321
330
2CF0
100
AcDbEntity
  8
0
100
AcDbLine
 10
1776.387120308718
 20
669.5808546280112
 30
0.0
 11
1774.387120308718
 21
669.5808546280112
 31
0.0
  0
ARC
  5
1322
330
2CF0
100
AcDbEntity
  8
0
100
AcDbCircle
 10
1771.560470392576
 20
663.880854628011
 30
0.0
 40
1.5
100
AcDbArc
 50
32.29466823620915
 51
90.0
  0
LINE
  5
1323
330
2CF0
100
AcDbEntity
  8
0
100
AcDbLine
 10
1774.387120308718
 20
669.5808546280112
 30
0.0
 11
1774.387120308718
 21
666.5403950970503
 31
0.0
  0
ARC
  5
1324
330
2CF0
100
AcDbEntity
  8
0
100
AcDbCircle
 10
1776.331093916578
 20
665.3885832247392
 30
0.0
 40
0.8324593946008956
100
AcDbArc
 50
300.9877009343591
 51
59.01229906564089
  0
LINE
  5
1325
330
2CF0
100
AcDbEntity
  8
0
100
AcDbLine
 10
1774.387120308718
 20
665.1194461321709
 30
0.0
 11
1774.387120308718
 21
664.6822651625416
 31
0.0
  0
LINE
  5
1326
330
2CF0
100
AcDbEntity
  8
0
100
AcDbLine
 10
1776.387120308718
 20
664.7486666025697
 30
0.0
 11
1776.387120308718
 21
664.6822651625416
 31
0.0
  0
LINE
  5
1327
330
2CF0
100
AcDbEntity
  8
0
 62
     7
100
AcDbLine
 10
1794.887118819968
 20
649.0816447744537
 30
0.0
 11
1794.887118819968
 21
629.0816455684534
 31
0.0
  0
LINE
  5
1328
330
2CF0
100
AcDbEntity
  8
0
 62
     7
100
AcDbLine
 10
1790.768168944868
 20
649.0816447744537
 30
0.0
 11
1790.768168944868
 21
654.0816445759535
 31
0.0
  0
LINE
  5
1329
330
2CF0
100
AcDbEntity
  8
CEN
100
AcDbLine
 10
1737.638207339321
 20
709.7839347367214
 30
0.0
 11
1777.004725978519
 21
709.7839347367214
 31
0.0
  0
LINE
  5
132A
330
2CF0
100
AcDbEntity
  8
0
100
AcDbLine
 10
1750.387120308718
 20
715.7839347367215
 30
0.0
 11
1764.387120308718
 21
715.7839347367215
 31
0.0
  0
LINE
  5
132B
330
2CF0
100
AcDbEntity
  8
0
 62
     7
100
AcDbLine
 10
1741.787120650138
 20
697.2839352329712
 30
0.0
 11
1741.787120650138
 21
722.2839342404718
 31
0.0
  0
LINE
  5
132C
330
2CF0
100
AcDbEntity
  8
0
 62
     7
100
AcDbLine
 10
1749.787120332538
 20
697.2839352329712
 30
0.0
 11
1749.787120332538
 21
722.2839342404713
 31
0.0
  0
LINE
  5
132D
330
2CF0
100
AcDbEntity
  8
0
 62
     7
100
AcDbLine
 10
1741.787120650138
 20
697.2839352329712
 30
0.0
 11
1749.787120332538
 21
697.2839352329712
 31
0.0
  0
LINE
  5
132E
330
2CF0
100
AcDbEntity
  8
0
  6
Continuous
 62
     7
100
AcDbLine
 10
1749.787120332538
 20
706.5839348637616
 30
0.0
 11
1750.387120308718
 21
706.5839348637616
 31
0.0
  0
LINE
  5
132F
330
2CF0
100
AcDbEntity
  8
0
 62
     7
100
AcDbLine
 10
1741.787120650138
 20
722.2839342404718
 30
0.0
 11
1749.787120332538
 21
722.2839342404713
 31
0.0
  0
LINE
  5
1330
330
2CF0
100
AcDbEntity
  8
0
  6
Continuous
 62
     7
100
AcDbLine
 10
1749.787120332538
 20
712.9839346096812
 30
0.0
 11
1750.387120308718
 21
712.9839346096812
 31
0.0
  0
LINE
  5
1331
330
2CF0
100
AcDbEntity
  8
0
100
AcDbLine
 10
1764.387120308718
 20
715.7839347367212
 30
0.0
 11
1764.387120308718
 21
693.7839347367212
 31
0.0
  0
LINE
  5
1332
330
2CF0
100
AcDbEntity
  8
0
 62
     7
100
AcDbLine
 10
1764.987120284898
 20
722.2839342404713
 30
0.0
 11
1764.987120284898
 21
697.2839352329712
 31
0.0
  0
LINE
  5
1333
330
2CF0
100
AcDbEntity
  8
0
 62
     7
100
AcDbLine
 10
1772.987119967298
 20
722.2839342404713
 30
0.0
 11
1772.987119967298
 21
697.2839352329712
 31
0.0
  0
LINE
  5
1334
330
2CF0
100
AcDbEntity
  8
0
 62
     7
100
AcDbLine
 10
1764.987120284898
 20
697.2839352329712
 30
0.0
 11
1772.987119967298
 21
697.2839352329712
 31
0.0
  0
LINE
  5
1335
330
2CF0
100
AcDbEntity
  8
0
100
AcDbLine
 10
1764.387120308718
 20
693.7839347367212
 30
0.0
 11
1767.387120308718
 21
693.7839347367212
 31
0.0
  0
LINE
  5
1336
330
2CF0
100
AcDbEntity
  8
0
 62
     7
100
AcDbLine
 10
1764.987120284898
 20
722.2839342404713
 30
0.0
 11
1772.987119967298
 21
722.2839342404713
 31
0.0
  0
LINE
  5
1337
330
2CF0
100
AcDbEntity
  8
0
  6
Continuous
 62
     7
100
AcDbLine
 10
1764.387120308718
 20
706.5839348637613
 30
0.0
 11
1764.987120284898
 21
706.5839348637613
 31
0.0
  0
LINE
  5
1338
330
2CF0
100
AcDbEntity
  8
0
  6
Continuous
 62
     7
100
AcDbLine
 10
1764.387120308718
 20
712.9839346096812
 30
0.0
 11
1764.987120284898
 21
712.9839346096812
 31
0.0
  0
LINE
  5
1339
330
2CF0
100
AcDbEntity
  8
0
100
AcDbLine
 10
1650.98384230466
 20
758.8478525959439
 30
0.0
 11
1650.98384230466
 21
823.8478500154435
 31
0.0
  0
ARC
  5
133A
330
2CF0
100
AcDbEntity
  8
0
100
AcDbCircle
 10
1642.48384264211
 20
798.3299710503882
 30
0.0
 40
1.999999920599999
100
AcDbArc
 50
274.0960437581514
 51
0.0
  0
ARC
  5
133B
330
2CF0
100
AcDbEntity
  8
0
100
AcDbCircle
 10
1594.98384452786
 20
791.3478513056936
 30
0.0
 40
10.15
100
AcDbArc
 50
316.3971810273013
 51
43.60281897269866
  0
LINE
  5
133C
330
2CF0
100
AcDbEntity
  8
CEN
100
AcDbLine
 10
1620.98384452786
 20
784.8478513056938
 30
0.0
 11
1620.98384452786
 21
797.8478513056941
 31
0.0
  0
ARC
  5
133D
330
2CF0
100
AcDbEntity
  8
0
100
AcDbCircle
 10
1594.98384452786
 20
791.3478513056936
 30
0.0
 40
35.00000000000003
100
AcDbArc
 50
308.5477070152505
 51
51.45229298474943
  0
ARC
  5
133E
330
2CF0
100
AcDbEntity
  8
0
100
AcDbCircle
 10
1594.98384452786
 20
791.3478513056936
 30
0.0
 40
19.0
100
AcDbArc
 50
317.8387809081631
 51
48.86049157216409
  0
ARC
  5
133F
330
2CF0
100
AcDbEntity
  8
0
100
AcDbCircle
 10
1594.98384452786
 20
791.3478513056936
 30
0.0
 40
9.503408973306861
100
AcDbArc
 50
312.5592938437803
 51
47.44070615621967
  0
LINE
  5
1340
330
2CF0
100
AcDbEntity
  8
0
100
AcDbLine
 10
1607.33384329286
 20
806.4978470206938
 30
0.0
 11
1607.33384329286
 21
797.3478513056938
 31
0.0
  0
LINE
  5
1341
330
2CF0
100
AcDbEntity
  8
0
100
AcDbLine
 10
1608.744830813702
 20
807.6589573298862
 30
0.0
 11
1608.859398658415
 21
797.3478513056938
 31
0.0
  0
ARC
  5
1342
330
2CF0
100
AcDbEntity
  8
0
100
AcDbCircle
 10
1628.364893164009
 20
766.3478522981939
 30
0.0
 40
1.999999920599999
100
AcDbArc
 50
270.0
 51
345.5224878140705
  0
ARC
  5
1343
330
2CF0
100
AcDbEntity
  8
0
 62
     7
100
AcDbCircle
 10
1639.98384274136
 20
763.3478524172935
 30
0.0
 40
9.999999602999999
100
AcDbArc
 50
90.0
 51
165.5224878140705
  0
LINE
  5
1344
330
2CF0
100
AcDbEntity
  8
CEN
100
AcDbLine
 10
1613.98384452786
 20
765.8478513056937
 30
0.0
 11
1613.98384452786
 21
778.8478513056941
 31
0.0
  0
ARC
  5
1345
330
2CF0
100
AcDbEntity
  8
0
100
AcDbCircle
 10
1613.98384452786
 20
772.3478513056938
 30
0.0
 40
5.5
100
AcDbArc
 50
208.854225542878
 51
152.4189616090414
  0
LINE
  5
1346
330
2CF0
100
AcDbEntity
  8
0
100
AcDbLine
 10
1608.992731991749
 20
785.3478513056938
 30
0.0
 11
1609.222608543702
 21
764.6589616298863
 31
0.0
  0
LINE
  5
1347
330
2CF0
100
AcDbEntity
  8
0
100
AcDbLine
 10
1607.33384329286
 20
776.347851623294
 30
0.0
 11
1607.33384329286
 21
765.7978510906938
 31
0.0
  0
LINE
  5
1348
330
2CF0
100
AcDbEntity
  8
CEN
100
AcDbLine
 10
1620.48384452786
 20
772.3478513056938
 30
0.0
 11
1607.48384452786
 21
772.3478513056938
 31
0.0
  0
CIRCLE
  5
1349
330
2CF0
100
AcDbEntity
  8
0
100
AcDbCircle
 10
1613.98384452786
 20
772.3478513056938
 30
0.0
 40
3.5
  0
ARC
  5
134A
330
2CF0
100
AcDbEntity
  8
0
100
AcDbCircle
 10
1606.58384336786
 20
765.7978510906938
 30
0.0
 40
0.7499999250000001
100
AcDbArc
 50
270.0
 51
0.0
  0
LINE
  5
134B
330
2CF0
100
AcDbEntity
  8
0
100
AcDbLine
 10
1604.98384352786
 20
765.0478511656938
 30
0.0
 11
1604.98384352786
 21
763.6478513056938
 31
0.0
  0
ARC
  5
134C
330
2CF0
100
AcDbEntity
  8
0
100
AcDbCircle
 10
1608.222670366376
 20
764.6478512056936
 30
0.0
 40
0.9999998999999998
100
AcDbArc
 50
270.0
 51
0.6365935759676117
  0
LINE
  5
134D
330
2CF0
100
AcDbEntity
  8
0
100
AcDbLine
 10
1609.17828755286
 20
768.6478508056937
 30
0.0
 11
1607.33384329286
 21
768.6478508056937
 31
0.0
  0
LINE
  5
134E
330
2CF0
100
AcDbEntity
  8
0
100
AcDbLine
 10
1627.675738250011
 20
764.3478523775939
 30
0.0
 11
1617.254903278682
 21
764.3478523775939
 31
0.0
  0
ARC
  5
134F
330
2CF0
100
AcDbEntity
  8
0
100
AcDbCircle
 10
1594.98384452786
 20
791.3478513056936
 30
0.0
 40
42.49999831275
100
AcDbArc
 50
307.9790985328202
 51
314.9008721559751
  0
ARC
  5
1350
330
2CF0
100
AcDbEntity
  8
0
100
AcDbCircle
 10
1615.859907375054
 20
765.1478513056938
 30
0.0
 40
1.5
100
AcDbArc
 50
270.0
 51
308.5477070152505
  0
LINE
  5
1351
330
2CF0
100
AcDbEntity
  8
0
100
AcDbLine
 10
1624.98384333686
 20
764.3478523775939
 30
0.0
 11
1624.98384333686
 21
761.2438660538416
 31
0.0
  0
LINE
  5
1352
330
2CF0
100
AcDbEntity
  8
0
100
AcDbLine
 10
1628.364893164009
 20
764.3478523775939
 30
0.0
 11
1627.675738250011
 21
764.3478523775939
 31
0.0
  0
LINE
  5
1353
330
2CF0
100
AcDbEntity
  8
0
100
AcDbLine
 10
1606.48384452786
 20
797.3478513056938
 30
0.0
 11
1606.48384452786
 21
785.3478513056938
 31
0.0
  0
LINE
  5
1354
330
2CF0
100
AcDbEntity
  8
0
100
AcDbLine
 10
1606.48384452786
 20
785.3478513056938
 30
0.0
 11
1613.01160090518
 21
785.3478513056938
 31
0.0
  0
LINE
  5
1355
330
2CF0
100
AcDbEntity
  8
0
100
AcDbLine
 10
1607.33384329286
 20
785.3478513056938
 30
0.0
 11
1607.33384329286
 21
784.3478513056936
 31
0.0
  0
LINE
  5
1356
330
2CF0
100
AcDbEntity
  8
0
100
AcDbLine
 10
1607.48384403161
 20
776.347851623294
 30
0.0
 11
1607.48384403161
 21
784.3478513056936
 31
0.0
  0
LINE
  5
1357
330
2CF0
100
AcDbEntity
  8
0
100
AcDbLine
 10
1606.48384452786
 20
797.3478513056938
 30
0.0
 11
1613.01160090518
 21
797.3478513056938
 31
0.0
  0
CIRCLE
  5
1358
330
2CF0
100
AcDbEntity
  8
0
100
AcDbCircle
 10
1620.98384452786
 20
791.3478513056936
 30
0.0
 40
5.5
  0
CIRCLE
  5
1359
330
2CF0
100
AcDbEntity
  8
0
100
AcDbCircle
 10
1620.98384452786
 20
791.3478513056936
 30
0.0
 40
3.5
  0
LINE
  5
135A
330
2CF0
100
AcDbEntity
  8
0
100
AcDbLine
 10
1644.48384256271
 20
784.3657315609995
 30
0.0
 11
1644.48384256271
 21
775.3478519408937
 31
0.0
  0
CIRCLE
  5
135B
330
2CF0
100
AcDbEntity
  8
0
100
AcDbCircle
 10
1639.98384274136
 20
763.3478524172939
 30
0.0
 40
6.9999997221
  0
LINE
  5
135C
330
2CF0
100
AcDbEntity
  8
CEN
100
AcDbLine
 10
1631.722129512418
 20
763.3478524172939
 30
0.0
 11
1648.679957233232
 21
763.3478524172939
 31
0.0
  0
LINE
  5
135D
330
2CF0
100
AcDbEntity
  8
CEN
100
AcDbLine
 10
1639.98384274136
 20
771.8726068058905
 30
0.0
 11
1639.98384274136
 21
755.3869033583906
 31
0.0
  0
CIRCLE
  5
135E
330
2CF0
100
AcDbEntity
  8
0
100
AcDbCircle
 10
1639.98384274136
 20
763.3478524172939
 30
0.0
 40
4.49999982135
  0
LINE
  5
135F
330
2CF0
100
AcDbEntity
  8
0
100
AcDbLine
 10
1642.48384264211
 20
773.3478520202934
 30
0.0
 11
1639.98384274136
 21
773.3478520202934
 31
0.0
  0
ARC
  5
1360
330
2CF0
100
AcDbEntity
  8
0
100
AcDbCircle
 10
1642.48384264211
 20
775.3478519408937
 30
0.0
 40
1.999999920599999
100
AcDbArc
 50
270.0
 51
0.0
  0
ARC
  5
1361
330
2CF0
100
AcDbEntity
  8
0
100
AcDbCircle
 10
1642.98384262226
 20
791.3478513056936
 30
0.0
 40
4.999999801499999
100
AcDbArc
 50
94.0960437581514
 51
265.9039562418485
  0
ARC
  5
1362
330
2CF0
100
AcDbEntity
  8
0
100
AcDbCircle
 10
1642.48384264211
 20
784.3657315609995
 30
0.0
 40
1.999999920599999
100
AcDbArc
 50
0.0
 51
85.90395624184861
  0
LINE
  5
1363
330
2CF0
100
AcDbEntity
  8
CEN
100
AcDbLine
 10
1642.98384262226
 20
795.2273563800287
 30
0.0
 11
1642.98384262226
 21
787.9003759182142
 31
0.0
  0
CIRCLE
  5
1364
330
2CF0
100
AcDbEntity
  8
0
100
AcDbCircle
 10
1642.98384262226
 20
791.3478513056936
 30
0.0
 40
2.19999991266
  0
ARC
  5
1365
330
2CF0
100
AcDbEntity
  8
0
100
AcDbCircle
 10
1628.364893164009
 20
816.3478503131937
 30
0.0
 40
1.999999920599999
100
AcDbArc
 50
14.47751218592945
 51
90.0
  0
ARC
  5
1366
330
2CF0
100
AcDbEntity
  8
0
 62
     7
100
AcDbCircle
 10
1639.98384274136
 20
819.3478501940937
 30
0.0
 40
9.999999602999999
100
AcDbArc
 50
194.4775121859295
 51
270.0
  0
LINE
  5
1367
330
2CF0
100
AcDbEntity
  8
0
100
AcDbLine
 10
1624.98384333686
 20
818.3478502337939
 30
0.0
 11
1624.98384333686
 21
821.4518365575463
 31
0.0
  0
LINE
  5
1368
330
2CF0
100
AcDbEntity
  8
CEN
100
AcDbLine
 10
1620.48384452786
 20
810.3478513056938
 30
0.0
 11
1607.48384452786
 21
810.3478513056938
 31
0.0
  0
CIRCLE
  5
1369
330
2CF0
100
AcDbEntity
  8
0
100
AcDbCircle
 10
1613.98384452786
 20
810.3478513056938
 30
0.0
 40
5.5
  0
CIRCLE
  5
136A
330
2CF0
100
AcDbEntity
  8
0
100
AcDbCircle
 10
1613.98384452786
 20
810.3478513056938
 30
0.0
 40
3.5
  0
LINE
  5
136B
330
2CF0
100
AcDbEntity
  8
CEN
100
AcDbLine
 10
1613.98384452786
 20
803.8478513056938
 30
0.0
 11
1613.98384452786
 21
816.8478513056941
 31
0.0
  0
ARC
  5
136C
330
2CF0
100
AcDbEntity
  8
0
100
AcDbCircle
 10
1607.744892636376
 20
807.6478469056937
 30
0.0
 40
0.9999998999999998
100
AcDbArc
 50
0.6365935759676117
 51
90.0
  0
ARC
  5
136D
330
2CF0
100
AcDbEntity
  8
0
100
AcDbCircle
 10
1606.58384336786
 20
806.4978470206938
 30
0.0
 40
0.7499999250000001
100
AcDbArc
 50
0.0
 51
90.0
  0
ARC
  5
136E
330
2CF0
100
AcDbEntity
  8
0
100
AcDbCircle
 10
1594.98384452786
 20
791.3478513056936
 30
0.0
 40
19.0
100
AcDbArc
 50
52.13635207788055
 51
56.80811682578196
  0
LINE
  5
136F
330
2CF0
100
AcDbEntity
  8
0
100
AcDbLine
 10
1607.744892636376
 20
808.6478468056938
 30
0.0
 11
1599.98384452786
 21
808.6478468056938
 31
0.0
  0
LINE
  5
1370
330
2CF0
100
AcDbEntity
  8
0
100
AcDbLine
 10
1599.98384452786
 20
809.6781540855172
 30
0.0
 11
1599.98384452786
 21
808.3478513056938
 31
0.0
  0
LINE
  5
1371
330
2CF0
100
AcDbEntity
  8
0
100
AcDbLine
 10
1617.254903278682
 20
818.3478502337939
 30
0.0
 11
1627.675738250011
 21
818.3478502337939
 31
0.0
  0
LINE
  5
1372
330
2CF0
100
AcDbEntity
  8
0
100
AcDbLine
 10
1628.364893164009
 20
818.3478502337939
 30
0.0
 11
1627.675738250011
 21
818.3478502337939
 31
0.0
  0
ARC
  5
1373
330
2CF0
100
AcDbEntity
  8
0
100
AcDbCircle
 10
1594.98384452786
 20
791.3478513056936
 30
0.0
 40
42.49999831275
100
AcDbArc
 50
45.0991278440249
 51
52.02090146717975
  0
ARC
  5
1374
330
2CF0
100
AcDbEntity
  8
0
100
AcDbCircle
 10
1615.859907375054
 20
817.5478513056939
 30
0.0
 40
1.5
100
AcDbArc
 50
51.45229298474943
 51
90.0
  0
LINE
  5
1375
330
2CF0
100
AcDbEntity
  8
CEN
100
AcDbLine
 10
1639.98384274136
 20
827.969796971301
 30
0.0
 11
1639.98384274136
 21
811.4840917960794
 31
0.0
  0
CIRCLE
  5
1376
330
2CF0
100
AcDbEntity
  8
0
 62
     7
100
AcDbCircle
 10
1639.98384274136
 20
819.3478501940937
 30
0.0
 40
6.9999997221
  0
CIRCLE
  5
1377
330
2CF0
100
AcDbEntity
  8
0
 62
     7
100
AcDbCircle
 10
1639.98384274136
 20
819.3478501940937
 30
0.0
 40
6.9999997221
  0
CIRCLE
  5
1378
330
2CF0
100
AcDbEntity
  8
0
100
AcDbCircle
 10
1639.98384274136
 20
819.3478501940937
 30
0.0
 40
4.49999982135
  0
CIRCLE
  5
1379
330
2CF0
100
AcDbEntity
  8
0
100
AcDbCircle
 10
1639.98384274136
 20
819.3478501940937
 30
0.0
 40
4.49999982135
  0
ARC
  5
137A
330
2CF0
100
AcDbEntity
  8
0
 62
     7
100
AcDbCircle
 10
1642.48384264211
 20
807.3478506704939
 30
0.0
 40
1.999999920599999
100
AcDbArc
 50
0.0
 51
90.0
  0
LINE
  5
137B
330
2CF0
100
AcDbEntity
  8
0
100
AcDbLine
 10
1644.48384256271
 20
807.3478506704939
 30
0.0
 11
1644.48384256271
 21
798.3299710503882
 31
0.0
  0
LINE
  5
137C
330
2CF0
100
AcDbEntity
  8
0
 62
     7
100
AcDbLine
 10
1642.48384264211
 20
809.3478505910933
 30
0.0
 11
1639.98384274136
 21
809.3478505910933
 31
0.0
  0
ARC
  5
137D
330
2CF0
100
AcDbEntity
  8
0
100
AcDbCircle
 10
1645.98384250316
 20
823.8478500154435
 30
0.0
 40
4.999999801499999
100
AcDbArc
 50
0.0
 51
90.0
  0
LINE
  5
137E
330
2CF0
100
AcDbEntity
  8
CEN
100
AcDbLine
 10
1648.450797572011
 20
819.3478501940937
 30
0.0
 11
1631.492969851197
 21
819.3478501940937
 31
0.0
  0
LINE
  5
137F
330
2CF0
100
AcDbEntity
  8
0
100
AcDbLine
 10
1614.97107395527
 20
578.0604524236768
 30
0.0
 11
1614.97107395527
 21
614.0454586689867
 31
0.0
  0
LINE
  5
1380
330
2CF0
100
AcDbEntity
  8
0
100
AcDbLine
 10
1581.485026476995
 20
559.0683657942077
 30
0.0
 11
1581.485026476995
 21
597.0525390531459
 31
0.0
  0
LINE
  5
1381
330
2CF0
100
AcDbEntity
  8
0
100
AcDbLine
 10
1574.987733682703
 20
559.0683657942077
 30
0.0
 11
1574.987733682703
 21
596.0529555463316
 31
0.0
  0
LINE
  5
1382
330
2CF0
100
AcDbEntity
  8
0
100
AcDbLine
 10
1608.473781160978
 20
577.0608689168628
 30
0.0
 11
1608.473781160978
 21
615.045042175801
 31
0.0
  0
LINE
  5
1383
330
2CF0
100
AcDbEntity
  8
0
100
AcDbLine
 10
1622.198743651222
 20
534.0787781238539
 30
0.0
 11
1622.198743651222
 21
619.0433762030575
 31
0.0
  0
LINE
  5
1384
330
2CF0
100
AcDbEntity
  8
0
100
AcDbLine
 10
1567.760063986751
 20
534.0787781238539
 30
0.0
 11
1567.760063986751
 21
619.0433762030575
 31
0.0
  0
LINE
  5
1385
330
2CF0
100
AcDbEntity
  8
0
100
AcDbLine
 10
1561.493356340712
 20
534.0787781238539
 30
0.0
 11
1561.229403818986
 21
629.039211271199
 31
0.0
  0
LINE
  5
1386
330
2CF0
100
AcDbEntity
  8
0
100
AcDbLine
 10
1628.465451297261
 20
534.0787781238539
 30
0.0
 11
1628.729403818987
 21
629.039211271199
 31
0.0
  0
LINE
  5
1387
330
2CF0
100
AcDbEntity
  8
0
100
AcDbLine
 10
1572.488774915668
 20
554.0704482601369
 30
0.0
 11
1617.470032722305
 21
554.0704482601369
 31
0.0
  0
LINE
  5
1388
330
2CF0
100
AcDbEntity
  8
0
100
AcDbLine
 10
1572.488774915668
 20
540.0762791647387
 30
0.0
 11
1617.470032722305
 21
540.0762791647387
 31
0.0
  0
LINE
  5
1389
330
2CF0
100
AcDbEntity
  8
0
100
AcDbLine
 10
1561.493356340712
 20
534.0787781238539
 30
0.0
 11
1628.465451297261
 21
534.0787781238539
 31
0.0
  0
LINE
  5
138A
330
2CF0
100
AcDbEntity
  8
0
100
AcDbLine
 10
1571.489191408854
 20
541.0758626715529
 30
0.0
 11
1571.489191408854
 21
553.0708647533229
 31
0.0
  0
ARC
  5
138B
330
2CF0
100
AcDbEntity
  8
0
100
AcDbCircle
 10
1572.488774915668
 20
541.0758626715529
 30
0.0
 40
0.9995835068141603
100
AcDbArc
 50
180.0
 51
270.0
  0
LINE
  5
138C
330
2CF0
100
AcDbEntity
  8
0
100
AcDbLine
 10
1574.987733682703
 20
559.0683657942077
 30
0.0
 11
1614.97107395527
 21
559.0683657942077
 31
0.0
  0
ARC
  5
138D
330
2CF0
100
AcDbEntity
  8
0
100
AcDbCircle
 10
1572.488774915668
 20
553.0708647533229
 30
0.0
 40
0.9995835068141603
100
AcDbArc
 50
90.0
 51
180.0
  0
LINE
  5
138E
330
2CF0
100
AcDbEntity
  8
CEN
100
AcDbLine
 10
1609.973156421199
 20
572.062951382792
 30
0.0
 11
1609.973156421199
 21
562.0671163146503
 31
0.0
  0
LINE
  5
138F
330
2CF0
100
AcDbEntity
  8
0
100
AcDbLine
 10
1604.975238887128
 20
559.0683657942077
 30
0.0
 11
1604.975238887128
 21
577.0608689168628
 31
0.0
  0
LINE
  5
1390
330
2CF0
100
AcDbEntity
  8
0
100
AcDbLine
 10
1614.97107395527
 20
559.0683657942077
 30
0.0
 11
1614.97107395527
 21
574.3619934484645
 31
0.0
  0
ARC
  5
1391
330
2CF0
100
AcDbEntity
  8
0
100
AcDbCircle
 10
1613.971490448456
 20
574.3619934484645
 30
0.0
 40
0.9995835068141603
100
AcDbArc
 50
0.0
 51
90.0
  0
LINE
  5
1392
330
2CF0
100
AcDbEntity
  8
0
100
AcDbLine
 10
1604.975238887128
 20
575.3615769552784
 30
0.0
 11
1613.971490448456
 21
575.3615769552784
 31
0.0
  0
LINE
  5
1393
330
2CF0
100
AcDbEntity
  8
CEN
100
AcDbLine
 10
1604.975238887128
 20
567.0650338487212
 30
0.0
 11
1614.97107395527
 21
567.0650338487212
 31
0.0
  0
ARC
  5
1394
330
2CF0
100
AcDbEntity
  8
0
 62
     3
100
AcDbCircle
 10
1609.973156421199
 20
567.0650338487212
 30
0.0
 40
1.999167013628319
100
AcDbArc
 50
260.1404930371331
 51
190.1991573774815
  0
CIRCLE
  5
1395
330
2CF0
100
AcDbEntity
  8
0
100
AcDbCircle
 10
1609.973156421199
 20
567.0650338487212
 30
0.0
 40
1.649312786243364
  0
LINE
  5
1396
330
2CF0
100
AcDbEntity
  8
0
100
AcDbLine
 10
1604.975238887128
 20
577.0608689168628
 30
0.0
 11
1613.971490448456
 21
577.0608689168628
 31
0.0
  0
ARC
  5
1397
330
2CF0
100
AcDbEntity
  8
0
100
AcDbCircle
 10
1613.971490448456
 20
578.0604524236768
 30
0.0
 40
0.9995835068141603
100
AcDbArc
 50
270.0
 51
0.0
  0
LINE
  5
1398
330
2CF0
100
AcDbEntity
  8
0
100
AcDbLine
 10
1618.469616229119
 20
541.0758626715529
 30
0.0
 11
1618.469616229119
 21
553.0708647533229
 31
0.0
  0
ARC
  5
1399
330
2CF0
100
AcDbEntity
  8
0
100
AcDbCircle
 10
1617.470032722305
 20
541.0758626715529
 30
0.0
 40
0.9995835068141603
100
AcDbArc
 50
270.0
 51
0.0
  0
ARC
  5
139A
330
2CF0
100
AcDbEntity
  8
0
100
AcDbCircle
 10
1617.470032722305
 20
553.0708647533229
 30
0.0
 40
0.9995835068141603
100
AcDbArc
 50
0.0
 51
90.0
  0
LINE
  5
139B
330
2CF0
100
AcDbEntity
  8
0
100
AcDbLine
 10
1561.612256837454
 20
654.028798941553
 30
0.0
 11
1628.346550800519
 21
654.028798941553
 31
0.0
  0
LINE
  5
139C
330
2CF0
100
AcDbEntity
  8
0
 62
     7
100
AcDbLine
 10
1539.002727437394
 20
629.039211271199
 30
0.0
 11
1650.95608020058
 21
629.039211271199
 31
0.0
  0
LINE
  5
139D
330
2CF0
100
AcDbEntity
  8
0
100
AcDbLine
 10
1561.493356340712
 20
619.0433762030575
 30
0.0
 11
1628.465451297261
 21
619.0433762030575
 31
0.0
  0
LINE
  5
139E
330
2CF0
100
AcDbEntity
  8
HIDDEN
  6
HIDDEN
100
AcDbLine
 10
1543.00106146465
 20
634.03712880527
 30
0.0
 11
1556.995230560048
 21
634.03712880527
 31
0.0
  0
LINE
  5
139F
330
2CF0
100
AcDbEntity
  8
HIDDEN
  6
HIDDEN
100
AcDbLine
 10
1543.00106146465
 20
644.0329638734115
 30
0.0
 11
1556.995230560048
 21
644.0329638734115
 31
0.0
  0
LINE
  5
13A0
330
2CF0
100
AcDbEntity
  8
CEN
100
AcDbLine
 10
1549.998146012349
 20
652.3574726501816
 30
0.0
 11
1549.998146012349
 21
625.8862468207134
 31
0.0
  0
LINE
  5
13A1
330
2CF0
100
AcDbEntity
  8
HIDDEN
  6
HIDDEN
100
AcDbLine
 10
1545.500020231685
 20
644.0329638734115
 30
0.0
 11
1545.500020231686
 21
634.03712880527
 31
0.0
  0
LINE
  5
13A2
330
2CF0
100
AcDbEntity
  8
0
100
AcDbLine
 10
1539.002727437394
 20
629.039211271199
 30
0.0
 11
1539.002727437394
 21
649.0308814074824
 31
0.0
  0
LINE
  5
13A3
330
2CF0
100
AcDbEntity
  8
HIDDEN
  6
HIDDEN
100
AcDbLine
 10
1543.00106146465
 20
634.03712880527
 30
0.0
 11
1543.00106146465
 21
629.039211271199
 31
0.0
  0
LINE
  5
13A4
330
2CF0
100
AcDbEntity
  8
HIDDEN
  6
HIDDEN
100
AcDbLine
 10
1543.00106146465
 20
649.0308814074824
 30
0.0
 11
1543.00106146465
 21
644.0329638734115
 31
0.0
  0
LINE
  5
13A5
330
2CF0
100
AcDbEntity
  8
CEN
100
AcDbLine
 10
1574.987733682703
 20
607.0483741212875
 30
0.0
 11
1584.983568750845
 21
607.0483741212875
 31
0.0
  0
LINE
  5
13A6
330
2CF0
100
AcDbEntity
  8
0
100
AcDbLine
 10
1575.987317189518
 20
597.0525390531459
 30
0.0
 11
1584.983568750845
 21
597.0525390531459
 31
0.0
  0
LINE
  5
13A7
330
2CF0
100
AcDbEntity
  8
0
100
AcDbLine
 10
1575.987317189518
 20
598.75183101473
 30
0.0
 11
1584.983568750845
 21
598.75183101473
 31
0.0
  0
LINE
  5
13A8
330
2CF0
100
AcDbEntity
  8
0
100
AcDbLine
 10
1575.987317189518
 20
615.045042175801
 30
0.0
 11
1613.971490448456
 21
615.045042175801
 31
0.0
  0
ARC
  5
13A9
330
2CF0
100
AcDbEntity
  8
0
 62
     3
100
AcDbCircle
 10
1579.985651216774
 20
607.0483741212875
 30
0.0
 40
1.999167013628319
100
AcDbArc
 50
261.555122640964
 51
197.911624305074
  0
CIRCLE
  5
13AA
330
2CF0
100
AcDbEntity
  8
0
100
AcDbCircle
 10
1579.985651216774
 20
607.0483741212875
 30
0.0
 40
1.649312786243364
  0
LINE
  5
13AB
330
2CF0
100
AcDbEntity
  8
0
100
AcDbLine
 10
1574.987733682703
 20
599.7514145215441
 30
0.0
 11
1574.987733682703
 21
614.0454586689867
 31
0.0
  0
LINE
  5
13AC
330
2CF0
100
AcDbEntity
  8
CEN
100
AcDbLine
 10
1579.985651216774
 20
612.0462916553583
 30
0.0
 11
1579.985651216774
 21
602.0504565872164
 31
0.0
  0
ARC
  5
13AD
330
2CF0
100
AcDbEntity
  8
0
100
AcDbCircle
 10
1575.987317189518
 20
596.0529555463316
 30
0.0
 40
0.9995835068141603
100
AcDbArc
 50
90.0
 51
180.0
  0
ARC
  5
13AE
330
2CF0
100
AcDbEntity
  8
0
100
AcDbCircle
 10
1575.987317189518
 20
599.7514145215441
 30
0.0
 40
0.9995835068141603
100
AcDbArc
 50
180.0
 51
270.0
  0
ARC
  5
13AF
330
2CF0
100
AcDbEntity
  8
0
100
AcDbCircle
 10
1575.987317189518
 20
614.0454586689867
 30
0.0
 40
0.9995835068141603
100
AcDbArc
 50
90.0
 51
180.0
  0
LINE
  5
13B0
330
2CF0
100
AcDbEntity
  8
0
100
AcDbLine
 10
1584.983568750845
 20
597.0525390531459
 30
0.0
 11
1584.983568750845
 21
615.045042175801
 31
0.0
  0
ARC
  5
13B1
330
2CF0
100
AcDbEntity
  8
0
100
AcDbCircle
 10
1613.971490448456
 20
614.0454586689867
 30
0.0
 40
0.9995835068141603
100
AcDbArc
 50
0.0
 51
90.0
  0
LINE
  5
13B2
330
2CF0
100
AcDbEntity
  8
0
100
AcDbLine
 10
1561.612256837454
 20
649.0308814074824
 30
0.0
 11
1561.612256837454
 21
654.028798941553
 31
0.0
  0
LINE
  5
13B3
330
2CF0
100
AcDbEntity
  8
HIDDEN
  6
HIDDEN
100
AcDbLine
 10
1554.496271793013
 20
644.0329638734115
 30
0.0
 11
1554.496271793013
 21
634.03712880527
 31
0.0
  0
LINE
  5
13B4
330
2CF0
100
AcDbEntity
  8
HIDDEN
  6
HIDDEN
100
AcDbLine
 10
1556.995230560048
 20
634.03712880527
 30
0.0
 11
1556.995230560048
 21
629.039211271199
 31
0.0
  0
LINE
  5
13B5
330
2CF0
100
AcDbEntity
  8
HIDDEN
  6
HIDDEN
100
AcDbLine
 10
1556.995230560048
 20
649.0308814074824
 30
0.0
 11
1556.995230560048
 21
644.0329638734115
 31
0.0
  0
CIRCLE
  5
13B6
330
2CF0
100
AcDbEntity
  8
0
 62
     7
100
AcDbCircle
 10
1595.990232641818
 20
632.7918143536106
 30
0.0
 40
1.2494793835177
  0
ARC
  5
13B7
330
2CF0
100
AcDbEntity
  8
0
 62
     3
100
AcDbCircle
 10
1595.990232641818
 20
632.7918143536106
 30
0.0
 40
1.499375260221238
100
AcDbArc
 50
259.1549813836914
 51
178.7145677144019
  0
LINE
  5
13B8
330
2CF0
100
AcDbEntity
  8
CEN
100
AcDbLine
 10
1595.990232641818
 20
630.242347827011
 30
0.0
 11
1595.990232641818
 21
635.1176323230474
 31
0.0
  0
LINE
  5
13B9
330
2CF0
100
AcDbEntity
  8
0
 62
     7
100
AcDbLine
 10
1594.990649135004
 20
646.0362958188982
 30
0.0
 11
1598.988983162261
 21
646.0362958188982
 31
0.0
  0
LINE
  5
13BA
330
2CF0
100
AcDbEntity
  8
0
 62
     7
100
AcDbLine
 10
1594.990649135004
 20
642.0379617916416
 30
0.0
 11
1598.988983162261
 21
642.0379617916416
 31
0.0
  0
TEXT
  5
13BB
330
2CF0
100
AcDbEntity
  8
0
 62
     7
100
AcDbText
 10
1595.692949645628
 20
642.4661383444147
 30
0.0
 40
2.998750520442481
  1
2
  7
DAYUS
100
AcDbText
  0
LINE
  5
13BC
330
2CF0
100
AcDbEntity
  8
0
 62
     7
100
AcDbLine
 10
1598.988983162261
 20
646.0362958188982
 30
0.0
 11
1598.988983162261
 21
642.0379617916416
 31
0.0
  0
LINE
  5
13BD
330
2CF0
100
AcDbEntity
  8
0
 62
     7
100
AcDbLine
 10
1594.990649135004
 20
646.0362958188982
 30
0.0
 11
1594.990649135004
 21
642.0379617916416
 31
0.0
  0
LINE
  5
13BE
330
2CF0
100
AcDbEntity
  8
CEN
100
AcDbLine
 10
1605.98606770996
 20
633.1068940394827
 30
0.0
 11
1605.98606770996
 21
645.1272619877649
 31
0.0
  0
ARC
  5
13BF
330
2CF0
100
AcDbEntity
  8
0
 62
     3
100
AcDbCircle
 10
1605.98606770996
 20
639.0392112711991
 30
0.0
 40
4.861974177144077
100
AcDbArc
 50
205.5159466809203
 51
115.1668909433152
  0
CIRCLE
  5
13C0
330
2CF0
100
AcDbEntity
  8
0
 62
     7
100
AcDbCircle
 10
1605.98606770996
 20
639.0392112711991
 30
0.0
 40
4.24822990396018
  0
LINE
  5
13C1
330
2CF0
100
AcDbEntity
  8
CEN
100
AcDbLine
 10
1600.15972051698
 20
639.0392112711991
 30
0.0
 11
1611.693634461456
 21
639.0392112711991
 31
0.0
  0
LINE
  5
13C2
330
2CF0
100
AcDbEntity
  8
CEN
100
AcDbLine
 10
1639.960661625624
 20
652.3574726501816
 30
0.0
 11
1639.960661625624
 21
625.8862468207134
 31
0.0
  0
LINE
  5
13C3
330
2CF0
100
AcDbEntity
  8
HIDDEN
  6
HIDDEN
100
AcDbLine
 10
1632.963577077925
 20
634.03712880527
 30
0.0
 11
1646.957746173322
 21
634.03712880527
 31
0.0
  0
LINE
  5
13C4
330
2CF0
100
AcDbEntity
  8
HIDDEN
  6
HIDDEN
100
AcDbLine
 10
1632.963577077925
 20
644.0329638734115
 30
0.0
 11
1646.957746173322
 21
644.0329638734115
 31
0.0
  0
LINE
  5
13C5
330
2CF0
100
AcDbEntity
  8
0
100
AcDbLine
 10
1628.346550800519
 20
649.0308814074824
 30
0.0
 11
1628.346550800519
 21
654.028798941553
 31
0.0
  0
LINE
  5
13C6
330
2CF0
100
AcDbEntity
  8
0
 62
     7
100
AcDbLine
 10
1628.976488366686
 20
636.0404607507565
 30
0.0
 11
1632.974822393942
 21
636.0404607507565
 31
0.0
  0
LINE
  5
13C7
330
2CF0
100
AcDbEntity
  8
0
 62
     7
100
AcDbLine
 10
1628.976488366686
 20
632.0421267234999
 30
0.0
 11
1632.974822393942
 21
632.0421267234999
 31
0.0
  0
TEXT
  5
13C8
330
2CF0
100
AcDbEntity
  8
0
 62
     7
100
AcDbText
 10
1630.299337148775
 20
632.6463843437127
 30
0.0
 40
2.998750520442481
  1
1
  7
DAYUS
100
AcDbText
  0
ARC
  5
13C9
330
2CF0
100
AcDbEntity
  8
0
 62
     3
100
AcDbCircle
 10
1631.975238887128
 20
645.2866081887876
 30
0.0
 40
1.499375260221238
100
AcDbArc
 50
258.9968160983612
 51
195.3216265123768
  0
CIRCLE
  5
13CA
330
2CF0
100
AcDbEntity
  8
0
 62
     7
100
AcDbCircle
 10
1631.975238887128
 20
645.2866081887876
 30
0.0
 40
1.2494793835177
  0
LINE
  5
13CB
330
2CF0
100
AcDbEntity
  8
CEN
100
AcDbLine
 10
1629.60888880172
 20
645.2866081887876
 30
0.0
 11
1634.3447439198
 21
645.2866081887876
 31
0.0
  0
ARC
  5
13CC
330
2CF0
100
AcDbEntity
  8
0
 62
     3
100
AcDbCircle
 10
1621.979403818986
 20
639.0392112711991
 30
0.0
 40
4.861974177144077
100
AcDbArc
 50
201.8813460717308
 51
103.5330811320877
  0
CIRCLE
  5
13CD
330
2CF0
100
AcDbEntity
  8
0
 62
     7
100
AcDbCircle
 10
1621.979403818986
 20
639.0392112711991
 30
0.0
 40
4.24822990396018
  0
LINE
  5
13CE
330
2CF0
100
AcDbEntity
  8
CEN
100
AcDbLine
 10
1621.979403818986
 20
633.1068940394827
 30
0.0
 11
1621.979403818986
 21
645.1272619877649
 31
0.0
  0
LINE
  5
13CF
330
2CF0
100
AcDbEntity
  8
CEN
100
AcDbLine
 10
1616.057818116123
 20
639.0392112711991
 30
0.0
 11
1627.903459464504
 21
639.0392112711991
 31
0.0
  0
LINE
  5
13D0
330
2CF0
100
AcDbEntity
  8
0
 62
     7
100
AcDbLine
 10
1628.976488366686
 20
636.0404607507565
 30
0.0
 11
1628.976488366686
 21
632.0421267234999
 31
0.0
  0
LINE
  5
13D1
330
2CF0
100
AcDbEntity
  8
HIDDEN
  6
HIDDEN
100
AcDbLine
 10
1635.46253584496
 20
644.0329638734115
 30
0.0
 11
1635.46253584496
 21
634.03712880527
 31
0.0
  0
LINE
  5
13D2
330
2CF0
100
AcDbEntity
  8
HIDDEN
  6
HIDDEN
100
AcDbLine
 10
1644.458787406287
 20
644.0329638734115
 30
0.0
 11
1644.458787406287
 21
634.03712880527
 31
0.0
  0
LINE
  5
13D3
330
2CF0
100
AcDbEntity
  8
HIDDEN
  6
HIDDEN
100
AcDbLine
 10
1632.963577077925
 20
634.03712880527
 30
0.0
 11
1632.963577077925
 21
629.039211271199
 31
0.0
  0
LINE
  5
13D4
330
2CF0
100
AcDbEntity
  8
0
 62
     7
100
AcDbLine
 10
1632.974822393942
 20
636.0404607507565
 30
0.0
 11
1632.974822393942
 21
632.0421267234999
 31
0.0
  0
LINE
  5
13D5
330
2CF0
100
AcDbEntity
  8
HIDDEN
  6
HIDDEN
100
AcDbLine
 10
1632.963577077925
 20
649.0308814074824
 30
0.0
 11
1632.963577077925
 21
644.0329638734115
 31
0.0
  0
LINE
  5
13D6
330
2CF0
100
AcDbEntity
  8
CEN
100
AcDbLine
 10
1631.975238887128
 20
643.0041225722707
 30
0.0
 11
1631.975238887128
 21
647.592625904378
 31
0.0
  0
LINE
  5
13D7
330
2CF0
100
AcDbEntity
  8
0
 62
     7
100
AcDbLine
 10
1650.95608020058
 20
629.039211271199
 30
0.0
 11
1650.95608020058
 21
649.0308814074824
 31
0.0
  0
LINE
  5
13D8
330
2CF0
100
AcDbEntity
  8
HIDDEN
  6
HIDDEN
100
AcDbLine
 10
1646.957746173322
 20
634.03712880527
 30
0.0
 11
1646.957746173322
 21
629.039211271199
 31
0.0
  0
LINE
  5
13D9
330
2CF0
100
AcDbEntity
  8
HIDDEN
  6
HIDDEN
100
AcDbLine
 10
1646.957746173322
 20
649.0308814074824
 30
0.0
 11
1646.957746173322
 21
644.0329638734115
 31
0.0
  0
DIMENSION
  5
13DA
330
2CF0
100
AcDbEntity
  8
AM_5
100
AcDbDimension
  2
*D58
 10
1676.645742894165
 20
412.4350939121597
 30
0.0
 11
1671.545742894165
 21
440.4335611883232
 31
0.0
 70
    32
  1
56
 71
     5
 42
55.99693455232631
  3
AM_ISO$0
100
AcDbAlignedDimension
 13
1647.968652503677
 23
468.4320284644861
 33
0.0
 14
1647.968652503677
 24
412.4350939121598
 34
0.0
 50
90.0
100
AcDbRotatedDimension
1001
ACAD
1000
DSTYLE
1002
{
1070
    40
1040
2.0
1070
    43
1040
10.0
1070
    79
1070
     0
1070
   141
1040
3.0
1070
   146
1040
0.71
1070
   147
1040
0.8
1070
   283
1070
     1
1070
   285
1070
     8
1070
   286
1070
     8
1070
   371
1070
    -2
1070
   372
1070
    -2
1002
}
  0
DIMENSION
  5
13DB
330
2CF0
100
AcDbEntity
  8
AM_5
100
AcDbDimension
  2
*D59
 10
1693.029290611952
 20
402.9356139434619
 30
0.0
 11
1693.029290611952
 21
440.2733108939233
 31
0.0
 70
   160
  1
75
 71
     5
 42
74.9958944897225
  3
AM_ISO$0
100
AcDbAlignedDimension
 13
1645.968761983951
 23
477.9315084331845
 33
0.0
 14
1645.968761983951
 24
402.935613943462
 34
0.0
 50
90.0
100
AcDbRotatedDimension
1001
ACAD
1000
DSTYLE
1002
{
1070
    40
1040
2.0
1070
    43
1040
10.0
1070
    79
1070
     0
1070
   141
1040
3.0
1070
   146
1040
0.71
1070
   147
1040
0.8
1070
   283
1070
     1
1070
   285
1070
     8
1070
   286
1070
     8
1070
   371
1070
    -2
1070
   372
1070
    -2
1002
}
  0
ARC
  5
13DC
330
2CF0
100
AcDbEntity
  8
CEN
100
AcDbCircle
 10
1594.97155373094
 20
440.4335611883232
 30
0.0
 40
42.49767354417613
100
AcDbArc
 50
51.11831840082286
 51
58.74547018188194
  0
ARC
  5
13DD
330
2CF0
100
AcDbEntity
  8
CEN
100
AcDbCircle
 10
1594.97155373094
 20
440.4335611883232
 30
0.0
 40
42.49767354417613
100
AcDbArc
 50
231.1401587705329
 51
239.8189362365395
  0
LINE
  5
13DE
330
2CF0
100
AcDbEntity
  8
CEN
100
AcDbLine
 10
1757.387120308718
 20
621.3344906552968
 30
0.0
 11
1757.387120308718
 21
721.1246208207577
 31
0.0
  0
LINE
  5
13DF
330
2CF0
100
AcDbEntity
  8
CEN
100
AcDbLine
 10
1541.52942945399
 20
468.4320284644861
 30
0.0
 11
1557.97357911601
 21
468.4320284644861
 31
0.0
  0
LINE
  5
13E0
330
2CF0
100
AcDbEntity
  8
CEN
100
AcDbLine
 10
1549.974017037106
 20
476.5943548048491
 30
0.0
 11
1549.974017037106
 21
460.4324663855826
 31
0.0
  0
LINE
  5
13E1
330
2CF0
100
AcDbEntity
  8
CEN
100
AcDbLine
 10
1631.524502841658
 20
468.4320284644861
 30
0.0
 11
1647.968652503677
 21
468.4320284644861
 31
0.0
  0
LINE
  5
13E2
330
2CF0
100
AcDbEntity
  8
CEN
100
AcDbLine
 10
1639.969090424773
 20
476.5943548048491
 30
0.0
 11
1639.969090424773
 21
460.4324663855826
 31
0.0
  0
LINE
  5
13E3
330
2CF0
100
AcDbEntity
  8
CEN
100
AcDbLine
 10
1631.524502841658
 20
412.4350939121598
 30
0.0
 11
1647.968652503677
 21
412.4350939121598
 31
0.0
  0
LINE
  5
13E4
330
2CF0
100
AcDbEntity
  8
CEN
100
AcDbLine
 10
1639.969090424773
 20
420.5974202525228
 30
0.0
 11
1639.969090424773
 21
404.4355318332562
 31
0.0
  0
LINE
  5
13E5
330
2CF0
100
AcDbEntity
  8
CEN
100
AcDbLine
 10
1642.968926204362
 20
444.44465298415
 30
0.0
 11
1642.968926204362
 21
436.136163470285
 31
0.0
  0
DIMENSION
  5
13E6
330
2CF0
100
AcDbEntity
  8
AM_5
100
AcDbDimension
  2
*D50
 10
1790.508145839368
 20
697.2839352329712
 30
0.0
 11
1785.40745686299
 21
709.7839347367215
 31
0.0
 70
    32
  1
%%c25
 71
     5
 42
24.99999900750015
  3
AM_ISO$0
100
AcDbAlignedDimension
 13
1772.987119967298
 23
722.2839342404713
 33
0.0
 14
1772.987119967298
 24
697.2839352329712
 34
0.0
 50
90.0
100
AcDbRotatedDimension
1001
ACAD
1000
DSTYLE
1002
{
1070
    40
1040
2.0
1070
    43
1040
10.0
1070
    79
1070
     0
1070
   141
1040
3.0
1070
   146
1040
0.71
1070
   147
1040
0.8
1070
   283
1070
     1
1070
   285
1070
     8
1070
   286
1070
     8
1070
   371
1070
    -2
1070
   372
1070
    -2
1002
}
  0
DIMENSION
  5
13E9
330
2CF0
100
AcDbEntity
  8
AM_5
100
AcDbDimension
  2
*D49
 10
1775.887120308718
 20
749.2732093562006
 30
0.0
 11
1756.253844086286
 21
749.2732093562006
 31
0.0
 70
   160
  1
37
 71
     5
 42
37.0
  3
AM_ISO
100
AcDbAlignedDimension
 13
1738.887120308718
 23
712.3089346364792
 33
0.0
 14
1775.887120308718
 24
712.3089346364788
 34
0.0
100
AcDbRotatedDimension
1001
ACAD
1000
DSTYLE
1002
{
1070
    40
1040
2.0
1070
   279
1070
     0
1002
}
  0
DIMENSION
  5
13EA
330
2CF0
100
AcDbEntity
  8
AM_5
100
AcDbDimension
  2
*D48
 10
1749.787120332538
 20
739.2732093562005
 30
0.0
 11
1726.787120650138
 21
739.2732093562005
 31
0.0
 70
   160
  1
8
 71
     5
 42
7.99999968240013
  3
AM_ISO
100
AcDbAlignedDimension
 13
1741.787120650138
 23
722.2839342404718
 33
0.0
 14
1749.787120332538
 24
722.2839342404713
 34
0.0
100
AcDbRotatedDimension
1001
ACAD
1000
DSTYLE
1002
{
1070
    40
1040
2.0
1070
   173
1070
     1
1070
   174
1070
     1
1070
   272
1070
     8
1070
   279
1070
     0
1070
   344
1005
2D43
1002
}
  0
DIMENSION
  5
13ED
330
2CF0
100
AcDbEntity
  8
AM_5
100
AcDbDimension
  2
*D47
 10
1749.787120332538
 20
739.2732093562005
 30
0.0
 11
1757.7096454771
 21
739.2732093562005
 31
0.0
 70
   160
  1
14
 71
     5
 42
15.19999995236003
  3
AM_ISO
100
AcDbAlignedDimension
 13
1764.987120284898
 23
722.2839342404713
 33
0.0
 14
1749.787120332538
 24
722.2839342404713
 34
0.0
100
AcDbRotatedDimension
1001
ACAD
1000
DSTYLE
1002
{
1070
    40
1040
2.0
1070
   174
1070
     1
1070
   272
1070
     8
1070
   279
1070
     0
1070
   342
1005
2D41
1002
}
  0
DIMENSION
  5
13F0
330
2CF0
100
AcDbEntity
  8
AM_5
100
AcDbDimension
  2
*D46
 10
1764.987120284898
 20
739.2732093562005
 30
0.0
 11
1787.987119967298
 21
739.2732093562005
 31
0.0
 70
   160
  1
8
 71
     5
 42
7.999999682399902
  3
AM_ISO
100
AcDbAlignedDimension
 13
1772.987119967298
 23
722.2839342404713
 33
0.0
 14
1764.987120284898
 24
722.2839342404713
 34
0.0
100
AcDbRotatedDimension
1001
ACAD
1000
DSTYLE
1002
{
1070
    40
1040
2.0
1070
   173
1070
     1
1070
   174
1070
     1
1070
   272
1070
     8
1070
   279
1070
     0
1070
   344
1005
2D43
1002
}
  0
DIMENSION
  5
13F3
330
2CF0
100
AcDbEntity
  8
AM_5
100
AcDbDimension
  2
*D51
 10
1765.387119991119
 20
608.3192598404332
 30
0.0
 11
1757.387120308719
 21
608.3192598404332
 31
0.0
 70
   160
  1
16
 71
     5
 42
15.99999936480117
  3
AM_ISO$0
100
AcDbAlignedDimension
 13
1749.387120626318
 23
632.5705065940004
 33
0.0
 14
1765.387119991119
 24
632.5705065940004
 34
0.0
100
AcDbRotatedDimension
1001
ACAD
1000
DSTYLE
1002
{
1070
    40
1040
2.0
1070
    43
1040
10.0
1070
    79
1070
     0
1070
   141
1040
3.0
1070
   146
1040
0.71
1070
   147
1040
0.8
1070
   283
1070
     1
1070
   285
1070
     8
1070
   286
1070
     8
1070
   371
1070
    -2
1070
   372
1070
    -2
1002
}
  0
DIMENSION
  5
13F6
330
2CF0
100
AcDbEntity
  8
AM_5
100
AcDbDimension
  2
*D20
 10
1779.943980863925
 20
518.2885547364856
 30
0.0
 11
1747.701629213954
 21
523.7885547364856
 31
0.0
  1
<>
 71
     5
 42
-1.0
  3
AM_ISO
100
AcDbAlignedDimension
 13
1725.1375669861
 23
628.9119090325399
 33
0.0
 14
1789.637120308718
 24
629.0816455684321
 34
0.0
100
AcDbRotatedDimension
1001
ACAD
1000
DSTYLE
1002
{
1070
    40
1040
2.0
1070
   271
1070
     1
1002
}
  0
DIMENSION
  5
13F9
330
2CF0
100
AcDbEntity
  8
AM_5
100
AcDbDimension
  2
*D22
 10
1635.236898904383
 20
417.592709546127
 30
0.0
 11
1685.578619014679
 21
385.8444778554517
 31
0.0
 70
   131
  1
4-%%c9Thru
 71
     5
 42
13.99923363808136
  3
AM_ISO
100
AcDbDiametricDimension
 15
1644.701281945164
 25
407.2774782781927
 35
0.0
 40
0.0
1001
ACAD
1000
DSTYLE
1002
{
1070
    40
1040
2.0
1002
}
  0
INSERT
  5
13FC
330
2CF0
100
AcDbEntity
  8
0
100
AcDbBlockReference
  2
*U44
 10
0.0
 20
0.0
 30
0.0
  0
DIMENSION
  5
13FD
330
2CF0
100
AcDbEntity
  8
AM_5
100
AcDbDimension
  2
*D60
 10
1639.969090424773
 20
388.7934417735855
 30
0.0
 11
1594.971553730939
 21
393.8934417735855
 31
0.0
 70
    32
  1
90
 71
     5
 42
89.99507338766694
  3
AM_ISO$0
100
AcDbAlignedDimension
 13
1549.974017037106
 23
404.4355318332562
 33
0.0
 14
1639.969090424773
 24
404.4355318332562
 34
0.0
100
AcDbRotatedDimension
1001
ACAD
1000
DSTYLE
1002
{
1070
    40
1040
2.0
1070
    43
1040
10.0
1070
    79
1070
     0
1070
   141
1040
3.0
1070
   146
1040
0.71
1070
   147
1040
0.8
1070
   283
1070
     1
1070
   285
1070
     8
1070
   286
1070
     8
1070
   371
1070
    -2
1070
   372
1070
    -2
1002
}
  0
DIMENSION
  5
1400
330
2CF0
100
AcDbEntity
  8
AM_5
100
AcDbDimension
  2
*D61
 10
1650.968488283266
 20
372.7934417735869
 30
0.0
 11
1594.971553730939
 21
377.8941307499648
 31
0.0
 70
    32
  1
112
 71
     5
 42
111.9938691046529
  3
AM_ISO$0
100
AcDbAlignedDimension
 13
1538.974619178613
 23
407.9353402427766
 33
0.0
 14
1650.968488283266
 24
407.9353402427766
 34
0.0
100
AcDbRotatedDimension
1001
ACAD
1000
DSTYLE
1002
{
1070
    40
1040
2.0
1070
    43
1040
10.0
1070
    79
1070
     0
1070
   141
1040
3.0
1070
   146
1040
0.71
1070
   147
1040
0.8
1070
   283
1070
     1
1070
   285
1070
     8
1070
   286
1070
     8
1070
   371
1070
    -2
1070
   372
1070
    -2
1002
}
  0
DIMENSION
  5
1403
330
2CF0
100
AcDbEntity
  8
AM_5
100
AcDbDimension
  2
*D9
 10
1569.394298164534
 20
406.4945533307239
 30
0.0
 11
1639.067760394194
 21
487.3418674634961
 31
0.0
 70
   131
 71
     5
 42
-1.0
  3
AM_ISO
100
AcDbDiametricDimension
 15
1620.548809297346
 25
474.3725690459227
 35
0.0
 40
0.0
1001
ACAD
1000
DSTYLE
1002
{
1070
    40
1040
2.0
1070
   172
1070
     1
1002
}
  0
DIMENSION
  5
1404
330
2CF0
100
AcDbEntity
  8
AM_5
100
AcDbDimension
  2
*D28
 10
1618.921063850704
 20
516.9293724304646
 30
0.0
 11
1585.171063850707
 21
516.9293724304646
 31
0.0
 70
   128
  1
<>
 71
     5
 42
-1.0
  3
AM_ISO
100
AcDbAlignedDimension
 13
1561.229403818986
 23
629.0392112711201
 33
0.0
 14
1628.729403818987
 24
629.039211271199
 34
0.0
100
AcDbRotatedDimension
1001
ACAD
1000
DSTYLE
1002
{
1070
    40
1040
2.0
1002
}
  0
DIMENSION
  5
1407
330
2CF0
100
AcDbEntity
  8
AM_5
100
AcDbDimension
  2
*D11
 10
1621.979403818987
 20
639.0392112711992
 30
0.0
 11
1651.339715166316
 21
610.6616953289101
 31
0.0
 70
   132
  1
2-PT1/8
 71
     5
 42
-1.0
  3
AM_ISO
100
AcDbRadialDimension
 15
1623.815202474034
 25
634.5371410588024
 35
0.0
 40
0.0
1001
ACAD
1000
DSTYLE
1002
{
1070
    40
1040
2.0
1070
   141
1040
0.0
1002
}
  0
DIMENSION
  5
1408
330
2CF0
100
AcDbEntity
  8
AM_5
100
AcDbDimension
  2
*D54
 10
1693.029290611952
 20
534.0787781238539
 30
0.0
 11
1693.029290611952
 21
624.2979743386647
 31
0.0
 70
   160
  1
188
 71
     5
 42
187.6543202591781
  3
AM_ISO$0
100
AcDbAlignedDimension
 13
1594.979403818986
 23
721.733098383032
 33
0.0
 14
1628.465451297261
 24
534.0787781238539
 34
0.0
 50
90.0
100
AcDbRotatedDimension
1001
ACAD
1000
DSTYLE
1002
{
1070
    40
1040
2.0
1070
    43
1040
10.0
1070
    79
1070
     0
1070
   141
1040
3.0
1070
   146
1040
0.71
1070
   147
1040
0.8
1070
   283
1070
     1
1070
   285
1070
     8
1070
   286
1070
     8
1070
   371
1070
    -2
1070
   372
1070
    -2
1002
}
  0
DIMENSION
  5
140B
330
2CF0
100
AcDbEntity
  8
AM_5
100
AcDbDimension
  2
*D55
 10
1676.645742894165
 20
629.039211271199
 30
0.0
 11
1676.645742894165
 21
580.0658218863901
 31
0.0
 70
   160
  1
95
 71
     5
 42
94.96043314734516
  3
AM_ISO$0
100
AcDbAlignedDimension
 13
1628.465451297261
 23
534.0787781238539
 33
0.0
 14
1650.95608020058
 24
629.039211271199
 34
0.0
 50
90.0
100
AcDbRotatedDimension
1001
ACAD
1000
DSTYLE
1002
{
1070
    40
1040
2.0
1070
    43
1040
10.0
1070
    79
1070
     0
1070
   141
1040
3.0
1070
   146
1040
0.71
1070
   147
1040
0.8
1070
   283
1070
     1
1070
   285
1070
     8
1070
   286
1070
     8
1070
   371
1070
    -2
1070
   372
1070
    -2
1002
}
  0
DIMENSION
  5
140E
330
2CF0
100
AcDbEntity
  8
AM_5
100
AcDbDimension
  2
*D57
 10
1662.95608020058
 20
649.0308814074824
 30
0.0
 11
1657.855391224202
 21
639.0350463393409
 31
0.0
 70
    32
  1
20
 71
     5
 42
19.99167013628334
  3
AM_ISO$0
100
AcDbAlignedDimension
 13
1650.95608020058
 23
629.039211271199
 33
0.0
 14
1650.95608020058
 24
649.0308814074824
 34
0.0
 50
90.0
100
AcDbRotatedDimension
1001
ACAD
1000
DSTYLE
1002
{
1070
    40
1040
2.0
1070
    43
1040
10.0
1070
    79
1070
     0
1070
   141
1040
3.0
1070
   146
1040
0.71
1070
   147
1040
0.8
1070
   283
1070
     1
1070
   285
1070
     8
1070
   286
1070
     8
1070
   371
1070
    -2
1070
   372
1070
    -2
1002
}
  0
DIMENSION
  5
1411
330
2CF0
100
AcDbEntity
  8
AM_5
100
AcDbDimension
  2
*D56
 10
1662.95608020058
 20
654.028798941553
 30
0.0
 11
1662.95608020058
 21
673.573773688384
 31
0.0
 70
   160
  1
5
 71
     5
 42
4.997917534070552
  3
AM_ISO$0
100
AcDbAlignedDimension
 13
1650.95608020058
 23
649.0308814074824
 33
0.0
 14
1628.346550800519
 24
654.028798941553
 34
0.0
 50
90.0
100
AcDbRotatedDimension
1001
ACAD
1000
DSTYLE
1002
{
1070
    40
1040
2.0
1070
    43
1040
10.0
1070
    79
1070
     0
1070
   141
1040
3.0
1070
   146
1040
0.71
1070
   147
1040
0.8
1070
   283
1070
     1
1070
   285
1070
     8
1070
   286
1070
     8
1070
   371
1070
    -2
1070
   372
1070
    -2
1002
}
  0
DIMENSION
  5
1414
330
2CF0
100
AcDbEntity
  8
AM_5
100
AcDbDimension
  2
*D52
 10
1648.427114626686
 20
664.1314288088524
 30
0.0
 11
1648.427114626686
 21
688.5481181025145
 31
0.0
 70
   160
  1
45.5
 71
     5
 42
45.10166957417982
  3
AM_ISO$0
100
AcDbAlignedDimension
 13
1609.310731547975
 23
709.2330983830322
 33
0.0
 14
1628.842184398188
 24
664.1314288088524
 34
0.0
 50
90.0
100
AcDbRotatedDimension
1001
ACAD
1000
DSTYLE
1002
{
1070
    40
1040
2.0
1070
    43
1040
10.0
1070
    79
1070
     0
1070
   141
1040
3.0
1070
   146
1040
0.71
1070
   147
1040
0.8
1070
   283
1070
     1
1070
   285
1070
     8
1070
   286
1070
     8
1070
   371
1070
    -2
1070
   372
1070
    -2
1002
}
  0
DIMENSION
  5
1417
330
2CF0
100
AcDbEntity
  8
AM_5
100
AcDbDimension
  2
*D53
 10
1676.645742894165
 20
629.039211271199
 30
0.0
 11
1671.545742894165
 21
669.1361548271158
 31
0.0
 70
    32
  1
80.5
 71
     5
 42
80.19388711183319
  3
AM_ISO$0
100
AcDbAlignedDimension
 13
1609.310731547975
 23
709.2330983830322
 33
0.0
 14
1650.95608020058
 24
629.039211271199
 34
0.0
 50
90.0
100
AcDbRotatedDimension
1001
ACAD
1000
DSTYLE
1002
{
1070
    40
1040
2.0
1070
    43
1040
10.0
1070
    79
1070
     0
1070
   141
1040
3.0
1070
   146
1040
0.71
1070
   147
1040
0.8
1070
   283
1070
     1
1070
   285
1070
     8
1070
   286
1070
     8
1070
   371
1070
    -2
1070
   372
1070
    -2
1002
}
  0
DIMENSION
  5
1624
330
2CF0
100
AcDbEntity
  8
AM_5
100
AcDbDimension
  2
*D40
 10
1762.239682714298
 20
642.7900319784105
 30
0.0
 11
1812.315569686193
 21
604.0311738919633
 31
0.0
 70
   131
  1
2-Plugs
 71
     5
 42
-1.0
  3
AM_ISO
100
AcDbDiametricDimension
 15
1768.534557267938
 25
635.3732583644982
 35
0.0
 40
0.0
1001
ACAD
1000
DSTYLE
1002
{
1070
    41
1040
4.0
1070
    40
1040
2.0
1070
   141
1040
0.0
1070
   272
1070
     8
1002
}
  0
LINE
  5
16B3
330
2CF0
100
AcDbEntity
  8
0
  6
CENTER
 62
     7
100
AcDbLine
 10
1740.787120650138
 20
706.7839347367214
 30
0.0
 11
1738.887120308718
 21
706.7839347367214
 31
0.0
  0
LINE
  5
16B4
330
2CF0
100
AcDbEntity
  8
0
  6
CENTER
 62
     7
100
AcDbLine
 10
1740.787120650138
 20
712.7839347367214
 30
0.0
 11
1738.887120308718
 21
712.7839347367214
 31
0.0
  0
LINE
  5
16B5
330
2CF0
100
AcDbEntity
  8
0
  6
Continuous
 62
     7
100
AcDbLine
 10
1738.887120308718
 20
712.7839347367214
 30
0.0
 11
1738.887120308718
 21
706.7839347367214
 31
0.0
  0
LINE
  5
16B6
330
2CF0
100
AcDbEntity
  8
0
  6
Continuous
 62
     7
100
AcDbLine
 10
1740.787120650138
 20
713.4589347099238
 30
0.0
 11
1740.787120650138
 21
706.1089347635189
 31
0.0
  0
LINE
  5
16B7
330
2CF0
100
AcDbEntity
  8
0
  6
CENTER
 62
     7
100
AcDbLine
 10
1741.787120650138
 20
706.1089347635189
 30
0.0
 11
1740.787120650138
 21
706.1089347635189
 31
0.0
  0
LINE
  5
16B8
330
2CF0
100
AcDbEntity
  8
0
  6
CENTER
 62
     7
100
AcDbLine
 10
1741.787120650138
 20
713.4589347099238
 30
0.0
 11
1740.787120650138
 21
713.4589347099238
 31
0.0
  0
LINE
  5
16B9
330
2CF0
100
AcDbEntity
  8
0
  6
CENTER
 62
     7
100
AcDbLine
 10
1597.98384452786
 20
807.347850988094
 30
0.0
 11
1597.98384452786
 21
809.2478513295139
 31
0.0
  0
LINE
  5
16BA
330
2CF0
100
AcDbEntity
  8
0
  6
CENTER
 62
     7
100
AcDbLine
 10
1591.98384452786
 20
807.347850988094
 30
0.0
 11
1591.98384452786
 21
809.2478513295139
 31
0.0
  0
LINE
  5
16BB
330
2CF0
100
AcDbEntity
  8
0
  6
Continuous
 62
     7
100
AcDbLine
 10
1591.98384452786
 20
809.2478513295139
 30
0.0
 11
1597.98384452786
 21
809.2478513295139
 31
0.0
  0
LINE
  5
16BC
330
2CF0
100
AcDbEntity
  8
0
  6
Continuous
 62
     7
100
AcDbLine
 10
1591.308844554657
 20
807.347850988094
 30
0.0
 11
1598.658844501062
 21
807.347850988094
 31
0.0
  0
LINE
  5
16BD
330
2CF0
100
AcDbEntity
  8
0
  6
CENTER
 62
     7
100
AcDbLine
 10
1598.658844501062
 20
806.347850988094
 30
0.0
 11
1598.658844501062
 21
807.347850988094
 31
0.0
  0
LINE
  5
16BE
330
2CF0
100
AcDbEntity
  8
0
  6
CENTER
 62
     7
100
AcDbLine
 10
1591.308844554657
 20
806.347850988094
 30
0.0
 11
1591.308844554657
 21
807.347850988094
 31
0.0
  0
LINE
  5
16BF
330
2CF0
100
AcDbEntity
  8
0
  6
CENTER
 62
     7
100
AcDbLine
 10
1597.98384452786
 20
775.3478516232941
 30
0.0
 11
1597.98384452786
 21
773.4478512818739
 31
0.0
  0
LINE
  5
16C0
330
2CF0
100
AcDbEntity
  8
0
  6
CENTER
 62
     7
100
AcDbLine
 10
1591.98384452786
 20
775.3478516232941
 30
0.0
 11
1591.98384452786
 21
773.4478512818739
 31
0.0
  0
LINE
  5
16C1
330
2CF0
100
AcDbEntity
  8
0
  6
Continuous
 62
     7
100
AcDbLine
 10
1591.98384452786
 20
773.4478512818739
 30
0.0
 11
1597.98384452786
 21
773.4478512818739
 31
0.0
  0
LINE
  5
16C2
330
2CF0
100
AcDbEntity
  8
0
  6
Continuous
 62
     7
100
AcDbLine
 10
1591.308844554657
 20
775.3478516232941
 30
0.0
 11
1598.658844501062
 21
775.3478516232941
 31
0.0
  0
LINE
  5
16C3
330
2CF0
100
AcDbEntity
  8
0
  6
CENTER
 62
     7
100
AcDbLine
 10
1598.658844501062
 20
776.3478516232936
 30
0.0
 11
1598.658844501062
 21
775.3478516232941
 31
0.0
  0
LINE
  5
16C4
330
2CF0
100
AcDbEntity
  8
0
  6
CENTER
 62
     7
100
AcDbLine
 10
1591.308844554657
 20
776.3478516232936
 30
0.0
 11
1591.308844554657
 21
775.3478516232941
 31
0.0
  0
LINE
  5
16D1
330
2CF0
100
AcDbEntity
  8
0
  6
CENTER
 62
     7
100
AcDbLine
 10
1773.987119967298
 20
706.7839347367214
 30
0.0
 11
1775.887120308718
 21
706.7839347367214
 31
0.0
  0
LINE
  5
16D2
330
2CF0
100
AcDbEntity
  8
0
  6
CENTER
 62
     7
100
AcDbLine
 10
1773.987119967298
 20
712.7839347367214
 30
0.0
 11
1775.887120308718
 21
712.7839347367214
 31
0.0
  0
LINE
  5
16D3
330
2CF0
100
AcDbEntity
  8
0
  6
Continuous
 62
     7
100
AcDbLine
 10
1775.887120308718
 20
712.7839347367214
 30
0.0
 11
1775.887120308718
 21
706.7839347367214
 31
0.0
  0
LINE
  5
16D4
330
2CF0
100
AcDbEntity
  8
0
  6
Continuous
 62
     7
100
AcDbLine
 10
1773.987119967298
 20
713.4589347099238
 30
0.0
 11
1773.987119967298
 21
706.1089347635189
 31
0.0
  0
LINE
  5
16D5
330
2CF0
100
AcDbEntity
  8
0
  6
CENTER
 62
     7
100
AcDbLine
 10
1772.987119967298
 20
706.1089347635189
 30
0.0
 11
1773.987119967298
 21
706.1089347635189
 31
0.0
  0
LINE
  5
16D6
330
2CF0
100
AcDbEntity
  8
0
  6
CENTER
 62
     7
100
AcDbLine
 10
1772.987119967298
 20
713.4589347099238
 30
0.0
 11
1773.987119967298
 21
713.4589347099238
 31
0.0
  0
CIRCLE
  5
16D7
330
2CF0
100
AcDbEntity
  8
假想
100
AcDbCircle
 10
1594.979403818986
 20
679.2330983830322
 30
0.0
 40
12.5
  0
CIRCLE
  5
16D8
330
2CF0
100
AcDbEntity
  8
HIDDEN
  6
HIDDEN
100
AcDbCircle
 10
1594.979403818986
 20
679.2330983830322
 30
0.0
 40
3.049999999999998
  0
LINE
  5
16F8
330
2CF0
100
AcDbEntity
  8
CEN
100
AcDbLine
 10
1737.638207339321
 20
679.7839347367214
 30
0.0
 11
1777.004725978519
 21
679.7839347367214
 31
0.0
  0
LINE
  5
16F9
330
2CF0
100
AcDbEntity
  8
假想
100
AcDbLine
 10
1750.387120308718
 20
685.7839347367214
 30
0.0
 11
1764.387120308718
 21
685.7839347367214
 31
0.0
  0
LINE
  5
16FA
330
2CF0
100
AcDbEntity
  8
假想
100
AcDbLine
 10
1741.787120650138
 20
667.2839352329713
 30
0.0
 11
1741.787120650138
 21
692.2839342404716
 31
0.0
  0
LINE
  5
16FB
330
2CF0
100
AcDbEntity
  8
假想
100
AcDbLine
 10
1749.787120332538
 20
667.2839352329713
 30
0.0
 11
1749.787120332538
 21
692.2839342404714
 31
0.0
  0
LINE
  5
16FC
330
2CF0
100
AcDbEntity
  8
假想
100
AcDbLine
 10
1741.787120650138
 20
667.2839352329713
 30
0.0
 11
1749.787120332538
 21
667.2839352329713
 31
0.0
  0
LINE
  5
16FD
330
2CF0
100
AcDbEntity
  8
假想
100
AcDbLine
 10
1749.787120332538
 20
676.5839348637618
 30
0.0
 11
1750.387120308718
 21
676.5839348637618
 31
0.0
  0
LINE
  5
16FE
330
2CF0
100
AcDbEntity
  8
假想
100
AcDbLine
 10
1741.787120650138
 20
692.2839342404716
 30
0.0
 11
1749.787120332538
 21
692.2839342404714
 31
0.0
  0
LINE
  5
16FF
330
2CF0
100
AcDbEntity
  8
假想
100
AcDbLine
 10
1749.787120332538
 20
682.9839346096812
 30
0.0
 11
1750.387120308718
 21
682.9839346096812
 31
0.0
  0
LINE
  5
1700
330
2CF0
100
AcDbEntity
  8
假想
100
AcDbLine
 10
1764.387120308718
 20
685.7839347367212
 30
0.0
 11
1764.387120308718
 21
664.6822651625416
 31
0.0
  0
LINE
  5
1701
330
2CF0
100
AcDbEntity
  8
假想
100
AcDbLine
 10
1764.987120284898
 20
692.2839342404714
 30
0.0
 11
1764.987120284898
 21
667.2839352329713
 31
0.0
  0
LINE
  5
1702
330
2CF0
100
AcDbEntity
  8
假想
100
AcDbLine
 10
1772.987119967298
 20
692.2839342404714
 30
0.0
 11
1772.987119967298
 21
667.2839352329713
 31
0.0
  0
LINE
  5
1703
330
2CF0
100
AcDbEntity
  8
假想
100
AcDbLine
 10
1764.987120284898
 20
667.2839352329713
 30
0.0
 11
1772.987119967298
 21
667.2839352329713
 31
0.0
  0
LINE
  5
1704
330
2CF0
100
AcDbEntity
  8
假想
100
AcDbLine
 10
1764.987120284898
 20
692.2839342404714
 30
0.0
 11
1772.987119967298
 21
692.2839342404714
 31
0.0
  0
LINE
  5
1705
330
2CF0
100
AcDbEntity
  8
假想
100
AcDbLine
 10
1764.387120308718
 20
676.5839348637612
 30
0.0
 11
1764.987120284898
 21
676.5839348637612
 31
0.0
  0
LINE
  5
1706
330
2CF0
100
AcDbEntity
  8
假想
100
AcDbLine
 10
1764.387120308718
 20
682.9839346096812
 30
0.0
 11
1764.987120284898
 21
682.9839346096812
 31
0.0
  0
LINE
  5
1707
330
2CF0
100
AcDbEntity
  8
假想
100
AcDbLine
 10
1740.787120650138
 20
676.7839347367214
 30
0.0
 11
1738.887120308718
 21
676.7839347367214
 31
0.0
  0
LINE
  5
1708
330
2CF0
100
AcDbEntity
  8
假想
100
AcDbLine
 10
1740.787120650138
 20
682.7839347367214
 30
0.0
 11
1738.887120308718
 21
682.7839347367214
 31
0.0
  0
LINE
  5
1709
330
2CF0
100
AcDbEntity
  8
假想
100
AcDbLine
 10
1738.887120308718
 20
682.7839347367214
 30
0.0
 11
1738.887120308718
 21
676.7839347367214
 31
0.0
  0
LINE
  5
170A
330
2CF0
100
AcDbEntity
  8
假想
100
AcDbLine
 10
1740.787120650138
 20
683.4589347099238
 30
0.0
 11
1740.787120650138
 21
676.108934763519
 31
0.0
  0
LINE
  5
170B
330
2CF0
100
AcDbEntity
  8
假想
100
AcDbLine
 10
1741.787120650138
 20
676.108934763519
 30
0.0
 11
1740.787120650138
 21
676.108934763519
 31
0.0
  0
LINE
  5
170C
330
2CF0
100
AcDbEntity
  8
假想
100
AcDbLine
 10
1741.787120650138
 20
683.4589347099238
 30
0.0
 11
1740.787120650138
 21
683.4589347099238
 31
0.0
  0
LINE
  5
170D
330
2CF0
100
AcDbEntity
  8
假想
100
AcDbLine
 10
1773.987119967298
 20
676.7839347367214
 30
0.0
 11
1775.887120308718
 21
676.7839347367214
 31
0.0
  0
LINE
  5
170E
330
2CF0
100
AcDbEntity
  8
假想
100
AcDbLine
 10
1773.987119967298
 20
682.7839347367214
 30
0.0
 11
1775.887120308718
 21
682.7839347367214
 31
0.0
  0
LINE
  5
170F
330
2CF0
100
AcDbEntity
  8
假想
100
AcDbLine
 10
1775.887120308718
 20
682.7839347367214
 30
0.0
 11
1775.887120308718
 21
676.7839347367214
 31
0.0
  0
LINE
  5
1710
330
2CF0
100
AcDbEntity
  8
假想
100
AcDbLine
 10
1773.987119967298
 20
683.4589347099238
 30
0.0
 11
1773.987119967298
 21
676.108934763519
 31
0.0
  0
LINE
  5
1711
330
2CF0
100
AcDbEntity
  8
假想
100
AcDbLine
 10
1772.987119967298
 20
676.108934763519
 30
0.0
 11
1773.987119967298
 21
676.108934763519
 31
0.0
  0
LINE
  5
1712
330
2CF0
100
AcDbEntity
  8
假想
100
AcDbLine
 10
1772.987119967298
 20
683.4589347099238
 30
0.0
 11
1773.987119967298
 21
683.4589347099238
 31
0.0
  0
DIMENSION
  5
1DEE
330
2CF0
100
AcDbEntity
  8
AM_5
100
AcDbDimension
  2
*D42
 10
1727.928330952973
 20
679.7839347367214
 30
0.0
 11
1722.428330952973
 21
694.7839347367216
 31
0.0
  1
ST=<>
 71
     5
 42
-1.0
  3
AM_ISO
100
AcDbAlignedDimension
 13
1737.638207339321
 23
709.7839347367214
 33
0.0
 14
1737.638207339321
 24
679.7839347367214
 34
0.0
 50
90.0
100
AcDbRotatedDimension
1001
ACAD
1000
DSTYLE
1002
{
1070
    40
1040
2.0
1002
}
  0
LINE
  5
2566
330
2CF0
100
AcDbEntity
  8
CEN
100
AcDbLine
 10
1593.623882556411
 20
632.7918143536106
 30
0.0
 11
1598.35973767449
 21
632.7918143536106
 31
0.0
  0
LWPOLYLINE
  5
2F28
330
2CF0
100
AcDbEntity
  8
LOGO
 62
     4
100
AcDbPolyline
 90
        4
 70
     1
 43
0.0
 10
1477.993992001766
 20
354.8685311784406
 10
1857.651795642632
 20
354.8685311784406
 10
1857.651795642632
 20
858.8239650094159
 10
1477.993992001766
 20
858.8239650094159
1001
GENIUS_GENREC_14
1002
{
1000
PYDIR
1011
1477.993992001766
1021
858.8239650094159
1031
0.0
1002
}
1002
{
1000
PXDIR
1011
1857.651795642632
1021
354.8685311784406
1031
0.0
1002
}
1002
{
1000
PORI
1011
1477.993992001766
1021
354.8685311784406
1031
0.0
1002
}
1002
{
1000
PINS
1011
1477.993992001766
1021
354.8685311784406
1031
0.0
1002
}
1002
{
1000
PINS2
1011
1857.651795642632
1021
858.8239650094159
1031
0.0
1002
}
1002
{
1000
C
1070
     1
1002
}
1001
GENIUS_GENODEF_13
1002
{
1000
HIER
1070
     0
1002
}
1002
{
1000
MANEDIT
1070
     0
1002
}
1002
{
1000
NOSEL
1070
     0
1002
}
1002
{
1000
BEHIND
1070
     0
1002
}
1002
{
1000
OTHER
1070
     0
1002
}
1002
{
1000
REACTOR
1002
}
1001
GENIUS_GENOBJ-N-REC_13
1002
{
1000
OWNER
1000
GEN
1002
}
  0
LWPOLYLINE
  5
2F29
330
2CF0
100
AcDbEntity
  8
LOGO
 62
     4
100
AcDbPolyline
 90
        4
 70
     1
 43
0.0
 10
1477.993992001766
 20
354.8685311784406
 10
1857.651795642632
 20
354.8685311784406
 10
1857.651795642632
 20
313.9244605902045
 10
1477.993992001766
 20
313.9244605902045
1001
GENIUS_GENREC_14
1002
{
1000
PYDIR
1011
1477.993992001766
1021
313.9244605902045
1031
0.0
1002
}
1002
{
1000
PXDIR
1011
1857.651795642632
1021
354.8685311784406
1031
0.0
1002
}
1002
{
1000
PORI
1011
1477.993992001766
1021
354.8685311784406
1031
0.0
1002
}
1002
{
1000
PINS
1011
1477.993992001766
1021
354.8685311784406
1031
0.0
1002
}
1002
{
1000
PINS2
1011
1857.651795642632
1021
313.9244605902045
1031
0.0
1002
}
1002
{
1000
C
1070
     1
1002
}
1001
GENIUS_GENOBJ-N-REC_13
1002
{
1000
OWNER
1000
GEN
1002
}
1001
GENIUS_GENODEF_13
1002
{
1000
HIER
1070
     0
1002
}
1002
{
1000
MANEDIT
1070
     0
1002
}
1002
{
1000
NOSEL
1070
     0
1002
}
1002
{
1000
BEHIND
1070
     0
1002
}
1002
{
1000
OTHER
1070
     0
1002
}
1002
{
1000
REACTOR
1002
}
  0
TEXT
  5
2F2A
330
2CF0
100
AcDbEntity
  8
LOGO
 62
     7
100
AcDbText
 10
1570.442992301869
 20
336.9316305766305
 30
0.0
 40
5.459209411764706
  1
Order example:
 41
0.8
  7
CHINESET
100
AcDbText
  0
TEXT
  5
2F2B
330
2CF0
100
AcDbEntity
  8
LOGO
 62
     7
100
AcDbText
 10
1571.422419616165
 20
344.6170670846634
 30
0.0
 40
8.188814117647057
  1
訂購代號：
  7
CHINESET
100
AcDbText
  0
LINE
  5
2F2C
330
2CF0
100
AcDbEntity
  8
LOGO
 62
     4
100
AcDbLine
 10
1568.070947295884
 20
313.924460590205
 30
0.0
 11
1568.070947295884
 21
354.8685311784406
 31
0.0
  0
TEXT
  5
2F2D
330
2CF0
100
AcDbEntity
  8
LOGO
  6
Continuous
100
AcDbText
 10
1492.701286204219
 20
321.9678614672739
 30
0.0
 40
6.141610588235293
  1
金器工業股份有限公司
  7
CHINESET
100
AcDbText
  0
TEXT
  5
2F2E
330
2CF0
100
AcDbEntity
  8
LOGO
  6
Continuous
100
AcDbText
 10
1481.420362611365
 20
315.8250476048843
 30
0.0
 40
4.094407058823528
  1
MINDMAN INDUSTRIAL CO., LTD.
 41
0.85
  7
CHINESET
100
AcDbText
  0
LINE
  5
2F2F
330
2CF0
100
AcDbEntity
  8
LOGO
 62
     4
100
AcDbLine
 10
1568.070947295884
 20
346.6797170607935
 30
0.0
 11
1508.019643766471
 21
346.6797170607935
 31
0.0
  0
LINE
  5
2F30
330
2CF0
100
AcDbEntity
  8
LOGO
 62
     4
100
AcDbLine
 10
1568.070947295884
 20
338.4909029431463
 30
0.0
 11
1508.019643766471
 21
338.4909029431463
 31
0.0
  0
LINE
  5
2F31
330
2CF0
100
AcDbEntity
  8
LOGO
 62
     4
100
AcDbLine
 10
1568.070947295884
 20
330.3020888254997
 30
0.0
 11
1477.993992001766
 21
330.3020888254997
 31
0.0
  0
LINE
  5
2F32
330
2CF0
100
AcDbEntity
  8
LOGO
 62
     4
100
AcDbLine
 10
1508.019643766471
 20
330.3020888254997
 30
0.0
 11
1508.019643766471
 21
354.8685311784406
 31
0.0
  0
TEXT
  5
2F33
330
2CF0
100
AcDbEntity
  8
LOGO
100
AcDbText
 10
1549.061875350471
 20
332.3492923549107
 30
0.0
 40
4.094407058823528
  1
mm
  7
CHINESET
 72
     1
 11
1554.131141232824
 21
334.3964958843224
 31
0.0
100
AcDbText
 73
     2
  0
TEXT
  5
2F34
330
2CF0
100
AcDbEntity
  8
LOGO
100
AcDbText
 10
1546.917185938706
 20
348.726920590205
 30
0.0
 40
4.094407058823528
  1
1 : 1
  7
CHINESET
 72
     1
 11
1554.131141232824
 21
350.7741241196168
 31
0.0
100
AcDbText
 73
     2
  0
LINE
  5
2F35
330
2CF0
100
AcDbEntity
  8
LOGO
 62
     4
100
AcDbLine
 10
1540.77490023706
 20
330.3020888254997
 30
0.0
 11
1540.77490023706
 21
354.8685311784406
 31
0.0
  0
CIRCLE
  5
2F36
330
2CF0
100
AcDbEntity
  8
LOGO
  6
Continuous
100
AcDbCircle
 10
1548.356207026811
 20
342.594067968631
 30
0.0
 40
2.377309109831493
  0
CIRCLE
  5
2F37
330
2CF0
100
AcDbEntity
  8
LOGO
  6
Continuous
100
AcDbCircle
 10
1548.356207026811
 20
342.594067968631
 30
0.0
 40
1.39289268709281
  0
LINE
  5
2F38
330
2CF0
100
AcDbEntity
  8
LOGO
100
AcDbLine
 10
1563.295493324276
 20
340.2167588587989
 30
0.0
 11
1563.295493324276
 21
344.971377078463
 31
0.0
  0
LINE
  5
2F39
330
2CF0
100
AcDbEntity
  8
LOGO
100
AcDbLine
 10
1555.842765729009
 20
341.2011752815383
 30
0.0
 11
1555.842765729009
 21
343.9869606557239
 31
0.0
  0
LINE
  5
2F3A
330
2CF0
100
AcDbEntity
  8
LOGO
  6
Continuous
100
AcDbLine
 10
1555.842765729009
 20
343.9869606557239
 30
0.0
 11
1563.295493324276
 21
344.971377078463
 31
0.0
  0
LINE
  5
2F3B
330
2CF0
100
AcDbEntity
  8
LOGO
  6
Continuous
100
AcDbLine
 10
1555.842765729009
 20
341.2011752815383
 30
0.0
 11
1563.295493324276
 21
340.2167588587989
 31
0.0
  0
TEXT
  5
2F3C
330
2CF0
100
AcDbEntity
  8
LOGO
100
AcDbText
 10
1511.395701729707
 20
348.7289355543087
 30
268.3406934937019
 40
4.094407058823528
  1
比例 Scale:
 41
0.9
  7
CHINESET
 72
     4
 11
1524.397272001766
 21
350.7741241196168
 31
268.3406934937019
100
AcDbText
  0
TEXT
  5
2F3D
330
2CF0
100
AcDbEntity
  8
LOGO
100
AcDbText
 10
1511.159907751766
 20
340.5957008631901
 30
268.3406934937019
 40
4.094407058823528
  1
投影  View:
 41
0.9
  7
CHINESET
 72
     4
 11
1524.397272001766
 21
342.5853100019697
 31
268.3406934937019
100
AcDbText
  0
TEXT
  5
2F3E
330
2CF0
100
AcDbEntity
  8
LOGO
100
AcDbText
 10
1511.560209156178
 20
332.3492923549107
 30
268.3406934937019
 40
4.094407058823528
  1
單位  Unit:
 41
0.9
  7
CHINESET
 72
     4
 11
1524.397272001766
 21
334.3964958843224
 31
268.3406934937019
100
AcDbText
  0
SOLID
  5
2F3F
330
2CF0
100
AcDbEntity
  8
LOGO
 62
     5
100
AcDbTrace
 10
1482.24200503553
 20
337.1084577678411
 30
0.0
 11
1484.012319210524
 21
337.1084577678405
 31
0.0
 12
1491.398802492396
 22
353.8959197720954
 32
0.0
 13
1493.169116667391
 23
353.8959197720946
 33
0.0
  0
SOLID
  5
2F40
330
2CF0
100
AcDbEntity
  8
LOGO
 62
     5
100
AcDbTrace
 10
1484.744863007075
 20
337.1084577678411
 30
0.0
 11
1486.51517718207
 21
337.1084577678411
 31
0.0
 12
1493.169116667391
 22
352.5529228117544
 32
0.0
 13
1491.398802492396
 23
346.061770836776
 33
0.0
  0
SOLID
  5
2F41
330
2CF0
100
AcDbEntity
  8
LOGO
 62
     2
100
AcDbTrace
 10
1484.012319210524
 20
337.1084577678405
 30
0.0
 11
1484.744863007075
 21
337.1084577678411
 31
0.0
 12
1493.169116667391
 22
353.8959197720946
 32
0.0
 13
1493.901660463941
 23
353.8959197720946
 33
0.0
  0
SOLID
  5
2F42
330
2CF0
100
AcDbEntity
  8
LOGO
 62
     5
100
AcDbTrace
 10
1479.403757278801
 20
331.0039261299309
 30
0.0
 11
1480.014210442593
 21
331.0039261299309
 31
0.0
 12
1481.733294065705
 22
334.0561919488856
 32
0.0
 13
1482.343747229495
 23
334.0561919488856
 33
0.0
  0
SOLID
  5
2F43
330
2CF0
100
AcDbEntity
  8
LOGO
 62
     5
100
AcDbTrace
 10
1481.733294065705
 20
334.0561919488856
 30
0.0
 11
1482.343747229495
 21
334.0561919488856
 31
0.0
 12
1481.733294065705
 22
331.0039261299309
 32
0.0
 13
1482.343747229495
 23
331.0039261299309
 33
0.0
  0
SOLID
  5
2F44
330
2CF0
100
AcDbEntity
  8
LOGO
 62
     5
100
AcDbTrace
 10
1481.733294065705
 20
331.0039261299309
 30
0.0
 11
1482.343747229495
 21
331.0039261299309
 31
0.0
 12
1484.06283085261
 22
334.0561919488856
 32
0.0
 13
1484.673284016401
 23
334.0561919488856
 33
0.0
  0
SOLID
  5
2F45
330
2CF0
100
AcDbEntity
  8
LOGO
 62
     5
100
AcDbTrace
 10
1484.06283085261
 20
334.0561919488856
 30
0.0
 11
1484.673284016401
 21
334.0561919488856
 31
0.0
 12
1484.06283085261
 22
331.0039261299309
 32
0.0
 13
1484.673284016401
 23
331.0039261299309
 33
0.0
  0
POLYLINE
  5
2F46
330
2CF0
100
AcDbEntity
  8
LOGO
 62
     5
100
AcDb2dPolyline
 66
     1
 10
0.0
 20
0.0
 30
0.0
 40
0.611431454117647
 41
0.611431454117647
  0
VERTEX
  5
2F47
330
2F46
100
AcDbEntity
  8
LOGO
 62
     5
100
AcDbVertex
100
AcDb2dVertex
 10
1504.525012949395
 20
332.8352856213036
 30
0.0
 42
1.0
  0
VERTEX
  5
2F48
330
2F46
100
AcDbEntity
  8
LOGO
 62
     5
100
AcDbVertex
100
AcDb2dVertex
 10
1502.690718587042
 20
332.8352856213036
 30
0.0
 42
1.0
  0
SEQEND
  5
2F49
330
2F46
100
AcDbEntity
  8
LOGO
 62
     5
  0
POLYLINE
  5
2F4A
330
2CF0
100
AcDbEntity
  8
LOGO
 62
     5
100
AcDb2dPolyline
 66
     1
 10
0.0
 20
0.0
 30
0.0
 70
     1
  0
VERTEX
  5
2F4B
330
2F4A
100
AcDbEntity
  8
LOGO
 62
     5
100
AcDbVertex
100
AcDb2dVertex
 10
1499.232992124592
 20
332.5300590394078
 30
0.0
 42
1.000000057330635
  0
VERTEX
  5
2F4C
330
2F4A
100
AcDbEntity
  8
LOGO
 62
     5
100
AcDbVertex
100
AcDb2dVertex
 10
1501.064351615966
 20
332.5300590394078
 30
0.0
 42
1.000000057330635
  0
SEQEND
  5
2F4D
330
2F4A
100
AcDbEntity
  8
LOGO
 62
     5
  0
CIRCLE
  5
2F4E
330
2CF0
100
AcDbEntity
  8
LOGO
 62
     5
100
AcDbCircle
 10
1500.148671870281
 20
332.5300590394078
 30
0.0
 40
0.9156797456865881
  0
POLYLINE
  5
2F4F
330
2CF0
100
AcDbEntity
  8
LOGO
 62
     5
100
AcDb2dPolyline
 66
     1
 10
0.0
 20
0.0
 30
0.0
 70
     1
 40
0.611431454117647
 41
0.611431454117647
  0
VERTEX
  5
2F50
330
2F4F
100
AcDbEntity
  8
LOGO
 62
     5
100
AcDbVertex
100
AcDb2dVertex
 10
1498.925808962044
 20
332.5300590394078
 30
0.0
 42
1.0
  0
VERTEX
  5
2F51
330
2F4F
100
AcDbEntity
  8
LOGO
 62
     5
100
AcDbVertex
100
AcDb2dVertex
 10
1501.371534778515
 20
332.5300590394078
 30
0.0
 42
1.0
  0
SEQEND
  5
2F52
330
2F4F
100
AcDbEntity
  8
LOGO
 62
     5
  0
LINE
  5
2F53
330
2CF0
100
AcDbEntity
  8
LOGO
100
AcDbLine
 10
1504.8287720958
 20
331.0039261299309
 30
0.0
 11
1504.8287720958
 21
332.8352856213036
 31
0.0
  0
SOLID
  5
2F54
330
2CF0
100
AcDbEntity
  8
LOGO
 62
     5
100
AcDbTrace
 10
1501.064290570652
 20
334.0561919488856
 30
0.0
 11
1501.674743734442
 21
334.0561919488856
 31
0.0
 12
1501.064290570652
 22
331.0039261299309
 32
0.0
 13
1501.674743734442
 23
331.0039261299309
 33
0.0
  0
SOLID
  5
2F55
330
2CF0
100
AcDbEntity
  8
LOGO
 62
     5
100
AcDbTrace
 10
1502.386959440636
 20
331.0039261299309
 30
0.0
 11
1502.997412604427
 21
331.0039261299309
 31
0.0
 12
1502.386959440636
 22
334.0561919488856
 32
0.0
 13
1502.997412604427
 23
334.0561919488856
 33
0.0
  0
SOLID
  5
2F56
330
2CF0
100
AcDbEntity
  8
LOGO
 62
     5
100
AcDbTrace
 10
1504.21831893201
 20
332.8352856213036
 30
0.0
 11
1504.8287720958
 21
332.8352856213036
 31
0.0
 12
1504.21831893201
 22
331.0039261299309
 32
0.0
 13
1504.8287720958
 23
331.0039261299309
 33
0.0
  0
SOLID
  5
2F57
330
2CF0
100
AcDbEntity
  8
LOGO
 62
     5
100
AcDbTrace
 10
1502.325914124257
 20
352.5529228117544
 30
0.0
 11
1500.555599949264
 21
346.061770836776
 31
0.0
 12
1502.325914124257
 22
337.1084577678405
 32
0.0
 13
1500.555599949264
 23
337.1084577678405
 33
0.0
  0
SOLID
  5
2F58
330
2CF0
100
AcDbEntity
  8
LOGO
 62
     5
100
AcDbTrace
 10
1503.058457920807
 20
337.1084577678405
 30
0.0
 11
1504.8287720958
 21
337.1084577678405
 31
0.0
 12
1503.058457920807
 22
353.8959197720946
 32
0.0
 13
1504.8287720958
 23
353.8959197720954
 33
0.0
  0
SOLID
  5
2F59
330
2CF0
100
AcDbEntity
  8
LOGO
 62
     2
100
AcDbTrace
 10
1502.325914124257
 20
353.8959197720954
 30
0.0
 11
1503.058457920807
 21
353.8959197720946
 31
0.0
 12
1502.325914124257
 22
337.1084577678405
 32
0.0
 13
1503.058457920807
 23
337.1084577678405
 33
0.0
  0
POLYLINE
  5
2F5A
330
2CF0
100
AcDbEntity
  8
LOGO
 62
     5
100
AcDb2dPolyline
 66
     1
 10
0.0
 20
0.0
 30
0.0
 40
0.611431454117647
 41
0.611431454117647
  0
VERTEX
  5
2F5B
330
2F5A
100
AcDbEntity
  8
LOGO
 62
     5
100
AcDbVertex
100
AcDb2dVertex
 10
1495.775143571513
 20
332.8352856213036
 30
0.0
 42
1.0
  0
VERTEX
  5
2F5C
330
2F5A
100
AcDbEntity
  8
LOGO
 62
     5
100
AcDbVertex
100
AcDb2dVertex
 10
1493.940849209159
 20
332.8352856213036
 30
0.0
 42
1.0
  0
SEQEND
  5
2F5D
330
2F5A
100
AcDbEntity
  8
LOGO
 62
     5
  0
POLYLINE
  5
2F5E
330
2CF0
100
AcDbEntity
  8
LOGO
 62
     5
100
AcDb2dPolyline
 66
     1
 10
0.0
 20
0.0
 30
0.0
 40
0.611431454117647
 41
0.611431454117647
  0
VERTEX
  5
2F5F
330
2F5E
100
AcDbEntity
  8
LOGO
 62
     5
100
AcDbVertex
100
AcDb2dVertex
 10
1497.606503062884
 20
332.8352856213036
 30
0.0
 42
1.0
  0
VERTEX
  5
2F60
330
2F5E
100
AcDbEntity
  8
LOGO
 62
     5
100
AcDbVertex
100
AcDb2dVertex
 10
1495.772208700532
 20
332.8352856213036
 30
0.0
 42
1.0
  0
SEQEND
  5
2F61
330
2F5E
100
AcDbEntity
  8
LOGO
 62
     5
  0
POLYLINE
  5
2F62
330
2CF0
100
AcDbEntity
  8
LOGO
 62
     5
100
AcDb2dPolyline
 66
     1
 10
0.0
 20
0.0
 30
0.0
 40
0.611431454117647
 41
0.611431454117647
  0
VERTEX
  5
2F63
330
2F62
100
AcDbEntity
  8
LOGO
 62
     5
100
AcDbVertex
100
AcDb2dVertex
 10
1488.856633685001
 20
332.8352856213036
 30
0.0
 42
1.0
  0
VERTEX
  5
2F64
330
2F62
100
AcDbEntity
  8
LOGO
 62
     5
100
AcDbVertex
100
AcDb2dVertex
 10
1487.022339322649
 20
332.8352856213036
 30
0.0
 42
1.0
  0
SEQEND
  5
2F65
330
2F62
100
AcDbEntity
  8
LOGO
 62
     5
  0
SOLID
  5
2F66
330
2CF0
100
AcDbEntity
  8
LOGO
 62
     5
100
AcDbTrace
 10
1486.718580176244
 20
334.0561919488856
 30
0.0
 11
1487.329033340033
 21
334.0561919488856
 31
0.0
 12
1486.718580176244
 22
331.0039261299309
 32
0.0
 13
1487.329033340033
 23
331.0039261299309
 33
0.0
  0
SOLID
  5
2F67
330
2CF0
100
AcDbEntity
  8
LOGO
 62
     5
100
AcDbTrace
 10
1488.549939667617
 20
332.8352856213036
 30
0.0
 11
1489.160392831409
 21
332.8352856213036
 31
0.0
 12
1488.549939667617
 22
331.0039261299309
 32
0.0
 13
1489.160392831409
 23
331.0039261299309
 33
0.0
  0
POLYLINE
  5
2F68
330
2CF0
100
AcDbEntity
  8
LOGO
 62
     5
100
AcDb2dPolyline
 66
     1
 10
0.0
 20
0.0
 30
0.0
 70
     1
 40
0.611431454117647
 41
0.611431454117647
  0
VERTEX
  5
2F69
330
2F68
100
AcDbEntity
  8
LOGO
 62
     5
100
AcDbVertex
100
AcDb2dVertex
 10
1490.17593958416
 20
332.5300590394078
 30
0.0
 42
1.0
  0
VERTEX
  5
2F6A
330
2F68
100
AcDbEntity
  8
LOGO
 62
     5
100
AcDbVertex
100
AcDb2dVertex
 10
1492.621665400632
 20
332.5300590394078
 30
0.0
 42
1.0
  0
SEQEND
  5
2F6B
330
2F68
100
AcDbEntity
  8
LOGO
 62
     5
  0
SOLID
  5
2F6C
330
2CF0
100
AcDbEntity
  8
LOGO
 62
     5
100
AcDbTrace
 10
1492.314421192768
 20
334.9718716945728
 30
0.0
 11
1492.924874356558
 21
334.9718716945728
 31
0.0
 12
1492.314421192768
 22
331.0039261299309
 32
0.0
 13
1492.924874356558
 23
331.0039261299309
 33
0.0
  0
SOLID
  5
2F6D
330
2CF0
100
AcDbEntity
  8
LOGO
 62
     5
100
AcDbTrace
 10
1493.637090062755
 20
334.0561919488856
 30
0.0
 11
1494.247543226545
 21
334.0561919488856
 31
0.0
 12
1493.637090062755
 22
331.0039261299309
 32
0.0
 13
1494.247543226545
 23
331.0039261299309
 33
0.0
  0
SOLID
  5
2F6E
330
2CF0
100
AcDbEntity
  8
LOGO
 62
     5
100
AcDbTrace
 10
1495.468449554126
 20
332.8352856213036
 30
0.0
 11
1496.078902717918
 21
332.8352856213036
 31
0.0
 12
1495.468449554126
 22
331.0039261299309
 32
0.0
 13
1496.078902717918
 23
331.0039261299309
 33
0.0
  0
SOLID
  5
2F6F
330
2CF0
100
AcDbEntity
  8
LOGO
 62
     5
100
AcDbTrace
 10
1497.2998090455
 20
332.8352856213036
 30
0.0
 11
1497.91026220929
 21
332.8352856213036
 31
0.0
 12
1497.2998090455
 22
331.0039261299298
 32
0.0
 13
1497.91026220929
 23
331.0039261299298
 33
0.0
  0
SOLID
  5
2F70
330
2CF0
100
AcDbEntity
  8
LOGO
 62
     5
100
AcDbTrace
 10
1485.395911306257
 20
334.4835091635395
 30
0.0
 11
1486.00636447005
 21
334.4835091635395
 31
0.0
 12
1485.395911306257
 22
334.9718716945728
 32
0.0
 13
1486.00636447005
 23
334.9718716945728
 33
0.0
  0
SOLID
  5
2F71
330
2CF0
100
AcDbEntity
  8
LOGO
 62
     5
100
AcDbTrace
 10
1485.395911306257
 20
334.0561919488856
 30
0.0
 11
1486.00636447005
 21
334.0561919488856
 31
0.0
 12
1485.395911306257
 22
331.0039261299298
 32
0.0
 13
1486.00636447005
 23
331.0039261299309
 33
0.0
  0
SOLID
  5
2F72
330
2CF0
100
AcDbEntity
  8
LOGO
 62
     5
100
AcDbTrace
 10
1491.398802492396
 20
337.1084577678411
 30
0.0
 11
1493.169116667391
 21
337.1084577678411
 31
0.0
 12
1491.398802492396
 22
346.061770836776
 32
0.0
 13
1493.169116667391
 23
352.5529228117544
 33
0.0
  0
SOLID
  5
2F73
330
2CF0
100
AcDbEntity
  8
LOGO
 62
     5
100
AcDbTrace
 10
1493.901660463941
 20
353.8959197720946
 30
0.0
 11
1495.671974638934
 21
353.8959197720954
 31
0.0
 12
1493.901660463941
 22
338.451454728181
 32
0.0
 13
1495.671974638934
 23
344.9426067031594
 33
0.0
  0
SOLID
  5
2F74
330
2CF0
100
AcDbEntity
  8
LOGO
 62
     2
100
AcDbTrace
 10
1493.169116667391
 20
353.8959197720946
 30
0.0
 11
1493.901660463941
 21
353.8959197720946
 31
0.0
 12
1493.169116667391
 22
337.1084577678411
 32
0.0
 13
1493.901660463941
 23
337.1084577678411
 33
0.0
  0
SOLID
  5
2F75
330
2CF0
100
AcDbEntity
  8
LOGO
 62
     5
100
AcDbTrace
 10
1493.901660463941
 20
338.451454728181
 30
0.0
 11
1495.671974638934
 21
344.9426067031594
 31
0.0
 12
1502.325914124257
 22
353.8959197720954
 32
0.0
 13
1500.555599949264
 23
353.8959197720954
 33
0.0
  0
SOLID
  5
2F76
330
2CF0
100
AcDbEntity
  8
LOGO
 62
     5
100
AcDbTrace
 10
1493.901660463941
 20
337.1084577678411
 30
0.0
 11
1495.671974638934
 21
337.1084577678411
 31
0.0
 12
1502.325914124257
 22
352.5529228117544
 32
0.0
 13
1500.555599949264
 23
346.061770836776
 33
0.0
  0
SOLID
  5
2F77
330
2CF0
100
AcDbEntity
  8
LOGO
 62
     2
100
AcDbTrace
 10
1493.169116667391
 20
337.1084577678411
 30
0.0
 11
1493.901660463941
 21
337.1084577678411
 31
0.0
 12
1502.325914124257
 22
353.8959197720954
 32
0.0
 13
1503.058457920807
 23
353.8959197720946
 33
0.0
  0
LINE
  5
2F78
330
2CF0
100
AcDbEntity
  8
LOGO
 62
     4
100
AcDbLine
 10
1651.683746258722
 20
332.3492923549115
 30
0.0
 11
1651.683746258722
 21
317.3364664725578
 31
0.0
  0
LINE
  5
2F79
330
2CF0
100
AcDbEntity
  8
LOGO
 62
     4
100
AcDbLine
 10
1624.387699199899
 20
332.3492923549115
 30
0.0
 11
1624.387699199899
 21
317.3364664725578
 31
0.0
  0
LINE
  5
2F7A
330
2CF0
100
AcDbEntity
  8
LOGO
 62
     4
100
AcDbLine
 10
1651.683746258722
 20
317.3364664725578
 30
0.0
 11
1624.387699199899
 21
317.3364664725578
 31
0.0
  0
LINE
  5
2F7B
330
2CF0
100
AcDbEntity
  8
LOGO
 62
     4
100
AcDbLine
 10
1656.579582387601
 20
350.7741241196168
 30
0.0
 11
1624.387699199899
 21
350.7741241196168
 31
0.0
  0
LINE
  5
2F7C
330
2CF0
100
AcDbEntity
  8
LOGO
 62
     4
100
AcDbLine
 10
1656.579582387601
 20
338.4909029431463
 30
0.0
 11
1624.387699199899
 21
338.4909029431463
 31
0.0
  0
LINE
  5
2F7D
330
2CF0
100
AcDbEntity
  8
LOGO
 62
     4
100
AcDbLine
 10
1624.387699199899
 20
350.7741241196168
 30
0.0
 11
1624.387699199899
 21
338.4909029431463
 31
0.0
  0
LINE
  5
2F7E
330
2CF0
100
AcDbEntity
  8
LOGO
 62
     4
100
AcDbLine
 10
1656.579582387601
 20
350.7741241196168
 30
0.0
 11
1656.579582387601
 21
338.4909029431463
 31
0.0
  0
LINE
  5
2F7F
330
2CF0
100
AcDbEntity
  8
LOGO
 62
     4
100
AcDbLine
 10
1639.459890793749
 20
338.4909029431463
 30
0.0
 11
1639.459890793749
 21
332.3492923549115
 31
0.0
  0
TEXT
  5
2F80
330
2CF0
100
AcDbEntity
  8
LOGO
  6
Continuous
 62
     7
100
AcDbText
 10
1626.570235230465
 20
341.055007405667
 30
0.0
 40
7.166249999999999
  1
MSBR
  7
CHINESET
100
AcDbText
  0
LINE
  5
2F81
330
2CF0
100
AcDbEntity
  8
LOGO
 62
     4
100
AcDbLine
 10
1651.683746258722
 20
332.3492923549115
 30
0.0
 11
1624.387699199899
 21
332.3492923549115
 31
0.0
  0
TEXT
  5
2F82
330
2CF0
100
AcDbEntity
  8
LOGO
  6
Continuous
100
AcDbText
 10
1633.146914283106
 20
319.4554950104152
 30
268.3406934937019
 40
3.07125
  1
Model
 41
0.8
  7
CHINESET
100
AcDbText
  0
TEXT
  5
2F83
330
2CF0
100
AcDbEntity
  8
LOGO
100
AcDbText
 10
1632.329447373302
 20
325.148930608799
 30
268.3406934937019
 40
5.11875
  1
型號
  7
CHINESET
100
AcDbText
  0
LINE
  5
2F84
330
2CF0
100
AcDbEntity
  8
LOGO
  6
Continuous
 62
     7
100
AcDbLine
 10
1657.885390318085
 20
344.5890044207668
 30
0.0
 11
1663.309212594788
 21
344.5890044207668
 31
0.0
  0
LINE
  5
2F85
330
2CF0
100
AcDbEntity
  8
LOGO
 62
     4
100
AcDbLine
 10
1684.330199164446
 20
332.3492923549115
 30
0.0
 11
1684.330199164446
 21
317.3364664725578
 31
0.0
  0
LINE
  5
2F86
330
2CF0
100
AcDbEntity
  8
LOGO
 62
     4
100
AcDbLine
 10
1657.034152105622
 20
332.3492923549115
 30
0.0
 11
1657.034152105622
 21
317.3364664725578
 31
0.0
  0
LINE
  5
2F87
330
2CF0
100
AcDbEntity
  8
LOGO
 62
     4
100
AcDbLine
 10
1684.330199164446
 20
317.3364664725578
 30
0.0
 11
1657.034152105622
 21
317.3364664725578
 31
0.0
  0
LINE
  5
2F88
330
2CF0
100
AcDbEntity
  8
LOGO
 62
     4
100
AcDbLine
 10
1687.015179602704
 20
350.7741241196168
 30
0.0
 11
1666.026268193439
 21
350.7741241196168
 31
0.0
  0
LINE
  5
2F89
330
2CF0
100
AcDbEntity
  8
LOGO
 62
     4
100
AcDbLine
 10
1687.015179602704
 20
338.4909029431463
 30
0.0
 11
1666.026268193439
 21
338.4909029431463
 31
0.0
  0
LINE
  5
2F8A
330
2CF0
100
AcDbEntity
  8
LOGO
 62
     4
100
AcDbLine
 10
1666.026268193439
 20
350.7741241196168
 30
0.0
 11
1666.026268193439
 21
338.4909029431463
 31
0.0
  0
LINE
  5
2F8B
330
2CF0
100
AcDbEntity
  8
LOGO
 62
     4
100
AcDbLine
 10
1687.015179602704
 20
350.7741241196168
 30
0.0
 11
1687.015179602704
 21
338.4909029431463
 31
0.0
  0
LINE
  5
2F8C
330
2CF0
100
AcDbEntity
  8
LOGO
 62
     4
100
AcDbLine
 10
1676.520723898072
 20
338.4909029431463
 30
0.0
 11
1676.520723898072
 21
332.3492923549115
 31
0.0
  0
TEXT
  5
2F8D
330
2CF0
100
AcDbEntity
  8
LOGO
  6
Continuous
 62
     7
100
AcDbText
 10
1670.056316622731
 20
341.055007405667
 30
0.0
 40
7.166249999999999
  1
50
  7
CHINESET
100
AcDbText
  0
LINE
  5
2F8E
330
2CF0
100
AcDbEntity
  8
LOGO
 62
     4
100
AcDbLine
 10
1684.330199164446
 20
332.3492923549115
 30
0.0
 11
1657.034152105622
 21
332.3492923549115
 31
0.0
  0
LINE
  5
2F8F
330
2CF0
100
AcDbEntity
  8
LOGO
  6
Continuous
 62
     7
100
AcDbLine
 10
1688.762394556289
 20
344.5890044207668
 30
0.0
 11
1694.186216832993
 21
344.5890044207668
 31
0.0
  0
LINE
  5
2F90
330
2CF0
100
AcDbEntity
  8
LOGO
 62
     4
100
AcDbLine
 10
1714.607170429593
 20
332.3492923549115
 30
0.0
 11
1714.607170429593
 21
317.3364664725578
 31
0.0
  0
LINE
  5
2F91
330
2CF0
100
AcDbEntity
  8
LOGO
 62
     4
100
AcDbLine
 10
1692.370188533875
 20
332.3492923549115
 30
0.0
 11
1692.370188533875
 21
317.3364664725578
 31
0.0
  0
LINE
  5
2F92
330
2CF0
100
AcDbEntity
  8
LOGO
 62
     4
100
AcDbLine
 10
1714.607170429593
 20
317.3364664725578
 30
0.0
 11
1692.370188533875
 21
317.3364664725578
 31
0.0
  0
LINE
  5
2F93
330
2CF0
100
AcDbEntity
  8
LOGO
 62
     4
100
AcDbLine
 10
1714.727948668502
 20
350.7741241196168
 30
0.0
 11
1695.897146854558
 21
350.7741241196168
 31
0.0
  0
LINE
  5
2F94
330
2CF0
100
AcDbEntity
  8
LOGO
 62
     4
100
AcDbLine
 10
1714.727948668502
 20
338.4909029431463
 30
0.0
 11
1695.897146854558
 21
338.4909029431463
 31
0.0
  0
LINE
  5
2F95
330
2CF0
100
AcDbEntity
  8
LOGO
 62
     4
100
AcDbLine
 10
1695.897146854558
 20
350.7741241196168
 30
0.0
 11
1695.897146854558
 21
338.4909029431463
 31
0.0
  0
LINE
  5
2F96
330
2CF0
100
AcDbEntity
  8
LOGO
 62
     4
100
AcDbLine
 10
1714.727948668502
 20
350.7741241196168
 30
0.0
 11
1714.727948668502
 21
338.4909029431463
 31
0.0
  0
LINE
  5
2F97
330
2CF0
100
AcDbEntity
  8
LOGO
 62
     4
100
AcDbLine
 10
1703.488679481733
 20
338.4909029431463
 30
0.0
 11
1703.488679481733
 21
332.3492923549115
 31
0.0
  0
TEXT
  5
2F98
330
2CF0
100
AcDbEntity
  8
LOGO
  6
Continuous
 62
     7
100
AcDbText
 10
1700.302025714379
 20
341.055007405667
 30
0.0
 40
7.166249999999999
  1
30
  7
CHINESET
100
AcDbText
  0
LINE
  5
2F99
330
2CF0
100
AcDbEntity
  8
LOGO
 62
     4
100
AcDbLine
 10
1714.607170429593
 20
332.3492923549115
 30
0.0
 11
1692.370188533875
 21
332.3492923549115
 31
0.0
  0
TEXT
  5
2F9A
330
2CF0
100
AcDbEntity
  8
LOGO
  6
Continuous
100
AcDbText
 10
1662.751558345333
 20
319.4554950104152
 30
268.3406934937019
 40
3.07125
  1
Tube I.D.
 41
0.8
  7
CHINESET
100
AcDbText
  0
TEXT
  5
2F9B
330
2CF0
100
AcDbEntity
  8
LOGO
100
AcDbText
 10
1663.989919434931
 20
325.148930608799
 30
268.3406934937019
 40
5.11875
  1
內徑
  7
CHINESET
100
AcDbText
  0
TEXT
  5
2F9C
330
2CF0
100
AcDbEntity
  8
LOGO
  6
Continuous
100
AcDbText
 10
1698.230762529184
 20
319.4554950104152
 30
268.3406934937019
 40
3.07125
  1
Stroke
 41
0.8
  7
CHINESET
100
AcDbText
  0
TEXT
  5
2F9D
330
2CF0
100
AcDbEntity
  8
LOGO
100
AcDbText
 10
1698.01781215023
 20
325.148930608799
 30
268.3406934937019
 40
5.11875
  1
行程
  7
CHINESET
100
AcDbText
  0
TEXT
  5
2F9E
330
2CF0
100
AcDbEntity
  8
LOGO
100
AcDbText
 10
1570.241028918943
 20
316.1026689851341
 30
0.0
 40
4.094999999999998
  1
21107192
 41
0.7
  7
CHINESET
 72
     1
 11
1579.932528918943
 21
316.1026689851341
 31
0.0
100
AcDbText
  0
LINE
  5
2F9F
330
2CF0
100
AcDbEntity
  8
LOGO
 62
     4
100
AcDbLine
 10
1592.640947295882
 20
322.1132747078531
 30
0.0
 11
1592.640947295883
 21
313.9244605902054
 31
0.0
  0
LINE
  5
2FA0
330
2CF0
100
AcDbEntity
  8
LOGO
 62
     4
100
AcDbLine
 10
1592.640947295882
 20
322.1132747078531
 30
0.0
 11
1568.070947295884
 21
322.1132747078531
 31
0.0
  0
LINE
  5
2FA1
330
2CF0
100
AcDbEntity
  8
LOGO
  6
AM_ISO08W050X2
 48
0.3
100
AcDbLine
 10
1545.079050821507
 20
342.594067968631
 30
0.0
 11
1551.633363232114
 21
342.594067968631
 31
0.0
1001
GENIUS_GENOREF_13
1005
2FA6
  0
LINE
  5
2FA2
330
2CF0
100
AcDbEntity
  8
LOGO
  6
AM_ISO08W050X2
 48
0.3
100
AcDbLine
 10
1548.356207026811
 20
339.3169117633274
 30
0.0
 11
1548.356207026811
 21
345.8712241739344
 31
0.0
1001
GENIUS_GENOREF_13
1005
2FA5
  0
LINE
  5
2FA3
330
2CF0
100
AcDbEntity
  8
LOGO
  6
CENTER
 48
0.5
100
AcDbLine
 10
1555.246754668982
 20
342.594067968631
 30
0.0
 11
1564.045958867396
 21
342.594067968631
 31
0.0
1001
GENIUS_GENOREF_13
1005
2FA4
  0
POINT
  5
2FA4
330
2CF0
100
AcDbEntity
  8
0
 60
     1
100
AcDbPoint
 10
190.5252989287928
 20
-170.6620350727123
 30
0.0
1001
GENIUS_GENOBJ-N-CRS_13
1002
{
1000
OWNER
1000
GEN
1002
}
1001
GENIUS_GENOLIS_13
1002
{
1000
ENT
1005
0
1005
0
1005
0
1005
2FA3
1002
}
1001
GENIUS_GENOENT_13
1002
{
1000
MYREF
1005
2FA4
1002
}
1002
{
1000
GRP
1005
0
1002
}
1001
GENIUS_GENODEF_13
1002
{
1000
HIER
1070
    10
1002
}
1002
{
1000
MANEDIT
1070
     1
1002
}
1002
{
1000
NOSEL
1070
     0
1002
}
1002
{
1000
BEHIND
1070
     0
1002
}
1002
{
1000
OTHER
1070
     0
1002
}
1002
{
1000
REACTOR
1002
}
  0
POINT
  5
2FA5
330
2CF0
100
AcDbEntity
  8
0
 60
     1
100
AcDbPoint
 10
179.2007137059379
 20
-161.786448594076
 30
0.0
1001
GENIUS_GENOBJ-N-CRS_13
1002
{
1000
OWNER
1000
GEN
1002
}
1001
GENIUS_GENOLIS_13
1002
{
1000
ENT
1005
0
1005
0
1005
0
1005
2FA2
1002
}
1001
GENIUS_GENOENT_13
1002
{
1000
MYREF
1005
2FA5
1002
}
1002
{
1000
GRP
1005
0
1002
}
1001
GENIUS_GENODEF_13
1002
{
1000
HIER
1070
    10
1002
}
1002
{
1000
MANEDIT
1070
     1
1002
}
1002
{
1000
NOSEL
1070
     0
1002
}
1002
{
1000
BEHIND
1070
     0
1002
}
1002
{
1000
OTHER
1070
     0
1002
}
1002
{
1000
REACTOR
1002
}
  0
POINT
  5
2FA6
330
2CF0
100
AcDbEntity
  8
0
 60
     1
100
AcDbPoint
 10
185.5593874037749
 20
-170.6620350727123
 30
0.0
1001
GENIUS_GENOBJ-N-CRS_13
1002
{
1000
OWNER
1000
GEN
1002
}
1001
GENIUS_GENOLIS_13
1002
{
1000
ENT
1005
0
1005
0
1005
0
1005
2FA1
1002
}
1001
GENIUS_GENOENT_13
1002
{
1000
MYREF
1005
2FA6
1002
}
1002
{
1000
GRP
1005
0
1002
}
1001
GENIUS_GENODEF_13
1002
{
1000
HIER
1070
    10
1002
}
1002
{
1000
MANEDIT
1070
     1
1002
}
1002
{
1000
NOSEL
1070
     0
1002
}
1002
{
1000
BEHIND
1070
     0
1002
}
1002
{
1000
OTHER
1070
     0
1002
}
1002
{
1000
REACTOR
1002
}
  0
ENDSEC
  0
SECTION
  2
OBJECTS
  0
DICTIONARY
  5
2CDA
330
0
100
AcDbDictionary
281
     1
  3
ACAD_COLOR
350
2CE9
  3
ACAD_GROUP
350
2CDB
  3
ACAD_LAYOUT
350
2CE7
  3
ACAD_MATERIAL
350
2CE8
  3
ACAD_MLINESTYLE
350
2CE4
  3
ACAD_PLOTSETTINGS
350
2CE6
  3
ACAD_PLOTSTYLENAME
350
2CDC
  3
ACAD_TABLESTYLE
350
2CEA
  3
ACDBHEADERROUNDTRIPXREC
350
339B
  3
AcDbVariableDictionary
350
30C8
  3
AcmDictionary
350
2E43
  3
AMG
350
2DF3
  3
AMGSNAPSETTINGS
350
2E6B
  3
DWGPROPS
350
339A
  3
MAPISURF_MODULE
350
3156
  0
DICTIONARY
  5
2E8A
330
2CD0
100
AcDbDictionary
280
     1
281
     1
  3
ACAD_LAYERSTATES
360
2E8B
  0
DICTIONARY
  5
338D
330
2CF0
100
AcDbDictionary
280
     1
281
     1
  3
ACAD_INDEX
360
338E
  0
DICTIONARY
  5
2CE9
102
{ACAD_REACTORS
330
2CDA
102
}
330
2CDA
100
AcDbDictionary
281
     1
  0
DICTIONARY
  5
2CDB
102
{ACAD_REACTORS
330
2CDA
102
}
330
2CDA
100
AcDbDictionary
281
     1
  0
DICTIONARY
  5
2CE7
102
{ACAD_REACTORS
330
2CDA
102
}
330
2CDA
100
AcDbDictionary
281
     1
  3
Model
350
2CF3
  3
配置1
350
2CEF
  0
DICTIONARY
  5
2CE8
102
{ACAD_REACTORS
330
2CDA
102
}
330
2CDA
100
AcDbDictionary
281
     1
  0
DICTIONARY
  5
2CE4
102
{ACAD_REACTORS
330
2CDA
102
}
330
2CDA
100
AcDbDictionary
281
     1
  3
Standard
350
2CE5
  0
DICTIONARY
  5
2CE6
102
{ACAD_REACTORS
330
2CDA
102
}
330
2CDA
100
AcDbDictionary
281
     1
  0
ACDBDICTIONARYWDFLT
  5
2CDC
102
{ACAD_REACTORS
330
2CDA
102
}
330
2CDA
100
AcDbDictionary
281
     1
  3
Normal
350
2CDD
100
AcDbDictionaryWithDefault
340
2CDD
  0
DICTIONARY
  5
2CEA
102
{ACAD_REACTORS
330
2CDA
102
}
330
2CDA
100
AcDbDictionary
281
     1
  3
Standard
350
2CEB
  0
DICTIONARY
  5
339B
102
{ACAD_REACTORS
330
2CDA
102
}
330
2CDA
100
AcDbDictionary
281
     1
  0
DICTIONARY
  5
30C8
102
{ACAD_REACTORS
330
2CDA
102
}
330
2CDA
100
AcDbDictionary
281
     1
  3
CTABLESTYLE
350
30C9
  3
DIMASSOC
350
30CA
  3
INDEXCTL
350
3398
  3
PROJECTNAME
350
30CB
  0
DICTIONARY
  5
2E43
102
{ACAD_REACTORS
330
2CDA
102
}
330
2CDA
100
AcDbDictionary
281
     1
  3
AcmStdDictionary
350
2E4E
  3
AMDTSECTSYM_ARROWCOLOR
350
2E60
  0
DICTIONARY
  5
2DF3
102
{ACAD_REACTORS
330
2CDA
102
}
330
2CDA
100
AcDbDictionary
281
     1
  3
AcMgSettings
350
30D5
  0
DICTIONARY
  5
2E6B
102
{ACAD_REACTORS
330
2CDA
102
}
330
2CDA
100
AcDbDictionary
281
     1
  0
XRECORD
  5
339A
102
{ACAD_REACTORS
330
2CDA
102
}
330
2CDA
100
AcDbXrecord
280
     1
  1
DWGPROPS COOKIE
  2

  3

  4

  6

  7

  8

  9

300
AmdtFileType=84
301
=
302
=
303
=
304
=
305
=
306
=
307
=
308
=
309
=
 40
0.4355564699074075
 41
2453021.369367211
 42
2455763.650977917
  1

 90
        1
  0
DICTIONARY
  5
2E8B
102
{ACAD_REACTORS
330
2E8A
102
}
330
2E8A
100
AcDbDictionary
281
     1
  0
DICTIONARY
  5
338E
102
{ACAD_REACTORS
330
338D
102
}
330
338D
100
AcDbDictionary
281
     1
  3
*A1
350
338F
  0
LAYOUT
  5
2CF3
102
{ACAD_XDICTIONARY
360
339E
102
}
102
{ACAD_REACTORS
330
2CE7
102
}
330
2CE7
100
AcDbPlotSettings
  1

  2
自動 QC-306 上的 Microsoft Office Document Image Writer
  4

  6

 40
0.0
 41
0.0
 42
0.0
 43
0.0
 44
0.0
 45
0.0
 46
0.0
 47
0.0
 48
0.0
 49
0.0
140
0.0
141
0.0
142
1.0
143
1.0
 70
  1712
 72
     0
 73
     0
 74
     0
  7

 75
     0
147
1.0
148
0.0
149
0.0
100
AcDbLayout
  1
Model
 70
     1
 71
     0
 10
0.0
 20
0.0
 11
12.0
 21
9.0
 12
0.0
 22
0.0
 32
0.0
 14
0.0
 24
0.0
 34
0.0
 15
0.0
 25
0.0
 35
0.0
146
0.0
 13
0.0
 23
0.0
 33
0.0
 16
1.0
 26
0.0
 36
0.0
 17
0.0
 27
1.0
 37
0.0
 76
     0
330
2CF0
  0
LAYOUT
  5
2CEF
102
{ACAD_XDICTIONARY
360
339C
102
}
102
{ACAD_REACTORS
330
2CE7
102
}
330
2CE7
100
AcDbPlotSettings
  1

  2
自動 QC-306 上的 Microsoft Office Document Image Writer
  4

  6

 40
0.0
 41
0.0
 42
0.0
 43
0.0
 44
0.0
 45
0.0
 46
0.0
 47
0.0
 48
0.0
 49
0.0
140
0.0
141
0.0
142
1.0
143
1.0
 70
   688
 72
     0
 73
     0
 74
     5
  7

 75
    16
147
1.0
148
0.0
149
0.0
100
AcDbLayout
  1
配置1
 70
     1
 71
     1
 10
0.0
 20
0.0
 11
420.0
 21
297.0
 12
0.0
 22
0.0
 32
0.0
 14
1.000000000000000E+20
 24
1.000000000000000E+20
 34
1.000000000000000E+20
 15
-1.000000000000000E+20
 25
-1.000000000000000E+20
 35
-1.000000000000000E+20
146
0.0
 13
0.0
 23
0.0
 33
0.0
 16
1.0
 26
0.0
 36
0.0
 17
0.0
 27
1.0
 37
0.0
 76
     0
330
2CEC
  0
MLINESTYLE
  5
2CE5
102
{ACAD_REACTORS
330
2CE4
102
}
330
2CE4
100
AcDbMlineStyle
  2
STANDARD
 70
     0
  3

 62
   256
 51
90.0
 52
90.0
 71
     2
 49
0.5
 62
   256
  6
BYLAYER
 49
-0.5
 62
   256
  6
BYLAYER
  0
ACDBPLACEHOLDER
  5
2CDD
102
{ACAD_REACTORS
330
2CDC
102
}
330
2CDC
  0
TABLESTYLE
  5
2CEB
102
{ACAD_REACTORS
330
2CEA
102
}
330
2CEA
100
AcDbTableStyle
  3
Standard
 70
     0
 71
     0
 40
0.06
 41
0.06
280
     0
281
     0
  7
STANDARD
140
0.18
170
     2
 62
     0
 63
     7
283
     0
274
    -2
284
     1
 64
     0
275
    -2
285
     1
 65
     0
276
    -2
286
     1
 66
     0
277
    -2
287
     1
 67
     0
278
    -2
288
     1
 68
     0
279
    -2
289
     1
 69
     0
  7
STANDARD
140
0.25
170
     5
 62
     0
 63
     7
283
     0
274
    -2
284
     1
 64
     0
275
    -2
285
     1
 65
     0
276
    -2
286
     1
 66
     0
277
    -2
287
     1
 67
     0
278
    -2
288
     1
 68
     0
279
    -2
289
     1
 69
     0
  7
STANDARD
140
0.18
170
     5
 62
     0
 63
     7
283
     0
274
    -2
284
     1
 64
     0
275
    -2
285
     1
 65
     0
276
    -2
286
     1
 66
     0
277
    -2
287
     1
 67
     0
278
    -2
288
     1
 68
     0
279
    -2
289
     1
 69
     0
  0
DICTIONARYVAR
  5
30C9
102
{ACAD_REACTORS
330
30C8
102
}
330
30C8
100
DictionaryVariables
280
     0
  1
STANDARD
  0
DICTIONARYVAR
  5
30CA
102
{ACAD_REACTORS
330
30C8
102
}
330
30C8
100
DictionaryVariables
280
     0
  1
1
  0
DICTIONARYVAR
  5
3398
102
{ACAD_REACTORS
330
30C8
102
}
330
30C8
100
DictionaryVariables
280
     0
  1
1
  0
DICTIONARYVAR
  5
30CB
102
{ACAD_REACTORS
330
30C8
102
}
330
30C8
100
DictionaryVariables
280
     0
  1

  0
DICTIONARY
  5
2E4E
102
{ACAD_REACTORS
330
2E43
102
}
330
2E43
100
AcDbDictionary
281
     1
  0
XRECORD
  5
2E60
102
{ACAD_REACTORS
330
2E43
102
}
330
2E43
100
AcDbXrecord
280
     1
 90
-1023410169
  0
DICTIONARY
  5
30D5
102
{ACAD_REACTORS
330
2DF3
102
}
330
2DF3
100
AcDbDictionary
281
     1
  3
DWGSETTINGS
350
30D6
  3
TRANSSETTINGS
350
30D7
  0
LAYER_INDEX
  5
338F
102
{ACAD_REACTORS
330
338E
102
}
330
338E
100
AcDbIndex
 40
2455763.650977917
100
AcDbLayerIndex
  8
0
360
3390
 90
      465
  8
DEFPOINTS
360
3391
 90
        0
  8
CEN
360
3392
 90
       74
  8
AM_5
360
3393
 90
       23
  8
HIDDEN
360
3394
 90
       17
  8
假想
360
3395
 90
       27
  8
LOGO
360
3396
 90
      103
  0
DICTIONARY
  5
339E
330
2CF3
100
AcDbDictionary
280
     1
281
     1
  3
ACAD_XREC_ROUNDTRIP
360
339F
  0
DICTIONARY
  5
339C
330
2CEF
100
AcDbDictionary
280
     1
281
     1
  3
ACAD_XREC_ROUNDTRIP
360
339D
  0
IDBUFFER
  5
3390
330
0
100
AcDbIdBuffer
330
12E6
330
12E7
330
12E8
330
12E9
330
12EA
330
12EB
330
12EC
330
12ED
330
12EE
330
12EF
330
12F1
330
12F2
330
12F4
330
12F5
330
12F6
330
12F8
330
12F9
330
12FC
330
12FD
330
12FE
330
12FF
330
1300
330
1301
330
1302
330
1303
330
1304
330
1305
330
1306
330
1307
330
1308
330
1309
330
130A
330
130B
330
130C
330
130D
330
130E
330
130F
330
1310
330
1311
330
1312
330
1313
330
1314
330
1315
330
1316
330
1317
330
131A
330
131B
330
131C
330
131D
330
131E
330
131F
330
1320
330
1321
330
1322
330
1323
330
1324
330
1325
330
1326
330
1327
330
1328
330
132A
330
132B
330
132C
330
132D
330
132E
330
132F
330
1330
330
1331
330
1332
330
1333
330
1334
330
1335
330
1336
330
1337
330
1338
330
1339
330
133A
330
133B
330
133D
330
133E
330
133F
330
1340
330
1341
330
1342
330
1343
330
1345
330
1346
330
1347
330
1349
330
134A
330
134B
330
134C
330
134D
330
134E
330
134F
330
1350
330
1351
330
1352
330
1353
330
1354
330
1355
330
1356
330
1357
330
1358
330
1359
330
135A
330
135B
330
135E
330
135F
330
1360
330
1361
330
1362
330
1364
330
1365
330
1366
330
1367
330
1369
330
136A
330
136C
330
136D
330
136E
330
136F
330
1370
330
1371
330
1372
330
1373
330
1374
330
1376
330
1377
330
1378
330
1379
330
137A
330
137B
330
137C
330
137D
330
137F
330
1380
330
1381
330
1382
330
1383
330
1384
330
1385
330
1386
330
1387
330
1388
330
1389
330
138A
330
138B
330
138C
330
138D
330
138F
330
1390
330
1391
330
1392
330
1394
330
1395
330
1396
330
1397
330
1398
330
1399
330
139A
330
139B
330
139C
330
139D
330
13A2
330
13A6
330
13A7
330
13A8
330
13A9
330
13AA
330
13AB
330
13AD
330
13AE
330
13AF
330
13B0
330
13B1
330
13B2
330
13B6
330
13B7
330
13B9
330
13BA
330
13BB
330
13BC
330
13BD
330
13BF
330
13C0
330
13C5
330
13C6
330
13C7
330
13C8
330
13C9
330
13CA
330
13CC
330
13CD
330
13D0
330
13D4
330
13D7
330
13FC
330
16B3
330
16B4
330
16B5
330
16B6
330
16B7
330
16B8
330
16B9
330
16BA
330
16BB
330
16BC
330
16BD
330
16BE
330
16BF
330
16C0
330
16C1
330
16C2
330
16C3
330
16C4
330
16D1
330
16D2
330
16D3
330
16D4
330
16D5
330
16D6
330
2FA4
330
2FA5
330
2FA6
330
11D8
330
11D9
330
11DA
330
11DB
330
11DD
330
11DE
330
11DF
330
11E0
330
11E1
330
11E2
330
11E3
330
11E5
330
11E6
330
11E7
330
11E8
330
11E9
330
11ED
330
11EE
330
11EF
330
11F0
330
11F1
330
11F3
330
11F5
330
11F6
330
11F8
330
11F9
330
11FB
330
11FC
330
11FD
330
11FE
330
11FF
330
1200
330
1202
330
1203
330
1204
330
1205
330
1206
330
1207
330
1208
330
1209
330
120B
330
120C
330
120E
330
120F
330
1210
330
1211
330
1212
330
1213
330
1215
330
1216
330
1217
330
1218
330
1219
330
121A
330
121B
330
121C
330
121D
330
121E
330
121F
330
1220
330
1221
330
1222
330
1223
330
1224
330
1225
330
1226
330
1227
330
1228
330
1229
330
122A
330
122B
330
122C
330
122D
330
122E
330
122F
330
1230
330
1231
330
1232
330
1233
330
1234
330
1236
330
1237
330
1238
330
1239
330
123A
330
123B
330
123C
330
123E
330
123F
330
1240
330
1241
330
1242
330
1243
330
1244
330
1245
330
1246
330
1248
330
1249
330
124A
330
124B
330
124C
330
124D
330
124E
330
124F
330
1250
330
1251
330
1252
330
1253
330
1254
330
1255
330
1257
330
1258
330
1259
330
125A
330
125B
330
125C
330
125D
330
125E
330
125F
330
1260
330
1261
330
1262
330
1263
330
1264
330
1265
330
1266
330
1267
330
1268
330
1269
330
126A
330
126B
330
126C
330
126D
330
126E
330
126F
330
1270
330
1271
330
1272
330
1273
330
1274
330
1276
330
1277
330
1278
330
127A
330
127B
330
127C
330
127D
330
127E
330
127F
330
1280
330
1281
330
1282
330
1283
330
1284
330
1285
330
1286
330
1287
330
1288
330
1289
330
128B
330
128C
330
128D
330
128E
330
128F
330
1290
330
1291
330
1292
330
1293
330
1294
330
1295
330
1296
330
1297
330
1298
330
1299
330
129A
330
129C
330
129D
330
129E
330
129F
330
12A0
330
12A1
330
12A2
330
12A3
330
12A4
330
12A5
330
12A6
330
12A7
330
12A9
330
12AB
330
12AC
330
12AD
330
12AE
330
12AF
330
12B1
330
12B3
330
12B4
330
12B5
330
12B6
330
12B7
330
12B9
330
12BA
330
12BB
330
12BC
330
12BD
330
12BE
330
12BF
330
12C0
330
12C1
330
12C2
330
12C4
330
12C5
330
12C6
330
12C7
330
12C8
330
12C9
330
12CB
330
12CC
330
12CD
330
12CE
330
12CF
330
12D0
330
12D2
330
12D3
330
12D5
330
12D6
330
12D7
330
12D8
330
12D9
330
12DA
330
12DB
330
12DC
330
12DD
330
12DE
330
12DF
330
12E0
330
12E1
330
12E2
330
12E3
330
12E4
330
12E5
  0
IDBUFFER
  5
3391
330
0
100
AcDbIdBuffer
  0
IDBUFFER
  5
3392
330
0
100
AcDbIdBuffer
330
137E
330
138E
330
1393
330
13A0
330
13A5
330
13AC
330
13B8
330
13BE
330
13C1
330
13C2
330
13CB
330
13CE
330
13CF
330
13D6
330
13DC
330
13DD
330
13DE
330
13DF
330
13E0
330
13E1
330
13E2
330
13E3
330
13E4
330
13E5
330
16F8
330
2566
330
11D7
330
11DC
330
11E4
330
11EA
330
11EB
330
11EC
330
11F2
330
11F4
330
11F7
330
11FA
330
1201
330
120A
330
120D
330
1214
330
1235
330
123D
330
1247
330
1256
330
1275
330
1279
330
128A
330
129B
330
12A8
330
12AA
330
12B0
330
12B2
330
12B8
330
12C3
330
12CA
330
12D1
330
12D4
330
12F0
330
12F3
330
12F7
330
12FA
330
12FB
330
1318
330
1319
330
1329
330
133C
330
1344
330
1348
330
135C
330
135D
330
1363
330
1368
330
136B
330
1375
  0
IDBUFFER
  5
3393
330
0
100
AcDbIdBuffer
330
140B
330
140E
330
1411
330
1414
330
1417
330
1624
330
1DEE
330
13DA
330
13DB
330
13E6
330
13E9
330
13EA
330
13ED
330
13F0
330
13F3
330
13F6
330
13F9
330
13FD
330
1400
330
1403
330
1404
330
1407
330
1408
  0
IDBUFFER
  5
3394
330
0
100
AcDbIdBuffer
330
16D8
330
139E
330
139F
330
13A1
330
13A3
330
13A4
330
13B3
330
13B4
330
13B5
330
13C3
330
13C4
330
13D1
330
13D2
330
13D3
330
13D5
330
13D8
330
13D9
  0
IDBUFFER
  5
3395
330
0
100
AcDbIdBuffer
330
1708
330
1709
330
170A
330
170B
330
170C
330
170D
330
170E
330
170F
330
1710
330
1711
330
1712
330
16D7
330
16F9
330
16FA
330
16FB
330
16FC
330
16FD
330
16FE
330
16FF
330
1700
330
1701
330
1702
330
1703
330
1704
330
1705
330
1706
330
1707
  0
IDBUFFER
  5
3396
330
0
100
AcDbIdBuffer
330
2F6D
330
2F6E
330
2F6F
330
2F70
330
2F71
330
2F72
330
2F73
330
2F74
330
2F75
330
2F76
330
2F77
330
2F78
330
2F79
330
2F7A
330
2F7B
330
2F7C
330
2F7D
330
2F7E
330
2F7F
330
2F80
330
2F81
330
2F82
330
2F83
330
2F84
330
2F85
330
2F86
330
2F87
330
2F88
330
2F89
330
2F8A
330
2F8B
330
2F8C
330
2F8D
330
2F8E
330
2F8F
330
2F90
330
2F91
330
2F92
330
2F93
330
2F94
330
2F95
330
2F96
330
2F97
330
2F98
330
2F99
330
2F9A
330
2F9B
330
2F9C
330
2F9D
330
2F9E
330
2F9F
330
2FA0
330
2FA1
330
2FA2
330
2FA3
330
2F28
330
2F29
330
2F2A
330
2F2B
330
2F2C
330
2F2D
330
2F2E
330
2F2F
330
2F30
330
2F31
330
2F32
330
2F33
330
2F34
330
2F35
330
2F36
330
2F37
330
2F38
330
2F39
330
2F3A
330
2F3B
330
2F3C
330
2F3D
330
2F3E
330
2F3F
330
2F40
330
2F41
330
2F42
330
2F43
330
2F44
330
2F45
330
2F46
330
2F4A
330
2F4E
330
2F4F
330
2F53
330
2F54
330
2F55
330
2F56
330
2F57
330
2F58
330
2F59
330
2F5A
330
2F5E
330
2F62
330
2F66
330
2F67
330
2F68
330
2F6C
  0
XRECORD
  5
339F
102
{ACAD_REACTORS
330
339E
102
}
330
339E
100
AcDbXrecord
280
     1
102
SHADEPLOT
 70
     0
102
SHADEPLOTRESLEVEL
 70
     2
102
SHADEPLOTCUSTOMDPI
 70
   300
  0
XRECORD
  5
339D
102
{ACAD_REACTORS
330
339C
102
}
330
339C
100
AcDbXrecord
280
     1
102
SHADEPLOT
 70
     0
102
SHADEPLOTRESLEVEL
 70
     2
102
SHADEPLOTCUSTOMDPI
 70
   300
  0
ENDSEC
  0
EOF
