  0
SECTION
  2
HEADER
  9
$ACADVER
  1
AC1015
  9
$ACADMAINTVER
 70
    20
  9
$DWGCODEPAGE
  3
ANSI_950
  9
$INSBASE
 10
0.0
 20
0.0
 30
0.0
  9
$EXTMIN
 10
709.1925565654037
 20
-174.40456678248
 30
-0.013997834530926
  9
$EXTMAX
 10
1059.279403451782
 20
291.3680047430633
 30
229.3650200506813
  9
$LIMMIN
 10
0.0
 20
0.0
  9
$LIMMAX
 10
420.0
 20
297.0
  9
$ORTHOMODE
 70
     1
  9
$REGENMODE
 70
     1
  9
$FILLMODE
 70
     1
  9
$QTEXTMODE
 70
     0
  9
$MIRRTEXT
 70
     1
  9
$LTSCALE
 40
1.0
  9
$ATTMODE
 70
     1
  9
$TEXTSIZE
 40
3.5
  9
$TRACEWID
 40
1.0
  9
$TEXTSTYLE
  7
STANDARD
  9
$CLAYER
  8
0
  9
$CELTYPE
  6
ByLayer
  9
$CECOLOR
 62
   256
  9
$CELTSCALE
 40
1.0
  9
$DISPSILH
 70
     0
  9
$DIMSCALE
 40
1.0
  9
$DIMASZ
 40
4.0
  9
$DIMEXO
 40
1.0
  9
$DIMDLI
 40
13.0
  9
$DIMRND
 40
0.0
  9
$DIMDLE
 40
0.0
  9
$DIMEXE
 40
1.0
  9
$DIMTP
 40
0.1
  9
$DIMTM
 40
0.1
  9
$DIMTXT
 40
3.5
  9
$DIMCEN
 40
0.0
  9
$DIMTSZ
 40
0.0
  9
$DIMTOL
 70
     0
  9
$DIMLIM
 70
     0
  9
$DIMTIH
 70
     0
  9
$DIMTOH
 70
     0
  9
$DIMSE1
 70
     0
  9
$DIMSE2
 70
     0
  9
$DIMTAD
 70
     1
  9
$DIMZIN
 70
     8
  9
$DIMBLK
  1

  9
$DIMASO
 70
     1
  9
$DIMSHO
 70
     1
  9
$DIMPOST
  1

  9
$DIMAPOST
  1
"
  9
$DIMALT
 70
     0
  9
$DIMALTD
 70
     2
  9
$DIMALTF
 40
0.0393701
  9
$DIMLFAC
 40
1.0
  9
$DIMTOFL
 70
     1
  9
$DIMTVP
 40
0.0
  9
$DIMTIX
 70
     0
  9
$DIMSOXD
 70
     0
  9
$DIMSAH
 70
     0
  9
$DIMBLK1
  1

  9
$DIMBLK2
  1

  9
$DIMSTYLE
  2
AM_ISO
  9
$DIMCLRD
 70
   256
  9
$DIMCLRE
 70
   256
  9
$DIMCLRT
 70
   256
  9
$DIMTFAC
 40
0.71
  9
$DIMGAP
 40
1.0
  9
$DIMJUST
 70
     0
  9
$DIMSD1
 70
     0
  9
$DIMSD2
 70
     0
  9
$DIMTOLJ
 70
     1
  9
$DIMTZIN
 70
     0
  9
$DIMALTZ
 70
     0
  9
$DIMALTTZ
 70
     0
  9
$DIMUPT
 70
     0
  9
$DIMDEC
 70
     4
  9
$DIMTDEC
 70
     8
  9
$DIMALTU
 70
     2
  9
$DIMALTTD
 70
     2
  9
$DIMTXSTY
  7
STANDARD
  9
$DIMAUNIT
 70
     0
  9
$DIMADEC
 70
     0
  9
$DIMALTRND
 40
0.0
  9
$DIMAZIN
 70
     0
  9
$DIMDSEP
 70
    46
  9
$DIMATFIT
 70
     3
  9
$DIMFRAC
 70
     0
  9
$DIMLDRBLK
  1

  9
$DIMLUNIT
 70
     2
  9
$DIMLWD
 70
    -2
  9
$DIMLWE
 70
    -2
  9
$DIMTMOVE
 70
     0
  9
$LUNITS
 70
     2
  9
$LUPREC
 70
     2
  9
$SKETCHINC
 40
1.0
  9
$FILLETRAD
 40
2.5
  9
$AUNITS
 70
     0
  9
$AUPREC
 70
     0
  9
$MENU
  1
.
  9
$ELEVATION
 40
0.0
  9
$PELEVATION
 40
0.0
  9
$THICKNESS
 40
0.0
  9
$LIMCHECK
 70
     0
  9
$CHAMFERA
 40
2.5
  9
$CHAMFERB
 40
2.5
  9
$CHAMFERC
 40
0.0
  9
$CHAMFERD
 40
0.0
  9
$SKPOLY
 70
     0
  9
$TDCREATE
 40
2453021.369367211
  9
$TDUCREATE
 40
2453021.036033877
  9
$TDUPDATE
 40
2455763.646282431
  9
$TDUUPDATE
 40
2455763.312949097
  9
$TDINDWG
 40
0.6910791435
  9
$TDUSRTIMER
 40
0.6910784375
  9
$USRTIMER
 70
     1
  9
$ANGBASE
 50
0.0
  9
$ANGDIR
 70
     0
  9
$PDMODE
 70
     0
  9
$PDSIZE
 40
0.0
  9
$PLINEWID
 40
0.0
  9
$SPLFRAME
 70
     0
  9
$SPLINETYPE
 70
     6
  9
$SPLINESEGS
 70
     8
  9
$HANDSEED
  5
4FF4
  9
$SURFTAB1
 70
     6
  9
$SURFTAB2
 70
     6
  9
$SURFTYPE
 70
     6
  9
$SURFU
 70
     6
  9
$SURFV
 70
     6
  9
$UCSBASE
  2

  9
$UCSNAME
  2

  9
$UCSORG
 10
0.0
 20
0.0
 30
0.0
  9
$UCSXDIR
 10
1.0
 20
0.0
 30
0.0
  9
$UCSYDIR
 10
0.0
 20
1.0
 30
0.0
  9
$UCSORTHOREF
  2

  9
$UCSORTHOVIEW
 70
     0
  9
$UCSORGTOP
 10
0.0
 20
0.0
 30
0.0
  9
$UCSORGBOTTOM
 10
0.0
 20
0.0
 30
0.0
  9
$UCSORGLEFT
 10
0.0
 20
0.0
 30
0.0
  9
$UCSORGRIGHT
 10
0.0
 20
0.0
 30
0.0
  9
$UCSORGFRONT
 10
0.0
 20
0.0
 30
0.0
  9
$UCSORGBACK
 10
0.0
 20
0.0
 30
0.0
  9
$PUCSBASE
  2

  9
$PUCSNAME
  2

  9
$PUCSORG
 10
0.0
 20
0.0
 30
0.0
  9
$PUCSXDIR
 10
1.0
 20
0.0
 30
0.0
  9
$PUCSYDIR
 10
0.0
 20
1.0
 30
0.0
  9
$PUCSORTHOREF
  2

  9
$PUCSORTHOVIEW
 70
     0
  9
$PUCSORGTOP
 10
0.0
 20
0.0
 30
0.0
  9
$PUCSORGBOTTOM
 10
0.0
 20
0.0
 30
0.0
  9
$PUCSORGLEFT
 10
0.0
 20
0.0
 30
0.0
  9
$PUCSORGRIGHT
 10
0.0
 20
0.0
 30
0.0
  9
$PUCSORGFRONT
 10
0.0
 20
0.0
 30
0.0
  9
$PUCSORGBACK
 10
0.0
 20
0.0
 30
0.0
  9
$USERI1
 70
     0
  9
$USERI2
 70
     0
  9
$USERI3
 70
     0
  9
$USERI4
 70
     0
  9
$USERI5
 70
     0
  9
$USERR1
 40
0.0
  9
$USERR2
 40
0.0
  9
$USERR3
 40
0.0
  9
$USERR4
 40
0.0
  9
$USERR5
 40
0.0
  9
$WORLDVIEW
 70
     1
  9
$SHADEDGE
 70
     3
  9
$SHADEDIF
 70
    70
  9
$TILEMODE
 70
     1
  9
$MAXACTVP
 70
    64
  9
$PINSBASE
 10
0.0
 20
0.0
 30
0.0
  9
$PLIMCHECK
 70
     0
  9
$PEXTMIN
 10
1.000000000000000E+20
 20
1.000000000000000E+20
 30
1.000000000000000E+20
  9
$PEXTMAX
 10
-1.000000000000000E+20
 20
-1.000000000000000E+20
 30
-1.000000000000000E+20
  9
$PLIMMIN
 10
0.0
 20
0.0
  9
$PLIMMAX
 10
420.0
 20
297.0
  9
$UNITMODE
 70
     0
  9
$VISRETAIN
 70
     1
  9
$PLINEGEN
 70
     0
  9
$PSLTSCALE
 70
     1
  9
$TREEDEPTH
 70
  3020
  9
$CMLSTYLE
  2
Standard
  9
$CMLJUST
 70
     0
  9
$CMLSCALE
 40
1.0
  9
$PROXYGRAPHICS
 70
     1
  9
$MEASUREMENT
 70
     0
  9
$CELWEIGHT
370
    -1
  9
$ENDCAPS
280
     0
  9
$JOINSTYLE
280
     0
  9
$LWDISPLAY
290
     0
  9
$INSUNITS
 70
     0
  9
$HYPERLINKBASE
  1

  9
$STYLESHEET
  1

  9
$XEDIT
290
     1
  9
$CEPSNTYPE
380
     0
  9
$PSTYLEMODE
290
     1
  9
$FINGERPRINTGUID
  2
{96645723-3CD6-413A-8B6B-293298F2F8FE}
  9
$VERSIONGUID
  2
{9D8DAEFD-391C-46AB-A975-0207505AE7E8}
  9
$EXTNAMES
290
     1
  9
$PSVPSCALE
 40
0.0
  9
$OLESTARTUP
290
     0
  0
ENDSEC
  0
SECTION
  2
CLASSES
  0
CLASS
  1
ACDBDICTIONARYWDFLT
  2
AcDbDictionaryWithDefault
  3
ObjectDBX Classes
 90
        0
280
     0
281
     0
  0
CLASS
  1
TABLESTYLE
  2
AcDbTableStyle
  3
ObjectDBX Classes
 90
     2047
280
     0
281
     0
  0
CLASS
  1
AMGSETTINGSOBJ
  2
AmgSettingsObj
  3
"AcadM|Product Description: AutoCAD Mechanical 2000|Company: Autodesk"
 90
        0
280
     0
281
     0
  0
CLASS
  1
ACME_DOCUMENT
  2
AcMeDbDoc
  3
AcMeServices
 90
        0
280
     0
281
     0
  0
CLASS
  1
ACMESCOPE
  2
AcMeScope
  3
AcMeServices
 90
        0
280
     0
281
     0
  0
CLASS
  1
ACMECOMMANDHISTORY
  2
AcMeCommandHistory
  3
AcMeServices
 90
        0
280
     0
281
     0
  0
CLASS
  1
ACIMSYSVARMAN
  2
AcImSysVarManager
  3
AcMeServices
 90
        0
280
     0
281
     0
  0
CLASS
  1
ACIMINTSYSVAR
  2
AcImIntSysVar
  3
AcMeServices
 90
        0
280
     0
281
     0
  0
CLASS
  1
ACMEDRAWINGMAN
  2
AcMeDrawingMan
  3
AcMeServices
 90
        0
280
     0
281
     0
  0
CLASS
  1
ACMEVIEW
  2
AcMeView
  3
AcMeServices
 90
        0
280
     0
281
     0
  0
CLASS
  1
ACDBENTITYCACHE
  2
AcMeEntityCache
  3
AcMeServices
 90
        0
280
     0
281
     0
  0
CLASS
  1
GSMANAGER
  2
AcMeGSManager
  3
AcMeServices
 90
        0
280
     0
281
     0
  0
CLASS
  1
AMDTINTERNALREACTOR
  2
AmdtInternalReactor
  3
AcMeServices
 90
        0
280
     0
281
     0
  0
CLASS
  1
ACMESTATEMGR
  2
AcMeStateMgr
  3
AcMeServices
 90
        0
280
     0
281
     0
  0
CLASS
  1
ACGREFMASTER
  2
AcGrefMaster
  3
AcAttribServices
 90
        0
280
     0
281
     0
  0
CLASS
  1
AM_DRAWING_MGR
  2
AcDmDwgMgr
  3
AcMechDwgViewMgmt
 90
        0
280
     0
281
     0
  0
CLASS
  1
AM_DWG_DOCUMENT
  2
AcDmDwgDocument
  3
AcMechDwgViewMgmt
 90
        0
280
     0
281
     0
  0
CLASS
  1
AM_DWG_SHEET
  2
AcDmSheet
  3
AcMechDwgViewMgmt
 90
        0
280
     0
281
     0
  0
CLASS
  1
AM_VIEWDIMPARMAP
  2
AcDmViewDimParMap
  3
AcMechDwgViewMgmt
 90
        0
280
     0
281
     0
  0
CLASS
  1
ACIMREALSYSVAR
  2
AcImRealSysVar
  3
AcMeServices
 90
        0
280
     0
281
     0
  0
CLASS
  1
AM_DWGMGR_NAME
  2
AcDmDwgMgrName
  3
AcMechDwgViewMgmt
 90
        0
280
     0
281
     0
  0
CLASS
  1
ACME_DATABASE
  2
AcMeDbDatabase
  3
AcMeServices
 90
        0
280
     0
281
     0
  0
CLASS
  1
ACRFINSADJUSTERMGR
  2
AcRfInsAdjusterMgr
  3
AcMeServices
 90
        0
280
     0
281
     0
  0
CLASS
  1
ACGREFACADMASTER
  2
AcGrefacadMaster
  3
AcGrefServices
 90
        0
280
     0
281
     0
  0
CLASS
  1
AMDTMENUSTATEMGR
  2
AmdtMenuStateMgr
  3
McadcomServices
 90
        0
280
     0
281
     0
  0
CLASS
  1
AMDTMCOMMENUSTATE
  2
AmdtMcomMenuState
  3
McadcomServices
 90
        0
280
     0
281
     0
  0
CLASS
  1
AMIMASTER
  2
AmiMaster
  3
AmiServices
 90
        0
280
     0
281
     0
  0
CLASS
  1
MAPIAMMOUDLE
  2
MApiAmModule
  3
MApiAmServices
 90
        0
280
     0
281
     0
  0
CLASS
  1
AMDTADMENUSTATE
  2
AmdtAdMenuState
  3
DesignerServices
 90
        0
280
     0
281
     0
  0
CLASS
  1
ADAPPL
  2
AcAdAppl
  3
DesignerServices
 90
        0
280
     0
281
     0
  0
CLASS
  1
DEPMGR
  2
AcAdDepMgr
  3
DesignerServices
 90
        0
280
     0
281
     0
  0
CLASS
  1
PARAMMGR
  2
AcAdParamMgr
  3
DesignerServices
 90
        0
280
     0
281
     0
  0
CLASS
  1
PARAMSCOPE
  2
AcAdParamScope
  3
DesignerServices
 90
        0
280
     0
281
     0
  0
CLASS
  1
NAMEDAPPL
  2
AcAdNamedAppl
  3
DesignerServices
 90
        0
280
     0
281
     0
  0
CLASS
  1
AMDTDMMENUSTATE
  2
AmdtDmMenuState
  3
AcMechDwgViewMgmt
 90
        0
280
     0
281
     0
  0
CLASS
  1
AMDTAMMENUSTATE
  2
AmdtAmMenuState
  3
DesignerAssemblies
 90
        0
280
     0
281
     0
  0
CLASS
  1
ACIMSTRSYSVAR
  2
AcImStrSysVar
  3
AcMeServices
 90
        0
280
     0
281
     0
  0
CLASS
  1
ACAMPROJECT
  2
AcAmProject
  3
DesignerAssemblies
 90
        0
280
     0
281
     0
  0
CLASS
  1
ACAMGRCOMPDEF
  2
AcAmGrCompDef
  3
DesignerAssemblies
 90
        0
280
     0
281
     0
  0
CLASS
  1
ACCMCONTEXT
  2
AcCmContext
  3
DesignerAssemblies
 90
        0
280
     0
281
     0
  0
CLASS
  1
ACAMCOMPDEF
  2
AcAmCompDef
  3
DesignerAssemblies
 90
        0
280
     0
281
     0
  0
CLASS
  1
ACAMCOMPDEFMGR
  2
AcAmCompDefMgr
  3
DesignerAssemblies
 90
        0
280
     0
281
     0
  0
CLASS
  1
AMCONTEXTMGR
  2
AcAmContextMgr
  3
DesignerAssemblies
 90
        0
280
     0
281
     0
  0
CLASS
  1
ACAMCONTEXTMODELER
  2
AcAmContextModeler
  3
DesignerAssemblies
 90
        0
280
     0
281
     0
  0
CLASS
  1
ACMDATADICTIONARY
  2
AcmDataDictionary
  3
"AcmSymBB|Product Description: AutoCAD Mechanical 2004 DX|Company: Autodesk"
 90
        0
280
     0
281
     0
  0
CLASS
  1
CATALOGSTATE
  2
AcAmCatalogState
  3
DesignerAssemblies
 90
        0
280
     0
281
     0
  0
CLASS
  1
ACAMGRCOMPDEFSET
  2
AcAmGrCompDefSet
  3
DesignerAssemblies
 90
        0
280
     0
281
     0
  0
CLASS
  1
AMDTBROWSERDBTAB
  2
AmdtBrowserDbTab
  3
McadcomServices
 90
        0
280
     0
281
     0
  0
CLASS
  1
CBROWSERAPPOBJECT
  2
CBrowserAppObject
  3
McadcomServices
 90
        0
280
     0
281
     0
  0
CLASS
  1
DM_PLACEHOLDER
  2
AcDmSelsetPlaceholder
  3
AcMechDwgViewMgmt
 90
        0
280
     0
281
     0
  0
CLASS
  1
ACMSTANDARDANSI
  2
AcmStandardANSI
  3
"Amdt_StdImp|Product Description: AutoCAD Mechanical 2004 DX|Company: Autodesk"
 90
        0
280
     0
281
     0
  0
CLASS
  1
AMGOBJPROPCFG
  2
AmgObjPropCfg
  3
"AmgLay|Product Description: AutoCAD Mechanical 2000|Company: Autodesk"
 90
        1
280
     0
281
     0
  0
CLASS
  1
ACMSURFSTANDARDANSI
  2
AcmSurfTextStdANSI
  3
"Amdt_StdImp|Product Description: AutoCAD Mechanical 2004 DX|Company: Autodesk"
 90
        0
280
     0
281
     0
  0
CLASS
  1
ACMFCFSTANDARDANSI
  2
AcmFCFStdANSI
  3
"Amdt_StdImp|Product Description: AutoCAD Mechanical 2004 DX|Company: Autodesk"
 90
        0
280
     0
281
     0
  0
CLASS
  1
ACMWELDSTANDARDANSI
  2
AcmWeldingStdANSI
  3
"Amdt_StdImp|Product Description: AutoCAD Mechanical 2004 DX|Company: Autodesk"
 90
        0
280
     0
281
     0
  0
CLASS
  1
ACMIDSTANDARDANSI
  2
AcmIdStdANSI
  3
"Amdt_StdImp|Product Description: AutoCAD Mechanical 2004 DX|Company: Autodesk"
 90
        0
280
     0
281
     0
  0
CLASS
  1
ACMDATUMSTANDARDANSI
  2
AcmDatumStdANSI
  3
"Amdt_StdImp|Product Description: AutoCAD Mechanical 2004 DX|Company: Autodesk"
 90
        0
280
     0
281
     0
  0
CLASS
  1
ACMBOMSTANDARDANSI
  2
AcmBOMStdANSI
  3
"Amdt_StdImp|Product Description: AutoCAD Mechanical 2004 DX|Company: Autodesk"
 90
        0
280
     0
281
     0
  0
CLASS
  1
ACMDETAILSTANDARDANSI
  2
AmdtDetailSymStdANSI
  3
"Amdt_StdImp|Product Description: AutoCAD Mechanical 2004 DX|Company: Autodesk"
 90
        0
280
     0
281
     0
  0
CLASS
  1
ACMSECTIONSTANDARDANSI
  2
AmdtSectionSymStdANSI
  3
"Amdt_StdImp|Product Description: AutoCAD Mechanical 2004 DX|Company: Autodesk"
 90
        0
280
     0
281
     0
  0
CLASS
  1
ACMCENTERLINESTANDARDANSI
  2
AmdtCenterLineStdANSI
  3
"Amdt_StdImp|Product Description: AutoCAD Mechanical 2004 DX|Company: Autodesk"
 90
        0
280
     0
281
     0
  0
CLASS
  1
ACMTHREADLINESTANDARDANSI
  2
AmdtThreadLineStdANSI
  3
"Amdt_StdImp|Product Description: AutoCAD Mechanical 2004 DX|Company: Autodesk"
 90
        0
280
     0
281
     0
  0
CLASS
  1
ACMNOTESTANDARDANSI
  2
AmdtNoteStdANSI
  3
"Amdt_StdImp|Product Description: AutoCAD Mechanical 2004 DX|Company: Autodesk"
 90
        0
280
     0
281
     0
  0
CLASS
  1
AMDTNOTETEMPLATEDB
  2
AmdtNoteTemplateDB
  3
AMDT_STDIMP_MODULE_NAME
 90
        0
280
     0
281
     0
  0
CLASS
  1
ACAMGLAYSTD
  2
AcAmgLayStd
  3
"AcAmgLayStd|Product Description: AutoCAD Mechanical 2000|Company: Autodesk"
 90
        0
280
     0
281
     0
  0
CLASS
  1
ACAMGDIMSTD
  2
AcAmgDimStd
  3
"AcAmgDimStd|Product Description: AutoCAD Mechanical 2000|Company: Autodesk"
 90
        0
280
     0
281
     0
  0
CLASS
  1
ACAMGHOLECHARTSTDANSI
  2
AcAmgHoleChartStdANSI
  3
ACMSYMBB_MODULE_NAME
 90
        0
280
     0
281
     0
  0
CLASS
  1
ACAMGTITLESTD
  2
AcAmgTitleStd
  3
"TITLEAPP"
 90
        0
280
     0
281
     0
  0
CLASS
  1
ACAMGFILTERDAT
  2
AcAmgFilterDat
  3
"AcadM|Product Description: AutoCAD Mechanical 2000|Company: Autodesk"
 90
    32768
280
     0
281
     0
  0
CLASS
  1
ACMSTANDARDISO
  2
AcmStandardISO
  3
"Amdt_StdImp|Product Description: AutoCAD Mechanical 2004 DX|Company: Autodesk"
 90
    32768
280
     0
281
     0
  0
CLASS
  1
AMDTEDGESTANDARDISO13715
  2
AmdtEdgeStdISO13715
  3
"Amdt_StdImp|Product Description: AutoCAD Mechanical 2004 DX|Company: Autodesk"
 90
    32768
280
     0
281
     0
  0
CLASS
  1
ACMSURFSTANDARDISO
  2
AcmSurfTextStdISO
  3
"Amdt_StdImp|Product Description: AutoCAD Mechanical 2004 DX|Company: Autodesk"
 90
    32768
280
     0
281
     0
  0
CLASS
  1
ACMFCFSTANDARDISO
  2
AcmFCFStdISO
  3
"Amdt_StdImp|Product Description: AutoCAD Mechanical 2004 DX|Company: Autodesk"
 90
    32768
280
     0
281
     0
  0
CLASS
  1
ACMWELDSTANDARDISO
  2
AcmWeldingStdISO
  3
"Amdt_StdImp|Product Description: AutoCAD Mechanical 2004 DX|Company: Autodesk"
 90
    32768
280
     0
281
     0
  0
CLASS
  1
ACMIDSTANDARDISO
  2
AcmIdStdISO
  3
"Amdt_StdImp|Product Description: AutoCAD Mechanical 2004 DX|Company: Autodesk"
 90
    32768
280
     0
281
     0
  0
CLASS
  1
ACMDATUMSTANDARDISO
  2
AcmDatumStdISO
  3
"Amdt_StdImp|Product Description: AutoCAD Mechanical 2004 DX|Company: Autodesk"
 90
    32768
280
     0
281
     0
  0
CLASS
  1
ACMBOMSTANDARDISO
  2
AcmBOMStdISO
  3
"Amdt_StdImp|Product Description: AutoCAD Mechanical 2004 DX|Company: Autodesk"
 90
    32768
280
     0
281
     0
  0
CLASS
  1
ACMDETAILSTANDARDISO
  2
AmdtDetailSymStdISO
  3
"Amdt_StdImp|Product Description: AutoCAD Mechanical 2004 DX|Company: Autodesk"
 90
    32768
280
     0
281
     0
  0
CLASS
  1
ACMSECTIONSTANDARDISO
  2
AmdtSectionSymStdISO
  3
"Amdt_StdImp|Product Description: AutoCAD Mechanical 2004 DX|Company: Autodesk"
 90
    32768
280
     0
281
     0
  0
CLASS
  1
ACMCENTERLINESTANDARDISO
  2
AmdtCenterLineStdISO
  3
"Amdt_StdImp|Product Description: AutoCAD Mechanical 2004 DX|Company: Autodesk"
 90
    32768
280
     0
281
     0
  0
CLASS
  1
ACMTHREADLINESTANDARDISO
  2
AmdtThreadLineStdISO
  3
"Amdt_StdImp|Product Description: AutoCAD Mechanical 2004 DX|Company: Autodesk"
 90
    32768
280
     0
281
     0
  0
CLASS
  1
ACMNOTESTANDARDISO
  2
AmdtNoteStdISO
  3
"Amdt_StdImp|Product Description: AutoCAD Mechanical 2004 DX|Company: Autodesk"
 90
    32768
280
     0
281
     0
  0
CLASS
  1
ACAMGHOLECHARTSTDISO
  2
AcAmgHoleChartStdISO
  3
ACMSYMBB_MODULE_NAME
 90
    32768
280
     0
281
     0
  0
CLASS
  1
ACMDATAENTRYBLOCK
  2
AcmDataEntryBlock
  3
"AcmSymBB|Product Description: AutoCAD Mechanical 2004 DX|Company: Autodesk"
 90
        0
280
     0
281
     0
  0
CLASS
  1
ACRFATTGENMGR
  2
AcRfAttGeneralMgr
  3
AcAttribServices
 90
    32768
280
     0
281
     0
  0
CLASS
  1
DICTIONARYVAR
  2
AcDbDictionaryVar
  3
ObjectDBX Classes
 90
        0
280
     0
281
     0
  0
CLASS
  1
ACDBPLACEHOLDER
  2
AcDbPlaceHolder
  3
ObjectDBX Classes
 90
        0
280
     0
281
     0
  0
CLASS
  1
LAYOUT
  2
AcDbLayout
  3
ObjectDBX Classes
 90
        0
280
     0
281
     0
  0
CLASS
  1
ASAPP
  2
AcAsAppObject
  3
AutoSurfServices
 90
        0
280
     0
281
     0
  0
CLASS
  1
IM_STATIC_MAN
  2
AcImStaticVarManager
  3
AcMeServices
 90
        0
280
     0
281
     0
  0
CLASS
  1
ACIMDBLSTATICVAR
  2
AcImDblStaticVar
  3
AcMeServices
 90
        0
280
     0
281
     0
  0
CLASS
  1
ACIMSTRSTATICVAR
  2
AcImStrStaticVar
  3
AcMeServices
 90
        0
280
     0
281
     0
  0
CLASS
  1
ACIMINTSTATICVAR
  2
AcImIntStaticVar
  3
AcMeServices
 90
        0
280
     0
281
     0
  0
CLASS
  1
ACASGREFMASTER
  2
AcAsGrefMaster
  3
AutoSurfResolverServices
 90
        0
280
     0
281
     0
  0
CLASS
  1
ACADGREFMODULE
  2
AcAdGrefModule
  3
AdGrefServices
 90
        0
280
     0
281
     0
  0
CLASS
  1
AMDTMAPISURFMOUDULE
  2
AmdtMApiSurfModule
  3
MApiSurfServices
 90
        0
280
     0
281
     0
  0
CLASS
  1
MAPIADMODULE
  2
MApiAdModule
  3
MApiAdServices
 90
        0
280
     0
281
     0
  0
CLASS
  1
LAYER_INDEX
  2
AcDbLayerIndex
  3
ObjectDBX Classes
 90
        0
280
     0
281
     0
  0
CLASS
  1
IDBUFFER
  2
AcDbIdBuffer
  3
ObjectDBX Classes
 90
        0
280
     0
281
     0
  0
ENDSEC
  0
SECTION
  2
TABLES
  0
TABLE
  2
VPORT
  5
4AF9
330
0
100
AcDbSymbolTable
 70
     6
  0
VPORT
  5
4FED
330
4AF9
100
AcDbSymbolTableRecord
100
AcDbViewportTableRecord
  2
*Active
 70
     0
 10
0.0
 20
0.0
 11
1.0
 21
1.0
 12
-21.51737619959707
 22
-0.0072782228434107
 13
0.0
 23
0.0
 14
2.5
 24
2.5
 15
10.0
 25
10.0
 16
0.0
 26
0.0
 36
1.0
 17
905.75335620819
 27
58.488997203135
 37
0.0
 40
469.6113564556988
 41
1.305364511691884
 42
50.0
 43
0.0
 44
0.0
 50
0.0
 51
0.0
 71
     0
 72
   100
 73
     1
 74
     3
 75
     0
 76
     0
 77
     0
 78
     0
281
     0
 65
     0
110
0.0
120
0.0
130
0.0
111
1.0
121
0.0
131
0.0
112
0.0
122
1.0
132
0.0
 79
     0
146
0.0
  0
ENDTAB
  0
TABLE
  2
LTYPE
  5
4AF6
330
0
100
AcDbSymbolTable
 70
    18
  0
LTYPE
  5
4B04
330
4AF6
100
AcDbSymbolTableRecord
100
AcDbLinetypeTableRecord
  2
ByBlock
 70
     0
  3

 72
    65
 73
     0
 40
0.0
  0
LTYPE
  5
4B05
330
4AF6
100
AcDbSymbolTableRecord
100
AcDbLinetypeTableRecord
  2
ByLayer
 70
     0
  3

 72
    65
 73
     0
 40
0.0
  0
LTYPE
  5
4B06
330
4AF6
100
AcDbSymbolTableRecord
100
AcDbLinetypeTableRecord
  2
CONTINUOUS
 70
     0
  3
Solid line
 72
    65
 73
     0
 40
0.0
  0
LTYPE
  5
4B19
330
4AF6
100
AcDbSymbolTableRecord
100
AcDbLinetypeTableRecord
  2
AMCONSTR
 70
     0
  3
_______________________
 72
    65
 73
     2
 40
9999.0
 49
9999.0
 74
     0
 49
0.0
 74
     0
  0
LTYPE
  5
4B1A
330
4AF6
100
AcDbSymbolTableRecord
100
AcDbLinetypeTableRecord
  2
AM_ISO08W050X2
 70
     0
  3
__ . __ . __ . __ . __ . __
 72
    65
 73
     4
 40
9.0
 49
6.0
 74
     0
 49
-0.75
 74
     0
 49
1.5
 74
     0
 49
-0.75
 74
     0
  0
LTYPE
  5
4B1B
330
4AF6
100
AcDbSymbolTableRecord
100
AcDbLinetypeTableRecord
  2
AM_ISO02W050X2
 70
     0
  3
 _ _ _ _ _ _ _ _ _ _ _ _
 72
    65
 73
     2
 40
3.75
 49
3.0
 74
     0
 49
-0.75
 74
     0
  0
LTYPE
  5
4B1C
330
4AF6
100
AcDbSymbolTableRecord
100
AcDbLinetypeTableRecord
  2
CENTER
 70
     0
  3
__ . __
 72
    65
 73
     4
 40
7.0
 49
4.0
 74
     0
 49
-1.0
 74
     0
 49
1.0
 74
     0
 49
-1.0
 74
     0
  0
LTYPE
  5
4B1D
330
4AF6
100
AcDbSymbolTableRecord
100
AcDbLinetypeTableRecord
  2
HIDDEN
 70
     0
  3
Hidden __ __ __ __ __ __ __ __ __ __ __ __ __ _
 72
    65
 73
     2
 40
9.524999999999998
 49
6.349999999999997
 74
     0
 49
-3.174999999999998
 74
     0
  0
LTYPE
  5
4B1E
330
4AF6
100
AcDbSymbolTableRecord
100
AcDbLinetypeTableRecord
  2
PHANTOM2
 70
     0
  3
Phantom (.5x) ___ _ _ ___ _ _ ___ _ _ ___ _ _
 72
    65
 73
     6
 40
31.75
 49
15.875
 74
     0
 49
-3.174999999999998
 74
     0
 49
3.174999999999998
 74
     0
 49
-3.174999999999998
 74
     0
 49
3.174999999999998
 74
     0
 49
-3.174999999999998
 74
     0
  0
LTYPE
  5
4B1F
330
4AF6
100
AcDbSymbolTableRecord
100
AcDbLinetypeTableRecord
  2
ACANSTGB
 70
     0
  3
__ . . __ . .
 72
    65
 73
     6
 40
0.35433070866
 49
0.15748031496
 74
     0
 49
-0.03937007874
 74
     0
 49
0.03937007874
 74
     0
 49
-0.03937007874
 74
     0
 49
0.03937007874
 74
     0
 49
-0.03937007874
 74
     0
  0
LTYPE
  5
4B20
330
4AF6
100
AcDbSymbolTableRecord
100
AcDbLinetypeTableRecord
  2
ACANSTGL
 70
     0
  3
_ _ _ _ _
 72
    65
 73
     2
 40
0.11811023622
 49
0.07874015748
 74
     0
 49
-0.03937007874
 74
     0
  0
LTYPE
  5
4B21
330
4AF6
100
AcDbSymbolTableRecord
100
AcDbLinetypeTableRecord
  2
CENTER2
 70
     0
  3
Center (.5x) ___ _ ___ _ ___ _ ___ _ ___ _ ___
 72
    65
 73
     4
 40
1.125
 49
0.75
 74
     0
 49
-0.125
 74
     0
 49
0.125
 74
     0
 49
-0.125
 74
     0
  0
LTYPE
  5
4B22
330
4AF6
100
AcDbSymbolTableRecord
100
AcDbLinetypeTableRecord
  2
HIDDEN2
 70
     0
  3
Hidden (.5x) _ _ _ _ _ _ _ _ _ _ _ _ _ _ _ _ _
 72
    65
 73
     2
 40
0.1875
 49
0.125
 74
     0
 49
-0.0625
 74
     0
  0
LTYPE
  5
4B23
330
4AF6
100
AcDbSymbolTableRecord
100
AcDbLinetypeTableRecord
  2
AMZIGZAG2
 70
     0
  3
/\/-/\/-/\/-/\/-/\/-/\/
 72
    65
 73
     2
 40
0.4401
 49
0.0001
 74
     0
 49
-0.4400000000000002
 74
     0
  0
ENDTAB
  0
TABLE
  2
LAYER
  5
4AF3
102
{ACAD_XDICTIONARY
360
4CFD
102
}
330
0
100
AcDbSymbolTable
 70
     7
  0
LAYER
  5
4B01
330
4AF3
100
AcDbSymbolTableRecord
100
AcDbLayerTableRecord
  2
0
 70
     0
 62
     7
  6
CONTINUOUS
370
    -3
390
4B00
  0
LAYER
  5
4B17
330
4AF3
100
AcDbSymbolTableRecord
100
AcDbLayerTableRecord
  2
底
 70
     0
 62
     6
  6
CONTINUOUS
370
    -3
390
4B00
  0
LAYER
  5
4B26
330
4AF3
100
AcDbSymbolTableRecord
100
AcDbLayerTableRecord
  2
DEFPOINTS
 70
     0
 62
     7
  6
CONTINUOUS
290
     0
370
    -3
390
4B00
  0
LAYER
  5
4B27
330
4AF3
100
AcDbSymbolTableRecord
100
AcDbLayerTableRecord
  2
AM_5
 70
     0
 62
     5
  6
CONTINUOUS
370
    -3
390
4B00
  0
LAYER
  5
4B2A
330
4AF3
100
AcDbSymbolTableRecord
100
AcDbLayerTableRecord
  2
AM_7
 70
     0
 62
     1
  6
CENTER
370
    -3
390
4B00
  0
LAYER
  5
4B2C
330
4AF3
100
AcDbSymbolTableRecord
100
AcDbLayerTableRecord
  2
AM_HID
 70
     0
 62
     4
  6
AM_ISO02W050X2
370
    -3
390
4B00
  0
LAYER
  5
4CF0
330
4AF3
100
AcDbSymbolTableRecord
100
AcDbLayerTableRecord
  2
LOGO
 70
     0
 62
     7
  6
CONTINUOUS
370
    -3
390
4B00
  0
ENDTAB
  0
TABLE
  2
STYLE
  5
4AF4
330
0
100
AcDbSymbolTable
 70
     6
  0
STYLE
  5
4B02
330
4AF4
100
AcDbSymbolTableRecord
100
AcDbTextStyleTableRecord
  2
STANDARD
 70
     0
 40
0.0
 41
1.0
 50
0.0
 71
     0
 42
3.5
  3
ISOCP.SHX
  4
CHINESET.SHX
  0
STYLE
  5
4B2F
330
4AF4
100
AcDbSymbolTableRecord
100
AcDbTextStyleTableRecord
  2
DAYUS
 70
     0
 40
0.0
 41
1.0
 50
0.0
 71
     0
 42
2.5
  3
simplex
  4
dayus
  0
STYLE
  5
4B31
330
4AF4
100
AcDbSymbolTableRecord
100
AcDbTextStyleTableRecord
  2
ACANSTS
 70
     0
 40
1.0
 41
1.0
 50
0.0
 71
     0
 42
3.0
  3
romans.shx
  4
chineset.shx
  0
STYLE
  5
4B32
330
4AF4
100
AcDbSymbolTableRecord
100
AcDbTextStyleTableRecord
  2
ACANSGDT
 70
     0
 40
0.0
 41
1.0
 50
0.0
 71
     0
 42
3.0
  3
amgdtans.shx
  4

  0
STYLE
  5
4CF3
330
4AF4
100
AcDbSymbolTableRecord
100
AcDbTextStyleTableRecord
  2
CHINESET
 70
     0
 40
0.0
 41
1.0
 50
0.0
 71
     0
 42
2.5
  3
simplex.shx
  4
CHINESET.shx
  0
ENDTAB
  0
TABLE
  2
VIEW
  5
4AF7
330
0
100
AcDbSymbolTable
 70
     0
  0
ENDTAB
  0
TABLE
  2
UCS
  5
4AF8
330
0
100
AcDbSymbolTable
 70
     0
  0
ENDTAB
  0
TABLE
  2
APPID
  5
4AFA
330
0
100
AcDbSymbolTable
 70
    27
  0
APPID
  5
4B03
330
4AFA
100
AcDbSymbolTableRecord
100
AcDbRegAppTableRecord
  2
ACAD
 70
     0
  0
APPID
  5
4B33
330
4AFA
100
AcDbSymbolTableRecord
100
AcDbRegAppTableRecord
  2
MCAD_NO_VIS
 70
     0
  0
APPID
  5
4B34
330
4AFA
100
AcDbSymbolTableRecord
100
AcDbRegAppTableRecord
  2
ACAD_TEMP_GRAPHIC
 70
     0
  0
APPID
  5
4B35
330
4AFA
100
AcDbSymbolTableRecord
100
AcDbRegAppTableRecord
  2
ACATTRIBSERVICES
 70
     0
  0
APPID
  5
4B36
330
4AFA
100
AcDbSymbolTableRecord
100
AcDbRegAppTableRecord
  2
GENIUS_GENODEF_13
 70
     0
  0
APPID
  5
4B37
330
4AFA
100
AcDbSymbolTableRecord
100
AcDbRegAppTableRecord
  2
GENIUS_GENOBJ-N-HTC_13
 70
     0
  0
APPID
  5
4B38
330
4AFA
100
AcDbSymbolTableRecord
100
AcDbRegAppTableRecord
  2
GENIUS_GENHATCH_13
 70
     0
  0
APPID
  5
4B39
330
4AFA
100
AcDbSymbolTableRecord
100
AcDbRegAppTableRecord
  2
AD_DRAW
 70
     0
  0
APPID
  5
4B3A
330
4AFA
100
AcDbSymbolTableRecord
100
AcDbRegAppTableRecord
  2
DESIGNERASSEMBLIES
 70
     0
  0
APPID
  5
4B3B
330
4AFA
100
AcDbSymbolTableRecord
100
AcDbRegAppTableRecord
  2
ACADM_DIM_EDIT
 70
     0
  0
APPID
  5
4B3C
330
4AFA
100
AcDbSymbolTableRecord
100
AcDbRegAppTableRecord
  2
AMDT_DM_ADJ
 70
     0
  0
APPID
  5
4B3D
330
4AFA
100
AcDbSymbolTableRecord
100
AcDbRegAppTableRecord
  2
ACAD_DSTYLE_DIMTEXT_FILL
 70
     0
  0
APPID
  5
4B3E
330
4AFA
100
AcDbSymbolTableRecord
100
AcDbRegAppTableRecord
  2
ACAD_PSEXT
 70
     0
  0
APPID
  5
4B3F
330
4AFA
100
AcDbSymbolTableRecord
100
AcDbRegAppTableRecord
  2
ACAECLAYERSTANDARD
 70
     0
  0
APPID
  5
4B40
330
4AFA
100
AcDbSymbolTableRecord
100
AcDbRegAppTableRecord
  2
GENIUS_GENOENT_13
 70
     0
  0
APPID
  5
4B41
330
4AFA
100
AcDbSymbolTableRecord
100
AcDbRegAppTableRecord
  2
GENIUS_GENOBJ-N-CRS_13
 70
     0
  0
APPID
  5
4B42
330
4AFA
100
AcDbSymbolTableRecord
100
AcDbRegAppTableRecord
  2
GENIUS_GENOLIS_13
 70
     0
  0
APPID
  5
4B43
330
4AFA
100
AcDbSymbolTableRecord
100
AcDbRegAppTableRecord
  2
GENIUS_GENOREF_13
 70
     0
  0
APPID
  5
4B44
330
4AFA
100
AcDbSymbolTableRecord
100
AcDbRegAppTableRecord
  2
GENIUS_GENDTOL_13
 70
     0
  0
APPID
  5
4B45
330
4AFA
100
AcDbSymbolTableRecord
100
AcDbRegAppTableRecord
  2
GENIUS_GENDIMSH_14
 70
     0
  0
APPID
  5
4B46
330
4AFA
100
AcDbSymbolTableRecord
100
AcDbRegAppTableRecord
  2
GENIUS_GENDIM_13
 70
     0
  0
APPID
  5
4B47
330
4AFA
100
AcDbSymbolTableRecord
100
AcDbRegAppTableRecord
  2
GENIUS_GE3DTOL_13
 70
     0
  0
APPID
  5
4B48
330
4AFA
100
AcDbSymbolTableRecord
100
AcDbRegAppTableRecord
  2
ASURF_PCURVE_APPNAME
 70
     0
  0
APPID
  5
4B49
330
4AFA
100
AcDbSymbolTableRecord
100
AcDbRegAppTableRecord
  2
AMG_3D2D_5_0
 70
     0
  0
APPID
  5
4CFB
330
4AFA
100
AcDbSymbolTableRecord
100
AcDbRegAppTableRecord
  2
GENIUS_GENREC_14
 70
     0
  0
APPID
  5
4CFC
330
4AFA
100
AcDbSymbolTableRecord
100
AcDbRegAppTableRecord
  2
GENIUS_GENOBJ-N-REC_13
 70
     0
  0
APPID
  5
4F36
330
4AFA
100
AcDbSymbolTableRecord
100
AcDbRegAppTableRecord
  2
AMG_3D2D_5.0
 70
     0
  0
ENDTAB
  0
TABLE
  2
DIMSTYLE
  5
4AFB
330
0
100
AcDbSymbolTable
 70
     8
100
AcDbDimStyleTable
 71
     1
340
4B4A
  0
DIMSTYLE
105
4B4A
102
{ACAD_REACTORS
330
14D3
330
18E3
330
18E6
330
18E9
330
18EC
330
18EF
330
18F2
330
18F5
330
18F8
330
18FB
330
18FC
330
18FF
330
1902
330
1907
330
1908
330
190B
330
190E
330
1911
330
1914
330
14D4
102
}
330
4AFB
100
AcDbSymbolTableRecord
100
AcDbDimStyleTableRecord
  2
AM_ISO
 70
     0
  4
"
 41
4.0
 42
1.0
 43
13.0
 44
1.0
 47
0.1
 48
0.1
 73
     0
 74
     0
 77
     1
 78
     8
140
3.5
141
0.0
143
0.0393701
146
0.71
147
1.0
172
     1
176
   256
177
   256
178
   256
271
     2
272
     2
279
     2
284
     8
285
     8
286
     8
340
4B02
  0
DIMSTYLE
105
4B4B
330
4AFB
100
AcDbSymbolTableRecord
100
AcDbDimStyleTableRecord
  2
STANDARD
 70
     0
 41
3.0
 42
2.0
 43
7.0
 44
2.0
 48
0.000000001
 73
     0
 74
     0
 77
     1
 78
     8
140
3.0
147
1.0
176
   256
177
   256
178
   256
271
     2
272
     2
279
     2
284
     8
285
     8
286
     8
340
4B02
  0
DIMSTYLE
105
4B4C
330
4AFB
100
AcDbSymbolTableRecord
100
AcDbDimStyleTableRecord
  2
AM_ANSI
 70
     0
  4
mm
 41
0.1
 42
0.05
 43
0.5
 44
0.1
 47
0.1
 48
0.1
 78
     7
140
0.12
141
0.0
146
0.71
147
0.06
176
   256
177
   256
178
     2
271
     2
272
     2
279
     2
284
     8
285
     8
286
     8
340
4B02
  0
DIMSTYLE
105
4B4D
330
4AFB
100
AcDbSymbolTableRecord
100
AcDbDimStyleTableRecord
  2
AM_ANSI$3
 70
     0
  4
mm
 41
0.1
 42
0.05
 43
0.5
 44
0.1
 47
0.1
 48
0.1
 78
     7
140
0.12
141
0.0
146
0.71
147
0.06
176
   256
177
   256
178
     2
271
     2
272
     2
279
     2
284
     8
285
     8
286
     8
340
4B02
  0
DIMSTYLE
105
4B4E
330
4AFB
100
AcDbSymbolTableRecord
100
AcDbDimStyleTableRecord
  2
AM_ANSI$4
 70
     0
  4
mm
 41
0.1
 42
0.05
 43
0.5
 44
0.1
 47
0.1
 48
0.1
 78
     7
140
0.12
141
0.0
146
0.71
147
0.06
176
   256
177
   256
178
     2
271
     2
272
     2
279
     2
284
     8
285
     8
286
     8
340
4B02
  0
DIMSTYLE
105
4B4F
330
4AFB
100
AcDbSymbolTableRecord
100
AcDbDimStyleTableRecord
  2
AM_ANSI$7
 70
     0
  4
mm
 41
0.1
 42
0.05
 43
0.5
 44
0.1
 47
0.1
 48
0.1
 78
     7
140
0.24
141
0.0
146
0.71
147
0.06
176
   256
177
   256
178
     2
271
     2
272
     2
279
     2
284
     8
285
     8
286
     8
340
4B02
  0
DIMSTYLE
105
4B50
330
4AFB
100
AcDbSymbolTableRecord
100
AcDbDimStyleTableRecord
  2
AM_ANSI$SF
 70
     0
  4
mm
 41
0.1
 42
0.05
 43
0.5
 44
0.1
 47
0.1
 48
0.1
 75
     1
 76
     1
 78
     7
140
0.12
141
0.0
146
0.71
147
0.06
176
   256
177
   256
178
     2
271
     2
272
     2
279
     2
284
     8
285
     8
286
     8
340
4B02
  0
DIMSTYLE
105
4B51
330
4AFB
100
AcDbSymbolTableRecord
100
AcDbDimStyleTableRecord
  2
AM_ANSI$SH
 70
     0
  4
mm
 41
0.1
 42
0.05
 43
0.5
 44
0.1
 47
0.1
 48
0.1
 75
     1
 76
     1
 78
     7
140
0.12
141
0.0
146
0.71
147
0.06
173
     1
176
   256
177
   256
178
     2
271
     2
272
     2
279
     2
284
     8
285
     8
286
     8
340
4B02
  0
ENDTAB
  0
TABLE
  2
BLOCK_RECORD
  5
4AF2
330
0
100
AcDbSymbolTable
 70
    43
  0
BLOCK_RECORD
  5
4B13
102
{ACAD_XDICTIONARY
360
4FE1
102
}
330
4AF2
100
AcDbSymbolTableRecord
100
AcDbBlockTableRecord
  2
*Model_Space
340
4B16
  0
BLOCK_RECORD
  5
4B0F
330
4AF2
100
AcDbSymbolTableRecord
100
AcDbBlockTableRecord
  2
*Paper_Space
340
4B12
  0
BLOCK_RECORD
  5
4B69
330
4AF2
100
AcDbSymbolTableRecord
100
AcDbBlockTableRecord
  2
_DOTSMALL
340
0
102
{BLKREFS
331
3D5C
331
3D64
331
4FC6
331
4FC7
331
4FDB
331
4FDC
102
}
  0
BLOCK_RECORD
  5
4B85
330
4AF2
100
AcDbSymbolTableRecord
100
AcDbBlockTableRecord
  2
*D3
340
0
  0
BLOCK_RECORD
  5
4B87
330
4AF2
100
AcDbSymbolTableRecord
100
AcDbBlockTableRecord
  2
*U4
340
0
102
{BLKREFS
331
38A4
102
}
  0
BLOCK_RECORD
  5
4B89
330
4AF2
100
AcDbSymbolTableRecord
100
AcDbBlockTableRecord
  2
*D5
340
0
  0
BLOCK_RECORD
  5
4B8B
330
4AF2
100
AcDbSymbolTableRecord
100
AcDbBlockTableRecord
  2
*U6
340
0
102
{BLKREFS
331
38CA
102
}
  0
BLOCK_RECORD
  5
4BD1
330
4AF2
100
AcDbSymbolTableRecord
100
AcDbBlockTableRecord
  2
*D7
340
0
  0
BLOCK_RECORD
  5
4BD3
330
4AF2
100
AcDbSymbolTableRecord
100
AcDbBlockTableRecord
  2
*U8
340
0
102
{BLKREFS
331
385D
102
}
  0
BLOCK_RECORD
  5
4BD5
330
4AF2
100
AcDbSymbolTableRecord
100
AcDbBlockTableRecord
  2
*D9
340
0
  0
BLOCK_RECORD
  5
4BD7
330
4AF2
100
AcDbSymbolTableRecord
100
AcDbBlockTableRecord
  2
*U10
340
0
102
{BLKREFS
331
3866
102
}
  0
BLOCK_RECORD
  5
4BD9
330
4AF2
100
AcDbSymbolTableRecord
100
AcDbBlockTableRecord
  2
*D11
340
0
  0
BLOCK_RECORD
  5
4BDB
330
4AF2
100
AcDbSymbolTableRecord
100
AcDbBlockTableRecord
  2
*U12
340
0
102
{BLKREFS
331
3871
102
}
  0
BLOCK_RECORD
  5
4BDD
330
4AF2
100
AcDbSymbolTableRecord
100
AcDbBlockTableRecord
  2
*D13
340
0
  0
BLOCK_RECORD
  5
4BDF
330
4AF2
100
AcDbSymbolTableRecord
100
AcDbBlockTableRecord
  2
*U14
340
0
102
{BLKREFS
331
38FA
102
}
  0
BLOCK_RECORD
  5
4BE1
330
4AF2
100
AcDbSymbolTableRecord
100
AcDbBlockTableRecord
  2
*D15
340
0
  0
BLOCK_RECORD
  5
4BE3
330
4AF2
100
AcDbSymbolTableRecord
100
AcDbBlockTableRecord
  2
*U16
340
0
102
{BLKREFS
331
3CC3
102
}
  0
BLOCK_RECORD
  5
4BE5
330
4AF2
100
AcDbSymbolTableRecord
100
AcDbBlockTableRecord
  2
*D17
340
0
  0
BLOCK_RECORD
  5
4BE7
330
4AF2
100
AcDbSymbolTableRecord
100
AcDbBlockTableRecord
  2
*U18
340
0
102
{BLKREFS
331
388B
102
}
  0
BLOCK_RECORD
  5
4BE9
330
4AF2
100
AcDbSymbolTableRecord
100
AcDbBlockTableRecord
  2
*D19
340
0
  0
BLOCK_RECORD
  5
4BEB
330
4AF2
100
AcDbSymbolTableRecord
100
AcDbBlockTableRecord
  2
*U20
340
0
102
{BLKREFS
331
3894
102
}
  0
BLOCK_RECORD
  5
4BED
330
4AF2
100
AcDbSymbolTableRecord
100
AcDbBlockTableRecord
  2
*D21
340
0
  0
BLOCK_RECORD
  5
4BEF
330
4AF2
100
AcDbSymbolTableRecord
100
AcDbBlockTableRecord
  2
*U22
340
0
102
{BLKREFS
331
389D
102
}
  0
BLOCK_RECORD
  5
4BF1
330
4AF2
100
AcDbSymbolTableRecord
100
AcDbBlockTableRecord
  2
*D23
340
0
  0
BLOCK_RECORD
  5
4BF3
330
4AF2
100
AcDbSymbolTableRecord
100
AcDbBlockTableRecord
  2
*U24
340
0
102
{BLKREFS
331
38AC
102
}
  0
BLOCK_RECORD
  5
4BF5
330
4AF2
100
AcDbSymbolTableRecord
100
AcDbBlockTableRecord
  2
*D25
340
0
  0
BLOCK_RECORD
  5
4BF7
330
4AF2
100
AcDbSymbolTableRecord
100
AcDbBlockTableRecord
  2
*U26
340
0
102
{BLKREFS
331
38B7
102
}
  0
BLOCK_RECORD
  5
4BF9
330
4AF2
100
AcDbSymbolTableRecord
100
AcDbBlockTableRecord
  2
*D27
340
0
  0
BLOCK_RECORD
  5
4BFB
330
4AF2
100
AcDbSymbolTableRecord
100
AcDbBlockTableRecord
  2
*U28
340
0
102
{BLKREFS
331
3CD6
102
}
  0
BLOCK_RECORD
  5
4BFD
330
4AF2
100
AcDbSymbolTableRecord
100
AcDbBlockTableRecord
  2
*D29
340
0
  0
BLOCK_RECORD
  5
4BFF
330
4AF2
100
AcDbSymbolTableRecord
100
AcDbBlockTableRecord
  2
*U30
340
0
102
{BLKREFS
331
38D2
102
}
  0
BLOCK_RECORD
  5
4C01
330
4AF2
100
AcDbSymbolTableRecord
100
AcDbBlockTableRecord
  2
*D31
340
0
  0
BLOCK_RECORD
  5
4C03
330
4AF2
100
AcDbSymbolTableRecord
100
AcDbBlockTableRecord
  2
*U32
340
0
102
{BLKREFS
331
38DB
102
}
  0
BLOCK_RECORD
  5
4C05
330
4AF2
100
AcDbSymbolTableRecord
100
AcDbBlockTableRecord
  2
*D33
340
0
  0
BLOCK_RECORD
  5
4C07
330
4AF2
100
AcDbSymbolTableRecord
100
AcDbBlockTableRecord
  2
*U34
340
0
102
{BLKREFS
331
38E4
102
}
  0
BLOCK_RECORD
  5
4C09
330
4AF2
100
AcDbSymbolTableRecord
100
AcDbBlockTableRecord
  2
*D35
340
0
  0
BLOCK_RECORD
  5
4C0B
330
4AF2
100
AcDbSymbolTableRecord
100
AcDbBlockTableRecord
  2
*U36
340
0
102
{BLKREFS
331
38ED
102
}
  0
BLOCK_RECORD
  5
4C0D
330
4AF2
100
AcDbSymbolTableRecord
100
AcDbBlockTableRecord
  2
*D37
340
0
  0
BLOCK_RECORD
  5
4C0F
330
4AF2
100
AcDbSymbolTableRecord
100
AcDbBlockTableRecord
  2
*U38
340
0
102
{BLKREFS
331
3900
102
}
  0
BLOCK_RECORD
  5
4C59
330
4AF2
100
AcDbSymbolTableRecord
100
AcDbBlockTableRecord
  2
*U39
340
0
102
{BLKREFS
331
1917
102
}
  0
BLOCK_RECORD
  5
4F8D
330
4AF2
100
AcDbSymbolTableRecord
100
AcDbBlockTableRecord
  2
*D41
340
0
  0
BLOCK_RECORD
  5
4FC2
330
4AF2
100
AcDbSymbolTableRecord
100
AcDbBlockTableRecord
  2
*D42
340
0
  0
ENDTAB
  0
ENDSEC
  0
SECTION
  2
BLOCKS
  0
BLOCK
  5
4B14
330
4B13
100
AcDbEntity
  8
0
100
AcDbBlockBegin
  2
*Model_Space
 70
     0
 10
0.0
 20
0.0
 30
0.0
  3
*Model_Space
  1

  0
ENDBLK
  5
4B15
330
4B13
100
AcDbEntity
  8
0
100
AcDbBlockEnd
  0
BLOCK
  5
4B10
330
4B0F
100
AcDbEntity
 67
     1
  8
0
100
AcDbBlockBegin
  2
*Paper_Space
 70
     0
 10
0.0
 20
0.0
 30
0.0
  3
*Paper_Space
  1

  0
ENDBLK
  5
4B11
330
4B0F
100
AcDbEntity
 67
     1
  8
0
100
AcDbBlockEnd
  0
BLOCK
  5
4B6A
330
4B69
100
AcDbEntity
  8
0
100
AcDbBlockBegin
  2
_DOTSMALL
 70
     0
 10
0.0
 20
0.0
 30
0.0
  3
_DOTSMALL
  1

  0
POLYLINE
  5
232E
330
4B69
100
AcDbEntity
  8
0
  6
ByBlock
 62
     0
100
AcDb2dPolyline
 66
     1
 10
0.0
 20
0.0
 30
0.0
 70
     1
 40
0.5
 41
0.5
  0
VERTEX
  5
3E12
330
232E
100
AcDbEntity
  8
0
  6
ByBlock
 62
     0
100
AcDbVertex
100
AcDb2dVertex
 10
-0.0625
 20
0.0
 30
0.0
 42
1.0
  0
VERTEX
  5
3E13
330
232E
100
AcDbEntity
  8
0
  6
ByBlock
 62
     0
100
AcDbVertex
100
AcDb2dVertex
 10
0.0625
 20
0.0
 30
0.0
 42
1.0
  0
SEQEND
  5
3E14
330
232E
100
AcDbEntity
  8
0
  6
ByBlock
 62
     0
  0
ENDBLK
  5
2330
330
4B69
100
AcDbEntity
  8
0
100
AcDbBlockEnd
  0
BLOCK
  5
4B86
330
4B85
100
AcDbEntity
  8
0
100
AcDbBlockBegin
  2
*D3
 70
     1
 10
0.0
 20
0.0
 30
0.0
  3
*D3
  1

  0
LINE
  5
38A1
330
4B85
100
AcDbEntity
  8
AM_5
100
AcDbLine
 10
852.7968624840047
 20
100.3042669682781
 30
0.0
 11
861.1179604384368
 21
81.23264078222318
 31
0.0
  0
LINE
  5
38A2
330
4B85
100
AcDbEntity
  8
AM_5
100
AcDbLine
 10
861.1179604384368
 20
81.23264078222318
 30
0.0
 11
892.0579407533971
 21
81.23264078222314
 31
0.0
  0
SOLID
  5
38A3
330
4B85
100
AcDbEntity
  8
AM_5
100
AcDbTrace
 10
853.89673227626
 20
100.7841486621196
 30
0.0
 11
851.6969926917495
 21
99.82438527443651
 31
0.0
 12
849.9175723209555
 22
106.90348572181
 32
0.0
 13
849.9175723209555
 23
106.90348572181
 33
0.0
  0
INSERT
  5
38A4
330
4B85
100
AcDbEntity
  8
底
100
AcDbBlockReference
  2
*U4
 10
0.0
 20
0.0
 30
0.0
  0
POINT
  5
38A5
330
4B85
100
AcDbEntity
  8
DEFPOINTS
 62
     0
100
AcDbPoint
 10
849.9175723209555
 20
106.90348572181
 30
0.0
  0
POINT
  5
38A6
330
4B85
100
AcDbEntity
  8
DEFPOINTS
 62
     0
100
AcDbPoint
 10
847.9732619846704
 20
111.3597678286151
 30
0.0
  0
ENDBLK
  5
1A6D
330
4B85
100
AcDbEntity
  8
0
100
AcDbBlockEnd
  0
BLOCK
  5
4B88
330
4B87
100
AcDbEntity
  8
0
100
AcDbBlockBegin
  2
*U4
 70
     1
 10
0.0
 20
0.0
 30
0.0
  3
*U4
  1

  0
TEXT
  5
3EC3
330
4B87
100
AcDbEntity
  8
AM_5
100
AcDbText
 10
862.132940753397
 20
83.0326407822231
 30
0.0
 40
6.299999999999998
  1
2-PT1/8
100
AcDbText
  0
ENDBLK
  5
3EC5
330
4B87
100
AcDbEntity
  8
0
100
AcDbBlockEnd
  0
BLOCK
  5
4B8A
330
4B89
100
AcDbEntity
  8
0
100
AcDbBlockBegin
  2
*D5
 70
     1
 10
0.0
 20
0.0
 30
0.0
  3
*D5
  1

  0
LINE
  5
38C4
330
4B89
100
AcDbEntity
  8
AM_5
100
AcDbLine
 10
791.4665130880418
 20
-103.3781322652453
 30
0.0
 11
787.178967325607
 21
-109.1623306829197
 31
0.0
  0
LINE
  5
38C5
330
4B89
100
AcDbEntity
  8
AM_5
100
AcDbLine
 10
850.4873464355901
 20
-23.75490961657829
 30
0.0
 11
854.774892198025
 21
-17.97071119890393
 31
0.0
  0
LINE
  5
38C6
330
4B89
100
AcDbEntity
  8
AM_5
100
AcDbLine
 10
854.774892198025
 20
-17.97071119890393
 30
0.0
 11
869.4358467423201
 21
-17.97071119890393
 31
0.0
  0
LINE
  5
38C7
330
4B89
100
AcDbEntity
  8
AM_5
100
AcDbLine
 10
795.754058850477
 20
-97.59393384757107
 30
0.0
 11
846.1998006731551
 21
-29.53910803425259
 31
0.0
  0
SOLID
  5
38C8
330
4B89
100
AcDbEntity
  8
AM_5
100
AcDbTrace
 10
790.5024800184295
 20
-102.6635413048395
 30
0.0
 11
792.4305461576542
 21
-104.0927232256512
 31
0.0
 12
795.754058850477
 22
-97.59393384757107
 32
0.0
 13
795.754058850477
 23
-97.59393384757107
 33
0.0
  0
SOLID
  5
38C9
330
4B89
100
AcDbEntity
  8
AM_5
100
AcDbTrace
 10
849.5233133659777
 20
-23.04031865617247
 30
0.0
 11
851.4513795052021
 21
-24.46950057698416
 31
0.0
 12
846.1998006731551
 22
-29.53910803425259
 32
0.0
 13
846.1998006731551
 23
-29.53910803425259
 33
0.0
  0
INSERT
  5
38CA
330
4B89
100
AcDbEntity
  8
底
100
AcDbBlockReference
  2
*U6
 10
0.0
 20
0.0
 30
0.0
  0
POINT
  5
38CB
330
4B89
100
AcDbEntity
  8
DEFPOINTS
 62
     0
100
AcDbPoint
 10
846.1998006731551
 20
-29.53910803425259
 30
0.0
  0
POINT
  5
38CC
330
4B89
100
AcDbEntity
  8
DEFPOINTS
 62
     0
100
AcDbPoint
 10
795.754058850477
 20
-97.59393384757107
 30
0.0
  0
ENDBLK
  5
1A79
330
4B89
100
AcDbEntity
  8
0
100
AcDbBlockEnd
  0
BLOCK
  5
4B8C
330
4B8B
100
AcDbEntity
  8
0
100
AcDbBlockBegin
  2
*U6
 70
     1
 10
0.0
 20
0.0
 30
0.0
  3
*U6
  1

  0
TEXT
  5
3ECF
330
4B8B
100
AcDbEntity
  8
AM_5
100
AcDbText
 10
855.6298921980244
 20
-16.17071119890386
 30
0.0
 40
6.299999999999998
  1
\U+220585
100
AcDbText
  0
ENDBLK
  5
3ED1
330
4B8B
100
AcDbEntity
  8
0
100
AcDbBlockEnd
  0
BLOCK
  5
4BD2
330
4BD1
100
AcDbEntity
  8
0
100
AcDbBlockBegin
  2
*D7
 70
     1
 10
0.0
 20
0.0
 30
0.0
  3
*D7
  1

  0
LINE
  5
3858
330
4BD1
100
AcDbEntity
  8
AM_5
100
AcDbLine
 10
763.1965856030783
 20
101.3597678286155
 30
0.0
 11
751.1965856030784
 21
101.3597678286155
 31
0.0
  0
LINE
  5
3859
330
4BD1
100
AcDbEntity
  8
AM_5
100
AcDbLine
 10
786.6872145063971
 20
6.399334681270261
 30
0.0
 11
751.1965856030784
 21
6.39933468127027
 31
0.0
  0
LINE
  5
385A
330
4BD1
100
AcDbEntity
  8
AM_5
100
AcDbLine
 10
752.9965856030782
 20
94.15976782861557
 30
0.0
 11
752.9965856030782
 21
13.59933468127026
 31
0.0
  0
SOLID
  5
385B
330
4BD1
100
AcDbEntity
  8
AM_5
100
AcDbTrace
 10
751.7965856030782
 20
94.15976782861557
 30
0.0
 11
754.1965856030783
 21
94.15976782861557
 31
0.0
 12
752.9965856030782
 22
101.3597678286155
 32
0.0
 13
752.9965856030782
 23
101.3597678286155
 33
0.0
  0
SOLID
  5
385C
330
4BD1
100
AcDbEntity
  8
AM_5
100
AcDbTrace
 10
751.7965856030782
 20
13.59933468127026
 30
0.0
 11
754.1965856030783
 21
13.59933468127026
 31
0.0
 12
752.9965856030782
 22
6.39933468127027
 32
0.0
 13
752.9965856030782
 23
6.39933468127027
 33
0.0
  0
INSERT
  5
385D
330
4BD1
100
AcDbEntity
  8
底
100
AcDbBlockReference
  2
*U8
 10
0.0
 20
0.0
 30
0.0
  0
POINT
  5
385E
330
4BD1
100
AcDbEntity
  8
DEFPOINTS
 62
     0
100
AcDbPoint
 10
764.9965856030783
 20
101.3597678286155
 30
0.0
  0
POINT
  5
385F
330
4BD1
100
AcDbEntity
  8
DEFPOINTS
 62
     0
100
AcDbPoint
 10
788.4872145063971
 20
6.399334681270261
 30
0.0
  0
POINT
  5
3860
330
4BD1
100
AcDbEntity
  8
DEFPOINTS
 62
     0
100
AcDbPoint
 10
752.9965856030782
 20
6.39933468127027
 30
0.0
  0
ENDBLK
  5
1BAB
330
4BD1
100
AcDbEntity
  8
0
100
AcDbBlockEnd
  0
BLOCK
  5
4BD4
330
4BD3
100
AcDbEntity
  8
0
100
AcDbBlockBegin
  2
*U8
 70
     1
 10
0.0
 20
0.0
 30
0.0
  3
*U8
  1

  0
TEXT
  5
3EAB
330
4BD3
100
AcDbEntity
  8
AM_5
100
AcDbText
 10
751.1965856030784
 20
49.44753697282909
 30
0.0
 40
6.299999999999998
  1
95
 50
90.0
100
AcDbText
  0
ENDBLK
  5
3EAD
330
4BD3
100
AcDbEntity
  8
0
100
AcDbBlockEnd
  0
BLOCK
  5
4BD6
330
4BD5
100
AcDbEntity
  8
0
100
AcDbBlockBegin
  2
*D9
 70
     1
 10
0.0
 20
0.0
 30
0.0
  3
*D9
  1

  0
LINE
  5
3861
330
4BD5
100
AcDbEntity
  8
AM_5
100
AcDbLine
 10
954.1830878939327
 20
162.7903689185094
 30
0.0
 11
954.1830878939327
 21
174.7903689185094
 31
0.0
  0
LINE
  5
3862
330
4BD5
100
AcDbEntity
  8
AM_5
100
AcDbLine
 10
986.1830878939327
 20
162.7903689185094
 30
0.0
 11
986.1830878939327
 21
174.7903689185094
 31
0.0
  0
LINE
  5
3863
330
4BD5
100
AcDbEntity
  8
AM_5
100
AcDbLine
 10
961.3830878939326
 20
172.9903689185094
 30
0.0
 11
978.9830878939326
 21
172.9903689185094
 31
0.0
  0
SOLID
  5
3864
330
4BD5
100
AcDbEntity
  8
AM_5
100
AcDbTrace
 10
961.3830878939326
 20
174.1903689185093
 30
0.0
 11
961.3830878939326
 21
171.7903689185094
 31
0.0
 12
954.1830878939327
 22
172.9903689185094
 32
0.0
 13
954.1830878939327
 23
172.9903689185094
 33
0.0
  0
SOLID
  5
3865
330
4BD5
100
AcDbEntity
  8
AM_5
100
AcDbTrace
 10
978.9830878939326
 20
174.1903689185093
 30
0.0
 11
978.9830878939326
 21
171.7903689185094
 31
0.0
 12
986.1830878939327
 22
172.9903689185094
 32
0.0
 13
986.1830878939327
 23
172.9903689185094
 33
0.0
  0
INSERT
  5
3866
330
4BD5
100
AcDbEntity
  8
底
100
AcDbBlockReference
  2
*U10
 10
0.0
 20
0.0
 30
0.0
  0
POINT
  5
3867
330
4BD5
100
AcDbEntity
  8
DEFPOINTS
 62
     0
100
AcDbPoint
 10
954.1830878939327
 20
160.9903689185092
 30
0.0
  0
POINT
  5
3868
330
4BD5
100
AcDbEntity
  8
DEFPOINTS
 62
     0
100
AcDbPoint
 10
986.1830878939327
 20
160.9903689185092
 30
0.0
  0
POINT
  5
3869
330
4BD5
100
AcDbEntity
  8
DEFPOINTS
 62
     0
100
AcDbPoint
 10
986.1830878939327
 20
172.9903689185094
 30
0.0
  0
ENDBLK
  5
1BB7
330
4BD5
100
AcDbEntity
  8
0
100
AcDbBlockEnd
  0
BLOCK
  5
4BD8
330
4BD7
100
AcDbEntity
  8
0
100
AcDbBlockBegin
  2
*U10
 70
     1
 10
0.0
 20
0.0
 30
0.0
  3
*U10
  1

  0
TEXT
  5
3EAF
330
4BD7
100
AcDbEntity
  8
AM_5
100
AcDbText
 10
962.7489018703103
 20
174.7903689185093
 30
0.0
 40
6.299999999999998
  1
\U+220532
100
AcDbText
  0
ENDBLK
  5
3EB1
330
4BD7
100
AcDbEntity
  8
0
100
AcDbBlockEnd
  0
BLOCK
  5
4BDA
330
4BD9
100
AcDbEntity
  8
0
100
AcDbBlockBegin
  2
*D11
 70
     1
 10
0.0
 20
0.0
 30
0.0
  3
*D11
  1

  0
LINE
  5
386A
330
4BD9
100
AcDbEntity
  8
AM_5
100
AcDbLine
 10
962.1864198394192
 20
102.9510127308703
 30
0.0
 11
962.1864198394192
 21
77.36159162382906
 31
0.0
  0
LINE
  5
386B
330
4BD9
100
AcDbEntity
  8
AM_5
100
AcDbLine
 10
978.1797559484456
 20
103.2956607165851
 30
0.0
 11
978.1797559484456
 21
77.36159162382906
 31
0.0
  0
LINE
  5
386C
330
4BD9
100
AcDbEntity
  8
AM_5
100
AcDbLine
 10
954.9864198394192
 20
79.16159162382905
 30
0.0
 11
947.7864198394193
 21
79.16159162382905
 31
0.0
  0
LINE
  5
386D
330
4BD9
100
AcDbEntity
  8
AM_5
100
AcDbLine
 10
985.3797559484462
 20
79.16159162382905
 30
0.0
 11
992.5797559484461
 21
79.16159162382905
 31
0.0
  0
LINE
  5
386E
330
4BD9
100
AcDbEntity
  8
AM_5
100
AcDbLine
 10
962.1864198394192
 20
79.16159162382905
 30
0.0
 11
978.1797559484456
 21
79.16159162382905
 31
0.0
  0
SOLID
  5
386F
330
4BD9
100
AcDbEntity
  8
AM_5
100
AcDbTrace
 10
954.9864198394192
 20
80.36159162382906
 30
0.0
 11
954.9864198394192
 21
77.96159162382906
 31
0.0
 12
962.1864198394192
 22
79.16159162382905
 32
0.0
 13
962.1864198394192
 23
79.16159162382905
 33
0.0
  0
SOLID
  5
3870
330
4BD9
100
AcDbEntity
  8
AM_5
100
AcDbTrace
 10
985.3797559484462
 20
80.36159162382906
 30
0.0
 11
985.3797559484462
 21
77.96159162382906
 31
0.0
 12
978.1797559484456
 22
79.16159162382905
 32
0.0
 13
978.1797559484456
 23
79.16159162382905
 33
0.0
  0
INSERT
  5
3871
330
4BD9
100
AcDbEntity
  8
底
100
AcDbBlockReference
  2
*U12
 10
0.0
 20
0.0
 30
0.0
  0
POINT
  5
3872
330
4BD9
100
AcDbEntity
  8
DEFPOINTS
 62
     0
100
AcDbPoint
 10
962.1864198394192
 20
104.7510127308703
 30
0.0
  0
POINT
  5
3873
330
4BD9
100
AcDbEntity
  8
DEFPOINTS
 62
     0
100
AcDbPoint
 10
978.1797559484456
 20
105.0956607165851
 30
0.0
  0
POINT
  5
3874
330
4BD9
100
AcDbEntity
  8
DEFPOINTS
 62
     0
100
AcDbPoint
 10
978.1797559484456
 20
79.16159162382905
 30
0.0
  0
ENDBLK
  5
1BC3
330
4BD9
100
AcDbEntity
  8
0
100
AcDbBlockEnd
  0
BLOCK
  5
4BDC
330
4BDB
100
AcDbEntity
  8
0
100
AcDbBlockBegin
  2
*U12
 70
     1
 10
0.0
 20
0.0
 30
0.0
  3
*U12
  1

  0
TEXT
  5
3EB3
330
4BDB
100
AcDbEntity
  8
AM_5
100
AcDbText
 10
966.2468280514126
 20
80.96159162382907
 30
0.0
 40
6.299999999999998
  1
16
100
AcDbText
  0
ENDBLK
  5
3EB5
330
4BDB
100
AcDbEntity
  8
0
100
AcDbBlockEnd
  0
BLOCK
  5
4BDE
330
4BDD
100
AcDbEntity
  8
0
100
AcDbBlockBegin
  2
*D13
 70
     1
 10
0.0
 20
0.0
 30
0.0
  3
*D13
  1

  0
LINE
  5
38F7
330
4BDD
100
AcDbEntity
  8
AM_5
100
AcDbLine
 10
986.5417190847045
 20
102.6547279597272
 30
0.0
 11
1010.40532855622
 21
77.84630663551829
 31
0.0
  0
LINE
  5
38F8
330
4BDD
100
AcDbEntity
  8
AM_5
100
AcDbLine
 10
1010.40532855622
 20
77.84630663551829
 30
0.0
 11
1040.24913367433
 21
77.84630663551829
 31
0.0
  0
SOLID
  5
38F9
330
4BDD
100
AcDbEntity
  8
AM_5
100
AcDbTrace
 10
987.4065557551114
 20
103.4866279137599
 30
0.0
 11
985.6768824142974
 21
101.8228280056944
 31
0.0
 12
981.550319360508
 22
107.8437479821681
 32
0.0
 13
981.550319360508
 23
107.8437479821681
 33
0.0
  0
INSERT
  5
38FA
330
4BDD
100
AcDbEntity
  8
底
100
AcDbBlockReference
  2
*U14
 10
0.0
 20
0.0
 30
0.0
  0
POINT
  5
38FB
330
4BDD
100
AcDbEntity
  8
DEFPOINTS
 62
     0
100
AcDbPoint
 10
981.550319360508
 20
107.8437479821681
 30
0.0
  0
POINT
  5
38FC
330
4BDD
100
AcDbEntity
  8
DEFPOINTS
 62
     0
100
AcDbPoint
 10
974.8091925363839
 20
114.8517705804431
 30
0.0
  0
ENDBLK
  5
1BCE
330
4BDD
100
AcDbEntity
  8
0
100
AcDbBlockEnd
  0
BLOCK
  5
4BE0
330
4BDF
100
AcDbEntity
  8
0
100
AcDbBlockBegin
  2
*U14
 70
     1
 10
0.0
 20
0.0
 30
0.0
  3
*U14
  1

  0
TEXT
  5
3EE3
330
4BDF
100
AcDbEntity
  8
AM_5
100
AcDbText
 10
1011.42030887118
 20
81.44964186177672
 30
0.0
 40
6.299999999999998
  1
2-Plugs
100
AcDbText
  0
ENDBLK
  5
3EE5
330
4BDF
100
AcDbEntity
  8
0
100
AcDbBlockEnd
  0
BLOCK
  5
4BE2
330
4BE1
100
AcDbEntity
  8
0
100
AcDbBlockBegin
  2
*D15
 70
     1
 10
0.0
 20
0.0
 30
0.0
  3
*D15
  1

  0
LINE
  5
3CBE
330
4BE1
100
AcDbEntity
  8
AM_5
100
AcDbLine
 10
937.775608299586
 20
99.55192421316422
 30
0.0
 11
928.4177829533708
 21
-7.408508934181196
 31
0.0
  0
LINE
  5
3CBF
330
4BE1
100
AcDbEntity
  8
AM_5
100
AcDbLine
 10
1002.275608299586
 20
99.55192421316422
 30
0.0
 11
992.9177829533708
 21
-7.408508934181196
 31
0.0
  0
LINE
  5
3CC0
330
4BE1
100
AcDbEntity
  8
AM_5
100
AcDbLine
 10
935.7752625477175
 20
-5.6085089341812
 30
0.0
 11
985.8752625477174
 21
-5.6085089341812
 31
0.0
  0
SOLID
  5
3CC1
330
4BE1
100
AcDbEntity
  8
AM_5
100
AcDbTrace
 10
935.7752625477175
 20
-4.408508934181202
 30
0.0
 11
935.7752625477175
 21
-6.8085089341812
 31
0.0
 12
928.5752625477174
 22
-5.6085089341812
 32
0.0
 13
928.5752625477174
 23
-5.6085089341812
 33
0.0
  0
SOLID
  5
3CC2
330
4BE1
100
AcDbEntity
  8
AM_5
100
AcDbTrace
 10
985.8752625477174
 20
-4.408508934181202
 30
0.0
 11
985.8752625477174
 21
-6.8085089341812
 31
0.0
 12
993.0752625477174
 22
-5.6085089341812
 32
0.0
 13
993.0752625477174
 23
-5.6085089341812
 33
0.0
  0
INSERT
  5
3CC3
330
4BE1
100
AcDbEntity
  8
底
100
AcDbBlockReference
  2
*U16
 10
0.0
 20
0.0
 30
0.0
  0
POINT
  5
3CC4
330
4BE1
100
AcDbEntity
  8
DEFPOINTS
 62
     0
100
AcDbPoint
 10
937.9330878939324
 20
101.3519242131642
 30
0.0
  0
POINT
  5
3CC5
330
4BE1
100
AcDbEntity
  8
DEFPOINTS
 62
     0
100
AcDbPoint
 10
1002.433087893932
 20
101.3519242131642
 30
0.0
  0
POINT
  5
3CC6
330
4BE1
100
AcDbEntity
  8
DEFPOINTS
 62
     0
100
AcDbPoint
 10
993.0752625477174
 20
-5.6085089341812
 30
0.0
  0
ENDBLK
  5
1BDA
330
4BE1
100
AcDbEntity
  8
0
100
AcDbBlockEnd
  0
BLOCK
  5
4BE4
330
4BE3
100
AcDbEntity
  8
0
100
AcDbBlockBegin
  2
*U16
 70
     1
 10
0.0
 20
0.0
 30
0.0
  3
*U16
  1

  0
TEXT
  5
3FB7
330
4BE3
100
AcDbEntity
  8
AM_5
100
AcDbText
 10
953.0082892125776
 20
-3.8085089341812
 30
0.0
 40
6.299999999999998
  1
64.5
100
AcDbText
  0
ENDBLK
  5
3FB9
330
4BE3
100
AcDbEntity
  8
0
100
AcDbBlockEnd
  0
BLOCK
  5
4BE6
330
4BE5
100
AcDbEntity
  8
0
100
AcDbBlockBegin
  2
*D17
 70
     1
 10
0.0
 20
0.0
 30
0.0
  3
*D17
  1

  0
LINE
  5
3884
330
4BE5
100
AcDbEntity
  8
AM_5
100
AcDbLine
 10
820.9732619846713
 20
166.3853889450568
 30
0.0
 11
820.9732619846713
 21
171.9801449798497
 31
0.0
  0
LINE
  5
3885
330
4BE5
100
AcDbEntity
  8
AM_5
100
AcDbLine
 10
830.9676546639423
 20
163.7982125339609
 30
0.0
 11
830.9676546639423
 21
171.9801449798497
 31
0.0
  0
LINE
  5
3886
330
4BE5
100
AcDbEntity
  8
AM_5
100
AcDbLine
 10
813.7732619846712
 20
170.1801449798496
 30
0.0
 11
806.5732619846713
 21
170.1801449798496
 31
0.0
  0
LINE
  5
3887
330
4BE5
100
AcDbEntity
  8
AM_5
100
AcDbLine
 10
838.1676546639422
 20
170.1801449798496
 30
0.0
 11
845.3676546639425
 21
170.1801449798496
 31
0.0
  0
LINE
  5
3888
330
4BE5
100
AcDbEntity
  8
AM_5
100
AcDbLine
 10
820.9732619846713
 20
170.1801449798496
 30
0.0
 11
830.9676546639423
 21
170.1801449798496
 31
0.0
  0
SOLID
  5
3889
330
4BE5
100
AcDbEntity
  8
AM_5
100
AcDbTrace
 10
813.7732619846712
 20
171.3801449798497
 30
0.0
 11
813.7732619846712
 21
168.9801449798497
 31
0.0
 12
820.9732619846713
 22
170.1801449798496
 32
0.0
 13
820.9732619846713
 23
170.1801449798496
 33
0.0
  0
SOLID
  5
388A
330
4BE5
100
AcDbEntity
  8
AM_5
100
AcDbTrace
 10
838.1676546639422
 20
171.3801449798497
 30
0.0
 11
838.1676546639422
 21
168.9801449798497
 31
0.0
 12
830.9676546639423
 22
170.1801449798496
 32
0.0
 13
830.9676546639423
 23
170.1801449798496
 33
0.0
  0
INSERT
  5
388B
330
4BE5
100
AcDbEntity
  8
底
100
AcDbBlockReference
  2
*U18
 10
0.0
 20
0.0
 30
0.0
  0
POINT
  5
388C
330
4BE5
100
AcDbEntity
  8
DEFPOINTS
 62
     0
100
AcDbPoint
 10
820.9732619846713
 20
164.5853889450568
 30
0.0
  0
POINT
  5
388D
330
4BE5
100
AcDbEntity
  8
DEFPOINTS
 62
     0
100
AcDbPoint
 10
830.9676546639423
 20
161.9982125339609
 30
0.0
  0
POINT
  5
388E
330
4BE5
100
AcDbEntity
  8
DEFPOINTS
 62
     0
100
AcDbPoint
 10
830.9676546639423
 20
170.1801449798496
 30
0.0
  0
ENDBLK
  5
1BE8
330
4BE5
100
AcDbEntity
  8
0
100
AcDbBlockEnd
  0
BLOCK
  5
4BE8
330
4BE7
100
AcDbEntity
  8
0
100
AcDbBlockBegin
  2
*U18
 70
     1
 10
0.0
 20
0.0
 30
0.0
  3
*U18
  1

  0
TEXT
  5
3EB7
330
4BE7
100
AcDbEntity
  8
AM_5
100
AcDbText
 10
822.1879780093461
 20
171.9801449798497
 30
0.0
 40
6.299999999999998
  1
10
100
AcDbText
  0
ENDBLK
  5
3EB9
330
4BE7
100
AcDbEntity
  8
0
100
AcDbBlockEnd
  0
BLOCK
  5
4BEA
330
4BE9
100
AcDbEntity
  8
0
100
AcDbBlockBegin
  2
*D19
 70
     1
 10
0.0
 20
0.0
 30
0.0
  3
*D19
  1

  0
LINE
  5
388F
330
4BE9
100
AcDbEntity
  8
AM_5
100
AcDbLine
 10
832.7676546639425
 20
161.9982125339608
 30
0.0
 11
875.9901291401503
 21
161.9982125339608
 31
0.0
  0
LINE
  5
3890
330
4BE9
100
AcDbEntity
  8
AM_5
100
AcDbLine
 10
856.6360425638729
 20
136.9982125339609
 30
0.0
 11
875.9901291401503
 21
136.9982125339609
 31
0.0
  0
LINE
  5
3891
330
4BE9
100
AcDbEntity
  8
AM_5
100
AcDbLine
 10
874.1901291401502
 20
154.7982125339609
 30
0.0
 11
874.1901291401502
 21
144.1982125339609
 31
0.0
  0
SOLID
  5
3892
330
4BE9
100
AcDbEntity
  8
AM_5
100
AcDbTrace
 10
872.9901291401503
 20
154.7982125339609
 30
0.0
 11
875.3901291401502
 21
154.7982125339609
 31
0.0
 12
874.1901291401502
 22
161.9982125339608
 32
0.0
 13
874.1901291401502
 23
161.9982125339608
 33
0.0
  0
SOLID
  5
3893
330
4BE9
100
AcDbEntity
  8
AM_5
100
AcDbTrace
 10
872.9901291401503
 20
144.1982125339609
 30
0.0
 11
875.3901291401502
 21
144.1982125339609
 31
0.0
 12
874.1901291401502
 22
136.9982125339609
 32
0.0
 13
874.1901291401502
 23
136.9982125339609
 33
0.0
  0
INSERT
  5
3894
330
4BE9
100
AcDbEntity
  8
底
100
AcDbBlockReference
  2
*U20
 10
0.0
 20
0.0
 30
0.0
  0
POINT
  5
3895
330
4BE9
100
AcDbEntity
  8
DEFPOINTS
 62
     0
100
AcDbPoint
 10
830.9676546639424
 20
161.9982125339609
 30
0.0
  0
POINT
  5
3896
330
4BE9
100
AcDbEntity
  8
DEFPOINTS
 62
     0
100
AcDbPoint
 10
854.836042563873
 20
136.9982125339609
 30
0.0
  0
POINT
  5
3897
330
4BE9
100
AcDbEntity
  8
DEFPOINTS
 62
     0
100
AcDbPoint
 10
874.1901291401502
 20
136.9982125339609
 30
0.0
  0
ENDBLK
  5
1BF4
330
4BE9
100
AcDbEntity
  8
0
100
AcDbBlockEnd
  0
BLOCK
  5
4BEC
330
4BEB
100
AcDbEntity
  8
0
100
AcDbBlockBegin
  2
*U20
 70
     1
 10
0.0
 20
0.0
 30
0.0
  3
*U20
  1

  0
TEXT
  5
3EBB
330
4BEB
100
AcDbEntity
  8
AM_5
100
AcDbText
 10
872.3901291401503
 20
144.8496960693815
 30
0.0
 40
6.299999999999998
  1
27
 50
90.0
100
AcDbText
  0
ENDBLK
  5
3EBD
330
4BEB
100
AcDbEntity
  8
0
100
AcDbBlockEnd
  0
BLOCK
  5
4BEE
330
4BED
100
AcDbEntity
  8
0
100
AcDbBlockBegin
  2
*D21
 70
     1
 10
0.0
 20
0.0
 30
0.0
  3
*D21
  1

  0
LINE
  5
3898
330
4BED
100
AcDbEntity
  8
AM_5
100
AcDbLine
 10
763.1965856030783
 20
101.3597678286155
 30
0.0
 11
751.1965856030784
 21
101.3597678286155
 31
0.0
  0
LINE
  5
3899
330
4BED
100
AcDbEntity
  8
AM_5
100
AcDbLine
 10
804.173261984671
 20
161.9982125339609
 30
0.0
 11
751.1965856030784
 21
161.9982125339609
 31
0.0
  0
LINE
  5
389A
330
4BED
100
AcDbEntity
  8
AM_5
100
AcDbLine
 10
752.9965856030782
 20
108.5597678286155
 30
0.0
 11
752.9965856030782
 21
154.7982125339609
 31
0.0
  0
SOLID
  5
389B
330
4BED
100
AcDbEntity
  8
AM_5
100
AcDbTrace
 10
751.7965856030782
 20
108.5597678286155
 30
0.0
 11
754.1965856030783
 21
108.5597678286155
 31
0.0
 12
752.9965856030782
 22
101.3597678286155
 32
0.0
 13
752.9965856030782
 23
101.3597678286155
 33
0.0
  0
SOLID
  5
389C
330
4BED
100
AcDbEntity
  8
AM_5
100
AcDbTrace
 10
751.7965856030782
 20
154.7982125339609
 30
0.0
 11
754.1965856030783
 21
154.7982125339609
 31
0.0
 12
752.9965856030782
 22
161.9982125339609
 32
0.0
 13
752.9965856030782
 23
161.9982125339609
 33
0.0
  0
INSERT
  5
389D
330
4BED
100
AcDbEntity
  8
底
100
AcDbBlockReference
  2
*U22
 10
0.0
 20
0.0
 30
0.0
  0
POINT
  5
389E
330
4BED
100
AcDbEntity
  8
DEFPOINTS
 62
     0
100
AcDbPoint
 10
764.9965856030783
 20
101.3597678286155
 30
0.0
  0
POINT
  5
389F
330
4BED
100
AcDbEntity
  8
DEFPOINTS
 62
     0
100
AcDbPoint
 10
805.9732619846712
 20
161.9982125339609
 30
0.0
  0
POINT
  5
38A0
330
4BED
100
AcDbEntity
  8
DEFPOINTS
 62
     0
100
AcDbPoint
 10
752.9965856030782
 20
161.9982125339609
 30
0.0
  0
ENDBLK
  5
1C00
330
4BED
100
AcDbEntity
  8
0
100
AcDbBlockEnd
  0
BLOCK
  5
4BF0
330
4BEF
100
AcDbEntity
  8
0
100
AcDbBlockBegin
  2
*U22
 70
     1
 10
0.0
 20
0.0
 30
0.0
  3
*U22
  1

  0
TEXT
  5
3EBF
330
4BEF
100
AcDbEntity
  8
AM_5
100
AcDbText
 10
751.1965856030784
 20
127.2683080946741
 30
0.0
 40
6.299999999999998
  1
62
 50
90.0
100
AcDbText
  0
ENDBLK
  5
3EC1
330
4BEF
100
AcDbEntity
  8
0
100
AcDbBlockEnd
  0
BLOCK
  5
4BF2
330
4BF1
100
AcDbEntity
  8
0
100
AcDbBlockBegin
  2
*D23
 70
     1
 10
0.0
 20
0.0
 30
0.0
  3
*D23
  1

  0
LINE
  5
38A7
330
4BF1
100
AcDbEntity
  8
AM_5
100
AcDbLine
 10
878.7499383662643
 20
101.3597678286155
 30
0.0
 11
890.7499383662644
 21
101.3597678286155
 31
0.0
  0
LINE
  5
38A8
330
4BF1
100
AcDbEntity
  8
AM_5
100
AcDbLine
 10
878.7499383662643
 20
121.3514379648986
 30
0.0
 11
890.7499383662644
 21
121.3514379648986
 31
0.0
  0
LINE
  5
38A9
330
4BF1
100
AcDbEntity
  8
AM_5
100
AcDbLine
 10
888.9499383662643
 20
108.5597678286155
 30
0.0
 11
888.9499383662643
 21
114.1514379648986
 31
0.0
  0
SOLID
  5
38AA
330
4BF1
100
AcDbEntity
  8
AM_5
100
AcDbTrace
 10
887.7499383662643
 20
108.5597678286155
 30
0.0
 11
890.1499383662644
 21
108.5597678286155
 31
0.0
 12
888.9499383662643
 22
101.3597678286155
 32
0.0
 13
888.9499383662643
 23
101.3597678286155
 33
0.0
  0
SOLID
  5
38AB
330
4BF1
100
AcDbEntity
  8
AM_5
100
AcDbTrace
 10
887.7499383662643
 20
114.1514379648986
 30
0.0
 11
890.1499383662644
 21
114.1514379648986
 31
0.0
 12
888.9499383662643
 22
121.3514379648986
 32
0.0
 13
888.9499383662643
 23
121.3514379648986
 33
0.0
  0
INSERT
  5
38AC
330
4BF1
100
AcDbEntity
  8
底
100
AcDbBlockReference
  2
*U24
 10
0.0
 20
0.0
 30
0.0
  0
POINT
  5
38AD
330
4BF1
100
AcDbEntity
  8
DEFPOINTS
 62
     0
100
AcDbPoint
 10
876.9499383662642
 20
101.3597678286155
 30
0.0
  0
POINT
  5
38AE
330
4BF1
100
AcDbEntity
  8
DEFPOINTS
 62
     0
100
AcDbPoint
 10
876.9499383662642
 20
121.3514379648986
 30
0.0
  0
POINT
  5
38AF
330
4BF1
100
AcDbEntity
  8
DEFPOINTS
 62
     0
100
AcDbPoint
 10
888.9499383662643
 20
121.3514379648986
 30
0.0
  0
ENDBLK
  5
1C14
330
4BF1
100
AcDbEntity
  8
0
100
AcDbBlockEnd
  0
BLOCK
  5
4BF4
330
4BF3
100
AcDbEntity
  8
0
100
AcDbBlockBegin
  2
*U24
 70
     1
 10
0.0
 20
0.0
 30
0.0
  3
*U24
  1

  0
TEXT
  5
3EC7
330
4BF3
100
AcDbEntity
  8
AM_5
100
AcDbText
 10
887.1499383662643
 20
107.0231127392769
 30
0.0
 40
6.299999999999998
  1
20
 50
90.0
100
AcDbText
  0
ENDBLK
  5
3EC9
330
4BF3
100
AcDbEntity
  8
0
100
AcDbBlockEnd
  0
BLOCK
  5
4BF6
330
4BF5
100
AcDbEntity
  8
0
100
AcDbBlockBegin
  2
*D25
 70
     1
 10
0.0
 20
0.0
 30
0.0
  3
*D25
  1

  0
LINE
  5
38B0
330
4BF5
100
AcDbEntity
  8
AM_5
100
AcDbLine
 10
878.7499383662643
 20
121.3514379648986
 30
0.0
 11
890.7499383662644
 21
121.3514379648986
 31
0.0
  0
LINE
  5
38B1
330
4BF5
100
AcDbEntity
  8
AM_5
100
AcDbLine
 10
856.1404089662039
 20
126.3493554989695
 30
0.0
 11
890.7499383662644
 21
126.3493554989695
 31
0.0
  0
LINE
  5
38B2
330
4BF5
100
AcDbEntity
  8
AM_5
100
AcDbLine
 10
888.9499383662643
 20
114.1514379648986
 30
0.0
 11
888.9499383662643
 21
106.9514379648986
 31
0.0
  0
LINE
  5
38B3
330
4BF5
100
AcDbEntity
  8
AM_5
100
AcDbLine
 10
888.9499383662643
 20
133.5493554989695
 30
0.0
 11
888.9499383662643
 21
147.1303100432646
 31
0.0
  0
LINE
  5
38B4
330
4BF5
100
AcDbEntity
  8
AM_5
100
AcDbLine
 10
888.9499383662643
 20
121.3514379648986
 30
0.0
 11
888.9499383662643
 21
126.3493554989695
 31
0.0
  0
SOLID
  5
38B5
330
4BF5
100
AcDbEntity
  8
AM_5
100
AcDbTrace
 10
887.7499383662643
 20
114.1514379648986
 30
0.0
 11
890.1499383662644
 21
114.1514379648986
 31
0.0
 12
888.9499383662643
 22
121.3514379648986
 32
0.0
 13
888.9499383662643
 23
121.3514379648986
 33
0.0
  0
SOLID
  5
38B6
330
4BF5
100
AcDbEntity
  8
AM_5
100
AcDbTrace
 10
887.7499383662643
 20
133.5493554989695
 30
0.0
 11
890.1499383662644
 21
133.5493554989695
 31
0.0
 12
888.9499383662643
 22
126.3493554989695
 32
0.0
 13
888.9499383662643
 23
126.3493554989695
 33
0.0
  0
INSERT
  5
38B7
330
4BF5
100
AcDbEntity
  8
底
100
AcDbBlockReference
  2
*U26
 10
0.0
 20
0.0
 30
0.0
  0
POINT
  5
38B8
330
4BF5
100
AcDbEntity
  8
DEFPOINTS
 62
     0
100
AcDbPoint
 10
876.9499383662642
 20
121.3514379648986
 30
0.0
  0
POINT
  5
38B9
330
4BF5
100
AcDbEntity
  8
DEFPOINTS
 62
     0
100
AcDbPoint
 10
854.3404089662042
 20
126.3493554989695
 30
0.0
  0
POINT
  5
38BA
330
4BF5
100
AcDbEntity
  8
DEFPOINTS
 62
     0
100
AcDbPoint
 10
888.9499383662643
 20
126.3493554989695
 30
0.0
  0
ENDBLK
  5
1C22
330
4BF5
100
AcDbEntity
  8
0
100
AcDbBlockEnd
  0
BLOCK
  5
4BF8
330
4BF7
100
AcDbEntity
  8
0
100
AcDbBlockBegin
  2
*U26
 70
     1
 10
0.0
 20
0.0
 30
0.0
  3
*U26
  1

  0
TEXT
  5
3ECB
330
4BF7
100
AcDbEntity
  8
AM_5
100
AcDbText
 10
887.1499383662643
 20
141.6043554989697
 30
0.0
 40
6.299999999999998
  1
5
 50
90.0
100
AcDbText
  0
ENDBLK
  5
3ECD
330
4BF7
100
AcDbEntity
  8
0
100
AcDbBlockEnd
  0
BLOCK
  5
4BFA
330
4BF9
100
AcDbEntity
  8
0
100
AcDbBlockBegin
  2
*D27
 70
     1
 10
0.0
 20
0.0
 30
0.0
  3
*D27
  1

  0
LINE
  5
3CD1
330
4BF9
100
AcDbEntity
  8
AM_5
100
AcDbLine
 10
787.0657823903245
 20
99.55976782861549
 30
0.0
 11
777.5446862767645
 21
-9.266858728994336
 31
0.0
  0
LINE
  5
3CD2
330
4BF9
100
AcDbEntity
  8
AM_5
100
AcDbLine
 10
854.5657823903246
 20
99.55976782861549
 30
0.0
 11
845.0446862767645
 21
-9.266858728994336
 31
0.0
  0
LINE
  5
3CD3
330
4BF9
100
AcDbEntity
  8
AM_5
100
AcDbLine
 10
784.902165871111
 20
-7.466858728994338
 30
0.0
 11
838.0021658711108
 21
-7.466858728994338
 31
0.0
  0
SOLID
  5
3CD4
330
4BF9
100
AcDbEntity
  8
AM_5
100
AcDbTrace
 10
784.902165871111
 20
-6.266858728994336
 30
0.0
 11
784.902165871111
 21
-8.666858728994338
 31
0.0
 12
777.7021658711114
 22
-7.466858728994338
 32
0.0
 13
777.7021658711114
 23
-7.466858728994338
 33
0.0
  0
SOLID
  5
3CD5
330
4BF9
100
AcDbEntity
  8
AM_5
100
AcDbTrace
 10
838.0021658711108
 20
-6.266858728994336
 30
0.0
 11
838.0021658711108
 21
-8.666858728994338
 31
0.0
 12
845.2021658711114
 22
-7.466858728994338
 32
0.0
 13
845.2021658711114
 23
-7.466858728994338
 33
0.0
  0
INSERT
  5
3CD6
330
4BF9
100
AcDbEntity
  8
底
100
AcDbBlockReference
  2
*U28
 10
0.0
 20
0.0
 30
0.0
  0
POINT
  5
3CD7
330
4BF9
100
AcDbEntity
  8
DEFPOINTS
 62
     0
100
AcDbPoint
 10
787.2232619846713
 20
101.3597678286155
 30
0.0
  0
POINT
  5
3CD8
330
4BF9
100
AcDbEntity
  8
DEFPOINTS
 62
     0
100
AcDbPoint
 10
854.7232619846713
 20
101.3597678286155
 30
0.0
  0
POINT
  5
3CD9
330
4BF9
100
AcDbEntity
  8
DEFPOINTS
 62
     0
100
AcDbPoint
 10
845.2021658711114
 20
-7.466858728994338
 30
0.0
  0
ENDBLK
  5
1C2E
330
4BF9
100
AcDbEntity
  8
0
100
AcDbBlockEnd
  0
BLOCK
  5
4BFC
330
4BFB
100
AcDbEntity
  8
0
100
AcDbBlockBegin
  2
*U28
 70
     1
 10
0.0
 20
0.0
 30
0.0
  3
*U28
  1

  0
TEXT
  5
3FBB
330
4BFB
100
AcDbEntity
  8
AM_5
100
AcDbText
 10
803.9501925359715
 20
-5.666858728994336
 30
0.0
 40
6.299999999999998
  1
67.5
100
AcDbText
  0
ENDBLK
  5
3FBD
330
4BFB
100
AcDbEntity
  8
0
100
AcDbBlockEnd
  0
BLOCK
  5
4BFE
330
4BFD
100
AcDbEntity
  8
0
100
AcDbBlockBegin
  2
*D29
 70
     1
 10
0.0
 20
0.0
 30
0.0
  3
*D29
  1

  0
LINE
  5
38CD
330
4BFD
100
AcDbEntity
  8
AM_5
100
AcDbLine
 10
775.9981342353936
 20
-101.3495573620486
 30
0.0
 11
775.9981342353936
 21
-113.3495573620487
 31
0.0
  0
LINE
  5
38CE
330
4BFD
100
AcDbEntity
  8
AM_5
100
AcDbLine
 10
865.9557252882359
 20
-101.3495573620486
 30
0.0
 11
865.9557252882359
 21
-113.3495573620487
 31
0.0
  0
LINE
  5
38CF
330
4BFD
100
AcDbEntity
  8
AM_5
100
AcDbLine
 10
783.1981342353937
 20
-111.5495573620487
 30
0.0
 11
858.7557252882358
 21
-111.5495573620487
 31
0.0
  0
SOLID
  5
38D0
330
4BFD
100
AcDbEntity
  8
AM_5
100
AcDbTrace
 10
783.1981342353937
 20
-110.3495573620487
 30
0.0
 11
783.1981342353937
 21
-112.7495573620487
 31
0.0
 12
775.9981342353936
 22
-111.5495573620487
 32
0.0
 13
775.9981342353936
 23
-111.5495573620487
 33
0.0
  0
SOLID
  5
38D1
330
4BFD
100
AcDbEntity
  8
AM_5
100
AcDbTrace
 10
858.7557252882358
 20
-110.3495573620487
 30
0.0
 11
858.7557252882358
 21
-112.7495573620487
 31
0.0
 12
865.9557252882359
 22
-111.5495573620487
 32
0.0
 13
865.9557252882359
 23
-111.5495573620487
 33
0.0
  0
INSERT
  5
38D2
330
4BFD
100
AcDbEntity
  8
底
100
AcDbBlockReference
  2
*U30
 10
0.0
 20
0.0
 30
0.0
  0
POINT
  5
38D3
330
4BFD
100
AcDbEntity
  8
DEFPOINTS
 62
     0
100
AcDbPoint
 10
775.9981342353936
 20
-99.54955736204865
 30
0.0
  0
POINT
  5
38D4
330
4BFD
100
AcDbEntity
  8
DEFPOINTS
 62
     0
100
AcDbPoint
 10
865.9557252882359
 20
-99.54955736204865
 30
0.0
  0
POINT
  5
38D5
330
4BFD
100
AcDbEntity
  8
DEFPOINTS
 62
     0
100
AcDbPoint
 10
865.9557252882359
 20
-111.5495573620487
 30
0.0
  0
ENDBLK
  5
1C43
330
4BFD
100
AcDbEntity
  8
0
100
AcDbBlockEnd
  0
BLOCK
  5
4C00
330
4BFF
100
AcDbEntity
  8
0
100
AcDbBlockBegin
  2
*U30
 70
     1
 10
0.0
 20
0.0
 30
0.0
  3
*U30
  1

  0
TEXT
  5
3ED3
330
4BFF
100
AcDbEntity
  8
AM_5
100
AcDbText
 10
816.6729124368877
 20
-109.7495573620487
 30
0.0
 40
6.299999999999998
  1
90
100
AcDbText
  0
ENDBLK
  5
3ED5
330
4BFF
100
AcDbEntity
  8
0
100
AcDbBlockEnd
  0
BLOCK
  5
4C02
330
4C01
100
AcDbEntity
  8
0
100
AcDbBlockBegin
  2
*D31
 70
     1
 10
0.0
 20
0.0
 30
0.0
  3
*D31
  1

  0
LINE
  5
38D6
330
4C01
100
AcDbEntity
  8
AM_5
100
AcDbLine
 10
765.0033175511577
 20
-97.85120659888235
 30
0.0
 11
765.0033175511577
 21
-130.3495573620492
 31
0.0
  0
LINE
  5
38D7
330
4C01
100
AcDbEntity
  8
AM_5
100
AcDbLine
 10
876.9505419724721
 20
-97.85120659888235
 30
0.0
 11
876.9505419724721
 21
-130.3495573620492
 31
0.0
  0
LINE
  5
38D8
330
4C01
100
AcDbEntity
  8
AM_5
100
AcDbLine
 10
772.2033175511577
 20
-128.5495573620493
 30
0.0
 11
869.7505419724723
 21
-128.5495573620493
 31
0.0
  0
SOLID
  5
38D9
330
4C01
100
AcDbEntity
  8
AM_5
100
AcDbTrace
 10
772.2033175511577
 20
-127.3495573620493
 30
0.0
 11
772.2033175511577
 21
-129.7495573620492
 31
0.0
 12
765.0033175511577
 22
-128.5495573620493
 32
0.0
 13
765.0033175511577
 23
-128.5495573620493
 33
0.0
  0
SOLID
  5
38DA
330
4C01
100
AcDbEntity
  8
AM_5
100
AcDbTrace
 10
869.7505419724723
 20
-127.3495573620493
 30
0.0
 11
869.7505419724723
 21
-129.7495573620492
 31
0.0
 12
876.9505419724721
 22
-128.5495573620493
 32
0.0
 13
876.9505419724721
 23
-128.5495573620493
 33
0.0
  0
INSERT
  5
38DB
330
4C01
100
AcDbEntity
  8
底
100
AcDbBlockReference
  2
*U32
 10
0.0
 20
0.0
 30
0.0
  0
POINT
  5
38DC
330
4C01
100
AcDbEntity
  8
DEFPOINTS
 62
     0
100
AcDbPoint
 10
765.0033175511577
 20
-96.05120659888235
 30
0.0
  0
POINT
  5
38DD
330
4C01
100
AcDbEntity
  8
DEFPOINTS
 62
     0
100
AcDbPoint
 10
876.9505419724721
 20
-96.05120659888235
 30
0.0
  0
POINT
  5
38DE
330
4C01
100
AcDbEntity
  8
DEFPOINTS
 62
     0
100
AcDbPoint
 10
876.9505419724721
 20
-128.5495573620493
 30
0.0
  0
ENDBLK
  5
1C4F
330
4C01
100
AcDbEntity
  8
0
100
AcDbBlockEnd
  0
BLOCK
  5
4C04
330
4C03
100
AcDbEntity
  8
0
100
AcDbBlockBegin
  2
*U32
 70
     1
 10
0.0
 20
0.0
 30
0.0
  3
*U32
  1

  0
TEXT
  5
3ED7
330
4C03
100
AcDbEntity
  8
AM_5
100
AcDbText
 10
815.432743738193
 20
-126.7495573620493
 30
0.0
 40
6.299999999999998
  1
112
100
AcDbText
  0
ENDBLK
  5
3ED9
330
4C03
100
AcDbEntity
  8
0
100
AcDbBlockEnd
  0
BLOCK
  5
4C06
330
4C05
100
AcDbEntity
  8
0
100
AcDbBlockBegin
  2
*D33
 70
     1
 10
0.0
 20
0.0
 30
0.0
  3
*D33
  1

  0
LINE
  5
38DF
330
4C05
100
AcDbEntity
  8
AM_5
100
AcDbLine
 10
875.751955604044
 20
-35.5797148355831
 30
0.0
 11
890.7505429724723
 21
-35.57971483558311
 31
0.0
  0
LINE
  5
38E0
330
4C05
100
AcDbEntity
  8
AM_5
100
AcDbLine
 10
875.751955604044
 20
-91.55332704624049
 30
0.0
 11
890.7505429724723
 21
-91.55332704624049
 31
0.0
  0
LINE
  5
38E1
330
4C05
100
AcDbEntity
  8
AM_5
100
AcDbLine
 10
888.9505429724719
 20
-42.77971483558309
 30
0.0
 11
888.9505429724719
 21
-84.3533270462405
 31
0.0
  0
SOLID
  5
38E2
330
4C05
100
AcDbEntity
  8
AM_5
100
AcDbTrace
 10
887.7505429724722
 20
-42.77971483558309
 30
0.0
 11
890.1505429724723
 21
-42.77971483558309
 31
0.0
 12
888.9505429724719
 22
-35.57971483558311
 32
0.0
 13
888.9505429724719
 23
-35.57971483558311
 33
0.0
  0
SOLID
  5
38E3
330
4C05
100
AcDbEntity
  8
AM_5
100
AcDbTrace
 10
887.7505429724722
 20
-84.3533270462405
 30
0.0
 11
890.1505429724723
 21
-84.3533270462405
 31
0.0
 12
888.9505429724719
 22
-91.55332704624049
 32
0.0
 13
888.9505429724719
 23
-91.55332704624049
 33
0.0
  0
INSERT
  5
38E4
330
4C05
100
AcDbEntity
  8
底
100
AcDbBlockReference
  2
*U34
 10
0.0
 20
0.0
 30
0.0
  0
POINT
  5
38E5
330
4C05
100
AcDbEntity
  8
DEFPOINTS
 62
     0
100
AcDbPoint
 10
873.9519556040441
 20
-35.5797148355831
 30
0.0
  0
POINT
  5
38E6
330
4C05
100
AcDbEntity
  8
DEFPOINTS
 62
     0
100
AcDbPoint
 10
873.9519556040441
 20
-91.55332704624049
 30
0.0
  0
POINT
  5
38E7
330
4C05
100
AcDbEntity
  8
DEFPOINTS
 62
     0
100
AcDbPoint
 10
888.9505429724719
 20
-91.55332704624049
 30
0.0
  0
ENDBLK
  5
1C5B
330
4C05
100
AcDbEntity
  8
0
100
AcDbBlockEnd
  0
BLOCK
  5
4C08
330
4C07
100
AcDbEntity
  8
0
100
AcDbBlockBegin
  2
*U34
 70
     1
 10
0.0
 20
0.0
 30
0.0
  3
*U34
  1

  0
TEXT
  5
3EDB
330
4C07
100
AcDbEntity
  8
AM_5
100
AcDbText
 10
887.1505429724724
 20
-68.13278078343135
 30
0.0
 40
6.299999999999998
  1
56
 50
90.0
100
AcDbText
  0
ENDBLK
  5
3EDD
330
4C07
100
AcDbEntity
  8
0
100
AcDbBlockEnd
  0
BLOCK
  5
4C0A
330
4C09
100
AcDbEntity
  8
0
100
AcDbBlockBegin
  2
*D35
 70
     1
 10
0.0
 20
0.0
 30
0.0
  3
*D35
  1

  0
LINE
  5
38E8
330
4C09
100
AcDbEntity
  8
AM_5
100
AcDbLine
 10
873.7528980250923
 20
-101.0488505462624
 30
0.0
 11
907.7505429724723
 21
-101.0488505462624
 31
0.0
  0
LINE
  5
38E9
330
4C09
100
AcDbEntity
  8
AM_5
100
AcDbLine
 10
873.7528980250923
 20
-26.08419133556096
 30
0.0
 11
907.7505429724723
 21
-26.08419133556096
 31
0.0
  0
LINE
  5
38EA
330
4C09
100
AcDbEntity
  8
AM_5
100
AcDbLine
 10
905.9505429724721
 20
-93.8488505462624
 30
0.0
 11
905.9505429724721
 21
-33.28419133556096
 31
0.0
  0
SOLID
  5
38EB
330
4C09
100
AcDbEntity
  8
AM_5
100
AcDbTrace
 10
904.7505429724724
 20
-93.8488505462624
 30
0.0
 11
907.1505429724723
 21
-93.8488505462624
 31
0.0
 12
905.9505429724721
 22
-101.0488505462624
 32
0.0
 13
905.9505429724721
 23
-101.0488505462624
 33
0.0
  0
SOLID
  5
38EC
330
4C09
100
AcDbEntity
  8
AM_5
100
AcDbTrace
 10
904.7505429724724
 20
-33.28419133556096
 30
0.0
 11
907.1505429724723
 21
-33.28419133556096
 31
0.0
 12
905.9505429724721
 22
-26.08419133556096
 32
0.0
 13
905.9505429724721
 23
-26.08419133556096
 33
0.0
  0
INSERT
  5
38ED
330
4C09
100
AcDbEntity
  8
底
100
AcDbBlockReference
  2
*U36
 10
0.0
 20
0.0
 30
0.0
  0
POINT
  5
38EE
330
4C09
100
AcDbEntity
  8
DEFPOINTS
 62
     0
100
AcDbPoint
 10
871.9528980250922
 20
-101.0488505462624
 30
0.0
  0
POINT
  5
38EF
330
4C09
100
AcDbEntity
  8
DEFPOINTS
 62
     0
100
AcDbPoint
 10
871.9528980250922
 20
-26.08419133556096
 30
0.0
  0
POINT
  5
38F0
330
4C09
100
AcDbEntity
  8
DEFPOINTS
 62
     0
100
AcDbPoint
 10
905.9505429724721
 20
-26.08419133556096
 30
0.0
  0
ENDBLK
  5
1C67
330
4C09
100
AcDbEntity
  8
0
100
AcDbBlockEnd
  0
BLOCK
  5
4C0C
330
4C0B
100
AcDbEntity
  8
0
100
AcDbBlockBegin
  2
*U36
 70
     1
 10
0.0
 20
0.0
 30
0.0
  3
*U36
  1

  0
TEXT
  5
3EDF
330
4C0B
100
AcDbEntity
  8
AM_5
100
AcDbText
 10
904.1505429724724
 20
-68.10699821305906
 30
0.0
 40
6.299999999999998
  1
75
 50
90.0
100
AcDbText
  0
ENDBLK
  5
3EE1
330
4C0B
100
AcDbEntity
  8
0
100
AcDbBlockEnd
  0
BLOCK
  5
4C0E
330
4C0D
100
AcDbEntity
  8
0
100
AcDbBlockBegin
  2
*D37
 70
     1
 10
0.0
 20
0.0
 30
0.0
  3
*D37
  1

  0
LINE
  5
38FD
330
4C0D
100
AcDbEntity
  8
AM_5
100
AcDbLine
 10
875.7757115005507
 20
-101.8058489319874
 30
0.0
 11
886.3294197769103
 21
-112.8244107445766
 31
0.0
  0
LINE
  5
38FE
330
4C0D
100
AcDbEntity
  8
AM_5
100
AcDbLine
 10
886.3294197769103
 20
-112.8244107445766
 30
0.0
 11
924.6914340590242
 21
-112.8244107445766
 31
0.0
  0
SOLID
  5
38FF
330
4C0D
100
AcDbEntity
  8
AM_5
100
AcDbTrace
 10
876.6423231032588
 20
-100.9757981323054
 30
0.0
 11
874.9090998978433
 21
-102.6358997316693
 31
0.0
 12
870.7954067024594
 22
-96.60617931574181
 32
0.0
 13
870.7954067024594
 23
-96.60617931574181
 33
0.0
  0
INSERT
  5
3900
330
4C0D
100
AcDbEntity
  8
底
100
AcDbBlockReference
  2
*U38
 10
0.0
 20
0.0
 30
0.0
  0
POINT
  5
3901
330
4C0D
100
AcDbEntity
  8
DEFPOINTS
 62
     0
100
AcDbPoint
 10
870.7954067024594
 20
-96.60617931574181
 30
0.0
  0
POINT
  5
3902
330
4C0D
100
AcDbEntity
  8
DEFPOINTS
 62
     0
100
AcDbPoint
 10
861.1160438740139
 20
-86.50047477673963
 30
0.0
  0
ENDBLK
  5
1C72
330
4C0D
100
AcDbEntity
  8
0
100
AcDbBlockEnd
  0
BLOCK
  5
4C10
330
4C0F
100
AcDbEntity
  8
0
100
AcDbBlockBegin
  2
*U38
 70
     1
 10
0.0
 20
0.0
 30
0.0
  3
*U38
  1

  0
TEXT
  5
3EE7
330
4C0F
100
AcDbEntity
  8
AM_5
100
AcDbText
 10
887.1844197769101
 20
-111.0244107445767
 30
0.0
 40
6.299999999999998
  1
4-\U+22059 thru
100
AcDbText
  0
ENDBLK
  5
3EE9
330
4C0F
100
AcDbEntity
  8
0
100
AcDbBlockEnd
  0
BLOCK
  5
4C5A
330
4C59
100
AcDbEntity
  8
0
100
AcDbBlockBegin
  2
*U39
 70
     1
 10
0.0
 20
0.0
 30
0.0
  3
*U39
  1

  0
LINE
  5
3E09
330
4C59
100
AcDbEntity
  8
AM_5
100
AcDbLine
 10
887.4426458044091
 20
-122.1224297625027
 30
0.0
 11
960.8376458044091
 21
-122.1224297625027
 31
0.0
  0
TEXT
  5
3E0A
330
4C59
100
AcDbEntity
  8
AM_5
100
AcDbText
 10
887.4426458044091
 20
-120.8624297625027
 30
0.0
 40
6.299999999999998
  1
4*2-\U+220514 depth 5mm
100
AcDbText
  0
ENDBLK
  5
3E0C
330
4C59
100
AcDbEntity
  8
0
100
AcDbBlockEnd
  0
BLOCK
  5
4F99
330
4F8D
100
AcDbEntity
  8
0
100
AcDbBlockBegin
  2
*D41
 70
     1
 10
0.0
 20
0.0
 30
0.0
  3
*D41
  1

  0
LINE
  5
4FD8
330
4F8D
100
AcDbEntity
  8
AM_5
370
    -2
100
AcDbLine
 10
820.9732619846713
 20
128.1493554989695
 30
0.0
 11
820.9732619846713
 21
130.5411183698846
 31
0.0
  0
LINE
  5
4FD9
330
4F8D
100
AcDbEntity
  8
AM_5
370
    -2
100
AcDbLine
 10
831.9799258756447
 20
119.2478185451812
 30
0.0
 11
831.9799258756447
 21
130.5411183698846
 31
0.0
  0
LINE
  5
4FDA
330
4F8D
100
AcDbEntity
  8
AM_5
370
    -2
100
AcDbLine
 10
820.9732619846713
 20
128.7411183698846
 30
0.0
 11
831.9799258756447
 21
128.7411183698846
 31
0.0
  0
INSERT
  5
4FDB
330
4F8D
100
AcDbEntity
  8
AM_5
370
    -2
100
AcDbBlockReference
  2
_DOTSMALL
 10
820.9732619846713
 20
128.7411183698846
 30
0.0
 41
7.2
 42
7.2
 43
7.2
 50
180.0
  0
INSERT
  5
4FDC
330
4F8D
100
AcDbEntity
  8
AM_5
370
    -2
100
AcDbBlockReference
  2
_DOTSMALL
 10
831.9799258756447
 20
128.7411183698846
 30
0.0
 41
7.2
 42
7.2
 43
7.2
  0
MTEXT
  5
4FDD
330
4F8D
100
AcDbEntity
  8
AM_5
100
AcDbMText
 10
825.9776616060854
 20
133.6911183698846
 30
0.0
 40
6.299999999999999
 41
0.0
 71
     5
 72
     1
  1
\A1;11
 73
     1
 44
1.0
1001
ACAD
1000
MTEXTBEGIN
1070
    73
1070
     1
1070
    44
1040
1.0
1070
    74
1070
     0
1000
MTEXTEND
  0
POINT
  5
4FDE
330
4F8D
100
AcDbEntity
  8
DEFPOINTS
 62
     0
100
AcDbPoint
 10
820.9732619846713
 20
126.3493554989695
 30
0.0
  0
POINT
  5
4FDF
330
4F8D
100
AcDbEntity
  8
DEFPOINTS
 62
     0
100
AcDbPoint
 10
831.9799258756447
 20
117.4478185451812
 30
0.0
  0
POINT
  5
4FE0
330
4F8D
100
AcDbEntity
  8
DEFPOINTS
 62
     0
100
AcDbPoint
 10
831.9799258756447
 20
128.7411183698846
 30
0.0
  0
ENDBLK
  5
4F9A
330
4F8D
100
AcDbEntity
  8
0
100
AcDbBlockEnd
  0
BLOCK
  5
4FCC
330
4FC2
100
AcDbEntity
  8
0
100
AcDbBlockBegin
  2
*D42
 70
     1
 10
0.0
 20
0.0
 30
0.0
  3
*D42
  1

  0
LINE
  5
4FC3
330
4FC2
100
AcDbEntity
  8
AM_5
370
    -2
100
AcDbLine
 10
831.9799258756447
 20
119.2478185451812
 30
0.0
 11
831.9799258756447
 21
130.5411183698846
 31
0.0
  0
LINE
  5
4FC4
330
4FC2
100
AcDbEntity
  8
AM_5
370
    -2
100
AcDbLine
 10
847.9732619846712
 20
119.2478185451812
 30
0.0
 11
847.9732619846712
 21
130.5411183698846
 31
0.0
  0
LINE
  5
4FC5
330
4FC2
100
AcDbEntity
  8
AM_5
370
    -2
100
AcDbLine
 10
831.9799258756447
 20
128.7411183698846
 30
0.0
 11
847.9732619846712
 21
128.7411183698846
 31
0.0
  0
INSERT
  5
4FC6
330
4FC2
100
AcDbEntity
  8
AM_5
370
    -2
100
AcDbBlockReference
  2
_DOTSMALL
 10
831.9799258756447
 20
128.7411183698846
 30
0.0
 41
7.2
 42
7.2
 43
7.2
 50
180.0
  0
INSERT
  5
4FC7
330
4FC2
100
AcDbEntity
  8
AM_5
370
    -2
100
AcDbBlockReference
  2
_DOTSMALL
 10
847.9732619846712
 20
128.7411183698846
 30
0.0
 41
7.2
 42
7.2
 43
7.2
  0
MTEXT
  5
4FC8
330
4FC2
100
AcDbEntity
  8
AM_5
100
AcDbMText
 10
839.9765939301579
 20
133.6911183698846
 30
0.0
 40
6.299999999999999
 41
0.0
 71
     5
 72
     1
  1
\A1;16
 73
     1
 44
1.0
1001
ACAD
1000
MTEXTBEGIN
1070
    73
1070
     1
1070
    44
1040
1.0
1070
    74
1070
     0
1000
MTEXTEND
  0
POINT
  5
4FC9
330
4FC2
100
AcDbEntity
  8
DEFPOINTS
 62
     0
100
AcDbPoint
 10
831.9799258756447
 20
117.4478185451812
 30
0.0
  0
POINT
  5
4FCA
330
4FC2
100
AcDbEntity
  8
DEFPOINTS
 62
     0
100
AcDbPoint
 10
847.9732619846712
 20
117.4478185451812
 30
0.0
  0
POINT
  5
4FCB
330
4FC2
100
AcDbEntity
  8
DEFPOINTS
 62
     0
100
AcDbPoint
 10
847.9732619846712
 20
128.7411183698846
 30
0.0
  0
ENDBLK
  5
4FCD
330
4FC2
100
AcDbEntity
  8
0
100
AcDbBlockEnd
  0
ENDSEC
  0
SECTION
  2
ENTITIES
  0
LINE
  5
1387
330
4B13
100
AcDbEntity
  8
AM_7
100
AcDbLine
 10
820.9732619846713
 20
2.300262795426759
 30
0.0
 11
820.9732619846713
 21
164.5853889450568
 31
0.0
  0
LINE
  5
1388
330
4B13
100
AcDbEntity
  8
0
100
AcDbLine
 10
787.6061150031387
 20
126.3493554989695
 30
0.0
 11
854.3404089662042
 21
126.3493554989695
 31
0.0
  0
LINE
  5
1389
330
4B13
100
AcDbEntity
  8
0
100
AcDbLine
 10
764.9965856030783
 20
121.3514379648986
 30
0.0
 11
876.9499383662642
 21
121.3514379648986
 31
0.0
  0
LINE
  5
138A
330
4B13
100
AcDbEntity
  8
0
100
AcDbLine
 10
764.9965856030783
 20
101.3597678286155
 30
0.0
 11
876.9499383662642
 21
101.3597678286155
 31
0.0
  0
LINE
  5
138B
330
4B13
100
AcDbEntity
  8
0
100
AcDbLine
 10
787.4872145063971
 20
91.36393276047398
 30
0.0
 11
854.4593094629457
 21
91.36393276047398
 31
0.0
  0
LINE
  5
138C
330
4B13
100
AcDbEntity
  8
0
100
AcDbLine
 10
788.4872145063971
 20
6.399334681270261
 30
0.0
 11
853.4593094629459
 21
6.399334681270261
 31
0.0
  0
LINE
  5
138D
330
4B13
100
AcDbEntity
  8
0
100
AcDbLine
 10
788.4872145063971
 20
6.399334681270261
 30
0.0
 11
787.2232619846713
 21
101.3597678286155
 31
0.0
  0
LINE
  5
138E
330
4B13
100
AcDbEntity
  8
AM_7
100
AcDbLine
 10
775.9920041780342
 20
124.678029207598
 30
0.0
 11
775.9920041780342
 21
98.20680337812971
 31
0.0
  0
LINE
  5
138F
330
4B13
100
AcDbEntity
  8
0
100
AcDbLine
 10
787.6061150031387
 20
121.3514379648986
 30
0.0
 11
787.6061150031387
 21
126.3493554989695
 31
0.0
  0
LINE
  5
1390
330
4B13
100
AcDbEntity
  8
0
100
AcDbLine
 10
764.9965856030783
 20
101.3597678286155
 30
0.0
 11
764.9965856030783
 21
121.3514379648986
 31
0.0
  0
LINE
  5
1391
330
4B13
100
AcDbEntity
  8
AM_HID
  6
HIDDEN
100
AcDbLine
 10
768.9949196303349
 20
106.3576853626862
 30
0.0
 11
782.9890887257334
 21
106.3576853626862
 31
0.0
  0
LINE
  5
1392
330
4B13
100
AcDbEntity
  8
AM_HID
  6
HIDDEN
100
AcDbLine
 10
768.9949196303349
 20
116.3535204308277
 30
0.0
 11
782.9890887257334
 21
116.3535204308277
 31
0.0
  0
LINE
  5
1393
330
4B13
100
AcDbEntity
  8
AM_HID
  6
HIDDEN
100
AcDbLine
 10
768.9949196303349
 20
106.3576853626862
 30
0.0
 11
768.9949196303349
 21
101.3597678286155
 31
0.0
  0
LINE
  5
1394
330
4B13
100
AcDbEntity
  8
AM_HID
  6
HIDDEN
100
AcDbLine
 10
771.4938783973702
 20
116.3535204308277
 30
0.0
 11
771.4938783973705
 21
106.3576853626862
 31
0.0
  0
LINE
  5
1395
330
4B13
100
AcDbEntity
  8
AM_HID
  6
HIDDEN
100
AcDbLine
 10
768.9949196303349
 20
121.3514379648986
 30
0.0
 11
768.9949196303349
 21
116.3535204308277
 31
0.0
  0
LINE
  5
1396
330
4B13
100
AcDbEntity
  8
AM_HID
  6
HIDDEN
100
AcDbLine
 10
782.9890887257334
 20
106.3576853626862
 30
0.0
 11
782.9890887257334
 21
101.3597678286155
 31
0.0
  0
LINE
  5
1397
330
4B13
100
AcDbEntity
  8
AM_HID
  6
HIDDEN
100
AcDbLine
 10
780.4901299586978
 20
116.3535204308277
 30
0.0
 11
780.4901299586978
 21
106.3576853626862
 31
0.0
  0
LINE
  5
1398
330
4B13
100
AcDbEntity
  8
AM_HID
  6
HIDDEN
100
AcDbLine
 10
782.9890887257334
 20
121.3514379648986
 30
0.0
 11
782.9890887257334
 21
116.3535204308277
 31
0.0
  0
LINE
  5
1399
330
4B13
100
AcDbEntity
  8
0
100
AcDbLine
 10
853.4593094629459
 20
6.399334681270261
 30
0.0
 11
854.7232619846713
 21
101.3597678286155
 31
0.0
  0
LINE
  5
139A
330
4B13
100
AcDbEntity
  8
0
100
AcDbLine
 10
840.9649321209547
 20
50.38100898109314
 30
0.0
 11
840.9649321209547
 21
86.36601522640306
 31
0.0
  0
LINE
  5
139B
330
4B13
100
AcDbEntity
  8
0
100
AcDbLine
 10
848.1926018169072
 20
6.399334681270261
 30
0.0
 11
848.1926018169072
 21
91.36393276047398
 31
0.0
  0
LINE
  5
139C
330
4B13
100
AcDbEntity
  8
0
100
AcDbLine
 10
807.47888464268
 20
31.38892235162416
 30
0.0
 11
807.47888464268
 21
69.37309561056236
 31
0.0
  0
LINE
  5
139D
330
4B13
100
AcDbEntity
  8
0
100
AcDbLine
 10
800.981591848388
 20
31.38892235162427
 30
0.0
 11
800.981591848388
 21
68.37351210374823
 31
0.0
  0
LINE
  5
139E
330
4B13
100
AcDbEntity
  8
0
100
AcDbLine
 10
834.4676393266627
 20
49.38142547427901
 30
0.0
 11
834.4676393266627
 21
87.36559873321722
 31
0.0
  0
LINE
  5
139F
330
4B13
100
AcDbEntity
  8
0
100
AcDbLine
 10
793.7539221524355
 20
6.399334681270261
 30
0.0
 11
793.7539221524355
 21
91.36393276047398
 31
0.0
  0
ARC
  5
13A0
330
4B13
100
AcDbEntity
  8
0
100
AcDbCircle
 10
839.9653486141405
 20
46.68255000588088
 30
0.0
 40
0.9995835068141603
100
AcDbArc
 50
0.0
 51
90.0
  0
ARC
  5
13A1
330
4B13
100
AcDbEntity
  8
0
100
AcDbCircle
 10
839.9653486141405
 20
50.38100898109314
 30
0.0
 40
0.9995835068141603
100
AcDbArc
 50
270.0
 51
0.0
  0
LINE
  5
13A2
330
4B13
100
AcDbEntity
  8
0
100
AcDbLine
 10
798.4826330813525
 20
26.39100481755338
 30
0.0
 11
843.46389088799
 21
26.39100481755338
 31
0.0
  0
LINE
  5
13A3
330
4B13
100
AcDbEntity
  8
0
100
AcDbLine
 10
798.4826330813525
 20
12.39683572215517
 30
0.0
 11
843.46389088799
 21
12.39683572215517
 31
0.0
  0
LINE
  5
13A4
330
4B13
100
AcDbEntity
  8
0
100
AcDbLine
 10
800.981591848388
 20
31.38892235162427
 30
0.0
 11
840.9649321209547
 21
31.38892235162416
 31
0.0
  0
LINE
  5
13A5
330
4B13
100
AcDbEntity
  8
AM_7
100
AcDbLine
 10
830.9690970528132
 20
39.38559040613745
 30
0.0
 11
840.9649321209547
 21
39.38559040613745
 31
0.0
  0
LINE
  5
13A6
330
4B13
100
AcDbEntity
  8
0
100
AcDbLine
 10
797.4830495745385
 20
13.39641922896942
 30
0.0
 11
797.4830495745385
 21
25.39142131073925
 31
0.0
  0
ARC
  5
13A7
330
4B13
100
AcDbEntity
  8
0
100
AcDbCircle
 10
798.4826330813525
 20
13.39641922896942
 30
0.0
 40
0.9995835068141603
100
AcDbArc
 50
180.0
 51
270.0
  0
ARC
  5
13A8
330
4B13
100
AcDbEntity
  8
0
100
AcDbCircle
 10
798.4826330813525
 20
25.39142131073925
 30
0.0
 40
0.9995835068141603
100
AcDbArc
 50
90.0
 51
180.0
  0
ARC
  5
13A9
330
4B13
100
AcDbEntity
  8
0
100
AcDbCircle
 10
835.967014586884
 20
39.38559040613745
 30
0.0
 40
1.999167013628319
100
AcDbArc
 50
262.074046331738
 51
190.3030975703078
  0
LINE
  5
13AA
330
4B13
100
AcDbEntity
  8
AM_7
100
AcDbLine
 10
835.967014586884
 20
44.38350794020833
 30
0.0
 11
835.967014586884
 21
34.38767287206668
 31
0.0
  0
CIRCLE
  5
13AB
330
4B13
100
AcDbEntity
  8
0
100
AcDbCircle
 10
835.967014586884
 20
39.38559040613745
 30
0.0
 40
1.649312786243364
  0
LINE
  5
13AC
330
4B13
100
AcDbEntity
  8
0
100
AcDbLine
 10
830.9690970528132
 20
31.38892235162416
 30
0.0
 11
830.9690970528132
 21
49.38142547427901
 31
0.0
  0
LINE
  5
13AD
330
4B13
100
AcDbEntity
  8
0
100
AcDbLine
 10
830.9690970528132
 20
49.38142547427901
 30
0.0
 11
839.9653486141405
 21
49.38142547427901
 31
0.0
  0
LINE
  5
13AE
330
4B13
100
AcDbEntity
  8
0
100
AcDbLine
 10
830.9690970528132
 20
47.68213351269504
 30
0.0
 11
839.9653486141405
 21
47.68213351269504
 31
0.0
  0
LINE
  5
13AF
330
4B13
100
AcDbEntity
  8
0
100
AcDbLine
 10
844.4634743948039
 20
13.39641922896942
 30
0.0
 11
844.4634743948039
 21
25.39142131073925
 31
0.0
  0
ARC
  5
13B0
330
4B13
100
AcDbEntity
  8
0
100
AcDbCircle
 10
843.46389088799
 20
13.39641922896942
 30
0.0
 40
0.9995835068141603
100
AcDbArc
 50
270.0
 51
0.0
  0
LINE
  5
13B1
330
4B13
100
AcDbEntity
  8
0
100
AcDbLine
 10
840.9649321209547
 20
31.38892235162416
 30
0.0
 11
840.9649321209547
 21
46.68255000588088
 31
0.0
  0
ARC
  5
13B2
330
4B13
100
AcDbEntity
  8
0
100
AcDbCircle
 10
843.46389088799
 20
25.39142131073925
 30
0.0
 40
0.9995835068141603
100
AcDbArc
 50
0.0
 51
90.0
  0
ARC
  5
13B3
330
4B13
100
AcDbEntity
  8
0
100
AcDbCircle
 10
839.9653486141405
 20
86.36601522640306
 30
0.0
 40
0.9995835068141603
100
AcDbArc
 50
0.0
 51
90.0
  0
LINE
  5
13B4
330
4B13
100
AcDbEntity
  8
0
100
AcDbLine
 10
801.981175355203
 20
87.36559873321722
 30
0.0
 11
839.9653486141405
 21
87.36559873321722
 31
0.0
  0
LINE
  5
13B5
330
4B13
100
AcDbEntity
  8
0
100
AcDbLine
 10
801.981175355203
 20
69.37309561056236
 30
0.0
 11
810.9774269165296
 21
69.37309561056236
 31
0.0
  0
LINE
  5
13B6
330
4B13
100
AcDbEntity
  8
AM_7
100
AcDbLine
 10
800.981591848388
 20
79.36893067870392
 30
0.0
 11
810.9774269165296
 21
79.36893067870392
 31
0.0
  0
LINE
  5
13B7
330
4B13
100
AcDbEntity
  8
0
100
AcDbLine
 10
801.981175355203
 20
71.07238757214645
 30
0.0
 11
810.9774269165296
 21
71.07238757214645
 31
0.0
  0
LINE
  5
13B8
330
4B13
100
AcDbEntity
  8
0
100
AcDbLine
 10
800.981591848388
 20
72.07197107896059
 30
0.0
 11
800.981591848388
 21
86.36601522640306
 31
0.0
  0
ARC
  5
13B9
330
4B13
100
AcDbEntity
  8
0
100
AcDbCircle
 10
801.981175355203
 20
68.37351210374823
 30
0.0
 40
0.9995835068141603
100
AcDbArc
 50
90.0
 51
180.0
  0
ARC
  5
13BA
330
4B13
100
AcDbEntity
  8
0
100
AcDbCircle
 10
801.981175355203
 20
72.07197107896059
 30
0.0
 40
0.9995835068141603
100
AcDbArc
 50
180.0
 51
270.0
  0
ARC
  5
13BB
330
4B13
100
AcDbEntity
  8
0
100
AcDbCircle
 10
801.981175355203
 20
86.36601522640306
 30
0.0
 40
0.9995835068141603
100
AcDbArc
 50
90.0
 51
180.0
  0
LINE
  5
13BC
330
4B13
100
AcDbEntity
  8
0
100
AcDbLine
 10
810.9774269165296
 20
69.37309561056236
 30
0.0
 11
810.9774269165296
 21
87.36559873321722
 31
0.0
  0
ARC
  5
13BD
330
4B13
100
AcDbEntity
  8
0
100
AcDbCircle
 10
805.9795093824588
 20
79.36893067870392
 30
0.0
 40
1.999167013628319
100
AcDbArc
 50
258.6089954726809
 51
193.861634102868
  0
CIRCLE
  5
13BE
330
4B13
100
AcDbEntity
  8
0
100
AcDbCircle
 10
805.9795093824588
 20
79.36893067870392
 30
0.0
 40
1.649312786243364
  0
LINE
  5
13BF
330
4B13
100
AcDbEntity
  8
AM_7
100
AcDbLine
 10
805.9795093824588
 20
84.36684821277481
 30
0.0
 11
805.9795093824588
 21
74.37101314463301
 31
0.0
  0
LINE
  5
13C0
330
4B13
100
AcDbEntity
  8
AM_7
100
AcDbLine
 10
865.9545197913088
 20
124.678029207598
 30
0.0
 11
865.9545197913088
 21
98.20680337812971
 31
0.0
  0
LINE
  5
13C1
330
4B13
100
AcDbEntity
  8
0
100
AcDbLine
 10
854.3404089662042
 20
121.3514379648986
 30
0.0
 11
854.3404089662042
 21
126.3493554989695
 31
0.0
  0
LINE
  5
13C2
330
4B13
100
AcDbEntity
  8
AM_HID
  6
HIDDEN
100
AcDbLine
 10
858.9574352436095
 20
106.3576853626862
 30
0.0
 11
872.9516043390079
 21
106.3576853626862
 31
0.0
  0
LINE
  5
13C3
330
4B13
100
AcDbEntity
  8
AM_HID
  6
HIDDEN
100
AcDbLine
 10
858.9574352436095
 20
116.3535204308277
 30
0.0
 11
872.9516043390079
 21
116.3535204308277
 31
0.0
  0
LINE
  5
13C4
330
4B13
100
AcDbEntity
  8
AM_HID
  6
HIDDEN
100
AcDbLine
 10
858.9574352436095
 20
106.3576853626862
 30
0.0
 11
858.9574352436095
 21
101.3597678286155
 31
0.0
  0
LINE
  5
13C5
330
4B13
100
AcDbEntity
  8
AM_HID
  6
HIDDEN
100
AcDbLine
 10
858.9574352436095
 20
121.3514379648986
 30
0.0
 11
858.9574352436095
 21
116.3535204308277
 31
0.0
  0
LINE
  5
13C6
330
4B13
100
AcDbEntity
  8
AM_HID
  6
HIDDEN
100
AcDbLine
 10
861.4563940106449
 20
116.3535204308277
 30
0.0
 11
861.4563940106449
 21
106.3576853626862
 31
0.0
  0
LINE
  5
13C7
330
4B13
100
AcDbEntity
  8
AM_HID
  6
HIDDEN
100
AcDbLine
 10
872.9516043390079
 20
106.3576853626862
 30
0.0
 11
872.9516043390079
 21
101.3597678286155
 31
0.0
  0
LINE
  5
13C8
330
4B13
100
AcDbEntity
  8
0
100
AcDbLine
 10
876.9499383662642
 20
101.3597678286155
 30
0.0
 11
876.9499383662642
 21
121.3514379648986
 31
0.0
  0
LINE
  5
13C9
330
4B13
100
AcDbEntity
  8
AM_HID
  6
HIDDEN
100
AcDbLine
 10
870.4526455719726
 20
116.3535204308277
 30
0.0
 11
870.4526455719726
 21
106.3576853626862
 31
0.0
  0
LINE
  5
13CA
330
4B13
100
AcDbEntity
  8
AM_HID
  6
HIDDEN
100
AcDbLine
 10
872.9516043390079
 20
121.3514379648986
 30
0.0
 11
872.9516043390079
 21
116.3535204308277
 31
0.0
  0
LINE
  5
13CB
330
4B13
100
AcDbEntity
  8
AM_7
100
AcDbLine
 10
970.1830878939327
 20
3.900883800666859
 30
0.0
 11
970.1830878939327
 21
73.01471169441653
 31
0.0
  0
LINE
  5
13CC
330
4B13
100
AcDbEntity
  8
0
 62
     7
100
AcDbLine
 10
932.6987063884017
 20
101.3519242131642
 30
0.0
 11
1007.667469399463
 21
101.3519242131642
 31
0.0
  0
LINE
  5
13CD
330
4B13
100
AcDbEntity
  8
0
100
AcDbLine
 10
938.1964156758796
 20
91.35608914502244
 30
0.0
 11
1002.169760111986
 21
91.35608914502244
 31
0.0
  0
LINE
  5
13CE
330
4B13
100
AcDbEntity
  8
0
100
AcDbLine
 10
938.1964156758796
 20
6.391491065818852
 30
0.0
 11
1002.169760111986
 21
6.391491065818852
 31
0.0
  0
LINE
  5
13CF
330
4B13
100
AcDbEntity
  8
0
 62
     7
100
AcDbLine
 10
932.6987063884017
 20
121.3435943494473
 30
0.0
 11
1007.667469399463
 21
121.3435943494473
 31
0.0
  0
LINE
  5
13D0
330
4B13
100
AcDbEntity
  8
0
100
AcDbLine
 10
942.9637480616968
 20
6.391491065818852
 30
0.0
 11
942.9637480616968
 21
91.35608914502244
 31
0.0
  0
LINE
  5
13D1
330
4B13
100
AcDbEntity
  8
0
100
AcDbLine
 10
937.9330878939324
 20
101.3519242131642
 30
0.0
 11
938.1964156758796
 21
6.391491065818852
 31
0.0
  0
LINE
  5
13D2
330
4B13
100
AcDbEntity
  8
0
 62
     7
100
AcDbLine
 10
936.8159409124
 20
121.3435943494473
 30
0.0
 11
936.8159409124
 21
126.341511883518
 31
0.0
  0
LINE
  5
13D3
330
4B13
100
AcDbEntity
  8
0
 62
     7
100
AcDbLine
 10
932.6987063884017
 20
121.3435943494473
 30
0.0
 11
932.6987063884017
 21
101.3519242131642
 31
0.0
  0
LINE
  5
13D4
330
4B13
100
AcDbEntity
  8
0
 62
     7
100
AcDbLine
 10
951.1910012644632
 20
118.3448438290049
 30
0.0
 11
955.1893352917204
 21
118.3448438290049
 31
0.0
  0
LINE
  5
13D5
330
4B13
100
AcDbEntity
  8
0
 62
     7
100
AcDbLine
 10
951.1910012644632
 20
114.3465098017482
 30
0.0
 11
955.18933529172
 21
114.3465098017482
 31
0.0
  0
CIRCLE
  5
13D6
330
4B13
100
AcDbEntity
  8
0
 62
     7
100
AcDbCircle
 10
952.1905847712778
 20
105.1003623637173
 30
0.0
 40
1.2494793835177
  0
ARC
  5
13D7
330
4B13
100
AcDbEntity
  8
0
 62
     3
100
AcDbCircle
 10
952.1905847712778
 20
105.1003623637173
 30
0.0
 40
1.499375260221238
100
AcDbArc
 50
262.689460119311
 51
187.0622774560978
  0
LINE
  5
13D8
330
4B13
100
AcDbEntity
  8
0
 62
     7
100
AcDbLine
 10
951.1910012644632
 20
118.3448438290049
 30
0.0
 11
951.1910012644632
 21
114.3465098017482
 31
0.0
  0
TEXT
  5
13D9
330
4B13
100
AcDbEntity
  8
0
 62
     7
100
AcDbText
 10
986.1124954836924
 20
104.8568132248324
 30
0.0
 40
2.998750520442481
  1
2
  7
DAYUS
100
AcDbText
  0
POLYLINE
  5
13DA
330
4B13
100
AcDbEntity
  8
0
 62
     7
100
AcDb2dPolyline
 66
     1
 10
0.0
 20
0.0
 30
0.0
 70
     1
  0
VERTEX
  5
13DB
330
13DA
100
AcDbEntity
  8
0
 62
     7
100
AcDbVertex
100
AcDb2dVertex
 10
964.7834139697344
 20
112.8471345415269
 30
0.0
  0
VERTEX
  5
13DC
330
13DA
100
AcDbEntity
  8
0
 62
     7
100
AcDbVertex
100
AcDb2dVertex
 10
962.1864198394192
 20
114.3465098017482
 30
0.0
  0
VERTEX
  5
13DD
330
13DA
100
AcDbEntity
  8
0
 62
     7
100
AcDbVertex
100
AcDb2dVertex
 10
959.5894257091041
 20
112.8471345415269
 30
0.0
  0
VERTEX
  5
13DE
330
13DA
100
AcDbEntity
  8
0
 62
     7
100
AcDbVertex
100
AcDb2dVertex
 10
959.5894257091041
 20
109.8483840210844
 30
0.0
  0
VERTEX
  5
13DF
330
13DA
100
AcDbEntity
  8
0
 62
     7
100
AcDbVertex
100
AcDb2dVertex
 10
962.1864198394192
 20
108.3490087608631
 30
0.0
  0
VERTEX
  5
13E0
330
13DA
100
AcDbEntity
  8
0
 62
     7
100
AcDbVertex
100
AcDb2dVertex
 10
964.7834139697344
 20
109.8483840210844
 30
0.0
  0
SEQEND
  5
13E1
330
13DA
100
AcDbEntity
  8
0
 62
     7
  0
CIRCLE
  5
13E2
330
4B13
100
AcDbEntity
  8
0
 62
     7
100
AcDbCircle
 10
962.1864198394192
 20
111.3477592813058
 30
0.0
 40
4.24822990396018
  0
CIRCLE
  5
13E3
330
4B13
100
AcDbEntity
  8
0
 62
     7
100
AcDbCircle
 10
962.1864198394192
 20
111.3477592813058
 30
0.0
 40
4.861974177144077
  0
LINE
  5
13E4
330
4B13
100
AcDbEntity
  8
0
 62
     7
100
AcDbLine
 10
955.1893352917204
 20
118.3448438290049
 30
0.0
 11
955.18933529172
 21
114.3465098017482
 31
0.0
  0
LINE
  5
13E5
330
4B13
100
AcDbEntity
  8
AM_7
100
AcDbLine
 10
962.1864198394192
 20
104.7510127308703
 30
0.0
 11
962.1864198394192
 21
117.8219216546474
 31
0.0
  0
LINE
  5
13E6
330
4B13
100
AcDbEntity
  8
0
 62
     7
100
AcDbLine
 10
936.8159409124
 20
126.341511883518
 30
0.0
 11
946.1830878939323
 21
126.341511883518
 31
0.0
  0
LINE
  5
13E7
330
4B13
100
AcDbEntity
  8
0
100
AcDbLine
 10
997.402427726168
 20
6.391491065818852
 30
0.0
 11
997.402427726168
 21
91.35608914502244
 31
0.0
  0
LINE
  5
13E8
330
4B13
100
AcDbEntity
  8
0
100
AcDbLine
 10
1002.433087893932
 20
101.3519242131642
 30
0.0
 11
1002.169760111986
 21
6.391491065818852
 31
0.0
  0
LINE
  5
13E9
330
4B13
100
AcDbEntity
  8
0
 62
     7
100
AcDbLine
 10
1003.550234875465
 20
121.3435943494473
 30
0.0
 11
1003.550234875465
 21
126.341511883518
 31
0.0
  0
POLYLINE
  5
13EA
330
4B13
100
AcDbEntity
  8
0
 62
     7
100
AcDb2dPolyline
 66
     1
 10
0.0
 20
0.0
 30
0.0
 70
     1
  0
VERTEX
  5
13EB
330
13EA
100
AcDbEntity
  8
0
 62
     7
100
AcDbVertex
100
AcDb2dVertex
 10
980.776750078761
 20
112.8471345415269
 30
0.0
  0
VERTEX
  5
13EC
330
13EA
100
AcDbEntity
  8
0
 62
     7
100
AcDbVertex
100
AcDb2dVertex
 10
978.1797559484456
 20
114.3465098017482
 30
0.0
  0
VERTEX
  5
13ED
330
13EA
100
AcDbEntity
  8
0
 62
     7
100
AcDbVertex
100
AcDb2dVertex
 10
975.582761818131
 20
112.8471345415269
 30
0.0
  0
VERTEX
  5
13EE
330
13EA
100
AcDbEntity
  8
0
 62
     7
100
AcDbVertex
100
AcDb2dVertex
 10
975.582761818131
 20
109.8483840210844
 30
0.0
  0
VERTEX
  5
13EF
330
13EA
100
AcDbEntity
  8
0
 62
     7
100
AcDbVertex
100
AcDb2dVertex
 10
978.1797559484456
 20
108.3490087608631
 30
0.0
  0
VERTEX
  5
13F0
330
13EA
100
AcDbEntity
  8
0
 62
     7
100
AcDbVertex
100
AcDb2dVertex
 10
980.776750078761
 20
109.8483840210844
 30
0.0
  0
SEQEND
  5
13F1
330
13EA
100
AcDbEntity
  8
0
 62
     7
  0
CIRCLE
  5
13F2
330
4B13
100
AcDbEntity
  8
0
 62
     7
100
AcDbCircle
 10
978.1797559484456
 20
111.3477592813058
 30
0.0
 40
4.24822990396018
  0
CIRCLE
  5
13F3
330
4B13
100
AcDbEntity
  8
0
 62
     7
100
AcDbCircle
 10
978.1797559484456
 20
111.3477592813058
 30
0.0
 40
4.861974177144077
  0
LINE
  5
13F4
330
4B13
100
AcDbEntity
  8
AM_7
100
AcDbLine
 10
978.1797559484456
 20
105.0956607165851
 30
0.0
 11
978.1797559484456
 21
117.8194983984192
 31
0.0
  0
TEXT
  5
13F5
330
4B13
100
AcDbEntity
  8
0
 62
     7
100
AcDbText
 10
952.4111057465251
 20
114.8728066949611
 30
0.0
 40
2.998750520442481
  1
1
  7
DAYUS
100
AcDbText
  0
LINE
  5
13F6
330
4B13
100
AcDbEntity
  8
0
 62
     7
100
AcDbLine
 10
989.1751745234019
 20
108.3490087608631
 30
0.0
 11
989.1751745234019
 21
104.3506747336065
 31
0.0
  0
LINE
  5
13F7
330
4B13
100
AcDbEntity
  8
0
 62
     7
100
AcDbLine
 10
985.1768404961445
 20
108.3490087608631
 30
0.0
 11
985.1768404961445
 21
104.3506747336065
 31
0.0
  0
LINE
  5
13F8
330
4B13
100
AcDbEntity
  8
0
 62
     7
100
AcDbLine
 10
985.1768404961445
 20
104.3506747336065
 30
0.0
 11
989.1751745234019
 21
104.3506747336065
 31
0.0
  0
LINE
  5
13F9
330
4B13
100
AcDbEntity
  8
0
 62
     7
100
AcDbLine
 10
985.1768404961445
 20
108.3490087608631
 30
0.0
 11
989.1751745234019
 21
108.3490087608631
 31
0.0
  0
CIRCLE
  5
13FA
330
4B13
100
AcDbEntity
  8
0
 62
     7
100
AcDbCircle
 10
988.1755910165875
 20
117.5951561988943
 30
0.0
 40
1.2494793835177
  0
ARC
  5
13FB
330
4B13
100
AcDbEntity
  8
0
 62
     3
100
AcDbCircle
 10
988.1755910165875
 20
117.5951561988943
 30
0.0
 40
1.499375260221238
100
AcDbArc
 50
263.4791480213012
 51
192.422368182148
  0
LINE
  5
13FC
330
4B13
100
AcDbEntity
  8
0
 62
     7
100
AcDbLine
 10
1007.667469399463
 20
121.3435943494473
 30
0.0
 11
1007.667469399463
 21
101.3519242131642
 31
0.0
  0
LINE
  5
13FD
330
4B13
100
AcDbEntity
  8
0
 62
     7
100
AcDbLine
 10
994.1830878939324
 20
126.341511883518
 30
0.0
 11
1003.550234875465
 21
126.341511883518
 31
0.0
  0
CIRCLE
  5
13FE
330
4B13
100
AcDbEntity
  8
0
 62
     7
100
AcDbCircle
 10
868.9543116566644
 20
-63.56652094091169
 30
0.0
 40
2.19896333684725
  0
ARC
  5
13FF
330
4B13
100
AcDbEntity
  8
0
 62
     7
100
AcDbCircle
 10
868.9543116566644
 20
-63.56652094091169
 30
0.0
 40
4.997643947380112
100
AcDbArc
 50
94.0960437581514
 51
265.9039562418485
  0
CIRCLE
  5
1400
330
4B13
100
AcDbEntity
  8
0
 62
     7
100
AcDbCircle
 10
772.999547866966
 20
-63.56652094091169
 30
0.0
 40
2.19896333684725
  0
ARC
  5
1401
330
4B13
100
AcDbEntity
  8
0
 62
     7
100
AcDbCircle
 10
772.999547866966
 20
-63.56652094091169
 30
0.0
 40
4.997643947380112
100
AcDbArc
 50
274.0960437581514
 51
85.90395624184861
  0
LINE
  5
1402
330
4B13
100
AcDbEntity
  8
0
 62
     7
100
AcDbLine
 10
765.0033175511575
 20
-31.08183528294115
 30
0.0
 11
765.0033175511577
 21
-96.05120659888235
 31
0.0
  0
LINE
  5
1403
330
4B13
100
AcDbEntity
  8
0
 62
     7
100
AcDbLine
 10
787.4927153143683
 20
-37.59800123590764
 30
0.0
 11
787.4927153143683
 21
-89.53504064591585
 31
0.0
  0
LINE
  5
1404
330
4B13
100
AcDbEntity
  8
AM_7
100
AcDbLine
 10
820.9769297618148
 20
-21.54977602116048
 30
0.0
 11
820.9769297618148
 21
-103.4801686613197
 31
0.0
  0
LINE
  5
1405
330
4B13
100
AcDbEntity
  8
0
 62
     7
100
AcDbLine
 10
854.4611442092621
 20
-37.59800123590764
 30
0.0
 11
854.4611442092621
 21
-89.53504064591585
 31
0.0
  0
LINE
  5
1406
330
4B13
100
AcDbEntity
  8
0
 62
     7
100
AcDbLine
 10
876.9505419724721
 20
-31.08183528294115
 30
0.0
 11
876.9505419724721
 21
-96.05120659888235
 31
0.0
  0
ARC
  5
1407
330
4B13
100
AcDbEntity
  8
0
100
AcDbCircle
 10
820.9769297618148
 20
-63.5665209409118
 30
0.0
 40
20.49146189583773
100
AcDbArc
 50
328.1365587869432
 51
31.86344121305687
  0
ARC
  5
1408
330
4B13
100
AcDbEntity
  8
0
100
AcDbCircle
 10
820.9769297618148
 20
-63.5665209409118
 30
0.0
 40
20.49146189583773
100
AcDbArc
 50
148.1365587869431
 51
211.8634412130568
  0
CIRCLE
  5
1409
330
4B13
100
AcDbEntity
  8
0
100
AcDbCircle
 10
820.9769297618148
 20
-63.5665209409118
 30
0.0
 40
5.497709289127196
  0
CIRCLE
  5
140A
330
4B13
100
AcDbEntity
  8
AM_7
100
AcDbCircle
 10
820.9769297618148
 20
-63.56652094091202
 30
0.0
 40
22.4906289100658
  0
LINE
  5
140B
330
4B13
100
AcDbEntity
  8
0
100
AcDbLine
 10
850.4646432216789
 20
-49.57235184131537
 30
0.0
 11
850.4646432216789
 21
-77.56069004050835
 31
0.0
  0
LINE
  5
140C
330
4B13
100
AcDbEntity
  8
AM_7
100
AcDbLine
 10
791.00808924913
 20
-33.59768042822704
 30
0.0
 11
825.5250082804501
 21
-68.11459945954675
 31
0.0
  0
LINE
  5
140D
330
4B13
100
AcDbEntity
  8
AM_7
100
AcDbLine
 10
791.00808924913
 20
-93.53536145359669
 30
0.0
 11
850.9457702744999
 21
-33.59768042822704
 31
0.0
  0
LINE
  5
140E
330
4B13
100
AcDbEntity
  8
0
100
AcDbLine
 10
791.4892163019508
 20
-49.57235184131537
 30
0.0
 11
791.4892163019508
 21
-77.56069004050835
 31
0.0
  0
LINE
  5
140F
330
4B13
100
AcDbEntity
  8
0
 62
     7
100
AcDbLine
 10
848.744228116446
 20
-95.55144220414446
 30
0.0
 11
793.2096314071833
 21
-95.55144220414446
 31
0.0
  0
LINE
  5
1410
330
4B13
100
AcDbEntity
  8
0
 62
     7
100
AcDbLine
 10
871.9528980250922
 20
-101.0488505462624
 30
0.0
 11
770.0009614985378
 21
-101.0488505462624
 31
0.0
  0
LINE
  5
1411
330
4B13
100
AcDbEntity
  8
0
100
AcDbLine
 10
800.6214501760352
 20
-78.97431459299342
 30
0.0
 11
803.3601389453604
 21
-76.2356258236681
 31
0.0
  0
LINE
  5
1412
330
4B13
100
AcDbEntity
  8
AM_7
100
AcDbLine
 10
775.9981342353936
 20
-89.55426946728822
 30
0.0
 11
775.9981342353936
 21
-83.55709673043213
 31
0.0
  0
CIRCLE
  5
1413
330
4B13
100
AcDbEntity
  8
0
 62
     7
100
AcDbCircle
 10
775.9981342353936
 20
-91.55332704624049
 30
0.0
 40
6.996701526332156
  0
CIRCLE
  5
1414
330
4B13
100
AcDbEntity
  8
0
 62
     7
100
AcDbCircle
 10
775.9981342353936
 20
-91.55332704624049
 30
0.0
 40
4.497879552642101
  0
LINE
  5
1415
330
4B13
100
AcDbEntity
  8
AM_7
100
AcDbLine
 10
795.9873420839636
 20
-82.55860757607853
 30
0.0
 11
795.9873420839636
 21
-94.55360966144699
 31
0.0
  0
CIRCLE
  5
1416
330
4B13
100
AcDbEntity
  8
0
100
AcDbCircle
 10
795.9873420839636
 20
-88.55610861876266
 30
0.0
 40
5.497709289127196
  0
CIRCLE
  5
1417
330
4B13
100
AcDbEntity
  8
0
100
AcDbCircle
 10
795.9873420839636
 20
-88.55610861876266
 30
0.0
 40
2.998750521342106
  0
LINE
  5
1418
330
4B13
100
AcDbEntity
  8
AM_7
100
AcDbLine
 10
777.9971918143464
 20
-91.55332704624049
 30
0.0
 11
783.9943645512022
 21
-91.55332704624049
 31
0.0
  0
ARC
  5
1419
330
4B13
100
AcDbEntity
  8
0
 62
     7
100
AcDbCircle
 10
770.0009614985378
 20
-96.05120659888235
 30
0.0
 40
4.997643947380112
100
AcDbArc
 50
180.0
 51
270.0
  0
LINE
  5
141A
330
4B13
100
AcDbEntity
  8
AM_7
100
AcDbLine
 10
773.9990766564418
 20
-91.55332704624049
 30
0.0
 11
768.0019039195857
 21
-91.55332704624049
 31
0.0
  0
LINE
  5
141B
330
4B13
100
AcDbEntity
  8
AM_7
100
AcDbLine
 10
775.9981342353936
 20
-90.55379825676423
 30
0.0
 11
775.9981342353936
 21
-92.55285583571639
 31
0.0
  0
LINE
  5
141C
330
4B13
100
AcDbEntity
  8
AM_7
100
AcDbLine
 10
775.9981342353936
 20
-93.55238462519242
 30
0.0
 11
775.9981342353936
 21
-99.54955736204865
 31
0.0
  0
LINE
  5
141D
330
4B13
100
AcDbEntity
  8
AM_7
100
AcDbLine
 10
774.9986054459179
 20
-91.55332704624049
 30
0.0
 11
776.9976630248703
 21
-91.55332704624049
 31
0.0
  0
ARC
  5
141E
330
4B13
100
AcDbEntity
  8
0
 62
     7
100
AcDbCircle
 10
820.9769297618148
 20
-63.56652094091169
 30
0.0
 40
42.47997355273095
100
AcDbArc
 50
218.2132107017348
 51
228.5903778907313
  0
ARC
  5
141F
330
4B13
100
AcDbEntity
  8
0
 62
     7
100
AcDbCircle
 10
787.9924797091063
 20
-89.53504064591585
 30
0.0
 40
0.4997643947380113
100
AcDbArc
 50
180.0
 51
218.2132107017427
  0
ARC
  5
1420
330
4B13
100
AcDbEntity
  8
0
 62
     7
100
AcDbCircle
 10
793.2096314071833
 20
-95.05167780940658
 30
0.0
 40
0.4997643947380113
100
AcDbArc
 50
228.5903778907313
 51
270.0
  0
ARC
  5
1421
330
4B13
100
AcDbEntity
  8
0
 62
     7
100
AcDbCircle
 10
775.9981342353936
 20
-91.55332704624049
 30
0.0
 40
9.995287894760224
100
AcDbArc
 50
24.62431835216576
 51
90.0
  0
LINE
  5
1422
330
4B13
100
AcDbEntity
  8
0
 62
     7
100
AcDbLine
 10
771.500254682752
 20
-70.54535091436163
 30
0.0
 11
771.500254682752
 21
-79.55898157252796
 31
0.0
  0
ARC
  5
1423
330
4B13
100
AcDbEntity
  8
0
 62
     7
100
AcDbCircle
 10
773.4993122617039
 20
-79.55898157252796
 30
0.0
 40
1.999057578952043
100
AcDbArc
 50
180.0
 51
270.0
  0
LINE
  5
1424
330
4B13
100
AcDbEntity
  8
0
 62
     7
100
AcDbLine
 10
773.4993122617039
 20
-81.55803915148018
 30
0.0
 11
775.9981342353936
 21
-81.55803915148018
 31
0.0
  0
ARC
  5
1425
330
4B13
100
AcDbEntity
  8
0
 62
     7
100
AcDbCircle
 10
773.4993122617039
 20
-70.54535091436163
 30
0.0
 40
1.999057578952043
100
AcDbArc
 50
94.0960437581514
 51
180.0
  0
LINE
  5
1426
330
4B13
100
AcDbEntity
  8
AM_7
100
AcDbLine
 10
772.999547866966
 20
-65.56557851986361
 30
0.0
 11
772.999547866966
 21
-66.76501306723491
 31
0.0
  0
ARC
  5
1427
330
4B13
100
AcDbEntity
  8
0
100
AcDbCircle
 10
793.4883833161789
 20
-77.56069004050835
 30
0.0
 40
1.999167014228071
100
AcDbArc
 50
180.0
 51
270.0
  0
LINE
  5
1428
330
4B13
100
AcDbEntity
  8
AM_7
100
AcDbLine
 10
789.98984104128
 20
-88.55610861876266
 30
0.0
 11
801.9848431266485
 21
-88.55610861876266
 31
0.0
  0
ARC
  5
1429
330
4B13
100
AcDbEntity
  8
0
 62
     7
100
AcDbCircle
 10
786.9017060500786
 20
-86.5556830988604
 30
0.0
 40
1.999057578952043
100
AcDbArc
 50
204.6243183521643
 51
270.0
  0
ARC
  5
142A
330
4B13
100
AcDbEntity
  8
0
100
AcDbCircle
 10
799.2078256235504
 20
-77.56069004050835
 30
0.0
 40
1.999167014228071
100
AcDbArc
 50
270.0
 51
315.0
  0
LINE
  5
142B
330
4B13
100
AcDbEntity
  8
0
100
AcDbLine
 10
793.4883833161789
 20
-79.55985705473643
 30
0.0
 11
799.2078256235504
 21
-79.55985705473643
 31
0.0
  0
LINE
  5
142C
330
4B13
100
AcDbEntity
  8
0
100
AcDbLine
 10
842.7460339000797
 20
-79.55985705473643
 30
0.0
 11
848.465476207451
 21
-79.55985705473643
 31
0.0
  0
LINE
  5
142D
330
4B13
100
AcDbEntity
  8
AM_7
100
AcDbLine
 10
839.9690163969816
 20
-88.55610861876266
 30
0.0
 11
851.9640184823501
 21
-88.55610861876266
 31
0.0
  0
CIRCLE
  5
142E
330
4B13
100
AcDbEntity
  8
0
100
AcDbCircle
 10
845.9665174396658
 20
-88.55610861876266
 30
0.0
 40
2.998750521342106
  0
CIRCLE
  5
142F
330
4B13
100
AcDbEntity
  8
0
100
AcDbCircle
 10
845.9665174396658
 20
-88.55610861876266
 30
0.0
 40
5.497709289127196
  0
LINE
  5
1430
330
4B13
100
AcDbEntity
  8
AM_7
100
AcDbLine
 10
834.0896920948448
 20
-76.67928327394156
 30
0.0
 11
850.9457702744999
 21
-93.53536145359669
 31
0.0
  0
LINE
  5
1431
330
4B13
100
AcDbEntity
  8
0
100
AcDbLine
 10
836.9702658756391
 20
-85.33562507917668
 30
0.0
 11
836.9702658756391
 21
-90.55527563299085
 31
0.0
  0
LINE
  5
1432
330
4B13
100
AcDbEntity
  8
0
100
AcDbLine
 10
804.9835936479905
 20
-85.33562507917656
 30
0.0
 11
804.9835936479905
 21
-90.55527563299085
 31
0.0
  0
LINE
  5
1433
330
4B13
100
AcDbEntity
  8
0
100
AcDbLine
 10
806.9827606622183
 20
-92.55444264721882
 30
0.0
 11
834.9710988614114
 21
-92.55444264721882
 31
0.0
  0
ARC
  5
1434
330
4B13
100
AcDbEntity
  8
0
100
AcDbCircle
 10
806.9827606622183
 20
-90.55527563299085
 30
0.0
 40
1.999167014228071
100
AcDbArc
 50
180.0
 51
270.0
  0
ARC
  5
1435
330
4B13
100
AcDbEntity
  8
0
100
AcDbCircle
 10
834.9710988614114
 20
-90.55527563299085
 30
0.0
 40
1.999167014228071
100
AcDbArc
 50
270.0
 51
0.0
  0
ARC
  5
1436
330
4B13
100
AcDbEntity
  8
0
100
AcDbCircle
 10
820.9769297618148
 20
-63.5665209409118
 30
0.0
 40
20.49146189583773
100
AcDbArc
 50
238.1365587869454
 51
301.8634412130546
  0
ARC
  5
1437
330
4B13
100
AcDbEntity
  8
0
100
AcDbCircle
 10
809.3680432934228
 20
-82.24353017172996
 30
0.0
 40
1.499375260671053
100
AcDbArc
 50
58.13655878694537
 51
135.0
  0
LINE
  5
1438
330
4B13
100
AcDbEntity
  8
0
100
AcDbLine
 10
805.5691361097331
 20
-83.92200052669146
 30
0.0
 11
808.3078248790588
 21
-81.18331175736601
 31
0.0
  0
CIRCLE
  5
1439
330
4B13
100
AcDbEntity
  8
0
100
AcDbCircle
 10
805.0736535463569
 20
-79.46979715636985
 30
0.0
 40
2.199083715650878
  0
ARC
  5
143A
330
4B13
100
AcDbEntity
  8
0
100
AcDbCircle
 10
806.9827606622183
 20
-85.33562507917656
 30
0.0
 40
1.999167014228071
100
AcDbArc
 50
135.0
 51
180.0
  0
ARC
  5
143B
330
4B13
100
AcDbEntity
  8
0
100
AcDbCircle
 10
802.299920530997
 20
-75.17540740930437
 30
0.0
 40
1.499375260671053
100
AcDbArc
 50
315.0
 51
31.86344121305687
  0
LINE
  5
143C
330
4B13
100
AcDbEntity
  8
0
100
AcDbLine
 10
838.5937205782692
 20
-76.23562582366819
 30
0.0
 11
841.3324093475942
 21
-78.97431459299342
 31
0.0
  0
LINE
  5
143D
330
4B13
100
AcDbEntity
  8
0
100
AcDbLine
 10
833.6460346445713
 20
-81.18331175736601
 30
0.0
 11
836.3847234138965
 21
-83.92200052669146
 31
0.0
  0
CIRCLE
  5
143E
330
4B13
100
AcDbEntity
  8
0
100
AcDbCircle
 10
836.8802059772729
 20
-79.46979715636951
 30
0.0
 40
2.199083715650878
  0
ARC
  5
143F
330
4B13
100
AcDbEntity
  8
0
100
AcDbCircle
 10
832.5858162302074
 20
-82.24353017172996
 30
0.0
 40
1.499375260671053
100
AcDbArc
 50
45.0
 51
121.8634412130546
  0
ARC
  5
1440
330
4B13
100
AcDbEntity
  8
0
100
AcDbCircle
 10
842.7460339000797
 20
-77.56069004050835
 30
0.0
 40
1.999167014228071
100
AcDbArc
 50
225.0
 51
270.0
  0
ARC
  5
1441
330
4B13
100
AcDbEntity
  8
0
100
AcDbCircle
 10
834.9710988614114
 20
-85.33562507917668
 30
0.0
 40
1.999167014228071
100
AcDbArc
 50
0.0
 51
45.0
  0
ARC
  5
1442
330
4B13
100
AcDbEntity
  8
0
100
AcDbCircle
 10
839.653938992633
 20
-75.17540740930437
 30
0.0
 40
1.499375260671053
100
AcDbArc
 50
148.1365587869431
 51
225.0
  0
LINE
  5
1443
330
4B13
100
AcDbEntity
  8
AM_7
100
AcDbLine
 10
865.9557252882359
 20
-89.55426946728822
 30
0.0
 11
865.9557252882359
 21
-83.55709673043213
 31
0.0
  0
CIRCLE
  5
1444
330
4B13
100
AcDbEntity
  8
0
 62
     7
100
AcDbCircle
 10
865.9557252882359
 20
-91.55332704624049
 30
0.0
 40
4.497879552642101
  0
CIRCLE
  5
1445
330
4B13
100
AcDbEntity
  8
0
 62
     7
100
AcDbCircle
 10
865.9557252882359
 20
-91.55332704624049
 30
0.0
 40
6.996701526332156
  0
LINE
  5
1446
330
4B13
100
AcDbEntity
  8
AM_7
100
AcDbLine
 10
845.9665174396658
 20
-82.55860757607853
 30
0.0
 11
845.9665174396658
 21
-94.55360966144699
 31
0.0
  0
LINE
  5
1447
330
4B13
100
AcDbEntity
  8
AM_7
100
AcDbLine
 10
864.9561964987601
 20
-91.55332704624049
 30
0.0
 11
866.9552540777122
 21
-91.55332704624049
 31
0.0
  0
ARC
  5
1448
330
4B13
100
AcDbEntity
  8
0
 62
     7
100
AcDbCircle
 10
848.744228116446
 20
-95.05167780940658
 30
0.0
 40
0.4997643947380113
100
AcDbArc
 50
270.0
 51
311.4096221092686
  0
ARC
  5
1449
330
4B13
100
AcDbEntity
  8
0
 62
     7
100
AcDbCircle
 10
853.9613798145234
 20
-89.53504064591585
 30
0.0
 40
0.4997643947380113
100
AcDbArc
 50
321.7867892982652
 51
0.0
  0
ARC
  5
144A
330
4B13
100
AcDbEntity
  8
0
 62
     7
100
AcDbCircle
 10
820.9769297618148
 20
-63.56652094091169
 30
0.0
 40
42.47997355273095
100
AcDbArc
 50
311.4096221092686
 51
321.7867892982652
  0
LINE
  5
144B
330
4B13
100
AcDbEntity
  8
AM_7
100
AcDbLine
 10
865.9557252882359
 20
-90.55379825676423
 30
0.0
 11
865.9557252882359
 21
-92.55285583571639
 31
0.0
  0
LINE
  5
144C
330
4B13
100
AcDbEntity
  8
AM_7
100
AcDbLine
 10
865.9557252882359
 20
-93.55238462519242
 30
0.0
 11
865.9557252882359
 21
-99.54955736204865
 31
0.0
  0
LINE
  5
144D
330
4B13
100
AcDbEntity
  8
AM_7
100
AcDbLine
 10
863.956667709284
 20
-91.55332704624049
 30
0.0
 11
857.9594949724278
 21
-91.55332704624049
 31
0.0
  0
ARC
  5
144E
330
4B13
100
AcDbEntity
  8
0
 62
     7
100
AcDbCircle
 10
871.9528980250922
 20
-96.05120659888235
 30
0.0
 40
4.997643947380112
100
AcDbArc
 50
270.0
 51
0.0
  0
LINE
  5
144F
330
4B13
100
AcDbEntity
  8
AM_7
100
AcDbLine
 10
867.954782867188
 20
-91.55332704624049
 30
0.0
 11
873.9519556040441
 21
-91.55332704624049
 31
0.0
  0
LINE
  5
1450
330
4B13
100
AcDbEntity
  8
0
 62
     7
100
AcDbLine
 10
868.4545472619261
 20
-81.55803915148018
 30
0.0
 11
865.9557252882359
 21
-81.55803915148018
 31
0.0
  0
ARC
  5
1451
330
4B13
100
AcDbEntity
  8
0
 62
     7
100
AcDbCircle
 10
855.0521534735517
 20
-86.5556830988604
 30
0.0
 40
1.999057578952043
100
AcDbArc
 50
270.0
 51
335.3756816478357
  0
ARC
  5
1452
330
4B13
100
AcDbEntity
  8
0
 62
     7
100
AcDbCircle
 10
865.9557252882359
 20
-91.55332704624049
 30
0.0
 40
9.995287894760224
100
AcDbArc
 50
90.0
 51
155.3756816478342
  0
LINE
  5
1453
330
4B13
100
AcDbEntity
  8
0
 62
     7
100
AcDbLine
 10
855.0521534735517
 20
-88.55474067781235
 30
0.0
 11
854.4611442092621
 21
-88.55474067781235
 31
0.0
  0
ARC
  5
1454
330
4B13
100
AcDbEntity
  8
0
100
AcDbCircle
 10
848.465476207451
 20
-77.56069004050835
 30
0.0
 40
1.999167014228071
100
AcDbArc
 50
270.0
 51
0.0
  0
LINE
  5
1455
330
4B13
100
AcDbEntity
  8
0
 62
     7
100
AcDbLine
 10
870.4536048408781
 20
-70.54535091436163
 30
0.0
 11
870.4536048408781
 21
-79.55898157252796
 31
0.0
  0
ARC
  5
1456
330
4B13
100
AcDbEntity
  8
0
 62
     7
100
AcDbCircle
 10
868.4545472619261
 20
-79.55898157252796
 30
0.0
 40
1.999057578952043
100
AcDbArc
 50
270.0
 51
0.0
  0
ARC
  5
1457
330
4B13
100
AcDbEntity
  8
0
 62
     7
100
AcDbCircle
 10
868.4545472619261
 20
-70.54535091436163
 30
0.0
 40
1.999057578952043
100
AcDbArc
 50
0.0
 51
85.90395624184861
  0
LINE
  5
1458
330
4B13
100
AcDbEntity
  8
0
 62
     7
100
AcDbLine
 10
868.9543116566644
 20
-65.56557851986361
 30
0.0
 11
868.9543116566644
 21
-66.76501306723491
 31
0.0
  0
LINE
  5
1459
330
4B13
100
AcDbEntity
  8
AM_7
100
AcDbLine
 10
868.9543116566637
 20
-65.56557851986361
 30
0.0
 11
868.9543116566637
 21
-69.56369367776767
 31
0.0
  0
LINE
  5
145A
330
4B13
100
AcDbEntity
  8
0
 62
     7
100
AcDbLine
 10
841.9670343408112
 20
-25.834309138192
 30
0.0
 11
799.9868251828185
 21
-25.834309138192
 31
0.0
  0
LINE
  5
145B
330
4B13
100
AcDbEntity
  8
0
 62
     7
100
AcDbLine
 10
871.9528980250922
 20
-26.08419133556096
 30
0.0
 11
770.0009614985378
 21
-26.08419133556096
 31
0.0
  0
LINE
  5
145C
330
4B13
100
AcDbEntity
  8
0
 62
     7
100
AcDbLine
 10
848.744228116446
 20
-31.58159967767892
 30
0.0
 11
793.2096314071833
 21
-31.58159967767892
 31
0.0
  0
LINE
  5
145D
330
4B13
100
AcDbEntity
  8
AM_7
100
AcDbLine
 10
879.1595086733927
 20
-63.56652094091169
 30
0.0
 11
762.2327565287713
 21
-63.56652094091169
 31
0.0
  0
LINE
  5
145E
330
4B13
100
AcDbEntity
  8
0
100
AcDbLine
 10
800.6214501760352
 20
-48.15872728883014
 30
0.0
 11
803.3601389453604
 21
-50.8974160581555
 31
0.0
  0
LINE
  5
145F
330
4B13
100
AcDbEntity
  8
AM_7
100
AcDbLine
 10
775.9981342353936
 20
-37.57877241453513
 30
0.0
 11
775.9981342353936
 21
-43.5759451513911
 31
0.0
  0
ARC
  5
1460
330
4B13
100
AcDbEntity
  8
0
 62
     7
100
AcDbCircle
 10
775.9981342353936
 20
-35.5797148355831
 30
0.0
 40
9.995287894760224
100
AcDbArc
 50
270.0
 51
335.3756816478342
  0
CIRCLE
  5
1461
330
4B13
100
AcDbEntity
  8
0
 62
     7
100
AcDbCircle
 10
775.9981342353936
 20
-35.5797148355831
 30
0.0
 40
6.996701526332156
  0
CIRCLE
  5
1462
330
4B13
100
AcDbEntity
  8
0
100
AcDbCircle
 10
795.9873420839636
 20
-38.57693326306094
 30
0.0
 40
2.998750521342106
  0
CIRCLE
  5
1463
330
4B13
100
AcDbEntity
  8
0
100
AcDbCircle
 10
795.9873420839636
 20
-38.57693326306094
 30
0.0
 40
5.497709289127196
  0
LINE
  5
1464
330
4B13
100
AcDbEntity
  8
AM_7
100
AcDbLine
 10
795.9873420839636
 20
-32.5794322203767
 30
0.0
 11
795.9873420839636
 21
-44.57443430574514
 31
0.0
  0
LINE
  5
1465
330
4B13
100
AcDbEntity
  8
0
 62
     7
100
AcDbLine
 10
771.500254682752
 20
-47.57406030929529
 30
0.0
 11
771.500254682752
 21
-56.58769096746175
 31
0.0
  0
LINE
  5
1466
330
4B13
100
AcDbEntity
  8
AM_7
100
AcDbLine
 10
772.999547866966
 20
-62.56699215143578
 30
0.0
 11
772.999547866966
 21
-64.56604973038793
 31
0.0
  0
ARC
  5
1467
330
4B13
100
AcDbEntity
  8
0
 62
     7
100
AcDbCircle
 10
773.4993122617039
 20
-56.58769096746175
 30
0.0
 40
1.999057578952043
100
AcDbArc
 50
180.0
 51
265.9039562418485
  0
LINE
  5
1468
330
4B13
100
AcDbEntity
  8
AM_7
100
AcDbLine
 10
772.999547866966
 20
-61.56746336195965
 30
0.0
 11
772.999547866966
 21
-60.36802881458856
 31
0.0
  0
ARC
  5
1469
330
4B13
100
AcDbEntity
  8
0
 62
     7
100
AcDbCircle
 10
773.4993122617039
 20
-47.57406030929529
 30
0.0
 40
1.999057578952043
100
AcDbArc
 50
90.0
 51
180.0
  0
LINE
  5
146A
330
4B13
100
AcDbEntity
  8
0
 62
     7
100
AcDbLine
 10
773.4993122617039
 20
-45.57500273034338
 30
0.0
 11
775.9981342353936
 21
-45.57500273034338
 31
0.0
  0
ARC
  5
146B
330
4B13
100
AcDbEntity
  8
0
100
AcDbCircle
 10
793.4883833161789
 20
-49.57235184131537
 30
0.0
 40
1.999167014228071
100
AcDbArc
 50
90.0
 51
180.0
  0
ARC
  5
146C
330
4B13
100
AcDbEntity
  8
0
100
AcDbCircle
 10
799.2078256235504
 20
-49.57235184131537
 30
0.0
 40
1.999167014228071
100
AcDbArc
 50
45.0
 51
90.0
  0
LINE
  5
146D
330
4B13
100
AcDbEntity
  8
0
100
AcDbLine
 10
793.4883833161789
 20
-47.57318482708728
 30
0.0
 11
799.2078256235504
 21
-47.57318482708728
 31
0.0
  0
LINE
  5
146E
330
4B13
100
AcDbEntity
  8
AM_7
100
AcDbLine
 10
777.9971918143464
 20
-35.5797148355831
 30
0.0
 11
783.9943645512022
 21
-35.5797148355831
 31
0.0
  0
ARC
  5
146F
330
4B13
100
AcDbEntity
  8
0
 62
     7
100
AcDbCircle
 10
770.0009614985378
 20
-31.08183528294115
 30
0.0
 40
4.997643947380112
100
AcDbArc
 50
90.0
 51
180.0
  0
LINE
  5
1470
330
4B13
100
AcDbEntity
  8
AM_7
100
AcDbLine
 10
775.9981342353936
 20
-33.58065725663096
 30
0.0
 11
775.9981342353936
 21
-27.58348451977508
 31
0.0
  0
LINE
  5
1471
330
4B13
100
AcDbEntity
  8
AM_7
100
AcDbLine
 10
773.9990766564418
 20
-35.5797148355831
 30
0.0
 11
768.0019039195857
 21
-35.5797148355831
 31
0.0
  0
LINE
  5
1472
330
4B13
100
AcDbEntity
  8
AM_7
100
AcDbLine
 10
775.9981342353936
 20
-34.58018604610709
 30
0.0
 11
775.9981342353936
 21
-36.57924362505912
 31
0.0
  0
LINE
  5
1473
330
4B13
100
AcDbEntity
  8
AM_7
100
AcDbLine
 10
774.9986054459179
 20
-35.5797148355831
 30
0.0
 11
776.9976630248703
 21
-35.5797148355831
 31
0.0
  0
CIRCLE
  5
1474
330
4B13
100
AcDbEntity
  8
0
 62
     7
100
AcDbCircle
 10
775.9981342353936
 20
-35.5797148355831
 30
0.0
 40
4.497879552642101
  0
ARC
  5
1475
330
4B13
100
AcDbEntity
  8
0
 62
     7
100
AcDbCircle
 10
820.9769297618148
 20
-63.56652094091169
 30
0.0
 40
42.47997355273095
100
AcDbArc
 50
131.4096221092686
 51
141.7867892982652
  0
LINE
  5
1476
330
4B13
100
AcDbEntity
  8
AM_7
100
AcDbLine
 10
789.98984104128
 20
-38.57693326306094
 30
0.0
 11
801.9848431266485
 21
-38.57693326306094
 31
0.0
  0
ARC
  5
1477
330
4B13
100
AcDbEntity
  8
0
 62
     7
100
AcDbCircle
 10
786.9017060500786
 20
-40.57735878296329
 30
0.0
 40
1.999057578952043
100
AcDbArc
 50
90.0
 51
155.3756816478357
  0
LINE
  5
1478
330
4B13
100
AcDbEntity
  8
0
 62
     7
100
AcDbLine
 10
786.9017060500786
 20
-38.57830120401116
 30
0.0
 11
787.4927153143683
 21
-38.57830120401116
 31
0.0
  0
ARC
  5
1479
330
4B13
100
AcDbEntity
  8
0
 62
     7
100
AcDbCircle
 10
787.9924797091063
 20
-37.59800123590764
 30
0.0
 40
0.4997643947380113
100
AcDbArc
 50
141.7867892982573
 51
180.0
  0
ARC
  5
147A
330
4B13
100
AcDbEntity
  8
0
 62
     7
100
AcDbCircle
 10
793.2096314071833
 20
-32.08136407241693
 30
0.0
 40
0.4997643947380113
100
AcDbArc
 50
90.0
 51
131.4096221092686
  0
LINE
  5
147B
330
4B13
100
AcDbEntity
  8
0
 62
     7
100
AcDbLine
 10
799.9868251828185
 20
-25.834309138192
 30
0.0
 11
799.9868251828185
 21
-26.08419133556096
 31
0.0
  0
CIRCLE
  5
147C
330
4B13
100
AcDbEntity
  8
0
100
AcDbCircle
 10
845.9665174396658
 20
-38.57693326306094
 30
0.0
 40
2.998750521342106
  0
LINE
  5
147D
330
4B13
100
AcDbEntity
  8
AM_7
100
AcDbLine
 10
839.9690163969816
 20
-38.57693326306094
 30
0.0
 11
851.9640184823501
 21
-38.57693326306094
 31
0.0
  0
LINE
  5
147E
330
4B13
100
AcDbEntity
  8
0
100
AcDbLine
 10
842.7460339000797
 20
-47.57318482708728
 30
0.0
 11
848.465476207451
 21
-47.57318482708728
 31
0.0
  0
CIRCLE
  5
147F
330
4B13
100
AcDbEntity
  8
0
100
AcDbCircle
 10
845.9665174396658
 20
-38.57693326306094
 30
0.0
 40
5.497709289127196
  0
LINE
  5
1480
330
4B13
100
AcDbEntity
  8
0
100
AcDbLine
 10
836.9702658756391
 20
-36.57776624883285
 30
0.0
 11
836.9702658756391
 21
-41.79741680264692
 31
0.0
  0
LINE
  5
1481
330
4B13
100
AcDbEntity
  8
0
100
AcDbLine
 10
804.9835936479905
 20
-36.57776624883285
 30
0.0
 11
804.9835936479905
 21
-41.79741680264704
 31
0.0
  0
ARC
  5
1482
330
4B13
100
AcDbEntity
  8
0
100
AcDbCircle
 10
820.9769297618148
 20
-63.5665209409118
 30
0.0
 40
20.49146189583773
100
AcDbArc
 50
58.13655878694537
 51
121.8634412130546
  0
ARC
  5
1483
330
4B13
100
AcDbEntity
  8
0
100
AcDbCircle
 10
802.299920530997
 20
-51.95763447251942
 30
0.0
 40
1.499375260671053
100
AcDbArc
 50
328.1365587869432
 51
45.0
  0
ARC
  5
1484
330
4B13
100
AcDbEntity
  8
0
100
AcDbCircle
 10
806.9827606622183
 20
-41.79741680264704
 30
0.0
 40
1.999167014228071
100
AcDbArc
 50
180.0
 51
225.0
  0
ARC
  5
1485
330
4B13
100
AcDbEntity
  8
0
100
AcDbCircle
 10
809.368043293422
 20
-44.88951171009364
 30
0.0
 40
1.499375260671053
100
AcDbArc
 50
225.0
 51
301.8634412130546
  0
CIRCLE
  5
1486
330
4B13
100
AcDbEntity
  8
0
100
AcDbCircle
 10
805.0736535463569
 20
-47.66324472545409
 30
0.0
 40
2.199083715650878
  0
LINE
  5
1487
330
4B13
100
AcDbEntity
  8
0
100
AcDbLine
 10
805.5691361097331
 20
-43.21104135513222
 30
0.0
 11
808.3078248790588
 21
-45.94973012445755
 31
0.0
  0
ARC
  5
1488
330
4B13
100
AcDbEntity
  8
0
100
AcDbCircle
 10
839.653938992633
 20
-51.9576344725193
 30
0.0
 40
1.499375260671053
100
AcDbArc
 50
135.0
 51
211.8634412130568
  0
CIRCLE
  5
1489
330
4B13
100
AcDbEntity
  8
0
100
AcDbCircle
 10
836.8085157869623
 20
-47.59187625945981
 30
0.0
 40
2.199083715650878
  0
LINE
  5
148A
330
4B13
100
AcDbEntity
  8
0
100
AcDbLine
 10
833.6460346445713
 20
-45.94973012445768
 30
0.0
 11
836.3847234138965
 21
-43.21104135513222
 31
0.0
  0
ARC
  5
148B
330
4B13
100
AcDbEntity
  8
0
100
AcDbCircle
 10
832.5858162302074
 20
-44.88951171009364
 30
0.0
 40
1.499375260671053
100
AcDbArc
 50
238.1365587869454
 51
315.0
  0
ARC
  5
148C
330
4B13
100
AcDbEntity
  8
0
100
AcDbCircle
 10
834.9710988614114
 20
-41.79741680264704
 30
0.0
 40
1.999167014228071
100
AcDbArc
 50
315.0
 51
0.0
  0
ARC
  5
148D
330
4B13
100
AcDbEntity
  8
0
100
AcDbCircle
 10
834.9710988614114
 20
-41.79741680264692
 30
0.0
 40
1.999167014228071
100
AcDbArc
 50
315.0
 51
0.0
  0
ARC
  5
148E
330
4B13
100
AcDbEntity
  8
0
100
AcDbCircle
 10
842.7460339000797
 20
-49.57235184131537
 30
0.0
 40
1.999167014228071
100
AcDbArc
 50
90.0
 51
135.0
  0
ARC
  5
148F
330
4B13
100
AcDbEntity
  8
0
100
AcDbCircle
 10
842.7460339000797
 20
-49.57235184131537
 30
0.0
 40
1.999167014228071
100
AcDbArc
 50
90.0
 51
135.0
  0
LINE
  5
1490
330
4B13
100
AcDbEntity
  8
0
100
AcDbLine
 10
838.5937205782692
 20
-50.8974160581555
 30
0.0
 11
841.3324093475942
 21
-48.15872728883014
 31
0.0
  0
LINE
  5
1491
330
4B13
100
AcDbEntity
  8
0
100
AcDbLine
 10
806.9827606622183
 20
-34.57859923460489
 30
0.0
 11
834.9710988614114
 21
-34.57859923460489
 31
0.0
  0
ARC
  5
1492
330
4B13
100
AcDbEntity
  8
0
100
AcDbCircle
 10
806.9827606622183
 20
-36.57776624883285
 30
0.0
 40
1.999167014228071
100
AcDbArc
 50
90.0
 51
180.0
  0
ARC
  5
1493
330
4B13
100
AcDbEntity
  8
0
100
AcDbCircle
 10
834.9710988614114
 20
-36.57776624883285
 30
0.0
 40
1.999167014228071
100
AcDbArc
 50
0.0
 51
90.0
  0
LINE
  5
1494
330
4B13
100
AcDbEntity
  8
0
 62
     7
100
AcDbLine
 10
841.9670343408112
 20
-25.834309138192
 30
0.0
 11
841.9670343408112
 21
-26.08419133556096
 31
0.0
  0
LINE
  5
1495
330
4B13
100
AcDbEntity
  8
AM_7
100
AcDbLine
 10
865.9557252882359
 20
-37.57877241453513
 30
0.0
 11
865.9557252882359
 21
-43.5759451513911
 31
0.0
  0
ARC
  5
1496
330
4B13
100
AcDbEntity
  8
0
 62
     7
100
AcDbCircle
 10
865.9557252882359
 20
-35.5797148355831
 30
0.0
 40
9.995287894760224
100
AcDbArc
 50
204.6243183521658
 51
270.0
  0
CIRCLE
  5
1497
330
4B13
100
AcDbEntity
  8
0
 62
     7
100
AcDbCircle
 10
865.9557252882359
 20
-35.5797148355831
 30
0.0
 40
6.996701526332156
  0
LINE
  5
1498
330
4B13
100
AcDbEntity
  8
AM_7
100
AcDbLine
 10
845.9665174396658
 20
-32.5794322203767
 30
0.0
 11
845.9665174396658
 21
-44.57443430574514
 31
0.0
  0
LINE
  5
1499
330
4B13
100
AcDbEntity
  8
AM_7
100
AcDbLine
 10
866.9552540777122
 20
-63.56652094091169
 30
0.0
 11
865.7558195303405
 21
-63.56652094091169
 31
0.0
  0
LINE
  5
149A
330
4B13
100
AcDbEntity
  8
0
 62
     7
100
AcDbLine
 10
868.4545472619261
 20
-45.57500273034338
 30
0.0
 11
865.9557252882359
 21
-45.57500273034338
 31
0.0
  0
LINE
  5
149B
330
4B13
100
AcDbEntity
  8
AM_7
100
AcDbLine
 10
866.9552540777116
 20
-63.56652094091169
 30
0.0
 11
862.9571389198074
 21
-63.56652094091169
 31
0.0
  0
ARC
  5
149C
330
4B13
100
AcDbEntity
  8
0
100
AcDbCircle
 10
848.465476207451
 20
-49.57235184131537
 30
0.0
 40
1.999167014228071
100
AcDbArc
 50
0.0
 51
90.0
  0
LINE
  5
149D
330
4B13
100
AcDbEntity
  8
0
 62
     7
100
AcDbLine
 10
870.4536048408781
 20
-47.57406030929529
 30
0.0
 11
870.4536048408781
 21
-56.58769096746175
 31
0.0
  0
LINE
  5
149E
330
4B13
100
AcDbEntity
  8
0
 62
     7
100
AcDbLine
 10
868.9543116566644
 20
-62.56699215143578
 30
0.0
 11
868.9543116566644
 21
-64.56604973038793
 31
0.0
  0
LINE
  5
149F
330
4B13
100
AcDbEntity
  8
AM_7
100
AcDbLine
 10
868.9543116566637
 20
-62.56699215143552
 30
0.0
 11
868.9543116566637
 21
-64.5660497303877
 31
0.0
  0
LINE
  5
14A0
330
4B13
100
AcDbEntity
  8
AM_7
100
AcDbLine
 10
870.9533692356162
 20
-63.56652094091169
 30
0.0
 11
872.1528037829873
 21
-63.56652094091169
 31
0.0
  0
LINE
  5
14A1
330
4B13
100
AcDbEntity
  8
AM_7
100
AcDbLine
 10
867.954782867188
 20
-63.56652094091169
 30
0.0
 11
869.9538404461401
 21
-63.56652094091169
 31
0.0
  0
LINE
  5
14A2
330
4B13
100
AcDbEntity
  8
AM_7
100
AcDbLine
 10
867.9547828671875
 20
-63.56652094091169
 30
0.0
 11
869.9538404461398
 21
-63.56652094091169
 31
0.0
  0
ARC
  5
14A3
330
4B13
100
AcDbEntity
  8
0
 62
     7
100
AcDbCircle
 10
868.4545472619261
 20
-56.58769096746175
 30
0.0
 40
1.999057578952043
100
AcDbArc
 50
274.0960437581514
 51
0.0
  0
LINE
  5
14A4
330
4B13
100
AcDbEntity
  8
0
 62
     7
100
AcDbLine
 10
868.9543116566644
 20
-61.56746336195965
 30
0.0
 11
868.9543116566644
 21
-60.36802881458856
 31
0.0
  0
LINE
  5
14A5
330
4B13
100
AcDbEntity
  8
AM_7
100
AcDbLine
 10
868.9543116566637
 20
-61.56746336195965
 30
0.0
 11
868.9543116566637
 21
-57.56934820405557
 31
0.0
  0
LINE
  5
14A6
330
4B13
100
AcDbEntity
  8
AM_7
100
AcDbLine
 10
870.9533692356158
 20
-63.56652094091169
 30
0.0
 11
874.9514843935195
 21
-63.56652094091169
 31
0.0
  0
ARC
  5
14A7
330
4B13
100
AcDbEntity
  8
0
 62
     7
100
AcDbCircle
 10
868.4545472619261
 20
-47.57406030929529
 30
0.0
 40
1.999057578952043
100
AcDbArc
 50
0.0
 51
90.0
  0
LINE
  5
14A8
330
4B13
100
AcDbEntity
  8
AM_7
100
AcDbLine
 10
864.9561964987601
 20
-35.5797148355831
 30
0.0
 11
866.9552540777122
 21
-35.5797148355831
 31
0.0
  0
CIRCLE
  5
14A9
330
4B13
100
AcDbEntity
  8
0
 62
     7
100
AcDbCircle
 10
865.9557252882359
 20
-35.5797148355831
 30
0.0
 40
4.497879552642101
  0
LINE
  5
14AA
330
4B13
100
AcDbEntity
  8
AM_7
100
AcDbLine
 10
865.9557252882359
 20
-33.58065725663096
 30
0.0
 11
865.9557252882359
 21
-27.58348451977508
 31
0.0
  0
ARC
  5
14AB
330
4B13
100
AcDbEntity
  8
0
 62
     7
100
AcDbCircle
 10
855.0521534735517
 20
-40.57735878296329
 30
0.0
 40
1.999057578952043
100
AcDbArc
 50
24.62431835216428
 51
90.0
  0
LINE
  5
14AC
330
4B13
100
AcDbEntity
  8
0
 62
     7
100
AcDbLine
 10
855.0521534735517
 20
-38.57830120401116
 30
0.0
 11
854.4611442092621
 21
-38.57830120401116
 31
0.0
  0
ARC
  5
14AD
330
4B13
100
AcDbEntity
  8
0
 62
     7
100
AcDbCircle
 10
853.9613798145234
 20
-37.59800123590764
 30
0.0
 40
0.4997643947380113
100
AcDbArc
 50
0.0
 51
38.2132107017439
  0
ARC
  5
14AE
330
4B13
100
AcDbEntity
  8
0
 62
     7
100
AcDbCircle
 10
848.744228116446
 20
-32.08136407241705
 30
0.0
 40
0.4997643947380113
100
AcDbArc
 50
48.59037789073135
 51
90.0
  0
ARC
  5
14AF
330
4B13
100
AcDbEntity
  8
0
 62
     7
100
AcDbCircle
 10
820.9769297618148
 20
-63.56652094091169
 30
0.0
 40
42.47997355273095
100
AcDbArc
 50
38.21321070173476
 51
48.59037789073135
  0
LINE
  5
14B0
330
4B13
100
AcDbEntity
  8
AM_7
100
AcDbLine
 10
865.9557252882359
 20
-34.58018604610709
 30
0.0
 11
865.9557252882359
 21
-36.57924362505912
 31
0.0
  0
LINE
  5
14B1
330
4B13
100
AcDbEntity
  8
AM_7
100
AcDbLine
 10
863.956667709284
 20
-35.5797148355831
 30
0.0
 11
857.9594949724278
 21
-35.5797148355831
 31
0.0
  0
ARC
  5
14B2
330
4B13
100
AcDbEntity
  8
0
 62
     7
100
AcDbCircle
 10
871.9528980250922
 20
-31.08183528294115
 30
0.0
 40
4.997643947380112
100
AcDbArc
 50
0.0
 51
90.0
  0
LINE
  5
14B3
330
4B13
100
AcDbEntity
  8
AM_7
100
AcDbLine
 10
867.954782867188
 20
-35.5797148355831
 30
0.0
 11
873.9519556040441
 21
-35.5797148355831
 31
0.0
  0
LINE
  5
14B4
330
4B13
100
AcDbEntity
  8
AM_7
100
AcDbLine
 10
970.1830878939327
 20
87.11037263387353
 30
0.0
 11
970.1830878939327
 21
166.7287714143184
 31
0.0
  0
LINE
  5
14B5
330
4B13
100
AcDbEntity
  8
AM_7
100
AcDbLine
 10
952.1905847712778
 20
102.5508958371176
 30
0.0
 11
952.1905847712778
 21
107.426180333154
 31
0.0
  0
LINE
  5
14B6
330
4B13
100
AcDbEntity
  8
AM_7
100
AcDbLine
 10
949.5010090624347
 20
105.1003623637173
 30
0.0
 11
954.810907964649
 21
105.1003623637173
 31
0.0
  0
LINE
  5
14B7
330
4B13
100
AcDbEntity
  8
AM_7
100
AcDbLine
 10
985.8092409311792
 20
117.5951561988943
 30
0.0
 11
990.5450960492592
 21
117.5951561988943
 31
0.0
  0
LINE
  5
14B8
330
4B13
100
AcDbEntity
  8
AM_7
100
AcDbLine
 10
988.1755910165875
 20
115.3126705823772
 30
0.0
 11
988.1755910165875
 21
119.9011739144846
 31
0.0
  0
TEXT
  5
14B9
330
4B13
100
AcDbEntity
  8
0
 62
     7
100
AcDbText
 10
821.6868078113124
 20
114.7866949018309
 30
0.0
 40
2.998750520442481
  1
2
  7
DAYUS
100
AcDbText
  0
LINE
  5
14BA
330
4B13
100
AcDbEntity
  8
AM_7
100
AcDbLine
 10
831.9799258756447
 20
105.4274505968994
 30
0.0
 11
831.9799258756447
 21
117.4478185451812
 31
0.0
  0
LINE
  5
14BB
330
4B13
100
AcDbEntity
  8
AM_7
100
AcDbLine
 10
847.9732619846712
 20
105.4274505968994
 30
0.0
 11
847.9732619846712
 21
117.4478185451812
 31
0.0
  0
LINE
  5
14BC
330
4B13
100
AcDbEntity
  8
0
 62
     7
100
AcDbLine
 10
858.968680559627
 20
108.3610173081729
 30
0.0
 11
858.968680559627
 21
104.3626832809164
 31
0.0
  0
LINE
  5
14BD
330
4B13
100
AcDbEntity
  8
0
 62
     7
100
AcDbLine
 10
854.9703465323702
 20
108.3610173081729
 30
0.0
 11
854.9703465323702
 21
104.3626832809164
 31
0.0
  0
ARC
  5
14BE
330
4B13
100
AcDbEntity
  8
0
 62
     3
100
AcDbCircle
 10
831.9799258756447
 20
111.3597678286154
 30
0.0
 40
4.861974177144077
100
AcDbArc
 50
244.2116835552072
 51
159.5269892452997
  0
CIRCLE
  5
14BF
330
4B13
100
AcDbEntity
  8
0
 62
     7
100
AcDbCircle
 10
831.9799258756447
 20
111.3597678286155
 30
0.0
 40
4.24822990396018
  0
ARC
  5
14C0
330
4B13
100
AcDbEntity
  8
0
 62
     3
100
AcDbCircle
 10
847.9732619846716
 20
111.3597678286154
 30
0.0
 40
4.861974177144077
100
AcDbArc
 50
244.0711027085658
 51
151.1524897323618
  0
CIRCLE
  5
14C1
330
4B13
100
AcDbEntity
  8
0
 62
     7
100
AcDbCircle
 10
847.9732619846712
 20
111.3597678286155
 30
0.0
 40
4.24822990396018
  0
LINE
  5
14C2
330
4B13
100
AcDbEntity
  8
AM_7
100
AcDbLine
 10
821.9840908075031
 20
102.5629043844274
 30
0.0
 11
821.9840908075031
 21
107.4381888804637
 31
0.0
  0
ARC
  5
14C3
330
4B13
100
AcDbEntity
  8
0
 62
     3
100
AcDbCircle
 10
821.9840908075031
 20
105.112370911027
 30
0.0
 40
1.499375260221238
100
AcDbArc
 50
260.0918254263994
 51
182.0793827520809
  0
CIRCLE
  5
14C4
330
4B13
100
AcDbEntity
  8
0
 62
     7
100
AcDbCircle
 10
821.9840908075031
 20
105.112370911027
 30
0.0
 40
1.2494793835177
  0
LINE
  5
14C5
330
4B13
100
AcDbEntity
  8
0
 62
     7
100
AcDbLine
 10
854.9703465323702
 20
104.3626832809164
 30
0.0
 11
858.968680559627
 21
104.3626832809164
 31
0.0
  0
TEXT
  5
14C6
330
4B13
100
AcDbEntity
  8
0
 62
     7
100
AcDbText
 10
856.2931953144602
 20
104.9669409011292
 30
0.0
 40
2.998750520442481
  1
1
  7
DAYUS
100
AcDbText
  0
LINE
  5
14C7
330
4B13
100
AcDbEntity
  8
0
 62
     7
100
AcDbLine
 10
824.9828413279457
 20
118.3568523763147
 30
0.0
 11
824.9828413279455
 21
114.3585183490579
 31
0.0
  0
LINE
  5
14C8
330
4B13
100
AcDbEntity
  8
0
 62
     7
100
AcDbLine
 10
820.9845073006887
 20
118.3568523763147
 30
0.0
 11
820.9845073006887
 21
114.3585183490579
 31
0.0
  0
LINE
  5
14C9
330
4B13
100
AcDbEntity
  8
0
 62
     7
100
AcDbLine
 10
820.9845073006887
 20
114.3585183490579
 30
0.0
 11
824.9828413279455
 21
114.3585183490579
 31
0.0
  0
LINE
  5
14CA
330
4B13
100
AcDbEntity
  8
0
 62
     7
100
AcDbLine
 10
820.9845073006887
 20
118.3568523763147
 30
0.0
 11
824.9828413279457
 21
118.3568523763147
 31
0.0
  0
LINE
  5
14CB
330
4B13
100
AcDbEntity
  8
AM_7
100
AcDbLine
 10
857.969097052813
 20
115.3246791296869
 30
0.0
 11
857.969097052813
 21
119.9131824617943
 31
0.0
  0
ARC
  5
14CC
330
4B13
100
AcDbEntity
  8
0
 62
     3
100
AcDbCircle
 10
857.969097052813
 20
117.607164746204
 30
0.0
 40
1.499375260221238
100
AcDbArc
 50
261.189937697714
 51
188.9750276639921
  0
CIRCLE
  5
14CD
330
4B13
100
AcDbEntity
  8
0
 62
     7
100
AcDbCircle
 10
857.969097052813
 20
117.607164746204
 30
0.0
 40
1.2494793835177
  0
LINE
  5
14CE
330
4B13
100
AcDbEntity
  8
0
 62
     7
100
AcDbLine
 10
854.9703465323702
 20
108.3610173081729
 30
0.0
 11
858.968680559627
 21
108.3610173081729
 31
0.0
  0
LINE
  5
14CF
330
4B13
100
AcDbEntity
  8
AM_7
100
AcDbLine
 10
855.6027469674051
 20
117.607164746204
 30
0.0
 11
860.3386020854845
 21
117.607164746204
 31
0.0
  0
LINE
  5
14D0
330
4B13
100
AcDbEntity
  8
AM_7
100
AcDbLine
 10
842.0516762818076
 20
111.3597678286155
 30
0.0
 11
853.8973176301885
 21
111.3597678286155
 31
0.0
  0
LINE
  5
14D1
330
4B13
100
AcDbEntity
  8
AM_7
100
AcDbLine
 10
826.1535786826648
 20
111.3597678286155
 30
0.0
 11
837.6874926271408
 21
111.3597678286155
 31
0.0
  0
LINE
  5
14D2
330
4B13
100
AcDbEntity
  8
AM_7
100
AcDbLine
 10
955.1151333398504
 20
111.3477592813058
 30
0.0
 11
985.5277729396823
 21
111.3477592813058
 31
0.0
  0
DIMENSION
  5
14D3
330
4B13
100
AcDbEntity
  8
AM_5
100
AcDbDimension
  2
*D41
 10
831.9799258756447
 20
128.7411183698846
 30
0.0
 11
825.9776616060854
 21
128.7411183698846
 31
0.0
 70
   160
  1
11
 71
     5
 42
11.0066638909733
  3
AM_ISO
100
AcDbAlignedDimension
 13
820.9732619846713
 23
126.3493554989695
 33
0.0
 14
831.9799258756447
 24
117.4478185451812
 34
0.0
100
AcDbRotatedDimension
1001
ACAD
1000
DSTYLE
1002
{
1070
    40
1040
1.8
1070
    43
1040
10.0
1070
   279
1070
     0
1070
   342
1005
4B69
1002
}
  0
DIMENSION
  5
14D4
330
4B13
100
AcDbEntity
  8
AM_5
100
AcDbDimension
  2
*D42
 10
847.9732619846712
 20
128.7411183698846
 30
0.0
 11
839.9765939301579
 21
128.7411183698846
 31
0.0
 70
   160
  1
16
 71
     5
 42
15.9933361090267
  3
AM_ISO
100
AcDbAlignedDimension
 13
831.9799258756447
 23
117.4478185451812
 33
0.0
 14
847.9732619846712
 24
117.4478185451812
 34
0.0
100
AcDbRotatedDimension
1001
ACAD
1000
DSTYLE
1002
{
1070
    40
1040
1.8
1070
    43
1040
10.0
1070
   279
1070
     0
1070
   342
1005
4B69
1002
}
  0
ARC
  5
14D5
330
4B13
100
AcDbEntity
  8
0
 62
     7
100
AcDbCircle
 10
769.3833158480815
 20
193.8525870214323
 30
0.0
 40
4.99995
100
AcDbArc
 50
180.0
 51
270.0
  0
LINE
  5
14D6
330
4B13
100
AcDbEntity
  8
0
 62
     7
100
AcDbLine
 10
780.0903523776809
 20
222.3523020214321
 30
0.0
 11
764.3833658480815
 21
222.3523020214321
 31
0.0
  0
LINE
  5
14D7
330
4B13
100
AcDbEntity
  8
0
 62
     7
100
AcDbLine
 10
783.7225668944904
 20
219.3523320214322
 30
0.0
 11
764.3833658480815
 21
219.3523320214322
 31
0.0
  0
LINE
  5
14D8
330
4B13
100
AcDbEntity
  8
0
 62
     7
100
AcDbLine
 10
775.3832558480818
 20
208.3524420214323
 30
0.0
 11
764.3833658480815
 21
208.3524420214323
 31
0.0
  0
LINE
  5
14D9
330
4B13
100
AcDbEntity
  8
AM_7
100
AcDbLine
 10
773.3832758480815
 20
198.3525420214323
 30
0.0
 11
767.3833358480814
 21
198.3525420214323
 31
0.0
  0
ARC
  5
14DA
330
4B13
100
AcDbEntity
  8
0
 62
     7
100
AcDbCircle
 10
769.3833158480815
 20
258.8519370214324
 30
0.0
 40
4.99995
100
AcDbArc
 50
90.0
 51
180.0
  0
LINE
  5
14DB
330
4B13
100
AcDbEntity
  8
0
 62
     7
100
AcDbLine
 10
780.0903523776809
 20
230.3522220214322
 30
0.0
 11
764.3833658480815
 21
230.3522220214322
 31
0.0
  0
LINE
  5
14DC
330
4B13
100
AcDbEntity
  8
0
 62
     7
100
AcDbLine
 10
783.7225668944904
 20
233.3521920214323
 30
0.0
 11
764.3833658480815
 21
233.3521920214323
 31
0.0
  0
LINE
  5
14DD
330
4B13
100
AcDbEntity
  8
0
 62
     7
100
AcDbLine
 10
775.3832558480818
 20
244.3520820214323
 30
0.0
 11
764.3833658480815
 21
244.3520820214323
 31
0.0
  0
LINE
  5
14DE
330
4B13
100
AcDbEntity
  8
AM_7
100
AcDbLine
 10
773.3832758480815
 20
254.3519820214322
 30
0.0
 11
767.3833358480814
 21
254.3519820214322
 31
0.0
  0
LINE
  5
14DF
330
4B13
100
AcDbEntity
  8
AM_7
100
AcDbLine
 10
878.7735442841521
 20
226.3522620214323
 30
0.0
 11
761.7437966458521
 21
226.3522620214323
 31
0.0
  0
LINE
  5
14E0
330
4B13
100
AcDbEntity
  8
0
 62
     7
100
AcDbLine
 10
764.3833658480815
 20
258.8519370214324
 30
0.0
 11
764.3833658480815
 21
193.8525870214323
 31
0.0
  0
CIRCLE
  5
14E1
330
4B13
100
AcDbEntity
  8
0
100
AcDbCircle
 10
801.3828058480816
 20
207.3522620214323
 30
0.0
 40
5.5
  0
LINE
  5
14E2
330
4B13
100
AcDbEntity
  8
AM_7
100
AcDbLine
 10
801.3828058480816
 20
213.8522620214325
 30
0.0
 11
801.3828058480816
 21
200.8522620214321
 31
0.0
  0
CIRCLE
  5
14E3
330
4B13
100
AcDbEntity
  8
0
100
AcDbCircle
 10
801.3828058480816
 20
207.3522620214323
 30
0.0
 40
3.5
  0
LINE
  5
14E4
330
4B13
100
AcDbEntity
  8
AM_7
100
AcDbLine
 10
839.3828058480817
 20
213.8522620214325
 30
0.0
 11
839.3828058480817
 21
200.8522620214321
 31
0.0
  0
CIRCLE
  5
14E5
330
4B13
100
AcDbEntity
  8
0
100
AcDbCircle
 10
839.3828058480817
 20
207.3522620214323
 30
0.0
 40
5.5
  0
CIRCLE
  5
14E6
330
4B13
100
AcDbEntity
  8
0
100
AcDbCircle
 10
839.3828058480817
 20
207.3522620214323
 30
0.0
 40
3.5
  0
ARC
  5
14E7
330
4B13
100
AcDbEntity
  8
0
100
AcDbCircle
 10
820.3828058480818
 20
226.3522620214323
 30
0.0
 40
35.00000000000003
100
AcDbArc
 50
308.5477070152496
 51
51.45229298475042
  0
ARC
  5
14E8
330
4B13
100
AcDbEntity
  8
0
100
AcDbCircle
 10
820.3828058480818
 20
226.3522620214323
 30
0.0
 40
35.00000000000003
100
AcDbArc
 50
128.5477070152495
 51
231.4522929847504
  0
LINE
  5
14E9
330
4B13
100
AcDbEntity
  8
AM_7
100
AcDbLine
 10
865.3823558480818
 20
200.3525220214322
 30
0.0
 11
865.3823558480818
 21
206.3524620214323
 31
0.0
  0
ARC
  5
14EA
330
4B13
100
AcDbEntity
  8
0
 62
     7
100
AcDbCircle
 10
865.3823558480818
 20
198.3525420214323
 30
0.0
 40
9.9999
100
AcDbArc
 50
90.0
 51
149.9999999999994
  0
LINE
  5
14EB
330
4B13
100
AcDbEntity
  8
0
 62
     7
100
AcDbLine
 10
876.3822458480817
 20
258.8519370214324
 30
0.0
 11
876.3822458480817
 21
193.8525870214323
 31
0.0
  0
LINE
  5
14EC
330
4B13
100
AcDbEntity
  8
AM_7
100
AcDbLine
 10
820.3828058480818
 20
266.5661151463865
 30
0.0
 11
820.3828058480818
 21
185.5989172001528
 31
0.0
  0
LINE
  5
14ED
330
4B13
100
AcDbEntity
  8
AM_7
100
AcDbLine
 10
775.3832558480818
 20
200.3525220214322
 30
0.0
 11
775.3832558480818
 21
206.3524620214323
 31
0.0
  0
ARC
  5
14EE
330
4B13
100
AcDbEntity
  8
0
 62
     7
100
AcDbCircle
 10
775.3832558480818
 20
198.3525420214323
 30
0.0
 40
9.9999
100
AcDbArc
 50
30.00000000000056
 51
90.0
  0
LINE
  5
14EF
330
4B13
100
AcDbEntity
  8
0
100
AcDbLine
 10
830.9676546639423
 20
161.9982125339609
 30
0.0
 11
830.9676546639424
 21
136.9982125339609
 31
0.0
  0
LINE
  5
14F0
330
4B13
100
AcDbEntity
  8
0
 62
     7
100
AcDbLine
 10
804.9732619846713
 20
160.9982125339606
 30
0.0
 11
804.9732619846713
 21
136.9982125339609
 31
0.0
  0
LINE
  5
14F1
330
4B13
100
AcDbEntity
  8
0
100
AcDbLine
 10
786.6106489772604
 20
136.5111564016235
 30
0.0
 11
786.2180666273054
 21
121.3514379648986
 31
0.0
  0
LINE
  5
14F2
330
4B13
100
AcDbEntity
  8
0
100
AcDbLine
 10
820.9732619846713
 20
136.9982125339609
 30
0.0
 11
787.1104814054698
 21
136.9982125339609
 31
0.0
  0
ARC
  5
14F3
330
4B13
100
AcDbEntity
  8
0
100
AcDbCircle
 10
787.1104814054698
 20
136.4982125339609
 30
0.0
 40
0.5
100
AcDbArc
 50
90.0
 51
178.5165763010119
  0
LINE
  5
14F4
330
4B13
100
AcDbEntity
  8
0
100
AcDbLine
 10
855.3358749920828
 20
136.5111564016235
 30
0.0
 11
855.7284573420375
 21
121.3514379648986
 31
0.0
  0
LINE
  5
14F5
330
4B13
100
AcDbEntity
  8
0
100
AcDbLine
 10
854.836042563873
 20
136.9982125339609
 30
0.0
 11
820.9732619846713
 21
136.9982125339609
 31
0.0
  0
ARC
  5
14F6
330
4B13
100
AcDbEntity
  8
0
100
AcDbCircle
 10
854.836042563873
 20
136.4982125339609
 30
0.0
 40
0.5
100
AcDbArc
 50
1.483423698988121
 51
90.0
  0
LINE
  5
14F7
330
4B13
100
AcDbEntity
  8
0
100
AcDbLine
 10
841.2588686952759
 20
198.6522620214323
 30
0.0
 11
799.5067430008874
 21
198.6522620214323
 31
0.0
  0
LINE
  5
14F8
330
4B13
100
AcDbEntity
  8
0
100
AcDbLine
 10
804.9732619846713
 20
160.9982125339609
 30
0.0
 11
830.9676546639424
 21
160.9982125339606
 31
0.0
  0
LINE
  5
14F9
330
4B13
100
AcDbEntity
  8
0
 62
     7
100
AcDbLine
 10
805.9732619846712
 20
161.9982125339609
 30
0.0
 11
830.9676546639424
 21
161.9982125339609
 31
0.0
  0
LINE
  5
14FA
330
4B13
100
AcDbEntity
  8
0
 62
     7
100
AcDbLine
 10
847.3825358480818
 20
198.3525420214323
 30
0.0
 11
820.3828058480818
 21
198.3525420214323
 31
0.0
  0
LINE
  5
14FB
330
4B13
100
AcDbEntity
  8
0
 62
     7
100
AcDbLine
 10
846.3633081539935
 20
192.8525970214323
 30
0.0
 11
820.3828058480818
 21
192.8525970214323
 31
0.0
  0
LINE
  5
14FC
330
4B13
100
AcDbEntity
  8
0
 62
     7
100
AcDbLine
 10
871.3822958480815
 20
188.8526370214322
 30
0.0
 11
769.3833158480815
 21
188.8526370214322
 31
0.0
  0
LINE
  5
14FD
330
4B13
100
AcDbEntity
  8
0
 62
     7
100
AcDbLine
 10
805.9732619846712
 20
161.9982125339609
 30
0.0
 11
804.9732619846713
 21
160.9982125339609
 31
0.0
  0
ARC
  5
14FE
330
4B13
100
AcDbEntity
  8
0
100
AcDbCircle
 10
799.5067430008874
 20
200.1522620214323
 30
0.0
 40
1.5
100
AcDbArc
 50
231.4522929847504
 51
270.0
  0
LINE
  5
14FF
330
4B13
100
AcDbEntity
  8
0
 62
     7
100
AcDbLine
 10
794.229673720774
 20
192.8525970214323
 30
0.0
 11
820.3828058480818
 21
192.8525970214323
 31
0.0
  0
LINE
  5
1500
330
4B13
100
AcDbEntity
  8
0
 62
     7
100
AcDbLine
 10
793.3830758480818
 20
198.3525420214323
 30
0.0
 11
820.3828058480818
 21
198.3525420214323
 31
0.0
  0
CIRCLE
  5
1501
330
4B13
100
AcDbEntity
  8
0
 62
     7
100
AcDbCircle
 10
775.3832558480818
 20
198.3525420214323
 30
0.0
 40
4.499954999999999
  0
LINE
  5
1502
330
4B13
100
AcDbEntity
  8
AM_7
100
AcDbLine
 10
775.3832558480818
 20
196.3525620214323
 30
0.0
 11
775.3832558480818
 21
190.3526220214323
 31
0.0
  0
CIRCLE
  5
1503
330
4B13
100
AcDbEntity
  8
0
 62
     7
100
AcDbCircle
 10
775.3832558480818
 20
198.3525420214323
 30
0.0
 40
6.999929999999999
  0
LINE
  5
1504
330
4B13
100
AcDbEntity
  8
AM_7
100
AcDbLine
 10
774.3832658480815
 20
198.3525420214323
 30
0.0
 11
776.3832458480814
 21
198.3525420214323
 31
0.0
  0
LINE
  5
1505
330
4B13
100
AcDbEntity
  8
AM_7
100
AcDbLine
 10
775.3832558480818
 20
199.3525320214323
 30
0.0
 11
775.3832558480818
 21
197.3525520214323
 31
0.0
  0
LINE
  5
1506
330
4B13
100
AcDbEntity
  8
AM_7
100
AcDbLine
 10
777.3832358480815
 20
198.3525420214323
 30
0.0
 11
783.3831758480815
 21
198.3525420214323
 31
0.0
  0
ARC
  5
1507
330
4B13
100
AcDbEntity
  8
0
 62
     7
100
AcDbCircle
 10
820.3828058480818
 20
226.3522620214323
 30
0.0
 40
42.49957499999999
100
AcDbArc
 50
217.9790985328224
 51
232.0209014671797
  0
LINE
  5
1508
330
4B13
100
AcDbEntity
  8
0
 62
     7
100
AcDbLine
 10
789.3831158480816
 20
202.3525020214322
 30
0.0
 11
793.3830758480818
 21
198.3525420214323
 31
0.0
  0
ARC
  5
1509
330
4B13
100
AcDbEntity
  8
0
 62
     7
100
AcDbCircle
 10
785.775456770446
 20
204.3524820214321
 30
0.0
 40
1.99998
100
AcDbArc
 50
210.0000000000004
 51
270.0
  0
LINE
  5
150A
330
4B13
100
AcDbEntity
  8
0
 62
     7
100
AcDbLine
 10
785.775456770446
 20
202.3525020214322
 30
0.0
 11
789.3831158480816
 21
202.3525020214322
 31
0.0
  0
LINE
  5
150B
330
4B13
100
AcDbEntity
  8
0
 62
     7
100
AcDbLine
 10
786.8831408480815
 20
202.3525020214322
 30
0.0
 11
786.8831408480815
 21
200.1991298941248
 31
0.0
  0
LINE
  5
150C
330
4B13
100
AcDbEntity
  8
AM_7
100
AcDbLine
 10
863.3823758480817
 20
198.3525420214323
 30
0.0
 11
857.3824358480814
 21
198.3525420214323
 31
0.0
  0
CIRCLE
  5
150D
330
4B13
100
AcDbEntity
  8
0
 62
     7
100
AcDbCircle
 10
865.3823558480818
 20
198.3525420214323
 30
0.0
 40
6.999929999999999
  0
CIRCLE
  5
150E
330
4B13
100
AcDbEntity
  8
0
 62
     7
100
AcDbCircle
 10
865.3823558480818
 20
198.3525420214323
 30
0.0
 40
4.499954999999999
  0
ARC
  5
150F
330
4B13
100
AcDbEntity
  8
0
100
AcDbCircle
 10
841.2588686952759
 20
200.1522620214323
 30
0.0
 40
1.5
100
AcDbArc
 50
270.0
 51
308.5477070152496
  0
ARC
  5
1510
330
4B13
100
AcDbEntity
  8
0
 62
     7
100
AcDbCircle
 10
820.3828058480818
 20
226.3522620214323
 30
0.0
 40
42.49957499999999
100
AcDbArc
 50
307.8160393151021
 51
321.7867892982652
  0
ARC
  5
1511
330
4B13
100
AcDbEntity
  8
0
 62
     7
100
AcDbCircle
 10
846.3633081539935
 20
193.3525920214322
 30
0.0
 40
0.4999950000000001
100
AcDbArc
 50
270.0
 51
308.2132107017311
  0
LINE
  5
1512
330
4B13
100
AcDbEntity
  8
0
 62
     7
100
AcDbLine
 10
854.9901549257166
 20
202.3525020214322
 30
0.0
 11
851.3824958480817
 21
202.3525020214322
 31
0.0
  0
LINE
  5
1513
330
4B13
100
AcDbEntity
  8
0
 62
     7
100
AcDbLine
 10
854.9901549257166
 20
202.3525020214322
 30
0.0
 11
845.8585103514392
 21
202.3525020214322
 31
0.0
  0
LINE
  5
1514
330
4B13
100
AcDbEntity
  8
0
 62
     7
100
AcDbLine
 10
851.3824958480817
 20
202.3525020214322
 30
0.0
 11
847.3825358480818
 21
198.3525420214323
 31
0.0
  0
LINE
  5
1515
330
4B13
100
AcDbEntity
  8
0
 62
     7
100
AcDbLine
 10
853.8824708480815
 20
202.3525020214322
 30
0.0
 11
853.8824708480815
 21
200.3717597155203
 31
0.0
  0
ARC
  5
1516
330
4B13
100
AcDbEntity
  8
0
 62
     7
100
AcDbCircle
 10
853.3824758480815
 20
200.3717597155203
 30
0.0
 40
0.4999950000000001
100
AcDbArc
 50
321.7867892982575
 51
0.0
  0
ARC
  5
1517
330
4B13
100
AcDbEntity
  8
0
 62
     7
100
AcDbCircle
 10
854.9901549257166
 20
204.3524820214321
 30
0.0
 40
1.99998
100
AcDbArc
 50
270.0
 51
329.9999999999995
  0
ARC
  5
1518
330
4B13
100
AcDbEntity
  8
0
 62
     7
100
AcDbCircle
 10
871.3822958480815
 20
193.8525870214323
 30
0.0
 40
4.99995
100
AcDbArc
 50
270.0
 51
0.0
  0
LINE
  5
1519
330
4B13
100
AcDbEntity
  8
AM_7
100
AcDbLine
 10
865.3823558480818
 20
196.3525620214323
 30
0.0
 11
865.3823558480818
 21
190.3526220214323
 31
0.0
  0
LINE
  5
151A
330
4B13
100
AcDbEntity
  8
AM_7
100
AcDbLine
 10
867.3823358480817
 20
198.3525420214323
 30
0.0
 11
873.3822758480812
 21
198.3525420214323
 31
0.0
  0
LINE
  5
151B
330
4B13
100
AcDbEntity
  8
AM_7
100
AcDbLine
 10
864.3823658480812
 20
198.3525420214323
 30
0.0
 11
866.3823458480814
 21
198.3525420214323
 31
0.0
  0
LINE
  5
151C
330
4B13
100
AcDbEntity
  8
AM_7
100
AcDbLine
 10
865.3823558480818
 20
199.3525320214323
 30
0.0
 11
865.3823558480818
 21
197.3525520214323
 31
0.0
  0
LINE
  5
151D
330
4B13
100
AcDbEntity
  8
0
100
AcDbLine
 10
841.2588686952759
 20
254.0522620214323
 30
0.0
 11
799.5067430008874
 21
254.0522620214324
 31
0.0
  0
CIRCLE
  5
151E
330
4B13
100
AcDbEntity
  8
0
100
AcDbCircle
 10
820.3828058480818
 20
226.3522620214323
 30
0.0
 40
19.0
  0
ARC
  5
151F
330
4B13
100
AcDbEntity
  8
0
100
AcDbCircle
 10
820.3828058480818
 20
226.3522620214323
 30
0.0
 40
15.00000000000003
100
AcDbArc
 50
48.18968510422388
 51
311.8103148957761
  0
CIRCLE
  5
1520
330
4B13
100
AcDbEntity
  8
0
 62
     7
100
AcDbCircle
 10
820.3828058480818
 20
226.3522620214323
 30
0.0
 40
16.00000000000001
  0
LINE
  5
1521
330
4B13
100
AcDbEntity
  8
0
 62
     7
100
AcDbLine
 10
846.5359379753889
 20
259.8519270214322
 30
0.0
 11
820.3828058480818
 21
259.8519270214322
 31
0.0
  0
LINE
  5
1522
330
4B13
100
AcDbEntity
  8
0
 62
     7
100
AcDbLine
 10
871.3822958480815
 20
263.8518870214323
 30
0.0
 11
769.3833158480815
 21
263.8518870214323
 31
0.0
  0
LINE
  5
1523
330
4B13
100
AcDbEntity
  8
AM_7
100
AcDbLine
 10
801.3828058480816
 20
251.8522620214325
 30
0.0
 11
801.3828058480816
 21
238.8522620214321
 31
0.0
  0
CIRCLE
  5
1524
330
4B13
100
AcDbEntity
  8
0
100
AcDbCircle
 10
801.3828058480816
 20
245.3522620214323
 30
0.0
 40
3.5
  0
CIRCLE
  5
1525
330
4B13
100
AcDbEntity
  8
0
100
AcDbCircle
 10
801.3828058480816
 20
245.3522620214323
 30
0.0
 40
5.5
  0
ARC
  5
1526
330
4B13
100
AcDbEntity
  8
0
 62
     7
100
AcDbCircle
 10
775.3832558480818
 20
254.3519820214322
 30
0.0
 40
9.9999
100
AcDbArc
 50
270.0
 51
329.9999999999995
  0
LINE
  5
1527
330
4B13
100
AcDbEntity
  8
AM_7
100
AcDbLine
 10
775.3832558480818
 20
252.3520020214323
 30
0.0
 11
775.3832558480818
 21
246.3520620214322
 31
0.0
  0
CIRCLE
  5
1528
330
4B13
100
AcDbEntity
  8
0
 62
     7
100
AcDbCircle
 10
775.3832558480818
 20
254.3519820214322
 30
0.0
 40
6.999929999999999
  0
LINE
  5
1529
330
4B13
100
AcDbEntity
  8
AM_7
100
AcDbLine
 10
794.882805848081
 20
207.3522620214323
 30
0.0
 11
807.8828058480818
 21
207.3522620214323
 31
0.0
  0
LINE
  5
152A
330
4B13
100
AcDbEntity
  8
AM_7
100
AcDbLine
 10
794.882805848081
 20
245.3522620214323
 30
0.0
 11
807.8828058480818
 21
245.3522620214323
 31
0.0
  0
CIRCLE
  5
152B
330
4B13
100
AcDbEntity
  8
0
100
AcDbCircle
 10
794.3828058480818
 20
226.3522620214323
 30
0.0
 40
5.5
  0
CIRCLE
  5
152C
330
4B13
100
AcDbEntity
  8
0
100
AcDbCircle
 10
794.3828058480818
 20
226.3522620214323
 30
0.0
 40
3.5
  0
LINE
  5
152D
330
4B13
100
AcDbEntity
  8
AM_7
100
AcDbLine
 10
794.3828058480818
 20
232.8522620214325
 30
0.0
 11
794.3828058480818
 21
219.8522620214321
 31
0.0
  0
CIRCLE
  5
152E
330
4B13
100
AcDbEntity
  8
0
 62
     7
100
AcDbCircle
 10
772.3832858480816
 20
226.3522620214323
 30
0.0
 40
2.199978
  0
LINE
  5
152F
330
4B13
100
AcDbEntity
  8
0
 62
     7
100
AcDbLine
 10
784.817422530495
 20
219.988766945025
 30
0.0
 11
780.0903523776809
 21
222.3523020214321
 31
0.0
  0
LINE
  5
1530
330
4B13
100
AcDbEntity
  8
AM_7
100
AcDbLine
 10
772.3832858480816
 20
224.3522820214323
 30
0.0
 11
772.3832858480816
 21
223.1522940214322
 31
0.0
  0
LINE
  5
1531
330
4B13
100
AcDbEntity
  8
AM_7
100
AcDbLine
 10
772.3832858480816
 20
227.3522520214322
 30
0.0
 11
772.3832858480816
 21
225.3522720214323
 31
0.0
  0
ARC
  5
1532
330
4B13
100
AcDbEntity
  8
0
 62
     7
100
AcDbCircle
 10
783.7225668944904
 20
216.3523620214323
 30
0.0
 40
2.999969999999999
100
AcDbArc
 50
15.25752329045662
 51
90.0
  0
ARC
  5
1533
330
4B13
100
AcDbEntity
  8
0
 62
     7
100
AcDbCircle
 10
783.4757951604034
 20
217.3055122048411
 30
0.0
 40
2.999969999999999
100
AcDbArc
 50
13.77293802769838
 51
63.43494882291983
  0
LINE
  5
1534
330
4B13
100
AcDbEntity
  8
0
 62
     7
100
AcDbLine
 10
784.817422530495
 20
232.7157570978393
 30
0.0
 11
780.0903523776809
 21
230.3522220214322
 31
0.0
  0
LINE
  5
1535
330
4B13
100
AcDbEntity
  8
AM_7
100
AcDbLine
 10
772.3832858480816
 20
228.3522420214322
 30
0.0
 11
772.3832858480816
 21
229.5522300214321
 31
0.0
  0
ARC
  5
1536
330
4B13
100
AcDbEntity
  8
0
 62
     7
100
AcDbCircle
 10
783.7225668944904
 20
236.3521620214322
 30
0.0
 40
2.999969999999999
100
AcDbArc
 50
270.0
 51
344.7424767095434
  0
ARC
  5
1537
330
4B13
100
AcDbEntity
  8
0
 62
     7
100
AcDbCircle
 10
783.4757951604029
 20
235.3990118380234
 30
0.0
 40
2.999969999999999
100
AcDbArc
 50
296.5650511770802
 51
346.2270619723016
  0
ARC
  5
1538
330
4B13
100
AcDbEntity
  8
0
100
AcDbCircle
 10
799.5067430008874
 20
252.5522620214324
 30
0.0
 40
1.5
100
AcDbArc
 50
90.0
 51
128.5477070152495
  0
LINE
  5
1539
330
4B13
100
AcDbEntity
  8
0
 62
     7
100
AcDbLine
 10
793.3830758480818
 20
254.3519820214322
 30
0.0
 11
805.3829558480815
 21
254.3519820214322
 31
0.0
  0
LINE
  5
153A
330
4B13
100
AcDbEntity
  8
0
 62
     7
100
AcDbLine
 10
794.229673720774
 20
259.8519270214322
 30
0.0
 11
820.3828058480818
 21
259.8519270214322
 31
0.0
  0
LINE
  5
153B
330
4B13
100
AcDbEntity
  8
AM_7
100
AcDbLine
 10
775.3832558480818
 20
256.3519620214322
 30
0.0
 11
775.3832558480818
 21
262.3519020214323
 31
0.0
  0
LINE
  5
153C
330
4B13
100
AcDbEntity
  8
AM_7
100
AcDbLine
 10
774.3832658480815
 20
254.3519820214322
 30
0.0
 11
776.3832458480814
 21
254.3519820214322
 31
0.0
  0
CIRCLE
  5
153D
330
4B13
100
AcDbEntity
  8
0
 62
     7
100
AcDbCircle
 10
775.3832558480818
 20
254.3519820214322
 30
0.0
 40
4.499954999999999
  0
LINE
  5
153E
330
4B13
100
AcDbEntity
  8
AM_7
100
AcDbLine
 10
775.3832558480818
 20
255.3519720214324
 30
0.0
 11
775.3832558480818
 21
253.3519920214323
 31
0.0
  0
LINE
  5
153F
330
4B13
100
AcDbEntity
  8
AM_7
100
AcDbLine
 10
777.3832358480815
 20
254.3519820214322
 30
0.0
 11
783.3831758480815
 21
254.3519820214322
 31
0.0
  0
LINE
  5
1540
330
4B13
100
AcDbEntity
  8
AM_7
100
AcDbLine
 10
777.3832358480815
 20
254.3519820214322
 30
0.0
 11
783.3831758480815
 21
254.3519820214322
 31
0.0
  0
ARC
  5
1541
330
4B13
100
AcDbEntity
  8
0
 62
     7
100
AcDbCircle
 10
820.3828058480818
 20
226.3522620214323
 30
0.0
 40
42.49957499999999
100
AcDbArc
 50
127.9790985328202
 51
142.0209014671774
  0
LINE
  5
1542
330
4B13
100
AcDbEntity
  8
0
 62
     7
100
AcDbLine
 10
789.3831158480816
 20
250.3520220214323
 30
0.0
 11
793.3830758480818
 21
254.3519820214322
 31
0.0
  0
LINE
  5
1543
330
4B13
100
AcDbEntity
  8
0
 62
     7
100
AcDbLine
 10
785.7754567704469
 20
250.3520220214323
 30
0.0
 11
789.3831158480816
 21
250.3520220214323
 31
0.0
  0
LINE
  5
1544
330
4B13
100
AcDbEntity
  8
0
 62
     7
100
AcDbLine
 10
786.8831408480815
 20
252.5053941487397
 30
0.0
 11
786.8831408480815
 21
250.3520220214323
 31
0.0
  0
ARC
  5
1545
330
4B13
100
AcDbEntity
  8
0
 62
     7
100
AcDbCircle
 10
785.7754567704469
 20
248.3520420214322
 30
0.0
 40
1.99998
100
AcDbArc
 50
90.0
 51
149.9999999999994
  0
LINE
  5
1546
330
4B13
100
AcDbEntity
  8
0
 62
     7
100
AcDbLine
 10
805.3829558480815
 20
259.8519270214322
 30
0.0
 11
805.3829558480815
 21
254.3519820214322
 31
0.0
  0
LINE
  5
1547
330
4B13
100
AcDbEntity
  8
AM_7
100
AcDbLine
 10
839.3828058480817
 20
251.8522620214325
 30
0.0
 11
839.3828058480817
 21
238.8522620214321
 31
0.0
  0
CIRCLE
  5
1548
330
4B13
100
AcDbEntity
  8
0
100
AcDbCircle
 10
839.3828058480817
 20
245.3522620214323
 30
0.0
 40
3.5
  0
CIRCLE
  5
1549
330
4B13
100
AcDbEntity
  8
0
100
AcDbCircle
 10
839.3828058480817
 20
245.3522620214323
 30
0.0
 40
5.5
  0
LINE
  5
154A
330
4B13
100
AcDbEntity
  8
AM_7
100
AcDbLine
 10
865.3823558480818
 20
252.3520020214323
 30
0.0
 11
865.3823558480818
 21
246.3520620214322
 31
0.0
  0
ARC
  5
154B
330
4B13
100
AcDbEntity
  8
0
 62
     7
100
AcDbCircle
 10
865.3823558480818
 20
254.3519820214322
 30
0.0
 40
9.9999
100
AcDbArc
 50
210.0000000000004
 51
270.0
  0
CIRCLE
  5
154C
330
4B13
100
AcDbEntity
  8
0
 62
     7
100
AcDbCircle
 10
865.3823558480818
 20
254.3519820214322
 30
0.0
 40
6.999929999999999
  0
CIRCLE
  5
154D
330
4B13
100
AcDbEntity
  8
0
100
AcDbCircle
 10
846.3828058480817
 20
226.3522620214323
 30
0.0
 40
5.5
  0
LINE
  5
154E
330
4B13
100
AcDbEntity
  8
AM_7
100
AcDbLine
 10
846.3828058480817
 20
232.8522620214326
 30
0.0
 11
846.3828058480817
 21
219.8522620214321
 31
0.0
  0
CIRCLE
  5
154F
330
4B13
100
AcDbEntity
  8
0
100
AcDbCircle
 10
846.3828058480817
 20
226.3522620214323
 30
0.0
 40
3.5
  0
LINE
  5
1550
330
4B13
100
AcDbEntity
  8
0
  6
Continuous
 62
     7
100
AcDbLine
 10
830.3828058480817
 20
213.8622660246355
 30
0.0
 11
830.3828058480817
 21
238.8422580182291
 31
0.0
  0
LINE
  5
1551
330
4B13
100
AcDbEntity
  8
0
 62
     7
100
AcDbLine
 10
860.9536675189433
 20
243.3503920384322
 30
0.0
 11
860.9536675189433
 21
209.3541320044321
 31
0.0
  0
LINE
  5
1552
330
4B13
100
AcDbEntity
  8
0
 62
     7
100
AcDbLine
 10
855.9542175139434
 20
243.3503920384322
 30
0.0
 11
855.9542175139434
 21
209.3541320044321
 31
0.0
  0
LINE
  5
1553
330
4B13
100
AcDbEntity
  8
AM_7
100
AcDbLine
 10
832.882805848081
 20
207.3522620214323
 30
0.0
 11
845.8828058480818
 21
207.3522620214323
 31
0.0
  0
LINE
  5
1554
330
4B13
100
AcDbEntity
  8
0
 62
     7
100
AcDbLine
 10
860.9536675189433
 20
209.3541320044321
 30
0.0
 11
855.9542175139434
 21
209.3541320044321
 31
0.0
  0
LINE
  5
1555
330
4B13
100
AcDbEntity
  8
AM_7
100
AcDbLine
 10
832.882805848081
 20
245.3522620214323
 30
0.0
 11
845.8828058480818
 21
245.3522620214323
 31
0.0
  0
LINE
  5
1556
330
4B13
100
AcDbEntity
  8
0
 62
     7
100
AcDbLine
 10
860.9536675189433
 20
243.3503920384322
 30
0.0
 11
855.9542175139434
 21
243.3503920384322
 31
0.0
  0
LINE
  5
1557
330
4B13
100
AcDbEntity
  8
0
 62
     7
100
AcDbLine
 10
862.8823808480815
 20
243.2277955337657
 30
0.0
 11
862.8823808480815
 21
209.4767285090981
 31
0.0
  0
ARC
  5
1558
330
4B13
100
AcDbEntity
  8
0
 62
     7
100
AcDbCircle
 10
868.3823258480815
 20
226.3522620214323
 30
0.0
 40
4.99995
100
AcDbArc
 50
94.0960437581514
 51
265.9039562418485
  0
CIRCLE
  5
1559
330
4B13
100
AcDbEntity
  8
0
 62
     7
100
AcDbCircle
 10
868.3823258480815
 20
226.3522620214323
 30
0.0
 40
2.199978
  0
LINE
  5
155A
330
4B13
100
AcDbEntity
  8
AM_7
100
AcDbLine
 10
878.7735442841521
 20
218.3522620214323
 30
0.0
 11
865.5577717069382
 21
218.3522620214323
 31
0.0
  0
LINE
  5
155B
330
4B13
100
AcDbEntity
  8
0
 62
     7
100
AcDbLine
 10
869.882310848081
 20
219.3702118207486
 30
0.0
 11
869.882310848081
 21
210.3524220214322
 31
0.0
  0
LINE
  5
155C
330
4B13
100
AcDbEntity
  8
AM_HID
  6
HIDDEN
100
AcDbLine
 10
876.3822458480817
 20
214.3522620214323
 30
0.0
 11
868.2644495089881
 21
214.9199136394318
 31
0.0
  0
LINE
  5
155D
330
4B13
100
AcDbEntity
  8
AM_HID
  6
HIDDEN
100
AcDbLine
 10
876.4240997323282
 20
214.9508004515882
 30
0.0
 11
868.3063033932349
 21
215.5184520695877
 31
0.0
  0
ARC
  5
155E
330
4B13
100
AcDbEntity
  8
0
 62
     7
100
AcDbCircle
 10
867.8823308480811
 20
210.3524220214322
 30
0.0
 40
1.99998
100
AcDbArc
 50
270.0
 51
0.0
  0
LINE
  5
155F
330
4B13
100
AcDbEntity
  8
0
 62
     7
100
AcDbLine
 10
867.8823308480811
 20
208.3524420214323
 30
0.0
 11
865.3823558480818
 21
208.3524420214323
 31
0.0
  0
ARC
  5
1560
330
4B13
100
AcDbEntity
  8
0
 62
     7
100
AcDbCircle
 10
860.882400848081
 20
209.4767285090981
 30
0.0
 40
1.99998
100
AcDbArc
 50
292.024312837042
 51
0.0
  0
LINE
  5
1561
330
4B13
100
AcDbEntity
  8
AM_HID
  6
HIDDEN
100
AcDbLine
 10
876.4240997323282
 20
221.7537235912764
 30
0.0
 11
868.3063033932349
 21
221.1860719732769
 31
0.0
  0
LINE
  5
1562
330
4B13
100
AcDbEntity
  8
AM_HID
  6
HIDDEN
100
AcDbLine
 10
876.3822458480817
 20
222.3522620214323
 30
0.0
 11
868.2644495089881
 21
221.7846104034329
 31
0.0
  0
ARC
  5
1563
330
4B13
100
AcDbEntity
  8
0
 62
     7
100
AcDbCircle
 10
867.8823308480811
 20
219.3702118207486
 30
0.0
 40
1.99998
100
AcDbArc
 50
0.0
 51
85.90395624184861
  0
LINE
  5
1564
330
4B13
100
AcDbEntity
  8
AM_7
100
AcDbLine
 10
868.3823258480815
 20
224.3522820214323
 30
0.0
 11
868.3823258480815
 21
223.1522940214322
 31
0.0
  0
LINE
  5
1565
330
4B13
100
AcDbEntity
  8
AM_7
100
AcDbLine
 10
868.3823258480815
 20
227.3522520214322
 30
0.0
 11
868.3823258480815
 21
225.3522720214323
 31
0.0
  0
LINE
  5
1566
330
4B13
100
AcDbEntity
  8
AM_7
100
AcDbLine
 10
878.7735442841521
 20
234.3522620214324
 30
0.0
 11
865.5577717069382
 21
234.3522620214324
 31
0.0
  0
LINE
  5
1567
330
4B13
100
AcDbEntity
  8
AM_HID
  6
HIDDEN
100
AcDbLine
 10
876.3822458480817
 20
238.3522620214324
 30
0.0
 11
868.2644495089881
 21
237.7846104034329
 31
0.0
  0
ARC
  5
1568
330
4B13
100
AcDbEntity
  8
0
 62
     7
100
AcDbCircle
 10
868.8823208480817
 20
237.3521520214322
 30
0.0
 40
0.99999
100
AcDbArc
 50
0.0
 51
90.0
  0
LINE
  5
1569
330
4B13
100
AcDbEntity
  8
0
 62
     7
100
AcDbLine
 10
869.882310848081
 20
242.3521020214323
 30
0.0
 11
869.882310848081
 21
233.3343122221161
 31
0.0
  0
ARC
  5
156A
330
4B13
100
AcDbEntity
  8
0
 62
     7
100
AcDbCircle
 10
863.3823758480817
 20
237.8521470214323
 30
0.0
 40
0.4999950000000001
100
AcDbArc
 50
90.0
 51
180.0
  0
LINE
  5
156B
330
4B13
100
AcDbEntity
  8
AM_HID
  6
HIDDEN
100
AcDbLine
 10
876.4240997323282
 20
230.9508004515882
 30
0.0
 11
868.3063033932349
 21
231.5184520695877
 31
0.0
  0
LINE
  5
156C
330
4B13
100
AcDbEntity
  8
AM_HID
  6
HIDDEN
100
AcDbLine
 10
876.4240997323282
 20
237.7537235912764
 30
0.0
 11
868.3063033932349
 21
237.186071973277
 31
0.0
  0
LINE
  5
156D
330
4B13
100
AcDbEntity
  8
AM_HID
  6
HIDDEN
100
AcDbLine
 10
876.3822458480817
 20
230.3522620214323
 30
0.0
 11
868.2644495089881
 21
230.9199136394318
 31
0.0
  0
ARC
  5
156E
330
4B13
100
AcDbEntity
  8
0
 62
     7
100
AcDbCircle
 10
867.8823308480811
 20
233.3343122221161
 30
0.0
 40
1.99998
100
AcDbArc
 50
274.0960437581514
 51
0.0
  0
LINE
  5
156F
330
4B13
100
AcDbEntity
  8
AM_7
100
AcDbLine
 10
868.3823258480815
 20
228.3522420214322
 30
0.0
 11
868.3823258480815
 21
229.5522300214321
 31
0.0
  0
ARC
  5
1570
330
4B13
100
AcDbEntity
  8
0
 62
     7
100
AcDbCircle
 10
867.8823308480811
 20
242.3521020214323
 30
0.0
 40
1.99998
100
AcDbArc
 50
0.0
 51
90.0
  0
LINE
  5
1571
330
4B13
100
AcDbEntity
  8
0
 62
     7
100
AcDbLine
 10
868.8823208480817
 20
238.3521420214322
 30
0.0
 11
863.3823758480817
 21
238.3521420214322
 31
0.0
  0
LINE
  5
1572
330
4B13
100
AcDbEntity
  8
0
 62
     7
100
AcDbLine
 10
867.8823308480811
 20
244.3520820214323
 30
0.0
 11
865.3823558480818
 21
244.3520820214323
 31
0.0
  0
ARC
  5
1573
330
4B13
100
AcDbEntity
  8
0
 62
     7
100
AcDbCircle
 10
860.882400848081
 20
243.2277955337657
 30
0.0
 40
1.99998
100
AcDbArc
 50
0.0
 51
67.97568716295794
  0
LINE
  5
1574
330
4B13
100
AcDbEntity
  8
AM_7
100
AcDbLine
 10
863.3823758480817
 20
254.3519820214322
 30
0.0
 11
857.3824358480814
 21
254.3519820214322
 31
0.0
  0
CIRCLE
  5
1575
330
4B13
100
AcDbEntity
  8
0
 62
     7
100
AcDbCircle
 10
865.3823558480818
 20
254.3519820214322
 30
0.0
 40
4.499954999999999
  0
LINE
  5
1576
330
4B13
100
AcDbEntity
  8
0
 62
     7
100
AcDbLine
 10
847.3825358480818
 20
254.3519820214322
 30
0.0
 11
835.3826558480815
 21
254.3519820214322
 31
0.0
  0
LINE
  5
1577
330
4B13
100
AcDbEntity
  8
0
 62
     7
100
AcDbLine
 10
835.3826558480815
 20
259.8519270214322
 30
0.0
 11
835.3826558480815
 21
254.3519820214322
 31
0.0
  0
ARC
  5
1578
330
4B13
100
AcDbEntity
  8
0
100
AcDbCircle
 10
841.2588686952759
 20
252.5522620214323
 30
0.0
 40
1.5
100
AcDbArc
 50
51.45229298475042
 51
90.0
  0
ARC
  5
1579
330
4B13
100
AcDbEntity
  8
0
 62
     7
100
AcDbCircle
 10
820.3828058480818
 20
226.3522620214323
 30
0.0
 40
42.49957499999999
100
AcDbArc
 50
37.97909853282256
 51
52.02090146717975
  0
LINE
  5
157A
330
4B13
100
AcDbEntity
  8
0
 62
     7
100
AcDbLine
 10
854.9901549257166
 20
250.3520220214323
 30
0.0
 11
851.3824958480817
 21
250.3520220214323
 31
0.0
  0
LINE
  5
157B
330
4B13
100
AcDbEntity
  8
0
 62
     7
100
AcDbLine
 10
851.3824958480817
 20
250.3520220214323
 30
0.0
 11
847.3825358480818
 21
254.3519820214322
 31
0.0
  0
LINE
  5
157C
330
4B13
100
AcDbEntity
  8
0
 62
     7
100
AcDbLine
 10
853.8824708480815
 20
252.5053941487397
 30
0.0
 11
853.8824708480815
 21
250.3520220214323
 31
0.0
  0
ARC
  5
157D
330
4B13
100
AcDbEntity
  8
0
 62
     7
100
AcDbCircle
 10
854.9901549257166
 20
248.3520420214322
 30
0.0
 40
1.99998
100
AcDbArc
 50
30.00000000000056
 51
90.0
  0
ARC
  5
157E
330
4B13
100
AcDbEntity
  8
0
 62
     7
100
AcDbCircle
 10
871.3822958480815
 20
258.8519370214324
 30
0.0
 40
4.99995
100
AcDbArc
 50
0.0
 51
90.0
  0
LINE
  5
157F
330
4B13
100
AcDbEntity
  8
AM_7
100
AcDbLine
 10
865.3823558480818
 20
256.3519620214322
 30
0.0
 11
865.3823558480818
 21
262.3519020214323
 31
0.0
  0
LINE
  5
1580
330
4B13
100
AcDbEntity
  8
AM_7
100
AcDbLine
 10
867.3823358480817
 20
254.3519820214322
 30
0.0
 11
873.3822758480812
 21
254.3519820214322
 31
0.0
  0
LINE
  5
1581
330
4B13
100
AcDbEntity
  8
AM_7
100
AcDbLine
 10
864.3823658480812
 20
254.3519820214322
 30
0.0
 11
866.3823458480814
 21
254.3519820214322
 31
0.0
  0
LINE
  5
1582
330
4B13
100
AcDbEntity
  8
AM_7
100
AcDbLine
 10
865.3823558480818
 20
255.3519720214324
 30
0.0
 11
865.3823558480818
 21
253.3519920214323
 31
0.0
  0
LINE
  5
1583
330
4B13
100
AcDbEntity
  8
0
100
AcDbLine
 10
970.1830878939327
 20
136.9903689185096
 30
0.0
 11
942.4830878939326
 21
136.9903689185096
 31
0.0
  0
LINE
  5
1584
330
4B13
100
AcDbEntity
  8
0
100
AcDbLine
 10
997.8830878939321
 20
136.9903689185095
 30
0.0
 11
970.1830878939327
 21
136.9903689185096
 31
0.0
  0
LINE
  5
1585
330
4B13
100
AcDbEntity
  8
0
100
AcDbLine
 10
942.4830878939326
 20
136.9903689185096
 30
0.0
 11
942.4830878939326
 21
126.341511883518
 31
0.0
  0
LINE
  5
1586
330
4B13
100
AcDbEntity
  8
0
100
AcDbLine
 10
997.8830878939321
 20
136.9903689185095
 30
0.0
 11
997.8830878939321
 21
126.341511883518
 31
0.0
  0
LINE
  5
1587
330
4B13
100
AcDbEntity
  8
0
  6
Continuous
100
AcDbLine
 10
994.1830878939324
 20
121.3435943494473
 30
0.0
 11
994.1830878939324
 21
126.341511883518
 31
0.0
  0
LINE
  5
1588
330
4B13
100
AcDbEntity
  8
0
  6
Continuous
100
AcDbLine
 10
946.1830878939327
 20
121.3435943494473
 30
0.0
 11
946.1830878939327
 21
126.341511883518
 31
0.0
  0
LINE
  5
1589
330
4B13
100
AcDbEntity
  8
0
100
AcDbLine
 10
846.6725998481114
 20
126.3493554989695
 30
0.0
 11
846.6725998481114
 21
121.3514379648986
 31
0.0
  0
LINE
  5
158A
330
4B13
100
AcDbEntity
  8
0
100
AcDbLine
 10
795.2739241212314
 20
126.3493554989695
 30
0.0
 11
795.2739241212314
 21
121.3514379648986
 31
0.0
  0
LINE
  5
158B
330
4B13
100
AcDbEntity
  8
0
 62
     7
100
AcDbLine
 10
955.1830878939327
 20
161.9903689185096
 30
0.0
 11
954.1830878939327
 21
160.9903689185096
 31
0.0
  0
LINE
  5
158C
330
4B13
100
AcDbEntity
  8
0
100
AcDbLine
 10
954.1830878939327
 20
160.9903689185096
 30
0.0
 11
957.6830878939327
 21
160.9903689185096
 31
0.0
  0
LINE
  5
158D
330
4B13
100
AcDbEntity
  8
0
 62
     7
100
AcDbLine
 10
954.1830878939327
 20
160.9903689185092
 30
0.0
 11
954.1830878939327
 21
136.9903689185096
 31
0.0
  0
LINE
  5
158E
330
4B13
100
AcDbEntity
  8
0
 62
     7
100
AcDbLine
 10
955.1830878939327
 20
161.9903689185096
 30
0.0
 11
985.1830878939324
 21
161.9903689185096
 31
0.0
  0
LINE
  5
158F
330
4B13
100
AcDbEntity
  8
0
 62
     7
100
AcDbLine
 10
985.1830878939324
 20
161.9903689185096
 30
0.0
 11
986.1830878939327
 21
160.9903689185096
 31
0.0
  0
LINE
  5
1590
330
4B13
100
AcDbEntity
  8
0
 62
     7
100
AcDbLine
 10
986.1830878939327
 20
160.9903689185092
 30
0.0
 11
986.1830878939327
 21
136.9903689185096
 31
0.0
  0
LINE
  5
1591
330
4B13
100
AcDbEntity
  8
0
  6
Continuous
100
AcDbLine
 10
957.6830878939324
 20
136.9903689185095
 30
0.0
 11
957.6830878939327
 21
161.9903689185096
 31
0.0
  0
LINE
  5
1592
330
4B13
100
AcDbEntity
  8
0
  6
Continuous
100
AcDbLine
 10
982.6830878939324
 20
136.9903689185095
 30
0.0
 11
982.6830878939327
 21
161.9903689185096
 31
0.0
  0
LINE
  5
1593
330
4B13
100
AcDbEntity
  8
0
100
AcDbLine
 10
982.6830878939327
 20
160.9903689185092
 30
0.0
 11
986.1830878939327
 21
160.9903689185092
 31
0.0
  0
LINE
  5
1594
330
4B13
100
AcDbEntity
  8
0
100
AcDbLine
 10
957.6830878939327
 20
161.9903689185096
 30
0.0
 11
967.9900804798572
 21
136.9903689185096
 31
0.0
  0
LINE
  5
1595
330
4B13
100
AcDbEntity
  8
0
100
AcDbLine
 10
982.6830878939327
 20
161.9903689185096
 30
0.0
 11
972.3760953080075
 21
136.9903689185096
 31
0.0
  0
ARC
  5
1596
330
4B13
100
AcDbEntity
  8
AM_7
100
AcDbCircle
 10
820.9769297618148
 20
-63.5665209409118
 30
0.0
 40
42.35632238675012
100
AcDbArc
 50
30.29567328378309
 51
59.14238535870333
  0
ARC
  5
1597
330
4B13
100
AcDbEntity
  8
AM_7
100
AcDbCircle
 10
820.9769297618148
 20
-63.5665209409118
 30
0.0
 40
42.35632238675012
100
AcDbArc
 50
210.1766560372247
 51
239.4557992297506
  0
DIMENSION
  5
18E3
330
4B13
100
AcDbEntity
  8
AM_5
100
AcDbDimension
  2
*D7
 10
752.9965856030782
 20
6.39933468127027
 30
0.0
 11
748.0465856030782
 21
53.87955125494302
 31
0.0
  1
95
 71
     5
 42
-1.0
  3
AM_ISO
100
AcDbAlignedDimension
 13
764.9965856030783
 23
101.3597678286155
 33
0.0
 14
788.4872145063971
 24
6.399334681270261
 34
0.0
 50
90.0
100
AcDbRotatedDimension
1001
ACAD
1000
DSTYLE
1002
{
1070
    40
1040
1.8
1070
    43
1040
10.0
1002
}
  0
DIMENSION
  5
18E6
330
4B13
100
AcDbEntity
  8
AM_5
100
AcDbDimension
  2
*D9
 10
986.1830878939327
 20
172.9903689185094
 30
0.0
 11
970.1830878939327
 21
177.9409889972494
 31
0.0
  1
%%c<>
 71
     5
 42
-1.0
  3
AM_ISO
100
AcDbAlignedDimension
 13
954.1830878939327
 23
160.9903689185092
 33
0.0
 14
986.1830878939327
 24
160.9903689185092
 34
0.0
100
AcDbRotatedDimension
1001
ACAD
1000
DSTYLE
1002
{
1070
    40
1040
1.8
1070
    43
1040
10.0
1002
}
  0
DIMENSION
  5
18E9
330
4B13
100
AcDbEntity
  8
AM_5
100
AcDbDimension
  2
*D11
 10
978.1797559484456
 20
79.16159162382905
 30
0.0
 11
970.1830878939324
 21
84.11159162382906
 31
0.0
  1
16
 71
     5
 42
-1.0
  3
AM_ISO
100
AcDbAlignedDimension
 13
962.1864198394192
 23
104.7510127308703
 33
0.0
 14
978.1797559484456
 24
105.0956607165851
 34
0.0
100
AcDbRotatedDimension
1001
ACAD
1000
DSTYLE
1002
{
1070
    40
1040
1.8
1070
    43
1040
10.0
1002
}
  0
DIMENSION
  5
18EC
330
4B13
100
AcDbEntity
  8
AM_5
100
AcDbDimension
  2
*D13
 10
974.8091925363839
 20
114.8517705804431
 30
0.0
 11
1026.227231115275
 21
77.84630663551855
 31
0.0
 70
   131
  1
2-Plugs
 71
     5
 42
-1.0
  3
AM_ISO
100
AcDbDiametricDimension
 15
981.550319360508
 25
107.8437479821681
 35
0.0
 40
0.0
1001
ACAD
1000
DSTYLE
1002
{
1070
    40
1040
1.8
1002
}
  0
DIMENSION
  5
18EF
330
4B13
100
AcDbEntity
  8
AM_5
100
AcDbDimension
  2
*D15
 10
993.0752625477174
 20
-5.6085089341812
 30
0.0
 11
960.8252625477174
 21
-0.6585089341812022
 31
0.0
  1
<>
 71
     5
 42
-1.0
  3
AM_ISO
100
AcDbAlignedDimension
 13
937.9330878939324
 23
101.3519242131642
 33
0.0
 14
1002.433087893932
 24
101.3519242131642
 34
0.0
100
AcDbRotatedDimension
1001
ACAD
1000
DSTYLE
1002
{
1070
    40
1040
1.8
1070
    43
1040
10.0
1002
}
  0
DIMENSION
  5
18F2
330
4B13
100
AcDbEntity
  8
AM_5
100
AcDbDimension
  2
*D17
 10
830.9676546639423
 20
170.1801449798496
 30
0.0
 11
825.9704583243069
 21
175.1301449798497
 31
0.0
  1
10
 71
     5
 42
-1.0
  3
AM_ISO
100
AcDbAlignedDimension
 13
820.9732619846713
 23
164.5853889450568
 33
0.0
 14
830.9676546639423
 24
161.9982125339609
 34
0.0
100
AcDbRotatedDimension
1001
ACAD
1000
DSTYLE
1002
{
1070
    40
1040
1.8
1070
    43
1040
10.0
1002
}
  0
DIMENSION
  5
18F5
330
4B13
100
AcDbEntity
  8
AM_5
100
AcDbDimension
  2
*D19
 10
874.1901291401502
 20
136.9982125339609
 30
0.0
 11
874.1901291401502
 21
149.1797059119011
 31
0.0
 70
   128
  1
27
 71
     5
 42
-1.0
  3
AM_ISO
100
AcDbAlignedDimension
 13
830.9676546639424
 23
161.9982125339609
 33
0.0
 14
854.836042563873
 24
136.9982125339609
 34
0.0
 50
90.0
100
AcDbRotatedDimension
1001
ACAD
1000
DSTYLE
1002
{
1070
    40
1040
1.8
1070
    43
1040
10.0
1002
}
  0
DIMENSION
  5
18F8
330
4B13
100
AcDbEntity
  8
AM_5
100
AcDbDimension
  2
*D21
 10
752.9965856030782
 20
161.9982125339609
 30
0.0
 11
748.045965524338
 21
131.6789901812883
 31
0.0
  1
62
 71
     5
 42
-1.0
  3
AM_ISO
100
AcDbAlignedDimension
 13
764.9965856030783
 23
101.3597678286155
 33
0.0
 14
805.9732619846712
 24
161.9982125339609
 34
0.0
 50
90.0
100
AcDbRotatedDimension
1001
ACAD
1000
DSTYLE
1002
{
1070
    40
1040
1.8
1002
}
  0
DIMENSION
  5
18FB
330
4B13
100
AcDbEntity
  8
AM_5
100
AcDbDimension
  2
*D3
 10
847.9732619846704
 20
111.3597678286151
 30
0.0
 11
877.4879505959169
 21
81.23264078222305
 31
0.0
 70
   132
  1
2-PT1/8
 71
     5
 42
-1.0
  3
AM_ISO
100
AcDbRadialDimension
 15
849.9175723209555
 25
106.90348572181
 35
0.0
 40
0.0
1001
ACAD
1000
DSTYLE
1002
{
1070
    40
1040
1.8
1002
}
  0
DIMENSION
  5
18FC
330
4B13
100
AcDbEntity
  8
AM_5
100
AcDbDimension
  2
*D23
 10
888.9499383662643
 20
121.3514379648986
 30
0.0
 11
883.9993182875241
 21
111.3556028967572
 31
0.0
  1
20
 71
     5
 42
-1.0
  3
AM_ISO
100
AcDbAlignedDimension
 13
876.9499383662642
 23
101.3597678286155
 33
0.0
 14
876.9499383662642
 24
121.3514379648986
 34
0.0
 50
90.0
100
AcDbRotatedDimension
1001
ACAD
1000
DSTYLE
1002
{
1070
    40
1040
1.8
1070
    43
1040
10.0
1002
}
  0
DIMENSION
  5
18FF
330
4B13
100
AcDbEntity
  8
AM_5
100
AcDbDimension
  2
*D25
 10
888.9499383662643
 20
126.3493554989695
 30
0.0
 11
888.9499383662643
 21
143.9398327711172
 31
0.0
 70
   128
  1
5
 71
     5
 42
-1.0
  3
AM_ISO
100
AcDbAlignedDimension
 13
876.9499383662642
 23
121.3514379648986
 33
0.0
 14
854.3404089662042
 24
126.3493554989695
 34
0.0
 50
90.0
100
AcDbRotatedDimension
1001
ACAD
1000
DSTYLE
1002
{
1070
    40
1040
1.8
1070
    43
1040
10.0
1002
}
  0
DIMENSION
  5
1902
330
4B13
100
AcDbEntity
  8
AM_5
100
AcDbDimension
  2
*D27
 10
845.2021658711114
 20
-7.466858728994338
 30
0.0
 11
811.4521658711113
 21
-7.466858728994338
 31
0.0
 70
   128
  1
<>
 71
     5
 42
-1.0
  3
AM_ISO
100
AcDbAlignedDimension
 13
787.2232619846713
 23
101.3597678286155
 33
0.0
 14
854.7232619846713
 24
101.3597678286155
 34
0.0
100
AcDbRotatedDimension
1001
ACAD
1000
DSTYLE
1002
{
1070
    40
1040
1.8
1070
    43
1040
10.0
1002
}
  0
LINE
  5
1905
330
4B13
100
AcDbEntity
  8
AM_7
100
AcDbLine
 10
820.3174991841937
 20
117.607164746204
 30
0.0
 11
825.0533543022728
 21
117.607164746204
 31
0.0
  0
LINE
  5
1906
330
4B13
100
AcDbEntity
  8
AM_7
100
AcDbLine
 10
819.6177407220954
 20
105.112370911027
 30
0.0
 11
824.3535958401745
 21
105.112370911027
 31
0.0
  0
DIMENSION
  5
1907
330
4B13
100
AcDbEntity
  8
AM_5
100
AcDbDimension
  2
*D5
 10
795.754058850477
 20
-97.59393384757107
 30
0.0
 11
863.0053694701725
 21
-17.97071119890387
 31
0.0
 70
   131
  1
%%c85
 71
     5
 42
-1.0
  3
AM_ISO
100
AcDbDiametricDimension
 15
846.1998006731551
 25
-29.53910803425259
 35
0.0
 40
0.0
1001
ACAD
1000
DSTYLE
1002
{
1070
    40
1040
1.8
1070
   172
1070
     1
1002
}
  0
DIMENSION
  5
1908
330
4B13
100
AcDbEntity
  8
AM_5
100
AcDbDimension
  2
*D29
 10
865.9557252882359
 20
-111.5495573620487
 30
0.0
 11
820.9769297618148
 21
-106.5995573620487
 31
0.0
  1
90
 71
     5
 42
-1.0
  3
AM_ISO
100
AcDbAlignedDimension
 13
775.9981342353936
 23
-99.54955736204865
 33
0.0
 14
865.9557252882359
 24
-99.54955736204865
 34
0.0
100
AcDbRotatedDimension
1001
ACAD
1000
DSTYLE
1002
{
1070
    40
1040
1.8
1070
    43
1040
10.0
1002
}
  0
DIMENSION
  5
190B
330
4B13
100
AcDbEntity
  8
AM_5
100
AcDbDimension
  2
*D31
 10
876.9505419724721
 20
-128.5495573620493
 30
0.0
 11
820.9769297618148
 21
-123.5989372833091
 31
0.0
  1
112
 71
     5
 42
-1.0
  3
AM_ISO
100
AcDbAlignedDimension
 13
765.0033175511577
 23
-96.05120659888235
 33
0.0
 14
876.9505419724721
 24
-96.05120659888235
 34
0.0
100
AcDbRotatedDimension
1001
ACAD
1000
DSTYLE
1002
{
1070
    40
1040
1.8
1070
    43
1040
10.0
1002
}
  0
DIMENSION
  5
190E
330
4B13
100
AcDbEntity
  8
AM_5
100
AcDbDimension
  2
*D33
 10
888.9505429724719
 20
-91.55332704624049
 30
0.0
 11
884.0005429724724
 21
-63.56652094091166
 31
0.0
  1
56
 71
     5
 42
-1.0
  3
AM_ISO
100
AcDbAlignedDimension
 13
873.9519556040441
 23
-35.5797148355831
 33
0.0
 14
873.9519556040441
 24
-91.55332704624049
 34
0.0
 50
90.0
100
AcDbRotatedDimension
1001
ACAD
1000
DSTYLE
1002
{
1070
    40
1040
1.8
1070
    43
1040
10.0
1002
}
  0
DIMENSION
  5
1911
330
4B13
100
AcDbEntity
  8
AM_5
100
AcDbDimension
  2
*D35
 10
905.9505429724721
 20
-26.08419133556096
 30
0.0
 11
901.0005429724724
 21
-63.56652094091153
 31
0.0
  1
75
 71
     5
 42
-1.0
  3
AM_ISO
100
AcDbAlignedDimension
 13
871.9528980250922
 23
-101.0488505462624
 33
0.0
 14
871.9528980250922
 24
-26.08419133556096
 34
0.0
 50
90.0
100
AcDbRotatedDimension
1001
ACAD
1000
DSTYLE
1002
{
1070
    40
1040
1.8
1070
    43
1040
10.0
1002
}
  0
DIMENSION
  5
1914
330
4B13
100
AcDbEntity
  8
AM_5
100
AcDbDimension
  2
*D37
 10
861.1160438740139
 20
-86.50047477673963
 30
0.0
 11
906.4104269179672
 21
-112.8244107445767
 31
0.0
 70
   131
  1
4-%%c9 thru
 71
     5
 42
-1.0
  3
AM_ISO
100
AcDbDiametricDimension
 15
870.7954067024594
 25
-96.60617931574181
 35
0.0
 40
0.0
1001
ACAD
1000
DSTYLE
1002
{
1070
    40
1040
1.8
1002
}
  0
INSERT
  5
1917
330
4B13
100
AcDbEntity
  8
底
100
AcDbBlockReference
  2
*U39
 10
0.0
 20
0.0
 30
0.0
  0
LWPOLYLINE
  5
4D9B
330
4B13
100
AcDbEntity
  8
LOGO
 62
     4
100
AcDbPolyline
 90
        4
 70
     1
 43
0.0
 10
709.2147481950745
 20
-139.3808659163417
 10
1059.214748195074
 20
-139.3808659163417
 10
1059.214748195074
 20
291.3502741101329
 10
709.2147481950745
 20
291.3502741101329
1001
GENIUS_GENREC_14
1002
{
1000
PYDIR
1011
709.2147481950745
1021
291.3502741101329
1031
0.0
1002
}
1002
{
1000
PXDIR
1011
1059.214748195074
1021
-139.3808659163417
1031
0.0
1002
}
1002
{
1000
PORI
1011
709.2147481950745
1021
-139.3808659163417
1031
0.0
1002
}
1002
{
1000
PINS
1011
709.2147481950745
1021
-139.3808659163417
1031
0.0
1002
}
1002
{
1000
PINS2
1011
1059.214748195074
1021
291.3502741101329
1031
0.0
1002
}
1002
{
1000
C
1070
     1
1002
}
1001
GENIUS_GENODEF_13
1002
{
1000
HIER
1070
     0
1002
}
1002
{
1000
MANEDIT
1070
     0
1002
}
1002
{
1000
NOSEL
1070
     0
1002
}
1002
{
1000
BEHIND
1070
     0
1002
}
1002
{
1000
OTHER
1070
     0
1002
}
1002
{
1000
REACTOR
1002
}
1001
GENIUS_GENOBJ-N-REC_13
1002
{
1000
OWNER
1000
GEN
1002
}
  0
LWPOLYLINE
  5
4D9C
330
4B13
100
AcDbEntity
  8
LOGO
 62
     4
100
AcDbPolyline
 90
        4
 70
     1
 43
0.0
 10
709.2147481950745
 20
-139.3808659163417
 10
1059.214748195074
 20
-139.3808659163417
 10
1059.214748195074
 20
-174.3757980430391
 10
709.2147481950745
 20
-174.3757980430391
1001
GENIUS_GENREC_14
1002
{
1000
PYDIR
1011
709.2147481950745
1021
-174.3757980430391
1031
0.0
1002
}
1002
{
1000
PXDIR
1011
1059.214748195074
1021
-139.3808659163417
1031
0.0
1002
}
1002
{
1000
PORI
1011
709.2147481950745
1021
-139.3808659163417
1031
0.0
1002
}
1002
{
1000
PINS
1011
709.2147481950745
1021
-139.3808659163417
1031
0.0
1002
}
1002
{
1000
PINS2
1011
1059.214748195074
1021
-174.3757980430391
1031
0.0
1002
}
1002
{
1000
C
1070
     1
1002
}
1001
GENIUS_GENOBJ-N-REC_13
1002
{
1000
OWNER
1000
GEN
1002
}
1001
GENIUS_GENODEF_13
1002
{
1000
HIER
1070
     0
1002
}
1002
{
1000
MANEDIT
1070
     0
1002
}
1002
{
1000
NOSEL
1070
     0
1002
}
1002
{
1000
BEHIND
1070
     0
1002
}
1002
{
1000
OTHER
1070
     0
1002
}
1002
{
1000
REACTOR
1002
}
  0
TEXT
  5
4D9D
330
4B13
100
AcDbEntity
  8
LOGO
 62
     7
100
AcDbText
 10
788.2309877678124
 20
-154.7115501913929
 30
0.0
 40
4.665990950226244
  1
Order example:
 41
0.8
  7
CHINESET
100
AcDbText
  0
TEXT
  5
4D9E
330
4B13
100
AcDbEntity
  8
LOGO
 62
     7
100
AcDbText
 10
789.0681051304584
 20
-148.142801039228
 30
0.0
 40
6.998986425339365
  1
訂購代號：
  7
CHINESET
100
AcDbText
  0
LINE
  5
4D9F
330
4B13
100
AcDbEntity
  8
LOGO
 62
     4
100
AcDbLine
 10
786.2035988738076
 20
-174.3757980430387
 30
0.0
 11
786.2035988738076
 21
-139.3808659163416
 31
0.0
  0
TEXT
  5
4DA0
330
4B13
100
AcDbEntity
  8
LOGO
  6
Continuous
100
AcDbText
 10
721.7850851202475
 20
-167.5010964387063
 30
0.0
 40
5.249239819004524
  1
金器工業股份有限公司
  7
CHINESET
100
AcDbText
  0
TEXT
  5
4DA1
330
4B13
100
AcDbEntity
  8
LOGO
  6
Continuous
100
AcDbText
 10
712.1432700836205
 20
-172.751364697159
 30
0.0
 40
3.499493212669682
  1
MINDMAN INDUSTRIAL CO., LTD.
 41
0.85
  7
CHINESET
100
AcDbText
  0
LINE
  5
4DA2
330
4B13
100
AcDbEntity
  8
LOGO
 62
     4
100
AcDbLine
 10
786.2035988738076
 20
-146.379852341681
 30
0.0
 11
734.8776984213186
 21
-146.379852341681
 31
0.0
  0
LINE
  5
4DA3
330
4B13
100
AcDbEntity
  8
LOGO
 62
     4
100
AcDbLine
 10
786.2035988738076
 20
-153.3788387670204
 30
0.0
 11
734.8776984213186
 21
-153.3788387670204
 31
0.0
  0
LINE
  5
4DA4
330
4B13
100
AcDbEntity
  8
LOGO
 62
     4
100
AcDbLine
 10
786.2035988738076
 20
-160.3778251923595
 30
0.0
 11
709.2147481950745
 21
-160.3778251923595
 31
0.0
  0
LINE
  5
4DA5
330
4B13
100
AcDbEntity
  8
LOGO
 62
     4
100
AcDbLine
 10
734.8776984213186
 20
-160.3778251923595
 30
0.0
 11
734.8776984213186
 21
-139.3808659163416
 31
0.0
  0
TEXT
  5
4DA6
330
4B13
100
AcDbEntity
  8
LOGO
100
AcDbText
 10
769.9565288349934
 20
-158.6280785860252
 30
0.0
 40
3.499493212669682
  1
mm
  7
CHINESET
 72
     1
 11
774.2892347173464
 21
-156.8783319796904
 31
0.0
100
AcDbText
 73
     2
  0
TEXT
  5
4DA7
330
4B13
100
AcDbEntity
  8
LOGO
100
AcDbText
 10
768.1234609616902
 20
-144.6301057353464
 30
0.0
 40
3.499493212669682
  1
1 : 1
  7
CHINESET
 72
     1
 11
774.2892347173464
 21
-142.8803591290115
 31
0.0
100
AcDbText
 73
     2
  0
LINE
  5
4DA8
330
4B13
100
AcDbEntity
  8
LOGO
 62
     4
100
AcDbLine
 10
762.8736441226763
 20
-160.3778251923595
 30
0.0
 11
762.8736441226763
 21
-139.3808659163416
 31
0.0
  0
CIRCLE
  5
4DA9
330
4B13
100
AcDbEntity
  8
LOGO
  6
Continuous
100
AcDbCircle
 10
769.3533935156258
 20
-149.8718601127601
 30
0.0
 40
2.031888128061105
  0
CIRCLE
  5
4DAA
330
4B13
100
AcDbEntity
  8
LOGO
  6
Continuous
100
AcDbCircle
 10
769.3533935156258
 20
-149.8718601127601
 30
0.0
 40
1.190506570164794
  0
LINE
  5
4DAB
330
4B13
100
AcDbEntity
  8
LOGO
100
AcDbLine
 10
782.1220142826897
 20
-151.9037482408216
 30
0.0
 11
782.1220142826897
 21
-147.8399719846986
 31
0.0
  0
LINE
  5
4DAC
330
4B13
100
AcDbEntity
  8
LOGO
100
AcDbLine
 10
775.7521616371623
 20
-151.0623666829247
 30
0.0
 11
775.7521616371623
 21
-148.6813535425951
 31
0.0
  0
LINE
  5
4DAD
330
4B13
100
AcDbEntity
  8
LOGO
  6
Continuous
100
AcDbLine
 10
775.7521616371623
 20
-148.6813535425951
 30
0.0
 11
782.1220142826897
 21
-147.8399719846986
 31
0.0
  0
LINE
  5
4DAE
330
4B13
100
AcDbEntity
  8
LOGO
  6
Continuous
100
AcDbLine
 10
775.7521616371623
 20
-151.0623666829247
 30
0.0
 11
782.1220142826897
 21
-151.9037482408216
 31
0.0
  0
TEXT
  5
4DAF
330
4B13
100
AcDbEntity
  8
LOGO
100
AcDbText
 10
737.7632180480155
 20
-144.6283835438047
 30
229.3510200800871
 40
3.499493212669682
  1
比例 Scale:
 41
0.9
  7
CHINESET
 72
     4
 11
748.8756712719975
 21
-142.8803591290115
 31
229.3510200800871
100
AcDbText
  0
TEXT
  5
4DB0
330
4B13
100
AcDbEntity
  8
LOGO
100
AcDbText
 10
737.5616847335359
 20
-151.5798661857864
 30
229.3510200800871
 40
3.499493212669682
  1
投影  View:
 41
0.9
  7
CHINESET
 72
     4
 11
748.8756712719975
 21
-149.879345554351
 31
229.3510200800871
100
AcDbText
  0
TEXT
  5
4DB1
330
4B13
100
AcDbEntity
  8
LOGO
100
AcDbText
 10
737.9038226860246
 20
-158.6280785860252
 30
229.3510200800871
 40
3.499493212669682
  1
單位  Unit:
 41
0.9
  7
CHINESET
 72
     4
 11
748.8756712719975
 21
-156.8783319796904
 31
229.3510200800871
100
AcDbText
  0
SOLID
  5
4DB2
330
4B13
100
AcDbEntity
  8
LOGO
 62
     5
100
AcDbTrace
 10
712.8455285658134
 20
-154.560415839931
 30
0.0
 11
714.3586176042698
 21
-154.5604158399314
 31
0.0
 12
720.6718511785189
 22
-140.2121577166366
 32
0.0
 13
722.1849402169762
 23
-140.2121577166374
 33
0.0
  0
SOLID
  5
4DB3
330
4B13
100
AcDbEntity
  8
LOGO
 62
     5
100
AcDbTrace
 10
714.9847234132879
 20
-154.560415839931
 30
0.0
 11
716.4978124517443
 21
-154.560415839931
 31
0.0
 12
722.1849402169762
 22
-141.3600183665007
 32
0.0
 13
720.6718511785189
 23
-146.9080115075079
 33
0.0
  0
SOLID
  5
4DB4
330
4B13
100
AcDbEntity
  8
LOGO
 62
     2
100
AcDbTrace
 10
714.3586176042698
 20
-154.5604158399314
 30
0.0
 11
714.9847234132879
 21
-154.560415839931
 31
0.0
 12
722.1849402169762
 22
-140.2121577166374
 32
0.0
 13
722.8110460259935
 23
-140.2121577166374
 33
0.0
  0
SOLID
  5
4DB5
330
4B13
100
AcDbEntity
  8
LOGO
 62
     5
100
AcDbTrace
 10
710.4196757822838
 20
-159.7779642484012
 30
0.0
 11
710.9414306231314
 21
-159.7779642484012
 31
0.0
 12
712.410732865108
 22
-157.1691900441663
 32
0.0
 13
712.932487705954
 23
-157.1691900441663
 33
0.0
  0
SOLID
  5
4DB6
330
4B13
100
AcDbEntity
  8
LOGO
 62
     5
100
AcDbTrace
 10
712.410732865108
 20
-157.1691900441663
 30
0.0
 11
712.932487705954
 21
-157.1691900441663
 31
0.0
 12
712.410732865108
 22
-159.7779642484012
 32
0.0
 13
712.932487705954
 23
-159.7779642484012
 33
0.0
  0
SOLID
  5
4DB7
330
4B13
100
AcDbEntity
  8
LOGO
 62
     5
100
AcDbTrace
 10
712.410732865108
 20
-159.7779642484012
 30
0.0
 11
712.932487705954
 21
-159.7779642484012
 31
0.0
 12
714.4017899479329
 22
-157.1691900441663
 32
0.0
 13
714.9235447887798
 23
-157.1691900441663
 33
0.0
  0
SOLID
  5
4DB8
330
4B13
100
AcDbEntity
  8
LOGO
 62
     5
100
AcDbTrace
 10
714.4017899479329
 20
-157.1691900441663
 30
0.0
 11
714.9235447887798
 21
-157.1691900441663
 31
0.0
 12
714.4017899479329
 22
-159.7779642484012
 32
0.0
 13
714.9235447887798
 23
-159.7779642484012
 33
0.0
  0
POLYLINE
  5
4DB9
330
4B13
100
AcDbEntity
  8
LOGO
 62
     5
100
AcDb2dPolyline
 66
     1
 10
0.0
 20
0.0
 30
0.0
 40
0.5225909864253393
 41
0.5225909864253393
  0
VERTEX
  5
4DBA
330
4DB9
100
AcDbEntity
  8
LOGO
 62
     5
100
AcDbVertex
100
AcDb2dVertex
 10
731.8908344750996
 20
-158.2126997258604
 30
0.0
 42
1.0
  0
VERTEX
  5
4DBB
330
4DB9
100
AcDbEntity
  8
LOGO
 62
     5
100
AcDbVertex
100
AcDb2dVertex
 10
730.3230615158232
 20
-158.2126997258604
 30
0.0
 42
1.0
  0
SEQEND
  5
4DBC
330
4DB9
100
AcDbEntity
  8
LOGO
 62
     5
  0
POLYLINE
  5
4DBD
330
4B13
100
AcDbEntity
  8
LOGO
 62
     5
100
AcDb2dPolyline
 66
     1
 10
0.0
 20
0.0
 30
0.0
 70
     1
  0
VERTEX
  5
4DBE
330
4DBD
100
AcDbEntity
  8
LOGO
 62
     5
100
AcDbVertex
100
AcDb2dVertex
 10
727.3677397530458
 20
-158.4735771462842
 30
0.0
 42
1.000000057330635
  0
VERTEX
  5
4DBF
330
4DBD
100
AcDbEntity
  8
LOGO
 62
     5
100
AcDbVertex
100
AcDb2dVertex
 10
728.9330042755871
 20
-158.4735771462842
 30
0.0
 42
1.000000057330635
  0
SEQEND
  5
4DC0
330
4DBD
100
AcDbEntity
  8
LOGO
 62
     5
  0
CIRCLE
  5
4DC1
330
4B13
100
AcDbEntity
  8
LOGO
 62
     5
100
AcDbCircle
 10
728.1503720143176
 20
-158.4735771462842
 30
0.0
 40
0.7826322612705883
  0
POLYLINE
  5
4DC2
330
4B13
100
AcDbEntity
  8
LOGO
 62
     5
100
AcDb2dPolyline
 66
     1
 10
0.0
 20
0.0
 30
0.0
 70
     1
 40
0.5225909864253393
 41
0.5225909864253393
  0
VERTEX
  5
4DC3
330
4DC2
100
AcDbEntity
  8
LOGO
 62
     5
100
AcDbVertex
100
AcDb2dVertex
 10
727.1051900414662
 20
-158.4735771462842
 30
0.0
 42
1.0
  0
VERTEX
  5
4DC4
330
4DC2
100
AcDbEntity
  8
LOGO
 62
     5
100
AcDbVertex
100
AcDb2dVertex
 10
729.1955539871675
 20
-158.4735771462842
 30
0.0
 42
1.0
  0
SEQEND
  5
4DC5
330
4DC2
100
AcDbEntity
  8
LOGO
 62
     5
  0
LINE
  5
4DC6
330
4B13
100
AcDbEntity
  8
LOGO
100
AcDbLine
 10
732.1504576771546
 20
-159.7779642484012
 30
0.0
 11
732.1504576771546
 21
-158.2126997258604
 31
0.0
  0
SOLID
  5
4DC7
330
4B13
100
AcDbEntity
  8
LOGO
 62
     5
100
AcDbTrace
 10
728.9329521001053
 20
-157.1691900441663
 30
0.0
 11
729.4547069409514
 21
-157.1691900441663
 31
0.0
 12
728.9329521001053
 22
-159.7779642484012
 32
0.0
 13
729.4547069409514
 23
-159.7779642484012
 33
0.0
  0
SOLID
  5
4DC8
330
4B13
100
AcDbEntity
  8
LOGO
 62
     5
100
AcDbTrace
 10
730.0634383137666
 20
-159.7779642484012
 30
0.0
 11
730.5851931546142
 21
-159.7779642484012
 31
0.0
 12
730.0634383137666
 22
-157.1691900441663
 32
0.0
 13
730.5851931546142
 23
-157.1691900441663
 33
0.0
  0
SOLID
  5
4DC9
330
4B13
100
AcDbEntity
  8
LOGO
 62
     5
100
AcDbTrace
 10
731.6287028363086
 20
-158.2126997258604
 30
0.0
 11
732.1504576771546
 21
-158.2126997258604
 31
0.0
 12
731.6287028363086
 22
-159.7779642484012
 32
0.0
 13
732.1504576771546
 23
-159.7779642484012
 33
0.0
  0
SOLID
  5
4DCA
330
4B13
100
AcDbEntity
  8
LOGO
 62
     5
100
AcDbTrace
 10
730.0112628296817
 20
-141.3600183665007
 30
0.0
 11
728.4981737912261
 21
-146.9080115075079
 31
0.0
 12
730.0112628296817
 22
-154.5604158399314
 32
0.0
 13
728.4981737912261
 23
-154.5604158399314
 33
0.0
  0
SOLID
  5
4DCB
330
4B13
100
AcDbEntity
  8
LOGO
 62
     5
100
AcDbTrace
 10
730.637368638699
 20
-154.5604158399314
 30
0.0
 11
732.1504576771546
 21
-154.5604158399314
 31
0.0
 12
730.637368638699
 22
-140.2121577166374
 32
0.0
 13
732.1504576771546
 23
-140.2121577166366
 33
0.0
  0
SOLID
  5
4DCC
330
4B13
100
AcDbEntity
  8
LOGO
 62
     2
100
AcDbTrace
 10
730.0112628296817
 20
-140.2121577166366
 30
0.0
 11
730.637368638699
 21
-140.2121577166374
 31
0.0
 12
730.0112628296817
 22
-154.5604158399314
 32
0.0
 13
730.637368638699
 23
-154.5604158399314
 33
0.0
  0
POLYLINE
  5
4DCD
330
4B13
100
AcDbEntity
  8
LOGO
 62
     5
100
AcDb2dPolyline
 66
     1
 10
0.0
 20
0.0
 30
0.0
 40
0.5225909864253393
 41
0.5225909864253393
  0
VERTEX
  5
4DCE
330
4DCD
100
AcDbEntity
  8
LOGO
 62
     5
100
AcDbVertex
100
AcDb2dVertex
 10
724.4123136393024
 20
-158.2126997258604
 30
0.0
 42
1.0
  0
VERTEX
  5
4DCF
330
4DCD
100
AcDbEntity
  8
LOGO
 62
     5
100
AcDbVertex
100
AcDb2dVertex
 10
722.8445406800261
 20
-158.2126997258604
 30
0.0
 42
1.0
  0
SEQEND
  5
4DD0
330
4DCD
100
AcDbEntity
  8
LOGO
 62
     5
  0
POLYLINE
  5
4DD1
330
4B13
100
AcDbEntity
  8
LOGO
 62
     5
100
AcDb2dPolyline
 66
     1
 10
0.0
 20
0.0
 30
0.0
 40
0.5225909864253393
 41
0.5225909864253393
  0
VERTEX
  5
4DD2
330
4DD1
100
AcDbEntity
  8
LOGO
 62
     5
100
AcDbVertex
100
AcDb2dVertex
 10
725.9775781618421
 20
-158.2126997258604
 30
0.0
 42
1.0
  0
VERTEX
  5
4DD3
330
4DD1
100
AcDbEntity
  8
LOGO
 62
     5
100
AcDbVertex
100
AcDb2dVertex
 10
724.4098052025666
 20
-158.2126997258604
 30
0.0
 42
1.0
  0
SEQEND
  5
4DD4
330
4DD1
100
AcDbEntity
  8
LOGO
 62
     5
  0
POLYLINE
  5
4DD5
330
4B13
100
AcDbEntity
  8
LOGO
 62
     5
100
AcDb2dPolyline
 66
     1
 10
0.0
 20
0.0
 30
0.0
 40
0.5225909864253393
 41
0.5225909864253393
  0
VERTEX
  5
4DD6
330
4DD5
100
AcDbEntity
  8
LOGO
 62
     5
100
AcDbVertex
100
AcDb2dVertex
 10
718.499057326045
 20
-158.2126997258604
 30
0.0
 42
1.0
  0
VERTEX
  5
4DD7
330
4DD5
100
AcDbEntity
  8
LOGO
 62
     5
100
AcDbVertex
100
AcDb2dVertex
 10
716.9312843667695
 20
-158.2126997258604
 30
0.0
 42
1.0
  0
SEQEND
  5
4DD8
330
4DD5
100
AcDbEntity
  8
LOGO
 62
     5
  0
SOLID
  5
4DD9
330
4B13
100
AcDbEntity
  8
LOGO
 62
     5
100
AcDbTrace
 10
716.6716611647136
 20
-157.1691900441663
 30
0.0
 11
717.1934160055597
 21
-157.1691900441663
 31
0.0
 12
716.6716611647136
 22
-159.7779642484012
 32
0.0
 13
717.1934160055597
 23
-159.7779642484012
 33
0.0
  0
SOLID
  5
4DDA
330
4B13
100
AcDbEntity
  8
LOGO
 62
     5
100
AcDbTrace
 10
718.2369256872549
 20
-158.2126997258604
 30
0.0
 11
718.7586805281025
 21
-158.2126997258604
 31
0.0
 12
718.2369256872549
 22
-159.7779642484012
 32
0.0
 13
718.7586805281025
 23
-159.7779642484012
 33
0.0
  0
POLYLINE
  5
4DDB
330
4B13
100
AcDbEntity
  8
LOGO
 62
     5
100
AcDb2dPolyline
 66
     1
 10
0.0
 20
0.0
 30
0.0
 70
     1
 40
0.5225909864253393
 41
0.5225909864253393
  0
VERTEX
  5
4DDC
330
4DDB
100
AcDbEntity
  8
LOGO
 62
     5
100
AcDbVertex
100
AcDb2dVertex
 10
719.6266692056683
 20
-158.4735771462842
 30
0.0
 42
1.0
  0
VERTEX
  5
4DDD
330
4DDB
100
AcDbEntity
  8
LOGO
 62
     5
100
AcDbVertex
100
AcDb2dVertex
 10
721.7170331513703
 20
-158.4735771462842
 30
0.0
 42
1.0
  0
SEQEND
  5
4DDE
330
4DDB
100
AcDbEntity
  8
LOGO
 62
     5
  0
SOLID
  5
4DDF
330
4B13
100
AcDbEntity
  8
LOGO
 62
     5
100
AcDbTrace
 10
721.4544312643067
 20
-156.3865577828953
 30
0.0
 11
721.9761861051535
 21
-156.3865577828953
 31
0.0
 12
721.4544312643067
 22
-159.7779642484012
 32
0.0
 13
721.9761861051535
 23
-159.7779642484012
 33
0.0
  0
SOLID
  5
4DE0
330
4B13
100
AcDbEntity
  8
LOGO
 62
     5
100
AcDbTrace
 10
722.584917477971
 20
-157.1691900441663
 30
0.0
 11
723.106672318817
 21
-157.1691900441663
 31
0.0
 12
722.584917477971
 22
-159.7779642484012
 32
0.0
 13
723.106672318817
 23
-159.7779642484012
 33
0.0
  0
SOLID
  5
4DE1
330
4B13
100
AcDbEntity
  8
LOGO
 62
     5
100
AcDbTrace
 10
724.1501820005107
 20
-158.2126997258604
 30
0.0
 11
724.6719368413583
 21
-158.2126997258604
 31
0.0
 12
724.1501820005107
 22
-159.7779642484012
 32
0.0
 13
724.6719368413583
 23
-159.7779642484012
 33
0.0
  0
SOLID
  5
4DE2
330
4B13
100
AcDbEntity
  8
LOGO
 62
     5
100
AcDbTrace
 10
725.715446523052
 20
-158.2126997258604
 30
0.0
 11
726.2372013638988
 21
-158.2126997258604
 31
0.0
 12
725.715446523052
 22
-159.777964248402
 32
0.0
 13
726.2372013638988
 23
-159.777964248402
 33
0.0
  0
SOLID
  5
4DE3
330
4B13
100
AcDbEntity
  8
LOGO
 62
     5
100
AcDbTrace
 10
715.54117495105
 20
-156.8039616555732
 30
0.0
 11
716.0629297918984
 21
-156.8039616555732
 31
0.0
 12
715.54117495105
 22
-156.3865577828953
 32
0.0
 13
716.0629297918984
 23
-156.3865577828953
 33
0.0
  0
SOLID
  5
4DE4
330
4B13
100
AcDbEntity
  8
LOGO
 62
     5
100
AcDbTrace
 10
715.54117495105
 20
-157.1691900441663
 30
0.0
 11
716.0629297918984
 21
-157.1691900441663
 31
0.0
 12
715.54117495105
 22
-159.777964248402
 32
0.0
 13
716.0629297918984
 23
-159.7779642484012
 33
0.0
  0
SOLID
  5
4DE5
330
4B13
100
AcDbEntity
  8
LOGO
 62
     5
100
AcDbTrace
 10
720.6718511785189
 20
-154.560415839931
 30
0.0
 11
722.1849402169762
 21
-154.560415839931
 31
0.0
 12
720.6718511785189
 22
-146.9080115075079
 32
0.0
 13
722.1849402169762
 23
-141.3600183665007
 33
0.0
  0
SOLID
  5
4DE6
330
4B13
100
AcDbEntity
  8
LOGO
 62
     5
100
AcDbTrace
 10
722.8110460259935
 20
-140.2121577166374
 30
0.0
 11
724.3241350644491
 21
-140.2121577166366
 31
0.0
 12
722.8110460259935
 22
-153.4125551900677
 32
0.0
 13
724.3241350644491
 23
-147.8645620490605
 33
0.0
  0
SOLID
  5
4DE7
330
4B13
100
AcDbEntity
  8
LOGO
 62
     2
100
AcDbTrace
 10
722.1849402169762
 20
-140.2121577166374
 30
0.0
 11
722.8110460259935
 21
-140.2121577166374
 31
0.0
 12
722.1849402169762
 22
-154.560415839931
 32
0.0
 13
722.8110460259935
 23
-154.560415839931
 33
0.0
  0
SOLID
  5
4DE8
330
4B13
100
AcDbEntity
  8
LOGO
 62
     5
100
AcDbTrace
 10
722.8110460259935
 20
-153.4125551900677
 30
0.0
 11
724.3241350644491
 21
-147.8645620490605
 31
0.0
 12
730.0112628296817
 22
-140.2121577166366
 32
0.0
 13
728.4981737912261
 23
-140.2121577166366
 33
0.0
  0
SOLID
  5
4DE9
330
4B13
100
AcDbEntity
  8
LOGO
 62
     5
100
AcDbTrace
 10
722.8110460259935
 20
-154.560415839931
 30
0.0
 11
724.3241350644491
 21
-154.560415839931
 31
0.0
 12
730.0112628296817
 22
-141.3600183665007
 32
0.0
 13
728.4981737912261
 23
-146.9080115075079
 33
0.0
  0
SOLID
  5
4DEA
330
4B13
100
AcDbEntity
  8
LOGO
 62
     2
100
AcDbTrace
 10
722.1849402169762
 20
-154.560415839931
 30
0.0
 11
722.8110460259935
 21
-154.560415839931
 31
0.0
 12
730.0112628296817
 22
-140.2121577166366
 32
0.0
 13
730.637368638699
 23
-140.2121577166374
 33
0.0
  0
LINE
  5
4DEB
330
4B13
100
AcDbEntity
  8
LOGO
 62
     4
100
AcDbLine
 10
857.6675296112766
 20
-158.6280785860245
 30
0.0
 11
857.6675296112766
 21
-171.4595536991474
 31
0.0
  0
LINE
  5
4DEC
330
4B13
100
AcDbEntity
  8
LOGO
 62
     4
100
AcDbLine
 10
834.3375748601452
 20
-158.6280785860245
 30
0.0
 11
834.3375748601452
 21
-171.4595536991474
 31
0.0
  0
LINE
  5
4DED
330
4B13
100
AcDbEntity
  8
LOGO
 62
     4
100
AcDbLine
 10
857.6675296112766
 20
-171.4595536991474
 30
0.0
 11
834.3375748601452
 21
-171.4595536991474
 31
0.0
  0
LINE
  5
4DEE
330
4B13
100
AcDbEntity
  8
LOGO
 62
     4
100
AcDbLine
 10
861.8520049351042
 20
-142.8803591290115
 30
0.0
 11
834.3375748601452
 21
-142.8803591290115
 31
0.0
  0
LINE
  5
4DEF
330
4B13
100
AcDbEntity
  8
LOGO
 62
     4
100
AcDbLine
 10
861.8520049351042
 20
-153.3788387670204
 30
0.0
 11
834.3375748601452
 21
-153.3788387670204
 31
0.0
  0
LINE
  5
4DF0
330
4B13
100
AcDbEntity
  8
LOGO
 62
     4
100
AcDbLine
 10
834.3375748601452
 20
-142.8803591290115
 30
0.0
 11
834.3375748601452
 21
-153.3788387670204
 31
0.0
  0
LINE
  5
4DF1
330
4B13
100
AcDbEntity
  8
LOGO
 62
     4
100
AcDbLine
 10
861.8520049351042
 20
-142.8803591290115
 30
0.0
 11
861.8520049351042
 21
-153.3788387670204
 31
0.0
  0
LINE
  5
4DF2
330
4B13
100
AcDbEntity
  8
LOGO
 62
     4
100
AcDbLine
 10
847.2197898976247
 20
-153.3788387670204
 30
0.0
 11
847.2197898976247
 21
-158.6280785860245
 31
0.0
  0
TEXT
  5
4DF3
330
4B13
100
AcDbEntity
  8
LOGO
  6
Continuous
 62
     7
100
AcDbText
 10
836.2029902708853
 20
-151.1872964913617
 30
0.0
 40
6.125
  1
MSBS
  7
CHINESET
100
AcDbText
  0
LINE
  5
4DF4
330
4B13
100
AcDbEntity
  8
LOGO
 62
     4
100
AcDbLine
 10
857.6675296112766
 20
-158.6280785860245
 30
0.0
 11
834.3375748601452
 21
-158.6280785860245
 31
0.0
  0
TEXT
  5
4DF5
330
4B13
100
AcDbEntity
  8
LOGO
  6
Continuous
100
AcDbText
 10
841.8240834782706
 20
-169.6484181967052
 30
229.3510200800871
 40
2.625
  1
Model
 41
0.8
  7
CHINESET
100
AcDbText
  0
TEXT
  5
4DF6
330
4B13
100
AcDbEntity
  8
LOGO
100
AcDbText
 10
841.125393811772
 20
-164.7822339245823
 30
229.3510200800871
 40
4.375
  1
型號
  7
CHINESET
100
AcDbText
  0
LINE
  5
4DF7
330
4B13
100
AcDbEntity
  8
LOGO
  6
Continuous
 62
     7
100
AcDbLine
 10
862.9680800893641
 20
-148.1667862220456
 30
0.0
 11
867.6038256250084
 21
-148.1667862220456
 31
0.0
  0
LINE
  5
4DF8
330
4B13
100
AcDbEntity
  8
LOGO
 62
     4
100
AcDbLine
 10
885.5704808127498
 20
-158.6280785860245
 30
0.0
 11
885.5704808127498
 21
-171.4595536991474
 31
0.0
  0
LINE
  5
4DF9
330
4B13
100
AcDbEntity
  8
LOGO
 62
     4
100
AcDbLine
 10
862.2405260616185
 20
-158.6280785860245
 30
0.0
 11
862.2405260616185
 21
-171.4595536991474
 31
0.0
  0
LINE
  5
4DFA
330
4B13
100
AcDbEntity
  8
LOGO
 62
     4
100
AcDbLine
 10
885.5704808127498
 20
-171.4595536991474
 30
0.0
 11
862.2405260616185
 21
-171.4595536991474
 31
0.0
  0
LINE
  5
4DFB
330
4B13
100
AcDbEntity
  8
LOGO
 62
     4
100
AcDbLine
 10
887.8653358881846
 20
-142.8803591290115
 30
0.0
 11
869.9260953674448
 21
-142.8803591290115
 31
0.0
  0
LINE
  5
4DFC
330
4B13
100
AcDbEntity
  8
LOGO
 62
     4
100
AcDbLine
 10
887.8653358881846
 20
-153.3788387670204
 30
0.0
 11
869.9260953674448
 21
-153.3788387670204
 31
0.0
  0
LINE
  5
4DFD
330
4B13
100
AcDbEntity
  8
LOGO
 62
     4
100
AcDbLine
 10
869.9260953674448
 20
-142.8803591290115
 30
0.0
 11
869.9260953674448
 21
-153.3788387670204
 31
0.0
  0
LINE
  5
4DFE
330
4B13
100
AcDbEntity
  8
LOGO
 62
     4
100
AcDbLine
 10
887.8653358881846
 20
-142.8803591290115
 30
0.0
 11
887.8653358881846
 21
-153.3788387670204
 31
0.0
  0
LINE
  5
4DFF
330
4B13
100
AcDbEntity
  8
LOGO
 62
     4
100
AcDbLine
 10
878.8957156278147
 20
-153.3788387670204
 30
0.0
 11
878.8957156278147
 21
-158.6280785860245
 31
0.0
  0
TEXT
  5
4E00
330
4B13
100
AcDbEntity
  8
LOGO
  6
Continuous
 62
     7
100
AcDbText
 10
873.3705812044464
 20
-151.1872964913617
 30
0.0
 40
6.125
  1
50
  7
CHINESET
100
AcDbText
  0
LINE
  5
4E01
330
4B13
100
AcDbEntity
  8
LOGO
 62
     4
100
AcDbLine
 10
885.5704808127498
 20
-158.6280785860245
 30
0.0
 11
862.2405260616185
 21
-158.6280785860245
 31
0.0
  0
LINE
  5
4E02
330
4B13
100
AcDbEntity
  8
LOGO
  6
Continuous
 62
     7
100
AcDbLine
 10
889.3586820023587
 20
-148.1667862220456
 30
0.0
 11
893.9944275380039
 21
-148.1667862220456
 31
0.0
  0
LINE
  5
4E03
330
4B13
100
AcDbEntity
  8
LOGO
 62
     4
100
AcDbLine
 10
911.4482340308235
 20
-158.6280785860245
 30
0.0
 11
911.4482340308235
 21
-171.4595536991474
 31
0.0
  0
LINE
  5
4E04
330
4B13
100
AcDbEntity
  8
LOGO
 62
     4
100
AcDbLine
 10
892.4422665985865
 20
-158.6280785860245
 30
0.0
 11
892.4422665985865
 21
-171.4595536991474
 31
0.0
  0
LINE
  5
4E05
330
4B13
100
AcDbEntity
  8
LOGO
 62
     4
100
AcDbLine
 10
911.4482340308235
 20
-171.4595536991474
 30
0.0
 11
892.4422665985865
 21
-171.4595536991474
 31
0.0
  0
LINE
  5
4E06
330
4B13
100
AcDbEntity
  8
LOGO
 62
     4
100
AcDbLine
 10
911.5514632948491
 20
-142.8803591290115
 30
0.0
 11
895.4567608897685
 21
-142.8803591290115
 31
0.0
  0
LINE
  5
4E07
330
4B13
100
AcDbEntity
  8
LOGO
 62
     4
100
AcDbLine
 10
911.5514632948491
 20
-153.3788387670204
 30
0.0
 11
895.4567608897685
 21
-153.3788387670204
 31
0.0
  0
LINE
  5
4E08
330
4B13
100
AcDbEntity
  8
LOGO
 62
     4
100
AcDbLine
 10
895.4567608897685
 20
-142.8803591290115
 30
0.0
 11
895.4567608897685
 21
-153.3788387670204
 31
0.0
  0
LINE
  5
4E09
330
4B13
100
AcDbEntity
  8
LOGO
 62
     4
100
AcDbLine
 10
911.5514632948491
 20
-142.8803591290115
 30
0.0
 11
911.5514632948491
 21
-153.3788387670204
 31
0.0
  0
LINE
  5
4E0A
330
4B13
100
AcDbEntity
  8
LOGO
 62
     4
100
AcDbLine
 10
901.945250314705
 20
-153.3788387670204
 30
0.0
 11
901.945250314705
 21
-158.6280785860245
 31
0.0
  0
TEXT
  5
4E0B
330
4B13
100
AcDbEntity
  8
LOGO
  6
Continuous
 62
     7
100
AcDbText
 10
899.2216146161119
 20
-151.1872964913617
 30
0.0
 40
6.125
  1
30
  7
CHINESET
100
AcDbText
  0
LINE
  5
4E0C
330
4B13
100
AcDbEntity
  8
LOGO
 62
     4
100
AcDbLine
 10
911.4482340308235
 20
-158.6280785860245
 30
0.0
 11
892.4422665985865
 21
-158.6280785860245
 31
0.0
  0
TEXT
  5
4E0D
330
4B13
100
AcDbEntity
  8
LOGO
  6
Continuous
100
AcDbText
 10
867.1271980613715
 20
-169.6484181967052
 30
229.3510200800871
 40
2.625
  1
Tube I.D.
 41
0.8
  7
CHINESET
100
AcDbText
  0
TEXT
  5
4E0E
330
4B13
100
AcDbEntity
  8
LOGO
100
AcDbText
 10
868.1856263430788
 20
-164.7822339245823
 30
229.3510200800871
 40
4.375
  1
內徑
  7
CHINESET
100
AcDbText
  0
TEXT
  5
4E0F
330
4B13
100
AcDbEntity
  8
LOGO
  6
Continuous
100
AcDbText
 10
897.451304201415
 20
-169.6484181967052
 30
229.3510200800871
 40
2.625
  1
Stroke
 41
0.8
  7
CHINESET
100
AcDbText
  0
TEXT
  5
4E10
330
4B13
100
AcDbEntity
  8
LOGO
100
AcDbText
 10
897.269295330514
 20
-164.7822339245823
 30
229.3510200800871
 40
4.375
  1
行程
  7
CHINESET
100
AcDbText
  0
TEXT
  5
4E11
330
4B13
100
AcDbEntity
  8
LOGO
100
AcDbText
 10
788.0583694918069
 20
-172.5140814661763
 30
0.0
 40
3.5
  1
21107192
 41
0.7
  7
CHINESET
 72
     1
 11
796.3417028251402
 21
-172.5140814661763
 31
0.0
100
AcDbText
  0
LINE
  5
4E12
330
4B13
100
AcDbEntity
  8
LOGO
 62
     4
100
AcDbLine
 10
807.2035988738061
 20
-167.3768116176985
 30
0.0
 11
807.2035988738075
 21
-174.3757980430383
 31
0.0
  0
LINE
  5
4E13
330
4B13
100
AcDbEntity
  8
LOGO
 62
     4
100
AcDbLine
 10
807.2035988738061
 20
-167.3768116176985
 30
0.0
 11
786.2035988738076
 21
-167.3768116176985
 31
0.0
  0
LINE
  5
4E14
330
4B13
100
AcDbEntity
  8
LOGO
  6
AM_ISO08W050X2
 48
0.3
100
AcDbLine
 10
766.5524053059647
 20
-149.8718601127601
 30
0.0
 11
772.1543817252869
 21
-149.8718601127601
 31
0.0
1001
GENIUS_GENOREF_13
1005
4E19
  0
LINE
  5
4E15
330
4B13
100
AcDbEntity
  8
LOGO
  6
AM_ISO08W050X2
 48
0.3
100
AcDbLine
 10
769.3533935156258
 20
-152.6728483224212
 30
0.0
 11
769.3533935156258
 21
-147.070871903099
 31
0.0
1001
GENIUS_GENOREF_13
1005
4E18
  0
LINE
  5
4E16
330
4B13
100
AcDbEntity
  8
LOGO
  6
CENTER
 48
0.5
100
AcDbLine
 10
775.2427504747459
 20
-149.8718601127601
 30
0.0
 11
782.7634378238181
 21
-149.8718601127601
 31
0.0
1001
GENIUS_GENOREF_13
1005
4E17
  0
POINT
  5
4E17
330
4B13
100
AcDbEntity
  8
0
 60
     1
100
AcDbPoint
 10
-1338.777895073627
 20
-1081.524385247186
 30
0.0
1001
GENIUS_GENOBJ-N-CRS_13
1002
{
1000
OWNER
1000
GEN
1002
}
1001
GENIUS_GENOLIS_13
1002
{
1000
ENT
1005
0
1005
0
1005
0
1005
4E16
1002
}
1001
GENIUS_GENOENT_13
1002
{
1000
MYREF
1005
4E17
1002
}
1002
{
1000
GRP
1005
0
1002
}
1001
GENIUS_GENODEF_13
1002
{
1000
HIER
1070
    10
1002
}
1002
{
1000
MANEDIT
1070
     1
1002
}
1002
{
1000
NOSEL
1070
     0
1002
}
1002
{
1000
BEHIND
1070
     0
1002
}
1002
{
1000
OTHER
1070
     0
1002
}
1002
{
1000
REACTOR
1002
}
  0
POINT
  5
4E18
330
4B13
100
AcDbEntity
  8
0
 60
     1
100
AcDbPoint
 10
-1350.102480296482
 20
-1072.64879876855
 30
0.0
1001
GENIUS_GENOBJ-N-CRS_13
1002
{
1000
OWNER
1000
GEN
1002
}
1001
GENIUS_GENOLIS_13
1002
{
1000
ENT
1005
0
1005
0
1005
0
1005
4E15
1002
}
1001
GENIUS_GENOENT_13
1002
{
1000
MYREF
1005
4E18
1002
}
1002
{
1000
GRP
1005
0
1002
}
1001
GENIUS_GENODEF_13
1002
{
1000
HIER
1070
    10
1002
}
1002
{
1000
MANEDIT
1070
     1
1002
}
1002
{
1000
NOSEL
1070
     0
1002
}
1002
{
1000
BEHIND
1070
     0
1002
}
1002
{
1000
OTHER
1070
     0
1002
}
1002
{
1000
REACTOR
1002
}
  0
POINT
  5
4E19
330
4B13
100
AcDbEntity
  8
0
 60
     1
100
AcDbPoint
 10
-1343.743806598645
 20
-1081.524385247186
 30
0.0
1001
GENIUS_GENOBJ-N-CRS_13
1002
{
1000
OWNER
1000
GEN
1002
}
1001
GENIUS_GENOLIS_13
1002
{
1000
ENT
1005
0
1005
0
1005
0
1005
4E14
1002
}
1001
GENIUS_GENOENT_13
1002
{
1000
MYREF
1005
4E19
1002
}
1002
{
1000
GRP
1005
0
1002
}
1001
GENIUS_GENODEF_13
1002
{
1000
HIER
1070
    10
1002
}
1002
{
1000
MANEDIT
1070
     1
1002
}
1002
{
1000
NOSEL
1070
     0
1002
}
1002
{
1000
BEHIND
1070
     0
1002
}
1002
{
1000
OTHER
1070
     0
1002
}
1002
{
1000
REACTOR
1002
}
  0
ENDSEC
  0
SECTION
  2
OBJECTS
  0
DICTIONARY
  5
4AFD
330
0
100
AcDbDictionary
281
     1
  3
ACAD_COLOR
350
4B0C
  3
ACAD_GROUP
350
4AFE
  3
ACAD_LAYOUT
350
4B0A
  3
ACAD_MATERIAL
350
4B0B
  3
ACAD_MLINESTYLE
350
4B07
  3
ACAD_PLOTSETTINGS
350
4B09
  3
ACAD_PLOTSTYLENAME
350
4AFF
  3
ACAD_TABLESTYLE
350
4B0D
  3
ACDBHEADERROUNDTRIPXREC
350
4FEF
  3
AcDbVariableDictionary
350
4E22
  3
AcmDictionary
350
4CB9
  3
AMG
350
4C69
  3
AMGSNAPSETTINGS
350
4CE1
  3
DWGPROPS
350
4FEE
  3
MAPISURF_MODULE
350
4F34
  0
DICTIONARY
  5
4CFD
330
4AF3
100
AcDbDictionary
280
     1
281
     1
  3
ACAD_LAYERSTATES
360
4CFE
  0
DICTIONARY
  5
4FE1
330
4B13
100
AcDbDictionary
280
     1
281
     1
  3
ACAD_INDEX
360
4FE2
  0
DICTIONARY
  5
4B0C
102
{ACAD_REACTORS
330
4AFD
102
}
330
4AFD
100
AcDbDictionary
281
     1
  0
DICTIONARY
  5
4AFE
102
{ACAD_REACTORS
330
4AFD
102
}
330
4AFD
100
AcDbDictionary
281
     1
  0
DICTIONARY
  5
4B0A
102
{ACAD_REACTORS
330
4AFD
102
}
330
4AFD
100
AcDbDictionary
281
     1
  3
Model
350
4B16
  3
配置1
350
4B12
  0
DICTIONARY
  5
4B0B
102
{ACAD_REACTORS
330
4AFD
102
}
330
4AFD
100
AcDbDictionary
281
     1
  0
DICTIONARY
  5
4B07
102
{ACAD_REACTORS
330
4AFD
102
}
330
4AFD
100
AcDbDictionary
281
     1
  3
Standard
350
4B08
  0
DICTIONARY
  5
4B09
102
{ACAD_REACTORS
330
4AFD
102
}
330
4AFD
100
AcDbDictionary
281
     1
  0
ACDBDICTIONARYWDFLT
  5
4AFF
102
{ACAD_REACTORS
330
4AFD
102
}
330
4AFD
100
AcDbDictionary
281
     1
  3
Normal
350
4B00
100
AcDbDictionaryWithDefault
340
4B00
  0
DICTIONARY
  5
4B0D
102
{ACAD_REACTORS
330
4AFD
102
}
330
4AFD
100
AcDbDictionary
281
     1
  3
Standard
350
4B0E
  0
DICTIONARY
  5
4FEF
102
{ACAD_REACTORS
330
4AFD
102
}
330
4AFD
100
AcDbDictionary
281
     1
  0
DICTIONARY
  5
4E22
102
{ACAD_REACTORS
330
4AFD
102
}
330
4AFD
100
AcDbDictionary
281
     1
  3
CTABLESTYLE
350
4E23
  3
DIMASSOC
350
4E24
  3
INDEXCTL
350
4FEC
  3
PROJECTNAME
350
4E25
  0
DICTIONARY
  5
4CB9
102
{ACAD_REACTORS
330
4AFD
102
}
330
4AFD
100
AcDbDictionary
281
     1
  3
AcmStdDictionary
350
4CC4
  3
AMDTSECTSYM_ARROWCOLOR
350
4CD6
  0
DICTIONARY
  5
4C69
102
{ACAD_REACTORS
330
4AFD
102
}
330
4AFD
100
AcDbDictionary
281
     1
  3
AcMgSettings
350
4EB3
  0
DICTIONARY
  5
4CE1
102
{ACAD_REACTORS
330
4AFD
102
}
330
4AFD
100
AcDbDictionary
281
     1
  0
XRECORD
  5
4FEE
102
{ACAD_REACTORS
330
4AFD
102
}
330
4AFD
100
AcDbXrecord
280
     1
  1
DWGPROPS COOKIE
  2

  3

  4

  6

  7

  8

  9

300
AmdtFileType=84
301
=
302
=
303
=
304
=
305
=
306
=
307
=
308
=
309
=
 40
0.6910789583333333
 41
2453021.369367211
 42
2455763.646282431
  1

 90
        1
  0
DICTIONARY
  5
4CFE
102
{ACAD_REACTORS
330
4CFD
102
}
330
4CFD
100
AcDbDictionary
281
     1
  0
DICTIONARY
  5
4FE2
102
{ACAD_REACTORS
330
4FE1
102
}
330
4FE1
100
AcDbDictionary
281
     1
  3
*A1
350
4FE3
  0
LAYOUT
  5
4B16
102
{ACAD_XDICTIONARY
360
4FF2
102
}
102
{ACAD_REACTORS
330
4B0A
102
}
330
4B0A
100
AcDbPlotSettings
  1

  2
自動 QC-306 上的 Microsoft Office Document Image Writer
  4

  6

 40
0.0
 41
0.0
 42
0.0
 43
0.0
 44
0.0
 45
0.0
 46
0.0
 47
0.0
 48
0.0
 49
0.0
140
0.0
141
0.0
142
1.0
143
1.0
 70
  1712
 72
     0
 73
     0
 74
     0
  7

 75
     0
147
1.0
148
0.0
149
0.0
100
AcDbLayout
  1
Model
 70
     1
 71
     0
 10
0.0
 20
0.0
 11
12.0
 21
9.0
 12
0.0
 22
0.0
 32
0.0
 14
0.0
 24
0.0
 34
0.0
 15
0.0
 25
0.0
 35
0.0
146
0.0
 13
0.0
 23
0.0
 33
0.0
 16
1.0
 26
0.0
 36
0.0
 17
0.0
 27
1.0
 37
0.0
 76
     0
330
4B13
  0
LAYOUT
  5
4B12
102
{ACAD_XDICTIONARY
360
4FF0
102
}
102
{ACAD_REACTORS
330
4B0A
102
}
330
4B0A
100
AcDbPlotSettings
  1

  2
自動 QC-306 上的 Microsoft Office Document Image Writer
  4

  6

 40
0.0
 41
0.0
 42
0.0
 43
0.0
 44
0.0
 45
0.0
 46
0.0
 47
0.0
 48
0.0
 49
0.0
140
0.0
141
0.0
142
1.0
143
1.0
 70
   688
 72
     0
 73
     0
 74
     5
  7

 75
    16
147
1.0
148
0.0
149
0.0
100
AcDbLayout
  1
配置1
 70
     1
 71
     1
 10
0.0
 20
0.0
 11
420.0
 21
297.0
 12
0.0
 22
0.0
 32
0.0
 14
1.000000000000000E+20
 24
1.000000000000000E+20
 34
1.000000000000000E+20
 15
-1.000000000000000E+20
 25
-1.000000000000000E+20
 35
-1.000000000000000E+20
146
0.0
 13
0.0
 23
0.0
 33
0.0
 16
1.0
 26
0.0
 36
0.0
 17
0.0
 27
1.0
 37
0.0
 76
     0
330
4B0F
  0
MLINESTYLE
  5
4B08
102
{ACAD_REACTORS
330
4B07
102
}
330
4B07
100
AcDbMlineStyle
  2
STANDARD
 70
     0
  3

 62
   256
 51
90.0
 52
90.0
 71
     2
 49
0.5
 62
   256
  6
BYLAYER
 49
-0.5
 62
   256
  6
BYLAYER
  0
ACDBPLACEHOLDER
  5
4B00
102
{ACAD_REACTORS
330
4AFF
102
}
330
4AFF
  0
TABLESTYLE
  5
4B0E
102
{ACAD_REACTORS
330
4B0D
102
}
330
4B0D
100
AcDbTableStyle
  3
Standard
 70
     0
 71
     0
 40
0.06
 41
0.06
280
     0
281
     0
  7
STANDARD
140
0.18
170
     2
 62
     0
 63
     7
283
     0
274
    -2
284
     1
 64
     0
275
    -2
285
     1
 65
     0
276
    -2
286
     1
 66
     0
277
    -2
287
     1
 67
     0
278
    -2
288
     1
 68
     0
279
    -2
289
     1
 69
     0
  7
STANDARD
140
0.25
170
     5
 62
     0
 63
     7
283
     0
274
    -2
284
     1
 64
     0
275
    -2
285
     1
 65
     0
276
    -2
286
     1
 66
     0
277
    -2
287
     1
 67
     0
278
    -2
288
     1
 68
     0
279
    -2
289
     1
 69
     0
  7
STANDARD
140
0.18
170
     5
 62
     0
 63
     7
283
     0
274
    -2
284
     1
 64
     0
275
    -2
285
     1
 65
     0
276
    -2
286
     1
 66
     0
277
    -2
287
     1
 67
     0
278
    -2
288
     1
 68
     0
279
    -2
289
     1
 69
     0
  0
DICTIONARYVAR
  5
4E23
102
{ACAD_REACTORS
330
4E22
102
}
330
4E22
100
DictionaryVariables
280
     0
  1
STANDARD
  0
DICTIONARYVAR
  5
4E24
102
{ACAD_REACTORS
330
4E22
102
}
330
4E22
100
DictionaryVariables
280
     0
  1
1
  0
DICTIONARYVAR
  5
4FEC
102
{ACAD_REACTORS
330
4E22
102
}
330
4E22
100
DictionaryVariables
280
     0
  1
1
  0
DICTIONARYVAR
  5
4E25
102
{ACAD_REACTORS
330
4E22
102
}
330
4E22
100
DictionaryVariables
280
     0
  1

  0
DICTIONARY
  5
4CC4
102
{ACAD_REACTORS
330
4CB9
102
}
330
4CB9
100
AcDbDictionary
281
     1
  0
XRECORD
  5
4CD6
102
{ACAD_REACTORS
330
4CB9
102
}
330
4CB9
100
AcDbXrecord
280
     1
 90
-1023410169
  0
DICTIONARY
  5
4EB3
102
{ACAD_REACTORS
330
4C69
102
}
330
4C69
100
AcDbDictionary
281
     1
  3
DWGSETTINGS
350
4EB4
  3
TRANSSETTINGS
350
4EB5
  0
LAYER_INDEX
  5
4FE3
102
{ACAD_REACTORS
330
4FE2
102
}
330
4FE2
100
AcDbIndex
 40
2455763.646282431
100
AcDbLayerIndex
  8
0
360
4FE4
 90
      372
  8
底
360
4FE5
 90
        1
  8
DEFPOINTS
360
4FE6
 90
        0
  8
AM_5
360
4FE7
 90
       20
  8
AM_7
360
4FE8
 90
      122
  8
AM_HID
360
4FE9
 90
       24
  8
LOGO
360
4FEA
 90
      103
  0
DICTIONARY
  5
4FF2
330
4B16
100
AcDbDictionary
280
     1
281
     1
  3
ACAD_XREC_ROUNDTRIP
360
4FF3
  0
DICTIONARY
  5
4FF0
330
4B12
100
AcDbDictionary
280
     1
281
     1
  3
ACAD_XREC_ROUNDTRIP
360
4FF1
  0
IDBUFFER
  5
4FE4
330
0
100
AcDbIdBuffer
330
14E5
330
14E6
330
14E7
330
14E8
330
14EA
330
14EB
330
14EE
330
14EF
330
14F0
330
14F1
330
14F2
330
14F3
330
14F4
330
14F5
330
14F6
330
14F7
330
14F8
330
14F9
330
14FA
330
14FB
330
14FC
330
14FD
330
14FE
330
14FF
330
1500
330
1501
330
1503
330
1507
330
1508
330
1509
330
150A
330
150B
330
150D
330
150E
330
150F
330
1510
330
1511
330
1512
330
1513
330
1514
330
1515
330
1516
330
1517
330
1518
330
151D
330
151E
330
151F
330
1520
330
1521
330
1522
330
1524
330
1525
330
1526
330
1528
330
152B
330
152C
330
152E
330
152F
330
1532
330
1533
330
1534
330
1536
330
1537
330
1538
330
1539
330
153A
330
153D
330
1541
330
1542
330
1543
330
1544
330
1545
330
1546
330
1548
330
1549
330
154B
330
154C
330
154D
330
154F
330
1550
330
1551
330
1552
330
1554
330
1556
330
1557
330
1558
330
1559
330
155B
330
155E
330
155F
330
1560
330
1563
330
1568
330
1569
330
156A
330
156E
330
1570
330
1571
330
1572
330
1573
330
1575
330
1576
330
1577
330
1578
330
1579
330
157A
330
157B
330
157C
330
157D
330
157E
330
1583
330
1584
330
1585
330
1586
330
1587
330
1588
330
1589
330
158A
330
158B
330
158C
330
158D
330
158E
330
158F
330
1590
330
1591
330
1592
330
1593
330
1594
330
1595
330
4E17
330
4E18
330
4E19
330
1388
330
1389
330
138A
330
138B
330
138C
330
138D
330
138F
330
1390
330
1399
330
139A
330
139B
330
139C
330
139D
330
139E
330
139F
330
13A0
330
13A1
330
13A2
330
13A3
330
13A4
330
13A6
330
13A7
330
13A8
330
13A9
330
13AB
330
13AC
330
13AD
330
13AE
330
13AF
330
13B0
330
13B1
330
13B2
330
13B3
330
13B4
330
13B5
330
13B7
330
13B8
330
13B9
330
13BA
330
13BB
330
13BC
330
13BD
330
13BE
330
13C1
330
13C8
330
13CC
330
13CD
330
13CE
330
13CF
330
13D0
330
13D1
330
13D2
330
13D3
330
13D4
330
13D5
330
13D6
330
13D7
330
13D8
330
13D9
330
13DA
330
13E2
330
13E3
330
13E4
330
13E6
330
13E7
330
13E8
330
13E9
330
13EA
330
13F2
330
13F3
330
13F5
330
13F6
330
13F7
330
13F8
330
13F9
330
13FA
330
13FB
330
13FC
330
13FD
330
13FE
330
13FF
330
1400
330
1401
330
1402
330
1403
330
1405
330
1406
330
1407
330
1408
330
1409
330
140B
330
140E
330
140F
330
1410
330
1411
330
1413
330
1414
330
1416
330
1417
330
1419
330
141E
330
141F
330
1420
330
1421
330
1422
330
1423
330
1424
330
1425
330
1427
330
1429
330
142A
330
142B
330
142C
330
142E
330
142F
330
1431
330
1432
330
1433
330
1434
330
1435
330
1436
330
1437
330
1438
330
1439
330
143A
330
143B
330
143C
330
143D
330
143E
330
143F
330
1440
330
1441
330
1442
330
1444
330
1445
330
1448
330
1449
330
144A
330
144E
330
1450
330
1451
330
1452
330
1453
330
1454
330
1455
330
1456
330
1457
330
1458
330
145A
330
145B
330
145C
330
145E
330
1460
330
1461
330
1462
330
1463
330
1465
330
1467
330
1469
330
146A
330
146B
330
146C
330
146D
330
146F
330
1474
330
1475
330
1477
330
1478
330
1479
330
147A
330
147B
330
147C
330
147E
330
147F
330
1480
330
1481
330
1482
330
1483
330
1484
330
1485
330
1486
330
1487
330
1488
330
1489
330
148A
330
148B
330
148C
330
148D
330
148E
330
148F
330
1490
330
1491
330
1492
330
1493
330
1494
330
1496
330
1497
330
149A
330
149C
330
149D
330
149E
330
14A3
330
14A4
330
14A7
330
14A9
330
14AB
330
14AC
330
14AD
330
14AE
330
14AF
330
14B2
330
14B9
330
14BC
330
14BD
330
14BE
330
14BF
330
14C0
330
14C1
330
14C3
330
14C4
330
14C5
330
14C6
330
14C7
330
14C8
330
14C9
330
14CA
330
14CC
330
14CD
330
14CE
330
14D5
330
14D6
330
14D7
330
14D8
330
14DA
330
14DB
330
14DC
330
14DD
330
14E0
330
14E1
330
14E3
  0
IDBUFFER
  5
4FE5
330
0
100
AcDbIdBuffer
330
1917
  0
IDBUFFER
  5
4FE6
330
0
100
AcDbIdBuffer
  0
IDBUFFER
  5
4FE7
330
0
100
AcDbIdBuffer
330
190B
330
190E
330
1911
330
1914
330
14D3
330
14D4
330
18E3
330
18E6
330
18E9
330
18EC
330
18EF
330
18F2
330
18F5
330
18F8
330
18FB
330
18FC
330
18FF
330
1902
330
1907
330
1908
  0
IDBUFFER
  5
4FE8
330
0
100
AcDbIdBuffer
330
156F
330
1574
330
157F
330
1580
330
1581
330
1582
330
1596
330
1597
330
1905
330
1906
330
1387
330
138E
330
13A5
330
13AA
330
13B6
330
13BF
330
13C0
330
13CB
330
13E5
330
13F4
330
1404
330
140A
330
140C
330
140D
330
1412
330
1415
330
1418
330
141A
330
141B
330
141C
330
141D
330
1426
330
1428
330
142D
330
1430
330
1443
330
1446
330
1447
330
144B
330
144C
330
144D
330
144F
330
1459
330
145D
330
145F
330
1464
330
1466
330
1468
330
146E
330
1470
330
1471
330
1472
330
1473
330
1476
330
147D
330
1495
330
1498
330
1499
330
149B
330
149F
330
14A0
330
14A1
330
14A2
330
14A5
330
14A6
330
14A8
330
14AA
330
14B0
330
14B1
330
14B3
330
14B4
330
14B5
330
14B6
330
14B7
330
14B8
330
14BA
330
14BB
330
14C2
330
14CB
330
14CF
330
14D0
330
14D1
330
14D2
330
14D9
330
14DE
330
14DF
330
14E2
330
14E4
330
14E9
330
14EC
330
14ED
330
1502
330
1504
330
1505
330
1506
330
150C
330
1519
330
151A
330
151B
330
151C
330
1523
330
1527
330
1529
330
152A
330
152D
330
1530
330
1531
330
1535
330
153B
330
153C
330
153E
330
153F
330
1540
330
1547
330
154A
330
154E
330
1553
330
1555
330
155A
330
1564
330
1565
330
1566
  0
IDBUFFER
  5
4FE9
330
0
100
AcDbIdBuffer
330
155C
330
155D
330
1561
330
1562
330
1567
330
156B
330
156C
330
156D
330
1391
330
1392
330
1393
330
1394
330
1395
330
1396
330
1397
330
1398
330
13C2
330
13C3
330
13C4
330
13C5
330
13C6
330
13C7
330
13C9
330
13CA
  0
IDBUFFER
  5
4FEA
330
0
100
AcDbIdBuffer
330
4DE0
330
4DE1
330
4DE2
330
4DE3
330
4DE4
330
4DE5
330
4DE6
330
4DE7
330
4DE8
330
4DE9
330
4DEA
330
4DEB
330
4DEC
330
4DED
330
4DEE
330
4DEF
330
4DF0
330
4DF1
330
4DF2
330
4DF3
330
4DF4
330
4DF5
330
4DF6
330
4DF7
330
4DF8
330
4DF9
330
4DFA
330
4DFB
330
4DFC
330
4DFD
330
4DFE
330
4DFF
330
4E00
330
4E01
330
4E02
330
4E03
330
4E04
330
4E05
330
4E06
330
4E07
330
4E08
330
4E09
330
4E0A
330
4E0B
330
4E0C
330
4E0D
330
4E0E
330
4E0F
330
4E10
330
4E11
330
4E12
330
4E13
330
4E14
330
4E15
330
4E16
330
4D9B
330
4D9C
330
4D9D
330
4D9E
330
4D9F
330
4DA0
330
4DA1
330
4DA2
330
4DA3
330
4DA4
330
4DA5
330
4DA6
330
4DA7
330
4DA8
330
4DA9
330
4DAA
330
4DAB
330
4DAC
330
4DAD
330
4DAE
330
4DAF
330
4DB0
330
4DB1
330
4DB2
330
4DB3
330
4DB4
330
4DB5
330
4DB6
330
4DB7
330
4DB8
330
4DB9
330
4DBD
330
4DC1
330
4DC2
330
4DC6
330
4DC7
330
4DC8
330
4DC9
330
4DCA
330
4DCB
330
4DCC
330
4DCD
330
4DD1
330
4DD5
330
4DD9
330
4DDA
330
4DDB
330
4DDF
  0
XRECORD
  5
4FF3
102
{ACAD_REACTORS
330
4FF2
102
}
330
4FF2
100
AcDbXrecord
280
     1
102
SHADEPLOT
 70
     0
102
SHADEPLOTRESLEVEL
 70
     2
102
SHADEPLOTCUSTOMDPI
 70
   300
  0
XRECORD
  5
4FF1
102
{ACAD_REACTORS
330
4FF0
102
}
330
4FF0
100
AcDbXrecord
280
     1
102
SHADEPLOT
 70
     0
102
SHADEPLOTRESLEVEL
 70
     2
102
SHADEPLOTCUSTOMDPI
 70
   300
  0
ENDSEC
  0
EOF
