  0
SECTION
  2
HEADER
  9
$ACADVER
  1
AC1018
  9
$ACADMAINTVER
 70
    39
  9
$DWGCODEPAGE
  3
ANSI_950
  9
$CUSTOMPROPERTYTAG
  1
AmdtFileType
  9
$CUSTOMPROPERTY
  1
84
  9
$INSBASE
 10
0.0
 20
0.0
 30
0.0
  9
$EXTMIN
 10
38.85762197291109
 20
376.6598456196691
 30
0.0
  9
$EXTMAX
 10
266.5290851019495
 20
623.1884410408408
 30
0.0
  9
$LIMMIN
 10
0.0
 20
0.0
  9
$LIMMAX
 10
420.0
 20
297.0
  9
$ORTHOMODE
 70
     0
  9
$REGENMODE
 70
     1
  9
$FILLMODE
 70
     1
  9
$QTEXTMODE
 70
     0
  9
$MIRRTEXT
 70
     1
  9
$LTSCALE
 40
1.0
  9
$ATTMODE
 70
     1
  9
$TEXTSIZE
 40
3.0
  9
$TRACEWID
 40
1.0
  9
$TEXTSTYLE
  7
STANDARD
  9
$CLAYER
  8
0
  9
$CELTYPE
  6
ByLayer
  9
$CECOLOR
 62
   256
  9
$CELTSCALE
 40
1.0
  9
$DISPSILH
 70
     0
  9
$DIMSCALE
 40
1.0
  9
$DIMASZ
 40
3.0
  9
$DIMEXO
 40
2.0
  9
$DIMDLI
 40
7.0
  9
$DIMRND
 40
0.0
  9
$DIMDLE
 40
0.0
  9
$DIMEXE
 40
1.0
  9
$DIMTP
 40
0.1
  9
$DIMTM
 40
0.1
  9
$DIMTXT
 40
3.0
  9
$DIMCEN
 40
0.0
  9
$DIMTSZ
 40
0.0
  9
$DIMTOL
 70
     0
  9
$DIMLIM
 70
     0
  9
$DIMTIH
 70
     0
  9
$DIMTOH
 70
     0
  9
$DIMSE1
 70
     0
  9
$DIMSE2
 70
     0
  9
$DIMTAD
 70
     1
  9
$DIMZIN
 70
     8
  9
$DIMBLK
  1

  9
$DIMASO
 70
     1
  9
$DIMSHO
 70
     1
  9
$DIMPOST
  1

  9
$DIMAPOST
  1
"
  9
$DIMALT
 70
     0
  9
$DIMALTD
 70
     2
  9
$DIMALTF
 40
0.0393701
  9
$DIMLFAC
 40
1.0
  9
$DIMTOFL
 70
     1
  9
$DIMTVP
 40
0.0
  9
$DIMTIX
 70
     0
  9
$DIMSOXD
 70
     0
  9
$DIMSAH
 70
     0
  9
$DIMBLK1
  1

  9
$DIMBLK2
  1

  9
$DIMSTYLE
  2
AM_ISO
  9
$DIMCLRD
 70
   256
  9
$DIMCLRE
 70
   256
  9
$DIMCLRT
 70
   256
  9
$DIMTFAC
 40
0.71
  9
$DIMGAP
 40
0.7
  9
$DIMJUST
 70
     0
  9
$DIMSD1
 70
     0
  9
$DIMSD2
 70
     0
  9
$DIMTOLJ
 70
     0
  9
$DIMTZIN
 70
     8
  9
$DIMALTZ
 70
     0
  9
$DIMALTTZ
 70
     0
  9
$DIMUPT
 70
     0
  9
$DIMDEC
 70
     1
  9
$DIMTDEC
 70
     8
  9
$DIMALTU
 70
     2
  9
$DIMALTTD
 70
     2
  9
$DIMTXSTY
  7
STANDARD
  9
$DIMAUNIT
 70
     0
  9
$DIMADEC
 70
     0
  9
$DIMALTRND
 40
0.0
  9
$DIMAZIN
 70
     2
  9
$DIMDSEP
 70
    46
  9
$DIMATFIT
 70
     3
  9
$DIMFRAC
 70
     0
  9
$DIMLDRBLK
  1

  9
$DIMLUNIT
 70
     2
  9
$DIMLWD
 70
    -1
  9
$DIMLWE
 70
    -1
  9
$DIMTMOVE
 70
     0
  9
$LUNITS
 70
     2
  9
$LUPREC
 70
     2
  9
$SKETCHINC
 40
1.0
  9
$FILLETRAD
 40
5.0
  9
$AUNITS
 70
     0
  9
$AUPREC
 70
     0
  9
$MENU
  1
.
  9
$ELEVATION
 40
0.0
  9
$PELEVATION
 40
0.0
  9
$THICKNESS
 40
0.0
  9
$LIMCHECK
 70
     0
  9
$CHAMFERA
 40
2.5
  9
$CHAMFERB
 40
2.5
  9
$CHAMFERC
 40
20.0
  9
$CHAMFERD
 40
0.0
  9
$SKPOLY
 70
     0
  9
$TDCREATE
 40
2452955.687861482
  9
$TDUCREATE
 40
2452955.354528148
  9
$TDUPDATE
 40
2456730.342898391
  9
$TDUUPDATE
 40
2456730.009565058
  9
$TDINDWG
 40
0.3729364352
  9
$TDUSRTIMER
 40
0.3729363194
  9
$USRTIMER
 70
     1
  9
$ANGBASE
 50
0.0
  9
$ANGDIR
 70
     0
  9
$PDMODE
 70
     0
  9
$PDSIZE
 40
0.0
  9
$PLINEWID
 40
0.0
  9
$SPLFRAME
 70
     0
  9
$SPLINETYPE
 70
     6
  9
$SPLINESEGS
 70
     8
  9
$HANDSEED
  5
E6A
  9
$SURFTAB1
 70
     6
  9
$SURFTAB2
 70
     6
  9
$SURFTYPE
 70
     6
  9
$SURFU
 70
     6
  9
$SURFV
 70
     6
  9
$UCSBASE
  2

  9
$UCSNAME
  2

  9
$UCSORG
 10
0.0
 20
0.0
 30
0.0
  9
$UCSXDIR
 10
1.0
 20
0.0
 30
0.0
  9
$UCSYDIR
 10
0.0
 20
1.0
 30
0.0
  9
$UCSORTHOREF
  2

  9
$UCSORTHOVIEW
 70
     0
  9
$UCSORGTOP
 10
0.0
 20
0.0
 30
0.0
  9
$UCSORGBOTTOM
 10
0.0
 20
0.0
 30
0.0
  9
$UCSORGLEFT
 10
0.0
 20
0.0
 30
0.0
  9
$UCSORGRIGHT
 10
0.0
 20
0.0
 30
0.0
  9
$UCSORGFRONT
 10
0.0
 20
0.0
 30
0.0
  9
$UCSORGBACK
 10
0.0
 20
0.0
 30
0.0
  9
$PUCSBASE
  2

  9
$PUCSNAME
  2

  9
$PUCSORG
 10
0.0
 20
0.0
 30
0.0
  9
$PUCSXDIR
 10
1.0
 20
0.0
 30
0.0
  9
$PUCSYDIR
 10
0.0
 20
1.0
 30
0.0
  9
$PUCSORTHOREF
  2

  9
$PUCSORTHOVIEW
 70
     0
  9
$PUCSORGTOP
 10
0.0
 20
0.0
 30
0.0
  9
$PUCSORGBOTTOM
 10
0.0
 20
0.0
 30
0.0
  9
$PUCSORGLEFT
 10
0.0
 20
0.0
 30
0.0
  9
$PUCSORGRIGHT
 10
0.0
 20
0.0
 30
0.0
  9
$PUCSORGFRONT
 10
0.0
 20
0.0
 30
0.0
  9
$PUCSORGBACK
 10
0.0
 20
0.0
 30
0.0
  9
$USERI1
 70
     0
  9
$USERI2
 70
     0
  9
$USERI3
 70
     0
  9
$USERI4
 70
     0
  9
$USERI5
 70
     0
  9
$USERR1
 40
0.0
  9
$USERR2
 40
0.0
  9
$USERR3
 40
0.0
  9
$USERR4
 40
0.0
  9
$USERR5
 40
0.0
  9
$WORLDVIEW
 70
     1
  9
$SHADEDGE
 70
     3
  9
$SHADEDIF
 70
    70
  9
$TILEMODE
 70
     1
  9
$MAXACTVP
 70
    48
  9
$PINSBASE
 10
0.0
 20
0.0
 30
0.0
  9
$PLIMCHECK
 70
     0
  9
$PEXTMIN
 10
36.86482501760941
 20
-6.54834285593597
 30
-0.0015258207003583
  9
$PEXTMAX
 10
212.6355519013372
 20
162.8571859591048
 30
0.0000000349246037
  9
$PLIMMIN
 10
33.60300556328897
 20
-55.53422143815931
  9
$PLIMMAX
 10
215.8973686647887
 20
202.2873403147015
  9
$UNITMODE
 70
     0
  9
$VISRETAIN
 70
     1
  9
$PLINEGEN
 70
     0
  9
$PSLTSCALE
 70
     1
  9
$TREEDEPTH
 70
  3020
  9
$CMLSTYLE
  2
Standard
  9
$CMLJUST
 70
     0
  9
$CMLSCALE
 40
20.0
  9
$PROXYGRAPHICS
 70
     1
  9
$MEASUREMENT
 70
     1
  9
$CELWEIGHT
370
    -1
  9
$ENDCAPS
280
     0
  9
$JOINSTYLE
280
     0
  9
$LWDISPLAY
290
     0
  9
$INSUNITS
 70
     4
  9
$HYPERLINKBASE
  1

  9
$STYLESHEET
  1

  9
$XEDIT
290
     1
  9
$CEPSNTYPE
380
     0
  9
$PSTYLEMODE
290
     1
  9
$FINGERPRINTGUID
  2
{D841939A-2AF0-4C24-A90E-16452407ED34}
  9
$VERSIONGUID
  2
{476DCAFC-552E-4763-923B-0020111434E7}
  9
$EXTNAMES
290
     1
  9
$PSVPSCALE
 40
0.0
  9
$OLESTARTUP
290
     0
  9
$SORTENTS
280
   127
  9
$INDEXCTL
280
     1
  9
$HIDETEXT
280
     1
  9
$XCLIPFRAME
290
     0
  9
$HALOGAP
280
     0
  9
$OBSCOLOR
 70
   257
  9
$OBSLTYPE
280
     0
  9
$INTERSECTIONDISPLAY
280
     0
  9
$INTERSECTIONCOLOR
 70
   257
  9
$DIMASSOC
280
     2
  9
$PROJECTNAME
  1

  0
ENDSEC
  0
SECTION
  2
CLASSES
  0
CLASS
  1
ACDBDICTIONARYWDFLT
  2
AcDbDictionaryWithDefault
  3
ObjectDBX Classes
 90
        0
 91
        1
280
     0
281
     0
  0
CLASS
  1
AMGSETTINGSOBJ
  2
AmgSettingsObj
  3
"AcadM|Product Description: AutoCAD Mechanical 2000|Company: Autodesk"
 90
        0
 91
        2
280
     0
281
     0
  0
CLASS
  1
ACME_DOCUMENT
  2
AcMeDbDoc
  3
AcMeServices
 90
        0
 91
        2
280
     0
281
     0
  0
CLASS
  1
ACMESCOPE
  2
AcMeScope
  3
AcMeServices
 90
        0
 91
        1
280
     0
281
     0
  0
CLASS
  1
ACMECOMMANDHISTORY
  2
AcMeCommandHistory
  3
AcMeServices
 90
        0
 91
        1
280
     0
281
     0
  0
CLASS
  1
ACIMSYSVARMAN
  2
AcImSysVarManager
  3
AcMeServices
 90
        0
 91
        6
280
     0
281
     0
  0
CLASS
  1
ACIMREALSYSVAR
  2
AcImRealSysVar
  3
AcMeServices
 90
        0
 91
       16
280
     0
281
     0
  0
CLASS
  1
ACIMINTSYSVAR
  2
AcImIntSysVar
  3
AcMeServices
 90
        0
 91
       45
280
     0
281
     0
  0
CLASS
  1
ACMEDRAWINGMAN
  2
AcMeDrawingMan
  3
AcMeServices
 90
        0
 91
        1
280
     0
281
     0
  0
CLASS
  1
ACMEVIEW
  2
AcMeView
  3
AcMeServices
 90
        0
 91
        1
280
     0
281
     0
  0
CLASS
  1
ACDBENTITYCACHE
  2
AcMeEntityCache
  3
AcMeServices
 90
        0
 91
        1
280
     0
281
     0
  0
CLASS
  1
GSMANAGER
  2
AcMeGSManager
  3
AcMeServices
 90
        0
 91
        1
280
     0
281
     0
  0
CLASS
  1
AMDTINTERNALREACTOR
  2
AmdtInternalReactor
  3
AcMeServices
 90
        0
 91
        2
280
     0
281
     0
  0
CLASS
  1
ACMESTATEMGR
  2
AcMeStateMgr
  3
AcMeServices
 90
        0
 91
        1
280
     0
281
     0
  0
CLASS
  1
ACGREFMASTER
  2
AcGrefMaster
  3
AcAttribServices
 90
        0
 91
        1
280
     0
281
     0
  0
CLASS
  1
AM_DRAWING_MGR
  2
AcDmDwgMgr
  3
AcMechDwgViewMgmt
 90
        0
 91
        1
280
     0
281
     0
  0
CLASS
  1
AM_DWG_DOCUMENT
  2
AcDmDwgDocument
  3
AcMechDwgViewMgmt
 90
        0
 91
        1
280
     0
281
     0
  0
CLASS
  1
AM_DWG_SHEET
  2
AcDmSheet
  3
AcMechDwgViewMgmt
 90
        0
 91
        1
280
     0
281
     0
  0
CLASS
  1
AM_VIEWDIMPARMAP
  2
AcDmViewDimParMap
  3
AcMechDwgViewMgmt
 90
        0
 91
        1
280
     0
281
     0
  0
CLASS
  1
AM_DWGMGR_NAME
  2
AcDmDwgMgrName
  3
AcMechDwgViewMgmt
 90
        0
 91
        1
280
     0
281
     0
  0
CLASS
  1
ACME_DATABASE
  2
AcMeDbDatabase
  3
AcMeServices
 90
        0
 91
        1
280
     0
281
     0
  0
CLASS
  1
ACRFINSADJUSTERMGR
  2
AcRfInsAdjusterMgr
  3
AcMeServices
 90
        0
 91
        1
280
     0
281
     0
  0
CLASS
  1
ACGREFACADMASTER
  2
AcGrefacadMaster
  3
AcGrefServices
 90
        0
 91
        1
280
     0
281
     0
  0
CLASS
  1
AMDTMENUSTATEMGR
  2
AmdtMenuStateMgr
  3
McadcomServices
 90
        0
 91
        1
280
     0
281
     0
  0
CLASS
  1
AMDTMCOMMENUSTATE
  2
AmdtMcomMenuState
  3
McadcomServices
 90
        0
 91
        1
280
     0
281
     0
  0
CLASS
  1
AMIMASTER
  2
AmiMaster
  3
AmiServices
 90
        0
 91
        1
280
     0
281
     0
  0
CLASS
  1
ASAPP
  2
AcAsAppObject
  3
AutoSurfServices
 90
        0
 91
        1
280
     0
281
     0
  0
CLASS
  1
IM_STATIC_MAN
  2
AcImStaticVarManager
  3
AcMeServices
 90
        0
 91
        1
280
     0
281
     0
  0
CLASS
  1
ACIMSTRSYSVAR
  2
AcImStrSysVar
  3
AcMeServices
 90
        0
 91
       11
280
     0
281
     0
  0
CLASS
  1
ACIMDBLSTATICVAR
  2
AcImDblStaticVar
  3
AcMeServices
 90
        0
 91
       20
280
     0
281
     0
  0
CLASS
  1
ACIMSTRSTATICVAR
  2
AcImStrStaticVar
  3
AcMeServices
 90
        0
 91
       12
280
     0
281
     0
  0
CLASS
  1
ACIMINTSTATICVAR
  2
AcImIntStaticVar
  3
AcMeServices
 90
        0
 91
       17
280
     0
281
     0
  0
CLASS
  1
ACASGREFMASTER
  2
AcAsGrefMaster
  3
AutoSurfResolverServices
 90
        0
 91
        1
280
     0
281
     0
  0
CLASS
  1
ACADGREFMODULE
  2
AcAdGrefModule
  3
AdGrefServices
 90
        0
 91
        1
280
     0
281
     0
  0
CLASS
  1
AMDTMAPISURFMOUDULE
  2
AmdtMApiSurfModule
  3
MApiSurfServices
 90
        0
 91
        1
280
     0
281
     0
  0
CLASS
  1
MAPIAMMOUDLE
  2
MApiAmModule
  3
MApiAmServices
 90
        0
 91
        1
280
     0
281
     0
  0
CLASS
  1
AMDTADMENUSTATE
  2
AmdtAdMenuState
  3
DesignerServices
 90
        0
 91
        1
280
     0
281
     0
  0
CLASS
  1
ADAPPL
  2
AcAdAppl
  3
DesignerServices
 90
        0
 91
        1
280
     0
281
     0
  0
CLASS
  1
DEPMGR
  2
AcAdDepMgr
  3
DesignerServices
 90
        0
 91
        1
280
     0
281
     0
  0
CLASS
  1
PARAMMGR
  2
AcAdParamMgr
  3
DesignerServices
 90
        0
 91
        1
280
     0
281
     0
  0
CLASS
  1
PARAMSCOPE
  2
AcAdParamScope
  3
DesignerServices
 90
        0
 91
        1
280
     0
281
     0
  0
CLASS
  1
NAMEDAPPL
  2
AcAdNamedAppl
  3
DesignerServices
 90
        0
 91
        1
280
     0
281
     0
  0
CLASS
  1
AMDTDMMENUSTATE
  2
AmdtDmMenuState
  3
AcMechDwgViewMgmt
 90
        0
 91
        1
280
     0
281
     0
  0
CLASS
  1
MAPIADMODULE
  2
MApiAdModule
  3
MApiAdServices
 90
        0
 91
        1
280
     0
281
     0
  0
CLASS
  1
AMDTAMMENUSTATE
  2
AmdtAmMenuState
  3
DesignerAssemblies
 90
        0
 91
        1
280
     0
281
     0
  0
CLASS
  1
ACAMPROJECT
  2
AcAmProject
  3
DesignerAssemblies
 90
        0
 91
        1
280
     0
281
     0
  0
CLASS
  1
ACAMGRCOMPDEF
  2
AcAmGrCompDef
  3
DesignerAssemblies
 90
        0
 91
        1
280
     0
281
     0
  0
CLASS
  1
ACCMCONTEXT
  2
AcCmContext
  3
DesignerAssemblies
 90
        0
 91
        1
280
     0
281
     0
  0
CLASS
  1
ACAMCOMPDEF
  2
AcAmCompDef
  3
DesignerAssemblies
 90
        0
 91
        1
280
     0
281
     0
  0
CLASS
  1
ACAMCOMPDEFMGR
  2
AcAmCompDefMgr
  3
DesignerAssemblies
 90
        0
 91
        1
280
     0
281
     0
  0
CLASS
  1
AMCONTEXTMGR
  2
AcAmContextMgr
  3
DesignerAssemblies
 90
        0
 91
        1
280
     0
281
     0
  0
CLASS
  1
ACAMCONTEXTMODELER
  2
AcAmContextModeler
  3
DesignerAssemblies
 90
        0
 91
        1
280
     0
281
     0
  0
CLASS
  1
ACMDATADICTIONARY
  2
AcmDataDictionary
  3
"AcmSymBB|Product Description: AutoCAD Mechanical 2004 DX|Company: Autodesk"
 90
        0
 91
        1
280
     0
281
     0
  0
CLASS
  1
ACMDATAENTRYBLOCK
  2
AcmDataEntryBlock
  3
"AcmSymBB|Product Description: AutoCAD Mechanical 2004 DX|Company: Autodesk"
 90
        0
 91
        1
280
     0
281
     0
  0
CLASS
  1
ACMSTANDARDISO
  2
AcmStandardISO
  3
"Amdt_StdImp|Product Description: AutoCAD Mechanical 2004 DX|Company: Autodesk"
 90
        0
 91
        1
280
     0
281
     0
  0
CLASS
  1
AMGOBJPROPCFG
  2
AmgObjPropCfg
  3
"AmgLay|Product Description: AutoCAD Mechanical 2000|Company: Autodesk"
 90
        1
 91
        1
280
     0
281
     0
  0
CLASS
  1
AMDTEDGESTANDARDISO
  2
AmdtEdgeStdISO
  3
"Amdt_StdImp|Product Description: AutoCAD Mechanical 2004 DX|Company: Autodesk"
 90
        0
 91
        0
280
     0
281
     0
  0
CLASS
  1
ACMSURFSTANDARDISO
  2
AcmSurfTextStdISO
  3
"Amdt_StdImp|Product Description: AutoCAD Mechanical 2004 DX|Company: Autodesk"
 90
        0
 91
        1
280
     0
281
     0
  0
CLASS
  1
ACMFCFSTANDARDISO
  2
AcmFCFStdISO
  3
"Amdt_StdImp|Product Description: AutoCAD Mechanical 2004 DX|Company: Autodesk"
 90
        0
 91
        1
280
     0
281
     0
  0
CLASS
  1
ACMWELDSTANDARDISO
  2
AcmWeldingStdISO
  3
"Amdt_StdImp|Product Description: AutoCAD Mechanical 2004 DX|Company: Autodesk"
 90
        0
 91
        1
280
     0
281
     0
  0
CLASS
  1
ACMIDSTANDARDISO
  2
AcmIdStdISO
  3
"Amdt_StdImp|Product Description: AutoCAD Mechanical 2004 DX|Company: Autodesk"
 90
        0
 91
        1
280
     0
281
     0
  0
CLASS
  1
ACMDATUMSTANDARDISO
  2
AcmDatumStdISO
  3
"Amdt_StdImp|Product Description: AutoCAD Mechanical 2004 DX|Company: Autodesk"
 90
        0
 91
        1
280
     0
281
     0
  0
CLASS
  1
ACMBOMSTANDARDISO
  2
AcmBOMStdISO
  3
"Amdt_StdImp|Product Description: AutoCAD Mechanical 2004 DX|Company: Autodesk"
 90
        0
 91
        1
280
     0
281
     0
  0
CLASS
  1
ACMDETAILSTANDARDISO
  2
AmdtDetailSymStdISO
  3
"Amdt_StdImp|Product Description: AutoCAD Mechanical 2004 DX|Company: Autodesk"
 90
        0
 91
        1
280
     0
281
     0
  0
CLASS
  1
ACMSECTIONSTANDARDISO
  2
AmdtSectionSymStdISO
  3
"Amdt_StdImp|Product Description: AutoCAD Mechanical 2004 DX|Company: Autodesk"
 90
        0
 91
        1
280
     0
281
     0
  0
CLASS
  1
ACMCENTERLINESTANDARDISO
  2
AmdtCenterLineStdISO
  3
"Amdt_StdImp|Product Description: AutoCAD Mechanical 2004 DX|Company: Autodesk"
 90
        0
 91
        1
280
     0
281
     0
  0
CLASS
  1
ACMTHREADLINESTANDARDISO
  2
AmdtThreadLineStdISO
  3
"Amdt_StdImp|Product Description: AutoCAD Mechanical 2004 DX|Company: Autodesk"
 90
        0
 91
        1
280
     0
281
     0
  0
CLASS
  1
ACMNOTESTANDARDISO
  2
AmdtNoteStdISO
  3
"Amdt_StdImp|Product Description: AutoCAD Mechanical 2004 DX|Company: Autodesk"
 90
        0
 91
        1
280
     0
281
     0
  0
CLASS
  1
ACAMGLAYSTD
  2
AcAmgLayStd
  3
"AcAmgLayStd|Product Description: AutoCAD Mechanical 2000|Company: Autodesk"
 90
        0
 91
        1
280
     0
281
     0
  0
CLASS
  1
ACAMGDIMSTD
  2
AcAmgDimStd
  3
"AcAmgDimStd|Product Description: AutoCAD Mechanical 2000|Company: Autodesk"
 90
        0
 91
        1
280
     0
281
     0
  0
CLASS
  1
ACAMGHOLECHARTSTDISO
  2
AcAmgHoleChartStdISO
  3
ACMSYMBB_MODULE_NAME
 90
        0
 91
        1
280
     0
281
     0
  0
CLASS
  1
ACAMGTITLESTD
  2
AcAmgTitleStd
  3
"TITLEAPP"
 90
        0
 91
        1
280
     0
281
     0
  0
CLASS
  1
CATALOGSTATE
  2
AcAmCatalogState
  3
DesignerAssemblies
 90
        0
 91
        1
280
     0
281
     0
  0
CLASS
  1
ACAMGRCOMPDEFSET
  2
AcAmGrCompDefSet
  3
DesignerAssemblies
 90
        0
 91
        1
280
     0
281
     0
  0
CLASS
  1
AMDTBROWSERDBTAB
  2
AmdtBrowserDbTab
  3
McadcomServices
 90
        0
 91
        1
280
     0
281
     0
  0
CLASS
  1
CBROWSERAPPOBJECT
  2
CBrowserAppObject
  3
McadcomServices
 90
        0
 91
        3
280
     0
281
     0
  0
CLASS
  1
DM_PLACEHOLDER
  2
AcDmSelsetPlaceholder
  3
AcMechDwgViewMgmt
 90
        0
 91
        1
280
     0
281
     0
  0
CLASS
  1
ACAMGFILTERDAT
  2
AcAmgFilterDat
  3
"AcadM|Product Description: AutoCAD Mechanical 2000|Company: Autodesk"
 90
        0
 91
        0
280
     0
281
     0
  0
CLASS
  1
DIMASSOC
  2
AcDbDimAssoc
  3
"AcDbDimAssoc|Product Desc:     AcDim ARX App For Dimension|Company:          Autodesk, Inc.|WEB Address:      www.autodesk.com"
 90
        0
 91
        3
280
     0
281
     0
  0
CLASS
  1
LAYER_INDEX
  2
AcDbLayerIndex
  3
ObjectDBX Classes
 90
        0
 91
        1
280
     0
281
     0
  0
CLASS
  1
IDBUFFER
  2
AcDbIdBuffer
  3
ObjectDBX Classes
 90
        0
 91
        8
280
     0
281
     0
  0
CLASS
  1
DICTIONARYVAR
  2
AcDbDictionaryVar
  3
ObjectDBX Classes
 90
        0
 91
        4
280
     0
281
     0
  0
CLASS
  1
ACAMEXTERNALCOMPDEF
  2
AcAmExternalCompDef
  3
DesignerAssemblies
 90
        0
 91
        0
280
     0
281
     0
  0
CLASS
  1
ACCMBODY
  2
AcCmBody
  3
DesignerAssemblies
 90
        0
 91
        0
280
     0
281
     0
  0
CLASS
  1
ACAMCOMPENT
  2
AcAmCompEnt
  3
DesignerAssemblies
 90
        0
 91
        0
280
     0
281
     1
  0
CLASS
  1
ACAMCOMPFEEDBACK
  2
AcAmCompFeedback
  3
DesignerAssemblies
 90
        0
 91
        0
280
     0
281
     0
  0
CLASS
  1
ACAMCOMP
  2
AcAmComp
  3
DesignerAssemblies
 90
        0
 91
        0
280
     0
281
     0
  0
CLASS
  1
ACAMCOMPENTCLONE
  2
AcAmCompEntClone
  3
DesignerAssemblies
 90
        0
 91
        0
280
     0
281
     1
  0
CLASS
  1
ACAMCLONEREACTOR
  2
AcAmGrCompCloneReactor
  3
DesignerAssemblies
 90
        0
 91
        0
280
     0
281
     0
  0
CLASS
  1
ACADPARTAXISRES
  2
AcAdPartAxisRes
  3
AdGrefServices
 90
        0
 91
        0
280
     0
281
     0
  0
CLASS
  1
ACRFINSADJ
  2
AcRfInsAdjuster
  3
AcMeServices
 90
        0
 91
        0
280
     0
281
     0
  0
CLASS
  1
ACMEAXIS
  2
AcImAxisDisplay
  3
AcMeServices
 90
        0
 91
        0
280
     0
281
     1
  0
CLASS
  1
ACAMEXPR
  2
AcAmExpr
  3
DesignerAssemblies
 90
        0
 91
        0
280
     0
281
     0
  0
CLASS
  1
ACCMDISTLNLN
  2
AcCmDistLnLn
  3
DesignerAssemblies
 90
        0
 91
        0
280
     0
281
     0
  0
CLASS
  1
ACCMCONSTREACTOR
  2
AcCmConstraintReactor
  3
DesignerAssemblies
 90
        0
 91
        0
280
     0
281
     0
  0
CLASS
  1
FACEID
  2
AcAdFaceId
  3
DesignerServices
 90
        0
 91
        0
280
     0
281
     0
  0
CLASS
  1
DEPEDGESECONDARYDEPID
  2
AcAdDepEdgeSecondaryDepId
  3
DesignerServices
 90
        0
 91
        0
280
     0
281
     0
  0
CLASS
  1
ACADPARTCONICALFACERES
  2
AcAdPartConicalFaceRes
  3
AdGrefServices
 90
        0
 91
        0
280
     0
281
     0
  0
CLASS
  1
ACADPARTPLANARFACERES
  2
AcAdPartPlanarFaceRes
  3
AdGrefServices
 90
        0
 91
        0
280
     0
281
     0
  0
CLASS
  1
ACMELINEARARROW
  2
AcImLinearArrowDisplay
  3
AcMeServices
 90
        0
 91
        0
280
     0
281
     1
  0
CLASS
  1
ACCMDISTPLPL
  2
AcCmDistPlPl
  3
DesignerAssemblies
 90
        0
 91
        0
280
     0
281
     0
  0
CLASS
  1
EDGEID
  2
AcAdEdgeId
  3
DesignerServices
 90
        0
 91
        0
280
     0
281
     0
  0
CLASS
  1
ACADPARTCIRCEDGRES
  2
AcAdPartCircEdgRes
  3
AdGrefServices
 90
        0
 91
        0
280
     0
281
     0
  0
CLASS
  1
ACCMINSERTPLPL
  2
AcCmInsertPlPl
  3
AcCmServices
 90
        0
 91
        0
280
     0
281
     0
  0
CLASS
  1
ADPART
  2
AcAdPart
  3
DesignerServices
 90
        0
 91
        0
280
     0
281
     1
  0
CLASS
  1
ADBASE
  2
AcAdBase
  3
DesignerServices
 90
        0
 91
        0
280
     0
281
     0
  0
CLASS
  1
BODYID
  2
AcAdBodyId
  3
DesignerServices
 90
        0
 91
        0
280
     0
281
     0
  0
CLASS
  1
WORKPLANEDISPLAYMGR
  2
AcAdDisplayMgr
  3
DesignerServices
 90
        0
 91
        0
280
     0
281
     0
  0
CLASS
  1
NEWSTDPARTPARLIST
  2
AmgNewParListFiler
  3
"AmgParList|Product Description: AutoCAD Mechanical 2000|Company: Autodesk"
 90
     1023
 91
        0
280
     0
281
     0
  0
CLASS
  1
ADDATUMPLANEABS
  2
AcAdDatumPlaneAbs
  3
DesignerServices
 90
        0
 91
        0
280
     0
281
     0
  0
CLASS
  1
ADDATUMAXISABS
  2
AcAdDatumAxisAbs
  3
DesignerServices
 90
        0
 91
        0
280
     0
281
     0
  0
CLASS
  1
ADDATUMORIENTEDPLANE
  2
AcAdDatumOrientedPlane
  3
DesignerServices
 90
        0
 91
        0
280
     0
281
     0
  0
CLASS
  1
ACRFATTGENMGR
  2
AcRfAttGeneralMgr
  3
AcAttribServices
 90
        0
 91
        0
280
     0
281
     0
  0
CLASS
  1
ACRFOBJATTMGR
  2
AcRfObjAttGroupMgr
  3
AcAttribServices
 90
        0
 91
        0
280
     0
281
     0
  0
CLASS
  1
ACRFMCADAPIATTHOLDER
  2
AcRfMCADAPIAttHolder
  3
AcAttribServices
 90
        0
 91
        0
280
     0
281
     0
  0
CLASS
  1
AMDTSYSATTR
  2
AmdtSystemAttribute
  3
AcAttribServices
 90
        0
 91
        0
280
     0
281
     0
  0
CLASS
  1
AMDTFORMULAUPDATEDISPATCHER
  2
AmdtFormulaUpdateDispatcher
  3
AcMeServices
 90
        0
 91
        0
280
     0
281
     0
  0
CLASS
  1
DEPEDGEPATTERNINSTANCE
  2
AcAdDepEdgePatternInstance
  3
DesignerServices
 90
        0
 91
        0
280
     0
281
     0
  0
CLASS
  1
ACAMVIEWREACTOR
  2
AcAmViewReactor
  3
DesignerAssemblies
 90
        0
 91
        0
280
     0
281
     0
  0
CLASS
  1
AMVIEW
  2
AcAmView
  3
DesignerAssemblies
 90
        0
 91
        0
280
     0
281
     0
  0
CLASS
  1
ACAMVIEWCONTEXT
  2
AcAmViewContext
  3
DesignerAssemblies
 90
        0
 91
        0
280
     0
281
     0
  0
CLASS
  1
ACAMCOMPENTVIEW
  2
AcAmCompEntView
  3
DesignerAssemblies
 90
        0
 91
        0
280
     0
281
     1
  0
CLASS
  1
ACAMCOMPVIEWREACTOR
  2
AcAmGrCompViewReactor
  3
DesignerAssemblies
 90
        0
 91
        0
280
     0
281
     0
  0
CLASS
  1
ACAMVIEWENTITYFILTER
  2
AcAmViewEntityFilter
  3
DesignerAssemblies
 90
        0
 91
        0
280
     0
281
     0
  0
CLASS
  1
AM_ABS_PLANE
  2
AcDmAbsPlnDef
  3
AcMechDwgViewMgmt
 90
        0
 91
        0
280
     0
281
     0
  0
CLASS
  1
AM_ABS_AXIS
  2
AcDmAbsAxisDef
  3
AcMechDwgViewMgmt
 90
        0
 91
        0
280
     0
281
     0
  0
CLASS
  1
AM_BASE_VIEW_ORIENT
  2
AcDmBaseViewOr
  3
AcMechDwgViewMgmt
 90
        0
 91
        0
280
     0
281
     0
  0
CLASS
  1
AM_DWG_VIEWPORT
  2
AcDmViewport
  3
AcMechDwgViewMgmt
 90
        0
 91
        0
280
     0
281
     0
  0
CLASS
  1
AM_VIEW_DISPLAY
  2
AcDmDwgViewDisplay
  3
AcMechDwgViewMgmt
 90
        0
 91
        0
280
     0
281
     0
  0
CLASS
  1
AM_CLDFLTS
  2
AcDmClDflts
  3
AcMechDwgViewMgmt
 90
        0
 91
        0
280
     0
281
     0
  0
CLASS
  1
AM_BASE_VIEW
  2
AcDmBaseView
  3
AcMechDwgViewMgmt
 90
        0
 91
        0
280
     0
281
     0
  0
CLASS
  1
ACMEPLINE
  2
AcImPlineDisplay
  3
AcMeServices
 90
        0
 91
        0
280
     0
281
     1
  0
CLASS
  1
ACADPARTDATUMPLANERES
  2
AcAdPartDatumPlaneRes
  3
AdGrefServices
 90
        0
 91
        0
280
     0
281
     0
  0
CLASS
  1
AM_GREF_PLANE
  2
AcDmGrefPlnDef
  3
AcMechDwgViewMgmt
 90
        0
 91
        0
280
     0
281
     0
  0
CLASS
  1
AM_ORTHO_VIEW_ORIENT
  2
AcDmOrthoViewOr
  3
AcMechDwgViewMgmt
 90
        0
 91
        0
280
     0
281
     0
  0
CLASS
  1
AM_ORTHO_VIEW
  2
AcDmOrthoView
  3
AcMechDwgViewMgmt
 90
        0
 91
        0
280
     0
281
     0
  0
CLASS
  1
ACDMPARTVIEWDATA
  2
AcDmPartViewData
  3
AcMechDwgViewMgmt
 90
        0
 91
        0
280
     0
281
     0
  0
CLASS
  1
ACDMDISPLAYATTRIBS
  2
AcDmDisplayAttribs
  3
AcMechDwgViewMgmt
 90
        0
 91
        0
280
     0
281
     0
  0
CLASS
  1
ACDMBODYINSTANCEDATA
  2
AcDmBodyInstanceData
  3
AcMechDwgViewMgmt
 90
        0
 91
        0
280
     0
281
     0
  0
CLASS
  1
ACDMVWEDLINE
  2
AcDmViewEdgeLine
  3
AcMechDwgViewMgmt
 90
        0
 91
        0
280
     0
281
     1
  0
CLASS
  1
ACDMVWEDCIRC
  2
AcDmViewEdgeCircle
  3
AcMechDwgViewMgmt
 90
        0
 91
        0
280
     0
281
     1
  0
CLASS
  1
ACDMVWEDARC
  2
AcDmViewEdgeArc
  3
AcMechDwgViewMgmt
 90
        0
 91
        0
280
     0
281
     1
  0
CLASS
  1
AM_ADCIRCTRLINE
  2
AcAdBullsEyeCl
  3
DesignerServices
 90
        0
 91
        0
280
     0
281
     0
  0
CLASS
  1
ACDMVWEDSPLINE
  2
AcDmViewEdgeSpline
  3
AcMechDwgViewMgmt
 90
        0
 91
        0
280
     0
281
     1
  0
CLASS
  1
AM_ADLINCTRLINE
  2
AcAdLineCl
  3
DesignerServices
 90
        0
 91
        0
280
     0
281
     0
  0
CLASS
  1
CNRREFID
  2
AcAdCornerId
  3
DesignerServices
 90
        0
 91
        0
280
     0
281
     0
  0
CLASS
  1
ACADPARTPOINTRES
  2
AcAdPartPointRes
  3
AdGrefServices
 90
        0
 91
        0
280
     0
281
     0
  0
CLASS
  1
AM_VIEWDIMLINEAR
  2
AcDmViewDimLinear
  3
AcMechDwgViewMgmt
 90
        0
 91
        0
280
     0
281
     0
  0
CLASS
  1
ACDMVIEWGEOM
  2
AcDmViewGeometry
  3
AcMechDwgViewMgmt
 90
        0
 91
        0
280
     0
281
     1
  0
CLASS
  1
ACADPARTLINEDGRES
  2
AcAdPartLinEdgRes
  3
AdGrefServices
 90
        0
 91
        0
280
     0
281
     0
  0
CLASS
  1
AMDTNOTE
  2
AmdtNote
  3
"AcmSymBB|Product Description: AutoCAD Mechanical 2004 DX|Company: Autodesk"
 90
     1023
 91
        0
280
     0
281
     1
  0
CLASS
  1
TABLESTYLE
  2
AcDbTableStyle
  3
ObjectDBX Classes
 90
     2047
 91
        1
280
     0
281
     0
  0
CLASS
  1
AMDTEDGESTANDARDISO13715
  2
AmdtEdgeStdISO13715
  3
"Amdt_StdImp|Product Description: AutoCAD Mechanical 2004 DX|Company: Autodesk"
 90
        0
 91
        1
280
     0
281
     0
  0
CLASS
  1
AMDTNOTETEMPLATEDB
  2
AmdtNoteTemplateDB
  3
AMDT_STDIMP_MODULE_NAME
 90
        0
 91
        5
280
     0
281
     0
  0
ENDSEC
  0
SECTION
  2
TABLES
  0
TABLE
  2
VPORT
  5
1A
330
0
100
AcDbSymbolTable
 70
     6
  0
VPORT
  5
E69
330
1A
100
AcDbSymbolTableRecord
100
AcDbViewportTableRecord
  2
*Active
 70
     0
 10
0.0
 20
0.0
 11
1.0
 21
1.0
 12
48.95244912491543
 22
-27.7993160305831
 13
0.0
 23
0.0
 14
2.5
 24
2.5
 15
10.0
 25
10.0
 16
0.0
 26
0.0
 36
1.0
 17
152.7325381694802
 27
544.6809505528522
 37
0.0
 40
370.9662635781922
 41
1.263157894736842
 42
50.0
 43
0.0
 44
0.0
 50
0.0
 51
0.0
 71
     0
 72
   100
 73
     1
 74
     3
 75
     0
 76
     0
 77
     0
 78
     0
281
     0
 65
     0
110
0.0
120
0.0
130
0.0
111
1.0
121
0.0
131
0.0
112
0.0
122
1.0
132
0.0
 79
     0
146
0.0
  0
ENDTAB
  0
TABLE
  2
LTYPE
  5
15
330
0
100
AcDbSymbolTable
 70
    16
  0
LTYPE
  5
16
330
15
100
AcDbSymbolTableRecord
100
AcDbLinetypeTableRecord
  2
ByBlock
 70
     0
  3

 72
    65
 73
     0
 40
0.0
  0
LTYPE
  5
17
330
15
100
AcDbSymbolTableRecord
100
AcDbLinetypeTableRecord
  2
ByLayer
 70
     0
  3

 72
    65
 73
     0
 40
0.0
  0
LTYPE
  5
9
330
15
100
AcDbSymbolTableRecord
100
AcDbLinetypeTableRecord
  2
Continuous
 70
     0
  3
Solid line
 72
    65
 73
     0
 40
0.0
  0
LTYPE
  5
28
330
15
100
AcDbSymbolTableRecord
100
AcDbLinetypeTableRecord
  2
AM_ISO08W050
 70
     0
  3
____ . ____ . ____ . ____ . ____ . ____ . ____
 72
    65
 73
     4
 40
18.0
 49
12.0
 74
     0
 49
-1.5
 74
     0
 49
3.0
 74
     0
 49
-1.5
 74
     0
  0
LTYPE
  5
193
330
15
100
AcDbSymbolTableRecord
100
AcDbLinetypeTableRecord
  2
AM_ISO02W050
 70
     0
  3
__ __ __ __ __ __ __ __ __ __ __ __ __ __ __
 72
    65
 73
     2
 40
7.5
 49
6.0
 74
     0
 49
-1.5
 74
     0
  0
LTYPE
  5
194
330
15
100
AcDbSymbolTableRecord
100
AcDbLinetypeTableRecord
  2
AM_ISO09W050
 70
     0
  3
_____ . . _____ . . _____ . . ____ .. ____
 72
    65
 73
     6
 40
22.5
 49
12.0
 74
     0
 49
-1.5
 74
     0
 49
3.0
 74
     0
 49
-1.5
 74
     0
 49
3.0
 74
     0
 49
-1.5
 74
     0
  0
LTYPE
  5
195
330
15
100
AcDbSymbolTableRecord
100
AcDbLinetypeTableRecord
  2
Amconstr
 70
     0
  3
_______________________
 72
    65
 73
     2
 40
9999.0
 49
9999.0
 74
     0
 49
0.0
 74
     0
  0
LTYPE
  5
196
330
15
100
AcDbSymbolTableRecord
100
AcDbLinetypeTableRecord
  2
AM_ISO08W050x2
 70
     0
  3
__ . __ . __ . __ . __ . __
 72
    65
 73
     4
 40
9.0
 49
6.0
 74
     0
 49
-0.75
 74
     0
 49
1.5
 74
     0
 49
-0.75
 74
     0
  0
LTYPE
  5
197
330
15
100
AcDbSymbolTableRecord
100
AcDbLinetypeTableRecord
  2
AM_ISO02W050x2
 70
     0
  3
 _ _ _ _ _ _ _ _ _ _ _ _
 72
    65
 73
     2
 40
3.75
 49
3.0
 74
     0
 49
-0.75
 74
     0
  0
LTYPE
  5
19A
330
15
100
AcDbSymbolTableRecord
100
AcDbLinetypeTableRecord
  2
Amzigzag
 70
     0
  3
/\/-/\/-/\/-/\/-/\/-/\/
 72
    65
 73
     2
 40
11.0001
 49
0.0001
 74
     4
 75
   135
340
199
 46
0.04
 50
0.0
 44
0.0
 45
0.0
 49
-11.0
 74
     0
  0
LTYPE
  5
1A8
330
15
100
AcDbSymbolTableRecord
100
AcDbLinetypeTableRecord
  2
ACISOWELD
 70
     0
  3
_ _ _ _ _
 72
    65
 73
     2
 40
2.0
 49
2.0
 74
     0
 49
-1.0
 74
     0
  0
LTYPE
  5
1A9
330
15
100
AcDbSymbolTableRecord
100
AcDbLinetypeTableRecord
  2
ACISOTGB
 70
     0
  3
__ . . __ . .
 72
    65
 73
     6
 40
9.0
 49
4.0
 74
     0
 49
-1.0
 74
     0
 49
1.0
 74
     0
 49
-1.0
 74
     0
 49
1.0
 74
     0
 49
-1.0
 74
     0
  0
LTYPE
  5
1AA
330
15
100
AcDbSymbolTableRecord
100
AcDbLinetypeTableRecord
  2
ACISOTGL
 70
     0
  3
_ _ _ _ _
 72
    65
 73
     2
 40
3.0
 49
2.0
 74
     0
 49
-1.0
 74
     0
  0
LTYPE
  5
1AB
330
15
100
AcDbSymbolTableRecord
100
AcDbLinetypeTableRecord
  2
CENTER
 70
     0
  3
__ . __
 72
    65
 73
     4
 40
7.0
 49
4.0
 74
     0
 49
-1.0
 74
     0
 49
1.0
 74
     0
 49
-1.0
 74
     0
  0
LTYPE
  5
DBB
330
15
100
AcDbSymbolTableRecord
100
AcDbLinetypeTableRecord
  2
HIDDEN
 70
     0
  3
Hidden __ __ __ __ __ __ __ __ __ __ __ __ __ _
 72
    65
 73
     2
 40
9.524999999999998
 49
6.349999999999999
 74
     0
 49
-3.174999999999999
 74
     0
  0
LTYPE
  5
DBC
330
15
100
AcDbSymbolTableRecord
100
AcDbLinetypeTableRecord
  2
PHANTOM2
 70
     0
  3
Phantom (.5x) ___ _ _ ___ _ _ ___ _ _ ___ _ _
 72
    65
 73
     6
 40
31.75
 49
15.875
 74
     0
 49
-3.174999999999999
 74
     0
 49
3.174999999999999
 74
     0
 49
-3.174999999999999
 74
     0
 49
3.174999999999999
 74
     0
 49
-3.174999999999999
 74
     0
  0
LTYPE
  5
E08
330
15
100
AcDbSymbolTableRecord
100
AcDbLinetypeTableRecord
  2
ASULTYPE
 70
     0
  3
實線
 72
    65
 73
     2
 40
3.0
 49
2.5
 74
     0
 49
0.5
 74
     0
  0
LTYPE
  5
E09
330
15
100
AcDbSymbolTableRecord
100
AcDbLinetypeTableRecord
  2
ASVLTYPE
 70
     0
  3
__ __ __ __ __ __ __ __ __ __ __ __ __ __ __ __ __ __ __ __ __
 72
    65
 73
     2
 40
0.75
 49
0.5
 74
     0
 49
-0.25
 74
     0
  0
ENDTAB
  0
TABLE
  2
LAYER
  5
11
330
0
100
AcDbSymbolTable
 70
     8
  0
LAYER
  5
5
330
11
100
AcDbSymbolTableRecord
100
AcDbLayerTableRecord
  2
0
 70
     0
 62
     7
  6
Continuous
370
    -3
390
6
  0
LAYER
  5
3A
330
11
100
AcDbSymbolTableRecord
100
AcDbLayerTableRecord
  2
Defpoints
 70
     0
 62
     7
  6
Continuous
290
     0
370
    -3
390
6
  0
LAYER
  5
27
330
11
100
AcDbSymbolTableRecord
100
AcDbLayerTableRecord
  2
AM_7
 70
     0
 62
     1
  6
AM_ISO08W050
370
    25
390
6
  0
LAYER
  5
52
330
11
100
AcDbSymbolTableRecord
100
AcDbLayerTableRecord
  2
AM_VIS
 70
     0
 62
     7
  6
Continuous
370
    50
390
6
  0
LAYER
  5
1FD
330
11
100
AcDbSymbolTableRecord
100
AcDbLayerTableRecord
  2
AM_5
 70
     0
 62
     5
  6
Continuous
370
    25
390
6
  0
LAYER
  5
29A
330
11
100
AcDbSymbolTableRecord
100
AcDbLayerTableRecord
  2
AM_0N
 70
     0
 62
     7
  6
Continuous
370
    50
390
6
  0
LAYER
  5
29B
330
11
100
AcDbSymbolTableRecord
100
AcDbLayerTableRecord
  2
AM_7N
 70
     0
 62
     4
  6
AM_ISO08W050
370
    25
390
6
  0
LAYER
  5
96B
330
11
100
AcDbSymbolTableRecord
100
AcDbLayerTableRecord
  2
LOGO
 70
     0
 62
     7
  6
Continuous
370
    -3
390
6
  0
ENDTAB
  0
TABLE
  2
STYLE
  5
12
330
0
100
AcDbSymbolTable
 70
     6
  0
STYLE
  5
13
330
12
100
AcDbSymbolTableRecord
100
AcDbTextStyleTableRecord
  2
STANDARD
 70
     0
 40
0.0
 41
1.0
 50
0.0
 71
     0
 42
3.0
  3
ISOCP.SHX
  4
CHINESET.SHX
  0
STYLE
  5
199
330
12
100
AcDbSymbolTableRecord
100
AcDbTextStyleTableRecord
  2

 70
     1
 40
0.0
 41
1.0
 50
0.0
 71
     0
 42
3.0
  3
ltypeshp.shx
  4

  0
STYLE
  5
19B
330
12
100
AcDbSymbolTableRecord
100
AcDbTextStyleTableRecord
  2
ACISOTS
 70
     0
 40
1.0
 41
1.0
 50
0.0
 71
     0
 42
3.0
  3
isocp.shx
  4
chineset.shx
  0
STYLE
  5
1A7
330
12
100
AcDbSymbolTableRecord
100
AcDbTextStyleTableRecord
  2
ACISOGDT
 70
     0
 40
0.0
 41
1.0
 50
0.0
 71
     0
 42
3.0
  3
amgdt.shx
  4

  0
STYLE
  5
96C
330
12
100
AcDbSymbolTableRecord
100
AcDbTextStyleTableRecord
  2
CHINESET
 70
     0
 40
0.0
 41
1.0
 50
0.0
 71
     0
 42
2.5
  3
simplex.shx
  4
CHINESET.shx
  0
STYLE
  5
96D
330
12
100
AcDbSymbolTableRecord
100
AcDbTextStyleTableRecord
  2
LOGO
 70
     0
 40
0.0
 41
1.0
 50
0.0
 71
     0
 42
5.0
  3
LEI00DP.TTF
  4

1001
ACAD
1000
文鼎中粗隸
1071
    34865
  0
ENDTAB
  0
TABLE
  2
VIEW
  5
18
330
0
100
AcDbSymbolTable
 70
     0
  0
ENDTAB
  0
TABLE
  2
UCS
  5
19
330
0
100
AcDbSymbolTable
 70
     0
  0
ENDTAB
  0
TABLE
  2
APPID
  5
1C
330
0
100
AcDbSymbolTable
 70
    20
  0
APPID
  5
1D
330
1C
100
AcDbSymbolTableRecord
100
AcDbRegAppTableRecord
  2
ACAD
 70
     0
  0
APPID
  5
40
330
1C
100
AcDbSymbolTableRecord
100
AcDbRegAppTableRecord
  2
ACAD_DIMASSOC_DIMLFAC
 70
     0
  0
APPID
  5
3F
330
1C
100
AcDbSymbolTableRecord
100
AcDbRegAppTableRecord
  2
ACAD_DIMASSOC_CALC_DIMLFAC
 70
     0
  0
APPID
  5
175
330
1C
100
AcDbSymbolTableRecord
100
AcDbRegAppTableRecord
  2
MCAD_NO_VIS
 70
     0
  0
APPID
  5
176
330
1C
100
AcDbSymbolTableRecord
100
AcDbRegAppTableRecord
  2
ACAD_TEMP_GRAPHIC
 70
     0
  0
APPID
  5
187
330
1C
100
AcDbSymbolTableRecord
100
AcDbRegAppTableRecord
  2
ACATTRIBSERVICES
 70
     0
  0
APPID
  5
1D4
330
1C
100
AcDbSymbolTableRecord
100
AcDbRegAppTableRecord
  2
GENIUS_GENOLIS_13
 70
     0
  0
APPID
  5
1D5
330
1C
100
AcDbSymbolTableRecord
100
AcDbRegAppTableRecord
  2
GENIUS_GENOENT_13
 70
     0
  0
APPID
  5
1D6
330
1C
100
AcDbSymbolTableRecord
100
AcDbRegAppTableRecord
  2
GENIUS_GENOBJ-N-CRS_13
 70
     0
  0
APPID
  5
1D7
330
1C
100
AcDbSymbolTableRecord
100
AcDbRegAppTableRecord
  2
GENIUS_GENODEF_13
 70
     0
  0
APPID
  5
1D8
330
1C
100
AcDbSymbolTableRecord
100
AcDbRegAppTableRecord
  2
GENIUS_GENOREF_13
 70
     0
  0
APPID
  5
D8A
330
1C
100
AcDbSymbolTableRecord
100
AcDbRegAppTableRecord
  2
GENIUS_GENDIM_13
 70
     0
  0
APPID
  5
D8B
330
1C
100
AcDbSymbolTableRecord
100
AcDbRegAppTableRecord
  2
GENIUS_GENDTOL_13
 70
     0
  0
APPID
  5
D8C
330
1C
100
AcDbSymbolTableRecord
100
AcDbRegAppTableRecord
  2
GENIUS_GE3DTOL_13
 70
     0
  0
APPID
  5
DBE
330
1C
100
AcDbSymbolTableRecord
100
AcDbRegAppTableRecord
  2
AD_DRAW
 70
     0
  0
APPID
  5
E0A
330
1C
100
AcDbSymbolTableRecord
100
AcDbRegAppTableRecord
  2
ASURF_PCURVE_APPNAME
 70
     0
  0
APPID
  5
E0F
330
1C
100
AcDbSymbolTableRecord
100
AcDbRegAppTableRecord
  2
AMG_3D2D_5.0
 70
     0
  0
APPID
  5
E3E
330
1C
100
AcDbSymbolTableRecord
100
AcDbRegAppTableRecord
  2
DESIGNERASSEMBLIES
 70
     0
  0
APPID
  5
E44
330
1C
100
AcDbSymbolTableRecord
100
AcDbRegAppTableRecord
  2
ACADM_DIM_EDIT
 70
     0
  0
APPID
  5
E45
330
1C
100
AcDbSymbolTableRecord
100
AcDbRegAppTableRecord
  2
AMDT_DM_ADJ
 70
     0
  0
ENDTAB
  0
TABLE
  2
DIMSTYLE
  5
1E
330
0
100
AcDbSymbolTable
 70
     7
100
AcDbDimStyleTable
 71
     0
  0
DIMSTYLE
105
1F
102
{ACAD_REACTORS
330
2FF
330
394
330
41
330
415
102
}
330
1E
100
AcDbSymbolTableRecord
100
AcDbDimStyleTableRecord
  2
AM_ISO
 70
     0
  4
"
 41
3.0
 42
2.0
 43
7.0
 44
1.0
 47
0.1
 48
0.1
 73
     0
 74
     0
 77
     1
 78
     8
 79
     2
140
3.0
141
0.0
143
0.0393701
146
0.71
147
0.7
172
     1
176
   256
177
   256
178
   256
271
     2
272
     2
283
     0
284
     8
340
13
371
    -1
372
    -1
  0
DIMSTYLE
105
1AE
330
1E
100
AcDbSymbolTableRecord
100
AcDbDimStyleTableRecord
  2
AM_ISO$3
 70
     0
  4
"
 41
3.0
 42
2.0
 43
7.0
 44
1.0
 47
0.1
 48
0.1
 73
     0
 77
     1
 78
     8
 79
     2
140
3.0
141
0.0
143
0.0393701
146
0.71
147
0.7
176
   256
177
   256
178
   256
271
     2
272
     2
283
     0
284
     8
288
     1
289
     0
340
13
371
    -1
372
    -1
  0
DIMSTYLE
105
1AF
330
1E
100
AcDbSymbolTableRecord
100
AcDbDimStyleTableRecord
  2
AM_ISO$4
 70
     0
  4
"
 41
3.0
 42
2.0
 43
7.0
 44
1.0
 47
0.1
 48
0.1
 73
     0
 77
     1
 78
     8
 79
     2
140
3.0
141
0.0
143
0.0393701
146
0.71
147
0.7
176
   256
177
   256
178
   256
271
     2
272
     2
283
     0
284
     8
288
     1
289
     0
340
13
371
    -1
372
    -1
  0
DIMSTYLE
105
1B0
330
1E
100
AcDbSymbolTableRecord
100
AcDbDimStyleTableRecord
  2
AM_ISO$6
 70
     0
  4
"
 41
3.0
 42
2.0
 43
7.0
 44
1.0
 47
0.1
 48
0.1
 73
     0
 74
     0
 78
     8
 79
     2
140
3.0
141
0.0
143
0.0393701
146
0.71
147
0.7
172
     1
176
   256
177
   256
178
   256
271
     2
272
     2
283
     0
284
     8
340
13
371
    -1
372
    -1
  0
DIMSTYLE
105
1B1
330
1E
100
AcDbSymbolTableRecord
100
AcDbDimStyleTableRecord
  2
AM_ISO$7
 70
     0
  4
"
 41
2.5
 42
2.0
 43
7.0
 44
1.0
 47
0.1
 48
0.1
 73
     0
 74
     0
 77
     1
 78
     8
 79
     2
140
5.0
141
0.0
143
0.0393701
146
0.71
147
1.5
172
     1
176
   256
177
   256
178
   256
271
     2
272
     2
283
     0
284
     8
340
13
371
    -1
372
    -1
  0
DIMSTYLE
105
1B2
330
1E
100
AcDbSymbolTableRecord
100
AcDbDimStyleTableRecord
  2
AM_ISO$SF
 70
     0
  4
"
 41
3.0
 42
2.0
 43
7.0
 44
1.0
 47
0.1
 48
0.1
 73
     0
 74
     0
 75
     1
 76
     1
 77
     1
 78
     8
 79
     2
140
3.0
141
0.0
143
0.0393701
146
0.71
147
0.7
172
     1
176
   256
177
   256
178
   256
271
     2
272
     2
283
     0
284
     8
340
13
371
    -1
372
    -1
  0
DIMSTYLE
105
1B7
330
1E
100
AcDbSymbolTableRecord
100
AcDbDimStyleTableRecord
  2
AM_ISO$SH
 70
     0
  4
"
 41
3.0
 42
2.0
 43
7.0
 44
1.0
 47
0.1
 48
0.1
 73
     0
 74
     0
 75
     1
 76
     1
 77
     1
 78
     8
 79
     2
140
3.0
141
0.0
143
0.0393701
144
2.0
146
0.71
147
0.7
172
     1
173
     1
176
   256
177
   256
178
   256
271
     2
272
     2
283
     0
284
     8
340
13
341
1B3
343
1B3
371
    -1
372
    -1
  0
ENDTAB
  0
TABLE
  2
BLOCK_RECORD
  5
1
330
0
100
AcDbSymbolTable
 70
     8
  0
BLOCK_RECORD
  5
2
102
{ACAD_XDICTIONARY
360
3
102
}
330
1
100
AcDbSymbolTableRecord
100
AcDbBlockTableRecord
  2
*Model_Space
340
B
  0
BLOCK_RECORD
  5
D
102
{ACAD_XDICTIONARY
360
D18
102
}
330
1
100
AcDbSymbolTableRecord
100
AcDbBlockTableRecord
  2
*Paper_Space
340
10
  0
BLOCK_RECORD
  5
1B3
330
1
100
AcDbSymbolTableRecord
100
AcDbBlockTableRecord
  2
GENAXEH
340
0
  0
BLOCK_RECORD
  5
286
330
1
100
AcDbSymbolTableRecord
100
AcDbBlockTableRecord
  2
A$C32C02AC5
340
0
102
{BLKREFS
331
2A2
331
2A4
102
}
  0
BLOCK_RECORD
  5
300
330
1
100
AcDbSymbolTableRecord
100
AcDbBlockTableRecord
  2
*D2
340
0
  0
BLOCK_RECORD
  5
395
330
1
100
AcDbSymbolTableRecord
100
AcDbBlockTableRecord
  2
*D3
340
0
  0
BLOCK_RECORD
  5
3D3
330
1
100
AcDbSymbolTableRecord
100
AcDbBlockTableRecord
  2
*D4
340
0
  0
BLOCK_RECORD
  5
416
330
1
100
AcDbSymbolTableRecord
100
AcDbBlockTableRecord
  2
*D5
340
0
  0
BLOCK_RECORD
  5
D73
330
1
100
AcDbSymbolTableRecord
100
AcDbBlockTableRecord
  2
*S6
340
0
102
{BLKREFS
331
BE7
102
}
  0
BLOCK_RECORD
  5
E35
330
1
100
AcDbSymbolTableRecord
100
AcDbBlockTableRecord
  2
*U7
340
0
  0
ENDTAB
  0
ENDSEC
  0
SECTION
  2
BLOCKS
  0
BLOCK
  5
4
330
2
100
AcDbEntity
  8
0
100
AcDbBlockBegin
  2
*Model_Space
 70
     0
 10
0.0
 20
0.0
 30
0.0
  3
*Model_Space
  1

  0
ENDBLK
  5
A
330
2
100
AcDbEntity
  8
0
100
AcDbBlockEnd
  0
BLOCK
  5
E
330
D
100
AcDbEntity
 67
     1
  8
0
100
AcDbBlockBegin
  2
*Paper_Space
 70
     0
 10
0.0
 20
0.0
 30
0.0
  3
*Paper_Space
  1

  0
ENDBLK
  5
F
330
D
100
AcDbEntity
 67
     1
  8
0
100
AcDbBlockEnd
  0
BLOCK
  5
1B5
330
1B3
100
AcDbEntity
  8
0
100
AcDbBlockBegin
  2
GENAXEH
 70
     0
 10
0.0
 20
0.0
 30
0.0
  3
GENAXEH
  1

  0
LINE
  5
1B4
330
1B3
100
AcDbEntity
  8
0
100
AcDbLine
 10
-1.0
 20
0.0
 30
0.0
 11
1.0
 21
0.0
 31
0.0
  0
ENDBLK
  5
1B6
330
1B3
100
AcDbEntity
  8
0
100
AcDbBlockEnd
  0
BLOCK
  5
298
330
286
100
AcDbEntity
  8
0
100
AcDbBlockBegin
  2
A$C32C02AC5
 70
     0
 10
0.0
 20
0.0
 30
0.0
  3
A$C32C02AC5
  1

  0
ARC
  5
287
330
286
100
AcDbEntity
  8
AM_0N
100
AcDbCircle
 10
28.29750013681883
 20
0.4717226462118731
 30
0.0
 40
7.148277279961684
100
AcDbArc
 50
64.43846940473163
 51
124.4384694047311
1001
GENIUS_GENOREF_13
1005
0
  0
ARC
  5
288
330
286
100
AcDbEntity
  8
AM_0N
100
AcDbCircle
 10
28.29750013681877
 20
9.773277206135219
 30
0.0
 40
7.148277279961684
100
AcDbArc
 50
235.5615305952688
 51
295.5615305952684
1001
GENIUS_GENOREF_13
1005
0
  0
LINE
  5
289
330
286
100
AcDbEntity
  8
AM_0N
100
AcDbLine
 10
30.17000013681877
 20
7.619999926173534
 30
0.0
 11
2.170000136818771
 21
7.619999926173534
 31
0.0
1001
GENIUS_GENOREF_13
1005
0
  0
LINE
  5
28A
330
286
100
AcDbEntity
  8
AM_0N
100
AcDbLine
 10
30.17000013681877
 20
2.624999926173529
 30
0.0
 11
2.170000136818771
 21
2.624999926173529
 31
0.0
1001
GENIUS_GENOREF_13
1005
0
  0
ARC
  5
28B
330
286
100
AcDbEntity
  8
AM_0N
100
AcDbCircle
 10
4.042500136818773
 20
0.4717226462118731
 30
0.0
 40
7.148277279961684
100
AcDbArc
 50
55.56153059526886
 51
115.5615305952669
1001
GENIUS_GENOREF_13
1005
0
  0
ARC
  5
28C
330
286
100
AcDbEntity
  8
AM_0N
100
AcDbCircle
 10
4.042500136818773
 20
9.773277206135219
 30
0.0
 40
7.148277279961654
100
AcDbArc
 50
244.4384694047316
 51
304.4384694047312
1001
GENIUS_GENOREF_13
1005
0
  0
LINE
  5
28D
330
286
100
AcDbEntity
  8
AM_0N
100
AcDbLine
 10
0.0000001368187839
 20
6.367149842032063
 30
0.0
 11
2.170000136818771
 21
7.619999926173534
 31
0.0
1001
GENIUS_GENOREF_13
1005
0
  0
LINE
  5
28E
330
286
100
AcDbEntity
  8
AM_0N
100
AcDbLine
 10
0.0000001368187839
 20
3.877850010315
 30
0.0
 11
2.170000136818771
 21
2.624999926173529
 31
0.0
1001
GENIUS_GENOREF_13
1005
0
  0
LINE
  5
28F
330
286
100
AcDbEntity
  8
AM_0N
100
AcDbLine
 10
0.0000001368187839
 20
6.367149842032063
 30
0.0
 11
0.0000001368187839
 21
3.877850010315
 31
0.0
1001
GENIUS_GENOREF_13
1005
0
  0
ARC
  5
290
330
286
100
AcDbEntity
  8
AM_0N
100
AcDbCircle
 10
16.17000013681877
 20
-19.09383406746096
 30
0.0
 40
26.71383399363448
100
AcDbArc
 50
72.38303115961244
 51
107.616968840386
1001
GENIUS_GENOREF_13
1005
0
  0
ARC
  5
291
330
286
100
AcDbEntity
  8
AM_0N
100
AcDbCircle
 10
16.17000013681883
 20
29.33883391980808
 30
0.0
 40
26.71383399363456
100
AcDbArc
 50
252.383031159614
 51
287.616968840386
1001
GENIUS_GENOREF_13
1005
0
  0
LINE
  5
292
330
286
100
AcDbEntity
  8
AM_0N
100
AcDbLine
 10
8.085000136818763
 20
6.367149842032063
 30
0.0
 11
8.085000136818763
 21
3.877850010315
 31
0.0
1001
GENIUS_GENOREF_13
1005
0
  0
LINE
  5
293
330
286
100
AcDbEntity
  8
AM_0N
100
AcDbLine
 10
24.25500013681878
 20
6.367149842032063
 30
0.0
 11
24.25500013681878
 21
3.877850010315
 31
0.0
1001
GENIUS_GENOREF_13
1005
0
  0
LINE
  5
294
330
286
100
AcDbEntity
  8
AM_0N
100
AcDbLine
 10
32.34000013681879
 20
6.367149842032063
 30
0.0
 11
30.17000013681877
 21
7.619999926173534
 31
0.0
1001
GENIUS_GENOREF_13
1005
0
  0
LINE
  5
295
330
286
100
AcDbEntity
  8
AM_0N
100
AcDbLine
 10
32.34000013681879
 20
6.367149842032063
 30
0.0
 11
32.34000013681879
 21
3.877850010315
 31
0.0
1001
GENIUS_GENOREF_13
1005
0
  0
LINE
  5
296
330
286
100
AcDbEntity
  8
AM_0N
100
AcDbLine
 10
32.34000013681879
 20
3.877850010315
 30
0.0
 11
30.17000013681877
 21
2.624999926173529
 31
0.0
1001
GENIUS_GENOREF_13
1005
0
  0
LINE
  5
297
330
286
100
AcDbEntity
  8
AM_7N
  6
AM_ISO08W050x2
 62
     1
100
AcDbLine
 10
16.17000013681877
 20
10.24499992617353
 30
0.0
 11
16.17000013681877
 21
-0.0000000738264703
 31
0.0
1001
GENIUS_GENOREF_13
1005
0
  0
ENDBLK
  5
299
330
286
100
AcDbEntity
  8
0
100
AcDbBlockEnd
  0
BLOCK
  5
30A
330
300
100
AcDbEntity
  8
0
100
AcDbBlockBegin
  2
*D2
 70
     1
 10
0.0
 20
0.0
 30
0.0
  3
*D2
  1

  0
LINE
  5
CE8
330
300
100
AcDbEntity
  8
AM_5
100
AcDbLine
 10
62.8670311244133
 20
461.5217096834795
 30
0.0
 11
62.8670311244133
 21
425.8265924729381
 31
0.0
  0
LINE
  5
CE9
330
300
100
AcDbEntity
  8
AM_5
100
AcDbLine
 10
136.8670311244133
 20
461.5217096834795
 30
0.0
 11
136.8670311244133
 21
425.8265924729381
 31
0.0
  0
LINE
  5
CEA
330
300
100
AcDbEntity
  8
AM_5
100
AcDbLine
 10
65.8670311244133
 20
426.8265924729381
 30
0.0
 11
133.8670311244133
 21
426.8265924729381
 31
0.0
  0
SOLID
  5
CEB
330
300
100
AcDbEntity
  8
AM_5
100
AcDbTrace
 10
65.8670311244133
 20
427.3265924729381
 30
0.0
 11
65.8670311244133
 21
426.3265924729381
 31
0.0
 12
62.8670311244133
 22
426.8265924729381
 32
0.0
 13
62.8670311244133
 23
426.8265924729381
 33
0.0
  0
SOLID
  5
CEC
330
300
100
AcDbEntity
  8
AM_5
100
AcDbTrace
 10
133.8670311244133
 20
427.3265924729381
 30
0.0
 11
133.8670311244133
 21
426.3265924729381
 31
0.0
 12
136.8670311244133
 22
426.8265924729381
 32
0.0
 13
136.8670311244133
 23
426.8265924729381
 33
0.0
  0
MTEXT
  5
CED
330
300
100
AcDbEntity
  8
AM_5
100
AcDbMText
 10
99.86703112441331
 20
429.0265924729381
 30
0.0
 40
3.0
 41
0.0
 71
     5
 72
     1
  1
74
 73
     1
 44
1.0
  0
POINT
  5
CEE
330
300
100
AcDbEntity
  8
Defpoints
 62
     0
100
AcDbPoint
 10
62.8670311244133
 20
463.5217096834796
 30
0.0
  0
POINT
  5
CEF
330
300
100
AcDbEntity
  8
Defpoints
 62
     0
100
AcDbPoint
 10
136.8670311244133
 20
463.5217096834796
 30
0.0
  0
POINT
  5
CF0
330
300
100
AcDbEntity
  8
Defpoints
 62
     0
100
AcDbPoint
 10
136.8670311244133
 20
426.8265924729381
 30
0.0
  0
ENDBLK
  5
30B
330
300
100
AcDbEntity
  8
0
100
AcDbBlockEnd
  0
BLOCK
  5
39F
330
395
100
AcDbEntity
  8
0
100
AcDbBlockBegin
  2
*D3
 70
     1
 10
0.0
 20
0.0
 30
0.0
  3
*D3
  1

  0
LINE
  5
CF1
330
395
100
AcDbEntity
  8
AM_5
100
AcDbLine
 10
101.8670311244133
 20
543.5217096834795
 30
0.0
 11
158.806219433989
 21
543.5217096834795
 31
0.0
  0
LINE
  5
CF2
330
395
100
AcDbEntity
  8
AM_5
100
AcDbLine
 10
112.8670311244133
 20
438.5217096834796
 30
0.0
 11
158.8062194339889
 21
438.5217096834795
 31
0.0
  0
LINE
  5
CF3
330
395
100
AcDbEntity
  8
AM_5
100
AcDbLine
 10
157.806219433989
 20
540.5217096834795
 30
0.0
 11
157.806219433989
 21
441.5217096834795
 31
0.0
  0
SOLID
  5
CF4
330
395
100
AcDbEntity
  8
AM_5
100
AcDbTrace
 10
157.306219433989
 20
540.5217096834795
 30
0.0
 11
158.306219433989
 21
540.5217096834795
 31
0.0
 12
157.806219433989
 22
543.5217096834795
 32
0.0
 13
157.806219433989
 23
543.5217096834795
 33
0.0
  0
SOLID
  5
CF5
330
395
100
AcDbEntity
  8
AM_5
100
AcDbTrace
 10
157.306219433989
 20
441.5217096834795
 30
0.0
 11
158.306219433989
 21
441.5217096834795
 31
0.0
 12
157.806219433989
 22
438.5217096834795
 32
0.0
 13
157.806219433989
 23
438.5217096834795
 33
0.0
  0
MTEXT
  5
CF6
330
395
100
AcDbEntity
  8
AM_5
100
AcDbMText
 10
155.6062194339889
 20
491.0217096834795
 30
0.0
 40
3.0
 41
0.0
 71
     5
 72
     1
  1
105
 11
0.0000000000000001
 21
1.0
 31
0.0
 73
     1
 44
1.0
  0
POINT
  5
CF7
330
395
100
AcDbEntity
  8
Defpoints
 62
     0
100
AcDbPoint
 10
99.86703112441331
 20
543.5217096834795
 30
0.0
  0
POINT
  5
CF8
330
395
100
AcDbEntity
  8
Defpoints
 62
     0
100
AcDbPoint
 10
110.8670311244133
 20
438.5217096834796
 30
0.0
  0
POINT
  5
CF9
330
395
100
AcDbEntity
  8
Defpoints
 62
     0
100
AcDbPoint
 10
157.806219433989
 20
438.5217096834795
 30
0.0
  0
ENDBLK
  5
3A0
330
395
100
AcDbEntity
  8
0
100
AcDbBlockEnd
  0
BLOCK
  5
3DD
330
3D3
100
AcDbEntity
  8
0
100
AcDbBlockBegin
  2
*D4
 70
     1
 10
0.0
 20
0.0
 30
0.0
  3
*D4
  1

  0
LINE
  5
CDF
330
3D3
100
AcDbEntity
  8
AM_5
100
AcDbLine
 10
138.5528399557053
 20
481.5217096834795
 30
0.0
 11
150.1003949070027
 21
481.5217096834795
 31
0.0
  0
LINE
  5
CE0
330
3D3
100
AcDbEntity
  8
AM_5
100
AcDbLine
 10
112.8670311244132
 20
438.5217096834796
 30
0.0
 11
150.1003949070027
 21
438.5217096834795
 31
0.0
  0
LINE
  5
CE1
330
3D3
100
AcDbEntity
  8
AM_5
100
AcDbLine
 10
149.1003949070027
 20
478.5217096834795
 30
0.0
 11
149.1003949070027
 21
441.5217096834795
 31
0.0
  0
SOLID
  5
CE2
330
3D3
100
AcDbEntity
  8
AM_5
100
AcDbTrace
 10
148.6003949070027
 20
478.5217096834795
 30
0.0
 11
149.6003949070027
 21
478.5217096834795
 31
0.0
 12
149.1003949070027
 22
481.5217096834795
 32
0.0
 13
149.1003949070027
 23
481.5217096834795
 33
0.0
  0
SOLID
  5
CE3
330
3D3
100
AcDbEntity
  8
AM_5
100
AcDbTrace
 10
148.6003949070027
 20
441.5217096834795
 30
0.0
 11
149.6003949070027
 21
441.5217096834795
 31
0.0
 12
149.1003949070027
 22
438.5217096834795
 32
0.0
 13
149.1003949070027
 23
438.5217096834795
 33
0.0
  0
MTEXT
  5
CE4
330
3D3
100
AcDbEntity
  8
AM_5
100
AcDbMText
 10
146.9003949070027
 20
460.0217096834795
 30
0.0
 40
3.0
 41
0.0
 71
     5
 72
     1
  1
43
 11
0.0000000000000001
 21
1.0
 31
0.0
 73
     1
 44
1.0
  0
POINT
  5
CE5
330
3D3
100
AcDbEntity
  8
Defpoints
 62
     0
100
AcDbPoint
 10
136.5528399557053
 20
481.5217096834795
 30
0.0
  0
POINT
  5
CE6
330
3D3
100
AcDbEntity
  8
Defpoints
 62
     0
100
AcDbPoint
 10
110.8670311244132
 20
438.5217096834796
 30
0.0
  0
POINT
  5
CE7
330
3D3
100
AcDbEntity
  8
Defpoints
 62
     0
100
AcDbPoint
 10
149.1003949070027
 20
438.5217096834795
 30
0.0
  0
ENDBLK
  5
3DE
330
3D3
100
AcDbEntity
  8
0
100
AcDbBlockEnd
  0
BLOCK
  5
420
330
416
100
AcDbEntity
  8
0
100
AcDbBlockBegin
  2
*D5
 70
     1
 10
0.0
 20
0.0
 30
0.0
  3
*D5
  1

  0
LINE
  5
CFA
330
416
100
AcDbEntity
  8
AM_5
100
AcDbLine
 10
179.3759725854037
 20
443.0217096834796
 30
0.0
 11
179.3759725854037
 21
425.8265924729383
 31
0.0
  0
LINE
  5
CFB
330
416
100
AcDbEntity
  8
AM_5
100
AcDbLine
 10
227.3759725854037
 20
443.0217096834796
 30
0.0
 11
227.3759725854037
 21
425.8265924729383
 31
0.0
  0
LINE
  5
CFC
330
416
100
AcDbEntity
  8
AM_5
100
AcDbLine
 10
182.3759725854037
 20
426.8265924729383
 30
0.0
 11
224.3759725854037
 21
426.8265924729383
 31
0.0
  0
SOLID
  5
CFD
330
416
100
AcDbEntity
  8
AM_5
100
AcDbTrace
 10
182.3759725854037
 20
427.3265924729383
 30
0.0
 11
182.3759725854037
 21
426.3265924729383
 31
0.0
 12
179.3759725854037
 22
426.8265924729383
 32
0.0
 13
179.3759725854037
 23
426.8265924729383
 33
0.0
  0
SOLID
  5
CFE
330
416
100
AcDbEntity
  8
AM_5
100
AcDbTrace
 10
224.3759725854037
 20
427.3265924729383
 30
0.0
 11
224.3759725854037
 21
426.3265924729383
 31
0.0
 12
227.3759725854037
 22
426.8265924729383
 32
0.0
 13
227.3759725854037
 23
426.8265924729383
 33
0.0
  0
MTEXT
  5
CFF
330
416
100
AcDbEntity
  8
AM_5
100
AcDbMText
 10
203.3759725854037
 20
429.0265924729383
 30
0.0
 40
3.0
 41
0.0
 71
     5
 72
     1
  1
%%c48
 73
     1
 44
1.0
  0
POINT
  5
D00
330
416
100
AcDbEntity
  8
Defpoints
 62
     0
100
AcDbPoint
 10
179.3759725854037
 20
445.0217096834795
 30
0.0
  0
POINT
  5
D01
330
416
100
AcDbEntity
  8
Defpoints
 62
     0
100
AcDbPoint
 10
227.3759725854037
 20
445.0217096834795
 30
0.0
  0
POINT
  5
D02
330
416
100
AcDbEntity
  8
Defpoints
 62
     0
100
AcDbPoint
 10
227.3759725854037
 20
426.8265924729383
 30
0.0
  0
ENDBLK
  5
421
330
416
100
AcDbEntity
  8
0
100
AcDbBlockEnd
  0
BLOCK
  5
D78
330
D73
100
AcDbEntity
  8
0
100
AcDbBlockBegin
  2
*S6
 70
     1
 10
0.0
 20
0.0
 30
0.0
  3
*S6
  1

  0
LINE
  5
D74
330
D73
100
AcDbEntity
  8
AM_5
100
AcDbLine
 10
247.0603544655096
 20
459.9603969633497
 30
0.0
 11
231.0920230502593
 21
459.9603969633497
 31
0.0
  0
LINE
  5
D75
330
D73
100
AcDbEntity
  8
AM_5
100
AcDbLine
 10
231.0920230502593
 20
459.9603969633497
 30
0.0
 11
214.2051142827842
 21
472.3968543895534
 31
0.0
  0
TRACE
  5
D76
330
D73
100
AcDbEntity
  8
AM_5
100
AcDbTrace
 10
214.4783577877996
 20
472.7678795120915
 30
0.0
 11
213.9318707777689
 21
472.0258292670151
 31
0.0
 12
211.3868986697657
 22
474.4723448758093
 32
0.0
 13
211.3868986697657
 23
474.4723448758093
 33
0.0
  0
MTEXT
  5
D77
330
D73
100
AcDbEntity
  8
AM_5
 62
     2
100
AcDbMText
 10
247.0603544655096
 20
457.7542755959141
 30
0.0
 40
3.5
 41
0.0
 71
     7
 72
     5
  1

  7
ACISOTS
 73
     1
 44
1.0
  0
ENDBLK
  5
D79
330
D73
100
AcDbEntity
  8
0
100
AcDbBlockEnd
  0
BLOCK
  5
E36
330
E35
100
AcDbEntity
  8
0
100
AcDbBlockBegin
  2
*U7
 70
     1
 10
0.0
 20
0.0
 30
0.0
  3
*U7
  1

  0
ENDBLK
  5
E37
330
E35
100
AcDbEntity
  8
0
100
AcDbBlockEnd
  0
ENDSEC
  0
SECTION
  2
ENTITIES
  0
POINT
  5
25
330
2
100
AcDbEntity
  8
0
 60
     1
100
AcDbPoint
 10
0.0
 20
0.0
 30
0.0
  0
LINE
  5
26
330
2
100
AcDbEntity
  8
AM_7
100
AcDbLine
 10
99.86703112441331
 20
588.537709530154
 30
0.0
 11
99.86703112441331
 21
588.537709530154
 31
0.0
  0
LINE
  5
29
330
2
100
AcDbEntity
  8
AM_7
100
AcDbLine
 10
99.86703112441331
 20
588.537709530154
 30
0.0
 11
99.86703112441331
 21
588.537709530154
 31
0.0
  0
LINE
  5
2A
330
2
100
AcDbEntity
  8
AM_7
100
AcDbLine
 10
58.46690946093713
 20
588.537709530154
 30
0.0
 11
99.86703112441331
 21
588.537709530154
 31
0.0
  0
LINE
  5
2B
330
2
100
AcDbEntity
  8
AM_7
100
AcDbLine
 10
99.86703112441331
 20
588.537709530154
 30
0.0
 11
140.1011906681294
 21
588.537709530154
 31
0.0
  0
LINE
  5
2C
330
2
100
AcDbEntity
  8
AM_7
100
AcDbLine
 10
99.86703112441331
 20
561.5377095301539
 30
0.0
 11
99.86703112441331
 21
588.537709530154
 31
0.0
  0
LINE
  5
2D
330
2
100
AcDbEntity
  8
AM_7
100
AcDbLine
 10
99.86703112441331
 20
588.537709530154
 30
0.0
 11
99.86703112441331
 21
615.5377095301539
 31
0.0
  0
LINE
  5
2E
102
{ACAD_REACTORS
330
3AB
102
}
330
2
100
AcDbEntity
  8
AM_7
100
AcDbLine
 10
99.86703112441331
 20
434.5479751085849
 30
0.0
 11
99.86703112441331
 21
544.9447975093521
 31
0.0
  0
LINE
  5
2F
330
2
100
AcDbEntity
  8
AM_7
 60
     1
100
AcDbLine
 10
186.0289478199105
 20
67.87655660720407
 30
0.0
 11
186.0289478199105
 21
100.376556607204
 31
0.0
  0
DIMENSION
  5
41
330
2
100
AcDbEntity
  8
AM_5
100
AcDbDimension
  2
*D4
 10
149.1003949070027
 20
438.5217096834795
 30
0.0
 11
146.9003949070027
 21
460.0217096834795
 31
0.0
 70
    32
 71
     5
 42
-1.0
  3
AM_ISO
100
AcDbAlignedDimension
 13
136.5528399557053
 23
481.5217096834795
 33
0.0
 14
110.8670311244132
 24
438.5217096834796
 34
0.0
 50
90.0
100
AcDbRotatedDimension
1001
ACAD_DIMASSOC_CALC_DIMLFAC
1040
-1.0
1001
ACAD_DIMASSOC_DIMLFAC
1040
-1.0
  0
CIRCLE
  5
4E
330
2
100
AcDbEntity
  8
0
100
AcDbCircle
 10
203.3759725854037
 20
481.5217096834795
 30
0.0
 40
9.3
  0
ARC
  5
4F
330
2
100
AcDbEntity
  8
0
 62
     3
100
AcDbCircle
 10
203.3759725854037
 20
481.5217096834795
 30
0.0
 40
10.5
100
AcDbArc
 50
280.0
 51
190.0
  0
LINE
  5
50
330
2
100
AcDbEntity
  8
AM_7
100
AcDbLine
 10
203.3759725854037
 20
435.5309972757312
 30
0.0
 11
203.3759725854037
 21
544.8286735526489
 31
0.0
  0
SPLINE
  5
51
330
2
100
AcDbEntity
  8
AM_VIS
100
AcDbSpline
210
0.0
220
0.0
230
1.0
 70
    12
 71
     2
 72
     6
 73
     3
 74
     0
 42
0.0000000001
 43
0.0000000001
 40
0.0
 40
0.0
 40
0.0
 40
36.00625424138464
 40
36.00625424138464
 40
36.00625424138464
 10
84.55990237680415
 20
571.1660918675697
 30
0.0
 41
1.0
 10
84.44213212930568
 20
570.8542995716153
 30
0.0
 41
1.0
 10
84.32436188189294
 20
570.5377095301539
 30
0.0
 41
1.0
  0
SPLINE
  5
53
330
2
100
AcDbEntity
  8
AM_VIS
100
AcDbSpline
210
0.0
220
0.0
230
1.0
 70
    12
 71
     2
 72
     6
 73
     3
 74
     0
 42
0.0000000001
 43
0.0000000001
 40
0.0
 40
0.0
 40
0.0
 40
36.00625424138464
 40
36.00625424138464
 40
36.00625424138464
 10
84.32436188189294
 20
606.5377095301539
 30
0.0
 41
1.0
 10
84.44213212930469
 20
606.2211194886953
 30
0.0
 41
1.0
 10
84.55990237680415
 20
605.9093271927381
 30
0.0
 41
1.0
  0
SPLINE
  5
54
330
2
100
AcDbEntity
  8
AM_VIS
100
AcDbSpline
210
0.0
220
0.0
230
1.0
 70
    12
 71
     2
 72
     6
 73
     3
 74
     0
 42
0.0000000001
 43
0.0000000001
 40
0.0
 40
0.0
 40
0.0
 40
36.00625424138463
 40
36.00625424138463
 40
36.00625424138463
 10
115.4097003669337
 20
570.5377095301539
 30
0.0
 41
1.0
 10
115.2919301195212
 20
570.8542995716146
 30
0.0
 41
1.0
 10
115.1741598720225
 20
571.1660918675697
 30
0.0
 41
1.0
  0
SPLINE
  5
55
330
2
100
AcDbEntity
  8
AM_VIS
100
AcDbSpline
210
0.0
220
0.0
230
1.0
 70
    12
 71
     2
 72
     6
 73
     3
 74
     0
 42
0.0000000001
 43
0.0000000001
 40
0.0
 40
0.0
 40
0.0
 40
36.00625424138464
 40
36.00625424138464
 40
36.00625424138464
 10
115.1741598720225
 20
605.9093271927381
 30
0.0
 41
1.0
 10
115.2919301195219
 20
606.2211194886953
 30
0.0
 41
1.0
 10
115.4097003669337
 20
606.5377095301539
 30
0.0
 41
1.0
  0
LINE
  5
56
330
2
100
AcDbEntity
  8
AM_VIS
100
AcDbLine
 10
84.32436188189297
 20
606.5377095301539
 30
0.0
 11
62.3670311244133
 21
606.5377095301539
 31
0.0
  0
LINE
  5
57
330
2
100
AcDbEntity
  8
AM_VIS
100
AcDbLine
 10
62.3670311244133
 20
606.5377095301539
 30
0.0
 11
62.99541346182923
 21
605.9093271927381
 31
0.0
  0
LINE
  5
58
330
2
100
AcDbEntity
  8
AM_VIS
100
AcDbLine
 10
62.99541346182923
 20
605.9093271927381
 30
0.0
 11
84.55990237680419
 21
605.9093271927381
 31
0.0
  0
LINE
  5
59
330
2
100
AcDbEntity
  8
AM_VIS
100
AcDbLine
 10
62.3670311244133
 20
570.5377095301539
 30
0.0
 11
84.32436188189297
 21
570.5377095301539
 31
0.0
  0
LINE
  5
5A
330
2
100
AcDbEntity
  8
AM_VIS
100
AcDbLine
 10
62.3670311244133
 20
606.5377095301539
 30
0.0
 11
62.3670311244133
 21
570.5377095301539
 31
0.0
  0
LINE
  5
5B
330
2
100
AcDbEntity
  8
AM_VIS
100
AcDbLine
 10
62.99541346182923
 20
571.1660918675697
 30
0.0
 11
62.99541346182923
 21
605.9093271927381
 31
0.0
  0
LINE
  5
5C
330
2
100
AcDbEntity
  8
AM_VIS
100
AcDbLine
 10
84.55990237680419
 20
571.1660918675697
 30
0.0
 11
62.99541346182912
 21
571.1660918675697
 31
0.0
  0
LINE
  5
5D
330
2
100
AcDbEntity
  8
AM_VIS
100
AcDbLine
 10
136.7386487869975
 20
571.1660918675697
 30
0.0
 11
115.1741598720225
 21
571.1660918675697
 31
0.0
  0
LINE
  5
5E
330
2
100
AcDbEntity
  8
AM_VIS
100
AcDbLine
 10
136.7386487869975
 20
605.9093271927381
 30
0.0
 11
136.7386487869975
 21
571.1660918675697
 31
0.0
  0
LINE
  5
5F
330
2
100
AcDbEntity
  8
AM_VIS
100
AcDbLine
 10
115.1741598720225
 20
605.9093271927381
 30
0.0
 11
136.7386487869975
 21
605.9093271927381
 31
0.0
  0
LINE
  5
60
330
2
100
AcDbEntity
  8
AM_VIS
100
AcDbLine
 10
62.3670311244133
 20
570.5377095301539
 30
0.0
 11
62.99541346182923
 21
571.1660918675697
 31
0.0
  0
LINE
  5
61
330
2
100
AcDbEntity
  8
AM_VIS
100
AcDbLine
 10
115.4097003669337
 20
570.5377095301539
 30
0.0
 11
137.3670311244133
 21
570.5377095301539
 31
0.0
  0
LINE
  5
62
330
2
100
AcDbEntity
  8
AM_VIS
100
AcDbLine
 10
137.3670311244133
 20
570.5377095301539
 30
0.0
 11
136.7386487869975
 21
571.1660918675697
 31
0.0
  0
LINE
  5
63
330
2
100
AcDbEntity
  8
AM_VIS
100
AcDbLine
 10
137.3670311244133
 20
606.5377095301539
 30
0.0
 11
136.7386487869975
 21
605.9093271927381
 31
0.0
  0
LINE
  5
64
330
2
100
AcDbEntity
  8
AM_VIS
100
AcDbLine
 10
137.3670311244133
 20
606.5377095301539
 30
0.0
 11
115.4097003669337
 21
606.5377095301539
 31
0.0
  0
LINE
  5
65
330
2
100
AcDbEntity
  8
AM_VIS
100
AcDbLine
 10
137.3670311244133
 20
570.5377095301539
 30
0.0
 11
137.3670311244133
 21
606.5377095301539
 31
0.0
  0
CIRCLE
  5
66
330
2
100
AcDbEntity
  8
AM_VIS
100
AcDbCircle
 10
99.86703112441331
 20
588.537709530154
 30
0.0
 40
21.63574579398737
  0
CIRCLE
  5
67
330
2
100
AcDbEntity
  8
AM_VIS
100
AcDbCircle
 10
99.86703112441331
 20
588.537709530154
 30
0.0
 40
23.13551733672195
  0
ARC
  5
68
330
2
100
AcDbEntity
  8
AM_VIS
100
AcDbCircle
 10
99.86703112441331
 20
588.537709530154
 30
0.0
 40
24.0
100
AcDbArc
 50
90.0
 51
131.4096221092708
  0
ARC
  5
69
330
2
100
AcDbEntity
  8
AM_VIS
100
AcDbCircle
 10
99.86703112441331
 20
588.537709530154
 30
0.0
 40
24.0
100
AcDbArc
 50
228.5903778907291
 51
311.4096221092709
  0
ARC
  5
6A
330
2
100
AcDbEntity
  8
AM_VIS
100
AcDbCircle
 10
99.86703112441331
 20
588.537709530154
 30
0.0
 40
24.0
100
AcDbArc
 50
48.59037789072915
 51
90.0
  0
ARC
  5
6B
330
2
100
AcDbEntity
  8
AM_VIS
100
AcDbCircle
 10
99.86703112441331
 20
588.537709530154
 30
0.0
 40
23.15342935098144
100
AcDbArc
 50
131.3851271735085
 51
228.6148728264915
  0
ARC
  5
6C
330
2
100
AcDbEntity
  8
AM_VIS
100
AcDbCircle
 10
99.86703112441331
 20
588.537709530154
 30
0.0
 40
23.15342935098144
100
AcDbArc
 50
311.3851271735085
 51
48.61487282649147
  0
CIRCLE
  5
6D
330
2
100
AcDbEntity
  8
AM_VIS
100
AcDbCircle
 10
99.86703112441331
 20
588.537709530154
 30
0.0
 40
16.5
  0
LINE
  5
6E
330
2
100
AcDbEntity
  8
AM_VIS
100
AcDbLine
 10
92.86703112312649
 20
600.6620651823931
 30
0.0
 11
93.11703112312647
 21
600.2290524805009
 31
0.0
  0
LINE
  5
6F
330
2
100
AcDbEntity
  8
AM_VIS
100
AcDbLine
 10
88.17568817274571
 20
595.2877095291533
 30
0.0
 11
87.74267547085356
 21
595.5377095291534
 31
0.0
  0
LINE
  5
70
330
2
100
AcDbEntity
  8
AM_VIS
100
AcDbLine
 10
103.4904977544133
 20
602.0606710985855
 30
0.0
 11
103.3610882318621
 21
601.577708185441
 31
0.0
  0
LINE
  5
71
330
2
100
AcDbEntity
  8
AM_VIS
100
AcDbLine
 10
96.37297401441333
 20
601.5777081847573
 30
0.0
 11
96.24356449186212
 21
602.0606710979018
 31
0.0
  0
LINE
  5
72
330
2
100
AcDbEntity
  8
AM_VIS
100
AcDbLine
 10
111.9913867766524
 20
595.5377095314408
 30
0.0
 11
111.5583740747603
 21
595.2877095314407
 31
0.0
  0
LINE
  5
73
330
2
100
AcDbEntity
  8
AM_VIS
100
AcDbLine
 10
106.6170311234127
 20
600.2290524818215
 30
0.0
 11
106.8670311234127
 21
600.6620651837138
 31
0.0
  0
LINE
  5
74
330
2
100
AcDbEntity
  8
AM_VIS
100
AcDbLine
 10
113.3899926928449
 20
584.914242900154
 30
0.0
 11
112.9070297797003
 21
585.0436524227052
 31
0.0
  0
LINE
  5
75
330
2
100
AcDbEntity
  8
AM_VIS
100
AcDbLine
 10
112.9070297790167
 20
592.0317666401539
 30
0.0
 11
113.3899926921613
 21
592.1611761627052
 31
0.0
  0
LINE
  5
76
330
2
100
AcDbEntity
  8
AM_VIS
100
AcDbLine
 10
106.8670311257001
 20
576.4133538779147
 30
0.0
 11
106.6170311257001
 21
576.8463665798069
 31
0.0
  0
LINE
  5
77
330
2
100
AcDbEntity
  8
AM_VIS
100
AcDbLine
 10
111.5583740760809
 20
581.7877095311545
 30
0.0
 11
111.9913867779731
 21
581.5377095311545
 31
0.0
  0
LINE
  5
78
330
2
100
AcDbEntity
  8
AM_VIS
100
AcDbLine
 10
96.24356449441336
 20
575.0147479617224
 30
0.0
 11
96.37297401696457
 21
575.4977108748668
 31
0.0
  0
LINE
  5
79
330
2
100
AcDbEntity
  8
AM_VIS
100
AcDbLine
 10
103.3610882344133
 20
575.4977108755505
 30
0.0
 11
103.4904977569646
 21
575.014747962406
 31
0.0
  0
LINE
  5
7A
330
2
100
AcDbEntity
  8
AM_VIS
100
AcDbLine
 10
87.74267547217414
 20
581.5377095288671
 30
0.0
 11
88.17568817406641
 21
581.7877095288671
 31
0.0
  0
LINE
  5
7B
330
2
100
AcDbEntity
  8
AM_VIS
100
AcDbLine
 10
93.11703112541385
 20
576.8463665784863
 30
0.0
 11
92.86703112541387
 21
576.4133538765941
 31
0.0
  0
LINE
  5
7C
330
2
100
AcDbEntity
  8
AM_VIS
100
AcDbLine
 10
86.34406955598183
 20
592.1611761601538
 30
0.0
 11
86.82703246912637
 21
592.0317666376027
 31
0.0
  0
LINE
  5
7D
330
2
100
AcDbEntity
  8
AM_VIS
100
AcDbLine
 10
86.82703246980986
 20
585.043652420154
 30
0.0
 11
86.34406955666543
 21
584.9142428976026
 31
0.0
  0
ARC
  5
7E
330
2
100
AcDbEntity
  8
AM_VIS
100
AcDbCircle
 10
99.86703112441331
 20
588.537709530154
 30
0.0
 40
13.5
100
AcDbArc
 50
120.0000000063063
 51
150.0000000049034
  0
ARC
  5
7F
330
2
100
AcDbEntity
  8
AM_VIS
100
AcDbCircle
 10
99.86703112441331
 20
588.537709530154
 30
0.0
 40
14.0
100
AcDbArc
 50
120.0000000060812
 51
150.0000000047283
  0
ARC
  5
80
330
2
100
AcDbEntity
  8
AM_VIS
100
AcDbCircle
 10
99.86703112441331
 20
588.537709530154
 30
0.0
 40
13.5
100
AcDbArc
 50
75.00000000630639
 51
105.0000000049034
  0
ARC
  5
81
330
2
100
AcDbEntity
  8
AM_VIS
100
AcDbCircle
 10
99.86703112441331
 20
588.537709530154
 30
0.0
 40
14.0
100
AcDbArc
 50
75.00000000608124
 51
105.0000000047283
  0
ARC
  5
82
330
2
100
AcDbEntity
  8
AM_VIS
100
AcDbCircle
 10
99.86703112441331
 20
588.537709530154
 30
0.0
 40
13.5
100
AcDbArc
 50
30.00000000630642
 51
60.00000000490343
  0
ARC
  5
83
330
2
100
AcDbEntity
  8
AM_VIS
100
AcDbCircle
 10
99.86703112441331
 20
588.537709530154
 30
0.0
 40
14.0
100
AcDbArc
 50
30.00000000608119
 51
60.00000000472832
  0
ARC
  5
84
330
2
100
AcDbEntity
  8
AM_VIS
100
AcDbCircle
 10
99.86703112441331
 20
588.537709530154
 30
0.0
 40
13.5
100
AcDbArc
 50
345.0000000063064
 51
15.00000000490338
  0
ARC
  5
85
330
2
100
AcDbEntity
  8
AM_VIS
100
AcDbCircle
 10
99.86703112441331
 20
588.537709530154
 30
0.0
 40
14.0
100
AcDbArc
 50
345.0000000060812
 51
15.00000000472832
  0
ARC
  5
86
330
2
100
AcDbEntity
  8
AM_VIS
100
AcDbCircle
 10
99.86703112441331
 20
588.537709530154
 30
0.0
 40
13.5
100
AcDbArc
 50
300.0000000063064
 51
330.0000000049034
  0
ARC
  5
87
330
2
100
AcDbEntity
  8
AM_VIS
100
AcDbCircle
 10
99.86703112441331
 20
588.537709530154
 30
0.0
 40
14.0
100
AcDbArc
 50
300.0000000060812
 51
330.0000000047284
  0
ARC
  5
88
330
2
100
AcDbEntity
  8
AM_VIS
100
AcDbCircle
 10
99.86703112441331
 20
588.537709530154
 30
0.0
 40
13.5
100
AcDbArc
 50
255.0000000063064
 51
285.0000000049034
  0
ARC
  5
89
330
2
100
AcDbEntity
  8
AM_VIS
100
AcDbCircle
 10
99.86703112441331
 20
588.537709530154
 30
0.0
 40
14.0
100
AcDbArc
 50
255.0000000060812
 51
285.0000000047284
  0
ARC
  5
8A
330
2
100
AcDbEntity
  8
AM_VIS
100
AcDbCircle
 10
99.86703112441331
 20
588.537709530154
 30
0.0
 40
13.5
100
AcDbArc
 50
210.0000000063064
 51
240.0000000049034
  0
ARC
  5
8B
330
2
100
AcDbEntity
  8
AM_VIS
100
AcDbCircle
 10
99.86703112441331
 20
588.537709530154
 30
0.0
 40
14.0
100
AcDbArc
 50
210.0000000060812
 51
240.0000000047283
  0
CIRCLE
  5
8C
330
2
100
AcDbEntity
  8
AM_VIS
100
AcDbCircle
 10
99.86703112441331
 20
588.537709530154
 30
0.0
 40
13.0
  0
ARC
  5
8D
330
2
100
AcDbEntity
  8
AM_VIS
100
AcDbCircle
 10
99.86703112441331
 20
588.537709530154
 30
0.0
 40
14.0
100
AcDbArc
 50
150.0000000047283
 51
165.0000000060812
  0
ARC
  5
8E
330
2
100
AcDbEntity
  8
AM_VIS
100
AcDbCircle
 10
99.86703112441331
 20
588.537709530154
 30
0.0
 40
13.5
100
AcDbArc
 50
165.0000000063064
 51
195.0000000049034
  0
ARC
  5
8F
330
2
100
AcDbEntity
  8
AM_VIS
100
AcDbCircle
 10
99.86703112441331
 20
588.537709530154
 30
0.0
 40
14.0
100
AcDbArc
 50
195.0000000047283
 51
210.0000000060812
  0
ARC
  5
90
330
2
100
AcDbEntity
  8
AM_VIS
100
AcDbCircle
 10
99.86703112441331
 20
588.537709530154
 30
0.0
 40
14.0
100
AcDbArc
 50
240.0000000047283
 51
255.0000000060812
  0
ARC
  5
91
330
2
100
AcDbEntity
  8
AM_VIS
100
AcDbCircle
 10
99.86703112441331
 20
588.537709530154
 30
0.0
 40
14.0
100
AcDbArc
 50
285.0000000047284
 51
300.0000000060812
  0
ARC
  5
92
330
2
100
AcDbEntity
  8
AM_VIS
100
AcDbCircle
 10
99.86703112441331
 20
588.537709530154
 30
0.0
 40
14.0
100
AcDbArc
 50
330.0000000047284
 51
345.0000000060812
  0
ARC
  5
93
330
2
100
AcDbEntity
  8
AM_VIS
100
AcDbCircle
 10
99.86703112441331
 20
588.537709530154
 30
0.0
 40
14.0
100
AcDbArc
 50
15.00000000472832
 51
30.00000000608121
  0
ARC
  5
94
330
2
100
AcDbEntity
  8
AM_VIS
100
AcDbCircle
 10
99.86703112441331
 20
588.537709530154
 30
0.0
 40
14.0
100
AcDbArc
 50
60.0000000047283
 51
75.00000000608121
  0
ARC
  5
95
330
2
100
AcDbEntity
  8
AM_VIS
100
AcDbCircle
 10
99.86703112441331
 20
588.537709530154
 30
0.0
 40
14.0
100
AcDbArc
 50
105.0000000047283
 51
120.0000000060812
  0
ARC
  5
96
330
2
100
AcDbEntity
  8
AM_VIS
100
AcDbCircle
 10
99.86703112441331
 20
588.537709530154
 30
0.0
 40
14.0
100
AcDbArc
 50
165.0000000060812
 51
195.0000000047283
  0
LINE
  5
97
330
2
100
AcDbEntity
  8
AM_VIS
100
AcDbLine
 10
102.7545311244133
 20
583.5364128232988
 30
0.0
 11
105.6420311244133
 21
588.537709530154
 31
0.0
  0
LINE
  5
98
330
2
100
AcDbEntity
  8
AM_VIS
100
AcDbLine
 10
102.7545311244133
 20
593.539006237009
 30
0.0
 11
105.6420311244133
 21
588.537709530154
 31
0.0
  0
LINE
  5
99
330
2
100
AcDbEntity
  8
AM_VIS
100
AcDbLine
 10
96.97953112441325
 20
593.539006237009
 30
0.0
 11
102.7545311244134
 21
593.539006237009
 31
0.0
  0
LINE
  5
9A
330
2
100
AcDbEntity
  8
AM_VIS
100
AcDbLine
 10
94.09203112441332
 20
588.537709530154
 30
0.0
 11
96.97953112441325
 21
593.539006237009
 31
0.0
  0
LINE
  5
9B
330
2
100
AcDbEntity
  8
AM_VIS
100
AcDbLine
 10
94.09203112441332
 20
588.537709530154
 30
0.0
 11
96.97953112441325
 21
583.5364128232988
 31
0.0
  0
LINE
  5
9C
330
2
100
AcDbEntity
  8
AM_VIS
100
AcDbLine
 10
96.97953112441325
 20
583.5364128232988
 30
0.0
 11
102.7545311244134
 21
583.5364128232988
 31
0.0
  0
CIRCLE
  5
9D
330
2
100
AcDbEntity
  8
AM_VIS
100
AcDbCircle
 10
99.86703112441331
 20
588.537709530154
 30
0.0
 40
3.000000000000024
  0
CIRCLE
  5
9E
330
2
100
AcDbEntity
  8
AM_VIS
100
AcDbCircle
 10
99.86703112441331
 20
588.537709530154
 30
0.0
 40
2.45873412263478
  0
CIRCLE
  5
9F
330
2
100
AcDbEntity
  8
AM_VIS
100
AcDbCircle
 10
99.86703112441331
 20
588.537709530154
 30
0.0
 40
4.450000000000017
  0
SPLINE
  5
A0
330
2
100
AcDbEntity
  8
AM_VIS
100
AcDbSpline
210
0.0
220
0.0
230
1.0
 70
    12
 71
     2
 72
     6
 73
     3
 74
     0
 42
0.0000000001
 43
0.0000000001
 40
0.0
 40
0.0
 40
0.0
 40
36.00625424138464
 40
36.00625424138464
 40
36.00625424138464
 10
84.55990237680415
 20
499.5217096834795
 30
0.0
 41
1.0
 10
84.44213212930568
 20
481.6591410114807
 30
0.0
 41
1.0
 10
84.32436188189294
 20
463.5217096834796
 30
0.0
 41
1.0
  0
SPLINE
  5
A1
330
2
100
AcDbEntity
  8
AM_VIS
100
AcDbSpline
210
0.0
220
0.0
230
1.0
 70
    12
 71
     2
 72
     6
 73
     3
 74
     0
 42
0.0000000001
 43
0.0000000001
 40
0.0
 40
0.0
 40
0.0
 40
36.00625424138463
 40
36.00625424138463
 40
36.00625424138463
 10
115.4097003669337
 20
463.5217096834796
 30
0.0
 41
1.0
 10
115.2919301195212
 20
481.6591410114424
 30
0.0
 41
1.0
 10
115.1741598720225
 20
499.5217096834795
 30
0.0
 41
1.0
  0
LINE
  5
A2
102
{ACAD_REACTORS
330
316
102
}
330
2
100
AcDbEntity
  8
AM_VIS
100
AcDbLine
 10
62.8670311244133
 20
463.5217096834796
 30
0.0
 11
84.32436188189297
 21
463.5217096834796
 31
0.0
  0
LINE
  5
A3
330
2
100
AcDbEntity
  8
AM_VIS
100
AcDbLine
 10
84.55990237680419
 20
499.5217096834795
 30
0.0
 11
63.49541346182911
 21
499.5217096834795
 31
0.0
  0
LINE
  5
A4
330
2
100
AcDbEntity
  8
AM_VIS
100
AcDbLine
 10
136.2386487869975
 20
499.5217096834795
 30
0.0
 11
115.1741598720225
 21
499.5217096834795
 31
0.0
  0
LINE
  5
A5
330
2
100
AcDbEntity
  8
AM_VIS
100
AcDbLine
 10
62.8670311244133
 20
463.5217096834796
 30
0.0
 11
63.49541346182923
 21
499.5217096834795
 31
0.0
  0
LINE
  5
A6
330
2
100
AcDbEntity
  8
AM_VIS
100
AcDbLine
 10
115.4097003669337
 20
463.5217096834796
 30
0.0
 11
136.8670311244133
 21
463.5217096834796
 31
0.0
  0
LINE
  5
A7
102
{ACAD_REACTORS
330
316
102
}
330
2
100
AcDbEntity
  8
AM_VIS
100
AcDbLine
 10
136.8670311244133
 20
463.5217096834796
 30
0.0
 11
136.2386487869975
 21
499.5217096834795
 31
0.0
  0
LINE
  5
A8
330
2
100
AcDbEntity
  8
AM_VIS
100
AcDbLine
 10
123.0025484611353
 20
500.5478882931354
 30
0.0
 11
123.0204604753947
 21
499.5217096834795
 31
0.0
  0
LINE
  5
A9
330
2
100
AcDbEntity
  8
AM_VIS
100
AcDbLine
 10
123.6488428128106
 20
463.5217096834796
 30
0.0
 11
123.8584533181151
 21
451.5131318771813
 31
0.0
  0
LINE
  5
AA
330
2
100
AcDbEntity
  8
AM_VIS
100
AcDbLine
 10
76.73151378769137
 20
500.5478882931354
 30
0.0
 11
76.71360177343195
 21
499.5217096834795
 31
0.0
  0
LINE
  5
AB
330
2
100
AcDbEntity
  8
AM_VIS
100
AcDbLine
 10
76.08521943601601
 20
463.5217096834796
 30
0.0
 11
75.87560893071156
 21
451.5131318771813
 31
0.0
  0
LINE
  5
AC
330
2
100
AcDbEntity
  8
AM_VIS
100
AcDbLine
 10
88.86703112441329
 20
510.5217096834795
 30
0.0
 11
88.86703112441329
 21
514.0767096834795
 31
0.0
  0
LINE
  5
AD
330
2
100
AcDbEntity
  8
AM_VIS
100
AcDbLine
 10
110.8670311244133
 20
510.5217096834795
 30
0.0
 11
110.8670311244133
 21
514.0767096834795
 31
0.0
  0
LINE
  5
AE
330
2
100
AcDbEntity
  8
AM_VIS
100
AcDbLine
 10
112.4034160300958
 20
510.5217096834795
 30
0.0
 11
116.3670311244133
 21
502.0217096834795
 31
0.0
  0
LINE
  5
AF
330
2
100
AcDbEntity
  8
AM_VIS
100
AcDbLine
 10
87.33064621873086
 20
510.5217096834795
 30
0.0
 11
83.3670311244133
 21
502.0217096834795
 31
0.0
  0
LINE
  5
B0
330
2
100
AcDbEntity
  8
AM_VIS
100
AcDbLine
 10
78.23128533042598
 20
502.0217096834795
 30
0.0
 11
121.5027769184007
 21
502.0217096834795
 31
0.0
  0
LINE
  5
B1
330
2
100
AcDbEntity
  8
AM_VIS
100
AcDbLine
 10
123.0025484611353
 20
500.5478882931354
 30
0.0
 11
76.73151378769137
 21
500.5478882931354
 31
0.0
  0
LINE
  5
B2
330
2
100
AcDbEntity
  8
AM_VIS
100
AcDbLine
 10
123.3670311244133
 20
451.0217096834796
 30
0.0
 11
76.3670311244133
 21
451.0217096834796
 31
0.0
  0
LINE
  5
B3
330
2
100
AcDbEntity
  8
AM_VIS
100
AcDbLine
 10
87.33064621873086
 20
510.5217096834795
 30
0.0
 11
112.4034160300958
 21
510.5217096834795
 31
0.0
  0
ARC
  5
B4
330
2
100
AcDbEntity
  8
AM_VIS
100
AcDbCircle
 10
78.23128533042598
 20
500.5217096834796
 30
0.0
 40
1.499999999999999
100
AcDbArc
 50
90.0
 51
179.0000000000001
  0
ARC
  5
B5
330
2
100
AcDbEntity
  8
AM_VIS
100
AcDbCircle
 10
121.5027769184007
 20
500.5217096834796
 30
0.0
 40
1.5
100
AcDbArc
 50
0.9999999999998614
 51
90.0
  0
LINE
  5
B6
330
2
100
AcDbEntity
  8
AM_VIS
100
AcDbLine
 10
88.86703112441329
 20
438.5217096834796
 30
0.0
 11
87.8670311244133
 21
439.5217096834795
 31
0.0
  0
LINE
  5
B7
330
2
100
AcDbEntity
  8
AM_VIS
100
AcDbLine
 10
88.86703112441329
 20
438.5217096834796
 30
0.0
 11
99.86703112441331
 21
438.5217096834796
 31
0.0
  0
LINE
  5
B8
330
2
100
AcDbEntity
  8
AM_VIS
100
AcDbLine
 10
99.86703112441331
 20
438.5217096834796
 30
0.0
 11
99.86703112441331
 21
439.5217096834795
 31
0.0
  0
LINE
  5
B9
330
2
100
AcDbEntity
  8
AM_VIS
100
AcDbLine
 10
99.86703112441331
 20
439.5217096834795
 30
0.0
 11
87.8670311244133
 21
439.5217096834795
 31
0.0
  0
LINE
  5
BA
102
{ACAD_REACTORS
330
3AB
102
}
330
2
100
AcDbEntity
  8
AM_VIS
100
AcDbLine
 10
99.86703112441331
 20
438.5217096834796
 30
0.0
 11
110.8670311244133
 21
438.5217096834796
 31
0.0
  0
LINE
  5
BB
330
2
100
AcDbEntity
  8
AM_VIS
100
AcDbLine
 10
110.8670311244133
 20
438.5217096834796
 30
0.0
 11
111.8670311244133
 21
439.5217096834795
 31
0.0
  0
LINE
  5
BC
330
2
100
AcDbEntity
  8
AM_VIS
100
AcDbLine
 10
111.8670311244133
 20
439.5217096834795
 30
0.0
 11
99.86703112441331
 21
439.5217096834795
 31
0.0
  0
LINE
  5
BD
330
2
100
AcDbEntity
  8
AM_VIS
100
AcDbLine
 10
87.8670311244133
 20
444.5217096834795
 30
0.0
 11
87.8670311244133
 21
439.5217096834795
 31
0.0
  0
LINE
  5
BE
330
2
100
AcDbEntity
  8
AM_VIS
100
AcDbLine
 10
99.86703112441331
 20
444.5217096834795
 30
0.0
 11
99.86703112441331
 21
439.5217096834795
 31
0.0
  0
LINE
  5
BF
330
2
100
AcDbEntity
  8
AM_VIS
100
AcDbLine
 10
111.8670311244133
 20
444.5217096834795
 30
0.0
 11
111.8670311244133
 21
439.5217096834795
 31
0.0
  0
LINE
  5
C0
330
2
100
AcDbEntity
  8
AM_VIS
100
AcDbLine
 10
76.3670311244133
 20
444.5217096834795
 30
0.0
 11
75.8670311244133
 21
445.0217096834795
 31
0.0
  0
LINE
  5
C1
330
2
100
AcDbEntity
  8
AM_VIS
100
AcDbLine
 10
123.3670311244133
 20
444.5217096834795
 30
0.0
 11
123.8670311244133
 21
445.0217096834795
 31
0.0
  0
LINE
  5
C2
330
2
100
AcDbEntity
  8
AM_VIS
100
AcDbLine
 10
123.8670311244133
 20
450.5217096834796
 30
0.0
 11
123.8670311244133
 21
445.0217096834795
 31
0.0
  0
LINE
  5
C3
330
2
100
AcDbEntity
  8
AM_VIS
100
AcDbLine
 10
75.8670311244133
 20
450.5217096834796
 30
0.0
 11
75.8670311244133
 21
445.0217096834795
 31
0.0
  0
LINE
  5
C4
330
2
100
AcDbEntity
  8
AM_VIS
100
AcDbLine
 10
123.3670311244133
 20
451.0217096834796
 30
0.0
 11
123.8670311244133
 21
450.5217096834796
 31
0.0
  0
LINE
  5
C5
330
2
100
AcDbEntity
  8
AM_VIS
100
AcDbLine
 10
76.3670311244133
 20
451.0217096834796
 30
0.0
 11
75.8670311244133
 21
450.5217096834796
 31
0.0
  0
LINE
  5
C6
330
2
100
AcDbEntity
  8
AM_VIS
100
AcDbLine
 10
123.3670311244133
 20
444.5217096834795
 30
0.0
 11
76.3670311244133
 21
444.5217096834795
 31
0.0
  0
LINE
  5
C7
330
2
100
AcDbEntity
  8
AM_VIS
100
AcDbLine
 10
75.8670311244133
 20
445.0217096834795
 30
0.0
 11
123.8670311244133
 21
445.0217096834795
 31
0.0
  0
LINE
  5
C8
330
2
100
AcDbEntity
  8
AM_VIS
100
AcDbLine
 10
123.8670311244133
 20
450.5217096834796
 30
0.0
 11
75.8670311244133
 21
450.5217096834796
 31
0.0
  0
LINE
  5
C9
330
2
100
AcDbEntity
  8
AM_VIS
100
AcDbLine
 10
113.3899926928449
 20
535.0717096834796
 30
0.0
 11
112.9070297797003
 21
535.5717096834796
 31
0.0
  0
LINE
  5
CA
330
2
100
AcDbEntity
  8
AM_VIS
100
AcDbLine
 10
113.3899926928449
 20
521.0717096834796
 30
0.0
 11
113.3899926928449
 21
535.0717096834796
 31
0.0
  0
LINE
  5
CB
330
2
100
AcDbEntity
  8
AM_VIS
100
AcDbLine
 10
106.8670311257001
 20
535.0717096834796
 30
0.0
 11
106.6170311257001
 21
535.5717096834796
 31
0.0
  0
LINE
  5
CC
330
2
100
AcDbEntity
  8
AM_VIS
100
AcDbLine
 10
106.8670311257001
 20
521.0717096834796
 30
0.0
 11
106.8670311257001
 21
535.0717096834796
 31
0.0
  0
LINE
  5
CD
330
2
100
AcDbEntity
  8
AM_VIS
100
AcDbLine
 10
111.5583740760809
 20
521.0717096834796
 30
0.0
 11
111.5583740760809
 21
535.5717096834796
 31
0.0
  0
LINE
  5
CE
330
2
100
AcDbEntity
  8
AM_VIS
100
AcDbLine
 10
111.5583740760809
 20
535.5717096834796
 30
0.0
 11
111.9913867779731
 21
535.0717096834796
 31
0.0
  0
LINE
  5
CF
330
2
100
AcDbEntity
  8
AM_VIS
100
AcDbLine
 10
111.9913867779731
 20
535.0717096834796
 30
0.0
 11
111.9913867779731
 21
521.0717096834796
 31
0.0
  0
LINE
  5
D0
330
2
100
AcDbEntity
  8
AM_VIS
100
AcDbLine
 10
96.24356449441336
 20
535.0717096834796
 30
0.0
 11
96.37297401696457
 21
535.5717096834796
 31
0.0
  0
LINE
  5
D1
330
2
100
AcDbEntity
  8
AM_VIS
100
AcDbLine
 10
96.24356449441336
 20
521.0717096834796
 30
0.0
 11
96.24356449441336
 21
535.0717096834796
 31
0.0
  0
LINE
  5
D2
330
2
100
AcDbEntity
  8
AM_VIS
100
AcDbLine
 10
96.37297401696457
 20
521.0717096834796
 30
0.0
 11
96.37297401696457
 21
535.5717096834796
 31
0.0
  0
LINE
  5
D3
330
2
100
AcDbEntity
  8
AM_VIS
100
AcDbLine
 10
103.3610882344133
 20
521.0717096834796
 30
0.0
 11
103.3610882344133
 21
535.5717096834796
 31
0.0
  0
LINE
  5
D4
330
2
100
AcDbEntity
  8
AM_VIS
100
AcDbLine
 10
103.3610882344133
 20
535.5717096834796
 30
0.0
 11
103.4904977569646
 21
535.0717096834796
 31
0.0
  0
LINE
  5
D5
330
2
100
AcDbEntity
  8
AM_VIS
100
AcDbLine
 10
103.4904977569646
 20
535.0717096834796
 30
0.0
 11
103.4904977569646
 21
521.0717096834796
 31
0.0
  0
LINE
  5
D6
330
2
100
AcDbEntity
  8
AM_VIS
100
AcDbLine
 10
87.74267547217414
 20
535.0717096834796
 30
0.0
 11
88.17568817406641
 21
535.5717096834796
 31
0.0
  0
LINE
  5
D7
330
2
100
AcDbEntity
  8
AM_VIS
100
AcDbLine
 10
87.74267547217414
 20
521.0717096834796
 30
0.0
 11
87.74267547217414
 21
535.0717096834796
 31
0.0
  0
LINE
  5
D8
330
2
100
AcDbEntity
  8
AM_VIS
100
AcDbLine
 10
88.17568817406641
 20
521.0717096834796
 30
0.0
 11
88.17568817406641
 21
535.5717096834796
 31
0.0
  0
LINE
  5
D9
330
2
100
AcDbEntity
  8
AM_VIS
100
AcDbLine
 10
93.11703112541385
 20
535.5717096834796
 30
0.0
 11
92.86703112541387
 21
535.0717096834796
 31
0.0
  0
LINE
  5
DA
330
2
100
AcDbEntity
  8
AM_VIS
100
AcDbLine
 10
92.86703112541387
 20
535.0717096834796
 30
0.0
 11
92.86703112541387
 21
521.0717096834796
 31
0.0
  0
LINE
  5
DB
330
2
100
AcDbEntity
  8
AM_VIS
100
AcDbLine
 10
86.82703246980986
 20
535.5717096834796
 30
0.0
 11
86.34406955666543
 21
535.0717096834796
 31
0.0
  0
LINE
  5
DC
330
2
100
AcDbEntity
  8
AM_VIS
100
AcDbLine
 10
86.34406955666543
 20
535.0717096834796
 30
0.0
 11
86.34406955666543
 21
521.0717096834796
 31
0.0
  0
LINE
  5
DD
330
2
100
AcDbEntity
  8
AM_VIS
100
AcDbLine
 10
113.3670311244133
 20
535.0954812483417
 30
0.0
 11
113.3670311244133
 21
535.5717096834796
 31
0.0
  0
LINE
  5
DE
330
2
100
AcDbEntity
  8
AM_VIS
100
AcDbLine
 10
112.8670311244133
 20
536.0717096834796
 30
0.0
 11
113.3670311244133
 21
535.5717096834796
 31
0.0
  0
LINE
  5
DF
330
2
100
AcDbEntity
  8
AM_VIS
100
AcDbLine
 10
86.8670311244133
 20
536.0717096834796
 30
0.0
 11
86.36703112441329
 21
535.5717096834796
 31
0.0
  0
LINE
  5
E0
330
2
100
AcDbEntity
  8
AM_VIS
100
AcDbLine
 10
86.36703112441329
 20
535.0954812476338
 30
0.0
 11
86.36703112441329
 21
535.5717096834796
 31
0.0
  0
LINE
  5
E1
330
2
100
AcDbEntity
  8
AM_VIS
100
AcDbLine
 10
85.8670311244133
 20
519.0717096834796
 30
0.0
 11
85.8670311244133
 21
521.0717096834796
 31
0.0
  0
LINE
  5
E2
330
2
100
AcDbEntity
  8
AM_VIS
100
AcDbLine
 10
113.8670311244133
 20
519.0717096834796
 30
0.0
 11
113.8670311244133
 21
521.0717096834796
 31
0.0
  0
LINE
  5
E3
330
2
100
AcDbEntity
  8
AM_VIS
100
AcDbLine
 10
113.3670311244133
 20
535.5717096834796
 30
0.0
 11
112.9070297797003
 21
535.5717096834796
 31
0.0
  0
LINE
  5
E4
330
2
100
AcDbEntity
  8
AM_VIS
100
AcDbLine
 10
113.3899926928449
 20
521.0717096834796
 30
0.0
 11
113.8670311244133
 21
521.0717096834796
 31
0.0
  0
LINE
  5
E5
330
2
100
AcDbEntity
  8
AM_VIS
100
AcDbLine
 10
111.5583740760809
 20
535.5717096834796
 30
0.0
 11
106.6170311257001
 21
535.5717096834796
 31
0.0
  0
LINE
  5
E6
330
2
100
AcDbEntity
  8
AM_VIS
100
AcDbLine
 10
106.8670311257001
 20
521.0717096834796
 30
0.0
 11
111.9913867779731
 21
521.0717096834796
 31
0.0
  0
LINE
  5
E7
330
2
100
AcDbEntity
  8
AM_VIS
100
AcDbLine
 10
103.3610882344133
 20
535.5717096834796
 30
0.0
 11
96.37297401696457
 21
535.5717096834796
 31
0.0
  0
LINE
  5
E8
330
2
100
AcDbEntity
  8
AM_VIS
100
AcDbLine
 10
96.24356449441336
 20
521.0717096834796
 30
0.0
 11
103.4904977569646
 21
521.0717096834796
 31
0.0
  0
LINE
  5
E9
330
2
100
AcDbEntity
  8
AM_VIS
100
AcDbLine
 10
93.11703112541385
 20
535.5717096834796
 30
0.0
 11
88.17568817406641
 21
535.5717096834796
 31
0.0
  0
LINE
  5
EA
330
2
100
AcDbEntity
  8
AM_VIS
100
AcDbLine
 10
87.74267547217414
 20
521.0717096834796
 30
0.0
 11
92.86703112541387
 21
521.0717096834796
 31
0.0
  0
LINE
  5
EB
330
2
100
AcDbEntity
  8
AM_VIS
100
AcDbLine
 10
86.8670311244133
 20
536.0717096834796
 30
0.0
 11
99.86703112441331
 21
536.0717096834796
 31
0.0
  0
LINE
  5
EC
330
2
100
AcDbEntity
  8
AM_VIS
100
AcDbLine
 10
99.86703112441331
 20
536.0717096834796
 30
0.0
 11
112.8670311244133
 21
536.0717096834796
 31
0.0
  0
LINE
  5
ED
330
2
100
AcDbEntity
  8
AM_VIS
100
AcDbLine
 10
86.82703246980986
 20
535.5717096834796
 30
0.0
 11
86.36703112441329
 21
535.5717096834796
 31
0.0
  0
LINE
  5
EE
330
2
100
AcDbEntity
  8
AM_VIS
100
AcDbLine
 10
87.74267547217414
 20
535.0717096834796
 30
0.0
 11
86.34406955666543
 21
535.0717096834796
 31
0.0
  0
LINE
  5
EF
330
2
100
AcDbEntity
  8
AM_VIS
100
AcDbLine
 10
96.24356449441336
 20
535.0717096834796
 30
0.0
 11
92.86703112541387
 21
535.0717096834796
 31
0.0
  0
LINE
  5
F0
330
2
100
AcDbEntity
  8
AM_VIS
100
AcDbLine
 10
106.8670311257001
 20
535.0717096834796
 30
0.0
 11
103.4904977569646
 21
535.0717096834796
 31
0.0
  0
LINE
  5
F1
330
2
100
AcDbEntity
  8
AM_VIS
100
AcDbLine
 10
113.3899926928449
 20
535.0717096834796
 30
0.0
 11
111.9913867779731
 21
535.0717096834796
 31
0.0
  0
LINE
  5
F2
330
2
100
AcDbEntity
  8
AM_VIS
100
AcDbLine
 10
85.8670311244133
 20
521.0717096834796
 30
0.0
 11
86.34406955666543
 21
521.0717096834796
 31
0.0
  0
LINE
  5
F3
330
2
100
AcDbEntity
  8
AM_VIS
100
AcDbLine
 10
113.8670311244133
 20
519.0717096834796
 30
0.0
 11
85.8670311244133
 21
519.0717096834796
 31
0.0
  0
SPLINE
  5
F4
330
2
100
AcDbEntity
  8
AM_VIS
100
AcDbSpline
210
0.0
220
0.0
230
1.0
 70
    12
 71
     2
 72
     6
 73
     3
 74
     0
 42
0.0000000001
 43
0.0000000001
 40
0.0
 40
0.0
 40
0.0
 40
5.843695809539571
 40
5.843695809539571
 40
5.843695809539571
 10
102.7545311244133
 20
540.5067205768033
 30
0.0
 41
1.0
 10
104.1982811244133
 20
541.3402700279458
 30
0.0
 41
1.154700538379295
 10
105.6420311244133
 20
540.5067205768033
 30
0.0
 41
1.0
  0
LINE
  5
F5
330
2
100
AcDbEntity
  8
AM_VIS
100
AcDbLine
 10
102.7545311244134
 20
540.5067205768033
 30
0.0
 11
102.7545311244134
 21
536.8366987901558
 31
0.0
  0
SPLINE
  5
F6
330
2
100
AcDbEntity
  8
AM_VIS
100
AcDbSpline
210
0.0
220
0.0
230
1.0
 70
    12
 71
     2
 72
     6
 73
     3
 74
     0
 42
0.0000000001
 43
0.0000000001
 40
0.0
 40
0.0
 40
0.0
 40
5.843695809539505
 40
5.843695809539505
 40
5.843695809539505
 10
105.6420311244133
 20
536.8366987901558
 30
0.0
 41
1.0
 10
104.1982811244133
 20
536.0031493390133
 30
0.0
 41
1.154700538379379
 10
102.7545311244134
 20
536.8366987901558
 30
0.0
 41
1.0
  0
LINE
  5
F7
330
2
100
AcDbEntity
  8
AM_VIS
100
AcDbLine
 10
105.6420311244133
 20
540.5067205768033
 30
0.0
 11
105.6420311244133
 21
536.8366987901558
 31
0.0
  0
LINE
  5
F8
330
2
100
AcDbEntity
  8
AM_VIS
100
AcDbLine
 10
94.09203112441332
 20
540.5067205768033
 30
0.0
 11
94.09203112441332
 21
536.8366987901558
 31
0.0
  0
SPLINE
  5
F9
330
2
100
AcDbEntity
  8
AM_VIS
100
AcDbSpline
210
0.0
220
0.0
230
1.0
 70
    12
 71
     2
 72
     6
 73
     3
 74
     0
 42
0.0000000001
 43
0.0000000001
 40
0.0
 40
0.0
 40
0.0
 40
5.843695809539564
 40
5.843695809539564
 40
5.843695809539564
 10
94.09203112441332
 20
540.5067205768033
 30
0.0
 41
1.0
 10
95.53578112441332
 20
541.3402700279458
 30
0.0
 41
1.154700538379295
 10
96.97953112441329
 20
540.5067205768033
 30
0.0
 41
1.0
  0
SPLINE
  5
FA
330
2
100
AcDbEntity
  8
AM_VIS
100
AcDbSpline
210
0.0
220
0.0
230
1.0
 70
    12
 71
     2
 72
     6
 73
     3
 74
     0
 42
0.0000000001
 43
0.0000000001
 40
0.0
 40
0.0
 40
0.0
 40
5.8436958095395
 40
5.8436958095395
 40
5.8436958095395
 10
96.97953112441325
 20
536.8366987901558
 30
0.0
 41
1.0
 10
95.53578112441332
 20
536.0031493390133
 30
0.0
 41
1.154700538379379
 10
94.09203112441336
 20
536.8366987901558
 30
0.0
 41
1.0
  0
LINE
  5
FB
330
2
100
AcDbEntity
  8
AM_VIS
100
AcDbLine
 10
96.97953112441325
 20
540.5067205768033
 30
0.0
 11
96.97953112441325
 21
536.8366987901558
 31
0.0
  0
SPLINE
  5
FC
330
2
100
AcDbEntity
  8
AM_VIS
100
AcDbSpline
210
0.0
220
0.0
230
1.0
 70
    12
 71
     2
 72
     6
 73
     3
 74
     0
 42
0.0000000001
 43
0.0000000001
 40
0.0
 40
0.0
 40
0.0
 40
5.843695809539752
 40
5.843695809539752
 40
5.843695809539752
 10
96.97953112441325
 20
540.5067205768033
 30
0.0
 41
1.0
 10
99.86703112441333
 20
541.3402700279459
 30
0.0
 41
1.154700538379283
 10
102.7545311244134
 20
540.5067205768033
 30
0.0
 41
1.0
  0
SPLINE
  5
FD
330
2
100
AcDbEntity
  8
AM_VIS
100
AcDbSpline
210
0.0
220
0.0
230
1.0
 70
    12
 71
     2
 72
     6
 73
     3
 74
     0
 42
0.0000000001
 43
0.0000000001
 40
0.0
 40
0.0
 40
0.0
 40
5.843695809539759
 40
5.843695809539759
 40
5.843695809539759
 10
102.7545311244134
 20
536.8366987901558
 30
0.0
 41
1.0
 10
99.86703112441333
 20
536.0031493390132
 30
0.0
 41
1.154700538379125
 10
96.97953112441325
 20
536.8366987901558
 30
0.0
 41
1.0
  0
LINE
  5
FE
330
2
100
AcDbEntity
  8
AM_VIS
100
AcDbLine
 10
95.41703112441338
 20
536.0717096834796
 30
0.0
 11
94.09203112441332
 21
536.8366987901558
 31
0.0
  0
LINE
  5
FF
330
2
100
AcDbEntity
  8
AM_VIS
100
AcDbLine
 10
104.3170311244133
 20
536.0717096834796
 30
0.0
 11
105.6420311244133
 21
536.8366987901558
 31
0.0
  0
LINE
  5
100
330
2
100
AcDbEntity
  8
AM_VIS
100
AcDbLine
 10
104.3170311244133
 20
541.2717096834795
 30
0.0
 11
105.6420311244133
 21
540.5067205768033
 31
0.0
  0
LINE
  5
101
330
2
100
AcDbEntity
  8
AM_VIS
100
AcDbLine
 10
95.41703112441338
 20
541.2717096834795
 30
0.0
 11
94.09203112441332
 21
540.5067205768033
 31
0.0
  0
LINE
  5
102
330
2
100
AcDbEntity
  8
AM_VIS
100
AcDbLine
 10
104.3170311244133
 20
541.2717096834795
 30
0.0
 11
95.41703112441338
 21
541.2717096834795
 31
0.0
  0
LINE
  5
104
330
2
100
AcDbEntity
  8
AM_VIS
100
AcDbLine
 10
185.3759725854037
 20
463.5217096834796
 30
0.0
 11
185.8990344145448
 21
493.4879018054944
 31
0.0
  0
LINE
  5
105
330
2
100
AcDbEntity
  8
AM_VIS
100
AcDbLine
 10
221.3759725854037
 20
463.5217096834796
 30
0.0
 11
220.8529107562624
 21
493.4879018054945
 31
0.0
  0
LINE
  5
106
330
2
100
AcDbEntity
  8
AM_VIS
100
AcDbLine
 10
185.3759725854037
 20
463.5217096834796
 30
0.0
 11
221.3759725854037
 21
463.5217096834796
 31
0.0
  0
LINE
  5
107
330
2
100
AcDbEntity
  8
AM_VIS
100
AcDbLine
 10
226.5114899221256
 20
500.5478882931354
 30
0.0
 11
227.3673947791055
 21
451.5131318771813
 31
0.0
  0
LINE
  5
108
330
2
100
AcDbEntity
  8
AM_VIS
100
AcDbLine
 10
180.2404552486818
 20
500.5478882931354
 30
0.0
 11
179.3845503917019
 21
451.5131318771813
 31
0.0
  0
LINE
  5
109
330
2
100
AcDbEntity
  8
AM_VIS
100
AcDbLine
 10
192.3759725854037
 20
510.5217096834795
 30
0.0
 11
192.3759725854037
 21
514.0767096834795
 31
0.0
  0
LINE
  5
10A
330
2
100
AcDbEntity
  8
AM_VIS
100
AcDbLine
 10
214.3759725854037
 20
510.5217096834795
 30
0.0
 11
214.3759725854037
 21
514.0767096834795
 31
0.0
  0
LINE
  5
10B
330
2
100
AcDbEntity
  8
AM_VIS
100
AcDbLine
 10
215.9123574910863
 20
510.5217096834795
 30
0.0
 11
219.8759725854037
 21
502.0217096834795
 31
0.0
  0
LINE
  5
10C
330
2
100
AcDbEntity
  8
AM_VIS
100
AcDbLine
 10
190.8395876797211
 20
510.5217096834795
 30
0.0
 11
186.8759725854037
 21
502.0217096834795
 31
0.0
  0
LINE
  5
10D
330
2
100
AcDbEntity
  8
AM_VIS
100
AcDbLine
 10
181.7402267914163
 20
502.0217096834795
 30
0.0
 11
225.0117183793911
 21
502.0217096834795
 31
0.0
  0
LINE
  5
10E
330
2
100
AcDbEntity
  8
AM_VIS
100
AcDbLine
 10
226.5114899221256
 20
500.5478882931354
 30
0.0
 11
180.2404552486818
 21
500.5478882931354
 31
0.0
  0
LINE
  5
10F
330
2
100
AcDbEntity
  8
AM_VIS
100
AcDbLine
 10
226.8759725854037
 20
451.0217096834796
 30
0.0
 11
179.8759725854037
 21
451.0217096834796
 31
0.0
  0
LINE
  5
110
330
2
100
AcDbEntity
  8
AM_VIS
100
AcDbLine
 10
190.8395876797211
 20
510.5217096834795
 30
0.0
 11
203.3759725854037
 21
510.5217096834795
 31
0.0
  0
LINE
  5
111
330
2
100
AcDbEntity
  8
AM_VIS
100
AcDbLine
 10
203.3759725854037
 20
510.5217096834795
 30
0.0
 11
215.9123574910863
 21
510.5217096834795
 31
0.0
  0
ARC
  5
112
330
2
100
AcDbEntity
  8
AM_VIS
100
AcDbCircle
 10
181.7402267914163
 20
500.5217096834796
 30
0.0
 40
1.499999999999999
100
AcDbArc
 50
90.0
 51
179.0000000000001
  0
ARC
  5
113
330
2
100
AcDbEntity
  8
AM_VIS
100
AcDbCircle
 10
225.0117183793911
 20
500.5217096834796
 30
0.0
 40
1.5
100
AcDbArc
 50
0.9999999999998614
 51
90.0
  0
LINE
  5
114
330
2
100
AcDbEntity
  8
AM_VIS
100
AcDbLine
 10
190.6742666632319
 20
438.5217096834796
 30
0.0
 11
189.5195661248526
 21
439.5217096834795
 31
0.0
  0
LINE
  5
115
330
2
100
AcDbEntity
  8
AM_VIS
100
AcDbLine
 10
190.6742666632319
 20
438.5217096834796
 30
0.0
 11
197.0251196243178
 21
438.5217096834796
 31
0.0
  0
LINE
  5
116
330
2
100
AcDbEntity
  8
AM_VIS
100
AcDbLine
 10
197.0251196243178
 20
438.5217096834796
 30
0.0
 11
196.4477693551282
 21
439.5217096834795
 31
0.0
  0
LINE
  5
117
330
2
100
AcDbEntity
  8
AM_VIS
100
AcDbLine
 10
196.4477693551282
 20
439.5217096834795
 30
0.0
 11
189.5195661248526
 21
439.5217096834795
 31
0.0
  0
LINE
  5
118
330
2
100
AcDbEntity
  8
AM_VIS
100
AcDbLine
 10
197.0251196243178
 20
438.5217096834796
 30
0.0
 11
209.7268255464896
 21
438.5217096834796
 31
0.0
  0
LINE
  5
119
330
2
100
AcDbEntity
  8
AM_VIS
100
AcDbLine
 10
209.7268255464896
 20
438.5217096834796
 30
0.0
 11
210.3041758156792
 21
439.5217096834795
 31
0.0
  0
LINE
  5
11A
330
2
100
AcDbEntity
  8
AM_VIS
100
AcDbLine
 10
210.3041758156792
 20
439.5217096834795
 30
0.0
 11
196.4477693551282
 21
439.5217096834795
 31
0.0
  0
LINE
  5
11B
330
2
100
AcDbEntity
  8
AM_VIS
100
AcDbLine
 10
209.7268255464896
 20
438.5217096834796
 30
0.0
 11
216.0776785075754
 21
438.5217096834796
 31
0.0
  0
LINE
  5
11C
330
2
100
AcDbEntity
  8
AM_VIS
100
AcDbLine
 10
216.0776785075754
 20
438.5217096834796
 30
0.0
 11
217.2323790459548
 21
439.5217096834795
 31
0.0
  0
LINE
  5
11D
330
2
100
AcDbEntity
  8
AM_VIS
100
AcDbLine
 10
217.2323790459548
 20
439.5217096834795
 30
0.0
 11
210.3041758156792
 21
439.5217096834795
 31
0.0
  0
LINE
  5
11E
330
2
100
AcDbEntity
  8
AM_VIS
100
AcDbLine
 10
217.2323790459548
 20
444.5217096834795
 30
0.0
 11
217.2323790459548
 21
439.5217096834795
 31
0.0
  0
LINE
  5
11F
330
2
100
AcDbEntity
  8
AM_VIS
100
AcDbLine
 10
210.3041758156792
 20
444.5217096834795
 30
0.0
 11
210.3041758156792
 21
439.5217096834795
 31
0.0
  0
LINE
  5
120
330
2
100
AcDbEntity
  8
AM_VIS
100
AcDbLine
 10
189.5195661248526
 20
444.5217096834795
 30
0.0
 11
189.5195661248526
 21
439.5217096834795
 31
0.0
  0
LINE
  5
121
330
2
100
AcDbEntity
  8
AM_VIS
100
AcDbLine
 10
196.4477693551282
 20
444.5217096834795
 30
0.0
 11
196.4477693551282
 21
439.5217096834795
 31
0.0
  0
LINE
  5
122
330
2
100
AcDbEntity
  8
AM_VIS
100
AcDbLine
 10
179.8759725854037
 20
444.5217096834795
 30
0.0
 11
179.3759725854037
 21
445.0217096834795
 31
0.0
  0
LINE
  5
123
330
2
100
AcDbEntity
  8
AM_VIS
100
AcDbLine
 10
226.8759725854037
 20
444.5217096834795
 30
0.0
 11
227.3759725854037
 21
445.0217096834795
 31
0.0
  0
LINE
  5
124
330
2
100
AcDbEntity
  8
AM_VIS
100
AcDbLine
 10
227.3759725854037
 20
450.5217096834796
 30
0.0
 11
227.3759725854037
 21
445.0217096834795
 31
0.0
  0
LINE
  5
125
330
2
100
AcDbEntity
  8
AM_VIS
100
AcDbLine
 10
179.3759725854037
 20
450.5217096834796
 30
0.0
 11
179.3759725854037
 21
445.0217096834795
 31
0.0
  0
LINE
  5
126
330
2
100
AcDbEntity
  8
AM_VIS
100
AcDbLine
 10
226.8759725854037
 20
451.0217096834796
 30
0.0
 11
227.3759725854037
 21
450.5217096834796
 31
0.0
  0
LINE
  5
127
330
2
100
AcDbEntity
  8
AM_VIS
100
AcDbLine
 10
179.8759725854037
 20
451.0217096834796
 30
0.0
 11
179.3759725854037
 21
450.5217096834796
 31
0.0
  0
LINE
  5
128
330
2
100
AcDbEntity
  8
AM_VIS
100
AcDbLine
 10
226.8759725854037
 20
444.5217096834795
 30
0.0
 11
179.8759725854037
 21
444.5217096834795
 31
0.0
  0
LINE
  5
129
102
{ACAD_REACTORS
330
42C
102
}
330
2
100
AcDbEntity
  8
AM_VIS
100
AcDbLine
 10
179.3759725854037
 20
445.0217096834795
 30
0.0
 11
227.3759725854037
 21
445.0217096834795
 31
0.0
  0
LINE
  5
12A
330
2
100
AcDbEntity
  8
AM_VIS
100
AcDbLine
 10
227.3759725854037
 20
450.5217096834796
 30
0.0
 11
179.3759725854037
 21
450.5217096834796
 31
0.0
  0
LINE
  5
12B
330
2
100
AcDbEntity
  8
AM_VIS
100
AcDbLine
 10
216.8989341538353
 20
535.0717096834796
 30
0.0
 11
216.4159712406907
 21
535.5717096834796
 31
0.0
  0
LINE
  5
12C
330
2
100
AcDbEntity
  8
AM_VIS
100
AcDbLine
 10
216.8989341538352
 20
521.0717096834796
 30
0.0
 11
216.8989341538352
 21
535.0717096834796
 31
0.0
  0
LINE
  5
12D
330
2
100
AcDbEntity
  8
AM_VIS
100
AcDbLine
 10
210.3759725866905
 20
535.0717096834796
 30
0.0
 11
210.1259725866905
 21
535.5717096834796
 31
0.0
  0
LINE
  5
12E
330
2
100
AcDbEntity
  8
AM_VIS
100
AcDbLine
 10
210.3759725866905
 20
521.0717096834796
 30
0.0
 11
210.3759725866905
 21
535.0717096834796
 31
0.0
  0
LINE
  5
12F
330
2
100
AcDbEntity
  8
AM_VIS
100
AcDbLine
 10
215.0673155370713
 20
521.0717096834796
 30
0.0
 11
215.0673155370713
 21
535.5717096834796
 31
0.0
  0
LINE
  5
130
330
2
100
AcDbEntity
  8
AM_VIS
100
AcDbLine
 10
215.0673155370713
 20
535.5717096834796
 30
0.0
 11
215.5003282389635
 21
535.0717096834796
 31
0.0
  0
LINE
  5
131
330
2
100
AcDbEntity
  8
AM_VIS
100
AcDbLine
 10
215.5003282389635
 20
535.0717096834796
 30
0.0
 11
215.5003282389635
 21
521.0717096834796
 31
0.0
  0
LINE
  5
132
330
2
100
AcDbEntity
  8
AM_VIS
100
AcDbLine
 10
199.7525059554037
 20
535.0717096834796
 30
0.0
 11
199.881915477955
 21
535.5717096834796
 31
0.0
  0
LINE
  5
133
330
2
100
AcDbEntity
  8
AM_VIS
100
AcDbLine
 10
199.7525059554037
 20
521.0717096834796
 30
0.0
 11
199.7525059554037
 21
535.0717096834796
 31
0.0
  0
LINE
  5
134
330
2
100
AcDbEntity
  8
AM_VIS
100
AcDbLine
 10
199.881915477955
 20
521.0717096834796
 30
0.0
 11
199.881915477955
 21
535.5717096834796
 31
0.0
  0
LINE
  5
135
330
2
100
AcDbEntity
  8
AM_VIS
100
AcDbLine
 10
206.8700296954037
 20
521.0717096834796
 30
0.0
 11
206.8700296954037
 21
535.5717096834796
 31
0.0
  0
LINE
  5
136
330
2
100
AcDbEntity
  8
AM_VIS
100
AcDbLine
 10
206.8700296954037
 20
535.5717096834796
 30
0.0
 11
206.999439217955
 21
535.0717096834796
 31
0.0
  0
LINE
  5
137
330
2
100
AcDbEntity
  8
AM_VIS
100
AcDbLine
 10
206.999439217955
 20
535.0717096834796
 30
0.0
 11
206.999439217955
 21
521.0717096834796
 31
0.0
  0
LINE
  5
138
330
2
100
AcDbEntity
  8
AM_VIS
100
AcDbLine
 10
191.2516169331645
 20
535.0717096834796
 30
0.0
 11
191.6846296350567
 21
535.5717096834796
 31
0.0
  0
LINE
  5
139
330
2
100
AcDbEntity
  8
AM_VIS
100
AcDbLine
 10
191.2516169331645
 20
521.0717096834796
 30
0.0
 11
191.2516169331645
 21
535.0717096834796
 31
0.0
  0
LINE
  5
13A
330
2
100
AcDbEntity
  8
AM_VIS
100
AcDbLine
 10
191.6846296350567
 20
521.0717096834796
 30
0.0
 11
191.6846296350567
 21
535.5717096834796
 31
0.0
  0
LINE
  5
13B
330
2
100
AcDbEntity
  8
AM_VIS
100
AcDbLine
 10
196.6259725864042
 20
535.5717096834796
 30
0.0
 11
196.3759725864042
 21
535.0717096834796
 31
0.0
  0
LINE
  5
13C
330
2
100
AcDbEntity
  8
AM_VIS
100
AcDbLine
 10
196.3759725864042
 20
535.0717096834796
 30
0.0
 11
196.3759725864042
 21
521.0717096834796
 31
0.0
  0
LINE
  5
13D
330
2
100
AcDbEntity
  8
AM_VIS
100
AcDbLine
 10
190.3359739308002
 20
535.5717096834796
 30
0.0
 11
189.8530110176557
 21
535.0717096834796
 31
0.0
  0
LINE
  5
13E
330
2
100
AcDbEntity
  8
AM_VIS
100
AcDbLine
 10
189.8530110176557
 20
535.0717096834796
 30
0.0
 11
189.8530110176557
 21
521.0717096834796
 31
0.0
  0
LINE
  5
13F
330
2
100
AcDbEntity
  8
AM_VIS
100
AcDbLine
 10
216.8759725854037
 20
535.0954812483415
 30
0.0
 11
216.8759725854037
 21
535.5717096834796
 31
0.0
  0
LINE
  5
140
330
2
100
AcDbEntity
  8
AM_VIS
100
AcDbLine
 10
189.8759725854037
 20
535.0954812476338
 30
0.0
 11
189.8759725854037
 21
535.5717096834796
 31
0.0
  0
LINE
  5
141
330
2
100
AcDbEntity
  8
AM_VIS
100
AcDbLine
 10
216.3759725854037
 20
536.0717096834796
 30
0.0
 11
216.8759725854037
 21
535.5717096834796
 31
0.0
  0
LINE
  5
142
330
2
100
AcDbEntity
  8
AM_VIS
100
AcDbLine
 10
190.3759725854037
 20
536.0717096834796
 30
0.0
 11
189.8759725854037
 21
535.5717096834796
 31
0.0
  0
LINE
  5
143
330
2
100
AcDbEntity
  8
AM_VIS
100
AcDbLine
 10
189.3759725854037
 20
519.0717096834796
 30
0.0
 11
189.3759725854037
 21
521.0717096834796
 31
0.0
  0
LINE
  5
144
330
2
100
AcDbEntity
  8
AM_VIS
100
AcDbLine
 10
217.3759725854037
 20
519.0717096834796
 30
0.0
 11
217.3759725854037
 21
521.0717096834796
 31
0.0
  0
LINE
  5
145
330
2
100
AcDbEntity
  8
AM_VIS
100
AcDbLine
 10
216.8759725854037
 20
535.5717096834796
 30
0.0
 11
216.4159712406907
 21
535.5717096834796
 31
0.0
  0
LINE
  5
146
330
2
100
AcDbEntity
  8
AM_VIS
100
AcDbLine
 10
216.8989341538353
 20
521.0717096834796
 30
0.0
 11
217.3759725854037
 21
521.0717096834796
 31
0.0
  0
LINE
  5
147
330
2
100
AcDbEntity
  8
AM_VIS
100
AcDbLine
 10
215.0673155370713
 20
535.5717096834796
 30
0.0
 11
210.1259725866905
 21
535.5717096834796
 31
0.0
  0
LINE
  5
148
330
2
100
AcDbEntity
  8
AM_VIS
100
AcDbLine
 10
210.3759725866905
 20
521.0717096834796
 30
0.0
 11
215.5003282389635
 21
521.0717096834796
 31
0.0
  0
LINE
  5
149
330
2
100
AcDbEntity
  8
AM_VIS
100
AcDbLine
 10
206.8700296954037
 20
535.5717096834796
 30
0.0
 11
199.881915477955
 21
535.5717096834796
 31
0.0
  0
LINE
  5
14A
330
2
100
AcDbEntity
  8
AM_VIS
100
AcDbLine
 10
199.7525059554037
 20
521.0717096834796
 30
0.0
 11
206.999439217955
 21
521.0717096834796
 31
0.0
  0
LINE
  5
14B
330
2
100
AcDbEntity
  8
AM_VIS
100
AcDbLine
 10
196.6259725864042
 20
535.5717096834796
 30
0.0
 11
191.6846296350567
 21
535.5717096834796
 31
0.0
  0
LINE
  5
14C
330
2
100
AcDbEntity
  8
AM_VIS
100
AcDbLine
 10
191.2516169331645
 20
521.0717096834796
 30
0.0
 11
196.3759725864042
 21
521.0717096834796
 31
0.0
  0
LINE
  5
14D
330
2
100
AcDbEntity
  8
AM_VIS
100
AcDbLine
 10
190.3359739308002
 20
535.5717096834796
 30
0.0
 11
189.8759725854037
 21
535.5717096834796
 31
0.0
  0
LINE
  5
14E
330
2
100
AcDbEntity
  8
AM_VIS
100
AcDbLine
 10
189.3759725854037
 20
521.0717096834796
 30
0.0
 11
189.8530110176557
 21
521.0717096834796
 31
0.0
  0
LINE
  5
14F
330
2
100
AcDbEntity
  8
AM_VIS
100
AcDbLine
 10
190.3759725854037
 20
536.0717096834796
 30
0.0
 11
216.3759725854037
 21
536.0717096834796
 31
0.0
  0
LINE
  5
150
330
2
100
AcDbEntity
  8
AM_VIS
100
AcDbLine
 10
191.2516169331645
 20
535.0717096834796
 30
0.0
 11
189.8530110176557
 21
535.0717096834796
 31
0.0
  0
LINE
  5
151
330
2
100
AcDbEntity
  8
AM_VIS
100
AcDbLine
 10
199.7525059554037
 20
535.0717096834796
 30
0.0
 11
196.3759725864042
 21
535.0717096834796
 31
0.0
  0
LINE
  5
152
330
2
100
AcDbEntity
  8
AM_VIS
100
AcDbLine
 10
210.3759725866905
 20
535.0717096834796
 30
0.0
 11
206.999439217955
 21
535.0717096834796
 31
0.0
  0
LINE
  5
153
330
2
100
AcDbEntity
  8
AM_VIS
100
AcDbLine
 10
216.8989341538352
 20
535.0717096834796
 30
0.0
 11
215.5003282389635
 21
535.0717096834796
 31
0.0
  0
LINE
  5
154
330
2
100
AcDbEntity
  8
AM_VIS
100
AcDbLine
 10
217.3759725854037
 20
519.0717096834796
 30
0.0
 11
189.3759725854037
 21
519.0717096834796
 31
0.0
  0
SPLINE
  5
155
330
2
100
AcDbEntity
  8
AM_VIS
100
AcDbSpline
210
0.0
220
0.0
230
1.0
 70
    12
 71
     2
 72
     6
 73
     3
 74
     0
 42
0.0000000001
 43
0.0000000001
 40
0.0
 40
0.0
 40
0.0
 40
5.843695809539571
 40
5.843695809539571
 40
5.843695809539571
 10
198.3746758785486
 20
540.5067205768033
 30
0.0
 41
1.0
 10
200.8753242319762
 20
541.3402700279458
 30
0.0
 41
1.154700538379295
 10
203.3759725854037
 20
540.5067205768033
 30
0.0
 41
1.0
  0
LINE
  5
156
330
2
100
AcDbEntity
  8
AM_VIS
100
AcDbLine
 10
198.3746758785486
 20
540.5067205768033
 30
0.0
 11
198.3746758785486
 21
536.8366987901558
 31
0.0
  0
SPLINE
  5
157
330
2
100
AcDbEntity
  8
AM_VIS
100
AcDbSpline
210
0.0
220
0.0
230
1.0
 70
    12
 71
     2
 72
     6
 73
     3
 74
     0
 42
0.0000000001
 43
0.0000000001
 40
0.0
 40
0.0
 40
0.0
 40
5.843695809539505
 40
5.843695809539505
 40
5.843695809539505
 10
203.3759725854037
 20
536.8366987901558
 30
0.0
 41
1.0
 10
200.8753242319762
 20
536.0031493390133
 30
0.0
 41
1.154700538379379
 10
198.3746758785486
 20
536.8366987901558
 30
0.0
 41
1.0
  0
LINE
  5
158
330
2
100
AcDbEntity
  8
AM_VIS
100
AcDbLine
 10
203.3759725854037
 20
540.5067205768033
 30
0.0
 11
203.3759725854037
 21
536.8366987901558
 31
0.0
  0
SPLINE
  5
159
330
2
100
AcDbEntity
  8
AM_VIS
100
AcDbSpline
210
0.0
220
0.0
230
1.0
 70
    12
 71
     2
 72
     6
 73
     3
 74
     0
 42
0.0000000001
 43
0.0000000001
 40
0.0
 40
0.0
 40
0.0
 40
5.843695809539571
 40
5.843695809539571
 40
5.843695809539571
 10
203.3759725854037
 20
540.5067205768033
 30
0.0
 41
1.0
 10
205.8766209388312
 20
541.3402700279458
 30
0.0
 41
1.154700538379295
 10
208.3772692922588
 20
540.5067205768033
 30
0.0
 41
1.0
  0
SPLINE
  5
15A
330
2
100
AcDbEntity
  8
AM_VIS
100
AcDbSpline
210
0.0
220
0.0
230
1.0
 70
    12
 71
     2
 72
     6
 73
     3
 74
     0
 42
0.0000000001
 43
0.0000000001
 40
0.0
 40
0.0
 40
0.0
 40
5.843695809539505
 40
5.843695809539505
 40
5.843695809539505
 10
208.3772692922588
 20
536.8366987901558
 30
0.0
 41
1.0
 10
205.8766209388312
 20
536.0031493390133
 30
0.0
 41
1.154700538379379
 10
203.3759725854037
 20
536.8366987901558
 30
0.0
 41
1.0
  0
LINE
  5
15B
330
2
100
AcDbEntity
  8
AM_VIS
100
AcDbLine
 10
208.3772692922588
 20
536.8366987901558
 30
0.0
 11
208.3772692922588
 21
540.5067205768033
 31
0.0
  0
LINE
  5
15C
330
2
100
AcDbEntity
  8
AM_VIS
100
AcDbLine
 10
208.3772692922588
 20
540.9534183813734
 30
0.0
 11
208.3772692922588
 21
540.5067205768033
 31
0.0
  0
LINE
  5
15D
330
2
100
AcDbEntity
  8
AM_VIS
100
AcDbLine
 10
208.3772692922588
 20
536.8366987901558
 30
0.0
 11
208.3772692922588
 21
536.3900009855857
 31
0.0
  0
LINE
  5
15E
330
2
100
AcDbEntity
  8
AM_VIS
100
AcDbLine
 10
198.3746758785486
 20
540.9534183813734
 30
0.0
 11
198.3746758785486
 21
540.5067205768033
 31
0.0
  0
LINE
  5
15F
330
2
100
AcDbEntity
  8
AM_VIS
100
AcDbLine
 10
198.3746758785486
 20
536.8366987901558
 30
0.0
 11
198.3746758785486
 21
536.3900009855857
 31
0.0
  0
LINE
  5
160
330
2
100
AcDbEntity
  8
AM_VIS
100
AcDbLine
 10
198.9259725854037
 20
536.0717096834796
 30
0.0
 11
198.3746758785486
 21
536.3900009855857
 31
0.0
  0
LINE
  5
161
330
2
100
AcDbEntity
  8
AM_VIS
100
AcDbLine
 10
207.8259725854037
 20
536.0717096834796
 30
0.0
 11
208.3772692922588
 21
536.3900009855857
 31
0.0
  0
LINE
  5
162
330
2
100
AcDbEntity
  8
AM_VIS
100
AcDbLine
 10
207.8259725854037
 20
541.2717096834795
 30
0.0
 11
208.3772692922588
 21
540.9534183813734
 31
0.0
  0
LINE
  5
163
330
2
100
AcDbEntity
  8
AM_VIS
100
AcDbLine
 10
198.9259725854036
 20
541.2717096834795
 30
0.0
 11
198.3746758785486
 21
540.9534183813734
 31
0.0
  0
LINE
  5
164
330
2
100
AcDbEntity
  8
AM_VIS
100
AcDbLine
 10
207.8259725854037
 20
541.2717096834795
 30
0.0
 11
198.9259725854036
 21
541.2717096834795
 31
0.0
  0
LINE
  5
1CF
330
2
100
AcDbEntity
  8
AM_7
100
AcDbLine
 10
203.3759725854037
 20
481.5217096834795
 30
0.0
 11
216.8759725854037
 21
481.5217096834795
 31
0.0
1001
GENIUS_GENOREF_13
1005
1D3
  0
LINE
  5
1D0
330
2
100
AcDbEntity
  8
AM_7
100
AcDbLine
 10
203.3759725854037
 20
481.5217096834795
 30
0.0
 11
203.3759725854037
 21
497.6559898557127
 31
0.0
1001
GENIUS_GENOREF_13
1005
1D3
  0
LINE
  5
1D1
330
2
100
AcDbEntity
  8
AM_7
100
AcDbLine
 10
203.3759725854037
 20
481.5217096834795
 30
0.0
 11
189.8759725854037
 21
481.5217096834795
 31
0.0
1001
GENIUS_GENOREF_13
1005
1D3
  0
LINE
  5
1D2
330
2
100
AcDbEntity
  8
AM_7
100
AcDbLine
 10
203.3759725854037
 20
481.5217096834795
 30
0.0
 11
203.3759725854037
 21
470.6559898557127
 31
0.0
1001
GENIUS_GENOREF_13
1005
1D3
  0
POINT
  5
1D3
330
2
100
AcDbEntity
  8
0
 60
     1
100
AcDbPoint
 10
0.0
 20
0.0
 30
0.0
1001
GENIUS_GENOLIS_13
1002
{
1000
ENT
1005
1D2
1005
1D1
1005
1D0
1005
1CF
1002
}
1001
GENIUS_GENOENT_13
1002
{
1000
MYREF
1005
1D3
1002
}
1002
{
1000
GRP
1005
0
1002
}
1001
GENIUS_GENOBJ-N-CRS_13
1002
{
1000
OWNER
1000
GEN
1002
}
1001
GENIUS_GENODEF_13
1002
{
1000
HIER
1070
    10
1002
}
1002
{
1000
MANEDIT
1070
     0
1002
}
1002
{
1000
NOSEL
1070
     0
1002
}
1002
{
1000
BEHIND
1070
     0
1002
}
1002
{
1000
OTHER
1070
     0
1002
}
1002
{
1000
REACTOR
1002
}
  0
ARC
  5
1DB
330
2
100
AcDbEntity
  8
0
100
AcDbCircle
 10
203.3759725854037
 20
541.2717096834795
 30
0.0
 40
2.25
100
AcDbArc
 50
0.0
 51
180.0
  0
ARC
  5
1DC
102
{ACAD_REACTORS
330
3AB
102
}
330
2
100
AcDbEntity
  8
0
100
AcDbCircle
 10
99.86703112441331
 20
541.2717096834795
 30
0.0
 40
2.25
100
AcDbArc
 50
0.0
 51
180.0
  0
ARC
  5
1F6
330
2
100
AcDbEntity
  8
0
100
AcDbCircle
 10
203.3759725854037
 20
424.5217096834795
 30
0.0
 40
75.0
100
AcDbArc
 50
79.73199006644858
 51
100.2680099335514
  0
ARC
  5
1F7
330
2
100
AcDbEntity
  8
0
100
AcDbCircle
 10
190.8982728903269
 20
493.400639773308
 30
0.0
 40
5.0
100
AcDbArc
 50
100.2680099335515
 51
179.0
  0
ARC
  5
1F8
330
2
100
AcDbEntity
  8
0
100
AcDbCircle
 10
215.8536722804805
 20
493.400639773308
 30
0.0
 40
5.0
100
AcDbArc
 50
1.000000000000063
 51
79.73199006644851
  0
LINE
  5
24E
330
2
100
AcDbEntity
  8
AM_VIS
100
AcDbLine
 10
123.3670311244133
 20
451.0217096834796
 30
0.0
 11
123.8670311244133
 21
451.5217096834795
 31
0.0
  0
LINE
  5
24F
330
2
100
AcDbEntity
  8
AM_VIS
100
AcDbLine
 10
123.8670311244133
 20
451.5217096834795
 30
0.0
 11
75.8670311244133
 21
451.5217096834795
 31
0.0
  0
LINE
  5
250
330
2
100
AcDbEntity
  8
AM_VIS
100
AcDbLine
 10
76.3670311244133
 20
451.0217096834796
 30
0.0
 11
75.8670311244133
 21
451.5217096834795
 31
0.0
  0
LINE
  5
252
330
2
100
AcDbEntity
  8
AM_VIS
100
AcDbLine
 10
179.8759725854037
 20
451.0217096834796
 30
0.0
 11
179.3759725854037
 21
451.5217096834795
 31
0.0
  0
LINE
  5
253
330
2
100
AcDbEntity
  8
AM_VIS
100
AcDbLine
 10
227.3759725854037
 20
451.5217096834795
 30
0.0
 11
179.3759725854037
 21
451.5217096834795
 31
0.0
  0
LINE
  5
254
330
2
100
AcDbEntity
  8
AM_VIS
100
AcDbLine
 10
226.8759725854037
 20
451.0217096834796
 30
0.0
 11
227.3759725854037
 21
451.5217096834795
 31
0.0
  0
CIRCLE
  5
25A
330
2
100
AcDbEntity
  8
0
100
AcDbCircle
 10
99.86703112441331
 20
588.537709530154
 30
0.0
 40
2.25
  0
INSERT
  5
2A2
330
2
100
AcDbEntity
  8
0
100
AcDbBlockReference
  2
A$C32C02AC5
 10
187.2059724485849
 20
511.451709757306
 30
0.0
  0
INSERT
  5
2A4
330
2
100
AcDbEntity
  8
0
100
AcDbBlockReference
  2
A$C32C02AC5
 10
83.69703098759453
 20
511.451709757306
 30
0.0
  0
LINE
  5
2C7
330
2
100
AcDbEntity
  8
0
 62
     4
100
AcDbLine
 10
88.86703112441329
 20
511.5217096834795
 30
0.0
 11
90.3670311244133
 21
511.5717096834796
 31
0.0
  0
LINE
  5
2C8
330
2
100
AcDbEntity
  8
AM_VIS
 62
     4
100
AcDbLine
 10
90.3670311244133
 20
511.5717096834796
 30
0.0
 11
90.3670311244133
 21
514.0767096834795
 31
0.0
  0
LINE
  5
2C9
330
2
100
AcDbEntity
  8
AM_VIS
 62
     4
100
AcDbLine
 10
109.3670311244133
 20
511.5717096834796
 30
0.0
 11
109.3670311244133
 21
514.0767096834795
 31
0.0
  0
LINE
  5
2CA
330
2
100
AcDbEntity
  8
0
 62
     4
100
AcDbLine
 10
110.8670311244133
 20
511.5217096834795
 30
0.0
 11
109.3670311244133
 21
511.5717096834796
 31
0.0
  0
LINE
  5
2CB
330
2
100
AcDbEntity
  8
AM_VIS
 62
     4
100
AcDbLine
 10
90.3670311244133
 20
511.5717096834796
 30
0.0
 11
109.3670311244133
 21
511.5717096834796
 31
0.0
  0
LINE
  5
2CC
330
2
100
AcDbEntity
  8
AM_VIS
 62
     4
100
AcDbLine
 10
212.8759725854037
 20
511.5717096834796
 30
0.0
 11
212.8759725854037
 21
514.0767096834795
 31
0.0
  0
LINE
  5
2CD
330
2
100
AcDbEntity
  8
AM_VIS
 62
     4
100
AcDbLine
 10
193.8759725854037
 20
511.5717096834796
 30
0.0
 11
212.8759725854037
 21
511.5717096834796
 31
0.0
  0
LINE
  5
2CE
330
2
100
AcDbEntity
  8
0
 62
     4
100
AcDbLine
 10
213.9259725854038
 20
510.5217096834795
 30
0.0
 11
212.8759725854037
 21
511.5717096834796
 31
0.0
  0
LINE
  5
2CF
330
2
100
AcDbEntity
  8
AM_VIS
 62
     4
100
AcDbLine
 10
193.8759725854037
 20
511.5717096834796
 30
0.0
 11
193.8759725854037
 21
514.0767096834795
 31
0.0
  0
LINE
  5
2D0
330
2
100
AcDbEntity
  8
0
 62
     4
100
AcDbLine
 10
192.8259725854037
 20
510.5217096834795
 30
0.0
 11
193.8759725854037
 21
511.5717096834796
 31
0.0
  0
DIMENSION
  5
2FF
102
{ACAD_XDICTIONARY
360
30C
102
}
102
{ACAD_REACTORS
330
316
102
}
330
2
100
AcDbEntity
  8
AM_5
100
AcDbDimension
  2
*D2
 10
136.8670311244133
 20
426.8265924729381
 30
0.0
 11
99.86703112441331
 21
429.0265924729381
 31
0.0
 70
    32
 71
     5
 42
-1.0
  3
AM_ISO
100
AcDbAlignedDimension
 13
62.8670311244133
 23
463.5217096834796
 33
0.0
 14
136.8670311244133
 24
463.5217096834796
 34
0.0
100
AcDbRotatedDimension
  0
DIMENSION
  5
394
102
{ACAD_XDICTIONARY
360
3A1
102
}
102
{ACAD_REACTORS
330
3AB
102
}
330
2
100
AcDbEntity
  8
AM_5
100
AcDbDimension
  2
*D3
 10
157.806219433989
 20
438.5217096834795
 30
0.0
 11
155.6062194339889
 21
491.0217096834795
 31
0.0
 70
    32
 71
     5
 42
-1.0
  3
AM_ISO
100
AcDbAlignedDimension
 13
99.86703112441331
 23
543.5217096834795
 33
0.0
 14
110.8670311244133
 24
438.5217096834796
 34
0.0
 50
90.0
100
AcDbRotatedDimension
  0
CIRCLE
  5
3FD
330
2
100
AcDbEntity
  8
AM_0N
100
AcDbCircle
 10
99.86703112441341
 20
588.537709530154
 30
0.0
 40
14.0
1001
GENIUS_GENOREF_13
1005
0
  0
LINE
  5
3FF
330
2
100
AcDbEntity
  8
AM_0N
100
AcDbLine
 10
91.78412735575852
 20
602.5377095301539
 30
0.0
 11
83.70122358710375
 21
588.537709530154
 31
0.0
1001
GENIUS_GENOREF_13
1005
0
  0
LINE
  5
400
330
2
100
AcDbEntity
  8
AM_0N
100
AcDbLine
 10
116.0328386617227
 20
588.5377095301537
 30
0.0
 11
107.9499348930683
 21
602.5377095301539
 31
0.0
1001
GENIUS_GENOREF_13
1005
0
  0
LINE
  5
402
330
2
100
AcDbEntity
  8
AM_0N
100
AcDbLine
 10
91.78412735575808
 20
574.5377095301539
 30
0.0
 11
107.9499348930681
 21
574.5377095301539
 31
0.0
1001
GENIUS_GENOREF_13
1005
0
  0
LINE
  5
403
330
2
100
AcDbEntity
  8
AM_0N
100
AcDbLine
 10
83.70122358710375
 20
588.537709530154
 30
0.0
 11
91.78412735575808
 21
574.5377095301539
 31
0.0
1001
GENIUS_GENOREF_13
1005
0
  0
LINE
  5
404
330
2
100
AcDbEntity
  8
AM_0N
100
AcDbLine
 10
107.9499348930681
 20
574.5377095301539
 30
0.0
 11
116.0328386617227
 21
588.5377095301537
 31
0.0
1001
GENIUS_GENOREF_13
1005
0
  0
LINE
  5
405
330
2
100
AcDbEntity
  8
AM_0N
100
AcDbLine
 10
107.9499348930683
 20
602.5377095301539
 30
0.0
 11
91.78412735575852
 21
602.5377095301539
 31
0.0
1001
GENIUS_GENOREF_13
1005
0
  0
DIMENSION
  5
415
102
{ACAD_XDICTIONARY
360
422
102
}
102
{ACAD_REACTORS
330
42C
102
}
330
2
100
AcDbEntity
  8
AM_5
100
AcDbDimension
  2
*D5
 10
227.3759725854037
 20
426.8265924729383
 30
0.0
 11
203.3759725854037
 21
429.0265924729383
 31
0.0
 70
    32
  1
%%c<>
 71
     5
 42
-1.0
  3
AM_ISO
100
AcDbAlignedDimension
 13
179.3759725854037
 23
445.0217096834795
 33
0.0
 14
227.3759725854037
 24
445.0217096834795
 34
0.0
100
AcDbRotatedDimension
1001
ACAD
1000
DSTYLE
1002
{
1070
   271
1070
     1
1002
}
  0
TEXT
  5
A06
330
2
100
AcDbEntity
  8
LOGO
 62
     6
100
AcDbText
 10
73.12129084847453
 20
394.5776581777655
 30
0.0
 40
3.981736124021404
  1
單位 Unit:
 41
0.9
  7
CHINESET
 72
     4
 11
83.98396471182042
 21
396.5685262397762
 31
0.0
100
AcDbText
  0
TEXT
  5
A07
330
2
100
AcDbEntity
  8
LOGO
 62
     6
100
AcDbText
 10
72.73200503992065
 20
402.5971399193506
 30
0.0
 40
3.981736124021404
  1
投影 View:
 41
0.9
  7
CHINESET
 72
     4
 11
83.98396471182042
 21
404.5319984878188
 31
0.0
100
AcDbText
  0
TEXT
  5
A08
330
2
100
AcDbEntity
  8
LOGO
 62
     6
100
AcDbText
 10
71.34017495728281
 20
410.5065621896601
 30
0.0
 40
3.981736124021404
  1
比例 Scale:
 41
0.9
  7
CHINESET
 72
     4
 11
83.98396471182042
 21
412.4954707358617
 31
0.0
100
AcDbText
  0
LINE
  5
A09
330
2
100
AcDbEntity
  8
LOGO
 62
     1
100
AcDbLine
 10
126.455816701382
 20
400.5502623637976
 30
0.0
 11
68.05702021573472
 21
400.5502623637976
 31
0.0
  0
LINE
  5
A0A
330
2
100
AcDbEntity
  8
LOGO
 62
     1
100
AcDbLine
 10
126.455816701382
 20
408.5137346118403
 30
0.0
 11
68.05702021573472
 21
408.5137346118403
 31
0.0
  0
LINE
  5
A0B
330
2
100
AcDbEntity
  8
LOGO
 62
     1
100
AcDbLine
 10
266.5290851019495
 20
376.6598456196691
 30
0.0
 11
38.85762197291109
 21
376.6598456196691
 31
0.0
  0
TEXT
  5
A0C
330
2
100
AcDbEntity
  8
LOGO
  6
Continuous
 62
     5
100
AcDbText
 10
41.87110504010109
 20
378.5081317974895
 30
0.0
 40
3.981736124021404
  1
MINDMAN INDUSTRIAL CO.,LTD
 41
0.85
  7
CHINESET
100
AcDbText
  0
TEXT
  5
A0D
330
2
100
AcDbEntity
  8
LOGO
  6
Continuous
 62
     5
100
AcDbText
 10
40.16091143435875
 20
384.4819061456718
 30
0.0
 40
5.972604186032108
  1
金器工業股份有限公司
 41
0.8
  7
LOGO
100
AcDbText
  0
LINE
  5
A0E
330
2
100
AcDbEntity
  8
LOGO
 62
     1
100
AcDbLine
 10
126.455816701382
 20
392.5867901157549
 30
0.0
 11
38.85762197291109
 21
392.5867901157549
 31
0.0
  0
LINE
  5
A0F
330
2
100
AcDbEntity
  8
LOGO
 62
     1
100
AcDbLine
 10
266.5290851019495
 20
416.4772068598832
 30
0.0
 11
38.85762197291109
 21
416.4772068598832
 31
0.0
  0
POLYLINE
  5
A10
330
2
100
AcDbEntity
  8
0
  6
ByBlock
 62
     4
100
AcDb2dPolyline
 66
     1
 10
0.0
 20
0.0
 30
0.0
 70
     1
  0
VERTEX
  5
A11
330
A10
100
AcDbEntity
  8
0
  6
ByBlock
 62
     4
100
AcDbVertex
100
AcDb2dVertex
 10
38.85762197291109
 20
623.1884410408408
 30
0.0
  0
VERTEX
  5
A12
330
A10
100
AcDbEntity
  8
0
  6
ByBlock
 62
     4
100
AcDbVertex
100
AcDb2dVertex
 10
266.5290851019495
 20
623.1884410408408
 30
0.0
  0
VERTEX
  5
A13
330
A10
100
AcDbEntity
  8
0
  6
ByBlock
 62
     4
100
AcDbVertex
100
AcDb2dVertex
 10
266.5290851019495
 20
416.4772068598832
 30
0.0
  0
VERTEX
  5
A14
330
A10
100
AcDbEntity
  8
0
  6
ByBlock
 62
     4
100
AcDbVertex
100
AcDb2dVertex
 10
38.85762197291109
 20
416.4772068598832
 30
0.0
  0
SEQEND
  5
A15
330
A10
100
AcDbEntity
  8
0
  6
ByBlock
 62
     4
  0
LINE
  5
A16
330
2
100
AcDbEntity
  8
LOGO
 62
     1
100
AcDbLine
 10
68.05702021573472
 20
392.5867901157547
 30
0.0
 11
68.05702021573472
 21
416.4772068598832
 31
0.0
  0
SOLID
  5
A17
330
2
100
AcDbEntity
  8
LOGO
 62
     5
100
AcDbTrace
 10
63.23235754398154
 20
399.2058596664321
 30
0.0
 11
64.95395576325234
 21
399.2058596664321
 31
0.0
 12
63.23235754398154
 22
415.5313600215874
 32
0.0
 13
64.95395576325234
 23
415.5313600215885
 33
0.0
  0
SOLID
  5
A18
330
2
100
AcDbEntity
  8
LOGO
 62
     5
100
AcDbTrace
 10
54.32753916844223
 20
399.2058596664326
 30
0.0
 11
56.04913738771313
 21
399.2058596664326
 31
0.0
 12
62.51997207393788
 22
414.2253199931755
 32
0.0
 13
60.79837385466692
 23
407.9127931891817
 33
0.0
  0
SOLID
  5
A19
330
2
100
AcDbEntity
  8
LOGO
 62
     5
100
AcDbTrace
 10
54.32753916844223
 20
400.5118996948445
 30
0.0
 11
56.04913738771313
 21
406.8244264988384
 31
0.0
 12
62.51997207393788
 22
415.5313600215885
 32
0.0
 13
60.79837385466692
 23
415.5313600215885
 33
0.0
  0
SOLID
  5
A1A
330
2
100
AcDbEntity
  8
LOGO
 62
     2
100
AcDbTrace
 10
53.61515369839873
 20
415.5313600215874
 30
0.0
 11
54.32753916844223
 21
415.5313600215874
 31
0.0
 12
53.61515369839873
 22
399.2058596664326
 32
0.0
 13
54.32753916844223
 23
399.2058596664326
 33
0.0
  0
SOLID
  5
A1B
330
2
100
AcDbEntity
  8
LOGO
 62
     5
100
AcDbTrace
 10
54.32753916844223
 20
415.5313600215874
 30
0.0
 11
56.04913738771313
 21
415.5313600215885
 31
0.0
 12
54.32753916844223
 22
400.5118996948445
 32
0.0
 13
56.04913738771313
 23
406.8244264988384
 33
0.0
  0
SOLID
  5
A1C
330
2
100
AcDbEntity
  8
LOGO
 62
     2
100
AcDbTrace
 10
44.71033532285889
 20
399.2058596664321
 30
0.0
 11
45.42272079290308
 21
399.2058596664326
 31
0.0
 12
53.61515369839873
 22
415.5313600215874
 32
0.0
 13
54.32753916844223
 23
415.5313600215874
 33
0.0
  0
SOLID
  5
A1D
330
2
100
AcDbEntity
  8
LOGO
 62
     5
100
AcDbTrace
 10
42.98873710358811
 20
399.2058596664326
 30
0.0
 11
44.71033532285889
 21
399.2058596664321
 31
0.0
 12
51.89355547912794
 22
415.5313600215885
 32
0.0
 13
53.61515369839873
 23
415.5313600215874
 33
0.0
  0
SOLID
  5
A1E
330
2
100
AcDbEntity
  8
LOGO
 62
     5
100
AcDbTrace
 10
45.42272079290308
 20
399.2058596664326
 30
0.0
 11
47.1443190121738
 21
399.2058596664326
 31
0.0
 12
53.61515369839873
 22
414.2253199931755
 32
0.0
 13
51.89355547912794
 23
407.9127931891817
 33
0.0
  0
SOLID
  5
A1F
330
2
100
AcDbEntity
  8
LOGO
 62
     5
100
AcDbTrace
 10
51.89355547912794
 20
399.2058596664326
 30
0.0
 11
53.61515369839873
 21
399.2058596664326
 31
0.0
 12
51.89355547912794
 22
407.9127931891817
 32
0.0
 13
53.61515369839873
 23
414.2253199931755
 33
0.0
  0
SOLID
  5
A20
330
2
100
AcDbEntity
  8
LOGO
 62
     5
100
AcDbTrace
 10
62.51997207393788
 20
414.2253199931755
 30
0.0
 11
60.79837385466692
 21
407.9127931891817
 31
0.0
 12
62.51997207393788
 22
399.2058596664321
 32
0.0
 13
60.79837385466692
 23
399.2058596664321
 33
0.0
  0
LINE
  5
A21
330
2
100
AcDbEntity
  8
LOGO
 62
     1
100
AcDbLine
 10
38.85762197291109
 20
376.6598456196691
 30
0.0
 11
38.85762197291109
 21
416.4772068598832
 31
0.0
  0
SOLID
  5
A22
330
2
100
AcDbEntity
  8
LOGO
 62
     2
100
AcDbTrace
 10
53.61515369839873
 20
399.2058596664326
 30
0.0
 11
54.32753916844223
 21
399.2058596664326
 31
0.0
 12
62.51997207393788
 22
415.5313600215885
 32
0.0
 13
63.23235754398154
 23
415.5313600215874
 33
0.0
  0
SOLID
  5
A23
330
2
100
AcDbEntity
  8
LOGO
 62
     2
100
AcDbTrace
 10
62.51997207393788
 20
415.5313600215885
 30
0.0
 11
63.23235754398154
 21
415.5313600215874
 31
0.0
 12
62.51997207393788
 22
399.2058596664321
 32
0.0
 13
63.23235754398154
 23
399.2058596664321
 33
0.0
  0
SOLID
  5
A24
330
2
100
AcDbEntity
  8
LOGO
 62
     5
100
AcDbTrace
 10
44.75945697273033
 20
396.237586874586
 30
0.0
 11
45.35311153109893
 21
396.237586874586
 31
0.0
 12
44.75945697273033
 22
393.26931408274
 32
0.0
 13
45.35311153109893
 23
393.26931408274
 33
0.0
  0
SOLID
  5
A25
330
2
100
AcDbEntity
  8
LOGO
 62
     5
100
AcDbTrace
 10
42.494024971614
 20
393.26931408274
 30
0.0
 11
43.08767952998283
 21
393.26931408274
 31
0.0
 12
44.75945697273033
 22
396.237586874586
 32
0.0
 13
45.35311153109893
 23
396.237586874586
 33
0.0
  0
SOLID
  5
A26
330
2
100
AcDbEntity
  8
LOGO
 62
     5
100
AcDbTrace
 10
42.494024971614
 20
396.237586874586
 30
0.0
 11
43.08767952998283
 21
396.237586874586
 31
0.0
 12
42.494024971614
 22
393.26931408274
 32
0.0
 13
43.08767952998283
 23
393.26931408274
 33
0.0
  0
SOLID
  5
A27
330
2
100
AcDbEntity
  8
LOGO
 62
     5
100
AcDbTrace
 10
40.22859297049836
 20
393.26931408274
 30
0.0
 11
40.82224752886832
 21
393.26931408274
 31
0.0
 12
42.494024971614
 22
396.237586874586
 32
0.0
 13
43.08767952998283
 23
396.237586874586
 33
0.0
  0
SOLID
  5
A28
330
2
100
AcDbEntity
  8
LOGO
 62
     5
100
AcDbTrace
 10
61.29306619815759
 20
396.237586874586
 30
0.0
 11
61.88672075652625
 21
396.237586874586
 31
0.0
 12
61.29306619815759
 22
393.26931408274
 32
0.0
 13
61.88672075652625
 23
393.26931408274
 33
0.0
  0
POLYLINE
  5
A29
330
2
100
AcDbEntity
  8
LOGO
 62
     5
100
AcDb2dPolyline
 66
     1
 10
0.0
 20
0.0
 30
0.0
 70
     1
 40
0.5946059278538631
 41
0.5946059278538631
  0
VERTEX
  5
A2A
330
A29
100
AcDbEntity
  8
LOGO
 62
     5
100
AcDbVertex
100
AcDb2dVertex
 10
59.21343187035041
 20
394.7534504786627
 30
0.0
 42
1.0
  0
VERTEX
  5
A2B
330
A29
100
AcDbEntity
  8
LOGO
 62
     5
100
AcDbVertex
100
AcDb2dVertex
 10
61.59185558176563
 20
394.7534504786627
 30
0.0
 42
1.0
  0
SEQEND
  5
A2C
330
A29
100
AcDbEntity
  8
LOGO
 62
     5
  0
CIRCLE
  5
A2D
330
2
100
AcDbEntity
  8
LOGO
 62
     5
100
AcDbCircle
 10
60.40264372605839
 20
394.753450478663
 30
0.0
 40
0.8904818375539457
  0
POLYLINE
  5
A2E
330
2
100
AcDbEntity
  8
LOGO
 62
     5
100
AcDb2dPolyline
 66
     1
 10
0.0
 20
0.0
 30
0.0
 70
     1
  0
VERTEX
  5
A2F
330
A2E
100
AcDbEntity
  8
LOGO
 62
     5
100
AcDbVertex
100
AcDb2dVertex
 10
59.51216188850423
 20
394.753450478663
 30
0.0
 42
1.000000057330635
  0
VERTEX
  5
A30
330
A2E
100
AcDbEntity
  8
LOGO
 62
     5
100
AcDbVertex
100
AcDb2dVertex
 10
61.29312556361242
 20
394.753450478663
 30
0.0
 42
1.000000057330635
  0
SEQEND
  5
A31
330
A2E
100
AcDbEntity
  8
LOGO
 62
     5
  0
SOLID
  5
A32
330
2
100
AcDbEntity
  8
LOGO
 62
     5
100
AcDbTrace
 10
55.85121295795312
 20
395.0502777578473
 30
0.0
 11
56.44486751632189
 21
395.0502777578473
 31
0.0
 12
55.85121295795312
 22
393.26931408274
 32
0.0
 13
56.44486751632189
 23
393.26931408274
 33
0.0
  0
SOLID
  5
A33
330
2
100
AcDbEntity
  8
LOGO
 62
     5
100
AcDbTrace
 10
57.63217663306062
 20
395.0502777578473
 30
0.0
 11
58.22583119142916
 21
395.0502777578473
 31
0.0
 12
57.63217663306062
 22
393.2693140827388
 32
0.0
 13
58.22583119142916
 23
393.2693140827388
 33
0.0
  0
SOLID
  5
A34
330
2
100
AcDbEntity
  8
LOGO
 62
     5
100
AcDbTrace
 10
52.78397795122646
 20
397.1280687121403
 30
0.0
 11
53.37763250959511
 21
397.1280687121403
 31
0.0
 12
52.78397795122646
 22
393.26931408274
 32
0.0
 13
53.37763250959511
 23
393.26931408274
 33
0.0
  0
SOLID
  5
A35
330
2
100
AcDbEntity
  8
LOGO
 62
     5
100
AcDbTrace
 10
54.07024928284556
 20
396.237586874586
 30
0.0
 11
54.66390384121439
 21
396.237586874586
 31
0.0
 12
54.07024928284556
 22
393.26931408274
 32
0.0
 13
54.66390384121439
 23
393.26931408274
 33
0.0
  0
SOLID
  5
A36
330
2
100
AcDbEntity
  8
LOGO
 62
     5
100
AcDbTrace
 10
49.12308838612966
 20
395.0502777578473
 30
0.0
 11
49.71674294449974
 21
395.0502777578473
 31
0.0
 12
49.12308838612966
 22
393.26931408274
 32
0.0
 13
49.71674294449974
 23
393.26931408274
 33
0.0
  0
SOLID
  5
A37
330
2
100
AcDbEntity
  8
LOGO
 62
     5
100
AcDbTrace
 10
47.34212471102239
 20
396.237586874586
 30
0.0
 11
47.93577926939128
 21
396.237586874586
 31
0.0
 12
47.34212471102239
 22
393.26931408274
 32
0.0
 13
47.93577926939128
 23
393.26931408274
 33
0.0
  0
POLYLINE
  5
A38
330
2
100
AcDbEntity
  8
LOGO
 62
     5
100
AcDb2dPolyline
 66
     1
 10
0.0
 20
0.0
 30
0.0
 70
     1
 40
0.5946059278538631
 41
0.5946059278538631
  0
VERTEX
  5
A39
330
A38
100
AcDbEntity
  8
LOGO
 62
     5
100
AcDbVertex
100
AcDb2dVertex
 10
50.7043436234195
 20
394.7534504786627
 30
0.0
 42
1.0
  0
VERTEX
  5
A3A
330
A38
100
AcDbEntity
  8
LOGO
 62
     5
100
AcDbVertex
100
AcDb2dVertex
 10
53.08276733483507
 20
394.7534504786627
 30
0.0
 42
1.0
  0
SEQEND
  5
A3B
330
A38
100
AcDbEntity
  8
LOGO
 62
     5
  0
SOLID
  5
A3C
330
2
100
AcDbEntity
  8
LOGO
 62
     5
100
AcDbTrace
 10
46.05585337940328
 20
396.237586874586
 30
0.0
 11
46.64950793777371
 21
396.237586874586
 31
0.0
 12
46.05585337940328
 22
393.2693140827388
 32
0.0
 13
46.64950793777371
 23
393.26931408274
 33
0.0
  0
POLYLINE
  5
A3D
330
2
100
AcDbEntity
  8
LOGO
 62
     5
100
AcDb2dPolyline
 66
     1
 10
0.0
 20
0.0
 30
0.0
 40
0.5946059278538631
 41
0.5946059278538631
  0
VERTEX
  5
A3E
330
A3D
100
AcDbEntity
  8
LOGO
 62
     5
100
AcDbVertex
100
AcDb2dVertex
 10
49.42134271954154
 20
395.0502777578473
 30
0.0
 42
1.0
  0
VERTEX
  5
A3F
330
A3D
100
AcDbEntity
  8
LOGO
 62
     5
100
AcDbVertex
100
AcDb2dVertex
 10
47.63752493597985
 20
395.0502777578473
 30
0.0
 42
1.0
  0
SEQEND
  5
A40
330
A3D
100
AcDbEntity
  8
LOGO
 62
     5
  0
SOLID
  5
A41
330
2
100
AcDbEntity
  8
LOGO
 62
     5
100
AcDbTrace
 10
46.05585337940328
 20
396.6531450654443
 30
0.0
 11
46.64950793777371
 21
396.6531450654443
 31
0.0
 12
46.05585337940328
 22
397.1280687121403
 32
0.0
 13
46.64950793777371
 23
397.1280687121403
 33
0.0
  0
POLYLINE
  5
A42
330
2
100
AcDbEntity
  8
LOGO
 62
     5
100
AcDb2dPolyline
 66
     1
 10
0.0
 20
0.0
 30
0.0
 40
0.5946059278538631
 41
0.5946059278538631
  0
VERTEX
  5
A43
330
A42
100
AcDbEntity
  8
LOGO
 62
     5
100
AcDbVertex
100
AcDb2dVertex
 10
57.93043096647176
 20
395.0502777578473
 30
0.0
 42
1.0
  0
VERTEX
  5
A44
330
A42
100
AcDbEntity
  8
LOGO
 62
     5
100
AcDbVertex
100
AcDb2dVertex
 10
56.14661318291024
 20
395.0502777578473
 30
0.0
 42
1.0
  0
SEQEND
  5
A45
330
A42
100
AcDbEntity
  8
LOGO
 62
     5
  0
POLYLINE
  5
A46
330
2
100
AcDbEntity
  8
LOGO
 62
     5
100
AcDb2dPolyline
 66
     1
 10
0.0
 20
0.0
 30
0.0
 40
0.5946059278538631
 41
0.5946059278538631
  0
VERTEX
  5
A47
330
A46
100
AcDbEntity
  8
LOGO
 62
     5
100
AcDbVertex
100
AcDb2dVertex
 10
56.14946729136443
 20
395.0502777578473
 30
0.0
 42
1.0
  0
VERTEX
  5
A48
330
A46
100
AcDbEntity
  8
LOGO
 62
     5
100
AcDbVertex
100
AcDb2dVertex
 10
54.3656495078028
 20
395.0502777578473
 30
0.0
 42
1.0
  0
SEQEND
  5
A49
330
A46
100
AcDbEntity
  8
LOGO
 62
     5
  0
SOLID
  5
A4A
330
2
100
AcDbEntity
  8
LOGO
 62
     5
100
AcDbTrace
 10
64.36030120488362
 20
395.0502777578473
 30
0.0
 11
64.95395576325234
 21
395.0502777578473
 31
0.0
 12
64.36030120488362
 22
393.26931408274
 32
0.0
 13
64.95395576325234
 23
393.26931408274
 33
0.0
  0
LINE
  5
A4B
330
2
100
AcDbEntity
  8
LOGO
 62
     5
100
AcDbLine
 10
64.95395576325234
 20
393.26931408274
 30
0.0
 11
64.95395576325234
 21
395.0502777578473
 31
0.0
  0
SOLID
  5
A4C
330
2
100
AcDbEntity
  8
LOGO
 62
     5
100
AcDbTrace
 10
62.57933752977499
 20
393.26931408274
 30
0.0
 11
63.17299208814484
 21
393.26931408274
 31
0.0
 12
62.57933752977499
 22
396.237586874586
 32
0.0
 13
63.17299208814484
 23
396.237586874586
 33
0.0
  0
POLYLINE
  5
A4D
330
2
100
AcDbEntity
  8
LOGO
 62
     5
100
AcDb2dPolyline
 66
     1
 10
0.0
 20
0.0
 30
0.0
 40
0.5946059278538631
 41
0.5946059278538631
  0
VERTEX
  5
A4E
330
A4D
100
AcDbEntity
  8
LOGO
 62
     5
100
AcDbVertex
100
AcDb2dVertex
 10
64.65855553829493
 20
395.0502777578473
 30
0.0
 42
1.0
  0
VERTEX
  5
A4F
330
A4D
100
AcDbEntity
  8
LOGO
 62
     5
100
AcDbVertex
100
AcDb2dVertex
 10
62.87473775473336
 20
395.0502777578473
 30
0.0
 42
1.0
  0
SEQEND
  5
A50
330
A4D
100
AcDbEntity
  8
LOGO
 62
     5
  0
TEXT
  5
A54
330
2
100
AcDbEntity
  8
LOGO
 62
     7
100
AcDbText
 10
128.7625871695952
 20
399.0338984508436
 30
0.0
 40
5.308981498695207
  1
Order example:
 41
0.8
  7
CHINESET
100
AcDbText
  0
TEXT
  5
A55
330
2
100
AcDbEntity
  8
LOGO
 62
     7
100
AcDbText
 10
129.7150623539519
 20
406.5078451623609
 30
0.0
 40
7.963472248042809
  1
訂購代號:
  7
CHINESET
100
AcDbText
  0
LINE
  5
A56
330
2
100
AcDbEntity
  8
LOGO
 62
     1
100
AcDbLine
 10
99.910909207906
 20
392.5867901157547
 30
0.0
 11
99.910909207906
 21
416.4772068598832
 31
0.0
  0
LINE
  5
A57
330
2
100
AcDbEntity
  8
LOGO
 62
     1
100
AcDbLine
 10
126.455816701382
 20
376.6598456196691
 30
0.0
 11
126.455816701382
 21
416.4772068598832
 31
0.0
  0
TEXT
  5
A58
330
2
100
AcDbEntity
  8
LOGO
 62
     6
100
AcDbText
 10
105.8841699294081
 20
394.5776581777655
 30
0.0
 40
3.981736124021404
  1
m/m
  7
CHINESET
 72
     1
 11
112.8996097669696
 21
396.5685262397762
 31
0.0
100
AcDbText
 73
     2
  0
TEXT
  5
A59
330
2
100
AcDbEntity
  8
LOGO
 62
     6
100
AcDbText
 10
105.8841699294081
 20
410.504602673851
 30
0.0
 40
3.981736124021404
  1
1 : 1
  7
CHINESET
 72
     1
 11
112.8996097669696
 21
412.4954707358617
 31
0.0
100
AcDbText
 73
     2
  0
CIRCLE
  5
A5A
330
2
100
AcDbEntity
  8
LOGO
  6
Continuous
 62
     6
100
AcDbCircle
 10
107.2835916692133
 20
404.5405154505258
 30
0.0
 40
1.354562711865852
  0
CIRCLE
  5
A5B
330
2
100
AcDbEntity
  8
LOGO
  6
Continuous
 62
     6
100
AcDbCircle
 10
107.2835916692133
 20
404.5405154505258
 30
0.0
 40
2.311889713110522
  0
LINE
  5
A5C
330
2
100
AcDbEntity
  8
LOGO
  6
Continuous
 62
     6
100
AcDbLine
 10
114.5641333449382
 20
405.8950781623917
 30
0.0
 11
121.8117748867382
 21
406.8524051636363
 31
0.0
  0
LINE
  5
A5D
330
2
100
AcDbEntity
  8
LOGO
  6
Continuous
 62
     6
100
AcDbLine
 10
114.5641333449382
 20
403.18595273866
 30
0.0
 11
121.8117748867382
 21
402.2286257374153
 31
0.0
  0
LINE
  5
A5E
330
2
100
AcDbEntity
  8
LOGO
 62
     6
100
AcDbLine
 10
114.5641333449382
 20
403.18595273866
 30
0.0
 11
114.5641333449382
 21
405.8950781623917
 31
0.0
  0
LINE
  5
A5F
330
2
100
AcDbEntity
  8
LOGO
 62
     6
100
AcDbLine
 10
121.8117748867382
 20
402.2286257374153
 30
0.0
 11
121.8117748867382
 21
406.8524051636363
 31
0.0
  0
LINE
  5
A60
330
2
100
AcDbEntity
  8
LOGO
 62
     6
100
AcDbLine
 10
203.0787167408162
 20
400.5502623637976
 30
0.0
 11
203.0787167408162
 21
394.5776581777655
 31
0.0
  0
TEXT
  5
A61
330
2
100
AcDbEntity
  8
LOGO
 62
     6
100
AcDbText
 10
197.6591314608981
 20
387.3457384984405
 30
0.0
 40
5.308981498695207
  1
型號
  7
CHINESET
 72
     4
 11
203.0787167408162
 21
389.9322993664072
 31
0.0
100
AcDbText
  0
LINE
  5
A62
330
2
100
AcDbEntity
  8
LOGO
 62
     6
100
AcDbLine
 10
216.3511704875542
 20
394.5776581777655
 30
0.0
 11
216.3511704875542
 21
379.9779590563537
 31
0.0
  0
LINE
  5
A63
330
2
100
AcDbEntity
  8
LOGO
 62
     6
100
AcDbLine
 10
189.8062629940782
 20
394.5776581777655
 30
0.0
 11
189.8062629940782
 21
379.9779590563536
 31
0.0
  0
TEXT
  5
A64
330
2
100
AcDbEntity
  8
LOGO
  6
Continuous
 62
     6
100
AcDbText
 10
196.7585006709409
 20
381.6370157746959
 30
0.0
 40
3.318113436684504
  1
Model
  7
CHINESET
 72
     4
 11
203.0787167408162
 21
383.2960724930382
 31
0.0
100
AcDbText
  0
LINE
  5
A65
330
2
100
AcDbEntity
  8
LOGO
 62
     6
100
AcDbLine
 10
216.3511704875542
 20
379.9779590563537
 30
0.0
 11
189.8062629940782
 21
379.9779590563536
 31
0.0
  0
LINE
  5
A66
330
2
100
AcDbEntity
  8
LOGO
 62
     6
100
AcDbLine
 10
216.3511704875542
 20
394.5776581777655
 30
0.0
 11
189.8062629940782
 21
394.5776581777655
 31
0.0
  0
LINE
  5
A67
330
2
100
AcDbEntity
  8
LOGO
 62
     6
100
AcDbLine
 10
224.9346035785387
 20
412.4954707358617
 30
0.0
 11
181.2228299030936
 21
412.4954707358617
 31
0.0
  0
LINE
  5
A68
330
2
100
AcDbEntity
  8
LOGO
 62
     6
100
AcDbLine
 10
224.9346035785387
 20
400.5502623637976
 30
0.0
 11
181.2228299030936
 21
400.5502623637976
 31
0.0
  0
TEXT
  5
A69
330
2
100
AcDbEntity
  8
LOGO
  6
Continuous
 62
     7
100
AcDbText
 10
183.9864320289379
 20
403.2047531131452
 30
0.0
 40
6.636226873369009
  1
MSC500
  7
CHINESET
 72
     1
 11
202.7890748368168
 21
406.5228665498296
 31
0.0
100
AcDbText
 73
     2
  0
LINE
  5
A6A
330
2
100
AcDbEntity
  8
LOGO
 62
     6
100
AcDbLine
 10
181.2228299030936
 20
412.4954707358617
 30
0.0
 11
181.2228299030936
 21
400.5502623637976
 31
0.0
  0
LINE
  5
A6B
330
2
100
AcDbEntity
  8
LOGO
 62
     6
100
AcDbLine
 10
224.9346035785387
 20
412.4954707358617
 30
0.0
 11
224.9346035785387
 21
400.5502623637976
 31
0.0
  0
TEXT
  5
A6C
330
2
100
AcDbEntity
  8
LOGO
 62
     6
100
AcDbText
 10
236.754030658913
 20
387.2778086170596
 30
0.0
 40
5.308981498695207
  1
配管口徑
 41
0.9
  7
CHINESET
 72
     4
 11
246.3599690581146
 21
389.9322993664072
 31
0.0
100
AcDbText
  0
LINE
  5
A6D
330
2
100
AcDbEntity
  8
LOGO
 62
     6
100
AcDbLine
 10
260.0693640333902
 20
394.5776581777655
 30
0.0
 11
232.6505740828391
 21
394.5776581777655
 31
0.0
  0
TEXT
  5
A6E
330
2
100
AcDbEntity
  8
LOGO
  6
Continuous
 62
     6
100
AcDbText
 10
237.2588579174943
 20
381.6370157746959
 30
0.0
 40
3.318113436684504
  1
Bore size
 41
0.8
  7
CHINESET
 72
     4
 11
246.3599690581146
 21
383.2960724930381
 31
0.0
100
AcDbText
  0
LINE
  5
A6F
330
2
100
AcDbEntity
  8
LOGO
 62
     6
100
AcDbLine
 10
260.0693640333902
 20
379.9779590563537
 30
0.0
 11
232.6505740828391
 21
379.9779590563536
 31
0.0
  0
LINE
  5
A72
330
2
100
AcDbEntity
  8
LOGO
 62
     6
100
AcDbLine
 10
249.0144598074621
 20
400.5502623637976
 30
0.0
 11
249.0144598074621
 21
394.5776581777655
 31
0.0
  0
LINE
  5
A82
330
2
100
AcDbEntity
  8
LOGO
 62
     6
100
AcDbLine
 10
232.6505740828391
 20
394.5776581777655
 30
0.0
 11
232.6505740828391
 21
379.9779590563536
 31
0.0
  0
LINE
  5
A84
330
2
100
AcDbEntity
  8
LOGO
  6
Continuous
 62
     7
100
AcDbLine
 10
229.7592963729238
 20
406.4805547339868
 30
0.0
 11
235.0338645287414
 21
406.4805547339868
 31
0.0
  0
LINE
  5
A90
330
2
100
AcDbEntity
  8
LOGO
 62
     6
100
AcDbLine
 10
260.0693640333902
 20
412.4954707358617
 30
0.0
 11
237.959555581534
 21
412.4954707358617
 31
0.0
  0
LINE
  5
A91
330
2
100
AcDbEntity
  8
LOGO
 62
     6
100
AcDbLine
 10
260.0693640333902
 20
400.5502623637974
 30
0.0
 11
237.959555581534
 21
400.5502623637976
 31
0.0
  0
TEXT
  5
A92
330
2
100
AcDbEntity
  8
LOGO
  6
Continuous
 62
     7
100
AcDbText
 10
244.2616574938528
 20
403.1294978822341
 30
0.0
 40
6.636226873369009
  1
?A
  7
CHINESET
 72
     1
 11
249.6338411532467
 21
406.4476113189186
 31
0.0
100
AcDbText
 73
     2
  0
LINE
  5
A93
330
2
100
AcDbEntity
  8
LOGO
 62
     6
100
AcDbLine
 10
237.959555581534
 20
412.4954707358617
 30
0.0
 11
237.959555581534
 21
400.5502623637976
 31
0.0
  0
LINE
  5
A94
330
2
100
AcDbEntity
  8
LOGO
 62
     6
100
AcDbLine
 10
260.0693640333902
 20
412.4954707358617
 30
0.0
 11
260.0693640333902
 21
400.5502623637974
 31
0.0
  0
LINE
  5
A95
330
2
100
AcDbEntity
  8
LOGO
 62
     1
100
AcDbLine
 10
266.5290851019495
 20
376.6598456196691
 30
0.0
 11
266.5290851019495
 21
416.4772068598832
 31
0.0
  0
LINE
  5
A96
330
2
100
AcDbEntity
  8
LOGO
 62
     6
100
AcDbLine
 10
260.0693640333902
 20
394.5776581777655
 30
0.0
 11
260.0693640333902
 21
379.9229085099261
 31
0.0
  0
INSERT
  5
BE7
330
2
100
AcDbEntity
  8
AM_5
100
AcDbBlockReference
  2
*S6
 10
0.0
 20
0.0
 30
0.0
  0
TEXT
  5
BE8
330
2
100
AcDbEntity
  8
AM_5
100
AcDbText
 10
231.4517657505012
 20
460.6543876720699
 30
0.0
 40
3.0
  1
2-Rc1/2
100
AcDbText
  0
TEXT
  5
BE9
330
2
100
AcDbEntity
  8
AM_5
100
AcDbText
 10
231.4517657505012
 20
455.9288240502426
 30
0.0
 40
3.0
  1
2-Rc3/4
100
AcDbText
  0
ENDSEC
  0
SECTION
  2
OBJECTS
  0
DICTIONARY
  5
8
330
0
100
AcDbDictionary
281
     1
  3
ACAD_COLOR
350
D7E
  3
ACAD_GROUP
350
21
  3
ACAD_LAYOUT
350
C
  3
ACAD_MATERIAL
350
D7D
  3
ACAD_MLINESTYLE
350
22
  3
ACAD_PLOTSETTINGS
350
23
  3
ACAD_PLOTSTYLENAME
350
7
  3
ACAD_TABLESTYLE
350
D7F
  3
AcDbVariableDictionary
350
168
  3
AcmDictionary
350
18A
  3
AMG
350
170
  3
AMGSNAPSETTINGS
350
1BB
  3
MAPISURF_MODULE
350
E0D
  0
DICTIONARY
  5
3
330
2
100
AcDbDictionary
280
     1
281
     1
  3
ACAD_INDEX
360
2D2
  3
ACAD_LAYOUTSELFREF
360
D4D
  0
DICTIONARY
  5
D18
330
D
100
AcDbDictionary
280
     1
281
     1
  3
ACAD_LAYOUTSELFREF
360
D52
  0
DICTIONARY
  5
30C
330
2FF
100
AcDbDictionary
280
     1
281
     1
  3
ACAD_DIMASSOC
360
316
  0
DICTIONARY
  5
3A1
330
394
100
AcDbDictionary
280
     1
281
     1
  3
ACAD_DIMASSOC
360
3AB
  0
DICTIONARY
  5
422
330
415
100
AcDbDictionary
280
     1
281
     1
  3
ACAD_DIMASSOC
360
42C
  0
DICTIONARY
  5
D7E
102
{ACAD_REACTORS
330
8
102
}
330
8
100
AcDbDictionary
281
     1
  0
DICTIONARY
  5
21
102
{ACAD_REACTORS
330
8
102
}
330
8
100
AcDbDictionary
281
     1
  0
DICTIONARY
  5
C
102
{ACAD_REACTORS
330
8
102
}
330
8
100
AcDbDictionary
281
     1
  3
Layout1
350
10
  3
Model
350
B
  0
DICTIONARY
  5
D7D
102
{ACAD_REACTORS
330
8
102
}
330
8
100
AcDbDictionary
281
     1
  0
DICTIONARY
  5
22
102
{ACAD_REACTORS
330
8
102
}
330
8
100
AcDbDictionary
281
     1
  3
Standard
350
24
  0
DICTIONARY
  5
23
102
{ACAD_REACTORS
330
8
102
}
330
8
100
AcDbDictionary
281
     1
  0
ACDBDICTIONARYWDFLT
  5
7
102
{ACAD_REACTORS
330
8
102
}
330
8
100
AcDbDictionary
281
     1
  3
Normal
350
6
100
AcDbDictionaryWithDefault
340
6
  0
DICTIONARY
  5
D7F
102
{ACAD_REACTORS
330
8
102
}
330
8
100
AcDbDictionary
281
     1
  3
Standard
350
D80
  0
DICTIONARY
  5
168
102
{ACAD_REACTORS
330
8
102
}
330
8
100
AcDbDictionary
281
     1
  3
CTABLESTYLE
350
E68
  3
DIMASSOC
350
16A
  3
HIDETEXT
350
169
  3
INDEXCTL
350
1F1
  0
DICTIONARY
  5
18A
102
{ACAD_REACTORS
330
8
102
}
330
8
100
AcDbDictionary
281
     1
  3
AcmBOMDATA
350
E3F
  3
AcmStdDictionary
350
190
  3
AMDTSECTSYM_ARROWCOLOR
350
E5A
  0
DICTIONARY
  5
170
102
{ACAD_REACTORS
330
8
102
}
330
8
100
AcDbDictionary
281
     1
  3
AcMgSettings
350
171
  3
AMGLAYCFG
350
E4D
  0
DICTIONARY
  5
1BB
102
{ACAD_REACTORS
330
8
102
}
330
8
100
AcDbDictionary
281
     1
  0
DICTIONARY
  5
2D2
102
{ACAD_REACTORS
330
3
102
}
330
3
100
AcDbDictionary
281
     1
  3
*A1
350
2D3
  0
XRECORD
  5
D4D
102
{ACAD_REACTORS
330
3
102
}
330
3
100
AcDbXrecord
280
     1
340
2
  0
XRECORD
  5
D52
102
{ACAD_REACTORS
330
D18
102
}
330
D18
100
AcDbXrecord
280
     1
340
D
  0
DIMASSOC
  5
316
102
{ACAD_REACTORS
330
30C
102
}
330
30C
100
AcDbDimAssoc
330
2FF
 90
        3
 70
     0
 71
     0
  1
AcDbOsnapPointRef
 72
    13
331
A2
 73
     0
 91
        0
 40
0.0
 10
62.8670311244133
 20
463.5217096834796
 30
0.0
 75
     0
  1
AcDbOsnapPointRef
 72
    13
331
A7
 73
     0
 91
        0
 40
0.0
 10
136.8670311244133
 20
463.5217096834796
 30
0.0
 75
     0
  0
DIMASSOC
  5
3AB
102
{ACAD_REACTORS
330
3A1
102
}
330
3A1
100
AcDbDimAssoc
330
394
 90
        3
 70
     0
 71
     0
  1
AcDbOsnapPointRef
 72
     6
331
2E
 73
     0
 91
        0
 40
0.9872764572535331
 10
99.86703112441331
 20
543.5217096834795
 30
0.0
332
1DC
 74
     0
 92
        0
 75
     0
  1
AcDbOsnapPointRef
 72
     1
331
BA
 73
     0
 91
        0
 40
0.0
 10
110.8670311244133
 20
438.5217096834796
 30
0.0
 75
     0
  0
DIMASSOC
  5
42C
102
{ACAD_REACTORS
330
422
102
}
330
422
100
AcDbDimAssoc
330
415
 90
        3
 70
     0
 71
     0
  1
AcDbOsnapPointRef
 72
    13
331
129
 73
     0
 91
        0
 40
0.0
 10
179.3759725854037
 20
445.0217096834795
 30
0.0
 75
     0
  1
AcDbOsnapPointRef
 72
     1
331
129
 73
     0
 91
        0
 40
0.0
 10
227.3759725854037
 20
445.0217096834795
 30
0.0
 75
     0
  0
LAYOUT
  5
10
102
{ACAD_REACTORS
330
C
102
}
330
C
100
AcDbPlotSettings
  1

  2
自動 RD 上的 Epson Stylus Photo 750 單色
  4
A4
  6

 40
3.757083177566528
 41
14.7637300491333
 42
3.757080078125
 43
3.757080078125
 44
209.9733276367187
 45
296.9683227539062
 46
0.0
 47
41.65999999999999
 48
0.0
 49
0.0
140
0.0
141
0.0
142
1.0
143
0.8681786641820179
 70
   692
 72
     1
 73
     0
 74
     1
  7
單色出圖.ctb
 75
     0
147
1.151836645216548
 76
     0
 77
     2
 78
   300
148
-36.86482501760941
149
6.54834285593597
100
AcDbLayout
  1
Layout1
 70
     1
 71
     1
 10
33.60300556328897
 20
-55.53422143815931
 11
215.8973686647887
 21
202.2873403147015
 12
0.0
 22
0.0
 32
0.0
 14
36.86482501760941
 24
-6.54834285593597
 34
-0.0015258207003583
 15
212.6355519013372
 25
162.8571859591048
 35
0.0000000349246037
146
0.0
 13
0.0
 23
0.0
 33
0.0
 16
1.0
 26
0.0
 36
0.0
 17
0.0
 27
1.0
 37
0.0
 76
     0
330
D
  0
LAYOUT
  5
B
102
{ACAD_REACTORS
330
C
102
}
330
C
100
AcDbPlotSettings
  1

  2
自動 RD 上的 Epson Stylus Photo 750 單色
  4
A4
  6

 40
3.757083177566528
 41
14.7637300491333
 42
3.757080078125
 43
3.757080078125
 44
209.9733276367187
 45
296.9683227539062
 46
0.0
 47
0.0
 48
0.0
 49
0.0
140
0.0
141
0.0
142
1.0
143
1.0
 70
 11952
 72
     1
 73
     1
 74
     0
  7

 75
     0
147
1.0
 76
     0
 77
     2
 78
   300
148
156.3059917323161
149
162.8914056613569
100
AcDbLayout
  1
Model
 70
     1
 71
     0
 10
0.0
 20
0.0
 11
12.0
 21
9.0
 12
0.0
 22
0.0
 32
0.0
 14
0.0
 24
0.0
 34
0.0
 15
0.0
 25
0.0
 35
0.0
146
0.0
 13
0.0
 23
0.0
 33
0.0
 16
1.0
 26
0.0
 36
0.0
 17
0.0
 27
1.0
 37
0.0
 76
     0
330
2
  0
MLINESTYLE
  5
24
102
{ACAD_REACTORS
330
22
102
}
330
22
100
AcDbMlineStyle
  2
STANDARD
 70
     0
  3

 62
   256
 51
90.0
 52
90.0
 71
     2
 49
0.5
 62
   256
  6
BYLAYER
 49
-0.5
 62
   256
  6
BYLAYER
  0
ACDBPLACEHOLDER
  5
6
102
{ACAD_REACTORS
330
7
102
}
330
7
  0
TABLESTYLE
  5
D80
102
{ACAD_REACTORS
330
D7F
102
}
330
D7F
100
AcDbTableStyle
  3
Standard
 70
     0
 71
     8
 40
1.5
 41
1.5
280
     0
281
     0
  7
STANDARD
140
4.5
170
     2
 62
     0
 63
     7
283
     0
274
    -2
284
     1
 64
     0
275
    -2
285
     1
 65
     0
276
    -2
286
     1
 66
     0
277
    -2
287
     1
 67
     0
278
    -2
288
     1
 68
     0
279
    -2
289
     1
 69
     0
  7
STANDARD
140
6.0
170
     5
 62
     0
 63
     7
283
     0
274
    -2
284
     1
 64
     0
275
    -2
285
     1
 65
     0
276
    -2
286
     1
 66
     0
277
    -2
287
     1
 67
     0
278
    -2
288
     1
 68
     0
279
    -2
289
     1
 69
     0
  7
STANDARD
140
4.5
170
     5
 62
     0
 63
     7
283
     0
274
    -2
284
     1
 64
     0
275
    -2
285
     1
 65
     0
276
    -2
286
     1
 66
     0
277
    -2
287
     1
 67
     0
278
    -2
288
     1
 68
     0
279
    -2
289
     1
 69
     0
  0
DICTIONARYVAR
  5
E68
102
{ACAD_REACTORS
330
168
102
}
330
168
100
DictionaryVariables
280
     0
  1
STANDARD
  0
DICTIONARYVAR
  5
16A
102
{ACAD_REACTORS
330
168
102
}
330
168
100
DictionaryVariables
280
     0
  1
2
  0
DICTIONARYVAR
  5
169
102
{ACAD_REACTORS
330
168
102
}
330
168
100
DictionaryVariables
280
     0
  1
1
  0
DICTIONARYVAR
  5
1F1
102
{ACAD_REACTORS
330
168
102
}
330
168
100
DictionaryVariables
280
     0
  1
1
  0
ACMDATADICTIONARY
  5
E3F
102
{ACAD_REACTORS
330
18A
102
}
330
18A
100
AcDbDictionary
281
     1
  3
*A1
350
E40
100
AcmDataDictionary
  0
DICTIONARY
  5
190
102
{ACAD_REACTORS
330
18A
102
}
330
18A
100
AcDbDictionary
281
     1
  3
ISO
350
E4C
  0
XRECORD
  5
E5A
102
{ACAD_REACTORS
330
18A
102
}
330
18A
100
AcDbXrecord
280
     1
 90
-1023410169
  0
DICTIONARY
  5
171
102
{ACAD_REACTORS
330
170
102
}
330
170
100
AcDbDictionary
281
     1
  3
DWGSETTINGS
350
D89
  3
TRANSSETTINGS
350
D8D
  0
LAYER_INDEX
  5
2D3
102
{ACAD_REACTORS
330
2D2
102
}
330
2D2
100
AcDbIndex
 40
2456730.342898391
100
AcDbLayerIndex
  8
0
360
2D4
 90
       17
  8
Defpoints
360
2D5
 90
        0
  8
AM_7
360
2D6
 90
       13
  8
AM_VIS
360
2D7
 90
      286
  8
AM_5
360
2D8
 90
        7
  8
AM_0N
360
2D9
 90
        7
  8
AM_7N
360
2DA
 90
        0
  8
LOGO
360
2DB
 90
       86
  0
ACMDATAENTRYBLOCK
  5
E40
102
{ACAD_REACTORS
330
E3F
102
}
330
E3F
100
AcmDataEntry
100
AcmDataEntryBlock
  0
IDBUFFER
  5
2D4
330
0
100
AcDbIdBuffer
330
25
330
4E
330
4F
330
1D3
330
1DB
330
1DC
330
1F6
330
1F7
330
1F8
330
25A
330
2A2
330
2A4
330
2C7
330
2CA
330
2CE
330
2D0
330
A10
  0
IDBUFFER
  5
2D5
330
0
100
AcDbIdBuffer
  0
IDBUFFER
  5
2D6
330
0
100
AcDbIdBuffer
330
26
330
29
330
2A
330
2B
330
2C
330
2D
330
2E
330
2F
330
50
330
1CF
330
1D0
330
1D1
330
1D2
  0
IDBUFFER
  5
2D7
330
0
100
AcDbIdBuffer
330
51
330
53
330
54
330
55
330
56
330
57
330
58
330
59
330
5A
330
5B
330
5C
330
5D
330
5E
330
5F
330
60
330
61
330
62
330
63
330
64
330
65
330
66
330
67
330
68
330
69
330
6A
330
6B
330
6C
330
6D
330
6E
330
6F
330
70
330
71
330
72
330
73
330
74
330
75
330
76
330
77
330
78
330
79
330
7A
330
7B
330
7C
330
7D
330
7E
330
7F
330
80
330
81
330
82
330
83
330
84
330
85
330
86
330
87
330
88
330
89
330
8A
330
8B
330
8C
330
8D
330
8E
330
8F
330
90
330
91
330
92
330
93
330
94
330
95
330
96
330
97
330
98
330
99
330
9A
330
9B
330
9C
330
9D
330
9E
330
9F
330
A0
330
A1
330
A2
330
A3
330
A4
330
A5
330
A6
330
A7
330
A8
330
A9
330
AA
330
AB
330
AC
330
AD
330
AE
330
AF
330
B0
330
B1
330
B2
330
B3
330
B4
330
B5
330
B6
330
B7
330
B8
330
B9
330
BA
330
BB
330
BC
330
BD
330
BE
330
BF
330
C0
330
C1
330
C2
330
C3
330
C4
330
C5
330
C6
330
C7
330
C8
330
C9
330
CA
330
CB
330
CC
330
CD
330
CE
330
CF
330
D0
330
D1
330
D2
330
D3
330
D4
330
D5
330
D6
330
D7
330
D8
330
D9
330
DA
330
DB
330
DC
330
DD
330
DE
330
DF
330
E0
330
E1
330
E2
330
E3
330
E4
330
E5
330
E6
330
E7
330
E8
330
E9
330
EA
330
EB
330
EC
330
ED
330
EE
330
EF
330
F0
330
F1
330
F2
330
F3
330
F4
330
F5
330
F6
330
F7
330
F8
330
F9
330
FA
330
FB
330
FC
330
FD
330
FE
330
FF
330
100
330
101
330
102
330
104
330
105
330
106
330
107
330
108
330
109
330
10A
330
10B
330
10C
330
10D
330
10E
330
10F
330
110
330
111
330
112
330
113
330
114
330
115
330
116
330
117
330
118
330
119
330
11A
330
11B
330
11C
330
11D
330
11E
330
11F
330
120
330
121
330
122
330
123
330
124
330
125
330
126
330
127
330
128
330
129
330
12A
330
12B
330
12C
330
12D
330
12E
330
12F
330
130
330
131
330
132
330
133
330
134
330
135
330
136
330
137
330
138
330
139
330
13A
330
13B
330
13C
330
13D
330
13E
330
13F
330
140
330
141
330
142
330
143
330
144
330
145
330
146
330
147
330
148
330
149
330
14A
330
14B
330
14C
330
14D
330
14E
330
14F
330
150
330
151
330
152
330
153
330
154
330
155
330
156
330
157
330
158
330
159
330
15A
330
15B
330
15C
330
15D
330
15E
330
15F
330
160
330
161
330
162
330
163
330
164
330
24E
330
24F
330
250
330
252
330
253
330
254
330
2C8
330
2C9
330
2CB
330
2CC
330
2CD
330
2CF
  0
IDBUFFER
  5
2D8
330
0
100
AcDbIdBuffer
330
41
330
2FF
330
394
330
415
330
BE7
330
BE8
330
BE9
  0
IDBUFFER
  5
2D9
330
0
100
AcDbIdBuffer
330
3FD
330
3FF
330
400
330
402
330
403
330
404
330
405
  0
IDBUFFER
  5
2DA
330
0
100
AcDbIdBuffer
  0
IDBUFFER
  5
2DB
330
0
100
AcDbIdBuffer
330
A06
330
A07
330
A08
330
A09
330
A0A
330
A0B
330
A0C
330
A0D
330
A0E
330
A0F
330
A16
330
A17
330
A18
330
A19
330
A1A
330
A1B
330
A1C
330
A1D
330
A1E
330
A1F
330
A20
330
A21
330
A22
330
A23
330
A24
330
A25
330
A26
330
A27
330
A28
330
A29
330
A2D
330
A2E
330
A32
330
A33
330
A34
330
A35
330
A36
330
A37
330
A38
330
A3C
330
A3D
330
A41
330
A42
330
A46
330
A4A
330
A4B
330
A4C
330
A4D
330
A54
330
A55
330
A56
330
A57
330
A58
330
A59
330
A5A
330
A5B
330
A5C
330
A5D
330
A5E
330
A5F
330
A60
330
A61
330
A62
330
A63
330
A64
330
A65
330
A66
330
A67
330
A68
330
A69
330
A6A
330
A6B
330
A6C
330
A6D
330
A6E
330
A6F
330
A72
330
A82
330
A84
330
A90
330
A91
330
A92
330
A93
330
A94
330
A95
330
A96
  0
ENDSEC
  0
EOF
