  0
SECTION
  2
HEADER
  9
$ACADVER
  1
AC1018
  9
$ACADMAINTVER
 70
    39
  9
$DWGCODEPAGE
  3
ANSI_950
  9
$CUSTOMPROPERTYTAG
  1
AmdtFileType
  9
$CUSTOMPROPERTY
  1
84
  9
$INSBASE
 10
0.0
 20
0.0
 30
0.0
  9
$EXTMIN
 10
148.6512995972432
 20
80.05370376336871
 30
0.0
  9
$EXTMAX
 10
421.8570553520892
 20
397.5934159072971
 30
0.0
  9
$LIMMIN
 10
0.0
 20
0.0
  9
$LIMMAX
 10
420.0
 20
297.0
  9
$ORTHOMODE
 70
     0
  9
$REGENMODE
 70
     1
  9
$FILLMODE
 70
     1
  9
$QTEXTMODE
 70
     0
  9
$MIRRTEXT
 70
     1
  9
$LTSCALE
 40
1.0
  9
$ATTMODE
 70
     1
  9
$TEXTSIZE
 40
3.0
  9
$TRACEWID
 40
1.0
  9
$TEXTSTYLE
  7
STANDARD
  9
$CLAYER
  8
0
  9
$CELTYPE
  6
ByLayer
  9
$CECOLOR
 62
   256
  9
$CELTSCALE
 40
1.0
  9
$DISPSILH
 70
     0
  9
$DIMSCALE
 40
1.0
  9
$DIMASZ
 40
3.0
  9
$DIMEXO
 40
2.0
  9
$DIMDLI
 40
7.0
  9
$DIMRND
 40
0.0
  9
$DIMDLE
 40
0.0
  9
$DIMEXE
 40
1.0
  9
$DIMTP
 40
0.1
  9
$DIMTM
 40
0.1
  9
$DIMTXT
 40
3.0
  9
$DIMCEN
 40
0.0
  9
$DIMTSZ
 40
0.0
  9
$DIMTOL
 70
     0
  9
$DIMLIM
 70
     0
  9
$DIMTIH
 70
     0
  9
$DIMTOH
 70
     0
  9
$DIMSE1
 70
     0
  9
$DIMSE2
 70
     0
  9
$DIMTAD
 70
     1
  9
$DIMZIN
 70
     8
  9
$DIMBLK
  1

  9
$DIMASO
 70
     1
  9
$DIMSHO
 70
     1
  9
$DIMPOST
  1

  9
$DIMAPOST
  1
"
  9
$DIMALT
 70
     0
  9
$DIMALTD
 70
     2
  9
$DIMALTF
 40
0.0393701
  9
$DIMLFAC
 40
1.0
  9
$DIMTOFL
 70
     1
  9
$DIMTVP
 40
0.0
  9
$DIMTIX
 70
     0
  9
$DIMSOXD
 70
     0
  9
$DIMSAH
 70
     0
  9
$DIMBLK1
  1

  9
$DIMBLK2
  1

  9
$DIMSTYLE
  2
AM_ISO
  9
$DIMCLRD
 70
   256
  9
$DIMCLRE
 70
   256
  9
$DIMCLRT
 70
   256
  9
$DIMTFAC
 40
0.71
  9
$DIMGAP
 40
0.7
  9
$DIMJUST
 70
     0
  9
$DIMSD1
 70
     0
  9
$DIMSD2
 70
     0
  9
$DIMTOLJ
 70
     0
  9
$DIMTZIN
 70
     8
  9
$DIMALTZ
 70
     0
  9
$DIMALTTZ
 70
     0
  9
$DIMUPT
 70
     0
  9
$DIMDEC
 70
     1
  9
$DIMTDEC
 70
     8
  9
$DIMALTU
 70
     2
  9
$DIMALTTD
 70
     2
  9
$DIMTXSTY
  7
STANDARD
  9
$DIMAUNIT
 70
     0
  9
$DIMADEC
 70
     0
  9
$DIMALTRND
 40
0.0
  9
$DIMAZIN
 70
     2
  9
$DIMDSEP
 70
    46
  9
$DIMATFIT
 70
     3
  9
$DIMFRAC
 70
     0
  9
$DIMLDRBLK
  1

  9
$DIMLUNIT
 70
     2
  9
$DIMLWD
 70
    -1
  9
$DIMLWE
 70
    -1
  9
$DIMTMOVE
 70
     0
  9
$LUNITS
 70
     2
  9
$LUPREC
 70
     2
  9
$SKETCHINC
 40
1.0
  9
$FILLETRAD
 40
5.0
  9
$AUNITS
 70
     0
  9
$AUPREC
 70
     0
  9
$MENU
  1
.
  9
$ELEVATION
 40
0.0
  9
$PELEVATION
 40
0.0
  9
$THICKNESS
 40
0.0
  9
$LIMCHECK
 70
     0
  9
$CHAMFERA
 40
2.5
  9
$CHAMFERB
 40
2.5
  9
$CHAMFERC
 40
20.0
  9
$CHAMFERD
 40
0.0
  9
$SKPOLY
 70
     0
  9
$TDCREATE
 40
2452955.687861482
  9
$TDUCREATE
 40
2452955.354528148
  9
$TDUPDATE
 40
2456730.353312535
  9
$TDUUPDATE
 40
2456730.019979201
  9
$TDINDWG
 40
0.3769021528
  9
$TDUSRTIMER
 40
0.3769020370
  9
$USRTIMER
 70
     1
  9
$ANGBASE
 50
0.0
  9
$ANGDIR
 70
     0
  9
$PDMODE
 70
     0
  9
$PDSIZE
 40
0.0
  9
$PLINEWID
 40
0.0
  9
$SPLFRAME
 70
     0
  9
$SPLINETYPE
 70
     6
  9
$SPLINESEGS
 70
     8
  9
$HANDSEED
  5
E2B
  9
$SURFTAB1
 70
     6
  9
$SURFTAB2
 70
     6
  9
$SURFTYPE
 70
     6
  9
$SURFU
 70
     6
  9
$SURFV
 70
     6
  9
$UCSBASE
  2

  9
$UCSNAME
  2

  9
$UCSORG
 10
0.0
 20
0.0
 30
0.0
  9
$UCSXDIR
 10
1.0
 20
0.0
 30
0.0
  9
$UCSYDIR
 10
0.0
 20
1.0
 30
0.0
  9
$UCSORTHOREF
  2

  9
$UCSORTHOVIEW
 70
     0
  9
$UCSORGTOP
 10
0.0
 20
0.0
 30
0.0
  9
$UCSORGBOTTOM
 10
0.0
 20
0.0
 30
0.0
  9
$UCSORGLEFT
 10
0.0
 20
0.0
 30
0.0
  9
$UCSORGRIGHT
 10
0.0
 20
0.0
 30
0.0
  9
$UCSORGFRONT
 10
0.0
 20
0.0
 30
0.0
  9
$UCSORGBACK
 10
0.0
 20
0.0
 30
0.0
  9
$PUCSBASE
  2

  9
$PUCSNAME
  2

  9
$PUCSORG
 10
0.0
 20
0.0
 30
0.0
  9
$PUCSXDIR
 10
1.0
 20
0.0
 30
0.0
  9
$PUCSYDIR
 10
0.0
 20
1.0
 30
0.0
  9
$PUCSORTHOREF
  2

  9
$PUCSORTHOVIEW
 70
     0
  9
$PUCSORGTOP
 10
0.0
 20
0.0
 30
0.0
  9
$PUCSORGBOTTOM
 10
0.0
 20
0.0
 30
0.0
  9
$PUCSORGLEFT
 10
0.0
 20
0.0
 30
0.0
  9
$PUCSORGRIGHT
 10
0.0
 20
0.0
 30
0.0
  9
$PUCSORGFRONT
 10
0.0
 20
0.0
 30
0.0
  9
$PUCSORGBACK
 10
0.0
 20
0.0
 30
0.0
  9
$USERI1
 70
     0
  9
$USERI2
 70
     0
  9
$USERI3
 70
     0
  9
$USERI4
 70
     0
  9
$USERI5
 70
     0
  9
$USERR1
 40
0.0
  9
$USERR2
 40
0.0
  9
$USERR3
 40
0.0
  9
$USERR4
 40
0.0
  9
$USERR5
 40
0.0
  9
$WORLDVIEW
 70
     1
  9
$SHADEDGE
 70
     3
  9
$SHADEDIF
 70
    70
  9
$TILEMODE
 70
     1
  9
$MAXACTVP
 70
    48
  9
$PINSBASE
 10
0.0
 20
0.0
 30
0.0
  9
$PLIMCHECK
 70
     0
  9
$PEXTMIN
 10
36.86482501760941
 20
-6.54834285593597
 30
-0.0015258207003583
  9
$PEXTMAX
 10
212.6355519013372
 20
162.8571859591048
 30
0.0000000349246037
  9
$PLIMMIN
 10
33.60300556328897
 20
-55.53422143815931
  9
$PLIMMAX
 10
215.8973686647887
 20
202.2873403147015
  9
$UNITMODE
 70
     0
  9
$VISRETAIN
 70
     1
  9
$PLINEGEN
 70
     0
  9
$PSLTSCALE
 70
     1
  9
$TREEDEPTH
 70
  3020
  9
$CMLSTYLE
  2
Standard
  9
$CMLJUST
 70
     0
  9
$CMLSCALE
 40
20.0
  9
$PROXYGRAPHICS
 70
     1
  9
$MEASUREMENT
 70
     1
  9
$CELWEIGHT
370
    -1
  9
$ENDCAPS
280
     0
  9
$JOINSTYLE
280
     0
  9
$LWDISPLAY
290
     0
  9
$INSUNITS
 70
     4
  9
$HYPERLINKBASE
  1

  9
$STYLESHEET
  1

  9
$XEDIT
290
     1
  9
$CEPSNTYPE
380
     0
  9
$PSTYLEMODE
290
     1
  9
$FINGERPRINTGUID
  2
{D841939A-2AF0-4C24-A90E-16452407ED34}
  9
$VERSIONGUID
  2
{2778C2C6-7545-4129-AF3A-1E8505CFE38C}
  9
$EXTNAMES
290
     1
  9
$PSVPSCALE
 40
0.0
  9
$OLESTARTUP
290
     0
  9
$SORTENTS
280
   127
  9
$INDEXCTL
280
     1
  9
$HIDETEXT
280
     1
  9
$XCLIPFRAME
290
     0
  9
$HALOGAP
280
     0
  9
$OBSCOLOR
 70
   257
  9
$OBSLTYPE
280
     0
  9
$INTERSECTIONDISPLAY
280
     0
  9
$INTERSECTIONCOLOR
 70
   257
  9
$DIMASSOC
280
     2
  9
$PROJECTNAME
  1

  0
ENDSEC
  0
SECTION
  2
CLASSES
  0
CLASS
  1
ACDBDICTIONARYWDFLT
  2
AcDbDictionaryWithDefault
  3
ObjectDBX Classes
 90
        0
 91
        1
280
     0
281
     0
  0
CLASS
  1
AMGSETTINGSOBJ
  2
AmgSettingsObj
  3
"AcadM|Product Description: AutoCAD Mechanical 2000|Company: Autodesk"
 90
        0
 91
        2
280
     0
281
     0
  0
CLASS
  1
ACME_DOCUMENT
  2
AcMeDbDoc
  3
AcMeServices
 90
        0
 91
        2
280
     0
281
     0
  0
CLASS
  1
ACMESCOPE
  2
AcMeScope
  3
AcMeServices
 90
        0
 91
        1
280
     0
281
     0
  0
CLASS
  1
ACMECOMMANDHISTORY
  2
AcMeCommandHistory
  3
AcMeServices
 90
        0
 91
        1
280
     0
281
     0
  0
CLASS
  1
ACIMSYSVARMAN
  2
AcImSysVarManager
  3
AcMeServices
 90
        0
 91
        6
280
     0
281
     0
  0
CLASS
  1
ACIMREALSYSVAR
  2
AcImRealSysVar
  3
AcMeServices
 90
        0
 91
       16
280
     0
281
     0
  0
CLASS
  1
ACIMINTSYSVAR
  2
AcImIntSysVar
  3
AcMeServices
 90
        0
 91
       45
280
     0
281
     0
  0
CLASS
  1
ACMEDRAWINGMAN
  2
AcMeDrawingMan
  3
AcMeServices
 90
        0
 91
        1
280
     0
281
     0
  0
CLASS
  1
ACMEVIEW
  2
AcMeView
  3
AcMeServices
 90
        0
 91
        1
280
     0
281
     0
  0
CLASS
  1
ACDBENTITYCACHE
  2
AcMeEntityCache
  3
AcMeServices
 90
        0
 91
        1
280
     0
281
     0
  0
CLASS
  1
GSMANAGER
  2
AcMeGSManager
  3
AcMeServices
 90
        0
 91
        1
280
     0
281
     0
  0
CLASS
  1
AMDTINTERNALREACTOR
  2
AmdtInternalReactor
  3
AcMeServices
 90
        0
 91
        2
280
     0
281
     0
  0
CLASS
  1
ACMESTATEMGR
  2
AcMeStateMgr
  3
AcMeServices
 90
        0
 91
        1
280
     0
281
     0
  0
CLASS
  1
ACGREFMASTER
  2
AcGrefMaster
  3
AcAttribServices
 90
        0
 91
        1
280
     0
281
     0
  0
CLASS
  1
AM_DRAWING_MGR
  2
AcDmDwgMgr
  3
AcMechDwgViewMgmt
 90
        0
 91
        1
280
     0
281
     0
  0
CLASS
  1
AM_DWG_DOCUMENT
  2
AcDmDwgDocument
  3
AcMechDwgViewMgmt
 90
        0
 91
        1
280
     0
281
     0
  0
CLASS
  1
AM_DWG_SHEET
  2
AcDmSheet
  3
AcMechDwgViewMgmt
 90
        0
 91
        1
280
     0
281
     0
  0
CLASS
  1
AM_VIEWDIMPARMAP
  2
AcDmViewDimParMap
  3
AcMechDwgViewMgmt
 90
        0
 91
        1
280
     0
281
     0
  0
CLASS
  1
AM_DWGMGR_NAME
  2
AcDmDwgMgrName
  3
AcMechDwgViewMgmt
 90
        0
 91
        1
280
     0
281
     0
  0
CLASS
  1
ACME_DATABASE
  2
AcMeDbDatabase
  3
AcMeServices
 90
        0
 91
        1
280
     0
281
     0
  0
CLASS
  1
ACRFINSADJUSTERMGR
  2
AcRfInsAdjusterMgr
  3
AcMeServices
 90
        0
 91
        1
280
     0
281
     0
  0
CLASS
  1
ACGREFACADMASTER
  2
AcGrefacadMaster
  3
AcGrefServices
 90
        0
 91
        1
280
     0
281
     0
  0
CLASS
  1
AMDTMENUSTATEMGR
  2
AmdtMenuStateMgr
  3
McadcomServices
 90
        0
 91
        1
280
     0
281
     0
  0
CLASS
  1
AMDTMCOMMENUSTATE
  2
AmdtMcomMenuState
  3
McadcomServices
 90
        0
 91
        1
280
     0
281
     0
  0
CLASS
  1
AMIMASTER
  2
AmiMaster
  3
AmiServices
 90
        0
 91
        1
280
     0
281
     0
  0
CLASS
  1
ASAPP
  2
AcAsAppObject
  3
AutoSurfServices
 90
        0
 91
        1
280
     0
281
     0
  0
CLASS
  1
IM_STATIC_MAN
  2
AcImStaticVarManager
  3
AcMeServices
 90
        0
 91
        1
280
     0
281
     0
  0
CLASS
  1
ACIMSTRSYSVAR
  2
AcImStrSysVar
  3
AcMeServices
 90
        0
 91
       11
280
     0
281
     0
  0
CLASS
  1
ACIMDBLSTATICVAR
  2
AcImDblStaticVar
  3
AcMeServices
 90
        0
 91
       20
280
     0
281
     0
  0
CLASS
  1
ACIMSTRSTATICVAR
  2
AcImStrStaticVar
  3
AcMeServices
 90
        0
 91
       12
280
     0
281
     0
  0
CLASS
  1
ACIMINTSTATICVAR
  2
AcImIntStaticVar
  3
AcMeServices
 90
        0
 91
       17
280
     0
281
     0
  0
CLASS
  1
ACASGREFMASTER
  2
AcAsGrefMaster
  3
AutoSurfResolverServices
 90
        0
 91
        1
280
     0
281
     0
  0
CLASS
  1
ACADGREFMODULE
  2
AcAdGrefModule
  3
AdGrefServices
 90
        0
 91
        1
280
     0
281
     0
  0
CLASS
  1
AMDTMAPISURFMOUDULE
  2
AmdtMApiSurfModule
  3
MApiSurfServices
 90
        0
 91
        1
280
     0
281
     0
  0
CLASS
  1
MAPIAMMOUDLE
  2
MApiAmModule
  3
MApiAmServices
 90
        0
 91
        1
280
     0
281
     0
  0
CLASS
  1
AMDTADMENUSTATE
  2
AmdtAdMenuState
  3
DesignerServices
 90
        0
 91
        1
280
     0
281
     0
  0
CLASS
  1
ADAPPL
  2
AcAdAppl
  3
DesignerServices
 90
        0
 91
        1
280
     0
281
     0
  0
CLASS
  1
DEPMGR
  2
AcAdDepMgr
  3
DesignerServices
 90
        0
 91
        1
280
     0
281
     0
  0
CLASS
  1
PARAMMGR
  2
AcAdParamMgr
  3
DesignerServices
 90
        0
 91
        1
280
     0
281
     0
  0
CLASS
  1
PARAMSCOPE
  2
AcAdParamScope
  3
DesignerServices
 90
        0
 91
        1
280
     0
281
     0
  0
CLASS
  1
NAMEDAPPL
  2
AcAdNamedAppl
  3
DesignerServices
 90
        0
 91
        1
280
     0
281
     0
  0
CLASS
  1
AMDTDMMENUSTATE
  2
AmdtDmMenuState
  3
AcMechDwgViewMgmt
 90
        0
 91
        1
280
     0
281
     0
  0
CLASS
  1
MAPIADMODULE
  2
MApiAdModule
  3
MApiAdServices
 90
        0
 91
        1
280
     0
281
     0
  0
CLASS
  1
AMDTAMMENUSTATE
  2
AmdtAmMenuState
  3
DesignerAssemblies
 90
        0
 91
        1
280
     0
281
     0
  0
CLASS
  1
ACAMPROJECT
  2
AcAmProject
  3
DesignerAssemblies
 90
        0
 91
        1
280
     0
281
     0
  0
CLASS
  1
ACAMGRCOMPDEF
  2
AcAmGrCompDef
  3
DesignerAssemblies
 90
        0
 91
        1
280
     0
281
     0
  0
CLASS
  1
ACCMCONTEXT
  2
AcCmContext
  3
DesignerAssemblies
 90
        0
 91
        1
280
     0
281
     0
  0
CLASS
  1
ACAMCOMPDEF
  2
AcAmCompDef
  3
DesignerAssemblies
 90
        0
 91
        1
280
     0
281
     0
  0
CLASS
  1
ACAMCOMPDEFMGR
  2
AcAmCompDefMgr
  3
DesignerAssemblies
 90
        0
 91
        1
280
     0
281
     0
  0
CLASS
  1
AMCONTEXTMGR
  2
AcAmContextMgr
  3
DesignerAssemblies
 90
        0
 91
        1
280
     0
281
     0
  0
CLASS
  1
ACAMCONTEXTMODELER
  2
AcAmContextModeler
  3
DesignerAssemblies
 90
        0
 91
        1
280
     0
281
     0
  0
CLASS
  1
ACMDATADICTIONARY
  2
AcmDataDictionary
  3
"AcmSymBB|Product Description: AutoCAD Mechanical 2004 DX|Company: Autodesk"
 90
        0
 91
        1
280
     0
281
     0
  0
CLASS
  1
ACMDATAENTRYBLOCK
  2
AcmDataEntryBlock
  3
"AcmSymBB|Product Description: AutoCAD Mechanical 2004 DX|Company: Autodesk"
 90
        0
 91
        1
280
     0
281
     0
  0
CLASS
  1
ACMSTANDARDISO
  2
AcmStandardISO
  3
"Amdt_StdImp|Product Description: AutoCAD Mechanical 2004 DX|Company: Autodesk"
 90
        0
 91
        1
280
     0
281
     0
  0
CLASS
  1
AMGOBJPROPCFG
  2
AmgObjPropCfg
  3
"AmgLay|Product Description: AutoCAD Mechanical 2000|Company: Autodesk"
 90
        1
 91
        1
280
     0
281
     0
  0
CLASS
  1
AMDTEDGESTANDARDISO
  2
AmdtEdgeStdISO
  3
"Amdt_StdImp|Product Description: AutoCAD Mechanical 2004 DX|Company: Autodesk"
 90
        0
 91
        0
280
     0
281
     0
  0
CLASS
  1
ACMSURFSTANDARDISO
  2
AcmSurfTextStdISO
  3
"Amdt_StdImp|Product Description: AutoCAD Mechanical 2004 DX|Company: Autodesk"
 90
        0
 91
        1
280
     0
281
     0
  0
CLASS
  1
ACMFCFSTANDARDISO
  2
AcmFCFStdISO
  3
"Amdt_StdImp|Product Description: AutoCAD Mechanical 2004 DX|Company: Autodesk"
 90
        0
 91
        1
280
     0
281
     0
  0
CLASS
  1
ACMWELDSTANDARDISO
  2
AcmWeldingStdISO
  3
"Amdt_StdImp|Product Description: AutoCAD Mechanical 2004 DX|Company: Autodesk"
 90
        0
 91
        1
280
     0
281
     0
  0
CLASS
  1
ACMIDSTANDARDISO
  2
AcmIdStdISO
  3
"Amdt_StdImp|Product Description: AutoCAD Mechanical 2004 DX|Company: Autodesk"
 90
        0
 91
        1
280
     0
281
     0
  0
CLASS
  1
ACMDATUMSTANDARDISO
  2
AcmDatumStdISO
  3
"Amdt_StdImp|Product Description: AutoCAD Mechanical 2004 DX|Company: Autodesk"
 90
        0
 91
        1
280
     0
281
     0
  0
CLASS
  1
ACMBOMSTANDARDISO
  2
AcmBOMStdISO
  3
"Amdt_StdImp|Product Description: AutoCAD Mechanical 2004 DX|Company: Autodesk"
 90
        0
 91
        1
280
     0
281
     0
  0
CLASS
  1
ACMDETAILSTANDARDISO
  2
AmdtDetailSymStdISO
  3
"Amdt_StdImp|Product Description: AutoCAD Mechanical 2004 DX|Company: Autodesk"
 90
        0
 91
        1
280
     0
281
     0
  0
CLASS
  1
ACMSECTIONSTANDARDISO
  2
AmdtSectionSymStdISO
  3
"Amdt_StdImp|Product Description: AutoCAD Mechanical 2004 DX|Company: Autodesk"
 90
        0
 91
        1
280
     0
281
     0
  0
CLASS
  1
ACMCENTERLINESTANDARDISO
  2
AmdtCenterLineStdISO
  3
"Amdt_StdImp|Product Description: AutoCAD Mechanical 2004 DX|Company: Autodesk"
 90
        0
 91
        1
280
     0
281
     0
  0
CLASS
  1
ACMTHREADLINESTANDARDISO
  2
AmdtThreadLineStdISO
  3
"Amdt_StdImp|Product Description: AutoCAD Mechanical 2004 DX|Company: Autodesk"
 90
        0
 91
        1
280
     0
281
     0
  0
CLASS
  1
ACMNOTESTANDARDISO
  2
AmdtNoteStdISO
  3
"Amdt_StdImp|Product Description: AutoCAD Mechanical 2004 DX|Company: Autodesk"
 90
        0
 91
        1
280
     0
281
     0
  0
CLASS
  1
ACAMGLAYSTD
  2
AcAmgLayStd
  3
"AcAmgLayStd|Product Description: AutoCAD Mechanical 2000|Company: Autodesk"
 90
        0
 91
        1
280
     0
281
     0
  0
CLASS
  1
ACAMGDIMSTD
  2
AcAmgDimStd
  3
"AcAmgDimStd|Product Description: AutoCAD Mechanical 2000|Company: Autodesk"
 90
        0
 91
        1
280
     0
281
     0
  0
CLASS
  1
ACAMGHOLECHARTSTDISO
  2
AcAmgHoleChartStdISO
  3
ACMSYMBB_MODULE_NAME
 90
        0
 91
        1
280
     0
281
     0
  0
CLASS
  1
ACAMGTITLESTD
  2
AcAmgTitleStd
  3
"TITLEAPP"
 90
        0
 91
        1
280
     0
281
     0
  0
CLASS
  1
CATALOGSTATE
  2
AcAmCatalogState
  3
DesignerAssemblies
 90
        0
 91
        1
280
     0
281
     0
  0
CLASS
  1
ACAMGRCOMPDEFSET
  2
AcAmGrCompDefSet
  3
DesignerAssemblies
 90
        0
 91
        1
280
     0
281
     0
  0
CLASS
  1
AMDTBROWSERDBTAB
  2
AmdtBrowserDbTab
  3
McadcomServices
 90
        0
 91
        1
280
     0
281
     0
  0
CLASS
  1
CBROWSERAPPOBJECT
  2
CBrowserAppObject
  3
McadcomServices
 90
        0
 91
        3
280
     0
281
     0
  0
CLASS
  1
DM_PLACEHOLDER
  2
AcDmSelsetPlaceholder
  3
AcMechDwgViewMgmt
 90
        0
 91
        1
280
     0
281
     0
  0
CLASS
  1
ACAMGFILTERDAT
  2
AcAmgFilterDat
  3
"AcadM|Product Description: AutoCAD Mechanical 2000|Company: Autodesk"
 90
        0
 91
        0
280
     0
281
     0
  0
CLASS
  1
DIMASSOC
  2
AcDbDimAssoc
  3
"AcDbDimAssoc|Product Desc:     AcDim ARX App For Dimension|Company:          Autodesk, Inc.|WEB Address:      www.autodesk.com"
 90
        0
 91
        4
280
     0
281
     0
  0
CLASS
  1
LAYER_INDEX
  2
AcDbLayerIndex
  3
ObjectDBX Classes
 90
        0
 91
        1
280
     0
281
     0
  0
CLASS
  1
IDBUFFER
  2
AcDbIdBuffer
  3
ObjectDBX Classes
 90
        0
 91
        8
280
     0
281
     0
  0
CLASS
  1
DICTIONARYVAR
  2
AcDbDictionaryVar
  3
ObjectDBX Classes
 90
        0
 91
        4
280
     0
281
     0
  0
CLASS
  1
ACAMEXTERNALCOMPDEF
  2
AcAmExternalCompDef
  3
DesignerAssemblies
 90
        0
 91
        0
280
     0
281
     0
  0
CLASS
  1
ACCMBODY
  2
AcCmBody
  3
DesignerAssemblies
 90
        0
 91
        0
280
     0
281
     0
  0
CLASS
  1
ACAMCOMPENT
  2
AcAmCompEnt
  3
DesignerAssemblies
 90
        0
 91
        0
280
     0
281
     1
  0
CLASS
  1
ACAMCOMPFEEDBACK
  2
AcAmCompFeedback
  3
DesignerAssemblies
 90
        0
 91
        0
280
     0
281
     0
  0
CLASS
  1
ACAMCOMP
  2
AcAmComp
  3
DesignerAssemblies
 90
        0
 91
        0
280
     0
281
     0
  0
CLASS
  1
ACAMCOMPENTCLONE
  2
AcAmCompEntClone
  3
DesignerAssemblies
 90
        0
 91
        0
280
     0
281
     1
  0
CLASS
  1
ACAMCLONEREACTOR
  2
AcAmGrCompCloneReactor
  3
DesignerAssemblies
 90
        0
 91
        0
280
     0
281
     0
  0
CLASS
  1
ACADPARTAXISRES
  2
AcAdPartAxisRes
  3
AdGrefServices
 90
        0
 91
        0
280
     0
281
     0
  0
CLASS
  1
ACRFINSADJ
  2
AcRfInsAdjuster
  3
AcMeServices
 90
        0
 91
        0
280
     0
281
     0
  0
CLASS
  1
ACMEAXIS
  2
AcImAxisDisplay
  3
AcMeServices
 90
        0
 91
        0
280
     0
281
     1
  0
CLASS
  1
ACAMEXPR
  2
AcAmExpr
  3
DesignerAssemblies
 90
        0
 91
        0
280
     0
281
     0
  0
CLASS
  1
ACCMDISTLNLN
  2
AcCmDistLnLn
  3
DesignerAssemblies
 90
        0
 91
        0
280
     0
281
     0
  0
CLASS
  1
ACCMCONSTREACTOR
  2
AcCmConstraintReactor
  3
DesignerAssemblies
 90
        0
 91
        0
280
     0
281
     0
  0
CLASS
  1
FACEID
  2
AcAdFaceId
  3
DesignerServices
 90
        0
 91
        0
280
     0
281
     0
  0
CLASS
  1
DEPEDGESECONDARYDEPID
  2
AcAdDepEdgeSecondaryDepId
  3
DesignerServices
 90
        0
 91
        0
280
     0
281
     0
  0
CLASS
  1
ACADPARTCONICALFACERES
  2
AcAdPartConicalFaceRes
  3
AdGrefServices
 90
        0
 91
        0
280
     0
281
     0
  0
CLASS
  1
ACADPARTPLANARFACERES
  2
AcAdPartPlanarFaceRes
  3
AdGrefServices
 90
        0
 91
        0
280
     0
281
     0
  0
CLASS
  1
ACMELINEARARROW
  2
AcImLinearArrowDisplay
  3
AcMeServices
 90
        0
 91
        0
280
     0
281
     1
  0
CLASS
  1
ACCMDISTPLPL
  2
AcCmDistPlPl
  3
DesignerAssemblies
 90
        0
 91
        0
280
     0
281
     0
  0
CLASS
  1
EDGEID
  2
AcAdEdgeId
  3
DesignerServices
 90
        0
 91
        0
280
     0
281
     0
  0
CLASS
  1
ACADPARTCIRCEDGRES
  2
AcAdPartCircEdgRes
  3
AdGrefServices
 90
        0
 91
        0
280
     0
281
     0
  0
CLASS
  1
ACCMINSERTPLPL
  2
AcCmInsertPlPl
  3
AcCmServices
 90
        0
 91
        0
280
     0
281
     0
  0
CLASS
  1
ADPART
  2
AcAdPart
  3
DesignerServices
 90
        0
 91
        0
280
     0
281
     1
  0
CLASS
  1
ADBASE
  2
AcAdBase
  3
DesignerServices
 90
        0
 91
        0
280
     0
281
     0
  0
CLASS
  1
BODYID
  2
AcAdBodyId
  3
DesignerServices
 90
        0
 91
        0
280
     0
281
     0
  0
CLASS
  1
WORKPLANEDISPLAYMGR
  2
AcAdDisplayMgr
  3
DesignerServices
 90
        0
 91
        0
280
     0
281
     0
  0
CLASS
  1
NEWSTDPARTPARLIST
  2
AmgNewParListFiler
  3
"AmgParList|Product Description: AutoCAD Mechanical 2000|Company: Autodesk"
 90
     1023
 91
        0
280
     0
281
     0
  0
CLASS
  1
ADDATUMPLANEABS
  2
AcAdDatumPlaneAbs
  3
DesignerServices
 90
        0
 91
        0
280
     0
281
     0
  0
CLASS
  1
ADDATUMAXISABS
  2
AcAdDatumAxisAbs
  3
DesignerServices
 90
        0
 91
        0
280
     0
281
     0
  0
CLASS
  1
ADDATUMORIENTEDPLANE
  2
AcAdDatumOrientedPlane
  3
DesignerServices
 90
        0
 91
        0
280
     0
281
     0
  0
CLASS
  1
ACRFATTGENMGR
  2
AcRfAttGeneralMgr
  3
AcAttribServices
 90
        0
 91
        0
280
     0
281
     0
  0
CLASS
  1
ACRFOBJATTMGR
  2
AcRfObjAttGroupMgr
  3
AcAttribServices
 90
        0
 91
        0
280
     0
281
     0
  0
CLASS
  1
ACRFMCADAPIATTHOLDER
  2
AcRfMCADAPIAttHolder
  3
AcAttribServices
 90
        0
 91
        0
280
     0
281
     0
  0
CLASS
  1
AMDTSYSATTR
  2
AmdtSystemAttribute
  3
AcAttribServices
 90
        0
 91
        0
280
     0
281
     0
  0
CLASS
  1
AMDTFORMULAUPDATEDISPATCHER
  2
AmdtFormulaUpdateDispatcher
  3
AcMeServices
 90
        0
 91
        0
280
     0
281
     0
  0
CLASS
  1
DEPEDGEPATTERNINSTANCE
  2
AcAdDepEdgePatternInstance
  3
DesignerServices
 90
        0
 91
        0
280
     0
281
     0
  0
CLASS
  1
ACAMVIEWREACTOR
  2
AcAmViewReactor
  3
DesignerAssemblies
 90
        0
 91
        0
280
     0
281
     0
  0
CLASS
  1
AMVIEW
  2
AcAmView
  3
DesignerAssemblies
 90
        0
 91
        0
280
     0
281
     0
  0
CLASS
  1
ACAMVIEWCONTEXT
  2
AcAmViewContext
  3
DesignerAssemblies
 90
        0
 91
        0
280
     0
281
     0
  0
CLASS
  1
ACAMCOMPENTVIEW
  2
AcAmCompEntView
  3
DesignerAssemblies
 90
        0
 91
        0
280
     0
281
     1
  0
CLASS
  1
ACAMCOMPVIEWREACTOR
  2
AcAmGrCompViewReactor
  3
DesignerAssemblies
 90
        0
 91
        0
280
     0
281
     0
  0
CLASS
  1
ACAMVIEWENTITYFILTER
  2
AcAmViewEntityFilter
  3
DesignerAssemblies
 90
        0
 91
        0
280
     0
281
     0
  0
CLASS
  1
AM_ABS_PLANE
  2
AcDmAbsPlnDef
  3
AcMechDwgViewMgmt
 90
        0
 91
        0
280
     0
281
     0
  0
CLASS
  1
AM_ABS_AXIS
  2
AcDmAbsAxisDef
  3
AcMechDwgViewMgmt
 90
        0
 91
        0
280
     0
281
     0
  0
CLASS
  1
AM_BASE_VIEW_ORIENT
  2
AcDmBaseViewOr
  3
AcMechDwgViewMgmt
 90
        0
 91
        0
280
     0
281
     0
  0
CLASS
  1
AM_DWG_VIEWPORT
  2
AcDmViewport
  3
AcMechDwgViewMgmt
 90
        0
 91
        0
280
     0
281
     0
  0
CLASS
  1
AM_VIEW_DISPLAY
  2
AcDmDwgViewDisplay
  3
AcMechDwgViewMgmt
 90
        0
 91
        0
280
     0
281
     0
  0
CLASS
  1
AM_CLDFLTS
  2
AcDmClDflts
  3
AcMechDwgViewMgmt
 90
        0
 91
        0
280
     0
281
     0
  0
CLASS
  1
AM_BASE_VIEW
  2
AcDmBaseView
  3
AcMechDwgViewMgmt
 90
        0
 91
        0
280
     0
281
     0
  0
CLASS
  1
ACMEPLINE
  2
AcImPlineDisplay
  3
AcMeServices
 90
        0
 91
        0
280
     0
281
     1
  0
CLASS
  1
ACADPARTDATUMPLANERES
  2
AcAdPartDatumPlaneRes
  3
AdGrefServices
 90
        0
 91
        0
280
     0
281
     0
  0
CLASS
  1
AM_GREF_PLANE
  2
AcDmGrefPlnDef
  3
AcMechDwgViewMgmt
 90
        0
 91
        0
280
     0
281
     0
  0
CLASS
  1
AM_ORTHO_VIEW_ORIENT
  2
AcDmOrthoViewOr
  3
AcMechDwgViewMgmt
 90
        0
 91
        0
280
     0
281
     0
  0
CLASS
  1
AM_ORTHO_VIEW
  2
AcDmOrthoView
  3
AcMechDwgViewMgmt
 90
        0
 91
        0
280
     0
281
     0
  0
CLASS
  1
ACDMPARTVIEWDATA
  2
AcDmPartViewData
  3
AcMechDwgViewMgmt
 90
        0
 91
        0
280
     0
281
     0
  0
CLASS
  1
ACDMDISPLAYATTRIBS
  2
AcDmDisplayAttribs
  3
AcMechDwgViewMgmt
 90
        0
 91
        0
280
     0
281
     0
  0
CLASS
  1
ACDMBODYINSTANCEDATA
  2
AcDmBodyInstanceData
  3
AcMechDwgViewMgmt
 90
        0
 91
        0
280
     0
281
     0
  0
CLASS
  1
ACDMVWEDLINE
  2
AcDmViewEdgeLine
  3
AcMechDwgViewMgmt
 90
        0
 91
        0
280
     0
281
     1
  0
CLASS
  1
ACDMVWEDCIRC
  2
AcDmViewEdgeCircle
  3
AcMechDwgViewMgmt
 90
        0
 91
        0
280
     0
281
     1
  0
CLASS
  1
ACDMVWEDARC
  2
AcDmViewEdgeArc
  3
AcMechDwgViewMgmt
 90
        0
 91
        0
280
     0
281
     1
  0
CLASS
  1
AM_ADCIRCTRLINE
  2
AcAdBullsEyeCl
  3
DesignerServices
 90
        0
 91
        0
280
     0
281
     0
  0
CLASS
  1
ACDMVWEDSPLINE
  2
AcDmViewEdgeSpline
  3
AcMechDwgViewMgmt
 90
        0
 91
        0
280
     0
281
     1
  0
CLASS
  1
AM_ADLINCTRLINE
  2
AcAdLineCl
  3
DesignerServices
 90
        0
 91
        0
280
     0
281
     0
  0
CLASS
  1
CNRREFID
  2
AcAdCornerId
  3
DesignerServices
 90
        0
 91
        0
280
     0
281
     0
  0
CLASS
  1
ACADPARTPOINTRES
  2
AcAdPartPointRes
  3
AdGrefServices
 90
        0
 91
        0
280
     0
281
     0
  0
CLASS
  1
AM_VIEWDIMLINEAR
  2
AcDmViewDimLinear
  3
AcMechDwgViewMgmt
 90
        0
 91
        0
280
     0
281
     0
  0
CLASS
  1
ACDMVIEWGEOM
  2
AcDmViewGeometry
  3
AcMechDwgViewMgmt
 90
        0
 91
        0
280
     0
281
     1
  0
CLASS
  1
ACADPARTLINEDGRES
  2
AcAdPartLinEdgRes
  3
AdGrefServices
 90
        0
 91
        0
280
     0
281
     0
  0
CLASS
  1
AMDTNOTE
  2
AmdtNote
  3
"AcmSymBB|Product Description: AutoCAD Mechanical 2004 DX|Company: Autodesk"
 90
     1023
 91
        0
280
     0
281
     1
  0
CLASS
  1
TABLESTYLE
  2
AcDbTableStyle
  3
ObjectDBX Classes
 90
     2047
 91
        1
280
     0
281
     0
  0
CLASS
  1
AMDTEDGESTANDARDISO13715
  2
AmdtEdgeStdISO13715
  3
"Amdt_StdImp|Product Description: AutoCAD Mechanical 2004 DX|Company: Autodesk"
 90
        0
 91
        1
280
     0
281
     0
  0
CLASS
  1
AMDTNOTETEMPLATEDB
  2
AmdtNoteTemplateDB
  3
AMDT_STDIMP_MODULE_NAME
 90
        0
 91
        5
280
     0
281
     0
  0
ENDSEC
  0
SECTION
  2
TABLES
  0
TABLE
  2
VPORT
  5
1A
330
0
100
AcDbSymbolTable
 70
     6
  0
VPORT
  5
E2A
330
1A
100
AcDbSymbolTableRecord
100
AcDbViewportTableRecord
  2
*Active
 70
     0
 10
0.0
 20
0.0
 11
1.0
 21
1.0
 12
29.68897408615453
 22
-91.75900981316386
 13
0.0
 23
0.0
 14
2.5
 24
2.5
 15
10.0
 25
10.0
 16
0.0
 26
0.0
 36
1.0
 17
285.2448374281837
 27
296.5036780700462
 37
0.0
 40
266.2501924240341
 41
1.263157894736842
 42
50.0
 43
0.0
 44
0.0
 50
0.0
 51
0.0
 71
     0
 72
   100
 73
     1
 74
     3
 75
     0
 76
     0
 77
     0
 78
     0
281
     0
 65
     0
110
0.0
120
0.0
130
0.0
111
1.0
121
0.0
131
0.0
112
0.0
122
1.0
132
0.0
 79
     0
146
0.0
  0
ENDTAB
  0
TABLE
  2
LTYPE
  5
15
330
0
100
AcDbSymbolTable
 70
    16
  0
LTYPE
  5
16
330
15
100
AcDbSymbolTableRecord
100
AcDbLinetypeTableRecord
  2
ByBlock
 70
     0
  3

 72
    65
 73
     0
 40
0.0
  0
LTYPE
  5
17
330
15
100
AcDbSymbolTableRecord
100
AcDbLinetypeTableRecord
  2
ByLayer
 70
     0
  3

 72
    65
 73
     0
 40
0.0
  0
LTYPE
  5
9
330
15
100
AcDbSymbolTableRecord
100
AcDbLinetypeTableRecord
  2
Continuous
 70
     0
  3
Solid line
 72
    65
 73
     0
 40
0.0
  0
LTYPE
  5
28
330
15
100
AcDbSymbolTableRecord
100
AcDbLinetypeTableRecord
  2
AM_ISO08W050
 70
     0
  3
____ . ____ . ____ . ____ . ____ . ____ . ____
 72
    65
 73
     4
 40
18.0
 49
12.0
 74
     0
 49
-1.5
 74
     0
 49
3.0
 74
     0
 49
-1.5
 74
     0
  0
LTYPE
  5
193
330
15
100
AcDbSymbolTableRecord
100
AcDbLinetypeTableRecord
  2
AM_ISO02W050
 70
     0
  3
__ __ __ __ __ __ __ __ __ __ __ __ __ __ __
 72
    65
 73
     2
 40
7.5
 49
6.0
 74
     0
 49
-1.5
 74
     0
  0
LTYPE
  5
194
330
15
100
AcDbSymbolTableRecord
100
AcDbLinetypeTableRecord
  2
AM_ISO09W050
 70
     0
  3
_____ . . _____ . . _____ . . ____ .. ____
 72
    65
 73
     6
 40
22.5
 49
12.0
 74
     0
 49
-1.5
 74
     0
 49
3.0
 74
     0
 49
-1.5
 74
     0
 49
3.0
 74
     0
 49
-1.5
 74
     0
  0
LTYPE
  5
195
330
15
100
AcDbSymbolTableRecord
100
AcDbLinetypeTableRecord
  2
Amconstr
 70
     0
  3
_______________________
 72
    65
 73
     2
 40
9999.0
 49
9999.0
 74
     0
 49
0.0
 74
     0
  0
LTYPE
  5
196
330
15
100
AcDbSymbolTableRecord
100
AcDbLinetypeTableRecord
  2
AM_ISO08W050x2
 70
     0
  3
__ . __ . __ . __ . __ . __
 72
    65
 73
     4
 40
9.0
 49
6.0
 74
     0
 49
-0.75
 74
     0
 49
1.5
 74
     0
 49
-0.75
 74
     0
  0
LTYPE
  5
197
330
15
100
AcDbSymbolTableRecord
100
AcDbLinetypeTableRecord
  2
AM_ISO02W050x2
 70
     0
  3
 _ _ _ _ _ _ _ _ _ _ _ _
 72
    65
 73
     2
 40
3.75
 49
3.0
 74
     0
 49
-0.75
 74
     0
  0
LTYPE
  5
19A
330
15
100
AcDbSymbolTableRecord
100
AcDbLinetypeTableRecord
  2
Amzigzag
 70
     0
  3
/\/-/\/-/\/-/\/-/\/-/\/
 72
    65
 73
     2
 40
11.0001
 49
0.0001
 74
     4
 75
   135
340
199
 46
0.04
 50
0.0
 44
0.0
 45
0.0
 49
-11.0
 74
     0
  0
LTYPE
  5
1A8
330
15
100
AcDbSymbolTableRecord
100
AcDbLinetypeTableRecord
  2
ACISOWELD
 70
     0
  3
_ _ _ _ _
 72
    65
 73
     2
 40
2.0
 49
2.0
 74
     0
 49
-1.0
 74
     0
  0
LTYPE
  5
1A9
330
15
100
AcDbSymbolTableRecord
100
AcDbLinetypeTableRecord
  2
ACISOTGB
 70
     0
  3
__ . . __ . .
 72
    65
 73
     6
 40
9.0
 49
4.0
 74
     0
 49
-1.0
 74
     0
 49
1.0
 74
     0
 49
-1.0
 74
     0
 49
1.0
 74
     0
 49
-1.0
 74
     0
  0
LTYPE
  5
1AA
330
15
100
AcDbSymbolTableRecord
100
AcDbLinetypeTableRecord
  2
ACISOTGL
 70
     0
  3
_ _ _ _ _
 72
    65
 73
     2
 40
3.0
 49
2.0
 74
     0
 49
-1.0
 74
     0
  0
LTYPE
  5
1AB
330
15
100
AcDbSymbolTableRecord
100
AcDbLinetypeTableRecord
  2
CENTER
 70
     0
  3
__ . __
 72
    65
 73
     4
 40
7.0
 49
4.0
 74
     0
 49
-1.0
 74
     0
 49
1.0
 74
     0
 49
-1.0
 74
     0
  0
LTYPE
  5
D7C
330
15
100
AcDbSymbolTableRecord
100
AcDbLinetypeTableRecord
  2
HIDDEN
 70
     0
  3
Hidden __ __ __ __ __ __ __ __ __ __ __ __ __ _
 72
    65
 73
     2
 40
9.524999999999998
 49
6.349999999999999
 74
     0
 49
-3.174999999999999
 74
     0
  0
LTYPE
  5
D7D
330
15
100
AcDbSymbolTableRecord
100
AcDbLinetypeTableRecord
  2
PHANTOM2
 70
     0
  3
Phantom (.5x) ___ _ _ ___ _ _ ___ _ _ ___ _ _
 72
    65
 73
     6
 40
31.75
 49
15.875
 74
     0
 49
-3.174999999999999
 74
     0
 49
3.174999999999999
 74
     0
 49
-3.174999999999999
 74
     0
 49
3.174999999999999
 74
     0
 49
-3.174999999999999
 74
     0
  0
LTYPE
  5
DC9
330
15
100
AcDbSymbolTableRecord
100
AcDbLinetypeTableRecord
  2
ASULTYPE
 70
     0
  3
實線
 72
    65
 73
     2
 40
3.0
 49
2.5
 74
     0
 49
0.5
 74
     0
  0
LTYPE
  5
DCA
330
15
100
AcDbSymbolTableRecord
100
AcDbLinetypeTableRecord
  2
ASVLTYPE
 70
     0
  3
__ __ __ __ __ __ __ __ __ __ __ __ __ __ __ __ __ __ __ __ __
 72
    65
 73
     2
 40
0.75
 49
0.5
 74
     0
 49
-0.25
 74
     0
  0
ENDTAB
  0
TABLE
  2
LAYER
  5
11
330
0
100
AcDbSymbolTable
 70
     8
  0
LAYER
  5
5
330
11
100
AcDbSymbolTableRecord
100
AcDbLayerTableRecord
  2
0
 70
     0
 62
     7
  6
Continuous
370
    -3
390
6
  0
LAYER
  5
3A
330
11
100
AcDbSymbolTableRecord
100
AcDbLayerTableRecord
  2
Defpoints
 70
     0
 62
     7
  6
Continuous
290
     0
370
    -3
390
6
  0
LAYER
  5
27
330
11
100
AcDbSymbolTableRecord
100
AcDbLayerTableRecord
  2
AM_7
 70
     0
 62
     1
  6
AM_ISO08W050
370
    25
390
6
  0
LAYER
  5
52
330
11
100
AcDbSymbolTableRecord
100
AcDbLayerTableRecord
  2
AM_VIS
 70
     0
 62
     7
  6
Continuous
370
    50
390
6
  0
LAYER
  5
1FD
330
11
100
AcDbSymbolTableRecord
100
AcDbLayerTableRecord
  2
AM_5
 70
     0
 62
     5
  6
Continuous
370
    25
390
6
  0
LAYER
  5
29A
330
11
100
AcDbSymbolTableRecord
100
AcDbLayerTableRecord
  2
AM_0N
 70
     0
 62
     7
  6
Continuous
370
    50
390
6
  0
LAYER
  5
29B
330
11
100
AcDbSymbolTableRecord
100
AcDbLayerTableRecord
  2
AM_7N
 70
     0
 62
     4
  6
AM_ISO08W050
370
    25
390
6
  0
LAYER
  5
96B
330
11
100
AcDbSymbolTableRecord
100
AcDbLayerTableRecord
  2
LOGO
 70
     0
 62
     7
  6
Continuous
370
    -3
390
6
  0
ENDTAB
  0
TABLE
  2
STYLE
  5
12
330
0
100
AcDbSymbolTable
 70
     6
  0
STYLE
  5
13
330
12
100
AcDbSymbolTableRecord
100
AcDbTextStyleTableRecord
  2
STANDARD
 70
     0
 40
0.0
 41
1.0
 50
0.0
 71
     0
 42
3.0
  3
ISOCP.SHX
  4
CHINESET.SHX
  0
STYLE
  5
199
330
12
100
AcDbSymbolTableRecord
100
AcDbTextStyleTableRecord
  2

 70
     1
 40
0.0
 41
1.0
 50
0.0
 71
     0
 42
3.0
  3
ltypeshp.shx
  4

  0
STYLE
  5
19B
330
12
100
AcDbSymbolTableRecord
100
AcDbTextStyleTableRecord
  2
ACISOTS
 70
     0
 40
1.0
 41
1.0
 50
0.0
 71
     0
 42
3.0
  3
isocp.shx
  4
chineset.shx
  0
STYLE
  5
1A7
330
12
100
AcDbSymbolTableRecord
100
AcDbTextStyleTableRecord
  2
ACISOGDT
 70
     0
 40
0.0
 41
1.0
 50
0.0
 71
     0
 42
3.0
  3
amgdt.shx
  4

  0
STYLE
  5
96C
330
12
100
AcDbSymbolTableRecord
100
AcDbTextStyleTableRecord
  2
CHINESET
 70
     0
 40
0.0
 41
1.0
 50
0.0
 71
     0
 42
2.5
  3
simplex.shx
  4
CHINESET.shx
  0
STYLE
  5
96D
330
12
100
AcDbSymbolTableRecord
100
AcDbTextStyleTableRecord
  2
LOGO
 70
     0
 40
0.0
 41
1.0
 50
0.0
 71
     0
 42
5.0
  3
LEI00DP.TTF
  4

1001
ACAD
1000
文鼎中粗隸
1071
    34865
  0
ENDTAB
  0
TABLE
  2
VIEW
  5
18
330
0
100
AcDbSymbolTable
 70
     0
  0
ENDTAB
  0
TABLE
  2
UCS
  5
19
330
0
100
AcDbSymbolTable
 70
     0
  0
ENDTAB
  0
TABLE
  2
APPID
  5
1C
330
0
100
AcDbSymbolTable
 70
    20
  0
APPID
  5
1D
330
1C
100
AcDbSymbolTableRecord
100
AcDbRegAppTableRecord
  2
ACAD
 70
     0
  0
APPID
  5
40
330
1C
100
AcDbSymbolTableRecord
100
AcDbRegAppTableRecord
  2
ACAD_DIMASSOC_DIMLFAC
 70
     0
  0
APPID
  5
3F
330
1C
100
AcDbSymbolTableRecord
100
AcDbRegAppTableRecord
  2
ACAD_DIMASSOC_CALC_DIMLFAC
 70
     0
  0
APPID
  5
175
330
1C
100
AcDbSymbolTableRecord
100
AcDbRegAppTableRecord
  2
MCAD_NO_VIS
 70
     0
  0
APPID
  5
176
330
1C
100
AcDbSymbolTableRecord
100
AcDbRegAppTableRecord
  2
ACAD_TEMP_GRAPHIC
 70
     0
  0
APPID
  5
187
330
1C
100
AcDbSymbolTableRecord
100
AcDbRegAppTableRecord
  2
ACATTRIBSERVICES
 70
     0
  0
APPID
  5
1D4
330
1C
100
AcDbSymbolTableRecord
100
AcDbRegAppTableRecord
  2
GENIUS_GENOLIS_13
 70
     0
  0
APPID
  5
1D5
330
1C
100
AcDbSymbolTableRecord
100
AcDbRegAppTableRecord
  2
GENIUS_GENOENT_13
 70
     0
  0
APPID
  5
1D6
330
1C
100
AcDbSymbolTableRecord
100
AcDbRegAppTableRecord
  2
GENIUS_GENOBJ-N-CRS_13
 70
     0
  0
APPID
  5
1D7
330
1C
100
AcDbSymbolTableRecord
100
AcDbRegAppTableRecord
  2
GENIUS_GENODEF_13
 70
     0
  0
APPID
  5
1D8
330
1C
100
AcDbSymbolTableRecord
100
AcDbRegAppTableRecord
  2
GENIUS_GENOREF_13
 70
     0
  0
APPID
  5
D4B
330
1C
100
AcDbSymbolTableRecord
100
AcDbRegAppTableRecord
  2
GENIUS_GENDIM_13
 70
     0
  0
APPID
  5
D4C
330
1C
100
AcDbSymbolTableRecord
100
AcDbRegAppTableRecord
  2
GENIUS_GENDTOL_13
 70
     0
  0
APPID
  5
D4D
330
1C
100
AcDbSymbolTableRecord
100
AcDbRegAppTableRecord
  2
GENIUS_GE3DTOL_13
 70
     0
  0
APPID
  5
D7F
330
1C
100
AcDbSymbolTableRecord
100
AcDbRegAppTableRecord
  2
AD_DRAW
 70
     0
  0
APPID
  5
DCB
330
1C
100
AcDbSymbolTableRecord
100
AcDbRegAppTableRecord
  2
ASURF_PCURVE_APPNAME
 70
     0
  0
APPID
  5
DD0
330
1C
100
AcDbSymbolTableRecord
100
AcDbRegAppTableRecord
  2
AMG_3D2D_5.0
 70
     0
  0
APPID
  5
DFF
330
1C
100
AcDbSymbolTableRecord
100
AcDbRegAppTableRecord
  2
DESIGNERASSEMBLIES
 70
     0
  0
APPID
  5
E05
330
1C
100
AcDbSymbolTableRecord
100
AcDbRegAppTableRecord
  2
ACADM_DIM_EDIT
 70
     0
  0
APPID
  5
E06
330
1C
100
AcDbSymbolTableRecord
100
AcDbRegAppTableRecord
  2
AMDT_DM_ADJ
 70
     0
  0
ENDTAB
  0
TABLE
  2
DIMSTYLE
  5
1E
330
0
100
AcDbSymbolTable
 70
     7
100
AcDbDimStyleTable
 71
     0
  0
DIMSTYLE
105
1F
102
{ACAD_REACTORS
330
778
330
7B9
330
80B
330
84C
102
}
330
1E
100
AcDbSymbolTableRecord
100
AcDbDimStyleTableRecord
  2
AM_ISO
 70
     0
  4
"
 41
3.0
 42
2.0
 43
7.0
 44
1.0
 47
0.1
 48
0.1
 73
     0
 74
     0
 77
     1
 78
     8
 79
     2
140
3.0
141
0.0
143
0.0393701
146
0.71
147
0.7
172
     1
176
   256
177
   256
178
   256
271
     2
272
     2
283
     0
284
     8
340
13
371
    -1
372
    -1
  0
DIMSTYLE
105
1AE
330
1E
100
AcDbSymbolTableRecord
100
AcDbDimStyleTableRecord
  2
AM_ISO$3
 70
     0
  4
"
 41
3.0
 42
2.0
 43
7.0
 44
1.0
 47
0.1
 48
0.1
 73
     0
 77
     1
 78
     8
 79
     2
140
3.0
141
0.0
143
0.0393701
146
0.71
147
0.7
176
   256
177
   256
178
   256
271
     2
272
     2
283
     0
284
     8
288
     1
289
     0
340
13
371
    -1
372
    -1
  0
DIMSTYLE
105
1AF
330
1E
100
AcDbSymbolTableRecord
100
AcDbDimStyleTableRecord
  2
AM_ISO$4
 70
     0
  4
"
 41
3.0
 42
2.0
 43
7.0
 44
1.0
 47
0.1
 48
0.1
 73
     0
 77
     1
 78
     8
 79
     2
140
3.0
141
0.0
143
0.0393701
146
0.71
147
0.7
176
   256
177
   256
178
   256
271
     2
272
     2
283
     0
284
     8
288
     1
289
     0
340
13
371
    -1
372
    -1
  0
DIMSTYLE
105
1B0
330
1E
100
AcDbSymbolTableRecord
100
AcDbDimStyleTableRecord
  2
AM_ISO$6
 70
     0
  4
"
 41
3.0
 42
2.0
 43
7.0
 44
1.0
 47
0.1
 48
0.1
 73
     0
 74
     0
 78
     8
 79
     2
140
3.0
141
0.0
143
0.0393701
146
0.71
147
0.7
172
     1
176
   256
177
   256
178
   256
271
     2
272
     2
283
     0
284
     8
340
13
371
    -1
372
    -1
  0
DIMSTYLE
105
1B1
330
1E
100
AcDbSymbolTableRecord
100
AcDbDimStyleTableRecord
  2
AM_ISO$7
 70
     0
  4
"
 41
2.5
 42
2.0
 43
7.0
 44
1.0
 47
0.1
 48
0.1
 73
     0
 74
     0
 77
     1
 78
     8
 79
     2
140
5.0
141
0.0
143
0.0393701
146
0.71
147
1.5
172
     1
176
   256
177
   256
178
   256
271
     2
272
     2
283
     0
284
     8
340
13
371
    -1
372
    -1
  0
DIMSTYLE
105
1B2
330
1E
100
AcDbSymbolTableRecord
100
AcDbDimStyleTableRecord
  2
AM_ISO$SF
 70
     0
  4
"
 41
3.0
 42
2.0
 43
7.0
 44
1.0
 47
0.1
 48
0.1
 73
     0
 74
     0
 75
     1
 76
     1
 77
     1
 78
     8
 79
     2
140
3.0
141
0.0
143
0.0393701
146
0.71
147
0.7
172
     1
176
   256
177
   256
178
   256
271
     2
272
     2
283
     0
284
     8
340
13
371
    -1
372
    -1
  0
DIMSTYLE
105
1B7
330
1E
100
AcDbSymbolTableRecord
100
AcDbDimStyleTableRecord
  2
AM_ISO$SH
 70
     0
  4
"
 41
3.0
 42
2.0
 43
7.0
 44
1.0
 47
0.1
 48
0.1
 73
     0
 74
     0
 75
     1
 76
     1
 77
     1
 78
     8
 79
     2
140
3.0
141
0.0
143
0.0393701
144
2.0
146
0.71
147
0.7
172
     1
173
     1
176
   256
177
   256
178
   256
271
     2
272
     2
283
     0
284
     8
340
13
341
1B3
343
1B3
371
    -1
372
    -1
  0
ENDTAB
  0
TABLE
  2
BLOCK_RECORD
  5
1
330
0
100
AcDbSymbolTable
 70
     8
  0
BLOCK_RECORD
  5
2
102
{ACAD_XDICTIONARY
360
3
102
}
330
1
100
AcDbSymbolTableRecord
100
AcDbBlockTableRecord
  2
*Model_Space
340
B
  0
BLOCK_RECORD
  5
D
102
{ACAD_XDICTIONARY
360
CD9
102
}
330
1
100
AcDbSymbolTableRecord
100
AcDbBlockTableRecord
  2
*Paper_Space
340
10
  0
BLOCK_RECORD
  5
1B3
330
1
100
AcDbSymbolTableRecord
100
AcDbBlockTableRecord
  2
GENAXEH
340
0
  0
BLOCK_RECORD
  5
286
330
1
100
AcDbSymbolTableRecord
100
AcDbBlockTableRecord
  2
A$C32C02AC5
340
0
102
{BLKREFS
331
60C
331
65B
102
}
  0
BLOCK_RECORD
  5
779
330
1
100
AcDbSymbolTableRecord
100
AcDbBlockTableRecord
  2
*D2
340
0
  0
BLOCK_RECORD
  5
7BA
330
1
100
AcDbSymbolTableRecord
100
AcDbBlockTableRecord
  2
*D3
340
0
  0
BLOCK_RECORD
  5
80C
330
1
100
AcDbSymbolTableRecord
100
AcDbBlockTableRecord
  2
*D4
340
0
  0
BLOCK_RECORD
  5
84D
330
1
100
AcDbSymbolTableRecord
100
AcDbBlockTableRecord
  2
*D5
340
0
  0
BLOCK_RECORD
  5
D34
330
1
100
AcDbSymbolTableRecord
100
AcDbBlockTableRecord
  2
*S6
340
0
102
{BLKREFS
331
C34
102
}
  0
BLOCK_RECORD
  5
DF6
330
1
100
AcDbSymbolTableRecord
100
AcDbBlockTableRecord
  2
*U7
340
0
  0
ENDTAB
  0
ENDSEC
  0
SECTION
  2
BLOCKS
  0
BLOCK
  5
4
330
2
100
AcDbEntity
  8
0
100
AcDbBlockBegin
  2
*Model_Space
 70
     0
 10
0.0
 20
0.0
 30
0.0
  3
*Model_Space
  1

  0
ENDBLK
  5
A
330
2
100
AcDbEntity
  8
0
100
AcDbBlockEnd
  0
BLOCK
  5
E
330
D
100
AcDbEntity
 67
     1
  8
0
100
AcDbBlockBegin
  2
*Paper_Space
 70
     0
 10
0.0
 20
0.0
 30
0.0
  3
*Paper_Space
  1

  0
ENDBLK
  5
F
330
D
100
AcDbEntity
 67
     1
  8
0
100
AcDbBlockEnd
  0
BLOCK
  5
1B5
330
1B3
100
AcDbEntity
  8
0
100
AcDbBlockBegin
  2
GENAXEH
 70
     0
 10
0.0
 20
0.0
 30
0.0
  3
GENAXEH
  1

  0
LINE
  5
1B4
330
1B3
100
AcDbEntity
  8
0
100
AcDbLine
 10
-1.0
 20
0.0
 30
0.0
 11
1.0
 21
0.0
 31
0.0
  0
ENDBLK
  5
1B6
330
1B3
100
AcDbEntity
  8
0
100
AcDbBlockEnd
  0
BLOCK
  5
298
330
286
100
AcDbEntity
  8
0
100
AcDbBlockBegin
  2
A$C32C02AC5
 70
     0
 10
0.0
 20
0.0
 30
0.0
  3
A$C32C02AC5
  1

  0
ARC
  5
287
330
286
100
AcDbEntity
  8
AM_0N
100
AcDbCircle
 10
28.29750013681883
 20
0.4717226462118731
 30
0.0
 40
7.148277279961684
100
AcDbArc
 50
64.43846940473163
 51
124.4384694047311
1001
GENIUS_GENOREF_13
1005
0
  0
ARC
  5
288
330
286
100
AcDbEntity
  8
AM_0N
100
AcDbCircle
 10
28.29750013681877
 20
9.773277206135219
 30
0.0
 40
7.148277279961684
100
AcDbArc
 50
235.5615305952688
 51
295.5615305952684
1001
GENIUS_GENOREF_13
1005
0
  0
LINE
  5
289
330
286
100
AcDbEntity
  8
AM_0N
100
AcDbLine
 10
30.17000013681877
 20
7.619999926173534
 30
0.0
 11
2.170000136818771
 21
7.619999926173534
 31
0.0
1001
GENIUS_GENOREF_13
1005
0
  0
LINE
  5
28A
330
286
100
AcDbEntity
  8
AM_0N
100
AcDbLine
 10
30.17000013681877
 20
2.624999926173529
 30
0.0
 11
2.170000136818771
 21
2.624999926173529
 31
0.0
1001
GENIUS_GENOREF_13
1005
0
  0
ARC
  5
28B
330
286
100
AcDbEntity
  8
AM_0N
100
AcDbCircle
 10
4.042500136818773
 20
0.4717226462118731
 30
0.0
 40
7.148277279961684
100
AcDbArc
 50
55.56153059526886
 51
115.5615305952669
1001
GENIUS_GENOREF_13
1005
0
  0
ARC
  5
28C
330
286
100
AcDbEntity
  8
AM_0N
100
AcDbCircle
 10
4.042500136818773
 20
9.773277206135219
 30
0.0
 40
7.148277279961654
100
AcDbArc
 50
244.4384694047316
 51
304.4384694047312
1001
GENIUS_GENOREF_13
1005
0
  0
LINE
  5
28D
330
286
100
AcDbEntity
  8
AM_0N
100
AcDbLine
 10
0.0000001368187839
 20
6.367149842032063
 30
0.0
 11
2.170000136818771
 21
7.619999926173534
 31
0.0
1001
GENIUS_GENOREF_13
1005
0
  0
LINE
  5
28E
330
286
100
AcDbEntity
  8
AM_0N
100
AcDbLine
 10
0.0000001368187839
 20
3.877850010315
 30
0.0
 11
2.170000136818771
 21
2.624999926173529
 31
0.0
1001
GENIUS_GENOREF_13
1005
0
  0
LINE
  5
28F
330
286
100
AcDbEntity
  8
AM_0N
100
AcDbLine
 10
0.0000001368187839
 20
6.367149842032063
 30
0.0
 11
0.0000001368187839
 21
3.877850010315
 31
0.0
1001
GENIUS_GENOREF_13
1005
0
  0
ARC
  5
290
330
286
100
AcDbEntity
  8
AM_0N
100
AcDbCircle
 10
16.17000013681877
 20
-19.09383406746096
 30
0.0
 40
26.71383399363448
100
AcDbArc
 50
72.38303115961244
 51
107.616968840386
1001
GENIUS_GENOREF_13
1005
0
  0
ARC
  5
291
330
286
100
AcDbEntity
  8
AM_0N
100
AcDbCircle
 10
16.17000013681883
 20
29.33883391980808
 30
0.0
 40
26.71383399363456
100
AcDbArc
 50
252.383031159614
 51
287.616968840386
1001
GENIUS_GENOREF_13
1005
0
  0
LINE
  5
292
330
286
100
AcDbEntity
  8
AM_0N
100
AcDbLine
 10
8.085000136818763
 20
6.367149842032063
 30
0.0
 11
8.085000136818763
 21
3.877850010315
 31
0.0
1001
GENIUS_GENOREF_13
1005
0
  0
LINE
  5
293
330
286
100
AcDbEntity
  8
AM_0N
100
AcDbLine
 10
24.25500013681878
 20
6.367149842032063
 30
0.0
 11
24.25500013681878
 21
3.877850010315
 31
0.0
1001
GENIUS_GENOREF_13
1005
0
  0
LINE
  5
294
330
286
100
AcDbEntity
  8
AM_0N
100
AcDbLine
 10
32.34000013681879
 20
6.367149842032063
 30
0.0
 11
30.17000013681877
 21
7.619999926173534
 31
0.0
1001
GENIUS_GENOREF_13
1005
0
  0
LINE
  5
295
330
286
100
AcDbEntity
  8
AM_0N
100
AcDbLine
 10
32.34000013681879
 20
6.367149842032063
 30
0.0
 11
32.34000013681879
 21
3.877850010315
 31
0.0
1001
GENIUS_GENOREF_13
1005
0
  0
LINE
  5
296
330
286
100
AcDbEntity
  8
AM_0N
100
AcDbLine
 10
32.34000013681879
 20
3.877850010315
 30
0.0
 11
30.17000013681877
 21
2.624999926173529
 31
0.0
1001
GENIUS_GENOREF_13
1005
0
  0
LINE
  5
297
330
286
100
AcDbEntity
  8
AM_7N
  6
AM_ISO08W050x2
 62
     1
100
AcDbLine
 10
16.17000013681877
 20
10.24499992617353
 30
0.0
 11
16.17000013681877
 21
-0.0000000738264703
 31
0.0
1001
GENIUS_GENOREF_13
1005
0
  0
ENDBLK
  5
299
330
286
100
AcDbEntity
  8
0
100
AcDbBlockEnd
  0
BLOCK
  5
783
330
779
100
AcDbEntity
  8
0
100
AcDbBlockBegin
  2
*D2
 70
     1
 10
0.0
 20
0.0
 30
0.0
  3
*D2
  1

  0
LINE
  5
CA6
330
779
100
AcDbEntity
  8
AM_5
100
AcDbLine
 10
183.9973861300953
 20
188.2647216347129
 30
0.0
 11
183.9973861300953
 21
141.1737479866613
 31
0.0
  0
LINE
  5
CA7
330
779
100
AcDbEntity
  8
AM_5
100
AcDbLine
 10
273.9886585976312
 20
188.2647216347129
 30
0.0
 11
273.9886585976312
 21
141.1737479866613
 31
0.0
  0
LINE
  5
CA8
330
779
100
AcDbEntity
  8
AM_5
100
AcDbLine
 10
186.9973861300953
 20
142.1737479866613
 30
0.0
 11
270.9886585976312
 21
142.1737479866613
 31
0.0
  0
SOLID
  5
CA9
330
779
100
AcDbEntity
  8
AM_5
100
AcDbTrace
 10
186.9973861300953
 20
142.6737479866613
 30
0.0
 11
186.9973861300953
 21
141.6737479866613
 31
0.0
 12
183.9973861300953
 22
142.1737479866613
 32
0.0
 13
183.9973861300953
 23
142.1737479866613
 33
0.0
  0
SOLID
  5
CAA
330
779
100
AcDbEntity
  8
AM_5
100
AcDbTrace
 10
270.9886585976312
 20
142.6737479866613
 30
0.0
 11
270.9886585976312
 21
141.6737479866613
 31
0.0
 12
273.9886585976312
 22
142.1737479866613
 32
0.0
 13
273.9886585976312
 23
142.1737479866613
 33
0.0
  0
MTEXT
  5
CAB
330
779
100
AcDbEntity
  8
AM_5
100
AcDbMText
 10
228.9930223638633
 20
144.3737479866612
 30
0.0
 40
3.0
 41
0.0
 71
     5
 72
     1
  1
90
 73
     1
 44
1.0
  0
POINT
  5
CAC
330
779
100
AcDbEntity
  8
Defpoints
 62
     0
100
AcDbPoint
 10
183.9973861300953
 20
190.2647216347128
 30
0.0
  0
POINT
  5
CAD
330
779
100
AcDbEntity
  8
Defpoints
 62
     0
100
AcDbPoint
 10
273.9886585976312
 20
190.2647216347128
 30
0.0
  0
POINT
  5
CAE
330
779
100
AcDbEntity
  8
Defpoints
 62
     0
100
AcDbPoint
 10
273.9886585976312
 20
142.1737479866613
 30
0.0
  0
ENDBLK
  5
784
330
779
100
AcDbEntity
  8
0
100
AcDbBlockEnd
  0
BLOCK
  5
7C4
330
7BA
100
AcDbEntity
  8
0
100
AcDbBlockBegin
  2
*D3
 70
     1
 10
0.0
 20
0.0
 30
0.0
  3
*D3
  1

  0
LINE
  5
CB8
330
7BA
100
AcDbEntity
  8
AM_5
100
AcDbLine
 10
322.1952500725101
 20
161.2647216347129
 30
0.0
 11
322.1952500725101
 21
141.1737479866615
 31
0.0
  0
LINE
  5
CB9
330
7BA
100
AcDbEntity
  8
AM_5
100
AcDbLine
 10
382.1952500725101
 20
161.2647216347129
 30
0.0
 11
382.1952500725101
 21
141.1737479866615
 31
0.0
  0
LINE
  5
CBA
330
7BA
100
AcDbEntity
  8
AM_5
100
AcDbLine
 10
325.1952500725102
 20
142.1737479866615
 30
0.0
 11
379.1952500725102
 21
142.1737479866615
 31
0.0
  0
SOLID
  5
CBB
330
7BA
100
AcDbEntity
  8
AM_5
100
AcDbTrace
 10
325.1952500725102
 20
142.6737479866615
 30
0.0
 11
325.1952500725102
 21
141.6737479866615
 31
0.0
 12
322.1952500725101
 22
142.1737479866615
 32
0.0
 13
322.1952500725101
 23
142.1737479866615
 33
0.0
  0
SOLID
  5
CBC
330
7BA
100
AcDbEntity
  8
AM_5
100
AcDbTrace
 10
379.1952500725102
 20
142.6737479866615
 30
0.0
 11
379.1952500725102
 21
141.6737479866615
 31
0.0
 12
382.1952500725101
 22
142.1737479866615
 32
0.0
 13
382.1952500725101
 23
142.1737479866615
 33
0.0
  0
MTEXT
  5
CBD
330
7BA
100
AcDbEntity
  8
AM_5
100
AcDbMText
 10
352.1952500725102
 20
144.3737479866615
 30
0.0
 40
3.0
 41
0.0
 71
     5
 72
     1
  1
%%c60
 73
     1
 44
1.0
  0
POINT
  5
CBE
330
7BA
100
AcDbEntity
  8
Defpoints
 62
     0
100
AcDbPoint
 10
322.1952500725101
 20
163.2647216347129
 30
0.0
  0
POINT
  5
CBF
330
7BA
100
AcDbEntity
  8
Defpoints
 62
     0
100
AcDbPoint
 10
382.1952500725101
 20
163.2647216347129
 30
0.0
  0
POINT
  5
CC0
330
7BA
100
AcDbEntity
  8
Defpoints
 62
     0
100
AcDbPoint
 10
382.1952500725101
 20
142.1737479866615
 30
0.0
  0
ENDBLK
  5
7C5
330
7BA
100
AcDbEntity
  8
0
100
AcDbBlockEnd
  0
BLOCK
  5
816
330
80C
100
AcDbEntity
  8
0
100
AcDbBlockBegin
  2
*D4
 70
     1
 10
0.0
 20
0.0
 30
0.0
  3
*D4
  1

  0
LINE
  5
C9D
330
80C
100
AcDbEntity
  8
AM_5
100
AcDbLine
 10
243.4886585976312
 20
155.7647216347129
 30
0.0
 11
288.9149792349531
 21
155.7647216347129
 31
0.0
  0
LINE
  5
C9E
330
80C
100
AcDbEntity
  8
AM_5
100
AcDbLine
 10
277.9149792349531
 20
211.7647216347129
 30
0.0
 11
288.9149792349531
 21
211.7647216347129
 31
0.0
  0
LINE
  5
C9F
330
80C
100
AcDbEntity
  8
AM_5
100
AcDbLine
 10
287.9149792349531
 20
158.7647216347129
 30
0.0
 11
287.9149792349531
 21
208.764721634713
 31
0.0
  0
SOLID
  5
CA0
330
80C
100
AcDbEntity
  8
AM_5
100
AcDbTrace
 10
287.4149792349531
 20
158.7647216347129
 30
0.0
 11
288.4149792349531
 21
158.7647216347129
 31
0.0
 12
287.9149792349531
 22
155.7647216347129
 32
0.0
 13
287.9149792349531
 23
155.7647216347129
 33
0.0
  0
SOLID
  5
CA1
330
80C
100
AcDbEntity
  8
AM_5
100
AcDbTrace
 10
287.4149792349531
 20
208.764721634713
 30
0.0
 11
288.4149792349531
 21
208.764721634713
 31
0.0
 12
287.9149792349531
 22
211.7647216347129
 32
0.0
 13
287.9149792349531
 23
211.7647216347129
 33
0.0
  0
MTEXT
  5
CA2
330
80C
100
AcDbEntity
  8
AM_5
100
AcDbMText
 10
285.7149792349531
 20
183.7647216347129
 30
0.0
 40
3.0
 41
0.0
 71
     5
 72
     1
  1
56
 11
0.0000000000000001
 21
1.0
 31
0.0
 73
     1
 44
1.0
  0
POINT
  5
CA3
330
80C
100
AcDbEntity
  8
Defpoints
 62
     0
100
AcDbPoint
 10
241.4886585976312
 20
155.7647216347129
 30
0.0
  0
POINT
  5
CA4
330
80C
100
AcDbEntity
  8
Defpoints
 62
     0
100
AcDbPoint
 10
275.9149792349531
 20
211.7647216347129
 30
0.0
  0
POINT
  5
CA5
330
80C
100
AcDbEntity
  8
Defpoints
 62
     0
100
AcDbPoint
 10
287.9149792349531
 20
211.7647216347129
 30
0.0
  0
ENDBLK
  5
817
330
80C
100
AcDbEntity
  8
0
100
AcDbBlockEnd
  0
BLOCK
  5
857
330
84D
100
AcDbEntity
  8
0
100
AcDbBlockBegin
  2
*D5
 70
     1
 10
0.0
 20
0.0
 30
0.0
  3
*D5
  1

  0
LINE
  5
CAF
330
84D
100
AcDbEntity
  8
AM_5
100
AcDbLine
 10
243.4886585976312
 20
155.7647216347129
 30
0.0
 11
298.0971246997713
 21
155.7647216347129
 31
0.0
  0
LINE
  5
CB0
330
84D
100
AcDbEntity
  8
AM_5
100
AcDbLine
 10
230.9886585976312
 20
303.7147216347129
 30
0.0
 11
298.0971246997713
 21
303.7147216347129
 31
0.0
  0
LINE
  5
CB1
330
84D
100
AcDbEntity
  8
AM_5
100
AcDbLine
 10
297.0971246997713
 20
158.7647216347129
 30
0.0
 11
297.0971246997713
 21
300.7147216347129
 31
0.0
  0
SOLID
  5
CB2
330
84D
100
AcDbEntity
  8
AM_5
100
AcDbTrace
 10
296.5971246997713
 20
158.7647216347129
 30
0.0
 11
297.5971246997713
 21
158.7647216347129
 31
0.0
 12
297.0971246997713
 22
155.7647216347129
 32
0.0
 13
297.0971246997713
 23
155.7647216347129
 33
0.0
  0
SOLID
  5
CB3
330
84D
100
AcDbEntity
  8
AM_5
100
AcDbTrace
 10
296.5971246997713
 20
300.7147216347129
 30
0.0
 11
297.5971246997713
 21
300.7147216347129
 31
0.0
 12
297.0971246997713
 22
303.7147216347129
 32
0.0
 13
297.0971246997713
 23
303.7147216347129
 33
0.0
  0
MTEXT
  5
CB4
330
84D
100
AcDbEntity
  8
AM_5
100
AcDbMText
 10
294.8971246997713
 20
229.739721634713
 30
0.0
 40
3.0
 41
0.0
 71
     5
 72
     1
  1
148
 11
0.0000000000000001
 21
1.0
 31
0.0
 73
     1
 44
1.0
  0
POINT
  5
CB5
330
84D
100
AcDbEntity
  8
Defpoints
 62
     0
100
AcDbPoint
 10
241.4886585976312
 20
155.7647216347129
 30
0.0
  0
POINT
  5
CB6
330
84D
100
AcDbEntity
  8
Defpoints
 62
     0
100
AcDbPoint
 10
228.9886585976312
 20
303.7147216347129
 30
0.0
  0
POINT
  5
CB7
330
84D
100
AcDbEntity
  8
Defpoints
 62
     0
100
AcDbPoint
 10
297.0971246997713
 20
303.7147216347129
 30
0.0
  0
ENDBLK
  5
858
330
84D
100
AcDbEntity
  8
0
100
AcDbBlockEnd
  0
BLOCK
  5
D39
330
D34
100
AcDbEntity
  8
0
100
AcDbBlockBegin
  2
*S6
 70
     1
 10
0.0
 20
0.0
 30
0.0
  3
*S6
  1

  0
LINE
  5
D35
330
D34
100
AcDbEntity
  8
AM_5
100
AcDbLine
 10
402.5913179602889
 20
186.4690717926535
 30
0.0
 11
386.6229865450387
 21
186.4690717926535
 31
0.0
  0
LINE
  5
D36
330
D34
100
AcDbEntity
  8
AM_5
100
AcDbLine
 10
386.6229865450387
 20
186.4690717926535
 30
0.0
 11
368.6649204681708
 21
200.2945790633853
 31
0.0
  0
TRACE
  5
D37
330
D34
100
AcDbEntity
  8
AM_5
100
AcDbTrace
 10
368.9460135512415
 20
200.6596932006595
 30
0.0
 11
368.3838273851003
 21
199.9294649261111
 31
0.0
 12
365.8916032459824
 22
202.4296930147034
 32
0.0
 13
365.8916032459824
 23
202.4296930147034
 33
0.0
  0
MTEXT
  5
D38
330
D34
100
AcDbEntity
  8
AM_5
 62
     2
100
AcDbMText
 10
402.5913179602889
 20
184.2629504252179
 30
0.0
 40
3.5
 41
0.0
 71
     7
 72
     5
  1

  7
ACISOTS
 73
     1
 44
1.0
  0
ENDBLK
  5
D3A
330
D34
100
AcDbEntity
  8
0
100
AcDbBlockEnd
  0
BLOCK
  5
DF7
330
DF6
100
AcDbEntity
  8
0
100
AcDbBlockBegin
  2
*U7
 70
     1
 10
0.0
 20
0.0
 30
0.0
  3
*U7
  1

  0
ENDBLK
  5
DF8
330
DF6
100
AcDbEntity
  8
0
100
AcDbBlockEnd
  0
ENDSEC
  0
SECTION
  2
ENTITIES
  0
POINT
  5
25
330
2
100
AcDbEntity
  8
0
 60
     1
100
AcDbPoint
 10
0.0
 20
0.0
 30
0.0
  0
LINE
  5
2F
330
2
100
AcDbEntity
  8
AM_7
 60
     1
100
AcDbLine
 10
186.0289478199105
 20
67.87655660720407
 30
0.0
 11
186.0289478199105
 21
100.376556607204
 31
0.0
  0
LINE
  5
608
330
2
100
AcDbEntity
  8
AM_7
100
AcDbLine
 10
352.1952500725102
 20
211.7647216347129
 30
0.0
 11
332.6952500725101
 21
211.7647216347129
 31
0.0
  0
ARC
  5
609
330
2
100
AcDbEntity
  8
0
 62
     3
100
AcDbCircle
 10
352.1952500725102
 20
211.7647216347129
 30
0.0
 40
16.5
100
AcDbArc
 50
279.9999999999986
 51
190.0000000000002
  0
CIRCLE
  5
60A
330
2
100
AcDbEntity
  8
0
100
AcDbCircle
 10
352.1952500725102
 20
211.7647216347129
 30
0.0
 40
15.15
  0
LINE
  5
60B
330
2
100
AcDbEntity
  8
AM_VIS
 62
     4
100
AcDbLine
 10
342.6952500725097
 20
264.764721634713
 30
0.0
 11
361.6952500725097
 21
264.764721634713
 31
0.0
  0
INSERT
  5
60C
330
2
100
AcDbEntity
  8
0
100
AcDbBlockReference
  2
A$C32C02AC5
 10
336.025249935691
 20
266.6447217085393
 30
0.0
  0
ARC
  5
60D
330
2
100
AcDbEntity
  8
0
100
AcDbCircle
 10
352.1952500725102
 20
187.2647216347129
 30
0.0
 40
75.0
100
AcDbArc
 50
80.22833845879786
 51
99.77166154120215
  0
LINE
  5
60E
330
2
100
AcDbEntity
  8
AM_VIS
100
AcDbLine
 10
366.1952500725101
 20
279.264721634713
 30
0.0
 11
338.1952500725101
 21
279.264721634713
 31
0.0
  0
LINE
  5
60F
330
2
100
AcDbEntity
  8
AM_VIS
100
AcDbLine
 10
339.1952500725101
 20
296.264721634713
 30
0.0
 11
365.1952500725101
 21
296.264721634713
 31
0.0
  0
LINE
  5
610
330
2
100
AcDbEntity
  8
AM_VIS
100
AcDbLine
 10
340.070894420271
 20
281.264721634713
 30
0.0
 11
345.1952500735107
 21
281.264721634713
 31
0.0
  0
LINE
  5
611
330
2
100
AcDbEntity
  8
AM_VIS
100
AcDbLine
 10
345.4452500735107
 20
295.764721634713
 30
0.0
 11
340.5039071221631
 21
295.764721634713
 31
0.0
  0
LINE
  5
612
330
2
100
AcDbEntity
  8
AM_VIS
100
AcDbLine
 10
381.1952500725102
 20
162.2647216347129
 30
0.0
 11
323.1952500725101
 21
162.2647216347129
 31
0.0
  0
LINE
  5
613
102
{ACAD_REACTORS
330
7D0
102
}
330
2
100
AcDbEntity
  8
AM_VIS
100
AcDbLine
 10
322.1952500725101
 20
163.2647216347129
 30
0.0
 11
382.1952500725101
 21
163.2647216347129
 31
0.0
  0
LINE
  5
614
330
2
100
AcDbEntity
  8
AM_VIS
100
AcDbLine
 10
382.1952500725101
 20
167.7647216347129
 30
0.0
 11
322.1952500725101
 21
167.7647216347129
 31
0.0
  0
LINE
  5
615
330
2
100
AcDbEntity
  8
AM_VIS
100
AcDbLine
 10
322.6952500725101
 20
168.2647216347129
 30
0.0
 11
381.6952500725101
 21
168.2647216347129
 31
0.0
  0
LINE
  5
616
330
2
100
AcDbEntity
  8
AM_VIS
100
AcDbLine
 10
359.9894787065701
 20
156.7647216347129
 30
0.0
 11
344.4010214384502
 21
156.7647216347129
 31
0.0
  0
LINE
  5
617
330
2
100
AcDbEntity
  8
AM_VIS
100
AcDbLine
 10
344.9783717076398
 20
155.7647216347129
 30
0.0
 11
344.4010214384502
 21
156.7647216347129
 31
0.0
  0
LINE
  5
618
330
2
100
AcDbEntity
  8
AM_VIS
100
AcDbLine
 10
337.7614933427695
 20
155.7647216347129
 30
0.0
 11
344.9783717076398
 21
155.7647216347129
 31
0.0
  0
LINE
  5
619
330
2
100
AcDbEntity
  8
AM_VIS
100
AcDbLine
 10
322.2039762757288
 20
168.7646454822911
 30
0.0
 11
382.1865238692915
 21
168.7646454822911
 31
0.0
  0
LINE
  5
61A
330
2
100
AcDbEntity
  8
AM_VIS
100
AcDbLine
 10
381.6952500725101
 20
168.2647216347129
 30
0.0
 11
322.6952500725101
 21
168.2647216347129
 31
0.0
  0
LINE
  5
61B
330
2
100
AcDbEntity
  8
AM_VIS
100
AcDbLine
 10
330.1952500725101
 20
190.2647216347128
 30
0.0
 11
374.1952500725101
 21
190.2647216347128
 31
0.0
  0
LINE
  5
61C
330
2
100
AcDbEntity
  8
AM_VIS
100
AcDbLine
 10
337.3009315073156
 20
253.6091686105626
 30
0.0
 11
336.6952500725101
 21
236.2647216347129
 31
0.0
  0
LINE
  5
61D
330
2
100
AcDbEntity
  8
AM_VIS
100
AcDbLine
 10
336.9340989832807
 20
232.5933473836917
 30
0.0
 11
337.3907788600664
 21
258.7565200022808
 31
0.0
  0
LINE
  5
61E
330
2
100
AcDbEntity
  8
AM_VIS
100
AcDbLine
 10
214.3965986044167
 20
262.2647216347129
 30
0.0
 11
213.4886585976312
 21
236.2647216347129
 31
0.0
  0
LINE
  5
61F
330
2
100
AcDbEntity
  8
AM_VIS
100
AcDbLine
 10
230.056248335795
 20
251.4268967715032
 30
0.0
 11
230.2454232724629
 21
262.2647216347129
 31
0.0
  0
LINE
  5
620
330
2
100
AcDbEntity
  8
AM_VIS
100
AcDbLine
 10
273.2206357407897
 20
234.2647216347129
 30
0.0
 11
272.7318939227996
 21
262.2647216347129
 31
0.0
  0
LINE
  5
621
330
2
100
AcDbEntity
  8
AM_7
100
AcDbLine
 10
228.9886585976312
 20
151.6337557272933
 30
0.0
 11
228.9886585976312
 21
305.1229332475421
 31
0.0
  0
LINE
  5
622
102
{ACAD_REACTORS
330
78F
102
}
330
2
100
AcDbEntity
  8
AM_VIS
100
AcDbLine
 10
183.9973861300953
 20
190.2647216347128
 30
0.0
 11
273.9886585976312
 21
190.2647216347128
 31
0.0
  0
LINE
  5
623
330
2
100
AcDbEntity
  8
AM_VIS
100
AcDbLine
 10
257.9886585976312
 20
162.2647216347129
 30
0.0
 11
199.9886585976312
 21
162.2647216347129
 31
0.0
  0
LINE
  5
624
330
2
100
AcDbEntity
  8
AM_VIS
100
AcDbLine
 10
198.9886585976312
 20
163.2647216347129
 30
0.0
 11
258.9886585976312
 21
163.2647216347129
 31
0.0
  0
LINE
  5
625
330
2
100
AcDbEntity
  8
AM_VIS
100
AcDbLine
 10
258.9886585976312
 20
167.7647216347129
 30
0.0
 11
198.9886585976312
 21
167.7647216347129
 31
0.0
  0
LINE
  5
626
330
2
100
AcDbEntity
  8
AM_VIS
100
AcDbLine
 10
199.4886585976312
 20
168.2647216347129
 30
0.0
 11
258.4886585976312
 21
168.2647216347129
 31
0.0
  0
LINE
  5
627
330
2
100
AcDbEntity
  8
AM_VIS
100
AcDbLine
 10
201.6496489074236
 20
236.2647216347129
 30
0.0
 11
251.7146482358072
 21
236.2647216347129
 31
0.0
  0
LINE
  5
628
330
2
100
AcDbEntity
  8
AM_VIS
100
AcDbLine
 10
253.4823697617373
 20
234.7909002443688
 30
0.0
 11
200.149877364689
 21
234.7909002443688
 31
0.0
  0
LINE
  5
629
330
2
100
AcDbEntity
  8
AM_VIS
100
AcDbLine
 10
198.9973848008499
 20
168.7646454822911
 30
0.0
 11
258.9799323944126
 21
168.7646454822911
 31
0.0
  0
LINE
  5
62A
330
2
100
AcDbEntity
  8
AM_VIS
100
AcDbLine
 10
258.4886585976312
 20
168.2647216347129
 30
0.0
 11
199.4886585976312
 21
168.2647216347129
 31
0.0
  0
LINE
  5
62B
102
{ACAD_REACTORS
330
78F
102
}
330
2
100
AcDbEntity
  8
AM_VIS
100
AcDbLine
 10
183.9973861300953
 20
190.2647216347128
 30
0.0
 11
184.7566814544729
 21
233.764721634713
 31
0.0
  0
SPLINE
  5
62C
330
2
100
AcDbEntity
  8
AM_VIS
100
AcDbSpline
210
0.0
220
0.0
230
1.0
 70
    12
 71
     2
 72
     6
 73
     3
 74
     0
 42
0.0000000001
 43
0.0000000001
 40
0.0
 40
0.0
 40
0.0
 40
43.51132541475623
 40
43.51132541475623
 40
43.51132541475623
 10
209.4589818857377
 20
233.764721634713
 30
0.0
 41
1.0
 10
209.3120363299461
 20
212.1771516929885
 30
0.0
 41
1.0
 10
209.1650907679776
 20
190.2647216347128
 30
0.0
 41
1.0
  0
LINE
  5
62D
330
2
100
AcDbEntity
  8
AM_VIS
100
AcDbLine
 10
199.372670026052
 20
190.2647216347128
 30
0.0
 11
198.9973848008499
 21
168.7646454822911
 31
0.0
  0
LINE
  5
62E
330
2
100
AcDbEntity
  8
AM_VIS
100
AcDbLine
 10
198.9886585976312
 20
167.7647216347129
 30
0.0
 11
198.9886585976312
 21
163.2647216347129
 31
0.0
  0
LINE
  5
62F
330
2
100
AcDbEntity
  8
AM_VIS
100
AcDbLine
 10
199.9886585976312
 20
162.2647216347129
 30
0.0
 11
198.9886585976312
 21
163.2647216347129
 31
0.0
  0
LINE
  5
630
330
2
100
AcDbEntity
  8
AM_VIS
100
AcDbLine
 10
199.4886585976312
 20
168.2647216347129
 30
0.0
 11
198.9886585976312
 21
167.7647216347129
 31
0.0
  0
LINE
  5
631
330
2
100
AcDbEntity
  8
AM_VIS
100
AcDbLine
 10
199.4886585976312
 20
168.2647216347129
 30
0.0
 11
198.9973848008499
 21
168.7646454822911
 31
0.0
  0
LINE
  5
632
330
2
100
AcDbEntity
  8
AM_VIS
100
AcDbLine
 10
209.4589818857377
 20
233.764721634713
 30
0.0
 11
184.7566814544729
 21
233.764721634713
 31
0.0
  0
LINE
  5
633
330
2
100
AcDbEntity
  8
AM_VIS
100
AcDbLine
 10
200.149877364689
 20
234.7909002443688
 30
0.0
 11
200.1319653504296
 21
233.764721634713
 31
0.0
  0
ARC
  5
634
330
2
100
AcDbEntity
  8
AM_VIS
100
AcDbCircle
 10
201.6496489074236
 20
234.7647216347129
 30
0.0
 40
1.5
100
AcDbArc
 50
90.0
 51
178.9999999999994
  0
LINE
  5
635
330
2
100
AcDbEntity
  8
AM_VIS
100
AcDbLine
 10
344.4010214384502
 20
162.2647216347129
 30
0.0
 11
344.4010214384502
 21
156.7647216347129
 31
0.0
  0
LINE
  5
636
330
2
100
AcDbEntity
  8
AM_VIS
100
AcDbLine
 10
336.6067928043902
 20
162.2647216347129
 30
0.0
 11
336.6067928043902
 21
156.7647216347129
 31
0.0
  0
LINE
  5
637
330
2
100
AcDbEntity
  8
AM_VIS
100
AcDbLine
 10
242.4886585976312
 20
162.2647216347129
 30
0.0
 11
242.4886585976312
 21
156.7647216347129
 31
0.0
  0
LINE
  5
638
330
2
100
AcDbEntity
  8
AM_VIS
100
AcDbLine
 10
228.9886585976312
 20
162.2647216347129
 30
0.0
 11
228.9886585976312
 21
156.7647216347129
 31
0.0
  0
LINE
  5
639
330
2
100
AcDbEntity
  8
AM_VIS
100
AcDbLine
 10
215.4886585976312
 20
162.2647216347129
 30
0.0
 11
215.4886585976312
 21
156.7647216347129
 31
0.0
  0
LINE
  5
63A
330
2
100
AcDbEntity
  8
AM_VIS
100
AcDbLine
 10
242.4886585976312
 20
156.7647216347129
 30
0.0
 11
228.9886585976312
 21
156.7647216347129
 31
0.0
  0
LINE
  5
63B
102
{ACAD_REACTORS
330
822
330
863
102
}
330
2
100
AcDbEntity
  8
AM_VIS
100
AcDbLine
 10
228.9886585976312
 20
155.7647216347129
 30
0.0
 11
241.4886585976312
 21
155.7647216347129
 31
0.0
  0
LINE
  5
63C
330
2
100
AcDbEntity
  8
AM_VIS
100
AcDbLine
 10
228.9886585976312
 20
156.7647216347129
 30
0.0
 11
215.4886585976312
 21
156.7647216347129
 31
0.0
  0
LINE
  5
63D
330
2
100
AcDbEntity
  8
AM_VIS
100
AcDbLine
 10
216.4886585976312
 20
155.7647216347129
 30
0.0
 11
228.9886585976312
 21
155.7647216347129
 31
0.0
  0
LINE
  5
63E
330
2
100
AcDbEntity
  8
AM_VIS
100
AcDbLine
 10
216.4886585976312
 20
155.7647216347129
 30
0.0
 11
215.4886585976312
 21
156.7647216347129
 31
0.0
  0
LINE
  5
63F
330
2
100
AcDbEntity
  8
AM_VIS
100
AcDbLine
 10
228.9886585976312
 20
155.7647216347129
 30
0.0
 11
228.9886585976312
 21
156.7647216347129
 31
0.0
  0
LINE
  5
640
330
2
100
AcDbEntity
  8
AM_VIS
100
AcDbLine
 10
241.4886585976312
 20
155.7647216347129
 30
0.0
 11
242.4886585976312
 21
156.7647216347129
 31
0.0
  0
LINE
  5
641
330
2
100
AcDbEntity
  8
AM_VIS
100
AcDbLine
 10
344.4010214384502
 20
156.7647216347129
 30
0.0
 11
336.6067928043902
 21
156.7647216347129
 31
0.0
  0
LINE
  5
642
330
2
100
AcDbEntity
  8
AM_VIS
100
AcDbLine
 10
337.7614933427695
 20
155.7647216347129
 30
0.0
 11
336.6067928043902
 21
156.7647216347129
 31
0.0
  0
SPLINE
  5
643
330
2
100
AcDbEntity
  8
AM_VIS
100
AcDbSpline
210
0.0
220
0.0
230
1.0
 70
    12
 71
     2
 72
     6
 73
     3
 74
     0
 42
0.0000000001
 43
0.0000000001
 40
0.4963808908032634
 40
0.4963808908032634
 40
0.4963808908032634
 40
44.00770630556057
 40
44.00770630556057
 40
44.00770630556057
 10
248.8122264272849
 20
190.2647216347128
 30
0.0
 41
1.0
 10
248.6652808653162
 20
212.1771516930369
 30
0.0
 41
1.0
 10
248.5183353095248
 20
233.764721634713
 30
0.0
 41
1.0
  0
LINE
  5
644
330
2
100
AcDbEntity
  8
AM_VIS
100
AcDbLine
 10
273.9886585976312
 20
190.2647216347128
 30
0.0
 11
273.2206357407897
 21
234.2647216347129
 31
0.0
  0
LINE
  5
645
330
2
100
AcDbEntity
  8
AM_VIS
100
AcDbLine
 10
258.6046471692105
 20
190.2647216347128
 30
0.0
 11
258.9799323944126
 21
168.7646454822911
 31
0.0
  0
LINE
  5
646
330
2
100
AcDbEntity
  8
AM_VIS
100
AcDbLine
 10
258.9886585976312
 20
167.7647216347129
 30
0.0
 11
258.9886585976312
 21
163.2647216347129
 31
0.0
  0
LINE
  5
647
330
2
100
AcDbEntity
  8
AM_VIS
100
AcDbLine
 10
257.9886585976312
 20
162.2647216347129
 30
0.0
 11
258.9886585976312
 21
163.2647216347129
 31
0.0
  0
LINE
  5
648
330
2
100
AcDbEntity
  8
AM_VIS
100
AcDbLine
 10
258.4886585976312
 20
168.2647216347129
 30
0.0
 11
258.9886585976312
 21
167.7647216347129
 31
0.0
  0
LINE
  5
649
330
2
100
AcDbEntity
  8
AM_VIS
100
AcDbLine
 10
258.4886585976312
 20
168.2647216347129
 30
0.0
 11
258.9799323944126
 21
168.7646454822911
 31
0.0
  0
SPLINE
  5
64A
330
2
100
AcDbEntity
  8
AM_VIS
100
AcDbSpline
210
0.0
220
0.0
230
1.0
 70
    12
 71
     2
 72
     6
 73
     3
 74
     0
 42
0.0000000001
 43
0.0000000001
 40
0.0
 40
0.0
 40
0.0
 40
11.28312019453566
 40
11.28312019453566
 40
11.28312019453566
 10
232.0381100553869
 20
236.2647216347129
 30
0.0
 41
1.0
 10
231.0216389614706
 20
247.4951939262105
 30
0.0
 41
1.01953595469386
 10
230.056248335795
 20
251.4268967715032
 30
0.0
 41
1.026556977191574
  0
LINE
  5
64B
330
2
100
AcDbEntity
  8
AM_VIS
100
AcDbLine
 10
273.2206357407897
 20
233.764721634713
 30
0.0
 11
248.5183353095248
 21
233.764721634713
 31
0.0
  0
LINE
  5
64C
330
2
100
AcDbEntity
  8
AM_VIS
100
AcDbLine
 10
253.4823698504026
 20
234.7909002452291
 30
0.0
 11
253.4923260536503
 21
233.764721634713
 31
0.0
  0
SPLINE
  5
64D
330
2
100
AcDbEntity
  8
AM_VIS
100
AcDbSpline
210
0.0
220
0.0
230
1.0
 70
     8
 71
     3
 72
    22
 73
    18
 74
     0
 42
0.0000000001
 43
0.0000000001
 40
0.0259595501072783
 40
0.0259595501072783
 40
0.0259595501072783
 40
0.0259595501072783
 40
0.2626446764789236
 40
0.2626446764789236
 40
0.5252893529578472
 40
0.5252893529578472
 40
0.8096619998134164
 40
0.8096619998134164
 40
1.094034646668985
 40
1.094034646668985
 40
1.410562035202358
 40
1.410562035202358
 40
1.727089423735731
 40
1.727089423735731
 40
2.078630760618084
 40
2.078630760618084
 40
2.430172097500437
 40
2.430172097500437
 40
2.430172097500437
 40
2.430172097500437
 10
253.4823697617373
 20
234.7909002443688
 30
0.0
 10
253.4815914375739
 20
234.8711131888629
 30
0.0
 10
253.4727634808391
 20
234.956992537768
 30
0.0
 10
253.4355585609041
 20
235.134283787496
 30
0.0
 10
253.405057277691
 20
235.2252747483961
 30
0.0
 10
253.3310081289461
 20
235.3918755202215
 30
0.0
 10
253.27933076286
 20
235.4819183130462
 30
0.0
 10
253.1571364561561
 20
235.6483915937978
 30
0.0
 10
253.0866937583439
 20
235.7248765479166
 30
0.0
 10
252.938818872925
 20
235.8599600529658
 30
0.0
 10
252.8463535520272
 20
235.9293737860037
 30
0.0
 10
252.6490275820791
 20
236.0479298695357
 30
0.0
 10
252.544219176387
 20
236.0971591262492
 30
0.0
 10
252.3358094140732
 20
236.1756074710875
 30
0.0
 10
252.2120308037088
 20
236.2101177233851
 30
0.0
 10
251.96003499772
 20
236.254644039834
 30
0.0
 10
251.8318286814345
 20
236.2647216347129
 30
0.0
 10
251.7146482358072
 20
236.2647216347129
 30
0.0
  0
LINE
  5
64E
330
2
100
AcDbEntity
  8
AM_VIS
100
AcDbLine
 10
323.3564688395679
 20
234.7909002443688
 30
0.0
 11
322.2039762757288
 21
168.7646454822911
 31
0.0
  0
LINE
  5
64F
330
2
100
AcDbEntity
  8
AM_VIS
100
AcDbLine
 10
330.1952500725101
 20
190.2647216347128
 30
0.0
 11
330.8527982721674
 21
227.4356327634584
 31
0.0
  0
LINE
  5
650
330
2
100
AcDbEntity
  8
AM_VIS
100
AcDbLine
 10
322.1952500725101
 20
167.7647216347129
 30
0.0
 11
322.1952500725101
 21
163.2647216347129
 31
0.0
  0
LINE
  5
651
330
2
100
AcDbEntity
  8
AM_VIS
100
AcDbLine
 10
323.1952500725101
 20
162.2647216347129
 30
0.0
 11
322.1952500725101
 21
163.2647216347129
 31
0.0
  0
LINE
  5
652
330
2
100
AcDbEntity
  8
AM_VIS
100
AcDbLine
 10
322.6952500725101
 20
168.2647216347129
 30
0.0
 11
322.1952500725101
 21
167.7647216347129
 31
0.0
  0
LINE
  5
653
330
2
100
AcDbEntity
  8
AM_VIS
100
AcDbLine
 10
322.6952500725101
 20
168.2647216347129
 30
0.0
 11
322.2039762757288
 21
168.7646454822911
 31
0.0
  0
ARC
  5
654
330
2
100
AcDbEntity
  8
0
100
AcDbCircle
 10
335.8520367479495
 20
227.348370731272
 30
0.0
 40
5.0
100
AcDbArc
 50
99.90609100898311
 51
178.9999999999998
  0
LINE
  5
655
330
2
100
AcDbEntity
  8
AM_VIS
100
AcDbLine
 10
324.8562403823025
 20
236.2647216347129
 30
0.0
 11
336.9981830592081
 21
236.2647216347129
 31
0.0
  0
LINE
  5
656
330
2
100
AcDbEntity
  8
AM_VIS
100
AcDbLine
 10
336.9724574111471
 20
234.7909002443688
 30
0.0
 11
323.3564688395679
 21
234.7909002443688
 31
0.0
  0
ARC
  5
657
330
2
100
AcDbEntity
  8
AM_VIS
100
AcDbCircle
 10
324.8562403823025
 20
234.7647216347129
 30
0.0
 40
1.5
100
AcDbArc
 50
90.0
 51
178.9999999999994
  0
ARC
  5
658
330
2
100
AcDbEntity
  8
0
100
AcDbCircle
 10
352.1952500725102
 20
133.7647216347129
 30
0.0
 40
100.0
100
AcDbArc
 50
98.77829789425131
 51
99.90609100898311
  0
ARC
  5
659
330
2
100
AcDbEntity
  8
AM_VIS
100
AcDbCircle
 10
228.9886585976312
 20
351.4855397851329
 30
0.0
 40
15.5
100
AcDbArc
 50
184.5853790848399
 51
235.4146209151564
  0
ARC
  5
65A
330
2
100
AcDbEntity
  8
AM_VIS
100
AcDbCircle
 10
228.9886585976312
 20
351.4855397851329
 30
0.0
 40
15.5
100
AcDbArc
 50
124.5853790848398
 51
175.4146209151605
  0
INSERT
  5
65B
330
2
100
AcDbEntity
  8
0
100
AcDbBlockReference
  2
A$C32C02AC5
 10
212.8186584608121
 20
266.6447217085393
 30
0.0
  0
ARC
  5
65D
330
2
100
AcDbEntity
  8
AM_VIS
100
AcDbCircle
 10
228.9886585976312
 20
351.4855397851329
 30
0.0
 40
30.0
100
AcDbArc
 50
227.1665719339333
 51
312.8334280660666
  0
ARC
  5
65E
330
2
100
AcDbEntity
  8
AM_VIS
100
AcDbCircle
 10
228.9886585976312
 20
351.4855397851329
 30
0.0
 40
30.0
100
AcDbArc
 50
90.0
 51
132.8334280660666
  0
ARC
  5
65F
330
2
100
AcDbEntity
  8
AM_VIS
100
AcDbCircle
 10
228.9886585976312
 20
351.4855397851329
 30
0.0
 40
27.33900969020767
100
AcDbArc
 50
33.77099117400896
 51
326.229008825991
  0
ARC
  5
660
330
2
100
AcDbEntity
  8
AM_VIS
100
AcDbCircle
 10
228.9886585976312
 20
351.4855397851329
 30
0.0
 40
28.83878123294226
100
AcDbArc
 50
31.86086881729942
 51
328.1391311827006
  0
ARC
  5
661
330
2
100
AcDbEntity
  8
AM_VIS
100
AcDbCircle
 10
228.9886585976312
 20
351.4855397851329
 30
0.0
 40
29.99127379678136
100
AcDbArc
 50
90.0
 51
132.8154433911049
  0
ARC
  5
662
330
2
100
AcDbEntity
  8
AM_VIS
100
AcDbCircle
 10
228.9886585976312
 20
351.4855397851329
 30
0.0
 40
29.99127379678136
100
AcDbArc
 50
227.184556608895
 51
312.8154433911049
  0
LINE
  5
663
330
2
100
AcDbEntity
  8
AM_7
100
AcDbLine
 10
175.8416113058148
 20
351.4855397851329
 30
0.0
 11
228.9886585976312
 21
351.4855397851329
 31
0.0
  0
ARC
  5
664
330
2
100
AcDbEntity
  8
AM_VIS
100
AcDbCircle
 10
228.9886585976312
 20
351.4855397851329
 30
0.0
 40
28.84796571473764
100
AcDbArc
 50
132.6085860810315
 51
227.3914139189685
  0
LINE
  5
665
330
2
100
AcDbEntity
  8
AM_VIS
100
AcDbLine
 10
184.7566814544729
 20
330.2535626419746
 30
0.0
 11
184.7566814544729
 21
372.7175169282914
 31
0.0
  0
LINE
  5
666
330
2
100
AcDbEntity
  8
AM_VIS
100
AcDbLine
 10
183.9886585976312
 20
373.4855397851329
 30
0.0
 11
183.9886585976312
 21
329.4855397851329
 31
0.0
  0
LINE
  5
667
330
2
100
AcDbEntity
  8
AM_VIS
100
AcDbLine
 10
209.4589818857377
 20
330.2535626419746
 30
0.0
 11
184.7566814544729
 21
330.2535626419746
 31
0.0
  0
LINE
  5
668
330
2
100
AcDbEntity
  8
AM_VIS
100
AcDbLine
 10
183.9886585976312
 20
329.4855397851329
 30
0.0
 11
209.1617380331081
 21
329.4855397851329
 31
0.0
  0
LINE
  5
669
330
2
100
AcDbEntity
  8
AM_VIS
100
AcDbLine
 10
183.9886585976313
 20
329.4855397851329
 30
0.0
 11
184.7566814544729
 21
330.2535626419746
 31
0.0
  0
SPLINE
  5
66A
330
2
100
AcDbEntity
  8
AM_VIS
100
AcDbSpline
210
0.0
220
0.0
230
1.0
 70
    12
 71
     2
 72
     6
 73
     3
 74
     0
 42
0.0000000001
 43
0.0000000001
 40
0.0
 40
0.0
 40
0.0
 40
44.00770630556058
 40
44.00770630556058
 40
44.00770630556058
 10
209.4589818857377
 20
330.2535626419746
 30
0.0
 41
1.0
 10
209.3103599625822
 20
329.8724514987812
 30
0.0
 41
1.0
 10
209.1617380331081
 20
329.4855397851329
 30
0.0
 41
1.0
  0
LINE
  5
66B
330
2
100
AcDbEntity
  8
AM_VIS
100
AcDbLine
 10
184.7566814544729
 20
372.7175169282914
 30
0.0
 11
209.4589818857377
 21
372.7175169282914
 31
0.0
  0
LINE
  5
66C
330
2
100
AcDbEntity
  8
AM_VIS
100
AcDbLine
 10
209.1617380331081
 20
373.4855397851329
 30
0.0
 11
183.9886585976312
 21
373.4855397851329
 31
0.0
  0
LINE
  5
66D
330
2
100
AcDbEntity
  8
AM_VIS
100
AcDbLine
 10
183.9886585976312
 20
373.4855397851329
 30
0.0
 11
184.7566814544729
 21
372.7175169282914
 31
0.0
  0
SPLINE
  5
66E
330
2
100
AcDbEntity
  8
AM_VIS
100
AcDbSpline
210
0.0
220
0.0
230
1.0
 70
    12
 71
     2
 72
     6
 73
     3
 74
     0
 42
0.0000000001
 43
0.0000000001
 40
0.0
 40
0.0
 40
0.0
 40
44.00770630556058
 40
44.00770630556058
 40
44.00770630556058
 10
209.1617380331081
 20
373.4855397851329
 30
0.0
 41
1.0
 10
209.3103599561974
 20
373.0986280879806
 30
0.0
 41
1.0
 10
209.4589818857377
 20
372.7175169282914
 30
0.0
 41
1.0
  0
CIRCLE
  5
66F
330
2
100
AcDbEntity
  8
AM_VIS
100
AcDbCircle
 10
228.9886585976312
 20
351.4855397851329
 30
0.0
 40
4.450000000000017
  0
CIRCLE
  5
670
330
2
100
AcDbEntity
  8
AM_VIS
100
AcDbCircle
 10
228.9886585976312
 20
351.4855397851329
 30
0.0
 40
3.000000000000024
  0
LINE
  5
671
330
2
100
AcDbEntity
  8
AM_VIS
100
AcDbLine
 10
223.2136585976312
 20
351.4855397851329
 30
0.0
 11
226.1011585976312
 21
346.4842430782778
 31
0.0
  0
LINE
  5
672
330
2
100
AcDbEntity
  8
AM_VIS
100
AcDbLine
 10
231.8761585976313
 20
346.4842430782778
 30
0.0
 11
234.7636585976313
 21
351.4855397851329
 31
0.0
  0
ARC
  5
673
330
2
100
AcDbEntity
  8
AM_VIS
100
AcDbCircle
 10
228.9886585976312
 20
351.4855397851329
 30
0.0
 40
14.0
100
AcDbArc
 50
165.0000000060812
 51
195.0000000047282
  0
ARC
  5
674
330
2
100
AcDbEntity
  8
AM_VIS
100
AcDbCircle
 10
228.9886585976312
 20
351.4855397851329
 30
0.0
 40
13.5
100
AcDbArc
 50
165.0000000063068
 51
195.0000000049032
  0
CIRCLE
  5
675
330
2
100
AcDbEntity
  8
AM_VIS
100
AcDbCircle
 10
228.9886585976312
 20
351.4855397851329
 30
0.0
 40
13.0
  0
ARC
  5
676
330
2
100
AcDbEntity
  8
AM_VIS
100
AcDbCircle
 10
228.9886585976312
 20
351.4855397851329
 30
0.0
 40
14.0
100
AcDbArc
 50
345.0000000060811
 51
15.00000000472826
  0
ARC
  5
677
330
2
100
AcDbEntity
  8
AM_VIS
100
AcDbCircle
 10
228.9886585976312
 20
351.4855397851329
 30
0.0
 40
13.5
100
AcDbArc
 50
345.0000000063068
 51
15.00000000490325
  0
LINE
  5
678
330
2
100
AcDbEntity
  8
AM_VIS
100
AcDbLine
 10
272.7318939227996
 20
366.2287751103013
 30
0.0
 11
272.7318939227996
 21
336.7423044599647
 31
0.0
  0
LINE
  5
679
330
2
100
AcDbEntity
  8
AM_VIS
100
AcDbLine
 10
273.9886585976312
 20
329.4855397851329
 30
0.0
 11
273.9886585976312
 21
373.4855397851329
 31
0.0
  0
LINE
  5
67A
330
2
100
AcDbEntity
  8
AM_7
100
AcDbLine
 10
228.9886585976312
 20
318.4855397851329
 30
0.0
 11
228.9886585976312
 21
351.4855397851329
 31
0.0
  0
LINE
  5
67B
330
2
100
AcDbEntity
  8
AM_VIS
100
AcDbLine
 10
272.7318939227996
 20
262.2647216347129
 30
0.0
 11
230.2454232724629
 21
262.2647216347129
 31
0.0
  0
LINE
  5
67C
330
2
100
AcDbEntity
  8
AM_VIS
100
AcDbLine
 10
215.4656970298834
 20
295.2647216347129
 30
0.0
 11
215.4656970298834
 21
281.264721634713
 31
0.0
  0
LINE
  5
67D
330
2
100
AcDbEntity
  8
AM_VIS
100
AcDbLine
 10
221.9886585986318
 20
295.2647216347129
 30
0.0
 11
221.9886585986318
 21
281.264721634713
 31
0.0
  0
LINE
  5
67E
330
2
100
AcDbEntity
  8
AM_VIS
100
AcDbLine
 10
217.2973156472843
 20
281.264721634713
 30
0.0
 11
217.2973156472843
 21
295.764721634713
 31
0.0
  0
LINE
  5
67F
330
2
100
AcDbEntity
  8
AM_VIS
100
AcDbLine
 10
216.8643029453921
 20
281.264721634713
 30
0.0
 11
216.8643029453921
 21
295.2647216347129
 31
0.0
  0
LINE
  5
680
330
2
100
AcDbEntity
  8
AM_VIS
100
AcDbLine
 10
232.6121252301825
 20
295.2647216347129
 30
0.0
 11
232.6121252301825
 21
281.264721634713
 31
0.0
  0
LINE
  5
681
330
2
100
AcDbEntity
  8
AM_VIS
100
AcDbLine
 10
232.4827157076313
 20
281.264721634713
 30
0.0
 11
232.4827157076313
 21
295.764721634713
 31
0.0
  0
LINE
  5
682
330
2
100
AcDbEntity
  8
AM_VIS
100
AcDbLine
 10
225.4946014901825
 20
281.264721634713
 30
0.0
 11
225.4946014901825
 21
295.764721634713
 31
0.0
  0
LINE
  5
683
330
2
100
AcDbEntity
  8
AM_VIS
100
AcDbLine
 10
225.3651919676313
 20
281.264721634713
 30
0.0
 11
225.3651919676313
 21
295.2647216347129
 31
0.0
  0
LINE
  5
684
330
2
100
AcDbEntity
  8
AM_VIS
100
AcDbLine
 10
241.1130142511911
 20
295.2647216347129
 30
0.0
 11
241.1130142511911
 21
281.264721634713
 31
0.0
  0
LINE
  5
685
330
2
100
AcDbEntity
  8
AM_VIS
100
AcDbLine
 10
240.6800015492988
 20
281.264721634713
 30
0.0
 11
240.6800015492988
 21
295.764721634713
 31
0.0
  0
LINE
  5
686
330
2
100
AcDbEntity
  8
AM_VIS
100
AcDbLine
 10
235.9886585989181
 20
281.264721634713
 30
0.0
 11
235.9886585989181
 21
295.2647216347129
 31
0.0
  0
LINE
  5
687
330
2
100
AcDbEntity
  8
AM_VIS
100
AcDbLine
 10
242.5116201660628
 20
281.264721634713
 30
0.0
 11
242.5116201660628
 21
295.2647216347129
 31
0.0
  0
LINE
  5
688
330
2
100
AcDbEntity
  8
AM_VIS
 62
     4
100
AcDbLine
 10
219.4886585976308
 20
264.764721634713
 30
0.0
 11
238.4886585976308
 21
264.764721634713
 31
0.0
  0
LINE
  5
689
330
2
100
AcDbEntity
  8
AM_VIS
100
AcDbLine
 10
242.9886585976312
 20
279.264721634713
 30
0.0
 11
214.9886585976312
 21
279.264721634713
 31
0.0
  0
LINE
  5
68A
330
2
100
AcDbEntity
  8
AM_VIS
100
AcDbLine
 10
225.3651919676313
 20
281.264721634713
 30
0.0
 11
232.6121252301825
 21
281.264721634713
 31
0.0
  0
LINE
  5
68B
330
2
100
AcDbEntity
  8
AM_VIS
100
AcDbLine
 10
214.3965986044167
 20
262.2647216347129
 30
0.0
 11
230.2454232724629
 21
262.2647216347129
 31
0.0
  0
LINE
  5
68C
330
2
100
AcDbEntity
  8
AM_VIS
100
AcDbLine
 10
217.9886585976312
 20
262.2647216347129
 30
0.0
 11
217.9886585976312
 21
269.2697216347129
 31
0.0
  0
LINE
  5
68D
330
2
100
AcDbEntity
  8
AM_VIS
100
AcDbLine
 10
216.8643029453921
 20
281.264721634713
 30
0.0
 11
221.9886585986318
 21
281.264721634713
 31
0.0
  0
LINE
  5
68E
330
2
100
AcDbEntity
  8
0
 62
     4
100
AcDbLine
 10
217.9886585976309
 20
263.2647216347129
 30
0.0
 11
219.4886585976308
 21
264.764721634713
 31
0.0
  0
LINE
  5
68F
330
2
100
AcDbEntity
  8
AM_VIS
 62
     4
100
AcDbLine
 10
219.4886585976308
 20
264.764721634713
 30
0.0
 11
219.4886585976309
 21
269.2697216347129
 31
0.0
  0
LINE
  5
690
330
2
100
AcDbEntity
  8
AM_VIS
100
AcDbLine
 10
214.9886585976312
 20
281.264721634713
 30
0.0
 11
215.4656970298834
 21
281.264721634713
 31
0.0
  0
LINE
  5
691
330
2
100
AcDbEntity
  8
AM_VIS
100
AcDbLine
 10
214.9886585976312
 20
279.264721634713
 30
0.0
 11
214.9886585976312
 21
281.264721634713
 31
0.0
  0
LINE
  5
692
330
2
100
AcDbEntity
  8
AM_VIS
100
AcDbLine
 10
239.9886585976312
 20
262.2647216347129
 30
0.0
 11
239.9886585976313
 21
269.2697216347128
 31
0.0
  0
LINE
  5
693
330
2
100
AcDbEntity
  8
AM_VIS
100
AcDbLine
 10
235.9886585989181
 20
281.264721634713
 30
0.0
 11
241.1130142511911
 21
281.264721634713
 31
0.0
  0
LINE
  5
694
330
2
100
AcDbEntity
  8
AM_VIS
 62
     4
100
AcDbLine
 10
238.4886585976308
 20
264.764721634713
 30
0.0
 11
238.4886585976308
 21
269.2697216347129
 31
0.0
  0
LINE
  5
695
330
2
100
AcDbEntity
  8
0
 62
     4
100
AcDbLine
 10
239.9886585976308
 20
263.2647216347129
 30
0.0
 11
238.4886585976308
 21
264.764721634713
 31
0.0
  0
LINE
  5
696
330
2
100
AcDbEntity
  8
AM_VIS
100
AcDbLine
 10
242.5116201660628
 20
281.264721634713
 30
0.0
 11
242.9886585976312
 21
281.264721634713
 31
0.0
  0
LINE
  5
697
330
2
100
AcDbEntity
  8
AM_VIS
100
AcDbLine
 10
242.9886585976312
 20
279.264721634713
 30
0.0
 11
242.9886585976312
 21
281.264721634713
 31
0.0
  0
ARC
  5
698
330
2
100
AcDbEntity
  8
0
100
AcDbCircle
 10
228.9886585976312
 20
301.4647216347129
 30
0.0
 40
2.25
100
AcDbArc
 50
0.0
 51
180.0
  0
LINE
  5
699
330
2
100
AcDbEntity
  8
AM_VIS
100
AcDbLine
 10
233.4386585976313
 20
301.4647216347129
 30
0.0
 11
224.5386585976312
 21
301.4647216347129
 31
0.0
  0
SPLINE
  5
69A
330
2
100
AcDbEntity
  8
AM_VIS
100
AcDbSpline
210
0.0
220
0.0
230
1.0
 70
    12
 71
     2
 72
     6
 73
     3
 74
     0
 42
0.0000000001
 43
0.0000000001
 40
0.0
 40
0.0
 40
0.0
 40
5.843695809539759
 40
5.843695809539759
 40
5.843695809539759
 10
231.8761585976313
 20
297.0297107413892
 30
0.0
 41
1.0
 10
228.9886585976312
 20
296.1961612902467
 30
0.0
 41
1.154700538379125
 10
226.1011585976312
 20
297.0297107413892
 30
0.0
 41
1.0
  0
SPLINE
  5
69B
330
2
100
AcDbEntity
  8
AM_VIS
100
AcDbSpline
210
0.0
220
0.0
230
1.0
 70
    12
 71
     2
 72
     6
 73
     3
 74
     0
 42
0.0000000001
 43
0.0000000001
 40
0.0
 40
0.0
 40
0.0
 40
5.843695809539752
 40
5.843695809539752
 40
5.843695809539752
 10
226.1011585976312
 20
300.6997325280366
 30
0.0
 41
1.0
 10
228.9886585976312
 20
301.5332819791793
 30
0.0
 41
1.154700538379283
 10
231.8761585976313
 20
300.6997325280366
 30
0.0
 41
1.0
  0
LINE
  5
69C
330
2
100
AcDbEntity
  8
AM_VIS
100
AcDbLine
 10
228.9886585976312
 20
296.264721634713
 30
0.0
 11
241.9886585976312
 21
296.264721634713
 31
0.0
  0
LINE
  5
69D
330
2
100
AcDbEntity
  8
AM_VIS
100
AcDbLine
 10
232.4827157076313
 20
295.764721634713
 30
0.0
 11
225.4946014901825
 21
295.764721634713
 31
0.0
  0
LINE
  5
69E
330
2
100
AcDbEntity
  8
AM_VIS
100
AcDbLine
 10
215.9886585976313
 20
296.264721634713
 30
0.0
 11
228.9886585976312
 21
296.264721634713
 31
0.0
  0
LINE
  5
69F
330
2
100
AcDbEntity
  8
AM_VIS
100
AcDbLine
 10
222.2386585986318
 20
295.764721634713
 30
0.0
 11
217.2973156472843
 21
295.764721634713
 31
0.0
  0
LINE
  5
6A0
330
2
100
AcDbEntity
  8
AM_VIS
100
AcDbLine
 10
216.8643029453921
 20
295.2647216347129
 30
0.0
 11
215.4656970298834
 21
295.2647216347129
 31
0.0
  0
LINE
  5
6A1
330
2
100
AcDbEntity
  8
AM_VIS
100
AcDbLine
 10
215.9486599430278
 20
295.764721634713
 30
0.0
 11
215.4886585976312
 21
295.764721634713
 31
0.0
  0
LINE
  5
6A2
330
2
100
AcDbEntity
  8
AM_VIS
100
AcDbLine
 10
215.4886585976312
 20
295.2884931988672
 30
0.0
 11
215.4886585976312
 21
295.764721634713
 31
0.0
  0
LINE
  5
6A3
330
2
100
AcDbEntity
  8
AM_VIS
100
AcDbLine
 10
215.9886585976313
 20
296.264721634713
 30
0.0
 11
215.4886585976312
 21
295.764721634713
 31
0.0
  0
LINE
  5
6A4
330
2
100
AcDbEntity
  8
AM_VIS
100
AcDbLine
 10
215.9486599430278
 20
295.764721634713
 30
0.0
 11
215.4656970298834
 21
295.2647216347129
 31
0.0
  0
LINE
  5
6A5
330
2
100
AcDbEntity
  8
AM_VIS
100
AcDbLine
 10
216.8643029453921
 20
295.2647216347129
 30
0.0
 11
217.2973156472843
 21
295.764721634713
 31
0.0
  0
LINE
  5
6A6
330
2
100
AcDbEntity
  8
AM_VIS
100
AcDbLine
 10
226.1011585976312
 20
300.6997325280366
 30
0.0
 11
226.1011585976312
 21
297.0297107413892
 31
0.0
  0
LINE
  5
6A7
330
2
100
AcDbEntity
  8
AM_VIS
100
AcDbLine
 10
223.2136585976312
 20
300.6997325280366
 30
0.0
 11
223.2136585976312
 21
297.0297107413892
 31
0.0
  0
SPLINE
  5
6A8
330
2
100
AcDbEntity
  8
AM_VIS
100
AcDbSpline
210
0.0
220
0.0
230
1.0
 70
    12
 71
     2
 72
     6
 73
     3
 74
     0
 42
0.0000000001
 43
0.0000000001
 40
0.0
 40
0.0
 40
0.0
 40
5.8436958095395
 40
5.8436958095395
 40
5.8436958095395
 10
226.1011585976312
 20
297.0297107413892
 30
0.0
 41
1.0
 10
224.6574085976313
 20
296.1961612902467
 30
0.0
 41
1.154700538379379
 10
223.2136585976312
 20
297.0297107413892
 30
0.0
 41
1.0
  0
LINE
  5
6A9
330
2
100
AcDbEntity
  8
AM_VIS
100
AcDbLine
 10
224.5386585976313
 20
296.264721634713
 30
0.0
 11
223.2136585976312
 21
297.0297107413892
 31
0.0
  0
LINE
  5
6AA
330
2
100
AcDbEntity
  8
AM_VIS
100
AcDbLine
 10
225.3651919676313
 20
295.2647216347129
 30
0.0
 11
221.9886585986318
 21
295.2647216347129
 31
0.0
  0
LINE
  5
6AB
330
2
100
AcDbEntity
  8
AM_VIS
100
AcDbLine
 10
222.2386585986318
 20
295.764721634713
 30
0.0
 11
221.9886585986318
 21
295.2647216347129
 31
0.0
  0
LINE
  5
6AC
330
2
100
AcDbEntity
  8
AM_VIS
100
AcDbLine
 10
225.3651919676313
 20
295.2647216347129
 30
0.0
 11
225.4946014901825
 21
295.764721634713
 31
0.0
  0
SPLINE
  5
6AD
330
2
100
AcDbEntity
  8
AM_VIS
100
AcDbSpline
210
0.0
220
0.0
230
1.0
 70
    12
 71
     2
 72
     6
 73
     3
 74
     0
 42
0.0000000001
 43
0.0000000001
 40
0.0
 40
0.0
 40
0.0
 40
5.843695809539564
 40
5.843695809539564
 40
5.843695809539564
 10
223.2136585976312
 20
300.6997325280366
 30
0.0
 41
1.0
 10
224.6574085976313
 20
301.533281979179
 30
0.0
 41
1.154700538379295
 10
226.1011585976312
 20
300.6997325280366
 30
0.0
 41
1.0
  0
LINE
  5
6AE
330
2
100
AcDbEntity
  8
AM_VIS
100
AcDbLine
 10
224.5386585976312
 20
301.4647216347129
 30
0.0
 11
223.2136585976312
 21
300.6997325280366
 31
0.0
  0
LINE
  5
6AF
330
2
100
AcDbEntity
  8
AM_VIS
100
AcDbLine
 10
240.6800015492988
 20
295.764721634713
 30
0.0
 11
235.7386585989181
 21
295.764721634713
 31
0.0
  0
LINE
  5
6B0
330
2
100
AcDbEntity
  8
AM_VIS
100
AcDbLine
 10
234.7636585976313
 20
300.6997325280366
 30
0.0
 11
234.7636585976313
 21
297.0297107413892
 31
0.0
  0
LINE
  5
6B1
330
2
100
AcDbEntity
  8
AM_VIS
100
AcDbLine
 10
231.8761585976313
 20
300.6997325280366
 30
0.0
 11
231.8761585976313
 21
297.0297107413892
 31
0.0
  0
LINE
  5
6B2
330
2
100
AcDbEntity
  8
AM_VIS
100
AcDbLine
 10
233.4386585976313
 20
296.264721634713
 30
0.0
 11
234.7636585976313
 21
297.0297107413892
 31
0.0
  0
SPLINE
  5
6B3
330
2
100
AcDbEntity
  8
AM_VIS
100
AcDbSpline
210
0.0
220
0.0
230
1.0
 70
    12
 71
     2
 72
     6
 73
     3
 74
     0
 42
0.0000000001
 43
0.0000000001
 40
0.0
 40
0.0
 40
0.0
 40
5.843695809539505
 40
5.843695809539505
 40
5.843695809539505
 10
234.7636585976312
 20
297.0297107413892
 30
0.0
 41
1.0
 10
233.3199085976313
 20
296.1961612902467
 30
0.0
 41
1.154700538379379
 10
231.8761585976313
 20
297.0297107413892
 30
0.0
 41
1.0
  0
LINE
  5
6B4
330
2
100
AcDbEntity
  8
AM_VIS
100
AcDbLine
 10
235.9886585989181
 20
295.2647216347129
 30
0.0
 11
232.6121252301825
 21
295.2647216347129
 31
0.0
  0
LINE
  5
6B5
330
2
100
AcDbEntity
  8
AM_VIS
100
AcDbLine
 10
232.4827157076313
 20
295.764721634713
 30
0.0
 11
232.6121252301825
 21
295.2647216347129
 31
0.0
  0
LINE
  5
6B6
330
2
100
AcDbEntity
  8
AM_VIS
100
AcDbLine
 10
235.9886585989181
 20
295.2647216347129
 30
0.0
 11
235.7386585989181
 21
295.764721634713
 31
0.0
  0
LINE
  5
6B7
330
2
100
AcDbEntity
  8
AM_VIS
100
AcDbLine
 10
233.4386585976313
 20
301.4647216347129
 30
0.0
 11
234.7636585976313
 21
300.6997325280366
 31
0.0
  0
SPLINE
  5
6B8
330
2
100
AcDbEntity
  8
AM_VIS
100
AcDbSpline
210
0.0
220
0.0
230
1.0
 70
    12
 71
     2
 72
     6
 73
     3
 74
     0
 42
0.0000000001
 43
0.0000000001
 40
0.0
 40
0.0
 40
0.0
 40
5.843695809539571
 40
5.843695809539571
 40
5.843695809539571
 10
231.8761585976313
 20
300.6997325280366
 30
0.0
 41
1.0
 10
233.3199085976313
 20
301.533281979179
 30
0.0
 41
1.154700538379295
 10
234.7636585976313
 20
300.6997325280366
 30
0.0
 41
1.0
  0
LINE
  5
6B9
330
2
100
AcDbEntity
  8
AM_VIS
100
AcDbLine
 10
242.5116201660628
 20
295.2647216347129
 30
0.0
 11
241.1130142511911
 21
295.2647216347129
 31
0.0
  0
LINE
  5
6BA
330
2
100
AcDbEntity
  8
AM_VIS
100
AcDbLine
 10
242.4886585976312
 20
295.764721634713
 30
0.0
 11
242.0286572529183
 21
295.764721634713
 31
0.0
  0
LINE
  5
6BB
330
2
100
AcDbEntity
  8
AM_VIS
100
AcDbLine
 10
241.9886585976312
 20
296.264721634713
 30
0.0
 11
242.4886585976312
 21
295.764721634713
 31
0.0
  0
LINE
  5
6BC
330
2
100
AcDbEntity
  8
AM_VIS
100
AcDbLine
 10
242.5116201660628
 20
295.2647216347129
 30
0.0
 11
242.0286572529183
 21
295.764721634713
 31
0.0
  0
LINE
  5
6BD
330
2
100
AcDbEntity
  8
AM_VIS
100
AcDbLine
 10
240.6800015492988
 20
295.764721634713
 30
0.0
 11
241.1130142511911
 21
295.2647216347129
 31
0.0
  0
LINE
  5
6BE
330
2
100
AcDbEntity
  8
AM_VIS
100
AcDbLine
 10
242.4886585976312
 20
295.288493199575
 30
0.0
 11
242.4886585976312
 21
295.764721634713
 31
0.0
  0
LINE
  5
6BF
330
2
100
AcDbEntity
  8
AM_VIS
100
AcDbLine
 10
272.7318939227996
 20
336.7423044599647
 30
0.0
 11
230.2454232724629
 21
336.7423044599647
 31
0.0
  0
LINE
  5
6C0
330
2
100
AcDbEntity
  8
AM_VIS
100
AcDbLine
 10
251.7146482358072
 20
336.288472771831
 30
0.0
 11
232.0381100553869
 21
336.288472771831
 31
0.0
  0
ARC
  5
6C1
330
2
100
AcDbEntity
  8
AM_VIS
100
AcDbCircle
 10
228.9886585976312
 20
351.4855397851329
 30
0.0
 40
14.59205999321456
100
AcDbArc
 50
253.6227243772746
 51
274.9408125224302
  0
ARC
  5
6C2
330
2
100
AcDbEntity
  8
AM_VIS
100
AcDbCircle
 10
228.9886585976312
 20
351.4855397851329
 30
0.0
 40
15.5
100
AcDbArc
 50
244.5853790848383
 51
281.3463175988163
  0
LINE
  5
6C3
330
2
100
AcDbEntity
  8
AM_VIS
100
AcDbLine
 10
226.1011585976312
 20
346.4842430782778
 30
0.0
 11
231.8761585976313
 21
346.4842430782778
 31
0.0
  0
ARC
  5
6C4
330
2
100
AcDbEntity
  8
AM_VIS
100
AcDbCircle
 10
228.9886585976312
 20
351.4855397851329
 30
0.0
 40
14.0
100
AcDbArc
 50
255.0000000060815
 51
285.0000000047284
  0
ARC
  5
6C5
330
2
100
AcDbEntity
  8
AM_VIS
100
AcDbCircle
 10
228.9886585976312
 20
351.4855397851329
 30
0.0
 40
13.5
100
AcDbArc
 50
255.0000000063073
 51
285.0000000049037
  0
SPLINE
  5
6C6
330
2
100
AcDbEntity
  8
AM_VIS
100
AcDbSpline
210
0.0
220
0.0
230
1.0
 70
    12
 71
     2
 72
     6
 73
     3
 74
     0
 42
0.0000000001
 43
0.0000000001
 40
14.97535726155445
 40
14.97535726155445
 40
14.97535726155445
 40
26.02099390196672
 40
26.02099390196672
 40
26.02099390196672
 10
230.056248335795
 20
336.5531295232967
 30
0.0
 41
1.000167753720832
 10
230.1521022173823
 20
336.7522382504972
 30
0.0
 41
1.00014574338597
 10
230.2454232724629
 20
336.9477009705888
 30
0.0
 41
1.0
  0
LINE
  5
6C7
330
2
100
AcDbEntity
  8
AM_VIS
100
AcDbLine
 10
230.056248335795
 20
336.5531295232967
 30
0.0
 11
230.2454232724629
 21
336.7423044599647
 31
0.0
  0
SPLINE
  5
6C8
330
2
100
AcDbEntity
  8
AM_VIS
100
AcDbSpline
210
0.0
220
0.0
230
1.0
 70
    12
 71
     2
 72
     6
 73
     3
 74
     0
 42
0.0000000001
 43
0.0000000001
 40
0.0
 40
0.0
 40
0.0
 40
11.28312019453566
 40
11.28312019453566
 40
11.28312019453566
 10
232.0381100553869
 20
336.288472771831
 30
0.0
 41
1.0
 10
231.0216389614706
 20
336.4845013948536
 30
0.0
 41
1.01953595469386
 10
230.056248335795
 20
336.5531295232967
 30
0.0
 41
1.026556977191574
  0
ARC
  5
6C9
330
2
100
AcDbEntity
  8
AM_VIS
100
AcDbCircle
 10
228.9886585976312
 20
351.4855397851329
 30
0.0
 40
14.0
100
AcDbArc
 50
210.0000000060807
 51
240.0000000047275
  0
ARC
  5
6CA
330
2
100
AcDbEntity
  8
AM_VIS
100
AcDbCircle
 10
228.9886585976312
 20
351.4855397851329
 30
0.0
 40
13.5
100
AcDbArc
 50
210.0000000063067
 51
240.0000000049039
  0
ARC
  5
6CB
330
2
100
AcDbEntity
  8
AM_VIS
100
AcDbCircle
 10
228.9886585976312
 20
351.4855397851329
 30
0.0
 40
14.59205999321456
100
AcDbArc
 50
193.6227243772764
 51
226.3772756227206
  0
ARC
  5
6CC
330
2
100
AcDbEntity
  8
AM_VIS
100
AcDbCircle
 10
228.9886585976312
 20
351.4855397851329
 30
0.0
 40
14.0
100
AcDbArc
 50
195.0000000047282
 51
210.0000000060807
  0
LINE
  5
6CD
330
2
100
AcDbEntity
  8
AM_VIS
100
AcDbLine
 10
215.9486599430278
 20
347.991482675133
 30
0.0
 11
215.4656970298834
 21
347.8620731525817
 31
0.0
  0
LINE
  5
6CE
330
2
100
AcDbEntity
  8
AM_VIS
100
AcDbLine
 10
216.8643029453921
 20
344.4855397838461
 30
0.0
 11
217.2973156472843
 21
344.7355397838461
 31
0.0
  0
ARC
  5
6CF
330
2
100
AcDbEntity
  8
AM_VIS
100
AcDbCircle
 10
228.9886585976312
 20
351.4855397851329
 30
0.0
 40
14.0
100
AcDbArc
 50
240.0000000047275
 51
255.0000000060815
  0
LINE
  5
6D0
330
2
100
AcDbEntity
  8
AM_VIS
100
AcDbLine
 10
222.2386585986318
 20
339.7941968334653
 30
0.0
 11
221.9886585986318
 21
339.3611841315732
 31
0.0
  0
LINE
  5
6D1
330
2
100
AcDbEntity
  8
AM_VIS
100
AcDbLine
 10
225.3651919676313
 20
337.9625782167015
 30
0.0
 11
225.4946014901825
 21
338.445541129846
 31
0.0
  0
LINE
  5
6D2
330
2
100
AcDbEntity
  8
AM_VIS
100
AcDbLine
 10
230.2454232724629
 20
336.7423044599647
 30
0.0
 11
230.2454232724629
 21
336.9477009705888
 31
0.0
  0
ARC
  5
6D3
330
2
100
AcDbEntity
  8
AM_VIS
100
AcDbCircle
 10
228.9886585976312
 20
351.4855397851329
 30
0.0
 40
14.0
100
AcDbArc
 50
300.0000000060811
 51
330.0000000047278
  0
ARC
  5
6D4
330
2
100
AcDbEntity
  8
AM_VIS
100
AcDbCircle
 10
228.9886585976312
 20
351.4855397851329
 30
0.0
 40
13.5
100
AcDbArc
 50
300.0000000063066
 51
330.0000000049033
  0
ARC
  5
6D5
330
2
100
AcDbEntity
  8
AM_VIS
100
AcDbCircle
 10
228.9886585976312
 20
351.4855397851329
 30
0.0
 40
14.0
100
AcDbArc
 50
285.0000000047284
 51
300.0000000060811
  0
LINE
  5
6D6
330
2
100
AcDbEntity
  8
AM_VIS
100
AcDbLine
 10
232.4827157076313
 20
338.4455411305296
 30
0.0
 11
232.6121252301825
 21
337.962578217385
 31
0.0
  0
LINE
  5
6D7
330
2
100
AcDbEntity
  8
AM_VIS
100
AcDbLine
 10
235.9886585989181
 20
339.3611841328938
 30
0.0
 11
235.7386585989181
 21
339.794196834786
 31
0.0
  0
ARC
  5
6D8
330
2
100
AcDbEntity
  8
AM_VIS
100
AcDbCircle
 10
228.9886585976312
 20
351.4855397851329
 30
0.0
 40
14.0
100
AcDbArc
 50
330.0000000047278
 51
345.0000000060811
  0
LINE
  5
6D9
330
2
100
AcDbEntity
  8
AM_VIS
100
AcDbLine
 10
242.5116201660628
 20
347.862073155133
 30
0.0
 11
242.0286572529183
 21
347.9914826776842
 31
0.0
  0
LINE
  5
6DA
330
2
100
AcDbEntity
  8
AM_VIS
100
AcDbLine
 10
240.6800015492988
 20
344.7355397861336
 30
0.0
 11
241.1130142511911
 21
344.4855397861336
 31
0.0
  0
LINE
  5
6DB
330
2
100
AcDbEntity
  8
AM_VIS
100
AcDbLine
 10
273.2206357407897
 20
330.2535626419746
 30
0.0
 11
248.5183353095248
 21
330.2535626419746
 31
0.0
  0
LINE
  5
6DC
330
2
100
AcDbEntity
  8
AM_VIS
100
AcDbLine
 10
248.8155791621544
 20
329.4855397851329
 30
0.0
 11
273.9886585976312
 21
329.4855397851329
 31
0.0
  0
LINE
  5
6DD
330
2
100
AcDbEntity
  8
AM_VIS
100
AcDbLine
 10
273.2206357407897
 20
336.2535626419746
 30
0.0
 11
253.4874748586055
 21
336.2535626419746
 31
0.0
  0
ARC
  5
6DE
330
2
100
AcDbEntity
  8
AM_VIS
100
AcDbCircle
 10
228.9886585976312
 20
351.4855397851329
 30
0.0
 40
28.84796571473764
100
AcDbArc
 50
312.6085860810315
 51
328.128990187615
  0
SPLINE
  5
6DF
330
2
100
AcDbEntity
  8
AM_VIS
100
AcDbSpline
210
0.0
220
0.0
230
1.0
 70
    12
 71
     2
 72
     6
 73
     3
 74
     0
 42
0.0000000001
 43
0.0000000001
 40
0.0
 40
0.0
 40
0.0
 40
44.00770630556057
 40
44.00770630556057
 40
44.00770630556057
 10
248.8155791621544
 20
329.4855397851329
 30
0.0
 41
1.0
 10
248.66695723268
 20
329.8724514987821
 30
0.0
 41
1.0
 10
248.5183353095248
 20
330.2535626419746
 30
0.0
 41
1.0
  0
SPLINE
  5
6E0
330
2
100
AcDbEntity
  8
AM_VIS
100
AcDbSpline
210
0.0
220
0.0
230
1.0
 70
    12
 71
     2
 72
     6
 73
     3
 74
     0
 42
0.0000000001
 43
0.0000000001
 40
44.00419168640293
 40
44.00419168640293
 40
44.00419168640293
 40
44.53502082118319
 40
44.53502082118319
 40
44.53502082118319
 10
253.4874748586055
 20
336.2535626419746
 30
0.0
 41
1.0
 10
253.4849223101714
 20
336.2581553613907
 30
0.0
 41
1.0
 10
253.4823697617373
 20
336.2627471237699
 30
0.0
 41
1.0
  0
ARC
  5
6E1
330
2
100
AcDbEntity
  8
AM_VIS
100
AcDbCircle
 10
252.1907360909651
 20
303.7162085272399
 30
0.0
 40
32.5739871378001
100
AcDbArc
 50
87.72736683557035
 51
90.83739596045225
  0
LINE
  5
6E2
330
2
100
AcDbEntity
  8
AM_VIS
100
AcDbLine
 10
273.2206357407897
 20
336.2535626419746
 30
0.0
 11
273.2206357407897
 21
330.2535626419746
 31
0.0
  0
LINE
  5
6E3
330
2
100
AcDbEntity
  8
AM_VIS
100
AcDbLine
 10
273.9886585976312
 20
329.4855397851329
 30
0.0
 11
273.2206357407897
 21
330.2535626419746
 31
0.0
  0
LINE
  5
6E4
330
2
100
AcDbEntity
  8
AM_VIS
100
AcDbLine
 10
273.2206357407897
 20
336.2535626419746
 30
0.0
 11
272.7318939227996
 21
336.7423044599647
 31
0.0
  0
LINE
  5
6E5
330
2
100
AcDbEntity
  8
AM_VIS
100
AcDbLine
 10
338.6722885047622
 20
295.2647216347129
 30
0.0
 11
338.6722885047622
 21
281.264721634713
 31
0.0
  0
LINE
  5
6E6
330
2
100
AcDbEntity
  8
AM_VIS
100
AcDbLine
 10
340.5039071221631
 20
281.264721634713
 30
0.0
 11
340.5039071221631
 21
295.764721634713
 31
0.0
  0
LINE
  5
6E7
330
2
100
AcDbEntity
  8
AM_VIS
100
AcDbLine
 10
340.070894420271
 20
281.264721634713
 30
0.0
 11
340.070894420271
 21
295.2647216347129
 31
0.0
  0
LINE
  5
6E8
330
2
100
AcDbEntity
  8
AM_VIS
100
AcDbLine
 10
341.1952500725101
 20
261.4536695986785
 30
0.0
 11
341.1952500725101
 21
269.2697216347129
 31
0.0
  0
ARC
  5
6E9
330
2
100
AcDbEntity
  8
0
100
AcDbCircle
 10
339.8903980979574
 20
258.7128889861876
 30
0.0
 40
2.5
100
AcDbArc
 50
99.77166154120535
 51
179.0000000000002
  0
LINE
  5
6EA
330
2
100
AcDbEntity
  8
0
 62
     4
100
AcDbLine
 10
341.1952500725097
 20
263.2647216347129
 30
0.0
 11
342.6952500725097
 21
264.764721634713
 31
0.0
  0
LINE
  5
6EB
330
2
100
AcDbEntity
  8
AM_VIS
 62
     4
100
AcDbLine
 10
342.6952500725097
 20
264.764721634713
 30
0.0
 11
342.6952500725097
 21
269.2697216347129
 31
0.0
  0
LINE
  5
6EC
330
2
100
AcDbEntity
  8
AM_VIS
100
AcDbLine
 10
338.1952500725101
 20
281.264721634713
 30
0.0
 11
338.6722885047622
 21
281.264721634713
 31
0.0
  0
LINE
  5
6ED
330
2
100
AcDbEntity
  8
AM_VIS
100
AcDbLine
 10
338.1952500725101
 20
279.264721634713
 30
0.0
 11
338.1952500725101
 21
281.264721634713
 31
0.0
  0
LINE
  5
6EE
330
2
100
AcDbEntity
  8
AM_VIS
100
AcDbLine
 10
340.070894420271
 20
295.2647216347129
 30
0.0
 11
338.6722885047622
 21
295.2647216347129
 31
0.0
  0
LINE
  5
6EF
330
2
100
AcDbEntity
  8
AM_VIS
100
AcDbLine
 10
339.1552514179067
 20
295.764721634713
 30
0.0
 11
338.6952500725101
 21
295.764721634713
 31
0.0
  0
LINE
  5
6F0
330
2
100
AcDbEntity
  8
AM_VIS
100
AcDbLine
 10
339.1952500725101
 20
296.264721634713
 30
0.0
 11
338.6952500725101
 21
295.764721634713
 31
0.0
  0
LINE
  5
6F1
330
2
100
AcDbEntity
  8
AM_VIS
100
AcDbLine
 10
338.6952500725101
 20
295.2884931988672
 30
0.0
 11
338.6952500725101
 21
295.764721634713
 31
0.0
  0
LINE
  5
6F2
330
2
100
AcDbEntity
  8
AM_VIS
100
AcDbLine
 10
339.1552514179067
 20
295.764721634713
 30
0.0
 11
338.6722885047622
 21
295.2647216347129
 31
0.0
  0
LINE
  5
6F3
330
2
100
AcDbEntity
  8
AM_VIS
100
AcDbLine
 10
340.070894420271
 20
295.2647216347129
 30
0.0
 11
340.5039071221631
 21
295.764721634713
 31
0.0
  0
LINE
  5
6F4
330
2
100
AcDbEntity
  8
AM_7
100
AcDbLine
 10
228.9886585976312
 20
351.4855397851329
 30
0.0
 11
282.6846349099378
 21
351.4855397851329
 31
0.0
  0
ARC
  5
6F5
330
2
100
AcDbEntity
  8
AM_VIS
100
AcDbCircle
 10
228.9886585976312
 20
351.4855397851329
 30
0.0
 40
30.0
100
AcDbArc
 50
47.16657193393335
 51
90.0
  0
ARC
  5
6F6
330
2
100
AcDbEntity
  8
AM_VIS
100
AcDbCircle
 10
228.9886585976312
 20
351.4855397851329
 30
0.0
 40
29.99127379678136
100
AcDbArc
 50
47.18455660889503
 51
90.0
  0
LINE
  5
6F7
330
2
100
AcDbEntity
  8
AM_VIS
100
AcDbLine
 10
232.038110055387
 20
366.682606798435
 30
0.0
 11
251.7146482358072
 21
366.682606798435
 31
0.0
  0
LINE
  5
6F8
330
2
100
AcDbEntity
  8
AM_VIS
100
AcDbLine
 10
230.2454232724629
 20
366.2287751103013
 30
0.0
 11
272.7318939227996
 21
366.2287751103013
 31
0.0
  0
LINE
  5
6F9
330
2
100
AcDbEntity
  8
AM_7
100
AcDbLine
 10
228.9886585976312
 20
351.4855397851329
 30
0.0
 11
228.9886585976312
 21
384.4855397851329
 31
0.0
  0
CIRCLE
  5
6FA
330
2
100
AcDbEntity
  8
AM_VIS
100
AcDbCircle
 10
228.9886585976312
 20
351.4855397851329
 30
0.0
 40
2.45873412263478
  0
LINE
  5
6FB
330
2
100
AcDbEntity
  8
AM_VIS
100
AcDbLine
 10
226.1011585976312
 20
356.486836491988
 30
0.0
 11
231.8761585976313
 21
356.486836491988
 31
0.0
  0
ARC
  5
6FC
330
2
100
AcDbEntity
  8
AM_VIS
100
AcDbCircle
 10
228.9886585976312
 20
351.4855397851329
 30
0.0
 40
14.0
100
AcDbArc
 50
75.00000000608145
 51
105.0000000047284
  0
ARC
  5
6FD
330
2
100
AcDbEntity
  8
AM_VIS
100
AcDbCircle
 10
228.9886585976312
 20
351.4855397851329
 30
0.0
 40
13.5
100
AcDbArc
 50
75.00000000630733
 51
105.0000000049037
  0
ARC
  5
6FE
330
2
100
AcDbEntity
  8
AM_VIS
100
AcDbCircle
 10
228.9886585976312
 20
351.4855397851329
 30
0.0
 40
14.59205999321456
100
AcDbArc
 50
85.05918747756652
 51
106.3772756227254
  0
ARC
  5
6FF
330
2
100
AcDbEntity
  8
AM_VIS
100
AcDbCircle
 10
228.9886585976312
 20
351.4855397851329
 30
0.0
 40
15.5
100
AcDbArc
 50
78.65368240118375
 51
115.4146209151618
  0
SPLINE
  5
700
330
2
100
AcDbEntity
  8
AM_VIS
100
AcDbSpline
210
0.0
220
0.0
230
1.0
 70
    12
 71
     2
 72
     6
 73
     3
 74
     0
 42
0.0000000001
 43
0.0000000001
 40
23.94304347476611
 40
23.94304347476611
 40
23.94304347476611
 40
35.22616366930166
 40
35.22616366930166
 40
35.22616366930166
 10
230.056248335795
 20
366.4179500469693
 30
0.0
 41
1.026556977191579
 10
231.0216389614706
 20
366.4865781754123
 30
0.0
 41
1.019535954693863
 10
232.0381100553869
 20
366.682606798435
 30
0.0
 41
1.0
  0
LINE
  5
701
330
2
100
AcDbEntity
  8
AM_VIS
100
AcDbLine
 10
230.056248335795
 20
366.4179500469693
 30
0.0
 11
230.245423272463
 21
366.2287751103013
 31
0.0
  0
SPLINE
  5
702
330
2
100
AcDbEntity
  8
AM_VIS
100
AcDbSpline
210
0.0
220
0.0
230
1.0
 70
    12
 71
     2
 72
     6
 73
     3
 74
     0
 42
0.0000000001
 43
0.0000000001
 40
0.0
 40
0.0
 40
0.0
 40
11.04563664041229
 40
11.04563664041229
 40
11.04563664041229
 10
230.2454232724629
 20
366.0233785996772
 30
0.0
 41
1.0
 10
230.1521022173823
 20
366.2188413197689
 30
0.0
 41
1.000145743385969
 10
230.056248335795
 20
366.4179500469693
 30
0.0
 41
1.000167753720832
  0
ARC
  5
703
330
2
100
AcDbEntity
  8
AM_VIS
100
AcDbCircle
 10
228.9886585976312
 20
351.4855397851329
 30
0.0
 40
14.59205999321456
100
AcDbArc
 50
133.6227243772748
 51
166.3772756227255
  0
ARC
  5
704
330
2
100
AcDbEntity
  8
AM_VIS
100
AcDbCircle
 10
228.9886585976312
 20
351.4855397851329
 30
0.0
 40
14.0
100
AcDbArc
 50
120.0000000060811
 51
150.0000000047279
  0
ARC
  5
705
330
2
100
AcDbEntity
  8
AM_VIS
100
AcDbCircle
 10
228.9886585976312
 20
351.4855397851329
 30
0.0
 40
13.5
100
AcDbArc
 50
120.0000000063066
 51
150.0000000049033
  0
ARC
  5
706
330
2
100
AcDbEntity
  8
AM_VIS
100
AcDbCircle
 10
228.9886585976312
 20
351.4855397851329
 30
0.0
 40
14.0
100
AcDbArc
 50
150.0000000047279
 51
165.0000000060812
  0
LINE
  5
707
330
2
100
AcDbEntity
  8
AM_VIS
100
AcDbLine
 10
215.4656970291997
 20
355.109006415133
 30
0.0
 11
215.9486599423443
 21
354.9795968925817
 31
0.0
  0
LINE
  5
708
330
2
100
AcDbEntity
  8
AM_VIS
100
AcDbLine
 10
217.2973156459637
 20
358.2355397841325
 30
0.0
 11
216.8643029440714
 21
358.4855397841325
 31
0.0
  0
LINE
  5
709
330
2
100
AcDbEntity
  8
AM_VIS
100
AcDbLine
 10
223.2136585976312
 20
351.4855397851329
 30
0.0
 11
226.1011585976312
 21
356.486836491988
 31
0.0
  0
LINE
  5
70A
330
2
100
AcDbEntity
  8
AM_7
100
AcDbLine
 10
228.9886585976312
 20
351.4855397851329
 30
0.0
 11
228.9886585976312
 21
351.4855397851329
 31
0.0
  0
LINE
  5
70B
330
2
100
AcDbEntity
  8
AM_7
100
AcDbLine
 10
228.9886585976312
 20
351.4855397851329
 30
0.0
 11
228.9886585976312
 21
351.4855397851329
 31
0.0
  0
ARC
  5
70C
330
2
100
AcDbEntity
  8
AM_VIS
100
AcDbCircle
 10
228.9886585976312
 20
351.4855397851329
 30
0.0
 40
14.0
100
AcDbArc
 50
105.0000000047284
 51
120.0000000060811
  0
LINE
  5
70D
330
2
100
AcDbEntity
  8
AM_VIS
100
AcDbLine
 10
225.4946014876312
 20
364.5255384397365
 30
0.0
 11
225.36519196508
 21
365.008501352881
 31
0.0
  0
LINE
  5
70E
330
2
100
AcDbEntity
  8
AM_VIS
100
AcDbLine
 10
221.9886585963444
 20
363.6098954373722
 30
0.0
 11
222.2386585963444
 21
363.1768827354799
 31
0.0
  0
ARC
  5
70F
330
2
100
AcDbEntity
  8
AM_VIS
100
AcDbCircle
 10
228.9886585976312
 20
351.4855397851329
 30
0.0
 40
14.0
100
AcDbArc
 50
30.00000000608071
 51
60.00000000472749
  0
ARC
  5
710
330
2
100
AcDbEntity
  8
AM_VIS
100
AcDbCircle
 10
228.9886585976312
 20
351.4855397851329
 30
0.0
 40
13.5
100
AcDbArc
 50
30.00000000630667
 51
60.00000000490388
  0
LINE
  5
711
330
2
100
AcDbEntity
  8
AM_VIS
100
AcDbLine
 10
231.8761585976313
 20
356.486836491988
 30
0.0
 11
234.7636585976313
 21
351.4855397851329
 31
0.0
  0
ARC
  5
712
330
2
100
AcDbEntity
  8
AM_VIS
100
AcDbCircle
 10
228.9886585976312
 20
351.4855397851329
 30
0.0
 40
14.0
100
AcDbArc
 50
15.00000000472826
 51
30.00000000608071
  0
LINE
  5
713
330
2
100
AcDbEntity
  8
AM_VIS
100
AcDbLine
 10
242.0286572522347
 20
354.979596895133
 30
0.0
 11
242.5116201653792
 21
355.1090064176842
 31
0.0
  0
LINE
  5
714
330
2
100
AcDbEntity
  8
AM_VIS
100
AcDbLine
 10
241.1130142498704
 20
358.4855397864199
 30
0.0
 11
240.6800015479782
 21
358.2355397864199
 31
0.0
  0
LINE
  5
715
330
2
100
AcDbEntity
  8
AM_VIS
100
AcDbLine
 10
230.2454232724629
 20
366.0233785996772
 30
0.0
 11
230.2454232724629
 21
366.2287751103013
 31
0.0
  0
ARC
  5
716
330
2
100
AcDbEntity
  8
AM_VIS
100
AcDbCircle
 10
228.9886585976312
 20
351.4855397851329
 30
0.0
 40
14.0
100
AcDbArc
 50
60.00000000472749
 51
75.00000000608145
  0
LINE
  5
717
330
2
100
AcDbEntity
  8
AM_VIS
100
AcDbLine
 10
232.6121252276313
 20
365.0085013535645
 30
0.0
 11
232.48271570508
 21
364.52553844042
 31
0.0
  0
LINE
  5
718
330
2
100
AcDbEntity
  8
AM_VIS
100
AcDbLine
 10
235.7386585966307
 20
363.1768827368005
 30
0.0
 11
235.9886585966307
 21
363.6098954386928
 31
0.0
  0
ARC
  5
719
330
2
100
AcDbEntity
  8
AM_VIS
100
AcDbCircle
 10
228.9886585976312
 20
351.4855397851329
 30
0.0
 40
28.84796571473764
100
AcDbArc
 50
31.87100981238497
 51
47.3914139189685
  0
LINE
  5
71A
330
2
100
AcDbEntity
  8
AM_VIS
100
AcDbLine
 10
273.2206357407897
 20
372.7175169282914
 30
0.0
 11
273.2206357407897
 21
366.7175169282914
 31
0.0
  0
LINE
  5
71B
330
2
100
AcDbEntity
  8
AM_VIS
100
AcDbLine
 10
253.4874748586055
 20
366.7175169282914
 30
0.0
 11
273.2206357407897
 21
366.7175169282914
 31
0.0
  0
ARC
  5
71C
330
2
100
AcDbEntity
  8
AM_VIS
100
AcDbCircle
 10
252.1907360909653
 20
399.2548710430094
 30
0.0
 40
32.5739871377835
100
AcDbArc
 50
269.1626040395478
 51
272.2726331644296
  0
SPLINE
  5
71D
330
2
100
AcDbEntity
  8
AM_VIS
100
AcDbSpline
210
0.0
220
0.0
230
1.0
 70
    12
 71
     2
 72
     6
 73
     3
 74
     0
 42
0.0000000001
 43
0.0000000001
 40
0.0
 40
0.0
 40
0.0
 40
0.5308291390446467
 40
0.5308291390446467
 40
0.5308291390446467
 10
253.4823697617373
 20
366.708332446496
 30
0.0
 41
1.0
 10
253.4849223101714
 20
366.712924208875
 30
0.0
 41
1.0
 10
253.4874748586055
 20
366.7175169282914
 30
0.0
 41
1.0
  0
LINE
  5
71E
330
2
100
AcDbEntity
  8
AM_VIS
100
AcDbLine
 10
273.2206357407897
 20
366.7175169282914
 30
0.0
 11
272.7318939227996
 21
366.2287751103013
 31
0.0
  0
LINE
  5
71F
330
2
100
AcDbEntity
  8
AM_VIS
100
AcDbLine
 10
248.5183353095248
 20
372.7175169282914
 30
0.0
 11
273.2206357407897
 21
372.7175169282914
 31
0.0
  0
LINE
  5
720
330
2
100
AcDbEntity
  8
AM_VIS
100
AcDbLine
 10
273.9886585976312
 20
373.4855397851329
 30
0.0
 11
248.8155791621544
 21
373.4855397851329
 31
0.0
  0
SPLINE
  5
721
330
2
100
AcDbEntity
  8
AM_VIS
100
AcDbSpline
210
0.0
220
0.0
230
1.0
 70
    12
 71
     2
 72
     6
 73
     3
 74
     0
 42
0.0000000001
 43
0.0000000001
 40
0.0
 40
0.0
 40
0.0
 40
44.00770630556058
 40
44.00770630556058
 40
44.00770630556058
 10
248.5183353095248
 20
372.7175169282914
 30
0.0
 41
1.0
 10
248.666957239065
 20
373.0986280879806
 30
0.0
 41
1.0
 10
248.8155791621544
 20
373.4855397851329
 30
0.0
 41
1.0
  0
LINE
  5
722
330
2
100
AcDbEntity
  8
AM_VIS
100
AcDbLine
 10
273.9886585976312
 20
373.4855397851329
 30
0.0
 11
273.2206357407897
 21
372.7175169282914
 31
0.0
  0
LINE
  5
723
330
2
100
AcDbEntity
  8
AM_VIS
100
AcDbLine
 10
367.0895686377046
 20
253.6091686105626
 30
0.0
 11
367.6952500725101
 21
236.2647216347129
 31
0.0
  0
LINE
  5
724
330
2
100
AcDbEntity
  8
AM_VIS
100
AcDbLine
 10
367.4564011617395
 20
232.5933473836917
 30
0.0
 11
366.9997212849539
 21
258.7565200022809
 31
0.0
  0
LINE
  5
725
330
2
100
AcDbEntity
  8
AM_7
100
AcDbLine
 10
352.1952500725102
 20
154.457655815312
 30
0.0
 11
352.1952500725102
 21
305.9003399524124
 31
0.0
  0
LINE
  5
726
330
2
100
AcDbEntity
  8
AM_VIS
100
AcDbLine
 10
359.9894787065701
 20
162.2647216347129
 30
0.0
 11
359.9894787065701
 21
156.7647216347129
 31
0.0
  0
LINE
  5
727
330
2
100
AcDbEntity
  8
AM_VIS
100
AcDbLine
 10
367.78370734063
 20
162.2647216347129
 30
0.0
 11
367.78370734063
 21
156.7647216347129
 31
0.0
  0
LINE
  5
728
330
2
100
AcDbEntity
  8
AM_VIS
100
AcDbLine
 10
367.78370734063
 20
156.7647216347129
 30
0.0
 11
359.9894787065701
 21
156.7647216347129
 31
0.0
  0
LINE
  5
729
330
2
100
AcDbEntity
  8
AM_VIS
100
AcDbLine
 10
359.4121284373805
 20
155.7647216347129
 30
0.0
 11
366.6290068022508
 21
155.7647216347129
 31
0.0
  0
LINE
  5
72A
330
2
100
AcDbEntity
  8
AM_VIS
100
AcDbLine
 10
344.9783717076398
 20
155.7647216347129
 30
0.0
 11
359.4121284373805
 21
155.7647216347129
 31
0.0
  0
LINE
  5
72B
330
2
100
AcDbEntity
  8
AM_VIS
100
AcDbLine
 10
359.4121284373805
 20
155.7647216347129
 30
0.0
 11
359.9894787065701
 21
156.7647216347129
 31
0.0
  0
LINE
  5
72C
330
2
100
AcDbEntity
  8
AM_VIS
100
AcDbLine
 10
366.6290068022508
 20
155.7647216347129
 30
0.0
 11
367.78370734063
 21
156.7647216347129
 31
0.0
  0
LINE
  5
72D
330
2
100
AcDbEntity
  8
AM_VIS
100
AcDbLine
 10
381.0340313054524
 20
234.7909002443688
 30
0.0
 11
382.1865238692915
 21
168.7646454822911
 31
0.0
  0
LINE
  5
72E
330
2
100
AcDbEntity
  8
AM_VIS
100
AcDbLine
 10
374.1952500725101
 20
190.2647216347128
 30
0.0
 11
373.5377018728528
 21
227.4356327634584
 31
0.0
  0
LINE
  5
72F
330
2
100
AcDbEntity
  8
AM_VIS
100
AcDbLine
 10
382.1952500725101
 20
167.7647216347129
 30
0.0
 11
382.1952500725101
 21
163.2647216347129
 31
0.0
  0
LINE
  5
730
330
2
100
AcDbEntity
  8
AM_VIS
100
AcDbLine
 10
381.1952500725102
 20
162.2647216347129
 30
0.0
 11
382.1952500725101
 21
163.2647216347129
 31
0.0
  0
LINE
  5
731
330
2
100
AcDbEntity
  8
AM_VIS
100
AcDbLine
 10
381.6952500725101
 20
168.2647216347129
 30
0.0
 11
382.1952500725101
 21
167.7647216347129
 31
0.0
  0
LINE
  5
732
330
2
100
AcDbEntity
  8
AM_VIS
100
AcDbLine
 10
381.6952500725101
 20
168.2647216347129
 30
0.0
 11
382.1865238692915
 21
168.7646454822911
 31
0.0
  0
LINE
  5
733
330
2
100
AcDbEntity
  8
AM_VIS
100
AcDbLine
 10
367.3923170858121
 20
236.2647216347129
 30
0.0
 11
379.5342597627178
 21
236.2647216347129
 31
0.0
  0
LINE
  5
734
330
2
100
AcDbEntity
  8
AM_VIS
100
AcDbLine
 10
381.0340313054524
 20
234.7909002443688
 30
0.0
 11
367.4180427338732
 21
234.7909002443688
 31
0.0
  0
ARC
  5
735
330
2
100
AcDbEntity
  8
0
100
AcDbCircle
 10
368.5384633970708
 20
227.348370731272
 30
0.0
 40
5.0
100
AcDbArc
 50
1.000000000000133
 51
80.09390899101688
  0
LINE
  5
736
330
2
100
AcDbEntity
  8
AM_7
100
AcDbLine
 10
352.1952500725102
 20
211.7647216347129
 30
0.0
 11
371.6952500725101
 21
211.7647216347129
 31
0.0
  0
ARC
  5
737
330
2
100
AcDbEntity
  8
0
100
AcDbCircle
 10
352.1952500725102
 20
133.7647216347129
 30
0.0
 40
100.0
100
AcDbArc
 50
80.09390899101688
 51
81.2217021057487
  0
ARC
  5
738
330
2
100
AcDbEntity
  8
AM_VIS
100
AcDbCircle
 10
379.5342597627178
 20
234.7647216347129
 30
0.0
 40
1.5
100
AcDbArc
 50
1.00000000000054
 51
90.0
  0
LINE
  5
739
330
2
100
AcDbEntity
  8
AM_VIS
100
AcDbLine
 10
345.1952500735107
 20
295.2647216347129
 30
0.0
 11
345.1952500735107
 21
281.264721634713
 31
0.0
  0
LINE
  5
73A
330
2
100
AcDbEntity
  8
AM_VIS
100
AcDbLine
 10
355.8187167050614
 20
295.2647216347129
 30
0.0
 11
355.8187167050614
 21
281.264721634713
 31
0.0
  0
LINE
  5
73B
330
2
100
AcDbEntity
  8
AM_VIS
100
AcDbLine
 10
355.6893071825101
 20
281.264721634713
 30
0.0
 11
355.6893071825101
 21
295.764721634713
 31
0.0
  0
LINE
  5
73C
330
2
100
AcDbEntity
  8
AM_VIS
100
AcDbLine
 10
348.7011929650614
 20
281.264721634713
 30
0.0
 11
348.7011929650614
 21
295.764721634713
 31
0.0
  0
LINE
  5
73D
330
2
100
AcDbEntity
  8
AM_VIS
100
AcDbLine
 10
348.5717834425102
 20
281.264721634713
 30
0.0
 11
348.5717834425102
 21
295.2647216347129
 31
0.0
  0
LINE
  5
73E
330
2
100
AcDbEntity
  8
AM_VIS
100
AcDbLine
 10
364.3196057260699
 20
295.2647216347129
 30
0.0
 11
364.3196057260699
 21
281.264721634713
 31
0.0
  0
LINE
  5
73F
330
2
100
AcDbEntity
  8
AM_VIS
100
AcDbLine
 10
363.8865930241777
 20
281.264721634713
 30
0.0
 11
363.8865930241777
 21
295.764721634713
 31
0.0
  0
LINE
  5
740
330
2
100
AcDbEntity
  8
AM_VIS
100
AcDbLine
 10
359.195250073797
 20
281.264721634713
 30
0.0
 11
359.195250073797
 21
295.2647216347129
 31
0.0
  0
LINE
  5
741
330
2
100
AcDbEntity
  8
AM_VIS
100
AcDbLine
 10
365.7182116409416
 20
281.264721634713
 30
0.0
 11
365.7182116409416
 21
295.2647216347129
 31
0.0
  0
LINE
  5
742
330
2
100
AcDbEntity
  8
AM_VIS
100
AcDbLine
 10
359.195250073797
 20
281.264721634713
 30
0.0
 11
364.3196057260699
 21
281.264721634713
 31
0.0
  0
LINE
  5
743
330
2
100
AcDbEntity
  8
AM_VIS
100
AcDbLine
 10
348.5717834425102
 20
281.264721634713
 30
0.0
 11
355.8187167050614
 21
281.264721634713
 31
0.0
  0
LINE
  5
744
330
2
100
AcDbEntity
  8
AM_VIS
100
AcDbLine
 10
363.1952500725101
 20
261.4536695986785
 30
0.0
 11
363.1952500725101
 21
269.2697216347129
 31
0.0
  0
ARC
  5
745
330
2
100
AcDbEntity
  8
0
100
AcDbCircle
 10
364.5001020470628
 20
258.7128889861876
 30
0.0
 40
2.5
100
AcDbArc
 50
0.9999999999997262
 51
80.22833845879787
  0
LINE
  5
746
330
2
100
AcDbEntity
  8
AM_VIS
 62
     4
100
AcDbLine
 10
361.6952500725097
 20
264.764721634713
 30
0.0
 11
361.6952500725097
 21
269.2697216347129
 31
0.0
  0
LINE
  5
747
330
2
100
AcDbEntity
  8
0
 62
     4
100
AcDbLine
 10
363.1952500725097
 20
263.2647216347129
 30
0.0
 11
361.6952500725097
 21
264.764721634713
 31
0.0
  0
LINE
  5
748
330
2
100
AcDbEntity
  8
AM_VIS
100
AcDbLine
 10
365.7182116409417
 20
281.264721634713
 30
0.0
 11
366.1952500725101
 21
281.264721634713
 31
0.0
  0
LINE
  5
749
330
2
100
AcDbEntity
  8
AM_VIS
100
AcDbLine
 10
366.1952500725101
 20
279.264721634713
 30
0.0
 11
366.1952500725101
 21
281.264721634713
 31
0.0
  0
LINE
  5
74A
330
2
100
AcDbEntity
  8
AM_VIS
100
AcDbLine
 10
363.8865930241777
 20
295.764721634713
 30
0.0
 11
358.945250073797
 21
295.764721634713
 31
0.0
  0
ARC
  5
74B
330
2
100
AcDbEntity
  8
0
100
AcDbCircle
 10
352.1952500725102
 20
301.4647216347129
 30
0.0
 40
2.25
100
AcDbArc
 50
0.0
 51
180.0
  0
LINE
  5
74C
330
2
100
AcDbEntity
  8
AM_VIS
100
AcDbLine
 10
356.6452500725102
 20
301.4647216347129
 30
0.0
 11
347.7452500725101
 21
301.4647216347129
 31
0.0
  0
SPLINE
  5
74D
330
2
100
AcDbEntity
  8
AM_VIS
100
AcDbSpline
210
0.0
220
0.0
230
1.0
 70
    12
 71
     2
 72
     6
 73
     3
 74
     0
 42
0.0000000001
 43
0.0000000001
 40
0.0
 40
0.0
 40
0.0
 40
5.843695809539505
 40
5.843695809539505
 40
5.843695809539505
 10
357.1965467793652
 20
297.0297107413892
 30
0.0
 41
1.0
 10
354.6958984259378
 20
296.1961612902467
 30
0.0
 41
1.154700538379379
 10
352.1952500725102
 20
297.0297107413892
 30
0.0
 41
1.0
  0
SPLINE
  5
74E
330
2
100
AcDbEntity
  8
AM_VIS
100
AcDbSpline
210
0.0
220
0.0
230
1.0
 70
    12
 71
     2
 72
     6
 73
     3
 74
     0
 42
0.0000000001
 43
0.0000000001
 40
0.0
 40
0.0
 40
0.0
 40
5.843695809539571
 40
5.843695809539571
 40
5.843695809539571
 10
352.1952500725102
 20
300.6997325280366
 30
0.0
 41
1.0
 10
354.6958984259376
 20
301.533281979179
 30
0.0
 41
1.154700538379295
 10
357.1965467793652
 20
300.6997325280366
 30
0.0
 41
1.0
  0
LINE
  5
74F
330
2
100
AcDbEntity
  8
AM_VIS
100
AcDbLine
 10
355.6893071825101
 20
295.764721634713
 30
0.0
 11
348.7011929650614
 21
295.764721634713
 31
0.0
  0
LINE
  5
750
330
2
100
AcDbEntity
  8
AM_VIS
100
AcDbLine
 10
352.1952500725102
 20
300.6997325280366
 30
0.0
 11
352.1952500725102
 21
297.0297107413892
 31
0.0
  0
LINE
  5
751
330
2
100
AcDbEntity
  8
AM_VIS
100
AcDbLine
 10
347.193953365655
 20
300.6997325280366
 30
0.0
 11
347.193953365655
 21
297.0297107413892
 31
0.0
  0
SPLINE
  5
752
330
2
100
AcDbEntity
  8
AM_VIS
100
AcDbSpline
210
0.0
220
0.0
230
1.0
 70
    12
 71
     2
 72
     6
 73
     3
 74
     0
 42
0.0000000001
 43
0.0000000001
 40
0.0
 40
0.0
 40
0.0
 40
5.843695809539505
 40
5.843695809539505
 40
5.843695809539505
 10
352.1952500725102
 20
297.0297107413892
 30
0.0
 41
1.0
 10
349.6946017190825
 20
296.1961612902467
 30
0.0
 41
1.154700538379379
 10
347.193953365655
 20
297.0297107413892
 30
0.0
 41
1.0
  0
LINE
  5
753
330
2
100
AcDbEntity
  8
AM_VIS
100
AcDbLine
 10
347.7452500725101
 20
296.264721634713
 30
0.0
 11
347.193953365655
 21
296.583012936819
 31
0.0
  0
LINE
  5
754
330
2
100
AcDbEntity
  8
AM_VIS
100
AcDbLine
 10
347.193953365655
 20
297.0297107413892
 30
0.0
 11
347.193953365655
 21
296.583012936819
 31
0.0
  0
LINE
  5
755
330
2
100
AcDbEntity
  8
AM_VIS
100
AcDbLine
 10
348.5717834425102
 20
295.2647216347129
 30
0.0
 11
345.1952500735107
 21
295.2647216347129
 31
0.0
  0
LINE
  5
756
330
2
100
AcDbEntity
  8
AM_VIS
100
AcDbLine
 10
345.4452500735107
 20
295.764721634713
 30
0.0
 11
345.1952500735107
 21
295.2647216347129
 31
0.0
  0
LINE
  5
757
330
2
100
AcDbEntity
  8
AM_VIS
100
AcDbLine
 10
348.5717834425102
 20
295.2647216347129
 30
0.0
 11
348.7011929650614
 21
295.764721634713
 31
0.0
  0
SPLINE
  5
758
330
2
100
AcDbEntity
  8
AM_VIS
100
AcDbSpline
210
0.0
220
0.0
230
1.0
 70
    12
 71
     2
 72
     6
 73
     3
 74
     0
 42
0.0000000001
 43
0.0000000001
 40
0.0
 40
0.0
 40
0.0
 40
5.843695809539571
 40
5.843695809539571
 40
5.843695809539571
 10
347.193953365655
 20
300.6997325280366
 30
0.0
 41
1.0
 10
349.6946017190825
 20
301.533281979179
 30
0.0
 41
1.154700538379295
 10
352.1952500725102
 20
300.6997325280366
 30
0.0
 41
1.0
  0
LINE
  5
759
330
2
100
AcDbEntity
  8
AM_VIS
100
AcDbLine
 10
347.7452500725101
 20
301.4647216347129
 30
0.0
 11
347.193953365655
 21
301.1464303326068
 31
0.0
  0
LINE
  5
75A
330
2
100
AcDbEntity
  8
AM_VIS
100
AcDbLine
 10
347.193953365655
 20
301.1464303326068
 30
0.0
 11
347.193953365655
 21
300.6997325280366
 31
0.0
  0
LINE
  5
75B
330
2
100
AcDbEntity
  8
AM_VIS
100
AcDbLine
 10
357.1965467793652
 20
297.0297107413892
 30
0.0
 11
357.1965467793652
 21
300.6997325280366
 31
0.0
  0
LINE
  5
75C
330
2
100
AcDbEntity
  8
AM_VIS
100
AcDbLine
 10
359.195250073797
 20
295.2647216347129
 30
0.0
 11
355.8187167050614
 21
295.2647216347129
 31
0.0
  0
LINE
  5
75D
330
2
100
AcDbEntity
  8
AM_VIS
100
AcDbLine
 10
356.6452500725101
 20
296.264721634713
 30
0.0
 11
357.1965467793652
 21
296.583012936819
 31
0.0
  0
LINE
  5
75E
330
2
100
AcDbEntity
  8
AM_VIS
100
AcDbLine
 10
357.1965467793652
 20
297.0297107413892
 30
0.0
 11
357.1965467793652
 21
296.583012936819
 31
0.0
  0
LINE
  5
75F
330
2
100
AcDbEntity
  8
AM_VIS
100
AcDbLine
 10
355.6893071825101
 20
295.764721634713
 30
0.0
 11
355.8187167050614
 21
295.2647216347129
 31
0.0
  0
LINE
  5
760
330
2
100
AcDbEntity
  8
AM_VIS
100
AcDbLine
 10
359.195250073797
 20
295.2647216347129
 30
0.0
 11
358.945250073797
 21
295.764721634713
 31
0.0
  0
LINE
  5
761
330
2
100
AcDbEntity
  8
AM_VIS
100
AcDbLine
 10
356.6452500725102
 20
301.4647216347129
 30
0.0
 11
357.1965467793652
 21
301.1464303326068
 31
0.0
  0
LINE
  5
762
330
2
100
AcDbEntity
  8
AM_VIS
100
AcDbLine
 10
357.1965467793652
 20
301.1464303326068
 30
0.0
 11
357.1965467793652
 21
300.6997325280366
 31
0.0
  0
LINE
  5
763
330
2
100
AcDbEntity
  8
AM_VIS
100
AcDbLine
 10
365.7182116409416
 20
295.2647216347129
 30
0.0
 11
364.3196057260699
 21
295.2647216347129
 31
0.0
  0
LINE
  5
764
330
2
100
AcDbEntity
  8
AM_VIS
100
AcDbLine
 10
365.6952500725101
 20
295.764721634713
 30
0.0
 11
365.2352487277972
 21
295.764721634713
 31
0.0
  0
LINE
  5
765
330
2
100
AcDbEntity
  8
AM_VIS
100
AcDbLine
 10
365.1952500725101
 20
296.264721634713
 30
0.0
 11
365.6952500725101
 21
295.764721634713
 31
0.0
  0
LINE
  5
766
330
2
100
AcDbEntity
  8
AM_VIS
100
AcDbLine
 10
365.7182116409417
 20
295.2647216347129
 30
0.0
 11
365.2352487277972
 21
295.764721634713
 31
0.0
  0
LINE
  5
767
330
2
100
AcDbEntity
  8
AM_VIS
100
AcDbLine
 10
363.8865930241777
 20
295.764721634713
 30
0.0
 11
364.31960572607
 21
295.2647216347129
 31
0.0
  0
LINE
  5
768
330
2
100
AcDbEntity
  8
AM_VIS
100
AcDbLine
 10
365.6952500725101
 20
295.2884931995749
 30
0.0
 11
365.6952500725101
 21
295.764721634713
 31
0.0
  0
DIMENSION
  5
778
102
{ACAD_XDICTIONARY
360
785
102
}
102
{ACAD_REACTORS
330
78F
102
}
330
2
100
AcDbEntity
  8
AM_5
100
AcDbDimension
  2
*D2
 10
273.9886585976312
 20
142.1737479866613
 30
0.0
 11
228.9930223638633
 21
144.3737479866612
 31
0.0
 70
    32
 71
     5
 42
-1.0
  3
AM_ISO
100
AcDbAlignedDimension
 13
183.9973861300953
 23
190.2647216347128
 33
0.0
 14
273.9886585976312
 24
190.2647216347128
 34
0.0
100
AcDbRotatedDimension
1001
ACAD
1000
DSTYLE
1002
{
1070
   271
1070
     1
1002
}
  0
DIMENSION
  5
7B9
102
{ACAD_XDICTIONARY
360
7C6
102
}
102
{ACAD_REACTORS
330
7D0
102
}
330
2
100
AcDbEntity
  8
AM_5
100
AcDbDimension
  2
*D3
 10
382.1952500725101
 20
142.1737479866615
 30
0.0
 11
352.1952500725102
 21
144.3737479866615
 31
0.0
 70
    32
  1
%%c<>
 71
     5
 42
-1.0
  3
AM_ISO
100
AcDbAlignedDimension
 13
322.1952500725101
 23
163.2647216347129
 33
0.0
 14
382.1952500725101
 24
163.2647216347129
 34
0.0
100
AcDbRotatedDimension
1001
ACAD
1000
DSTYLE
1002
{
1070
   271
1070
     1
1002
}
  0
LINE
  5
7FB
102
{ACAD_REACTORS
330
822
102
}
330
2
100
AcDbEntity
  8
AM_7
100
AcDbLine
 10
275.9149792349531
 20
211.7647216347129
 30
0.0
 11
180.5450491485221
 21
211.7647216347129
 31
0.0
  0
DIMENSION
  5
80B
102
{ACAD_XDICTIONARY
360
818
102
}
102
{ACAD_REACTORS
330
822
102
}
330
2
100
AcDbEntity
  8
AM_5
100
AcDbDimension
  2
*D4
 10
287.9149792349531
 20
211.7647216347129
 30
0.0
 11
285.7149792349531
 21
183.7647216347129
 31
0.0
 70
    32
 71
     5
 42
-1.0
  3
AM_ISO
100
AcDbAlignedDimension
 13
241.4886585976312
 23
155.7647216347129
 33
0.0
 14
275.9149792349531
 24
211.7647216347129
 34
0.0
 50
90.0
100
AcDbRotatedDimension
1001
ACAD
1000
DSTYLE
1002
{
1070
   271
1070
     1
1002
}
  0
DIMENSION
  5
84C
102
{ACAD_XDICTIONARY
360
859
102
}
102
{ACAD_REACTORS
330
863
102
}
330
2
100
AcDbEntity
  8
AM_5
100
AcDbDimension
  2
*D5
 10
297.0971246997713
 20
303.7147216347129
 30
0.0
 11
297.0971246997713
 21
229.739721634713
 31
0.0
 70
   160
 71
     5
 42
-1.0
  3
AM_ISO
100
AcDbAlignedDimension
 13
241.4886585976312
 23
155.7647216347129
 33
0.0
 14
228.9886585976312
 24
303.7147216347129
 34
0.0
 50
90.0
100
AcDbRotatedDimension
1001
ACAD
1000
DSTYLE
1002
{
1070
   271
1070
     1
1002
}
  0
CIRCLE
  5
8A0
330
2
100
AcDbEntity
  8
AM_0N
100
AcDbCircle
 10
228.9886585976313
 20
351.4855397851329
 30
0.0
 40
14.0
1001
GENIUS_GENOREF_13
1005
0
  0
LINE
  5
8A2
330
2
100
AcDbEntity
  8
AM_0N
100
AcDbLine
 10
220.9057548289765
 20
365.4855397851329
 30
0.0
 11
212.8228510603217
 21
351.4855397851329
 31
0.0
1001
GENIUS_GENOREF_13
1005
0
  0
LINE
  5
8A3
330
2
100
AcDbEntity
  8
AM_0N
100
AcDbLine
 10
245.1544661349406
 20
351.4855397851327
 30
0.0
 11
237.0715623662862
 21
365.4855397851329
 31
0.0
1001
GENIUS_GENOREF_13
1005
0
  0
LINE
  5
8A5
330
2
100
AcDbEntity
  8
AM_0N
100
AcDbLine
 10
220.905754828976
 20
337.4855397851329
 30
0.0
 11
237.071562366286
 21
337.4855397851329
 31
0.0
1001
GENIUS_GENOREF_13
1005
0
  0
LINE
  5
8A6
330
2
100
AcDbEntity
  8
AM_0N
100
AcDbLine
 10
212.8228510603217
 20
351.4855397851329
 30
0.0
 11
220.905754828976
 21
337.4855397851329
 31
0.0
1001
GENIUS_GENOREF_13
1005
0
  0
LINE
  5
8A7
330
2
100
AcDbEntity
  8
AM_0N
100
AcDbLine
 10
237.071562366286
 20
337.4855397851329
 30
0.0
 11
245.1544661349406
 21
351.4855397851327
 31
0.0
1001
GENIUS_GENOREF_13
1005
0
  0
LINE
  5
8A8
330
2
100
AcDbEntity
  8
AM_0N
100
AcDbLine
 10
237.0715623662862
 20
365.4855397851329
 30
0.0
 11
220.9057548289765
 21
365.4855397851329
 31
0.0
1001
GENIUS_GENOREF_13
1005
0
  0
LINE
  5
8BE
330
2
100
AcDbEntity
  8
AM_VIS
100
AcDbLine
 10
239.9886585976313
 20
274.2647216347129
 30
0.0
 11
239.9886585976312
 21
279.264721634713
 31
0.0
  0
LINE
  5
8BF
330
2
100
AcDbEntity
  8
AM_VIS
 62
     4
100
AcDbLine
 10
238.4886585976308
 20
274.2647216347129
 30
0.0
 11
238.4886585976308
 21
279.264721634713
 31
0.0
  0
LINE
  5
8C0
330
2
100
AcDbEntity
  8
AM_VIS
 62
     4
100
AcDbLine
 10
219.4886585976308
 20
274.2647216347129
 30
0.0
 11
219.4886585976308
 21
279.264721634713
 31
0.0
  0
LINE
  5
8C1
330
2
100
AcDbEntity
  8
AM_VIS
100
AcDbLine
 10
217.9886585976312
 20
274.2647216347129
 30
0.0
 11
217.9886585976312
 21
279.264721634713
 31
0.0
  0
LINE
  5
8C2
330
2
100
AcDbEntity
  8
AM_VIS
100
AcDbLine
 10
341.1952500725101
 20
274.2647216347129
 30
0.0
 11
341.1952500725101
 21
279.264721634713
 31
0.0
  0
LINE
  5
8C3
330
2
100
AcDbEntity
  8
AM_VIS
 62
     4
100
AcDbLine
 10
342.6952500725097
 20
274.2647216347129
 30
0.0
 11
342.6952500725098
 21
279.264721634713
 31
0.0
  0
LINE
  5
8C4
330
2
100
AcDbEntity
  8
AM_VIS
100
AcDbLine
 10
363.1952500725101
 20
274.2647216347129
 30
0.0
 11
363.1952500725101
 21
279.264721634713
 31
0.0
  0
LINE
  5
8C5
330
2
100
AcDbEntity
  8
AM_VIS
 62
     4
100
AcDbLine
 10
361.6952500725097
 20
274.2647216347129
 30
0.0
 11
361.6952500725097
 21
279.264721634713
 31
0.0
  0
TEXT
  5
A06
330
2
100
AcDbEntity
  8
LOGO
 62
     6
100
AcDbText
 10
189.7677022479193
 20
101.5550788330843
 30
0.0
 40
4.778083348825685
  1
單位 Unit:
 41
0.9
  7
CHINESET
 72
     4
 11
202.8029108839344
 21
103.9441205074971
 31
0.0
100
AcDbText
  0
TEXT
  5
A07
330
2
100
AcDbEntity
  8
LOGO
 62
     6
100
AcDbText
 10
189.3005592776546
 20
111.1784569229865
 30
0.0
 40
4.778083348825685
  1
投影 View:
 41
0.9
  7
CHINESET
 72
     4
 11
202.8029108839344
 21
113.5002872051484
 31
0.0
100
AcDbText
  0
TEXT
  5
A08
330
2
100
AcDbEntity
  8
LOGO
 62
     6
100
AcDbText
 10
187.6303631784892
 20
120.6697636473579
 30
0.0
 40
4.778083348825685
  1
比例 Scale:
 41
0.9
  7
CHINESET
 72
     4
 11
202.8029108839344
 21
123.0564539027999
 31
0.0
100
AcDbText
  0
LINE
  5
A09
330
2
100
AcDbEntity
  8
LOGO
 62
     1
100
AcDbLine
 10
253.7691332714083
 20
108.7222038563228
 30
0.0
 11
183.6905774886315
 21
108.7222038563228
 31
0.0
  0
LINE
  5
A0A
330
2
100
AcDbEntity
  8
LOGO
 62
     1
100
AcDbLine
 10
253.7691332714083
 20
118.2783705539742
 30
0.0
 11
183.6905774886315
 21
118.2783705539742
 31
0.0
  0
LINE
  5
A0B
330
2
100
AcDbEntity
  8
LOGO
 62
     1
100
AcDbLine
 10
421.8570553520892
 20
80.05370376336871
 30
0.0
 11
148.6512995972432
 21
80.05370376336871
 31
0.0
  0
TEXT
  5
A0C
330
2
100
AcDbEntity
  8
LOGO
  6
Continuous
 62
     5
100
AcDbText
 10
152.2674792778712
 20
82.27164717675309
 30
0.0
 40
4.778083348825685
  1
MINDMAN INDUSTRIAL CO.,LTD
 41
0.85
  7
CHINESET
100
AcDbText
  0
TEXT
  5
A0D
330
2
100
AcDbEntity
  8
LOGO
  6
Continuous
 62
     5
100
AcDbText
 10
150.2152469509804
 20
89.44017639457186
 30
0.0
 40
7.167125023238529
  1
金器工業股份有限公司
 41
0.8
  7
LOGO
100
AcDbText
  0
LINE
  5
A0E
330
2
100
AcDbEntity
  8
LOGO
 62
     1
100
AcDbLine
 10
253.7691332714083
 20
99.16603715867161
 30
0.0
 11
148.6512995972432
 21
99.16603715867161
 31
0.0
  0
LINE
  5
A0F
330
2
100
AcDbEntity
  8
LOGO
 62
     1
100
AcDbLine
 10
421.8570553520892
 20
127.8345372516256
 30
0.0
 11
148.6512995972432
 21
127.8345372516256
 31
0.0
  0
POLYLINE
  5
A10
330
2
100
AcDbEntity
  8
0
  6
ByBlock
 62
     4
100
AcDb2dPolyline
 66
     1
 10
0.0
 20
0.0
 30
0.0
 70
     1
  0
VERTEX
  5
A11
330
A10
100
AcDbEntity
  8
0
  6
ByBlock
 62
     4
100
AcDbVertex
100
AcDb2dVertex
 10
148.6512995972432
 20
397.5934159072971
 30
0.0
  0
VERTEX
  5
A12
330
A10
100
AcDbEntity
  8
0
  6
ByBlock
 62
     4
100
AcDbVertex
100
AcDb2dVertex
 10
421.8570553520892
 20
397.5934159072971
 30
0.0
  0
VERTEX
  5
A13
330
A10
100
AcDbEntity
  8
0
  6
ByBlock
 62
     4
100
AcDbVertex
100
AcDb2dVertex
 10
421.8570553520892
 20
127.8345372516256
 30
0.0
  0
VERTEX
  5
A14
330
A10
100
AcDbEntity
  8
0
  6
ByBlock
 62
     4
100
AcDbVertex
100
AcDb2dVertex
 10
148.6512995972432
 20
127.8345372516256
 30
0.0
  0
SEQEND
  5
A15
330
A10
100
AcDbEntity
  8
0
  6
ByBlock
 62
     4
  0
LINE
  5
A16
330
2
100
AcDbEntity
  8
LOGO
 62
     1
100
AcDbLine
 10
183.6905774886315
 20
99.16603715867147
 30
0.0
 11
183.6905774886315
 21
127.8345372516256
 31
0.0
  0
SOLID
  5
A17
330
2
100
AcDbEntity
  8
LOGO
 62
     5
100
AcDbTrace
 10
177.9009822825277
 20
107.1089206194842
 30
0.0
 11
179.9669001456527
 21
107.1089206194842
 31
0.0
 12
177.9009822825277
 22
126.6995210456707
 32
0.0
 13
179.9669001456527
 23
126.699521045672
 33
0.0
  0
SOLID
  5
A18
330
2
100
AcDbEntity
  8
LOGO
 62
     5
100
AcDbTrace
 10
167.2152002318805
 20
107.1089206194849
 30
0.0
 11
169.2811180950057
 21
107.1089206194849
 31
0.0
 12
177.0461197184753
 22
125.1322730115764
 32
0.0
 13
174.9802018553502
 23
117.5572408467838
 33
0.0
  0
SOLID
  5
A19
330
2
100
AcDbEntity
  8
LOGO
 62
     5
100
AcDbTrace
 10
167.2152002318805
 20
108.6761686535792
 30
0.0
 11
169.2811180950057
 21
116.2512008183718
 31
0.0
 12
177.0461197184753
 22
126.699521045672
 32
0.0
 13
174.9802018553502
 23
126.699521045672
 33
0.0
  0
SOLID
  5
A1A
330
2
100
AcDbEntity
  8
LOGO
 62
     2
100
AcDbTrace
 10
166.3603376678283
 20
126.6995210456707
 30
0.0
 11
167.2152002318805
 21
126.6995210456707
 31
0.0
 12
166.3603376678283
 22
107.1089206194849
 32
0.0
 13
167.2152002318805
 23
107.1089206194849
 33
0.0
  0
SOLID
  5
A1B
330
2
100
AcDbEntity
  8
LOGO
 62
     5
100
AcDbTrace
 10
167.2152002318805
 20
126.6995210456707
 30
0.0
 11
169.2811180950057
 21
126.699521045672
 31
0.0
 12
167.2152002318805
 22
108.6761686535792
 32
0.0
 13
169.2811180950057
 23
116.2512008183718
 33
0.0
  0
SOLID
  5
A1C
330
2
100
AcDbEntity
  8
LOGO
 62
     2
100
AcDbTrace
 10
155.6745556171805
 20
107.1089206194842
 30
0.0
 11
156.5294181812336
 21
107.1089206194849
 31
0.0
 12
166.3603376678283
 22
126.6995210456707
 32
0.0
 13
167.2152002318805
 23
126.6995210456707
 33
0.0
  0
SOLID
  5
A1D
330
2
100
AcDbEntity
  8
LOGO
 62
     5
100
AcDbTrace
 10
153.6086377540556
 20
107.1089206194849
 30
0.0
 11
155.6745556171805
 21
107.1089206194842
 31
0.0
 12
164.2944198047034
 22
126.699521045672
 32
0.0
 13
166.3603376678283
 23
126.6995210456707
 33
0.0
  0
SOLID
  5
A1E
330
2
100
AcDbEntity
  8
LOGO
 62
     5
100
AcDbTrace
 10
156.5294181812336
 20
107.1089206194849
 30
0.0
 11
158.5953360443584
 21
107.1089206194849
 31
0.0
 12
166.3603376678283
 22
125.1322730115764
 32
0.0
 13
164.2944198047034
 23
117.5572408467838
 33
0.0
  0
SOLID
  5
A1F
330
2
100
AcDbEntity
  8
LOGO
 62
     5
100
AcDbTrace
 10
164.2944198047034
 20
107.1089206194849
 30
0.0
 11
166.3603376678283
 21
107.1089206194849
 31
0.0
 12
164.2944198047034
 22
117.5572408467838
 32
0.0
 13
166.3603376678283
 23
125.1322730115764
 33
0.0
  0
SOLID
  5
A20
330
2
100
AcDbEntity
  8
LOGO
 62
     5
100
AcDbTrace
 10
177.0461197184753
 20
125.1322730115764
 30
0.0
 11
174.9802018553502
 21
117.5572408467838
 31
0.0
 12
177.0461197184753
 22
107.1089206194842
 32
0.0
 13
174.9802018553502
 23
107.1089206194842
 33
0.0
  0
LINE
  5
A21
330
2
100
AcDbEntity
  8
LOGO
 62
     1
100
AcDbLine
 10
148.6512995972432
 20
80.05370376336871
 30
0.0
 11
148.6512995972432
 21
127.8345372516256
 31
0.0
  0
SOLID
  5
A22
330
2
100
AcDbEntity
  8
LOGO
 62
     2
100
AcDbTrace
 10
166.3603376678283
 20
107.1089206194849
 30
0.0
 11
167.2152002318805
 21
107.1089206194849
 31
0.0
 12
177.0461197184753
 22
126.699521045672
 32
0.0
 13
177.9009822825277
 23
126.6995210456707
 33
0.0
  0
SOLID
  5
A23
330
2
100
AcDbEntity
  8
LOGO
 62
     2
100
AcDbTrace
 10
177.0461197184753
 20
126.699521045672
 30
0.0
 11
177.9009822825277
 21
126.6995210456707
 31
0.0
 12
177.0461197184753
 22
107.1089206194842
 32
0.0
 13
177.9009822825277
 23
107.1089206194842
 33
0.0
  0
SOLID
  5
A24
330
2
100
AcDbEntity
  8
LOGO
 62
     5
100
AcDbTrace
 10
155.7335015970263
 20
103.5469932692689
 30
0.0
 11
156.4458870670686
 21
103.5469932692689
 31
0.0
 12
155.7335015970263
 22
99.98506591905377
 32
0.0
 13
156.4458870670686
 23
99.98506591905377
 33
0.0
  0
SOLID
  5
A25
330
2
100
AcDbEntity
  8
LOGO
 62
     5
100
AcDbTrace
 10
153.0149831956867
 20
99.98506591905377
 30
0.0
 11
153.7273686657293
 21
99.98506591905377
 31
0.0
 12
155.7335015970263
 22
103.5469932692689
 32
0.0
 13
156.4458870670686
 23
103.5469932692689
 33
0.0
  0
SOLID
  5
A26
330
2
100
AcDbEntity
  8
LOGO
 62
     5
100
AcDbTrace
 10
153.0149831956867
 20
103.5469932692689
 30
0.0
 11
153.7273686657293
 21
103.5469932692689
 31
0.0
 12
153.0149831956867
 22
99.98506591905377
 32
0.0
 13
153.7273686657293
 23
99.98506591905377
 33
0.0
  0
SOLID
  5
A27
330
2
100
AcDbEntity
  8
LOGO
 62
     5
100
AcDbTrace
 10
150.2964647943479
 20
99.98506591905377
 30
0.0
 11
151.0088502643919
 21
99.98506591905377
 31
0.0
 12
153.0149831956867
 22
103.5469932692689
 32
0.0
 13
153.7273686657293
 23
103.5469932692689
 33
0.0
  0
SOLID
  5
A28
330
2
100
AcDbEntity
  8
LOGO
 62
     5
100
AcDbTrace
 10
175.573832667539
 20
103.5469932692689
 30
0.0
 11
176.2862181375814
 21
103.5469932692689
 31
0.0
 12
175.573832667539
 22
99.98506591905377
 32
0.0
 13
176.2862181375814
 23
99.98506591905377
 33
0.0
  0
POLYLINE
  5
A29
330
2
100
AcDbEntity
  8
LOGO
 62
     5
100
AcDb2dPolyline
 66
     1
 10
0.0
 20
0.0
 30
0.0
 70
     1
 40
0.7135271134246356
 41
0.7135271134246356
  0
VERTEX
  5
A2A
330
A29
100
AcDbEntity
  8
LOGO
 62
     5
100
AcDbVertex
100
AcDb2dVertex
 10
173.0782714741704
 20
101.766029594161
 30
0.0
 42
1.0
  0
VERTEX
  5
A2B
330
A29
100
AcDbEntity
  8
LOGO
 62
     5
100
AcDbVertex
100
AcDb2dVertex
 10
175.9323799278686
 20
101.766029594161
 30
0.0
 42
1.0
  0
SEQEND
  5
A2C
330
A29
100
AcDbEntity
  8
LOGO
 62
     5
  0
CIRCLE
  5
A2D
330
2
100
AcDbEntity
  8
LOGO
 62
     5
100
AcDbCircle
 10
174.5053257010199
 20
101.7660295941613
 30
0.0
 40
1.068578205064734
  0
POLYLINE
  5
A2E
330
2
100
AcDbEntity
  8
LOGO
 62
     5
100
AcDb2dPolyline
 66
     1
 10
0.0
 20
0.0
 30
0.0
 70
     1
  0
VERTEX
  5
A2F
330
A2E
100
AcDbEntity
  8
LOGO
 62
     5
100
AcDbVertex
100
AcDb2dVertex
 10
173.436747495955
 20
101.7660295941613
 30
0.0
 42
1.000000057330635
  0
VERTEX
  5
A30
330
A2E
100
AcDbEntity
  8
LOGO
 62
     5
100
AcDbVertex
100
AcDb2dVertex
 10
175.5739039060848
 20
101.7660295941613
 30
0.0
 42
1.000000057330635
  0
SEQEND
  5
A31
330
A2E
100
AcDbEntity
  8
LOGO
 62
     5
  0
SOLID
  5
A32
330
2
100
AcDbEntity
  8
LOGO
 62
     5
100
AcDbTrace
 10
169.0436087792936
 20
102.1222223291825
 30
0.0
 11
169.7559942493361
 21
102.1222223291825
 31
0.0
 12
169.0436087792936
 22
99.98506591905377
 32
0.0
 13
169.7559942493361
 23
99.98506591905377
 33
0.0
  0
SOLID
  5
A33
330
2
100
AcDbEntity
  8
LOGO
 62
     5
100
AcDbTrace
 10
171.1807651894226
 20
102.1222223291825
 30
0.0
 11
171.8931506594649
 21
102.1222223291825
 31
0.0
 12
171.1807651894226
 22
99.98506591905236
 32
0.0
 13
171.8931506594649
 23
99.98506591905236
 33
0.0
  0
SOLID
  5
A34
330
2
100
AcDbEntity
  8
LOGO
 62
     5
100
AcDbTrace
 10
165.3629267712216
 20
104.615571474334
 30
0.0
 11
166.075312241264
 21
104.615571474334
 31
0.0
 12
165.3629267712216
 22
99.98506591905377
 32
0.0
 13
166.075312241264
 23
99.98506591905377
 33
0.0
  0
SOLID
  5
A35
330
2
100
AcDbEntity
  8
LOGO
 62
     5
100
AcDbTrace
 10
166.9064523691646
 20
103.5469932692689
 30
0.0
 11
167.6188378392071
 21
103.5469932692689
 31
0.0
 12
166.9064523691646
 22
99.98506591905377
 32
0.0
 13
167.6188378392071
 23
99.98506591905377
 33
0.0
  0
SOLID
  5
A36
330
2
100
AcDbEntity
  8
LOGO
 62
     5
100
AcDbTrace
 10
160.9698592931055
 20
102.1222223291825
 30
0.0
 11
161.6822447631496
 21
102.1222223291825
 31
0.0
 12
160.9698592931055
 22
99.98506591905377
 32
0.0
 13
161.6822447631496
 23
99.98506591905377
 33
0.0
  0
SOLID
  5
A37
330
2
100
AcDbEntity
  8
LOGO
 62
     5
100
AcDbTrace
 10
158.8327028829767
 20
103.5469932692689
 30
0.0
 11
159.5450883530194
 21
103.5469932692689
 31
0.0
 12
158.8327028829767
 22
99.98506591905377
 32
0.0
 13
159.5450883530194
 23
99.98506591905377
 33
0.0
  0
POLYLINE
  5
A38
330
2
100
AcDbEntity
  8
LOGO
 62
     5
100
AcDb2dPolyline
 66
     1
 10
0.0
 20
0.0
 30
0.0
 70
     1
 40
0.7135271134246356
 41
0.7135271134246356
  0
VERTEX
  5
A39
330
A38
100
AcDbEntity
  8
LOGO
 62
     5
100
AcDbVertex
100
AcDb2dVertex
 10
162.8673655778533
 20
101.766029594161
 30
0.0
 42
1.0
  0
VERTEX
  5
A3A
330
A38
100
AcDbEntity
  8
LOGO
 62
     5
100
AcDbVertex
100
AcDb2dVertex
 10
165.721474031552
 20
101.766029594161
 30
0.0
 42
1.0
  0
SEQEND
  5
A3B
330
A38
100
AcDbEntity
  8
LOGO
 62
     5
  0
SOLID
  5
A3C
330
2
100
AcDbEntity
  8
LOGO
 62
     5
100
AcDbTrace
 10
157.2891772850338
 20
103.5469932692689
 30
0.0
 11
158.0015627550783
 21
103.5469932692689
 31
0.0
 12
157.2891772850338
 22
99.98506591905236
 32
0.0
 13
158.0015627550783
 23
99.98506591905377
 33
0.0
  0
POLYLINE
  5
A3D
330
2
100
AcDbEntity
  8
LOGO
 62
     5
100
AcDb2dPolyline
 66
     1
 10
0.0
 20
0.0
 30
0.0
 40
0.7135271134246356
 41
0.7135271134246356
  0
VERTEX
  5
A3E
330
A3D
100
AcDbEntity
  8
LOGO
 62
     5
100
AcDbVertex
100
AcDb2dVertex
 10
161.3277644931997
 20
102.1222223291825
 30
0.0
 42
1.0
  0
VERTEX
  5
A3F
330
A3D
100
AcDbEntity
  8
LOGO
 62
     5
100
AcDbVertex
100
AcDb2dVertex
 10
159.1871831529257
 20
102.1222223291825
 30
0.0
 42
1.0
  0
SEQEND
  5
A40
330
A3D
100
AcDbEntity
  8
LOGO
 62
     5
  0
SOLID
  5
A41
330
2
100
AcDbEntity
  8
LOGO
 62
     5
100
AcDbTrace
 10
157.2891772850338
 20
104.0456630982989
 30
0.0
 11
158.0015627550783
 21
104.0456630982989
 31
0.0
 12
157.2891772850338
 22
104.615571474334
 32
0.0
 13
158.0015627550783
 23
104.615571474334
 33
0.0
  0
POLYLINE
  5
A42
330
2
100
AcDbEntity
  8
LOGO
 62
     5
100
AcDb2dPolyline
 66
     1
 10
0.0
 20
0.0
 30
0.0
 40
0.7135271134246356
 41
0.7135271134246356
  0
VERTEX
  5
A43
330
A42
100
AcDbEntity
  8
LOGO
 62
     5
100
AcDbVertex
100
AcDb2dVertex
 10
171.538670389516
 20
102.1222223291825
 30
0.0
 42
1.0
  0
VERTEX
  5
A44
330
A42
100
AcDbEntity
  8
LOGO
 62
     5
100
AcDbVertex
100
AcDb2dVertex
 10
169.3980890492422
 20
102.1222223291825
 30
0.0
 42
1.0
  0
SEQEND
  5
A45
330
A42
100
AcDbEntity
  8
LOGO
 62
     5
  0
POLYLINE
  5
A46
330
2
100
AcDbEntity
  8
LOGO
 62
     5
100
AcDb2dPolyline
 66
     1
 10
0.0
 20
0.0
 30
0.0
 40
0.7135271134246356
 41
0.7135271134246356
  0
VERTEX
  5
A47
330
A46
100
AcDbEntity
  8
LOGO
 62
     5
100
AcDbVertex
100
AcDb2dVertex
 10
169.4015139793872
 20
102.1222223291825
 30
0.0
 42
1.0
  0
VERTEX
  5
A48
330
A46
100
AcDbEntity
  8
LOGO
 62
     5
100
AcDbVertex
100
AcDb2dVertex
 10
167.2609326391132
 20
102.1222223291825
 30
0.0
 42
1.0
  0
SEQEND
  5
A49
330
A46
100
AcDbEntity
  8
LOGO
 62
     5
  0
SOLID
  5
A4A
330
2
100
AcDbEntity
  8
LOGO
 62
     5
100
AcDbTrace
 10
179.2545146756102
 20
102.1222223291825
 30
0.0
 11
179.9669001456527
 21
102.1222223291825
 31
0.0
 12
179.2545146756102
 22
99.98506591905377
 32
0.0
 13
179.9669001456527
 23
99.98506591905377
 33
0.0
  0
LINE
  5
A4B
330
2
100
AcDbEntity
  8
LOGO
 62
     5
100
AcDbLine
 10
179.9669001456527
 20
99.98506591905377
 30
0.0
 11
179.9669001456527
 21
102.1222223291825
 31
0.0
  0
SOLID
  5
A4C
330
2
100
AcDbEntity
  8
LOGO
 62
     5
100
AcDbTrace
 10
177.1173582654799
 20
99.98506591905377
 30
0.0
 11
177.8297437355237
 21
99.98506591905377
 31
0.0
 12
177.1173582654799
 22
103.5469932692689
 32
0.0
 13
177.8297437355237
 23
103.5469932692689
 33
0.0
  0
POLYLINE
  5
A4D
330
2
100
AcDbEntity
  8
LOGO
 62
     5
100
AcDb2dPolyline
 66
     1
 10
0.0
 20
0.0
 30
0.0
 40
0.7135271134246356
 41
0.7135271134246356
  0
VERTEX
  5
A4E
330
A4D
100
AcDbEntity
  8
LOGO
 62
     5
100
AcDbVertex
100
AcDb2dVertex
 10
179.6124198757038
 20
102.1222223291825
 30
0.0
 42
1.0
  0
VERTEX
  5
A4F
330
A4D
100
AcDbEntity
  8
LOGO
 62
     5
100
AcDbVertex
100
AcDb2dVertex
 10
177.4718385354299
 20
102.1222223291825
 30
0.0
 42
1.0
  0
SEQEND
  5
A50
330
A4D
100
AcDbEntity
  8
LOGO
 62
     5
  0
TEXT
  5
A54
330
2
100
AcDbEntity
  8
LOGO
 62
     7
100
AcDbText
 10
256.5372578332642
 20
106.9025671607781
 30
0.0
 40
6.370777798434249
  1
Order example:
 41
0.8
  7
CHINESET
100
AcDbText
  0
TEXT
  5
A55
330
2
100
AcDbEntity
  8
LOGO
 62
     7
100
AcDbText
 10
257.6802280544922
 20
115.8713032145988
 30
0.0
 40
9.55616669765137
  1
訂購代號:
  7
CHINESET
100
AcDbText
  0
LINE
  5
A56
330
2
100
AcDbEntity
  8
LOGO
 62
     1
100
AcDbLine
 10
221.9152442792371
 20
99.16603715867147
 30
0.0
 11
221.9152442792371
 21
127.8345372516256
 31
0.0
  0
LINE
  5
A57
330
2
100
AcDbEntity
  8
LOGO
 62
     1
100
AcDbLine
 10
253.7691332714083
 20
80.05370376336871
 30
0.0
 11
253.7691332714083
 21
127.8345372516256
 31
0.0
  0
TEXT
  5
A58
330
2
100
AcDbEntity
  8
LOGO
 62
     6
100
AcDbText
 10
229.0831571450397
 20
101.5550788330843
 30
0.0
 40
4.778083348825685
  1
m/m
  7
CHINESET
 72
     1
 11
237.5016849501135
 21
103.9441205074971
 31
0.0
100
AcDbText
 73
     2
  0
TEXT
  5
A59
330
2
100
AcDbEntity
  8
LOGO
 62
     6
100
AcDbText
 10
229.0831571450397
 20
120.6674122283871
 30
0.0
 40
4.778083348825685
  1
1 : 1
  7
CHINESET
 72
     1
 11
237.5016849501135
 21
123.0564539027999
 31
0.0
100
AcDbText
 73
     2
  0
CIRCLE
  5
A5A
330
2
100
AcDbEntity
  8
LOGO
  6
Continuous
 62
     6
100
AcDbCircle
 10
230.7624632328059
 20
113.5105075603967
 30
0.0
 40
1.625475254239022
  0
CIRCLE
  5
A5B
330
2
100
AcDbEntity
  8
LOGO
  6
Continuous
 62
     6
100
AcDbCircle
 10
230.7624632328059
 20
113.5105075603967
 30
0.0
 40
2.774267655732626
  0
LINE
  5
A5C
330
2
100
AcDbEntity
  8
LOGO
  6
Continuous
 62
     6
100
AcDbLine
 10
239.4991132436758
 20
115.1359828146358
 30
0.0
 11
248.1962830938358
 21
116.2847752161294
 31
0.0
  0
LINE
  5
A5D
330
2
100
AcDbEntity
  8
LOGO
  6
Continuous
 62
     6
100
AcDbLine
 10
239.4991132436758
 20
111.8850323061577
 30
0.0
 11
248.1962830938358
 21
110.7362399046641
 31
0.0
  0
LINE
  5
A5E
330
2
100
AcDbEntity
  8
LOGO
 62
     6
100
AcDbLine
 10
239.4991132436758
 20
111.8850323061577
 30
0.0
 11
239.4991132436758
 21
115.1359828146358
 31
0.0
  0
LINE
  5
A5F
330
2
100
AcDbEntity
  8
LOGO
 62
     6
100
AcDbLine
 10
248.1962830938358
 20
110.7362399046641
 30
0.0
 11
248.1962830938358
 21
116.2847752161294
 31
0.0
  0
LINE
  5
A60
330
2
100
AcDbEntity
  8
LOGO
 62
     6
100
AcDbLine
 10
345.7166133187293
 20
108.7222038563228
 30
0.0
 11
345.7166133187293
 21
101.5550788330843
 31
0.0
  0
TEXT
  5
A61
330
2
100
AcDbEntity
  8
LOGO
 62
     6
100
AcDbText
 10
339.2131109828276
 20
92.87677521789436
 30
0.0
 40
6.370777798434249
  1
型號
  7
CHINESET
 72
     4
 11
345.7166133187293
 21
95.98064825945435
 31
0.0
100
AcDbText
  0
LINE
  5
A62
330
2
100
AcDbEntity
  8
LOGO
 62
     6
100
AcDbLine
 10
361.6435578148149
 20
101.5550788330843
 30
0.0
 11
361.6435578148149
 21
84.03543988739015
 31
0.0
  0
LINE
  5
A63
330
2
100
AcDbEntity
  8
LOGO
 62
     6
100
AcDbLine
 10
329.7896688226438
 20
101.5550788330843
 30
0.0
 11
329.7896688226438
 21
84.03543988739004
 31
0.0
  0
TEXT
  5
A64
330
2
100
AcDbEntity
  8
LOGO
  6
Continuous
 62
     6
100
AcDbText
 10
338.132354034879
 20
86.02630794940091
 30
0.0
 40
3.981736124021405
  1
Model
  7
CHINESET
 72
     4
 11
345.7166133187293
 21
88.01717601141161
 31
0.0
100
AcDbText
  0
LINE
  5
A65
330
2
100
AcDbEntity
  8
LOGO
 62
     6
100
AcDbLine
 10
361.6435578148149
 20
84.03543988739015
 30
0.0
 11
329.7896688226438
 21
84.03543988739004
 31
0.0
  0
LINE
  5
A66
330
2
100
AcDbEntity
  8
LOGO
 62
     6
100
AcDbLine
 10
361.6435578148149
 20
101.5550788330843
 30
0.0
 11
329.7896688226438
 21
101.5550788330843
 31
0.0
  0
LINE
  5
A67
330
2
100
AcDbEntity
  8
LOGO
 62
     6
100
AcDbLine
 10
371.9436775239964
 20
123.0564539027999
 30
0.0
 11
319.4895491134622
 21
123.0564539027999
 31
0.0
  0
LINE
  5
A68
330
2
100
AcDbEntity
  8
LOGO
 62
     6
100
AcDbLine
 10
371.9436775239964
 20
108.7222038563228
 30
0.0
 11
319.4895491134622
 21
108.7222038563228
 31
0.0
  0
TEXT
  5
A69
330
2
100
AcDbEntity
  8
LOGO
  6
Continuous
 62
     7
100
AcDbText
 10
322.8058716644754
 20
111.9075927555399
 30
0.0
 40
7.963472248042811
  1
MSC600
  7
CHINESET
 72
     1
 11
345.3690430339301
 21
115.8893288795613
 31
0.0
100
AcDbText
 73
     2
  0
LINE
  5
A6A
330
2
100
AcDbEntity
  8
LOGO
 62
     6
100
AcDbLine
 10
319.4895491134622
 20
123.0564539027999
 30
0.0
 11
319.4895491134622
 21
108.7222038563228
 31
0.0
  0
LINE
  5
A6B
330
2
100
AcDbEntity
  8
LOGO
 62
     6
100
AcDbLine
 10
371.9436775239964
 20
123.0564539027999
 30
0.0
 11
371.9436775239964
 21
108.7222038563228
 31
0.0
  0
TEXT
  5
A6C
330
2
100
AcDbEntity
  8
LOGO
 62
     6
100
AcDbText
 10
386.1269900204455
 20
92.79525936023722
 30
0.0
 40
6.370777798434249
  1
配管口徑
 41
0.9
  7
CHINESET
 72
     4
 11
397.6541160994874
 21
95.98064825945435
 31
0.0
100
AcDbText
  0
LINE
  5
A6D
330
2
100
AcDbEntity
  8
LOGO
 62
     6
100
AcDbLine
 10
414.1053900698181
 20
101.5550788330843
 30
0.0
 11
381.2028421291568
 21
101.5550788330843
 31
0.0
  0
TEXT
  5
A6E
330
2
100
AcDbEntity
  8
LOGO
  6
Continuous
 62
     6
100
AcDbText
 10
386.732782730743
 20
86.02630794940081
 30
0.0
 40
3.981736124021405
  1
Bore size
 41
0.8
  7
CHINESET
 72
     4
 11
397.6541160994874
 21
88.01717601141151
 31
0.0
100
AcDbText
  0
LINE
  5
A6F
330
2
100
AcDbEntity
  8
LOGO
 62
     6
100
AcDbLine
 10
414.1053900698181
 20
84.03543988739015
 30
0.0
 11
381.2028421291568
 21
84.03543988739004
 31
0.0
  0
LINE
  5
A72
330
2
100
AcDbEntity
  8
LOGO
 62
     6
100
AcDbLine
 10
400.8395049987044
 20
108.7222038563229
 30
0.0
 11
400.8395049987044
 21
101.5550788330843
 31
0.0
  0
LINE
  5
A82
330
2
100
AcDbEntity
  8
LOGO
 62
     6
100
AcDbLine
 10
381.2028421291568
 20
101.5550788330843
 30
0.0
 11
381.2028421291568
 21
84.03543988739004
 31
0.0
  0
LINE
  5
A84
330
2
100
AcDbEntity
  8
LOGO
  6
Continuous
 62
     7
100
AcDbLine
 10
377.7333088772585
 20
115.8385547005499
 30
0.0
 11
384.0627906642396
 21
115.8385547005499
 31
0.0
  0
LINE
  5
A90
330
2
100
AcDbEntity
  8
LOGO
 62
     6
100
AcDbLine
 10
414.1053900698181
 20
123.0564539027999
 30
0.0
 11
387.5736199275907
 21
123.0564539027999
 31
0.0
  0
LINE
  5
A91
330
2
100
AcDbEntity
  8
LOGO
 62
     6
100
AcDbLine
 10
414.1053900698181
 20
108.7222038563227
 30
0.0
 11
387.5736199275907
 21
108.7222038563228
 31
0.0
  0
TEXT
  5
A92
330
2
100
AcDbEntity
  8
LOGO
  6
Continuous
 62
     7
100
AcDbText
 10
395.1361422223732
 20
111.8172864784467
 30
0.0
 40
7.963472248042811
  1
?A
  7
CHINESET
 72
     1
 11
401.5827626136459
 21
115.7990226024681
 31
0.0
100
AcDbText
 73
     2
  0
LINE
  5
A93
330
2
100
AcDbEntity
  8
LOGO
 62
     6
100
AcDbLine
 10
387.5736199275907
 20
123.0564539027999
 30
0.0
 11
387.5736199275907
 21
108.7222038563228
 31
0.0
  0
LINE
  5
A94
330
2
100
AcDbEntity
  8
LOGO
 62
     6
100
AcDbLine
 10
414.1053900698181
 20
123.0564539027999
 30
0.0
 11
414.1053900698181
 21
108.7222038563227
 31
0.0
  0
LINE
  5
A95
330
2
100
AcDbEntity
  8
LOGO
 62
     1
100
AcDbLine
 10
421.8570553520892
 20
80.05370376336871
 30
0.0
 11
421.8570553520892
 21
127.8345372516256
 31
0.0
  0
LINE
  5
A96
330
2
100
AcDbEntity
  8
LOGO
 62
     6
100
AcDbLine
 10
414.1053900698181
 20
101.5550788330843
 30
0.0
 11
414.1053900698181
 21
83.96937923167708
 31
0.0
  0
TEXT
  5
C33
330
2
100
AcDbEntity
  8
AM_5
100
AcDbText
 10
386.9827292452805
 20
182.4374988795464
 30
0.0
 40
3.0
  1
2-Rc1
100
AcDbText
  0
INSERT
  5
C34
330
2
100
AcDbEntity
  8
AM_5
100
AcDbBlockReference
  2
*S6
 10
0.0
 20
0.0
 30
0.0
  0
TEXT
  5
C35
330
2
100
AcDbEntity
  8
AM_5
100
AcDbText
 10
386.9827292452805
 20
187.1630625013738
 30
0.0
 40
3.0
  1
2-Rc3/4
100
AcDbText
  0
ENDSEC
  0
SECTION
  2
OBJECTS
  0
DICTIONARY
  5
8
330
0
100
AcDbDictionary
281
     1
  3
ACAD_COLOR
350
D3F
  3
ACAD_GROUP
350
21
  3
ACAD_LAYOUT
350
C
  3
ACAD_MATERIAL
350
D3E
  3
ACAD_MLINESTYLE
350
22
  3
ACAD_PLOTSETTINGS
350
23
  3
ACAD_PLOTSTYLENAME
350
7
  3
ACAD_TABLESTYLE
350
D40
  3
AcDbVariableDictionary
350
168
  3
AcmDictionary
350
18A
  3
AMG
350
170
  3
AMGSNAPSETTINGS
350
1BB
  3
MAPISURF_MODULE
350
DCE
  0
DICTIONARY
  5
3
330
2
100
AcDbDictionary
280
     1
281
     1
  3
ACAD_INDEX
360
2D2
  3
ACAD_LAYOUTSELFREF
360
D0E
  0
DICTIONARY
  5
CD9
330
D
100
AcDbDictionary
280
     1
281
     1
  3
ACAD_LAYOUTSELFREF
360
D13
  0
DICTIONARY
  5
785
330
778
100
AcDbDictionary
280
     1
281
     1
  3
ACAD_DIMASSOC
360
78F
  0
DICTIONARY
  5
7C6
330
7B9
100
AcDbDictionary
280
     1
281
     1
  3
ACAD_DIMASSOC
360
7D0
  0
DICTIONARY
  5
818
330
80B
100
AcDbDictionary
280
     1
281
     1
  3
ACAD_DIMASSOC
360
822
  0
DICTIONARY
  5
859
330
84C
100
AcDbDictionary
280
     1
281
     1
  3
ACAD_DIMASSOC
360
863
  0
DICTIONARY
  5
D3F
102
{ACAD_REACTORS
330
8
102
}
330
8
100
AcDbDictionary
281
     1
  0
DICTIONARY
  5
21
102
{ACAD_REACTORS
330
8
102
}
330
8
100
AcDbDictionary
281
     1
  0
DICTIONARY
  5
C
102
{ACAD_REACTORS
330
8
102
}
330
8
100
AcDbDictionary
281
     1
  3
Layout1
350
10
  3
Model
350
B
  0
DICTIONARY
  5
D3E
102
{ACAD_REACTORS
330
8
102
}
330
8
100
AcDbDictionary
281
     1
  0
DICTIONARY
  5
22
102
{ACAD_REACTORS
330
8
102
}
330
8
100
AcDbDictionary
281
     1
  3
Standard
350
24
  0
DICTIONARY
  5
23
102
{ACAD_REACTORS
330
8
102
}
330
8
100
AcDbDictionary
281
     1
  0
ACDBDICTIONARYWDFLT
  5
7
102
{ACAD_REACTORS
330
8
102
}
330
8
100
AcDbDictionary
281
     1
  3
Normal
350
6
100
AcDbDictionaryWithDefault
340
6
  0
DICTIONARY
  5
D40
102
{ACAD_REACTORS
330
8
102
}
330
8
100
AcDbDictionary
281
     1
  3
Standard
350
D41
  0
DICTIONARY
  5
168
102
{ACAD_REACTORS
330
8
102
}
330
8
100
AcDbDictionary
281
     1
  3
CTABLESTYLE
350
E29
  3
DIMASSOC
350
16A
  3
HIDETEXT
350
169
  3
INDEXCTL
350
1F1
  0
DICTIONARY
  5
18A
102
{ACAD_REACTORS
330
8
102
}
330
8
100
AcDbDictionary
281
     1
  3
AcmBOMDATA
350
E00
  3
AcmStdDictionary
350
190
  3
AMDTSECTSYM_ARROWCOLOR
350
E1B
  0
DICTIONARY
  5
170
102
{ACAD_REACTORS
330
8
102
}
330
8
100
AcDbDictionary
281
     1
  3
AcMgSettings
350
171
  3
AMGLAYCFG
350
E0E
  0
DICTIONARY
  5
1BB
102
{ACAD_REACTORS
330
8
102
}
330
8
100
AcDbDictionary
281
     1
  0
DICTIONARY
  5
2D2
102
{ACAD_REACTORS
330
3
102
}
330
3
100
AcDbDictionary
281
     1
  3
*A1
350
2D3
  0
XRECORD
  5
D0E
102
{ACAD_REACTORS
330
3
102
}
330
3
100
AcDbXrecord
280
     1
340
2
  0
XRECORD
  5
D13
102
{ACAD_REACTORS
330
CD9
102
}
330
CD9
100
AcDbXrecord
280
     1
340
D
  0
DIMASSOC
  5
78F
102
{ACAD_REACTORS
330
785
102
}
330
785
100
AcDbDimAssoc
330
778
 90
        3
 70
     0
 71
     0
  1
AcDbOsnapPointRef
 72
    13
331
62B
 73
     0
 91
        0
 40
0.0
 10
183.9973861300953
 20
190.2647216347128
 30
0.0
 75
     0
  1
AcDbOsnapPointRef
 72
     1
331
622
 73
     0
 91
        0
 40
0.0
 10
273.9886585976312
 20
190.2647216347128
 30
0.0
 75
     0
  0
DIMASSOC
  5
7D0
102
{ACAD_REACTORS
330
7C6
102
}
330
7C6
100
AcDbDimAssoc
330
7B9
 90
        3
 70
     0
 71
     0
  1
AcDbOsnapPointRef
 72
    13
331
613
 73
     0
 91
        0
 40
0.0
 10
322.1952500725101
 20
163.2647216347129
 30
0.0
 75
     0
  1
AcDbOsnapPointRef
 72
     1
331
613
 73
     0
 91
        0
 40
0.0
 10
382.1952500725101
 20
163.2647216347129
 30
0.0
 75
     0
  0
DIMASSOC
  5
822
102
{ACAD_REACTORS
330
818
102
}
330
818
100
AcDbDimAssoc
330
80B
 90
        3
 70
     0
 71
     0
  1
AcDbOsnapPointRef
 72
     1
331
63B
 73
     0
 91
        0
 40
0.0
 10
241.4886585976312
 20
155.7647216347129
 30
0.0
 75
     0
  1
AcDbOsnapPointRef
 72
    13
331
7FB
 73
     0
 91
        0
 40
0.0
 10
275.9149792349531
 20
211.7647216347129
 30
0.0
 75
     0
  0
DIMASSOC
  5
863
102
{ACAD_REACTORS
330
859
102
}
330
859
100
AcDbDimAssoc
330
84C
 90
        1
 70
     0
 71
     0
  1
AcDbOsnapPointRef
 72
     1
331
63B
 73
     0
 91
        0
 40
0.0
 10
241.4886585976312
 20
155.7647216347129
 30
0.0
 75
     0
  0
LAYOUT
  5
10
102
{ACAD_REACTORS
330
C
102
}
330
C
100
AcDbPlotSettings
  1

  2
自動 RD 上的 Epson Stylus Photo 750 單色
  4
A4
  6

 40
3.757083177566528
 41
14.7637300491333
 42
3.757080078125
 43
3.757080078125
 44
209.9733276367187
 45
296.9683227539062
 46
0.0
 47
41.65999999999999
 48
0.0
 49
0.0
140
0.0
141
0.0
142
1.0
143
0.8681786641820179
 70
   692
 72
     1
 73
     0
 74
     1
  7
單色出圖.ctb
 75
     0
147
1.151836645216548
 76
     0
 77
     2
 78
   300
148
-36.86482501760941
149
6.54834285593597
100
AcDbLayout
  1
Layout1
 70
     1
 71
     1
 10
33.60300556328897
 20
-55.53422143815931
 11
215.8973686647887
 21
202.2873403147015
 12
0.0
 22
0.0
 32
0.0
 14
36.86482501760941
 24
-6.54834285593597
 34
-0.0015258207003583
 15
212.6355519013372
 25
162.8571859591048
 35
0.0000000349246037
146
0.0
 13
0.0
 23
0.0
 33
0.0
 16
1.0
 26
0.0
 36
0.0
 17
0.0
 27
1.0
 37
0.0
 76
     0
330
D
  0
LAYOUT
  5
B
102
{ACAD_REACTORS
330
C
102
}
330
C
100
AcDbPlotSettings
  1

  2
自動 RD 上的 Epson Stylus Photo 750 單色
  4
A4
  6

 40
3.757083177566528
 41
14.7637300491333
 42
3.757080078125
 43
3.757080078125
 44
209.9733276367187
 45
296.9683227539062
 46
0.0
 47
0.0
 48
0.0
 49
0.0
140
0.0
141
0.0
142
1.0
143
1.0
 70
 11952
 72
     1
 73
     1
 74
     0
  7

 75
     0
147
1.0
 76
     0
 77
     2
 78
   300
148
156.3059917323161
149
162.8914056613569
100
AcDbLayout
  1
Model
 70
     1
 71
     0
 10
0.0
 20
0.0
 11
12.0
 21
9.0
 12
0.0
 22
0.0
 32
0.0
 14
0.0
 24
0.0
 34
0.0
 15
0.0
 25
0.0
 35
0.0
146
0.0
 13
0.0
 23
0.0
 33
0.0
 16
1.0
 26
0.0
 36
0.0
 17
0.0
 27
1.0
 37
0.0
 76
     0
330
2
  0
MLINESTYLE
  5
24
102
{ACAD_REACTORS
330
22
102
}
330
22
100
AcDbMlineStyle
  2
STANDARD
 70
     0
  3

 62
   256
 51
90.0
 52
90.0
 71
     2
 49
0.5
 62
   256
  6
BYLAYER
 49
-0.5
 62
   256
  6
BYLAYER
  0
ACDBPLACEHOLDER
  5
6
102
{ACAD_REACTORS
330
7
102
}
330
7
  0
TABLESTYLE
  5
D41
102
{ACAD_REACTORS
330
D40
102
}
330
D40
100
AcDbTableStyle
  3
Standard
 70
     0
 71
     8
 40
1.5
 41
1.5
280
     0
281
     0
  7
STANDARD
140
4.5
170
     2
 62
     0
 63
     7
283
     0
274
    -2
284
     1
 64
     0
275
    -2
285
     1
 65
     0
276
    -2
286
     1
 66
     0
277
    -2
287
     1
 67
     0
278
    -2
288
     1
 68
     0
279
    -2
289
     1
 69
     0
  7
STANDARD
140
6.0
170
     5
 62
     0
 63
     7
283
     0
274
    -2
284
     1
 64
     0
275
    -2
285
     1
 65
     0
276
    -2
286
     1
 66
     0
277
    -2
287
     1
 67
     0
278
    -2
288
     1
 68
     0
279
    -2
289
     1
 69
     0
  7
STANDARD
140
4.5
170
     5
 62
     0
 63
     7
283
     0
274
    -2
284
     1
 64
     0
275
    -2
285
     1
 65
     0
276
    -2
286
     1
 66
     0
277
    -2
287
     1
 67
     0
278
    -2
288
     1
 68
     0
279
    -2
289
     1
 69
     0
  0
DICTIONARYVAR
  5
E29
102
{ACAD_REACTORS
330
168
102
}
330
168
100
DictionaryVariables
280
     0
  1
STANDARD
  0
DICTIONARYVAR
  5
16A
102
{ACAD_REACTORS
330
168
102
}
330
168
100
DictionaryVariables
280
     0
  1
2
  0
DICTIONARYVAR
  5
169
102
{ACAD_REACTORS
330
168
102
}
330
168
100
DictionaryVariables
280
     0
  1
1
  0
DICTIONARYVAR
  5
1F1
102
{ACAD_REACTORS
330
168
102
}
330
168
100
DictionaryVariables
280
     0
  1
1
  0
ACMDATADICTIONARY
  5
E00
102
{ACAD_REACTORS
330
18A
102
}
330
18A
100
AcDbDictionary
281
     1
  3
*A1
350
E01
100
AcmDataDictionary
  0
DICTIONARY
  5
190
102
{ACAD_REACTORS
330
18A
102
}
330
18A
100
AcDbDictionary
281
     1
  3
ISO
350
E0D
  0
XRECORD
  5
E1B
102
{ACAD_REACTORS
330
18A
102
}
330
18A
100
AcDbXrecord
280
     1
 90
-1023410169
  0
DICTIONARY
  5
171
102
{ACAD_REACTORS
330
170
102
}
330
170
100
AcDbDictionary
281
     1
  3
DWGSETTINGS
350
D4A
  3
TRANSSETTINGS
350
D4E
  0
LAYER_INDEX
  5
2D3
102
{ACAD_REACTORS
330
2D2
102
}
330
2D2
100
AcDbIndex
 40
2456730.353312535
100
AcDbLayerIndex
  8
0
360
2D4
 90
       19
  8
Defpoints
360
2D5
 90
        0
  8
AM_7
360
2D6
 90
       12
  8
AM_VIS
360
2D7
 90
      333
  8
AM_5
360
2D9
 90
        7
  8
AM_0N
360
2DA
 90
        7
  8
AM_7N
360
2DB
 90
        0
  8
LOGO
360
A9A
 90
       86
  0
ACMDATAENTRYBLOCK
  5
E01
102
{ACAD_REACTORS
330
E00
102
}
330
E00
100
AcmDataEntry
100
AcmDataEntryBlock
  0
IDBUFFER
  5
2D4
330
0
100
AcDbIdBuffer
330
25
330
609
330
60A
330
60C
330
60D
330
654
330
658
330
65B
330
68E
330
695
330
698
330
6E9
330
6EA
330
735
330
737
330
745
330
747
330
74B
330
A10
  0
IDBUFFER
  5
2D5
330
0
100
AcDbIdBuffer
  0
IDBUFFER
  5
2D6
330
0
100
AcDbIdBuffer
330
2F
330
608
330
621
330
663
330
67A
330
6F4
330
6F9
330
70A
330
70B
330
725
330
736
330
7FB
  0
IDBUFFER
  5
2D7
330
0
100
AcDbIdBuffer
330
60B
330
60E
330
60F
330
610
330
611
330
612
330
613
330
614
330
615
330
616
330
617
330
618
330
619
330
61A
330
61B
330
61C
330
61D
330
61E
330
61F
330
620
330
622
330
623
330
624
330
625
330
626
330
627
330
628
330
629
330
62A
330
62B
330
62C
330
62D
330
62E
330
62F
330
630
330
631
330
632
330
633
330
634
330
635
330
636
330
637
330
638
330
639
330
63A
330
63B
330
63C
330
63D
330
63E
330
63F
330
640
330
641
330
642
330
643
330
644
330
645
330
646
330
647
330
648
330
649
330
64A
330
64B
330
64C
330
64D
330
64E
330
64F
330
650
330
651
330
652
330
653
330
655
330
656
330
657
330
659
330
65A
330
65D
330
65E
330
65F
330
660
330
661
330
662
330
664
330
665
330
666
330
667
330
668
330
669
330
66A
330
66B
330
66C
330
66D
330
66E
330
66F
330
670
330
671
330
672
330
673
330
674
330
675
330
676
330
677
330
678
330
679
330
67B
330
67C
330
67D
330
67E
330
67F
330
680
330
681
330
682
330
683
330
684
330
685
330
686
330
687
330
688
330
689
330
68A
330
68B
330
68C
330
68D
330
68F
330
690
330
691
330
692
330
693
330
694
330
696
330
697
330
699
330
69A
330
69B
330
69C
330
69D
330
69E
330
69F
330
6A0
330
6A1
330
6A2
330
6A3
330
6A4
330
6A5
330
6A6
330
6A7
330
6A8
330
6A9
330
6AA
330
6AB
330
6AC
330
6AD
330
6AE
330
6AF
330
6B0
330
6B1
330
6B2
330
6B3
330
6B4
330
6B5
330
6B6
330
6B7
330
6B8
330
6B9
330
6BA
330
6BB
330
6BC
330
6BD
330
6BE
330
6BF
330
6C0
330
6C1
330
6C2
330
6C3
330
6C4
330
6C5
330
6C6
330
6C7
330
6C8
330
6C9
330
6CA
330
6CB
330
6CC
330
6CD
330
6CE
330
6CF
330
6D0
330
6D1
330
6D2
330
6D3
330
6D4
330
6D5
330
6D6
330
6D7
330
6D8
330
6D9
330
6DA
330
6DB
330
6DC
330
6DD
330
6DE
330
6DF
330
6E0
330
6E1
330
6E2
330
6E3
330
6E4
330
6E5
330
6E6
330
6E7
330
6E8
330
6EB
330
6EC
330
6ED
330
6EE
330
6EF
330
6F0
330
6F1
330
6F2
330
6F3
330
6F5
330
6F6
330
6F7
330
6F8
330
6FA
330
6FB
330
6FC
330
6FD
330
6FE
330
6FF
330
700
330
701
330
702
330
703
330
704
330
705
330
706
330
707
330
708
330
709
330
70C
330
70D
330
70E
330
70F
330
710
330
711
330
712
330
713
330
714
330
715
330
716
330
717
330
718
330
719
330
71A
330
71B
330
71C
330
71D
330
71E
330
71F
330
720
330
721
330
722
330
723
330
724
330
726
330
727
330
728
330
729
330
72A
330
72B
330
72C
330
72D
330
72E
330
72F
330
730
330
731
330
732
330
733
330
734
330
738
330
739
330
73A
330
73B
330
73C
330
73D
330
73E
330
73F
330
740
330
741
330
742
330
743
330
744
330
746
330
748
330
749
330
74A
330
74C
330
74D
330
74E
330
74F
330
750
330
751
330
752
330
753
330
754
330
755
330
756
330
757
330
758
330
759
330
75A
330
75B
330
75C
330
75D
330
75E
330
75F
330
760
330
761
330
762
330
763
330
764
330
765
330
766
330
767
330
768
330
8BE
330
8BF
330
8C0
330
8C1
330
8C2
330
8C3
330
8C4
330
8C5
  0
IDBUFFER
  5
2D9
330
0
100
AcDbIdBuffer
330
778
330
7B9
330
80B
330
84C
330
C33
330
C34
330
C35
  0
IDBUFFER
  5
2DA
330
0
100
AcDbIdBuffer
330
8A0
330
8A2
330
8A3
330
8A5
330
8A6
330
8A7
330
8A8
  0
IDBUFFER
  5
2DB
330
0
100
AcDbIdBuffer
  0
IDBUFFER
  5
A9A
330
0
100
AcDbIdBuffer
330
A06
330
A07
330
A08
330
A09
330
A0A
330
A0B
330
A0C
330
A0D
330
A0E
330
A0F
330
A16
330
A17
330
A18
330
A19
330
A1A
330
A1B
330
A1C
330
A1D
330
A1E
330
A1F
330
A20
330
A21
330
A22
330
A23
330
A24
330
A25
330
A26
330
A27
330
A28
330
A29
330
A2D
330
A2E
330
A32
330
A33
330
A34
330
A35
330
A36
330
A37
330
A38
330
A3C
330
A3D
330
A41
330
A42
330
A46
330
A4A
330
A4B
330
A4C
330
A4D
330
A54
330
A55
330
A56
330
A57
330
A58
330
A59
330
A5A
330
A5B
330
A5C
330
A5D
330
A5E
330
A5F
330
A60
330
A61
330
A62
330
A63
330
A64
330
A65
330
A66
330
A67
330
A68
330
A69
330
A6A
330
A6B
330
A6C
330
A6D
330
A6E
330
A6F
330
A72
330
A82
330
A84
330
A90
330
A91
330
A92
330
A93
330
A94
330
A95
330
A96
  0
ENDSEC
  0
EOF
