  0
SECTION
  2
HEADER
  9
$ACADVER
  1
AC1009
  9
$INSBASE
 10
0.0
 20
0.0
 30
0.0
  9
$EXTMIN
 10
9.4443979056603666
 20
-53.995147132309107
 30
-0.0000000349181948
  9
$EXTMAX
 10
392.35638519511139
 20
209.54466303734179
 30
0.0000000814935746
  9
$LIMMIN
 10
0.0
 20
0.0
  9
$LIMMAX
 10
396.0
 20
273.0
  9
$ORTHOMODE
 70
     1
  9
$REGENMODE
 70
     1
  9
$FILLMODE
 70
     1
  9
$QTEXTMODE
 70
     0
  9
$MIRRTEXT
 70
     1
  9
$DRAGMODE
 70
     2
  9
$LTSCALE
 40
5.0
  9
$OSMODE
 70
    39
  9
$ATTMODE
 70
     1
  9
$TEXTSIZE
 40
4.0
  9
$TRACEWID
 40
0.05
  9
$TEXTSTYLE
  7
CHINESET
  9
$CLAYER
  8
0
  9
$CELTYPE
  6
BYLAYER
  9
$CECOLOR
 62
   256
  9
$DIMSCALE
 40
1.0
  9
$DIMASZ
 40
3.0
  9
$DIMEXO
 40
2.0
  9
$DIMDLI
 40
7.0
  9
$DIMRND
 40
0.0
  9
$DIMDLE
 40
0.0
  9
$DIMEXE
 40
2.0
  9
$DIMTP
 40
0.0
  9
$DIMTM
 40
0.0
  9
$DIMTXT
 40
3.0
  9
$DIMCEN
 40
0.09
  9
$DIMTSZ
 40
0.0
  9
$DIMTOL
 70
     0
  9
$DIMLIM
 70
     0
  9
$DIMTIH
 70
     0
  9
$DIMTOH
 70
     0
  9
$DIMSE1
 70
     0
  9
$DIMSE2
 70
     0
  9
$DIMTAD
 70
     1
  9
$DIMZIN
 70
     8
  9
$DIMBLK
  1

  9
$DIMASO
 70
     1
  9
$DIMSHO
 70
     0
  9
$DIMPOST
  1

  9
$DIMAPOST
  1

  9
$DIMALT
 70
     0
  9
$DIMALTD
 70
     2
  9
$DIMALTF
 40
25.399999999999999
  9
$DIMLFAC
 40
1.0
  9
$DIMTOFL
 70
     0
  9
$DIMTVP
 40
0.0
  9
$DIMTIX
 70
     0
  9
$DIMSOXD
 70
     0
  9
$DIMSAH
 70
     0
  9
$DIMBLK1
  1

  9
$DIMBLK2
  1

  9
$DIMSTYLE
  2
STANDARD
  9
$DIMCLRD
 70
   256
  9
$DIMCLRE
 70
   256
  9
$DIMCLRT
 70
   256
  9
$DIMTFAC
 40
1.0
  9
$DIMGAP
 40
1.0
  9
$LUNITS
 70
     2
  9
$LUPREC
 70
     4
  9
$SKETCHINC
 40
0.1
  9
$FILLETRAD
 40
0.0
  9
$AUNITS
 70
     0
  9
$AUPREC
 70
     4
  9
$MENU
  1
C:\CACAD\ACAD
  9
$ELEVATION
 40
0.0
  9
$PELEVATION
 40
0.0
  9
$THICKNESS
 40
0.0
  9
$LIMCHECK
 70
     0
  9
$BLIPMODE
 70
     0
  9
$CHAMFERA
 40
2.0
  9
$CHAMFERB
 40
2.0
  9
$SKPOLY
 70
     0
  9
$TDCREATE
 40
2451089.4108495479
  9
$TDUPDATE
 40
2451925.4685624759
  9
$TDINDWG
 40
0.0113112847
  9
$TDUSRTIMER
 40
0.0113112847
  9
$USRTIMER
 70
     1
  9
$ANGBASE
 50
0.0
  9
$ANGDIR
 70
     0
  9
$PDMODE
 70
    65
  9
$PDSIZE
 40
8.3000000000000007
  9
$PLINEWID
 40
0.0
  9
$COORDS
 70
     2
  9
$SPLFRAME
 70
     0
  9
$SPLINETYPE
 70
     6
  9
$SPLINESEGS
 70
     8
  9
$ATTDIA
 70
     0
  9
$ATTREQ
 70
     1
  9
$HANDLING
 70
 12289
  9
$HANDSEED
  5
585
  9
$SURFTAB1
 70
     6
  9
$SURFTAB2
 70
     6
  9
$SURFTYPE
 70
     6
  9
$SURFU
 70
     6
  9
$SURFV
 70
     6
  9
$UCSNAME
  2

  9
$UCSORG
 10
0.0
 20
0.0
 30
0.0
  9
$UCSXDIR
 10
1.0
 20
0.0
 30
0.0
  9
$UCSYDIR
 10
0.0
 20
1.0
 30
0.0
  9
$PUCSNAME
  2

  9
$PUCSORG
 10
0.0
 20
0.0
 30
0.0
  9
$PUCSXDIR
 10
1.0
 20
0.0
 30
0.0
  9
$PUCSYDIR
 10
0.0
 20
1.0
 30
0.0
  9
$USERI1
 70
     0
  9
$USERI2
 70
     0
  9
$USERI3
 70
     0
  9
$USERI4
 70
     0
  9
$USERI5
 70
     0
  9
$USERR1
 40
0.0
  9
$USERR2
 40
0.0
  9
$USERR3
 40
0.0
  9
$USERR4
 40
0.0
  9
$USERR5
 40
0.0
  9
$WORLDVIEW
 70
     1
  9
$SHADEDGE
 70
     3
  9
$SHADEDIF
 70
    70
  9
$TILEMODE
 70
     1
  9
$MAXACTVP
 70
    16
  9
$PLIMCHECK
 70
     0
  9
$PEXTMIN
 10
1.0000000000000000E+020
 20
1.0000000000000000E+020
 30
1.0000000000000000E+020
  9
$PEXTMAX
 10
-1.0000000000000000E+020
 20
-1.0000000000000000E+020
 30
-1.0000000000000000E+020
  9
$PLIMMIN
 10
0.0
 20
0.0
  9
$PLIMMAX
 10
12.0
 20
9.0
  9
$UNITMODE
 70
     0
  9
$VISRETAIN
 70
     0
  9
$PLINEGEN
 70
     0
  9
$PSLTSCALE
 70
     0
  0
ENDSEC
  0
SECTION
  2
TABLES
  0
TABLE
  2
VPORT
 70
     3
  0
VPORT
  2
*ACTIVE
 70
     0
 10
0.0
 20
0.0
 11
1.0
 21
1.0
 12
200.9003915503859
 22
77.774757952516353
 13
0.0
 23
0.0
 14
1.0
 24
1.0
 15
0.0
 25
0.0
 16
0.0
 26
0.0
 36
1.0
 17
0.0
 27
0.0
 37
0.0
 40
266.44649925240441
 41
1.7274401473296499
 42
50.0
 43
0.0
 44
0.0
 50
0.0
 51
0.0
 71
     0
 72
  2000
 73
     1
 74
     1
 75
     0
 76
     0
 77
     0
 78
     0
  0
ENDTAB
  0
TABLE
  2
LTYPE
 70
     4
  0
LTYPE
  2
CONTINUOUS
 70
     0
  3
Solid line
 72
    65
 73
     0
 40
0.0
  0
LTYPE
  2
PHANTOM
 70
     0
  3
______  __  __  ______  __  __  ______  __  __ 
 72
    65
 73
     6
 40
2.5
 49
1.25
 49
-0.25
 49
0.25
 49
-0.25
 49
0.25
 49
-0.25
  0
LTYPE
  2
CENTER
 70
     0
  3
____ _ ____ _ ____ _ ____ _ ____ _ ____ _ ____ 
 72
    65
 73
     4
 40
2.0
 49
1.25
 49
-0.25
 49
0.25
 49
-0.25
  0
LTYPE
  2
DASHED
 70
     0
  3
__ __ __ __ __ __ __ __ __ __ __ __ __ __ __ __
 72
    65
 73
     2
 40
0.75
 49
0.5
 49
-0.25
  0
ENDTAB
  0
TABLE
  2
LAYER
 70
     6
  0
LAYER
  2
0
 70
     0
 62
     7
  6
CONTINUOUS
  0
LAYER
  2
DEFPOINTS
 70
     0
 62
    -7
  6
CONTINUOUS
  0
LAYER
  2
CENTER
 70
     0
 62
     1
  6
CENTER
  0
LAYER
  2
HIDDEN
 70
     0
 62
     6
  6
DASHED
  0
LAYER
  2
DIM
 70
     0
 62
     5
  6
CONTINUOUS
  0
LAYER
  2
LOGO
 70
     0
 62
     7
  6
CONTINUOUS
  0
ENDTAB
  0
TABLE
  2
STYLE
 70
     3
  0
STYLE
  2
STANDARD
 70
     0
 40
0.0
 41
1.0
 50
0.0
 71
     0
 42
0.2
  3
txt
  4

  0
STYLE
  2
CHINESET
 70
     0
 40
0.0
 41
1.0
 50
0.0
 71
     0
 42
4.0
  3
simplex
  4
CHINESET.SHX
  0
STYLE
  2
LOGO
 70
     0
 40
0.0
 41
1.0
 50
0.0
 71
     0
 42
5.0
  3
txt
  4

  0
ENDTAB
  0
TABLE
  2
VIEW
 70
     0
  0
ENDTAB
  0
TABLE
  2
UCS
 70
     0
  0
ENDTAB
  0
TABLE
  2
APPID
 70
     1
  0
APPID
  2
ACAD
 70
     0
  0
ENDTAB
  0
TABLE
  2
DIMSTYLE
 70
     1
  0
DIMSTYLE
  2
STANDARD
 70
     0
  3

  4

  5

  6

  7

 40
1.0
 41
3.0
 42
2.0
 43
7.0
 44
2.0
 45
0.0
 46
0.0
 47
0.0
 48
0.0
140
3.0
141
0.09
142
0.0
143
25.399999999999999
144
1.0
145
0.0
146
1.0
147
1.0
 71
     0
 72
     0
 73
     0
 74
     0
 75
     0
 76
     0
 77
     1
 78
     8
170
     0
171
     2
172
     0
173
     0
174
     0
175
     0
176
   256
177
   256
178
   256
  0
ENDTAB
  0
ENDSEC
  0
SECTION
  2
BLOCKS
  0
BLOCK
  8
0
  2
$MODEL_SPACE
 70
     0
 10
0.0
 20
0.0
 30
0.0
  3
$MODEL_SPACE
  1

  0
ENDBLK
  5
3A7
  8
0
  0
BLOCK
 67
     1
  8
0
  2
$PAPER_SPACE
 70
     0
 10
0.0
 20
0.0
 30
0.0
  3
$PAPER_SPACE
  1

  0
ENDBLK
  5
3A5
 67
     1
  8
0
  0
BLOCK
  8
0
  2
*D9
 70
     1
 10
0.0
 20
0.0
 30
0.0
  3
*D9
  1

  0
LINE
  5
447
  8
DIM
 10
179.21823437020069
 20
170.98477584911069
 30
0.0
 11
179.21823437020069
 21
184.03565977614409
 31
0.0
  0
LINE
  5
448
  8
DIM
 10
185.04828799063679
 20
140.98475091861249
 30
0.0
 11
185.04828799063679
 21
184.03565977614409
 31
0.0
  0
LINE
  5
449
  8
DIM
 10
176.21823437020069
 20
182.03565977614409
 30
0.0
 11
173.21823437020069
 21
182.03565977614409
 31
0.0
  0
LINE
  5
44A
  8
DIM
 10
188.04828799063679
 20
182.03565977614409
 30
0.0
 11
191.04828799063679
 21
182.03565977614409
 31
0.0
  0
TEXT
  5
44B
  8
0
 10
177.06183260899019
 20
187.57137406185839
 30
0.0
 40
3.0
  1
(5.8)
  7
CHINESET
  0
SOLID
  5
44C
  8
DIM
 10
176.21823437020069
 20
182.53565977614409
 30
0.0
 11
176.21823437020069
 21
181.53565977614409
 31
0.0
 12
179.21823437020069
 22
182.03565977614409
 32
0.0
 13
179.21823437020069
 23
182.03565977614409
 33
0.0
  0
SOLID
  5
44D
  8
DIM
 10
188.04828799063679
 20
182.53565977614409
 30
0.0
 11
188.04828799063679
 21
181.53565977614409
 31
0.0
 12
185.04828799063679
 22
182.03565977614409
 32
0.0
 13
185.04828799063679
 23
182.03565977614409
 33
0.0
  0
POINT
  5
44E
  8
DEFPOINTS
 62
     0
 10
179.21823437020069
 20
168.98477584911069
 30
0.0
  0
POINT
  5
44F
  8
DEFPOINTS
 62
     0
 10
185.04828799063679
 20
138.98475091861249
 30
0.0
  0
POINT
  5
450
  8
DEFPOINTS
 62
     0
 10
185.04828799063679
 20
182.03565977614409
 30
0.0
  0
ENDBLK
  5
3BA
  8
0
  0
BLOCK
  8
0
  2
*D10
 70
     1
 10
0.0
 20
0.0
 30
0.0
  3
*D10
  1

  0
LINE
  5
451
  8
DIM
 10
213.2055408999025
 20
87.787075118384223
 30
0.0
 11
213.2055408999025
 21
195.91185382640489
 31
0.0
  0
LINE
  5
452
  8
DIM
 10
165.71823437020069
 20
157.4847758491106
 30
0.0
 11
165.71823437020069
 21
195.91185382640489
 31
0.0
  0
LINE
  5
453
  8
DIM
 10
210.2055408999025
 20
193.91185382640489
 30
0.0
 11
168.71823437020069
 21
193.91185382640489
 31
0.0
  0
SOLID
  5
454
  8
DIM
 10
210.2055408999025
 20
194.41185382640489
 30
0.0
 11
210.2055408999025
 21
193.41185382640489
 31
0.0
 12
213.2055408999025
 22
193.91185382640489
 32
0.0
 13
213.2055408999025
 23
193.91185382640489
 33
0.0
  0
SOLID
  5
455
  8
DIM
 10
168.71823437020069
 20
194.41185382640489
 30
0.0
 11
168.71823437020069
 21
193.41185382640489
 31
0.0
 12
165.71823437020069
 22
193.91185382640489
 32
0.0
 13
165.71823437020069
 23
193.91185382640489
 33
0.0
  0
TEXT
  5
456
  8
0
 10
182.9618876350516
 20
196.6975681121192
 30
0.0
 40
3.0
  1
(47.5)
  7
CHINESET
  0
POINT
  5
457
  8
DEFPOINTS
 62
     0
 10
213.2055408999025
 20
85.787075118384209
 30
0.0
  0
POINT
  5
458
  8
DEFPOINTS
 62
     0
 10
165.71823437020069
 20
155.4847758491106
 30
0.0
  0
POINT
  5
459
  8
DEFPOINTS
 62
     0
 10
165.71823437020069
 20
193.91185382640489
 30
0.0
  0
ENDBLK
  5
3C6
  8
0
  0
BLOCK
  8
0
  2
*D11
 70
     1
 10
0.0
 20
0.0
 30
0.0
  3
*D11
  1

  0
LINE
  5
45A
  8
DIM
 10
183.04828799063679
 20
138.98475091861249
 30
0.0
 11
155.1209926509712
 21
138.98475091861249
 31
0.0
  0
LINE
  5
45B
  8
DIM
 10
163.71823437020069
 20
155.4847758491106
 30
0.0
 11
155.1209926509712
 21
155.4847758491106
 31
0.0
  0
LINE
  5
45C
  8
DIM
 10
157.1209926509712
 20
141.98475091861249
 30
0.0
 11
157.1209926509712
 21
152.4847758491106
 31
0.0
  0
SOLID
  5
45D
  8
DIM
 10
156.6209926509712
 20
141.98475091861249
 30
0.0
 11
157.6209926509712
 21
141.98475091861249
 31
0.0
 12
157.1209926509712
 22
138.98475091861249
 32
0.0
 13
157.1209926509712
 23
138.98475091861249
 33
0.0
  0
SOLID
  5
45E
  8
DIM
 10
156.6209926509712
 20
152.4847758491106
 30
0.0
 11
157.6209926509712
 21
152.4847758491106
 31
0.0
 12
157.1209926509712
 22
155.4847758491106
 32
0.0
 13
157.1209926509712
 23
155.4847758491106
 33
0.0
  0
TEXT
  5
45F
  8
0
 10
155.6209926509712
 20
142.9490490981473
 30
0.0
 40
3.0
  1
16.5
 50
90.0
  7
CHINESET
  0
POINT
  5
460
  8
DEFPOINTS
 62
     0
 10
185.04828799063679
 20
138.98475091861249
 30
0.0
  0
POINT
  5
461
  8
DEFPOINTS
 62
     0
 10
165.71823437020069
 20
155.4847758491106
 30
0.0
  0
POINT
  5
462
  8
DEFPOINTS
 62
     0
 10
157.1209926509712
 20
155.4847758491106
 30
0.0
  0
ENDBLK
  5
3D2
  8
0
  0
BLOCK
  8
0
  2
*D12
 70
     1
 10
0.0
 20
0.0
 30
0.0
  3
*D12
  1

  0
LINE
  5
463
  8
DIM
 10
215.2182343702008
 20
54.984775849110719
 30
0.0
 11
243.64587927608551
 21
54.984775849110711
 31
0.0
  0
LINE
  5
464
  8
DIM
 10
181.21823437020069
 20
168.98477584911069
 30
0.0
 11
243.64587927608559
 21
168.9847758491106
 31
0.0
  0
LINE
  5
465
  8
DIM
 10
241.64587927608551
 20
57.984775849110719
 30
0.0
 11
241.64587927608559
 21
165.9847758491106
 31
0.0
  0
SOLID
  5
466
  8
DIM
 10
241.14587927608551
 20
57.984775849110719
 30
0.0
 11
242.14587927608551
 21
57.984775849110719
 31
0.0
 12
241.64587927608551
 22
54.984775849110711
 32
0.0
 13
241.64587927608551
 23
54.984775849110711
 33
0.0
  0
SOLID
  5
467
  8
DIM
 10
241.14587927608559
 20
165.9847758491106
 30
0.0
 11
242.14587927608551
 21
165.9847758491106
 31
0.0
 12
241.64587927608559
 22
168.9847758491106
 32
0.0
 13
241.64587927608559
 23
168.9847758491106
 33
0.0
  0
TEXT
  5
468
  8
0
 10
240.14587927608551
 20
108.6276329919678
 30
0.0
 40
3.0
  1
114
 50
90.0
  7
CHINESET
  0
POINT
  5
469
  8
DEFPOINTS
 62
     0
 10
213.21823437020069
 20
54.984775849110719
 30
0.0
  0
POINT
  5
46A
  8
DEFPOINTS
 62
     0
 10
179.21823437020069
 20
168.98477584911069
 30
0.0
  0
POINT
  5
46B
  8
DEFPOINTS
 62
     0
 10
241.64587927608559
 20
168.9847758491106
 30
0.0
  0
ENDBLK
  5
3DE
  8
0
  0
BLOCK
  8
0
  2
*D13
 70
     1
 10
0.0
 20
0.0
 30
0.0
  3
*D13
  1

  0
LINE
  5
46C
  8
DIM
 10
215.2182343702008
 20
54.984775849110719
 30
0.0
 11
232.1101083748157
 21
54.984775849110719
 31
0.0
  0
LINE
  5
46D
  8
DIM
 10
187.04828799063679
 20
138.98475091861249
 30
0.0
 11
232.1101083748157
 21
138.98475091861241
 31
0.0
  0
LINE
  5
46E
  8
DIM
 10
230.1101083748157
 20
57.984775849110719
 30
0.0
 11
230.1101083748157
 21
135.98475091861241
 31
0.0
  0
SOLID
  5
46F
  8
DIM
 10
229.6101083748157
 20
57.984775849110719
 30
0.0
 11
230.6101083748157
 21
57.984775849110719
 31
0.0
 12
230.1101083748157
 22
54.984775849110719
 32
0.0
 13
230.1101083748157
 23
54.984775849110719
 33
0.0
  0
SOLID
  5
470
  8
DIM
 10
229.6101083748157
 20
135.98475091861241
 30
0.0
 11
230.6101083748157
 21
135.98475091861241
 31
0.0
 12
230.1101083748157
 22
138.98475091861241
 32
0.0
 13
230.1101083748157
 23
138.98475091861241
 33
0.0
  0
TEXT
  5
471
  8
0
 10
228.6101083748157
 20
94.484763383861633
 30
0.0
 40
3.0
  1
84
 50
90.0
  7
CHINESET
  0
POINT
  5
472
  8
DEFPOINTS
 62
     0
 10
213.21823437020069
 20
54.984775849110719
 30
0.0
  0
POINT
  5
473
  8
DEFPOINTS
 62
     0
 10
185.04828799063679
 20
138.98475091861249
 30
0.0
  0
POINT
  5
474
  8
DEFPOINTS
 62
     0
 10
230.1101083748157
 20
138.98475091861241
 30
0.0
  0
ENDBLK
  5
3EA
  8
0
  0
BLOCK
  8
0
  2
*D14
 70
     1
 10
0.0
 20
0.0
 30
0.0
  3
*D14
  1

  0
LINE
  5
48A
  8
DIM
 10
306.79253825120571
 20
168.98477584911069
 30
0.0
 11
306.79253825120571
 21
183.2636862350279
 31
0.0
  0
LINE
  5
48B
  8
DIM
 10
330.7925382512052
 20
168.98477584911069
 30
0.0
 11
330.7925382512052
 21
183.2636862350279
 31
0.0
  0
LINE
  5
48C
  8
DIM
 10
309.79253825120571
 20
181.2636862350279
 30
0.0
 11
327.7925382512052
 21
181.2636862350279
 31
0.0
  0
SOLID
  5
48D
  8
DIM
 10
309.79253825120571
 20
181.76368623502779
 30
0.0
 11
309.79253825120571
 21
180.76368623502779
 31
0.0
 12
306.79253825120571
 22
181.2636862350279
 32
0.0
 13
306.79253825120571
 23
181.2636862350279
 33
0.0
  0
SOLID
  5
48E
  8
DIM
 10
327.7925382512052
 20
181.76368623502779
 30
0.0
 11
327.7925382512052
 21
180.76368623502779
 31
0.0
 12
330.7925382512052
 22
181.2636862350279
 32
0.0
 13
330.7925382512052
 23
181.2636862350279
 33
0.0
  0
TEXT
  5
48F
  8
0
 10
316.29253825120537
 20
182.2636862350279
 30
0.0
 40
3.0
  1
24
  7
CHINESET
  0
POINT
  5
490
  8
DEFPOINTS
 62
     0
 10
306.79253825120571
 20
166.98477584911069
 30
0.0
  0
POINT
  5
491
  8
DEFPOINTS
 62
     0
 10
330.7925382512052
 20
166.98477584911069
 30
0.0
  0
POINT
  5
492
  8
DEFPOINTS
 62
     0
 10
330.7925382512052
 20
181.2636862350279
 30
0.0
  0
ENDBLK
  5
480
  8
0
  0
BLOCK
  8
0
  2
*D15
 70
     1
 10
0.0
 20
0.0
 30
0.0
  3
*D15
  1

  0
LINE
  5
4D4
  8
DIM
 10
262.7925382512056
 20
54.984775849110719
 30
0.0
 11
250.37231506418181
 21
54.984775849110719
 31
0.0
  0
LINE
  5
4D5
  8
DIM
 10
262.7925382512056
 20
58.984775849110733
 30
0.0
 11
250.37231506418181
 21
58.984775849110733
 31
0.0
  0
LINE
  5
4D6
  8
DIM
 10
252.37231506418181
 20
51.984775849110719
 30
0.0
 11
252.37231506418181
 21
48.984775849110733
 31
0.0
  0
LINE
  5
4D7
  8
DIM
 10
252.37231506418181
 20
61.984775849110719
 30
0.0
 11
252.37231506418181
 21
64.984775849110704
 31
0.0
  0
TEXT
  5
4D8
  8
0
 10
248.87231506418181
 20
50.984775849110761
 30
0.0
 40
3.0
  1
t=4.0
 50
90.0
  7
CHINESET
  0
SOLID
  5
4D9
  8
DIM
 10
251.87231506418181
 20
51.984775849110719
 30
0.0
 11
252.87231506418181
 21
51.984775849110719
 31
0.0
 12
252.37231506418181
 22
54.984775849110719
 32
0.0
 13
252.37231506418181
 23
54.984775849110719
 33
0.0
  0
SOLID
  5
4DA
  8
DIM
 10
251.87231506418181
 20
61.984775849110719
 30
0.0
 11
252.87231506418181
 21
61.984775849110719
 31
0.0
 12
252.37231506418181
 22
58.984775849110733
 32
0.0
 13
252.37231506418181
 23
58.984775849110733
 33
0.0
  0
POINT
  5
4DB
  8
DEFPOINTS
 62
     0
 10
264.7925382512056
 20
54.984775849110719
 30
0.0
  0
POINT
  5
4DC
  8
DEFPOINTS
 62
     0
 10
264.7925382512056
 20
58.984775849110733
 30
0.0
  0
POINT
  5
4DD
  8
DEFPOINTS
 62
     0
 10
252.37231506418181
 20
58.984775849110733
 30
0.0
  0
ENDBLK
  5
49F
  8
0
  0
BLOCK
  8
0
  2
*D16
 70
     1
 10
0.0
 20
0.0
 30
0.0
  3
*D16
  1

  0
LINE
  5
4DE
  8
DIM
 10
213.21823437020069
 20
52.984775849110719
 30
0.0
 11
213.21823437020069
 21
25.659278133737288
 31
0.0
  0
LINE
  5
4DF
  8
DIM
 10
33.218234370200769
 20
52.984775849110719
 30
0.0
 11
33.218234370200769
 21
25.659278133737288
 31
0.0
  0
LINE
  5
4E0
  8
DIM
 10
210.21823437020069
 20
27.659278133737288
 30
0.0
 11
36.218234370200769
 21
27.659278133737288
 31
0.0
  0
SOLID
  5
4E1
  8
DIM
 10
210.21823437020069
 20
28.159278133737288
 30
0.0
 11
210.21823437020069
 21
27.159278133737288
 31
0.0
 12
213.21823437020069
 22
27.659278133737288
 32
0.0
 13
213.21823437020069
 23
27.659278133737288
 33
0.0
  0
SOLID
  5
4E2
  8
DIM
 10
36.218234370200769
 20
28.159278133737288
 30
0.0
 11
36.218234370200769
 21
27.159278133737288
 31
0.0
 12
33.218234370200769
 22
27.659278133737288
 32
0.0
 13
33.218234370200769
 23
27.659278133737288
 33
0.0
  0
TEXT
  5
4E3
  8
0
 10
119.64680579877221
 20
28.659278133737288
 30
0.0
 40
3.0
  1
180
  7
CHINESET
  0
POINT
  5
4E4
  8
DEFPOINTS
 62
     0
 10
213.21823437020069
 20
54.984775849110719
 30
0.0
  0
POINT
  5
4E5
  8
DEFPOINTS
 62
     0
 10
33.218234370200769
 20
54.984775849110719
 30
0.0
  0
POINT
  5
4E6
  8
DEFPOINTS
 62
     0
 10
33.218234370200769
 20
27.659278133737288
 30
0.0
  0
ENDBLK
  5
4AB
  8
0
  0
BLOCK
  8
0
  2
*D17
 70
     1
 10
0.0
 20
0.0
 30
0.0
  3
*D17
  1

  0
LINE
  5
4E7
  8
DIM
 10
31.218234370200769
 20
54.984775849110719
 30
0.0
 11
21.339724818338631
 21
54.984775849110719
 31
0.0
  0
LINE
  5
4E8
  8
DIM
 10
71.767095513433048
 20
132.98477584911069
 30
0.0
 11
21.339724818338649
 21
132.98477584911069
 31
0.0
  0
LINE
  5
4E9
  8
DIM
 10
23.339724818338642
 20
57.984775849110719
 30
0.0
 11
23.339724818338649
 21
129.98477584911069
 31
0.0
  0
SOLID
  5
4EA
  8
DIM
 10
22.839724818338631
 20
57.984775849110719
 30
0.0
 11
23.839724818338631
 21
57.984775849110719
 31
0.0
 12
23.339724818338631
 22
54.984775849110719
 32
0.0
 13
23.339724818338631
 23
54.984775849110719
 33
0.0
  0
SOLID
  5
4EB
  8
DIM
 10
22.839724818338649
 20
129.98477584911069
 30
0.0
 11
23.839724818338649
 21
129.98477584911069
 31
0.0
 12
23.339724818338649
 22
132.98477584911069
 32
0.0
 13
23.339724818338649
 23
132.98477584911069
 33
0.0
  0
TEXT
  5
4EC
  8
0
 10
22.339724818338631
 20
91.556204420539316
 30
0.0
 40
3.0
  1
78
 50
90.0
  7
CHINESET
  0
POINT
  5
4ED
  8
DEFPOINTS
 62
     0
 10
33.218234370200769
 20
54.984775849110719
 30
0.0
  0
POINT
  5
4EE
  8
DEFPOINTS
 62
     0
 10
73.767095513433048
 20
132.98477584911069
 30
0.0
  0
POINT
  5
4EF
  8
DEFPOINTS
 62
     0
 10
23.339724818338649
 20
132.98477584911069
 30
0.0
  0
ENDBLK
  5
4B7
  8
0
  0
ENDSEC
  0
SECTION
  2
ENTITIES
  0
LINE
  5
C0
  8
0
 62
     4
 10
392.3465185689725
 20
209.54278747412809
 30
0.0
 11
392.34651856897261
 21
9.1232876712328732
 31
0.0
  0
LINE
  5
C1
  8
0
 62
     4
 10
392.34651856897261
 20
9.1232876712328732
 30
0.0
 11
9.4543428719093754
 21
9.1232876712328732
 31
0.0
  0
LINE
  5
C2
  8
0
 62
     7
 10
33.218234370200769
 20
54.984775849110719
 30
0.0
 11
213.21823437020069
 21
54.984775849110719
 31
0.0
  0
ARC
  5
C3
  8
HIDDEN
  6
PHANTOM
 10
185.04828799063671
 20
125.48475091861251
 30
0.0
 40
13.5
 50
329.61269727173999
 51
177.89804790222459
  0
LINE
  5
C4
  8
0
 62
     7
 10
167.4020760703863
 20
129.4703488209548
 30
0.0
 11
207.86611566654989
 21
95.480555560177407
 31
0.0
  0
LINE
  5
C5
  8
0
 62
     7
 10
33.218234370200769
 20
58.984775849110711
 30
0.0
 11
213.21823437020069
 21
58.984775849110733
 31
0.0
  0
LINE
  5
C6
  8
HIDDEN
  6
PHANTOM
 10
194.76796351439191
 20
123.13360062292411
 30
0.0
 11
205.9792968317652
 21
97.065483381396575
 31
0.0
  0
LINE
  5
C7
  8
CENTER
 10
187.04828799063679
 20
125.48475091861241
 30
0.0
 11
201.38973195967731
 21
125.48475091861241
 31
0.0
  0
DIMENSION
  5
C8
  8
DIM
  2
*D13
 10
230.1101083748157
 20
138.98475091861241
 30
0.0
 11
227.1101083748157
 21
96.984763383861633
 31
0.0
 70
     0
  1
84
 13
213.21823437020069
 23
54.984775849110719
 33
0.0
 14
185.04828799063679
 24
138.98475091861249
 34
0.0
 50
90.0
1001
ACAD
1000
DSTYLE
1002
{
1070
    41
1040
3.0
1070
    42
1040
2.0
1070
    43
1040
8.0
1070
    44
1040
2.0
1070
    73
1070
     0
1070
    74
1070
     0
1070
    77
1070
     1
1070
   140
1040
3.0
1070
   141
1040
-1.0
1070
   147
1040
1.5
1002
}
  0
DIMENSION
  5
C9
  8
DIM
  2
*D12
 10
241.64587927608559
 20
168.9847758491106
 30
0.0
 11
238.64587927608551
 21
111.9847758491107
 31
0.0
 70
     0
  1
114
 13
213.21823437020069
 23
54.984775849110719
 33
0.0
 14
179.21823437020069
 24
168.98477584911069
 34
0.0
 50
90.0
1001
ACAD
1000
DSTYLE
1002
{
1070
    41
1040
3.0
1070
    42
1040
2.0
1070
    43
1040
8.0
1070
    44
1040
2.0
1070
    73
1070
     0
1070
    74
1070
     0
1070
    77
1070
     1
1070
   140
1040
3.0
1070
   141
1040
-1.0
1070
   147
1040
1.5
1002
}
  0
LINE
  5
CA
  8
DIM
 10
194.21823437020069
 20
36.288898436971607
 30
0.0
 11
198.593948655915
 21
36.288898436971607
 31
0.0
  0
LINE
  5
CB
  8
DIM
 10
178.21823437020069
 20
36.288898436971607
 30
0.0
 11
210.21823437020069
 21
36.288898436971607
 31
0.0
  0
DIMENSION
  5
CC
  8
DIM
  2
*D16
 10
33.218234370200769
 20
27.659278133737288
 30
0.0
 11
123.2182343702007
 21
30.159278133737288
 31
0.0
 70
     0
  1
180
 13
213.21823437020069
 23
54.984775849110719
 33
0.0
 14
33.218234370200769
 24
54.984775849110719
 34
0.0
  0
DIMENSION
  5
CD
  8
DIM
  2
*D10
 10
165.71823437020069
 20
193.91185382640489
 30
0.0
 11
189.4618876350516
 21
197.6975681121192
 31
0.0
 70
     0
  1
(47.5)
 13
213.2055408999025
 23
85.787075118384209
 33
0.0
 14
165.71823437020069
 24
155.4847758491106
 34
0.0
1001
ACAD
1000
DSTYLE
1002
{
1070
    41
1040
3.0
1070
    42
1040
2.0
1070
    43
1040
8.0
1070
    44
1040
2.0
1070
    73
1070
     0
1070
    74
1070
     0
1070
    77
1070
     1
1070
   140
1040
3.0
1070
   141
1040
-1.0
1070
   147
1040
1.5
1002
}
  0
DIMENSION
  5
CE
  8
DIM
  2
*D9
 10
185.04828799063679
 20
182.03565977614409
 30
0.0
 11
182.13326118041871
 21
188.57137406185839
 31
0.0
 70
     0
  1
(5.8)
 13
179.21823437020069
 23
168.98477584911069
 33
0.0
 14
185.04828799063679
 24
138.98475091861249
 34
0.0
1001
ACAD
1000
DSTYLE
1002
{
1070
    41
1040
3.0
1070
    42
1040
2.0
1070
    43
1040
8.0
1070
    44
1040
2.0
1070
    73
1070
     0
1070
    74
1070
     0
1070
    77
1070
     1
1070
   140
1040
3.0
1070
   141
1040
-1.0
1070
   147
1040
1.5
1002
}
  0
ARC
  5
CF
  8
HIDDEN
  6
PHANTOM
 10
185.04828799063671
 20
125.48475091861251
 30
0.0
 40
10.0
 50
343.41489999999999
 51
163.4148999999999
  0
LINE
  5
D0
  8
0
 62
     7
 10
169.2182343702008
 20
155.48477584911069
 30
0.0
 11
169.21823437020069
 21
135.9847758491106
 31
0.0
  0
LINE
  5
D1
  8
0
 62
     7
 10
189.2182343702008
 20
155.48477584911069
 30
0.0
 11
189.21823437020049
 21
118.2532029760653
 31
0.0
  0
LINE
  5
D2
  8
CENTER
 10
185.04828799063679
 20
127.48475091861241
 30
0.0
 11
185.04828799063679
 21
141.82619488765289
 31
0.0
  0
LINE
  5
D3
  8
0
 62
     7
 10
73.767095513433048
 20
132.98477584911069
 30
0.0
 11
166.21823437020069
 21
132.9847758491106
 31
0.0
  0
LINE
  5
D4
  8
CENTER
  6
CENTER
 10
77.218234370200776
 20
120.4847758491107
 30
0.0
 11
69.439395328815394
 21
120.4847758491107
 31
0.0
  0
POLYLINE
  5
D5
  8
0
 66
     1
 10
0.0
 20
0.0
 30
0.0
 70
     1
  0
VERTEX
  5
557
  8
0
 10
79.218234370200776
 20
113.4847758491106
 30
0.0
  0
VERTEX
  5
558
  8
0
 10
85.280412196691884
 20
116.9847758491106
 30
0.0
  0
VERTEX
  5
559
  8
0
 10
85.280412196691884
 20
123.9847758491107
 30
0.0
  0
VERTEX
  5
55A
  8
0
 10
79.218234370200776
 20
127.4847758491107
 30
0.0
  0
VERTEX
  5
55B
  8
0
 10
73.156056543709639
 20
123.9847758491107
 30
0.0
  0
VERTEX
  5
55C
  8
0
 10
73.156056543709639
 20
116.9847758491106
 30
0.0
  0
SEQEND
  5
55D
  8
0
  0
CIRCLE
  5
DD
  8
0
 10
79.218234370200776
 20
120.4847758491107
 30
0.0
 40
6.0621778264911219
  0
LINE
  5
DE
  8
DIM
 10
93.218234370200776
 20
36.288898436971607
 30
0.0
 11
36.218234370200769
 21
36.288898436971607
 31
0.0
  0
LINE
  5
DF
  8
DIM
 10
33.218234370200769
 20
52.984775849110719
 30
0.0
 11
33.218234370200769
 21
34.288898436971607
 31
0.0
  0
SOLID
  5
E0
  8
DIM
 10
36.218234370200769
 20
36.788898436971607
 30
0.0
 11
36.218234370200769
 21
35.788898436971607
 31
0.0
 12
33.218234370200769
 22
36.288898436971607
 32
0.0
 13
33.218234370200769
 23
36.288898436971607
 33
0.0
  0
TEXT
  5
E2
  8
DIM
 10
55.789662941629352
 20
37.788898436971607
 30
0.0
 40
3.0
  1
50
  7
CHINESET
 72
     1
 11
58.218234370200783
 21
39.288898436971607
 31
0.0
 73
     2
  0
LINE
  5
E3
  8
CENTER
  6
CENTER
 10
46.057886108355262
 20
93.032057676801386
 30
0.0
 11
46.057886108355262
 21
96.032057676801372
 31
0.0
  0
ARC
  5
E4
  8
0
 10
46.057886108355262
 20
91.032057676801372
 30
0.0
 40
4.6901632079298841
 50
322.21898690389128
 51
68.97729110795747
  0
LINE
  5
E5
  8
0
 62
     7
 10
33.218234370200769
 20
96.085752012054513
 30
0.0
 11
33.218234370200769
 21
54.984775849110719
 31
0.0
  0
CIRCLE
  5
E6
  8
0
 62
     7
 10
46.057886108355262
 20
91.032057676801372
 30
0.0
 40
4.0
  0
CIRCLE
  5
E7
  8
0
 62
     7
 10
46.057886108355262
 20
91.032057676801372
 30
0.0
 40
4.0
  0
ARC
  5
E8
  8
0
 10
46.057886108355262
 20
91.032057676801372
 30
0.0
 40
5.6697893782236974
 50
300.8540349403919
 51
239.14596505960799
  0
ARC
  5
E9
  8
0
 10
46.057886108355262
 20
91.032057676801372
 30
0.0
 40
4.6901632079298841
 50
111.0227088920421
 51
217.78101309610889
  0
CIRCLE
  5
EA
  8
0
 62
     7
 10
46.057886108355262
 20
91.032057676801372
 30
0.0
 40
3.5
  0
DIMENSION
  5
EB
  8
DIM
  2
*D17
 10
23.339724818338649
 20
132.98477584911069
 30
0.0
 11
20.839724818338631
 21
93.984775849110747
 31
0.0
 70
     0
  1
78
 13
33.218234370200769
 23
54.984775849110719
 33
0.0
 14
73.767095513433048
 24
132.98477584911069
 34
0.0
 50
90.0
  0
CIRCLE
  5
EC
  8
0
 62
     7
 10
46.057886108355262
 20
71.944936638175761
 30
0.0
 40
4.0
  0
LINE
  5
ED
  8
CENTER
  6
CENTER
 10
44.057886108355262
 20
91.032057676801372
 30
0.0
 11
41.057886108355262
 21
91.032057676801372
 31
0.0
  0
LINE
  5
EE
  8
0
 10
44.006475262406923
 20
87.598151221883654
 30
0.0
 11
43.150119252172509
 21
86.164676090824756
 31
0.0
  0
CIRCLE
  5
EF
  8
0
 10
46.057886108355262
 20
71.944936638175761
 30
0.0
 40
6.0621778264911219
  0
POLYLINE
  5
F0
  8
0
 66
     1
 10
0.0
 20
0.0
 30
0.0
 70
     1
  0
VERTEX
  5
55E
  8
0
 10
46.057886108355262
 20
64.944936638175705
 30
0.0
  0
VERTEX
  5
55F
  8
0
 10
52.120063934846371
 20
68.444936638175733
 30
0.0
  0
VERTEX
  5
560
  8
0
 10
52.120063934846371
 20
75.44493663817579
 30
0.0
  0
VERTEX
  5
561
  8
0
 10
46.057886108355262
 20
78.944936638175804
 30
0.0
  0
VERTEX
  5
562
  8
0
 10
39.995708281864118
 20
75.44493663817579
 30
0.0
  0
VERTEX
  5
563
  8
0
 10
39.995708281864118
 20
68.444936638175733
 30
0.0
  0
SEQEND
  5
564
  8
0
  0
CIRCLE
  5
F8
  8
0
 10
46.057886108355262
 20
71.944936638175761
 30
0.0
 40
3.2000000000000002
  0
LINE
  5
F9
  8
CENTER
  6
CENTER
 10
44.057886108355262
 20
71.944936638175761
 30
0.0
 11
36.279047066969888
 21
71.944936638175761
 31
0.0
  0
LINE
  5
FB
  8
0
 10
43.177054473980178
 20
88.257024506840395
 30
0.0
 11
42.350977736536862
 21
88.158651816161097
 31
0.0
  0
LINE
  5
FC
  8
CENTER
  6
CENTER
 10
46.057886108355262
 20
70.944936638175761
 30
0.0
 11
46.057886108355262
 21
72.944936638175761
 31
0.0
  0
LINE
  5
FD
  8
CENTER
  6
CENTER
 10
48.057886108355262
 20
71.944936638175761
 30
0.0
 11
55.83672514974063
 21
71.944936638175761
 31
0.0
  0
LINE
  5
FE
  8
CENTER
  6
CENTER
 10
46.057886108355262
 20
69.944936638175761
 30
0.0
 11
46.057886108355262
 21
62.166097596790379
 31
0.0
  0
LINE
  5
FF
  8
CENTER
  6
CENTER
 10
45.057886108355262
 20
71.944936638175761
 30
0.0
 11
47.057886108355262
 21
71.944936638175761
 31
0.0
  0
LINE
  5
100
  8
CENTER
  6
CENTER
 10
46.057886108355262
 20
73.944936638175761
 30
0.0
 11
46.057886108355262
 21
81.723775679561129
 31
0.0
  0
LINE
  5
101
  8
CENTER
  6
CENTER
 10
48.057886108355262
 20
91.032057676801372
 30
0.0
 11
51.057886108355262
 21
91.032057676801372
 31
0.0
  0
LINE
  5
102
  8
CENTER
  6
CENTER
 10
46.057886108355262
 20
89.032057676801372
 30
0.0
 11
46.057886108355262
 21
86.032057676801372
 31
0.0
  0
LINE
  5
103
  8
0
 10
48.938717742730368
 20
88.257024506840395
 30
0.0
 11
49.764794480173691
 21
88.158651816161097
 31
0.0
  0
LINE
  5
104
  8
0
 10
48.10929695430363
 20
87.598151221883697
 30
0.0
 11
48.965652964538002
 21
86.164676090824756
 31
0.0
  0
LINE
  5
105
  8
CENTER
  6
CENTER
 10
45.057886108355262
 20
91.032057676801372
 30
0.0
 11
47.057886108355262
 21
91.032057676801372
 31
0.0
  0
LINE
  5
106
  8
CENTER
  6
CENTER
 10
46.057886108355262
 20
90.032057676801372
 30
0.0
 11
46.057886108355262
 21
92.032057676801358
 31
0.0
  0
LINE
  5
107
  8
0
 62
     7
 10
64.00522491159353
 20
129.3736248845901
 30
0.0
 11
38.45636376836125
 21
107.47460104753389
 31
0.0
  0
ARC
  5
108
  8
0
 62
     7
 10
48.218234370200783
 20
96.085752012054513
 30
0.0
 40
15.0
 50
130.6012946450044
 51
180.0
  0
LINE
  5
109
  8
0
 10
47.740425601749699
 20
95.410035722679083
 30
0.0
 11
47.122962139172152
 21
94.887652708515574
 31
0.0
  0
LINE
  5
10A
  8
0
 10
44.37534661496084
 20
95.410035722679083
 30
0.0
 11
44.992810077538387
 21
94.887652708515574
 31
0.0
  0
ARC
  5
10B
  8
0
 62
     7
 10
73.767095513433048
 20
117.9847758491107
 30
0.0
 40
15.0
 50
89.999999999999986
 51
130.6012946450044
  0
LINE
  5
10C
  8
CENTER
  6
CENTER
 10
188.21823437020069
 20
62.725881123946813
 30
0.0
 11
188.21823437020069
 21
50.972818213694943
 31
0.0
  0
LINE
  5
10D
  8
CENTER
  6
CENTER
 10
178.21823437020069
 20
62.725881123946813
 30
0.0
 11
178.21823437020069
 21
50.972818213694943
 31
0.0
  0
LINE
  5
10E
  8
CENTER
  6
CENTER
 10
83.218234370200733
 20
62.725881123946799
 30
0.0
 11
83.218234370200776
 21
50.972818213694929
 31
0.0
  0
LINE
  5
10F
  8
CENTER
  6
CENTER
 10
93.218234370200733
 20
62.72588112394682
 30
0.0
 11
93.218234370200776
 21
50.97281821369495
 31
0.0
  0
LINE
  5
110
  8
DIM
 10
96.218234370200761
 20
36.288898436971607
 30
0.0
 11
175.21823437020069
 21
36.288898436971607
 31
0.0
  0
TEXT
  5
111
  8
DIM
 10
133.2896629416293
 20
37.788898436971607
 30
0.0
 40
3.0
  1
85
  7
CHINESET
 72
     1
 11
135.71823437020069
 21
39.288898436971607
 31
0.0
 73
     2
  0
TEXT
  5
112
  8
DIM
 10
86.033591266982555
 20
37.788898436971607
 30
0.0
 40
3.0
  1
10
  7
CHINESET
 72
     1
 11
88.176448409839693
 21
39.288898436971607
 31
0.0
 73
     2
  0
LINE
  5
113
  8
DIM
 10
83.218234370200776
 20
48.972818213694921
 30
0.0
 11
83.218234370200776
 21
34.288898436971607
 31
0.0
  0
SOLID
  5
114
  8
DIM
 10
80.218234370200776
 20
36.788898436971607
 30
0.0
 11
80.218234370200776
 21
35.788898436971607
 31
0.0
 12
83.218234370200776
 22
36.288898436971607
 32
0.0
 13
83.218234370200776
 23
36.288898436971607
 33
0.0
  0
SOLID
  5
115
  8
DIM
 10
86.218234370200733
 20
36.788898436971607
 30
0.0
 11
86.218234370200733
 21
35.788898436971607
 31
0.0
 12
83.218234370200747
 22
36.288898436971607
 32
0.0
 13
83.218234370200747
 23
36.288898436971607
 33
0.0
  0
LINE
  5
117
  8
DIM
 10
93.218234370200776
 20
48.972818213694957
 30
0.0
 11
93.218234370200776
 21
34.288898436971607
 31
0.0
  0
SOLID
  5
118
  8
DIM
 10
96.218234370200761
 20
36.788898436971607
 30
0.0
 11
96.218234370200761
 21
35.788898436971607
 31
0.0
 12
93.218234370200776
 22
36.288898436971607
 32
0.0
 13
93.218234370200776
 23
36.288898436971607
 33
0.0
  0
SOLID
  5
119
  8
DIM
 10
90.218234370200776
 20
36.788898436971607
 30
0.0
 11
90.218234370200776
 21
35.788898436971607
 31
0.0
 12
93.218234370200776
 22
36.288898436971607
 32
0.0
 13
93.218234370200776
 23
36.288898436971607
 33
0.0
  0
TEXT
  5
11B
  8
DIM
 10
180.56779786440359
 20
37.788898436971607
 30
0.0
 40
3.0
  1
10
  7
CHINESET
 72
     1
 11
182.7106550072607
 21
39.288898436971607
 31
0.0
 73
     2
  0
LINE
  5
11C
  8
DIM
 10
178.21823437020069
 20
48.972818213694943
 30
0.0
 11
178.21823437020069
 21
34.288898436971607
 31
0.0
  0
SOLID
  5
11D
  8
DIM
 10
181.21823437020069
 20
36.788898436971607
 30
0.0
 11
181.21823437020069
 21
35.788898436971607
 31
0.0
 12
178.21823437020069
 22
36.288898436971607
 32
0.0
 13
178.21823437020069
 23
36.288898436971607
 33
0.0
  0
SOLID
  5
11E
  8
DIM
 10
175.21823437020069
 20
36.788898436971607
 30
0.0
 11
175.21823437020069
 21
35.788898436971607
 31
0.0
 12
178.21823437020069
 22
36.288898436971607
 32
0.0
 13
178.21823437020069
 23
36.288898436971607
 33
0.0
  0
LINE
  5
122
  8
DIM
 10
188.21823437020069
 20
48.972818213694943
 30
0.0
 11
188.21823437020069
 21
34.288898436971607
 31
0.0
  0
SOLID
  5
123
  8
DIM
 10
191.21823437020069
 20
36.788898436971607
 30
0.0
 11
191.21823437020069
 21
35.788898436971607
 31
0.0
 12
188.21823437020069
 22
36.288898436971607
 32
0.0
 13
188.21823437020069
 23
36.288898436971607
 33
0.0
  0
SOLID
  5
124
  8
DIM
 10
185.2182343702008
 20
36.788898436971607
 30
0.0
 11
185.2182343702008
 21
35.788898436971607
 31
0.0
 12
188.21823437020069
 22
36.288898436971607
 32
0.0
 13
188.21823437020069
 23
36.288898436971607
 33
0.0
  0
LINE
  5
127
  8
HIDDEN
  6
DASHED
 10
78.218234370200776
 20
58.984775849110711
 30
0.0
 11
78.218234370200776
 21
54.984775849110747
 31
0.0
  0
LINE
  5
128
  8
HIDDEN
  6
DASHED
 10
98.218234370200776
 20
58.984775849110711
 30
0.0
 11
98.218234370200776
 21
54.984775849110747
 31
0.0
  0
LINE
  5
129
  8
CENTER
  6
CENTER
 10
79.218234370200776
 20
118.4847758491107
 30
0.0
 11
79.218234370200776
 21
110.70593680772529
 31
0.0
  0
LINE
  5
12A
  8
CENTER
  6
CENTER
 10
79.218234370200776
 20
122.4847758491107
 30
0.0
 11
79.218234370200776
 21
130.263614890496
 31
0.0
  0
LINE
  5
12B
  8
CENTER
  6
CENTER
 10
81.218234370200776
 20
120.4847758491107
 30
0.0
 11
88.997073411586129
 21
120.4847758491107
 31
0.0
  0
CIRCLE
  5
12C
  8
0
 10
79.218234370200776
 20
120.4847758491107
 30
0.0
 40
4.0
  0
CIRCLE
  5
12D
  8
0
 10
79.218234370200776
 20
120.4847758491107
 30
0.0
 40
3.2000000000000002
  0
LINE
  5
12E
  8
CENTER
  6
CENTER
 10
79.218234370200776
 20
119.4847758491107
 30
0.0
 11
79.218234370200776
 21
121.4847758491107
 31
0.0
  0
LINE
  5
12F
  8
CENTER
  6
CENTER
 10
78.218234370200776
 20
120.4847758491107
 30
0.0
 11
80.218234370200776
 21
120.4847758491107
 31
0.0
  0
LINE
  5
130
  8
CENTER
  6
CENTER
 10
168.43784345571791
 20
71.944936638175761
 30
0.0
 11
161.65176097346651
 21
71.944936638175761
 31
0.0
  0
POLYLINE
  5
131
  8
0
 66
     1
 10
0.0
 20
0.0
 30
0.0
 70
     1
  0
VERTEX
  5
565
  8
0
 10
170.43784345571791
 20
78.944936638175648
 30
0.0
  0
VERTEX
  5
566
  8
0
 10
164.37566562922689
 20
75.444936638175705
 30
0.0
  0
VERTEX
  5
567
  8
0
 10
164.37566562922689
 20
68.444936638175818
 30
0.0
  0
VERTEX
  5
568
  8
0
 10
170.43784345571791
 20
64.944936638175847
 30
0.0
  0
VERTEX
  5
569
  8
0
 10
176.50002128220891
 20
68.44493663817579
 30
0.0
  0
VERTEX
  5
56A
  8
0
 10
176.50002128220891
 20
75.444936638175705
 30
0.0
  0
SEQEND
  5
56B
  8
0
  0
CIRCLE
  5
139
  8
0
 10
170.43784345571791
 20
71.944936638175761
 30
0.0
 40
6.062177826490978
  0
LINE
  5
13A
  8
CENTER
  6
CENTER
 10
170.43784345571791
 20
70.944936638175761
 30
0.0
 11
170.43784345571791
 21
72.944936638175761
 31
0.0
  0
CIRCLE
  5
13B
  8
0
 62
     7
 10
170.43784345571791
 20
71.944936638175761
 30
0.0
 40
3.0
  0
CIRCLE
  5
13C
  8
0
 62
     7
 10
170.43784345571791
 20
71.944936638175761
 30
0.0
 40
2.2999999999999989
  0
LINE
  5
13D
  8
HIDDEN
  6
DASHED
 10
173.21823437020069
 20
58.984775849110711
 30
0.0
 11
173.21823437020069
 21
54.984775849110747
 31
0.0
  0
LINE
  5
13E
  8
CENTER
  6
CENTER
 10
172.43784345571791
 20
71.944936638175761
 30
0.0
 11
179.22392593796931
 21
71.944936638175761
 31
0.0
  0
LINE
  5
13F
  8
CENTER
  6
CENTER
 10
170.43784345571791
 20
69.944936638175761
 30
0.0
 11
170.43784345571791
 21
63.158854155924352
 31
0.0
  0
LINE
  5
140
  8
CENTER
  6
CENTER
 10
169.43784345571791
 20
71.944936638175761
 30
0.0
 11
171.43784345571791
 21
71.944936638175761
 31
0.0
  0
LINE
  5
141
  8
HIDDEN
  6
DASHED
 10
193.21823437020069
 20
58.984775849110711
 30
0.0
 11
193.21823437020069
 21
54.984775849110747
 31
0.0
  0
LINE
  5
142
  8
CENTER
  6
CENTER
 10
170.43784345571791
 20
73.944936638175761
 30
0.0
 11
170.43784345571791
 21
80.731019120427163
 31
0.0
  0
ARC
  5
143
  8
0
 62
     7
 10
166.21823437020069
 20
135.9847758491106
 30
0.0
 40
3.0
 50
270.0
 51
359.99999999999977
  0
ARC
  5
144
  8
0
 62
     7
 10
157.75419477403719
 20
117.9847758491106
 30
0.0
 40
15.0
 50
49.969740728110331
 51
89.999999999999986
  0
LINE
  5
145
  8
HIDDEN
  6
PHANTOM
 10
194.63225635542631
 20
122.6303594978863
 30
0.0
 11
190.8126268445761
 21
109.8054861706354
 31
0.0
  0
ARC
  5
146
  8
0
 62
     7
 10
184.21823437020061
 20
118.2532029760653
 30
0.0
 40
5.0
 50
293.52084819574878
 51
359.9999999999996
  0
LINE
  5
147
  8
CENTER
 10
185.04828799063679
 20
123.48475091861241
 30
0.0
 11
185.04828799063679
 21
109.14330694957189
 31
0.0
  0
CIRCLE
  5
148
  8
HIDDEN
  6
PHANTOM
 10
185.04828799063671
 20
125.48475091861251
 30
0.0
 40
4.0
  0
ARC
  5
149
  8
HIDDEN
  6
PHANTOM
 10
185.04828799063679
 20
125.48475091861241
 30
0.0
 40
5.6697893782236974
 50
284.26206968163331
 51
222.5539998008494
  0
ARC
  5
14A
  8
HIDDEN
  6
PHANTOM
 10
185.04828799063679
 20
125.48475091861241
 30
0.0
 40
4.6901632079298841
 50
94.430743633283626
 51
201.1890478373503
  0
CIRCLE
  5
14B
  8
HIDDEN
  6
PHANTOM
 10
185.04828799063671
 20
125.48475091861251
 30
0.0
 40
3.5
  0
LINE
  5
14C
  8
CENTER
 10
183.04828799063679
 20
125.48475091861241
 30
0.0
 11
168.70684402159631
 21
125.48475091861241
 31
0.0
  0
LINE
  5
14D
  8
HIDDEN
  6
PHANTOM
 10
175.46431962584739
 20
128.33914233933859
 30
0.0
 11
174.1204450070133
 21
123.8269189141881
 31
0.0
  0
LINE
  5
14E
  8
HIDDEN
  6
PHANTOM
 10
181.49498485855969
 20
123.64789576602929
 30
0.0
 11
180.67521307262751
 21
123.7895085529026
 31
0.0
  0
LINE
  5
14F
  8
HIDDEN
  6
PHANTOM
 10
182.10172685849059
 20
122.7796118289304
 30
0.0
 11
180.87169273830449
 21
121.6503586992882
 31
0.0
  0
LINE
  5
150
  8
CENTER
 10
185.04828799063679
 20
124.48475091861241
 30
0.0
 11
185.04828799063679
 21
126.48475091861241
 31
0.0
  0
ARC
  5
151
  8
HIDDEN
  6
PHANTOM
 10
185.04828799063679
 20
125.48475091861241
 30
0.0
 40
4.6901632079298841
 50
305.6270216451328
 51
52.385325849198892
  0
LINE
  5
152
  8
HIDDEN
  6
PHANTOM
 10
186.03371783690179
 20
121.60803478016619
 30
0.0
 11
186.4450829094713
 21
119.9897099225746
 31
0.0
  0
LINE
  5
153
  8
CENTER
 10
184.04828799063679
 20
125.48475091861241
 30
0.0
 11
186.04828799063679
 21
125.48475091861241
 31
0.0
  0
LINE
  5
154
  8
HIDDEN
  6
PHANTOM
 10
187.0167476098178
 20
122.0026299087029
 30
0.0
 11
187.78033796975589
 21
121.67246370112549
 31
0.0
  0
LINE
  5
155
  8
CENTER
 10
184.6859540600058
 20
130.16089730636949
 30
0.0
 11
185.1285394197063
 21
129.48394580110221
 31
0.0
  0
LINE
  5
156
  8
HIDDEN
  6
PHANTOM
 10
187.91092000084299
 20
129.19998562064171
 30
0.0
 11
187.1699975472994
 21
128.87567240947101
 31
0.0
  0
TEXT
  5
157
  8
0
  6
BYBLOCK
 62
     0
 10
59.22748349681207
 20
195.31867946082249
 30
0.0
 40
4.7999999999999998
  1
MSLL-%%C25*30
  7
CHINESET
 72
     4
 11
83.570340639669212
 21
197.7186794608225
 31
0.0
  0
ARC
  5
1A2
  8
0
 62
     7
 10
179.21823437020069
 20
155.48477584911069
 30
0.0
 40
13.5
 50
317.79455359626769
 51
222.2054464037324
  0
LINE
  5
1A3
  8
CENTER
 10
177.21823437020069
 20
155.4847758491106
 30
0.0
 11
162.87679040116029
 21
155.4847758491106
 31
0.0
  0
LINE
  5
1A4
  8
DIM
 10
190.51271823174091
 20
148.08986987936271
 30
0.0
 11
162.5697133805734
 21
166.38516304368571
 31
0.0
  0
DIMENSION
  5
1A5
  8
DIM
  2
*D11
 10
157.1209926509712
 20
155.4847758491106
 30
0.0
 11
154.1209926509712
 21
147.2347633838616
 31
0.0
 70
     0
  1
16.5
 13
185.04828799063679
 23
138.98475091861249
 33
0.0
 14
165.71823437020069
 24
155.4847758491106
 34
0.0
 50
90.0
1001
ACAD
1000
DSTYLE
1002
{
1070
    41
1040
3.0
1070
    42
1040
2.0
1070
    43
1040
8.0
1070
    44
1040
2.0
1070
    73
1070
     0
1070
    74
1070
     0
1070
    77
1070
     1
1070
   140
1040
3.0
1070
   141
1040
-1.0
1070
   147
1040
1.5
1002
}
  0
TEXT
  5
1A6
  8
DIM
 10
153.8434514009401
 20
167.8753209486002
 30
0.0
 40
3.0
  1
%%C27
  7
CHINESET
 11
153.8434514009401
 21
169.3753209486002
 31
0.0
 73
     2
  0
LINE
  5
1A7
  8
DIM
 10
162.5697133805734
 20
166.38516304368571
 30
0.0
 11
152.56355726245511
 21
166.38516304368571
 31
0.0
  0
ARC
  5
1A8
  8
0
 10
179.21823437020069
 20
155.48477584911069
 30
0.0
 40
4.6901632079298841
 50
111.0227088920421
 51
217.78101309610889
  0
CIRCLE
  5
1A9
  8
0
 62
     7
 10
179.21823437020069
 20
155.48477584911069
 30
0.0
 40
4.0
  0
ARC
  5
1AA
  8
0
 10
179.21823437020069
 20
155.48477584911069
 30
0.0
 40
4.6901632079298841
 50
322.21898690389128
 51
68.97729110795747
  0
CIRCLE
  5
1AB
  8
0
 62
     7
 10
179.21823437020069
 20
155.48477584911069
 30
0.0
 40
3.5
  0
ARC
  5
1AC
  8
0
 62
     7
 10
179.21823437020069
 20
155.48477584911069
 30
0.0
 40
10.0
 50
0.0
 51
180.0
  0
ARC
  5
1AD
  8
0
 10
179.21823437020069
 20
155.48477584911069
 30
0.0
 40
5.6697893782236974
 50
300.8540349403919
 51
239.14596505960799
  0
LINE
  5
1AE
  8
CENTER
 10
179.21823437020069
 20
157.4847758491106
 30
0.0
 11
179.21823437020069
 21
171.8262198181512
 31
0.0
  0
LINE
  5
1AF
  8
0
 10
182.0990660045758
 20
152.70974267914971
 30
0.0
 11
182.9251427420192
 21
152.61136998847039
 31
0.0
  0
LINE
  5
1B0
  8
CENTER
 10
181.21823437020069
 20
155.4847758491106
 30
0.0
 11
195.5596783392412
 21
155.4847758491106
 31
0.0
  0
LINE
  5
1B1
  8
CENTER
 10
179.21823437020069
 20
153.4847758491106
 30
0.0
 11
179.21823437020069
 21
139.14333188007021
 31
0.0
  0
LINE
  5
1B2
  8
0
 10
177.16682352425241
 20
152.050869394193
 30
0.0
 11
176.310467514018
 21
150.61739426313409
 31
0.0
  0
LINE
  5
1B3
  8
0
 10
181.26964521614909
 20
152.050869394193
 30
0.0
 11
182.12600122638349
 21
150.61739426313409
 31
0.0
  0
LINE
  5
1B4
  8
CENTER
 10
178.21823437020069
 20
155.4847758491106
 30
0.0
 11
180.21823437020069
 21
155.4847758491106
 31
0.0
  0
LINE
  5
1B5
  8
0
 10
176.33740273582569
 20
152.70974267914971
 30
0.0
 11
175.5113259983824
 21
152.61136998847039
 31
0.0
  0
LINE
  5
1B6
  8
CENTER
 10
179.21823437020069
 20
154.4847758491106
 30
0.0
 11
179.21823437020069
 21
156.4847758491106
 31
0.0
  0
SOLID
  5
1B8
  8
DIM
 10
187.72894752289071
 20
149.31486809998941
 30
0.0
 11
188.27671833546461
 21
150.1514965341776
 31
0.0
 12
190.5127182317421
 22
148.0898698793618
 32
0.0
 13
190.5127182317421
 23
148.0898698793618
 33
0.0
  0
SOLID
  5
1B9
  8
DIM
 10
170.15975040493811
 20
160.81805516404259
 30
0.0
 11
170.70752121751201
 21
161.65468359823069
 31
0.0
 12
167.92375050866059
 22
162.87968181885839
 32
0.0
 13
167.92375050866059
 23
162.87968181885839
 33
0.0
  0
LINE
  5
1BB
  8
0
 10
177.5356948768063
 20
159.8627538949884
 30
0.0
 11
178.15315833938391
 21
159.34037088082491
 31
0.0
  0
LINE
  5
1BC
  8
0
 10
180.90077386359519
 20
159.8627538949884
 30
0.0
 11
180.28331040101759
 21
159.34037088082491
 31
0.0
  0
LINE
  5
1BD
  8
0
 62
     7
 10
335.79253825120531
 20
165.48477584911069
 30
0.0
 11
335.79253825120549
 21
98.797027813119186
 31
0.0
  0
LINE
  5
1BE
  8
0
 62
     7
 10
301.79253825120571
 20
165.48477584911069
 30
0.0
 11
301.7925382512056
 21
98.797027813119144
 31
0.0
  0
LINE
  5
1BF
  8
0
 62
     7
 10
296.79253825120571
 20
165.48477584911069
 30
0.0
 11
296.7925382512056
 21
59.184775849110707
 31
0.0
  0
LINE
  5
1C0
  8
0
 62
     7
 10
340.79253825120531
 20
165.48477584911069
 30
0.0
 11
340.7925382512056
 21
59.184775849110729
 31
0.0
  0
LINE
  5
1C1
  8
0
 62
     7
 10
306.79253825120571
 20
166.98477584911069
 30
0.0
 11
306.79253825120549
 21
63.944936638175747
 31
0.0
  0
LINE
  5
1C2
  8
0
 62
     7
 10
330.7925382512052
 20
166.98477584911069
 30
0.0
 11
330.79253825120571
 21
63.94493663817574
 31
0.0
  0
LINE
  5
1C3
  8
CENTER
  6
CENTER
 10
318.7925382512056
 20
172.48735274656141
 30
0.0
 11
318.7925382512056
 21
50.924931739825233
 31
0.0
  0
ARC
  5
1C4
  8
0
 62
     7
 10
318.7925382512056
 20
106.7532029760653
 30
0.0
 40
6.0
 50
48.189685104221347
 51
131.81031489577941
  0
ARC
  5
1C5
  8
0
 62
     7
 10
318.7925382512056
 20
106.7532029760653
 30
0.0
 40
6.0
 50
228.1896851042213
 51
311.81031489577862
  0
ARC
  5
1C6
  8
0
 62
     7
 10
318.7925382512056
 20
106.7532029760653
 30
0.0
 40
4.5
 50
27.266044450731489
 51
152.73395554927009
  0
ARC
  5
1C7
  8
0
 62
     7
 10
318.7925382512056
 20
106.7532029760653
 30
0.0
 40
4.5
 50
207.2660444507305
 51
332.7339555492685
  0
LINE
  5
1C8
  8
CENTER
  6
CENTER
 10
294.82254160799528
 20
106.7532029760653
 30
0.0
 11
342.95701018830522
 21
106.7532029760653
 31
0.0
  0
LINE
  5
1C9
  8
CENTER
  6
CENTER
 10
282.2586298178208
 20
120.4847758491106
 30
0.0
 11
355.85743937292358
 21
120.4847758491106
 31
0.0
  0
LINE
  5
1CA
  8
0
 62
     7
 10
311.7925382512056
 20
114.4847758491107
 30
0.0
 11
325.79253825120549
 21
114.4847758491107
 31
0.0
  0
LINE
  5
1CB
  8
0
  6
CONTINUOUS
 62
     7
 10
306.79253825120571
 20
124.9847758491106
 30
0.0
 11
330.79253825120537
 21
124.9847758491106
 31
0.0
  0
LINE
  5
1CC
  8
0
  6
CONTINUOUS
 62
     7
 10
306.79253825120571
 20
115.98477584911051
 30
0.0
 11
330.79253825120537
 21
115.98477584911051
 31
0.0
  0
LINE
  5
1CD
  8
0
 62
     7
 10
313.7925382512056
 20
76.444936638175733
 30
0.0
 11
323.7925382512056
 21
76.444936638175761
 31
0.0
  0
LINE
  5
1CE
  8
0
 62
     7
 10
313.79253825120549
 20
67.444936638175761
 30
0.0
 11
323.79253825120571
 21
67.444936638175761
 31
0.0
  0
LINE
  5
1CF
  8
CENTER
  6
CENTER
 10
280.9232305063951
 20
71.944936638175705
 30
0.0
 11
355.56815408828481
 21
71.944936638175705
 31
0.0
  0
LINE
  5
1D0
  8
DIM
 10
369.7925382512056
 20
27.659278133737288
 30
0.0
 11
267.7925382512056
 21
27.659278133737288
 31
0.0
  0
LINE
  5
1D1
  8
DIM
 10
279.79253825120549
 20
36.288898436971607
 30
0.0
 11
357.79253825120537
 21
36.288898436971607
 31
0.0
  0
TEXT
  5
1D2
  8
DIM
 10
315.4443920814025
 20
29.159278133737288
 30
0.0
 40
3.0
  1
108
  7
CHINESET
 72
     4
 11
319.015820652831
 21
30.659278133737288
 31
0.0
  0
LINE
  5
1D3
  8
DIM
 10
264.7925382512056
 20
52.984775849110719
 30
0.0
 11
264.7925382512056
 21
25.659278133737288
 31
0.0
  0
LINE
  5
1D4
  8
CENTER
  6
CENTER
 10
276.79253825120549
 20
63.138786054318132
 30
0.0
 11
276.79253825120549
 21
50.924931739825197
 31
0.0
  0
LINE
  5
1D5
  8
DIM
 10
213.21823437020069
 20
52.984775849110719
 30
0.0
 11
213.21823437020069
 21
34.288898436971607
 31
0.0
  0
DIMENSION
  5
1D6
  8
DIM
  2
*D15
 10
252.37231506418181
 20
58.984775849110733
 30
0.0
 11
247.37231506418181
 21
56.984775849110768
 31
0.0
 70
     0
  1
t=4.0
 13
264.7925382512056
 23
54.984775849110719
 33
0.0
 14
264.7925382512056
 24
58.984775849110733
 34
0.0
 50
90.0
  0
TEXT
  5
1D7
  8
DIM
 10
198.2896629416293
 20
37.788898436971607
 30
0.0
 40
3.0
  1
25
  7
CHINESET
 72
     1
 11
200.71823437020069
 21
39.288898436971607
 31
0.0
 73
     2
  0
SOLID
  5
1D8
  8
DIM
 10
210.21823437020069
 20
36.788898436971607
 30
0.0
 11
210.21823437020069
 21
35.788898436971607
 31
0.0
 12
213.21823437020069
 22
36.288898436971607
 32
0.0
 13
213.21823437020069
 23
36.288898436971607
 33
0.0
  0
SOLID
  5
1DA
  8
DIM
 10
267.7925382512056
 20
28.159278133737288
 30
0.0
 11
267.7925382512056
 21
27.159278133737288
 31
0.0
 12
264.7925382512056
 22
27.659278133737288
 32
0.0
 13
264.7925382512056
 23
27.659278133737288
 33
0.0
  0
LINE
  5
1DC
  8
DIM
 10
276.79253825120549
 20
48.924931739825197
 30
0.0
 11
276.79253825120549
 21
34.288898436971607
 31
0.0
  0
SOLID
  5
1DD
  8
DIM
 10
279.79253825120549
 20
36.788898436971607
 30
0.0
 11
279.79253825120549
 21
35.788898436971607
 31
0.0
 12
276.79253825120549
 22
36.288898436971607
 32
0.0
 13
276.79253825120549
 23
36.288898436971607
 33
0.0
  0
TEXT
  5
1DF
  8
DIM
 10
316.51582065283088
 20
37.788898436971607
 30
0.0
 40
3.0
  1
84
  7
CHINESET
 72
     4
 11
319.01582065283088
 21
39.288898436971607
 31
0.0
  0
ARC
  5
1E0
  8
0
 62
     7
 10
198.2182343702008
 20
83.994982588333244
 30
0.0
 40
15.0
 50
0.0
 51
49.969740728110281
  0
LINE
  5
1E1
  8
0
 62
     7
 10
213.2182343702008
 20
83.994982588333244
 30
0.0
 11
213.21823437020069
 21
54.984775849110719
 31
0.0
  0
LINE
  5
1E3
  8
0
 62
     7
 10
291.64253825120562
 20
96.701847055025056
 30
0.0
 11
291.64253825120562
 21
85.362268298577561
 31
0.0
  0
LINE
  5
1E4
  8
0
 62
     7
 10
292.5425382512056
 20
96.701847055025056
 30
0.0
 11
292.5425382512056
 21
85.362268298577618
 31
0.0
  0
LINE
  5
1E5
  8
0
 62
     7
 10
290.0425382512056
 20
94.532057676801315
 30
0.0
 11
290.0425382512056
 21
87.532057676801372
 31
0.0
  0
LINE
  5
1E6
  8
0
 62
     7
 10
292.79253825120571
 20
132.98477584911069
 30
0.0
 11
292.7925382512056
 21
59.184775849110743
 31
0.0
  0
LINE
  5
1E7
  8
0
 62
     7
 10
311.7925382512056
 20
114.70937813901151
 30
0.0
 11
311.79253825120549
 21
63.944936638175747
 31
0.0
  0
LINE
  5
1E8
  8
0
 62
     7
 10
264.7925382512056
 20
54.984775849110719
 30
0.0
 11
292.59253825120561
 21
54.984775849110719
 31
0.0
  0
LINE
  5
1E9
  8
0
 62
     7
 10
264.7925382512056
 20
58.984775849110733
 30
0.0
 11
292.59253825120561
 21
58.984775849110733
 31
0.0
  0
LINE
  5
1EA
  8
CENTER
  6
CENTER
 10
288.63995843271312
 20
91.032057676801315
 30
0.0
 11
298.34828715600219
 21
91.032057676801315
 31
0.0
  0
LINE
  5
1EB
  8
0
 62
     7
 10
291.64253825120562
 20
87.032057676801344
 30
0.0
 11
290.5425382512056
 21
87.032057676801401
 31
0.0
  0
ARC
  5
1EC
  8
0
 62
     7
 10
289.4665337869198
 20
76.257436638175705
 30
0.0
 40
1.82600446428574
 50
308.07186292354089
 51
51.928137076459052
  0
ARC
  5
1ED
  8
0
 62
     7
 10
288.76128825120549
 20
66.694936638175733
 30
0.0
 40
2.03125
 50
300.51023740611561
 51
350.10502922422859
  0
ARC
  5
1EE
  8
0
 62
     7
 10
285.0385203940624
 20
71.944936638175633
 30
0.0
 40
6.2540178571431939
 50
332.63196049550709
 51
27.368039504493989
  0
LINE
  5
1EF
  8
0
 62
     7
 10
292.79253825120549
 20
65.788225225668924
 30
0.0
 11
290.79253825120549
 21
65.788225225668924
 31
0.0
  0
ARC
  5
1F0
  8
0
 62
     7
 10
289.4665337869198
 20
67.632436638175591
 30
0.0
 40
1.82600446428574
 50
308.071862923541
 51
51.928137076459123
  0
ARC
  5
1F1
  8
0
 62
     7
 10
288.76128825120549
 20
77.194936638175676
 30
0.0
 40
2.03125
 50
9.8949707757682308
 51
59.489762593884407
  0
LINE
  5
1F2
  8
0
 62
     7
 10
292.79253825120549
 20
78.101648050682485
 30
0.0
 11
290.79253825120549
 21
78.101648050682485
 31
0.0
  0
ARC
  5
1F3
  8
0
 62
     7
 10
292.54655610834863
 20
71.944936638175633
 30
0.0
 40
6.2540178571431939
 50
152.63196049550601
 51
207.3680395044928
  0
ARC
  5
1F4
  8
0
 62
     7
 10
291.41753825120549
 20
71.944936638175619
 30
0.0
 40
6.6250000000000631
 50
148.10920819815431
 51
211.89079180184541
  0
LINE
  5
1F5
  8
0
 62
     7
 10
284.7925382512056
 20
77.194936638175619
 30
0.0
 11
284.7925382512056
 21
66.694936638175705
 31
0.0
  0
LINE
  5
1F6
  8
0
 62
     7
 10
286.29253825120549
 20
76.257436638175705
 30
0.0
 11
286.29253825120549
 21
67.632436638175591
 31
0.0
  0
LINE
  5
1F7
  8
0
 62
     7
 10
264.7925382512056
 20
58.984775849110733
 30
0.0
 11
264.7925382512056
 21
54.984775849110768
 31
0.0
  0
LINE
  5
1F9
  8
HIDDEN
  6
DASHED
 10
271.79253825120549
 20
58.984775849110733
 30
0.0
 11
271.79253825120549
 21
54.984775849110768
 31
0.0
  0
LINE
  5
1FA
  8
HIDDEN
  6
DASHED
 10
281.79253825120549
 20
58.984775849110733
 30
0.0
 11
281.79253825120549
 21
54.984775849110768
 31
0.0
  0
ARC
  5
1FB
  8
0
 62
     7
 10
286.8237882512056
 20
66.694936638175705
 30
0.0
 40
2.03125
 50
120.51023740611549
 51
239.48976259388439
  0
ARC
  5
1FC
  8
0
 62
     7
 10
288.11854271549129
 20
67.632436638175591
 30
0.0
 40
1.82600446428574
 50
128.07186292354081
 51
231.928137076459
  0
LINE
  5
1FD
  8
0
 62
     7
 10
289.7925382512056
 20
64.944936638175818
 30
0.0
 11
285.79253825120549
 21
64.944936638175818
 31
0.0
  0
LINE
  5
1FE
  8
0
 62
     7
 10
290.79253825120549
 20
66.377046474009262
 30
0.0
 11
290.79253825120549
 21
65.788225225668924
 31
0.0
  0
LINE
  5
1FF
  8
0
 62
     7
 10
290.59253825120572
 20
66.194936638175733
 30
0.0
 11
286.99253825120542
 21
66.194936638175733
 31
0.0
  0
LINE
  5
200
  8
0
 62
     7
 10
285.79253825120549
 20
68.444936638175676
 30
0.0
 11
286.29253825120549
 21
68.444936638175676
 31
0.0
  0
LINE
  5
201
  8
0
 62
     7
 10
290.5925382512055
 20
69.069936638175705
 30
0.0
 11
286.99253825120559
 21
69.069936638175705
 31
0.0
  0
LINE
  5
202
  8
0
 62
     7
 10
290.79253825120549
 20
78.101648050682485
 30
0.0
 11
290.79253825120549
 21
77.512826802342062
 31
0.0
  0
ARC
  5
203
  8
0
 62
     7
 10
286.8237882512056
 20
77.194936638175619
 30
0.0
 40
2.03125
 50
120.51023740611549
 51
239.48976259388451
  0
ARC
  5
204
  8
0
 62
     7
 10
288.11854271549129
 20
76.257436638175705
 30
0.0
 40
1.82600446428574
 50
128.07186292354089
 51
231.92813707645911
  0
LINE
  5
205
  8
0
 62
     7
 10
285.79253825120549
 20
75.444936638175648
 30
0.0
 11
286.29253825120549
 21
75.444936638175648
 31
0.0
  0
LINE
  5
206
  8
0
 62
     7
 10
290.59253825120572
 20
77.694936638175676
 30
0.0
 11
286.99253825120559
 21
77.694936638175733
 31
0.0
  0
LINE
  5
207
  8
0
 62
     7
 10
290.59253825120561
 20
74.819936638175705
 30
0.0
 11
286.99253825120559
 21
74.819936638175705
 31
0.0
  0
LINE
  5
208
  8
0
 62
     7
 10
289.7925382512056
 20
78.944936638175648
 30
0.0
 11
285.79253825120549
 21
78.944936638175648
 31
0.0
  0
LINE
  5
209
  8
0
 62
     7
 10
290.0425382512056
 20
87.532057676801372
 30
0.0
 11
290.5425382512056
 21
87.032057676801401
 31
0.0
  0
LINE
  5
20A
  8
0
 62
     7
 10
292.79253825120537
 20
73.426763634233737
 30
0.0
 11
291.2925382512056
 21
72.205564063496325
 31
0.0
  0
LINE
  5
20B
  8
0
 62
     7
 10
313.7925382512056
 20
77.944936638175761
 30
0.0
 11
313.79253825120549
 21
65.944936638175761
 31
0.0
  0
LINE
  5
20C
  8
0
 62
     7
 10
291.2925382512056
 20
76.799220228549984
 30
0.0
 11
291.29253825120549
 21
67.090653047801425
 31
0.0
  0
LINE
  5
20D
  8
0
 62
     7
 10
296.7925382512056
 20
63.944936638175747
 30
0.0
 11
306.79253825120549
 21
63.944936638175747
 31
0.0
  0
ARC
  5
20E
  8
0
 62
     7
 10
292.59253825120561
 20
59.184775849110743
 30
0.0
 40
4.2000000000000002
 50
270.0
 51
359.99999999999977
  0
ARC
  5
20F
  8
0
 62
     7
 10
292.59253825120561
 20
59.184775849110743
 30
0.0
 40
0.2
 50
270.0
 51
359.99999999999977
  0
LINE
  5
210
  8
0
 62
     7
 10
292.79253825120537
 20
67.090653047801425
 30
0.0
 11
291.29253825120549
 21
67.090653047801425
 31
0.0
  0
LINE
  5
211
  8
0
 62
     7
 10
292.79253825120537
 20
72.410083713782882
 30
0.0
 11
291.2925382512056
 21
71.188884143045385
 31
0.0
  0
LINE
  5
212
  8
0
 62
     7
 10
306.79253825120549
 20
63.944936638175747
 30
0.0
 11
311.79253825120549
 21
63.944936638175747
 31
0.0
  0
LINE
  5
213
  8
0
 62
     7
 10
311.79253825120549
 20
65.944936638175761
 30
0.0
 11
313.79253825120549
 21
65.944936638175761
 31
0.0
  0
LINE
  5
214
  8
0
 62
     7
 10
296.7925382512056
 20
79.944936638175761
 30
0.0
 11
306.79253825120549
 21
79.944936638175761
 31
0.0
  0
LINE
  5
215
  8
0
 62
     7
 10
292.79253825120537
 20
76.799220228550041
 30
0.0
 11
291.2925382512056
 21
76.799220228549984
 31
0.0
  0
LINE
  5
216
  8
0
 62
     7
 10
292.79253825120571
 20
87.032057676801344
 30
0.0
 11
292.5425382512056
 21
87.032057676801344
 31
0.0
  0
LINE
  5
217
  8
0
 62
     7
 10
292.5425382512056
 20
85.362268298577618
 30
0.0
 11
291.64253825120562
 21
85.362268298577561
 31
0.0
  0
LINE
  5
218
  8
0
 62
     7
 10
292.5425382512056
 20
91.711331548673201
 30
0.0
 11
291.64253825120562
 21
91.711331548673201
 31
0.0
  0
LINE
  5
219
  8
0
 62
     7
 10
292.5425382512056
 20
90.352783804929487
 30
0.0
 11
291.64253825120562
 21
90.352783804929487
 31
0.0
  0
LINE
  5
21A
  8
0
 62
     7
 10
311.79253825120549
 20
77.944936638175761
 30
0.0
 11
313.7925382512056
 21
77.944936638175761
 31
0.0
  0
LINE
  5
21B
  8
0
 62
     7
 10
292.79253825120571
 20
114.3280644366039
 30
0.0
 11
290.7925382512056
 21
114.3280644366039
 31
0.0
  0
LINE
  5
21C
  8
0
 62
     7
 10
292.79253825120571
 20
121.85474920800721
 30
0.0
 11
290.79253825120588
 21
119.88918176003899
 31
0.0
  0
LINE
  5
21D
  8
0
 62
     7
 10
292.79253825120571
 20
123.116713195909
 30
0.0
 11
290.79253825120588
 21
121.1511457479408
 31
0.0
  0
LINE
  5
21E
  8
0
 62
     7
 10
292.79253825120571
 20
126.6414872616174
 30
0.0
 11
290.79253825120588
 21
126.6414872616174
 31
0.0
  0
LINE
  5
21F
  8
0
 62
     7
 10
291.64253825120562
 20
95.032057676801372
 30
0.0
 11
290.54253825120571
 21
95.032057676801372
 31
0.0
  0
ARC
  5
220
  8
0
 62
     7
 10
288.76128825120583
 20
115.2347758491107
 30
0.0
 40
2.03125
 50
300.51023740611561
 51
59.489762593884507
  0
ARC
  5
221
  8
0
 62
     7
 10
286.82378825120571
 20
115.2347758491107
 30
0.0
 40
2.03125
 50
120.51023740611549
 51
239.48976259388439
  0
LINE
  5
222
  8
0
 62
     7
 10
290.79253825120588
 20
126.6414872616174
 30
0.0
 11
290.7925382512056
 21
114.3280644366039
 31
0.0
  0
LINE
  5
223
  8
0
 62
     7
 10
290.54253825120571
 20
95.032057676801372
 30
0.0
 11
290.0425382512056
 21
94.532057676801315
 31
0.0
  0
LINE
  5
224
  8
0
 62
     7
 10
289.7925382512056
 20
113.4847758491106
 30
0.0
 11
285.79253825120583
 21
113.4847758491106
 31
0.0
  0
ARC
  5
225
  8
0
 62
     7
 10
288.76128825120583
 20
125.7347758491106
 30
0.0
 40
2.03125
 50
300.51023740611538
 51
59.489762593884407
  0
ARC
  5
226
  8
0
 62
     7
 10
286.82378825120571
 20
125.7347758491106
 30
0.0
 40
2.03125
 50
120.51023740611549
 51
239.48976259388451
  0
ARC
  5
227
  8
0
 62
     7
 10
284.16753825120571
 20
120.4847758491106
 30
0.0
 40
6.6250000000000631
 50
328.10920819815448
 51
31.890791801845669
  0
LINE
  5
228
  8
0
 62
     7
 10
284.79253825120571
 20
125.7347758491106
 30
0.0
 11
284.7925382512056
 21
115.2347758491107
 31
0.0
  0
ARC
  5
229
  8
0
 62
     7
 10
291.41753825120588
 20
120.4847758491106
 30
0.0
 40
6.6250000000000631
 50
148.10920819815431
 51
211.89079180184541
  0
LINE
  5
22A
  8
0
 62
     7
 10
289.79253825120583
 20
116.9847758491106
 30
0.0
 11
285.7925382512056
 21
116.9847758491106
 31
0.0
  0
LINE
  5
22B
  8
0
 62
     7
 10
289.79253825120571
 20
123.9847758491106
 30
0.0
 11
285.79253825120583
 21
123.9847758491106
 31
0.0
  0
LINE
  5
22C
  8
0
 62
     7
 10
289.79253825120571
 20
127.4847758491106
 30
0.0
 11
285.79253825120583
 21
127.4847758491106
 31
0.0
  0
LINE
  5
22D
  8
0
 62
     7
 10
301.7925382512056
 20
98.797027813119186
 30
0.0
 11
306.7925382512056
 21
98.797027813119186
 31
0.0
  0
LINE
  5
22E
  8
0
 62
     7
 10
296.79253825120571
 20
101.7532029760653
 30
0.0
 11
301.7925382512056
 21
101.7532029760653
 31
0.0
  0
LINE
  5
22F
  8
0
 62
     7
 10
292.79253825120571
 20
95.032057676801315
 30
0.0
 11
292.5425382512056
 21
95.032057676801315
 31
0.0
  0
LINE
  5
230
  8
0
 62
     7
 10
292.5425382512056
 20
96.701847055025056
 30
0.0
 11
291.64253825120562
 21
96.701847055025056
 31
0.0
  0
LINE
  5
231
  8
0
 62
     7
 10
296.79253825120571
 20
111.7532029760653
 30
0.0
 11
301.7925382512056
 21
111.7532029760653
 31
0.0
  0
LINE
  5
232
  8
0
 62
     7
 10
296.79253825120571
 20
113.2532029760653
 30
0.0
 11
301.7925382512056
 21
113.2532029760653
 31
0.0
  0
LINE
  5
233
  8
0
 62
     7
 10
314.79253825120549
 20
111.7532029760653
 30
0.0
 11
314.7925382512056
 21
101.7532029760653
 31
0.0
  0
LINE
  5
234
  8
0
 62
     7
 10
314.7925382512056
 20
101.7532029760653
 30
0.0
 11
311.7925382512056
 21
101.7532029760653
 31
0.0
  0
LINE
  5
235
  8
0
 62
     7
 10
314.79253825120549
 20
111.7532029760653
 30
0.0
 11
311.7925382512056
 21
111.7532029760653
 31
0.0
  0
LINE
  5
236
  8
0
 62
     7
 10
306.7925382512056
 20
114.70937813901151
 30
0.0
 11
311.7925382512056
 21
114.70937813901141
 31
0.0
  0
LINE
  5
237
  8
0
 62
     7
 10
292.79253825120571
 20
132.98477584911069
 30
0.0
 11
296.79253825120571
 21
132.98477584911069
 31
0.0
  0
LINE
  5
238
  8
DIM
 10
372.7925382512056
 20
52.984775849110719
 30
0.0
 11
372.7925382512056
 21
25.659278133737288
 31
0.0
  0
LINE
  5
239
  8
CENTER
  6
CENTER
 10
360.79253825120537
 20
63.138786054318153
 30
0.0
 11
360.79253825120537
 21
50.924931739825233
 31
0.0
  0
SOLID
  5
23A
  8
DIM
 10
369.7925382512056
 20
28.159278133737288
 30
0.0
 11
369.7925382512056
 21
27.159278133737288
 31
0.0
 12
372.7925382512056
 22
27.659278133737288
 32
0.0
 13
372.7925382512056
 23
27.659278133737288
 33
0.0
  0
LINE
  5
23B
  8
DIM
 10
360.79253825120537
 20
48.924931739825233
 30
0.0
 11
360.79253825120537
 21
34.288898436971607
 31
0.0
  0
SOLID
  5
23C
  8
DIM
 10
357.79253825120537
 20
36.788898436971607
 30
0.0
 11
357.79253825120537
 21
35.788898436971607
 31
0.0
 12
360.79253825120537
 22
36.288898436971607
 32
0.0
 13
360.79253825120537
 23
36.288898436971607
 33
0.0
  0
LINE
  5
23F
  8
DIM
 10
362.2776609885828
 20
74.884386523563194
 30
0.0
 11
387.48373241715421
 21
74.884386523563194
 31
0.0
  0
TEXT
  5
240
  8
DIM
 10
362.36766098858283
 20
76.384386523563194
 30
0.0
 40
3.0
  1
4-%%C10長型孔
 50
359.99999999999898
  7
CHINESET
 11
362.36766098858283
 21
77.884386523563194
 31
0.0
 73
     2
  0
LINE
  5
241
  8
0
 62
     7
 10
347.54253825120531
 20
94.532057676801358
 30
0.0
 11
347.54253825120549
 21
87.532057676801415
 31
0.0
  0
LINE
  5
242
  8
0
 62
     7
 10
345.04253825120531
 20
96.701847055025141
 30
0.0
 11
345.04253825120531
 21
85.362268298577646
 31
0.0
  0
LINE
  5
243
  8
0
 62
     7
 10
345.94253825120541
 20
96.701847055025141
 30
0.0
 11
345.94253825120541
 21
85.362268298577575
 31
0.0
  0
LINE
  5
244
  8
0
 62
     7
 10
344.79253825120537
 20
132.9847758491106
 30
0.0
 11
344.7925382512056
 21
59.184775849110743
 31
0.0
  0
LINE
  5
245
  8
0
 62
     7
 10
325.79253825120549
 20
114.70937813901151
 30
0.0
 11
325.79253825120571
 21
63.94493663817574
 31
0.0
  0
LINE
  5
246
  8
0
 62
     7
 10
372.7925382512056
 20
54.984775849110719
 30
0.0
 11
344.99253825120559
 21
54.984775849110719
 31
0.0
  0
LINE
  5
247
  8
0
 62
     7
 10
372.7925382512056
 20
58.984775849110733
 30
0.0
 11
344.99253825120559
 21
58.984775849110733
 31
0.0
  0
ARC
  5
248
  8
0
 62
     7
 10
350.76128825120537
 20
77.194936638175648
 30
0.0
 40
2.03125
 50
300.51023740611538
 51
59.489762593884393
  0
ARC
  5
249
  8
0
 62
     7
 10
346.16753825120537
 20
71.944936638175633
 30
0.0
 40
6.6250000000000631
 50
328.10920819815448
 51
31.890791801845651
  0
ARC
  5
24A
  8
0
 62
     7
 10
350.76128825120537
 20
66.694936638175733
 30
0.0
 40
2.03125
 50
300.51023740611561
 51
59.489762593884507
  0
ARC
  5
24B
  8
0
 62
     7
 10
345.03852039406218
 20
71.944936638175676
 30
0.0
 40
6.2540178571431939
 50
332.63196049550709
 51
27.368039504493989
  0
ARC
  5
24C
  8
0
 62
     7
 10
352.54655610834863
 20
71.944936638175676
 30
0.0
 40
6.2540178571431939
 50
152.63196049550601
 51
207.3680395044928
  0
LINE
  5
24D
  8
0
 62
     7
 10
344.79253825120549
 20
73.426763634233765
 30
0.0
 11
346.29253825120549
 21
72.205564063496354
 31
0.0
  0
LINE
  5
24E
  8
0
 62
     7
 10
323.7925382512056
 20
77.944936638175761
 30
0.0
 11
323.79253825120571
 21
65.944936638175761
 31
0.0
  0
LINE
  5
24F
  8
0
 62
     7
 10
346.29253825120531
 20
76.799220228550013
 30
0.0
 11
346.2925382512056
 21
67.090653047801453
 31
0.0
  0
LINE
  5
250
  8
0
 62
     7
 10
351.2925382512056
 20
76.257436638175733
 30
0.0
 11
351.2925382512056
 21
67.632436638175605
 31
0.0
  0
LINE
  5
251
  8
0
 62
     7
 10
330.79253825120571
 20
63.944936638175747
 30
0.0
 11
340.7925382512056
 21
63.944936638175747
 31
0.0
  0
LINE
  5
252
  8
0
 62
     7
 10
325.79253825120571
 20
63.94493663817574
 30
0.0
 11
330.79253825120571
 21
63.94493663817574
 31
0.0
  0
LINE
  5
253
  8
0
 62
     7
 10
323.79253825120571
 20
65.944936638175761
 30
0.0
 11
325.79253825120571
 21
65.944936638175761
 31
0.0
  0
ARC
  5
254
  8
0
 62
     7
 10
344.99253825120559
 20
59.184775849110743
 30
0.0
 40
0.2
 50
180.00000000000011
 51
270.0
  0
ARC
  5
255
  8
0
 62
     7
 10
344.99253825120559
 20
59.184775849110743
 30
0.0
 40
4.2000000000000002
 50
180.00000000000011
 51
270.0
  0
LINE
  5
256
  8
HIDDEN
  6
DASHED
 10
355.7925382512056
 20
58.984775849110733
 30
0.0
 11
355.7925382512056
 21
54.984775849110768
 31
0.0
  0
LINE
  5
257
  8
0
 62
     7
 10
344.79253825120549
 20
67.090653047801453
 30
0.0
 11
346.2925382512056
 21
67.090653047801453
 31
0.0
  0
LINE
  5
258
  8
0
 62
     7
 10
344.79253825120549
 20
72.41008371378291
 30
0.0
 11
346.29253825120549
 21
71.188884143045414
 31
0.0
  0
LINE
  5
259
  8
0
 62
     7
 10
344.79253825120549
 20
65.788225225668953
 30
0.0
 11
346.79253825120537
 21
65.788225225668953
 31
0.0
  0
ARC
  5
25A
  8
0
 62
     7
 10
349.4665337869198
 20
67.632436638175605
 30
0.0
 40
1.82600446428574
 50
308.071862923541
 51
51.928137076459109
  0
ARC
  5
25B
  8
0
 62
     7
 10
348.11854271549112
 20
67.632436638175605
 30
0.0
 40
1.82600446428574
 50
128.07186292354081
 51
231.928137076459
  0
LINE
  5
25C
  8
0
 62
     7
 10
346.99253825120519
 20
66.194936638175761
 30
0.0
 11
350.59253825120572
 21
66.194936638175761
 31
0.0
  0
LINE
  5
25D
  8
0
 62
     7
 10
347.79253825120537
 20
64.944936638175847
 30
0.0
 11
351.79253825120537
 21
64.944936638175847
 31
0.0
  0
LINE
  5
25E
  8
0
 62
     7
 10
346.79253825120537
 20
66.37704647400929
 30
0.0
 11
346.79253825120537
 21
65.788225225668953
 31
0.0
  0
ARC
  5
25F
  8
0
 62
     7
 10
348.82378825120537
 20
66.694936638175761
 30
0.0
 40
2.03125
 50
189.89497077577141
 51
239.48976259388439
  0
LINE
  5
260
  8
0
 62
     7
 10
346.99253825120547
 20
69.069936638175733
 30
0.0
 11
350.59253825120533
 21
69.069936638175733
 31
0.0
  0
LINE
  5
261
  8
0
 62
     7
 10
351.79253825120537
 20
68.444936638175705
 30
0.0
 11
351.2925382512056
 21
68.444936638175705
 31
0.0
  0
LINE
  5
262
  8
0
 62
     7
 10
330.7925382512056
 20
79.944936638175761
 30
0.0
 11
340.7925382512056
 21
79.944936638175761
 31
0.0
  0
LINE
  5
263
  8
0
 62
     7
 10
323.7925382512056
 20
77.944936638175761
 30
0.0
 11
325.7925382512056
 21
77.944936638175761
 31
0.0
  0
LINE
  5
264
  8
0
 62
     7
 10
344.79253825120549
 20
76.79922022855007
 30
0.0
 11
346.29253825120531
 21
76.799220228550013
 31
0.0
  0
LINE
  5
265
  8
0
 62
     7
 10
344.79253825120549
 20
78.101648050682513
 30
0.0
 11
346.79253825120537
 21
78.101648050682513
 31
0.0
  0
LINE
  5
266
  8
0
 62
     7
 10
346.79253825120537
 20
78.101648050682513
 30
0.0
 11
346.79253825120537
 21
77.51282680234209
 31
0.0
  0
ARC
  5
267
  8
0
 62
     7
 10
348.82378825120537
 20
77.194936638175705
 30
0.0
 40
2.03125
 50
120.51023740611549
 51
170.10502922423171
  0
LINE
  5
268
  8
0
 62
     7
 10
346.99253825120542
 20
77.694936638175705
 30
0.0
 11
350.59253825120533
 21
77.694936638175761
 31
0.0
  0
LINE
  5
269
  8
0
 62
     7
 10
346.99253825120547
 20
74.819936638175733
 30
0.0
 11
350.59253825120533
 21
74.819936638175733
 31
0.0
  0
ARC
  5
26A
  8
0
 62
     7
 10
348.11854271549112
 20
76.257436638175733
 30
0.0
 40
1.82600446428574
 50
128.07186292354089
 51
231.92813707645911
  0
LINE
  5
26B
  8
0
 62
     7
 10
351.79253825120537
 20
75.444936638175676
 30
0.0
 11
351.2925382512056
 21
75.444936638175676
 31
0.0
  0
ARC
  5
26C
  8
0
 62
     7
 10
349.4665337869198
 20
76.257436638175733
 30
0.0
 40
1.82600446428574
 50
308.07186292354089
 51
51.928137076459038
  0
LINE
  5
26D
  8
0
 62
     7
 10
347.79253825120537
 20
78.944936638175676
 30
0.0
 11
351.79253825120537
 21
78.944936638175676
 31
0.0
  0
LINE
  5
26E
  8
0
 62
     7
 10
344.79253825120549
 20
87.032057676801358
 30
0.0
 11
345.04253825120531
 21
87.032057676801358
 31
0.0
  0
LINE
  5
26F
  8
CENTER
  6
CENTER
 10
339.1463622023129
 20
91.032057676801372
 30
0.0
 11
349.19848131952659
 21
91.032057676801372
 31
0.0
  0
LINE
  5
270
  8
0
 62
     7
 10
345.94253825120541
 20
87.032057676801358
 30
0.0
 11
347.04253825120549
 21
87.032057676801429
 31
0.0
  0
LINE
  5
271
  8
0
 62
     7
 10
347.54253825120549
 20
87.532057676801415
 30
0.0
 11
347.04253825120549
 21
87.032057676801429
 31
0.0
  0
LINE
  5
272
  8
0
 62
     7
 10
345.04253825120531
 20
85.362268298577646
 30
0.0
 11
345.94253825120541
 21
85.362268298577575
 31
0.0
  0
LINE
  5
273
  8
0
 62
     7
 10
345.04253825120531
 20
91.711331548673243
 30
0.0
 11
345.94253825120541
 21
91.711331548673243
 31
0.0
  0
LINE
  5
274
  8
0
 62
     7
 10
345.04253825120531
 20
90.352783804929544
 30
0.0
 11
345.94253825120541
 21
90.352783804929544
 31
0.0
  0
LINE
  5
275
  8
DIM
 10
361.77090856326998
 20
61.82075743093926
 30
0.0
 11
362.2776609885828
 21
74.884386523563194
 31
0.0
  0
LINE
  5
276
  8
0
 62
     7
 10
352.79253825120537
 20
77.194936638175648
 30
0.0
 11
352.79253825120537
 21
66.694936638175733
 31
0.0
  0
SOLID
  5
277
  8
DIM
 10
362.24357216024151
 20
61.657695712261813
 30
0.0
 11
361.29824496629863
 21
61.9838191496167
 31
0.0
 12
360.79253825120537
 22
58.984775849110747
 32
0.0
 13
360.79253825120537
 23
58.984775849110747
 33
0.0
  0
LINE
  5
278
  8
HIDDEN
  6
DASHED
 10
365.7925382512056
 20
58.984775849110733
 30
0.0
 11
365.7925382512056
 21
54.984775849110768
 31
0.0
  0
LINE
  5
279
  8
0
 62
     7
 10
372.7925382512056
 20
58.984775849110733
 30
0.0
 11
372.7925382512056
 21
54.984775849110768
 31
0.0
  0
ARC
  5
27B
  8
0
 62
     7
 10
350.76128825120537
 20
125.7347758491107
 30
0.0
 40
2.03125
 50
300.51023740611538
 51
59.489762593884393
  0
ARC
  5
27C
  8
0
 62
     7
 10
346.16753825120537
 20
120.4847758491106
 30
0.0
 40
6.6250000000000631
 50
328.10920819815448
 51
31.890791801845651
  0
ARC
  5
27D
  8
0
 62
     7
 10
350.76128825120537
 20
115.2347758491107
 30
0.0
 40
2.03125
 50
300.51023740611561
 51
59.489762593884507
  0
ARC
  5
27E
  8
0
 62
     7
 10
348.82378825120537
 20
115.2347758491107
 30
0.0
 40
2.03125
 50
120.51023740611549
 51
239.48976259388439
  0
LINE
  5
27F
  8
0
 62
     7
 10
346.79253825120537
 20
126.6414872616175
 30
0.0
 11
346.79253825120537
 21
114.3280644366039
 31
0.0
  0
LINE
  5
280
  8
0
 62
     7
 10
335.79253825120549
 20
111.7532029760653
 30
0.0
 11
340.79253825120549
 21
111.7532029760653
 31
0.0
  0
LINE
  5
281
  8
0
 62
     7
 10
335.79253825120549
 20
101.7532029760653
 30
0.0
 11
340.79253825120549
 21
101.7532029760653
 31
0.0
  0
LINE
  5
282
  8
0
 62
     7
 10
335.79253825120537
 20
113.2532029760653
 30
0.0
 11
340.79253825120537
 21
113.2532029760653
 31
0.0
  0
LINE
  5
283
  8
0
 62
     7
 10
322.7925382512056
 20
111.7532029760653
 30
0.0
 11
322.7925382512056
 21
101.7532029760653
 31
0.0
  0
LINE
  5
284
  8
0
 62
     7
 10
322.7925382512056
 20
101.7532029760653
 30
0.0
 11
325.79253825120549
 21
101.7532029760653
 31
0.0
  0
LINE
  5
285
  8
0
 62
     7
 10
330.79253825120549
 20
98.797027813119186
 30
0.0
 11
335.79253825120549
 21
98.797027813119186
 31
0.0
  0
LINE
  5
286
  8
0
 62
     7
 10
325.79253825120549
 20
114.70937813901151
 30
0.0
 11
330.79253825120549
 21
114.70937813901151
 31
0.0
  0
LINE
  5
287
  8
0
 62
     7
 10
322.7925382512056
 20
111.7532029760653
 30
0.0
 11
325.79253825120549
 21
111.7532029760653
 31
0.0
  0
LINE
  5
288
  8
0
 62
     7
 10
344.79253825120537
 20
95.032057676801372
 30
0.0
 11
345.04253825120531
 21
95.032057676801372
 31
0.0
  0
LINE
  5
289
  8
0
 62
     7
 10
345.04253825120531
 20
96.701847055025141
 30
0.0
 11
345.94253825120541
 21
96.701847055025141
 31
0.0
  0
LINE
  5
28A
  8
0
 62
     7
 10
345.94253825120541
 20
95.032057676801415
 30
0.0
 11
347.04253825120549
 21
95.032057676801415
 31
0.0
  0
LINE
  5
28B
  8
0
 62
     7
 10
347.04253825120549
 20
95.032057676801415
 30
0.0
 11
347.54253825120531
 21
94.532057676801358
 31
0.0
  0
LINE
  5
28C
  8
0
 62
     7
 10
344.79253825120537
 20
114.3280644366039
 30
0.0
 11
346.79253825120537
 21
114.3280644366039
 31
0.0
  0
LINE
  5
28D
  8
0
 62
     7
 10
347.79253825120537
 20
113.4847758491106
 30
0.0
 11
351.79253825120531
 21
113.4847758491106
 31
0.0
  0
ARC
  5
28E
  8
0
 62
     7
 10
348.82378825120537
 20
125.7347758491107
 30
0.0
 40
2.03125
 50
120.51023740611549
 51
239.48976259388451
  0
LINE
  5
28F
  8
0
 62
     7
 10
344.79253825120537
 20
123.1167131959091
 30
0.0
 11
346.79253825120537
 21
121.1511457479408
 31
0.0
  0
LINE
  5
290
  8
0
 62
     7
 10
344.79253825120537
 20
121.85474920800721
 30
0.0
 11
346.79253825120537
 21
119.88918176003899
 31
0.0
  0
ARC
  5
291
  8
0
 62
     7
 10
353.41753825120537
 20
120.4847758491106
 30
0.0
 40
6.6250000000000631
 50
148.10920819815431
 51
211.89079180184541
  0
LINE
  5
292
  8
0
 62
     7
 10
347.79253825120537
 20
116.9847758491107
 30
0.0
 11
351.79253825120537
 21
116.9847758491107
 31
0.0
  0
LINE
  5
293
  8
0
 62
     7
 10
347.79253825120537
 20
123.9847758491107
 30
0.0
 11
351.79253825120537
 21
123.9847758491107
 31
0.0
  0
LINE
  5
294
  8
0
 62
     7
 10
344.79253825120537
 20
126.6414872616175
 30
0.0
 11
346.79253825120537
 21
126.6414872616175
 31
0.0
  0
LINE
  5
295
  8
0
 62
     7
 10
340.79253825120537
 20
132.9847758491106
 30
0.0
 11
344.79253825120537
 21
132.9847758491106
 31
0.0
  0
LINE
  5
296
  8
0
 62
     7
 10
347.79253825120537
 20
127.4847758491107
 30
0.0
 11
351.79253825120537
 21
127.4847758491107
 31
0.0
  0
LINE
  5
297
  8
0
 62
     7
 10
352.79253825120537
 20
125.7347758491107
 30
0.0
 11
352.79253825120537
 21
115.2347758491107
 31
0.0
  0
LINE
  5
298
  8
0
 62
     7
 10
308.79253825120571
 20
168.98477584911069
 30
0.0
 11
328.7925382512052
 21
168.98477584911069
 31
0.0
  0
LINE
  5
299
  8
0
 62
     7
 10
308.7925382512056
 20
141.9847758491106
 30
0.0
 11
328.79253825120531
 21
141.9847758491106
 31
0.0
  0
LINE
  5
29A
  8
CENTER
  6
CENTER
 10
292.37502670308879
 20
155.4847758491106
 30
0.0
 11
345.73086047660752
 21
155.4847758491106
 31
0.0
  0
DIMENSION
  5
29B
  8
DIM
  2
*D14
 10
330.7925382512052
 20
181.2636862350279
 30
0.0
 11
318.79253825120537
 21
183.7636862350279
 31
0.0
 70
     0
  1
24
 13
306.79253825120571
 23
166.98477584911069
 33
0.0
 14
330.7925382512052
 24
166.98477584911069
 34
0.0
  0
LINE
  5
29C
  8
DIM
 10
297.04253825120571
 20
194.53369261236031
 30
0.0
 11
340.54253825120531
 21
194.53369261236031
 31
0.0
  0
TEXT
  5
29D
  8
DIM
 10
310.9353953940626
 20
196.03369261236031
 30
0.0
 40
3.0
  1
MAX 51
  7
CHINESET
 72
     4
 11
318.79253825120549
 21
197.53369261236031
 31
0.0
  0
LINE
  5
29E
  8
DIM
 10
294.04253825120571
 20
160.9847758491106
 30
0.0
 11
294.04253825120571
 21
196.53369261236031
 31
0.0
  0
LINE
  5
29F
  8
0
 62
     7
 10
294.04253825120571
 20
158.9847758491106
 30
0.0
 11
294.04253825120571
 21
151.98477584911069
 31
0.0
  0
LINE
  5
2A0
  8
0
 62
     7
 10
308.7925382512056
 20
141.9847758491106
 30
0.0
 11
308.79253825120571
 21
168.98477584911069
 31
0.0
  0
LINE
  5
2A1
  8
0
 62
     7
 10
296.54253825120571
 20
161.1545652273343
 30
0.0
 11
296.54253825120571
 21
149.81498647088691
 31
0.0
  0
LINE
  5
2A2
  8
0
 62
     7
 10
295.64253825120562
 20
161.15456522733439
 30
0.0
 11
295.64253825120568
 21
149.81498647088679
 31
0.0
  0
LINE
  5
2A3
  8
0
 62
     7
 10
295.64253825120562
 20
151.4847758491106
 30
0.0
 11
294.54253825120588
 21
151.48477584911069
 31
0.0
  0
LINE
  5
2A4
  8
0
 62
     7
 10
294.04253825120571
 20
151.98477584911069
 30
0.0
 11
294.54253825120588
 21
151.48477584911069
 31
0.0
  0
LINE
  5
2A5
  8
0
 62
     7
 10
296.79253825120571
 20
151.4847758491106
 30
0.0
 11
296.54253825120571
 21
151.4847758491106
 31
0.0
  0
LINE
  5
2A6
  8
0
 62
     7
 10
296.54253825120571
 20
149.81498647088691
 30
0.0
 11
295.64253825120568
 21
149.81498647088679
 31
0.0
  0
LINE
  5
2A7
  8
0
 62
     7
 10
296.54253825120571
 20
156.16404972098249
 30
0.0
 11
295.64253825120562
 21
156.16404972098249
 31
0.0
  0
LINE
  5
2A8
  8
0
 62
     7
 10
296.54253825120571
 20
154.80550197723881
 30
0.0
 11
295.64253825120562
 21
154.80550197723869
 31
0.0
  0
LINE
  5
2A9
  8
0
 62
     7
 10
306.7925382512056
 20
143.9847758491106
 30
0.0
 11
308.7925382512056
 21
141.9847758491106
 31
0.0
  0
LINE
  5
2AA
  8
0
 62
     7
 10
301.79253825120571
 20
163.48477584911069
 30
0.0
 11
306.79253825120571
 21
163.48477584911069
 31
0.0
  0
LINE
  5
2AB
  8
0
 62
     7
 10
296.79253825120571
 20
165.48477584911069
 30
0.0
 11
301.79253825120571
 21
165.48477584911069
 31
0.0
  0
LINE
  5
2AC
  8
0
 62
     7
 10
295.64253825120562
 20
159.4847758491106
 30
0.0
 11
294.54253825120588
 21
159.4847758491106
 31
0.0
  0
LINE
  5
2AD
  8
0
 62
     7
 10
294.54253825120588
 20
159.4847758491106
 30
0.0
 11
294.04253825120571
 21
158.9847758491106
 31
0.0
  0
LINE
  5
2AF
  8
0
 62
     7
 10
296.54253825120571
 20
161.1545652273343
 30
0.0
 11
295.64253825120562
 21
161.15456522733439
 31
0.0
  0
LINE
  5
2B0
  8
0
 62
     7
 10
296.79253825120571
 20
159.4847758491106
 30
0.0
 11
296.54253825120571
 21
159.4847758491106
 31
0.0
  0
LINE
  5
2B1
  8
0
 62
     7
 10
308.79253825120571
 20
168.98477584911069
 30
0.0
 11
306.79253825120571
 21
166.98477584911069
 31
0.0
  0
SOLID
  5
2B2
  8
DIM
 10
297.04253825120571
 20
195.03369261236031
 30
0.0
 11
297.04253825120571
 21
194.03369261236031
 31
0.0
 12
294.04253825120571
 22
194.53369261236031
 32
0.0
 13
294.04253825120571
 23
194.53369261236031
 33
0.0
  0
LINE
  5
2B3
  8
DIM
 10
343.54253825120531
 20
160.98477584911069
 30
0.0
 11
343.54253825120531
 21
196.53369261236031
 31
0.0
  0
LINE
  5
2B4
  8
0
 62
     7
 10
343.54253825120531
 20
158.98477584911069
 30
0.0
 11
343.54253825120531
 21
151.98477584911069
 31
0.0
  0
LINE
  5
2B5
  8
0
 62
     7
 10
328.7925382512052
 20
168.98477584911069
 30
0.0
 11
328.79253825120531
 21
141.9847758491106
 31
0.0
  0
LINE
  5
2B6
  8
0
 62
     7
 10
341.04253825120531
 20
161.15456522733439
 30
0.0
 11
341.04253825120531
 21
149.81498647088691
 31
0.0
  0
LINE
  5
2B7
  8
0
 62
     7
 10
341.94253825120529
 20
161.15456522733439
 30
0.0
 11
341.94253825120529
 21
149.81498647088691
 31
0.0
  0
LINE
  5
2B8
  8
0
 62
     7
 10
330.79253825120531
 20
143.9847758491106
 30
0.0
 11
328.79253825120531
 21
141.9847758491106
 31
0.0
  0
LINE
  5
2B9
  8
0
 62
     7
 10
341.04253825120531
 20
149.81498647088691
 30
0.0
 11
341.94253825120529
 21
149.81498647088691
 31
0.0
  0
LINE
  5
2BA
  8
0
 62
     7
 10
340.79253825120509
 20
151.48477584911069
 30
0.0
 11
341.04253825120531
 21
151.48477584911069
 31
0.0
  0
LINE
  5
2BB
  8
0
 62
     7
 10
341.94253825120529
 20
151.48477584911069
 30
0.0
 11
343.04253825120531
 21
151.48477584911069
 31
0.0
  0
LINE
  5
2BC
  8
0
 62
     7
 10
343.54253825120531
 20
151.98477584911069
 30
0.0
 11
343.04253825120531
 21
151.48477584911069
 31
0.0
  0
LINE
  5
2BD
  8
0
 62
     7
 10
341.04253825120531
 20
156.16404972098249
 30
0.0
 11
341.94253825120529
 21
156.1640497209826
 31
0.0
  0
LINE
  5
2BE
  8
0
 62
     7
 10
341.04253825120531
 20
154.80550197723881
 30
0.0
 11
341.94253825120529
 21
154.80550197723881
 31
0.0
  0
LINE
  5
2BF
  8
0
 62
     7
 10
335.79253825120531
 20
165.48477584911069
 30
0.0
 11
340.79253825120531
 21
165.48477584911069
 31
0.0
  0
LINE
  5
2C0
  8
0
 62
     7
 10
328.7925382512052
 20
168.98477584911069
 30
0.0
 11
330.7925382512052
 21
166.98477584911069
 31
0.0
  0
LINE
  5
2C1
  8
0
 62
     7
 10
330.79253825120531
 20
163.48477584911069
 30
0.0
 11
335.79253825120531
 21
163.48477584911069
 31
0.0
  0
LINE
  5
2C2
  8
0
 62
     7
 10
341.04253825120531
 20
161.15456522733439
 30
0.0
 11
341.94253825120529
 21
161.15456522733439
 31
0.0
  0
LINE
  5
2C3
  8
0
 62
     7
 10
340.79253825120509
 20
159.4847758491106
 30
0.0
 11
341.04253825120531
 21
159.4847758491106
 31
0.0
  0
LINE
  5
2C4
  8
0
 62
     7
 10
341.94253825120529
 20
159.48477584911069
 30
0.0
 11
343.04253825120509
 21
159.48477584911069
 31
0.0
  0
LINE
  5
2C5
  8
0
 62
     7
 10
343.04253825120509
 20
159.48477584911069
 30
0.0
 11
343.54253825120531
 21
158.98477584911069
 31
0.0
  0
SOLID
  5
2C7
  8
DIM
 10
340.54253825120531
 20
195.03369261236031
 30
0.0
 11
340.54253825120531
 21
194.03369261236031
 31
0.0
 12
343.54253825120531
 22
194.53369261236031
 32
0.0
 13
343.54253825120531
 23
194.53369261236031
 33
0.0
  0
LINE
  5
2C9
  8
0
 62
     4
 10
9.4543428719093754
 20
209.54278747412789
 30
0.0
 11
392.3465185689725
 21
209.54278747412809
 31
0.0
  0
LINE
  5
2CA
  8
0
 62
     4
 10
9.4543428719093754
 20
9.1232876712328732
 30
0.0
 11
9.4543428719093754
 21
209.54278747412789
 31
0.0
  0
TEXT
  5
4F2
  8
LOGO
 62
     6
 10
359.39246703417808
 20
-37.157358845978841
 30
0.0
 40
8.4146630031293892
  1
行程
 41
0.9
  7
CHINESET
 72
     4
 11
366.96566373699449
 21
-32.950027344414138
 31
0.0
  0
LINE
  5
4F3
  8
LOGO
 62
     6
 10
388.6948671109547
 20
-48.727520475281693
 30
0.0
 11
345.23646036303433
 21
-48.72752047528175
 31
0.0
  0
LINE
  5
4F4
  8
LOGO
 62
     6
 10
388.6948671109547
 20
-25.587197216675861
 30
0.0
 11
345.23646036303433
 21
-25.587197216675861
 31
0.0
  0
TEXT
  5
4F5
  8
LOGO
  6
CONTINUOUS
 62
     6
 10
357.44908057869338
 20
-46.09793828680381
 30
0.0
 40
5.2591643769558694
  1
Stroke
 41
0.8
  7
CHINESET
 72
     4
 11
366.96566373699449
 21
-43.46835609832587
 31
0.0
  0
TEXT
  5
4F6
  8
LOGO
  6
CONTINUOUS
 62
     7
 10
359.43253712893511
 20
-12.032648347449079
 30
0.0
 40
10.51832875391173
  1
30
  7
CHINESET
 72
     1
 11
367.9473746916255
 21
-6.7734839704932126
 31
0.0
 73
     2
  0
LINE
  5
4F7
  8
LOGO
 62
     6
 10
384.48753560939002
 20
2.81229041888583
 30
0.0
 11
349.44379186459901
 21
2.81229041888583
 31
0.0
  0
LINE
  5
4F8
  8
LOGO
 62
     6
 10
384.48753560938991
 20
-16.12070133815531
 30
0.0
 11
349.44379186459901
 21
-16.120701338155289
 31
0.0
  0
LINE
  5
4F9
  8
LOGO
 62
     1
 10
392.34651856897261
 20
9.1232876712328732
 30
0.0
 11
9.4543428719093754
 21
9.1232876712328732
 31
0.0
  0
LINE
  5
4FA
  8
LOGO
 62
     1
 10
392.34651856897261
 20
-53.986684852237552
 30
0.0
 11
9.4543428719093754
 21
-53.986684852237552
 31
0.0
  0
LINE
  5
4FB
  8
LOGO
  6
CONTINUOUS
 62
     6
 10
129.44812708358131
 20
-7.6492414602059924
 30
0.0
 11
140.9355397175708
 21
-6.1318912676596176
 31
0.0
  0
LINE
  5
4FC
  8
LOGO
  6
CONTINUOUS
 62
     6
 10
129.44812708358131
 20
-11.943168172799551
 30
0.0
 11
140.9355397175708
 21
-13.460518365345941
 31
0.0
  0
LINE
  5
4FD
  8
LOGO
 62
     1
 10
148.2962824235442
 20
-3.498706833461211
 30
0.0
 11
55.734989389121019
 21
-3.498706833461211
 31
0.0
  0
LINE
  5
4FE
  8
LOGO
 62
     1
 10
148.2962824235442
 20
-16.120701338155289
 30
0.0
 11
55.734989389121019
 21
-16.120701338155289
 31
0.0
  0
TEXT
  5
4FF
  8
LOGO
 62
     6
 10
115.69050388615069
 20
-0.3432082072876903
 30
0.0
 40
6.3109972523470423
  1
1 : 1
  7
CHINESET
 72
     1
 11
126.80987999742879
 21
2.81229041888583
 31
0.0
 73
     2
  0
TEXT
  5
500
  8
LOGO
 62
     6
 10
115.69050388615069
 20
-25.587197216675861
 30
0.0
 40
6.3109972523470423
  1
m/m
  7
CHINESET
 72
     1
 11
126.80987999742879
 21
-22.431698590502339
 31
0.0
 73
     2
  0
LINE
  5
501
  8
LOGO
 62
     1
 10
148.2962824235442
 20
-28.742695842849312
 30
0.0
 11
9.4543428719093132
 21
-28.742695842849312
 31
0.0
  0
TEXT
  5
502
  8
LOGO
  6
CONTINUOUS
 62
     5
 10
11.52003882815028
 20
-41.588825991254581
 30
0.0
 40
9.4664958785205648
  1
金器工業股份有限公司
 41
0.8
  7
LOGO
  0
TEXT
  5
503
  8
LOGO
  6
CONTINUOUS
 62
     5
 10
14.23067228316703
 20
-51.057176560765399
 30
0.0
 40
6.3109972523470423
  1
MINDMAN INDUSTRIAL CO.,LTD
 41
0.85
  7
CHINESET
  0
SOLID
  5
504
  8
LOGO
 62
     5
 10
16.002103805022159
 20
-18.251561210544121
 30
0.0
 11
18.730813416368989
 21
-18.251561210545031
 31
0.0
 12
30.116119036127841
 22
7.6241333798154933
 32
0.0
 13
32.844828647474444
 23
7.6241333798136983
 33
0.0
  0
SOLID
  5
505
  8
LOGO
 62
     5
 10
19.859934634859059
 20
-18.251561210544121
 30
0.0
 11
22.58864424620565
 21
-18.251561210544121
 31
0.0
 12
32.844828647474444
 22
5.5540778125857839
 32
0.0
 13
30.116119036127841
 23
-4.451190762353586
 33
0.0
  0
SOLID
  5
506
  8
LOGO
 62
     2
 10
18.730813416368989
 20
-18.251561210545031
 30
0.0
 11
19.859934634859059
 21
-18.251561210544121
 31
0.0
 12
32.844828647474444
 22
7.6241333798136983
 32
0.0
 13
33.973949865963668
 23
7.6241333798136983
 33
0.0
  0
SOLID
  5
507
  8
LOGO
 62
     5
 10
18.8086705590107
 20
-22.956232954245952
 30
0.0
 11
19.749604907750111
 21
-22.956232954245952
 31
0.0
 12
18.8086705590107
 22
-27.660904697946901
 32
0.0
 13
19.749604907750111
 23
-27.660904697946901
 33
0.0
  0
SOLID
  5
508
  8
LOGO
 62
     5
 10
11.62731313646889
 20
-27.660904697946901
 30
0.0
 11
12.568247485210209
 21
-27.660904697946901
 31
0.0
 12
15.217991847739199
 22
-22.956232954245952
 32
0.0
 13
16.158926196478841
 23
-22.956232954245952
 33
0.0
  0
SOLID
  5
509
  8
LOGO
 62
     5
 10
15.217991847739199
 20
-22.956232954245952
 30
0.0
 11
16.158926196478841
 21
-22.956232954245952
 31
0.0
 12
15.217991847739199
 22
-27.660904697946901
 32
0.0
 13
16.158926196478841
 23
-27.660904697946901
 33
0.0
  0
SOLID
  5
50A
  8
LOGO
 62
     5
 10
15.217991847739199
 20
-27.660904697946901
 30
0.0
 11
16.158926196478841
 21
-27.660904697946901
 31
0.0
 12
18.8086705590107
 22
-22.956232954245952
 32
0.0
 13
19.749604907750111
 23
-22.956232954245952
 33
0.0
  0
LINE
  5
50B
  8
LOGO
 62
     1
 10
9.4543428719093754
 20
-53.986684852237552
 30
0.0
 11
9.4543428719093754
 21
9.1232876712328732
 31
0.0
  0
TEXT
  5
50C
  8
LOGO
 62
     6
 10
60.93874471281967
 20
-0.3401024015532683
 30
0.0
 40
6.3109972523470423
  1
比例 Scale:
 41
0.9
  7
CHINESET
 72
     4
 11
80.978978398509184
 21
2.81229041888583
 31
0.0
  0
TEXT
  5
50D
  8
LOGO
 62
     6
 10
63.144776341653483
 20
-12.87642843140619
 30
0.0
 40
6.3109972523470423
  1
投影 View:
 41
0.9
  7
CHINESET
 72
     4
 11
80.978978398509184
 21
-9.8097040858082565
 31
0.0
  0
TEXT
  5
50E
  8
LOGO
 62
     6
 10
63.761789019449907
 20
-25.587197216675861
 30
0.0
 40
6.3109972523470423
  1
單位 Unit:
 41
0.9
  7
CHINESET
 72
     4
 11
80.978978398509184
 21
-22.431698590502339
 31
0.0
  0
POLYLINE
  5
50F
  8
LOGO
 62
     5
 66
     1
 10
0.0
 20
0.0
 30
0.0
 70
     1
 40
0.9424422563504917
 41
0.9424422563504917
  0
VERTEX
  5
570
  8
LOGO
 62
     5
 10
41.71802291766096
 20
-25.308568826096892
 30
0.0
 42
1.0
  0
VERTEX
  5
571
  8
LOGO
 62
     5
 10
45.487791943062867
 20
-25.308568826096892
 30
0.0
 42
1.0
  0
SEQEND
  5
572
  8
LOGO
 62
     5
  0
LINE
  5
510
  8
LOGO
 62
     5
 10
50.816674708414872
 20
-27.660904697946901
 30
0.0
 11
50.816674708414872
 21
-24.83810165172671
 31
0.0
  0
SOLID
  5
511
  8
LOGO
 62
     5
 10
45.014214860039672
 20
-22.956232954245952
 30
0.0
 11
45.955149208779197
 21
-22.956232954245952
 31
0.0
 12
45.014214860039672
 22
-27.660904697946901
 32
0.0
 13
45.955149208779197
 23
-27.660904697946901
 33
0.0
  0
SOLID
  5
512
  8
LOGO
 62
     5
 10
47.05293731345342
 20
-27.660904697946901
 30
0.0
 11
47.993871662194621
 21
-27.660904697946901
 31
0.0
 12
47.05293731345342
 22
-22.956232954245952
 32
0.0
 13
47.993871662194621
 23
-22.956232954245952
 33
0.0
  0
SOLID
  5
513
  8
LOGO
 62
     5
 10
49.875740359675468
 20
-24.83810165172671
 30
0.0
 11
50.816674708414872
 21
-24.838101651726841
 31
0.0
 12
49.875740359675468
 22
-27.660904697946901
 32
0.0
 13
50.816674708414872
 23
-27.660904697946901
 33
0.0
  0
SOLID
  5
514
  8
LOGO
 62
     5
 10
31.527426465804101
 20
-21.54483143113497
 30
0.0
 11
32.468360814543502
 21
-21.54483143113497
 31
0.0
 12
31.527426465804101
 22
-27.660904697946901
 32
0.0
 13
32.468360814543502
 23
-27.660904697946901
 33
0.0
  0
SOLID
  5
515
  8
LOGO
 62
     5
 10
33.566148919220481
 20
-22.956232954245952
 30
0.0
 11
34.507083267960013
 21
-22.956232954245952
 31
0.0
 12
33.566148919220481
 22
-27.660904697946901
 32
0.0
 13
34.507083267960013
 23
-27.660904697946901
 33
0.0
  0
SOLID
  5
516
  8
LOGO
 62
     5
 10
36.388951965440739
 20
-24.83810165172671
 30
0.0
 11
37.329886314180271
 21
-24.83810165172671
 31
0.0
 12
36.388951965440739
 22
-27.660904697946901
 32
0.0
 13
37.329886314180271
 23
-27.660904697946901
 33
0.0
  0
SOLID
  5
517
  8
LOGO
 62
     5
 10
39.211755011661111
 20
-24.83810165172671
 30
0.0
 11
40.152689360400508
 21
-24.83810165172671
 31
0.0
 12
39.211755011661111
 22
-27.660904697948691
 32
0.0
 13
40.152689360400508
 23
-27.660904697948691
 33
0.0
  0
LINE
  5
518
  8
LOGO
 62
     1
 10
55.734989389121019
 20
-28.742695842849379
 30
0.0
 11
55.734989389121019
 21
9.1232876712328732
 31
0.0
  0
SOLID
  5
519
  8
LOGO
 62
     5
 10
22.90216357120612
 20
-22.956232954245952
 30
0.0
 11
23.843097919945532
 21
-22.956232954245952
 31
0.0
 12
22.90216357120612
 22
-27.660904697946901
 32
0.0
 13
23.843097919945532
 23
-27.660904697946901
 33
0.0
  0
SOLID
  5
51A
  8
LOGO
 62
     5
 10
25.72496661742613
 20
-24.83810165172671
 30
0.0
 11
26.665900966167332
 21
-24.83810165172671
 31
0.0
 12
25.72496661742613
 22
-27.660904697946901
 32
0.0
 13
26.665900966167332
 23
-27.660904697946901
 33
0.0
  0
SOLID
  5
51B
  8
LOGO
 62
     5
 10
20.863441117789499
 20
-22.956232954245952
 30
0.0
 11
21.80437546653166
 21
-22.956232954245952
 31
0.0
 12
20.863441117789499
 22
-27.660904697948691
 32
0.0
 13
21.80437546653166
 23
-27.660904697946901
 33
0.0
  0
POLYLINE
  5
51C
  8
LOGO
 62
     5
 66
     1
 10
0.0
 20
0.0
 30
0.0
 70
     1
 40
0.9424422563504917
 41
0.9424422563504917
  0
VERTEX
  5
573
  8
LOGO
 62
     5
 10
28.231234523426231
 20
-25.308568826096892
 30
0.0
 42
1.0
  0
VERTEX
  5
574
  8
LOGO
 62
     5
 10
32.001003548828258
 20
-25.308568826096892
 30
0.0
 42
1.0
  0
SEQEND
  5
575
  8
LOGO
 62
     5
  0
POLYLINE
  5
51D
  8
LOGO
 62
     5
 66
     1
 10
0.0
 20
0.0
 30
0.0
 40
0.9424422563504917
 41
0.9424422563504917
  0
VERTEX
  5
576
  8
LOGO
 62
     5
 10
50.348469395460889
 20
-24.838101651726699
 30
0.0
 42
1.0
  0
VERTEX
  5
577
  8
LOGO
 62
     5
 10
47.521142626409308
 20
-24.838101651726699
 30
0.0
 42
1.0
  0
SEQEND
  5
578
  8
LOGO
 62
     5
  0
SOLID
  5
51E
  8
LOGO
 62
     5
 10
48.08796509706827
 20
-18.251561210545031
 30
0.0
 11
50.816674708414872
 21
-18.251561210545031
 31
0.0
 12
48.08796509706827
 22
7.6241333798136983
 32
0.0
 13
50.816674708414872
 23
7.6241333798154933
 33
0.0
  0
SOLID
  5
51F
  8
LOGO
 62
     5
 10
33.973949865963668
 20
7.6241333798136983
 30
0.0
 11
36.702659477310149
 21
7.6241333798154933
 31
0.0
 12
33.973949865963668
 22
-16.181505643316211
 32
0.0
 13
36.702659477310149
 23
-6.1762370683768353
 33
0.0
  0
SOLID
  5
520
  8
LOGO
 62
     5
 10
33.973949865963668
 20
-16.181505643316211
 30
0.0
 11
36.702659477310149
 21
-6.1762370683768353
 31
0.0
 12
46.958843878579053
 22
7.6241333798154933
 32
0.0
 13
44.230134267232224
 23
7.6241333798154933
 33
0.0
  0
SOLID
  5
521
  8
LOGO
 62
     5
 10
46.958843878579053
 20
5.5540778125857839
 30
0.0
 11
44.230134267232224
 21
-4.451190762353586
 31
0.0
 12
46.958843878579053
 22
-18.251561210545031
 32
0.0
 13
44.230134267232224
 23
-18.251561210545031
 33
0.0
  0
SOLID
  5
522
  8
LOGO
 62
     2
 10
46.958843878579053
 20
7.6241333798154933
 30
0.0
 11
48.08796509706827
 21
7.6241333798136983
 31
0.0
 12
46.958843878579053
 22
-18.251561210545031
 32
0.0
 13
48.08796509706827
 23
-18.251561210545031
 33
0.0
  0
SOLID
  5
523
  8
LOGO
 62
     5
 10
30.116119036127841
 20
-18.251561210544121
 30
0.0
 11
32.844828647474444
 21
-18.251561210544121
 31
0.0
 12
30.116119036127841
 22
-4.451190762353586
 32
0.0
 13
32.844828647474444
 23
5.5540778125857839
 33
0.0
  0
SOLID
  5
524
  8
LOGO
 62
     2
 10
32.844828647474444
 20
7.6241333798136983
 30
0.0
 11
33.973949865963668
 21
7.6241333798136983
 31
0.0
 12
32.844828647474444
 22
-18.251561210544121
 32
0.0
 13
33.973949865963668
 23
-18.251561210544121
 33
0.0
  0
SOLID
  5
525
  8
LOGO
 62
     5
 10
33.973949865963668
 20
-18.251561210544121
 30
0.0
 11
36.702659477310149
 21
-18.251561210544121
 31
0.0
 12
46.958843878579053
 22
5.5540778125857839
 32
0.0
 13
44.230134267232224
 23
-4.451190762353586
 33
0.0
  0
SOLID
  5
526
  8
LOGO
 62
     2
 10
32.844828647474444
 20
-18.251561210544121
 30
0.0
 11
33.973949865963668
 21
-18.251561210544121
 31
0.0
 12
46.958843878579053
 22
7.6241333798154933
 32
0.0
 13
48.08796509706827
 23
7.6241333798136983
 33
0.0
  0
POLYLINE
  5
527
  8
LOGO
 62
     5
 66
     1
 10
0.0
 20
0.0
 30
0.0
 40
0.9424422563504917
 41
0.9424422563504917
  0
VERTEX
  5
579
  8
LOGO
 62
     5
 10
36.861681001226167
 20
-24.838101651726699
 30
0.0
 42
1.0
  0
VERTEX
  5
57A
  8
LOGO
 62
     5
 10
34.034354232174579
 20
-24.838101651726699
 30
0.0
 42
1.0
  0
SEQEND
  5
57B
  8
LOGO
 62
     5
  0
POLYLINE
  5
528
  8
LOGO
 62
     5
 66
     1
 10
0.0
 20
0.0
 30
0.0
 40
0.9424422563504917
 41
0.9424422563504917
  0
VERTEX
  5
57C
  8
LOGO
 62
     5
 10
26.197695653211809
 20
-24.838101651726699
 30
0.0
 42
1.0
  0
VERTEX
  5
57D
  8
LOGO
 62
     5
 10
23.370368884160222
 20
-24.838101651726699
 30
0.0
 42
1.0
  0
SEQEND
  5
57E
  8
LOGO
 62
     5
  0
SOLID
  5
529
  8
LOGO
 62
     5
 10
20.863441117789499
 20
-22.297578910128141
 30
0.0
 11
21.80437546653166
 21
-22.297578910128141
 31
0.0
 12
20.863441117789499
 22
-21.54483143113497
 32
0.0
 13
21.80437546653166
 23
-21.54483143113497
 33
0.0
  0
POLYLINE
  5
52A
  8
LOGO
 62
     5
 66
     1
 10
0.0
 20
0.0
 30
0.0
 70
     1
  0
VERTEX
  5
57F
  8
LOGO
 62
     5
 10
42.191505907251781
 20
-25.30856882609644
 30
0.0
 42
1.0000000573306349
  0
VERTEX
  5
580
  8
LOGO
 62
     5
 10
45.01430895347324
 20
-25.30856882609644
 30
0.0
 42
1.0000000573306349
  0
SEQEND
  5
581
  8
LOGO
 62
     5
  0
CIRCLE
  5
52B
  8
LOGO
 62
     5
 10
43.602907430362457
 20
-25.30856882609644
 30
0.0
 40
1.4114015231104959
  0
POLYLINE
  5
52C
  8
LOGO
 62
     5
 66
     1
 10
0.0
 20
0.0
 30
0.0
 40
0.9424422563504917
 41
0.9424422563504917
  0
VERTEX
  5
582
  8
LOGO
 62
     5
 10
39.684484047446411
 20
-24.838101651726699
 30
0.0
 42
1.0
  0
VERTEX
  5
583
  8
LOGO
 62
     5
 10
36.857157278394837
 20
-24.838101651726699
 30
0.0
 42
1.0
  0
SEQEND
  5
584
  8
LOGO
 62
     5
  0
LINE
  5
52D
  8
LOGO
 62
     1
 10
106.2229674078973
 20
-28.742695842849379
 30
0.0
 11
106.2229674078973
 21
9.1232876712328732
 31
0.0
  0
CIRCLE
  5
52E
  8
LOGO
  6
CONTINUOUS
 62
     6
 10
117.9085681876762
 20
-9.7962048165027866
 30
0.0
 40
3.6643135488431642
  0
CIRCLE
  5
52F
  8
LOGO
  6
CONTINUOUS
 62
     6
 10
117.9085681876762
 20
-9.7962048165027866
 30
0.0
 40
2.1469633562967849
  0
LINE
  5
530
  8
LOGO
 62
     6
 10
129.4481270835814
 20
-11.94316817279956
 30
0.0
 11
129.44812708358131
 21
-7.6492414602059737
 31
0.0
  0
TEXT
  5
531
  8
LOGO
  6
CONTINUOUS
 62
     6
 10
250.3277817200883
 20
-46.097938286803753
 30
0.0
 40
5.2591643769558694
  1
Model
  7
CHINESET
 72
     4
 11
260.34523767619459
 21
-43.46835609832582
 31
0.0
  0
TEXT
  5
532
  8
LOGO
  6
CONTINUOUS
 62
     7
 10
242.0633805563005
 20
-11.913369836590601
 30
0.0
 40
10.51832875391173
  1
MSLL
  7
CHINESET
 72
     1
 11
260.34523767619459
 21
-6.6542054596347331
 31
0.0
 73
     2
  0
LINE
  5
533
  8
LOGO
 62
     6
 10
285.58922668558279
 20
2.81229041888583
 30
0.0
 11
235.10124866680661
 21
2.81229041888583
 31
0.0
  0
LINE
  5
534
  8
LOGO
 62
     6
 10
285.58922668558279
 20
-16.120701338155289
 30
0.0
 11
235.10124866680661
 21
-16.120701338155289
 31
0.0
  0
LINE
  5
535
  8
LOGO
 62
     6
 10
281.38189518401822
 20
-25.587197216675861
 30
0.0
 11
239.30858016837121
 21
-25.587197216675861
 31
0.0
  0
LINE
  5
536
  8
LOGO
 62
     6
 10
281.38189518401822
 20
-48.7275204752817
 30
0.0
 11
239.30858016837121
 21
-48.72752047528175
 31
0.0
  0
TEXT
  5
537
  8
LOGO
 62
     7
 10
153.4621421684935
 20
-6.6780141531515538
 30
0.0
 40
12.621994504694079
  1
訂購代號:
  7
CHINESET
  0
TEXT
  5
538
  8
LOGO
 62
     7
 10
151.95248203930029
 20
-18.524117383351548
 30
0.0
 40
8.4146630031293892
  1
Order example:
 41
0.8
  7
CHINESET
  0
LINE
  5
539
  8
LOGO
 62
     1
 10
148.2962824235442
 20
-53.986684852237552
 30
0.0
 11
148.2962824235442
 21
9.1232876712328732
 31
0.0
  0
LINE
  5
53A
  8
LOGO
 62
     6
 10
140.9355397175708
 20
-13.460518365345941
 30
0.0
 11
140.9355397175708
 21
-6.1318912676596176
 31
0.0
  0
LINE
  5
53B
  8
LOGO
 62
     6
 10
239.30858016837121
 20
-25.587197216675861
 30
0.0
 11
239.30858016837121
 21
-48.72752047528175
 31
0.0
  0
LINE
  5
53C
  8
LOGO
 62
     6
 10
235.10124866680661
 20
2.81229041888583
 30
0.0
 11
235.10124866680661
 21
-16.120701338155289
 31
0.0
  0
TEXT
  5
53D
  8
LOGO
  6
CONTINUOUS
 62
     7
 10
310.12690669850468
 20
-12.03264834744896
 30
0.0
 40
10.51832875391173
  1
25
  7
CHINESET
 72
     1
 11
318.64174426119519
 21
-6.7734839704930936
 31
0.0
 73
     2
  0
LINE
  5
53E
  8
LOGO
 62
     6
 10
334.54763507946899
 20
-48.727520475281572
 30
0.0
 11
300.77243153365902
 21
-48.727520475281622
 31
0.0
  0
LINE
  5
53F
  8
LOGO
 62
     6
 10
334.54763507946899
 20
-16.120701338155168
 30
0.0
 11
300.77243153365902
 21
-16.120701338155168
 31
0.0
  0
LINE
  5
540
  8
LOGO
 62
     6
 10
334.54763507946899
 20
-25.58719721667574
 30
0.0
 11
300.77243153365902
 21
-25.58719721667574
 31
0.0
  0
LINE
  5
541
  8
LOGO
 62
     6
 10
334.54763507946899
 20
2.8122904188860689
 30
0.0
 11
300.77243153365902
 21
2.812290418885949
 31
0.0
  0
LINE
  5
542
  8
LOGO
 62
     6
 10
300.77243153365902
 20
-25.58719721667574
 30
0.0
 11
300.77243153365902
 21
-48.727520475281572
 31
0.0
  0
LINE
  5
543
  8
LOGO
 62
     6
 10
281.38189518401822
 20
-25.587197216675861
 30
0.0
 11
281.38189518401822
 21
-48.727520475281693
 31
0.0
  0
TEXT
  5
544
  8
LOGO
 62
     6
 10
251.93057467306519
 20
-36.942022981725458
 30
0.0
 40
8.4146630031293892
  1
型式
  7
CHINESET
 72
     4
 11
260.34523767619459
 21
-32.950027344414082
 31
0.0
  0
LINE
  5
545
  8
LOGO
 62
     6
 10
260.34523767619459
 20
-16.120701338155289
 30
0.0
 11
260.34523767619459
 21
-25.587197216675861
 31
0.0
  0
LINE
  5
546
  8
LOGO
 62
     6
 10
300.77243153365902
 20
2.812290418885949
 30
0.0
 11
300.77243153365902
 21
-16.120701338155168
 31
0.0
  0
LINE
  5
547
  8
LOGO
 62
     6
 10
285.5892266855829
 20
2.81229041888583
 30
0.0
 11
285.5892266855829
 21
-16.120701338155289
 31
0.0
  0
LINE
  5
548
  8
LOGO
  6
CONTINUOUS
 62
     7
 10
289.13814469390752
 20
-6.721269108558011
 30
0.0
 11
297.49826301964492
 21
-6.721269108558011
 31
0.0
  0
LINE
  5
549
  8
LOGO
 62
     6
 10
345.23646036303433
 20
-25.587197216675861
 30
0.0
 11
345.23646036303433
 21
-48.72752047528175
 31
0.0
  0
LINE
  5
54A
  8
LOGO
 62
     6
 10
334.54763507946899
 20
-25.58719721667574
 30
0.0
 11
334.54763507946899
 21
-48.727520475281509
 31
0.0
  0
TEXT
  5
54B
  8
LOGO
  6
CONTINUOUS
 62
     6
 10
311.14868693509482
 20
-46.097938286803689
 30
0.0
 40
5.2591643769558694
  1
Bore
 41
0.8
  7
CHINESET
 72
     4
 11
317.660033306564
 21
-43.468356098325749
 31
0.0
  0
TEXT
  5
54C
  8
LOGO
 62
     6
 10
309.61351180982149
 20
-37.157358845978713
 30
0.0
 40
8.4146630031293892
  1
內徑
 41
0.9
  7
CHINESET
 72
     4
 11
317.660033306564
 21
-32.950027344414018
 31
0.0
  0
LINE
  5
54D
  8
LOGO
  6
CONTINUOUS
 62
     7
 10
337.80950502484768
 20
-6.7212691085578919
 30
0.0
 11
346.16962335058503
 21
-6.7212691085578919
 31
0.0
  0
LINE
  5
54E
  8
LOGO
 62
     6
 10
334.54763507946899
 20
2.8122904188860689
 30
0.0
 11
334.54763507946899
 21
-16.120701338155168
 31
0.0
  0
LINE
  5
54F
  8
LOGO
 62
     6
 10
317.66003282149131
 20
-16.120701338155168
 30
0.0
 11
317.66003282149131
 21
-25.58719721667574
 31
0.0
  0
LINE
  5
550
  8
LOGO
 62
     6
 10
349.44379186459912
 20
2.81229041888583
 30
0.0
 11
349.44379186459901
 21
-16.120701338155289
 31
0.0
  0
LINE
  5
551
  8
LOGO
 62
     6
 10
367.411201042031
 20
-16.120701338155289
 30
0.0
 11
367.411201042031
 21
-25.587197216675861
 31
0.0
  0
LINE
  5
552
  8
LOGO
 62
     6
 10
388.6948671109547
 20
-25.587197216675861
 30
0.0
 11
388.6948671109547
 21
-48.814774837806702
 31
0.0
  0
LINE
  5
553
  8
LOGO
 62
     6
 10
384.48753560939002
 20
2.81229041888583
 30
0.0
 11
384.48753560938991
 21
-16.12070133815531
 31
0.0
  0
LINE
  5
554
  8
LOGO
 62
     1
 10
392.34651856897261
 20
-53.986684852237552
 30
0.0
 11
392.34651856897261
 21
9.1232876712328732
 31
0.0
  0
ENDSEC
  0
EOF
