  0
SECTION
  2
HEADER
  9
$ACADVER
  1
AC1009
  9
$INSBASE
 10
0.0
 20
0.0
 30
0.0
  9
$EXTMIN
 10
7.1178238271913861
 20
14.481964889572049
 30
-0.0000000349181948
  9
$EXTMAX
 10
522.34296719727536
 20
592.42163514253843
 30
0.0000000814935746
  9
$LIMMIN
 10
0.0
 20
0.0
  9
$LIMMAX
 10
340.0
 20
270.0
  9
$ORTHOMODE
 70
     1
  9
$REGENMODE
 70
     1
  9
$FILLMODE
 70
     1
  9
$QTEXTMODE
 70
     0
  9
$MIRRTEXT
 70
     1
  9
$DRAGMODE
 70
     2
  9
$LTSCALE
 40
6.0
  9
$OSMODE
 70
    39
  9
$ATTMODE
 70
     1
  9
$TEXTSIZE
 40
4.0
  9
$TRACEWID
 40
0.05
  9
$TEXTSTYLE
  7
CHINESET
  9
$CLAYER
  8
0
  9
$CELTYPE
  6
BYLAYER
  9
$CECOLOR
 62
   256
  9
$DIMSCALE
 40
2.0
  9
$DIMASZ
 40
3.0
  9
$DIMEXO
 40
2.0
  9
$DIMDLI
 40
7.0
  9
$DIMRND
 40
0.0
  9
$DIMDLE
 40
0.0
  9
$DIMEXE
 40
2.0
  9
$DIMTP
 40
0.0
  9
$DIMTM
 40
0.0
  9
$DIMTXT
 40
3.0
  9
$DIMCEN
 40
-2.0
  9
$DIMTSZ
 40
0.0
  9
$DIMTOL
 70
     0
  9
$DIMLIM
 70
     0
  9
$DIMTIH
 70
     0
  9
$DIMTOH
 70
     0
  9
$DIMSE1
 70
     0
  9
$DIMSE2
 70
     0
  9
$DIMTAD
 70
     1
  9
$DIMZIN
 70
     8
  9
$DIMBLK
  1

  9
$DIMASO
 70
     1
  9
$DIMSHO
 70
     1
  9
$DIMPOST
  1

  9
$DIMAPOST
  1

  9
$DIMALT
 70
     0
  9
$DIMALTD
 70
     2
  9
$DIMALTF
 40
25.399999999999999
  9
$DIMLFAC
 40
1.0
  9
$DIMTOFL
 70
     0
  9
$DIMTVP
 40
0.0
  9
$DIMTIX
 70
     0
  9
$DIMSOXD
 70
     0
  9
$DIMSAH
 70
     0
  9
$DIMBLK1
  1

  9
$DIMBLK2
  1

  9
$DIMSTYLE
  2
STANDARD
  9
$DIMCLRD
 70
   256
  9
$DIMCLRE
 70
   256
  9
$DIMCLRT
 70
   256
  9
$DIMTFAC
 40
1.0
  9
$DIMGAP
 40
1.0
  9
$LUNITS
 70
     2
  9
$LUPREC
 70
     2
  9
$SKETCHINC
 40
0.1
  9
$FILLETRAD
 40
0.0
  9
$AUNITS
 70
     0
  9
$AUPREC
 70
     0
  9
$MENU
  1
C:\CACAD\SUPPORT\ACAD
  9
$ELEVATION
 40
0.0
  9
$PELEVATION
 40
0.0
  9
$THICKNESS
 40
0.0
  9
$LIMCHECK
 70
     0
  9
$BLIPMODE
 70
     0
  9
$CHAMFERA
 40
1.0
  9
$CHAMFERB
 40
1.0
  9
$SKPOLY
 70
     0
  9
$TDCREATE
 40
2451089.4114951501
  9
$TDUPDATE
 40
2451925.4789323611
  9
$TDINDWG
 40
0.0101144329
  9
$TDUSRTIMER
 40
0.0101144329
  9
$USRTIMER
 70
     1
  9
$ANGBASE
 50
0.0
  9
$ANGDIR
 70
     0
  9
$PDMODE
 70
    65
  9
$PDSIZE
 40
3.0
  9
$PLINEWID
 40
0.0
  9
$COORDS
 70
     2
  9
$SPLFRAME
 70
     0
  9
$SPLINETYPE
 70
     6
  9
$SPLINESEGS
 70
     8
  9
$ATTDIA
 70
     0
  9
$ATTREQ
 70
     1
  9
$HANDLING
 70
 12289
  9
$HANDSEED
  5
D35
  9
$SURFTAB1
 70
     6
  9
$SURFTAB2
 70
     6
  9
$SURFTYPE
 70
     6
  9
$SURFU
 70
     6
  9
$SURFV
 70
     6
  9
$UCSNAME
  2

  9
$UCSORG
 10
0.0
 20
0.0
 30
0.0
  9
$UCSXDIR
 10
1.0
 20
0.0
 30
0.0
  9
$UCSYDIR
 10
0.0
 20
1.0
 30
0.0
  9
$PUCSNAME
  2

  9
$PUCSORG
 10
0.0
 20
0.0
 30
0.0
  9
$PUCSXDIR
 10
1.0
 20
0.0
 30
0.0
  9
$PUCSYDIR
 10
0.0
 20
1.0
 30
0.0
  9
$USERI1
 70
     0
  9
$USERI2
 70
     0
  9
$USERI3
 70
     0
  9
$USERI4
 70
     0
  9
$USERI5
 70
     0
  9
$USERR1
 40
0.0
  9
$USERR2
 40
0.0
  9
$USERR3
 40
0.0
  9
$USERR4
 40
0.0
  9
$USERR5
 40
0.0
  9
$WORLDVIEW
 70
     1
  9
$SHADEDGE
 70
     3
  9
$SHADEDIF
 70
    70
  9
$TILEMODE
 70
     1
  9
$MAXACTVP
 70
    16
  9
$PLIMCHECK
 70
     0
  9
$PEXTMIN
 10
1.0000000000000000E+020
 20
1.0000000000000000E+020
 30
1.0000000000000000E+020
  9
$PEXTMAX
 10
-1.0000000000000000E+020
 20
-1.0000000000000000E+020
 30
-1.0000000000000000E+020
  9
$PLIMMIN
 10
0.0
 20
0.0
  9
$PLIMMAX
 10
12.0
 20
9.0
  9
$UNITMODE
 70
     0
  9
$VISRETAIN
 70
     0
  9
$PLINEGEN
 70
     0
  9
$PSLTSCALE
 70
     0
  0
ENDSEC
  0
SECTION
  2
TABLES
  0
TABLE
  2
VPORT
 70
     4
  0
VPORT
  2
*ACTIVE
 70
     0
 10
0.0
 20
0.0
 11
1.0
 21
1.0
 12
264.73039551223332
 22
303.45180001605519
 13
0.0
 23
0.0
 14
1.0
 24
1.0
 15
0.0
 25
0.0
 16
0.0
 26
0.0
 36
1.0
 17
0.0
 27
0.0
 37
0.0
 40
584.31400485134463
 41
1.7274401473296499
 42
50.0
 43
0.0
 44
0.0
 50
0.0
 51
0.0
 71
     0
 72
 15000
 73
     1
 74
     1
 75
     0
 76
     0
 77
     0
 78
     1
  0
ENDTAB
  0
TABLE
  2
LTYPE
 70
     3
  0
LTYPE
  2
CONTINUOUS
 70
     0
  3
Solid line
 72
    65
 73
     0
 40
0.0
  0
LTYPE
  2
CENTER
 70
     0
  3
____ _ ____ _ ____ _ ____ _ ____ _ ____ _ ____ 
 72
    65
 73
     4
 40
2.0
 49
1.25
 49
-0.25
 49
0.25
 49
-0.25
  0
LTYPE
  2
HIDDEN
 70
     0
  3
_ _ _ _ _ _ _ _ _ _ _ _ _ _ _ _ _ _ _ _ _ _ _
 72
    65
 73
     2
 40
0.375
 49
0.25
 49
-0.125
  0
ENDTAB
  0
TABLE
  2
LAYER
 70
     7
  0
LAYER
  2
0
 70
     0
 62
     7
  6
CONTINUOUS
  0
LAYER
  2
DEFPOINTS
 70
     0
 62
     7
  6
CONTINUOUS
  0
LAYER
  2
LOGO
 70
     0
 62
     7
  6
CONTINUOUS
  0
LAYER
  2
CENTER
 70
     0
 62
     1
  6
CENTER
  0
LAYER
  2
HIDDEN
 70
     0
 62
     6
  6
HIDDEN
  0
LAYER
  2
DIM
 70
     0
 62
     5
  6
CONTINUOUS
  0
ENDTAB
  0
TABLE
  2
STYLE
 70
     3
  0
STYLE
  2
STANDARD
 70
     0
 40
0.0
 41
1.0
 50
0.0
 71
     0
 42
6.0
  3
txt
  4

  0
STYLE
  2
CHINESET
 70
     0
 40
0.0
 41
1.0
 50
0.0
 71
     0
 42
4.0
  3
simplex
  4
CHINESET.SHX
  0
STYLE
  2
LOGO
 70
     0
 40
0.0
 41
1.0
 50
0.0
 71
     0
 42
5.0
  3
txt
  4

  0
ENDTAB
  0
TABLE
  2
VIEW
 70
     0
  0
ENDTAB
  0
TABLE
  2
UCS
 70
     0
  0
ENDTAB
  0
TABLE
  2
APPID
 70
     2
  0
APPID
  2
ACAD
 70
     0
  0
APPID
  2
AVE_RENDER
 70
     0
  0
ENDTAB
  0
TABLE
  2
DIMSTYLE
 70
     1
  0
DIMSTYLE
  2
STANDARD
 70
     0
  3

  4

  5

  6

  7

 40
2.0
 41
3.0
 42
2.0
 43
7.0
 44
2.0
 45
0.0
 46
0.0
 47
0.0
 48
0.0
140
3.0
141
-2.0
142
0.0
143
25.399999999999999
144
1.0
145
0.0
146
1.0
147
1.0
 71
     0
 72
     0
 73
     0
 74
     0
 75
     0
 76
     0
 77
     1
 78
     8
170
     0
171
     2
172
     0
173
     0
174
     0
175
     0
176
   256
177
   256
178
   256
  0
ENDTAB
  0
ENDSEC
  0
SECTION
  2
BLOCKS
  0
BLOCK
  8
0
  2
$MODEL_SPACE
 70
     0
 10
0.0
 20
0.0
 30
0.0
  3
$MODEL_SPACE
  1

  0
ENDBLK
  5
AE1
  8
0
  0
BLOCK
 67
     1
  8
0
  2
$PAPER_SPACE
 70
     0
 10
0.0
 20
0.0
 30
0.0
  3
$PAPER_SPACE
  1

  0
ENDBLK
  5
ADF
 67
     1
  8
0
  0
BLOCK
  8
0
  2
*X0
 70
     1
 10
0.0
 20
0.0
 30
0.0
  3
*X0
  1

  0
LINE
  5
4D
  8
0
 62
     0
 10
98.446006509794444
 20
181.1774999086204
 30
0.0
 11
98.94020095674513
 21
181.67169435557119
 31
0.0
  0
LINE
  5
4E
  8
0
 62
     0
 10
96.324686166234798
 20
181.1774999086204
 30
0.0
 11
98.324686166234756
 21
183.1774999086204
 31
0.0
  0
LINE
  5
4F
  8
0
 62
     0
 10
94.203365822675167
 20
181.1774999086204
 30
0.0
 11
96.203365822675124
 21
183.1774999086204
 31
0.0
  0
LINE
  5
50
  8
0
 62
     0
 10
92.082045479115521
 20
181.1774999086204
 30
0.0
 11
94.082045479115479
 21
183.1774999086204
 31
0.0
  0
LINE
  5
51
  8
0
 62
     0
 10
89.960725135555876
 20
181.1774999086204
 30
0.0
 11
91.960725135555819
 21
183.1774999086204
 31
0.0
  0
LINE
  5
52
  8
0
 62
     0
 10
87.83940479199623
 20
181.1774999086204
 30
0.0
 11
89.839404791996188
 21
183.1774999086204
 31
0.0
  0
LINE
  5
53
  8
0
 62
     0
 10
85.718084448436585
 20
181.1774999086204
 30
0.0
 11
87.718084448436556
 21
183.1774999086204
 31
0.0
  0
LINE
  5
54
  8
0
 62
     0
 10
83.940200956745073
 20
181.52093676048861
 30
0.0
 11
85.596764104876911
 21
183.1774999086204
 31
0.0
  0
LINE
  5
55
  8
0
 62
     0
 10
83.940200956744633
 20
160.3077333248917
 30
0.0
 11
84.809967540473295
 21
161.1774999086204
 31
0.0
  0
LINE
  5
56
  8
0
 62
     0
 10
84.931287884032955
 20
159.1774999086204
 30
0.0
 11
86.931287884032926
 21
161.1774999086204
 31
0.0
  0
LINE
  5
57
  8
0
 62
     0
 10
87.052608227592614
 20
159.1774999086204
 30
0.0
 11
89.052608227592586
 21
161.1774999086204
 31
0.0
  0
LINE
  5
58
  8
0
 62
     0
 10
89.173928571152246
 20
159.1774999086204
 30
0.0
 11
91.173928571152217
 21
161.1774999086204
 31
0.0
  0
LINE
  5
59
  8
0
 62
     0
 10
91.295248914711905
 20
159.1774999086204
 30
0.0
 11
93.295248914711848
 21
161.1774999086204
 31
0.0
  0
LINE
  5
5A
  8
0
 62
     0
 10
93.416569258271537
 20
159.1774999086204
 30
0.0
 11
95.416569258271508
 21
161.1774999086204
 31
0.0
  0
LINE
  5
5B
  8
0
 62
     0
 10
95.537889601831168
 20
159.1774999086204
 30
0.0
 11
97.537889601831154
 21
161.1774999086204
 31
0.0
  0
LINE
  5
5C
  8
0
 62
     0
 10
97.659209945390828
 20
159.1774999086204
 30
0.0
 11
98.940200956744633
 21
160.4584909199742
 31
0.0
  0
ENDBLK
  5
5D
  8
0
  0
BLOCK
  8
0
  2
*X1
 70
     1
 10
0.0
 20
0.0
 30
0.0
  3
*X1
  1

  0
LINE
  5
5F
  8
0
 62
     0
 10
116.6836825272659
 20
316.08779482187231
 30
0.0
 11
118.4950240135117
 21
317.8991363081181
 31
0.0
  0
LINE
  5
60
  8
0
 62
     0
 10
112.13837584952689
 20
313.66380848769302
 30
0.0
 11
112.6836825272659
 21
314.20911516543191
 31
0.0
  0
LINE
  5
61
  8
0
 62
     0
 10
109.7776720595848
 20
313.42442504131043
 30
0.0
 11
112.6836825272659
 21
316.33043550899163
 31
0.0
  0
LINE
  5
62
  8
0
 62
     0
 10
107.4497634371515
 20
313.21783676243678
 30
0.0
 11
112.0159835343795
 21
317.78405685966482
 31
0.0
  0
LINE
  5
63
  8
0
 62
     0
 10
108.1354044904766
 20
316.02479815932162
 30
0.0
 11
110.08970228826119
 21
317.9790959571061
 31
0.0
  0
LINE
  5
64
  8
0
 62
     0
 10
106.97963194457419
 20
316.99034595697879
 30
0.0
 11
108.16879311136471
 21
318.17950712376933
 31
0.0
  0
LINE
  5
65
  8
0
 62
     0
 10
116.6836825272659
 20
313.96647447831259
 30
0.0
 11
120.86107566317909
 21
318.14386761422583
 31
0.0
  0
LINE
  5
66
  8
0
 62
     0
 10
118.38611479994709
 20
313.54758640743421
 30
0.0
 11
122.6836825272659
 21
317.84515413475287
 31
0.0
  0
LINE
  5
67
  8
0
 62
     0
 10
120.30950725422829
 20
313.34965851815582
 30
0.0
 11
121.7648170486398
 21
314.80496831256721
 31
0.0
  0
LINE
  5
68
  8
0
 62
     0
 10
122.29900584206899
 20
313.21783676243678
 30
0.0
 11
122.683682527266
 21
313.60251344763378
 31
0.0
  0
ENDBLK
  5
69
  8
0
  0
BLOCK
  8
0
  2
*X2
 70
     1
 10
0.0
 20
0.0
 30
0.0
  3
*X2
  1

  0
LINE
  5
6B
  8
0
 62
     0
 10
108.5955765987898
 20
278.30120408356117
 30
0.0
 11
112.683682527266
 21
282.38931001203741
 31
0.0
  0
LINE
  5
6C
  8
0
 62
     0
 10
106.683682527266
 20
278.51063035559702
 30
0.0
 11
111.0537903908734
 21
282.88073821920437
 31
0.0
  0
LINE
  5
6D
  8
0
 62
     0
 10
107.6531956245873
 20
281.60146379647801
 30
0.0
 11
109.1301956522627
 21
283.07846382415329
 31
0.0
  0
LINE
  5
6E
  8
0
 62
     0
 10
106.6836825272659
 20
282.75327104271622
 30
0.0
 11
107.1482482469865
 21
283.21783676243689
 31
0.0
  0
LINE
  5
6F
  8
0
 62
     0
 10
110.96125177927389
 20
278.54555892048569
 30
0.0
 11
112.6836825272659
 21
280.2679896684777
 31
0.0
  0
ENDBLK
  5
70
  8
0
  0
BLOCK
  8
0
  2
*X3
 70
     1
 10
0.0
 20
0.0
 30
0.0
  3
*X3
  1

  0
LINE
  5
72
  8
0
 62
     0
 10
119.350101402066
 20
278.44912716903912
 30
0.0
 11
121.252995240096
 21
280.3520210070692
 31
0.0
  0
LINE
  5
73
  8
0
 62
     0
 10
117.4240231942631
 20
278.64436930479599
 30
0.0
 11
121.9974906519039
 21
283.21783676243678
 31
0.0
  0
LINE
  5
74
  8
0
 62
     0
 10
116.6836825272659
 20
280.02534898135838
 30
0.0
 11
119.67879163348449
 21
283.02045808757703
 31
0.0
  0
LINE
  5
75
  8
0
 62
     0
 10
116.6836825272659
 20
282.14666932491809
 30
0.0
 11
117.317713958007
 21
282.7807007556591
 31
0.0
  0
LINE
  5
76
  8
0
 62
     0
 10
121.2708090450805
 20
278.24851446849402
 30
0.0
 11
122.4383807280708
 21
279.41608615148431
 31
0.0
  0
ENDBLK
  5
77
  8
0
  0
BLOCK
  8
0
  2
*X4
 70
     1
 10
0.0
 20
0.0
 30
0.0
  3
*X4
  1

  0
LINE
  5
79
  8
0
 62
     0
 10
77.356999146711615
 20
202.51489941673049
 30
0.0
 11
77.905732699237362
 21
203.06363296925619
 31
0.0
  0
LINE
  5
7A
  8
0
 62
     0
 10
76.026503712344791
 20
203.30572432592331
 30
0.0
 11
77.310010439908382
 21
204.58923105348691
 31
0.0
  0
ENDBLK
  5
7B
  8
0
  0
BLOCK
  8
0
  2
*D18
 70
     1
 10
0.0
 20
0.0
 30
0.0
  3
*D18
  1

  0
LINE
  5
B98
  8
DIM
 10
288.65896957836668
 20
430.18002459591628
 30
0.0
 11
324.90247962625762
 21
430.18002459591628
 31
0.0
  0
LINE
  5
B99
  8
DIM
 10
288.65896957836668
 20
564.18002195611621
 30
0.0
 11
324.90247962625762
 21
564.18002195611621
 31
0.0
  0
LINE
  5
B9A
  8
DIM
 10
320.90247962625762
 20
436.18002459591628
 30
0.0
 11
320.90247962625762
 21
558.18002195611632
 31
0.0
  0
SOLID
  5
B9B
  8
DIM
 10
319.90247962625762
 20
436.18002459591628
 30
0.0
 11
321.90247962625762
 21
436.18002459591628
 31
0.0
 12
320.90247962625762
 22
430.18002459591628
 32
0.0
 13
320.90247962625762
 23
430.18002459591628
 33
0.0
  0
SOLID
  5
B9C
  8
DIM
 10
319.90247962625762
 20
558.18002195611632
 30
0.0
 11
321.90247962625762
 21
558.18002195611632
 31
0.0
 12
320.90247962625762
 22
564.18002195611621
 32
0.0
 13
320.90247962625762
 23
564.18002195611621
 33
0.0
  0
TEXT
  5
B9D
  8
0
 10
318.9024796262575
 20
489.89430899030208
 30
0.0
 40
6.0
  1
134
 50
90.0
  7
CHINESET
  0
POINT
  5
B9E
  8
DEFPOINTS
 62
     0
 10
284.65896957836668
 20
430.18002459591628
 30
0.0
  0
POINT
  5
B9F
  8
DEFPOINTS
 62
     0
 10
284.65896957836668
 20
564.18002195611621
 30
0.0
  0
POINT
  5
BA0
  8
DEFPOINTS
 62
     0
 10
320.90247962625762
 20
564.18002195611621
 30
0.0
  0
ENDBLK
  5
B5A
  8
0
  0
BLOCK
  8
0
  2
*D19
 70
     1
 10
0.0
 20
0.0
 30
0.0
  3
*D19
  1

  0
LINE
  5
C4F
  8
DIM
 10
148.8129070768768
 20
291.3491305016849
 30
0.0
 11
36.775755307168261
 21
291.34913050168512
 31
0.0
  0
LINE
  5
C50
  8
DIM
 10
48.65897414726669
 20
165.3491329838848
 30
0.0
 11
36.775755307168239
 21
165.3491329838848
 31
0.0
  0
LINE
  5
C51
  8
DIM
 10
40.775755307168268
 20
285.34913050168501
 30
0.0
 11
40.775755307168232
 21
171.3491329838848
 31
0.0
  0
SOLID
  5
C52
  8
DIM
 10
39.775755307168261
 20
285.34913050168501
 30
0.0
 11
41.775755307168261
 21
285.34913050168501
 31
0.0
 12
40.775755307168268
 22
291.34913050168512
 32
0.0
 13
40.775755307168268
 23
291.34913050168512
 33
0.0
  0
SOLID
  5
C53
  8
DIM
 10
39.775755307168239
 20
171.3491329838848
 30
0.0
 11
41.775755307168239
 21
171.3491329838848
 31
0.0
 12
40.775755307168232
 22
165.3491329838848
 32
0.0
 13
40.775755307168232
 23
165.3491329838848
 33
0.0
  0
TEXT
  5
C54
  8
0
 10
38.775755307168211
 20
221.34913174278489
 30
0.0
 40
6.0
  1
126
 50
90.0
  7
CHINESET
  0
POINT
  5
C55
  8
DEFPOINTS
 62
     0
 10
152.8129070768768
 20
291.3491305016849
 30
0.0
  0
POINT
  5
C56
  8
DEFPOINTS
 62
     0
 10
52.65897414726669
 20
165.3491329838848
 30
0.0
  0
POINT
  5
C57
  8
DEFPOINTS
 62
     0
 10
40.775755307168232
 20
165.3491329838848
 30
0.0
  0
ENDBLK
  5
B66
  8
0
  0
BLOCK
  8
0
  2
*D20
 70
     1
 10
0.0
 20
0.0
 30
0.0
  3
*D20
  1

  0
LINE
  5
C2A
  8
DIM
 10
271.26434345256348
 20
310.05862364486222
 30
0.0
 11
315.37477452328869
 21
310.05862364486222
 31
0.0
  0
LINE
  5
C2B
  8
DIM
 10
293.65896947836671
 20
165.3491329838848
 30
0.0
 11
315.37477452328869
 21
165.3491329838848
 31
0.0
  0
LINE
  5
C2C
  8
DIM
 10
311.37477452328858
 20
304.05862364486222
 30
0.0
 11
311.37477452328858
 21
171.3491329838848
 31
0.0
  0
SOLID
  5
C2D
  8
DIM
 10
310.37477452328869
 20
304.05862364486222
 30
0.0
 11
312.37477452328858
 21
304.05862364486222
 31
0.0
 12
311.37477452328858
 22
310.05862364486222
 32
0.0
 13
311.37477452328858
 23
310.05862364486222
 33
0.0
  0
SOLID
  5
C2E
  8
DIM
 10
310.37477452328869
 20
171.3491329838848
 30
0.0
 11
312.37477452328858
 21
171.3491329838848
 31
0.0
 12
311.37477452328858
 22
165.3491329838848
 32
0.0
 13
311.37477452328858
 23
165.3491329838848
 33
0.0
  0
TEXT
  5
C2F
  8
0
 10
306.80334595186002
 20
222.41816402865931
 30
0.0
 40
6.0
  1
(144.7)
 50
90.0
  7
CHINESET
  0
POINT
  5
C30
  8
DEFPOINTS
 62
     0
 10
267.26434345256348
 20
310.05862364486222
 30
0.0
  0
POINT
  5
C31
  8
DEFPOINTS
 62
     0
 10
289.65896947836671
 20
165.3491329838848
 30
0.0
  0
POINT
  5
C32
  8
DEFPOINTS
 62
     0
 10
311.37477452328858
 20
165.3491329838848
 30
0.0
  0
ENDBLK
  5
B72
  8
0
  0
BLOCK
  8
0
  2
*D21
 70
     1
 10
0.0
 20
0.0
 30
0.0
  3
*D21
  1

  0
LINE
  5
C46
  8
DIM
 10
365.38510027037432
 20
159.27816030087399
 30
0.0
 11
365.38510027037432
 21
136.5705958318039
 31
0.0
  0
LINE
  5
C47
  8
DIM
 10
466.8850982708243
 20
159.2166143818701
 30
0.0
 11
466.8850982708243
 21
136.5705958318039
 31
0.0
  0
LINE
  5
C48
  8
DIM
 10
371.38510027037432
 20
140.5705958318039
 30
0.0
 11
460.88509827082441
 21
140.5705958318039
 31
0.0
  0
SOLID
  5
C49
  8
DIM
 10
371.38510027037432
 20
141.57059583180379
 30
0.0
 11
371.38510027037432
 21
139.5705958318039
 31
0.0
 12
365.38510027037432
 22
140.5705958318039
 32
0.0
 13
365.38510027037432
 23
140.5705958318039
 33
0.0
  0
SOLID
  5
C4A
  8
DIM
 10
460.88509827082441
 20
141.57059583180379
 30
0.0
 11
460.88509827082441
 21
139.5705958318039
 31
0.0
 12
466.8850982708243
 22
140.5705958318039
 32
0.0
 13
466.8850982708243
 23
140.5705958318039
 33
0.0
  0
TEXT
  5
C4B
  8
0
 10
405.27795641345642
 20
142.57059583180379
 30
0.0
 40
6.0
  1
101.5
  7
CHINESET
  0
POINT
  5
C4C
  8
DEFPOINTS
 62
     0
 10
365.38510027037432
 20
163.27816030087399
 30
0.0
  0
POINT
  5
C4D
  8
DEFPOINTS
 62
     0
 10
466.8850982708243
 20
163.2166143818701
 30
0.0
  0
POINT
  5
C4E
  8
DEFPOINTS
 62
     0
 10
466.8850982708243
 20
140.5705958318039
 30
0.0
  0
ENDBLK
  5
B7E
  8
0
  0
BLOCK
  8
0
  2
*D22
 70
     1
 10
0.0
 20
0.0
 30
0.0
  3
*D22
  1

  0
LINE
  5
C3D
  8
DIM
 10
349.13510059049941
 20
161.3491329838848
 30
0.0
 11
349.13510059049941
 21
123.6757491337172
 31
0.0
  0
LINE
  5
C3E
  8
DIM
 10
483.13509795069922
 20
161.3491329838848
 30
0.0
 11
483.13509795069922
 21
123.6757491337172
 31
0.0
  0
LINE
  5
C3F
  8
DIM
 10
355.13510059049941
 20
127.6757491337172
 30
0.0
 11
477.13509795069922
 21
127.6757491337172
 31
0.0
  0
SOLID
  5
C40
  8
DIM
 10
355.13510059049941
 20
128.6757491337172
 30
0.0
 11
355.13510059049941
 21
126.6757491337172
 31
0.0
 12
349.13510059049941
 22
127.6757491337172
 32
0.0
 13
349.13510059049941
 23
127.6757491337172
 33
0.0
  0
SOLID
  5
C41
  8
DIM
 10
477.13509795069922
 20
128.6757491337172
 30
0.0
 11
477.13509795069922
 21
126.6757491337172
 31
0.0
 12
483.13509795069922
 22
127.6757491337172
 32
0.0
 13
483.13509795069922
 23
127.6757491337172
 33
0.0
  0
TEXT
  5
C42
  8
0
 10
408.84938498488498
 20
129.6757491337172
 30
0.0
 40
6.0
  1
134
  7
CHINESET
  0
POINT
  5
C43
  8
DEFPOINTS
 62
     0
 10
349.13510059049941
 20
165.3491329838848
 30
0.0
  0
POINT
  5
C44
  8
DEFPOINTS
 62
     0
 10
483.13509795069922
 20
165.3491329838848
 30
0.0
  0
POINT
  5
C45
  8
DEFPOINTS
 62
     0
 10
483.13509795069922
 20
127.6757491337172
 30
0.0
  0
ENDBLK
  5
B8A
  8
0
  0
BLOCK
  8
0
  2
*D23
 70
     1
 10
0.0
 20
0.0
 30
0.0
  3
*D23
  1

  0
LINE
  5
C58
  8
DIM
 10
52.65897414726669
 20
161.3491329838848
 30
0.0
 11
52.65897414726669
 21
121.9730622724373
 31
0.0
  0
LINE
  5
C59
  8
DIM
 10
289.65896947836671
 20
161.3491329838848
 30
0.0
 11
289.65896947836671
 21
121.9730622724373
 31
0.0
  0
LINE
  5
C5A
  8
DIM
 10
58.65897414726669
 20
125.9730622724373
 30
0.0
 11
283.65896947836671
 21
125.9730622724373
 31
0.0
  0
SOLID
  5
C5B
  8
DIM
 10
58.65897414726669
 20
126.9730622724373
 30
0.0
 11
58.65897414726669
 21
124.9730622724373
 31
0.0
 12
52.65897414726669
 22
125.9730622724373
 32
0.0
 13
52.65897414726669
 23
125.9730622724373
 33
0.0
  0
SOLID
  5
C5C
  8
DIM
 10
283.65896947836671
 20
126.9730622724373
 30
0.0
 11
283.65896947836671
 21
124.9730622724373
 31
0.0
 12
289.65896947836671
 22
125.9730622724373
 32
0.0
 13
289.65896947836671
 23
125.9730622724373
 33
0.0
  0
TEXT
  5
C5D
  8
0
 10
163.44468609853089
 20
127.9730622724373
 30
0.0
 40
6.0
  1
237
  7
CHINESET
  0
POINT
  5
C5E
  8
DEFPOINTS
 62
     0
 10
52.65897414726669
 20
165.3491329838848
 30
0.0
  0
POINT
  5
C5F
  8
DEFPOINTS
 62
     0
 10
289.65896947836671
 20
165.3491329838848
 30
0.0
  0
POINT
  5
C60
  8
DEFPOINTS
 62
     0
 10
289.65896947836671
 20
125.9730622724373
 30
0.0
  0
ENDBLK
  5
B97
  8
0
  0
BLOCK
  8
0
  2
*D24
 70
     1
 10
0.0
 20
0.0
 30
0.0
  3
*D24
  1

  0
LINE
  5
C73
  8
DIM
 10
52.65897414726669
 20
161.3491329838848
 30
0.0
 11
52.65897414726669
 21
136.12039782470811
 31
0.0
  0
LINE
  5
C74
  8
DIM
 10
109.6589730243667
 20
158.2490370600714
 30
0.0
 11
109.6589730243667
 21
136.12039782470811
 31
0.0
  0
LINE
  5
C75
  8
DIM
 10
58.65897414726669
 20
140.12039782470811
 30
0.0
 11
103.6589730243667
 21
140.12039782470811
 31
0.0
  0
SOLID
  5
C76
  8
DIM
 10
58.65897414726669
 20
141.12039782470811
 30
0.0
 11
58.65897414726669
 21
139.12039782470811
 31
0.0
 12
52.65897414726669
 22
140.12039782470811
 32
0.0
 13
52.65897414726669
 23
140.12039782470811
 33
0.0
  0
SOLID
  5
C77
  8
DIM
 10
103.6589730243667
 20
141.12039782470811
 30
0.0
 11
103.6589730243667
 21
139.12039782470811
 31
0.0
 12
109.6589730243667
 22
140.12039782470811
 32
0.0
 13
109.6589730243667
 23
140.12039782470811
 33
0.0
  0
TEXT
  5
C78
  8
0
 10
76.301830728673878
 20
142.12039782470811
 30
0.0
 40
6.0
  1
57
  7
CHINESET
  0
POINT
  5
C79
  8
DEFPOINTS
 62
     0
 10
52.65897414726669
 20
165.3491329838848
 30
0.0
  0
POINT
  5
C7A
  8
DEFPOINTS
 62
     0
 10
109.6589730243667
 20
162.2490370600714
 30
0.0
  0
POINT
  5
C7B
  8
DEFPOINTS
 62
     0
 10
109.6589730243667
 20
140.12039782470811
 30
0.0
  0
ENDBLK
  5
BAC
  8
0
  0
BLOCK
  8
0
  2
*D25
 70
     1
 10
0.0
 20
0.0
 30
0.0
  3
*D25
  1

  0
LINE
  5
C7C
  8
DIM
 10
109.6589730243667
 20
158.2490370600714
 30
0.0
 11
109.6589730243667
 21
136.200093061594
 31
0.0
  0
LINE
  5
C7D
  8
DIM
 10
132.15897258111659
 20
158.2490370600714
 30
0.0
 11
132.15897258111659
 21
136.200093061594
 31
0.0
  0
LINE
  5
C7E
  8
DIM
 10
115.6589730243667
 20
140.200093061594
 30
0.0
 11
126.1589725811166
 21
140.200093061594
 31
0.0
  0
TEXT
  5
C7F
  8
0
 10
138.15897258111659
 20
137.200093061594
 30
0.0
 40
6.0
  1
22.5
  7
CHINESET
  0
SOLID
  5
C80
  8
DIM
 10
115.6589730243667
 20
141.200093061594
 30
0.0
 11
115.6589730243667
 21
139.200093061594
 31
0.0
 12
109.6589730243667
 22
140.200093061594
 32
0.0
 13
109.6589730243667
 23
140.200093061594
 33
0.0
  0
SOLID
  5
C81
  8
DIM
 10
126.1589725811166
 20
141.200093061594
 30
0.0
 11
126.1589725811166
 21
139.200093061594
 31
0.0
 12
132.15897258111659
 22
140.200093061594
 32
0.0
 13
132.15897258111659
 23
140.200093061594
 33
0.0
  0
POINT
  5
C82
  8
DEFPOINTS
 62
     0
 10
109.6589730243667
 20
162.2490370600714
 30
0.0
  0
POINT
  5
C83
  8
DEFPOINTS
 62
     0
 10
132.15897258111659
 20
162.2490370600714
 30
0.0
  0
POINT
  5
C84
  8
DEFPOINTS
 62
     0
 10
132.15897258111659
 20
140.200093061594
 30
0.0
  0
ENDBLK
  5
BB8
  8
0
  0
BLOCK
  8
0
  2
*D26
 70
     1
 10
0.0
 20
0.0
 30
0.0
  3
*D26
  1

  0
LINE
  5
C6A
  8
DIM
 10
232.1589706111165
 20
158.2490370600714
 30
0.0
 11
232.1589706111165
 21
136.12039782470811
 31
0.0
  0
LINE
  5
C6B
  8
DIM
 10
254.6589701678665
 20
158.2490370600714
 30
0.0
 11
254.6589701678665
 21
136.12039782470811
 31
0.0
  0
LINE
  5
C6C
  8
DIM
 10
238.1589706111165
 20
140.12039782470811
 30
0.0
 11
248.6589701678665
 21
140.12039782470811
 31
0.0
  0
TEXT
  5
C6D
  8
0
 10
207.8732563254022
 20
137.12039782470811
 30
0.0
 40
6.0
  1
22.5
  7
CHINESET
  0
SOLID
  5
C6E
  8
DIM
 10
238.1589706111165
 20
141.12039782470811
 30
0.0
 11
238.1589706111165
 21
139.12039782470811
 31
0.0
 12
232.1589706111165
 22
140.12039782470811
 32
0.0
 13
232.1589706111165
 23
140.12039782470811
 33
0.0
  0
SOLID
  5
C6F
  8
DIM
 10
248.6589701678665
 20
141.12039782470811
 30
0.0
 11
248.6589701678665
 21
139.12039782470811
 31
0.0
 12
254.6589701678665
 22
140.12039782470811
 32
0.0
 13
254.6589701678665
 23
140.12039782470811
 33
0.0
  0
POINT
  5
C70
  8
DEFPOINTS
 62
     0
 10
232.1589706111165
 20
162.2490370600714
 30
0.0
  0
POINT
  5
C71
  8
DEFPOINTS
 62
     0
 10
254.6589701678665
 20
162.2490370600714
 30
0.0
  0
POINT
  5
C72
  8
DEFPOINTS
 62
     0
 10
254.6589701678665
 20
140.12039782470811
 30
0.0
  0
ENDBLK
  5
BC4
  8
0
  0
BLOCK
  8
0
  2
*D27
 70
     1
 10
0.0
 20
0.0
 30
0.0
  3
*D27
  1

  0
LINE
  5
BEA
  8
DIM
 10
254.6589701678665
 20
158.2490370600714
 30
0.0
 11
254.6589701678665
 21
136.12039782470811
 31
0.0
  0
LINE
  5
BEB
  8
DIM
 10
289.65896947836671
 20
161.3491329838848
 30
0.0
 11
289.65896947836671
 21
136.12039782470811
 31
0.0
  0
LINE
  5
BEC
  8
DIM
 10
260.65897016786653
 20
140.12039782470811
 30
0.0
 11
283.65896947836671
 21
140.12039782470811
 31
0.0
  0
SOLID
  5
BED
  8
DIM
 10
260.65897016786653
 20
141.12039782470811
 30
0.0
 11
260.65897016786653
 21
139.12039782470811
 31
0.0
 12
254.6589701678665
 22
140.12039782470811
 32
0.0
 13
254.6589701678665
 23
140.12039782470811
 33
0.0
  0
SOLID
  5
BEE
  8
DIM
 10
283.65896947836671
 20
141.12039782470811
 30
0.0
 11
283.65896947836671
 21
139.12039782470811
 31
0.0
 12
289.65896947836671
 22
140.12039782470811
 32
0.0
 13
289.65896947836671
 23
140.12039782470811
 33
0.0
  0
TEXT
  5
BEF
  8
0
 10
267.30182696597382
 20
142.12039782470811
 30
0.0
 40
6.0
  1
35
  7
CHINESET
  0
POINT
  5
BF0
  8
DEFPOINTS
 62
     0
 10
254.6589701678665
 20
162.2490370600714
 30
0.0
  0
POINT
  5
BF1
  8
DEFPOINTS
 62
     0
 10
289.65896947836671
 20
165.3491329838848
 30
0.0
  0
POINT
  5
BF2
  8
DEFPOINTS
 62
     0
 10
289.65896947836671
 20
140.12039782470811
 30
0.0
  0
ENDBLK
  5
BD0
  8
0
  0
BLOCK
  8
0
  2
*D28
 70
     1
 10
0.0
 20
0.0
 30
0.0
  3
*D28
  1

  0
LINE
  5
C21
  8
DIM
 10
293.65896947836671
 20
165.3491329838848
 30
0.0
 11
333.08707635459717
 21
165.3491329838848
 31
0.0
  0
LINE
  5
C22
  8
DIM
 10
271.26434345256342
 20
325.05862334936211
 30
0.0
 11
333.08707635459717
 21
325.05862334936211
 31
0.0
  0
LINE
  5
C23
  8
DIM
 10
329.08707635459717
 20
171.3491329838848
 30
0.0
 11
329.08707635459717
 21
319.05862334936211
 31
0.0
  0
SOLID
  5
C24
  8
DIM
 10
328.08707635459717
 20
171.3491329838848
 30
0.0
 11
330.08707635459717
 21
171.3491329838848
 31
0.0
 12
329.08707635459717
 22
165.3491329838848
 32
0.0
 13
329.08707635459717
 23
165.3491329838848
 33
0.0
  0
SOLID
  5
C25
  8
DIM
 10
328.08707635459717
 20
319.05862334936211
 30
0.0
 11
330.08707635459717
 21
319.05862334936211
 31
0.0
 12
329.08707635459717
 22
325.05862334936211
 32
0.0
 13
329.08707635459717
 23
325.05862334936211
 33
0.0
  0
TEXT
  5
C26
  8
0
 10
324.51564778316862
 20
229.91816388090919
 30
0.0
 40
6.0
  1
(159.7)
 50
90.0
  7
CHINESET
  0
POINT
  5
C27
  8
DEFPOINTS
 62
     0
 10
289.65896947836671
 20
165.3491329838848
 30
0.0
  0
POINT
  5
C28
  8
DEFPOINTS
 62
     0
 10
267.26434345256342
 20
325.05862334936211
 30
0.0
  0
POINT
  5
C29
  8
DEFPOINTS
 62
     0
 10
329.08707635459717
 20
325.05862334936211
 30
0.0
  0
ENDBLK
  5
BDC
  8
0
  0
BLOCK
  8
0
  2
*D29
 70
     1
 10
0.0
 20
0.0
 30
0.0
  3
*D29
  1

  0
LINE
  5
C33
  8
DIM
 10
487.13509795069922
 20
165.3491329838848
 30
0.0
 11
502.08074425532237
 21
165.3491329838848
 31
0.0
  0
LINE
  5
C34
  8
DIM
 10
487.13509795069922
 20
170.3491328853849
 30
0.0
 11
502.08074425532237
 21
170.3491328853849
 31
0.0
  0
LINE
  5
C35
  8
DIM
 10
498.08074425532237
 20
159.3491329838848
 30
0.0
 11
498.08074425532237
 21
153.3491329838848
 31
0.0
  0
LINE
  5
C36
  8
DIM
 10
498.08074425532237
 20
176.3491328853849
 30
0.0
 11
498.08074425532237
 21
182.34913288538479
 31
0.0
  0
TEXT
  5
C37
  8
0
 10
517.08074425532243
 20
165.84913293463489
 30
0.0
 40
6.0
  1
5
 50
90.0
  7
CHINESET
  0
SOLID
  5
C38
  8
DIM
 10
497.08074425532237
 20
159.3491329838848
 30
0.0
 11
499.08074425532249
 21
159.3491329838848
 31
0.0
 12
498.08074425532237
 22
165.3491329838848
 32
0.0
 13
498.08074425532237
 23
165.3491329838848
 33
0.0
  0
SOLID
  5
C39
  8
DIM
 10
497.08074425532237
 20
176.3491328853849
 30
0.0
 11
499.08074425532249
 21
176.3491328853849
 31
0.0
 12
498.08074425532237
 22
170.3491328853849
 32
0.0
 13
498.08074425532237
 23
170.3491328853849
 33
0.0
  0
POINT
  5
C3A
  8
DEFPOINTS
 62
     0
 10
483.13509795069922
 20
165.3491329838848
 30
0.0
  0
POINT
  5
C3B
  8
DEFPOINTS
 62
     0
 10
483.13509795069922
 20
170.3491328853849
 30
0.0
  0
POINT
  5
C3C
  8
DEFPOINTS
 62
     0
 10
498.08074425532237
 20
170.3491328853849
 30
0.0
  0
ENDBLK
  5
BE9
  8
0
  0
ENDSEC
  0
SECTION
  2
ENTITIES
  0
TEXT
  5
1BA
  8
0
 10
118.6854992977141
 20
76.393213488993396
 30
0.0
 40
4.0
  1

  7
CHINESET
  0
TEXT
  5
1BE
  8
0
 10
675.92678078182678
 20
69.290890166532733
 30
0.0
 40
3.0
  1

  7
CHINESET
  0
TEXT
  5
1BF
  8
0
 10
664.14321206865293
 20
69.119997706241477
 30
0.0
 40
3.0
  1

  7
CHINESET
  0
TEXT
  5
1C0
  8
0
 10
965.87552607914654
 20
245.01768234738429
 30
0.0
 40
3.0
  1

  7
CHINESET
  0
TEXT
  5
1C1
  8
0
 62
     1
 10
970.00130349308449
 20
245.14937900419599
 30
0.0
 40
3.0
  1

  7
CHINESET
  0
LINE
  5
1C2
  8
0
 62
     4
 10
522.33112502407039
 20
99.411724314516746
 30
0.0
 11
522.33112502407039
 21
592.41293577222416
 31
0.0
  0
LINE
  5
1C8
  8
0
 62
     4
 10
7.1366410488254761
 20
99.411724314516746
 30
0.0
 11
522.33112502407039
 21
99.411724314516746
 31
0.0
  0
LINE
  5
1C9
  8
0
 62
     4
 10
7.1366410488254761
 20
592.41293577222416
 30
0.0
 11
7.1366410488254761
 21
99.411724314516746
 31
0.0
  0
TEXT
  5
289
  8
0
 62
     1
 10
923.48334419875323
 20
58.061675424990817
 30
0.0
 40
3.0
  1

  7
CHINESET
  0
TEXT
  5
28D
  8
0
 62
     1
 10
1434.378553457818
 20
59.117087787037221
 30
0.0
 40
3.0
  1

  7
CHINESET
  0
LINE
  5
28E
  8
0
 10
349.13510059049941
 20
165.3491329838848
 30
0.0
 11
384.13509990099931
 21
165.3491329838848
 31
0.0
  0
LINE
  5
28F
  8
0
 10
349.13510059049941
 20
170.3491328853849
 30
0.0
 11
384.13509990099931
 21
170.3491328853849
 31
0.0
  0
LINE
  5
290
  8
CENTER
  6
CENTER
 10
146.65897229546661
 20
452.6800241532664
 30
0.0
 11
146.65897229546661
 21
541.68002239876625
 31
0.0
  0
LINE
  5
291
  8
CENTER
  6
CENTER
 10
70.158973802516911
 20
460.18002400551632
 30
0.0
 11
70.158973802516911
 21
534.18002254651628
 31
0.0
  0
LINE
  5
292
  8
CENTER
  6
CENTER
 10
82.658973556266631
 20
452.68002415326652
 30
0.0
 11
82.658973556266631
 21
541.68002239876625
 31
0.0
  0
LINE
  5
293
  8
0
 10
52.65897414726669
 20
435.18002449591631
 30
0.0
 11
52.65897414726669
 21
559.1800220561164
 31
0.0
  0
LINE
  5
294
  8
0
 10
71.908973768041506
 20
456.33002408076129
 30
0.0
 11
71.908973768041506
 21
462.18002396551623
 31
0.0
  0
LINE
  5
295
  8
0
 10
88.158973447916566
 20
456.33002408076129
 30
0.0
 11
88.158973447916566
 21
463.33002394286132
 31
0.0
  0
LINE
  5
296
  8
0
 10
77.158973664616681
 20
456.33002408076129
 30
0.0
 11
77.158973664616681
 21
463.33002394286132
 31
0.0
  0
LINE
  5
297
  8
0
 10
152.15897218711649
 20
456.33002408076118
 30
0.0
 11
152.15897218711649
 21
463.33002394286132
 31
0.0
  0
LINE
  5
298
  8
0
 10
135.90897250724149
 20
456.33002408076118
 30
0.0
 11
135.90897250724149
 21
463.33002394286132
 31
0.0
  0
LINE
  5
299
  8
0
 10
141.15897240381659
 20
456.33002408076118
 30
0.0
 11
141.15897240381651
 21
463.33002394286132
 31
0.0
  0
LINE
  5
29A
  8
0
 10
157.40897208369151
 20
456.33002408076118
 30
0.0
 11
157.40897208369151
 21
463.33002394286132
 31
0.0
  0
LINE
  5
29B
  8
0
 10
93.408973344491585
 20
456.33002408076129
 30
0.0
 11
93.408973344491585
 21
463.33002394286132
 31
0.0
  0
LINE
  5
29C
  8
0
 10
289.65896947836671
 20
435.18002449591631
 30
0.0
 11
289.65896947836671
 21
559.1800220561164
 31
0.0
  0
ARC
  5
29D
  8
0
 10
57.658974047266682
 20
435.18002449591631
 30
0.0
 40
4.9999998999999997
 50
180.0
 51
270.0
  0
ARC
  5
29E
  8
0
 10
62.658973950266727
 20
231.62336180602631
 30
0.0
 40
9.9999998029999997
 50
120.4110812671253
 51
179.99999999999989
  0
LINE
  5
29F
  8
0
 10
52.65897414726669
 20
165.3491329838848
 30
0.0
 11
289.65896947836671
 21
165.3491329838848
 31
0.0
  0
LINE
  5
2A0
  8
0
 10
52.65897414726669
 20
170.3491328853849
 30
0.0
 11
289.65896947836671
 21
170.3491328853849
 31
0.0
  0
LINE
  5
2A1
  8
0
 10
52.65897414726669
 20
231.62336180602631
 30
0.0
 11
52.65897414726669
 21
165.3491329838848
 31
0.0
  0
LINE
  5
2A2
  8
CENTER
  6
CENTER
 10
204.1083265879235
 20
205.63177204892051
 30
0.0
 11
203.79150281303299
 21
221.16443866268159
 31
0.0
  0
LINE
  5
2A3
  8
0
 10
289.65896947836671
 20
224.6104963920983
 30
0.0
 11
289.65896947836671
 21
165.3491329838848
 31
0.0
  0
LINE
  5
2A4
  8
HIDDEN
 10
262.21464642249288
 20
231.83840996903939
 30
0.0
 11
267.51481331160358
 21
197.2420491389959
 31
0.0
  0
LINE
  5
2A5
  8
HIDDEN
 10
237.50296011531881
 20
228.05257647681739
 30
0.0
 11
242.80312700442951
 21
193.45621564677381
 31
0.0
  0
ARC
  5
2A6
  8
HIDDEN
 10
255.1589701580167
 20
195.3491323928848
 30
0.0
 40
12.499999753749989
 50
188.70999999999989
 51
8.7100000000000009
  0
LINE
  5
2A7
  8
HIDDEN
 10
86.461211548031699
 20
211.67882892823289
 30
0.0
 11
86.603958000498139
 21
204.68042471375759
 31
0.0
  0
LINE
  5
2A8
  8
HIDDEN
 10
105.8842081766858
 20
205.82342112951079
 30
0.0
 11
105.858717662275
 21
207.07313991690529
 31
0.0
  0
LINE
  5
2A9
  8
HIDDEN
 10
104.11016471186259
 20
204.53740482960461
 30
0.0
 11
87.114040190994075
 21
204.1907348736141
 31
0.0
  0
POLYLINE
  5
2AA
  8
0
  6
CONTINUOUS
 66
     1
 10
0.0
 20
0.0
 30
0.0
 70
     1
  0
VERTEX
  5
CDF
  8
0
  6
CONTINUOUS
 10
77.758973652796726
 20
194.83618136007749
 30
0.0
  0
VERTEX
  5
CE0
  8
0
  6
CONTINUOUS
 10
72.858973749326836
 20
186.34913257018491
 30
0.0
  0
VERTEX
  5
CE1
  8
0
  6
CONTINUOUS
 10
77.758973652796726
 20
177.86208378029221
 30
0.0
  0
VERTEX
  5
CE2
  8
0
  6
CONTINUOUS
 10
87.558973459736833
 20
177.86208378029221
 30
0.0
  0
VERTEX
  5
CE3
  8
0
  6
CONTINUOUS
 10
92.458973363206752
 20
186.34913257018491
 30
0.0
  0
VERTEX
  5
CE4
  8
0
  6
CONTINUOUS
 10
87.558973459736833
 20
194.83618136007749
 30
0.0
  0
SEQEND
  5
CE5
  8
0
  6
CONTINUOUS
  0
CIRCLE
  5
2B2
  8
0
  6
CONTINUOUS
 10
82.658973556266631
 20
186.34913257018491
 30
0.0
 40
8.4870487898926328
  0
CIRCLE
  5
2B3
  8
0
 10
82.658973556266631
 20
186.34913257018491
 30
0.0
 40
4.999999901499999
  0
CIRCLE
  5
2B4
  8
0
  6
CONTINUOUS
 10
82.658973556266631
 20
186.34913257018491
 30
0.0
 40
9.9999998029999997
  0
LINE
  5
2B5
  8
CENTER
  6
CENTER
 10
82.658973556266631
 20
182.34913264898489
 30
0.0
 11
82.658973556266631
 21
174.34913280658481
 31
0.0
  0
LINE
  5
2B6
  8
CENTER
  6
CENTER
 10
78.658973635066644
 20
186.34913257018491
 30
0.0
 11
70.658973792666842
 21
186.34913257018491
 31
0.0
  0
LINE
  5
2B7
  8
CENTER
  6
CENTER
 10
86.658973477466759
 20
186.34913257018491
 30
0.0
 11
94.658973319866718
 21
186.34913257018491
 31
0.0
  0
LINE
  5
2B8
  8
CENTER
  6
CENTER
 10
82.658973556266631
 20
190.34913249138489
 30
0.0
 11
82.658973556266631
 21
198.34913233378481
 31
0.0
  0
LINE
  5
2B9
  8
CENTER
  6
CENTER
 10
82.658973556266631
 20
184.34913260958481
 30
0.0
 11
82.658973556266631
 21
188.34913253078491
 31
0.0
  0
LINE
  5
2BA
  8
CENTER
  6
CENTER
 10
80.658973595666723
 20
186.34913257018491
 30
0.0
 11
84.658973516866695
 21
186.34913257018491
 31
0.0
  0
LINE
  5
2BB
  8
HIDDEN
 10
86.603958000498139
 20
204.68042471375759
 30
0.0
 11
87.114040190994075
 21
204.1907348736141
 31
0.0
  0
LINE
  5
2BC
  8
CENTER
  6
CENTER
 10
109.6589730243667
 20
174.2228849434178
 30
0.0
 11
109.6589730243667
 21
162.2490370600714
 31
0.0
  0
LINE
  5
2BD
  8
HIDDEN
  6
HIDDEN
 10
103.40897314749169
 20
170.3491328853849
 30
0.0
 11
103.40897314749169
 21
165.3491329838848
 31
0.0
  0
LINE
  5
2BE
  8
CENTER
  6
CENTER
 10
132.15897258111659
 20
174.2228849434178
 30
0.0
 11
132.15897258111659
 21
162.2490370600714
 31
0.0
  0
LINE
  5
2BF
  8
HIDDEN
  6
HIDDEN
 10
138.40897245799169
 20
170.3491328853849
 30
0.0
 11
138.40897245799169
 21
165.3491329838848
 31
0.0
  0
LINE
  5
2C0
  8
HIDDEN
 10
104.59985455200589
 20
205.04748702010031
 30
0.0
 11
104.11016471186259
 21
204.53740482960461
 31
0.0
  0
LINE
  5
2C1
  8
HIDDEN
 10
104.59985455200589
 20
205.04748702010031
 30
0.0
 11
104.5845646226595
 21
205.79710358939869
 31
0.0
  0
LINE
  5
2C2
  8
HIDDEN
 10
105.8842042765707
 20
205.82361233973589
 30
0.0
 11
104.5845646226595
 21
205.79710358939869
 31
0.0
  0
LINE
  5
2C3
  8
HIDDEN
  6
HIDDEN
 10
225.90897073424159
 20
170.3491328853849
 30
0.0
 11
225.90897073424159
 21
165.3491329838848
 31
0.0
  0
LINE
  5
2C4
  8
CENTER
  6
CENTER
 10
232.1589706111165
 20
174.2228849434178
 30
0.0
 11
232.1589706111165
 21
162.2490370600714
 31
0.0
  0
LINE
  5
2C5
  8
CENTER
  6
CENTER
 10
254.6589701678665
 20
174.2228849434178
 30
0.0
 11
254.6589701678665
 21
162.2490370600714
 31
0.0
  0
LINE
  5
2C6
  8
HIDDEN
  6
HIDDEN
 10
260.90897004474158
 20
170.3491328853849
 30
0.0
 11
260.90897004474158
 21
165.3491329838848
 31
0.0
  0
POLYLINE
  5
2C7
  8
0
 66
     1
 10
0.0
 20
0.0
 30
0.0
 70
     1
  0
VERTEX
  5
CE6
  8
0
 10
250.2589702545466
 20
203.83618118277741
 30
0.0
  0
VERTEX
  5
CE7
  8
0
 10
245.35897035107649
 20
195.3491323928848
 30
0.0
  0
VERTEX
  5
CE8
  8
0
 10
250.2589702545466
 20
186.86208360299219
 30
0.0
  0
VERTEX
  5
CE9
  8
0
 10
260.05897006148672
 20
186.86208360299219
 30
0.0
  0
VERTEX
  5
CEA
  8
0
 10
264.95896996495662
 20
195.3491323928848
 30
0.0
  0
VERTEX
  5
CEB
  8
0
 10
260.05897006148672
 20
203.83618118277741
 30
0.0
  0
SEQEND
  5
CEC
  8
0
  0
LINE
  5
2CF
  8
CENTER
  6
CENTER
 10
251.15897023681671
 20
195.3491323928848
 30
0.0
 11
246.15897033531661
 21
195.3491323928848
 31
0.0
  0
CIRCLE
  5
2D0
  8
0
 10
255.1589701580167
 20
195.3491323928848
 30
0.0
 40
6.9999998620999992
  0
CIRCLE
  5
2D1
  8
0
 10
255.1589701580167
 20
195.3491323928848
 30
0.0
 40
8.4870487898926275
  0
LINE
  5
2D2
  8
CENTER
  6
CENTER
 10
255.1589701580167
 20
193.3491324322849
 30
0.0
 11
255.1589701580167
 21
197.34913235348489
 31
0.0
  0
LINE
  5
2D3
  8
CENTER
  6
CENTER
 10
255.1589701580167
 20
191.34913247168481
 30
0.0
 11
255.1589701580167
 21
186.34913257018491
 31
0.0
  0
LINE
  5
2D4
  8
CENTER
  6
CENTER
 10
253.15897019741661
 20
195.3491323928848
 30
0.0
 11
257.15897011861671
 21
195.3491323928848
 31
0.0
  0
LINE
  5
2D5
  8
CENTER
  6
CENTER
 10
259.15897007921677
 20
195.3491323928848
 30
0.0
 11
264.15896998071662
 21
195.3491323928848
 31
0.0
  0
LINE
  5
2D6
  8
CENTER
  6
CENTER
 10
255.1589701580167
 20
199.3491323140849
 30
0.0
 11
255.1589701580167
 21
204.3491322155848
 31
0.0
  0
CIRCLE
  5
2D7
  8
0
 10
255.1589701580167
 20
195.3491323928848
 30
0.0
 40
4.999999901499999
  0
LINE
  5
2D8
  8
0
 10
349.13510059049941
 20
170.3491328853849
 30
0.0
 11
349.13510059049941
 21
165.3491329838848
 31
0.0
  0
ARC
  5
2D9
  8
0
 62
     7
 10
232.1589706111165
 20
446.43002427579131
 30
0.0
 40
6.2499998768749796
 50
89.999999999999744
 51
270.00000000000023
  0
LINE
  5
2DA
  8
0
 10
152.8129070768768
 20
291.3491305016849
 30
0.0
 11
229.65397078545891
 21
291.3491305016849
 31
0.0
  0
LINE
  5
2DB
  8
HIDDEN
 10
136.94992167904289
 20
254.4829933105573
 30
0.0
 11
260.29742067900469
 21
264.8188757167955
 31
0.0
  0
LINE
  5
2DC
  8
HIDDEN
 10
135.94011224226449
 20
237.70903236306719
 30
0.0
 11
257.14851587170341
 21
240.21086245860249
 31
0.0
  0
LINE
  5
2DD
  8
HIDDEN
 10
136.34796741847831
 20
217.71319124204459
 30
0.0
 11
257.56124258074442
 21
220.2151218895803
 31
0.0
  0
LINE
  5
2DE
  8
HIDDEN
 10
134.4448562680532
 20
284.37822055215321
 30
0.0
 11
217.6350740195366
 21
291.3491305016849
 31
0.0
  0
LINE
  5
2DF
  8
CENTER
  6
CENTER
 10
55.86192471837559
 20
226.10149575676019
 30
0.0
 11
250.70954991164501
 21
230.07582771703949
 31
0.0
  0
LINE
  5
2E0
  8
0
 10
57.658974047266682
 20
430.18002459591628
 30
0.0
 11
284.65896957836668
 21
430.18002459591628
 31
0.0
  0
POLYLINE
  5
2E1
  8
0
 66
     1
 10
0.0
 20
0.0
 30
0.0
 70
     1
  0
VERTEX
  5
CED
  8
0
 10
141.15897240381659
 20
279.87541016934603
 30
0.0
  0
VERTEX
  5
CEE
  8
0
 10
135.65897251216671
 20
270.34913091538488
 30
0.0
  0
VERTEX
  5
CEF
  8
0
 10
141.15897240381659
 20
260.82285166142378
 30
0.0
  0
VERTEX
  5
CF0
  8
0
 10
152.15897218711649
 20
260.82285166142378
 30
0.0
  0
VERTEX
  5
CF1
  8
0
 10
157.65897207876671
 20
270.34913091538488
 30
0.0
  0
VERTEX
  5
CF2
  8
0
 10
152.15897218711669
 20
279.87541016934603
 30
0.0
  0
SEQEND
  5
CF3
  8
0
  0
ARC
  5
2E9
  8
0
 10
152.8129070768768
 20
261.34913109268479
 30
0.0
 40
29.999999409000001
 50
89.999999999999986
 51
120.4110812671253
  0
LINE
  5
2EA
  8
CENTER
  6
CENTER
 10
138.6869116977079
 20
269.68111347245429
 30
0.0
 11
154.63103289322561
 21
271.01714835831558
 31
0.0
  0
CIRCLE
  5
2EB
  8
0
 10
146.65897229546661
 20
270.34913091538488
 30
0.0
 40
9.5262792539611212
  0
CIRCLE
  5
2EC
  8
0
 10
146.65897229546661
 20
270.34913091538488
 30
0.0
 40
5.9999998817999991
  0
LINE
  5
2ED
  8
HIDDEN
 10
144.0738783830997
 20
231.2324760328861
 30
0.0
 11
128.05690705011381
 21
230.9057778647074
 31
0.0
  0
LINE
  5
2EE
  8
HIDDEN
 10
141.0617568300818
 20
231.79616777475701
 30
0.0
 11
141.51925626839201
 21
231.18036940499039
 31
0.0
  0
LINE
  5
2EF
  8
HIDDEN
 10
144.21152950098681
 20
224.48387985482191
 30
0.0
 11
128.19455816800081
 21
224.15718168664341
 31
0.0
  0
LINE
  5
2F0
  8
HIDDEN
 10
141.65690738627919
 20
224.43177322692631
 30
0.0
 11
141.2248988957258
 21
223.7978315637182
 31
0.0
  0
LINE
  5
2F1
  8
HIDDEN
 10
196.6889842097014
 20
208.92580488578801
 30
0.0
 11
133.55284681597459
 21
207.63801707599609
 31
0.0
  0
LINE
  5
2F2
  8
HIDDEN
 10
196.70529841626569
 20
208.1259712646841
 30
0.0
 11
109.4249126576273
 21
206.3457132151145
 31
0.0
  0
LINE
  5
2F3
  8
HIDDEN
 10
195.8732738814814
 20
248.917485940983
 30
0.0
 11
108.59288812284299
 21
247.1372278914134
 31
0.0
  0
LINE
  5
2F4
  8
HIDDEN
 10
195.85695967491719
 20
249.71731956208691
 30
0.0
 11
108.5765739162788
 21
247.93706151251729
 31
0.0
  0
LINE
  5
2F5
  8
CENTER
  6
CENTER
 10
94.670812184940459
 20
250.5125355696988
 30
0.0
 11
94.953931116454527
 21
236.63211550132399
 31
0.0
  0
LINE
  5
2F6
  8
0
 10
57.596968362346061
 20
240.2475194743358
 30
0.0
 11
137.6268903131147
 21
287.22160409761301
 31
0.0
  0
LINE
  5
2F7
  8
HIDDEN
 10
97.963727950108392
 20
246.63315495853871
 30
0.0
 11
97.844468753891292
 21
238.41599452371449
 31
0.0
  0
LINE
  5
2F8
  8
HIDDEN
 10
97.963727950108435
 20
246.63315495853871
 30
0.0
 11
91.538824875690153
 21
246.5021062089655
 31
0.0
  0
LINE
  5
2F9
  8
HIDDEN
 10
98.873891106419933
 20
240.43736759851851
 30
0.0
 11
90.882064571066195
 21
240.2743583107312
 31
0.0
  0
LINE
  5
2FA
  8
HIDDEN
 10
98.873891106419933
 20
240.43736759851851
 30
0.0
 11
97.861275224878085
 21
239.5739888153237
 31
0.0
  0
LINE
  5
2FB
  8
HIDDEN
 10
103.192508946006
 20
249.52714620837401
 30
0.0
 11
86.196384425137495
 21
249.1804762523837
 31
0.0
  0
LINE
  5
2FC
  8
HIDDEN
 10
94.489856570595691
 20
234.847072623721
 30
0.0
 11
106.98725690034399
 21
235.10198210128971
 31
0.0
  0
LINE
  5
2FD
  8
HIDDEN
 10
97.788122437282112
 20
236.91476330835451
 30
0.0
 11
113.9450155685921
 21
237.2443154614879
 31
0.0
  0
LINE
  5
2FE
  8
HIDDEN
 10
105.4367612115129
 20
237.57066654140709
 30
0.0
 11
91.93983879788216
 21
237.29536981165
 31
0.0
  0
ARC
  5
2FF
  8
HIDDEN
 10
98.073621052159012
 20
222.9176749390366
 30
0.0
 40
5.9999998817999991
 50
241.16850000000039
 51
271.16849999999999
  0
LINE
  5
300
  8
HIDDEN
 10
94.816140701883526
 20
218.850400201643
 30
0.0
 11
107.313541031632
 21
219.1053096792117
 31
0.0
  0
LINE
  5
301
  8
HIDDEN
 10
105.86500056891271
 20
216.57545389798111
 30
0.0
 11
92.368078155281779
 21
216.3001571682241
 31
0.0
  0
LINE
  5
302
  8
HIDDEN
 10
83.867083504503739
 20
240.63505887682919
 30
0.0
 11
84.444900897161062
 21
212.64102208019801
 31
0.0
  0
LINE
  5
303
  8
HIDDEN
 10
85.627401275509882
 20
237.84708279527979
 30
0.0
 11
86.083388091598692
 21
215.49150057015419
 31
0.0
  0
LINE
  5
304
  8
HIDDEN
 10
91.93983879788216
 20
237.29536981165
 30
0.0
 11
92.368078155281779
 21
216.3001571682241
 31
0.0
  0
LINE
  5
305
  8
HIDDEN
 10
94.836533460089228
 20
217.8506081752632
 30
0.0
 11
94.469463812390316
 21
235.84686465010091
 31
0.0
  0
ARC
  5
306
  8
0
 10
70.158973802516741
 20
226.3491317821848
 30
0.0
 40
6.9999998620999992
 50
111.379370208441
 51
180.0
  0
LINE
  5
307
  8
HIDDEN
 10
58.429801821980043
 20
213.10426438689581
 30
0.0
 11
57.893257100226691
 21
239.09872712662471
 31
0.0
  0
LINE
  5
308
  8
CENTER
  6
CENTER
 10
70.158973802516911
 20
216.1581711858465
 30
0.0
 11
70.158973802516911
 21
238.0319963838497
 31
0.0
  0
CIRCLE
  5
309
  8
0
 10
70.158973802516741
 20
226.3491317821848
 30
0.0
 40
5.9999998817999991
  0
ARC
  5
30A
  8
0
 10
70.158973802516741
 20
226.3491317821848
 30
0.0
 40
8.9999998226999995
 50
324.83792096107589
 51
215.16207903892411
  0
CIRCLE
  5
30B
  8
HIDDEN
  6
HIDDEN
 10
70.158973802516741
 20
226.3491317821848
 30
0.0
 40
9.9999998029999997
  0
CIRCLE
  5
30C
  8
0
 10
70.158973802516741
 20
226.3491317821848
 30
0.0
 40
4.999999901499999
  0
ARC
  5
30D
  8
0
 10
70.158973802516741
 20
226.3491317821848
 30
0.0
 40
6.9999998620999992
 50
6.379370208442749
 51
68.620629791556297
  0
LINE
  5
30E
  8
0
 10
74.755240370684263
 20
222.49240620004309
 30
0.0
 11
76.494490047838966
 21
221.03300243741739
 31
0.0
  0
LINE
  5
30F
  8
0
 10
76.158973684316805
 20
226.3491317821848
 30
0.0
 11
76.419964016174674
 21
226.3491317821848
 31
0.0
  0
LINE
  5
310
  8
HIDDEN
 10
60.470648549786368
 20
211.14596300089761
 30
0.0
 11
86.465111289515335
 21
211.68250772265091
 31
0.0
  0
LINE
  5
311
  8
HIDDEN
 10
59.450225185883212
 20
212.12511369389671
 30
0.0
 11
84.444900897161062
 21
212.64102208019801
 31
0.0
  0
LINE
  5
312
  8
HIDDEN
 10
58.389702842889527
 20
214.9266324653936
 30
0.0
 11
86.083388091598692
 21
215.49150057015419
 31
0.0
  0
LINE
  5
313
  8
HIDDEN
 10
58.429801821980043
 20
213.10426438689581
 30
0.0
 11
60.470648549786368
 21
211.14596300089761
 31
0.0
  0
LINE
  5
314
  8
0
 10
63.158973940416807
 20
226.3491317821848
 30
0.0
 11
64.158973920716861
 21
226.3491317821848
 31
0.0
  0
ARC
  5
315
  8
0
 10
63.373506239277937
 20
221.56923353703681
 30
0.0
 40
0.6999999862099999
 50
215.16207903892459
 51
310.0000000000004
  0
LINE
  5
316
  8
0
 10
65.562707234349233
 20
222.49240620004309
 30
0.0
 11
63.823457557194381
 21
221.03300243741739
 31
0.0
  0
LINE
  5
317
  8
HIDDEN
 10
84.444900897161062
 20
212.64102208019801
 30
0.0
 11
86.465111289515335
 21
211.68250772265091
 31
0.0
  0
LINE
  5
319
  8
HIDDEN
 10
95.180208852974673
 20
217.66142490434351
 30
0.0
 11
94.836533460089228
 21
217.8506081752632
 31
0.0
  0
ARC
  5
31B
  8
0
 10
76.419964016174674
 20
227.0491317683948
 30
0.0
 40
0.6999999862099999
 50
270.0
 51
6.3793702084437074
  0
ARC
  5
31C
  8
0
 10
76.944441365755722
 20
221.56923353703681
 30
0.0
 40
0.6999999862099999
 50
229.99999999999929
 51
324.83792096107533
  0
LINE
  5
31D
  8
HIDDEN
 10
59.851558486224903
 20
241.13957385443101
 30
0.0
 11
85.846021225953677
 21
241.67611857618439
 31
0.0
  0
LINE
  5
31E
  8
HIDDEN
 10
58.872407793225719
 20
240.11915049052789
 30
0.0
 11
83.867083504503739
 21
240.63505887682919
 31
0.0
  0
LINE
  5
31F
  8
HIDDEN
 10
57.93371602680039
 20
237.28221469051911
 30
0.0
 11
85.627401275509882
 21
237.84708279527979
 31
0.0
  0
LINE
  5
320
  8
0
 10
68.606059562494195
 20
232.1446866257468
 30
0.0
 11
68.538510294021634
 21
232.39678392770031
 31
0.0
  0
ARC
  5
321
  8
0
 10
67.86236222893956
 20
232.21561059969761
 30
0.0
 40
0.6999999862099999
 50
14.99999999999938
 51
111.3793702084413
  0
LINE
  5
322
  8
0
  6
CONTINUOUS
 10
59.851558486224903
 20
241.13957385443101
 30
0.0
 11
57.893257100226691
 21
239.09872712662471
 31
0.0
  0
LINE
  5
323
  8
0
 10
71.711888042539627
 20
232.1446866257468
 30
0.0
 11
71.779437311012003
 21
232.39678392770011
 31
0.0
  0
ARC
  5
324
  8
0
 10
72.455585376094419
 20
232.2156105996975
 30
0.0
 40
0.6999999862099999
 50
68.62062979155624
 51
165.00000000000071
  0
LINE
  5
325
  8
HIDDEN
 10
88.695814501735754
 20
249.23145712826459
 30
0.0
 11
91.538824875690153
 21
246.5021062089655
 31
0.0
  0
LINE
  5
326
  8
HIDDEN
 10
85.706694584993954
 20
248.67039406188781
 30
0.0
 11
85.849441037460537
 21
241.67198984741279
 31
0.0
  0
LINE
  5
327
  8
HIDDEN
 10
83.867083504503739
 20
240.63505887682919
 30
0.0
 11
85.846021225953677
 21
241.67611857618439
 31
0.0
  0
LINE
  5
328
  8
HIDDEN
 10
86.196384425137495
 20
249.1804762523837
 30
0.0
 11
85.706694584993954
 21
248.67039406188781
 31
0.0
  0
LINE
  5
329
  8
HIDDEN
 10
91.538824875690196
 20
246.5021062089655
 30
0.0
 11
91.993056325004261
 21
238.29664326297799
 31
0.0
  0
LINE
  5
32A
  8
HIDDEN
 10
90.48110216847121
 20
247.5175426877625
 30
0.0
 11
90.882064571066195
 21
240.2743583107312
 31
0.0
  0
LINE
  5
32B
  8
HIDDEN
 10
97.844468753891292
 20
238.41599452371449
 30
0.0
 11
91.993056325004261
 21
238.29664326297799
 31
0.0
  0
ARC
  5
32C
  8
HIDDEN
 10
97.910478986515017
 20
230.91601115007549
 30
0.0
 40
5.9999998817999991
 50
91.168499999999995
 51
121.1684999999995
  0
LINE
  5
32D
  8
HIDDEN
 10
93.169161485828809
 20
238.32063228022969
 30
0.0
 11
93.189553836181219
 21
237.3208602495904
 31
0.0
  0
LINE
  5
32E
  8
0
 10
94.805139027420424
 20
236.04990463553551
 30
0.0
 11
94.469463812390316
 21
235.84686465010091
 31
0.0
  0
LINE
  5
331
  8
HIDDEN
 10
91.929044257873656
 20
239.45298909884519
 30
0.0
 11
90.882064571066195
 21
240.2743583107312
 31
0.0
  0
LINE
  5
332
  8
HIDDEN
 10
96.668363593066431
 20
238.39200550646291
 30
0.0
 11
96.688755943418982
 21
237.39223347582359
 31
0.0
  0
LINE
  5
333
  8
HIDDEN
 10
128.05690705011381
 20
230.9057778647074
 30
0.0
 11
128.19455816800081
 21
224.15718168664341
 31
0.0
  0
LINE
  5
334
  8
HIDDEN
 10
141.2248988957258
 20
223.7978315637182
 30
0.0
 11
141.0617568300818
 21
231.79616777475701
 31
0.0
  0
LINE
  5
335
  8
HIDDEN
 10
139.1633446959363
 20
231.13231587607339
 30
0.0
 11
139.30099581382339
 21
224.3837196980094
 31
0.0
  0
LINE
  5
336
  8
HIDDEN
 10
107.313541031632
 20
219.1053096792117
 30
0.0
 11
106.98725690034399
 21
235.10198210128971
 31
0.0
  0
LINE
  5
337
  8
HIDDEN
 10
99.266955036625504
 20
221.30770094648369
 30
0.0
 11
99.037170473272553
 21
232.5733067027297
 31
0.0
  0
LINE
  5
338
  8
HIDDEN
 10
99.784511696474624
 20
220.4520520322402
 30
0.0
 11
99.519405839803255
 21
233.4493483751786
 31
0.0
  0
INSERT
  5
339
  8
HIDDEN
  2
*X2
 10
16.568308331846719
 20
-73.023816389283581
 30
0.0
 41
0.9999999802999999
 42
0.9999999802999999
 43
0.9999999802999999
 50
1.1685000000000001
1001
ACAD
1000
HATCH
1002
{
1070
    16
1000
_U
1040
1.5
1040
0.7853981633974483
1070
     0
1002
}
  0
ARC
  5
33A
  8
HIDDEN
 10
198.69646472667441
 20
-422.11253497784571
 30
0.0
 40
634.51272735985492
 50
96.802083379309494
 51
97.244685773358626
  0
ARC
  5
33B
  8
HIDDEN
 10
172.86095833892441
 20
844.52011096789761
 30
0.0
 40
634.51272735985492
 50
265.09231422664129
 51
265.53491662069052
  0
LINE
  5
33C
  8
HIDDEN
 10
116.4544185764893
 20
212.2903003184021
 30
0.0
 11
123.4529627611484
 21
212.4330496258406
 31
0.0
  0
LINE
  5
33D
  8
HIDDEN
 10
132.42902722351931
 20
207.6150945274951
 30
0.0
 11
109.4085984510629
 21
207.14554683621839
 31
0.0
  0
LINE
  5
33E
  8
HIDDEN
 10
141.2248988957258
 20
223.7978315637182
 30
0.0
 11
107.23196999881
 21
223.10447778473119
 31
0.0
  0
LINE
  5
33F
  8
HIDDEN
 10
108.23482093892071
 20
222.9749017389797
 30
0.0
 11
129.23045349289791
 21
223.40314966129509
 31
0.0
  0
POLYLINE
  5
340
  8
HIDDEN
 66
     1
 10
0.0
 20
0.0
 30
0.0
 70
     1
  0
VERTEX
  5
CF4
  8
HIDDEN
 10
108.24705659384399
 20
222.3750265231518
 30
0.0
 42
-0.067459039934132
  0
VERTEX
  5
CF5
  8
HIDDEN
 10
108.212704961157
 20
222.07584953999759
 30
0.0
 42
-0.0798124861749853
  0
VERTEX
  5
CF6
  8
HIDDEN
 10
108.11145533467941
 20
221.841820281634
 30
0.0
 42
-0.1071181112083337
  0
VERTEX
  5
CF7
  8
HIDDEN
 10
107.9410399180767
 20
221.6699098097989
 30
0.0
 42
-0.1398891526406482
  0
VERTEX
  5
CF8
  8
HIDDEN
 10
107.7624551493082
 20
221.61498612426419
 30
0.0
 42
-0.1398891526406694
  0
VERTEX
  5
CF9
  8
HIDDEN
 10
107.58177928962169
 20
221.6625819706729
 30
0.0
 42
-0.1071181112083748
  0
VERTEX
  5
CFA
  8
HIDDEN
 10
107.40449561305
 20
221.8274004240198
 30
0.0
 42
-0.0798124861749855
  0
VERTEX
  5
CFB
  8
HIDDEN
 10
107.2937871794194
 20
222.05710637377959
 30
0.0
 42
-0.067459039934132
  0
VERTEX
  5
CFC
  8
HIDDEN
 10
107.2472645674642
 20
222.3546337649463
 30
0.0
 42
-0.067459039934132
  0
VERTEX
  5
CFD
  8
HIDDEN
 10
107.28161620015101
 20
222.6538107481006
 30
0.0
 42
-0.0798124861749855
  0
VERTEX
  5
CFE
  8
HIDDEN
 10
107.3828658266288
 20
222.8878400064639
 30
0.0
 42
-0.1071181112083335
  0
VERTEX
  5
CFF
  8
HIDDEN
 10
107.5532812432315
 20
223.05975047829901
 30
0.0
 42
-0.1398891526406482
  0
VERTEX
  5
D00
  8
HIDDEN
 10
107.7318660119999
 20
223.114674163834
 30
0.0
 42
-0.1398891526406482
  0
VERTEX
  5
D01
  8
HIDDEN
 10
107.9125418716863
 20
223.067078317425
 30
0.0
 42
-0.1071181112083337
  0
VERTEX
  5
D02
  8
HIDDEN
 10
108.0898255482581
 20
222.90225986407819
 30
0.0
 42
-0.0798124861749897
  0
VERTEX
  5
D03
  8
HIDDEN
 10
108.2005339818886
 20
222.6725539143184
 30
0.0
 42
-0.0674590399341662
  0
SEQEND
  5
D04
  8
HIDDEN
  0
LINE
  5
352
  8
HIDDEN
 10
114.5374252102515
 20
208.20035632102639
 30
0.0
 11
114.3528707327019
 21
217.24847493389041
 31
0.0
  0
LINE
  5
353
  8
HIDDEN
 10
116.54108779886251
 20
208.0411842062876
 30
0.0
 11
116.4544185764893
 21
212.2903003184021
 31
0.0
  0
LINE
  5
354
  8
HIDDEN
 10
117.454210602869
 20
212.31069307660741
 30
0.0
 11
117.47575808728421
 21
211.25428849956791
 31
0.0
  0
LINE
  5
355
  8
HIDDEN
 10
106.5952052960468
 20
206.28799567337131
 30
0.0
 11
108.1322930054383
 21
206.3193476517541
 31
0.0
  0
LINE
  5
356
  8
HIDDEN
 10
105.858717662275
 20
207.07313991690529
 30
0.0
 11
106.5952052960468
 21
206.28799567337131
 31
0.0
  0
LINE
  5
357
  8
HIDDEN
 10
116.0513881647753
 20
207.53109181399489
 30
0.0
 11
115.2515545436714
 21
207.51477760743049
 31
0.0
  0
LINE
  5
358
  8
HIDDEN
 10
114.5364016819274
 20
208.2505366569564
 30
0.0
 11
113.5570122077456
 21
207.23036207421899
 31
0.0
  0
LINE
  5
359
  8
HIDDEN
 10
113.5570122077456
 20
207.23036207421899
 30
0.0
 11
112.55723017928609
 21
207.2099695199411
 31
0.0
  0
LINE
  5
35A
  8
HIDDEN
 10
112.5368376250082
 20
208.2097515484007
 30
0.0
 11
111.5370555965487
 21
208.18935899412301
 31
0.0
  0
LINE
  5
35B
  8
HIDDEN
 10
111.5370555965487
 20
208.1893589941227
 30
0.0
 11
111.5574481508265
 21
207.18957696566309
 31
0.0
  0
LINE
  5
35C
  8
HIDDEN
 10
112.5368376250082
 20
208.2097515484007
 30
0.0
 11
112.55723017928609
 21
207.2099695199411
 31
0.0
  0
LINE
  5
35D
  8
HIDDEN
 10
111.5574481508265
 20
207.18957696566309
 30
0.0
 11
109.4086227021827
 21
207.145747372464
 31
0.0
  0
ARC
  5
35F
  8
HIDDEN
 10
109.4085984510629
 20
207.14554683621839
 30
0.0
 40
0.7999999842399999
 50
223.1685000000025
 51
271.16849999999999
  0
ARC
  5
360
  8
HIDDEN
 10
115.23727961292759
 20
208.21463202589629
 30
0.0
 40
0.6999999862099999
 50
181.16843662374299
 51
271.16849999999999
  0
LINE
  5
361
  8
HIDDEN
 10
108.02766710646441
 20
208.61771044930489
 30
0.0
 11
107.02787607987641
 21
208.59731771149231
 31
0.0
  0
LINE
  5
362
  8
HIDDEN
 10
108.02766710646441
 20
208.61771044930501
 30
0.0
 11
107.02787607987641
 21
208.59731771149231
 31
0.0
  0
LINE
  5
365
  8
HIDDEN
 10
108.02766710646441
 20
208.61771044930489
 30
0.0
 11
109.4085984510629
 21
207.14554683621839
 31
0.0
  0
LINE
  5
366
  8
HIDDEN
 10
107.0296088491901
 20
208.5123655473015
 30
0.0
 11
108.8251225692274
 21
206.59822986215289
 31
0.0
  0
LINE
  5
367
  8
HIDDEN
 10
108.02766710646441
 20
208.61771044930489
 30
0.0
 11
109.4085984510629
 21
207.14554683621839
 31
0.0
  0
LINE
  5
368
  8
HIDDEN
 10
108.72612283235139
 20
206.70377009114679
 30
0.0
 11
108.1322930054383
 21
206.3193476517541
 31
0.0
  0
LINE
  5
369
  8
HIDDEN
 10
118.4873238779186
 20
210.69745107127241
 30
0.0
 11
117.47575808728421
 21
211.25428849956791
 31
0.0
  0
LINE
  5
36A
  8
HIDDEN
 10
117.5346269094815
 20
208.3681375217476
 30
0.0
 11
117.5561743938967
 21
207.3117329447081
 31
0.0
  0
LINE
  5
36B
  8
HIDDEN
 10
118.522645171237
 20
208.9657604845803
 30
0.0
 11
117.5346269094815
 21
208.3681375217476
 31
0.0
  0
ARC
  5
36C
  8
HIDDEN
 10
118.005088511388
 20
209.82140939882359
 30
0.0
 40
0.9999999802999999
 50
301.16849999999948
 51
61.168500000000179
  0
LINE
  5
36D
  8
HIDDEN
 10
116.0513881647753
 20
207.53109181399489
 30
0.0
 11
116.54108779886251
 21
208.0411842062876
 31
0.0
  0
LINE
  5
36E
  8
HIDDEN
 10
112.43795084685441
 20
213.058836263438
 30
0.0
 11
105.93943264769889
 21
212.92628598614749
 31
0.0
  0
LINE
  5
36F
  8
HIDDEN
 10
105.85480847226781
 20
217.07513995589531
 30
0.0
 11
105.93943264769889
 21
212.92628598614749
 31
0.0
  0
LINE
  5
370
  8
HIDDEN
 10
114.37325900452311
 20
216.24890286065661
 30
0.0
 11
112.37371494324459
 21
216.20811815995179
 31
0.0
  0
LINE
  5
371
  8
HIDDEN
 10
112.3533266714234
 20
217.2076902331857
 30
0.0
 11
112.43795084685451
 21
213.05883626343791
 31
0.0
  0
ARC
  5
372
  8
HIDDEN
 10
110.3887427922826
 20
215.09232938295679
 30
0.0
 40
0.9999999802999999
 50
91.168514638854376
 51
271.16851463885439
  0
ARC
  5
373
  8
HIDDEN
 10
112.0169602452622
 20
213.7252493751572
 30
0.0
 40
0.3999999921199999
 50
1.1685146388585139
 51
91.168514638854447
  0
LINE
  5
374
  8
HIDDEN
 10
110.4091358059311
 20
214.09253736178741
 30
0.0
 11
112.0088030398028
 21
214.12516618362511
 31
0.0
  0
ARC
  5
375
  8
HIDDEN
 10
112.0225654384183
 20
213.4504480391993
 30
0.0
 40
0.3999999921199999
 50
271.1685146388557
 51
1.168514638855028
  0
ARC
  5
376
  8
HIDDEN
 10
111.9598598070459
 20
216.52466703443201
 30
0.0
 40
0.3999999921199999
 50
271.16851463885439
 51
1.1685146388556009
  0
LINE
  5
377
  8
HIDDEN
 10
110.3683497786341
 20
216.0921214041264
 30
0.0
 11
111.9680170125055
 21
216.12475022596419
 31
0.0
  0
ARC
  5
378
  8
HIDDEN
 10
111.9542546138895
 20
216.79946837039
 30
0.0
 40
0.3999999921199999
 50
1.168514638854939
 51
91.308891256293023
  0
LINE
  5
379
  8
HIDDEN
 10
106.9237561027664
 20
213.34644632067
 30
0.0
 11
106.8554452782377
 21
216.6954666518609
 31
0.0
  0
ARC
  5
37A
  8
HIDDEN
 10
107.3236729112342
 20
213.35460352612949
 30
0.0
 40
0.3999999921199999
 50
181.16851463885499
 51
271.16851463885519
  0
ARC
  5
37B
  8
HIDDEN
 10
107.2553620867053
 20
216.7036238573202
 30
0.0
 40
0.3999999921199999
 50
91.168514638855015
 51
181.16851463885499
  0
INSERT
  5
37C
  8
HIDDEN
  2
*X4
 10
-45.147133861981757
 20
-192.02951620341739
 30
0.0
 41
1.9999999606000001
 42
1.9999999606000001
 43
1.9999999606000001
1001
ACAD
1000
HATCH
1002
{
1070
    16
1000
_U
1040
1.5
1040
0.7853981633974483
1070
     0
1002
}
  0
LINE
  5
37D
  8
HIDDEN
 10
107.2625591361183
 20
221.60478974516141
 30
0.0
 11
108.26235116249821
 21
221.6251825033668
 31
0.0
  0
LINE
  5
37E
  8
HIDDEN
 10
108.26235116249821
 20
221.6251825033668
 30
0.0
 11
108.23176202518989
 21
223.12487054293669
 31
0.0
  0
LINE
  5
37F
  8
HIDDEN
 10
99.784511696474624
 20
220.4520520322402
 30
0.0
 11
99.266955036625504
 21
221.30770094648369
 31
0.0
  0
LINE
  5
380
  8
HIDDEN
 10
107.2829518943237
 20
220.60499771878159
 30
0.0
 11
99.784511696474624
 21
220.4520520322402
 31
0.0
  0
LINE
  5
381
  8
HIDDEN
 10
98.195977601391945
 20
216.91892278075721
 30
0.0
 11
114.3528707327021
 21
217.24847493389041
 31
0.0
  0
LINE
  5
382
  8
HIDDEN
 10
132.484412247237
 20
210.98294968614931
 30
0.0
 11
133.47243050936211
 21
211.5805726308559
 31
0.0
  0
LINE
  5
383
  8
HIDDEN
 10
127.5428786406823
 20
208.06554614127199
 30
0.0
 11
127.4521308666678
 21
212.51462065866261
 31
0.0
  0
INSERT
  5
384
  8
HIDDEN
  2
*X3
 10
16.568308331846719
 20
-73.023816389283581
 30
0.0
 41
0.9999999802999999
 42
0.9999999802999999
 43
0.9999999802999999
 50
1.1685000000000001
1001
ACAD
1000
HATCH
1002
{
1070
    16
1000
_U
1040
1.5
1040
0.7853981633974483
1070
     0
1002
}
  0
LINE
  5
385
  8
HIDDEN
 10
136.53284979060891
 20
208.64899700154729
 30
0.0
 11
136.3075097966483
 21
219.69669966717109
 31
0.0
  0
LINE
  5
386
  8
HIDDEN
 10
134.53734427370031
 20
208.40825385398659
 30
0.0
 11
134.4506750513269
 21
212.6573699661009
 31
0.0
  0
LINE
  5
387
  8
HIDDEN
 10
132.51973354055519
 20
209.25125909945729
 30
0.0
 11
133.53129933155941
 21
208.69442165303559
 31
0.0
  0
LINE
  5
388
  8
HIDDEN
 10
133.55284681597459
 20
207.63801707599609
 30
0.0
 11
132.42902722351931
 21
207.6150945274951
 31
0.0
  0
ARC
  5
389
  8
HIDDEN
 10
78.146099079919253
 20
-424.57140081529337
 30
0.0
 40
634.51272735985492
 50
85.092314226641378
 51
85.53491662069051
  0
ARC
  5
38A
  8
HIDDEN
 10
133.00196890708611
 20
210.12730077190599
 30
0.0
 40
0.9999999802999999
 50
121.1684999999998
 51
241.16850000000039
  0
ARC
  5
38B
  8
HIDDEN
 10
135.83299535635311
 20
208.63472284492951
 30
0.0
 40
0.6999999862099999
 50
271.16849999999999
 51
1.1685633762569669
  0
LINE
  5
38C
  8
HIDDEN
 10
135.0474366659931
 20
207.91855421989931
 30
0.0
 11
135.84727028709679
 21
207.93486842646371
 31
0.0
  0
LINE
  5
38D
  8
HIDDEN
 10
133.53129933155941
 20
208.69442165303559
 30
0.0
 11
133.55284681597459
 21
207.63801707599609
 31
0.0
  0
LINE
  5
38E
  8
HIDDEN
 10
135.0474366659931
 20
207.91855421989931
 30
0.0
 11
134.53734427370031
 21
208.40825385398659
 31
0.0
  0
LINE
  5
38F
  8
HIDDEN
 10
132.32706343249421
 20
212.61405465939461
 30
0.0
 11
133.4508830249471
 21
212.6369772078954
 31
0.0
  0
LINE
  5
390
  8
HIDDEN
 10
127.4521308666678
 20
212.51462065866261
 30
0.0
 11
132.32706343249421
 21
212.61405465939461
 31
0.0
  0
ARC
  5
391
  8
HIDDEN
 10
52.310592692169422
 20
842.06124513044904
 30
0.0
 40
634.51272735985492
 50
276.80208337930941
 51
277.24468577335858
  0
LINE
  5
392
  8
HIDDEN
 10
133.4508830249471
 20
212.6369772078952
 30
0.0
 11
133.47243050936211
 21
211.5805726308559
 31
0.0
  0
LINE
  5
393
  8
HIDDEN
 10
133.4508830249471
 20
212.6369772078954
 30
0.0
 11
134.4506750513269
 21
212.6573699661009
 31
0.0
  0
LINE
  5
394
  8
HIDDEN
 10
129.30896561198921
 20
219.55395035973251
 30
0.0
 11
136.3075097966483
 21
219.69669966717109
 31
0.0
  0
LINE
  5
395
  8
HIDDEN
 10
128.19455816800081
 20
224.15718168664341
 30
0.0
 11
127.7625496774474
 21
223.52324002343499
 31
0.0
  0
LINE
  5
396
  8
HIDDEN
 10
129.30896561198921
 20
219.55395035973271
 30
0.0
 11
129.2273945791672
 21
223.5531184652522
 31
0.0
  0
LINE
  5
397
  8
HIDDEN
 10
139.30099581382339
 20
224.3837196980094
 30
0.0
 11
138.86898732326989
 21
223.7497780348011
 31
0.0
  0
LINE
  5
398
  8
HIDDEN
 10
124.05380292745549
 20
207.49427547436281
 30
0.0
 11
127.0531790065951
 21
207.55545374897929
 31
0.0
  0
LINE
  5
399
  8
HIDDEN
 10
123.5437105351627
 20
207.9839751084501
 30
0.0
 11
123.4529627611484
 21
212.4330496258406
 31
0.0
  0
ARC
  5
39A
  8
HIDDEN
 10
124.0436065483526
 20
207.99417148755271
 30
0.0
 40
0.49999999015
 50
181.1684999999996
 51
271.16849999999943
  0
ARC
  5
39C
  8
HIDDEN
 10
127.04298262749229
 20
208.05534976216919
 30
0.0
 40
0.49999999015
 50
271.1684999999996
 51
1.168499999999701
  0
LINE
  5
39D
  8
HIDDEN
 10
115.8426358303244
 20
242.28406110979819
 30
0.0
 11
122.84118001498349
 21
242.42681041723679
 31
0.0
  0
ARC
  5
39E
  8
HIDDEN
 10
172.14721180173191
 20
879.51283189119283
 30
0.0
 40
634.51272735985492
 50
265.09231422664129
 51
265.53491662069052
  0
ARC
  5
39F
  8
HIDDEN
 10
197.98271818948211
 20
-387.11981405454992
 30
0.0
 40
634.51272735985492
 50
96.802083379309494
 51
97.24468577335864
  0
INSERT
  5
3A0
  8
HIDDEN
  2
*X1
 10
16.568308331846719
 20
-73.023816389283581
 30
0.0
 41
0.9999999802999999
 42
0.9999999802999999
 43
0.9999999802999999
 50
1.1685000000000001
1001
ACAD
1000
HATCH
1002
{
1070
    16
1000
_U
1040
1.5
1040
0.7853981633974483
1070
     0
1002
}
  0
LINE
  5
3A1
  8
HIDDEN
 10
141.0617568300818
 20
231.79616777475701
 30
0.0
 11
107.06882793316601
 21
231.10281399577011
 31
0.0
  0
LINE
  5
3A2
  8
HIDDEN
 10
108.065561045815
 20
231.2731755579326
 30
0.0
 11
129.0611935997924
 21
231.70142348024811
 31
0.0
  0
POLYLINE
  5
3A3
  8
HIDDEN
 66
     1
 10
0.0
 20
0.0
 30
0.0
 70
     1
  0
VERTEX
  5
D05
  8
HIDDEN
 10
108.0533253908917
 20
231.87305077376061
 30
0.0
 42
-0.067459039934132
  0
VERTEX
  5
D06
  8
HIDDEN
 10
108.01897375820489
 20
231.5738737906062
 30
0.0
 42
-0.0798124861749853
  0
VERTEX
  5
D07
  8
HIDDEN
 10
107.9177241317273
 20
231.33984453224281
 30
0.0
 42
-0.1071181112083337
  0
VERTEX
  5
D08
  8
HIDDEN
 10
107.7473087151244
 20
231.16793406040779
 30
0.0
 42
-0.1398891526406482
  0
VERTEX
  5
D09
  8
HIDDEN
 10
107.568723946356
 20
231.11301037487291
 30
0.0
 42
-0.1398891526406694
  0
VERTEX
  5
D0A
  8
HIDDEN
 10
107.3880480866696
 20
231.16060622128171
 30
0.0
 42
-0.1071181112083748
  0
VERTEX
  5
D0B
  8
HIDDEN
 10
107.21076441009789
 20
231.32542467462869
 30
0.0
 42
-0.0798124861749855
  0
VERTEX
  5
D0C
  8
HIDDEN
 10
107.1000559764671
 20
231.55513062438851
 30
0.0
 42
-0.067459039934132
  0
VERTEX
  5
D0D
  8
HIDDEN
 10
107.05353336451191
 20
231.85265801555511
 30
0.0
 42
-0.067459039934132
  0
VERTEX
  5
D0E
  8
HIDDEN
 10
107.0878849971989
 20
232.15183499870909
 30
0.0
 42
-0.0798124861749855
  0
VERTEX
  5
D0F
  8
HIDDEN
 10
107.18913462367649
 20
232.3858642570728
 30
0.0
 42
-0.1071181112083335
  0
VERTEX
  5
D10
  8
HIDDEN
 10
107.3595500402794
 20
232.55777472890759
 30
0.0
 42
-0.1398891526406482
  0
VERTEX
  5
D11
  8
HIDDEN
 10
107.5381348090477
 20
232.61269841444269
 30
0.0
 42
-0.1398891526406482
  0
VERTEX
  5
D12
  8
HIDDEN
 10
107.71881066873431
 20
232.56510256803369
 30
0.0
 42
-0.1071181112083337
  0
VERTEX
  5
D13
  8
HIDDEN
 10
107.8960943453058
 20
232.40028411468691
 30
0.0
 42
-0.0798124861749897
  0
VERTEX
  5
D14
  8
HIDDEN
 10
108.0068027789365
 20
232.17057816492721
 30
0.0
 42
-0.0674590399341662
  0
SEQEND
  5
D15
  8
HIDDEN
  0
LINE
  5
3B5
  8
HIDDEN
 10
113.7604610910424
 20
246.29243407435169
 30
0.0
 11
113.9450155685921
 21
237.24431546148779
 31
0.0
  0
LINE
  5
3B6
  8
HIDDEN
 10
115.7559666079508
 20
246.53317722191269
 30
0.0
 11
115.8426358303242
 21
242.28406110979819
 31
0.0
  0
ARC
  5
3B7
  8
HIDDEN
 10
106.83850504180739
 20
237.49944715553229
 30
0.0
 40
0.3999999921199999
 50
181.16849999999999
 51
271.16849999999999
  0
ARC
  5
3B8
  8
HIDDEN
 10
106.77019507294089
 20
240.8484675041762
 30
0.0
 40
0.3999999921199999
 50
91.168499999999796
 51
181.16849999999991
  0
INSERT
  5
3B9
  8
HIDDEN
  2
*X4
 10
-45.63961320152287
 20
-167.88482170607239
 30
0.0
 41
1.9999999606000001
 42
1.9999999606000001
 43
1.9999999606000001
1001
ACAD
1000
HATCH
1002
{
1070
    16
1000
_U
1040
1.5
1040
0.7853981633974483
1070
     0
1002
}
  0
LINE
  5
3BA
  8
HIDDEN
 10
111.8608473318827
 20
241.35238473053079
 30
0.0
 11
105.3623291327267
 21
241.2198344532404
 31
0.0
  0
LINE
  5
3BB
  8
HIDDEN
 10
105.3623291327267
 20
241.2198344532404
 30
0.0
 11
105.4469533081578
 21
237.0709804834926
 31
0.0
  0
LINE
  5
3BC
  8
HIDDEN
 10
106.37027826238869
 20
240.84031040089391
 30
0.0
 11
106.43858823125559
 21
237.49129005225009
 31
0.0
  0
LINE
  5
3BD
  8
HIDDEN
 10
107.03823879585769
 20
232.60250203534
 30
0.0
 11
108.0380308222377
 21
232.62289479354541
 31
0.0
  0
LINE
  5
3BF
  8
HIDDEN
 10
108.0686199595459
 20
231.12320675397581
 30
0.0
 11
108.0380308222377
 21
232.62289479354541
 31
0.0
  0
LINE
  5
3C0
  8
HIDDEN
 10
111.8608473318827
 20
241.35238473053079
 30
0.0
 11
111.9454715073135
 21
237.20353076078311
 31
0.0
  0
ARC
  5
3C1
  8
HIDDEN
 10
109.9035753668384
 20
239.237172229246
 30
0.0
 40
0.9999999802999999
 50
91.168500000000662
 51
271.16850000000062
  0
LINE
  5
3C2
  8
HIDDEN
 10
113.92462729677111
 20
238.24388753472181
 30
0.0
 11
111.92508323549249
 21
238.2031028340169
 31
0.0
  0
LINE
  5
3C3
  8
HIDDEN
 10
109.9239681250437
 20
238.23738020286621
 30
0.0
 11
111.5236353672516
 21
238.2700086159949
 31
0.0
  0
ARC
  5
3C4
  8
HIDDEN
 10
111.5373975934793
 20
237.59529046805281
 30
0.0
 40
0.3999999921199999
 50
271.16849999999999
 51
1.168500000000128
  0
ARC
  5
3C5
  8
HIDDEN
 10
111.5317924705338
 20
237.870091805443
 30
0.0
 40
0.3999999921199999
 50
1.1684999999994661
 51
91.168500000000606
  0
LINE
  5
3C6
  8
HIDDEN
 10
109.88318260863269
 20
240.23696425562579
 30
0.0
 11
111.48284985084069
 21
240.26959266875451
 31
0.0
  0
ARC
  5
3C7
  8
HIDDEN
 10
111.4690876246128
 20
240.9443108166966
 30
0.0
 40
0.3999999921199999
 50
1.168500000000039
 51
91.168499999999327
  0
ARC
  5
3C8
  8
HIDDEN
 10
111.47469274755861
 20
240.6695094793065
 30
0.0
 40
0.3999999921199999
 50
271.16850000000062
 51
1.1684999999965531
  0
LINE
  5
3CA
  8
HIDDEN
 10
106.2716120114914
 20
245.6745378594332
 30
0.0
 11
107.9875795711463
 21
247.6602972290986
 31
0.0
  0
LINE
  5
3CB
  8
HIDDEN
 10
107.2731358073931
 20
245.60997843305529
 30
0.0
 11
106.2733447808051
 21
245.5895856952425
 31
0.0
  0
LINE
  5
3CC
  8
HIDDEN
 10
105.7468665546983
 20
247.87934397077399
 30
0.0
 11
107.2839542640896
 21
247.9106959491568
 31
0.0
  0
LINE
  5
3CD
  8
HIDDEN
 10
105.0175207197595
 20
248.31434854926951
 30
0.0
 11
103.7178810658481
 21
248.2878397989322
 31
0.0
  0
LINE
  5
3CE
  8
HIDDEN
 10
103.70259113650179
 20
249.03745636823049
 30
0.0
 11
103.7178810658481
 21
248.2878397989322
 31
0.0
  0
LINE
  5
3CF
  8
HIDDEN
 10
103.192508946006
 20
249.52714620837401
 30
0.0
 11
103.70259113650179
 21
249.03745636823049
 31
0.0
  0
LINE
  5
3D0
  8
HIDDEN
 10
105.0175168196446
 20
248.31453975949449
 30
0.0
 11
105.0430073340552
 21
247.06482097210011
 31
0.0
  0
LINE
  5
3D1
  8
HIDDEN
 10
105.0430073340552
 20
247.06482097210011
 30
0.0
 11
105.7468665546983
 21
247.87934397077399
 31
0.0
  0
LINE
  5
3D2
  8
HIDDEN
 10
115.2458742156582
 20
247.0228768559999
 30
0.0
 11
115.7559666079508
 21
246.53317722191269
 31
0.0
  0
ARC
  5
3D3
  8
HIDDEN
 10
114.4603155252983
 20
246.3067082309696
 30
0.0
 40
0.6999999862099999
 50
91.168499999999923
 51
181.16856337625691
  0
LINE
  5
3D4
  8
HIDDEN
 10
112.7413100366292
 20
247.2216432126034
 30
0.0
 11
111.74152800816979
 21
247.20125065832559
 31
0.0
  0
LINE
  5
3D5
  8
HIDDEN
 10
112.7413100366292
 20
247.2216432126034
 30
0.0
 11
113.7614846193666
 21
246.2422537384216
 31
0.0
  0
LINE
  5
3D6
  8
HIDDEN
 10
111.74152800816979
 20
247.20125065832559
 30
0.0
 11
111.7619205624476
 21
246.20146862986601
 31
0.0
  0
LINE
  5
3D7
  8
HIDDEN
 10
110.7417459797102
 20
247.18085810404759
 30
0.0
 11
110.76213853398789
 21
246.18107607558801
 31
0.0
  0
LINE
  5
3D8
  8
HIDDEN
 10
111.7619205624476
 20
246.20146862986601
 30
0.0
 11
110.76213853398789
 21
246.18107607558801
 31
0.0
  0
LINE
  5
3D9
  8
HIDDEN
 10
110.7417459797102
 20
247.18085810404759
 30
0.0
 11
108.5929205310661
 21
247.13702851084849
 31
0.0
  0
LINE
  5
3DB
  8
HIDDEN
 10
115.2458742156582
 20
247.0228768559999
 30
0.0
 11
114.4460405945544
 21
247.00656264943549
 31
0.0
  0
LINE
  5
3DD
  8
HIDDEN
 10
107.8929657929289
 20
247.55080786519019
 30
0.0
 11
107.2839542640896
 21
247.9106959491568
 31
0.0
  0
LINE
  5
3DE
  8
HIDDEN
 10
107.2731358073931
 20
245.60997843305529
 30
0.0
 11
108.59288812284299
 21
247.1372278914134
 31
0.0
  0
ARC
  5
3DF
  8
HIDDEN
 10
108.59288812284299
 20
247.13722789141329
 30
0.0
 40
0.7999999842399999
 50
91.168499999999995
 51
139.16849999999741
  0
ARC
  5
3E0
  8
HIDDEN
 10
117.2913419745652
 20
244.8141303039931
 30
0.0
 40
0.9999999802999999
 50
301.16849999999982
 51
61.168500000000442
  0
LINE
  5
3E1
  8
HIDDEN
 10
116.7620115500919
 20
246.24700942286361
 30
0.0
 11
116.7404640656769
 21
247.30341399990311
 31
0.0
  0
LINE
  5
3E2
  8
HIDDEN
 10
116.84242785670411
 20
242.30445386800389
 30
0.0
 11
116.820880372289
 21
243.3608584450435
 31
0.0
  0
LINE
  5
3E3
  8
HIDDEN
 10
117.7735773410961
 20
245.690171976442
 30
0.0
 11
116.7620115500919
 21
246.24700942286361
 31
0.0
  0
LINE
  5
3E4
  8
HIDDEN
 10
117.8088986344145
 20
243.95848138974981
 30
0.0
 11
116.820880372289
 21
243.3608584450435
 31
0.0
  0
LINE
  5
3E5
  8
HIDDEN
 10
98.97916442890542
 20
247.69087766575771
 30
0.0
 11
98.873891106419933
 21
240.43736759851859
 31
0.0
  0
LINE
  5
3E6
  8
HIDDEN
 10
99.519405839803255
 20
233.4493483751786
 30
0.0
 11
99.037170473272553
 21
232.5733067027297
 31
0.0
  0
LINE
  5
3E7
  8
HIDDEN
 10
107.01784603765221
 20
233.6022940617199
 30
0.0
 11
99.519405839803255
 21
233.4493483751786
 31
0.0
  0
LINE
  5
3E8
  8
HIDDEN
 10
100.6930788694074
 20
249.4761653324932
 30
0.0
 11
97.963727950108435
 21
246.6331549585388
 31
0.0
  0
LINE
  5
3E9
  8
HIDDEN
 10
135.98122566536031
 20
235.69337208924901
 30
0.0
 11
135.75588568718959
 21
246.74107398074671
 31
0.0
  0
LINE
  5
3EA
  8
HIDDEN
 10
129.0642525135232
 20
231.551454676291
 30
0.0
 11
128.98268148070119
 21
235.5506227818106
 31
0.0
  0
LINE
  5
3EB
  8
HIDDEN
 10
127.5994076118033
 20
231.521576234474
 30
0.0
 11
128.05690705011381
 21
230.9057778647074
 31
0.0
  0
LINE
  5
3EC
  8
HIDDEN
 10
138.7058452576259
 20
231.74811424583999
 30
0.0
 11
139.1633446959363
 21
231.13231587607339
 31
0.0
  0
LINE
  5
3ED
  8
HIDDEN
 10
128.98268148070119
 20
235.5506227818106
 30
0.0
 11
135.98122566536031
 21
235.69337208924901
 31
0.0
  0
LINE
  5
3EE
  8
HIDDEN
 10
132.75868397216971
 20
246.57329355415149
 30
0.0
 11
132.73713648775461
 21
247.62969813119099
 31
0.0
  0
LINE
  5
3EF
  8
HIDDEN
 10
131.77066571041419
 20
245.97567059131899
 30
0.0
 11
132.75868397216971
 21
246.57329355415149
 31
0.0
  0
LINE
  5
3F0
  8
HIDDEN
 10
132.83910027878221
 20
242.63073799929191
 30
0.0
 11
132.81755279436709
 21
243.6871425763313
 31
0.0
  0
LINE
  5
3F1
  8
HIDDEN
 10
131.80598700373281
 20
244.24398000462671
 30
0.0
 11
132.81755279436709
 21
243.6871425763313
 31
0.0
  0
ARC
  5
3F2
  8
HIDDEN
 10
132.2882223702633
 20
245.12002167707561
 30
0.0
 40
0.9999999802999999
 50
121.1684999999995
 51
241.16850000000019
  0
ARC
  5
3F3
  8
HIDDEN
 10
135.05603126872359
 20
246.7267990500028
 30
0.0
 40
0.6999999862099999
 50
1.1684366237430579
 51
91.168499999999995
  0
LINE
  5
3F4
  8
HIDDEN
 10
134.24192271687591
 20
247.41033926190431
 30
0.0
 11
133.75222308278879
 21
246.90024686961161
 31
0.0
  0
LINE
  5
3F6
  8
HIDDEN
 10
133.75222308278879
 20
246.90024686961161
 30
0.0
 11
133.8388923051622
 21
242.6511307574971
 31
0.0
  0
LINE
  5
3F7
  8
HIDDEN
 10
134.24192271687591
 20
247.41033926190431
 30
0.0
 11
135.0417563379799
 21
247.4266534684686
 31
0.0
  0
ARC
  5
3F8
  8
HIDDEN
 10
126.2497043332986
 20
246.9472595883463
 30
0.0
 40
0.49999999015
 50
1.1685000000000001
 51
91.168499999999995
  0
LINE
  5
3F9
  8
HIDDEN
 10
126.8403481205029
 20
242.50838145005861
 30
0.0
 11
126.74960034648841
 21
246.95745596744911
 31
0.0
  0
LINE
  5
3FA
  8
HIDDEN
 10
126.8403481205029
 20
242.50838145005861
 30
0.0
 11
133.8388923051622
 21
242.6511307574971
 31
0.0
  0
ARC
  5
3FB
  8
HIDDEN
 10
51.596846154976973
 20
877.05396605374494
 30
0.0
 40
634.51272735985492
 50
276.80208337930941
 51
277.24468577335858
  0
ARC
  5
3FC
  8
HIDDEN
 10
77.432352542727003
 20
-389.57867989199792
 30
0.0
 40
634.51272735985492
 50
85.092314226641378
 51
85.53491662069051
  0
ARC
  5
3FD
  8
HIDDEN
 10
123.250328254159
 20
246.8860813137299
 30
0.0
 40
0.49999999015
 50
91.168499999999995
 51
181.1684999999996
  0
LINE
  5
3FE
  8
HIDDEN
 10
122.84118001498349
 20
242.42681041723679
 30
0.0
 11
122.750432240969
 21
246.87588493462709
 31
0.0
  0
LINE
  5
3FF
  8
HIDDEN
 10
123.24013187505631
 20
247.38597732691991
 30
0.0
 11
126.2395079541956
 21
247.44715560153639
 31
0.0
  0
LINE
  5
400
  8
HIDDEN
 10
131.549872903612
 20
259.0480202823249
 30
0.0
 11
129.87982929628561
 21
278.97817177672238
 31
0.0
  0
ARC
  5
401
  8
HIDDEN
  6
HIDDEN
 10
136.53241077721131
 20
259.46553118415648
 30
0.0
 40
4.999999901499999
 50
184.7898999999999
 51
274.78989999999988
  0
ARC
  5
402
  8
HIDDEN
 10
134.86236716988481
 20
279.39568267855401
 30
0.0
 40
4.999999901499999
 50
94.789899999999975
 51
184.7898999999999
  0
LINE
  5
403
  8
HIDDEN
 10
205.68106396725469
 20
251.1177038414489
 30
0.0
 11
205.80341546928469
 21
245.11919913147139
 31
0.0
  0
LINE
  5
404
  8
HIDDEN
 10
199.39766415585851
 20
250.23961164769051
 30
0.0
 11
199.42315467026941
 21
248.98989286029621
 31
0.0
  0
LINE
  5
405
  8
HIDDEN
 10
144.21152950098681
 20
224.48387985482191
 30
0.0
 11
144.0738783830997
 21
231.2324760328861
 31
0.0
  0
LINE
  5
406
  8
HIDDEN
 10
146.16782447826751
 20
227.8994843279244
 30
0.0
 11
144.21152950098681
 21
224.48387985482191
 31
0.0
  0
LINE
  5
407
  8
HIDDEN
 10
144.0738783830997
 20
231.2324760328861
 30
0.0
 11
146.16782447826751
 21
227.8994843279244
 31
0.0
  0
INSERT
  5
408
  8
HIDDEN
  2
*X0
 10
310.53968902416631
 20
60.039076316438333
 30
0.0
 41
-0.9999999802999999
 42
0.9999999802999999
 43
0.9999999802999999
 50
1.1685000000000001
1001
ACAD
1000
HATCH
1002
{
1070
    16
1000
_U
1040
1.5
1040
0.7853981633974483
1070
     0
1002
}
  0
LINE
  5
409
  8
HIDDEN
 10
206.08863559980409
 20
206.6172571850451
 30
0.0
 11
206.57833523389141
 21
207.12734957733781
 31
0.0
  0
LINE
  5
40A
  8
HIDDEN
 10
191.35724705463619
 20
217.8190462640589
 30
0.0
 11
208.35360152607191
 21
218.16572091035101
 31
0.0
  0
LINE
  5
40B
  8
HIDDEN
 10
205.58695113464859
 20
206.6950242563818
 30
0.0
 11
205.3524340574042
 21
218.19250602625601
 31
0.0
  0
LINE
  5
40C
  8
HIDDEN
 10
200.2643555128999
 20
207.74849301770709
 30
0.0
 11
201.56408514719379
 21
207.7750036033741
 31
0.0
  0
LINE
  5
40D
  8
HIDDEN
 10
200.2643555128999
 20
207.74849301770689
 30
0.0
 11
200.2388649984893
 21
208.99821180510131
 31
0.0
  0
LINE
  5
40E
  8
HIDDEN
 10
200.2388649984893
 20
208.99821180510131
 30
0.0
 11
199.5350057778461
 21
208.1836888064272
 31
0.0
  0
LINE
  5
40F
  8
HIDDEN
 10
201.57937521415101
 20
207.02538028745909
 30
0.0
 11
201.56408514719379
 21
207.7750036033741
 31
0.0
  0
LINE
  5
410
  8
HIDDEN
 10
201.57937521415101
 20
207.02538028745909
 30
0.0
 11
202.0894619954326
 21
206.53568604006301
 31
0.0
  0
LINE
  5
411
  8
HIDDEN
 10
202.5875750711399
 20
206.63384521543611
 30
0.0
 11
202.35305799389539
 21
218.1313269853103
 31
0.0
  0
LINE
  5
412
  8
HIDDEN
 10
202.0894619954326
 20
206.53568604006301
 30
0.0
 11
206.08863559980409
 21
206.6172571850451
 31
0.0
  0
LINE
  5
413
  8
HIDDEN
 10
193.5199732535151
 20
209.86139354996871
 30
0.0
 11
194.51976428010281
 21
209.88178628778149
 31
0.0
  0
LINE
  5
414
  8
HIDDEN
 10
191.3368567639524
 20
218.81871731571371
 30
0.0
 11
191.5203912003393
 21
209.8206080743432
 31
0.0
  0
LINE
  5
415
  8
HIDDEN
 10
192.54057496473979
 20
208.841209785568
 30
0.0
 11
193.54036599132769
 21
208.86160252338081
 31
0.0
  0
LINE
  5
416
  8
HIDDEN
 10
191.5203912003393
 20
209.8206080743432
 30
0.0
 11
192.54057496473979
 21
208.841209785568
 31
0.0
  0
LINE
  5
417
  8
HIDDEN
 10
193.5199732535151
 20
209.86139354996871
 30
0.0
 11
193.54036599132769
 21
208.86160252338081
 31
0.0
  0
LINE
  5
41B
  8
HIDDEN
 10
197.38890653961531
 20
208.51222491201111
 30
0.0
 11
197.99791806845451
 21
208.1523368280445
 31
0.0
  0
ARC
  5
41C
  8
HIDDEN
 10
196.68898420970129
 20
208.92580488578801
 30
0.0
 40
0.7999999842399999
 50
271.16849999999999
 51
319.16849999999738
  0
LINE
  5
41D
  8
HIDDEN
 10
198.00873652515119
 20
210.45305434414621
 30
0.0
 11
196.68900180618201
 21
208.92582524886311
 31
0.0
  0
LINE
  5
41E
  8
HIDDEN
 10
198.00873652515119
 20
210.45305434414601
 30
0.0
 11
196.68898420970129
 21
208.92580488578801
 31
0.0
  0
LINE
  5
41F
  8
HIDDEN
 10
194.51976428010281
 20
209.88178628778141
 30
0.0
 11
194.5401570179157
 21
208.88199526119351
 31
0.0
  0
LINE
  5
420
  8
HIDDEN
 10
194.5401570179157
 20
208.88199526119351
 30
0.0
 11
196.68900180618201
 21
208.92582524886311
 31
0.0
  0
LINE
  5
421
  8
HIDDEN
 10
198.00873652515119
 20
210.45305434414621
 30
0.0
 11
199.00852755173929
 21
210.47344708195899
 31
0.0
  0
LINE
  5
422
  8
HIDDEN
 10
198.00873652515119
 20
210.45305434414601
 30
0.0
 11
199.00852755173929
 21
210.47344708195899
 31
0.0
  0
LINE
  5
423
  8
HIDDEN
 10
199.5350057778461
 20
208.1836888064272
 30
0.0
 11
197.99791806845451
 21
208.1523368280445
 31
0.0
  0
LINE
  5
424
  8
HIDDEN
 10
199.0102603210529
 20
210.38849491776821
 30
0.0
 11
197.2942927613982
 21
208.4027355481027
 31
0.0
  0
LINE
  5
425
  8
HIDDEN
 10
206.45598373186141
 20
213.12585428731549
 30
0.0
 11
206.57833523389141
 21
207.12734957733781
 31
0.0
  0
LINE
  5
426
  8
HIDDEN
 10
221.9323673825439
 20
214.4417340658805
 30
0.0
 11
207.4353830000357
 21
214.14603907190079
 31
0.0
  0
LINE
  5
427
  8
HIDDEN
 10
223.370877147497
 20
217.47169928232839
 30
0.0
 11
208.3739967517991
 21
217.16580790924601
 31
0.0
  0
LINE
  5
428
  8
HIDDEN
 10
208.33321123538781
 20
219.16539196200571
 30
0.0
 11
208.3739967517991
 21
217.16580790924601
 31
0.0
  0
LINE
  5
429
  8
HIDDEN
 10
207.4353830000357
 20
214.14603907190079
 30
0.0
 11
206.45598373186141
 21
213.12585428731549
 31
0.0
  0
LINE
  5
42A
  8
HIDDEN
 10
223.33009163108611
 20
219.47128333508809
 30
0.0
 11
223.4014662848052
 21
215.9720112427585
 31
0.0
  0
LINE
  5
42B
  8
HIDDEN
 10
223.4014662848052
 20
215.9720112427585
 30
0.0
 11
221.9323673825439
 21
214.4417340658805
 31
0.0
  0
LINE
  5
42C
  8
HIDDEN
 10
205.80341546928469
 20
245.11919913147139
 30
0.0
 11
206.8236002538701
 21
244.1397998632971
 31
0.0
  0
LINE
  5
42D
  8
HIDDEN
 10
190.90861130915829
 20
239.81422889496571
 30
0.0
 11
207.90496578059361
 21
240.1609035412578
 31
0.0
  0
LINE
  5
42E
  8
HIDDEN
 10
199.42315467026941
 20
248.98989286029621
 30
0.0
 11
198.6866670364976
 21
249.77503710382999
 31
0.0
  0
LINE
  5
42F
  8
HIDDEN
 10
193.72444750540589
 20
248.87363632470749
 30
0.0
 11
195.87329229367239
 21
248.91746631237689
 31
0.0
  0
LINE
  5
430
  8
HIDDEN
 10
190.74546716345529
 20
247.81266708468141
 30
0.0
 11
190.92900159984239
 21
238.81455784331101
 31
0.0
  0
LINE
  5
431
  8
HIDDEN
 10
191.72486545223029
 20
248.83285084908201
 30
0.0
 11
190.74546716345529
 21
247.81266708468141
 31
0.0
  0
LINE
  5
432
  8
HIDDEN
 10
193.72444750540589
 20
248.87363632470749
 30
0.0
 11
193.74484024321879
 21
247.87384529811959
 31
0.0
  0
LINE
  5
433
  8
HIDDEN
 10
191.72486545223029
 20
248.83285084908201
 30
0.0
 11
192.7246564788181
 21
248.85324358689471
 31
0.0
  0
LINE
  5
434
  8
HIDDEN
 10
192.7246564788181
 20
248.85324358689471
 30
0.0
 11
192.74504921663089
 21
247.85345256030689
 31
0.0
  0
LINE
  5
436
  8
HIDDEN
 10
192.74504921663089
 20
247.85345256030689
 30
0.0
 11
193.74484024321879
 21
247.87384529811959
 31
0.0
  0
LINE
  5
437
  8
HIDDEN
 10
196.55574950019289
 20
249.35926268605451
 30
0.0
 11
197.14957932710601
 21
249.74368512544731
 31
0.0
  0
ARC
  5
438
  8
HIDDEN
 10
195.8732738814814
 20
248.917485940983
 30
0.0
 40
0.7999999842399999
 50
43.168500000002588
 51
91.168499999999966
  0
LINE
  5
43A
  8
HIDDEN
 10
197.2542052260801
 20
247.44532232789641
 30
0.0
 11
198.25399625266789
 21
247.46571506570911
 31
0.0
  0
LINE
  5
43B
  8
HIDDEN
 10
198.25226348335411
 20
247.55066722990011
 30
0.0
 11
196.45674976331711
 21
249.46480291504849
 31
0.0
  0
LINE
  5
43C
  8
HIDDEN
 10
197.2542052260801
 20
247.44532232789641
 30
0.0
 11
195.8732738814814
 21
248.917485940983
 31
0.0
  0
LINE
  5
43D
  8
HIDDEN
 10
198.6866670364976
 20
249.77503710382999
 30
0.0
 11
197.14957932710601
 21
249.74368512544731
 31
0.0
  0
LINE
  5
43E
  8
HIDDEN
 10
222.8508618132565
 20
242.966395955015
 30
0.0
 11
222.92223646697579
 21
239.46712386268561
 31
0.0
  0
LINE
  5
43F
  8
HIDDEN
 10
222.8814509505647
 20
241.46670791544531
 30
0.0
 11
207.8845705548666
 21
241.16081654236291
 31
0.0
  0
LINE
  5
440
  8
HIDDEN
 10
207.8845705548666
 20
241.16081654236291
 30
0.0
 11
207.92535607127749
 21
239.16123248960321
 31
0.0
  0
LINE
  5
441
  8
HIDDEN
 10
221.32058463637841
 20
244.43549485727681
 30
0.0
 11
206.8236002538701
 21
244.1397998632971
 31
0.0
  0
LINE
  5
442
  8
HIDDEN
 10
221.32058463637841
 20
244.43549485727681
 30
0.0
 11
222.8508618132565
 21
242.966395955015
 31
0.0
  0
LINE
  5
443
  8
CENTER
  6
CENTER
 10
147.3269897383972
 20
262.37707031762619
 30
0.0
 11
145.99095485253591
 21
278.32119151314367
 31
0.0
  0
LINE
  5
444
  8
HIDDEN
 10
205.1709715749619
 20
251.6074034755361
 30
0.0
 11
205.68106396725469
 21
251.1177038414489
 31
0.0
  0
LINE
  5
445
  8
HIDDEN
 10
200.6821037231953
 20
251.01574554927259
 30
0.0
 11
200.69739379015229
 21
250.26612223335769
 31
0.0
  0
LINE
  5
446
  8
HIDDEN
 10
199.39766415585859
 20
250.23961164769051
 30
0.0
 11
200.69739379015229
 21
250.26612223335769
 31
0.0
  0
LINE
  5
447
  8
HIDDEN
 10
201.1717979705914
 20
251.5258323305541
 30
0.0
 11
200.6821037231953
 21
251.01574554927259
 31
0.0
  0
LINE
  5
448
  8
HIDDEN
 10
201.1717979705914
 20
251.5258323305541
 30
0.0
 11
205.1709715749619
 21
251.6074034755361
 31
0.0
  0
LINE
  5
449
  8
0
 10
141.25897240184659
 20
455.0800241053862
 30
0.0
 11
141.65897239396659
 21
454.68002411326643
 31
0.0
  0
ARC
  5
44A
  8
0
 10
146.65897229546661
 20
467.80502385470368
 30
0.0
 40
12.72499974931752
 50
244.39146786943729
 51
295.60853213056248
  0
LINE
  5
44B
  8
0
 10
138.5339724555291
 20
455.0800241053862
 30
0.0
 11
154.78397213540401
 21
455.0800241053862
 31
0.0
  0
LINE
  5
44C
  8
0
 10
74.533973716329186
 20
455.08002410538631
 30
0.0
 11
90.783973396204075
 21
455.08002410538631
 31
0.0
  0
ARC
  5
44D
  8
0
 10
74.533973716329186
 20
458.4612740387758
 30
0.0
 40
3.381249933389352
 50
219.07330987625619
 51
320.92669012374341
  0
ARC
  5
44E
  8
0
 10
90.783973396204075
 20
458.4612740387758
 30
0.0
 40
3.381249933389352
 50
219.0733098762565
 51
320.9266901237437
  0
ARC
  5
44F
  8
0
 10
82.658973556266631
 20
467.80502385470379
 30
0.0
 40
12.72499974931752
 50
244.39146786943729
 51
295.60853213056248
  0
LINE
  5
450
  8
0
 10
77.658973654766612
 20
454.6800241132666
 30
0.0
 11
87.658973457766635
 21
454.6800241132666
 31
0.0
  0
LINE
  5
451
  8
0
 10
77.258973662646625
 20
455.08002410538631
 30
0.0
 11
77.658973654766612
 21
454.6800241132666
 31
0.0
  0
LINE
  5
452
  8
0
 10
88.058973449886636
 20
455.08002410538631
 30
0.0
 11
87.658973457766635
 21
454.6800241132666
 31
0.0
  0
LINE
  5
453
  8
0
 62
     7
 10
132.15897258111659
 20
452.68002415266642
 30
0.0
 11
109.6589730243666
 21
452.68002415266642
 31
0.0
  0
LINE
  5
454
  8
0
 62
     7
 10
132.15897258111659
 20
440.18002439891632
 30
0.0
 11
109.6589730243666
 21
440.18002439891632
 31
0.0
  0
ARC
  5
455
  8
0
 62
     7
 10
109.6589730243666
 20
446.43002427579131
 30
0.0
 40
6.2499998768749796
 50
89.999999999999744
 51
270.00000000000023
  0
ARC
  5
456
  8
0
 62
     7
 10
132.15897258111659
 20
446.43002427579131
 30
0.0
 40
6.2499998768749796
 50
270.0
 51
90.0
  0
ARC
  5
457
  8
0
 10
138.5339724555291
 20
458.46127403877568
 30
0.0
 40
3.381249933389352
 50
219.07330987625619
 51
320.92669012374341
  0
LINE
  5
458
  8
0
 10
152.0589721890866
 20
455.0800241053862
 30
0.0
 11
151.6589721969666
 21
454.68002411326643
 31
0.0
  0
ARC
  5
459
  8
0
 10
154.78397213540401
 20
458.46127403877568
 30
0.0
 40
3.381249933389352
 50
219.0733098762565
 51
320.9266901237437
  0
LINE
  5
45A
  8
0
 10
141.65897239396659
 20
454.68002411326643
 30
0.0
 11
151.6589721969666
 21
454.68002411326643
 31
0.0
  0
LINE
  5
45B
  8
0
 10
280.41305164019087
 20
302.83979658420901
 30
0.0
 11
281.76649155553679
 21
286.68796531880452
 31
0.0
  0
ARC
  5
45C
  8
0
 10
229.65397078545891
 20
261.34913109268479
 30
0.0
 40
29.999999409000001
 50
17.743840104755709
 51
90.0
  0
ARC
  5
45D
  8
0
 10
250.61873160844601
 20
299.13051352861288
 30
0.0
 40
4.999999901499999
 50
274.78989999999988
 51
4.7898999999999861
  0
LINE
  5
45E
  8
HIDDEN
 10
254.6722668918639
 20
280.30421178101352
 30
0.0
 11
262.1602056837001
 21
231.87972749826309
 31
0.0
  0
LINE
  5
45F
  8
HIDDEN
 10
229.96589735984841
 20
276.48383484640311
 30
0.0
 11
237.4538361516847
 21
228.0593505636528
 31
0.0
  0
ARC
  5
460
  8
0
 10
329.65896869036681
 20
293.3491304622849
 30
0.0
 40
74.999998522499993
 50
197.74384010475569
 51
233.96812092752941
  0
LINE
  5
461
  8
HIDDEN
 10
260.00911931324202
 20
222.76618029933809
 30
0.0
 11
259.69957428146108
 21
237.76298572610489
 31
0.0
  0
LINE
  5
462
  8
HIDDEN
 10
257.14851587170341
 20
240.21086245860249
 30
0.0
 11
257.56124258074442
 21
220.2151218895803
 31
0.0
  0
ARC
  5
463
  8
HIDDEN
  6
HIDDEN
 10
249.80702091769251
 20
229.96953903095789
 30
0.0
 40
12.499999753749989
 50
188.7901
 51
233.64815349351679
  0
CIRCLE
  5
464
  8
HIDDEN
 10
249.80702091769251
 20
229.96953903095789
 30
0.0
 40
4.999999901499999
  0
ARC
  5
465
  8
HIDDEN
 10
249.80702091769251
 20
229.96953903095789
 30
0.0
 40
12.499999753749989
 50
233.64815349351679
 51
8.7901000000000007
  0
LINE
  5
466
  8
HIDDEN
 10
260.00911931324202
 20
222.76618029933809
 30
0.0
 11
257.56124258074442
 21
220.2151218895803
 31
0.0
  0
LINE
  5
467
  8
CENTER
  6
CENTER
 10
249.8970862559172
 20
225.9705532089713
 30
0.0
 11
249.96463525958549
 21
222.97131384248121
 31
0.0
  0
LINE
  5
468
  8
CENTER
  6
CENTER
 10
249.71695557946759
 20
233.9685248529446
 30
0.0
 11
249.6494065757993
 21
236.96776421943471
 31
0.0
  0
LINE
  5
469
  8
CENTER
  6
CENTER
 10
247.80752800669919
 20
229.9245063618456
 30
0.0
 11
251.80651382868581
 21
230.01457170007029
 31
0.0
  0
ARC
  5
46A
  8
HIDDEN
 10
249.85880326890589
 20
229.94549322292841
 30
0.0
 40
12.499999753749989
 50
8.7100000000000009
 51
188.70999999999989
  0
LINE
  5
46B
  8
CENTER
  6
CENTER
 10
245.80803509570589
 20
229.8794736927332
 30
0.0
 11
242.8087957292158
 21
229.8119246890648
 31
0.0
  0
LINE
  5
46C
  8
CENTER
  6
CENTER
 10
253.80600673967911
 20
230.05960436918261
 30
0.0
 11
256.80524610616908
 21
230.1271533728511
 31
0.0
  0
LINE
  5
46D
  8
HIDDEN
 10
257.14851587170341
 20
240.21086245860249
 30
0.0
 11
259.69957428146108
 21
237.76298572610489
 31
0.0
  0
LINE
  5
46E
  8
CENTER
  6
CENTER
 10
249.85205358680491
 20
227.97004611996459
 30
0.0
 11
249.7619882485802
 21
231.96903194195119
 31
0.0
  0
ARC
  5
46F
  8
0
 10
279.65896967536639
 20
224.6104963920983
 30
0.0
 40
9.9999998029999997
 50
0.0
 51
53.96812092752959
  0
ARC
  5
470
  8
0
 10
261.83634006113948
 20
285.0179217114781
 30
0.0
 40
19.999999605999999
 50
274.78989999999988
 51
4.7898999999999861
  0
LINE
  5
471
  8
CENTER
  6
CENTER
 10
242.9917169115044
 20
270.39327963279351
 30
0.0
 11
241.6556820256431
 21
286.3374008283111
 31
0.0
  0
LINE
  5
472
  8
CENTER
  6
CENTER
 10
233.35513129609521
 20
277.61382060725532
 30
0.0
 11
250.2957600663326
 21
279.0333576734829
 31
0.0
  0
ARC
  5
473
  8
HIDDEN
 10
242.3190821258562
 20
278.39402331370809
 30
0.0
 40
12.499999753749989
 50
8.7901000000000131
 51
188.7901
  0
CIRCLE
  5
474
  8
HIDDEN
 10
242.32369946857369
 20
278.36534023055219
 30
0.0
 40
4.999999901499999
  0
CIRCLE
  5
475
  8
0
 10
267.26434345256342
 20
310.05862364486239
 30
0.0
 40
4.999999901499999
  0
LINE
  5
476
  8
HIDDEN
  6
HIDDEN
 10
271.07282137085861
 20
306.81894851286768
 30
0.0
 11
273.59985969788562
 21
304.69851158468828
 31
0.0
  0
LINE
  5
477
  8
HIDDEN
  6
HIDDEN
 10
259.29228285480463
 20
309.39060620193158
 30
0.0
 11
275.23640405032239
 21
310.72664108779281
 31
0.0
  0
ARC
  5
478
  8
HIDDEN
  6
HIDDEN
 10
267.26434345256342
 20
310.05862364486239
 30
0.0
 40
12.499999753749989
 50
4.7899000000001166
 51
184.7898999999999
  0
ARC
  5
479
  8
HIDDEN
  6
HIDDEN
 10
267.26434345256331
 20
310.01464092945599
 30
0.0
 40
8.9999998226999995
 50
324.83792096107589
 51
215.16207903892411
  0
ARC
  5
47A
  8
HIDDEN
  6
HIDDEN
 10
267.26434345256331
 20
310.01464092945599
 30
0.0
 40
6.9999998620999992
 50
6.379370208442749
 51
68.620629791556297
  0
CIRCLE
  5
47B
  8
0
 10
267.26434345256342
 20
310.05862364486211
 30
0.0
 40
14.9999997045
  0
ARC
  5
47C
  8
HIDDEN
  6
HIDDEN
 10
267.26434345256331
 20
310.01464092945599
 30
0.0
 40
6.9999998620999992
 50
111.379370208441
 51
180.0
  0
LINE
  5
47D
  8
CENTER
  6
CENTER
 10
267.93236089549413
 20
302.08656304710371
 30
0.0
 11
266.59632600963289
 21
318.03068424262102
 31
0.0
  0
LINE
  5
47E
  8
HIDDEN
  6
HIDDEN
 10
268.56943097750923
 20
314.88529388087778
 30
0.0
 11
268.8848069610587
 21
316.06229307497119
 31
0.0
  0
LINE
  5
47F
  8
HIDDEN
  6
HIDDEN
 10
265.95925592761768
 20
314.88529388087778
 30
0.0
 11
265.64387994406832
 21
316.06229307497119
 31
0.0
  0
CIRCLE
  5
480
  8
0
 10
267.26434345256342
 20
310.05862364486239
 30
0.0
 40
3.9999999212000001
  0
LINE
  5
481
  8
HIDDEN
  6
HIDDEN
 10
254.807998768565
 20
309.0148463902832
 30
0.0
 11
255.50036227219431
 21
300.75224207505102
 31
0.0
  0
LINE
  5
482
  8
0
 10
255.50036227219431
 20
300.75224207505102
 30
0.0
 11
255.6012694820451
 21
299.54802443044451
 31
0.0
  0
ARC
  5
483
  8
HIDDEN
  6
HIDDEN
 10
260.47887588932468
 20
305.23474268430778
 30
0.0
 40
0.6999999862099999
 50
215.16207903892459
 51
310.0000000000004
  0
LINE
  5
484
  8
HIDDEN
  6
HIDDEN
 10
263.45586553426818
 20
306.81894851286768
 30
0.0
 11
260.92882720724111
 21
304.69851158468828
 31
0.0
  0
LINE
  5
485
  8
HIDDEN
  6
HIDDEN
 10
260.26434359046351
 20
310.01464092945599
 30
0.0
 11
262.26453700273453
 21
310.01464092945599
 31
0.0
  0
LINE
  5
486
  8
0
 10
267.26434345256342
 20
310.05862364486239
 30
0.0
 11
266.60930735958129
 21
310.0724602147252
 31
0.0
  0
ARC
  5
488
  8
HIDDEN
  6
HIDDEN
 10
269.56095502614079
 20
315.88111974696852
 30
0.0
 40
0.6999999862099999
 50
68.62062979155624
 51
165.00000000000071
  0
ARC
  5
489
  8
HIDDEN
  6
HIDDEN
 10
264.96773187898611
 20
315.88111974696858
 30
0.0
 40
0.6999999862099999
 50
14.99999999999938
 51
111.3793702084413
  0
LINE
  5
48A
  8
HIDDEN
  6
HIDDEN
 10
279.72068813656171
 20
311.10240089944142
 30
0.0
 11
280.41305164019087
 21
302.83979658420901
 31
0.0
  0
LINE
  5
48B
  8
0
 10
272.26414990239249
 20
310.01464092945599
 30
0.0
 11
273.5253336662214
 21
310.01464092945599
 31
0.0
  0
ARC
  5
48C
  8
HIDDEN
  6
HIDDEN
 10
274.04981101580211
 20
305.23474268430778
 30
0.0
 40
0.6999999862099999
 50
229.99999999999929
 51
324.83792096107533
  0
ARC
  5
48D
  8
0
 10
273.5253336662214
 20
310.71464091566588
 30
0.0
 40
0.6999999862099999
 50
270.0
 51
6.3793702084437074
  0
LINE
  5
48E
  8
0
 62
     7
 10
254.6589701678665
 20
440.18002439891632
 30
0.0
 11
232.1589706111165
 21
440.18002439891632
 31
0.0
  0
LINE
  5
48F
  8
0
 62
     7
 10
254.6589701678665
 20
452.68002415266642
 30
0.0
 11
232.1589706111165
 21
452.68002415266642
 31
0.0
  0
ARC
  5
490
  8
0
 62
     7
 10
254.6589701678665
 20
446.43002427579131
 30
0.0
 40
6.2499998768749796
 50
270.0
 51
90.0
  0
ARC
  5
491
  8
0
 10
284.65896957836668
 20
435.18002449591631
 30
0.0
 40
4.9999998999999997
 50
270.0
 51
0.0
  0
ARC
  5
492
  8
0
 10
57.658974047266682
 20
559.1800220561164
 30
0.0
 40
4.9999998999999997
 50
90.0
 51
180.0
  0
LINE
  5
493
  8
0
 10
289.65896947836649
 20
467.18002386701619
 30
0.0
 11
52.65897414726669
 21
467.1800238670163
 31
0.0
  0
LINE
  5
494
  8
0
 10
289.65896947836671
 20
527.18002268501641
 30
0.0
 11
52.65897414726669
 21
527.18002268501641
 31
0.0
  0
LINE
  5
495
  8
0
 10
281.76649155553679
 20
472.18002376851638
 30
0.0
 11
52.65897414726669
 21
472.18002376851638
 31
0.0
  0
LINE
  5
496
  8
0
 10
289.65896947836649
 20
522.18002278351639
 30
0.0
 11
52.65897414726669
 21
522.18002278351639
 31
0.0
  0
LINE
  5
497
  8
0
 10
234.32369962857391
 20
505.18002311601629
 30
0.0
 11
227.80702135769249
 21
505.18002311601629
 31
0.0
  0
LINE
  5
498
  8
0
 10
234.32369962857391
 20
489.18002343601643
 30
0.0
 11
227.80702135769249
 21
489.18002343601643
 31
0.0
  0
ARC
  5
499
  8
0
 62
     7
 10
232.1589706111165
 20
547.9300222762414
 30
0.0
 40
6.2499998768749796
 50
89.999999999999744
 51
270.00000000000023
  0
LINE
  5
49A
  8
0
 10
281.76649155553679
 20
515.93002290664117
 30
0.0
 11
129.87982929628561
 21
515.93002290664117
 31
0.0
  0
LINE
  5
49B
  8
0
 10
281.76649155553679
 20
521.93002278844131
 30
0.0
 11
129.87982929628561
 21
521.93002278844131
 31
0.0
  0
LINE
  5
49C
  8
0
 10
281.76649155553679
 20
472.43002376359152
 30
0.0
 11
129.87982929628561
 21
472.43002376359152
 31
0.0
  0
LINE
  5
49D
  8
0
 10
281.76649155553679
 20
478.43002364539137
 30
0.0
 11
129.87982929628561
 21
478.43002364539137
 31
0.0
  0
LINE
  5
49E
  8
0
 10
284.65896957836668
 20
564.18002195611621
 30
0.0
 11
57.658974047266682
 21
564.18002195611621
 31
0.0
  0
ARC
  5
49F
  8
0
 62
     7
 10
132.15897258111659
 20
547.9300222762414
 30
0.0
 40
6.2499998768749796
 50
270.0
 51
90.0
  0
ARC
  5
4A0
  8
0
 62
     7
 10
109.6589730243666
 20
547.9300222762414
 30
0.0
 40
6.2499998768749796
 50
89.999999999999744
 51
270.00000000000023
  0
LINE
  5
4A1
  8
0
 10
141.25897240184659
 20
539.28002244664651
 30
0.0
 11
141.65897239396659
 21
539.68002243876629
 31
0.0
  0
ARC
  5
4A2
  8
0
 10
146.65897229546661
 20
542.5050223831139
 30
0.0
 40
12.72499974931752
 50
244.39146786943729
 51
295.60853213056248
  0
ARC
  5
4A3
  8
0
 10
146.65897229546661
 20
526.55502269732892
 30
0.0
 40
12.72499974931752
 50
64.391467869442806
 51
115.60853213055729
  0
LINE
  5
4A4
  8
0
 10
136.1589725023164
 20
529.78002263379631
 30
0.0
 11
157.15897208861639
 21
529.78002263379631
 31
0.0
  0
LINE
  5
4A5
  8
0
 10
138.5339724555291
 20
539.28002244664651
 30
0.0
 11
154.78397213540401
 21
539.28002244664651
 31
0.0
  0
ARC
  5
4A6
  8
0
 10
146.65897229546661
 20
451.8550241689187
 30
0.0
 40
12.72499974931752
 50
64.391467869431935
 51
115.60853213056809
  0
LINE
  5
4A7
  8
0
 10
136.1589725023164
 20
464.58002391823618
 30
0.0
 11
157.15897208861639
 21
464.58002391823618
 31
0.0
  0
LINE
  5
4A8
  8
0
 10
108.7463454371911
 20
517.98002286001633
 30
0.0
 11
108.7463454371911
 21
476.38002369201649
 31
0.0
  0
LINE
  5
4A9
  8
0
 10
134.15897254546661
 20
478.43002364539137
 30
0.0
 11
134.15897254546661
 21
515.93002290664117
 31
0.0
  0
LINE
  5
4AA
  8
0
 10
86.158813482520259
 20
475.18024371601211
 30
0.0
 11
86.158813482520259
 21
519.17980283602083
 31
0.0
  0
LINE
  5
4AB
  8
0
 10
86.658808472520306
 20
474.680248726012
 30
0.0
 11
86.658808472520306
 21
519.67979782602094
 31
0.0
  0
LINE
  5
4AC
  8
0
 10
103.7011547950644
 20
474.680248726012
 30
0.0
 11
103.7011547950644
 21
519.67979782602094
 31
0.0
  0
LINE
  5
4AD
  8
0
 10
105.45730618252389
 20
517.22399645104451
 30
0.0
 11
105.45730618252389
 21
477.1360501009882
 31
0.0
  0
LINE
  5
4AE
  8
0
 10
104.1573962072319
 20
475.88626262560899
 30
0.0
 11
104.1573962072319
 21
518.47378392642383
 31
0.0
  0
LINE
  5
4AF
  8
0
 10
106.1776294037717
 20
476.33605011674808
 30
0.0
 11
106.1776294037717
 21
517.98002286001645
 31
0.0
  0
LINE
  5
4B0
  8
0
 10
108.31658259474941
 20
476.708282785672
 30
0.0
 11
108.31658259474941
 21
517.65176376636077
 31
0.0
  0
LINE
  5
4B1
  8
0
 10
107.7861002209832
 20
517.98002286001633
 30
0.0
 11
107.7861002209832
 21
476.3360501167482
 31
0.0
  0
ARC
  5
4B2
  8
0
 10
73.159093742514571
 20
497.18002327601641
 30
0.0
 40
14.999999699999931
 50
138.1896851042213
 51
221.81031489577879
  0
ARC
  5
4B3
  8
0
 10
73.159093742514571
 20
497.18002327601641
 30
0.0
 40
13.4999997299999
 50
132.20544640373191
 51
227.794553596268
  0
LINE
  5
4B4
  8
0
 10
103.7011547950644
 20
474.680248726012
 30
0.0
 11
86.658808472520306
 21
474.680248726012
 31
0.0
  0
LINE
  5
4B5
  8
0
 10
76.158973682516972
 20
472.18002376851632
 30
0.0
 11
76.158973682516972
 21
487.1800234760164
 31
0.0
  0
LINE
  5
4B6
  8
0
 10
64.15897392251685
 20
472.18002376851632
 30
0.0
 11
64.15897392251685
 21
487.1800234760164
 31
0.0
  0
LINE
  5
4B7
  8
0
 10
76.158973684316962
 20
464.58002391823629
 30
0.0
 11
93.158973349416584
 21
464.58002391823629
 31
0.0
  0
LINE
  5
4B8
  8
0
 10
74.658973713866828
 20
465.98002389065618
 30
0.0
 11
79.158973625216916
 21
465.98002389065618
 31
0.0
  0
ARC
  5
4B9
  8
0
 10
74.533973716329186
 20
461.19877398484709
 30
0.0
 40
3.381249933389352
 50
39.073309876256509
 51
61.275959243667828
  0
LINE
  5
4BA
  8
0
 10
61.158973979817077
 20
465.18002390641641
 30
0.0
 11
79.158973625216916
 21
465.18002390641641
 31
0.0
  0
LINE
  5
4BB
  8
0
 10
76.158973684316805
 20
463.18002394581617
 30
0.0
 11
75.15897370401693
 21
462.18002396551623
 31
0.0
  0
LINE
  5
4BC
  8
0
 10
74.658973713866828
 20
465.18002390641641
 30
0.0
 11
74.658973713866828
 21
466.1800238867163
 31
0.0
  0
LINE
  5
4BD
  8
0
 10
76.158973684316962
 20
466.1800238867163
 30
0.0
 11
76.158973684316962
 21
467.18002386701619
 31
0.0
  0
LINE
  5
4BE
  8
0
 10
76.158973684316805
 20
463.18002394581617
 30
0.0
 11
76.158973684316962
 21
465.18002390641641
 31
0.0
  0
LINE
  5
4BF
  8
0
 10
61.158973979817077
 20
465.98002389065641
 30
0.0
 11
65.658973891166823
 21
465.98002389065641
 31
0.0
  0
LINE
  5
4C0
  8
0
 10
61.158973979817077
 20
465.18002390641641
 30
0.0
 11
61.158973979817077
 21
465.98002389065641
 31
0.0
  0
LINE
  5
4C1
  8
0
 10
65.658973891166823
 20
465.18002390641641
 30
0.0
 11
65.658973891166823
 21
466.1800238867163
 31
0.0
  0
LINE
  5
4C2
  8
0
 10
64.158973920717017
 20
466.1800238867163
 30
0.0
 11
64.158973920717017
 21
467.18002386701619
 31
0.0
  0
LINE
  5
4C3
  8
0
 10
64.158973920717017
 20
463.18002394581617
 30
0.0
 11
64.158973920717017
 21
465.18002390641641
 31
0.0
  0
LINE
  5
4C4
  8
0
 10
65.158973901016893
 20
462.18002396551623
 30
0.0
 11
64.158973920717017
 21
463.18002394581617
 31
0.0
  0
LINE
  5
4C5
  8
0
 10
64.158973920717017
 20
466.1800238867163
 30
0.0
 11
76.158973684316962
 21
466.1800238867163
 31
0.0
  0
LINE
  5
4C6
  8
0
 10
76.158973684316805
 20
463.18002394581617
 30
0.0
 11
64.158973920717017
 21
463.18002394581617
 31
0.0
  0
LINE
  5
4C7
  8
0
 10
65.158973901016893
 20
462.18002396551623
 30
0.0
 11
75.15897370401693
 21
462.18002396551623
 31
0.0
  0
ARC
  5
4C8
  8
0
 10
90.783973396204075
 20
461.19877398484709
 30
0.0
 40
3.381249933389352
 50
39.073309876256268
 51
140.92669012374341
  0
ARC
  5
4C9
  8
0
 10
82.658973556266631
 20
451.85502416891882
 30
0.0
 40
12.72499974931752
 50
64.391467869431935
 51
115.60853213056809
  0
LINE
  5
4CA
  8
0
 10
79.158973625216916
 20
465.18002390641641
 30
0.0
 11
79.158973625216916
 21
465.98002389065618
 31
0.0
  0
LINE
  5
4CB
  8
0
 10
86.658808472520306
 20
474.680248726012
 30
0.0
 11
86.158813482520259
 21
475.18024371601211
 31
0.0
  0
LINE
  5
4CC
  8
0
 10
93.158973349416584
 20
464.58002391823629
 30
0.0
 11
93.158973349416584
 21
467.1800238670163
 31
0.0
  0
LINE
  5
4CD
  8
0
 10
86.158813482520259
 20
487.1800234760164
 30
0.0
 11
61.978754078622451
 21
487.1800234760164
 31
0.0
  0
LINE
  5
4CE
  8
0
 10
129.87982929628561
 20
476.38002369201649
 30
0.0
 11
108.7463454371909
 21
476.38002369201649
 31
0.0
  0
LINE
  5
4CF
  8
0
 10
105.45730618252379
 20
475.88607137561252
 30
0.0
 11
105.45730618252389
 21
477.1360501009882
 31
0.0
  0
LINE
  5
4D0
  8
0
 10
104.1573962072321
 20
475.13649013817951
 30
0.0
 11
104.1573962072319
 21
475.88626262560899
 31
0.0
  0
LINE
  5
4D1
  8
0
 10
104.1573962072321
 20
475.13649013817951
 30
0.0
 11
103.7011547950644
 21
474.680248726012
 31
0.0
  0
LINE
  5
4D2
  8
0
 10
105.45730618252389
 20
475.88626262560888
 30
0.0
 11
104.1573962072319
 21
475.88626262560899
 31
0.0
  0
LINE
  5
4D3
  8
0
 10
106.1776294037717
 20
476.33605011674808
 30
0.0
 11
107.7861002209832
 21
476.3360501167482
 31
0.0
  0
LINE
  5
4D4
  8
0
 10
105.45730618252389
 20
477.1360501009882
 30
0.0
 11
106.1776294037717
 21
476.33605011674808
 31
0.0
  0
ARC
  5
4D5
  8
0
 10
109.0079253364982
 20
477.13605010098809
 30
0.0
 40
0.7999999842399999
 50
222.0000000000025
 51
250.91473445697389
  0
LINE
  5
4D6
  8
0
 10
107.7861002209832
 20
476.3360501167482
 30
0.0
 11
108.31658259474941
 21
476.708282785672
 31
0.0
  0
LINE
  5
4D7
  8
0
 10
108.31658259474941
 20
476.708282785672
 30
0.0
 11
108.4134094878283
 21
476.60074562644672
 31
0.0
  0
LINE
  5
4D8
  8
0
 10
129.87982929628561
 20
472.43002376359152
 30
0.0
 11
129.87982929628561
 21
478.43002364539149
 31
0.0
  0
ARC
  5
4D9
  8
0
 10
138.5339724555291
 20
461.19877398484698
 30
0.0
 40
3.381249933389352
 50
39.073309876256509
 51
140.9266901237437
  0
LINE
  5
4DA
  8
0
 10
136.1589725023164
 20
464.58002391823629
 30
0.0
 11
136.1589725023164
 21
467.18002386701619
 31
0.0
  0
LINE
  5
4DB
  8
0
 10
103.7011547950644
 20
519.67979782602094
 30
0.0
 11
86.658808472520306
 21
519.67979782602094
 31
0.0
  0
LINE
  5
4DC
  8
0
 10
76.158973684316962
 20
527.18002268501641
 30
0.0
 11
76.158973684316962
 21
528.18002266531607
 31
0.0
  0
LINE
  5
4DD
  8
0
 10
93.158973349416584
 20
529.78002263379631
 30
0.0
 11
93.158973349416584
 21
527.18002268501652
 31
0.0
  0
LINE
  5
4DE
  8
0
 10
64.158973920717017
 20
527.18002268501641
 30
0.0
 11
64.158973920717017
 21
528.18002266531607
 31
0.0
  0
LINE
  5
4DF
  8
0
 10
86.158813482520102
 20
507.18002307601631
 30
0.0
 11
61.978754078622451
 21
507.18002307601631
 31
0.0
  0
LINE
  5
4E0
  8
0
 10
76.158973682516972
 20
507.18002307601631
 30
0.0
 11
76.158973682516972
 21
522.18002278351639
 31
0.0
  0
LINE
  5
4E1
  8
0
 10
64.15897392251685
 20
507.18002307601631
 30
0.0
 11
64.15897392251685
 21
522.18002278351639
 31
0.0
  0
LINE
  5
4E2
  8
0
 10
86.158813482520259
 20
519.17980283602083
 30
0.0
 11
86.658808472520306
 21
519.67979782602094
 31
0.0
  0
LINE
  5
4E3
  8
0
 10
74.533973716329186
 20
539.28002244664651
 30
0.0
 11
90.783973396204075
 21
539.28002244664651
 31
0.0
  0
LINE
  5
4E4
  8
0
 10
76.158973684316962
 20
529.78002263379631
 30
0.0
 11
93.158973349416584
 21
529.78002263379631
 31
0.0
  0
LINE
  5
4E5
  8
0
 10
74.658973713866999
 20
528.38002266137619
 30
0.0
 11
79.158973625216916
 21
528.38002266137619
 31
0.0
  0
ARC
  5
4E6
  8
0
 10
74.533973716329186
 20
533.16127256718573
 30
0.0
 40
3.381249933389352
 50
298.72404075633301
 51
320.92669012374353
  0
LINE
  5
4E7
  8
0
 10
61.158973979817077
 20
529.18002264561608
 30
0.0
 11
79.158973625216916
 21
529.18002264561608
 31
0.0
  0
ARC
  5
4E8
  8
0
 10
74.533973716329186
 20
535.89877251325697
 30
0.0
 40
3.381249933389352
 50
39.073309876256538
 51
140.9266901237437
  0
LINE
  5
4E9
  8
0
 10
76.158973684316962
 20
529.18002264561608
 30
0.0
 11
76.158973684316962
 21
531.18002260621631
 31
0.0
  0
LINE
  5
4EA
  8
0
 10
74.658973713866999
 20
528.18002266531607
 30
0.0
 11
74.658973713866999
 21
529.18002264561608
 31
0.0
  0
LINE
  5
4EB
  8
0
 10
76.158973684316962
 20
531.18002260621631
 30
0.0
 11
75.15897370401693
 21
532.18002258651632
 31
0.0
  0
LINE
  5
4EC
  8
0
 10
71.908973768041506
 20
538.03002247127154
 30
0.0
 11
71.908973768041506
 21
532.18002258651632
 31
0.0
  0
LINE
  5
4ED
  8
0
 10
64.158973920717017
 20
529.18002264561608
 30
0.0
 11
64.158973920717017
 21
531.18002260621631
 31
0.0
  0
LINE
  5
4EE
  8
0
 10
61.158973979817077
 20
528.38002266137619
 30
0.0
 11
65.658973891166823
 21
528.38002266137619
 31
0.0
  0
LINE
  5
4EF
  8
0
 10
61.158973979817077
 20
528.38002266137619
 30
0.0
 11
61.158973979817077
 21
529.18002264561608
 31
0.0
  0
LINE
  5
4F0
  8
0
 10
65.658973891166823
 20
528.18002266531607
 30
0.0
 11
65.658973891166823
 21
529.18002264561608
 31
0.0
  0
LINE
  5
4F1
  8
0
 10
65.158973901016893
 20
532.18002258651609
 30
0.0
 11
64.158973920717017
 21
531.18002260621631
 31
0.0
  0
LINE
  5
4F2
  8
0
 10
76.158973684316962
 20
531.18002260621631
 30
0.0
 11
64.158973920717017
 21
531.18002260621631
 31
0.0
  0
LINE
  5
4F3
  8
0
 10
64.158973920717017
 20
528.18002266531607
 30
0.0
 11
76.158973684316962
 21
528.18002266531607
 31
0.0
  0
LINE
  5
4F4
  8
0
 10
65.158973901016893
 20
532.18002258651609
 30
0.0
 11
75.15897370401693
 21
532.18002258651632
 31
0.0
  0
ARC
  5
4F5
  8
0
 10
90.783973396204075
 20
535.89877251325697
 30
0.0
 40
3.381249933389352
 50
39.073309876256289
 51
140.92669012374341
  0
ARC
  5
4F6
  8
0
 10
90.783973396204075
 20
533.16127256718573
 30
0.0
 40
3.381249933389352
 50
219.0733098762565
 51
320.9266901237437
  0
LINE
  5
4F7
  8
0
 10
77.158973664616681
 20
538.03002247127154
 30
0.0
 11
77.158973664616681
 21
531.0300226091714
 31
0.0
  0
LINE
  5
4F8
  8
0
 10
88.158973447916566
 20
538.03002247127154
 30
0.0
 11
88.158973447916566
 21
531.0300226091714
 31
0.0
  0
ARC
  5
4F9
  8
0
 10
82.658973556266631
 20
542.5050223831139
 30
0.0
 40
12.72499974931752
 50
244.39146786943181
 51
295.60853213056799
  0
LINE
  5
4FA
  8
0
 10
79.158973625216916
 20
528.38002266137619
 30
0.0
 11
79.158973625216916
 21
529.18002264561608
 31
0.0
  0
LINE
  5
4FB
  8
0
 10
77.658973654766612
 20
539.68002243876629
 30
0.0
 11
87.658973457766635
 21
539.68002243876629
 31
0.0
  0
ARC
  5
4FC
  8
0
 10
82.658973556266631
 20
526.55502269732904
 30
0.0
 40
12.72499974931752
 50
64.391467869437363
 51
115.60853213056269
  0
LINE
  5
4FD
  8
0
 10
77.258973662646625
 20
539.28002244664651
 30
0.0
 11
77.658973654766612
 21
539.68002243876629
 31
0.0
  0
LINE
  5
4FE
  8
0
 10
88.058973449886636
 20
539.28002244664651
 30
0.0
 11
87.658973457766635
 21
539.68002243876629
 31
0.0
  0
LINE
  5
4FF
  8
0
 10
93.408973344491585
 20
538.03002247127154
 30
0.0
 11
93.408973344491585
 21
531.0300226091714
 31
0.0
  0
LINE
  5
500
  8
0
 10
136.1589725023164
 20
529.78002263379631
 30
0.0
 11
136.1589725023164
 21
527.18002268501641
 31
0.0
  0
LINE
  5
501
  8
0
 10
129.87982929628561
 20
517.98002286001633
 30
0.0
 11
108.7463454371911
 21
517.98002286001633
 31
0.0
  0
LINE
  5
502
  8
0
 10
107.7861002209832
 20
517.98002286001633
 30
0.0
 11
106.1776294037717
 21
517.98002286001633
 31
0.0
  0
LINE
  5
503
  8
0
 10
104.1573962072321
 20
519.22355641385343
 30
0.0
 11
104.1573962072319
 21
518.47378392642383
 31
0.0
  0
LINE
  5
504
  8
0
 10
105.45730618252389
 20
518.47378392642395
 30
0.0
 11
104.1573962072319
 21
518.47378392642383
 31
0.0
  0
LINE
  5
505
  8
0
 10
105.45730618252379
 20
518.47397517642025
 30
0.0
 11
105.45730618252389
 21
517.22399645104451
 31
0.0
  0
LINE
  5
506
  8
0
 10
105.45730618252389
 20
517.22399645104451
 30
0.0
 11
106.1776294037717
 21
517.98002286001633
 31
0.0
  0
LINE
  5
507
  8
0
 10
104.1573962072321
 20
519.22355641385343
 30
0.0
 11
103.7011547950644
 21
519.67979782602094
 31
0.0
  0
ARC
  5
508
  8
0
 10
109.0079253364982
 20
517.22399645104474
 30
0.0
 40
0.7999999842399999
 50
109.085265543026
 51
137.99999999999741
  0
LINE
  5
509
  8
0
 10
108.31658259474921
 20
517.65176376636077
 30
0.0
 11
107.7861002209832
 21
517.98002286001633
 31
0.0
  0
LINE
  5
50A
  8
0
 10
108.31658259474941
 20
517.65176376636077
 30
0.0
 11
108.4134094878283
 21
517.75930092558622
 31
0.0
  0
LINE
  5
50B
  8
0
 10
129.87982929628561
 20
515.93002290664117
 30
0.0
 11
129.87982929628561
 21
521.93002278844131
 31
0.0
  0
LINE
  5
50C
  8
0
 62
     7
 10
132.15897258111659
 20
541.68002239936629
 30
0.0
 11
109.6589730243666
 21
541.68002239936629
 31
0.0
  0
LINE
  5
50D
  8
0
 10
141.15897240381659
 20
538.03002247127154
 30
0.0
 11
141.15897240381651
 21
531.0300226091714
 31
0.0
  0
LINE
  5
50E
  8
0
 10
135.90897250724149
 20
538.03002247127154
 30
0.0
 11
135.90897250724149
 21
531.0300226091714
 31
0.0
  0
ARC
  5
50F
  8
0
 10
138.5339724555291
 20
533.16127256718573
 30
0.0
 40
3.381249933389352
 50
219.07330987625619
 51
320.92669012374341
  0
ARC
  5
510
  8
0
 10
138.5339724555291
 20
535.89877251325709
 30
0.0
 40
3.381249933389352
 50
39.073309876256509
 51
140.9266901237437
  0
LINE
  5
511
  8
0
 10
201.6146300532302
 20
478.43002364539137
 30
0.0
 11
201.6146300532302
 21
515.93002290664117
 31
0.0
  0
LINE
  5
512
  8
0
 10
201.15862868407251
 20
478.43002364539137
 30
0.0
 11
201.15862868407251
 21
515.93002290664117
 31
0.0
  0
LINE
  5
513
  8
0
 10
199.85862870968251
 20
478.43002364539137
 30
0.0
 11
199.85862870968251
 21
515.93002290664117
 31
0.0
  0
LINE
  5
514
  8
0
 10
199.1383054884345
 20
478.43002364539137
 30
0.0
 11
199.1383054884345
 21
515.93002290664117
 31
0.0
  0
LINE
  5
515
  8
0
 10
197.6008980691368
 20
478.43002364539137
 30
0.0
 11
197.6008980691368
 21
515.93002290664117
 31
0.0
  0
LINE
  5
516
  8
0
 10
196.9993522974566
 20
478.43002364539137
 30
0.0
 11
196.9993522974566
 21
515.93002290664117
 31
0.0
  0
LINE
  5
517
  8
0
 10
209.15862853067321
 20
513.18002295601627
 30
0.0
 11
209.1586285306725
 21
481.18002359601638
 31
0.0
  0
LINE
  5
518
  8
0
 10
210.15862851067331
 20
512.18002297601652
 30
0.0
 11
210.15862851067249
 21
482.18002357601631
 31
0.0
  0
LINE
  5
519
  8
0
 10
223.15862825067251
 20
483.6800235460164
 30
0.0
 11
223.1586282506731
 21
510.68002300601648
 31
0.0
  0
LINE
  5
51A
  8
0
 10
221.65862828067321
 20
512.18002297601652
 30
0.0
 11
221.6586282806725
 21
482.18002357601631
 31
0.0
  0
ARC
  5
51B
  8
0
 10
227.80702135769249
 20
507.18002307601631
 30
0.0
 40
1.999999960000028
 50
180.0
 51
270.0
  0
LINE
  5
51C
  8
0
 10
225.80702139769241
 20
497.18002327601653
 30
0.0
 11
225.80702139769241
 21
507.18002307601631
 31
0.0
  0
LINE
  5
51D
  8
0
 10
159.15897204546661
 20
478.43002364539137
 30
0.0
 11
159.15897204546661
 21
515.93002290664117
 31
0.0
  0
LINE
  5
51E
  8
0
 10
157.15897208861639
 20
464.58002391823618
 30
0.0
 11
157.15897208861639
 21
467.18002386701619
 31
0.0
  0
ARC
  5
51F
  8
0
 10
154.78397213540401
 20
461.19877398484698
 30
0.0
 40
3.381249933389352
 50
39.073309876256268
 51
140.92669012374341
  0
LINE
  5
520
  8
0
 10
221.6586282806725
 20
482.18002357601631
 30
0.0
 11
223.15862825067251
 21
483.6800235460164
 31
0.0
  0
LINE
  5
521
  8
0
 10
221.6586282806725
 20
482.18002357601631
 30
0.0
 11
210.15862851067249
 21
482.18002357601631
 31
0.0
  0
LINE
  5
522
  8
0
 10
209.15862853067239
 20
478.43002364539137
 30
0.0
 11
209.1586285306725
 21
481.18002359601638
 31
0.0
  0
LINE
  5
523
  8
0
 10
209.1586285306725
 20
481.18002359601638
 30
0.0
 11
210.15862851067249
 21
482.18002357601631
 31
0.0
  0
LINE
  5
524
  8
0
 10
227.80702135769249
 20
489.18002343601643
 30
0.0
 11
227.80702135769249
 21
505.18002311601629
 31
0.0
  0
LINE
  5
525
  8
0
 10
225.80702139769241
 20
497.18002327601641
 30
0.0
 11
225.80702139769241
 21
487.1800234760164
 31
0.0
  0
ARC
  5
526
  8
0
 10
227.80702135769249
 20
487.1800234760164
 30
0.0
 40
1.999999960000028
 50
90.0
 51
180.0
  0
LINE
  5
527
  8
0
 10
223.15862825067251
 20
483.6800235460164
 30
0.0
 11
210.15862851067249
 21
483.6800235460164
 31
0.0
  0
LINE
  5
528
  8
0
 10
225.80702139769241
 20
487.1800234760164
 30
0.0
 11
223.15862825067259
 21
487.1800234760164
 31
0.0
  0
LINE
  5
529
  8
0
 10
157.15897208861639
 20
529.78002263379631
 30
0.0
 11
157.15897208861639
 21
527.18002268501641
 31
0.0
  0
LINE
  5
52A
  8
0
 10
157.40897208369151
 20
538.03002247127154
 30
0.0
 11
157.40897208369151
 21
531.0300226091714
 31
0.0
  0
LINE
  5
52B
  8
0
 10
152.15897218711649
 20
538.03002247127154
 30
0.0
 11
152.15897218711649
 21
531.0300226091714
 31
0.0
  0
LINE
  5
52C
  8
0
 10
152.0589721890866
 20
539.28002244664651
 30
0.0
 11
151.6589721969666
 21
539.68002243876629
 31
0.0
  0
ARC
  5
52D
  8
0
 10
154.78397213540401
 20
533.16127256718573
 30
0.0
 40
3.381249933389352
 50
219.0733098762565
 51
320.9266901237437
  0
ARC
  5
52E
  8
0
 10
154.78397213540401
 20
535.89877251325709
 30
0.0
 40
3.381249933389352
 50
39.073309876256268
 51
140.92669012374341
  0
LINE
  5
52F
  8
0
 10
141.65897239396659
 20
539.68002243876629
 30
0.0
 11
151.6589721969666
 21
539.68002243876629
 31
0.0
  0
LINE
  5
530
  8
0
 10
221.65862828067321
 20
512.18002297601652
 30
0.0
 11
210.15862851067331
 21
512.18002297601652
 31
0.0
  0
LINE
  5
531
  8
0
 10
223.1586282506731
 20
510.68002300601648
 30
0.0
 11
210.15862851067311
 21
510.68002300601648
 31
0.0
  0
LINE
  5
532
  8
0
 10
209.15862853067321
 20
513.18002295601627
 30
0.0
 11
209.15862853067341
 21
515.93002290664117
 31
0.0
  0
LINE
  5
533
  8
0
 10
210.15862851067331
 20
512.18002297601652
 30
0.0
 11
209.15862853067321
 21
513.18002295601627
 31
0.0
  0
LINE
  5
535
  8
0
 10
223.1586282506731
 20
510.68002300601648
 30
0.0
 11
221.65862828067321
 21
512.18002297601652
 31
0.0
  0
LINE
  5
536
  8
0
 10
225.80702139769241
 20
507.18002307601631
 30
0.0
 11
223.1586282506731
 21
507.18002307601631
 31
0.0
  0
LINE
  5
537
  8
0
 62
     7
 10
132.15897258111659
 20
554.18002215311617
 30
0.0
 11
109.6589730243666
 21
554.18002215311617
 31
0.0
  0
ARC
  5
538
  8
0
 62
     7
 10
254.6589701678665
 20
547.9300222762414
 30
0.0
 40
6.2499998768749796
 50
270.0
 51
90.0
  0
LINE
  5
539
  8
0
 10
282.26434315706348
 20
481.1800235912163
 30
0.0
 11
282.26434315706348
 21
491.18002339421622
 31
0.0
  0
LINE
  5
53A
  8
CENTER
  6
CENTER
 10
267.26434345256342
 20
467.18002386701619
 30
0.0
 11
267.26434345256342
 21
527.18002268501641
 31
0.0
  0
LINE
  5
53B
  8
CENTER
  6
CENTER
 10
242.32369946857369
 20
476.43002368539129
 30
0.0
 11
242.32369946857369
 21
517.93002286664148
 31
0.0
  0
LINE
  5
53C
  8
0
 10
234.32369962857391
 20
484.68002352226631
 30
0.0
 11
234.32369962857391
 21
509.68002302976629
 31
0.0
  0
LINE
  5
53D
  8
0
 10
252.26434374806351
 20
481.1800235912163
 30
0.0
 11
252.26434374806351
 21
491.18002339421622
 31
0.0
  0
LINE
  5
53E
  8
0
 10
250.32369930857379
 20
484.68002352226631
 30
0.0
 11
250.32369930857379
 21
509.68002302976629
 31
0.0
  0
LINE
  5
53F
  8
0
 10
262.76434354121352
 20
468.68002383746642
 30
0.0
 11
271.7643433639135
 21
468.68002383746642
 31
0.0
  0
LINE
  5
540
  8
0
 10
272.2643433540635
 20
469.18002382761642
 30
0.0
 11
262.26434355106358
 21
469.18002382761642
 31
0.0
  0
LINE
  5
541
  8
0
 10
258.26434362986362
 20
471.18002378821632
 30
0.0
 11
276.2643432752634
 21
471.18002378821637
 31
0.0
  0
LINE
  5
542
  8
0
 10
254.2643437086634
 20
479.1800236306164
 30
0.0
 11
280.26434319646353
 21
479.18002363061618
 31
0.0
  0
LINE
  5
543
  8
0
 10
252.26434374806351
 20
481.1800235912163
 30
0.0
 11
282.26434315706348
 21
481.1800235912163
 31
0.0
  0
LINE
  5
544
  8
0
 10
229.96589735984841
 20
478.68002364046629
 30
0.0
 11
229.96589735984841
 21
484.68002352226631
 31
0.0
  0
LINE
  5
545
  8
0
 10
262.2643435510634
 20
478.68002364046629
 30
0.0
 11
229.96589735984841
 21
478.68002364046629
 31
0.0
  0
LINE
  5
546
  8
0
 10
262.76434354121352
 20
471.18002378821632
 30
0.0
 11
262.76434354121352
 21
472.18002376851638
 31
0.0
  0
LINE
  5
547
  8
0
 10
258.2643436298635
 20
471.18002378821637
 30
0.0
 11
258.26434362986362
 21
471.98002377245632
 31
0.0
  0
LINE
  5
548
  8
0
 10
262.76434354121352
 20
468.68002383746642
 30
0.0
 11
262.26434355106358
 21
469.18002382761642
 31
0.0
  0
LINE
  5
549
  8
0
 10
262.26434355106358
 20
469.18002382761642
 30
0.0
 11
262.26434355106358
 21
471.18002378821637
 31
0.0
  0
LINE
  5
54A
  8
0
 10
258.26434362986362
 20
471.98002377245632
 30
0.0
 11
262.76434354121352
 21
471.98002377245632
 31
0.0
  0
LINE
  5
54B
  8
0
 10
262.26434355106358
 20
472.18002376851638
 30
0.0
 11
262.26434355106358
 21
472.43002376359152
 31
0.0
  0
LINE
  5
54C
  8
0
 10
262.26434355106358
 20
472.18002376851638
 30
0.0
 11
262.76434354121352
 21
472.18002376851638
 31
0.0
  0
LINE
  5
54D
  8
0
 10
262.2643435510634
 20
478.43002364539137
 30
0.0
 11
262.2643435510634
 21
479.1800236306164
 31
0.0
  0
LINE
  5
54E
  8
0
 10
254.2643437086634
 20
479.1800236306164
 30
0.0
 11
252.26434374806351
 21
481.1800235912163
 31
0.0
  0
LINE
  5
54F
  8
0
 10
252.26434374806351
 20
484.68002352226631
 30
0.0
 11
229.96589735984841
 21
484.68002352226631
 31
0.0
  0
LINE
  5
550
  8
0
 10
281.76649155553679
 20
472.43002376359152
 30
0.0
 11
281.76649155553679
 21
478.43002364539137
 31
0.0
  0
LINE
  5
551
  8
0
 10
289.65896947836649
 20
472.18002376851638
 30
0.0
 11
281.76649155553679
 21
472.18002376851638
 31
0.0
  0
LINE
  5
552
  8
0
 10
282.26434315706348
 20
481.1800235912163
 30
0.0
 11
280.26434319646353
 21
479.18002363061618
 31
0.0
  0
LINE
  5
553
  8
0
 10
276.2643432752634
 20
471.18002378821637
 30
0.0
 11
276.2643432752634
 21
471.98002377245632
 31
0.0
  0
LINE
  5
554
  8
0
 10
271.7643433639135
 20
471.18002378821632
 30
0.0
 11
271.7643433639135
 21
472.18002376851638
 31
0.0
  0
LINE
  5
555
  8
0
 10
272.2643433540635
 20
469.18002382761642
 30
0.0
 11
271.7643433639135
 21
468.68002383746642
 31
0.0
  0
LINE
  5
556
  8
0
 10
272.2643433540635
 20
469.18002382761642
 30
0.0
 11
272.2643433540635
 21
471.18002378821637
 31
0.0
  0
LINE
  5
557
  8
0
 10
272.2643433540635
 20
472.18002376851638
 30
0.0
 11
272.2643433540635
 21
472.43002376359152
 31
0.0
  0
LINE
  5
558
  8
0
 10
271.7643433639135
 20
472.18002376851638
 30
0.0
 11
272.2643433540635
 21
472.18002376851638
 31
0.0
  0
LINE
  5
559
  8
0
 10
272.26434335406333
 20
478.43002364539137
 30
0.0
 11
272.26434335406333
 21
479.1800236306164
 31
0.0
  0
LINE
  5
55A
  8
0
 10
271.7643433639135
 20
471.98002377245632
 30
0.0
 11
276.2643432752634
 21
471.98002377245632
 31
0.0
  0
LINE
  5
55B
  8
0
 10
262.26434355106358
 20
522.18002278351639
 30
0.0
 11
272.2643433540635
 21
522.18002278351639
 31
0.0
  0
LINE
  5
55C
  8
0
 10
262.76434354121352
 20
525.68002271456635
 30
0.0
 11
271.7643433639135
 21
525.68002271456635
 31
0.0
  0
LINE
  5
55D
  8
0
 10
262.26434355106358
 20
525.1800227244164
 30
0.0
 11
272.2643433540635
 21
525.1800227244164
 31
0.0
  0
LINE
  5
55E
  8
0
 10
258.26434362986362
 20
523.1800227638164
 30
0.0
 11
276.2643432752634
 21
523.1800227638164
 31
0.0
  0
LINE
  5
55F
  8
0
 10
254.2643437086634
 20
515.18002292141625
 30
0.0
 11
280.26434319646341
 21
515.18002292141625
 31
0.0
  0
LINE
  5
560
  8
0
 10
282.26434315706348
 20
513.18002296081625
 30
0.0
 11
252.26434374806351
 21
513.18002296081625
 31
0.0
  0
LINE
  5
561
  8
0
 10
252.26434374806351
 20
509.68002302976629
 30
0.0
 11
229.96589735984841
 21
509.6800230297664
 31
0.0
  0
LINE
  5
562
  8
0
 10
262.2643435510634
 20
515.6800229115662
 30
0.0
 11
229.96589735984841
 21
515.6800229115662
 31
0.0
  0
LINE
  5
563
  8
0
 10
229.96589735984841
 20
509.6800230297664
 30
0.0
 11
229.96589735984841
 21
515.6800229115662
 31
0.0
  0
LINE
  5
564
  8
0
 10
262.76434354121352
 20
522.18002278351639
 30
0.0
 11
262.76434354121352
 21
523.1800227638164
 31
0.0
  0
LINE
  5
565
  8
0
 10
262.2643435510634
 20
515.18002292141625
 30
0.0
 11
262.2643435510634
 21
515.93002290664117
 31
0.0
  0
LINE
  5
566
  8
0
 10
262.2643435510634
 20
521.93002278844153
 30
0.0
 11
262.2643435510634
 21
522.18002278351639
 31
0.0
  0
LINE
  5
567
  8
0
 10
258.26434362986362
 20
522.38002277957617
 30
0.0
 11
262.76434354121352
 21
522.38002277957617
 31
0.0
  0
LINE
  5
568
  8
0
 10
258.26434362986362
 20
522.38002277957617
 30
0.0
 11
258.26434362986362
 21
523.1800227638164
 31
0.0
  0
LINE
  5
569
  8
0
 10
262.26434355106358
 20
525.1800227244164
 30
0.0
 11
262.76434354121352
 21
525.68002271456635
 31
0.0
  0
LINE
  5
56A
  8
0
 10
262.2643435510634
 20
523.1800227638164
 30
0.0
 11
262.26434355106358
 21
525.1800227244164
 31
0.0
  0
LINE
  5
56B
  8
0
 10
252.26434374806351
 20
513.18002296081625
 30
0.0
 11
254.2643437086634
 21
515.18002292141625
 31
0.0
  0
LINE
  5
56C
  8
0
 62
     7
 10
254.6589701678665
 20
541.68002239936629
 30
0.0
 11
232.1589706111165
 21
541.68002239936629
 31
0.0
  0
LINE
  5
56D
  8
0
 10
280.26434319646341
 20
515.18002292141625
 30
0.0
 11
282.26434315706348
 21
513.18002296081625
 31
0.0
  0
LINE
  5
56E
  8
0
 10
281.76649155553679
 20
515.93002290664117
 30
0.0
 11
281.76649155553679
 21
521.93002278844131
 31
0.0
  0
LINE
  5
56F
  8
0
 10
276.2643432752634
 20
522.38002277957617
 30
0.0
 11
276.2643432752634
 21
523.1800227638164
 31
0.0
  0
LINE
  5
570
  8
0
 10
271.7643433639135
 20
522.18002278351639
 30
0.0
 11
271.7643433639135
 21
523.1800227638164
 31
0.0
  0
LINE
  5
571
  8
0
 10
272.26434335406333
 20
515.18002292141625
 30
0.0
 11
272.26434335406333
 21
515.93002290664117
 31
0.0
  0
LINE
  5
572
  8
0
 10
272.26434335406333
 20
521.93002278844153
 30
0.0
 11
272.26434335406333
 21
522.18002278351639
 31
0.0
  0
LINE
  5
573
  8
0
 10
271.7643433639135
 20
525.68002271456635
 30
0.0
 11
272.2643433540635
 21
525.1800227244164
 31
0.0
  0
LINE
  5
574
  8
0
 10
272.26434335406333
 20
523.1800227638164
 30
0.0
 11
272.2643433540635
 21
525.1800227244164
 31
0.0
  0
LINE
  5
575
  8
0
 10
271.7643433639135
 20
522.38002277957617
 30
0.0
 11
276.2643432752634
 21
522.38002277957617
 31
0.0
  0
LINE
  5
576
  8
0
 62
     7
 10
254.6589701678665
 20
554.18002215311617
 30
0.0
 11
232.1589706111165
 21
554.18002215311617
 31
0.0
  0
ARC
  5
577
  8
0
 10
284.65896957836668
 20
559.1800220561164
 30
0.0
 40
4.9999998999999997
 50
0.0
 51
90.0
  0
POLYLINE
  5
578
  8
0
 66
     1
 10
0.0
 20
0.0
 30
0.0
  0
VERTEX
  5
D16
  8
0
 10
433.63509892584938
 20
207.84913214663479
 30
0.0
  0
VERTEX
  5
D17
  8
0
 10
433.63509892584949
 20
182.84913263913481
 30
0.0
  0
SEQEND
  5
D18
  8
0
  0
POLYLINE
  5
57C
  8
0
 66
     1
 10
0.0
 20
0.0
 30
0.0
  0
VERTEX
  5
D19
  8
0
 10
398.63509961534942
 20
182.84913263913481
 30
0.0
  0
VERTEX
  5
D1A
  8
0
 10
398.63509961534942
 20
207.84913214663479
 30
0.0
  0
SEQEND
  5
D1B
  8
0
  0
LINE
  5
580
  8
CENTER
  6
CENTER
 10
416.13509927059948
 20
329.42424963198022
 30
0.0
 11
416.13509927059948
 21
167.55535985137229
 31
0.0
  0
LINE
  5
581
  8
0
 10
391.1350997630995
 20
291.3491305016849
 30
0.0
 11
391.1350997630995
 21
172.3491328459848
 31
0.0
  0
LINE
  5
582
  8
0
 10
386.13509986159931
 20
291.3491305016849
 30
0.0
 11
386.13509986159931
 21
172.3491328459848
 31
0.0
  0
LINE
  5
583
  8
0
 10
441.1350987780994
 20
291.3491305016849
 30
0.0
 11
441.1350987780994
 21
172.3491328459848
 31
0.0
  0
LINE
  5
584
  8
0
 10
446.13509867959931
 20
291.3491305016849
 30
0.0
 11
446.13509867959931
 21
172.3491328459848
 31
0.0
  0
LINE
  5
585
  8
0
 10
397.3850996399745
 20
242.44549297667839
 30
0.0
 11
397.3850996399745
 21
182.84913263913481
 31
0.0
  0
LINE
  5
586
  8
0
 10
434.88509890122452
 20
242.44549297667839
 30
0.0
 11
434.88509890122452
 21
182.84913263913481
 31
0.0
  0
ARC
  5
587
  8
0
 10
377.41635003335858
 20
203.47413223282231
 30
0.0
 40
3.381249933389352
 50
129.07330987625619
 51
230.92669012374341
  0
ARC
  5
588
  8
0
 10
380.15384997942999
 20
203.47413223282231
 30
0.0
 40
3.381249933389352
 50
309.07330987625647
 51
50.926690123743718
  0
LINE
  5
589
  8
0
 10
434.63509890614921
 20
206.8491321663349
 30
0.0
 11
434.63509890614938
 21
183.8491326194349
 31
0.0
  0
LINE
  5
58A
  8
0
 10
397.63509963504907
 20
206.8491321663349
 30
0.0
 11
397.63509963504907
 21
183.8491326194349
 31
0.0
  0
ARC
  5
58B
  8
0
 10
452.1163485617688
 20
203.47413223282231
 30
0.0
 40
3.381249933389352
 50
129.07330987625619
 51
230.92669012374341
  0
ARC
  5
58C
  8
0
 10
454.85384850784021
 20
203.47413223282231
 30
0.0
 40
3.381249933389352
 50
309.07330987625647
 51
50.926690123743732
  0
ARC
  5
58D
  8
0
 10
448.13509864019937
 20
172.3491328459848
 30
0.0
 40
6.9999998620999992
 50
180.0
 51
270.0
  0
LINE
  5
58E
  8
CENTER
  6
CENTER
 10
370.08083908410907
 20
195.3491323928848
 30
0.0
 11
464.0996344938622
 21
195.3491323928848
 31
0.0
  0
LINE
  5
58F
  8
0
 10
398.63509961534942
 20
182.84913263913481
 30
0.0
 11
433.63509892584949
 21
182.84913263913481
 31
0.0
  0
LINE
  5
590
  8
CENTER
  6
CENTER
 10
365.38510027037432
 20
173.04606037185479
 30
0.0
 11
365.38510027037432
 21
163.27816030087399
 31
0.0
  0
LINE
  5
591
  8
0
 10
371.63510014724932
 20
170.3491328853849
 30
0.0
 11
371.63510014724932
 21
165.3491329838848
 31
0.0
  0
LINE
  5
592
  8
0
 10
359.13510039349927
 20
170.3491328853849
 30
0.0
 11
359.13510039349927
 21
165.3491329838848
 31
0.0
  0
LINE
  5
593
  8
0
 10
391.38509975817431
 20
182.84913263913481
 30
0.0
 11
397.3850996399745
 21
182.84913263913481
 31
0.0
  0
LINE
  5
594
  8
0
 10
398.63509961534942
 20
182.84913263913481
 30
0.0
 11
397.63509963504907
 21
183.8491326194349
 31
0.0
  0
ARC
  5
595
  8
0
 10
384.13509990099931
 20
172.3491328459848
 30
0.0
 40
6.9999998620999992
 50
270.0
 51
0.0
  0
ARC
  5
596
  8
0
 10
384.13509990099931
 20
172.3491328459848
 30
0.0
 40
1.9999999606000001
 50
270.0
 51
0.0
  0
LINE
  5
597
  8
0
 10
375.2851000753443
 20
184.59913260465979
 30
0.0
 11
382.28509993744427
 21
184.59913260465979
 31
0.0
  0
LINE
  5
598
  8
0
 10
375.2851000753443
 20
189.84913250123489
 30
0.0
 11
382.28509993744427
 21
189.84913250123489
 31
0.0
  0
LINE
  5
599
  8
0
 10
375.2851000753443
 20
200.84913228453479
 30
0.0
 11
382.28509993744427
 21
200.84913228453479
 31
0.0
  0
LINE
  5
59A
  8
0
 10
373.63510010784938
 20
200.34913229438479
 30
0.0
 11
373.63510010784938
 21
190.34913249138489
 31
0.0
  0
LINE
  5
59B
  8
0
 10
374.0351000999691
 20
203.47413223282231
 30
0.0
 11
374.0351000999691
 21
187.2241325529474
 31
0.0
  0
ARC
  5
59C
  8
0
 10
386.7600998492868
 20
195.3491323928848
 30
0.0
 40
12.72499974931752
 50
154.39146786943721
 51
205.60853213056259
  0
ARC
  5
59D
  8
0
 10
377.41635003335858
 20
187.2241325529474
 30
0.0
 40
3.381249933389352
 50
129.0733098762565
 51
230.9266901237437
  0
LINE
  5
59E
  8
0
 10
374.0351000999691
 20
189.94913249926489
 30
0.0
 11
373.63510010784938
 21
190.34913249138489
 31
0.0
  0
LINE
  5
59F
  8
0
 10
374.0351000999691
 20
200.74913228650479
 30
0.0
 11
373.63510010784938
 21
200.34913229438479
 31
0.0
  0
LINE
  5
5A0
  8
0
 10
383.53509991281919
 20
205.84913218603489
 30
0.0
 11
383.53509991281919
 21
184.8491325997349
 31
0.0
  0
ARC
  5
5A1
  8
0
 10
370.81010016350172
 20
195.3491323928848
 30
0.0
 40
12.72499974931752
 50
334.39146786943189
 51
25.60853213056814
  0
ARC
  5
5A2
  8
0
 10
380.15384997942999
 20
187.2241325529474
 30
0.0
 40
3.381249933389352
 50
309.0733098762563
 51
50.926690123743448
  0
LINE
  5
5A3
  8
0
 10
383.53509991281919
 20
184.8491325997349
 30
0.0
 11
386.13509986159931
 21
184.8491325997349
 31
0.0
  0
LINE
  5
5A4
  8
0
 10
383.53509991281919
 20
205.84913218603489
 30
0.0
 11
386.13509986159931
 21
205.84913218603489
 31
0.0
  0
LINE
  5
5A5
  8
0
 10
434.88509890122452
 20
182.84913263913481
 30
0.0
 11
440.88509878302438
 21
182.84913263913481
 31
0.0
  0
LINE
  5
5A6
  8
0
 10
434.63509890614938
 20
183.8491326194349
 30
0.0
 11
433.63509892584949
 21
182.84913263913481
 31
0.0
  0
LINE
  5
5A7
  8
0
 10
448.13509864019937
 20
170.3491328853849
 30
0.0
 11
483.13509795069922
 21
170.3491328853849
 31
0.0
  0
LINE
  5
5A8
  8
0
 10
448.13509864019937
 20
165.3491329838848
 30
0.0
 11
483.13509795069922
 21
165.3491329838848
 31
0.0
  0
LINE
  5
5A9
  8
0
 10
460.63509839394948
 20
170.3491328853849
 30
0.0
 11
460.63509839394948
 21
165.3491329838848
 31
0.0
  0
ARC
  5
5AA
  8
0
 10
448.13509864019937
 20
172.3491328459848
 30
0.0
 40
1.9999999606000001
 50
180.0
 51
270.0
  0
LINE
  5
5AB
  8
0
 10
483.13509795069922
 20
170.3491328853849
 30
0.0
 11
483.13509795069922
 21
165.3491329838848
 31
0.0
  0
LINE
  5
5AC
  8
CENTER
  6
CENTER
 10
466.8850982708243
 20
173.0440747589015
 30
0.0
 11
466.8850982708243
 21
163.2166143818701
 31
0.0
  0
LINE
  5
5AD
  8
0
 10
473.1350981476993
 20
170.3491328853849
 30
0.0
 11
473.1350981476993
 21
165.3491329838848
 31
0.0
  0
LINE
  5
5AE
  8
0
 10
458.23509844122941
 20
203.47413223282231
 30
0.0
 11
458.23509844122941
 21
187.2241325529474
 31
0.0
  0
ARC
  5
5AF
  8
0
 10
445.51009869191188
 20
195.3491323928848
 30
0.0
 40
12.72499974931752
 50
334.39146786944269
 51
25.608532130557322
  0
LINE
  5
5B0
  8
0
 10
458.63509843334941
 20
200.34913229438479
 30
0.0
 11
458.63509843334941
 21
190.34913249138489
 31
0.0
  0
ARC
  5
5B1
  8
0
 10
454.85384850784021
 20
187.2241325529474
 30
0.0
 40
3.381249933389352
 50
309.0733098762563
 51
50.926690123743448
  0
LINE
  5
5B2
  8
0
 10
458.23509844122941
 20
189.94913249926489
 30
0.0
 11
458.63509843334941
 21
190.34913249138489
 31
0.0
  0
LINE
  5
5B3
  8
0
 10
458.23509844122941
 20
200.74913228650479
 30
0.0
 11
458.63509843334941
 21
200.34913229438479
 31
0.0
  0
LINE
  5
5B4
  8
0
 10
448.73509862837932
 20
205.84913218603489
 30
0.0
 11
448.73509862837932
 21
184.8491325997349
 31
0.0
  0
ARC
  5
5B5
  8
0
 10
461.46009837769702
 20
195.3491323928848
 30
0.0
 40
12.72499974931752
 50
154.39146786943721
 51
205.60853213056259
  0
ARC
  5
5B6
  8
0
 10
452.1163485617688
 20
187.2241325529474
 30
0.0
 40
3.381249933389352
 50
129.0733098762565
 51
230.9266901237437
  0
LINE
  5
5B7
  8
0
 10
448.73509862837932
 20
184.8491325997349
 30
0.0
 11
446.13509867959931
 21
184.8491325997349
 31
0.0
  0
LINE
  5
5B8
  8
0
 10
448.73509862837932
 20
205.84913218603489
 30
0.0
 11
446.13509867959931
 21
205.84913218603489
 31
0.0
  0
LINE
  5
5B9
  8
0
 10
456.98509846585461
 20
184.59913260465979
 30
0.0
 11
449.98509860375452
 21
184.59913260465979
 31
0.0
  0
LINE
  5
5BA
  8
0
 10
456.98509846585461
 20
189.84913250123489
 30
0.0
 11
449.98509860375452
 21
189.84913250123489
 31
0.0
  0
LINE
  5
5BB
  8
0
 10
456.98509846585461
 20
200.84913228453479
 30
0.0
 11
449.98509860375452
 21
200.84913228453479
 31
0.0
  0
LINE
  5
5BC
  8
0
 10
397.3850996399745
 20
322.5760854265128
 30
0.0
 11
397.3850996399745
 21
254.46553128265651
 31
0.0
  0
LINE
  5
5BD
  8
0
 10
391.38509975817459
 20
322.5760854265128
 30
0.0
 11
391.38509975817459
 21
254.46553128265651
 31
0.0
  0
LINE
  5
5BE
  8
0
 10
434.88509890122413
 20
322.5760854265128
 30
0.0
 11
434.88509890122452
 21
254.46553128265651
 31
0.0
  0
LINE
  5
5BF
  8
0
 10
440.88509878302438
 20
322.5760854265128
 30
0.0
 11
440.88509878302438
 21
254.46553128265651
 31
0.0
  0
LINE
  5
5C0
  8
0
 10
441.1350987780994
 20
291.3491305016849
 30
0.0
 11
446.13509867959931
 21
291.3491305016849
 31
0.0
  0
LINE
  5
5C1
  8
CENTER
  6
CENTER
 10
378.02714435276971
 20
226.3491317821848
 30
0.0
 11
453.87824553548302
 21
226.3491317821848
 31
0.0
  0
LINE
  5
5C2
  8
CENTER
  6
CENTER
 10
370.08083908410907
 20
270.34913091538482
 30
0.0
 11
462.5469428994931
 21
270.34913091538482
 31
0.0
  0
LINE
  5
5C3
  8
0
 10
434.63509890614938
 20
290.89402306745802
 30
0.0
 11
434.63509890614938
 21
217.4695392772081
 31
0.0
  0
LINE
  5
5C4
  8
0
 10
428.63509902434942
 20
290.89402306745819
 30
0.0
 11
428.63509902434942
 21
217.4695392772081
 31
0.0
  0
LINE
  5
5C5
  8
0
 10
403.63509951684938
 20
290.89402306745802
 30
0.0
 11
403.63509951684938
 21
217.46953927720801
 31
0.0
  0
LINE
  5
5C6
  8
0
 10
397.63509963504907
 20
290.89402306745802
 30
0.0
 11
397.63509963504907
 21
217.46953927720801
 31
0.0
  0
LINE
  5
5C7
  8
0
 10
397.63509963504907
 20
217.46953927720801
 30
0.0
 11
403.63509951684938
 21
217.46953927720801
 31
0.0
  0
LINE
  5
5C8
  8
0
 10
398.63509961534942
 20
207.84913214663479
 30
0.0
 11
433.63509892584938
 21
207.84913214663479
 31
0.0
  0
LINE
  5
5C9
  8
CENTER
  6
CENTER
 10
400.42127948904198
 20
229.96953903095789
 30
0.0
 11
431.48411119426748
 21
229.96953903095789
 31
0.0
  0
LINE
  5
5CA
  8
0
 10
381.1350999600993
 20
231.3491316836849
 30
0.0
 11
381.1350999600993
 21
221.34913188068481
 31
0.0
  0
LINE
  5
5CB
  8
0
 10
384.13509990099931
 20
235.34913160488469
 30
0.0
 11
384.13509990099931
 21
217.34913195948491
 31
0.0
  0
LINE
  5
5CC
  8
0
 10
385.13509988129908
 20
232.34913166398479
 30
0.0
 11
385.13509988129908
 21
220.3491319003848
 31
0.0
  0
LINE
  5
5CD
  8
0
 10
382.13509994039907
 20
220.34913190038489
 30
0.0
 11
382.13509994039907
 21
232.34913166398479
 31
0.0
  0
LINE
  5
5CE
  8
0
 10
375.2851000753443
 20
206.09913218110989
 30
0.0
 11
382.28509993744427
 21
206.09913218110989
 31
0.0
  0
LINE
  5
5CF
  8
0
 10
384.93509988523903
 20
221.8491318708349
 30
0.0
 11
384.93509988523903
 21
217.34913195948491
 31
0.0
  0
LINE
  5
5D0
  8
0
 10
385.13509988129908
 20
220.3491319003848
 30
0.0
 11
386.13509986159931
 21
220.3491319003848
 31
0.0
  0
LINE
  5
5D1
  8
0
 10
398.63509961534942
 20
207.84913214663479
 30
0.0
 11
397.63509963504907
 21
206.8491321663349
 31
0.0
  0
LINE
  5
5D2
  8
0
 10
382.13509994039907
 20
220.34913190038489
 30
0.0
 11
384.13509990099931
 21
220.3491319003848
 31
0.0
  0
LINE
  5
5D3
  8
0
 10
382.13509994039907
 20
220.34913190038489
 30
0.0
 11
381.1350999600993
 21
221.34913188068481
 31
0.0
  0
LINE
  5
5D4
  8
0
 10
384.13509990099931
 20
217.34913195948491
 30
0.0
 11
384.93509988523903
 21
217.34913195948491
 31
0.0
  0
LINE
  5
5D5
  8
0
 10
384.13509990099931
 20
221.8491318708349
 30
0.0
 11
385.13509988129908
 21
221.8491318708349
 31
0.0
  0
LINE
  5
5D6
  8
0
 10
391.38509975817431
 20
242.44549297667851
 30
0.0
 11
397.3850996399745
 21
242.44549297667839
 31
0.0
  0
LINE
  5
5D7
  8
0
 10
384.93509988523942
 20
235.34913160488469
 30
0.0
 11
384.93509988523942
 21
230.8491316935349
 31
0.0
  0
LINE
  5
5D8
  8
0
 10
385.13509988129908
 20
232.34913166398479
 30
0.0
 11
386.13509986159931
 21
232.34913166398479
 31
0.0
  0
LINE
  5
5D9
  8
0
 10
382.13509994039907
 20
232.34913166398479
 30
0.0
 11
384.13509990099931
 21
232.34913166398479
 31
0.0
  0
LINE
  5
5DA
  8
0
 10
381.1350999600993
 20
231.3491316836849
 30
0.0
 11
382.13509994039907
 21
232.34913166398479
 31
0.0
  0
LINE
  5
5DB
  8
0
 10
384.13509990099931
 20
230.8491316935349
 30
0.0
 11
385.13509988129908
 21
230.8491316935349
 31
0.0
  0
LINE
  5
5DC
  8
0
 10
384.13509990099931
 20
235.34913160488469
 30
0.0
 11
384.93509988523942
 21
235.34913160488469
 31
0.0
  0
LINE
  5
5DD
  8
0
 10
428.13509903419953
 20
238.96953885365801
 30
0.0
 11
428.13509903419953
 21
220.96953920825791
 31
0.0
  0
LINE
  5
5DE
  8
0
 10
424.13509911299928
 20
238.96953885365801
 30
0.0
 11
424.13509911299928
 21
220.96953920825791
 31
0.0
  0
LINE
  5
5DF
  8
0
 10
425.13509909329957
 20
239.96953883395801
 30
0.0
 11
425.13509909329957
 21
219.96953922795799
 31
0.0
  0
LINE
  5
5E0
  8
0
 10
427.13509905389952
 20
219.96953922795799
 30
0.0
 11
427.13509905389952
 21
239.96953883395801
 31
0.0
  0
LINE
  5
5E1
  8
0
 10
404.13509950699938
 20
238.96953885365801
 30
0.0
 11
404.13509950699938
 21
220.96953920825791
 31
0.0
  0
LINE
  5
5E2
  8
0
 10
408.13509942819928
 20
238.96953885365801
 30
0.0
 11
408.13509942819928
 21
220.96953920825791
 31
0.0
  0
LINE
  5
5E3
  8
0
 10
407.13509944789939
 20
239.96953883395801
 30
0.0
 11
407.13509944789939
 21
219.96953922795799
 31
0.0
  0
LINE
  5
5E4
  8
0
 10
405.13509948729933
 20
219.96953922795799
 30
0.0
 11
405.13509948729933
 21
239.96953883395801
 31
0.0
  0
CIRCLE
  5
5E5
  8
0
 10
416.13509927059948
 20
229.96953903095789
 30
0.0
 40
7.4999998522499993
  0
ARC
  5
5E6
  8
0
 10
416.13509927059948
 20
229.96953903095789
 30
0.0
 40
9.9999998029999997
 50
216.86989764584391
 51
323.13010235415692
  0
LINE
  5
5E7
  8
0
 10
407.13509944789939
 20
219.96953922795799
 30
0.0
 11
408.13509942819928
 21
220.96953920825791
 31
0.0
  0
LINE
  5
5E8
  8
0
 10
405.13509948729933
 20
219.96953922795799
 30
0.0
 11
404.13509950699938
 21
220.96953920825791
 31
0.0
  0
LINE
  5
5E9
  8
0
 10
405.13509948729933
 20
219.96953922795799
 30
0.0
 11
407.13509944789939
 21
219.96953922795799
 31
0.0
  0
LINE
  5
5EA
  8
0
 10
433.63509892584938
 20
207.84913214663479
 30
0.0
 11
434.63509890614921
 21
206.8491321663349
 31
0.0
  0
LINE
  5
5EB
  8
0
 10
425.13509909329957
 20
219.96953922795799
 30
0.0
 11
427.13509905389952
 21
219.96953922795799
 31
0.0
  0
LINE
  5
5EC
  8
0
 10
427.13509905389952
 20
219.96953922795799
 30
0.0
 11
428.13509903419953
 21
220.96953920825791
 31
0.0
  0
LINE
  5
5ED
  8
0
 10
424.13509911299928
 20
220.96953920825791
 30
0.0
 11
425.13509909329957
 21
219.96953922795799
 31
0.0
  0
LINE
  5
5EE
  8
0
 10
428.63509902434942
 20
217.4695392772081
 30
0.0
 11
434.63509890614938
 21
217.4695392772081
 31
0.0
  0
ARC
  5
5EF
  8
0
 10
416.13509927059948
 20
229.96953903095789
 30
0.0
 40
9.9999998029999997
 50
36.869897645842968
 51
143.13010235415609
  0
LINE
  5
5F0
  8
0
 10
407.13509944789939
 20
239.96953883395801
 30
0.0
 11
408.13509942819928
 21
238.96953885365801
 31
0.0
  0
LINE
  5
5F1
  8
0
 10
405.13509948729933
 20
239.96953883395801
 30
0.0
 11
404.13509950699938
 21
238.96953885365801
 31
0.0
  0
LINE
  5
5F2
  8
0
 10
405.13509948729933
 20
239.96953883395801
 30
0.0
 11
407.13509944789939
 21
239.96953883395801
 31
0.0
  0
LINE
  5
5F3
  8
0
 10
434.88509890122452
 20
242.44549297667839
 30
0.0
 11
440.88509878302438
 21
242.44549297667839
 31
0.0
  0
LINE
  5
5F4
  8
0
 10
427.13509905389952
 20
239.96953883395801
 30
0.0
 11
428.13509903419953
 21
238.96953885365801
 31
0.0
  0
LINE
  5
5F5
  8
0
 10
425.13509909329957
 20
239.96953883395801
 30
0.0
 11
427.13509905389952
 21
239.96953883395801
 31
0.0
  0
LINE
  5
5F6
  8
0
 10
425.13509909329957
 20
239.96953883395801
 30
0.0
 11
424.13509911299928
 21
238.96953885365801
 31
0.0
  0
LINE
  5
5F7
  8
0
 10
397.63509963504907
 20
290.89402306745802
 30
0.0
 11
403.63509951684938
 21
290.89402306745802
 31
0.0
  0
LINE
  5
5F8
  8
CENTER
  6
CENTER
 10
401.02285291715719
 20
278.36534023055208
 30
0.0
 11
431.45390648486352
 21
278.36534023055208
 31
0.0
  0
LINE
  5
5F9
  8
0
 10
383.53509991281919
 20
280.84913070853497
 30
0.0
 11
383.53509991281919
 21
259.84913112223501
 31
0.0
  0
ARC
  5
5FA
  8
0
 10
370.81010016350172
 20
270.34913091538482
 30
0.0
 40
12.72499974931752
 50
334.39146786943189
 51
25.60853213056814
  0
LINE
  5
5FB
  8
0
 10
374.0351000999691
 20
278.47413075532239
 30
0.0
 11
374.0351000999691
 21
262.22413107544747
 31
0.0
  0
ARC
  5
5FC
  8
0
 10
386.7600998492868
 20
270.34913091538482
 30
0.0
 40
12.72499974931752
 50
154.39146786943721
 51
205.60853213056259
  0
LINE
  5
5FD
  8
0
 10
373.63510010784938
 20
275.34913081688489
 30
0.0
 11
373.63510010784938
 21
265.3491310138848
 31
0.0
  0
LINE
  5
5FE
  8
0
 10
375.2851000753443
 20
259.59913112715992
 30
0.0
 11
382.28509993744427
 21
259.59913112715992
 31
0.0
  0
LINE
  5
5FF
  8
0
 10
375.2851000753443
 20
264.84913102373491
 30
0.0
 11
382.28509993744427
 21
264.84913102373491
 31
0.0
  0
ARC
  5
600
  8
0
 10
377.41635003335858
 20
262.22413107544747
 30
0.0
 40
3.381249933389352
 50
129.0733098762565
 51
230.9266901237437
  0
LINE
  5
601
  8
0
 10
374.0351000999691
 20
264.94913102176491
 30
0.0
 11
373.63510010784938
 21
265.3491310138848
 31
0.0
  0
LINE
  5
602
  8
0
 10
391.38509975817459
 20
254.46553128265651
 30
0.0
 11
397.3850996399745
 21
254.46553128265651
 31
0.0
  0
ARC
  5
603
  8
0
 10
380.15384997942999
 20
262.22413107544747
 30
0.0
 40
3.381249933389352
 50
309.0733098762563
 51
50.926690123743448
  0
LINE
  5
604
  8
0
 10
383.53509991281919
 20
259.84913112223501
 30
0.0
 11
386.13509986159931
 21
259.84913112223501
 31
0.0
  0
LINE
  5
605
  8
0
 10
375.2851000753443
 20
275.8491308070349
 30
0.0
 11
382.28509993744427
 21
275.84913080703501
 31
0.0
  0
LINE
  5
606
  8
0
 10
375.2851000753443
 20
281.09913070360977
 30
0.0
 11
382.28509993744427
 21
281.09913070360977
 31
0.0
  0
ARC
  5
607
  8
0
 10
377.41635003335858
 20
278.47413075532239
 30
0.0
 40
3.381249933389352
 50
129.07330987625619
 51
230.92669012374341
  0
LINE
  5
608
  8
0
 10
374.0351000999691
 20
275.7491308090049
 30
0.0
 11
373.63510010784938
 21
275.34913081688489
 31
0.0
  0
LINE
  5
609
  8
0
 10
386.13509986159931
 20
291.3491305016849
 30
0.0
 11
391.1350997630995
 21
291.34913050168512
 31
0.0
  0
ARC
  5
60A
  8
0
 10
380.15384997942999
 20
278.47413075532239
 30
0.0
 40
3.381249933389352
 50
309.07330987625647
 51
50.926690123743718
  0
LINE
  5
60B
  8
0
 10
383.53509991281919
 20
280.84913070853497
 30
0.0
 11
386.13509986159931
 21
280.84913070853497
 31
0.0
  0
LINE
  5
60C
  8
0
 10
428.13509903419953
 20
285.36534009265222
 30
0.0
 11
428.13509903419953
 21
258.86534061470218
 31
0.0
  0
LINE
  5
60D
  8
0
 10
427.1350990538993
 20
286.36534007295222
 30
0.0
 11
427.1350990538993
 21
257.84913116163477
 31
0.0
  0
LINE
  5
60E
  8
0
 10
404.13509950699921
 20
285.36534009265222
 30
0.0
 11
404.13509950699921
 21
258.86534061470218
 31
0.0
  0
LINE
  5
60F
  8
0
 10
405.13509948729933
 20
257.84913116163477
 30
0.0
 11
405.13509948729933
 21
286.36534007295222
 31
0.0
  0
LINE
  5
611
  8
0
 10
405.13509948729933
 20
257.84913116163477
 30
0.0
 11
427.1350990538993
 21
257.84913116163477
 31
0.0
  0
LINE
  5
612
  8
0
 10
405.13509948729933
 20
257.86534063440212
 30
0.0
 11
404.13509950699921
 21
258.86534061470218
 31
0.0
  0
LINE
  5
613
  8
0
 10
405.13509948729933
 20
270.36534038815222
 30
0.0
 11
404.13509950699921
 21
271.36534036845211
 31
0.0
  0
LINE
  5
614
  8
0
 10
434.88509890122413
 20
254.46553128265651
 30
0.0
 11
441.1350987780994
 21
254.46553128265651
 31
0.0
  0
LINE
  5
615
  8
0
 10
427.1350990538993
 20
257.86534063440229
 30
0.0
 11
428.13509903419953
 21
258.86534061470218
 31
0.0
  0
LINE
  5
616
  8
0
 10
427.1350990538993
 20
270.36534038815228
 30
0.0
 11
428.13509903419953
 21
271.36534036845228
 31
0.0
  0
LINE
  5
617
  8
0
 10
405.13509948729933
 20
286.36534007295222
 30
0.0
 11
427.1350990538993
 21
286.36534007295222
 31
0.0
  0
LINE
  5
618
  8
0
 10
403.63509951684938
 20
273.36534032905229
 30
0.0
 11
404.13509950699921
 21
273.36534032905229
 31
0.0
  0
LINE
  5
619
  8
0
 10
405.13509948729933
 20
286.36534007295222
 30
0.0
 11
404.13509950699921
 21
285.36534009265222
 31
0.0
  0
LINE
  5
61A
  8
0
 10
403.63509951684938
 20
283.3653401320521
 30
0.0
 11
404.13509950699921
 21
283.3653401320521
 31
0.0
  0
LINE
  5
61B
  8
0
 10
428.13509903419953
 20
273.36534032905229
 30
0.0
 11
428.63509902434942
 21
273.36534032905229
 31
0.0
  0
LINE
  5
61C
  8
0
 10
428.13509903419953
 20
285.36534009265222
 30
0.0
 11
427.1350990538993
 21
286.36534007295222
 31
0.0
  0
LINE
  5
61D
  8
0
 10
428.13509903419953
 20
283.3653401320521
 30
0.0
 11
428.63509902434942
 21
283.36534013205221
 31
0.0
  0
LINE
  5
61E
  8
0
 10
428.63509902434942
 20
290.89402306745819
 30
0.0
 11
434.63509890614938
 21
290.89402306745819
 31
0.0
  0
LINE
  5
61F
  8
0
 10
451.13509858109933
 20
231.3491316836849
 30
0.0
 11
451.1350985810995
 21
221.34913188068481
 31
0.0
  0
LINE
  5
620
  8
0
 10
448.13509864019937
 20
235.34913160488469
 30
0.0
 11
448.13509864019937
 21
217.34913195948491
 31
0.0
  0
LINE
  5
621
  8
0
 10
447.1350986598992
 20
232.34913166398479
 30
0.0
 11
447.1350986598992
 21
220.3491319003848
 31
0.0
  0
LINE
  5
622
  8
0
 10
450.13509860079932
 20
220.3491319003848
 30
0.0
 11
450.13509860079932
 21
232.34913166398479
 31
0.0
  0
LINE
  5
623
  8
0
 10
448.13509864019937
 20
220.3491319003848
 30
0.0
 11
450.13509860079932
 21
220.3491319003848
 31
0.0
  0
LINE
  5
624
  8
0
 10
447.33509865595931
 20
221.84913187083481
 30
0.0
 11
447.33509865595931
 21
217.34913195948491
 31
0.0
  0
LINE
  5
625
  8
0
 10
447.33509865595931
 20
217.34913195948491
 30
0.0
 11
448.13509864019937
 21
217.34913195948491
 31
0.0
  0
LINE
  5
626
  8
0
 10
446.13509867959931
 20
220.3491319003848
 30
0.0
 11
447.1350986598992
 21
220.3491319003848
 31
0.0
  0
LINE
  5
627
  8
0
 10
447.1350986598992
 20
221.84913187083481
 30
0.0
 11
448.13509864019937
 21
221.84913187083481
 31
0.0
  0
LINE
  5
628
  8
0
 10
450.13509860079932
 20
220.3491319003848
 30
0.0
 11
451.1350985810995
 21
221.34913188068481
 31
0.0
  0
LINE
  5
629
  8
0
 10
456.98509846585461
 20
206.09913218110989
 30
0.0
 11
449.98509860375452
 21
206.09913218110989
 31
0.0
  0
LINE
  5
62A
  8
0
 10
448.13509864019937
 20
232.34913166398479
 30
0.0
 11
450.13509860079932
 21
232.34913166398479
 31
0.0
  0
LINE
  5
62B
  8
0
 10
447.33509865595931
 20
235.34913160488469
 30
0.0
 11
447.33509865595931
 21
230.8491316935349
 31
0.0
  0
LINE
  5
62C
  8
0
 10
446.13509867959931
 20
232.34913166398479
 30
0.0
 11
447.1350986598992
 21
232.34913166398479
 31
0.0
  0
LINE
  5
62D
  8
0
 10
447.1350986598992
 20
230.8491316935349
 30
0.0
 11
448.13509864019937
 21
230.8491316935349
 31
0.0
  0
LINE
  5
62E
  8
0
 10
447.33509865595931
 20
235.34913160488469
 30
0.0
 11
448.13509864019937
 21
235.34913160488469
 31
0.0
  0
LINE
  5
62F
  8
0
 10
451.13509858109933
 20
231.3491316836849
 30
0.0
 11
450.13509860079932
 21
232.34913166398479
 31
0.0
  0
LINE
  5
630
  8
0
 10
458.23509844122941
 20
278.47413075532239
 30
0.0
 11
458.23509844122941
 21
262.22413107544747
 31
0.0
  0
LINE
  5
631
  8
0
 10
458.63509843334941
 20
275.34913081688489
 30
0.0
 11
458.63509843334941
 21
265.3491310138848
 31
0.0
  0
ARC
  5
632
  8
0
 10
445.51009869191188
 20
270.34913091538482
 30
0.0
 40
12.72499974931752
 50
334.39146786944269
 51
25.608532130557322
  0
LINE
  5
633
  8
0
 10
448.73509862837932
 20
280.84913070853497
 30
0.0
 11
448.73509862837932
 21
259.84913112223501
 31
0.0
  0
ARC
  5
634
  8
0
 10
461.46009837769702
 20
270.34913091538482
 30
0.0
 40
12.72499974931752
 50
154.39146786943721
 51
205.60853213056259
  0
ARC
  5
635
  8
0
 10
454.85384850784021
 20
262.22413107544747
 30
0.0
 40
3.381249933389352
 50
309.0733098762563
 51
50.926690123743448
  0
LINE
  5
636
  8
0
 10
458.23509844122941
 20
264.94913102176491
 30
0.0
 11
458.63509843334941
 21
265.3491310138848
 31
0.0
  0
ARC
  5
637
  8
0
 10
452.1163485617688
 20
262.22413107544747
 30
0.0
 40
3.381249933389352
 50
129.0733098762565
 51
230.9266901237437
  0
LINE
  5
638
  8
0
 10
448.73509862837932
 20
259.84913112223501
 30
0.0
 11
446.13509867959931
 21
259.84913112223501
 31
0.0
  0
LINE
  5
639
  8
0
 10
456.98509846585461
 20
264.84913102373491
 30
0.0
 11
449.98509860375452
 21
264.84913102373491
 31
0.0
  0
LINE
  5
63A
  8
0
 10
456.98509846585461
 20
259.59913112715992
 30
0.0
 11
449.98509860375452
 21
259.59913112715992
 31
0.0
  0
ARC
  5
63B
  8
0
 10
454.85384850784021
 20
278.47413075532239
 30
0.0
 40
3.381249933389352
 50
309.07330987625647
 51
50.926690123743732
  0
LINE
  5
63C
  8
0
 10
458.23509844122941
 20
275.7491308090049
 30
0.0
 11
458.63509843334941
 21
275.34913081688489
 31
0.0
  0
ARC
  5
63D
  8
0
 10
452.1163485617688
 20
278.47413075532239
 30
0.0
 40
3.381249933389352
 50
129.07330987625619
 51
230.92669012374341
  0
LINE
  5
63E
  8
0
 10
448.73509862837932
 20
280.84913070853497
 30
0.0
 11
446.13509867959931
 21
280.84913070853497
 31
0.0
  0
LINE
  5
63F
  8
0
 10
456.98509846585461
 20
275.8491308070349
 30
0.0
 11
449.98509860375452
 21
275.84913080703501
 31
0.0
  0
LINE
  5
640
  8
0
 10
456.98509846585461
 20
281.09913070360977
 30
0.0
 11
449.98509860375452
 21
281.09913070360977
 31
0.0
  0
LINE
  5
641
  8
0
 10
444.63509870914942
 20
305.57608576141291
 30
0.0
 11
444.13509871899919
 21
305.07608577126291
 31
0.0
  0
LINE
  5
642
  8
0
 10
444.13509871899919
 20
315.07608557426278
 30
0.0
 11
444.63509870914942
 21
314.576085584113
 31
0.0
  0
LINE
  5
643
  8
CENTER
  6
CENTER
 10
385.25105928657541
 20
310.07608567276282
 30
0.0
 11
447.37672269702671
 21
310.07608567276282
 31
0.0
  0
LINE
  5
644
  8
0
 10
400.13509958579931
 20
295.07608596826287
 30
0.0
 11
408.13509942819911
 21
295.07608596826287
 31
0.0
  0
LINE
  5
645
  8
0
 10
400.13509958579931
 20
325.07608537726281
 30
0.0
 11
408.13509942819911
 21
325.07608537726281
 31
0.0
  0
LINE
  5
646
  8
0
 10
390.1350997827991
 20
319.07608549546279
 30
0.0
 11
390.1350997827995
 21
301.07608585006301
 31
0.0
  0
LINE
  5
647
  8
0
 10
390.93509976703939
 20
319.07608549546279
 30
0.0
 11
390.93509976703939
 21
301.07608585006301
 31
0.0
  0
LINE
  5
648
  8
0
 10
398.1350996251993
 20
323.07608541666292
 30
0.0
 11
398.1350996251993
 21
297.07608592886288
 31
0.0
  0
LINE
  5
649
  8
0
 10
400.13509958579931
 20
325.07608537726281
 30
0.0
 11
400.13509958579931
 21
295.07608596826287
 31
0.0
  0
LINE
  5
64A
  8
0
 10
390.1350997827995
 20
301.07608585006301
 30
0.0
 11
390.93509976703939
 21
301.07608585006301
 31
0.0
  0
LINE
  5
64B
  8
0
 10
391.1350997630995
 20
315.07608557426278
 30
0.0
 11
391.1350997630995
 21
305.07608577126291
 31
0.0
  0
LINE
  5
64C
  8
0
 10
387.63509983204932
 20
314.576085584113
 30
0.0
 11
387.63509983204932
 21
305.57608576141291
 31
0.0
  0
LINE
  5
64D
  8
0
 10
388.13509982219938
 20
305.07608577126291
 30
0.0
 11
388.13509982219938
 21
315.07608557426278
 31
0.0
  0
LINE
  5
64E
  8
0
 10
390.1350997827991
 20
305.57608576141291
 30
0.0
 11
391.1350997630995
 21
305.57608576141291
 31
0.0
  0
LINE
  5
64F
  8
0
 10
391.1350997630995
 20
305.07608577126291
 30
0.0
 11
391.38509975817459
 21
305.07608577126291
 31
0.0
  0
LINE
  5
650
  8
0
 10
388.13509982219938
 20
305.07608577126291
 30
0.0
 11
387.63509983204932
 21
305.57608576141291
 31
0.0
  0
LINE
  5
651
  8
0
 10
388.13509982219938
 20
305.07608577126291
 30
0.0
 11
390.1350997827995
 21
305.07608577126291
 31
0.0
  0
LINE
  5
652
  8
0
 10
390.1350997827991
 20
314.576085584113
 30
0.0
 11
391.1350997630995
 21
314.576085584113
 31
0.0
  0
LINE
  5
653
  8
0
 10
391.1350997630995
 20
315.07608557426278
 30
0.0
 11
391.38509975817459
 21
315.07608557426278
 31
0.0
  0
LINE
  5
654
  8
0
 10
387.63509983204932
 20
314.576085584113
 30
0.0
 11
388.13509982219938
 21
315.07608557426278
 31
0.0
  0
LINE
  5
655
  8
0
 10
388.13509982219938
 20
315.07608557426278
 30
0.0
 11
390.1350997827995
 21
315.07608557426278
 31
0.0
  0
LINE
  5
656
  8
0
 10
400.13509958579931
 20
295.07608596826287
 30
0.0
 11
398.1350996251993
 21
297.07608592886288
 31
0.0
  0
LINE
  5
657
  8
0
 10
397.3850996399745
 20
305.07608577126302
 30
0.0
 11
398.1350996251993
 21
305.07608577126302
 31
0.0
  0
LINE
  5
658
  8
0
 10
397.3850996399745
 20
315.076085574263
 30
0.0
 11
398.1350996251993
 21
315.076085574263
 31
0.0
  0
LINE
  5
659
  8
0
 10
391.38509975817459
 20
322.5760854265128
 30
0.0
 11
397.3850996399745
 21
322.5760854265128
 31
0.0
  0
LINE
  5
65A
  8
0
 10
390.1350997827995
 20
319.07608549546291
 30
0.0
 11
390.93509976703939
 21
319.07608549546279
 31
0.0
  0
LINE
  5
65B
  8
0
 10
398.1350996251993
 20
323.07608541666292
 30
0.0
 11
400.13509958579931
 21
325.07608537726281
 31
0.0
  0
LINE
  5
65C
  8
0
 10
434.13509891599938
 20
323.07608541666292
 30
0.0
 11
434.13509891599938
 21
297.07608592886288
 31
0.0
  0
LINE
  5
65D
  8
0
 10
432.13509895539943
 20
295.07608596826287
 30
0.0
 11
432.13509895539943
 21
325.07608537726281
 31
0.0
  0
LINE
  5
65E
  8
0
 10
442.13509875839958
 20
319.07608549546279
 30
0.0
 11
442.13509875839958
 21
301.07608585006301
 31
0.0
  0
LINE
  5
65F
  8
0
 10
441.33509877415918
 20
319.07608549546279
 30
0.0
 11
441.33509877415918
 21
301.07608585006301
 31
0.0
  0
LINE
  5
660
  8
0
 10
441.33509877415918
 20
301.07608585006301
 30
0.0
 11
442.13509875839958
 21
301.07608585006301
 31
0.0
  0
LINE
  5
661
  8
0
 10
441.1350987780994
 20
315.07608557426278
 30
0.0
 11
441.1350987780994
 21
305.07608577126291
 31
0.0
  0
LINE
  5
662
  8
0
 10
444.13509871899919
 20
315.07608557426278
 30
0.0
 11
444.13509871899919
 21
305.07608577126291
 31
0.0
  0
LINE
  5
663
  8
0
 10
442.13509875839958
 20
305.07608577126302
 30
0.0
 11
444.13509871899919
 21
305.07608577126291
 31
0.0
  0
LINE
  5
664
  8
0
 10
440.88509878302449
 20
305.07608577126302
 30
0.0
 11
441.1350987780994
 21
305.07608577126302
 31
0.0
  0
LINE
  5
665
  8
0
 10
441.1350987780994
 20
305.57608576141291
 30
0.0
 11
442.13509875839958
 21
305.57608576141291
 31
0.0
  0
LINE
  5
666
  8
0
 10
442.13509875839958
 20
315.076085574263
 30
0.0
 11
444.13509871899919
 21
315.07608557426278
 31
0.0
  0
LINE
  5
667
  8
0
 10
440.88509878302449
 20
315.076085574263
 30
0.0
 11
441.1350987780994
 21
315.076085574263
 31
0.0
  0
LINE
  5
668
  8
0
 10
441.1350987780994
 20
314.576085584113
 30
0.0
 11
442.13509875839958
 21
314.576085584113
 31
0.0
  0
LINE
  5
669
  8
0
 10
434.13509891599938
 20
297.07608592886288
 30
0.0
 11
432.13509895539943
 21
295.07608596826287
 31
0.0
  0
LINE
  5
66A
  8
0
 10
434.13509891599938
 20
305.07608577126302
 30
0.0
 11
434.88509890122413
 21
305.07608577126302
 31
0.0
  0
LINE
  5
66B
  8
0
 10
434.13509891599938
 20
315.076085574263
 30
0.0
 11
434.88509890122413
 21
315.076085574263
 31
0.0
  0
LINE
  5
66C
  8
0
 10
441.33509877415918
 20
319.07608549546279
 30
0.0
 11
442.13509875839958
 21
319.07608549546279
 31
0.0
  0
LINE
  5
66D
  8
0
 10
434.88509890122413
 20
322.5760854265128
 30
0.0
 11
440.88509878302438
 21
322.5760854265128
 31
0.0
  0
LINE
  5
66E
  8
0
 10
432.13509895539943
 20
325.07608537726281
 30
0.0
 11
434.13509891599938
 21
323.07608541666292
 31
0.0
  0
LINE
  5
66F
  8
0
 10
444.63509870914942
 20
314.576085584113
 30
0.0
 11
444.63509870914942
 21
305.57608576141291
 31
0.0
  0
DIMENSION
  5
670
  8
DIM
  2
*D19
 10
40.775755307168232
 20
165.3491329838848
 30
0.0
 11
35.775755307168211
 21
228.34913174278489
 31
0.0
 70
     0
  1
126
 13
152.8129070768768
 23
291.3491305016849
 33
0.0
 14
52.65897414726669
 24
165.3491329838848
 34
0.0
 50
90.0
  0
DIMENSION
  5
671
  8
DIM
  2
*D20
 10
311.37477452328858
 20
165.3491329838848
 30
0.0
 11
304.80334595186002
 21
237.7038783143735
 31
0.0
 70
     0
  1
(144.7)
 13
267.26434345256348
 23
310.05862364486222
 33
0.0
 14
289.65896947836671
 24
165.3491329838848
 34
0.0
 50
90.0
  0
LINE
  5
672
  8
DIM
 10
309.79248095438538
 20
379.70417336738871
 30
0.0
 11
388.47790369705228
 21
379.70417336738871
 31
0.0
  0
TEXT
  5
673
  8
DIM
 10
312.52469689028919
 20
383.34951180418932
 30
0.0
 40
8.0
  1
4-%%C12
 50
359.99999999999687
  7
CHINESET
 11
312.52469689028942
 21
387.34951180418932
 31
0.0
 73
     2
  0
TEXT
  5
674
  8
DIM
 10
357.98140061186263
 20
382.50894752170512
 30
0.0
 40
8.5714284000000003
  1
長型孔
  7
CHINESET
 11
357.98140061186263
 21
386.7946617217051
 31
0.0
 73
     2
  0
DIMENSION
  5
675
  8
DIM
  2
*D21
 10
466.8850982708243
 20
140.5705958318039
 30
0.0
 11
416.13509927059931
 21
145.57059583180379
 31
0.0
 70
     0
  1
101.5
 13
365.38510027037432
 23
163.27816030087399
 33
0.0
 14
466.8850982708243
 24
163.2166143818701
 34
0.0
  0
DIMENSION
  5
676
  8
DIM
  2
*D22
 10
483.13509795069922
 20
127.6757491337172
 30
0.0
 11
416.13509927059931
 21
132.6757491337172
 31
0.0
 70
     0
  1
134
 13
349.13510059049941
 23
165.3491329838848
 33
0.0
 14
483.13509795069922
 24
165.3491329838848
 34
0.0
  0
DIMENSION
  5
677
  8
DIM
  2
*D23
 10
289.65896947836671
 20
125.9730622724373
 30
0.0
 11
171.15897181281659
 21
130.97306227243729
 31
0.0
 70
     0
  1
237
 13
52.65897414726669
 23
165.3491329838848
 33
0.0
 14
289.65896947836671
 24
165.3491329838848
 34
0.0
  0
DIMENSION
  5
678
  8
DIM
  2
*D18
 10
320.90247962625762
 20
564.18002195611621
 30
0.0
 11
315.9024796262575
 21
497.18002327601641
 31
0.0
 70
     0
  1
134
 13
284.65896957836668
 23
430.18002459591628
 33
0.0
 14
284.65896957836668
 24
564.18002195611621
 34
0.0
 50
90.0
  0
LINE
  5
679
  8
CENTER
  6
CENTER
 10
243.40897038949149
 20
558.41393892975714
 30
0.0
 11
243.40897038949149
 21
537.64474496763899
 31
0.0
  0
LINE
  5
67A
  8
CENTER
  6
CENTER
 10
223.13757750870849
 20
547.9300222762414
 30
0.0
 11
262.89661788900219
 21
547.9300222762414
 31
0.0
  0
LINE
  5
67B
  8
CENTER
  6
CENTER
 10
223.13757750870849
 20
446.43002427579131
 30
0.0
 11
262.89661788900219
 21
446.43002427579131
 31
0.0
  0
LINE
  5
67C
  8
CENTER
  6
CENTER
 10
243.40897038949149
 20
435.94610762227558
 30
0.0
 11
243.40897038949149
 21
456.71530158439373
 31
0.0
  0
LINE
  5
67D
  8
CENTER
  6
CENTER
 10
100.6375799219586
 20
547.9300222762414
 30
0.0
 11
140.39662030225219
 21
547.9300222762414
 31
0.0
  0
LINE
  5
67E
  8
CENTER
  6
CENTER
 10
120.9089728027416
 20
558.41393892975714
 30
0.0
 11
120.9089728027416
 21
537.64474496763899
 31
0.0
  0
LINE
  5
67F
  8
CENTER
  6
CENTER
 10
100.6375799219586
 20
446.43002427579142
 30
0.0
 11
140.39662030225219
 21
446.43002427579142
 31
0.0
  0
LINE
  5
680
  8
CENTER
  6
CENTER
 10
120.9089728027416
 20
435.94610762227569
 30
0.0
 11
120.9089728027416
 21
456.71530158439373
 31
0.0
  0
LINE
  5
681
  8
DIM
 10
309.7924809543855
 20
379.70417336738871
 30
0.0
 11
318.3639093543855
 21
379.70417336738871
 31
0.0
  0
SOLID
  5
682
  8
DIM
 10
258.1753773666623
 20
432.93805531213422
 30
0.0
 11
260.26452906081931
 21
434.88708332075601
 31
0.0
 12
253.37286918787521
 22
440.18002439891632
 32
0.0
 13
253.37286918787521
 23
440.18002439891632
 33
0.0
  0
LINE
  5
683
  8
DIM
 10
259.21995321374078
 20
433.91256931644511
 30
0.0
 11
309.79248095438538
 21
379.70417336738871
 31
0.0
  0
LINE
  5
684
  8
DIM
 10
309.79248095438538
 20
379.70417336738871
 30
0.0
 11
318.3639093543855
 21
379.70417336738871
 31
0.0
  0
LINE
  5
685
  8
0
 10
410.13509938879929
 20
323.07608541666292
 30
0.0
 11
422.13509915239939
 21
323.07608541666292
 31
0.0
  0
LINE
  5
686
  8
0
 10
424.13509911299951
 20
325.07608537726281
 30
0.0
 11
424.13509911299951
 21
295.07608596826287
 31
0.0
  0
LINE
  5
687
  8
0
 10
422.13509915239939
 20
323.07608541666292
 30
0.0
 11
422.13509915239939
 21
297.07608592886288
 31
0.0
  0
LINE
  5
688
  8
0
 10
424.13509911299951
 20
295.07608596826287
 30
0.0
 11
422.13509915239939
 21
297.07608592886288
 31
0.0
  0
LINE
  5
689
  8
0
 10
422.13509915239939
 20
323.07608541666292
 30
0.0
 11
424.13509911299951
 21
325.07608537726281
 31
0.0
  0
LINE
  5
68A
  8
0
 10
410.13509938879929
 20
323.07608541666292
 30
0.0
 11
410.13509938879929
 21
297.07608592886288
 31
0.0
  0
LINE
  5
68B
  8
0
 10
408.13509942819923
 20
295.07608596826287
 30
0.0
 11
408.13509942819923
 21
325.07608537726281
 31
0.0
  0
LINE
  5
68C
  8
0
 10
410.13509938879929
 20
297.07608592886288
 30
0.0
 11
408.13509942819923
 21
295.07608596826287
 31
0.0
  0
LINE
  5
68D
  8
0
 10
408.13509942819923
 20
325.07608537726281
 30
0.0
 11
410.13509938879929
 21
323.07608541666292
 31
0.0
  0
LINE
  5
68E
  8
0
 10
410.13509938879929
 20
297.07608592886288
 30
0.0
 11
422.13509915239939
 21
297.07608592886288
 31
0.0
  0
LINE
  5
68F
  8
0
 10
424.13509911299928
 20
325.07608537726281
 30
0.0
 11
432.13509895539943
 21
325.07608537726281
 31
0.0
  0
LINE
  5
690
  8
0
 10
424.13509911299928
 20
295.07608596826287
 30
0.0
 11
432.13509895539943
 21
295.07608596826287
 31
0.0
  0
LINE
  5
691
  8
0
 10
280.26434319646341
 20
501.18002319721609
 30
0.0
 11
280.26434319646353
 21
493.18002335481623
 31
0.0
  0
LINE
  5
692
  8
0
 10
252.26434374806351
 20
491.18002339421622
 30
0.0
 11
254.2643437086634
 21
493.18002335481629
 31
0.0
  0
LINE
  5
693
  8
0
 10
254.2643437086634
 20
493.18002335481629
 30
0.0
 11
280.26434319646341
 21
493.18002335481629
 31
0.0
  0
LINE
  5
694
  8
0
 10
282.26434315706348
 20
491.18002339421622
 30
0.0
 11
252.26434374806351
 21
491.18002339421622
 31
0.0
  0
LINE
  5
695
  8
0
 10
280.26434319646341
 20
493.18002335481629
 30
0.0
 11
282.26434315706348
 21
491.18002339421622
 31
0.0
  0
LINE
  5
696
  8
0
 10
254.2643437086634
 20
501.18002319721649
 30
0.0
 11
252.26434374806351
 21
503.18002315781638
 31
0.0
  0
LINE
  5
697
  8
0
 10
254.2643437086634
 20
501.18002319721649
 30
0.0
 11
280.26434319646353
 21
501.18002319721631
 31
0.0
  0
LINE
  5
698
  8
0
 10
252.26434374806351
 20
503.18002315781638
 30
0.0
 11
282.26434315706348
 21
503.18002315781638
 31
0.0
  0
LINE
  5
699
  8
0
 10
282.26434315706348
 20
503.18002315781638
 30
0.0
 11
280.26434319646353
 21
501.18002319721631
 31
0.0
  0
LINE
  5
69A
  8
0
 10
254.2643437086634
 20
501.18002319721649
 30
0.0
 11
254.2643437086634
 21
493.18002335481629
 31
0.0
  0
LINE
  5
69B
  8
0
 10
282.26434315706348
 20
503.18002315781638
 30
0.0
 11
282.26434315706348
 21
513.18002296081625
 31
0.0
  0
LINE
  5
69C
  8
0
 10
252.26434374806351
 20
503.18002315781638
 30
0.0
 11
252.26434374806351
 21
513.18002296081625
 31
0.0
  0
DIMENSION
  5
69E
  8
DIM
  2
*D24
 10
109.6589730243667
 20
140.12039782470811
 30
0.0
 11
81.158973585816739
 21
145.12039782470811
 31
0.0
 70
     0
 13
52.65897414726669
 23
165.3491329838848
 33
0.0
 14
109.6589730243667
 24
162.2490370600714
 34
0.0
  0
DIMENSION
  5
69F
  8
DIM
  2
*D25
 10
132.15897258111659
 20
140.200093061594
 30
0.0
 11
147.30182972397381
 21
140.200093061594
 31
0.0
 70
   128
 13
109.6589730243667
 23
162.2490370600714
 33
0.0
 14
132.15897258111659
 24
162.2490370600714
 34
0.0
  0
DIMENSION
  5
6A1
  8
DIM
  2
*D26
 10
254.6589701678665
 20
140.12039782470811
 30
0.0
 11
217.01611346825931
 21
140.12039782470811
 31
0.0
 70
   128
  1
22.5
 13
232.1589706111165
 23
162.2490370600714
 33
0.0
 14
254.6589701678665
 24
162.2490370600714
 34
0.0
  0
DIMENSION
  5
6A2
  8
DIM
  2
*D27
 10
289.65896947836671
 20
140.12039782470811
 30
0.0
 11
272.15896982311659
 21
145.12039782470811
 31
0.0
 70
     0
  1
35
 13
254.6589701678665
 23
162.2490370600714
 33
0.0
 14
289.65896947836671
 24
165.3491329838848
 34
0.0
  0
DIMENSION
  5
6A3
  8
DIM
  2
*D28
 10
329.08707635459717
 20
325.05862334936211
 30
0.0
 11
322.51564778316862
 21
245.2038781666235
 31
0.0
 70
     0
  1
(159.7)
 13
289.65896947836671
 23
165.3491329838848
 33
0.0
 14
267.26434345256342
 24
325.05862334936211
 34
0.0
 50
90.0
  0
DIMENSION
  5
6A4
  8
DIM
  2
*D29
 10
498.08074425532237
 20
170.3491328853849
 30
0.0
 11
514.08074425532232
 21
167.84913293463489
 31
0.0
 70
     0
  1
5
 13
483.13509795069922
 23
165.3491329838848
 33
0.0
 14
483.13509795069922
 24
170.3491328853849
 34
0.0
 50
90.0
  0
LINE
  5
AE5
  8
0
 62
     4
 10
7.1366410488254761
 20
592.41293577222416
 30
0.0
 11
522.33112502407039
 21
592.41293577222416
 31
0.0
  0
TEXT
  5
AE8
  8
LOGO
 62
     6
 10
477.99032452467708
 20
37.139535657049528
 30
0.0
 40
11.322216119539471
  1
行程
 41
0.9
  7
CHINESET
 72
     4
 11
488.18031903226262
 21
42.800643716819259
 31
0.0
  0
LINE
  5
AE9
  8
LOGO
 62
     6
 10
517.41770341876838
 20
21.571488492682828
 30
0.0
 11
458.94293464575679
 21
21.571488492682739
 31
0.0
  0
LINE
  5
AEA
  8
LOGO
 62
     6
 10
517.41770341876838
 20
52.707582821416402
 30
0.0
 11
458.94293464575679
 21
52.707582821416402
 31
0.0
  0
TEXT
  5
AEB
  8
LOGO
  6
CONTINUOUS
 62
     6
 10
475.375431754212
 20
25.109681030038828
 30
0.0
 40
7.0763850747121726
  1
Stroke
 41
0.8
  7
CHINESET
 72
     4
 11
488.18031903226262
 21
28.647873567394921
 31
0.0
  0
TEXT
  5
AEC
  8
LOGO
  6
CONTINUOUS
 62
     7
 10
478.04424020408118
 20
70.945690710368183
 30
0.0
 40
14.15277014942434
  1
30
  7
CHINESET
 72
     1
 11
489.50124461075802
 21
78.022075785080361
 31
0.0
 73
     2
  0
LINE
  5
AED
  8
LOGO
 62
     6
 10
511.75659535899882
 20
90.920062224862136
 30
0.0
 11
464.60404270552652
 21
90.920062224862136
 31
0.0
  0
LINE
  5
AEE
  8
LOGO
 62
     6
 10
511.75659535899871
 20
65.44507595589829
 30
0.0
 11
464.60404270552652
 21
65.445075955898304
 31
0.0
  0
LINE
  5
AEF
  8
LOGO
 62
     1
 10
522.33112502407039
 20
99.411724314516746
 30
0.0
 11
7.1366410488254761
 21
99.411724314516746
 31
0.0
  0
LINE
  5
AF0
  8
LOGO
 62
     1
 10
522.33112502407039
 20
14.49510341797065
 30
0.0
 11
7.1366410488254761
 21
14.49510341797065
 31
0.0
  0
LINE
  5
AF1
  8
LOGO
  6
CONTINUOUS
 62
     6
 10
168.5923710454606
 20
76.843714208015911
 30
0.0
 11
184.04907661382231
 21
78.88536065335137
 31
0.0
  0
LINE
  5
AF2
  8
LOGO
  6
CONTINUOUS
 62
     6
 10
168.5923710454606
 20
71.06608933779026
 30
0.0
 11
184.04907661382231
 21
69.0244428924548
 31
0.0
  0
LINE
  5
AF3
  8
LOGO
 62
     1
 10
193.95320702122669
 20
82.428400135207525
 30
0.0
 11
69.408829706292593
 21
82.428400135207525
 31
0.0
  0
LINE
  5
AF4
  8
LOGO
 62
     1
 10
193.95320702122669
 20
65.445075955898304
 30
0.0
 11
69.408829706292593
 21
65.445075955898304
 31
0.0
  0
TEXT
  5
AF5
  8
LOGO
 62
     6
 10
150.0810197204498
 20
86.674231180034823
 30
0.0
 40
8.4916620896546071
  1
1 : 1
  7
CHINESET
 72
     1
 11
165.0425195926984
 21
90.920062224862136
 31
0.0
 73
     2
  0
TEXT
  5
AF6
  8
LOGO
 62
     6
 10
150.0810197204498
 20
52.707582821416388
 30
0.0
 40
8.4916620896546071
  1
m/m
  7
CHINESET
 72
     1
 11
165.0425195926984
 21
56.9534138662437
 31
0.0
 73
     2
  0
LINE
  5
AF7
  8
LOGO
 62
     1
 10
193.95320702122669
 20
48.461751776589168
 30
0.0
 11
7.1366410488253953
 21
48.461751776589168
 31
0.0
  0
TEXT
  5
AF8
  8
LOGO
  6
CONTINUOUS
 62
     5
 10
9.9161054248938107
 20
31.176845442742529
 30
0.0
 40
12.737493134481911
  1
金器工業股份有限公司
 41
0.8
  7
LOGO
  0
TEXT
  5
AF9
  8
LOGO
  6
CONTINUOUS
 62
     5
 10
13.563355206274229
 20
18.436856758264291
 30
0.0
 40
8.4916620896546071
  1
MINDMAN INDUSTRIAL CO.,LTD
 41
0.85
  7
CHINESET
  0
SOLID
  5
AFA
  8
LOGO
 62
     5
 10
15.94687674765378
 20
62.577931307720682
 30
0.0
 11
19.61844861400704
 21
62.57793130771946
 31
0.0
 12
34.937765711551748
 22
97.394561074865891
 32
0.0
 13
38.609337577904689
 23
97.394561074863475
 33
0.0
  0
SOLID
  5
AFB
  8
LOGO
 62
     5
 10
21.137719731121042
 20
62.577931307720682
 30
0.0
 11
24.80929159747398
 21
62.577931307720682
 31
0.0
 12
38.609337577904689
 22
94.609230693493004
 32
0.0
 13
34.937765711551748
 23
81.146800516863095
 33
0.0
  0
SOLID
  5
AFC
  8
LOGO
 62
     2
 10
19.61844861400704
 20
62.57793130771946
 30
0.0
 11
21.137719731121042
 21
62.577931307720682
 31
0.0
 12
38.609337577904689
 22
97.394561074863475
 32
0.0
 13
40.128608695017562
 23
97.394561074863475
 33
0.0
  0
SOLID
  5
AFD
  8
LOGO
 62
     5
 10
19.723208055366879
 20
56.247634986421453
 30
0.0
 11
20.989267319625441
 21
56.247634986421453
 31
0.0
 12
19.723208055366879
 22
49.917338665123403
 32
0.0
 13
20.989267319625441
 23
49.917338665123403
 33
0.0
  0
SOLID
  5
AFE
  8
LOGO
 62
     5
 10
10.060446666177709
 20
49.917338665123403
 30
0.0
 11
11.32650593043884
 21
49.917338665123403
 31
0.0
 12
14.89182736077149
 22
56.247634986421453
 32
0.0
 13
16.157886625030368
 23
56.247634986421453
 33
0.0
  0
SOLID
  5
AFF
  8
LOGO
 62
     5
 10
14.89182736077149
 20
56.247634986421453
 30
0.0
 11
16.157886625030368
 21
56.247634986421453
 31
0.0
 12
14.89182736077149
 22
49.917338665123403
 32
0.0
 13
16.157886625030368
 23
49.917338665123403
 33
0.0
  0
SOLID
  5
B00
  8
LOGO
 62
     5
 10
14.89182736077149
 20
49.917338665123403
 30
0.0
 11
16.157886625030368
 21
49.917338665123403
 31
0.0
 12
19.723208055366879
 22
56.247634986421453
 32
0.0
 13
20.989267319625441
 23
56.247634986421453
 33
0.0
  0
LINE
  5
B01
  8
LOGO
 62
     1
 10
7.1366410488254761
 20
14.49510341797065
 30
0.0
 11
7.1366410488254761
 21
99.411724314516746
 31
0.0
  0
TEXT
  5
B02
  8
LOGO
 62
     6
 10
76.410660009681919
 20
86.678410147598626
 30
0.0
 40
8.4916620896546071
  1
比例 Scale:
 41
0.9
  7
CHINESET
 72
     4
 11
103.37547806491099
 21
90.920062224862136
 31
0.0
  0
TEXT
  5
B03
  8
LOGO
 62
     6
 10
79.378950820485301
 20
69.810355823591067
 30
0.0
 40
8.4916620896546071
  1
投影 View:
 41
0.9
  7
CHINESET
 72
     4
 11
103.37547806491099
 21
73.9367380455529
 31
0.0
  0
TEXT
  5
B04
  8
LOGO
 62
     6
 10
80.209162426572064
 20
52.707582821416388
 30
0.0
 40
8.4916620896546071
  1
單位 Unit:
 41
0.9
  7
CHINESET
 72
     4
 11
103.37547806491099
 21
56.9534138662437
 31
0.0
  0
POLYLINE
  5
B05
  8
LOGO
 62
     5
 66
     1
 10
0.0
 20
0.0
 30
0.0
 70
     1
 40
1.268088205388421
 41
1.268088205388421
  0
VERTEX
  5
D20
  8
LOGO
 62
     5
 10
50.548523159115561
 20
53.082486825771809
 30
0.0
 42
1.0
  0
VERTEX
  5
D21
  8
LOGO
 62
     5
 10
55.620875980669169
 20
53.082486825771809
 30
0.0
 42
1.0
  0
SEQEND
  5
D22
  8
LOGO
 62
     5
  0
LINE
  5
B06
  8
LOGO
 62
     5
 10
62.791069525267019
 20
49.917338665123403
 30
0.0
 11
62.791069525267019
 21
53.715516457901721
 31
0.0
  0
SOLID
  5
B07
  8
LOGO
 62
     5
 10
54.983661860358517
 20
56.247634986421453
 30
0.0
 11
56.249721124617238
 21
56.247634986421453
 31
0.0
 12
54.983661860358517
 22
49.917338665123403
 32
0.0
 13
56.249721124617238
 23
49.917338665123403
 33
0.0
  0
SOLID
  5
B08
  8
LOGO
 62
     5
 10
57.726832468227649
 20
49.917338665123403
 30
0.0
 11
58.992891732488609
 21
49.917338665123403
 31
0.0
 12
57.726832468227649
 22
56.247634986421453
 32
0.0
 13
58.992891732488609
 23
56.247634986421453
 33
0.0
  0
SOLID
  5
B09
  8
LOGO
 62
     5
 10
61.525010261008461
 20
53.715516457901721
 30
0.0
 11
62.791069525267019
 21
53.71551645790155
 31
0.0
 12
61.525010261008461
 22
49.917338665123403
 32
0.0
 13
62.791069525267019
 23
49.917338665123403
 33
0.0
  0
SOLID
  5
B0A
  8
LOGO
 62
     5
 10
36.836728002015882
 20
58.146723882811813
 30
0.0
 11
38.10278726627444
 21
58.146723882811813
 31
0.0
 12
36.836728002015882
 22
49.917338665123403
 32
0.0
 13
38.10278726627444
 23
49.917338665123403
 33
0.0
  0
SOLID
  5
B0B
  8
LOGO
 62
     5
 10
39.579898609888538
 20
56.247634986421453
 30
0.0
 11
40.845957874147267
 21
56.247634986421453
 31
0.0
 12
39.579898609888538
 22
49.917338665123403
 32
0.0
 13
40.845957874147267
 23
49.917338665123403
 33
0.0
  0
SOLID
  5
B0C
  8
LOGO
 62
     5
 10
43.378076402666949
 20
53.715516457901721
 30
0.0
 11
44.644135666925671
 21
53.715516457901721
 31
0.0
 12
43.378076402666949
 22
49.917338665123403
 32
0.0
 13
44.644135666925671
 23
49.917338665123403
 33
0.0
  0
SOLID
  5
B0D
  8
LOGO
 62
     5
 10
47.176254195445509
 20
53.715516457901721
 30
0.0
 11
48.44231345970406
 21
53.715516457901721
 31
0.0
 12
47.176254195445509
 22
49.917338665121001
 32
0.0
 13
48.44231345970406
 23
49.917338665121001
 33
0.0
  0
LINE
  5
B0E
  8
LOGO
 62
     1
 10
69.408829706292593
 20
48.461751776589068
 30
0.0
 11
69.408829706292593
 21
99.411724314516746
 31
0.0
  0
SOLID
  5
B0F
  8
LOGO
 62
     5
 10
25.2311425443256
 20
56.247634986421453
 30
0.0
 11
26.497201808584151
 21
56.247634986421453
 31
0.0
 12
25.2311425443256
 22
49.917338665123403
 32
0.0
 13
26.497201808584151
 23
49.917338665123403
 33
0.0
  0
SOLID
  5
B10
  8
LOGO
 62
     5
 10
29.02932033710367
 20
53.715516457901721
 30
0.0
 11
30.295379601364651
 21
53.715516457901721
 31
0.0
 12
29.02932033710367
 22
49.917338665123403
 32
0.0
 13
30.295379601364651
 23
49.917338665123403
 33
0.0
  0
SOLID
  5
B11
  8
LOGO
 62
     5
 10
22.487971936452599
 20
56.247634986421453
 30
0.0
 11
23.754031200714859
 21
56.247634986421453
 31
0.0
 12
22.487971936452599
 22
49.917338665121001
 32
0.0
 13
23.754031200714859
 23
49.917338665123403
 33
0.0
  0
POLYLINE
  5
B12
  8
LOGO
 62
     5
 66
     1
 10
0.0
 20
0.0
 30
0.0
 70
     1
 40
1.268088205388421
 41
1.268088205388421
  0
VERTEX
  5
D23
  8
LOGO
 62
     5
 10
32.40158930077407
 20
53.082486825771809
 30
0.0
 42
1.0
  0
VERTEX
  5
D24
  8
LOGO
 62
     5
 10
37.473942122327841
 20
53.082486825771809
 30
0.0
 42
1.0
  0
SEQEND
  5
D25
  8
LOGO
 62
     5
  0
POLYLINE
  5
B13
  8
LOGO
 62
     5
 66
     1
 10
0.0
 20
0.0
 30
0.0
 40
1.268088205388421
 41
1.268088205388421
  0
VERTEX
  5
D26
  8
LOGO
 62
     5
 10
62.161083304831322
 20
53.715516457901742
 30
0.0
 42
1.0
  0
VERTEX
  5
D27
  8
LOGO
 62
     5
 10
58.356818688665911
 20
53.715516457901742
 30
0.0
 42
1.0
  0
SEQEND
  5
D28
  8
LOGO
 62
     5
  0
SOLID
  5
B14
  8
LOGO
 62
     5
 10
59.119497658914071
 20
62.57793130771946
 30
0.0
 11
62.791069525267019
 21
62.57793130771946
 31
0.0
 12
59.119497658914071
 22
97.394561074863475
 32
0.0
 13
62.791069525267019
 23
97.394561074865891
 33
0.0
  0
SOLID
  5
B15
  8
LOGO
 62
     5
 10
40.128608695017562
 20
97.394561074863475
 30
0.0
 11
43.800180561370333
 21
97.394561074865891
 31
0.0
 12
40.128608695017562
 22
65.363261689091161
 32
0.0
 13
43.800180561370333
 23
78.825691865721055
 33
0.0
  0
SOLID
  5
B16
  8
LOGO
 62
     5
 10
40.128608695017562
 20
65.363261689091161
 30
0.0
 11
43.800180561370333
 21
78.825691865721055
 31
0.0
 12
57.600226541801213
 22
97.394561074865891
 32
0.0
 13
53.928654675447959
 23
97.394561074865891
 33
0.0
  0
SOLID
  5
B17
  8
LOGO
 62
     5
 10
57.600226541801213
 20
94.609230693493004
 30
0.0
 11
53.928654675447959
 21
81.146800516863095
 31
0.0
 12
57.600226541801213
 22
62.57793130771946
 32
0.0
 13
53.928654675447959
 23
62.57793130771946
 33
0.0
  0
SOLID
  5
B18
  8
LOGO
 62
     2
 10
57.600226541801213
 20
97.394561074865891
 30
0.0
 11
59.119497658914071
 21
97.394561074863475
 31
0.0
 12
57.600226541801213
 22
62.57793130771946
 32
0.0
 13
59.119497658914071
 23
62.57793130771946
 33
0.0
  0
SOLID
  5
B19
  8
LOGO
 62
     5
 10
34.937765711551748
 20
62.577931307720682
 30
0.0
 11
38.609337577904689
 21
62.577931307720682
 31
0.0
 12
34.937765711551748
 22
81.146800516863095
 32
0.0
 13
38.609337577904689
 23
94.609230693493004
 33
0.0
  0
SOLID
  5
B1A
  8
LOGO
 62
     2
 10
38.609337577904689
 20
97.394561074863475
 30
0.0
 11
40.128608695017562
 21
97.394561074863475
 31
0.0
 12
38.609337577904689
 22
62.577931307720682
 32
0.0
 13
40.128608695017562
 23
62.577931307720682
 33
0.0
  0
SOLID
  5
B1B
  8
LOGO
 62
     5
 10
40.128608695017562
 20
62.577931307720682
 30
0.0
 11
43.800180561370333
 21
62.577931307720682
 31
0.0
 12
57.600226541801213
 22
94.609230693493004
 32
0.0
 13
53.928654675447959
 23
81.146800516863095
 33
0.0
  0
SOLID
  5
B1C
  8
LOGO
 62
     2
 10
38.609337577904689
 20
62.577931307720682
 30
0.0
 11
40.128608695017562
 21
62.577931307720682
 31
0.0
 12
57.600226541801213
 22
97.394561074865891
 32
0.0
 13
59.119497658914071
 23
97.394561074863475
 33
0.0
  0
POLYLINE
  5
B1D
  8
LOGO
 62
     5
 66
     1
 10
0.0
 20
0.0
 30
0.0
 40
1.268088205388421
 41
1.268088205388421
  0
VERTEX
  5
D29
  8
LOGO
 62
     5
 10
44.014149446489817
 20
53.715516457901742
 30
0.0
 42
1.0
  0
VERTEX
  5
D2A
  8
LOGO
 62
     5
 10
40.209884830324398
 20
53.715516457901742
 30
0.0
 42
1.0
  0
SEQEND
  5
D2B
  8
LOGO
 62
     5
  0
POLYLINE
  5
B1E
  8
LOGO
 62
     5
 66
     1
 10
0.0
 20
0.0
 30
0.0
 40
1.268088205388421
 41
1.268088205388421
  0
VERTEX
  5
D2C
  8
LOGO
 62
     5
 10
29.665393380926869
 20
53.715516457901742
 30
0.0
 42
1.0
  0
VERTEX
  5
D2D
  8
LOGO
 62
     5
 10
25.86112876476145
 20
53.715516457901742
 30
0.0
 42
1.0
  0
SEQEND
  5
D2E
  8
LOGO
 62
     5
  0
SOLID
  5
B1F
  8
LOGO
 62
     5
 10
22.487971936452599
 20
57.133876471402722
 30
0.0
 11
23.754031200714859
 21
57.133876471402722
 31
0.0
 12
22.487971936452599
 22
58.146723882811813
 32
0.0
 13
23.754031200714859
 23
58.146723882811813
 33
0.0
  0
POLYLINE
  5
B20
  8
LOGO
 62
     5
 66
     1
 10
0.0
 20
0.0
 30
0.0
 70
     1
  0
VERTEX
  5
D2F
  8
LOGO
 62
     5
 10
51.18561067350317
 20
53.082486825772421
 30
0.0
 42
1.0000000573306349
  0
VERTEX
  5
D30
  8
LOGO
 62
     5
 10
54.983788466283187
 20
53.082486825772421
 30
0.0
 42
1.0000000573306349
  0
SEQEND
  5
D31
  8
LOGO
 62
     5
  0
CIRCLE
  5
B21
  8
LOGO
 62
     5
 10
53.084699569893111
 20
53.082486825772428
 30
0.0
 40
1.8990888963896999
  0
POLYLINE
  5
B22
  8
LOGO
 62
     5
 66
     1
 10
0.0
 20
0.0
 30
0.0
 40
1.268088205388421
 41
1.268088205388421
  0
VERTEX
  5
D32
  8
LOGO
 62
     5
 10
47.812327239268193
 20
53.715516457901742
 30
0.0
 42
1.0
  0
VERTEX
  5
D33
  8
LOGO
 62
     5
 10
44.008062623102823
 20
53.715516457901742
 30
0.0
 42
1.0
  0
SEQEND
  5
D34
  8
LOGO
 62
     5
  0
LINE
  5
B23
  8
LOGO
 62
     1
 10
137.34212642352941
 20
48.461751776589068
 30
0.0
 11
137.34212642352941
 21
99.411724314516746
 31
0.0
  0
CIRCLE
  5
B24
  8
LOGO
  6
CONTINUOUS
 62
     6
 10
153.06550090282951
 20
73.954901772903085
 30
0.0
 40
4.9304588804482901
  0
CIRCLE
  5
B25
  8
LOGO
  6
CONTINUOUS
 62
     6
 10
153.06550090282951
 20
73.954901772903085
 30
0.0
 40
2.8888124351128281
  0
LINE
  5
B26
  8
LOGO
 62
     6
 10
168.59237104546071
 20
71.06608933779026
 30
0.0
 11
168.5923710454606
 21
76.843714208015939
 31
0.0
  0
TEXT
  5
B27
  8
LOGO
  6
CONTINUOUS
 62
     6
 10
331.24006991834898
 20
25.10968103003891
 30
0.0
 40
7.0763850747121726
  1
Model
  7
CHINESET
 72
     4
 11
344.71889863208651
 21
28.647873567394988
 31
0.0
  0
TEXT
  5
B28
  8
LOGO
  6
CONTINUOUS
 62
     7
 10
320.12003622951562
 20
71.106184015668035
 30
0.0
 40
14.15277014942434
  1
MSLL
  7
CHINESET
 72
     1
 11
344.71889863208651
 21
78.182569090380213
 31
0.0
 73
     2
  0
LINE
  5
B29
  8
LOGO
 62
     6
 10
378.68554699070489
 20
90.920062224862136
 30
0.0
 11
310.75225027346812
 21
90.920062224862136
 31
0.0
  0
LINE
  5
B2A
  8
LOGO
 62
     6
 10
378.68554699070489
 20
65.445075955898304
 30
0.0
 11
310.75225027346812
 21
65.445075955898304
 31
0.0
  0
LINE
  5
B2B
  8
LOGO
 62
     6
 10
373.02443893093522
 20
52.707582821416402
 30
0.0
 11
316.41335833323791
 21
52.707582821416402
 31
0.0
  0
LINE
  5
B2C
  8
LOGO
 62
     6
 10
373.02443893093522
 20
21.5714884926828
 30
0.0
 11
316.41335833323791
 21
21.571488492682739
 31
0.0
  0
TEXT
  5
B2D
  8
LOGO
 62
     7
 10
200.90404753067949
 20
78.150533681068978
 30
0.0
 40
16.983324179309211
  1
訂購代號:
  7
CHINESET
  0
TEXT
  5
B2E
  8
LOGO
 62
     7
 10
198.8727483279163
 20
62.21119767951803
 30
0.0
 40
11.322216119539471
  1
Order example:
 41
0.8
  7
CHINESET
  0
LINE
  5
B2F
  8
LOGO
 62
     1
 10
193.95320702122669
 20
14.49510341797065
 30
0.0
 11
193.95320702122669
 21
99.411724314516746
 31
0.0
  0
LINE
  5
B30
  8
LOGO
 62
     6
 10
184.04907661382231
 20
69.0244428924548
 30
0.0
 11
184.04907661382231
 21
78.88536065335137
 31
0.0
  0
LINE
  5
B31
  8
LOGO
 62
     6
 10
316.41335833323791
 20
52.707582821416402
 30
0.0
 11
316.41335833323791
 21
21.571488492682739
 31
0.0
  0
LINE
  5
B32
  8
LOGO
 62
     6
 10
310.75225027346812
 20
90.920062224862136
 30
0.0
 11
310.75225027346812
 21
65.445075955898304
 31
0.0
  0
TEXT
  5
B33
  8
LOGO
  6
CONTINUOUS
 62
     7
 10
411.70183250030692
 20
70.945690710368353
 30
0.0
 40
14.15277014942434
  1
40
  7
CHINESET
 72
     1
 11
423.15883690698382
 21
78.022075785080531
 31
0.0
 73
     2
  0
LINE
  5
B34
  8
LOGO
 62
     6
 10
444.56075559954712
 20
21.571488492682992
 30
0.0
 11
399.1150670574296
 21
21.57148849268291
 31
0.0
  0
LINE
  5
B35
  8
LOGO
 62
     6
 10
444.56075559954712
 20
65.44507595589846
 30
0.0
 11
399.1150670574296
 21
65.44507595589846
 31
0.0
  0
LINE
  5
B36
  8
LOGO
 62
     6
 10
444.56075559954712
 20
52.707582821416537
 30
0.0
 11
399.1150670574296
 21
52.707582821416537
 31
0.0
  0
LINE
  5
B37
  8
LOGO
 62
     6
 10
444.56075559954712
 20
90.920062224862448
 30
0.0
 11
399.1150670574296
 21
90.920062224862278
 31
0.0
  0
LINE
  5
B38
  8
LOGO
 62
     6
 10
399.1150670574296
 20
52.707582821416537
 30
0.0
 11
399.1150670574296
 21
21.571488492682992
 31
0.0
  0
LINE
  5
B39
  8
LOGO
 62
     6
 10
373.02443893093522
 20
52.707582821416402
 30
0.0
 11
373.02443893093522
 21
21.571488492682828
 31
0.0
  0
TEXT
  5
B3A
  8
LOGO
 62
     6
 10
333.39668251254699
 20
37.429277408140202
 30
0.0
 40
11.322216119539471
  1
型式
  7
CHINESET
 72
     4
 11
344.71889863208651
 21
42.800643716819359
 31
0.0
  0
LINE
  5
B3B
  8
LOGO
 62
     6
 10
344.71889863208651
 20
65.445075955898304
 30
0.0
 11
344.71889863208651
 21
52.707582821416402
 31
0.0
  0
LINE
  5
B3C
  8
LOGO
 62
     6
 10
399.1150670574296
 20
90.920062224862278
 30
0.0
 11
399.1150670574296
 21
65.44507595589846
 31
0.0
  0
LINE
  5
B3D
  8
LOGO
 62
     6
 10
378.68554699070501
 20
90.920062224862136
 30
0.0
 11
378.68554699070501
 21
65.445075955898304
 31
0.0
  0
LINE
  5
B3E
  8
LOGO
  6
CONTINUOUS
 62
     7
 10
383.46073723490531
 20
78.092332663016236
 30
0.0
 11
394.70956163033492
 21
78.092332663016236
 31
0.0
  0
LINE
  5
B3F
  8
LOGO
 62
     6
 10
458.94293464575679
 20
52.707582821416402
 30
0.0
 11
458.94293464575679
 21
21.571488492682739
 31
0.0
  0
LINE
  5
B40
  8
LOGO
 62
     6
 10
444.56075559954712
 20
52.707582821416537
 30
0.0
 11
444.56075559954712
 21
21.57148849268307
 31
0.0
  0
TEXT
  5
B41
  8
LOGO
  6
CONTINUOUS
 62
     6
 10
413.076672664559
 20
25.109681030038988
 30
0.0
 40
7.0763850747121726
  1
Bore
 41
0.8
  7
CHINESET
 72
     4
 11
421.83791132848842
 21
28.647873567395081
 31
0.0
  0
TEXT
  5
B42
  8
LOGO
 62
     6
 10
411.01104216417872
 20
37.139535657049692
 30
0.0
 40
11.322216119539471
  1
內徑
 41
0.9
  7
CHINESET
 72
     4
 11
421.83791132848842
 21
42.80064371681943
 31
0.0
  0
LINE
  5
B43
  8
LOGO
  6
CONTINUOUS
 62
     7
 10
448.94971288300241
 20
78.092332663016379
 30
0.0
 11
460.19853727843213
 21
78.092332663016379
 31
0.0
  0
LINE
  5
B44
  8
LOGO
 62
     6
 10
444.56075559954712
 20
90.920062224862448
 30
0.0
 11
444.56075559954712
 21
65.44507595589846
 31
0.0
  0
LINE
  5
B45
  8
LOGO
 62
     6
 10
421.83791067580648
 20
65.44507595589846
 30
0.0
 11
421.83791067580648
 21
52.707582821416537
 31
0.0
  0
LINE
  5
B46
  8
LOGO
 62
     6
 10
464.60404270552658
 20
90.920062224862136
 30
0.0
 11
464.60404270552652
 21
65.445075955898304
 31
0.0
  0
LINE
  5
B47
  8
LOGO
 62
     6
 10
488.77980467477312
 20
65.445075955898304
 30
0.0
 11
488.77980467477312
 21
52.707582821416402
 31
0.0
  0
LINE
  5
B48
  8
LOGO
 62
     6
 10
517.41770341876838
 20
52.707582821416402
 30
0.0
 11
517.41770341876838
 21
21.45408477140327
 31
0.0
  0
LINE
  5
B49
  8
LOGO
 62
     6
 10
511.75659535899882
 20
90.920062224862136
 30
0.0
 11
511.75659535899871
 21
65.44507595589829
 31
0.0
  0
LINE
  5
B4A
  8
LOGO
 62
     1
 10
522.33112502407039
 20
14.49510341797065
 30
0.0
 11
522.33112502407039
 21
99.411724314516746
 31
0.0
  0
LINE
  5
C85
  8
0
 10
217.6350740195366
 20
291.3491305016849
 30
0.0
 11
251.03624251027759
 21
294.14797565501351
 31
0.0
  0
LINE
  5
C86
  8
0
 10
260.2974206790048
 20
264.8188757167955
 30
0.0
 11
263.50638366846601
 21
265.08777021708079
 31
0.0
  0
ENDSEC
  0
EOF
