  0
SECTION
  2
HEADER
  9
$ACADVER
  1
AC1015
  9
$ACADMAINTVER
 70
    20
  9
$DWGCODEPAGE
  3
ANSI_950
  9
$INSBASE
 10
0.0
 20
0.0
 30
0.0
  9
$EXTMIN
 10
1.000000000000000E+20
 20
1.000000000000000E+20
 30
1.000000000000000E+20
  9
$EXTMAX
 10
-1.000000000000000E+20
 20
-1.000000000000000E+20
 30
-1.000000000000000E+20
  9
$LIMMIN
 10
0.0
 20
0.0
  9
$LIMMAX
 10
420.0
 20
297.0
  9
$ORTHOMODE
 70
     1
  9
$REGENMODE
 70
     1
  9
$FILLMODE
 70
     1
  9
$QTEXTMODE
 70
     0
  9
$MIRRTEXT
 70
     1
  9
$LTSCALE
 40
1.0
  9
$ATTMODE
 70
     1
  9
$TEXTSIZE
 40
1.0
  9
$TRACEWID
 40
1.0
  9
$TEXTSTYLE
  7
STANDARD
  9
$CLAYER
  8
0
  9
$CELTYPE
  6
BYLAYER
  9
$CECOLOR
 62
   256
  9
$CELTSCALE
 40
1.0
  9
$DISPSILH
 70
     0
  9
$DIMSCALE
 40
1.0
  9
$DIMASZ
 40
2.5
  9
$DIMEXO
 40
1.0
  9
$DIMDLI
 40
7.5
  9
$DIMRND
 40
0.0
  9
$DIMDLE
 40
0.0
  9
$DIMEXE
 40
1.0
  9
$DIMTP
 40
0.0
  9
$DIMTM
 40
0.3
  9
$DIMTXT
 40
3.5
  9
$DIMCEN
 40
0.0
  9
$DIMTSZ
 40
0.0
  9
$DIMTOL
 70
     0
  9
$DIMLIM
 70
     0
  9
$DIMTIH
 70
     0
  9
$DIMTOH
 70
     0
  9
$DIMSE1
 70
     0
  9
$DIMSE2
 70
     0
  9
$DIMTAD
 70
     1
  9
$DIMZIN
 70
     8
  9
$DIMBLK
  1

  9
$DIMASO
 70
     1
  9
$DIMSHO
 70
     1
  9
$DIMPOST
  1

  9
$DIMAPOST
  1
"
  9
$DIMALT
 70
     0
  9
$DIMALTD
 70
     2
  9
$DIMALTF
 40
0.0393701
  9
$DIMLFAC
 40
1.0
  9
$DIMTOFL
 70
     1
  9
$DIMTVP
 40
0.0
  9
$DIMTIX
 70
     0
  9
$DIMSOXD
 70
     0
  9
$DIMSAH
 70
     0
  9
$DIMBLK1
  1

  9
$DIMBLK2
  1

  9
$DIMSTYLE
  2
AM_ISO
  9
$DIMCLRD
 70
   256
  9
$DIMCLRE
 70
   256
  9
$DIMCLRT
 70
   256
  9
$DIMTFAC
 40
0.71
  9
$DIMGAP
 40
1.0
  9
$DIMJUST
 70
     0
  9
$DIMSD1
 70
     0
  9
$DIMSD2
 70
     0
  9
$DIMTOLJ
 70
     0
  9
$DIMTZIN
 70
     8
  9
$DIMALTZ
 70
     8
  9
$DIMALTTZ
 70
     0
  9
$DIMUPT
 70
     0
  9
$DIMDEC
 70
     1
  9
$DIMTDEC
 70
     2
  9
$DIMALTU
 70
     2
  9
$DIMALTTD
 70
     2
  9
$DIMTXSTY
  7
STANDARD
  9
$DIMAUNIT
 70
     0
  9
$DIMADEC
 70
     0
  9
$DIMALTRND
 40
0.0
  9
$DIMAZIN
 70
     2
  9
$DIMDSEP
 70
    46
  9
$DIMATFIT
 70
     3
  9
$DIMFRAC
 70
     0
  9
$DIMLDRBLK
  1

  9
$DIMLUNIT
 70
     2
  9
$DIMLWD
 70
    -1
  9
$DIMLWE
 70
    -1
  9
$DIMTMOVE
 70
     0
  9
$LUNITS
 70
     2
  9
$LUPREC
 70
     2
  9
$SKETCHINC
 40
1.0
  9
$FILLETRAD
 40
2.5
  9
$AUNITS
 70
     0
  9
$AUPREC
 70
     0
  9
$MENU
  1
.
  9
$ELEVATION
 40
0.0
  9
$PELEVATION
 40
0.0
  9
$THICKNESS
 40
0.0
  9
$LIMCHECK
 70
     0
  9
$CHAMFERA
 40
1.0
  9
$CHAMFERB
 40
1.0
  9
$CHAMFERC
 40
20.0
  9
$CHAMFERD
 40
0.0
  9
$SKPOLY
 70
     0
  9
$TDCREATE
 40
2454630.395427998
  9
$TDUCREATE
 40
2454630.062094664
  9
$TDUPDATE
 40
2454690.579218762
  9
$TDUUPDATE
 40
2454690.245885428
  9
$TDINDWG
 40
0.3606720833
  9
$TDUSRTIMER
 40
0.3606715509
  9
$USRTIMER
 70
     1
  9
$ANGBASE
 50
0.0
  9
$ANGDIR
 70
     0
  9
$PDMODE
 70
     0
  9
$PDSIZE
 40
0.0
  9
$PLINEWID
 40
0.0
  9
$SPLFRAME
 70
     0
  9
$SPLINETYPE
 70
     6
  9
$SPLINESEGS
 70
     8
  9
$HANDSEED
  5
29F3
  9
$SURFTAB1
 70
     6
  9
$SURFTAB2
 70
     6
  9
$SURFTYPE
 70
     6
  9
$SURFU
 70
     6
  9
$SURFV
 70
     6
  9
$UCSBASE
  2

  9
$UCSNAME
  2

  9
$UCSORG
 10
0.0
 20
0.0
 30
0.0
  9
$UCSXDIR
 10
1.0
 20
0.0
 30
0.0
  9
$UCSYDIR
 10
0.0
 20
1.0
 30
0.0
  9
$UCSORTHOREF
  2

  9
$UCSORTHOVIEW
 70
     0
  9
$UCSORGTOP
 10
0.0
 20
0.0
 30
0.0
  9
$UCSORGBOTTOM
 10
0.0
 20
0.0
 30
0.0
  9
$UCSORGLEFT
 10
0.0
 20
0.0
 30
0.0
  9
$UCSORGRIGHT
 10
0.0
 20
0.0
 30
0.0
  9
$UCSORGFRONT
 10
0.0
 20
0.0
 30
0.0
  9
$UCSORGBACK
 10
0.0
 20
0.0
 30
0.0
  9
$PUCSBASE
  2

  9
$PUCSNAME
  2

  9
$PUCSORG
 10
0.0
 20
0.0
 30
0.0
  9
$PUCSXDIR
 10
1.0
 20
0.0
 30
0.0
  9
$PUCSYDIR
 10
0.0
 20
1.0
 30
0.0
  9
$PUCSORTHOREF
  2

  9
$PUCSORTHOVIEW
 70
     0
  9
$PUCSORGTOP
 10
0.0
 20
0.0
 30
0.0
  9
$PUCSORGBOTTOM
 10
0.0
 20
0.0
 30
0.0
  9
$PUCSORGLEFT
 10
0.0
 20
0.0
 30
0.0
  9
$PUCSORGRIGHT
 10
0.0
 20
0.0
 30
0.0
  9
$PUCSORGFRONT
 10
0.0
 20
0.0
 30
0.0
  9
$PUCSORGBACK
 10
0.0
 20
0.0
 30
0.0
  9
$USERI1
 70
     0
  9
$USERI2
 70
     0
  9
$USERI3
 70
     0
  9
$USERI4
 70
     0
  9
$USERI5
 70
     0
  9
$USERR1
 40
0.0
  9
$USERR2
 40
0.0
  9
$USERR3
 40
0.0
  9
$USERR4
 40
0.0
  9
$USERR5
 40
0.0
  9
$WORLDVIEW
 70
     1
  9
$SHADEDGE
 70
     3
  9
$SHADEDIF
 70
    70
  9
$TILEMODE
 70
     0
  9
$MAXACTVP
 70
    48
  9
$PINSBASE
 10
0.0
 20
0.0
 30
0.0
  9
$PLIMCHECK
 70
     0
  9
$PEXTMIN
 10
14.81621615704415
 20
8.085238002611275
 30
0.0
  9
$PEXTMAX
 10
405.5739607218687
 20
270.0852380026113
 30
0.0
  9
$PLIMMIN
 10
-5.027069091796875
 20
-6.805083274841308
  9
$PLIMMAX
 10
414.9195861816406
 20
290.1209115982056
  9
$UNITMODE
 70
     0
  9
$VISRETAIN
 70
     1
  9
$PLINEGEN
 70
     0
  9
$PSLTSCALE
 70
     1
  9
$TREEDEPTH
 70
  3020
  9
$CMLSTYLE
  2
STANDARD
  9
$CMLJUST
 70
     0
  9
$CMLSCALE
 40
1.0
  9
$PROXYGRAPHICS
 70
     1
  9
$MEASUREMENT
 70
     1
  9
$CELWEIGHT
370
    -1
  9
$ENDCAPS
280
     0
  9
$JOINSTYLE
280
     0
  9
$LWDISPLAY
290
     0
  9
$INSUNITS
 70
     4
  9
$HYPERLINKBASE
  1

  9
$STYLESHEET
  1

  9
$XEDIT
290
     1
  9
$CEPSNTYPE
380
     0
  9
$PSTYLEMODE
290
     1
  9
$FINGERPRINTGUID
  2
{DCD64CE1-F14A-4BF5-A4DE-B574CCB84AD9}
  9
$VERSIONGUID
  2
{3D026888-E70B-4879-9AB1-6DFA636568CA}
  9
$EXTNAMES
290
     1
  9
$PSVPSCALE
 40
0.0
  9
$OLESTARTUP
290
     0
  0
ENDSEC
  0
SECTION
  2
CLASSES
  0
CLASS
  1
DICTIONARYVAR
  2
AcDbDictionaryVar
  3
ObjectDBX Classes
 90
        0
280
     0
281
     0
  0
CLASS
  1
ACMESTATEMGR
  2
AcMeStateMgr
  3
AcMeServices
 90
        0
280
     0
281
     0
  0
CLASS
  1
ACMESCOPE
  2
AcMeScope
  3
AcMeServices
 90
        0
280
     0
281
     0
  0
CLASS
  1
ACMECOMMANDHISTORY
  2
AcMeCommandHistory
  3
AcMeServices
 90
        0
280
     0
281
     0
  0
CLASS
  1
ACRFINSADJUSTERMGR
  2
AcRfInsAdjusterMgr
  3
AcMeServices
 90
        0
280
     0
281
     0
  0
CLASS
  1
ACMEDRAWINGMAN
  2
AcMeDrawingMan
  3
AcMeServices
 90
        0
280
     0
281
     0
  0
CLASS
  1
AMATTR
  2
AcMeAttribute
  3
AcMeServices
 90
    32768
280
     0
281
     0
  0
CLASS
  1
ACMEBOMCOLUMN
  2
AcMeBOMColumn
  3
AcMeServices
 90
    32768
280
     0
281
     0
  0
CLASS
  1
ACMEBOMCONF
  2
AcMeBOMConf
  3
AcMeServices
 90
    32768
280
     0
281
     0
  0
CLASS
  1
ACMEBOMTABLE
  2
AcMeBOMTable
  3
AcMeServices
 90
    32768
280
     0
281
     0
  0
CLASS
  1
ACMEBOMENTRY
  2
AcMeBOMEntry
  3
AcMeServices
 90
    32768
280
     0
281
     0
  0
CLASS
  1
ACMEVIEW
  2
AcMeView
  3
AcMeServices
 90
        0
280
     0
281
     0
  0
CLASS
  1
ACGREFMASTER
  2
AcGrefMaster
  3
AcAttribServices
 90
        0
280
     0
281
     0
  0
CLASS
  1
AMIMASTER
  2
AmiMaster
  3
AmiServices
 90
        0
280
     0
281
     0
  0
CLASS
  1
ACASGREFMASTER
  2
AcAsGrefMaster
  3
AutoSurfResolverServices
 90
    32768
280
     0
281
     0
  0
CLASS
  1
ADAPPL
  2
AcAdAppl
  3
DesignerServices
 90
        0
280
     0
281
     0
  0
CLASS
  1
DEPMGR
  2
AcAdDepMgr
  3
DesignerServices
 90
        0
280
     0
281
     0
  0
CLASS
  1
PARAMMGR
  2
AcAdParamMgr
  3
DesignerServices
 90
        0
280
     0
281
     0
  0
CLASS
  1
PARAMSCOPE
  2
AcAdParamScope
  3
DesignerServices
 90
        0
280
     0
281
     0
  0
CLASS
  1
ACIMSYSVARMAN
  2
AcImSysVarManager
  3
AcMeServices
 90
        0
280
     0
281
     0
  0
CLASS
  1
ACIMINTSYSVAR
  2
AcImIntSysVar
  3
AcMeServices
 90
        0
280
     0
281
     0
  0
CLASS
  1
ACIMREALSYSVAR
  2
AcImRealSysVar
  3
AcMeServices
 90
        0
280
     0
281
     0
  0
CLASS
  1
ACIMSTRSYSVAR
  2
AcImStrSysVar
  3
AcMeServices
 90
        0
280
     0
281
     0
  0
CLASS
  1
NAMEDAPPL
  2
AcAdNamedAppl
  3
DesignerServices
 90
        0
280
     0
281
     0
  0
CLASS
  1
ADHNTMPLT
  2
AdHoleNoteTemplateMgr
  3
DesignerServices
 90
    32768
280
     0
281
     0
  0
CLASS
  1
AM_HNTEMPLATE_MGR_NAME
  2
AdHoleNoteTemplateMgrName
  3
DesignerServices
 90
    32768
280
     0
281
     0
  0
CLASS
  1
ACADGREFMODULE
  2
AcAdGrefModule
  3
AdGrefServices
 90
    32768
280
     0
281
     0
  0
CLASS
  1
AM_DRAWING_MGR
  2
AcDmDwgMgr
  3
AcMechDwgViewMgmt
 90
        0
280
     0
281
     0
  0
CLASS
  1
AM_DWG_DOCUMENT
  2
AcDmDwgDocument
  3
AcMechDwgViewMgmt
 90
        0
280
     0
281
     0
  0
CLASS
  1
AM_DWG_SHEET
  2
AcDmSheet
  3
AcMechDwgViewMgmt
 90
        0
280
     0
281
     0
  0
CLASS
  1
AM_VIEWDIMPARMAP
  2
AcDmViewDimParMap
  3
AcMechDwgViewMgmt
 90
        0
280
     0
281
     0
  0
CLASS
  1
AM_DWGMGR_NAME
  2
AcDmDwgMgrName
  3
AcMechDwgViewMgmt
 90
        0
280
     0
281
     0
  0
CLASS
  1
ACAMPROJECT
  2
AcAmProject
  3
DesignerAssemblies
 90
        0
280
     0
281
     0
  0
CLASS
  1
ACAMGRCOMPSET
  2
AcAmGrCompSet
  3
DesignerAssemblies
 90
    32768
280
     1
281
     0
  0
CLASS
  1
ACAMGRCOMPDEFSET
  2
AcAmGrCompDefSet
  3
DesignerAssemblies
 90
        0
280
     0
281
     0
  0
CLASS
  1
ACAMGRCOMPDEF
  2
AcAmGrCompDef
  3
DesignerAssemblies
 90
        0
280
     0
281
     0
  0
CLASS
  1
ACCMCONTEXT
  2
AcCmContext
  3
DesignerAssemblies
 90
        0
280
     0
281
     0
  0
CLASS
  1
ACAMCOMPDEF
  2
AcAmCompDef
  3
DesignerAssemblies
 90
        0
280
     0
281
     0
  0
CLASS
  1
ACAMCOMPDEFMGR
  2
AcAmCompDefMgr
  3
DesignerAssemblies
 90
        0
280
     0
281
     0
  0
CLASS
  1
AMCONTEXTMGR
  2
AcAmContextMgr
  3
DesignerAssemblies
 90
        0
280
     0
281
     0
  0
CLASS
  1
ACAMCONTEXTMODELER
  2
AcAmContextModeler
  3
DesignerAssemblies
 90
        0
280
     0
281
     0
  0
CLASS
  1
ACDMVIEWGEOM
  2
AcDmViewGeometry
  3
AcMechDwgViewMgmt
 90
    32768
280
     0
281
     1
  0
CLASS
  1
CBROWSERAPPOBJECT
  2
CBrowserAppObject
  3
McadcomServices
 90
        0
280
     0
281
     0
  0
CLASS
  1
IM_STATIC_MAN
  2
AcImStaticVarManager
  3
AcMeServices
 90
    32768
280
     0
281
     0
  0
CLASS
  1
ASAPP
  2
AcAsAppObject
  3
AutoSurfServices
 90
    32768
280
     0
281
     0
  0
CLASS
  1
ACIMDBLSTATICVAR
  2
AcImDblStaticVar
  3
AcMeServices
 90
    32768
280
     0
281
     0
  0
CLASS
  1
ACIMSTRSTATICVAR
  2
AcImStrStaticVar
  3
AcMeServices
 90
    32768
280
     0
281
     0
  0
CLASS
  1
ACIMINTSTATICVAR
  2
AcImIntStaticVar
  3
AcMeServices
 90
    32768
280
     0
281
     0
  0
CLASS
  1
CATALOGSTATE
  2
AcAmCatalogState
  3
DesignerAssemblies
 90
        0
280
     0
281
     0
  0
CLASS
  1
DM_PLACEHOLDER
  2
AcDmSelsetPlaceholder
  3
AcMechDwgViewMgmt
 90
        0
280
     0
281
     0
  0
CLASS
  1
LAYER_INDEX
  2
AcDbLayerIndex
  3
ObjectDBX Classes
 90
        0
280
     0
281
     0
  0
CLASS
  1
IDBUFFER
  2
AcDbIdBuffer
  3
ObjectDBX Classes
 90
        0
280
     0
281
     0
  0
CLASS
  1
ACMSTANDARDJIS
  2
AcmStandardJIS
  3
"Amdt_StdImp|Product Description: AutoCAD Mechanical 2004 DX|Company: Autodesk"
 90
    32768
280
     0
281
     0
  0
CLASS
  1
ACMSTANDARDANSI
  2
AcmStandardANSI
  3
"Amdt_StdImp|Product Description: AutoCAD Mechanical 2004 DX|Company: Autodesk"
 90
    32768
280
     0
281
     0
  0
CLASS
  1
ACMSTANDARDBSI
  2
AcmStandardBSI
  3
"Amdt_StdImp|Product Description: AutoCAD Mechanical 2004 DX|Company: Autodesk"
 90
    32768
280
     0
281
     0
  0
CLASS
  1
ACMSTANDARDDIN
  2
AcmStandardDIN
  3
"Amdt_StdImp|Product Description: AutoCAD Mechanical 2004 DX|Company: Autodesk"
 90
    32768
280
     0
281
     0
  0
CLASS
  1
ACMSTANDARDISO
  2
AcmStandardISO
  3
"Amdt_StdImp|Product Description: AutoCAD Mechanical 2004 DX|Company: Autodesk"
 90
        0
280
     0
281
     0
  0
CLASS
  1
ACDBDICTIONARYWDFLT
  2
AcDbDictionaryWithDefault
  3
ObjectDBX Classes
 90
        0
280
     0
281
     0
  0
CLASS
  1
ACME_DOCUMENT
  2
AcMeDbDoc
  3
AcMeServices
 90
        0
280
     0
281
     0
  0
CLASS
  1
AMGSETTINGSOBJ
  2
AmgSettingsObj
  3
"AcadM|Product Description: AutoCAD Mechanical 2000|Company: Autodesk"
 90
        0
280
     0
281
     0
  0
CLASS
  1
AMGOBJPROPCFG
  2
AmgObjPropCfg
  3
"AmgLay|Product Description: AutoCAD Mechanical 2000|Company: Autodesk"
 90
        1
280
     0
281
     0
  0
CLASS
  1
ACDBENTITYCACHE
  2
AcMeEntityCache
  3
AcMeServices
 90
        0
280
     0
281
     0
  0
CLASS
  1
GSMANAGER
  2
AcMeGSManager
  3
AcMeServices
 90
        0
280
     0
281
     0
  0
CLASS
  1
AMDTINTERNALREACTOR
  2
AmdtInternalReactor
  3
AcMeServices
 90
        0
280
     0
281
     0
  0
CLASS
  1
ACME_DATABASE
  2
AcMeDbDatabase
  3
AcMeServices
 90
        0
280
     0
281
     0
  0
CLASS
  1
ACGREFACADMASTER
  2
AcGrefacadMaster
  3
AcGrefServices
 90
        0
280
     0
281
     0
  0
CLASS
  1
AMDTMENUSTATEMGR
  2
AmdtMenuStateMgr
  3
McadcomServices
 90
        0
280
     0
281
     0
  0
CLASS
  1
AMDTMCOMMENUSTATE
  2
AmdtMcomMenuState
  3
McadcomServices
 90
        0
280
     0
281
     0
  0
CLASS
  1
MAPIADMODULE
  2
MApiAdModule
  3
MApiAdServices
 90
    32768
280
     0
281
     0
  0
CLASS
  1
AMDTDMMENUSTATE
  2
AmdtDmMenuState
  3
AcMechDwgViewMgmt
 90
        0
280
     0
281
     0
  0
CLASS
  1
AMDTADMENUSTATE
  2
AmdtAdMenuState
  3
DesignerServices
 90
        0
280
     0
281
     0
  0
CLASS
  1
AMDTAMMENUSTATE
  2
AmdtAmMenuState
  3
DesignerAssemblies
 90
        0
280
     0
281
     0
  0
CLASS
  1
ACMDATADICTIONARY
  2
AcmDataDictionary
  3
"AcmSymBB|Product Description: AutoCAD Mechanical 2004 DX|Company: Autodesk"
 90
        0
280
     0
281
     0
  0
CLASS
  1
ACMDATAENTRYBLOCK
  2
AcmDataEntryBlock
  3
"AcmSymBB|Product Description: AutoCAD Mechanical 2004 DX|Company: Autodesk"
 90
    32768
280
     0
281
     0
  0
CLASS
  1
ACMSURFSTANDARDJIS
  2
AcmSurfTextStdJIS
  3
"Amdt_StdImp|Product Description: AutoCAD Mechanical 2004 DX|Company: Autodesk"
 90
    32768
280
     0
281
     0
  0
CLASS
  1
ACMFCFSTANDARDJIS
  2
AcmFCFStdJIS
  3
"Amdt_StdImp|Product Description: AutoCAD Mechanical 2004 DX|Company: Autodesk"
 90
    32768
280
     0
281
     0
  0
CLASS
  1
ACMWELDSTANDARDJIS
  2
AcmWeldingStdJIS
  3
"Amdt_StdImp|Product Description: AutoCAD Mechanical 2004 DX|Company: Autodesk"
 90
    32768
280
     0
281
     0
  0
CLASS
  1
ACMIDSTANDARDJIS
  2
AcmIdStdJIS
  3
"Amdt_StdImp|Product Description: AutoCAD Mechanical 2004 DX|Company: Autodesk"
 90
    32768
280
     0
281
     0
  0
CLASS
  1
ACMDATUMSTANDARDJIS
  2
AcmDatumStdJIS
  3
"Amdt_StdImp|Product Description: AutoCAD Mechanical 2004 DX|Company: Autodesk"
 90
    32768
280
     0
281
     0
  0
CLASS
  1
ACMBOMSTANDARDJIS
  2
AcmBOMStdJIS
  3
"Amdt_StdImp|Product Description: AutoCAD Mechanical 2004 DX|Company: Autodesk"
 90
    32768
280
     0
281
     0
  0
CLASS
  1
ACMSURFSTANDARDANSI
  2
AcmSurfTextStdANSI
  3
"Amdt_StdImp|Product Description: AutoCAD Mechanical 2004 DX|Company: Autodesk"
 90
    32768
280
     0
281
     0
  0
CLASS
  1
ACMFCFSTANDARDANSI
  2
AcmFCFStdANSI
  3
"Amdt_StdImp|Product Description: AutoCAD Mechanical 2004 DX|Company: Autodesk"
 90
    32768
280
     0
281
     0
  0
CLASS
  1
ACMWELDSTANDARDANSI
  2
AcmWeldingStdANSI
  3
"Amdt_StdImp|Product Description: AutoCAD Mechanical 2004 DX|Company: Autodesk"
 90
    32768
280
     0
281
     0
  0
CLASS
  1
ACMIDSTANDARDANSI
  2
AcmIdStdANSI
  3
"Amdt_StdImp|Product Description: AutoCAD Mechanical 2004 DX|Company: Autodesk"
 90
    32768
280
     0
281
     0
  0
CLASS
  1
ACMDATUMSTANDARDANSI
  2
AcmDatumStdANSI
  3
"Amdt_StdImp|Product Description: AutoCAD Mechanical 2004 DX|Company: Autodesk"
 90
    32768
280
     0
281
     0
  0
CLASS
  1
ACMBOMSTANDARDANSI
  2
AcmBOMStdANSI
  3
"Amdt_StdImp|Product Description: AutoCAD Mechanical 2004 DX|Company: Autodesk"
 90
    32768
280
     0
281
     0
  0
CLASS
  1
ACMSURFSTANDARDBSI
  2
AcmSurfTextStdBSI
  3
"Amdt_StdImp|Product Description: AutoCAD Mechanical 2004 DX|Company: Autodesk"
 90
    32768
280
     0
281
     0
  0
CLASS
  1
ACMFCFSTANDARDBSI
  2
AcmFCFStdBSI
  3
"Amdt_StdImp|Product Description: AutoCAD Mechanical 2004 DX|Company: Autodesk"
 90
    32768
280
     0
281
     0
  0
CLASS
  1
ACMWELDSTANDARDBSI
  2
AcmWeldingStdBSI
  3
"Amdt_StdImp|Product Description: AutoCAD Mechanical 2004 DX|Company: Autodesk"
 90
    32768
280
     0
281
     0
  0
CLASS
  1
ACMIDSTANDARDBSI
  2
AcmIdStdBSI
  3
"Amdt_StdImp|Product Description: AutoCAD Mechanical 2004 DX|Company: Autodesk"
 90
    32768
280
     0
281
     0
  0
CLASS
  1
ACMDATUMSTANDARDBSI
  2
AcmDatumStdBSI
  3
"Amdt_StdImp|Product Description: AutoCAD Mechanical 2004 DX|Company: Autodesk"
 90
    32768
280
     0
281
     0
  0
CLASS
  1
ACMBOMSTANDARDBSI
  2
AcmBOMStdBSI
  3
"Amdt_StdImp|Product Description: AutoCAD Mechanical 2004 DX|Company: Autodesk"
 90
    32768
280
     0
281
     0
  0
CLASS
  1
AMDTEDGESTANDARDDIN
  2
AmdtEdgeStdDIN
  3
"Amdt_StdImp|Product Description: AutoCAD Mechanical 2004 DX|Company: Autodesk"
 90
    32768
280
     0
281
     0
  0
CLASS
  1
ACMSURFSTANDARDDIN
  2
AcmSurfTextStdDIN
  3
"Amdt_StdImp|Product Description: AutoCAD Mechanical 2004 DX|Company: Autodesk"
 90
    32768
280
     0
281
     0
  0
CLASS
  1
ACMFCFSTANDARDDIN
  2
AcmFCFStdDIN
  3
"Amdt_StdImp|Product Description: AutoCAD Mechanical 2004 DX|Company: Autodesk"
 90
    32768
280
     0
281
     0
  0
CLASS
  1
ACMWELDSTANDARDDIN
  2
AcmWeldingStdDIN
  3
"Amdt_StdImp|Product Description: AutoCAD Mechanical 2004 DX|Company: Autodesk"
 90
    32768
280
     0
281
     0
  0
CLASS
  1
ACMIDSTANDARDDIN
  2
AcmIdStdDIN
  3
"Amdt_StdImp|Product Description: AutoCAD Mechanical 2004 DX|Company: Autodesk"
 90
    32768
280
     0
281
     0
  0
CLASS
  1
ACMDATUMSTANDARDDIN
  2
AcmDatumStdDIN
  3
"Amdt_StdImp|Product Description: AutoCAD Mechanical 2004 DX|Company: Autodesk"
 90
    32768
280
     0
281
     0
  0
CLASS
  1
ACMBOMSTANDARDDIN
  2
AcmBOMStdDIN
  3
"Amdt_StdImp|Product Description: AutoCAD Mechanical 2004 DX|Company: Autodesk"
 90
    32768
280
     0
281
     0
  0
CLASS
  1
ACMSURFSTANDARDISO
  2
AcmSurfTextStdISO
  3
"Amdt_StdImp|Product Description: AutoCAD Mechanical 2004 DX|Company: Autodesk"
 90
        0
280
     0
281
     0
  0
CLASS
  1
ACMFCFSTANDARDISO
  2
AcmFCFStdISO
  3
"Amdt_StdImp|Product Description: AutoCAD Mechanical 2004 DX|Company: Autodesk"
 90
        0
280
     0
281
     0
  0
CLASS
  1
ACMWELDSTANDARDISO
  2
AcmWeldingStdISO
  3
"Amdt_StdImp|Product Description: AutoCAD Mechanical 2004 DX|Company: Autodesk"
 90
        0
280
     0
281
     0
  0
CLASS
  1
ACMIDSTANDARDISO
  2
AcmIdStdISO
  3
"Amdt_StdImp|Product Description: AutoCAD Mechanical 2004 DX|Company: Autodesk"
 90
        0
280
     0
281
     0
  0
CLASS
  1
ACMDATUMSTANDARDISO
  2
AcmDatumStdISO
  3
"Amdt_StdImp|Product Description: AutoCAD Mechanical 2004 DX|Company: Autodesk"
 90
        0
280
     0
281
     0
  0
CLASS
  1
ACMBOMSTANDARDISO
  2
AcmBOMStdISO
  3
"Amdt_StdImp|Product Description: AutoCAD Mechanical 2004 DX|Company: Autodesk"
 90
        0
280
     0
281
     0
  0
CLASS
  1
AMDTBROWSERDBTAB
  2
AmdtBrowserDbTab
  3
McadcomServices
 90
        0
280
     0
281
     0
  0
CLASS
  1
ACAMGFILTERDAT
  2
AcAmgFilterDat
  3
"AcadM|Product Description: AutoCAD Mechanical 2000|Company: Autodesk"
 90
    32768
280
     0
281
     0
  0
CLASS
  1
MAPIAMMOUDLE
  2
MApiAmModule
  3
MApiAmServices
 90
        0
280
     0
281
     0
  0
CLASS
  1
AMDTMAPISURFMOUDULE
  2
AmdtMApiSurfModule
  3
MApiSurfServices
 90
    32768
280
     0
281
     0
  0
CLASS
  1
ACAMGLAYSTD
  2
AcAmgLayStd
  3
"AcAmgLayStd|Product Description: AutoCAD Mechanical 2000|Company: Autodesk"
 90
        0
280
     0
281
     0
  0
CLASS
  1
ACAMGDIMSTD
  2
AcAmgDimStd
  3
"AcAmgDimStd|Product Description: AutoCAD Mechanical 2000|Company: Autodesk"
 90
        0
280
     0
281
     0
  0
CLASS
  1
ACAMGTITLESTD
  2
AcAmgTitleStd
  3
"TITLEAPP"
 90
        0
280
     0
281
     0
  0
CLASS
  1
ACMDETAILSTANDARDJIS
  2
AmdtDetailSymStdJIS
  3
"Amdt_StdImp|Product Description: AutoCAD Mechanical 2004 DX|Company: Autodesk"
 90
    32768
280
     0
281
     0
  0
CLASS
  1
ACMSECTIONSTANDARDJIS
  2
AmdtSectionSymStdJIS
  3
"Amdt_StdImp|Product Description: AutoCAD Mechanical 2004 DX|Company: Autodesk"
 90
    32768
280
     0
281
     0
  0
CLASS
  1
ACMCENTERLINESTANDARDJIS
  2
AmdtCenterLineStdJIS
  3
"Amdt_StdImp|Product Description: AutoCAD Mechanical 2004 DX|Company: Autodesk"
 90
    32768
280
     0
281
     0
  0
CLASS
  1
ACMTHREADLINESTANDARDJIS
  2
AmdtThreadLineStdJIS
  3
"Amdt_StdImp|Product Description: AutoCAD Mechanical 2004 DX|Company: Autodesk"
 90
    32768
280
     0
281
     0
  0
CLASS
  1
ACMDETAILSTANDARDANSI
  2
AmdtDetailSymStdANSI
  3
"Amdt_StdImp|Product Description: AutoCAD Mechanical 2004 DX|Company: Autodesk"
 90
    32768
280
     0
281
     0
  0
CLASS
  1
ACMSECTIONSTANDARDANSI
  2
AmdtSectionSymStdANSI
  3
"Amdt_StdImp|Product Description: AutoCAD Mechanical 2004 DX|Company: Autodesk"
 90
    32768
280
     0
281
     0
  0
CLASS
  1
ACMCENTERLINESTANDARDANSI
  2
AmdtCenterLineStdANSI
  3
"Amdt_StdImp|Product Description: AutoCAD Mechanical 2004 DX|Company: Autodesk"
 90
    32768
280
     0
281
     0
  0
CLASS
  1
ACMTHREADLINESTANDARDANSI
  2
AmdtThreadLineStdANSI
  3
"Amdt_StdImp|Product Description: AutoCAD Mechanical 2004 DX|Company: Autodesk"
 90
    32768
280
     0
281
     0
  0
CLASS
  1
ACMDETAILSTANDARDBSI
  2
AmdtDetailSymStdBSI
  3
"Amdt_StdImp|Product Description: AutoCAD Mechanical 2004 DX|Company: Autodesk"
 90
    32768
280
     0
281
     0
  0
CLASS
  1
ACMSECTIONSTANDARDBSI
  2
AmdtSectionSymStdBSI
  3
"Amdt_StdImp|Product Description: AutoCAD Mechanical 2004 DX|Company: Autodesk"
 90
    32768
280
     0
281
     0
  0
CLASS
  1
ACMCENTERLINESTANDARDBSI
  2
AmdtCenterLineStdBSI
  3
"Amdt_StdImp|Product Description: AutoCAD Mechanical 2004 DX|Company: Autodesk"
 90
    32768
280
     0
281
     0
  0
CLASS
  1
ACMTHREADLINESTANDARDBSI
  2
AmdtThreadLineStdBSI
  3
"Amdt_StdImp|Product Description: AutoCAD Mechanical 2004 DX|Company: Autodesk"
 90
    32768
280
     0
281
     0
  0
CLASS
  1
ACMDETAILSTANDARDDIN
  2
AmdtDetailSymStdDIN
  3
"Amdt_StdImp|Product Description: AutoCAD Mechanical 2004 DX|Company: Autodesk"
 90
    32768
280
     0
281
     0
  0
CLASS
  1
ACMSECTIONSTANDARDDIN
  2
AmdtSectionSymStdDIN
  3
"Amdt_StdImp|Product Description: AutoCAD Mechanical 2004 DX|Company: Autodesk"
 90
    32768
280
     0
281
     0
  0
CLASS
  1
ACMCENTERLINESTANDARDDIN
  2
AmdtCenterLineStdDIN
  3
"Amdt_StdImp|Product Description: AutoCAD Mechanical 2004 DX|Company: Autodesk"
 90
    32768
280
     0
281
     0
  0
CLASS
  1
ACMTHREADLINESTANDARDDIN
  2
AmdtThreadLineStdDIN
  3
"Amdt_StdImp|Product Description: AutoCAD Mechanical 2004 DX|Company: Autodesk"
 90
    32768
280
     0
281
     0
  0
CLASS
  1
AMDTEDGESTANDARDISO
  2
AmdtEdgeStdISO
  3
"Amdt_StdImp|Product Description: AutoCAD Mechanical 2004 DX|Company: Autodesk"
 90
    32768
280
     0
281
     0
  0
CLASS
  1
ACMDETAILSTANDARDISO
  2
AmdtDetailSymStdISO
  3
"Amdt_StdImp|Product Description: AutoCAD Mechanical 2004 DX|Company: Autodesk"
 90
        0
280
     0
281
     0
  0
CLASS
  1
ACMSECTIONSTANDARDISO
  2
AmdtSectionSymStdISO
  3
"Amdt_StdImp|Product Description: AutoCAD Mechanical 2004 DX|Company: Autodesk"
 90
        0
280
     0
281
     0
  0
CLASS
  1
ACMCENTERLINESTANDARDISO
  2
AmdtCenterLineStdISO
  3
"Amdt_StdImp|Product Description: AutoCAD Mechanical 2004 DX|Company: Autodesk"
 90
        0
280
     0
281
     0
  0
CLASS
  1
ACMTHREADLINESTANDARDISO
  2
AmdtThreadLineStdISO
  3
"Amdt_StdImp|Product Description: AutoCAD Mechanical 2004 DX|Company: Autodesk"
 90
        0
280
     0
281
     0
  0
CLASS
  1
ACMNOTESTANDARDISO
  2
AmdtNoteStdISO
  3
"Amdt_StdImp|Product Description: AutoCAD Mechanical 2004 DX|Company: Autodesk"
 90
        0
280
     0
281
     0
  0
CLASS
  1
ACAMGHOLECHARTSTDISO
  2
AcAmgHoleChartStdISO
  3
ACMSYMBB_MODULE_NAME
 90
        0
280
     0
281
     0
  0
CLASS
  1
ACMNOTESTANDARDANSI
  2
AmdtNoteStdANSI
  3
"Amdt_StdImp|Product Description: AutoCAD Mechanical 2004 DX|Company: Autodesk"
 90
    32768
280
     0
281
     0
  0
CLASS
  1
AMDTNOTETEMPLATEDB
  2
AmdtNoteTemplateDB
  3
AMDT_STDIMP_MODULE_NAME
 90
        0
280
     0
281
     0
  0
CLASS
  1
ACAMGHOLECHARTSTDANSI
  2
AcAmgHoleChartStdANSI
  3
ACMSYMBB_MODULE_NAME
 90
    32768
280
     0
281
     0
  0
CLASS
  1
TABLESTYLE
  2
AcDbTableStyle
  3
ObjectDBX Classes
 90
     2047
280
     0
281
     0
  0
CLASS
  1
ACMBOM
  2
AcmBom
  3
"AcmSymBB|Product Description: AutoCAD Mechanical 2004 DX|Company: Autodesk"
 90
    32768
280
     0
281
     0
  0
CLASS
  1
AMDTFORMULAUPDATEDISPATCHER
  2
AmdtFormulaUpdateDispatcher
  3
AcMeServices
 90
    32768
280
     0
281
     0
  0
CLASS
  1
ACMPARTLIST
  2
AcmPartList
  3
"AcmSymBB|Product Description: AutoCAD Mechanical 2004 DX|Company: Autodesk"
 90
    33791
280
     0
281
     1
  0
CLASS
  1
VAACXREFPANELOBJECT
  2
VaAcXREFPanelObject
  3
VAAC_ADDIN
 90
    32768
280
     1
281
     0
  0
CLASS
  1
VAACIMAGEINVENTORY
  2
VaAcImageInventory
  3
VAAC_ADDIN
 90
    32768
280
     1
281
     0
  0
CLASS
  1
ACAMCONTEXTPARTMODELER
  2
AcAmContextPartModeler
  3
DesignerAssemblies
 90
    32768
280
     0
281
     0
  0
CLASS
  1
ADPART
  2
AcAdPart
  3
DesignerServices
 90
    32768
280
     0
281
     1
  0
CLASS
  1
ADBASE
  2
AcAdBase
  3
DesignerServices
 90
    32768
280
     0
281
     0
  0
CLASS
  1
BODYID
  2
AcAdBodyId
  3
DesignerServices
 90
    32768
280
     0
281
     0
  0
CLASS
  1
WORKPLANEDISPLAYMGR
  2
AcAdDisplayMgr
  3
DesignerServices
 90
    32768
280
     0
281
     0
  0
CLASS
  1
ACCMBODY
  2
AcCmBody
  3
DesignerAssemblies
 90
    32768
280
     0
281
     0
  0
CLASS
  1
ACAMCOMPENT
  2
AcAmCompEnt
  3
DesignerAssemblies
 90
    32768
280
     0
281
     1
  0
CLASS
  1
ACAMCOMPFEEDBACK
  2
AcAmCompFeedback
  3
DesignerAssemblies
 90
    32768
280
     0
281
     0
  0
CLASS
  1
ACAMGROUNDEDBASECOMP
  2
AcAmGroundedBaseComp
  3
DesignerAssemblies
 90
    32768
280
     0
281
     0
  0
CLASS
  1
ACAMCOMPENTCLONE
  2
AcAmCompEntClone
  3
DesignerAssemblies
 90
    32768
280
     0
281
     1
  0
CLASS
  1
ACAMCLONEREACTOR
  2
AcAmGrCompCloneReactor
  3
DesignerAssemblies
 90
    32768
280
     0
281
     0
  0
CLASS
  1
ADDATUMPLANEABS
  2
AcAdDatumPlaneAbs
  3
DesignerServices
 90
    32768
280
     0
281
     0
  0
CLASS
  1
ADDATUMAXISABS
  2
AcAdDatumAxisAbs
  3
DesignerServices
 90
    32768
280
     0
281
     0
  0
CLASS
  1
ADDATUMORIENTEDPLANE
  2
AcAdDatumOrientedPlane
  3
DesignerServices
 90
    32768
280
     0
281
     0
  0
CLASS
  1
ACAD_LINE
  2
AcAdLine
  3
DesignerServices
 90
    32768
280
     0
281
     1
  0
CLASS
  1
ACADLINEACAD
  2
AcAdVirtualBoundedLineAcad
  3
DesignerServices
 90
    32768
280
     0
281
     0
  0
CLASS
  1
ACADREFLINEACAD
  2
AcAdVirtualReferenceLine
  3
DesignerServices
 90
    32768
280
     0
281
     0
  0
CLASS
  1
ACADCONSLINE
  2
AcAdConstrainedLine
  3
DesignerServices
 90
    32768
280
     0
281
     0
  0
CLASS
  1
ACADCONSGROUP
  2
AcAdConstraintGroup
  3
DesignerServices
 90
    32768
280
     0
281
     0
  0
CLASS
  1
ACADIMPPTACAD
  2
AcAdVirtualImplicitPoint
  3
DesignerServices
 90
    32768
280
     0
281
     0
  0
CLASS
  1
ACADCONSPOINT
  2
AcAdConstrainedPoint
  3
DesignerServices
 90
    32768
280
     0
281
     0
  0
CLASS
  1
ADPCURCNS
  2
AcAdPointCurveConstr
  3
DesignerServices
 90
    32768
280
     0
281
     0
  0
CLASS
  1
ADHORCNS
  2
AcAdHorizontalConstr
  3
DesignerServices
 90
    32768
280
     0
281
     0
  0
CLASS
  1
ADVERCNS
  2
AcAdVerticalConstr
  3
DesignerServices
 90
    32768
280
     0
281
     0
  0
CLASS
  1
ADCLPROF2D
  2
AcAdClosedProfile2d
  3
DesignerServices
 90
    32768
280
     0
281
     0
  0
CLASS
  1
ACAD_FIXCONSTRAINT
  2
AcAdFixedConstraint
  3
DesignerServices
 90
    32768
280
     0
281
     0
  0
CLASS
  1
ACDBLINERES
  2
AcDbLineRes
  3
AcGrefServices
 90
    32768
280
     0
281
     0
  0
CLASS
  1
ACADSKETCHLINERES
  2
AcAdSketchLineRes
  3
DesignerServices
 90
    32768
280
     0
281
     0
  0
CLASS
  1
PARAM
  2
AcAdParam
  3
DesignerServices
 90
    32768
280
     0
281
     0
  0
CLASS
  1
ADHDISTCNS
  2
AcAdHorizontalDistanceConstr
  3
DesignerServices
 90
    32768
280
     0
281
     0
  0
CLASS
  1
ACADSKETCHPOINTRES
  2
AcAdSketchPointRes
  3
DesignerServices
 90
    32768
280
     0
281
     0
  0
CLASS
  1
ADVDISTCNS
  2
AcAdVerticalDistanceConstr
  3
DesignerServices
 90
    32768
280
     0
281
     0
  0
CLASS
  1
ACMELINEARARROW
  2
AcImLinearArrowDisplay
  3
AcMeServices
 90
    32768
280
     0
281
     1
  0
CLASS
  1
ACADVOLFEATWITHTRIM
  2
AcAdVolFeatWithTrim
  3
DesignerServices
 90
    32768
280
     0
281
     0
  0
CLASS
  1
DEPEDGEFEATUREORDERING
  2
AcAdDepEdgeFeatureOrdering
  3
DesignerServices
 90
    32768
280
     0
281
     0
  0
CLASS
  1
ADPLANEID
  2
AcAdPlaneId
  3
DesignerServices
 90
    32768
280
     0
281
     0
  0
CLASS
  1
ADDATUMPLANEFACE
  2
AcAdDatumPlaneFace
  3
DesignerServices
 90
    32768
280
     0
281
     0
  0
CLASS
  1
ACMEPLINE
  2
AcImPlineDisplay
  3
AcMeServices
 90
    32768
280
     0
281
     1
  0
CLASS
  1
ACMETEXT
  2
AcImTextDisplay
  3
AcMeServices
 90
    32768
280
     0
281
     1
  0
CLASS
  1
ACAD_CIRCLE
  2
AcAdCircle
  3
DesignerServices
 90
    32768
280
     0
281
     1
  0
CLASS
  1
ACADCIRCLEACAD
  2
AcAdVirtualCircleAcad
  3
DesignerServices
 90
    32768
280
     0
281
     0
  0
CLASS
  1
ACADCONSCIRCLE
  2
AcAdConstrainedCircle
  3
DesignerServices
 90
    32768
280
     0
281
     0
  0
CLASS
  1
ADCTRPTCNS
  2
AcAdCenterPointConstr
  3
DesignerServices
 90
    32768
280
     0
281
     0
  0
CLASS
  1
DATUMPLANEDISPLAY
  2
AcAdDatumPlaneDisplay
  3
DesignerServices
 90
    32768
280
     0
281
     1
  0
CLASS
  1
ADDATUMPLANEOFFSET
  2
AcAdDatumPlaneOffset
  3
DesignerServices
 90
    32768
280
     0
281
     0
  0
CLASS
  1
DATUMAXISDISPLAY
  2
AcAdDatumAxisDisplay
  3
DesignerServices
 90
    32768
280
     0
281
     1
  0
CLASS
  1
ADDATUMAXISSKETCH
  2
AcAdDatumAxisSketch
  3
DesignerServices
 90
    32768
280
     0
281
     0
  0
CLASS
  1
ADAXISPROFILE
  2
AcAdAxisProfile
  3
DesignerServices
 90
    32768
280
     0
281
     0
  0
CLASS
  1
CNRREFID
  2
AcAdCornerId
  3
DesignerServices
 90
    32768
280
     0
281
     0
  0
CLASS
  1
ACADPARTPOINTRES
  2
AcAdPartPointRes
  3
AdGrefServices
 90
    32768
280
     0
281
     0
  0
CLASS
  1
EDGEID
  2
AcAdEdgeId
  3
DesignerServices
 90
    32768
280
     0
281
     0
  0
CLASS
  1
ACADPARTLINEDGRES
  2
AcAdPartLinEdgRes
  3
AdGrefServices
 90
    32768
280
     0
281
     0
  0
CLASS
  1
ACADPOINTDEPID
  2
AcAdVirtualPointDepId
  3
DesignerServices
 90
    32768
280
     0
281
     0
  0
CLASS
  1
ACDBCIRCARCRES
  2
AcDbCircArcRes
  3
AcGrefServices
 90
    32768
280
     0
281
     0
  0
CLASS
  1
ACADSKETCHCIRCARCRES
  2
AcAdSketchCircArcRes
  3
DesignerServices
 90
    32768
280
     0
281
     0
  0
CLASS
  1
ADACADDIACNS
  2
AcAdAcadDiameterConstr
  3
DesignerServices
 90
    32768
280
     0
281
     0
  0
CLASS
  1
ACADPARTAXISRES
  2
AcAdPartAxisRes
  3
AdGrefServices
 90
    32768
280
     0
281
     0
  0
CLASS
  1
ACADBOUNDEDLINEDATUMID
  2
AcAdVirtualBoundedLineDatumId
  3
DesignerServices
 90
    32768
280
     0
281
     0
  0
CLASS
  1
ACADPARTCIRCEDGRES
  2
AcAdPartCircEdgRes
  3
AdGrefServices
 90
    32768
280
     0
281
     0
  0
CLASS
  1
CIRREFID
  2
AcAdCircleRefId
  3
DesignerServices
 90
    32768
280
     0
281
     0
  0
CLASS
  1
ACADCIRCDEPID
  2
AcAdVirtualCircleDepId
  3
DesignerServices
 90
    32768
280
     0
281
     0
  0
CLASS
  1
ADACADANGCNS
  2
AcAdAcadAngleConstr
  3
DesignerServices
 90
    32768
280
     0
281
     0
  0
CLASS
  1
ADCONSTDSP
  2
AcAdConstraintDisplayTag
  3
DesignerServices
 90
    32768
280
     0
281
     1
  0
CLASS
  1
ADCONSDISP
  2
AcAdConstraintDisplay
  3
DesignerServices
 90
    32768
280
     0
281
     1
  0
CLASS
  1
ADEQUALLENGTHCNS
  2
AcAdEqualLengthConstr
  3
DesignerServices
 90
    32768
280
     0
281
     0
  0
CLASS
  1
ADFEATUREDISPLAY
  2
AcImFeatureDisplay
  3
ACME_MODULE_NAME
 90
    32768
280
     0
281
     1
  0
CLASS
  1
ACMEAXIS
  2
AcImAxisDisplay
  3
AcMeServices
 90
    32768
280
     0
281
     1
  0
CLASS
  1
ACMEROTATIONARROW
  2
AcImRotationArrowDisplay
  3
AcMeServices
 90
    32768
280
     0
281
     1
  0
CLASS
  1
DEPEDGEPATTERNFEATURE
  2
AcAdDepEdgePatternFeature
  3
DesignerServices
 90
    32768
280
     0
281
     0
  0
CLASS
  1
ACADPATTNFEAT
  2
AcAdPatternFeat
  3
DesignerServices
 90
    32768
280
     0
281
     0
  0
CLASS
  1
ADFILLET
  2
AcAdFillet
  3
DesignerServices
 90
    32768
280
     0
281
     0
  0
CLASS
  1
ADCONCCNS
  2
AcAdConcentricConstr
  3
DesignerServices
 90
    32768
280
     0
281
     0
  0
CLASS
  1
DEPEDGESECONDARYDEPID
  2
AcAdDepEdgeSecondaryDepId
  3
DesignerServices
 90
    32768
280
     0
281
     0
  0
CLASS
  1
DEPEDGEPATTERNINSTANCE
  2
AcAdDepEdgePatternInstance
  3
DesignerServices
 90
    32768
280
     0
281
     0
  0
CLASS
  1
AMDTEXTERNALTHREAD
  2
AmdtExternalThreadFeat
  3
DesignerServices
 90
    32768
280
     0
281
     0
  0
CLASS
  1
THREADDISPLAY
  2
AcAdThreadDisplay
  3
DesignerServices
 90
    32768
280
     0
281
     1
  0
CLASS
  1
ACMEPOINT
  2
AcImPointDisplay
  3
AcMeServices
 90
    32768
280
     0
281
     1
  0
CLASS
  1
OSTREFID
  2
AcAdOrientedStraightRefId
  3
DesignerServices
 90
    32768
280
     0
281
     0
  0
CLASS
  1
ADDATUMPOINT2EDGES
  2
AcAdDatumPoint2Edges
  3
DesignerServices
 90
    32768
280
     0
281
     0
  0
CLASS
  1
ADHOLEFEAT
  2
AcAdHoleFeat
  3
DesignerServices
 90
    32768
280
     0
281
     0
  0
CLASS
  1
ADWORKPOINTDISPLAY
  2
AcAdWorkPointDisplay
  3
DesignerServices
 90
    32768
280
     0
281
     1
  0
CLASS
  1
ADVIRTUALPOINTWORKPOINTFREE
  2
AcAdVirtualPointWorkPointFree
  3
DesignerServices
 90
    32768
280
     0
281
     0
  0
CLASS
  1
ADWORKPOINTSKETCH
  2
AcAdWorkPointSketch
  3
DesignerServices
 90
    32768
280
     0
281
     0
  0
CLASS
  1
ACADPARTDATUMPOINTRES
  2
AcAdPartDatumPointRes
  3
AdGrefServices
 90
    32768
280
     0
281
     0
  0
CLASS
  1
AMACTIVEPARTSELECTFILTER
  2
AcDmActivePartViewEntFilter
  3
DesignerServices
 90
    32768
280
     0
281
     0
  0
CLASS
  1
FACEID
  2
AcAdFaceId
  3
DesignerServices
 90
    32768
280
     0
281
     0
  0
CLASS
  1
ACADPARTPLANARFACERES
  2
AcAdPartPlanarFaceRes
  3
AdGrefServices
 90
    32768
280
     0
281
     0
  0
CLASS
  1
AM_GREF_PLANE
  2
AcDmGrefPlnDef
  3
AcMechDwgViewMgmt
 90
    32768
280
     0
281
     0
  0
CLASS
  1
AM_ABS_AXIS
  2
AcDmAbsAxisDef
  3
AcMechDwgViewMgmt
 90
    32768
280
     0
281
     0
  0
CLASS
  1
AM_BASE_VIEW_ORIENT
  2
AcDmBaseViewOr
  3
AcMechDwgViewMgmt
 90
    32768
280
     0
281
     0
  0
CLASS
  1
AM_DWG_VIEWPORT
  2
AcDmViewport
  3
AcMechDwgViewMgmt
 90
    32768
280
     0
281
     0
  0
CLASS
  1
AM_VIEW_DISPLAY
  2
AcDmDwgViewDisplay
  3
AcMechDwgViewMgmt
 90
    32768
280
     0
281
     0
  0
CLASS
  1
AM_CLDFLTS
  2
AcDmClDflts
  3
AcMechDwgViewMgmt
 90
    32768
280
     0
281
     0
  0
CLASS
  1
AM_BASE_VIEW
  2
AcDmBaseView
  3
AcMechDwgViewMgmt
 90
    32768
280
     0
281
     0
  0
CLASS
  1
ACDMPARTVIEWDATA
  2
AcDmPartViewData
  3
AcMechDwgViewMgmt
 90
    32768
280
     0
281
     0
  0
CLASS
  1
ACDMDISPLAYATTRIBS
  2
AcDmDisplayAttribs
  3
AcMechDwgViewMgmt
 90
    32768
280
     0
281
     0
  0
CLASS
  1
ACDMBODYINSTANCEDATA
  2
AcDmBodyInstanceData
  3
AcMechDwgViewMgmt
 90
    32768
280
     0
281
     0
  0
CLASS
  1
ACDMVWEDLINE
  2
AcDmViewEdgeLine
  3
AcMechDwgViewMgmt
 90
    32768
280
     0
281
     1
  0
CLASS
  1
ACDMVWEDSPLINE
  2
AcDmViewEdgeSpline
  3
AcMechDwgViewMgmt
 90
    32768
280
     0
281
     1
  0
CLASS
  1
ACDMVWEDARC
  2
AcDmViewEdgeArc
  3
AcMechDwgViewMgmt
 90
    32768
280
     0
281
     1
  0
CLASS
  1
ACADPARTSKETCHPLANEAXISRES
  2
AcAdPartSketchPlaneAxisRes
  3
DesignerServices
 90
    32768
280
     0
281
     0
  0
CLASS
  1
AM_VIEWDIMPARALLEL
  2
AcDmViewDimParallel
  3
AcMechDwgViewMgmt
 90
    32768
280
     0
281
     0
  0
CLASS
  1
AMDTDMPARMAPDATA
  2
AmdtDmDimParMapData
  3
AcMechDwgViewMgmt
 90
    32768
280
     0
281
     0
  0
CLASS
  1
AM_VIEWDIMLINEAR
  2
AcDmViewDimLinear
  3
AcMechDwgViewMgmt
 90
    32768
280
     0
281
     0
  0
CLASS
  1
AM_ADLINCTRLINE
  2
AcAdLineCl
  3
DesignerServices
 90
    32768
280
     0
281
     0
  0
CLASS
  1
AD_LINETAPH
  2
AcAdTapHoleLineDisp
  3
DesignerServices
 90
    32768
280
     0
281
     0
  0
CLASS
  1
AM_ORTHO_VIEW_ORIENT
  2
AcDmOrthoViewOr
  3
AcMechDwgViewMgmt
 90
    32768
280
     0
281
     0
  0
CLASS
  1
AM_ORTHO_VIEW
  2
AcDmOrthoView
  3
AcMechDwgViewMgmt
 90
    32768
280
     0
281
     0
  0
CLASS
  1
ACDMVWEDCIRC
  2
AcDmViewEdgeCircle
  3
AcMechDwgViewMgmt
 90
    32768
280
     0
281
     1
  0
CLASS
  1
AM_ADCIRCTRLINE
  2
AcAdBullsEyeCl
  3
DesignerServices
 90
    32768
280
     0
281
     0
  0
CLASS
  1
AD_CIRCTAPH
  2
AcAdTapHoleCircDisp
  3
DesignerServices
 90
    32768
280
     0
281
     0
  0
CLASS
  1
ACRFDMINSADJ
  2
AcRfDMInsAdjuster
  3
AcMechDwgViewMgmt
 90
    32768
280
     0
281
     0
  0
CLASS
  1
AM_VIEWDIMDIAMETER
  2
AcDmViewDimDiameter
  3
AcMechDwgViewMgmt
 90
    32768
280
     0
281
     0
  0
CLASS
  1
AM_VIEWDIMANGULAR
  2
AcDmViewDimAngular
  3
AcMechDwgViewMgmt
 90
    32768
280
     0
281
     0
  0
CLASS
  1
SORTENTSTABLE
  2
AcDbSortentsTable
  3
ObjectDBX Classes
 90
        0
280
     0
281
     0
  0
CLASS
  1
AM_USERDEFNNOTE
  2
AcDmUserDefnNote
  3
AcMechDwgViewMgmt
 90
    32768
280
     0
281
     0
  0
CLASS
  1
ACMDIMBREAKPERSREACTOR
  2
AcmDimBreakPersReactor
  3
amgDimApp().moduleName()
 90
    33791
280
     0
281
     0
  0
CLASS
  1
AMDTEDGESTANDARDISO13715
  2
AmdtEdgeStdISO13715
  3
"Amdt_StdImp|Product Description: AutoCAD Mechanical 2004 DX|Company: Autodesk"
 90
        0
280
     0
281
     0
  0
CLASS
  1
ACDBPLACEHOLDER
  2
AcDbPlaceHolder
  3
ObjectDBX Classes
 90
        0
280
     0
281
     0
  0
CLASS
  1
LAYOUT
  2
AcDbLayout
  3
ObjectDBX Classes
 90
        0
280
     0
281
     0
  0
CLASS
  1
ACRFATTGENMGR
  2
AcRfAttGeneralMgr
  3
AcAttribServices
 90
    32768
280
     0
281
     0
  0
ENDSEC
  0
SECTION
  2
TABLES
  0
TABLE
  2
VPORT
  5
21
330
0
100
AcDbSymbolTable
 70
     1
  0
VPORT
  5
22
330
21
100
AcDbSymbolTableRecord
100
AcDbViewportTableRecord
  2
*Active
 70
     0
 10
0.0
 20
0.0
 11
1.0
 21
1.0
 12
0.0
 22
0.0
 13
0.0
 23
0.0
 14
2.5
 24
2.5
 15
10.0
 25
10.0
 16
0.0
 26
0.0
 36
1.0
 17
0.0
 27
0.0
 37
0.0
 40
2.000000000000000E+20
 41
1.0
 42
50.0
 43
0.0
 44
0.0
 50
0.0
 51
0.0
 71
     0
 72
   100
 73
     1
 74
     1
 75
     0
 76
     0
 77
     0
 78
     0
281
     0
 65
     0
110
0.0
120
0.0
130
0.0
111
1.0
121
0.0
131
0.0
112
0.0
122
1.0
132
0.0
 79
     0
146
0.0
  0
ENDTAB
  0
TABLE
  2
LTYPE
  5
1C
330
0
100
AcDbSymbolTable
 70
    14
  0
LTYPE
  5
1D
330
1C
100
AcDbSymbolTableRecord
100
AcDbLinetypeTableRecord
  2
BYBLOCK
 70
     0
  3

 72
    65
 73
     0
 40
0.0
  0
LTYPE
  5
1E
330
1C
100
AcDbSymbolTableRecord
100
AcDbLinetypeTableRecord
  2
BYLAYER
 70
     0
  3

 72
    65
 73
     0
 40
0.0
  0
LTYPE
  5
9
330
1C
100
AcDbSymbolTableRecord
100
AcDbLinetypeTableRecord
  2
CONTINUOUS
 70
     0
  3
Solid line
 72
    65
 73
     0
 40
0.0
  0
LTYPE
  5
34
330
1C
100
AcDbSymbolTableRecord
100
AcDbLinetypeTableRecord
  2
CENTER
 70
     0
  3
____ _ ____ _ ____ _ ____ _ ____ _ ____ _ ____ 
 72
    65
 73
     4
 40
2.0
 49
1.25
 74
     0
 49
-0.25
 74
     0
 49
0.25
 74
     0
 49
-0.25
 74
     0
  0
LTYPE
  5
136
330
1C
100
AcDbSymbolTableRecord
100
AcDbLinetypeTableRecord
  2
AM_ISO08W050x2
 70
     0
  3
__ . __ . __ . __ . __ . __
 72
    65
 73
     4
 40
9.0
 49
6.0
 74
     0
 49
-0.75
 74
     0
 49
1.5
 74
     0
 49
-0.75
 74
     0
  0
LTYPE
  5
B74
330
1C
100
AcDbSymbolTableRecord
100
AcDbLinetypeTableRecord
  2
HIDDEN
 70
     0
  3
Hidden __ __ __ __ __ __ __ __ __ __ __ __ __ _
 72
    65
 73
     2
 40
9.524999999999996
 49
6.349999999999998
 74
     0
 49
-3.174999999999998
 74
     0
  0
LTYPE
  5
B75
330
1C
100
AcDbSymbolTableRecord
100
AcDbLinetypeTableRecord
  2
PHANTOM2
 70
     0
  3
Phantom (.5x) ___ _ _ ___ _ _ ___ _ _ ___ _ _
 72
    65
 73
     6
 40
31.75
 49
15.875
 74
     0
 49
-3.174999999999998
 74
     0
 49
3.174999999999998
 74
     0
 49
-3.174999999999998
 74
     0
 49
3.174999999999998
 74
     0
 49
-3.174999999999998
 74
     0
  0
LTYPE
  5
BA9
330
1C
100
AcDbSymbolTableRecord
100
AcDbLinetypeTableRecord
  2
AM_ISO02W050
 70
     0
  3
__ __ __ __ __ __ __ __ __ __ __ __ __ __ __
 72
    65
 73
     2
 40
7.5
 49
6.0
 74
     0
 49
-1.5
 74
     0
  0
LTYPE
  5
BAA
330
1C
100
AcDbSymbolTableRecord
100
AcDbLinetypeTableRecord
  2
AM_ISO08W050
 70
     0
  3
____ . ____ . ____ . ____ . ____ . ____ . ____
 72
    65
 73
     4
 40
18.0
 49
12.0
 74
     0
 49
-1.5
 74
     0
 49
3.0
 74
     0
 49
-1.5
 74
     0
  0
LTYPE
  5
BAB
330
1C
100
AcDbSymbolTableRecord
100
AcDbLinetypeTableRecord
  2
AM_ISO09W050
 70
     0
  3
_____ . . _____ . . _____ . . ____ .. ____
 72
    65
 73
     6
 40
22.5
 49
12.0
 74
     0
 49
-1.5
 74
     0
 49
3.0
 74
     0
 49
-1.5
 74
     0
 49
3.0
 74
     0
 49
-1.5
 74
     0
  0
LTYPE
  5
BAC
330
1C
100
AcDbSymbolTableRecord
100
AcDbLinetypeTableRecord
  2
Amconstr
 70
     0
  3
_______________________
 72
    65
 73
     2
 40
9999.0
 49
9999.0
 74
     0
 49
0.0
 74
     0
  0
LTYPE
  5
BAD
330
1C
100
AcDbSymbolTableRecord
100
AcDbLinetypeTableRecord
  2
AM_ISO02W050x2
 70
     0
  3
 _ _ _ _ _ _ _ _ _ _ _ _
 72
    65
 73
     2
 40
3.75
 49
3.0
 74
     0
 49
-0.75
 74
     0
  0
LTYPE
  5
BB0
330
1C
100
AcDbSymbolTableRecord
100
AcDbLinetypeTableRecord
  2
Amzigzag
 70
     0
  3
/\/-/\/-/\/-/\/-/\/-/\/
 72
    65
 73
     2
 40
11.0001
 49
0.0001
 74
     4
 75
   135
340
BAF
 46
0.04
 50
0.0
 44
0.0
 45
0.0
 49
-11.0
 74
     0
  0
LTYPE
  5
BBF
330
1C
100
AcDbSymbolTableRecord
100
AcDbLinetypeTableRecord
  2
ACISOWELD
 70
     0
  3
_ _ _ _ _
 72
    65
 73
     2
 40
2.0
 49
2.0
 74
     0
 49
-1.0
 74
     0
  0
LTYPE
  5
BC0
330
1C
100
AcDbSymbolTableRecord
100
AcDbLinetypeTableRecord
  2
ACISOTGB
 70
     0
  3
__ . . __ . .
 72
    65
 73
     6
 40
9.0
 49
4.0
 74
     0
 49
-1.0
 74
     0
 49
1.0
 74
     0
 49
-1.0
 74
     0
 49
1.0
 74
     0
 49
-1.0
 74
     0
  0
LTYPE
  5
BC1
330
1C
100
AcDbSymbolTableRecord
100
AcDbLinetypeTableRecord
  2
ACISOTGL
 70
     0
  3
_ _ _ _ _
 72
    65
 73
     2
 40
3.0
 49
2.0
 74
     0
 49
-1.0
 74
     0
  0
ENDTAB
  0
TABLE
  2
LAYER
  5
16
102
{ACAD_XDICTIONARY
360
17
102
}
330
0
100
AcDbSymbolTable
 70
     8
  0
LAYER
  5
5
330
16
100
AcDbSymbolTableRecord
100
AcDbLayerTableRecord
  2
0
 70
     0
 62
     7
  6
CONTINUOUS
370
    -3
390
6
  0
LAYER
  5
5F
330
16
100
AcDbSymbolTableRecord
100
AcDbLayerTableRecord
  2
Defpoints
 70
     0
 62
     7
  6
CONTINUOUS
290
     0
370
    -3
390
6
  0
LAYER
  5
13E
330
16
100
AcDbSymbolTableRecord
100
AcDbLayerTableRecord
  2
AM_VIS
 70
     0
 62
     7
  6
CONTINUOUS
370
    50
390
6
  0
LAYER
  5
33
330
16
100
AcDbSymbolTableRecord
100
AcDbLayerTableRecord
  2
AM_7
 70
     0
 62
     1
  6
CENTER
370
    25
390
6
  0
LAYER
  5
36
330
16
100
AcDbSymbolTableRecord
100
AcDbLayerTableRecord
  2
AM_4
 70
     0
 62
     3
  6
CONTINUOUS
370
    25
390
6
  0
LAYER
  5
C5
330
16
100
AcDbSymbolTableRecord
100
AcDbLayerTableRecord
  2
LOGO
 70
     0
 62
     7
  6
CONTINUOUS
370
    -3
390
6
  0
LAYER
  5
11D8
330
16
100
AcDbSymbolTableRecord
100
AcDbLayerTableRecord
  2
AM_5
 70
     0
 62
     5
  6
CONTINUOUS
370
    25
390
6
  0
LAYER
  5
1591
330
16
100
AcDbSymbolTableRecord
100
AcDbLayerTableRecord
  2
AM_REFDIM
 70
     0
 62
     5
  6
CONTINUOUS
370
    25
390
6
  0
ENDTAB
  0
TABLE
  2
STYLE
  5
19
330
0
100
AcDbSymbolTable
 70
     5
  0
STYLE
  5
1A
330
19
100
AcDbSymbolTableRecord
100
AcDbTextStyleTableRecord
  2
STANDARD
 70
     0
 40
0.0
 41
1.0
 50
0.0
 71
     0
 42
1.0
  3
ISOCP.SHX
  4
CHINESET.SHX
  0
STYLE
  5
CB
330
19
100
AcDbSymbolTableRecord
100
AcDbTextStyleTableRecord
  2
CHINESET
 70
     0
 40
0.0
 41
0.75
 50
0.0
 71
     0
 42
3.0
  3
simplex.shx
  4
CHINESET.SHX
  0
STYLE
  5
BAF
330
19
100
AcDbSymbolTableRecord
100
AcDbTextStyleTableRecord
  2

 70
     1
 40
0.0
 41
1.0
 50
0.0
 71
     0
 42
1.0
  3
ltypeshp.shx
  4

  0
STYLE
  5
BB1
330
19
100
AcDbSymbolTableRecord
100
AcDbTextStyleTableRecord
  2
ACISOTS
 70
     0
 40
1.0
 41
1.0
 50
0.0
 71
     0
 42
1.0
  3
isocp.shx
  4
chineset.shx
  0
STYLE
  5
BBE
330
19
100
AcDbSymbolTableRecord
100
AcDbTextStyleTableRecord
  2
ACISOGDT
 70
     0
 40
0.0
 41
1.0
 50
0.0
 71
     0
 42
1.0
  3
amgdt.shx
  4

  0
ENDTAB
  0
TABLE
  2
VIEW
  5
1F
330
0
100
AcDbSymbolTable
 70
     0
  0
ENDTAB
  0
TABLE
  2
UCS
  5
20
330
0
100
AcDbSymbolTable
 70
     0
  0
ENDTAB
  0
TABLE
  2
APPID
  5
23
330
0
100
AcDbSymbolTable
 70
    22
  0
APPID
  5
24
330
23
100
AcDbSymbolTableRecord
100
AcDbRegAppTableRecord
  2
ACAD
 70
     0
  0
APPID
  5
C7
330
23
100
AcDbSymbolTableRecord
100
AcDbRegAppTableRecord
  2
GENIUS_GENODEF_13
 70
     0
  0
APPID
  5
15
330
23
100
AcDbSymbolTableRecord
100
AcDbRegAppTableRecord
  2
ACAD_PSEXT
 70
     0
  0
APPID
  5
137
330
23
100
AcDbSymbolTableRecord
100
AcDbRegAppTableRecord
  2
GENIUS_GENOREF_13
 70
     0
  0
APPID
  5
C6
330
23
100
AcDbSymbolTableRecord
100
AcDbRegAppTableRecord
  2
GENIUS_GENREC_14
 70
     0
  0
APPID
  5
C8
330
23
100
AcDbSymbolTableRecord
100
AcDbRegAppTableRecord
  2
GENIUS_GENOBJ-N-REC_13
 70
     0
  0
APPID
  5
B47
330
23
100
AcDbSymbolTableRecord
100
AcDbRegAppTableRecord
  2
MCAD_NO_VIS
 70
     0
  0
APPID
  5
B48
330
23
100
AcDbSymbolTableRecord
100
AcDbRegAppTableRecord
  2
ACAD_TEMP_GRAPHIC
 70
     0
  0
APPID
  5
B77
330
23
100
AcDbSymbolTableRecord
100
AcDbRegAppTableRecord
  2
AD_DRAW
 70
     0
  0
APPID
  5
B7A
330
23
100
AcDbSymbolTableRecord
100
AcDbRegAppTableRecord
  2
ACATTRIBSERVICES
 70
     0
  0
APPID
  5
B98
330
23
100
AcDbSymbolTableRecord
100
AcDbRegAppTableRecord
  2
DESIGNERASSEMBLIES
 70
     0
  0
APPID
  5
B9E
330
23
100
AcDbSymbolTableRecord
100
AcDbRegAppTableRecord
  2
ACADM_DIM_EDIT
 70
     0
  0
APPID
  5
B9F
330
23
100
AcDbSymbolTableRecord
100
AcDbRegAppTableRecord
  2
AMDT_DM_ADJ
 70
     0
  0
APPID
  5
C72
330
23
100
AcDbSymbolTableRecord
100
AcDbRegAppTableRecord
  2
GENIUS_GENDIM_13
 70
     0
  0
APPID
  5
C73
330
23
100
AcDbSymbolTableRecord
100
AcDbRegAppTableRecord
  2
GENIUS_GENDTOL_13
 70
     0
  0
APPID
  5
C74
330
23
100
AcDbSymbolTableRecord
100
AcDbRegAppTableRecord
  2
GENIUS_GE3DTOL_13
 70
     0
  0
APPID
  5
CC6
330
23
100
AcDbSymbolTableRecord
100
AcDbRegAppTableRecord
  2
ASURF_PCURVE_APPNAME
 70
     0
  0
APPID
  5
CCA
330
23
100
AcDbSymbolTableRecord
100
AcDbRegAppTableRecord
  2
AMG_3D2D_5.0
 70
     0
  0
APPID
  5
D59
330
23
100
AcDbSymbolTableRecord
100
AcDbRegAppTableRecord
  2
GENIUS_GENDIMSH_14
 70
     0
  0
APPID
  5
11F8
330
23
100
AcDbSymbolTableRecord
100
AcDbRegAppTableRecord
  2
ACAD_DSTYLE_DIMTEXT_FILL
 70
     0
  0
APPID
  5
14BA
330
23
100
AcDbSymbolTableRecord
100
AcDbRegAppTableRecord
  2
GENIUS_GENFIL_13
 70
     0
  0
APPID
  5
14BB
330
23
100
AcDbSymbolTableRecord
100
AcDbRegAppTableRecord
  2
GENIUS_GENOBJ-N-CHA_13
 70
     0
  0
ENDTAB
  0
TABLE
  2
DIMSTYLE
  5
25
330
0
100
AcDbSymbolTable
 70
    10
100
AcDbDimStyleTable
 71
     1
340
26
  0
DIMSTYLE
105
26
330
25
100
AcDbSymbolTableRecord
100
AcDbDimStyleTableRecord
  2
AM_ISO
 70
     0
  4
"
 41
2.5
 42
1.0
 43
7.5
 44
1.0
 47
0.1
 48
0.1
 73
     0
 74
     0
 77
     1
 78
     8
 79
     2
140
3.5
141
0.0
143
0.0393701
146
0.71
147
1.0
172
     1
176
   256
177
   256
178
   256
271
     2
272
     2
283
     0
284
     8
285
     8
340
1A
371
    -1
372
    -1
  0
DIMSTYLE
105
BA
330
25
100
AcDbSymbolTableRecord
100
AcDbDimStyleTableRecord
  2
AM_ISO$3
 70
     0
  4
"
 41
2.5
 42
1.0
 43
10.0
 44
1.0
 47
0.1
 48
0.1
 73
     0
 77
     1
 78
     8
 79
     2
140
3.5
141
0.0
143
0.0393701
146
0.71
147
1.5
176
   256
177
   256
178
   256
271
     2
272
     3
274
     4
283
     0
284
     8
288
     1
289
     0
340
1A
371
    -1
372
    -1
  0
DIMSTYLE
105
55
102
{ACAD_REACTORS
330
226E
330
22B9
330
22D3
330
23E1
330
2427
330
2453
330
24FF
330
2515
330
252B
330
2615
330
262B
330
2653
330
267B
330
2691
330
26C7
330
2706
330
2725
330
273B
330
2855
330
2856
330
2881
330
2883
330
2884
330
2885
102
}
330
25
100
AcDbSymbolTableRecord
100
AcDbDimStyleTableRecord
  2
AM_ISO$0
 70
     0
  4
"
 41
2.5
 42
1.0
 43
7.5
 44
1.0
 47
0.1
 48
0.1
 73
     0
 74
     0
 77
     1
 78
     8
 79
     2
140
3.5
141
0.0
143
0.0393701
146
0.71
147
1.0
172
     1
176
   256
177
   256
178
   256
271
     2
272
     2
283
     0
284
     8
285
     8
340
1A
371
    -1
372
    -1
  0
DIMSTYLE
105
BCA
102
{ACAD_REACTORS
330
2296
330
2400
330
256E
330
2654
330
26E6
330
2882
102
}
330
25
100
AcDbSymbolTableRecord
100
AcDbDimStyleTableRecord
  2
AM_ISO$4
 70
     0
  4
"
 41
2.5
 42
1.0
 43
7.5
 44
1.0
 47
0.1
 48
0.1
 73
     0
 77
     1
 78
     8
 79
     2
140
3.5
141
0.0
143
0.0393701
146
0.71
147
1.0
176
   256
177
   256
178
   256
271
     2
272
     2
283
     0
284
     8
285
     8
288
     1
289
     0
340
1A
371
    -1
372
    -1
  0
DIMSTYLE
105
BCB
330
25
100
AcDbSymbolTableRecord
100
AcDbDimStyleTableRecord
  2
AM_ISO$6
 70
     0
  4
"
 41
2.5
 42
1.0
 43
7.5
 44
1.0
 47
0.1
 48
0.1
 73
     0
 74
     0
 78
     8
 79
     2
140
3.5
141
0.0
143
0.0393701
146
0.71
147
1.0
172
     1
176
   256
177
   256
178
   256
271
     2
272
     2
283
     0
284
     8
285
     8
340
1A
371
    -1
372
    -1
  0
DIMSTYLE
105
BCC
102
{ACAD_REACTORS
330
22EA
102
}
330
25
100
AcDbSymbolTableRecord
100
AcDbDimStyleTableRecord
  2
AM_ISO$7
 70
     0
  4
"
 41
2.5
 42
1.0
 43
7.5
 44
1.0
 47
0.1
 48
0.1
 73
     0
 74
     0
 77
     1
 78
     8
 79
     2
140
3.5
141
0.0
143
0.0393701
146
0.71
147
1.0
172
     1
176
   256
177
   256
178
   256
271
     2
272
     2
283
     0
284
     8
285
     8
340
1A
371
    -1
372
    -1
  0
DIMSTYLE
105
BCD
330
25
100
AcDbSymbolTableRecord
100
AcDbDimStyleTableRecord
  2
AM_ISO$SF
 70
     0
  4
"
 41
2.5
 42
1.0
 43
7.5
 44
1.0
 47
0.1
 48
0.1
 73
     0
 74
     0
 75
     1
 76
     1
 77
     1
 78
     8
 79
     2
140
3.5
141
0.0
143
0.0393701
146
0.71
147
1.0
172
     1
176
   256
177
   256
178
   256
271
     2
272
     2
283
     0
284
     8
285
     8
340
1A
371
    -1
372
    -1
  0
DIMSTYLE
105
BD2
330
25
100
AcDbSymbolTableRecord
100
AcDbDimStyleTableRecord
  2
AM_ISO$SH
 70
     0
  4
"
 41
2.5
 42
1.0
 43
7.5
 44
1.0
 47
0.1
 48
0.1
 73
     0
 74
     0
 75
     1
 76
     1
 77
     1
 78
     8
 79
     2
140
3.5
141
0.0
143
0.0393701
144
2.0
146
0.71
147
1.0
172
     1
173
     1
176
   256
177
   256
178
   256
271
     2
272
     2
283
     0
284
     8
285
     8
340
1A
343
BCE
371
    -1
372
    -1
  0
DIMSTYLE
105
1592
330
25
100
AcDbSymbolTableRecord
100
AcDbDimStyleTableRecord
  2
STANDARD
 70
     0
 40
0.5
 41
3.0
 42
2.0
 43
7.0
 44
2.0
 73
     0
 74
     0
 77
     1
 78
     8
 79
     2
140
3.0
141
-1.0
144
3.333333333333333
147
1.0
176
   256
177
   256
178
   256
271
     2
272
     2
340
CB
371
    -1
372
    -1
  0
DIMSTYLE
105
2229
330
25
100
AcDbSymbolTableRecord
100
AcDbDimStyleTableRecord
  2
AM_ANSI
 70
     0
  4
mm
 41
0.1
 42
0.05
 43
0.5
 44
0.1
 47
0.1
 48
0.1
 78
     7
 79
     2
140
0.12
141
0.0
146
0.71
147
0.06
176
   256
177
   256
178
     2
274
     4
284
     7
340
1A
371
    -1
372
    -1
  0
ENDTAB
  0
TABLE
  2
BLOCK_RECORD
  5
1
330
0
100
AcDbSymbolTable
 70
    67
  0
BLOCK_RECORD
  5
2
102
{ACAD_XDICTIONARY
360
3
102
}
330
1
100
AcDbSymbolTableRecord
100
AcDbBlockTableRecord
  2
*MODEL_SPACE
340
B
  0
BLOCK_RECORD
  5
D
102
{ACAD_XDICTIONARY
360
E
102
}
330
1
100
AcDbSymbolTableRecord
100
AcDbBlockTableRecord
  2
*PAPER_SPACE
340
12
  0
BLOCK_RECORD
  5
BCE
330
1
100
AcDbSymbolTableRecord
100
AcDbBlockTableRecord
  2
GENAXEH
340
0
  0
BLOCK_RECORD
  5
1A2B
330
1
100
AcDbSymbolTableRecord
100
AcDbBlockTableRecord
  2
_DotSmall
340
0
  0
BLOCK_RECORD
  5
1FF7
330
1
100
AcDbSymbolTableRecord
100
AcDbBlockTableRecord
  2
GENDOT
340
0
102
{BLKREFS
331
2000
331
200A
331
21F8
331
2202
102
}
  0
BLOCK_RECORD
  5
226F
330
1
100
AcDbSymbolTableRecord
100
AcDbBlockTableRecord
  2
*D37
340
0
  0
BLOCK_RECORD
  5
2297
330
1
100
AcDbSymbolTableRecord
100
AcDbBlockTableRecord
  2
*D38
340
0
  0
BLOCK_RECORD
  5
22BA
330
1
100
AcDbSymbolTableRecord
100
AcDbBlockTableRecord
  2
*D39
340
0
  0
BLOCK_RECORD
  5
22D4
330
1
100
AcDbSymbolTableRecord
100
AcDbBlockTableRecord
  2
*D40
340
0
  0
BLOCK_RECORD
  5
23E2
330
1
100
AcDbSymbolTableRecord
100
AcDbBlockTableRecord
  2
*D41
340
0
  0
BLOCK_RECORD
  5
2401
330
1
100
AcDbSymbolTableRecord
100
AcDbBlockTableRecord
  2
*D42
340
0
  0
BLOCK_RECORD
  5
2428
330
1
100
AcDbSymbolTableRecord
100
AcDbBlockTableRecord
  2
*D43
340
0
  0
BLOCK_RECORD
  5
2454
330
1
100
AcDbSymbolTableRecord
100
AcDbBlockTableRecord
  2
*D44
340
0
  0
BLOCK_RECORD
  5
2500
330
1
100
AcDbSymbolTableRecord
100
AcDbBlockTableRecord
  2
*D45
340
0
  0
BLOCK_RECORD
  5
2516
330
1
100
AcDbSymbolTableRecord
100
AcDbBlockTableRecord
  2
*D46
340
0
  0
BLOCK_RECORD
  5
252C
330
1
100
AcDbSymbolTableRecord
100
AcDbBlockTableRecord
  2
*D47
340
0
  0
BLOCK_RECORD
  5
256F
330
1
100
AcDbSymbolTableRecord
100
AcDbBlockTableRecord
  2
*D48
340
0
  0
BLOCK_RECORD
  5
2616
330
1
100
AcDbSymbolTableRecord
100
AcDbBlockTableRecord
  2
*D49
340
0
  0
BLOCK_RECORD
  5
262C
330
1
100
AcDbSymbolTableRecord
100
AcDbBlockTableRecord
  2
*D50
340
0
  0
BLOCK_RECORD
  5
2657
330
1
100
AcDbSymbolTableRecord
100
AcDbBlockTableRecord
  2
*D51
340
0
  0
BLOCK_RECORD
  5
2663
330
1
100
AcDbSymbolTableRecord
100
AcDbBlockTableRecord
  2
*D52
340
0
  0
BLOCK_RECORD
  5
267C
330
1
100
AcDbSymbolTableRecord
100
AcDbBlockTableRecord
  2
*D53
340
0
  0
BLOCK_RECORD
  5
2692
330
1
100
AcDbSymbolTableRecord
100
AcDbBlockTableRecord
  2
*D54
340
0
  0
BLOCK_RECORD
  5
26C8
330
1
100
AcDbSymbolTableRecord
100
AcDbBlockTableRecord
  2
*D55
340
0
  0
BLOCK_RECORD
  5
26E7
330
1
100
AcDbSymbolTableRecord
100
AcDbBlockTableRecord
  2
*D56
340
0
  0
BLOCK_RECORD
  5
2707
330
1
100
AcDbSymbolTableRecord
100
AcDbBlockTableRecord
  2
*D57
340
0
  0
BLOCK_RECORD
  5
2726
330
1
100
AcDbSymbolTableRecord
100
AcDbBlockTableRecord
  2
*D58
340
0
  0
BLOCK_RECORD
  5
273C
330
1
100
AcDbSymbolTableRecord
100
AcDbBlockTableRecord
  2
*D59
340
0
  0
BLOCK_RECORD
  5
2857
330
1
100
AcDbSymbolTableRecord
100
AcDbBlockTableRecord
  2
*D60
340
0
  0
BLOCK_RECORD
  5
2863
330
1
100
AcDbSymbolTableRecord
100
AcDbBlockTableRecord
  2
*D61
340
0
  0
BLOCK_RECORD
  5
2886
330
1
100
AcDbSymbolTableRecord
100
AcDbBlockTableRecord
  2
*D62
340
0
  0
BLOCK_RECORD
  5
2892
330
1
100
AcDbSymbolTableRecord
100
AcDbBlockTableRecord
  2
*D63
340
0
  0
BLOCK_RECORD
  5
289B
330
1
100
AcDbSymbolTableRecord
100
AcDbBlockTableRecord
  2
*D64
340
0
  0
BLOCK_RECORD
  5
28A7
330
1
100
AcDbSymbolTableRecord
100
AcDbBlockTableRecord
  2
*D65
340
0
  0
BLOCK_RECORD
  5
28B3
330
1
100
AcDbSymbolTableRecord
100
AcDbBlockTableRecord
  2
*D66
340
0
  0
ENDTAB
  0
ENDSEC
  0
SECTION
  2
BLOCKS
  0
BLOCK
  5
4
330
2
100
AcDbEntity
  8
0
100
AcDbBlockBegin
  2
*MODEL_SPACE
 70
     0
 10
0.0
 20
0.0
 30
0.0
  3
*MODEL_SPACE
  1

  0
ENDBLK
  5
A
330
2
100
AcDbEntity
  8
0
100
AcDbBlockEnd
  0
BLOCK
  5
10
330
D
100
AcDbEntity
 67
     1
  8
0
100
AcDbBlockBegin
  2
*PAPER_SPACE
 70
     0
 10
0.0
 20
0.0
 30
0.0
  3
*PAPER_SPACE
  1

  0
ENDBLK
  5
11
330
D
100
AcDbEntity
 67
     1
  8
0
100
AcDbBlockEnd
  0
BLOCK
  5
BD0
330
BCE
100
AcDbEntity
  8
0
 62
     6
100
AcDbBlockBegin
  2
GENAXEH
 70
     0
 10
0.0
 20
0.0
 30
0.0
  3
GENAXEH
  1

  0
LINE
  5
BCF
330
BCE
100
AcDbEntity
  8
0
100
AcDbLine
 10
-1.0
 20
0.0
 30
0.0
 11
1.0
 21
0.0
 31
0.0
  0
ENDBLK
  5
BD1
330
BCE
100
AcDbEntity
  8
0
 62
     6
100
AcDbBlockEnd
  0
BLOCK
  5
1A2D
330
1A2B
100
AcDbEntity
  8
0
100
AcDbBlockBegin
  2
_DotSmall
 70
     0
 10
0.0
 20
0.0
 30
0.0
  3
_DotSmall
  1

  0
LWPOLYLINE
  5
1A2C
330
1A2B
100
AcDbEntity
  8
0
  6
ByBlock
 62
     0
100
AcDbPolyline
 90
        2
 70
     1
 43
0.5
 10
-0.0625
 20
0.0
 42
1.0
 10
0.0625
 20
0.0
 42
1.0
  0
ENDBLK
  5
1A2E
330
1A2B
100
AcDbEntity
  8
0
100
AcDbBlockEnd
  0
BLOCK
  5
1FFA
330
1FF7
100
AcDbEntity
  8
0
100
AcDbBlockBegin
  2
GENDOT
 70
     0
 10
0.0
 20
0.0
 30
0.0
  3
GENDOT
  1

  0
LINE
  5
1FF8
330
1FF7
100
AcDbEntity
  8
0
100
AcDbLine
 10
0.0
 20
0.0
 30
0.0
 11
-1.0
 21
0.0
 31
0.0
  0
LWPOLYLINE
  5
1FF9
330
1FF7
100
AcDbEntity
  8
0
100
AcDbPolyline
 90
        2
 70
     1
 43
0.25
 10
-0.125
 20
0.0
 42
1.0
 10
0.125
 20
0.0
 42
1.0
  0
ENDBLK
  5
1FFB
330
1FF7
100
AcDbEntity
  8
0
100
AcDbBlockEnd
  0
BLOCK
  5
2279
330
226F
100
AcDbEntity
  8
0
100
AcDbBlockBegin
  2
*D37
 70
     1
 10
0.0
 20
0.0
 30
0.0
  3
*D37
  1

  0
LINE
  5
2945
330
226F
100
AcDbEntity
  8
AM_5
100
AcDbLine
 10
88.58034023340342
 20
241.8456804492899
 30
0.0
 11
101.4715961112129
 21
241.8456804492899
 31
0.0
  0
LINE
  5
2946
330
226F
100
AcDbEntity
  8
AM_5
100
AcDbLine
 10
88.58034023340342
 20
225.84568044929
 30
0.0
 11
101.4715961112129
 21
225.84568044929
 31
0.0
  0
LINE
  5
2947
330
226F
100
AcDbEntity
  8
AM_5
100
AcDbLine
 10
100.4715961112129
 20
239.3456804492899
 30
0.0
 11
100.4715961112129
 21
228.34568044929
 31
0.0
  0
SOLID
  5
2948
330
226F
100
AcDbEntity
  8
AM_5
100
AcDbTrace
 10
100.0549294445462
 20
239.3456804492899
 30
0.0
 11
100.8882627778796
 21
239.3456804492899
 31
0.0
 12
100.4715961112129
 22
241.8456804492899
 32
0.0
 13
100.4715961112129
 23
241.8456804492899
 33
0.0
  0
SOLID
  5
2949
330
226F
100
AcDbEntity
  8
AM_5
100
AcDbTrace
 10
100.0549294445462
 20
228.34568044929
 30
0.0
 11
100.8882627778796
 21
228.34568044929
 31
0.0
 12
100.4715961112129
 22
225.84568044929
 32
0.0
 13
100.4715961112129
 23
225.84568044929
 33
0.0
  0
MTEXT
  5
294A
330
226F
100
AcDbEntity
  8
AM_5
100
AcDbMText
 10
97.72159611121288
 20
233.8825155479097
 30
0.0
 40
3.5
 41
0.0
 71
     5
 72
     1
  1
%%c16
 11
0.0000000000000001
 21
1.0
 31
0.0
 73
     1
 44
1.0
1001
ACAD
1000
MTEXTBEGIN
1070
    73
1070
     1
1070
    44
1040
1.0
1070
    74
1070
     0
1000
MTEXTEND
  0
POINT
  5
294B
330
226F
100
AcDbEntity
  8
Defpoints
 62
     0
100
AcDbPoint
 10
87.58034023340343
 20
241.8456804492899
 30
0.0
  0
POINT
  5
294C
330
226F
100
AcDbEntity
  8
Defpoints
 62
     0
100
AcDbPoint
 10
87.58034023340343
 20
225.84568044929
 30
0.0
  0
POINT
  5
294D
330
226F
100
AcDbEntity
  8
Defpoints
 62
     0
100
AcDbPoint
 10
100.4715961112129
 20
225.84568044929
 30
0.0
  0
ENDBLK
  5
227A
330
226F
100
AcDbEntity
  8
0
100
AcDbBlockEnd
  0
BLOCK
  5
229D
330
2297
100
AcDbEntity
  8
0
100
AcDbBlockBegin
  2
*D38
 70
     1
 10
0.0
 20
0.0
 30
0.0
  3
*D38
  1

  0
LINE
  5
293F
330
2297
100
AcDbEntity
  8
AM_5
100
AcDbLine
 10
88.56367038956198
 20
244.2369287688444
 30
0.0
 11
89.10996492076112
 21
246.6765111685968
 31
0.0
  0
LINE
  5
2940
330
2297
100
AcDbEntity
  8
AM_5
100
AcDbLine
 10
89.10996492076112
 20
246.6765111685968
 30
0.0
 11
97.9549396675917
 21
246.6765111685968
 31
0.0
  0
SOLID
  5
2941
330
2297
100
AcDbEntity
  8
AM_5
100
AcDbTrace
 10
88.15707332293658
 20
244.3279778573776
 30
0.0
 11
88.97026745618738
 21
244.1458796803113
 31
0.0
 12
88.01737585836283
 22
241.7973463690919
 32
0.0
 13
88.01737585836283
 23
241.7973463690919
 33
0.0
  0
MTEXT
  5
2942
330
2297
100
AcDbEntity
  8
AM_5
100
AcDbMText
 10
94.03245229417638
 20
249.4265111685968
 30
0.0
 40
3.5
 41
0.0
 71
     5
 72
     1
  1
R0.5
 73
     1
 44
1.0
1001
ACAD
1000
MTEXTBEGIN
1070
    73
1070
     1
1070
    44
1040
1.0
1070
    74
1070
     0
1000
MTEXTEND
  0
POINT
  5
2943
330
2297
100
AcDbEntity
  8
Defpoints
 62
     0
100
AcDbPoint
 10
88.01737585836283
 20
241.7973463690919
 30
0.0
  0
POINT
  5
2944
330
2297
100
AcDbEntity
  8
Defpoints
 62
     0
100
AcDbPoint
 10
87.58034023340355
 20
239.8456804492901
 30
0.0
  0
ENDBLK
  5
229E
330
2297
100
AcDbEntity
  8
0
100
AcDbBlockEnd
  0
BLOCK
  5
22C6
330
22BA
100
AcDbEntity
  8
0
100
AcDbBlockBegin
  2
*D39
 70
     1
 10
0.0
 20
0.0
 30
0.0
  3
*D39
  1

  0
LINE
  5
2934
330
22BA
100
AcDbEntity
  8
AM_5
100
AcDbLine
 10
57.49664352341774
 20
228.8539018518449
 30
0.0
 11
57.49664352341774
 21
216.24568044929
 31
0.0
  0
LINE
  5
2935
330
22BA
100
AcDbEntity
  8
AM_5
100
AcDbLine
 10
63.69664352341775
 20
224.8456804492899
 30
0.0
 11
63.69664352341775
 21
216.24568044929
 31
0.0
  0
LINE
  5
2936
330
22BA
100
AcDbEntity
  8
AM_5
100
AcDbLine
 10
66.19664352341775
 20
217.2456804492899
 30
0.0
 11
68.69664352341775
 21
217.2456804492899
 31
0.0
  0
LINE
  5
2937
330
22BA
100
AcDbEntity
  8
AM_5
100
AcDbLine
 10
54.99664352341774
 20
217.2456804492899
 30
0.0
 11
45.17698801160672
 21
217.2456804492899
 31
0.0
  0
LINE
  5
2938
330
22BA
100
AcDbEntity
  8
AM_5
100
AcDbLine
 10
63.69664352341775
 20
217.2456804492899
 30
0.0
 11
57.49664352341774
 21
217.2456804492899
 31
0.0
  0
SOLID
  5
2939
330
22BA
100
AcDbEntity
  8
AM_5
100
AcDbTrace
 10
66.19664352341775
 20
217.6623471159566
 30
0.0
 11
66.19664352341775
 21
216.8290137826233
 31
0.0
 12
63.69664352341775
 22
217.2456804492899
 32
0.0
 13
63.69664352341775
 23
217.2456804492899
 33
0.0
  0
SOLID
  5
293A
330
22BA
100
AcDbEntity
  8
AM_5
100
AcDbTrace
 10
54.99664352341774
 20
217.6623471159566
 30
0.0
 11
54.99664352341774
 21
216.8290137826233
 31
0.0
 12
57.49664352341774
 22
217.2456804492899
 32
0.0
 13
57.49664352341774
 23
217.2456804492899
 33
0.0
  0
MTEXT
  5
293B
330
22BA
100
AcDbEntity
  8
AM_5
100
AcDbMText
 10
48.83681576751222
 20
219.9960249374789
 30
0.0
 40
3.5
 41
0.0
 71
     5
 72
     1
  1
6.2
 73
     1
 44
1.0
1001
ACAD
1000
MTEXTBEGIN
1070
    73
1070
     1
1070
    44
1040
1.0
1070
    74
1070
     0
1000
MTEXTEND
  0
POINT
  5
293C
330
22BA
100
AcDbEntity
  8
Defpoints
 62
     0
100
AcDbPoint
 10
57.49664352341774
 20
229.8539018518449
 30
0.0
  0
POINT
  5
293D
330
22BA
100
AcDbEntity
  8
Defpoints
 62
     0
100
AcDbPoint
 10
63.69664352341775
 20
225.84568044929
 30
0.0
  0
POINT
  5
293E
330
22BA
100
AcDbEntity
  8
Defpoints
 62
     0
100
AcDbPoint
 10
63.69664352341775
 20
217.2456804492899
 30
0.0
  0
ENDBLK
  5
22C7
330
22BA
100
AcDbEntity
  8
0
100
AcDbBlockEnd
  0
BLOCK
  5
22DE
330
22D4
100
AcDbEntity
  8
0
100
AcDbBlockBegin
  2
*D40
 70
     1
 10
0.0
 20
0.0
 30
0.0
  3
*D40
  1

  0
LINE
  5
292B
330
22D4
100
AcDbEntity
  8
AM_5
100
AcDbLine
 10
57.49664352341774
 20
228.8539018518449
 30
0.0
 11
57.49664352341774
 21
208.74568044929
 31
0.0
  0
LINE
  5
292C
330
22D4
100
AcDbEntity
  8
AM_5
100
AcDbLine
 10
90.49131619616703
 20
232.3456804492896
 30
0.0
 11
90.49131619616703
 21
208.74568044929
 31
0.0
  0
LINE
  5
292D
330
22D4
100
AcDbEntity
  8
AM_5
100
AcDbLine
 10
59.99664352341774
 20
209.74568044929
 30
0.0
 11
87.99131619616703
 21
209.74568044929
 31
0.0
  0
SOLID
  5
292E
330
22D4
100
AcDbEntity
  8
AM_5
100
AcDbTrace
 10
59.99664352341774
 20
210.1623471159566
 30
0.0
 11
59.99664352341774
 21
209.3290137826234
 31
0.0
 12
57.49664352341774
 22
209.74568044929
 32
0.0
 13
57.49664352341774
 23
209.74568044929
 33
0.0
  0
SOLID
  5
292F
330
22D4
100
AcDbEntity
  8
AM_5
100
AcDbTrace
 10
87.99131619616703
 20
210.1623471159566
 30
0.0
 11
87.99131619616703
 21
209.3290137826234
 31
0.0
 12
90.49131619616703
 22
209.74568044929
 32
0.0
 13
90.49131619616703
 23
209.74568044929
 33
0.0
  0
MTEXT
  5
2930
330
22D4
100
AcDbEntity
  8
AM_5
100
AcDbMText
 10
73.99397985979239
 20
212.49568044929
 30
0.0
 40
3.5
 41
0.0
 71
     5
 72
     1
  1
33
 73
     1
 44
1.0
1001
ACAD
1000
MTEXTBEGIN
1070
    73
1070
     1
1070
    44
1040
1.0
1070
    74
1070
     0
1000
MTEXTEND
  0
POINT
  5
2931
330
22D4
100
AcDbEntity
  8
Defpoints
 62
     0
100
AcDbPoint
 10
57.49664352341774
 20
229.8539018518449
 30
0.0
  0
POINT
  5
2932
330
22D4
100
AcDbEntity
  8
Defpoints
 62
     0
100
AcDbPoint
 10
90.49131619616703
 20
233.3456804492896
 30
0.0
  0
POINT
  5
2933
330
22D4
100
AcDbEntity
  8
Defpoints
 62
     0
100
AcDbPoint
 10
90.49131619616703
 20
209.74568044929
 30
0.0
  0
ENDBLK
  5
22DF
330
22D4
100
AcDbEntity
  8
0
100
AcDbBlockEnd
  0
BLOCK
  5
23EC
330
23E2
100
AcDbEntity
  8
0
100
AcDbBlockBegin
  2
*D41
 70
     1
 10
0.0
 20
0.0
 30
0.0
  3
*D41
  1

  0
LINE
  5
2922
330
23E2
100
AcDbEntity
  8
AM_5
100
AcDbLine
 10
217.1008498962415
 20
243.5956804492899
 30
0.0
 11
229.1008498962415
 21
243.5956804492899
 31
0.0
  0
LINE
  5
2923
330
23E2
100
AcDbEntity
  8
AM_5
100
AcDbLine
 10
217.1008498962415
 20
224.09568044929
 30
0.0
 11
229.1008498962415
 21
224.09568044929
 31
0.0
  0
LINE
  5
2924
330
23E2
100
AcDbEntity
  8
AM_5
100
AcDbLine
 10
228.1008498962416
 20
241.0956804492899
 30
0.0
 11
228.1008498962416
 21
226.5956804492899
 31
0.0
  0
SOLID
  5
2925
330
23E2
100
AcDbEntity
  8
AM_5
100
AcDbTrace
 10
227.6841832295749
 20
241.0956804492899
 30
0.0
 11
228.5175165629082
 21
241.0956804492899
 31
0.0
 12
228.1008498962416
 22
243.5956804492899
 32
0.0
 13
228.1008498962416
 23
243.5956804492899
 33
0.0
  0
SOLID
  5
2926
330
23E2
100
AcDbEntity
  8
AM_5
100
AcDbTrace
 10
227.6841832295749
 20
226.5956804492899
 30
0.0
 11
228.5175165629082
 21
226.5956804492899
 31
0.0
 12
228.1008498962416
 22
224.09568044929
 32
0.0
 13
228.1008498962416
 23
224.09568044929
 33
0.0
  0
MTEXT
  5
2927
330
23E2
100
AcDbEntity
  8
AM_5
100
AcDbMText
 10
225.3508498962415
 20
233.84568044929
 30
0.0
 40
3.5
 41
0.0
 71
     5
 72
     1
  1
%%c19.5
 11
0.0000000000000001
 21
1.0
 31
0.0
 73
     1
 44
1.0
1001
ACAD
1000
MTEXTBEGIN
1070
    73
1070
     1
1070
    44
1040
1.0
1070
    74
1070
     0
1000
MTEXTEND
  0
POINT
  5
2928
330
23E2
100
AcDbEntity
  8
Defpoints
 62
     0
100
AcDbPoint
 10
216.1008498962416
 20
243.5956804492899
 30
0.0
  0
POINT
  5
2929
330
23E2
100
AcDbEntity
  8
Defpoints
 62
     0
100
AcDbPoint
 10
216.1008498962416
 20
224.09568044929
 30
0.0
  0
POINT
  5
292A
330
23E2
100
AcDbEntity
  8
Defpoints
 62
     0
100
AcDbPoint
 10
228.1008498962416
 20
224.09568044929
 30
0.0
  0
ENDBLK
  5
23ED
330
23E2
100
AcDbEntity
  8
0
100
AcDbBlockEnd
  0
BLOCK
  5
2407
330
2401
100
AcDbEntity
  8
0
100
AcDbBlockBegin
  2
*D42
 70
     1
 10
0.0
 20
0.0
 30
0.0
  3
*D42
  1

  0
LINE
  5
291C
330
2401
100
AcDbEntity
  8
AM_5
100
AcDbLine
 10
218.3402424447406
 20
245.4988997633599
 30
0.0
 11
220.0840315984438
 21
248.5382916328038
 31
0.0
  0
LINE
  5
291D
330
2401
100
AcDbEntity
  8
AM_5
100
AcDbLine
 10
220.0840315984438
 20
248.5382916328038
 30
0.0
 11
228.9290063452745
 21
248.5382916328038
 31
0.0
  0
SOLID
  5
291E
330
2401
100
AcDbEntity
  8
AM_5
100
AcDbTrace
 10
217.9788332489934
 20
245.706250925258
 30
0.0
 11
218.7016516404878
 21
245.2915486014619
 31
0.0
 12
217.0961354733524
 22
243.3304445888767
 32
0.0
 13
217.0961354733524
 23
243.3304445888767
 33
0.0
  0
MTEXT
  5
291F
330
2401
100
AcDbEntity
  8
AM_5
100
AcDbMText
 10
225.0065189718592
 20
251.2882916328037
 30
0.0
 40
3.5
 41
0.0
 71
     5
 72
     1
  1
R0.5
 73
     1
 44
1.0
1001
ACAD
1000
MTEXTBEGIN
1070
    73
1070
     1
1070
    44
1040
1.0
1070
    74
1070
     0
1000
MTEXTEND
  0
POINT
  5
2920
330
2401
100
AcDbEntity
  8
Defpoints
 62
     0
100
AcDbPoint
 10
217.0961354733524
 20
243.3304445888767
 30
0.0
  0
POINT
  5
2921
330
2401
100
AcDbEntity
  8
Defpoints
 62
     0
100
AcDbPoint
 10
216.1008498962418
 20
241.59568044929
 30
0.0
  0
ENDBLK
  5
2408
330
2401
100
AcDbEntity
  8
0
100
AcDbBlockEnd
  0
BLOCK
  5
2432
330
2428
100
AcDbEntity
  8
0
100
AcDbBlockBegin
  2
*D43
 70
     1
 10
0.0
 20
0.0
 30
0.0
  3
*D43
  1

  0
LINE
  5
2913
330
2428
100
AcDbEntity
  8
AM_5
100
AcDbLine
 10
177.8871194442135
 20
226.9456804492899
 30
0.0
 11
177.8871194442135
 21
214.2456804492899
 31
0.0
  0
LINE
  5
2914
330
2428
100
AcDbEntity
  8
AM_5
100
AcDbLine
 10
185.8871194442135
 20
223.0956804492899
 30
0.0
 11
185.8871194442135
 21
214.2456804492899
 31
0.0
  0
LINE
  5
2915
330
2428
100
AcDbEntity
  8
AM_5
100
AcDbLine
 10
180.3871194442135
 20
215.2456804492899
 30
0.0
 11
183.3871194442135
 21
215.2456804492899
 31
0.0
  0
SOLID
  5
2916
330
2428
100
AcDbEntity
  8
AM_5
100
AcDbTrace
 10
180.3871194442135
 20
215.6623471159566
 30
0.0
 11
180.3871194442135
 21
214.8290137826233
 31
0.0
 12
177.8871194442135
 22
215.2456804492899
 32
0.0
 13
177.8871194442135
 23
215.2456804492899
 33
0.0
  0
SOLID
  5
2917
330
2428
100
AcDbEntity
  8
AM_5
100
AcDbTrace
 10
183.3871194442135
 20
215.6623471159566
 30
0.0
 11
183.3871194442135
 21
214.8290137826233
 31
0.0
 12
185.8871194442135
 22
215.2456804492899
 32
0.0
 13
185.8871194442135
 23
215.2456804492899
 33
0.0
  0
MTEXT
  5
2918
330
2428
100
AcDbEntity
  8
AM_5
100
AcDbMText
 10
181.8871194442135
 20
217.99568044929
 30
0.0
 40
3.5
 41
0.0
 71
     5
 72
     1
  1
8
 73
     1
 44
1.0
1001
ACAD
1000
MTEXTBEGIN
1070
    73
1070
     1
1070
    44
1040
1.0
1070
    74
1070
     0
1000
MTEXTEND
  0
POINT
  5
2919
330
2428
100
AcDbEntity
  8
Defpoints
 62
     0
100
AcDbPoint
 10
177.8871194442135
 20
227.94568044929
 30
0.0
  0
POINT
  5
291A
330
2428
100
AcDbEntity
  8
Defpoints
 62
     0
100
AcDbPoint
 10
185.8871194442135
 20
224.09568044929
 30
0.0
  0
POINT
  5
291B
330
2428
100
AcDbEntity
  8
Defpoints
 62
     0
100
AcDbPoint
 10
185.8871194442135
 20
215.2456804492899
 30
0.0
  0
ENDBLK
  5
2433
330
2428
100
AcDbEntity
  8
0
100
AcDbBlockEnd
  0
BLOCK
  5
245E
330
2454
100
AcDbEntity
  8
0
100
AcDbBlockBegin
  2
*D44
 70
     1
 10
0.0
 20
0.0
 30
0.0
  3
*D44
  1

  0
LINE
  5
290A
330
2454
100
AcDbEntity
  8
AM_5
100
AcDbLine
 10
177.8871194442135
 20
226.9456804492899
 30
0.0
 11
177.8871194442135
 21
206.74568044929
 31
0.0
  0
LINE
  5
290B
330
2454
100
AcDbEntity
  8
AM_5
100
AcDbLine
 10
220.1871194442135
 20
232.8456804492899
 30
0.0
 11
220.1871194442135
 21
206.74568044929
 31
0.0
  0
LINE
  5
290C
330
2454
100
AcDbEntity
  8
AM_5
100
AcDbLine
 10
180.3871194442135
 20
207.74568044929
 30
0.0
 11
217.6871194442135
 21
207.74568044929
 31
0.0
  0
SOLID
  5
290D
330
2454
100
AcDbEntity
  8
AM_5
100
AcDbTrace
 10
180.3871194442135
 20
208.1623471159566
 30
0.0
 11
180.3871194442135
 21
207.3290137826234
 31
0.0
 12
177.8871194442135
 22
207.74568044929
 32
0.0
 13
177.8871194442135
 23
207.74568044929
 33
0.0
  0
SOLID
  5
290E
330
2454
100
AcDbEntity
  8
AM_5
100
AcDbTrace
 10
217.6871194442135
 20
208.1623471159566
 30
0.0
 11
217.6871194442135
 21
207.3290137826234
 31
0.0
 12
220.1871194442135
 22
207.74568044929
 32
0.0
 13
220.1871194442135
 23
207.74568044929
 33
0.0
  0
MTEXT
  5
290F
330
2454
100
AcDbEntity
  8
AM_5
100
AcDbMText
 10
199.0371194442135
 20
210.496024937479
 30
0.0
 40
3.5
 41
0.0
 71
     5
 72
     1
  1
42.3
 73
     1
 44
1.0
1001
ACAD
1000
MTEXTBEGIN
1070
    73
1070
     1
1070
    44
1040
1.0
1070
    74
1070
     0
1000
MTEXTEND
  0
POINT
  5
2910
330
2454
100
AcDbEntity
  8
Defpoints
 62
     0
100
AcDbPoint
 10
177.8871194442135
 20
227.94568044929
 30
0.0
  0
POINT
  5
2911
330
2454
100
AcDbEntity
  8
Defpoints
 62
     0
100
AcDbPoint
 10
220.1871194442135
 20
233.8456804492899
 30
0.0
  0
POINT
  5
2912
330
2454
100
AcDbEntity
  8
Defpoints
 62
     0
100
AcDbPoint
 10
220.1871194442135
 20
207.74568044929
 30
0.0
  0
ENDBLK
  5
245F
330
2454
100
AcDbEntity
  8
0
100
AcDbBlockEnd
  0
BLOCK
  5
250A
330
2500
100
AcDbEntity
  8
0
100
AcDbBlockBegin
  2
*D45
 70
     1
 10
0.0
 20
0.0
 30
0.0
  3
*D45
  1

  0
LINE
  5
294E
330
2500
100
AcDbEntity
  8
AM_5
100
AcDbLine
 10
329.0440573986308
 20
227.9090659965489
 30
0.0
 11
329.0440573986308
 21
215.5385487233171
 31
0.0
  0
LINE
  5
294F
330
2500
100
AcDbEntity
  8
AM_5
100
AcDbLine
 10
339.5440573986308
 20
222.8757878148026
 30
0.0
 11
339.5440573986308
 21
215.5385487233171
 31
0.0
  0
LINE
  5
2950
330
2500
100
AcDbEntity
  8
AM_5
100
AcDbLine
 10
331.5440573986307
 20
216.538548723317
 30
0.0
 11
337.0440573986308
 21
216.538548723317
 31
0.0
  0
SOLID
  5
2951
330
2500
100
AcDbEntity
  8
AM_5
100
AcDbTrace
 10
331.5440573986307
 20
216.9552153899837
 30
0.0
 11
331.5440573986307
 21
216.1218820566504
 31
0.0
 12
329.0440573986308
 22
216.538548723317
 32
0.0
 13
329.0440573986308
 23
216.538548723317
 33
0.0
  0
SOLID
  5
2952
330
2500
100
AcDbEntity
  8
AM_5
100
AcDbTrace
 10
337.0440573986308
 20
216.9552153899837
 30
0.0
 11
337.0440573986308
 21
216.1218820566504
 31
0.0
 12
339.5440573986308
 22
216.538548723317
 32
0.0
 13
339.5440573986308
 23
216.538548723317
 33
0.0
  0
MTEXT
  5
2953
330
2500
100
AcDbEntity
  8
AM_5
100
AcDbMText
 10
334.2940573986307
 20
219.288548723317
 30
0.0
 40
3.5
 41
0.0
 71
     5
 72
     1
  1
10.5
 73
     1
 44
1.0
1001
ACAD
1000
MTEXTBEGIN
1070
    73
1070
     1
1070
    44
1040
1.0
1070
    74
1070
     0
1000
MTEXTEND
  0
POINT
  5
2954
330
2500
100
AcDbEntity
  8
Defpoints
 62
     0
100
AcDbPoint
 10
329.0440573986308
 20
228.9090659965489
 30
0.0
  0
POINT
  5
2955
330
2500
100
AcDbEntity
  8
Defpoints
 62
     0
100
AcDbPoint
 10
339.5440573986308
 20
223.8757878148026
 30
0.0
  0
POINT
  5
2956
330
2500
100
AcDbEntity
  8
Defpoints
 62
     0
100
AcDbPoint
 10
339.5440573986308
 20
216.538548723317
 30
0.0
  0
ENDBLK
  5
250B
330
2500
100
AcDbEntity
  8
0
100
AcDbBlockEnd
  0
BLOCK
  5
2520
330
2516
100
AcDbEntity
  8
0
100
AcDbBlockBegin
  2
*D46
 70
     1
 10
0.0
 20
0.0
 30
0.0
  3
*D46
  1

  0
LINE
  5
2957
330
2516
100
AcDbEntity
  8
AM_5
100
AcDbLine
 10
329.0440573986308
 20
227.9090659965489
 30
0.0
 11
329.0440573986308
 21
208.0385487233171
 31
0.0
  0
LINE
  5
2958
330
2516
100
AcDbEntity
  8
AM_5
100
AcDbLine
 10
386.0440573986307
 20
235.1257878148026
 30
0.0
 11
386.0440573986307
 21
208.0385487233171
 31
0.0
  0
LINE
  5
2959
330
2516
100
AcDbEntity
  8
AM_5
100
AcDbLine
 10
331.5440573986307
 20
209.0385487233171
 30
0.0
 11
383.5440573986307
 21
209.0385487233171
 31
0.0
  0
SOLID
  5
295A
330
2516
100
AcDbEntity
  8
AM_5
100
AcDbTrace
 10
331.5440573986307
 20
209.4552153899838
 30
0.0
 11
331.5440573986307
 21
208.6218820566505
 31
0.0
 12
329.0440573986308
 22
209.0385487233171
 32
0.0
 13
329.0440573986308
 23
209.0385487233171
 33
0.0
  0
SOLID
  5
295B
330
2516
100
AcDbEntity
  8
AM_5
100
AcDbTrace
 10
383.5440573986307
 20
209.4552153899838
 30
0.0
 11
383.5440573986307
 21
208.6218820566505
 31
0.0
 12
386.0440573986307
 22
209.0385487233171
 32
0.0
 13
386.0440573986307
 23
209.0385487233171
 33
0.0
  0
MTEXT
  5
295C
330
2516
100
AcDbEntity
  8
AM_5
100
AcDbMText
 10
357.5440573986307
 20
211.7885487233171
 30
0.0
 40
3.5
 41
0.0
 71
     5
 72
     1
  1
57
 73
     1
 44
1.0
1001
ACAD
1000
MTEXTBEGIN
1070
    73
1070
     1
1070
    44
1040
1.0
1070
    74
1070
     0
1000
MTEXTEND
  0
POINT
  5
295D
330
2516
100
AcDbEntity
  8
Defpoints
 62
     0
100
AcDbPoint
 10
329.0440573986308
 20
228.9090659965489
 30
0.0
  0
POINT
  5
295E
330
2516
100
AcDbEntity
  8
Defpoints
 62
     0
100
AcDbPoint
 10
386.0440573986307
 20
236.1257878148026
 30
0.0
  0
POINT
  5
295F
330
2516
100
AcDbEntity
  8
Defpoints
 62
     0
100
AcDbPoint
 10
386.0440573986307
 20
209.0385487233171
 30
0.0
  0
ENDBLK
  5
2521
330
2516
100
AcDbEntity
  8
0
100
AcDbBlockEnd
  0
BLOCK
  5
2536
330
252C
100
AcDbEntity
  8
0
100
AcDbBlockBegin
  2
*D47
 70
     1
 10
0.0
 20
0.0
 30
0.0
  3
*D47
  1

  0
LINE
  5
2960
330
252C
100
AcDbEntity
  8
AM_5
100
AcDbLine
 10
382.5291309813743
 20
223.8757878148026
 30
0.0
 11
395.7824759634034
 21
223.8757878148026
 31
0.0
  0
LINE
  5
2961
330
252C
100
AcDbEntity
  8
AM_5
100
AcDbLine
 10
382.5291309813743
 20
248.3757878148026
 30
0.0
 11
395.7824759634034
 21
248.3757878148026
 31
0.0
  0
LINE
  5
2962
330
252C
100
AcDbEntity
  8
AM_5
100
AcDbLine
 10
394.7824759634034
 20
226.3757878148026
 30
0.0
 11
394.7824759634034
 21
245.8757878148026
 31
0.0
  0
SOLID
  5
2963
330
252C
100
AcDbEntity
  8
AM_5
100
AcDbTrace
 10
394.3658092967368
 20
226.3757878148026
 30
0.0
 11
395.1991426300701
 21
226.3757878148026
 31
0.0
 12
394.7824759634034
 22
223.8757878148026
 32
0.0
 13
394.7824759634034
 23
223.8757878148026
 33
0.0
  0
SOLID
  5
2964
330
252C
100
AcDbEntity
  8
AM_5
100
AcDbTrace
 10
394.3658092967368
 20
245.8757878148026
 30
0.0
 11
395.1991426300701
 21
245.8757878148026
 31
0.0
 12
394.7824759634034
 22
248.3757878148026
 32
0.0
 13
394.7824759634034
 23
248.3757878148026
 33
0.0
  0
MTEXT
  5
2965
330
252C
100
AcDbEntity
  8
AM_5
100
AcDbMText
 10
392.0321314752144
 20
236.1257878148027
 30
0.0
 40
3.5
 41
0.0
 71
     5
 72
     1
  1
%%c24.5
 11
0.0000000000000001
 21
1.0
 31
0.0
 73
     1
 44
1.0
1001
ACAD
1000
MTEXTBEGIN
1070
    73
1070
     1
1070
    44
1040
1.0
1070
    74
1070
     0
1000
MTEXTEND
  0
POINT
  5
2966
330
252C
100
AcDbEntity
  8
Defpoints
 62
     0
100
AcDbPoint
 10
381.5291309813742
 20
223.8757878148026
 30
0.0
  0
POINT
  5
2967
330
252C
100
AcDbEntity
  8
Defpoints
 62
     0
100
AcDbPoint
 10
381.5291309813742
 20
248.3757878148026
 30
0.0
  0
POINT
  5
2968
330
252C
100
AcDbEntity
  8
Defpoints
 62
     0
100
AcDbPoint
 10
394.7824759634034
 20
248.3757878148026
 30
0.0
  0
ENDBLK
  5
2537
330
252C
100
AcDbEntity
  8
0
100
AcDbBlockEnd
  0
BLOCK
  5
2575
330
256F
100
AcDbEntity
  8
0
100
AcDbBlockBegin
  2
*D48
 70
     1
 10
0.0
 20
0.0
 30
0.0
  3
*D48
  1

  0
LINE
  5
2969
330
256F
100
AcDbEntity
  8
AM_5
100
AcDbLine
 10
383.7128210810549
 20
250.3104412364598
 30
0.0
 11
384.925982247544
 21
252.4963598040471
 31
0.0
  0
LINE
  5
296A
330
256F
100
AcDbEntity
  8
AM_5
100
AcDbLine
 10
384.925982247544
 20
252.4963598040471
 30
0.0
 11
393.7709569943746
 21
252.4963598040471
 31
0.0
  0
SOLID
  5
296B
330
256F
100
AcDbEntity
  8
AM_5
100
AcDbTrace
 10
383.3485013197904
 20
250.512634764208
 30
0.0
 11
384.0771408423194
 21
250.1082477087116
 31
0.0
 12
382.4996599145658
 22
248.1245226688726
 32
0.0
 13
382.4996599145658
 23
248.1245226688726
 33
0.0
  0
MTEXT
  5
296C
330
256F
100
AcDbEntity
  8
AM_5
100
AcDbMText
 10
389.8484696209592
 20
255.2463598040471
 30
0.0
 40
3.5
 41
0.0
 71
     5
 72
     1
  1
R0.5
 73
     1
 44
1.0
1001
ACAD
1000
MTEXTBEGIN
1070
    73
1070
     1
1070
    44
1040
1.0
1070
    74
1070
     0
1000
MTEXTEND
  0
POINT
  5
296D
330
256F
100
AcDbEntity
  8
Defpoints
 62
     0
100
AcDbPoint
 10
382.4996599145658
 20
248.1245226688726
 30
0.0
  0
POINT
  5
296E
330
256F
100
AcDbEntity
  8
Defpoints
 62
     0
100
AcDbPoint
 10
381.5291309813745
 20
246.3757878148027
 30
0.0
  0
ENDBLK
  5
2576
330
256F
100
AcDbEntity
  8
0
100
AcDbBlockEnd
  0
BLOCK
  5
2620
330
2616
100
AcDbEntity
  8
0
100
AcDbBlockBegin
  2
*D49
 70
     1
 10
0.0
 20
0.0
 30
0.0
  3
*D49
  1

  0
LINE
  5
264A
330
2616
100
AcDbEntity
  8
AM_5
100
AcDbLine
 10
71.30280958449478
 20
133.8646526461097
 30
0.0
 11
71.30280958449478
 21
121.8646526461097
 31
0.0
  0
LINE
  5
264B
330
2616
100
AcDbEntity
  8
AM_5
100
AcDbLine
 10
81.80280958449477
 20
131.1813744643634
 30
0.0
 11
81.80280958449477
 21
121.8646526461097
 31
0.0
  0
LINE
  5
264C
330
2616
100
AcDbEntity
  8
AM_5
100
AcDbLine
 10
73.80280958449478
 20
122.8646526461097
 30
0.0
 11
79.30280958449478
 21
122.8646526461097
 31
0.0
  0
SOLID
  5
264D
330
2616
100
AcDbEntity
  8
AM_5
100
AcDbTrace
 10
73.80280958449478
 20
123.2813193127764
 30
0.0
 11
73.80280958449478
 21
122.4479859794431
 31
0.0
 12
71.30280958449478
 22
122.8646526461097
 32
0.0
 13
71.30280958449478
 23
122.8646526461097
 33
0.0
  0
SOLID
  5
264E
330
2616
100
AcDbEntity
  8
AM_5
100
AcDbTrace
 10
79.30280958449478
 20
123.2813193127764
 30
0.0
 11
79.30280958449478
 21
122.4479859794431
 31
0.0
 12
81.80280958449477
 22
122.8646526461097
 32
0.0
 13
81.80280958449477
 23
122.8646526461097
 33
0.0
  0
MTEXT
  5
264F
330
2616
100
AcDbEntity
  8
AM_5
100
AcDbMText
 10
76.55280958449478
 20
125.6146526461097
 30
0.0
 40
3.5
 41
0.0
 71
     5
 72
     1
  1
10.5
 73
     1
 44
1.0
1001
ACAD
1000
MTEXTBEGIN
1070
    73
1070
     1
1070
    44
1040
1.0
1070
    74
1070
     0
1000
MTEXTEND
  0
POINT
  5
2650
330
2616
100
AcDbEntity
  8
Defpoints
 62
     0
100
AcDbPoint
 10
71.30280958449478
 20
134.8646526461097
 30
0.0
  0
POINT
  5
2651
330
2616
100
AcDbEntity
  8
Defpoints
 62
     0
100
AcDbPoint
 10
81.80280958449477
 20
132.1813744643634
 30
0.0
  0
POINT
  5
2652
330
2616
100
AcDbEntity
  8
Defpoints
 62
     0
100
AcDbPoint
 10
81.80280958449477
 20
122.8646526461097
 30
0.0
  0
ENDBLK
  5
2621
330
2616
100
AcDbEntity
  8
0
100
AcDbBlockEnd
  0
BLOCK
  5
2636
330
262C
100
AcDbEntity
  8
0
100
AcDbBlockBegin
  2
*D50
 70
     1
 10
0.0
 20
0.0
 30
0.0
  3
*D50
  1

  0
LINE
  5
2641
330
262C
100
AcDbEntity
  8
AM_5
100
AcDbLine
 10
71.30280958449478
 20
133.8646526461097
 30
0.0
 11
71.30280958449478
 21
114.3646526461098
 31
0.0
  0
LINE
  5
2642
330
262C
100
AcDbEntity
  8
AM_5
100
AcDbLine
 10
128.3028095844947
 20
143.4313744643634
 30
0.0
 11
128.3028095844947
 21
114.3646526461098
 31
0.0
  0
LINE
  5
2643
330
262C
100
AcDbEntity
  8
AM_5
100
AcDbLine
 10
73.80280958449478
 20
115.3646526461098
 30
0.0
 11
125.8028095844947
 21
115.3646526461098
 31
0.0
  0
SOLID
  5
2644
330
262C
100
AcDbEntity
  8
AM_5
100
AcDbTrace
 10
73.80280958449478
 20
115.7813193127765
 30
0.0
 11
73.80280958449478
 21
114.9479859794432
 31
0.0
 12
71.30280958449478
 22
115.3646526461098
 32
0.0
 13
71.30280958449478
 23
115.3646526461098
 33
0.0
  0
SOLID
  5
2645
330
262C
100
AcDbEntity
  8
AM_5
100
AcDbTrace
 10
125.8028095844947
 20
115.7813193127765
 30
0.0
 11
125.8028095844947
 21
114.9479859794432
 31
0.0
 12
128.3028095844947
 22
115.3646526461098
 32
0.0
 13
128.3028095844947
 23
115.3646526461098
 33
0.0
  0
MTEXT
  5
2646
330
262C
100
AcDbEntity
  8
AM_5
100
AcDbMText
 10
99.80280958449476
 20
118.1146526461098
 30
0.0
 40
3.5
 41
0.0
 71
     5
 72
     1
  1
57
 73
     1
 44
1.0
1001
ACAD
1000
MTEXTBEGIN
1070
    73
1070
     1
1070
    44
1040
1.0
1070
    74
1070
     0
1000
MTEXTEND
  0
POINT
  5
2647
330
262C
100
AcDbEntity
  8
Defpoints
 62
     0
100
AcDbPoint
 10
71.30280958449478
 20
134.8646526461097
 30
0.0
  0
POINT
  5
2648
330
262C
100
AcDbEntity
  8
Defpoints
 62
     0
100
AcDbPoint
 10
128.3028095844947
 20
144.4313744643634
 30
0.0
  0
POINT
  5
2649
330
262C
100
AcDbEntity
  8
Defpoints
 62
     0
100
AcDbPoint
 10
128.3028095844947
 20
115.3646526461098
 30
0.0
  0
ENDBLK
  5
2637
330
262C
100
AcDbEntity
  8
0
100
AcDbBlockEnd
  0
BLOCK
  5
2661
330
2657
100
AcDbEntity
  8
0
100
AcDbBlockBegin
  2
*D51
 70
     1
 10
0.0
 20
0.0
 30
0.0
  3
*D51
  1

  0
LINE
  5
266C
330
2657
100
AcDbEntity
  8
AM_5
100
AcDbLine
 10
124.7878831672383
 20
132.1813744643634
 30
0.0
 11
138.0412281492675
 21
132.1813744643634
 31
0.0
  0
LINE
  5
266D
330
2657
100
AcDbEntity
  8
AM_5
100
AcDbLine
 10
124.7878831672383
 20
156.6813744643634
 30
0.0
 11
138.0412281492675
 21
156.6813744643634
 31
0.0
  0
LINE
  5
266E
330
2657
100
AcDbEntity
  8
AM_5
100
AcDbLine
 10
137.0412281492675
 20
134.6813744643634
 30
0.0
 11
137.0412281492675
 21
154.1813744643634
 31
0.0
  0
SOLID
  5
266F
330
2657
100
AcDbEntity
  8
AM_5
100
AcDbTrace
 10
136.6245614826008
 20
134.6813744643634
 30
0.0
 11
137.4578948159341
 21
134.6813744643634
 31
0.0
 12
137.0412281492675
 22
132.1813744643634
 32
0.0
 13
137.0412281492675
 23
132.1813744643634
 33
0.0
  0
SOLID
  5
2670
330
2657
100
AcDbEntity
  8
AM_5
100
AcDbTrace
 10
136.6245614826008
 20
154.1813744643634
 30
0.0
 11
137.4578948159341
 21
154.1813744643634
 31
0.0
 12
137.0412281492675
 22
156.6813744643634
 32
0.0
 13
137.0412281492675
 23
156.6813744643634
 33
0.0
  0
MTEXT
  5
2671
330
2657
100
AcDbEntity
  8
AM_5
100
AcDbMText
 10
134.2908836610785
 20
144.4313744643635
 30
0.0
 40
3.5
 41
0.0
 71
     5
 72
     1
  1
%%c24.5
 11
0.0000000000000001
 21
1.0
 31
0.0
 73
     1
 44
1.0
1001
ACAD
1000
MTEXTBEGIN
1070
    73
1070
     1
1070
    44
1040
1.0
1070
    74
1070
     0
1000
MTEXTEND
  0
POINT
  5
2672
330
2657
100
AcDbEntity
  8
Defpoints
 62
     0
100
AcDbPoint
 10
123.7878831672383
 20
132.1813744643634
 30
0.0
  0
POINT
  5
2673
330
2657
100
AcDbEntity
  8
Defpoints
 62
     0
100
AcDbPoint
 10
123.7878831672383
 20
156.6813744643634
 30
0.0
  0
POINT
  5
2674
330
2657
100
AcDbEntity
  8
Defpoints
 62
     0
100
AcDbPoint
 10
137.0412281492675
 20
156.6813744643634
 30
0.0
  0
ENDBLK
  5
2662
330
2657
100
AcDbEntity
  8
0
100
AcDbBlockEnd
  0
BLOCK
  5
266A
330
2663
100
AcDbEntity
  8
0
100
AcDbBlockBegin
  2
*D52
 70
     1
 10
0.0
 20
0.0
 30
0.0
  3
*D52
  1

  0
LINE
  5
2675
330
2663
100
AcDbEntity
  8
AM_5
100
AcDbLine
 10
125.9715732669189
 20
158.6160278860205
 30
0.0
 11
127.1847344334079
 21
160.8019464536078
 31
0.0
  0
LINE
  5
2676
330
2663
100
AcDbEntity
  8
AM_5
100
AcDbLine
 10
127.1847344334079
 20
160.8019464536078
 30
0.0
 11
136.0297091802385
 21
160.8019464536078
 31
0.0
  0
SOLID
  5
2677
330
2663
100
AcDbEntity
  8
AM_5
100
AcDbTrace
 10
125.6072535056543
 20
158.8182214137687
 30
0.0
 11
126.3358930281834
 21
158.4138343582724
 31
0.0
 12
124.7584121004297
 22
156.4301093184333
 32
0.0
 13
124.7584121004297
 23
156.4301093184333
 33
0.0
  0
MTEXT
  5
2678
330
2663
100
AcDbEntity
  8
AM_5
100
AcDbMText
 10
132.1072218068233
 20
163.5519464536078
 30
0.0
 40
3.5
 41
0.0
 71
     5
 72
     1
  1
R0.5
 73
     1
 44
1.0
1001
ACAD
1000
MTEXTBEGIN
1070
    73
1070
     1
1070
    44
1040
1.0
1070
    74
1070
     0
1000
MTEXTEND
  0
POINT
  5
2679
330
2663
100
AcDbEntity
  8
Defpoints
 62
     0
100
AcDbPoint
 10
124.7584121004297
 20
156.4301093184333
 30
0.0
  0
POINT
  5
267A
330
2663
100
AcDbEntity
  8
Defpoints
 62
     0
100
AcDbPoint
 10
123.7878831672385
 20
154.6813744643634
 30
0.0
  0
ENDBLK
  5
266B
330
2663
100
AcDbEntity
  8
0
100
AcDbBlockEnd
  0
BLOCK
  5
2686
330
267C
100
AcDbEntity
  8
0
100
AcDbBlockBegin
  2
*D53
 70
     1
 10
0.0
 20
0.0
 30
0.0
  3
*D53
  1

  0
LINE
  5
2688
330
267C
100
AcDbEntity
  8
AM_5
100
AcDbLine
 10
193.7591344156672
 20
62.05069668024385
 30
0.0
 11
193.7591344156672
 21
34.98543467376307
 31
0.0
  0
LINE
  5
2689
330
267C
100
AcDbEntity
  8
AM_5
100
AcDbLine
 10
242.2591344156672
 20
62.05069668024373
 30
0.0
 11
242.2591344156672
 21
34.98543467376307
 31
0.0
  0
LINE
  5
268A
330
267C
100
AcDbEntity
  8
AM_5
100
AcDbLine
 10
196.2591344156671
 20
35.98543467376307
 30
0.0
 11
239.7591344156672
 21
35.98543467376307
 31
0.0
  0
SOLID
  5
268B
330
267C
100
AcDbEntity
  8
AM_5
100
AcDbTrace
 10
196.2591344156671
 20
36.40210134042973
 30
0.0
 11
196.2591344156671
 21
35.5687680070964
 31
0.0
 12
193.7591344156672
 22
35.98543467376307
 32
0.0
 13
193.7591344156672
 23
35.98543467376307
 33
0.0
  0
SOLID
  5
268C
330
267C
100
AcDbEntity
  8
AM_5
100
AcDbTrace
 10
239.7591344156672
 20
36.40210134042973
 30
0.0
 11
239.7591344156672
 21
35.5687680070964
 31
0.0
 12
242.2591344156672
 22
35.98543467376307
 32
0.0
 13
242.2591344156672
 23
35.98543467376307
 33
0.0
  0
MTEXT
  5
268D
330
267C
100
AcDbEntity
  8
AM_5
100
AcDbMText
 10
218.0091344156672
 20
38.73543467376307
 30
0.0
 40
3.5
 41
0.0
 71
     5
 72
     1
  1
48.5
 73
     1
 44
1.0
1001
ACAD
1000
MTEXTBEGIN
1070
    73
1070
     1
1070
    44
1040
1.0
1070
    74
1070
     0
1000
MTEXTEND
  0
POINT
  5
268E
330
267C
100
AcDbEntity
  8
Defpoints
 62
     0
100
AcDbPoint
 10
193.7591344156672
 20
63.05069668024384
 30
0.0
  0
POINT
  5
268F
330
267C
100
AcDbEntity
  8
Defpoints
 62
     0
100
AcDbPoint
 10
242.2591344156672
 20
63.05069668024373
 30
0.0
  0
POINT
  5
2690
330
267C
100
AcDbEntity
  8
Defpoints
 62
     0
100
AcDbPoint
 10
242.2591344156672
 20
35.98543467376307
 30
0.0
  0
ENDBLK
  5
2687
330
267C
100
AcDbEntity
  8
0
100
AcDbBlockEnd
  0
BLOCK
  5
269C
330
2692
100
AcDbEntity
  8
0
100
AcDbBlockBegin
  2
*D54
 70
     1
 10
0.0
 20
0.0
 30
0.0
  3
*D54
  1

  0
LINE
  5
26BE
330
2692
100
AcDbEntity
  8
AM_5
100
AcDbLine
 10
215.1653369231563
 20
101.8593778278921
 30
0.0
 11
182.6029318981781
 21
101.8593778278921
 31
0.0
  0
LINE
  5
26BF
330
2692
100
AcDbEntity
  8
AM_5
100
AcDbLine
 10
215.1653369231564
 20
47.98543567376305
 30
0.0
 11
182.602931898178
 21
47.98543567376305
 31
0.0
  0
LINE
  5
26C0
330
2692
100
AcDbEntity
  8
AM_5
100
AcDbLine
 10
183.6029318981781
 20
99.3593778278921
 30
0.0
 11
183.602931898178
 21
50.48543567376306
 31
0.0
  0
SOLID
  5
26C1
330
2692
100
AcDbEntity
  8
AM_5
100
AcDbTrace
 10
183.1862652315114
 20
99.3593778278921
 30
0.0
 11
184.0195985648447
 21
99.3593778278921
 31
0.0
 12
183.6029318981781
 22
101.8593778278921
 32
0.0
 13
183.6029318981781
 23
101.8593778278921
 33
0.0
  0
SOLID
  5
26C2
330
2692
100
AcDbEntity
  8
AM_5
100
AcDbTrace
 10
183.1862652315114
 20
50.48543567376306
 30
0.0
 11
184.0195985648447
 21
50.48543567376306
 31
0.0
 12
183.602931898178
 22
47.98543567376305
 32
0.0
 13
183.602931898178
 23
47.98543567376305
 33
0.0
  0
MTEXT
  5
26C3
330
2692
100
AcDbEntity
  8
AM_5
100
AcDbMText
 10
180.677931898178
 20
74.92240675082761
 30
0.0
 40
3.5
 41
0.0
 71
     5
 72
     1
  1
(54)
 11
0.0000000000000001
 21
1.0
 31
0.0
 73
     1
 44
1.0
1001
ACAD
1000
MTEXTBEGIN
1070
    73
1070
     1
1070
    44
1040
1.0
1070
    74
1070
     0
1000
MTEXTEND
  0
POINT
  5
26C4
330
2692
100
AcDbEntity
  8
Defpoints
 62
     0
100
AcDbPoint
 10
216.1653369231563
 20
101.8593778278921
 30
0.0
  0
POINT
  5
26C5
330
2692
100
AcDbEntity
  8
Defpoints
 62
     0
100
AcDbPoint
 10
216.1653369231563
 20
47.98543567376305
 30
0.0
  0
POINT
  5
26C6
330
2692
100
AcDbEntity
  8
Defpoints
 62
     0
100
AcDbPoint
 10
183.602931898178
 20
47.98543567376305
 30
0.0
  0
ENDBLK
  5
269D
330
2692
100
AcDbEntity
  8
0
100
AcDbBlockEnd
  0
BLOCK
  5
26D2
330
26C8
100
AcDbEntity
  8
0
100
AcDbBlockBegin
  2
*D55
 70
     1
 10
0.0
 20
0.0
 30
0.0
  3
*D55
  1

  0
LINE
  5
26DD
330
26C8
100
AcDbEntity
  8
AM_5
100
AcDbLine
 10
369.8343934510778
 20
99.42240675082757
 30
0.0
 11
395.1916949489274
 21
99.42240675082757
 31
0.0
  0
LINE
  5
26DE
330
26C8
100
AcDbEntity
  8
AM_5
100
AcDbLine
 10
369.8343934510778
 20
50.42240675082758
 30
0.0
 11
395.1916949489274
 21
50.42240675082758
 31
0.0
  0
LINE
  5
26DF
330
26C8
100
AcDbEntity
  8
AM_5
100
AcDbLine
 10
394.1916949489274
 20
96.92240675082757
 30
0.0
 11
394.1916949489274
 21
52.92240675082758
 31
0.0
  0
SOLID
  5
26E0
330
26C8
100
AcDbEntity
  8
AM_5
100
AcDbTrace
 10
393.7750282822607
 20
96.92240675082757
 30
0.0
 11
394.6083616155941
 21
96.92240675082757
 31
0.0
 12
394.1916949489274
 22
99.42240675082757
 32
0.0
 13
394.1916949489274
 23
99.42240675082757
 33
0.0
  0
SOLID
  5
26E1
330
26C8
100
AcDbEntity
  8
AM_5
100
AcDbTrace
 10
393.7750282822607
 20
52.92240675082758
 30
0.0
 11
394.6083616155941
 21
52.92240675082758
 31
0.0
 12
394.1916949489274
 22
50.42240675082758
 32
0.0
 13
394.1916949489274
 23
50.42240675082758
 33
0.0
  0
MTEXT
  5
26E2
330
26C8
100
AcDbEntity
  8
AM_5
100
AcDbMText
 10
391.4416949489274
 20
74.92240675082763
 30
0.0
 40
3.5
 41
0.0
 71
     5
 72
     1
  1
%%c49
 11
0.0000000000000001
 21
1.0
 31
0.0
 73
     1
 44
1.0
1001
ACAD
1000
MTEXTBEGIN
1070
    73
1070
     1
1070
    44
1040
1.0
1070
    74
1070
     0
1000
MTEXTEND
  0
POINT
  5
26E3
330
26C8
100
AcDbEntity
  8
Defpoints
 62
     0
100
AcDbPoint
 10
368.8343934510777
 20
99.42240675082757
 30
0.0
  0
POINT
  5
26E4
330
26C8
100
AcDbEntity
  8
Defpoints
 62
     0
100
AcDbPoint
 10
368.8343934510777
 20
50.42240675082758
 30
0.0
  0
POINT
  5
26E5
330
26C8
100
AcDbEntity
  8
Defpoints
 62
     0
100
AcDbPoint
 10
394.1916949489274
 20
50.42240675082758
 30
0.0
  0
ENDBLK
  5
26D3
330
26C8
100
AcDbEntity
  8
0
100
AcDbBlockEnd
  0
BLOCK
  5
26ED
330
26E7
100
AcDbEntity
  8
0
100
AcDbBlockBegin
  2
*D56
 70
     1
 10
0.0
 20
0.0
 30
0.0
  3
*D56
  1

  0
LINE
  5
26FB
330
26E7
100
AcDbEntity
  8
AM_5
100
AcDbLine
 10
371.8280076974677
 20
100.7822093854792
 30
0.0
 11
374.4212009079089
 21
103.6926102132103
 31
0.0
  0
LINE
  5
26FC
330
26E7
100
AcDbEntity
  8
AM_5
100
AcDbLine
 10
374.4212009079089
 20
103.6926102132103
 30
0.0
 11
383.2661756547394
 21
103.6926102132103
 31
0.0
  0
SOLID
  5
26FD
330
26E7
100
AcDbEntity
  8
AM_5
100
AcDbTrace
 10
371.5169148609259
 20
101.0593958897746
 30
0.0
 11
372.1391005340096
 21
100.5050228811839
 31
0.0
 12
370.1648886716956
 22
98.91565236622836
 32
0.0
 13
370.1648886716956
 23
98.91565236622836
 33
0.0
  0
MTEXT
  5
26FE
330
26E7
100
AcDbEntity
  8
AM_5
100
AcDbMText
 10
379.3436882813241
 20
106.4426102132104
 30
0.0
 40
3.5
 41
0.0
 71
     5
 72
     1
  1
R0.5
 73
     1
 44
1.0
1001
ACAD
1000
MTEXTBEGIN
1070
    73
1070
     1
1070
    44
1040
1.0
1070
    74
1070
     0
1000
MTEXTEND
  0
POINT
  5
26FF
330
26E7
100
AcDbEntity
  8
Defpoints
 62
     0
100
AcDbPoint
 10
370.1648886716956
 20
98.91565236622836
 30
0.0
  0
POINT
  5
2700
330
26E7
100
AcDbEntity
  8
Defpoints
 62
     0
100
AcDbPoint
 10
368.834393451078
 20
97.42240675082761
 30
0.0
  0
ENDBLK
  5
26EE
330
26E7
100
AcDbEntity
  8
0
100
AcDbBlockEnd
  0
BLOCK
  5
2711
330
2707
100
AcDbEntity
  8
0
100
AcDbBlockBegin
  2
*D57
 70
     1
 10
0.0
 20
0.0
 30
0.0
  3
*D57
  1

  0
LINE
  5
27AF
330
2707
100
AcDbEntity
  8
AM_5
100
AcDbLine
 10
262.8503629413308
 20
58.92240675082757
 30
0.0
 11
262.8503629413308
 21
41.69781910526203
 31
0.0
  0
LINE
  5
27B0
330
2707
100
AcDbEntity
  8
AM_5
100
AcDbLine
 10
281.8503629413308
 20
46.98543567376304
 30
0.0
 11
281.8503629413308
 21
41.69781910526203
 31
0.0
  0
LINE
  5
27B1
330
2707
100
AcDbEntity
  8
AM_5
100
AcDbLine
 10
265.3503629413308
 20
42.69781910526202
 30
0.0
 11
279.3503629413308
 21
42.69781910526202
 31
0.0
  0
SOLID
  5
27B2
330
2707
100
AcDbEntity
  8
AM_5
100
AcDbTrace
 10
265.3503629413308
 20
43.11448577192869
 30
0.0
 11
265.3503629413308
 21
42.28115243859536
 31
0.0
 12
262.8503629413308
 22
42.69781910526202
 32
0.0
 13
262.8503629413308
 23
42.69781910526202
 33
0.0
  0
SOLID
  5
27B3
330
2707
100
AcDbEntity
  8
AM_5
100
AcDbTrace
 10
279.3503629413308
 20
43.11448577192869
 30
0.0
 11
279.3503629413308
 21
42.28115243859536
 31
0.0
 12
281.8503629413308
 22
42.69781910526202
 32
0.0
 13
281.8503629413308
 23
42.69781910526202
 33
0.0
  0
MTEXT
  5
27B4
330
2707
100
AcDbEntity
  8
AM_5
100
AcDbMText
 10
272.3503629413308
 20
45.44781910526203
 30
0.0
 40
3.5
 41
0.0
 71
     5
 72
     1
  1
19
 73
     1
 44
1.0
1001
ACAD
1000
MTEXTBEGIN
1070
    73
1070
     1
1070
    44
1040
1.0
1070
    74
1070
     0
1000
MTEXTEND
  0
POINT
  5
27B5
330
2707
100
AcDbEntity
  8
Defpoints
 62
     0
100
AcDbPoint
 10
262.8503629413308
 20
59.92240675082758
 30
0.0
  0
POINT
  5
27B6
330
2707
100
AcDbEntity
  8
Defpoints
 62
     0
100
AcDbPoint
 10
281.8503629413308
 20
47.98543567376305
 30
0.0
  0
POINT
  5
27B7
330
2707
100
AcDbEntity
  8
Defpoints
 62
     0
100
AcDbPoint
 10
281.8503629413308
 20
42.69781910526202
 30
0.0
  0
ENDBLK
  5
2712
330
2707
100
AcDbEntity
  8
0
100
AcDbBlockEnd
  0
BLOCK
  5
2730
330
2726
100
AcDbEntity
  8
0
100
AcDbBlockBegin
  2
*D58
 70
     1
 10
0.0
 20
0.0
 30
0.0
  3
*D58
  1

  0
LINE
  5
27A6
330
2726
100
AcDbEntity
  8
AM_5
100
AcDbLine
 10
281.8503629413308
 20
46.98543567376304
 30
0.0
 11
281.8503629413308
 21
41.69781910526203
 31
0.0
  0
LINE
  5
27A7
330
2726
100
AcDbEntity
  8
AM_5
100
AcDbLine
 10
289.8503629413308
 20
46.98543567376304
 30
0.0
 11
289.8503629413308
 21
41.69781910526203
 31
0.0
  0
LINE
  5
27A8
330
2726
100
AcDbEntity
  8
AM_5
100
AcDbLine
 10
284.3503629413308
 20
42.69781910526202
 30
0.0
 11
287.3503629413308
 21
42.69781910526202
 31
0.0
  0
SOLID
  5
27A9
330
2726
100
AcDbEntity
  8
AM_5
100
AcDbTrace
 10
284.3503629413308
 20
43.11448577192869
 30
0.0
 11
284.3503629413308
 21
42.28115243859536
 31
0.0
 12
281.8503629413308
 22
42.69781910526202
 32
0.0
 13
281.8503629413308
 23
42.69781910526202
 33
0.0
  0
SOLID
  5
27AA
330
2726
100
AcDbEntity
  8
AM_5
100
AcDbTrace
 10
287.3503629413308
 20
43.11448577192869
 30
0.0
 11
287.3503629413308
 21
42.28115243859536
 31
0.0
 12
289.8503629413308
 22
42.69781910526202
 32
0.0
 13
289.8503629413308
 23
42.69781910526202
 33
0.0
  0
MTEXT
  5
27AB
330
2726
100
AcDbEntity
  8
AM_5
100
AcDbMText
 10
285.8503629413308
 20
45.44781910526203
 30
0.0
 40
3.5
 41
0.0
 71
     5
 72
     1
  1
8
 73
     1
 44
1.0
1001
ACAD
1000
MTEXTBEGIN
1070
    73
1070
     1
1070
    44
1040
1.0
1070
    74
1070
     0
1000
MTEXTEND
  0
POINT
  5
27AC
330
2726
100
AcDbEntity
  8
Defpoints
 62
     0
100
AcDbPoint
 10
281.8503629413308
 20
47.98543567376305
 30
0.0
  0
POINT
  5
27AD
330
2726
100
AcDbEntity
  8
Defpoints
 62
     0
100
AcDbPoint
 10
289.8503629413308
 20
47.98543567376305
 30
0.0
  0
POINT
  5
27AE
330
2726
100
AcDbEntity
  8
Defpoints
 62
     0
100
AcDbPoint
 10
289.8503629413308
 20
42.69781910526202
 30
0.0
  0
ENDBLK
  5
2731
330
2726
100
AcDbEntity
  8
0
100
AcDbBlockEnd
  0
BLOCK
  5
2746
330
273C
100
AcDbEntity
  8
0
100
AcDbBlockBegin
  2
*D59
 70
     1
 10
0.0
 20
0.0
 30
0.0
  3
*D59
  1

  0
LINE
  5
279D
330
273C
100
AcDbEntity
  8
AM_5
100
AcDbLine
 10
262.8503629413308
 20
58.92240675082757
 30
0.0
 11
262.8503629413308
 21
34.19781910526222
 31
0.0
  0
LINE
  5
279E
330
273C
100
AcDbEntity
  8
AM_5
100
AcDbLine
 10
377.8408323890003
 20
73.92240675082757
 30
0.0
 11
377.8408323890003
 21
34.19781910526222
 31
0.0
  0
LINE
  5
279F
330
273C
100
AcDbEntity
  8
AM_5
100
AcDbLine
 10
265.3503629413308
 20
35.19781910526222
 30
0.0
 11
375.3408323890003
 21
35.19781910526222
 31
0.0
  0
SOLID
  5
27A0
330
273C
100
AcDbEntity
  8
AM_5
100
AcDbTrace
 10
265.3503629413308
 20
35.61448577192888
 30
0.0
 11
265.3503629413308
 21
34.78115243859555
 31
0.0
 12
262.8503629413308
 22
35.19781910526222
 32
0.0
 13
262.8503629413308
 23
35.19781910526222
 33
0.0
  0
SOLID
  5
27A1
330
273C
100
AcDbEntity
  8
AM_5
100
AcDbTrace
 10
375.3408323890003
 20
35.61448577192888
 30
0.0
 11
375.3408323890003
 21
34.78115243859555
 31
0.0
 12
377.8408323890003
 22
35.19781910526222
 32
0.0
 13
377.8408323890003
 23
35.19781910526222
 33
0.0
  0
MTEXT
  5
27A2
330
273C
100
AcDbEntity
  8
AM_5
100
AcDbMText
 10
320.3455976651655
 20
37.94781910526222
 30
0.0
 40
3.5
 41
0.0
 71
     5
 72
     1
  1
115
 73
     1
 44
1.0
1001
ACAD
1000
MTEXTBEGIN
1070
    73
1070
     1
1070
    44
1040
1.0
1070
    74
1070
     0
1000
MTEXTEND
  0
POINT
  5
27A3
330
273C
100
AcDbEntity
  8
Defpoints
 62
     0
100
AcDbPoint
 10
262.8503629413308
 20
59.92240675082758
 30
0.0
  0
POINT
  5
27A4
330
273C
100
AcDbEntity
  8
Defpoints
 62
     0
100
AcDbPoint
 10
377.8408323890003
 20
74.92240675082758
 30
0.0
  0
POINT
  5
27A5
330
273C
100
AcDbEntity
  8
Defpoints
 62
     0
100
AcDbPoint
 10
377.8408323890003
 20
35.19781910526222
 30
0.0
  0
ENDBLK
  5
2747
330
273C
100
AcDbEntity
  8
0
100
AcDbBlockEnd
  0
BLOCK
  5
2861
330
2857
100
AcDbEntity
  8
0
100
AcDbBlockBegin
  2
*D60
 70
     1
 10
0.0
 20
0.0
 30
0.0
  3
*D60
  1

  0
LINE
  5
296F
330
2857
100
AcDbEntity
  8
AM_5
100
AcDbLine
 10
192.3257556792907
 20
144.9908539779182
 30
0.0
 11
192.3257556792907
 21
117.9255919714374
 31
0.0
  0
LINE
  5
2970
330
2857
100
AcDbEntity
  8
AM_5
100
AcDbLine
 10
240.8257556792907
 20
144.9908539779181
 30
0.0
 11
240.8257556792907
 21
117.9255919714374
 31
0.0
  0
LINE
  5
2971
330
2857
100
AcDbEntity
  8
AM_5
100
AcDbLine
 10
194.8257556792907
 20
118.9255919714374
 30
0.0
 11
238.3257556792907
 21
118.9255919714374
 31
0.0
  0
SOLID
  5
2972
330
2857
100
AcDbEntity
  8
AM_5
100
AcDbTrace
 10
194.8257556792907
 20
119.3422586381041
 30
0.0
 11
194.8257556792907
 21
118.5089253047707
 31
0.0
 12
192.3257556792907
 22
118.9255919714374
 32
0.0
 13
192.3257556792907
 23
118.9255919714374
 33
0.0
  0
SOLID
  5
2973
330
2857
100
AcDbEntity
  8
AM_5
100
AcDbTrace
 10
238.3257556792907
 20
119.3422586381041
 30
0.0
 11
238.3257556792907
 21
118.5089253047707
 31
0.0
 12
240.8257556792907
 22
118.9255919714374
 32
0.0
 13
240.8257556792907
 23
118.9255919714374
 33
0.0
  0
MTEXT
  5
2974
330
2857
100
AcDbEntity
  8
AM_5
100
AcDbMText
 10
216.5757556792907
 20
121.6755919714374
 30
0.0
 40
3.5
 41
0.0
 71
     5
 72
     1
  1
48.5
 73
     1
 44
1.0
1001
ACAD
1000
MTEXTBEGIN
1070
    73
1070
     1
1070
    44
1040
1.0
1070
    74
1070
     0
1000
MTEXTEND
  0
POINT
  5
2975
330
2857
100
AcDbEntity
  8
Defpoints
 62
     0
100
AcDbPoint
 10
192.3257556792907
 20
145.9908539779182
 30
0.0
  0
POINT
  5
2976
330
2857
100
AcDbEntity
  8
Defpoints
 62
     0
100
AcDbPoint
 10
240.8257556792907
 20
145.9908539779181
 30
0.0
  0
POINT
  5
2977
330
2857
100
AcDbEntity
  8
Defpoints
 62
     0
100
AcDbPoint
 10
240.8257556792907
 20
118.9255919714374
 30
0.0
  0
ENDBLK
  5
2862
330
2857
100
AcDbEntity
  8
0
100
AcDbBlockEnd
  0
BLOCK
  5
286D
330
2863
100
AcDbEntity
  8
0
100
AcDbBlockBegin
  2
*D61
 70
     1
 10
0.0
 20
0.0
 30
0.0
  3
*D61
  1

  0
LINE
  5
2978
330
2863
100
AcDbEntity
  8
AM_5
100
AcDbLine
 10
213.7319581867798
 20
184.7995351255665
 30
0.0
 11
181.1695531618016
 21
184.7995351255665
 31
0.0
  0
LINE
  5
2979
330
2863
100
AcDbEntity
  8
AM_5
100
AcDbLine
 10
213.7319581867799
 20
130.9255929714374
 30
0.0
 11
181.1695531618016
 21
130.9255929714374
 31
0.0
  0
LINE
  5
297A
330
2863
100
AcDbEntity
  8
AM_5
100
AcDbLine
 10
182.1695531618016
 20
182.2995351255665
 30
0.0
 11
182.1695531618016
 21
133.4255929714374
 31
0.0
  0
SOLID
  5
297B
330
2863
100
AcDbEntity
  8
AM_5
100
AcDbTrace
 10
181.7528864951349
 20
182.2995351255665
 30
0.0
 11
182.5862198284682
 21
182.2995351255665
 31
0.0
 12
182.1695531618016
 22
184.7995351255665
 32
0.0
 13
182.1695531618016
 23
184.7995351255665
 33
0.0
  0
SOLID
  5
297C
330
2863
100
AcDbEntity
  8
AM_5
100
AcDbTrace
 10
181.7528864951349
 20
133.4255929714374
 30
0.0
 11
182.5862198284682
 21
133.4255929714374
 31
0.0
 12
182.1695531618016
 22
130.9255929714374
 32
0.0
 13
182.1695531618016
 23
130.9255929714374
 33
0.0
  0
MTEXT
  5
297D
330
2863
100
AcDbEntity
  8
AM_5
100
AcDbMText
 10
179.2445531618015
 20
157.862564048502
 30
0.0
 40
3.5
 41
0.0
 71
     5
 72
     1
  1
(54)
 11
0.0000000000000001
 21
1.0
 31
0.0
 73
     1
 44
1.0
1001
ACAD
1000
MTEXTBEGIN
1070
    73
1070
     1
1070
    44
1040
1.0
1070
    74
1070
     0
1000
MTEXTEND
  0
POINT
  5
297E
330
2863
100
AcDbEntity
  8
Defpoints
 62
     0
100
AcDbPoint
 10
214.7319581867798
 20
184.7995351255665
 30
0.0
  0
POINT
  5
297F
330
2863
100
AcDbEntity
  8
Defpoints
 62
     0
100
AcDbPoint
 10
214.7319581867798
 20
130.9255929714374
 30
0.0
  0
POINT
  5
2980
330
2863
100
AcDbEntity
  8
Defpoints
 62
     0
100
AcDbPoint
 10
182.1695531618016
 20
130.9255929714374
 30
0.0
  0
ENDBLK
  5
286E
330
2863
100
AcDbEntity
  8
0
100
AcDbBlockEnd
  0
BLOCK
  5
2890
330
2886
100
AcDbEntity
  8
0
100
AcDbBlockBegin
  2
*D62
 70
     1
 10
0.0
 20
0.0
 30
0.0
  3
*D62
  1

  0
LINE
  5
2981
330
2886
100
AcDbEntity
  8
AM_5
100
AcDbLine
 10
375.9651408125583
 20
182.3625640485019
 30
0.0
 11
401.3224423104079
 21
182.3625640485019
 31
0.0
  0
LINE
  5
2982
330
2886
100
AcDbEntity
  8
AM_5
100
AcDbLine
 10
375.9651408125583
 20
133.3625640485019
 30
0.0
 11
401.3224423104079
 21
133.3625640485019
 31
0.0
  0
LINE
  5
2983
330
2886
100
AcDbEntity
  8
AM_5
100
AcDbLine
 10
400.3224423104079
 20
179.8625640485019
 30
0.0
 11
400.3224423104079
 21
135.8625640485019
 31
0.0
  0
SOLID
  5
2984
330
2886
100
AcDbEntity
  8
AM_5
100
AcDbTrace
 10
399.9057756437413
 20
179.8625640485019
 30
0.0
 11
400.7391089770746
 21
179.8625640485019
 31
0.0
 12
400.3224423104079
 22
182.3625640485019
 32
0.0
 13
400.3224423104079
 23
182.3625640485019
 33
0.0
  0
SOLID
  5
2985
330
2886
100
AcDbEntity
  8
AM_5
100
AcDbTrace
 10
399.9057756437413
 20
135.8625640485019
 30
0.0
 11
400.7391089770746
 21
135.8625640485019
 31
0.0
 12
400.3224423104079
 22
133.3625640485019
 32
0.0
 13
400.3224423104079
 23
133.3625640485019
 33
0.0
  0
MTEXT
  5
2986
330
2886
100
AcDbEntity
  8
AM_5
100
AcDbMText
 10
397.5724423104079
 20
157.862564048502
 30
0.0
 40
3.5
 41
0.0
 71
     5
 72
     1
  1
%%c49
 11
0.0000000000000001
 21
1.0
 31
0.0
 73
     1
 44
1.0
1001
ACAD
1000
MTEXTBEGIN
1070
    73
1070
     1
1070
    44
1040
1.0
1070
    74
1070
     0
1000
MTEXTEND
  0
POINT
  5
2987
330
2886
100
AcDbEntity
  8
Defpoints
 62
     0
100
AcDbPoint
 10
374.9651408125583
 20
182.3625640485019
 30
0.0
  0
POINT
  5
2988
330
2886
100
AcDbEntity
  8
Defpoints
 62
     0
100
AcDbPoint
 10
374.9651408125583
 20
133.3625640485019
 30
0.0
  0
POINT
  5
2989
330
2886
100
AcDbEntity
  8
Defpoints
 62
     0
100
AcDbPoint
 10
400.3224423104079
 20
133.3625640485019
 30
0.0
  0
ENDBLK
  5
2891
330
2886
100
AcDbEntity
  8
0
100
AcDbBlockEnd
  0
BLOCK
  5
2899
330
2892
100
AcDbEntity
  8
0
100
AcDbBlockBegin
  2
*D63
 70
     1
 10
0.0
 20
0.0
 30
0.0
  3
*D63
  1

  0
LINE
  5
298A
330
2892
100
AcDbEntity
  8
AM_5
100
AcDbLine
 10
377.9587550589486
 20
183.7223666831538
 30
0.0
 11
380.5519482693895
 21
186.6327675108848
 31
0.0
  0
LINE
  5
298B
330
2892
100
AcDbEntity
  8
AM_5
100
AcDbLine
 10
380.5519482693895
 20
186.6327675108848
 30
0.0
 11
389.39692301622
 21
186.6327675108848
 31
0.0
  0
SOLID
  5
298C
330
2892
100
AcDbEntity
  8
AM_5
100
AcDbTrace
 10
377.6476622224068
 20
183.9995531874491
 30
0.0
 11
378.2698478954904
 21
183.4451801788584
 31
0.0
 12
376.2956360331765
 22
181.8558096639028
 32
0.0
 13
376.2956360331765
 23
181.8558096639028
 33
0.0
  0
MTEXT
  5
298D
330
2892
100
AcDbEntity
  8
AM_5
100
AcDbMText
 10
385.4744356428047
 20
189.3827675108848
 30
0.0
 40
3.5
 41
0.0
 71
     5
 72
     1
  1
R0.5
 73
     1
 44
1.0
1001
ACAD
1000
MTEXTBEGIN
1070
    73
1070
     1
1070
    44
1040
1.0
1070
    74
1070
     0
1000
MTEXTEND
  0
POINT
  5
298E
330
2892
100
AcDbEntity
  8
Defpoints
 62
     0
100
AcDbPoint
 10
376.2956360331765
 20
181.8558096639028
 30
0.0
  0
POINT
  5
298F
330
2892
100
AcDbEntity
  8
Defpoints
 62
     0
100
AcDbPoint
 10
374.9651408125587
 20
180.3625640485021
 30
0.0
  0
ENDBLK
  5
289A
330
2892
100
AcDbEntity
  8
0
100
AcDbBlockEnd
  0
BLOCK
  5
28A5
330
289B
100
AcDbEntity
  8
0
100
AcDbBlockBegin
  2
*D64
 70
     1
 10
0.0
 20
0.0
 30
0.0
  3
*D64
  1

  0
LINE
  5
2990
330
289B
100
AcDbEntity
  8
AM_5
100
AcDbLine
 10
268.9811103028113
 20
141.8625640485019
 30
0.0
 11
268.9811103028113
 21
124.6379764029364
 31
0.0
  0
LINE
  5
2991
330
289B
100
AcDbEntity
  8
AM_5
100
AcDbLine
 10
287.9811103028113
 20
129.9255929714374
 30
0.0
 11
287.9811103028113
 21
124.6379764029364
 31
0.0
  0
LINE
  5
2992
330
289B
100
AcDbEntity
  8
AM_5
100
AcDbLine
 10
271.4811103028113
 20
125.6379764029364
 30
0.0
 11
285.4811103028113
 21
125.6379764029364
 31
0.0
  0
SOLID
  5
2993
330
289B
100
AcDbEntity
  8
AM_5
100
AcDbTrace
 10
271.4811103028113
 20
126.0546430696031
 30
0.0
 11
271.4811103028113
 21
125.2213097362697
 31
0.0
 12
268.9811103028113
 22
125.6379764029364
 32
0.0
 13
268.9811103028113
 23
125.6379764029364
 33
0.0
  0
SOLID
  5
2994
330
289B
100
AcDbEntity
  8
AM_5
100
AcDbTrace
 10
285.4811103028113
 20
126.0546430696031
 30
0.0
 11
285.4811103028113
 21
125.2213097362697
 31
0.0
 12
287.9811103028113
 22
125.6379764029364
 32
0.0
 13
287.9811103028113
 23
125.6379764029364
 33
0.0
  0
MTEXT
  5
2995
330
289B
100
AcDbEntity
  8
AM_5
100
AcDbMText
 10
278.4811103028113
 20
128.3879764029364
 30
0.0
 40
3.5
 41
0.0
 71
     5
 72
     1
  1
19
 73
     1
 44
1.0
1001
ACAD
1000
MTEXTBEGIN
1070
    73
1070
     1
1070
    44
1040
1.0
1070
    74
1070
     0
1000
MTEXTEND
  0
POINT
  5
2996
330
289B
100
AcDbEntity
  8
Defpoints
 62
     0
100
AcDbPoint
 10
268.9811103028113
 20
142.8625640485019
 30
0.0
  0
POINT
  5
2997
330
289B
100
AcDbEntity
  8
Defpoints
 62
     0
100
AcDbPoint
 10
287.9811103028113
 20
130.9255929714374
 30
0.0
  0
POINT
  5
2998
330
289B
100
AcDbEntity
  8
Defpoints
 62
     0
100
AcDbPoint
 10
287.9811103028113
 20
125.6379764029364
 30
0.0
  0
ENDBLK
  5
28A6
330
289B
100
AcDbEntity
  8
0
100
AcDbBlockEnd
  0
BLOCK
  5
28B1
330
28A7
100
AcDbEntity
  8
0
100
AcDbBlockBegin
  2
*D65
 70
     1
 10
0.0
 20
0.0
 30
0.0
  3
*D65
  1

  0
LINE
  5
2999
330
28A7
100
AcDbEntity
  8
AM_5
100
AcDbLine
 10
287.9811103028113
 20
129.9255929714374
 30
0.0
 11
287.9811103028113
 21
124.6379764029364
 31
0.0
  0
LINE
  5
299A
330
28A7
100
AcDbEntity
  8
AM_5
100
AcDbLine
 10
295.9811103028113
 20
129.9255929714374
 30
0.0
 11
295.9811103028113
 21
124.6379764029364
 31
0.0
  0
LINE
  5
299B
330
28A7
100
AcDbEntity
  8
AM_5
100
AcDbLine
 10
290.4811103028113
 20
125.6379764029364
 30
0.0
 11
293.4811103028113
 21
125.6379764029364
 31
0.0
  0
SOLID
  5
299C
330
28A7
100
AcDbEntity
  8
AM_5
100
AcDbTrace
 10
290.4811103028113
 20
126.0546430696031
 30
0.0
 11
290.4811103028113
 21
125.2213097362697
 31
0.0
 12
287.9811103028113
 22
125.6379764029364
 32
0.0
 13
287.9811103028113
 23
125.6379764029364
 33
0.0
  0
SOLID
  5
299D
330
28A7
100
AcDbEntity
  8
AM_5
100
AcDbTrace
 10
293.4811103028113
 20
126.0546430696031
 30
0.0
 11
293.4811103028113
 21
125.2213097362697
 31
0.0
 12
295.9811103028113
 22
125.6379764029364
 32
0.0
 13
295.9811103028113
 23
125.6379764029364
 33
0.0
  0
MTEXT
  5
299E
330
28A7
100
AcDbEntity
  8
AM_5
100
AcDbMText
 10
291.9811103028113
 20
128.3879764029364
 30
0.0
 40
3.5
 41
0.0
 71
     5
 72
     1
  1
8
 73
     1
 44
1.0
1001
ACAD
1000
MTEXTBEGIN
1070
    73
1070
     1
1070
    44
1040
1.0
1070
    74
1070
     0
1000
MTEXTEND
  0
POINT
  5
299F
330
28A7
100
AcDbEntity
  8
Defpoints
 62
     0
100
AcDbPoint
 10
287.9811103028113
 20
130.9255929714374
 30
0.0
  0
POINT
  5
29A0
330
28A7
100
AcDbEntity
  8
Defpoints
 62
     0
100
AcDbPoint
 10
295.9811103028113
 20
130.9255929714374
 30
0.0
  0
POINT
  5
29A1
330
28A7
100
AcDbEntity
  8
Defpoints
 62
     0
100
AcDbPoint
 10
295.9811103028113
 20
125.6379764029364
 30
0.0
  0
ENDBLK
  5
28B2
330
28A7
100
AcDbEntity
  8
0
100
AcDbBlockEnd
  0
BLOCK
  5
28BD
330
28B3
100
AcDbEntity
  8
0
100
AcDbBlockBegin
  2
*D66
 70
     1
 10
0.0
 20
0.0
 30
0.0
  3
*D66
  1

  0
LINE
  5
29A2
330
28B3
100
AcDbEntity
  8
AM_5
100
AcDbLine
 10
268.9811103028113
 20
141.8625640485019
 30
0.0
 11
268.9811103028113
 21
117.1379764029366
 31
0.0
  0
LINE
  5
29A3
330
28B3
100
AcDbEntity
  8
AM_5
100
AcDbLine
 10
383.9715797504808
 20
156.8625640485019
 30
0.0
 11
383.9715797504808
 21
117.1379764029366
 31
0.0
  0
LINE
  5
29A4
330
28B3
100
AcDbEntity
  8
AM_5
100
AcDbLine
 10
271.4811103028113
 20
118.1379764029366
 30
0.0
 11
381.4715797504808
 21
118.1379764029366
 31
0.0
  0
SOLID
  5
29A5
330
28B3
100
AcDbEntity
  8
AM_5
100
AcDbTrace
 10
271.4811103028113
 20
118.5546430696033
 30
0.0
 11
271.4811103028113
 21
117.7213097362699
 31
0.0
 12
268.9811103028113
 22
118.1379764029366
 32
0.0
 13
268.9811103028113
 23
118.1379764029366
 33
0.0
  0
SOLID
  5
29A6
330
28B3
100
AcDbEntity
  8
AM_5
100
AcDbTrace
 10
381.4715797504808
 20
118.5546430696033
 30
0.0
 11
381.4715797504808
 21
117.7213097362699
 31
0.0
 12
383.9715797504808
 22
118.1379764029366
 32
0.0
 13
383.9715797504808
 23
118.1379764029366
 33
0.0
  0
MTEXT
  5
29A7
330
28B3
100
AcDbEntity
  8
AM_5
100
AcDbMText
 10
326.4763450266461
 20
120.8879764029366
 30
0.0
 40
3.5
 41
0.0
 71
     5
 72
     1
  1
115
 73
     1
 44
1.0
1001
ACAD
1000
MTEXTBEGIN
1070
    73
1070
     1
1070
    44
1040
1.0
1070
    74
1070
     0
1000
MTEXTEND
  0
POINT
  5
29A8
330
28B3
100
AcDbEntity
  8
Defpoints
 62
     0
100
AcDbPoint
 10
268.9811103028113
 20
142.8625640485019
 30
0.0
  0
POINT
  5
29A9
330
28B3
100
AcDbEntity
  8
Defpoints
 62
     0
100
AcDbPoint
 10
383.9715797504808
 20
157.8625640485019
 30
0.0
  0
POINT
  5
29AA
330
28B3
100
AcDbEntity
  8
Defpoints
 62
     0
100
AcDbPoint
 10
383.9715797504808
 20
118.1379764029366
 30
0.0
  0
ENDBLK
  5
28BE
330
28B3
100
AcDbEntity
  8
0
100
AcDbBlockEnd
  0
ENDSEC
  0
SECTION
  2
ENTITIES
  0
LWPOLYLINE
  5
C4
330
D
100
AcDbEntity
 67
     1
  8
LOGO
 62
     4
100
AcDbPolyline
 90
        4
 70
     1
 43
0.0
 10
14.81621615704415
 20
31.09161369216277
 10
405.5739607218687
 20
31.09161369216277
 10
405.5739607218687
 20
270.0852380026113
 10
14.81621615704415
 20
270.0852380026113
1001
GENIUS_GENREC_14
1002
{
1000
PYDIR
1011
14.81621615704415
1021
270.0852380026113
1031
0.0
1002
}
1002
{
1000
PXDIR
1011
405.5739607218687
1021
31.09161369216277
1031
0.0
1002
}
1002
{
1000
PORI
1011
14.81621615704415
1021
31.09161369216277
1031
0.0
1002
}
1002
{
1000
PINS
1011
14.81621615704415
1021
31.09161369216277
1031
0.0
1002
}
1002
{
1000
PINS2
1011
405.5739607218687
1021
270.0852380026113
1031
0.0
1002
}
1002
{
1000
C
1070
     1
1002
}
1001
GENIUS_GENODEF_13
1002
{
1000
HIER
1070
     0
1002
}
1002
{
1000
MANEDIT
1070
     0
1002
}
1002
{
1000
NOSEL
1070
     0
1002
}
1002
{
1000
BEHIND
1070
     0
1002
}
1002
{
1000
OTHER
1070
     0
1002
}
1002
{
1000
REACTOR
1002
}
1001
GENIUS_GENOBJ-N-REC_13
1002
{
1000
OWNER
1000
GEN
1002
}
  0
LWPOLYLINE
  5
C9
330
D
100
AcDbEntity
 67
     1
  8
LOGO
 62
     4
100
AcDbPolyline
 90
        4
 70
     1
 43
0.0
 10
14.81621615704415
 20
31.09161369216277
 10
405.5739607218687
 20
31.09161369216277
 10
405.5739607218687
 20
8.085238002611275
 10
14.81621615704415
 20
8.085238002611275
1001
GENIUS_GENREC_14
1002
{
1000
PYDIR
1011
14.81621615704415
1021
8.085238002611275
1031
0.0
1002
}
1002
{
1000
PXDIR
1011
405.5739607218687
1021
31.09161369216277
1031
0.0
1002
}
1002
{
1000
PORI
1011
14.81621615704415
1021
31.09161369216277
1031
0.0
1002
}
1002
{
1000
PINS
1011
14.81621615704415
1021
31.09161369216277
1031
0.0
1002
}
1002
{
1000
PINS2
1011
405.5739607218687
1021
8.085238002611275
1031
0.0
1002
}
1002
{
1000
C
1070
     1
1002
}
1001
GENIUS_GENOBJ-N-REC_13
1002
{
1000
OWNER
1000
GEN
1002
}
1001
GENIUS_GENODEF_13
1002
{
1000
HIER
1070
     0
1002
}
1002
{
1000
MANEDIT
1070
     0
1002
}
1002
{
1000
NOSEL
1070
     0
1002
}
1002
{
1000
BEHIND
1070
     0
1002
}
1002
{
1000
OTHER
1070
     0
1002
}
1002
{
1000
REACTOR
1002
}
  0
TEXT
  5
CA
330
D
100
AcDbEntity
 67
     1
  8
LOGO
 62
     7
100
AcDbText
 10
66.76308911008987
 20
21.01291198950523
 30
0.0
 40
3.067516758606799
  1
Order example:
 41
0.8
  7
CHINESET
100
AcDbText
  0
TEXT
  5
CC
330
D
100
AcDbEntity
 67
     1
  8
LOGO
 62
     7
100
AcDbText
 10
67.31342698391546
 20
25.33134044817449
 30
0.0
 40
4.601275137910199
  1
訂購代號：
  7
CHINESET
100
AcDbText
  0
LINE
  5
CD
330
D
100
AcDbEntity
 67
     1
  8
LOGO
 62
     4
100
AcDbLine
 10
65.43024267405654
 20
8.085238002611632
 30
0.0
 11
65.43024267405654
 21
31.09161369216278
 31
0.0
  0
TEXT
  5
CE
330
D
100
AcDbEntity
 67
     1
  8
LOGO
  6
Continuous
100
AcDbText
 10
23.0802097203906
 20
12.60480578717573
 30
0.0
 40
3.450956353432651
  1
金器工業股份有限公司
  7
CHINESET
100
AcDbText
  0
TEXT
  5
CF
330
D
100
AcDbEntity
 67
     1
  8
LOGO
  6
Continuous
100
AcDbText
 10
16.74148563718017
 20
9.153173316863274
 30
0.0
 40
2.300637568955099
  1
MINDMAN INDUSTRIAL CO., LTD.
 41
0.85
  7
CHINESET
100
AcDbText
  0
LINE
  5
D0
330
D
100
AcDbEntity
 67
     1
  8
LOGO
 62
     4
100
AcDbLine
 10
65.43024267405654
 20
26.49033855425236
 30
0.0
 11
31.68755832938143
 21
26.49033855425236
 31
0.0
  0
LINE
  5
D1
330
D
100
AcDbEntity
 67
     1
  8
LOGO
 62
     4
100
AcDbLine
 10
65.43024267405654
 20
21.88906341634218
 30
0.0
 11
31.68755832938143
 21
21.88906341634218
 31
0.0
  0
LINE
  5
D2
330
D
100
AcDbEntity
 67
     1
  8
LOGO
 62
     4
100
AcDbLine
 10
65.43024267405654
 20
17.28778827843228
 30
0.0
 11
14.81621615704432
 21
17.28778827843228
 31
0.0
  0
LINE
  5
D3
330
D
100
AcDbEntity
 67
     1
  8
LOGO
 62
     4
100
AcDbLine
 10
31.68755832938143
 20
17.28778827843228
 30
0.0
 11
31.68755832938143
 21
31.09161369216278
 31
0.0
  0
TEXT
  5
D4
330
D
100
AcDbEntity
 67
     1
  8
LOGO
100
AcDbText
 10
54.74909044852489
 20
18.43810706290941
 30
0.0
 40
2.300637568955099
  1
mm
  7
CHINESET
 72
     1
 11
57.5974988672312
 21
19.58842584738696
 31
0.0
100
AcDbText
 73
     2
  0
TEXT
  5
D5
330
D
100
AcDbEntity
 67
     1
  8
LOGO
100
AcDbText
 10
53.54399457907223
 20
27.64065733872993
 30
0.0
 40
2.300637568955099
  1
1 : 1
  7
CHINESET
 72
     1
 11
57.5974988672312
 21
28.79097612320748
 31
0.0
100
AcDbText
 73
     2
  0
LINE
  5
D6
330
D
100
AcDbEntity
 67
     1
  8
LOGO
 62
     4
100
AcDbLine
 10
50.09265888102244
 20
17.28778827843228
 30
0.0
 11
50.09265888102244
 21
31.09161369216278
 31
0.0
  0
CIRCLE
  5
D7
330
D
100
AcDbEntity
 67
     1
  8
LOGO
  6
Continuous
100
AcDbCircle
 10
54.35257709914111
 20
24.19462206589313
 30
0.0
 40
1.335804323439464
  0
CIRCLE
  5
D8
330
D
100
AcDbEntity
 67
     1
  8
LOGO
  6
Continuous
100
AcDbCircle
 10
54.35257709914111
 20
24.19462206589313
 30
0.0
 40
0.7826630814693158
  0
LINE
  5
D9
330
D
100
AcDbEntity
 67
     1
  8
LOGO
100
AcDbLine
 10
62.74692646781358
 20
22.85881774245331
 30
0.0
 11
62.74692646781358
 21
25.53042638933277
 31
0.0
  0
LINE
  5
DA
330
D
100
AcDbEntity
 67
     1
  8
LOGO
100
AcDbLine
 10
58.55925659265786
 20
23.41195898442387
 30
0.0
 11
58.55925659265786
 21
24.9772851473625
 31
0.0
  0
LINE
  5
DB
330
D
100
AcDbEntity
 67
     1
  8
LOGO
  6
Continuous
100
AcDbLine
 10
58.55925659265786
 20
24.9772851473625
 30
0.0
 11
62.74692646781358
 21
25.53042638933277
 31
0.0
  0
LINE
  5
DC
330
D
100
AcDbEntity
 67
     1
  8
LOGO
  6
Continuous
100
AcDbLine
 10
58.55925659265786
 20
23.41195898442387
 30
0.0
 11
62.74692646781358
 21
22.85881774245331
 31
0.0
  0
TEXT
  5
DD
330
D
100
AcDbEntity
 67
     1
  8
LOGO
100
AcDbText
 10
33.58455725342631
 20
27.64178954225796
 30
0.0
 40
2.300637568955099
  1
比例 Scale:
 41
0.9
  7
CHINESET
 72
     4
 11
40.89010860520203
 21
28.79097612320748
 31
0.0
100
AcDbText
  0
TEXT
  5
DE
330
D
100
AcDbEntity
 67
     1
  8
LOGO
100
AcDbText
 10
33.45206517914274
 20
23.07174435166249
 30
0.0
 40
2.300637568955099
  1
投影  View:
 41
0.9
  7
CHINESET
 72
     4
 11
40.89010860520203
 21
24.18970098529721
 31
0.0
100
AcDbText
  0
TEXT
  5
DF
330
D
100
AcDbEntity
 67
     1
  8
LOGO
100
AcDbText
 10
33.67699358432183
 20
18.43810706290941
 30
0.0
 40
2.300637568955099
  1
單位  Unit:
 41
0.9
  7
CHINESET
 72
     4
 11
40.89010860520203
 21
19.58842584738696
 31
0.0
100
AcDbText
  0
SOLID
  5
E0
330
D
100
AcDbEntity
 67
     1
  8
LOGO
 62
     5
100
AcDbTrace
 10
17.20316455725964
 20
21.11227076684881
 30
0.0
 11
18.19789987334616
 21
21.11227076684857
 31
0.0
 12
22.34834722667188
 22
30.54510566077147
 32
0.0
 13
23.34308254275857
 23
30.54510566077102
 33
0.0
  0
SOLID
  5
E1
330
D
100
AcDbEntity
 67
     1
  8
LOGO
 62
     5
100
AcDbTrace
 10
18.60951448690002
 20
21.11227076684881
 30
0.0
 11
19.60424980298637
 21
21.11227076684881
 31
0.0
 12
23.34308254275857
 22
29.79047886925741
 32
0.0
 13
22.34834722667188
 23
26.14311604360731
 33
0.0
  0
SOLID
  5
E2
330
D
100
AcDbEntity
 67
     1
  8
LOGO
 62
     2
100
AcDbTrace
 10
18.19789987334616
 20
21.11227076684857
 30
0.0
 11
18.60951448690002
 21
21.11227076684881
 31
0.0
 12
23.34308254275857
 22
30.54510566077102
 32
0.0
 13
23.75469715631226
 23
30.54510566077102
 33
0.0
  0
SOLID
  5
E3
330
D
100
AcDbEntity
 67
     1
  8
LOGO
 62
     5
100
AcDbTrace
 10
15.60835990659302
 20
17.68214898724079
 30
0.0
 11
15.95137208455412
 21
17.68214898724079
 31
0.0
 12
16.91732107562592
 22
19.39720987704473
 32
0.0
 13
17.26033325358611
 23
19.39720987704473
 33
0.0
  0
SOLID
  5
E4
330
D
100
AcDbEntity
 67
     1
  8
LOGO
 62
     5
100
AcDbTrace
 10
16.91732107562592
 20
19.39720987704473
 30
0.0
 11
17.26033325358611
 21
19.39720987704473
 31
0.0
 12
16.91732107562592
 22
17.68214898724079
 32
0.0
 13
17.26033325358611
 23
17.68214898724079
 33
0.0
  0
SOLID
  5
E5
330
D
100
AcDbEntity
 67
     1
  8
LOGO
 62
     5
100
AcDbTrace
 10
16.91732107562592
 20
17.68214898724079
 30
0.0
 11
17.26033325358611
 21
17.68214898724079
 31
0.0
 12
18.22628224465956
 22
19.39720987704473
 32
0.0
 13
18.56929442262014
 23
19.39720987704473
 33
0.0
  0
SOLID
  5
E6
330
D
100
AcDbEntity
 67
     1
  8
LOGO
 62
     5
100
AcDbTrace
 10
18.22628224465956
 20
19.39720987704473
 30
0.0
 11
18.56929442262014
 21
19.39720987704473
 31
0.0
 12
18.22628224465956
 22
17.68214898724079
 32
0.0
 13
18.56929442262014
 23
17.68214898724079
 33
0.0
  0
POLYLINE
  5
E7
330
D
100
AcDbEntity
 67
     1
  8
LOGO
 62
     5
100
AcDb2dPolyline
 66
     1
 10
0.0
 20
0.0
 30
0.0
 40
0.3435618769639617
 41
0.3435618769639617
  0
VERTEX
  5
E8
330
E7
100
AcDbEntity
 67
     1
  8
LOGO
 62
     5
100
AcDbVertex
100
AcDb2dVertex
 10
29.72393360133527
 20
18.71118552112313
 30
0.0
 42
1.0
  0
VERTEX
  5
E9
330
E7
100
AcDbEntity
 67
     1
  8
LOGO
 62
     5
100
AcDbVertex
100
AcDb2dVertex
 10
28.69324797044294
 20
18.71118552112313
 30
0.0
 42
1.0
  0
SEQEND
  5
EA
330
E7
100
AcDbEntity
 67
     1
  8
LOGO
 62
     5
  0
POLYLINE
  5
EB
330
D
100
AcDbEntity
 67
     1
  8
LOGO
 62
     5
100
AcDb2dPolyline
 66
     1
 10
0.0
 20
0.0
 30
0.0
 70
     1
  0
VERTEX
  5
EC
330
EB
100
AcDbEntity
 67
     1
  8
LOGO
 62
     5
100
AcDbVertex
100
AcDb2dVertex
 10
26.75035971131427
 20
18.53967943214248
 30
0.0
 42
1.000000057330635
  0
VERTEX
  5
ED
330
EB
100
AcDbEntity
 67
     1
  8
LOGO
 62
     5
100
AcDbVertex
100
AcDb2dVertex
 10
27.77939624519689
 20
18.53967943214248
 30
0.0
 42
1.000000057330635
  0
SEQEND
  5
EE
330
EB
100
AcDbEntity
 67
     1
  8
LOGO
 62
     5
  0
CIRCLE
  5
EF
330
D
100
AcDbEntity
 67
     1
  8
LOGO
 62
     5
100
AcDbCircle
 10
27.26487797825621
 20
18.53967943214248
 30
0.0
 40
0.5145182669412291
  0
POLYLINE
  5
F0
330
D
100
AcDbEntity
 67
     1
  8
LOGO
 62
     5
100
AcDb2dPolyline
 66
     1
 10
0.0
 20
0.0
 30
0.0
 70
     1
 40
0.3435618769639617
 41
0.3435618769639617
  0
VERTEX
  5
F1
330
F0
100
AcDbEntity
 67
     1
  8
LOGO
 62
     5
100
AcDbVertex
100
AcDb2dVertex
 10
26.57775422432803
 20
18.53967943214248
 30
0.0
 42
1.0
  0
VERTEX
  5
F2
330
F0
100
AcDbEntity
 67
     1
  8
LOGO
 62
     5
100
AcDbVertex
100
AcDb2dVertex
 10
27.95200173218376
 20
18.53967943214248
 30
0.0
 42
1.0
  0
SEQEND
  5
F3
330
F0
100
AcDbEntity
 67
     1
  8
LOGO
 62
     5
  0
LINE
  5
F4
330
D
100
AcDbEntity
 67
     1
  8
LOGO
100
AcDbLine
 10
29.89461514180994
 20
17.68214898724079
 30
0.0
 11
29.89461514180994
 21
18.71118552112313
 31
0.0
  0
SOLID
  5
F5
330
D
100
AcDbEntity
 67
     1
  8
LOGO
 62
     5
100
AcDbTrace
 10
27.77936194398052
 20
19.39720987704473
 30
0.0
 11
28.12237412194088
 21
19.39720987704473
 31
0.0
 12
27.77936194398052
 22
17.68214898724079
 32
0.0
 13
28.12237412194088
 23
17.68214898724079
 33
0.0
  0
SOLID
  5
F6
330
D
100
AcDbEntity
 67
     1
  8
LOGO
 62
     5
100
AcDbTrace
 10
28.52256642996673
 20
17.68214898724079
 30
0.0
 11
28.86557860792795
 21
17.68214898724079
 31
0.0
 12
28.52256642996673
 22
19.39720987704473
 32
0.0
 13
28.86557860792795
 23
19.39720987704473
 33
0.0
  0
SOLID
  5
F7
330
D
100
AcDbEntity
 67
     1
  8
LOGO
 62
     5
100
AcDbTrace
 10
29.55160296384969
 20
18.71118552112313
 30
0.0
 11
29.89461514180994
 21
18.71118552112313
 31
0.0
 12
29.55160296384969
 22
17.68214898724079
 32
0.0
 13
29.89461514180994
 23
17.68214898724079
 33
0.0
  0
SOLID
  5
F8
330
D
100
AcDbEntity
 67
     1
  8
LOGO
 62
     5
100
AcDbTrace
 10
28.4882652121708
 20
29.79047886925741
 30
0.0
 11
27.49352989608502
 21
26.14311604360731
 31
0.0
 12
28.4882652121708
 22
21.11227076684857
 32
0.0
 13
27.49352989608502
 23
21.11227076684857
 33
0.0
  0
SOLID
  5
F9
330
D
100
AcDbEntity
 67
     1
  8
LOGO
 62
     5
100
AcDbTrace
 10
28.8998798257241
 20
21.11227076684857
 30
0.0
 11
29.89461514180994
 21
21.11227076684857
 31
0.0
 12
28.8998798257241
 22
30.54510566077102
 32
0.0
 13
29.89461514180994
 23
30.54510566077147
 33
0.0
  0
SOLID
  5
FA
330
D
100
AcDbEntity
 67
     1
  8
LOGO
 62
     2
100
AcDbTrace
 10
28.4882652121708
 20
30.54510566077147
 30
0.0
 11
28.8998798257241
 21
30.54510566077102
 31
0.0
 12
28.4882652121708
 22
21.11227076684857
 32
0.0
 13
28.8998798257241
 23
21.11227076684857
 33
0.0
  0
POLYLINE
  5
FB
330
D
100
AcDbEntity
 67
     1
  8
LOGO
 62
     5
100
AcDb2dPolyline
 66
     1
 10
0.0
 20
0.0
 30
0.0
 40
0.3435618769639617
 41
0.3435618769639617
  0
VERTEX
  5
FC
330
FB
100
AcDbEntity
 67
     1
  8
LOGO
 62
     5
100
AcDbVertex
100
AcDb2dVertex
 10
24.80740284975127
 20
18.71118552112313
 30
0.0
 42
1.0
  0
VERTEX
  5
FD
330
FB
100
AcDbEntity
 67
     1
  8
LOGO
 62
     5
100
AcDbVertex
100
AcDb2dVertex
 10
23.7767172188594
 20
18.71118552112313
 30
0.0
 42
1.0
  0
SEQEND
  5
FE
330
FB
100
AcDbEntity
 67
     1
  8
LOGO
 62
     5
  0
POLYLINE
  5
FF
330
D
100
AcDbEntity
 67
     1
  8
LOGO
 62
     5
100
AcDb2dPolyline
 66
     1
 10
0.0
 20
0.0
 30
0.0
 40
0.3435618769639617
 41
0.3435618769639617
  0
VERTEX
  5
100
330
FF
100
AcDbEntity
 67
     1
  8
LOGO
 62
     5
100
AcDbVertex
100
AcDb2dVertex
 10
25.83643938363298
 20
18.71118552112313
 30
0.0
 42
1.0
  0
VERTEX
  5
101
330
FF
100
AcDbEntity
 67
     1
  8
LOGO
 62
     5
100
AcDbVertex
100
AcDb2dVertex
 10
24.80575375274111
 20
18.71118552112313
 30
0.0
 42
1.0
  0
SEQEND
  5
102
330
FF
100
AcDbEntity
 67
     1
  8
LOGO
 62
     5
  0
POLYLINE
  5
103
330
D
100
AcDbEntity
 67
     1
  8
LOGO
 62
     5
100
AcDb2dPolyline
 66
     1
 10
0.0
 20
0.0
 30
0.0
 40
0.3435618769639617
 41
0.3435618769639617
  0
VERTEX
  5
104
330
103
100
AcDbEntity
 67
     1
  8
LOGO
 62
     5
100
AcDbVertex
100
AcDb2dVertex
 10
20.91990863204944
 20
18.71118552112313
 30
0.0
 42
1.0
  0
VERTEX
  5
105
330
103
100
AcDbEntity
 67
     1
  8
LOGO
 62
     5
100
AcDbVertex
100
AcDb2dVertex
 10
19.88922300115791
 20
18.71118552112313
 30
0.0
 42
1.0
  0
SEQEND
  5
106
330
103
100
AcDbEntity
 67
     1
  8
LOGO
 62
     5
  0
SOLID
  5
107
330
D
100
AcDbEntity
 67
     1
  8
LOGO
 62
     5
100
AcDbTrace
 10
19.71854146068239
 20
19.39720987704473
 30
0.0
 11
20.06155363864275
 21
19.39720987704473
 31
0.0
 12
19.71854146068239
 22
17.68214898724079
 32
0.0
 13
20.06155363864275
 23
17.68214898724079
 33
0.0
  0
SOLID
  5
108
330
D
100
AcDbEntity
 67
     1
  8
LOGO
 62
     5
100
AcDbTrace
 10
20.74757799456472
 20
18.71118552112313
 30
0.0
 11
21.09059017252594
 21
18.71118552112313
 31
0.0
 12
20.74757799456472
 22
17.68214898724079
 32
0.0
 13
21.09059017252594
 23
17.68214898724079
 33
0.0
  0
POLYLINE
  5
109
330
D
100
AcDbEntity
 67
     1
  8
LOGO
 62
     5
100
AcDb2dPolyline
 66
     1
 10
0.0
 20
0.0
 30
0.0
 70
     1
 40
0.3435618769639617
 41
0.3435618769639617
  0
VERTEX
  5
10A
330
109
100
AcDbEntity
 67
     1
  8
LOGO
 62
     5
100
AcDbVertex
100
AcDb2dVertex
 10
21.66122347274387
 20
18.53967943214248
 30
0.0
 42
1.0
  0
VERTEX
  5
10B
330
109
100
AcDbEntity
 67
     1
  8
LOGO
 62
     5
100
AcDbVertex
100
AcDb2dVertex
 10
23.03547098060028
 20
18.53967943214248
 30
0.0
 42
1.0
  0
SEQEND
  5
10C
330
109
100
AcDbEntity
 67
     1
  8
LOGO
 62
     5
  0
SOLID
  5
10D
330
D
100
AcDbEntity
 67
     1
  8
LOGO
 62
     5
100
AcDbTrace
 10
22.86283119239596
 20
19.91172814398615
 30
0.0
 11
23.20584337035672
 21
19.91172814398615
 31
0.0
 12
22.86283119239596
 22
17.68214898724079
 32
0.0
 13
23.20584337035672
 23
17.68214898724079
 33
0.0
  0
SOLID
  5
10E
330
D
100
AcDbEntity
 67
     1
  8
LOGO
 62
     5
100
AcDbTrace
 10
23.60603567838439
 20
19.39720987704473
 30
0.0
 11
23.94904785634446
 21
19.39720987704473
 31
0.0
 12
23.60603567838439
 22
17.68214898724079
 32
0.0
 13
23.94904785634446
 23
17.68214898724079
 33
0.0
  0
SOLID
  5
10F
330
D
100
AcDbEntity
 67
     1
  8
LOGO
 62
     5
100
AcDbTrace
 10
24.63507221226587
 20
18.71118552112313
 30
0.0
 11
24.97808439022708
 21
18.71118552112313
 31
0.0
 12
24.63507221226587
 22
17.68214898724079
 32
0.0
 13
24.97808439022708
 23
17.68214898724079
 33
0.0
  0
SOLID
  5
110
330
D
100
AcDbEntity
 67
     1
  8
LOGO
 62
     5
100
AcDbTrace
 10
25.6641087461486
 20
18.71118552112313
 30
0.0
 11
26.00712092410891
 21
18.71118552112313
 31
0.0
 12
25.6641087461486
 22
17.68214898724031
 32
0.0
 13
26.00712092410891
 23
17.68214898724031
 33
0.0
  0
SOLID
  5
111
330
D
100
AcDbEntity
 67
     1
  8
LOGO
 62
     5
100
AcDbTrace
 10
18.97533697469441
 20
19.63731840161741
 30
0.0
 11
19.31834915265602
 21
19.63731840161741
 31
0.0
 12
18.97533697469441
 22
19.91172814398615
 32
0.0
 13
19.31834915265602
 23
19.91172814398615
 33
0.0
  0
SOLID
  5
112
330
D
100
AcDbEntity
 67
     1
  8
LOGO
 62
     5
100
AcDbTrace
 10
18.97533697469441
 20
19.39720987704473
 30
0.0
 11
19.31834915265602
 21
19.39720987704473
 31
0.0
 12
18.97533697469441
 22
17.68214898724031
 32
0.0
 13
19.31834915265602
 23
17.68214898724079
 33
0.0
  0
SOLID
  5
113
330
D
100
AcDbEntity
 67
     1
  8
LOGO
 62
     5
100
AcDbTrace
 10
22.34834722667188
 20
21.11227076684881
 30
0.0
 11
23.34308254275857
 21
21.11227076684881
 31
0.0
 12
22.34834722667188
 22
26.14311604360731
 32
0.0
 13
23.34308254275857
 23
29.79047886925741
 33
0.0
  0
SOLID
  5
114
330
D
100
AcDbEntity
 67
     1
  8
LOGO
 62
     5
100
AcDbTrace
 10
23.75469715631226
 20
30.54510566077102
 30
0.0
 11
24.74943247239804
 21
30.54510566077147
 31
0.0
 12
23.75469715631226
 22
21.86689755836241
 32
0.0
 13
24.74943247239804
 23
25.51426038401262
 33
0.0
  0
SOLID
  5
115
330
D
100
AcDbEntity
 67
     1
  8
LOGO
 62
     2
100
AcDbTrace
 10
23.34308254275857
 20
30.54510566077102
 30
0.0
 11
23.75469715631226
 21
30.54510566077102
 31
0.0
 12
23.34308254275857
 22
21.11227076684881
 32
0.0
 13
23.75469715631226
 23
21.11227076684881
 33
0.0
  0
SOLID
  5
116
330
D
100
AcDbEntity
 67
     1
  8
LOGO
 62
     5
100
AcDbTrace
 10
23.75469715631226
 20
21.86689755836241
 30
0.0
 11
24.74943247239804
 21
25.51426038401262
 31
0.0
 12
28.4882652121708
 22
30.54510566077147
 32
0.0
 13
27.49352989608502
 23
30.54510566077147
 33
0.0
  0
SOLID
  5
117
330
D
100
AcDbEntity
 67
     1
  8
LOGO
 62
     5
100
AcDbTrace
 10
23.75469715631226
 20
21.11227076684881
 30
0.0
 11
24.74943247239804
 21
21.11227076684881
 31
0.0
 12
28.4882652121708
 22
29.79047886925741
 32
0.0
 13
27.49352989608502
 23
26.14311604360731
 33
0.0
  0
SOLID
  5
118
330
D
100
AcDbEntity
 67
     1
  8
LOGO
 62
     2
100
AcDbTrace
 10
23.34308254275857
 20
21.11227076684881
 30
0.0
 11
23.75469715631226
 21
21.11227076684881
 31
0.0
 12
28.4882652121708
 22
30.54510566077147
 32
0.0
 13
28.8998798257241
 23
30.54510566077102
 33
0.0
  0
LINE
  5
119
330
D
100
AcDbEntity
 67
     1
  8
LOGO
 62
     4
100
AcDbLine
 10
109.1200408675604
 20
18.43810706290992
 30
0.0
 11
109.1200408675604
 21
10.00243597674078
 31
0.0
  0
LINE
  5
11A
330
D
100
AcDbEntity
 67
     1
  8
LOGO
 62
     4
100
AcDbLine
 10
99.69857722578133
 20
18.43810706290992
 30
0.0
 11
99.69857722578133
 21
10.00243597674078
 31
0.0
  0
LINE
  5
11B
330
D
100
AcDbEntity
 67
     1
  8
LOGO
 62
     4
100
AcDbLine
 10
109.1200408675604
 20
10.00243597674078
 30
0.0
 11
99.69857722578133
 21
10.00243597674078
 31
0.0
  0
LINE
  5
11C
330
D
100
AcDbEntity
 67
     1
  8
LOGO
 62
     4
100
AcDbLine
 10
116.1231352335874
 20
28.79097612320748
 30
0.0
 11
97.07449136024576
 21
28.79097612320748
 31
0.0
  0
LINE
  5
11D
330
D
100
AcDbEntity
 67
     1
  8
LOGO
 62
     4
100
AcDbLine
 10
116.1231352335874
 20
21.88906341634218
 30
0.0
 11
97.07449136024576
 21
21.88906341634218
 31
0.0
  0
LINE
  5
11E
330
D
100
AcDbEntity
 67
     1
  8
LOGO
 62
     4
100
AcDbLine
 10
97.07449136024576
 20
28.79097612320748
 30
0.0
 11
97.07449136024576
 21
21.88906341634218
 31
0.0
  0
LINE
  5
11F
330
D
100
AcDbEntity
 67
     1
  8
LOGO
 62
     4
100
AcDbLine
 10
116.1231352335874
 20
28.79097612320748
 30
0.0
 11
116.1231352335874
 21
21.88906341634218
 31
0.0
  0
LINE
  5
120
330
D
100
AcDbEntity
 67
     1
  8
LOGO
 62
     4
100
AcDbLine
 10
105.5435198982305
 20
21.88906341634218
 30
0.0
 11
105.5435198982305
 21
18.43810706290992
 31
0.0
  0
LINE
  5
122
330
D
100
AcDbEntity
 67
     1
  8
LOGO
 62
     4
100
AcDbLine
 10
109.1200408675604
 20
18.43810706290992
 30
0.0
 11
99.69857722578133
 21
18.43810706290992
 31
0.0
  0
TEXT
  5
123
330
D
100
AcDbEntity
 67
     1
  8
LOGO
  6
Continuous
100
AcDbText
 10
101.9962734413792
 20
11.19311306229744
 30
0.0
 40
1.725728055891837
  1
Model
 41
0.8
  7
CHINESET
100
AcDbText
  0
TEXT
  5
124
330
D
100
AcDbEntity
 67
     1
  8
LOGO
100
AcDbText
 10
101.5369407328693
 20
14.39224095698009
 30
0.0
 40
2.876213426486398
  1
型號
  7
CHINESET
100
AcDbText
  0
LINE
  5
125
330
D
100
AcDbEntity
 67
     1
  8
LOGO
  6
Continuous
 62
     7
100
AcDbLine
 10
117.6338518768227
 20
25.31557210420715
 30
0.0
 11
120.6814846885697
 21
25.31557210420715
 31
0.0
  0
LINE
  5
126
330
D
100
AcDbEntity
 67
     1
  8
LOGO
 62
     4
100
AcDbLine
 10
128.8175877810333
 20
18.43810706290992
 30
0.0
 11
128.8175877810333
 21
10.00243597674078
 31
0.0
  0
LINE
  5
127
330
D
100
AcDbEntity
 67
     1
  8
LOGO
 62
     4
100
AcDbLine
 10
120.274083166912
 20
18.43810706290992
 30
0.0
 11
120.274083166912
 21
10.00243597674078
 31
0.0
  0
LINE
  5
128
330
D
100
AcDbEntity
 67
     1
  8
LOGO
 62
     4
100
AcDbLine
 10
128.8175877810333
 20
10.00243597674078
 30
0.0
 11
120.274083166912
 21
10.00243597674078
 31
0.0
  0
LINE
  5
129
330
D
100
AcDbEntity
 67
     1
  8
LOGO
 62
     4
100
AcDbLine
 10
132.6763621304298
 20
28.79097612320748
 30
0.0
 11
122.3058902134678
 21
28.79097612320748
 31
0.0
  0
LINE
  5
12A
330
D
100
AcDbEntity
 67
     1
  8
LOGO
 62
     4
100
AcDbLine
 10
132.6763621304298
 20
21.88906341634218
 30
0.0
 11
122.3058902134678
 21
21.88906341634218
 31
0.0
  0
LINE
  5
12B
330
D
100
AcDbEntity
 67
     1
  8
LOGO
 62
     4
100
AcDbLine
 10
122.3058902134678
 20
28.79097612320748
 30
0.0
 11
122.3058902134678
 21
21.88906341634218
 31
0.0
  0
LINE
  5
12C
330
D
100
AcDbEntity
 67
     1
  8
LOGO
 62
     4
100
AcDbLine
 10
132.6763621304298
 20
28.79097612320748
 30
0.0
 11
132.6763621304298
 21
21.88906341634218
 31
0.0
  0
LINE
  5
12D
330
D
100
AcDbEntity
 67
     1
  8
LOGO
 62
     4
100
AcDbLine
 10
128.9130512904207
 20
21.88906341634218
 30
0.0
 11
128.9130512904207
 21
20.16358523962607
 31
0.0
  0
TEXT
  5
12E
330
D
100
AcDbEntity
 67
     1
  8
LOGO
  6
Continuous
 62
     7
100
AcDbText
 10
124.3896279889326
 20
23.32982760330509
 30
0.0
 40
4.026698797080958
  1
0*
  7
CHINESET
100
AcDbText
  0
LINE
  5
12F
330
D
100
AcDbEntity
 67
     1
  8
LOGO
 62
     4
100
AcDbLine
 10
128.8175877810333
 20
18.43810706290992
 30
0.0
 11
120.274083166912
 21
18.43810706290992
 31
0.0
  0
TEXT
  5
130
330
D
100
AcDbEntity
 67
     1
  8
LOGO
  6
Continuous
100
AcDbText
 10
122.0826761824923
 20
11.19311306229744
 30
0.0
 40
1.725728055891837
  1
TYPE
 41
0.8
  7
CHINESET
100
AcDbText
  0
TEXT
  5
131
330
D
100
AcDbEntity
 67
     1
  8
LOGO
100
AcDbText
 10
121.6311514607192
 20
14.39224095698009
 30
0.0
 40
2.876213426486398
  1
型式
  7
CHINESET
100
AcDbText
  0
TEXT
  5
132
330
D
100
AcDbEntity
 67
     1
  8
LOGO
100
AcDbText
 10
66.49620831711065
 20
9.309168108824977
 30
0.0
 40
2.300970741189115
  1
00808110
 41
0.7
  7
CHINESET
 72
     1
 11
72.09523712067085
 21
9.309168108824977
 31
0.0
100
AcDbText
  0
LINE
  5
133
330
D
100
AcDbEntity
 67
     1
  8
LOGO
 62
     4
100
AcDbLine
 10
79.23606712119021
 20
12.68651314052226
 30
0.0
 11
79.23606712119124
 21
8.08523800261176
 31
0.0
  0
LINE
  5
134
330
D
100
AcDbEntity
 67
     1
  8
LOGO
 62
     4
100
AcDbLine
 10
79.23606712119021
 20
12.68651314052226
 30
0.0
 11
65.43024267405654
 21
12.68651314052226
 31
0.0
  0
LINE
  5
135
330
D
100
AcDbEntity
 67
     1
  8
LOGO
  6
AM_ISO08W050x2
 48
0.3
100
AcDbLine
 10
52.51115083718493
 20
24.19462206589313
 30
0.0
 11
56.1940033610969
 21
24.19462206589313
 31
0.0
1001
GENIUS_GENOREF_13
1005
0
  0
LINE
  5
138
330
D
100
AcDbEntity
 67
     1
  8
LOGO
  6
AM_ISO08W050x2
 48
0.3
100
AcDbLine
 10
54.35257709914111
 20
22.35319580393706
 30
0.0
 11
54.35257709914111
 21
26.03604832784903
 31
0.0
1001
GENIUS_GENOREF_13
1005
0
  0
LINE
  5
139
330
D
100
AcDbEntity
 67
     1
  8
LOGO
  6
CENTER
 48
0.5
100
AcDbLine
 10
58.22435939838493
 20
24.19462206589313
 30
0.0
 11
63.16861126805531
 21
24.19462206589313
 31
0.0
1001
GENIUS_GENOREF_13
1005
0
  0
LINE
  5
13A
330
D
100
AcDbEntity
 67
     1
  8
LOGO
 62
     4
100
AcDbLine
 10
122.7660716574102
 20
20.16358523962607
 30
0.0
 11
122.7660716574102
 21
18.43810706290992
 31
0.0
  0
LINE
  5
13B
330
D
100
AcDbEntity
 67
     1
  8
LOGO
 62
     4
100
AcDbLine
 10
128.9130512904207
 20
20.16358523962607
 30
0.0
 11
122.7660716574102
 21
20.16358523962607
 31
0.0
  0
VIEWPORT
  5
B40
102
{ACAD_XDICTIONARY
360
29F1
102
}
330
D
100
AcDbEntity
 67
     1
  8
0
 62
     6
100
AcDbViewport
 10
210.1846993280712
 20
139.0762040607412
 30
0.0
 40
394.0759074244703
 41
413.0929753430774
 68
     1
 69
     1
 12
210.1846993280712
 22
139.0762040607412
 13
0.0
 23
0.0
 14
1.0
 24
1.0
 15
0.0
 25
0.0
 16
0.0
 26
0.0
 36
1.0
 17
0.0
 27
0.0
 37
0.0
 42
50.0
 43
0.0
 44
0.0
 45
413.0929753430774
 50
0.0
 51
0.0
 72
  1000
 90
    32800
  1

281
     0
 71
     0
 74
     0
110
0.0
120
0.0
130
0.0
111
1.0
121
0.0
131
0.0
112
0.0
122
1.0
132
0.0
 79
     0
146
0.0
  0
TEXT
  5
1853
330
D
100
AcDbEntity
 67
     1
  8
LOGO
  6
Continuous
 62
     7
100
AcDbText
 10
20.69941387750692
 20
259.8957331369209
 30
0.0
 40
4.026698797080958
  1
MSLT-01
  7
CHINESET
100
AcDbText
  0
TEXT
  5
1912
330
D
100
AcDbEntity
 67
     1
  8
LOGO
  6
Continuous
 62
     7
100
AcDbText
 10
127.5273869178144
 20
260.4967948646308
 30
0.0
 40
4.026698797080958
  1
MSLT-02
  7
CHINESET
100
AcDbText
  0
TEXT
  5
1C0B
330
D
100
AcDbEntity
 67
     1
  8
LOGO
  6
Continuous
 62
     7
100
AcDbText
 10
98.42018581798306
 20
23.33252446084145
 30
0.0
 40
4.026698797080958
  1
MSLT
  7
CHINESET
100
AcDbText
  0
LINE
  5
1CC0
330
D
100
AcDbEntity
 67
     1
  8
LOGO
 62
     4
100
AcDbLine
 10
14.81621615704415
 20
204.0216450007915
 30
0.0
 11
405.5739607218687
 21
204.0216450007915
 31
0.0
  0
LINE
  5
1CC1
330
D
100
AcDbEntity
 67
     1
  8
LOGO
 62
     4
100
AcDbLine
 10
14.81621615704415
 20
96.97338640484497
 30
0.0
 11
143.7417005765396
 21
96.97338640484497
 31
0.0
  0
LINE
  5
2066
330
D
100
AcDbEntity
 67
     1
  8
LOGO
 62
     4
100
AcDbLine
 10
115.8415684574525
 20
270.0852380026113
 30
0.0
 11
115.8415684574525
 21
204.0216450007915
 31
0.0
  0
LINE
  5
2067
330
D
100
AcDbEntity
 67
     1
  8
LOGO
 62
     4
100
AcDbLine
 10
268.6497661111766
 20
270.0852380026113
 30
0.0
 11
268.6497661111766
 21
204.0216450007915
 31
0.0
  0
LINE
  5
224F
330
D
100
AcDbEntity
 67
     1
  8
AM_7
100
AcDbLine
 10
33.52376513885815
 20
233.8456804492899
 30
0.0
 11
33.52376513885815
 21
233.8456804492899
 31
0.0
  0
LINE
  5
2250
330
D
100
AcDbEntity
 67
     1
  8
AM_7
100
AcDbLine
 10
33.52376513885815
 20
233.8456804492899
 30
0.0
 11
33.52376513885815
 21
233.8456804492899
 31
0.0
  0
LINE
  5
2251
330
D
100
AcDbEntity
 67
     1
  8
AM_7
100
AcDbLine
 10
24.38286767276782
 20
233.8456804492899
 30
0.0
 11
42.47163335458037
 21
233.8456804492899
 31
0.0
  0
LINE
  5
2253
330
D
100
AcDbEntity
 67
     1
  8
AM_7
100
AcDbLine
 10
33.52376513885815
 20
224.7377026452854
 30
0.0
 11
33.52376513885815
 21
242.6216067744748
 31
0.0
  0
ARC
  5
2255
330
D
100
AcDbEntity
 67
     1
  8
AM_4
100
AcDbCircle
 10
33.52376513885815
 20
233.8456804492899
 30
0.0
 40
3.309499999999999
100
AcDbArc
 50
259.9999999999998
 51
190.0000000000001
  0
LINE
  5
2256
330
D
100
AcDbEntity
 67
     1
  8
AM_7
100
AcDbLine
 10
92.77170084618907
 20
233.8456804492899
 30
0.0
 11
54.99656737099593
 21
233.8456804492899
 31
0.0
  0
CIRCLE
  5
2259
330
D
100
AcDbEntity
 67
     1
  8
AM_VIS
100
AcDbCircle
 10
33.52376513885815
 20
233.8456804492899
 30
0.0
 40
8.0
  0
CIRCLE
  5
225A
330
D
100
AcDbEntity
 67
     1
  8
AM_VIS
100
AcDbCircle
 10
33.52376513885815
 20
233.8456804492899
 30
0.0
 40
4.599999999999999
  0
CIRCLE
  5
225B
330
D
100
AcDbEntity
 67
     1
  8
AM_VIS
100
AcDbCircle
 10
33.52376513885815
 20
233.8456804492899
 30
0.0
 40
2.9
  0
CIRCLE
  5
225C
330
D
100
AcDbEntity
 67
     1
  8
AM_VIS
100
AcDbCircle
 10
33.52376513885815
 20
233.8456804492899
 30
0.0
 40
4.500504800663692
  0
CIRCLE
  5
225D
330
D
100
AcDbEntity
 67
     1
  8
AM_VIS
100
AcDbCircle
 10
33.52376513885815
 20
233.8456804492899
 30
0.0
 40
3.991778597445051
  0
LINE
  5
225E
330
D
100
AcDbEntity
 67
     1
  8
AM_VIS
100
AcDbLine
 10
89.77170084618908
 20
234.34568044929
 30
0.0
 11
90.49131619616705
 21
234.34568044929
 31
0.0
  0
LINE
  5
225F
330
D
100
AcDbEntity
 67
     1
  8
AM_VIS
100
AcDbLine
 10
89.77313926011655
 20
233.3456804492899
 30
0.0
 11
89.77313926011655
 21
234.34568044929
 31
0.0
  0
LINE
  5
2260
330
D
100
AcDbEntity
 67
     1
  8
AM_VIS
100
AcDbLine
 10
89.77170084618908
 20
233.3456804492899
 30
0.0
 11
90.49131619616705
 21
233.3456804492899
 31
0.0
  0
LINE
  5
2261
330
D
100
AcDbEntity
 67
     1
  8
AM_VIS
100
AcDbLine
 10
87.58034023340343
 20
241.8456804492899
 30
0.0
 11
63.69664352341775
 21
241.8456804492899
 31
0.0
  0
LINE
  5
2262
330
D
100
AcDbEntity
 67
     1
  8
AM_VIS
100
AcDbLine
 10
87.58034023340343
 20
225.84568044929
 30
0.0
 11
63.69664352341775
 21
225.84568044929
 31
0.0
  0
LINE
  5
2263
330
D
100
AcDbEntity
 67
     1
  8
AM_VIS
100
AcDbLine
 10
57.99656737099595
 20
229.3451756486263
 30
0.0
 11
63.69664352341775
 21
229.2456804492899
 31
0.0
  0
LINE
  5
2264
330
D
100
AcDbEntity
 67
     1
  8
AM_VIS
100
AcDbLine
 10
57.99656737099595
 20
238.3461852499536
 30
0.0
 11
63.69664352341775
 21
238.4456804492899
 31
0.0
  0
LINE
  5
2265
330
D
100
AcDbEntity
 67
     1
  8
AM_VIS
100
AcDbLine
 10
57.49664352341774
 20
229.8539018518449
 30
0.0
 11
57.99656737099595
 21
229.3451756486263
 31
0.0
  0
LINE
  5
2266
330
D
100
AcDbEntity
 67
     1
  8
AM_VIS
100
AcDbLine
 10
57.49664352341774
 20
237.837459046735
 30
0.0
 11
57.99656737099595
 21
238.3461852499536
 31
0.0
  0
LINE
  5
2267
330
D
100
AcDbEntity
 67
     1
  8
AM_VIS
100
AcDbLine
 10
63.69664352341775
 20
241.8456804492899
 30
0.0
 11
63.69664352341775
 21
225.84568044929
 31
0.0
  0
LINE
  5
2268
330
D
100
AcDbEntity
 67
     1
  8
AM_4
100
AcDbLine
 10
57.99656737099595
 20
238.3461852499536
 30
0.0
 11
57.99656737099595
 21
229.3451756486263
 31
0.0
  0
LINE
  5
2269
330
D
100
AcDbEntity
 67
     1
  8
AM_VIS
100
AcDbLine
 10
57.49664352341774
 20
229.8539018518449
 30
0.0
 11
57.49664352341774
 21
237.837459046735
 31
0.0
  0
ARC
  5
226A
330
D
100
AcDbEntity
 67
     1
  8
AM_VIS
100
AcDbCircle
 10
68.49664907280805
 20
233.8300544087793
 30
0.0
 40
22.0
100
AcDbArc
 50
342.5893176337644
 51
358.7384169889441
  0
ARC
  5
226B
330
D
100
AcDbEntity
 67
     1
  8
AM_VIS
100
AcDbCircle
 10
68.49664907280805
 20
233.8613064898006
 30
0.0
 40
22.0
100
AcDbArc
 50
1.261583011054282
 51
17.41068236623564
  0
ARC
  5
226C
330
D
100
AcDbEntity
 67
     1
  8
AM_VIS
100
AcDbCircle
 10
87.58034023340343
 20
227.84568044929
 30
0.0
 40
1.999999999999999
100
AcDbArc
 50
270.0
 51
342.5893176337644
  0
ARC
  5
226D
330
D
100
AcDbEntity
 67
     1
  8
AM_VIS
100
AcDbCircle
 10
87.58034023340343
 20
239.8456804492899
 30
0.0
 40
2.0
100
AcDbArc
 50
17.41068236623564
 51
90.0
  0
DIMENSION
  5
226E
330
D
100
AcDbEntity
 67
     1
  8
AM_5
100
AcDbDimension
  2
*D37
 10
100.4715961112129
 20
225.84568044929
 30
0.0
 11
100.4715961112129
 21
233.8825155479097
 31
0.0
 70
   160
  1
%%c<>
 71
     5
 42
16.0
  3
AM_ISO$0
100
AcDbAlignedDimension
 13
87.58034023340343
 23
241.8456804492899
 33
0.0
 14
87.58034023340343
 24
225.84568044929
 34
0.0
 50
90.0
100
AcDbRotatedDimension
1001
ACAD
1000
DSTYLE
1002
{
1070
    40
1040
1.0
1070
   144
1040
1.0
1070
    47
1040
0.0
1070
    48
1040
0.3
1070
   271
1070
     1
1002
}
  0
DIMENSION
  5
2296
330
D
100
AcDbEntity
 67
     1
  8
AM_5
100
AcDbDimension
  2
*D38
 10
87.58034023340355
 20
239.8456804492901
 30
0.0
 11
94.03245229417638
 21
246.6765111685968
 31
0.0
 70
   164
  1
R0.5
 71
     5
 42
1.999999999999886
  3
AM_ISO$4
100
AcDbRadialDimension
 15
88.01737585836283
 25
241.7973463690919
 35
0.0
 40
0.0
1001
ACAD
1000
DSTYLE
1002
{
1070
    40
1040
1.0
1070
   144
1040
1.0
1070
    47
1040
0.0
1070
    48
1040
0.3
1070
   271
1070
     1
1002
}
  0
LINE
  5
22B1
330
D
100
AcDbEntity
 67
     1
  8
AM_4
100
AcDbLine
 10
57.49664352341775
 20
237.837382882713
 30
0.0
 11
63.19664352341771
 21
237.9368767528039
 31
0.0
  0
LINE
  5
22B2
330
D
100
AcDbEntity
 67
     1
  8
AM_4
100
AcDbLine
 10
57.49664352341775
 20
229.8539780158669
 30
0.0
 11
63.19664352341773
 21
229.754484145776
 31
0.0
  0
LINE
  5
22B4
330
D
100
AcDbEntity
 67
     1
  8
AM_4
100
AcDbLine
 10
63.19664352341771
 20
237.9368767528039
 30
0.0
 11
63.69664352341775
 21
238.4456804492899
 31
0.0
  0
LINE
  5
22B5
330
D
100
AcDbEntity
 67
     1
  8
AM_4
100
AcDbLine
 10
63.19664352341778
 20
229.754484145776
 30
0.0
 11
63.69664352341775
 21
229.2456804492899
 31
0.0
  0
LINE
  5
22B6
330
D
100
AcDbEntity
 67
     1
  8
AM_4
100
AcDbLine
 10
63.18791732019906
 20
237.9367244363602
 30
0.0
 11
63.18791732019906
 21
229.7546364622198
 31
0.0
  0
DIMENSION
  5
22B9
330
D
100
AcDbEntity
 67
     1
  8
AM_5
100
AcDbDimension
  2
*D39
 10
63.69664352341775
 20
217.2456804492899
 30
0.0
 11
48.83681576751222
 21
217.2456804492899
 31
0.0
 70
   160
 71
     5
 42
6.200000000000002
  3
AM_ISO$0
100
AcDbAlignedDimension
 13
57.49664352341774
 23
229.8539018518449
 33
0.0
 14
63.69664352341775
 24
225.84568044929
 34
0.0
 50
0.0000000000001132
100
AcDbRotatedDimension
1001
ACAD
1000
DSTYLE
1002
{
1070
    40
1040
1.0
1070
   144
1040
1.0
1070
    47
1040
0.0
1070
    48
1040
0.3
1070
   271
1070
     1
1002
}
  0
DIMENSION
  5
22D3
330
D
100
AcDbEntity
 67
     1
  8
AM_5
100
AcDbDimension
  2
*D40
 10
90.49131619616703
 20
209.74568044929
 30
0.0
 11
73.99397985979239
 21
212.49568044929
 31
0.0
 70
    32
 71
     5
 42
32.99467267274929
  3
AM_ISO$0
100
AcDbAlignedDimension
 13
57.49664352341774
 23
229.8539018518449
 33
0.0
 14
90.49131619616703
 24
233.3456804492896
 34
0.0
 50
0.0000000000001132
100
AcDbRotatedDimension
1001
ACAD
1000
DSTYLE
1002
{
1070
    40
1040
1.0
1070
   144
1040
1.0
1070
    47
1040
0.0
1070
    48
1040
0.3
1070
   271
1070
     1
1002
}
  0
LEADER
  5
22EA
330
D
100
AcDbEntity
 67
     1
  8
AM_5
100
AcDbLeader
  3
AM_ISO$7
 73
     0
 75
     1
 40
3.5
 41
11.2
 76
     3
 10
61.06068689194321
 20
238.3996696551396
 30
0.0
 10
56.80579778746846
 20
246.7922401628035
 30
0.0
 10
54.30579778746846
 20
246.7922401628035
 30
0.0
340
22EB
213
-1.883205065918559
223
0.4473028115166926
233
0.0
1001
ACAD
1000
DSTYLE
1002
{
1070
    47
1040
0.0
1070
    48
1040
0.3
1070
   271
1070
     1
1002
}
  0
MTEXT
  5
22EB
102
{ACAD_REACTORS
330
22EA
102
}
330
D
100
AcDbEntity
 67
     1
  8
AM_5
100
AcDbMText
 10
55.18900285338702
 20
247.3449373512868
 30
0.0
 40
3.5
 41
0.0
 71
     9
 72
     1
  1
PT1/8
 73
     1
 44
1.0
1001
ACAD
1000
MTEXTBEGIN
1070
    73
1070
     1
1070
    44
1040
1.0
1070
    74
1070
     0
1000
MTEXTEND
  0
LINE
  5
231D
330
D
100
AcDbEntity
 67
     1
  8
AM_7
100
AcDbLine
 10
140.9609470134459
 20
233.8456804492899
 30
0.0
 11
140.9609470134459
 21
233.8456804492899
 31
0.0
  0
LINE
  5
231E
330
D
100
AcDbEntity
 67
     1
  8
AM_7
100
AcDbLine
 10
140.9609470134459
 20
233.8456804492899
 30
0.0
 11
140.9609470134459
 21
233.8456804492899
 31
0.0
  0
LINE
  5
231F
330
D
100
AcDbEntity
 67
     1
  8
AM_7
100
AcDbLine
 10
130.6855326625192
 20
233.8456804492899
 30
0.0
 11
151.8461436848856
 21
233.8456804492899
 31
0.0
  0
LINE
  5
2321
330
D
100
AcDbEntity
 67
     1
  8
AM_7
100
AcDbLine
 10
140.9609470134459
 20
223.1822244658471
 30
0.0
 11
140.9609470134459
 21
244.1666743385349
 31
0.0
  0
ARC
  5
2323
330
D
100
AcDbEntity
 67
     1
  8
AM_4
100
AcDbCircle
 10
140.9609470134459
 20
233.8456804492899
 30
0.0
 40
6.9455
100
AcDbArc
 50
259.9999999999998
 51
190.0000000000002
  0
LINE
  5
2324
330
D
100
AcDbEntity
 67
     1
  8
AM_7
100
AcDbLine
 10
221.5952075648861
 20
233.8456804492899
 30
0.0
 11
175.5784697334995
 21
233.8456804492899
 31
0.0
  0
CIRCLE
  5
2325
330
D
100
AcDbEntity
 67
     1
  8
AM_VIS
100
AcDbCircle
 10
140.9609470134459
 20
233.8456804492899
 30
0.0
 40
9.75
  0
CIRCLE
  5
2326
330
D
100
AcDbEntity
 67
     1
  8
AM_VIS
100
AcDbCircle
 10
140.9609470134459
 20
233.8456804492899
 30
0.0
 40
4.65
  0
CIRCLE
  5
2327
330
D
100
AcDbEntity
 67
     1
  8
AM_VIS
100
AcDbCircle
 10
140.9609470134459
 20
233.8456804492899
 30
0.0
 40
6.4
  0
CIRCLE
  5
2328
330
D
100
AcDbEntity
 67
     1
  8
AM_VIS
100
AcDbCircle
 10
140.9609470134459
 20
233.8456804492899
 30
0.0
 40
5.9
  0
LINE
  5
2329
330
D
100
AcDbEntity
 67
     1
  8
AM_VIS
100
AcDbLine
 10
218.595207564886
 20
234.8456804492899
 30
0.0
 11
220.0598676637516
 21
234.8456804492899
 31
0.0
  0
LINE
  5
232A
330
D
100
AcDbEntity
 67
     1
  8
AM_VIS
100
AcDbLine
 10
218.6006070967073
 20
232.8456804492899
 30
0.0
 11
218.6006070967073
 21
234.84568044929
 31
0.0
  0
LINE
  5
232B
330
D
100
AcDbEntity
 67
     1
  8
AM_VIS
100
AcDbLine
 10
218.595207564886
 20
232.8456804492899
 30
0.0
 11
220.0598676637516
 21
232.8456804492899
 31
0.0
  0
LINE
  5
232C
330
D
100
AcDbEntity
 67
     1
  8
AM_VIS
100
AcDbLine
 10
216.1008498962416
 20
243.5956804492899
 30
0.0
 11
185.8871194442135
 21
243.5956804492899
 31
0.0
  0
LINE
  5
232D
330
D
100
AcDbEntity
 67
     1
  8
AM_VIS
100
AcDbLine
 10
216.1008498962416
 20
224.09568044929
 30
0.0
 11
185.8871194442135
 21
224.09568044929
 31
0.0
  0
LINE
  5
232E
330
D
100
AcDbEntity
 67
     1
  8
AM_VIS
100
AcDbLine
 10
185.8871194442135
 20
240.44568044929
 30
0.0
 11
178.3871194442135
 21
240.2456804492899
 31
0.0
  0
LINE
  5
232F
330
D
100
AcDbEntity
 67
     1
  8
AM_VIS
100
AcDbLine
 10
185.8871194442135
 20
227.2456804492899
 30
0.0
 11
178.3871194442135
 21
227.4456804492899
 31
0.0
  0
LINE
  5
2330
330
D
100
AcDbEntity
 67
     1
  8
AM_VIS
100
AcDbLine
 10
177.8871194442135
 20
227.94568044929
 30
0.0
 11
178.3871194442135
 21
227.4456804492899
 31
0.0
  0
LINE
  5
2331
330
D
100
AcDbEntity
 67
     1
  8
AM_VIS
100
AcDbLine
 10
177.8871194442135
 20
239.7456804492899
 30
0.0
 11
178.3871194442135
 21
240.2456804492899
 31
0.0
  0
LINE
  5
2332
330
D
100
AcDbEntity
 67
     1
  8
AM_VIS
100
AcDbLine
 10
185.8871194442135
 20
243.5956804492899
 30
0.0
 11
185.8871194442135
 21
224.09568044929
 31
0.0
  0
LINE
  5
2333
330
D
100
AcDbEntity
 67
     1
  8
AM_4
100
AcDbLine
 10
178.3871194442135
 20
240.2456804492899
 30
0.0
 11
178.3871194442135
 21
227.44568044929
 31
0.0
  0
LINE
  5
2334
330
D
100
AcDbEntity
 67
     1
  8
AM_VIS
100
AcDbLine
 10
177.8871194442135
 20
227.94568044929
 30
0.0
 11
177.8871194442135
 21
239.7456804492899
 31
0.0
  0
ARC
  5
2335
330
D
100
AcDbEntity
 67
     1
  8
AM_VIS
100
AcDbCircle
 10
190.3676786974182
 20
230.5592000296973
 30
0.0
 40
30.0
100
AcDbArc
 50
8.214689075598304
 51
23.2135966421025
  0
ARC
  5
2336
330
D
100
AcDbEntity
 67
     1
  8
AM_VIS
100
AcDbCircle
 10
190.3676786974182
 20
237.1321608688826
 30
0.0
 40
30.0
100
AcDbArc
 50
336.7864033578975
 51
351.7853109244017
  0
ARC
  5
2337
330
D
100
AcDbEntity
 67
     1
  8
AM_VIS
100
AcDbCircle
 10
216.1008498962416
 20
226.09568044929
 30
0.0
 40
2.0
100
AcDbArc
 50
270.0
 51
336.7864033578975
  0
ARC
  5
2338
330
D
100
AcDbEntity
 67
     1
  8
AM_VIS
100
AcDbCircle
 10
216.1008498962416
 20
241.5956804492899
 30
0.0
 40
2.0
100
AcDbArc
 50
23.2135966421025
 51
90.0
  0
LINE
  5
238A
330
D
100
AcDbEntity
 67
     1
  8
AM_7
100
AcDbLine
 10
218.0091344156672
 20
74.92240675082758
 30
0.0
 11
218.0091344156672
 21
74.92240675082758
 31
0.0
  0
LINE
  5
238B
330
D
100
AcDbEntity
 67
     1
  8
AM_7
100
AcDbLine
 10
218.0091344156672
 20
74.92240675082758
 30
0.0
 11
218.0091344156672
 21
74.92240675082758
 31
0.0
  0
LINE
  5
238C
330
D
100
AcDbEntity
 67
     1
  8
AM_7
100
AcDbLine
 10
188.0091344156672
 20
74.92240675082758
 30
0.0
 11
218.0091344156672
 21
74.92240675082758
 31
0.0
  0
LINE
  5
238D
330
D
100
AcDbEntity
 67
     1
  8
AM_7
100
AcDbLine
 10
218.0091344156672
 20
74.92240675082758
 30
0.0
 11
248.0091344156672
 21
74.92240675082758
 31
0.0
  0
LINE
  5
238E
330
D
100
AcDbEntity
 67
     1
  8
AM_7
100
AcDbLine
 10
218.0091344156672
 20
44.92240675082757
 30
0.0
 11
218.0091344156672
 21
74.92240675082758
 31
0.0
  0
LINE
  5
238F
330
D
100
AcDbEntity
 67
     1
  8
AM_7
100
AcDbLine
 10
218.0091344156672
 20
74.92240675082758
 30
0.0
 11
218.0091344156672
 21
104.9224067508276
 31
0.0
  0
ARC
  5
2390
330
D
100
AcDbEntity
 67
     1
  8
AM_4
100
AcDbCircle
 10
218.0091344156672
 20
74.92240675082758
 30
0.0
 40
14.172
100
AcDbArc
 50
259.9999999999998
 51
190.0000000000018
  0
LINE
  5
2391
330
D
100
AcDbEntity
 67
     1
  8
AM_7
100
AcDbLine
 10
260.8503629413308
 20
74.92240675082758
 30
0.0
 11
379.1725751171763
 21
74.92240675082758
 31
0.0
  0
LINE
  5
2392
330
D
100
AcDbEntity
 67
     1
  8
AM_4
100
AcDbLine
 10
279.9701343699023
 20
89.54217817939904
 30
0.0
 11
262.8503629413308
 21
89.06662897304983
 31
0.0
  0
LINE
  5
2393
330
D
100
AcDbEntity
 67
     1
  8
AM_4
100
AcDbLine
 10
279.9701343699022
 20
60.30263532225613
 30
0.0
 11
262.8503629413308
 21
60.77818452860532
 31
0.0
  0
LINE
  5
2394
330
D
100
AcDbEntity
 67
     1
  8
AM_VIS
100
AcDbLine
 10
240.4153369231563
 20
59.85714574434689
 30
0.0
 11
219.8529319081782
 21
47.98543567376305
 31
0.0
  0
LINE
  5
2395
330
D
100
AcDbEntity
 67
     1
  8
AM_VIS
100
AcDbLine
 10
193.7591344156672
 20
63.05069668024384
 30
0.0
 11
193.7591344156672
 21
86.79411682141131
 31
0.0
  0
LINE
  5
2396
330
D
100
AcDbEntity
 67
     1
  8
AM_VIS
100
AcDbLine
 10
195.6029319081781
 20
89.98766775730832
 30
0.0
 11
216.1653369231563
 21
101.8593778278921
 31
0.0
  0
LINE
  5
2397
330
D
100
AcDbEntity
 67
     1
  8
AM_VIS
100
AcDbLine
 10
219.8529319081781
 20
101.8593778278921
 30
0.0
 11
240.4153369231563
 21
89.98766775730832
 31
0.0
  0
LINE
  5
2398
330
D
100
AcDbEntity
 67
     1
  8
AM_VIS
100
AcDbLine
 10
216.1653369231563
 20
47.98543567376305
 30
0.0
 11
195.6029319081782
 21
59.85714574434678
 31
0.0
  0
LINE
  5
2399
330
D
100
AcDbEntity
 67
     1
  8
AM_VIS
100
AcDbLine
 10
242.2591344156672
 20
86.79411682141136
 30
0.0
 11
242.2591344156672
 21
63.05069668024373
 31
0.0
  0
ARC
  5
23A0
330
D
100
AcDbEntity
 67
     1
  8
AM_VIS
100
AcDbCircle
 10
218.0091344156672
 20
74.92240675082758
 30
0.0
 40
27.0
100
AcDbArc
 50
326.0842927773789
 51
333.9157072226208
  0
ARC
  5
23A1
330
D
100
AcDbEntity
 67
     1
  8
AM_VIS
100
AcDbCircle
 10
218.0091344156672
 20
74.92240675082758
 30
0.0
 40
27.0
100
AcDbArc
 50
26.08429277737924
 51
33.91570722262109
  0
ARC
  5
23A2
330
D
100
AcDbEntity
 67
     1
  8
AM_VIS
100
AcDbCircle
 10
218.0091344156672
 20
74.92240675082758
 30
0.0
 40
27.0
100
AcDbArc
 50
206.0842927773795
 51
213.9157072226213
  0
ARC
  5
23A3
330
D
100
AcDbEntity
 67
     1
  8
AM_VIS
100
AcDbCircle
 10
218.0091344156672
 20
74.92240675082758
 30
0.0
 40
27.0
100
AcDbArc
 50
266.0842927773787
 51
273.9157072226217
  0
ARC
  5
23A4
330
D
100
AcDbEntity
 67
     1
  8
AM_VIS
100
AcDbCircle
 10
218.0091344156672
 20
74.92240675082758
 30
0.0
 40
27.0
100
AcDbArc
 50
86.08429277737867
 51
93.91570722262173
  0
ARC
  5
23A5
330
D
100
AcDbEntity
 67
     1
  8
AM_VIS
100
AcDbCircle
 10
218.0091344156672
 20
74.92240675082758
 30
0.0
 40
27.0
100
AcDbArc
 50
146.0842927773787
 51
153.9157072226205
  0
CIRCLE
  5
23A6
330
D
100
AcDbEntity
 67
     1
  8
AM_VIS
100
AcDbCircle
 10
218.0091344156672
 20
74.92240675082758
 30
0.0
 40
10.25
  0
CIRCLE
  5
23A7
330
D
100
AcDbEntity
 67
     1
  8
AM_VIS
100
AcDbCircle
 10
218.0091344156672
 20
74.92240675082758
 30
0.0
 40
16.0
  0
CIRCLE
  5
23A8
330
D
100
AcDbEntity
 67
     1
  8
AM_VIS
100
AcDbCircle
 10
218.0091344156672
 20
74.92240675082758
 30
0.0
 40
15.0
  0
LINE
  5
23A9
330
D
100
AcDbEntity
 67
     1
  8
AM_VIS
100
AcDbLine
 10
289.8503629413308
 20
52.17576070358382
 30
0.0
 11
289.8503629413308
 21
47.98543567376305
 31
0.0
  0
LINE
  5
23AA
330
D
100
AcDbEntity
 67
     1
  8
AM_VIS
100
AcDbLine
 10
289.8503629413308
 20
59.85714574434689
 30
0.0
 11
289.8503629413308
 21
55.66682071452612
 31
0.0
  0
LINE
  5
23AB
330
D
100
AcDbEntity
 67
     1
  8
AM_VIS
100
AcDbLine
 10
281.8503629413308
 20
59.85714574434689
 30
0.0
 11
281.8503629413308
 21
47.98543567376305
 31
0.0
  0
LINE
  5
23AC
330
D
100
AcDbEntity
 67
     1
  8
AM_VIS
100
AcDbLine
 10
281.8503629413308
 20
101.8593778278921
 30
0.0
 11
281.8503629413308
 21
89.98766775730832
 31
0.0
  0
LINE
  5
23AD
330
D
100
AcDbEntity
 67
     1
  8
AM_VIS
100
AcDbLine
 10
289.8503629413308
 20
101.8593778278921
 30
0.0
 11
289.8503629413308
 21
97.66905279807145
 31
0.0
  0
LINE
  5
23AE
330
D
100
AcDbEntity
 67
     1
  8
AM_VIS
100
AcDbLine
 10
289.8503629413308
 20
94.17799278712891
 30
0.0
 11
289.8503629413308
 21
89.98766775730826
 31
0.0
  0
LINE
  5
23AF
330
D
100
AcDbEntity
 67
     1
  8
AM_VIS
100
AcDbLine
 10
281.8503629413308
 20
86.79411682141136
 30
0.0
 11
281.8503629413308
 21
63.05069668024373
 31
0.0
  0
LINE
  5
23B0
330
D
100
AcDbEntity
 67
     1
  8
AM_VIS
100
AcDbLine
 10
289.8503629413308
 20
86.79411682141141
 30
0.0
 11
289.8503629413308
 21
78.4134667617701
 31
0.0
  0
LINE
  5
23B1
330
D
100
AcDbEntity
 67
     1
  8
AM_VIS
100
AcDbLine
 10
289.8503629413308
 20
71.43134673988504
 30
0.0
 11
289.8503629413308
 21
63.05069668024373
 31
0.0
  0
LINE
  5
23B2
330
D
100
AcDbEntity
 67
     1
  8
AM_VIS
100
AcDbLine
 10
281.8503629413308
 20
63.05069668024373
 30
0.0
 11
289.8503629413308
 21
63.05069668024373
 31
0.0
  0
LINE
  5
23B3
330
D
100
AcDbEntity
 67
     1
  8
AM_VIS
100
AcDbLine
 10
289.8503629413308
 20
59.85714574434689
 30
0.0
 11
281.8503629413308
 21
59.85714574434689
 31
0.0
  0
LINE
  5
23B4
330
D
100
AcDbEntity
 67
     1
  8
AM_VIS
100
AcDbLine
 10
281.8503629413308
 20
89.98766775730832
 30
0.0
 11
289.8503629413308
 21
89.98766775730832
 31
0.0
  0
LINE
  5
23B5
330
D
100
AcDbEntity
 67
     1
  8
AM_VIS
100
AcDbLine
 10
289.8503629413308
 20
86.79411682141136
 30
0.0
 11
281.8503629413308
 21
86.79411682141136
 31
0.0
  0
LINE
  5
23B6
330
D
100
AcDbEntity
 67
     1
  8
AM_VIS
100
AcDbLine
 10
281.8503629413308
 20
47.98543567376305
 30
0.0
 11
289.8503629413308
 21
47.98543567376305
 31
0.0
  0
LINE
  5
23B7
330
D
100
AcDbEntity
 67
     1
  8
AM_VIS
100
AcDbLine
 10
289.8503629413308
 20
101.8593778278921
 30
0.0
 11
281.8503629413308
 21
101.8593778278921
 31
0.0
  0
ARC
  5
23B8
330
D
100
AcDbEntity
 67
     1
  8
AM_VIS
100
AcDbCircle
 10
335.4676473421161
 20
74.92240675082758
 30
0.0
 40
42.37318504688413
100
AcDbArc
 50
338.634708037561
 51
358.3095413744
  0
LINE
  5
23B9
330
D
100
AcDbEntity
 67
     1
  8
AM_VIS
100
AcDbLine
 10
374.9288050778942
 20
59.48531637082203
 30
0.0
 11
374.9423203882716
 21
59.44603467243974
 31
0.0
  0
LINE
  5
23BA
330
D
100
AcDbEntity
 67
     1
  8
AM_VIS
100
AcDbLine
 10
374.9288054983387
 20
90.35949698619896
 30
0.0
 11
374.9423219168022
 21
90.39877830325201
 31
0.0
  0
LINE
  5
23BB
330
D
100
AcDbEntity
 67
     1
  8
AM_VIS
100
AcDbLine
 10
368.8343934510777
 20
99.42240675082757
 30
0.0
 11
289.8503629413308
 21
99.42240675082757
 31
0.0
  0
LINE
  5
23BC
330
D
100
AcDbEntity
 67
     1
  8
AM_VIS
100
AcDbLine
 10
368.8343934510777
 20
50.42240675082758
 30
0.0
 11
289.8503629413308
 21
50.42240675082758
 31
0.0
  0
LINE
  5
23BD
330
D
100
AcDbEntity
 67
     1
  8
AM_VIS
100
AcDbLine
 10
281.8503629413308
 20
47.92240675082758
 30
0.0
 11
289.8503629413308
 21
47.92240675082758
 31
0.0
  0
LINE
  5
23BE
330
D
100
AcDbEntity
 67
     1
  8
AM_VIS
100
AcDbLine
 10
281.8503629413308
 20
101.9224067508275
 30
0.0
 11
289.8503629413308
 21
101.9224067508275
 31
0.0
  0
LINE
  5
23BF
330
D
100
AcDbEntity
 67
     1
  8
AM_VIS
100
AcDbLine
 10
281.8503629413308
 20
91.42240675082758
 30
0.0
 11
263.8503629413308
 21
90.92240675082758
 31
0.0
  0
LINE
  5
23C0
330
D
100
AcDbEntity
 67
     1
  8
AM_VIS
100
AcDbLine
 10
281.8503629413308
 20
58.42240675082758
 30
0.0
 11
263.8503629413308
 21
58.92240675082757
 31
0.0
  0
LINE
  5
23C1
330
D
100
AcDbEntity
 67
     1
  8
AM_VIS
100
AcDbLine
 10
262.8503629413308
 20
59.92240675082758
 30
0.0
 11
263.8503629413308
 21
58.92240675082757
 31
0.0
  0
LINE
  5
23C2
330
D
100
AcDbEntity
 67
     1
  8
AM_VIS
100
AcDbLine
 10
262.8503629413308
 20
89.92240675082758
 30
0.0
 11
263.8503629413308
 21
90.92240675082758
 31
0.0
  0
LINE
  5
23C3
330
D
100
AcDbEntity
 67
     1
  8
AM_VIS
100
AcDbLine
 10
289.8503629413308
 20
55.66682071452612
 30
0.0
 11
289.8503629413308
 21
52.17576070358382
 31
0.0
  0
LINE
  5
23C4
330
D
100
AcDbEntity
 67
     1
  8
AM_VIS
100
AcDbLine
 10
289.8503629413308
 20
78.41346676177005
 30
0.0
 11
289.8503629413308
 21
71.43134673988504
 31
0.0
  0
LINE
  5
23C5
330
D
100
AcDbEntity
 67
     1
  8
AM_VIS
100
AcDbLine
 10
289.8503629413308
 20
97.66905279807145
 30
0.0
 11
289.8503629413308
 21
94.17799278712891
 31
0.0
  0
LINE
  5
23C6
330
D
100
AcDbEntity
 67
     1
  8
AM_VIS
100
AcDbLine
 10
281.8503629413308
 20
63.05069668024373
 30
0.0
 11
281.8503629413308
 21
59.85714574434684
 31
0.0
  0
LINE
  5
23C7
330
D
100
AcDbEntity
 67
     1
  8
AM_VIS
100
AcDbLine
 10
289.8503629413308
 20
59.85714574434684
 30
0.0
 11
289.8503629413308
 21
63.05069668024367
 31
0.0
  0
LINE
  5
23C8
330
D
100
AcDbEntity
 67
     1
  8
AM_VIS
100
AcDbLine
 10
281.8503629413308
 20
89.98766775730832
 30
0.0
 11
281.8503629413308
 21
86.79411682141136
 31
0.0
  0
LINE
  5
23C9
330
D
100
AcDbEntity
 67
     1
  8
AM_VIS
100
AcDbLine
 10
289.8503629413308
 20
86.79411682141141
 30
0.0
 11
289.8503629413308
 21
89.98766775730826
 31
0.0
  0
LINE
  5
23CA
330
D
100
AcDbEntity
 67
     1
  8
AM_VIS
100
AcDbLine
 10
281.8503629413308
 20
47.98543567376305
 30
0.0
 11
281.8503629413308
 21
47.92240675082758
 31
0.0
  0
LINE
  5
23CB
330
D
100
AcDbEntity
 67
     1
  8
AM_VIS
100
AcDbLine
 10
289.8503629413308
 20
47.92240675082758
 30
0.0
 11
289.8503629413308
 21
47.98543567376305
 31
0.0
  0
LINE
  5
23CC
330
D
100
AcDbEntity
 67
     1
  8
AM_VIS
100
AcDbLine
 10
281.8503629413308
 20
101.9224067508275
 30
0.0
 11
281.8503629413308
 21
101.8593778278921
 31
0.0
  0
LINE
  5
23CD
330
D
100
AcDbEntity
 67
     1
  8
AM_VIS
100
AcDbLine
 10
289.8503629413308
 20
101.8593778278921
 30
0.0
 11
289.8503629413308
 21
101.9224067508275
 31
0.0
  0
LINE
  5
23CE
330
D
100
AcDbEntity
 67
     1
  8
AM_4
100
AcDbLine
 10
263.8503629413308
 20
90.92240675082758
 30
0.0
 11
263.8503629413308
 21
58.92240675082757
 31
0.0
  0
LINE
  5
23CF
330
D
100
AcDbEntity
 67
     1
  8
AM_VIS
100
AcDbLine
 10
262.8503629413308
 20
59.92240675082758
 30
0.0
 11
262.8503629413308
 21
89.92240675082758
 31
0.0
  0
ARC
  5
23D0
330
D
100
AcDbEntity
 67
     1
  8
AM_VIS
100
AcDbCircle
 10
337.8534370412392
 20
74.42650500391869
 30
0.0
 40
40.0
100
AcDbArc
 50
324.615880947865
 51
338.0058622655284
  0
ARC
  5
23D1
330
D
100
AcDbEntity
 67
     1
  8
AM_VIS
100
AcDbCircle
 10
337.8534370412392
 20
75.41830849773646
 30
0.0
 40
40.0
100
AcDbArc
 50
21.99413773447161
 51
35.38411905213498
  0
ARC
  5
23D2
330
D
100
AcDbEntity
 67
     1
  8
AM_VIS
100
AcDbCircle
 10
368.8343934510777
 20
52.42240675082758
 30
0.0
 40
2.0
100
AcDbArc
 50
270.0
 51
324.6158809478677
  0
ARC
  5
23D3
330
D
100
AcDbEntity
 67
     1
  8
AM_VIS
100
AcDbCircle
 10
368.8343934510777
 20
97.42240675082758
 30
0.0
 40
2.0
100
AcDbArc
 50
35.38411905213498
 51
90.0
  0
LINE
  5
23DA
330
D
100
AcDbEntity
 67
     1
  8
AM_4
100
AcDbLine
 10
185.373238198134
 20
239.9317992032104
 30
0.0
 11
177.8871194442135
 21
239.7321693697725
 31
0.0
  0
LINE
  5
23DB
330
D
100
AcDbEntity
 67
     1
  8
AM_4
100
AcDbLine
 10
185.373238198134
 20
227.7595616953695
 30
0.0
 11
177.8871194442135
 21
227.9591915288074
 31
0.0
  0
LINE
  5
23DC
330
D
100
AcDbEntity
 67
     1
  8
AM_4
100
AcDbLine
 10
185.373238198134
 20
239.9317992032104
 30
0.0
 11
185.8871194442135
 21
240.44568044929
 31
0.0
  0
LINE
  5
23DD
330
D
100
AcDbEntity
 67
     1
  8
AM_4
100
AcDbLine
 10
185.373238198134
 20
227.7595616953695
 30
0.0
 11
185.8871194442135
 21
227.2456804492899
 31
0.0
  0
LINE
  5
23DE
330
D
100
AcDbEntity
 67
     1
  8
AM_4
100
AcDbLine
 10
185.373238198134
 20
240.4319769493945
 30
0.0
 11
185.373238198134
 21
227.2593839491854
 31
0.0
  0
LEADER
  5
23DF
330
D
100
AcDbEntity
 67
     1
  8
AM_5
100
AcDbLeader
  3
AM_ISO$7
 73
     0
 75
     1
 40
3.5
 41
11.55
 76
     3
 10
181.8223185580985
 20
240.3372857589935
 30
0.0
 10
177.5674294536238
 20
248.7298562666575
 30
0.0
 10
175.0674294536238
 20
248.7298562666575
 30
0.0
340
23E0
213
-1.883205065918559
223
0.4473028115166926
233
0.0
1001
ACAD
1000
DSTYLE
1002
{
1070
    47
1040
0.0
1070
    48
1040
0.3
1070
   271
1070
     1
1002
}
  0
MTEXT
  5
23E0
102
{ACAD_REACTORS
330
23DF
102
}
330
D
100
AcDbEntity
 67
     1
  8
AM_5
100
AcDbMText
 10
175.9506345195423
 20
249.2825534551408
 30
0.0
 40
3.5
 41
0.0
 71
     9
 72
     1
  1
PT1/4
 73
     1
 44
1.0
1001
ACAD
1000
MTEXTBEGIN
1070
    73
1070
     1
1070
    44
1040
1.0
1070
    74
1070
     0
1000
MTEXTEND
  0
DIMENSION
  5
23E1
330
D
100
AcDbEntity
 67
     1
  8
AM_5
100
AcDbDimension
  2
*D41
 10
228.1008498962416
 20
224.09568044929
 30
0.0
 11
225.3508498962415
 21
233.84568044929
 31
0.0
 70
    32
  1
%%c<>
 71
     5
 42
19.5
  3
AM_ISO$0
100
AcDbAlignedDimension
 13
216.1008498962416
 23
243.5956804492899
 33
0.0
 14
216.1008498962416
 24
224.09568044929
 34
0.0
 50
90.00000000000003
100
AcDbRotatedDimension
1001
ACAD
1000
DSTYLE
1002
{
1070
    40
1040
1.0
1070
   144
1040
1.0
1070
    47
1040
0.0
1070
    48
1040
0.3
1070
   271
1070
     1
1002
}
  0
DIMENSION
  5
2400
330
D
100
AcDbEntity
 67
     1
  8
AM_5
100
AcDbDimension
  2
*D42
 10
216.1008498962418
 20
241.59568044929
 30
0.0
 11
225.0065189718592
 21
248.5382916328037
 31
0.0
 70
   164
  1
R0.5
 71
     5
 42
2.0
  3
AM_ISO$4
100
AcDbRadialDimension
 15
217.0961354733524
 25
243.3304445888767
 35
0.0
 40
0.0
1001
ACAD
1000
DSTYLE
1002
{
1070
    40
1040
1.0
1070
   144
1040
1.0
1070
    47
1040
0.0
1070
    48
1040
0.3
1070
   271
1070
     1
1002
}
  0
DIMENSION
  5
2427
330
D
100
AcDbEntity
 67
     1
  8
AM_5
100
AcDbDimension
  2
*D43
 10
185.8871194442135
 20
215.2456804492899
 30
0.0
 11
181.8871194442135
 21
217.99568044929
 31
0.0
 70
    32
 71
     5
 42
7.999999999999971
  3
AM_ISO$0
100
AcDbAlignedDimension
 13
177.8871194442135
 23
227.94568044929
 33
0.0
 14
185.8871194442135
 24
224.09568044929
 34
0.0
 50
0.0000000000001132
100
AcDbRotatedDimension
1001
ACAD
1000
DSTYLE
1002
{
1070
    40
1040
1.0
1070
   144
1040
1.0
1070
    47
1040
0.0
1070
    48
1040
0.3
1070
   271
1070
     1
1002
}
  0
DIMENSION
  5
2453
330
D
100
AcDbEntity
 67
     1
  8
AM_5
100
AcDbDimension
  2
*D44
 10
220.1871194442135
 20
207.74568044929
 30
0.0
 11
199.0371194442135
 21
210.496024937479
 31
0.0
 70
    32
 71
     5
 42
42.29999999999998
  3
AM_ISO$0
100
AcDbAlignedDimension
 13
177.8871194442135
 23
227.94568044929
 33
0.0
 14
220.1871194442135
 24
233.8456804492899
 34
0.0
 50
0.0000000000001132
100
AcDbRotatedDimension
1001
ACAD
1000
DSTYLE
1002
{
1070
    40
1040
1.0
1070
   144
1040
1.0
1070
    47
1040
0.0
1070
    48
1040
0.3
1070
   271
1070
     1
1002
}
  0
TEXT
  5
24AE
330
D
100
AcDbEntity
 67
     1
  8
LOGO
  6
Continuous
 62
     7
100
AcDbText
 10
271.7881902112474
 20
260.4967948646308
 30
0.0
 40
4.026698797080958
  1
MSLT-03
  7
CHINESET
100
AcDbText
  0
LINE
  5
24D7
330
D
100
AcDbEntity
 67
     1
  8
AM_7
100
AcDbLine
 10
302.2131570023534
 20
236.1257878148026
 30
0.0
 11
302.2131570023534
 21
236.1257878148026
 31
0.0
  0
LINE
  5
24D8
330
D
100
AcDbEntity
 67
     1
  8
AM_7
100
AcDbLine
 10
302.2131570023534
 20
236.1257878148026
 30
0.0
 11
302.2131570023534
 21
236.1257878148026
 31
0.0
  0
LINE
  5
24D9
330
D
100
AcDbEntity
 67
     1
  8
AM_7
100
AcDbLine
 10
286.9631570023533
 20
236.1257878148026
 30
0.0
 11
302.2131570023534
 21
236.1257878148026
 31
0.0
  0
LINE
  5
24DA
330
D
100
AcDbEntity
 67
     1
  8
AM_7
100
AcDbLine
 10
302.2131570023534
 20
236.1257878148026
 30
0.0
 11
317.4631570023533
 21
236.1257878148026
 31
0.0
  0
LINE
  5
24DB
330
D
100
AcDbEntity
 67
     1
  8
AM_7
100
AcDbLine
 10
302.2131570023534
 20
220.8757878148026
 30
0.0
 11
302.2131570023534
 21
236.1257878148026
 31
0.0
  0
LINE
  5
24DC
330
D
100
AcDbEntity
 67
     1
  8
AM_7
100
AcDbLine
 10
302.2131570023534
 20
236.1257878148026
 30
0.0
 11
302.2131570023534
 21
251.3757878148026
 31
0.0
  0
ARC
  5
24DD
330
D
100
AcDbEntity
 67
     1
  8
AM_4
100
AcDbCircle
 10
302.2131570023534
 20
236.1257878148026
 30
0.0
 40
6.9455
100
AcDbArc
 50
259.9999999999982
 51
190.0000000000002
  0
LINE
  5
24DE
330
D
100
AcDbEntity
 67
     1
  8
AM_7
100
AcDbLine
 10
386.731764185813
 20
236.1257878148026
 30
0.0
 11
326.5439812462089
 21
236.1257878148026
 31
0.0
  0
CIRCLE
  5
24E1
330
D
100
AcDbEntity
 67
     1
  8
AM_VIS
100
AcDbCircle
 10
302.2131570023534
 20
236.1257878148026
 30
0.0
 40
12.25
  0
CIRCLE
  5
24E2
330
D
100
AcDbEntity
 67
     1
  8
AM_VIS
100
AcDbCircle
 10
302.2131570023534
 20
236.1257878148026
 30
0.0
 40
7.899999999999999
  0
CIRCLE
  5
24E3
330
D
100
AcDbEntity
 67
     1
  8
AM_VIS
100
AcDbCircle
 10
302.2131570023534
 20
236.1257878148026
 30
0.0
 40
6.0
  0
CIRCLE
  5
24E4
330
D
100
AcDbEntity
 67
     1
  8
AM_VIS
100
AcDbCircle
 10
302.2131570023534
 20
236.1257878148026
 30
0.0
 40
7.725448021472357
  0
CIRCLE
  5
24E5
330
D
100
AcDbEntity
 67
     1
  8
AM_VIS
100
AcDbCircle
 10
302.2131570023534
 20
236.1257878148026
 30
0.0
 40
7.216721818253716
  0
LINE
  5
24E6
330
D
100
AcDbEntity
 67
     1
  8
AM_VIS
100
AcDbLine
 10
383.7317641858129
 20
237.3757878148026
 30
0.0
 11
386.1390894262039
 21
237.3757878148026
 31
0.0
  0
LINE
  5
24E7
330
D
100
AcDbEntity
 67
     1
  8
AM_VIS
100
AcDbLine
 10
383.7447261709946
 20
234.8757796536467
 30
0.0
 11
383.7463002263076
 21
237.3757786625863
 31
0.0
  0
LINE
  5
24E8
330
D
100
AcDbEntity
 67
     1
  8
AM_VIS
100
AcDbLine
 10
383.7317641858129
 20
234.8757878148026
 30
0.0
 11
386.1390894262039
 21
234.8757878148026
 31
0.0
  0
LINE
  5
24E9
330
D
100
AcDbEntity
 67
     1
  8
AM_VIS
100
AcDbLine
 10
381.5291309813742
 20
248.3757878148026
 30
0.0
 11
339.5440573986307
 21
248.3757878148026
 31
0.0
  0
LINE
  5
24EA
330
D
100
AcDbEntity
 67
     1
  8
AM_VIS
100
AcDbLine
 10
381.5291309813742
 20
223.8757878148026
 30
0.0
 11
339.5440573986307
 21
223.8757878148026
 31
0.0
  0
LINE
  5
24EB
330
D
100
AcDbEntity
 67
     1
  8
AM_VIS
100
AcDbLine
 10
329.5439812462089
 20
228.4003397933302
 30
0.0
 11
339.5440573986308
 21
228.2257878148026
 31
0.0
  0
LINE
  5
24EC
330
D
100
AcDbEntity
 67
     1
  8
AM_VIS
100
AcDbLine
 10
329.5439812462089
 20
243.8512358362749
 30
0.0
 11
339.5440573986308
 21
244.0257878148026
 31
0.0
  0
LINE
  5
24ED
330
D
100
AcDbEntity
 67
     1
  8
AM_VIS
100
AcDbLine
 10
329.0440573986308
 20
228.9090659965489
 30
0.0
 11
329.5439812462089
 21
228.4003397933302
 31
0.0
  0
LINE
  5
24EE
330
D
100
AcDbEntity
 67
     1
  8
AM_VIS
100
AcDbLine
 10
329.0440573986308
 20
243.3425096330563
 30
0.0
 11
329.5439812462089
 21
243.8512358362749
 31
0.0
  0
LINE
  5
24EF
330
D
100
AcDbEntity
 67
     1
  8
AM_VIS
100
AcDbLine
 10
339.5440573986308
 20
248.3757878148026
 30
0.0
 11
339.5440573986308
 21
223.8757878148026
 31
0.0
  0
LINE
  5
24F0
330
D
100
AcDbEntity
 67
     1
  8
AM_4
100
AcDbLine
 10
329.5439812462089
 20
243.8512358362749
 30
0.0
 11
329.5439812462089
 21
228.4003397933302
 31
0.0
  0
LINE
  5
24F1
330
D
100
AcDbEntity
 67
     1
  8
AM_VIS
100
AcDbLine
 10
329.0440573986308
 20
228.9090659965489
 30
0.0
 11
329.0440573986308
 21
243.3425096330563
 31
0.0
  0
LINE
  5
24F2
330
D
100
AcDbEntity
 67
     1
  8
AM_VIS
100
AcDbLine
 10
386.1390894262039
 20
234.3307786640674
 30
0.0
 11
386.1390894262039
 21
234.8757878148026
 31
0.0
  0
LINE
  5
24F3
330
D
100
AcDbEntity
 67
     1
  8
AM_VIS
100
AcDbLine
 10
386.1390894262039
 20
237.3757878148026
 30
0.0
 11
386.1390894262039
 21
237.9207969655378
 31
0.0
  0
ARC
  5
24F4
330
D
100
AcDbEntity
 67
     1
  8
AM_VIS
100
AcDbCircle
 10
369.1390894262039
 20
234.3307786640674
 30
0.0
 40
17.0
100
AcDbArc
 50
325.69028891232
 51
0.0
  0
ARC
  5
24F5
330
D
100
AcDbEntity
 67
     1
  8
AM_VIS
100
AcDbCircle
 10
369.1390894262039
 20
237.9207969655378
 30
0.0
 40
17.0
100
AcDbArc
 50
0.0
 51
34.30971108768003
  0
ARC
  5
24F6
330
D
100
AcDbEntity
 67
     1
  8
AM_VIS
100
AcDbCircle
 10
381.5291309813742
 20
225.8757878148026
 30
0.0
 40
2.0
100
AcDbArc
 50
270.0
 51
325.69028891232
  0
ARC
  5
24F7
330
D
100
AcDbEntity
 67
     1
  8
AM_VIS
100
AcDbCircle
 10
381.5291309813742
 20
246.3757878148026
 30
0.0
 40
2.0
100
AcDbArc
 50
34.30971108768003
 51
90.0
  0
LINE
  5
24F8
330
D
100
AcDbEntity
 67
     1
  8
AM_4
100
AcDbLine
 10
329.0440573986308
 20
243.3424334690345
 30
0.0
 11
339.0440573986308
 21
243.5169841183165
 31
0.0
  0
LINE
  5
24F9
330
D
100
AcDbEntity
 67
     1
  8
AM_4
100
AcDbLine
 10
329.0440573986308
 20
228.9091421605708
 30
0.0
 11
339.0440573986309
 21
228.7345915112887
 31
0.0
  0
LINE
  5
24FA
330
D
100
AcDbEntity
 67
     1
  8
AM_4
100
AcDbLine
 10
339.0440573986308
 20
243.5169841183165
 30
0.0
 11
339.5440573986308
 21
244.0257878148026
 31
0.0
  0
LINE
  5
24FB
330
D
100
AcDbEntity
 67
     1
  8
AM_4
100
AcDbLine
 10
339.0440573986309
 20
228.7345915112887
 30
0.0
 11
339.5440573986308
 21
228.2257878148026
 31
0.0
  0
LINE
  5
24FC
330
D
100
AcDbEntity
 67
     1
  8
AM_4
100
AcDbLine
 10
339.0440573986308
 20
243.5169841183165
 30
0.0
 11
339.0440573986309
 21
228.7345915112887
 31
0.0
  0
LINE
  5
24FD
330
D
100
AcDbEntity
 67
     1
  8
AM_4
100
AcDbLine
 10
339.5440573986307
 20
228.7258639788246
 30
0.0
 11
339.5527836018494
 21
228.7257116623808
 31
0.0
  0
LINE
  5
24FE
330
D
100
AcDbEntity
 67
     1
  8
AM_4
100
AcDbLine
 10
339.5440573986307
 20
243.5257116507806
 30
0.0
 11
339.5527836018494
 21
243.5258639672244
 31
0.0
  0
DIMENSION
  5
24FF
330
D
100
AcDbEntity
 67
     1
  8
AM_5
100
AcDbDimension
  2
*D45
 10
339.5440573986308
 20
216.538548723317
 30
0.0
 11
334.2940573986307
 21
219.288548723317
 31
0.0
 70
    32
 71
     5
 42
10.5
  3
AM_ISO$0
100
AcDbAlignedDimension
 13
329.0440573986308
 23
228.9090659965489
 33
0.0
 14
339.5440573986308
 24
223.8757878148026
 34
0.0
 50
0.0000000000001018
100
AcDbRotatedDimension
1001
ACAD
1000
DSTYLE
1002
{
1070
    40
1040
1.0
1070
   144
1040
1.0
1070
    47
1040
0.0
1070
    48
1040
0.3
1070
   271
1070
     1
1002
}
  0
DIMENSION
  5
2515
330
D
100
AcDbEntity
 67
     1
  8
AM_5
100
AcDbDimension
  2
*D46
 10
386.0440573986307
 20
209.0385487233171
 30
0.0
 11
357.5440573986307
 21
211.7885487233171
 31
0.0
 70
    32
 71
     5
 42
57.0
  3
AM_ISO$0
100
AcDbAlignedDimension
 13
329.0440573986308
 23
228.9090659965489
 33
0.0
 14
386.0440573986307
 24
236.1257878148026
 34
0.0
 50
0.0000000000001018
100
AcDbRotatedDimension
1001
ACAD
1000
DSTYLE
1002
{
1070
    40
1040
1.0
1070
   144
1040
1.0
1070
    47
1040
0.0
1070
    48
1040
0.3
1070
   271
1070
     1
1002
}
  0
DIMENSION
  5
252B
330
D
100
AcDbEntity
 67
     1
  8
AM_5
100
AcDbDimension
  2
*D47
 10
394.7824759634034
 20
248.3757878148026
 30
0.0
 11
394.7824759634034
 21
236.1257878148027
 31
0.0
 70
   160
  1
%%c<>
 71
     5
 42
24.5
  3
AM_ISO$0
100
AcDbAlignedDimension
 13
381.5291309813742
 23
223.8757878148026
 33
0.0
 14
381.5291309813742
 24
248.3757878148026
 34
0.0
 50
90.0
100
AcDbRotatedDimension
1001
ACAD
1000
DSTYLE
1002
{
1070
    40
1040
1.0
1070
   144
1040
1.0
1070
    47
1040
0.0
1070
    48
1040
0.3
1070
   271
1070
     1
1002
}
  0
DIMENSION
  5
256E
330
D
100
AcDbEntity
 67
     1
  8
AM_5
100
AcDbDimension
  2
*D48
 10
381.5291309813745
 20
246.3757878148027
 30
0.0
 11
389.8484696209592
 21
252.4963598040471
 31
0.0
 70
   164
  1
R0.5
 71
     5
 42
2.000000000000056
  3
AM_ISO$4
100
AcDbRadialDimension
 15
382.4996599145658
 25
248.1245226688726
 35
0.0
 40
0.0
1001
ACAD
1000
DSTYLE
1002
{
1070
    40
1040
1.0
1070
   144
1040
1.0
1070
    47
1040
0.0
1070
    48
1040
0.3
1070
   271
1070
     1
1002
}
  0
LEADER
  5
258A
330
D
100
AcDbEntity
 67
     1
  8
AM_5
100
AcDbLeader
  3
AM_ISO$7
 73
     0
 75
     1
 40
3.5
 41
11.89999999999999
 76
     3
 10
334.5440193224198
 20
243.9385118255388
 30
0.0
 10
330.2891302179451
 20
252.3310823332027
 30
0.0
 10
327.7891302179451
 20
252.3310823332027
 30
0.0
340
258B
213
-1.883205065918559
223
0.4473028115166926
233
0.0
1001
ACAD
1000
DSTYLE
1002
{
1070
    47
1040
0.0
1070
    48
1040
0.3
1070
   271
1070
     1
1002
}
  0
MTEXT
  5
258B
102
{ACAD_REACTORS
330
258A
102
}
330
D
100
AcDbEntity
 67
     1
  8
AM_5
100
AcDbMText
 10
328.6723352838636
 20
252.883779521686
 30
0.0
 40
3.5
 41
0.0
 71
     9
 72
     1
  1
PT3/8
 73
     1
 44
1.0
1001
ACAD
1000
MTEXTBEGIN
1070
    73
1070
     1
1070
    44
1040
1.0
1070
    74
1070
     0
1000
MTEXTEND
  0
TEXT
  5
25C2
330
D
100
AcDbEntity
 67
     1
  8
LOGO
  6
Continuous
 62
     7
100
AcDbText
 10
20.69941387750692
 20
185.5361252720382
 30
0.0
 40
4.026698797080958
  1
MSLT-04
  7
CHINESET
100
AcDbText
  0
TEXT
  5
25C3
330
D
100
AcDbEntity
 67
     1
  8
LOGO
  6
Continuous
 62
     7
100
AcDbText
 10
147.0731326271041
 20
186.137186999748
 30
0.0
 40
4.026698797080958
  1
MSLT-06
  7
CHINESET
100
AcDbText
  0
TEXT
  5
25C4
330
D
100
AcDbEntity
 67
     1
  8
LOGO
  6
Continuous
 62
     7
100
AcDbText
 10
148.6890180322673
 20
98.12160702634361
 30
0.0
 40
4.026698797080958
  1
MSLT-08
  7
CHINESET
100
AcDbText
  0
LINE
  5
25ED
330
D
100
AcDbEntity
 67
     1
  8
AM_7
100
AcDbLine
 10
37.5870557990346
 20
144.4313744643634
 30
0.0
 11
37.5870557990346
 21
144.4313744643634
 31
0.0
  0
LINE
  5
25EE
330
D
100
AcDbEntity
 67
     1
  8
AM_7
100
AcDbLine
 10
37.5870557990346
 20
144.4313744643634
 30
0.0
 11
37.5870557990346
 21
144.4313744643634
 31
0.0
  0
LINE
  5
25EF
330
D
100
AcDbEntity
 67
     1
  8
AM_7
100
AcDbLine
 10
22.3370557990346
 20
144.4313744643634
 30
0.0
 11
37.5870557990346
 21
144.4313744643634
 31
0.0
  0
LINE
  5
25F0
330
D
100
AcDbEntity
 67
     1
  8
AM_7
100
AcDbLine
 10
37.5870557990346
 20
144.4313744643634
 30
0.0
 11
52.8370557990346
 21
144.4313744643634
 31
0.0
  0
LINE
  5
25F1
330
D
100
AcDbEntity
 67
     1
  8
AM_7
100
AcDbLine
 10
37.5870557990346
 20
129.1813744643634
 30
0.0
 11
37.5870557990346
 21
144.4313744643634
 31
0.0
  0
LINE
  5
25F2
330
D
100
AcDbEntity
 67
     1
  8
AM_7
100
AcDbLine
 10
37.5870557990346
 20
144.4313744643634
 30
0.0
 11
37.5870557990346
 21
159.6813744643634
 31
0.0
  0
ARC
  5
25F3
330
D
100
AcDbEntity
 67
     1
  8
AM_4
100
AcDbCircle
 10
37.5870557990346
 20
144.4313744643634
 30
0.0
 40
6.9455
100
AcDbArc
 50
259.9999999999998
 51
190.0000000000001
  0
LINE
  5
25F4
330
D
100
AcDbEntity
 67
     1
  8
AM_7
100
AcDbLine
 10
128.990516371677
 20
144.4313744643634
 30
0.0
 11
68.80273343207298
 21
144.4313744643634
 31
0.0
  0
CIRCLE
  5
25F7
330
D
100
AcDbEntity
 67
     1
  8
AM_VIS
100
AcDbCircle
 10
37.5870557990346
 20
144.4313744643634
 30
0.0
 40
12.25
  0
CIRCLE
  5
25F8
330
D
100
AcDbEntity
 67
     1
  8
AM_VIS
100
AcDbCircle
 10
37.5870557990346
 20
144.4313744643634
 30
0.0
 40
10.25
  0
CIRCLE
  5
25F9
330
D
100
AcDbEntity
 67
     1
  8
AM_VIS
100
AcDbCircle
 10
37.5870557990346
 20
144.4313744643634
 30
0.0
 40
6.0
  0
CIRCLE
  5
25FA
330
D
100
AcDbEntity
 67
     1
  8
AM_VIS
100
AcDbCircle
 10
37.5870557990346
 20
144.4313744643634
 30
0.0
 40
10.07544802147235
  0
CIRCLE
  5
25FB
330
D
100
AcDbEntity
 67
     1
  8
AM_VIS
100
AcDbCircle
 10
37.5870557990346
 20
144.4313744643634
 30
0.0
 40
9.566721818253714
  0
LINE
  5
25FC
330
D
100
AcDbEntity
 67
     1
  8
AM_VIS
100
AcDbLine
 10
125.9905163716769
 20
145.6813744643634
 30
0.0
 11
128.3978416120679
 21
145.6813744643634
 31
0.0
  0
LINE
  5
25FD
330
D
100
AcDbEntity
 67
     1
  8
AM_VIS
100
AcDbLine
 10
126.0034783568586
 20
143.1813663032075
 30
0.0
 11
126.0050524121716
 21
145.6813653121471
 31
0.0
  0
LINE
  5
25FE
330
D
100
AcDbEntity
 67
     1
  8
AM_VIS
100
AcDbLine
 10
125.9905163716769
 20
143.1813744643634
 30
0.0
 11
128.3978416120679
 21
143.1813744643634
 31
0.0
  0
LINE
  5
25FF
330
D
100
AcDbEntity
 67
     1
  8
AM_VIS
100
AcDbLine
 10
123.7878831672383
 20
156.6813744643634
 30
0.0
 11
81.80280958449477
 21
156.6813744643634
 31
0.0
  0
LINE
  5
2600
330
D
100
AcDbEntity
 67
     1
  8
AM_VIS
100
AcDbLine
 10
123.7878831672383
 20
132.1813744643634
 30
0.0
 11
81.80280958449477
 21
132.1813744643634
 31
0.0
  0
LINE
  5
2601
330
D
100
AcDbEntity
 67
     1
  8
AM_VIS
100
AcDbLine
 10
71.80273343207298
 20
134.355926442891
 30
0.0
 11
81.80280958449477
 21
134.1813744643634
 31
0.0
  0
LINE
  5
2602
330
D
100
AcDbEntity
 67
     1
  8
AM_VIS
100
AcDbLine
 10
71.80273343207298
 20
154.5068224858358
 30
0.0
 11
81.80280958449477
 21
154.6813744643634
 31
0.0
  0
LINE
  5
2603
330
D
100
AcDbEntity
 67
     1
  8
AM_VIS
100
AcDbLine
 10
71.30280958449478
 20
134.8646526461097
 30
0.0
 11
71.80273343207298
 21
134.355926442891
 31
0.0
  0
LINE
  5
2604
330
D
100
AcDbEntity
 67
     1
  8
AM_VIS
100
AcDbLine
 10
71.30280958449478
 20
153.9980962826171
 30
0.0
 11
71.80273343207298
 21
154.5068224858358
 31
0.0
  0
LINE
  5
2605
330
D
100
AcDbEntity
 67
     1
  8
AM_VIS
100
AcDbLine
 10
81.80280958449477
 20
156.6813744643634
 30
0.0
 11
81.80280958449477
 21
132.1813744643634
 31
0.0
  0
LINE
  5
2606
330
D
100
AcDbEntity
 67
     1
  8
AM_4
100
AcDbLine
 10
71.80273343207298
 20
154.5068224858358
 30
0.0
 11
71.80273343207298
 21
134.355926442891
 31
0.0
  0
LINE
  5
2607
330
D
100
AcDbEntity
 67
     1
  8
AM_VIS
100
AcDbLine
 10
71.30280958449478
 20
134.8646526461097
 30
0.0
 11
71.30280958449478
 21
153.9980962826171
 31
0.0
  0
LINE
  5
2608
330
D
100
AcDbEntity
 67
     1
  8
AM_VIS
100
AcDbLine
 10
128.3978416120679
 20
142.6363653136282
 30
0.0
 11
128.3978416120679
 21
143.1813744643634
 31
0.0
  0
LINE
  5
2609
330
D
100
AcDbEntity
 67
     1
  8
AM_VIS
100
AcDbLine
 10
128.3978416120679
 20
145.6813744643634
 30
0.0
 11
128.3978416120679
 21
146.2263836150986
 31
0.0
  0
ARC
  5
260A
330
D
100
AcDbEntity
 67
     1
  8
AM_VIS
100
AcDbCircle
 10
111.3978416120679
 20
142.6363653136282
 30
0.0
 40
17.0
100
AcDbArc
 50
325.6902889123197
 51
0.0
  0
ARC
  5
260B
330
D
100
AcDbEntity
 67
     1
  8
AM_VIS
100
AcDbCircle
 10
111.3978416120679
 20
146.2263836150986
 30
0.0
 40
17.0
100
AcDbArc
 50
0.0
 51
34.30971108768026
  0
ARC
  5
260C
330
D
100
AcDbEntity
 67
     1
  8
AM_VIS
100
AcDbCircle
 10
123.7878831672383
 20
134.1813744643634
 30
0.0
 40
2.0
100
AcDbArc
 50
270.0
 51
325.6902889123197
  0
ARC
  5
260D
330
D
100
AcDbEntity
 67
     1
  8
AM_VIS
100
AcDbCircle
 10
123.7878831672383
 20
154.6813744643634
 30
0.0
 40
2.0
100
AcDbArc
 50
34.30971108768026
 51
90.0
  0
LINE
  5
260E
330
D
100
AcDbEntity
 67
     1
  8
LOGO
 62
     4
100
AcDbLine
 10
143.7417005765396
 20
204.0216450007915
 30
0.0
 11
143.7417005765396
 21
31.09161369216278
 31
0.0
  0
LINE
  5
260F
330
D
100
AcDbEntity
 67
     1
  8
AM_4
100
AcDbLine
 10
81.30280958449478
 20
154.1725707678773
 30
0.0
 11
81.80280958449477
 21
154.6813744643634
 31
0.0
  0
LINE
  5
2610
330
D
100
AcDbEntity
 67
     1
  8
AM_4
100
AcDbLine
 10
81.30280958449478
 20
134.6901781608495
 30
0.0
 11
81.80280958449477
 21
134.1813744643634
 31
0.0
  0
LINE
  5
2612
330
D
100
AcDbEntity
 67
     1
  8
AM_4
100
AcDbLine
 10
71.30280958449478
 20
134.8647288101316
 30
0.0
 11
81.30280958449477
 21
134.6901781608495
 31
0.0
  0
LINE
  5
2613
330
D
100
AcDbEntity
 67
     1
  8
AM_4
100
AcDbLine
 10
71.30280958449478
 20
153.9980201185952
 30
0.0
 11
81.30280958449478
 21
154.1725707678773
 31
0.0
  0
LINE
  5
2614
330
D
100
AcDbEntity
 67
     1
  8
AM_4
100
AcDbLine
 10
81.30280958449477
 20
154.1725707678773
 30
0.0
 11
81.30280958449477
 21
134.6901781608495
 31
0.0
  0
DIMENSION
  5
2615
330
D
100
AcDbEntity
 67
     1
  8
AM_5
100
AcDbDimension
  2
*D49
 10
81.80280958449477
 20
122.8646526461097
 30
0.0
 11
76.55280958449478
 21
125.6146526461097
 31
0.0
 70
    32
 71
     5
 42
10.5
  3
AM_ISO$0
100
AcDbAlignedDimension
 13
71.30280958449478
 23
134.8646526461097
 33
0.0
 14
81.80280958449477
 24
132.1813744643634
 34
0.0
 50
0.0000000000001132
100
AcDbRotatedDimension
1001
ACAD
1000
DSTYLE
1002
{
1070
    40
1040
1.0
1070
   144
1040
1.0
1070
    47
1040
0.0
1070
    48
1040
0.3
1070
   271
1070
     1
1002
}
  0
DIMENSION
  5
262B
330
D
100
AcDbEntity
 67
     1
  8
AM_5
100
AcDbDimension
  2
*D50
 10
128.3028095844947
 20
115.3646526461098
 30
0.0
 11
99.80280958449476
 21
118.1146526461098
 31
0.0
 70
    32
 71
     5
 42
56.99999999999997
  3
AM_ISO$0
100
AcDbAlignedDimension
 13
71.30280958449478
 23
134.8646526461097
 33
0.0
 14
128.3028095844947
 24
144.4313744643634
 34
0.0
 50
0.0000000000001132
100
AcDbRotatedDimension
1001
ACAD
1000
DSTYLE
1002
{
1070
    40
1040
1.0
1070
   144
1040
1.0
1070
    47
1040
0.0
1070
    48
1040
0.3
1070
   271
1070
     1
1002
}
  0
DIMENSION
  5
2653
330
D
100
AcDbEntity
 67
     1
  8
AM_5
100
AcDbDimension
  2
*D51
 10
137.0412281492675
 20
156.6813744643634
 30
0.0
 11
137.0412281492674
 21
144.4313744643635
 31
0.0
 70
   160
  1
%%c<>
 71
     5
 42
24.5
  3
AM_ISO$0
100
AcDbAlignedDimension
 13
123.7878831672383
 23
132.1813744643634
 33
0.0
 14
123.7878831672383
 24
156.6813744643634
 34
0.0
 50
90.0
100
AcDbRotatedDimension
1001
ACAD
1000
DSTYLE
1002
{
1070
    40
1040
1.0
1070
   144
1040
1.0
1070
    47
1040
0.0
1070
    48
1040
0.3
1070
   271
1070
     1
1002
}
  0
DIMENSION
  5
2654
330
D
100
AcDbEntity
 67
     1
  8
AM_5
100
AcDbDimension
  2
*D52
 10
123.7878831672385
 20
154.6813744643634
 30
0.0
 11
132.1072218068233
 21
160.8019464536078
 31
0.0
 70
   164
  1
R0.5
 71
     5
 42
1.999999999999971
  3
AM_ISO$4
100
AcDbRadialDimension
 15
124.7584121004297
 25
156.4301093184333
 35
0.0
 40
0.0
1001
ACAD
1000
DSTYLE
1002
{
1070
    40
1040
1.0
1070
   144
1040
1.0
1070
    47
1040
0.0
1070
    48
1040
0.3
1070
   271
1070
     1
1002
}
  0
LEADER
  5
2655
330
D
100
AcDbEntity
 67
     1
  8
AM_5
100
AcDbLeader
  3
AM_ISO$7
 73
     0
 75
     1
 40
3.500688976377952
 41
11.41020669291338
 76
     3
 10
76.80277150828388
 20
154.5940984750996
 30
0.0
 10
72.54788240380915
 20
162.9866689827635
 30
0.0
 10
70.04788240380915
 20
162.9866689827635
 30
0.0
340
2656
213
-1.883205065918559
223
0.4473028115166926
233
0.0
1001
ACAD
1000
DSTYLE
1002
{
1070
    47
1040
0.0
1070
    48
1040
0.3
1070
   271
1070
     1
1002
}
  0
MTEXT
  5
2656
102
{ACAD_REACTORS
330
2655
102
}
330
D
100
AcDbEntity
 67
     1
  8
AM_5
100
AcDbMText
 10
70.93108746972771
 20
163.5393661712469
 30
0.0
 40
3.5
 41
0.0
 71
     9
 72
     1
  1
PT1/2
 73
     1
 44
1.0
1001
ACAD
1000
MTEXTBEGIN
1070
    73
1070
     1
1070
    44
1040
1.0
1070
    74
1070
     0
1000
MTEXTEND
  0
DIMENSION
  5
267B
330
D
100
AcDbEntity
 67
     1
  8
AM_5
100
AcDbDimension
  2
*D53
 10
242.2591344156672
 20
35.98543467376307
 30
0.0
 11
218.0091344156672
 21
38.73543467376307
 31
0.0
 70
    32
 71
     5
 42
48.5
  3
AM_ISO$0
100
AcDbAlignedDimension
 13
193.7591344156672
 23
63.05069668024384
 33
0.0
 14
242.2591344156672
 24
63.05069668024373
 34
0.0
 50
0.0000000000001132
100
AcDbRotatedDimension
1001
ACAD
1000
DSTYLE
1002
{
1070
    40
1040
1.0
1070
   144
1040
1.0
1070
    47
1040
0.0
1070
    48
1040
0.3
1070
   271
1070
     1
1002
}
  0
DIMENSION
  5
2691
330
D
100
AcDbEntity
 67
     1
  8
AM_5
100
AcDbDimension
  2
*D54
 10
183.602931898178
 20
47.98543567376305
 30
0.0
 11
180.677931898178
 21
74.92240675082761
 31
0.0
 70
    32
  1
(<>)
 71
     5
 42
53.87394215412904
  3
AM_ISO$0
100
AcDbAlignedDimension
 13
216.1653369231563
 23
101.8593778278921
 33
0.0
 14
216.1653369231563
 24
47.98543567376305
 34
0.0
 50
90.00000000000003
100
AcDbRotatedDimension
1001
ACAD
1000
DSTYLE
1002
{
1070
    47
1040
0.0
1070
    48
1040
0.3
1070
   271
1070
     0
1002
}
  0
DIMENSION
  5
26C7
330
D
100
AcDbEntity
 67
     1
  8
AM_5
100
AcDbDimension
  2
*D55
 10
394.1916949489274
 20
50.42240675082758
 30
0.0
 11
391.4416949489274
 21
74.92240675082763
 31
0.0
 70
    32
  1
%%c<>
 71
     5
 42
49.0
  3
AM_ISO$0
100
AcDbAlignedDimension
 13
368.8343934510777
 23
99.42240675082757
 33
0.0
 14
368.8343934510777
 24
50.42240675082758
 34
0.0
 50
90.00000000000003
100
AcDbRotatedDimension
1001
ACAD
1000
DSTYLE
1002
{
1070
    40
1040
1.0
1070
   144
1040
1.0
1070
    47
1040
0.0
1070
    48
1040
0.3
1070
   271
1070
     1
1002
}
  0
DIMENSION
  5
26E6
330
D
100
AcDbEntity
 67
     1
  8
AM_5
100
AcDbDimension
  2
*D56
 10
368.834393451078
 20
97.42240675082761
 30
0.0
 11
379.3436882813241
 21
103.6926102132104
 31
0.0
 70
   164
  1
R0.5
 71
     5
 42
2.0
  3
AM_ISO$4
100
AcDbRadialDimension
 15
370.1648886716956
 25
98.91565236622836
 35
0.0
 40
0.0
1001
ACAD
1000
DSTYLE
1002
{
1070
    40
1040
1.0
1070
   144
1040
1.0
1070
    47
1040
0.0
1070
    48
1040
0.3
1070
   271
1070
     1
1002
}
  0
LINE
  5
2701
330
D
100
AcDbEntity
 67
     1
  8
AM_4
100
AcDbLine
 10
279.9701343699023
 20
89.54217817939904
 30
0.0
 11
281.8503629413308
 21
91.42240675082758
 31
0.0
  0
LINE
  5
2702
330
D
100
AcDbEntity
 67
     1
  8
AM_4
100
AcDbLine
 10
279.9701343699023
 20
60.30263532225612
 30
0.0
 11
281.8503629413308
 21
58.42240675082758
 31
0.0
  0
LINE
  5
2703
330
D
100
AcDbEntity
 67
     1
  8
AM_4
100
AcDbLine
 10
279.9701343699022
 20
89.54217817939902
 30
0.0
 11
279.9701343699023
 21
60.3026353222561
 31
0.0
  0
LEADER
  5
2704
330
D
100
AcDbEntity
 67
     1
  8
AM_5
100
AcDbLeader
  3
AM_ISO$7
 73
     0
 75
     1
 40
3.5
 41
6.299999999999999
 76
     3
 10
272.8503629413308
 20
91.17240675082758
 30
0.0
 10
268.5954738368561
 20
99.56497725849153
 30
0.0
 10
266.0954738368561
 20
99.56497725849153
 30
0.0
340
2705
213
-1.883205065918559
223
0.4473028115166926
233
0.0
1001
ACAD
1000
DSTYLE
1002
{
1070
    47
1040
0.0
1070
    48
1040
0.3
1070
   271
1070
     1
1002
}
  0
MTEXT
  5
2705
102
{ACAD_REACTORS
330
2704
102
}
330
D
100
AcDbEntity
 67
     1
  8
AM_5
100
AcDbMText
 10
266.9786789027746
 20
100.1176744469748
 30
0.0
 40
3.5
 41
0.0
 71
     9
 72
     1
  1
PT1 
 73
     1
 44
1.0
1001
ACAD
1000
MTEXTBEGIN
1070
    73
1070
     1
1070
    44
1040
1.0
1070
    74
1070
     0
1000
MTEXTEND
  0
DIMENSION
  5
2706
330
D
100
AcDbEntity
 67
     1
  8
AM_5
100
AcDbDimension
  2
*D57
 10
281.8503629413308
 20
42.69781910526202
 30
0.0
 11
272.3503629413308
 21
45.44781910526203
 31
0.0
 70
    32
 71
     5
 42
19.0
  3
AM_ISO$0
100
AcDbAlignedDimension
 13
262.8503629413308
 23
59.92240675082758
 33
0.0
 14
281.8503629413308
 24
47.98543567376305
 34
0.0
 50
0.0000000000001132
100
AcDbRotatedDimension
1001
ACAD
1000
DSTYLE
1002
{
1070
    47
1040
0.0
1070
    48
1040
0.3
1070
   174
1070
     1
1070
   271
1070
     1
1002
}
  0
DIMENSION
  5
2725
330
D
100
AcDbEntity
 67
     1
  8
AM_5
100
AcDbDimension
  2
*D58
 10
289.8503629413308
 20
42.69781910526202
 30
0.0
 11
285.8503629413308
 21
45.44781910526203
 31
0.0
 70
    32
 71
     5
 42
8.0
  3
AM_ISO$0
100
AcDbAlignedDimension
 13
281.8503629413308
 23
47.98543567376305
 33
0.0
 14
289.8503629413308
 24
47.98543567376305
 34
0.0
100
AcDbRotatedDimension
1001
ACAD
1000
DSTYLE
1002
{
1070
   174
1070
     1
1070
    40
1040
1.0
1070
   144
1040
1.0
1070
    47
1040
0.0
1070
    48
1040
0.3
1070
   271
1070
     1
1002
}
  0
DIMENSION
  5
273B
330
D
100
AcDbEntity
 67
     1
  8
AM_5
100
AcDbDimension
  2
*D59
 10
377.8408323890003
 20
35.19781910526222
 30
0.0
 11
320.3455976651655
 21
37.94781910526222
 31
0.0
 70
    32
 71
     5
 42
114.9904694476695
  3
AM_ISO$0
100
AcDbAlignedDimension
 13
262.8503629413308
 23
59.92240675082758
 33
0.0
 14
377.8408323890003
 24
74.92240675082758
 34
0.0
 50
0.0000000000001132
100
AcDbRotatedDimension
1001
ACAD
1000
DSTYLE
1002
{
1070
    40
1040
1.0
1070
   144
1040
1.0
1070
    47
1040
0.0
1070
    48
1040
0.3
1070
   271
1070
     1
1002
}
  0
LINE
  5
2763
330
D
100
AcDbEntity
 67
     1
  8
AM_VIS
100
AcDbLine
 10
375.8408323890003
 20
73.67240675082758
 30
0.0
 11
377.8223910081742
 21
73.67240675082758
 31
0.0
  0
LINE
  5
2764
330
D
100
AcDbEntity
 67
     1
  8
AM_VIS
100
AcDbLine
 10
375.8408323890003
 20
76.17240675082759
 30
0.0
 11
377.8223910081742
 21
76.17240675082759
 31
0.0
  0
LINE
  5
2765
330
D
100
AcDbEntity
 67
     1
  8
AM_VIS
100
AcDbLine
 10
375.8408323890003
 20
76.17240675082758
 30
0.0
 11
375.8408323890003
 21
73.67240675082758
 31
0.0
  0
ARC
  5
2766
330
D
100
AcDbEntity
 67
     1
  8
AM_VIS
100
AcDbCircle
 10
335.4676473421161
 20
74.92240675082758
 30
0.0
 40
42.37318504688413
100
AcDbArc
 50
1.690458625599925
 51
21.36529196243897
  0
LINE
  5
2808
330
D
100
AcDbEntity
 67
     1
  8
AM_7
100
AcDbLine
 10
216.5757556792907
 20
157.8625640485019
 30
0.0
 11
216.5757556792907
 21
157.8625640485019
 31
0.0
  0
LINE
  5
2809
330
D
100
AcDbEntity
 67
     1
  8
AM_7
100
AcDbLine
 10
216.5757556792907
 20
157.8625640485019
 30
0.0
 11
216.5757556792907
 21
157.8625640485019
 31
0.0
  0
LINE
  5
280A
330
D
100
AcDbEntity
 67
     1
  8
AM_7
100
AcDbLine
 10
186.5757556792907
 20
157.8625640485019
 30
0.0
 11
216.5757556792907
 21
157.8625640485019
 31
0.0
  0
LINE
  5
280B
330
D
100
AcDbEntity
 67
     1
  8
AM_7
100
AcDbLine
 10
216.5757556792907
 20
157.8625640485019
 30
0.0
 11
246.5757556792908
 21
157.8625640485019
 31
0.0
  0
LINE
  5
280C
330
D
100
AcDbEntity
 67
     1
  8
AM_7
100
AcDbLine
 10
216.5757556792907
 20
127.8625640485019
 30
0.0
 11
216.5757556792907
 21
157.8625640485019
 31
0.0
  0
LINE
  5
280D
330
D
100
AcDbEntity
 67
     1
  8
AM_7
100
AcDbLine
 10
216.5757556792907
 20
157.8625640485019
 30
0.0
 11
216.5757556792907
 21
187.8625640485019
 31
0.0
  0
ARC
  5
280E
330
D
100
AcDbEntity
 67
     1
  8
AM_4
100
AcDbCircle
 10
216.5757556792907
 20
157.8625640485019
 30
0.0
 40
14.172
100
AcDbArc
 50
259.9999999999998
 51
190.0000000000002
  0
LINE
  5
280F
330
D
100
AcDbEntity
 67
     1
  8
AM_7
100
AcDbLine
 10
266.9809579979677
 20
157.8625640485019
 30
0.0
 11
387.9542877189339
 21
157.8625640485019
 31
0.0
  0
LINE
  5
2810
330
D
100
AcDbEntity
 67
     1
  8
AM_VIS
100
AcDbLine
 10
238.9819581867799
 20
142.7973030420212
 30
0.0
 11
218.4195531718017
 21
130.9255929714374
 31
0.0
  0
LINE
  5
2811
330
D
100
AcDbEntity
 67
     1
  8
AM_VIS
100
AcDbLine
 10
192.3257556792907
 20
145.9908539779182
 30
0.0
 11
192.3257556792907
 21
169.7342741190856
 31
0.0
  0
LINE
  5
2812
330
D
100
AcDbEntity
 67
     1
  8
AM_VIS
100
AcDbLine
 10
194.1695531718016
 20
172.9278250549827
 30
0.0
 11
214.7319581867798
 21
184.7995351255665
 31
0.0
  0
LINE
  5
2813
330
D
100
AcDbEntity
 67
     1
  8
AM_VIS
100
AcDbLine
 10
218.4195531718016
 20
184.7995351255664
 30
0.0
 11
238.9819581867798
 21
172.9278250549827
 31
0.0
  0
LINE
  5
2814
330
D
100
AcDbEntity
 67
     1
  8
AM_VIS
100
AcDbLine
 10
214.7319581867798
 20
130.9255929714374
 30
0.0
 11
194.1695531718017
 21
142.7973030420211
 31
0.0
  0
LINE
  5
2815
330
D
100
AcDbEntity
 67
     1
  8
AM_VIS
100
AcDbLine
 10
240.8257556792907
 20
169.7342741190857
 30
0.0
 11
240.8257556792907
 21
145.9908539779181
 31
0.0
  0
ARC
  5
281C
330
D
100
AcDbEntity
 67
     1
  8
AM_VIS
100
AcDbCircle
 10
216.5757556792907
 20
157.8625640485019
 30
0.0
 40
27.0
100
AcDbArc
 50
326.0842927773789
 51
333.9157072226214
  0
ARC
  5
281D
330
D
100
AcDbEntity
 67
     1
  8
AM_VIS
100
AcDbCircle
 10
216.5757556792907
 20
157.8625640485019
 30
0.0
 40
27.0
100
AcDbArc
 50
26.08429277737851
 51
33.91570722262109
  0
ARC
  5
281E
330
D
100
AcDbEntity
 67
     1
  8
AM_VIS
100
AcDbCircle
 10
216.5757556792907
 20
157.8625640485019
 30
0.0
 40
27.0
100
AcDbArc
 50
206.0842927773785
 51
213.9157072226211
  0
ARC
  5
281F
330
D
100
AcDbEntity
 67
     1
  8
AM_VIS
100
AcDbCircle
 10
216.5757556792907
 20
157.8625640485019
 30
0.0
 40
27.0
100
AcDbArc
 50
266.0842927773786
 51
273.9157072226214
  0
ARC
  5
2820
330
D
100
AcDbEntity
 67
     1
  8
AM_VIS
100
AcDbCircle
 10
216.5757556792907
 20
157.8625640485019
 30
0.0
 40
27.0
100
AcDbArc
 50
86.08429277737863
 51
93.91570722262137
  0
ARC
  5
2821
330
D
100
AcDbEntity
 67
     1
  8
AM_VIS
100
AcDbCircle
 10
216.5757556792907
 20
157.8625640485019
 30
0.0
 40
27.0
100
AcDbArc
 50
146.0842927773789
 51
153.9157072226215
  0
CIRCLE
  5
2822
330
D
100
AcDbEntity
 67
     1
  8
AM_VIS
100
AcDbCircle
 10
216.5757556792907
 20
157.8625640485019
 30
0.0
 40
10.25
  0
CIRCLE
  5
2823
330
D
100
AcDbEntity
 67
     1
  8
AM_VIS
100
AcDbCircle
 10
216.5757556792907
 20
157.8625640485019
 30
0.0
 40
12.86035948057426
  0
CIRCLE
  5
2824
330
D
100
AcDbEntity
 67
     1
  8
AM_VIS
100
AcDbCircle
 10
216.5757556792907
 20
157.8625640485019
 30
0.0
 40
12.54616565337541
  0
CIRCLE
  5
2825
330
D
100
AcDbEntity
 67
     1
  8
AM_VIS
100
AcDbCircle
 10
216.5757556792907
 20
157.8625640485019
 30
0.0
 40
11.52871324693812
  0
LINE
  5
2826
330
D
100
AcDbEntity
 67
     1
  8
AM_VIS
100
AcDbLine
 10
295.9811103028113
 20
135.1159180012582
 30
0.0
 11
295.9811103028113
 21
130.9255929714374
 31
0.0
  0
LINE
  5
2827
330
D
100
AcDbEntity
 67
     1
  8
AM_VIS
100
AcDbLine
 10
295.9811103028113
 20
142.7973030420212
 30
0.0
 11
295.9811103028113
 21
138.6069780122004
 31
0.0
  0
LINE
  5
2828
330
D
100
AcDbEntity
 67
     1
  8
AM_VIS
100
AcDbLine
 10
287.9811103028113
 20
142.7973030420212
 30
0.0
 11
287.9811103028113
 21
130.9255929714374
 31
0.0
  0
LINE
  5
2829
330
D
100
AcDbEntity
 67
     1
  8
AM_VIS
100
AcDbLine
 10
287.9811103028113
 20
184.7995351255664
 30
0.0
 11
287.9811103028113
 21
172.9278250549827
 31
0.0
  0
LINE
  5
282A
330
D
100
AcDbEntity
 67
     1
  8
AM_VIS
100
AcDbLine
 10
295.9811103028113
 20
184.7995351255665
 30
0.0
 11
295.9811103028113
 21
180.6092100957458
 31
0.0
  0
LINE
  5
282B
330
D
100
AcDbEntity
 67
     1
  8
AM_VIS
100
AcDbLine
 10
295.9811103028113
 20
177.1181500848033
 30
0.0
 11
295.9811103028113
 21
172.9278250549826
 31
0.0
  0
LINE
  5
282C
330
D
100
AcDbEntity
 67
     1
  8
AM_VIS
100
AcDbLine
 10
287.9811103028113
 20
169.7342741190857
 30
0.0
 11
287.9811103028113
 21
145.9908539779181
 31
0.0
  0
LINE
  5
282D
330
D
100
AcDbEntity
 67
     1
  8
AM_VIS
100
AcDbLine
 10
295.9811103028113
 20
169.7342741190858
 30
0.0
 11
295.9811103028113
 21
161.3536240594444
 31
0.0
  0
LINE
  5
282E
330
D
100
AcDbEntity
 67
     1
  8
AM_VIS
100
AcDbLine
 10
295.9811103028113
 20
154.3715040375594
 30
0.0
 11
295.9811103028113
 21
145.9908539779181
 31
0.0
  0
LINE
  5
282F
330
D
100
AcDbEntity
 67
     1
  8
AM_VIS
100
AcDbLine
 10
287.9811103028113
 20
145.9908539779181
 30
0.0
 11
295.9811103028113
 21
145.9908539779181
 31
0.0
  0
LINE
  5
2830
330
D
100
AcDbEntity
 67
     1
  8
AM_VIS
100
AcDbLine
 10
295.9811103028113
 20
142.7973030420212
 30
0.0
 11
287.9811103028113
 21
142.7973030420212
 31
0.0
  0
LINE
  5
2831
330
D
100
AcDbEntity
 67
     1
  8
AM_VIS
100
AcDbLine
 10
287.9811103028113
 20
172.9278250549827
 30
0.0
 11
295.9811103028113
 21
172.9278250549827
 31
0.0
  0
LINE
  5
2832
330
D
100
AcDbEntity
 67
     1
  8
AM_VIS
100
AcDbLine
 10
295.9811103028113
 20
169.7342741190857
 30
0.0
 11
287.9811103028113
 21
169.7342741190857
 31
0.0
  0
LINE
  5
2833
330
D
100
AcDbEntity
 67
     1
  8
AM_VIS
100
AcDbLine
 10
287.9811103028113
 20
130.9255929714374
 30
0.0
 11
295.9811103028113
 21
130.9255929714374
 31
0.0
  0
LINE
  5
2834
330
D
100
AcDbEntity
 67
     1
  8
AM_VIS
100
AcDbLine
 10
295.9811103028113
 20
184.7995351255665
 30
0.0
 11
287.9811103028113
 21
184.7995351255665
 31
0.0
  0
ARC
  5
2835
330
D
100
AcDbEntity
 67
     1
  8
AM_VIS
100
AcDbCircle
 10
341.5983947035966
 20
157.8625640485019
 30
0.0
 40
42.37318504688413
100
AcDbArc
 50
338.63470803756
 51
358.3095413744
  0
LINE
  5
2836
330
D
100
AcDbEntity
 67
     1
  8
AM_VIS
100
AcDbLine
 10
381.0595524393747
 20
142.4254736684964
 30
0.0
 11
381.073067749752
 21
142.3861919701141
 31
0.0
  0
LINE
  5
2837
330
D
100
AcDbEntity
 67
     1
  8
AM_VIS
100
AcDbLine
 10
381.0595528598192
 20
173.2996542838733
 30
0.0
 11
381.0730692782826
 21
173.3389356009264
 31
0.0
  0
LINE
  5
2838
330
D
100
AcDbEntity
 67
     1
  8
AM_VIS
100
AcDbLine
 10
374.9651408125583
 20
182.3625640485019
 30
0.0
 11
295.9811103028113
 21
182.3625640485019
 31
0.0
  0
LINE
  5
2839
330
D
100
AcDbEntity
 67
     1
  8
AM_VIS
100
AcDbLine
 10
374.9651408125583
 20
133.3625640485019
 30
0.0
 11
295.9811103028113
 21
133.3625640485019
 31
0.0
  0
LINE
  5
283A
330
D
100
AcDbEntity
 67
     1
  8
AM_VIS
100
AcDbLine
 10
287.9811103028113
 20
130.8625640485019
 30
0.0
 11
295.9811103028113
 21
130.8625640485019
 31
0.0
  0
LINE
  5
283B
330
D
100
AcDbEntity
 67
     1
  8
AM_VIS
100
AcDbLine
 10
287.9811103028113
 20
184.8625640485019
 30
0.0
 11
295.9811103028113
 21
184.8625640485019
 31
0.0
  0
LINE
  5
283C
330
D
100
AcDbEntity
 67
     1
  8
AM_VIS
100
AcDbLine
 10
269.9809579979677
 20
145.3163983951265
 30
0.0
 11
287.9811103028113
 21
145.0022045679277
 31
0.0
  0
LINE
  5
283D
330
D
100
AcDbEntity
 67
     1
  8
AM_VIS
100
AcDbLine
 10
269.9809579979677
 20
170.4087297018773
 30
0.0
 11
287.9811103028113
 21
170.7229235290762
 31
0.0
  0
LINE
  5
283E
330
D
100
AcDbEntity
 67
     1
  8
AM_VIS
100
AcDbLine
 10
268.9811103028113
 20
146.3338508015638
 30
0.0
 11
269.9809579979677
 21
145.3163983951265
 31
0.0
  0
LINE
  5
283F
330
D
100
AcDbEntity
 67
     1
  8
AM_VIS
100
AcDbLine
 10
268.9811103028113
 20
169.3912772954401
 30
0.0
 11
269.9809579979677
 21
170.4087297018773
 31
0.0
  0
LINE
  5
2840
330
D
100
AcDbEntity
 67
     1
  8
AM_VIS
100
AcDbLine
 10
295.9811103028113
 20
138.6069780122004
 30
0.0
 11
295.9811103028113
 21
135.1159180012582
 31
0.0
  0
LINE
  5
2841
330
D
100
AcDbEntity
 67
     1
  8
AM_VIS
100
AcDbLine
 10
295.9811103028113
 20
161.3536240594444
 30
0.0
 11
295.9811103028113
 21
154.3715040375594
 31
0.0
  0
LINE
  5
2842
330
D
100
AcDbEntity
 67
     1
  8
AM_VIS
100
AcDbLine
 10
295.9811103028113
 20
180.6092100957458
 30
0.0
 11
295.9811103028113
 21
177.1181500848033
 31
0.0
  0
LINE
  5
2843
330
D
100
AcDbEntity
 67
     1
  8
AM_VIS
100
AcDbLine
 10
287.9811103028113
 20
145.9908539779181
 30
0.0
 11
287.9811103028113
 21
142.7973030420212
 31
0.0
  0
LINE
  5
2844
330
D
100
AcDbEntity
 67
     1
  8
AM_VIS
100
AcDbLine
 10
295.9811103028113
 20
142.7973030420212
 30
0.0
 11
295.9811103028113
 21
145.990853977918
 31
0.0
  0
LINE
  5
2845
330
D
100
AcDbEntity
 67
     1
  8
AM_VIS
100
AcDbLine
 10
287.9811103028113
 20
172.9278250549827
 30
0.0
 11
287.9811103028113
 21
169.7342741190857
 31
0.0
  0
LINE
  5
2846
330
D
100
AcDbEntity
 67
     1
  8
AM_VIS
100
AcDbLine
 10
295.9811103028113
 20
169.7342741190858
 30
0.0
 11
295.9811103028113
 21
172.9278250549826
 31
0.0
  0
LINE
  5
2847
330
D
100
AcDbEntity
 67
     1
  8
AM_VIS
100
AcDbLine
 10
287.9811103028113
 20
130.9255929714374
 30
0.0
 11
287.9811103028113
 21
130.8625640485019
 31
0.0
  0
LINE
  5
2848
330
D
100
AcDbEntity
 67
     1
  8
AM_VIS
100
AcDbLine
 10
295.9811103028113
 20
130.8625640485019
 30
0.0
 11
295.9811103028113
 21
130.9255929714374
 31
0.0
  0
LINE
  5
2849
330
D
100
AcDbEntity
 67
     1
  8
AM_VIS
100
AcDbLine
 10
287.9811103028113
 20
184.8625640485019
 30
0.0
 11
287.9811103028113
 21
184.7995351255665
 31
0.0
  0
LINE
  5
284A
330
D
100
AcDbEntity
 67
     1
  8
AM_VIS
100
AcDbLine
 10
295.9811103028113
 20
184.7995351255665
 30
0.0
 11
295.9811103028113
 21
184.8625640485019
 31
0.0
  0
LINE
  5
284B
330
D
100
AcDbEntity
 67
     1
  8
AM_4
100
AcDbLine
 10
269.9809579979677
 20
170.4087297018773
 30
0.0
 11
269.9809579979677
 21
145.3163983951265
 31
0.0
  0
LINE
  5
284C
330
D
100
AcDbEntity
 67
     1
  8
AM_VIS
100
AcDbLine
 10
268.9811103028113
 20
146.3338508015638
 30
0.0
 11
268.9811103028113
 21
169.39127729544
 31
0.0
  0
ARC
  5
284D
330
D
100
AcDbEntity
 67
     1
  8
AM_VIS
100
AcDbCircle
 10
343.9841844027197
 20
157.366662301593
 30
0.0
 40
40.0
100
AcDbArc
 50
324.6158809478658
 51
338.0058622655284
  0
ARC
  5
284E
330
D
100
AcDbEntity
 67
     1
  8
AM_VIS
100
AcDbCircle
 10
343.9841844027197
 20
158.3584657954108
 30
0.0
 40
40.0
100
AcDbArc
 50
21.99413773447161
 51
35.38411905213413
  0
ARC
  5
284F
330
D
100
AcDbEntity
 67
     1
  8
AM_VIS
100
AcDbCircle
 10
374.9651408125583
 20
135.3625640485019
 30
0.0
 40
2.0
100
AcDbArc
 50
270.0
 51
324.6158809478658
  0
ARC
  5
2850
330
D
100
AcDbEntity
 67
     1
  8
AM_VIS
100
AcDbCircle
 10
374.9651408125583
 20
180.3625640485019
 30
0.0
 40
2.0
100
AcDbArc
 50
35.38411905213413
 51
90.0
  0
LINE
  5
2851
330
D
100
AcDbEntity
 67
     1
  8
AM_VIS
100
AcDbLine
 10
381.9715797504808
 20
156.6125640485019
 30
0.0
 11
383.9531383696548
 21
156.6125640485019
 31
0.0
  0
LINE
  5
2852
330
D
100
AcDbEntity
 67
     1
  8
AM_VIS
100
AcDbLine
 10
381.9715797504809
 20
159.1125640485019
 30
0.0
 11
383.9531383696548
 21
159.1125640485019
 31
0.0
  0
LINE
  5
2853
330
D
100
AcDbEntity
 67
     1
  8
AM_VIS
100
AcDbLine
 10
381.9715797504808
 20
159.1125640485019
 30
0.0
 11
381.9715797504808
 21
156.6125640485019
 31
0.0
  0
ARC
  5
2854
330
D
100
AcDbEntity
 67
     1
  8
AM_VIS
100
AcDbCircle
 10
341.5983947035966
 20
157.8625640485019
 30
0.0
 40
42.37318504688413
100
AcDbArc
 50
1.690458625599906
 51
21.36529196244003
  0
DIMENSION
  5
2855
330
D
100
AcDbEntity
 67
     1
  8
AM_5
100
AcDbDimension
  2
*D60
 10
240.8257556792907
 20
118.9255919714374
 30
0.0
 11
216.5757556792907
 21
121.6755919714374
 31
0.0
 70
    32
 71
     5
 42
48.5
  3
AM_ISO$0
100
AcDbAlignedDimension
 13
192.3257556792907
 23
145.9908539779182
 33
0.0
 14
240.8257556792907
 24
145.9908539779181
 34
0.0
100
AcDbRotatedDimension
1001
ACAD
1000
DSTYLE
1002
{
1070
    40
1040
1.0
1070
   144
1040
1.0
1070
    47
1040
0.0
1070
    48
1040
0.3
1070
   271
1070
     1
1002
}
  0
DIMENSION
  5
2856
330
D
100
AcDbEntity
 67
     1
  8
AM_5
100
AcDbDimension
  2
*D61
 10
182.1695531618016
 20
130.9255929714374
 30
0.0
 11
179.2445531618015
 21
157.862564048502
 31
0.0
 70
    32
  1
(<>)
 71
     5
 42
53.87394215412905
  3
AM_ISO$0
100
AcDbAlignedDimension
 13
214.7319581867798
 23
184.7995351255665
 33
0.0
 14
214.7319581867798
 24
130.9255929714374
 34
0.0
 50
90.00000000000003
100
AcDbRotatedDimension
1001
ACAD
1000
DSTYLE
1002
{
1070
    47
1040
0.0
1070
    48
1040
0.3
1070
   271
1070
     0
1002
}
  0
DIMENSION
  5
2881
330
D
100
AcDbEntity
 67
     1
  8
AM_5
100
AcDbDimension
  2
*D62
 10
400.3224423104079
 20
133.3625640485019
 30
0.0
 11
397.5724423104079
 21
157.862564048502
 31
0.0
 70
    32
  1
%%c<>
 71
     5
 42
49.0
  3
AM_ISO$0
100
AcDbAlignedDimension
 13
374.9651408125583
 23
182.3625640485019
 33
0.0
 14
374.9651408125583
 24
133.3625640485019
 34
0.0
 50
90.0
100
AcDbRotatedDimension
1001
ACAD
1000
DSTYLE
1002
{
1070
    40
1040
1.0
1070
   144
1040
1.0
1070
    47
1040
0.0
1070
    48
1040
0.3
1070
   271
1070
     1
1002
}
  0
DIMENSION
  5
2882
330
D
100
AcDbEntity
 67
     1
  8
AM_5
100
AcDbDimension
  2
*D63
 10
374.9651408125587
 20
180.3625640485021
 30
0.0
 11
385.4744356428047
 21
186.6327675108848
 31
0.0
 70
   164
  1
R0.5
 71
     5
 42
2.000000000000113
  3
AM_ISO$4
100
AcDbRadialDimension
 15
376.2956360331765
 25
181.8558096639028
 35
0.0
 40
0.0
1001
ACAD
1000
DSTYLE
1002
{
1070
    40
1040
1.0
1070
   144
1040
1.0
1070
    47
1040
0.0
1070
    48
1040
0.3
1070
   271
1070
     1
1002
}
  0
DIMENSION
  5
2883
330
D
100
AcDbEntity
 67
     1
  8
AM_5
100
AcDbDimension
  2
*D64
 10
287.9811103028113
 20
125.6379764029364
 30
0.0
 11
278.4811103028113
 21
128.3879764029364
 31
0.0
 70
    32
 71
     5
 42
19.0
  3
AM_ISO$0
100
AcDbAlignedDimension
 13
268.9811103028113
 23
142.8625640485019
 33
0.0
 14
287.9811103028113
 24
130.9255929714374
 34
0.0
100
AcDbRotatedDimension
1001
ACAD
1000
DSTYLE
1002
{
1070
    47
1040
0.0
1070
    48
1040
0.3
1070
   174
1070
     1
1070
   271
1070
     1
1002
}
  0
DIMENSION
  5
2884
330
D
100
AcDbEntity
 67
     1
  8
AM_5
100
AcDbDimension
  2
*D65
 10
295.9811103028113
 20
125.6379764029364
 30
0.0
 11
291.9811103028113
 21
128.3879764029364
 31
0.0
 70
    32
 71
     5
 42
8.0
  3
AM_ISO$0
100
AcDbAlignedDimension
 13
287.9811103028113
 23
130.9255929714374
 33
0.0
 14
295.9811103028113
 24
130.9255929714374
 34
0.0
100
AcDbRotatedDimension
1001
ACAD
1000
DSTYLE
1002
{
1070
   174
1070
     1
1070
    40
1040
1.0
1070
   144
1040
1.0
1070
    47
1040
0.0
1070
    48
1040
0.3
1070
   271
1070
     1
1002
}
  0
DIMENSION
  5
2885
330
D
100
AcDbEntity
 67
     1
  8
AM_5
100
AcDbDimension
  2
*D66
 10
383.9715797504808
 20
118.1379764029366
 30
0.0
 11
326.4763450266461
 21
120.8879764029366
 31
0.0
 70
    32
 71
     5
 42
114.9904694476695
  3
AM_ISO$0
100
AcDbAlignedDimension
 13
268.9811103028113
 23
142.8625640485019
 33
0.0
 14
383.9715797504808
 24
157.8625640485019
 34
0.0
100
AcDbRotatedDimension
1001
ACAD
1000
DSTYLE
1002
{
1070
    40
1040
1.0
1070
   144
1040
1.0
1070
    47
1040
0.0
1070
    48
1040
0.3
1070
   271
1070
     1
1002
}
  0
LINE
  5
29AB
330
D
100
AcDbEntity
 67
     1
  8
LOGO
 62
     4
100
AcDbLine
 10
143.7417005765396
 20
111.2793509381104
 30
0.0
 11
405.5739607218687
 21
111.2793509381104
 31
0.0
  0
LINE
  5
29AD
330
D
100
AcDbEntity
 67
     1
  8
AM_4
100
AcDbLine
 10
268.9811103028113
 20
169.3911249673961
 30
0.0
 11
286.9811103028112
 21
169.705316136104
 31
0.0
  0
LINE
  5
29AE
330
D
100
AcDbEntity
 67
     1
  8
AM_4
100
AcDbLine
 10
268.9811103028113
 20
146.3340031296077
 30
0.0
 11
286.9811103028112
 21
146.0198119608998
 31
0.0
  0
LINE
  5
29AF
330
D
100
AcDbEntity
 67
     1
  8
AM_4
100
AcDbLine
 10
286.9811103028112
 20
169.705316136104
 30
0.0
 11
287.9811103028113
 21
170.7229235290762
 31
0.0
  0
LINE
  5
29B0
330
D
100
AcDbEntity
 67
     1
  8
AM_4
100
AcDbLine
 10
286.9811103028112
 20
146.0198119608998
 30
0.0
 11
287.9811103028113
 21
145.0022045679277
 31
0.0
  0
LINE
  5
29B1
330
D
100
AcDbEntity
 67
     1
  8
AM_4
100
AcDbLine
 10
286.9636578963739
 20
169.7050115032165
 30
0.0
 11
286.963657896374
 21
146.0201165937873
 31
0.0
  0
LEADER
  5
29B2
330
D
100
AcDbEntity
 67
     1
  8
AM_5
100
AcDbLeader
  3
AM_ISO$7
 73
     0
 75
     1
 40
3.5
 41
12.25
 76
     3
 10
278.3265476042156
 20
170.5544025103186
 30
0.0
 10
274.0716584997408
 20
178.9469730179826
 30
0.0
 10
271.5716584997408
 20
178.9469730179826
 30
0.0
340
29B3
213
-1.883205065918559
223
0.4473028115166926
233
0.0
1001
ACAD
1000
DSTYLE
1002
{
1070
    47
1040
0.0
1070
    48
1040
0.3
1070
   271
1070
     1
1002
}
  0
MTEXT
  5
29B3
102
{ACAD_REACTORS
330
29B2
102
}
330
D
100
AcDbEntity
 67
     1
  8
AM_5
100
AcDbMText
 10
272.4548635656593
 20
179.4996702064659
 30
0.0
 40
3.5
 41
0.0
 71
     9
 72
     1
  1
PT3/4 
 73
     1
 44
1.0
1001
ACAD
1000
MTEXTBEGIN
1070
    73
1070
     1
1070
    44
1040
1.0
1070
    74
1070
     0
1000
MTEXTEND
  0
ENDSEC
  0
SECTION
  2
OBJECTS
  0
DICTIONARY
  5
8
330
0
100
AcDbDictionary
281
     1
  3
ACAD_COLOR
350
2D
  3
ACAD_GROUP
350
29
  3
ACAD_LAYOUT
350
C
  3
ACAD_MATERIAL
350
2C
  3
ACAD_MLINESTYLE
350
2A
  3
ACAD_PLOTSETTINGS
350
2B
  3
ACAD_PLOTSTYLENAME
350
7
  3
ACAD_TABLESTYLE
350
2E
  3
AcadDim
350
2589
  3
ACDBHEADERROUNDTRIPXREC
350
29ED
  3
AcDbVariableDictionary
350
B2C
  3
AcmDictionary
350
B99
  3
AMG
350
B42
  3
AMGSNAPSETTINGS
350
BD5
  3
DWGPROPS
350
29EC
  0
DICTIONARY
  5
17
330
16
100
AcDbDictionary
280
     1
281
     1
  3
ACAD_LAYERFILTERS
360
14EC
  3
ACAD_LAYERSTATES
360
18
  3
ACLYDICTIONARY
360
14EB
  0
DICTIONARY
  5
3
330
2
100
AcDbDictionary
280
     1
281
     1
  3
ACAD_INDEX
360
29B4
  0
DICTIONARY
  5
E
330
D
100
AcDbDictionary
280
     1
281
     1
  3
ACAD_SORTENTS
360
F
  0
DICTIONARY
  5
29F1
330
B40
100
AcDbDictionary
280
     1
281
     1
  3
ACAD_XREC_ROUNDTRIP
360
29F2
  0
DICTIONARY
  5
2D
102
{ACAD_REACTORS
330
8
102
}
330
8
100
AcDbDictionary
281
     1
  0
DICTIONARY
  5
29
102
{ACAD_REACTORS
330
8
102
}
330
8
100
AcDbDictionary
281
     1
  0
DICTIONARY
  5
C
102
{ACAD_REACTORS
330
8
102
}
330
8
100
AcDbDictionary
281
     1
  3
Model
350
B
  3
配置1
350
12
  0
DICTIONARY
  5
2C
102
{ACAD_REACTORS
330
8
102
}
330
8
100
AcDbDictionary
281
     1
  0
DICTIONARY
  5
2A
102
{ACAD_REACTORS
330
8
102
}
330
8
100
AcDbDictionary
281
     1
  3
STANDARD
350
2F
  0
DICTIONARY
  5
2B
102
{ACAD_REACTORS
330
8
102
}
330
8
100
AcDbDictionary
281
     1
  0
ACDBDICTIONARYWDFLT
  5
7
102
{ACAD_REACTORS
330
8
102
}
330
8
100
AcDbDictionary
281
     1
  3
Normal
350
6
100
AcDbDictionaryWithDefault
340
6
  0
DICTIONARY
  5
2E
102
{ACAD_REACTORS
330
8
102
}
330
8
100
AcDbDictionary
281
     1
  3
Standard
350
30
  0
XRECORD
  5
2589
102
{ACAD_REACTORS
330
8
102
}
330
8
100
AcDbXrecord
280
     1
 90
   990106
  3

 60
     0
 61
     0
 62
     4
 63
     4
 64
     1
 65
     0
 66
     0
 67
     3
 68
     0
 69
     0
 70
     0
 71
     0
 72
     0
 40
0.0
170
     2
340
22EB
  0
DICTIONARY
  5
29ED
102
{ACAD_REACTORS
330
8
102
}
330
8
100
AcDbDictionary
281
     1
  0
DICTIONARY
  5
B2C
102
{ACAD_REACTORS
330
8
102
}
330
8
100
AcDbDictionary
281
     1
  3
CTABLESTYLE
350
B2D
  3
DIMASSOC
350
B2F
  3
HIDETEXT
350
B2E
  3
INDEXCTL
350
FF7
  3
PROJECTNAME
350
B30
  0
DICTIONARY
  5
B99
102
{ACAD_REACTORS
330
8
102
}
330
8
100
AcDbDictionary
281
     1
  3
AcmStdDictionary
350
FD8
  3
AMDTSECTSYM_ARROWCOLOR
350
BC2
  0
DICTIONARY
  5
B42
102
{ACAD_REACTORS
330
8
102
}
330
8
100
AcDbDictionary
281
     1
  0
DICTIONARY
  5
BD5
102
{ACAD_REACTORS
330
8
102
}
330
8
100
AcDbDictionary
281
     1
  0
XRECORD
  5
29EC
102
{ACAD_REACTORS
330
8
102
}
330
8
100
AcDbXrecord
280
     1
  1
DWGPROPS COOKIE
  2

  3

  4

  6

  7

  8

  9

300
AmdtFileType=84
301
=
302
=
303
=
304
=
305
=
306
=
307
=
308
=
309
=
 40
0.360671724537037
 41
2454630.395427998
 42
2454690.579218762
  1

 90
        1
  0
DICTIONARY
  5
14EC
102
{ACAD_REACTORS
330
17
102
}
330
17
100
AcDbDictionary
281
     1
  0
DICTIONARY
  5
18
102
{ACAD_REACTORS
330
17
102
}
330
17
100
AcDbDictionary
281
     1
  0
DICTIONARY
  5
14EB
102
{ACAD_REACTORS
330
17
102
}
330
17
100
AcDbDictionary
281
     1
1001
ACAD
1000
<All
  0
DICTIONARY
  5
29B4
102
{ACAD_REACTORS
330
3
102
}
330
3
100
AcDbDictionary
281
     1
  3
*A1
350
29B5
  0
SORTENTSTABLE
  5
F
102
{ACAD_REACTORS
330
E
102
}
330
E
100
AcDbSortentsTable
330
D
331
2266
  5
226B
331
226E
  5
22B5
331
2839
  5
283A
331
2296
  5
22B6
331
2841
  5
2845
331
273B
  5
2763
331
280A
  5
280A
331
2849
  5
284D
331
29AD
  5
2841
331
2338
  5
238C
331
2812
  5
2812
331
108
  5
109
331
23C7
  5
23CB
331
24DD
  5
24E1
331
25F3
  5
25F5
331
110
  5
111
331
23CF
  5
23D3
331
2390
  5
2393
331
24E5
  5
24E7
331
25FB
  5
25FD
331
118
  5
119
331
D3
  5
D4
331
2398
  5
23A1
331
24ED
  5
24F3
331
120
  5
121
331
DB
  5
DC
331
E3
  5
E4
331
224F
  5
2250
331
22B6
  5
22B9
331
2851
  5
2855
331
225F
  5
2260
331
2763
  5
2764
331
2822
  5
2822
331
2704
  5
2705
331
282A
  5
282A
331
23A0
  5
23A3
331
2881
  5
2884
331
2832
  5
2832
331
2603
  5
2606
331
128
  5
129
331
23DF
  5
23E1
331
23A8
  5
23AB
331
2321
  5
2323
331
24F5
  5
24FB
331
130
  5
131
331
23B0
  5
23B3
331
2329
  5
232A
331
24FD
  5
24EF
331
260B
  5
260E
331
F9
  5
FA
331
138
  5
139
331
23B8
  5
23BB
331
2331
  5
2334
331
24AE
  5
24D8
331
2613
  5
2614
331
25C4
  5
25EE
331
C4
  5
C9
331
CC
  5
CD
331
2267
  5
226C
331
283A
  5
283B
331
2842
  5
2846
331
280B
  5
280B
331
284A
  5
284E
331
23C0
  5
23C4
331
2813
  5
2813
331
29AE
  5
283E
331
109
  5
10D
331
23C8
  5
23CC
331
24DE
  5
24E2
331
2515
  5
256E
331
262B
  5
2653
331
111
  5
112
331
B40
  5
D43
331
2427
  5
24AE
331
23D0
  5
23DA
331
2391
  5
2394
331
24E6
  5
24E8
331
25F4
  5
25F8
331
119
  5
11A
331
D4
  5
D5
331
2399
  5
23A2
331
24EE
  5
24F4
331
25FC
  5
25FE
331
DC
  5
DD
331
E4
  5
E5
331
2250
  5
2251
331
2852
  5
2856
331
2764
  5
2765
331
2823
  5
2823
331
2705
  5
2706
331
282B
  5
282B
331
23A1
  5
23A4
331
2882
  5
2885
331
2833
  5
2833
331
129
  5
12A
331
2653
  5
2654
331
23E0
  5
2400
331
23A9
  5
23AC
331
24F6
  5
24FC
331
2604
  5
2607
331
131
  5
132
331
1912
  5
1932
331
23B1
  5
23B4
331
232A
  5
232B
331
24FE
  5
24F2
331
260C
  5
260F
331
FA
  5
FB
331
139
  5
13A
331
1CC0
  5
1CC0
331
2400
  5
2453
331
23B9
  5
23BD
331
2332
  5
2335
331
2614
  5
2615
331
24D7
  5
24D9
331
CD
  5
CE
331
2260
  5
2261
331
2268
  5
226D
331
2725
  5
273B
331
283B
  5
283C
331
2843
  5
2847
331
280C
  5
280C
331
284B
  5
284F
331
23C1
  5
23C5
331
26E6
  5
2701
331
2814
  5
2814
331
267B
  5
2691
331
25ED
  5
25EF
331
238A
  5
238D
331
23C9
  5
23CD
331
1853
  5
1856
331
24E7
  5
24E9
331
23D1
  5
23DB
331
2392
  5
2395
331
112
  5
113
331
D5
  5
D6
331
24EF
  5
24F5
331
25FD
  5
25FF
331
11A
  5
11B
331
DD
  5
DE
331
122
  5
123
331
E5
  5
E6
331
2251
  5
2253
331
281C
  5
281C
331
2853
  5
2881
331
2259
  5
225A
331
2765
  5
2766
331
2824
  5
2824
331
2706
  5
2725
331
282C
  5
282C
331
2883
  5
29AB
331
26C7
  5
26E6
331
2834
  5
2834
331
23A2
  5
23A5
331
12A
  5
12B
331
2654
  5
2655
331
256E
  5
258B
331
24F7
  5
24FD
331
2605
  5
2608
331
EB
  5
EF
331
23E1
  5
2427
331
2323
  5
2324
331
23AA
  5
23AD
331
24FF
  5
252B
331
260D
  5
2610
331
232B
  5
232C
331
23B2
  5
23B5
331
132
  5
133
331
1CC1
  5
1CC1
331
2615
  5
262B
331
2333
  5
2336
331
23BA
  5
23BE
331
FB
  5
FF
331
13A
  5
13B
331
103
  5
107
331
CE
  5
CF
331
2066
  5
2066
331
2261
  5
2262
331
2269
  5
226E
331
283C
  5
283D
331
2844
  5
2848
331
280D
  5
280D
331
284C
  5
2850
331
24D8
  5
24DA
331
2815
  5
2815
331
23C2
  5
23C6
331
25EE
  5
25F0
331
23CA
  5
23CE
331
238B
  5
238E
331
24E8
  5
24EA
331
23D2
  5
23DC
331
2393
  5
2396
331
113
  5
114
331
D6
  5
D7
331
25FE
  5
2600
331
11B
  5
11C
331
DE
  5
DF
331
123
  5
124
331
E6
  5
E7
331
22B1
  5
2269
331
22B9
  5
22D3
331
281D
  5
281D
331
2854
  5
2836
331
225A
  5
225B
331
2825
  5
2825
331
2766
  5
23BC
331
282D
  5
282D
331
24F0
  5
24F6
331
23DA
  5
2330
331
2884
  5
29AC
331
2835
  5
2835
331
23A3
  5
23A6
331
2655
  5
2656
331
24F8
  5
24F1
331
2606
  5
2609
331
12B
  5
12C
331
23AB
  5
23AE
331
2324
  5
2325
331
133
  5
134
331
260E
  5
2067
331
23B3
  5
23B6
331
F4
  5
F5
331
232C
  5
232D
331
23BB
  5
23BF
331
13B
  5
13C
331
2334
  5
2337
331
CF
  5
D0
331
2067
  5
224F
331
2262
  5
2263
331
226A
  5
2296
331
283D
  5
2840
331
2845
  5
2849
331
280E
  5
280E
331
284D
  5
2851
331
24D9
  5
24DB
331
23C3
  5
23C7
331
24E1
  5
24E3
331
25EF
  5
25F1
331
23CB
  5
23CF
331
238C
  5
238F
331
24E9
  5
24EB
331
25F7
  5
25F9
331
23D3
  5
23DD
331
2394
  5
2397
331
114
  5
115
331
D7
  5
D8
331
25FF
  5
2601
331
11C
  5
11D
331
DF
  5
E0
331
124
  5
125
331
E7
  5
EB
331
22B2
  5
2266
331
2253
  5
2255
331
2691
  5
26C7
331
281E
  5
281E
331
2855
  5
2882
331
225B
  5
225C
331
2826
  5
2826
331
282E
  5
282E
331
24F1
  5
24F7
331
23DB
  5
2332
331
23A4
  5
23A7
331
231D
  5
231E
331
2836
  5
2837
331
2885
  5
29AD
331
2656
  5
267B
331
24F9
  5
24EE
331
2607
  5
260A
331
12C
  5
12D
331
23AC
  5
23AF
331
2325
  5
2326
331
134
  5
135
331
260F
  5
2612
331
23B4
  5
23B7
331
F5
  5
F6
331
232D
  5
232E
331
1C0B
  5
1C0B
331
23BC
  5
23C0
331
2335
  5
2338
331
2263
  5
2264
331
226B
  5
22B1
331
22EA
  5
22EB
331
283E
  5
2842
331
2846
  5
284A
331
280F
  5
280F
331
284E
  5
2852
331
24DA
  5
24DC
331
23C4
  5
23C8
331
24E2
  5
24E4
331
25F0
  5
25F2
331
23CC
  5
23D0
331
10D
  5
10E
331
238D
  5
2390
331
D0
  5
D1
331
24EA
  5
24EC
331
25F8
  5
25FA
331
2395
  5
2398
331
115
  5
116
331
D8
  5
D9
331
11D
  5
11E
331
E0
  5
E1
331
125
  5
126
331
225C
  5
225D
331
281F
  5
281F
331
2856
  5
2883
331
2701
  5
2702
331
2827
  5
2827
331
282F
  5
282F
331
24F2
  5
24F8
331
2600
  5
2602
331
2453
  5
24D7
331
23DC
  5
23DE
331
23A5
  5
23A8
331
231E
  5
231F
331
2837
  5
2838
331
24FA
  5
24FE
331
2608
  5
260B
331
12D
  5
12E
331
23AD
  5
23B0
331
2326
  5
2327
331
135
  5
138
331
2610
  5
2613
331
23B5
  5
23B8
331
F6
  5
F7
331
232E
  5
232F
331
23BD
  5
23C1
331
2336
  5
238A
331
C9
  5
CA
331
22D3
  5
22EA
331
2264
  5
2267
331
226C
  5
22B2
331
22EB
  5
231D
331
283F
  5
2843
331
2808
  5
2808
331
2847
  5
284B
331
29AB
  5
29AE
331
2810
  5
2810
331
284F
  5
2853
331
24DB
  5
24DD
331
23C5
  5
23C9
331
24E3
  5
24E5
331
25F1
  5
25F3
331
23CD
  5
23D1
331
10E
  5
10F
331
238E
  5
2391
331
24EB
  5
24ED
331
25F9
  5
25FB
331
2396
  5
2399
331
116
  5
117
331
D1
  5
D2
331
11E
  5
11F
331
D9
  5
DA
331
126
  5
127
331
E1
  5
E2
331
22B4
  5
22B7
331
2255
  5
2256
331
225D
  5
225E
331
2820
  5
2820
331
2702
  5
2703
331
2828
  5
2828
331
2830
  5
2830
331
24F3
  5
24F9
331
2601
  5
2603
331
23DD
  5
23DF
331
23A6
  5
23A9
331
231F
  5
2321
331
12E
  5
12F
331
24FB
  5
24FF
331
2609
  5
260C
331
EF
  5
F0
331
23AE
  5
23B1
331
2327
  5
2328
331
F7
  5
F8
331
23B6
  5
23B9
331
232F
  5
2331
331
258A
  5
25C2
331
25C2
  5
25C4
331
23BE
  5
23C2
331
FF
  5
103
331
2337
  5
238B
331
107
  5
108
331
CA
  5
CC
331
2265
  5
226A
331
226D
  5
22B4
331
2838
  5
2839
331
2840
  5
2844
331
2809
  5
2809
331
2848
  5
284C
331
2811
  5
2811
331
24DC
  5
24DE
331
23C6
  5
23CA
331
24E4
  5
24E6
331
25F2
  5
25F4
331
23CE
  5
23D2
331
10F
  5
110
331
238F
  5
2392
331
24EC
  5
24F0
331
252B
  5
258A
331
25FA
  5
25FC
331
2397
  5
23A0
331
117
  5
118
331
D2
  5
D3
331
11F
  5
120
331
DA
  5
DB
331
127
  5
128
331
E2
  5
E3
331
22B5
  5
22B8
331
2256
  5
2259
331
2850
  5
2854
331
225E
  5
225F
331
2821
  5
2821
331
2703
  5
2704
331
2829
  5
2829
331
2831
  5
2831
331
2602
  5
2605
331
23DE
  5
23E0
331
23A7
  5
23AA
331
24F4
  5
24FA
331
12F
  5
130
331
260A
  5
260D
331
F0
  5
F4
331
23AF
  5
23B2
331
2328
  5
2329
331
24FC
  5
2515
331
2612
  5
2604
331
F8
  5
F9
331
23B7
  5
23BA
331
2330
  5
2333
331
258B
  5
25C3
331
25C3
  5
25ED
331
23BF
  5
23C3
  0
XRECORD
  5
29F2
102
{ACAD_REACTORS
330
29F1
102
}
330
29F1
100
AcDbXrecord
280
     1
102
SHADEPLOT
 70
     0
  0
LAYOUT
  5
B
102
{ACAD_XDICTIONARY
360
29EE
102
}
102
{ACAD_REACTORS
330
C
102
}
330
C
100
AcDbPlotSettings
  1

  2
\\NOVIBDC\HPLJ4-TPUB
  4

  6

 40
0.0
 41
0.0
 42
0.0
 43
0.0
 44
0.0
 45
0.0
 46
0.0
 47
0.0
 48
0.0
 49
0.0
140
0.0
141
0.0
142
1.0
143
1.0
 70
  1712
 72
     0
 73
     0
 74
     0
  7

 75
     0
147
1.0
148
0.0
149
0.0
100
AcDbLayout
  1
Model
 70
     1
 71
     0
 10
0.0
 20
0.0
 11
12.0
 21
9.0
 12
0.0
 22
0.0
 32
0.0
 14
0.0
 24
0.0
 34
0.0
 15
0.0
 25
0.0
 35
0.0
146
0.0
 13
0.0
 23
0.0
 33
0.0
 16
1.0
 26
0.0
 36
0.0
 17
0.0
 27
1.0
 37
0.0
 76
     0
330
2
  0
LAYOUT
  5
12
102
{ACAD_XDICTIONARY
360
13
102
}
102
{ACAD_REACTORS
330
C
102
}
330
C
100
AcDbPlotSettings
  1

  2
\\RDS1\iR3300影印機
  4
A3
  6

 40
6.805083274841308
 41
5.365738868713378
 42
7.228424072265625
 43
5.027069091796875
 44
296.9259948730469
 45
419.9466552734374
 46
0.0
 47
0.0
 48
0.0
 49
0.0
140
0.0
141
0.0
142
1.0
143
1.0
 70
   688
 72
     1
 73
     1
 74
     5
  7

 75
    16
147
1.0
148
0.0
149
0.0
100
AcDbLayout
  1
配置1
 70
     1
 71
     1
 10
-5.027069091796875
 20
-6.805083274841308
 11
414.9195861816406
 21
290.1209115982056
 12
0.0
 22
0.0
 32
0.0
 14
14.81621615704415
 24
8.085238002611275
 34
0.0
 15
405.5739607218687
 25
270.0852380026113
 35
0.0
146
0.0
 13
0.0
 23
0.0
 33
0.0
 16
1.0
 26
0.0
 36
0.0
 17
0.0
 27
1.0
 37
0.0
 76
     0
330
D
331
B40
1001
ACAD_PSEXT
1000
\\RDS1\iR3300影印機
1000
Canon iR2200-3300 PCL5e
1000
\\RDS1
1000

1070
     0
  0
MLINESTYLE
  5
2F
102
{ACAD_REACTORS
330
2A
102
}
330
2A
100
AcDbMlineStyle
  2
STANDARD
 70
     0
  3

 62
     0
 51
90.0
 52
90.0
 71
     2
 49
0.5
 62
   256
  6
BYLAYER
 49
-0.5
 62
   256
  6
BYLAYER
  0
ACDBPLACEHOLDER
  5
6
102
{ACAD_REACTORS
330
7
102
}
330
7
  0
TABLESTYLE
  5
30
102
{ACAD_REACTORS
330
2E
102
}
330
2E
100
AcDbTableStyle
  3
Standard
 70
     0
 71
     0
 40
1.5
 41
1.5
280
     0
281
     0
  7
STANDARD
140
4.5
170
     2
 62
     0
 63
     7
283
     0
274
    -2
284
     1
 64
     0
275
    -2
285
     1
 65
     0
276
    -2
286
     1
 66
     0
277
    -2
287
     1
 67
     0
278
    -2
288
     1
 68
     0
279
    -2
289
     1
 69
     0
  7
STANDARD
140
6.0
170
     5
 62
     0
 63
     7
283
     0
274
    -2
284
     1
 64
     0
275
    -2
285
     1
 65
     0
276
    -2
286
     1
 66
     0
277
    -2
287
     1
 67
     0
278
    -2
288
     1
 68
     0
279
    -2
289
     1
 69
     0
  7
STANDARD
140
4.5
170
     5
 62
     0
 63
     7
283
     0
274
    -2
284
     1
 64
     0
275
    -2
285
     1
 65
     0
276
    -2
286
     1
 66
     0
277
    -2
287
     1
 67
     0
278
    -2
288
     1
 68
     0
279
    -2
289
     1
 69
     0
  0
DICTIONARYVAR
  5
B2D
102
{ACAD_REACTORS
330
B2C
102
}
330
B2C
100
DictionaryVariables
280
     0
  1
STANDARD
  0
DICTIONARYVAR
  5
B2F
102
{ACAD_REACTORS
330
B2C
102
}
330
B2C
100
DictionaryVariables
280
     0
  1
1
  0
DICTIONARYVAR
  5
B2E
102
{ACAD_REACTORS
330
B2C
102
}
330
B2C
100
DictionaryVariables
280
     0
  1
1
  0
DICTIONARYVAR
  5
FF7
102
{ACAD_REACTORS
330
B2C
102
}
330
B2C
100
DictionaryVariables
280
     0
  1
1
  0
DICTIONARYVAR
  5
B30
102
{ACAD_REACTORS
330
B2C
102
}
330
B2C
100
DictionaryVariables
280
     0
  1

  0
DICTIONARY
  5
FD8
102
{ACAD_REACTORS
330
B99
102
}
330
B99
100
AcDbDictionary
281
     1
  0
XRECORD
  5
BC2
102
{ACAD_REACTORS
330
B99
102
}
330
B99
100
AcDbXrecord
280
     1
 90
-1023410169
  0
LAYER_INDEX
  5
29B5
102
{ACAD_REACTORS
330
29B4
102
}
330
29B4
100
AcDbIndex
 40
2454690.579218762
100
AcDbLayerIndex
  8
0
360
29B6
 90
        0
  8
Defpoints
360
29B7
 90
        0
  8
AM_VIS
360
29B8
 90
        0
  8
AM_7
360
29B9
 90
        0
  8
AM_4
360
29BA
 90
        0
  8
LOGO
360
29BB
 90
        0
  8
AM_5
360
29BC
 90
        0
  8
AM_REFDIM
360
29BD
 90
        0
  0
DICTIONARY
  5
29EE
330
B
100
AcDbDictionary
280
     1
281
     1
  3
ACAD_XREC_ROUNDTRIP
360
29EF
  0
DICTIONARY
  5
13
330
12
100
AcDbDictionary
280
     1
281
     1
  3
ACAD_XREC_ROUNDTRIP
360
29F0
  3
ADSK_XREC_LAYOUTTHUMBNAIL
360
14
  0
IDBUFFER
  5
29B6
330
0
100
AcDbIdBuffer
  0
IDBUFFER
  5
29B7
330
0
100
AcDbIdBuffer
  0
IDBUFFER
  5
29B8
330
0
100
AcDbIdBuffer
  0
IDBUFFER
  5
29B9
330
0
100
AcDbIdBuffer
  0
IDBUFFER
  5
29BA
330
0
100
AcDbIdBuffer
  0
IDBUFFER
  5
29BB
330
0
100
AcDbIdBuffer
  0
IDBUFFER
  5
29BC
330
0
100
AcDbIdBuffer
  0
IDBUFFER
  5
29BD
330
0
100
AcDbIdBuffer
  0
XRECORD
  5
29EF
102
{ACAD_REACTORS
330
29EE
102
}
330
29EE
100
AcDbXrecord
280
     1
102
SHADEPLOT
 70
     0
102
SHADEPLOTRESLEVEL
 70
     2
102
SHADEPLOTCUSTOMDPI
 70
   300
  0
XRECORD
  5
29F0
102
{ACAD_REACTORS
330
13
102
}
330
13
100
AcDbXrecord
280
     1
102
SHADEPLOT
 70
     0
102
SHADEPLOTRESLEVEL
 70
     2
102
SHADEPLOTCUSTOMDPI
 70
   300
  0
XRECORD
  5
14
102
{ACAD_REACTORS
330
13
102
}
330
13
100
AcDbXrecord
280
     1
310
28000000B40000007F00000001000800000000004C590000000000000000000000010000000000000000000000000000FFFFFF000000000000000000000000000000000000000000000000000000000000000000330000006600000099000000CC000000FF00000000330000333300006633000099330000CC330000FF3300
310
0000660000336600006666000099660000CC660000FF66000000990000339900006699000099990000CC990000FF99000000CC000033CC000066CC000099CC0000CCCC0000FFCC000000FF000033FF000066FF000099FF0000CCFF0000FFFF000000003300330033006600330099003300CC003300FF003300003333003333
310
33006633330099333300CC333300FF33330000663300336633006666330099663300CC663300FF66330000993300339933006699330099993300CC993300FF99330000CC330033CC330066CC330099CC3300CCCC3300FFCC330000FF330033FF330066FF330099FF3300CCFF3300FFFF330000006600330066006600660099
310
006600CC006600FF00660000336600333366006633660099336600CC336600FF33660000666600336666006666660099666600CC666600FF66660000996600339966006699660099996600CC996600FF99660000CC660033CC660066CC660099CC6600CCCC6600FFCC660000FF660033FF660066FF660099FF6600CCFF6600
310
FFFF660000009900330099006600990099009900CC009900FF00990000339900333399006633990099339900CC339900FF33990000669900336699006666990099669900CC669900FF66990000999900339999006699990099999900CC999900FF99990000CC990033CC990066CC990099CC9900CCCC9900FFCC990000FF99
310
0033FF990066FF990099FF9900CCFF9900FFFF99000000CC003300CC006600CC009900CC00CC00CC00FF00CC000033CC003333CC006633CC009933CC00CC33CC00FF33CC000066CC003366CC006666CC009966CC00CC66CC00FF66CC000099CC003399CC006699CC009999CC00CC99CC00FF99CC0000CCCC0033CCCC0066CC
310
CC0099CCCC00CCCCCC00FFCCCC0000FFCC0033FFCC0066FFCC0099FFCC00CCFFCC00FFFFCC000000FF003300FF006600FF009900FF00CC00FF00FF00FF000033FF003333FF006633FF009933FF00CC33FF00FF33FF000066FF003366FF006666FF009966FF00CC66FF00FF66FF000099FF003399FF006699FF009999FF00CC
310
99FF00FF99FF0000CCFF0033CCFF0066CCFF0099CCFF00CCCCFF00FFCCFF0000FFFF0033FFFF0066FFFF0099FFFF00CCFFFF00FFFFFF00000000000D0D0D001A1A1A00282828003535350043434300505050005D5D5D006B6B6B00787878008686860093939300A1A1A100AEAEAE00BBBBBB00C9C9C900D6D6D600E4E4E400
310
F1F1F100FFFFFF0000000000000000000000000000000000000000000000000000000000000000000000000000000000F5F5F5F5F5F5F5F5F5F5F5F5F5F5F5F5F5F5F5F5F5F5F5F5F5F5F5F5F5F5F5F5F5F5F5F5F5F5F5F5F5F5F5F5F5F5F5F5F5F5F5F5F5F5F5F5F5F5F5F5F5F5F5F5F5F5F5F5F5F5F5F5F5F5F5F5F5F5F5
310
F5F5F5F5F5F5F5F5F5F5F5F5F5F5F5F5F5F5F5F5F5F5F5F5F5F5F5F5F5F5F5F5F5F5F5F5F5F5F5F5F5F5F5F5F5F5F5F5F5F5F5F5F5F5F5F5F5F5F5F5F5F5F5F5F5F5F5F5F5F5F5F5F5F5F5F5F5F5F5F5F5F5F5F5F5F5F5F5F5F5F5F5F5F5F5F5F5F5F5F5F5F5E2E2E2E2E2E2E2E2E2E2E2E2E2E2E2E2E2E2E2E2E2E2E2E2E2
310
E2E2E2E2E2E2E2E2E2E2E2E2E2E2E2E2E2E2E2E2E2E2E2E2E2E2E2E2E2E2E2E2E2E2E2E2E2E2E2E2E2E2E2E2E2E2E2E2E2E2E2E2E2E2E2E2E2E2E2E2E2E2E2E2E2E2E2E2E2E2E2E2E2E2E2E2E2E2E2E2E2E2E2E2E2E2E2E2E2E2E2E2E2E2E2E2E2E2E2E2E2E2E2E2E2E2E2E2E2E2E2E2E2E2E2E2E2E2E2E2E2E2E2E2E2E2E2
310
E2E2E2E2E2E2E2E2E2E2E2E2E2E2E2E2E2E2E2E2E2E2E2E2E2F5F5F5E2E2E2E2E2E2E2E2E2E2E2E2E2E2E2E2E2E2E2E2E2E2E2E2E2E2E2E2E2E2E2E2E2E2E2E2E2E2E2E2E2E2E2E2E2E2E2E2E2E2E2E2E2E2E2E2E2E2E2E2E2E2E2E2E2E2E2E2E2E2E2E2E2E2E2E2E2E2E2E2E2E2E2E2E2E2E2E2E2E2E2E2E2E2E2E2E2E2E2
310
E2E2E2E2E2E2E2E2E2E2E2E2E2E2E2E2E2E2E2E2E2E2E2E2E2E2E2E2E2E2E2E2E2E2E2E2E2E2E2E2E2E2E2E2E2E2E2E2E2E2E2E2E2E2E2E2E2E2E2E2E2E2E2E2E2E2E2E2E2E2E2E2E2E2E2E2E2E2F5F5F5E2E2F5F5F5F5F5F5F5F5E2E2E2E2E2E2E2E2E2F5F5F5F5F5F5F5F5F5F5F5F5F5F5F5F5E2E2E2E2E2E2E2E2E2F5F5
310
F5F5F5F5F5F5F5F5F5F5F5F5F5F5E2E2E2E2E2E2E2E2F5F5F5F5F5F5F5F5F5F5F5F5F5F5F5F5E2E2E2E2E2E2E2E2E2F5F5F5F5F5F5F5F5F5F5F5F5F5F5F5F5E2E2E2E2E2E2E2E2F5F5F5F5F5F5F5F5F5F5F5F5F5F5F5F5E2E2E2E2E2E2E2E2E2F5F5F5F5F5F5F5F5F5F5F5F5F5F5F5F5E2E2E2E2E2E2E2E2E2F5F5F5F5F5F5
310
F5F5E2E2F5F5F5E2E2F5E2E2E2E2E2E2E2E2E2E2E2E2E2E2E2E2E2E2E2E2E2E2E2E2E2E2E2E2E2E2E2E2E2E2E2E2E2E2E2E2E2E2E2E2E2E2E2E2E2E2E2E2E2E2E2E2E2E2E2E2E2E2E2E2E2E2E2E2E2E2E2E2E2E2E2E2E2E2E2E2E2E2E2E2E2E2E2E2E2E2E2E2E2E2E2E2E2E2E2E2E2E2E2E2E2E2E2E2E2E2E2E2E2E2E2E2E2
310
E2E2E2E2E2E2E2E2E2E2E2E2E2E2E2E2E2E2E2E2E2E2E2E2E2E2E2E2E2E2E2E2E2E2E2E2E2E2E2E2E2E2E2E2E2E2E2E2E2E2E2E2E2E2F5E2E2F5F5F5E2E2F5E2E2E2E2E2E2E2E2E2E2E2E2E2E2E2E2E2E2E2E2E2E2E2E2E2E2E2E2E2E2E2E2E2E2E2E2E2E2E2E2E2E2E2E2E2E2E2E2E2E2E2E2E2E2E2E2E2E2E2E2E2E2E2E2
310
E2E2E2E2E2E2E2E2E2E2E2E2E2E2E2E2E2E2E2E2E2E2E2E2E2E2E2E2E2E2E2E2E2E2E2E2E2E2E2E2E2E2E2E2E2E2E2E2E2E2E2E2E2E2E2E2E2E2E2E2E2E2E2E2E2E2E2E2E2E2E2E2E2E2E2E2E2E2E2E2E2E2E2E2E2E2E2E2E2E2E2E2E2E2E2E2E2E2E2E2E2E2E2E2E2E2E2F5E2E2F5F5F5E2E2F5E2E2E2E2E22D2D2D2D2D2D
310
2D2D2D2D2D2D2D2D2D2D2D2D2D2D2D2D2D2D2D2D2D2D2D2D2D2D2D2D2D2D2D2D2D2D2D2D2D2D2D2D2D2D2D2D2D2D2D2D2D2D2D2D2D2D2D2D2D2D2D2D2D2D2D2D2D2D2D2D2D2D2D2D2D2D2D2D2D2D2D2D2D2D2D2D2D2D2D2D2D2D2D2D2D2D2D2D2D2D2D2D2D2D2D2D2D2D2D2D2D2D2D2D2D2D2D2D2D2D2D2D2D2D2D2D2D2D2D
310
2D2D2D2D2D2D2D2D2D2D2D2D2D2D2D2D2D2D2D2D2D2D2D2D2D2D2D2D2D2D2D2D2DF5E2E2F5F5F5E2E2F5E2E2E2E2E22DF5F5F5F5F5F5F5F5F5F5F5F5F5F5F5F5F5F5F5F52DF5F5F5F5F52DE2E2E2E2E2E2E2E22D2D2D2D2DE2E2E22D2D2D2D2DE2E2E2E2E2E2E2E2E2E2E2E2E2E2E2E2E2E2E2E2E2E2E2E2E2E2E2E2E2E2E2
310
E2E2E2E2E2E2E2E2E2E2E2E2E2E2E2E2E2E2E2E2E2E2E2E2E2E2E2E2E2E2E2E2E2E2E2E2E2E2E2E2E2E2E2E2E2E2E2E2E2E2E2E2E2E2E2E2E2E2E2E2E2E2E2E2E2E2E2E2E2E2E2E2E2E2E2E2E2E2E2E2E2E2E2E2E22DF5E2E2F5F5F5E2E2F5E2E2E2E2E22DF5F5F5F5F5F5F5F5F5F5F5F5F5F5F5F5F5F5F5F52D2D2D2D2D2D
310
2DE2E2E2E2E2E2E2E22DF5F5F52DE2E2E22DF5F5F52DE2E2E2E2E2E2E2E2E2E2E2E2E2E2E2E2E2E2E2E2E2E2E2E2E2E2E2E2E2E2E2E2E2E2E2E2E2E2E2E2E2E2E2E2E2E2E2E2E2E2E2E2E2E2E2E2E2E2E2E2E2E2E2E2E2E2E2E2E2E2E2E2E2E2E2E2E2E2E2E2E2E2E2E2E2E2E2E2E2E2E2E2E2E2E2E2E2E2E2E2E2E2E2E2E2
310
E2E2E2E2E2E2E2E2E2E2E22DF5E2E2F5F5F5E2E2F5E2E2E2E2E22DE2E2F5F5F5F5F5F5F5F5F5F5F5F5F5F5F5F5E2E22DE2E2E2E2E2E2E2E2E2E2E2E2E2E2F5F5F5F52DE2E2E22DF5F5F52DE2E2E2E2E2E2E2E2E2E2E2E2E2E2E2E2E2E2E2E2E2E2E2E2E2E2E2E2E2E2E2E2E2E2E2E2E2E2E2E2E2E2E2E2E2E2E2E2E2E2E2E2
310
E2E2E2E2E2E2E2E2E2E2E2E2E2E2E2E2E2E2E2E2E2E2E2E2E2E2E2E2E2E2E2E2E2E2E2E2E2E2E2E2E2E2E2E2E2E2E2E2E2E2E2E2E2E2E2E2E2E2E2E2E2E2E2E22DF5E2E2F5F5F5E2E2F5E2E2E2E2E20F0F0F0F0F0F0F2D2D2D2D2D2D2D2D2D2D2D2D2D2D2DE2E2E2E2E2E2E2E2E2E2E2E2E2E2F5F5F5F52DE2E2E22DF5F5F5
310
2DE2E2E2E2E2E2E2E2E2E2E2E2E2E2E2E2E2E2E2E2E2E2E2E2E2E2E2E2E2E2E2E2E2E2E2E2E2E2E2E2E2E2E2E2E2E2E2E2E2E2E2E2E2E2E2E2E2E2E2E2E2E2E2E2E2E2E2E2E2E2E2E2E2E2E2E2E2E2E2E2E2E2E2E2E2E2E2E2E2E2E2E2E2E2E2E2E2E2E2E2E2E2E2E2E2E2E2E2E2E2E2E2E2E2E2E22DF5E2E2F5F5F5E2E2E2
310
E2E2E2E2E22D0F0F0F0F0F0F2DF5F5E2F5F5F5F52DE2F5F5F5E22DE2E2E2E2E2E2E2E2E2F5E2E2E2E22D2D2D2D2DE2E2E22D2D2D2D2DE2E2E2E2E2E2E2E2E2E2E2E2E2E2E2E2E2E2E2E2E2E2E2E2E2E2E2E2E2E2E2E2E2E2E2E2E2E2E2E2E2E2E2E2E2E2E2E2E2E2E2E2E2E2E2E2E2E2E2E2E2E2E2E2E2E2E2E2E2E2E2E2E2
310
E2E2E2E2E2E2E2E2E2E2E2E2E2E2E2E2E2E2E2E2E2E2E2E2E2E2E2E2E2E2E2E2E2E2E2E2E2E2E2E2E2E2E22DE2E2E2F5F5F5E2E2E2E2E2E2E2E22DDC0FDCDC0FDC2DF5F52DF5F5F52D2DF52D2D2D2D2DF5F5F5F5E2F5F5F5F5F5F5F52D2D2D2D2D2D2D2D2D2DE22D2D2D2D2D2DE2E2E2E2E2E2E2E2E2E2E2E2E2E2E2E2E2E2
310
E2E2E2E2E2E2E2E2E2E2E2E2E2E2E2E2E2E2E2E2E2E2E2E2E2E2E2E2E2E2E2E2E2E2E2E2E2E2E2E2E2E2E2E2E2E2E2E2E2E2E2E2E2E2E2E2E2E2E2E2E2E2E2E2E2E2E2E2E2E2E2E2E2E2E2E2E2E2E2E2E2E2E2E2E2E2E2E2E2E2E2E2E2E2E2E22DE2E2E2F5F5F5E2E2E2E2E2E2E2E22DE2DCDCDCDCDC2DF5F5E2F5F5F5F52D
310
F5F5F5F5F52DF5F5F5F5F5F5F5F5F5F5F5F52DF5F5F5F5F5F5F5E22DE22DF5F5E2E22DE2E2E2E2E2E2E2E2E2E2E2E2E2E2E2E2E2E2E2E2E2E2E2E2E2E2E2E2E2E2E2E2E2E2E2E2E2E2E2E2E2E2E2E2E2E2E2E2E2E2E2E2E2E2E2E2E2E2E2E2E2E2E2E2E2E2E2E2E2E2E2E2E2E2E2E2E2E2E2E2E2E2E2E2E2E2E2E2E2E2E2E2
310
E2E2E2E2E2E2E2E2E2E2E2E2E2E2E2E2E2E2E2E2E2E22DE2E2E2F5F5F5E2E2E2E2E2E2E2E22DE2DCDC0FDCDC2DF5F52DF5F52D2D2DF5F5F5F5F52DF5F5F5F5F5F5F5F5F5F5E2E22DF5F5F5F5F5E2F5E2F5F52DF5F5F5E22DE2E2E2E2E2E2E2E2E2E2E2E2E2E2E2E2E2E2E2E2E2E2E2E2E2E2E2E2E2E2E2E2E2E2E2E2E2E2E2
310
E2E2E2E2E2E2E2E2E2E2E2E2E2E2E2E2E2E2E2E2E2E2E2E2E2E2E2E2E2E2E2E2E2E2E2E2E2E2E2E2E2E2E2E2E2E2E2E2E2E2E2E2E2E2E2E2E2E2E2E2E2E2E2E2E2E2E2E2E2E2E2E2E2E2E22DE2E2E2F5F5F5E2E2E2E2E2E2E2E22DE2E2DCDCDCDC2DF5F5F5F5F5F5F52DF5E2F5F5F52DF5F5F5F5F5F5F5F5F5F5E2E22DF5F5
310
F5F5F5F5F52D2DE22D2DF5F52D2DE2E2E2E2E2E2E2E2E2E2E2E2E2E2E2E2E2E2E2E2E2E2E2E2E2E2E2E2E2E2E2E2E2E2E2E2E2E2E2E2E2E2E2E2E2E2E2E2E2E2E2E2E2E2E2E2E2E2E2E2E2E2E2E2E2E2E2E2E2E2E2E2E2E2E2E2E2E2E2E2E2E2E2E2E2E2E2E2E2E2E2E2E2E2E2E2E2E2E2E2E2E2E2E2E2E2E2E2E2E2E2E2E2
310
E22DE2E2E2F5F5F5E2E2E2E2E2E2E2E22D2D2DDCDC0FDC2DF5F5F5F52DF52D2DF52D2D2DF52D2D2D2DF5F5F52DF52D2D2D2D2D2D2D2D2D2D2D2D2D2D2D2D2D2D2D2D2D2D2D2D2D2D2D2D2D2D2D2D2D2D2D2D2D2D2D2D2D2D2D2D2D2D2D2D2D2D2D2D2D2D2D2D2D2D2D2D2D2D2D2D2D2D2D2D2D2D2D2D2D2D2D2D2D2D2D2D2D
310
2D2D2D2D2D2D2D2D2D2D2D2D2D2D2D2D2D2D2D2D2D2D2D2D2D2D2D2D2D2D2D2D2D2D2D2D2D2D2D2D2D2D2D2D2D2D2D2D2D2D2D2D2D2D2DE2E2E2F5F5F5E2E2E2E2E2E2E2E22DE2E2E2E2E2E2E2E2E2E2E2E2E2E2E2E2E2E2E2E2E2E2E2E2E2E2E2E2E2E2E2E2E2E2E2E2E2E2E2E2E2E2E2E2E2E2E2E2E2E2E2E2E22DE2E2E2
310
E2E2E2E2E2E2E2E2E2E2E2E2E2E2E2E2E2E2E2E2E2E2E2E2E2E2E2E2E2E2E2E2E2E2E2E2E2E2E2E2E2E2E2E2E2E20FE2E2E2E2E2E2E2E2E2E2E2E2E2E2E2E2E2E2E2E2E2E2E2E2E2E2E2E2E2E2E2E2E2E2E2E2E2E2E2E2E2E2E2E2E2E2E2E20FE2E2E2E2E2E2E2E2E2E2E22DE2E2E2F5F5F5E2E2E2E2E2E2E2E22DE2E2E2E2
310
E2E2E2E2E2E2E2E2E2E2E2E2E2E2E2E2E2E2E2E2E2E2E2E2E2E2E2E2E2E2E2E2E2E2E2E2E2E2E2E2E2E2E2E2E2E2E2E2E22DE2E2E2E2E2E2E2E2E2E2E2E2E2E2E2E2E2E2E2E20F0F0F0F0F0F0F0F0F0F0F0F0F0F0F0F0F0F0F0F0F0FE2E2E2E2E2E2E20F0F0F0F0F0F0F0F0F0F0F0F0F0F0F0F0F0F0F0F0F0F0F0F0F0F0F0F
310
0F0F0F0F0F0F0F0F0F0F0F0F0F0F0F0F0F0F0F0F0F0FE2E2E2E2E2E2E2E2E2E2E22DE2E2E2F5F5F5E2E2E2E2E2E2E2E22DE2E2E2E2E2E2E2E2E2E2E2E2E2E2E2E2E2E2E2E2E2E2E2E2E2E2E2E2E2E2E2E2E2E2E2E2E2E2E2E2E2E2E2E2E2E2E2E2E2E2E2E2E22DE2E2E2E2E2E2E2E2E2E2E2E2E2E2E2E2E2E2E2E20FE2E2E2
310
E2E2E2E2E20F0F0F0FE2E2E2E2E2E2E2E20FE2E2E2E2E2E2E20FE2E2E2E2E2E2E2E2E2E2E2E2E2E2E2E2E2E2E2E2E2E2E20F0F0FE2E2E2E2E2E2E2E2E2E2E2E2E2E2E2E2E2E2E2E2E2E20FE2E2E2E2E2E2E2E2E2E2E22DE2E2E2F5F5F5E2E2F5E2E2E2E2E22DE2E2E2E2E2E2E2E2E2E2E2E2E2E2E2E2E2E2E2E2E2E2E2E2E2
310
E2E2E2E2E2E2E2E2E2E2E2E2E2E2E2E2E2E2E2E2E2E2E2E2E2E2E2E22DE2E2E2E2E2E2E2E2E2E2E2E2E2E2E2E2E2E2E2E20FE2E2E2E2E2E2E2E20F0F0F0FE2E2E2E2E2E2E2E20FE2E2E2E2E2E2E20FE2E2E2E2E2E2E2E2E2E2E2E2E2E2E2E2E2E2E2E2E2E2E20F0F0FE2E2E2E2E2E2E2E2E2E2E2E2E2E2E2E2E2E2E2E2E2E2
310
0FE2E2E2E2E2E2E2E2E2E2E22DF5E2E2F5F5F5E2E2F5E2E2E2E2E22DE2E2E2E2E2E2E2E2E2E2E2E2E2E2E2E2E2E2E2E2E2E2E2E2E2E2E2E2E2E2E2E2E2E2E2E2E2E2E2E2E2E2E2E2E2E2E2E2E2E2E2E2E22DE2E2E2E2E2E2E2E2E2E2E2E2E2E2E2E2E2E2E2E20FE2E2E2E2E2E2E2E2E2E2E2E2E2E2E2E2E2E2E2E20FE2E2E2
310
E2E2E2E20F0F0F0F0F0F0F0F0F0F0F0F0FE2E2E2E2E2E2E2E2E2E2E2E2E2E2E2E2E2E2E2E2E2E2E2E2E2E2E2E2E2E2E2E2E2E2E2E20FE2E2E2E2E2E2E2E2E2E2E22DF5E2E2F5F5F5E2E2F5E2E2E2E2E22DE2E2E2E2E2E2E2E2E2E2E2E2E2E2E2E2E2E2E2E2E2E2E2E2E2E2E2E2E2E2E2E2E2E2E2E2E2E2E2E2E2E2E2E2E2E2
310
E2E2E2E2E2E2E22DE2E2E2E2E2E2E2E2E2E2E2E2E2E2E2E2E2E2E2E20FE2E2E2E2E2E2E2E2E2E2BEE2E2E2E2E2E2E2E2E20FE2E2E2E2E2E2E20FE2E2E20F0FE2E20FE20FE20FE2E2E2E2E2E2E2E2E2E2E2E2E2E2E2E2E2E2E2E2E2E2E2E2E2E2E2E2E2E2E2E2E2E2E2E20FE2E2E2E2E2E2E2E2E2E2E22DF5E2E2F5F5F5E2E2
310
F5E2E2E2E2E22DE2E2E2E2E2E2E2E2E2E2E2E2E2E2E2E2E2E2E2E2E2E2E2E2E2E2E2E2E2E2E2E2E2E2E2E2E2E2E2E2E2E2E2E2E2E2E2E2E2E2E2E2E22DE2E2E2E2E2E2E2E2E2E2E2E2E2E2E2E20F0F0F0F0F0F0F0F0F0F0F0F0F0F0FF5E2E2E2E2E2E2E2E2E20FE2E2E2E2E2E2E20FE2E2E20F0FE2E20FF50FF50FE2E2E2E2
310
E2E2E2E2E2E2E2E2E2E2E2E2E2E2E2E2E2E2E2E2E2E2E2E2E2E2E2E2E2E2E2E20FE2E2E2E2E2E2E2E2E2E2E22DF5E2E2F5F5F5E2E2F5E2E2E2E2E22DE2E2E2E2E2E2E2E2E2E2E2E2E2E2E2E2E2E2E2E2E2E2E2E2E2E2E2E2E2E2E2E2E2E2E2E2E2E2E2E2E2E2E2E2E2E2E2E2E2E2E2E2E22DE2E2E2E2E2E2E2E2E2E2E2E2E2
310
E2E2E20FE2E2E20FE2E2E2E2E2E2E2F5F5E2BEF5F5E2E2E2E2E2E2E20FE2E2E2E2E2E2E20FE2E2E2E2E2E2E2F5E2E2E2F5F5F5F5F5F5F5F5F5F5F5F5F5F5F5F5F5F5F5F5F5F5F5F5F5F5F5F5F5F5F5F5F50F0F0F0F0F0F0F0F0F0F0F0FE2E2E2E22DF5E2E2F5F5F5E2E2F5E2E2E2E2E22DE2E2E2E2E2E2E2E2E2E2E2E2E2E2
310
E2E2E2E2E2E2E2E2E2E2E2E2E2E2E2E2E2E2E2E2E2E2E2E2E2E2E2E2E2E2E2E2E2E2E2E2E2E2E22DE2E2E2E2E2E2E2E2E2E2E2E2E2E2E2E20FE2E2E20FE2E2E2E2E2F5F5E2E2E2BEE2E2F5F5E2E2E2E2E20FE2E2E2E2E2E2E20FE2E2E2E2E2E2E2F5E2E2E2F5E2E2E2E2E2E2E2E2E2E2E2E2E2E2E2E2E2E2E2E2E2E2E2E2E2
310
E2E2E2E2E2E2E2E2F5E2E20FE2E2E2E2E2E20FE2E2E2E22DF5E2E2F5F5F5E2E2F5E2E2E2E2E22DE2E2E2E2E2E2E2E2E2E2E2E2E2E2E2E2E2E2E2E2E2E2E2E2E2E2E2E2E2E2E2E2E2E2E2E2E2E2E2E2E2E2E2E2E2E2E2E2E2E2E2E2E22DE2E2E2E2E2E2E2E2E2E2E2E2E2E2E2E20FE2E2E20FE2E2E2F5F5E2E2E2E2E2BEE2E2
310
E2E2F5F5E2E2E20FE2E2E2E2E2E2E20FE2E2E2E2E2E2E2F5E2E2E2F5E2E2E2E2E2E2E2E2E2E2E2E2E2E2E2E2E2E2E2E2E2E2E2E2E2E2E2E2E2E2E2E2E2E2F5E20FE2E2E2E2E2E20FE2E2E2E22DF5E2E2F5F5F5E2E2F5E2E2E2E2E22DE2E2E2E2E2E2E2E2E2E2E2E2E2E2E2E2E2E2E2E2E2E2E2E2E2E2E2E2E2E2E2E2E2E2E2
310
E2E2E2E2E2E2E2E2E2E2E2E2E2E2E2E2E2E22DE2E2E2E2E2E2E2E2E2E2E2E2E2E2E2E20FE2E2E20FE2F5F5E2E2E2E2E2E2E2BEE2E2E2E2E2E2F5F5E20FE2E2E2E2E2E2E20FE2E2E2E2E2E2E2F5E2E2E2F5E2E2E2E2E2E2E2E2E2E2E2E2E2E2E2E2E2E2E2E2E2E2E2E2E2E2E2E2E2E2E2E2E2E2F5E20FE2E2E2E2E2E20FE2E2
310
E2E22DF5E2E2F5F5F5E2E2F5E2E2E2E2E22DE2E2E2E2E2E2E2E2E2E2E2E2E2E2E2E2E2E2E2E2E2E2E2E2E2E2E2E2E2E2E2E2E2E2E2E2E2E2E2E2E2E2E2E2E2E2E2E2E2E2E2E2E22DE2E2E2E2E2E2E2E2E2E2E2E2E2E2E2E20FE2E2E20FF5E2E2E2E2E2E2F5F5F5F5F5F5E2E2E2E2E2E2F50FE2E2E2E2E2E2E20F28F5F5F5F5
310
F5F528F5F5F5F5E2E2E2E2E2E2E2E2E2E2E2E2E2E2E2E2E2E2E2E2E2E2E2E2E2E2E2E2E2E2E2E2E2E2E2F50FE2E2E2E2E2E20FE2E2E2E22DF5E2E2F5F5F5E2E2F5E2E2E2E2E22DE2E2E2E2E2E2E2E2E2E2E2E2E2E2E2E2E2E2E2E2E2E2E2E2E2E2E2E2E2E2E2E2E2E2E2E2E2E2E2E2E2E2E2E2E2E2E2E2E2E2E2E2E22DE2E2
310
E2E2E2E2E2E2E2E2E2E2E2E2E2E20FE2E2E20FF5E2E2E2E2F5F5F5F52828F5F5F5F5E2E2E2E2F50FE2E2E2E2E2E2E2F52828282828282828E2E2E2F5E2E2E2E2E2E2E2E2E2E2E2E2E2E2E2E2E2E2E2E2E2E2E2E2E2E2E2E2E2E2E2E2E2E2E2F50FE2E2E2E2E2E20FE2E2E2E22DF5E2E2F5F5F5E2E2F5E2E2E2E2E22DE2E2E2
310
E2E2E2E2E2E2E2E2E2E2E2E2E2E2E2E2E2E2E2E2E2E2E2E2E2E2E2E2E2E2E2E2E2E2E2E2E2E2E2E2E2E2E2E2E2E2E2E2E2E22DE2E2E2E2E2E2E2E2E2E2E2E2E2E2E2E20FE2E2E20FE2E2E2E2F5F5E2E2E2F5F5E2E228F5F5E2E2E2E20FE2E2E2E2E2E2E2F528E2E2E2E2E2E228F5F5F5F5E2E2E2E2E2E2E2E2E2E2E2E2E2E2
310
E2E2E2E2E2E2E2E2E2E2E2E2E2E2E2E2E2E2E2E2E2F50FE2E2E2E2E2E20FE2E2E2E22DF5E2E2F5F5F5E2E2F5E2E2E2E2E22DE2E2E2E2E2E2E2E2E2E2E2E2E2E2E2E2E2E2E2E2E2E2E2E2E2E2E2E2E2E2E2E2E2E2E2E2E2E2E2E2E2E2E2E2E2E2E2E2E2E2E2E2E22DE2E2E2E2E2E2E2E2E2E2E2E2E2E2E2E20FE2E2E2F5E2E2
310
E2E2F5E2E2F5F5E2BEF5F5E228F5E2E2E2E2F5E2E2E2E2E2E2E2F528E2E2E2E2E2E228E2E2E2F5E2E2E2E2E2E2E2E2E2E2E2E2E2E2E2E2E2E2E2E2E2E2E2E2E2E2E2E2E2E2E2E2E2E2E2F50FE2E2E2E2E2E20FE2E2E2E22DF5E2E2F5F5F5E2E2F5E2E2E2E2E22DE2E2E2E2E2E2E2E2E2E2E2E2E2E2E2E2E2E2E2E2E2E2E2E2
310
E2E2E2E2E2E2E2E2E2E2E2E2E2E2E2E2E2E2E2E2E2E2E2E2E2E2E2E2E22DE2E2E2E2E2E2E2E2E2E2E2E2E2E2E2E20FE2E2E2F5E2E2E2F5F5E2F5E2E2E2BEE2E2F5E2F5F5E2E2E2F5E2E2E2E2E2E2E2F528E2E2E2E2E2E228E2E2E2F5E2E2E2E2E2E2E2E2E2E2E2E2E2E2E2E2E2E2E2E2E2E2E2E2E2E2E2E2E2E2E2E2E2E2E2
310
E20FE2E2E2E2E2E20FE2E2E2E22DF5E2E2F5F5F5E2E2F5E2E2E2E2E22DE2E2E2E2E2E2E2E2E2E2E2E2E2E2E2E2E2E2E2E2E2E2E2E2E2E2E2E2E2E2E2E2E2E2E2E2E2E2E2E2E2E2E2E2E2E2E2E2E2E2E2E2E22DE2E2E2E2E2E2E2E2E2E2E2E2E2E20F0F0FE2E2E2F5E2E2E2F5E2F5F5E2E2E2BEE2E2F5F528F5E2E2E2F5E2E2
310
E2E2E2E2E2F528E2E2E2E2E2E228E2E2E2F5E2E2E2E2E2E2E2E2E2E2E2E2E2E2E2E2E2E2E2E2E2E2E2E2E2E2E2E2E2E2E2E2E2E2E2E20FE2E2E2E20F0F0FE2E2E2E22DF5E2E2F5F5F5E2E2F5E2E2E2E2E22DE2E2E2E2E2E2E2E2E2E2E2E2E2E2E2E2E2E2E2E2E2E2E2E2E2E2E2E2E2E2E2E2E2E2E2E2E2E2E2E2E2E2E2E2E2
310
E2E2E2E2E2E2E2E22DE2E2E2E2E2E2E2E2E2E2E2E2E2E20F0F0FE2E2E2F5E2E2E2F528F5E2E2E2E2BEE2E2E2F528F5E2E2E2F5E2E2E2E2E2E2E2F528E2E2E2E2E2E228E2E2E2F5E2E2E2E2E2E2E2E2E2E2E2E2E2E2E2E2E2E2E2E2E2E2E2E2E2E2E2E2E2E2E2E2E2E2E2F5F5E2E2E2E20F0F0FE2E2E2E22DF5E2E2F5F5F5E2
310
E2E2E2E2E2E2E22DE2E2E2E2E2E2E2E2E2E2E2E2E2E2E2E2E2E2E2E2E2E2E2E2E2E2E2E2E2E2E2E2E2E2E2E2E2E2E2E2E2E2E2E2E2E2E2E2E2E2E2E2E22DE2E2E2E2E2E2E2E2E2E2E2E2E2E20F0F0FE2BEBEF5BEBEBEF528F5BEBEBEBEBEBEBEBEF528F5BEBEBEF5BEBEE2E2E2E2E2F528BEBEBEBEBEBE28BEBEBEF5BEBEBE
310
BEBEBEBEBEBEBEBEBEBEBEBEBEBEBEBEBEBEBEBEBEBEBEBEBEBEBEBEBEBEBEBEF5F5E2E2E2E20F0F0FE2E2E2E22DE2E2E2F5F5F5E2E2E2E2E2E2E2E22DE2E2E2E2E2E2E2E2E2E2E2E2E2E2E2E2E2E2E2E2E2E2E2E2E2E2E2E2E2E2E2E2E2E2E2E2E2E2E2E2E2E2E2E2E2E2E2E2E2E2E2E2E22DE2E2E2E2E2E2E2E2E2E2E2E2
310
E2E20F0F0FE2E2E2F5E2E2E2F528F5E2E2E2E2BEE2E2E2F528F5E2E2E2F5E2E2E2E2E2E2E2F528E2E2E2E2E2E228E2E2E2F5E2E2E2E2E2E2E2E2E2E2E2E2E2E2E2E2E2E2E2E2E2E2E2E2E2E2E2E2E2E2E2E2E2E2E2E2F5E2E2E2E20F0F0FE2E2E2E22DE2E2E2F5F5F5E2E2E2E2E2E2E2E22DE2E2E2E2E2E2E2E2E2E2E2E2E2
310
E2E2E2E2E2E2E2E2E2E2E2E2E2E2E2E2E2E2E2E2E2E2E2E2E2E2E2E2E2E2E2E2E2E2E2E2E2E2E2E22DE2E2E2E2E2E2E2E2E2E2E2E2E2E2E2E20FE2E2E2F5E2E2E2F5F5E2F5E2E2E2BEE2E2F5E2F5F5E2E2E2F5E2E2E2E2E2E2E2F528E2E2E2E2E2E228E2E2E2F5E2E2E2E2E2E2E2E2E2E2E2E2E2E2E2E2E2E2E2E2E2E2E2E2
310
E2E2E2E2E2E2E2E2E2E2E2E2F5E2E2E2E2E2E20FE2E2E2E22DE2E2E2F5F5F5E2E2E2E2E2E2E2E22DE2E2E2E2E2E2E2E2E2E2E2E2E2E2E2E2E2E2E2E2E2E2E2E2E2E2E2E2E2E2E2E2E2E2E2E2E2E2E2E2E2E2E2E2E2E2E2E2E2E2E2E2E22DE2E2E2E2E2E2E2E2E2E2E2E2E2E2E2E20FE2E2E2F5E2E2E2F5F528F5F5E2E2BEE2
310
F5F528F5F5E2E2E2F5E2E2E2E2E2E2E2F528E2E2E2E2E2E228E2E2E2F5E2E2E2E2E2E2E2E2E2E2E2E2E2E2E2E2E2E2E2E2E2E2E2E2E2E2E2E2E2E2E2E2E2E2E2E2F5E2E2E2E2E2E20FE2E2E2E22DE2E2E2F5F5F5E2E2E2E2E2E2E2E22DE2E2E2E2E2E2E2E2E2E2E2E2E2E2E2E2E2E2E2E2E2E2E2E2E2E2E2E2E2E2E2E2E2E2
310
E2E2E2E2E2E2E2E2E2E2E2E2E2E2E2E2E2E2E22DE2E2E2E2E2E2E2E2E2E2E2E2E2E2E2E20FE2E2E2F5E2E2E2E2F5F528E2F5F5F5F5E228F5F5E2E2E2E2F5E2E2E2E2E2E2E2F528E2E2E2E2E2E228E2E2E2F5E2E2E2E2E2E2E2E2E2E2E2E2E2E2E2E2E2E2E2E2E2E2E2E2E2E2E2E2E2E2E2E2E2E2E2F5E2E2E2E2E2E2E20FE2
310
E2E2E22DE2E2E2F5F5F5E2E2E2E2E2E2E2E22DE2E2E2E2E2E2E2E2E2E2E2E2E2E2E2E2E2E2E2E2E2E2E2E2E2E2E2E2E2E2E2E2E2E2E2E2E2E2E2E2E2E2E2E2E2E2E2E2E2E2E2E2E22DE2E2E2E2E2E2E2E2E2E2E2E2E2E2E2E20FE2E2E2F5F5E2E2E2E2F5F5F528E2BE28F5F5F5E2E2E2E2F5F5E2E2E2E2E2E2E2F528E2E2E2
310
E2E2E228F5F5F5F5E2E2E2E2E2E2E2E2E2E2E2E2E2E2E2E2E2E2E2E2E2E2E2E2E2E2E2E2E2E2E2E2E2E2E2F5E2E2E2E2E2E2E20FE2E2E2E22DE2E2E2F5F5F5E2E2E2E2E2E2E2E22DE2E2E2E2E2E2E2E2E2E2E2E2E2E2E2E2E2E2E2E2E2E2E2E2E2E2E2E2E2E2E2E2E2E2E2E2E2E2E2E2E2E2E2E2E2E2E2E2E2E2E2E2E22DE2
310
E2E2E2E2E2E2E2E2E2E2E2E2E2E2E20FE2E2E2E2F5E2E2E2E2E2E2F5F5F5F5F5F5E2E2E2E2E2E2F5E2E2E2E2E2E2E2E2F528F5F5F528282828F5F5F5F5E2E2E2E2E2E2E2E2E2E2E2E2E2E2E2E2E2E2E2E2E2E2E2E2E2E2E2E2E2E2E2E2E2E2E2F5E2E2E2E2E2E2E20FE2E2E2E22DE2E2E2F5F5F5E2E2E2E2E2E2E2E22DE2E2
310
E2E2E2E2E2E2E2E2E2E2E2E2E2E2E2E2E2E2E2E2E2E2E2E2E2E2E2E2E2E2E2E2E2E2E2E2E2E2E2E2E2E2E2E2E2E2E2E2E2E2E22DE2E2E2E2E2E2E2E2E2E2E2E2E2E2E2E20FE2E2E2E2E2F5F5E2E2E2E2E2E2E2BEE2E2E2E2E2E2F5F5E2E2E2E2E2E2E2E2E2E2E2E2E20F0FF5F528E2E2E2F5E2E2E2E2E2E2E2E2E2E2E2E2E2
310
E2E2E2E2E2E2E2E2E2E2E2E2E2E2E2E2E2E2E2E2E2F5E2E2E2E2E2E2E2E20FE2E2E2E22DE2E2E2F5F5F5E2E2E2E2E2E2E2E22DE2E2E2E2E2E2E2E2E2E2E2E2E2E2E2E2E2E2E2E2E2E2E2E2E2E2E2E2E2E2E2E2E2E2E2E2E2E2E2E2E2E2E2E2E2E2E2E2E2E2E2E2E22DE2E2E2E2E2E2E2E2E2E2E2E2E2E2E2E20FE2E2E2E2E2
310
E2E2F5F5E2E2E2E2E2BEE2E2E2E2F5F5E2E2E2E2E2E2E2E2E2E2E2E2E2E2E20FE2E2E2F5E2E2E2F5E2E2E2E2E2E2E2E2E2E2E2E2E2E2E2E2E2E2E2E2E2E2E2E2E2E2E2E2E2E2E2E2E2E2F5E2E2E2E2E2E2E2E20FE2E2E2E22DE2E2E2F5F5F5E2E2F5E2E2E2E2E22D2D2D2D2D2D2D2D2D2D2D2D2D2D2D2D2D2D2D2D2D2D2D2D
310
2D2D2D2D2D2D2D2D2D2D2D2D2D2D2D2D2D2D2D2D2D2D2D2D2D2D2D2D2D2D2DE2E2E2E2E2E2E2E2E2E2E2E2E2E2E2E20FE2E2E2E2E2E2E2E2E2F5F5E2E2E2BEE2E2F5F5E2E2E2E2E2E2E2E2E2E2E2E2E2E2E2E2E20FE2E2E2F5E2E2E2F5E2E2E2E2E2E2E2E2E2E2E2E2E2E2E2E2E2E2E2E2E2E2E2E2E2E2E2E2E2E2E2E20FE2
310
F5E2E2E2E2E2E2E2E20FE2E2E2E22DF5E2E2F5F5F5E2E2F5E2E2E2E2E22DE2E2E2E2E2E2E2E2E2E2E2E2E2E2E2E2E2E2E2E2E2E2E2E2E2E2E2E2E2E2E2E2E2E2E2E2E2E2E2E2E2E2E2E2E2E2E2E2E2E2E2E2E22DE2F5F5F5F5F5F5F5F5F5F5F5F5F5E2E20FE2E2E2E2E2E2E2E2E2E2E2F5F5E2BEF5F5E2E2E2E2E2E2E2E2E2
310
E2E2E2E2E20F0F0F0F0FE2E2E2E2F5E2E2E2F5F5F5F5F5F5F5F5F5F5F5F5F5F5F5F5F5F5F5F5F5F5F5F5F5F5F5F5F5F5F5F5F50F0F0F0F0F0F0F0F0F0F0F0FE2E2E2E22DF5E2E2F5F5F5E2E2F5E2E2E2E2E22DE2E2E2E2E2E2E2E2E2E2E2E2E2E2E2E2E2E2E2E2E2E2E2E2E2E2E2E2E2E2E2E2E2E2E2E2E2E2E2E2E2E2E2E2
310
E2E2E2E2E2E2E2E2E22DE2F5E2F5F5F5F5F5E2E2F5F5F5E2E2E20F0F0F0F0F0F0F0F0F0F0F0F0F0F0FF5E2E2E2E2E2E2E2E2E2E2E2E2E2E2E2E2E20F0F0FE2E2E2E2E2F5F5F5F5F5E2E2E2E2E2E2E2E2E2E2E2E2E2E2E2E2E2E2E2E2E2E2E2E2E2E2E2E2E2E2E2E2E20F0FE2E2E2E2E2E2E2E2E2E2E2E2E22DF5E2E2F5F5F5
310
E2E2F5E2E2E2E2E22DE2E2E2E2E2E2E2E2E2E2E2E2E2E2E2E2E2E2E2E2E2E2E2E2E2E2E2E2E2E2E2E2E2E2E2E2E2E2E2E2E2E2E2E2E2E2E2E2E2E2E2E2E22DE2E2E2E2E2E2E2E2E2E2E2E2E2E2E2E2E2E2E2E2E2E2E2E2E2E2E2E2E2E2E2BEE2E2E2E2E2E2E2E2E2E2E2E2E2E2E2E2E20F0F0FE2E2E2E2E2E2E2E2E2E2E2E2
310
E2E2E2E2E2E2E2E2E2E2E2E2E2E2E2E2E2E2E2E2E2E2E2E2E2E2E2E2E2E2E2E20F0F0F0F0FE2E2E2E2E2E2E2E2E22DF5E2E2F5F5F5E2E2F5E2E2E2E2E22DE2E2E2E2E2E2E2E2E2E2E2E2E2E2E2E2E2E2E2E2E2E2E2E2E2E2E2E2E2E2E2E2E2E2E2E2E2E2E2E2E2E2E2E2E2E2E2E2E2E2E2E2E22DE2E2E2E2E2E2E2E2E2E2E2
310
E2E2E2E2E2E2E2E2E2E2E2E2E2E2E2E2E2E2E2E2E2E2E2E2E2E2E2E2E2E2E2E2E2E2E2E2E2E2E2E2E2E2E2E2E2E2E2E2E2E2E2E2E2E2E2E2E2E2E2E2E2E2E2E2E2E2E2E2E2E2E2E2E2E2E2E2E2E2E2E2E2E2E2E2E2E20F0F0F0FE2E2E2E2E2E2E2E2E22DF5E2E2F5F5F5E2E2F5E2E2E2E2E22DE2E2E2E2E2E2E2E2E2E2E2E2
310
E2E2E2E2E2E2E2E2E2E2E2E2E2E2E2E2E2E2E2E2E2E2E2E2E2E2E2E2E2E2E2E2E2E2E2E2E2E2E2E2E22DE2E2E2E2E2E2E2E2E2E2E2E2E2E2E2E2E2E2E2E2E2E2E2E2E2E2E2E2E2E2E2E2E2E2E2E2E2E2E2E2E2E2E2E2E2E2E2E2E2E2E2E2E2E2E2E2E2E2E2E2E2E2E2E2E2E2E2E2E2E2E2E2E2E2E2E2E2E2E2E2E2E2E2E2E2
310
E2E2E2E2E2E2E2E2E2E2E2E20F0F0F0FE2E2E2E2E2E2E2E2E22DF5E2E2F5F5F5E2E2F5E2E2E2E2E22DE2E2E2E2E2E2E2E2E2E2E2E2E2E2E2E2E2E2E2E2E2E2E2E2E2E2E2E2E2E2E2E2E2E2E2E2E2E2E2E2E2E2E2E2E2E2E2E2E2E2E2E2E22D2D2D2D2D2D2D2D2D2D2D2D2D2D2D2D2D2D2D2D2D2D2D2D2D2D2D2D2D2D2D2D2D
310
2D2D2D2D2D2D2D2D2D2D2D2D2D2D2D2D2D2D2D2D2D2D2D2D2D2D2D2D2D2D2D2D2D2D2D2D2D2D2D2D2D2D2D2D2D2D2D2D2D2D2D2D2D2D2D2D2D2D2D2D2D2D2D2D2D2D2D2D2D2D2D2D2D2D2D2D2D2D2DF5E2E2F5F5F5E2E2F5E2E2E2E2E22DE2E2E2E2E2E2E2E2E2E2E2E2E2E2E2E2E2E2E2E2E2E2E20FE2E2E2E2E2E2E2E2E2
310
E2E2E2E2E2E2E2E2E2E2E2E2E2E20FE2E2E2E2E22DE2E2E2E2E2E2E2E2E2E2E2E2E2E2E2E2E2E2E2E2E2E2E2E2E2E2E2E2E2E2E2E2E2E2E2E2E2E2E2E2E2E2E2E2E2E2E2E2E2E2E2E2E2E2E2E2E2E2E2E2E2E2E2E2E2E2E2E2E2E2E2E2E2E2E2E2E2E2E2E2E2E2E2E2E2E2E2E2E2E2E2E2E2E2E2E2E2E2E2E2E2E2E2E2E2E2
310
E2E2E2E22DF5E2E2F5F5F5E2E2F5E2E2E2E2E22DE2E2E2E2E2E2E2E2E2E2E2E2E2E2E2E2E2E2E2E2E2E2E20F0F0F0F0F0F0F0F0F0F0F0F0F0F0F0F0F0F0F0F0F0F0F0F0FE2E2E2E2E22DE2E2E2E2E2E2E2E2E2E2E2E2E2E2E2E2E2E2E2E2E2E2E2E2E2E2E2E2E2E2E2E2E2E2E2E2E2E2E2E2E2E2E2E2E2E2E2E2E2E2E2E2E2
310
E2E2E2E2E2E2E2E2E2E2E2E2E2E2E2E2E2E2E2E2E2E2E2E2E2E2E2E2E2E2E2E2E2E2E2E2E2E2E2E2E2E2E2E2E2E2E2E2E2E2E2E2E2E2E2E2E22DF5E2E2F5F5F5E2E2F5E2E2E2E2E22DE2E2E2E2E2E2E2E2E2E2E2E2E2E2E2E2E2E2E2E2E2E2E20FE2E2E2E2E2E2E2E2E2E20F0FE2E2E2E2E2E2E2E2E2E2E20FE2E2E2E2E22D
310
E2E2E2E2E2E2E2E2E2E2E2E2E2E2E2E2E2E2E2E20F0F0F0F0F0F0F0F0F0F0F0F0F0F0F0F0F0F0F0F0FE2E2E2E2E2E2E2E2E2E2E20F0F0F0F0F0F0F0F0F0F0F0F0F0F0F0F0F0F0F0F0F0F0F0F0F0F0F0F0F0F0F0F0F0F0F0F0F0F0F0F0F0F0F0F0F0F0F0F0F0FE2E2E2E2E2E2E2E22DF5E2E2F5F5F5E2E2F5E2E2E2E2E22DE2
310
E2E2E2E2E2E2E2E2E2E2E2E2E2E2E2E2E2E2E2E2E2E20FE2E2E2E2E2E2E2E2E2E20F0FE2E2E2E2E2E2E2E2E2E2E20FE2E2E2E2E22DE2E2E2E2E2E2E2E2E2E2E2E2E2E2E2E2E2E2E2E20F0FE2E2E2E2E2E20F0F0F0FE2E2E2E2E2E2E20F0FE2E2E2E2E2E2E2E2E2E2E20FE2E2E2E2E2E2E2E2E2E2E2E2E2E2E2E2E2E2E2E2E2
310
E20F0F0FE2E2E2E2E2E2E2E2E2E2E2E2E2E2E2E2E2E2E2E2E2E2E20FE2E2E2E2E2E2E2E22DF5E2E2F5F5F5E2E2F5E2E2E2E2E22DE2E2E2E2E2E2E2E2E2E2E2E2E2E2E2E2E2E2E2E2E2E2E20F0F0F0F0FE2E2E2E2E2E2E2E2E2E2E2E2E2E2E2E2E2E2E20FE2E2E2E2E22DE2E2E2E2E2E2E2E2E2E2E2E2E2E2E2E2E2E2E2E20F
310
E2E2E2E2E2E2E2E20F0F0FE2E2E2E2E2E2E2E20FE2E2E2E2E2E2E2E2E2E2E20FE2E2E2E2E2E2E2E2E2E2E2E2E2E2E2E2E2E2E2E2E2E20F0F0FE2E2E2E2E2E2E2E2E2E2E2E2E2E2E2E2E2E2E2E2E2E2E20FE2E2E2E2E2E2E2E22DF5E2E2F5F5F5E2E2F5E2E2E2E2E22DE2E2E2E2E2E2E2E2E2E2E2E2E2E2E2E2E2E2E2E2E2E2
310
E20F0F0F0F0FE2E2E2E2E2E2E2E2E2E2E2E2E2E2E2E2E2E2E20FE2E2E2E2E22DE2E2E2E2E2E2E2E2E2E2E2E2E2E2E2E2E2E2E2E20FE2E2E2E2E2E2E2E2E2E2E2E2E2E2E2E2E2E2E20FE2E2E2E2E2E2E2E2E2E2E20F0F0F0F0F0F0F0F0F0F0F0FE2E2E2E2E2E2E2E2E2E2E2E2E2E2E2E2E2E2E2E2E2E2E2E2E2E2E2E2E2E2E2
310
E2E2E2E2E2E20FE2E2E2E2E2E2E2E22DF5E2E2F5F5F5E2E2F5E2E2E2E2E22DE2E2E2E2E2E2E2E2E2E2E2E2E2E2E2E2E2E2E2E2E2E2E20F0F0F0F0FE2E2E2E2E2E2E2E2E2E2E2E2E2E2E2E2E2E2E20FE2E2E2E2E22DE2E2E2E2E2E2E2E2E2E2E2E2E2E2E2E2E2E2E2E20FE2E2E2E2E2E2E2E2E2BEE2E2E2E2E2E2E2E2E20FE2
310
E2E2E2E2E2E2E2E2E2E20FE2E2E20F0FE2E20F0F0F0FE2E2E2E2E2E2E2E2E2E2E2E2E2E2E2E2E2E2E2E2E2E2E2E2E2E2E2E2E2E2E2E2E2E2E2E2E20FE2E2E2E2E2E2E2E22DF5E2E2F5F5F5E2E2F5E2E2E2E2E22DE2E2E2E2E2E2E2E2BEE2E2E2E2E2E2E2E2E2E2E2E2E2E20FE2E2E20FE2E2E2E2E2E2E2E2E2E2E2E2E2E2E2
310
E2E2E2E20FE2E2E2E2E22DE2E2E2E2E2E2E2E2E2E2E2E2E2E2E20F0F0F0F0F0F0F0F0F0F0F0F0F0F0FF5F5E2E2E2E2E2E2E2E20FE2E2E2E2E2E2E2E2E2E2E20FE2E20F0F0FE2E20F0F0F0FE2E2E2E2E2E2E2E2E2E2E2E2E2E2E2E2E2E2E2E2E2E2E2E2E2E2E2E2E2E2E2E2E2E2E2E2E20FE2E2E2E2E2E2E2E22DF5E2E2F5F5
310
F5E2E2E2E2E2E2E2E22DE2E2E2E2E2E2F5F5F5F5F5E2E2E2E2E2E2E2E2E2E2E2E20FE2E2E20FF5F5F5F5F5F5F5F5F5F5F5F5F5F5F5F5F50F0F0F0F0F0F0FE22DE2E2E2E2E2E2E2E2E2E2E2E2E2E2E20F0FE2E2E20FE2E2E2E2E2E2F5F5E2BEE2F5F5E2E2E2E2E2E20FE2E2E2E2E2E2E2E2E2E2E20FE2E2E2E2E2E2E2F5E2E2
310
F5F5F5F5F5F5F5F5F5F5F5F5F5F5F5F5F5F5F5F5F5F5F5F5F5F5F5F5F5F5F5F5F5F50F0F0F0F0F0F0F0F0F0F0F0FE22DE2E2E2F5F5F5E2E2E2E2E2E2E2E22DE2E2E2E2E2F5F5F5F5F5F5F5F5E2E2E2E2E2E2E2E2E2E20F28282828E2E2E2E2E2E2E2E2E2E2E2E2E2E2E2E2E2E2F50FE2E20F0FE22DE2E2E2E2E2E2E2E2E2E2
310
E2E2E2E2E20F0FE2E2E20FE2E2E2E2F5F5E2E2E2BEE2E2E2F5F5E2E2E2E20FE2E2E2E2E2E2E2E2E2E2E20FE2E2E2E2E2E2E2F5E2E2F5E2E2E2E2E2E2E2E2E2E2E2E2E2E2E2E2E2E2E2E2E2E2E2E2E2E2E2E2E2E2E2E2E2F5E2E2E20FE2E2E2E2E20F0FE22DE2E2E2F5F5F5E2E2E2E2E2E2E2E22DE2E2E2E2F5F5F5E22828E2
310
F5F5E2E2E2E2E2E2E2E2E2E2F5E2E2E228E2E2E2E2E2E2E2E2E2E2E2E2E2E2E2E2E2E2F50FE2E20FE2E22DE2E2E2E2E2E2E2E2E2E2E2E2E2E2E20FE2E2E2E20FE2E2F5F5E2E2E2E2E2BEE2E2E2E2E2F5E2E2E20FE2E2E2E2E2E2E2E2E2E2E20FE2E2E2E2E2E2E2F5E2E2F5E2E2E2E2E2E2E2E2E2E2E2E2E2E2E2E2E2E2E2E2
310
E2E2E2E2E2E2E2E2E2E2E2E2E2E2F5E2E20FE2E2E2E2E20F0FE22DE2E2E2F5F5F5E2E2E2E2E2E2E2E22DE2E2E2E2F5F5E2F5F5F5F5F5F5F5E2E2E2E2E2E2E2E2E2F5E2E2E228E2E2E2E2E2E2E2E2E2E2E2E2E2E2E2E2E2E2E20FE20F0FE2E22DE2E2E2E2E2E2E2E2E2E2E2E2E2E2E20FE2E2E2E20FF5F5E2E2E2E2E2E2E2BE
310
E2E2E2E2E2E2F5F5E20FE2E2E2E2E2E2E2E2E2E2E20FE2E2E2E2E2E2E2F5E2E2F5E2E2E2E2E2E2E2E2E2E2E2E2E2E2E2E2E2E2E2E2E2E2E2E2E2E2E2E2E2E2E2E2E2E2E2F5E20FE2E2E2E2E20FE2E22DE2E2E2F5F5F5E2E2E2E2E2E2E2E22DE2E2E2F5F5F5F5E2BEE2F5F5F5F5F5E2E2E2E2E2E2E2E2F5E2E2E228E2E2E2E2
310
E2E2E2E2E2E2E2E2E2E2E2E2E2E2E20FE20F0FE2E22DE2E2E2E2E2E2E2E2E2E2E2E2E2E2E20FE2E2E2E20FE2E2E2E2E2E2E2E2E2BEE2E2E2E2E2E2E2E2F50FE2E2E2E2E2E2E2E2E2E2E20FE2E2E2E2E2E2E2F5F5F5F5E2E2E2E2E2E2E2E2E2E2E2E2E2E2E2E2E2E2E2E2E2E2E2E2E2E2E2E2E2E2E2E2E2E2E2F5E20FE2E2E2
310
E2E20FE2E22DE2E2E2F5F5F5E2E2E2E2E2E2E2E22DE2E2BEF5F528F5BEBEBEBEF5F5F5F5BEE2E2E2E2E2E2BEF5BEBEBE28BEBEBEBEBEBEBEBEBEBEBEBEBEBEBEBEBEBEF50FE20F0FE2E22DE2E2E2E2E2E2E2E2E2E2E2E2E2E2E20FE2E2E2E20FE2E2E2E2E2E2E2E2F5F5F528E2E2E2E2E2E2E20FE2E2E2E2E2E2E2E2E2E2E2
310
0FE2E2E2E2F5F5F528E2E2F5E2E2E2E2E2E2E2E2E2E2E2E2E2E2E2E2E2E2E2E2E2E2E2E2E2E2E2E2E2E2E2E2E2E2E2E2F50FE2E2E2E2E20FE2E22DE2E2E2F5F5F5E2E2E2E2E2E2E2E22DE2E2E2F5F5F5F5E2BEE2E2F5F5F5F5E2E2E2E2E2E2E2E2F5E2E2E228E2E2E2E2E2E2E2E2E2E2E2E2E2E2E2E2E2E2F5F5E20F0FE2E2
310
2DE2E2E2E2E2E2E2E2E2E2E2E2E2E2E20FE2E2E2E20FE2E2E2E2E2E2F5F5F5F5F5F5F528E2E2E2E2E20FE2E2E2E2E2E2E2E2E2E2E2F52828282828282828F5F5F5E2E2E2E2E2E2E2E2E2E2E2E2E2E2E2E2E2E2E2E2E2E2E2E2E2E2E2E2E2E2E2E2E2E2E2E2F50FE2E2E2E2E20FE2E22DE2E2E2F5F5F5E2E2E2E2E2E2E2E22D
310
E2E2E2F5F5F5F5F5BEE2F528F5F5E2E2E2E2E2E2E2E2E2F5E2E2E228E2E2E2E2E2E2E2E2E2E2E2E2E2E2E2E2E2E2E2F5E20F0FE2E22DE2E2E2E2E2E2E2E2E2E2E2E2E2E2E20FE2E2E2E2F5E2E2E2E2E2F5F5F5F5F5F5F5F5F528E2E2E2E2F5E2E2E2E2E2E2E2E2E2E2E2F5E2E2E2E2E2E2E228E2E2F5E2E2E2E2E2E2E2E2E2
310
E2E2E2E2E2E2E2E2E2E2E2E2E2E2E2E2E2E2E2E2E2E2E2E2E2E2E2F50FE2E2E2E2E20FE2E22DE2E2E2F5F5F5E2E2E2E2E2E2E2E22DE2E2E2E2F5F5F528F5F528F5F5F5E2E2E2E2E2E2E2E2E2F5E2E2E228E2E2E2E2E2E2E2E2E2E2E2E2E2E2E2E2E2E2F5F5E2E20FE2E22DE2E2E2E2E2E2E2E2E2E2E2E2E2E2E20FE2E2E2E2
310
F5E2E2E2E2F5F5F5E2E2BEE2E2F5F5F5E2E2E2E2F5E2E2E2E2E2E2E2E2E2E2E2F5E2E2E2E2E2E2E228E2E2F5E2E2E2E2E2E2E2E2E2E2E2E2E2E2E2E2E2E2E2E2E2E2E2E2E2E2E2E2E2E2E2E2E2E2E2E2F50FE2E2E2E2E20FE2E22DE2E2E2F5F5F5E2E2F5E2E2E2E2E22DE2E2E2E2E2F5F5F5F5F5F5F5F5E2E2E2E2E2E2E2E2
310
E2E228280F2828E2E2E2E2E2E2E2E2E2E2E2E2E2E2E2E2E2E2F5E2E2E20F0FE22DE2E2E2E2E2E2E2E2E2E2E2E2E2E20F0FE2E2E2E2F5E2E2E2E2F5F5E2E2E2BEE2E2E2F5F528E2E2E2F5E2E2E2E2E2E2E2E2E2E2E2F5E2E2E2E2E2E2E228E2E2F5E2E2E2E2E2E2E2E2E2E2E2E2E2E2E2E2E2E2E2E2E2E2E2E2E2E2E2E2E2E2
310
E2E2E2E2E2E2F50FE2E2E2E20F0FE2E22DF5E2E2F5F5F5E2E2F5E2E2E2E2E22DE2E2E2E2E2E2F5F5F5F5F5F5E2E2E2E2E2E2E2E2E2E2E2E20F0FF528F5F5F5F5F5F5F5F5F5F5F5F5F5F5F5F5F50F0F0F0F0F0F0FE22DE2E2E2E2E2E2E2E2E2E2E2E2E20F0F0FE2E2E2E2F5E2E2E228F5F5E2E2E2BEE2E2E2F5F528E2E2E2F5
310
E2E2E2E2E2E2E2E2E2E2E2F5E2E2E2E2E2E2E228E2E2F5E2E2E2E2E2E2E2E2E2E2E2E2E2E2E2E2E2E2E2E2E2E2E2E2E2E2E2E2E2E2E2E2E2E2E2E2F50FE2E2E2E20F0FE2E22DF5E2E2F5F5F5E2E2F5E2E2E2E2E22DE2E2E2E2E2E2E2E2BEE2E2E2E2E2E2E2E2E2E2E2E2E2E2E20F0FE2E2E2E2E2E2E2E2E2E2E2E2E2E2E2E2
310
E2E2E2E20FE2E2E2E2E2E22DE2E2E2E2E2E2E2E2E2E2E2E2E20F0F0FE2BEBEBEF5BEBEBEF5F5F5BEBEBEBEBEBEBEF5F528BEBEBEF5BEBEBEE2E2E2E2E2E2E2BEF5BEBEBEBEBEBEBE28BEBEF5BEBEBEBEBEBEBEBEBEBEBEBEBEBEBEBEBEBEBEBEBEBEBEBEBEBEBEBEBEBEBEBEBEBEBEBEF50FBEE2E2E20F0FE2E22DF5E2E2F5
310
F5F5E2E2F5E2E2E2E2E22DE2E2E2E2E2E2E2E2BEE2E2E2E2E2E2E2E2E2E2E2E2E2E20FE2E2E2E2E2E2E2E2E2E2E2E2E2E2E2E2E2E2E2E2E2E20F0F0F0F0FE2E22DE2E2E2E2E2E2E2E2E2E2E2E2E20F0F0FE2E2E2E2F5E2E2E228F5F5E2E2E2BEE2E2E2F5F528E2E2E2F5E2E2E2E2E2E2E2E2E2E2E2F5E2E2E2E2E2E2E228E2
310
E2F5E2E2E2E2E2E2E2E2E2E2E2E2E2E2E2E2E2E2E2E2E2E2E2E2E2E2E2E2E2E2E2E2E2E2E2E2E2F5E2E2E2E20F0FE2E22DF5E2E2F5F5F5E2E2F5E2E2E2E2E22DE2E2E2E2E2E2E2E2E2E2E2E2E2E2E2E2E20F0F0F0F0F0F0FE2E2E2E2E2E2E2E2E2E2E2E2E2E2E2E2E2E2E2E2E2E2E20F0F0F0FE2E22DE2E2E2E2E2E2E2E2E2
310
E2E2E2E2E2E20FE2E2E2E2F5E2E2E228F5F5E2E2E2BEE2E2E2F5F528E2E2E2F5E2E2E2E2E2E2E2E2E2E2E2F5E2E2E2E2E2E2E228E2E2F5E2E2E2E2E2E2E2E2E2E2E2E2E2E2E2E2E2E2E2E2E2E2E2E2E2E2E2E2E2E2E2E2E2E2E2E2F5E2E2E2E2E2E20FE2E22DF5E2E2F5F5F5E2E2F5E2E2E2E2E22DE2E2E2E2E2E2E2E2E2E2
310
E2E2E2E2E2E2E2E20F0F0F0F0FE2E2E2E2E2E2E2E2E2E2E2E2E2E2E2E2E2E2E2E2E2E2E2E20F0F0F0FE2E22DE2E2E2E2E2E2E2E2E2E2E2E2E2E2E20FE2E2E2E2F5E2E2E2E2F5F5F5E2E2BEE2E2F5F528E2E2E2E2F5E2E2E2E2E2E2E2E2E2E2E2F5E2E2E2E2E2E2E228E2E2F5E2E2E2E2E2E2E2E2E2E2E2E2E2E2E2E2E2E2E2
310
E2E2E2E2E2E2E2E2E2E2E2E2E2E2E2E2E2F5E2E2E2E2E2E20FE2E22DF5E2E2F5F5F5E2E2F5E2E2E2E2E22DE2E2E2E2E2E2E2E2E2E2E2E2E2E2E2E2E2E20F0F0F0F0FE2E2E2E2E2E2E2E2E2E2E2E2E2E2E2E2E2E2E2E2E2E2E2E2E2E2E2E2E2E22DE2E2E2E2E2E2E2E2E2E2E2E2E2E2E20FE2E2E2E2F5E2E2E2E228F5F5F5F5
310
F5F5F5F5F528E2E2E2E2F5E2E2E2E2E2E2E2E2E2E2E2F5E2E2E2E2E2E2E228E2E2F5E2E2E2E2E2E2E2E2E2E2E2E2E2E2E2E2E2E2E2E2E2E2E2E2E2E2E2E2E2E2E2E2E2E2E2E2F5E2E2E2E2E2E20FE2E22DF5E2E2F5F5F5E2E2F5E2E2E2E2E22DE2E2E2E2E2E2E2E2E2E2E2E2E2E2E2E2E2E2E2E2E2E2E2E2E2E2E2E2E2E2E2
310
E2E2E2E2E2E2E2E2E2E2E2E2E2E2E2E2E2E2E2E2E2E22DE2E2E2E2E2E2E2E2E2E2E2E2E2E2E20FE2E2E2E2F5E2E2E2E2E228F5F5F5F5F5F52828E2E2E2E2E2F5E2E2E2E2E2E2E2E2E2E2E2F52828280F28282828F5F5F5E2E2E2E2E2E2E2E2E2E2E2E2E2E2E2E2E2E2E2E2E2E2E2E2E2E2E2E2E2E2E2E2E2E2E2E2F5E2E2E2
310
E2E2E20FE2E22DF5E2E2F5F5F5E2E2F5E2E2E2E2E22DE2E2E2E2E2E2E2E2E2E2E2E2E2E2E2E2E2E2E2E2E2E2E2E2E2E2E2E2E2E2E2E2E2E2E2E2E2E2E2E2E2E2E2E2E2E2E2E2E2E2E2E2E22DE2E2E2E2E2E2E2E2E2E2E2E2E2E2E20FE2E2E2E2F5E2E2E2E2E2E2E22828282828E2E2E2E2E2E2F5F5E2E2E2E2E2E2E2E2E2E2
310
E2E2E2E20F0FE2E2E2F5F5F5F5E2E2E2E2E2E2E2E2E2E2E2E2E2E2E2E2E2E2E2E2E2E2E2E2E2E2E2E2E2E2E2E2E2E2E2F5E2E2E2E2E2E2E20FE2E22DF5E2E2F5F5F5E2E2F5E2E2E2E2E22DE2E2E2E2E2E2E2E2E2E2E2E2E2E2E2E2E2E2E2E2E2E2E2E2E2E2E2E2E2E2E2E2E2E2E2E2E2E2E2E2E2E2E2E2E2E2E2E2E2E2E2E2
310
E22DE2E2E2E2E2E2E2E2E2E2E2E2E2E2E20FE2E2E2E2E2F5F5E2E2E2E2E2E2E2BEE2E2E2E2E2E2F5F5E2E2E2E2E2E2E2E2E2E2E2E2E2E2E2E20FE2E2E2E2F5E2E2F5E2E2E2E2E2E2E2E2E2E2E2E2E2E2E2E2E2E2E2E2E2E2E2E2E2E2E2E2E2E2E2E2E2E2E2F5E2E2E2E2E2E2E20FE2E22DF5E2E2F5F5F5E2E2F5E2E2E2E2E2
310
2DE2E2E2E2E2E2E2E2E2E2E2E2E2E2E2E2E2E2E2E2E2E2E2E2E2E2E2E2E2E2E2E2E2E2E2E2E2E2E2E2E2E2E2E2E2E2E2E2E2E2E2E2E22DE2E2E2E2E2E2E2E2E2E2E2E2E2E2E20FE2E2E2E2E2E2E2F5F5E2E2E2E2E2BEE2E2E2E2F5F5E2E2E2E2E2E2E2E2E2E2E2E2E2E2E2E2E20FE2E2E2E2E2F5E2E2F5E2E2E2E2E2E2E2E2
310
E2E2E2E2E2E2E2E2E2E2E2E2E2E2E2E2E2E2E2E2E2E2E2E2E2E2E2F5E2E2E2E2E2E2E20FE2E22DF5E2E2F5F5F5E2E2F5E2E2E2E2E22DE2E2E2E2E2E2E2E2E2E2E2E2E2E2E2E2E2E2E2E2E2E2E2E2E2E2E2E2E2E2E2E2E2E2E2E2E2E2E2E2E2E2E2E2E2E2E2E2E2E2E2E2E22DE2E2E2E2E2E2E2E2E2E2E2E2E2E2E20FE2E2E2
310
E2E2E2E2E2E2F5F5E2E2E2BEE2E2E2F5E2E2E2E2E2E2E2E2E2E2E2E2E20F0F0F0F0F0F0FE2E2E2E2E2F5E2E2F5E2E2E2E2E2E2E2E2E2E2E2E2E2E2E2E2E2E2E2E2E2E2E2E2E2E2E2E2E2E2E2E2E20FF5E2E2E2E2E2E2E2E20F0FE22DF5E2E2F5F5F5E2E2F5E2E2E2E2E22DE2E2E2E2E2E2E2E2E2E2E2E2E2E2E2E2E2E2E2E2
310
E2E2E2E2E2E2E2E2E2E2E2E2E2E2E2E2E2E2E2E2E2E2E2E2E2E2E2E2E2E2E2E2E22DE2E2E2E2E2E2E2E2E2E2E2E2E2E2E20F0FE2E2E2E2E2E2E2E2E2E2F5F5E2BEE2F5F5E2E2E2E2E2E2E2E2E2E2E2E2E2E20F0F0F0F0F0FE2E2E2E2E2E2F5E2E2F5F5F5F5F5F5F5F5F5F5F5F5F5F5F5F5F5F5F5F5F5F5F5F5F5F5F5F5F5F5
310
F5F5F5F50F0F0F0F0F0F0F0F0F0F0F0FE22DF5E2E2F5F5F5E2E2F5E2E2E2E2E22DE2E2E2E2E2E2E2E2E2E2E2E2E2E2E2E2E2E2E2E2E2E2E2E2E2E2E2E2E2E2E2E2E2E2E2E2E2E2E2E2E2E2E2E2E2E2E2E2E2E2E2E2E22DE2E2E2E2E2E2E2E2E2E2E2E2E2E2E20F0F0F0F0F0F0F0F0F0F0F0F0F0F0FF5F5E2E2E2E2E2E2E2E2
310
E2E2E2E2E2E2E2E2E2E2E2E2E2E2E2E2E2E2E2E2F5F5F5F5E2E2E2E2E2E2E2E2E2E2E2E2E2E2E2E2E2E2E2E2E2E2E2E2E2E2E2E2E2E2E2E2E2E20FE2E2E2E2E2E2E2E2E2E2E22DF5E2E2F5F5F5E2E2F5E2E2E2E2E22DE2F5F5F5F5F5F5F5F5F5F5F5F5F5E2E2E2E2E2E2E2E2E2E2E2E2E2E2E2E2E2E2E2E2E2E2E2E2E2E2E2
310
E2E2E2E2E2E2E2E2E2E2E2E22DE2F5F5F5F5F5F5E2E2F5F5F5F5E2E2E2E2E2E2E2E2E2E2E2E2E2E2E2E2E2BEE2E2E2E2E2E2E2E2E2E2E2E2E2E2E2E2E2E2E2E2E2E2E2E2E2E2E2E2E2E2E2E2E2E2E2E2E2E2E2E2E2E2E2E2E2E2E2E2E2E2E2E2E2E2E2E2E2E2E2E2E2E2E2E2E2E2E2E20F0F0F0F0FE2E2E2E2E2E22DF5E2E2
310
F5F5F5E2E2E2E2E2E2E2E22DE2F5E2F5F5F5F5F5E2E2F5F5F5E2E2E2E2E2E2E2E2E2E2E2E2E2E2E2E2E2E2E2E2E2E2E2E2E2E2E2E2E2E2E2E2E2E2E2E2E2E2E2E22DE2F5F5F5F5E2F5F5F5F5F5F5F5E2E2E2E2E2E2E2E2E2E2E2E2E2E2E2E2E2BEE2E2E2E2E2E2E2E2E2E2E2E2E2E2E2E2E2E2E2E2E2E2E2E2E2E2E2E2E2E2
310
E2E2E2E2E2E2E2E2E2E2E2E2E2E2E2E2E2E2E2E2E2E2E2E2E2E2E2E2E2E2E2E2E2E2E2E2E2E2E20F0F0F0FE2E2E2E2E2E22DE2E2E2F5F5F5E2E2E2E2E2E2E2E22DE2E2E2E2E2E2E2E2E2E2E2E2E2E2E2E2E2E2E2E2E2E2E2E2E2E2E2E2E2E2E2E2E2E2E2E2E2E2E2E2E2E2E2E2E2E2E2E2E2E2E2E2E22DE2F5F5F5F5E2F5F5
310
E2E2F5F5E2E2E2E2E2E2E2E2E2E2E2E2E2E2E2E2E2E2E2E2E2E2E2E2E2E2E2E2E2E2E2E2E2E2E2E2E2E2E2E2E2E2E2E2E2E2E2E2E2E2E2E2E2E2E2E2E2E2E2E2E2E2E2E2E2E2E2E2E2E2E2E2E2E2E2E2E2E2E2E2E2E2E2E2E2E2E2E20F0F0F0FE2E2E2E2E2E22DE2E2E2F5F5F5E2E2E2E2E2E2E2E22DE2E2E2E2E2E2E2E2E2
310
E2E2E2E2E2E2E2E2E2E2E2E2E2E2E2E2E2E2E2E2E2E2E2E2E2E2E2E2E2E2E2E2E2E2E2E2E2E2E2E2E2E2E2E22DE2E2E2E2E2E2E2E2E2E2E2E2E2E2E2E2E2E2E2E2E2E2E2E2E2E2E2E2E2E2E2E2E2E2E2E2E2E2E2E2E2E2E2E2E2E2E2E2E2E2E2E2E2E2E2E2E2E2E2E2E2E2E2E2E2E2E2E2E2E2E2E2E2E2E2E2E2E2E2E2E2E2
310
E2E2E2E2E2E2E2E2E2E2E2E2E2E2E2E2E2E2E2E2E2E2E2E2E2E2E2E22DE2E2E2F5F5F5E2E2E2E2E2E2E2E22DE2E2E2E2E2E2E2E2E2E2E2E2E2E2E2E2E2E2E2E2E2E2E2E2E2E2E2E2E2E2E2E2E2E2E2E2E2E2E2E2E2E2E2E2E2E2E2E2E2E2E2E2E22DE2E2E2E2E2E2E2E2E2E2E2E2E2E2E2E2E2E2E2E2E2E2E2E2E2E2E2E2E2
310
E2E2E2E2E2E2E2E2E2E2E2E2E2E2E2E2E2E2E2E2E2E2E2E2E2E2E2E2E2E2E2E2E2E2E2E2E2E2E2E2E2E2E2E2E2E2E2E2E2E2E2E2E2E2E2E2E2E2E2E2E2E2E2E2E2E2E2E2E2E2E2E2E2E2E2E2E2E2E2E2E22DE2E2E2F5F5F5E2E2E2E2E2E2E2E22DE2E2E2E2E2E2E2E2E2E2E2E2E2E2E2E2E2E2E2E2E2E2E2E2E2E2E2E2E2E2
310
E2E2E2E2E2E2E2E2E2E2E2E2E2E2E2E2E2E2E2E2E2E2E22DE2E2E2E2E2E2E2E2E2E2E2E2E2E2E2E2E2E2E2E2E2E2E2E2E2E2E2E2E2E2E2E2E2E2E2E2E2E2E2E2E2E2E2E2E2E2E2E2E2E2E2E2E2E2E2E2E2E2E2E2E2E2E2E2E2E2E2E2E2E2E2E2E2E2E2E2E2E2E2E2E2E2E2E2E2E2E2E2E2E2E2E2E2E2E2E2E2E2E2E2E2E2E2
310
E2E2E2E2E2E2E22DE2E2E2F5F5F5E2E2E2E2E2E2E2E22DE2E2E2E2E2E2E2E2E2E2E2E2E2E2E2E2E2E2E2E2E2E2E2E2E2E2E2E2E2E2E2E2E2E2E2E2E2E2E2E2E2E2E2E2E2E2E2E2E2E2E2E2E22DE2E2E2E2E2E2E2E2E2E2E2E2E2E2E2E2E2E2E2E2E2E2E2E2E2E2E2E2E2E2E2E2E2E2E2E2E2E2E2E2E2E2E2E2E2E2E2E2E2E2
310
E2E2E2E2E2E2E2E2E2E2E2E2E2E2E2E2E2E2E2E2E2E2E2E2E2E2E2E2E2E2E2E2E2E2E2E2E2E2E2E2E2E2E2E2E2E2E2E2E2E2E2E2E2E2E2E2E2E2E2E22DE2E2E2F5F5F5E2E2E2E2E2E2E2E22D2D2D2D2D2D2D2D2D2D2D2D2D2D2D2D2D2D2D2D2D2D2D2D2D2D2D2D2D2D2D2D2D2D2D2D2D2D2D2D2D2D2D2D2D2D2D2D2D2D2D2D
310
2D2D2D2D2D2D2D2D2D2D2D2D2D2D2D2D2D2D2D2D2D2D2D2D2D2D2D2D2D2D2D2D2D2D2D2D2D2D2D2D2D2D2D2D2D2D2D2D2D2D2D2D2D2D2D2D2D2D2D2D2D2D2D2D2D2D2D2D2D2D2D2D2D2D2D2D2D2D2D2D2D2D2D2D2D2D2D2D2D2D2D2D2D2D2D2D2D2D2D2D2D2D2D2D2D2D2D2D2D2D2D2D2D2DE2E2E2F5F5F5E2E2E2E2E2E2E2
310
E22DE2E2E2E2E2E2E2E2E2E2E2E2E2E2E2E2E2E2E2E2E2E2E2E2E2E2E2E2E2E2E2E2E2E2E2E2E2E2E2E2E22DE2E2E2E2E2E2E2E2E2E2E2E2E2E2E2E2E2E2E2E2E2E2E2E2E2E2E2E2E2E2E2E2E2E2E2E2E2E2E2E2E2E2E2E2E2E2E2E2E2E2E2E2E2E2E2E2E2E2E2E2E2E2E2E22DE2E2E2E2E2E2E2E2E2E2E2E2E2E2E2E2E2E2
310
E2E2E2E2E2E2E2E2E2E2E2E2E2E2E2E2E2E2E2E2E2E2E2E2E2E2E2E2E2E2E2E2E2E2E2E2E2E2E22DE2E2E2F5F5F5E2E2E2E2E2E2E2E22DE2E2E2E2E2E2E2E2E2E2E2E2E2E2E2E2E20FE2E2E2E2E2E2E2E2E2E2E2E2E20FE2E2E2E2E2E2E2E2E22DE2E2E2E2E2E2E2E2E2E2E2E2E2E2E2E2E2E2E2E2E2E2E2E2E2E20F0F0F0F
310
0F0F0F0F0F0F0F0F0F0F0F0F0F0FE2E2E2E2E2E2E2E2E2E2E2E2E2E2E2E2E2E2E2E22DE2E2E2E2E2E2E2E2E2E2E2E2E2E2E2E2E2E2E2E2E2E2E2E20F0FE2E2E2E2E2E2E2E2E2E2E2E2E2E2E2E2E2E2E2E2E20F0FE2E2E2E2E2E2E2E22DE2E2E2F5F5F5E2E2F5E2E2E2E2E22DE2E2E2E2E2E2E2E2E2E2E2E2E2E2E2E2E20F0F
310
0F0F0F0F0F0F0F0F0F0F0F0F0FE2E2E2E2E2E2E2E2E22DE2E2E2E2E2E2E2E2E2E2E2E2E2E2E2E2E2E2E2E2E2E2E2E2E2E20FE2E2E2E2E2E20F0F0F0FE2E2E2E2E2E20FE2E2E2E2E2E2E2E2E2E2E2E2E2E2E2E2E2E2E2E22DE2E2E2E2E2E2E2E2E2E2E2E2E2E2E2E2E2E2E2E2E2E2E2E20F0F0F0F0F0F0F0F0F0F0F0F0F0F0F
310
0F0F0F0F0F0F0F0F0F0FE2E2E2E2E2E2E2E22DF5E2E2F5F5F5E2E2F5E2E2E2E2E22DE2E2E2E2E2E2E2E2E2E2E2E2E2E2E2E2E20FE2E2E2E2E20F0F0FE2E2E2E2E20FE2E2E2E2E2E2E2E2E22DE2E2E2E2E2E2E2E2E2E2E2E2E2E2E2E2E2E2E2E2E2E2E2E2E2E20FE2E2E2E2E2E20F0F0F0FE2E2E2E2E2E20FE2E2E2E2E2E2E2
310
E2E2E2E2E2E2E2E2E2E2E2E2E22DE2E2E2E2E2E2E2E2E2E2E2E2E2E2E2E2E2E2E2E2E2E2E2E20FE2E2E2E2E2E2E2E2E2E2E20F0FE2E2E2E2E2E2E2E2E2E20FE2E2E2E2E2E2E2E22DF5E2E2F5F5F5E2E2F5E2E2E2E2E22DE2E2E2E2E2E2E2E2E2E2E2E2E2E2E2E2E20FE2E2E2E2E20F0FE2E2E2E2E2E20FE2E2E2E2E2E2E2E2
310
E22DE2E2E2E2E2E2E2E2E2E2E2E2E2E2E2E2E2E2E2E2E2E2E2E2E2E20F0F0F0FE2E2E2E2E2E2E2E2E2E2E2E2E20FE2E2E2E2E2E2E2E2E2E2E2E2E2E2E2E2E2E2E2E22DE2E2E2E2E2E2E2E2E2E2E2E2E2E2E2E2E2E2E2E2E2E2E2E20FE2E2E2E20FE2E2E2E2E2E2E2E2E2E2E2E2E2E2E2E2E2E20FE2E2E2E2E2E2E2E22DF5E2
310
E2F5F5F5E2E2F5E2E2E2E2E22DE2E2E2E2E2E2E2E2E2E2E2E20F0F0F0F0F0F0F0F0F0F0FE2E2E2E2E2E2E2E20FE2E2E2E2E2E2E2E2E22DE2E2E2E2E2E2E2E2E2E2E2E2E2E2E2E2E2E2E2E2E2E2E2E2E2E20F0F0F0FE2E2E2E2E2E2E2E2E2E2E2E2E20FE2E2E2E2E2E2E2E2E2E2E2E2E2E2E2E2E2E2E2E22DE2E2E2E2E2E2E2
310
E2E2E2E2E2E2E2E2E2E2E2E2E2E2E2E2E20F0F0F0F0F0FE2E2E2E2E2E2E2E2E2E2E2E2E2E2E2E2E2E20FE2E2E2E2E2E2E2E22DF5E2E2F5F5F5E2E2F5E2E2E2E2E22DE2E2E2E2E2E2E2E2E2E2E2E20F0F0FE2E20FE20FE2E2E2E2E2E2E2E2E2E2E20FE2E2E2E2E2E2E2E2E22DE2E2E2E2E2E2E2E2E2E2E2E2E2E2E2E2E2E2E2
310
E2E2E2E2E2E2E20F0F0F0FE2E2E2E2E2E2E2E2E2E2E2E2E20FE2E2E2E2E2E2E2E2E2E2E2E2E2E2E2E2E2E2E2E22DE2E2E2E2E2E2E2E2E2E2E2E2E2E2E2E2E2E2E2E2E2E2E2E20F0F0F0F0F0FE2E2E2E2E2E2E2E2E2E2E2E2E2E2E2E2E2E20FE2E2E2E2E2E2E2E22DF5E2E2F5F5F5E2E2F5E2E2E2E2E22DE2E2E2E2E2E2E2E2
310
E2E2E2E20F0F0FE2E20FE20FE2E2E2E2E2E2E2E2E2E2E20FE2E2E2E2E2E2E2E2E22DE2E2E2E2E2E2E2E2E2E2E2E2E2E2E2E2E2E2E2E2E2E2E2E2E2E20FE2E20FE2E2E2E2E2E2E2E2E2E2E2E2E20FE2E2E2E2E2E2E2E2E2E2E2E2E2E2E2E2E2E2E2E22DE2E2E2E2E2E2E2E2E2E2E2E2E2BEE2E2E2E2E2E2E2E2E2E20F0F0F0F
310
0F0FE2E2E2E2E2E2E2E2E2E2E2E2E2E2E2E2E2E20FE2E2E2E2E2E2E2E22DF5E2E2F5F5F5E2E2F5E2E2E2E2E22DE2E2E2E2E2E2E2BEE2E2E2E2E2E2E2E2E20FE20FE2E2E2E2E2E2E2E2E2E2E20FE2E2E2E2E2E2E2E2E22DE2E2E2E2E2E2E2E2F5F5F5F5F5E2E2E2E2E2E2E2E2E2E2E2E2E20FE2E20FF5F5F5F5F5F5F5F5F5F5
310
F5F50F0F0F0F0F0FE2E2E2E2E2E2E2E2E2E2E2E2E2E2E2E22DE2E2E2E2E2E2E2E2E2E2E2F5F5F5F5F5E2E2E2E2E2E2E2E20FE2E2E2E20FF5F5F5F5F5F5F5F5F5F5F5F5F5F5F5F50F0F0F0F0F0F0F0FE2E2E22DF5E2E2F5F5F5E2E2F5E2E2E2E2E22DE2E2E2E2E2F5F5F5F5F5E2E2E2E2E2E2E20FE20FF5F5F5F5F5F5F5F5F5
310
0F0F0F0F0F0F0FE2E2E2E2E22DE2E2E2E2E2E2E2F5F528F528F5F5E2E2E2E2E2E2E2E2E2E2E2E20FF5F528E2E2E2E2E2E2E2E2E2E2E2E2E20FE2E2E20FE2E2E2E2E2E2E2E2E2E2E2E2E2E2E2E22DE2E2E2E2E2E2E2E2E2F5F5E2E2BEE2E2F5F5E2E2E2E2E2E20FE2E2E2E2F5E2E2E2E2E2E2E2E2E2E2E2E2E2E2E2E2E2E20F
310
E2E2E20FE2E2E2E22DF5E2E2F5F5F5E2E2F5E2E2E2E2E22DE2E2E2E2F5E2F5F5F5F5E2E2E2E2E2E2E20F2828E2E2E2E2E2E2E2E2E2E2E20FE2E2E20FE2E2E2E2E22DE2E2E2E2E2E2F5F5F5F5F5F5F5F5F5E2E2E2E2E2E2E2E2E2E2E20F282828E2E2E2E2E2E2E2E2E2E2E2E2E20FE20F0F0FE2E2E2E2E2E2E2E2E2E2E2E2E2
310
E2E2E22DE2E2E2E2E2E2E2E2E2F5E2F5F5F5F5F5E2F5F5E2E2E2E2E20F2828282828E2E2E2E2E2E2E2E2E2E2E2E2E2E2E2E2E2E20FE2E2E20FE2E2E2E22DF5E2E2F5F5F5E2E2F5E2E2E2E2E22DE2E2E2F5F5F5F5F5F5E2F5E2E2E2E2E2E2F5E228E2E2E2E2E2E2E2E2E2E2E20FE20F0F0FE2E2E2E2E22DE2E2E2E2E2E2F5F5
310
F5F5BEF5F5F5F5E2E2E2E2E2E2E2E2E2E2E2F5E2E228E2E2E2E2E2E2E2E2E2E2E2E2E20FE20F0F0FE2E2E2E2E2E2E2E2E2E2E2E2E2E2E2E22DE2E2E2E2E2E2E2E2F5E2F5F5F5F5F5F5F5E2F5E2E2E2E2E2F528E2E2E228E2E2E2E2E2E2E2E2E2E2E2E2E2E2E2E2E2E20FE20F0F0FE2E2E2E22DF5E2E2F5F5F5E2E2F5E2E2E2
310
E2E22DE2E2E2F5BEF5F5BEF5F5F5E2E2E2E2E2BEF5BE28BEBEBEBEBEBEBEBEBEBEF50FBE0F0F0FE2E2E2E2E22DE2E2E2E2E2E2F5F5F5BEBEBEF5F5F5BEE2E2E2E2E2E2E2E2E2BEF5BEBE28BEBEBEBEBEBEBEBEBEBEBEBEBE0FBE0F0F0FE2E2E2E2E2E2E2E2E2E2E2E2E2E2E2E22DE2E2E2E2E2E2E2E2F5E2F5F5E2BEE2F5F5
310
E2F5E2E2E2E2E2F528E2E2E228E2E2E2E2E2E2E2E2E2E2E2E2E2E2E2E2E2E20FE20F0F0FE2E2E2E22DF5E2E2F5F5F5E2E2F5E2E2E2E2E22DE2E2E2F5E2F5F5F5F5E2F5E2E2E2E2E2E2F5E228E2E2E2E2E2E2E2E2E2E2E2F5E20F0F0FE2E2E2E2E22DE2E2E2E2E2E2F5F5F5F5BEF5F5F5F5E2E2E2E2E2E2E2E2E2E2E2F5E2E2
310
28E2E2E2E2E2E2E2E2E2E2E2E2E2F5E20F0F0FE2E2E2E2E2E2E2E2E2E2E2E2E2E2E2E22DE2E2E2E2E2E2E2BEF5BEF5F5BEBEBEBEF5BEF5BEE2E2E2BEF528BEBEBE28BEBEBEBEBEBEBEBEBEBEBEBEBEBEBEBEBEF50FBE0F0F0FE2E2E2E22DF5E2E2F5F5F5E2E2F5E2E2E2E2E22DE2E2E2E2F5E2F5F5F5F5F5E2E2E2E2E2E2F5
310
0F28E2E2E2E2E2E2E2E2E2E2E2F5E2E2E20FE2E2E2E2E22DE2E2E2E2E2E2F5F5F5F5F5F5F5F5F5E2E2E2E2E2E2E2E2E2E2E2F5E2E228E2E2E2E2E2E2E2E2E2E2E2E2E2F5E20F0F0FE2E2E2E2E2E2E2E2E2E2E2E2E2E2E2E22DE2E2E2E2E2E2E2E2F5E2F5F5E2BEE2F5F5E2F5E2E2E2E2E2F528E2E2E228E2E2E2E2E2E2E2E2
310
E2E2E2E2E2E2E2E2E2F5F5E2E20F0FE2E2E2E22DF5E2E2F5F5F5E2E2F5E2E2E2E2E22DE2E2E2E2E2F5F5F5F5F5E2E2E2E2E2E2E2E20FF5F5F5F5F5F5F5F5F5F50F0F0F0F0F0F0FE2E2E2E2E22DE2E2E2E2E2E2E2F5E2F5F5F5E2F5E2E2E2E2E2E2E2E2E2E2E2E2F50F2828E2E2E2E2E2E2E2E2E2E2E2E20FF5E2E2E20FE2E2
310
E2E2E2E2E2E2E2E2E2E2E2E2E2E22DE2E2E2E2E2E2E2E2F5E2F5F5F5BEF5F5F5E2F5E2E2E2E2E2F528E2E2E228E2E2E2E2E2E2E2E2E2E2E2E2E2E2E2E2E2E2F5E20F0F0FE2E2E2E22DF5E2E2F5F5F5E2E2F5E2E2E2E2E22DE2E2E2E2E2E2E2BEE2E2E2E2E2E2E2E2E2E20FE2E2E2E2E2E2E2E2E2E2E20FE2E2E2E2E2E2E2E2
310
E2E22DE2E2E2E2E2E2E2E2F5F5F5F5F5E2E2E2E2E2E2E2E2E2E2E2E2E2E20FE2F5F5F5F5F5F5F5F5F5F5F5F5F50F0F0F0F0F0FE2E2E2E2E2E2E2E2E2E2E2E2E2E2E2E22DE2E2E2E2E2E2E2E2E2F5E2F5F5F5F5F5E2F5F5E2E2E2E2E2F528280F2828E2E2E2E2E2E2E2E2E2E2E2E2E2E2E2E2E2E2F5E2E2E20FE2E2E2E22DF5
310
E2E2F5F5F5E2E2E2E2E2E2E2E22DE2E2E2E2E2E2E2E2E2E2E2E2E2E2E2E2E20FE2E2E2E2E2E2E2E2E2E2E2E20FE2E2E2E2E2E2E2E2E2E22DE2E2E2E2E2E2E2E2E2E2E2E2E2E2E2E2E2E2E2E2E2E2E2E2E2E20FE2E2E2E2E2E2E2E2E2E2E2E2E2E2E20F0FE2E2E2E2E2E2E2E2E2E2E2E2E2E2E2E2E2E2E2E22DE2E2E2E2E2E2
310
E2E2E2F5F5E2E2BEE2E2F5F5E2E2E2E2E2E2E2E20FE2E2F5E2E2E2E2E2E2E2E2E2E2E2E2E2E2E2E20FE2F5E2E2E20FE2E2E2E22DE2E2E2F5F5F5E2E2E2E2E2E2E2E22DE2E2E2E2E2E2E2E2E2E20F0F0F0F0F0F0F0FE2E2E2E2E2E2E2E2E2E2E2E20F0F0F0F0FE2E2E2E2E2E22DE2E2E2E2E2E2E2E2E2E2E2E2E2E2E2E2E2E2
310
E20F0F0F0F0F0F0FE2E2E2E2E2E2E2E2E2E2E2E2E2E2E2E2E20F0F0F0F0FE2E2E2E2E2E2E2E2E2E2E2E2E2E2E2E22DE2E2E2E2E2E2E2E2E2E2F5F5F5F5F5F5F5E2E2E2E2E2E2E2E2E20FE2E2F5F5F5F5F5F5F5F5F5F5F5F5F5F5F5F5F50F0F0F0F0F0F0F0FE2E2E22DE2E2E2F5F5F5E2E2E2E2E2E2E2E22DE2E2E2E2E2E2E2
310
E2E2E2E20F0F0F0F0F0FE2E2E2E2E2E2E2E2E2E2E2E2E2E20F0F0F0FE2E2E2E2E2E22DE2E2E2E2E2E2E2E2E2E2E2E2E2E2E2E2E2E2E2E20F0FE20F0F0FE2E2E2E2E2E2E2E2E2E2E2E2E2E2E2E2E2E20F0F0F0FE2E2E2E2E2E2E2E2E2E2E2E2E2E2E2E22DE2E2E2E2E2E2E2E2E2E2E2E2E2BEE2E2E2E2E2E2E2E2E2E2E20FE2
310
E2E2E2E2E2E2E2E2E2E2E2E2E2E2E2E2E2E2E2E20F0FE2E2E2E2E2E2E2E22DE2E2E2F5F5F5E2E2E2E2E2E2E2E22DE2E2E2E2E2E2E2E2E2E2E2E2E2E2E2E2E2E2E2E2E2E2E2E2E2E2E2E2E2E2E2E2E2E2E2E2E2E2E2E2E22DE2E2E2E2E2E2E2E2E2E2E2E2E2E2E2E2E2E2E2E20F0F0F0F0FE2E2E2E2E2E2E2E2E2E2E2E2E2E2
310
E2E2E2E2E20F0F0F0FE2E2E2E2E2E2E2E2E2E2E2E2E2E2E2E22DE2E2E2E2E2E2E2E2E2E2E2E2E2BEE2E2E2E20F0F0F0F0F0F0F0FE2E2E2E2E2E2E2E2E2E2E2E2E2E2E2E2E2E2E2E2E2E20F0F0F0F0FE2E2E2E22DE2E2E2F5F5F5E2E2E2E2E2E2E2E22DE2E2E2E2E2E2E2E2E2E2E2E2E2E2E2E2E2E2E2E2E2E2E2E2E2E2E2E2
310
E2E2E2E2E2E2E2E2E2E2E2E2E22DE2E2E2E2E2E2E2E2E2E2E2E2E2E2E2E2E2E2E2E2E2E2E2E2E2E2E2E2E2E2E2E2E2E2E2E2E2E2E2E2E2E2E2E2E2E2E2E2E2E2E2E2E2E2E2E2E2E2E2E2E2E2E2E22DE2E2E2E2E2E2E2E2E2E2E2E2E2E2E2E2E2E2E20F0F0F0F0F0FE2E2E2E2E2E2E2E2E2E2E2E2E2E2E2E2E2E2E2E2E2E2E2
310
0F0F0F0F0FE2E2E2E22DE2E2E2F5F5F5E2E2E2E2E2E2E2E22DE2E2E2E2E2E2E2E2E2E2E2E2E2E2E2E2E2E2E2E2E2E2E2E2E2E2E2E2E2E2E2E2E2E2E2E2E2E2E2E2E22DE2E2E2E2E2E2E2E2E2E2E2E2E2E2E2E2E2E2E2E2E2E2E2E2E2E2E2E2E2E2E2E2E2E2E2E2E2E2E2E2E2E2E2E2E2E2E2E2E2E2E2E2E2E2E2E2E2E2E2E2
310
E2E2E2E22DE2E2E2E2E2E2E2E2E2E2E2E2E2E2E2E2E2E2E20F0F0F0F0F0FE2E2E2E2E2E2E2E2E2E2E2E2E2E2E2E2E2E2E2E2E2E2E20F0F0F0F0FE2E2E2E22DE2E2E2F5F5F5E2E2E2E2E2E2E2E22DE2F5F5F5F5F5F5F5E2E2F5F5F5E2E2E2E2E2E2E2E2E2E2E2E2E2E2E2E2E2E2E2E2E2E2E2E2E2E2E2E22DE2E2E2E2F5F5F5
310
F5F5F5F5E2E2F5F5F5F5E2E2E2E2E2E2E2E2E2E2E2E2E2E2E2E2E2E2E2E2E2E2E2E2E2E2E2E2E2E2E2E2E2E2E2E2E2E2E2E2E2E2E2E2E2E2E22DF5F5F5F5F5F5F5E2E2F5F5F5E2E2E2E2E2E2E2E2E2E2E2E2E2E2E2E2E2E2E2E2E2E2E2E2E2E2E2E2E2E2E2E2E2E2E2E2E2E2E2E2E2E2E2E2E22DE2E2E2F5F5F5E2E2E2E2E2
310
E2E2E22DE2F5F5F5F5F5E2F5F5F5F5F5F5E2E2E2E2E2E2E2E2E2E2E2E2E2E2E2E2E2E2E2E2E2E2E2E2E2E2E2E22DE2E2E2E2F5F5F5F5F5E2F5F5F5F5F5F5E2E2E2E2E2E2E2E2E2E2E2E2E2E2E2E2E2E2E2E2E2E2E2E2E2E2E2E2E2E2E2E2E2E2E2E2E2E2E2E2E2E2E2E2E2E2E2E22DF5F5F5F5F5E2F5F5F5F5F5F5E2E2E2E2
310
E2E2E2E2E2E2E2E2E2E2E2E2E2E2E2E2E2E2E2E2E2E2E2E2E2E2E2E2E2E2E2E2E2E2E2E2E2E2E2E2E22DE2E2E2F5F5F5E2E2E2E2E2E2E2E22DE2F5E2F5F5F5F5F5E2E2F5F5F5E2E2E2E2E2E2E2E2E2E2E2E2E2E2E2E2E2E2E2E2E2E2E2E2E2E2E2E22DE2E2E2E2F5E2F5F5F5F5F5E2E2F5F5F5F5E2E2E2E2E2E2E2E2E2E2E2
310
E2E2E2E2E2E2E2E2E2E2E2E2E2E2E2E2E2E2E2E2E2E2E2E2E2E2E2E2E2E2E2E2E2E2E2E22DF5F5F5F5F5F5F5E2E2F5F5F5E2E2E2E2E2E2E2E2E2E2E2E2E2E2E2E2E2E2E2E2E2E2E2E2E2E2E2E2E2E2E2E2E2E2E2E2E2E2E2E2E2E2E2E2E22DE2E2E2F5F5F5E2E2F5E2E2E2E2E22DE2E2E2E2E2E2E2E2E2E2E2E2E2E2E2E2E2
310
E2E2E2E2E2E2E2E2E2E2E2E2E2E2E2E2E2E2E2E2E2E2E2E22DE2E2E2E2E2E2E2E2E2E2E2E2E2E2E2E2E2E2E2E2E2E2E2E2E2E2E2E2E2E2E2E2E2E2E2E2E2E2E2E2E2E2E2E2E2E2E2E2E2E2E2E2E2E2E2E2E2E2E2E2E2E2E2E22DE2E2E2E2E2E2E2E2E2E2E2E2E2E2E2E2E2E2E2E2E2E2E2E2E2E2E2E2E2E2E2E2E2E2E2E2E2
310
E2E2E2E2E2E2E2E2E2E2E2E2E2E2E2E2E2E2E2E22DF5E2E2F5F5F5E2E2F5E2E2E2E2E22D2D2D2D2D2D2D2D2D2D2D2D2D2D2D2D2D2D2D2D2D2D2D2D2D2D2D2D2D2D2D2D2D2D2D2D2D2D2D2D2D2D2D2D2D2D2D2D2D2D2D2D2D2D2D2D2D2D2D2D2D2D2D2D2D2D2D2D2D2D2D2D2D2D2D2D2D2D2D2D2D2D2D2D2D2D2D2D2D2D2D2D
310
2D2D2D2D2D2D2D2D2D2D2D2D2D2D2D2D2D2D2D2D2D2D2D2D2D2D2D2D2D2D2D2D2D2D2D2D2D2D2D2D2D2D2D2D2D2D2D2D2D2D2D2D2D2D2D2D2D2D2D2D2D2D2D2D2D2D2D2D2D2D2D2D2D2DF5E2E2F5F5F5E2E2F5E2E2E2E2E2E2E2E2E2E2E2E2E2E2E2E2E2E2E2E2E2E2E2E2E2E2E2E2E2E2E2E2E2E2E2E2E2E2E2E2E2E2E2E2
310
E2E2E2E2E2E2E2E2E2E2E2E2E2E2E2E2E2E2E2E2E2E2E2E2E2E2E2E2E2E2E2E2E2E2E2E2E2E2E2E2E2E2E2E2E2E2E2E2E2E2E2E2E2E2E2E2E2E2E2E2E2E2E2E2E2E2E2E2E2E2E2E2E2E2E2E2E2E2E2E2E2E2E2E2E2E2E2E2E2E2E2E2E2E2E2E2E2E2E2E2E2E2E2E2E2E2E2E2E2E2E2E2E2E2E2E2E2E2E2E2E2E2E2E2E2E2E2
310
F5E2E2F5F5F5E2E2F5E2E2E2E2E2E2E2E2E2E2E2E2E2E2E2E2E2E2E2E2E2E2E2E2E2E2E2E2E2E2E2E2E2E2E2E2E2E2E2E2E2E2E2E2E2E2E2E2E2E2E2E2E2E2E2E2E2E2E2E2E2E2E2E2E2E2E2E2E2E2E2E2E2E2E2E2E2E2E2E2E2E2E2E2E2E2E2E2E2E2E2E2E2E2E2E2E2E2E2E2E2E2E2E2E2E2E2E2E2E2E2E2E2E2E2E2E2E2
310
E2E2E2E2E2E2E2E2E2E2E2E2E2E2E2E2E2E2E2E2E2E2E2E2E2E2E2E2E2E2E2E2E2E2E2E2E2E2E2E2E2E2E2E2E2E2E2E2E2E2E2E2E2F5E2E2F5F5F5E2E2F5E2E2E2E2E2E2E2E2E2E2E2E2E2E2E2E2E2E2E2E2E2E2E2E2E2E2E2E2E2E2E2E2E2E2E2E2E2E2E2E2E2E2E2E2E2E2E2E2E2E2E2E2E2E2E2E2E2E2E2E2E2E2E2E2E2
310
E2E2E2E2E2E2E2E2E2E2E2E2E2E2E2E2E2E2E2E2E2E2E2E2E2E2E2E2E2E2E2E2E2E2E2E2E2E2E2E2E2E2E2E2E2E2E2E2E2E2E2E2E2E2E2E2E2E2E2E2E2E2E2E2E2E2E2E2E2E2E2E2E2E2E2E2E2E2E2E2E2E2E2E2E2E2E2E2E2E2E2E2E2E2E2E2E2E2E2E2E2E2E2E2E2E2F5E2E2F5F5F5E2E2F5E2E2E2E2E2E2E2E2E2E2E2E2
310
E2E2E2E2E2E2E2E2E2E2E2E2E2E2E2E2E2E2E2E2E2E2E2E2E2E2E2E2E2E2E2E2E2E2E2E2E2E2E2E2E2E2E2E2E2E2E2E2E2E2E2E2E2E2E2E2E2E2E2E2E2E2E2E2E2E2E2E2E2E2E2E2E2E2E2E2E2E2E2E2E2E2E2E2E2E2E2E2E2E2E2E2E2E2E2E2E2E2E2E2E2E2E2E2E2E2E2E2E2E2E2E2E2E2E2E2E2E2E2E2E2E2E2E2E2E2E2
310
E2E2E2E2E2E2E2E2E2E2E2E2E2E2E2E2E2E2E2E2E2E2E2E2E2E2E2E2E2E2E2E2F5E2E2F5F5F5E2E2F5E2E2E2E2E2E2E2E2E2E2E2E2E2E2E2E2E2E2E2E2E2E2E2E2E2E2E2E2E2E2E2E2E2E2E2E2E2E2E2E2E2E2E2E2E2E2E2E2E2E2E2E2E2E2E2E2E2E2E2E2E2E2E2E2E2E2E2E2E2E2E2E2E2E2E2E2E2E2E2E2E2E2E2E2E2E2
310
E2E2E2E2E2E2E2E2E2E2E2E2E2E2E2E2E2E2E2E2E2E2E2E2E2E2E2E2E2E2E2E2E2E2E2E2E2E2E2E2E2E2E2E2E2E2E2E2E2E2E2E2E2E2E2E2E2E2E2E2E2E2E2E2E2E2E2E2E2E2E2E2E2E2E2E2E2E2E2E2E2E2E2E2E2F5E2E2F5F5F5E2E2F5F5F5F5F5F5F5F5E2E2E2E2E2E2E2E2E2F5F5F5F5F5F5F5F5F5F5F5F5F5F5F5F5E2
310
E2E2E2E2E2E2E2E2F5F5F5F5F5F5F5F5F5F5F5F5F5F5F5F5E2E2E2E2E2E2E2E2F5F5F5F5F5F5F5F5F5F5F5F5F5F5F5F5E2E2E2E2E2E2E2E2E2F5F5F5F5F5F5F5F5F5F5F5F5F5F5F5F5E2E2E2E2E2E2E2E2F5F5F5F5F5F5F5F5F5F5F5F5F5F5F5F5E2E2E2E2E2E2E2E2E2F5F5F5F5F5F5F5F5F5F5F5F5F5F5F5F5E2E2E2E2E2
310
E2E2E2E2F5F5F5F5F5F5F5F5E2E2F5F5F5E2E2E2E2E2E2E2E2E2E2E2E2E2E2E2E2E2E2E2E2E2E2E2E2E2E2E2E2E2E2E2E2E2E2E2E2E2E2E2E2E2E2E2E2E2E2E2E2E2E2E2E2E2E2E2E2E2E2E2E2E2E2E2E2E2E2E2E2E2E2E2E2E2E2E2E2E2E2E2E2E2E2E2E2E2E2E2E2E2E2E2E2E2E2E2E2E2E2E2E2E2E2E2E2E2E2E2E2E2E2
310
E2E2E2E2E2E2E2E2E2E2E2E2E2E2E2E2E2E2E2E2E2E2E2E2E2E2E2E2E2E2E2E2E2E2E2E2E2E2E2E2E2E2E2E2E2E2E2E2E2E2E2E2E2E2E2E2E2E2E2E2E2E2E2E2E2E2E2F5F5F5E2E2E2E2E2E2E2E2E2E2E2E2E2E2E2E2E2E2E2E2E2E2E2E2E2E2E2E2E2E2E2E2E2E2E2E2E2E2E2E2E2E2E2E2E2E2E2E2E2E2E2E2E2E2E2E2E2
310
E2E2E2E2E2E2E2E2E2E2E2E2E2E2E2E2E2E2E2E2E2E2E2E2E2E2E2E2E2E2E2E2E2E2E2E2E2E2E2E2E2E2E2E2E2E2E2E2E2E2E2E2E2E2E2E2E2E2E2E2E2E2E2E2E2E2E2E2E2E2E2E2E2E2E2E2E2E2E2E2E2E2E2E2E2E2E2E2E2E2E2E2E2E2E2E2E2E2E2E2E2E2E2E2E2E2E2E2E2E2E2E2E2E2E2E2E2E2E2E2F5EFF5F5F5F5F5
310
F5F5F5F5F5F5F5F5F5F5F5F5F5F5F5F5F5F5F5F5F5F5F5F5F5F5F5F5F5F5F5F5F5F5F5F5F5F5F5F5F5F5F5F5F5F5F5F5F5F5F5F5F5F5F5F5F5F5F5F5F5F5F5F5F5F5F5F5F5F5F5F5F5F5F5F5F5F5F5F5F5F5F5F5F5F5F5F5F5F5F5F5F5F5F5F5F5F5F5F5F5F5F5F5F5F5F5F5F5F5F5F5F5F5F5F5F5F5F5F5F5F5F5F5F5F5F5
310
F5F5F5F5F5F5F5F5F5F5F5F5F5F5F5F5F5F5F5F5F5F5F5F5F5F5F5F5F5F5F5F5F5F5F5F5F5F5F5F5F5F5F5F5F5F5F5EF
  0
ENDSEC
  0
EOF
